  0
SECTION
  2
HEADER
  9
$ACADVER
  1
AC1015
  9
$ACADMAINTVER
 70
    20
  9
$DWGCODEPAGE
  3
ANSI_932
  9
$INSBASE
 10
0.0
 20
0.0
 30
0.0
  9
$EXTMIN
 10
-203.6359380367985
 20
-0.0340952926926548
 30
-0.0015258207003583
  9
$EXTMAX
 10
420.0496701726888
 20
297.1471306458807
 30
0.0000000349246037
  9
$LIMMIN
 10
-1207.468050814234
 20
-4523.809200058368
  9
$LIMMAX
 10
-19.46805081423372
 20
-3683.809200058368
  9
$ORTHOMODE
 70
     0
  9
$REGENMODE
 70
     1
  9
$FILLMODE
 70
     1
  9
$QTEXTMODE
 70
     0
  9
$MIRRTEXT
 70
     0
  9
$LTSCALE
 40
1.0
  9
$ATTMODE
 70
     1
  9
$TEXTSIZE
 40
3.2
  9
$TRACEWID
 40
1.0
  9
$TEXTSTYLE
  7
STANDARD
  9
$CLAYER
  8
AM_6
  9
$CELTYPE
  6
ByLayer
  9
$CECOLOR
 62
   256
  9
$CELTSCALE
 40
1.0
  9
$DISPSILH
 70
     0
  9
$DIMSCALE
 40
1.0
  9
$DIMASZ
 40
2.5
  9
$DIMEXO
 40
1.0
  9
$DIMDLI
 40
10.0
  9
$DIMRND
 40
0.0
  9
$DIMDLE
 40
0.0
  9
$DIMEXE
 40
1.0
  9
$DIMTP
 40
0.1
  9
$DIMTM
 40
0.1
  9
$DIMTXT
 40
3.5
  9
$DIMCEN
 40
0.0
  9
$DIMTSZ
 40
0.0
  9
$DIMTOL
 70
     0
  9
$DIMLIM
 70
     0
  9
$DIMTIH
 70
     0
  9
$DIMTOH
 70
     0
  9
$DIMSE1
 70
     0
  9
$DIMSE2
 70
     0
  9
$DIMTAD
 70
     1
  9
$DIMZIN
 70
     8
  9
$DIMBLK
  1

  9
$DIMASO
 70
     1
  9
$DIMSHO
 70
     1
  9
$DIMPOST
  1

  9
$DIMAPOST
  1
"
  9
$DIMALT
 70
     0
  9
$DIMALTD
 70
     2
  9
$DIMALTF
 40
0.0393701
  9
$DIMLFAC
 40
1.0
  9
$DIMTOFL
 70
     1
  9
$DIMTVP
 40
0.0
  9
$DIMTIX
 70
     0
  9
$DIMSOXD
 70
     0
  9
$DIMSAH
 70
     0
  9
$DIMBLK1
  1

  9
$DIMBLK2
  1

  9
$DIMSTYLE
  2
SYS
  9
$DIMCLRD
 70
   256
  9
$DIMCLRE
 70
   256
  9
$DIMCLRT
 70
     7
  9
$DIMTFAC
 40
0.71
  9
$DIMGAP
 40
1.5
  9
$DIMJUST
 70
     0
  9
$DIMSD1
 70
     0
  9
$DIMSD2
 70
     0
  9
$DIMTOLJ
 70
     0
  9
$DIMTZIN
 70
     8
  9
$DIMALTZ
 70
     0
  9
$DIMALTTZ
 70
     0
  9
$DIMUPT
 70
     0
  9
$DIMDEC
 70
     1
  9
$DIMTDEC
 70
     3
  9
$DIMALTU
 70
     2
  9
$DIMALTTD
 70
     4
  9
$DIMTXSTY
  7
STANDARD
  9
$DIMAUNIT
 70
     0
  9
$DIMADEC
 70
     0
  9
$DIMALTRND
 40
0.0
  9
$DIMAZIN
 70
     2
  9
$DIMDSEP
 70
    46
  9
$DIMATFIT
 70
     3
  9
$DIMFRAC
 70
     0
  9
$DIMLDRBLK
  1

  9
$DIMLUNIT
 70
     2
  9
$DIMLWD
 70
    -1
  9
$DIMLWE
 70
    -1
  9
$DIMTMOVE
 70
     0
  9
$LUNITS
 70
     2
  9
$LUPREC
 70
     2
  9
$SKETCHINC
 40
1.0
  9
$FILLETRAD
 40
2.6
  9
$AUNITS
 70
     0
  9
$AUPREC
 70
     0
  9
$MENU
  1
.
  9
$ELEVATION
 40
0.0
  9
$PELEVATION
 40
0.0
  9
$THICKNESS
 40
0.0
  9
$LIMCHECK
 70
     0
  9
$CHAMFERA
 40
0.0
  9
$CHAMFERB
 40
0.0
  9
$CHAMFERC
 40
20.0
  9
$CHAMFERD
 40
0.0
  9
$SKPOLY
 70
     0
  9
$TDCREATE
 40
2452002.615067627
  9
$TDUCREATE
 40
2452002.240067627
  9
$TDUPDATE
 40
2456339.597030336
  9
$TDUUPDATE
 40
2456339.222030336
  9
$TDINDWG
 40
9.4696478819
  9
$TDUSRTIMER
 40
9.4696478819
  9
$USRTIMER
 70
     1
  9
$ANGBASE
 50
0.0
  9
$ANGDIR
 70
     0
  9
$PDMODE
 70
     0
  9
$PDSIZE
 40
0.0
  9
$PLINEWID
 40
0.0
  9
$SPLFRAME
 70
     0
  9
$SPLINETYPE
 70
     6
  9
$SPLINESEGS
 70
     8
  9
$HANDSEED
  5
65131
  9
$SURFTAB1
 70
     6
  9
$SURFTAB2
 70
     6
  9
$SURFTYPE
 70
     6
  9
$SURFU
 70
     6
  9
$SURFV
 70
     6
  9
$UCSBASE
  2

  9
$UCSNAME
  2

  9
$UCSORG
 10
0.0
 20
0.0
 30
0.0
  9
$UCSXDIR
 10
1.0
 20
0.0
 30
0.0
  9
$UCSYDIR
 10
0.0
 20
1.0
 30
0.0
  9
$UCSORTHOREF
  2

  9
$UCSORTHOVIEW
 70
     0
  9
$UCSORGTOP
 10
0.0
 20
0.0
 30
0.0
  9
$UCSORGBOTTOM
 10
0.0
 20
0.0
 30
0.0
  9
$UCSORGLEFT
 10
0.0
 20
0.0
 30
0.0
  9
$UCSORGRIGHT
 10
0.0
 20
0.0
 30
0.0
  9
$UCSORGFRONT
 10
0.0
 20
0.0
 30
0.0
  9
$UCSORGBACK
 10
0.0
 20
0.0
 30
0.0
  9
$PUCSBASE
  2

  9
$PUCSNAME
  2

  9
$PUCSORG
 10
0.0
 20
0.0
 30
0.0
  9
$PUCSXDIR
 10
1.0
 20
0.0
 30
0.0
  9
$PUCSYDIR
 10
0.0
 20
1.0
 30
0.0
  9
$PUCSORTHOREF
  2

  9
$PUCSORTHOVIEW
 70
     0
  9
$PUCSORGTOP
 10
0.0
 20
0.0
 30
0.0
  9
$PUCSORGBOTTOM
 10
0.0
 20
0.0
 30
0.0
  9
$PUCSORGLEFT
 10
0.0
 20
0.0
 30
0.0
  9
$PUCSORGRIGHT
 10
0.0
 20
0.0
 30
0.0
  9
$PUCSORGFRONT
 10
0.0
 20
0.0
 30
0.0
  9
$PUCSORGBACK
 10
0.0
 20
0.0
 30
0.0
  9
$USERI1
 70
     0
  9
$USERI2
 70
     0
  9
$USERI3
 70
     0
  9
$USERI4
 70
     0
  9
$USERI5
 70
     0
  9
$USERR1
 40
0.0
  9
$USERR2
 40
0.0
  9
$USERR3
 40
0.0
  9
$USERR4
 40
0.0
  9
$USERR5
 40
0.0
  9
$WORLDVIEW
 70
     1
  9
$SHADEDGE
 70
     3
  9
$SHADEDIF
 70
    70
  9
$TILEMODE
 70
     1
  9
$MAXACTVP
 70
    64
  9
$PINSBASE
 10
0.0
 20
0.0
 30
0.0
  9
$PLIMCHECK
 70
     0
  9
$PEXTMIN
 10
1.000000000000000E+20
 20
1.000000000000000E+20
 30
1.000000000000000E+20
  9
$PEXTMAX
 10
-1.000000000000000E+20
 20
-1.000000000000000E+20
 30
-1.000000000000000E+20
  9
$PLIMMIN
 10
-3.17498779296875
 20
-3.174999952316284
  9
$PLIMMAX
 10
293.4970092773438
 20
206.692492723465
  9
$UNITMODE
 70
     0
  9
$VISRETAIN
 70
     1
  9
$PLINEGEN
 70
     0
  9
$PSLTSCALE
 70
     1
  9
$TREEDEPTH
 70
  3020
  9
$CMLSTYLE
  2
Standard
  9
$CMLJUST
 70
     0
  9
$CMLSCALE
 40
20.0
  9
$PROXYGRAPHICS
 70
     1
  9
$MEASUREMENT
 70
     1
  9
$CELWEIGHT
370
    -1
  9
$ENDCAPS
280
     0
  9
$JOINSTYLE
280
     0
  9
$LWDISPLAY
290
     0
  9
$INSUNITS
 70
     4
  9
$HYPERLINKBASE
  1

  9
$STYLESHEET
  1
monochrome.ctb
  9
$XEDIT
290
     1
  9
$CEPSNTYPE
380
     0
  9
$PSTYLEMODE
290
     1
  9
$FINGERPRINTGUID
  2
{83FB3AA1-FF18-4BFE-AFE0-611B71DE056D}
  9
$VERSIONGUID
  2
{FBCA4135-9E36-47E0-9AB0-787BE8B41983}
  9
$EXTNAMES
290
     1
  9
$PSVPSCALE
 40
0.0
  9
$OLESTARTUP
290
     0
  0
ENDSEC
  0
SECTION
  2
CLASSES
  0
CLASS
  1
ACDBDICTIONARYWDFLT
  2
AcDbDictionaryWithDefault
  3
ObjectDBX Classes
 90
        0
280
     0
281
     0
  0
CLASS
  1
ACDBPLACEHOLDER
  2
AcDbPlaceHolder
  3
ObjectDBX Classes
 90
        0
280
     0
281
     0
  0
CLASS
  1
LAYOUT
  2
AcDbLayout
  3
ObjectDBX Classes
 90
        0
280
     0
281
     0
  0
CLASS
  1
AMGSETTINGSOBJ
  2
AmgSettingsObj
  3
"AcadM|Product Description: AutoCAD Mechanical|Company: Autodesk"
 90
        0
280
     0
281
     0
  0
CLASS
  1
ACME_DOCUMENT
  2
AcMeDbDoc
  3
AcMeServices
 90
        0
280
     0
281
     0
  0
CLASS
  1
ACMESCOPE
  2
AcMeScope
  3
AcMeServices
 90
        0
280
     0
281
     0
  0
CLASS
  1
ACMECOMMANDHISTORY
  2
AcMeCommandHistory
  3
AcMeServices
 90
        0
280
     0
281
     0
  0
CLASS
  1
DICTIONARYVAR
  2
AcDbDictionaryVar
  3
ObjectDBX Classes
 90
        0
280
     0
281
     0
  0
CLASS
  1
ACIMSYSVARMAN
  2
AcImSysVarManager
  3
AcMeServices
 90
        0
280
     0
281
     0
  0
CLASS
  1
ACIMREALSYSVAR
  2
AcImRealSysVar
  3
AcMeServices
 90
        0
280
     0
281
     0
  0
CLASS
  1
ACIMINTSYSVAR
  2
AcImIntSysVar
  3
AcMeServices
 90
        0
280
     0
281
     0
  0
CLASS
  1
ACMEDRAWINGMAN
  2
AcMeDrawingMan
  3
AcMeServices
 90
        0
280
     0
281
     0
  0
CLASS
  1
ACMEVIEW
  2
AcMeView
  3
AcMeServices
 90
        0
280
     0
281
     0
  0
CLASS
  1
ACDBENTITYCACHE
  2
AcMeEntityCache
  3
AcMeServices
 90
        0
280
     0
281
     0
  0
CLASS
  1
GSMANAGER
  2
AcMeGSManager
  3
AcMeServices
 90
        0
280
     0
281
     0
  0
CLASS
  1
AMDTINTERNALREACTOR
  2
AmdtInternalReactor
  3
AcMeServices
 90
        0
280
     0
281
     0
  0
CLASS
  1
ACMESTATEMGR
  2
AcMeStateMgr
  3
AcMeServices
 90
        0
280
     0
281
     0
  0
CLASS
  1
ACGREFMASTER
  2
AcGrefMaster
  3
AcAttribServices
 90
        0
280
     0
281
     0
  0
CLASS
  1
ACME_DATABASE
  2
AcMeDbDatabase
  3
AcMeServices
 90
        0
280
     0
281
     0
  0
CLASS
  1
ACRFINSADJUSTERMGR
  2
AcRfInsAdjusterMgr
  3
AcMeServices
 90
        0
280
     0
281
     0
  0
CLASS
  1
ACGREFACADMASTER
  2
AcGrefacadMaster
  3
AcGrefServices
 90
        0
280
     0
281
     0
  0
CLASS
  1
AMIMASTER
  2
AmiMaster
  3
AmiServices
 90
        0
280
     0
281
     0
  0
CLASS
  1
ACMDATADICTIONARY
  2
AcmDataDictionary
  3
"AcmSymBB|Product Description: AutoCAD Mechanical|Company: Autodesk"
 90
        0
280
     0
281
     0
  0
CLASS
  1
ACMDATAENTRYBLOCK
  2
AcmDataEntryBlock
  3
"AcmSymBB|Product Description: AutoCAD Mechanical|Company: Autodesk"
 90
    32768
280
     0
281
     0
  0
CLASS
  1
ACIMSTRSYSVAR
  2
AcImStrSysVar
  3
AcMeServices
 90
        0
280
     0
281
     0
  0
CLASS
  1
ACMSTANDARDISO
  2
AcmStandardISO
  3
"Amdt_StdImp|Product Description: AutoCAD Mechanical|Company: Autodesk"
 90
        0
280
     0
281
     0
  0
CLASS
  1
AMGOBJPROPCFG
  2
AmgObjPropCfg
  3
"AmgLay|Product Description: AutoCAD Mechanical|Company: Autodesk"
 90
        1
280
     0
281
     0
  0
CLASS
  1
AMDTEDGESTANDARDISO
  2
AmdtEdgeStdISO
  3
"Amdt_StdImp|Product Description: AutoCAD Mechanical|Company: Autodesk"
 90
    32768
280
     0
281
     0
  0
CLASS
  1
ACMSURFSTANDARDISO
  2
AcmSurfTextStdISO
  3
"Amdt_StdImp|Product Description: AutoCAD Mechanical|Company: Autodesk"
 90
        0
280
     0
281
     0
  0
CLASS
  1
ACMFCFSTANDARDISO
  2
AcmFCFStdISO
  3
"Amdt_StdImp|Product Description: AutoCAD Mechanical|Company: Autodesk"
 90
        0
280
     0
281
     0
  0
CLASS
  1
ACMWELDSTANDARDISO
  2
AcmWeldingStdISO
  3
"Amdt_StdImp|Product Description: AutoCAD Mechanical|Company: Autodesk"
 90
        0
280
     0
281
     0
  0
CLASS
  1
ACMIDSTANDARDISO
  2
AcmIdStdISO
  3
"Amdt_StdImp|Product Description: AutoCAD Mechanical|Company: Autodesk"
 90
        0
280
     0
281
     0
  0
CLASS
  1
ACMDATUMSTANDARDISO
  2
AcmDatumStdISO
  3
"Amdt_StdImp|Product Description: AutoCAD Mechanical|Company: Autodesk"
 90
        0
280
     0
281
     0
  0
CLASS
  1
ACMBOMSTANDARDISO
  2
AcmBOMStdISO
  3
"Amdt_StdImp|Product Description: AutoCAD Mechanical|Company: Autodesk"
 90
        0
280
     0
281
     0
  0
CLASS
  1
ACMDETAILSTANDARDISO
  2
AmdtDetailSymStdISO
  3
"Amdt_StdImp|Product Description: AutoCAD Mechanical|Company: Autodesk"
 90
        0
280
     0
281
     0
  0
CLASS
  1
ACMSECTIONSTANDARDISO
  2
AmdtSectionSymStdISO
  3
"Amdt_StdImp|Product Description: AutoCAD Mechanical|Company: Autodesk"
 90
        0
280
     0
281
     0
  0
CLASS
  1
ACMCENTERLINESTANDARDISO
  2
AmdtCenterLineStdISO
  3
"Amdt_StdImp|Product Description: AutoCAD Mechanical|Company: Autodesk"
 90
        0
280
     0
281
     0
  0
CLASS
  1
ACAMGLAYSTD
  2
AcAmgLayStd
  3
"AmgLay|Product Description: AutoCAD Mechanical|Company: Autodesk"
 90
        0
280
     0
281
     0
  0
CLASS
  1
ACAMGDIMSTD
  2
AcAmgDimStd
  3
"AmgDim|Product Description: AutoCAD Mechanical|Company: Autodesk"
 90
        0
280
     0
281
     0
  0
CLASS
  1
ACAMGTITLESTD
  2
AcAmgTitleStd
  3
"AmgTitle|Product Description: AutoCAD Mechanical|Company: Autodesk"
 90
        0
280
     0
281
     0
  0
CLASS
  1
ACAMGFILTERDAT
  2
AcAmgFilterDat
  3
"AcadM|Product Description: AutoCAD Mechanical|Company: Autodesk"
 90
    32768
280
     0
281
     0
  0
CLASS
  1
LAYER_INDEX
  2
AcDbLayerIndex
  3
ObjectDBX Classes
 90
    32768
280
     0
281
     0
  0
CLASS
  1
IDBUFFER
  2
AcDbIdBuffer
  3
ObjectDBX Classes
 90
    32768
280
     0
281
     0
  0
CLASS
  1
PLOTSETTINGS
  2
AcDbPlotSettings
  3
ObjectDBX Classes
 90
        0
280
     0
281
     0
  0
CLASS
  1
AMDTFORMULAUPDATEDISPATCHER
  2
AmdtFormulaUpdateDispatcher
  3
AcMeServices
 90
    32768
280
     0
281
     0
  0
CLASS
  1
ACMSTANDARDANSI
  2
AcmStandardANSI
  3
"Amdt_StdImp|Product Description: AutoCAD Mechanical|Company: Autodesk"
 90
    32768
280
     0
281
     0
  0
CLASS
  1
ACMSURFSTANDARDANSI
  2
AcmSurfTextStdANSI
  3
"Amdt_StdImp|Product Description: AutoCAD Mechanical|Company: Autodesk"
 90
    32768
280
     0
281
     0
  0
CLASS
  1
ACMFCFSTANDARDANSI
  2
AcmFCFStdANSI
  3
"Amdt_StdImp|Product Description: AutoCAD Mechanical|Company: Autodesk"
 90
    32768
280
     0
281
     0
  0
CLASS
  1
ACMWELDSTANDARDANSI
  2
AcmWeldingStdANSI
  3
"Amdt_StdImp|Product Description: AutoCAD Mechanical|Company: Autodesk"
 90
    32768
280
     0
281
     0
  0
CLASS
  1
ACMIDSTANDARDANSI
  2
AcmIdStdANSI
  3
"Amdt_StdImp|Product Description: AutoCAD Mechanical|Company: Autodesk"
 90
    32768
280
     0
281
     0
  0
CLASS
  1
ACMDATUMSTANDARDANSI
  2
AcmDatumStdANSI
  3
"Amdt_StdImp|Product Description: AutoCAD Mechanical|Company: Autodesk"
 90
    32768
280
     0
281
     0
  0
CLASS
  1
ACMBOMSTANDARDANSI
  2
AcmBOMStdANSI
  3
"Amdt_StdImp|Product Description: AutoCAD Mechanical|Company: Autodesk"
 90
    32768
280
     0
281
     0
  0
CLASS
  1
ACMDETAILSTANDARDANSI
  2
AmdtDetailSymStdANSI
  3
"Amdt_StdImp|Product Description: AutoCAD Mechanical|Company: Autodesk"
 90
    32768
280
     0
281
     0
  0
CLASS
  1
ACMSECTIONSTANDARDANSI
  2
AmdtSectionSymStdANSI
  3
"Amdt_StdImp|Product Description: AutoCAD Mechanical|Company: Autodesk"
 90
    32768
280
     0
281
     0
  0
CLASS
  1
ACMCENTERLINESTANDARDANSI
  2
AmdtCenterLineStdANSI
  3
"Amdt_StdImp|Product Description: AutoCAD Mechanical|Company: Autodesk"
 90
    32768
280
     0
281
     0
  0
CLASS
  1
ACMBOM
  2
AcmBom
  3
"AcmSymBB|Product Description: AutoCAD Mechanical|Company: Autodesk"
 90
    32768
280
     0
281
     0
  0
CLASS
  1
ACMDATAENTRYPART
  2
AcmDataEntryPart
  3
"AcmSymBB|Product Description: AutoCAD Mechanical|Company: Autodesk"
 90
    32768
280
     0
281
     0
  0
CLASS
  1
ACMPARTREF
  2
AcmPartRef
  3
"AcmSymBB|Product Description: AutoCAD Mechanical|Company: Autodesk"
 90
    35839
280
     0
281
     1
  0
CLASS
  1
ACDBCIRCARCRES
  2
AcDbCircArcRes
  3
AcGrefServices
 90
    32768
280
     0
281
     0
  0
CLASS
  1
ACMBOMROW
  2
AcmBomRow
  3
"AcmSymBB|Product Description: AutoCAD Mechanical|Company: Autodesk"
 90
    32768
280
     0
281
     0
  0
CLASS
  1
ACMBALLOON
  2
AcmBalloon
  3
"AcmSymBB|Product Description: AutoCAD Mechanical|Company: Autodesk"
 90
    35839
280
     0
281
     1
  0
CLASS
  1
AMDTNOTE
  2
AmdtNote
  3
"AcmSymBB|Product Description: AutoCAD Mechanical|Company: Autodesk"
 90
    35839
280
     0
281
     1
  0
CLASS
  1
STDPART2D
  2
AmgStdPart
  3
"AmgStdPart|Product Description: AutoCAD Mechanical|Company: Autodesk"
 90
    35839
280
     0
281
     1
  0
CLASS
  1
ACDBSTDPARTRES_LINE
  2
AcDbStdPartRes_Line
  3
"AmgStdPart|Product Description: AutoCAD Mechanical|Company: Autodesk"
 90
    32768
280
     0
281
     0
  0
CLASS
  1
ACMDATAENTRY
  2
AcmDataEntry
  3
"AcmSymBB|Product Description: AutoCAD Mechanical|Company: Autodesk"
 90
    32768
280
     0
281
     0
  0
CLASS
  1
ACDBOPPOLYLINERES
  2
AcDbOpPolylineRes
  3
AcGrefServices
 90
    32768
280
     0
281
     0
  0
CLASS
  1
ACMPARTLIST
  2
AcmPartList
  3
"AcmSymBB|Product Description: AutoCAD Mechanical|Company: Autodesk"
 90
    35839
280
     0
281
     1
  0
CLASS
  1
ACDBLINERES
  2
AcDbLineRes
  3
AcGrefServices
 90
    32768
280
     0
281
     0
  0
CLASS
  1
ACRFINSADJ
  2
AcRfInsAdjuster
  3
AcMeServices
 90
    32768
280
     0
281
     0
  0
CLASS
  1
AM_DRAWING_MGR
  2
AcDmDwgMgr
  3
AcMechDwgViewMgmt
 90
        0
280
     0
281
     0
  0
CLASS
  1
AM_DWG_DOCUMENT
  2
AcDmDwgDocument
  3
AcMechDwgViewMgmt
 90
        0
280
     0
281
     0
  0
CLASS
  1
AM_DWG_SHEET
  2
AcDmSheet
  3
AcMechDwgViewMgmt
 90
        0
280
     0
281
     0
  0
CLASS
  1
AM_VIEWDIMPARMAP
  2
AcDmViewDimParMap
  3
AcMechDwgViewMgmt
 90
        0
280
     0
281
     0
  0
CLASS
  1
AM_DWGMGR_NAME
  2
AcDmDwgMgrName
  3
AcMechDwgViewMgmt
 90
        0
280
     0
281
     0
  0
CLASS
  1
AMDTMENUSTATEMGR
  2
AmdtMenuStateMgr
  3
McadcomServices
 90
        0
280
     0
281
     0
  0
CLASS
  1
AMDTMCOMMENUSTATE
  2
AmdtMcomMenuState
  3
McadcomServices
 90
        0
280
     0
281
     0
  0
CLASS
  1
ASAPP
  2
AcAsAppObject
  3
AutoSurfServices
 90
        0
280
     0
281
     0
  0
CLASS
  1
IM_STATIC_MAN
  2
AcImStaticVarManager
  3
AcMeServices
 90
        0
280
     0
281
     0
  0
CLASS
  1
ACIMDBLSTATICVAR
  2
AcImDblStaticVar
  3
AcMeServices
 90
    32768
280
     0
281
     0
  0
CLASS
  1
ACIMSTRSTATICVAR
  2
AcImStrStaticVar
  3
AcMeServices
 90
    32768
280
     0
281
     0
  0
CLASS
  1
ACIMINTSTATICVAR
  2
AcImIntStaticVar
  3
AcMeServices
 90
    32768
280
     0
281
     0
  0
CLASS
  1
ACASGREFMASTER
  2
AcAsGrefMaster
  3
AutoSurfResolverServices
 90
        0
280
     0
281
     0
  0
CLASS
  1
ACADGREFMODULE
  2
AcAdGrefModule
  3
AdGrefServices
 90
        0
280
     0
281
     0
  0
CLASS
  1
AMDTMAPISURFMOUDULE
  2
AmdtMApiSurfModule
  3
MApiSurfServices
 90
        0
280
     0
281
     0
  0
CLASS
  1
MAPIAMMOUDLE
  2
MApiAmModule
  3
MApiAmServices
 90
        0
280
     0
281
     0
  0
CLASS
  1
AMDTADMENUSTATE
  2
AmdtAdMenuState
  3
DesignerServices
 90
        0
280
     0
281
     0
  0
CLASS
  1
ADAPPL
  2
AcAdAppl
  3
DesignerServices
 90
        0
280
     0
281
     0
  0
CLASS
  1
DEPMGR
  2
AcAdDepMgr
  3
DesignerServices
 90
        0
280
     0
281
     0
  0
CLASS
  1
PARAMMGR
  2
AcAdParamMgr
  3
DesignerServices
 90
        0
280
     0
281
     0
  0
CLASS
  1
PARAMSCOPE
  2
AcAdParamScope
  3
DesignerServices
 90
        0
280
     0
281
     0
  0
CLASS
  1
NAMEDAPPL
  2
AcAdNamedAppl
  3
DesignerServices
 90
        0
280
     0
281
     0
  0
CLASS
  1
ADHNTMPLT
  2
AdHoleNoteTemplateMgr
  3
DesignerServices
 90
    32768
280
     0
281
     0
  0
CLASS
  1
AM_HNTEMPLATE_MGR_NAME
  2
AdHoleNoteTemplateMgrName
  3
DesignerServices
 90
    32768
280
     0
281
     0
  0
CLASS
  1
AMDTDMMENUSTATE
  2
AmdtDmMenuState
  3
AcMechDwgViewMgmt
 90
        0
280
     0
281
     0
  0
CLASS
  1
MAPIADMODULE
  2
MApiAdModule
  3
MApiAdServices
 90
        0
280
     0
281
     0
  0
CLASS
  1
AMDTAMMENUSTATE
  2
AmdtAmMenuState
  3
DesignerAssemblies
 90
        0
280
     0
281
     0
  0
CLASS
  1
ACAMPROJECT
  2
AcAmProject
  3
DesignerAssemblies
 90
        0
280
     0
281
     0
  0
CLASS
  1
ACAMGRCOMPDEF
  2
AcAmGrCompDef
  3
DesignerAssemblies
 90
        0
280
     0
281
     0
  0
CLASS
  1
ACCMCONTEXT
  2
AcCmContext
  3
DesignerAssemblies
 90
        0
280
     0
281
     0
  0
CLASS
  1
ACAMCOMPDEF
  2
AcAmCompDef
  3
DesignerAssemblies
 90
        0
280
     0
281
     0
  0
CLASS
  1
ACAMCOMPDEFMGR
  2
AcAmCompDefMgr
  3
DesignerAssemblies
 90
        0
280
     0
281
     0
  0
CLASS
  1
AMCONTEXTMGR
  2
AcAmContextMgr
  3
DesignerAssemblies
 90
        0
280
     0
281
     0
  0
CLASS
  1
ACAMCONTEXTMODELER
  2
AcAmContextModeler
  3
DesignerAssemblies
 90
        0
280
     0
281
     0
  0
CLASS
  1
CATALOGSTATE
  2
AcAmCatalogState
  3
DesignerAssemblies
 90
        0
280
     0
281
     0
  0
CLASS
  1
ACAMGRCOMPDEFSET
  2
AcAmGrCompDefSet
  3
DesignerAssemblies
 90
        0
280
     0
281
     0
  0
CLASS
  1
AMDTBROWSERDBTAB
  2
AmdtBrowserDbTab
  3
McadcomServices
 90
        0
280
     0
281
     0
  0
CLASS
  1
CBROWSERAPPOBJECT
  2
CBrowserAppObject
  3
McadcomServices
 90
        0
280
     0
281
     0
  0
CLASS
  1
DM_PLACEHOLDER
  2
AcDmSelsetPlaceholder
  3
AcMechDwgViewMgmt
 90
        0
280
     0
281
     0
  0
CLASS
  1
ACMPICKOBJ
  2
AcmPickEnt
  3
"AcmSymBB|Product Description: AutoCAD Mechanical|Company: Autodesk"
 90
    32768
280
     0
281
     1
  0
CLASS
  1
MATERIAL
  2
AcDbMaterial
  3
ObjectDBX Classes
 90
     1153
280
     0
281
     0
  0
CLASS
  1
VISUALSTYLE
  2
AcDbVisualStyle
  3
ObjectDBX Classes
 90
     4095
280
     0
281
     0
  0
CLASS
  1
TABLESTYLE
  2
AcDbTableStyle
  3
ObjectDBX Classes
 90
     4095
280
     0
281
     0
  0
CLASS
  1
ACRFATTGENMGR
  2
AcRfAttGeneralMgr
  3
AcAttribServices
 90
    32768
280
     0
281
     0
  0
CLASS
  1
ACRFOBJATTMGR
  2
AcRfObjAttGroupMgr
  3
AcAttribServices
 90
    32768
280
     0
281
     0
  0
CLASS
  1
ACRFMCADAPIATTHOLDER
  2
AcRfMCADAPIAttHolder
  3
AcAttribServices
 90
    32768
280
     0
281
     0
  0
CLASS
  1
AMDTSYSATTR
  2
AmdtSystemAttribute
  3
AcAttribServices
 90
    32768
280
     0
281
     0
  0
CLASS
  1
ACMTHREADLINESTANDARDISO
  2
AmdtThreadLineStdISO
  3
"Amdt_StdImp|Product Description: AutoCAD Mechanical|Company: Autodesk"
 90
        0
280
     0
281
     0
  0
CLASS
  1
ACMNOTESTANDARDISO
  2
AmdtNoteStdISO
  3
"Amdt_StdImp|Product Description: AutoCAD Mechanical|Company: Autodesk"
 90
        0
280
     0
281
     0
  0
CLASS
  1
AMDTNOTETEMPLATEDB
  2
AmdtNoteTemplateDB
  3
AMDT_STDIMP_MODULE_NAME
 90
        0
280
     0
281
     0
  0
CLASS
  1
ACMTAPERSTANDARDISO
  2
AcmTaperStdISO
  3
"Amdt_StdImp|Product Description: AutoCAD Mechanical|Company: Autodesk"
 90
        0
280
     0
281
     0
  0
CLASS
  1
ACMTHREADLINESTANDARDANSI
  2
AmdtThreadLineStdANSI
  3
"Amdt_StdImp|Product Description: AutoCAD Mechanical|Company: Autodesk"
 90
    32768
280
     0
281
     0
  0
CLASS
  1
ACMNOTESTANDARDANSI
  2
AmdtNoteStdANSI
  3
"Amdt_StdImp|Product Description: AutoCAD Mechanical|Company: Autodesk"
 90
    32768
280
     0
281
     0
  0
CLASS
  1
ACMTAPERSTANDARDANSI
  2
AcmTaperStdANSI
  3
"Amdt_StdImp|Product Description: AutoCAD Mechanical|Company: Autodesk"
 90
    32768
280
     0
281
     0
  0
CLASS
  1
CAMSSTRUCTBTNSTATE
  2
StructBtnState
  3
L"DesignerAssemblies"
 90
        0
280
     0
281
     0
  0
CLASS
  1
SORTENTSTABLE
  2
AcDbSortentsTable
  3
ObjectDBX Classes
 90
        0
280
     0
281
     0
  0
CLASS
  1
DIMASSOC
  2
AcDbDimAssoc
  3
"AcDbDimAssoc|Product Desc:     AcDim ARX App For Dimension|Company:          Autodesk, Inc.|WEB Address:      www.autodesk.com"
 90
        0
280
     0
281
     0
  0
CLASS
  1
AMDTEDGESTANDARDISO13715
  2
AmdtEdgeStdISO13715
  3
"Amdt_StdImp|Product Description: AutoCAD Mechanical|Company: Autodesk"
 90
        0
280
     0
281
     0
  0
CLASS
  1
ACAMGHOLECHARTSTDISO
  2
AcAmgHoleChartStdISO
  3
ACMSYMBB_MODULE_NAME
 90
        0
280
     0
281
     0
  0
ENDSEC
  0
SECTION
  2
TABLES
  0
TABLE
  2
VPORT
  5
8
330
0
100
AcDbSymbolTable
 70
     1
  0
VPORT
  5
C444
330
8
100
AcDbSymbolTableRecord
100
AcDbViewportTableRecord
  2
*Active
 70
     0
 10
0.0
 20
0.0
 11
1.0
 21
1.0
 12
196.7663447260233
 22
144.522910896655
 13
0.0
 23
0.0
 14
2.5
 24
2.5
 15
10.0
 25
10.0
 16
0.0
 26
0.0
 36
1.0
 17
0.0
 27
0.0
 37
0.0
 40
329.1224844176704
 41
1.902843601895734
 42
50.0
 43
-1370.695619172058
 44
-1370.695619172058
 50
0.0
 51
0.0
 71
    16
 72
   100
 73
     1
 74
     3
 75
     0
 76
     0
 77
     0
 78
     0
281
     0
 65
     0
110
0.0
120
0.0
130
0.0
111
1.0
121
0.0
131
0.0
112
0.0
122
1.0
132
0.0
 79
     0
146
0.0
  0
ENDTAB
  0
TABLE
  2
LTYPE
  5
5
330
0
100
AcDbSymbolTable
 70
    36
  0
LTYPE
  5
14
330
5
100
AcDbSymbolTableRecord
100
AcDbLinetypeTableRecord
  2
ByBlock
 70
     0
  3

 72
    65
 73
     0
 40
0.0
  0
LTYPE
  5
15
330
5
100
AcDbSymbolTableRecord
100
AcDbLinetypeTableRecord
  2
ByLayer
 70
     0
  3

 72
    65
 73
     0
 40
0.0
  0
LTYPE
  5
16
330
5
100
AcDbSymbolTableRecord
100
AcDbLinetypeTableRecord
  2
Continuous
 70
     0
  3
Solid line
 72
    65
 73
     0
 40
0.0
  0
LTYPE
  5
4F
330
5
100
AcDbSymbolTableRecord
100
AcDbLinetypeTableRecord
  2
AM_ISO02W050
 70
     0
  3
__ __ __ __ __ __ __ __ __ __ __ __ __ __ __
 72
    65
 73
     2
 40
7.5
 49
6.0
 74
     0
 49
-1.5
 74
     0
  0
LTYPE
  5
52
330
5
100
AcDbSymbolTableRecord
100
AcDbLinetypeTableRecord
  2
Amconstr
 70
     0
  3
_______________________
 72
    65
 73
     2
 40
9999.0
 49
9999.0
 74
     0
 49
0.0
 74
     0
  0
LTYPE
  5
64
330
5
100
AcDbSymbolTableRecord
100
AcDbLinetypeTableRecord
  2
ACISOWELD
 70
     0
  3
_ _ _ _ _
 72
    65
 73
     2
 40
2.0
 49
2.0
 74
     0
 49
-1.0
 74
     0
  0
LTYPE
  5
65
330
5
100
AcDbSymbolTableRecord
100
AcDbLinetypeTableRecord
  2
ACISOTGB
 70
     0
  3
__ . . __ . .
 72
    65
 73
     6
 40
9.0
 49
4.0
 74
     0
 49
-1.0
 74
     0
 49
1.0
 74
     0
 49
-1.0
 74
     0
 49
1.0
 74
     0
 49
-1.0
 74
     0
  0
LTYPE
  5
66
330
5
100
AcDbSymbolTableRecord
100
AcDbLinetypeTableRecord
  2
ACISOTGL
 70
     0
  3
_ _ _ _ _
 72
    65
 73
     2
 40
3.0
 49
2.0
 74
     0
 49
-1.0
 74
     0
  0
LTYPE
  5
69
330
5
100
AcDbSymbolTableRecord
100
AcDbLinetypeTableRecord
  2
CENTER
 70
     0
  3
__ . __
 72
    65
 73
     4
 40
7.0
 49
4.0
 74
     0
 49
-1.0
 74
     0
 49
1.0
 74
     0
 49
-1.0
 74
     0
  0
LTYPE
  5
A6E
330
5
100
AcDbSymbolTableRecord
100
AcDbLinetypeTableRecord
  2
PHANTOM2
 70
     0
  3
Phantom (.5x) ___ _ _ ___ _ _ ___ _ _ ___ _ _
 72
    65
 73
     6
 40
31.75
 49
15.875
 74
     0
 49
-3.174999999999999
 74
     0
 49
3.174999999999999
 74
     0
 49
-3.174999999999999
 74
     0
 49
3.174999999999999
 74
     0
 49
-3.174999999999999
 74
     0
  0
LTYPE
  5
FA3
330
5
100
AcDbSymbolTableRecord
100
AcDbLinetypeTableRecord
  2
ACANSTGB
 70
     0
  3
__ . . __ . .
 72
    65
 73
     6
 40
0.35433070866
 49
0.15748031496
 74
     0
 49
-0.03937007874
 74
     0
 49
0.03937007874
 74
     0
 49
-0.03937007874
 74
     0
 49
0.03937007874
 74
     0
 49
-0.03937007874
 74
     0
  0
LTYPE
  5
FA4
330
5
100
AcDbSymbolTableRecord
100
AcDbLinetypeTableRecord
  2
ACANSTGL
 70
     0
  3
_ _ _ _ _
 72
    65
 73
     2
 40
0.11811023622
 49
0.07874015748
 74
     0
 49
-0.03937007874
 74
     0
  0
LTYPE
  5
4DED
330
5
100
AcDbSymbolTableRecord
100
AcDbLinetypeTableRecord
  2
中線
 70
     0
  3
___________________
 72
    65
 73
     2
 40
2.0
 49
1.0
 74
     0
 49
1.0
 74
     0
  0
LTYPE
  5
4DF6
330
5
100
AcDbSymbolTableRecord
100
AcDbLinetypeTableRecord
  2
細線
 70
     0
  3
___________________
 72
    65
 73
     2
 40
2.0
 49
1.0
 74
     0
 49
1.0
 74
     0
  0
LTYPE
  5
4DF7
330
5
100
AcDbSymbolTableRecord
100
AcDbLinetypeTableRecord
  2
太線
 70
     0
  3
___________________
 72
    65
 73
     2
 40
2.0
 49
1.0
 74
     0
 49
1.0
 74
     0
  0
LTYPE
  5
4EA7
330
5
100
AcDbSymbolTableRecord
100
AcDbLinetypeTableRecord
  2
文字
 70
     0
  3
_________________
 72
    65
 73
     2
 40
2.0
 49
1.0
 74
     0
 49
1.0
 74
     0
  0
LTYPE
  5
4EA9
330
5
100
AcDbSymbolTableRecord
100
AcDbLinetypeTableRecord
  2
寸法線
 70
     0
  3
________________
 72
    65
 73
     2
 40
2.0
 49
1.0
 74
     0
 49
1.0
 74
     0
  0
LTYPE
  5
4F12
330
5
100
AcDbSymbolTableRecord
100
AcDbLinetypeTableRecord
  2
ハッチング
 70
     0
  3
_________________
 72
    65
 73
     2
 40
2.0
 49
1.0
 74
     0
 49
1.0
 74
     0
  0
LTYPE
  5
5180
330
5
100
AcDbSymbolTableRecord
100
AcDbLinetypeTableRecord
  2
陰線1
 70
     0
  3
__ __ __ __
 72
    65
 73
     2
 40
4.0
 49
2.2
 74
     0
 49
-1.8
 74
     0
  0
LTYPE
  5
5182
330
5
100
AcDbSymbolTableRecord
100
AcDbLinetypeTableRecord
  2
切断線
 70
     0
  3
/\/-/\/-/\/-/\/-/\/-/\/
 72
    65
 73
     2
 40
11.0001
 49
0.0001
 74
     4
 75
   135
340
56
 46
0.04
 50
0.0
 44
0.0
 45
0.0
 49
-11.0
 74
     0
  0
LTYPE
  5
5183
330
5
100
AcDbSymbolTableRecord
100
AcDbLinetypeTableRecord
  2
想像線1
 70
     0
  3
__ __ __ _____ __ __ ____
 72
    65
 73
     6
 40
14.5
 49
6.0
 74
     0
 49
-1.5
 74
     0
 49
2.0
 74
     0
 49
-1.5
 74
     0
 49
2.0
 74
     0
 49
-1.5
 74
     0
  0
LTYPE
  5
5185
330
5
100
AcDbSymbolTableRecord
100
AcDbLinetypeTableRecord
  2
中心線1
 70
     0
  3
___ _ ___ _ ___
 72
    65
 73
     4
 40
18.0
 49
12.0
 74
     0
 49
-2.0
 74
     0
 49
2.0
 74
     0
 49
-2.0
 74
     0
  0
LTYPE
  5
5188
330
5
100
AcDbSymbolTableRecord
100
AcDbLinetypeTableRecord
  2
補助線
 70
     0
  3
______________
 72
    65
 73
     2
 40
2.0
 49
1.0
 74
     0
 49
1.0
 74
     0
  0
LTYPE
  5
C49C
330
5
100
AcDbSymbolTableRecord
100
AcDbLinetypeTableRecord
  2
HIDDEN
 70
     0
  3
Hidden __ __ __ __ __ __ __ __ __ __ __ __ __ _
 72
    65
 73
     2
 40
9.524999999999998
 49
6.349999999999999
 74
     0
 49
-3.174999999999999
 74
     0
  0
LTYPE
  5
C543
330
5
100
AcDbSymbolTableRecord
100
AcDbLinetypeTableRecord
  2
AM_ISO08W050
 70
     0
  3
____ . ____ . ____ . ____ . ____ . ____ . ____
 72
    65
 73
     4
 40
18.0
 49
12.0
 74
     0
 49
-1.5
 74
     0
 49
3.0
 74
     0
 49
-1.5
 74
     0
  0
LTYPE
  5
C544
330
5
100
AcDbSymbolTableRecord
100
AcDbLinetypeTableRecord
  2
AM_ISO09W050
 70
     0
  3
_____ . . _____ . . _____ . . ____ .. ____
 72
    65
 73
     6
 40
22.5
 49
12.0
 74
     0
 49
-1.5
 74
     0
 49
3.0
 74
     0
 49
-1.5
 74
     0
 49
3.0
 74
     0
 49
-1.5
 74
     0
  0
LTYPE
  5
C545
330
5
100
AcDbSymbolTableRecord
100
AcDbLinetypeTableRecord
  2
AM_ISO08W050x2
 70
     0
  3
__ . __ . __ . __ . __ . __
 72
    65
 73
     4
 40
9.0
 49
6.0
 74
     0
 49
-0.75
 74
     0
 49
1.5
 74
     0
 49
-0.75
 74
     0
  0
LTYPE
  5
C546
330
5
100
AcDbSymbolTableRecord
100
AcDbLinetypeTableRecord
  2
AM_ISO02W050x2
 70
     0
  3
 _ _ _ _ _ _ _ _ _ _ _ _
 72
    65
 73
     2
 40
3.75
 49
3.0
 74
     0
 49
-0.75
 74
     0
  0
LTYPE
  5
C547
330
5
100
AcDbSymbolTableRecord
100
AcDbLinetypeTableRecord
  2
Amzigzag
 70
     0
  3
/\/-/\/-/\/-/\/-/\/-/\/
 72
    65
 73
     2
 40
11.0001
 49
0.0001
 74
     4
 75
   135
340
56
 46
0.04
 50
0.0
 44
0.0
 45
0.0
 49
-11.0
 74
     0
  0
LTYPE
  5
C7E7
330
5
100
AcDbSymbolTableRecord
100
AcDbLinetypeTableRecord
  2
genzigzag
 70
     0
  3
/\/-/\/-/\/-/\/-/\/-/\/
 72
    65
 73
     2
 40
12.0001
 49
0.0001
 74
     4
 75
   135
340
C7EB
 46
2.0
 50
0.0
 44
0.0
 45
0.0
 49
-12.0
 74
     0
  0
LTYPE
  5
E598
330
5
100
AcDbSymbolTableRecord
100
AcDbLinetypeTableRecord
  2
BORDER
 70
     0
  3
__ __ . __ __ . __ __ . __ __ . __ __ . __ __ .
 72
    65
 73
     6
 40
8.75
 49
2.5
 74
     0
 49
-1.25
 74
     0
 49
2.5
 74
     0
 49
-1.25
 74
     0
 49
0.0
 74
     0
 49
-1.25
 74
     0
  0
LTYPE
  5
E599
330
5
100
AcDbSymbolTableRecord
100
AcDbLinetypeTableRecord
  2
CENTER2
 70
     0
  3
___ _ ___ _ ___ _ ___ _ ___ _ ___ _ ___ _ ___ _
 72
    65
 73
     4
 40
8.4
 49
4.65
 74
     0
 49
-1.25
 74
     0
 49
1.25
 74
     0
 49
-1.25
 74
     0
  0
LTYPE
  5
E59A
330
5
100
AcDbSymbolTableRecord
100
AcDbLinetypeTableRecord
  2
HIDDEN2
 70
     0
  3
_ _ _ _ _ _ _ _ _ _ _ _ _ _ _ _ _ _ _ _ _ _ _ _
 72
    65
 73
     2
 40
1.25
 49
0.625
 74
     0
 49
-0.625
 74
     0
  0
LTYPE
  5
E59B
330
5
100
AcDbSymbolTableRecord
100
AcDbLinetypeTableRecord
  2
Amzigzag2
 70
     0
  3
/\/-/\/-/\/-/\/-/\/-/\/
 72
    65
 73
     2
 40
0.4401
 49
0.0001
 74
     4
 75
   136
340
C7EB
 46
0.0016
 50
0.0
 44
0.0
 45
0.0
 49
-0.4400000000000001
 74
     0
  0
LTYPE
  5
223E4
330
5
100
AcDbSymbolTableRecord
100
AcDbLinetypeTableRecord
  2
DOT
 70
     0
  3
. . . . . . . . . . . . . . . . . . . . . . . .
 72
    65
 73
     2
 40
1.25
 49
0.0
 74
     0
 49
-1.25
 74
     0
  0
LTYPE
  5
25232
330
5
100
AcDbSymbolTableRecord
100
AcDbLinetypeTableRecord
  2
DIVIDE
 70
     0
  3
____ . . ____ . . ____ . . ____ . . ____ . . __
 72
    65
 73
     6
 40
6.25
 49
2.5
 74
     0
 49
-1.25
 74
     0
 49
0.0
 74
     0
 49
-1.25
 74
     0
 49
0.0
 74
     0
 49
-1.25
 74
     0
  0
LTYPE
  5
55C6D
330
5
100
AcDbSymbolTableRecord
100
AcDbLinetypeTableRecord
  2
DASHED
 70
     0
  3
__ __ __ __ __ __ __ __ __ __ __ __ __ __ __ __
 72
    65
 73
     2
 40
4.5
 49
3.0
 74
     0
 49
-1.5
 74
     0
  0
LTYPE
  5
58163
330
5
100
AcDbSymbolTableRecord
100
AcDbLinetypeTableRecord
  2
PHANTOM
 70
     0
  3
______  __  __  ______  __  __  _____
 72
    65
 73
     6
 40
15.0
 49
7.5
 74
     0
 49
-1.5
 74
     0
 49
1.5
 74
     0
 49
-1.5
 74
     0
 49
1.5
 74
     0
 49
-1.5
 74
     0
  0
ENDTAB
  0
TABLE
  2
LAYER
  5
2
102
{ACAD_XDICTIONARY
360
3F95
102
}
330
0
100
AcDbSymbolTable
 70
    37
  0
LAYER
  5
10
330
2
100
AcDbSymbolTableRecord
100
AcDbLayerTableRecord
  2
0
 70
     0
 62
     7
  6
Continuous
370
    -3
390
F
  0
LAYER
  5
6D1
330
2
100
AcDbSymbolTableRecord
100
AcDbLayerTableRecord
  2
Defpoints
 70
     0
 62
     7
  6
Continuous
290
     0
370
    -3
390
F
  0
LAYER
  5
A46
330
2
100
AcDbSymbolTableRecord
100
AcDbLayerTableRecord
  2
size
 70
     0
 62
     5
  6
Continuous
290
     0
370
    30
390
F
  0
LAYER
  5
A47
330
2
100
AcDbSymbolTableRecord
100
AcDbLayerTableRecord
  2
waku
 70
     0
 62
     7
  6
Continuous
370
    40
390
F
  0
LAYER
  5
A48
330
2
100
AcDbSymbolTableRecord
100
AcDbLayerTableRecord
  2
AM_6
 70
     0
 62
     2
  6
文字
370
    20
390
F
  0
LAYER
  5
FA5
330
2
100
AcDbSymbolTableRecord
100
AcDbLayerTableRecord
  2
1
 70
     0
 62
     7
  6
Continuous
370
    -3
390
F
  0
LAYER
  5
3A31
330
2
100
AcDbSymbolTableRecord
100
AcDbLayerTableRecord
  2
hyosen1
 70
     0
 62
     1
  6
Continuous
370
    30
390
F
  0
LAYER
  5
5765
330
2
100
AcDbSymbolTableRecord
100
AcDbLayerTableRecord
  2
hyomoji
 70
     0
 62
     2
  6
Continuous
370
    20
390
F
  0
LAYER
  5
591A
330
2
100
AcDbSymbolTableRecord
100
AcDbLayerTableRecord
  2
hyosen2
 70
     0
 62
     1
  6
Continuous
370
    20
390
F
  0
LAYER
  5
5F85
330
2
100
AcDbSymbolTableRecord
100
AcDbLayerTableRecord
  2
AM_0
 70
     0
 62
     7
  6
中線
370
    30
390
F
  0
LAYER
  5
5F89
330
2
100
AcDbSymbolTableRecord
100
AcDbLayerTableRecord
  2
AM_4
 70
     0
 62
     3
  6
補助線
370
    20
390
F
  0
LAYER
  5
5F8C
330
2
100
AcDbSymbolTableRecord
100
AcDbLayerTableRecord
  2
AM_8
 70
     0
 62
     1
  6
ハッチング
370
    18
390
F
  0
LAYER
  5
642B
330
2
100
AcDbSymbolTableRecord
100
AcDbLayerTableRecord
  2
AM_CL
 70
     0
 62
     1
  6
Amconstr
370
    20
390
F
  0
LAYER
  5
75AE
330
2
100
AcDbSymbolTableRecord
100
AcDbLayerTableRecord
  2
busen1
 70
     0
 62
    30
  6
Continuous
370
    40
390
F
  0
LAYER
  5
75AF
330
2
100
AcDbSymbolTableRecord
100
AcDbLayerTableRecord
  2
busen2
 70
     0
 62
     2
  6
Continuous
370
    20
390
F
  0
LAYER
  5
BFAA
330
2
100
AcDbSymbolTableRecord
100
AcDbLayerTableRecord
  2
AM_2
 70
     0
 62
     1
  6
細線
370
    20
390
F
  0
LAYER
  5
BFAB
330
2
100
AcDbSymbolTableRecord
100
AcDbLayerTableRecord
  2
AM_5
 70
     0
 62
     3
  6
寸法線
370
    18
390
F
  0
LAYER
  5
BFAC
330
2
100
AcDbSymbolTableRecord
100
AcDbLayerTableRecord
  2
AM_7
 70
     0
 62
     4
  6
中心線1
370
    15
390
F
  0
LAYER
  5
C5FA
330
2
100
AcDbSymbolTableRecord
100
AcDbLayerTableRecord
  2
AM_1
 70
     0
 62
    30
  6
太線
370
    40
390
F
  0
LAYER
  5
C7E8
330
2
100
AcDbSymbolTableRecord
100
AcDbLayerTableRecord
  2
AM_3
 70
     0
 62
     6
  6
陰線1
370
    20
390
F
  0
LAYER
  5
C7E9
330
2
100
AcDbSymbolTableRecord
100
AcDbLayerTableRecord
  2
AM_11
 70
     0
 62
     2
  6
想像線1
370
    20
390
F
  0
LAYER
  5
C7EA
330
2
100
AcDbSymbolTableRecord
100
AcDbLayerTableRecord
  2
AM_12
 70
     0
 62
     7
  6
Continuous
290
     0
370
    20
390
F
  0
LAYER
  5
C82C
330
2
100
AcDbSymbolTableRecord
100
AcDbLayerTableRecord
  2
AM_10
 70
     0
 62
     7
  6
切断線
370
    18
390
F
  0
LAYER
  5
CA36
330
2
100
AcDbSymbolTableRecord
100
AcDbLayerTableRecord
  2
△
 70
     0
 62
   150
  6
中線
370
    15
390
F
1001
AcAecLayerStandard
1000

1000

  0
LAYER
  5
12411
330
2
100
AcDbSymbolTableRecord
100
AcDbLayerTableRecord
  2
4
 70
     0
 62
     7
  6
Continuous
370
    -3
390
F
  0
LAYER
  5
2441C
330
2
100
AcDbSymbolTableRecord
100
AcDbLayerTableRecord
  2
0文字
 70
     0
 62
     2
  6
Continuous
370
    13
390
F
1001
AcAecLayerStandard
1000

1000

  0
LAYER
  5
28AB3
330
2
100
AcDbSymbolTableRecord
100
AcDbLayerTableRecord
  2
7
 70
     0
 62
     7
  6
Continuous
370
    -3
390
F
  0
LAYER
  5
28AB4
330
2
100
AcDbSymbolTableRecord
100
AcDbLayerTableRecord
  2
9
 70
     0
 62
     7
  6
Continuous
370
    -3
390
F
  0
LAYER
  5
28AB5
330
2
100
AcDbSymbolTableRecord
100
AcDbLayerTableRecord
  2
10
 70
     0
 62
     7
  6
Continuous
370
    -3
390
F
  0
LAYER
  5
28AB6
330
2
100
AcDbSymbolTableRecord
100
AcDbLayerTableRecord
  2
11
 70
     0
 62
     7
  6
Continuous
370
    -3
390
F
  0
LAYER
  5
28AB7
330
2
100
AcDbSymbolTableRecord
100
AcDbLayerTableRecord
  2
12
 70
     0
 62
     7
  6
Continuous
370
    -3
390
F
  0
LAYER
  5
28AB8
330
2
100
AcDbSymbolTableRecord
100
AcDbLayerTableRecord
  2
13
 70
     0
 62
     7
  6
Continuous
370
    -3
390
F
  0
LAYER
  5
44023
330
2
100
AcDbSymbolTableRecord
100
AcDbLayerTableRecord
  2
16
 70
     0
 62
     7
  6
Continuous
370
    -3
390
F
  0
LAYER
  5
4FC48
330
2
100
AcDbSymbolTableRecord
100
AcDbLayerTableRecord
  2
3
 70
     0
 62
     7
  6
Continuous
370
    -3
390
F
  0
LAYER
  5
54D7F
330
2
100
AcDbSymbolTableRecord
100
AcDbLayerTableRecord
  2
5
 70
     0
 62
     7
  6
Continuous
370
    -3
390
F
  0
LAYER
  5
58164
330
2
100
AcDbSymbolTableRecord
100
AcDbLayerTableRecord
  2
VIEW0001
 70
     0
 62
     7
  6
Continuous
370
    -3
390
F
  0
LAYER
  5
6021F
330
2
100
AcDbSymbolTableRecord
100
AcDbLayerTableRecord
  2
0000120806 鈴木検図
 70
     0
 62
    10
  6
文字
370
    40
390
F
1001
AcAecLayerStandard
1000

1000

  0
ENDTAB
  0
TABLE
  2
STYLE
  5
3
330
0
100
AcDbSymbolTable
 70
    10
  0
STYLE
  5
11
330
3
100
AcDbSymbolTableRecord
100
AcDbTextStyleTableRecord
  2
STANDARD
 70
     0
 40
0.0
 41
0.7
 50
0.0
 71
     0
 42
3.2
  3
romans.shx
  4
extfont.shx
  0
STYLE
  5
56
330
3
100
AcDbSymbolTableRecord
100
AcDbTextStyleTableRecord
  2

 70
     1
 40
0.0
 41
1.0
 50
0.0
 71
     0
 42
2.5
  3
ltypeshp.shx
  4

  0
STYLE
  5
58
330
3
100
AcDbSymbolTableRecord
100
AcDbTextStyleTableRecord
  2
ACISOTS
 70
     0
 40
1.0
 41
1.0
 50
0.0
 71
     0
 42
2.5
  3
isocp.shx
  4
extfont.shx
  0
STYLE
  5
63
330
3
100
AcDbSymbolTableRecord
100
AcDbTextStyleTableRecord
  2
ACISOGDT
 70
     0
 40
0.0
 41
1.0
 50
0.0
 71
     0
 42
2.5
  3
amgdt.shx
  4

  0
STYLE
  5
A74
330
3
100
AcDbSymbolTableRecord
100
AcDbTextStyleTableRecord
  2
DIM
 70
     0
 40
0.0
 41
1.0
 50
0.0
 71
     0
 42
2.5
  3
monotxt.shx
  4
extfont.shx
  0
STYLE
  5
FA7
330
3
100
AcDbSymbolTableRecord
100
AcDbTextStyleTableRecord
  2
ACANSTS
 70
     0
 40
1.0
 41
1.0
 50
0.0
 71
     0
 42
0.2
  3
romans.shx
  4
extfont.shx
  0
STYLE
  5
FA8
330
3
100
AcDbSymbolTableRecord
100
AcDbTextStyleTableRecord
  2
ACANSGDT
 70
     0
 40
0.0
 41
1.0
 50
0.0
 71
     0
 42
0.2
  3
amgdtans.shx
  4

  0
STYLE
  5
C7EB
330
3
100
AcDbSymbolTableRecord
100
AcDbTextStyleTableRecord
  2

 70
     1
 40
0.0
 41
1.0
 50
0.0
 71
     0
 42
3.2
  3
genltshp.shx
  4

  0
STYLE
  5
E59C
330
3
100
AcDbSymbolTableRecord
100
AcDbTextStyleTableRecord
  2
EXCESS_STANDARD
 70
     0
 40
0.0
 41
1.0
 50
0.0
 71
     0
 42
0.0
  3
txt
  4
BIGFONT
  0
ENDTAB
  0
TABLE
  2
VIEW
  5
6
330
0
100
AcDbSymbolTable
 70
     6
  0
VIEW
  5
AE1
330
6
100
AcDbSymbolTableRecord
100
AcDbViewTableRecord
  2
AM_VIEW1
 70
     0
 40
420.0
 10
-872.4621336544704
 20
-3893.809200058367
 41
670.0118343195266
 11
0.0
 21
0.0
 31
1.0
 12
0.0
 22
0.0
 32
0.0
 42
50.0
 43
-1370.695619172058
 44
-1370.695619172058
 50
0.0
 71
    16
281
     0
 72
     0
  0
VIEW
  5
AE2
330
6
100
AcDbSymbolTableRecord
100
AcDbViewTableRecord
  2
AM_VIEW2
 70
     0
 40
420.0
 10
-354.473967973997
 20
-3893.809200058367
 41
670.0118343195266
 11
0.0
 21
0.0
 31
1.0
 12
0.0
 22
0.0
 32
0.0
 42
50.0
 43
-1370.695619172058
 44
-1370.695619172058
 50
0.0
 71
    16
281
     0
 72
     0
  0
VIEW
  5
AE3
330
6
100
AcDbSymbolTableRecord
100
AcDbViewTableRecord
  2
AM_VIEW3
 70
     0
 40
420.0
 10
-872.4621336544704
 20
-4313.809200058368
 41
670.0118343195266
 11
0.0
 21
0.0
 31
1.0
 12
0.0
 22
0.0
 32
0.0
 42
50.0
 43
-1370.695619172058
 44
-1370.695619172058
 50
0.0
 71
    16
281
     0
 72
     0
  0
VIEW
  5
AE4
330
6
100
AcDbSymbolTableRecord
100
AcDbViewTableRecord
  2
AM_VIEW4
 70
     0
 40
420.0
 10
-354.473967973997
 20
-4313.809200058368
 41
670.0118343195266
 11
0.0
 21
0.0
 31
1.0
 12
0.0
 22
0.0
 32
0.0
 42
50.0
 43
-1370.695619172058
 44
-1370.695619172058
 50
0.0
 71
    16
281
     0
 72
     0
  0
VIEW
  5
AE5
330
6
100
AcDbSymbolTableRecord
100
AcDbViewTableRecord
  2
AM_VIEW5
 70
     0
 40
420.0
 10
-613.4680508142337
 20
-4103.809200058367
 41
670.0118343195267
 11
0.0
 21
0.0
 31
1.0
 12
0.0
 22
0.0
 32
0.0
 42
50.0
 43
-1370.695619172058
 44
-1370.695619172058
 50
0.0
 71
    16
281
     0
 72
     0
  0
VIEW
  5
AE6
330
6
100
AcDbSymbolTableRecord
100
AcDbViewTableRecord
  2
AM_VIEW6
 70
     0
 40
839.9915999999999
 10
-613.4680508142337
 20
-4103.809200058367
 41
1340.010268402367
 11
0.0
 21
0.0
 31
1.0
 12
0.0
 22
0.0
 32
0.0
 42
50.0
 43
-1370.695619172058
 44
-1370.695619172058
 50
0.0
 71
    16
281
     0
 72
     0
  0
ENDTAB
  0
TABLE
  2
UCS
  5
7
330
0
100
AcDbSymbolTable
 70
     0
  0
ENDTAB
  0
TABLE
  2
APPID
  5
9
330
0
100
AcDbSymbolTable
 70
    56
  0
APPID
  5
12
330
9
100
AcDbSymbolTableRecord
100
AcDbRegAppTableRecord
  2
ACAD
 70
     0
  0
APPID
  5
30
330
9
100
AcDbSymbolTableRecord
100
AcDbRegAppTableRecord
  2
MCAD_NO_VIS
 70
     0
  0
APPID
  5
31
330
9
100
AcDbSymbolTableRecord
100
AcDbRegAppTableRecord
  2
ACAD_TEMP_GRAPHIC
 70
     0
  0
APPID
  5
44
330
9
100
AcDbSymbolTableRecord
100
AcDbRegAppTableRecord
  2
ACATTRIBSERVICES
 70
     0
  0
APPID
  5
7A1
330
9
100
AcDbSymbolTableRecord
100
AcDbRegAppTableRecord
  2
GENIUS_GENDIMSH_14
 70
     0
  0
APPID
  5
A49
330
9
100
AcDbSymbolTableRecord
100
AcDbRegAppTableRecord
  2
GENIUS_GENREC_14
 70
     0
  0
APPID
  5
A4A
330
9
100
AcDbSymbolTableRecord
100
AcDbRegAppTableRecord
  2
GENIUS_GENOBJ-N-REC_13
 70
     0
  0
APPID
  5
A4B
330
9
100
AcDbSymbolTableRecord
100
AcDbRegAppTableRecord
  2
GENIUS_GENODEF_13
 70
     0
  0
APPID
  5
A4C
330
9
100
AcDbSymbolTableRecord
100
AcDbRegAppTableRecord
  2
DCO15
 70
     0
  0
APPID
  5
ADC
330
9
100
AcDbSymbolTableRecord
100
AcDbRegAppTableRecord
  2
GENIUS_GENOLIS_13
 70
     0
  0
APPID
  5
ADD
330
9
100
AcDbSymbolTableRecord
100
AcDbRegAppTableRecord
  2
GENIUS_GENOENT_13
 70
     0
  0
APPID
  5
ADE
330
9
100
AcDbSymbolTableRecord
100
AcDbRegAppTableRecord
  2
GENIUS_GENOBJ-N-TIT_13
 70
     0
  0
APPID
  5
ADF
330
9
100
AcDbSymbolTableRecord
100
AcDbRegAppTableRecord
  2
GENIUS_GENTITLE_13
 70
     0
  0
APPID
  5
AE0
330
9
100
AcDbSymbolTableRecord
100
AcDbRegAppTableRecord
  2
GENIUS_GENOREF_13
 70
     0
  0
APPID
  5
AE7
330
9
100
AcDbSymbolTableRecord
100
AcDbRegAppTableRecord
  2
GENIUS_GENSCREG_15
 70
     0
  0
APPID
  5
AE8
330
9
100
AcDbSymbolTableRecord
100
AcDbRegAppTableRecord
  2
GENIUS_GENOBJ-N-SDF_13
 70
     0
  0
APPID
  5
FAF
330
9
100
AcDbSymbolTableRecord
100
AcDbRegAppTableRecord
  2
GENIUS_GENBLLY_14
 70
     0
  0
APPID
  5
FB0
330
9
100
AcDbSymbolTableRecord
100
AcDbRegAppTableRecord
  2
GENIUS_GENTRA_14
 70
     0
  0
APPID
  5
1285
330
9
100
AcDbSymbolTableRecord
100
AcDbRegAppTableRecord
  2
GENIUS_GENDTOL_13
 70
     0
  0
APPID
  5
142D
330
9
100
AcDbSymbolTableRecord
100
AcDbRegAppTableRecord
  2
GENIUS_GENOBJ-N-CEN_13
 70
     0
  0
APPID
  5
1AB5
330
9
100
AcDbSymbolTableRecord
100
AcDbRegAppTableRecord
  2
GENIUS_GENOBJ-N-CRS_13
 70
     0
  0
APPID
  5
1B36
330
9
100
AcDbSymbolTableRecord
100
AcDbRegAppTableRecord
  2
GENIUS_GENOBJ-N-HTC_13
 70
     0
  0
APPID
  5
1B37
330
9
100
AcDbSymbolTableRecord
100
AcDbRegAppTableRecord
  2
GENIUS_GENHATCH_13
 70
     0
  0
APPID
  5
216D
330
9
100
AcDbSymbolTableRecord
100
AcDbRegAppTableRecord
  2
GENIUS_GENOBJ-N-FIL_13
 70
     0
  0
APPID
  5
2356
330
9
100
AcDbSymbolTableRecord
100
AcDbRegAppTableRecord
  2
GEVID990412420
 70
     0
  0
APPID
  5
2357
330
9
100
AcDbSymbolTableRecord
100
AcDbRegAppTableRecord
  2
GEVDC
 70
     0
  0
APPID
  5
2358
330
9
100
AcDbSymbolTableRecord
100
AcDbRegAppTableRecord
  2
GEVCON
 70
     0
  0
APPID
  5
235B
330
9
100
AcDbSymbolTableRecord
100
AcDbRegAppTableRecord
  2
GEVRADREF
 70
     0
  0
APPID
  5
2360
330
9
100
AcDbSymbolTableRecord
100
AcDbRegAppTableRecord
  2
GENIUS_GENBH_13
 70
     0
  0
APPID
  5
2362
330
9
100
AcDbSymbolTableRecord
100
AcDbRegAppTableRecord
  2
GENIUS_GENOBJ-NBEHI-BHF_13
 70
     0
  0
APPID
  5
2364
330
9
100
AcDbSymbolTableRecord
100
AcDbRegAppTableRecord
  2
GENIUS_GENOBJ-NBEHI-BHB_13
 70
     0
  0
APPID
  5
2379
330
9
100
AcDbSymbolTableRecord
100
AcDbRegAppTableRecord
  2
GENIUS_GENOBJ-F-SCPASSM_13
 70
     0
  0
APPID
  5
3D74
330
9
100
AcDbSymbolTableRecord
100
AcDbRegAppTableRecord
  2
GENIUS_GENDIM_13
 70
     0
  0
APPID
  5
3D76
330
9
100
AcDbSymbolTableRecord
100
AcDbRegAppTableRecord
  2
GENIUS_GE3DTOL_13
 70
     0
  0
APPID
  5
3D9C
330
9
100
AcDbSymbolTableRecord
100
AcDbRegAppTableRecord
  2
AD_DRAW
 70
     0
  0
APPID
  5
3DE8
330
9
100
AcDbSymbolTableRecord
100
AcDbRegAppTableRecord
  2
ASURF_PCURVE_APPNAME
 70
     0
  0
APPID
  5
3DED
330
9
100
AcDbSymbolTableRecord
100
AcDbRegAppTableRecord
  2
AMG_3D2D_5.0
 70
     0
  0
APPID
  5
3E1B
330
9
100
AcDbSymbolTableRecord
100
AcDbRegAppTableRecord
  2
DESIGNERASSEMBLIES
 70
     0
  0
APPID
  5
3E20
330
9
100
AcDbSymbolTableRecord
100
AcDbRegAppTableRecord
  2
ACADM_DIM_EDIT
 70
     0
  0
APPID
  5
3E21
330
9
100
AcDbSymbolTableRecord
100
AcDbRegAppTableRecord
  2
AMDT_DM_ADJ
 70
     0
  0
APPID
  5
4143
330
9
100
AcDbSymbolTableRecord
100
AcDbRegAppTableRecord
  2
GENIUS_GENFIL_13
 70
     0
  0
APPID
  5
4144
330
9
100
AcDbSymbolTableRecord
100
AcDbRegAppTableRecord
  2
GENIUS_GENOBJ-N-CHA_13
 70
     0
  0
APPID
  5
4E17
330
9
100
AcDbSymbolTableRecord
100
AcDbRegAppTableRecord
  2
GEVID1008153417
 70
     0
  0
APPID
  5
4E58
330
9
100
AcDbSymbolTableRecord
100
AcDbRegAppTableRecord
  2
GEVID1008153418
 70
     0
  0
APPID
  5
4E5E
330
9
100
AcDbSymbolTableRecord
100
AcDbRegAppTableRecord
  2
GEVID1008153419
 70
     0
  0
APPID
  5
4E64
330
9
100
AcDbSymbolTableRecord
100
AcDbRegAppTableRecord
  2
GEVID1008153420
 70
     0
  0
APPID
  5
4E75
330
9
100
AcDbSymbolTableRecord
100
AcDbRegAppTableRecord
  2
GEVID1008153421
 70
     0
  0
APPID
  5
4EB7
330
9
100
AcDbSymbolTableRecord
100
AcDbRegAppTableRecord
  2
GENIUS_AMGTXT_16
 70
     0
  0
APPID
  5
7645
330
9
100
AcDbSymbolTableRecord
100
AcDbRegAppTableRecord
  2
GENIUS_GENOBJ-N-DIM_13
 70
     0
  0
APPID
  5
C5F0
330
9
100
AcDbSymbolTableRecord
100
AcDbRegAppTableRecord
  2
GENIUS_GENCEN_19
 70
     0
  0
APPID
  5
C5FB
330
9
100
AcDbSymbolTableRecord
100
AcDbRegAppTableRecord
  2
ACAD_DSTYLE_DIMJOGGED_JOGANGLE_SYMBOL
 70
     0
  0
APPID
  5
C5FC
330
9
100
AcDbSymbolTableRecord
100
AcDbRegAppTableRecord
  2
ACAD_PSEXT
 70
     0
  0
APPID
  5
CA37
330
9
100
AcDbSymbolTableRecord
100
AcDbRegAppTableRecord
  2
AcAecLayerStandard
 70
     0
  0
APPID
  5
14704
330
9
100
AcDbSymbolTableRecord
100
AcDbRegAppTableRecord
  2
ACAD_EXEMPT_FROM_CAD_STANDARDS
 70
     0
  0
APPID
  5
5EF82
330
9
100
AcDbSymbolTableRecord
100
AcDbRegAppTableRecord
  2
ACAD_DSTYLE_DIMINSPECT
 70
     0
  0
APPID
  5
5EF83
330
9
100
AcDbSymbolTableRecord
100
AcDbRegAppTableRecord
  2
ACAD_DSTYLE_DIMRADIAL_EXTENSION
 70
     0
  0
ENDTAB
  0
TABLE
  2
DIMSTYLE
  5
A
330
0
100
AcDbSymbolTable
 70
    28
100
AcDbDimStyleTable
 71
     5
340
2515
340
251A
340
251B
340
6C
340
FA9
  0
DIMSTYLE
105
6C
330
A
100
AcDbSymbolTableRecord
100
AcDbDimStyleTableRecord
  2
AM_ISO
 70
     0
  4
"
 41
2.5
 42
1.0
 43
10.0
 44
1.0
 47
0.1
 48
0.1
 73
     0
 74
     0
 77
     1
 78
     8
 79
     2
140
3.5
141
0.0
143
0.0393701
146
0.71
147
1.5
172
     1
176
   256
177
   256
178
     2
271
     2
272
     3
274
     4
283
     0
284
     8
340
11
371
    -1
372
    -1
  0
DIMSTYLE
105
6D
330
A
100
AcDbSymbolTableRecord
100
AcDbDimStyleTableRecord
  2
AM_ISO$3
 70
     0
  4
"
 41
0.8
 42
1.0
 43
10.0
 44
1.0
 47
0.1
 48
0.1
 73
     0
 77
     1
 78
     8
 79
     2
140
3.2
141
0.0
143
0.0393701
146
0.71
147
0.9999999999999996
176
   256
177
   256
178
     2
271
     2
272
     2
283
     0
284
     8
288
     1
289
     0
340
11
342
6C4
371
    -1
372
    -1
  0
DIMSTYLE
105
6E
330
A
100
AcDbSymbolTableRecord
100
AcDbDimStyleTableRecord
  2
AM_ISO$4
 70
     0
  4
"
 41
0.8
 42
1.0
 43
10.0
 44
1.0
 47
0.1
 48
0.1
 73
     0
 77
     1
 78
     8
 79
     2
140
3.2
141
0.0
143
0.0393701
146
0.71
147
1.0
173
     1
176
   256
177
   256
178
     2
271
     2
272
     2
283
     0
284
     8
288
     1
289
     0
340
11
344
6C4
371
    -1
372
    -1
  0
DIMSTYLE
105
6F
330
A
100
AcDbSymbolTableRecord
100
AcDbDimStyleTableRecord
  2
AM_ISO$6
 70
     0
  4
"
 41
0.8
 42
1.0
 43
10.0
 44
1.0
 47
0.1
 48
0.1
 73
     0
 74
     0
 78
     8
 79
     2
140
3.2
141
0.0
143
0.0393701
146
0.71
147
1.0
172
     1
176
   256
177
   256
178
     2
271
     2
272
     2
283
     0
284
     8
340
11
341
6C4
371
    -1
372
    -1
  0
DIMSTYLE
105
70
330
A
100
AcDbSymbolTableRecord
100
AcDbDimStyleTableRecord
  2
AM_ISO$7
 70
     0
  4
"
 41
0.8
 42
1.0
 43
10.0
 44
1.0
 47
0.1
 48
0.1
 73
     0
 74
     0
 77
     1
 78
     8
 79
     2
140
3.2
141
0.0
143
0.0393701
146
0.71
147
1.0
172
     1
176
   256
177
   256
178
     2
271
     2
272
     2
283
     0
284
     8
340
11
341
6C4
342
6C4
371
    -1
372
    -1
  0
DIMSTYLE
105
71
330
A
100
AcDbSymbolTableRecord
100
AcDbDimStyleTableRecord
  2
AM_ISO$SF
 70
     0
  4
"
 41
0.8
 42
1.0
 43
10.0
 44
1.0
 47
0.1
 48
0.1
 73
     0
 74
     0
 75
     1
 76
     1
 77
     1
 78
     8
 79
     2
140
3.2
141
0.0
143
0.0393701
146
0.71
147
1.0
172
     1
176
   256
177
   256
178
     2
271
     2
272
     2
283
     0
284
     8
340
11
341
6C4
342
6C4
371
    -1
372
    -1
  0
DIMSTYLE
105
76
330
A
100
AcDbSymbolTableRecord
100
AcDbDimStyleTableRecord
  2
AM_ISO$SH
 70
     0
  4
"
 41
0.8
 42
1.0
 43
10.0
 44
1.0
 47
0.1
 48
0.1
 73
     0
 74
     0
 75
     1
 76
     1
 77
     1
 78
     8
 79
     2
140
3.2
141
0.0
143
0.0393701
144
2.0
146
0.71
147
1.0
172
     1
176
   256
177
   256
178
     2
271
     2
272
     2
283
     0
284
     8
340
11
341
6C4
342
6C4
371
    -1
372
    -1
  0
DIMSTYLE
105
6BE
330
A
100
AcDbSymbolTableRecord
100
AcDbDimStyleTableRecord
  2
AM_ISO$0
 70
     0
  4
"
 41
0.8
 42
1.0
 43
10.0
 44
1.0
 47
0.1
 48
0.1
 73
     0
 74
     0
 77
     1
 78
     8
 79
     2
140
3.2
141
0.0
143
0.0393701
146
0.71
147
0.9999999999999996
172
     1
176
   256
177
   256
178
     2
271
     2
272
     2
283
     0
284
     8
340
11
341
6C4
342
6C4
371
    -1
372
    -1
  0
DIMSTYLE
105
6BF
330
A
100
AcDbSymbolTableRecord
100
AcDbDimStyleTableRecord
  2
AM_ISO$2
 70
     0
  4
"
 41
0.8
 42
1.0
 43
10.0
 44
1.0
 47
0.1
 48
0.1
 73
     0
 74
     0
 77
     3
 78
     8
 79
     2
140
3.200000000000001
141
0.0
143
0.0393701
146
0.71
147
0.9999999999999996
172
     1
176
   256
177
   256
178
     2
271
     2
272
     2
283
     0
284
     8
340
11
342
6C4
371
    -1
372
    -1
  0
DIMSTYLE
105
A76
330
A
100
AcDbSymbolTableRecord
100
AcDbDimStyleTableRecord
  2
STANDARD
 70
     0
 41
3.0
 42
1.0
 43
7.0
 44
2.0
 73
     0
 74
     0
 77
     1
140
2.799999999999999
141
0.0
143
0.0394
147
0.7
171
     4
172
     1
173
     1
176
     3
177
     3
178
     2
271
     3
272
     3
273
     8
274
     4
289
     0
340
A74
341
A66
343
A66
344
A66
  0
DIMSTYLE
105
FA9
330
A
100
AcDbSymbolTableRecord
100
AcDbDimStyleTableRecord
  2
AM_ANSI
 70
     0
  4
mm
 41
0.1
 42
0.05
 43
0.5
 44
0.1
 47
0.1
 48
0.1
 78
     7
 79
     2
140
0.12
141
0.0
146
0.71
147
0.06
176
   256
177
   256
178
     2
274
     4
284
     7
340
11
371
    -1
372
    -1
  0
DIMSTYLE
105
FAA
330
A
100
AcDbSymbolTableRecord
100
AcDbDimStyleTableRecord
  2
AM_ANSI$3
 70
     0
  4
mm
 41
0.1
 42
0.05
 43
0.5
 44
0.1
 47
0.1
 48
0.1
 78
     7
 79
     2
140
0.12
141
0.0
146
0.71
147
0.06
176
   256
177
   256
178
     2
274
     4
284
     7
288
     1
289
     0
340
11
371
    -1
372
    -1
  0
DIMSTYLE
105
FAB
330
A
100
AcDbSymbolTableRecord
100
AcDbDimStyleTableRecord
  2
AM_ANSI$4
 70
     0
  4
mm
 41
0.1
 42
0.05
 43
0.5
 44
0.1
 47
0.1
 48
0.1
 78
     7
 79
     2
140
0.12
141
0.0
146
0.71
147
0.06
176
   256
177
   256
178
     2
274
     4
284
     7
288
     1
289
     0
340
11
371
    -1
372
    -1
  0
DIMSTYLE
105
FAC
330
A
100
AcDbSymbolTableRecord
100
AcDbDimStyleTableRecord
  2
AM_ANSI$7
 70
     0
  4
mm
 41
0.1
 42
0.05
 43
0.5
 44
0.1
 47
0.1
 48
0.1
 78
     7
 79
     2
140
0.24
141
0.0
146
0.71
147
0.06
176
   256
177
   256
178
     2
274
     4
284
     7
340
11
371
    -1
372
    -1
  0
DIMSTYLE
105
FAD
330
A
100
AcDbSymbolTableRecord
100
AcDbDimStyleTableRecord
  2
AM_ANSI$SF
 70
     0
  4
mm
 41
0.1
 42
0.05
 43
0.5
 44
0.1
 47
0.1
 48
0.1
 75
     1
 76
     1
 78
     7
 79
     2
140
0.12
141
0.0
146
0.71
147
0.06
176
   256
177
   256
178
     2
274
     4
284
     7
340
11
371
    -1
372
    -1
  0
DIMSTYLE
105
FAE
330
A
100
AcDbSymbolTableRecord
100
AcDbDimStyleTableRecord
  2
AM_ANSI$SH
 70
     0
  4
mm
 41
0.1
 42
0.05
 43
0.5
 44
0.1
 47
0.1
 48
0.1
 75
     1
 76
     1
 78
     7
 79
     2
140
0.12
141
0.0
146
0.71
147
0.06
173
     1
176
   256
177
   256
178
     2
274
     4
284
     7
340
11
343
72
371
    -1
372
    -1
  0
DIMSTYLE
105
2515
330
A
100
AcDbSymbolTableRecord
100
AcDbDimStyleTableRecord
  2
SYS
 70
     0
  4
"
 41
2.5
 42
1.0
 43
10.0
 44
1.0
 47
0.1
 48
0.1
 73
     0
 74
     0
 77
     1
 78
     8
 79
     2
140
3.5
141
0.0
143
0.0393701
146
0.71
147
1.5
172
     1
176
   256
177
   256
178
     7
271
     2
272
     3
274
     4
283
     0
284
     8
340
11
371
    -1
372
    -1
  0
DIMSTYLE
105
2516
102
{ACAD_REACTORS
330
5464B
330
546B4
330
5477B
330
547B7
102
}
330
A
100
AcDbSymbolTableRecord
100
AcDbDimStyleTableRecord
  2
SYS$3
 70
     0
  4
"
 41
2.0
 42
1.0
 43
10.0
 44
1.0
 47
0.1
 48
0.1
 73
     0
 77
     1
 78
     8
 79
     2
140
3.200000000000001
141
0.0
143
0.0393701
146
0.71
147
0.9999999999999996
176
   256
177
   256
178
     2
271
     1
272
     1
283
     0
284
     8
288
     1
340
11
342
A66
371
    -1
372
    -1
  0
DIMSTYLE
105
2517
330
A
100
AcDbSymbolTableRecord
100
AcDbDimStyleTableRecord
  2
SYS$4
 70
     0
  4
"
 41
2.0
 42
1.0
 43
10.0
 44
1.0
 47
0.1
 48
0.1
 73
     0
 77
     1
 78
     8
 79
     2
140
3.2
141
0.0
143
0.0393701
146
0.71
147
0.9999999999999996
173
     1
176
   256
177
   256
178
     2
271
     2
272
     2
283
     0
284
     8
288
     1
340
11
344
A66
371
    -1
372
    -1
  0
DIMSTYLE
105
2518
330
A
100
AcDbSymbolTableRecord
100
AcDbDimStyleTableRecord
  2
SYS$6
 70
     0
  4
"
 41
2.0
 42
1.0
 43
10.0
 44
1.0
 47
0.1
 48
0.1
 73
     0
 74
     0
 78
     8
 79
     2
140
3.2
141
0.0
143
0.0393701
146
0.71
147
0.9999999999999996
172
     1
176
   256
177
   256
178
     2
271
     2
272
     2
283
     0
284
     8
340
11
341
A66
371
    -1
372
    -1
  0
DIMSTYLE
105
2519
330
A
100
AcDbSymbolTableRecord
100
AcDbDimStyleTableRecord
  2
SYS$7
 70
     0
  4
"
 41
2.0
 42
1.5
 43
10.0
 44
1.0
 47
0.1
 48
0.1
 73
     0
 74
     0
 77
     1
 78
     8
 79
     2
140
3.2
141
0.0
143
0.0393701
146
0.71
147
0.9999999999999996
172
     1
176
   256
177
   256
178
     2
271
     2
272
     2
283
     0
284
     8
340
11
341
A66
342
A66
371
    -1
372
    -1
  0
DIMSTYLE
105
251A
330
A
100
AcDbSymbolTableRecord
100
AcDbDimStyleTableRecord
  2
SYS$SF
 70
     0
  4
"
 41
1.0
 42
1.0
 43
10.0
 44
1.0
 47
0.1
 48
0.1
 73
     0
 74
     0
 75
     1
 76
     1
 77
     1
 78
     8
 79
     2
140
3.2
141
0.0
143
0.0393701
146
0.71
147
0.9999999999999996
172
     1
176
   256
177
   256
178
     2
271
     2
272
     2
283
     0
284
     8
340
11
341
6C4
342
6C4
371
    -1
372
    -1
  0
DIMSTYLE
105
251B
330
A
100
AcDbSymbolTableRecord
100
AcDbDimStyleTableRecord
  2
SYS$SH
 70
     0
  4
"
 41
1.0
 42
1.0
 43
10.0
 44
1.0
 47
0.1
 48
0.1
 73
     0
 74
     0
 75
     1
 76
     1
 77
     1
 78
     8
 79
     2
140
3.2
141
0.0
143
0.0393701
144
2.0
146
0.71
147
0.9999999999999996
172
     1
173
     1
176
   256
177
   256
178
     2
271
     2
272
     2
283
     0
284
     8
340
11
341
6C4
343
72
344
6C4
371
    -1
372
    -1
  0
DIMSTYLE
105
2A59
330
A
100
AcDbSymbolTableRecord
100
AcDbDimStyleTableRecord
  2
SYS$2
 70
     0
  4
"
 41
1.0
 42
1.5
 43
10.0
 44
1.0
 47
0.1
 48
0.1
 73
     0
 74
     0
 77
     1
 78
     8
 79
     2
140
3.2
141
0.0
143
0.0393701
146
0.71
147
0.9999999999999996
172
     1
176
   256
177
   256
178
     2
271
     2
272
     2
283
     0
284
     8
340
11
342
6C4
371
    -1
372
    -1
  0
DIMSTYLE
105
2AAB
102
{ACAD_REACTORS
330
527DE
330
528C8
330
528E9
330
52901
330
5293D
330
52982
330
5299A
330
529FC
330
52A37
330
52A58
330
52A82
330
52AD8
330
52ADB
330
52ADE
330
52B20
330
52B23
330
52B26
330
52B68
330
52B96
330
52CC7
330
54543
330
546D5
330
546D8
330
54732
330
5475C
330
547D8
330
547D9
330
54831
330
5485B
330
64D9E
330
64DA1
330
64E1C
330
64F07
330
64F08
102
}
330
A
100
AcDbSymbolTableRecord
100
AcDbDimStyleTableRecord
  2
SYS$0
 70
     0
  4
"
 41
1.0
 42
1.5
 43
10.0
 44
1.0
 47
0.1
 48
0.1
 73
     0
 74
     0
 77
     1
 78
     8
 79
     2
140
3.2
141
0.0
143
0.0393701
146
0.71
147
0.9999999999999996
172
     1
176
   256
177
   256
178
     2
271
     1
272
     1
283
     0
284
     8
340
11
341
A66
342
6C4
371
    -1
372
    -1
  0
DIMSTYLE
105
C58E
330
A
100
AcDbSymbolTableRecord
100
AcDbDimStyleTableRecord
  2
SYSORG2P0
 70
     0
  4
"
 41
1.0
 42
1.0
 43
10.0
 44
1.0
 47
0.2
 48
0.2000000002
 71
     1
 73
     0
 74
     0
 77
     1
 78
     8
 79
     2
140
3.5
141
0.0
143
0.0393701
144
2.0
146
0.6
147
1.5
172
     1
176
   256
177
   256
178
     7
271
     2
272
     2
283
     0
284
     8
340
11
341
6C4
342
6C4
371
    -1
372
    -1
  0
DIMSTYLE
105
110F8
330
A
100
AcDbSymbolTableRecord
100
AcDbDimStyleTableRecord
  2
ISO-25
 70
     0
 41
3.0
 42
0.3
 43
9.0
 44
1.25
 73
     0
 74
     0
 77
     1
140
5.0
141
2.5
146
0.6
147
0.2
171
     3
172
     1
279
     2
340
11
  0
ENDTAB
  0
TABLE
  2
BLOCK_RECORD
  5
1
330
0
100
AcDbSymbolTable
 70
    44
  0
BLOCK_RECORD
  5
1F
102
{ACAD_XDICTIONARY
360
8A
102
}
330
1
100
AcDbSymbolTableRecord
100
AcDbBlockTableRecord
  2
*Model_Space
340
22
  0
BLOCK_RECORD
  5
1B
330
1
100
AcDbSymbolTableRecord
100
AcDbBlockTableRecord
  2
*Paper_Space
340
1E
  0
BLOCK_RECORD
  5
23
330
1
100
AcDbSymbolTableRecord
100
AcDbBlockTableRecord
  2
*Paper_Space0
340
26
  0
BLOCK_RECORD
  5
72
330
1
100
AcDbSymbolTableRecord
100
AcDbBlockTableRecord
  2
GENAXEH
340
0
  0
BLOCK_RECORD
  5
6C4
330
1
100
AcDbSymbolTableRecord
100
AcDbBlockTableRecord
  2
_Dot
340
0
102
{BLKREFS
331
63FBC
331
63FBD
331
63FC5
331
63FC6
331
63FCE
331
63FCF
331
63FD7
331
63FD8
331
63FE0
331
63FE1
331
63FE9
331
63FEA
331
63FFD
331
63FFE
331
64006
331
64007
331
6400F
331
64010
331
64023
331
64024
331
6402C
331
6402D
331
64035
331
64036
331
6403E
331
6403F
331
64047
331
64048
331
64050
331
64051
331
64059
331
6405A
331
6409C
331
6409D
331
640A3
331
640A4
331
640AC
331
640AD
331
640B5
331
640B6
331
640BE
331
640BF
331
640D2
331
640D3
331
640D9
331
640DA
331
640E2
331
640E3
331
640EB
331
640EC
331
640F4
331
640F5
331
64108
331
64109
331
64D20
331
64D21
331
64D32
331
64D33
331
64DB5
331
64DB6
331
64DC0
331
64DC1
331
64DD3
331
64DD4
331
64E63
331
64E64
331
64E6C
331
64E6D
331
64EAD
331
64EAE
331
64EF1
331
64EF2
331
64F28
331
64F29
331
64F31
331
64F32
102
}
  0
BLOCK_RECORD
  5
A66
330
1
100
AcDbSymbolTableRecord
100
AcDbBlockTableRecord
  2
_OPEN30
340
0
  0
BLOCK_RECORD
  5
527DF
330
1
100
AcDbSymbolTableRecord
100
AcDbBlockTableRecord
  2
*D4
340
0
  0
BLOCK_RECORD
  5
528C9
330
1
100
AcDbSymbolTableRecord
100
AcDbBlockTableRecord
  2
*D5
340
0
  0
BLOCK_RECORD
  5
528EA
330
1
100
AcDbSymbolTableRecord
100
AcDbBlockTableRecord
  2
*D6
340
0
  0
BLOCK_RECORD
  5
52902
330
1
100
AcDbSymbolTableRecord
100
AcDbBlockTableRecord
  2
*D7
340
0
  0
BLOCK_RECORD
  5
5293E
330
1
100
AcDbSymbolTableRecord
100
AcDbBlockTableRecord
  2
*D8
340
0
  0
BLOCK_RECORD
  5
52983
330
1
100
AcDbSymbolTableRecord
100
AcDbBlockTableRecord
  2
*D9
340
0
  0
BLOCK_RECORD
  5
5299B
330
1
100
AcDbSymbolTableRecord
100
AcDbBlockTableRecord
  2
*D10
340
0
  0
BLOCK_RECORD
  5
529FD
330
1
100
AcDbSymbolTableRecord
100
AcDbBlockTableRecord
  2
*D11
340
0
  0
BLOCK_RECORD
  5
52A38
330
1
100
AcDbSymbolTableRecord
100
AcDbBlockTableRecord
  2
*D12
340
0
  0
BLOCK_RECORD
  5
52A59
330
1
100
AcDbSymbolTableRecord
100
AcDbBlockTableRecord
  2
*D13
340
0
  0
BLOCK_RECORD
  5
52A85
330
1
100
AcDbSymbolTableRecord
100
AcDbBlockTableRecord
  2
*D14
340
0
  0
BLOCK_RECORD
  5
52AE1
330
1
100
AcDbSymbolTableRecord
100
AcDbBlockTableRecord
  2
*D15
340
0
  0
BLOCK_RECORD
  5
52AED
330
1
100
AcDbSymbolTableRecord
100
AcDbBlockTableRecord
  2
*D16
340
0
  0
BLOCK_RECORD
  5
52AF9
330
1
100
AcDbSymbolTableRecord
100
AcDbBlockTableRecord
  2
*D17
340
0
  0
BLOCK_RECORD
  5
52B29
330
1
100
AcDbSymbolTableRecord
100
AcDbBlockTableRecord
  2
*D18
340
0
  0
BLOCK_RECORD
  5
52B35
330
1
100
AcDbSymbolTableRecord
100
AcDbBlockTableRecord
  2
*D19
340
0
  0
BLOCK_RECORD
  5
52B41
330
1
100
AcDbSymbolTableRecord
100
AcDbBlockTableRecord
  2
*D20
340
0
  0
BLOCK_RECORD
  5
52B6B
330
1
100
AcDbSymbolTableRecord
100
AcDbBlockTableRecord
  2
*D21
340
0
  0
BLOCK_RECORD
  5
52B97
330
1
100
AcDbSymbolTableRecord
100
AcDbBlockTableRecord
  2
*D22
340
0
  0
BLOCK_RECORD
  5
52CCA
330
1
100
AcDbSymbolTableRecord
100
AcDbBlockTableRecord
  2
*D23
340
0
  0
BLOCK_RECORD
  5
54544
330
1
100
AcDbSymbolTableRecord
100
AcDbBlockTableRecord
  2
*D24
340
0
  0
BLOCK_RECORD
  5
5464C
330
1
100
AcDbSymbolTableRecord
100
AcDbBlockTableRecord
  2
*D25
340
0
  0
BLOCK_RECORD
  5
546B7
330
1
100
AcDbSymbolTableRecord
100
AcDbBlockTableRecord
  2
*D26
340
0
  0
BLOCK_RECORD
  5
546DB
330
1
100
AcDbSymbolTableRecord
100
AcDbBlockTableRecord
  2
*D27
340
0
  0
BLOCK_RECORD
  5
546E7
330
1
100
AcDbSymbolTableRecord
100
AcDbBlockTableRecord
  2
*D28
340
0
  0
BLOCK_RECORD
  5
54735
330
1
100
AcDbSymbolTableRecord
100
AcDbBlockTableRecord
  2
*D29
340
0
  0
BLOCK_RECORD
  5
5475D
330
1
100
AcDbSymbolTableRecord
100
AcDbBlockTableRecord
  2
*D30
340
0
  0
BLOCK_RECORD
  5
5477C
330
1
100
AcDbSymbolTableRecord
100
AcDbBlockTableRecord
  2
*D31
340
0
  0
BLOCK_RECORD
  5
547BA
330
1
100
AcDbSymbolTableRecord
100
AcDbBlockTableRecord
  2
*D32
340
0
  0
BLOCK_RECORD
  5
547DA
330
1
100
AcDbSymbolTableRecord
100
AcDbBlockTableRecord
  2
*D33
340
0
  0
BLOCK_RECORD
  5
547E6
330
1
100
AcDbSymbolTableRecord
100
AcDbBlockTableRecord
  2
*D34
340
0
  0
BLOCK_RECORD
  5
54834
330
1
100
AcDbSymbolTableRecord
100
AcDbBlockTableRecord
  2
*D35
340
0
  0
BLOCK_RECORD
  5
5485C
330
1
100
AcDbSymbolTableRecord
100
AcDbBlockTableRecord
  2
*D36
340
0
  0
BLOCK_RECORD
  5
64DA3
330
1
100
AcDbSymbolTableRecord
100
AcDbBlockTableRecord
  2
*D38
340
0
  0
BLOCK_RECORD
  5
64DAF
330
1
100
AcDbSymbolTableRecord
100
AcDbBlockTableRecord
  2
*D39
340
0
  0
BLOCK_RECORD
  5
64E46
330
1
100
AcDbSymbolTableRecord
100
AcDbBlockTableRecord
  2
*D40
340
0
  0
BLOCK_RECORD
  5
64F09
330
1
100
AcDbSymbolTableRecord
100
AcDbBlockTableRecord
  2
*D41
340
0
  0
BLOCK_RECORD
  5
64F17
330
1
100
AcDbSymbolTableRecord
100
AcDbBlockTableRecord
  2
*D42
340
0
  0
ENDTAB
  0
ENDSEC
  0
SECTION
  2
BLOCKS
  0
BLOCK
  5
20
330
1F
100
AcDbEntity
  8
0
100
AcDbBlockBegin
  2
*Model_Space
 70
     0
 10
0.0
 20
0.0
 30
0.0
  3
*Model_Space
  1

  0
ENDBLK
  5
21
330
1F
100
AcDbEntity
  8
0
100
AcDbBlockEnd
  0
BLOCK
  5
1C
330
1B
100
AcDbEntity
 67
     1
  8
0
100
AcDbBlockBegin
  2
*Paper_Space
 70
     0
 10
0.0
 20
0.0
 30
0.0
  3
*Paper_Space
  1

  0
ENDBLK
  5
1D
330
1B
100
AcDbEntity
 67
     1
  8
0
100
AcDbBlockEnd
  0
BLOCK
  5
24
330
23
100
AcDbEntity
 67
     1
  8
0
100
AcDbBlockBegin
  2
*Paper_Space0
 70
     0
 10
0.0
 20
0.0
 30
0.0
  3
*Paper_Space0
  1

  0
ENDBLK
  5
25
330
23
100
AcDbEntity
 67
     1
  8
0
100
AcDbBlockEnd
  0
BLOCK
  5
74
330
72
100
AcDbEntity
  8
0
100
AcDbBlockBegin
  2
GENAXEH
 70
     0
 10
0.0
 20
0.0
 30
0.0
  3
GENAXEH
  1

  0
LINE
  5
73
330
72
100
AcDbEntity
  8
0
100
AcDbLine
 10
-1.0
 20
0.0
 30
0.0
 11
1.0
 21
0.0
 31
0.0
  0
ENDBLK
  5
75
330
72
100
AcDbEntity
  8
0
100
AcDbBlockEnd
  0
BLOCK
  5
6C7
330
6C4
100
AcDbEntity
  8
0
100
AcDbBlockBegin
  2
_Dot
 70
     0
 10
0.0
 20
0.0
 30
0.0
  3
_Dot
  1

  0
LWPOLYLINE
  5
6C5
330
6C4
100
AcDbEntity
  8
0
  6
ByBlock
 62
     0
100
AcDbPolyline
 90
        2
 70
     1
 43
0.5
 10
-0.25
 20
0.0
 42
1.0
 10
0.25
 20
0.0
 42
1.0
  0
LINE
  5
6C6
330
6C4
100
AcDbEntity
  8
0
  6
ByBlock
 62
     0
370
    -2
100
AcDbLine
 10
-0.5
 20
0.0
 30
0.0
 11
-1.0
 21
0.0
 31
0.0
  0
ENDBLK
  5
6C8
330
6C4
100
AcDbEntity
  8
0
100
AcDbBlockEnd
  0
BLOCK
  5
A6A
330
A66
100
AcDbEntity
  8
0
100
AcDbBlockBegin
  2
_OPEN30
 70
     0
 10
0.0
 20
0.0
 30
0.0
  3
_OPEN30
  1

  0
LINE
  5
A67
330
A66
100
AcDbEntity
  8
0
  6
ByBlock
 62
     0
100
AcDbLine
 10
-1.0
 20
0.26794919
 30
0.0
 11
0.0
 21
0.0
 31
0.0
  0
LINE
  5
A68
330
A66
100
AcDbEntity
  8
0
  6
ByBlock
 62
     0
100
AcDbLine
 10
0.0
 20
0.0
 30
0.0
 11
-1.0
 21
-0.26794919
 31
0.0
  0
LINE
  5
A69
330
A66
100
AcDbEntity
  8
0
  6
ByBlock
 62
     0
100
AcDbLine
 10
0.0
 20
0.0
 30
0.0
 11
-1.0
 21
0.0
 31
0.0
  0
ENDBLK
  5
A6B
330
A66
100
AcDbEntity
  8
0
100
AcDbBlockEnd
  0
BLOCK
  5
527E9
330
527DF
100
AcDbEntity
  8
0
100
AcDbBlockBegin
  2
*D4
 70
     1
 10
0.0
 20
0.0
 30
0.0
  3
*D4
  1

  0
LINE
  5
64DD0
330
527DF
100
AcDbEntity
  8
AM_5
100
AcDbLine
 10
135.4999907874157
 20
136.5000030000001
 30
0.0
 11
135.4999907874157
 21
158.9999999999927
 31
0.0
  0
LINE
  5
64DD1
330
527DF
100
AcDbEntity
  8
AM_5
100
AcDbLine
 10
191.4999907874157
 20
136.5000030000001
 30
0.0
 11
191.4999907874157
 21
158.9999999999927
 31
0.0
  0
LINE
  5
64DD2
330
527DF
100
AcDbEntity
  8
AM_5
100
AcDbLine
 10
136.4999907874157
 20
157.9999999999927
 30
0.0
 11
190.4999907874157
 21
157.9999999999927
 31
0.0
  0
INSERT
  5
64DD3
330
527DF
100
AcDbEntity
  8
AM_5
100
AcDbBlockReference
  2
_Dot
 10
135.4999907874157
 20
157.9999999999927
 30
0.0
 41
1.0
 42
1.0
 43
1.0
 50
180.0
  0
INSERT
  5
64DD4
330
527DF
100
AcDbEntity
  8
AM_5
100
AcDbBlockReference
  2
_Dot
 10
191.4999907874157
 20
157.9999999999927
 30
0.0
 41
1.0
 42
1.0
 43
1.0
  0
MTEXT
  5
64DD5
330
527DF
100
AcDbEntity
  8
AM_5
 62
     2
100
AcDbMText
 10
163.4999907874157
 20
160.5999999999927
 30
0.0
 40
3.2
 41
0.0
 71
     5
 72
     1
  1
56
 73
     1
 44
1.0
1001
ACAD
1000
MTEXTBEGIN
1070
    73
1070
     1
1070
    44
1040
1.0
1070
    74
1070
     0
1000
MTEXTEND
  0
POINT
  5
64DD6
330
527DF
100
AcDbEntity
  8
Defpoints
 62
     0
100
AcDbPoint
 10
135.4999907874157
 20
135.0000030000001
 30
0.0
  0
POINT
  5
64DD7
330
527DF
100
AcDbEntity
  8
Defpoints
 62
     0
100
AcDbPoint
 10
191.4999907874157
 20
135.0000030000001
 30
0.0
  0
POINT
  5
64DD8
330
527DF
100
AcDbEntity
  8
Defpoints
 62
     0
100
AcDbPoint
 10
191.4999907874157
 20
157.9999999999927
 30
0.0
  0
ENDBLK
  5
527EA
330
527DF
100
AcDbEntity
  8
0
100
AcDbBlockEnd
  0
BLOCK
  5
528D3
330
528C9
100
AcDbEntity
  8
0
100
AcDbBlockBegin
  2
*D5
 70
     1
 10
0.0
 20
0.0
 30
0.0
  3
*D5
  1

  0
LINE
  5
63FB9
330
528C9
100
AcDbEntity
  8
AM_5
100
AcDbLine
 10
40.40000921258434
 20
88.00000299999988
 30
0.0
 11
28.50000921258424
 21
88.0000029999999
 31
0.0
  0
LINE
  5
63FBA
330
528C9
100
AcDbEntity
  8
AM_5
100
AcDbLine
 10
40.40000921258479
 20
126.0000029999998
 30
0.0
 11
28.50000921258425
 21
126.0000029999999
 31
0.0
  0
LINE
  5
63FBB
330
528C9
100
AcDbEntity
  8
AM_5
100
AcDbLine
 10
29.50000921258424
 20
89.00000299999989
 30
0.0
 11
29.50000921258425
 21
125.0000029999999
 31
0.0
  0
INSERT
  5
63FBC
330
528C9
100
AcDbEntity
  8
AM_5
100
AcDbBlockReference
  2
_Dot
 10
29.50000921258424
 20
88.0000029999999
 30
0.0
 41
1.0
 42
1.0
 43
1.0
 50
270.0
  0
INSERT
  5
63FBD
330
528C9
100
AcDbEntity
  8
AM_5
100
AcDbBlockReference
  2
_Dot
 10
29.50000921258425
 20
126.0000029999999
 30
0.0
 41
1.0
 42
1.0
 43
1.0
 50
90.0
  0
MTEXT
  5
63FBE
330
528C9
100
AcDbEntity
  8
AM_5
 62
     2
100
AcDbMText
 10
26.90000921258422
 20
107.0000029999999
 30
0.0
 40
3.2
 41
0.0
 71
     5
 72
     1
  1
38
 11
0.0000000000000001
 21
1.0
 31
0.0
 73
     1
 44
1.0
1001
ACAD
1000
MTEXTBEGIN
1070
    73
1070
     1
1070
    44
1040
1.0
1070
    74
1070
     0
1000
MTEXTEND
  0
POINT
  5
63FBF
330
528C9
100
AcDbEntity
  8
Defpoints
 62
     0
100
AcDbPoint
 10
41.90000921258433
 20
88.00000299999988
 30
0.0
  0
POINT
  5
63FC0
330
528C9
100
AcDbEntity
  8
Defpoints
 62
     0
100
AcDbPoint
 10
41.90000921258479
 20
126.0000029999998
 30
0.0
  0
POINT
  5
63FC1
330
528C9
100
AcDbEntity
  8
Defpoints
 62
     0
100
AcDbPoint
 10
29.50000921258425
 20
126.0000029999999
 30
0.0
  0
ENDBLK
  5
528D4
330
528C9
100
AcDbEntity
  8
0
100
AcDbBlockEnd
  0
BLOCK
  5
528F4
330
528EA
100
AcDbEntity
  8
0
100
AcDbBlockBegin
  2
*D6
 70
     1
 10
0.0
 20
0.0
 30
0.0
  3
*D6
  1

  0
LINE
  5
63FC2
330
528EA
100
AcDbEntity
  8
AM_5
100
AcDbLine
 10
95.30000921258443
 20
107.0000029999998
 30
0.0
 11
104.5000092125842
 21
107.0000029999998
 31
0.0
  0
LINE
  5
63FC3
330
528EA
100
AcDbEntity
  8
AM_5
100
AcDbLine
 10
95.30000921258443
 20
128.0000029999998
 30
0.0
 11
104.5000092125842
 21
128.0000029999998
 31
0.0
  0
LINE
  5
63FC4
330
528EA
100
AcDbEntity
  8
AM_5
100
AcDbLine
 10
103.5000092125842
 20
108.0000029999999
 30
0.0
 11
103.5000092125842
 21
127.0000029999998
 31
0.0
  0
INSERT
  5
63FC5
330
528EA
100
AcDbEntity
  8
AM_5
100
AcDbBlockReference
  2
_Dot
 10
103.5000092125842
 20
107.0000029999998
 30
0.0
 41
1.0
 42
1.0
 43
1.0
 50
270.0
  0
INSERT
  5
63FC6
330
528EA
100
AcDbEntity
  8
AM_5
100
AcDbBlockReference
  2
_Dot
 10
103.5000092125842
 20
128.0000029999998
 30
0.0
 41
1.0
 42
1.0
 43
1.0
 50
90.0
  0
MTEXT
  5
63FC7
330
528EA
100
AcDbEntity
  8
AM_5
 62
     2
100
AcDbMText
 10
100.9000092125842
 20
117.5000029999999
 30
0.0
 40
3.2
 41
0.0
 71
     5
 72
     1
  1
21
 11
0.0000000000000001
 21
1.0
 31
0.0
 73
     1
 44
1.0
1001
ACAD
1000
MTEXTBEGIN
1070
    73
1070
     1
1070
    44
1040
1.0
1070
    74
1070
     0
1000
MTEXTEND
  0
POINT
  5
63FC8
330
528EA
100
AcDbEntity
  8
Defpoints
 62
     0
100
AcDbPoint
 10
93.80000921258442
 20
107.0000029999998
 30
0.0
  0
POINT
  5
63FC9
330
528EA
100
AcDbEntity
  8
Defpoints
 62
     0
100
AcDbPoint
 10
93.80000921258442
 20
128.0000029999998
 30
0.0
  0
POINT
  5
63FCA
330
528EA
100
AcDbEntity
  8
Defpoints
 62
     0
100
AcDbPoint
 10
103.5000092125842
 20
128.0000029999998
 30
0.0
  0
ENDBLK
  5
528F5
330
528EA
100
AcDbEntity
  8
0
100
AcDbBlockEnd
  0
BLOCK
  5
5290C
330
52902
100
AcDbEntity
  8
0
100
AcDbBlockBegin
  2
*D7
 70
     1
 10
0.0
 20
0.0
 30
0.0
  3
*D7
  1

  0
LINE
  5
63FCB
330
52902
100
AcDbEntity
  8
AM_5
100
AcDbLine
 10
95.30000921258443
 20
107.0000029999998
 30
0.0
 11
104.5000092125842
 21
107.0000029999998
 31
0.0
  0
LINE
  5
63FCC
330
52902
100
AcDbEntity
  8
AM_5
100
AcDbLine
 10
95.30000921258443
 20
86.00000299999988
 30
0.0
 11
104.5000092125842
 21
86.00000299999987
 31
0.0
  0
LINE
  5
63FCD
330
52902
100
AcDbEntity
  8
AM_5
100
AcDbLine
 10
103.5000092125842
 20
106.0000029999998
 30
0.0
 11
103.5000092125842
 21
87.00000299999986
 31
0.0
  0
INSERT
  5
63FCE
330
52902
100
AcDbEntity
  8
AM_5
100
AcDbBlockReference
  2
_Dot
 10
103.5000092125842
 20
107.0000029999998
 30
0.0
 41
1.0
 42
1.0
 43
1.0
 50
90.0
  0
INSERT
  5
63FCF
330
52902
100
AcDbEntity
  8
AM_5
100
AcDbBlockReference
  2
_Dot
 10
103.5000092125842
 20
86.00000299999987
 30
0.0
 41
1.0
 42
1.0
 43
1.0
 50
270.0
  0
MTEXT
  5
63FD0
330
52902
100
AcDbEntity
  8
AM_5
 62
     2
100
AcDbMText
 10
100.9000092125842
 20
96.50000299999989
 30
0.0
 40
3.2
 41
0.0
 71
     5
 72
     1
  1
21
 11
0.0000000000000001
 21
1.0
 31
0.0
 73
     1
 44
1.0
1001
ACAD
1000
MTEXTBEGIN
1070
    73
1070
     1
1070
    44
1040
1.0
1070
    74
1070
     0
1000
MTEXTEND
  0
POINT
  5
63FD1
330
52902
100
AcDbEntity
  8
Defpoints
 62
     0
100
AcDbPoint
 10
93.80000921258442
 20
107.0000029999998
 30
0.0
  0
POINT
  5
63FD2
330
52902
100
AcDbEntity
  8
Defpoints
 62
     0
100
AcDbPoint
 10
93.80000921258442
 20
86.00000299999988
 30
0.0
  0
POINT
  5
63FD3
330
52902
100
AcDbEntity
  8
Defpoints
 62
     0
100
AcDbPoint
 10
103.5000092125842
 20
86.00000299999987
 30
0.0
  0
ENDBLK
  5
5290D
330
52902
100
AcDbEntity
  8
0
100
AcDbBlockEnd
  0
BLOCK
  5
52948
330
5293E
100
AcDbEntity
  8
0
100
AcDbBlockBegin
  2
*D8
 70
     1
 10
0.0
 20
0.0
 30
0.0
  3
*D8
  1

  0
LINE
  5
63FD4
330
5293E
100
AcDbEntity
  8
AM_5
100
AcDbLine
 10
90.50000921258424
 20
139.5000029999998
 30
0.0
 11
112.5000092125842
 21
139.5000029999998
 31
0.0
  0
LINE
  5
63FD5
330
5293E
100
AcDbEntity
  8
AM_5
100
AcDbLine
 10
90.50000921258424
 20
74.50000299999988
 30
0.0
 11
112.5000092125842
 21
74.50000299999986
 31
0.0
  0
LINE
  5
63FD6
330
5293E
100
AcDbEntity
  8
AM_5
100
AcDbLine
 10
111.5000092125842
 20
138.5000029999998
 30
0.0
 11
111.5000092125842
 21
75.50000299999986
 31
0.0
  0
INSERT
  5
63FD7
330
5293E
100
AcDbEntity
  8
AM_5
100
AcDbBlockReference
  2
_Dot
 10
111.5000092125842
 20
139.5000029999998
 30
0.0
 41
1.0
 42
1.0
 43
1.0
 50
90.0
  0
INSERT
  5
63FD8
330
5293E
100
AcDbEntity
  8
AM_5
100
AcDbBlockReference
  2
_Dot
 10
111.5000092125842
 20
74.50000299999986
 30
0.0
 41
1.0
 42
1.0
 43
1.0
 50
270.0
  0
MTEXT
  5
63FD9
330
5293E
100
AcDbEntity
  8
AM_5
 62
     2
100
AcDbMText
 10
108.9000092125842
 20
107.0000029999999
 30
0.0
 40
3.2
 41
0.0
 71
     5
 72
     1
  1
A
 11
0.0000000000000001
 21
1.0
 31
0.0
 73
     1
 44
1.0
1001
ACAD
1000
MTEXTBEGIN
1070
    73
1070
     1
1070
    44
1040
1.0
1070
    74
1070
     0
1000
MTEXTEND
  0
POINT
  5
63FDA
330
5293E
100
AcDbEntity
  8
Defpoints
 62
     0
100
AcDbPoint
 10
89.00000921258424
 20
139.5000029999998
 30
0.0
  0
POINT
  5
63FDB
330
5293E
100
AcDbEntity
  8
Defpoints
 62
     0
100
AcDbPoint
 10
89.00000921258424
 20
74.50000299999988
 30
0.0
  0
POINT
  5
63FDC
330
5293E
100
AcDbEntity
  8
Defpoints
 62
     0
100
AcDbPoint
 10
111.5000092125842
 20
74.50000299999986
 30
0.0
  0
ENDBLK
  5
52949
330
5293E
100
AcDbEntity
  8
0
100
AcDbBlockEnd
  0
BLOCK
  5
5298D
330
52983
100
AcDbEntity
  8
0
100
AcDbBlockBegin
  2
*D9
 70
     1
 10
0.0
 20
0.0
 30
0.0
  3
*D9
  1

  0
LINE
  5
63FDD
330
52983
100
AcDbEntity
  8
AM_5
100
AcDbLine
 10
69.50001842516804
 20
146.4999999999927
 30
0.0
 11
69.50001842516804
 21
150.9999979807969
 31
0.0
  0
LINE
  5
63FDE
330
52983
100
AcDbEntity
  8
AM_5
100
AcDbLine
 10
85.50000921258334
 20
137.8000029999998
 30
0.0
 11
85.50000921258334
 21
150.9999979807969
 31
0.0
  0
LINE
  5
63FDF
330
52983
100
AcDbEntity
  8
AM_5
100
AcDbLine
 10
70.50001842516803
 20
149.9999979807969
 30
0.0
 11
84.50000921258334
 21
149.9999979807969
 31
0.0
  0
INSERT
  5
63FE0
330
52983
100
AcDbEntity
  8
AM_5
100
AcDbBlockReference
  2
_Dot
 10
69.50001842516804
 20
149.9999979807969
 30
0.0
 41
1.0
 42
1.0
 43
1.0
 50
180.0
  0
INSERT
  5
63FE1
330
52983
100
AcDbEntity
  8
AM_5
100
AcDbBlockReference
  2
_Dot
 10
85.50000921258334
 20
149.9999979807969
 30
0.0
 41
1.0
 42
1.0
 43
1.0
  0
MTEXT
  5
63FE2
330
52983
100
AcDbEntity
  8
AM_5
 62
     2
100
AcDbMText
 10
77.50001381887568
 20
152.5999979807969
 30
0.0
 40
3.2
 41
0.0
 71
     5
 72
     1
  1
16
 73
     1
 44
1.0
1001
ACAD
1000
MTEXTBEGIN
1070
    73
1070
     1
1070
    44
1040
1.0
1070
    74
1070
     0
1000
MTEXTEND
  0
POINT
  5
63FE3
330
52983
100
AcDbEntity
  8
Defpoints
 62
     0
100
AcDbPoint
 10
69.50001842516804
 20
144.9999999999927
 30
0.0
  0
POINT
  5
63FE4
330
52983
100
AcDbEntity
  8
Defpoints
 62
     0
100
AcDbPoint
 10
85.50000921258334
 20
136.3000029999998
 30
0.0
  0
POINT
  5
63FE5
330
52983
100
AcDbEntity
  8
Defpoints
 62
     0
100
AcDbPoint
 10
85.50000921258334
 20
149.9999979807969
 30
0.0
  0
ENDBLK
  5
5298E
330
52983
100
AcDbEntity
  8
0
100
AcDbBlockEnd
  0
BLOCK
  5
529A5
330
5299B
100
AcDbEntity
  8
0
100
AcDbBlockBegin
  2
*D10
 70
     1
 10
0.0
 20
0.0
 30
0.0
  3
*D10
  1

  0
LINE
  5
63FE6
330
5299B
100
AcDbEntity
  8
AM_5
100
AcDbLine
 10
69.50001842516804
 20
146.4999999999927
 30
0.0
 11
69.50001842516804
 21
151.0000027763885
 31
0.0
  0
LINE
  5
63FE7
330
5299B
100
AcDbEntity
  8
AM_5
100
AcDbLine
 10
47.50000921258425
 20
133.100003
 30
0.0
 11
47.50000921258425
 21
151.0000027763885
 31
0.0
  0
LINE
  5
63FE8
330
5299B
100
AcDbEntity
  8
AM_5
100
AcDbLine
 10
68.50001842516803
 20
150.0000027763885
 30
0.0
 11
48.50000921258424
 21
150.0000027763885
 31
0.0
  0
INSERT
  5
63FE9
330
5299B
100
AcDbEntity
  8
AM_5
100
AcDbBlockReference
  2
_Dot
 10
69.50001842516804
 20
150.0000027763885
 30
0.0
 41
1.0
 42
1.0
 43
1.0
  0
INSERT
  5
63FEA
330
5299B
100
AcDbEntity
  8
AM_5
100
AcDbBlockReference
  2
_Dot
 10
47.50000921258425
 20
150.0000027763885
 30
0.0
 41
1.0
 42
1.0
 43
1.0
 50
180.0
  0
MTEXT
  5
63FEB
330
5299B
100
AcDbEntity
  8
AM_5
 62
     2
100
AcDbMText
 10
58.50001381887614
 20
152.6000027763885
 30
0.0
 40
3.2
 41
0.0
 71
     5
 72
     1
  1
22
 73
     1
 44
1.0
1001
ACAD
1000
MTEXTBEGIN
1070
    73
1070
     1
1070
    44
1040
1.0
1070
    74
1070
     0
1000
MTEXTEND
  0
POINT
  5
63FEC
330
5299B
100
AcDbEntity
  8
Defpoints
 62
     0
100
AcDbPoint
 10
69.50001842516804
 20
144.9999999999927
 30
0.0
  0
POINT
  5
63FED
330
5299B
100
AcDbEntity
  8
Defpoints
 62
     0
100
AcDbPoint
 10
47.50000921258425
 20
131.600003
 30
0.0
  0
POINT
  5
63FEE
330
5299B
100
AcDbEntity
  8
Defpoints
 62
     0
100
AcDbPoint
 10
47.50000921258425
 20
150.0000027763885
 30
0.0
  0
ENDBLK
  5
529A6
330
5299B
100
AcDbEntity
  8
0
100
AcDbBlockEnd
  0
BLOCK
  5
52A09
330
529FD
100
AcDbEntity
  8
0
100
AcDbBlockBegin
  2
*D11
 70
     1
 10
0.0
 20
0.0
 30
0.0
  3
*D11
  1

  0
LINE
  5
64D1B
330
529FD
100
AcDbEntity
  8
AM_5
100
AcDbLine
 10
95.00000921258424
 20
202.7499999999925
 30
0.0
 11
104.5000092125842
 21
202.7499999999925
 31
0.0
  0
LINE
  5
64D1C
330
529FD
100
AcDbEntity
  8
AM_5
100
AcDbLine
 10
95.00000921258424
 20
199.7499999999927
 30
0.0
 11
104.5000092125842
 21
199.7499999999927
 31
0.0
  0
LINE
  5
64D1D
330
529FD
100
AcDbEntity
  8
AM_5
100
AcDbLine
 10
103.5000092125842
 20
203.7499999999925
 30
0.0
 11
103.5000092125842
 21
204.7499999999925
 31
0.0
  0
LINE
  5
64D1E
330
529FD
100
AcDbEntity
  8
AM_5
100
AcDbLine
 10
103.5000092125842
 20
198.7499999999927
 30
0.0
 11
103.5000092125842
 21
194.2566666666594
 31
0.0
  0
LINE
  5
64D1F
330
529FD
100
AcDbEntity
  8
AM_5
100
AcDbLine
 10
103.5000092125842
 20
202.7499999999925
 30
0.0
 11
103.5000092125842
 21
199.7499999999927
 31
0.0
  0
INSERT
  5
64D20
330
529FD
100
AcDbEntity
  8
AM_5
100
AcDbBlockReference
  2
_Dot
 10
103.5000092125842
 20
202.7499999999925
 30
0.0
 41
1.0
 42
1.0
 43
1.0
 50
270.0
  0
INSERT
  5
64D21
330
529FD
100
AcDbEntity
  8
AM_5
100
AcDbBlockReference
  2
_Dot
 10
103.5000092125842
 20
199.7499999999927
 30
0.0
 41
1.0
 42
1.0
 43
1.0
 50
90.0
  0
MTEXT
  5
64D22
330
529FD
100
AcDbEntity
  8
AM_5
 62
     2
100
AcDbMText
 10
100.9000092125842
 20
196.0033333333261
 30
0.0
 40
3.2
 41
0.0
 71
     5
 72
     1
  1
3
 11
0.0000000000000001
 21
1.0
 31
0.0
 73
     1
 44
1.0
1001
ACAD
1000
MTEXTBEGIN
1070
    73
1070
     1
1070
    44
1040
1.0
1070
    74
1070
     0
1000
MTEXTEND
  0
POINT
  5
64D23
330
529FD
100
AcDbEntity
  8
Defpoints
 62
     0
100
AcDbPoint
 10
93.50000921258425
 20
202.7499999999925
 30
0.0
  0
POINT
  5
64D24
330
529FD
100
AcDbEntity
  8
Defpoints
 62
     0
100
AcDbPoint
 10
93.50000921258425
 20
199.7499999999927
 30
0.0
  0
POINT
  5
64D25
330
529FD
100
AcDbEntity
  8
Defpoints
 62
     0
100
AcDbPoint
 10
103.5000092125842
 20
199.7499999999927
 30
0.0
  0
ENDBLK
  5
52A0A
330
529FD
100
AcDbEntity
  8
0
100
AcDbBlockEnd
  0
BLOCK
  5
52A42
330
52A38
100
AcDbEntity
  8
0
100
AcDbBlockBegin
  2
*D12
 70
     1
 10
0.0
 20
0.0
 30
0.0
  3
*D12
  1

  0
LINE
  5
63FFA
330
52A38
100
AcDbEntity
  8
AM_5
100
AcDbLine
 10
37.50000921258425
 20
136.5000029999999
 30
0.0
 11
37.50000921258425
 21
166.9999999999925
 31
0.0
  0
LINE
  5
63FFB
330
52A38
100
AcDbEntity
  8
AM_5
100
AcDbLine
 10
93.50000921258425
 20
136.5000029999999
 30
0.0
 11
93.50000921258425
 21
166.9999999999925
 31
0.0
  0
LINE
  5
63FFC
330
52A38
100
AcDbEntity
  8
AM_5
100
AcDbLine
 10
38.50000921258425
 20
165.9999999999925
 30
0.0
 11
92.50000921258424
 21
165.9999999999925
 31
0.0
  0
INSERT
  5
63FFD
330
52A38
100
AcDbEntity
  8
AM_5
100
AcDbBlockReference
  2
_Dot
 10
37.50000921258425
 20
165.9999999999925
 30
0.0
 41
1.0
 42
1.0
 43
1.0
 50
180.0
  0
INSERT
  5
63FFE
330
52A38
100
AcDbEntity
  8
AM_5
100
AcDbBlockReference
  2
_Dot
 10
93.50000921258425
 20
165.9999999999925
 30
0.0
 41
1.0
 42
1.0
 43
1.0
  0
MTEXT
  5
63FFF
330
52A38
100
AcDbEntity
  8
AM_5
 62
     2
100
AcDbMText
 10
65.50000921258424
 20
168.5999999999925
 30
0.0
 40
3.2
 41
0.0
 71
     5
 72
     1
  1
56
 73
     1
 44
1.0
1001
ACAD
1000
MTEXTBEGIN
1070
    73
1070
     1
1070
    44
1040
1.0
1070
    74
1070
     0
1000
MTEXTEND
  0
POINT
  5
64000
330
52A38
100
AcDbEntity
  8
Defpoints
 62
     0
100
AcDbPoint
 10
37.50000921258425
 20
135.0000029999999
 30
0.0
  0
POINT
  5
64001
330
52A38
100
AcDbEntity
  8
Defpoints
 62
     0
100
AcDbPoint
 10
93.50000921258425
 20
135.0000029999999
 30
0.0
  0
POINT
  5
64002
330
52A38
100
AcDbEntity
  8
Defpoints
 62
     0
100
AcDbPoint
 10
93.50000921258425
 20
165.9999999999925
 30
0.0
  0
ENDBLK
  5
52A43
330
52A38
100
AcDbEntity
  8
0
100
AcDbBlockEnd
  0
BLOCK
  5
52A63
330
52A59
100
AcDbEntity
  8
0
100
AcDbBlockBegin
  2
*D13
 70
     1
 10
0.0
 20
0.0
 30
0.0
  3
*D13
  1

  0
LINE
  5
64003
330
52A59
100
AcDbEntity
  8
AM_5
100
AcDbLine
 10
331.4999999999982
 20
136.5000029999999
 30
0.0
 11
331.4999999999982
 21
158.999992932805
 31
0.0
  0
LINE
  5
64004
330
52A59
100
AcDbEntity
  8
AM_5
100
AcDbLine
 10
387.4999999999984
 20
136.5000030000001
 30
0.0
 11
387.4999999999984
 21
158.999992932805
 31
0.0
  0
LINE
  5
64005
330
52A59
100
AcDbEntity
  8
AM_5
100
AcDbLine
 10
332.4999999999982
 20
157.999992932805
 30
0.0
 11
386.4999999999984
 21
157.999992932805
 31
0.0
  0
INSERT
  5
64006
330
52A59
100
AcDbEntity
  8
AM_5
100
AcDbBlockReference
  2
_Dot
 10
331.4999999999982
 20
157.999992932805
 30
0.0
 41
1.0
 42
1.0
 43
1.0
 50
180.0
  0
INSERT
  5
64007
330
52A59
100
AcDbEntity
  8
AM_5
100
AcDbBlockReference
  2
_Dot
 10
387.4999999999984
 20
157.999992932805
 30
0.0
 41
1.0
 42
1.0
 43
1.0
  0
MTEXT
  5
64008
330
52A59
100
AcDbEntity
  8
AM_5
 62
     2
100
AcDbMText
 10
359.4999999999983
 20
160.599992932805
 30
0.0
 40
3.2
 41
0.0
 71
     5
 72
     1
  1
56
 73
     1
 44
1.0
1001
ACAD
1000
MTEXTBEGIN
1070
    73
1070
     1
1070
    44
1040
1.0
1070
    74
1070
     0
1000
MTEXTEND
  0
POINT
  5
64009
330
52A59
100
AcDbEntity
  8
Defpoints
 62
     0
100
AcDbPoint
 10
331.4999999999982
 20
135.0000029999999
 30
0.0
  0
POINT
  5
6400A
330
52A59
100
AcDbEntity
  8
Defpoints
 62
     0
100
AcDbPoint
 10
387.4999999999984
 20
135.0000030000001
 30
0.0
  0
POINT
  5
6400B
330
52A59
100
AcDbEntity
  8
Defpoints
 62
     0
100
AcDbPoint
 10
387.4999999999984
 20
157.999992932805
 30
0.0
  0
ENDBLK
  5
52A64
330
52A59
100
AcDbEntity
  8
0
100
AcDbBlockEnd
  0
BLOCK
  5
52A8F
330
52A85
100
AcDbEntity
  8
0
100
AcDbBlockBegin
  2
*D14
 70
     1
 10
0.0
 20
0.0
 30
0.0
  3
*D14
  1

  0
LINE
  5
6400C
330
52A85
100
AcDbEntity
  8
AM_5
100
AcDbLine
 10
384.4999999999982
 20
139.5000030000001
 30
0.0
 11
398.500001009998
 21
139.5000030000001
 31
0.0
  0
LINE
  5
6400D
330
52A85
100
AcDbEntity
  8
AM_5
100
AcDbLine
 10
384.4999999999982
 20
74.5000030000001
 30
0.0
 11
398.500001009998
 21
74.5000030000001
 31
0.0
  0
LINE
  5
6400E
330
52A85
100
AcDbEntity
  8
AM_5
100
AcDbLine
 10
397.500001009998
 20
138.5000030000001
 30
0.0
 11
397.500001009998
 21
75.50000300000011
 31
0.0
  0
INSERT
  5
6400F
330
52A85
100
AcDbEntity
  8
AM_5
100
AcDbBlockReference
  2
_Dot
 10
397.500001009998
 20
139.5000030000001
 30
0.0
 41
1.0
 42
1.0
 43
1.0
 50
90.0
  0
INSERT
  5
64010
330
52A85
100
AcDbEntity
  8
AM_5
100
AcDbBlockReference
  2
_Dot
 10
397.500001009998
 20
74.5000030000001
 30
0.0
 41
1.0
 42
1.0
 43
1.0
 50
270.0
  0
MTEXT
  5
64011
330
52A85
100
AcDbEntity
  8
AM_5
 62
     2
100
AcDbMText
 10
394.9000010099979
 20
107.0000030000001
 30
0.0
 40
3.2
 41
0.0
 71
     5
 72
     1
  1
A
 11
0.0000000000000001
 21
1.0
 31
0.0
 73
     1
 44
1.0
1001
ACAD
1000
MTEXTBEGIN
1070
    73
1070
     1
1070
    44
1040
1.0
1070
    74
1070
     0
1000
MTEXTEND
  0
POINT
  5
64012
330
52A85
100
AcDbEntity
  8
Defpoints
 62
     0
100
AcDbPoint
 10
382.9999999999982
 20
139.5000030000001
 30
0.0
  0
POINT
  5
64013
330
52A85
100
AcDbEntity
  8
Defpoints
 62
     0
100
AcDbPoint
 10
382.9999999999982
 20
74.5000030000001
 30
0.0
  0
POINT
  5
64014
330
52A85
100
AcDbEntity
  8
Defpoints
 62
     0
100
AcDbPoint
 10
397.500001009998
 20
74.5000030000001
 30
0.0
  0
ENDBLK
  5
52A90
330
52A85
100
AcDbEntity
  8
0
100
AcDbBlockEnd
  0
BLOCK
  5
52AEB
330
52AE1
100
AcDbEntity
  8
0
100
AcDbBlockBegin
  2
*D15
 70
     1
 10
0.0
 20
0.0
 30
0.0
  3
*D15
  1

  0
LINE
  5
64020
330
52AE1
100
AcDbEntity
  8
AM_5
100
AcDbLine
 10
291.2999904088147
 20
107.0000029999998
 30
0.0
 11
300.4999904088144
 21
107.0000029999998
 31
0.0
  0
LINE
  5
64021
330
52AE1
100
AcDbEntity
  8
AM_5
100
AcDbLine
 10
291.2999904088147
 20
128.0000029999998
 30
0.0
 11
300.4999904088145
 21
128.0000029999998
 31
0.0
  0
LINE
  5
64022
330
52AE1
100
AcDbEntity
  8
AM_5
100
AcDbLine
 10
299.4999904088144
 20
108.0000029999999
 30
0.0
 11
299.4999904088144
 21
127.0000029999998
 31
0.0
  0
INSERT
  5
64023
330
52AE1
100
AcDbEntity
  8
AM_5
100
AcDbBlockReference
  2
_Dot
 10
299.4999904088144
 20
107.0000029999998
 30
0.0
 41
1.0
 42
1.0
 43
1.0
 50
270.0
  0
INSERT
  5
64024
330
52AE1
100
AcDbEntity
  8
AM_5
100
AcDbBlockReference
  2
_Dot
 10
299.4999904088145
 20
128.0000029999998
 30
0.0
 41
1.0
 42
1.0
 43
1.0
 50
90.0
  0
MTEXT
  5
64025
330
52AE1
100
AcDbEntity
  8
AM_5
 62
     2
100
AcDbMText
 10
296.8999904088144
 20
117.5000029999999
 30
0.0
 40
3.2
 41
0.0
 71
     5
 72
     1
  1
21
 11
0.0000000000000001
 21
1.0
 31
0.0
 73
     1
 44
1.0
1001
ACAD
1000
MTEXTBEGIN
1070
    73
1070
     1
1070
    44
1040
1.0
1070
    74
1070
     0
1000
MTEXTEND
  0
POINT
  5
64026
330
52AE1
100
AcDbEntity
  8
Defpoints
 62
     0
100
AcDbPoint
 10
289.7999904088147
 20
107.0000029999998
 30
0.0
  0
POINT
  5
64027
330
52AE1
100
AcDbEntity
  8
Defpoints
 62
     0
100
AcDbPoint
 10
289.7999904088147
 20
128.0000029999998
 30
0.0
  0
POINT
  5
64028
330
52AE1
100
AcDbEntity
  8
Defpoints
 62
     0
100
AcDbPoint
 10
299.4999904088145
 20
128.0000029999998
 30
0.0
  0
ENDBLK
  5
52AEC
330
52AE1
100
AcDbEntity
  8
0
100
AcDbBlockEnd
  0
BLOCK
  5
52AF7
330
52AED
100
AcDbEntity
  8
0
100
AcDbBlockBegin
  2
*D16
 70
     1
 10
0.0
 20
0.0
 30
0.0
  3
*D16
  1

  0
LINE
  5
64029
330
52AED
100
AcDbEntity
  8
AM_5
100
AcDbLine
 10
291.2999904088147
 20
107.0000029999998
 30
0.0
 11
300.4999904088145
 21
107.0000029999998
 31
0.0
  0
LINE
  5
6402A
330
52AED
100
AcDbEntity
  8
AM_5
100
AcDbLine
 10
291.2999904088147
 20
86.00000299999988
 30
0.0
 11
300.4999904088145
 21
86.00000299999988
 31
0.0
  0
LINE
  5
6402B
330
52AED
100
AcDbEntity
  8
AM_5
100
AcDbLine
 10
299.4999904088145
 20
106.0000029999998
 30
0.0
 11
299.4999904088145
 21
87.00000299999988
 31
0.0
  0
INSERT
  5
6402C
330
52AED
100
AcDbEntity
  8
AM_5
100
AcDbBlockReference
  2
_Dot
 10
299.4999904088145
 20
107.0000029999998
 30
0.0
 41
1.0
 42
1.0
 43
1.0
 50
90.0
  0
INSERT
  5
6402D
330
52AED
100
AcDbEntity
  8
AM_5
100
AcDbBlockReference
  2
_Dot
 10
299.4999904088145
 20
86.00000299999988
 30
0.0
 41
1.0
 42
1.0
 43
1.0
 50
270.0
  0
MTEXT
  5
6402E
330
52AED
100
AcDbEntity
  8
AM_5
 62
     2
100
AcDbMText
 10
296.8999904088144
 20
96.50000299999994
 30
0.0
 40
3.2
 41
0.0
 71
     5
 72
     1
  1
21
 11
0.0000000000000001
 21
1.0
 31
0.0
 73
     1
 44
1.0
1001
ACAD
1000
MTEXTBEGIN
1070
    73
1070
     1
1070
    44
1040
1.0
1070
    74
1070
     0
1000
MTEXTEND
  0
POINT
  5
6402F
330
52AED
100
AcDbEntity
  8
Defpoints
 62
     0
100
AcDbPoint
 10
289.7999904088147
 20
107.0000029999998
 30
0.0
  0
POINT
  5
64030
330
52AED
100
AcDbEntity
  8
Defpoints
 62
     0
100
AcDbPoint
 10
289.7999904088147
 20
86.00000299999988
 30
0.0
  0
POINT
  5
64031
330
52AED
100
AcDbEntity
  8
Defpoints
 62
     0
100
AcDbPoint
 10
299.4999904088145
 20
86.00000299999988
 30
0.0
  0
ENDBLK
  5
52AF8
330
52AED
100
AcDbEntity
  8
0
100
AcDbBlockEnd
  0
BLOCK
  5
52B03
330
52AF9
100
AcDbEntity
  8
0
100
AcDbBlockBegin
  2
*D17
 70
     1
 10
0.0
 20
0.0
 30
0.0
  3
*D17
  1

  0
LINE
  5
64032
330
52AF9
100
AcDbEntity
  8
AM_5
100
AcDbLine
 10
286.4999904088145
 20
139.5000029999998
 30
0.0
 11
308.4999904088145
 21
139.5000029999998
 31
0.0
  0
LINE
  5
64033
330
52AF9
100
AcDbEntity
  8
AM_5
100
AcDbLine
 10
286.4999904088145
 20
74.50000299999988
 30
0.0
 11
308.4999904088145
 21
74.50000299999986
 31
0.0
  0
LINE
  5
64034
330
52AF9
100
AcDbEntity
  8
AM_5
100
AcDbLine
 10
307.4999904088145
 20
138.5000029999998
 30
0.0
 11
307.4999904088145
 21
75.50000299999986
 31
0.0
  0
INSERT
  5
64035
330
52AF9
100
AcDbEntity
  8
AM_5
100
AcDbBlockReference
  2
_Dot
 10
307.4999904088145
 20
139.5000029999998
 30
0.0
 41
1.0
 42
1.0
 43
1.0
 50
90.0
  0
INSERT
  5
64036
330
52AF9
100
AcDbEntity
  8
AM_5
100
AcDbBlockReference
  2
_Dot
 10
307.4999904088145
 20
74.50000299999986
 30
0.0
 41
1.0
 42
1.0
 43
1.0
 50
270.0
  0
MTEXT
  5
64037
330
52AF9
100
AcDbEntity
  8
AM_5
 62
     2
100
AcDbMText
 10
304.8999904088145
 20
107.0000029999999
 30
0.0
 40
3.2
 41
0.0
 71
     5
 72
     1
  1
A
 11
0.0000000000000001
 21
1.0
 31
0.0
 73
     1
 44
1.0
1001
ACAD
1000
MTEXTBEGIN
1070
    73
1070
     1
1070
    44
1040
1.0
1070
    74
1070
     0
1000
MTEXTEND
  0
POINT
  5
64038
330
52AF9
100
AcDbEntity
  8
Defpoints
 62
     0
100
AcDbPoint
 10
284.9999904088145
 20
139.5000029999998
 30
0.0
  0
POINT
  5
64039
330
52AF9
100
AcDbEntity
  8
Defpoints
 62
     0
100
AcDbPoint
 10
284.9999904088145
 20
74.50000299999988
 30
0.0
  0
POINT
  5
6403A
330
52AF9
100
AcDbEntity
  8
Defpoints
 62
     0
100
AcDbPoint
 10
307.4999904088145
 20
74.50000299999986
 30
0.0
  0
ENDBLK
  5
52B04
330
52AF9
100
AcDbEntity
  8
0
100
AcDbBlockEnd
  0
BLOCK
  5
52B33
330
52B29
100
AcDbEntity
  8
0
100
AcDbBlockBegin
  2
*D18
 70
     1
 10
0.0
 20
0.0
 30
0.0
  3
*D18
  1

  0
LINE
  5
6403B
330
52B29
100
AcDbEntity
  8
AM_5
100
AcDbLine
 10
265.4999996213987
 20
146.4999999999927
 30
0.0
 11
265.4999996213987
 21
150.9999979807969
 31
0.0
  0
LINE
  5
6403C
330
52B29
100
AcDbEntity
  8
AM_5
100
AcDbLine
 10
281.499990408814
 20
137.8000029999998
 30
0.0
 11
281.499990408814
 21
150.9999979807969
 31
0.0
  0
LINE
  5
6403D
330
52B29
100
AcDbEntity
  8
AM_5
100
AcDbLine
 10
266.4999996213987
 20
149.9999979807969
 30
0.0
 11
280.499990408814
 21
149.9999979807969
 31
0.0
  0
INSERT
  5
6403E
330
52B29
100
AcDbEntity
  8
AM_5
100
AcDbBlockReference
  2
_Dot
 10
265.4999996213987
 20
149.9999979807969
 30
0.0
 41
1.0
 42
1.0
 43
1.0
 50
180.0
  0
INSERT
  5
6403F
330
52B29
100
AcDbEntity
  8
AM_5
100
AcDbBlockReference
  2
_Dot
 10
281.499990408814
 20
149.9999979807969
 30
0.0
 41
1.0
 42
1.0
 43
1.0
  0
MTEXT
  5
64040
330
52B29
100
AcDbEntity
  8
AM_5
 62
     2
100
AcDbMText
 10
273.4999950151064
 20
152.5999979807969
 30
0.0
 40
3.2
 41
0.0
 71
     5
 72
     1
  1
16
 73
     1
 44
1.0
1001
ACAD
1000
MTEXTBEGIN
1070
    73
1070
     1
1070
    44
1040
1.0
1070
    74
1070
     0
1000
MTEXTEND
  0
POINT
  5
64041
330
52B29
100
AcDbEntity
  8
Defpoints
 62
     0
100
AcDbPoint
 10
265.4999996213987
 20
144.9999999999927
 30
0.0
  0
POINT
  5
64042
330
52B29
100
AcDbEntity
  8
Defpoints
 62
     0
100
AcDbPoint
 10
281.499990408814
 20
136.3000029999998
 30
0.0
  0
POINT
  5
64043
330
52B29
100
AcDbEntity
  8
Defpoints
 62
     0
100
AcDbPoint
 10
281.499990408814
 20
149.9999979807969
 30
0.0
  0
ENDBLK
  5
52B34
330
52B29
100
AcDbEntity
  8
0
100
AcDbBlockEnd
  0
BLOCK
  5
52B3F
330
52B35
100
AcDbEntity
  8
0
100
AcDbBlockBegin
  2
*D19
 70
     1
 10
0.0
 20
0.0
 30
0.0
  3
*D19
  1

  0
LINE
  5
64044
330
52B35
100
AcDbEntity
  8
AM_5
100
AcDbLine
 10
265.4999996213987
 20
146.4999999999927
 30
0.0
 11
265.4999996213987
 21
151.0000027763885
 31
0.0
  0
LINE
  5
64045
330
52B35
100
AcDbEntity
  8
AM_5
100
AcDbLine
 10
243.499990408815
 20
133.100003
 30
0.0
 11
243.499990408815
 21
151.0000027763885
 31
0.0
  0
LINE
  5
64046
330
52B35
100
AcDbEntity
  8
AM_5
100
AcDbLine
 10
264.4999996213987
 20
150.0000027763885
 30
0.0
 11
244.4999904088149
 21
150.0000027763885
 31
0.0
  0
INSERT
  5
64047
330
52B35
100
AcDbEntity
  8
AM_5
100
AcDbBlockReference
  2
_Dot
 10
265.4999996213987
 20
150.0000027763885
 30
0.0
 41
1.0
 42
1.0
 43
1.0
  0
INSERT
  5
64048
330
52B35
100
AcDbEntity
  8
AM_5
100
AcDbBlockReference
  2
_Dot
 10
243.499990408815
 20
150.0000027763885
 30
0.0
 41
1.0
 42
1.0
 43
1.0
 50
180.0
  0
MTEXT
  5
64049
330
52B35
100
AcDbEntity
  8
AM_5
 62
     2
100
AcDbMText
 10
254.4999950151068
 20
152.6000027763885
 30
0.0
 40
3.2
 41
0.0
 71
     5
 72
     1
  1
22
 73
     1
 44
1.0
1001
ACAD
1000
MTEXTBEGIN
1070
    73
1070
     1
1070
    44
1040
1.0
1070
    74
1070
     0
1000
MTEXTEND
  0
POINT
  5
6404A
330
52B35
100
AcDbEntity
  8
Defpoints
 62
     0
100
AcDbPoint
 10
265.4999996213987
 20
144.9999999999927
 30
0.0
  0
POINT
  5
6404B
330
52B35
100
AcDbEntity
  8
Defpoints
 62
     0
100
AcDbPoint
 10
243.499990408815
 20
131.600003
 30
0.0
  0
POINT
  5
6404C
330
52B35
100
AcDbEntity
  8
Defpoints
 62
     0
100
AcDbPoint
 10
243.499990408815
 20
150.0000027763885
 30
0.0
  0
ENDBLK
  5
52B40
330
52B35
100
AcDbEntity
  8
0
100
AcDbBlockEnd
  0
BLOCK
  5
52B4B
330
52B41
100
AcDbEntity
  8
0
100
AcDbBlockBegin
  2
*D20
 70
     1
 10
0.0
 20
0.0
 30
0.0
  3
*D20
  1

  0
LINE
  5
6404D
330
52B41
100
AcDbEntity
  8
AM_5
100
AcDbLine
 10
233.4999904088145
 20
136.5000029999999
 30
0.0
 11
233.4999904088145
 21
166.9999999999925
 31
0.0
  0
LINE
  5
6404E
330
52B41
100
AcDbEntity
  8
AM_5
100
AcDbLine
 10
289.4999904088145
 20
136.5000029999999
 30
0.0
 11
289.4999904088145
 21
166.9999999999925
 31
0.0
  0
LINE
  5
6404F
330
52B41
100
AcDbEntity
  8
AM_5
100
AcDbLine
 10
234.4999904088145
 20
165.9999999999925
 30
0.0
 11
288.4999904088145
 21
165.9999999999925
 31
0.0
  0
INSERT
  5
64050
330
52B41
100
AcDbEntity
  8
AM_5
100
AcDbBlockReference
  2
_Dot
 10
233.4999904088145
 20
165.9999999999925
 30
0.0
 41
1.0
 42
1.0
 43
1.0
 50
180.0
  0
INSERT
  5
64051
330
52B41
100
AcDbEntity
  8
AM_5
100
AcDbBlockReference
  2
_Dot
 10
289.4999904088145
 20
165.9999999999925
 30
0.0
 41
1.0
 42
1.0
 43
1.0
  0
MTEXT
  5
64052
330
52B41
100
AcDbEntity
  8
AM_5
 62
     2
100
AcDbMText
 10
261.4999904088145
 20
168.5999999999925
 30
0.0
 40
3.2
 41
0.0
 71
     5
 72
     1
  1
56
 73
     1
 44
1.0
1001
ACAD
1000
MTEXTBEGIN
1070
    73
1070
     1
1070
    44
1040
1.0
1070
    74
1070
     0
1000
MTEXTEND
  0
POINT
  5
64053
330
52B41
100
AcDbEntity
  8
Defpoints
 62
     0
100
AcDbPoint
 10
233.4999904088145
 20
135.0000029999999
 30
0.0
  0
POINT
  5
64054
330
52B41
100
AcDbEntity
  8
Defpoints
 62
     0
100
AcDbPoint
 10
289.4999904088145
 20
135.0000029999999
 30
0.0
  0
POINT
  5
64055
330
52B41
100
AcDbEntity
  8
Defpoints
 62
     0
100
AcDbPoint
 10
289.4999904088145
 20
165.9999999999925
 30
0.0
  0
ENDBLK
  5
52B4C
330
52B41
100
AcDbEntity
  8
0
100
AcDbBlockEnd
  0
BLOCK
  5
52B75
330
52B6B
100
AcDbEntity
  8
0
100
AcDbBlockBegin
  2
*D21
 70
     1
 10
0.0
 20
0.0
 30
0.0
  3
*D21
  1

  0
LINE
  5
64056
330
52B6B
100
AcDbEntity
  8
AM_5
100
AcDbLine
 10
236.3999904088146
 20
88.00000299999988
 30
0.0
 11
224.4999904088145
 21
88.00000299999988
 31
0.0
  0
LINE
  5
64057
330
52B6B
100
AcDbEntity
  8
AM_5
100
AcDbLine
 10
236.399990408815
 20
126.0000029999998
 30
0.0
 11
224.4999904088145
 21
126.0000029999998
 31
0.0
  0
LINE
  5
64058
330
52B6B
100
AcDbEntity
  8
AM_5
100
AcDbLine
 10
225.4999904088145
 20
89.00000299999987
 30
0.0
 11
225.4999904088145
 21
125.0000029999998
 31
0.0
  0
INSERT
  5
64059
330
52B6B
100
AcDbEntity
  8
AM_5
100
AcDbBlockReference
  2
_Dot
 10
225.4999904088145
 20
88.00000299999988
 30
0.0
 41
1.0
 42
1.0
 43
1.0
 50
270.0
  0
INSERT
  5
6405A
330
52B6B
100
AcDbEntity
  8
AM_5
100
AcDbBlockReference
  2
_Dot
 10
225.4999904088145
 20
126.0000029999998
 30
0.0
 41
1.0
 42
1.0
 43
1.0
 50
90.0
  0
MTEXT
  5
6405B
330
52B6B
100
AcDbEntity
  8
AM_5
 62
     2
100
AcDbMText
 10
222.8999904088145
 20
107.0000029999999
 30
0.0
 40
3.2
 41
0.0
 71
     5
 72
     1
  1
38
 11
0.0000000000000001
 21
1.0
 31
0.0
 73
     1
 44
1.0
1001
ACAD
1000
MTEXTBEGIN
1070
    73
1070
     1
1070
    44
1040
1.0
1070
    74
1070
     0
1000
MTEXTEND
  0
POINT
  5
6405C
330
52B6B
100
AcDbEntity
  8
Defpoints
 62
     0
100
AcDbPoint
 10
237.8999904088146
 20
88.00000299999988
 30
0.0
  0
POINT
  5
6405D
330
52B6B
100
AcDbEntity
  8
Defpoints
 62
     0
100
AcDbPoint
 10
237.899990408815
 20
126.0000029999998
 30
0.0
  0
POINT
  5
6405E
330
52B6B
100
AcDbEntity
  8
Defpoints
 62
     0
100
AcDbPoint
 10
225.4999904088145
 20
126.0000029999998
 30
0.0
  0
ENDBLK
  5
52B76
330
52B6B
100
AcDbEntity
  8
0
100
AcDbBlockEnd
  0
BLOCK
  5
52BA3
330
52B97
100
AcDbEntity
  8
0
100
AcDbBlockBegin
  2
*D22
 70
     1
 10
0.0
 20
0.0
 30
0.0
  3
*D22
  1

  0
LINE
  5
64EA8
330
52B97
100
AcDbEntity
  8
AM_5
100
AcDbLine
 10
290.9999904088145
 20
202.7499999999925
 30
0.0
 11
300.4999904088145
 21
202.7499999999925
 31
0.0
  0
LINE
  5
64EA9
330
52B97
100
AcDbEntity
  8
AM_5
100
AcDbLine
 10
290.9999904088145
 20
199.7499999999927
 30
0.0
 11
300.4999904088145
 21
199.7499999999927
 31
0.0
  0
LINE
  5
64EAA
330
52B97
100
AcDbEntity
  8
AM_5
100
AcDbLine
 10
299.4999904088145
 20
203.7499999999925
 30
0.0
 11
299.4999904088145
 21
204.7499999999925
 31
0.0
  0
LINE
  5
64EAB
330
52B97
100
AcDbEntity
  8
AM_5
100
AcDbLine
 10
299.4999904088145
 20
198.7499999999927
 30
0.0
 11
299.4999904088145
 21
194.2566666666594
 31
0.0
  0
LINE
  5
64EAC
330
52B97
100
AcDbEntity
  8
AM_5
100
AcDbLine
 10
299.4999904088145
 20
202.7499999999925
 30
0.0
 11
299.4999904088145
 21
199.7499999999927
 31
0.0
  0
INSERT
  5
64EAD
330
52B97
100
AcDbEntity
  8
AM_5
100
AcDbBlockReference
  2
_Dot
 10
299.4999904088145
 20
202.7499999999925
 30
0.0
 41
1.0
 42
1.0
 43
1.0
 50
270.0
  0
INSERT
  5
64EAE
330
52B97
100
AcDbEntity
  8
AM_5
100
AcDbBlockReference
  2
_Dot
 10
299.4999904088145
 20
199.7499999999927
 30
0.0
 41
1.0
 42
1.0
 43
1.0
 50
90.0
  0
MTEXT
  5
64EAF
330
52B97
100
AcDbEntity
  8
AM_5
 62
     2
100
AcDbMText
 10
296.8999904088144
 20
196.0033333333261
 30
0.0
 40
3.2
 41
0.0
 71
     5
 72
     1
  1
3
 11
0.0000000000000001
 21
1.0
 31
0.0
 73
     1
 44
1.0
1001
ACAD
1000
MTEXTBEGIN
1070
    73
1070
     1
1070
    44
1040
1.0
1070
    74
1070
     0
1000
MTEXTEND
  0
POINT
  5
64EB0
330
52B97
100
AcDbEntity
  8
Defpoints
 62
     0
100
AcDbPoint
 10
289.4999904088145
 20
202.7499999999925
 30
0.0
  0
POINT
  5
64EB1
330
52B97
100
AcDbEntity
  8
Defpoints
 62
     0
100
AcDbPoint
 10
289.4999904088145
 20
199.7499999999927
 30
0.0
  0
POINT
  5
64EB2
330
52B97
100
AcDbEntity
  8
Defpoints
 62
     0
100
AcDbPoint
 10
299.4999904088145
 20
199.7499999999927
 30
0.0
  0
ENDBLK
  5
52BA4
330
52B97
100
AcDbEntity
  8
0
100
AcDbBlockEnd
  0
BLOCK
  5
52CD4
330
52CCA
100
AcDbEntity
  8
0
100
AcDbBlockBegin
  2
*D23
 70
     1
 10
0.0
 20
0.0
 30
0.0
  3
*D23
  1

  0
LINE
  5
64EEE
330
52CCA
100
AcDbEntity
  8
AM_5
100
AcDbLine
 10
231.9999904088145
 20
189.7499999999925
 30
0.0
 11
224.4999904088145
 21
189.7499999999925
 31
0.0
  0
LINE
  5
64EEF
330
52CCA
100
AcDbEntity
  8
AM_5
100
AcDbLine
 10
263.9999904088145
 20
202.7499999999925
 30
0.0
 11
224.4999904088145
 21
202.7499999999925
 31
0.0
  0
LINE
  5
64EF0
330
52CCA
100
AcDbEntity
  8
AM_5
100
AcDbLine
 10
225.4999904088144
 20
190.7499999999925
 30
0.0
 11
225.4999904088145
 21
201.7499999999925
 31
0.0
  0
INSERT
  5
64EF1
330
52CCA
100
AcDbEntity
  8
AM_5
100
AcDbBlockReference
  2
_Dot
 10
225.4999904088144
 20
189.7499999999925
 30
0.0
 41
1.0
 42
1.0
 43
1.0
 50
270.0
  0
INSERT
  5
64EF2
330
52CCA
100
AcDbEntity
  8
AM_5
100
AcDbBlockReference
  2
_Dot
 10
225.4999904088145
 20
202.7499999999925
 30
0.0
 41
1.0
 42
1.0
 43
1.0
 50
90.0
  0
MTEXT
  5
64EF3
330
52CCA
100
AcDbEntity
  8
AM_5
 62
     2
100
AcDbMText
 10
222.8999904088144
 20
196.2499999999925
 30
0.0
 40
3.2
 41
0.0
 71
     5
 72
     1
  1
13
 11
0.0000000000000001
 21
1.0
 31
0.0
 73
     1
 44
1.0
1001
ACAD
1000
MTEXTBEGIN
1070
    73
1070
     1
1070
    44
1040
1.0
1070
    74
1070
     0
1000
MTEXTEND
  0
POINT
  5
64EF4
330
52CCA
100
AcDbEntity
  8
Defpoints
 62
     0
100
AcDbPoint
 10
233.4999904088145
 20
189.7499999999925
 30
0.0
  0
POINT
  5
64EF5
330
52CCA
100
AcDbEntity
  8
Defpoints
 62
     0
100
AcDbPoint
 10
265.4999904088145
 20
202.7499999999925
 30
0.0
  0
POINT
  5
64EF6
330
52CCA
100
AcDbEntity
  8
Defpoints
 62
     0
100
AcDbPoint
 10
225.4999904088145
 20
202.7499999999925
 30
0.0
  0
ENDBLK
  5
52CD5
330
52CCA
100
AcDbEntity
  8
0
100
AcDbBlockEnd
  0
BLOCK
  5
5454E
330
54544
100
AcDbEntity
  8
0
100
AcDbBlockBegin
  2
*D24
 70
     1
 10
0.0
 20
0.0
 30
0.0
  3
*D24
  1

  0
LINE
  5
64D2F
330
54544
100
AcDbEntity
  8
AM_5
100
AcDbLine
 10
36.00000921258425
 20
202.7499999999925
 30
0.0
 11
28.50000921258425
 21
202.7499999999925
 31
0.0
  0
LINE
  5
64D30
330
54544
100
AcDbEntity
  8
AM_5
100
AcDbLine
 10
68.00000921258424
 20
189.7499999999925
 30
0.0
 11
28.50000921258425
 21
189.7499999999925
 31
0.0
  0
LINE
  5
64D31
330
54544
100
AcDbEntity
  8
AM_5
100
AcDbLine
 10
29.50000921258425
 20
201.7499999999925
 30
0.0
 11
29.50000921258425
 21
190.7499999999925
 31
0.0
  0
INSERT
  5
64D32
330
54544
100
AcDbEntity
  8
AM_5
100
AcDbBlockReference
  2
_Dot
 10
29.50000921258425
 20
202.7499999999925
 30
0.0
 41
1.0
 42
1.0
 43
1.0
 50
90.0
  0
INSERT
  5
64D33
330
54544
100
AcDbEntity
  8
AM_5
100
AcDbBlockReference
  2
_Dot
 10
29.50000921258425
 20
189.7499999999925
 30
0.0
 41
1.0
 42
1.0
 43
1.0
 50
270.0
  0
MTEXT
  5
64D34
330
54544
100
AcDbEntity
  8
AM_5
 62
     2
100
AcDbMText
 10
26.90000921258421
 20
196.2499999999925
 30
0.0
 40
3.2
 41
0.0
 71
     5
 72
     1
  1
13
 11
0.0000000000000001
 21
1.0
 31
0.0
 73
     1
 44
1.0
1001
ACAD
1000
MTEXTBEGIN
1070
    73
1070
     1
1070
    44
1040
1.0
1070
    74
1070
     0
1000
MTEXTEND
  0
POINT
  5
64D35
330
54544
100
AcDbEntity
  8
Defpoints
 62
     0
100
AcDbPoint
 10
37.50000921258425
 20
202.7499999999925
 30
0.0
  0
POINT
  5
64D36
330
54544
100
AcDbEntity
  8
Defpoints
 62
     0
100
AcDbPoint
 10
69.50000921258425
 20
189.7499999999925
 30
0.0
  0
POINT
  5
64D37
330
54544
100
AcDbEntity
  8
Defpoints
 62
     0
100
AcDbPoint
 10
29.50000921258425
 20
189.7499999999925
 30
0.0
  0
ENDBLK
  5
5454F
330
54544
100
AcDbEntity
  8
0
100
AcDbBlockEnd
  0
BLOCK
  5
54653
330
5464C
100
AcDbEntity
  8
0
100
AcDbBlockBegin
  2
*D25
 70
     1
 10
0.0
 20
0.0
 30
0.0
  3
*D25
  1

  0
LINE
  5
64103
330
5464C
100
AcDbEntity
  8
AM_5
100
AcDbLine
 10
23.96667587924954
 20
74.50000299999922
 30
0.0
 11
33.50000921258299
 21
74.50000299999921
 31
0.0
  0
LINE
  5
64104
330
5464C
100
AcDbEntity
  8
AM_5
100
AcDbLine
 10
33.50000921258299
 20
74.50000299999921
 30
0.0
 11
44.90856974906973
 21
85.50111494589671
 31
0.0
  0
LINE
  5
64105
330
5464C
100
AcDbEntity
  8
AM_5
100
AcDbLine
 10
50.09144867609929
 20
90.49889105410358
 30
0.0
 11
50.81129297151999
 21
91.19302662468781
 31
0.0
  0
MTEXT
  5
64106
330
5464C
100
AcDbEntity
  8
AM_5
 62
     2
100
AcDbMText
 10
28.2333425459162
 20
77.1000029999992
 30
0.0
 40
3.200000000000001
 41
0.0
 71
     5
 72
     1
  1
2-%%cB
 73
     1
 44
1.0
1001
ACAD
1000
MTEXTBEGIN
1070
    73
1070
     1
1070
    44
1040
1.0
1070
    74
1070
     0
1000
MTEXTEND
  0
LINE
  5
64107
330
5464C
100
AcDbEntity
  8
AM_5
100
AcDbLine
 10
49.37160438067859
 20
89.80475548351936
 30
0.0
 11
45.62841404449043
 21
86.19525051648091
 31
0.0
  0
INSERT
  5
64108
330
5464C
100
AcDbEntity
  8
AM_5
100
AcDbBlockReference
  2
_Dot
 10
49.37160438067859
 20
89.80475548351936
 30
0.0
 50
223.9583733239889
  0
INSERT
  5
64109
330
5464C
100
AcDbEntity
  8
AM_5
100
AcDbBlockReference
  2
_Dot
 10
45.62841404449043
 20
86.19525051648091
 30
0.0
 50
43.95837332398889
  0
POINT
  5
6410A
330
5464C
100
AcDbEntity
  8
Defpoints
 62
     0
100
AcDbPoint
 10
45.62841404449043
 20
86.19525051648091
 30
0.0
  0
POINT
  5
6410B
330
5464C
100
AcDbEntity
  8
Defpoints
 62
     0
100
AcDbPoint
 10
49.37160438067859
 20
89.80475548351936
 30
0.0
  0
ENDBLK
  5
54654
330
5464C
100
AcDbEntity
  8
0
100
AcDbBlockEnd
  0
BLOCK
  5
546C1
330
546B7
100
AcDbEntity
  8
0
100
AcDbBlockBegin
  2
*D26
 70
     1
 10
0.0
 20
0.0
 30
0.0
  3
*D26
  1

  0
LINE
  5
64097
330
546B7
100
AcDbEntity
  8
AM_5
100
AcDbLine
 10
219.9666570754785
 20
74.50000299999921
 30
0.0
 11
229.4999904088151
 21
74.50000299999918
 31
0.0
  0
LINE
  5
64098
330
546B7
100
AcDbEntity
  8
AM_5
100
AcDbLine
 10
229.4999904088151
 20
74.50000299999918
 30
0.0
 11
240.9085509453011
 21
85.50111494589641
 31
0.0
  0
LINE
  5
64099
330
546B7
100
AcDbEntity
  8
AM_5
100
AcDbLine
 10
246.0914298723304
 20
90.49889105410334
 30
0.0
 11
246.8112741677511
 21
91.19302662468758
 31
0.0
  0
MTEXT
  5
6409A
330
546B7
100
AcDbEntity
  8
AM_5
 62
     2
100
AcDbMText
 10
224.2333237421452
 20
77.10000299999919
 30
0.0
 40
3.200000000000001
 41
0.0
 71
     5
 72
     1
  1
2-%%cB
 73
     1
 44
1.0
1001
ACAD
1000
MTEXTBEGIN
1070
    73
1070
     1
1070
    44
1040
1.0
1070
    74
1070
     0
1000
MTEXTEND
  0
LINE
  5
6409B
330
546B7
100
AcDbEntity
  8
AM_5
100
AcDbLine
 10
245.3715855769097
 20
89.80475548351909
 30
0.0
 11
241.6283952407217
 21
86.19525051648066
 31
0.0
  0
INSERT
  5
6409C
330
546B7
100
AcDbEntity
  8
AM_5
100
AcDbBlockReference
  2
_Dot
 10
245.3715855769097
 20
89.80475548351909
 30
0.0
 50
223.9583733239903
  0
INSERT
  5
6409D
330
546B7
100
AcDbEntity
  8
AM_5
100
AcDbBlockReference
  2
_Dot
 10
241.6283952407217
 20
86.19525051648066
 30
0.0
 50
43.95837332399032
  0
POINT
  5
6409E
330
546B7
100
AcDbEntity
  8
Defpoints
 62
     0
100
AcDbPoint
 10
241.6283952407217
 20
86.19525051648066
 30
0.0
  0
POINT
  5
6409F
330
546B7
100
AcDbEntity
  8
Defpoints
 62
     0
100
AcDbPoint
 10
245.3715855769097
 20
89.80475548351909
 30
0.0
  0
ENDBLK
  5
546C2
330
546B7
100
AcDbEntity
  8
0
100
AcDbBlockEnd
  0
BLOCK
  5
546E5
330
546DB
100
AcDbEntity
  8
0
100
AcDbBlockBegin
  2
*D27
 70
     1
 10
0.0
 20
0.0
 30
0.0
  3
*D27
  1

  0
LINE
  5
640A0
330
546DB
100
AcDbEntity
  8
AM_5
100
AcDbLine
 10
69.50001842516804
 20
146.5000014210745
 30
0.0
 11
69.50001842516804
 21
158.9999979807969
 31
0.0
  0
LINE
  5
640A1
330
546DB
100
AcDbEntity
  8
AM_5
100
AcDbLine
 10
93.50000921258425
 20
136.5000029999999
 30
0.0
 11
93.50000921258425
 21
158.9999979807969
 31
0.0
  0
LINE
  5
640A2
330
546DB
100
AcDbEntity
  8
AM_5
100
AcDbLine
 10
70.50001842516803
 20
157.9999979807969
 30
0.0
 11
92.50000921258424
 21
157.9999979807969
 31
0.0
  0
INSERT
  5
640A3
330
546DB
100
AcDbEntity
  8
AM_5
100
AcDbBlockReference
  2
_Dot
 10
69.50001842516804
 20
157.9999979807969
 30
0.0
 41
1.0
 42
1.0
 43
1.0
 50
180.0
  0
INSERT
  5
640A4
330
546DB
100
AcDbEntity
  8
AM_5
100
AcDbBlockReference
  2
_Dot
 10
93.50000921258425
 20
157.9999979807969
 30
0.0
 41
1.0
 42
1.0
 43
1.0
  0
MTEXT
  5
640A5
330
546DB
100
AcDbEntity
  8
AM_5
 62
     2
100
AcDbMText
 10
81.50001381887614
 20
160.5999979807969
 30
0.0
 40
3.2
 41
0.0
 71
     5
 72
     1
  1
24
 73
     1
 44
1.0
1001
ACAD
1000
MTEXTBEGIN
1070
    73
1070
     1
1070
    44
1040
1.0
1070
    74
1070
     0
1000
MTEXTEND
  0
POINT
  5
640A6
330
546DB
100
AcDbEntity
  8
Defpoints
 62
     0
100
AcDbPoint
 10
69.50001842516804
 20
145.0000014210745
 30
0.0
  0
POINT
  5
640A7
330
546DB
100
AcDbEntity
  8
Defpoints
 62
     0
100
AcDbPoint
 10
93.50000921258425
 20
135.0000029999999
 30
0.0
  0
POINT
  5
640A8
330
546DB
100
AcDbEntity
  8
Defpoints
 62
     0
100
AcDbPoint
 10
93.50000921258425
 20
157.9999979807969
 30
0.0
  0
ENDBLK
  5
546E6
330
546DB
100
AcDbEntity
  8
0
100
AcDbBlockEnd
  0
BLOCK
  5
546F1
330
546E7
100
AcDbEntity
  8
0
100
AcDbBlockBegin
  2
*D28
 70
     1
 10
0.0
 20
0.0
 30
0.0
  3
*D28
  1

  0
LINE
  5
640A9
330
546E7
100
AcDbEntity
  8
AM_5
100
AcDbLine
 10
69.50001842516804
 20
146.5000014210745
 30
0.0
 11
69.50001842516804
 21
159.0000027763885
 31
0.0
  0
LINE
  5
640AA
330
546E7
100
AcDbEntity
  8
AM_5
100
AcDbLine
 10
37.50000921258425
 20
136.5000029999999
 30
0.0
 11
37.50000921258425
 21
159.0000027763885
 31
0.0
  0
LINE
  5
640AB
330
546E7
100
AcDbEntity
  8
AM_5
100
AcDbLine
 10
68.50001842516803
 20
158.0000027763885
 30
0.0
 11
38.50000921258425
 21
158.0000027763885
 31
0.0
  0
INSERT
  5
640AC
330
546E7
100
AcDbEntity
  8
AM_5
100
AcDbBlockReference
  2
_Dot
 10
69.50001842516804
 20
158.0000027763885
 30
0.0
 41
1.0
 42
1.0
 43
1.0
  0
INSERT
  5
640AD
330
546E7
100
AcDbEntity
  8
AM_5
100
AcDbBlockReference
  2
_Dot
 10
37.50000921258425
 20
158.0000027763885
 30
0.0
 41
1.0
 42
1.0
 43
1.0
 50
180.0
  0
MTEXT
  5
640AE
330
546E7
100
AcDbEntity
  8
AM_5
 62
     2
100
AcDbMText
 10
53.50001381887614
 20
160.6000027763885
 30
0.0
 40
3.2
 41
0.0
 71
     5
 72
     1
  1
32
 73
     1
 44
1.0
1001
ACAD
1000
MTEXTBEGIN
1070
    73
1070
     1
1070
    44
1040
1.0
1070
    74
1070
     0
1000
MTEXTEND
  0
POINT
  5
640AF
330
546E7
100
AcDbEntity
  8
Defpoints
 62
     0
100
AcDbPoint
 10
69.50001842516804
 20
145.0000014210745
 30
0.0
  0
POINT
  5
640B0
330
546E7
100
AcDbEntity
  8
Defpoints
 62
     0
100
AcDbPoint
 10
37.50000921258425
 20
135.0000029999999
 30
0.0
  0
POINT
  5
640B1
330
546E7
100
AcDbEntity
  8
Defpoints
 62
     0
100
AcDbPoint
 10
37.50000921258425
 20
158.0000027763885
 30
0.0
  0
ENDBLK
  5
546F2
330
546E7
100
AcDbEntity
  8
0
100
AcDbBlockEnd
  0
BLOCK
  5
5473F
330
54735
100
AcDbEntity
  8
0
100
AcDbBlockBegin
  2
*D29
 70
     1
 10
0.0
 20
0.0
 30
0.0
  3
*D29
  1

  0
LINE
  5
640B2
330
54735
100
AcDbEntity
  8
AM_5
100
AcDbLine
 10
135.4999907874157
 20
136.5000030000001
 30
0.0
 11
135.4999907874157
 21
150.9999999999927
 31
0.0
  0
LINE
  5
640B3
330
54735
100
AcDbEntity
  8
AM_5
100
AcDbLine
 10
167.4999996214005
 20
146.4999999999927
 30
0.0
 11
167.4999996214005
 21
150.9999999999927
 31
0.0
  0
LINE
  5
640B4
330
54735
100
AcDbEntity
  8
AM_5
100
AcDbLine
 10
136.4999907874157
 20
149.9999999999927
 30
0.0
 11
166.4999996214005
 21
149.9999999999927
 31
0.0
  0
INSERT
  5
640B5
330
54735
100
AcDbEntity
  8
AM_5
100
AcDbBlockReference
  2
_Dot
 10
135.4999907874157
 20
149.9999999999927
 30
0.0
 41
1.0
 42
1.0
 43
1.0
 50
180.0
  0
INSERT
  5
640B6
330
54735
100
AcDbEntity
  8
AM_5
100
AcDbBlockReference
  2
_Dot
 10
167.4999996214005
 20
149.9999999999927
 30
0.0
 41
1.0
 42
1.0
 43
1.0
  0
MTEXT
  5
640B7
330
54735
100
AcDbEntity
  8
AM_5
 62
     2
100
AcDbMText
 10
151.4999952044081
 20
152.5999999999927
 30
0.0
 40
3.2
 41
0.0
 71
     5
 72
     1
  1
32
 73
     1
 44
1.0
1001
ACAD
1000
MTEXTBEGIN
1070
    73
1070
     1
1070
    44
1040
1.0
1070
    74
1070
     0
1000
MTEXTEND
  0
POINT
  5
640B8
330
54735
100
AcDbEntity
  8
Defpoints
 62
     0
100
AcDbPoint
 10
135.4999907874157
 20
135.0000030000001
 30
0.0
  0
POINT
  5
640B9
330
54735
100
AcDbEntity
  8
Defpoints
 62
     0
100
AcDbPoint
 10
167.4999996214005
 20
144.9999999999927
 30
0.0
  0
POINT
  5
640BA
330
54735
100
AcDbEntity
  8
Defpoints
 62
     0
100
AcDbPoint
 10
167.4999996214005
 20
149.9999999999927
 30
0.0
  0
ENDBLK
  5
54740
330
54735
100
AcDbEntity
  8
0
100
AcDbBlockEnd
  0
BLOCK
  5
54767
330
5475D
100
AcDbEntity
  8
0
100
AcDbBlockBegin
  2
*D30
 70
     1
 10
0.0
 20
0.0
 30
0.0
  3
*D30
  1

  0
LINE
  5
640BB
330
5475D
100
AcDbEntity
  8
AM_5
100
AcDbLine
 10
191.4999907874157
 20
136.5000030000001
 30
0.0
 11
191.4999907874157
 21
150.9999999999927
 31
0.0
  0
LINE
  5
640BC
330
5475D
100
AcDbEntity
  8
AM_5
100
AcDbLine
 10
167.4999996214005
 20
146.4999999999927
 30
0.0
 11
167.4999996214005
 21
150.9999999999927
 31
0.0
  0
LINE
  5
640BD
330
5475D
100
AcDbEntity
  8
AM_5
100
AcDbLine
 10
190.4999907874157
 20
149.9999999999927
 30
0.0
 11
168.4999996214005
 21
149.9999999999927
 31
0.0
  0
INSERT
  5
640BE
330
5475D
100
AcDbEntity
  8
AM_5
100
AcDbBlockReference
  2
_Dot
 10
191.4999907874157
 20
149.9999999999927
 30
0.0
 41
1.0
 42
1.0
 43
1.0
  0
INSERT
  5
640BF
330
5475D
100
AcDbEntity
  8
AM_5
100
AcDbBlockReference
  2
_Dot
 10
167.4999996214005
 20
149.9999999999927
 30
0.0
 41
1.0
 42
1.0
 43
1.0
 50
180.0
  0
MTEXT
  5
640C0
330
5475D
100
AcDbEntity
  8
AM_5
 62
     2
100
AcDbMText
 10
179.4999952044081
 20
152.5999999999927
 30
0.0
 40
3.2
 41
0.0
 71
     5
 72
     1
  1
24
 73
     1
 44
1.0
1001
ACAD
1000
MTEXTBEGIN
1070
    73
1070
     1
1070
    44
1040
1.0
1070
    74
1070
     0
1000
MTEXTEND
  0
POINT
  5
640C1
330
5475D
100
AcDbEntity
  8
Defpoints
 62
     0
100
AcDbPoint
 10
191.4999907874157
 20
135.0000030000001
 30
0.0
  0
POINT
  5
640C2
330
5475D
100
AcDbEntity
  8
Defpoints
 62
     0
100
AcDbPoint
 10
167.4999996214005
 20
144.9999999999927
 30
0.0
  0
POINT
  5
640C3
330
5475D
100
AcDbEntity
  8
Defpoints
 62
     0
100
AcDbPoint
 10
167.4999996214005
 20
149.9999999999927
 30
0.0
  0
ENDBLK
  5
54768
330
5475D
100
AcDbEntity
  8
0
100
AcDbBlockEnd
  0
BLOCK
  5
54783
330
5477C
100
AcDbEntity
  8
0
100
AcDbBlockBegin
  2
*D31
 70
     1
 10
0.0
 20
0.0
 30
0.0
  3
*D31
  1

  0
LINE
  5
64E5E
330
5477C
100
AcDbEntity
  8
AM_5
100
AcDbLine
 10
127.1080092125857
 20
64.00000199999936
 30
0.0
 11
97.50000921258537
 21
64.00000199999936
 31
0.0
  0
LINE
  5
64E5F
330
5477C
100
AcDbEntity
  8
AM_5
100
AcDbLine
 10
97.50000921258537
 20
64.00000199999936
 30
0.0
 11
88.51677753018906
 21
80.4692608329941
 31
0.0
  0
LINE
  5
64E60
330
5477C
100
AcDbEntity
  8
AM_5
100
AcDbLine
 10
82.48324089497948
 20
91.53074516700565
 30
0.0
 11
82.00438878107396
 21
92.40864074907007
 31
0.0
  0
MTEXT
  5
64E61
330
5477C
100
AcDbEntity
  8
AM_5
 62
     2
100
AcDbMText
 10
112.8040092125857
 20
66.60000199999936
 30
0.0
 40
3.200000000000001
 41
0.0
 71
     5
 72
     1
  1
3-%%c5.4×%%c10.6サラ
 73
     1
 44
1.0
1001
ACAD
1000
MTEXTBEGIN
1070
    73
1070
     1
1070
    44
1040
1.0
1070
    74
1070
     0
1000
MTEXTEND
  0
LINE
  5
64E62
330
5477C
100
AcDbEntity
  8
AM_5
100
AcDbLine
 10
82.962093008885
 20
90.65284958494123
 30
0.0
 11
88.03792541628354
 21
81.34715641505852
 31
0.0
  0
INSERT
  5
64E63
330
5477C
100
AcDbEntity
  8
AM_5
100
AcDbBlockReference
  2
_Dot
 10
82.962093008885
 20
90.65284958494123
 30
0.0
 50
298.610458571143
  0
INSERT
  5
64E64
330
5477C
100
AcDbEntity
  8
AM_5
100
AcDbBlockReference
  2
_Dot
 10
88.03792541628354
 20
81.34715641505852
 30
0.0
 50
118.610458571143
  0
POINT
  5
64E65
330
5477C
100
AcDbEntity
  8
Defpoints
 62
     0
100
AcDbPoint
 10
88.03792541628354
 20
81.34715641505852
 30
0.0
  0
POINT
  5
64E66
330
5477C
100
AcDbEntity
  8
Defpoints
 62
     0
100
AcDbPoint
 10
82.962093008885
 20
90.65284958494123
 30
0.0
  0
ENDBLK
  5
54784
330
5477C
100
AcDbEntity
  8
0
100
AcDbBlockEnd
  0
BLOCK
  5
547C4
330
547BA
100
AcDbEntity
  8
0
100
AcDbBlockBegin
  2
*D32
 70
     1
 10
0.0
 20
0.0
 30
0.0
  3
*D32
  1

  0
LINE
  5
640CD
330
547BA
100
AcDbEntity
  8
AM_5
100
AcDbLine
 10
320.4199904088162
 20
64.00000199999976
 30
0.0
 11
293.4999904088162
 21
64.00000199999976
 31
0.0
  0
LINE
  5
640CE
330
547BA
100
AcDbEntity
  8
AM_5
100
AcDbLine
 10
293.4999904088162
 20
64.00000199999976
 30
0.0
 11
284.5167587264189
 21
80.46926083299467
 31
0.0
  0
LINE
  5
640CF
330
547BA
100
AcDbEntity
  8
AM_5
100
AcDbLine
 10
278.4832220912089
 20
91.53074516700598
 30
0.0
 11
278.0043699773033
 21
92.40864074907037
 31
0.0
  0
MTEXT
  5
640D0
330
547BA
100
AcDbEntity
  8
AM_5
 62
     2
100
AcDbMText
 10
307.4599904088162
 20
66.60000199999974
 30
0.0
 40
3.200000000000001
 41
0.0
 71
     5
 72
     1
  1
3-%%c5.4%%c10.6サラ
 73
     1
 44
1.0
1001
ACAD
1000
MTEXTBEGIN
1070
    73
1070
     1
1070
    44
1040
1.0
1070
    74
1070
     0
1000
MTEXTEND
  0
LINE
  5
640D1
330
547BA
100
AcDbEntity
  8
AM_5
100
AcDbLine
 10
278.9620742051144
 20
90.6528495849416
 30
0.0
 11
284.0379066125133
 21
81.34715641505907
 31
0.0
  0
INSERT
  5
640D2
330
547BA
100
AcDbEntity
  8
AM_5
100
AcDbBlockReference
  2
_Dot
 10
278.9620742051144
 20
90.6528495849416
 30
0.0
 50
298.6104585711455
  0
INSERT
  5
640D3
330
547BA
100
AcDbEntity
  8
AM_5
100
AcDbBlockReference
  2
_Dot
 10
284.0379066125133
 20
81.34715641505907
 30
0.0
 50
118.6104585711456
  0
POINT
  5
640D4
330
547BA
100
AcDbEntity
  8
Defpoints
 62
     0
100
AcDbPoint
 10
284.0379066125133
 20
81.34715641505907
 30
0.0
  0
POINT
  5
640D5
330
547BA
100
AcDbEntity
  8
Defpoints
 62
     0
100
AcDbPoint
 10
278.9620742051144
 20
90.6528495849416
 30
0.0
  0
ENDBLK
  5
547C5
330
547BA
100
AcDbEntity
  8
0
100
AcDbBlockEnd
  0
BLOCK
  5
547E4
330
547DA
100
AcDbEntity
  8
0
100
AcDbBlockBegin
  2
*D33
 70
     1
 10
0.0
 20
0.0
 30
0.0
  3
*D33
  1

  0
LINE
  5
640D6
330
547DA
100
AcDbEntity
  8
AM_5
100
AcDbLine
 10
265.4999996213978
 20
146.4999999999925
 30
0.0
 11
265.4999996213978
 21
158.9999979807969
 31
0.0
  0
LINE
  5
640D7
330
547DA
100
AcDbEntity
  8
AM_5
100
AcDbLine
 10
289.4999904088145
 20
136.5000029999999
 30
0.0
 11
289.4999904088145
 21
158.9999979807969
 31
0.0
  0
LINE
  5
640D8
330
547DA
100
AcDbEntity
  8
AM_5
100
AcDbLine
 10
266.4999996213978
 20
157.9999979807969
 30
0.0
 11
288.4999904088145
 21
157.9999979807969
 31
0.0
  0
INSERT
  5
640D9
330
547DA
100
AcDbEntity
  8
AM_5
100
AcDbBlockReference
  2
_Dot
 10
265.4999996213978
 20
157.9999979807969
 30
0.0
 41
1.0
 42
1.0
 43
1.0
 50
180.0
  0
INSERT
  5
640DA
330
547DA
100
AcDbEntity
  8
AM_5
100
AcDbBlockReference
  2
_Dot
 10
289.4999904088145
 20
157.9999979807969
 30
0.0
 41
1.0
 42
1.0
 43
1.0
  0
MTEXT
  5
640DB
330
547DA
100
AcDbEntity
  8
AM_5
 62
     2
100
AcDbMText
 10
277.4999950151062
 20
160.5999979807969
 30
0.0
 40
3.2
 41
0.0
 71
     5
 72
     1
  1
24
 73
     1
 44
1.0
1001
ACAD
1000
MTEXTBEGIN
1070
    73
1070
     1
1070
    44
1040
1.0
1070
    74
1070
     0
1000
MTEXTEND
  0
POINT
  5
640DC
330
547DA
100
AcDbEntity
  8
Defpoints
 62
     0
100
AcDbPoint
 10
265.4999996213978
 20
144.9999999999925
 30
0.0
  0
POINT
  5
640DD
330
547DA
100
AcDbEntity
  8
Defpoints
 62
     0
100
AcDbPoint
 10
289.4999904088145
 20
135.0000029999999
 30
0.0
  0
POINT
  5
640DE
330
547DA
100
AcDbEntity
  8
Defpoints
 62
     0
100
AcDbPoint
 10
289.4999904088145
 20
157.9999979807969
 30
0.0
  0
ENDBLK
  5
547E5
330
547DA
100
AcDbEntity
  8
0
100
AcDbBlockEnd
  0
BLOCK
  5
547F0
330
547E6
100
AcDbEntity
  8
0
100
AcDbBlockBegin
  2
*D34
 70
     1
 10
0.0
 20
0.0
 30
0.0
  3
*D34
  1

  0
LINE
  5
640DF
330
547E6
100
AcDbEntity
  8
AM_5
100
AcDbLine
 10
265.4999996213978
 20
146.4999999999925
 30
0.0
 11
265.4999996213978
 21
159.0000027763885
 31
0.0
  0
LINE
  5
640E0
330
547E6
100
AcDbEntity
  8
AM_5
100
AcDbLine
 10
233.4999904088145
 20
136.5000029999999
 30
0.0
 11
233.4999904088145
 21
159.0000027763885
 31
0.0
  0
LINE
  5
640E1
330
547E6
100
AcDbEntity
  8
AM_5
100
AcDbLine
 10
264.4999996213978
 20
158.0000027763885
 30
0.0
 11
234.4999904088145
 21
158.0000027763885
 31
0.0
  0
INSERT
  5
640E2
330
547E6
100
AcDbEntity
  8
AM_5
100
AcDbBlockReference
  2
_Dot
 10
265.4999996213978
 20
158.0000027763885
 30
0.0
 41
1.0
 42
1.0
 43
1.0
  0
INSERT
  5
640E3
330
547E6
100
AcDbEntity
  8
AM_5
100
AcDbBlockReference
  2
_Dot
 10
233.4999904088145
 20
158.0000027763885
 30
0.0
 41
1.0
 42
1.0
 43
1.0
 50
180.0
  0
MTEXT
  5
640E4
330
547E6
100
AcDbEntity
  8
AM_5
 62
     2
100
AcDbMText
 10
249.4999950151061
 20
160.6000027763885
 30
0.0
 40
3.2
 41
0.0
 71
     5
 72
     1
  1
32
 73
     1
 44
1.0
1001
ACAD
1000
MTEXTBEGIN
1070
    73
1070
     1
1070
    44
1040
1.0
1070
    74
1070
     0
1000
MTEXTEND
  0
POINT
  5
640E5
330
547E6
100
AcDbEntity
  8
Defpoints
 62
     0
100
AcDbPoint
 10
265.4999996213978
 20
144.9999999999925
 30
0.0
  0
POINT
  5
640E6
330
547E6
100
AcDbEntity
  8
Defpoints
 62
     0
100
AcDbPoint
 10
233.4999904088145
 20
135.0000029999999
 30
0.0
  0
POINT
  5
640E7
330
547E6
100
AcDbEntity
  8
Defpoints
 62
     0
100
AcDbPoint
 10
233.4999904088145
 20
158.0000027763885
 30
0.0
  0
ENDBLK
  5
547F1
330
547E6
100
AcDbEntity
  8
0
100
AcDbBlockEnd
  0
BLOCK
  5
5483E
330
54834
100
AcDbEntity
  8
0
100
AcDbBlockBegin
  2
*D35
 70
     1
 10
0.0
 20
0.0
 30
0.0
  3
*D35
  1

  0
LINE
  5
640E8
330
54834
100
AcDbEntity
  8
AM_5
100
AcDbLine
 10
331.4999999999982
 20
136.5000029999999
 30
0.0
 11
331.4999999999982
 21
150.9999929328051
 31
0.0
  0
LINE
  5
640E9
330
54834
100
AcDbEntity
  8
AM_5
100
AcDbLine
 10
363.5000092125815
 20
146.4999999999925
 30
0.0
 11
363.5000092125815
 21
150.9999929328051
 31
0.0
  0
LINE
  5
640EA
330
54834
100
AcDbEntity
  8
AM_5
100
AcDbLine
 10
332.4999999999982
 20
149.999992932805
 30
0.0
 11
362.5000092125815
 21
149.999992932805
 31
0.0
  0
INSERT
  5
640EB
330
54834
100
AcDbEntity
  8
AM_5
100
AcDbBlockReference
  2
_Dot
 10
331.4999999999982
 20
149.999992932805
 30
0.0
 41
1.0
 42
1.0
 43
1.0
 50
180.0
  0
INSERT
  5
640EC
330
54834
100
AcDbEntity
  8
AM_5
100
AcDbBlockReference
  2
_Dot
 10
363.5000092125815
 20
149.999992932805
 30
0.0
 41
1.0
 42
1.0
 43
1.0
  0
MTEXT
  5
640ED
330
54834
100
AcDbEntity
  8
AM_5
 62
     2
100
AcDbMText
 10
347.5000046062898
 20
152.599992932805
 30
0.0
 40
3.2
 41
0.0
 71
     5
 72
     1
  1
32
 73
     1
 44
1.0
1001
ACAD
1000
MTEXTBEGIN
1070
    73
1070
     1
1070
    44
1040
1.0
1070
    74
1070
     0
1000
MTEXTEND
  0
POINT
  5
640EE
330
54834
100
AcDbEntity
  8
Defpoints
 62
     0
100
AcDbPoint
 10
331.4999999999982
 20
135.0000029999999
 30
0.0
  0
POINT
  5
640EF
330
54834
100
AcDbEntity
  8
Defpoints
 62
     0
100
AcDbPoint
 10
363.5000092125815
 20
144.9999999999925
 30
0.0
  0
POINT
  5
640F0
330
54834
100
AcDbEntity
  8
Defpoints
 62
     0
100
AcDbPoint
 10
363.5000092125815
 20
149.999992932805
 30
0.0
  0
ENDBLK
  5
5483F
330
54834
100
AcDbEntity
  8
0
100
AcDbBlockEnd
  0
BLOCK
  5
54866
330
5485C
100
AcDbEntity
  8
0
100
AcDbBlockBegin
  2
*D36
 70
     1
 10
0.0
 20
0.0
 30
0.0
  3
*D36
  1

  0
LINE
  5
640F1
330
5485C
100
AcDbEntity
  8
AM_5
100
AcDbLine
 10
387.4999998106988
 20
136.5000029999999
 30
0.0
 11
387.4999979808045
 21
150.9999959615957
 31
0.0
  0
LINE
  5
640F2
330
5485C
100
AcDbEntity
  8
AM_5
100
AcDbLine
 10
363.500009023282
 20
146.4999999999925
 30
0.0
 11
363.5000084553845
 21
150.9999929328051
 31
0.0
  0
LINE
  5
640F3
330
5485C
100
AcDbEntity
  8
AM_5
100
AcDbLine
 10
386.4999981070042
 20
149.999995835396
 30
0.0
 11
364.5000085815841
 21
149.9999930590047
 31
0.0
  0
INSERT
  5
640F4
330
5485C
100
AcDbEntity
  8
AM_5
100
AcDbBlockReference
  2
_Dot
 10
387.4999981070041
 20
149.9999959615957
 30
0.0
 41
1.0
 42
1.0
 43
1.0
 50
0.0000072307081922
  0
INSERT
  5
640F5
330
5485C
100
AcDbEntity
  8
AM_5
100
AcDbBlockReference
  2
_Dot
 10
363.5000085815841
 20
149.999992932805
 30
0.0
 41
1.0
 42
1.0
 43
1.0
 50
180.0000072307082
  0
MTEXT
  5
640F6
330
5485C
100
AcDbEntity
  8
AM_5
 62
     2
100
AcDbMText
 10
375.5000030161749
 20
152.5999944472004
 30
0.0
 40
3.2
 41
0.0
 71
     5
 72
     1
  1
24
 11
0.9999999999999921
 21
0.0000001261996658
 31
0.0
 73
     1
 44
1.0
1001
ACAD
1000
MTEXTBEGIN
1070
    73
1070
     1
1070
    44
1040
1.0
1070
    74
1070
     0
1000
MTEXTEND
  0
POINT
  5
640F7
330
5485C
100
AcDbEntity
  8
Defpoints
 62
     0
100
AcDbPoint
 10
387.4999999999983
 20
135.0000029999999
 30
0.0
  0
POINT
  5
640F8
330
5485C
100
AcDbEntity
  8
Defpoints
 62
     0
100
AcDbPoint
 10
363.5000092125815
 20
144.9999999999924
 30
0.0
  0
POINT
  5
640F9
330
5485C
100
AcDbEntity
  8
Defpoints
 62
     0
100
AcDbPoint
 10
363.5000085815841
 20
149.999992932805
 30
0.0
  0
ENDBLK
  5
54867
330
5485C
100
AcDbEntity
  8
0
100
AcDbBlockEnd
  0
BLOCK
  5
64DAD
330
64DA3
100
AcDbEntity
  8
0
100
AcDbBlockBegin
  2
*D38
 70
     1
 10
0.0
 20
0.0
 30
0.0
  3
*D38
  1

  0
LINE
  5
64DBD
330
64DA3
100
AcDbEntity
  8
AM_5
100
AcDbLine
 10
133.9999907874157
 20
202.7499999999925
 30
0.0
 11
126.4999907874157
 21
202.7499999999925
 31
0.0
  0
LINE
  5
64DBE
330
64DA3
100
AcDbEntity
  8
AM_5
100
AcDbLine
 10
165.9999907874157
 20
189.7499999999925
 30
0.0
 11
126.4999907874157
 21
189.7499999999925
 31
0.0
  0
LINE
  5
64DBF
330
64DA3
100
AcDbEntity
  8
AM_5
100
AcDbLine
 10
127.4999907874157
 20
201.7499999999925
 30
0.0
 11
127.4999907874157
 21
190.7499999999925
 31
0.0
  0
INSERT
  5
64DC0
330
64DA3
100
AcDbEntity
  8
AM_5
100
AcDbBlockReference
  2
_Dot
 10
127.4999907874157
 20
202.7499999999925
 30
0.0
 41
1.0
 42
1.0
 43
1.0
 50
90.0
  0
INSERT
  5
64DC1
330
64DA3
100
AcDbEntity
  8
AM_5
100
AcDbBlockReference
  2
_Dot
 10
127.4999907874157
 20
189.7499999999925
 30
0.0
 41
1.0
 42
1.0
 43
1.0
 50
270.0
  0
MTEXT
  5
64DC2
330
64DA3
100
AcDbEntity
  8
AM_5
 62
     2
100
AcDbMText
 10
124.8999907874157
 20
196.2499999999925
 30
0.0
 40
3.2
 41
0.0
 71
     5
 72
     1
  1
13
 11
0.0000000000000001
 21
1.0
 31
0.0
 73
     1
 44
1.0
1001
ACAD
1000
MTEXTBEGIN
1070
    73
1070
     1
1070
    44
1040
1.0
1070
    74
1070
     0
1000
MTEXTEND
  0
POINT
  5
64DC3
330
64DA3
100
AcDbEntity
  8
Defpoints
 62
     0
100
AcDbPoint
 10
135.4999907874157
 20
202.7499999999925
 30
0.0
  0
POINT
  5
64DC4
330
64DA3
100
AcDbEntity
  8
Defpoints
 62
     0
100
AcDbPoint
 10
167.4999907874157
 20
189.7499999999925
 30
0.0
  0
POINT
  5
64DC5
330
64DA3
100
AcDbEntity
  8
Defpoints
 62
     0
100
AcDbPoint
 10
127.4999907874157
 20
189.7499999999925
 30
0.0
  0
ENDBLK
  5
64DAE
330
64DA3
100
AcDbEntity
  8
0
100
AcDbBlockEnd
  0
BLOCK
  5
64DBB
330
64DAF
100
AcDbEntity
  8
0
100
AcDbBlockBegin
  2
*D39
 70
     1
 10
0.0
 20
0.0
 30
0.0
  3
*D39
  1

  0
LINE
  5
64DB0
330
64DAF
100
AcDbEntity
  8
AM_5
100
AcDbLine
 10
192.9999907874157
 20
202.7499999999925
 30
0.0
 11
202.4999907874157
 21
202.7499999999925
 31
0.0
  0
LINE
  5
64DB1
330
64DAF
100
AcDbEntity
  8
AM_5
100
AcDbLine
 10
192.9999907874157
 20
199.7499999999927
 30
0.0
 11
202.4999907874157
 21
199.7499999999927
 31
0.0
  0
LINE
  5
64DB2
330
64DAF
100
AcDbEntity
  8
AM_5
100
AcDbLine
 10
201.4999907874158
 20
203.7499999999925
 30
0.0
 11
201.4999907874158
 21
204.7499999999925
 31
0.0
  0
LINE
  5
64DB3
330
64DAF
100
AcDbEntity
  8
AM_5
100
AcDbLine
 10
201.4999907874158
 20
198.7499999999927
 30
0.0
 11
201.4999907874158
 21
194.2566666666593
 31
0.0
  0
LINE
  5
64DB4
330
64DAF
100
AcDbEntity
  8
AM_5
100
AcDbLine
 10
201.4999907874158
 20
202.7499999999925
 30
0.0
 11
201.4999907874158
 21
199.7499999999927
 31
0.0
  0
INSERT
  5
64DB5
330
64DAF
100
AcDbEntity
  8
AM_5
100
AcDbBlockReference
  2
_Dot
 10
201.4999907874158
 20
202.7499999999925
 30
0.0
 41
1.0
 42
1.0
 43
1.0
 50
270.0
  0
INSERT
  5
64DB6
330
64DAF
100
AcDbEntity
  8
AM_5
100
AcDbBlockReference
  2
_Dot
 10
201.4999907874158
 20
199.7499999999927
 30
0.0
 41
1.0
 42
1.0
 43
1.0
 50
90.0
  0
MTEXT
  5
64DB7
330
64DAF
100
AcDbEntity
  8
AM_5
 62
     2
100
AcDbMText
 10
198.8999907874157
 20
196.0033333333261
 30
0.0
 40
3.2
 41
0.0
 71
     5
 72
     1
  1
3
 11
0.0000000000000001
 21
1.0
 31
0.0
 73
     1
 44
1.0
1001
ACAD
1000
MTEXTBEGIN
1070
    73
1070
     1
1070
    44
1040
1.0
1070
    74
1070
     0
1000
MTEXTEND
  0
POINT
  5
64DB8
330
64DAF
100
AcDbEntity
  8
Defpoints
 62
     0
100
AcDbPoint
 10
191.4999907874157
 20
202.7499999999925
 30
0.0
  0
POINT
  5
64DB9
330
64DAF
100
AcDbEntity
  8
Defpoints
 62
     0
100
AcDbPoint
 10
191.4999907874157
 20
199.7499999999927
 30
0.0
  0
POINT
  5
64DBA
330
64DAF
100
AcDbEntity
  8
Defpoints
 62
     0
100
AcDbPoint
 10
201.4999907874158
 20
199.7499999999927
 30
0.0
  0
ENDBLK
  5
64DBC
330
64DAF
100
AcDbEntity
  8
0
100
AcDbBlockEnd
  0
BLOCK
  5
64E50
330
64E46
100
AcDbEntity
  8
0
100
AcDbBlockBegin
  2
*D40
 70
     1
 10
0.0
 20
0.0
 30
0.0
  3
*D40
  1

  0
LINE
  5
64E69
330
64E46
100
AcDbEntity
  8
AM_5
100
AcDbLine
 10
188.499999305901
 20
139.5000029999998
 30
0.0
 11
202.4999907874157
 21
139.5000029999998
 31
0.0
  0
LINE
  5
64E6A
330
64E46
100
AcDbEntity
  8
AM_5
100
AcDbLine
 10
188.499999305901
 20
74.50000299999988
 30
0.0
 11
202.4999907874157
 21
74.50000299999988
 31
0.0
  0
LINE
  5
64E6B
330
64E46
100
AcDbEntity
  8
AM_5
100
AcDbLine
 10
201.4999907874158
 20
138.5000029999998
 30
0.0
 11
201.4999907874158
 21
75.50000299999988
 31
0.0
  0
INSERT
  5
64E6C
330
64E46
100
AcDbEntity
  8
AM_5
100
AcDbBlockReference
  2
_Dot
 10
201.4999907874158
 20
139.5000029999998
 30
0.0
 41
1.0
 42
1.0
 43
1.0
 50
90.0
  0
INSERT
  5
64E6D
330
64E46
100
AcDbEntity
  8
AM_5
100
AcDbBlockReference
  2
_Dot
 10
201.4999907874158
 20
74.50000299999988
 30
0.0
 41
1.0
 42
1.0
 43
1.0
 50
270.0
  0
MTEXT
  5
64E6E
330
64E46
100
AcDbEntity
  8
AM_5
 62
     2
100
AcDbMText
 10
198.8999907874157
 20
107.0000029999999
 30
0.0
 40
3.2
 41
0.0
 71
     5
 72
     1
  1
A
 11
0.0000000000000001
 21
1.0
 31
0.0
 73
     1
 44
1.0
1001
ACAD
1000
MTEXTBEGIN
1070
    73
1070
     1
1070
    44
1040
1.0
1070
    74
1070
     0
1000
MTEXTEND
  0
POINT
  5
64E6F
330
64E46
100
AcDbEntity
  8
Defpoints
 62
     0
100
AcDbPoint
 10
186.999999305901
 20
139.5000029999998
 30
0.0
  0
POINT
  5
64E70
330
64E46
100
AcDbEntity
  8
Defpoints
 62
     0
100
AcDbPoint
 10
186.999999305901
 20
74.50000299999988
 30
0.0
  0
POINT
  5
64E71
330
64E46
100
AcDbEntity
  8
Defpoints
 62
     0
100
AcDbPoint
 10
201.4999907874158
 20
74.50000299999988
 30
0.0
  0
ENDBLK
  5
64E51
330
64E46
100
AcDbEntity
  8
0
100
AcDbBlockEnd
  0
BLOCK
  5
64F15
330
64F09
100
AcDbEntity
  8
0
100
AcDbBlockBegin
  2
*D41
 70
     1
 10
0.0
 20
0.0
 30
0.0
  3
*D41
  1

  0
LINE
  5
64F23
330
64F09
100
AcDbEntity
  8
AM_5
100
AcDbLine
 10
388.9999999999982
 20
202.7499999999925
 30
0.0
 11
398.4999999999982
 21
202.7499999999925
 31
0.0
  0
LINE
  5
64F24
330
64F09
100
AcDbEntity
  8
AM_5
100
AcDbLine
 10
388.9999999999982
 20
199.7499999999927
 30
0.0
 11
398.4999999999982
 21
199.7499999999927
 31
0.0
  0
LINE
  5
64F25
330
64F09
100
AcDbEntity
  8
AM_5
100
AcDbLine
 10
397.4999999999982
 20
203.7499999999925
 30
0.0
 11
397.4999999999982
 21
204.7499999999925
 31
0.0
  0
LINE
  5
64F26
330
64F09
100
AcDbEntity
  8
AM_5
100
AcDbLine
 10
397.4999999999982
 20
198.7499999999927
 30
0.0
 11
397.4999999999982
 21
194.2566666666594
 31
0.0
  0
LINE
  5
64F27
330
64F09
100
AcDbEntity
  8
AM_5
100
AcDbLine
 10
397.4999999999982
 20
202.7499999999925
 30
0.0
 11
397.4999999999982
 21
199.7499999999927
 31
0.0
  0
INSERT
  5
64F28
330
64F09
100
AcDbEntity
  8
AM_5
100
AcDbBlockReference
  2
_Dot
 10
397.4999999999982
 20
202.7499999999925
 30
0.0
 41
1.0
 42
1.0
 43
1.0
 50
270.0
  0
INSERT
  5
64F29
330
64F09
100
AcDbEntity
  8
AM_5
100
AcDbBlockReference
  2
_Dot
 10
397.4999999999982
 20
199.7499999999927
 30
0.0
 41
1.0
 42
1.0
 43
1.0
 50
90.0
  0
MTEXT
  5
64F2A
330
64F09
100
AcDbEntity
  8
AM_5
 62
     2
100
AcDbMText
 10
394.8999999999981
 20
196.0033333333261
 30
0.0
 40
3.2
 41
0.0
 71
     5
 72
     1
  1
3
 11
0.0000000000000001
 21
1.0
 31
0.0
 73
     1
 44
1.0
1001
ACAD
1000
MTEXTBEGIN
1070
    73
1070
     1
1070
    44
1040
1.0
1070
    74
1070
     0
1000
MTEXTEND
  0
POINT
  5
64F2B
330
64F09
100
AcDbEntity
  8
Defpoints
 62
     0
100
AcDbPoint
 10
387.4999999999982
 20
202.7499999999925
 30
0.0
  0
POINT
  5
64F2C
330
64F09
100
AcDbEntity
  8
Defpoints
 62
     0
100
AcDbPoint
 10
387.4999999999982
 20
199.7499999999927
 30
0.0
  0
POINT
  5
64F2D
330
64F09
100
AcDbEntity
  8
Defpoints
 62
     0
100
AcDbPoint
 10
397.4999999999982
 20
199.7499999999927
 30
0.0
  0
ENDBLK
  5
64F16
330
64F09
100
AcDbEntity
  8
0
100
AcDbBlockEnd
  0
BLOCK
  5
64F21
330
64F17
100
AcDbEntity
  8
0
100
AcDbBlockBegin
  2
*D42
 70
     1
 10
0.0
 20
0.0
 30
0.0
  3
*D42
  1

  0
LINE
  5
64F2E
330
64F17
100
AcDbEntity
  8
AM_5
100
AcDbLine
 10
329.9999999999982
 20
189.7499999999925
 30
0.0
 11
322.4999999999982
 21
189.7499999999925
 31
0.0
  0
LINE
  5
64F2F
330
64F17
100
AcDbEntity
  8
AM_5
100
AcDbLine
 10
361.9999999999982
 20
202.7499999999925
 30
0.0
 11
322.4999999999982
 21
202.7499999999925
 31
0.0
  0
LINE
  5
64F30
330
64F17
100
AcDbEntity
  8
AM_5
100
AcDbLine
 10
323.4999999999982
 20
190.7499999999925
 30
0.0
 11
323.4999999999982
 21
201.7499999999925
 31
0.0
  0
INSERT
  5
64F31
330
64F17
100
AcDbEntity
  8
AM_5
100
AcDbBlockReference
  2
_Dot
 10
323.4999999999982
 20
189.7499999999925
 30
0.0
 41
1.0
 42
1.0
 43
1.0
 50
270.0
  0
INSERT
  5
64F32
330
64F17
100
AcDbEntity
  8
AM_5
100
AcDbBlockReference
  2
_Dot
 10
323.4999999999982
 20
202.7499999999925
 30
0.0
 41
1.0
 42
1.0
 43
1.0
 50
90.0
  0
MTEXT
  5
64F33
330
64F17
100
AcDbEntity
  8
AM_5
 62
     2
100
AcDbMText
 10
320.8999999999981
 20
196.2499999999925
 30
0.0
 40
3.2
 41
0.0
 71
     5
 72
     1
  1
13
 11
0.0000000000000001
 21
1.0
 31
0.0
 73
     1
 44
1.0
1001
ACAD
1000
MTEXTBEGIN
1070
    73
1070
     1
1070
    44
1040
1.0
1070
    74
1070
     0
1000
MTEXTEND
  0
POINT
  5
64F34
330
64F17
100
AcDbEntity
  8
Defpoints
 62
     0
100
AcDbPoint
 10
331.4999999999982
 20
189.7499999999925
 30
0.0
  0
POINT
  5
64F35
330
64F17
100
AcDbEntity
  8
Defpoints
 62
     0
100
AcDbPoint
 10
363.4999999999982
 20
202.7499999999925
 30
0.0
  0
POINT
  5
64F36
330
64F17
100
AcDbEntity
  8
Defpoints
 62
     0
100
AcDbPoint
 10
323.4999999999982
 20
202.7499999999925
 30
0.0
  0
ENDBLK
  5
64F22
330
64F17
100
AcDbEntity
  8
0
100
AcDbBlockEnd
  0
ENDSEC
  0
SECTION
  2
ENTITIES
  0
LINE
  5
525C3
330
1F
100
AcDbEntity
  8
AM_0
100
AcDbLine
 10
63.00000921258424
 20
90.20000299999992
 30
0.0
 11
63.00000921258424
 21
74.50000299999988
 31
0.0
  0
ARC
  5
525C4
330
1F
100
AcDbEntity
  8
AM_0
100
AcDbCircle
 10
76.00000921258424
 20
124.0000029999999
 30
0.0
 40
1.0
100
AcDbArc
 50
270.0
 51
0.0
  0
LINE
  5
525C6
330
1F
100
AcDbEntity
  8
AM_0
100
AcDbLine
 10
63.75000921258425
 20
91.00000299999988
 30
0.0
 11
63.75000921258425
 21
90.20000299999992
 31
0.0
  0
LINE
  5
525C7
330
1F
100
AcDbEntity
  8
AM_0
100
AcDbLine
 10
63.75000921258425
 20
90.20000299999992
 30
0.0
 11
75.25000921258424
 21
90.20000299999992
 31
0.0
  0
LINE
  5
525C8
330
1F
100
AcDbEntity
  8
AM_0
100
AcDbLine
 10
63.75000921258425
 20
123.8000029999998
 30
0.0
 11
63.75000921258425
 21
123.0000029999999
 31
0.0
  0
LINE
  5
525C9
330
1F
100
AcDbEntity
  8
AM_0
100
AcDbLine
 10
63.75000921258425
 20
123.0000029999999
 30
0.0
 11
75.25000921258424
 21
123.0000029999999
 31
0.0
  0
LINE
  5
525CA
330
1F
100
AcDbEntity
  8
AM_0
100
AcDbLine
 10
75.25000921258424
 20
123.0000029999999
 30
0.0
 11
75.25000921258424
 21
123.8000029999998
 31
0.0
  0
LINE
  5
525CB
330
1F
100
AcDbEntity
  8
AM_0
100
AcDbLine
 10
76.00000921258424
 20
123.8000029999998
 30
0.0
 11
63.75000921258425
 21
123.8000029999998
 31
0.0
  0
ARC
  5
525CC
330
1F
100
AcDbEntity
  8
AM_0
100
AcDbCircle
 10
69.50000921258425
 20
136.6999999999998
 30
0.0
 40
5.299999999999999
100
AcDbArc
 50
31.89079999998604
 51
148.1090089999901
  0
ARC
  5
525CD
330
1F
100
AcDbEntity
  8
AM_0
100
AcDbCircle
 10
69.50000921258425
 20
77.30000199999995
 30
0.0
 40
5.299999999999999
100
AcDbArc
 50
211.8909910000098
 51
328.1090089999901
  0
ARC
  5
525CE
102
{ACAD_REACTORS
330
5294B
102
}
330
1F
100
AcDbEntity
  8
AM_0
100
AcDbCircle
 10
89.00000921258424
 20
135.0000029999999
 30
0.0
 40
4.5
100
AcDbArc
 50
0.0
 51
90.0
  0
ARC
  5
525CF
330
1F
100
AcDbEntity
  8
AM_0
100
AcDbCircle
 10
89.00000921258424
 20
79.00000099999989
 30
0.0
 40
4.5
100
AcDbArc
 50
270.0
 51
0.0
  0
ARC
  5
525D0
330
1F
100
AcDbEntity
  8
AM_0
100
AcDbCircle
 10
42.00000921258424
 20
79.00000099999989
 30
0.0
 40
4.5
100
AcDbArc
 50
180.0
 51
270.0
  0
ARC
  5
525D1
330
1F
100
AcDbEntity
  8
AM_0
100
AcDbCircle
 10
42.00000921258424
 20
135.0000029999999
 30
0.0
 40
4.5
100
AcDbArc
 50
90.0
 51
180.0
  0
LINE
  5
525D2
330
1F
100
AcDbEntity
  8
AM_0
100
AcDbLine
 10
75.25000921258424
 20
91.00000299999988
 30
0.0
 11
63.75000921258425
 21
91.00000299999988
 31
0.0
  0
LINE
  5
525D3
330
1F
100
AcDbEntity
  8
AM_0
100
AcDbLine
 10
75.25000921258424
 20
90.20000299999992
 30
0.0
 11
75.25000921258424
 21
91.00000299999988
 31
0.0
  0
LINE
  5
525D4
330
1F
100
AcDbEntity
  8
AM_0
100
AcDbLine
 10
76.00000921258424
 20
123.0000029999999
 30
0.0
 11
76.00000921258424
 21
91.00000299999988
 31
0.0
  0
LINE
  5
525D7
330
1F
100
AcDbEntity
  8
AM_0
100
AcDbLine
 10
63.00000921258424
 20
123.8000029999998
 30
0.0
 11
75.75000921258425
 21
123.8000029999998
 31
0.0
  0
LINE
  5
525D8
330
1F
100
AcDbEntity
  8
AM_0
100
AcDbLine
 10
63.00000921258424
 20
90.20000299999992
 30
0.0
 11
76.00000921258424
 21
90.20000299999992
 31
0.0
  0
LINE
  5
525D9
330
1F
100
AcDbEntity
  8
AM_0
100
AcDbLine
 10
78.00000921258424
 20
139.5000029999998
 30
0.0
 11
89.00000921258424
 21
139.5000029999998
 31
0.0
  0
LINE
  5
525DA
102
{ACAD_REACTORS
330
5294B
102
}
330
1F
100
AcDbEntity
  8
AM_0
100
AcDbLine
 10
78.00000921258424
 20
74.50000299999988
 30
0.0
 11
89.00000921258424
 21
74.50000299999988
 31
0.0
  0
LINE
  5
525DB
330
1F
100
AcDbEntity
  8
AM_0
100
AcDbLine
 10
77.00000921258425
 20
90.00000299999987
 30
0.0
 11
77.00000921258425
 21
75.50000299999988
 31
0.0
  0
LINE
  5
525DC
330
1F
100
AcDbEntity
  8
AM_0
100
AcDbLine
 10
76.00000921258424
 20
90.20000299999992
 30
0.0
 11
76.00000921258424
 21
74.50000299999988
 31
0.0
  0
LINE
  5
525DD
330
1F
100
AcDbEntity
  8
AM_0
100
AcDbLine
 10
63.00000921258424
 20
91.00000299999988
 30
0.0
 11
76.00000921258424
 21
91.00000299999988
 31
0.0
  0
LINE
  5
525DE
330
1F
100
AcDbEntity
  8
AM_0
100
AcDbLine
 10
63.00000921258424
 20
123.0000029999999
 30
0.0
 11
76.00000921258424
 21
123.0000029999999
 31
0.0
  0
LINE
  5
525DF
330
1F
100
AcDbEntity
  8
AM_0
100
AcDbLine
 10
62.00000921258425
 20
122.8000029999998
 30
0.0
 11
62.00000921258425
 21
91.20000299999992
 31
0.0
  0
LINE
  5
525E0
330
1F
100
AcDbEntity
  8
AM_0
100
AcDbLine
 10
77.00000921258425
 20
138.5000029999998
 30
0.0
 11
77.00000921258425
 21
124.0000029999999
 31
0.0
  0
LINE
  5
525E1
330
1F
100
AcDbEntity
  8
AM_0
100
AcDbLine
 10
76.00000921258424
 20
139.5000029999998
 30
0.0
 11
76.00000921258424
 21
123.8000029999998
 31
0.0
  0
LINE
  5
525E2
330
1F
100
AcDbEntity
  8
AM_0
100
AcDbLine
 10
63.00000921258424
 20
123.0000029999999
 30
0.0
 11
63.00000921258424
 21
91.00000299999988
 31
0.0
  0
LINE
  5
525E5
330
1F
100
AcDbEntity
  8
AM_0
100
AcDbLine
 10
42.00000921258424
 20
74.50000299999988
 30
0.0
 11
76.00000921258424
 21
74.50000299999988
 31
0.0
  0
LINE
  5
525E6
330
1F
100
AcDbEntity
  8
AM_0
100
AcDbLine
 10
42.00000921258424
 20
139.5000029999998
 30
0.0
 11
76.00000921258424
 21
139.5000029999998
 31
0.0
  0
LINE
  5
525E7
102
{ACAD_REACTORS
330
52A45
102
}
330
1F
100
AcDbEntity
  8
AM_0
100
AcDbLine
 10
93.50000921258425
 20
135.0000029999999
 30
0.0
 11
93.50000921258425
 21
79.00000099999989
 31
0.0
  0
ARC
  5
525E8
330
1F
100
AcDbEntity
  8
AM_0
100
AcDbCircle
 10
63.00000921258424
 20
91.20000299999992
 30
0.0
 40
1.0
100
AcDbArc
 50
180.0
 51
270.0
  0
ARC
  5
525E9
330
1F
100
AcDbEntity
  8
AM_0
100
AcDbCircle
 10
76.00000921258424
 20
90.00000299999987
 30
0.0
 40
1.0
100
AcDbArc
 50
0.0
 51
90.0
  0
LINE
  5
525EB
330
1F
100
AcDbEntity
  8
AM_0
100
AcDbLine
 10
77.00000921258425
 20
199.7499999999925
 30
0.0
 11
77.00000921258425
 21
202.7499999999925
 31
0.0
  0
LINE
  5
525ED
330
1F
100
AcDbEntity
  8
AM_0
100
AcDbLine
 10
93.50000921258425
 20
199.7499999999925
 30
0.0
 11
93.50000921258425
 21
202.7499999999925
 31
0.0
  0
LINE
  5
525EE
330
1F
100
AcDbEntity
  8
AM_0
100
AcDbLine
 10
37.50000921258425
 20
202.7499999999925
 30
0.0
 11
37.50000921258425
 21
199.7499999999925
 31
0.0
  0
LINE
  5
525EF
102
{ACAD_REACTORS
330
52A0C
102
}
330
1F
100
AcDbEntity
  8
AM_0
100
AcDbLine
 10
74.97723478763591
 20
199.7499999999925
 30
0.0
 11
93.50000921258425
 21
199.7499999999925
 31
0.0
  0
CIRCLE
  5
525F0
102
{ACAD_REACTORS
330
5478C
102
}
330
1F
100
AcDbEntity
  8
AM_0
100
AcDbCircle
 10
85.50000921258424
 20
86.00000299999988
 30
0.0
 40
5.299999999999999
  0
CIRCLE
  5
525F1
330
1F
100
AcDbEntity
  8
AM_0
100
AcDbCircle
 10
85.50000921258424
 20
107.0000029999998
 30
0.0
 40
5.299999999999999
  0
CIRCLE
  5
525F2
330
1F
100
AcDbEntity
  8
AM_0
100
AcDbCircle
 10
85.50000921258424
 20
128.0000029999998
 30
0.0
 40
5.299999999999999
  0
CIRCLE
  5
525F3
330
1F
100
AcDbEntity
  8
AM_0
100
AcDbCircle
 10
69.50000921258425
 20
196.2499999999925
 30
0.0
 40
4.5
  0
ARC
  5
525F4
330
1F
100
AcDbEntity
  8
AM_0
100
AcDbCircle
 10
63.00000921258424
 20
122.8000029999998
 30
0.0
 40
1.0
100
AcDbArc
 50
90.0
 51
180.0
  0
LINE
  5
525F6
102
{ACAD_REACTORS
330
52A45
102
}
330
1F
100
AcDbEntity
  8
AM_0
100
AcDbLine
 10
37.50000921258425
 20
135.0000029999999
 30
0.0
 11
37.50000921258425
 21
79.00000099999989
 31
0.0
  0
ARC
  5
525F7
330
1F
100
AcDbEntity
  8
AM_0
100
AcDbCircle
 10
78.00000921258424
 20
138.5000029999998
 30
0.0
 40
1.0
100
AcDbArc
 50
90.0
 51
180.0
  0
ARC
  5
525F8
330
1F
100
AcDbEntity
  8
AM_0
100
AcDbCircle
 10
78.00000921258424
 20
75.50000299999988
 30
0.0
 40
1.0
100
AcDbArc
 50
180.0
 51
270.0
  0
LINE
  5
525F9
330
1F
100
AcDbEntity
  8
AM_0
100
AcDbLine
 10
63.00000921258424
 20
139.5000029999998
 30
0.0
 11
63.00000921258424
 21
123.8000029999998
 31
0.0
  0
LINE
  5
52600
330
1F
100
AcDbEntity
  8
AM_0
100
AcDbLine
 10
63.87084408788506
 20
199.4999999998187
 30
0.0
 11
65.60289489558408
 21
198.4999999999925
 31
0.0
  0
LINE
  5
52601
102
{ACAD_REACTORS
330
52A0C
102
}
330
1F
100
AcDbEntity
  8
AM_0
100
AcDbLine
 10
69.50000921258425
 20
202.7499999999925
 30
0.0
 11
93.50000921258425
 21
202.7499999999925
 31
0.0
  0
LINE
  5
52604
330
1F
100
AcDbEntity
  8
AM_0
100
AcDbLine
 10
37.50000921258425
 20
202.7499999999925
 30
0.0
 11
69.50000921258425
 21
202.7499999999925
 31
0.0
  0
LINE
  5
52606
330
1F
100
AcDbEntity
  8
AM_0
100
AcDbLine
 10
37.50000921258425
 20
199.7499999999925
 30
0.0
 11
66.67158208783806
 21
199.7499999999925
 31
0.0
  0
CIRCLE
  5
52607
102
{ACAD_REACTORS
330
5465C
102
}
330
1F
100
AcDbEntity
  8
AM_0
100
AcDbCircle
 10
47.50000921258425
 20
88.00000299999988
 30
0.0
 40
2.6
  0
CIRCLE
  5
52608
330
1F
100
AcDbEntity
  8
AM_0
100
AcDbCircle
 10
47.50000921258425
 20
126.0000029999998
 30
0.0
 40
2.6
  0
CIRCLE
  5
52609
330
1F
100
AcDbEntity
  8
AM_0
100
AcDbCircle
 10
85.50000921258424
 20
86.00000299999988
 30
0.0
 40
2.7
  0
CIRCLE
  5
5260A
330
1F
100
AcDbEntity
  8
AM_0
100
AcDbCircle
 10
85.50000921258424
 20
107.0000029999998
 30
0.0
 40
2.7
  0
CIRCLE
  5
5260B
330
1F
100
AcDbEntity
  8
AM_0
100
AcDbCircle
 10
85.50000921258424
 20
128.0000029999998
 30
0.0
 40
2.7
  0
ARC
  5
52654
330
1F
100
AcDbEntity
  8
AM_0
100
AcDbCircle
 10
369.9999999999982
 20
90.00000299999987
 30
0.0
 40
1.0
100
AcDbArc
 50
0.0
 51
90.0
  0
ARC
  5
52655
330
1F
100
AcDbEntity
  8
AM_0
100
AcDbCircle
 10
356.9999999999982
 20
91.20000299999992
 30
0.0
 40
1.0
100
AcDbArc
 50
180.0
 51
270.0
  0
ARC
  5
52656
330
1F
100
AcDbEntity
  8
AM_0
100
AcDbCircle
 10
369.9999999999982
 20
124.0000029999999
 30
0.0
 40
1.0
100
AcDbArc
 50
270.0
 51
0.0
  0
ARC
  5
52657
330
1F
100
AcDbEntity
  8
AM_0
100
AcDbCircle
 10
356.9999999999982
 20
122.8000029999998
 30
0.0
 40
1.0
100
AcDbArc
 50
90.0
 51
180.0
  0
ARC
  5
5265A
330
1F
100
AcDbEntity
  8
AM_0
100
AcDbCircle
 10
371.9999999999982
 20
138.5000029999998
 30
0.0
 40
1.0
100
AcDbArc
 50
90.0
 51
180.0
  0
ARC
  5
5265B
330
1F
100
AcDbEntity
  8
AM_0
100
AcDbCircle
 10
371.9999999999982
 20
75.50000299999988
 30
0.0
 40
1.0
100
AcDbArc
 50
180.0
 51
270.0
  0
LINE
  5
52660
330
1F
100
AcDbEntity
  8
AM_0
100
AcDbLine
 10
357.7499999999982
 20
91.00000299999988
 30
0.0
 11
357.7499999999982
 21
90.20000299999992
 31
0.0
  0
LINE
  5
52661
330
1F
100
AcDbEntity
  8
AM_0
100
AcDbLine
 10
357.7499999999982
 20
90.20000299999992
 30
0.0
 11
369.9999999999982
 21
90.20000299999992
 31
0.0
  0
LINE
  5
52662
330
1F
100
AcDbEntity
  8
AM_0
100
AcDbLine
 10
357.7499999999982
 20
123.8000029999998
 30
0.0
 11
357.7499999999982
 21
123.0000029999999
 31
0.0
  0
LINE
  5
52663
330
1F
100
AcDbEntity
  8
AM_0
100
AcDbLine
 10
356.9999999999982
 20
123.0000029999998
 30
0.0
 11
369.2499999999982
 21
123.0000029999999
 31
0.0
  0
LINE
  5
52665
330
1F
100
AcDbEntity
  8
AM_0
100
AcDbLine
 10
369.2499999999982
 20
123.0000029999999
 30
0.0
 11
369.2499999999982
 21
123.8000029999998
 31
0.0
  0
LINE
  5
52666
330
1F
100
AcDbEntity
  8
AM_0
100
AcDbLine
 10
369.9999999999982
 20
123.8000029999998
 30
0.0
 11
357.7499999999982
 21
123.8000029999998
 31
0.0
  0
ARC
  5
5266A
330
1F
100
AcDbEntity
  8
AM_0
100
AcDbCircle
 10
363.4999999999982
 20
136.6999999999998
 30
0.0
 40
5.299999999999999
100
AcDbArc
 50
31.89079999998643
 51
148.1090089999917
  0
ARC
  5
5266B
330
1F
100
AcDbEntity
  8
AM_0
100
AcDbCircle
 10
363.4999999999982
 20
77.30000199999995
 30
0.0
 40
5.299999999999999
100
AcDbArc
 50
211.8909910000083
 51
328.1090089999917
  0
ARC
  5
5266C
330
1F
100
AcDbEntity
  8
AM_0
100
AcDbCircle
 10
382.9999999999982
 20
135.0000029999999
 30
0.0
 40
4.5
100
AcDbArc
 50
0.0
 51
90.0
  0
ARC
  5
5266D
330
1F
100
AcDbEntity
  8
AM_0
100
AcDbCircle
 10
382.9999999999982
 20
79.00000099999989
 30
0.0
 40
4.5
100
AcDbArc
 50
270.0
 51
0.0
  0
ARC
  5
5266E
330
1F
100
AcDbEntity
  8
AM_0
100
AcDbCircle
 10
335.9999999999982
 20
79.00000099999989
 30
0.0
 40
4.5
100
AcDbArc
 50
180.0
 51
270.0
  0
ARC
  5
5266F
330
1F
100
AcDbEntity
  8
AM_0
100
AcDbCircle
 10
335.9999999999982
 20
135.0000029999999
 30
0.0
 40
4.5
100
AcDbArc
 50
90.0
 51
180.0
  0
LINE
  5
52672
330
1F
100
AcDbEntity
  8
AM_0
100
AcDbLine
 10
369.2499999999982
 20
91.00000299999988
 30
0.0
 11
356.9999999999982
 21
91.00000299999987
 31
0.0
  0
LINE
  5
52673
330
1F
100
AcDbEntity
  8
AM_0
100
AcDbLine
 10
369.2499999999982
 20
90.20000299999992
 30
0.0
 11
369.2499999999982
 21
91.00000299999988
 31
0.0
  0
LINE
  5
52678
330
1F
100
AcDbEntity
  8
AM_0
100
AcDbLine
 10
369.9999999999982
 20
123.0000029999999
 30
0.0
 11
369.9999999999982
 21
91.00000299999988
 31
0.0
  0
LINE
  5
5267B
330
1F
100
AcDbEntity
  8
AM_0
100
AcDbLine
 10
356.9999999999982
 20
123.8000029999998
 30
0.0
 11
369.7499999999982
 21
123.8000029999998
 31
0.0
  0
LINE
  5
5267C
330
1F
100
AcDbEntity
  8
AM_0
100
AcDbLine
 10
356.9999999999982
 20
90.20000299999992
 30
0.0
 11
369.7499999999982
 21
90.20000299999992
 31
0.0
  0
LINE
  5
5267D
330
1F
100
AcDbEntity
  8
AM_0
100
AcDbLine
 10
371.9999999999982
 20
139.5000029999998
 30
0.0
 11
382.9999999999982
 21
139.5000029999998
 31
0.0
  0
LINE
  5
5267E
330
1F
100
AcDbEntity
  8
AM_0
100
AcDbLine
 10
371.9999999999982
 20
74.50000299999988
 30
0.0
 11
382.9999999999982
 21
74.50000299999988
 31
0.0
  0
LINE
  5
5267F
330
1F
100
AcDbEntity
  8
AM_0
100
AcDbLine
 10
370.9999999999982
 20
90.00000299999987
 30
0.0
 11
370.9999999999982
 21
75.50000299999988
 31
0.0
  0
LINE
  5
52680
330
1F
100
AcDbEntity
  8
AM_0
100
AcDbLine
 10
369.9999999999982
 20
90.20000299999992
 30
0.0
 11
369.9999999999982
 21
74.50000299999988
 31
0.0
  0
LINE
  5
52681
330
1F
100
AcDbEntity
  8
AM_0
100
AcDbLine
 10
357.2499999999982
 20
91.00000299999988
 30
0.0
 11
369.9999999999982
 21
91.00000299999988
 31
0.0
  0
LINE
  5
52682
330
1F
100
AcDbEntity
  8
AM_0
100
AcDbLine
 10
357.2499999999982
 20
123.0000029999999
 30
0.0
 11
369.9999999999982
 21
123.0000029999999
 31
0.0
  0
LINE
  5
52683
330
1F
100
AcDbEntity
  8
AM_0
100
AcDbLine
 10
355.9999999999982
 20
122.8000029999998
 30
0.0
 11
355.9999999999982
 21
91.20000299999992
 31
0.0
  0
LINE
  5
52684
330
1F
100
AcDbEntity
  8
AM_0
100
AcDbLine
 10
370.9999999999982
 20
138.5000029999998
 30
0.0
 11
370.9999999999982
 21
124.0000029999999
 31
0.0
  0
LINE
  5
52685
330
1F
100
AcDbEntity
  8
AM_0
100
AcDbLine
 10
369.9999999999982
 20
139.5000029999998
 30
0.0
 11
369.9999999999982
 21
123.8000029999998
 31
0.0
  0
LINE
  5
52686
330
1F
100
AcDbEntity
  8
AM_0
100
AcDbLine
 10
356.9999999999982
 20
123.0000029999999
 30
0.0
 11
356.9999999999982
 21
91.00000299999988
 31
0.0
  0
LINE
  5
52689
330
1F
100
AcDbEntity
  8
AM_0
100
AcDbLine
 10
335.9999999999982
 20
74.50000299999988
 30
0.0
 11
369.9999999999981
 21
74.50000299999988
 31
0.0
  0
LINE
  5
5268A
330
1F
100
AcDbEntity
  8
AM_0
100
AcDbLine
 10
335.9999999999982
 20
139.5000029999998
 30
0.0
 11
369.9999999999981
 21
139.5000029999998
 31
0.0
  0
LINE
  5
5268B
102
{ACAD_REACTORS
330
52A66
102
}
330
1F
100
AcDbEntity
  8
AM_0
100
AcDbLine
 10
387.4999999999982
 20
135.0000029999999
 30
0.0
 11
387.4999999999982
 21
79.00000099999989
 31
0.0
  0
LINE
  5
5268C
330
1F
100
AcDbEntity
  8
AM_0
100
AcDbLine
 10
331.4999999999982
 20
135.0000029999999
 30
0.0
 11
331.4999999999982
 21
79.00000099999989
 31
0.0
  0
ARC
  5
526E6
330
1F
100
AcDbEntity
  8
AM_0
100
AcDbCircle
 10
258.9999904088145
 20
122.8000029999998
 30
0.0
 40
1.0
100
AcDbArc
 50
90.0
 51
180.0
  0
CIRCLE
  5
526E7
330
1F
100
AcDbEntity
  8
AM_0
100
AcDbCircle
 10
265.4999904088145
 20
196.2499999999925
 30
0.0
 40
4.5
  0
CIRCLE
  5
526E8
330
1F
100
AcDbEntity
  8
AM_0
100
AcDbCircle
 10
281.4999904088145
 20
128.0000029999998
 30
0.0
 40
5.299999999999999
  0
CIRCLE
  5
526E9
330
1F
100
AcDbEntity
  8
AM_0
100
AcDbCircle
 10
281.4999904088145
 20
107.0000029999998
 30
0.0
 40
5.299999999999999
  0
CIRCLE
  5
526EA
330
1F
100
AcDbEntity
  8
AM_0
100
AcDbCircle
 10
281.4999904088145
 20
86.00000299999988
 30
0.0
 40
5.299999999999999
  0
LINE
  5
526EB
330
1F
100
AcDbEntity
  8
AM_0
100
AcDbLine
 10
270.9772159838661
 20
199.7499999999925
 30
0.0
 11
289.4999904088145
 21
199.7499999999925
 31
0.0
  0
LINE
  5
526EC
330
1F
100
AcDbEntity
  8
AM_0
100
AcDbLine
 10
233.4999904088145
 20
189.7499999999925
 30
0.0
 11
233.4999904088145
 21
192.7499999999925
 31
0.0
  0
LINE
  5
526ED
330
1F
100
AcDbEntity
  8
AM_0
100
AcDbLine
 10
289.4999904088145
 20
199.7499999999925
 30
0.0
 11
289.4999904088145
 21
202.7499999999925
 31
0.0
  0
LINE
  5
526EF
330
1F
100
AcDbEntity
  8
AM_0
100
AcDbLine
 10
272.9999904088145
 20
199.7499999999925
 30
0.0
 11
272.9999904088145
 21
202.7499999999925
 31
0.0
  0
ARC
  5
526F1
330
1F
100
AcDbEntity
  8
AM_0
100
AcDbCircle
 10
271.9999904088145
 20
90.00000299999987
 30
0.0
 40
1.0
100
AcDbArc
 50
0.0
 51
90.0
  0
ARC
  5
526F2
330
1F
100
AcDbEntity
  8
AM_0
100
AcDbCircle
 10
258.9999904088145
 20
91.20000299999992
 30
0.0
 40
1.0
100
AcDbArc
 50
180.0
 51
270.0
  0
LINE
  5
526F3
330
1F
100
AcDbEntity
  8
AM_0
100
AcDbLine
 10
289.4999904088145
 20
135.0000029999999
 30
0.0
 11
289.4999904088145
 21
79.00000099999989
 31
0.0
  0
LINE
  5
526F4
330
1F
100
AcDbEntity
  8
AM_0
100
AcDbLine
 10
237.9999904088145
 20
139.5000029999998
 30
0.0
 11
271.9999904088145
 21
139.5000029999998
 31
0.0
  0
LINE
  5
526F5
330
1F
100
AcDbEntity
  8
AM_0
100
AcDbLine
 10
237.9999904088145
 20
74.50000299999988
 30
0.0
 11
271.9999904088145
 21
74.50000299999988
 31
0.0
  0
LINE
  5
526F8
330
1F
100
AcDbEntity
  8
AM_0
100
AcDbLine
 10
258.9999904088145
 20
123.0000029999999
 30
0.0
 11
258.9999904088145
 21
91.00000299999988
 31
0.0
  0
LINE
  5
526F9
330
1F
100
AcDbEntity
  8
AM_0
100
AcDbLine
 10
271.9999904088145
 20
139.5000029999998
 30
0.0
 11
271.9999904088145
 21
123.8000029999998
 31
0.0
  0
LINE
  5
526FA
330
1F
100
AcDbEntity
  8
AM_0
100
AcDbLine
 10
272.9999904088145
 20
138.5000029999998
 30
0.0
 11
272.9999904088145
 21
124.0000029999999
 31
0.0
  0
LINE
  5
526FB
330
1F
100
AcDbEntity
  8
AM_0
100
AcDbLine
 10
257.9999904088145
 20
122.8000029999998
 30
0.0
 11
257.9999904088145
 21
91.20000299999992
 31
0.0
  0
LINE
  5
526FC
330
1F
100
AcDbEntity
  8
AM_0
100
AcDbLine
 10
258.9999904088145
 20
123.0000029999999
 30
0.0
 11
271.9999904088145
 21
123.0000029999999
 31
0.0
  0
LINE
  5
526FD
330
1F
100
AcDbEntity
  8
AM_0
100
AcDbLine
 10
258.9999904088145
 20
91.00000299999988
 30
0.0
 11
271.9999904088145
 21
91.00000299999988
 31
0.0
  0
LINE
  5
526FE
330
1F
100
AcDbEntity
  8
AM_0
100
AcDbLine
 10
271.9999904088145
 20
90.20000299999992
 30
0.0
 11
271.9999904088145
 21
74.50000299999988
 31
0.0
  0
LINE
  5
526FF
330
1F
100
AcDbEntity
  8
AM_0
100
AcDbLine
 10
272.9999904088145
 20
90.00000299999987
 30
0.0
 11
272.9999904088145
 21
75.50000299999988
 31
0.0
  0
LINE
  5
52700
330
1F
100
AcDbEntity
  8
AM_0
100
AcDbLine
 10
273.9999904088145
 20
74.50000299999988
 30
0.0
 11
284.9999904088145
 21
74.50000299999988
 31
0.0
  0
LINE
  5
52701
330
1F
100
AcDbEntity
  8
AM_0
100
AcDbLine
 10
273.9999904088145
 20
139.5000029999998
 30
0.0
 11
284.9999904088145
 21
139.5000029999998
 31
0.0
  0
LINE
  5
52702
330
1F
100
AcDbEntity
  8
AM_0
100
AcDbLine
 10
258.9999904088145
 20
90.20000299999992
 30
0.0
 11
271.9999904088145
 21
90.20000299999992
 31
0.0
  0
LINE
  5
52703
330
1F
100
AcDbEntity
  8
AM_0
100
AcDbLine
 10
258.9999904088145
 20
123.8000029999998
 30
0.0
 11
271.9999904088145
 21
123.8000029999998
 31
0.0
  0
LINE
  5
52706
330
1F
100
AcDbEntity
  8
AM_0
100
AcDbLine
 10
271.9999904088145
 20
123.0000029999999
 30
0.0
 11
271.9999904088145
 21
91.00000299999988
 31
0.0
  0
LINE
  5
52707
330
1F
100
AcDbEntity
  8
AM_0
100
AcDbLine
 10
271.2499904088145
 20
90.20000299999992
 30
0.0
 11
271.2499904088145
 21
91.00000299999988
 31
0.0
  0
LINE
  5
52708
330
1F
100
AcDbEntity
  8
AM_0
100
AcDbLine
 10
271.2499904088145
 20
91.00000299999988
 30
0.0
 11
259.7499904088145
 21
91.00000299999988
 31
0.0
  0
ARC
  5
52709
330
1F
100
AcDbEntity
  8
AM_0
100
AcDbCircle
 10
237.9999904088145
 20
135.0000029999999
 30
0.0
 40
4.5
100
AcDbArc
 50
90.0
 51
180.0
  0
ARC
  5
5270A
330
1F
100
AcDbEntity
  8
AM_0
100
AcDbCircle
 10
237.9999904088145
 20
79.00000099999989
 30
0.0
 40
4.5
100
AcDbArc
 50
180.0
 51
270.0
  0
ARC
  5
5270B
330
1F
100
AcDbEntity
  8
AM_0
100
AcDbCircle
 10
284.9999904088145
 20
79.00000099999989
 30
0.0
 40
4.5
100
AcDbArc
 50
270.0
 51
0.0
  0
ARC
  5
5270C
330
1F
100
AcDbEntity
  8
AM_0
100
AcDbCircle
 10
284.9999904088145
 20
135.0000029999999
 30
0.0
 40
4.5
100
AcDbArc
 50
0.0
 51
90.0
  0
ARC
  5
5270D
330
1F
100
AcDbEntity
  8
AM_0
100
AcDbCircle
 10
265.4999904088145
 20
77.30000199999995
 30
0.0
 40
5.299999999999999
100
AcDbArc
 50
211.8909910000083
 51
328.1090089999917
  0
ARC
  5
5270E
330
1F
100
AcDbEntity
  8
AM_0
100
AcDbCircle
 10
265.4999904088145
 20
136.6999999999998
 30
0.0
 40
5.299999999999999
100
AcDbArc
 50
31.89079999998643
 51
148.1090089999917
  0
LINE
  5
5270F
330
1F
100
AcDbEntity
  8
AM_0
100
AcDbLine
 10
271.2499904088145
 20
123.8000029999998
 30
0.0
 11
259.7499904088145
 21
123.8000029999998
 31
0.0
  0
LINE
  5
52710
330
1F
100
AcDbEntity
  8
AM_0
100
AcDbLine
 10
271.2499904088145
 20
123.0000029999999
 30
0.0
 11
271.2499904088145
 21
123.8000029999998
 31
0.0
  0
LINE
  5
52711
330
1F
100
AcDbEntity
  8
AM_0
100
AcDbLine
 10
259.7499904088145
 20
123.0000029999999
 30
0.0
 11
271.2499904088145
 21
123.0000029999999
 31
0.0
  0
LINE
  5
52712
330
1F
100
AcDbEntity
  8
AM_0
100
AcDbLine
 10
259.7499904088145
 20
123.8000029999998
 30
0.0
 11
259.7499904088145
 21
123.0000029999999
 31
0.0
  0
LINE
  5
52713
330
1F
100
AcDbEntity
  8
AM_0
100
AcDbLine
 10
259.7499904088145
 20
90.20000299999992
 30
0.0
 11
271.2499904088145
 21
90.20000299999992
 31
0.0
  0
LINE
  5
52714
330
1F
100
AcDbEntity
  8
AM_0
100
AcDbLine
 10
259.7499904088145
 20
91.00000299999988
 30
0.0
 11
259.7499904088145
 21
90.20000299999992
 31
0.0
  0
ARC
  5
52716
330
1F
100
AcDbEntity
  8
AM_0
100
AcDbCircle
 10
271.9999904088145
 20
124.0000029999999
 30
0.0
 40
1.0
100
AcDbArc
 50
270.0
 51
0.0
  0
LINE
  5
52718
330
1F
100
AcDbEntity
  8
AM_0
100
AcDbLine
 10
233.4999904088145
 20
135.0000029999999
 30
0.0
 11
233.4999904088145
 21
79.00000099999989
 31
0.0
  0
ARC
  5
52719
330
1F
100
AcDbEntity
  8
AM_0
100
AcDbCircle
 10
273.9999904088145
 20
138.5000029999998
 30
0.0
 40
1.0
100
AcDbArc
 50
90.0
 51
180.0
  0
ARC
  5
5271A
330
1F
100
AcDbEntity
  8
AM_0
100
AcDbCircle
 10
273.9999904088145
 20
75.50000299999988
 30
0.0
 40
1.0
100
AcDbArc
 50
180.0
 51
270.0
  0
LINE
  5
52722
330
1F
100
AcDbEntity
  8
AM_0
100
AcDbLine
 10
259.870825284401
 20
192.9999999996714
 30
0.0
 11
261.6028760918143
 21
193.9999999999925
 31
0.0
  0
LINE
  5
52723
330
1F
100
AcDbEntity
  8
AM_0
100
AcDbLine
 10
265.4999904088145
 20
202.7499999999925
 30
0.0
 11
289.4999904088145
 21
202.7499999999925
 31
0.0
  0
LINE
  5
52726
330
1F
100
AcDbEntity
  8
AM_0
100
AcDbLine
 10
233.4999904088145
 20
189.7499999999925
 30
0.0
 11
265.4999904088145
 21
189.7499999999925
 31
0.0
  0
LINE
  5
52728
330
1F
100
AcDbEntity
  8
AM_0
100
AcDbLine
 10
233.4999904088145
 20
192.7499999999925
 30
0.0
 11
262.6715632840683
 21
192.7499999999924
 31
0.0
  0
CIRCLE
  5
52729
330
1F
100
AcDbEntity
  8
AM_0
100
AcDbCircle
 10
243.4999904088145
 20
88.00000299999988
 30
0.0
 40
2.6
  0
CIRCLE
  5
5272A
330
1F
100
AcDbEntity
  8
AM_0
100
AcDbCircle
 10
243.4999904088145
 20
126.0000029999998
 30
0.0
 40
2.6
  0
CIRCLE
  5
5272B
330
1F
100
AcDbEntity
  8
AM_0
100
AcDbCircle
 10
281.4999904088145
 20
86.00000299999988
 30
0.0
 40
2.7
  0
CIRCLE
  5
5272C
330
1F
100
AcDbEntity
  8
AM_0
100
AcDbCircle
 10
281.4999904088145
 20
107.0000029999998
 30
0.0
 40
2.7
  0
CIRCLE
  5
5272D
330
1F
100
AcDbEntity
  8
AM_0
100
AcDbCircle
 10
281.4999904088145
 20
128.0000029999998
 30
0.0
 40
2.7
  0
LWPOLYLINE
  5
52738
330
1F
100
AcDbEntity
  8
waku
100
AcDbPolyline
 90
        4
 70
     1
 43
0.0
 10
11.5
 20
288.5
 10
408.5000000000011
 20
288.5
 10
408.5000000000007
 20
8.5
 10
11.5
 20
8.5
1001
GENIUS_GENREC_14
1002
{
1000
PYDIR
1011
11.5
1021
8.5
1031
0.0
1002
}
1002
{
1000
PXDIR
1011
408.5000000000011
1021
288.5
1031
0.0
1002
}
1002
{
1000
PORI
1011
11.5
1021
288.5
1031
0.0
1002
}
1002
{
1000
PINS
1011
11.5
1021
288.5
1031
0.0
1002
}
1002
{
1000
PINS2
1011
408.5000000000007
1021
8.5
1031
0.0
1002
}
1002
{
1000
C
1070
     1
1002
}
1001
GENIUS_GENODEF_13
1002
{
1000
HIER
1070
     0
1002
}
1002
{
1000
MANEDIT
1070
     0
1002
}
1002
{
1000
NOSEL
1070
     0
1002
}
1002
{
1000
BEHIND
1070
     0
1002
}
1002
{
1000
OTHER
1070
     0
1002
}
1002
{
1000
REACTOR
1002
}
1001
GENIUS_GENOBJ-N-REC_13
1002
{
1000
OWNER
1000
GEN
1002
}
  0
LWPOLYLINE
  5
52739
330
1F
100
AcDbEntity
  8
size
100
AcDbPolyline
 90
        4
 70
     1
 43
0.0
 10
0.0
 20
297.0
 10
420.0000000000001
 20
297.0
 10
420.0000000000001
 20
0.0
 10
0.0
 20
0.0
1001
GENIUS_GENREC_14
1002
{
1000
PYDIR
1011
0.0
1021
0.0
1031
0.0
1002
}
1002
{
1000
PXDIR
1011
420.0000000000001
1021
297.0
1031
0.0
1002
}
1002
{
1000
PORI
1011
0.0
1021
297.0
1031
0.0
1002
}
1002
{
1000
PINS
1011
0.0
1021
297.0
1031
0.0
1002
}
1002
{
1000
PINS2
1011
420.0000000000001
1021
0.0
1031
0.0
1002
}
1002
{
1000
C
1070
     1
1002
}
1001
GENIUS_GENODEF_13
1002
{
1000
HIER
1070
     0
1002
}
1002
{
1000
MANEDIT
1070
     0
1002
}
1002
{
1000
NOSEL
1070
     0
1002
}
1002
{
1000
BEHIND
1070
     0
1002
}
1002
{
1000
OTHER
1070
     0
1002
}
1002
{
1000
REACTOR
1002
}
1001
GENIUS_GENOBJ-N-REC_13
1002
{
1000
OWNER
1000
GEN
1002
}
  0
LINE
  5
5273B
330
1F
100
AcDbEntity
  8
AM_0
100
AcDbLine
 10
11.5
 20
288.5
 30
0.0
 11
11.50000000000546
 21
240.5
 31
0.0
  0
LINE
  5
5273C
330
1F
100
AcDbEntity
  8
AM_0
100
AcDbLine
 10
11.5
 20
288.5
 30
0.0
 11
101.5
 21
288.5
 31
0.0
  0
LINE
  5
5273D
330
1F
100
AcDbEntity
  8
AM_0
100
AcDbLine
 10
101.5
 20
288.5
 30
0.0
 11
101.4999999999992
 21
240.5
 31
0.0
  0
LINE
  5
5273E
330
1F
100
AcDbEntity
  8
AM_0
100
AcDbLine
 10
31.49999999999923
 20
240.5
 30
0.0
 11
31.5
 21
288.5
 31
0.0
  0
LINE
  5
5273F
330
1F
100
AcDbEntity
  8
AM_5
100
AcDbLine
 10
11.5
 20
280.5
 30
0.0
 11
101.5
 21
280.5
 31
0.0
  0
LINE
  5
52740
330
1F
100
AcDbEntity
  8
AM_5
100
AcDbLine
 10
31.49999999999909
 20
264.5
 30
0.0
 11
101.5
 21
264.5
 31
0.0
  0
MTEXT
  5
52741
330
1F
100
AcDbEntity
  8
AM_6
100
AcDbMText
 10
21.5
 20
284.5
 30
0.0
 40
3.2
 41
20.0
 71
     5
 72
     5
  1
品　名
 73
     1
 44
1.0
1001
ACAD
1000
MTEXTBEGIN
1070
    73
1070
     1
1070
    44
1040
1.0
1070
    74
1070
     0
1000
MTEXTEND
  0
MTEXT
  5
52742
330
1F
100
AcDbEntity
  8
AM_6
100
AcDbMText
 10
31.5
 20
284.5
 30
0.0
 40
3.2
 41
70.0
 71
     4
 72
     5
  1
　重量用サッシ丁番
 73
     1
 44
1.0
1001
ACAD
1000
MTEXTBEGIN
1070
    73
1070
     1
1070
    44
1040
1.0
1070
    74
1070
     0
1000
MTEXTEND
  0
MTEXT
  5
52743
330
1F
100
AcDbEntity
  8
AM_6
100
AcDbMText
 10
21.5
 20
276.5
 30
0.0
 40
3.2
 41
20.0
 71
     5
 72
     5
  1
品　番
 73
     1
 44
1.0
1001
ACAD
1000
MTEXTBEGIN
1070
    73
1070
     1
1070
    44
1040
1.0
1070
    74
1070
     0
1000
MTEXTEND
  0
MTEXT
  5
52744
330
1F
100
AcDbEntity
  8
AM_6
100
AcDbMText
 10
31.5
 20
276.5
 30
0.0
 40
3.2
 41
70.0
 71
     4
 72
     5
  1
　DEH-35（S） / DEH-36（S）
 73
     1
 44
1.0
1001
ACAD
1000
MTEXTBEGIN
1070
    73
1070
     1
1070
    44
1040
1.0
1070
    74
1070
     0
1000
MTEXTEND
  0
MTEXT
  5
52745
330
1F
100
AcDbEntity
  8
AM_6
100
AcDbMText
 10
31.5
 20
268.5
 30
0.0
 40
3.2
 41
70.0
 71
     4
 72
     5
  1
　スチール（DEH-35 / DEH-36）
 73
     1
 44
1.0
1001
ACAD
1000
MTEXTBEGIN
1070
    73
1070
     1
1070
    44
1040
1.0
1070
    74
1070
     0
1000
MTEXTEND
  0
LINE
  5
52746
330
1F
100
AcDbEntity
  8
AM_5
100
AcDbLine
 10
11.5
 20
256.5
 30
0.0
 11
101.5
 21
256.5
 31
0.0
  0
MTEXT
  5
52747
330
1F
100
AcDbEntity
  8
AM_6
100
AcDbMText
 10
21.5
 20
252.5
 30
0.0
 40
3.2
 41
20.0
 71
     5
 72
     5
  1
仕上げ
 73
     1
 44
1.0
1001
ACAD
1000
MTEXTBEGIN
1070
    73
1070
     1
1070
    44
1040
1.0
1070
    74
1070
     0
1000
MTEXTEND
  0
LINE
  5
52749
330
1F
100
AcDbEntity
  8
AM_0
100
AcDbLine
 10
11.50000000000364
 20
240.5
 30
0.0
 11
101.5000000000009
 21
240.5
 31
0.0
  0
LINE
  5
5274D
330
1F
100
AcDbEntity
  8
AM_5
100
AcDbLine
 10
11.5
 20
272.5
 30
0.0
 11
101.5
 21
272.5
 31
0.0
  0
MTEXT
  5
5274E
330
1F
100
AcDbEntity
  8
AM_6
100
AcDbMText
 10
21.5
 20
268.5
 30
0.0
 40
3.2
 41
20.0
 71
     5
 72
     5
  1
材　質
 73
     1
 44
1.0
1001
ACAD
1000
MTEXTBEGIN
1070
    73
1070
     1
1070
    44
1040
1.0
1070
    74
1070
     0
1000
MTEXTEND
  0
MTEXT
  5
5274F
330
1F
100
AcDbEntity
  8
AM_6
100
AcDbMText
 10
31.49999999999955
 20
260.5
 30
0.0
 40
3.2
 41
70.0
 71
     4
 72
     5
  1
　ステンレス（DEH-35S / DEH-36S）
 73
     1
 44
1.0
1001
ACAD
1000
MTEXTBEGIN
1070
    73
1070
     1
1070
    44
1040
1.0
1070
    74
1070
     0
1000
MTEXTEND
  0
LINE
  5
52750
330
1F
100
AcDbEntity
  8
AM_5
100
AcDbLine
 10
31.49999999999909
 20
248.5
 30
0.0
 11
101.5
 21
248.5
 31
0.0
  0
LINE
  5
5277A
330
1F
100
AcDbEntity
  8
AM_7
 48
0.5
370
     9
100
AcDbLine
 10
281.4999904088145
 20
205.7499999999925
 30
0.0
 11
281.4999904088145
 21
196.7499999999925
 31
0.0
1001
GENIUS_GENODEF_13
1002
{
1000
HIER
1070
     0
1002
}
1002
{
1000
MANEDIT
1070
     0
1002
}
1002
{
1000
NOSEL
1070
     0
1002
}
1002
{
1000
BEHIND
1070
     0
1002
}
1002
{
1000
OTHER
1070
     0
1002
}
1002
{
1000
REACTOR
1002
}
1001
GENIUS_GENOBJ-N-CEN_13
1002
{
1000
OWNER
1000
GEN
1002
}
1001
GENIUS_GENCEN_19
1002
{
1040
3.0
1002
}
  0
LINE
  5
5277B
330
1F
100
AcDbEntity
  8
AM_7
 48
0.5
370
     9
100
AcDbLine
 10
243.4999904088145
 20
195.9999999999925
 30
0.0
 11
243.4999904088145
 21
186.9999999999925
 31
0.0
1001
GENIUS_GENODEF_13
1002
{
1000
HIER
1070
     0
1002
}
1002
{
1000
MANEDIT
1070
     0
1002
}
1002
{
1000
NOSEL
1070
     0
1002
}
1002
{
1000
BEHIND
1070
     0
1002
}
1002
{
1000
OTHER
1070
     0
1002
}
1002
{
1000
REACTOR
1002
}
1001
GENIUS_GENOBJ-N-CEN_13
1002
{
1000
OWNER
1000
GEN
1002
}
1001
GENIUS_GENCEN_19
1002
{
1040
3.0
1002
}
  0
LINE
  5
5277C
330
1F
100
AcDbEntity
  8
AM_7
370
     9
100
AcDbLine
 10
265.4999996213978
 20
144.9999999999925
 30
0.0
 11
265.4999900302152
 21
69.000002
 31
0.0
1001
GENIUS_GENODEF_13
1002
{
1000
HIER
1070
     0
1002
}
1002
{
1000
MANEDIT
1070
     0
1002
}
1002
{
1000
NOSEL
1070
     0
1002
}
1002
{
1000
BEHIND
1070
     0
1002
}
1002
{
1000
OTHER
1070
     0
1002
}
1002
{
1000
REACTOR
1002
}
1001
GENIUS_GENOBJ-N-CEN_13
1002
{
1000
OWNER
1000
GEN
1002
}
1001
GENIUS_GENCEN_19
1002
{
1040
3.0
1002
}
  0
LINE
  5
5277D
330
1F
100
AcDbEntity
  8
AM_7
370
     9
100
AcDbLine
 10
363.5000092125815
 20
144.9999999999925
 30
0.0
 11
363.499999621399
 21
69.000002
 31
0.0
1001
GENIUS_GENODEF_13
1002
{
1000
HIER
1070
     0
1002
}
1002
{
1000
MANEDIT
1070
     0
1002
}
1002
{
1000
NOSEL
1070
     0
1002
}
1002
{
1000
BEHIND
1070
     0
1002
}
1002
{
1000
OTHER
1070
     0
1002
}
1002
{
1000
REACTOR
1002
}
1001
GENIUS_GENOBJ-N-CEN_13
1002
{
1000
OWNER
1000
GEN
1002
}
1001
GENIUS_GENCEN_19
1002
{
1040
3.0
1002
}
  0
LINE
  5
5277E
102
{ACAD_REACTORS
330
52990
330
529A8
102
}
330
1F
100
AcDbEntity
  8
AM_7
370
     9
100
AcDbLine
 10
69.50001842516804
 20
144.9999999999927
 30
0.0
 11
69.50000883398479
 21
69.000002
 31
0.0
1001
GENIUS_GENODEF_13
1002
{
1000
HIER
1070
     0
1002
}
1002
{
1000
MANEDIT
1070
     0
1002
}
1002
{
1000
NOSEL
1070
     0
1002
}
1002
{
1000
BEHIND
1070
     0
1002
}
1002
{
1000
OTHER
1070
     0
1002
}
1002
{
1000
REACTOR
1002
}
1001
GENIUS_GENOBJ-N-CEN_13
1002
{
1000
OWNER
1000
GEN
1002
}
1001
GENIUS_GENCEN_19
1002
{
1040
3.0
1002
}
  0
LINE
  5
5277F
330
1F
100
AcDbEntity
  8
AM_7
370
     9
100
AcDbLine
 10
167.4999996214005
 20
144.9999999999927
 30
0.0
 11
167.4999996214005
 21
69.000002
 31
0.0
1001
GENIUS_GENODEF_13
1002
{
1000
HIER
1070
     0
1002
}
1002
{
1000
MANEDIT
1070
     0
1002
}
1002
{
1000
NOSEL
1070
     0
1002
}
1002
{
1000
BEHIND
1070
     0
1002
}
1002
{
1000
OTHER
1070
     0
1002
}
1002
{
1000
REACTOR
1002
}
1001
GENIUS_GENOBJ-N-CEN_13
1002
{
1000
OWNER
1000
GEN
1002
}
1001
GENIUS_GENCEN_19
1002
{
1040
3.0
1002
}
  0
LINE
  5
52780
330
1F
100
AcDbEntity
  8
AM_7
 48
0.5
370
     9
100
AcDbLine
 10
47.50000921258425
 20
196.4999999999925
 30
0.0
 11
47.50000921258425
 21
205.4999999999925
 31
0.0
1001
GENIUS_GENODEF_13
1002
{
1000
HIER
1070
     0
1002
}
1002
{
1000
MANEDIT
1070
     0
1002
}
1002
{
1000
NOSEL
1070
     0
1002
}
1002
{
1000
BEHIND
1070
     0
1002
}
1002
{
1000
OTHER
1070
     0
1002
}
1002
{
1000
REACTOR
1002
}
1001
GENIUS_GENOBJ-N-CEN_13
1002
{
1000
OWNER
1000
GEN
1002
}
1001
GENIUS_GENCEN_19
1002
{
1040
3.0
1002
}
  0
LINE
  5
52781
330
1F
100
AcDbEntity
  8
AM_7
 48
0.5
370
     9
100
AcDbLine
 10
85.50000921258424
 20
196.4999999999925
 30
0.0
 11
85.50000921258424
 21
205.4999999999925
 31
0.0
1001
GENIUS_GENODEF_13
1002
{
1000
HIER
1070
     0
1002
}
1002
{
1000
MANEDIT
1070
     0
1002
}
1002
{
1000
NOSEL
1070
     0
1002
}
1002
{
1000
BEHIND
1070
     0
1002
}
1002
{
1000
OTHER
1070
     0
1002
}
1002
{
1000
REACTOR
1002
}
1001
GENIUS_GENOBJ-N-CEN_13
1002
{
1000
OWNER
1000
GEN
1002
}
1001
GENIUS_GENCEN_19
1002
{
1040
3.0
1002
}
  0
LINE
  5
52782
102
{ACAD_REACTORS
330
529A8
102
}
330
1F
100
AcDbEntity
  8
AM_7
 48
0.5
370
     9
100
AcDbLine
 10
47.50000921258425
 20
131.600003
 30
0.0
 11
47.50000921258425
 21
120.4000029999997
 31
0.0
1001
GENIUS_GENODEF_13
1002
{
1000
HIER
1070
     0
1002
}
1002
{
1000
MANEDIT
1070
     0
1002
}
1002
{
1000
NOSEL
1070
     0
1002
}
1002
{
1000
BEHIND
1070
     0
1002
}
1002
{
1000
OTHER
1070
     0
1002
}
1002
{
1000
REACTOR
1002
}
1001
GENIUS_GENOBJ-N-CEN_13
1002
{
1000
OWNER
1000
GEN
1002
}
1001
GENIUS_GENCEN_19
1002
{
1040
3.0
1002
}
  0
LINE
  5
52783
102
{ACAD_REACTORS
330
528D6
102
}
330
1F
100
AcDbEntity
  8
AM_7
 48
0.5
370
     9
100
AcDbLine
 10
41.90000921258433
 20
126.0000029999998
 30
0.0
 11
53.10000921258415
 21
126.0000029999998
 31
0.0
1001
GENIUS_GENOBJ-N-CEN_13
1002
{
1000
OWNER
1000
GEN
1002
}
1001
GENIUS_GENODEF_13
1002
{
1000
HIER
1070
     0
1002
}
1002
{
1000
MANEDIT
1070
     0
1002
}
1002
{
1000
NOSEL
1070
     0
1002
}
1002
{
1000
BEHIND
1070
     0
1002
}
1002
{
1000
OTHER
1070
     0
1002
}
1002
{
1000
REACTOR
1002
}
1001
GENIUS_GENCEN_19
1002
{
1040
3.0
1002
}
  0
LINE
  5
52784
330
1F
100
AcDbEntity
  8
AM_7
 48
0.5
370
     9
100
AcDbLine
 10
47.50000921258425
 20
93.60000300000001
 30
0.0
 11
47.50000921258425
 21
82.40000299999975
 31
0.0
1001
GENIUS_GENOBJ-N-CEN_13
1002
{
1000
OWNER
1000
GEN
1002
}
1001
GENIUS_GENODEF_13
1002
{
1000
HIER
1070
     0
1002
}
1002
{
1000
MANEDIT
1070
     0
1002
}
1002
{
1000
NOSEL
1070
     0
1002
}
1002
{
1000
BEHIND
1070
     0
1002
}
1002
{
1000
OTHER
1070
     0
1002
}
1002
{
1000
REACTOR
1002
}
1001
GENIUS_GENCEN_19
1002
{
1040
3.0
1002
}
  0
LINE
  5
52785
102
{ACAD_REACTORS
330
528D6
102
}
330
1F
100
AcDbEntity
  8
AM_7
 48
0.5
370
     9
100
AcDbLine
 10
53.10000921258415
 20
88.00000299999988
 30
0.0
 11
41.90000921258433
 21
88.00000299999988
 31
0.0
1001
GENIUS_GENOBJ-N-CEN_13
1002
{
1000
OWNER
1000
GEN
1002
}
1001
GENIUS_GENODEF_13
1002
{
1000
HIER
1070
     0
1002
}
1002
{
1000
MANEDIT
1070
     0
1002
}
1002
{
1000
NOSEL
1070
     0
1002
}
1002
{
1000
BEHIND
1070
     0
1002
}
1002
{
1000
OTHER
1070
     0
1002
}
1002
{
1000
REACTOR
1002
}
1001
GENIUS_GENCEN_19
1002
{
1040
3.0
1002
}
  0
LINE
  5
52787
102
{ACAD_REACTORS
330
52990
102
}
330
1F
100
AcDbEntity
  8
AM_7
 48
0.5
370
     9
100
AcDbLine
 10
85.50000921258424
 20
136.3000029999998
 30
0.0
 11
85.50000921258424
 21
119.7000029999999
 31
0.0
1001
GENIUS_GENODEF_13
1002
{
1000
HIER
1070
     0
1002
}
1002
{
1000
MANEDIT
1070
     0
1002
}
1002
{
1000
NOSEL
1070
     0
1002
}
1002
{
1000
BEHIND
1070
     0
1002
}
1002
{
1000
OTHER
1070
     0
1002
}
1002
{
1000
REACTOR
1002
}
1001
GENIUS_GENOBJ-N-CEN_13
1002
{
1000
OWNER
1000
GEN
1002
}
1001
GENIUS_GENCEN_19
1002
{
1040
3.0
1002
}
  0
LINE
  5
52788
102
{ACAD_REACTORS
330
528F7
102
}
330
1F
100
AcDbEntity
  8
AM_7
 48
0.5
370
     9
100
AcDbLine
 10
77.20000921258407
 20
128.0000029999998
 30
0.0
 11
93.80000921258442
 21
128.0000029999998
 31
0.0
1001
GENIUS_GENOBJ-N-CEN_13
1002
{
1000
OWNER
1000
GEN
1002
}
1001
GENIUS_GENODEF_13
1002
{
1000
HIER
1070
     0
1002
}
1002
{
1000
MANEDIT
1070
     0
1002
}
1002
{
1000
NOSEL
1070
     0
1002
}
1002
{
1000
BEHIND
1070
     0
1002
}
1002
{
1000
OTHER
1070
     0
1002
}
1002
{
1000
REACTOR
1002
}
1001
GENIUS_GENCEN_19
1002
{
1040
3.0
1002
}
  0
LINE
  5
5278A
330
1F
100
AcDbEntity
  8
AM_7
 48
0.5
370
     9
100
AcDbLine
 10
85.50000921258424
 20
115.3000029999998
 30
0.0
 11
85.50000921258424
 21
98.70000299999993
 31
0.0
1001
GENIUS_GENODEF_13
1002
{
1000
HIER
1070
     0
1002
}
1002
{
1000
MANEDIT
1070
     0
1002
}
1002
{
1000
NOSEL
1070
     0
1002
}
1002
{
1000
BEHIND
1070
     0
1002
}
1002
{
1000
OTHER
1070
     0
1002
}
1002
{
1000
REACTOR
1002
}
1001
GENIUS_GENOBJ-N-CEN_13
1002
{
1000
OWNER
1000
GEN
1002
}
1001
GENIUS_GENCEN_19
1002
{
1040
3.0
1002
}
  0
LINE
  5
5278B
102
{ACAD_REACTORS
330
528F7
330
5290F
102
}
330
1F
100
AcDbEntity
  8
AM_7
 48
0.5
370
     9
100
AcDbLine
 10
77.20000921258407
 20
107.0000029999998
 30
0.0
 11
93.80000921258442
 21
107.0000029999998
 31
0.0
1001
GENIUS_GENOBJ-N-CEN_13
1002
{
1000
OWNER
1000
GEN
1002
}
1001
GENIUS_GENODEF_13
1002
{
1000
HIER
1070
     0
1002
}
1002
{
1000
MANEDIT
1070
     0
1002
}
1002
{
1000
NOSEL
1070
     0
1002
}
1002
{
1000
BEHIND
1070
     0
1002
}
1002
{
1000
OTHER
1070
     0
1002
}
1002
{
1000
REACTOR
1002
}
1001
GENIUS_GENCEN_19
1002
{
1040
3.0
1002
}
  0
LINE
  5
5278C
330
1F
100
AcDbEntity
  8
AM_7
 48
0.5
370
     9
100
AcDbLine
 10
85.50000921258424
 20
94.30000299999983
 30
0.0
 11
85.50000921258424
 21
77.70000299999992
 31
0.0
1001
GENIUS_GENODEF_13
1002
{
1000
HIER
1070
     0
1002
}
1002
{
1000
MANEDIT
1070
     0
1002
}
1002
{
1000
NOSEL
1070
     0
1002
}
1002
{
1000
BEHIND
1070
     0
1002
}
1002
{
1000
OTHER
1070
     0
1002
}
1002
{
1000
REACTOR
1002
}
1001
GENIUS_GENOBJ-N-CEN_13
1002
{
1000
OWNER
1000
GEN
1002
}
1001
GENIUS_GENCEN_19
1002
{
1040
3.0
1002
}
  0
LINE
  5
5278D
102
{ACAD_REACTORS
330
5290F
102
}
330
1F
100
AcDbEntity
  8
AM_7
 48
0.5
370
     9
100
AcDbLine
 10
77.20000921258407
 20
86.00000299999988
 30
0.0
 11
93.80000921258442
 21
86.00000299999988
 31
0.0
1001
GENIUS_GENOBJ-N-CEN_13
1002
{
1000
OWNER
1000
GEN
1002
}
1001
GENIUS_GENODEF_13
1002
{
1000
HIER
1070
     0
1002
}
1002
{
1000
MANEDIT
1070
     0
1002
}
1002
{
1000
NOSEL
1070
     0
1002
}
1002
{
1000
BEHIND
1070
     0
1002
}
1002
{
1000
OTHER
1070
     0
1002
}
1002
{
1000
REACTOR
1002
}
1001
GENIUS_GENCEN_19
1002
{
1040
3.0
1002
}
  0
LINE
  5
52790
330
1F
100
AcDbEntity
  8
AM_7
370
     9
100
AcDbLine
 10
69.50000921258425
 20
186.9999999999925
 30
0.0
 11
69.50000921258425
 21
205.4999999999925
 31
0.0
1001
GENIUS_GENOBJ-N-CEN_13
1002
{
1000
OWNER
1000
GEN
1002
}
1001
GENIUS_GENODEF_13
1002
{
1000
HIER
1070
     0
1002
}
1002
{
1000
MANEDIT
1070
     0
1002
}
1002
{
1000
NOSEL
1070
     0
1002
}
1002
{
1000
BEHIND
1070
     0
1002
}
1002
{
1000
OTHER
1070
     0
1002
}
1002
{
1000
REACTOR
1002
}
1001
GENIUS_GENCEN_19
1002
{
1040
3.0
1002
}
  0
LINE
  5
52791
330
1F
100
AcDbEntity
  8
AM_7
370
     9
100
AcDbLine
 10
78.75000921258425
 20
196.2499999999925
 30
0.0
 11
60.25000921258424
 21
196.2499999999925
 31
0.0
1001
GENIUS_GENOBJ-N-CEN_13
1002
{
1000
OWNER
1000
GEN
1002
}
1001
GENIUS_GENODEF_13
1002
{
1000
HIER
1070
     0
1002
}
1002
{
1000
MANEDIT
1070
     0
1002
}
1002
{
1000
NOSEL
1070
     0
1002
}
1002
{
1000
BEHIND
1070
     0
1002
}
1002
{
1000
OTHER
1070
     0
1002
}
1002
{
1000
REACTOR
1002
}
1001
GENIUS_GENCEN_19
1002
{
1040
3.0
1002
}
  0
LINE
  5
52794
330
1F
100
AcDbEntity
  8
AM_7
370
     9
100
AcDbLine
 10
265.4999904088145
 20
205.4999999999925
 30
0.0
 11
265.4999904088145
 21
186.9999999999925
 31
0.0
1001
GENIUS_GENODEF_13
1002
{
1000
HIER
1070
     0
1002
}
1002
{
1000
MANEDIT
1070
     0
1002
}
1002
{
1000
NOSEL
1070
     0
1002
}
1002
{
1000
BEHIND
1070
     0
1002
}
1002
{
1000
OTHER
1070
     0
1002
}
1002
{
1000
REACTOR
1002
}
1001
GENIUS_GENOBJ-N-CEN_13
1002
{
1000
OWNER
1000
GEN
1002
}
1001
GENIUS_GENCEN_19
1002
{
1040
3.0
1002
}
  0
LINE
  5
52795
330
1F
100
AcDbEntity
  8
AM_7
370
     9
100
AcDbLine
 10
256.2499904088145
 20
196.2499999999925
 30
0.0
 11
274.7499904088145
 21
196.2499999999925
 31
0.0
1001
GENIUS_GENODEF_13
1002
{
1000
HIER
1070
     0
1002
}
1002
{
1000
MANEDIT
1070
     0
1002
}
1002
{
1000
NOSEL
1070
     0
1002
}
1002
{
1000
BEHIND
1070
     0
1002
}
1002
{
1000
OTHER
1070
     0
1002
}
1002
{
1000
REACTOR
1002
}
1001
GENIUS_GENOBJ-N-CEN_13
1002
{
1000
OWNER
1000
GEN
1002
}
1001
GENIUS_GENCEN_19
1002
{
1040
3.0
1002
}
  0
LINE
  5
52796
330
1F
100
AcDbEntity
  8
AM_7
 48
0.5
370
     9
100
AcDbLine
 10
281.4999904088145
 20
136.3000029999998
 30
0.0
 11
281.4999904088145
 21
119.7000029999999
 31
0.0
1001
GENIUS_GENOBJ-N-CEN_13
1002
{
1000
OWNER
1000
GEN
1002
}
1001
GENIUS_GENODEF_13
1002
{
1000
HIER
1070
     0
1002
}
1002
{
1000
MANEDIT
1070
     0
1002
}
1002
{
1000
NOSEL
1070
     0
1002
}
1002
{
1000
BEHIND
1070
     0
1002
}
1002
{
1000
OTHER
1070
     0
1002
}
1002
{
1000
REACTOR
1002
}
1001
GENIUS_GENCEN_19
1002
{
1040
3.0
1002
}
  0
LINE
  5
52797
330
1F
100
AcDbEntity
  8
AM_7
 48
0.5
370
     9
100
AcDbLine
 10
273.1999904088145
 20
128.0000029999998
 30
0.0
 11
289.7999904088144
 21
128.0000029999998
 31
0.0
1001
GENIUS_GENOBJ-N-CEN_13
1002
{
1000
OWNER
1000
GEN
1002
}
1001
GENIUS_GENODEF_13
1002
{
1000
HIER
1070
     0
1002
}
1002
{
1000
MANEDIT
1070
     0
1002
}
1002
{
1000
NOSEL
1070
     0
1002
}
1002
{
1000
BEHIND
1070
     0
1002
}
1002
{
1000
OTHER
1070
     0
1002
}
1002
{
1000
REACTOR
1002
}
1001
GENIUS_GENCEN_19
1002
{
1040
3.0
1002
}
  0
LINE
  5
52798
330
1F
100
AcDbEntity
  8
AM_7
 48
0.5
370
     9
100
AcDbLine
 10
281.4999904088145
 20
115.3000029999998
 30
0.0
 11
281.4999904088145
 21
98.70000299999993
 31
0.0
1001
GENIUS_GENOBJ-N-CEN_13
1002
{
1000
OWNER
1000
GEN
1002
}
1001
GENIUS_GENODEF_13
1002
{
1000
HIER
1070
     0
1002
}
1002
{
1000
MANEDIT
1070
     0
1002
}
1002
{
1000
NOSEL
1070
     0
1002
}
1002
{
1000
BEHIND
1070
     0
1002
}
1002
{
1000
OTHER
1070
     0
1002
}
1002
{
1000
REACTOR
1002
}
1001
GENIUS_GENCEN_19
1002
{
1040
3.0
1002
}
  0
LINE
  5
52799
330
1F
100
AcDbEntity
  8
AM_7
 48
0.5
370
     9
100
AcDbLine
 10
273.1999904088145
 20
107.0000029999998
 30
0.0
 11
289.7999904088144
 21
107.0000029999998
 31
0.0
1001
GENIUS_GENOBJ-N-CEN_13
1002
{
1000
OWNER
1000
GEN
1002
}
1001
GENIUS_GENODEF_13
1002
{
1000
HIER
1070
     0
1002
}
1002
{
1000
MANEDIT
1070
     0
1002
}
1002
{
1000
NOSEL
1070
     0
1002
}
1002
{
1000
BEHIND
1070
     0
1002
}
1002
{
1000
OTHER
1070
     0
1002
}
1002
{
1000
REACTOR
1002
}
1001
GENIUS_GENCEN_19
1002
{
1040
3.0
1002
}
  0
LINE
  5
5279A
330
1F
100
AcDbEntity
  8
AM_7
 48
0.5
370
     9
100
AcDbLine
 10
281.4999904088145
 20
94.30000299999983
 30
0.0
 11
281.4999904088145
 21
77.70000299999992
 31
0.0
1001
GENIUS_GENOBJ-N-CEN_13
1002
{
1000
OWNER
1000
GEN
1002
}
1001
GENIUS_GENODEF_13
1002
{
1000
HIER
1070
     0
1002
}
1002
{
1000
MANEDIT
1070
     0
1002
}
1002
{
1000
NOSEL
1070
     0
1002
}
1002
{
1000
BEHIND
1070
     0
1002
}
1002
{
1000
OTHER
1070
     0
1002
}
1002
{
1000
REACTOR
1002
}
1001
GENIUS_GENCEN_19
1002
{
1040
3.0
1002
}
  0
LINE
  5
5279B
330
1F
100
AcDbEntity
  8
AM_7
 48
0.5
370
     9
100
AcDbLine
 10
273.1999904088145
 20
86.00000299999988
 30
0.0
 11
289.7999904088144
 21
86.00000299999988
 31
0.0
1001
GENIUS_GENOBJ-N-CEN_13
1002
{
1000
OWNER
1000
GEN
1002
}
1001
GENIUS_GENODEF_13
1002
{
1000
HIER
1070
     0
1002
}
1002
{
1000
MANEDIT
1070
     0
1002
}
1002
{
1000
NOSEL
1070
     0
1002
}
1002
{
1000
BEHIND
1070
     0
1002
}
1002
{
1000
OTHER
1070
     0
1002
}
1002
{
1000
REACTOR
1002
}
1001
GENIUS_GENCEN_19
1002
{
1040
3.0
1002
}
  0
LINE
  5
5279C
330
1F
100
AcDbEntity
  8
AM_7
 48
0.5
370
     9
100
AcDbLine
 10
243.4999904088145
 20
120.4000029999997
 30
0.0
 11
243.4999904088145
 21
131.600003
 31
0.0
1001
GENIUS_GENOBJ-N-CEN_13
1002
{
1000
OWNER
1000
GEN
1002
}
1001
GENIUS_GENODEF_13
1002
{
1000
HIER
1070
     0
1002
}
1002
{
1000
MANEDIT
1070
     0
1002
}
1002
{
1000
NOSEL
1070
     0
1002
}
1002
{
1000
BEHIND
1070
     0
1002
}
1002
{
1000
OTHER
1070
     0
1002
}
1002
{
1000
REACTOR
1002
}
1001
GENIUS_GENCEN_19
1002
{
1040
3.0
1002
}
  0
LINE
  5
5279D
330
1F
100
AcDbEntity
  8
AM_7
 48
0.5
370
     9
100
AcDbLine
 10
237.8999904088146
 20
126.0000029999998
 30
0.0
 11
249.0999904088144
 21
126.0000029999998
 31
0.0
1001
GENIUS_GENOBJ-N-CEN_13
1002
{
1000
OWNER
1000
GEN
1002
}
1001
GENIUS_GENODEF_13
1002
{
1000
HIER
1070
     0
1002
}
1002
{
1000
MANEDIT
1070
     0
1002
}
1002
{
1000
NOSEL
1070
     0
1002
}
1002
{
1000
BEHIND
1070
     0
1002
}
1002
{
1000
OTHER
1070
     0
1002
}
1002
{
1000
REACTOR
1002
}
1001
GENIUS_GENCEN_19
1002
{
1040
3.0
1002
}
  0
LINE
  5
5279E
330
1F
100
AcDbEntity
  8
AM_7
 48
0.5
370
     9
100
AcDbLine
 10
243.4999904088145
 20
82.40000299999975
 30
0.0
 11
243.4999904088145
 21
93.60000300000001
 31
0.0
1001
GENIUS_GENOBJ-N-CEN_13
1002
{
1000
OWNER
1000
GEN
1002
}
1001
GENIUS_GENODEF_13
1002
{
1000
HIER
1070
     0
1002
}
1002
{
1000
MANEDIT
1070
     0
1002
}
1002
{
1000
NOSEL
1070
     0
1002
}
1002
{
1000
BEHIND
1070
     0
1002
}
1002
{
1000
OTHER
1070
     0
1002
}
1002
{
1000
REACTOR
1002
}
1001
GENIUS_GENCEN_19
1002
{
1040
3.0
1002
}
  0
LINE
  5
5279F
330
1F
100
AcDbEntity
  8
AM_7
 48
0.5
370
     9
100
AcDbLine
 10
237.8999904088146
 20
88.00000299999988
 30
0.0
 11
249.0999904088144
 21
88.00000299999988
 31
0.0
1001
GENIUS_GENOBJ-N-CEN_13
1002
{
1000
OWNER
1000
GEN
1002
}
1001
GENIUS_GENODEF_13
1002
{
1000
HIER
1070
     0
1002
}
1002
{
1000
MANEDIT
1070
     0
1002
}
1002
{
1000
NOSEL
1070
     0
1002
}
1002
{
1000
BEHIND
1070
     0
1002
}
1002
{
1000
OTHER
1070
     0
1002
}
1002
{
1000
REACTOR
1002
}
1001
GENIUS_GENCEN_19
1002
{
1040
3.0
1002
}
  0
DIMENSION
  5
527DE
330
1F
100
AcDbEntity
  8
AM_5
100
AcDbDimension
  2
*D4
 10
191.4999907874157
 20
157.9999999999927
 30
0.0
 11
163.4999907874157
 21
160.5999999999927
 31
0.0
 70
    32
  1
<>
 71
     5
 42
56.0
  3
SYS$0
100
AcDbAlignedDimension
 13
135.4999907874157
 23
135.0000030000001
 33
0.0
 14
191.4999907874157
 24
135.0000030000001
 34
0.0
100
AcDbRotatedDimension
1001
ACAD
1000
DSTYLE
1002
{
1070
   271
1070
     1
1002
}
  0
DIMENSION
  5
528C8
102
{ACAD_XDICTIONARY
360
528D5
102
}
102
{ACAD_REACTORS
330
528D6
102
}
330
1F
100
AcDbEntity
  8
AM_5
100
AcDbDimension
  2
*D5
 10
29.50000921258425
 20
126.0000029999999
 30
0.0
 11
26.90000921258422
 21
107.0000029999999
 31
0.0
 70
    32
 71
     5
 42
38.0
  3
SYS$0
100
AcDbAlignedDimension
 13
41.90000921258433
 23
88.00000299999988
 33
0.0
 14
41.90000921258479
 24
126.0000029999998
 34
0.0
 50
90.0
100
AcDbRotatedDimension
1001
ACAD
1000
DSTYLE
1002
{
1070
   271
1070
     1
1002
}
  0
DIMENSION
  5
528E9
102
{ACAD_XDICTIONARY
360
528F6
102
}
102
{ACAD_REACTORS
330
528F7
102
}
330
1F
100
AcDbEntity
  8
AM_5
100
AcDbDimension
  2
*D6
 10
103.5000092125842
 20
128.0000029999998
 30
0.0
 11
100.9000092125842
 21
117.5000029999999
 31
0.0
 70
    32
 71
     5
 42
21.00000000000001
  3
SYS$0
100
AcDbAlignedDimension
 13
93.80000921258442
 23
107.0000029999998
 33
0.0
 14
93.80000921258442
 24
128.0000029999998
 34
0.0
 50
90.0
100
AcDbRotatedDimension
1001
ACAD
1000
DSTYLE
1002
{
1070
   271
1070
     1
1002
}
  0
DIMENSION
  5
52901
102
{ACAD_XDICTIONARY
360
5290E
102
}
102
{ACAD_REACTORS
330
5290F
102
}
330
1F
100
AcDbEntity
  8
AM_5
100
AcDbDimension
  2
*D7
 10
103.5000092125842
 20
86.00000299999987
 30
0.0
 11
100.9000092125842
 21
96.50000299999989
 31
0.0
 70
    32
 71
     5
 42
21.0
  3
SYS$0
100
AcDbAlignedDimension
 13
93.80000921258442
 23
107.0000029999998
 33
0.0
 14
93.80000921258442
 24
86.00000299999988
 34
0.0
 50
90.0
100
AcDbRotatedDimension
1001
ACAD
1000
DSTYLE
1002
{
1070
   271
1070
     1
1002
}
  0
DIMENSION
  5
5293D
102
{ACAD_XDICTIONARY
360
5294A
102
}
102
{ACAD_REACTORS
330
5294B
102
}
330
1F
100
AcDbEntity
  8
AM_5
100
AcDbDimension
  2
*D8
 10
111.5000092125842
 20
74.50000299999986
 30
0.0
 11
108.9000092125842
 21
107.0000029999999
 31
0.0
 70
    32
  1
A
 71
     5
 42
65.00000000000001
  3
SYS$0
100
AcDbAlignedDimension
 13
89.00000921258424
 23
139.5000029999998
 33
0.0
 14
89.00000921258424
 24
74.50000299999988
 34
0.0
 50
90.0
100
AcDbRotatedDimension
1001
ACAD
1000
DSTYLE
1002
{
1070
   271
1070
     1
1002
}
  0
DIMENSION
  5
52982
102
{ACAD_XDICTIONARY
360
5298F
102
}
102
{ACAD_REACTORS
330
52990
102
}
330
1F
100
AcDbEntity
  8
AM_5
100
AcDbDimension
  2
*D9
 10
85.50000921258334
 20
149.9999979807969
 30
0.0
 11
77.50001381887568
 21
152.5999979807969
 31
0.0
 70
    32
 71
     5
 42
15.9999907874153
  3
SYS$0
100
AcDbAlignedDimension
 13
69.50001842516804
 23
144.9999999999927
 33
0.0
 14
85.50000921258334
 24
136.3000029999998
 34
0.0
 50
359.9999927692787
100
AcDbRotatedDimension
1001
ACAD
1000
DSTYLE
1002
{
1070
   271
1070
     1
1002
}
  0
DIMENSION
  5
5299A
102
{ACAD_XDICTIONARY
360
529A7
102
}
102
{ACAD_REACTORS
330
529A8
102
}
330
1F
100
AcDbEntity
  8
AM_5
100
AcDbDimension
  2
*D10
 10
47.50000921258425
 20
150.0000027763885
 30
0.0
 11
58.50001381887614
 21
152.6000027763885
 31
0.0
 70
    32
 71
     5
 42
22.00000921258379
  3
SYS$0
100
AcDbAlignedDimension
 13
69.50001842516804
 23
144.9999999999927
 33
0.0
 14
47.50000921258425
 24
131.600003
 34
0.0
 50
359.9999927692787
100
AcDbRotatedDimension
1001
ACAD
1000
DSTYLE
1002
{
1070
   271
1070
     1
1002
}
  0
DIMENSION
  5
529FC
102
{ACAD_XDICTIONARY
360
52A0B
102
}
102
{ACAD_REACTORS
330
52A0C
102
}
330
1F
100
AcDbEntity
  8
AM_5
100
AcDbDimension
  2
*D11
 10
103.5000092125842
 20
199.7499999999927
 30
0.0
 11
100.9000092125842
 21
196.0033333333261
 31
0.0
 70
    32
 71
     5
 42
2.999999999999772
  3
SYS$0
100
AcDbAlignedDimension
 13
93.50000921258425
 23
202.7499999999925
 33
0.0
 14
93.50000921258425
 24
199.7499999999927
 34
0.0
 50
270.0
100
AcDbRotatedDimension
1001
ACAD
1000
DSTYLE
1002
{
1070
   271
1070
     1
1002
}
  0
DIMENSION
  5
52A37
102
{ACAD_XDICTIONARY
360
52A44
102
}
102
{ACAD_REACTORS
330
52A45
102
}
330
1F
100
AcDbEntity
  8
AM_5
100
AcDbDimension
  2
*D12
 10
93.50000921258425
 20
165.9999999999925
 30
0.0
 11
65.50000921258424
 21
168.5999999999925
 31
0.0
 70
    32
 71
     5
 42
56.0
  3
SYS$0
100
AcDbAlignedDimension
 13
37.50000921258425
 23
135.0000029999999
 33
0.0
 14
93.50000921258425
 24
135.0000029999999
 34
0.0
100
AcDbRotatedDimension
1001
ACAD
1000
DSTYLE
1002
{
1070
   271
1070
     1
1002
}
  0
DIMENSION
  5
52A58
102
{ACAD_XDICTIONARY
360
52A65
102
}
102
{ACAD_REACTORS
330
52A66
102
}
330
1F
100
AcDbEntity
  8
AM_5
100
AcDbDimension
  2
*D13
 10
387.4999999999984
 20
157.999992932805
 30
0.0
 11
359.4999999999983
 21
160.599992932805
 31
0.0
 70
    32
 71
     5
 42
56.00000000000022
  3
SYS$0
100
AcDbAlignedDimension
 13
331.4999999999982
 23
135.0000029999999
 33
0.0
 14
387.4999999999984
 24
135.0000030000001
 34
0.0
 50
359.9999927692787
100
AcDbRotatedDimension
1001
ACAD
1000
DSTYLE
1002
{
1070
   271
1070
     1
1002
}
  0
DIMENSION
  5
52A82
330
1F
100
AcDbEntity
  8
AM_5
100
AcDbDimension
  2
*D14
 10
397.500001009998
 20
74.5000030000001
 30
0.0
 11
394.9000010099979
 21
107.0000030000001
 31
0.0
 70
    32
  1
A
 71
     5
 42
65.0
  3
SYS$0
100
AcDbAlignedDimension
 13
382.9999999999982
 23
139.5000030000001
 33
0.0
 14
382.9999999999982
 24
74.5000030000001
 34
0.0
 50
90.0
100
AcDbRotatedDimension
1001
ACAD
1000
DSTYLE
1002
{
1070
   271
1070
     1
1002
}
  0
DIMENSION
  5
52AD8
330
1F
100
AcDbEntity
  8
AM_5
100
AcDbDimension
  2
*D15
 10
299.4999904088145
 20
128.0000029999998
 30
0.0
 11
296.8999904088144
 21
117.5000029999999
 31
0.0
 70
    32
 71
     5
 42
20.99999999999999
  3
SYS$0
100
AcDbAlignedDimension
 13
289.7999904088147
 23
107.0000029999998
 33
0.0
 14
289.7999904088147
 24
128.0000029999998
 34
0.0
 50
90.0
100
AcDbRotatedDimension
1001
ACAD
1000
DSTYLE
1002
{
1070
   271
1070
     1
1002
}
  0
DIMENSION
  5
52ADB
330
1F
100
AcDbEntity
  8
AM_5
100
AcDbDimension
  2
*D16
 10
299.4999904088145
 20
86.00000299999988
 30
0.0
 11
296.8999904088144
 21
96.50000299999994
 31
0.0
 70
    32
 71
     5
 42
21.0
  3
SYS$0
100
AcDbAlignedDimension
 13
289.7999904088147
 23
107.0000029999998
 33
0.0
 14
289.7999904088147
 24
86.00000299999988
 34
0.0
 50
90.0
100
AcDbRotatedDimension
1001
ACAD
1000
DSTYLE
1002
{
1070
   271
1070
     1
1002
}
  0
DIMENSION
  5
52ADE
330
1F
100
AcDbEntity
  8
AM_5
100
AcDbDimension
  2
*D17
 10
307.4999904088145
 20
74.50000299999986
 30
0.0
 11
304.8999904088145
 21
107.0000029999999
 31
0.0
 70
    32
  1
A
 71
     5
 42
65.0
  3
SYS$0
100
AcDbAlignedDimension
 13
284.9999904088145
 23
139.5000029999998
 33
0.0
 14
284.9999904088145
 24
74.50000299999988
 34
0.0
 50
90.0
100
AcDbRotatedDimension
1001
ACAD
1000
DSTYLE
1002
{
1070
   271
1070
     1
1002
}
  0
DIMENSION
  5
52B20
330
1F
100
AcDbEntity
  8
AM_5
100
AcDbDimension
  2
*D18
 10
281.499990408814
 20
149.9999979807969
 30
0.0
 11
273.4999950151064
 21
152.5999979807969
 31
0.0
 70
    32
 71
     5
 42
15.9999907874153
  3
SYS$0
100
AcDbAlignedDimension
 13
265.4999996213987
 23
144.9999999999927
 33
0.0
 14
281.499990408814
 24
136.3000029999998
 34
0.0
 50
359.9999927692787
100
AcDbRotatedDimension
1001
ACAD
1000
DSTYLE
1002
{
1070
   271
1070
     1
1002
}
  0
DIMENSION
  5
52B23
330
1F
100
AcDbEntity
  8
AM_5
100
AcDbDimension
  2
*D19
 10
243.499990408815
 20
150.0000027763885
 30
0.0
 11
254.4999950151068
 21
152.6000027763885
 31
0.0
 70
    32
 71
     5
 42
22.00000921258379
  3
SYS$0
100
AcDbAlignedDimension
 13
265.4999996213987
 23
144.9999999999927
 33
0.0
 14
243.499990408815
 24
131.600003
 34
0.0
 50
359.9999927692787
100
AcDbRotatedDimension
1001
ACAD
1000
DSTYLE
1002
{
1070
   271
1070
     1
1002
}
  0
DIMENSION
  5
52B26
330
1F
100
AcDbEntity
  8
AM_5
100
AcDbDimension
  2
*D20
 10
289.4999904088145
 20
165.9999999999925
 30
0.0
 11
261.4999904088145
 21
168.5999999999925
 31
0.0
 70
    32
 71
     5
 42
56.0
  3
SYS$0
100
AcDbAlignedDimension
 13
233.4999904088145
 23
135.0000029999999
 33
0.0
 14
289.4999904088145
 24
135.0000029999999
 34
0.0
100
AcDbRotatedDimension
1001
ACAD
1000
DSTYLE
1002
{
1070
   271
1070
     1
1002
}
  0
DIMENSION
  5
52B68
330
1F
100
AcDbEntity
  8
AM_5
100
AcDbDimension
  2
*D21
 10
225.4999904088145
 20
126.0000029999998
 30
0.0
 11
222.8999904088145
 21
107.0000029999999
 31
0.0
 70
    32
 71
     5
 42
38.0
  3
SYS$0
100
AcDbAlignedDimension
 13
237.8999904088146
 23
88.00000299999988
 33
0.0
 14
237.899990408815
 24
126.0000029999998
 34
0.0
 50
90.0
100
AcDbRotatedDimension
1001
ACAD
1000
DSTYLE
1002
{
1070
   271
1070
     1
1002
}
  0
DIMENSION
  5
52B96
330
1F
100
AcDbEntity
  8
AM_5
100
AcDbDimension
  2
*D22
 10
299.4999904088145
 20
199.7499999999927
 30
0.0
 11
296.8999904088144
 21
196.0033333333261
 31
0.0
 70
    32
 71
     5
 42
2.999999999999772
  3
SYS$0
100
AcDbAlignedDimension
 13
289.4999904088145
 23
202.7499999999925
 33
0.0
 14
289.4999904088145
 24
199.7499999999927
 34
0.0
 50
270.0
100
AcDbRotatedDimension
1001
ACAD
1000
DSTYLE
1002
{
1070
   271
1070
     1
1002
}
  0
DIMENSION
  5
52CC7
330
1F
100
AcDbEntity
  8
AM_5
100
AcDbDimension
  2
*D23
 10
225.4999904088145
 20
202.7499999999925
 30
0.0
 11
222.8999904088144
 21
196.2499999999925
 31
0.0
 70
    32
  1
13
 71
     5
 42
13.0
  3
SYS$0
100
AcDbAlignedDimension
 13
233.4999904088145
 23
189.7499999999925
 33
0.0
 14
265.4999904088145
 24
202.7499999999925
 34
0.0
 50
270.0
100
AcDbRotatedDimension
1001
ACAD
1000
DSTYLE
1002
{
1070
   271
1070
     1
1002
}
  0
LWPOLYLINE
  5
52F1D
330
1F
100
AcDbEntity
  8
AM_0
100
AcDbPolyline
 90
        4
 70
     1
 43
0.0
 10
152.4999907874157
 20
56.00000200000727
 10
182.4999907874157
 20
56.00000200000727
 10
182.4999907874157
 20
50.00000200000727
 10
152.4999907874157
 20
50.00000200000727
1001
GENIUS_GENREC_14
1002
{
1000
PYDIR
1011
152.4999907874157
1021
50.00000200000727
1031
0.0
1002
}
1002
{
1000
PXDIR
1011
182.4999907874157
1021
56.00000200000727
1031
0.0
1002
}
1002
{
1000
PORI
1011
152.4999907874157
1021
56.00000200000727
1031
0.0
1002
}
1002
{
1000
PINS
1011
152.4999907874157
1021
56.00000200000727
1031
0.0
1002
}
1002
{
1000
PINS2
1011
182.4999907874157
1021
50.00000200000727
1031
0.0
1002
}
1002
{
1000
C
1070
     1
1002
}
1001
GENIUS_GENODEF_13
1002
{
1000
HIER
1070
     0
1002
}
1002
{
1000
MANEDIT
1070
     0
1002
}
1002
{
1000
NOSEL
1070
     0
1002
}
1002
{
1000
BEHIND
1070
     0
1002
}
1002
{
1000
OTHER
1070
     0
1002
}
1002
{
1000
REACTOR
1002
}
1001
GENIUS_GENOBJ-N-REC_13
1002
{
1000
OWNER
1000
GEN
1002
}
  0
LWPOLYLINE
  5
530DC
330
1F
100
AcDbEntity
  8
AM_0
100
AcDbPolyline
 90
        4
 70
     1
 43
0.0
 10
54.50000921258425
 20
56.00000200000727
 10
84.50000921258425
 20
56.00000200000727
 10
84.50000921258425
 20
50.00000200000727
 10
54.50000921258425
 20
50.00000200000727
1001
GENIUS_GENREC_14
1002
{
1000
PYDIR
1011
54.50000921258425
1021
50.00000200000727
1031
0.0
1002
}
1002
{
1000
PXDIR
1011
84.50000921258425
1021
56.00000200000727
1031
0.0
1002
}
1002
{
1000
PORI
1011
54.50000921258425
1021
56.00000200000727
1031
0.0
1002
}
1002
{
1000
PINS
1011
54.50000921258425
1021
56.00000200000727
1031
0.0
1002
}
1002
{
1000
PINS2
1011
84.50000921258425
1021
50.00000200000727
1031
0.0
1002
}
1002
{
1000
C
1070
     1
1002
}
1001
GENIUS_GENODEF_13
1002
{
1000
HIER
1070
     0
1002
}
1002
{
1000
MANEDIT
1070
     0
1002
}
1002
{
1000
NOSEL
1070
     0
1002
}
1002
{
1000
BEHIND
1070
     0
1002
}
1002
{
1000
OTHER
1070
     0
1002
}
1002
{
1000
REACTOR
1002
}
1001
GENIUS_GENOBJ-N-REC_13
1002
{
1000
OWNER
1000
GEN
1002
}
  0
MTEXT
  5
530DD
330
1F
100
AcDbEntity
  8
AM_6
100
AcDbMText
 10
69.50000921258425
 20
53.00000200000727
 30
0.0
 40
3.2
 41
30.0
 71
     5
 72
     5
  1
DEH-35（S）-1
 73
     1
 44
1.0
1001
ACAD
1000
MTEXTBEGIN
1070
    73
1070
     1
1070
    44
1040
1.0
1070
    74
1070
     0
1000
MTEXTEND
  0
MTEXT
  5
530DE
330
1F
100
AcDbEntity
  8
AM_6
100
AcDbMText
 10
167.4999907874157
 20
53.00000200000727
 30
0.0
 40
3.2
 41
30.0
 71
     5
 72
     5
  1
DEH-35（S）-2
 73
     1
 44
1.0
1001
ACAD
1000
MTEXTBEGIN
1070
    73
1070
     1
1070
    44
1040
1.0
1070
    74
1070
     0
1000
MTEXTEND
  0
LWPOLYLINE
  5
530DF
330
1F
100
AcDbEntity
  8
AM_0
100
AcDbPolyline
 90
        4
 70
     1
 43
0.0
 10
250.4999904088145
 20
56.00000200000727
 10
280.4999904088143
 20
56.00000200000727
 10
280.4999904088143
 20
50.00000200000727
 10
250.4999904088145
 20
50.00000200000727
1001
GENIUS_GENREC_14
1002
{
1000
PYDIR
1011
250.4999904088145
1021
50.00000200000727
1031
0.0
1002
}
1002
{
1000
PXDIR
1011
280.4999904088143
1021
56.00000200000727
1031
0.0
1002
}
1002
{
1000
PORI
1011
250.4999904088145
1021
56.00000200000727
1031
0.0
1002
}
1002
{
1000
PINS
1011
250.4999904088145
1021
56.00000200000727
1031
0.0
1002
}
1002
{
1000
PINS2
1011
280.4999904088143
1021
50.00000200000727
1031
0.0
1002
}
1002
{
1000
C
1070
     1
1002
}
1001
GENIUS_GENODEF_13
1002
{
1000
HIER
1070
     0
1002
}
1002
{
1000
MANEDIT
1070
     0
1002
}
1002
{
1000
NOSEL
1070
     0
1002
}
1002
{
1000
BEHIND
1070
     0
1002
}
1002
{
1000
OTHER
1070
     0
1002
}
1002
{
1000
REACTOR
1002
}
1001
GENIUS_GENOBJ-N-REC_13
1002
{
1000
OWNER
1000
GEN
1002
}
  0
MTEXT
  5
530E0
330
1F
100
AcDbEntity
  8
AM_6
100
AcDbMText
 10
265.4999904088143
 20
53.00000200000727
 30
0.0
 40
3.2
 41
30.0
 71
     5
 72
     5
  1
DEH-36（S）-1
 73
     1
 44
1.0
1001
ACAD
1000
MTEXTBEGIN
1070
    73
1070
     1
1070
    44
1040
1.0
1070
    74
1070
     0
1000
MTEXTEND
  0
LWPOLYLINE
  5
530E1
330
1F
100
AcDbEntity
  8
AM_0
100
AcDbPolyline
 90
        4
 70
     1
 43
0.0
 10
348.4999999999979
 20
56.00000200000727
 10
378.499999999998
 20
56.00000200000727
 10
378.499999999998
 20
50.00000200000727
 10
348.4999999999979
 20
50.00000200000727
1001
GENIUS_GENREC_14
1002
{
1000
PYDIR
1011
348.4999999999979
1021
50.00000200000727
1031
0.0
1002
}
1002
{
1000
PXDIR
1011
378.499999999998
1021
56.00000200000727
1031
0.0
1002
}
1002
{
1000
PORI
1011
348.4999999999979
1021
56.00000200000727
1031
0.0
1002
}
1002
{
1000
PINS
1011
348.4999999999979
1021
56.00000200000727
1031
0.0
1002
}
1002
{
1000
PINS2
1011
378.499999999998
1021
50.00000200000727
1031
0.0
1002
}
1002
{
1000
C
1070
     1
1002
}
1001
GENIUS_GENODEF_13
1002
{
1000
HIER
1070
     0
1002
}
1002
{
1000
MANEDIT
1070
     0
1002
}
1002
{
1000
NOSEL
1070
     0
1002
}
1002
{
1000
BEHIND
1070
     0
1002
}
1002
{
1000
OTHER
1070
     0
1002
}
1002
{
1000
REACTOR
1002
}
1001
GENIUS_GENOBJ-N-REC_13
1002
{
1000
OWNER
1000
GEN
1002
}
  0
MTEXT
  5
530E2
330
1F
100
AcDbEntity
  8
AM_6
100
AcDbMText
 10
363.499999999998
 20
53.00000200000727
 30
0.0
 40
3.2
 41
30.0
 71
     5
 72
     5
  1
DEH-36（S）-2
 73
     1
 44
1.0
1001
ACAD
1000
MTEXTBEGIN
1070
    73
1070
     1
1070
    44
1040
1.0
1070
    74
1070
     0
1000
MTEXTEND
  0
MTEXT
  5
530E3
330
1F
100
AcDbEntity
  8
AM_6
100
AcDbMText
 10
31.5
 20
252.5
 30
0.0
 40
3.2
 41
70.0
 71
     4
 72
     5
  1
　有色クロメート（DEH-35 / DEH-36）
 73
     1
 44
1.0
1001
ACAD
1000
MTEXTBEGIN
1070
    73
1070
     1
1070
    44
1040
1.0
1070
    74
1070
     0
1000
MTEXTEND
  0
MTEXT
  5
530E4
330
1F
100
AcDbEntity
  8
AM_6
100
AcDbMText
 10
31.49999999999955
 20
244.5
 30
0.0
 40
3.2
 41
70.0
 71
     4
 72
     5
  1
　ヘアーライン（DEH-35S / DEH-36S）
 73
     1
 44
1.0
1001
ACAD
1000
MTEXTBEGIN
1070
    73
1070
     1
1070
    44
1040
1.0
1070
    74
1070
     0
1000
MTEXTEND
  0
DIMENSION
  5
54543
330
1F
100
AcDbEntity
  8
AM_5
100
AcDbDimension
  2
*D24
 10
29.50000921258425
 20
189.7499999999925
 30
0.0
 11
26.90000921258421
 21
196.2499999999925
 31
0.0
 70
    32
  1
13
 71
     5
 42
12.99999999999997
  3
SYS$0
100
AcDbAlignedDimension
 13
37.50000921258425
 23
202.7499999999925
 33
0.0
 14
69.50000921258425
 24
189.7499999999925
 34
0.0
 50
270.0
100
AcDbRotatedDimension
1001
ACAD
1000
DSTYLE
1002
{
1070
   271
1070
     1
1002
}
  0
DIMENSION
  5
5464B
102
{ACAD_XDICTIONARY
360
54655
102
}
102
{ACAD_REACTORS
330
5465C
102
}
330
1F
100
AcDbEntity
  8
AM_5
100
AcDbDimension
  2
*D25
 10
49.37160438067859
 20
89.80475548351936
 30
0.0
 11
28.2333425459162
 21
74.50000299999921
 31
0.0
 70
   163
  1
2-%%cB
 71
     5
 42
5.200000000000727
  3
SYS$3
100
AcDbDiametricDimension
 15
45.62841404449043
 25
86.19525051648091
 35
0.0
 40
0.0
1001
ACAD
1000
DSTYLE
1002
{
1070
    41
1040
1.0
1070
   343
1005
6C4
1070
   342
1005
0
1070
   173
1070
     1
1070
   344
1005
6C4
1070
   172
1070
     1
1002
}
  0
DIMENSION
  5
546B4
330
1F
100
AcDbEntity
  8
AM_5
100
AcDbDimension
  2
*D26
 10
245.3715855769097
 20
89.80475548351909
 30
0.0
 11
224.2333237421452
 21
74.5000029999992
 31
0.0
 70
   163
  1
2-%%cB
 71
     5
 42
5.200000000000585
  3
SYS$3
100
AcDbDiametricDimension
 15
241.6283952407217
 25
86.19525051648066
 35
0.0
 40
0.0
1001
ACAD
1000
DSTYLE
1002
{
1070
    41
1040
1.0
1070
   343
1005
6C4
1070
   342
1005
0
1070
   173
1070
     1
1070
   344
1005
6C4
1070
   172
1070
     1
1002
}
  0
DIMENSION
  5
546D5
330
1F
100
AcDbEntity
  8
AM_5
100
AcDbDimension
  2
*D27
 10
93.50000921258425
 20
157.9999979807969
 30
0.0
 11
81.50001381887614
 21
160.5999979807969
 31
0.0
 70
    32
 71
     5
 42
23.99999078741621
  3
SYS$0
100
AcDbAlignedDimension
 13
69.50001842516804
 23
145.0000014210745
 33
0.0
 14
93.50000921258425
 24
135.0000029999999
 34
0.0
 50
359.9999927692787
100
AcDbRotatedDimension
1001
ACAD
1000
DSTYLE
1002
{
1070
   271
1070
     1
1002
}
  0
DIMENSION
  5
546D8
330
1F
100
AcDbEntity
  8
AM_5
100
AcDbDimension
  2
*D28
 10
37.50000921258425
 20
158.0000027763885
 30
0.0
 11
53.50001381887614
 21
160.6000027763885
 31
0.0
 70
    32
 71
     5
 42
32.00000921258379
  3
SYS$0
100
AcDbAlignedDimension
 13
69.50001842516804
 23
145.0000014210745
 33
0.0
 14
37.50000921258425
 24
135.0000029999999
 34
0.0
 50
359.9999927692787
100
AcDbRotatedDimension
1001
ACAD
1000
DSTYLE
1002
{
1070
   271
1070
     1
1002
}
  0
DIMENSION
  5
54732
330
1F
100
AcDbEntity
  8
AM_5
100
AcDbDimension
  2
*D29
 10
167.4999996214005
 20
149.9999999999927
 30
0.0
 11
151.4999952044081
 21
152.5999999999927
 31
0.0
 70
    32
  1
<>
 71
     5
 42
32.00000883398479
  3
SYS$0
100
AcDbAlignedDimension
 13
135.4999907874157
 23
135.0000030000001
 33
0.0
 14
167.4999996214005
 24
144.9999999999927
 34
0.0
100
AcDbRotatedDimension
1001
ACAD
1000
DSTYLE
1002
{
1070
   271
1070
     1
1002
}
  0
DIMENSION
  5
5475C
330
1F
100
AcDbEntity
  8
AM_5
100
AcDbDimension
  2
*D30
 10
167.4999996214005
 20
149.9999999999927
 30
0.0
 11
179.4999952044081
 21
152.5999999999927
 31
0.0
 70
    32
  1
<>
 71
     5
 42
23.99999116601521
  3
SYS$0
100
AcDbAlignedDimension
 13
191.4999907874157
 23
135.0000030000001
 33
0.0
 14
167.4999996214005
 24
144.9999999999927
 34
0.0
 50
180.0
100
AcDbRotatedDimension
1001
ACAD
1000
DSTYLE
1002
{
1070
   271
1070
     1
1002
}
  0
DIMENSION
  5
5477B
102
{ACAD_XDICTIONARY
360
54785
102
}
102
{ACAD_REACTORS
330
5478C
102
}
330
1F
100
AcDbEntity
  8
AM_5
100
AcDbDimension
  2
*D31
 10
82.962093008885
 20
90.65284958494123
 30
0.0
 11
112.8040092125857
 21
64.00000199999936
 31
0.0
 70
   163
  1
3-%%c5.4×%%c10.6サラ
 71
     5
 42
10.59999999999995
  3
SYS$3
100
AcDbDiametricDimension
 15
88.03792541628354
 25
81.34715641505852
 35
0.0
 40
0.0
1001
ACAD
1000
DSTYLE
1002
{
1070
    41
1040
1.0
1070
   343
1005
6C4
1070
   342
1005
0
1070
   173
1070
     1
1070
   344
1005
6C4
1070
   172
1070
     1
1002
}
  0
DIMENSION
  5
547B7
330
1F
100
AcDbEntity
  8
AM_5
100
AcDbDimension
  2
*D32
 10
278.9620742051144
 20
90.6528495849416
 30
0.0
 11
307.4599904088162
 21
64.00000199999974
 31
0.0
 70
   163
  1
3-%%c5.4%%c10.6サラ
 71
     5
 42
10.59999999999995
  3
SYS$3
100
AcDbDiametricDimension
 15
284.0379066125133
 25
81.34715641505907
 35
0.0
 40
0.0
1001
ACAD
1000
DSTYLE
1002
{
1070
    41
1040
1.0
1070
   343
1005
6C4
1070
   342
1005
0
1070
   173
1070
     1
1070
   344
1005
6C4
1070
   172
1070
     1
1002
}
  0
DIMENSION
  5
547D8
330
1F
100
AcDbEntity
  8
AM_5
100
AcDbDimension
  2
*D33
 10
289.4999904088145
 20
157.9999979807969
 30
0.0
 11
277.4999950151062
 21
160.5999979807969
 31
0.0
 70
    32
 71
     5
 42
23.99999078741666
  3
SYS$0
100
AcDbAlignedDimension
 13
265.4999996213978
 23
144.9999999999925
 33
0.0
 14
289.4999904088145
 24
135.0000029999999
 34
0.0
 50
359.9999927692787
100
AcDbRotatedDimension
1001
ACAD
1000
DSTYLE
1002
{
1070
   271
1070
     1
1002
}
  0
DIMENSION
  5
547D9
330
1F
100
AcDbEntity
  8
AM_5
100
AcDbDimension
  2
*D34
 10
233.4999904088145
 20
158.0000027763885
 30
0.0
 11
249.4999950151061
 21
160.6000027763885
 31
0.0
 70
    32
 71
     5
 42
32.00000921258334
  3
SYS$0
100
AcDbAlignedDimension
 13
265.4999996213978
 23
144.9999999999925
 33
0.0
 14
233.4999904088145
 24
135.0000029999999
 34
0.0
 50
359.9999927692787
100
AcDbRotatedDimension
1001
ACAD
1000
DSTYLE
1002
{
1070
   271
1070
     1
1002
}
  0
DIMENSION
  5
54831
330
1F
100
AcDbEntity
  8
AM_5
100
AcDbDimension
  2
*D35
 10
363.5000092125815
 20
149.999992932805
 30
0.0
 11
347.5000046062898
 21
152.599992932805
 31
0.0
 70
    32
 71
     5
 42
32.00000921258334
  3
SYS$0
100
AcDbAlignedDimension
 13
331.4999999999982
 23
135.0000029999999
 33
0.0
 14
363.5000092125815
 24
144.9999999999925
 34
0.0
 50
359.9999927692787
100
AcDbRotatedDimension
1001
ACAD
1000
DSTYLE
1002
{
1070
   271
1070
     1
1002
}
  0
DIMENSION
  5
5485B
330
1F
100
AcDbEntity
  8
AM_5
100
AcDbDimension
  2
*D36
 10
363.5000085815841
 20
149.999992932805
 30
0.0
 11
375.5000030161749
 21
152.5999944472004
 31
0.0
 70
    32
 71
     5
 42
23.99998952542023
  3
SYS$0
100
AcDbAlignedDimension
 13
387.4999999999982
 23
135.0000029999999
 33
0.0
 14
363.5000092125815
 24
144.9999999999925
 34
0.0
 50
180.0000072307082
100
AcDbRotatedDimension
1001
ACAD
1000
DSTYLE
1002
{
1070
   271
1070
     1
1002
}
  0
LINE
  5
5487A
330
1F
100
AcDbEntity
  8
AM_0
100
AcDbLine
 10
280.5000000000011
 20
288.5
 30
0.0
 11
408.5000000000011
 21
288.5
 31
0.0
  0
LINE
  5
5487B
330
1F
100
AcDbEntity
  8
AM_5
100
AcDbLine
 10
312.5000000000011
 20
240.5
 30
0.0
 11
312.5000000000011
 21
280.5
 31
0.0
  0
LINE
  5
5487C
330
1F
100
AcDbEntity
  8
AM_0
100
AcDbLine
 10
280.5000000000011
 20
272.5
 30
0.0
 11
408.5000000000011
 21
272.5
 31
0.0
  0
LINE
  5
5487D
330
1F
100
AcDbEntity
  8
AM_5
100
AcDbLine
 10
280.5000000000011
 20
264.5
 30
0.0
 11
344.5000000000011
 21
264.5000000000001
 31
0.0
  0
LINE
  5
5487E
330
1F
100
AcDbEntity
  8
AM_5
100
AcDbLine
 10
280.5000000000011
 20
256.5
 30
0.0
 11
344.5000000000011
 21
256.5
 31
0.0
  0
LINE
  5
54881
330
1F
100
AcDbEntity
  8
AM_5
100
AcDbLine
 10
344.5000000000011
 20
288.5
 30
0.0
 11
344.5000000000011
 21
240.5
 31
0.0
  0
LINE
  5
54885
330
1F
100
AcDbEntity
  8
AM_0
100
AcDbLine
 10
408.5000000000011
 20
288.5
 30
0.0
 11
408.5000000000011
 21
240.5
 31
0.0
  0
MTEXT
  5
5488A
330
1F
100
AcDbEntity
  8
AM_6
100
AcDbMText
 10
296.5000000000011
 20
268.5
 30
0.0
 40
3.2
 41
32.0
 71
     5
 72
     5
  1
DEH-35-1
 73
     1
 44
1.0
1001
ACAD
1000
MTEXTBEGIN
1070
    73
1070
     1
1070
    44
1040
1.0
1070
    74
1070
     0
1000
MTEXTEND
  0
MTEXT
  5
5488B
330
1F
100
AcDbEntity
  8
AM_6
100
AcDbMText
 10
296.5000000000011
 20
252.5
 30
0.0
 40
3.2
 41
32.0
 71
     5
 72
     5
  1
DEH-36-1
 73
     1
 44
1.0
1001
ACAD
1000
MTEXTBEGIN
1070
    73
1070
     1
1070
    44
1040
1.0
1070
    74
1070
     0
1000
MTEXTEND
  0
LINE
  5
5488D
330
1F
100
AcDbEntity
  8
AM_0
100
AcDbLine
 10
280.5000000000011
 20
240.5
 30
0.0
 11
280.5000000000011
 21
288.5
 31
0.0
  0
MTEXT
  5
5488E
330
1F
100
AcDbEntity
  8
AM_6
100
AcDbMText
 10
312.5000000000011
 20
284.5
 30
0.0
 40
3.2
 41
64.0
 71
     5
 72
     5
  1
品番
 73
     1
 44
1.0
1001
ACAD
1000
MTEXTBEGIN
1070
    73
1070
     1
1070
    44
1040
1.0
1070
    74
1070
     0
1000
MTEXTEND
  0
MTEXT
  5
5488F
330
1F
100
AcDbEntity
  8
AM_6
100
AcDbMText
 10
328.5000000000011
 20
268.5
 30
0.0
 40
3.2
 41
32.0
 71
     5
 72
     5
  1
DEH-35S-1
 73
     1
 44
1.0
1001
ACAD
1000
MTEXTBEGIN
1070
    73
1070
     1
1070
    44
1040
1.0
1070
    74
1070
     0
1000
MTEXTEND
  0
MTEXT
  5
54890
330
1F
100
AcDbEntity
  8
AM_6
100
AcDbMText
 10
328.5000000000011
 20
252.5
 30
0.0
 40
3.2
 41
32.0
 71
     5
 72
     5
  1
DEH-36S-1
 73
     1
 44
1.0
1001
ACAD
1000
MTEXTBEGIN
1070
    73
1070
     1
1070
    44
1040
1.0
1070
    74
1070
     0
1000
MTEXTEND
  0
LINE
  5
54892
330
1F
100
AcDbEntity
  8
AM_5
100
AcDbLine
 10
280.5000000000011
 20
280.5
 30
0.0
 11
408.5000000000011
 21
280.5
 31
0.0
  0
MTEXT
  5
54894
330
1F
100
AcDbEntity
  8
AM_6
100
AcDbMText
 10
296.5000000000011
 20
276.5
 30
0.0
 40
3.2
 41
32.0
 71
     5
 72
     5
  1
スチール
 73
     1
 44
1.0
1001
ACAD
1000
MTEXTBEGIN
1070
    73
1070
     1
1070
    44
1040
1.0
1070
    74
1070
     0
1000
MTEXTEND
  0
MTEXT
  5
54895
330
1F
100
AcDbEntity
  8
AM_6
100
AcDbMText
 10
328.5000000000011
 20
276.5
 30
0.0
 40
3.2
 41
32.0
 71
     5
 72
     5
  1
ステンレス
 73
     1
 44
1.0
1001
ACAD
1000
MTEXTBEGIN
1070
    73
1070
     1
1070
    44
1040
1.0
1070
    74
1070
     0
1000
MTEXTEND
  0
MTEXT
  5
54896
330
1F
100
AcDbEntity
  8
AM_6
100
AcDbMText
 10
392.5000000000011
 20
284.5
 30
0.0
 40
3.2
 41
32.0
 71
     5
 72
     5
  1
B
 73
     1
 44
1.0
1001
ACAD
1000
MTEXTBEGIN
1070
    73
1070
     1
1070
    44
1040
1.0
1070
    74
1070
     0
1000
MTEXTEND
  0
LINE
  5
54897
330
1F
100
AcDbEntity
  8
AM_5
100
AcDbLine
 10
392.5000000000011
 20
280.5
 30
0.0
 11
392.5000000000011
 21
240.5
 31
0.0
  0
MTEXT
  5
54898
330
1F
100
AcDbEntity
  8
AM_6
100
AcDbMText
 10
400.500000000002
 20
276.5
 30
0.0
 40
3.2
 41
16.0
 71
     5
 72
     5
  1
ステンレス
 73
     1
 44
1.0
1001
ACAD
1000
MTEXTBEGIN
1070
    73
1070
     1
1070
    44
1040
1.0
1070
    74
1070
     0
1000
MTEXTEND
  0
MTEXT
  5
54899
330
1F
100
AcDbEntity
  8
AM_6
100
AcDbMText
 10
352.500000000002
 20
276.5
 30
0.0
 40
3.2
 41
16.0
 71
     5
 72
     5
  1
スチール
 73
     1
 44
1.0
1001
ACAD
1000
MTEXTBEGIN
1070
    73
1070
     1
1070
    44
1040
1.0
1070
    74
1070
     0
1000
MTEXTEND
  0
MTEXT
  5
5489A
330
1F
100
AcDbEntity
  8
AM_6
100
AcDbMText
 10
384.5000000000021
 20
268.4999999999999
 30
0.0
 40
3.2
 41
16.0
 71
     5
 72
     5
  1
5
 73
     1
 44
1.0
1001
ACAD
1000
MTEXTBEGIN
1070
    73
1070
     1
1070
    44
1040
1.0
1070
    74
1070
     0
1000
MTEXTEND
  0
LINE
  5
548BB
330
1F
100
AcDbEntity
  8
AM_5
100
AcDbLine
 10
376.5000000000011
 20
288.5
 30
0.0
 11
376.5000000000011
 21
240.5
 31
0.0
  0
MTEXT
  5
548BD
330
1F
100
AcDbEntity
  8
AM_6
100
AcDbMText
 10
360.5000000000011
 20
284.5
 30
0.0
 40
3.2
 41
32.0
 71
     5
 72
     5
  1
A
 73
     1
 44
1.0
1001
ACAD
1000
MTEXTBEGIN
1070
    73
1070
     1
1070
    44
1040
1.0
1070
    74
1070
     0
1000
MTEXTEND
  0
LINE
  5
548BE
330
1F
100
AcDbEntity
  8
AM_5
100
AcDbLine
 10
360.5000000000011
 20
280.5
 30
0.0
 11
360.5000000000011
 21
240.5
 31
0.0
  0
MTEXT
  5
548BF
330
1F
100
AcDbEntity
  8
AM_6
100
AcDbMText
 10
368.500000000002
 20
276.5
 30
0.0
 40
3.2
 41
16.0
 71
     5
 72
     5
  1
ステンレス
 73
     1
 44
1.0
1001
ACAD
1000
MTEXTBEGIN
1070
    73
1070
     1
1070
    44
1040
1.0
1070
    74
1070
     0
1000
MTEXTEND
  0
MTEXT
  5
548C0
330
1F
100
AcDbEntity
  8
AM_6
100
AcDbMText
 10
384.5000000000021
 20
276.5
 30
0.0
 40
3.2
 41
16.0
 71
     5
 72
     5
  1
スチール
 73
     1
 44
1.0
1001
ACAD
1000
MTEXTBEGIN
1070
    73
1070
     1
1070
    44
1040
1.0
1070
    74
1070
     0
1000
MTEXTEND
  0
MTEXT
  5
548C1
330
1F
100
AcDbEntity
  8
AM_6
100
AcDbMText
 10
352.500000000002
 20
256.5
 30
0.0
 40
3.2
 41
16.0
 71
     5
 72
     5
  1
64
 73
     1
 44
1.0
1001
ACAD
1000
MTEXTBEGIN
1070
    73
1070
     1
1070
    44
1040
1.0
1070
    74
1070
     0
1000
MTEXTEND
  0
MTEXT
  5
548C3
330
1F
100
AcDbEntity
  8
AM_6
100
AcDbMText
 10
368.500000000002
 20
256.5
 30
0.0
 40
3.2
 41
16.0
 71
     5
 72
     5
  1
65
 73
     1
 44
1.0
1001
ACAD
1000
MTEXTBEGIN
1070
    73
1070
     1
1070
    44
1040
1.0
1070
    74
1070
     0
1000
MTEXTEND
  0
MTEXT
  5
548C5
330
1F
100
AcDbEntity
  8
AM_6
100
AcDbMText
 10
296.5000000000011
 20
260.5
 30
0.0
 40
3.2
 41
32.0
 71
     5
 72
     5
  1
DEH-35-2
 73
     1
 44
1.0
1001
ACAD
1000
MTEXTBEGIN
1070
    73
1070
     1
1070
    44
1040
1.0
1070
    74
1070
     0
1000
MTEXTEND
  0
MTEXT
  5
548C6
330
1F
100
AcDbEntity
  8
AM_6
100
AcDbMText
 10
296.5000000000011
 20
244.5
 30
0.0
 40
3.2
 41
32.0
 71
     5
 72
     5
  1
DEH-36-2
 73
     1
 44
1.0
1001
ACAD
1000
MTEXTBEGIN
1070
    73
1070
     1
1070
    44
1040
1.0
1070
    74
1070
     0
1000
MTEXTEND
  0
MTEXT
  5
548C7
330
1F
100
AcDbEntity
  8
AM_6
100
AcDbMText
 10
328.5000000000011
 20
260.5
 30
0.0
 40
3.2
 41
32.0
 71
     5
 72
     5
  1
DEH-35S-2
 73
     1
 44
1.0
1001
ACAD
1000
MTEXTBEGIN
1070
    73
1070
     1
1070
    44
1040
1.0
1070
    74
1070
     0
1000
MTEXTEND
  0
MTEXT
  5
548C8
330
1F
100
AcDbEntity
  8
AM_6
100
AcDbMText
 10
328.5000000000011
 20
244.5
 30
0.0
 40
3.2
 41
32.0
 71
     5
 72
     5
  1
DEH-36S-2
 73
     1
 44
1.0
1001
ACAD
1000
MTEXTBEGIN
1070
    73
1070
     1
1070
    44
1040
1.0
1070
    74
1070
     0
1000
MTEXTEND
  0
LINE
  5
548C9
330
1F
100
AcDbEntity
  8
AM_5
100
AcDbLine
 10
280.5000000000011
 20
248.5
 30
0.0
 11
344.5000000000011
 21
248.5
 31
0.0
  0
LINE
  5
548CA
330
1F
100
AcDbEntity
  8
AM_0
100
AcDbLine
 10
280.5000000000011
 20
240.5
 30
0.0
 11
408.5000000000011
 21
240.5
 31
0.0
  0
LINE
  5
548CC
330
1F
100
AcDbEntity
  8
AM_5
100
AcDbLine
 10
376.5000000000011
 20
256.5
 30
0.0
 11
408.5000000000011
 21
256.5
 31
0.0
  0
MTEXT
  5
548CD
330
1F
100
AcDbEntity
  8
AM_6
100
AcDbMText
 10
400.500000000002
 20
268.4999999999999
 30
0.0
 40
3.2
 41
16.0
 71
     5
 72
     5
  1
5.2
 73
     1
 44
1.0
1001
ACAD
1000
MTEXTBEGIN
1070
    73
1070
     1
1070
    44
1040
1.0
1070
    74
1070
     0
1000
MTEXTEND
  0
MTEXT
  5
548CE
330
1F
100
AcDbEntity
  8
AM_6
100
AcDbMText
 10
400.500000000002
 20
252.4999999999999
 30
0.0
 40
3.2
 41
16.0
 71
     5
 72
     5
  1
5.2
 73
     1
 44
1.0
1001
ACAD
1000
MTEXTBEGIN
1070
    73
1070
     1
1070
    44
1040
1.0
1070
    74
1070
     0
1000
MTEXTEND
  0
MTEXT
  5
548CF
330
1F
100
AcDbEntity
  8
AM_6
100
AcDbMText
 10
384.5000000000021
 20
252.4999999999999
 30
0.0
 40
3.2
 41
16.0
 71
     5
 72
     5
  1
5
 73
     1
 44
1.0
1001
ACAD
1000
MTEXTBEGIN
1070
    73
1070
     1
1070
    44
1040
1.0
1070
    74
1070
     0
1000
MTEXTEND
  0
LINE
  5
548D4
330
1F
100
AcDbEntity
  8
AM_5
100
AcDbLine
 10
376.5000000000011
 20
248.5
 30
0.0
 11
408.5000000000008
 21
248.5000000000001
 31
0.0
  0
LINE
  5
548D5
330
1F
100
AcDbEntity
  8
AM_5
100
AcDbLine
 10
376.5000000000011
 20
264.5000000000001
 30
0.0
 11
408.5000000000008
 21
264.5000000000001
 31
0.0
  0
MTEXT
  5
5F7F0
330
1F
100
AcDbEntity
  8
AM_6
100
AcDbMText
 10
400.5000000000018
 20
260.5
 30
0.0
 40
3.2
 41
16.0
 71
     5
 72
     5
  1
-
 73
     1
 44
1.0
1001
ACAD
1000
MTEXTBEGIN
1070
    73
1070
     1
1070
    44
1040
1.0
1070
    74
1070
     0
1000
MTEXTEND
  0
MTEXT
  5
5F7F1
330
1F
100
AcDbEntity
  8
AM_6
100
AcDbMText
 10
384.5000000000021
 20
260.5
 30
0.0
 40
3.2
 41
16.0
 71
     5
 72
     5
  1
-
 73
     1
 44
1.0
1001
ACAD
1000
MTEXTBEGIN
1070
    73
1070
     1
1070
    44
1040
1.0
1070
    74
1070
     0
1000
MTEXTEND
  0
MTEXT
  5
5F7F2
330
1F
100
AcDbEntity
  8
AM_6
100
AcDbMText
 10
384.5000000000021
 20
244.5
 30
0.0
 40
3.2
 41
16.0
 71
     5
 72
     5
  1
-
 73
     1
 44
1.0
1001
ACAD
1000
MTEXTBEGIN
1070
    73
1070
     1
1070
    44
1040
1.0
1070
    74
1070
     0
1000
MTEXTEND
  0
MTEXT
  5
5F7F3
330
1F
100
AcDbEntity
  8
AM_6
100
AcDbMText
 10
400.500000000002
 20
244.5
 30
0.0
 40
3.2
 41
16.0
 71
     5
 72
     5
  1
-
 73
     1
 44
1.0
1001
ACAD
1000
MTEXTBEGIN
1070
    73
1070
     1
1070
    44
1040
1.0
1070
    74
1070
     0
1000
MTEXTEND
  0
LINE
  5
648E1
330
1F
100
AcDbEntity
  8
AM_6
100
AcDbLine
 10
69.50000921258425
 20
196.2499999999925
 30
0.0
 11
69.50000921258425
 21
196.2499999999925
 31
0.0
  0
ARC
  5
64D1A
330
1F
100
AcDbEntity
  8
AM_0
100
AcDbCircle
 10
69.50000921258425
 20
196.2499999999925
 30
0.0
 40
6.5
100
AcDbArc
 50
150.0000000000002
 51
90.00000000000003
  0
LINE
  5
64D90
330
1F
100
AcDbEntity
  8
AM_0
100
AcDbLine
 10
174.9999907874157
 20
199.7499999999925
 30
0.0
 11
174.9999907874157
 21
202.7499999999925
 31
0.0
  0
LINE
  5
64D91
330
1F
100
AcDbEntity
  8
AM_0
100
AcDbLine
 10
191.4999907874157
 20
199.7499999999925
 30
0.0
 11
191.4999907874157
 21
202.7499999999925
 31
0.0
  0
LINE
  5
64D92
330
1F
100
AcDbEntity
  8
AM_0
100
AcDbLine
 10
135.4999907874157
 20
202.7499999999925
 30
0.0
 11
135.4999907874157
 21
199.7499999999925
 31
0.0
  0
LINE
  5
64D93
102
{ACAD_REACTORS
330
64DA0
102
}
330
1F
100
AcDbEntity
  8
AM_0
100
AcDbLine
 10
172.9772163624674
 20
199.7499999999925
 30
0.0
 11
191.4999907874157
 21
199.7499999999925
 31
0.0
  0
CIRCLE
  5
64D94
330
1F
100
AcDbEntity
  8
AM_0
100
AcDbCircle
 10
167.4999907874157
 20
196.2499999999925
 30
0.0
 40
4.5
  0
ARC
  5
64D95
330
1F
100
AcDbEntity
  8
AM_0
100
AcDbCircle
 10
167.4999907874157
 20
196.2499999999925
 30
0.0
 40
6.5
100
AcDbArc
 50
150.0
 51
90.0
  0
LINE
  5
64D96
330
1F
100
AcDbEntity
  8
AM_0
100
AcDbLine
 10
161.8708256627165
 20
199.4999999998187
 30
0.0
 11
163.6028764704156
 21
198.4999999999925
 31
0.0
  0
LINE
  5
64D97
102
{ACAD_REACTORS
330
64DA0
102
}
330
1F
100
AcDbEntity
  8
AM_0
100
AcDbLine
 10
167.4999907874157
 20
202.7499999999925
 30
0.0
 11
191.4999907874157
 21
202.7499999999925
 31
0.0
  0
LINE
  5
64D98
330
1F
100
AcDbEntity
  8
AM_0
100
AcDbLine
 10
135.4999907874157
 20
202.7499999999925
 30
0.0
 11
167.4999907874157
 21
202.7499999999925
 31
0.0
  0
LINE
  5
64D99
330
1F
100
AcDbEntity
  8
AM_0
100
AcDbLine
 10
135.4999907874157
 20
199.7499999999925
 30
0.0
 11
164.6715636626695
 21
199.7499999999925
 31
0.0
  0
LINE
  5
64D9A
330
1F
100
AcDbEntity
  8
AM_7
 48
0.5
370
     9
100
AcDbLine
 10
145.4999907874157
 20
196.4999999999925
 30
0.0
 11
145.4999907874157
 21
205.4999999999925
 31
0.0
1001
GENIUS_GENODEF_13
1002
{
1000
HIER
1070
     0
1002
}
1002
{
1000
MANEDIT
1070
     0
1002
}
1002
{
1000
NOSEL
1070
     0
1002
}
1002
{
1000
BEHIND
1070
     0
1002
}
1002
{
1000
OTHER
1070
     0
1002
}
1002
{
1000
REACTOR
1002
}
1001
GENIUS_GENOBJ-N-CEN_13
1002
{
1000
OWNER
1000
GEN
1002
}
1001
GENIUS_GENCEN_19
1002
{
1040
3.0
1002
}
  0
LINE
  5
64D9B
330
1F
100
AcDbEntity
  8
AM_7
 48
0.5
370
     9
100
AcDbLine
 10
183.4999907874157
 20
196.4999999999925
 30
0.0
 11
183.4999907874157
 21
205.4999999999925
 31
0.0
1001
GENIUS_GENODEF_13
1002
{
1000
HIER
1070
     0
1002
}
1002
{
1000
MANEDIT
1070
     0
1002
}
1002
{
1000
NOSEL
1070
     0
1002
}
1002
{
1000
BEHIND
1070
     0
1002
}
1002
{
1000
OTHER
1070
     0
1002
}
1002
{
1000
REACTOR
1002
}
1001
GENIUS_GENOBJ-N-CEN_13
1002
{
1000
OWNER
1000
GEN
1002
}
1001
GENIUS_GENCEN_19
1002
{
1040
3.0
1002
}
  0
LINE
  5
64D9C
330
1F
100
AcDbEntity
  8
AM_7
370
     9
100
AcDbLine
 10
167.4999907874157
 20
186.9999999999925
 30
0.0
 11
167.4999907874157
 21
205.4999999999925
 31
0.0
1001
GENIUS_GENOBJ-N-CEN_13
1002
{
1000
OWNER
1000
GEN
1002
}
1001
GENIUS_GENODEF_13
1002
{
1000
HIER
1070
     0
1002
}
1002
{
1000
MANEDIT
1070
     0
1002
}
1002
{
1000
NOSEL
1070
     0
1002
}
1002
{
1000
BEHIND
1070
     0
1002
}
1002
{
1000
OTHER
1070
     0
1002
}
1002
{
1000
REACTOR
1002
}
1001
GENIUS_GENCEN_19
1002
{
1040
3.0
1002
}
  0
LINE
  5
64D9D
330
1F
100
AcDbEntity
  8
AM_7
370
     9
100
AcDbLine
 10
176.7499907874157
 20
196.2499999999925
 30
0.0
 11
158.2499907874157
 21
196.2499999999925
 31
0.0
1001
GENIUS_GENOBJ-N-CEN_13
1002
{
1000
OWNER
1000
GEN
1002
}
1001
GENIUS_GENODEF_13
1002
{
1000
HIER
1070
     0
1002
}
1002
{
1000
MANEDIT
1070
     0
1002
}
1002
{
1000
NOSEL
1070
     0
1002
}
1002
{
1000
BEHIND
1070
     0
1002
}
1002
{
1000
OTHER
1070
     0
1002
}
1002
{
1000
REACTOR
1002
}
1001
GENIUS_GENCEN_19
1002
{
1040
3.0
1002
}
  0
DIMENSION
  5
64D9E
102
{ACAD_XDICTIONARY
360
64D9F
102
}
102
{ACAD_REACTORS
330
64DA0
102
}
330
1F
100
AcDbEntity
  8
AM_5
100
AcDbDimension
  2
*D39
 10
201.4999907874158
 20
199.7499999999927
 30
0.0
 11
198.8999907874157
 21
196.0033333333261
 31
0.0
 70
    32
 71
     5
 42
2.999999999999772
  3
SYS$0
100
AcDbAlignedDimension
 13
191.4999907874157
 23
202.7499999999925
 33
0.0
 14
191.4999907874157
 24
199.7499999999927
 34
0.0
 50
270.0
100
AcDbRotatedDimension
1001
ACAD
1000
DSTYLE
1002
{
1070
   271
1070
     1
1002
}
  0
DIMENSION
  5
64DA1
330
1F
100
AcDbEntity
  8
AM_5
100
AcDbDimension
  2
*D38
 10
127.4999907874157
 20
189.7499999999925
 30
0.0
 11
124.8999907874157
 21
196.2499999999925
 31
0.0
 70
    32
  1
13
 71
     5
 42
13.0
  3
SYS$0
100
AcDbAlignedDimension
 13
135.4999907874157
 23
202.7499999999925
 33
0.0
 14
167.4999907874157
 24
189.7499999999925
 34
0.0
 50
270.0
100
AcDbRotatedDimension
1001
ACAD
1000
DSTYLE
1002
{
1070
   271
1070
     1
1002
}
  0
LINE
  5
64DA2
330
1F
100
AcDbEntity
  8
AM_6
100
AcDbLine
 10
167.4999907874157
 20
196.2499999999925
 30
0.0
 11
167.4999907874157
 21
196.2499999999925
 31
0.0
  0
LINE
  5
64DD9
330
1F
100
AcDbEntity
  8
AM_0
100
AcDbLine
 10
160.9999993059011
 20
90.20000299999992
 30
0.0
 11
160.9999993059011
 21
74.50000299999988
 31
0.0
  0
ARC
  5
64DDA
330
1F
100
AcDbEntity
  8
AM_0
100
AcDbCircle
 10
173.999999305901
 20
124.0000029999999
 30
0.0
 40
1.0
100
AcDbArc
 50
270.0
 51
0.0
  0
LINE
  5
64DDB
330
1F
100
AcDbEntity
  8
AM_0
100
AcDbLine
 10
161.7499993059011
 20
91.00000299999988
 30
0.0
 11
161.7499993059011
 21
90.20000299999992
 31
0.0
  0
LINE
  5
64DDC
330
1F
100
AcDbEntity
  8
AM_0
100
AcDbLine
 10
161.7499993059011
 20
90.20000299999992
 30
0.0
 11
173.249999305901
 21
90.20000299999992
 31
0.0
  0
LINE
  5
64DDD
330
1F
100
AcDbEntity
  8
AM_0
100
AcDbLine
 10
161.7499993059011
 20
123.8000029999998
 30
0.0
 11
161.7499993059011
 21
123.0000029999999
 31
0.0
  0
LINE
  5
64DDE
330
1F
100
AcDbEntity
  8
AM_0
100
AcDbLine
 10
161.7499993059011
 20
123.0000029999999
 30
0.0
 11
173.249999305901
 21
123.0000029999999
 31
0.0
  0
LINE
  5
64DDF
330
1F
100
AcDbEntity
  8
AM_0
100
AcDbLine
 10
173.249999305901
 20
123.0000029999999
 30
0.0
 11
173.249999305901
 21
123.8000029999998
 31
0.0
  0
LINE
  5
64DE0
330
1F
100
AcDbEntity
  8
AM_0
100
AcDbLine
 10
173.999999305901
 20
123.8000029999998
 30
0.0
 11
161.7499993059011
 21
123.8000029999998
 31
0.0
  0
ARC
  5
64DE1
330
1F
100
AcDbEntity
  8
AM_0
100
AcDbCircle
 10
167.499999305901
 20
136.6999999999998
 30
0.0
 40
5.299999999999999
100
AcDbArc
 50
31.89079999998589
 51
148.1090089999903
  0
ARC
  5
64DE2
330
1F
100
AcDbEntity
  8
AM_0
100
AcDbCircle
 10
167.499999305901
 20
77.30000199999995
 30
0.0
 40
5.299999999999999
100
AcDbArc
 50
211.8909910000096
 51
328.1090089999903
  0
ARC
  5
64DE3
102
{ACAD_REACTORS
330
64E1E
102
}
330
1F
100
AcDbEntity
  8
AM_0
100
AcDbCircle
 10
186.999999305901
 20
135.0000029999999
 30
0.0
 40
4.5
100
AcDbArc
 50
0.0
 51
90.0
  0
ARC
  5
64DE4
330
1F
100
AcDbEntity
  8
AM_0
100
AcDbCircle
 10
186.999999305901
 20
79.00000099999989
 30
0.0
 40
4.5
100
AcDbArc
 50
270.0
 51
0.0
  0
ARC
  5
64DE5
330
1F
100
AcDbEntity
  8
AM_0
100
AcDbCircle
 10
139.9999993059011
 20
79.00000099999989
 30
0.0
 40
4.5
100
AcDbArc
 50
180.0
 51
270.0
  0
ARC
  5
64DE6
330
1F
100
AcDbEntity
  8
AM_0
100
AcDbCircle
 10
139.9999993059011
 20
135.0000029999999
 30
0.0
 40
4.5
100
AcDbArc
 50
90.0
 51
180.0
  0
LINE
  5
64DE7
330
1F
100
AcDbEntity
  8
AM_0
100
AcDbLine
 10
173.249999305901
 20
91.00000299999988
 30
0.0
 11
161.7499993059011
 21
91.00000299999988
 31
0.0
  0
LINE
  5
64DE8
330
1F
100
AcDbEntity
  8
AM_0
100
AcDbLine
 10
173.249999305901
 20
90.20000299999992
 30
0.0
 11
173.249999305901
 21
91.00000299999988
 31
0.0
  0
LINE
  5
64DE9
330
1F
100
AcDbEntity
  8
AM_0
100
AcDbLine
 10
173.999999305901
 20
123.0000029999999
 30
0.0
 11
173.999999305901
 21
91.00000299999988
 31
0.0
  0
LINE
  5
64DEA
330
1F
100
AcDbEntity
  8
AM_0
100
AcDbLine
 10
160.9999993059011
 20
123.8000029999998
 30
0.0
 11
173.749999305901
 21
123.8000029999998
 31
0.0
  0
LINE
  5
64DEB
330
1F
100
AcDbEntity
  8
AM_0
100
AcDbLine
 10
160.9999993059011
 20
90.20000299999992
 30
0.0
 11
173.999999305901
 21
90.20000299999992
 31
0.0
  0
LINE
  5
64DEC
330
1F
100
AcDbEntity
  8
AM_0
100
AcDbLine
 10
175.999999305901
 20
139.5000029999998
 30
0.0
 11
186.999999305901
 21
139.5000029999998
 31
0.0
  0
LINE
  5
64DED
102
{ACAD_REACTORS
330
64E1E
102
}
330
1F
100
AcDbEntity
  8
AM_0
100
AcDbLine
 10
175.999999305901
 20
74.50000299999988
 30
0.0
 11
186.999999305901
 21
74.50000299999988
 31
0.0
  0
LINE
  5
64DEE
330
1F
100
AcDbEntity
  8
AM_0
100
AcDbLine
 10
174.999999305901
 20
90.00000299999987
 30
0.0
 11
174.999999305901
 21
75.50000299999988
 31
0.0
  0
LINE
  5
64DEF
330
1F
100
AcDbEntity
  8
AM_0
100
AcDbLine
 10
173.999999305901
 20
90.20000299999992
 30
0.0
 11
173.999999305901
 21
74.50000299999988
 31
0.0
  0
LINE
  5
64DF0
330
1F
100
AcDbEntity
  8
AM_0
100
AcDbLine
 10
160.9999993059011
 20
91.00000299999988
 30
0.0
 11
173.999999305901
 21
91.00000299999988
 31
0.0
  0
LINE
  5
64DF1
330
1F
100
AcDbEntity
  8
AM_0
100
AcDbLine
 10
160.9999993059011
 20
123.0000029999999
 30
0.0
 11
173.999999305901
 21
123.0000029999999
 31
0.0
  0
LINE
  5
64DF2
330
1F
100
AcDbEntity
  8
AM_0
100
AcDbLine
 10
159.999999305901
 20
122.8000029999998
 30
0.0
 11
159.999999305901
 21
91.20000299999992
 31
0.0
  0
LINE
  5
64DF3
330
1F
100
AcDbEntity
  8
AM_0
100
AcDbLine
 10
174.999999305901
 20
138.5000029999998
 30
0.0
 11
174.999999305901
 21
124.0000029999999
 31
0.0
  0
LINE
  5
64DF4
330
1F
100
AcDbEntity
  8
AM_0
100
AcDbLine
 10
173.999999305901
 20
139.5000029999998
 30
0.0
 11
173.999999305901
 21
123.8000029999998
 31
0.0
  0
LINE
  5
64DF5
330
1F
100
AcDbEntity
  8
AM_0
100
AcDbLine
 10
160.9999993059011
 20
123.0000029999999
 30
0.0
 11
160.9999993059011
 21
91.00000299999988
 31
0.0
  0
LINE
  5
64DF6
330
1F
100
AcDbEntity
  8
AM_0
100
AcDbLine
 10
139.9999993059011
 20
74.50000299999988
 30
0.0
 11
173.999999305901
 21
74.50000299999988
 31
0.0
  0
LINE
  5
64DF7
330
1F
100
AcDbEntity
  8
AM_0
100
AcDbLine
 10
139.9999993059011
 20
139.5000029999998
 30
0.0
 11
173.999999305901
 21
139.5000029999998
 31
0.0
  0
LINE
  5
64DF8
330
1F
100
AcDbEntity
  8
AM_0
100
AcDbLine
 10
191.499999305901
 20
135.0000029999999
 30
0.0
 11
191.499999305901
 21
79.00000099999989
 31
0.0
  0
ARC
  5
64DF9
330
1F
100
AcDbEntity
  8
AM_0
100
AcDbCircle
 10
160.9999993059011
 20
91.20000299999992
 30
0.0
 40
1.0
100
AcDbArc
 50
180.0
 51
270.0
  0
ARC
  5
64DFA
330
1F
100
AcDbEntity
  8
AM_0
100
AcDbCircle
 10
173.999999305901
 20
90.00000299999987
 30
0.0
 40
1.0
100
AcDbArc
 50
0.0
 51
90.0
  0
ARC
  5
64DFE
330
1F
100
AcDbEntity
  8
AM_0
100
AcDbCircle
 10
160.9999993059011
 20
122.8000029999998
 30
0.0
 40
1.0
100
AcDbArc
 50
90.0
 51
180.0
  0
LINE
  5
64DFF
330
1F
100
AcDbEntity
  8
AM_0
100
AcDbLine
 10
135.499999305901
 20
135.0000029999999
 30
0.0
 11
135.499999305901
 21
79.00000099999989
 31
0.0
  0
ARC
  5
64E00
330
1F
100
AcDbEntity
  8
AM_0
100
AcDbCircle
 10
175.999999305901
 20
138.5000029999998
 30
0.0
 40
1.0
100
AcDbArc
 50
90.0
 51
180.0
  0
ARC
  5
64E01
330
1F
100
AcDbEntity
  8
AM_0
100
AcDbCircle
 10
175.999999305901
 20
75.50000299999988
 30
0.0
 40
1.0
100
AcDbArc
 50
180.0
 51
270.0
  0
LINE
  5
64E02
330
1F
100
AcDbEntity
  8
AM_0
100
AcDbLine
 10
160.9999993059011
 20
139.5000029999998
 30
0.0
 11
160.9999993059011
 21
123.8000029999998
 31
0.0
  0
LINE
  5
64E08
330
1F
100
AcDbEntity
  8
AM_7
370
     9
100
AcDbLine
 10
167.5000085184848
 20
144.9999999999927
 30
0.0
 11
167.4999989273016
 21
69.000002
 31
0.0
1001
GENIUS_GENODEF_13
1002
{
1000
HIER
1070
     0
1002
}
1002
{
1000
MANEDIT
1070
     0
1002
}
1002
{
1000
NOSEL
1070
     0
1002
}
1002
{
1000
BEHIND
1070
     0
1002
}
1002
{
1000
OTHER
1070
     0
1002
}
1002
{
1000
REACTOR
1002
}
1001
GENIUS_GENOBJ-N-CEN_13
1002
{
1000
OWNER
1000
GEN
1002
}
1001
GENIUS_GENCEN_19
1002
{
1040
3.0
1002
}
  0
DIMENSION
  5
64E1C
102
{ACAD_XDICTIONARY
360
64E1D
102
}
102
{ACAD_REACTORS
330
64E1E
102
}
330
1F
100
AcDbEntity
  8
AM_5
100
AcDbDimension
  2
*D40
 10
201.4999907874158
 20
74.50000299999988
 30
0.0
 11
198.8999907874157
 21
107.0000029999999
 31
0.0
 70
    32
  1
A
 71
     5
 42
64.99999999999999
  3
SYS$0
100
AcDbAlignedDimension
 13
186.999999305901
 23
139.5000029999998
 33
0.0
 14
186.999999305901
 24
74.50000299999988
 34
0.0
 50
90.0
100
AcDbRotatedDimension
1001
ACAD
1000
DSTYLE
1002
{
1070
   271
1070
     1
1002
}
  0
ARC
  5
64EA7
330
1F
100
AcDbEntity
  8
AM_0
100
AcDbCircle
 10
265.4999904088145
 20
196.2499999999925
 30
0.0
 40
6.5
100
AcDbArc
 50
270.0
 51
209.9999999999996
  0
ARC
  5
64EF9
330
1F
100
AcDbEntity
  8
AM_0
100
AcDbCircle
 10
363.4999999999982
 20
196.2499999999925
 30
0.0
 40
6.5
100
AcDbArc
 50
270.0
 51
209.9999999999995
  0
CIRCLE
  5
64EFA
330
1F
100
AcDbEntity
  8
AM_0
100
AcDbCircle
 10
363.4999999999982
 20
196.2499999999925
 30
0.0
 40
4.5
  0
LINE
  5
64EFB
330
1F
100
AcDbEntity
  8
AM_0
100
AcDbLine
 10
368.9772255750498
 20
199.7499999999925
 30
0.0
 11
387.4999999999982
 21
199.7499999999925
 31
0.0
  0
LINE
  5
64EFC
330
1F
100
AcDbEntity
  8
AM_0
100
AcDbLine
 10
331.4999999999982
 20
189.7499999999925
 30
0.0
 11
331.4999999999982
 21
192.7499999999925
 31
0.0
  0
LINE
  5
64EFD
330
1F
100
AcDbEntity
  8
AM_0
100
AcDbLine
 10
387.4999999999982
 20
199.7499999999925
 30
0.0
 11
387.4999999999982
 21
202.7499999999925
 31
0.0
  0
LINE
  5
64EFE
330
1F
100
AcDbEntity
  8
AM_0
100
AcDbLine
 10
370.9999999999982
 20
199.7499999999925
 30
0.0
 11
370.9999999999982
 21
202.7499999999925
 31
0.0
  0
LINE
  5
64EFF
330
1F
100
AcDbEntity
  8
AM_0
100
AcDbLine
 10
357.8708348755847
 20
192.9999999996714
 30
0.0
 11
359.602885682998
 21
193.9999999999925
 31
0.0
  0
LINE
  5
64F00
330
1F
100
AcDbEntity
  8
AM_0
100
AcDbLine
 10
363.4999999999982
 20
202.7499999999925
 30
0.0
 11
387.4999999999982
 21
202.7499999999925
 31
0.0
  0
LINE
  5
64F01
330
1F
100
AcDbEntity
  8
AM_0
100
AcDbLine
 10
331.4999999999982
 20
189.7499999999925
 30
0.0
 11
363.4999999999982
 21
189.7499999999925
 31
0.0
  0
LINE
  5
64F02
330
1F
100
AcDbEntity
  8
AM_0
100
AcDbLine
 10
331.4999999999982
 20
192.7499999999925
 30
0.0
 11
360.671572875252
 21
192.7499999999925
 31
0.0
  0
LINE
  5
64F03
330
1F
100
AcDbEntity
  8
AM_7
 48
0.5
370
     9
100
AcDbLine
 10
379.4999999999982
 20
205.7499999999925
 30
0.0
 11
379.4999999999982
 21
196.7499999999925
 31
0.0
1001
GENIUS_GENODEF_13
1002
{
1000
HIER
1070
     0
1002
}
1002
{
1000
MANEDIT
1070
     0
1002
}
1002
{
1000
NOSEL
1070
     0
1002
}
1002
{
1000
BEHIND
1070
     0
1002
}
1002
{
1000
OTHER
1070
     0
1002
}
1002
{
1000
REACTOR
1002
}
1001
GENIUS_GENOBJ-N-CEN_13
1002
{
1000
OWNER
1000
GEN
1002
}
1001
GENIUS_GENCEN_19
1002
{
1040
3.0
1002
}
  0
LINE
  5
64F04
330
1F
100
AcDbEntity
  8
AM_7
 48
0.5
370
     9
100
AcDbLine
 10
341.4999999999982
 20
195.9999999999925
 30
0.0
 11
341.4999999999982
 21
186.9999999999925
 31
0.0
1001
GENIUS_GENODEF_13
1002
{
1000
HIER
1070
     0
1002
}
1002
{
1000
MANEDIT
1070
     0
1002
}
1002
{
1000
NOSEL
1070
     0
1002
}
1002
{
1000
BEHIND
1070
     0
1002
}
1002
{
1000
OTHER
1070
     0
1002
}
1002
{
1000
REACTOR
1002
}
1001
GENIUS_GENOBJ-N-CEN_13
1002
{
1000
OWNER
1000
GEN
1002
}
1001
GENIUS_GENCEN_19
1002
{
1040
3.0
1002
}
  0
LINE
  5
64F05
330
1F
100
AcDbEntity
  8
AM_7
370
     9
100
AcDbLine
 10
363.4999999999982
 20
205.4999999999925
 30
0.0
 11
363.4999999999982
 21
186.9999999999925
 31
0.0
1001
GENIUS_GENODEF_13
1002
{
1000
HIER
1070
     0
1002
}
1002
{
1000
MANEDIT
1070
     0
1002
}
1002
{
1000
NOSEL
1070
     0
1002
}
1002
{
1000
BEHIND
1070
     0
1002
}
1002
{
1000
OTHER
1070
     0
1002
}
1002
{
1000
REACTOR
1002
}
1001
GENIUS_GENOBJ-N-CEN_13
1002
{
1000
OWNER
1000
GEN
1002
}
1001
GENIUS_GENCEN_19
1002
{
1040
3.0
1002
}
  0
LINE
  5
64F06
330
1F
100
AcDbEntity
  8
AM_7
370
     9
100
AcDbLine
 10
354.2499999999982
 20
196.2499999999925
 30
0.0
 11
372.7499999999982
 21
196.2499999999925
 31
0.0
1001
GENIUS_GENODEF_13
1002
{
1000
HIER
1070
     0
1002
}
1002
{
1000
MANEDIT
1070
     0
1002
}
1002
{
1000
NOSEL
1070
     0
1002
}
1002
{
1000
BEHIND
1070
     0
1002
}
1002
{
1000
OTHER
1070
     0
1002
}
1002
{
1000
REACTOR
1002
}
1001
GENIUS_GENOBJ-N-CEN_13
1002
{
1000
OWNER
1000
GEN
1002
}
1001
GENIUS_GENCEN_19
1002
{
1040
3.0
1002
}
  0
DIMENSION
  5
64F07
330
1F
100
AcDbEntity
  8
AM_5
100
AcDbDimension
  2
*D41
 10
397.4999999999982
 20
199.7499999999927
 30
0.0
 11
394.8999999999981
 21
196.0033333333261
 31
0.0
 70
    32
 71
     5
 42
2.999999999999772
  3
SYS$0
100
AcDbAlignedDimension
 13
387.4999999999982
 23
202.7499999999925
 33
0.0
 14
387.4999999999982
 24
199.7499999999927
 34
0.0
 50
270.0
100
AcDbRotatedDimension
1001
ACAD
1000
DSTYLE
1002
{
1070
   271
1070
     1
1002
}
  0
DIMENSION
  5
64F08
330
1F
100
AcDbEntity
  8
AM_5
100
AcDbDimension
  2
*D42
 10
323.4999999999982
 20
202.7499999999925
 30
0.0
 11
320.8999999999981
 21
196.2499999999925
 31
0.0
 70
    32
  1
13
 71
     5
 42
13.0
  3
SYS$0
100
AcDbAlignedDimension
 13
331.4999999999982
 23
189.7499999999925
 33
0.0
 14
363.4999999999982
 24
202.7499999999925
 34
0.0
 50
270.0
100
AcDbRotatedDimension
1001
ACAD
1000
DSTYLE
1002
{
1070
   271
1070
     1
1002
}
  0
ENDSEC
  0
SECTION
  2
OBJECTS
  0
DICTIONARY
  5
C
330
0
100
AcDbDictionary
281
     1
  3
ACAD_COLOR
350
C45B
  3
ACAD_GROUP
350
D
  3
ACAD_LAYOUT
350
1A
  3
ACAD_MATERIAL
350
C446
  3
ACAD_MLINESTYLE
350
17
  3
ACAD_PLOTSETTINGS
350
19
  3
ACAD_PLOTSTYLENAME
350
E
  3
ACAD_TABLESTYLE
350
C45C
  3
ACAD_VISUALSTYLE
350
C44A
  3
AcadDim
350
4DE64
  3
AcAsAppObject
350
3DA1
  3
ACASGREF_MASTER
350
3DE9
  3
AcDbVariableDictionary
350
34
  3
AcmDictionary
350
47
  3
AD_GREF_MODULE
350
3DEA
  3
AD_MAPI_MODULE
350
3E06
  3
AMG
350
2B
  3
AMGSNAPSETTINGS
350
7D
  3
ASE_INDEX_DICTIONARY
350
6169A
  3
DWGPROPS
350
65120
  3
MAPISURF_MODULE
350
3DEB
  0
DICTIONARY
  5
3F95
330
2
100
AcDbDictionary
280
     1
281
     1
  3
ACAD_LAYERFILTERS
360
CB0C
  3
ACAD_LAYERSTATES
360
3F96
  3
ACLYDICTIONARY
360
CB0B
  3
AMLAYER_GROUPCOLORS
360
CB2F
  0
DICTIONARY
  5
8A
330
1F
100
AcDbDictionary
280
     1
281
     1
  3
ACAD_SORTENTS
360
14A89
  0
DICTIONARY
  5
528D5
330
528C8
100
AcDbDictionary
280
     1
281
     1
  3
ACAD_DIMASSOC
360
528D6
  0
DICTIONARY
  5
528F6
330
528E9
100
AcDbDictionary
280
     1
281
     1
  3
ACAD_DIMASSOC
360
528F7
  0
DICTIONARY
  5
5290E
330
52901
100
AcDbDictionary
280
     1
281
     1
  3
ACAD_DIMASSOC
360
5290F
  0
DICTIONARY
  5
5294A
330
5293D
100
AcDbDictionary
280
     1
281
     1
  3
ACAD_DIMASSOC
360
5294B
  0
DICTIONARY
  5
5298F
330
52982
100
AcDbDictionary
280
     1
281
     1
  3
ACAD_DIMASSOC
360
52990
  0
DICTIONARY
  5
529A7
330
5299A
100
AcDbDictionary
280
     1
281
     1
  3
ACAD_DIMASSOC
360
529A8
  0
DICTIONARY
  5
52A0B
330
529FC
100
AcDbDictionary
280
     1
281
     1
  3
ACAD_DIMASSOC
360
52A0C
  0
DICTIONARY
  5
52A44
330
52A37
100
AcDbDictionary
280
     1
281
     1
  3
ACAD_DIMASSOC
360
52A45
  0
DICTIONARY
  5
52A65
330
52A58
100
AcDbDictionary
280
     1
281
     1
  3
ACAD_DIMASSOC
360
52A66
  0
DICTIONARY
  5
54655
330
5464B
100
AcDbDictionary
280
     1
281
     1
  3
ACAD_DIMASSOC
360
5465C
  0
DICTIONARY
  5
54785
330
5477B
100
AcDbDictionary
280
     1
281
     1
  3
ACAD_DIMASSOC
360
5478C
  0
DICTIONARY
  5
64D9F
330
64D9E
100
AcDbDictionary
280
     1
281
     1
  3
ACAD_DIMASSOC
360
64DA0
  0
DICTIONARY
  5
64E1D
330
64E1C
100
AcDbDictionary
280
     1
281
     1
  3
ACAD_DIMASSOC
360
64E1E
  0
DICTIONARY
  5
C45B
102
{ACAD_REACTORS
330
C
102
}
330
C
100
AcDbDictionary
281
     1
  0
DICTIONARY
  5
D
102
{ACAD_REACTORS
330
C
102
}
330
C
100
AcDbDictionary
281
     1
  0
DICTIONARY
  5
1A
102
{ACAD_REACTORS
330
C
102
}
330
C
100
AcDbDictionary
281
     1
  3
Model
350
22
  3
ﾚｲｱｳﾄ1
350
1E
  3
ﾚｲｱｳﾄ2
350
26
  0
DICTIONARY
  5
C446
102
{ACAD_REACTORS
330
C
102
}
330
C
100
AcDbDictionary
281
     1
  3
ByBlock
350
C448
  3
ByLayer
350
C447
  3
Global
350
C449
  0
DICTIONARY
  5
17
102
{ACAD_REACTORS
330
C
102
}
330
C
100
AcDbDictionary
281
     1
  3
Standard
350
18
  0
DICTIONARY
  5
19
102
{ACAD_REACTORS
330
C
102
}
330
C
100
AcDbDictionary
281
     1
  3
-00
350
C85D
  0
ACDBDICTIONARYWDFLT
  5
E
102
{ACAD_REACTORS
330
C
102
}
330
C
100
AcDbDictionary
281
     1
  3
Normal
350
F
100
AcDbDictionaryWithDefault
340
F
  0
DICTIONARY
  5
C45C
102
{ACAD_REACTORS
330
C
102
}
330
C
100
AcDbDictionary
281
     1
  3
Standard
350
C45D
  0
DICTIONARY
  5
C44A
102
{ACAD_REACTORS
330
C
102
}
330
C
100
AcDbDictionary
281
     1
  3
2dWireframe
350
C450
  3
3D Hidden
350
C452
  3
3dWireframe
350
C451
  3
Basic
350
C44F
  3
Brighten
350
C456
  3
ColorChange
350
C45A
  3
Conceptual
350
C453
  3
Dim
350
C455
  3
Facepattern
350
C459
  3
Flat
350
C44B
  3
FlatWithEdges
350
C44C
  3
Gouraud
350
C44D
  3
GouraudWithEdges
350
C44E
  3
Linepattern
350
C458
  3
Realistic
350
C454
  3
Thicken
350
C457
  0
XRECORD
  5
4DE64
102
{ACAD_REACTORS
330
C
102
}
330
C
100
AcDbXrecord
280
     1
 90
   990106
  3

 60
     0
 61
     0
 62
     1
 63
     3
 64
     0
 65
     0
 66
     0
 67
     3
 68
     1
 69
     0
 70
     0
 71
     0
 72
     0
 40
0.0
170
     0
  0
ACAD_PROXY_OBJECT
  5
3DA1
102
{ACAD_REACTORS
330
C
102
}
330
C
100
AcDbProxyObject
 90
      499
 91
      576
 95
       23
 70
     0
 93
       10
310
407F
 94
        0
1001
ACAD
1000
AcRTDxfName
1000
ASAPP
  0
ACAD_PROXY_OBJECT
  5
3DE9
102
{ACAD_REACTORS
330
C
102
}
330
C
100
AcDbProxyObject
 90
      499
 91
      581
 95
       23
 70
     0
 93
       34
310
010000407F
 94
        0
1001
ACAD
1000
AcRTDxfName
1000
ACASGREFMASTER
  0
DICTIONARY
  5
34
102
{ACAD_REACTORS
330
C
102
}
330
C
100
AcDbDictionary
281
     1
  3
CTABLESTYLE
350
C4A2
  3
DIMASSOC
350
AC85
  3
INDEXCTL
350
35
  3
SORTENTS
350
194C
  0
DICTIONARY
  5
47
102
{ACAD_REACTORS
330
C
102
}
330
C
100
AcDbDictionary
281
     1
  3
AcmBOM
350
7E8
  3
AcmStdDictionary
350
4C
  3
AMDTSECTSYM_ARROWCOLOR
350
C487
  0
ACAD_PROXY_OBJECT
  5
3DEA
102
{ACAD_REACTORS
330
C
102
}
330
C
100
AcDbProxyObject
 90
      499
 91
      582
 95
       23
 70
     0
 93
      114
310
00000043800000000000000000003F
 94
        0
1001
ACAD
1000
AcRTDxfName
1000
ACADGREFMODULE
  0
ACAD_PROXY_OBJECT
  5
3E06
102
{ACAD_REACTORS
330
C
102
}
330
C
100
AcDbProxyObject
 90
      499
 91
      594
 95
       23
 70
     0
 93
       34
310
05000044FF
 94
        0
1001
ACAD
1000
AcRTDxfName
1000
MAPIADMODULE
  0
DICTIONARY
  5
2B
102
{ACAD_REACTORS
330
C
102
}
330
C
100
AcDbDictionary
281
     1
  0
DICTIONARY
  5
7D
102
{ACAD_REACTORS
330
C
102
}
330
C
100
AcDbDictionary
281
     1
  0
DICTIONARY
  5
6169A
102
{ACAD_REACTORS
330
C
102
}
330
C
100
AcDbDictionary
281
     1
  3
ASEBlockHierarchyIndexRecord
350
6169B
1001
DCO15
1040
1758021493.171
  0
XRECORD
  5
65120
102
{ACAD_REACTORS
330
C
102
}
330
C
100
AcDbXrecord
280
     1
  1
DWGPROPS COOKIE
  2

  3

  4

  6

  7

  8
shibutani
  9

300
AmdtFileType=84
301
=
302
=
303
=
304
=
305
=
306
=
307
=
308
=
309
=
 40
9.469646979166666
 41
2452002.615067627
 42
2456339.597030336
  1

 90
        1
  0
ACAD_PROXY_OBJECT
  5
3DEB
102
{ACAD_REACTORS
330
C
102
}
330
C
100
AcDbProxyObject
 90
      499
 91
      583
 95
       23
 70
     0
 93
        8
310
047B
 94
        0
1001
ACAD
1000
AcRTDxfName
1000
AMDTMAPISURFMOUDULE
  0
DICTIONARY
  5
CB0C
102
{ACAD_REACTORS
330
3F95
102
}
330
3F95
100
AcDbDictionary
281
     1
  3
50
350
CB0E
  0
DICTIONARY
  5
3F96
102
{ACAD_REACTORS
330
3F95
102
}
330
3F95
100
AcDbDictionary
281
     1
  3
20011210
350
3FB7
  0
DICTIONARY
  5
CB0B
102
{ACAD_REACTORS
330
3F95
102
}
330
3F95
100
AcDbDictionary
281
     1
  3
*A1
350
CB0D
1001
ACAD
1000
<All
  0
DICTIONARY
  5
CB2F
102
{ACAD_REACTORS
330
3F95
102
}
330
3F95
100
AcDbDictionary
280
     1
281
     1
  0
SORTENTSTABLE
  5
14A89
102
{ACAD_REACTORS
330
8A
102
}
330
8A
100
AcDbSortentsTable
330
1F
331
64DF8
  5
64DFA
331
64E00
  5
64E02
331
64E08
  5
64EA6
331
64D92
  5
64D94
331
525F4
  5
525F4
331
64EA7
  5
526E8
331
526F4
  5
526F9
331
52665
  5
52666
331
5272B
  5
52738
331
52604
  5
52606
331
5279A
  5
5279D
331
526FC
  5
526FF
331
5266D
  5
5266E
331
5273B
  5
5273E
331
52901
  5
5299A
331
52743
  5
52746
331
5270C
  5
5270F
331
5267D
  5
5267E
331
5477B
  5
54831
331
54899
  5
548C0
331
530DE
  5
530E1
331
5F7F0
  5
5F842
331
64D9A
  5
64D9C
331
64DD9
  5
64DDB
331
64DA2
  5
64DDA
331
64DE1
  5
64DE3
331
64DE9
  5
64DEB
331
525CD
  5
525CD
331
64DF1
  5
64DF3
331
52654
  5
52655
331
525DD
  5
525DD
331
52714
  5
52719
331
52685
  5
52686
331
525E5
  5
525E5
331
5277B
  5
5277E
331
52B26
  5
52C9D
331
52783
  5
52787
331
526ED
  5
526F2
331
5278B
  5
5278E
331
548C1
  5
548C9
331
5475C
  5
547D9
331
5487A
  5
5487E
331
546D5
  5
5477B
331
548C9
  5
548D0
331
52CC7
  5
530DD
331
64DF9
  5
64DFE
331
64E01
  5
64E08
331
525ED
  5
525ED
331
64D93
  5
64D95
331
526F5
  5
526FA
331
52666
  5
52668
331
5272C
  5
52739
331
525C6
  5
525C6
331
5279B
  5
5279E
331
526FD
  5
52700
331
5266E
  5
5266F
331
5273C
  5
5273F
331
52A58
  5
52AD8
331
52744
  5
52747
331
5270D
  5
52710
331
5267E
  5
5267F
331
5488A
  5
54892
331
54892
  5
54899
331
52B68
  5
52CC7
331
5489A
  5
548C1
331
530DF
  5
530E2
331
5485B
  5
5487D
331
5F7F1
  5
648E1
331
64D9B
  5
64D9D
331
64DDA
  5
64DDC
331
64DE2
  5
64DE4
331
525CE
  5
525CE
331
64DEA
  5
64DEC
331
52655
  5
52656
331
64DF2
  5
64DF4
331
525DE
  5
525DE
331
52686
  5
52689
331
525E6
  5
525E6
331
5277C
  5
5277F
331
52982
  5
52A37
331
526E6
  5
526E9
331
52784
  5
52788
331
52AD8
  5
52B20
331
5278C
  5
52791
331
5487B
  5
54881
331
548CA
  5
548D2
331
64DFA
  5
64DFF
331
64E02
  5
64E1C
331
525EE
  5
525EE
331
525F6
  5
525F7
331
64D94
  5
64D96
331
52794
  5
52797
331
5272D
  5
5273B
331
5299A
  5
52A58
331
52606
  5
52607
331
525C7
  5
525C7
331
5279C
  5
5279F
331
526FE
  5
52701
331
5266F
  5
52672
331
5273D
  5
52740
331
52706
  5
52709
331
52745
  5
52749
331
5274D
  5
52750
331
5267F
  5
52680
331
5270E
  5
52711
331
5488B
  5
54894
331
548BB
  5
548C3
331
5F7F2
  5
648E6
331
64D9C
  5
64D9E
331
64DDB
  5
64DDD
331
64DE3
  5
64DE5
331
525CF
  5
525CF
331
64DEB
  5
64DED
331
52656
  5
52657
331
525D7
  5
525D7
331
64DF3
  5
64DF5
331
525DF
  5
525DF
331
52716
  5
5271A
331
52B20
  5
52B68
331
525E7
  5
525E7
331
5277D
  5
52780
331
52726
  5
5272A
331
526E7
  5
526EA
331
52785
  5
5278A
331
526EF
  5
526F3
331
5278D
  5
52792
331
530E0
  5
530E3
331
548C3
  5
548CA
331
5487C
  5
54885
331
525EF
  5
525EF
331
525F7
  5
525F8
331
64D95
  5
64D97
331
52660
  5
52661
331
52795
  5
52798
331
52607
  5
52608
331
5279D
  5
527BA
331
526FF
  5
52702
331
5273E
  5
52741
331
52678
  5
5267B
331
52707
  5
5270A
331
52746
  5
5274D
331
5270F
  5
52712
331
5274E
  5
5277A
331
52A82
  5
52ADB
331
54894
  5
5489A
331
5F7F3
  5
648E7
331
64D9D
  5
64DA1
331
64DDC
  5
64DDE
331
525C8
  5
525C8
331
64DE4
  5
64DE6
331
525D0
  5
525D0
331
64DEC
  5
64DEE
331
52657
  5
5265A
331
525D8
  5
525D8
331
64DF4
  5
64DF6
331
52680
  5
52681
331
525E0
  5
525E0
331
5277E
  5
52781
331
526E8
  5
526EB
331
530E1
  5
530E4
331
5487D
  5
5488A
331
546D8
  5
547B7
331
548CC
  5
5488E
331
54885
  5
54890
331
548D4
  5
548D1
331
525E8
  5
525E8
331
525F0
  5
525F0
331
525F8
  5
525F9
331
64D96
  5
64D98
331
64E1C
  5
64EA7
331
52600
  5
52601
331
52661
  5
52662
331
526F8
  5
526FB
331
52796
  5
52799
331
5279E
  5
52808
331
52700
  5
52703
331
5273F
  5
52742
331
52708
  5
5270B
331
52747
  5
5274E
331
527DE
  5
52901
331
5274F
  5
5277B
331
5293D
  5
529FC
331
529FC
  5
52A82
331
5488D
  5
54895
331
54895
  5
548BB
331
547B7
  5
5485B
331
548BD
  5
548C5
331
64D9E
  5
64DA2
331
64DDD
  5
64DDF
331
525C9
  5
525C9
331
52608
  5
52609
331
64DE5
  5
64DE7
331
525D1
  5
525D1
331
64DED
  5
64DEF
331
525D9
  5
525D9
331
64DF5
  5
64DF7
331
52710
  5
52713
331
525E1
  5
525E1
331
52681
  5
52682
331
52718
  5
52722
331
52689
  5
5268A
331
5277F
  5
52782
331
526E9
  5
526EC
331
52787
  5
5278B
331
52ADB
  5
52B23
331
530E2
  5
54543
331
548C5
  5
548CC
331
5487E
  5
5488D
331
548CD
  5
5F7F4
331
548D5
  5
5488B
331
525E9
  5
525E9
331
525F1
  5
525F1
331
525F9
  5
52600
331
64D97
  5
64D99
331
526F1
  5
526F4
331
52601
  5
52604
331
52662
  5
52663
331
52728
  5
5272B
331
52797
  5
5279A
331
526F9
  5
526FC
331
5266A
  5
5266B
331
52738
  5
5273C
331
5279F
  5
528E9
331
52701
  5
52706
331
52672
  5
52673
331
52740
  5
52743
331
52709
  5
5270C
331
5488E
  5
54896
331
54896
  5
548BD
331
548BE
  5
548C6
331
64DDE
  5
64DE0
331
525CA
  5
525CA
331
52609
  5
5260A
331
64DE6
  5
64DE8
331
525D2
  5
525D2
331
64DEE
  5
64DF0
331
525DA
  5
525DA
331
64DF6
  5
64DF8
331
52711
  5
52714
331
525E2
  5
525E2
331
52682
  5
52683
331
52750
  5
5277C
331
52B23
  5
52B96
331
52719
  5
52723
331
5268A
  5
5268B
331
52780
  5
52783
331
526EA
  5
526ED
331
52788
  5
5278C
331
530E3
  5
546B4
331
548C6
  5
548CD
331
54543
  5
546D8
331
547D8
  5
5487A
331
548CE
  5
5F829
331
64DFE
  5
64E00
331
64D90
  5
64D92
331
525F2
  5
525F2
331
52790
  5
52793
331
526F2
  5
526F5
331
52663
  5
52664
331
52729
  5
5272C
331
525C3
  5
525C3
331
52798
  5
5279B
331
526FA
  5
526FD
331
5266B
  5
5266C
331
52739
  5
5273D
331
52702
  5
52707
331
52673
  5
52674
331
52741
  5
52744
331
5270A
  5
5270D
331
5267B
  5
5267C
331
52749
  5
5274F
331
5464B
  5
54732
331
5488F
  5
54897
331
54732
  5
547D8
331
54897
  5
548BE
331
530DC
  5
530DF
331
548BF
  5
548C7
331
64D98
  5
64D9A
331
648E1
  5
648E8
331
64DDF
  5
64DE1
331
5260A
  5
5260B
331
64DE7
  5
64DE9
331
525CB
  5
525CB
331
64DEF
  5
64DF1
331
525D3
  5
525D3
331
5265A
  5
5265B
331
64DF7
  5
64DF9
331
525DB
  5
525DB
331
52712
  5
52716
331
52683
  5
52684
331
528C8
  5
5293D
331
5271A
  5
52726
331
5268B
  5
5268C
331
52722
  5
52728
331
52781
  5
52784
331
526EB
  5
526EF
331
530E4
  5
546D5
331
548C7
  5
548CE
331
547D9
  5
5487B
331
548CF
  5
5F841
331
64DFF
  5
64E01
331
525EB
  5
525EB
331
64D91
  5
64D93
331
525F3
  5
525F3
331
52791
  5
52794
331
526F3
  5
526F8
331
5272A
  5
5272D
331
525C4
  5
525C4
331
526FB
  5
526FE
331
5266C
  5
5266D
331
52799
  5
5279C
331
52703
  5
52708
331
52742
  5
52745
331
5270B
  5
5270E
331
5267C
  5
5267D
331
54890
  5
54898
331
54831
  5
5487C
331
52F1D
  5
530DE
331
54898
  5
548BF
331
530DD
  5
530E0
331
546B4
  5
5475C
331
64D99
  5
64D9B
331
64DA1
  5
64DD9
331
64DE0
  5
64DE2
331
5260B
  5
52654
331
64D1A
  5
525F6
331
64DE8
  5
64DEA
331
525CC
  5
525CC
331
64DF0
  5
64DF2
331
525D4
  5
525D4
331
5265B
  5
5265D
331
525DC
  5
525DC
331
52713
  5
52718
331
52684
  5
52685
331
5268C
  5
526E5
331
5277A
  5
5277D
331
52723
  5
52729
331
52782
  5
52785
331
528E9
  5
52982
331
52A37
  5
52ABC
331
526EC
  5
526F1
331
5278A
  5
5278D
331
52ADE
  5
52B26
331
548C0
  5
548C8
331
52B96
  5
52F1D
331
548C8
  5
548CF
331
54881
  5
5488F
  0
DIMASSOC
  5
528D6
102
{ACAD_REACTORS
330
528D5
102
}
330
528D5
100
AcDbDimAssoc
330
528C8
 90
        3
 70
     0
 71
     0
  1
AcDbOsnapPointRef
 72
     1
331
52785
 73
     0
 91
        0
 40
0.0
 10
0.0
 20
0.0
 30
2.000000000000000E+50
 75
     0
  1
AcDbOsnapPointRef
 72
     8
331
52783
 73
     0
 91
        0
 40
0.0
 10
0.0
 20
0.0
 30
0.0
 75
     1
  1
AcDbOsnapPointRef
 72
     1
331
52785
 73
     0
 91
        0
 40
0.0
 10
0.0
 20
0.0
 30
2.000000000000000E+50
 75
     0
  0
DIMASSOC
  5
528F7
102
{ACAD_REACTORS
330
528F6
102
}
330
528F6
100
AcDbDimAssoc
330
528E9
 90
        3
 70
     0
 71
     0
  1
AcDbOsnapPointRef
 72
     1
331
5278B
 73
     0
 91
        0
 40
0.0
 10
0.0
 20
0.0
 30
2.000000000000000E+50
 75
     0
  1
AcDbOsnapPointRef
 72
     1
331
52788
 73
     0
 91
        0
 40
0.0
 10
0.0
 20
0.0
 30
2.000000000000000E+50
 75
     0
  0
DIMASSOC
  5
5290F
102
{ACAD_REACTORS
330
5290E
102
}
330
5290E
100
AcDbDimAssoc
330
52901
 90
        3
 70
     0
 71
     0
  1
AcDbOsnapPointRef
 72
     1
331
5278B
 73
     0
 91
        0
 40
0.0
 10
0.0
 20
0.0
 30
2.000000000000000E+50
 75
     0
  1
AcDbOsnapPointRef
 72
     1
331
5278D
 73
     0
 91
        0
 40
0.0
 10
0.0
 20
0.0
 30
2.000000000000000E+50
 75
     0
  0
DIMASSOC
  5
5294B
102
{ACAD_REACTORS
330
5294A
102
}
330
5294A
100
AcDbDimAssoc
330
5293D
 90
        3
 70
     0
 71
     0
  1
AcDbOsnapPointRef
 72
     1
331
525CE
 73
     0
 91
        0
 40
0.0
 10
0.0
 20
0.0
 30
2.000000000000000E+50
 75
     0
  1
AcDbOsnapPointRef
 72
     1
331
525DA
 73
     0
 91
        0
 40
0.0
 10
0.0
 20
0.0
 30
2.000000000000000E+50
 75
     0
  0
DIMASSOC
  5
52990
102
{ACAD_REACTORS
330
5298F
102
}
330
5298F
100
AcDbDimAssoc
330
52982
 90
        3
 70
     0
 71
     0
  1
AcDbOsnapPointRef
 72
    13
331
5277E
 73
     0
 91
        0
 40
0.0
 10
0.0
 20
0.0
 30
2.000000000000000E+50
 75
     0
  1
AcDbOsnapPointRef
 72
    13
331
52787
 73
     0
 91
        0
 40
0.0
 10
0.0
 20
0.0
 30
2.000000000000000E+50
 75
     0
  0
DIMASSOC
  5
529A8
102
{ACAD_REACTORS
330
529A7
102
}
330
529A7
100
AcDbDimAssoc
330
5299A
 90
        3
 70
     0
 71
     0
  1
AcDbOsnapPointRef
 72
    13
331
5277E
 73
     0
 91
        0
 40
0.0
 10
0.0
 20
0.0
 30
2.000000000000000E+50
 75
     0
  1
AcDbOsnapPointRef
 72
    13
331
52782
 73
     0
 91
        0
 40
0.0
 10
0.0
 20
0.0
 30
2.000000000000000E+50
 75
     0
  0
DIMASSOC
  5
52A0C
102
{ACAD_REACTORS
330
52A0B
102
}
330
52A0B
100
AcDbDimAssoc
330
529FC
 90
        3
 70
     0
 71
     0
  1
AcDbOsnapPointRef
 72
     1
331
52601
 73
     0
 91
        0
 40
0.0
 10
0.0
 20
0.0
 30
2.000000000000000E+50
 75
     0
  1
AcDbOsnapPointRef
 72
     8
331
525EF
 73
     0
 91
        0
 40
1.0
 10
0.0
 20
0.0
 30
0.0
 75
     1
  1
AcDbOsnapPointRef
 72
     1
331
52601
 73
     0
 91
        0
 40
0.0
 10
0.0
 20
0.0
 30
2.000000000000000E+50
 75
     0
  0
DIMASSOC
  5
52A45
102
{ACAD_REACTORS
330
52A44
102
}
330
52A44
100
AcDbDimAssoc
330
52A37
 90
        3
 70
     0
 71
     0
  1
AcDbOsnapPointRef
 72
    13
331
525F6
 73
     0
 91
        0
 40
0.0
 10
0.0
 20
0.0
 30
2.000000000000000E+50
 75
     0
  1
AcDbOsnapPointRef
 72
    13
331
525E7
 73
     0
 91
        0
 40
0.0
 10
0.0
 20
0.0
 30
2.000000000000000E+50
 75
     0
  0
DIMASSOC
  5
52A66
102
{ACAD_REACTORS
330
52A65
102
}
330
52A65
100
AcDbDimAssoc
330
52A58
 90
        2
 70
     0
 71
     0
  1
AcDbOsnapPointRef
 72
    13
331
5268B
 73
     0
 91
        0
 40
0.0
 10
0.0
 20
0.0
 30
2.000000000000000E+50
 75
     0
  0
DIMASSOC
  5
5465C
102
{ACAD_REACTORS
330
54655
102
}
330
54655
100
AcDbDimAssoc
330
5464B
 90
        2
 70
     0
 71
     0
  1
AcDbOsnapPointRef
 72
     3
331
52607
 73
     2
 91
        0
 40
0.0
 10
0.0
 20
0.0
 30
0.0
 75
     0
  0
DIMASSOC
  5
5478C
102
{ACAD_REACTORS
330
54785
102
}
330
54785
100
AcDbDimAssoc
330
5477B
 90
        2
 70
     0
 71
     0
  1
AcDbOsnapPointRef
 72
     3
331
525F0
 73
     2
 91
        0
 40
0.0
 10
0.0
 20
0.0
 30
0.0
 75
     0
  0
DIMASSOC
  5
64DA0
102
{ACAD_REACTORS
330
64D9F
102
}
330
64D9F
100
AcDbDimAssoc
330
64D9E
 90
        3
 70
     0
 71
     0
  1
AcDbOsnapPointRef
 72
     1
331
64D97
 73
     0
 91
        0
 40
0.0
 10
0.0
 20
0.0
 30
2.000000000000000E+50
 75
     0
  1
AcDbOsnapPointRef
 72
     8
331
64D93
 73
     0
 91
        0
 40
1.0
 10
0.0
 20
0.0
 30
0.0
 75
     1
  1
AcDbOsnapPointRef
 72
     1
331
64D97
 73
     0
 91
        0
 40
0.0
 10
0.0
 20
0.0
 30
2.000000000000000E+50
 75
     0
  0
DIMASSOC
  5
64E1E
102
{ACAD_REACTORS
330
64E1D
102
}
330
64E1D
100
AcDbDimAssoc
330
64E1C
 90
        3
 70
     0
 71
     0
  1
AcDbOsnapPointRef
 72
     1
331
64DE3
 73
     0
 91
        0
 40
0.0
 10
0.0
 20
0.0
 30
2.000000000000000E+50
 75
     0
  1
AcDbOsnapPointRef
 72
     1
331
64DED
 73
     0
 91
        0
 40
0.0
 10
0.0
 20
0.0
 30
2.000000000000000E+50
 75
     0
  0
LAYOUT
  5
22
102
{ACAD_XDICTIONARY
360
65123
102
}
102
{ACAD_REACTORS
330
1A
102
}
330
1A
100
AcDbPlotSettings
  1

  2
Adobe PDF
  4
A4
  6

 40
3.174999952316284
 41
3.174999952316284
 42
3.175003051757812
 43
3.17498779296875
 44
209.9733276367187
 45
297.0318298339844
 46
0.0000000000000142
 47
1.364832920257583
 48
0.0
 49
0.0
140
419.9999999999997
141
297.0
142
1.0
143
1.458575536647462
 70
  3764
 72
     1
 73
     1
 74
     4
  7
monochrome.ctb
 75
     0
147
0.6856004196385342
148
0.0
149
0.0
100
AcDbLayout
  1
Model
 70
     1
 71
     0
 10
0.0
 20
0.0
 11
12.0
 21
9.0
 12
0.0
 22
0.0
 32
0.0
 14
0.0
 24
0.0
 34
0.0
 15
0.0
 25
0.0
 35
0.0
146
0.0
 13
0.0
 23
0.0
 33
0.0
 16
1.0
 26
0.0
 36
0.0
 17
0.0
 27
1.0
 37
0.0
 76
     0
330
1F
331
C444
1001
ACAD_PSEXT
1000
Adobe PDF
1000
Adobe PDF Converter
1000
My Documents\*.pdf
1000

1070
     0
  0
LAYOUT
  5
1E
102
{ACAD_XDICTIONARY
360
65121
102
}
102
{ACAD_REACTORS
330
1A
102
}
330
1A
100
AcDbPlotSettings
  1

  2
\\ML370\XEROX
  4
A4
  6

 40
3.174999952316284
 41
3.174999952316284
 42
3.175003051757812
 43
3.17498779296875
 44
209.8674926757813
 45
296.6719970703125
 46
0.0
 47
0.0
 48
0.0
 49
0.0
140
0.0
141
0.0
142
1.0
143
1.0
 70
   688
 72
     1
 73
     1
 74
     5
  7
monochrome.ctb
 75
    16
147
1.0
148
0.0
149
0.0
100
AcDbLayout
  1
ﾚｲｱｳﾄ1
 70
     1
 71
     1
 10
-3.17498779296875
 20
-3.174999952316284
 11
293.4970092773438
 21
206.692492723465
 12
0.0
 22
0.0
 32
0.0
 14
1.000000000000000E+20
 24
1.000000000000000E+20
 34
1.000000000000000E+20
 15
-1.000000000000000E+20
 25
-1.000000000000000E+20
 35
-1.000000000000000E+20
146
0.0
 13
0.0
 23
0.0
 33
0.0
 16
1.0
 26
0.0
 36
0.0
 17
0.0
 27
1.0
 37
0.0
 76
     0
330
1B
  0
LAYOUT
  5
26
102
{ACAD_XDICTIONARY
360
65125
102
}
102
{ACAD_REACTORS
330
1A
102
}
330
1A
100
AcDbPlotSettings
  1

  2
\\ML370\XEROX
  4

  6

 40
0.0
 41
0.0
 42
0.0
 43
0.0
 44
0.0
 45
0.0
 46
0.0
 47
0.0
 48
0.0
 49
0.0
140
0.0
141
0.0
142
1.0
143
1.0
 70
   688
 72
     0
 73
     0
 74
     5
  7
monochrome.ctb
 75
    16
147
1.0
148
0.0
149
0.0
100
AcDbLayout
  1
ﾚｲｱｳﾄ2
 70
     1
 71
     2
 10
0.0
 20
0.0
 11
12.0
 21
9.0
 12
0.0
 22
0.0
 32
0.0
 14
0.0
 24
0.0
 34
0.0
 15
0.0
 25
0.0
 35
0.0
146
0.0
 13
0.0
 23
0.0
 33
0.0
 16
1.0
 26
0.0
 36
0.0
 17
0.0
 27
1.0
 37
0.0
 76
     0
330
23
  0
MATERIAL
  5
C448
102
{ACAD_XDICTIONARY
360
65129
102
}
102
{ACAD_REACTORS
330
C446
102
}
330
C446
100
AcDbMaterial
  1
ByBlock
  0
MATERIAL
  5
C447
102
{ACAD_XDICTIONARY
360
65127
102
}
102
{ACAD_REACTORS
330
C446
102
}
330
C446
100
AcDbMaterial
  1
ByLayer
  0
MATERIAL
  5
C449
102
{ACAD_XDICTIONARY
360
6512B
102
}
102
{ACAD_REACTORS
330
C446
102
}
330
C446
100
AcDbMaterial
  1
Global
  0
MLINESTYLE
  5
18
102
{ACAD_REACTORS
330
17
102
}
330
17
100
AcDbMlineStyle
  2
STANDARD
 70
     0
  3

 62
   256
 51
90.0
 52
90.0
 71
     2
 49
0.5
 62
   256
  6
BYLAYER
 49
-0.5
 62
   256
  6
BYLAYER
  0
PLOTSETTINGS
  5
C85D
102
{ACAD_XDICTIONARY
360
6512F
102
}
102
{ACAD_REACTORS
330
19
102
}
330
19
100
AcDbPlotSettings
  1
-00
  2
RICOH imagio Wide 7040e RP-GL/2
  4
A3
  6
AM_VIEW1
 40
5.069416522979736
 41
7.228392601013183
 42
5.23870849609375
 43
7.05908203125
 44
419.9889831542968
 45
296.9683227539062
 46
-5.159570932388305
 47
-7.159575939178466
 48
347.0000006405867
 49
-0.0000003719120514
140
767.0000006405866
141
296.9999996280879
142
1.0
143
1.0
 70
 11956
 72
     1
 73
     0
 74
     4
  7
monochrome.ctb
 75
    16
147
1.0
148
-347.0000006405867
149
0.0000003719120514
1001
ACAD_PSEXT
1000
RICOH imagio Wide 7040e RP-GL/2
1000
RICOH imagio Wide 7040e RP-GL/2
1000
\\ADMINISTRATOR
1000
RP-GL/2 Driver (Windows 2000/XP/Server 2003)
1070
     0
  0
ACDBPLACEHOLDER
  5
F
102
{ACAD_REACTORS
330
E
102
}
330
E
  0
TABLESTYLE
  5
C45D
102
{ACAD_XDICTIONARY
360
6512D
102
}
102
{ACAD_REACTORS
330
C45C
102
}
330
C45C
100
AcDbTableStyle
  3
Standard
 70
     0
 71
     0
 40
1.5
 41
1.5
280
     0
281
     0
  7
STANDARD
140
4.5
170
     2
 62
     0
 63
     7
283
     0
274
    -2
284
     1
 64
     0
275
    -2
285
     1
 65
     0
276
    -2
286
     1
 66
     0
277
    -2
287
     1
 67
     0
278
    -2
288
     1
 68
     0
279
    -2
289
     1
 69
     0
  7
STANDARD
140
6.0
170
     5
 62
     0
 63
     7
283
     0
274
    -2
284
     1
 64
     0
275
    -2
285
     1
 65
     0
276
    -2
286
     1
 66
     0
277
    -2
287
     1
 67
     0
278
    -2
288
     1
 68
     0
279
    -2
289
     1
 69
     0
  7
STANDARD
140
4.5
170
     5
 62
     0
 63
     7
283
     0
274
    -2
284
     1
 64
     0
275
    -2
285
     1
 65
     0
276
    -2
286
     1
 66
     0
277
    -2
287
     1
 67
     0
278
    -2
288
     1
 68
     0
279
    -2
289
     1
 69
     0
  0
VISUALSTYLE
  5
C450
102
{ACAD_REACTORS
330
C44A
102
}
330
C44A
100
AcDbVisualStyle
  2
2dWireframe
 70
     4
 71
     0
 72
     2
 73
     0
 90
        0
 40
-0.6
 41
-30.0
 62
     5
 63
     7
 74
     1
 91
        4
 64
     7
 65
   257
 75
     1
175
     1
 42
1.0
 92
        0
 66
   257
 43
1.0
 76
     1
 77
     6
 78
     2
 67
     7
 79
     5
170
     0
171
     0
290
     0
174
     0
 93
        1
 44
0.0
173
     0
291
     0
 45
0.0
1001
ACAD
1000
AcDbSavedByObjectVersion
1070
     0
  0
VISUALSTYLE
  5
C452
102
{ACAD_REACTORS
330
C44A
102
}
330
C44A
100
AcDbVisualStyle
  2
3D Hidden
 70
     6
 71
     1
 72
     2
 73
     2
 90
        0
 40
-0.6
 41
-30.0
 62
     5
 63
     7
 74
     2
 91
        2
 64
     7
 65
   257
 75
     2
175
     1
 42
40.0
 92
        0
 66
   257
 43
1.0
 76
     1
 77
     6
 78
     2
 67
     7
 79
     3
170
     0
171
     0
290
     0
174
     0
 93
        1
 44
0.0
173
     0
291
     0
 45
0.0
1001
ACAD
1000
AcDbSavedByObjectVersion
1070
     0
  0
VISUALSTYLE
  5
C451
102
{ACAD_REACTORS
330
C44A
102
}
330
C44A
100
AcDbVisualStyle
  2
3dWireframe
 70
     5
 71
     0
 72
     2
 73
     0
 90
        0
 40
-0.6
 41
-30.0
 62
     5
 63
     7
 74
     1
 91
        4
 64
     7
 65
   257
 75
     1
175
     1
 42
1.0
 92
        0
 66
   257
 43
1.0
 76
     1
 77
     6
 78
     2
 67
     7
 79
     5
170
     0
171
     0
290
     0
174
     0
 93
        1
 44
0.0
173
     0
291
     0
 45
0.0
1001
ACAD
1000
AcDbSavedByObjectVersion
1070
     0
  0
VISUALSTYLE
  5
C44F
102
{ACAD_REACTORS
330
C44A
102
}
330
C44A
100
AcDbVisualStyle
  2
Basic
 70
     7
 71
     1
 72
     0
 73
     1
 90
        0
 40
-0.6
 41
-30.0
 62
     5
 63
     7
 74
     0
 91
        4
 64
     7
 65
   257
 75
     1
175
     1
 42
1.0
 92
        8
 66
     7
 43
1.0
 76
     1
 77
     6
 78
     2
 67
     7
 79
     5
170
     0
171
     0
290
     0
174
     0
 93
        1
 44
0.0
173
     0
291
     1
 45
0.0
1001
ACAD
1000
AcDbSavedByObjectVersion
1070
     0
  0
VISUALSTYLE
  5
C456
102
{ACAD_REACTORS
330
C44A
102
}
330
C44A
100
AcDbVisualStyle
  2
Brighten
 70
    12
 71
     2
 72
     2
 73
     0
 90
        0
 40
-0.6
 41
-30.0
 62
     5
 63
     7
 74
     1
 91
        4
 64
     7
 65
   257
 75
     1
175
     1
 42
1.0
 92
        8
 66
     7
 43
1.0
 76
     1
 77
     6
 78
     2
 67
     7
 79
     5
170
     0
171
     0
290
     0
174
     0
 93
        1
 44
50.0
173
     0
291
     1
 45
0.0
1001
ACAD
1000
AcDbSavedByObjectVersion
1070
     0
  0
VISUALSTYLE
  5
C45A
102
{ACAD_REACTORS
330
C44A
102
}
330
C44A
100
AcDbVisualStyle
  2
ColorChange
 70
    16
 71
     2
 72
     2
 73
     3
 90
        0
 40
-0.6
 41
-30.0
 62
     5
 63
     8
 74
     1
 91
        4
 64
     7
 65
   257
 75
     1
175
     1
 42
1.0
 92
        8
 66
     8
 43
1.0
 76
     1
 77
     6
 78
     2
 67
     7
 79
     5
170
     0
171
     0
290
     0
174
     0
 93
        1
 44
0.0
173
     0
291
     1
 45
0.0
1001
ACAD
1000
AcDbSavedByObjectVersion
1070
     0
  0
VISUALSTYLE
  5
C453
102
{ACAD_REACTORS
330
C44A
102
}
330
C44A
100
AcDbVisualStyle
  2
Conceptual
 70
     9
 71
     3
 72
     2
 73
     0
 90
        0
 40
-0.6
 41
-30.0
 62
     5
 63
     7
 74
     2
 91
        2
 64
     7
 65
   257
 75
     1
175
     1
 42
40.0
 92
        8
 66
     7
 43
1.0
 76
     1
 77
     6
 78
     2
 67
     7
 79
     3
170
     0
171
     0
290
     0
174
     0
 93
        1
 44
0.0
173
     0
291
     0
 45
0.0
1001
ACAD
1000
AcDbSavedByObjectVersion
1070
     0
  0
VISUALSTYLE
  5
C455
102
{ACAD_REACTORS
330
C44A
102
}
330
C44A
100
AcDbVisualStyle
  2
Dim
 70
    11
 71
     2
 72
     2
 73
     0
 90
        0
 40
-0.6
 41
-30.0
 62
     5
 63
     7
 74
     1
 91
        4
 64
     7
 65
   257
 75
     1
175
     1
 42
1.0
 92
        8
 66
     7
 43
1.0
 76
     1
 77
     6
 78
     2
 67
     7
 79
     5
170
     0
171
     0
290
     0
174
     0
 93
        1
 44
-50.0
173
     0
291
     1
 45
0.0
1001
ACAD
1000
AcDbSavedByObjectVersion
1070
     0
  0
VISUALSTYLE
  5
C459
102
{ACAD_REACTORS
330
C44A
102
}
330
C44A
100
AcDbVisualStyle
  2
Facepattern
 70
    15
 71
     2
 72
     2
 73
     0
 90
        0
 40
-0.6
 41
-30.0
 62
     5
 63
     7
 74
     1
 91
        4
 64
     7
 65
   257
 75
     1
175
     1
 42
1.0
 92
        8
 66
     7
 43
1.0
 76
     1
 77
     6
 78
     2
 67
     7
 79
     5
170
     0
171
     0
290
     0
174
     0
 93
        1
 44
0.0
173
     0
291
     1
 45
0.0
1001
ACAD
1000
AcDbSavedByObjectVersion
1070
     0
  0
VISUALSTYLE
  5
C44B
102
{ACAD_REACTORS
330
C44A
102
}
330
C44A
100
AcDbVisualStyle
  2
Flat
 70
     0
 71
     2
 72
     1
 73
     1
 90
        2
 40
-0.6
 41
30.0
 62
     5
 63
     7
 74
     0
 91
        4
 64
     7
 65
   257
 75
     1
175
     1
 42
1.0
 92
        8
 66
     7
 43
1.0
 76
     1
 77
     6
 78
     2
 67
     7
 79
     5
170
     0
171
     0
290
     0
174
     0
 93
       13
 44
0.0
173
     0
291
     1
 45
0.0
1001
ACAD
1000
AcDbSavedByObjectVersion
1070
     0
  0
VISUALSTYLE
  5
C44C
102
{ACAD_REACTORS
330
C44A
102
}
330
C44A
100
AcDbVisualStyle
  2
FlatWithEdges
 70
     1
 71
     2
 72
     1
 73
     1
 90
        2
 40
-0.6
 41
30.0
 62
     5
 63
     7
 74
     1
 91
        4
 64
     7
 65
   257
 75
     1
175
     1
 42
1.0
 92
        0
 66
   257
 43
1.0
 76
     1
 77
     6
 78
     2
 67
     7
 79
     5
170
     0
171
     0
290
     0
174
     0
 93
       13
 44
0.0
173
     0
291
     1
 45
0.0
1001
ACAD
1000
AcDbSavedByObjectVersion
1070
     0
  0
VISUALSTYLE
  5
C44D
102
{ACAD_REACTORS
330
C44A
102
}
330
C44A
100
AcDbVisualStyle
  2
Gouraud
 70
     2
 71
     2
 72
     2
 73
     1
 90
        2
 40
-0.6
 41
30.0
 62
     5
 63
     7
 74
     0
 91
        4
 64
     7
 65
   257
 75
     1
175
     1
 42
1.0
 92
        0
 66
     7
 43
1.0
 76
     1
 77
     6
 78
     2
 67
     7
 79
     5
170
     0
171
     0
290
     0
174
     0
 93
       13
 44
0.0
173
     0
291
     1
 45
0.0
1001
ACAD
1000
AcDbSavedByObjectVersion
1070
     0
  0
VISUALSTYLE
  5
C44E
102
{ACAD_REACTORS
330
C44A
102
}
330
C44A
100
AcDbVisualStyle
  2
GouraudWithEdges
 70
     3
 71
     2
 72
     2
 73
     1
 90
        2
 40
-0.6
 41
30.0
 62
     5
 63
     7
 74
     1
 91
        4
 64
     7
 65
   257
 75
     1
175
     1
 42
1.0
 92
        0
 66
   257
 43
1.0
 76
     1
 77
     6
 78
     2
 67
     7
 79
     5
170
     0
171
     0
290
     0
174
     0
 93
       13
 44
0.0
173
     0
291
     1
 45
0.0
1001
ACAD
1000
AcDbSavedByObjectVersion
1070
     0
  0
VISUALSTYLE
  5
C458
102
{ACAD_REACTORS
330
C44A
102
}
330
C44A
100
AcDbVisualStyle
  2
Linepattern
 70
    14
 71
     2
 72
     2
 73
     0
 90
        0
 40
-0.6
 41
-30.0
 62
     5
 63
     7
 74
     1
 91
        4
 64
     7
 65
   257
 75
     7
175
     7
 42
1.0
 92
        8
 66
     7
 43
1.0
 76
     1
 77
     6
 78
     2
 67
     7
 79
     5
170
     0
171
     0
290
     0
174
     0
 93
        1
 44
0.0
173
     0
291
     1
 45
0.0
1001
ACAD
1000
AcDbSavedByObjectVersion
1070
     0
  0
VISUALSTYLE
  5
C454
102
{ACAD_REACTORS
330
C44A
102
}
330
C44A
100
AcDbVisualStyle
  2
Realistic
 70
     8
 71
     2
 72
     2
 73
     0
 90
        0
 40
-0.6
 41
-30.0
 62
     5
 63
     7
 74
     1
 91
        0
 64
     7
 65
   257
 75
     1
175
     1
 42
1.0
 92
        8
 66
     8
 43
1.0
 76
     1
 77
     6
 78
     2
 67
     7
 79
     5
170
     0
171
     0
290
     0
174
     0
 93
       13
 44
0.0
173
     0
291
     0
 45
0.0
1001
ACAD
1000
AcDbSavedByObjectVersion
1070
     0
  0
VISUALSTYLE
  5
C457
102
{ACAD_REACTORS
330
C44A
102
}
330
C44A
100
AcDbVisualStyle
  2
Thicken
 70
    13
 71
     2
 72
     2
 73
     0
 90
        0
 40
-0.6
 41
-30.0
 62
     5
 63
     7
 74
     1
 91
        4
 64
     7
 65
   257
 75
     1
175
     1
 42
1.0
 92
       12
 66
     7
 43
1.0
 76
     1
 77
     6
 78
     2
 67
     7
 79
     5
170
     0
171
     0
290
     0
174
     0
 93
        1
 44
0.0
173
     0
291
     1
 45
0.0
1001
ACAD
1000
AcDbSavedByObjectVersion
1070
     0
  0
DICTIONARYVAR
  5
C4A2
102
{ACAD_REACTORS
330
34
102
}
330
34
100
DictionaryVariables
280
     0
  1
STANDARD
  0
DICTIONARYVAR
  5
AC85
102
{ACAD_REACTORS
330
34
102
}
330
34
100
DictionaryVariables
280
     0
  1
2
  0
DICTIONARYVAR
  5
35
102
{ACAD_REACTORS
330
34
102
}
330
34
100
DictionaryVariables
280
     0
  1
0
  0
DICTIONARYVAR
  5
194C
102
{ACAD_REACTORS
330
34
102
}
330
34
100
DictionaryVariables
280
     0
  1
96
  0
DICTIONARY
  5
7E8
102
{ACAD_REACTORS
330
47
102
}
330
47
100
AcDbDictionary
281
     1
  0
DICTIONARY
  5
4C
102
{ACAD_REACTORS
330
47
102
}
330
47
100
AcDbDictionary
281
     1
  0
XRECORD
  5
C487
102
{ACAD_REACTORS
330
47
102
}
330
47
100
AcDbXrecord
280
     1
 90
-1023410169
  0
XRECORD
  5
6169B
102
{ACAD_REACTORS
330
6169A
102
}
330
6169A
100
AcDbXrecord
280
     1
330
0
330
0
330
0
330
0
330
0
330
0
330
0
330
0
330
0
330
0
330
0
330
0
330
0
330
0
330
0
330
0
330
0
330
0
330
0
330
0
330
0
330
0
330
0
330
0
330
0
330
0
330
0
330
0
330
0
330
0
330
0
330
0
330
0
330
0
330
0
330
0
330
0
330
0
330
0
330
0
330
0
330
0
330
0
330
0
330
0
330
0
330
0
330
0
330
0
330
0
330
0
330
0
330
0
330
0
330
0
330
0
330
0
330
0
330
0
330
0
330
0
330
0
330
0
330
0
330
0
330
0
330
0
330
0
330
0
330
0
330
0
330
0
330
0
330
0
330
0
330
0
330
0
330
0
330
0
330
0
330
0
330
0
330
0
330
0
330
0
330
0
330
0
330
0
330
0
330
0
330
0
330
0
330
0
330
0
330
0
330
0
330
0
330
0
330
0
330
0
330
0
330
0
330
0
330
0
330
0
330
0
330
0
330
0
330
0
330
0
330
0
330
0
330
0
330
0
330
0
330
0
330
0
330
0
330
0
330
0
330
0
330
0
330
0
330
0
330
0
330
0
330
0
330
0
330
0
330
0
330
0
330
0
330
0
330
0
330
0
330
0
330
0
330
0
330
0
330
0
330
0
330
0
330
0
330
0
330
0
330
0
330
0
330
0
330
0
330
0
330
0
330
0
330
0
330
0
330
0
330
0
330
0
330
0
330
0
330
0
330
0
330
0
330
0
330
0
330
0
330
0
330
0
330
0
330
0
330
0
330
0
330
0
330
0
330
0
330
0
330
0
330
0
330
0
330
0
330
0
330
0
330
0
330
0
330
0
330
0
330
0
330
0
330
0
330
0
330
0
330
0
330
0
330
0
330
0
330
0
330
0
330
0
330
0
330
0
330
0
330
0
330
0
330
0
330
0
330
0
330
0
330
0
330
0
330
0
330
0
330
0
330
0
330
0
330
0
330
0
330
0
330
0
330
0
330
0
330
0
330
0
330
0
330
0
330
0
330
0
330
0
330
0
330
0
330
0
330
0
330
0
330
0
330
0
330
0
330
0
330
0
330
0
330
0
330
0
330
0
330
0
330
0
330
0
330
0
330
0
330
0
330
0
330
0
330
0
330
0
330
0
330
0
330
0
330
0
330
0
330
0
330
0
330
0
330
0
330
0
330
0
330
0
330
0
330
0
330
0
330
0
330
0
330
0
330
0
330
0
330
0
330
0
330
0
330
0
330
0
330
0
330
0
330
0
330
0
330
0
330
0
330
0
330
0
330
0
330
0
330
0
330
0
330
0
330
0
330
0
330
0
330
0
330
0
330
0
330
0
330
0
330
0
330
0
330
0
330
0
330
0
330
0
330
0
330
0
330
0
330
0
330
0
330
0
330
0
330
0
330
0
330
0
330
0
330
0
330
0
330
0
330
0
330
0
330
0
330
0
330
0
330
0
330
0
330
0
330
0
330
0
330
0
330
0
330
0
330
0
330
0
330
0
330
0
330
0
330
0
330
0
330
0
330
0
330
0
330
0
330
0
330
0
330
0
330
0
330
0
330
0
330
0
330
0
330
0
330
0
330
0
330
0
330
0
330
0
330
0
330
0
330
0
330
0
330
0
330
0
330
0
330
0
330
0
330
0
330
0
330
0
330
0
330
0
330
0
330
0
330
0
330
0
330
0
330
0
330
0
330
0
330
0
330
0
330
0
330
0
330
0
330
0
330
0
330
0
330
0
330
0
330
0
330
0
330
0
330
0
330
0
330
0
330
0
330
0
330
0
330
0
330
0
330
0
330
0
330
0
330
0
330
0
330
0
330
0
330
0
330
0
330
0
330
0
330
0
330
0
330
0
330
0
330
0
330
0
330
0
330
0
330
0
330
0
330
0
330
0
330
0
330
0
330
0
330
0
330
0
330
0
330
0
330
0
330
0
330
0
330
0
330
0
330
0
330
0
330
0
330
0
330
0
330
0
330
0
330
0
330
0
330
0
330
0
330
0
330
0
330
0
330
0
330
0
330
0
330
0
330
0
330
0
330
0
330
0
330
0
330
0
330
0
330
0
330
0
330
0
330
0
330
0
330
0
330
0
330
0
330
0
330
0
330
0
330
0
330
0
330
0
330
0
330
0
330
0
330
0
330
0
330
0
330
0
330
0
330
0
330
0
330
0
330
0
330
0
330
0
330
0
330
0
330
0
330
0
330
0
330
0
330
0
330
0
330
0
330
0
330
0
330
0
330
0
330
0
330
0
330
0
330
0
330
0
330
0
330
0
330
0
330
0
330
0
330
0
330
0
330
0
330
0
330
0
330
0
330
0
330
0
330
0
330
0
330
0
330
0
330
0
330
0
330
0
330
0
330
0
330
0
330
0
330
0
330
0
330
0
330
0
330
0
330
0
330
0
330
0
330
0
330
0
330
0
330
0
330
0
330
0
330
0
330
0
330
0
330
0
330
0
330
0
330
0
330
0
330
0
330
0
330
0
330
0
330
0
330
0
330
0
330
0
330
0
330
0
330
0
330
0
330
0
330
0
330
0
330
0
330
0
330
0
330
0
330
0
330
0
330
0
330
0
330
0
330
0
330
0
330
0
330
0
330
0
330
0
330
0
330
0
330
0
330
0
330
0
330
0
330
0
330
0
330
0
330
0
330
0
330
0
330
0
330
0
330
0
330
0
330
0
330
0
330
0
330
0
330
0
330
0
330
0
330
0
330
0
330
0
330
0
330
0
330
0
330
0
330
0
330
0
330
0
330
0
330
0
330
0
330
0
330
0
330
0
330
0
330
0
330
0
330
0
330
0
330
0
330
0
330
0
330
0
330
0
330
0
330
0
330
0
330
0
330
0
330
0
330
0
330
0
330
0
330
0
330
0
330
0
330
0
330
0
330
0
330
0
330
0
330
0
330
0
330
0
330
0
330
0
330
0
330
0
330
0
330
0
330
0
330
0
330
0
330
0
330
0
330
0
330
0
330
0
330
0
330
0
330
0
330
0
330
0
330
0
330
0
330
0
330
0
330
0
330
0
330
0
330
0
330
0
330
0
330
0
330
0
330
0
330
0
330
0
330
0
330
0
  0
XRECORD
  5
CB0E
102
{ACAD_REACTORS
330
CB0C
102
}
330
CB0C
100
AcDbXrecord
280
     1
  1
50
  1
*-50
  1
*
  1
*
 70
     0
  1
*
  1
*
1001
ACAD
1000
( NAME== "*-50" )
  0
XRECORD
  5
3FB7
102
{ACAD_REACTORS
330
3F96
102
}
330
3F96
100
AcDbXrecord
280
     1
 91
        3
330
A47
 90
        8
 62
     7
370
    40
331
16
  1
Color_7
330
A46
 90
        0
 62
    14
370
    -3
331
16
  1
Color_14
330
3A31
 90
        8
 62
     7
370
    20
331
16
  1
Color_7
330
6D1
 90
        0
 62
     7
370
    -3
331
16
  1
Color_7
330
0
 90
        8
 62
     7
370
    50
331
16
  1
Color_7
330
A48
 90
        8
 62
     2
370
    35
331
16
  1
Color_2
330
FA5
 90
        8
 62
     7
370
    -3
331
16
  1
Color_7
330
10
 90
        8
 62
     7
370
    -3
331
16
  1
Color_7
  0
XRECORD
  5
CB0D
102
{ACAD_REACTORS
330
CB0B
102
}
330
CB0B
100
AcDbXrecord
280
     1
  1
AcLyLayerFilter
 90
        1
300
50
301
( NAME== "*-50" )
  0
DICTIONARY
  5
65123
330
22
100
AcDbDictionary
280
     1
281
     1
  3
ACAD_XREC_ROUNDTRIP
360
65124
  0
DICTIONARY
  5
65121
330
1E
100
AcDbDictionary
280
     1
281
     1
  3
ACAD_XREC_ROUNDTRIP
360
65122
  0
DICTIONARY
  5
65125
330
26
100
AcDbDictionary
280
     1
281
     1
  3
ACAD_XREC_ROUNDTRIP
360
65126
  0
DICTIONARY
  5
65129
330
C448
100
AcDbDictionary
280
     1
281
     1
  3
ACAD_XREC_ROUNDTRIP
360
6512A
  0
DICTIONARY
  5
65127
330
C447
100
AcDbDictionary
280
     1
281
     1
  3
ACAD_XREC_ROUNDTRIP
360
65128
  0
DICTIONARY
  5
6512B
330
C449
100
AcDbDictionary
280
     1
281
     1
  3
ACAD_XREC_ROUNDTRIP
360
6512C
  0
DICTIONARY
  5
6512F
330
C85D
100
AcDbDictionary
280
     1
281
     1
  3
ACAD_XREC_ROUNDTRIP
360
65130
  0
DICTIONARY
  5
6512D
330
C45D
100
AcDbDictionary
280
     1
281
     1
  3
ACAD_XREC_ROUNDTRIP
360
6512E
  0
XRECORD
  5
65124
102
{ACAD_REACTORS
330
65123
102
}
330
65123
100
AcDbXrecord
280
     1
102
SHADEPLOT
 70
     1
102
SHADEPLOTRESLEVEL
 70
     2
102
SHADEPLOTCUSTOMDPI
 70
   300
  0
XRECORD
  5
65122
102
{ACAD_REACTORS
330
65121
102
}
330
65121
100
AcDbXrecord
280
     1
102
SHADEPLOT
 70
     0
102
SHADEPLOTRESLEVEL
 70
     2
102
SHADEPLOTCUSTOMDPI
 70
   300
  0
XRECORD
  5
65126
102
{ACAD_REACTORS
330
65125
102
}
330
65125
100
AcDbXrecord
280
     1
102
SHADEPLOT
 70
     0
102
SHADEPLOTRESLEVEL
 70
     2
102
SHADEPLOTCUSTOMDPI
 70
   300
  0
XRECORD
  5
6512A
102
{ACAD_REACTORS
330
65129
102
}
330
65129
100
AcDbXrecord
280
     1
102
MATERIAL
148
0.0
149
0.0
149
0.0
 93
        0
 94
       63
282
     0
 72
     1
 77
     1
171
     1
175
     1
179
     1
273
     0
  0
XRECORD
  5
65128
102
{ACAD_REACTORS
330
65127
102
}
330
65127
100
AcDbXrecord
280
     1
102
MATERIAL
148
0.0
149
0.0
149
0.0
 93
        0
 94
       63
282
     0
 72
     1
 77
     1
171
     1
175
     1
179
     1
273
     0
  0
XRECORD
  5
6512C
102
{ACAD_REACTORS
330
6512B
102
}
330
6512B
100
AcDbXrecord
280
     1
102
MATERIAL
148
0.0
149
0.0
149
0.0
 93
        0
 94
       63
282
     0
 72
     1
 77
     1
171
     1
175
     1
179
     1
273
     0
  0
XRECORD
  5
65130
102
{ACAD_REACTORS
330
6512F
102
}
330
6512F
100
AcDbXrecord
280
     1
102
SHADEPLOT
 70
     0
102
SHADEPLOTRESLEVEL
 70
     2
102
SHADEPLOTCUSTOMDPI
 70
   300
  0
XRECORD
  5
6512E
102
{ACAD_REACTORS
330
6512D
102
}
330
6512D
100
AcDbXrecord
280
     1
102
ACAD_ROUNDTRIP_PRE2007_TABLESTYLE
 90
      512
 91
        0
  1

 92
      512
 93
        0
  2

 94
      512
 95
        0
  3

  0
ENDSEC
  0
EOF
