  0
SECTION
  2
HEADER
  9
$ACADVER
  1
AC1015
  9
$ACADMAINTVER
 70
    20
  9
$DWGCODEPAGE
  3
ANSI_932
  9
$INSBASE
 10
0.0
 20
0.0
 30
0.0
  9
$EXTMIN
 10
-0.0181266115766903
 20
-0.0128167960642713
 30
-0.0000000349181948
  9
$EXTMAX
 10
297.0181293776892
 20
210.0128187519016
 30
0.0000000814935746
  9
$LIMMIN
 10
0.0
 20
-0.0000000000000284
  9
$LIMMAX
 10
297.0
 20
210.0
  9
$ORTHOMODE
 70
     0
  9
$REGENMODE
 70
     1
  9
$FILLMODE
 70
     1
  9
$QTEXTMODE
 70
     0
  9
$MIRRTEXT
 70
     0
  9
$LTSCALE
 40
1.0
  9
$ATTMODE
 70
     1
  9
$TEXTSIZE
 40
3.2
  9
$TRACEWID
 40
1.0
  9
$TEXTSTYLE
  7
STANDARD
  9
$CLAYER
  8
AM_7
  9
$CELTYPE
  6
ByLayer
  9
$CECOLOR
 62
   256
  9
$CELTSCALE
 40
1.0
  9
$DISPSILH
 70
     0
  9
$DIMSCALE
 40
1.0
  9
$DIMASZ
 40
1.0
  9
$DIMEXO
 40
1.0
  9
$DIMDLI
 40
10.0
  9
$DIMRND
 40
0.0
  9
$DIMDLE
 40
0.0
  9
$DIMEXE
 40
1.0
  9
$DIMTP
 40
0.1
  9
$DIMTM
 40
0.1
  9
$DIMTXT
 40
3.5
  9
$DIMCEN
 40
0.0
  9
$DIMTSZ
 40
0.0
  9
$DIMTOL
 70
     0
  9
$DIMLIM
 70
     0
  9
$DIMTIH
 70
     0
  9
$DIMTOH
 70
     0
  9
$DIMSE1
 70
     0
  9
$DIMSE2
 70
     0
  9
$DIMTAD
 70
     1
  9
$DIMZIN
 70
     8
  9
$DIMBLK
  1

  9
$DIMASO
 70
     1
  9
$DIMSHO
 70
     1
  9
$DIMPOST
  1

  9
$DIMAPOST
  1
"
  9
$DIMALT
 70
     0
  9
$DIMALTD
 70
     2
  9
$DIMALTF
 40
0.0393701
  9
$DIMLFAC
 40
1.0
  9
$DIMTOFL
 70
     1
  9
$DIMTVP
 40
0.0
  9
$DIMTIX
 70
     0
  9
$DIMSOXD
 70
     0
  9
$DIMSAH
 70
     0
  9
$DIMBLK1
  1

  9
$DIMBLK2
  1

  9
$DIMSTYLE
  2
SYS
  9
$DIMCLRD
 70
   256
  9
$DIMCLRE
 70
   256
  9
$DIMCLRT
 70
     7
  9
$DIMTFAC
 40
0.71
  9
$DIMGAP
 40
1.5
  9
$DIMJUST
 70
     0
  9
$DIMSD1
 70
     0
  9
$DIMSD2
 70
     0
  9
$DIMTOLJ
 70
     0
  9
$DIMTZIN
 70
     8
  9
$DIMALTZ
 70
     0
  9
$DIMALTTZ
 70
     0
  9
$DIMUPT
 70
     0
  9
$DIMDEC
 70
     2
  9
$DIMTDEC
 70
     2
  9
$DIMALTU
 70
     2
  9
$DIMALTTD
 70
     2
  9
$DIMTXSTY
  7
STANDARD
  9
$DIMAUNIT
 70
     0
  9
$DIMADEC
 70
     0
  9
$DIMALTRND
 40
0.0
  9
$DIMAZIN
 70
     2
  9
$DIMDSEP
 70
    46
  9
$DIMATFIT
 70
     3
  9
$DIMFRAC
 70
     0
  9
$DIMLDRBLK
  1

  9
$DIMLUNIT
 70
     2
  9
$DIMLWD
 70
    -1
  9
$DIMLWE
 70
    -1
  9
$DIMTMOVE
 70
     0
  9
$LUNITS
 70
     2
  9
$LUPREC
 70
     2
  9
$SKETCHINC
 40
1.0
  9
$FILLETRAD
 40
1.0
  9
$AUNITS
 70
     0
  9
$AUPREC
 70
     0
  9
$MENU
  1
.
  9
$ELEVATION
 40
0.0
  9
$PELEVATION
 40
0.0
  9
$THICKNESS
 40
0.0
  9
$LIMCHECK
 70
     0
  9
$CHAMFERA
 40
0.0
  9
$CHAMFERB
 40
0.0
  9
$CHAMFERC
 40
20.0
  9
$CHAMFERD
 40
0.0
  9
$SKPOLY
 70
     0
  9
$TDCREATE
 40
2453693.762204676
  9
$TDUCREATE
 40
2453693.387204676
  9
$TDUPDATE
 40
2456743.656638264
  9
$TDUUPDATE
 40
2456743.281638264
  9
$TDINDWG
 40
0.0298083218
  9
$TDUSRTIMER
 40
0.0298077662
  9
$USRTIMER
 70
     1
  9
$ANGBASE
 50
0.0
  9
$ANGDIR
 70
     0
  9
$PDMODE
 70
     0
  9
$PDSIZE
 40
-3.0
  9
$PLINEWID
 40
0.0
  9
$SPLFRAME
 70
     0
  9
$SPLINETYPE
 70
     6
  9
$SPLINESEGS
 70
     8
  9
$HANDSEED
  5
C832
  9
$SURFTAB1
 70
     6
  9
$SURFTAB2
 70
     6
  9
$SURFTYPE
 70
     6
  9
$SURFU
 70
     6
  9
$SURFV
 70
     6
  9
$UCSBASE
  2

  9
$UCSNAME
  2

  9
$UCSORG
 10
0.0
 20
0.0
 30
0.0
  9
$UCSXDIR
 10
1.0
 20
0.0
 30
0.0
  9
$UCSYDIR
 10
0.0
 20
1.0
 30
0.0
  9
$UCSORTHOREF
  2

  9
$UCSORTHOVIEW
 70
     0
  9
$UCSORGTOP
 10
0.0
 20
0.0
 30
0.0
  9
$UCSORGBOTTOM
 10
0.0
 20
0.0
 30
0.0
  9
$UCSORGLEFT
 10
0.0
 20
0.0
 30
0.0
  9
$UCSORGRIGHT
 10
0.0
 20
0.0
 30
0.0
  9
$UCSORGFRONT
 10
0.0
 20
0.0
 30
0.0
  9
$UCSORGBACK
 10
0.0
 20
0.0
 30
0.0
  9
$PUCSBASE
  2

  9
$PUCSNAME
  2

  9
$PUCSORG
 10
0.0
 20
0.0
 30
0.0
  9
$PUCSXDIR
 10
1.0
 20
0.0
 30
0.0
  9
$PUCSYDIR
 10
0.0
 20
1.0
 30
0.0
  9
$PUCSORTHOREF
  2

  9
$PUCSORTHOVIEW
 70
     0
  9
$PUCSORGTOP
 10
0.0
 20
0.0
 30
0.0
  9
$PUCSORGBOTTOM
 10
0.0
 20
0.0
 30
0.0
  9
$PUCSORGLEFT
 10
0.0
 20
0.0
 30
0.0
  9
$PUCSORGRIGHT
 10
0.0
 20
0.0
 30
0.0
  9
$PUCSORGFRONT
 10
0.0
 20
0.0
 30
0.0
  9
$PUCSORGBACK
 10
0.0
 20
0.0
 30
0.0
  9
$USERI1
 70
     0
  9
$USERI2
 70
     0
  9
$USERI3
 70
     0
  9
$USERI4
 70
     0
  9
$USERI5
 70
     0
  9
$USERR1
 40
0.0
  9
$USERR2
 40
0.0
  9
$USERR3
 40
0.0
  9
$USERR4
 40
0.0
  9
$USERR5
 40
0.0
  9
$WORLDVIEW
 70
     1
  9
$SHADEDGE
 70
     3
  9
$SHADEDIF
 70
    70
  9
$TILEMODE
 70
     1
  9
$MAXACTVP
 70
    64
  9
$PINSBASE
 10
0.0
 20
0.0
 30
0.0
  9
$PLIMCHECK
 70
     0
  9
$PEXTMIN
 10
1.000000000000000E+20
 20
1.000000000000000E+20
 30
1.000000000000000E+20
  9
$PEXTMAX
 10
-1.000000000000000E+20
 20
-1.000000000000000E+20
 30
-1.000000000000000E+20
  9
$PLIMMIN
 10
-3.17498779296875
 20
-3.174999952316282
  9
$PLIMMAX
 10
293.4970092773438
 20
206.692492723465
  9
$UNITMODE
 70
     0
  9
$VISRETAIN
 70
     1
  9
$PLINEGEN
 70
     0
  9
$PSLTSCALE
 70
     1
  9
$TREEDEPTH
 70
  3020
  9
$CMLSTYLE
  2
Standard
  9
$CMLJUST
 70
     0
  9
$CMLSCALE
 40
20.0
  9
$PROXYGRAPHICS
 70
     1
  9
$MEASUREMENT
 70
     1
  9
$CELWEIGHT
370
    -1
  9
$ENDCAPS
280
     0
  9
$JOINSTYLE
280
     0
  9
$LWDISPLAY
290
     0
  9
$INSUNITS
 70
     4
  9
$HYPERLINKBASE
  1

  9
$STYLESHEET
  1
MONOCHROME.CTB
  9
$XEDIT
290
     1
  9
$CEPSNTYPE
380
     0
  9
$PSTYLEMODE
290
     1
  9
$FINGERPRINTGUID
  2
{22C9FACF-7FF4-426F-956C-2C4BBF7A9B9B}
  9
$VERSIONGUID
  2
{0E384CB8-C068-4E6D-B1D4-E68661060ADF}
  9
$EXTNAMES
290
     1
  9
$PSVPSCALE
 40
0.0
  9
$OLESTARTUP
290
     0
  0
ENDSEC
  0
SECTION
  2
CLASSES
  0
CLASS
  1
ACDBDICTIONARYWDFLT
  2
AcDbDictionaryWithDefault
  3
ObjectDBX Classes
 90
        0
280
     0
281
     0
  0
CLASS
  1
ACDBPLACEHOLDER
  2
AcDbPlaceHolder
  3
ObjectDBX Classes
 90
        0
280
     0
281
     0
  0
CLASS
  1
LAYOUT
  2
AcDbLayout
  3
ObjectDBX Classes
 90
        0
280
     0
281
     0
  0
CLASS
  1
AMGSETTINGSOBJ
  2
AmgSettingsObj
  3
"AcadM|Product Description: AutoCAD Mechanical|Company: Autodesk"
 90
        0
280
     0
281
     0
  0
CLASS
  1
ACME_DOCUMENT
  2
AcMeDbDoc
  3
AcMeServices
 90
        0
280
     0
281
     0
  0
CLASS
  1
ACMESCOPE
  2
AcMeScope
  3
AcMeServices
 90
        0
280
     0
281
     0
  0
CLASS
  1
ACMECOMMANDHISTORY
  2
AcMeCommandHistory
  3
AcMeServices
 90
        0
280
     0
281
     0
  0
CLASS
  1
DICTIONARYVAR
  2
AcDbDictionaryVar
  3
ObjectDBX Classes
 90
        0
280
     0
281
     0
  0
CLASS
  1
ACIMSYSVARMAN
  2
AcImSysVarManager
  3
AcMeServices
 90
        0
280
     0
281
     0
  0
CLASS
  1
ACIMREALSYSVAR
  2
AcImRealSysVar
  3
AcMeServices
 90
        0
280
     0
281
     0
  0
CLASS
  1
ACIMINTSYSVAR
  2
AcImIntSysVar
  3
AcMeServices
 90
        0
280
     0
281
     0
  0
CLASS
  1
ACMEDRAWINGMAN
  2
AcMeDrawingMan
  3
AcMeServices
 90
        0
280
     0
281
     0
  0
CLASS
  1
ACMEVIEW
  2
AcMeView
  3
AcMeServices
 90
        0
280
     0
281
     0
  0
CLASS
  1
ACDBENTITYCACHE
  2
AcMeEntityCache
  3
AcMeServices
 90
        0
280
     0
281
     0
  0
CLASS
  1
GSMANAGER
  2
AcMeGSManager
  3
AcMeServices
 90
        0
280
     0
281
     0
  0
CLASS
  1
AMDTINTERNALREACTOR
  2
AmdtInternalReactor
  3
AcMeServices
 90
        0
280
     0
281
     0
  0
CLASS
  1
ACMESTATEMGR
  2
AcMeStateMgr
  3
AcMeServices
 90
        0
280
     0
281
     0
  0
CLASS
  1
ACGREFMASTER
  2
AcGrefMaster
  3
AcAttribServices
 90
        0
280
     0
281
     0
  0
CLASS
  1
ACME_DATABASE
  2
AcMeDbDatabase
  3
AcMeServices
 90
        0
280
     0
281
     0
  0
CLASS
  1
ACRFINSADJUSTERMGR
  2
AcRfInsAdjusterMgr
  3
AcMeServices
 90
        0
280
     0
281
     0
  0
CLASS
  1
ACGREFACADMASTER
  2
AcGrefacadMaster
  3
AcGrefServices
 90
        0
280
     0
281
     0
  0
CLASS
  1
AMIMASTER
  2
AmiMaster
  3
AmiServices
 90
        0
280
     0
281
     0
  0
CLASS
  1
ACMDATADICTIONARY
  2
AcmDataDictionary
  3
"AcmSymBB|Product Description: AutoCAD Mechanical|Company: Autodesk"
 90
        0
280
     0
281
     0
  0
CLASS
  1
ACMDATAENTRYBLOCK
  2
AcmDataEntryBlock
  3
"AcmSymBB|Product Description: AutoCAD Mechanical|Company: Autodesk"
 90
    32768
280
     0
281
     0
  0
CLASS
  1
ACIMSTRSYSVAR
  2
AcImStrSysVar
  3
AcMeServices
 90
        0
280
     0
281
     0
  0
CLASS
  1
ACMSTANDARDISO
  2
AcmStandardISO
  3
"Amdt_StdImp|Product Description: AutoCAD Mechanical|Company: Autodesk"
 90
        0
280
     0
281
     0
  0
CLASS
  1
AMGOBJPROPCFG
  2
AmgObjPropCfg
  3
"AmgLay|Product Description: AutoCAD Mechanical|Company: Autodesk"
 90
        1
280
     0
281
     0
  0
CLASS
  1
AMDTEDGESTANDARDISO
  2
AmdtEdgeStdISO
  3
"Amdt_StdImp|Product Description: AutoCAD Mechanical|Company: Autodesk"
 90
    32768
280
     0
281
     0
  0
CLASS
  1
ACMSURFSTANDARDISO
  2
AcmSurfTextStdISO
  3
"Amdt_StdImp|Product Description: AutoCAD Mechanical|Company: Autodesk"
 90
        0
280
     0
281
     0
  0
CLASS
  1
ACMFCFSTANDARDISO
  2
AcmFCFStdISO
  3
"Amdt_StdImp|Product Description: AutoCAD Mechanical|Company: Autodesk"
 90
        0
280
     0
281
     0
  0
CLASS
  1
ACMWELDSTANDARDISO
  2
AcmWeldingStdISO
  3
"Amdt_StdImp|Product Description: AutoCAD Mechanical|Company: Autodesk"
 90
        0
280
     0
281
     0
  0
CLASS
  1
ACMIDSTANDARDISO
  2
AcmIdStdISO
  3
"Amdt_StdImp|Product Description: AutoCAD Mechanical|Company: Autodesk"
 90
        0
280
     0
281
     0
  0
CLASS
  1
ACMDATUMSTANDARDISO
  2
AcmDatumStdISO
  3
"Amdt_StdImp|Product Description: AutoCAD Mechanical|Company: Autodesk"
 90
        0
280
     0
281
     0
  0
CLASS
  1
ACMBOMSTANDARDISO
  2
AcmBOMStdISO
  3
"Amdt_StdImp|Product Description: AutoCAD Mechanical|Company: Autodesk"
 90
        0
280
     0
281
     0
  0
CLASS
  1
ACMDETAILSTANDARDISO
  2
AmdtDetailSymStdISO
  3
"Amdt_StdImp|Product Description: AutoCAD Mechanical|Company: Autodesk"
 90
        0
280
     0
281
     0
  0
CLASS
  1
ACMSECTIONSTANDARDISO
  2
AmdtSectionSymStdISO
  3
"Amdt_StdImp|Product Description: AutoCAD Mechanical|Company: Autodesk"
 90
        0
280
     0
281
     0
  0
CLASS
  1
ACMCENTERLINESTANDARDISO
  2
AmdtCenterLineStdISO
  3
"Amdt_StdImp|Product Description: AutoCAD Mechanical|Company: Autodesk"
 90
        0
280
     0
281
     0
  0
CLASS
  1
ACAMGLAYSTD
  2
AcAmgLayStd
  3
"AmgLay|Product Description: AutoCAD Mechanical|Company: Autodesk"
 90
        0
280
     0
281
     0
  0
CLASS
  1
ACAMGDIMSTD
  2
AcAmgDimStd
  3
"AmgDim|Product Description: AutoCAD Mechanical|Company: Autodesk"
 90
        0
280
     0
281
     0
  0
CLASS
  1
ACAMGTITLESTD
  2
AcAmgTitleStd
  3
"AmgTitle|Product Description: AutoCAD Mechanical|Company: Autodesk"
 90
        0
280
     0
281
     0
  0
CLASS
  1
ACAMGFILTERDAT
  2
AcAmgFilterDat
  3
"AcadM|Product Description: AutoCAD Mechanical|Company: Autodesk"
 90
    32768
280
     0
281
     0
  0
CLASS
  1
LAYER_INDEX
  2
AcDbLayerIndex
  3
ObjectDBX Classes
 90
    32768
280
     0
281
     0
  0
CLASS
  1
IDBUFFER
  2
AcDbIdBuffer
  3
ObjectDBX Classes
 90
    32768
280
     0
281
     0
  0
CLASS
  1
PLOTSETTINGS
  2
AcDbPlotSettings
  3
ObjectDBX Classes
 90
        0
280
     0
281
     0
  0
CLASS
  1
AMDTFORMULAUPDATEDISPATCHER
  2
AmdtFormulaUpdateDispatcher
  3
AcMeServices
 90
    32768
280
     0
281
     0
  0
CLASS
  1
ACMSTANDARDANSI
  2
AcmStandardANSI
  3
"Amdt_StdImp|Product Description: AutoCAD Mechanical|Company: Autodesk"
 90
    32768
280
     0
281
     0
  0
CLASS
  1
ACMSURFSTANDARDANSI
  2
AcmSurfTextStdANSI
  3
"Amdt_StdImp|Product Description: AutoCAD Mechanical|Company: Autodesk"
 90
    32768
280
     0
281
     0
  0
CLASS
  1
ACMFCFSTANDARDANSI
  2
AcmFCFStdANSI
  3
"Amdt_StdImp|Product Description: AutoCAD Mechanical|Company: Autodesk"
 90
    32768
280
     0
281
     0
  0
CLASS
  1
ACMWELDSTANDARDANSI
  2
AcmWeldingStdANSI
  3
"Amdt_StdImp|Product Description: AutoCAD Mechanical|Company: Autodesk"
 90
    32768
280
     0
281
     0
  0
CLASS
  1
ACMIDSTANDARDANSI
  2
AcmIdStdANSI
  3
"Amdt_StdImp|Product Description: AutoCAD Mechanical|Company: Autodesk"
 90
    32768
280
     0
281
     0
  0
CLASS
  1
ACMDATUMSTANDARDANSI
  2
AcmDatumStdANSI
  3
"Amdt_StdImp|Product Description: AutoCAD Mechanical|Company: Autodesk"
 90
    32768
280
     0
281
     0
  0
CLASS
  1
ACMBOMSTANDARDANSI
  2
AcmBOMStdANSI
  3
"Amdt_StdImp|Product Description: AutoCAD Mechanical|Company: Autodesk"
 90
    32768
280
     0
281
     0
  0
CLASS
  1
ACMDETAILSTANDARDANSI
  2
AmdtDetailSymStdANSI
  3
"Amdt_StdImp|Product Description: AutoCAD Mechanical|Company: Autodesk"
 90
    32768
280
     0
281
     0
  0
CLASS
  1
ACMSECTIONSTANDARDANSI
  2
AmdtSectionSymStdANSI
  3
"Amdt_StdImp|Product Description: AutoCAD Mechanical|Company: Autodesk"
 90
    32768
280
     0
281
     0
  0
CLASS
  1
ACMCENTERLINESTANDARDANSI
  2
AmdtCenterLineStdANSI
  3
"Amdt_StdImp|Product Description: AutoCAD Mechanical|Company: Autodesk"
 90
    32768
280
     0
281
     0
  0
CLASS
  1
ACMBOM
  2
AcmBom
  3
"AcmSymBB|Product Description: AutoCAD Mechanical|Company: Autodesk"
 90
    32768
280
     0
281
     0
  0
CLASS
  1
ACMDATAENTRYPART
  2
AcmDataEntryPart
  3
"AcmSymBB|Product Description: AutoCAD Mechanical|Company: Autodesk"
 90
    32768
280
     0
281
     0
  0
CLASS
  1
ACMPARTREF
  2
AcmPartRef
  3
"AcmSymBB|Product Description: AutoCAD Mechanical|Company: Autodesk"
 90
    35839
280
     0
281
     1
  0
CLASS
  1
ACDBCIRCARCRES
  2
AcDbCircArcRes
  3
AcGrefServices
 90
    32768
280
     0
281
     0
  0
CLASS
  1
ACMBOMROW
  2
AcmBomRow
  3
"AcmSymBB|Product Description: AutoCAD Mechanical|Company: Autodesk"
 90
    32768
280
     0
281
     0
  0
CLASS
  1
ACMBALLOON
  2
AcmBalloon
  3
"AcmSymBB|Product Description: AutoCAD Mechanical|Company: Autodesk"
 90
    35839
280
     0
281
     1
  0
CLASS
  1
AMDTNOTE
  2
AmdtNote
  3
"AcmSymBB|Product Description: AutoCAD Mechanical|Company: Autodesk"
 90
    35839
280
     0
281
     1
  0
CLASS
  1
STDPART2D
  2
AmgStdPart
  3
"g3vace|Class: AmgStdPart|Product Description: AutoCAD Mechanical|Company: Autodesk"
 90
    35839
280
     0
281
     1
  0
CLASS
  1
ACDBSTDPARTRES_LINE
  2
AcDbStdPartRes_Line
  3
"g3vace|Class: AcDbStdPartRes_Line|Product Description: AutoCAD Mechanical|Company: Autodesk"
 90
    32768
280
     0
281
     0
  0
CLASS
  1
ACMDATAENTRY
  2
AcmDataEntry
  3
"AcmSymBB|Product Description: AutoCAD Mechanical|Company: Autodesk"
 90
    32768
280
     0
281
     0
  0
CLASS
  1
ACDBOPPOLYLINERES
  2
AcDbOpPolylineRes
  3
AcGrefServices
 90
    32768
280
     0
281
     0
  0
CLASS
  1
ACMPARTLIST
  2
AcmPartList
  3
"AcmSymBB|Product Description: AutoCAD Mechanical|Company: Autodesk"
 90
    35839
280
     0
281
     1
  0
CLASS
  1
ACDBLINERES
  2
AcDbLineRes
  3
AcGrefServices
 90
    32768
280
     0
281
     0
  0
CLASS
  1
ACRFINSADJ
  2
AcRfInsAdjuster
  3
AcMeServices
 90
    32768
280
     0
281
     0
  0
CLASS
  1
AM_DRAWING_MGR
  2
AcDmDwgMgr
  3
AcMechDwgViewMgmt
 90
        0
280
     0
281
     0
  0
CLASS
  1
AM_DWG_DOCUMENT
  2
AcDmDwgDocument
  3
AcMechDwgViewMgmt
 90
        0
280
     0
281
     0
  0
CLASS
  1
AM_DWG_SHEET
  2
AcDmSheet
  3
AcMechDwgViewMgmt
 90
        0
280
     0
281
     0
  0
CLASS
  1
AM_VIEWDIMPARMAP
  2
AcDmViewDimParMap
  3
AcMechDwgViewMgmt
 90
        0
280
     0
281
     0
  0
CLASS
  1
AM_DWGMGR_NAME
  2
AcDmDwgMgrName
  3
AcMechDwgViewMgmt
 90
        0
280
     0
281
     0
  0
CLASS
  1
AMDTMENUSTATEMGR
  2
AmdtMenuStateMgr
  3
McadcomServices
 90
        0
280
     0
281
     0
  0
CLASS
  1
AMDTMCOMMENUSTATE
  2
AmdtMcomMenuState
  3
McadcomServices
 90
        0
280
     0
281
     0
  0
CLASS
  1
ASAPP
  2
AcAsAppObject
  3
AutoSurfServices
 90
        0
280
     0
281
     0
  0
CLASS
  1
IM_STATIC_MAN
  2
AcImStaticVarManager
  3
AcMeServices
 90
    32768
280
     0
281
     0
  0
CLASS
  1
ACIMDBLSTATICVAR
  2
AcImDblStaticVar
  3
AcMeServices
 90
    32768
280
     0
281
     0
  0
CLASS
  1
ACIMSTRSTATICVAR
  2
AcImStrStaticVar
  3
AcMeServices
 90
    32768
280
     0
281
     0
  0
CLASS
  1
ACIMINTSTATICVAR
  2
AcImIntStaticVar
  3
AcMeServices
 90
    32768
280
     0
281
     0
  0
CLASS
  1
ACASGREFMASTER
  2
AcAsGrefMaster
  3
AutoSurfResolverServices
 90
        0
280
     0
281
     0
  0
CLASS
  1
ACADGREFMODULE
  2
AcAdGrefModule
  3
AdGrefServices
 90
        0
280
     0
281
     0
  0
CLASS
  1
AMDTMAPISURFMOUDULE
  2
AmdtMApiSurfModule
  3
MApiSurfServices
 90
        0
280
     0
281
     0
  0
CLASS
  1
MAPIAMMOUDLE
  2
MApiAmModule
  3
MApiAmServices
 90
        0
280
     0
281
     0
  0
CLASS
  1
AMDTADMENUSTATE
  2
AmdtAdMenuState
  3
DesignerServices
 90
        0
280
     0
281
     0
  0
CLASS
  1
ADAPPL
  2
AcAdAppl
  3
DesignerServices
 90
        0
280
     0
281
     0
  0
CLASS
  1
DEPMGR
  2
AcAdDepMgr
  3
DesignerServices
 90
        0
280
     0
281
     0
  0
CLASS
  1
PARAMMGR
  2
AcAdParamMgr
  3
DesignerServices
 90
        0
280
     0
281
     0
  0
CLASS
  1
PARAMSCOPE
  2
AcAdParamScope
  3
DesignerServices
 90
        0
280
     0
281
     0
  0
CLASS
  1
NAMEDAPPL
  2
AcAdNamedAppl
  3
DesignerServices
 90
        0
280
     0
281
     0
  0
CLASS
  1
ADHNTMPLT
  2
AdHoleNoteTemplateMgr
  3
DesignerServices
 90
    32768
280
     0
281
     0
  0
CLASS
  1
AM_HNTEMPLATE_MGR_NAME
  2
AdHoleNoteTemplateMgrName
  3
DesignerServices
 90
    32768
280
     0
281
     0
  0
CLASS
  1
AMDTDMMENUSTATE
  2
AmdtDmMenuState
  3
AcMechDwgViewMgmt
 90
        0
280
     0
281
     0
  0
CLASS
  1
MAPIADMODULE
  2
MApiAdModule
  3
MApiAdServices
 90
        0
280
     0
281
     0
  0
CLASS
  1
AMDTAMMENUSTATE
  2
AmdtAmMenuState
  3
DesignerAssemblies
 90
        0
280
     0
281
     0
  0
CLASS
  1
ACAMPROJECT
  2
AcAmProject
  3
DesignerAssemblies
 90
        0
280
     0
281
     0
  0
CLASS
  1
ACAMGRCOMPDEF
  2
AcAmGrCompDef
  3
DesignerAssemblies
 90
        0
280
     0
281
     0
  0
CLASS
  1
ACCMCONTEXT
  2
AcCmContext
  3
DesignerAssemblies
 90
        0
280
     0
281
     0
  0
CLASS
  1
ACAMCOMPDEF
  2
AcAmCompDef
  3
DesignerAssemblies
 90
        0
280
     0
281
     0
  0
CLASS
  1
ACAMCOMPDEFMGR
  2
AcAmCompDefMgr
  3
DesignerAssemblies
 90
        0
280
     0
281
     0
  0
CLASS
  1
AMCONTEXTMGR
  2
AcAmContextMgr
  3
DesignerAssemblies
 90
        0
280
     0
281
     0
  0
CLASS
  1
ACAMCONTEXTMODELER
  2
AcAmContextModeler
  3
DesignerAssemblies
 90
        0
280
     0
281
     0
  0
CLASS
  1
CATALOGSTATE
  2
AcAmCatalogState
  3
DesignerAssemblies
 90
        0
280
     0
281
     0
  0
CLASS
  1
ACAMGRCOMPDEFSET
  2
AcAmGrCompDefSet
  3
DesignerAssemblies
 90
        0
280
     0
281
     0
  0
CLASS
  1
AMDTBROWSERDBTAB
  2
AmdtBrowserDbTab
  3
McadcomServices
 90
        0
280
     0
281
     0
  0
CLASS
  1
CBROWSERAPPOBJECT
  2
CBrowserAppObject
  3
McadcomServices
 90
        0
280
     0
281
     0
  0
CLASS
  1
DM_PLACEHOLDER
  2
AcDmSelsetPlaceholder
  3
AcMechDwgViewMgmt
 90
        0
280
     0
281
     0
  0
CLASS
  1
ACMPICKOBJ
  2
AcmPickEnt
  3
"AcmSymBB|Product Description: AutoCAD Mechanical|Company: Autodesk"
 90
    32768
280
     0
281
     1
  0
CLASS
  1
ACMNOTESTANDARDISO
  2
AmdtNoteStdISO
  3
"Amdt_StdImp|Product Description: AutoCAD Mechanical|Company: Autodesk"
 90
        0
280
     0
281
     0
  0
CLASS
  1
ACMNOTESTANDARDANSI
  2
AmdtNoteStdANSI
  3
"Amdt_StdImp|Product Description: AutoCAD Mechanical|Company: Autodesk"
 90
    32768
280
     0
281
     0
  0
CLASS
  1
ACMTHREADLINESTANDARDISO
  2
AmdtThreadLineStdISO
  3
"Amdt_StdImp|Product Description: AutoCAD Mechanical|Company: Autodesk"
 90
        0
280
     0
281
     0
  0
CLASS
  1
ACMTHREADLINESTANDARDANSI
  2
AmdtThreadLineStdANSI
  3
"Amdt_StdImp|Product Description: AutoCAD Mechanical|Company: Autodesk"
 90
    32768
280
     0
281
     0
  0
CLASS
  1
TABLESTYLE
  2
AcDbTableStyle
  3
ObjectDBX Classes
 90
     4095
280
     0
281
     0
  0
CLASS
  1
SORTENTSTABLE
  2
AcDbSortentsTable
  3
ObjectDBX Classes
 90
        0
280
     0
281
     0
  0
CLASS
  1
DIMASSOC
  2
AcDbDimAssoc
  3
"AcDbDimAssoc|Product Desc:     AcDim ARX App For Dimension|Company:          Autodesk, Inc.|WEB Address:      www.autodesk.com"
 90
        0
280
     0
281
     0
  0
CLASS
  1
ACRFATTGENMGR
  2
AcRfAttGeneralMgr
  3
AcAttribServices
 90
    32768
280
     0
281
     0
  0
CLASS
  1
MATERIAL
  2
AcDbMaterial
  3
ObjectDBX Classes
 90
     1024
280
     0
281
     0
  0
CLASS
  1
VISUALSTYLE
  2
AcDbVisualStyle
  3
ObjectDBX Classes
 90
     4095
280
     0
281
     0
  0
CLASS
  1
AMDTEDGESTANDARDISO13715
  2
AmdtEdgeStdISO13715
  3
"Amdt_StdImp|Product Description: AutoCAD Mechanical|Company: Autodesk"
 90
        0
280
     0
281
     0
  0
CLASS
  1
ACMTAPERSTANDARDISO
  2
AcmTaperStdISO
  3
"Amdt_StdImp|Product Description: AutoCAD Mechanical|Company: Autodesk"
 90
        0
280
     0
281
     0
  0
CLASS
  1
AMDTNOTETEMPLATEDB
  2
AmdtNoteTemplateDB
  3
AMDT_STDIMP_MODULE_NAME
 90
        0
280
     0
281
     0
  0
CLASS
  1
ACAMGHOLECHARTSTDISO
  2
AcAmgHoleChartStdISO
  3
ACMSYMBB_MODULE_NAME
 90
        0
280
     0
281
     0
  0
CLASS
  1
CAMSSTRUCTBTNSTATE
  2
StructBtnState
  3
L"DesignerAssemblies"
 90
        0
280
     0
281
     0
  0
ENDSEC
  0
SECTION
  2
TABLES
  0
TABLE
  2
VPORT
  5
8
330
0
100
AcDbSymbolTable
 70
     1
  0
VPORT
  5
C673
330
8
100
AcDbSymbolTableRecord
100
AcDbViewportTableRecord
  2
*Active
 70
     0
 10
0.0
 20
0.0
 11
1.0
 21
1.0
 12
148.5000013830562
 22
105.0000009779186
 13
0.0
 23
0.0
 14
2.5
 24
2.5
 15
10.0
 25
10.0
 16
0.0
 26
0.0
 36
1.0
 17
0.0
 27
0.0
 37
0.0
 40
211.571836545865
 41
1.648648648648648
 42
50.0
 43
-1370.695619172058
 44
-1370.695619172058
 50
0.0
 51
0.0
 71
    16
 72
   100
 73
     1
 74
     3
 75
     0
 76
     0
 77
     0
 78
     0
281
     0
 65
     0
110
0.0
120
0.0
130
0.0
111
1.0
121
0.0
131
0.0
112
0.0
122
1.0
132
0.0
 79
     0
146
0.0
  0
ENDTAB
  0
TABLE
  2
LTYPE
  5
5
330
0
100
AcDbSymbolTable
 70
    28
  0
LTYPE
  5
14
330
5
100
AcDbSymbolTableRecord
100
AcDbLinetypeTableRecord
  2
ByBlock
 70
     0
  3

 72
    65
 73
     0
 40
0.0
  0
LTYPE
  5
15
330
5
100
AcDbSymbolTableRecord
100
AcDbLinetypeTableRecord
  2
ByLayer
 70
     0
  3

 72
    65
 73
     0
 40
0.0
  0
LTYPE
  5
16
330
5
100
AcDbSymbolTableRecord
100
AcDbLinetypeTableRecord
  2
Continuous
 70
     0
  3
Solid line
 72
    65
 73
     0
 40
0.0
  0
LTYPE
  5
4F
330
5
100
AcDbSymbolTableRecord
100
AcDbLinetypeTableRecord
  2
AM_ISO02W050
 70
     0
  3
__ __ __ __ __ __ __ __ __ __ __ __ __ __ __
 72
    65
 73
     2
 40
7.5
 49
6.0
 74
     0
 49
-1.5
 74
     0
  0
LTYPE
  5
52
330
5
100
AcDbSymbolTableRecord
100
AcDbLinetypeTableRecord
  2
Amconstr
 70
     0
  3
_______________________
 72
    65
 73
     2
 40
9999.0
 49
9999.0
 74
     0
 49
0.0
 74
     0
  0
LTYPE
  5
64
330
5
100
AcDbSymbolTableRecord
100
AcDbLinetypeTableRecord
  2
ACISOWELD
 70
     0
  3
_ _ _ _ _
 72
    65
 73
     2
 40
2.0
 49
2.0
 74
     0
 49
-1.0
 74
     0
  0
LTYPE
  5
65
330
5
100
AcDbSymbolTableRecord
100
AcDbLinetypeTableRecord
  2
ACISOTGB
 70
     0
  3
__ . . __ . .
 72
    65
 73
     6
 40
9.0
 49
4.0
 74
     0
 49
-1.0
 74
     0
 49
1.0
 74
     0
 49
-1.0
 74
     0
 49
1.0
 74
     0
 49
-1.0
 74
     0
  0
LTYPE
  5
66
330
5
100
AcDbSymbolTableRecord
100
AcDbLinetypeTableRecord
  2
ACISOTGL
 70
     0
  3
_ _ _ _ _
 72
    65
 73
     2
 40
3.0
 49
2.0
 74
     0
 49
-1.0
 74
     0
  0
LTYPE
  5
69
330
5
100
AcDbSymbolTableRecord
100
AcDbLinetypeTableRecord
  2
CENTER
 70
     0
  3
__ . __
 72
    65
 73
     4
 40
7.0
 49
4.0
 74
     0
 49
-1.0
 74
     0
 49
1.0
 74
     0
 49
-1.0
 74
     0
  0
LTYPE
  5
A6E
330
5
100
AcDbSymbolTableRecord
100
AcDbLinetypeTableRecord
  2
PHANTOM2
 70
     0
  3
Phantom (.5x) ___ _ _ ___ _ _ ___ _ _ ___ _ _
 72
    65
 73
     6
 40
31.75
 49
15.875
 74
     0
 49
-3.174999999999998
 74
     0
 49
3.174999999999998
 74
     0
 49
-3.174999999999998
 74
     0
 49
3.174999999999998
 74
     0
 49
-3.174999999999998
 74
     0
  0
LTYPE
  5
4DED
330
5
100
AcDbSymbolTableRecord
100
AcDbLinetypeTableRecord
  2
中線
 70
     0
  3
___________________
 72
    65
 73
     2
 40
2.0
 49
1.0
 74
     0
 49
1.0
 74
     0
  0
LTYPE
  5
4DF6
330
5
100
AcDbSymbolTableRecord
100
AcDbLinetypeTableRecord
  2
細線
 70
     0
  3
___________________
 72
    65
 73
     2
 40
2.0
 49
1.0
 74
     0
 49
1.0
 74
     0
  0
LTYPE
  5
4DF7
330
5
100
AcDbSymbolTableRecord
100
AcDbLinetypeTableRecord
  2
太線
 70
     0
  3
___________________
 72
    65
 73
     2
 40
2.0
 49
1.0
 74
     0
 49
1.0
 74
     0
  0
LTYPE
  5
4EA7
330
5
100
AcDbSymbolTableRecord
100
AcDbLinetypeTableRecord
  2
文字
 70
     0
  3
_________________
 72
    65
 73
     2
 40
2.0
 49
1.0
 74
     0
 49
1.0
 74
     0
  0
LTYPE
  5
4EA9
330
5
100
AcDbSymbolTableRecord
100
AcDbLinetypeTableRecord
  2
寸法線
 70
     0
  3
________________
 72
    65
 73
     2
 40
2.0
 49
1.0
 74
     0
 49
1.0
 74
     0
  0
LTYPE
  5
4F12
330
5
100
AcDbSymbolTableRecord
100
AcDbLinetypeTableRecord
  2
ハッチング
 70
     0
  3
_________________
 72
    65
 73
     2
 40
2.0
 49
1.0
 74
     0
 49
1.0
 74
     0
  0
LTYPE
  5
5180
330
5
100
AcDbSymbolTableRecord
100
AcDbLinetypeTableRecord
  2
陰線1
 70
     0
  3
__ __ __ __
 72
    65
 73
     2
 40
4.0
 49
2.2
 74
     0
 49
-1.8
 74
     0
  0
LTYPE
  5
5182
330
5
100
AcDbSymbolTableRecord
100
AcDbLinetypeTableRecord
  2
切断線
 70
     0
  3
/\/-/\/-/\/-/\/-/\/-/\/
 72
    65
 73
     2
 40
11.0001
 49
0.0001
 74
     4
 75
   135
340
56
 46
0.04
 50
0.0
 44
0.0
 45
0.0
 49
-11.0
 74
     0
  0
LTYPE
  5
5183
330
5
100
AcDbSymbolTableRecord
100
AcDbLinetypeTableRecord
  2
想像線1
 70
     0
  3
__ __ __ _____ __ __ ____
 72
    65
 73
     6
 40
14.5
 49
6.0
 74
     0
 49
-1.5
 74
     0
 49
2.0
 74
     0
 49
-1.5
 74
     0
 49
2.0
 74
     0
 49
-1.5
 74
     0
  0
LTYPE
  5
5185
330
5
100
AcDbSymbolTableRecord
100
AcDbLinetypeTableRecord
  2
中心線1
 70
     0
  3
___ _ ___ _ ___
 72
    65
 73
     4
 40
18.0
 49
12.0
 74
     0
 49
-2.0
 74
     0
 49
2.0
 74
     0
 49
-2.0
 74
     0
  0
LTYPE
  5
5188
330
5
100
AcDbSymbolTableRecord
100
AcDbLinetypeTableRecord
  2
補助線
 70
     0
  3
______________
 72
    65
 73
     2
 40
2.0
 49
1.0
 74
     0
 49
1.0
 74
     0
  0
LTYPE
  5
6427
330
5
100
AcDbSymbolTableRecord
100
AcDbLinetypeTableRecord
  2
HIDDEN
 70
     0
  3
Hidden __ __ __ __ __ __ __ __ __ __ __ __ __ _
 72
    65
 73
     2
 40
0.375
 49
0.25
 74
     0
 49
-0.125
 74
     0
  0
LTYPE
  5
AC81
330
5
100
AcDbSymbolTableRecord
100
AcDbLinetypeTableRecord
  2
破断線
 70
     0
  3
/\/-/\/-/\/-/\/-/\/-/\/
 72
    65
 73
     2
 40
0.4401
 49
0.0001
 74
     4
 75
   136
340
AC80
 46
0.0016
 50
0.0
 44
0.0
 45
0.0
 49
-0.4400000000000003
 74
     0
  0
LTYPE
  5
AC9E
330
5
100
AcDbSymbolTableRecord
100
AcDbLinetypeTableRecord
  2
Amzigzag
 70
     0
  3
/\/-/\/-/\/-/\/-/\/-/\/
 72
    65
 73
     2
 40
11.0001
 49
0.0001
 74
     4
 75
   135
340
56
 46
0.04
 50
0.0
 44
0.0
 45
0.0
 49
-11.0
 74
     0
  0
LTYPE
  5
AF0F
330
5
100
AcDbSymbolTableRecord
100
AcDbLinetypeTableRecord
  2
genzigzag
 70
     0
  3
/\/-/\/-/\/-/\/-/\/-/\/
 72
    65
 73
     2
 40
12.0001
 49
0.0001
 74
     4
 75
   135
340
AC80
 46
2.0
 50
0.0
 44
0.0
 45
0.0
 49
-12.0
 74
     0
  0
LTYPE
  5
AF95
330
5
100
AcDbSymbolTableRecord
100
AcDbLinetypeTableRecord
  2
AM_ISO08W050
 70
     0
  3
____ . ____ . ____ . ____ . ____ . ____ . ____
 72
    65
 73
     4
 40
18.0
 49
12.0
 74
     0
 49
-1.5
 74
     0
 49
3.0
 74
     0
 49
-1.5
 74
     0
  0
LTYPE
  5
AF96
330
5
100
AcDbSymbolTableRecord
100
AcDbLinetypeTableRecord
  2
AM_ISO09W050
 70
     0
  3
_____ . . _____ . . _____ . . ____ .. ____
 72
    65
 73
     6
 40
22.5
 49
12.0
 74
     0
 49
-1.5
 74
     0
 49
3.0
 74
     0
 49
-1.5
 74
     0
 49
3.0
 74
     0
 49
-1.5
 74
     0
  0
LTYPE
  5
AF97
330
5
100
AcDbSymbolTableRecord
100
AcDbLinetypeTableRecord
  2
AM_ISO08W050x2
 70
     0
  3
__ . __ . __ . __ . __ . __
 72
    65
 73
     4
 40
9.0
 49
6.0
 74
     0
 49
-0.75
 74
     0
 49
1.5
 74
     0
 49
-0.75
 74
     0
  0
LTYPE
  5
AF98
330
5
100
AcDbSymbolTableRecord
100
AcDbLinetypeTableRecord
  2
AM_ISO02W050x2
 70
     0
  3
 _ _ _ _ _ _ _ _ _ _ _ _
 72
    65
 73
     2
 40
3.75
 49
3.0
 74
     0
 49
-0.75
 74
     0
  0
LTYPE
  5
B1CF
330
5
100
AcDbSymbolTableRecord
100
AcDbLinetypeTableRecord
  2
陰線2
 70
     0
  3
_ _ _ _
 72
    65
 73
     2
 40
1.199999999999999
 49
0.7
 74
     0
 49
-0.5
 74
     0
  0
ENDTAB
  0
TABLE
  2
LAYER
  5
2
102
{ACAD_XDICTIONARY
360
3F95
102
}
330
0
100
AcDbSymbolTable
 70
    28
  0
LAYER
  5
10
330
2
100
AcDbSymbolTableRecord
100
AcDbLayerTableRecord
  2
0
 70
     0
 62
     7
  6
Continuous
370
    -3
390
F
  0
LAYER
  5
6D1
330
2
100
AcDbSymbolTableRecord
100
AcDbLayerTableRecord
  2
Defpoints
 70
     0
 62
     7
  6
Continuous
290
     0
370
    -3
390
F
  0
LAYER
  5
5F85
330
2
100
AcDbSymbolTableRecord
100
AcDbLayerTableRecord
  2
AM_0
 70
     0
 62
     7
  6
中線
370
    25
390
F
1001
AcAecLayerStandard
1000

1000

  0
LAYER
  5
AC9F
330
2
100
AcDbSymbolTableRecord
100
AcDbLayerTableRecord
  2
size
 70
     0
 62
     5
  6
Continuous
290
     0
370
    25
390
F
  0
LAYER
  5
ACA0
330
2
100
AcDbSymbolTableRecord
100
AcDbLayerTableRecord
  2
waku
 70
     0
 62
     7
  6
Continuous
370
    35
390
F
  0
LAYER
  5
ACA1
330
2
100
AcDbSymbolTableRecord
100
AcDbLayerTableRecord
  2
AM_6
 70
     0
 62
     2
  6
文字
370
    15
390
F
1001
AcAecLayerStandard
1000

1000

  0
LAYER
  5
ACC8
330
2
100
AcDbSymbolTableRecord
100
AcDbLayerTableRecord
  2
hyomoji
 70
     0
 62
     2
  6
Continuous
370
    15
390
F
  0
LAYER
  5
ACC9
330
2
100
AcDbSymbolTableRecord
100
AcDbLayerTableRecord
  2
hyosen1
 70
     0
 62
     1
  6
Continuous
370
    25
390
F
  0
LAYER
  5
ACCA
330
2
100
AcDbSymbolTableRecord
100
AcDbLayerTableRecord
  2
hyosen2
 70
     0
 62
     1
  6
Continuous
370
    15
390
F
  0
LAYER
  5
AD60
330
2
100
AcDbSymbolTableRecord
100
AcDbLayerTableRecord
  2
AM_1
 70
     0
 62
    30
  6
太線
370
    25
390
F
1001
AcAecLayerStandard
1000

1000

  0
LAYER
  5
AD64
330
2
100
AcDbSymbolTableRecord
100
AcDbLayerTableRecord
  2
AM_2
 70
     0
 62
     1
  6
細線
370
    15
390
F
1001
AcAecLayerStandard
1000

1000

  0
LAYER
  5
AD67
330
2
100
AcDbSymbolTableRecord
100
AcDbLayerTableRecord
  2
AM_3
 70
     0
 62
     6
  6
陰線1
370
    15
390
F
1001
AcAecLayerStandard
1000

1000

  0
LAYER
  5
AD68
330
2
100
AcDbSymbolTableRecord
100
AcDbLayerTableRecord
  2
AM_5
 70
     0
 62
     3
  6
寸法線
370
    15
390
F
1001
AcAecLayerStandard
1000

1000

  0
LAYER
  5
AD69
330
2
100
AcDbSymbolTableRecord
100
AcDbLayerTableRecord
  2
AM_7
 70
     0
 62
     4
  6
中心線1
370
    15
390
F
1001
AcAecLayerStandard
1000

1000

  0
LAYER
  5
AD6A
330
2
100
AcDbSymbolTableRecord
100
AcDbLayerTableRecord
  2
AM_8
 70
     0
 62
     1
  6
ハッチング
370
    15
390
F
1001
AcAecLayerStandard
1000

1000

  0
LAYER
  5
AD6E
330
2
100
AcDbSymbolTableRecord
100
AcDbLayerTableRecord
  2
AM_10
 70
     0
 62
     7
  6
genzigzag
370
    25
390
F
1001
AcAecLayerStandard
1000

1000

  0
LAYER
  5
AD6F
330
2
100
AcDbSymbolTableRecord
100
AcDbLayerTableRecord
  2
AM_11
 70
     0
 62
     2
  6
想像線1
370
    15
390
F
1001
AcAecLayerStandard
1000

1000

  0
LAYER
  5
B1D0
330
2
100
AcDbSymbolTableRecord
100
AcDbLayerTableRecord
  2
00カラー
 70
     0
 62
     6
  6
中線
370
    30
390
F
  0
LAYER
  5
B1D1
330
2
100
AcDbSymbolTableRecord
100
AcDbLayerTableRecord
  2
0ねじ柱
 70
     0
 62
     5
  6
中線
370
    30
390
F
  0
LAYER
  5
B1D2
330
2
100
AcDbSymbolTableRecord
100
AcDbLayerTableRecord
  2
0内部側丸座
 70
     0
 62
     1
  6
中線
370
    30
390
F
  0
LAYER
  5
B1D3
330
2
100
AcDbSymbolTableRecord
100
AcDbLayerTableRecord
  2
0ハンドル座
 70
     0
 62
     2
  6
中線
370
    30
390
F
  0
LAYER
  5
B1D4
330
2
100
AcDbSymbolTableRecord
100
AcDbLayerTableRecord
  2
0軸
 70
     0
 62
     7
  6
中線
370
    30
390
F
  0
LAYER
  5
B1D5
330
2
100
AcDbSymbolTableRecord
100
AcDbLayerTableRecord
  2
0取手
 70
     0
 62
     4
  6
中線
370
    30
390
F
  0
LAYER
  5
B1D6
330
2
100
AcDbSymbolTableRecord
100
AcDbLayerTableRecord
  2
0スペーサー
 70
     0
 62
   140
  6
中線
370
    30
390
F
  0
LAYER
  5
B1D7
330
2
100
AcDbSymbolTableRecord
100
AcDbLayerTableRecord
  2
0ネジ
 70
     0
 62
    42
  6
中線
370
    30
390
F
  0
LAYER
  5
B1D8
330
2
100
AcDbSymbolTableRecord
100
AcDbLayerTableRecord
  2
0丸座
 70
     0
 62
     1
  6
中線
370
    30
390
F
  0
LAYER
  5
B1D9
330
2
100
AcDbSymbolTableRecord
100
AcDbLayerTableRecord
  2
0ワッシャー
 70
     0
 62
   231
  6
中線
370
    30
390
F
  0
LAYER
  5
BF92
330
2
100
AcDbSymbolTableRecord
100
AcDbLayerTableRecord
  2
AM_CL
 70
     0
 62
     1
  6
Amconstr
370
    15
390
F
1001
AcAecLayerStandard
1000

1000

  0
ENDTAB
  0
TABLE
  2
STYLE
  5
3
330
0
100
AcDbSymbolTable
 70
     6
  0
STYLE
  5
11
330
3
100
AcDbSymbolTableRecord
100
AcDbTextStyleTableRecord
  2
STANDARD
 70
     0
 40
0.0
 41
0.7
 50
0.0
 71
     0
 42
3.2
  3
romans.shx
  4
extfont.shx
  0
STYLE
  5
56
330
3
100
AcDbSymbolTableRecord
100
AcDbTextStyleTableRecord
  2

 70
     1
 40
0.0
 41
1.0
 50
0.0
 71
     0
 42
2.5
  3
ltypeshp.shx
  4

  0
STYLE
  5
58
330
3
100
AcDbSymbolTableRecord
100
AcDbTextStyleTableRecord
  2
ACISOTS
 70
     0
 40
1.0
 41
1.0
 50
0.0
 71
     0
 42
2.5
  3
isocp.shx
  4
extfont.shx
  0
STYLE
  5
63
330
3
100
AcDbSymbolTableRecord
100
AcDbTextStyleTableRecord
  2
ACISOGDT
 70
     0
 40
0.0
 41
1.0
 50
0.0
 71
     0
 42
2.5
  3
amgdt.shx
  4

  0
STYLE
  5
A74
330
3
100
AcDbSymbolTableRecord
100
AcDbTextStyleTableRecord
  2
DIM
 70
     0
 40
0.0
 41
1.0
 50
0.0
 71
     0
 42
2.5
  3
monotxt.shx
  4
extfont.shx
  0
STYLE
  5
AC80
330
3
100
AcDbSymbolTableRecord
100
AcDbTextStyleTableRecord
  2

 70
     1
 40
0.0
 41
1.0
 50
0.0
 71
     0
 42
3.2
  3
genltshp.shx
  4

  0
ENDTAB
  0
TABLE
  2
VIEW
  5
6
330
0
100
AcDbSymbolTable
 70
     6
  0
VIEW
  5
AE1
330
6
100
AcDbSymbolTableRecord
100
AcDbViewTableRecord
  2
AM_VIEW1
 70
     0
 40
110.5215517241379
 10
74.25
 20
154.739224137931
 41
148.5
 11
0.0
 21
0.0
 31
1.0
 12
0.0
 22
0.0
 32
0.0
 42
50.0
 43
-1370.695619172058
 44
-1370.695619172058
 50
0.0
 71
    16
281
     0
 72
     0
  0
VIEW
  5
AE2
330
6
100
AcDbSymbolTableRecord
100
AcDbViewTableRecord
  2
AM_VIEW2
 70
     0
 40
110.5215517241379
 10
222.75
 20
154.739224137931
 41
148.5
 11
0.0
 21
0.0
 31
1.0
 12
0.0
 22
0.0
 32
0.0
 42
50.0
 43
-1370.695619172058
 44
-1370.695619172058
 50
0.0
 71
    16
281
     0
 72
     0
  0
VIEW
  5
AE3
330
6
100
AcDbSymbolTableRecord
100
AcDbViewTableRecord
  2
AM_VIEW3
 70
     0
 40
110.5215517241379
 10
74.25
 20
55.26077586206894
 41
148.5
 11
0.0
 21
0.0
 31
1.0
 12
0.0
 22
0.0
 32
0.0
 42
50.0
 43
-1370.695619172058
 44
-1370.695619172058
 50
0.0
 71
    16
281
     0
 72
     0
  0
VIEW
  5
AE4
330
6
100
AcDbSymbolTableRecord
100
AcDbViewTableRecord
  2
AM_VIEW4
 70
     0
 40
110.5215517241379
 10
222.75
 20
55.26077586206894
 41
148.5
 11
0.0
 21
0.0
 31
1.0
 12
0.0
 22
0.0
 32
0.0
 42
50.0
 43
-1370.695619172058
 44
-1370.695619172058
 50
0.0
 71
    16
281
     0
 72
     0
  0
VIEW
  5
AE5
330
6
100
AcDbSymbolTableRecord
100
AcDbViewTableRecord
  2
AM_VIEW5
 70
     0
 40
110.5215517241379
 10
148.5
 20
105.0
 41
148.5
 11
0.0
 21
0.0
 31
1.0
 12
0.0
 22
0.0
 32
0.0
 42
50.0
 43
-1370.695619172058
 44
-1370.695619172058
 50
0.0
 71
    16
281
     0
 72
     0
  0
VIEW
  5
AE6
330
6
100
AcDbSymbolTableRecord
100
AcDbViewTableRecord
  2
AM_VIEW6
 70
     0
 40
221.0408930172414
 10
148.5
 20
105.0
 41
296.99703
 11
0.0
 21
0.0
 31
1.0
 12
0.0
 22
0.0
 32
0.0
 42
50.0
 43
-1370.695619172058
 44
-1370.695619172058
 50
0.0
 71
    16
281
     0
 72
     0
  0
ENDTAB
  0
TABLE
  2
UCS
  5
7
330
0
100
AcDbSymbolTable
 70
     0
  0
ENDTAB
  0
TABLE
  2
APPID
  5
9
330
0
100
AcDbSymbolTable
 70
    55
  0
APPID
  5
12
330
9
100
AcDbSymbolTableRecord
100
AcDbRegAppTableRecord
  2
ACAD
 70
     0
  0
APPID
  5
30
330
9
100
AcDbSymbolTableRecord
100
AcDbRegAppTableRecord
  2
MCAD_NO_VIS
 70
     0
  0
APPID
  5
31
330
9
100
AcDbSymbolTableRecord
100
AcDbRegAppTableRecord
  2
ACAD_TEMP_GRAPHIC
 70
     0
  0
APPID
  5
44
330
9
100
AcDbSymbolTableRecord
100
AcDbRegAppTableRecord
  2
ACATTRIBSERVICES
 70
     0
  0
APPID
  5
7A1
330
9
100
AcDbSymbolTableRecord
100
AcDbRegAppTableRecord
  2
GENIUS_GENDIMSH_14
 70
     0
  0
APPID
  5
A49
330
9
100
AcDbSymbolTableRecord
100
AcDbRegAppTableRecord
  2
GENIUS_GENREC_14
 70
     0
  0
APPID
  5
A4A
330
9
100
AcDbSymbolTableRecord
100
AcDbRegAppTableRecord
  2
GENIUS_GENOBJ-N-REC_13
 70
     0
  0
APPID
  5
A4B
330
9
100
AcDbSymbolTableRecord
100
AcDbRegAppTableRecord
  2
GENIUS_GENODEF_13
 70
     0
  0
APPID
  5
A4C
330
9
100
AcDbSymbolTableRecord
100
AcDbRegAppTableRecord
  2
DCO15
 70
     0
  0
APPID
  5
ADC
330
9
100
AcDbSymbolTableRecord
100
AcDbRegAppTableRecord
  2
GENIUS_GENOLIS_13
 70
     0
  0
APPID
  5
ADD
330
9
100
AcDbSymbolTableRecord
100
AcDbRegAppTableRecord
  2
GENIUS_GENOENT_13
 70
     0
  0
APPID
  5
ADE
330
9
100
AcDbSymbolTableRecord
100
AcDbRegAppTableRecord
  2
GENIUS_GENOBJ-N-TIT_13
 70
     0
  0
APPID
  5
ADF
330
9
100
AcDbSymbolTableRecord
100
AcDbRegAppTableRecord
  2
GENIUS_GENTITLE_13
 70
     0
  0
APPID
  5
AE0
330
9
100
AcDbSymbolTableRecord
100
AcDbRegAppTableRecord
  2
GENIUS_GENOREF_13
 70
     0
  0
APPID
  5
AE7
330
9
100
AcDbSymbolTableRecord
100
AcDbRegAppTableRecord
  2
GENIUS_GENSCREG_15
 70
     0
  0
APPID
  5
AE8
330
9
100
AcDbSymbolTableRecord
100
AcDbRegAppTableRecord
  2
GENIUS_GENOBJ-N-SDF_13
 70
     0
  0
APPID
  5
FAF
330
9
100
AcDbSymbolTableRecord
100
AcDbRegAppTableRecord
  2
GENIUS_GENBLLY_14
 70
     0
  0
APPID
  5
FB0
330
9
100
AcDbSymbolTableRecord
100
AcDbRegAppTableRecord
  2
GENIUS_GENTRA_14
 70
     0
  0
APPID
  5
1285
330
9
100
AcDbSymbolTableRecord
100
AcDbRegAppTableRecord
  2
GENIUS_GENDTOL_13
 70
     0
  0
APPID
  5
142D
330
9
100
AcDbSymbolTableRecord
100
AcDbRegAppTableRecord
  2
GENIUS_GENOBJ-N-CEN_13
 70
     0
  0
APPID
  5
1AB5
330
9
100
AcDbSymbolTableRecord
100
AcDbRegAppTableRecord
  2
GENIUS_GENOBJ-N-CRS_13
 70
     0
  0
APPID
  5
1B36
330
9
100
AcDbSymbolTableRecord
100
AcDbRegAppTableRecord
  2
GENIUS_GENOBJ-N-HTC_13
 70
     0
  0
APPID
  5
1B37
330
9
100
AcDbSymbolTableRecord
100
AcDbRegAppTableRecord
  2
GENIUS_GENHATCH_13
 70
     0
  0
APPID
  5
216D
330
9
100
AcDbSymbolTableRecord
100
AcDbRegAppTableRecord
  2
GENIUS_GENOBJ-N-FIL_13
 70
     0
  0
APPID
  5
2356
330
9
100
AcDbSymbolTableRecord
100
AcDbRegAppTableRecord
  2
GEVID990412420
 70
     0
  0
APPID
  5
2357
330
9
100
AcDbSymbolTableRecord
100
AcDbRegAppTableRecord
  2
GEVDC
 70
     0
  0
APPID
  5
2358
330
9
100
AcDbSymbolTableRecord
100
AcDbRegAppTableRecord
  2
GEVCON
 70
     0
  0
APPID
  5
235B
330
9
100
AcDbSymbolTableRecord
100
AcDbRegAppTableRecord
  2
GEVRADREF
 70
     0
  0
APPID
  5
2360
330
9
100
AcDbSymbolTableRecord
100
AcDbRegAppTableRecord
  2
GENIUS_GENBH_13
 70
     0
  0
APPID
  5
2362
330
9
100
AcDbSymbolTableRecord
100
AcDbRegAppTableRecord
  2
GENIUS_GENOBJ-NBEHI-BHF_13
 70
     0
  0
APPID
  5
2364
330
9
100
AcDbSymbolTableRecord
100
AcDbRegAppTableRecord
  2
GENIUS_GENOBJ-NBEHI-BHB_13
 70
     0
  0
APPID
  5
2379
330
9
100
AcDbSymbolTableRecord
100
AcDbRegAppTableRecord
  2
GENIUS_GENOBJ-F-SCPASSM_13
 70
     0
  0
APPID
  5
3D74
330
9
100
AcDbSymbolTableRecord
100
AcDbRegAppTableRecord
  2
GENIUS_GENDIM_13
 70
     0
  0
APPID
  5
3D76
330
9
100
AcDbSymbolTableRecord
100
AcDbRegAppTableRecord
  2
GENIUS_GE3DTOL_13
 70
     0
  0
APPID
  5
3D9C
330
9
100
AcDbSymbolTableRecord
100
AcDbRegAppTableRecord
  2
AD_DRAW
 70
     0
  0
APPID
  5
3DE8
330
9
100
AcDbSymbolTableRecord
100
AcDbRegAppTableRecord
  2
ASURF_PCURVE_APPNAME
 70
     0
  0
APPID
  5
3DED
330
9
100
AcDbSymbolTableRecord
100
AcDbRegAppTableRecord
  2
AMG_3D2D_5.0
 70
     0
  0
APPID
  5
3E1B
330
9
100
AcDbSymbolTableRecord
100
AcDbRegAppTableRecord
  2
DESIGNERASSEMBLIES
 70
     0
  0
APPID
  5
3E20
330
9
100
AcDbSymbolTableRecord
100
AcDbRegAppTableRecord
  2
ACADM_DIM_EDIT
 70
     0
  0
APPID
  5
3E21
330
9
100
AcDbSymbolTableRecord
100
AcDbRegAppTableRecord
  2
AMDT_DM_ADJ
 70
     0
  0
APPID
  5
4143
330
9
100
AcDbSymbolTableRecord
100
AcDbRegAppTableRecord
  2
GENIUS_GENFIL_13
 70
     0
  0
APPID
  5
4144
330
9
100
AcDbSymbolTableRecord
100
AcDbRegAppTableRecord
  2
GENIUS_GENOBJ-N-CHA_13
 70
     0
  0
APPID
  5
4E17
330
9
100
AcDbSymbolTableRecord
100
AcDbRegAppTableRecord
  2
GEVID1008153417
 70
     0
  0
APPID
  5
4E58
330
9
100
AcDbSymbolTableRecord
100
AcDbRegAppTableRecord
  2
GEVID1008153418
 70
     0
  0
APPID
  5
4E5E
330
9
100
AcDbSymbolTableRecord
100
AcDbRegAppTableRecord
  2
GEVID1008153419
 70
     0
  0
APPID
  5
4E64
330
9
100
AcDbSymbolTableRecord
100
AcDbRegAppTableRecord
  2
GEVID1008153420
 70
     0
  0
APPID
  5
4E75
330
9
100
AcDbSymbolTableRecord
100
AcDbRegAppTableRecord
  2
GEVID1008153421
 70
     0
  0
APPID
  5
4EB7
330
9
100
AcDbSymbolTableRecord
100
AcDbRegAppTableRecord
  2
GENIUS_AMGTXT_16
 70
     0
  0
APPID
  5
7645
330
9
100
AcDbSymbolTableRecord
100
AcDbRegAppTableRecord
  2
GENIUS_GENOBJ-N-DIM_13
 70
     0
  0
APPID
  5
AAD0
330
9
100
AcDbSymbolTableRecord
100
AcDbRegAppTableRecord
  2
ACAD_DSTYLE_DIMARC_LENGTH_SYMBOL
 70
     0
  0
APPID
  5
AAD1
330
9
100
AcDbSymbolTableRecord
100
AcDbRegAppTableRecord
  2
ACAD_DSTYLE_DIMJOGGED_JOGANGLE_SYMBOL
 70
     0
  0
APPID
  5
AAFD
330
9
100
AcDbSymbolTableRecord
100
AcDbRegAppTableRecord
  2
ACAD_PSEXT
 70
     0
  0
APPID
  5
AD61
330
9
100
AcDbSymbolTableRecord
100
AcDbRegAppTableRecord
  2
AcAecLayerStandard
 70
     0
  0
APPID
  5
AEE3
330
9
100
AcDbSymbolTableRecord
100
AcDbRegAppTableRecord
  2
ACAD_EXEMPT_FROM_CAD_STANDARDS
 70
     0
  0
APPID
  5
C0C1
330
9
100
AcDbSymbolTableRecord
100
AcDbRegAppTableRecord
  2
GENIUS_GENCEN_19
 70
     0
  0
ENDTAB
  0
TABLE
  2
DIMSTYLE
  5
A
330
0
100
AcDbSymbolTable
 70
    18
100
AcDbDimStyleTable
 71
     1
340
2515
  0
DIMSTYLE
105
A76
330
A
100
AcDbSymbolTableRecord
100
AcDbDimStyleTableRecord
  2
STANDARD
 70
     0
 41
3.0
 42
1.0
 43
7.0
 44
2.0
 73
     0
 74
     0
 77
     1
140
2.799999999999998
141
0.0
143
0.0394
147
0.7
171
     4
172
     1
173
     1
176
     3
177
     3
178
     2
271
     3
272
     3
273
     8
274
     4
289
     0
340
A74
341
A66
343
A66
344
A66
  0
DIMSTYLE
105
2515
330
A
100
AcDbSymbolTableRecord
100
AcDbDimStyleTableRecord
  2
SYS
 70
     0
  4
"
 41
1.0
 42
1.0
 43
10.0
 44
1.0
 47
0.1
 48
0.1
 73
     0
 74
     0
 77
     1
 78
     8
 79
     2
140
3.5
141
0.0
143
0.0393701
146
0.71
147
1.5
172
     1
176
   256
177
   256
178
     7
271
     2
272
     2
283
     0
284
     8
340
11
371
    -1
372
    -1
1001
ACAD_DSTYLE_DIMJOGGED_JOGANGLE_SYMBOL
1070
   384
1040
0.7853981633974483
1001
ACAD_DSTYLE_DIMARC_LENGTH_SYMBOL
1070
   379
1070
     1
  0
DIMSTYLE
105
2516
102
{ACAD_REACTORS
330
C494
102
}
330
A
100
AcDbSymbolTableRecord
100
AcDbDimStyleTableRecord
  2
SYS$3
 70
     0
  4
"
 41
2.0
 42
1.0
 43
10.0
 44
1.0
 47
0.1
 48
0.1
 73
     0
 77
     1
 78
     8
 79
     2
140
3.5
141
0.0
143
0.0393701
146
0.71
147
1.5
176
   256
177
   256
178
     2
271
     2
272
     2
283
     0
284
     8
288
     1
340
11
342
A66
371
    -1
372
    -1
1001
ACAD_DSTYLE_DIMJOGGED_JOGANGLE_SYMBOL
1070
   384
1040
0.7853981633974483
1001
ACAD_DSTYLE_DIMARC_LENGTH_SYMBOL
1070
   379
1070
     1
  0
DIMSTYLE
105
2517
330
A
100
AcDbSymbolTableRecord
100
AcDbDimStyleTableRecord
  2
SYS$4
 70
     0
  4
"
 41
2.0
 42
1.0
 43
10.0
 44
1.0
 47
0.1
 48
0.1
 73
     0
 77
     1
 78
     8
 79
     2
140
3.5
141
0.0
143
0.0393701
146
0.71
147
1.5
173
     1
176
   256
177
   256
178
     2
271
     2
272
     2
283
     0
284
     8
288
     1
340
11
344
A66
371
    -1
372
    -1
1001
ACAD_DSTYLE_DIMJOGGED_JOGANGLE_SYMBOL
1070
   384
1040
0.7853981633974483
1001
ACAD_DSTYLE_DIMARC_LENGTH_SYMBOL
1070
   379
1070
     1
  0
DIMSTYLE
105
2518
330
A
100
AcDbSymbolTableRecord
100
AcDbDimStyleTableRecord
  2
SYS$6
 70
     0
  4
"
 41
2.0
 42
1.0
 43
10.0
 44
1.0
 47
0.1
 48
0.1
 73
     0
 74
     0
 78
     8
 79
     2
140
3.5
141
0.0
143
0.0393701
146
0.71
147
1.5
172
     1
176
   256
177
   256
178
     2
271
     2
272
     2
283
     0
284
     8
340
11
341
A66
371
    -1
372
    -1
1001
ACAD_DSTYLE_DIMJOGGED_JOGANGLE_SYMBOL
1070
   384
1040
0.7853981633974483
1001
ACAD_DSTYLE_DIMARC_LENGTH_SYMBOL
1070
   379
1070
     1
  0
DIMSTYLE
105
2519
330
A
100
AcDbSymbolTableRecord
100
AcDbDimStyleTableRecord
  2
SYS$7
 70
     0
  4
"
 41
2.0
 42
1.0
 43
10.0
 44
1.0
 47
0.1
 48
0.1
 73
     0
 74
     0
 77
     1
 78
     8
 79
     2
140
5.0
141
0.0
143
0.0393701
146
0.71
147
1.5
172
     1
176
   256
177
   256
178
     2
271
     2
272
     2
283
     0
284
     8
340
11
341
A66
342
A66
371
    -1
372
    -1
1001
ACAD_DSTYLE_DIMJOGGED_JOGANGLE_SYMBOL
1070
   384
1040
0.7853981633974483
1001
ACAD_DSTYLE_DIMARC_LENGTH_SYMBOL
1070
   379
1070
     1
  0
DIMSTYLE
105
251A
330
A
100
AcDbSymbolTableRecord
100
AcDbDimStyleTableRecord
  2
SYS$SF
 70
     0
  4
"
 41
2.5
 42
1.0
 43
10.0
 44
1.0
 47
0.1
 48
0.1
 73
     0
 74
     0
 75
     1
 76
     1
 77
     1
 78
     8
 79
     2
140
3.5
141
0.0
143
0.0393701
146
0.71
147
1.5
172
     1
176
   256
177
   256
178
     2
271
     2
272
     3
283
     0
284
     8
340
11
341
6C4
342
6C4
371
    -1
372
    -1
1001
ACAD_DSTYLE_DIMJOGGED_JOGANGLE_SYMBOL
1070
   384
1040
0.7853981633974483
1001
ACAD_DSTYLE_DIMARC_LENGTH_SYMBOL
1070
   379
1070
     1
  0
DIMSTYLE
105
251B
330
A
100
AcDbSymbolTableRecord
100
AcDbDimStyleTableRecord
  2
SYS$SH
 70
     0
  4
"
 41
2.5
 42
1.0
 43
10.0
 44
1.0
 47
0.1
 48
0.1
 73
     0
 74
     0
 75
     1
 76
     1
 77
     1
 78
     8
 79
     2
140
3.5
141
0.0
143
0.0393701
144
2.0
146
0.71
147
1.5
172
     1
173
     1
176
   256
177
   256
178
     2
271
     2
272
     3
283
     0
284
     8
340
11
341
6C4
343
72
344
6C4
371
    -1
372
    -1
1001
ACAD_DSTYLE_DIMJOGGED_JOGANGLE_SYMBOL
1070
   384
1040
0.7853981633974483
1001
ACAD_DSTYLE_DIMARC_LENGTH_SYMBOL
1070
   379
1070
     1
  0
DIMSTYLE
105
2A59
330
A
100
AcDbSymbolTableRecord
100
AcDbDimStyleTableRecord
  2
SYS$2
 70
     0
  4
"
 41
1.0
 42
1.0
 43
10.0
 44
1.0
 47
0.1
 48
0.1
 73
     0
 74
     0
 77
     1
 78
     8
 79
     2
140
3.5
141
0.0
143
0.0393701
146
0.71
147
1.5
172
     1
176
   256
177
   256
178
     2
271
     2
272
     2
283
     0
284
     8
340
11
342
6C4
371
    -1
372
    -1
1001
ACAD_DSTYLE_DIMJOGGED_JOGANGLE_SYMBOL
1070
   384
1040
0.7853981633974483
1001
ACAD_DSTYLE_DIMARC_LENGTH_SYMBOL
1070
   379
1070
     1
  0
DIMSTYLE
105
2AAB
102
{ACAD_REACTORS
330
C164
330
C18A
330
C1BD
330
C435
330
C545
330
C578
330
C615
102
}
330
A
100
AcDbSymbolTableRecord
100
AcDbDimStyleTableRecord
  2
SYS$0
 70
     0
  4
"
 41
1.0
 42
1.0
 43
10.0
 44
1.0
 47
0.1
 48
0.1
 73
     0
 74
     0
 77
     1
 78
     8
 79
     2
140
3.200000000000001
141
0.0
143
0.0393701
146
0.71
147
1.5
172
     1
176
   256
177
   256
178
     2
271
     2
272
     2
283
     0
284
     8
340
11
341
A66
342
6C4
371
    -1
372
    -1
1001
ACAD_DSTYLE_DIMJOGGED_JOGANGLE_SYMBOL
1070
   384
1040
0.7853981633974483
1001
ACAD_DSTYLE_DIMARC_LENGTH_SYMBOL
1070
   379
1070
     1
  0
DIMSTYLE
105
AF99
330
A
100
AcDbSymbolTableRecord
100
AcDbDimStyleTableRecord
  2
AM_ISO
 70
     0
  4
"
 41
2.5
 42
1.0
 43
10.0
 44
1.0
 47
0.1
 48
0.1
 73
     0
 74
     0
 77
     1
 78
     8
 79
     2
140
3.5
141
0.0
143
0.0393701
146
0.71
147
1.5
172
     1
176
   256
177
   256
178
     2
271
     2
272
     3
274
     4
283
     0
284
     8
340
11
371
    -1
372
    -1
  0
DIMSTYLE
105
AF9A
330
A
100
AcDbSymbolTableRecord
100
AcDbDimStyleTableRecord
  2
AM_ISO$3
 70
     0
  4
"
 41
2.5
 42
1.0
 43
10.0
 44
1.0
 47
0.1
 48
0.1
 73
     0
 77
     1
 78
     8
 79
     2
140
3.5
141
0.0
143
0.0393701
146
0.71
147
1.5
176
   256
177
   256
178
     2
271
     2
272
     3
274
     4
283
     0
284
     8
288
     1
289
     0
340
11
371
    -1
372
    -1
  0
DIMSTYLE
105
AF9B
330
A
100
AcDbSymbolTableRecord
100
AcDbDimStyleTableRecord
  2
AM_ISO$4
 70
     0
  4
"
 41
2.5
 42
1.0
 43
10.0
 44
1.0
 47
0.1
 48
0.1
 73
     0
 77
     1
 78
     8
 79
     2
140
3.5
141
0.0
143
0.0393701
146
0.71
147
1.5
176
   256
177
   256
178
     2
271
     2
272
     3
274
     4
283
     0
284
     8
288
     1
289
     0
340
11
371
    -1
372
    -1
  0
DIMSTYLE
105
AF9C
330
A
100
AcDbSymbolTableRecord
100
AcDbDimStyleTableRecord
  2
AM_ISO$6
 70
     0
  4
"
 41
2.5
 42
1.0
 43
10.0
 44
1.0
 47
0.1
 48
0.1
 73
     0
 74
     0
 78
     8
 79
     2
140
3.5
141
0.0
143
0.0393701
146
0.71
147
1.5
172
     1
176
   256
177
   256
178
     2
271
     2
272
     3
274
     4
283
     0
284
     8
340
11
371
    -1
372
    -1
  0
DIMSTYLE
105
AF9D
330
A
100
AcDbSymbolTableRecord
100
AcDbDimStyleTableRecord
  2
AM_ISO$7
 70
     0
  4
"
 41
2.5
 42
1.0
 43
10.0
 44
1.0
 47
0.1
 48
0.1
 73
     0
 74
     0
 77
     1
 78
     8
 79
     2
140
5.0
141
0.0
143
0.0393701
146
0.71
147
1.5
172
     1
176
   256
177
   256
178
     2
271
     2
272
     3
274
     4
283
     0
284
     8
340
11
371
    -1
372
    -1
  0
DIMSTYLE
105
AF9E
330
A
100
AcDbSymbolTableRecord
100
AcDbDimStyleTableRecord
  2
AM_ISO$SF
 70
     0
  4
"
 41
2.5
 42
1.0
 43
10.0
 44
1.0
 47
0.1
 48
0.1
 73
     0
 74
     0
 75
     1
 76
     1
 77
     1
 78
     8
 79
     2
140
3.5
141
0.0
143
0.0393701
146
0.71
147
1.5
172
     1
176
   256
177
   256
178
     2
271
     2
272
     3
274
     4
283
     0
284
     8
340
11
371
    -1
372
    -1
  0
DIMSTYLE
105
AF9F
330
A
100
AcDbSymbolTableRecord
100
AcDbDimStyleTableRecord
  2
AM_ISO$SH
 70
     0
  4
"
 41
2.5
 42
1.0
 43
10.0
 44
1.0
 47
0.1
 48
0.1
 73
     0
 74
     0
 75
     1
 76
     1
 77
     1
 78
     8
 79
     2
140
3.5
141
0.0
143
0.0393701
144
2.0
146
0.71
147
1.5
172
     1
173
     1
176
   256
177
   256
178
     2
271
     2
272
     3
274
     4
283
     0
284
     8
340
11
343
72
371
    -1
372
    -1
  0
DIMSTYLE
105
B1DA
330
A
100
AcDbSymbolTableRecord
100
AcDbDimStyleTableRecord
  2
AM_ANSI
 70
     0
  4
mm
 41
0.1
 42
0.05
 43
0.5
 44
0.1
 47
0.1
 48
0.1
 78
     7
 79
     2
140
0.12
141
0.0
146
0.71
147
0.06
176
   256
177
   256
178
     2
274
     4
284
     7
340
11
371
    -1
372
    -1
1001
ACAD_DSTYLE_DIMJOGGED_JOGANGLE_SYMBOL
1070
   384
1040
0.7853981633974483
1001
ACAD_DSTYLE_DIMARC_LENGTH_SYMBOL
1070
   379
1070
     1
  0
ENDTAB
  0
TABLE
  2
BLOCK_RECORD
  5
1
330
0
100
AcDbSymbolTable
 70
    14
  0
BLOCK_RECORD
  5
1F
102
{ACAD_XDICTIONARY
360
8A
102
}
330
1
100
AcDbSymbolTableRecord
100
AcDbBlockTableRecord
  2
*Model_Space
340
22
  0
BLOCK_RECORD
  5
1B
330
1
100
AcDbSymbolTableRecord
100
AcDbBlockTableRecord
  2
*Paper_Space
340
1E
  0
BLOCK_RECORD
  5
23
330
1
100
AcDbSymbolTableRecord
100
AcDbBlockTableRecord
  2
*Paper_Space0
340
26
  0
BLOCK_RECORD
  5
72
330
1
100
AcDbSymbolTableRecord
100
AcDbBlockTableRecord
  2
GENAXEH
340
0
  0
BLOCK_RECORD
  5
6C4
330
1
100
AcDbSymbolTableRecord
100
AcDbBlockTableRecord
  2
_Dot
340
0
102
{BLKREFS
331
C5C3
331
C5C4
331
C5D4
331
C5D5
331
C5DC
331
C5DD
331
C5E5
331
C5E6
331
C5EE
331
C5EF
331
C5F7
331
C5F8
331
C600
331
C601
331
C627
331
C628
102
}
  0
BLOCK_RECORD
  5
A66
330
1
100
AcDbSymbolTableRecord
100
AcDbBlockTableRecord
  2
_OPEN30
340
0
  0
BLOCK_RECORD
  5
BD07
330
1
100
AcDbSymbolTableRecord
100
AcDbBlockTableRecord
  2
わく「」
340
0
310
2800000020000000200000000100080000000000000400000000000000000000000000000000000000000000000080000080000000808000800000008000800080800000C0C0C000C0DCC000F0CAA6000020400000206000002080000020A0000020C0000020E00000400000004020000040400000406000004080000040A0
310
000040C0000040E00000600000006020000060400000606000006080000060A0000060C0000060E00000800000008020000080400000806000008080000080A0000080C0000080E00000A0000000A0200000A0400000A0600000A0800000A0A00000A0C00000A0E00000C0000000C0200000C0400000C0600000C0800000C0
310
A00000C0C00000C0E00000E0000000E0200000E0400000E0600000E0800000E0A00000E0C00000E0E00040000000400020004000400040006000400080004000A0004000C0004000E00040200000402020004020400040206000402080004020A0004020C0004020E000404000004040200040404000404060004040800040
310
40A0004040C0004040E00040600000406020004060400040606000406080004060A0004060C0004060E00040800000408020004080400040806000408080004080A0004080C0004080E00040A0000040A0200040A0400040A0600040A0800040A0A00040A0C00040A0E00040C0000040C0200040C0400040C0600040C08000
310
40C0A00040C0C00040C0E00040E0000040E0200040E0400040E0600040E0800040E0A00040E0C00040E0E00080000000800020008000400080006000800080008000A0008000C0008000E00080200000802020008020400080206000802080008020A0008020C0008020E00080400000804020008040400080406000804080
310
008040A0008040C0008040E00080600000806020008060400080606000806080008060A0008060C0008060E00080800000808020008080400080806000808080008080A0008080C0008080E00080A0000080A0200080A0400080A0600080A0800080A0A00080A0C00080A0E00080C0000080C0200080C0400080C0600080C0
310
800080C0A00080C0C00080C0E00080E0000080E0200080E0400080E0600080E0800080E0A00080E0C00080E0E000C0000000C0002000C0004000C0006000C0008000C000A000C000C000C000E000C0200000C0202000C0204000C0206000C0208000C020A000C020C000C020E000C0400000C0402000C0404000C0406000C0
310
408000C040A000C040C000C040E000C0600000C0602000C0604000C0606000C0608000C060A000C060C000C060E000C0800000C0802000C0804000C0806000C0808000C080A000C080C000C080E000C0A00000C0A02000C0A04000C0A06000C0A08000C0A0A000C0A0C000C0A0E000C0C00000C0C02000C0C04000C0C06000
310
C0C08000C0C0A000F0FBFF00A4A0A000808080000000FF0000FF000000FFFF00FF000000FF00FF00FFFF0000FFFFFF0000000000000000000000000000000000000000000000000000000000000000000000000000000000000000000000000000000000000000000000000000000000000000000000000000000000000000
310
000000000000000000000000000000000000000000000000000000000000000000000000000000000000000000000000000000000000000000000000000000000000000000000000000000000000000000000000000000000000000000000000000000000000000000000000000000000000FCFCFCFCFCFCFCFCFCFCFCFCFC
310
FCFCFCFCFCFCFCFCFCFCFCFCFCFCFCFCFC0000FC00FF000000000000000000000000000000000000000000000000FF00FC0000FC00FF000000000000000000000000000000000000000000000000FF00FC0000FC00FF000000000000000000000000000000000000000000000000FF00FC0000FC00FF000000000000000000
310
000000000000000000000000000000FF00FC0000FC00FF000000000000000000000000000000000000000000000000FF00FC0000FC00FF000000000000000000000000000000000000000000000000FF00FC0000FC00FF000000000000000000000000000000000000000000000000FF00FC0000FC00FF0000000000000000
310
00000000000000000000000000000000FF00FC0000FC00FF000000000000000000000000000000000000000000000000FF00FC0000FC00FF000000000000000000000000000000000000000000000000FF00FC0000FC00FF000000000000000000000000000000000000000000000000FF00FC0000FC00FF00000000000000
310
0000000000000000000000000000000000FF00FC0000FC00FF000000000000000000000000000000000000000000000000FF00FC0000FC00FF000000000000000000000000000000000000000000000000FF00FC0000FC00FF000000000000000000000000000000000000000000000000FF00FC0000FC00FF000000000000
310
000000000000000000000000000000000000FF00FC0000FC00FF000000000000000000000000000000000000000000000000FF00FC0000FC00FF000000000000000000000000000000000000000000000000FF00FC0000FCFCFFFFFFFFFFFFFFFFFFFFFFFFFFFFFFFFFFFFFFFFFFFFFFFFFFFFFCFC00000000000000000000
310
00000000000000000000000000000000000000000000000000000000000000000000000000000000000000000000000000000000000000000000000000000000000000000000000000000000000000000000000000000000000000000000000000000000000000000000000000000000000000000000000000000000000000
310
0000000000000000000000000000000000000000000000000000000000000000000000000000000000000000000000000000000000000000
102
{BLKREFS
331
BD12
102
}
1001
ACAD
1000
DesignCenter Data
1002
{
1070
     1
1070
     4
1002
}
  0
BLOCK_RECORD
  5
C165
330
1
100
AcDbSymbolTableRecord
100
AcDbBlockTableRecord
  2
*D5
340
0
  0
BLOCK_RECORD
  5
C18B
330
1
100
AcDbSymbolTableRecord
100
AcDbBlockTableRecord
  2
*D6
340
0
  0
BLOCK_RECORD
  5
C1BE
330
1
100
AcDbSymbolTableRecord
100
AcDbBlockTableRecord
  2
*D7
340
0
  0
BLOCK_RECORD
  5
C436
330
1
100
AcDbSymbolTableRecord
100
AcDbBlockTableRecord
  2
*D8
340
0
  0
BLOCK_RECORD
  5
C495
330
1
100
AcDbSymbolTableRecord
100
AcDbBlockTableRecord
  2
*D9
340
0
  0
BLOCK_RECORD
  5
C546
330
1
100
AcDbSymbolTableRecord
100
AcDbBlockTableRecord
  2
*D10
340
0
  0
BLOCK_RECORD
  5
C579
330
1
100
AcDbSymbolTableRecord
100
AcDbBlockTableRecord
  2
*D11
340
0
  0
BLOCK_RECORD
  5
C616
330
1
100
AcDbSymbolTableRecord
100
AcDbBlockTableRecord
  2
*D12
340
0
  0
ENDTAB
  0
ENDSEC
  0
SECTION
  2
BLOCKS
  0
BLOCK
  5
20
330
1F
100
AcDbEntity
  8
0
100
AcDbBlockBegin
  2
*Model_Space
 70
     0
 10
0.0
 20
0.0
 30
0.0
  3
*Model_Space
  1

  0
ENDBLK
  5
21
330
1F
100
AcDbEntity
  8
0
100
AcDbBlockEnd
  0
BLOCK
  5
1C
330
1B
100
AcDbEntity
 67
     1
  8
0
100
AcDbBlockBegin
  2
*Paper_Space
 70
     0
 10
0.0
 20
0.0
 30
0.0
  3
*Paper_Space
  1

  0
ENDBLK
  5
1D
330
1B
100
AcDbEntity
 67
     1
  8
0
100
AcDbBlockEnd
  0
BLOCK
  5
24
330
23
100
AcDbEntity
 67
     1
  8
0
100
AcDbBlockBegin
  2
*Paper_Space0
 70
     0
 10
0.0
 20
0.0
 30
0.0
  3
*Paper_Space0
  1

  0
ENDBLK
  5
25
330
23
100
AcDbEntity
 67
     1
  8
0
100
AcDbBlockEnd
  0
BLOCK
  5
74
330
72
100
AcDbEntity
  8
0
100
AcDbBlockBegin
  2
GENAXEH
 70
     0
 10
0.0
 20
0.0
 30
0.0
  3
GENAXEH
  1

  0
LINE
  5
73
330
72
100
AcDbEntity
  8
0
100
AcDbLine
 10
-1.0
 20
0.0
 30
0.0
 11
1.0
 21
0.0
 31
0.0
  0
ENDBLK
  5
75
330
72
100
AcDbEntity
  8
0
100
AcDbBlockEnd
  0
BLOCK
  5
6C7
330
6C4
100
AcDbEntity
  8
0
100
AcDbBlockBegin
  2
_Dot
 70
     0
 10
0.0
 20
0.0
 30
0.0
  3
_Dot
  1

  0
LWPOLYLINE
  5
6C5
330
6C4
100
AcDbEntity
  8
0
  6
ByBlock
 62
     0
100
AcDbPolyline
 90
        2
 70
     1
 43
0.5
 10
-0.25
 20
0.0
 42
1.0
 10
0.25
 20
0.0
 42
1.0
  0
LINE
  5
6C6
330
6C4
100
AcDbEntity
  8
0
  6
ByBlock
 62
     0
370
    -2
100
AcDbLine
 10
-0.5
 20
0.0
 30
0.0
 11
-1.0
 21
0.0
 31
0.0
  0
ENDBLK
  5
6C8
330
6C4
100
AcDbEntity
  8
0
100
AcDbBlockEnd
  0
BLOCK
  5
A6A
330
A66
100
AcDbEntity
  8
0
100
AcDbBlockBegin
  2
_OPEN30
 70
     0
 10
0.0
 20
0.0
 30
0.0
  3
_OPEN30
  1

  0
LINE
  5
A67
330
A66
100
AcDbEntity
  8
0
  6
ByBlock
 62
     0
100
AcDbLine
 10
-1.0
 20
0.26794919
 30
0.0
 11
0.0
 21
0.0
 31
0.0
  0
LINE
  5
A68
330
A66
100
AcDbEntity
  8
0
  6
ByBlock
 62
     0
100
AcDbLine
 10
0.0
 20
0.0
 30
0.0
 11
-1.0
 21
-0.26794919
 31
0.0
  0
LINE
  5
A69
330
A66
100
AcDbEntity
  8
0
  6
ByBlock
 62
     0
100
AcDbLine
 10
0.0
 20
0.0
 30
0.0
 11
-1.0
 21
0.0
 31
0.0
  0
ENDBLK
  5
A6B
330
A66
100
AcDbEntity
  8
0
100
AcDbBlockEnd
  0
BLOCK
  5
BD08
330
BD07
100
AcDbEntity
  8
0
100
AcDbBlockBegin
  2
わく「」
 70
     0
 10
0.0
 20
0.0
 30
0.0
  3
わく「」
  1

  0
LINE
  5
BD0A
330
BD07
100
AcDbEntity
  8
size
100
AcDbLine
 10
0.0
 20
210.0
 30
0.0
 11
297.0
 21
210.0
 31
0.0
1001
GENIUS_GENREC_14
1002
{
1000
PYDIR
1011
0.0000000000000142
1021
297.0
1031
0.0
1002
}
1002
{
1000
PXDIR
1011
420.0
1021
0.0
1031
0.0
1002
}
1002
{
1000
PORI
1011
0.0
1021
0.0
1031
0.0
1002
}
1002
{
1000
PINS
1011
210.0
1021
148.4999999999999
1031
0.0
1002
}
1002
{
1000
HVAL
1000
297
1002
}
1002
{
1000
H
1070
     2
1002
}
1002
{
1000
WVAL
1000
420
1002
}
1002
{
1000
W
1070
     2
1002
}
1002
{
1000
C
1070
     4
1002
}
1001
GENIUS_GENOBJ-N-REC_13
1002
{
1000
OWNER
1000
GEN
1002
}
1001
GENIUS_GENODEF_13
1002
{
1000
HIER
1070
     0
1002
}
1002
{
1000
MANEDIT
1070
     0
1002
}
1002
{
1000
NOSEL
1070
     0
1002
}
1002
{
1000
BEHIND
1070
     0
1002
}
1002
{
1000
OTHER
1070
     0
1002
}
1002
{
1000
REACTOR
1002
}
  0
LINE
  5
BD0B
330
BD07
100
AcDbEntity
  8
size
100
AcDbLine
 10
297.0
 20
210.0
 30
0.0
 11
297.0
 21
-0.0000000000000284
 31
0.0
1001
GENIUS_GENREC_14
1002
{
1000
PYDIR
1011
0.0000000000000142
1021
297.0
1031
0.0
1002
}
1002
{
1000
PXDIR
1011
420.0
1021
0.0
1031
0.0
1002
}
1002
{
1000
PORI
1011
0.0
1021
0.0
1031
0.0
1002
}
1002
{
1000
PINS
1011
210.0
1021
148.4999999999999
1031
0.0
1002
}
1002
{
1000
HVAL
1000
297
1002
}
1002
{
1000
H
1070
     2
1002
}
1002
{
1000
WVAL
1000
420
1002
}
1002
{
1000
W
1070
     2
1002
}
1002
{
1000
C
1070
     4
1002
}
1001
GENIUS_GENOBJ-N-REC_13
1002
{
1000
OWNER
1000
GEN
1002
}
1001
GENIUS_GENODEF_13
1002
{
1000
HIER
1070
     0
1002
}
1002
{
1000
MANEDIT
1070
     0
1002
}
1002
{
1000
NOSEL
1070
     0
1002
}
1002
{
1000
BEHIND
1070
     0
1002
}
1002
{
1000
OTHER
1070
     0
1002
}
1002
{
1000
REACTOR
1002
}
  0
LINE
  5
BD0C
330
BD07
100
AcDbEntity
  8
waku
100
AcDbLine
 10
11.5
 20
8.5
 30
0.0
 11
285.5
 21
8.5
 31
0.0
1001
GENIUS_GENREC_14
1002
{
1000
PYDIR
1011
0.0000000000000142
1021
297.0
1031
0.0
1002
}
1002
{
1000
PXDIR
1011
420.0
1021
0.0
1031
0.0
1002
}
1002
{
1000
PORI
1011
0.0
1021
0.0
1031
0.0
1002
}
1002
{
1000
PINS
1011
210.0
1021
148.4999999999999
1031
0.0
1002
}
1002
{
1000
HVAL
1000
297
1002
}
1002
{
1000
H
1070
     2
1002
}
1002
{
1000
WVAL
1000
420
1002
}
1002
{
1000
W
1070
     2
1002
}
1002
{
1000
C
1070
     4
1002
}
  0
LINE
  5
BD0D
330
BD07
100
AcDbEntity
  8
waku
100
AcDbLine
 10
285.5
 20
201.5
 30
0.0
 11
11.5
 21
201.5
 31
0.0
1001
GENIUS_GENREC_14
1002
{
1000
PYDIR
1011
-123.0
1021
210.0
1031
0.0
1002
}
1002
{
1000
PXDIR
1011
297.0
1021
-87.0
1031
0.0
1002
}
1002
{
1000
PORI
1011
-123.0
1021
-87.0
1031
0.0
1002
}
1002
{
1000
PINS
1011
87.00000000000001
1021
61.49999999999997
1031
0.0
1002
}
1002
{
1000
HVAL
1000
297
1002
}
1002
{
1000
H
1070
     2
1002
}
1002
{
1000
WVAL
1000
420
1002
}
1002
{
1000
W
1070
     2
1002
}
1002
{
1000
C
1070
     4
1002
}
1001
GENIUS_GENOBJ-N-REC_13
1002
{
1000
OWNER
1000
GEN
1002
}
1001
GENIUS_GENODEF_13
1002
{
1000
HIER
1070
     0
1002
}
1002
{
1000
MANEDIT
1070
     0
1002
}
1002
{
1000
NOSEL
1070
     0
1002
}
1002
{
1000
BEHIND
1070
     0
1002
}
1002
{
1000
OTHER
1070
     0
1002
}
1002
{
1000
REACTOR
1002
}
  0
LINE
  5
BD0E
330
BD07
100
AcDbEntity
  8
waku
100
AcDbLine
 10
11.50000000000002
 20
201.5
 30
0.0
 11
11.5
 21
8.5
 31
0.0
1001
GENIUS_GENREC_14
1002
{
1000
PYDIR
1011
0.0000000000000142
1021
297.0
1031
0.0
1002
}
1002
{
1000
PXDIR
1011
420.0
1021
0.0
1031
0.0
1002
}
1002
{
1000
PORI
1011
0.0
1021
0.0
1031
0.0
1002
}
1002
{
1000
PINS
1011
210.0
1021
148.4999999999999
1031
0.0
1002
}
1002
{
1000
HVAL
1000
297
1002
}
1002
{
1000
H
1070
     2
1002
}
1002
{
1000
WVAL
1000
420
1002
}
1002
{
1000
W
1070
     2
1002
}
1002
{
1000
C
1070
     4
1002
}
1001
GENIUS_GENOBJ-N-REC_13
1002
{
1000
OWNER
1000
GEN
1002
}
1001
GENIUS_GENODEF_13
1002
{
1000
HIER
1070
     0
1002
}
1002
{
1000
MANEDIT
1070
     0
1002
}
1002
{
1000
NOSEL
1070
     0
1002
}
1002
{
1000
BEHIND
1070
     0
1002
}
1002
{
1000
OTHER
1070
     0
1002
}
1002
{
1000
REACTOR
1002
}
  0
LINE
  5
BD0F
330
BD07
100
AcDbEntity
  8
waku
100
AcDbLine
 10
285.5
 20
8.5
 30
0.0
 11
285.5
 21
201.5
 31
0.0
1001
GENIUS_GENREC_14
1002
{
1000
PYDIR
1011
-123.0
1021
216.0
1031
0.0
1002
}
1002
{
1000
PXDIR
1011
297.0
1021
-81.0
1031
0.0
1002
}
1002
{
1000
PORI
1011
-123.0
1021
-81.0
1031
0.0
1002
}
1002
{
1000
PINS
1011
87.00000000000001
1021
67.49999999999997
1031
0.0
1002
}
1002
{
1000
HVAL
1000
297
1002
}
1002
{
1000
H
1070
     2
1002
}
1002
{
1000
WVAL
1000
420
1002
}
1002
{
1000
W
1070
     2
1002
}
1002
{
1000
C
1070
     4
1002
}
1001
GENIUS_GENOBJ-N-REC_13
1002
{
1000
OWNER
1000
GEN
1002
}
1001
GENIUS_GENODEF_13
1002
{
1000
HIER
1070
     0
1002
}
1002
{
1000
MANEDIT
1070
     0
1002
}
1002
{
1000
NOSEL
1070
     0
1002
}
1002
{
1000
BEHIND
1070
     0
1002
}
1002
{
1000
OTHER
1070
     0
1002
}
1002
{
1000
REACTOR
1002
}
  0
LINE
  5
BD10
330
BD07
100
AcDbEntity
  8
size
100
AcDbLine
 10
0.0000000000000213
 20
210.0
 30
0.0
 11
0.0
 21
0.0
 31
0.0
1001
GENIUS_GENREC_14
1002
{
1000
PYDIR
1011
0.0000000000000142
1021
297.0
1031
0.0
1002
}
1002
{
1000
PXDIR
1011
420.0
1021
0.0
1031
0.0
1002
}
1002
{
1000
PORI
1011
0.0
1021
0.0
1031
0.0
1002
}
1002
{
1000
PINS
1011
210.0
1021
148.4999999999999
1031
0.0
1002
}
1002
{
1000
HVAL
1000
297
1002
}
1002
{
1000
H
1070
     2
1002
}
1002
{
1000
WVAL
1000
420
1002
}
1002
{
1000
W
1070
     2
1002
}
1002
{
1000
C
1070
     4
1002
}
1001
GENIUS_GENOBJ-N-REC_13
1002
{
1000
OWNER
1000
GEN
1002
}
1001
GENIUS_GENODEF_13
1002
{
1000
HIER
1070
     0
1002
}
1002
{
1000
MANEDIT
1070
     0
1002
}
1002
{
1000
NOSEL
1070
     0
1002
}
1002
{
1000
BEHIND
1070
     0
1002
}
1002
{
1000
OTHER
1070
     0
1002
}
1002
{
1000
REACTOR
1002
}
  0
LINE
  5
BD11
330
BD07
100
AcDbEntity
  8
size
100
AcDbLine
 10
0.0
 20
0.0
 30
0.0
 11
297.0
 21
0.0
 31
0.0
1001
GENIUS_GENREC_14
1002
{
1000
PYDIR
1011
0.0000000000000142
1021
297.0
1031
0.0
1002
}
1002
{
1000
PXDIR
1011
420.0
1021
0.0
1031
0.0
1002
}
1002
{
1000
PORI
1011
0.0
1021
0.0
1031
0.0
1002
}
1002
{
1000
PINS
1011
210.0
1021
148.4999999999999
1031
0.0
1002
}
1002
{
1000
HVAL
1000
297
1002
}
1002
{
1000
H
1070
     2
1002
}
1002
{
1000
WVAL
1000
420
1002
}
1002
{
1000
W
1070
     2
1002
}
1002
{
1000
C
1070
     4
1002
}
1001
GENIUS_GENOBJ-N-REC_13
1002
{
1000
OWNER
1000
GEN
1002
}
1001
GENIUS_GENODEF_13
1002
{
1000
HIER
1070
     0
1002
}
1002
{
1000
MANEDIT
1070
     0
1002
}
1002
{
1000
NOSEL
1070
     0
1002
}
1002
{
1000
BEHIND
1070
     0
1002
}
1002
{
1000
OTHER
1070
     0
1002
}
1002
{
1000
REACTOR
1002
}
  0
ENDBLK
  5
BD09
330
BD07
100
AcDbEntity
  8
0
100
AcDbBlockEnd
  0
BLOCK
  5
C16F
330
C165
100
AcDbEntity
  8
0
100
AcDbBlockBegin
  2
*D5
 70
     1
 10
0.0
 20
0.0
 30
0.0
  3
*D5
  1

  0
LINE
  5
C5D9
330
C165
100
AcDbEntity
  8
AM_5
 48
1.01
100
AcDbLine
 10
128.4999999999999
 20
93.75285426636976
 30
0.0
 11
128.4999999999999
 21
105.7528542663697
 31
0.0
  0
LINE
  5
C5DA
330
C165
100
AcDbEntity
  8
AM_5
 48
1.01
100
AcDbLine
 10
117.4999999999999
 20
88.75285426636976
 30
0.0
 11
117.4999999999999
 21
105.7528542663697
 31
0.0
  0
LINE
  5
C5DB
330
C165
100
AcDbEntity
  8
AM_5
 48
1.01
100
AcDbLine
 10
127.4999999999999
 20
104.7528542663697
 30
0.0
 11
118.4999999999999
 21
104.7528542663697
 31
0.0
  0
INSERT
  5
C5DC
330
C165
100
AcDbEntity
  8
AM_5
 48
1.01
100
AcDbBlockReference
  2
_Dot
 10
128.4999999999999
 20
104.7528542663697
 30
0.0
  0
INSERT
  5
C5DD
330
C165
100
AcDbEntity
  8
AM_5
 48
1.01
100
AcDbBlockReference
  2
_Dot
 10
117.4999999999999
 20
104.7528542663697
 30
0.0
 50
180.0
  0
MTEXT
  5
C5DE
330
C165
100
AcDbEntity
  8
AM_5
 62
     2
 48
1.01
100
AcDbMText
 10
122.9999999999999
 20
107.8528542663697
 30
0.0
 40
3.200000000000001
 41
0.0
 71
     5
 72
     1
  1
11
 73
     1
 44
1.0
1001
ACAD
1000
MTEXTBEGIN
1070
    73
1070
     1
1070
    44
1040
1.0
1070
    74
1070
     0
1000
MTEXTEND
  0
POINT
  5
C5DF
330
C165
100
AcDbEntity
  8
Defpoints
 62
     0
 48
1.01
100
AcDbPoint
 10
128.4999999999999
 20
92.75285426636974
 30
0.0
  0
POINT
  5
C5E0
330
C165
100
AcDbEntity
  8
Defpoints
 62
     0
 48
1.01
100
AcDbPoint
 10
117.4999999999999
 20
87.75285426636974
 30
0.0
  0
POINT
  5
C5E1
330
C165
100
AcDbEntity
  8
Defpoints
 62
     0
 48
1.01
100
AcDbPoint
 10
117.4999999999999
 20
104.7528542663697
 30
0.0
  0
ENDBLK
  5
C170
330
C165
100
AcDbEntity
  8
0
100
AcDbBlockEnd
  0
BLOCK
  5
C195
330
C18B
100
AcDbEntity
  8
0
100
AcDbBlockBegin
  2
*D6
 70
     1
 10
0.0
 20
0.0
 30
0.0
  3
*D6
  1

  0
LINE
  5
C5E2
330
C18B
100
AcDbEntity
  8
AM_5
 48
1.01
100
AcDbLine
 10
168.4999999999998
 20
93.75285426636969
 30
0.0
 11
168.4999999999998
 21
105.7528542663697
 31
0.0
  0
LINE
  5
C5E3
330
C18B
100
AcDbEntity
  8
AM_5
 48
1.01
100
AcDbLine
 10
179.4999999999998
 20
88.75285426637054
 30
0.0
 11
179.4999999999998
 21
105.7528542663697
 31
0.0
  0
LINE
  5
C5E4
330
C18B
100
AcDbEntity
  8
AM_5
 48
1.01
100
AcDbLine
 10
169.4999999999998
 20
104.7528542663697
 30
0.0
 11
178.4999999999998
 21
104.7528542663697
 31
0.0
  0
INSERT
  5
C5E5
330
C18B
100
AcDbEntity
  8
AM_5
 48
1.01
100
AcDbBlockReference
  2
_Dot
 10
168.4999999999998
 20
104.7528542663697
 30
0.0
 50
180.0
  0
INSERT
  5
C5E6
330
C18B
100
AcDbEntity
  8
AM_5
 48
1.01
100
AcDbBlockReference
  2
_Dot
 10
179.4999999999998
 20
104.7528542663697
 30
0.0
  0
MTEXT
  5
C5E7
330
C18B
100
AcDbEntity
  8
AM_5
 62
     2
 48
1.01
100
AcDbMText
 10
173.9999999999998
 20
107.8528542663697
 30
0.0
 40
3.200000000000001
 41
0.0
 71
     5
 72
     1
  1
11
 73
     1
 44
1.0
1001
ACAD
1000
MTEXTBEGIN
1070
    73
1070
     1
1070
    44
1040
1.0
1070
    74
1070
     0
1000
MTEXTEND
  0
POINT
  5
C5E8
330
C18B
100
AcDbEntity
  8
Defpoints
 62
     0
 48
1.01
100
AcDbPoint
 10
168.4999999999998
 20
92.75285426636967
 30
0.0
  0
POINT
  5
C5E9
330
C18B
100
AcDbEntity
  8
Defpoints
 62
     0
 48
1.01
100
AcDbPoint
 10
179.4999999999998
 20
87.75285426637053
 30
0.0
  0
POINT
  5
C5EA
330
C18B
100
AcDbEntity
  8
Defpoints
 62
     0
 48
1.01
100
AcDbPoint
 10
179.4999999999998
 20
104.7528542663697
 30
0.0
  0
ENDBLK
  5
C196
330
C18B
100
AcDbEntity
  8
0
100
AcDbBlockEnd
  0
BLOCK
  5
C1C8
330
C1BE
100
AcDbEntity
  8
0
100
AcDbBlockBegin
  2
*D7
 70
     1
 10
0.0
 20
0.0
 30
0.0
  3
*D7
  1

  0
LINE
  5
C5EB
330
C1BE
100
AcDbEntity
  8
AM_5
 48
1.01
100
AcDbLine
 10
128.4999999999999
 20
93.75285426636976
 30
0.0
 11
128.4999999999999
 21
105.7528542663697
 31
0.0
  0
LINE
  5
C5EC
330
C1BE
100
AcDbEntity
  8
AM_5
 48
1.01
100
AcDbLine
 10
168.4999999999998
 20
93.75285426636969
 30
0.0
 11
168.4999999999998
 21
105.7528542663697
 31
0.0
  0
LINE
  5
C5ED
330
C1BE
100
AcDbEntity
  8
AM_5
 48
1.01
100
AcDbLine
 10
129.4999999999999
 20
104.7528542663697
 30
0.0
 11
167.4999999999998
 21
104.7528542663697
 31
0.0
  0
INSERT
  5
C5EE
330
C1BE
100
AcDbEntity
  8
AM_5
 48
1.01
100
AcDbBlockReference
  2
_Dot
 10
128.4999999999999
 20
104.7528542663697
 30
0.0
 50
180.0
  0
INSERT
  5
C5EF
330
C1BE
100
AcDbEntity
  8
AM_5
 48
1.01
100
AcDbBlockReference
  2
_Dot
 10
168.4999999999998
 20
104.7528542663697
 30
0.0
  0
MTEXT
  5
C5F0
330
C1BE
100
AcDbEntity
  8
AM_5
 62
     2
 48
1.01
100
AcDbMText
 10
148.4999999999999
 20
107.8528542663697
 30
0.0
 40
3.200000000000001
 41
0.0
 71
     5
 72
     1
  1
Dt
 73
     1
 44
1.0
1001
ACAD
1000
MTEXTBEGIN
1070
    73
1070
     1
1070
    44
1040
1.0
1070
    74
1070
     0
1000
MTEXTEND
  0
POINT
  5
C5F1
330
C1BE
100
AcDbEntity
  8
Defpoints
 62
     0
 48
1.01
100
AcDbPoint
 10
128.4999999999999
 20
92.75285426636974
 30
0.0
  0
POINT
  5
C5F2
330
C1BE
100
AcDbEntity
  8
Defpoints
 62
     0
 48
1.01
100
AcDbPoint
 10
168.4999999999998
 20
92.75285426636967
 30
0.0
  0
POINT
  5
C5F3
330
C1BE
100
AcDbEntity
  8
Defpoints
 62
     0
 48
1.01
100
AcDbPoint
 10
168.4999999999998
 20
104.7528542663697
 30
0.0
  0
ENDBLK
  5
C1C9
330
C1BE
100
AcDbEntity
  8
0
100
AcDbBlockEnd
  0
BLOCK
  5
C440
330
C436
100
AcDbEntity
  8
0
100
AcDbBlockBegin
  2
*D8
 70
     1
 10
0.0
 20
0.0
 30
0.0
  3
*D8
  1

  0
LINE
  5
C5C0
330
C436
100
AcDbEntity
  8
AM_5
100
AcDbLine
 10
216.4624009840468
 20
170.8336136574955
 30
0.0
 11
216.4624009840468
 21
182.8336136574955
 31
0.0
  0
LINE
  5
C5C1
330
C436
100
AcDbEntity
  8
AM_5
100
AcDbLine
 10
260.4624009840469
 20
170.8336136574955
 30
0.0
 11
260.4624009840469
 21
182.8336136574955
 31
0.0
  0
LINE
  5
C5C2
330
C436
100
AcDbEntity
  8
AM_5
100
AcDbLine
 10
217.4624009840468
 20
181.8336136574956
 30
0.0
 11
259.4624009840469
 21
181.8336136574956
 31
0.0
  0
INSERT
  5
C5C3
330
C436
100
AcDbEntity
  8
AM_5
100
AcDbBlockReference
  2
_Dot
 10
216.4624009840468
 20
181.8336136574956
 30
0.0
 50
180.0
  0
INSERT
  5
C5C4
330
C436
100
AcDbEntity
  8
AM_5
100
AcDbBlockReference
  2
_Dot
 10
260.4624009840469
 20
181.8336136574956
 30
0.0
  0
MTEXT
  5
C5C5
330
C436
100
AcDbEntity
  8
AM_5
 62
     2
100
AcDbMText
 10
238.4624009840468
 20
184.9336136574955
 30
0.0
 40
3.200000000000001
 41
0.0
 71
     5
 72
     1
  1
44
 73
     1
 44
1.0
1001
ACAD
1000
MTEXTBEGIN
1070
    73
1070
     1
1070
    44
1040
1.0
1070
    74
1070
     0
1000
MTEXTEND
  0
POINT
  5
C5C6
330
C436
100
AcDbEntity
  8
Defpoints
 62
     0
100
AcDbPoint
 10
216.4624009840468
 20
169.8336136574955
 30
0.0
  0
POINT
  5
C5C7
330
C436
100
AcDbEntity
  8
Defpoints
 62
     0
100
AcDbPoint
 10
260.4624009840469
 20
169.8336136574955
 30
0.0
  0
POINT
  5
C5C8
330
C436
100
AcDbEntity
  8
Defpoints
 62
     0
100
AcDbPoint
 10
260.4624009840469
 20
181.8336136574956
 30
0.0
  0
ENDBLK
  5
C441
330
C436
100
AcDbEntity
  8
0
100
AcDbBlockEnd
  0
BLOCK
  5
C49E
330
C495
100
AcDbEntity
  8
0
100
AcDbBlockBegin
  2
*D9
 70
     1
 10
0.0
 20
0.0
 30
0.0
  3
*D9
  1

  0
LINE
  5
C5D1
330
C495
100
AcDbEntity
  8
AM_5
100
AcDbLine
 10
219.83410443163
 20
152.1415118358284
 30
0.0
 11
213.0906975364639
 21
159.5257154791626
 31
0.0
  0
LINE
  5
C5D2
330
C495
100
AcDbEntity
  8
AM_5
100
AcDbLine
 10
212.4163568469473
 20
160.264135843496
 30
0.0
 11
204.9748281808662
 21
168.4128007457196
 31
0.0
  0
LINE
  5
C5D3
330
C495
100
AcDbEntity
  8
AM_5
100
AcDbLine
 10
204.9748281808662
 20
168.4128007457196
 30
0.0
 11
191.9248281808662
 21
168.4128007457196
 31
0.0
  0
INSERT
  5
C5D4
330
C495
100
AcDbEntity
  8
AM_5
100
AcDbBlockReference
  2
_Dot
 10
220.5084451211465
 20
151.403091471495
 30
0.0
 50
312.4029718670201
  0
INSERT
  5
C5D5
330
C495
100
AcDbEntity
  8
AM_5
100
AcDbBlockReference
  2
_Dot
 10
212.4163568469473
 20
160.264135843496
 30
0.0
 50
132.4029718670201
  0
MTEXT
  5
C5D6
330
C495
100
AcDbEntity
  8
AM_5
 62
     2
100
AcDbMText
 10
197.6998281808661
 20
171.6628007457195
 30
0.0
 40
3.5
 41
0.0
 71
     5
 72
     1
  1
2-\U+220512
 73
     1
 44
1.0
1001
ACAD
1000
MTEXTBEGIN
1070
    73
1070
     1
1070
    44
1040
1.0
1070
    74
1070
     0
1000
MTEXTEND
  0
POINT
  5
C5D7
330
C495
100
AcDbEntity
  8
Defpoints
 62
     0
100
AcDbPoint
 10
212.4163568469473
 20
160.264135843496
 30
0.0
  0
POINT
  5
C5D8
330
C495
100
AcDbEntity
  8
Defpoints
 62
     0
100
AcDbPoint
 10
220.5084451211465
 20
151.403091471495
 30
0.0
  0
ENDBLK
  5
C49F
330
C495
100
AcDbEntity
  8
0
100
AcDbBlockEnd
  0
BLOCK
  5
C550
330
C546
100
AcDbEntity
  8
0
100
AcDbBlockBegin
  2
*D10
 70
     1
 10
0.0
 20
0.0
 30
0.0
  3
*D10
  1

  0
LINE
  5
C5F4
330
C546
100
AcDbEntity
  8
AM_5
100
AcDbLine
 10
208.4624009840469
 20
56.75285426636968
 30
0.0
 11
208.4624009840469
 21
105.7528542663697
 31
0.0
  0
LINE
  5
C5F5
330
C546
100
AcDbEntity
  8
AM_5
100
AcDbLine
 10
268.4624009840469
 20
56.75285426636968
 30
0.0
 11
268.4624009840469
 21
105.7528542663697
 31
0.0
  0
LINE
  5
C5F6
330
C546
100
AcDbEntity
  8
AM_5
100
AcDbLine
 10
209.4624009840469
 20
104.7528542663697
 30
0.0
 11
267.4624009840469
 21
104.7528542663697
 31
0.0
  0
INSERT
  5
C5F7
330
C546
100
AcDbEntity
  8
AM_5
100
AcDbBlockReference
  2
_Dot
 10
208.4624009840469
 20
104.7528542663697
 30
0.0
 50
180.0
  0
INSERT
  5
C5F8
330
C546
100
AcDbEntity
  8
AM_5
100
AcDbBlockReference
  2
_Dot
 10
268.4624009840469
 20
104.7528542663697
 30
0.0
  0
MTEXT
  5
C5F9
330
C546
100
AcDbEntity
  8
AM_5
 62
     2
100
AcDbMText
 10
238.4624009840469
 20
107.8528542663697
 30
0.0
 40
3.200000000000001
 41
0.0
 71
     5
 72
     1
  1
%%c60
 73
     1
 44
1.0
1001
ACAD
1000
MTEXTBEGIN
1070
    73
1070
     1
1070
    44
1040
1.0
1070
    74
1070
     0
1000
MTEXTEND
  0
POINT
  5
C5FA
330
C546
100
AcDbEntity
  8
Defpoints
 62
     0
100
AcDbPoint
 10
208.4624009840469
 20
55.7528542663697
 30
0.0
  0
POINT
  5
C5FB
330
C546
100
AcDbEntity
  8
Defpoints
 62
     0
100
AcDbPoint
 10
268.4624009840469
 20
55.7528542663697
 30
0.0
  0
POINT
  5
C5FC
330
C546
100
AcDbEntity
  8
Defpoints
 62
     0
100
AcDbPoint
 10
268.4624009840469
 20
104.7528542663697
 30
0.0
  0
ENDBLK
  5
C551
330
C546
100
AcDbEntity
  8
0
100
AcDbBlockEnd
  0
BLOCK
  5
C583
330
C579
100
AcDbEntity
  8
0
100
AcDbBlockBegin
  2
*D11
 70
     1
 10
0.0
 20
0.0
 30
0.0
  3
*D11
  1

  0
LINE
  5
C5FD
330
C579
100
AcDbEntity
  8
AM_5
100
AcDbLine
 10
201.4624009840469
 20
56.75285426636968
 30
0.0
 11
201.4624009840469
 21
115.7528542663697
 31
0.0
  0
LINE
  5
C5FE
330
C579
100
AcDbEntity
  8
AM_5
100
AcDbLine
 10
275.4624009840469
 20
56.75285426636968
 30
0.0
 11
275.4624009840469
 21
115.7528542663697
 31
0.0
  0
LINE
  5
C5FF
330
C579
100
AcDbEntity
  8
AM_5
100
AcDbLine
 10
202.4624009840469
 20
114.7528542663697
 30
0.0
 11
274.4624009840469
 21
114.7528542663697
 31
0.0
  0
INSERT
  5
C600
330
C579
100
AcDbEntity
  8
AM_5
100
AcDbBlockReference
  2
_Dot
 10
201.4624009840469
 20
114.7528542663697
 30
0.0
 50
180.0
  0
INSERT
  5
C601
330
C579
100
AcDbEntity
  8
AM_5
100
AcDbBlockReference
  2
_Dot
 10
275.4624009840469
 20
114.7528542663697
 30
0.0
  0
MTEXT
  5
C602
330
C579
100
AcDbEntity
  8
AM_5
 62
     2
100
AcDbMText
 10
238.4624009840469
 20
117.8528542663697
 30
0.0
 40
3.200000000000001
 41
0.0
 71
     5
 72
     1
  1
%%c74
 73
     1
 44
1.0
1001
ACAD
1000
MTEXTBEGIN
1070
    73
1070
     1
1070
    44
1040
1.0
1070
    74
1070
     0
1000
MTEXTEND
  0
POINT
  5
C603
330
C579
100
AcDbEntity
  8
Defpoints
 62
     0
100
AcDbPoint
 10
201.4624009840469
 20
55.7528542663697
 30
0.0
  0
POINT
  5
C604
330
C579
100
AcDbEntity
  8
Defpoints
 62
     0
100
AcDbPoint
 10
275.4624009840469
 20
55.7528542663697
 30
0.0
  0
POINT
  5
C605
330
C579
100
AcDbEntity
  8
Defpoints
 62
     0
100
AcDbPoint
 10
275.4624009840469
 20
114.7528542663697
 30
0.0
  0
ENDBLK
  5
C584
330
C579
100
AcDbEntity
  8
0
100
AcDbBlockEnd
  0
BLOCK
  5
C620
330
C616
100
AcDbEntity
  8
0
100
AcDbBlockBegin
  2
*D12
 70
     1
 10
0.0
 20
0.0
 30
0.0
  3
*D12
  1

  0
LINE
  5
C624
330
C616
100
AcDbEntity
  8
AM_5
100
AcDbLine
 10
36.53759901595311
 20
64.30026793144498
 30
0.0
 11
36.53759901595311
 21
105.7528542663697
 31
0.0
  0
LINE
  5
C625
330
C616
100
AcDbEntity
  8
AM_5
100
AcDbLine
 10
80.53759901595311
 20
64.30026793144498
 30
0.0
 11
80.53759901595311
 21
105.7528542663697
 31
0.0
  0
LINE
  5
C626
330
C616
100
AcDbEntity
  8
AM_5
100
AcDbLine
 10
37.53759901595311
 20
104.7528542663697
 30
0.0
 11
79.53759901595311
 21
104.7528542663697
 31
0.0
  0
INSERT
  5
C627
330
C616
100
AcDbEntity
  8
AM_5
100
AcDbBlockReference
  2
_Dot
 10
36.53759901595311
 20
104.7528542663697
 30
0.0
 50
180.0
  0
INSERT
  5
C628
330
C616
100
AcDbEntity
  8
AM_5
100
AcDbBlockReference
  2
_Dot
 10
80.53759901595311
 20
104.7528542663697
 30
0.0
  0
MTEXT
  5
C629
330
C616
100
AcDbEntity
  8
AM_5
 62
     2
100
AcDbMText
 10
58.5375990159531
 20
107.8528542663697
 30
0.0
 40
3.200000000000001
 41
0.0
 71
     5
 72
     1
  1
44
 73
     1
 44
1.0
1001
ACAD
1000
MTEXTBEGIN
1070
    73
1070
     1
1070
    44
1040
1.0
1070
    74
1070
     0
1000
MTEXTEND
  0
POINT
  5
C62A
330
C616
100
AcDbEntity
  8
Defpoints
 62
     0
100
AcDbPoint
 10
36.53759901595311
 20
63.30026793144497
 30
0.0
  0
POINT
  5
C62B
330
C616
100
AcDbEntity
  8
Defpoints
 62
     0
100
AcDbPoint
 10
80.53759901595311
 20
63.30026793144497
 30
0.0
  0
POINT
  5
C62C
330
C616
100
AcDbEntity
  8
Defpoints
 62
     0
100
AcDbPoint
 10
80.53759901595311
 20
104.7528542663697
 30
0.0
  0
ENDBLK
  5
C621
330
C616
100
AcDbEntity
  8
0
100
AcDbBlockEnd
  0
ENDSEC
  0
SECTION
  2
ENTITIES
  0
TEXT
  5
BCFA
330
1F
100
AcDbEntity
  8
AM_6
 48
1.01
 60
     1
100
AcDbText
 10
285.5
 20
8.5
 30
0.0
 40
2.5
  1
!GENTITLE-INSERT
100
AcDbText
  0
TEXT
  5
BCFB
330
1F
100
AcDbEntity
  8
AM_6
 48
1.01
 60
     1
100
AcDbText
 10
297.0
 20
210.0
 30
0.0
 40
2.5
  1
!GENTITLE-MAX
100
AcDbText
  0
TEXT
  5
BCFC
330
1F
100
AcDbEntity
  8
AM_6
 48
1.01
 60
     1
100
AcDbText
 10
297.0
 20
210.0
 30
0.0
 40
2.5
  1
!GENTITLE-RU
100
AcDbText
  0
TEXT
  5
BCFE
330
1F
100
AcDbEntity
  8
AM_6
 48
1.01
 60
     1
100
AcDbText
 10
0.0
 20
0.0
 30
0.0
 40
2.5
  1
!GENTITLE-LL
100
AcDbText
  0
INSERT
  5
BD12
330
1F
100
AcDbEntity
  8
AM_0
  6
破断線
 48
1.01
100
AcDbBlockReference
  2
わく「」
 10
0.0
 20
0.0
 30
0.0
  0
LINE
  5
BD13
330
1F
100
AcDbEntity
  8
AM_0
100
AcDbLine
 10
35.03759901595311
 20
52.5450510276155
 30
0.0
 11
56.59261638877286
 21
47.47837285784815
 31
0.0
  0
LINE
  5
BD14
330
1F
100
AcDbEntity
  8
AM_0
100
AcDbLine
 10
34.80877753040238
 20
51.57158262661301
 30
0.0
 11
56.36379490322235
 21
46.50490445684567
 31
0.0
  0
LINE
  5
BD15
330
1F
100
AcDbEntity
  8
AM_0
100
AcDbLine
 10
34.80877753040238
 20
59.93412590612638
 30
0.0
 11
56.36379490322235
 21
65.00080407589371
 31
0.0
  0
LINE
  5
BD16
330
1F
100
AcDbEntity
  8
AM_0
100
AcDbLine
 10
35.03759901595311
 20
58.96065750512367
 30
0.0
 11
56.59261638877286
 21
64.02733567489121
 31
0.0
  0
LINE
  5
BD17
330
1F
100
AcDbEntity
  8
AM_0
 48
0.15
100
AcDbLine
 10
35.03759901595311
 20
52.5450510276155
 30
0.0
 11
34.25375544560541
 21
51.92409268986261
 31
0.0
  0
LINE
  5
BD18
330
1F
100
AcDbEntity
  8
AM_0
 48
0.15
100
AcDbLine
 10
35.03759901595311
 20
58.96065750512367
 30
0.0
 11
34.25375544560541
 21
59.58161584287655
 31
0.0
  0
LINE
  5
BD19
330
1F
100
AcDbEntity
  8
AM_0
 48
0.3207803238754082
100
AcDbLine
 10
35.03759901595311
 20
58.96065750512367
 30
0.0
 11
35.03759901595311
 21
52.5450510276155
 31
0.0
  0
LINE
  5
BD1A
330
1F
100
AcDbEntity
  8
AM_0
 48
0.3207803238754082
100
AcDbLine
 10
34.03759901595311
 20
58.96065750512367
 30
0.0
 11
34.03759901595311
 21
52.5450510276155
 31
0.0
  0
ARC
  5
BD1B
330
1F
100
AcDbEntity
  8
AM_0
 48
0.3
100
AcDbCircle
 10
35.03759901595311
 20
52.5450510276155
 30
0.0
 40
1.0
100
AcDbArc
 50
180.0
 51
256.772302390498
  0
ARC
  5
BD1C
330
1F
100
AcDbEntity
  8
AM_0
 48
0.3
100
AcDbCircle
 10
35.03759901595311
 20
58.96065750512367
 30
0.0
 40
1.0
100
AcDbArc
 50
103.2276976095019
 51
180.0
  0
LINE
  5
BD1D
330
1F
100
AcDbEntity
  8
AM_0
100
AcDbLine
 10
82.0375990159531
 20
58.96065750512367
 30
0.0
 11
60.48258164313313
 21
64.02733567489121
 31
0.0
  0
LINE
  5
BD1E
330
1F
100
AcDbEntity
  8
AM_0
100
AcDbLine
 10
82.26642050150358
 20
59.93412590612638
 30
0.0
 11
60.71140312868386
 21
65.00080407589371
 31
0.0
  0
LINE
  5
BD1F
330
1F
100
AcDbEntity
  8
AM_0
100
AcDbLine
 10
82.0375990159531
 20
52.5450510276155
 30
0.0
 11
60.48258164313313
 21
47.47837285784815
 31
0.0
  0
LINE
  5
BD20
330
1F
100
AcDbEntity
  8
AM_0
100
AcDbLine
 10
82.26642050150358
 20
51.57158262661301
 30
0.0
 11
60.71140312868386
 21
46.50490445684567
 31
0.0
  0
ARC
  5
BD21
330
1F
100
AcDbEntity
  8
AM_0
 48
0.85
100
AcDbCircle
 10
58.5375990159531
 20
55.7528542663697
 30
0.0
 40
8.5
100
AcDbArc
 50
256.772302390498
 51
270.0
  0
ARC
  5
BD22
330
1F
100
AcDbEntity
  8
AM_0
 48
0.95
100
AcDbCircle
 10
58.5375990159531
 20
55.7528542663697
 30
0.0
 40
9.5
100
AcDbArc
 50
256.772302390498
 51
270.0
  0
ARC
  5
BD23
330
1F
100
AcDbEntity
  8
AM_0
 48
0.85
100
AcDbCircle
 10
58.5375990159531
 20
55.7528542663697
 30
0.0
 40
8.5
100
AcDbArc
 50
270.0
 51
283.2276976095019
  0
ARC
  5
BD24
330
1F
100
AcDbEntity
  8
AM_0
 48
0.95
100
AcDbCircle
 10
58.5375990159531
 20
55.7528542663697
 30
0.0
 40
9.5
100
AcDbArc
 50
270.0
 51
283.2276976095019
  0
LINE
  5
BD25
330
1F
100
AcDbEntity
  8
AM_0
 48
0.15
100
AcDbLine
 10
82.0375990159531
 20
58.96065750512367
 30
0.0
 11
82.82144258630058
 21
59.58161584287655
 31
0.0
  0
LINE
  5
BD26
330
1F
100
AcDbEntity
  8
AM_0
 48
0.15
100
AcDbLine
 10
82.0375990159531
 20
52.5450510276155
 30
0.0
 11
82.82144258630058
 21
51.92409268986261
 31
0.0
  0
LINE
  5
BD27
330
1F
100
AcDbEntity
  8
AM_0
 48
0.3207803238754082
100
AcDbLine
 10
82.0375990159531
 20
58.96065750512367
 30
0.0
 11
82.0375990159531
 21
52.5450510276155
 31
0.0
  0
ARC
  5
BD28
330
1F
100
AcDbEntity
  8
AM_0
 48
0.3
100
AcDbCircle
 10
82.0375990159531
 20
58.96065750512367
 30
0.0
 40
1.0
100
AcDbArc
 50
0.0
 51
76.77230239049801
  0
ARC
  5
BD29
330
1F
100
AcDbEntity
  8
AM_0
 48
0.3
100
AcDbCircle
 10
82.0375990159531
 20
52.5450510276155
 30
0.0
 40
1.0
100
AcDbArc
 50
283.2276976095019
 51
0.0
  0
LINE
  5
BD2A
330
1F
100
AcDbEntity
  8
AM_0
 48
0.3207803238754082
100
AcDbLine
 10
83.03759901595311
 20
58.96065750512367
 30
0.0
 11
83.03759901595311
 21
52.5450510276155
 31
0.0
  0
ARC
  5
BD2B
330
1F
100
AcDbEntity
  8
AM_0
 48
0.85
100
AcDbCircle
 10
58.5375990159531
 20
55.7528542663697
 30
0.0
 40
8.5
100
AcDbArc
 50
90.0
 51
103.2276976095019
  0
ARC
  5
BD2C
330
1F
100
AcDbEntity
  8
AM_0
 48
0.95
100
AcDbCircle
 10
58.5375990159531
 20
55.7528542663697
 30
0.0
 40
9.5
100
AcDbArc
 50
90.0
 51
103.2276976095019
  0
ARC
  5
BD2D
330
1F
100
AcDbEntity
  8
AM_0
 48
0.85
100
AcDbCircle
 10
58.5375990159531
 20
55.7528542663697
 30
0.0
 40
8.5
100
AcDbArc
 50
76.77230239049801
 51
90.0
  0
ARC
  5
BD2E
330
1F
100
AcDbEntity
  8
AM_0
 48
0.95
100
AcDbCircle
 10
58.5375990159531
 20
55.7528542663697
 30
0.0
 40
9.5
100
AcDbArc
 50
76.77230239049801
 51
90.0
  0
CIRCLE
  5
BD2F
330
1F
100
AcDbEntity
  8
AM_0
100
AcDbCircle
 10
58.5375990159531
 20
55.7528542663697
 30
0.0
 40
37.0
  0
LINE
  5
BD30
330
1F
100
AcDbEntity
  8
AM_7
370
    20
100
AcDbLine
 10
58.5375990159531
 20
15.75285426636969
 30
0.0
 11
58.5375990159531
 21
95.75285426636972
 31
0.0
  0
LINE
  5
BD31
330
1F
100
AcDbEntity
  8
AM_7
370
    20
100
AcDbLine
 10
98.5375990159531
 20
55.7528542663697
 30
0.0
 11
18.5375990159531
 21
55.7528542663697
 31
0.0
  0
CIRCLE
  5
BD32
330
1F
100
AcDbEntity
  8
AM_0
100
AcDbCircle
 10
58.5375990159531
 20
55.7528542663697
 30
0.0
 40
30.0
  0
ARC
  5
BD33
330
1F
100
AcDbEntity
  8
AM_0
100
AcDbCircle
 10
58.5375990159531
 20
55.7528542663697
 30
0.0
 40
11.5
100
AcDbArc
 50
222.4711496336991
 51
317.5288503663008
  0
ARC
  5
BD34
330
1F
100
AcDbEntity
  8
AM_0
100
AcDbCircle
 10
58.5375990159531
 20
55.7528542663697
 30
0.0
 40
26.0
100
AcDbArc
 50
191.2547126182264
 51
348.7452873817727
  0
ARC
  5
BD35
330
1F
100
AcDbEntity
  8
AM_0
100
AcDbCircle
 10
58.5375990159531
 20
55.7528542663697
 30
0.0
 40
29.0
100
AcDbArc
 50
190.6549054837556
 51
349.3450945162444
  0
LINE
  5
BD36
330
1F
100
AcDbEntity
  8
AM_0
 48
0.4287222891273359
100
AcDbLine
 10
33.03759901595312
 20
59.25285426636968
 30
0.0
 11
33.03759901595312
 21
50.67840848382298
 31
0.0
  0
LINE
  5
BD37
330
1F
100
AcDbEntity
  8
AM_0
 48
0.4430951323690921
100
AcDbLine
 10
30.03759901595311
 20
59.25285426636968
 30
0.0
 11
30.03759901595311
 21
50.39095161898785
 31
0.0
  0
LINE
  5
BD38
330
1F
100
AcDbEntity
  8
AM_0
 48
0.15
100
AcDbLine
 10
30.03759901595311
 20
59.25285426636968
 30
0.0
 11
33.03759901595312
 21
59.25285426636968
 31
0.0
  0
LINE
  5
BD39
330
1F
100
AcDbEntity
  8
AM_0
 48
0.15
100
AcDbLine
 10
84.03759901595311
 20
59.25285426636968
 30
0.0
 11
87.0375990159531
 21
59.25285426636968
 31
0.0
  0
LINE
  5
BD3A
330
1F
100
AcDbEntity
  8
AM_0
 48
0.4287222891272793
100
AcDbLine
 10
84.03759901595311
 20
59.25285426636968
 30
0.0
 11
84.03759901595311
 21
50.6784084838241
 31
0.0
  0
LINE
  5
BD3B
330
1F
100
AcDbEntity
  8
AM_0
 48
0.4430951323690921
100
AcDbLine
 10
87.0375990159531
 20
59.25285426636968
 30
0.0
 11
87.0375990159531
 21
50.39095161898785
 31
0.0
  0
ARC
  5
BD3C
330
1F
100
AcDbEntity
  8
AM_0
100
AcDbCircle
 10
58.5375990159531
 20
55.7528542663697
 30
0.0
 40
11.5
100
AcDbArc
 50
42.4711496336991
 51
137.5288503663007
  0
LINE
  5
BD3D
330
1F
100
AcDbEntity
  8
0軸
 48
0.15
100
AcDbLine
 10
83.03759901595311
 20
57.25285426636967
 30
0.0
 11
84.03759901595311
 21
57.25285426636967
 31
0.0
  0
LINE
  5
BD3E
330
1F
100
AcDbEntity
  8
0軸
 48
0.15
100
AcDbLine
 10
83.03759901595311
 20
54.25285426636968
 30
0.0
 11
84.03759901595311
 21
54.25285426636968
 31
0.0
  0
LINE
  5
BD3F
330
1F
100
AcDbEntity
  8
0軸
 48
0.15
100
AcDbLine
 10
33.03759901595312
 20
57.25285426636967
 30
0.0
 11
34.03759901595311
 21
57.25285426636967
 31
0.0
  0
LINE
  5
BD40
330
1F
100
AcDbEntity
  8
0軸
 48
0.15
100
AcDbLine
 10
33.03759901595312
 20
54.25285426636968
 30
0.0
 11
34.03759901595311
 21
54.25285426636968
 31
0.0
  0
ARC
  5
BD41
330
1F
100
AcDbEntity
  8
AM_0
100
AcDbCircle
 10
238.4624009840469
 20
55.7528542663697
 30
0.0
 40
29.0
100
AcDbArc
 50
190.6549054837556
 51
349.3450945162444
  0
ARC
  5
BD42
330
1F
100
AcDbEntity
  8
AM_0
100
AcDbCircle
 10
238.4624009840469
 20
55.7528542663697
 30
0.0
 40
26.0
100
AcDbArc
 50
191.2547126182264
 51
348.7452873817727
  0
LINE
  5
BD43
330
1F
100
AcDbEntity
  8
AM_0
100
AcDbLine
 10
214.9624009840469
 20
52.5450510276155
 30
0.0
 11
236.5174183568667
 21
47.47837285784815
 31
0.0
  0
LINE
  5
BD44
330
1F
100
AcDbEntity
  8
AM_0
100
AcDbLine
 10
214.7335794984962
 20
51.57158262661301
 30
0.0
 11
236.2885968713162
 21
46.50490445684567
 31
0.0
  0
LINE
  5
BD45
330
1F
100
AcDbEntity
  8
AM_0
100
AcDbLine
 10
214.7335794984962
 20
59.93412590612638
 30
0.0
 11
236.2885968713162
 21
65.00080407589371
 31
0.0
  0
LINE
  5
BD46
330
1F
100
AcDbEntity
  8
AM_0
100
AcDbLine
 10
214.9624009840469
 20
58.96065750512367
 30
0.0
 11
236.5174183568667
 21
64.02733567489121
 31
0.0
  0
CIRCLE
  5
BD47
330
1F
100
AcDbEntity
  8
AM_0
100
AcDbCircle
 10
238.4624009840469
 20
55.7528542663697
 30
0.0
 40
30.0
  0
LINE
  5
BD48
330
1F
100
AcDbEntity
  8
AM_7
370
    20
100
AcDbLine
 10
278.4624009840469
 20
55.7528542663697
 30
0.0
 11
198.4624009840469
 21
55.7528542663697
 31
0.0
  0
CIRCLE
  5
BD49
330
1F
100
AcDbEntity
  8
AM_0
100
AcDbCircle
 10
238.4624009840469
 20
55.7528542663697
 30
0.0
 40
37.0
  0
LINE
  5
BD4A
330
1F
100
AcDbEntity
  8
AM_0
 48
0.15
100
AcDbLine
 10
212.9624009840469
 20
54.25285426636968
 30
0.0
 11
213.9624009840469
 21
54.25285426636968
 31
0.0
  0
LINE
  5
BD4B
330
1F
100
AcDbEntity
  8
AM_0
 48
0.15
100
AcDbLine
 10
212.9624009840469
 20
57.25285426636967
 30
0.0
 11
213.9624009840469
 21
57.25285426636967
 31
0.0
  0
LINE
  5
BD4C
330
1F
100
AcDbEntity
  8
AM_0
 48
0.4430951323690921
100
AcDbLine
 10
209.9624009840469
 20
59.25285426636968
 30
0.0
 11
209.9624009840469
 21
50.39095161898785
 31
0.0
  0
LINE
  5
BD4D
330
1F
100
AcDbEntity
  8
AM_0
 48
0.15
100
AcDbLine
 10
209.9624009840469
 20
59.25285426636968
 30
0.0
 11
212.9624009840469
 21
59.25285426636968
 31
0.0
  0
LINE
  5
BD4E
330
1F
100
AcDbEntity
  8
AM_0
 48
0.4287222891273359
100
AcDbLine
 10
212.9624009840469
 20
59.25285426636968
 30
0.0
 11
212.9624009840469
 21
50.67840848382298
 31
0.0
  0
LINE
  5
BD4F
330
1F
100
AcDbEntity
  8
AM_0
 48
0.3207803238754082
100
AcDbLine
 10
214.9624009840469
 20
58.96065750512367
 30
0.0
 11
214.9624009840469
 21
52.5450510276155
 31
0.0
  0
LINE
  5
BD50
330
1F
100
AcDbEntity
  8
AM_0
 48
0.3207803238754082
100
AcDbLine
 10
213.9624009840469
 20
58.96065750512367
 30
0.0
 11
213.9624009840469
 21
52.5450510276155
 31
0.0
  0
LINE
  5
BD51
330
1F
100
AcDbEntity
  8
AM_0
 48
0.15
100
AcDbLine
 10
214.9624009840469
 20
52.5450510276155
 30
0.0
 11
214.1785574136992
 21
51.92409268986261
 31
0.0
  0
ARC
  5
BD52
330
1F
100
AcDbEntity
  8
AM_0
 48
0.3
100
AcDbCircle
 10
214.9624009840469
 20
52.5450510276155
 30
0.0
 40
1.0
100
AcDbArc
 50
180.0
 51
256.772302390498
  0
LINE
  5
BD53
330
1F
100
AcDbEntity
  8
AM_0
 48
0.15
100
AcDbLine
 10
214.9624009840469
 20
58.96065750512367
 30
0.0
 11
214.1785574136992
 21
59.58161584287655
 31
0.0
  0
ARC
  5
BD54
330
1F
100
AcDbEntity
  8
AM_0
 48
0.3
100
AcDbCircle
 10
214.9624009840469
 20
58.96065750512367
 30
0.0
 40
1.0
100
AcDbArc
 50
103.2276976095019
 51
180.0
  0
LINE
  5
BD55
330
1F
100
AcDbEntity
  8
AM_0
100
AcDbLine
 10
261.9624009840469
 20
58.96065750512367
 30
0.0
 11
240.4073836112269
 21
64.02733567489121
 31
0.0
  0
LINE
  5
BD56
330
1F
100
AcDbEntity
  8
AM_0
100
AcDbLine
 10
262.1912224695974
 20
59.93412590612638
 30
0.0
 11
240.6362050967776
 21
65.00080407589371
 31
0.0
  0
LINE
  5
BD57
330
1F
100
AcDbEntity
  8
AM_7
370
    20
100
AcDbLine
 10
238.4624009840469
 20
15.75285426636969
 30
0.0
 11
238.4624009840469
 21
95.75285426636972
 31
0.0
  0
LINE
  5
BD58
330
1F
100
AcDbEntity
  8
AM_0
100
AcDbLine
 10
261.9624009840469
 20
52.5450510276155
 30
0.0
 11
240.4073836112269
 21
47.47837285784815
 31
0.0
  0
LINE
  5
BD59
330
1F
100
AcDbEntity
  8
AM_0
100
AcDbLine
 10
262.1912224695974
 20
51.57158262661301
 30
0.0
 11
240.6362050967776
 21
46.50490445684567
 31
0.0
  0
ARC
  5
BD5A
330
1F
100
AcDbEntity
  8
AM_0
 48
0.85
100
AcDbCircle
 10
238.4624009840469
 20
55.7528542663697
 30
0.0
 40
8.5
100
AcDbArc
 50
256.772302390498
 51
270.0
  0
ARC
  5
BD5B
330
1F
100
AcDbEntity
  8
AM_0
 48
0.85
100
AcDbCircle
 10
238.4624009840469
 20
55.7528542663697
 30
0.0
 40
8.5
100
AcDbArc
 50
270.0
 51
283.227697609502
  0
ARC
  5
BD5C
330
1F
100
AcDbEntity
  8
AM_0
 48
0.95
100
AcDbCircle
 10
238.4624009840469
 20
55.7528542663697
 30
0.0
 40
9.5
100
AcDbArc
 50
256.772302390498
 51
270.0
  0
ARC
  5
BD5D
330
1F
100
AcDbEntity
  8
AM_0
 48
0.95
100
AcDbCircle
 10
238.4624009840469
 20
55.7528542663697
 30
0.0
 40
9.5
100
AcDbArc
 50
270.0
 51
283.227697609502
  0
LINE
  5
BD5E
330
1F
100
AcDbEntity
  8
AM_0
 48
0.15
100
AcDbLine
 10
262.9624009840469
 20
54.25285426636968
 30
0.0
 11
263.9624009840469
 21
54.25285426636968
 31
0.0
  0
LINE
  5
BD5F
330
1F
100
AcDbEntity
  8
AM_0
 48
0.15
100
AcDbLine
 10
262.9624009840469
 20
57.25285426636967
 30
0.0
 11
263.9624009840469
 21
57.25285426636967
 31
0.0
  0
LINE
  5
BD60
330
1F
100
AcDbEntity
  8
AM_0
 48
0.15
100
AcDbLine
 10
263.9624009840469
 20
59.25285426636968
 30
0.0
 11
266.9624009840469
 21
59.25285426636968
 31
0.0
  0
LINE
  5
BD61
330
1F
100
AcDbEntity
  8
AM_0
 48
0.4430951323690921
100
AcDbLine
 10
266.9624009840469
 20
59.25285426636968
 30
0.0
 11
266.9624009840469
 21
50.39095161898785
 31
0.0
  0
LINE
  5
BD62
330
1F
100
AcDbEntity
  8
AM_0
 48
0.4287222891272793
100
AcDbLine
 10
263.9624009840469
 20
59.25285426636968
 30
0.0
 11
263.9624009840469
 21
50.6784084838241
 31
0.0
  0
LINE
  5
BD63
330
1F
100
AcDbEntity
  8
AM_0
 48
0.3207803238754082
100
AcDbLine
 10
261.9624009840469
 20
58.96065750512367
 30
0.0
 11
261.9624009840469
 21
52.5450510276155
 31
0.0
  0
LINE
  5
BD64
330
1F
100
AcDbEntity
  8
AM_0
 48
0.3207803238754082
100
AcDbLine
 10
262.9624009840469
 20
58.96065750512367
 30
0.0
 11
262.9624009840469
 21
52.5450510276155
 31
0.0
  0
LINE
  5
BD65
330
1F
100
AcDbEntity
  8
AM_0
 48
0.15
100
AcDbLine
 10
261.9624009840469
 20
52.5450510276155
 30
0.0
 11
262.7462445543944
 21
51.92409268986261
 31
0.0
  0
ARC
  5
BD66
330
1F
100
AcDbEntity
  8
AM_0
 48
0.3
100
AcDbCircle
 10
261.9624009840469
 20
52.5450510276155
 30
0.0
 40
1.0
100
AcDbArc
 50
283.227697609502
 51
0.0
  0
LINE
  5
BD67
330
1F
100
AcDbEntity
  8
AM_0
 48
0.15
100
AcDbLine
 10
261.9624009840469
 20
58.96065750512367
 30
0.0
 11
262.7462445543944
 21
59.58161584287655
 31
0.0
  0
ARC
  5
BD68
330
1F
100
AcDbEntity
  8
AM_0
 48
0.3
100
AcDbCircle
 10
261.9624009840469
 20
58.96065750512367
 30
0.0
 40
1.0
100
AcDbArc
 50
0.0
 51
76.77230239049801
  0
ARC
  5
BD69
330
1F
100
AcDbEntity
  8
AM_0
 48
0.85
100
AcDbCircle
 10
238.4624009840469
 20
55.7528542663697
 30
0.0
 40
8.5
100
AcDbArc
 50
90.0
 51
103.2276976095019
  0
ARC
  5
BD6A
330
1F
100
AcDbEntity
  8
AM_0
 48
0.95
100
AcDbCircle
 10
238.4624009840469
 20
55.7528542663697
 30
0.0
 40
9.5
100
AcDbArc
 50
90.0
 51
103.2276976095019
  0
ARC
  5
BD6B
330
1F
100
AcDbEntity
  8
AM_0
 48
0.85
100
AcDbCircle
 10
238.4624009840469
 20
55.7528542663697
 30
0.0
 40
8.5
100
AcDbArc
 50
76.77230239049801
 51
90.0
  0
ARC
  5
BD6C
330
1F
100
AcDbEntity
  8
AM_0
 48
0.95
100
AcDbCircle
 10
238.4624009840469
 20
55.7528542663697
 30
0.0
 40
9.5
100
AcDbArc
 50
76.77230239049801
 51
90.0
  0
ARC
  5
BD6D
330
1F
100
AcDbEntity
  8
AM_0
100
AcDbCircle
 10
238.4624009840469
 20
55.7528542663697
 30
0.0
 40
12.69999999999982
100
AcDbArc
 50
215.192448910494
 51
324.807551089506
  0
CIRCLE
  5
BD6E
330
1F
100
AcDbEntity
  8
AM_2
100
AcDbCircle
 10
238.4624009840469
 20
55.7528542663697
 30
0.0
 40
29.79999999999973
  0
ARC
  5
BD6F
330
1F
100
AcDbEntity
  8
AM_0
100
AcDbCircle
 10
238.4624009840469
 20
55.7528542663697
 30
0.0
 40
12.69999999999982
100
AcDbArc
 50
35.19244891049395
 51
144.8075510895059
  0
ARC
  5
BD70
330
1F
100
AcDbEntity
  8
AM_2
 48
0.5
100
AcDbCircle
 10
80.53759901595311
 20
55.7528542663697
 30
0.0
 40
5.0
100
AcDbArc
 50
256.5039988002526
 51
314.4270040008091
  0
LINE
  5
BD81
102
{ACAD_REACTORS
330
C623
102
}
330
1F
100
AcDbEntity
  8
AM_7
 48
0.7532069083047645
370
    20
100
AcDbLine
 10
80.53759901595311
 20
48.23612976534968
 30
0.0
 11
80.53759901595311
 21
63.30026793144497
 31
0.0
  0
ARC
  5
BD82
330
1F
100
AcDbEntity
  8
AM_3
 48
0.5
370
    20
100
AcDbCircle
 10
80.53759901595311
 20
55.7528542663697
 30
0.0
 40
5.0
100
AcDbArc
 50
103.4960011997474
 51
256.5039988002526
  0
ARC
  5
BD83
330
1F
100
AcDbEntity
  8
AM_2
 48
0.5
100
AcDbCircle
 10
80.53759901595311
 20
55.7528542663697
 30
0.0
 40
5.0
100
AcDbArc
 50
44.42700400080921
 51
103.4960011997474
  0
ARC
  5
BD84
330
1F
100
AcDbEntity
  8
AM_3
 48
0.5
370
    20
100
AcDbCircle
 10
80.53759901595311
 20
55.7528542663697
 30
0.0
 40
5.0
100
AcDbArc
 50
314.4270040008091
 51
44.42700400080921
  0
LINE
  5
BD85
102
{ACAD_REACTORS
330
C623
102
}
330
1F
100
AcDbEntity
  8
AM_7
 48
0.7532069083047645
370
    20
100
AcDbLine
 10
36.53759901595311
 20
48.23612976534968
 30
0.0
 11
36.53759901595311
 21
63.30026793144497
 31
0.0
  0
ARC
  5
BD86
330
1F
100
AcDbEntity
  8
AM_3
 48
0.5
370
    20
100
AcDbCircle
 10
36.53759901595311
 20
55.7528542663697
 30
0.0
 40
5.0
100
AcDbArc
 50
283.4960011997474
 51
76.50399880025259
  0
ARC
  5
BD97
330
1F
100
AcDbEntity
  8
AM_2
 48
0.5
100
AcDbCircle
 10
36.53759901595311
 20
55.7528542663697
 30
0.0
 40
5.0
100
AcDbArc
 50
225.5729959991908
 51
283.4960011997474
  0
ARC
  5
BD98
330
1F
100
AcDbEntity
  8
AM_3
 48
0.5
370
    20
100
AcDbCircle
 10
36.53759901595311
 20
55.7528542663697
 30
0.0
 40
5.0
100
AcDbArc
 50
135.5729959991907
 51
225.5729959991908
  0
ARC
  5
BD99
330
1F
100
AcDbEntity
  8
AM_2
 48
0.5
100
AcDbCircle
 10
36.53759901595311
 20
55.7528542663697
 30
0.0
 40
5.0
100
AcDbArc
 50
76.50399880025259
 51
135.5729959991907
  0
ARC
  5
BD9A
330
1F
100
AcDbEntity
  8
AM_0
100
AcDbCircle
 10
58.5375990159531
 20
55.7528542663697
 30
0.0
 40
10.29999999999972
100
AcDbArc
 50
234.041441463862
 51
305.9585585361378
  0
ARC
  5
BD9B
330
1F
100
AcDbEntity
  8
AM_0
100
AcDbCircle
 10
58.5375990159531
 20
55.7528542663697
 30
0.0
 40
10.29999999999972
100
AcDbArc
 50
54.04144146386215
 51
125.9585585361197
  0
LINE
  5
BDC4
330
1F
100
AcDbEntity
  8
AM_0
 48
0.15
100
AcDbLine
 10
141.8999999999999
 20
59.75285426636952
 30
0.0
 11
140.8999999999999
 21
58.75285426636953
 31
0.0
  0
LINE
  5
BDC5
330
1F
100
AcDbEntity
  8
AM_0
 48
0.15
100
AcDbLine
 10
141.8999999999999
 20
51.75285426636953
 30
0.0
 11
140.8999999999999
 21
52.75285426636952
 31
0.0
  0
LINE
  5
BDC8
330
1F
100
AcDbEntity
  8
AM_0
100
AcDbLine
 10
179.5
 20
55.7528542663697
 30
0.0
 11
179.5
 21
23.7528542663697
 31
0.0
  0
LINE
  5
BDCB
330
1F
100
AcDbEntity
  8
AM_0
 48
0.4
100
AcDbLine
 10
141.8999999999999
 20
59.75285426636952
 30
0.0
 11
141.8999999999999
 21
51.75285426636953
 31
0.0
  0
LINE
  5
BDCC
330
1F
100
AcDbEntity
  8
AM_0
 48
0.2249999999999886
100
AcDbLine
 10
168.3999999999999
 20
51.25285426636992
 30
0.0
 11
168.3999999999999
 21
55.7528542663697
 31
0.0
  0
LINE
  5
BDCD
330
1F
100
AcDbEntity
  8
AM_0
100
AcDbLine
 10
168.5
 20
55.7528542663697
 30
0.0
 11
168.5000000000002
 21
18.75285426636969
 31
0.0
  0
ARC
  5
BDCF
330
1F
100
AcDbEntity
  8
AM_0
 48
0.5
100
AcDbCircle
 10
174.4999999999998
 20
23.7528542663697
 30
0.0
 40
5.0
100
AcDbArc
 50
270.0
 51
0.0
1001
GENIUS_GENOBJ-N-FIL_13
1002
{
1000
OWNER
1000
GEN
1002
}
1001
GENIUS_GENODEF_13
1002
{
1000
HIER
1070
     0
1002
}
1002
{
1000
MANEDIT
1070
     0
1002
}
1002
{
1000
NOSEL
1070
     0
1002
}
1002
{
1000
BEHIND
1070
     0
1002
}
1002
{
1000
OTHER
1070
     0
1002
}
1002
{
1000
REACTOR
1002
}
  0
LINE
  5
BDD1
330
1F
100
AcDbEntity
  8
AM_0
 48
0.2999999999999887
100
AcDbLine
 10
168.5000000000002
 20
18.75285426636969
 30
0.0
 11
174.5
 21
18.75285426636969
 31
0.0
  0
LINE
  5
BDD3
330
1F
100
AcDbEntity
  8
AM_0
100
AcDbLine
 10
141.8999999999999
 20
51.75285426636953
 30
0.0
 11
168.3999999999999
 21
51.75285426636945
 31
0.0
  0
ARC
  5
BDE3
330
1F
100
AcDbEntity
  8
AM_0
 48
0.3
100
AcDbCircle
 10
169.3999999999999
 20
51.25285426636992
 30
0.0
 40
1.0
100
AcDbArc
 50
180.0
 51
205.8419327631885
  0
LINE
  5
BDE5
330
1F
100
AcDbEntity
  8
AM_0
100
AcDbLine
 10
179.5
 20
47.25285426636992
 30
0.0
 11
179.5000000000005
 21
26.7528542663697
 31
0.0
  0
ARC
  5
BE02
330
1F
100
AcDbEntity
  8
AM_0
 48
0.5
100
AcDbCircle
 10
174.4999999999998
 20
87.75285426636967
 30
0.0
 40
5.0
100
AcDbArc
 50
0.0
 51
90.0
1001
GENIUS_GENOBJ-N-FIL_13
1002
{
1000
OWNER
1000
GEN
1002
}
1001
GENIUS_GENODEF_13
1002
{
1000
HIER
1070
     0
1002
}
1002
{
1000
MANEDIT
1070
     0
1002
}
1002
{
1000
NOSEL
1070
     0
1002
}
1002
{
1000
BEHIND
1070
     0
1002
}
1002
{
1000
OTHER
1070
     0
1002
}
1002
{
1000
REACTOR
1002
}
  0
LINE
  5
BE03
330
1F
100
AcDbEntity
  8
AM_0
100
AcDbLine
 10
179.5
 20
55.7528542663697
 30
0.0
 11
179.5
 21
87.75285426636967
 31
0.0
  0
LINE
  5
BE08
330
1F
100
AcDbEntity
  8
AM_0
100
AcDbLine
 10
168.5
 20
55.7528542663697
 30
0.0
 11
168.4999999999998
 21
92.75285426636967
 31
0.0
  0
LINE
  5
BE09
330
1F
100
AcDbEntity
  8
AM_0
100
AcDbLine
 10
168.4000000000001
 20
59.75285426636947
 30
0.0
 11
141.8999999999999
 21
59.75285426636952
 31
0.0
  0
ARC
  5
BE20
330
1F
100
AcDbEntity
  8
AM_0
 48
0.3
100
AcDbCircle
 10
169.4000000000001
 20
60.25285426637037
 30
0.0
 40
1.0
100
AcDbArc
 50
154.1580672368404
 51
180.0
  0
LINE
  5
BE21
330
1F
100
AcDbEntity
  8
AM_0
 48
0.2250000000000341
100
AcDbLine
 10
168.4000000000001
 20
60.25285426637037
 30
0.0
 11
168.3999999999997
 21
55.7528542663697
 31
0.0
  0
LINE
  5
BE36
102
{ACAD_REACTORS
330
C198
330
C1CB
102
}
330
1F
100
AcDbEntity
  8
AM_0
 48
0.3000000000000114
100
AcDbLine
 10
168.4999999999998
 20
92.75285426636967
 30
0.0
 11
174.5000000000001
 21
92.75285426636967
 31
0.0
  0
LINE
  5
BE3C
330
1F
100
AcDbEntity
  8
AM_0
 48
0.2999999999999772
100
AcDbLine
 10
140.8999999999999
 20
58.75285426636953
 30
0.0
 11
140.8999999999999
 21
52.75285426636997
 31
0.0
  0
LINE
  5
BE8F
330
1F
100
AcDbEntity
  8
AM_0
100
AcDbLine
 10
117.4999999999999
 20
55.75285426636975
 30
0.0
 11
117.4999999999999
 21
23.75285426636975
 31
0.0
  0
LINE
  5
BE90
330
1F
100
AcDbEntity
  8
AM_0
100
AcDbLine
 10
128.4999999999999
 20
55.75285426636975
 30
0.0
 11
128.4999999999999
 21
18.75285426636975
 31
0.0
  0
LINE
  5
BE91
330
1F
100
AcDbEntity
  8
AM_0
100
AcDbLine
 10
117.4999999999999
 20
55.75285426636975
 30
0.0
 11
117.4999999999999
 21
87.75285426636974
 31
0.0
  0
ARC
  5
BE97
102
{ACAD_REACTORS
330
C172
102
}
330
1F
100
AcDbEntity
  8
AM_0
 48
0.5
100
AcDbCircle
 10
122.4999999999999
 20
87.75285426636974
 30
0.0
 40
5.0
100
AcDbArc
 50
90.0
 51
180.0
1001
GENIUS_GENOBJ-N-FIL_13
1002
{
1000
OWNER
1000
GEN
1002
}
1001
GENIUS_GENODEF_13
1002
{
1000
HIER
1070
     0
1002
}
1002
{
1000
MANEDIT
1070
     0
1002
}
1002
{
1000
NOSEL
1070
     0
1002
}
1002
{
1000
BEHIND
1070
     0
1002
}
1002
{
1000
OTHER
1070
     0
1002
}
1002
{
1000
REACTOR
1002
}
  0
LINE
  5
BE98
330
1F
100
AcDbEntity
  8
AM_0
 48
0.3
100
AcDbLine
 10
128.4999999999999
 20
92.75285426636974
 30
0.0
 11
122.4999999999999
 21
92.75285426636974
 31
0.0
  0
LINE
  5
BE9E
102
{ACAD_REACTORS
330
C172
330
C1CB
102
}
330
1F
100
AcDbEntity
  8
AM_0
100
AcDbLine
 10
128.4999999999999
 20
55.75285426636975
 30
0.0
 11
128.4999999999999
 21
92.75285426636974
 31
0.0
  0
ARC
  5
BEAA
330
1F
100
AcDbEntity
  8
AM_0
 48
0.5
100
AcDbCircle
 10
122.4999999999999
 20
23.75285426636975
 30
0.0
 40
5.0
100
AcDbArc
 50
180.0
 51
270.0
1001
GENIUS_GENOBJ-N-FIL_13
1002
{
1000
OWNER
1000
GEN
1002
}
1001
GENIUS_GENODEF_13
1002
{
1000
HIER
1070
     0
1002
}
1002
{
1000
MANEDIT
1070
     0
1002
}
1002
{
1000
NOSEL
1070
     0
1002
}
1002
{
1000
BEHIND
1070
     0
1002
}
1002
{
1000
OTHER
1070
     0
1002
}
1002
{
1000
REACTOR
1002
}
  0
LINE
  5
BEAC
330
1F
100
AcDbEntity
  8
AM_0
 48
0.5885376449013692
100
AcDbLine
 10
129.1292471019725
 20
53.25285426636975
 30
0.0
 11
140.8999999999999
 21
53.25285426636975
 31
0.0
  0
LINE
  5
BEAD
330
1F
100
AcDbEntity
  8
AM_0
 48
0.5885376449013721
100
AcDbLine
 10
129.1292471019725
 20
58.25285426636975
 30
0.0
 11
140.8999999999999
 21
58.25285426636975
 31
0.0
  0
LINE
  5
BEAE
330
1F
100
AcDbEntity
  8
AM_2
 48
0.5885376449013579
370
    20
100
AcDbLine
 10
129.1292471019727
 20
53.65285426637007
 30
0.0
 11
140.8999999999999
 21
53.65285426636996
 31
0.0
  0
LINE
  5
BEAF
330
1F
100
AcDbEntity
  8
AM_2
 48
0.5885376449013579
370
    20
100
AcDbLine
 10
129.1292471019727
 20
57.85285426636988
 30
0.0
 11
140.8999999999999
 21
57.85285426636988
 31
0.0
  0
LINE
  5
BEB4
330
1F
100
AcDbEntity
  8
AM_0
 48
0.1853553390593333
100
AcDbLine
 10
129.1292471019725
 20
59.45996104755642
 30
0.0
 11
129.1292471019725
 21
55.75285426636975
 31
0.0
  0
LINE
  5
BEBE
330
1F
100
AcDbEntity
  8
AM_0
 48
0.15
100
AcDbLine
 10
129.1292471019725
 20
59.45996104755642
 30
0.0
 11
128.4999999999999
 21
60.0892081495288
 31
0.0
  0
LINE
  5
BEC3
330
1F
100
AcDbEntity
  8
AM_0
 48
0.15
100
AcDbLine
 10
129.1292471019725
 20
52.04574748518306
 30
0.0
 11
128.4999999999999
 21
51.41650038321046
 31
0.0
  0
LINE
  5
BEC6
330
1F
100
AcDbEntity
  8
AM_0
 48
0.1853553390593333
100
AcDbLine
 10
129.1292471019725
 20
55.75285426636975
 30
0.0
 11
129.1292471019725
 21
52.04574748518306
 31
0.0
  0
LINE
  5
BEC8
330
1F
100
AcDbEntity
  8
AM_0
 48
0.2999999999999986
100
AcDbLine
 10
128.4999999999999
 20
18.75285426636975
 30
0.0
 11
122.4999999999999
 21
18.75285426636975
 31
0.0
  0
LINE
  5
BEDF
330
1F
100
AcDbEntity
  8
AM_0
100
AcDbLine
 10
117.5000000000001
 20
47.25285426636975
 30
0.0
 11
117.5000000000001
 21
26.75285426636953
 31
0.0
  0
LINE
  5
BFAC
102
{ACAD_REACTORS
330
C443
102
}
330
1F
100
AcDbEntity
  8
AM_7
 48
0.7000000000000001
100
AcDbLine
 10
216.4624009840468
 20
141.8336136574955
 30
0.0
 11
216.4624009840468
 21
169.8336136574955
 31
0.0
1001
GENIUS_GENOREF_13
1005
BFAF
  0
LINE
  5
BFAD
330
1F
100
AcDbEntity
  8
AM_7
 48
0.7000000000000001
100
AcDbLine
 10
230.4624009840468
 20
155.8336136574955
 30
0.0
 11
202.4624009840468
 21
155.8336136574955
 31
0.0
1001
GENIUS_GENOREF_13
1005
BFAF
  0
POINT
  5
BFAF
330
1F
100
AcDbEntity
  8
0
  6
破断線
 60
     1
100
AcDbPoint
 10
0.0
 20
0.0
 30
0.0
1001
GENIUS_GENOLIS_13
1002
{
1000
ENT
1005
BFAE
1005
BFAD
1005
BFAC
1005
BFAB
1002
}
1001
GENIUS_GENOENT_13
1002
{
1000
MYREF
1005
BFAF
1002
}
1002
{
1000
GRP
1005
0
1002
}
1001
GENIUS_GENOBJ-N-CRS_13
1002
{
1000
OWNER
1000
GEN
1002
}
1001
GENIUS_GENODEF_13
1002
{
1000
HIER
1070
    10
1002
}
1002
{
1000
MANEDIT
1070
     0
1002
}
1002
{
1000
NOSEL
1070
     0
1002
}
1002
{
1000
BEHIND
1070
     0
1002
}
1002
{
1000
OTHER
1070
     0
1002
}
1002
{
1000
REACTOR
1002
}
  0
CIRCLE
  5
BFB0
102
{ACAD_REACTORS
330
BFFB
330
C4A1
102
}
330
1F
100
AcDbEntity
  8
AM_0
 48
0.4
100
AcDbCircle
 10
216.4624009840468
 20
155.8336136574955
 30
0.0
 40
6.0
  0
LINE
  5
BFB6
102
{ACAD_REACTORS
330
C443
102
}
330
1F
100
AcDbEntity
  8
AM_7
 48
0.7000000000000001
100
AcDbLine
 10
260.4624009840469
 20
141.8336136574955
 30
0.0
 11
260.4624009840469
 21
169.8336136574955
 31
0.0
1001
GENIUS_GENOREF_13
1005
BFB9
  0
LINE
  5
BFB7
330
1F
100
AcDbEntity
  8
AM_7
 48
0.7000000000000015
100
AcDbLine
 10
274.4624009840469
 20
155.8336136574955
 30
0.0
 11
246.4624009840469
 21
155.8336136574955
 31
0.0
1001
GENIUS_GENOREF_13
1005
BFB9
  0
CIRCLE
  5
BFB8
102
{ACAD_REACTORS
330
C005
102
}
330
1F
100
AcDbEntity
  8
AM_0
 48
0.4
100
AcDbCircle
 10
260.4624009840469
 20
155.8336136574955
 30
0.0
 40
6.0
  0
POINT
  5
BFB9
330
1F
100
AcDbEntity
  8
0
  6
破断線
 60
     1
100
AcDbPoint
 10
22.0
 20
0.0
 30
0.0
1001
GENIUS_GENOLIS_13
1002
{
1000
ENT
1005
BFAE
1005
BFB7
1005
BFB6
1005
BFAB
1002
}
1001
GENIUS_GENOENT_13
1002
{
1000
MYREF
1005
BFB9
1002
}
1002
{
1000
GRP
1005
0
1002
}
1001
GENIUS_GENOBJ-N-CRS_13
1002
{
1000
OWNER
1000
GEN
1002
}
1001
GENIUS_GENODEF_13
1002
{
1000
HIER
1070
    10
1002
}
1002
{
1000
MANEDIT
1070
     0
1002
}
1002
{
1000
NOSEL
1070
     0
1002
}
1002
{
1000
BEHIND
1070
     0
1002
}
1002
{
1000
OTHER
1070
     0
1002
}
1002
{
1000
REACTOR
1002
}
  0
HATCH
  5
BFFB
330
1F
100
AcDbEntity
  8
AM_8
 48
1.01
100
AcDbHatch
 10
0.0
 20
0.0
 30
0.0
210
0.0
220
0.0
230
1.0
  2
_U
 70
     0
 71
     1
 91
        1
 92
        7
 72
     1
 73
     1
 93
        2
 10
222.4624009840468
 20
155.8336136574955
 42
1.0
 10
210.4624009840468
 20
155.8336136574955
 42
1.0
 97
        1
330
BFB0
 75
     0
 76
     0
 52
45.0
 41
2.0
 77
     0
 78
     1
 53
45.0
 43
-497.7833227315691
 44
2.601030985940496
 45
-1.414213562373094
 46
1.414213562373094
 79
     0
 47
0.0304221457213388
 98
        1
 10
218.1142103360021
 20
154.1422106885613
1001
ACAD
1010
0.0
1020
0.0
1030
0.0
1001
GENIUS_GENOBJ-N-HTC_13
1002
{
1000
OWNER
1000
GEN
1002
}
1001
GENIUS_GENODEF_13
1002
{
1000
HIER
1070
     0
1002
}
1002
{
1000
MANEDIT
1070
     0
1002
}
1002
{
1000
NOSEL
1070
     0
1002
}
1002
{
1000
BEHIND
1070
     0
1002
}
1002
{
1000
OTHER
1070
     0
1002
}
1002
{
1000
REACTOR
1002
}
1001
GENIUS_GENHATCH_13
1002
{
1000
DATA
1040
45.0
1042
5.0
1000
_U
1070
     0
1011
218.1142103360021
1021
154.1422106885613
1031
0.0
1002
}
1002
{
1000
UCS
1010
0.0
1020
0.0
1030
0.0
1010
1.0
1020
0.0
1030
0.0
1010
0.0
1020
1.0
1030
0.0
1002
}
  0
HATCH
  5
C005
330
1F
100
AcDbEntity
  8
AM_8
 48
1.01
100
AcDbHatch
 10
0.0
 20
0.0
 30
0.0
210
0.0
220
0.0
230
1.0
  2
_U
 70
     0
 71
     1
 91
        1
 92
        7
 72
     1
 73
     1
 93
        2
 10
266.4624009840469
 20
155.8336136574955
 42
1.0
 10
254.4624009840469
 20
155.8336136574955
 42
1.0
 97
        1
330
BFB8
 75
     0
 76
     0
 52
45.0
 41
2.0
 77
     0
 78
     1
 53
45.0
 43
-497.7833227315691
 44
2.601030985940496
 45
-1.414213562373094
 46
1.414213562373094
 79
     0
 47
0.0304221457213388
 98
        1
 10
257.7369048140723
 20
153.5337738106339
1001
ACAD
1010
0.0
1020
0.0
1030
0.0
1001
GENIUS_GENOBJ-N-HTC_13
1002
{
1000
OWNER
1000
GEN
1002
}
1001
GENIUS_GENODEF_13
1002
{
1000
HIER
1070
     0
1002
}
1002
{
1000
MANEDIT
1070
     0
1002
}
1002
{
1000
NOSEL
1070
     0
1002
}
1002
{
1000
BEHIND
1070
     0
1002
}
1002
{
1000
OTHER
1070
     0
1002
}
1002
{
1000
REACTOR
1002
}
1001
GENIUS_GENHATCH_13
1002
{
1000
DATA
1040
45.0
1042
5.0
1000
_U
1070
     0
1011
257.7369048140723
1021
153.5337738106339
1031
0.0
1002
}
1002
{
1000
UCS
1010
0.0
1020
0.0
1030
0.0
1010
1.0
1020
0.0
1030
0.0
1010
0.0
1020
1.0
1030
0.0
1002
}
  0
LINE
  5
C074
330
1F
100
AcDbEntity
  8
AM_0
100
AcDbLine
 10
96.70634483081881
 20
185.9052246242102
 30
0.0
 11
166.7063295720288
 21
185.9052246242102
 31
0.0
  0
LINE
  5
C075
330
1F
100
AcDbEntity
  8
AM_0
100
AcDbLine
 10
96.70634483081881
 20
177.9052246242102
 30
0.0
 11
166.7063295720288
 21
177.9052246242102
 31
0.0
  0
LINE
  5
C076
330
1F
100
AcDbEntity
  8
AM_0
100
AcDbLine
 10
96.70634483081881
 20
169.9052284389072
 30
0.0
 11
166.7063295720288
 21
169.9052284389072
 31
0.0
  0
LINE
  5
C07C
330
1F
100
AcDbEntity
  8
AM_0
100
AcDbLine
 10
96.70634483081881
 20
185.9052246242102
 30
0.0
 11
96.70634483081895
 21
137.9052436976951
 31
0.0
  0
LINE
  5
C07D
330
1F
100
AcDbEntity
  8
AM_0
100
AcDbLine
 10
126.7063295720288
 20
185.9052246242102
 30
0.0
 11
126.7063295720288
 21
137.9052436976951
 31
0.0
  0
MTEXT
  5
C080
330
1F
100
AcDbEntity
  8
AM_6
 48
1.01
100
AcDbMText
 10
112.2148294971655
 20
181.9052246242101
 30
0.0
 40
3.5
 41
0.0
 71
     5
 72
     5
  1
適応扉厚
 73
     1
 44
1.0
1001
ACAD
1000
MTEXTBEGIN
1070
    73
1070
     1
1070
    44
1040
1.0
1070
    74
1070
     0
1000
MTEXTEND
  0
MTEXT
  5
C081
330
1F
100
AcDbEntity
  8
AM_6
 48
1.01
100
AcDbMText
 10
111.7063410161215
 20
173.9052284389072
 30
0.0
 40
3.5
 41
0.0
 71
     5
 72
     5
  1
29以上33未満
 73
     1
 44
1.0
1001
ACAD
1000
MTEXTBEGIN
1070
    73
1070
     1
1070
    44
1040
1.0
1070
    74
1070
     0
1000
MTEXTEND
  0
LINE
  5
C083
330
1F
100
AcDbEntity
  8
AM_0
100
AcDbLine
 10
166.7063295720288
 20
185.9052246242102
 30
0.0
 11
166.7063295720288
 21
137.9052436976951
 31
0.0
  0
MTEXT
  5
C084
330
1F
100
AcDbEntity
  8
AM_6
 48
1.01
100
AcDbMText
 10
146.2941109948975
 20
181.9052246242101
 30
0.0
 40
3.5
 41
0.0
 71
     5
 72
     5
  1
セットビス（SUS・2本）
 73
     1
 44
1.0
1001
ACAD
1000
MTEXTBEGIN
1070
    73
1070
     1
1070
    44
1040
1.0
1070
    74
1070
     0
1000
MTEXTEND
  0
CIRCLE
  5
C087
330
1F
100
AcDbEntity
  8
AM_6
 48
0.4
100
AcDbCircle
 10
152.5940942563934
 20
173.6421400496081
 30
0.0
 40
2.021360509678743
  0
MTEXT
  5
C088
330
1F
100
AcDbEntity
  8
AM_6
 48
1.01
100
AcDbMText
 10
146.7063298159755
 20
173.8859867377432
 30
0.0
 40
3.5
 41
0.0
 71
     5
 72
     5
  1
M5×L20 + 皿
 73
     1
 44
1.0
1001
ACAD
1000
MTEXTBEGIN
1070
    73
1070
     1
1070
    44
1040
1.0
1070
    74
1070
     0
1000
MTEXTEND
  0
LINE
  5
C0C0
330
1F
100
AcDbEntity
  8
AM_7
100
AcDbLine
 10
113.4999999999999
 20
55.75285426636952
 30
0.0
 11
183.5
 21
55.75285426636941
 31
0.0
1001
GENIUS_GENOBJ-N-CEN_13
1002
{
1000
OWNER
1000
GEN
1002
}
1001
GENIUS_GENODEF_13
1002
{
1000
HIER
1070
     0
1002
}
1002
{
1000
MANEDIT
1070
     0
1002
}
1002
{
1000
NOSEL
1070
     0
1002
}
1002
{
1000
BEHIND
1070
     0
1002
}
1002
{
1000
OTHER
1070
     0
1002
}
1002
{
1000
REACTOR
1002
}
1001
GENIUS_GENCEN_19
1002
{
1040
4.0
1002
}
  0
MTEXT
  5
C108
330
1F
100
AcDbEntity
  8
AM_6
 48
1.01
100
AcDbMText
 10
238.9620487430087
 20
133.8503587572215
 30
0.0
 40
3.5
 41
0.0
 71
     5
 72
     5
  1
切欠推奨寸法
 73
     1
 44
1.0
1001
ACAD
1000
MTEXTBEGIN
1070
    73
1070
     1
1070
    44
1040
1.0
1070
    74
1070
     0
1000
MTEXTEND
  0
LINE
  5
C131
330
1F
100
AcDbEntity
  8
AM_0
100
AcDbLine
 10
11.50000000000001
 20
201.5
 30
0.0
 11
74.98176820239497
 21
201.5
 31
0.0
  0
LINE
  5
C132
330
1F
100
AcDbEntity
  8
AM_0
100
AcDbLine
 10
11.50000000000001
 20
145.5
 30
0.0
 11
74.98176820239497
 21
145.5
 31
0.0
  0
LINE
  5
C134
330
1F
100
AcDbEntity
  8
AM_2
100
AcDbLine
 10
31.50000000000002
 20
153.5
 30
0.0
 11
74.98176820239497
 21
153.5
 31
0.0
  0
LINE
  5
C135
330
1F
100
AcDbEntity
  8
AM_2
100
AcDbLine
 10
11.50000000000001
 20
161.5
 30
0.0
 11
74.98176820239497
 21
161.5
 31
0.0
  0
LINE
  5
C137
330
1F
100
AcDbEntity
  8
AM_2
100
AcDbLine
 10
31.50000000000002
 20
161.5
 30
0.0
 11
74.98176820239497
 21
161.5
 31
0.0
  0
LINE
  5
C138
330
1F
100
AcDbEntity
  8
AM_2
100
AcDbLine
 10
11.50000000000001
 20
169.5
 30
0.0
 11
74.98176820239497
 21
169.5
 31
0.0
  0
LINE
  5
C139
330
1F
100
AcDbEntity
  8
AM_2
100
AcDbLine
 10
11.50000000000001
 20
177.5
 30
0.0
 11
74.98176820239497
 21
177.5
 31
0.0
  0
LINE
  5
C13A
330
1F
100
AcDbEntity
  8
AM_2
100
AcDbLine
 10
11.50000000000001
 20
185.5
 30
0.0
 11
74.98176820239497
 21
185.5
 31
0.0
  0
LINE
  5
C13B
330
1F
100
AcDbEntity
  8
AM_2
100
AcDbLine
 10
11.50000000000001
 20
193.5
 30
0.0
 11
74.98176820239497
 21
193.5
 31
0.0
  0
LINE
  5
C13C
330
1F
100
AcDbEntity
  8
AM_0
100
AcDbLine
 10
11.50000000000001
 20
201.5
 30
0.0
 11
11.50000000000001
 21
145.5
 31
0.0
  0
LINE
  5
C13D
330
1F
100
AcDbEntity
  8
AM_2
100
AcDbLine
 10
31.50000000000002
 20
201.5
 30
0.0
 11
31.50000000000002
 21
145.5
 31
0.0
  0
MTEXT
  5
C13E
330
1F
100
AcDbEntity
  8
AM_6
 48
1.01
100
AcDbMText
 10
21.50000000000002
 20
157.5
 30
0.0
 40
3.2
 41
20.0
 71
     5
 72
     5
  1
備　考
 73
     1
 44
1.0
1001
ACAD
1000
MTEXTBEGIN
1070
    73
1070
     1
1070
    44
1040
1.0
1070
    74
1070
     0
1000
MTEXTEND
  0
MTEXT
  5
C140
330
1F
100
AcDbEntity
  8
AM_6
 48
1.01
100
AcDbMText
 10
36.09715740003777
 20
149.5
 30
0.0
 40
3.2
 41
90.0
 71
     4
 72
     5
  1
　※
 73
     1
 44
1.0
1001
ACAD
1000
MTEXTBEGIN
1070
    73
1070
     1
1070
    44
1040
1.0
1070
    74
1070
     0
1000
MTEXTEND
  0
MTEXT
  5
C142
330
1F
100
AcDbEntity
  8
AM_6
 48
1.01
100
AcDbMText
 10
36.09715740003777
 20
157.5
 30
0.0
 40
3.2
 41
90.0
 71
     4
 72
     5
  1
　※
 73
     1
 44
1.0
1001
ACAD
1000
MTEXTBEGIN
1070
    73
1070
     1
1070
    44
1040
1.0
1070
    74
1070
     0
1000
MTEXTEND
  0
MTEXT
  5
C144
330
1F
100
AcDbEntity
  8
AM_6
 48
1.01
100
AcDbMText
 10
21.50000000000002
 20
173.5
 30
0.0
 40
3.2
 41
20.0
 71
     5
 72
     5
  1
仕上げ
 73
     1
 44
1.0
1001
ACAD
1000
MTEXTBEGIN
1070
    73
1070
     1
1070
    44
1040
1.0
1070
    74
1070
     0
1000
MTEXTEND
  0
MTEXT
  5
C145
330
1F
100
AcDbEntity
  8
AM_6
 48
1.01
100
AcDbMText
 10
21.50000000000002
 20
165.5
 30
0.0
 40
3.2
 41
20.0
 71
     5
 72
     5
  1
セットビス
 73
     1
 44
1.0
1001
ACAD
1000
MTEXTBEGIN
1070
    73
1070
     1
1070
    44
1040
1.0
1070
    74
1070
     0
1000
MTEXTEND
  0
MTEXT
  5
C146
330
1F
100
AcDbEntity
  8
AM_6
 48
1.01
100
AcDbMText
 10
21.50000000000002
 20
181.5
 30
0.0
 40
3.2
 41
20.0
 71
     5
 72
     5
  1
材　質
 73
     1
 44
1.0
1001
ACAD
1000
MTEXTBEGIN
1070
    73
1070
     1
1070
    44
1040
1.0
1070
    74
1070
     0
1000
MTEXTEND
  0
MTEXT
  5
C147
330
1F
100
AcDbEntity
  8
AM_6
 48
1.01
100
AcDbMText
 10
21.50000000000002
 20
197.5
 30
0.0
 40
3.2
 41
20.0
 71
     5
 72
     5
  1
品　名
 73
     1
 44
1.0
1001
ACAD
1000
MTEXTBEGIN
1070
    73
1070
     1
1070
    44
1040
1.0
1070
    74
1070
     0
1000
MTEXTEND
  0
MTEXT
  5
C148
330
1F
100
AcDbEntity
  8
AM_6
 48
1.01
100
AcDbMText
 10
21.50000000000002
 20
189.5
 30
0.0
 40
3.2
 41
20.0
 71
     5
 72
     5
  1
品　番
 73
     1
 44
1.0
1001
ACAD
1000
MTEXTBEGIN
1070
    73
1070
     1
1070
    44
1040
1.0
1070
    74
1070
     0
1000
MTEXTEND
  0
MTEXT
  5
C149
330
1F
100
AcDbEntity
  8
AM_6
 48
1.01
100
AcDbMText
 10
36.09715740003777
 20
173.5
 30
0.0
 40
3.2
 41
90.0
 71
     4
 72
     5
  1
ヘアーライン
 73
     1
 44
1.0
1001
ACAD
1000
MTEXTBEGIN
1070
    73
1070
     1
1070
    44
1040
1.0
1070
    74
1070
     0
1000
MTEXTEND
  0
MTEXT
  5
C14A
330
1F
100
AcDbEntity
  8
AM_6
 48
1.01
100
AcDbMText
 10
36.09715740003777
 20
165.5
 30
0.0
 40
3.2
 41
90.0
 71
     4
 72
     5
  1
右記表参照
 73
     1
 44
1.0
1001
ACAD
1000
MTEXTBEGIN
1070
    73
1070
     1
1070
    44
1040
1.0
1070
    74
1070
     0
1000
MTEXTEND
  0
MTEXT
  5
C14B
330
1F
100
AcDbEntity
  8
AM_6
 48
1.01
100
AcDbMText
 10
36.09715740003777
 20
181.5
 30
0.0
 40
3.2
 41
90.0
 71
     4
 72
     5
  1
ステンレス
 73
     1
 44
1.0
1001
ACAD
1000
MTEXTBEGIN
1070
    73
1070
     1
1070
    44
1040
1.0
1070
    74
1070
     0
1000
MTEXTEND
  0
MTEXT
  5
C14C
330
1F
100
AcDbEntity
  8
AM_6
 48
1.01
100
AcDbMText
 10
36.09715740003777
 20
189.5
 30
0.0
 40
3.2
 41
90.0
 71
     4
 72
     5
  1
CHZ
 73
     1
 44
1.0
1001
ACAD
1000
MTEXTBEGIN
1070
    73
1070
     1
1070
    44
1040
1.0
1070
    74
1070
     0
1000
MTEXTEND
  0
MTEXT
  5
C14D
330
1F
100
AcDbEntity
  8
AM_6
 48
1.01
100
AcDbMText
 10
36.09715740003777
 20
197.5
 30
0.0
 40
3.2
 41
90.0
 71
     4
 72
     5
  1
ケースハンドル
 73
     1
 44
1.0
1001
ACAD
1000
MTEXTBEGIN
1070
    73
1070
     1
1070
    44
1040
1.0
1070
    74
1070
     0
1000
MTEXTEND
  0
LINE
  5
C14E
330
1F
100
AcDbEntity
  8
AM_0
100
AcDbLine
 10
74.98176820239497
 20
201.5
 30
0.0
 11
74.98176820239493
 21
145.5
 31
0.0
  0
DIMENSION
  5
C164
102
{ACAD_XDICTIONARY
360
C171
102
}
102
{ACAD_REACTORS
330
C172
102
}
330
1F
100
AcDbEntity
  8
AM_5
 48
1.01
100
AcDbDimension
  2
*D5
 10
117.4999999999999
 20
104.7528542663697
 30
0.0
 11
122.9999999999999
 21
107.8528542663697
 31
0.0
 70
    32
 71
     5
 42
11.0
  3
SYS$0
100
AcDbAlignedDimension
 13
128.4999999999999
 23
92.75285426636974
 33
0.0
 14
117.4999999999999
 24
87.75285426636974
 34
0.0
100
AcDbRotatedDimension
  0
DIMENSION
  5
C18A
102
{ACAD_XDICTIONARY
360
C197
102
}
102
{ACAD_REACTORS
330
C198
102
}
330
1F
100
AcDbEntity
  8
AM_5
 48
1.01
100
AcDbDimension
  2
*D6
 10
179.4999999999998
 20
104.7528542663697
 30
0.0
 11
173.9999999999998
 21
107.8528542663697
 31
0.0
 70
    32
 71
     5
 42
11.0
  3
SYS$0
100
AcDbAlignedDimension
 13
168.4999999999998
 23
92.75285426636967
 33
0.0
 14
179.4999999999998
 24
87.75285426637053
 34
0.0
100
AcDbRotatedDimension
  0
DIMENSION
  5
C1BD
102
{ACAD_XDICTIONARY
360
C1CA
102
}
102
{ACAD_REACTORS
330
C1CB
102
}
330
1F
100
AcDbEntity
  8
AM_5
 48
1.01
100
AcDbDimension
  2
*D7
 10
168.4999999999998
 20
104.7528542663697
 30
0.0
 11
148.4999999999999
 21
107.8528542663697
 31
0.0
 70
    32
  1
Dt
 71
     5
 42
39.99999999999992
  3
SYS$0
100
AcDbAlignedDimension
 13
128.4999999999999
 23
92.75285426636974
 33
0.0
 14
168.4999999999998
 24
92.75285426636967
 34
0.0
100
AcDbRotatedDimension
  0
LINE
  5
C2D9
330
1F
100
AcDbEntity
  8
AM_3
 48
0.15
370
    20
100
AcDbLine
 10
79.93756849837348
 20
53.23354343042502
 30
0.0
 11
79.93756849837325
 21
54.16819884839743
 31
0.0
  0
ARC
  5
C2DA
330
1F
100
AcDbEntity
  8
AM_3
 48
0.3
370
    20
100
AcDbCircle
 10
78.93756849837325
 20
54.16819884839719
 30
0.0
 40
1.0
100
AcDbArc
 50
0.0
 51
90.0
  0
LINE
  5
C2DB
330
1F
100
AcDbEntity
  8
AM_3
 48
0.15
370
    20
100
AcDbLine
 10
78.93756849837325
 20
55.16819884839719
 30
0.0
 11
77.98759901595317
 21
55.16819884839719
 31
0.0
  0
LINE
  5
C2DC
330
1F
100
AcDbEntity
  8
AM_3
 48
0.15
370
    20
100
AcDbLine
 10
77.98759901595317
 20
55.16819884839719
 30
0.0
 11
77.98759901595338
 21
56.36819884839725
 31
0.0
  0
LINE
  5
C2DD
330
1F
100
AcDbEntity
  8
AM_3
 48
0.15
370
    20
100
AcDbLine
 10
78.9375684983728
 20
56.36819884839725
 30
0.0
 11
77.98759901595338
 21
56.36819884839725
 31
0.0
  0
ARC
  5
C2DE
330
1F
100
AcDbEntity
  8
AM_3
 48
0.3
370
    20
100
AcDbCircle
 10
78.9375684983728
 20
57.36819884839725
 30
0.0
 40
1.0
100
AcDbArc
 50
270.0
 51
0.0
  0
LINE
  5
C2DF
330
1F
100
AcDbEntity
  8
AM_3
 48
0.15
370
    20
100
AcDbLine
 10
79.93756849837279
 20
57.36819884839746
 30
0.0
 11
79.93756849837303
 21
58.33354343042493
 31
0.0
  0
LINE
  5
C2E0
330
1F
100
AcDbEntity
  8
AM_3
 48
0.15
370
    20
100
AcDbLine
 10
81.13759901595301
 20
58.33354343042493
 30
0.0
 11
79.93756849837303
 21
58.33354343042493
 31
0.0
  0
LINE
  5
C2E1
330
1F
100
AcDbEntity
  8
AM_3
 48
0.15
370
    20
100
AcDbLine
 10
81.13759901595301
 20
57.36819884839725
 30
0.0
 11
81.13759901595301
 21
58.33354343042493
 31
0.0
  0
ARC
  5
C2E2
330
1F
100
AcDbEntity
  8
AM_3
 48
0.3
370
    20
100
AcDbCircle
 10
82.13759901595301
 20
57.36819884839725
 30
0.0
 40
1.0
100
AcDbArc
 50
180.0
 51
270.0
  0
LINE
  5
C2E3
330
1F
100
AcDbEntity
  8
AM_3
 48
0.15
370
    20
100
AcDbLine
 10
83.08759901595307
 20
56.36819884839725
 30
0.0
 11
82.13759901595301
 21
56.36819884839725
 31
0.0
  0
LINE
  5
C2E4
330
1F
100
AcDbEntity
  8
AM_3
 48
0.15
370
    20
100
AcDbLine
 10
81.13759901595301
 20
53.23354343042502
 30
0.0
 11
81.13759901595301
 21
54.16819884839719
 31
0.0
  0
ARC
  5
C2E5
330
1F
100
AcDbEntity
  8
AM_3
 48
0.3
370
    20
100
AcDbCircle
 10
82.13759901595301
 20
54.16819884839719
 30
0.0
 40
1.0
100
AcDbArc
 50
90.0
 51
180.0
  0
LINE
  5
C2E6
330
1F
100
AcDbEntity
  8
AM_3
 48
0.15
370
    20
100
AcDbLine
 10
81.13759901595301
 20
53.23354343042502
 30
0.0
 11
79.93756849837348
 21
53.23354343042502
 31
0.0
  0
LINE
  5
C2E7
330
1F
100
AcDbEntity
  8
AM_3
 48
0.15
370
    20
100
AcDbLine
 10
83.08759901595307
 20
55.16819884839719
 30
0.0
 11
82.13759901595301
 21
55.16819884839719
 31
0.0
  0
LINE
  5
C2E8
330
1F
100
AcDbEntity
  8
AM_3
 48
0.15
370
    20
100
AcDbLine
 10
83.08759901595307
 20
55.16819884839719
 30
0.0
 11
83.08759901595307
 21
56.36819884839725
 31
0.0
  0
LINE
  5
C2E9
330
1F
100
AcDbEntity
  8
AM_3
 48
0.15
370
    20
100
AcDbLine
 10
35.93756849837347
 20
53.21819884839738
 30
0.0
 11
35.93756849837325
 21
54.15285426636978
 31
0.0
  0
ARC
  5
C2EA
330
1F
100
AcDbEntity
  8
AM_3
 48
0.3
370
    20
100
AcDbCircle
 10
34.93756849837325
 20
54.15285426636955
 30
0.0
 40
1.0
100
AcDbArc
 50
0.0
 51
90.0
  0
LINE
  5
C2EB
330
1F
100
AcDbEntity
  8
AM_3
 48
0.15
370
    20
100
AcDbLine
 10
34.93756849837325
 20
55.15285426636956
 30
0.0
 11
33.98759901595315
 21
55.15285426636956
 31
0.0
  0
LINE
  5
C2EC
330
1F
100
AcDbEntity
  8
AM_3
 48
0.15
370
    20
100
AcDbLine
 10
33.98759901595315
 20
55.15285426636956
 30
0.0
 11
33.98759901595338
 21
56.3528542663696
 31
0.0
  0
LINE
  5
C2ED
330
1F
100
AcDbEntity
  8
AM_3
 48
0.15
370
    20
100
AcDbLine
 10
34.93756849837281
 20
56.3528542663696
 30
0.0
 11
33.98759901595338
 21
56.3528542663696
 31
0.0
  0
ARC
  5
C2EE
330
1F
100
AcDbEntity
  8
AM_3
 48
0.3
370
    20
100
AcDbCircle
 10
34.93756849837281
 20
57.35285426636959
 30
0.0
 40
1.0
100
AcDbArc
 50
270.0
 51
0.0
  0
LINE
  5
C2EF
330
1F
100
AcDbEntity
  8
AM_3
 48
0.15
370
    20
100
AcDbLine
 10
35.9375684983728
 20
57.35285426636983
 30
0.0
 11
35.93756849837304
 21
58.31819884839728
 31
0.0
  0
LINE
  5
C2F0
330
1F
100
AcDbEntity
  8
AM_3
 48
0.15
370
    20
100
AcDbLine
 10
37.13759901595303
 20
58.31819884839728
 30
0.0
 11
35.93756849837304
 21
58.31819884839728
 31
0.0
  0
LINE
  5
C2F1
330
1F
100
AcDbEntity
  8
AM_3
 48
0.15
370
    20
100
AcDbLine
 10
37.13759901595303
 20
57.35285426636959
 30
0.0
 11
37.13759901595303
 21
58.31819884839728
 31
0.0
  0
ARC
  5
C2F2
330
1F
100
AcDbEntity
  8
AM_3
 48
0.3
370
    20
100
AcDbCircle
 10
38.13759901595303
 20
57.35285426636959
 30
0.0
 40
1.0
100
AcDbArc
 50
180.0
 51
270.0
  0
LINE
  5
C2F3
330
1F
100
AcDbEntity
  8
AM_3
 48
0.15
370
    20
100
AcDbLine
 10
39.08759901595307
 20
56.3528542663696
 30
0.0
 11
38.13759901595303
 21
56.3528542663696
 31
0.0
  0
LINE
  5
C2F4
330
1F
100
AcDbEntity
  8
AM_3
 48
0.15
370
    20
100
AcDbLine
 10
37.13759901595303
 20
53.21819884839738
 30
0.0
 11
37.13759901595303
 21
54.15285426636955
 31
0.0
  0
ARC
  5
C2F5
330
1F
100
AcDbEntity
  8
AM_3
 48
0.3
370
    20
100
AcDbCircle
 10
38.13759901595303
 20
54.15285426636955
 30
0.0
 40
1.0
100
AcDbArc
 50
90.0
 51
180.0
  0
LINE
  5
C2F6
330
1F
100
AcDbEntity
  8
AM_3
 48
0.15
370
    20
100
AcDbLine
 10
37.13759901595303
 20
53.21819884839738
 30
0.0
 11
35.93756849837347
 21
53.21819884839738
 31
0.0
  0
LINE
  5
C2F7
330
1F
100
AcDbEntity
  8
AM_3
 48
0.15
370
    20
100
AcDbLine
 10
39.08759901595307
 20
55.15285426636956
 30
0.0
 11
38.13759901595303
 21
55.15285426636956
 31
0.0
  0
LINE
  5
C2F8
330
1F
100
AcDbEntity
  8
AM_3
 48
0.15
370
    20
100
AcDbLine
 10
39.08759901595307
 20
55.15285426636956
 30
0.0
 11
39.08759901595307
 21
56.3528542663696
 31
0.0
  0
DIMENSION
  5
C435
102
{ACAD_XDICTIONARY
360
C442
102
}
102
{ACAD_REACTORS
330
C443
102
}
330
1F
100
AcDbEntity
  8
AM_5
100
AcDbDimension
  2
*D8
 10
260.4624009840469
 20
181.8336136574956
 30
0.0
 11
238.4624009840468
 21
184.9336136574955
 31
0.0
 70
    32
 71
     5
 42
44.00000000000003
  3
SYS$0
100
AcDbAlignedDimension
 13
216.4624009840468
 23
169.8336136574955
 33
0.0
 14
260.4624009840469
 24
169.8336136574955
 34
0.0
100
AcDbRotatedDimension
  0
DIMENSION
  5
C494
102
{ACAD_XDICTIONARY
360
C4A0
102
}
102
{ACAD_REACTORS
330
C4A1
102
}
330
1F
100
AcDbEntity
  8
AM_5
100
AcDbDimension
  2
*D9
 10
220.5084451211465
 20
151.403091471495
 30
0.0
 11
197.6998281808661
 21
168.4128007457196
 31
0.0
 70
   163
  1
2-<>
 71
     5
 42
12.00000000000014
  3
SYS$3
100
AcDbDiametricDimension
 15
212.4163568469473
 25
160.264135843496
 35
0.0
 40
0.0
1001
ACAD
1000
DSTYLE
1002
{
1070
    41
1040
1.0
1070
   172
1070
     1
1070
   289
1070
     2
1070
   342
1005
6C4
1002
}
  0
DIMENSION
  5
C545
330
1F
100
AcDbEntity
  8
AM_5
100
AcDbDimension
  2
*D10
 10
268.4624009840469
 20
104.7528542663697
 30
0.0
 11
238.4624009840469
 21
107.8528542663697
 31
0.0
 70
    32
  1
%%c<>
 71
     5
 42
60.0
  3
SYS$0
100
AcDbAlignedDimension
 13
208.4624009840469
 23
55.7528542663697
 33
0.0
 14
268.4624009840469
 24
55.7528542663697
 34
0.0
100
AcDbRotatedDimension
  0
DIMENSION
  5
C578
330
1F
100
AcDbEntity
  8
AM_5
100
AcDbDimension
  2
*D11
 10
275.4624009840469
 20
114.7528542663697
 30
0.0
 11
238.4624009840469
 21
117.8528542663697
 31
0.0
 70
    32
  1
%%c<>
 71
     5
 42
74.0
  3
SYS$0
100
AcDbAlignedDimension
 13
201.4624009840469
 23
55.7528542663697
 33
0.0
 14
275.4624009840469
 24
55.7528542663697
 34
0.0
100
AcDbRotatedDimension
  0
DIMENSION
  5
C615
102
{ACAD_XDICTIONARY
360
C622
102
}
102
{ACAD_REACTORS
330
C623
102
}
330
1F
100
AcDbEntity
  8
AM_5
100
AcDbDimension
  2
*D12
 10
80.53759901595311
 20
104.7528542663697
 30
0.0
 11
58.5375990159531
 21
107.8528542663697
 31
0.0
 70
    32
 71
     5
 42
44.0
  3
SYS$0
100
AcDbAlignedDimension
 13
36.53759901595311
 23
63.30026793144497
 33
0.0
 14
80.53759901595311
 24
63.30026793144497
 34
0.0
100
AcDbRotatedDimension
  0
LINE
  5
C807
330
1F
100
AcDbEntity
  8
AM_0
100
AcDbLine
 10
96.70634483081881
 20
161.9052322536042
 30
0.0
 11
166.7063295720288
 21
161.9052322536042
 31
0.0
  0
MTEXT
  5
C808
330
1F
100
AcDbEntity
  8
AM_6
 48
1.01
100
AcDbMText
 10
111.7063410161215
 20
165.9052322536042
 30
0.0
 40
3.5
 41
0.0
 71
     5
 72
     5
  1
33以上42未満
 73
     1
 44
1.0
1001
ACAD
1000
MTEXTBEGIN
1070
    73
1070
     1
1070
    44
1040
1.0
1070
    74
1070
     0
1000
MTEXTEND
  0
CIRCLE
  5
C809
330
1F
100
AcDbEntity
  8
AM_6
 48
0.4
100
AcDbCircle
 10
152.5940942563934
 20
165.642143864305
 30
0.0
 40
2.021360509678743
  0
MTEXT
  5
C80A
330
1F
100
AcDbEntity
  8
AM_6
 48
1.01
100
AcDbMText
 10
146.7063298159755
 20
165.8859905524401
 30
0.0
 40
3.5
 41
0.0
 71
     5
 72
     5
  1
M5×L25 + 皿
 73
     1
 44
1.0
1001
ACAD
1000
MTEXTBEGIN
1070
    73
1070
     1
1070
    44
1040
1.0
1070
    74
1070
     0
1000
MTEXTEND
  0
LINE
  5
C80B
330
1F
100
AcDbEntity
  8
AM_0
100
AcDbLine
 10
96.70634483081881
 20
153.9052360683011
 30
0.0
 11
166.7063295720288
 21
153.9052360683011
 31
0.0
  0
MTEXT
  5
C80C
330
1F
100
AcDbEntity
  8
AM_6
 48
1.01
100
AcDbMText
 10
111.7063410161215
 20
157.9052360683012
 30
0.0
 40
3.5
 41
0.0
 71
     5
 72
     5
  1
42以上50未満
 73
     1
 44
1.0
1001
ACAD
1000
MTEXTBEGIN
1070
    73
1070
     1
1070
    44
1040
1.0
1070
    74
1070
     0
1000
MTEXTEND
  0
CIRCLE
  5
C80D
330
1F
100
AcDbEntity
  8
AM_6
 48
0.4
100
AcDbCircle
 10
152.5940942563934
 20
157.642147679002
 30
0.0
 40
2.021360509678743
  0
MTEXT
  5
C80E
330
1F
100
AcDbEntity
  8
AM_6
 48
1.01
100
AcDbMText
 10
146.7063298159755
 20
157.8859943671371
 30
0.0
 40
3.5
 41
0.0
 71
     5
 72
     5
  1
M5×L30 + 皿
 73
     1
 44
1.0
1001
ACAD
1000
MTEXTBEGIN
1070
    73
1070
     1
1070
    44
1040
1.0
1070
    74
1070
     0
1000
MTEXTEND
  0
LINE
  5
C80F
330
1F
100
AcDbEntity
  8
AM_0
100
AcDbLine
 10
96.70634483081881
 20
145.9052398829981
 30
0.0
 11
166.7063295720288
 21
145.9052398829981
 31
0.0
  0
MTEXT
  5
C810
330
1F
100
AcDbEntity
  8
AM_6
 48
1.01
100
AcDbMText
 10
111.7063410161215
 20
149.9052398829981
 30
0.0
 40
3.5
 41
0.0
 71
     5
 72
     5
  1
50以上58未満
 73
     1
 44
1.0
1001
ACAD
1000
MTEXTBEGIN
1070
    73
1070
     1
1070
    44
1040
1.0
1070
    74
1070
     0
1000
MTEXTEND
  0
CIRCLE
  5
C811
330
1F
100
AcDbEntity
  8
AM_6
 48
0.4
100
AcDbCircle
 10
152.5940942563934
 20
149.642151493699
 30
0.0
 40
2.021360509678743
  0
MTEXT
  5
C812
330
1F
100
AcDbEntity
  8
AM_6
 48
1.01
100
AcDbMText
 10
146.7063298159755
 20
149.8859981818341
 30
0.0
 40
3.5
 41
0.0
 71
     5
 72
     5
  1
M5×L40 + 皿
 73
     1
 44
1.0
1001
ACAD
1000
MTEXTBEGIN
1070
    73
1070
     1
1070
    44
1040
1.0
1070
    74
1070
     0
1000
MTEXTEND
  0
LINE
  5
C813
330
1F
100
AcDbEntity
  8
AM_0
100
AcDbLine
 10
96.70634483081881
 20
137.9052436976951
 30
0.0
 11
166.7063295720288
 21
137.9052436976951
 31
0.0
  0
MTEXT
  5
C814
330
1F
100
AcDbEntity
  8
AM_6
 48
1.01
100
AcDbMText
 10
111.7063410161215
 20
141.9052436976951
 30
0.0
 40
3.5
 41
0.0
 71
     5
 72
     5
  1
58以上66未満
 73
     1
 44
1.0
1001
ACAD
1000
MTEXTBEGIN
1070
    73
1070
     1
1070
    44
1040
1.0
1070
    74
1070
     0
1000
MTEXTEND
  0
CIRCLE
  5
C815
330
1F
100
AcDbEntity
  8
AM_6
 48
0.4
100
AcDbCircle
 10
152.5940942563934
 20
141.642155308396
 30
0.0
 40
2.021360509678743
  0
MTEXT
  5
C816
330
1F
100
AcDbEntity
  8
AM_6
 48
1.01
100
AcDbMText
 10
146.7063298159755
 20
141.8860019965311
 30
0.0
 40
3.5
 41
0.0
 71
     5
 72
     5
  1
M5×L45 + 皿
 73
     1
 44
1.0
1001
ACAD
1000
MTEXTBEGIN
1070
    73
1070
     1
1070
    44
1040
1.0
1070
    74
1070
     0
1000
MTEXTEND
  0
ENDSEC
  0
SECTION
  2
OBJECTS
  0
DICTIONARY
  5
C
330
0
100
AcDbDictionary
281
     1
  3
ACAD_2007HEADERVARS_RT
350
C818
  3
ACAD_BGPLOT_KEY
350
AB06
  3
ACAD_COLOR
350
A91D
  3
ACAD_GROUP
350
D
  3
ACAD_LAYOUT
350
1A
  3
ACAD_MATERIAL
350
A91C
  3
ACAD_MLINESTYLE
350
17
  3
ACAD_PLOTSETTINGS
350
19
  3
ACAD_PLOTSTYLENAME
350
E
  3
ACAD_TABLESTYLE
350
AAB9
  3
ACAD_VISUALSTYLE
350
C693
  3
AcAsAppObject
350
3DA1
  3
ACASGREF_MASTER
350
3DE9
  3
AcDbVariableDictionary
350
34
  3
AcmDictionary
350
47
  3
AD_GREF_MODULE
350
3DEA
  3
AD_MAPI_MODULE
350
3E06
  3
AMG
350
2B
  3
AMGSNAPSETTINGS
350
7D
  3
ASE_INDEX_DICTIONARY
350
9F48
  3
DWGPROPS
350
C817
  3
MAPISURF_MODULE
350
3DEB
  0
DICTIONARY
  5
3F95
330
2
100
AcDbDictionary
280
     1
281
     1
  3
ACAD_LAYERFILTERS
360
AF79
  3
ACAD_LAYERSTATES
360
3F96
  3
ACLYDICTIONARY
360
AF78
  3
AMLAYER_GROUPCOLORS
360
AAB4
  0
DICTIONARY
  5
8A
330
1F
100
AcDbDictionary
280
     1
281
     1
  3
ACAD_SORTENTS
360
BD06
  0
DICTIONARY
  5
C171
330
C164
100
AcDbDictionary
280
     1
281
     1
  3
ACAD_DIMASSOC
360
C172
  0
DICTIONARY
  5
C197
330
C18A
100
AcDbDictionary
280
     1
281
     1
  3
ACAD_DIMASSOC
360
C198
  0
DICTIONARY
  5
C1CA
330
C1BD
100
AcDbDictionary
280
     1
281
     1
  3
ACAD_DIMASSOC
360
C1CB
  0
DICTIONARY
  5
C442
330
C435
100
AcDbDictionary
280
     1
281
     1
  3
ACAD_DIMASSOC
360
C443
  0
DICTIONARY
  5
C4A0
330
C494
100
AcDbDictionary
280
     1
281
     1
  3
ACAD_DIMASSOC
360
C4A1
  0
DICTIONARY
  5
C622
330
C615
100
AcDbDictionary
280
     1
281
     1
  3
ACAD_DIMASSOC
360
C623
  0
DICTIONARY
  5
C818
102
{ACAD_REACTORS
330
C
102
}
330
C
100
AcDbDictionary
281
     1
  3
DIMARCSYM
350
C819
  0
DICTIONARY
  5
AB06
102
{ACAD_REACTORS
330
C
102
}
330
C
100
AcDbDictionary
280
     1
281
     1
  0
DICTIONARY
  5
A91D
102
{ACAD_REACTORS
330
C
102
}
330
C
100
AcDbDictionary
281
     1
  0
DICTIONARY
  5
D
102
{ACAD_REACTORS
330
C
102
}
330
C
100
AcDbDictionary
281
     1
  0
DICTIONARY
  5
1A
102
{ACAD_REACTORS
330
C
102
}
330
C
100
AcDbDictionary
281
     1
  3
Model
350
22
  3
ﾚｲｱｳﾄ1
350
1E
  3
ﾚｲｱｳﾄ2
350
26
  0
DICTIONARY
  5
A91C
102
{ACAD_REACTORS
330
C
102
}
330
C
100
AcDbDictionary
281
     1
  3
ByBlock
350
C691
  3
ByLayer
350
C690
  3
Global
350
C692
  0
DICTIONARY
  5
17
102
{ACAD_REACTORS
330
C
102
}
330
C
100
AcDbDictionary
281
     1
  3
Standard
350
18
  0
DICTIONARY
  5
19
102
{ACAD_REACTORS
330
C
102
}
330
C
100
AcDbDictionary
281
     1
  3
01 A3フィット
350
BC58
  3
02 A3
350
BC59
  3
03 A2フィット
350
BC5A
  3
04 A2
350
BC5B
  3
05 A1フィット
350
BC5C
  3
06 A1
350
BC5D
  3
06 A4フィット
350
BC5E
  3
07 A4
350
BC5F
  0
ACDBDICTIONARYWDFLT
  5
E
102
{ACAD_REACTORS
330
C
102
}
330
C
100
AcDbDictionary
281
     1
  3
Normal
350
F
100
AcDbDictionaryWithDefault
340
F
  0
DICTIONARY
  5
AAB9
102
{ACAD_REACTORS
330
C
102
}
330
C
100
AcDbDictionary
281
     1
  3
Standard
350
AABA
  0
DICTIONARY
  5
C693
102
{ACAD_REACTORS
330
C
102
}
330
C
100
AcDbDictionary
281
     1
  3
2dWireframe
350
C699
  3
3D Hidden
350
C69B
  3
3dWireframe
350
C69A
  3
Basic
350
C698
  3
Brighten
350
C69F
  3
ColorChange
350
C6A3
  3
Conceptual
350
C69C
  3
Dim
350
C69E
  3
Facepattern
350
C6A2
  3
Flat
350
C694
  3
FlatWithEdges
350
C695
  3
Gouraud
350
C696
  3
GouraudWithEdges
350
C697
  3
Linepattern
350
C6A1
  3
Realistic
350
C69D
  3
Thicken
350
C6A0
  0
ACAD_PROXY_OBJECT
  5
3DA1
102
{ACAD_REACTORS
330
C
102
}
330
C
100
AcDbProxyObject
 90
      499
 91
      576
 95
       23
 70
     0
 93
       10
310
407F
 94
        0
1001
ACAD
1000
AcRTDxfName
1000
ASAPP
1000
AcRTDxfName
1000
ASAPP
1000
AcRTDxfName
1000
ASAPP
  0
ACAD_PROXY_OBJECT
  5
3DE9
102
{ACAD_REACTORS
330
C
102
}
330
C
100
AcDbProxyObject
 90
      499
 91
      581
 95
       23
 70
     0
 93
       34
310
010000407F
 94
        0
1001
ACAD
1000
AcRTDxfName
1000
ACASGREFMASTER
1000
AcRTDxfName
1000
ACASGREFMASTER
1000
AcRTDxfName
1000
ACASGREFMASTER
  0
DICTIONARY
  5
34
102
{ACAD_REACTORS
330
C
102
}
330
C
100
AcDbDictionary
281
     1
  3
CTABLESTYLE
350
AAF3
  3
DIMASSOC
350
A10C
  3
FIELDEVAL
350
AB07
  3
INDEXCTL
350
35
  3
PROJECTNAME
350
C672
  3
SORTENTS
350
194C
  0
DICTIONARY
  5
47
102
{ACAD_REACTORS
330
C
102
}
330
C
100
AcDbDictionary
281
     1
  3
AcmBOM
350
7E8
  3
AcmStdDictionary
350
4C
  3
AMDTSECTSYM_ARROWCOLOR
350
A929
  0
ACAD_PROXY_OBJECT
  5
3DEA
102
{ACAD_REACTORS
330
C
102
}
330
C
100
AcDbProxyObject
 90
      499
 91
      582
 95
       23
 70
     0
 93
      114
310
00000043800000000000000000003F
 94
        0
1001
ACAD
1000
AcRTDxfName
1000
ACADGREFMODULE
1000
AcRTDxfName
1000
ACADGREFMODULE
1000
AcRTDxfName
1000
ACADGREFMODULE
  0
ACAD_PROXY_OBJECT
  5
3E06
102
{ACAD_REACTORS
330
C
102
}
330
C
100
AcDbProxyObject
 90
      499
 91
      594
 95
       23
 70
     0
 93
       34
310
05000044FF
 94
        0
1001
ACAD
1000
AcRTDxfName
1000
MAPIADMODULE
1000
AcRTDxfName
1000
MAPIADMODULE
1000
AcRTDxfName
1000
MAPIADMODULE
  0
DICTIONARY
  5
2B
102
{ACAD_REACTORS
330
C
102
}
330
C
100
AcDbDictionary
281
     1
  0
DICTIONARY
  5
7D
102
{ACAD_REACTORS
330
C
102
}
330
C
100
AcDbDictionary
281
     1
  0
DICTIONARY
  5
9F48
102
{ACAD_REACTORS
330
C
102
}
330
C
100
AcDbDictionary
281
     1
  3
ASEBlockHierarchyIndexRecord
350
9F49
1001
DCO15
1040
1425739953.442
  0
XRECORD
  5
C817
102
{ACAD_REACTORS
330
C
102
}
330
C
100
AcDbXrecord
280
     1
  1
DWGPROPS COOKIE
  2

  3

  4

  6

  7

  8
Administrator
  9

300
AmdtFileType=84
301
=
302
=
303
=
304
=
305
=
306
=
307
=
308
=
309
=
 40
0.0298081365740741
 41
2453693.762204676
 42
2456743.656638264
  1

 90
        1
  0
ACAD_PROXY_OBJECT
  5
3DEB
102
{ACAD_REACTORS
330
C
102
}
330
C
100
AcDbProxyObject
 90
      499
 91
      583
 95
       23
 70
     0
 93
        8
310
047E
 94
        0
1001
ACAD
1000
AcRTDxfName
1000
AMDTMAPISURFMOUDULE
1000
AcRTDxfName
1000
AMDTMAPISURFMOUDULE
1000
AcRTDxfName
1000
AMDTMAPISURFMOUDULE
  0
DICTIONARY
  5
AF79
102
{ACAD_REACTORS
330
3F95
102
}
330
3F95
100
AcDbDictionary
281
     1
  0
DICTIONARY
  5
3F96
102
{ACAD_REACTORS
330
3F95
102
}
330
3F95
100
AcDbDictionary
281
     1
  3
20011210
350
3FB7
  0
DICTIONARY
  5
AF78
102
{ACAD_REACTORS
330
3F95
102
}
330
3F95
100
AcDbDictionary
281
     1
1001
ACAD
1000
<All
  0
DICTIONARY
  5
AAB4
102
{ACAD_REACTORS
330
3F95
102
}
330
3F95
100
AcDbDictionary
280
     1
281
     1
  0
SORTENTSTABLE
  5
BD06
102
{ACAD_REACTORS
330
8A
102
}
330
8A
100
AcDbSortentsTable
330
1F
331
BE03
  5
BE03
331
BD3D
  5
BD3D
331
C080
  5
C082
331
BCFE
  5
BCFE
331
BEAA
  5
BEAA
331
BD84
  5
BD84
331
C088
  5
C08A
331
BD45
  5
BD45
331
BD4D
  5
BD4D
331
C0C0
  5
C0C0
331
C108
  5
C108
331
BD16
  5
BD16
331
BDC4
  5
BDC4
331
BD55
  5
BD55
331
BD1E
  5
BD1E
331
BDCC
  5
BDCC
331
BD5D
  5
BD5D
331
BD26
  5
BD26
331
C138
  5
C138
331
BD2E
  5
BD2E
331
BD65
  5
BD65
331
C140
  5
C140
331
BD6D
  5
BD6D
331
BD36
  5
BD36
331
C148
  5
C148
331
BD3E
  5
BD3E
331
C081
  5
C083
331
BD85
  5
BD85
331
BD46
  5
BD46
331
BD4E
  5
BD4E
331
BD17
  5
BD17
331
BEC3
  5
BEC8
331
BD56
  5
BD56
331
BDC5
  5
BDC5
331
BD1F
  5
BD1F
331
C131
  5
C131
331
BE3C
  5
BE3C
331
BD5E
  5
BD5E
331
BDCD
  5
BDCD
331
BD27
  5
BD27
331
C139
  5
C139
331
BD66
  5
BD66
331
BD2F
  5
BD2F
331
C149
  5
C149
331
BDE5
  5
BDE5
331
BD6E
  5
BD6E
331
BD37
  5
BD37
331
BD3F
  5
BD3F
331
BEAC
  5
BEAC
331
BD47
  5
BD47
331
BD86
  5
BD86
331
BEB4
  5
BEC3
331
BD4F
  5
BD4F
331
BD18
  5
BD18
331
C132
  5
C132
331
BD57
  5
BD57
331
BD20
  5
BD20
331
BFFB
  5
BFB7
331
BD28
  5
BD28
331
BD5F
  5
BD5F
331
C13A
  5
C13A
331
BD30
  5
BD30
331
BD67
  5
BD67
331
C142
  5
C142
331
BD6F
  5
BD6F
331
C14A
  5
C14A
331
BD38
  5
BD38
331
BD40
  5
BD40
331
BFAC
  5
BFB0
331
C083
  5
C085
331
BD48
  5
BD48
331
BEAD
  5
BEAD
331
BD97
  5
BD97
331
BD50
  5
BD50
331
BD19
  5
BD19
331
BE36
  5
BE36
331
BD58
  5
BD58
331
BD21
  5
BD21
331
BDCF
  5
BDCF
331
BD29
  5
BD29
331
BD60
  5
BD60
331
C13B
  5
C13B
331
BD68
  5
BD68
331
BD31
  5
BD31
331
C074
  5
C076
331
C07C
  5
C07E
331
C14B
  5
C14B
331
BD70
  5
BD70
331
BCFA
  5
BCFA
331
BD39
  5
BD39
331
BE9E
  5
BE9E
331
BFAD
  5
BFB6
331
C084
  5
C086
331
BD41
  5
BD41
331
BD49
  5
BD49
331
BEAE
  5
BEAE
331
BD12
  5
BD12
331
BD98
  5
BD98
331
BEBE
  5
BEC6
331
BD51
  5
BD51
331
BD1A
  5
BD1A
331
BEC6
  5
BEDF
331
BDC8
  5
BDC8
331
BD59
  5
BD59
331
BD22
  5
BD22
331
C134
  5
C134
331
BD2A
  5
BD2A
331
BD61
  5
BD61
331
C005
  5
C003
331
C13C
  5
C13C
331
BE8F
  5
BE8F
331
BD69
  5
BD69
331
BD32
  5
BD32
331
C075
  5
C077
331
C144
  5
C144
331
BE97
  5
BE97
331
C07D
  5
C07F
331
C14C
  5
C14C
331
BD3A
  5
BD3A
331
BCFB
  5
BCFB
331
BE08
  5
BE08
331
BD81
  5
BD81
331
BD42
  5
BD42
331
BFB6
  5
BFD3
331
BD4A
  5
BD4A
331
BE20
  5
BE20
331
BEAF
  5
BEB0
331
BD13
  5
BD13
331
BD99
  5
BD99
331
BD52
  5
BD52
331
BD1B
  5
BD1B
331
BD5A
  5
BD5A
331
BD23
  5
BD23
331
C135
  5
C135
331
BDD1
  5
BDD1
331
BD2B
  5
BD2B
331
BD62
  5
BD62
331
C13D
  5
C13D
331
BEDF
  5
BFAD
331
BE90
  5
BE90
331
BD6A
  5
BD6A
331
BD33
  5
BD33
331
C076
  5
C078
331
C145
  5
C145
331
C14D
  5
C14D
331
BE98
  5
BE98
331
BD3B
  5
BD3B
331
BCFC
  5
BCFC
331
BD82
  5
BD82
331
BE09
  5
BE09
331
BD43
  5
BD43
331
BD4B
  5
BD4B
331
BE21
  5
BE21
331
BFB7
  5
BFF9
331
BD14
  5
BD14
331
BD9A
  5
BD9A
331
BD53
  5
BD53
331
BD1C
  5
BD1C
331
BEC8
  5
BFAC
331
BD5B
  5
BD5B
331
BD24
  5
BD24
331
BD2C
  5
BD2C
331
BD63
  5
BD63
331
C13E
  5
C13E
331
BE91
  5
BE91
331
BD6B
  5
BD6B
331
BD34
  5
BD34
331
C146
  5
C146
331
C14E
  5
C14E
331
BE02
  5
BE02
331
BD3C
  5
BD3C
331
BFB0
  5
BFB8
331
BD83
  5
BD83
331
C087
  5
C089
331
BD44
  5
BD44
331
BD4C
  5
BD4C
331
BFB8
  5
C00A
331
BD9B
  5
BD9B
331
BD15
  5
BD15
331
BD54
  5
BD54
331
BD1D
  5
BD1D
331
BD5C
  5
BD5C
331
BDCB
  5
BDCB
331
BD25
  5
BD25
331
C137
  5
C137
331
BDD3
  5
BDD3
331
BD2D
  5
BD2D
331
BD64
  5
BD64
331
BDE3
  5
BDE3
331
BD6C
  5
BD6C
331
BD35
  5
BD35
331
C147
  5
C147
  0
DIMASSOC
  5
C172
102
{ACAD_REACTORS
330
C171
102
}
330
C171
100
AcDbDimAssoc
330
C164
 90
        3
 70
     0
 71
     0
  1
AcDbOsnapPointRef
 72
     1
331
BE9E
 73
     0
 91
        0
 40
0.0
 10
0.0
 20
0.0
 30
2.000000000000000E+50
 75
     0
  1
AcDbOsnapPointRef
 72
     1
331
BE97
 73
     0
 91
        0
 40
0.0
 10
0.0
 20
0.0
 30
2.000000000000000E+50
 75
     0
  0
DIMASSOC
  5
C198
102
{ACAD_REACTORS
330
C197
102
}
330
C197
100
AcDbDimAssoc
330
C18A
 90
        1
 70
     0
 71
     0
  1
AcDbOsnapPointRef
 72
    13
331
BE36
 73
     0
 91
        0
 40
0.0
 10
0.0
 20
0.0
 30
2.000000000000000E+50
 75
     0
  0
DIMASSOC
  5
C1CB
102
{ACAD_REACTORS
330
C1CA
102
}
330
C1CA
100
AcDbDimAssoc
330
C1BD
 90
        3
 70
     0
 71
     0
  1
AcDbOsnapPointRef
 72
     1
331
BE9E
 73
     0
 91
        0
 40
0.0
 10
0.0
 20
0.0
 30
2.000000000000000E+50
 75
     0
  1
AcDbOsnapPointRef
 72
    13
331
BE36
 73
     0
 91
        0
 40
0.0
 10
0.0
 20
0.0
 30
2.000000000000000E+50
 75
     0
  0
DIMASSOC
  5
C443
102
{ACAD_REACTORS
330
C442
102
}
330
C442
100
AcDbDimAssoc
330
C435
 90
        3
 70
     0
 71
     0
  1
AcDbOsnapPointRef
 72
     1
331
BFAC
 73
     0
 91
        0
 40
0.0
 10
0.0
 20
0.0
 30
2.000000000000000E+50
 75
     0
  1
AcDbOsnapPointRef
 72
     1
331
BFB6
 73
     0
 91
        0
 40
0.0
 10
0.0
 20
0.0
 30
2.000000000000000E+50
 75
     0
  0
DIMASSOC
  5
C4A1
102
{ACAD_REACTORS
330
C4A0
102
}
330
C4A0
100
AcDbDimAssoc
330
C494
 90
        2
 70
     0
 71
     0
  1
AcDbOsnapPointRef
 72
     3
331
BFB0
 73
     2
 91
        0
 40
0.0
 10
0.0
 20
0.0
 30
0.0
 75
     0
  0
DIMASSOC
  5
C623
102
{ACAD_REACTORS
330
C622
102
}
330
C622
100
AcDbDimAssoc
330
C615
 90
        3
 70
     0
 71
     0
  1
AcDbOsnapPointRef
 72
     1
331
BD85
 73
     0
 91
        0
 40
0.0
 10
0.0
 20
0.0
 30
2.000000000000000E+50
 75
     0
  1
AcDbOsnapPointRef
 72
     1
331
BD81
 73
     0
 91
        0
 40
0.0
 10
0.0
 20
0.0
 30
2.000000000000000E+50
 75
     0
  0
XRECORD
  5
C819
102
{ACAD_REACTORS
330
C818
102
}
330
C818
100
AcDbXrecord
280
     1
 70
     1
  0
LAYOUT
  5
22
102
{ACAD_XDICTIONARY
360
C81C
102
}
102
{ACAD_REACTORS
330
1A
102
}
330
1A
100
AcDbPlotSettings
  1

  2
FX DocuWide 2050/2051
  4
A4
  6
AM_VIEW1
 40
3.174999952316282
 41
3.174999952316282
 42
3.175003051757812
 43
3.17498779296875
 44
209.9944915771484
 45
296.989501953125
 46
-3.177755713462843
 47
-3.180242896080017
 48
0.0
 49
-0.0000000000000284
140
297.0
141
210.0
142
1.0
143
1.0
 70
  3748
 72
     1
 73
     1
 74
     4
  7
monochrome.ctb
 75
     0
147
0.9697356598717824
148
0.0
149
0.0000000000000284
100
AcDbLayout
  1
Model
 70
     1
 71
     0
 10
0.0
 20
0.0
 11
12.0
 21
9.0
 12
0.0
 22
0.0
 32
0.0
 14
0.0
 24
0.0
 34
0.0
 15
0.0
 25
0.0
 35
0.0
146
0.0
 13
0.0
 23
0.0
 33
0.0
 16
1.0
 26
0.0
 36
0.0
 17
0.0
 27
1.0
 37
0.0
 76
     0
330
1F
331
C673
1001
ACAD_PSEXT
1000
FX DocuWide 2050/2051
1000
FX DocuWide 2050/2051
1000
IP_192.200.15.252
1000

1070
     0
  0
LAYOUT
  5
1E
102
{ACAD_XDICTIONARY
360
C81A
102
}
102
{ACAD_REACTORS
330
1A
102
}
330
1A
100
AcDbPlotSettings
  1

  2
\\ML370\XEROX
  4
A4
  6

 40
3.174999952316282
 41
3.174999952316282
 42
3.175003051757812
 43
3.17498779296875
 44
209.8674926757813
 45
296.6719970703125
 46
0.0
 47
0.0
 48
0.0
 49
0.0
140
0.0
141
0.0
142
1.0
143
1.0
 70
   688
 72
     1
 73
     1
 74
     5
  7
monochrome.ctb
 75
    16
147
1.0
148
0.0
149
0.0
100
AcDbLayout
  1
ﾚｲｱｳﾄ1
 70
     1
 71
     1
 10
-3.17498779296875
 20
-3.174999952316282
 11
293.4970092773438
 21
206.692492723465
 12
0.0
 22
0.0
 32
0.0
 14
1.000000000000000E+20
 24
1.000000000000000E+20
 34
1.000000000000000E+20
 15
-1.000000000000000E+20
 25
-1.000000000000000E+20
 35
-1.000000000000000E+20
146
0.0
 13
0.0
 23
0.0
 33
0.0
 16
1.0
 26
0.0
 36
0.0
 17
0.0
 27
1.0
 37
0.0
 76
     0
330
1B
  0
LAYOUT
  5
26
102
{ACAD_XDICTIONARY
360
C81E
102
}
102
{ACAD_REACTORS
330
1A
102
}
330
1A
100
AcDbPlotSettings
  1

  2
\\ML370\XEROX
  4

  6

 40
0.0
 41
0.0
 42
0.0
 43
0.0
 44
0.0
 45
0.0
 46
0.0
 47
0.0
 48
0.0
 49
0.0
140
0.0
141
0.0
142
1.0
143
1.0
 70
   688
 72
     0
 73
     0
 74
     5
  7
monochrome.ctb
 75
    16
147
1.0
148
0.0
149
0.0
100
AcDbLayout
  1
ﾚｲｱｳﾄ2
 70
     1
 71
     2
 10
0.0
 20
0.0
 11
12.0
 21
9.0
 12
0.0
 22
0.0
 32
0.0
 14
0.0
 24
0.0
 34
0.0
 15
0.0
 25
0.0
 35
0.0
146
0.0
 13
0.0
 23
0.0
 33
0.0
 16
1.0
 26
0.0
 36
0.0
 17
0.0
 27
1.0
 37
0.0
 76
     0
330
23
  0
MATERIAL
  5
C691
102
{ACAD_XDICTIONARY
360
C763
102
}
102
{ACAD_REACTORS
330
A91C
102
}
330
A91C
100
AcDbMaterial
  1
ByBlock
  0
MATERIAL
  5
C690
102
{ACAD_XDICTIONARY
360
C761
102
}
102
{ACAD_REACTORS
330
A91C
102
}
330
A91C
100
AcDbMaterial
  1
ByLayer
  0
MATERIAL
  5
C692
102
{ACAD_XDICTIONARY
360
C765
102
}
102
{ACAD_REACTORS
330
A91C
102
}
330
A91C
100
AcDbMaterial
  1
Global
  0
MLINESTYLE
  5
18
102
{ACAD_REACTORS
330
17
102
}
330
17
100
AcDbMlineStyle
  2
STANDARD
 70
     0
  3

 62
   256
 51
90.0
 52
90.0
 71
     2
 49
0.5
 62
   256
  6
BYLAYER
 49
-0.5
 62
   256
  6
BYLAYER
  0
PLOTSETTINGS
  5
BC58
102
{ACAD_XDICTIONARY
360
C822
102
}
102
{ACAD_REACTORS
330
19
102
}
330
19
100
AcDbPlotSettings
  1
01 A3フィット
  2
FX DocuWide 2050/2051
  4
A3
  6

 40
3.174999952316282
 41
3.174999952316282
 42
3.17498779296875
 43
3.17498779296875
 44
296.989501953125
 45
419.9889831542968
 46
0.0
 47
1.295841228961959
 48
214.3704939521119
 49
367.5855324241177
140
275.6727856380065
141
407.6291914078168
142
1.0
143
1.445089120606129
 70
  3764
 72
     1
 73
     1
 74
     2
  7
monochrome.ctb
 75
     0
147
0.6919988433519999
148
0.0
149
0.0
1001
ACAD_PSEXT
1000
FX DocuWide 2050/2051
1000
FX DocuWide 2050/2051
1000
IP_192.200.15.252
1000

1070
     0
  0
PLOTSETTINGS
  5
BC59
102
{ACAD_XDICTIONARY
360
C824
102
}
102
{ACAD_REACTORS
330
19
102
}
330
19
100
AcDbPlotSettings
  1
02 A3
  2
FX DocuWide 2050/2051
  4
A3
  6

 40
3.174999952316282
 41
3.174999952316282
 42
3.17498779296875
 43
3.17498779296875
 44
296.989501953125
 45
419.9889831542968
 46
-64.68024289608003
 47
-90.18050229549407
 48
214.3704939521119
 49
367.5855324241177
140
275.6727856380065
141
407.6291914078168
142
1.0
143
1.0
 70
  3764
 72
     1
 73
     1
 74
     2
  7
monochrome.ctb
 75
    16
147
1.0
148
0.0
149
0.0
1001
ACAD_PSEXT
1000
FX DocuWide 2050/2051
1000
FX DocuWide 2050/2051
1000
IP_192.200.15.252
1000

1070
     0
  0
PLOTSETTINGS
  5
BC5A
102
{ACAD_XDICTIONARY
360
C826
102
}
102
{ACAD_REACTORS
330
19
102
}
330
19
100
AcDbPlotSettings
  1
03 A2フィット
  2
FX DocuWide 2050/2051
  4
User66
  6

 40
3.174999952316282
 41
3.174999952316282
 42
3.17498779296875
 43
3.17498779296875
 44
419.9889831542968
 45
593.97900390625
 46
0.0
 47
1.312647041252715
 48
214.3704939521119
 49
367.5855324241177
140
275.6727856380065
141
407.6291914078168
142
1.0
143
1.015378155013402
 70
  3764
 72
     1
 73
     1
 74
     2
  7
monochrome.ctb
 75
     0
147
0.9848547509738375
148
0.0
149
0.0
1001
ACAD_PSEXT
1000
FX DocuWide 2050/2051
1000
FX DocuWide 2050/2051
1000
IP_192.200.15.252
1000

1070
     0
  0
PLOTSETTINGS
  5
BC5B
102
{ACAD_XDICTIONARY
360
C828
102
}
102
{ACAD_REACTORS
330
19
102
}
330
19
100
AcDbPlotSettings
  1
04 A2
  2
FX DocuWide 2050/2051
  4
User66
  6

 40
3.174999952316282
 41
3.174999952316282
 42
3.17498779296875
 43
3.17498779296875
 44
419.9889831542968
 45
593.97900390625
 46
-3.180502295494078
 47
-3.185491919517517
 48
214.3704939521119
 49
367.5855324241177
140
275.6727856380065
141
407.6291914078168
142
1.0
143
1.0
 70
  3764
 72
     1
 73
     1
 74
     2
  7
monochrome.ctb
 75
    16
147
1.0
148
0.0
149
0.0
1001
ACAD_PSEXT
1000
FX DocuWide 2050/2051
1000
FX DocuWide 2050/2051
1000
IP_192.200.15.252
1000

1070
     0
  0
PLOTSETTINGS
  5
BC5C
102
{ACAD_XDICTIONARY
360
C82A
102
}
102
{ACAD_REACTORS
330
19
102
}
330
19
100
AcDbPlotSettings
  1
05 A1フィット
  2
FX DocuWide 2050/2051
  4
User139
  6

 40
3.174999952316282
 41
3.174999952316282
 42
3.17498779296875
 43
3.17498779296875
 44
593.97900390625
 45
840.9939575195313
 46
0.0
 47
1.784323459012171
 48
214.3704939521119
 49
367.5855324241177
140
275.6727856380065
141
407.6291914078168
142
1.0
143
0.7147366594384652
 70
  3764
 72
     1
 73
     1
 74
     2
  7
monochrome.ctb
 75
     0
147
1.399116705145154
148
0.0
149
0.0
1001
ACAD_PSEXT
1000
FX DocuWide 2050/2051
1000
FX DocuWide 2050/2051
1000
IP_192.200.15.252
1000

1070
     0
  0
PLOTSETTINGS
  5
BC5D
102
{ACAD_XDICTIONARY
360
C82C
102
}
102
{ACAD_REACTORS
330
19
102
}
330
19
100
AcDbPlotSettings
  1
06 A1
  2
FX DocuWide 2050/2051
  4
User139
  6

 40
3.174999952316282
 41
3.174999952316282
 42
3.17498779296875
 43
3.17498779296875
 44
593.97900390625
 45
840.9939575195313
 46
83.81450808048247
 47
120.3219848871231
 48
214.3704939521119
 49
367.5855324241177
140
275.6727856380065
141
407.6291914078168
142
1.0
143
1.0
 70
  3764
 72
     1
 73
     1
 74
     2
  7
monochrome.ctb
 75
    16
147
1.0
148
0.0
149
0.0
1001
ACAD_PSEXT
1000
FX DocuWide 2050/2051
1000
FX DocuWide 2050/2051
1000
IP_192.200.15.252
1000

1070
     0
  0
PLOTSETTINGS
  5
BC5E
102
{ACAD_XDICTIONARY
360
C82E
102
}
102
{ACAD_REACTORS
330
19
102
}
330
19
100
AcDbPlotSettings
  1
06 A4フィット
  2
FX DocuWide 2050/2051
  4
A4
  6

 40
3.174999952316282
 41
3.174999952316282
 42
3.175003051757812
 43
3.17498779296875
 44
209.9944915771484
 45
296.989501953125
 46
0.0
 47
1.314011612960285
 48
214.3704939521119
 49
367.5855324241177
140
275.6727856380065
141
407.6291914078168
142
1.0
143
2.06241771109504
 70
  3764
 72
     1
 73
     1
 74
     2
  7
monochrome.ctb
 75
     0
147
0.4848678299358913
148
0.0
149
0.0
1001
ACAD_PSEXT
1000
FX DocuWide 2050/2051
1000
FX DocuWide 2050/2051
1000
IP_192.200.15.252
1000

1070
     0
  0
PLOTSETTINGS
  5
BC5F
102
{ACAD_XDICTIONARY
360
C830
102
}
102
{ACAD_REACTORS
330
19
102
}
330
19
100
AcDbPlotSettings
  1
07 A4
  2
FX DocuWide 2050/2051
  4
A4
  6

 40
3.174999952316282
 41
3.174999952316282
 42
3.175003051757812
 43
3.17498779296875
 44
209.9944915771484
 45
296.989501953125
 46
-108.1777557134628
 47
-151.68024289608
 48
214.3704939521119
 49
367.5855324241177
140
275.6727856380065
141
407.6291914078168
142
1.0
143
1.0
 70
  3764
 72
     1
 73
     1
 74
     2
  7
monochrome.ctb
 75
    16
147
1.0
148
0.0
149
0.0
1001
ACAD_PSEXT
1000
FX DocuWide 2050/2051
1000
FX DocuWide 2050/2051
1000
IP_192.200.15.252
1000

1070
     0
  0
ACDBPLACEHOLDER
  5
F
102
{ACAD_REACTORS
330
E
102
}
330
E
  0
TABLESTYLE
  5
AABA
102
{ACAD_XDICTIONARY
360
C820
102
}
102
{ACAD_REACTORS
330
AAB9
102
}
330
AAB9
100
AcDbTableStyle
  3
Standard
 70
     0
 71
     0
 40
1.5
 41
1.5
280
     0
281
     0
  7
STANDARD
140
4.5
170
     2
 62
     0
 63
     7
283
     0
274
    -2
284
     1
 64
     0
275
    -2
285
     1
 65
     0
276
    -2
286
     1
 66
     0
277
    -2
287
     1
 67
     0
278
    -2
288
     1
 68
     0
279
    -2
289
     1
 69
     0
  7
STANDARD
140
6.0
170
     5
 62
     0
 63
     7
283
     0
274
    -2
284
     1
 64
     0
275
    -2
285
     1
 65
     0
276
    -2
286
     1
 66
     0
277
    -2
287
     1
 67
     0
278
    -2
288
     1
 68
     0
279
    -2
289
     1
 69
     0
  7
STANDARD
140
4.5
170
     5
 62
     0
 63
     7
283
     0
274
    -2
284
     1
 64
     0
275
    -2
285
     1
 65
     0
276
    -2
286
     1
 66
     0
277
    -2
287
     1
 67
     0
278
    -2
288
     1
 68
     0
279
    -2
289
     1
 69
     0
  0
VISUALSTYLE
  5
C699
102
{ACAD_REACTORS
330
C693
102
}
330
C693
100
AcDbVisualStyle
  2
2dWireframe
 70
     4
 71
     0
 72
     2
 73
     0
 90
        0
 40
-0.6
 41
-30.0
 62
     5
 63
     7
 74
     1
 91
        4
 64
     7
 65
   257
 75
     1
175
     1
 42
1.0
 92
        0
 66
   257
 43
1.0
 76
     1
 77
     6
 78
     2
 67
     7
 79
     5
170
     0
171
     0
290
     0
174
     0
 93
        1
 44
0.0
173
     0
291
     0
 45
0.0
1001
ACAD
1000
AcDbSavedByObjectVersion
1070
     0
  0
VISUALSTYLE
  5
C69B
102
{ACAD_REACTORS
330
C693
102
}
330
C693
100
AcDbVisualStyle
  2
3D Hidden
 70
     6
 71
     1
 72
     2
 73
     2
 90
        0
 40
-0.6
 41
-30.0
 62
     5
 63
     7
 74
     2
 91
        2
 64
     7
 65
   257
 75
     2
175
     1
 42
40.0
 92
        0
 66
   257
 43
1.0
 76
     1
 77
     6
 78
     2
 67
     7
 79
     3
170
     0
171
     0
290
     0
174
     0
 93
        1
 44
0.0
173
     0
291
     0
 45
0.0
1001
ACAD
1000
AcDbSavedByObjectVersion
1070
     0
  0
VISUALSTYLE
  5
C69A
102
{ACAD_REACTORS
330
C693
102
}
330
C693
100
AcDbVisualStyle
  2
3dWireframe
 70
     5
 71
     0
 72
     2
 73
     0
 90
        0
 40
-0.6
 41
-30.0
 62
     5
 63
     7
 74
     1
 91
        4
 64
     7
 65
   257
 75
     1
175
     1
 42
1.0
 92
        0
 66
   257
 43
1.0
 76
     1
 77
     6
 78
     2
 67
     7
 79
     5
170
     0
171
     0
290
     0
174
     0
 93
        1
 44
0.0
173
     0
291
     0
 45
0.0
1001
ACAD
1000
AcDbSavedByObjectVersion
1070
     0
  0
VISUALSTYLE
  5
C698
102
{ACAD_REACTORS
330
C693
102
}
330
C693
100
AcDbVisualStyle
  2
Basic
 70
     7
 71
     1
 72
     0
 73
     1
 90
        0
 40
-0.6
 41
-30.0
 62
     5
 63
     7
 74
     0
 91
        4
 64
     7
 65
   257
 75
     1
175
     1
 42
1.0
 92
        8
 66
     7
 43
1.0
 76
     1
 77
     6
 78
     2
 67
     7
 79
     5
170
     0
171
     0
290
     0
174
     0
 93
        1
 44
0.0
173
     0
291
     1
 45
0.0
1001
ACAD
1000
AcDbSavedByObjectVersion
1070
     0
  0
VISUALSTYLE
  5
C69F
102
{ACAD_REACTORS
330
C693
102
}
330
C693
100
AcDbVisualStyle
  2
Brighten
 70
    12
 71
     2
 72
     2
 73
     0
 90
        0
 40
-0.6
 41
-30.0
 62
     5
 63
     7
 74
     1
 91
        4
 64
     7
 65
   257
 75
     1
175
     1
 42
1.0
 92
        8
 66
     7
 43
1.0
 76
     1
 77
     6
 78
     2
 67
     7
 79
     5
170
     0
171
     0
290
     0
174
     0
 93
        1
 44
50.0
173
     0
291
     1
 45
0.0
1001
ACAD
1000
AcDbSavedByObjectVersion
1070
     0
  0
VISUALSTYLE
  5
C6A3
102
{ACAD_REACTORS
330
C693
102
}
330
C693
100
AcDbVisualStyle
  2
ColorChange
 70
    16
 71
     2
 72
     2
 73
     3
 90
        0
 40
-0.6
 41
-30.0
 62
     5
 63
     8
 74
     1
 91
        4
 64
     7
 65
   257
 75
     1
175
     1
 42
1.0
 92
        8
 66
     8
 43
1.0
 76
     1
 77
     6
 78
     2
 67
     7
 79
     5
170
     0
171
     0
290
     0
174
     0
 93
        1
 44
0.0
173
     0
291
     1
 45
0.0
1001
ACAD
1000
AcDbSavedByObjectVersion
1070
     0
  0
VISUALSTYLE
  5
C69C
102
{ACAD_REACTORS
330
C693
102
}
330
C693
100
AcDbVisualStyle
  2
Conceptual
 70
     9
 71
     3
 72
     2
 73
     0
 90
        0
 40
-0.6
 41
-30.0
 62
     5
 63
     7
 74
     2
 91
        2
 64
     7
 65
   257
 75
     1
175
     1
 42
40.0
 92
        8
 66
     7
 43
1.0
 76
     1
 77
     6
 78
     2
 67
     7
 79
     3
170
     0
171
     0
290
     0
174
     0
 93
        1
 44
0.0
173
     0
291
     0
 45
0.0
1001
ACAD
1000
AcDbSavedByObjectVersion
1070
     0
  0
VISUALSTYLE
  5
C69E
102
{ACAD_REACTORS
330
C693
102
}
330
C693
100
AcDbVisualStyle
  2
Dim
 70
    11
 71
     2
 72
     2
 73
     0
 90
        0
 40
-0.6
 41
-30.0
 62
     5
 63
     7
 74
     1
 91
        4
 64
     7
 65
   257
 75
     1
175
     1
 42
1.0
 92
        8
 66
     7
 43
1.0
 76
     1
 77
     6
 78
     2
 67
     7
 79
     5
170
     0
171
     0
290
     0
174
     0
 93
        1
 44
-50.0
173
     0
291
     1
 45
0.0
1001
ACAD
1000
AcDbSavedByObjectVersion
1070
     0
  0
VISUALSTYLE
  5
C6A2
102
{ACAD_REACTORS
330
C693
102
}
330
C693
100
AcDbVisualStyle
  2
Facepattern
 70
    15
 71
     2
 72
     2
 73
     0
 90
        0
 40
-0.6
 41
-30.0
 62
     5
 63
     7
 74
     1
 91
        4
 64
     7
 65
   257
 75
     1
175
     1
 42
1.0
 92
        8
 66
     7
 43
1.0
 76
     1
 77
     6
 78
     2
 67
     7
 79
     5
170
     0
171
     0
290
     0
174
     0
 93
        1
 44
0.0
173
     0
291
     1
 45
0.0
1001
ACAD
1000
AcDbSavedByObjectVersion
1070
     0
  0
VISUALSTYLE
  5
C694
102
{ACAD_REACTORS
330
C693
102
}
330
C693
100
AcDbVisualStyle
  2
Flat
 70
     0
 71
     2
 72
     1
 73
     1
 90
        2
 40
-0.6
 41
30.0
 62
     5
 63
     7
 74
     0
 91
        4
 64
     7
 65
   257
 75
     1
175
     1
 42
1.0
 92
        8
 66
     7
 43
1.0
 76
     1
 77
     6
 78
     2
 67
     7
 79
     5
170
     0
171
     0
290
     0
174
     0
 93
       13
 44
0.0
173
     0
291
     1
 45
0.0
1001
ACAD
1000
AcDbSavedByObjectVersion
1070
     0
  0
VISUALSTYLE
  5
C695
102
{ACAD_REACTORS
330
C693
102
}
330
C693
100
AcDbVisualStyle
  2
FlatWithEdges
 70
     1
 71
     2
 72
     1
 73
     1
 90
        2
 40
-0.6
 41
30.0
 62
     5
 63
     7
 74
     1
 91
        4
 64
     7
 65
   257
 75
     1
175
     1
 42
1.0
 92
        0
 66
   257
 43
1.0
 76
     1
 77
     6
 78
     2
 67
     7
 79
     5
170
     0
171
     0
290
     0
174
     0
 93
       13
 44
0.0
173
     0
291
     1
 45
0.0
1001
ACAD
1000
AcDbSavedByObjectVersion
1070
     0
  0
VISUALSTYLE
  5
C696
102
{ACAD_REACTORS
330
C693
102
}
330
C693
100
AcDbVisualStyle
  2
Gouraud
 70
     2
 71
     2
 72
     2
 73
     1
 90
        2
 40
-0.6
 41
30.0
 62
     5
 63
     7
 74
     0
 91
        4
 64
     7
 65
   257
 75
     1
175
     1
 42
1.0
 92
        0
 66
     7
 43
1.0
 76
     1
 77
     6
 78
     2
 67
     7
 79
     5
170
     0
171
     0
290
     0
174
     0
 93
       13
 44
0.0
173
     0
291
     1
 45
0.0
1001
ACAD
1000
AcDbSavedByObjectVersion
1070
     0
  0
VISUALSTYLE
  5
C697
102
{ACAD_REACTORS
330
C693
102
}
330
C693
100
AcDbVisualStyle
  2
GouraudWithEdges
 70
     3
 71
     2
 72
     2
 73
     1
 90
        2
 40
-0.6
 41
30.0
 62
     5
 63
     7
 74
     1
 91
        4
 64
     7
 65
   257
 75
     1
175
     1
 42
1.0
 92
        0
 66
   257
 43
1.0
 76
     1
 77
     6
 78
     2
 67
     7
 79
     5
170
     0
171
     0
290
     0
174
     0
 93
       13
 44
0.0
173
     0
291
     1
 45
0.0
1001
ACAD
1000
AcDbSavedByObjectVersion
1070
     0
  0
VISUALSTYLE
  5
C6A1
102
{ACAD_REACTORS
330
C693
102
}
330
C693
100
AcDbVisualStyle
  2
Linepattern
 70
    14
 71
     2
 72
     2
 73
     0
 90
        0
 40
-0.6
 41
-30.0
 62
     5
 63
     7
 74
     1
 91
        4
 64
     7
 65
   257
 75
     7
175
     7
 42
1.0
 92
        8
 66
     7
 43
1.0
 76
     1
 77
     6
 78
     2
 67
     7
 79
     5
170
     0
171
     0
290
     0
174
     0
 93
        1
 44
0.0
173
     0
291
     1
 45
0.0
1001
ACAD
1000
AcDbSavedByObjectVersion
1070
     0
  0
VISUALSTYLE
  5
C69D
102
{ACAD_REACTORS
330
C693
102
}
330
C693
100
AcDbVisualStyle
  2
Realistic
 70
     8
 71
     2
 72
     2
 73
     0
 90
        0
 40
-0.6
 41
-30.0
 62
     5
 63
     7
 74
     1
 91
        0
 64
     7
 65
   257
 75
     1
175
     1
 42
1.0
 92
        8
 66
     8
 43
1.0
 76
     1
 77
     6
 78
     2
 67
     7
 79
     5
170
     0
171
     0
290
     0
174
     0
 93
       13
 44
0.0
173
     0
291
     0
 45
0.0
1001
ACAD
1000
AcDbSavedByObjectVersion
1070
     0
  0
VISUALSTYLE
  5
C6A0
102
{ACAD_REACTORS
330
C693
102
}
330
C693
100
AcDbVisualStyle
  2
Thicken
 70
    13
 71
     2
 72
     2
 73
     0
 90
        0
 40
-0.6
 41
-30.0
 62
     5
 63
     7
 74
     1
 91
        4
 64
     7
 65
   257
 75
     1
175
     1
 42
1.0
 92
       12
 66
     7
 43
1.0
 76
     1
 77
     6
 78
     2
 67
     7
 79
     5
170
     0
171
     0
290
     0
174
     0
 93
        1
 44
0.0
173
     0
291
     1
 45
0.0
1001
ACAD
1000
AcDbSavedByObjectVersion
1070
     0
  0
DICTIONARYVAR
  5
AAF3
102
{ACAD_REACTORS
330
34
102
}
330
34
100
DictionaryVariables
280
     0
  1
STANDARD
  0
DICTIONARYVAR
  5
A10C
102
{ACAD_REACTORS
330
34
102
}
330
34
100
DictionaryVariables
280
     0
  1
2
  0
DICTIONARYVAR
  5
AB07
102
{ACAD_REACTORS
330
34
102
}
330
34
100
DictionaryVariables
280
     0
  1
4
  0
DICTIONARYVAR
  5
35
102
{ACAD_REACTORS
330
34
102
}
330
34
100
DictionaryVariables
280
     0
  1
0
  0
DICTIONARYVAR
  5
C672
102
{ACAD_REACTORS
330
34
102
}
330
34
100
DictionaryVariables
280
     0
  1

  0
DICTIONARYVAR
  5
194C
102
{ACAD_REACTORS
330
34
102
}
330
34
100
DictionaryVariables
280
     0
  1
96
  0
DICTIONARY
  5
7E8
102
{ACAD_REACTORS
330
47
102
}
330
47
100
AcDbDictionary
281
     1
  0
DICTIONARY
  5
4C
102
{ACAD_REACTORS
330
47
102
}
330
47
100
AcDbDictionary
281
     1
  0
XRECORD
  5
A929
102
{ACAD_REACTORS
330
47
102
}
330
47
100
AcDbXrecord
280
     1
 90
-1023410169
  0
XRECORD
  5
9F49
102
{ACAD_REACTORS
330
9F48
102
}
330
9F48
100
AcDbXrecord
280
     1
330
0
330
0
330
0
330
0
330
0
330
0
330
0
330
0
  0
XRECORD
  5
3FB7
102
{ACAD_REACTORS
330
3F96
102
}
330
3F96
100
AcDbXrecord
280
     1
 91
        3
330
0
 90
        8
 62
     7
370
    40
331
16
  1
Color_7
330
0
 90
        0
 62
    14
370
    -3
331
16
  1
Color_14
330
0
 90
        8
 62
     7
370
    20
331
16
  1
Color_7
330
6D1
 90
        0
 62
     7
370
    -3
331
16
  1
Color_7
330
0
 90
        8
 62
     7
370
    50
331
16
  1
Color_7
330
0
 90
        8
 62
     2
370
    35
331
16
  1
Color_2
330
0
 90
        8
 62
     7
370
    -3
331
16
  1
Color_7
330
10
 90
        8
 62
     7
370
    -3
331
16
  1
Color_7
  0
DICTIONARY
  5
C81C
330
22
100
AcDbDictionary
280
     1
281
     1
  3
ACAD_XREC_ROUNDTRIP
360
C81D
  0
DICTIONARY
  5
C81A
330
1E
100
AcDbDictionary
280
     1
281
     1
  3
ACAD_XREC_ROUNDTRIP
360
C81B
  0
DICTIONARY
  5
C81E
330
26
100
AcDbDictionary
280
     1
281
     1
  3
ACAD_XREC_ROUNDTRIP
360
C81F
  0
DICTIONARY
  5
C763
330
C691
100
AcDbDictionary
280
     1
281
     1
  3
ACAD_XREC_ROUNDTRIP
360
C764
  0
DICTIONARY
  5
C761
330
C690
100
AcDbDictionary
280
     1
281
     1
  3
ACAD_XREC_ROUNDTRIP
360
C762
  0
DICTIONARY
  5
C765
330
C692
100
AcDbDictionary
280
     1
281
     1
  3
ACAD_XREC_ROUNDTRIP
360
C766
  0
DICTIONARY
  5
C822
330
BC58
100
AcDbDictionary
280
     1
281
     1
  3
ACAD_XREC_ROUNDTRIP
360
C823
  0
DICTIONARY
  5
C824
330
BC59
100
AcDbDictionary
280
     1
281
     1
  3
ACAD_XREC_ROUNDTRIP
360
C825
  0
DICTIONARY
  5
C826
330
BC5A
100
AcDbDictionary
280
     1
281
     1
  3
ACAD_XREC_ROUNDTRIP
360
C827
  0
DICTIONARY
  5
C828
330
BC5B
100
AcDbDictionary
280
     1
281
     1
  3
ACAD_XREC_ROUNDTRIP
360
C829
  0
DICTIONARY
  5
C82A
330
BC5C
100
AcDbDictionary
280
     1
281
     1
  3
ACAD_XREC_ROUNDTRIP
360
C82B
  0
DICTIONARY
  5
C82C
330
BC5D
100
AcDbDictionary
280
     1
281
     1
  3
ACAD_XREC_ROUNDTRIP
360
C82D
  0
DICTIONARY
  5
C82E
330
BC5E
100
AcDbDictionary
280
     1
281
     1
  3
ACAD_XREC_ROUNDTRIP
360
C82F
  0
DICTIONARY
  5
C830
330
BC5F
100
AcDbDictionary
280
     1
281
     1
  3
ACAD_XREC_ROUNDTRIP
360
C831
  0
DICTIONARY
  5
C820
330
AABA
100
AcDbDictionary
280
     1
281
     1
  3
ACAD_XREC_ROUNDTRIP
360
C821
  0
XRECORD
  5
C81D
102
{ACAD_REACTORS
330
C81C
102
}
330
C81C
100
AcDbXrecord
280
     1
102
SHADEPLOT
 70
     0
102
SHADEPLOTRESLEVEL
 70
     2
102
SHADEPLOTCUSTOMDPI
 70
   200
  0
XRECORD
  5
C81B
102
{ACAD_REACTORS
330
C81A
102
}
330
C81A
100
AcDbXrecord
280
     1
102
SHADEPLOT
 70
     0
102
SHADEPLOTRESLEVEL
 70
     2
102
SHADEPLOTCUSTOMDPI
 70
   300
  0
XRECORD
  5
C81F
102
{ACAD_REACTORS
330
C81E
102
}
330
C81E
100
AcDbXrecord
280
     1
102
SHADEPLOT
 70
     0
102
SHADEPLOTRESLEVEL
 70
     2
102
SHADEPLOTCUSTOMDPI
 70
   300
  0
XRECORD
  5
C764
102
{ACAD_REACTORS
330
C763
102
}
330
C763
100
AcDbXrecord
280
     1
102
MATERIAL
148
0.0
149
0.0
149
0.0
 93
        0
 94
       63
282
     0
 72
     1
 77
     1
171
     1
175
     1
179
     1
273
     0
  0
XRECORD
  5
C762
102
{ACAD_REACTORS
330
C761
102
}
330
C761
100
AcDbXrecord
280
     1
102
MATERIAL
148
0.0
149
0.0
149
0.0
 93
        0
 94
       63
282
     0
 72
     1
 77
     1
171
     1
175
     1
179
     1
273
     0
  0
XRECORD
  5
C766
102
{ACAD_REACTORS
330
C765
102
}
330
C765
100
AcDbXrecord
280
     1
102
MATERIAL
148
0.0
149
0.0
149
0.0
 93
        0
 94
       63
282
     0
 72
     1
 77
     1
171
     1
175
     1
179
     1
273
     0
  0
XRECORD
  5
C823
102
{ACAD_REACTORS
330
C822
102
}
330
C822
100
AcDbXrecord
280
     1
102
SHADEPLOT
 70
     0
102
SHADEPLOTRESLEVEL
 70
     2
102
SHADEPLOTCUSTOMDPI
 70
   200
  0
XRECORD
  5
C825
102
{ACAD_REACTORS
330
C824
102
}
330
C824
100
AcDbXrecord
280
     1
102
SHADEPLOT
 70
     0
102
SHADEPLOTRESLEVEL
 70
     2
102
SHADEPLOTCUSTOMDPI
 70
   200
  0
XRECORD
  5
C827
102
{ACAD_REACTORS
330
C826
102
}
330
C826
100
AcDbXrecord
280
     1
102
SHADEPLOT
 70
     0
102
SHADEPLOTRESLEVEL
 70
     2
102
SHADEPLOTCUSTOMDPI
 70
   200
  0
XRECORD
  5
C829
102
{ACAD_REACTORS
330
C828
102
}
330
C828
100
AcDbXrecord
280
     1
102
SHADEPLOT
 70
     0
102
SHADEPLOTRESLEVEL
 70
     2
102
SHADEPLOTCUSTOMDPI
 70
   200
  0
XRECORD
  5
C82B
102
{ACAD_REACTORS
330
C82A
102
}
330
C82A
100
AcDbXrecord
280
     1
102
SHADEPLOT
 70
     0
102
SHADEPLOTRESLEVEL
 70
     2
102
SHADEPLOTCUSTOMDPI
 70
   200
  0
XRECORD
  5
C82D
102
{ACAD_REACTORS
330
C82C
102
}
330
C82C
100
AcDbXrecord
280
     1
102
SHADEPLOT
 70
     0
102
SHADEPLOTRESLEVEL
 70
     2
102
SHADEPLOTCUSTOMDPI
 70
   200
  0
XRECORD
  5
C82F
102
{ACAD_REACTORS
330
C82E
102
}
330
C82E
100
AcDbXrecord
280
     1
102
SHADEPLOT
 70
     0
102
SHADEPLOTRESLEVEL
 70
     2
102
SHADEPLOTCUSTOMDPI
 70
   200
  0
XRECORD
  5
C831
102
{ACAD_REACTORS
330
C830
102
}
330
C830
100
AcDbXrecord
280
     1
102
SHADEPLOT
 70
     0
102
SHADEPLOTRESLEVEL
 70
     2
102
SHADEPLOTCUSTOMDPI
 70
   200
  0
XRECORD
  5
C821
102
{ACAD_REACTORS
330
C820
102
}
330
C820
100
AcDbXrecord
280
     1
102
ACAD_ROUNDTRIP_PRE2007_TABLESTYLE
 90
        4
 91
        0
  1

 92
        4
 93
        0
  2

 94
        4
 95
        0
  3

  0
ENDSEC
  0
EOF
