  0
SECTION
  2
HEADER
  9
$EXTMAX
 10
170
 20
173
 30
0
  9
$EXTMIN
 10
-211
 20
-100
 30
0
  9
$LIMMAX
 10
170
 20
173
  9
$LIMMIN
 10
-211
 20
-100
  9
$PLIMMAX
 10
170
 20
173
  9
$PLIMMIN
 10
-211
 20
-100
  9
$TEXTSIZE
 40
3.2
  9
$DIMSHO
 70
     0
  9
$DIMASZ
 40
1.0
  9
$DIMTAD
 70
     1
  9
$DIMTIH
 70
     0
  9
$DIMTOH
 70
     0
  9
$DIMEXE
 40
2.54
  9
$DIMEXO
 40
2.54
  9
$DIMTVP
 40
1.0
  9
$DIMSAH
 70
     1
  9
$DIMDLE
 40
0.0
  9
$DIMTXT
 40
3.2
  9
$DIMGAP
 40
1.6
  0
ENDSEC
  0
SECTION
  2
TABLES
  0
TABLE
  2
LTYPE
 70
     6
  0
LTYPE
  2
CONTINUOUS
 70
    64
  3
Solid line
 72
    65
 73
     0
 40
0.0
  0
LTYPE
  2
DASHED
 70
    64
  3
__ __ __ __ __ __ __ __ __ __ __ __ __ __ __
 72
    65
 73
     2
 40
3.5
 49
2.0
 49
-1.5
  0
LTYPE
  2
CENTER
 70
    64
  3
____ _ ____ _ ____ _ ____ _ ____ _ ____ _ ____
 72
    65
 73
     4
 40
17.5
 49
13.0
 49
-1.5
 49
1.5
 49
-1.5
  0
LTYPE
  2
PHANTOM
 70
    64
  3
_____ _ _ _____ _ _ _____ _ _ _____ _ _ ____  
 72
    65
 73
     6
 40
15.5
 49
8.0
 49
-1.5
 49
1.5
 49
-1.5
 49
1.5
 49
-1.5
  0
LTYPE
  2
DOT
 70
    64
  3
. . . . . . . . . . . . . . . . . . . . . . . .
 72
    65
 73
     2
 40
0.25
 49
0.0
 49
-0.25
  0
LTYPE
  2
HIDDEN
 70
    64
  3
__ __ __ __ __ __ __ __ __ __ __ __ __ __ __
 72
    65
 73
     2
 40
3.5
 49
2.0
 49
-1.5
  0
ENDTAB
  0
TABLE
  2
LAYER
 70
     4
  0
LAYER
  2
0
 70
     0
 62
     7
  6
CONTINUOUS
  0
LAYER
  2
1
 70
     0
 62
     7
  6
CONTINUOUS
  0
LAYER
  2
2
 70
     0
 62
     7
  6
CONTINUOUS
  0
LAYER
  2
DEFPOINTS
 70
     0
 62
     7
  6
CONTINUOUS
  0
ENDTAB
  0
TABLE
  2
STYLE
 70
     1
  0
STYLE
  2
STANDARD
 70
     0
 40
0.0
 41
1.0
 50
0.0
 71
     0
 42
0.2
  3
txt
  4
BIGFONT
  0
ENDTAB
  0
TABLE
  2
DIMSTYLE
 70
     1
  0
DIMSTYLE
  2
DIMSTYLE
 70
     0
  3

  4

  5
_DOT
  6
_DOT
  7
_DOT
 40
1
 41
1
 42
2.54
 43
0.38
 44
2.54
 45
0
 46
0
 47
0
 48
0
140
3.2
141
0.09
142
0
143
25.4
144
1
145
0
146
1
147
1.6
 71
     0
 72
     0
 73
     0
 74
     0
 75
     0
 76
     0
 78
     0
170
     0
171
     2
 77
     0
172
     0
173
     1
174
     0
175
     0
176
     0
177
     0
178
     0
  0
ENDTAB
  0
ENDSEC
  0
SECTION
  2
BLOCKS
  0
BLOCK
  8
0
  2
_DOT
 70
    64
 10
0
 20
0
  3
_DOT
  0
POLYLINE
  8
0
  6
BYBLOCK
 62
     0
 66
     1
 10
0
 20
0
 70
     1
 40
0.40000001
 41
0.40000001
  0
VERTEX
  8
0
  6
BYBLOCK
 62
     0
 10
-0.2
 20
0
 42
1
  0
VERTEX
  8
0
  6
BYBLOCK
 62
     0
 10
0.2
 20
0
 42
1
  0
SEQEND
  8
0
  6
BYBLOCK
 62
     0
  0
LINE
  8
0
  6
BYBLOCK
 62
     0
 10
-0.40000001
 20
0
 11
-3
 21
0
  0
ENDBLK
  8
0
  0
BLOCK
  8
0
  2
_NONE
 70
    64
 10
0
 20
0
  3
_NONE
  0
CIRCLE
  8
0
  6
BYBLOCK
 62
     0
 10
0
 20
0
 40
0.001
  0
ENDBLK
  8
0
  0
BLOCK
  8
0
  2
*D1
 70
    65
 10
0
 20
0
  0
LINE
  8
0
  6
CONTINUOUS
 62
     7
 10
-166.65948
 20
-89.536873
 11
-178.04303
 21
-89.536873
  0
LINE
  8
0
  6
CONTINUOUS
 62
     7
 10
-166.65948
 20
-89.536873
 11
-165.15948
 21
-89.536873
  0
INSERT
  8
0
  6
CONTINUOUS
 62
     7
  2
_DOT
 10
-166.65948
 20
-89.536873
 50
180
  0
INSERT
  8
0
  6
CONTINUOUS
 62
     7
  2
_DOT
 10
-165.15948
 20
-89.536873
  0
LINE
  8
0
  6
CONTINUOUS
 62
     7
 10
-166.65948
 20
-79.576873
 11
-166.65948
 21
-90.73687
  0
LINE
  8
0
  6
CONTINUOUS
 62
     7
 10
-165.15948
 20
-69.076873
 11
-165.15948
 21
-90.73687
  0
TEXT
  8
0
  6
CONTINUOUS
 62
     7
 10
-178.04303
 20
-88.736873
 40
3.2
 41
1.628625
  1
1.5
  0
POINT
  8
DEFPOINTS
  6
CONTINUOUS
 62
     7
 10
-166.65948
 20
-77.036873
  0
POINT
  8
DEFPOINTS
  6
CONTINUOUS
 62
     7
 10
-165.15948
 20
-66.536873
  0
POINT
  8
DEFPOINTS
  6
CONTINUOUS
 62
     7
 10
-165.15948
 20
-89.536873
  0
ENDBLK
  8
0
  0
BLOCK
  8
0
  2
*D2
 70
    65
 10
0
 20
0
  0
LINE
  8
0
  6
CONTINUOUS
 62
     7
 10
-165.15948
 20
-89.536873
 11
-139.15948
 21
-89.536873
  0
INSERT
  8
0
  6
CONTINUOUS
 62
     7
  2
_DOT
 10
-165.15948
 20
-89.536873
 50
180
  0
INSERT
  8
0
  6
CONTINUOUS
 62
     7
  2
_DOT
 10
-139.15948
 20
-89.536873
  0
LINE
  8
0
  6
CONTINUOUS
 62
     7
 10
-139.15948
 20
-64.876872
 11
-139.15948
 21
-90.73687
  0
TEXT
  8
0
  6
CONTINUOUS
 62
     7
 10
-159.70248
 20
-88.736873
 40
3.2
 41
0.84892707
  1
２６～４０
  0
POINT
  8
DEFPOINTS
  6
CONTINUOUS
 62
     7
 10
-165.15948
 20
-66.536873
  0
POINT
  8
DEFPOINTS
  6
CONTINUOUS
 62
     7
 10
-139.15948
 20
-62.336872
  0
POINT
  8
DEFPOINTS
  6
CONTINUOUS
 62
     7
 10
-139.15948
 20
-89.536873
  0
ENDBLK
  8
0
  0
BLOCK
  8
0
  2
*D3
 70
    65
 10
0
 20
0
  0
LINE
  8
0
  6
CONTINUOUS
 62
     7
 10
-137.85948
 20
-89.536873
 11
-128.29741
 21
-89.536873
  0
LINE
  8
0
  6
CONTINUOUS
 62
     7
 10
-139.15948
 20
-89.536873
 11
-137.85948
 21
-89.536873
  0
INSERT
  8
0
  6
CONTINUOUS
 62
     7
  2
_DOT
 10
-139.15948
 20
-89.536873
 50
180
  0
INSERT
  8
0
  6
CONTINUOUS
 62
     7
  2
_DOT
 10
-137.85948
 20
-89.536873
  0
LINE
  8
0
  6
CONTINUOUS
 62
     7
 10
-137.85948
 20
-79.876876
 11
-137.85948
 21
-90.73687
  0
TEXT
  8
0
  6
CONTINUOUS
 62
     7
 10
-136.98341
 20
-88.736873
 40
3.2
 41
1.628625
  1
1.5
  0
POINT
  8
DEFPOINTS
  6
CONTINUOUS
 62
     7
 10
-139.15948
 20
-62.336872
  0
POINT
  8
DEFPOINTS
  6
CONTINUOUS
 62
     7
 10
-137.85948
 20
-77.336876
  0
POINT
  8
DEFPOINTS
  6
CONTINUOUS
 62
     7
 10
-137.85948
 20
-89.536873
  0
ENDBLK
  8
0
  0
BLOCK
  8
0
  2
*D4
 70
    65
 10
0
 20
0
  0
LINE
  8
0
  6
CONTINUOUS
 62
     7
 10
-108.35948
 20
-89.536873
 11
-119.91692
 21
-89.536873
  0
LINE
  8
0
  6
CONTINUOUS
 62
     7
 10
-108.35948
 20
-89.536873
 11
-105.15948
 21
-89.536873
  0
INSERT
  8
0
  6
CONTINUOUS
 62
     7
  2
_DOT
 10
-108.35948
 20
-89.536873
 50
180
  0
INSERT
  8
0
  6
CONTINUOUS
 62
     7
  2
_DOT
 10
-105.15948
 20
-89.536873
  0
LINE
  8
0
  6
CONTINUOUS
 62
     7
 10
-108.35948
 20
-75.938216
 11
-108.35948
 21
-90.73687
  0
LINE
  8
0
  6
CONTINUOUS
 62
     7
 10
-105.15948
 20
-59.376872
 11
-105.15948
 21
-90.73687
  0
TEXT
  8
0
  6
CONTINUOUS
 62
     7
 10
-119.91691
 20
-88.736873
 40
3.2
 41
1.3571875
  1
3.2
  0
POINT
  8
DEFPOINTS
  6
CONTINUOUS
 62
     7
 10
-108.35948
 20
-73.398216
  0
POINT
  8
DEFPOINTS
  6
CONTINUOUS
 62
     7
 10
-105.15948
 20
-56.836872
  0
POINT
  8
DEFPOINTS
  6
CONTINUOUS
 62
     7
 10
-105.15948
 20
-89.536873
  0
ENDBLK
  8
0
  0
BLOCK
  8
0
  2
*D5
 70
    65
 10
0
 20
0
  0
LINE
  8
0
  6
CONTINUOUS
 62
     7
 10
-105.15948
 20
-89.536873
 11
-79.159485
 21
-89.536873
  0
INSERT
  8
0
  6
CONTINUOUS
 62
     7
  2
_DOT
 10
-105.15948
 20
-89.536873
 50
180
  0
INSERT
  8
0
  6
CONTINUOUS
 62
     7
  2
_DOT
 10
-79.159485
 20
-89.536873
  0
LINE
  8
0
  6
CONTINUOUS
 62
     7
 10
-79.159485
 20
-64.876872
 11
-79.159485
 21
-90.73687
  0
TEXT
  8
0
  6
CONTINUOUS
 62
     7
 10
-99.702485
 20
-88.736873
 40
3.2
 41
0.84892707
  1
２６～４０
  0
POINT
  8
DEFPOINTS
  6
CONTINUOUS
 62
     7
 10
-105.15948
 20
-56.836872
  0
POINT
  8
DEFPOINTS
  6
CONTINUOUS
 62
     7
 10
-79.159485
 20
-62.336872
  0
POINT
  8
DEFPOINTS
  6
CONTINUOUS
 62
     7
 10
-79.159485
 20
-89.536873
  0
ENDBLK
  8
0
  0
BLOCK
  8
0
  2
*D6
 70
    65
 10
0
 20
0
  0
LINE
  8
0
  6
CONTINUOUS
 62
     7
 10
-77.859482
 20
-89.536873
 11
-67.782318
 21
-89.536873
  0
LINE
  8
0
  6
CONTINUOUS
 62
     7
 10
-79.159485
 20
-89.536873
 11
-77.859482
 21
-89.536873
  0
INSERT
  8
0
  6
CONTINUOUS
 62
     7
  2
_DOT
 10
-79.159485
 20
-89.536873
 50
180
  0
INSERT
  8
0
  6
CONTINUOUS
 62
     7
  2
_DOT
 10
-77.859482
 20
-89.536873
  0
LINE
  8
0
  6
CONTINUOUS
 62
     7
 10
-77.859482
 20
-79.876876
 11
-77.859482
 21
-90.73687
  0
TEXT
  8
0
  6
CONTINUOUS
 62
     7
 10
-76.468313
 20
-88.736873
 40
3.2
 41
1.628625
  1
1.5
  0
POINT
  8
DEFPOINTS
  6
CONTINUOUS
 62
     7
 10
-79.159485
 20
-62.336872
  0
POINT
  8
DEFPOINTS
  6
CONTINUOUS
 62
     7
 10
-77.859482
 20
-77.336876
  0
POINT
  8
DEFPOINTS
  6
CONTINUOUS
 62
     7
 10
-77.859482
 20
-89.536873
  0
ENDBLK
  8
0
  0
BLOCK
  8
0
  2
*D7
 70
    65
 10
0
 20
0
  0
LINE
  8
0
  6
CONTINUOUS
 62
     7
 10
-17.81407
 20
82.913521
 11
152.18593
 21
82.913521
  0
INSERT
  8
0
  6
CONTINUOUS
 62
     7
  2
_DOT
 10
-17.81407
 20
82.913521
 50
180
  0
INSERT
  8
0
  6
CONTINUOUS
 62
     7
  2
_DOT
 10
152.18593
 20
82.913521
  0
LINE
  8
0
  6
CONTINUOUS
 62
     7
 10
-17.81407
 20
65.453521
 11
-17.81407
 21
84.113518
  0
LINE
  8
0
  6
CONTINUOUS
 62
     7
 10
152.18593
 20
65.453521
 11
152.18593
 21
84.113518
  0
TEXT
  8
0
  6
CONTINUOUS
 62
     7
 10
61.242928
 20
83.713521
 40
3.2
 41
0.85127005
  1
ガラリＷ
  0
POINT
  8
DEFPOINTS
  6
CONTINUOUS
 62
     7
 10
-17.81407
 20
62.913521
  0
POINT
  8
DEFPOINTS
  6
CONTINUOUS
 62
     7
 10
152.18593
 20
62.913521
  0
POINT
  8
DEFPOINTS
  6
CONTINUOUS
 62
     7
 10
152.18593
 20
82.913521
  0
ENDBLK
  8
0
  0
BLOCK
  8
0
  2
*D8
 70
    65
 10
0
 20
0
  0
LINE
  8
0
  6
CONTINUOUS
 62
     7
 10
-17.81407
 20
72.913521
 11
8.1859293
 21
72.913521
  0
INSERT
  8
0
  6
CONTINUOUS
 62
     7
  2
_DOT
 10
-17.81407
 20
72.913521
 50
180
  0
INSERT
  8
0
  6
CONTINUOUS
 62
     7
  2
_DOT
 10
8.1859293
 20
72.913521
  0
LINE
  8
0
  6
CONTINUOUS
 62
     7
 10
-17.81407
 20
65.453521
 11
-17.81407
 21
74.113518
  0
LINE
  8
0
  6
CONTINUOUS
 62
     7
 10
8.1859293
 20
39.453521
 11
8.1859293
 21
74.113518
  0
TEXT
  8
0
  6
CONTINUOUS
 62
     7
 10
-7.5570702
 20
73.713521
 40
3.2
 41
1.028625
  1
26
  0
POINT
  8
DEFPOINTS
  6
CONTINUOUS
 62
     7
 10
-17.81407
 20
62.913521
  0
POINT
  8
DEFPOINTS
  6
CONTINUOUS
 62
     7
 10
8.1859293
 20
36.913521
  0
POINT
  8
DEFPOINTS
  6
CONTINUOUS
 62
     7
 10
8.1859293
 20
72.913521
  0
ENDBLK
  8
0
  0
BLOCK
  8
0
  2
*D9
 70
    65
 10
0
 20
0
  0
LINE
  8
0
  6
CONTINUOUS
 62
     7
 10
8.1859293
 20
72.913521
 11
126.18593
 21
72.913521
  0
INSERT
  8
0
  6
CONTINUOUS
 62
     7
  2
_DOT
 10
8.1859293
 20
72.913521
 50
180
  0
INSERT
  8
0
  6
CONTINUOUS
 62
     7
  2
_DOT
 10
126.18593
 20
72.913521
  0
LINE
  8
0
  6
CONTINUOUS
 62
     7
 10
126.18593
 20
39.453521
 11
126.18593
 21
74.113518
  0
TEXT
  8
0
  6
CONTINUOUS
 62
     7
 10
62.842928
 20
73.713521
 40
3.2
 41
0.85537027
  1
開口Ｗ
  0
POINT
  8
DEFPOINTS
  6
CONTINUOUS
 62
     7
 10
8.1859293
 20
36.913521
  0
POINT
  8
DEFPOINTS
  6
CONTINUOUS
 62
     7
 10
126.18593
 20
36.913521
  0
POINT
  8
DEFPOINTS
  6
CONTINUOUS
 62
     7
 10
126.18593
 20
72.913521
  0
ENDBLK
  8
0
  0
BLOCK
  8
0
  2
*D10
 70
    65
 10
0
 20
0
  0
LINE
  8
0
  6
CONTINUOUS
 62
     7
 10
126.18593
 20
72.913521
 11
152.18593
 21
72.913521
  0
INSERT
  8
0
  6
CONTINUOUS
 62
     7
  2
_DOT
 10
126.18593
 20
72.913521
 50
180
  0
INSERT
  8
0
  6
CONTINUOUS
 62
     7
  2
_DOT
 10
152.18593
 20
72.913521
  0
LINE
  8
0
  6
CONTINUOUS
 62
     7
 10
152.18593
 20
65.453521
 11
152.18593
 21
74.113518
  0
TEXT
  8
0
  6
CONTINUOUS
 62
     7
 10
136.44293
 20
73.713521
 40
3.2
 41
1.028625
  1
26
  0
POINT
  8
DEFPOINTS
  6
CONTINUOUS
 62
     7
 10
126.18593
 20
36.913521
  0
POINT
  8
DEFPOINTS
  6
CONTINUOUS
 62
     7
 10
152.18593
 20
62.913521
  0
POINT
  8
DEFPOINTS
  6
CONTINUOUS
 62
     7
 10
152.18593
 20
72.913521
  0
ENDBLK
  8
0
  0
BLOCK
  8
0
  2
*D11
 70
    65
 10
0
 20
0
  0
LINE
  8
0
  6
CONTINUOUS
 62
     7
 10
-37.814072
 20
62.913521
 11
-37.814072
 21
-79.536873
  0
INSERT
  8
0
  6
CONTINUOUS
 62
     7
  2
_DOT
 10
-37.814072
 20
62.913521
 50
90
  0
INSERT
  8
0
  6
CONTINUOUS
 62
     7
  2
_DOT
 10
-37.814072
 20
-79.536873
 50
270
  0
LINE
  8
0
  6
CONTINUOUS
 62
     7
 10
-20.35407
 20
62.913521
 11
-39.014069
 21
62.913521
  0
LINE
  8
0
  6
CONTINUOUS
 62
     7
 10
-20.35407
 20
-79.536873
 11
-39.014069
 21
-79.536873
  0
TEXT
  8
0
  6
CONTINUOUS
 62
     7
 10
-38.614071
 20
-14.254677
 40
3.2
 41
0.85127005
  1
ガラリＨ
 50
90.000003
  0
POINT
  8
DEFPOINTS
  6
CONTINUOUS
 62
     7
 10
-17.81407
 20
62.913521
  0
POINT
  8
DEFPOINTS
  6
CONTINUOUS
 62
     7
 10
-17.81407
 20
-79.536873
  0
POINT
  8
DEFPOINTS
  6
CONTINUOUS
 62
     7
 10
-37.814072
 20
-79.536873
  0
ENDBLK
  8
0
  0
BLOCK
  8
0
  2
*D12
 70
    65
 10
0
 20
0
  0
LINE
  8
0
  6
CONTINUOUS
 62
     7
 10
-27.81407
 20
62.913521
 11
-27.81407
 21
36.913521
  0
INSERT
  8
0
  6
CONTINUOUS
 62
     7
  2
_DOT
 10
-27.81407
 20
62.913521
 50
90
  0
INSERT
  8
0
  6
CONTINUOUS
 62
     7
  2
_DOT
 10
-27.81407
 20
36.913521
 50
270
  0
LINE
  8
0
  6
CONTINUOUS
 62
     7
 10
-20.35407
 20
62.913521
 11
-29.014071
 21
62.913521
  0
LINE
  8
0
  6
CONTINUOUS
 62
     7
 10
5.6459294
 20
36.913521
 11
-29.014071
 21
36.913521
  0
TEXT
  8
0
  6
CONTINUOUS
 62
     7
 10
-28.61407
 20
47.170521
 40
3.2
 41
1.028625
  1
26
 50
90.000003
  0
POINT
  8
DEFPOINTS
  6
CONTINUOUS
 62
     7
 10
-17.81407
 20
62.913521
  0
POINT
  8
DEFPOINTS
  6
CONTINUOUS
 62
     7
 10
8.1859293
 20
36.913521
  0
POINT
  8
DEFPOINTS
  6
CONTINUOUS
 62
     7
 10
-27.81407
 20
36.913521
  0
ENDBLK
  8
0
  0
BLOCK
  8
0
  2
*D13
 70
    65
 10
0
 20
0
  0
LINE
  8
0
  6
CONTINUOUS
 62
     7
 10
-27.81407
 20
36.913521
 11
-27.81407
 21
-53.536873
  0
INSERT
  8
0
  6
CONTINUOUS
 62
     7
  2
_DOT
 10
-27.81407
 20
36.913521
 50
90
  0
INSERT
  8
0
  6
CONTINUOUS
 62
     7
  2
_DOT
 10
-27.81407
 20
-53.536873
 50
270
  0
LINE
  8
0
  6
CONTINUOUS
 62
     7
 10
5.6459294
 20
-53.536873
 11
-29.014071
 21
-53.536873
  0
TEXT
  8
0
  6
CONTINUOUS
 62
     7
 10
-28.61407
 20
-12.654677
 40
3.2
 41
0.85537027
  1
開口Ｈ
 50
90.000003
  0
POINT
  8
DEFPOINTS
  6
CONTINUOUS
 62
     7
 10
8.1859293
 20
36.913521
  0
POINT
  8
DEFPOINTS
  6
CONTINUOUS
 62
     7
 10
8.1859293
 20
-53.536873
  0
POINT
  8
DEFPOINTS
  6
CONTINUOUS
 62
     7
 10
-27.81407
 20
-53.536873
  0
ENDBLK
  8
0
  0
BLOCK
  8
0
  2
*D14
 70
    65
 10
0
 20
0
  0
LINE
  8
0
  6
CONTINUOUS
 62
     7
 10
-27.81407
 20
-53.536873
 11
-27.81407
 21
-79.536873
  0
INSERT
  8
0
  6
CONTINUOUS
 62
     7
  2
_DOT
 10
-27.81407
 20
-53.536873
 50
90
  0
INSERT
  8
0
  6
CONTINUOUS
 62
     7
  2
_DOT
 10
-27.81407
 20
-79.536873
 50
270
  0
LINE
  8
0
  6
CONTINUOUS
 62
     7
 10
-20.35407
 20
-79.536873
 11
-29.014071
 21
-79.536873
  0
TEXT
  8
0
  6
CONTINUOUS
 62
     7
 10
-28.61407
 20
-69.279873
 40
3.2
 41
1.028625
  1
26
 50
90.000003
  0
POINT
  8
DEFPOINTS
  6
CONTINUOUS
 62
     7
 10
8.1859293
 20
-53.536873
  0
POINT
  8
DEFPOINTS
  6
CONTINUOUS
 62
     7
 10
-17.81407
 20
-79.536873
  0
POINT
  8
DEFPOINTS
  6
CONTINUOUS
 62
     7
 10
-27.81407
 20
-79.536873
  0
ENDBLK
  8
0
  0
BLOCK
  8
0
  2
*D15
 70
    65
 10
0
 20
0
  0
LINE
  8
0
  6
CONTINUOUS
 62
     7
 10
-17.81407
 20
-89.536873
 11
18.18593
 21
-89.536873
  0
INSERT
  8
0
  6
CONTINUOUS
 62
     7
  2
_DOT
 10
-17.81407
 20
-89.536873
 50
180
  0
INSERT
  8
0
  6
CONTINUOUS
 62
     7
  2
_DOT
 10
18.18593
 20
-89.536873
  0
LINE
  8
0
  6
CONTINUOUS
 62
     7
 10
-17.81407
 20
-82.076873
 11
-17.81407
 21
-90.73687
  0
LINE
  8
0
  6
CONTINUOUS
 62
     7
 10
18.18593
 20
-76.616874
 11
18.18593
 21
-90.73687
  0
TEXT
  8
0
  6
CONTINUOUS
 62
     7
 10
-5.7570704
 20
-88.736873
 40
3.2
 41
1.1939062
  1
(36)
  0
POINT
  8
DEFPOINTS
  6
CONTINUOUS
 62
     7
 10
-17.81407
 20
-79.536873
  0
POINT
  8
DEFPOINTS
  6
CONTINUOUS
 62
     7
 10
18.18593
 20
-74.076874
  0
POINT
  8
DEFPOINTS
  6
CONTINUOUS
 62
     7
 10
18.18593
 20
-89.536873
  0
ENDBLK
  8
0
  0
BLOCK
  8
0
  2
*D16
 70
    65
 10
0
 20
0
  0
LINE
  8
0
  6
CONTINUOUS
 62
     7
 10
152.18593
 20
-89.536873
 11
116.18593
 21
-89.536873
  0
INSERT
  8
0
  6
CONTINUOUS
 62
     7
  2
_DOT
 10
152.18593
 20
-89.536873
  0
INSERT
  8
0
  6
CONTINUOUS
 62
     7
  2
_DOT
 10
116.18593
 20
-89.536873
 50
180
  0
LINE
  8
0
  6
CONTINUOUS
 62
     7
 10
152.18593
 20
-82.076873
 11
152.18593
 21
-90.73687
  0
LINE
  8
0
  6
CONTINUOUS
 62
     7
 10
116.18593
 20
-76.616874
 11
116.18593
 21
-90.73687
  0
TEXT
  8
0
  6
CONTINUOUS
 62
     7
 10
128.24293
 20
-88.736873
 40
3.2
 41
1.1939062
  1
(36)
  0
POINT
  8
DEFPOINTS
  6
CONTINUOUS
 62
     7
 10
152.18593
 20
-79.536873
  0
POINT
  8
DEFPOINTS
  6
CONTINUOUS
 62
     7
 10
116.18593
 20
-74.076874
  0
POINT
  8
DEFPOINTS
  6
CONTINUOUS
 62
     7
 10
116.18593
 20
-89.536873
  0
ENDBLK
  8
0
  0
BLOCK
  8
0
  2
*D17
 70
    65
 10
0
 20
0
  0
LINE
  8
0
  6
CONTINUOUS
 62
     7
 10
-57.859482
 20
-79.636871
 11
-57.859482
 21
-62.636871
  0
INSERT
  8
0
  6
CONTINUOUS
 62
     7
  2
_DOT
 10
-57.859482
 20
-79.636871
 50
270
  0
INSERT
  8
0
  6
CONTINUOUS
 62
     7
  2
_DOT
 10
-57.859482
 20
-62.636871
 50
90
  0
LINE
  8
0
  6
CONTINUOUS
 62
     7
 10
-75.855378
 20
-79.636871
 11
-56.659481
 21
-79.636871
  0
LINE
  8
0
  6
CONTINUOUS
 62
     7
 10
-76.312654
 20
-62.636871
 11
-56.659481
 21
-62.636871
  0
TEXT
  8
0
  6
CONTINUOUS
 62
     7
 10
-58.659482
 20
-73.879871
 40
3.2
 41
1.2857812
  1
17
 50
90.000003
  0
POINT
  8
DEFPOINTS
  6
CONTINUOUS
 62
     7
 10
-78.395378
 20
-79.636871
  0
POINT
  8
DEFPOINTS
  6
CONTINUOUS
 62
     7
 10
-78.852654
 20
-62.636871
  0
POINT
  8
DEFPOINTS
  6
CONTINUOUS
 62
     7
 10
-57.859482
 20
-62.636871
  0
ENDBLK
  8
0
  0
BLOCK
  8
0
  2
*D18
 70
    65
 10
0
 20
0
  0
LINE
  8
0
  6
CONTINUOUS
 62
     7
 10
-57.859482
 20
-62.636871
 11
-57.859482
 21
-62.336872
  0
INSERT
  8
0
  6
CONTINUOUS
 62
     7
  2
_DOT
 10
-57.859482
 20
-62.636871
 50
270
  0
INSERT
  8
0
  6
CONTINUOUS
 62
     7
  2
_DOT
 10
-57.859482
 20
-62.336872
 50
90
  0
LINE
  8
0
  6
CONTINUOUS
 62
     7
 10
-76.619485
 20
-62.336872
 11
-56.659481
 21
-62.336872
  0
TEXT
  8
0
  6
CONTINUOUS
 62
     7
 10
-52.552022
 20
-58.529409
 40
3.2
 41
3.085875
  1
  
 50
90.000003
  0
POINT
  8
DEFPOINTS
  6
CONTINUOUS
 62
     7
 10
-78.852654
 20
-62.636871
  0
POINT
  8
DEFPOINTS
  6
CONTINUOUS
 62
     7
 10
-79.159485
 20
-62.336872
  0
POINT
  8
DEFPOINTS
  6
CONTINUOUS
 62
     7
 10
-57.859482
 20
-62.336872
  0
ENDBLK
  8
0
  0
BLOCK
  8
0
  2
*D19
 70
    65
 10
0
 20
0
  0
LINE
  8
0
  6
CONTINUOUS
 62
     7
 10
-57.952053
 20
-62.336872
 11
-57.952053
 21
-42.836872
  0
INSERT
  8
0
  6
CONTINUOUS
 62
     7
  2
_DOT
 10
-57.952053
 20
-62.336872
 50
270
  0
INSERT
  8
0
  6
CONTINUOUS
 62
     7
  2
_DOT
 10
-57.952053
 20
-42.836872
 50
90
  0
LINE
  8
0
  6
CONTINUOUS
 62
     7
 10
-76.619485
 20
-62.336872
 11
-56.752056
 21
-62.336872
  0
LINE
  8
0
  6
CONTINUOUS
 62
     7
 10
-82.119485
 20
-42.836872
 11
-56.752056
 21
-42.836872
  0
TEXT
  8
0
  6
CONTINUOUS
 62
     7
 10
-58.752053
 20
-58.529872
 40
3.2
 41
1.3928906
  1
19.5
 50
90.000003
  0
POINT
  8
DEFPOINTS
  6
CONTINUOUS
 62
     7
 10
-79.159485
 20
-62.336872
  0
POINT
  8
DEFPOINTS
  6
CONTINUOUS
 62
     7
 10
-84.659485
 20
-42.836872
  0
POINT
  8
DEFPOINTS
  6
CONTINUOUS
 62
     7
 10
-57.952053
 20
-42.836872
  0
ENDBLK
  8
0
  0
BLOCK
  8
0
  2
*D20
 70
    65
 10
0
 20
0
  0
LINE
  8
0
  6
CONTINUOUS
 62
     7
 10
-57.952053
 20
-42.836872
 11
-57.952053
 21
-17.836872
  0
INSERT
  8
0
  6
CONTINUOUS
 62
     7
  2
_DOT
 10
-57.952053
 20
-42.836872
 50
270
  0
INSERT
  8
0
  6
CONTINUOUS
 62
     7
  2
_DOT
 10
-57.952053
 20
-17.836872
 50
90
  0
LINE
  8
0
  6
CONTINUOUS
 62
     7
 10
-82.119485
 20
-17.836872
 11
-56.752056
 21
-17.836872
  0
TEXT
  8
0
  6
CONTINUOUS
 62
     7
 10
-58.752053
 20
-33.079872
 40
3.2
 41
1.028625
  1
25
 50
90.000003
  0
POINT
  8
DEFPOINTS
  6
CONTINUOUS
 62
     7
 10
-84.659485
 20
-42.836872
  0
POINT
  8
DEFPOINTS
  6
CONTINUOUS
 62
     7
 10
-84.659485
 20
-17.836872
  0
POINT
  8
DEFPOINTS
  6
CONTINUOUS
 62
     7
 10
-57.952053
 20
-17.836872
  0
ENDBLK
  8
0
  0
BLOCK
  8
0
  2
*D21
 70
    65
 10
0
 20
0
  0
LINE
  8
0
  6
CONTINUOUS
 62
     7
 10
-67.859482
 20
-79.636871
 11
-67.859482
 21
-68.636871
  0
INSERT
  8
0
  6
CONTINUOUS
 62
     7
  2
_DOT
 10
-67.859482
 20
-79.636871
 50
270
  0
INSERT
  8
0
  6
CONTINUOUS
 62
     7
  2
_DOT
 10
-67.859482
 20
-68.636871
 50
90
  0
LINE
  8
0
  6
CONTINUOUS
 62
     7
 10
-75.855378
 20
-79.636871
 11
-66.659485
 21
-79.636871
  0
LINE
  8
0
  6
CONTINUOUS
 62
     7
 10
-72.247079
 20
-68.636871
 11
-66.659485
 21
-68.636871
  0
TEXT
  8
0
  6
CONTINUOUS
 62
     7
 10
-68.659482
 20
-76.879871
 40
3.2
 41
1.5429375
  1
11
 50
90.000003
  0
POINT
  8
DEFPOINTS
  6
CONTINUOUS
 62
     7
 10
-78.395378
 20
-79.636871
  0
POINT
  8
DEFPOINTS
  6
CONTINUOUS
 62
     7
 10
-74.787079
 20
-68.636871
  0
POINT
  8
DEFPOINTS
  6
CONTINUOUS
 62
     7
 10
-67.859482
 20
-68.636871
  0
ENDBLK
  8
0
  0
BLOCK
  8
0
  2
*D22
 70
    65
 10
0
 20
0
  0
LINE
  8
0
  6
CONTINUOUS
 62
     7
 10
-6.7074156
 20
-16.275249
 11
-6.7074156
 21
-15.675271
  0
INSERT
  8
0
  6
CONTINUOUS
 62
     7
  2
_DOT
 10
-6.7074156
 20
-15.675271
 50
90
  0
LINE
  8
0
  6
CONTINUOUS
 62
     7
 10
-20.799212
 20
-15.675271
 11
-6.7073164
 21
-15.675271
  0
TEXT
  8
0
  6
CONTINUOUS
 62
     7
 10
-2.1924154
 20
-20.046761
 40
3
 41
1.4805455
  1
0.3
 50
90.000003
  0
POINT
  8
DEFPOINTS
  6
CONTINUOUS
 62
     7
 10
-23.207415
 20
-16.275249
  0
POINT
  8
DEFPOINTS
  6
CONTINUOUS
 62
     7
 10
-23.339212
 20
-15.675271
  0
POINT
  8
DEFPOINTS
  6
CONTINUOUS
 62
     7
 10
-6.7074156
 20
-15.675271
  0
ENDBLK
  8
0
  0
BLOCK
  8
0
  2
*D23
 70
    65
 10
0
 20
0
  0
LINE
  8
0
  6
CONTINUOUS
 62
     7
 10
179.86752
 20
-48.176144
 11
205.86752
 21
-48.176144
  0
INSERT
  8
0
  6
CONTINUOUS
 62
     7
  2
_DOT
 10
205.86752
 20
-48.176144
  0
TEXT
  8
0
  6
CONTINUOUS
 62
     7
 10
190.29602
 20
-47.426144
 40
3
 41
1.0286
  1
26
  0
POINT
  8
DEFPOINTS
  6
CONTINUOUS
 62
     7
 10
179.86752
 20
-7.1761427
  0
POINT
  8
DEFPOINTS
  6
CONTINUOUS
 62
     7
 10
205.86752
 20
-33.176144
  0
POINT
  8
DEFPOINTS
  6
CONTINUOUS
 62
     7
 10
205.86752
 20
-48.176144
  0
ENDBLK
  8
0
  0
BLOCK
  8
0
  2
*D24
 70
    65
 10
0
 20
0
  0
LINE
  8
0
  6
CONTINUOUS
 62
     7
 10
20.867521
 20
-33.176144
 11
20.867521
 21
102.32386
  0
INSERT
  8
0
  6
CONTINUOUS
 62
     7
  2
_DOT
 10
20.867521
 20
-33.176144
 50
270
  0
INSERT
  8
0
  6
CONTINUOUS
 62
     7
  2
_DOT
 10
20.867521
 20
102.32386
 50
90
  0
LINE
  8
0
  6
CONTINUOUS
 62
     7
 10
33.327519
 20
-33.176144
 11
20.867422
 21
-33.176144
  0
LINE
  8
0
  6
CONTINUOUS
 62
     7
 10
33.327519
 20
102.32386
 11
20.867422
 21
102.32386
  0
TEXT
  8
0
  6
CONTINUOUS
 62
     7
 10
20.117522
 20
29.002356
 40
3
 41
0.85126051
  1
ガラリＨ
 50
90.000003
  0
POINT
  8
DEFPOINTS
  6
CONTINUOUS
 62
     7
 10
35.867519
 20
-33.176144
  0
POINT
  8
DEFPOINTS
  6
CONTINUOUS
 62
     7
 10
35.867519
 20
102.32386
  0
POINT
  8
DEFPOINTS
  6
CONTINUOUS
 62
     7
 10
20.867521
 20
102.32386
  0
ENDBLK
  8
0
  0
BLOCK
  8
0
  2
*D25
 70
    65
 10
0
 20
0
  0
LINE
  8
0
  6
CONTINUOUS
 62
     7
 10
-6.7074156
 20
-33.276951
 11
-6.7074156
 21
-16.275249
  0
INSERT
  8
0
  6
CONTINUOUS
 62
     7
  2
_DOT
 10
-6.7074156
 20
-33.276951
 50
270
  0
INSERT
  8
0
  6
CONTINUOUS
 62
     7
  2
_DOT
 10
-6.7074156
 20
-16.275249
 50
90
  0
LINE
  8
0
  6
CONTINUOUS
 62
     7
 10
-17.675258
 20
-33.276951
 11
-6.7073164
 21
-33.276951
  0
LINE
  8
0
  6
CONTINUOUS
 62
     7
 10
-20.667415
 20
-16.275249
 11
-6.7073164
 21
-16.275249
  0
TEXT
  8
0
  6
CONTINUOUS
 62
     7
 10
-7.4574155
 20
-27.082601
 40
3
 41
1.28575
  1
17
 50
90.000003
  0
POINT
  8
DEFPOINTS
  6
CONTINUOUS
 62
     7
 10
-20.215258
 20
-33.276951
  0
POINT
  8
DEFPOINTS
  6
CONTINUOUS
 62
     7
 10
-23.207415
 20
-16.275249
  0
POINT
  8
DEFPOINTS
  6
CONTINUOUS
 62
     7
 10
-6.7074156
 20
-16.275249
  0
ENDBLK
  8
0
  0
BLOCK
  8
0
  2
*D26
 70
    65
 10
0
 20
0
  0
LINE
  8
0
  6
CONTINUOUS
 62
     7
 10
61.867519
 20
-48.176144
 11
179.86752
 21
-48.176144
  0
INSERT
  8
0
  6
CONTINUOUS
 62
     7
  2
_DOT
 10
179.86752
 20
-48.176144
  0
LINE
  8
0
  6
CONTINUOUS
 62
     7
 10
179.86752
 20
-35.716144
 11
179.86752
 21
-48.176243
  0
TEXT
  8
0
  6
CONTINUOUS
 62
     7
 10
116.79602
 20
-47.426144
 40
3
 41
0.85535716
  1
開口Ｗ
  0
POINT
  8
DEFPOINTS
  6
CONTINUOUS
 62
     7
 10
61.867519
 20
-7.1761427
  0
POINT
  8
DEFPOINTS
  6
CONTINUOUS
 62
     7
 10
179.86752
 20
-33.176144
  0
POINT
  8
DEFPOINTS
  6
CONTINUOUS
 62
     7
 10
179.86752
 20
-48.176144
  0
ENDBLK
  8
0
  0
BLOCK
  8
0
  2
*D27
 70
    65
 10
0
 20
0
  0
LINE
  8
0
  6
CONTINUOUS
 62
     7
 10
35.867519
 20
-48.176144
 11
61.867519
 21
-48.176144
  0
INSERT
  8
0
  6
CONTINUOUS
 62
     7
  2
_DOT
 10
35.867519
 20
-48.176144
 50
180
  0
INSERT
  8
0
  6
CONTINUOUS
 62
     7
  2
_DOT
 10
61.867519
 20
-48.176144
  0
LINE
  8
0
  6
CONTINUOUS
 62
     7
 10
61.867519
 20
-35.716144
 11
61.867519
 21
-48.176243
  0
TEXT
  8
0
  6
CONTINUOUS
 62
     7
 10
46.296019
 20
-47.426144
 40
3
 41
1.0286
  1
26
  0
POINT
  8
DEFPOINTS
  6
CONTINUOUS
 62
     7
 10
35.867519
 20
-33.176144
  0
POINT
  8
DEFPOINTS
  6
CONTINUOUS
 62
     7
 10
61.867519
 20
-33.176144
  0
POINT
  8
DEFPOINTS
  6
CONTINUOUS
 62
     7
 10
61.867519
 20
-48.176144
  0
ENDBLK
  8
0
  0
BLOCK
  8
0
  2
*D28
 70
    65
 10
0
 20
0
  0
LINE
  8
0
  6
CONTINUOUS
 62
     7
 10
-80.207413
 20
-48.206142
 11
-70.50676
 21
-48.206142
  0
LINE
  8
0
  6
CONTINUOUS
 62
     7
 10
-81.660126
 20
-48.206142
 11
-80.207413
 21
-48.206142
  0
INSERT
  8
0
  6
CONTINUOUS
 62
     7
  2
_DOT
 10
-81.660126
 20
-48.206142
 50
180
  0
INSERT
  8
0
  6
CONTINUOUS
 62
     7
  2
_DOT
 10
-80.207413
 20
-48.206142
  0
LINE
  8
0
  6
CONTINUOUS
 62
     7
 10
-80.207413
 20
-33.403396
 11
-80.207413
 21
-48.206242
  0
TEXT
  8
0
  6
CONTINUOUS
 62
     7
 10
-78.649762
 20
-47.456142
 40
3
 41
1.6286
  1
1.5
  0
POINT
  8
DEFPOINTS
  6
CONTINUOUS
 62
     7
 10
-81.660126
 20
-32.832485
  0
POINT
  8
DEFPOINTS
  6
CONTINUOUS
 62
     7
 10
-80.207413
 20
-30.863396
  0
POINT
  8
DEFPOINTS
  6
CONTINUOUS
 62
     7
 10
-80.207413
 20
-48.206142
  0
ENDBLK
  8
0
  0
BLOCK
  8
0
  2
*D29
 70
    65
 10
0
 20
0
  0
LINE
  8
0
  6
CONTINUOUS
 62
     7
 10
205.86752
 20
-63.176144
 11
35.867519
 21
-63.176144
  0
INSERT
  8
0
  6
CONTINUOUS
 62
     7
  2
_DOT
 10
205.86752
 20
-63.176144
  0
INSERT
  8
0
  6
CONTINUOUS
 62
     7
  2
_DOT
 10
35.867519
 20
-63.176144
 50
180
  0
LINE
  8
0
  6
CONTINUOUS
 62
     7
 10
205.86752
 20
-35.716144
 11
205.86752
 21
-63.176243
  0
LINE
  8
0
  6
CONTINUOUS
 62
     7
 10
35.867519
 20
-35.716144
 11
35.867519
 21
-63.176243
  0
TEXT
  8
0
  6
CONTINUOUS
 62
     7
 10
115.29602
 20
-62.426144
 40
3
 41
0.85126051
  1
ガラリＷ
  0
POINT
  8
DEFPOINTS
  6
CONTINUOUS
 62
     7
 10
205.86752
 20
-33.176144
  0
POINT
  8
DEFPOINTS
  6
CONTINUOUS
 62
     7
 10
35.867519
 20
-33.176144
  0
POINT
  8
DEFPOINTS
  6
CONTINUOUS
 62
     7
 10
35.867519
 20
-63.176144
  0
ENDBLK
  8
0
  0
BLOCK
  8
0
  2
*D30
 70
    65
 10
0
 20
0
  0
LINE
  8
0
  6
CONTINUOUS
 62
     7
 10
-6.7074156
 20
-15.675271
 11
-6.7074156
 21
3.8243611
  0
INSERT
  8
0
  6
CONTINUOUS
 62
     7
  2
_DOT
 10
-6.7074156
 20
3.8243611
 50
90
  0
LINE
  8
0
  6
CONTINUOUS
 62
     7
 10
-26.564433
 20
3.8243611
 11
-6.7073164
 21
3.8243611
  0
TEXT
  8
0
  6
CONTINUOUS
 62
     7
 10
-7.4574153
 20
-11.496956
 40
3
 41
1.392875
  1
19.5
 50
90.000003
  0
POINT
  8
DEFPOINTS
  6
CONTINUOUS
 62
     7
 10
-23.807413
 20
-15.675271
  0
POINT
  8
DEFPOINTS
  6
CONTINUOUS
 62
     7
 10
-29.104433
 20
3.8243611
  0
POINT
  8
DEFPOINTS
  6
CONTINUOUS
 62
     7
 10
-6.7074156
 20
3.8243611
  0
ENDBLK
  8
0
  0
BLOCK
  8
0
  2
*D31
 70
    65
 10
0
 20
0
  0
LINE
  8
0
  6
CONTINUOUS
 62
     7
 10
-20.215258
 20
-47.676144
 11
-10.783038
 21
-47.676144
  0
LINE
  8
0
  6
CONTINUOUS
 62
     7
 10
-21.707415
 20
-47.676144
 11
-20.215258
 21
-47.676144
  0
INSERT
  8
0
  6
CONTINUOUS
 62
     7
  2
_DOT
 10
-21.707415
 20
-47.676144
 50
180
  0
INSERT
  8
0
  6
CONTINUOUS
 62
     7
  2
_DOT
 10
-20.215258
 20
-47.676144
  0
LINE
  8
0
  6
CONTINUOUS
 62
     7
 10
-20.215258
 20
-34.114934
 11
-20.215258
 21
-47.676243
  0
TEXT
  8
0
  6
CONTINUOUS
 62
     7
 10
-18.926041
 20
-46.926144
 40
3
 41
1.6286
  1
1.5
  0
POINT
  8
DEFPOINTS
  6
CONTINUOUS
 62
     7
 10
-21.707415
 20
-15.675184
  0
POINT
  8
DEFPOINTS
  6
CONTINUOUS
 62
     7
 10
-20.215258
 20
-31.574934
  0
POINT
  8
DEFPOINTS
  6
CONTINUOUS
 62
     7
 10
-20.215258
 20
-47.676144
  0
ENDBLK
  8
0
  0
BLOCK
  8
0
  2
*D32
 70
    65
 10
0
 20
0
  0
LINE
  8
0
  6
CONTINUOUS
 62
     7
 10
220.86752
 20
76.32386
 11
220.86752
 21
102.32386
  0
INSERT
  8
0
  6
CONTINUOUS
 62
     7
  2
_DOT
 10
220.86752
 20
102.32386
 50
90
  0
LINE
  8
0
  6
CONTINUOUS
 62
     7
 10
208.40752
 20
102.32386
 11
220.86763
 21
102.32386
  0
TEXT
  8
0
  6
CONTINUOUS
 62
     7
 10
220.11752
 20
86.75236
 40
3
 41
1.0286
  1
26
 50
90.000003
  0
POINT
  8
DEFPOINTS
  6
CONTINUOUS
 62
     7
 10
179.86752
 20
76.32386
  0
POINT
  8
DEFPOINTS
  6
CONTINUOUS
 62
     7
 10
205.86752
 20
102.32386
  0
POINT
  8
DEFPOINTS
  6
CONTINUOUS
 62
     7
 10
220.86752
 20
102.32386
  0
ENDBLK
  8
0
  0
BLOCK
  8
0
  2
*D33
 70
    65
 10
0
 20
0
  0
LINE
  8
0
  6
CONTINUOUS
 62
     7
 10
220.86752
 20
-7.1761427
 11
220.86752
 21
76.32386
  0
INSERT
  8
0
  6
CONTINUOUS
 62
     7
  2
_DOT
 10
220.86752
 20
76.32386
 50
90
  0
LINE
  8
0
  6
CONTINUOUS
 62
     7
 10
208.40752
 20
76.32386
 11
220.86763
 21
76.32386
  0
TEXT
  8
0
  6
CONTINUOUS
 62
     7
 10
220.11752
 20
30.502356
 40
3
 41
0.85535716
  1
開口Ｈ
 50
90.000003
  0
POINT
  8
DEFPOINTS
  6
CONTINUOUS
 62
     7
 10
179.86752
 20
-7.1761427
  0
POINT
  8
DEFPOINTS
  6
CONTINUOUS
 62
     7
 10
205.86752
 20
76.32386
  0
POINT
  8
DEFPOINTS
  6
CONTINUOUS
 62
     7
 10
220.86752
 20
76.32386
  0
ENDBLK
  8
0
  0
BLOCK
  8
0
  2
*D34
 70
    65
 10
0
 20
0
  0
LINE
  8
0
  6
CONTINUOUS
 62
     7
 10
220.86752
 20
-33.176144
 11
220.86752
 21
-7.1761427
  0
INSERT
  8
0
  6
CONTINUOUS
 62
     7
  2
_DOT
 10
220.86752
 20
-33.176144
 50
270
  0
INSERT
  8
0
  6
CONTINUOUS
 62
     7
  2
_DOT
 10
220.86752
 20
-7.1761427
 50
90
  0
LINE
  8
0
  6
CONTINUOUS
 62
     7
 10
208.40752
 20
-33.176144
 11
220.86763
 21
-33.176144
  0
LINE
  8
0
  6
CONTINUOUS
 62
     7
 10
208.40752
 20
-7.1761427
 11
220.86763
 21
-7.1761427
  0
TEXT
  8
0
  6
CONTINUOUS
 62
     7
 10
220.11752
 20
-22.747642
 40
3
 41
1.0286
  1
26
 50
90.000003
  0
POINT
  8
DEFPOINTS
  6
CONTINUOUS
 62
     7
 10
205.86752
 20
-33.176144
  0
POINT
  8
DEFPOINTS
  6
CONTINUOUS
 62
     7
 10
205.86752
 20
-7.1761427
  0
POINT
  8
DEFPOINTS
  6
CONTINUOUS
 62
     7
 10
220.86752
 20
-7.1761427
  0
ENDBLK
  8
0
  0
BLOCK
  8
0
  2
*D35
 70
    65
 10
0
 20
0
  0
LINE
  8
0
  6
CONTINUOUS
 62
     7
 10
-6.7074156
 20
3.8243611
 11
-6.7074156
 21
28.824362
  0
INSERT
  8
0
  6
CONTINUOUS
 62
     7
  2
_DOT
 10
-6.7074156
 20
28.824362
 50
90
  0
LINE
  8
0
  6
CONTINUOUS
 62
     7
 10
-27.162707
 20
28.824362
 11
-6.7073164
 21
28.824362
  0
TEXT
  8
0
  6
CONTINUOUS
 62
     7
 10
-7.4574155
 20
13.752862
 40
3
 41
1.0286
  1
25
 50
90.000003
  0
POINT
  8
DEFPOINTS
  6
CONTINUOUS
 62
     7
 10
-26.707415
 20
3.8243611
  0
POINT
  8
DEFPOINTS
  6
CONTINUOUS
 62
     7
 10
-29.702707
 20
28.824362
  0
POINT
  8
DEFPOINTS
  6
CONTINUOUS
 62
     7
 10
-6.7074156
 20
28.824362
  0
ENDBLK
  8
0
  0
BLOCK
  8
0
  2
*D36
 70
    65
 10
0
 20
0
  0
LINE
  8
0
  6
CONTINUOUS
 62
     7
 10
-61.242588
 20
-47.676144
 11
-49.907436
 21
-47.676144
  0
LINE
  8
0
  6
CONTINUOUS
 62
     7
 10
-49.907436
 20
-47.676144
 11
-46.707417
 21
-47.676144
  0
INSERT
  8
0
  6
CONTINUOUS
 62
     7
  2
_DOT
 10
-49.907436
 20
-47.676144
 50
180
  0
INSERT
  8
0
  6
CONTINUOUS
 62
     7
  2
_DOT
 10
-46.707417
 20
-47.676144
  0
LINE
  8
0
  6
CONTINUOUS
 62
     7
 10
-49.907436
 20
-29.549506
 11
-49.907436
 21
-47.676243
  0
LINE
  8
0
  6
CONTINUOUS
 62
     7
 10
-46.707417
 20
-33.311393
 11
-46.707417
 21
-47.676243
  0
TEXT
  8
0
  6
CONTINUOUS
 62
     7
 10
-60.814088
 20
-46.926144
 40
3
 41
1.3571667
  1
3.2
  0
POINT
  8
DEFPOINTS
  6
CONTINUOUS
 62
     7
 10
-49.907436
 20
-27.009506
  0
POINT
  8
DEFPOINTS
  6
CONTINUOUS
 62
     7
 10
-46.707417
 20
-30.771393
  0
POINT
  8
DEFPOINTS
  6
CONTINUOUS
 62
     7
 10
-46.707417
 20
-47.676144
  0
ENDBLK
  8
0
  0
BLOCK
  8
0
  2
*D37
 70
    65
 10
0
 20
0
  0
LINE
  8
0
  6
CONTINUOUS
 62
     7
 10
-46.707417
 20
-47.676144
 11
-21.707415
 21
-47.676144
  0
INSERT
  8
0
  6
CONTINUOUS
 62
     7
  2
_DOT
 10
-46.707417
 20
-47.676144
 50
180
  0
INSERT
  8
0
  6
CONTINUOUS
 62
     7
  2
_DOT
 10
-21.707415
 20
-47.676144
  0
LINE
  8
0
  6
CONTINUOUS
 62
     7
 10
-21.707415
 20
-33.895787
 11
-21.707415
 21
-47.676243
  0
TEXT
  8
0
  6
CONTINUOUS
 62
     7
 10
-41.278917
 20
-52.191144
 40
3
 41
0.99342075
  1
26～40
  0
POINT
  8
DEFPOINTS
  6
CONTINUOUS
 62
     7
 10
-46.707417
 20
-15.676059
  0
POINT
  8
DEFPOINTS
  6
CONTINUOUS
 62
     7
 10
-21.707415
 20
-31.355787
  0
POINT
  8
DEFPOINTS
  6
CONTINUOUS
 62
     7
 10
-21.707415
 20
-47.676144
  0
ENDBLK
  8
0
  0
BLOCK
  8
0
  2
*D38
 70
    65
 10
0
 20
0
  0
LINE
  8
0
  6
CONTINUOUS
 62
     7
 10
-108.20741
 20
-48.206142
 11
-118.9633
 21
-48.206142
  0
LINE
  8
0
  6
CONTINUOUS
 62
     7
 10
-108.20741
 20
-48.206142
 11
-106.70741
 21
-48.206142
  0
INSERT
  8
0
  6
CONTINUOUS
 62
     7
  2
_DOT
 10
-108.20741
 20
-48.206142
 50
180
  0
INSERT
  8
0
  6
CONTINUOUS
 62
     7
  2
_DOT
 10
-106.70741
 20
-48.206142
  0
LINE
  8
0
  6
CONTINUOUS
 62
     7
 10
-108.20741
 20
-33.746131
 11
-108.20741
 21
-48.206242
  0
LINE
  8
0
  6
CONTINUOUS
 62
     7
 10
-106.70741
 20
-33.909696
 11
-106.70741
 21
-48.206242
  0
TEXT
  8
0
  6
CONTINUOUS
 62
     7
 10
-118.9633
 20
-47.456142
 40
3
 41
1.6286
  1
1.5
  0
POINT
  8
DEFPOINTS
  6
CONTINUOUS
 62
     7
 10
-108.20741
 20
-31.206131
  0
POINT
  8
DEFPOINTS
  6
CONTINUOUS
 62
     7
 10
-106.70741
 20
-31.369696
  0
POINT
  8
DEFPOINTS
  6
CONTINUOUS
 62
     7
 10
-106.70741
 20
-48.206142
  0
ENDBLK
  8
0
  0
BLOCK
  8
0
  2
*D39
 70
    65
 10
0
 20
0
  0
LINE
  8
0
  6
CONTINUOUS
 62
     7
 10
-106.70741
 20
-48.206142
 11
-81.660126
 21
-48.206142
  0
INSERT
  8
0
  6
CONTINUOUS
 62
     7
  2
_DOT
 10
-106.70741
 20
-48.206142
 50
180
  0
INSERT
  8
0
  6
CONTINUOUS
 62
     7
  2
_DOT
 10
-81.660126
 20
-48.206142
  0
LINE
  8
0
  6
CONTINUOUS
 62
     7
 10
-106.70741
 20
-35.553233
 11
-106.70741
 21
-48.206242
  0
LINE
  8
0
  6
CONTINUOUS
 62
     7
 10
-81.660126
 20
-35.372485
 11
-81.660126
 21
-48.206242
  0
TEXT
  8
0
  6
CONTINUOUS
 62
     7
 10
-101.25526
 20
-52.721142
 40
3
 41
0.99342075
  1
26～40
  0
POINT
  8
DEFPOINTS
  6
CONTINUOUS
 62
     7
 10
-106.70741
 20
-33.013233
  0
POINT
  8
DEFPOINTS
  6
CONTINUOUS
 62
     7
 10
-81.660126
 20
-32.832485
  0
POINT
  8
DEFPOINTS
  6
CONTINUOUS
 62
     7
 10
-81.660126
 20
-48.206142
  0
ENDBLK
  8
0
  0
BLOCK
  8
0
  2
KOZU0001
 70
    64
 10
0
 20
0
  0
POINT
  8
0
  6
CONTINUOUS
 62
     7
 10
0
 20
0
  0
LINE
  8
0
  6
CONTINUOUS
 62
     3
 10
35.867519
 20
102.32386
 11
35.867519
 21
35.823856
  0
LINE
  8
0
  6
CONTINUOUS
 62
     3
 10
61.867519
 20
-7.1761427
 11
179.86752
 21
-7.1761427
  0
LINE
  8
0
  6
CENTER
 62
     7
 10
-94.207413
 20
40.757099
 11
-94.207413
 21
-33.491005
  0
LINE
  8
0
  6
CONTINUOUS
 62
     3
 10
-105.20741
 20
-15.676029
 11
-86.707413
 21
-15.675374
  0
LINE
  8
0
  6
CONTINUOUS
 62
     3
 10
205.86752
 20
102.32386
 11
205.86752
 21
35.823856
  0
LINE
  8
0
  6
CONTINUOUS
 62
     3
 10
179.86752
 20
76.32386
 11
179.86752
 21
35.823856
  0
LINE
  8
0
  6
CONTINUOUS
 62
     3
 10
35.867519
 20
-33.176144
 11
205.86752
 21
-33.176144
  0
LINE
  8
0
  6
CONTINUOUS
 62
     3
 10
61.867519
 20
76.32386
 11
61.867519
 21
35.823856
  0
LINE
  8
0
  6
CONTINUOUS
 62
     3
 10
61.867519
 20
76.32386
 11
179.86752
 21
76.32386
  0
LINE
  8
0
  6
CONTINUOUS
 62
     3
 10
61.867519
 20
76.323853
 11
35.867519
 21
102.32385
  0
LINE
  8
0
  6
CONTINUOUS
 62
     3
 10
61.867523
 20
-7.1761422
 11
35.867519
 21
-33.176144
  0
LINE
  8
0
  6
CONTINUOUS
 62
     3
 10
188.86752
 20
85.32386
 11
188.86752
 21
35.823856
  0
LINE
  8
0
  6
CONTINUOUS
 62
     3
 10
52.867519
 20
85.32386
 11
52.867519
 21
35.823856
  0
LINE
  8
0
  6
CONTINUOUS
 62
     3
 10
52.867519
 20
85.32386
 11
188.86752
 21
85.32386
  0
LINE
  8
0
  6
CONTINUOUS
 62
     3
 10
52.867519
 20
-16.176142
 11
188.86752
 21
-16.176142
  0
LINE
  8
0
  6
CONTINUOUS
 62
     3
 10
51.367519
 20
-17.676142
 11
190.36752
 21
-17.676142
  0
LINE
  8
0
  6
CONTINUOUS
 62
     3
 10
-105.20741
 20
-17.176142
 11
-102.20741
 21
-17.176142
  0
LINE
  8
0
  6
CONTINUOUS
 62
     3
 10
51.367519
 20
86.82386
 11
51.367519
 21
35.823856
  0
LINE
  8
0
  6
CONTINUOUS
 62
     3
 10
51.367519
 20
86.82386
 11
190.36752
 21
86.82386
  0
LINE
  8
0
  6
CONTINUOUS
 62
     3
 10
190.36752
 20
86.82386
 11
190.36752
 21
35.823856
  0
LINE
  8
0
  6
CONTINUOUS
 62
     3
 10
-92.81636
 20
1.4757217
 11
-93.457397
 21
2.2432323
  0
LINE
  8
0
  6
CONTINUOUS
 62
     3
 10
-82.947853
 20
-24.175259
 11
-81.745262
 21
-24.175217
  0
LINE
  8
0
  6
CONTINUOUS
 62
     3
 10
-107.41013
 20
-23.000172
 11
-105.20742
 21
-20.797461
  0
LINE
  8
0
  6
CONTINUOUS
 62
     3
 10
-105.20744
 20
20.723986
 11
-96.701851
 21
30.907736
  0
LINE
  8
0
  6
CONTINUOUS
 62
     3
 10
-84.707413
 20
-4.8200388
 11
-84.707413
 21
-13.575975
  0
LINE
  8
0
  6
CONTINUOUS
 62
     3
 10
-87.707413
 20
-15.675409
 11
-87.707413
 21
-17.175409
  0
LINE
  8
0
  6
CONTINUOUS
 62
     3
 10
-94.957413
 20
13.074361
 11
-93.457413
 21
13.074361
  0
LINE
  8
0
  6
CONTINUOUS
 62
     3
 10
205.86752
 20
102.32386
 11
179.86752
 21
76.32386
  0
LINE
  8
0
  6
CONTINUOUS
 62
     3
 10
205.86752
 20
-33.176155
 11
179.86751
 21
-7.1761475
  0
LINE
  8
0
  6
CONTINUOUS
 62
     3
 10
-80.207413
 20
-20.175146
 11
-80.207413
 21
-31.206131
  0
LINE
  8
0
  6
CONTINUOUS
 62
     3
 10
-83.207382
 20
-4.2760186
 11
-91.712967
 21
5.9077401
  0
LINE
  8
0
  6
CONTINUOUS
 62
     3
 10
-103.70743
 20
-4.8200364
 11
-97.284424
 21
2.8702371
  0
LINE
  8
0
  6
CONTINUOUS
 62
     3
 10
-103.20742
 20
-23.175959
 11
-99.066765
 21
-23.175812
  0
LINE
  8
0
  6
CONTINUOUS
 62
     3
 10
-97.207405
 20
-17.175747
 11
-81.707405
 21
-17.175198
  0
LINE
  8
0
  6
CONTINUOUS
 62
     3
 10
-102.20741
 20
-15.676143
 11
-102.20741
 21
-17.176142
  0
LINE
  8
0
  6
CONTINUOUS
 62
     3
 10
-103.70744
 20
20.179972
 11
-97.284431
 21
27.870245
  0
LINE
  8
0
  6
CONTINUOUS
 62
     3
 10
-95.598473
 20
1.4757161
 11
-94.957436
 21
2.243228
  0
LINE
  8
0
  6
CENTER
 62
     7
 10
-101.70741
 20
28.824362
 11
-86.707413
 21
28.824362
  0
LINE
  8
0
  6
CONTINUOUS
 62
     3
 10
-94.957413
 20
38.07436
 11
-93.457413
 21
38.07436
  0
LINE
  8
0
  6
CONTINUOUS
 62
     3
 10
-94.957413
 20
38.07436
 11
-94.957413
 21
31.986639
  0
LINE
  8
0
  6
CONTINUOUS
 62
     3
 10
52.867519
 20
33.823856
 11
52.867519
 21
-16.176142
  0
LINE
  8
0
  6
CONTINUOUS
 62
     3
 10
-84.707413
 20
40.82436
 11
-84.707413
 21
36.424023
  0
LINE
  8
0
  6
CONTINUOUS
 62
     3
 10
-93.457413
 20
38.07436
 11
-93.457413
 21
31.986639
  0
LINE
  8
0
  6
CONTINUOUS
 62
     3
 10
35.867519
 20
33.823856
 11
35.867519
 21
-33.176144
  0
LINE
  8
0
  6
CONTINUOUS
 62
     3
 10
-84.707413
 20
36.424023
 11
-83.207413
 21
36.424023
  0
LINE
  8
0
  6
CONTINUOUS
 62
     3
 10
-94.957413
 20
13.074361
 11
-94.957413
 21
6.9866381
  0
LINE
  8
0
  6
CONTINUOUS
 62
     3
 10
-97.20742
 20
-23.175747
 11
-81.207405
 21
-23.17518
  0
LINE
  8
0
  6
CENTER
 62
     7
 10
-104.27437
 20
-21.675995
 11
-79.220779
 21
-21.675108
  0
LINE
  8
0
  6
CONTINUOUS
 62
     3
 10
-95.707413
 20
-18.475693
 11
-95.707413
 21
-20.175692
  0
LINE
  8
0
  6
CONTINUOUS
 62
     3
 10
-97.20742
 20
-20.175747
 11
-81.207405
 21
-20.17518
  0
LINE
  8
0
  6
CONTINUOUS
 62
     3
 10
-98.707413
 20
-15.676143
 11
-98.707413
 21
-25.676142
  0
LINE
  8
0
  6
CONTINUOUS
 62
     3
 10
-98.707413
 20
-25.676142
 11
-97.207413
 21
-25.676142
  0
LINE
  8
0
  6
CONTINUOUS
 62
     3
 10
-97.207413
 20
-15.676143
 11
-97.207413
 21
-25.676142
  0
LINE
  8
0
  6
CONTINUOUS
 62
     3
 10
-95.70742
 20
-19.475693
 11
-83.973259
 21
-19.475277
  0
LINE
  8
0
  6
CONTINUOUS
 62
     3
 10
-103.20742
 20
-20.175959
 11
-99.066887
 21
-20.175812
  0
LINE
  8
0
  6
CONTINUOUS
 62
     3
 10
-103.20741
 20
-20.175959
 11
-103.20741
 21
-23.175959
  0
LINE
  8
0
  6
CONTINUOUS
 62
     3
 10
-82.832848
 20
-26.675255
 11
-81.207405
 21
-26.675198
  0
LINE
  8
0
  6
CONTINUOUS
 62
     3
 10
-81.207413
 20
-20.175177
 11
-81.207413
 21
-25.175198
  0
LINE
  8
0
  6
CONTINUOUS
 62
     3
 10
-81.688065
 20
-25.175215
 11
-81.207413
 21
-25.175198
  0
LINE
  8
0
  6
CONTINUOUS
 62
     3
 10
-106.70741
 20
-6.6761427
 11
-105.20741
 21
-6.6761427
  0
LINE
  8
0
  6
CONTINUOUS
 62
     3
 10
-84.707413
 20
20.17996
 11
-84.707413
 21
11.424024
  0
LINE
  8
0
  6
CONTINUOUS
 62
     3
 10
-103.70741
 20
40.82436
 11
-103.70741
 21
36.424023
  0
LINE
  8
0
  6
CONTINUOUS
 62
     3
 10
-81.707413
 20
-6.6761427
 11
-83.207413
 21
-6.6761427
  0
LINE
  8
0
  6
CONTINUOUS
 62
     3
 10
-108.91014
 20
-21.856884
 11
-106.70742
 21
-19.654161
  0
LINE
  8
0
  6
CONTINUOUS
 62
     3
 10
51.367519
 20
33.823856
 11
51.367519
 21
-17.676142
  0
LINE
  8
0
  6
CONTINUOUS
 62
     3
 10
-103.70741
 20
-4.8200388
 11
-103.70741
 21
-13.575975
  0
LINE
  8
0
  6
CONTINUOUS
 62
     3
 10
-105.20743
 20
-4.2760215
 11
-96.701843
 21
5.9077287
  0
LINE
  8
0
  6
CONTINUOUS
 62
     3
 10
-105.20741
 20
-13.576029
 11
-85.207413
 21
-13.57532
  0
LINE
  8
0
  6
CONTINUOUS
 62
     3
 10
-95.59848
 20
26.475723
 11
-94.957443
 21
27.243235
  0
LINE
  8
0
  6
CONTINUOUS
 62
     3
 10
-92.81636
 20
26.475718
 11
-93.457397
 21
27.243229
  0
LINE
  8
0
  6
CONTINUOUS
 62
     3
 10
-93.457413
 20
13.074361
 11
-93.457413
 21
6.9866381
  0
LINE
  8
0
  6
CONTINUOUS
 62
     3
 10
-84.70742
 20
-4.8200469
 11
-91.130432
 21
2.8702385
  0
LINE
  8
0
  6
CONTINUOUS
 62
     3
 10
-84.707428
 20
20.179953
 11
-91.13044
 21
27.870239
  0
LINE
  8
0
  6
CONTINUOUS
 62
     3
 10
-83.207375
 20
20.723967
 11
-91.712959
 21
30.907719
  0
LINE
  8
0
  6
CENTER
 62
     7
 10
-101.70741
 20
3.8243611
 11
-86.707413
 21
3.8243611
  0
LINE
  8
0
  6
CONTINUOUS
 62
     3
 10
35.867519
 20
102.32386
 11
205.86752
 21
102.32386
  0
LINE
  8
0
  6
CONTINUOUS
 62
     3
 10
-105.20741
 20
-17.176142
 11
-105.20741
 21
-20.797461
  0
LINE
  8
0
  6
CONTINUOUS
 62
     3
 10
-81.660133
 20
-32.832489
 11
-80.715981
 21
-33.075344
  0
LINE
  8
0
  6
CONTINUOUS
 62
     3
 10
-85.207413
 20
-13.57532
 11
-85.207413
 21
-15.675321
  0
LINE
  8
0
  6
CENTER
 62
     7
 10
-34.207417
 20
83.223366
 11
-34.207417
 21
-11.89869
  0
LINE
  8
0
  6
CONTINUOUS
 62
     3
 10
-21.707415
 20
85.322876
 11
-21.707415
 21
35.823856
  0
LINE
  8
0
  6
CONTINUOUS
 62
     3
 10
-105.20741
 20
40.82436
 11
-105.20741
 21
-13.576029
  0
LINE
  8
0
  6
CONTINUOUS
 62
     3
 10
-106.70742
 20
-33.013233
 11
-108.16013
 21
-33.386906
  0
LINE
  8
0
  6
CONTINUOUS
 62
     3
 10
-106.70741
 20
40.82436
 11
-106.70741
 21
-19.654161
  0
LINE
  8
0
  6
CONTINUOUS
 62
     7
 10
30.867521
 20
33.823856
 11
210.86752
 21
33.823856
  0
LINE
  8
0
  6
CONTINUOUS
 62
     7
 10
30.867521
 20
35.823856
 11
210.86752
 21
35.823856
  0
LINE
  8
0
  6
CONTINUOUS
 62
     3
 10
-84.707413
 20
-13.575302
 11
-83.207413
 21
-13.57525
  0
LINE
  8
0
  6
CONTINUOUS
 62
     3
 10
-86.707413
 20
-15.075374
 11
-86.707413
 21
-15.675321
  0
LINE
  8
0
  6
CONTINUOUS
 62
     3
 10
-85.207413
 20
-15.675321
 11
-83.207413
 21
-15.67525
  0
LINE
  8
0
  6
CONTINUOUS
 62
     3
 10
-105.20736
 20
-15.076029
 11
-86.707405
 21
-15.075374
  0
LINE
  8
0
  6
CONTINUOUS
 62
     3
 10
-108.91013
 20
-21.856894
 11
-108.91013
 21
-31.386887
  0
LINE
  8
0
  6
CONTINUOUS
 62
     3
 10
-83.207413
 20
40.82436
 11
-83.207413
 21
-15.67525
  0
LINE
  8
0
  6
CONTINUOUS
 62
     3
 10
-81.707413
 20
40.82436
 11
-81.707413
 21
-17.175196
  0
LINE
  8
0
  6
CONTINUOUS
 62
     3
 10
61.867519
 20
33.823856
 11
61.867519
 21
-7.1761427
  0
LINE
  8
0
  6
CONTINUOUS
 62
     3
 10
-43.20742
 20
-21.675959
 11
-38.70742
 21
-21.6758
  0
LINE
  8
0
  6
CONTINUOUS
 62
     3
 10
-43.20742
 20
-24.675959
 11
-38.70742
 21
-24.6758
  0
LINE
  8
0
  6
CENTER
 62
     7
 10
-44.001678
 20
-23.175987
 11
-19.388321
 21
-23.175116
  0
LINE
  8
0
  6
CONTINUOUS
 62
     3
 10
-38.707417
 20
-27.176142
 11
-37.207417
 21
-27.176142
  0
LINE
  8
0
  6
CONTINUOUS
 62
     3
 10
-37.207417
 20
-15.676143
 11
-37.207417
 21
-27.176142
  0
LINE
  8
0
  6
CONTINUOUS
 62
     3
 10
-38.707417
 20
-15.676143
 11
-38.707417
 21
-27.176142
  0
LINE
  8
0
  6
CONTINUOUS
 62
     3
 10
-42.207417
 20
-15.676143
 11
-42.207417
 21
-17.176142
  0
LINE
  8
0
  6
CONTINUOUS
 62
     3
 10
-45.643574
 20
-17.176142
 11
-42.207417
 21
-17.176142
  0
LINE
  8
0
  6
CONTINUOUS
 62
     3
 10
-45.207417
 20
-15.676029
 11
-23.807417
 21
-15.675271
  0
LINE
  8
0
  6
CONTINUOUS
 62
     3
 10
-46.707417
 20
85.323784
 11
-46.707417
 21
35.823856
  0
LINE
  8
0
  6
CONTINUOUS
 62
     3
 10
205.86752
 20
33.823856
 11
205.86752
 21
-33.176144
  0
LINE
  8
0
  6
CONTINUOUS
 62
     3
 10
190.36752
 20
33.823856
 11
190.36752
 21
-17.676142
  0
LINE
  8
0
  6
CONTINUOUS
 62
     3
 10
188.86752
 20
33.823856
 11
188.86752
 21
-16.176142
  0
LINE
  8
0
  6
CONTINUOUS
 62
     3
 10
179.86752
 20
33.823856
 11
179.86752
 21
-7.1761427
  0
LINE
  8
0
  6
CONTINUOUS
 62
     3
 10
-43.207417
 20
-21.675959
 11
-43.207417
 21
-24.675959
  0
LINE
  8
0
  6
CONTINUOUS
 62
     3
 10
-37.20742
 20
-21.675747
 11
-21.914894
 21
-21.675205
  0
LINE
  8
0
  6
CONTINUOUS
 62
     3
 10
-37.20742
 20
-24.675747
 11
-23.416641
 21
-24.675259
  0
LINE
  8
0
  6
CONTINUOUS
 62
     3
 10
-37.207413
 20
-16.275747
 11
-23.20742
 21
-16.275251
  0
LINE
  8
0
  6
CONTINUOUS
 62
     3
 10
-35.70742
 20
-17.775694
 11
-22.827591
 21
-17.775238
  0
LINE
  8
0
  6
CONTINUOUS
 62
     3
 10
-35.707417
 20
-17.775692
 11
-35.707417
 21
-19.275692
  0
LINE
  8
0
  6
CONTINUOUS
 62
     3
 10
-35.707413
 20
-19.275694
 11
-23.973244
 21
-19.275278
  0
LINE
  8
0
  6
CONTINUOUS
 62
     3
 10
-37.20742
 20
-20.775747
 11
-32.70742
 21
-20.775587
  0
LINE
  8
0
  6
CONTINUOUS
 62
     3
 10
-32.707417
 20
-19.275587
 11
-32.707417
 21
-20.775587
  0
LINE
  8
0
  6
CONTINUOUS
 62
     3
 10
-23.332853
 20
-26.675255
 11
-21.46594
 21
-26.67519
  0
LINE
  8
0
  6
CONTINUOUS
 62
     3
 10
-22.188063
 20
-25.175215
 11
-21.537458
 21
-25.175192
  0
LINE
  8
0
  6
CONTINUOUS
 62
     3
 10
-21.695555
 20
-33.015934
 11
-20.215256
 21
-33.276951
  0
LINE
  8
0
  6
CONTINUOUS
 62
     3
 10
-48.407444
 20
-27.201557
 11
-46.834126
 21
-32.798218
  0
LINE
  8
0
  6
CONTINUOUS
 62
     3
 10
-49.907433
 20
-27.009506
 11
-48.1478
 21
-33.206146
  0
LINE
  8
0
  6
CONTINUOUS
 62
     3
 10
-46.834084
 20
-32.798195
 11
-48.14777
 21
-33.206127
  0
LINE
  8
0
  6
CONTINUOUS
 62
     3
 10
-46.707417
 20
-6.6761427
 11
-45.207417
 21
-6.6761427
  0
LINE
  8
0
  6
CONTINUOUS
 62
     3
 10
-45.207417
 20
85.323746
 11
-45.207417
 21
84.223755
  0
LINE
  8
0
  6
CONTINUOUS
 62
     3
 10
-21.707415
 20
-6.6761427
 11
-23.207415
 21
-6.6761427
  0
LINE
  8
0
  6
CONTINUOUS
 62
     3
 10
-23.207415
 20
85.922966
 11
-23.207415
 21
35.823856
  0
LINE
  8
0
  6
CONTINUOUS
 62
     3
 10
-45.20742
 20
-14.576029
 11
-23.807417
 21
-14.575271
  0
LINE
  8
0
  6
CONTINUOUS
 62
     3
 10
-23.807413
 20
-14.575271
 11
-23.807413
 21
-15.675271
  0
LINE
  8
0
  6
CONTINUOUS
 62
     3
 10
-45.207458
 20
62.973988
 11
-36.70187
 21
73.157745
  0
LINE
  8
0
  6
CONTINUOUS
 62
     3
 10
-43.707417
 20
62.429958
 11
-43.707417
 21
53.674023
  0
LINE
  8
0
  6
CONTINUOUS
 62
     3
 10
-43.707443
 20
62.429989
 11
-37.284439
 21
70.120262
  0
LINE
  8
0
  6
CONTINUOUS
 62
     3
 10
-24.707415
 20
62.429958
 11
-24.707415
 21
53.674023
  0
LINE
  8
0
  6
CONTINUOUS
 62
     3
 10
-24.707417
 20
62.429947
 11
-31.130417
 21
70.120216
  0
LINE
  8
0
  6
CONTINUOUS
 62
     3
 10
-23.207375
 20
62.97398
 11
-31.712973
 21
73.157753
  0
LINE
  8
0
  6
CONTINUOUS
 62
     3
 10
-35.598484
 20
68.725739
 11
-34.957451
 21
69.493248
  0
LINE
  8
0
  6
CONTINUOUS
 62
     3
 10
-32.816357
 20
68.725716
 11
-33.457394
 21
69.493225
  0
LINE
  8
0
  6
CONTINUOUS
 62
     3
 10
-33.457417
 20
80.324364
 11
-33.457417
 21
74.236641
  0
LINE
  8
0
  6
CONTINUOUS
 62
     3
 10
-34.957417
 20
80.324364
 11
-34.957417
 21
74.236641
  0
LINE
  8
0
  6
CONTINUOUS
 62
     3
 10
-34.957417
 20
80.324364
 11
-33.457417
 21
80.324364
  0
LINE
  8
0
  6
CONTINUOUS
 62
     3
 10
-45.207417
 20
-13.576029
 11
-23.207417
 21
-13.57525
  0
LINE
  8
0
  6
CENTER
 62
     7
 10
-41.707417
 20
71.074364
 11
-26.707415
 21
71.074364
  0
LINE
  8
0
  6
CONTINUOUS
 62
     3
 10
-45.207424
 20
-4.2760253
 11
-36.701836
 21
5.9077291
  0
LINE
  8
0
  6
CONTINUOUS
 62
     3
 10
-43.707417
 20
-4.8200388
 11
-43.707417
 21
-13.575975
  0
LINE
  8
0
  6
CONTINUOUS
 62
     3
 10
-43.707432
 20
-4.8200336
 11
-37.28442
 21
2.8702455
  0
LINE
  8
0
  6
CONTINUOUS
 62
     3
 10
-24.707415
 20
-4.8200388
 11
-24.707415
 21
-13.575975
  0
LINE
  8
0
  6
CONTINUOUS
 62
     3
 10
-24.707418
 20
-4.8200388
 11
-31.130432
 21
2.8702466
  0
LINE
  8
0
  6
CONTINUOUS
 62
     3
 10
-23.207394
 20
-4.2760277
 11
-31.712978
 21
5.9077301
  0
LINE
  8
0
  6
CONTINUOUS
 62
     3
 10
-35.598461
 20
1.4757168
 11
-34.957428
 21
2.2432287
  0
LINE
  8
0
  6
CONTINUOUS
 62
     3
 10
-32.816368
 20
1.4757112
 11
-33.457405
 21
2.2432218
  0
LINE
  8
0
  6
CONTINUOUS
 62
     3
 10
-33.457417
 20
13.074361
 11
-33.457417
 21
6.9866381
  0
LINE
  8
0
  6
CONTINUOUS
 62
     3
 10
-34.957417
 20
13.074361
 11
-34.957417
 21
6.9866381
  0
LINE
  8
0
  6
CONTINUOUS
 62
     3
 10
-34.957417
 20
13.074361
 11
-33.457417
 21
13.074361
  0
LINE
  8
0
  6
CENTER
 62
     7
 10
-41.707417
 20
3.8243611
 11
-26.707415
 21
3.8243611
  0
LINE
  8
0
  6
CONTINUOUS
 62
     3
 10
-45.207428
 20
20.723976
 11
-36.701839
 21
30.90773
  0
LINE
  8
0
  6
CONTINUOUS
 62
     3
 10
-43.707417
 20
20.17996
 11
-43.707417
 21
11.424024
  0
LINE
  8
0
  6
CONTINUOUS
 62
     3
 10
-43.707424
 20
20.179977
 11
-37.28442
 21
27.870251
  0
LINE
  8
0
  6
CONTINUOUS
 62
     3
 10
-24.707415
 20
20.17996
 11
-24.707415
 21
11.424024
  0
LINE
  8
0
  6
CONTINUOUS
 62
     3
 10
-24.707422
 20
20.179968
 11
-31.130436
 21
27.870253
  0
LINE
  8
0
  6
CONTINUOUS
 62
     3
 10
-23.207378
 20
20.723976
 11
-31.712973
 21
30.907743
  0
LINE
  8
0
  6
CONTINUOUS
 62
     3
 10
-35.598461
 20
26.475721
 11
-34.957424
 21
27.243233
  0
LINE
  8
0
  6
CONTINUOUS
 62
     3
 10
-32.81636
 20
26.47571
 11
-33.457397
 21
27.243219
  0
LINE
  8
0
  6
CONTINUOUS
 62
     3
 10
-33.457417
 20
33.823856
 11
-33.457417
 21
31.986639
  0
LINE
  8
0
  6
CONTINUOUS
 62
     3
 10
-34.957417
 20
33.823856
 11
-34.957417
 21
31.986639
  0
LINE
  8
0
  6
CENTER
 62
     7
 10
-41.707417
 20
28.824362
 11
-26.707415
 21
28.824362
  0
LINE
  8
0
  6
CONTINUOUS
 62
     3
 10
-45.207443
 20
37.973976
 11
-36.701855
 21
48.15773
  0
LINE
  8
0
  6
CONTINUOUS
 62
     3
 10
-43.707417
 20
37.429958
 11
-43.707417
 21
35.823856
  0
LINE
  8
0
  6
CONTINUOUS
 62
     3
 10
-43.707451
 20
37.429989
 11
-37.284447
 21
45.120262
  0
LINE
  8
0
  6
CONTINUOUS
 62
     3
 10
-24.707415
 20
37.429958
 11
-24.707415
 21
35.823856
  0
LINE
  8
0
  6
CONTINUOUS
 62
     3
 10
-24.707418
 20
37.429955
 11
-31.130423
 21
45.120232
  0
LINE
  8
0
  6
CONTINUOUS
 62
     3
 10
-23.20738
 20
37.973984
 11
-31.712971
 21
48.157745
  0
LINE
  8
0
  6
CONTINUOUS
 62
     3
 10
-35.598469
 20
43.725719
 11
-34.957432
 21
44.493233
  0
LINE
  8
0
  6
CONTINUOUS
 62
     3
 10
-32.816357
 20
43.725719
 11
-33.457394
 21
44.493229
  0
LINE
  8
0
  6
CONTINUOUS
 62
     3
 10
-33.457417
 20
55.32436
 11
-33.457417
 21
49.236637
  0
LINE
  8
0
  6
CONTINUOUS
 62
     3
 10
-34.957417
 20
55.32436
 11
-34.957417
 21
49.236637
  0
LINE
  8
0
  6
CONTINUOUS
 62
     3
 10
-34.957417
 20
55.32436
 11
-33.457417
 21
55.32436
  0
LINE
  8
0
  6
CENTER
 62
     7
 10
-41.707417
 20
46.07436
 11
-26.707415
 21
46.07436
  0
LINE
  8
0
  6
CONTINUOUS
 62
     3
 10
-24.707415
 20
11.424024
 11
-23.207415
 21
11.424024
  0
LINE
  8
0
  6
CONTINUOUS
 62
     3
 10
-24.707415
 20
53.674023
 11
-23.207415
 21
53.674023
  0
LINE
  8
0
  6
CONTINUOUS
 62
     3
 10
-43.707417
 20
53.674023
 11
-45.207417
 21
53.674023
  0
LINE
  8
0
  6
CONTINUOUS
 62
     3
 10
-43.707417
 20
11.424024
 11
-45.207417
 21
11.424024
  0
LINE
  8
0
  6
CONTINUOUS
 62
     3
 10
-46.707417
 20
76.32386
 11
-45.207417
 21
76.32386
  0
LINE
  8
0
  6
CONTINUOUS
 62
     3
 10
-21.707415
 20
76.32386
 11
-23.207415
 21
76.32386
  0
LINE
  8
0
  6
CONTINUOUS
 62
     3
 10
-45.643574
 20
86.82386
 11
-42.207417
 21
86.82386
  0
LINE
  8
0
  6
CONTINUOUS
 62
     3
 10
-42.207417
 20
85.32386
 11
-42.207417
 21
86.82386
  0
LINE
  8
0
  6
CONTINUOUS
 62
     3
 10
-38.707417
 20
85.32386
 11
-38.707417
 21
96.82386
  0
LINE
  8
0
  6
CONTINUOUS
 62
     3
 10
-37.207417
 20
85.32386
 11
-37.207417
 21
96.82386
  0
LINE
  8
0
  6
CONTINUOUS
 62
     3
 10
-38.707417
 20
96.82386
 11
-37.207417
 21
96.82386
  0
LINE
  8
0
  6
CENTER
 62
     7
 10
-45.397877
 20
92.823761
 11
-17.612009
 21
92.822777
  0
LINE
  8
0
  6
CONTINUOUS
 62
     3
 10
-43.207417
 20
94.323677
 11
-38.707417
 21
94.323517
  0
LINE
  8
0
  6
CONTINUOUS
 62
     3
 10
-43.207417
 20
91.323677
 11
-38.707417
 21
91.323517
  0
LINE
  8
0
  6
CONTINUOUS
 62
     3
 10
-43.207417
 20
91.323677
 11
-43.207417
 21
94.323677
  0
LINE
  8
0
  6
CONTINUOUS
 62
     3
 10
-37.207413
 20
91.323463
 11
-22.157419
 21
91.322929
  0
LINE
  8
0
  6
CONTINUOUS
 62
     3
 10
-37.207409
 20
94.323471
 11
-23.416643
 21
94.322983
  0
LINE
  8
0
  6
CONTINUOUS
 62
     3
 10
-37.207417
 20
85.92347
 11
-23.207415
 21
85.922974
  0
LINE
  8
0
  6
CONTINUOUS
 62
     3
 10
-35.70742
 20
87.423401
 11
-22.692789
 21
87.422943
  0
LINE
  8
0
  6
CONTINUOUS
 62
     3
 10
-35.707417
 20
87.423409
 11
-35.707417
 21
88.923409
  0
LINE
  8
0
  6
CONTINUOUS
 62
     3
 10
-35.707424
 20
88.923401
 11
-23.973246
 21
88.922989
  0
LINE
  8
0
  6
CONTINUOUS
 62
     3
 10
-37.207417
 20
90.423462
 11
-32.707417
 21
90.423302
  0
LINE
  8
0
  6
CONTINUOUS
 62
     3
 10
-32.707417
 20
88.923302
 11
-32.707417
 21
90.423302
  0
LINE
  8
0
  6
CONTINUOUS
 62
     3
 10
-23.33285
 20
96.322975
 11
-21.832376
 21
96.322914
  0
LINE
  8
0
  6
CONTINUOUS
 62
     3
 10
-22.188063
 20
94.822922
 11
-21.887701
 21
94.822906
  0
LINE
  8
0
  6
CONTINUOUS
 62
     3
 10
-21.954693
 20
102.08791
 11
-20.616858
 21
102.32381
  0
LINE
  8
0
  6
CONTINUOUS
 62
     3
 10
-48.407413
 20
96.849258
 11
-46.834095
 21
101.91592
  0
LINE
  8
0
  6
CONTINUOUS
 62
     3
 10
-49.90741
 20
96.657219
 11
-48.147778
 21
102.32386
  0
LINE
  8
0
  6
CONTINUOUS
 62
     3
 10
-46.83411
 20
101.91595
 11
-48.147781
 21
102.32387
  0
LINE
  8
0
  6
CONTINUOUS
 62
     3
 10
-23.807413
 20
84.222992
 11
-23.807413
 21
85.323746
  0
LINE
  8
0
  6
CONTINUOUS
 62
     3
 10
-45.207413
 20
83.223747
 11
-23.207411
 21
83.222961
  0
LINE
  8
0
  6
CONTINUOUS
 62
     3
 10
-45.207417
 20
85.323746
 11
-23.807413
 21
85.323746
  0
LINE
  8
0
  6
CONTINUOUS
 62
     3
 10
-45.207417
 20
83.223755
 11
-45.207417
 21
35.823856
  0
LINE
  8
0
  6
CONTINUOUS
 62
     3
 10
-27.707415
 20
85.922966
 11
-27.707415
 21
85.323128
  0
LINE
  8
0
  6
CONTINUOUS
 62
     3
 10
-23.447859
 20
93.822983
 11
-22.24526
 21
93.822937
  0
LINE
  8
0
  6
CONTINUOUS
 62
     3
 10
-22.21464
 20
94.322937
 11
-21.914156
 21
94.322929
  0
LINE
  8
0
  6
CONTINUOUS
 62
     3
 10
-23.447855
 20
-24.175259
 11
-22.245256
 21
-24.175217
  0
LINE
  8
0
  6
CONTINUOUS
 62
     3
 10
-22.214645
 20
-24.675215
 11
-21.573265
 21
-24.675194
  0
LINE
  8
0
  6
CONTINUOUS
 62
     3
 10
-27.707415
 20
-15.675409
 11
-27.707415
 21
-16.27541
  0
LINE
  8
0
  6
CONTINUOUS
 62
     7
 10
-51.707417
 20
35.823856
 11
-16.707415
 21
35.823856
  0
LINE
  8
0
  6
CONTINUOUS
 62
     3
 10
-79.707413
 20
-20.175142
 11
-79.707413
 21
-23.17515
  0
LINE
  8
0
  6
CONTINUOUS
 62
     3
 10
-46.707417
 20
33.823856
 11
-46.707417
 21
-15.676059
  0
LINE
  8
0
  6
CONTINUOUS
 62
     3
 10
-45.207417
 20
33.823856
 11
-45.207417
 21
-13.576029
  0
LINE
  8
0
  6
CONTINUOUS
 62
     3
 10
-23.207415
 20
33.823856
 11
-23.207415
 21
-16.275249
  0
LINE
  8
0
  6
CONTINUOUS
 62
     3
 10
-21.707415
 20
33.823856
 11
-21.707415
 21
-16.205183
  0
LINE
  8
0
  6
CONTINUOUS
 62
     3
 10
-105.20741
 20
-15.076029
 11
-105.20741
 21
-15.676029
  0
LINE
  8
0
  6
CONTINUOUS
 62
     3
 10
-45.207417
 20
-14.576029
 11
-45.207417
 21
-15.676083
  0
LINE
  8
0
  6
CONTINUOUS
 62
     3
 10
-95.707405
 20
-18.475693
 11
-82.732384
 21
-18.475233
  0
LINE
  8
0
  6
CENTER
 62
     7
 10
-109.06096
 20
40.82436
 11
-79.661484
 21
40.82436
  0
LINE
  8
0
  6
CONTINUOUS
 62
     3
 10
-103.70741
 20
36.424023
 11
-105.20741
 21
36.424023
  0
LINE
  8
0
  6
CONTINUOUS
 62
     3
 10
-45.207413
 20
84.223747
 11
-23.807411
 21
84.222984
  0
LINE
  8
0
  6
CONTINUOUS
 62
     3
 10
-80.207413
 20
-20.175152
 11
-81.707413
 21
-17.175196
  0
LINE
  8
0
  6
CONTINUOUS
 62
     3
 10
-80.715988
 20
-33.075348
 11
-80.207436
 21
-30.863396
  0
LINE
  8
0
  6
CONTINUOUS
 62
     3
 10
-81.660126
 20
-32.832485
 11
-81.207413
 21
-30.863424
  0
LINE
  8
0
  6
CONTINUOUS
 62
     3
 10
-81.207413
 20
-26.675198
 11
-81.207413
 21
-30.86342
  0
LINE
  8
0
  6
CONTINUOUS
 62
     3
 10
-81.20742
 20
-20.175175
 11
-82.732399
 21
-18.475227
  0
LINE
  8
0
  6
CONTINUOUS
 62
     3
 10
-84.707413
 20
11.424024
 11
-83.207413
 21
11.424024
  0
LINE
  8
0
  6
CONTINUOUS
 62
     3
 10
-103.70741
 20
20.17996
 11
-103.70741
 21
11.424024
  0
LINE
  8
0
  6
CONTINUOUS
 62
     3
 10
-103.70741
 20
11.424024
 11
-105.20741
 21
11.424024
  0
LINE
  8
0
  6
CONTINUOUS
 62
     3
 10
-80.207413
 20
-20.175142
 11
-80.207413
 21
-30.863396
  0
LINE
  8
0
  6
CONTINUOUS
 62
     3
 10
-107.41013
 20
-23.000174
 11
-107.41013
 21
-30.86342
  0
LINE
  8
0
  6
CONTINUOUS
 62
     3
 10
61.867519
 20
11.424024
 11
179.86752
 21
11.424024
  0
LINE
  8
0
  6
CONTINUOUS
 62
     3
 10
61.867519
 20
20.723974
 11
179.86752
 21
20.723974
  0
LINE
  8
0
  6
CONTINUOUS
 62
     3
 10
61.867519
 20
-4.2760305
 11
179.86752
 21
-4.2760305
  0
LINE
  8
0
  6
CONTINUOUS
 62
     3
 10
61.867519
 20
37.97398
 11
179.86752
 21
37.97398
  0
LINE
  8
0
  6
CONTINUOUS
 62
     3
 10
61.867519
 20
53.674023
 11
179.86752
 21
53.674023
  0
LINE
  8
0
  6
CONTINUOUS
 62
     3
 10
61.867519
 20
62.973972
 11
179.86752
 21
62.973972
  0
LINE
  8
0
  6
CONTINUOUS
 62
     3
 10
61.867519
 20
6.9866381
 11
179.86752
 21
6.9866381
  0
LINE
  8
0
  6
CONTINUOUS
 62
     3
 10
61.867519
 20
31.986639
 11
179.86752
 21
31.986639
  0
LINE
  8
0
  6
CONTINUOUS
 62
     3
 10
61.867519
 20
49.236637
 11
179.86752
 21
49.236637
  0
LINE
  8
0
  6
CONTINUOUS
 62
     3
 10
61.867519
 20
74.236641
 11
179.86752
 21
74.236641
  0
LINE
  8
0
  6
CONTINUOUS
 62
     3
 10
-79.707321
 20
-23.175125
 11
-80.207291
 21
-23.304905
  0
LINE
  8
0
  6
CONTINUOUS
 62
     3
 10
-79.70742
 20
-20.175125
 11
-80.20742
 21
-20.04538
  0
LINE
  8
0
  6
CONTINUOUS
 62
     7
 10
-51.707417
 20
33.823856
 11
-16.707415
 21
33.823856
  0
ARC
  8
0
  6
CONTINUOUS
 62
     3
 10
-94.207413
 20
28.824362
 40
1.75
 50
295.37694
 51
244.62306
  0
ARC
  8
0
  6
CONTINUOUS
 62
     3
 10
-94.207413
 20
28.824362
 40
3.25
 50
103.34237
 51
140.13103
  0
ARC
  8
0
  6
CONTINUOUS
 62
     3
 10
-95.850525
 20
6.8603449
 40
6.1806383
 50
299.40054
 51
319.79083
  0
ARC
  8
0
  6
CONTINUOUS
 62
     3
 10
-94.207413
 20
3.8243611
 40
3.25
 50
103.34236
 51
140.13103
  0
ARC
  8
0
  6
CONTINUOUS
 62
     3
 10
-143.89189
 20
-28.231594
 40
61.078876
 50
1.4601027
 51
3.8078974
  0
ARC
  8
0
  6
CONTINUOUS
 62
     3
 10
-95.850525
 20
31.860346
 40
6.1806383
 50
299.40054
 51
319.79083
  0
ARC
  8
0
  6
CONTINUOUS
 62
     3
 10
-94.207413
 20
3.8243611
 40
3.25
 50
39.868949
 51
76.657635
  0
ARC
  8
0
  6
CONTINUOUS
 62
     3
 10
-144.39189
 20
-28.431595
 40
61.078876
 50
7.7687242
 51
8.4319854
  0
ARC
  8
0
  6
CONTINUOUS
 62
     3
 10
-143.89189
 20
-28.231594
 40
62.278877
 50
2.812962
 51
3.7344612
  0
ARC
  8
0
  6
CONTINUOUS
 62
     3
 10
-92.564301
 20
31.860346
 40
6.1806383
 50
220.20919
 51
240.59946
  0
ARC
  8
0
  6
CONTINUOUS
 62
     3
 10
-94.207413
 20
28.824362
 40
3.25
 50
39.868945
 51
76.657634
  0
ARC
  8
0
  6
CONTINUOUS
 62
     3
 10
-94.207413
 20
3.8243611
 40
1.75
 50
295.37693
 51
244.62306
  0
ARC
  8
0
  6
CONTINUOUS
 62
     3
 10
-117.84486
 20
-35.878036
 40
10
 50
14.425086
 51
26.68694
  0
ARC
  8
0
  6
CONTINUOUS
 62
     3
 10
-117.84486
 20
-35.878036
 40
11.5
 50
14.425091
 51
24.855803
  0
ARC
  8
0
  6
CONTINUOUS
 62
     3
 10
-92.564301
 20
6.8603449
 40
6.1806383
 50
220.20919
 51
240.59946
  0
ARC
  8
0
  6
CONTINUOUS
 62
     3
 10
-84.391891
 20
-28.231594
 40
61.078876
 50
1.4601027
 51
3.8078972
  0
ARC
  8
0
  6
CONTINUOUS
 62
     3
 10
-84.391891
 20
-28.231594
 40
61.078876
 50
6.1621151
 51
8.431986
  0
ARC
  8
0
  6
CONTINUOUS
 62
     3
 10
-84.391891
 20
-28.231594
 40
62.278877
 50
2.812962
 51
3.7344613
  0
ARC
  8
0
  6
CONTINUOUS
 62
     3
 10
-63.459766
 20
-28.455641
 40
42.01244
 50
353.76848
 51
14.727375
  0
ARC
  8
0
  6
CONTINUOUS
 62
     3
 10
-60.423542
 20
-24.176168
 40
10.891136
 50
344.92099
 51
15.07902
  0
ARC
  8
0
  6
CONTINUOUS
 62
     3
 10
-60.423542
 20
-24.176168
 40
12.391136
 50
345.86797
 51
11.364044
  0
ARC
  8
0
  6
CONTINUOUS
 62
     3
 10
-61.572041
 20
-11.018988
 40
15.577078
 50
318.48939
 51
342.60428
  0
ARC
  8
0
  6
CONTINUOUS
 62
     3
 10
-61.572041
 20
-11.018988
 40
17.077078
 50
321.13521
 51
338.86597
  0
ARC
  8
0
  6
CONTINUOUS
 62
     3
 10
-34.207417
 20
71.074364
 40
1.75
 50
295.37694
 51
244.62306
  0
ARC
  8
0
  6
CONTINUOUS
 62
     3
 10
-34.207417
 20
71.074364
 40
3.25
 50
39.868924
 51
76.657634
  0
ARC
  8
0
  6
CONTINUOUS
 62
     3
 10
-32.564304
 20
74.110344
 40
6.1806383
 50
220.20918
 51
240.59946
  0
ARC
  8
0
  6
CONTINUOUS
 62
     3
 10
-35.850529
 20
74.110344
 40
6.1806383
 50
299.40054
 51
319.79082
  0
ARC
  8
0
  6
CONTINUOUS
 62
     3
 10
-34.207417
 20
71.074364
 40
3.25
 50
103.34237
 51
140.13105
  0
ARC
  8
0
  6
CONTINUOUS
 62
     3
 10
-34.207417
 20
3.8243611
 40
1.75
 50
295.37693
 51
244.62306
  0
ARC
  8
0
  6
CONTINUOUS
 62
     3
 10
-34.207417
 20
3.8243611
 40
3.25
 50
39.868927
 51
76.657635
  0
ARC
  8
0
  6
CONTINUOUS
 62
     3
 10
-32.564304
 20
6.8603449
 40
6.1806383
 50
220.20919
 51
240.59946
  0
ARC
  8
0
  6
CONTINUOUS
 62
     3
 10
-35.850529
 20
6.8603449
 40
6.1806383
 50
299.40054
 51
319.79083
  0
ARC
  8
0
  6
CONTINUOUS
 62
     3
 10
-34.207417
 20
3.8243611
 40
3.25
 50
103.34236
 51
140.13103
  0
ARC
  8
0
  6
CONTINUOUS
 62
     3
 10
-34.207417
 20
28.824362
 40
1.75
 50
295.37694
 51
244.62306
  0
ARC
  8
0
  6
CONTINUOUS
 62
     3
 10
-34.207417
 20
28.824362
 40
3.25
 50
39.868924
 51
76.657634
  0
ARC
  8
0
  6
CONTINUOUS
 62
     3
 10
-32.564304
 20
31.860346
 40
6.1806383
 50
220.20919
 51
240.59946
  0
ARC
  8
0
  6
CONTINUOUS
 62
     3
 10
-35.850529
 20
31.860346
 40
6.1806383
 50
299.40054
 51
319.79083
  0
ARC
  8
0
  6
CONTINUOUS
 62
     3
 10
-34.207417
 20
28.824362
 40
3.25
 50
103.34237
 51
140.13103
  0
ARC
  8
0
  6
CONTINUOUS
 62
     3
 10
-34.207417
 20
46.07436
 40
1.75
 50
295.37694
 51
244.62306
  0
ARC
  8
0
  6
CONTINUOUS
 62
     3
 10
-34.207417
 20
46.07436
 40
3.25
 50
39.868924
 51
76.657634
  0
ARC
  8
0
  6
CONTINUOUS
 62
     3
 10
-32.564304
 20
49.11034
 40
6.1806383
 50
220.20918
 51
240.59946
  0
ARC
  8
0
  6
CONTINUOUS
 62
     3
 10
-35.850529
 20
49.11034
 40
6.1806383
 50
299.40054
 51
319.79082
  0
ARC
  8
0
  6
CONTINUOUS
 62
     3
 10
-34.207417
 20
46.07436
 40
3.25
 50
103.34237
 51
140.131
  0
ARC
  8
0
  6
CONTINUOUS
 62
     3
 10
-61.572041
 20
80.66671
 40
17.077078
 50
21.133962
 51
38.864729
  0
ARC
  8
0
  6
CONTINUOUS
 62
     3
 10
-84.391891
 20
97.879311
 40
63.92971
 50
348.67287
 51
3.9865034
  0
ARC
  8
0
  6
CONTINUOUS
 62
     3
 10
-84.391891
 20
97.879311
 40
61.078876
 50
356.1921
 51
358.53985
  0
ARC
  8
0
  6
CONTINUOUS
 62
     3
 10
-84.391891
 20
97.879311
 40
62.578876
 50
358.5748
 51
3.8562036
  0
ARC
  8
0
  6
CONTINUOUS
 62
     3
 10
-84.391891
 20
97.879311
 40
61.078876
 50
351.56796
 51
353.83783
  0
ARC
  8
0
  6
CONTINUOUS
 62
     3
 10
-84.391891
 20
97.879311
 40
62.278877
 50
356.26554
 51
357.18704
  0
ARC
  8
0
  6
CONTINUOUS
 62
     3
 10
-84.391891
 20
97.879311
 40
62.578876
 50
350.38122
 51
357.20053
  0
ARC
  8
0
  6
CONTINUOUS
 62
     3
 10
-60.423542
 20
93.823891
 40
10.891136
 50
344.92092
 51
15.078957
  0
ARC
  8
0
  6
CONTINUOUS
 62
     3
 10
-60.423542
 20
93.823891
 40
12.391136
 50
348.63589
 51
14.131987
  0
ARC
  8
0
  6
CONTINUOUS
 62
     3
 10
-61.572041
 20
80.66671
 40
15.577078
 50
17.395671
 51
41.51057
  0
ARC
  8
0
  6
CONTINUOUS
 62
     3
 10
-63.459766
 20
-28.455641
 40
43.51244
 50
353.63839
 51
16.352088
  0
POLYLINE
  8
0
  6
CONTINUOUS
 62
     3
 66
     1
 10
0
 20
0
  0
VERTEX
  8
0
  6
CONTINUOUS
 62
     3
 10
-98.707185
 20
-19.418625
 42
0.054202239
  0
VERTEX
  8
0
  6
CONTINUOUS
 62
     3
 10
-98.890276
 20
-19.68006
 42
0.05318514
  0
VERTEX
  8
0
  6
CONTINUOUS
 62
     3
 10
-99.006757
 20
-19.975163
 42
-0.0070836352
  0
VERTEX
  8
0
  6
CONTINUOUS
 62
     3
 10
-99.099437
 20
-20.279996
 42
0.045147744
  0
VERTEX
  8
0
  6
CONTINUOUS
 62
     3
 10
-99.172588
 20
-20.589616
 42
0.11204888
  0
VERTEX
  8
0
  6
CONTINUOUS
 62
     3
 10
-99.143238
 20
-20.904047
 42
0.045913875
  0
VERTEX
  8
0
  6
CONTINUOUS
 62
     3
 10
-99.014829
 20
-21.195096
 42
0.012965576
  0
VERTEX
  8
0
  6
CONTINUOUS
 62
     3
 10
-98.858855
 20
-21.473804
 42
0.029998411
  0
VERTEX
  8
0
  6
CONTINUOUS
 62
     3
 10
-98.680954
 20
-21.735943
 42
0
  0
SEQEND
  8
0
  6
CONTINUOUS
 62
     3
  0
POLYLINE
  8
0
  6
CONTINUOUS
 62
     3
 66
     1
 10
0
 20
0
  0
VERTEX
  8
0
  6
CONTINUOUS
 62
     3
 10
-98.707039
 20
-23.932972
 42
-0.054201934
  0
VERTEX
  8
0
  6
CONTINUOUS
 62
     3
 10
-98.890148
 20
-23.67155
 42
-0.053221566
  0
VERTEX
  8
0
  6
CONTINUOUS
 62
     3
 10
-99.006635
 20
-23.37645
 42
0.0071196088
  0
VERTEX
  8
0
  6
CONTINUOUS
 62
     3
 10
-99.099328
 20
-23.07163
 42
-0.045145959
  0
VERTEX
  8
0
  6
CONTINUOUS
 62
     3
 10
-99.172513
 20
-22.762018
 42
-0.11206049
  0
VERTEX
  8
0
  6
CONTINUOUS
 62
     3
 10
-99.143189
 20
-22.447585
 42
-0.045912953
  0
VERTEX
  8
0
  6
CONTINUOUS
 62
     3
 10
-99.014798
 20
-22.156528
 42
-0.012969328
  0
VERTEX
  8
0
  6
CONTINUOUS
 62
     3
 10
-98.858842
 20
-21.87781
 42
-0.029995399
  0
VERTEX
  8
0
  6
CONTINUOUS
 62
     3
 10
-98.680954
 20
-21.615654
 42
0
  0
SEQEND
  8
0
  6
CONTINUOUS
 62
     3
  0
TEXT
  8
0
  6
CONTINUOUS
 62
     7
 10
-102.75526
 20
-64.706142
 40
3
 41
1.106
  1
DA-107
  0
TEXT
  8
0
  6
CONTINUOUS
 62
     7
 10
-42.778917
 20
-64.706142
 40
3
 41
1.106
  1
DA-106
  0
INSERT
  8
0
  6
CONTINUOUS
 62
     7
  2
KOZU0014
 10
0
 20
0
  0
INSERT
  8
0
  6
CONTINUOUS
 62
     7
  2
KOZU0015
 10
0
 20
0
  0
INSERT
  8
0
  6
CONTINUOUS
 62
     7
  2
KOZU0016
 10
0
 20
0
  0
INSERT
  8
0
  6
CONTINUOUS
 62
     7
  2
KOZU0017
 10
0
 20
0
  0
INSERT
  8
0
  6
CONTINUOUS
 62
     7
  2
KOZU0018
 10
0
 20
0
  0
INSERT
  8
0
  6
CONTINUOUS
 62
     7
  2
KOZU0019
 10
0
 20
0
  0
INSERT
  8
0
  6
CONTINUOUS
 62
     7
  2
KOZU0020
 10
0
 20
0
  0
INSERT
  8
0
  6
CONTINUOUS
 62
     7
  2
KOZU0021
 10
0
 20
0
  0
INSERT
  8
0
  6
CONTINUOUS
 62
     7
  2
KOZU0022
 10
0
 20
0
  0
INSERT
  8
0
  6
CONTINUOUS
 62
     7
  2
KOZU0023
 10
0
 20
0
  0
INSERT
  8
0
  6
CONTINUOUS
 62
     7
  2
KOZU0024
 10
0
 20
0
  0
INSERT
  8
0
  6
CONTINUOUS
 62
     7
  2
KOZU0025
 10
0
 20
0
  0
INSERT
  8
0
  6
CONTINUOUS
 62
     7
  2
KOZU0026
 10
0
 20
0
  0
INSERT
  8
0
  6
CONTINUOUS
 62
     7
  2
KOZU0027
 10
0
 20
0
  0
DIMENSION
  8
0
  6
CONTINUOUS
 62
     7
  2
*D22
 70
     0
 10
-6.7074156
 20
-15.675271
 11
-6.7074156
 21
-15.975261
  3
DIMSTYLE
 13
-23.207415
 23
-16.275249
 14
-23.339212
 24
-15.675271
 50
90
1001
ACAD
1000
DSTYLE
1002
{
1070
     6
1000
_NONE
1070
    77
1070
     1
1070
   172
1070
     1
1070
    75
1070
     1
1002
}
  0
DIMENSION
  8
0
  6
CONTINUOUS
 62
     7
  2
*D23
 70
     0
 10
205.86752
 20
-48.176144
 11
192.86752
 21
-48.176144
  3
DIMSTYLE
 13
179.86752
 23
-7.1761427
 14
205.86752
 24
-33.176144
 50
0
1001
ACAD
1000
DSTYLE
1002
{
1070
     6
1000
_NONE
1070
    77
1070
     1
1070
   172
1070
     1
1070
    75
1070
     1
1070
    76
1070
     1
1002
}
  0
DIMENSION
  8
0
  6
CONTINUOUS
 62
     7
  2
*D24
 70
     0
 10
20.867521
 20
102.32386
 11
20.867521
 21
34.573856
  3
DIMSTYLE
 13
35.867519
 23
-33.176144
 14
35.867519
 24
102.32386
 50
90
1001
ACAD
1000
DSTYLE
1002
{
1070
    77
1070
     1
1070
   172
1070
     1
1002
}
  0
DIMENSION
  8
0
  6
CONTINUOUS
 62
     7
  2
*D25
 70
     0
 10
-6.7074156
 20
-16.275249
 11
-6.7074156
 21
-24.511101
  3
DIMSTYLE
 13
-20.215258
 23
-33.276951
 14
-23.207415
 24
-16.275249
 50
90
1001
ACAD
1000
DSTYLE
1002
{
1070
    77
1070
     1
1070
   172
1070
     1
1002
}
  0
DIMENSION
  8
0
  6
CONTINUOUS
 62
     7
  2
*D26
 70
     0
 10
179.86752
 20
-48.176144
 11
120.86752
 21
-48.176144
  3
DIMSTYLE
 13
61.867519
 23
-7.1761427
 14
179.86752
 24
-33.176144
 50
0
1001
ACAD
1000
DSTYLE
1002
{
1070
     6
1000
_NONE
1070
    77
1070
     1
1070
   172
1070
     1
1070
    75
1070
     1
1002
}
  0
DIMENSION
  8
0
  6
CONTINUOUS
 62
     7
  2
*D27
 70
     0
 10
61.867519
 20
-48.176144
 11
48.867519
 21
-48.176144
  3
DIMSTYLE
 13
35.867519
 23
-33.176144
 14
61.867519
 24
-33.176144
 50
0
1001
ACAD
1000
DSTYLE
1002
{
1070
    77
1070
     1
1070
   172
1070
     1
1070
    75
1070
     1
1002
}
  0
DIMENSION
  8
0
  6
CONTINUOUS
 62
     7
  2
*D28
 70
     0
 10
-80.207413
 20
-48.206142
 11
-74.578262
 21
-48.206142
  3
DIMSTYLE
 13
-81.660126
 23
-32.832485
 14
-80.207413
 24
-30.863396
 50
0
1001
ACAD
1000
DSTYLE
1002
{
1070
    77
1070
     1
1070
   172
1070
     1
1070
    75
1070
     1
1002
}
  0
DIMENSION
  8
0
  6
CONTINUOUS
 62
     7
  2
*D29
 70
     0
 10
35.867519
 20
-63.176144
 11
120.86752
 21
-63.176144
  3
DIMSTYLE
 13
205.86752
 23
-33.176144
 14
35.867519
 24
-33.176144
 50
0
1001
ACAD
1000
DSTYLE
1002
{
1070
    77
1070
     1
1070
   172
1070
     1
1002
}
  0
DIMENSION
  8
0
  6
CONTINUOUS
 62
     7
  2
*D30
 70
     0
 10
-6.7074156
 20
3.8243611
 11
-6.7074156
 21
-5.925456
  3
DIMSTYLE
 13
-23.807413
 23
-15.675271
 14
-29.104433
 24
3.8243611
 50
90
1001
ACAD
1000
DSTYLE
1002
{
1070
     6
1000
_NONE
1070
    77
1070
     1
1070
   172
1070
     1
1070
    75
1070
     1
1002
}
  0
DIMENSION
  8
0
  6
CONTINUOUS
 62
     7
  2
*D31
 70
     0
 10
-20.215258
 20
-47.676144
 11
-14.854541
 21
-47.676144
  3
DIMSTYLE
 13
-21.707415
 23
-15.675184
 14
-20.215258
 24
-31.574934
 50
0
1001
ACAD
1000
DSTYLE
1002
{
1070
    77
1070
     1
1070
   172
1070
     1
1070
    75
1070
     1
1002
}
  0
DIMENSION
  8
0
  6
CONTINUOUS
 62
     7
  2
*D32
 70
     0
 10
220.86752
 20
102.32386
 11
220.86752
 21
89.32386
  3
DIMSTYLE
 13
179.86752
 23
76.32386
 14
205.86752
 24
102.32386
 50
90
1001
ACAD
1000
DSTYLE
1002
{
1070
     6
1000
_NONE
1070
    77
1070
     1
1070
   172
1070
     1
1070
    75
1070
     1
1002
}
  0
DIMENSION
  8
0
  6
CONTINUOUS
 62
     7
  2
*D33
 70
     0
 10
220.86752
 20
76.32386
 11
220.86752
 21
34.573856
  3
DIMSTYLE
 13
179.86752
 23
-7.1761427
 14
205.86752
 24
76.32386
 50
90
1001
ACAD
1000
DSTYLE
1002
{
1070
     6
1000
_NONE
1070
    77
1070
     1
1070
   172
1070
     1
1070
    75
1070
     1
1002
}
  0
DIMENSION
  8
0
  6
CONTINUOUS
 62
     7
  2
*D34
 70
     0
 10
220.86752
 20
-7.1761427
 11
220.86752
 21
-20.176142
  3
DIMSTYLE
 13
205.86752
 23
-33.176144
 14
205.86752
 24
-7.1761427
 50
90
1001
ACAD
1000
DSTYLE
1002
{
1070
    77
1070
     1
1070
   172
1070
     1
1002
}
  0
DIMENSION
  8
0
  6
CONTINUOUS
 62
     7
  2
*D35
 70
     0
 10
-6.7074156
 20
28.824362
 11
-6.7074156
 21
16.324362
  3
DIMSTYLE
 13
-26.707415
 23
3.8243611
 14
-29.702707
 24
28.824362
 50
90
1001
ACAD
1000
DSTYLE
1002
{
1070
     6
1000
_NONE
1070
    77
1070
     1
1070
   172
1070
     1
1070
    75
1070
     1
1002
}
  0
DIMENSION
  8
0
  6
CONTINUOUS
 62
     7
  2
*D36
 70
     0
 10
-46.707417
 20
-47.676144
 11
-56.742588
 21
-47.676144
  3
DIMSTYLE
 13
-49.907436
 23
-27.009506
 14
-46.707417
 24
-30.771393
 50
0
1001
ACAD
1000
DSTYLE
1002
{
1070
    77
1070
     1
1070
   172
1070
     1
1002
}
  0
DIMENSION
  8
0
  6
CONTINUOUS
 62
     7
  2
*D37
 70
     0
 10
-21.707415
 20
-47.676144
 11
-34.207417
 21
-47.676144
  3
DIMSTYLE
 13
-46.707417
 23
-15.676059
 14
-21.707415
 24
-31.355787
 50
0
1001
ACAD
1000
DSTYLE
1002
{
1070
    77
1070
     1
1070
   172
1070
     1
1070
    75
1070
     1
1002
}
  0
DIMENSION
  8
0
  6
CONTINUOUS
 62
     7
  2
*D38
 70
     0
 10
-106.70741
 20
-48.206142
 11
-114.8918
 21
-48.206142
  3
DIMSTYLE
 13
-108.20741
 23
-31.206131
 14
-106.70741
 24
-31.369696
 50
0
1001
ACAD
1000
DSTYLE
1002
{
1070
    77
1070
     1
1070
   172
1070
     1
1002
}
  0
DIMENSION
  8
0
  6
CONTINUOUS
 62
     7
  2
*D39
 70
     0
 10
-81.660126
 20
-48.206142
 11
-94.183762
 21
-48.206142
  3
DIMSTYLE
 13
-106.70741
 23
-33.013233
 14
-81.660126
 24
-32.832485
 50
0
1001
ACAD
1000
DSTYLE
1002
{
1070
    77
1070
     1
1070
   172
1070
     1
1002
}
  0
ENDBLK
  8
0
  0
BLOCK
  8
0
  2
KOZU0002
 70
    64
 10
0
 20
0
  0
LINE
  8
0
  6
CONTINUOUS
 62
     7
 10
-80.738029
 20
-57.836872
 11
-80.159485
 21
-57.258327
  0
LINE
  8
0
  6
CONTINUOUS
 62
     7
 10
-81.159485
 20
-56.911289
 11
-80.159485
 21
-55.911287
  0
LINE
  8
0
  6
CONTINUOUS
 62
     7
 10
-81.159485
 20
-55.56425
 11
-80.159485
 21
-54.564248
  0
LINE
  8
0
  6
CONTINUOUS
 62
     7
 10
-81.159485
 20
-54.21721
 11
-80.159485
 21
-53.217208
  0
LINE
  8
0
  6
CONTINUOUS
 62
     7
 10
-81.159485
 20
-52.87017
 11
-80.159485
 21
-51.870168
  0
LINE
  8
0
  6
CONTINUOUS
 62
     7
 10
-81.159485
 20
-51.52313
 11
-80.306752
 21
-50.670396
  0
LINE
  8
0
  6
CONTINUOUS
 62
     7
 10
-81.647465
 20
-50.664072
 11
-80.939036
 21
-49.955641
  0
LINE
  8
0
  6
CONTINUOUS
 62
     7
 10
-82.279749
 20
-49.949317
 11
-81.571319
 21
-49.240886
  0
LINE
  8
0
  6
CONTINUOUS
 62
     7
 10
-82.912032
 20
-49.234562
 11
-82.203602
 21
-48.52613
  0
LINE
  8
0
  6
CONTINUOUS
 62
     7
 10
-83.544316
 20
-48.519806
 11
-82.835886
 21
-47.811375
  0
LINE
  8
0
  6
CONTINUOUS
 62
     7
 10
-84.176599
 20
-47.805051
 11
-83.468169
 21
-47.09662
  0
LINE
  8
0
  6
CONTINUOUS
 62
     7
 10
-84.808882
 20
-47.090296
 11
-84.100453
 21
-46.381865
  0
LINE
  8
0
  6
CONTINUOUS
 62
     7
 10
-85.441166
 20
-46.375541
 11
-84.732736
 21
-45.66711
  0
LINE
  8
0
  6
CONTINUOUS
 62
     7
 10
-86.073449
 20
-45.660786
 11
-85.365019
 21
-44.952355
  0
LINE
  8
0
  6
CONTINUOUS
 62
     7
 10
-86.705733
 20
-44.946031
 11
-85.997303
 21
-44.2376
  0
LINE
  8
0
  6
CONTINUOUS
 62
     7
 10
-87.338016
 20
-44.231276
 11
-86.629586
 21
-43.522844
  0
LINE
  8
0
  6
CONTINUOUS
 62
     7
 10
-87.970299
 20
-43.51652
 11
-87.26187
 21
-42.808089
  0
LINE
  8
0
  6
CONTINUOUS
 62
     7
 10
-103.63766
 20
-57.836872
 11
-103.15948
 21
-57.358697
  0
LINE
  8
0
  6
CONTINUOUS
 62
     7
 10
-90.870415
 20
-45.069603
 11
-87.894153
 21
-42.093334
  0
LINE
  8
0
  6
CONTINUOUS
 62
     7
 10
-104.15948
 20
-57.011659
 11
-103.15948
 21
-56.011657
  0
LINE
  8
0
  6
CONTINUOUS
 62
     7
 10
-90.481465
 20
-43.333612
 11
-88.526436
 21
-41.378579
  0
LINE
  8
0
  6
CONTINUOUS
 62
     7
 10
-104.15948
 20
-55.664619
 11
-103.15948
 21
-54.664617
  0
LINE
  8
0
  6
CONTINUOUS
 62
     7
 10
-93.962315
 20
-45.467429
 11
-93.290167
 21
-44.795279
  0
LINE
  8
0
  6
CONTINUOUS
 62
     7
 10
-90.579447
 20
-42.084554
 11
-89.15872
 21
-40.663824
  0
LINE
  8
0
  6
CONTINUOUS
 62
     7
 10
-104.15948
 20
-54.317579
 11
-103.15948
 21
-53.317577
  0
LINE
  8
0
  6
CONTINUOUS
 62
     7
 10
-94.666935
 20
-44.82501
 11
-93.62903
 21
-43.787103
  0
LINE
  8
0
  6
CONTINUOUS
 62
     7
 10
-91.209257
 20
-41.367326
 11
-89.791003
 21
-39.949069
  0
LINE
  8
0
  6
CONTINUOUS
 62
     7
 10
-104.15948
 20
-52.970539
 11
-103.15948
 21
-51.970537
  0
LINE
  8
0
  6
CONTINUOUS
 62
     7
 10
-95.154015
 20
-43.965052
 11
-93.905331
 21
-42.716365
  0
LINE
  8
0
  6
CONTINUOUS
 62
     7
 10
-92.279996
 20
-41.091026
 11
-90.423287
 21
-39.234314
  0
LINE
  8
0
  6
CONTINUOUS
 62
     7
 10
-104.15948
 20
-51.6235
 11
-98.619138
 21
-46.083142
  0
LINE
  8
0
  6
CONTINUOUS
 62
     7
 10
-95.669914
 20
-43.133912
 11
-91.05557
 21
-38.519559
  0
LINE
  8
0
  6
CONTINUOUS
 62
     7
 10
-99.862925
 20
-45.979891
 11
-91.659485
 21
-37.776435
  0
LINE
  8
0
  6
CONTINUOUS
 62
     7
 10
-92.659485
 20
-37.429397
 11
-91.659485
 21
-36.429395
  0
LINE
  8
0
  6
CONTINUOUS
 62
     7
 10
-92.659485
 20
-36.082357
 11
-91.659485
 21
-35.082355
  0
LINE
  8
0
  6
CONTINUOUS
 62
     7
 10
-92.659485
 20
-34.735317
 11
-91.659485
 21
-33.735315
  0
LINE
  8
0
  6
CONTINUOUS
 62
     7
 10
-92.659485
 20
-33.388278
 11
-91.659485
 21
-32.388276
  0
LINE
  8
0
  6
CONTINUOUS
 62
     7
 10
-92.659485
 20
-32.041238
 11
-91.718837
 21
-31.100589
  0
ENDBLK
  8
0
  0
BLOCK
  8
0
  2
KOZU0003
 70
    64
 10
0
 20
0
  0
LINE
  8
0
  6
CONTINUOUS
 62
     7
 10
-79.159485
 20
-54.186988
 11
-79.809602
 21
-53.536873
  0
LINE
  8
0
  6
CONTINUOUS
 62
     7
 10
-79.159485
 20
-55.534025
 11
-80.159485
 21
-54.534027
  0
LINE
  8
0
  6
CONTINUOUS
 62
     7
 10
-79.159485
 20
-56.881062
 11
-80.159485
 21
-55.881064
  0
LINE
  8
0
  6
CONTINUOUS
 62
     7
 10
-79.159485
 20
-58.2281
 11
-80.159485
 21
-57.228102
  0
LINE
  8
0
  6
CONTINUOUS
 62
     7
 10
-79.159485
 20
-59.575137
 11
-80.159485
 21
-58.575139
  0
LINE
  8
0
  6
CONTINUOUS
 62
     7
 10
-79.159485
 20
-60.922174
 11
-80.159485
 21
-59.922176
  0
LINE
  8
0
  6
CONTINUOUS
 62
     7
 10
-79.159485
 20
-62.269211
 11
-80.346405
 21
-61.082293
  0
LINE
  8
0
  6
CONTINUOUS
 62
     7
 10
-81.659485
 20
-59.769216
 11
-82.89183
 21
-58.536873
  0
LINE
  8
0
  6
CONTINUOUS
 62
     7
 10
-80.438863
 20
-62.336872
 11
-82.659485
 21
-60.116255
  0
LINE
  8
0
  6
CONTINUOUS
 62
     7
 10
-83.238868
 20
-59.536873
 11
-84.23887
 21
-58.536873
  0
LINE
  8
0
  6
CONTINUOUS
 62
     7
 10
-81.785903
 20
-62.336872
 11
-82.785905
 21
-61.336872
  0
LINE
  8
0
  6
CONTINUOUS
 62
     7
 10
-84.585908
 20
-59.536873
 11
-85.58591
 21
-58.536873
  0
LINE
  8
0
  6
CONTINUOUS
 62
     7
 10
-83.132943
 20
-62.336872
 11
-84.132945
 21
-61.336872
  0
LINE
  8
0
  6
CONTINUOUS
 62
     7
 10
-85.932948
 20
-59.536873
 11
-86.93295
 21
-58.536873
  0
LINE
  8
0
  6
CONTINUOUS
 62
     7
 10
-84.479983
 20
-62.336872
 11
-85.159485
 21
-61.657371
  0
LINE
  8
0
  6
CONTINUOUS
 62
     7
 10
-87.279988
 20
-59.536873
 11
-88.27999
 21
-58.536873
  0
LINE
  8
0
  6
CONTINUOUS
 62
     7
 10
-88.627027
 20
-59.536873
 11
-89.627029
 21
-58.536873
  0
LINE
  8
0
  6
CONTINUOUS
 62
     7
 10
-89.974067
 20
-59.536873
 11
-90.974069
 21
-58.536873
  0
LINE
  8
0
  6
CONTINUOUS
 62
     7
 10
-91.321107
 20
-59.536873
 11
-92.321109
 21
-58.536873
  0
LINE
  8
0
  6
CONTINUOUS
 62
     7
 10
-92.668147
 20
-59.536873
 11
-93.668149
 21
-58.536873
  0
LINE
  8
0
  6
CONTINUOUS
 62
     7
 10
-94.015187
 20
-59.536873
 11
-95.015189
 21
-58.536873
  0
LINE
  8
0
  6
CONTINUOUS
 62
     7
 10
-95.362226
 20
-59.536873
 11
-96.362228
 21
-58.536873
  0
LINE
  8
0
  6
CONTINUOUS
 62
     7
 10
-96.709266
 20
-59.536873
 11
-97.709268
 21
-58.536873
  0
LINE
  8
0
  6
CONTINUOUS
 62
     7
 10
-98.056306
 20
-59.536873
 11
-99.056308
 21
-58.536873
  0
LINE
  8
0
  6
CONTINUOUS
 62
     7
 10
-99.403346
 20
-59.536873
 11
-100.40335
 21
-58.536873
  0
LINE
  8
0
  6
CONTINUOUS
 62
     7
 10
-104.15948
 20
-54.780743
 11
-105.15948
 21
-53.780745
  0
LINE
  8
0
  6
CONTINUOUS
 62
     7
 10
-100.75039
 20
-59.536873
 11
-101.75039
 21
-58.536873
  0
LINE
  8
0
  6
CONTINUOUS
 62
     7
 10
-104.15948
 20
-56.12778
 11
-105.15948
 21
-55.127782
  0
LINE
  8
0
  6
CONTINUOUS
 62
     7
 10
-102.09743
 20
-59.536873
 11
-103.09743
 21
-58.536873
  0
LINE
  8
0
  6
CONTINUOUS
 62
     7
 10
-104.15948
 20
-57.474817
 11
-105.15948
 21
-56.474819
  0
LINE
  8
0
  6
CONTINUOUS
 62
     7
 10
-103.44447
 20
-59.536873
 11
-105.18989
 21
-57.791452
  0
LINE
  8
0
  6
CONTINUOUS
 62
     7
 10
-101.9915
 20
-62.336872
 11
-102.9915
 21
-61.336872
  0
LINE
  8
0
  6
CONTINUOUS
 62
     7
 10
-104.15948
 20
-60.168892
 11
-105.31782
 21
-59.010561
  0
LINE
  8
0
  6
CONTINUOUS
 62
     7
 10
-103.33854
 20
-62.336872
 11
-105.52912
 21
-60.1463
  0
LINE
  8
0
  6
CONTINUOUS
 62
     7
 10
-104.68558
 20
-62.336872
 11
-105.81143
 21
-61.211027
  0
LINE
  8
0
  6
CONTINUOUS
 62
     7
 10
-105.38688
 20
-62.982611
 11
-106.15615
 21
-62.213347
  0
LINE
  8
0
  6
CONTINUOUS
 62
     7
 10
-105.80738
 20
-63.909148
 11
-106.55709
 21
-63.15944
  0
LINE
  8
0
  6
CONTINUOUS
 62
     7
 10
-106.27519
 20
-64.788375
 11
-107.00975
 21
-64.053822
  0
LINE
  8
0
  6
CONTINUOUS
 62
     7
 10
-106.78768
 20
-65.622927
 11
-107.5108
 21
-64.899803
  0
LINE
  8
0
  6
CONTINUOUS
 62
     7
 10
-106.98133
 20
-66.776312
 11
-108.05787
 21
-65.699771
  0
LINE
  8
0
  6
CONTINUOUS
 62
     7
 10
-106.71439
 20
-68.390291
 11
-107.91222
 21
-67.192463
  0
LINE
  8
0
  6
CONTINUOUS
 62
     7
 10
-106.66215
 20
-69.78957
 11
-107.68659
 21
-68.765127
  0
LINE
  8
0
  6
CONTINUOUS
 62
     7
 10
-106.75453
 20
-71.044221
 11
-107.67514
 21
-70.12361
  0
LINE
  8
0
  6
CONTINUOUS
 62
     7
 10
-106.95633
 20
-72.189458
 11
-107.80792
 21
-71.33787
  0
LINE
  8
0
  6
CONTINUOUS
 62
     7
 10
-107.24704
 20
-73.24579
 11
-108.05021
 21
-72.442617
  0
LINE
  8
0
  6
CONTINUOUS
 62
     7
 10
-106.7624
 20
-75.077459
 11
-108.31993
 21
-73.519934
  0
LINE
  8
0
  6
CONTINUOUS
 62
     7
 10
-106.11407
 20
-77.072829
 11
-107.6716
 21
-75.515304
  0
LINE
  8
0
  6
CONTINUOUS
 62
     7
 10
-105.15948
 20
-79.37445
 11
-107.02327
 21
-77.510674
  0
LINE
  8
0
  6
CONTINUOUS
 62
     7
 10
-106.3441
 20
-79.536873
 11
-106.37493
 21
-79.506044
  0
ENDBLK
  8
0
  0
BLOCK
  8
0
  2
KOZU0004
 70
    64
 10
0
 20
0
  0
LINE
  8
0
  6
CONTINUOUS
 62
     7
 10
-79.359482
 20
-79.357999
 11
-77.940419
 21
-77.938933
  0
LINE
  8
0
  6
CONTINUOUS
 62
     7
 10
-78.859482
 20
-76.837438
 11
-77.859482
 21
-75.837436
  0
LINE
  8
0
  6
CONTINUOUS
 62
     7
 10
-78.859482
 20
-74.816879
 11
-77.859482
 21
-73.816877
  0
LINE
  8
0
  6
CONTINUOUS
 62
     7
 10
-78.859482
 20
-72.796319
 11
-77.859482
 21
-71.796317
  0
LINE
  8
0
  6
CONTINUOUS
 62
     7
 10
-80.72059
 20
-72.636871
 11
-79.720592
 21
-71.636871
  0
LINE
  8
0
  6
CONTINUOUS
 62
     7
 10
-78.859482
 20
-70.77576
 11
-77.859482
 21
-69.775758
  0
LINE
  8
0
  6
CONTINUOUS
 62
     7
 10
-81.259483
 20
-71.155206
 11
-80.259483
 21
-70.155204
  0
LINE
  8
0
  6
CONTINUOUS
 62
     7
 10
-78.859482
 20
-68.7552
 11
-77.859482
 21
-67.755198
  0
LINE
  8
0
  6
CONTINUOUS
 62
     7
 10
-78.859482
 20
-66.73464
 11
-77.859482
 21
-65.734638
  0
LINE
  8
0
  6
CONTINUOUS
 62
     7
 10
-78.949306
 20
-64.803905
 11
-77.859482
 21
-63.714079
  0
LINE
  8
0
  6
CONTINUOUS
 62
     7
 10
-79.959582
 20
-63.793623
 11
-78.834838
 21
-62.668877
  0
LINE
  8
0
  6
CONTINUOUS
 62
     7
 10
-81.823386
 20
-63.636871
 11
-80.823388
 21
-62.636871
  0
LINE
  8
0
  6
CONTINUOUS
 62
     7
 10
-83.843942
 20
-63.636871
 11
-82.843944
 21
-62.636871
  0
LINE
  8
0
  6
CONTINUOUS
 62
     7
 10
-85.864497
 20
-63.636871
 11
-84.864499
 21
-62.636871
  0
LINE
  8
0
  6
CONTINUOUS
 62
     7
 10
-87.885053
 20
-63.636871
 11
-86.885055
 21
-62.636871
  0
LINE
  8
0
  6
CONTINUOUS
 62
     7
 10
-89.905608
 20
-63.636871
 11
-88.90561
 21
-62.636871
  0
LINE
  8
0
  6
CONTINUOUS
 62
     7
 10
-94.326161
 20
-66.036873
 11
-93.326163
 21
-65.036873
  0
LINE
  8
0
  6
CONTINUOUS
 62
     7
 10
-91.926164
 20
-63.636871
 11
-90.926166
 21
-62.636871
  0
LINE
  8
0
  6
CONTINUOUS
 62
     7
 10
-95.259483
 20
-64.949638
 11
-94.259483
 21
-63.949636
  0
LINE
  8
0
  6
CONTINUOUS
 62
     7
 10
-93.94672
 20
-63.636871
 11
-92.946722
 21
-62.636871
  0
LINE
  8
0
  6
CONTINUOUS
 62
     7
 10
-95.259483
 20
-62.929078
 11
-94.967277
 21
-62.636871
  0
LINE
  8
0
  6
CONTINUOUS
 62
     7
 10
-79.359482
 20
-78.684479
 11
-77.859482
 21
-77.184476
  0
LINE
  8
0
  6
CONTINUOUS
 62
     7
 10
-78.859482
 20
-76.163919
 11
-77.859482
 21
-75.163917
  0
LINE
  8
0
  6
CONTINUOUS
 62
     7
 10
-78.859482
 20
-74.143359
 11
-77.859482
 21
-73.143357
  0
LINE
  8
0
  6
CONTINUOUS
 62
     7
 10
-79.373553
 20
-72.636871
 11
-77.859482
 21
-71.122797
  0
LINE
  8
0
  6
CONTINUOUS
 62
     7
 10
-81.259483
 20
-72.502246
 11
-80.259483
 21
-71.502244
  0
LINE
  8
0
  6
CONTINUOUS
 62
     7
 10
-78.859482
 20
-70.10224
 11
-77.859482
 21
-69.102238
  0
LINE
  8
0
  6
CONTINUOUS
 62
     7
 10
-81.259483
 20
-70.481686
 11
-80.914669
 21
-70.136871
  0
LINE
  8
0
  6
CONTINUOUS
 62
     7
 10
-78.859482
 20
-68.08168
 11
-77.859482
 21
-67.081678
  0
LINE
  8
0
  6
CONTINUOUS
 62
     7
 10
-78.859482
 20
-66.06112
 11
-77.859482
 21
-65.061118
  0
LINE
  8
0
  6
CONTINUOUS
 62
     7
 10
-79.286065
 20
-64.467145
 11
-78.213845
 21
-63.394922
  0
LINE
  8
0
  6
CONTINUOUS
 62
     7
 10
-80.476349
 20
-63.636871
 11
-79.476351
 21
-62.636871
  0
LINE
  8
0
  6
CONTINUOUS
 62
     7
 10
-82.496904
 20
-63.636871
 11
-81.496906
 21
-62.636871
  0
LINE
  8
0
  6
CONTINUOUS
 62
     7
 10
-84.51746
 20
-63.636871
 11
-83.517462
 21
-62.636871
  0
LINE
  8
0
  6
CONTINUOUS
 62
     7
 10
-86.538016
 20
-63.636871
 11
-85.538018
 21
-62.636871
  0
LINE
  8
0
  6
CONTINUOUS
 62
     7
 10
-88.558571
 20
-63.636871
 11
-87.558573
 21
-62.636871
  0
LINE
  8
0
  6
CONTINUOUS
 62
     7
 10
-92.979124
 20
-66.036873
 11
-92.759483
 21
-65.817232
  0
LINE
  8
0
  6
CONTINUOUS
 62
     7
 10
-90.579127
 20
-63.636871
 11
-89.579129
 21
-62.636871
  0
LINE
  8
0
  6
CONTINUOUS
 62
     7
 10
-94.999679
 20
-66.036873
 11
-93.999681
 21
-65.036873
  0
LINE
  8
0
  6
CONTINUOUS
 62
     7
 10
-92.599683
 20
-63.636871
 11
-91.599685
 21
-62.636871
  0
LINE
  8
0
  6
CONTINUOUS
 62
     7
 10
-95.259483
 20
-64.276118
 11
-93.62024
 21
-62.636871
  0
ENDBLK
  8
0
  0
BLOCK
  8
0
  2
KOZU0005
 70
    64
 10
0
 20
0
  0
LINE
  8
0
  6
CONTINUOUS
 62
     7
 10
-80.486667
 20
11.11352
 11
-80.159485
 21
11.440703
  0
LINE
  8
0
  6
CONTINUOUS
 62
     7
 10
-81.159485
 20
11.78774
 11
-80.159485
 21
12.787742
  0
LINE
  8
0
  6
CONTINUOUS
 62
     7
 10
-81.159485
 20
13.13478
 11
-80.159485
 21
14.134782
  0
LINE
  8
0
  6
CONTINUOUS
 62
     7
 10
-81.159485
 20
14.48182
 11
-80.159485
 21
15.481822
  0
LINE
  8
0
  6
CONTINUOUS
 62
     7
 10
-81.159485
 20
15.82886
 11
-80.159485
 21
16.828862
  0
LINE
  8
0
  6
CONTINUOUS
 62
     7
 10
-81.159485
 20
17.1759
 11
-80.188766
 21
18.14662
  0
LINE
  8
0
  6
CONTINUOUS
 62
     7
 10
-81.52948
 20
18.152943
 11
-80.82105
 21
18.861375
  0
LINE
  8
0
  6
CONTINUOUS
 62
     7
 10
-82.161763
 20
18.867699
 11
-81.453333
 21
19.57613
  0
LINE
  8
0
  6
CONTINUOUS
 62
     7
 10
-82.794046
 20
19.582454
 11
-82.085616
 21
20.290886
  0
LINE
  8
0
  6
CONTINUOUS
 62
     7
 10
-83.42633
 20
20.297209
 11
-82.7179
 21
21.005641
  0
LINE
  8
0
  6
CONTINUOUS
 62
     7
 10
-84.058613
 20
21.011965
 11
-83.350183
 21
21.720396
  0
LINE
  8
0
  6
CONTINUOUS
 62
     7
 10
-84.690896
 20
21.72672
 11
-83.982466
 21
22.435151
  0
LINE
  8
0
  6
CONTINUOUS
 62
     7
 10
-85.323179
 20
22.441475
 11
-84.61475
 21
23.149906
  0
LINE
  8
0
  6
CONTINUOUS
 62
     7
 10
-85.955463
 20
23.156231
 11
-85.247033
 21
23.864661
  0
LINE
  8
0
  6
CONTINUOUS
 62
     7
 10
-86.587746
 20
23.870986
 11
-85.879317
 21
24.579416
  0
LINE
  8
0
  6
CONTINUOUS
 62
     7
 10
-87.220029
 20
24.585741
 11
-86.5116
 21
25.294172
  0
LINE
  8
0
  6
CONTINUOUS
 62
     7
 10
-87.852312
 20
25.300496
 11
-87.143883
 21
26.008927
  0
LINE
  8
0
  6
CONTINUOUS
 62
     7
 10
-103.3863
 20
11.11352
 11
-103.15948
 21
11.340333
  0
LINE
  8
0
  6
CONTINUOUS
 62
     7
 10
-90.77841
 20
23.721432
 11
-89.020258
 21
25.479588
  0
LINE
  8
0
  6
CONTINUOUS
 62
     7
 10
-88.695829
 20
25.804018
 11
-87.776167
 21
26.723682
  0
LINE
  8
0
  6
CONTINUOUS
 62
     7
 10
-104.15948
 20
11.687371
 11
-103.15948
 21
12.687373
  0
LINE
  8
0
  6
CONTINUOUS
 62
     7
 10
-90.70202
 20
25.144862
 11
-88.40845
 21
27.438437
  0
LINE
  8
0
  6
CONTINUOUS
 62
     7
 10
-104.15948
 20
13.034411
 11
-103.15948
 21
14.034413
  0
LINE
  8
0
  6
CONTINUOUS
 62
     7
 10
-90.506326
 20
26.687597
 11
-89.040734
 21
28.153192
  0
LINE
  8
0
  6
CONTINUOUS
 62
     7
 10
-104.15948
 20
14.38145
 11
-103.15948
 21
15.381452
  0
LINE
  8
0
  6
CONTINUOUS
 62
     7
 10
-94.552232
 20
23.988723
 11
-93.523624
 21
25.017333
  0
LINE
  8
0
  6
CONTINUOUS
 62
     7
 10
-91.063301
 20
27.477661
 11
-89.673017
 21
28.867947
  0
LINE
  8
0
  6
CONTINUOUS
 62
     7
 10
-104.15948
 20
15.72849
 11
-103.15948
 21
16.728492
  0
LINE
  8
0
  6
CONTINUOUS
 62
     7
 10
-95.080733
 20
24.807261
 11
-93.904638
 21
25.983358
  0
LINE
  8
0
  6
CONTINUOUS
 62
     7
 10
-92.029327
 20
27.858673
 11
-90.3053
 21
29.582702
  0
LINE
  8
0
  6
CONTINUOUS
 62
     7
 10
-104.15948
 20
17.07553
 11
-100.54629
 21
20.688731
  0
LINE
  8
0
  6
CONTINUOUS
 62
     7
 10
-95.493909
 20
25.741124
 11
-90.937584
 21
30.297458
  0
LINE
  8
0
  6
CONTINUOUS
 62
     7
 10
-101.79006
 20
20.791996
 11
-91.569867
 21
31.012213
  0
LINE
  8
0
  6
CONTINUOUS
 62
     7
 10
-92.659485
 20
31.269633
 11
-91.659485
 21
32.269635
  0
LINE
  8
0
  6
CONTINUOUS
 62
     7
 10
-92.659485
 20
32.616672
 11
-91.659485
 21
33.616674
  0
LINE
  8
0
  6
CONTINUOUS
 62
     7
 10
-92.659485
 20
33.963712
 11
-91.659485
 21
34.963714
  0
LINE
  8
0
  6
CONTINUOUS
 62
     7
 10
-92.659485
 20
35.310752
 11
-91.659485
 21
36.310754
  0
LINE
  8
0
  6
CONTINUOUS
 62
     7
 10
-92.659485
 20
36.657792
 11
-91.661292
 21
37.655987
  0
ENDBLK
  8
0
  0
BLOCK
  8
0
  2
KOZU0006
 70
    64
 10
0
 20
0
  0
LINE
  8
0
  6
CONTINUOUS
 62
     7
 10
-79.159485
 20
45.493758
 11
-79.379248
 21
45.71352
  0
LINE
  8
0
  6
CONTINUOUS
 62
     7
 10
-79.159485
 20
44.14672
 11
-80.726288
 21
45.71352
  0
LINE
  8
0
  6
CONTINUOUS
 62
     7
 10
-79.159485
 20
42.799683
 11
-80.159485
 21
43.799681
  0
LINE
  8
0
  6
CONTINUOUS
 62
     7
 10
-81.058394
 20
44.698589
 11
-82.073327
 21
45.71352
  0
LINE
  8
0
  6
CONTINUOUS
 62
     7
 10
-79.159485
 20
41.452646
 11
-80.159485
 21
42.452644
  0
LINE
  8
0
  6
CONTINUOUS
 62
     7
 10
-81.659485
 20
43.952641
 11
-83.420367
 21
45.71352
  0
LINE
  8
0
  6
CONTINUOUS
 62
     7
 10
-79.159485
 20
40.105609
 11
-80.159485
 21
41.105607
  0
LINE
  8
0
  6
CONTINUOUS
 62
     7
 10
-81.659485
 20
42.605604
 11
-82.659485
 21
43.605602
  0
LINE
  8
0
  6
CONTINUOUS
 62
     7
 10
-83.767405
 20
44.71352
 11
-84.767407
 21
45.71352
  0
LINE
  8
0
  6
CONTINUOUS
 62
     7
 10
-79.159485
 20
38.758572
 11
-80.159485
 21
39.75857
  0
LINE
  8
0
  6
CONTINUOUS
 62
     7
 10
-82.31444
 20
41.913521
 11
-83.314442
 21
42.913521
  0
LINE
  8
0
  6
CONTINUOUS
 62
     7
 10
-85.114445
 20
44.71352
 11
-85.159485
 21
44.75856
  0
LINE
  8
0
  6
CONTINUOUS
 62
     7
 10
-79.159485
 20
37.411535
 11
-80.159485
 21
38.411533
  0
LINE
  8
0
  6
CONTINUOUS
 62
     7
 10
-83.66148
 20
41.913521
 11
-84.661482
 21
42.913521
  0
LINE
  8
0
  6
CONTINUOUS
 62
     7
 10
-80.00851
 20
36.913521
 11
-80.159485
 21
37.064496
  0
LINE
  8
0
  6
CONTINUOUS
 62
     7
 10
-85.00852
 20
41.913521
 11
-86.008522
 21
42.913521
  0
LINE
  8
0
  6
CONTINUOUS
 62
     7
 10
-105.15948
 20
62.064446
 11
-106.00856
 21
62.913521
  0
LINE
  8
0
  6
CONTINUOUS
 62
     7
 10
-86.355559
 20
41.913521
 11
-87.355561
 21
42.913521
  0
LINE
  8
0
  6
CONTINUOUS
 62
     7
 10
-105.81426
 20
61.372187
 11
-106.60787
 21
62.165788
  0
LINE
  8
0
  6
CONTINUOUS
 62
     7
 10
-87.702599
 20
41.913521
 11
-88.702601
 21
42.913521
  0
LINE
  8
0
  6
CONTINUOUS
 62
     7
 10
-106.14461
 20
60.355493
 11
-106.93821
 21
61.149094
  0
LINE
  8
0
  6
CONTINUOUS
 62
     7
 10
-89.049639
 20
41.913521
 11
-90.049641
 21
42.913521
  0
LINE
  8
0
  6
CONTINUOUS
 62
     7
 10
-106.47495
 20
59.338798
 11
-107.26855
 21
60.1324
  0
LINE
  8
0
  6
CONTINUOUS
 62
     7
 10
-90.396679
 20
41.913521
 11
-91.396681
 21
42.913521
  0
LINE
  8
0
  6
CONTINUOUS
 62
     7
 10
-106.8053
 20
58.322104
 11
-107.5989
 21
59.115706
  0
LINE
  8
0
  6
CONTINUOUS
 62
     7
 10
-91.743719
 20
41.913521
 11
-92.743721
 21
42.913521
  0
LINE
  8
0
  6
CONTINUOUS
 62
     7
 10
-107.13564
 20
57.30541
 11
-107.92924
 21
58.099012
  0
LINE
  8
0
  6
CONTINUOUS
 62
     7
 10
-93.090758
 20
41.913521
 11
-94.09076
 21
42.913521
  0
LINE
  8
0
  6
CONTINUOUS
 62
     7
 10
-107.02332
 20
55.84606
 11
-108.25959
 21
57.082318
  0
LINE
  8
0
  6
CONTINUOUS
 62
     7
 10
-94.437798
 20
41.913521
 11
-95.4378
 21
42.913521
  0
LINE
  8
0
  6
CONTINUOUS
 62
     7
 10
-106.72917
 20
54.204868
 11
-107.95025
 21
55.425945
  0
LINE
  8
0
  6
CONTINUOUS
 62
     7
 10
-95.784838
 20
41.913521
 11
-96.78484
 21
42.913521
  0
LINE
  8
0
  6
CONTINUOUS
 62
     7
 10
-106.66013
 20
52.788794
 11
-107.6974
 21
53.826061
  0
LINE
  8
0
  6
CONTINUOUS
 62
     7
 10
-97.131878
 20
41.913521
 11
-98.13188
 21
42.913521
  0
LINE
  8
0
  6
CONTINUOUS
 62
     7
 10
-106.74043
 20
51.522056
 11
-107.66922
 21
52.450842
  0
LINE
  8
0
  6
CONTINUOUS
 62
     7
 10
-98.478918
 20
41.913521
 11
-99.47892
 21
42.913521
  0
LINE
  8
0
  6
CONTINUOUS
 62
     7
 10
-101.65948
 20
45.094082
 11
-102.27892
 21
45.71352
  0
LINE
  8
0
  6
CONTINUOUS
 62
     7
 10
-106.93273
 20
50.367314
 11
-107.78993
 21
51.224513
  0
LINE
  8
0
  6
CONTINUOUS
 62
     7
 10
-99.825957
 20
41.913521
 11
-100.82596
 21
42.913521
  0
LINE
  8
0
  6
CONTINUOUS
 62
     7
 10
-102.62596
 20
44.71352
 11
-103.62596
 21
45.71352
  0
LINE
  8
0
  6
CONTINUOUS
 62
     7
 10
-106.56764
 20
48.655194
 11
-108.02268
 21
50.11023
  0
LINE
  8
0
  6
CONTINUOUS
 62
     7
 10
-101.173
 20
41.913521
 11
-102.173
 21
42.913521
  0
LINE
  8
0
  6
CONTINUOUS
 62
     7
 10
-103.973
 20
44.71352
 11
-104.973
 21
45.71352
  0
LINE
  8
0
  6
CONTINUOUS
 62
     7
 10
-105.23177
 20
45.972288
 11
-107.46733
 21
48.207837
  0
LINE
  8
0
  6
CONTINUOUS
 62
     7
 10
-102.52004
 20
41.913521
 11
-103.52004
 21
42.913521
  0
LINE
  8
0
  6
CONTINUOUS
 62
     7
 10
-104.15948
 20
43.552965
 11
-106.13127
 21
45.524743
  0
LINE
  8
0
  6
CONTINUOUS
 62
     7
 10
-103.86708
 20
41.913521
 11
-105.54471
 21
43.591152
  0
LINE
  8
0
  6
CONTINUOUS
 62
     7
 10
-104.15948
 20
40.858891
 11
-105.26163
 21
41.96103
  0
LINE
  8
0
  6
CONTINUOUS
 62
     7
 10
-104.15948
 20
39.511854
 11
-105.16251
 21
40.51488
  0
LINE
  8
0
  6
CONTINUOUS
 62
     7
 10
-104.15948
 20
38.164817
 11
-105.15948
 21
39.164815
  0
LINE
  8
0
  6
CONTINUOUS
 62
     7
 10
-104.25523
 20
36.913521
 11
-105.15948
 21
37.817778
  0
ENDBLK
  8
0
  0
BLOCK
  8
0
  2
KOZU0007
 70
    64
 10
0
 20
0
  0
LINE
  8
0
  6
CONTINUOUS
 62
     7
 10
-79.56266
 20
45.71352
 11
-77.859482
 21
47.416702
  0
LINE
  8
0
  6
CONTINUOUS
 62
     7
 10
-81.583216
 20
45.71352
 11
-80.583218
 21
46.71352
  0
LINE
  8
0
  6
CONTINUOUS
 62
     7
 10
-78.859482
 20
48.43726
 11
-77.859482
 21
49.437262
  0
LINE
  8
0
  6
CONTINUOUS
 62
     7
 10
-83.603772
 20
45.71352
 11
-82.603774
 21
46.71352
  0
LINE
  8
0
  6
CONTINUOUS
 62
     7
 10
-78.859482
 20
50.457819
 11
-77.859482
 21
51.457821
  0
LINE
  8
0
  6
CONTINUOUS
 62
     7
 10
-85.624327
 20
45.71352
 11
-84.624329
 21
46.71352
  0
LINE
  8
0
  6
CONTINUOUS
 62
     7
 10
-78.859482
 20
52.478379
 11
-77.859482
 21
53.478381
  0
LINE
  8
0
  6
CONTINUOUS
 62
     7
 10
-87.644883
 20
45.71352
 11
-86.644885
 21
46.71352
  0
LINE
  8
0
  6
CONTINUOUS
 62
     7
 10
-78.859482
 20
54.498939
 11
-77.859482
 21
55.498941
  0
LINE
  8
0
  6
CONTINUOUS
 62
     7
 10
-89.665438
 20
45.71352
 11
-88.66544
 21
46.71352
  0
LINE
  8
0
  6
CONTINUOUS
 62
     7
 10
-81.259483
 20
54.119492
 11
-79.665458
 21
55.71352
  0
LINE
  8
0
  6
CONTINUOUS
 62
     7
 10
-78.859482
 20
56.519498
 11
-77.859482
 21
57.5195
  0
LINE
  8
0
  6
CONTINUOUS
 62
     7
 10
-91.685994
 20
45.71352
 11
-90.685996
 21
46.71352
  0
LINE
  8
0
  6
CONTINUOUS
 62
     7
 10
-78.859482
 20
58.540058
 11
-77.859482
 21
59.54006
  0
LINE
  8
0
  6
CONTINUOUS
 62
     7
 10
-93.70655
 20
45.71352
 11
-92.706552
 21
46.71352
  0
LINE
  8
0
  6
CONTINUOUS
 62
     7
 10
-78.859482
 20
60.560618
 11
-78.038494
 21
61.381607
  0
LINE
  8
0
  6
CONTINUOUS
 62
     7
 10
-95.259483
 20
46.181143
 11
-94.259483
 21
47.181145
  0
LINE
  8
0
  6
CONTINUOUS
 62
     7
 10
-93.327112
 20
48.113518
 11
-92.759483
 21
48.681148
  0
LINE
  8
0
  6
CONTINUOUS
 62
     7
 10
-79.359482
 20
62.081176
 11
-78.727139
 21
62.71352
  0
LINE
  8
0
  6
CONTINUOUS
 62
     7
 10
-95.259483
 20
48.201703
 11
-94.34767
 21
49.113518
  0
LINE
  8
0
  6
CONTINUOUS
 62
     7
 10
-80.236179
 20
45.71352
 11
-77.859482
 21
48.090222
  0
LINE
  8
0
  6
CONTINUOUS
 62
     7
 10
-82.256735
 20
45.71352
 11
-81.256737
 21
46.71352
  0
LINE
  8
0
  6
CONTINUOUS
 62
     7
 10
-78.859482
 20
49.11078
 11
-77.859482
 21
50.110782
  0
LINE
  8
0
  6
CONTINUOUS
 62
     7
 10
-84.27729
 20
45.71352
 11
-83.277292
 21
46.71352
  0
LINE
  8
0
  6
CONTINUOUS
 62
     7
 10
-78.859482
 20
51.131339
 11
-77.859482
 21
52.131341
  0
LINE
  8
0
  6
CONTINUOUS
 62
     7
 10
-86.297846
 20
45.71352
 11
-85.297848
 21
46.71352
  0
LINE
  8
0
  6
CONTINUOUS
 62
     7
 10
-78.859482
 20
53.151899
 11
-77.859482
 21
54.151901
  0
LINE
  8
0
  6
CONTINUOUS
 62
     7
 10
-88.318401
 20
45.71352
 11
-87.318403
 21
46.71352
  0
LINE
  8
0
  6
CONTINUOUS
 62
     7
 10
-80.818416
 20
53.21352
 11
-80.259483
 21
53.772454
  0
LINE
  8
0
  6
CONTINUOUS
 62
     7
 10
-79.318419
 20
54.71352
 11
-77.859482
 21
56.17246
  0
LINE
  8
0
  6
CONTINUOUS
 62
     7
 10
-90.338957
 20
45.71352
 11
-89.338959
 21
46.71352
  0
LINE
  8
0
  6
CONTINUOUS
 62
     7
 10
-81.259483
 20
54.793012
 11
-80.338977
 21
55.71352
  0
LINE
  8
0
  6
CONTINUOUS
 62
     7
 10
-78.859482
 20
57.193018
 11
-77.859482
 21
58.19302
  0
LINE
  8
0
  6
CONTINUOUS
 62
     7
 10
-92.359513
 20
45.71352
 11
-91.359515
 21
46.71352
  0
LINE
  8
0
  6
CONTINUOUS
 62
     7
 10
-78.859482
 20
59.213578
 11
-77.859482
 21
60.21358
  0
LINE
  8
0
  6
CONTINUOUS
 62
     7
 10
-94.380068
 20
45.71352
 11
-93.38007
 21
46.71352
  0
LINE
  8
0
  6
CONTINUOUS
 62
     7
 10
-79.359482
 20
60.734136
 11
-78.180825
 21
61.912795
  0
LINE
  8
0
  6
CONTINUOUS
 62
     7
 10
-95.259483
 20
46.854663
 11
-94.259483
 21
47.854665
  0
LINE
  8
0
  6
CONTINUOUS
 62
     7
 10
-94.000631
 20
48.113518
 11
-93.000633
 21
49.113518
  0
LINE
  8
0
  6
CONTINUOUS
 62
     7
 10
-95.259483
 20
48.875222
 11
-95.021188
 21
49.113518
  0
ENDBLK
  8
0
  0
BLOCK
  8
0
  2
KOZU0008
 70
    64
 10
0
 20
0
  0
LINE
  8
0
  6
CONTINUOUS
 62
     7
 10
-80.531574
 20
-9.1369848
 11
-80.159485
 21
-8.7648944
  0
LINE
  8
0
  6
CONTINUOUS
 62
     7
 10
-81.159485
 20
-8.4178567
 11
-80.159485
 21
-7.4178547
  0
LINE
  8
0
  6
CONTINUOUS
 62
     7
 10
-81.250778
 20
-7.1621107
 11
-80.542349
 21
-6.4536793
  0
LINE
  8
0
  6
CONTINUOUS
 62
     7
 10
-81.883062
 20
-6.4473554
 11
-81.174632
 21
-5.7389242
  0
LINE
  8
0
  6
CONTINUOUS
 62
     7
 10
-82.515345
 20
-5.7326002
 11
-81.806915
 21
-5.024169
  0
LINE
  8
0
  6
CONTINUOUS
 62
     7
 10
-83.147628
 20
-5.0178449
 11
-82.439199
 21
-4.3094139
  0
LINE
  8
0
  6
CONTINUOUS
 62
     7
 10
-83.779912
 20
-4.3030896
 11
-83.071482
 21
-3.5946588
  0
LINE
  8
0
  6
CONTINUOUS
 62
     7
 10
-84.412195
 20
-3.5883344
 11
-83.703766
 21
-2.8799036
  0
LINE
  8
0
  6
CONTINUOUS
 62
     7
 10
-85.044478
 20
-2.8735791
 11
-84.336049
 21
-2.1651485
  0
LINE
  8
0
  6
CONTINUOUS
 62
     7
 10
-85.676761
 20
-2.1588239
 11
-84.968332
 21
-1.4503933
  0
LINE
  8
0
  6
CONTINUOUS
 62
     7
 10
-86.309045
 20
-1.4440686
 11
-85.600616
 21
-0.73563819
  0
LINE
  8
0
  6
CONTINUOUS
 62
     7
 10
-86.941328
 20
-0.72931336
 11
-86.232899
 21
-0.020883054
  0
LINE
  8
0
  6
CONTINUOUS
 62
     7
 10
-87.573611
 20
-0.014558099
 11
-86.865182
 21
0.69387209
  0
LINE
  8
0
  6
CONTINUOUS
 62
     7
 10
-90.440064
 20
-1.5339765
 11
-89.382298
 21
-0.47620819
  0
LINE
  8
0
  6
CONTINUOUS
 62
     7
 10
-88.208035
 20
0.6980571
 11
-87.497466
 21
1.4086272
  0
LINE
  8
0
  6
CONTINUOUS
 62
     7
 10
-91.05413
 20
-0.80100469
 11
-88.129749
 21
2.1233824
  0
LINE
  8
0
  6
CONTINUOUS
 62
     7
 10
-90.411116
 20
1.1890512
 11
-88.762033
 21
2.8381375
  0
LINE
  8
0
  6
CONTINUOUS
 62
     7
 10
-94.253453
 20
-1.3062539
 11
-93.224484
 21
-0.27728283
  0
LINE
  8
0
  6
CONTINUOUS
 62
     7
 10
-90.769918
 20
2.1772876
 11
-89.394316
 21
3.5528926
  0
LINE
  8
0
  6
CONTINUOUS
 62
     7
 10
-103.43121
 20
-9.1369848
 11
-103.15948
 21
-8.8652639
  0
LINE
  8
0
  6
CONTINUOUS
 62
     7
 10
-94.874477
 20
-0.58023968
 11
-93.797276
 21
0.49696362
  0
LINE
  8
0
  6
CONTINUOUS
 62
     7
 10
-91.542933
 20
2.7513109
 11
-90.026599
 21
4.2676478
  0
LINE
  8
0
  6
CONTINUOUS
 62
     7
 10
-104.15948
 20
-8.5182261
 11
-103.15948
 21
-7.5182241
  0
LINE
  8
0
  6
CONTINUOUS
 62
     7
 10
-95.271787
 20
0.36948999
 11
-93.702882
 21
1.938398
  0
LINE
  8
0
  6
CONTINUOUS
 62
     7
 10
-92.984367
 20
2.6569136
 11
-90.658883
 21
4.9824029
  0
LINE
  8
0
  6
CONTINUOUS
 62
     7
 10
-104.15948
 20
-7.1711863
 11
-91.291166
 21
5.6971581
  0
LINE
  8
0
  6
CONTINUOUS
 62
     7
 10
-96.014789
 20
2.3205652
 11
-91.659485
 21
6.6758785
  0
LINE
  8
0
  6
CONTINUOUS
 62
     7
 10
-92.659485
 20
7.0229163
 11
-91.659485
 21
8.0229183
  0
LINE
  8
0
  6
CONTINUOUS
 62
     7
 10
-92.659485
 20
8.3699561
 11
-91.659485
 21
9.3699581
  0
LINE
  8
0
  6
CONTINUOUS
 62
     7
 10
-92.659485
 20
9.7169959
 11
-91.659485
 21
10.716998
  0
LINE
  8
0
  6
CONTINUOUS
 62
     7
 10
-92.659485
 20
11.064036
 11
-91.659485
 21
12.064038
  0
LINE
  8
0
  6
CONTINUOUS
 62
     7
 10
-92.659485
 20
12.411076
 11
-91.987539
 21
13.083023
  0
ENDBLK
  8
0
  0
BLOCK
  8
0
  2
KOZU0009
 70
    64
 10
0
 20
0
  0
LINE
  8
0
  6
CONTINUOUS
 62
     7
 10
-141.15948
 20
-57.641658
 11
-140.15948
 21
-56.641656
  0
LINE
  8
0
  6
CONTINUOUS
 62
     7
 10
-141.15948
 20
-56.294618
 11
-140.15948
 21
-55.294616
  0
LINE
  8
0
  6
CONTINUOUS
 62
     7
 10
-141.15948
 20
-54.947579
 11
-140.15948
 21
-53.947577
  0
LINE
  8
0
  6
CONTINUOUS
 62
     7
 10
-141.15948
 20
-53.600539
 11
-140.15948
 21
-52.600537
  0
LINE
  8
0
  6
CONTINUOUS
 62
     7
 10
-141.15948
 20
-52.253499
 11
-140.15948
 21
-51.253497
  0
LINE
  8
0
  6
CONTINUOUS
 62
     7
 10
-141.30464
 20
-51.051614
 11
-140.59621
 21
-50.343183
  0
LINE
  8
0
  6
CONTINUOUS
 62
     7
 10
-141.93692
 20
-50.336859
 11
-141.22849
 21
-49.628428
  0
LINE
  8
0
  6
CONTINUOUS
 62
     7
 10
-142.56921
 20
-49.622104
 11
-141.86078
 21
-48.913673
  0
LINE
  8
0
  6
CONTINUOUS
 62
     7
 10
-143.20149
 20
-48.907349
 11
-142.49306
 21
-48.198918
  0
LINE
  8
0
  6
CONTINUOUS
 62
     7
 10
-143.83377
 20
-48.192594
 11
-143.12534
 21
-47.484163
  0
LINE
  8
0
  6
CONTINUOUS
 62
     7
 10
-144.46606
 20
-47.477838
 11
-143.75763
 21
-46.769407
  0
LINE
  8
0
  6
CONTINUOUS
 62
     7
 10
-145.09834
 20
-46.763083
 11
-144.38991
 21
-46.054652
  0
LINE
  8
0
  6
CONTINUOUS
 62
     7
 10
-145.73062
 20
-46.048328
 11
-145.02219
 21
-45.339897
  0
LINE
  8
0
  6
CONTINUOUS
 62
     7
 10
-146.36291
 20
-45.333573
 11
-145.65448
 21
-44.625142
  0
LINE
  8
0
  6
CONTINUOUS
 62
     7
 10
-146.99519
 20
-44.618818
 11
-146.28676
 21
-43.910387
  0
LINE
  8
0
  6
CONTINUOUS
 62
     7
 10
-147.62747
 20
-43.904063
 11
-146.91904
 21
-43.195632
  0
LINE
  8
0
  6
CONTINUOUS
 62
     7
 10
-150.54289
 20
-45.472449
 11
-149.25895
 21
-44.188505
  0
LINE
  8
0
  6
CONTINUOUS
 62
     7
 10
-148.27295
 20
-43.202505
 11
-147.55133
 21
-42.480877
  0
LINE
  8
0
  6
CONTINUOUS
 62
     7
 10
-164.15948
 20
-57.742028
 11
-163.15948
 21
-56.742026
  0
LINE
  8
0
  6
CONTINUOUS
 62
     7
 10
-151.09614
 20
-44.678652
 11
-148.18361
 21
-41.766121
  0
LINE
  8
0
  6
CONTINUOUS
 62
     7
 10
-164.15948
 20
-56.394988
 11
-163.15948
 21
-55.394986
  0
LINE
  8
0
  6
CONTINUOUS
 62
     7
 10
-150.41901
 20
-42.65449
 11
-148.81589
 21
-41.051366
  0
LINE
  8
0
  6
CONTINUOUS
 62
     7
 10
-164.15948
 20
-55.047948
 11
-163.15948
 21
-54.047946
  0
LINE
  8
0
  6
CONTINUOUS
 62
     7
 10
-154.31424
 20
-45.20268
 11
-153.28689
 21
-44.175328
  0
LINE
  8
0
  6
CONTINUOUS
 62
     7
 10
-150.82103
 20
-41.709468
 11
-149.44818
 21
-40.336611
  0
LINE
  8
0
  6
CONTINUOUS
 62
     7
 10
-164.15948
 20
-53.700908
 11
-163.15948
 21
-52.700906
  0
LINE
  8
0
  6
CONTINUOUS
 62
     7
 10
-154.91777
 20
-44.459175
 11
-153.82686
 21
-43.368259
  0
LINE
  8
0
  6
CONTINUOUS
 62
     7
 10
-151.6281
 20
-41.1695
 11
-150.08046
 21
-39.621856
  0
LINE
  8
0
  6
CONTINUOUS
 62
     7
 10
-164.15948
 20
-52.353868
 11
-163.15948
 21
-51.353866
  0
LINE
  8
0
  6
CONTINUOUS
 62
     7
 10
-155.29358
 20
-43.487946
 11
-150.71274
 21
-38.907101
  0
LINE
  8
0
  6
CONTINUOUS
 62
     7
 10
-164.15948
 20
-51.006829
 11
-151.34503
 21
-38.192346
  0
LINE
  8
0
  6
CONTINUOUS
 62
     7
 10
-155.13504
 20
-40.635328
 11
-151.65948
 21
-37.159764
  0
LINE
  8
0
  6
CONTINUOUS
 62
     7
 10
-152.65948
 20
-36.812726
 11
-151.65948
 21
-35.812724
  0
LINE
  8
0
  6
CONTINUOUS
 62
     7
 10
-152.65948
 20
-35.465686
 11
-151.65948
 21
-34.465684
  0
LINE
  8
0
  6
CONTINUOUS
 62
     7
 10
-152.65948
 20
-34.118647
 11
-151.65948
 21
-33.118645
  0
LINE
  8
0
  6
CONTINUOUS
 62
     7
 10
-152.65948
 20
-32.771607
 11
-151.65948
 21
-31.771605
  0
LINE
  8
0
  6
CONTINUOUS
 62
     7
 10
-152.65948
 20
-31.424567
 11
-152.07841
 21
-30.843489
  0
ENDBLK
  8
0
  0
BLOCK
  8
0
  2
KOZU0010
 70
    64
 10
0
 20
0
  0
LINE
  8
0
  6
CONTINUOUS
 62
     7
 10
-139.35948
 20
-78.74133
 11
-137.85948
 21
-77.241327
  0
LINE
  8
0
  6
CONTINUOUS
 62
     7
 10
-138.85948
 20
-76.220769
 11
-137.85948
 21
-75.220767
  0
LINE
  8
0
  6
CONTINUOUS
 62
     7
 10
-138.85948
 20
-74.200209
 11
-137.85948
 21
-73.200207
  0
LINE
  8
0
  6
CONTINUOUS
 62
     7
 10
-139.3167
 20
-72.636871
 11
-137.85948
 21
-71.179648
  0
LINE
  8
0
  6
CONTINUOUS
 62
     7
 10
-141.25948
 20
-72.559089
 11
-140.25948
 21
-71.559087
  0
LINE
  8
0
  6
CONTINUOUS
 62
     7
 10
-138.85948
 20
-70.15909
 11
-137.85948
 21
-69.159088
  0
LINE
  8
0
  6
CONTINUOUS
 62
     7
 10
-141.25948
 20
-70.538529
 11
-140.85782
 21
-70.136871
  0
LINE
  8
0
  6
CONTINUOUS
 62
     7
 10
-138.85948
 20
-68.13853
 11
-137.85948
 21
-67.138528
  0
LINE
  8
0
  6
CONTINUOUS
 62
     7
 10
-138.85948
 20
-66.117971
 11
-137.85948
 21
-65.117969
  0
LINE
  8
0
  6
CONTINUOUS
 62
     7
 10
-139.25764
 20
-64.49557
 11
-138.18192
 21
-63.419847
  0
LINE
  8
0
  6
CONTINUOUS
 62
     7
 10
-140.4195
 20
-63.636871
 11
-139.4195
 21
-62.636871
  0
LINE
  8
0
  6
CONTINUOUS
 62
     7
 10
-142.44005
 20
-63.636871
 11
-141.44006
 21
-62.636871
  0
LINE
  8
0
  6
CONTINUOUS
 62
     7
 10
-144.46061
 20
-63.636871
 11
-143.46061
 21
-62.636871
  0
LINE
  8
0
  6
CONTINUOUS
 62
     7
 10
-146.48117
 20
-63.636871
 11
-145.48117
 21
-62.636871
  0
LINE
  8
0
  6
CONTINUOUS
 62
     7
 10
-148.50172
 20
-63.636871
 11
-147.50172
 21
-62.636871
  0
LINE
  8
0
  6
CONTINUOUS
 62
     7
 10
-152.92227
 20
-66.036873
 11
-152.75948
 21
-65.874075
  0
LINE
  8
0
  6
CONTINUOUS
 62
     7
 10
-150.52228
 20
-63.636871
 11
-149.52228
 21
-62.636871
  0
LINE
  8
0
  6
CONTINUOUS
 62
     7
 10
-154.94283
 20
-66.036873
 11
-153.94283
 21
-65.036873
  0
LINE
  8
0
  6
CONTINUOUS
 62
     7
 10
-152.54283
 20
-63.636871
 11
-151.54283
 21
-62.636871
  0
LINE
  8
0
  6
CONTINUOUS
 62
     7
 10
-155.25948
 20
-64.332961
 11
-153.56339
 21
-62.636871
  0
LINE
  8
0
  6
CONTINUOUS
 62
     7
 10
-138.90798
 20
-79.636871
 11
-138.20776
 21
-78.936644
  0
LINE
  8
0
  6
CONTINUOUS
 62
     7
 10
-139.35948
 20
-78.06781
 11
-138.92854
 21
-77.636871
  0
LINE
  8
0
  6
CONTINUOUS
 62
     7
 10
-138.85948
 20
-77.567809
 11
-137.85948
 21
-76.567807
  0
LINE
  8
0
  6
CONTINUOUS
 62
     7
 10
-138.85948
 20
-75.547249
 11
-137.85948
 21
-74.547247
  0
LINE
  8
0
  6
CONTINUOUS
 62
     7
 10
-138.85948
 20
-73.52669
 11
-137.85948
 21
-72.526688
  0
LINE
  8
0
  6
CONTINUOUS
 62
     7
 10
-139.99022
 20
-72.636871
 11
-138.99022
 21
-71.636871
  0
LINE
  8
0
  6
CONTINUOUS
 62
     7
 10
-138.85948
 20
-71.50613
 11
-137.85948
 21
-70.506128
  0
LINE
  8
0
  6
CONTINUOUS
 62
     7
 10
-141.25948
 20
-71.885569
 11
-140.25948
 21
-70.885567
  0
LINE
  8
0
  6
CONTINUOUS
 62
     7
 10
-138.85948
 20
-69.48557
 11
-137.85948
 21
-68.485568
  0
LINE
  8
0
  6
CONTINUOUS
 62
     7
 10
-138.85948
 20
-67.465011
 11
-137.85948
 21
-66.465009
  0
LINE
  8
0
  6
CONTINUOUS
 62
     7
 10
-138.85948
 20
-65.444451
 11
-137.85948
 21
-64.444449
  0
LINE
  8
0
  6
CONTINUOUS
 62
     7
 10
-139.5944
 20
-64.158809
 11
-138.53053
 21
-63.094939
  0
LINE
  8
0
  6
CONTINUOUS
 62
     7
 10
-141.09302
 20
-63.636871
 11
-140.09302
 21
-62.636871
  0
LINE
  8
0
  6
CONTINUOUS
 62
     7
 10
-143.11357
 20
-63.636871
 11
-142.11357
 21
-62.636871
  0
LINE
  8
0
  6
CONTINUOUS
 62
     7
 10
-145.13413
 20
-63.636871
 11
-144.13413
 21
-62.636871
  0
LINE
  8
0
  6
CONTINUOUS
 62
     7
 10
-147.15468
 20
-63.636871
 11
-146.15469
 21
-62.636871
  0
LINE
  8
0
  6
CONTINUOUS
 62
     7
 10
-149.17524
 20
-63.636871
 11
-148.17524
 21
-62.636871
  0
LINE
  8
0
  6
CONTINUOUS
 62
     7
 10
-153.59579
 20
-66.036873
 11
-152.75948
 21
-65.200555
  0
LINE
  8
0
  6
CONTINUOUS
 62
     7
 10
-151.1958
 20
-63.636871
 11
-150.1958
 21
-62.636871
  0
LINE
  8
0
  6
CONTINUOUS
 62
     7
 10
-155.25948
 20
-65.68
 11
-154.25948
 21
-64.679998
  0
LINE
  8
0
  6
CONTINUOUS
 62
     7
 10
-153.21635
 20
-63.636871
 11
-152.21635
 21
-62.636871
  0
LINE
  8
0
  6
CONTINUOUS
 62
     7
 10
-155.25948
 20
-63.659441
 11
-154.23691
 21
-62.636871
  0
ENDBLK
  8
0
  0
BLOCK
  8
0
  2
KOZU0011
 70
    64
 10
0
 20
0
  0
LINE
  8
0
  6
CONTINUOUS
 62
     7
 10
-139.15948
 20
-54.803778
 11
-140.15948
 21
-53.80378
  0
LINE
  8
0
  6
CONTINUOUS
 62
     7
 10
-139.15948
 20
-56.150815
 11
-140.15948
 21
-55.150817
  0
LINE
  8
0
  6
CONTINUOUS
 62
     7
 10
-139.15948
 20
-57.497852
 11
-140.15948
 21
-56.497854
  0
LINE
  8
0
  6
CONTINUOUS
 62
     7
 10
-139.15948
 20
-58.844889
 11
-140.15948
 21
-57.844891
  0
LINE
  8
0
  6
CONTINUOUS
 62
     7
 10
-139.15948
 20
-60.191926
 11
-140.15948
 21
-59.191928
  0
LINE
  8
0
  6
CONTINUOUS
 62
     7
 10
-139.15948
 20
-61.538963
 11
-140.15948
 21
-60.538965
  0
LINE
  8
0
  6
CONTINUOUS
 62
     7
 10
-141.65948
 20
-59.038968
 11
-142.16158
 21
-58.536873
  0
LINE
  8
0
  6
CONTINUOUS
 62
     7
 10
-139.70861
 20
-62.336872
 11
-140.73033
 21
-61.31516
  0
LINE
  8
0
  6
CONTINUOUS
 62
     7
 10
-141.65948
 20
-60.386006
 11
-143.50862
 21
-58.536873
  0
LINE
  8
0
  6
CONTINUOUS
 62
     7
 10
-141.05565
 20
-62.336872
 11
-142.65948
 21
-60.733045
  0
LINE
  8
0
  6
CONTINUOUS
 62
     7
 10
-143.85566
 20
-59.536873
 11
-144.85566
 21
-58.536873
  0
LINE
  8
0
  6
CONTINUOUS
 62
     7
 10
-142.40269
 20
-62.336872
 11
-143.4027
 21
-61.336872
  0
LINE
  8
0
  6
CONTINUOUS
 62
     7
 10
-145.2027
 20
-59.536873
 11
-146.2027
 21
-58.536873
  0
LINE
  8
0
  6
CONTINUOUS
 62
     7
 10
-143.74973
 20
-62.336872
 11
-144.74974
 21
-61.336872
  0
LINE
  8
0
  6
CONTINUOUS
 62
     7
 10
-146.54974
 20
-59.536873
 11
-147.54974
 21
-58.536873
  0
LINE
  8
0
  6
CONTINUOUS
 62
     7
 10
-145.09677
 20
-62.336872
 11
-145.15948
 21
-62.274161
  0
LINE
  8
0
  6
CONTINUOUS
 62
     7
 10
-147.89678
 20
-59.536873
 11
-148.89678
 21
-58.536873
  0
LINE
  8
0
  6
CONTINUOUS
 62
     7
 10
-149.24382
 20
-59.536873
 11
-150.24382
 21
-58.536873
  0
LINE
  8
0
  6
CONTINUOUS
 62
     7
 10
-150.59086
 20
-59.536873
 11
-151.59086
 21
-58.536873
  0
LINE
  8
0
  6
CONTINUOUS
 62
     7
 10
-151.9379
 20
-59.536873
 11
-152.9379
 21
-58.536873
  0
LINE
  8
0
  6
CONTINUOUS
 62
     7
 10
-153.28494
 20
-59.536873
 11
-154.28494
 21
-58.536873
  0
LINE
  8
0
  6
CONTINUOUS
 62
     7
 10
-154.63198
 20
-59.536873
 11
-155.63198
 21
-58.536873
  0
LINE
  8
0
  6
CONTINUOUS
 62
     7
 10
-155.97902
 20
-59.536873
 11
-156.97902
 21
-58.536873
  0
LINE
  8
0
  6
CONTINUOUS
 62
     7
 10
-157.32606
 20
-59.536873
 11
-158.32606
 21
-58.536873
  0
LINE
  8
0
  6
CONTINUOUS
 62
     7
 10
-158.6731
 20
-59.536873
 11
-159.6731
 21
-58.536873
  0
LINE
  8
0
  6
CONTINUOUS
 62
     7
 10
-164.15948
 20
-54.050496
 11
-164.67311
 21
-53.536873
  0
LINE
  8
0
  6
CONTINUOUS
 62
     7
 10
-160.02014
 20
-59.536873
 11
-161.02014
 21
-58.536873
  0
LINE
  8
0
  6
CONTINUOUS
 62
     7
 10
-164.15948
 20
-55.397533
 11
-165.15948
 21
-54.397535
  0
LINE
  8
0
  6
CONTINUOUS
 62
     7
 10
-161.36718
 20
-59.536873
 11
-162.36718
 21
-58.536873
  0
LINE
  8
0
  6
CONTINUOUS
 62
     7
 10
-164.15948
 20
-56.74457
 11
-165.15948
 21
-55.744572
  0
LINE
  8
0
  6
CONTINUOUS
 62
     7
 10
-162.71422
 20
-59.536873
 11
-163.71422
 21
-58.536873
  0
LINE
  8
0
  6
CONTINUOUS
 62
     7
 10
-164.15948
 20
-58.091607
 11
-165.15948
 21
-57.091609
  0
LINE
  8
0
  6
CONTINUOUS
 62
     7
 10
-161.65948
 20
-61.938639
 11
-162.26125
 21
-61.336872
  0
LINE
  8
0
  6
CONTINUOUS
 62
     7
 10
-164.06126
 20
-59.536873
 11
-165.15948
 21
-58.438646
  0
LINE
  8
0
  6
CONTINUOUS
 62
     7
 10
-162.60829
 20
-62.336872
 11
-163.60829
 21
-61.336872
  0
LINE
  8
0
  6
CONTINUOUS
 62
     7
 10
-164.15948
 20
-60.785681
 11
-165.15948
 21
-59.785683
  0
LINE
  8
0
  6
CONTINUOUS
 62
     7
 10
-163.95533
 20
-62.336872
 11
-165.15948
 21
-61.13272
  0
LINE
  8
0
  6
CONTINUOUS
 62
     7
 10
-164.15948
 20
-63.479756
 11
-165.15948
 21
-62.479758
  0
LINE
  8
0
  6
CONTINUOUS
 62
     7
 10
-164.15948
 20
-64.826793
 11
-165.15948
 21
-63.826795
  0
LINE
  8
0
  6
CONTINUOUS
 62
     7
 10
-164.15948
 20
-66.17383
 11
-165.15948
 21
-65.173832
  0
LINE
  8
0
  6
CONTINUOUS
 62
     7
 10
-164.25859
 20
-67.421761
 11
-165.15948
 21
-66.520869
  0
LINE
  8
0
  6
CONTINUOUS
 62
     7
 10
-164.62248
 20
-68.404913
 11
-165.37471
 21
-67.652681
  0
LINE
  8
0
  6
CONTINUOUS
 62
     7
 10
-165.17468
 20
-69.199751
 11
-165.88332
 21
-68.491113
  0
LINE
  8
0
  6
CONTINUOUS
 62
     7
 10
-165.65948
 20
-70.061981
 11
-166.61357
 21
-69.107895
  0
LINE
  8
0
  6
CONTINUOUS
 62
     7
 10
-165.65948
 20
-71.409018
 11
-166.65948
 21
-70.40902
  0
LINE
  8
0
  6
CONTINUOUS
 62
     7
 10
-165.65948
 20
-72.756055
 11
-166.65948
 21
-71.756057
  0
LINE
  8
0
  6
CONTINUOUS
 62
     7
 10
-165.65948
 20
-74.103092
 11
-166.65948
 21
-73.103094
  0
LINE
  8
0
  6
CONTINUOUS
 62
     7
 10
-165.65948
 20
-75.45013
 11
-166.65948
 21
-74.450132
  0
LINE
  8
0
  6
CONTINUOUS
 62
     7
 10
-165.65948
 20
-76.797167
 11
-166.65948
 21
-75.797169
  0
LINE
  8
0
  6
CONTINUOUS
 62
     7
 10
-165.20599
 20
-78.597701
 11
-166.6202
 21
-77.183493
  0
LINE
  8
0
  6
CONTINUOUS
 62
     7
 10
-165.61385
 20
-79.536873
 11
-166.12715
 21
-79.023581
  0
ENDBLK
  8
0
  0
BLOCK
  8
0
  2
KOZU0012
 70
    64
 10
0
 20
0
  0
LINE
  8
0
  6
CONTINUOUS
 62
     7
 10
-140.60142
 20
-32.836872
 11
-140.15948
 21
-32.39494
  0
LINE
  8
0
  6
CONTINUOUS
 62
     7
 10
-141.15948
 20
-32.047902
 11
-140.15948
 21
-31.0479
  0
LINE
  8
0
  6
CONTINUOUS
 62
     7
 10
-141.15948
 20
-30.700862
 11
-140.15948
 21
-29.70086
  0
LINE
  8
0
  6
CONTINUOUS
 62
     7
 10
-141.15948
 20
-29.353822
 11
-140.15948
 21
-28.35382
  0
LINE
  8
0
  6
CONTINUOUS
 62
     7
 10
-141.15948
 20
-28.006783
 11
-140.15948
 21
-27.006781
  0
LINE
  8
0
  6
CONTINUOUS
 62
     7
 10
-141.15948
 20
-26.659743
 11
-140.24263
 21
-25.742884
  0
LINE
  8
0
  6
CONTINUOUS
 62
     7
 10
-141.58334
 20
-25.736561
 11
-140.87491
 21
-25.028129
  0
LINE
  8
0
  6
CONTINUOUS
 62
     7
 10
-142.21563
 20
-25.021806
 11
-141.50719
 21
-24.313374
  0
LINE
  8
0
  6
CONTINUOUS
 62
     7
 10
-142.84791
 20
-24.30705
 11
-142.13948
 21
-23.598619
  0
LINE
  8
0
  6
CONTINUOUS
 62
     7
 10
-143.48019
 20
-23.592295
 11
-142.77176
 21
-22.883864
  0
LINE
  8
0
  6
CONTINUOUS
 62
     7
 10
-144.11247
 20
-22.87754
 11
-143.40404
 21
-22.169109
  0
LINE
  8
0
  6
CONTINUOUS
 62
     7
 10
-144.74476
 20
-22.162784
 11
-144.03633
 21
-21.454353
  0
LINE
  8
0
  6
CONTINUOUS
 62
     7
 10
-145.37704
 20
-21.448029
 11
-144.66861
 21
-20.739598
  0
LINE
  8
0
  6
CONTINUOUS
 62
     7
 10
-146.00932
 20
-20.733274
 11
-145.3009
 21
-20.024843
  0
LINE
  8
0
  6
CONTINUOUS
 62
     7
 10
-146.64161
 20
-20.018519
 11
-145.93318
 21
-19.310088
  0
LINE
  8
0
  6
CONTINUOUS
 62
     7
 10
-147.27389
 20
-19.303763
 11
-146.56546
 21
-18.595333
  0
LINE
  8
0
  6
CONTINUOUS
 62
     7
 10
-147.90617
 20
-18.589008
 11
-147.19775
 21
-17.880578
  0
LINE
  8
0
  6
CONTINUOUS
 62
     7
 10
-163.50105
 20
-32.836872
 11
-163.15948
 21
-32.495309
  0
LINE
  8
0
  6
CONTINUOUS
 62
     7
 10
-150.82041
 20
-20.156209
 11
-147.83003
 21
-17.165823
  0
LINE
  8
0
  6
CONTINUOUS
 62
     7
 10
-164.15948
 20
-32.148272
 11
-163.15948
 21
-31.14827
  0
LINE
  8
0
  6
CONTINUOUS
 62
     7
 10
-150.56149
 20
-18.550247
 11
-148.46231
 21
-16.451067
  0
LINE
  8
0
  6
CONTINUOUS
 62
     7
 10
-164.15948
 20
-30.801232
 11
-163.15948
 21
-29.80123
  0
LINE
  8
0
  6
CONTINUOUS
 62
     7
 10
-153.84255
 20
-20.484272
 11
-153.47678
 21
-20.118509
  0
LINE
  8
0
  6
CONTINUOUS
 62
     7
 10
-150.53768
 20
-17.179404
 11
-149.0946
 21
-15.736312
  0
LINE
  8
0
  6
CONTINUOUS
 62
     7
 10
-164.15948
 20
-29.454192
 11
-163.15948
 21
-28.45419
  0
LINE
  8
0
  6
CONTINUOUS
 62
     7
 10
-154.60547
 20
-19.900159
 11
-153.57339
 21
-18.868074
  0
LINE
  8
0
  6
CONTINUOUS
 62
     7
 10
-151.12829
 20
-16.422967
 11
-149.72688
 21
-15.021557
  0
LINE
  8
0
  6
CONTINUOUS
 62
     7
 10
-164.15948
 20
-28.107152
 11
-163.15948
 21
-27.10715
  0
LINE
  8
0
  6
CONTINUOUS
 62
     7
 10
-155.11529
 20
-19.062936
 11
-153.90937
 21
-17.857016
  0
LINE
  8
0
  6
CONTINUOUS
 62
     7
 10
-152.13934
 20
-16.086988
 11
-150.35916
 21
-14.306802
  0
LINE
  8
0
  6
CONTINUOUS
 62
     7
 10
-164.15948
 20
-26.760112
 11
-159.66656
 21
-22.26718
  0
LINE
  8
0
  6
CONTINUOUS
 62
     7
 10
-155.56732
 20
-18.167934
 11
-150.99145
 21
-13.592047
  0
LINE
  8
0
  6
CONTINUOUS
 62
     7
 10
-160.9103
 20
-22.163886
 11
-151.62373
 21
-12.877292
  0
LINE
  8
0
  6
CONTINUOUS
 62
     7
 10
-152.65948
 20
-12.56601
 11
-151.65948
 21
-11.566008
  0
LINE
  8
0
  6
CONTINUOUS
 62
     7
 10
-152.65948
 20
-11.21897
 11
-152.5775
 21
-11.136985
  0
ENDBLK
  8
0
  0
BLOCK
  8
0
  2
KOZU0013
 70
    64
 10
0
 20
0
  0
LINE
  8
0
  6
CONTINUOUS
 62
     7
 10
-81.159485
 20
-32.664573
 11
-80.159485
 21
-31.664571
  0
LINE
  8
0
  6
CONTINUOUS
 62
     7
 10
-81.159485
 20
-31.317533
 11
-80.159485
 21
-30.317531
  0
LINE
  8
0
  6
CONTINUOUS
 62
     7
 10
-81.159485
 20
-29.970493
 11
-80.159485
 21
-28.970491
  0
LINE
  8
0
  6
CONTINUOUS
 62
     7
 10
-81.159485
 20
-28.623454
 11
-80.159485
 21
-27.623452
  0
LINE
  8
0
  6
CONTINUOUS
 62
     7
 10
-81.159485
 20
-27.276414
 11
-80.159485
 21
-26.276412
  0
LINE
  8
0
  6
CONTINUOUS
 62
     7
 10
-81.293884
 20
-26.063774
 11
-80.585454
 21
-25.355342
  0
LINE
  8
0
  6
CONTINUOUS
 62
     7
 10
-81.926168
 20
-25.349019
 11
-81.217737
 21
-24.640587
  0
LINE
  8
0
  6
CONTINUOUS
 62
     7
 10
-82.558451
 20
-24.634263
 11
-81.850021
 21
-23.925832
  0
LINE
  8
0
  6
CONTINUOUS
 62
     7
 10
-83.190734
 20
-23.919508
 11
-82.482304
 21
-23.211076
  0
LINE
  8
0
  6
CONTINUOUS
 62
     7
 10
-83.823017
 20
-23.204753
 11
-83.114587
 21
-22.496321
  0
LINE
  8
0
  6
CONTINUOUS
 62
     7
 10
-84.455301
 20
-22.489997
 11
-83.746871
 21
-21.781566
  0
LINE
  8
0
  6
CONTINUOUS
 62
     7
 10
-85.087584
 20
-21.775242
 11
-84.379154
 21
-21.066811
  0
LINE
  8
0
  6
CONTINUOUS
 62
     7
 10
-85.719867
 20
-21.060487
 11
-85.011438
 21
-20.352056
  0
LINE
  8
0
  6
CONTINUOUS
 62
     7
 10
-86.35215
 20
-20.345731
 11
-85.643721
 21
-19.637301
  0
LINE
  8
0
  6
CONTINUOUS
 62
     7
 10
-86.984434
 20
-19.630976
 11
-86.276004
 21
-18.922546
  0
LINE
  8
0
  6
CONTINUOUS
 62
     7
 10
-87.616717
 20
-18.916221
 11
-86.908288
 21
-18.20779
  0
LINE
  8
0
  6
CONTINUOUS
 62
     7
 10
-90.524754
 20
-20.477225
 11
-89.279703
 21
-19.232171
  0
LINE
  8
0
  6
CONTINUOUS
 62
     7
 10
-88.259221
 20
-18.211687
 11
-87.540571
 21
-17.493035
  0
LINE
  8
0
  6
CONTINUOUS
 62
     7
 10
-104.15948
 20
-32.764942
 11
-103.15948
 21
-31.76494
  0
LINE
  8
0
  6
CONTINUOUS
 62
     7
 10
-91.087744
 20
-19.693175
 11
-88.172855
 21
-16.77828
  0
LINE
  8
0
  6
CONTINUOUS
 62
     7
 10
-104.15948
 20
-31.417903
 11
-103.15948
 21
-30.417901
  0
LINE
  8
0
  6
CONTINUOUS
 62
     7
 10
-90.416955
 20
-17.675346
 11
-88.805138
 21
-16.063525
  0
LINE
  8
0
  6
CONTINUOUS
 62
     7
 10
-104.15948
 20
-30.070863
 11
-103.15948
 21
-29.070861
  0
LINE
  8
0
  6
CONTINUOUS
 62
     7
 10
-94.302215
 20
-20.213573
 11
-93.274395
 21
-19.185751
  0
LINE
  8
0
  6
CONTINUOUS
 62
     7
 10
-90.810608
 20
-16.721959
 11
-89.437421
 21
-15.34877
  0
LINE
  8
0
  6
CONTINUOUS
 62
     7
 10
-104.15948
 20
-28.723823
 11
-103.15948
 21
-27.723821
  0
LINE
  8
0
  6
CONTINUOUS
 62
     7
 10
-94.909251
 20
-19.473571
 11
-93.821243
 21
-18.385561
  0
LINE
  8
0
  6
CONTINUOUS
 62
     7
 10
-91.6108
 20
-16.175113
 11
-90.069705
 21
-14.634015
  0
LINE
  8
0
  6
CONTINUOUS
 62
     7
 10
-104.15948
 20
-27.376783
 11
-103.15948
 21
-26.376781
  0
LINE
  8
0
  6
CONTINUOUS
 62
     7
 10
-95.288849
 20
-18.506129
 11
-93.524501
 21
-16.741778
  0
LINE
  8
0
  6
CONTINUOUS
 62
     7
 10
-93.254581
 20
-16.471858
 11
-90.701988
 21
-13.91926
  0
LINE
  8
0
  6
CONTINUOUS
 62
     7
 10
-104.15948
 20
-26.029743
 11
-91.334272
 21
-13.204505
  0
LINE
  8
0
  6
CONTINUOUS
 62
     7
 10
-95.310724
 20
-15.833926
 11
-91.659485
 21
-12.182679
  0
LINE
  8
0
  6
CONTINUOUS
 62
     7
 10
-92.659485
 20
-11.835641
 11
-91.96083
 21
-11.136985
  0
ENDBLK
  8
0
  0
BLOCK
  8
0
  2
KOZU0014
 70
    64
 10
0
 20
0
  0
LINE
  8
0
  6
CONTINUOUS
 62
     7
 10
-84.707413
 20
11.832908
 11
-83.207413
 21
13.332911
  0
LINE
  8
0
  6
CONTINUOUS
 62
     7
 10
-84.707413
 20
14.077974
 11
-83.207413
 21
15.577977
  0
LINE
  8
0
  6
CONTINUOUS
 62
     7
 10
-84.707413
 20
16.32304
 11
-83.207413
 21
17.823043
  0
LINE
  8
0
  6
CONTINUOUS
 62
     7
 10
-84.707413
 20
18.568106
 11
-83.207413
 21
20.068109
  0
LINE
  8
0
  6
CONTINUOUS
 62
     7
 10
-84.99559
 20
20.524995
 11
-83.930659
 21
21.589928
  0
LINE
  8
0
  6
CONTINUOUS
 62
     7
 10
-86.017327
 20
21.748322
 11
-84.952397
 21
22.813255
  0
LINE
  8
0
  6
CONTINUOUS
 62
     7
 10
-87.039063
 20
22.97165
 11
-85.974134
 21
24.036581
  0
LINE
  8
0
  6
CONTINUOUS
 62
     7
 10
-88.0608
 20
24.194977
 11
-86.995872
 21
25.259907
  0
LINE
  8
0
  6
CONTINUOUS
 62
     7
 10
-89.082537
 20
25.418304
 11
-88.01761
 21
26.483234
  0
LINE
  8
0
  6
CONTINUOUS
 62
     7
 10
-105.20741
 20
11.538463
 11
-103.70741
 21
13.038466
  0
LINE
  8
0
  6
CONTINUOUS
 62
     7
 10
-90.104274
 20
26.641632
 11
-89.039348
 21
27.70656
  0
LINE
  8
0
  6
CONTINUOUS
 62
     7
 10
-105.20741
 20
13.783533
 11
-103.70741
 21
15.283532
  0
LINE
  8
0
  6
CONTINUOUS
 62
     7
 10
-91.792189
 20
27.19878
 11
-91.18895
 21
27.802019
  0
LINE
  8
0
  6
CONTINUOUS
 62
     7
 10
-91.126011
 20
27.864959
 11
-90.061085
 21
28.929887
  0
LINE
  8
0
  6
CONTINUOUS
 62
     7
 10
-105.20741
 20
16.028603
 11
-103.70741
 21
17.528598
  0
LINE
  8
0
  6
CONTINUOUS
 62
     7
 10
-92.458027
 20
28.778007
 11
-91.082823
 21
30.153213
  0
LINE
  8
0
  6
CONTINUOUS
 62
     7
 10
-105.2074
 20
18.273673
 11
-103.70741
 21
19.773665
  0
LINE
  8
0
  6
CONTINUOUS
 62
     7
 10
-96.437356
 20
27.043736
 11
-95.648944
 21
27.832149
  0
LINE
  8
0
  6
CONTINUOUS
 62
     7
 10
-93.215203
 20
30.265896
 11
-92.144987
 21
31.336114
  0
LINE
  8
0
  6
CONTINUOUS
 62
     7
 10
-105.2074
 20
20.518743
 11
-93.457413
 21
32.268751
  0
LINE
  8
0
  6
CONTINUOUS
 62
     7
 10
-94.957413
 20
33.013815
 11
-93.457413
 21
34.513818
  0
LINE
  8
0
  6
CONTINUOUS
 62
     7
 10
-94.957413
 20
35.258881
 11
-93.457413
 21
36.758884
  0
LINE
  8
0
  6
CONTINUOUS
 62
     7
 10
-94.957413
 20
37.503947
 11
-94.387001
 21
38.07436
  0
ENDBLK
  8
0
  0
BLOCK
  8
0
  2
KOZU0015
 70
    64
 10
0
 20
0
  0
LINE
  8
0
  6
CONTINUOUS
 62
     7
 10
-84.707413
 20
-12.862821
 11
-83.207413
 21
-11.362818
  0
LINE
  8
0
  6
CONTINUOUS
 62
     7
 10
-84.707413
 20
-10.617755
 11
-83.207413
 21
-9.1177518
  0
LINE
  8
0
  6
CONTINUOUS
 62
     7
 10
-84.707413
 20
-8.3726885
 11
-83.207413
 21
-6.8726855
  0
LINE
  8
0
  6
CONTINUOUS
 62
     7
 10
-84.707413
 20
-6.1276223
 11
-83.207413
 21
-4.6276193
  0
LINE
  8
0
  6
CONTINUOUS
 62
     7
 10
-85.134064
 20
-4.3092083
 11
-84.069134
 21
-3.2442763
  0
LINE
  8
0
  6
CONTINUOUS
 62
     7
 10
-86.155801
 20
-3.0858809
 11
-85.090872
 21
-2.0209498
  0
LINE
  8
0
  6
CONTINUOUS
 62
     7
 10
-87.177538
 20
-1.8625536
 11
-86.11261
 21
-0.79762342
  0
LINE
  8
0
  6
CONTINUOUS
 62
     7
 10
-88.199275
 20
-0.63922625
 11
-87.134348
 21
0.42570301
  0
LINE
  8
0
  6
CONTINUOUS
 62
     7
 10
-89.221012
 20
0.5841011
 11
-88.156085
 21
1.6490294
  0
LINE
  8
0
  6
CONTINUOUS
 62
     7
 10
-105.20741
 20
-13.157265
 11
-103.70741
 21
-11.657263
  0
LINE
  8
0
  6
CONTINUOUS
 62
     7
 10
-90.242748
 20
1.8074285
 11
-89.177823
 21
2.8723559
  0
LINE
  8
0
  6
CONTINUOUS
 62
     7
 10
-105.20741
 20
-10.912195
 11
-103.70741
 21
-9.4121966
  0
LINE
  8
0
  6
CONTINUOUS
 62
     7
 10
-92.817799
 20
1.477439
 11
-90.199561
 21
4.0956823
  0
LINE
  8
0
  6
CONTINUOUS
 62
     7
 10
-105.2074
 20
-8.6671253
 11
-103.70741
 21
-7.1671303
  0
LINE
  8
0
  6
CONTINUOUS
 62
     7
 10
-92.474191
 20
4.0661134
 11
-91.221299
 21
5.3190087
  0
LINE
  8
0
  6
CONTINUOUS
 62
     7
 10
-105.2074
 20
-6.4220554
 11
-103.70741
 21
-4.9220641
  0
LINE
  8
0
  6
CONTINUOUS
 62
     7
 10
-96.603326
 20
2.182037
 11
-95.762883
 21
3.0224812
  0
LINE
  8
0
  6
CONTINUOUS
 62
     7
 10
-93.405536
 20
5.3798333
 11
-92.317215
 21
6.4681563
  0
LINE
  8
0
  6
CONTINUOUS
 62
     7
 10
-104.70541
 20
-3.6750012
 11
-93.457413
 21
7.5730226
  0
LINE
  8
0
  6
CONTINUOUS
 62
     7
 10
-94.957413
 20
8.3180859
 11
-93.457413
 21
9.8180889
  0
LINE
  8
0
  6
CONTINUOUS
 62
     7
 10
-94.957413
 20
10.563152
 11
-93.457413
 21
12.063155
  0
LINE
  8
0
  6
CONTINUOUS
 62
     7
 10
-94.957413
 20
12.808218
 11
-94.691271
 21
13.074361
  0
ENDBLK
  8
0
  0
BLOCK
  8
0
  2
KOZU0016
 70
    64
 10
0
 20
0
  0
LINE
  8
0
  6
CONTINUOUS
 62
     7
 10
-24.707415
 20
53.872496
 11
-23.207415
 21
55.372499
  0
LINE
  8
0
  6
CONTINUOUS
 62
     7
 10
-24.707417
 20
56.11756
 11
-23.207415
 21
57.617565
  0
LINE
  8
0
  6
CONTINUOUS
 62
     7
 10
-24.707419
 20
58.362624
 11
-23.207415
 21
59.862631
  0
LINE
  8
0
  6
CONTINUOUS
 62
     7
 10
-24.707421
 20
60.607689
 11
-23.207415
 21
62.107698
  0
LINE
  8
0
  6
CONTINUOUS
 62
     7
 10
-24.899837
 20
62.660338
 11
-23.834901
 21
63.725276
  0
LINE
  8
0
  6
CONTINUOUS
 62
     7
 10
-25.921573
 20
63.883666
 11
-24.856638
 21
64.948603
  0
LINE
  8
0
  6
CONTINUOUS
 62
     7
 10
-26.943309
 20
65.106994
 11
-25.878376
 21
66.171929
  0
LINE
  8
0
  6
CONTINUOUS
 62
     7
 10
-27.965045
 20
66.330322
 11
-26.900114
 21
67.395256
  0
LINE
  8
0
  6
CONTINUOUS
 62
     7
 10
-28.986781
 20
67.553651
 11
-27.921852
 21
68.618582
  0
LINE
  8
0
  6
CONTINUOUS
 62
     7
 10
-45.111493
 20
53.673973
 11
-43.707417
 21
55.078052
  0
LINE
  8
0
  6
CONTINUOUS
 62
     7
 10
-30.008517
 20
68.776979
 11
-28.94359
 21
69.841909
  0
LINE
  8
0
  6
CONTINUOUS
 62
     7
 10
-45.207413
 20
55.823119
 11
-43.707417
 21
57.323118
  0
LINE
  8
0
  6
CONTINUOUS
 62
     7
 10
-31.030253
 20
70.000307
 11
-29.965327
 21
71.065235
  0
LINE
  8
0
  6
CONTINUOUS
 62
     7
 10
-45.207409
 20
58.068189
 11
-43.707417
 21
59.568185
  0
LINE
  8
0
  6
CONTINUOUS
 62
     7
 10
-32.479712
 20
70.795912
 11
-30.987065
 21
72.288561
  0
LINE
  8
0
  6
CONTINUOUS
 62
     7
 10
-45.207406
 20
60.313259
 11
-43.707417
 21
61.813251
  0
LINE
  8
0
  6
CONTINUOUS
 62
     7
 10
-36.319438
 20
69.201244
 11
-35.558526
 21
69.962157
  0
LINE
  8
0
  6
CONTINUOUS
 62
     7
 10
-33.095213
 20
72.425476
 11
-32.031881
 21
73.488809
  0
LINE
  8
0
  6
CONTINUOUS
 62
     7
 10
-45.207402
 20
62.558329
 11
-33.457417
 21
74.308338
  0
LINE
  8
0
  6
CONTINUOUS
 62
     7
 10
-34.957417
 20
75.053401
 11
-33.457417
 21
76.553404
  0
LINE
  8
0
  6
CONTINUOUS
 62
     7
 10
-34.957417
 20
77.298467
 11
-33.457417
 21
78.79847
  0
LINE
  8
0
  6
CONTINUOUS
 62
     7
 10
-34.957417
 20
79.543533
 11
-34.176588
 21
80.324364
  0
ENDBLK
  8
0
  0
BLOCK
  8
0
  2
KOZU0017
 70
    64
 10
0
 20
0
  0
LINE
  8
0
  6
CONTINUOUS
 62
     7
 10
-24.707415
 20
-13.479492
 11
-23.207415
 21
-11.979488
  0
LINE
  8
0
  6
CONTINUOUS
 62
     7
 10
-24.707417
 20
-11.234427
 11
-23.207415
 21
-9.7344222
  0
LINE
  8
0
  6
CONTINUOUS
 62
     7
 10
-24.707419
 20
-8.9893629
 11
-23.207415
 21
-7.4893559
  0
LINE
  8
0
  6
CONTINUOUS
 62
     7
 10
-24.707421
 20
-6.7442987
 11
-23.207415
 21
-5.2442897
  0
LINE
  8
0
  6
CONTINUOUS
 62
     7
 10
-24.853421
 20
-4.6452335
 11
-23.788487
 21
-3.5802972
  0
LINE
  8
0
  6
CONTINUOUS
 62
     7
 10
-25.875158
 20
-3.4219055
 11
-24.810225
 21
-2.3569708
  0
LINE
  8
0
  6
CONTINUOUS
 62
     7
 10
-26.896894
 20
-2.1985775
 11
-25.831963
 21
-1.1336443
  0
LINE
  8
0
  6
CONTINUOUS
 62
     7
 10
-27.91863
 20
-0.9752495
 11
-26.853701
 21
0.089682086
  0
LINE
  8
0
  6
CONTINUOUS
 62
     7
 10
-28.940366
 20
0.24807851
 11
-27.875438
 21
1.3130085
  0
LINE
  8
0
  6
CONTINUOUS
 62
     7
 10
-45.009501
 20
-13.576022
 11
-43.707417
 21
-12.273935
  0
LINE
  8
0
  6
CONTINUOUS
 62
     7
 10
-29.962102
 20
1.4714065
 11
-28.897176
 21
2.5363349
  0
LINE
  8
0
  6
CONTINUOUS
 62
     7
 10
-45.207413
 20
-11.528869
 11
-43.707417
 21
-10.028869
  0
LINE
  8
0
  6
CONTINUOUS
 62
     7
 10
-30.983839
 20
2.6947345
 11
-29.918914
 21
3.7596614
  0
LINE
  8
0
  6
CONTINUOUS
 62
     7
 10
-45.207409
 20
-9.2837986
 11
-43.707417
 21
-7.7838027
  0
LINE
  8
0
  6
CONTINUOUS
 62
     7
 10
-32.505129
 20
3.4185072
 11
-30.940652
 21
4.9829878
  0
LINE
  8
0
  6
CONTINUOUS
 62
     7
 10
-45.207406
 20
-7.0387287
 11
-43.707417
 21
-5.5387364
  0
LINE
  8
0
  6
CONTINUOUS
 62
     7
 10
-36.261346
 20
1.9073487
 11
-35.511418
 21
2.6572788
  0
LINE
  8
0
  6
CONTINUOUS
 62
     7
 10
-33.040337
 20
5.1283646
 11
-31.978802
 21
6.1899011
  0
LINE
  8
0
  6
CONTINUOUS
 62
     7
 10
-45.207402
 20
-4.7936588
 11
-35.734247
 21
4.6795153
  0
LINE
  8
0
  6
CONTINUOUS
 62
     7
 10
-35.062574
 20
5.3511899
 11
-33.433015
 21
6.9807518
  0
LINE
  8
0
  6
CONTINUOUS
 62
     7
 10
-34.957417
 20
7.7014135
 11
-33.457417
 21
9.2014165
  0
LINE
  8
0
  6
CONTINUOUS
 62
     7
 10
-34.957417
 20
9.9464798
 11
-33.457417
 21
11.446483
  0
LINE
  8
0
  6
CONTINUOUS
 62
     7
 10
-34.957417
 20
12.191546
 11
-34.074603
 21
13.074361
  0
ENDBLK
  8
0
  0
BLOCK
  8
0
  2
KOZU0018
 70
    64
 10
0
 20
0
  0
LINE
  8
0
  6
CONTINUOUS
 62
     7
 10
-23.207415
 20
76.860289
 11
-21.707416
 21
78.36029
  0
LINE
  8
0
  6
CONTINUOUS
 62
     7
 10
-23.207415
 20
79.105355
 11
-21.707418
 21
80.605354
  0
LINE
  8
0
  6
CONTINUOUS
 62
     7
 10
-23.207415
 20
81.350421
 11
-21.70742
 21
82.850419
  0
LINE
  8
0
  6
CONTINUOUS
 62
     7
 10
-23.207415
 20
83.595488
 11
-21.707422
 21
85.095483
  0
LINE
  8
0
  6
CONTINUOUS
 62
     7
 10
-23.207415
 20
85.840554
 11
-21.264365
 21
87.783608
  0
LINE
  8
0
  6
CONTINUOUS
 62
     7
 10
-25.369988
 20
85.923043
 11
-23.870041
 21
87.422992
  0
LINE
  8
0
  6
CONTINUOUS
 62
     7
 10
-22.47209
 20
88.820946
 11
-20.902292
 21
90.390748
  0
LINE
  8
0
  6
CONTINUOUS
 62
     7
 10
-27.61497
 20
85.923122
 11
-26.115024
 21
87.423071
  0
LINE
  8
0
  6
CONTINUOUS
 62
     7
 10
-22.150655
 20
91.387448
 11
-20.657941
 21
92.880165
  0
LINE
  8
0
  6
CONTINUOUS
 62
     7
 10
-29.859952
 20
85.923202
 11
-28.360007
 21
87.42315
  0
LINE
  8
0
  6
CONTINUOUS
 62
     7
 10
-21.943539
 20
93.839631
 11
-20.51555
 21
95.267622
  0
LINE
  8
0
  6
CONTINUOUS
 62
     7
 10
-32.104934
 20
85.923281
 11
-30.60499
 21
87.423229
  0
LINE
  8
0
  6
CONTINUOUS
 62
     7
 10
-23.399577
 20
94.628656
 11
-20.462952
 21
97.565287
  0
LINE
  8
0
  6
CONTINUOUS
 62
     7
 10
-34.349917
 20
85.923361
 11
-32.849972
 21
87.423308
  0
LINE
  8
0
  6
CONTINUOUS
 62
     7
 10
-21.815687
 20
98.457615
 11
-20.490525
 21
99.78278
  0
LINE
  8
0
  6
CONTINUOUS
 62
     7
 10
-36.594899
 20
85.92344
 11
-35.094955
 21
87.423387
  0
LINE
  8
0
  6
CONTINUOUS
 62
     7
 10
-33.595012
 20
88.923333
 11
-32.707417
 21
89.81093
  0
LINE
  8
0
  6
CONTINUOUS
 62
     7
 10
-21.874127
 20
100.64424
 11
-20.590504
 21
101.92787
  0
LINE
  8
0
  6
CONTINUOUS
 62
     7
 10
-37.207417
 20
87.555988
 11
-34.34005
 21
90.42336
  0
LINE
  8
0
  6
CONTINUOUS
 62
     7
 10
-37.207417
 20
89.801054
 11
-36.585032
 21
90.42344
  0
ENDBLK
  8
0
  0
BLOCK
  8
0
  2
KOZU0019
 70
    64
 10
0
 20
0
  0
LINE
  8
0
  6
CONTINUOUS
 62
     7
 10
-24.499629
 20
11.424024
 11
-23.207415
 21
12.71624
  0
LINE
  8
0
  6
CONTINUOUS
 62
     7
 10
-24.707409
 20
13.461309
 11
-23.207415
 21
14.961306
  0
LINE
  8
0
  6
CONTINUOUS
 62
     7
 10
-24.707403
 20
15.706381
 11
-23.207415
 21
17.206373
  0
LINE
  8
0
  6
CONTINUOUS
 62
     7
 10
-24.707398
 20
17.951453
 11
-23.207415
 21
19.451439
  0
LINE
  8
0
  6
CONTINUOUS
 62
     7
 10
-24.714936
 20
20.188981
 11
-23.650005
 21
21.253914
  0
LINE
  8
0
  6
CONTINUOUS
 62
     7
 10
-25.736673
 20
21.412308
 11
-24.671743
 21
22.47724
  0
LINE
  8
0
  6
CONTINUOUS
 62
     7
 10
-26.75841
 20
22.635636
 11
-25.693481
 21
23.700566
  0
LINE
  8
0
  6
CONTINUOUS
 62
     7
 10
-27.780147
 20
23.858963
 11
-26.715219
 21
24.923893
  0
LINE
  8
0
  6
CONTINUOUS
 62
     7
 10
-28.801884
 20
25.08229
 11
-27.736957
 21
26.147219
  0
LINE
  8
0
  6
CONTINUOUS
 62
     7
 10
-44.705184
 20
11.424024
 11
-43.707417
 21
12.421793
  0
LINE
  8
0
  6
CONTINUOUS
 62
     7
 10
-29.823621
 20
26.305617
 11
-28.758695
 21
27.370545
  0
LINE
  8
0
  6
CONTINUOUS
 62
     7
 10
-45.207417
 20
13.166857
 11
-43.707417
 21
14.66686
  0
LINE
  8
0
  6
CONTINUOUS
 62
     7
 10
-30.845358
 20
27.528944
 11
-29.780433
 21
28.593871
  0
LINE
  8
0
  6
CONTINUOUS
 62
     7
 10
-45.207417
 20
15.411923
 11
-43.707417
 21
16.911926
  0
LINE
  8
0
  6
CONTINUOUS
 62
     7
 10
-33.420424
 20
27.198939
 11
-33.277458
 21
27.341905
  0
LINE
  8
0
  6
CONTINUOUS
 62
     7
 10
-32.724958
 20
27.894406
 11
-30.802171
 21
29.817197
  0
LINE
  8
0
  6
CONTINUOUS
 62
     7
 10
-45.207417
 20
17.656989
 11
-43.707417
 21
19.156992
  0
LINE
  8
0
  6
CONTINUOUS
 62
     7
 10
-36.084374
 20
26.78005
 11
-35.358345
 21
27.506081
  0
LINE
  8
0
  6
CONTINUOUS
 62
     7
 10
-32.889138
 20
29.975292
 11
-31.82717
 21
31.037262
  0
LINE
  8
0
  6
CONTINUOUS
 62
     7
 10
-45.207417
 20
19.902055
 11
-37.513388
 21
27.5961
  0
LINE
  8
0
  6
CONTINUOUS
 62
     7
 10
-37.26366
 20
27.845828
 11
-35.918603
 21
29.190888
  0
LINE
  8
0
  6
CONTINUOUS
 62
     7
 10
-34.573946
 20
30.535547
 11
-33.196392
 21
31.913104
  0
LINE
  8
0
  6
CONTINUOUS
 62
     7
 10
-37.994391
 20
29.360162
 11
-35.588008
 21
31.766549
  0
LINE
  8
0
  6
CONTINUOUS
 62
     7
 10
-34.957417
 20
32.397142
 11
-33.530705
 21
33.823856
  0
ENDBLK
  8
0
  0
BLOCK
  8
0
  2
KOZU0020
 70
    64
 10
0
 20
0
  0
LINE
  8
0
  6
CONTINUOUS
 62
     7
 10
-24.542755
 20
83.223017
 11
-23.207415
 21
84.55836
  0
LINE
  8
0
  6
CONTINUOUS
 62
     7
 10
-26.787737
 20
83.223097
 11
-25.787773
 21
84.223063
  0
LINE
  8
0
  6
CONTINUOUS
 62
     7
 10
-24.687818
 20
85.32302
 11
-24.087834
 21
85.923005
  0
LINE
  8
0
  6
CONTINUOUS
 62
     7
 10
-29.032718
 20
83.223177
 11
-28.032755
 21
84.223143
  0
LINE
  8
0
  6
CONTINUOUS
 62
     7
 10
-26.932805
 20
85.323094
 11
-26.332816
 21
85.923085
  0
LINE
  8
0
  6
CONTINUOUS
 62
     7
 10
-31.2777
 20
83.223257
 11
-30.277737
 21
84.223223
  0
LINE
  8
0
  6
CONTINUOUS
 62
     7
 10
-33.522681
 20
83.223338
 11
-32.522718
 21
84.223303
  0
LINE
  8
0
  6
CONTINUOUS
 62
     7
 10
-35.767663
 20
83.223418
 11
-34.7677
 21
84.223383
  0
LINE
  8
0
  6
CONTINUOUS
 62
     7
 10
-38.012645
 20
83.223498
 11
-37.012682
 21
84.223463
  0
LINE
  8
0
  6
CONTINUOUS
 62
     7
 10
-46.707417
 20
76.773775
 11
-45.207417
 21
78.273778
  0
LINE
  8
0
  6
CONTINUOUS
 62
     7
 10
-40.257626
 20
83.223578
 11
-39.257663
 21
84.223543
  0
LINE
  8
0
  6
CONTINUOUS
 62
     7
 10
-46.707417
 20
79.018841
 11
-45.207417
 21
80.518844
  0
LINE
  8
0
  6
CONTINUOUS
 62
     7
 10
-42.502608
 20
83.223658
 11
-41.502645
 21
84.223623
  0
LINE
  8
0
  6
CONTINUOUS
 62
     7
 10
-46.707417
 20
81.263907
 11
-45.207417
 21
82.76391
  0
LINE
  8
0
  6
CONTINUOUS
 62
     7
 10
-44.747589
 20
83.223738
 11
-43.747627
 21
84.223703
  0
LINE
  8
0
  6
CONTINUOUS
 62
     7
 10
-42.647685
 20
85.323647
 11
-42.207417
 21
85.763916
  0
LINE
  8
0
  6
CONTINUOUS
 62
     7
 10
-46.707417
 20
83.508973
 11
-45.207422
 21
85.008971
  0
LINE
  8
0
  6
CONTINUOUS
 62
     7
 10
-44.892667
 20
85.323727
 11
-43.392542
 21
86.823855
  0
LINE
  8
0
  6
CONTINUOUS
 62
     7
 10
-46.813044
 20
85.648413
 11
-45.637613
 21
86.823845
  0
LINE
  8
0
  6
CONTINUOUS
 62
     7
 10
-47.455126
 20
87.251395
 11
-46.332929
 21
88.373594
  0
LINE
  8
0
  6
CONTINUOUS
 62
     7
 10
-48.235743
 20
88.715842
 11
-47.146067
 21
89.805521
  0
LINE
  8
0
  6
CONTINUOUS
 62
     7
 10
-49.141862
 20
90.054788
 11
-48.071855
 21
91.124797
  0
LINE
  8
0
  6
CONTINUOUS
 62
     7
 10
-49.741452
 20
91.700263
 11
-48.039586
 21
93.402133
  0
LINE
  8
0
  6
CONTINUOUS
 62
     7
 10
-49.537274
 20
94.149507
 11
-48.151201
 21
95.535584
  0
LINE
  8
0
  6
CONTINUOUS
 62
     7
 10
-49.783375
 20
96.148473
 11
-48.103341
 21
97.82851
  0
LINE
  8
0
  6
CONTINUOUS
 62
     7
 10
-49.18126
 20
98.995655
 11
-47.092219
 21
101.0847
  0
LINE
  8
0
  6
CONTINUOUS
 62
     7
 10
-48.170101
 20
102.25188
 11
-48.109895
 21
102.31209
  0
ENDBLK
  8
0
  0
BLOCK
  8
0
  2
KOZU0021
 70
    64
 10
0
 20
0
  0
LINE
  8
0
  6
CONTINUOUS
 62
     7
 10
-84.707413
 20
36.528636
 11
-83.207413
 21
38.028639
  0
LINE
  8
0
  6
CONTINUOUS
 62
     7
 10
-84.707413
 20
38.773703
 11
-83.207413
 21
40.273706
  0
ENDBLK
  8
0
  0
BLOCK
  8
0
  2
KOZU0022
 70
    64
 10
0
 20
0
  0
LINE
  8
0
  6
CONTINUOUS
 62
     7
 10
-105.01758
 20
36.424023
 11
-103.70741
 21
37.734194
  0
LINE
  8
0
  6
CONTINUOUS
 62
     7
 10
-105.20741
 20
38.479258
 11
-103.70741
 21
39.979261
  0
LINE
  8
0
  6
CONTINUOUS
 62
     7
 10
-105.20741
 20
40.724324
 11
-105.10738
 21
40.82436
  0
ENDBLK
  8
0
  0
BLOCK
  8
0
  2
KOZU0023
 70
    64
 10
0
 20
0
  0
LINE
  8
0
  6
CONTINUOUS
 62
     7
 10
-20.511686
 20
-33.224682
 11
-20.173512
 21
-32.886507
  0
LINE
  8
0
  6
CONTINUOUS
 62
     7
 10
-21.603185
 20
-32.071116
 11
-19.993585
 21
-30.461514
  0
LINE
  8
0
  6
CONTINUOUS
 62
     7
 10
-21.465413
 20
-29.688278
 11
-19.948257
 21
-28.171119
  0
LINE
  8
0
  6
CONTINUOUS
 62
     7
 10
-21.459666
 20
-27.437465
 11
-20.016971
 21
-25.994767
  0
LINE
  8
0
  6
CONTINUOUS
 62
     7
 10
-21.566096
 20
-25.298829
 11
-20.184641
 21
-23.917371
  0
LINE
  8
0
  6
CONTINUOUS
 62
     7
 10
-21.770112
 20
-23.257779
 11
-20.439822
 21
-21.927486
  0
LINE
  8
0
  6
CONTINUOUS
 62
     7
 10
-22.060634
 20
-21.303235
 11
-20.773606
 21
-20.016204
  0
LINE
  8
0
  6
CONTINUOUS
 62
     7
 10
-22.429034
 20
-19.42657
 11
-21.178913
 21
-18.176446
  0
LINE
  8
0
  6
CONTINUOUS
 62
     7
 10
-23.022772
 20
-17.775243
 11
-21.650029
 21
-16.402497
  0
LINE
  8
0
  6
CONTINUOUS
 62
     7
 10
-25.267913
 20
-17.775323
 11
-23.767863
 21
-16.275269
  0
LINE
  8
0
  6
CONTINUOUS
 62
     7
 10
-23.207415
 20
-15.71482
 11
-21.707415
 21
-14.214817
  0
LINE
  8
0
  6
CONTINUOUS
 62
     7
 10
-27.513055
 20
-17.775402
 11
-26.013004
 21
-16.275349
  0
LINE
  8
0
  6
CONTINUOUS
 62
     7
 10
-23.207415
 20
-13.469753
 11
-21.707415
 21
-11.96975
  0
LINE
  8
0
  6
CONTINUOUS
 62
     7
 10
-32.758297
 20
-20.775589
 11
-32.707417
 21
-20.724708
  0
LINE
  8
0
  6
CONTINUOUS
 62
     7
 10
-29.758196
 20
-17.775481
 11
-28.258146
 21
-16.275428
  0
LINE
  8
0
  6
CONTINUOUS
 62
     7
 10
-23.207415
 20
-11.224687
 11
-21.707415
 21
-9.7246842
  0
LINE
  8
0
  6
CONTINUOUS
 62
     7
 10
-35.003438
 20
-20.775668
 11
-33.503388
 21
-19.275615
  0
LINE
  8
0
  6
CONTINUOUS
 62
     7
 10
-32.003337
 20
-17.775561
 11
-30.503287
 21
-16.275508
  0
LINE
  8
0
  6
CONTINUOUS
 62
     7
 10
-23.207415
 20
-8.9796209
 11
-21.707415
 21
-7.4796179
  0
LINE
  8
0
  6
CONTINUOUS
 62
     7
 10
-37.207417
 20
-20.734585
 11
-35.707417
 21
-19.234582
  0
LINE
  8
0
  6
CONTINUOUS
 62
     7
 10
-34.248478
 20
-17.77564
 11
-32.748428
 21
-16.275587
  0
LINE
  8
0
  6
CONTINUOUS
 62
     7
 10
-23.207415
 20
-6.7345547
 11
-23.149003
 21
-6.6761427
  0
LINE
  8
0
  6
CONTINUOUS
 62
     7
 10
-37.207417
 20
-18.489518
 11
-34.99357
 21
-16.275667
  0
ENDBLK
  8
0
  0
BLOCK
  8
0
  2
KOZU0024
 70
    64
 10
0
 20
0
  0
LINE
  8
0
  6
CONTINUOUS
 62
     7
 10
-82.284614
 20
-17.175216
 11
-81.707413
 21
-16.598014
  0
LINE
  8
0
  6
CONTINUOUS
 62
     7
 10
-84.529756
 20
-17.175296
 11
-81.707413
 21
-14.352947
  0
LINE
  8
0
  6
CONTINUOUS
 62
     7
 10
-86.774897
 20
-17.175376
 11
-85.207413
 21
-15.607888
  0
LINE
  8
0
  6
CONTINUOUS
 62
     7
 10
-83.207413
 20
-13.607884
 11
-81.707413
 21
-12.107881
  0
LINE
  8
0
  6
CONTINUOUS
 62
     7
 10
-87.707413
 20
-15.862827
 11
-87.519989
 21
-15.675403
  0
LINE
  8
0
  6
CONTINUOUS
 62
     7
 10
-86.919968
 20
-15.075381
 11
-85.419918
 21
-13.575328
  0
LINE
  8
0
  6
CONTINUOUS
 62
     7
 10
-83.207413
 20
-11.362818
 11
-81.707413
 21
-9.862815
  0
LINE
  8
0
  6
CONTINUOUS
 62
     7
 10
-107.23979
 20
-33.150174
 11
-106.79202
 21
-32.702406
  0
LINE
  8
0
  6
CONTINUOUS
 62
     7
 10
-89.16511
 20
-15.075461
 11
-87.665059
 21
-13.575407
  0
LINE
  8
0
  6
CONTINUOUS
 62
     7
 10
-83.207413
 20
-9.1177518
 11
-81.707413
 21
-7.6177488
  0
LINE
  8
0
  6
CONTINUOUS
 62
     7
 10
-108.54267
 20
-32.207995
 11
-107.40024
 21
-31.065564
  0
LINE
  8
0
  6
CONTINUOUS
 62
     7
 10
-91.410251
 20
-15.07554
 11
-89.910201
 21
-13.575487
  0
LINE
  8
0
  6
CONTINUOUS
 62
     7
 10
-83.207413
 20
-6.8726855
 11
-83.01087
 21
-6.6761427
  0
LINE
  8
0
  6
CONTINUOUS
 62
     7
 10
-108.91012
 20
-30.330382
 11
-107.41013
 21
-28.830385
  0
LINE
  8
0
  6
CONTINUOUS
 62
     7
 10
-93.655392
 20
-15.07562
 11
-92.155342
 21
-13.575566
  0
LINE
  8
0
  6
CONTINUOUS
 62
     7
 10
-108.91012
 20
-28.085312
 11
-107.41013
 21
-26.585323
  0
LINE
  8
0
  6
CONTINUOUS
 62
     7
 10
-95.900534
 20
-15.075699
 11
-94.400483
 21
-13.575646
  0
LINE
  8
0
  6
CONTINUOUS
 62
     7
 10
-108.91012
 20
-25.840242
 11
-107.41014
 21
-24.340261
  0
LINE
  8
0
  6
CONTINUOUS
 62
     7
 10
-98.145675
 20
-15.075779
 11
-96.645625
 21
-13.575725
  0
LINE
  8
0
  6
CONTINUOUS
 62
     7
 10
-108.91011
 20
-23.595172
 11
-105.2074
 21
-19.892453
  0
LINE
  8
0
  6
CONTINUOUS
 62
     7
 10
-102.4911
 20
-17.176142
 11
-102.20741
 21
-16.892459
  0
LINE
  8
0
  6
CONTINUOUS
 62
     7
 10
-100.39082
 20
-15.075858
 11
-98.890766
 21
-13.575805
  0
LINE
  8
0
  6
CONTINUOUS
 62
     7
 10
-106.70743
 20
-19.147416
 11
-105.20741
 21
-17.647396
  0
LINE
  8
0
  6
CONTINUOUS
 62
     7
 10
-104.73616
 20
-17.176142
 11
-103.23598
 21
-15.67596
  0
LINE
  8
0
  6
CONTINUOUS
 62
     7
 10
-102.63596
 20
-15.075938
 11
-101.13591
 21
-13.575885
  0
LINE
  8
0
  6
CONTINUOUS
 62
     7
 10
-106.70742
 20
-16.902347
 11
-105.20739
 21
-15.402311
  0
LINE
  8
0
  6
CONTINUOUS
 62
     7
 10
-104.8811
 20
-15.076017
 11
-103.38105
 21
-13.575964
  0
LINE
  8
0
  6
CONTINUOUS
 62
     7
 10
-106.70742
 20
-14.657278
 11
-105.20741
 21
-13.157266
  0
LINE
  8
0
  6
CONTINUOUS
 62
     7
 10
-106.70742
 20
-12.412209
 11
-105.20741
 21
-10.9122
  0
LINE
  8
0
  6
CONTINUOUS
 62
     7
 10
-106.70742
 20
-10.16714
 11
-105.20741
 21
-8.6671333
  0
LINE
  8
0
  6
CONTINUOUS
 62
     7
 10
-106.70741
 20
-7.9220716
 11
-105.46149
 21
-6.6761427
  0
ENDBLK
  8
0
  0
BLOCK
  8
0
  2
KOZU0025
 70
    64
 10
0
 20
0
  0
LINE
  8
0
  6
CONTINUOUS
 62
     7
 10
-81.491055
 20
-32.097119
 11
-80.207428
 21
-30.81349
  0
LINE
  8
0
  6
CONTINUOUS
 62
     7
 10
-81.207413
 20
-29.56841
 11
-80.207425
 21
-28.56842
  0
LINE
  8
0
  6
CONTINUOUS
 62
     7
 10
-81.207413
 20
-27.323344
 11
-80.207421
 21
-26.323351
  0
LINE
  8
0
  6
CONTINUOUS
 62
     7
 10
-82.804386
 20
-26.675254
 11
-81.304336
 21
-25.175201
  0
LINE
  8
0
  6
CONTINUOUS
 62
     7
 10
-81.207412
 20
-25.078277
 11
-80.207418
 21
-24.078281
  0
LINE
  8
0
  6
CONTINUOUS
 62
     7
 10
-82.924079
 20
-24.549881
 11
-82.549443
 21
-24.175245
  0
LINE
  8
0
  6
CONTINUOUS
 62
     7
 10
-81.207406
 20
-22.833204
 11
-80.207415
 21
-21.833212
  0
LINE
  8
0
  6
CONTINUOUS
 62
     7
 10
-81.207399
 20
-20.588131
 11
-80.403081
 21
-19.783812
  0
LINE
  8
0
  6
CONTINUOUS
 62
     7
 10
-82.073762
 20
-19.20943
 11
-81.151439
 21
-18.287105
  0
LINE
  8
0
  6
CONTINUOUS
 62
     7
 10
-83.584655
 20
-18.47526
 11
-82.284614
 21
-17.175216
  0
LINE
  8
0
  6
CONTINUOUS
 62
     7
 10
-85.829797
 20
-18.47534
 11
-84.529755
 21
-17.175296
  0
LINE
  8
0
  6
CONTINUOUS
 62
     7
 10
-88.074939
 20
-18.47542
 11
-86.774897
 21
-17.175375
  0
LINE
  8
0
  6
CONTINUOUS
 62
     7
 10
-90.320081
 20
-18.4755
 11
-89.020038
 21
-17.175455
  0
LINE
  8
0
  6
CONTINUOUS
 62
     7
 10
-92.565223
 20
-18.475581
 11
-91.265179
 21
-17.175534
  0
LINE
  8
0
  6
CONTINUOUS
 62
     7
 10
-96.510422
 20
-20.175721
 11
-95.707413
 21
-19.372711
  0
LINE
  8
0
  6
CONTINUOUS
 62
     7
 10
-94.810365
 20
-18.475661
 11
-93.510321
 21
-17.175614
  0
LINE
  8
0
  6
CONTINUOUS
 62
     7
 10
-97.207413
 20
-18.627647
 11
-95.755462
 21
-17.175694
  0
ENDBLK
  8
0
  0
BLOCK
  8
0
  2
KOZU0026
 70
    64
 10
0
 20
0
  0
LINE
  8
0
  6
CONTINUOUS
 62
     7
 10
-24.53269
 20
-16.275297
 11
-23.93267
 21
-15.675275
  0
LINE
  8
0
  6
CONTINUOUS
 62
     7
 10
-23.807413
 20
-15.550018
 11
-23.207415
 21
-14.950018
  0
LINE
  8
0
  6
CONTINUOUS
 62
     7
 10
-26.777832
 20
-16.275377
 11
-26.177812
 21
-15.675355
  0
LINE
  8
0
  6
CONTINUOUS
 62
     7
 10
-25.077774
 20
-14.575316
 11
-24.077741
 21
-13.57528
  0
LINE
  8
0
  6
CONTINUOUS
 62
     7
 10
-27.322916
 20
-14.575395
 11
-26.322883
 21
-13.57536
  0
LINE
  8
0
  6
CONTINUOUS
 62
     7
 10
-48.159056
 20
-33.166511
 11
-47.044049
 21
-32.051502
  0
LINE
  8
0
  6
CONTINUOUS
 62
     7
 10
-29.568057
 20
-14.575475
 11
-28.568024
 21
-13.57544
  0
LINE
  8
0
  6
CONTINUOUS
 62
     7
 10
-48.655582
 20
-31.417971
 11
-47.536675
 21
-30.299063
  0
LINE
  8
0
  6
CONTINUOUS
 62
     7
 10
-31.813198
 20
-14.575554
 11
-30.813165
 21
-13.575519
  0
LINE
  8
0
  6
CONTINUOUS
 62
     7
 10
-49.152108
 20
-29.669432
 11
-48.029302
 21
-28.546624
  0
LINE
  8
0
  6
CONTINUOUS
 62
     7
 10
-34.05834
 20
-14.575634
 11
-33.058306
 21
-13.575599
  0
LINE
  8
0
  6
CONTINUOUS
 62
     7
 10
-49.648633
 20
-27.920893
 11
-48.258096
 21
-26.530353
  0
LINE
  8
0
  6
CONTINUOUS
 62
     7
 10
-36.303481
 20
-14.575713
 11
-35.303448
 21
-13.575678
  0
LINE
  8
0
  6
CONTINUOUS
 62
     7
 10
-49.634143
 20
-25.661336
 11
-48.032949
 21
-24.060139
  0
LINE
  8
0
  6
CONTINUOUS
 62
     7
 10
-38.548622
 20
-14.575793
 11
-37.548589
 21
-13.575758
  0
LINE
  8
0
  6
CONTINUOUS
 62
     7
 10
-49.564076
 20
-23.346202
 11
-48.223919
 21
-22.006043
  0
LINE
  8
0
  6
CONTINUOUS
 62
     7
 10
-43.394028
 20
-17.176142
 11
-42.207417
 21
-15.989528
  0
LINE
  8
0
  6
CONTINUOUS
 62
     7
 10
-40.793763
 20
-14.575872
 11
-39.79373
 21
-13.575837
  0
LINE
  8
0
  6
CONTINUOUS
 62
     7
 10
-49.886096
 20
-21.423157
 11
-45.646403
 21
-17.183456
  0
LINE
  8
0
  6
CONTINUOUS
 62
     7
 10
-45.639089
 20
-17.176142
 11
-44.138976
 21
-15.676026
  0
LINE
  8
0
  6
CONTINUOUS
 62
     7
 10
-43.038905
 20
-14.575952
 11
-42.038871
 21
-13.575917
  0
LINE
  8
0
  6
CONTINUOUS
 62
     7
 10
-46.867652
 20
-16.159641
 11
-44.284013
 21
-13.575996
  0
LINE
  8
0
  6
CONTINUOUS
 62
     7
 10
-46.707417
 20
-13.754339
 11
-45.207417
 21
-12.254336
  0
LINE
  8
0
  6
CONTINUOUS
 62
     7
 10
-46.707417
 20
-11.509272
 11
-45.207417
 21
-10.009269
  0
LINE
  8
0
  6
CONTINUOUS
 62
     7
 10
-46.707417
 20
-9.2642061
 11
-45.207417
 21
-7.7642031
  0
LINE
  8
0
  6
CONTINUOUS
 62
     7
 10
-46.707417
 20
-7.0191399
 11
-46.36442
 21
-6.6761427
  0
ENDBLK
  8
0
  0
BLOCK
  8
0
  2
KOZU0027
 70
    64
 10
0
 20
0
  0
LINE
  8
0
  6
CONTINUOUS
 62
     7
 10
-24.707415
 20
35.911966
 11
-23.207415
 21
37.411969
  0
LINE
  8
0
  6
CONTINUOUS
 62
     7
 10
-25.038309
 20
37.826138
 11
-23.973363
 21
38.891085
  0
LINE
  8
0
  6
CONTINUOUS
 62
     7
 10
-26.060046
 20
39.049464
 11
-24.995103
 21
40.11441
  0
LINE
  8
0
  6
CONTINUOUS
 62
     7
 10
-27.081784
 20
40.27279
 11
-26.016842
 21
41.337734
  0
LINE
  8
0
  6
CONTINUOUS
 62
     7
 10
-28.103522
 20
41.496117
 11
-27.038582
 21
42.561059
  0
LINE
  8
0
  6
CONTINUOUS
 62
     7
 10
-29.12526
 20
42.719443
 11
-28.060322
 21
43.784383
  0
LINE
  8
0
  6
CONTINUOUS
 62
     7
 10
-30.146997
 20
43.94277
 11
-29.082061
 21
45.007708
  0
LINE
  8
0
  6
CONTINUOUS
 62
     7
 10
-32.243203
 20
44.091626
 11
-30.103801
 21
46.231032
  0
LINE
  8
0
  6
CONTINUOUS
 62
     7
 10
-32.458061
 20
46.121834
 11
-31.125541
 21
47.454357
  0
LINE
  8
0
  6
CONTINUOUS
 62
     7
 10
-45.00108
 20
35.823856
 11
-43.707447
 21
37.117491
  0
LINE
  8
0
  6
CONTINUOUS
 62
     7
 10
-36.489131
 20
44.335822
 11
-35.686271
 21
45.138684
  0
LINE
  8
0
  6
CONTINUOUS
 62
     7
 10
-33.271743
 20
47.553216
 11
-32.197017
 21
48.627945
  0
LINE
  8
0
  6
CONTINUOUS
 62
     7
 10
-45.207417
 20
37.862585
 11
-33.457417
 21
49.612609
  0
LINE
  8
0
  6
CONTINUOUS
 62
     7
 10
-34.957417
 20
50.357672
 11
-33.457417
 21
51.857675
  0
LINE
  8
0
  6
CONTINUOUS
 62
     7
 10
-34.957417
 20
52.602738
 11
-33.457417
 21
54.102741
  0
LINE
  8
0
  6
CONTINUOUS
 62
     7
 10
-34.957417
 20
54.847805
 11
-34.480862
 21
55.32436
  0
ENDBLK
  8
0
  0
ENDSEC
  0
SECTION
  2
ENTITIES
  0
LINE
  8
0
  6
CONTINUOUS
 62
     7
 10
170
 20
173
 11
170
 21
-100
  0
LINE
  8
0
  6
CONTINUOUS
 62
     7
 10
-211
 20
-100
 11
170
 21
-100
  0
LINE
  8
0
  6
CONTINUOUS
 62
     7
 10
-211
 20
173
 11
170
 21
173
  0
LINE
  8
0
  6
CONTINUOUS
 62
     7
 10
-211
 20
173
 11
-211
 21
-100
  0
LINE
  8
0
  6
CONTINUOUS
 62
     7
 10
-191
 20
173
 11
-191
 21
69
  0
LINE
  8
0
  6
CONTINUOUS
 62
     7
 10
-211
 20
165
 11
-101
 21
165
  0
LINE
  8
0
  6
CONTINUOUS
 62
     7
 10
-211
 20
157
 11
-101
 21
157
  0
LINE
  8
0
  6
CONTINUOUS
 62
     7
 10
-211
 20
149
 11
-101
 21
149
  0
LINE
  8
0
  6
CONTINUOUS
 62
     7
 10
-211
 20
141
 11
-101
 21
141
  0
LINE
  8
0
  6
CONTINUOUS
 62
     7
 10
-211
 20
125
 11
-101
 21
125
  0
LINE
  8
0
  6
CONTINUOUS
 62
     7
 10
-191
 20
117
 11
-101
 21
117
  0
LINE
  8
0
  6
CONTINUOUS
 62
     7
 10
-191
 20
109
 11
-101
 21
109
  0
LINE
  8
0
  6
CONTINUOUS
 62
     7
 10
-191
 20
77
 11
-101
 21
77
  0
LINE
  8
0
  6
CONTINUOUS
 62
     7
 10
-211
 20
173
 11
-211
 21
77
  0
LINE
  8
0
  6
CONTINUOUS
 62
     7
 10
-211
 20
173
 11
-101
 21
173
  0
LINE
  8
0
  6
CONTINUOUS
 62
     7
 10
-101
 20
173
 11
-101
 21
69
  0
LINE
  8
0
  6
CONTINUOUS
 62
     7
 10
-211
 20
141
 11
-101
 21
141
  0
LINE
  8
0
  6
CONTINUOUS
 62
     7
 10
-191
 20
133
 11
-101
 21
133
  0
LINE
  8
0
  6
CENTER
 62
     7
 10
-92.159485
 20
51.518616
 11
-92.159485
 21
-58.559921
  0
LINE
  8
0
  6
CONTINUOUS
 62
     3
 10
-81.159485
 20
-7.2653122
 11
-81.159485
 21
-9.1369848
  0
LINE
  8
0
  6
CONTINUOUS
 62
     3
 10
-103.65946
 20
-58.536873
 11
-81.659462
 21
-58.536095
  0
LINE
  8
0
  6
CENTER
 62
     7
 10
-99.659485
 20
26.11352
 11
-84.659485
 21
26.11352
  0
LINE
  8
0
  6
CENTER
 62
     7
 10
-99.659485
 20
-42.836872
 11
-84.659485
 21
-42.836872
  0
LINE
  8
0
  6
CENTER
 62
     7
 10
-99.659485
 20
-17.836872
 11
-84.659485
 21
-17.836872
  0
LINE
  8
0
  6
CENTER
 62
     7
 10
-99.659485
 20
1.1135185
 11
-84.659485
 21
1.1135185
  0
LINE
  8
0
  6
CONTINUOUS
 62
     3
 10
-103.15948
 20
-7.2653122
 11
-103.15948
 21
-9.1369848
  0
LINE
  8
0
  6
CONTINUOUS
 62
     7
 10
-109.65948
 20
-9.1369848
 11
-74.659485
 21
-9.1369848
  0
LINE
  8
0
  6
CONTINUOUS
 62
     3
 10
-105.15948
 20
-11.136985
 11
-105.15948
 21
-56.836872
  0
LINE
  8
0
  6
CONTINUOUS
 62
     7
 10
-109.65948
 20
-11.136985
 11
-74.659485
 21
-11.136985
  0
LINE
  8
0
  6
CONTINUOUS
 62
     7
 10
-105.15948
 20
-53.536873
 11
-104.15948
 21
-53.536873
  0
LINE
  8
0
  6
CONTINUOUS
 62
     7
 10
-106.36491
 20
-79.536873
 11
-105.15948
 21
-79.536873
  0
LINE
  8
0
  6
CONTINUOUS
 62
     7
 10
-105.15948
 20
-53.536873
 11
-105.15948
 21
-56.836872
  0
LINE
  8
0
  6
CONTINUOUS
 62
     7
 10
-104.15948
 20
-11.136985
 11
-104.15948
 21
-58.536873
  0
LINE
  8
0
  6
CONTINUOUS
 62
     7
 10
-79.159485
 20
-11.136985
 11
-79.159485
 21
-62.336872
  0
LINE
  8
0
  6
CONTINUOUS
 62
     7
 10
-108.35948
 20
-73.398224
 11
-106.36491
 21
-79.536873
  0
LINE
  8
0
  6
CONTINUOUS
 62
     7
 10
-107.30299
 20
-73.413719
 11
-105.63837
 21
-78.536873
  0
LINE
  8
0
  6
CONTINUOUS
 62
     7
 10
-105.63837
 20
-78.536873
 11
-105.15948
 21
-78.536873
  0
LINE
  8
0
  6
CONTINUOUS
 62
     7
 10
-105.15948
 20
-78.536873
 11
-105.15948
 21
-79.536873
  0
LINE
  8
0
  6
CONTINUOUS
 62
     7
 10
-80.159485
 20
-53.536873
 11
-80.159485
 21
-60.586872
  0
LINE
  8
0
  6
CONTINUOUS
 62
     7
 10
-95.259483
 20
-62.636871
 11
-78.852654
 21
-62.636871
  0
LINE
  8
0
  6
CONTINUOUS
 62
     7
 10
-85.159485
 20
-61.336872
 11
-82.659485
 21
-61.336872
  0
LINE
  8
0
  6
CONTINUOUS
 62
     7
 10
-81.659485
 20
-58.536873
 11
-81.659485
 21
-60.586872
  0
LINE
  8
0
  6
CONTINUOUS
 62
     7
 10
-82.659485
 20
-59.536873
 11
-82.659485
 21
-61.336872
  0
LINE
  8
0
  6
CONTINUOUS
 62
     7
 10
-85.159485
 20
-61.336872
 11
-85.159485
 21
-62.336872
  0
LINE
  8
0
  6
CONTINUOUS
 62
     7
 10
-104.15948
 20
-58.536873
 11
-81.659485
 21
-58.536873
  0
LINE
  8
0
  6
CONTINUOUS
 62
     7
 10
-104.15948
 20
-59.536873
 11
-82.659485
 21
-59.536873
  0
LINE
  8
0
  6
CONTINUOUS
 62
     7
 10
-101.65948
 20
-61.336872
 11
-101.65948
 21
-62.336872
  0
LINE
  8
0
  6
CONTINUOUS
 62
     7
 10
-104.15948
 20
-61.336872
 11
-101.65948
 21
-61.336872
  0
LINE
  8
0
  6
CONTINUOUS
 62
     7
 10
-105.13451
 20
-62.336872
 11
-101.65948
 21
-62.336872
  0
LINE
  8
0
  6
CONTINUOUS
 62
     7
 10
-104.15948
 20
-59.536873
 11
-104.15948
 21
-61.336872
  0
LINE
  8
0
  6
CONTINUOUS
 62
     7
 10
-80.159485
 20
-53.536873
 11
-79.159485
 21
-53.536873
  0
LINE
  8
0
  6
CONTINUOUS
 62
     7
 10
-91.659485
 20
-31.336872
 11
-91.659485
 21
-37.836872
  0
LINE
  8
0
  6
CONTINUOUS
 62
     7
 10
-92.659485
 20
-31.336872
 11
-92.659485
 21
-37.836872
  0
LINE
  8
0
  6
CONTINUOUS
 62
     7
 10
-104.15948
 20
-57.836872
 11
-103.15948
 21
-57.836872
  0
LINE
  8
0
  6
CONTINUOUS
 62
     7
 10
-80.159485
 20
36.913521
 11
-80.159485
 21
-9.1369848
  0
LINE
  8
0
  6
CONTINUOUS
 62
     7
 10
-92.659485
 20
-37.836876
 11
-104.15948
 21
-50.836876
  0
LINE
  8
0
  6
CONTINUOUS
 62
     7
 10
-91.659477
 20
-37.836872
 11
-80.159485
 21
-50.836872
  0
LINE
  8
0
  6
CONTINUOUS
 62
     7
 10
-81.159485
 20
-51.215702
 11
-81.159485
 21
-57.836872
  0
LINE
  8
0
  6
CONTINUOUS
 62
     7
 10
-103.15948
 20
-51.215702
 11
-103.15948
 21
-57.836872
  0
LINE
  8
0
  6
CONTINUOUS
 62
     7
 10
-96.149559
 20
-43.291447
 11
-103.15948
 21
-51.215706
  0
LINE
  8
0
  6
CONTINUOUS
 62
     7
 10
-88.169403
 20
-43.291443
 11
-81.159485
 21
-51.215702
  0
LINE
  8
0
  6
CONTINUOUS
 62
     7
 10
-81.159485
 20
-57.836872
 11
-80.159485
 21
-57.836872
  0
LINE
  8
0
  6
CONTINUOUS
 62
     7
 10
-93.601707
 20
-45.334873
 11
-93.173447
 21
-44.593109
  0
LINE
  8
0
  6
CONTINUOUS
 62
     7
 10
-91.145515
 20
-44.593113
 11
-90.717262
 21
-45.334873
  0
LINE
  8
0
  6
CONTINUOUS
 62
     7
 10
-91.145515
 20
-19.593113
 11
-90.717262
 21
-20.334871
  0
LINE
  8
0
  6
CONTINUOUS
 62
     7
 10
-104.15948
 20
-32.836872
 11
-103.15948
 21
-32.836872
  0
LINE
  8
0
  6
CONTINUOUS
 62
     7
 10
-93.601707
 20
-20.334871
 11
-93.173447
 21
-19.593109
  0
LINE
  8
0
  6
CONTINUOUS
 62
     7
 10
-96.149567
 20
-18.291445
 11
-103.15948
 21
-26.215704
  0
LINE
  8
0
  6
CENTER
 62
     7
 10
-99.659485
 20
-17.836872
 11
-84.659485
 21
-17.836872
  0
LINE
  8
0
  6
CONTINUOUS
 62
     7
 10
-88.169403
 20
-18.291445
 11
-81.159485
 21
-26.2157
  0
LINE
  8
0
  6
CONTINUOUS
 62
     7
 10
-81.159485
 20
-32.836872
 11
-80.159485
 21
-32.836872
  0
LINE
  8
0
  6
CONTINUOUS
 62
     7
 10
-92.659485
 20
-12.836874
 11
-104.15948
 21
-25.836872
  0
LINE
  8
0
  6
CONTINUOUS
 62
     7
 10
-91.659485
 20
-12.836872
 11
-80.159477
 21
-25.836872
  0
LINE
  8
0
  6
CONTINUOUS
 62
     7
 10
-103.15948
 20
-26.215704
 11
-103.15948
 21
-32.836872
  0
LINE
  8
0
  6
CONTINUOUS
 62
     7
 10
-77.859482
 20
-63.630043
 11
-77.859482
 21
-77.636871
  0
LINE
  8
0
  6
CONTINUOUS
 62
     7
 10
-95.259483
 20
-62.636871
 11
-95.259483
 21
-66.036873
  0
LINE
  8
0
  6
CONTINUOUS
 62
     7
 10
-94.259483
 20
-63.636871
 11
-80.116333
 21
-63.636871
  0
LINE
  8
0
  6
CONTINUOUS
 62
     7
 10
-94.259483
 20
-63.636871
 11
-94.259483
 21
-65.036873
  0
LINE
  8
0
  6
CONTINUOUS
 62
     7
 10
-92.759483
 20
-65.036873
 11
-92.759483
 21
-66.036873
  0
LINE
  8
0
  6
CONTINUOUS
 62
     7
 10
-94.259483
 20
-65.036873
 11
-92.759483
 21
-65.036873
  0
LINE
  8
0
  6
CONTINUOUS
 62
     7
 10
-95.259483
 20
-66.036873
 11
-92.759483
 21
-66.036873
  0
LINE
  8
0
  6
CONTINUOUS
 62
     7
 10
-78.859482
 20
-64.89373
 11
-78.859482
 21
-71.636871
  0
LINE
  8
0
  6
CONTINUOUS
 62
     7
 10
-79.359482
 20
-79.636871
 11
-78.395378
 21
-79.636871
  0
LINE
  8
0
  6
CONTINUOUS
 62
     7
 10
-79.359482
 20
-77.636871
 11
-78.859482
 21
-77.636871
  0
LINE
  8
0
  6
CONTINUOUS
 62
     7
 10
-80.116341
 20
-63.636875
 11
-78.859482
 21
-64.89373
  0
LINE
  8
0
  6
CONTINUOUS
 62
     7
 10
-78.395378
 20
-79.636871
 11
-77.859482
 21
-77.636871
  0
LINE
  8
0
  6
CONTINUOUS
 62
     7
 10
-79.359482
 20
-77.636871
 11
-79.359482
 21
-79.636871
  0
LINE
  8
0
  6
CONTINUOUS
 62
     7
 10
-80.259483
 20
-71.636871
 11
-78.859482
 21
-71.636871
  0
LINE
  8
0
  6
CONTINUOUS
 62
     7
 10
-81.259483
 20
-72.636871
 11
-78.859482
 21
-72.636871
  0
LINE
  8
0
  6
CONTINUOUS
 62
     7
 10
-81.259483
 20
-70.136871
 11
-80.259483
 21
-70.136871
  0
LINE
  8
0
  6
CONTINUOUS
 62
     7
 10
-80.259483
 20
-70.136871
 11
-80.259483
 21
-71.636871
  0
LINE
  8
0
  6
CONTINUOUS
 62
     7
 10
-81.259483
 20
-70.136871
 11
-81.259483
 21
-72.636871
  0
LINE
  8
0
  6
CONTINUOUS
 62
     7
 10
-78.859482
 20
-72.636871
 11
-78.859482
 21
-77.636871
  0
LINE
  8
0
  6
CONTINUOUS
 62
     7
 10
-94.259483
 20
-64.836876
 11
-80.613396
 21
-64.836876
  0
LINE
  8
0
  6
CONTINUOUS
 62
     7
 10
-80.613396
 20
-64.836876
 11
-80.059486
 21
-65.390785
  0
LINE
  8
0
  6
CONTINUOUS
 62
     7
 10
-80.059479
 20
-65.390785
 11
-80.059479
 21
-71.636871
  0
LINE
  8
0
  6
CONTINUOUS
 62
     7
 10
-103.65948
 20
-59.536873
 11
-103.65948
 21
-61.136871
  0
LINE
  8
0
  6
CONTINUOUS
 62
     7
 10
-103.65948
 20
-61.136871
 11
-82.659485
 21
-61.136871
  0
LINE
  8
0
  6
CONTINUOUS
 62
     7
 10
-95.659485
 20
-61.136871
 11
-95.659485
 21
-72.336876
  0
LINE
  8
0
  6
CONTINUOUS
 62
     7
 10
-97.259483
 20
-72.336876
 11
-95.659485
 21
-72.336876
  0
LINE
  8
0
  6
CONTINUOUS
 62
     7
 10
-97.259483
 20
-61.136871
 11
-97.259483
 21
-72.336876
  0
LINE
  8
0
  6
CONTINUOUS
 62
     7
 10
-102.85948
 20
-70.636871
 11
-98.259483
 21
-70.636871
  0
LINE
  8
0
  6
CONTINUOUS
 62
     7
 10
-102.85948
 20
-66.636871
 11
-98.259483
 21
-66.636871
  0
LINE
  8
0
  6
CONTINUOUS
 62
     7
 10
-98.259483
 20
-65.636871
 11
-97.259483
 21
-65.636871
  0
LINE
  8
0
  6
CONTINUOUS
 62
     7
 10
-98.259483
 20
-71.636871
 11
-97.259483
 21
-71.636871
  0
LINE
  8
0
  6
CONTINUOUS
 62
     7
 10
-98.259483
 20
-65.636871
 11
-98.259483
 21
-71.636871
  0
LINE
  8
0
  6
CONTINUOUS
 62
     7
 10
-95.659485
 20
-70.636871
 11
-81.259483
 21
-70.636871
  0
LINE
  8
0
  6
CONTINUOUS
 62
     7
 10
-95.659485
 20
-66.636871
 11
-80.059479
 21
-66.636871
  0
LINE
  8
0
  6
CONTINUOUS
 62
     7
 10
-102.85948
 20
-66.636871
 11
-102.85948
 21
-70.636871
  0
LINE
  8
0
  6
CONTINUOUS
 62
     7
 10
-102.85948
 20
-67.136871
 11
-98.259483
 21
-67.136871
  0
LINE
  8
0
  6
CONTINUOUS
 62
     7
 10
-102.85948
 20
-70.136871
 11
-98.259483
 21
-70.136871
  0
LINE
  8
0
  6
CONTINUOUS
 62
     7
 10
-95.659485
 20
-67.136871
 11
-80.059479
 21
-67.136871
  0
LINE
  8
0
  6
CONTINUOUS
 62
     7
 10
-95.659485
 20
-70.136871
 11
-81.259483
 21
-70.136871
  0
LINE
  8
0
  6
CONTINUOUS
 62
     7
 10
-91.145515
 20
-0.64271903
 11
-90.717262
 21
-1.3844819
  0
LINE
  8
0
  6
CONTINUOUS
 62
     7
 10
-93.6017
 20
-1.3844819
 11
-93.173447
 21
-0.64272231
  0
LINE
  8
0
  6
CONTINUOUS
 62
     7
 10
-91.659485
 20
12.613519
 11
-91.659485
 21
6.1135182
  0
LINE
  8
0
  6
CONTINUOUS
 62
     7
 10
-92.659485
 20
12.613519
 11
-92.659485
 21
6.1135182
  0
LINE
  8
0
  6
CONTINUOUS
 62
     7
 10
-96.149559
 20
0.65894794
 11
-103.15948
 21
-7.2653112
  0
LINE
  8
0
  6
CENTER
 62
     7
 10
-99.659485
 20
1.1135185
 11
-84.659485
 21
1.1135185
  0
LINE
  8
0
  6
CONTINUOUS
 62
     7
 10
-88.169403
 20
0.65894473
 11
-81.159485
 21
-7.2653146
  0
LINE
  8
0
  6
CONTINUOUS
 62
     7
 10
-92.659485
 20
6.1135211
 11
-104.15948
 21
-6.8864799
  0
LINE
  8
0
  6
CONTINUOUS
 62
     7
 10
-91.659485
 20
6.1135149
 11
-80.159485
 21
-6.8864832
  0
LINE
  8
0
  6
CONTINUOUS
 62
     7
 10
-103.15948
 20
-7.2653122
 11
-103.15948
 21
-9.1369848
  0
LINE
  8
0
  6
CONTINUOUS
 62
     7
 10
-103.15948
 20
17.734688
 11
-103.15948
 21
11.11352
  0
LINE
  8
0
  6
CONTINUOUS
 62
     7
 10
-81.159485
 20
11.11352
 11
-80.159485
 21
11.11352
  0
LINE
  8
0
  6
CONTINUOUS
 62
     7
 10
-81.159485
 20
17.734688
 11
-81.159485
 21
11.11352
  0
LINE
  8
0
  6
CONTINUOUS
 62
     7
 10
-91.659477
 20
31.113518
 11
-80.159485
 21
18.11352
  0
LINE
  8
0
  6
CONTINUOUS
 62
     7
 10
-92.659485
 20
37.613518
 11
-92.659485
 21
31.11352
  0
LINE
  8
0
  6
CONTINUOUS
 62
     7
 10
-96.149559
 20
25.658947
 11
-103.15948
 21
17.734688
  0
LINE
  8
0
  6
CENTER
 62
     7
 10
-92.159485
 20
40.525723
 11
-92.159485
 21
10.390471
  0
LINE
  8
0
  6
CONTINUOUS
 62
     7
 10
-93.6017
 20
23.615519
 11
-93.173447
 21
24.357279
  0
LINE
  8
0
  6
CENTER
 62
     7
 10
-99.659485
 20
26.11352
 11
-84.659485
 21
26.11352
  0
LINE
  8
0
  6
CONTINUOUS
 62
     7
 10
-88.169403
 20
25.658947
 11
-81.159485
 21
17.734688
  0
LINE
  8
0
  6
CONTINUOUS
 62
     7
 10
-92.659485
 20
31.113522
 11
-104.15948
 21
18.11352
  0
LINE
  8
0
  6
CONTINUOUS
 62
     7
 10
-104.15948
 20
11.11352
 11
-103.15948
 21
11.11352
  0
LINE
  8
0
  6
CONTINUOUS
 62
     7
 10
-91.145515
 20
24.357285
 11
-90.717262
 21
23.61552
  0
LINE
  8
0
  6
CONTINUOUS
 62
     7
 10
-91.659485
 20
37.613518
 11
-91.659485
 21
31.11352
  0
LINE
  8
0
  6
CONTINUOUS
 62
     7
 10
-80.159485
 20
-11.136985
 11
-80.159485
 21
-56.859531
  0
LINE
  8
0
  6
CONTINUOUS
 62
     7
 10
-81.159485
 20
-26.215704
 11
-81.159485
 21
-32.836872
  0
LINE
  8
0
  6
CONTINUOUS
 62
     7
 10
-104.15948
 20
41.913521
 11
-104.15948
 21
-9.1369848
  0
LINE
  8
0
  6
CONTINUOUS
 62
     7
 10
-105.15948
 20
39.741699
 11
-105.15948
 21
-9.1369848
  0
LINE
  8
0
  6
CONTINUOUS
 62
     7
 10
-79.359482
 20
62.71352
 11
-78.395378
 21
62.71352
  0
LINE
  8
0
  6
CONTINUOUS
 62
     7
 10
-79.359482
 20
60.71352
 11
-79.359482
 21
62.71352
  0
LINE
  8
0
  6
CONTINUOUS
 62
     7
 10
-81.259483
 20
53.21352
 11
-81.259483
 21
55.71352
  0
LINE
  8
0
  6
CONTINUOUS
 62
     3
 10
-103.65946
 20
41.913517
 11
-81.659462
 21
41.912739
  0
LINE
  8
0
  6
CONTINUOUS
 62
     7
 10
-94.259483
 20
48.113518
 11
-92.759483
 21
48.113518
  0
LINE
  8
0
  6
CONTINUOUS
 62
     7
 10
-95.259483
 20
49.113518
 11
-92.759483
 21
49.113518
  0
LINE
  8
0
  6
CONTINUOUS
 62
     7
 10
-78.859482
 20
47.970375
 11
-78.859482
 21
54.71352
  0
LINE
  8
0
  6
CONTINUOUS
 62
     7
 10
-78.395378
 20
62.713524
 11
-77.859482
 21
60.71352
  0
LINE
  8
0
  6
CONTINUOUS
 62
     7
 10
-102.85948
 20
53.913521
 11
-98.259483
 21
53.913521
  0
LINE
  8
0
  6
CONTINUOUS
 62
     7
 10
-80.259483
 20
53.21352
 11
-80.259483
 21
54.71352
  0
LINE
  8
0
  6
CONTINUOUS
 62
     7
 10
-81.259483
 20
53.21352
 11
-80.259483
 21
53.21352
  0
LINE
  8
0
  6
CONTINUOUS
 62
     7
 10
-79.359482
 20
60.71352
 11
-78.859482
 21
60.71352
  0
LINE
  8
0
  6
CONTINUOUS
 62
     7
 10
-81.259483
 20
55.71352
 11
-78.859482
 21
55.71352
  0
LINE
  8
0
  6
CONTINUOUS
 62
     7
 10
-105.15948
 20
36.913521
 11
-104.15948
 21
36.913521
  0
LINE
  8
0
  6
CONTINUOUS
 62
     7
 10
-106.36491
 20
62.913521
 11
-105.15948
 21
62.913521
  0
LINE
  8
0
  6
CONTINUOUS
 62
     7
 10
-105.15948
 20
36.913521
 11
-105.15948
 21
40.21352
  0
LINE
  8
0
  6
CONTINUOUS
 62
     7
 10
-80.159485
 20
36.913521
 11
-79.159485
 21
36.913521
  0
LINE
  8
0
  6
CONTINUOUS
 62
     7
 10
-104.15948
 20
42.913521
 11
-82.659485
 21
42.913521
  0
LINE
  8
0
  6
CONTINUOUS
 62
     7
 10
-95.659485
 20
49.913521
 11
-80.059479
 21
49.913521
  0
LINE
  8
0
  6
CONTINUOUS
 62
     7
 10
-79.159485
 20
-9.1369848
 11
-79.159485
 21
45.71352
  0
LINE
  8
0
  6
CONTINUOUS
 62
     7
 10
-95.659485
 20
53.913521
 11
-81.259483
 21
53.913521
  0
LINE
  8
0
  6
CONTINUOUS
 62
     7
 10
-108.35948
 20
56.774864
 11
-106.36491
 21
62.913517
  0
LINE
  8
0
  6
CONTINUOUS
 62
     7
 10
-107.30298
 20
56.790363
 11
-105.63837
 21
61.913517
  0
LINE
  8
0
  6
CONTINUOUS
 62
     7
 10
-105.15948
 20
61.913521
 11
-105.15948
 21
62.913521
  0
LINE
  8
0
  6
CONTINUOUS
 62
     7
 10
-104.15948
 20
42.913521
 11
-104.15948
 21
44.71352
  0
LINE
  8
0
  6
CONTINUOUS
 62
     7
 10
-80.159485
 20
36.913521
 11
-80.159485
 21
43.96352
  0
LINE
  8
0
  6
CONTINUOUS
 62
     7
 10
-105.63837
 20
61.913521
 11
-105.15948
 21
61.913521
  0
LINE
  8
0
  6
CONTINUOUS
 62
     7
 10
-81.659485
 20
41.913521
 11
-81.659485
 21
43.96352
  0
LINE
  8
0
  6
CONTINUOUS
 62
     7
 10
-85.159485
 20
44.71352
 11
-82.659485
 21
44.71352
  0
LINE
  8
0
  6
CONTINUOUS
 62
     7
 10
-95.259483
 20
45.71352
 11
-78.852654
 21
45.71352
  0
LINE
  8
0
  6
CONTINUOUS
 62
     7
 10
-82.659485
 20
42.913521
 11
-82.659485
 21
44.71352
  0
LINE
  8
0
  6
CONTINUOUS
 62
     7
 10
-77.859482
 20
46.706692
 11
-77.859482
 21
60.71352
  0
LINE
  8
0
  6
CONTINUOUS
 62
     7
 10
-105.13451
 20
45.71352
 11
-101.65948
 21
45.71352
  0
LINE
  8
0
  6
CONTINUOUS
 62
     7
 10
-104.15948
 20
44.71352
 11
-101.65948
 21
44.71352
  0
LINE
  8
0
  6
CONTINUOUS
 62
     7
 10
-85.159485
 20
44.71352
 11
-85.159485
 21
45.71352
  0
LINE
  8
0
  6
CONTINUOUS
 62
     7
 10
-94.259483
 20
46.71352
 11
-94.259483
 21
48.113518
  0
LINE
  8
0
  6
CONTINUOUS
 62
     7
 10
-104.15948
 20
41.913521
 11
-81.659485
 21
41.913521
  0
LINE
  8
0
  6
CONTINUOUS
 62
     7
 10
-101.65948
 20
44.71352
 11
-101.65948
 21
45.71352
  0
LINE
  8
0
  6
CONTINUOUS
 62
     7
 10
-92.759483
 20
48.113518
 11
-92.759483
 21
49.113518
  0
LINE
  8
0
  6
CONTINUOUS
 62
     7
 10
-102.85948
 20
50.413521
 11
-98.259483
 21
50.413521
  0
LINE
  8
0
  6
CONTINUOUS
 62
     7
 10
-80.116333
 20
46.71352
 11
-78.859482
 21
47.970375
  0
LINE
  8
0
  6
CONTINUOUS
 62
     7
 10
-94.259483
 20
46.71352
 11
-80.116333
 21
46.71352
  0
LINE
  8
0
  6
CONTINUOUS
 62
     7
 10
-95.259483
 20
45.71352
 11
-95.259483
 21
49.113518
  0
LINE
  8
0
  6
CONTINUOUS
 62
     7
 10
-102.85948
 20
53.413521
 11
-98.259483
 21
53.413521
  0
LINE
  8
0
  6
CONTINUOUS
 62
     7
 10
-95.659485
 20
50.413521
 11
-80.059479
 21
50.413521
  0
LINE
  8
0
  6
CONTINUOUS
 62
     7
 10
-95.659485
 20
53.413521
 11
-81.259483
 21
53.413521
  0
LINE
  8
0
  6
CONTINUOUS
 62
     7
 10
-102.85948
 20
49.913521
 11
-102.85948
 21
53.913521
  0
LINE
  8
0
  6
CONTINUOUS
 62
     7
 10
-78.859482
 20
55.71352
 11
-78.859482
 21
60.71352
  0
LINE
  8
0
  6
CONTINUOUS
 62
     7
 10
-102.85948
 20
49.913521
 11
-98.259483
 21
49.913521
  0
LINE
  8
0
  6
CONTINUOUS
 62
     7
 10
-98.259483
 20
54.913521
 11
-97.259483
 21
54.913521
  0
LINE
  8
0
  6
CONTINUOUS
 62
     7
 10
-98.259483
 20
48.913521
 11
-97.259483
 21
48.913521
  0
LINE
  8
0
  6
CONTINUOUS
 62
     7
 10
-97.259483
 20
55.71352
 11
-95.659485
 21
55.71352
  0
LINE
  8
0
  6
CONTINUOUS
 62
     7
 10
-97.259483
 20
44.513519
 11
-97.259483
 21
55.71352
  0
LINE
  8
0
  6
CONTINUOUS
 62
     7
 10
-103.65948
 20
42.913521
 11
-103.65948
 21
44.513519
  0
LINE
  8
0
  6
CONTINUOUS
 62
     7
 10
-103.65948
 20
44.513519
 11
-82.659485
 21
44.513519
  0
LINE
  8
0
  6
CONTINUOUS
 62
     7
 10
-98.259483
 20
48.913521
 11
-98.259483
 21
54.913521
  0
LINE
  8
0
  6
CONTINUOUS
 62
     7
 10
-95.659485
 20
44.513519
 11
-95.659485
 21
55.71352
  0
LINE
  8
0
  6
CONTINUOUS
 62
     7
 10
-80.059479
 20
48.46743
 11
-80.059479
 21
54.71352
  0
LINE
  8
0
  6
CONTINUOUS
 62
     7
 10
-80.613388
 20
47.913517
 11
-80.059479
 21
48.467426
  0
LINE
  8
0
  6
CONTINUOUS
 62
     7
 10
-94.259483
 20
47.913521
 11
-80.613396
 21
47.913521
  0
LINE
  8
0
  6
CONTINUOUS
 62
     7
 10
-80.259483
 20
54.71352
 11
-78.859482
 21
54.71352
  0
LINE
  8
0
  6
CENTER
 62
     7
 10
-152.15948
 20
-12.837375
 11
-152.15948
 21
-58.559921
  0
LINE
  8
0
  6
CONTINUOUS
 62
     7
 10
-140.15948
 20
-11.136985
 11
-140.15948
 21
-56.859531
  0
LINE
  8
0
  6
CONTINUOUS
 62
     7
 10
-139.35948
 20
-79.636871
 11
-138.39539
 21
-79.636871
  0
LINE
  8
0
  6
CONTINUOUS
 62
     7
 10
-163.15948
 20
-26.215704
 11
-163.15948
 21
-32.836872
  0
LINE
  8
0
  6
CONTINUOUS
 62
     7
 10
-148.1694
 20
-18.291447
 11
-141.15948
 21
-26.215706
  0
LINE
  8
0
  6
CONTINUOUS
 62
     7
 10
-139.35948
 20
-77.636871
 11
-139.35948
 21
-79.636871
  0
LINE
  8
0
  6
CONTINUOUS
 62
     7
 10
-151.14552
 20
-44.593113
 11
-150.71725
 21
-45.334873
  0
LINE
  8
0
  6
CONTINUOUS
 62
     7
 10
-164.15948
 20
-57.836872
 11
-163.15948
 21
-57.836872
  0
LINE
  8
0
  6
CONTINUOUS
 62
     7
 10
-141.25948
 20
-70.136871
 11
-141.25948
 21
-72.636871
  0
LINE
  8
0
  6
CENTER
 62
     7
 10
-159.65948
 20
-17.836872
 11
-144.65948
 21
-17.836872
  0
LINE
  8
0
  6
CONTINUOUS
 62
     7
 10
-141.15948
 20
-32.836872
 11
-140.15948
 21
-32.836872
  0
LINE
  8
0
  6
CONTINUOUS
 62
     7
 10
-151.65948
 20
-12.836871
 11
-140.15948
 21
-25.836874
  0
LINE
  8
0
  6
CONTINUOUS
 62
     3
 10
-163.65947
 20
-58.536873
 11
-141.65947
 21
-58.536095
  0
LINE
  8
0
  6
CONTINUOUS
 62
     7
 10
-153.6017
 20
-45.334873
 11
-153.17345
 21
-44.593113
  0
LINE
  8
0
  6
CONTINUOUS
 62
     7
 10
-151.65948
 20
-31.336872
 11
-151.65948
 21
-37.836872
  0
LINE
  8
0
  6
CONTINUOUS
 62
     7
 10
-152.65948
 20
-31.336872
 11
-152.65948
 21
-37.836872
  0
LINE
  8
0
  6
CONTINUOUS
 62
     7
 10
-156.14955
 20
-43.291439
 11
-163.15948
 21
-51.215698
  0
LINE
  8
0
  6
CENTER
 62
     7
 10
-159.65948
 20
-42.836872
 11
-144.65948
 21
-42.836872
  0
LINE
  8
0
  6
CONTINUOUS
 62
     7
 10
-154.25948
 20
-65.036873
 11
-152.75948
 21
-65.036873
  0
LINE
  8
0
  6
CONTINUOUS
 62
     7
 10
-164.15948
 20
-32.836872
 11
-163.15948
 21
-32.836872
  0
LINE
  8
0
  6
CONTINUOUS
 62
     7
 10
-153.6017
 20
-20.334875
 11
-153.17345
 21
-19.593111
  0
LINE
  8
0
  6
CONTINUOUS
 62
     7
 10
-155.25948
 20
-66.036873
 11
-152.75948
 21
-66.036873
  0
LINE
  8
0
  6
CONTINUOUS
 62
     7
 10
-151.14552
 20
-19.593113
 11
-150.71725
 21
-20.334873
  0
LINE
  8
0
  6
CENTER
 62
     7
 10
-159.65948
 20
-17.836872
 11
-144.65948
 21
-17.836872
  0
LINE
  8
0
  6
CONTINUOUS
 62
     7
 10
-141.15948
 20
-26.215704
 11
-141.15948
 21
-32.836872
  0
LINE
  8
0
  6
CONTINUOUS
 62
     7
 10
-138.85948
 20
-64.89373
 11
-138.85948
 21
-71.636871
  0
LINE
  8
0
  6
CONTINUOUS
 62
     7
 10
-138.39539
 20
-79.636879
 11
-137.85948
 21
-77.636871
  0
LINE
  8
0
  6
CONTINUOUS
 62
     7
 10
-169.65948
 20
-9.1369848
 11
-134.65948
 21
-9.1369848
  0
LINE
  8
0
  6
CONTINUOUS
 62
     3
 10
-165.15948
 20
-11.136985
 11
-165.15948
 21
-56.836872
  0
LINE
  8
0
  6
CONTINUOUS
 62
     7
 10
-148.1694
 20
-43.291447
 11
-141.15948
 21
-51.215702
  0
LINE
  8
0
  6
CONTINUOUS
 62
     7
 10
-141.15948
 20
-57.836872
 11
-140.15948
 21
-57.836872
  0
LINE
  8
0
  6
CONTINUOUS
 62
     7
 10
-141.15948
 20
-51.215702
 11
-141.15948
 21
-57.836872
  0
LINE
  8
0
  6
CONTINUOUS
 62
     7
 10
-169.65948
 20
-11.136985
 11
-134.65948
 21
-11.136985
  0
LINE
  8
0
  6
CONTINUOUS
 62
     7
 10
-152.65948
 20
-37.836868
 11
-164.15948
 21
-50.836868
  0
LINE
  8
0
  6
CONTINUOUS
 62
     7
 10
-162.85948
 20
-70.636871
 11
-158.25948
 21
-70.636871
  0
LINE
  8
0
  6
CONTINUOUS
 62
     7
 10
-140.25948
 20
-70.136871
 11
-140.25948
 21
-71.636871
  0
LINE
  8
0
  6
CONTINUOUS
 62
     7
 10
-141.25948
 20
-70.136871
 11
-140.25948
 21
-70.136871
  0
LINE
  8
0
  6
CONTINUOUS
 62
     7
 10
-151.65948
 20
-37.836872
 11
-140.15948
 21
-50.836872
  0
LINE
  8
0
  6
CONTINUOUS
 62
     7
 10
-139.35948
 20
-77.636871
 11
-138.85948
 21
-77.636871
  0
LINE
  8
0
  6
CONTINUOUS
 62
     7
 10
-156.14957
 20
-18.291445
 11
-163.15948
 21
-26.215704
  0
LINE
  8
0
  6
CONTINUOUS
 62
     7
 10
-163.15948
 20
-51.215702
 11
-163.15948
 21
-57.836872
  0
LINE
  8
0
  6
CONTINUOUS
 62
     7
 10
-152.65948
 20
-12.836875
 11
-164.15948
 21
-25.836866
  0
LINE
  8
0
  6
CONTINUOUS
 62
     7
 10
-141.25948
 20
-72.636871
 11
-138.85948
 21
-72.636871
  0
LINE
  8
0
  6
CONTINUOUS
 62
     7
 10
-165.15948
 20
-53.536873
 11
-164.15948
 21
-53.536873
  0
LINE
  8
0
  6
CONTINUOUS
 62
     7
 10
-165.98961
 20
-79.536873
 11
-165.15948
 21
-79.536873
  0
LINE
  8
0
  6
CONTINUOUS
 62
     7
 10
-165.15948
 20
-53.536873
 11
-165.15948
 21
-66.536873
  0
LINE
  8
0
  6
CONTINUOUS
 62
     7
 10
-140.15948
 20
-53.536873
 11
-139.15948
 21
-53.536873
  0
LINE
  8
0
  6
CONTINUOUS
 62
     7
 10
-164.15948
 20
-11.136985
 11
-164.15948
 21
-58.536873
  0
LINE
  8
0
  6
CONTINUOUS
 62
     7
 10
-164.15948
 20
-59.536873
 11
-142.65948
 21
-59.536873
  0
LINE
  8
0
  6
CONTINUOUS
 62
     7
 10
-155.65948
 20
-66.636871
 11
-140.05948
 21
-66.636871
  0
LINE
  8
0
  6
CONTINUOUS
 62
     7
 10
-139.15948
 20
-11.136985
 11
-139.15948
 21
-62.336872
  0
LINE
  8
0
  6
CONTINUOUS
 62
     7
 10
-155.65948
 20
-70.636871
 11
-141.25948
 21
-70.636871
  0
LINE
  8
0
  6
CONTINUOUS
 62
     7
 10
-164.15948
 20
-59.536873
 11
-164.15948
 21
-61.336872
  0
LINE
  8
0
  6
CONTINUOUS
 62
     7
 10
-140.15948
 20
-53.536873
 11
-140.15948
 21
-60.586872
  0
LINE
  8
0
  6
CONTINUOUS
 62
     7
 10
-141.65948
 20
-58.536873
 11
-141.65948
 21
-60.586872
  0
LINE
  8
0
  6
CONTINUOUS
 62
     7
 10
-145.15948
 20
-61.336872
 11
-142.65948
 21
-61.336872
  0
LINE
  8
0
  6
CONTINUOUS
 62
     7
 10
-155.25948
 20
-62.636871
 11
-138.85266
 21
-62.636871
  0
LINE
  8
0
  6
CONTINUOUS
 62
     7
 10
-142.65948
 20
-59.536873
 11
-142.65948
 21
-61.336872
  0
LINE
  8
0
  6
CONTINUOUS
 62
     7
 10
-137.85948
 20
-63.630043
 11
-137.85948
 21
-77.636871
  0
LINE
  8
0
  6
CONTINUOUS
 62
     7
 10
-164.15948
 20
-62.336872
 11
-161.65948
 21
-62.336872
  0
LINE
  8
0
  6
CONTINUOUS
 62
     7
 10
-164.15948
 20
-61.336872
 11
-161.65948
 21
-61.336872
  0
LINE
  8
0
  6
CONTINUOUS
 62
     7
 10
-145.15948
 20
-61.336872
 11
-145.15948
 21
-62.336872
  0
LINE
  8
0
  6
CONTINUOUS
 62
     7
 10
-154.25948
 20
-63.636871
 11
-154.25948
 21
-65.036873
  0
LINE
  8
0
  6
CONTINUOUS
 62
     7
 10
-164.15948
 20
-58.536873
 11
-141.65948
 21
-58.536873
  0
LINE
  8
0
  6
CONTINUOUS
 62
     7
 10
-161.65948
 20
-61.336872
 11
-161.65948
 21
-62.336872
  0
LINE
  8
0
  6
CONTINUOUS
 62
     7
 10
-152.75948
 20
-65.036873
 11
-152.75948
 21
-66.036873
  0
LINE
  8
0
  6
CONTINUOUS
 62
     7
 10
-162.85948
 20
-67.136871
 11
-158.25948
 21
-67.136871
  0
LINE
  8
0
  6
CONTINUOUS
 62
     7
 10
-140.11633
 20
-63.636871
 11
-138.85948
 21
-64.893723
  0
LINE
  8
0
  6
CONTINUOUS
 62
     7
 10
-154.25948
 20
-63.636871
 11
-140.11633
 21
-63.636871
  0
LINE
  8
0
  6
CONTINUOUS
 62
     7
 10
-155.25948
 20
-62.636871
 11
-155.25948
 21
-66.036873
  0
LINE
  8
0
  6
CONTINUOUS
 62
     7
 10
-162.85948
 20
-70.136871
 11
-158.25948
 21
-70.136871
  0
LINE
  8
0
  6
CONTINUOUS
 62
     7
 10
-155.65948
 20
-67.136871
 11
-140.05948
 21
-67.136871
  0
LINE
  8
0
  6
CONTINUOUS
 62
     7
 10
-155.65948
 20
-70.136871
 11
-141.25948
 21
-70.136871
  0
LINE
  8
0
  6
CONTINUOUS
 62
     7
 10
-162.85948
 20
-66.636871
 11
-162.85948
 21
-70.636871
  0
LINE
  8
0
  6
CONTINUOUS
 62
     7
 10
-138.85948
 20
-72.636871
 11
-138.85948
 21
-77.636871
  0
LINE
  8
0
  6
CONTINUOUS
 62
     7
 10
-162.85948
 20
-66.636871
 11
-158.25948
 21
-66.636871
  0
LINE
  8
0
  6
CONTINUOUS
 62
     7
 10
-158.25948
 20
-71.536873
 11
-157.25948
 21
-71.536873
  0
LINE
  8
0
  6
CONTINUOUS
 62
     7
 10
-158.25948
 20
-65.536873
 11
-157.25948
 21
-65.536873
  0
LINE
  8
0
  6
CONTINUOUS
 62
     7
 10
-157.25948
 20
-72.336876
 11
-155.65948
 21
-72.336876
  0
LINE
  8
0
  6
CONTINUOUS
 62
     7
 10
-157.25948
 20
-61.136871
 11
-157.25948
 21
-72.336876
  0
LINE
  8
0
  6
CONTINUOUS
 62
     7
 10
-163.65948
 20
-59.536873
 11
-163.65948
 21
-61.136871
  0
LINE
  8
0
  6
CONTINUOUS
 62
     7
 10
-163.65948
 20
-61.136871
 11
-142.65948
 21
-61.136871
  0
LINE
  8
0
  6
CONTINUOUS
 62
     7
 10
-158.25948
 20
-65.536873
 11
-158.25948
 21
-71.536873
  0
LINE
  8
0
  6
CONTINUOUS
 62
     7
 10
-155.65948
 20
-61.136871
 11
-155.65948
 21
-72.336876
  0
LINE
  8
0
  6
CONTINUOUS
 62
     7
 10
-140.05948
 20
-65.390785
 11
-140.05948
 21
-71.636871
  0
LINE
  8
0
  6
CONTINUOUS
 62
     7
 10
-140.61339
 20
-64.836868
 11
-140.05948
 21
-65.390778
  0
LINE
  8
0
  6
CONTINUOUS
 62
     7
 10
-154.25948
 20
-64.836876
 11
-140.61339
 21
-64.836876
  0
LINE
  8
0
  6
CONTINUOUS
 62
     7
 10
-140.25948
 20
-71.636871
 11
-138.85948
 21
-71.636871
  0
LINE
  8
0
  6
CONTINUOUS
 62
     7
 10
-166.65948
 20
-69.134949
 11
-166.65948
 21
-77.036873
  0
LINE
  8
0
  6
CONTINUOUS
 62
     7
 10
-164.15948
 20
-62.336872
 11
-164.15948
 21
-66.536873
  0
LINE
  8
0
  6
CONTINUOUS
 62
     7
 10
-165.65948
 20
-69.65937
 11
-165.65948
 21
-76.90522
  0
LINE
  8
0
  6
CONTINUOUS
 62
     7
 10
-166.65948
 20
-77.036873
 11
-165.98961
 21
-79.536873
  0
LINE
  8
0
  6
CONTINUOUS
 62
     7
 10
-165.65948
 20
-76.90522
 11
-165.15948
 21
-78.771248
  0
LINE
  8
0
  6
CONTINUOUS
 62
     7
 10
-165.15948
 20
-78.771248
 11
-165.15948
 21
-79.536873
  0
LINE
  8
0
  6
CONTINUOUS
 62
     7
 10
-17.81407
 20
-79.536873
 11
152.18593
 21
-79.536873
  0
LINE
  8
0
  6
CONTINUOUS
 62
     7
 10
-17.81407
 20
62.913521
 11
-17.81407
 21
-9.1369848
  0
LINE
  8
0
  6
CONTINUOUS
 62
     7
 10
152.18593
 20
62.913521
 11
152.18593
 21
-9.1369848
  0
LINE
  8
0
  6
CONTINUOUS
 62
     7
 10
8.1859293
 20
-53.536873
 11
126.18593
 21
-53.536873
  0
LINE
  8
0
  6
CONTINUOUS
 62
     7
 10
-17.81407
 20
62.913521
 11
152.18593
 21
62.913521
  0
LINE
  8
0
  6
CONTINUOUS
 62
     7
 10
8.1859293
 20
36.913521
 11
126.18593
 21
36.913521
  0
LINE
  8
0
  6
CONTINUOUS
 62
     7
 10
8.1859293
 20
36.913521
 11
8.1859293
 21
-9.1369848
  0
LINE
  8
0
  6
CONTINUOUS
 62
     7
 10
126.18593
 20
36.913521
 11
126.18593
 21
-9.1369848
  0
LINE
  8
0
  6
CONTINUOUS
 62
     7
 10
-17.814072
 20
62.913521
 11
8.1859293
 21
36.913517
  0
LINE
  8
0
  6
CONTINUOUS
 62
     7
 10
-17.81407
 20
-79.536873
 11
8.1859293
 21
-53.536873
  0
LINE
  8
0
  6
CONTINUOUS
 62
     7
 10
126.18593
 20
-53.536873
 11
152.18593
 21
-79.536873
  0
LINE
  8
0
  6
CONTINUOUS
 62
     7
 10
126.18593
 20
36.913521
 11
152.18593
 21
62.913521
  0
LINE
  8
0
  6
CONTINUOUS
 62
     7
 10
-20.81407
 20
-9.1369848
 11
155.18593
 21
-9.1369848
  0
LINE
  8
0
  6
CONTINUOUS
 62
     7
 10
-20.81407
 20
-11.136985
 11
155.18593
 21
-11.136985
  0
LINE
  8
0
  6
CONTINUOUS
 62
     7
 10
-17.81407
 20
-11.136985
 11
-17.81407
 21
-79.536873
  0
LINE
  8
0
  6
CONTINUOUS
 62
     7
 10
8.1859293
 20
-11.136985
 11
8.1859293
 21
-53.536873
  0
LINE
  8
0
  6
CONTINUOUS
 62
     7
 10
126.18593
 20
-11.136985
 11
126.18593
 21
-53.536873
  0
LINE
  8
0
  6
CONTINUOUS
 62
     7
 10
152.18593
 20
-11.136985
 11
152.18593
 21
-79.536873
  0
LINE
  8
0
  6
CONTINUOUS
 62
     7
 10
-0.61407042
 20
-62.336872
 11
134.98593
 21
-62.336872
  0
LINE
  8
0
  6
CONTINUOUS
 62
     7
 10
-1.7710203
 20
-63.493824
 11
136.14288
 21
-63.493824
  0
LINE
  8
0
  6
CONTINUOUS
 62
     7
 10
-0.61407042
 20
45.71352
 11
134.98593
 21
45.71352
  0
LINE
  8
0
  6
CONTINUOUS
 62
     7
 10
-1.6072416
 20
46.706692
 11
135.9791
 21
46.706692
  0
LINE
  8
0
  6
CONTINUOUS
 62
     7
 10
-1.6072416
 20
46.706692
 11
-1.6072416
 21
-9.1369848
  0
LINE
  8
0
  6
CONTINUOUS
 62
     7
 10
-0.61407042
 20
45.71352
 11
-0.61407042
 21
-9.1369848
  0
LINE
  8
0
  6
CONTINUOUS
 62
     7
 10
135.9791
 20
46.706692
 11
135.9791
 21
-9.1369848
  0
LINE
  8
0
  6
CONTINUOUS
 62
     7
 10
134.98593
 20
45.71352
 11
134.98593
 21
-9.1369848
  0
LINE
  8
0
  6
CONTINUOUS
 62
     7
 10
-0.61407042
 20
-11.136985
 11
-0.61407042
 21
-62.336872
  0
LINE
  8
0
  6
CONTINUOUS
 62
     7
 10
-1.6072416
 20
-11.136985
 11
-1.6072416
 21
-63.330044
  0
LINE
  8
0
  6
CONTINUOUS
 62
     7
 10
135.9791
 20
-11.136985
 11
135.9791
 21
-63.330044
  0
LINE
  8
0
  6
CONTINUOUS
 62
     7
 10
134.98593
 20
-11.136985
 11
134.98593
 21
-62.336872
  0
LINE
  8
0
  6
CONTINUOUS
 62
     7
 10
8.1859293
 20
31.11352
 11
126.18593
 21
31.11352
  0
LINE
  8
0
  6
CONTINUOUS
 62
     7
 10
8.1859293
 20
18.11352
 11
126.18593
 21
18.11352
  0
LINE
  8
0
  6
CONTINUOUS
 62
     7
 10
8.1859293
 20
11.11352
 11
126.18593
 21
11.11352
  0
LINE
  8
0
  6
CONTINUOUS
 62
     7
 10
8.1859293
 20
6.1135182
 11
126.18593
 21
6.1135182
  0
LINE
  8
0
  6
CONTINUOUS
 62
     7
 10
8.1859293
 20
-6.8864818
 11
126.18593
 21
-6.8864818
  0
LINE
  8
0
  6
CONTINUOUS
 62
     7
 10
8.1859293
 20
-25.836872
 11
126.18593
 21
-25.836872
  0
LINE
  8
0
  6
CONTINUOUS
 62
     7
 10
8.1859293
 20
-32.836872
 11
126.18593
 21
-32.836872
  0
LINE
  8
0
  6
CONTINUOUS
 62
     7
 10
8.1859293
 20
-37.836872
 11
126.18593
 21
-37.836872
  0
LINE
  8
0
  6
CONTINUOUS
 62
     7
 10
8.1859293
 20
-50.836872
 11
126.18593
 21
-50.836872
  0
LINE
  8
0
  6
CENTER
 62
     7
 10
-163.95706
 20
-68.636871
 11
-134.78708
 21
-68.636871
  0
LINE
  8
0
  6
CENTER
 62
     7
 10
-103.95706
 20
-68.636871
 11
-74.787079
 21
-68.636871
  0
LINE
  8
0
  6
CENTER
 62
     7
 10
-105.09433
 20
51.913521
 11
-73.833305
 21
51.913521
  0
LINE
  8
0
  6
CENTER
 62
     7
 10
116.18593
 20
-62.996872
 11
116.18593
 21
-74.076874
  0
LINE
  8
0
  6
CENTER
 62
     7
 10
110.64593
 20
-68.536873
 11
121.72593
 21
-68.536873
  0
LINE
  8
0
  6
CENTER
 62
     7
 10
18.18593
 20
-62.996872
 11
18.18593
 21
-74.076874
  0
LINE
  8
0
  6
CENTER
 62
     7
 10
12.645929
 20
-68.536873
 11
23.725929
 21
-68.536873
  0
LINE
  8
0
  6
CENTER
 62
     7
 10
18.18593
 20
57.453518
 11
18.18593
 21
46.37352
  0
LINE
  8
0
  6
CENTER
 62
     7
 10
12.645929
 20
51.913521
 11
23.725929
 21
51.913521
  0
LINE
  8
0
  6
CENTER
 62
     7
 10
116.18593
 20
57.453518
 11
116.18593
 21
46.37352
  0
LINE
  8
0
  6
CENTER
 62
     7
 10
110.64593
 20
51.913521
 11
121.72593
 21
51.913521
  0
LINE
  8
0
  6
CONTINUOUS
 62
     7
 10
-92.659485
 20
-11.136985
 11
-92.659485
 21
-12.836872
  0
LINE
  8
0
  6
CONTINUOUS
 62
     7
 10
-91.659485
 20
-11.136985
 11
-91.659485
 21
-12.836872
  0
LINE
  8
0
  6
CONTINUOUS
 62
     7
 10
-151.65948
 20
-11.136985
 11
-151.65948
 21
-12.836872
  0
LINE
  8
0
  6
CONTINUOUS
 62
     7
 10
-152.65948
 20
-11.136985
 11
-152.65948
 21
-12.836872
  0
LINE
  8
0
  6
CONTINUOUS
 62
     7
 10
8.1859293
 20
-12.836872
 11
126.18593
 21
-12.836872
  0
LINE
  8
0
  6
CONTINUOUS
 62
     7
 10
-85.159485
 20
-62.336872
 11
-79.159485
 21
-62.336872
  0
LINE
  8
0
  6
CONTINUOUS
 62
     7
 10
-145.15948
 20
-62.336872
 11
-139.15948
 21
-62.336872
  0
LINE
  8
0
  6
CONTINUOUS
 62
     7
 10
-191
 20
101
 11
-101
 21
101
  0
LINE
  8
0
  6
CONTINUOUS
 62
     7
 10
-191
 20
93
 11
-101
 21
93
  0
LINE
  8
0
  6
CONTINUOUS
 62
     7
 10
-191
 20
85
 11
-101
 21
85
  0
LINE
  8
0
  6
CONTINUOUS
 62
     7
 10
-211
 20
69
 11
-101
 21
69
  0
LINE
  8
0
  6
CONTINUOUS
 62
     7
 10
-61.703861
 20
164.79828
 11
58.296139
 21
164.79828
  0
LINE
  8
0
  6
CONTINUOUS
 62
     7
 10
-61.703861
 20
156.79828
 11
58.296139
 21
156.79828
  0
LINE
  8
0
  6
CONTINUOUS
 62
     7
 10
-61.703861
 20
148.79828
 11
58.296139
 21
148.79828
  0
LINE
  8
0
  6
CONTINUOUS
 62
     7
 10
-61.703861
 20
140.79828
 11
58.296139
 21
140.79828
  0
LINE
  8
0
  6
CONTINUOUS
 62
     7
 10
-61.703861
 20
132.79828
 11
58.296139
 21
132.79828
  0
LINE
  8
0
  6
CONTINUOUS
 62
     7
 10
-61.703861
 20
124.79829
 11
58.296139
 21
124.79829
  0
LINE
  8
0
  6
CONTINUOUS
 62
     7
 10
-61.703861
 20
164.79828
 11
-61.703861
 21
124.79829
  0
LINE
  8
0
  6
CONTINUOUS
 62
     7
 10
-21.703863
 20
164.79828
 11
-21.703863
 21
124.79829
  0
LINE
  8
0
  6
CONTINUOUS
 62
     7
 10
18.296137
 20
164.79828
 11
18.296137
 21
124.79829
  0
LINE
  8
0
  6
CONTINUOUS
 62
     7
 10
58.296139
 20
164.79828
 11
58.296139
 21
124.79829
  0
LINE
  8
0
  6
CONTINUOUS
 62
     7
 10
-61.703861
 20
156.79828
 11
-21.703863
 21
164.79828
  0
ARC
  8
0
  6
CONTINUOUS
 62
     7
 10
-120.15948
 20
-56.836872
 40
15
 50
322.52064
 51
360
  0
ARC
  8
0
  6
CONTINUOUS
 62
     7
 10
-118.65948
 20
-69.536873
 40
11
 50
339.4496
 51
18.953833
  0
ARC
  8
0
  6
CONTINUOUS
 62
     7
 10
-118.65948
 20
-69.536873
 40
12
 50
341.15128
 51
16.403347
  0
ARC
  8
0
  6
CONTINUOUS
 62
     7
 10
-120.15948
 20
-56.836872
 40
16
 50
324.41206
 51
339.89449
  0
ARC
  8
0
  6
CONTINUOUS
 62
     7
 10
-80.909485
 20
-60.586872
 40
0.75
 50
180
 51
360
  0
ARC
  8
0
  6
CONTINUOUS
 62
     7
 10
-92.159485
 20
-42.836872
 40
1.75
 50
0
 51
231.58506
  0
ARC
  8
0
  6
CONTINUOUS
 62
     7
 10
-92.159485
 20
-42.836872
 40
3.2
 50
192.26268
 51
234.06227
  0
ARC
  8
0
  6
CONTINUOUS
 62
     7
 10
-92.159485
 20
-31.336872
 40
0.5
 50
0
 51
180
  0
ARC
  8
0
  6
CONTINUOUS
 62
     7
 10
-88.5439
 20
-43.62273
 40
0.5
 50
41.496645
 51
167.73732
  0
ARC
  8
0
  6
CONTINUOUS
 62
     7
 10
-95.775063
 20
-43.62273
 40
0.5
 50
12.262675
 51
138.50336
  0
ARC
  8
0
  6
CONTINUOUS
 62
     7
 10
-92.159485
 20
-42.836872
 40
1.75
 50
308.41494
 51
360
  0
ARC
  8
0
  6
CONTINUOUS
 62
     7
 10
-92.159485
 20
-42.836872
 40
3.2
 50
305.93773
 51
347.73732
  0
ARC
  8
0
  6
CONTINUOUS
 62
     7
 10
-93.861511
 20
-45.184872
 40
0.30000001
 50
234.0624
 51
330.00011
  0
ARC
  8
0
  6
CONTINUOUS
 62
     7
 10
-93.433258
 20
-44.443111
 40
0.30000001
 50
330.00011
 51
51.584366
  0
ARC
  8
0
  6
CONTINUOUS
 62
     7
 10
-90.885712
 20
-44.443111
 40
0.30000001
 50
128.41563
 51
209.99989
  0
ARC
  8
0
  6
CONTINUOUS
 62
     7
 10
-90.457451
 20
-45.184872
 40
0.30000001
 50
209.99989
 51
305.9376
  0
ARC
  8
0
  6
CONTINUOUS
 62
     7
 10
-92.159485
 20
-17.836872
 40
1.75
 50
308.4149
 51
360
  0
ARC
  8
0
  6
CONTINUOUS
 62
     7
 10
-90.885712
 20
-19.443111
 40
0.30000001
 50
128.41541
 51
209.99958
  0
ARC
  8
0
  6
CONTINUOUS
 62
     7
 10
-93.861511
 20
-20.184872
 40
0.30000001
 50
234.0624
 51
330.00042
  0
ARC
  8
0
  6
CONTINUOUS
 62
     7
 10
-92.159485
 20
-17.836872
 40
1.75
 50
0
 51
231.5851
  0
ARC
  8
0
  6
CONTINUOUS
 62
     7
 10
-95.775063
 20
-18.622732
 40
0.5
 50
12.262675
 51
138.50336
  0
ARC
  8
0
  6
CONTINUOUS
 62
     7
 10
-90.457451
 20
-20.184872
 40
0.30000001
 50
209.99958
 51
305.9376
  0
ARC
  8
0
  6
CONTINUOUS
 62
     7
 10
-93.433258
 20
-19.443111
 40
0.30000001
 50
330.00042
 51
51.584592
  0
ARC
  8
0
  6
CONTINUOUS
 62
     7
 10
-88.5439
 20
-18.622732
 40
0.5
 50
41.496645
 51
167.73732
  0
ARC
  8
0
  6
CONTINUOUS
 62
     7
 10
-92.159485
 20
-17.836872
 40
3.2
 50
192.26271
 51
234.06227
  0
ARC
  8
0
  6
CONTINUOUS
 62
     7
 10
-92.159485
 20
-17.836872
 40
3.2
 50
305.93773
 51
347.73729
  0
ARC
  8
0
  6
CONTINUOUS
 62
     7
 10
-76.659485
 20
-61.436871
 40
2.5
 50
208.68545
 51
241.31467
  0
ARC
  8
0
  6
CONTINUOUS
 62
     7
 10
-85.059479
 20
-68.636871
 40
7.8000002
 50
337.38013
 51
22.619874
  0
ARC
  8
0
  6
CONTINUOUS
 62
     7
 10
-92.159485
 20
1.1135185
 40
1.75
 50
308.4149
 51
360
  0
ARC
  8
0
  6
CONTINUOUS
 62
     7
 10
-90.885712
 20
-0.49272043
 40
0.30000001
 50
128.41545
 51
209.99964
  0
ARC
  8
0
  6
CONTINUOUS
 62
     7
 10
-93.861511
 20
-1.2344807
 40
0.30000001
 50
234.06233
 51
330.00036
  0
ARC
  8
0
  6
CONTINUOUS
 62
     7
 10
-92.159485
 20
1.1135185
 40
1.75
 50
0
 51
231.5851
  0
ARC
  8
0
  6
CONTINUOUS
 62
     7
 10
-95.775063
 20
0.32765901
 40
0.5
 50
12.262658
 51
138.50339
  0
ARC
  8
0
  6
CONTINUOUS
 62
     7
 10
-90.457451
 20
-1.2344807
 40
0.30000001
 50
209.99964
 51
305.93767
  0
ARC
  8
0
  6
CONTINUOUS
 62
     7
 10
-93.433258
 20
-0.49272043
 40
0.30000001
 50
330.00036
 51
51.584546
  0
ARC
  8
0
  6
CONTINUOUS
 62
     7
 10
-88.5439
 20
0.32765901
 40
0.5
 50
41.496609
 51
167.73734
  0
ARC
  8
0
  6
CONTINUOUS
 62
     7
 10
-92.159485
 20
1.1135185
 40
3.2
 50
192.2627
 51
234.06226
  0
ARC
  8
0
  6
CONTINUOUS
 62
     7
 10
-92.159485
 20
12.613519
 40
0.5
 50
0
 51
180
  0
ARC
  8
0
  6
CONTINUOUS
 62
     7
 10
-92.159485
 20
1.1135185
 40
3.2
 50
305.93774
 51
347.7373
  0
ARC
  8
0
  6
CONTINUOUS
 62
     7
 10
-95.775063
 20
25.32766
 40
0.5
 50
12.262675
 51
138.50336
  0
ARC
  8
0
  6
CONTINUOUS
 62
     7
 10
-90.457451
 20
23.76552
 40
0.30000001
 50
209.99958
 51
305.9376
  0
ARC
  8
0
  6
CONTINUOUS
 62
     7
 10
-92.159485
 20
37.613518
 40
0.5
 50
0
 51
180
  0
ARC
  8
0
  6
CONTINUOUS
 62
     7
 10
-92.159485
 20
26.11352
 40
3.2
 50
192.26271
 51
234.06227
  0
ARC
  8
0
  6
CONTINUOUS
 62
     7
 10
-92.159485
 20
26.11352
 40
1.75
 50
308.4149
 51
360
  0
ARC
  8
0
  6
CONTINUOUS
 62
     7
 10
-93.861511
 20
23.76552
 40
0.30000001
 50
234.0624
 51
330.00042
  0
ARC
  8
0
  6
CONTINUOUS
 62
     7
 10
-93.433258
 20
24.50728
 40
0.30000001
 50
330.00042
 51
51.584592
  0
ARC
  8
0
  6
CONTINUOUS
 62
     7
 10
-88.5439
 20
25.32766
 40
0.5
 50
41.496645
 51
167.73732
  0
ARC
  8
0
  6
CONTINUOUS
 62
     7
 10
-92.159485
 20
26.11352
 40
3.2
 50
305.93773
 51
347.73729
  0
ARC
  8
0
  6
CONTINUOUS
 62
     7
 10
-90.885712
 20
24.50728
 40
0.30000001
 50
128.41541
 51
209.99958
  0
ARC
  8
0
  6
CONTINUOUS
 62
     7
 10
-92.159485
 20
26.11352
 40
1.75
 50
0
 51
231.5851
  0
ARC
  8
0
  6
CONTINUOUS
 62
     7
 10
-76.659485
 20
44.513519
 40
2.5
 50
118.68533
 51
151.31455
  0
ARC
  8
0
  6
CONTINUOUS
 62
     7
 10
-120.15948
 20
40.21352
 40
15
 50
0
 51
37.47937
  0
ARC
  8
0
  6
CONTINUOUS
 62
     7
 10
-118.65948
 20
52.913521
 40
11
 50
341.04619
 51
20.550417
  0
ARC
  8
0
  6
CONTINUOUS
 62
     7
 10
-118.65948
 20
52.913521
 40
12
 50
343.59667
 51
18.848719
  0
ARC
  8
0
  6
CONTINUOUS
 62
     7
 10
-120.15948
 20
40.21352
 40
16
 50
20.10551
 51
35.58795
  0
ARC
  8
0
  6
CONTINUOUS
 62
     7
 10
-80.909485
 20
43.96352
 40
0.75
 50
0
 51
180
  0
ARC
  8
0
  6
CONTINUOUS
 62
     7
 10
-85.059479
 20
51.913521
 40
7.8000002
 50
337.38013
 51
22.619874
  0
ARC
  8
0
  6
CONTINUOUS
 62
     7
 10
-136.65948
 20
-61.436871
 40
2.5
 50
208.68536
 51
241.31467
  0
ARC
  8
0
  6
CONTINUOUS
 62
     7
 10
-152.15948
 20
-17.836872
 40
3.2
 50
192.26274
 51
234.06227
  0
ARC
  8
0
  6
CONTINUOUS
 62
     7
 10
-152.15948
 20
-17.836872
 40
3.2
 50
305.93773
 51
347.73726
  0
ARC
  8
0
  6
CONTINUOUS
 62
     7
 10
-152.15948
 20
-42.836872
 40
1.75
 50
308.41513
 51
360
  0
ARC
  8
0
  6
CONTINUOUS
 62
     7
 10
-153.43326
 20
-19.443111
 40
0.30000001
 50
330.00042
 51
51.585734
  0
ARC
  8
0
  6
CONTINUOUS
 62
     7
 10
-150.88571
 20
-44.443111
 40
0.30000001
 50
128.41449
 51
209.99989
  0
ARC
  8
0
  6
CONTINUOUS
 62
     7
 10
-153.86151
 20
-45.184872
 40
0.30000001
 50
234.0624
 51
330.00011
  0
ARC
  8
0
  6
CONTINUOUS
 62
     7
 10
-152.15948
 20
-42.836872
 40
1.75
 50
0
 51
231.58487
  0
ARC
  8
0
  6
CONTINUOUS
 62
     7
 10
-155.77507
 20
-43.62273
 40
0.5
 50
12.262861
 51
138.50336
  0
ARC
  8
0
  6
CONTINUOUS
 62
     7
 10
-152.15948
 20
-17.836872
 40
1.75
 50
308.41509
 51
360
  0
ARC
  8
0
  6
CONTINUOUS
 62
     7
 10
-150.88571
 20
-19.443111
 40
0.30000001
 50
128.41427
 51
209.99958
  0
ARC
  8
0
  6
CONTINUOUS
 62
     7
 10
-150.45746
 20
-45.184872
 40
0.30000001
 50
209.99989
 51
305.9376
  0
ARC
  8
0
  6
CONTINUOUS
 62
     7
 10
-148.5439
 20
-18.622732
 40
0.5
 50
41.496645
 51
167.73714
  0
ARC
  8
0
  6
CONTINUOUS
 62
     7
 10
-153.43326
 20
-44.443111
 40
0.30000001
 50
330.00011
 51
51.585507
  0
ARC
  8
0
  6
CONTINUOUS
 62
     7
 10
-150.45746
 20
-20.184872
 40
0.30000001
 50
209.99958
 51
305.9376
  0
ARC
  8
0
  6
CONTINUOUS
 62
     7
 10
-148.5439
 20
-43.62273
 40
0.5
 50
41.496645
 51
167.73714
  0
ARC
  8
0
  6
CONTINUOUS
 62
     7
 10
-152.15948
 20
-42.836872
 40
3.2
 50
192.2627
 51
234.06227
  0
ARC
  8
0
  6
CONTINUOUS
 62
     7
 10
-152.15948
 20
-31.336872
 40
0.5
 50
0
 51
180
  0
ARC
  8
0
  6
CONTINUOUS
 62
     7
 10
-152.15948
 20
-42.836872
 40
3.2
 50
305.93773
 51
347.7373
  0
ARC
  8
0
  6
CONTINUOUS
 62
     7
 10
-152.15948
 20
-17.836872
 40
1.75
 50
0
 51
231.58491
  0
ARC
  8
0
  6
CONTINUOUS
 62
     7
 10
-153.86151
 20
-20.184872
 40
0.30000001
 50
234.0624
 51
330.00042
  0
ARC
  8
0
  6
CONTINUOUS
 62
     7
 10
-155.77507
 20
-18.622732
 40
0.5
 50
12.262861
 51
138.50336
  0
ARC
  8
0
  6
CONTINUOUS
 62
     7
 10
-140.90948
 20
-60.586872
 40
0.75
 50
180
 51
360
  0
ARC
  8
0
  6
CONTINUOUS
 62
     7
 10
-145.05948
 20
-68.636871
 40
7.8000002
 50
337.38013
 51
22.619874
  0
ARC
  8
0
  6
CONTINUOUS
 62
     7
 10
-168.15948
 20
-66.536873
 40
3
 50
300
 51
360
  0
ARC
  8
0
  6
CONTINUOUS
 62
     7
 10
-168.15948
 20
-66.536873
 40
4
 50
308.6822
 51
360
  0
CIRCLE
  8
0
  6
CONTINUOUS
 62
     7
 10
18.18593
 20
-68.536873
 40
3
  0
CIRCLE
  8
0
  6
CONTINUOUS
 62
     7
 10
116.18593
 20
-68.536873
 40
3
  0
CIRCLE
  8
0
  6
CONTINUOUS
 62
     7
 10
116.18593
 20
51.913521
 40
3
  0
CIRCLE
  8
0
  6
CONTINUOUS
 62
     7
 10
18.18593
 20
51.913521
 40
3
  0
ARC
  8
0
  6
CONTINUOUS
 62
     3
 10
15.143662
 20
-71.579155
 40
3.3053577
 50
23.014617
 51
66.985687
  0
ARC
  8
0
  6
CONTINUOUS
 62
     3
 10
21.228212
 20
-65.494591
 40
3.3053577
 50
203.01462
 51
246.9857
  0
ARC
  8
0
  6
CONTINUOUS
 62
     3
 10
21.228212
 20
-71.579155
 40
3.3053577
 50
113.01465
 51
156.98567
  0
ARC
  8
0
  6
CONTINUOUS
 62
     3
 10
15.143662
 20
-65.494606
 40
3.3053577
 50
293.01467
 51
336.98568
  0
ARC
  8
0
  6
CONTINUOUS
 62
     3
 10
113.14366
 20
-65.494606
 40
3.3053577
 50
293.01462
 51
336.98567
  0
ARC
  8
0
  6
CONTINUOUS
 62
     3
 10
119.22821
 20
-71.579155
 40
3.3053577
 50
113.01462
 51
156.98567
  0
ARC
  8
0
  6
CONTINUOUS
 62
     3
 10
119.22821
 20
-65.494591
 40
3.3053577
 50
203.01462
 51
246.98567
  0
ARC
  8
0
  6
CONTINUOUS
 62
     3
 10
113.14366
 20
-71.579155
 40
3.3053577
 50
23.014623
 51
66.985672
  0
ARC
  8
0
  6
CONTINUOUS
 62
     3
 10
113.14366
 20
48.871239
 40
3.3053577
 50
23.014684
 51
66.985672
  0
ARC
  8
0
  6
CONTINUOUS
 62
     3
 10
119.22821
 20
54.955803
 40
3.3053577
 50
203.01468
 51
246.98567
  0
ARC
  8
0
  6
CONTINUOUS
 62
     3
 10
119.22821
 20
48.871239
 40
3.3053577
 50
113.01462
 51
156.98567
  0
ARC
  8
0
  6
CONTINUOUS
 62
     3
 10
113.14366
 20
54.955788
 40
3.3053577
 50
293.01462
 51
336.98567
  0
ARC
  8
0
  6
CONTINUOUS
 62
     3
 10
15.143662
 20
54.955788
 40
3.3053577
 50
293.01467
 51
336.98568
  0
ARC
  8
0
  6
CONTINUOUS
 62
     3
 10
21.228212
 20
48.871239
 40
3.3053577
 50
113.01465
 51
156.98567
  0
ARC
  8
0
  6
CONTINUOUS
 62
     3
 10
21.228212
 20
54.955803
 40
3.3053577
 50
203.01468
 51
246.9857
  0
ARC
  8
0
  6
CONTINUOUS
 62
     3
 10
15.143662
 20
48.871239
 40
3.3053577
 50
23.014677
 51
66.985687
  0
CIRCLE
  8
0
  6
CONTINUOUS
 62
     7
 10
-135.60684
 20
136.87625
 40
2
  0
CIRCLE
  8
0
  6
CONTINUOUS
 62
     7
 10
-135.60684
 20
128.87625
 40
2
  0
TEXT
  8
0
  6
CONTINUOUS
 62
     7
 10
-205.343
 20
167.4
 40
3.2
 41
0.85537027
  1
品　名
  0
TEXT
  8
0
  6
CONTINUOUS
 62
     7
 10
-205.343
 20
159.4
 40
3.2
 41
0.85537027
  1
品　番
  0
TEXT
  8
0
  6
CONTINUOUS
 62
     7
 10
-205.343
 20
151.4
 40
3.2
 41
0.85537027
  1
材　質
  0
TEXT
  8
0
  6
CONTINUOUS
 62
     7
 10
-205.343
 20
143.4
 40
3.2
 41
0.85537027
  1
仕上げ
  0
TEXT
  8
0
  6
CONTINUOUS
 62
     7
 10
-208.543
 20
135.4
 40
3.2
 41
0.84892707
  1
セットビス
  0
TEXT
  8
0
  6
CONTINUOUS
 62
     7
 10
-203.743
 20
119.4
 40
3.2
 41
0.86439075
  1
備考
  0
TEXT
  8
0
  6
CONTINUOUS
 62
     7
 10
-188.143
 20
167.4
 40
3.2
 41
0.84741102
  1
フリ－ガラリ
  0
TEXT
  8
0
  6
CONTINUOUS
 62
     7
 10
-188.143
 20
159.4
 40
3.2
 41
0.84350122
  1
ＤＡ－１０６，ＤＡ－１０７
  0
TEXT
  8
0
  6
CONTINUOUS
 62
     7
 10
-188.143
 20
151.4
 40
3.2
 41
0.85537027
  1
アルミ
  0
TEXT
  8
0
  6
CONTINUOUS
 62
     7
 10
-188.143
 20
143.4
 40
3.2
 41
0.84496202
  1
アルマイトクリア－
  0
TEXT
  8
0
  6
CONTINUOUS
 62
     7
 10
-188.143
 20
135.4
 40
3.2
 41
0.84196145
  1
Ｍ４ｘＤ６ｘＬ２５丸サラ小ネジ　＋　ＳＵＳ：４本付
  0
TEXT
  8
0
  6
CONTINUOUS
 62
     7
 10
-188.143
 20
119.4
 40
3.2
 41
0.84326962
  1
※標準色：シルバ－、ブロンズ
  0
TEXT
  8
0
  6
CONTINUOUS
 62
     7
 10
-188.143
 20
111.4
 40
3.2
 41
0.8455654
  1
※開口率約４２％
  0
TEXT
  8
0
  6
CONTINUOUS
 62
     7
 10
-188.143
 20
103.4
 40
3.2
 41
0.84218649
  1
※ＤＡ－１０７は、引戸での御使用も可能です。
  0
TEXT
  8
0
  6
CONTINUOUS
 62
     7
 10
-161.30248
 20
-97.617166
 40
3.2
 41
1.1060081
  1
DA-107
  0
TEXT
  8
0
  6
CONTINUOUS
 62
     7
 10
-101.30248
 20
-97.617166
 40
3.2
 41
1.1060081
  1
DA-106
  0
TEXT
  8
0
  6
CONTINUOUS
 62
     7
 10
-188.143
 20
127.4
 40
3.2
 41
0.84196145
  1
Ｍ４ｘＤ６ｘＬ３５丸サラ小ネジ　＋　ＳＵＳ：４本付
  0
TEXT
  8
0
  6
CONTINUOUS
 62
     7
 10
-188.143
 20
95.4
 40
3.2
 41
0.84237466
  1
※オ－ダ－は、ＷｘＨ寸法を御指示下さい。
  0
TEXT
  8
0
  6
CONTINUOUS
 62
     7
 10
-188.143
 20
87.4
 40
3.2
 41
0.8427416
  1
（最小Ｗ＝１５０，Ｈ＝１４８．４）
  0
TEXT
  8
0
  6
CONTINUOUS
 62
     7
 10
-188.143
 20
79.4
 40
3.2
 41
0.84189812
  1
（Ｈ寸法は２５ステップ＋１４８．４にて算出下さい。）
  0
TEXT
  8
0
  6
CONTINUOUS
 62
     7
 10
-188.143
 20
71.4
 40
3.2
 41
0.84189812
  1
※切欠き　Ｗ＝ガラリＷ－１１，Ｈ＝ガラリＨ－１１．４
  0
TEXT
  8
0
  6
CONTINUOUS
 62
     7
 10
-50.846861
 20
151.19828
 40
3.2
 41
0.84741102
  1
ガラリＷｘＨ
  0
TEXT
  8
0
  6
CONTINUOUS
 62
     7
 10
-50.846861
 20
143.19828
 40
3.2
 41
0.84741102
  1
切欠きＷｘＨ
  0
TEXT
  8
0
  6
CONTINUOUS
 62
     7
 10
-49.246861
 20
135.19828
 40
3.2
 41
0.84892707
  1
開口ＷｘＨ
  0
TEXT
  8
0
  6
CONTINUOUS
 62
     7
 10
-50.846861
 20
127.19828
 40
3.2
 41
0.84741102
  1
有功開口面積
  0
TEXT
  8
0
  6
CONTINUOUS
 62
     7
 10
-7.6468627
 20
159.19828
 40
3.2
 41
0.85127005
  1
Ａタイプ
  0
TEXT
  8
0
  6
CONTINUOUS
 62
     7
 10
32.353139
 20
159.19828
 40
3.2
 41
0.85127005
  1
Ｂタイプ
  0
TEXT
  8
0
  6
CONTINUOUS
 62
     7
 10
-15.646863
 20
151.19828
 40
3.2
 41
0.84496202
  1
４００ｘ１９８．４
  0
TEXT
  8
0
  6
CONTINUOUS
 62
     7
 10
-12.446863
 20
143.19828
 40
3.2
 41
0.84634979
  1
３８９ｘ１８７
  0
TEXT
  8
0
  6
CONTINUOUS
 62
     7
 10
-15.646863
 20
135.19828
 40
3.2
 41
0.84496202
  1
３４８ｘ１４６．４
  0
TEXT
  8
0
  6
CONTINUOUS
 62
     7
 10
-13.246863
 20
127.19828
 40
3.2
 41
0.84634979
  1
１９５．６ｃｍ
  0
TEXT
  8
0
  6
CONTINUOUS
 62
     7
 10
9.1531377
 20
129.59828
 40
1.6
 41
0.90047268
  1
２
  0
TEXT
  8
0
  6
CONTINUOUS
 62
     7
 10
24.353139
 20
151.19828
 40
3.2
 41
0.84496202
  1
６００ｘ２９８．４
  0
TEXT
  8
0
  6
CONTINUOUS
 62
     7
 10
27.553139
 20
143.19828
 40
3.2
 41
0.84634979
  1
５８９ｘ２８７
  0
TEXT
  8
0
  6
CONTINUOUS
 62
     7
 10
24.353139
 20
135.19828
 40
3.2
 41
0.84496202
  1
５４８ｘ２４６．４
  0
TEXT
  8
0
  6
CONTINUOUS
 62
     7
 10
29.953139
 20
127.19828
 40
3.2
 41
0.84892707
  1
５３８ｃｍ
  0
TEXT
  8
0
  6
CONTINUOUS
 62
     7
 10
45.953139
 20
129.59828
 40
1.6
 41
0.90047268
  1
２
  0
INSERT
  8
0
  6
CONTINUOUS
 62
     7
  2
KOZU0002
 10
0
 20
0
  0
INSERT
  8
0
  6
CONTINUOUS
 62
     7
  2
KOZU0003
 10
0
 20
0
  0
INSERT
  8
0
  6
CONTINUOUS
 62
     7
  2
KOZU0004
 10
0
 20
0
  0
INSERT
  8
0
  6
CONTINUOUS
 62
     7
  2
KOZU0005
 10
0
 20
0
  0
INSERT
  8
0
  6
CONTINUOUS
 62
     7
  2
KOZU0006
 10
0
 20
0
  0
INSERT
  8
0
  6
CONTINUOUS
 62
     7
  2
KOZU0007
 10
0
 20
0
  0
INSERT
  8
0
  6
CONTINUOUS
 62
     7
  2
KOZU0008
 10
0
 20
0
  0
INSERT
  8
0
  6
CONTINUOUS
 62
     7
  2
KOZU0009
 10
0
 20
0
  0
INSERT
  8
0
  6
CONTINUOUS
 62
     7
  2
KOZU0010
 10
0
 20
0
  0
INSERT
  8
0
  6
CONTINUOUS
 62
     7
  2
KOZU0011
 10
0
 20
0
  0
INSERT
  8
0
  6
CONTINUOUS
 62
     7
  2
KOZU0012
 10
0
 20
0
  0
INSERT
  8
0
  6
CONTINUOUS
 62
     7
  2
KOZU0013
 10
0
 20
0
  0
DIMENSION
  8
0
  6
CONTINUOUS
 62
     7
  2
*D1
 70
     0
 10
-165.15948
 20
-89.536873
 11
-173.70003
 21
-89.536873
  3
DIMSTYLE
 13
-166.65948
 23
-77.036873
 14
-165.15948
 24
-66.536873
 50
0
1001
ACAD
1000
DSTYLE
1002
{
1070
    77
1070
     1
1070
   172
1070
     1
1002
}
  0
DIMENSION
  8
0
  6
CONTINUOUS
 62
     7
  2
*D2
 70
     0
 10
-139.15948
 20
-89.536873
 11
-152.15948
 21
-89.536873
  3
DIMSTYLE
 13
-165.15948
 23
-66.536873
 14
-139.15948
 24
-62.336872
 50
0
1001
ACAD
1000
DSTYLE
1002
{
1070
    77
1070
     1
1070
   172
1070
     1
1070
    75
1070
     1
1002
}
  0
DIMENSION
  8
0
  6
CONTINUOUS
 62
     7
  2
*D3
 70
     0
 10
-137.85948
 20
-89.536873
 11
-132.64041
 21
-89.536873
  3
DIMSTYLE
 13
-139.15948
 23
-62.336872
 14
-137.85948
 24
-77.336876
 50
0
1001
ACAD
1000
DSTYLE
1002
{
1070
    77
1070
     1
1070
   172
1070
     1
1070
    75
1070
     1
1002
}
  0
DIMENSION
  8
0
  6
CONTINUOUS
 62
     7
  2
*D4
 70
     0
 10
-105.15948
 20
-89.536873
 11
-115.57391
 21
-89.536873
  3
DIMSTYLE
 13
-108.35948
 23
-73.398216
 14
-105.15948
 24
-56.836872
 50
0
1001
ACAD
1000
DSTYLE
1002
{
1070
    77
1070
     1
1070
   172
1070
     1
1002
}
  0
DIMENSION
  8
0
  6
CONTINUOUS
 62
     7
  2
*D5
 70
     0
 10
-79.159485
 20
-89.536873
 11
-92.159485
 21
-89.536873
  3
DIMSTYLE
 13
-105.15948
 23
-56.836872
 14
-79.159485
 24
-62.336872
 50
0
1001
ACAD
1000
DSTYLE
1002
{
1070
    77
1070
     1
1070
   172
1070
     1
1070
    75
1070
     1
1002
}
  0
DIMENSION
  8
0
  6
CONTINUOUS
 62
     7
  2
*D6
 70
     0
 10
-77.859482
 20
-89.536873
 11
-72.125313
 21
-89.536873
  3
DIMSTYLE
 13
-79.159485
 23
-62.336872
 14
-77.859482
 24
-77.336876
 50
0
1001
ACAD
1000
DSTYLE
1002
{
1070
    77
1070
     1
1070
   172
1070
     1
1070
    75
1070
     1
1002
}
  0
DIMENSION
  8
0
  6
CONTINUOUS
 62
     7
  2
*D7
 70
     0
 10
152.18593
 20
82.913521
 11
67.185928
 21
82.913521
  3
DIMSTYLE
 13
-17.81407
 23
62.913521
 14
152.18593
 24
62.913521
 50
0
1001
ACAD
1000
DSTYLE
1002
{
1070
    77
1070
     1
1070
   172
1070
     1
1002
}
  0
DIMENSION
  8
0
  6
CONTINUOUS
 62
     7
  2
*D8
 70
     0
 10
8.1859293
 20
72.913521
 11
-4.8140702
 21
72.913521
  3
DIMSTYLE
 13
-17.81407
 23
62.913521
 14
8.1859293
 24
36.913521
 50
0
1001
ACAD
1000
DSTYLE
1002
{
1070
    77
1070
     1
1070
   172
1070
     1
1002
}
  0
DIMENSION
  8
0
  6
CONTINUOUS
 62
     7
  2
*D9
 70
     0
 10
126.18593
 20
72.913521
 11
67.185928
 21
72.913521
  3
DIMSTYLE
 13
8.1859293
 23
36.913521
 14
126.18593
 24
36.913521
 50
0
1001
ACAD
1000
DSTYLE
1002
{
1070
    77
1070
     1
1070
   172
1070
     1
1070
    75
1070
     1
1002
}
  0
DIMENSION
  8
0
  6
CONTINUOUS
 62
     7
  2
*D10
 70
     0
 10
152.18593
 20
72.913521
 11
139.18593
 21
72.913521
  3
DIMSTYLE
 13
126.18593
 23
36.913521
 14
152.18593
 24
62.913521
 50
0
1001
ACAD
1000
DSTYLE
1002
{
1070
    77
1070
     1
1070
   172
1070
     1
1070
    75
1070
     1
1002
}
  0
DIMENSION
  8
0
  6
CONTINUOUS
 62
     7
  2
*D11
 70
     0
 10
-37.814072
 20
-79.536873
 11
-37.814072
 21
-8.311677
  3
DIMSTYLE
 13
-17.81407
 23
62.913521
 14
-17.81407
 24
-79.536873
 50
90
1001
ACAD
1000
DSTYLE
1002
{
1070
    77
1070
     1
1070
   172
1070
     1
1002
}
  0
DIMENSION
  8
0
  6
CONTINUOUS
 62
     7
  2
*D12
 70
     0
 10
-27.81407
 20
36.913521
 11
-27.81407
 21
49.913521
  3
DIMSTYLE
 13
-17.81407
 23
62.913521
 14
8.1859293
 24
36.913521
 50
90
1001
ACAD
1000
DSTYLE
1002
{
1070
    77
1070
     1
1070
   172
1070
     1
1002
}
  0
DIMENSION
  8
0
  6
CONTINUOUS
 62
     7
  2
*D13
 70
     0
 10
-27.81407
 20
-53.536873
 11
-27.81407
 21
-8.311677
  3
DIMSTYLE
 13
8.1859293
 23
36.913521
 14
8.1859293
 24
-53.536873
 50
90
1001
ACAD
1000
DSTYLE
1002
{
1070
    77
1070
     1
1070
   172
1070
     1
1070
    75
1070
     1
1002
}
  0
DIMENSION
  8
0
  6
CONTINUOUS
 62
     7
  2
*D14
 70
     0
 10
-27.81407
 20
-79.536873
 11
-27.81407
 21
-66.536873
  3
DIMSTYLE
 13
8.1859293
 23
-53.536873
 14
-17.81407
 24
-79.536873
 50
90
1001
ACAD
1000
DSTYLE
1002
{
1070
    77
1070
     1
1070
   172
1070
     1
1070
    75
1070
     1
1002
}
  0
DIMENSION
  8
0
  6
CONTINUOUS
 62
     7
  2
*D15
 70
     0
 10
18.18593
 20
-89.536873
 11
0.1859296
 21
-89.536873
  3
DIMSTYLE
 13
-17.81407
 23
-79.536873
 14
18.18593
 24
-74.076874
 50
0
1001
ACAD
1000
DSTYLE
1002
{
1070
    77
1070
     1
1070
   172
1070
     1
1002
}
  0
DIMENSION
  8
0
  6
CONTINUOUS
 62
     7
  2
*D16
 70
     0
 10
116.18593
 20
-89.536873
 11
134.18593
 21
-89.536873
  3
DIMSTYLE
 13
152.18593
 23
-79.536873
 14
116.18593
 24
-74.076874
 50
0
1001
ACAD
1000
DSTYLE
1002
{
1070
    77
1070
     1
1070
   172
1070
     1
1002
}
  0
DIMENSION
  8
0
  6
CONTINUOUS
 62
     7
  2
*D17
 70
     0
 10
-57.859482
 20
-62.636871
 11
-57.859482
 21
-71.136871
  3
DIMSTYLE
 13
-78.395378
 23
-79.636871
 14
-78.852654
 24
-62.636871
 50
90
1001
ACAD
1000
DSTYLE
1002
{
1070
    77
1070
     1
1070
   172
1070
     1
1002
}
  0
POLYLINE
  8
0
  6
CONTINUOUS
 62
     7
 66
     1
 10
0
 20
0
 40
0
 41
0
  0
VERTEX
  8
0
  6
CONTINUOUS
 62
     7
 10
-57.859482
 20
-62.486874
  0
VERTEX
  8
0
  6
CONTINUOUS
 62
     7
 10
-51.752018
 20
-58.960728
  0
VERTEX
  8
0
  6
CONTINUOUS
 62
     7
 10
-51.752022
 20
-49.843407
  0
SEQEND
  8
0
  6
CONTINUOUS
 62
     7
  0
LINE
  8
0
  6
CONTINUOUS
 62
     7
 10
-57.859482
 20
-62.486874
 11
-55.431554
 21
-60.436167
  0
LINE
  8
0
  6
CONTINUOUS
 62
     7
 10
-57.859482
 20
-62.486874
 11
-54.869554
 21
-61.40958
  0
TEXT
  8
0
  6
CONTINUOUS
 62
     7
 10
-52.552022
 20
-58.529409
 40
3.2
 41
1.4805682
  1
0.3
 50
90.000003
  0
DIMENSION
  8
0
  6
CONTINUOUS
 62
     7
  2
*D18
 70
     0
 10
-57.859482
 20
-62.336872
 11
-51.752022
 21
-54.186409
  3
DIMSTYLE
 13
-78.852654
 23
-62.636871
 14
-79.159485
 24
-62.336872
 50
90
1001
ACAD
1000
DSTYLE
1002
{
1070
    77
1070
     1
1070
   172
1070
     1
1070
    75
1070
     1
1002
}
  0
DIMENSION
  8
0
  6
CONTINUOUS
 62
     7
  2
*D19
 70
     0
 10
-57.952053
 20
-42.836872
 11
-57.952053
 21
-52.586872
  3
DIMSTYLE
 13
-79.159485
 23
-62.336872
 14
-84.659485
 24
-42.836872
 50
90
1001
ACAD
1000
DSTYLE
1002
{
1070
    77
1070
     1
1070
   172
1070
     1
1002
}
  0
DIMENSION
  8
0
  6
CONTINUOUS
 62
     7
  2
*D20
 70
     0
 10
-57.952053
 20
-17.836872
 11
-57.952053
 21
-30.336872
  3
DIMSTYLE
 13
-84.659485
 23
-42.836872
 14
-84.659485
 24
-17.836872
 50
90
1001
ACAD
1000
DSTYLE
1002
{
1070
    77
1070
     1
1070
   172
1070
     1
1070
    75
1070
     1
1002
}
  0
DIMENSION
  8
0
  6
CONTINUOUS
 62
     7
  2
*D21
 70
     0
 10
-67.859482
 20
-68.636871
 11
-67.859482
 21
-74.136871
  3
DIMSTYLE
 13
-78.395378
 23
-79.636871
 14
-74.787079
 24
-68.636871
 50
90
1001
ACAD
1000
DSTYLE
1002
{
1070
    77
1070
     1
1070
   172
1070
     1
1002
}
  0
ENDSEC
  0
EOF
