  0
SECTION
  2
HEADER
  9
$ACADVER
  1
AC1015
  9
$ACADMAINTVER
 70
    20
  9
$DWGCODEPAGE
  3
ANSI_932
  9
$INSBASE
 10
0.0
 20
0.0
 30
0.0
  9
$EXTMIN
 10
4902.54782652164
 20
-3291.482271409579
 30
0.0
  9
$EXTMAX
 10
5199.547826521642
 20
-3081.482271409579
 30
0.0
  9
$LIMMIN
 10
1735.132052145826
 20
-6087.884660833434
  9
$LIMMAX
 10
2155.132052145826
 20
-5790.884660833434
  9
$ORTHOMODE
 70
     0
  9
$REGENMODE
 70
     1
  9
$FILLMODE
 70
     1
  9
$QTEXTMODE
 70
     0
  9
$MIRRTEXT
 70
     0
  9
$LTSCALE
 40
1.0
  9
$ATTMODE
 70
     1
  9
$TEXTSIZE
 40
3.5
  9
$TRACEWID
 40
1.0
  9
$TEXTSTYLE
  7
STANDARD
  9
$CLAYER
  8
000済
  9
$CELTYPE
  6
ByLayer
  9
$CECOLOR
 62
   256
  9
$CELTSCALE
 40
0.5
  9
$DISPSILH
 70
     0
  9
$DIMSCALE
 40
1.0
  9
$DIMASZ
 40
1.0
  9
$DIMEXO
 40
1.0
  9
$DIMDLI
 40
10.0
  9
$DIMRND
 40
0.0
  9
$DIMDLE
 40
0.0
  9
$DIMEXE
 40
1.0
  9
$DIMTP
 40
0.1
  9
$DIMTM
 40
0.1
  9
$DIMTXT
 40
3.5
  9
$DIMCEN
 40
0.0
  9
$DIMTSZ
 40
0.0
  9
$DIMTOL
 70
     0
  9
$DIMLIM
 70
     0
  9
$DIMTIH
 70
     0
  9
$DIMTOH
 70
     0
  9
$DIMSE1
 70
     0
  9
$DIMSE2
 70
     0
  9
$DIMTAD
 70
     1
  9
$DIMZIN
 70
     8
  9
$DIMBLK
  1

  9
$DIMASO
 70
     1
  9
$DIMSHO
 70
     1
  9
$DIMPOST
  1

  9
$DIMAPOST
  1
"
  9
$DIMALT
 70
     0
  9
$DIMALTD
 70
     2
  9
$DIMALTF
 40
0.0393701
  9
$DIMLFAC
 40
1.0
  9
$DIMTOFL
 70
     1
  9
$DIMTVP
 40
0.0
  9
$DIMTIX
 70
     0
  9
$DIMSOXD
 70
     0
  9
$DIMSAH
 70
     0
  9
$DIMBLK1
  1

  9
$DIMBLK2
  1

  9
$DIMSTYLE
  2
SYS
  9
$DIMCLRD
 70
   256
  9
$DIMCLRE
 70
   256
  9
$DIMCLRT
 70
     7
  9
$DIMTFAC
 40
0.71
  9
$DIMGAP
 40
1.5
  9
$DIMJUST
 70
     0
  9
$DIMSD1
 70
     0
  9
$DIMSD2
 70
     0
  9
$DIMTOLJ
 70
     0
  9
$DIMTZIN
 70
     8
  9
$DIMALTZ
 70
     0
  9
$DIMALTTZ
 70
     0
  9
$DIMUPT
 70
     0
  9
$DIMDEC
 70
     1
  9
$DIMTDEC
 70
     2
  9
$DIMALTU
 70
     2
  9
$DIMALTTD
 70
     2
  9
$DIMTXSTY
  7
STANDARD
  9
$DIMAUNIT
 70
     0
  9
$DIMADEC
 70
     0
  9
$DIMALTRND
 40
0.0
  9
$DIMAZIN
 70
     2
  9
$DIMDSEP
 70
    46
  9
$DIMATFIT
 70
     3
  9
$DIMFRAC
 70
     0
  9
$DIMLDRBLK
  1

  9
$DIMLUNIT
 70
     2
  9
$DIMLWD
 70
    -1
  9
$DIMLWE
 70
    -1
  9
$DIMTMOVE
 70
     0
  9
$LUNITS
 70
     2
  9
$LUPREC
 70
     2
  9
$SKETCHINC
 40
1.0
  9
$FILLETRAD
 40
2.0
  9
$AUNITS
 70
     0
  9
$AUPREC
 70
     0
  9
$MENU
  1
.
  9
$ELEVATION
 40
0.0
  9
$PELEVATION
 40
0.0
  9
$THICKNESS
 40
0.0
  9
$LIMCHECK
 70
     0
  9
$CHAMFERA
 40
0.0
  9
$CHAMFERB
 40
0.0
  9
$CHAMFERC
 40
20.0
  9
$CHAMFERD
 40
0.0
  9
$SKPOLY
 70
     0
  9
$TDCREATE
 40
2455567.561054317
  9
$TDUCREATE
 40
2455567.186054318
  9
$TDUPDATE
 40
2456030.710315394
  9
$TDUUPDATE
 40
2456030.335315394
  9
$TDINDWG
 40
8.3459852083
  9
$TDUSRTIMER
 40
8.3459806829
  9
$USRTIMER
 70
     1
  9
$ANGBASE
 50
0.0
  9
$ANGDIR
 70
     0
  9
$PDMODE
 70
     0
  9
$PDSIZE
 40
-3.0
  9
$PLINEWID
 40
0.0
  9
$SPLFRAME
 70
     0
  9
$SPLINETYPE
 70
     6
  9
$SPLINESEGS
 70
     8
  9
$HANDSEED
  5
5352D
  9
$SURFTAB1
 70
     6
  9
$SURFTAB2
 70
     6
  9
$SURFTYPE
 70
     6
  9
$SURFU
 70
     6
  9
$SURFV
 70
     6
  9
$UCSBASE
  2

  9
$UCSNAME
  2

  9
$UCSORG
 10
0.0
 20
0.0
 30
0.0
  9
$UCSXDIR
 10
1.0
 20
0.0
 30
0.0
  9
$UCSYDIR
 10
0.0
 20
1.0
 30
0.0
  9
$UCSORTHOREF
  2

  9
$UCSORTHOVIEW
 70
     0
  9
$UCSORGTOP
 10
0.0
 20
0.0
 30
0.0
  9
$UCSORGBOTTOM
 10
0.0
 20
0.0
 30
0.0
  9
$UCSORGLEFT
 10
0.0
 20
0.0
 30
0.0
  9
$UCSORGRIGHT
 10
0.0
 20
0.0
 30
0.0
  9
$UCSORGFRONT
 10
0.0
 20
0.0
 30
0.0
  9
$UCSORGBACK
 10
0.0
 20
0.0
 30
0.0
  9
$PUCSBASE
  2

  9
$PUCSNAME
  2

  9
$PUCSORG
 10
0.0
 20
0.0
 30
0.0
  9
$PUCSXDIR
 10
1.0
 20
0.0
 30
0.0
  9
$PUCSYDIR
 10
0.0
 20
1.0
 30
0.0
  9
$PUCSORTHOREF
  2

  9
$PUCSORTHOVIEW
 70
     0
  9
$PUCSORGTOP
 10
0.0
 20
0.0
 30
0.0
  9
$PUCSORGBOTTOM
 10
0.0
 20
0.0
 30
0.0
  9
$PUCSORGLEFT
 10
0.0
 20
0.0
 30
0.0
  9
$PUCSORGRIGHT
 10
0.0
 20
0.0
 30
0.0
  9
$PUCSORGFRONT
 10
0.0
 20
0.0
 30
0.0
  9
$PUCSORGBACK
 10
0.0
 20
0.0
 30
0.0
  9
$USERI1
 70
     0
  9
$USERI2
 70
     0
  9
$USERI3
 70
     0
  9
$USERI4
 70
     0
  9
$USERI5
 70
     0
  9
$USERR1
 40
0.0
  9
$USERR2
 40
0.0
  9
$USERR3
 40
0.0
  9
$USERR4
 40
0.0
  9
$USERR5
 40
0.0
  9
$WORLDVIEW
 70
     1
  9
$SHADEDGE
 70
     3
  9
$SHADEDIF
 70
    70
  9
$TILEMODE
 70
     1
  9
$MAXACTVP
 70
    64
  9
$PINSBASE
 10
0.0
 20
0.0
 30
0.0
  9
$PLIMCHECK
 70
     0
  9
$PEXTMIN
 10
1.000000000000000E+20
 20
1.000000000000000E+20
 30
1.000000000000000E+20
  9
$PEXTMAX
 10
-1.000000000000000E+20
 20
-1.000000000000000E+20
 30
-1.000000000000000E+20
  9
$PLIMMIN
 10
-3.17498779296875
 20
-3.174999952316283
  9
$PLIMMAX
 10
293.4970092773438
 20
206.692492723465
  9
$UNITMODE
 70
     0
  9
$VISRETAIN
 70
     1
  9
$PLINEGEN
 70
     0
  9
$PSLTSCALE
 70
     1
  9
$TREEDEPTH
 70
  3020
  9
$CMLSTYLE
  2
Standard
  9
$CMLJUST
 70
     0
  9
$CMLSCALE
 40
20.0
  9
$PROXYGRAPHICS
 70
     1
  9
$MEASUREMENT
 70
     1
  9
$CELWEIGHT
370
    -1
  9
$ENDCAPS
280
     0
  9
$JOINSTYLE
280
     0
  9
$LWDISPLAY
290
     1
  9
$INSUNITS
 70
     4
  9
$HYPERLINKBASE
  1

  9
$STYLESHEET
  1
MONOCHROME.CTB
  9
$XEDIT
290
     1
  9
$CEPSNTYPE
380
     0
  9
$PSTYLEMODE
290
     1
  9
$FINGERPRINTGUID
  2
{E0FB5660-30B4-4D8A-8C1D-9D7E99D72F0A}
  9
$VERSIONGUID
  2
{C6AADA6D-C03A-49C0-A4D0-6137AE15FE11}
  9
$EXTNAMES
290
     1
  9
$PSVPSCALE
 40
0.0
  9
$OLESTARTUP
290
     0
  0
ENDSEC
  0
SECTION
  2
CLASSES
  0
CLASS
  1
ACDBDICTIONARYWDFLT
  2
AcDbDictionaryWithDefault
  3
ObjectDBX Classes
 90
        0
280
     0
281
     0
  0
CLASS
  1
ACDBPLACEHOLDER
  2
AcDbPlaceHolder
  3
ObjectDBX Classes
 90
        0
280
     0
281
     0
  0
CLASS
  1
LAYOUT
  2
AcDbLayout
  3
ObjectDBX Classes
 90
        0
280
     0
281
     0
  0
CLASS
  1
AMGSETTINGSOBJ
  2
AmgSettingsObj
  3
"AcadM|Product Description: AutoCAD Mechanical|Company: Autodesk"
 90
        0
280
     0
281
     0
  0
CLASS
  1
ACME_DOCUMENT
  2
AcMeDbDoc
  3
AcMeServices
 90
        0
280
     0
281
     0
  0
CLASS
  1
ACMESCOPE
  2
AcMeScope
  3
AcMeServices
 90
        0
280
     0
281
     0
  0
CLASS
  1
ACMECOMMANDHISTORY
  2
AcMeCommandHistory
  3
AcMeServices
 90
        0
280
     0
281
     0
  0
CLASS
  1
DICTIONARYVAR
  2
AcDbDictionaryVar
  3
ObjectDBX Classes
 90
        0
280
     0
281
     0
  0
CLASS
  1
ACIMSYSVARMAN
  2
AcImSysVarManager
  3
AcMeServices
 90
        0
280
     0
281
     0
  0
CLASS
  1
ACIMREALSYSVAR
  2
AcImRealSysVar
  3
AcMeServices
 90
        0
280
     0
281
     0
  0
CLASS
  1
ACIMINTSYSVAR
  2
AcImIntSysVar
  3
AcMeServices
 90
        0
280
     0
281
     0
  0
CLASS
  1
ACMEDRAWINGMAN
  2
AcMeDrawingMan
  3
AcMeServices
 90
        0
280
     0
281
     0
  0
CLASS
  1
ACMEVIEW
  2
AcMeView
  3
AcMeServices
 90
        0
280
     0
281
     0
  0
CLASS
  1
ACDBENTITYCACHE
  2
AcMeEntityCache
  3
AcMeServices
 90
        0
280
     0
281
     0
  0
CLASS
  1
GSMANAGER
  2
AcMeGSManager
  3
AcMeServices
 90
        0
280
     0
281
     0
  0
CLASS
  1
AMDTINTERNALREACTOR
  2
AmdtInternalReactor
  3
AcMeServices
 90
        0
280
     0
281
     0
  0
CLASS
  1
ACMESTATEMGR
  2
AcMeStateMgr
  3
AcMeServices
 90
        0
280
     0
281
     0
  0
CLASS
  1
ACGREFMASTER
  2
AcGrefMaster
  3
AcAttribServices
 90
        0
280
     0
281
     0
  0
CLASS
  1
ACME_DATABASE
  2
AcMeDbDatabase
  3
AcMeServices
 90
        0
280
     0
281
     0
  0
CLASS
  1
ACRFINSADJUSTERMGR
  2
AcRfInsAdjusterMgr
  3
AcMeServices
 90
        0
280
     0
281
     0
  0
CLASS
  1
ACGREFACADMASTER
  2
AcGrefacadMaster
  3
AcGrefServices
 90
        0
280
     0
281
     0
  0
CLASS
  1
AMIMASTER
  2
AmiMaster
  3
AmiServices
 90
        0
280
     0
281
     0
  0
CLASS
  1
ACMDATADICTIONARY
  2
AcmDataDictionary
  3
"AcmSymBB|Product Description: AutoCAD Mechanical|Company: Autodesk"
 90
        0
280
     0
281
     0
  0
CLASS
  1
ACMDATAENTRYBLOCK
  2
AcmDataEntryBlock
  3
"AcmSymBB|Product Description: AutoCAD Mechanical|Company: Autodesk"
 90
    32768
280
     0
281
     0
  0
CLASS
  1
ACIMSTRSYSVAR
  2
AcImStrSysVar
  3
AcMeServices
 90
        0
280
     0
281
     0
  0
CLASS
  1
ACMSTANDARDISO
  2
AcmStandardISO
  3
"Amdt_StdImp|Product Description: AutoCAD Mechanical|Company: Autodesk"
 90
        0
280
     0
281
     0
  0
CLASS
  1
AMGOBJPROPCFG
  2
AmgObjPropCfg
  3
"AmgLay|Product Description: AutoCAD Mechanical|Company: Autodesk"
 90
        1
280
     0
281
     0
  0
CLASS
  1
AMDTEDGESTANDARDISO
  2
AmdtEdgeStdISO
  3
"Amdt_StdImp|Product Description: AutoCAD Mechanical|Company: Autodesk"
 90
    32768
280
     0
281
     0
  0
CLASS
  1
ACMSURFSTANDARDISO
  2
AcmSurfTextStdISO
  3
"Amdt_StdImp|Product Description: AutoCAD Mechanical|Company: Autodesk"
 90
        0
280
     0
281
     0
  0
CLASS
  1
ACMFCFSTANDARDISO
  2
AcmFCFStdISO
  3
"Amdt_StdImp|Product Description: AutoCAD Mechanical|Company: Autodesk"
 90
        0
280
     0
281
     0
  0
CLASS
  1
ACMWELDSTANDARDISO
  2
AcmWeldingStdISO
  3
"Amdt_StdImp|Product Description: AutoCAD Mechanical|Company: Autodesk"
 90
        0
280
     0
281
     0
  0
CLASS
  1
ACMIDSTANDARDISO
  2
AcmIdStdISO
  3
"Amdt_StdImp|Product Description: AutoCAD Mechanical|Company: Autodesk"
 90
        0
280
     0
281
     0
  0
CLASS
  1
ACMDATUMSTANDARDISO
  2
AcmDatumStdISO
  3
"Amdt_StdImp|Product Description: AutoCAD Mechanical|Company: Autodesk"
 90
        0
280
     0
281
     0
  0
CLASS
  1
ACMBOMSTANDARDISO
  2
AcmBOMStdISO
  3
"Amdt_StdImp|Product Description: AutoCAD Mechanical|Company: Autodesk"
 90
        0
280
     0
281
     0
  0
CLASS
  1
ACMDETAILSTANDARDISO
  2
AmdtDetailSymStdISO
  3
"Amdt_StdImp|Product Description: AutoCAD Mechanical|Company: Autodesk"
 90
        0
280
     0
281
     0
  0
CLASS
  1
ACMSECTIONSTANDARDISO
  2
AmdtSectionSymStdISO
  3
"Amdt_StdImp|Product Description: AutoCAD Mechanical|Company: Autodesk"
 90
        0
280
     0
281
     0
  0
CLASS
  1
ACMCENTERLINESTANDARDISO
  2
AmdtCenterLineStdISO
  3
"Amdt_StdImp|Product Description: AutoCAD Mechanical|Company: Autodesk"
 90
        0
280
     0
281
     0
  0
CLASS
  1
ACAMGLAYSTD
  2
AcAmgLayStd
  3
"AmgLay|Product Description: AutoCAD Mechanical|Company: Autodesk"
 90
        0
280
     0
281
     0
  0
CLASS
  1
ACAMGDIMSTD
  2
AcAmgDimStd
  3
"AmgDim|Product Description: AutoCAD Mechanical|Company: Autodesk"
 90
        0
280
     0
281
     0
  0
CLASS
  1
ACAMGTITLESTD
  2
AcAmgTitleStd
  3
"AmgTitle|Product Description: AutoCAD Mechanical|Company: Autodesk"
 90
        0
280
     0
281
     0
  0
CLASS
  1
ACAMGFILTERDAT
  2
AcAmgFilterDat
  3
"AcadM|Product Description: AutoCAD Mechanical|Company: Autodesk"
 90
    32768
280
     0
281
     0
  0
CLASS
  1
LAYER_INDEX
  2
AcDbLayerIndex
  3
ObjectDBX Classes
 90
    32768
280
     0
281
     0
  0
CLASS
  1
IDBUFFER
  2
AcDbIdBuffer
  3
ObjectDBX Classes
 90
    32768
280
     0
281
     0
  0
CLASS
  1
PLOTSETTINGS
  2
AcDbPlotSettings
  3
ObjectDBX Classes
 90
    32768
280
     0
281
     0
  0
CLASS
  1
AMDTFORMULAUPDATEDISPATCHER
  2
AmdtFormulaUpdateDispatcher
  3
AcMeServices
 90
    32768
280
     0
281
     0
  0
CLASS
  1
ACMSTANDARDANSI
  2
AcmStandardANSI
  3
"Amdt_StdImp|Product Description: AutoCAD Mechanical|Company: Autodesk"
 90
    32768
280
     0
281
     0
  0
CLASS
  1
ACMSURFSTANDARDANSI
  2
AcmSurfTextStdANSI
  3
"Amdt_StdImp|Product Description: AutoCAD Mechanical|Company: Autodesk"
 90
    32768
280
     0
281
     0
  0
CLASS
  1
ACMFCFSTANDARDANSI
  2
AcmFCFStdANSI
  3
"Amdt_StdImp|Product Description: AutoCAD Mechanical|Company: Autodesk"
 90
    32768
280
     0
281
     0
  0
CLASS
  1
ACMWELDSTANDARDANSI
  2
AcmWeldingStdANSI
  3
"Amdt_StdImp|Product Description: AutoCAD Mechanical|Company: Autodesk"
 90
    32768
280
     0
281
     0
  0
CLASS
  1
ACMIDSTANDARDANSI
  2
AcmIdStdANSI
  3
"Amdt_StdImp|Product Description: AutoCAD Mechanical|Company: Autodesk"
 90
    32768
280
     0
281
     0
  0
CLASS
  1
ACMDATUMSTANDARDANSI
  2
AcmDatumStdANSI
  3
"Amdt_StdImp|Product Description: AutoCAD Mechanical|Company: Autodesk"
 90
    32768
280
     0
281
     0
  0
CLASS
  1
ACMBOMSTANDARDANSI
  2
AcmBOMStdANSI
  3
"Amdt_StdImp|Product Description: AutoCAD Mechanical|Company: Autodesk"
 90
    32768
280
     0
281
     0
  0
CLASS
  1
ACMDETAILSTANDARDANSI
  2
AmdtDetailSymStdANSI
  3
"Amdt_StdImp|Product Description: AutoCAD Mechanical|Company: Autodesk"
 90
    32768
280
     0
281
     0
  0
CLASS
  1
ACMSECTIONSTANDARDANSI
  2
AmdtSectionSymStdANSI
  3
"Amdt_StdImp|Product Description: AutoCAD Mechanical|Company: Autodesk"
 90
    32768
280
     0
281
     0
  0
CLASS
  1
ACMCENTERLINESTANDARDANSI
  2
AmdtCenterLineStdANSI
  3
"Amdt_StdImp|Product Description: AutoCAD Mechanical|Company: Autodesk"
 90
    32768
280
     0
281
     0
  0
CLASS
  1
ACMBOM
  2
AcmBom
  3
"AcmSymBB|Product Description: AutoCAD Mechanical|Company: Autodesk"
 90
    32768
280
     0
281
     0
  0
CLASS
  1
ACMDATAENTRYPART
  2
AcmDataEntryPart
  3
"AcmSymBB|Product Description: AutoCAD Mechanical|Company: Autodesk"
 90
    32768
280
     0
281
     0
  0
CLASS
  1
ACMPARTREF
  2
AcmPartRef
  3
"AcmSymBB|Product Description: AutoCAD Mechanical|Company: Autodesk"
 90
    35839
280
     0
281
     1
  0
CLASS
  1
ACDBCIRCARCRES
  2
AcDbCircArcRes
  3
AcGrefServices
 90
    32768
280
     0
281
     0
  0
CLASS
  1
ACMBOMROW
  2
AcmBomRow
  3
"AcmSymBB|Product Description: AutoCAD Mechanical|Company: Autodesk"
 90
    32768
280
     0
281
     0
  0
CLASS
  1
ACMBALLOON
  2
AcmBalloon
  3
"AcmSymBB|Product Description: AutoCAD Mechanical|Company: Autodesk"
 90
    35839
280
     0
281
     1
  0
CLASS
  1
AMDTNOTE
  2
AmdtNote
  3
"AcmSymBB|Product Description: AutoCAD Mechanical|Company: Autodesk"
 90
    35839
280
     0
281
     1
  0
CLASS
  1
STDPART2D
  2
AmgStdPart
  3
"g3vace|Class: AmgStdPart|Product Description: AutoCAD Mechanical|Company: Autodesk"
 90
    35839
280
     0
281
     1
  0
CLASS
  1
ACDBSTDPARTRES_LINE
  2
AcDbStdPartRes_Line
  3
"g3vace|Class: AcDbStdPartRes_Line|Product Description: AutoCAD Mechanical|Company: Autodesk"
 90
    32768
280
     0
281
     0
  0
CLASS
  1
ACMDATAENTRY
  2
AcmDataEntry
  3
"AcmSymBB|Product Description: AutoCAD Mechanical|Company: Autodesk"
 90
    32768
280
     0
281
     0
  0
CLASS
  1
ACDBOPPOLYLINERES
  2
AcDbOpPolylineRes
  3
AcGrefServices
 90
    32768
280
     0
281
     0
  0
CLASS
  1
ACMPARTLIST
  2
AcmPartList
  3
"AcmSymBB|Product Description: AutoCAD Mechanical|Company: Autodesk"
 90
    35839
280
     0
281
     1
  0
CLASS
  1
ACDBLINERES
  2
AcDbLineRes
  3
AcGrefServices
 90
    32768
280
     0
281
     0
  0
CLASS
  1
ACRFINSADJ
  2
AcRfInsAdjuster
  3
AcMeServices
 90
    32768
280
     0
281
     0
  0
CLASS
  1
AM_DRAWING_MGR
  2
AcDmDwgMgr
  3
AcMechDwgViewMgmt
 90
        0
280
     0
281
     0
  0
CLASS
  1
AM_DWG_DOCUMENT
  2
AcDmDwgDocument
  3
AcMechDwgViewMgmt
 90
        0
280
     0
281
     0
  0
CLASS
  1
AM_DWG_SHEET
  2
AcDmSheet
  3
AcMechDwgViewMgmt
 90
        0
280
     0
281
     0
  0
CLASS
  1
AM_VIEWDIMPARMAP
  2
AcDmViewDimParMap
  3
AcMechDwgViewMgmt
 90
        0
280
     0
281
     0
  0
CLASS
  1
AM_DWGMGR_NAME
  2
AcDmDwgMgrName
  3
AcMechDwgViewMgmt
 90
        0
280
     0
281
     0
  0
CLASS
  1
AMDTMENUSTATEMGR
  2
AmdtMenuStateMgr
  3
McadcomServices
 90
        0
280
     0
281
     0
  0
CLASS
  1
AMDTMCOMMENUSTATE
  2
AmdtMcomMenuState
  3
McadcomServices
 90
        0
280
     0
281
     0
  0
CLASS
  1
ASAPP
  2
AcAsAppObject
  3
AutoSurfServices
 90
        0
280
     0
281
     0
  0
CLASS
  1
IM_STATIC_MAN
  2
AcImStaticVarManager
  3
AcMeServices
 90
    32768
280
     0
281
     0
  0
CLASS
  1
ACIMDBLSTATICVAR
  2
AcImDblStaticVar
  3
AcMeServices
 90
    32768
280
     0
281
     0
  0
CLASS
  1
ACIMSTRSTATICVAR
  2
AcImStrStaticVar
  3
AcMeServices
 90
    32768
280
     0
281
     0
  0
CLASS
  1
ACIMINTSTATICVAR
  2
AcImIntStaticVar
  3
AcMeServices
 90
    32768
280
     0
281
     0
  0
CLASS
  1
ACASGREFMASTER
  2
AcAsGrefMaster
  3
AutoSurfResolverServices
 90
        0
280
     0
281
     0
  0
CLASS
  1
ACADGREFMODULE
  2
AcAdGrefModule
  3
AdGrefServices
 90
        0
280
     0
281
     0
  0
CLASS
  1
AMDTMAPISURFMOUDULE
  2
AmdtMApiSurfModule
  3
MApiSurfServices
 90
        0
280
     0
281
     0
  0
CLASS
  1
MAPIAMMOUDLE
  2
MApiAmModule
  3
MApiAmServices
 90
        0
280
     0
281
     0
  0
CLASS
  1
AMDTADMENUSTATE
  2
AmdtAdMenuState
  3
DesignerServices
 90
        0
280
     0
281
     0
  0
CLASS
  1
ADAPPL
  2
AcAdAppl
  3
DesignerServices
 90
        0
280
     0
281
     0
  0
CLASS
  1
DEPMGR
  2
AcAdDepMgr
  3
DesignerServices
 90
        0
280
     0
281
     0
  0
CLASS
  1
PARAMMGR
  2
AcAdParamMgr
  3
DesignerServices
 90
        0
280
     0
281
     0
  0
CLASS
  1
PARAMSCOPE
  2
AcAdParamScope
  3
DesignerServices
 90
        0
280
     0
281
     0
  0
CLASS
  1
NAMEDAPPL
  2
AcAdNamedAppl
  3
DesignerServices
 90
        0
280
     0
281
     0
  0
CLASS
  1
ADHNTMPLT
  2
AdHoleNoteTemplateMgr
  3
DesignerServices
 90
    32768
280
     0
281
     0
  0
CLASS
  1
AM_HNTEMPLATE_MGR_NAME
  2
AdHoleNoteTemplateMgrName
  3
DesignerServices
 90
    32768
280
     0
281
     0
  0
CLASS
  1
AMDTDMMENUSTATE
  2
AmdtDmMenuState
  3
AcMechDwgViewMgmt
 90
        0
280
     0
281
     0
  0
CLASS
  1
MAPIADMODULE
  2
MApiAdModule
  3
MApiAdServices
 90
        0
280
     0
281
     0
  0
CLASS
  1
AMDTAMMENUSTATE
  2
AmdtAmMenuState
  3
DesignerAssemblies
 90
        0
280
     0
281
     0
  0
CLASS
  1
ACAMPROJECT
  2
AcAmProject
  3
DesignerAssemblies
 90
        0
280
     0
281
     0
  0
CLASS
  1
ACAMGRCOMPDEF
  2
AcAmGrCompDef
  3
DesignerAssemblies
 90
        0
280
     0
281
     0
  0
CLASS
  1
ACCMCONTEXT
  2
AcCmContext
  3
DesignerAssemblies
 90
        0
280
     0
281
     0
  0
CLASS
  1
ACAMCOMPDEF
  2
AcAmCompDef
  3
DesignerAssemblies
 90
        0
280
     0
281
     0
  0
CLASS
  1
ACAMCOMPDEFMGR
  2
AcAmCompDefMgr
  3
DesignerAssemblies
 90
        0
280
     0
281
     0
  0
CLASS
  1
AMCONTEXTMGR
  2
AcAmContextMgr
  3
DesignerAssemblies
 90
        0
280
     0
281
     0
  0
CLASS
  1
ACAMCONTEXTMODELER
  2
AcAmContextModeler
  3
DesignerAssemblies
 90
        0
280
     0
281
     0
  0
CLASS
  1
CATALOGSTATE
  2
AcAmCatalogState
  3
DesignerAssemblies
 90
        0
280
     0
281
     0
  0
CLASS
  1
ACAMGRCOMPDEFSET
  2
AcAmGrCompDefSet
  3
DesignerAssemblies
 90
        0
280
     0
281
     0
  0
CLASS
  1
AMDTBROWSERDBTAB
  2
AmdtBrowserDbTab
  3
McadcomServices
 90
        0
280
     0
281
     0
  0
CLASS
  1
CBROWSERAPPOBJECT
  2
CBrowserAppObject
  3
McadcomServices
 90
        0
280
     0
281
     0
  0
CLASS
  1
DM_PLACEHOLDER
  2
AcDmSelsetPlaceholder
  3
AcMechDwgViewMgmt
 90
        0
280
     0
281
     0
  0
CLASS
  1
ACMPICKOBJ
  2
AcmPickEnt
  3
"AcmSymBB|Product Description: AutoCAD Mechanical|Company: Autodesk"
 90
    32768
280
     0
281
     1
  0
CLASS
  1
ACMNOTESTANDARDISO
  2
AmdtNoteStdISO
  3
"Amdt_StdImp|Product Description: AutoCAD Mechanical|Company: Autodesk"
 90
        0
280
     0
281
     0
  0
CLASS
  1
ACMNOTESTANDARDANSI
  2
AmdtNoteStdANSI
  3
"Amdt_StdImp|Product Description: AutoCAD Mechanical|Company: Autodesk"
 90
    32768
280
     0
281
     0
  0
CLASS
  1
ACMTHREADLINESTANDARDISO
  2
AmdtThreadLineStdISO
  3
"Amdt_StdImp|Product Description: AutoCAD Mechanical|Company: Autodesk"
 90
        0
280
     0
281
     0
  0
CLASS
  1
ACMTHREADLINESTANDARDANSI
  2
AmdtThreadLineStdANSI
  3
"Amdt_StdImp|Product Description: AutoCAD Mechanical|Company: Autodesk"
 90
    32768
280
     0
281
     0
  0
CLASS
  1
TABLESTYLE
  2
AcDbTableStyle
  3
ObjectDBX Classes
 90
     4095
280
     0
281
     0
  0
CLASS
  1
SORTENTSTABLE
  2
AcDbSortentsTable
  3
ObjectDBX Classes
 90
        0
280
     0
281
     0
  0
CLASS
  1
MATERIAL
  2
AcDbMaterial
  3
ObjectDBX Classes
 90
     1024
280
     0
281
     0
  0
CLASS
  1
VISUALSTYLE
  2
AcDbVisualStyle
  3
ObjectDBX Classes
 90
     4095
280
     0
281
     0
  0
CLASS
  1
ACRFATTGENMGR
  2
AcRfAttGeneralMgr
  3
AcAttribServices
 90
    32768
280
     0
281
     0
  0
CLASS
  1
ACRFOBJATTMGR
  2
AcRfObjAttGroupMgr
  3
AcAttribServices
 90
    32768
280
     0
281
     0
  0
CLASS
  1
ACRFMCADAPIATTHOLDER
  2
AcRfMCADAPIAttHolder
  3
AcAttribServices
 90
    32768
280
     0
281
     0
  0
CLASS
  1
AMDTSYSATTR
  2
AmdtSystemAttribute
  3
AcAttribServices
 90
    32768
280
     0
281
     0
  0
CLASS
  1
ACMTAPERSTANDARDISO
  2
AcmTaperStdISO
  3
"Amdt_StdImp|Product Description: AutoCAD Mechanical|Company: Autodesk"
 90
        0
280
     0
281
     0
  0
CLASS
  1
CAMSSTRUCTBTNSTATE
  2
StructBtnState
  3
L"DesignerAssemblies"
 90
    32768
280
     0
281
     0
  0
CLASS
  1
DIMASSOC
  2
AcDbDimAssoc
  3
"AcDbDimAssoc|Product Desc:     AcDim ARX App For Dimension|Company:          Autodesk, Inc.|WEB Address:      www.autodesk.com"
 90
    32768
280
     0
281
     0
  0
CLASS
  1
AMDTNOTETEMPLATEDB
  2
AmdtNoteTemplateDB
  3
AMDT_STDIMP_MODULE_NAME
 90
        0
280
     0
281
     0
  0
CLASS
  1
ACMTAPERSTANDARDANSI
  2
AcmTaperStdANSI
  3
"Amdt_StdImp|Product Description: AutoCAD Mechanical|Company: Autodesk"
 90
    32768
280
     0
281
     0
  0
CLASS
  1
ACAMGHOLECHARTSTDANSI
  2
AcAmgHoleChartStdANSI
  3
ACMSYMBB_MODULE_NAME
 90
    32768
280
     0
281
     0
  0
CLASS
  1
AMDTACMWBLOCKBOMENTITY
  2
AmdtAcmWblockBomEntity
  3
"AcmSymBB|Product Description: AutoCAD Mechanical|Company: Autodesk"
 90
     3071
280
     0
281
     1
  0
CLASS
  1
EXACXREFPANELOBJECT
  2
ExAcXREFPanelObject
  3
EXAC_ESW
 90
    33793
280
     0
281
     0
  0
CLASS
  1
NPOCOLLECTION
  2
AcDbImpNonPersistentObjectsCollection
  3
ObjectDBX Classes
 90
    33921
280
     0
281
     0
  0
CLASS
  1
LARGE_RADIAL_DIMENSION
  2
AcDbRadialDimensionLarge
  3
ObjectDBX Classes
 90
    33793
280
     0
281
     1
  0
CLASS
  1
AMDTEDGESTANDARDISO13715
  2
AmdtEdgeStdISO13715
  3
"Amdt_StdImp|Product Description: AutoCAD Mechanical|Company: Autodesk"
 90
        0
280
     0
281
     0
  0
CLASS
  1
ACAMGHOLECHARTSTDISO
  2
AcAmgHoleChartStdISO
  3
ACMSYMBB_MODULE_NAME
 90
        0
280
     0
281
     0
  0
ENDSEC
  0
SECTION
  2
TABLES
  0
TABLE
  2
VPORT
  5
8
102
{ACAD_XDICTIONARY
360
53405
102
}
330
0
100
AcDbSymbolTable
 70
     1
  0
VPORT
  5
B0EC
330
8
100
AcDbSymbolTableRecord
100
AcDbViewportTableRecord
  2
*Active
 70
     0
 10
0.0
 20
0.0
 11
1.0
 21
1.0
 12
5166.320822999522
 22
-3138.598628854321
 13
0.0
 23
0.0
 14
2.5
 24
2.5
 15
10.0
 25
10.0
 16
0.0
 26
0.0
 36
1.0
 17
0.0
 27
0.0
 37
0.0
 40
307.7017129574776
 41
2.04325699745547
 42
50.0
 43
-1370.695619172058
 44
-1370.695619172058
 50
0.0
 51
0.0
 71
     0
 72
   100
 73
     1
 74
     3
 75
     0
 76
     0
 77
     0
 78
     0
281
     0
 65
     0
110
0.0
120
0.0
130
0.0
111
1.0
121
0.0
131
0.0
112
0.0
122
1.0
132
0.0
 79
     0
146
0.0
  0
ENDTAB
  0
TABLE
  2
LTYPE
  5
5
330
0
100
AcDbSymbolTable
 70
    34
  0
LTYPE
  5
14
330
5
100
AcDbSymbolTableRecord
100
AcDbLinetypeTableRecord
  2
ByBlock
 70
     0
  3

 72
    65
 73
     0
 40
0.0
  0
LTYPE
  5
15
330
5
100
AcDbSymbolTableRecord
100
AcDbLinetypeTableRecord
  2
ByLayer
 70
     0
  3

 72
    65
 73
     0
 40
0.0
  0
LTYPE
  5
16
330
5
100
AcDbSymbolTableRecord
100
AcDbLinetypeTableRecord
  2
Continuous
 70
     0
  3
Solid line
 72
    65
 73
     0
 40
0.0
  0
LTYPE
  5
4F
330
5
100
AcDbSymbolTableRecord
100
AcDbLinetypeTableRecord
  2
AM_ISO02W050
 70
     0
  3
__ __ __ __ __ __ __ __ __ __ __ __ __ __ __
 72
    65
 73
     2
 40
7.5
 49
6.0
 74
     0
 49
-1.5
 74
     0
  0
LTYPE
  5
52
330
5
100
AcDbSymbolTableRecord
100
AcDbLinetypeTableRecord
  2
Amconstr
 70
     0
  3
_______________________
 72
    65
 73
     2
 40
9999.0
 49
9999.0
 74
     0
 49
0.0
 74
     0
  0
LTYPE
  5
64
330
5
100
AcDbSymbolTableRecord
100
AcDbLinetypeTableRecord
  2
ACISOWELD
 70
     0
  3
_ _ _ _ _
 72
    65
 73
     2
 40
2.0
 49
2.0
 74
     0
 49
-1.0
 74
     0
  0
LTYPE
  5
65
330
5
100
AcDbSymbolTableRecord
100
AcDbLinetypeTableRecord
  2
ACISOTGB
 70
     0
  3
__ . . __ . .
 72
    65
 73
     6
 40
9.0
 49
4.0
 74
     0
 49
-1.0
 74
     0
 49
1.0
 74
     0
 49
-1.0
 74
     0
 49
1.0
 74
     0
 49
-1.0
 74
     0
  0
LTYPE
  5
66
330
5
100
AcDbSymbolTableRecord
100
AcDbLinetypeTableRecord
  2
ACISOTGL
 70
     0
  3
_ _ _ _ _
 72
    65
 73
     2
 40
3.0
 49
2.0
 74
     0
 49
-1.0
 74
     0
  0
LTYPE
  5
69
330
5
100
AcDbSymbolTableRecord
100
AcDbLinetypeTableRecord
  2
CENTER
 70
     0
  3
__ . __
 72
    65
 73
     4
 40
7.0
 49
4.0
 74
     0
 49
-1.0
 74
     0
 49
1.0
 74
     0
 49
-1.0
 74
     0
  0
LTYPE
  5
A6E
330
5
100
AcDbSymbolTableRecord
100
AcDbLinetypeTableRecord
  2
PHANTOM2
 70
     0
  3
Phantom (.5x) ___ _ _ ___ _ _ ___ _ _ ___ _ _
 72
    65
 73
     6
 40
31.75
 49
15.875
 74
     0
 49
-3.174999999999998
 74
     0
 49
3.174999999999998
 74
     0
 49
-3.174999999999998
 74
     0
 49
3.174999999999998
 74
     0
 49
-3.174999999999998
 74
     0
  0
LTYPE
  5
4DED
330
5
100
AcDbSymbolTableRecord
100
AcDbLinetypeTableRecord
  2
中線
 70
     0
  3
___________________
 72
    65
 73
     2
 40
2.0
 49
1.0
 74
     0
 49
1.0
 74
     0
  0
LTYPE
  5
4DF6
330
5
100
AcDbSymbolTableRecord
100
AcDbLinetypeTableRecord
  2
細線
 70
     0
  3
___________________
 72
    65
 73
     2
 40
2.0
 49
1.0
 74
     0
 49
1.0
 74
     0
  0
LTYPE
  5
4DF7
330
5
100
AcDbSymbolTableRecord
100
AcDbLinetypeTableRecord
  2
太線
 70
     0
  3
___________________
 72
    65
 73
     2
 40
2.0
 49
1.0
 74
     0
 49
1.0
 74
     0
  0
LTYPE
  5
4EA7
330
5
100
AcDbSymbolTableRecord
100
AcDbLinetypeTableRecord
  2
文字
 70
     0
  3
_________________
 72
    65
 73
     2
 40
2.0
 49
1.0
 74
     0
 49
1.0
 74
     0
  0
LTYPE
  5
4EA9
330
5
100
AcDbSymbolTableRecord
100
AcDbLinetypeTableRecord
  2
寸法線
 70
     0
  3
________________
 72
    65
 73
     2
 40
2.0
 49
1.0
 74
     0
 49
1.0
 74
     0
  0
LTYPE
  5
4F12
330
5
100
AcDbSymbolTableRecord
100
AcDbLinetypeTableRecord
  2
ハッチング
 70
     0
  3
_________________
 72
    65
 73
     2
 40
2.0
 49
1.0
 74
     0
 49
1.0
 74
     0
  0
LTYPE
  5
5180
330
5
100
AcDbSymbolTableRecord
100
AcDbLinetypeTableRecord
  2
陰線1
 70
     0
  3
__ __ __ __
 72
    65
 73
     2
 40
4.0
 49
2.2
 74
     0
 49
-1.8
 74
     0
  0
LTYPE
  5
5182
330
5
100
AcDbSymbolTableRecord
100
AcDbLinetypeTableRecord
  2
切断線
 70
     0
  3
/\/-/\/-/\/-/\/-/\/-/\/
 72
    65
 73
     2
 40
11.0001
 49
0.0001
 74
     4
 75
   135
340
56
 46
0.04
 50
0.0
 44
0.0
 45
0.0
 49
-11.0
 74
     0
  0
LTYPE
  5
5183
330
5
100
AcDbSymbolTableRecord
100
AcDbLinetypeTableRecord
  2
想像線1
 70
     0
  3
__ __ __ _____ __ __ ____
 72
    65
 73
     6
 40
14.5
 49
6.0
 74
     0
 49
-1.5
 74
     0
 49
2.0
 74
     0
 49
-1.5
 74
     0
 49
2.0
 74
     0
 49
-1.5
 74
     0
  0
LTYPE
  5
5185
330
5
100
AcDbSymbolTableRecord
100
AcDbLinetypeTableRecord
  2
中心線1
 70
     0
  3
___ _ ___ _ ___
 72
    65
 73
     4
 40
18.0
 49
12.0
 74
     0
 49
-2.0
 74
     0
 49
2.0
 74
     0
 49
-2.0
 74
     0
  0
LTYPE
  5
5188
330
5
100
AcDbSymbolTableRecord
100
AcDbLinetypeTableRecord
  2
補助線
 70
     0
  3
______________
 72
    65
 73
     2
 40
2.0
 49
1.0
 74
     0
 49
1.0
 74
     0
  0
LTYPE
  5
6427
330
5
100
AcDbSymbolTableRecord
100
AcDbLinetypeTableRecord
  2
HIDDEN
 70
     0
  3
Hidden __ __ __ __ __ __ __ __ __ __ __ __ __ _
 72
    65
 73
     2
 40
0.375
 49
0.25
 74
     0
 49
-0.125
 74
     0
  0
LTYPE
  5
AC81
330
5
100
AcDbSymbolTableRecord
100
AcDbLinetypeTableRecord
  2
破断線
 70
     0
  3
/\/-/\/-/\/-/\/-/\/-/\/
 72
    65
 73
     2
 40
0.4401
 49
0.0001
 74
     4
 75
   136
340
AC80
 46
0.0016
 50
0.0
 44
0.0
 45
0.0
 49
-0.4400000000000002
 74
     0
  0
LTYPE
  5
AC9E
330
5
100
AcDbSymbolTableRecord
100
AcDbLinetypeTableRecord
  2
Amzigzag
 70
     0
  3
/\/-/\/-/\/-/\/-/\/-/\/
 72
    65
 73
     2
 40
11.0001
 49
0.0001
 74
     4
 75
   135
340
56
 46
0.04
 50
0.0
 44
0.0
 45
0.0
 49
-11.0
 74
     0
  0
LTYPE
  5
AF0F
330
5
100
AcDbSymbolTableRecord
100
AcDbLinetypeTableRecord
  2
genzigzag
 70
     0
  3
/\/-/\/-/\/-/\/-/\/-/\/
 72
    65
 73
     2
 40
12.0001
 49
0.0001
 74
     4
 75
   135
340
AC80
 46
2.0
 50
0.0
 44
0.0
 45
0.0
 49
-12.0
 74
     0
  0
LTYPE
  5
AF95
330
5
100
AcDbSymbolTableRecord
100
AcDbLinetypeTableRecord
  2
AM_ISO08W050
 70
     0
  3
____ . ____ . ____ . ____ . ____ . ____ . ____
 72
    65
 73
     4
 40
18.0
 49
12.0
 74
     0
 49
-1.5
 74
     0
 49
3.0
 74
     0
 49
-1.5
 74
     0
  0
LTYPE
  5
AF96
330
5
100
AcDbSymbolTableRecord
100
AcDbLinetypeTableRecord
  2
AM_ISO09W050
 70
     0
  3
_____ . . _____ . . _____ . . ____ .. ____
 72
    65
 73
     6
 40
22.5
 49
12.0
 74
     0
 49
-1.5
 74
     0
 49
3.0
 74
     0
 49
-1.5
 74
     0
 49
3.0
 74
     0
 49
-1.5
 74
     0
  0
LTYPE
  5
AF97
330
5
100
AcDbSymbolTableRecord
100
AcDbLinetypeTableRecord
  2
AM_ISO08W050x2
 70
     0
  3
__ . __ . __ . __ . __ . __
 72
    65
 73
     4
 40
9.0
 49
6.0
 74
     0
 49
-0.75
 74
     0
 49
1.5
 74
     0
 49
-0.75
 74
     0
  0
LTYPE
  5
AF98
330
5
100
AcDbSymbolTableRecord
100
AcDbLinetypeTableRecord
  2
AM_ISO02W050x2
 70
     0
  3
 _ _ _ _ _ _ _ _ _ _ _ _
 72
    65
 73
     2
 40
3.75
 49
3.0
 74
     0
 49
-0.75
 74
     0
  0
LTYPE
  5
1D53A
330
5
100
AcDbSymbolTableRecord
100
AcDbLinetypeTableRecord
  2
DASHED
 70
     0
  3
__ __ __ __ __ __ __ __ __ __ __ __ __ __ __
 72
    65
 73
     2
 40
3.5
 49
2.0
 74
     0
 49
-1.5
 74
     0
  0
LTYPE
  5
1D53B
330
5
100
AcDbSymbolTableRecord
100
AcDbLinetypeTableRecord
  2
CENTER2
 70
     0
  3
Center (.5x) ___ _ ___ _ ___ _ ___ _ ___ _ ___
 72
    65
 73
     4
 40
1.125
 49
0.75
 74
     0
 49
-0.125
 74
     0
 49
0.125
 74
     0
 49
-0.125
 74
     0
  0
LTYPE
  5
1D53C
330
5
100
AcDbSymbolTableRecord
100
AcDbLinetypeTableRecord
  2
HIDDEN2
 70
     0
  3
Hidden (.5x) _ _ _ _ _ _ _ _ _ _ _ _ _ _ _ _ _
 72
    65
 73
     2
 40
0.1875
 49
0.125
 74
     0
 49
-0.0625
 74
     0
  0
LTYPE
  5
1D53D
330
5
100
AcDbSymbolTableRecord
100
AcDbLinetypeTableRecord
  2
Amzigzag2
 70
     0
  3
/\/-/\/-/\/-/\/-/\/-/\/
 72
    65
 73
     2
 40
0.4401
 49
0.0001
 74
     4
 75
   136
340
AC80
 46
0.0016
 50
0.0
 44
0.0
 45
0.0
 49
-0.4400000000000002
 74
     0
  0
LTYPE
  5
1D53E
330
5
100
AcDbSymbolTableRecord
100
AcDbLinetypeTableRecord
  2
ACANSTGB
 70
     0
  3
__ . . __ . .
 72
    65
 73
     6
 40
0.35433070866
 49
0.15748031496
 74
     0
 49
-0.03937007874
 74
     0
 49
0.03937007874
 74
     0
 49
-0.03937007874
 74
     0
 49
0.03937007874
 74
     0
 49
-0.03937007874
 74
     0
  0
LTYPE
  5
1D53F
330
5
100
AcDbSymbolTableRecord
100
AcDbLinetypeTableRecord
  2
ACANSTGL
 70
     0
  3
_ _ _ _ _
 72
    65
 73
     2
 40
0.11811023622
 49
0.07874015748
 74
     0
 49
-0.03937007874
 74
     0
  0
LTYPE
  5
3215C
330
5
100
AcDbSymbolTableRecord
100
AcDbLinetypeTableRecord
  2
PHANTOM
 70
     0
  3
_____ _ _ _____ _ _ _____ _ _ _____ _ _ ____  
 72
    65
 73
     6
 40
15.5
 49
8.0
 74
     0
 49
-1.5
 74
     0
 49
1.5
 74
     0
 49
-1.5
 74
     0
 49
1.5
 74
     0
 49
-1.5
 74
     0
  0
ENDTAB
  0
TABLE
  2
LAYER
  5
2
102
{ACAD_XDICTIONARY
360
3F95
102
}
330
0
100
AcDbSymbolTable
 70
    24
  0
LAYER
  5
10
330
2
100
AcDbSymbolTableRecord
100
AcDbLayerTableRecord
  2
0
 70
     0
 62
     7
  6
Continuous
370
    -3
390
F
  0
LAYER
  5
6D1
330
2
100
AcDbSymbolTableRecord
100
AcDbLayerTableRecord
  2
Defpoints
 70
     0
 62
     7
  6
Continuous
290
     0
370
    -3
390
F
  0
LAYER
  5
5F85
330
2
100
AcDbSymbolTableRecord
100
AcDbLayerTableRecord
  2
AM_0
 70
     0
 62
     7
  6
中線
370
    30
390
F
1001
AcAecLayerStandard
1000

1000

  0
LAYER
  5
AC9F
330
2
100
AcDbSymbolTableRecord
100
AcDbLayerTableRecord
  2
size
 70
     0
 62
     5
  6
Continuous
290
     0
370
    25
390
F
  0
LAYER
  5
ACA0
330
2
100
AcDbSymbolTableRecord
100
AcDbLayerTableRecord
  2
waku
 70
     0
 62
     7
  6
Continuous
370
    35
390
F
  0
LAYER
  5
ACA1
330
2
100
AcDbSymbolTableRecord
100
AcDbLayerTableRecord
  2
AM_6
 70
     0
 62
     2
  6
文字
370
    13
390
F
1001
AcAecLayerStandard
1000

1000

  0
LAYER
  5
ACC8
330
2
100
AcDbSymbolTableRecord
100
AcDbLayerTableRecord
  2
hyomoji
 70
     0
 62
     2
  6
Continuous
370
    13
390
F
  0
LAYER
  5
ACC9
330
2
100
AcDbSymbolTableRecord
100
AcDbLayerTableRecord
  2
hyosen1
 70
     0
 62
     1
  6
Continuous
370
    25
390
F
  0
LAYER
  5
ACCA
330
2
100
AcDbSymbolTableRecord
100
AcDbLayerTableRecord
  2
hyosen2
 70
     0
 62
     1
  6
Continuous
370
    13
390
F
  0
LAYER
  5
AD60
330
2
100
AcDbSymbolTableRecord
100
AcDbLayerTableRecord
  2
AM_1
 70
     0
 62
    30
  6
太線
370
    40
390
F
1001
AcAecLayerStandard
1000

1000

  0
LAYER
  5
AD64
330
2
100
AcDbSymbolTableRecord
100
AcDbLayerTableRecord
  2
AM_2
 70
     0
 62
     1
  6
細線
370
     9
390
F
1001
AcAecLayerStandard
1000

1000

  0
LAYER
  5
AD67
330
2
100
AcDbSymbolTableRecord
100
AcDbLayerTableRecord
  2
AM_3
 70
     0
 62
     6
  6
陰線1
370
     9
390
F
1001
AcAecLayerStandard
1000

1000

  0
LAYER
  5
AD68
330
2
100
AcDbSymbolTableRecord
100
AcDbLayerTableRecord
  2
AM_5
 70
     0
 62
     3
  6
寸法線
370
     9
390
F
1001
AcAecLayerStandard
1000

1000

  0
LAYER
  5
AD69
330
2
100
AcDbSymbolTableRecord
100
AcDbLayerTableRecord
  2
AM_7
 70
     0
 62
     4
  6
中心線1
370
     9
390
F
1001
AcAecLayerStandard
1000

1000

  0
LAYER
  5
AD6A
330
2
100
AcDbSymbolTableRecord
100
AcDbLayerTableRecord
  2
AM_8
 70
     0
 62
     1
  6
ハッチング
370
     9
390
F
1001
AcAecLayerStandard
1000

1000

  0
LAYER
  5
AD6E
330
2
100
AcDbSymbolTableRecord
100
AcDbLayerTableRecord
  2
AM_10
 70
     0
 62
     7
  6
切断線
370
    13
390
F
1001
AcAecLayerStandard
1000

1000

  0
LAYER
  5
AD6F
330
2
100
AcDbSymbolTableRecord
100
AcDbLayerTableRecord
  2
AM_11
 70
     0
 62
     2
  6
想像線1
370
     9
390
F
1001
AcAecLayerStandard
1000

1000

  0
LAYER
  5
B1B6
330
2
100
AcDbSymbolTableRecord
100
AcDbLayerTableRecord
  2
AM_CL
 70
     0
 62
     1
  6
Amconstr
370
    15
390
F
1001
AcAecLayerStandard
1000

1000

  0
LAYER
  5
B2EB
330
2
100
AcDbSymbolTableRecord
100
AcDbLayerTableRecord
  2
AM_14
 70
     0
 62
     5
  6
細線
370
     9
390
F
1001
AcAecLayerStandard
1000

1000

  0
LAYER
  5
B2EC
330
2
100
AcDbSymbolTableRecord
100
AcDbLayerTableRecord
  2
AM_15
 70
     0
 62
     6
  6
陰線1
370
     9
390
F
1001
AcAecLayerStandard
1000

1000

  0
LAYER
  5
CA46
330
2
100
AcDbSymbolTableRecord
100
AcDbLayerTableRecord
  2
001本体
 70
     0
 62
   121
  6
中線
370
    30
390
F
1001
AcAecLayerStandard
1000

1000

  0
LAYER
  5
EB4F
330
2
100
AcDbSymbolTableRecord
100
AcDbLayerTableRecord
  2
AM_4
 70
     0
 62
     3
  6
補助線
370
     9
390
F
1001
AcAecLayerStandard
1000

1000

  0
LAYER
  5
1E1B6
330
2
100
AcDbSymbolTableRecord
100
AcDbLayerTableRecord
  2
AM_12
 70
     0
 62
     7
  6
Continuous
290
     0
370
    15
390
F
  0
LAYER
  5
24E2B
330
2
100
AcDbSymbolTableRecord
100
AcDbLayerTableRecord
  2
000済
 70
     0
 62
    50
  6
中線
370
    30
390
F
1001
AcAecLayerStandard
1000

1000

  0
ENDTAB
  0
TABLE
  2
STYLE
  5
3
330
0
100
AcDbSymbolTable
 70
    11
  0
STYLE
  5
11
330
3
100
AcDbSymbolTableRecord
100
AcDbTextStyleTableRecord
  2
STANDARD
 70
     0
 40
0.0
 41
0.7
 50
0.0
 71
     0
 42
3.5
  3
romans.shx
  4
extfont.shx
  0
STYLE
  5
56
330
3
100
AcDbSymbolTableRecord
100
AcDbTextStyleTableRecord
  2

 70
     1
 40
0.0
 41
1.0
 50
0.0
 71
     0
 42
2.5
  3
ltypeshp.shx
  4

  0
STYLE
  5
58
330
3
100
AcDbSymbolTableRecord
100
AcDbTextStyleTableRecord
  2
ACISOTS
 70
     0
 40
1.0
 41
1.0
 50
0.0
 71
     0
 42
2.5
  3
isocp.shx
  4
extfont.shx
  0
STYLE
  5
63
330
3
100
AcDbSymbolTableRecord
100
AcDbTextStyleTableRecord
  2
ACISOGDT
 70
     0
 40
0.0
 41
1.0
 50
0.0
 71
     0
 42
2.5
  3
amgdt.shx
  4

  0
STYLE
  5
A74
330
3
100
AcDbSymbolTableRecord
100
AcDbTextStyleTableRecord
  2
DIM
 70
     0
 40
0.0
 41
1.0
 50
0.0
 71
     0
 42
2.5
  3
monotxt.shx
  4
extfont.shx
  0
STYLE
  5
AC80
330
3
100
AcDbSymbolTableRecord
100
AcDbTextStyleTableRecord
  2

 70
     1
 40
0.0
 41
1.0
 50
0.0
 71
     0
 42
3.2
  3
genltshp.shx
  4

  0
STYLE
  5
CA48
330
3
100
AcDbSymbolTableRecord
100
AcDbTextStyleTableRecord
  2
横書き
 70
     0
 40
0.0
 41
1.0
 50
0.0
 71
     0
 42
3.5
  3
TXT.shx
  4
bigfont.shx
  0
STYLE
  5
CA49
330
3
100
AcDbSymbolTableRecord
100
AcDbTextStyleTableRecord
  2
横書き2
 70
     0
 40
0.0
 41
1.0
 50
0.0
 71
     0
 42
4.0
  3
TXT.shx
  4
extfont2.shx
  0
STYLE
  5
CA4A
330
3
100
AcDbSymbolTableRecord
100
AcDbTextStyleTableRecord
  2
明朝
 70
     0
 40
0.0
 41
1.0
 50
0.0
 71
     0
 42
3.0
  3
MS Mincho.ttf
  4

1001
ACAD
1000
MS Mincho
1071
    32785
  0
STYLE
  5
1D540
330
3
100
AcDbSymbolTableRecord
100
AcDbTextStyleTableRecord
  2
ACANSTS
 70
     0
 40
1.0
 41
1.0
 50
0.0
 71
     0
 42
3.2
  3
romans.shx
  4
extfont.shx
  0
STYLE
  5
1D541
330
3
100
AcDbSymbolTableRecord
100
AcDbTextStyleTableRecord
  2
ACANSGDT
 70
     0
 40
0.0
 41
1.0
 50
0.0
 71
     0
 42
3.2
  3
amgdt.shx
  4

  0
ENDTAB
  0
TABLE
  2
VIEW
  5
6
330
0
100
AcDbSymbolTable
 70
     6
  0
VIEW
  5
AE1
330
6
100
AcDbSymbolTableRecord
100
AcDbViewTableRecord
  2
AM_VIEW1
 70
     0
 40
148.5
 10
1876.338856879554
 20
-5865.134660833434
 41
282.4136094674557
 11
0.0
 21
0.0
 31
1.0
 12
0.0
 22
0.0
 32
0.0
 42
50.0
 43
-1370.695619172058
 44
-1370.695619172058
 50
0.0
 71
     0
281
     0
 72
     0
  0
VIEW
  5
AE2
330
6
100
AcDbSymbolTableRecord
100
AcDbViewTableRecord
  2
AM_VIEW2
 70
     0
 40
148.5
 10
2013.925247412098
 20
-5865.134660833434
 41
282.4136094674557
 11
0.0
 21
0.0
 31
1.0
 12
0.0
 22
0.0
 32
0.0
 42
50.0
 43
-1370.695619172058
 44
-1370.695619172058
 50
0.0
 71
     0
281
     0
 72
     0
  0
VIEW
  5
AE3
330
6
100
AcDbSymbolTableRecord
100
AcDbViewTableRecord
  2
AM_VIEW3
 70
     0
 40
148.5
 10
1876.338856879554
 20
-6013.634660833434
 41
282.4136094674557
 11
0.0
 21
0.0
 31
1.0
 12
0.0
 22
0.0
 32
0.0
 42
50.0
 43
-1370.695619172058
 44
-1370.695619172058
 50
0.0
 71
     0
281
     0
 72
     0
  0
VIEW
  5
AE4
330
6
100
AcDbSymbolTableRecord
100
AcDbViewTableRecord
  2
AM_VIEW4
 70
     0
 40
148.5
 10
2013.925247412098
 20
-6013.634660833434
 41
282.4136094674557
 11
0.0
 21
0.0
 31
1.0
 12
0.0
 22
0.0
 32
0.0
 42
50.0
 43
-1370.695619172058
 44
-1370.695619172058
 50
0.0
 71
     0
281
     0
 72
     0
  0
VIEW
  5
AE5
330
6
100
AcDbSymbolTableRecord
100
AcDbViewTableRecord
  2
AM_VIEW5
 70
     0
 40
148.5
 10
1945.132052145826
 20
-5939.384660833434
 41
282.4136094674557
 11
0.0
 21
0.0
 31
1.0
 12
0.0
 22
0.0
 32
0.0
 42
50.0
 43
-1370.695619172058
 44
-1370.695619172058
 50
0.0
 71
     0
281
     0
 72
     0
  0
VIEW
  5
AE6
330
6
100
AcDbSymbolTableRecord
100
AcDbViewTableRecord
  2
AM_VIEW6
 70
     0
 40
296.9970300000004
 10
1945.132052145826
 20
-5939.384660833434
 41
564.8215706627218
 11
0.0
 21
0.0
 31
1.0
 12
0.0
 22
0.0
 32
0.0
 42
50.0
 43
-1370.695619172058
 44
-1370.695619172058
 50
0.0
 71
     0
281
     0
 72
     0
  0
ENDTAB
  0
TABLE
  2
UCS
  5
7
330
0
100
AcDbSymbolTable
 70
     0
  0
ENDTAB
  0
TABLE
  2
APPID
  5
9
330
0
100
AcDbSymbolTable
 70
    60
  0
APPID
  5
12
330
9
100
AcDbSymbolTableRecord
100
AcDbRegAppTableRecord
  2
ACAD
 70
     0
  0
APPID
  5
30
330
9
100
AcDbSymbolTableRecord
100
AcDbRegAppTableRecord
  2
MCAD_NO_VIS
 70
     0
  0
APPID
  5
31
330
9
100
AcDbSymbolTableRecord
100
AcDbRegAppTableRecord
  2
ACAD_TEMP_GRAPHIC
 70
     0
  0
APPID
  5
44
330
9
100
AcDbSymbolTableRecord
100
AcDbRegAppTableRecord
  2
ACATTRIBSERVICES
 70
     0
  0
APPID
  5
7A1
330
9
100
AcDbSymbolTableRecord
100
AcDbRegAppTableRecord
  2
GENIUS_GENDIMSH_14
 70
     0
  0
APPID
  5
A49
330
9
100
AcDbSymbolTableRecord
100
AcDbRegAppTableRecord
  2
GENIUS_GENREC_14
 70
     0
  0
APPID
  5
A4A
330
9
100
AcDbSymbolTableRecord
100
AcDbRegAppTableRecord
  2
GENIUS_GENOBJ-N-REC_13
 70
     0
  0
APPID
  5
A4B
330
9
100
AcDbSymbolTableRecord
100
AcDbRegAppTableRecord
  2
GENIUS_GENODEF_13
 70
     0
  0
APPID
  5
A4C
330
9
100
AcDbSymbolTableRecord
100
AcDbRegAppTableRecord
  2
DCO15
 70
     0
  0
APPID
  5
ADC
330
9
100
AcDbSymbolTableRecord
100
AcDbRegAppTableRecord
  2
GENIUS_GENOLIS_13
 70
     0
  0
APPID
  5
ADD
330
9
100
AcDbSymbolTableRecord
100
AcDbRegAppTableRecord
  2
GENIUS_GENOENT_13
 70
     0
  0
APPID
  5
ADE
330
9
100
AcDbSymbolTableRecord
100
AcDbRegAppTableRecord
  2
GENIUS_GENOBJ-N-TIT_13
 70
     0
  0
APPID
  5
ADF
330
9
100
AcDbSymbolTableRecord
100
AcDbRegAppTableRecord
  2
GENIUS_GENTITLE_13
 70
     0
  0
APPID
  5
AE0
330
9
100
AcDbSymbolTableRecord
100
AcDbRegAppTableRecord
  2
GENIUS_GENOREF_13
 70
     0
  0
APPID
  5
AE7
330
9
100
AcDbSymbolTableRecord
100
AcDbRegAppTableRecord
  2
GENIUS_GENSCREG_15
 70
     0
  0
APPID
  5
AE8
330
9
100
AcDbSymbolTableRecord
100
AcDbRegAppTableRecord
  2
GENIUS_GENOBJ-N-SDF_13
 70
     0
  0
APPID
  5
FAF
330
9
100
AcDbSymbolTableRecord
100
AcDbRegAppTableRecord
  2
GENIUS_GENBLLY_14
 70
     0
  0
APPID
  5
FB0
330
9
100
AcDbSymbolTableRecord
100
AcDbRegAppTableRecord
  2
GENIUS_GENTRA_14
 70
     0
  0
APPID
  5
1285
330
9
100
AcDbSymbolTableRecord
100
AcDbRegAppTableRecord
  2
GENIUS_GENDTOL_13
 70
     0
  0
APPID
  5
142D
330
9
100
AcDbSymbolTableRecord
100
AcDbRegAppTableRecord
  2
GENIUS_GENOBJ-N-CEN_13
 70
     0
  0
APPID
  5
1AB5
330
9
100
AcDbSymbolTableRecord
100
AcDbRegAppTableRecord
  2
GENIUS_GENOBJ-N-CRS_13
 70
     0
  0
APPID
  5
1B36
330
9
100
AcDbSymbolTableRecord
100
AcDbRegAppTableRecord
  2
GENIUS_GENOBJ-N-HTC_13
 70
     0
  0
APPID
  5
1B37
330
9
100
AcDbSymbolTableRecord
100
AcDbRegAppTableRecord
  2
GENIUS_GENHATCH_13
 70
     0
  0
APPID
  5
216D
330
9
100
AcDbSymbolTableRecord
100
AcDbRegAppTableRecord
  2
GENIUS_GENOBJ-N-FIL_13
 70
     0
  0
APPID
  5
2356
330
9
100
AcDbSymbolTableRecord
100
AcDbRegAppTableRecord
  2
GEVID990412420
 70
     0
  0
APPID
  5
2357
330
9
100
AcDbSymbolTableRecord
100
AcDbRegAppTableRecord
  2
GEVDC
 70
     0
  0
APPID
  5
2358
330
9
100
AcDbSymbolTableRecord
100
AcDbRegAppTableRecord
  2
GEVCON
 70
     0
  0
APPID
  5
235B
330
9
100
AcDbSymbolTableRecord
100
AcDbRegAppTableRecord
  2
GEVRADREF
 70
     0
  0
APPID
  5
2360
330
9
100
AcDbSymbolTableRecord
100
AcDbRegAppTableRecord
  2
GENIUS_GENBH_13
 70
     0
  0
APPID
  5
2362
330
9
100
AcDbSymbolTableRecord
100
AcDbRegAppTableRecord
  2
GENIUS_GENOBJ-NBEHI-BHF_13
 70
     0
  0
APPID
  5
2364
330
9
100
AcDbSymbolTableRecord
100
AcDbRegAppTableRecord
  2
GENIUS_GENOBJ-NBEHI-BHB_13
 70
     0
  0
APPID
  5
2379
330
9
100
AcDbSymbolTableRecord
100
AcDbRegAppTableRecord
  2
GENIUS_GENOBJ-F-SCPASSM_13
 70
     0
  0
APPID
  5
3D74
330
9
100
AcDbSymbolTableRecord
100
AcDbRegAppTableRecord
  2
GENIUS_GENDIM_13
 70
     0
  0
APPID
  5
3D76
330
9
100
AcDbSymbolTableRecord
100
AcDbRegAppTableRecord
  2
GENIUS_GE3DTOL_13
 70
     0
  0
APPID
  5
3D9C
330
9
100
AcDbSymbolTableRecord
100
AcDbRegAppTableRecord
  2
AD_DRAW
 70
     0
  0
APPID
  5
3DE8
330
9
100
AcDbSymbolTableRecord
100
AcDbRegAppTableRecord
  2
ASURF_PCURVE_APPNAME
 70
     0
  0
APPID
  5
3DED
330
9
100
AcDbSymbolTableRecord
100
AcDbRegAppTableRecord
  2
AMG_3D2D_5.0
 70
     0
  0
APPID
  5
3E1B
330
9
100
AcDbSymbolTableRecord
100
AcDbRegAppTableRecord
  2
DESIGNERASSEMBLIES
 70
     0
  0
APPID
  5
3E20
330
9
100
AcDbSymbolTableRecord
100
AcDbRegAppTableRecord
  2
ACADM_DIM_EDIT
 70
     0
  0
APPID
  5
3E21
330
9
100
AcDbSymbolTableRecord
100
AcDbRegAppTableRecord
  2
AMDT_DM_ADJ
 70
     0
  0
APPID
  5
4143
330
9
100
AcDbSymbolTableRecord
100
AcDbRegAppTableRecord
  2
GENIUS_GENFIL_13
 70
     0
  0
APPID
  5
4144
330
9
100
AcDbSymbolTableRecord
100
AcDbRegAppTableRecord
  2
GENIUS_GENOBJ-N-CHA_13
 70
     0
  0
APPID
  5
4E17
330
9
100
AcDbSymbolTableRecord
100
AcDbRegAppTableRecord
  2
GEVID1008153417
 70
     0
  0
APPID
  5
4E58
330
9
100
AcDbSymbolTableRecord
100
AcDbRegAppTableRecord
  2
GEVID1008153418
 70
     0
  0
APPID
  5
4E5E
330
9
100
AcDbSymbolTableRecord
100
AcDbRegAppTableRecord
  2
GEVID1008153419
 70
     0
  0
APPID
  5
4E64
330
9
100
AcDbSymbolTableRecord
100
AcDbRegAppTableRecord
  2
GEVID1008153420
 70
     0
  0
APPID
  5
4E75
330
9
100
AcDbSymbolTableRecord
100
AcDbRegAppTableRecord
  2
GEVID1008153421
 70
     0
  0
APPID
  5
4EB7
330
9
100
AcDbSymbolTableRecord
100
AcDbRegAppTableRecord
  2
GENIUS_AMGTXT_16
 70
     0
  0
APPID
  5
7645
330
9
100
AcDbSymbolTableRecord
100
AcDbRegAppTableRecord
  2
GENIUS_GENOBJ-N-DIM_13
 70
     0
  0
APPID
  5
AAD0
330
9
100
AcDbSymbolTableRecord
100
AcDbRegAppTableRecord
  2
ACAD_DSTYLE_DIMARC_LENGTH_SYMBOL
 70
     0
  0
APPID
  5
AAD1
330
9
100
AcDbSymbolTableRecord
100
AcDbRegAppTableRecord
  2
ACAD_DSTYLE_DIMJOGGED_JOGANGLE_SYMBOL
 70
     0
  0
APPID
  5
AAFD
330
9
100
AcDbSymbolTableRecord
100
AcDbRegAppTableRecord
  2
ACAD_PSEXT
 70
     0
  0
APPID
  5
AD61
330
9
100
AcDbSymbolTableRecord
100
AcDbRegAppTableRecord
  2
AcAecLayerStandard
 70
     0
  0
APPID
  5
AEE3
330
9
100
AcDbSymbolTableRecord
100
AcDbRegAppTableRecord
  2
ACAD_EXEMPT_FROM_CAD_STANDARDS
 70
     0
  0
APPID
  5
B1BE
330
9
100
AcDbSymbolTableRecord
100
AcDbRegAppTableRecord
  2
GENIUS_GENCEN_19
 70
     0
  0
APPID
  5
B4DF
330
9
100
AcDbSymbolTableRecord
100
AcDbRegAppTableRecord
  2
ACAD_MLEADERVER
 70
     0
  0
APPID
  5
CA4C
330
9
100
AcDbSymbolTableRecord
100
AcDbRegAppTableRecord
  2
ACAD_DSTYLE_DIMRADIAL_EXTENSION
 70
     0
  0
APPID
  5
1ED6D
330
9
100
AcDbSymbolTableRecord
100
AcDbRegAppTableRecord
  2
ACAD_DSTYLE_DIMINSPECT
 70
     0
  0
APPID
  5
219D8
330
9
100
AcDbSymbolTableRecord
100
AcDbRegAppTableRecord
  2
ACDBBLOCKREPETAG
 70
     0
  0
APPID
  5
219D9
330
9
100
AcDbSymbolTableRecord
100
AcDbRegAppTableRecord
  2
AcDbDynamicBlockGUID
 70
     0
  0
ENDTAB
  0
TABLE
  2
DIMSTYLE
  5
A
330
0
100
AcDbSymbolTable
 70
    30
100
AcDbDimStyleTable
 71
     1
340
2515
  0
DIMSTYLE
105
A76
330
A
100
AcDbSymbolTableRecord
100
AcDbDimStyleTableRecord
  2
STANDARD
 70
     0
 41
3.0
 42
1.0
 43
7.0
 44
2.0
 73
     0
 74
     0
 77
     1
140
2.799999999999998
141
0.0
143
0.0394
147
0.7
171
     4
172
     1
173
     1
176
     3
177
     3
178
     2
271
     3
272
     3
273
     8
274
     4
289
     0
340
A74
341
A66
343
A66
344
A66
  0
DIMSTYLE
105
2515
330
A
100
AcDbSymbolTableRecord
100
AcDbDimStyleTableRecord
  2
SYS
 70
     0
  4
"
 41
1.0
 42
1.0
 43
10.0
 44
1.0
 47
0.1
 48
0.1
 73
     0
 74
     0
 77
     1
 78
     8
 79
     2
140
3.5
141
0.0
143
0.0393701
146
0.71
147
1.5
172
     1
176
   256
177
   256
178
     7
271
     2
272
     2
283
     0
284
     8
340
11
371
    -1
372
    -1
1001
ACAD_DSTYLE_DIMJOGGED_JOGANGLE_SYMBOL
1070
   384
1040
0.7853981633974483
1001
ACAD_DSTYLE_DIMARC_LENGTH_SYMBOL
1070
   379
1070
     1
  0
DIMSTYLE
105
2516
330
A
100
AcDbSymbolTableRecord
100
AcDbDimStyleTableRecord
  2
SYS$3
 70
     0
  4
"
 41
2.0
 42
1.0
 43
10.0
 44
1.0
 47
0.1
 48
0.1
 73
     0
 77
     1
 78
     8
 79
     2
140
3.2
141
0.0
143
0.0393701
146
0.71
147
1.0
176
   256
177
   256
178
     2
271
     2
272
     2
283
     0
284
     8
288
     1
340
11
342
A66
371
    -1
372
    -1
1001
ACAD_DSTYLE_DIMJOGGED_JOGANGLE_SYMBOL
1070
   384
1040
0.7853981633974483
1001
ACAD_DSTYLE_DIMARC_LENGTH_SYMBOL
1070
   379
1070
     1
  0
DIMSTYLE
105
2517
102
{ACAD_REACTORS
330
3A162
102
}
330
A
100
AcDbSymbolTableRecord
100
AcDbDimStyleTableRecord
  2
SYS$4
 70
     0
  4
"
 41
2.0
 42
1.0
 43
10.0
 44
1.0
 47
0.1
 48
0.1
 73
     0
 77
     1
 78
     8
 79
     2
140
3.2
141
0.0
143
0.0393701
146
0.71
147
1.0
173
     1
176
   256
177
   256
178
     2
271
     2
272
     2
283
     0
284
     8
288
     1
340
11
344
A66
371
    -1
372
    -1
1001
ACAD_DSTYLE_DIMJOGGED_JOGANGLE_SYMBOL
1070
   384
1040
0.7853981633974483
1001
ACAD_DSTYLE_DIMARC_LENGTH_SYMBOL
1070
   379
1070
     1
  0
DIMSTYLE
105
2518
330
A
100
AcDbSymbolTableRecord
100
AcDbDimStyleTableRecord
  2
SYS$6
 70
     0
  4
"
 41
2.0
 42
1.0
 43
10.0
 44
1.0
 47
0.1
 48
0.1
 73
     0
 74
     0
 78
     8
 79
     2
140
3.5
141
0.0
143
0.0393701
146
0.71
147
1.5
172
     1
176
   256
177
   256
178
     2
271
     2
272
     2
283
     0
284
     8
340
11
341
A66
371
    -1
372
    -1
1001
ACAD_DSTYLE_DIMJOGGED_JOGANGLE_SYMBOL
1070
   384
1040
0.7853981633974483
1001
ACAD_DSTYLE_DIMARC_LENGTH_SYMBOL
1070
   379
1070
     1
  0
DIMSTYLE
105
2519
330
A
100
AcDbSymbolTableRecord
100
AcDbDimStyleTableRecord
  2
SYS$7
 70
     0
  4
"
 41
2.0
 42
1.0
 43
10.0
 44
1.0
 47
0.1
 48
0.1
 73
     0
 74
     0
 77
     1
 78
     8
 79
     2
140
3.2
141
0.0
143
0.0393701
146
0.71
147
1.0
172
     1
176
   256
177
   256
178
     2
271
     2
272
     2
283
     0
284
     8
340
11
341
A66
342
A66
371
    -1
372
    -1
1001
ACAD_DSTYLE_DIMJOGGED_JOGANGLE_SYMBOL
1070
   384
1040
0.7853981633974483
1001
ACAD_DSTYLE_DIMARC_LENGTH_SYMBOL
1070
   379
1070
     1
  0
DIMSTYLE
105
251A
330
A
100
AcDbSymbolTableRecord
100
AcDbDimStyleTableRecord
  2
SYS$SF
 70
     0
  4
"
 41
2.5
 42
1.0
 43
10.0
 44
1.0
 47
0.1
 48
0.1
 73
     0
 74
     0
 75
     1
 76
     1
 77
     1
 78
     8
 79
     2
140
3.5
141
0.0
143
0.0393701
146
0.71
147
1.5
172
     1
176
   256
177
   256
178
     2
271
     2
272
     3
283
     0
284
     8
340
11
341
6C4
342
6C4
371
    -1
372
    -1
1001
ACAD_DSTYLE_DIMJOGGED_JOGANGLE_SYMBOL
1070
   384
1040
0.7853981633974483
1001
ACAD_DSTYLE_DIMARC_LENGTH_SYMBOL
1070
   379
1070
     1
  0
DIMSTYLE
105
251B
330
A
100
AcDbSymbolTableRecord
100
AcDbDimStyleTableRecord
  2
SYS$SH
 70
     0
  4
"
 41
2.5
 42
1.0
 43
10.0
 44
1.0
 47
0.1
 48
0.1
 73
     0
 74
     0
 75
     1
 76
     1
 77
     1
 78
     8
 79
     2
140
3.5
141
0.0
143
0.0393701
144
2.0
146
0.71
147
1.5
172
     1
173
     1
176
   256
177
   256
178
     2
271
     2
272
     3
283
     0
284
     8
340
11
341
6C4
343
72
344
6C4
371
    -1
372
    -1
1001
ACAD_DSTYLE_DIMJOGGED_JOGANGLE_SYMBOL
1070
   384
1040
0.7853981633974483
1001
ACAD_DSTYLE_DIMARC_LENGTH_SYMBOL
1070
   379
1070
     1
  0
DIMSTYLE
105
2A59
330
A
100
AcDbSymbolTableRecord
100
AcDbDimStyleTableRecord
  2
SYS$2
 70
     0
  4
"
 41
1.0
 42
1.0
 43
10.0
 44
1.0
 47
0.1
 48
0.1
 73
     0
 74
     0
 77
     1
 78
     8
 79
     2
140
3.2
141
0.0
143
0.0393701
146
0.71
147
1.0
172
     1
176
   256
177
   256
178
     2
271
     2
272
     2
283
     0
284
     8
340
11
342
6C4
371
    -1
372
    -1
1001
ACAD_DSTYLE_DIMJOGGED_JOGANGLE_SYMBOL
1070
   384
1040
0.7853981633974483
1001
ACAD_DSTYLE_DIMARC_LENGTH_SYMBOL
1070
   379
1070
     1
  0
DIMSTYLE
105
2AAB
102
{ACAD_REACTORS
330
3A0B6
330
3A0B7
330
3A0F7
330
3A15A
330
3A15B
330
3A15C
330
3A15D
330
40DE5
330
40E50
330
52D78
330
52D8E
102
}
330
A
100
AcDbSymbolTableRecord
100
AcDbDimStyleTableRecord
  2
SYS$0
 70
     0
  4
"
 41
1.0
 42
1.0
 43
10.0
 44
1.0
 47
0.1
 48
0.1
 73
     0
 74
     0
 77
     1
 78
     8
 79
     2
140
3.200000000000001
141
0.0
143
0.0393701
146
0.71
147
1.0
172
     1
176
   256
177
   256
178
     2
271
     2
272
     2
283
     0
284
     8
340
11
341
A66
342
6C4
371
    -1
372
    -1
1001
ACAD_DSTYLE_DIMJOGGED_JOGANGLE_SYMBOL
1070
   384
1040
0.7853981633974483
1001
ACAD_DSTYLE_DIMARC_LENGTH_SYMBOL
1070
   379
1070
     1
  0
DIMSTYLE
105
AF99
330
A
100
AcDbSymbolTableRecord
100
AcDbDimStyleTableRecord
  2
AM_ISO
 70
     0
  4
"
 41
2.5
 42
1.0
 43
10.0
 44
1.0
 47
0.1
 48
0.1
 73
     0
 74
     0
 77
     1
 78
     8
 79
     2
140
3.5
141
0.0
143
0.0393701
146
0.71
147
1.5
172
     1
176
   256
177
   256
178
     2
271
     2
272
     3
274
     4
283
     0
284
     8
340
11
371
    -1
372
    -1
  0
DIMSTYLE
105
AF9A
330
A
100
AcDbSymbolTableRecord
100
AcDbDimStyleTableRecord
  2
AM_ISO$3
 70
     0
  4
"
 41
2.5
 42
1.0
 43
10.0
 44
1.0
 47
0.1
 48
0.1
 73
     0
 77
     1
 78
     8
 79
     2
140
3.5
141
0.0
143
0.0393701
146
0.71
147
1.5
176
   256
177
   256
178
     2
271
     2
272
     3
274
     4
283
     0
284
     8
288
     1
289
     0
340
11
371
    -1
372
    -1
  0
DIMSTYLE
105
AF9B
330
A
100
AcDbSymbolTableRecord
100
AcDbDimStyleTableRecord
  2
AM_ISO$4
 70
     0
  4
"
 41
2.5
 42
1.0
 43
10.0
 44
1.0
 47
0.1
 48
0.1
 73
     0
 77
     1
 78
     8
 79
     2
140
3.5
141
0.0
143
0.0393701
146
0.71
147
1.5
176
   256
177
   256
178
     2
271
     2
272
     3
274
     4
283
     0
284
     8
288
     1
289
     0
340
11
371
    -1
372
    -1
  0
DIMSTYLE
105
AF9C
330
A
100
AcDbSymbolTableRecord
100
AcDbDimStyleTableRecord
  2
AM_ISO$6
 70
     0
  4
"
 41
2.5
 42
1.0
 43
10.0
 44
1.0
 47
0.1
 48
0.1
 73
     0
 74
     0
 78
     8
 79
     2
140
3.5
141
0.0
143
0.0393701
146
0.71
147
1.5
172
     1
176
   256
177
   256
178
     2
271
     2
272
     3
274
     4
283
     0
284
     8
340
11
371
    -1
372
    -1
  0
DIMSTYLE
105
AF9D
330
A
100
AcDbSymbolTableRecord
100
AcDbDimStyleTableRecord
  2
AM_ISO$7
 70
     0
  4
"
 41
2.5
 42
1.0
 43
10.0
 44
1.0
 47
0.1
 48
0.1
 73
     0
 74
     0
 77
     1
 78
     8
 79
     2
140
5.0
141
0.0
143
0.0393701
146
0.71
147
1.5
172
     1
176
   256
177
   256
178
     2
271
     2
272
     3
274
     4
283
     0
284
     8
340
11
371
    -1
372
    -1
  0
DIMSTYLE
105
AF9E
330
A
100
AcDbSymbolTableRecord
100
AcDbDimStyleTableRecord
  2
AM_ISO$SF
 70
     0
  4
"
 41
2.5
 42
1.0
 43
10.0
 44
1.0
 47
0.1
 48
0.1
 73
     0
 74
     0
 75
     1
 76
     1
 77
     1
 78
     8
 79
     2
140
3.5
141
0.0
143
0.0393701
146
0.71
147
1.5
172
     1
176
   256
177
   256
178
     2
271
     2
272
     3
274
     4
283
     0
284
     8
340
11
371
    -1
372
    -1
  0
DIMSTYLE
105
AF9F
330
A
100
AcDbSymbolTableRecord
100
AcDbDimStyleTableRecord
  2
AM_ISO$SH
 70
     0
  4
"
 41
2.5
 42
1.0
 43
10.0
 44
1.0
 47
0.1
 48
0.1
 73
     0
 74
     0
 75
     1
 76
     1
 77
     1
 78
     8
 79
     2
140
3.5
141
0.0
143
0.0393701
144
2.0
146
0.71
147
1.5
172
     1
173
     1
176
   256
177
   256
178
     2
271
     2
272
     3
274
     4
283
     0
284
     8
340
11
343
72
371
    -1
372
    -1
  0
DIMSTYLE
105
B658
330
A
100
AcDbSymbolTableRecord
100
AcDbDimStyleTableRecord
  2
AM_ANSI
 70
     0
  4
mm
 41
0.1
 42
0.05
 43
0.5
 44
0.1
 47
0.1
 48
0.1
 78
     7
 79
     2
140
0.12
141
0.0
146
0.71
147
0.06
176
   256
177
   256
178
     2
274
     4
284
     7
340
11
371
    -1
372
    -1
  0
DIMSTYLE
105
CA4B
330
A
100
AcDbSymbolTableRecord
100
AcDbDimStyleTableRecord
  2
原寸
 70
     0
 41
2.5
 42
1.0
 43
10.0
 44
0.7
 73
     0
 74
     0
 77
     3
 78
     8
 79
     2
140
3.5
141
0.0
147
1.0
172
     1
179
     1
271
     2
272
     2
340
CA48
341
A66
342
A66
  0
DIMSTYLE
105
1D542
330
A
100
AcDbSymbolTableRecord
100
AcDbDimStyleTableRecord
  2
DIMSTYLE
 70
     0
 41
1.0
 42
2.54
 44
2.54
 73
     0
 74
     0
140
3.2
147
1.6
173
     1
279
     2
340
11
  0
DIMSTYLE
105
1D543
330
A
100
AcDbSymbolTableRecord
100
AcDbDimStyleTableRecord
  2
AM_ANSI$3
 70
     0
  4
mm
 41
0.1
 42
0.05
 43
0.5
 44
0.1
 47
0.1
 48
0.1
 78
     7
 79
     2
140
0.12
141
0.0
146
0.71
147
0.06
176
   256
177
   256
178
     2
274
     4
284
     7
288
     1
289
     0
340
11
371
    -1
372
    -1
1001
ACAD_DSTYLE_DIMARC_LENGTH_SYMBOL
1070
   379
1070
     1
  0
DIMSTYLE
105
1D544
330
A
100
AcDbSymbolTableRecord
100
AcDbDimStyleTableRecord
  2
AM_ANSI$4
 70
     0
  4
mm
 41
0.1
 42
0.05
 43
0.5
 44
0.1
 47
0.1
 48
0.1
 78
     7
 79
     2
140
0.12
141
0.0
146
0.71
147
0.06
176
   256
177
   256
178
     2
274
     4
284
     7
288
     1
289
     0
340
11
371
    -1
372
    -1
1001
ACAD_DSTYLE_DIMARC_LENGTH_SYMBOL
1070
   379
1070
     1
  0
DIMSTYLE
105
1D545
330
A
100
AcDbSymbolTableRecord
100
AcDbDimStyleTableRecord
  2
AM_ANSI$7
 70
     0
  4
mm
 41
0.1
 42
0.05
 43
0.5
 44
0.1
 47
0.1
 48
0.1
 78
     7
 79
     2
140
0.24
141
0.0
146
0.71
147
0.06
176
   256
177
   256
178
     2
274
     4
284
     7
340
11
371
    -1
372
    -1
1001
ACAD_DSTYLE_DIMARC_LENGTH_SYMBOL
1070
   379
1070
     1
  0
DIMSTYLE
105
1D546
330
A
100
AcDbSymbolTableRecord
100
AcDbDimStyleTableRecord
  2
AM_ANSI$SF
 70
     0
  4
mm
 41
0.1
 42
0.05
 43
0.5
 44
0.1
 47
0.1
 48
0.1
 75
     1
 76
     1
 78
     7
 79
     2
140
0.12
141
0.0
146
0.71
147
0.06
176
   256
177
   256
178
     2
274
     4
284
     7
340
11
371
    -1
372
    -1
1001
ACAD_DSTYLE_DIMARC_LENGTH_SYMBOL
1070
   379
1070
     1
  0
DIMSTYLE
105
1D547
330
A
100
AcDbSymbolTableRecord
100
AcDbDimStyleTableRecord
  2
AM_ANSI$SH
 70
     0
  4
mm
 41
0.1
 42
0.05
 43
0.5
 44
0.1
 47
0.1
 48
0.1
 75
     1
 76
     1
 78
     7
 79
     2
140
0.12
141
0.0
146
0.71
147
0.06
173
     1
176
   256
177
   256
178
     2
274
     4
284
     7
340
11
343
72
371
    -1
372
    -1
1001
ACAD_DSTYLE_DIMARC_LENGTH_SYMBOL
1070
   379
1070
     1
  0
DIMSTYLE
105
1DA90
330
A
100
AcDbSymbolTableRecord
100
AcDbDimStyleTableRecord
  2
SYSORG4P0
 70
     0
  4
"
 41
1.0
 42
1.0
 43
10.0
 44
1.0
 47
0.2
 48
0.2000000002
 71
     1
 73
     0
 74
     0
 77
     1
 78
     8
 79
     2
140
3.5
141
0.0
143
0.0393701
144
3.999999999999793
146
0.6
147
1.5
172
     1
176
   256
177
   256
178
     7
271
     2
272
     2
283
     0
284
     8
340
11
341
A66
342
6C4
371
    -1
372
    -1
  0
DIMSTYLE
105
1DA91
330
A
100
AcDbSymbolTableRecord
100
AcDbDimStyleTableRecord
  2
SYSORG2P0
 70
     0
  4
"
 41
1.0
 42
1.0
 43
10.0
 44
1.0
 47
0.2
 48
0.2000000002
 71
     1
 73
     0
 74
     0
 77
     1
 78
     8
 79
     2
140
3.5
141
0.0
143
0.0393701
144
2.000000119209306
146
0.6
147
1.5
172
     1
176
   256
177
   256
178
     7
271
     2
272
     2
283
     0
284
     8
340
11
341
A66
342
6C4
371
    -1
372
    -1
  0
DIMSTYLE
105
1DA92
330
A
100
AcDbSymbolTableRecord
100
AcDbDimStyleTableRecord
  2
SYSORG0P5
 70
     0
  4
"
 41
1.0
 42
1.0
 43
10.0
 44
1.0
 47
0.1
 48
0.1
 73
     0
 74
     0
 77
     1
 78
     8
 79
     2
140
3.5
141
0.0
143
0.0393701
144
0.5
146
0.71
147
1.5
172
     1
176
   256
177
   256
178
     7
271
     2
272
     2
283
     0
284
     8
340
11
371
    -1
372
    -1
  0
DIMSTYLE
105
32EB5
330
A
100
AcDbSymbolTableRecord
100
AcDbDimStyleTableRecord
  2
SYS0000
 70
     0
  4
"
 41
2.5
 42
1.0
 43
10.0
 44
1.0
 47
0.1
 48
0.1
 73
     0
 74
     0
 77
     1
 78
     8
 79
     2
140
3.5
141
0.0
143
0.0393701
146
0.71
147
1.5
172
     1
176
   256
177
   256
178
     2
271
     1
272
     3
283
     0
284
     8
340
11
341
6C4
342
32DFB
371
    -1
372
    -1
  0
DIMSTYLE
105
425A4
330
A
100
AcDbSymbolTableRecord
100
AcDbDimStyleTableRecord
  2
DIMSTYLE$0
 70
     0
 41
1.0
 42
2.54
 44
2.54
 73
     0
 74
     0
140
3.2
147
1.6
173
     1
279
     2
340
11
  0
ENDTAB
  0
TABLE
  2
BLOCK_RECORD
  5
1
330
0
100
AcDbSymbolTable
 70
    19
  0
BLOCK_RECORD
  5
1F
102
{ACAD_XDICTIONARY
360
8A
102
}
330
1
100
AcDbSymbolTableRecord
100
AcDbBlockTableRecord
  2
*Model_Space
340
22
  0
BLOCK_RECORD
  5
1B
330
1
100
AcDbSymbolTableRecord
100
AcDbBlockTableRecord
  2
*Paper_Space
340
1E
  0
BLOCK_RECORD
  5
23
330
1
100
AcDbSymbolTableRecord
100
AcDbBlockTableRecord
  2
*Paper_Space0
340
26
  0
BLOCK_RECORD
  5
72
330
1
100
AcDbSymbolTableRecord
100
AcDbBlockTableRecord
  2
GENAXEH
340
0
  0
BLOCK_RECORD
  5
6C4
330
1
100
AcDbSymbolTableRecord
100
AcDbBlockTableRecord
  2
_Dot
340
0
102
{BLKREFS
331
511B1
331
511B2
331
511CF
331
511D0
331
511E1
331
511E2
331
511F3
331
511F4
331
51205
331
51206
331
5177F
331
51780
331
517A3
331
517A4
331
52E78
331
52E79
331
52E81
331
52E82
331
52E9C
331
52E9D
331
52EA5
331
52EA6
102
}
  0
BLOCK_RECORD
  5
A66
330
1
100
AcDbSymbolTableRecord
100
AcDbBlockTableRecord
  2
_OPEN30
340
0
102
{BLKREFS
331
51214
102
}
  0
BLOCK_RECORD
  5
32629
330
1
100
AcDbSymbolTableRecord
100
AcDbBlockTableRecord
  2
GENDOT
340
0
  0
BLOCK_RECORD
  5
32DFB
330
1
100
AcDbSymbolTableRecord
100
AcDbBlockTableRecord
  2
_DotSmall
340
0
  0
BLOCK_RECORD
  5
3A303
330
1
100
AcDbSymbolTableRecord
100
AcDbBlockTableRecord
  2
*D6
340
0
  0
BLOCK_RECORD
  5
3A30F
330
1
100
AcDbSymbolTableRecord
100
AcDbBlockTableRecord
  2
*D7
340
0
  0
BLOCK_RECORD
  5
3A398
330
1
100
AcDbSymbolTableRecord
100
AcDbBlockTableRecord
  2
*D8
340
0
  0
BLOCK_RECORD
  5
3A5C4
330
1
100
AcDbSymbolTableRecord
100
AcDbBlockTableRecord
  2
*D9
340
0
  0
BLOCK_RECORD
  5
3A5D0
330
1
100
AcDbSymbolTableRecord
100
AcDbBlockTableRecord
  2
*D10
340
0
  0
BLOCK_RECORD
  5
3A5DC
330
1
100
AcDbSymbolTableRecord
100
AcDbBlockTableRecord
  2
*D11
340
0
  0
BLOCK_RECORD
  5
3A5E8
330
1
100
AcDbSymbolTableRecord
100
AcDbBlockTableRecord
  2
*D12
340
0
  0
BLOCK_RECORD
  5
3A5F4
330
1
100
AcDbSymbolTableRecord
100
AcDbBlockTableRecord
  2
*D13
340
0
  0
BLOCK_RECORD
  5
40DE6
330
1
100
AcDbSymbolTableRecord
100
AcDbBlockTableRecord
  2
*D14
340
0
  0
BLOCK_RECORD
  5
40E51
330
1
100
AcDbSymbolTableRecord
100
AcDbBlockTableRecord
  2
*D15
340
0
  0
BLOCK_RECORD
  5
52D79
330
1
100
AcDbSymbolTableRecord
100
AcDbBlockTableRecord
  2
*D16
340
0
  0
BLOCK_RECORD
  5
52D8F
330
1
100
AcDbSymbolTableRecord
100
AcDbBlockTableRecord
  2
*D17
340
0
  0
ENDTAB
  0
ENDSEC
  0
SECTION
  2
BLOCKS
  0
BLOCK
  5
20
330
1F
100
AcDbEntity
  8
0
100
AcDbBlockBegin
  2
*Model_Space
 70
     0
 10
0.0
 20
0.0
 30
0.0
  3
*Model_Space
  1

  0
ENDBLK
  5
21
330
1F
100
AcDbEntity
  8
0
100
AcDbBlockEnd
  0
BLOCK
  5
1C
330
1B
100
AcDbEntity
 67
     1
  8
0
100
AcDbBlockBegin
  2
*Paper_Space
 70
     0
 10
0.0
 20
0.0
 30
0.0
  3
*Paper_Space
  1

  0
ENDBLK
  5
1D
330
1B
100
AcDbEntity
 67
     1
  8
0
100
AcDbBlockEnd
  0
BLOCK
  5
24
330
23
100
AcDbEntity
 67
     1
  8
0
100
AcDbBlockBegin
  2
*Paper_Space0
 70
     0
 10
0.0
 20
0.0
 30
0.0
  3
*Paper_Space0
  1

  0
ENDBLK
  5
25
330
23
100
AcDbEntity
 67
     1
  8
0
100
AcDbBlockEnd
  0
BLOCK
  5
74
330
72
100
AcDbEntity
  8
0
100
AcDbBlockBegin
  2
GENAXEH
 70
     0
 10
0.0
 20
0.0
 30
0.0
  3
GENAXEH
  1

  0
LINE
  5
73
330
72
100
AcDbEntity
  8
0
100
AcDbLine
 10
-1.0
 20
0.0
 30
0.0
 11
1.0
 21
0.0
 31
0.0
  0
ENDBLK
  5
75
330
72
100
AcDbEntity
  8
0
100
AcDbBlockEnd
  0
BLOCK
  5
6C7
330
6C4
100
AcDbEntity
  8
0
100
AcDbBlockBegin
  2
_Dot
 70
     0
 10
0.0
 20
0.0
 30
0.0
  3
_Dot
  1

  0
LWPOLYLINE
  5
6C5
330
6C4
100
AcDbEntity
  8
0
  6
ByBlock
 62
     0
100
AcDbPolyline
 90
        2
 70
     1
 43
0.5
 10
-0.25
 20
0.0
 42
1.0
 10
0.25
 20
0.0
 42
1.0
  0
LINE
  5
6C6
330
6C4
100
AcDbEntity
  8
0
  6
ByBlock
 62
     0
370
    -2
100
AcDbLine
 10
-0.5
 20
0.0
 30
0.0
 11
-1.0
 21
0.0
 31
0.0
  0
ENDBLK
  5
6C8
330
6C4
100
AcDbEntity
  8
0
100
AcDbBlockEnd
  0
BLOCK
  5
A6A
330
A66
100
AcDbEntity
  8
0
100
AcDbBlockBegin
  2
_OPEN30
 70
     0
 10
0.0
 20
0.0
 30
0.0
  3
_OPEN30
  1

  0
LINE
  5
A67
330
A66
100
AcDbEntity
  8
0
  6
ByBlock
 62
     0
100
AcDbLine
 10
-1.0
 20
0.26794919
 30
0.0
 11
0.0
 21
0.0
 31
0.0
  0
LINE
  5
A68
330
A66
100
AcDbEntity
  8
0
  6
ByBlock
 62
     0
100
AcDbLine
 10
0.0
 20
0.0
 30
0.0
 11
-1.0
 21
-0.26794919
 31
0.0
  0
LINE
  5
A69
330
A66
100
AcDbEntity
  8
0
  6
ByBlock
 62
     0
100
AcDbLine
 10
0.0
 20
0.0
 30
0.0
 11
-1.0
 21
0.0
 31
0.0
  0
ENDBLK
  5
A6B
330
A66
100
AcDbEntity
  8
0
100
AcDbBlockEnd
  0
BLOCK
  5
3262A
330
32629
100
AcDbEntity
  8
0
100
AcDbBlockBegin
  2
GENDOT
 70
     0
 10
0.0
 20
0.0
 30
0.0
  3
GENDOT
  1

  0
LINE
  5
3262B
330
32629
100
AcDbEntity
  8
0
100
AcDbLine
 10
0.0
 20
0.0
 30
0.0
 11
-1.0
 21
0.0
 31
0.0
  0
LWPOLYLINE
  5
3262C
330
32629
100
AcDbEntity
  8
0
100
AcDbPolyline
 90
        2
 70
     1
 43
0.25
 10
-0.125
 20
0.0
 42
1.0
 10
0.125
 20
0.0
 42
1.0
  0
ENDBLK
  5
3262D
330
32629
100
AcDbEntity
  8
0
100
AcDbBlockEnd
  0
BLOCK
  5
32DFC
330
32DFB
100
AcDbEntity
  8
0
100
AcDbBlockBegin
  2
_DotSmall
 70
     0
 10
0.0
 20
0.0
 30
0.0
  3
_DotSmall
  1

  0
LWPOLYLINE
  5
32DFD
330
32DFB
100
AcDbEntity
  8
0
  6
ByBlock
 62
     0
100
AcDbPolyline
 90
        2
 70
     1
 43
0.5
 10
-0.0625
 20
0.0
 42
1.0
 10
0.0625
 20
0.0
 42
1.0
  0
ENDBLK
  5
32DFE
330
32DFB
100
AcDbEntity
  8
0
100
AcDbBlockEnd
  0
BLOCK
  5
3A30D
330
3A303
100
AcDbEntity
  8
0
 48
0.5
100
AcDbBlockBegin
  2
*D6
 70
     1
 10
0.0
 20
0.0
 30
0.0
  3
*D6
  1

  0
LINE
  5
52E99
330
3A303
100
AcDbEntity
  8
AM_5
100
AcDbLine
 10
4997.904800121734
 20
-3175.26636707495
 30
0.0
 11
4997.904800121734
 21
-3193.26636707495
 31
0.0
  0
LINE
  5
52E9A
330
3A303
100
AcDbEntity
  8
AM_5
100
AcDbLine
 10
5030.704805121732
 20
-3175.266366748748
 30
0.0
 11
5030.704805121732
 21
-3193.26636707495
 31
0.0
  0
LINE
  5
52E9B
330
3A303
100
AcDbEntity
  8
AM_5
100
AcDbLine
 10
4998.904800121732
 20
-3192.26636707495
 30
0.0
 11
5029.704805121732
 21
-3192.26636707495
 31
0.0
  0
INSERT
  5
52E9C
330
3A303
100
AcDbEntity
  8
AM_5
100
AcDbBlockReference
  2
_Dot
 10
4997.904800121734
 20
-3192.26636707495
 30
0.0
 50
180.0
  0
INSERT
  5
52E9D
330
3A303
100
AcDbEntity
  8
AM_5
100
AcDbBlockReference
  2
_Dot
 10
5030.704805121732
 20
-3192.26636707495
 30
0.0
  0
MTEXT
  5
52E9E
330
3A303
100
AcDbEntity
  8
AM_5
 62
     2
100
AcDbMText
 10
5014.304802621733
 20
-3189.66636707495
 30
0.0
 40
3.200000000000001
 41
0.0
 71
     5
 72
     1
  1
32.8
 73
     1
 44
1.0
1001
ACAD
1000
MTEXTBEGIN
1070
    73
1070
     1
1070
    44
1040
1.0
1070
    74
1070
     0
1000
MTEXTEND
  0
POINT
  5
52E9F
330
3A303
100
AcDbEntity
  8
Defpoints
 62
     0
100
AcDbPoint
 10
4997.904800121734
 20
-3174.26636707495
 30
0.0
  0
POINT
  5
52EA0
330
3A303
100
AcDbEntity
  8
Defpoints
 62
     0
100
AcDbPoint
 10
5030.704805121732
 20
-3174.266366748748
 30
0.0
  0
POINT
  5
52EA1
330
3A303
100
AcDbEntity
  8
Defpoints
 62
     0
100
AcDbPoint
 10
5030.704805121732
 20
-3192.26636707495
 30
0.0
  0
ENDBLK
  5
3A30E
330
3A303
100
AcDbEntity
  8
0
 48
0.5
100
AcDbBlockEnd
  0
BLOCK
  5
3A319
330
3A30F
100
AcDbEntity
  8
0
 48
0.5
100
AcDbBlockBegin
  2
*D7
 70
     1
 10
0.0
 20
0.0
 30
0.0
  3
*D7
  1

  0
LINE
  5
52E75
330
3A30F
100
AcDbEntity
  8
AM_5
100
AcDbLine
 10
5028.292307621732
 20
-3163.86633707495
 30
0.0
 11
5046.304804621733
 21
-3163.86633707495
 31
0.0
  0
LINE
  5
52E76
330
3A30F
100
AcDbEntity
  8
AM_5
100
AcDbLine
 10
5028.29230692344
 20
-3178.66636848408
 30
0.0
 11
5046.304804621733
 21
-3178.66636848408
 31
0.0
  0
LINE
  5
52E77
330
3A30F
100
AcDbEntity
  8
AM_5
100
AcDbLine
 10
5045.304804621732
 20
-3164.86633707495
 30
0.0
 11
5045.304804621732
 21
-3177.66636848408
 31
0.0
  0
INSERT
  5
52E78
330
3A30F
100
AcDbEntity
  8
AM_5
100
AcDbBlockReference
  2
_Dot
 10
5045.304804621732
 20
-3163.86633707495
 30
0.0
 50
90.0
  0
INSERT
  5
52E79
330
3A30F
100
AcDbEntity
  8
AM_5
100
AcDbBlockReference
  2
_Dot
 10
5045.304804621732
 20
-3178.66636848408
 30
0.0
 50
270.0
  0
MTEXT
  5
52E7A
330
3A30F
100
AcDbEntity
  8
AM_5
 62
     2
100
AcDbMText
 10
5042.704804621735
 20
-3171.266352779515
 30
0.0
 40
3.200000000000001
 41
0.0
 71
     5
 72
     1
  1
14.8
 11
0.0000000000000001
 21
1.0
 31
0.0
 73
     1
 44
1.0
1001
ACAD
1000
MTEXTBEGIN
1070
    73
1070
     1
1070
    44
1040
1.0
1070
    74
1070
     0
1000
MTEXTEND
  0
POINT
  5
52E7B
330
3A30F
100
AcDbEntity
  8
Defpoints
 62
     0
100
AcDbPoint
 10
5027.292307621732
 20
-3163.86633707495
 30
0.0
  0
POINT
  5
52E7C
330
3A30F
100
AcDbEntity
  8
Defpoints
 62
     0
100
AcDbPoint
 10
5027.29230692344
 20
-3178.66636848408
 30
0.0
  0
POINT
  5
52E7D
330
3A30F
100
AcDbEntity
  8
Defpoints
 62
     0
100
AcDbPoint
 10
5045.304804621732
 20
-3178.66636848408
 30
0.0
  0
ENDBLK
  5
3A31A
330
3A30F
100
AcDbEntity
  8
0
 48
0.5
100
AcDbBlockEnd
  0
BLOCK
  5
3A3A2
330
3A398
100
AcDbEntity
  8
0
 48
0.5
100
AcDbBlockBegin
  2
*D8
 70
     1
 10
0.0
 20
0.0
 30
0.0
  3
*D8
  1

  0
LINE
  5
511AE
330
3A398
100
AcDbEntity
  8
AM_5
100
AcDbLine
 10
5078.414780948747
 20
-3158.26636707495
 30
0.0
 11
5078.414780948747
 21
-3150.266366074951
 31
0.0
  0
LINE
  5
511AF
330
3A398
100
AcDbEntity
  8
AM_5
100
AcDbLine
 10
5097.414780948748
 20
-3170.26636707495
 30
0.0
 11
5097.414780948748
 21
-3150.266366074951
 31
0.0
  0
LINE
  5
511B0
330
3A398
100
AcDbEntity
  8
AM_5
100
AcDbLine
 10
5079.414780948749
 20
-3151.26636607495
 30
0.0
 11
5096.414780948748
 21
-3151.26636607495
 31
0.0
  0
INSERT
  5
511B1
330
3A398
100
AcDbEntity
  8
AM_5
100
AcDbBlockReference
  2
_Dot
 10
5078.414780948747
 20
-3151.26636607495
 30
0.0
 50
180.0
  0
INSERT
  5
511B2
330
3A398
100
AcDbEntity
  8
AM_5
100
AcDbBlockReference
  2
_Dot
 10
5097.414780948748
 20
-3151.26636607495
 30
0.0
  0
MTEXT
  5
511B3
330
3A398
100
AcDbEntity
  8
AM_5
 62
     2
100
AcDbMText
 10
5087.914780948747
 20
-3148.666366074952
 30
0.0
 40
3.200000000000001
 41
0.0
 71
     5
 72
     1
  1
19
 73
     1
 44
1.0
1001
ACAD
1000
MTEXTBEGIN
1070
    73
1070
     1
1070
    44
1040
1.0
1070
    74
1070
     0
1000
MTEXTEND
  0
POINT
  5
511B4
330
3A398
100
AcDbEntity
  8
Defpoints
 62
     0
100
AcDbPoint
 10
5078.414780948747
 20
-3159.26636707495
 30
0.0
  0
POINT
  5
511B5
330
3A398
100
AcDbEntity
  8
Defpoints
 62
     0
100
AcDbPoint
 10
5097.414780948748
 20
-3171.26636707495
 30
0.0
  0
POINT
  5
511B6
330
3A398
100
AcDbEntity
  8
Defpoints
 62
     0
100
AcDbPoint
 10
5097.414780948748
 20
-3151.26636607495
 30
0.0
  0
ENDBLK
  5
3A3A3
330
3A398
100
AcDbEntity
  8
0
 48
0.5
100
AcDbBlockEnd
  0
BLOCK
  5
3A5CE
330
3A5C4
100
AcDbEntity
  8
0
 48
0.5
100
AcDbBlockBegin
  2
*D9
 70
     1
 10
0.0
 20
0.0
 30
0.0
  3
*D9
  1

  0
LINE
  5
511CC
330
3A5C4
100
AcDbEntity
  8
AM_5
100
AcDbLine
 10
5088.492825408086
 20
-3224.036916815855
 30
0.0
 11
5088.492825408086
 21
-3232.036916815856
 31
0.0
  0
LINE
  5
511CD
330
3A5C4
100
AcDbEntity
  8
AM_5
100
AcDbLine
 10
5101.492825408087
 20
-3224.036916815855
 30
0.0
 11
5101.492825408087
 21
-3232.036916815856
 31
0.0
  0
LINE
  5
511CE
330
3A5C4
100
AcDbEntity
  8
AM_5
100
AcDbLine
 10
5089.492825408086
 20
-3231.036916815855
 30
0.0
 11
5100.492825408085
 21
-3231.036916815855
 31
0.0
  0
INSERT
  5
511CF
330
3A5C4
100
AcDbEntity
  8
AM_5
100
AcDbBlockReference
  2
_Dot
 10
5088.492825408086
 20
-3231.036916815855
 30
0.0
 50
180.0
  0
INSERT
  5
511D0
330
3A5C4
100
AcDbEntity
  8
AM_5
100
AcDbBlockReference
  2
_Dot
 10
5101.492825408087
 20
-3231.036916815855
 30
0.0
  0
MTEXT
  5
511D1
330
3A5C4
100
AcDbEntity
  8
AM_5
 62
     2
100
AcDbMText
 10
5094.992825408086
 20
-3228.436916815855
 30
0.0
 40
3.200000000000001
 41
0.0
 71
     5
 72
     1
  1
13
 73
     1
 44
1.0
1001
ACAD
1000
MTEXTBEGIN
1070
    73
1070
     1
1070
    44
1040
1.0
1070
    74
1070
     0
1000
MTEXTEND
  0
POINT
  5
511D2
330
3A5C4
100
AcDbEntity
  8
Defpoints
 62
     0
100
AcDbPoint
 10
5088.492825408086
 20
-3223.036916815856
 30
0.0
  0
POINT
  5
511D3
330
3A5C4
100
AcDbEntity
  8
Defpoints
 62
     0
100
AcDbPoint
 10
5101.492825408087
 20
-3223.036916815856
 30
0.0
  0
POINT
  5
511D4
330
3A5C4
100
AcDbEntity
  8
Defpoints
 62
     0
100
AcDbPoint
 10
5101.492825408087
 20
-3231.036916815855
 30
0.0
  0
ENDBLK
  5
3A5CF
330
3A5C4
100
AcDbEntity
  8
0
 48
0.5
100
AcDbBlockEnd
  0
BLOCK
  5
3A5DA
330
3A5D0
100
AcDbEntity
  8
0
 48
0.5
100
AcDbBlockBegin
  2
*D10
 70
     1
 10
0.0
 20
0.0
 30
0.0
  3
*D10
  1

  0
LINE
  5
511DE
330
3A5D0
100
AcDbEntity
  8
AM_5
100
AcDbLine
 10
5112.092865441375
 20
-3215.036916815855
 30
0.0
 11
5112.092865441375
 21
-3240.036916815856
 31
0.0
  0
LINE
  5
511DF
330
3A5D0
100
AcDbEntity
  8
AM_5
100
AcDbLine
 10
5077.892825743575
 20
-3215.036916815855
 30
0.0
 11
5077.892825743575
 21
-3240.036916815856
 31
0.0
  0
LINE
  5
511E0
330
3A5D0
100
AcDbEntity
  8
AM_5
100
AcDbLine
 10
5111.092865441378
 20
-3239.036916815856
 30
0.0
 11
5078.892825743572
 21
-3239.036916815856
 31
0.0
  0
INSERT
  5
511E1
330
3A5D0
100
AcDbEntity
  8
AM_5
100
AcDbBlockReference
  2
_Dot
 10
5112.092865441375
 20
-3239.036916815856
 30
0.0
  0
INSERT
  5
511E2
330
3A5D0
100
AcDbEntity
  8
AM_5
100
AcDbBlockReference
  2
_Dot
 10
5077.892825743575
 20
-3239.036916815856
 30
0.0
 50
180.0
  0
MTEXT
  5
511E3
330
3A5D0
100
AcDbEntity
  8
AM_5
 62
     2
100
AcDbMText
 10
5094.992845592475
 20
-3236.436916815855
 30
0.0
 40
3.200000000000001
 41
0.0
 71
     5
 72
     1
  1
34.2
 73
     1
 44
1.0
1001
ACAD
1000
MTEXTBEGIN
1070
    73
1070
     1
1070
    44
1040
1.0
1070
    74
1070
     0
1000
MTEXTEND
  0
POINT
  5
511E4
330
3A5D0
100
AcDbEntity
  8
Defpoints
 62
     0
100
AcDbPoint
 10
5112.092865441375
 20
-3214.036916815855
 30
0.0
  0
POINT
  5
511E5
330
3A5D0
100
AcDbEntity
  8
Defpoints
 62
     0
100
AcDbPoint
 10
5077.892825743575
 20
-3214.036916815855
 30
0.0
  0
POINT
  5
511E6
330
3A5D0
100
AcDbEntity
  8
Defpoints
 62
     0
100
AcDbPoint
 10
5077.892825743575
 20
-3239.036916815856
 30
0.0
  0
ENDBLK
  5
3A5DB
330
3A5D0
100
AcDbEntity
  8
0
 48
0.5
100
AcDbBlockEnd
  0
BLOCK
  5
3A5E6
330
3A5DC
100
AcDbEntity
  8
0
 48
0.5
100
AcDbBlockBegin
  2
*D11
 70
     1
 10
0.0
 20
0.0
 30
0.0
  3
*D11
  1

  0
LINE
  5
511F0
330
3A5DC
100
AcDbEntity
  8
AM_5
100
AcDbLine
 10
5084.992825408086
 20
-3205.936906815856
 30
0.0
 11
5068.892825743574
 21
-3205.936906815856
 31
0.0
  0
LINE
  5
511F1
330
3A5DC
100
AcDbEntity
  8
AM_5
100
AcDbLine
 10
5084.992825408085
 20
-3222.136926815855
 30
0.0
 11
5068.892825743574
 21
-3222.136926815855
 31
0.0
  0
LINE
  5
511F2
330
3A5DC
100
AcDbEntity
  8
AM_5
100
AcDbLine
 10
5069.892825743575
 20
-3206.936906815855
 30
0.0
 11
5069.892825743575
 21
-3221.136926815855
 31
0.0
  0
INSERT
  5
511F3
330
3A5DC
100
AcDbEntity
  8
AM_5
100
AcDbBlockReference
  2
_Dot
 10
5069.892825743575
 20
-3205.936906815856
 30
0.0
 50
90.0
  0
INSERT
  5
511F4
330
3A5DC
100
AcDbEntity
  8
AM_5
100
AcDbBlockReference
  2
_Dot
 10
5069.892825743575
 20
-3222.136926815855
 30
0.0
 50
270.0
  0
MTEXT
  5
511F5
330
3A5DC
100
AcDbEntity
  8
AM_5
 62
     2
100
AcDbMText
 10
5067.292825743574
 20
-3214.036916815854
 30
0.0
 40
3.200000000000001
 41
0.0
 71
     5
 72
     1
  1
16.2
 11
0.0000000000000001
 21
1.0
 31
0.0
 73
     1
 44
1.0
1001
ACAD
1000
MTEXTBEGIN
1070
    73
1070
     1
1070
    44
1040
1.0
1070
    74
1070
     0
1000
MTEXTEND
  0
POINT
  5
511F6
330
3A5DC
100
AcDbEntity
  8
Defpoints
 62
     0
100
AcDbPoint
 10
5085.992825408086
 20
-3205.936906815856
 30
0.0
  0
POINT
  5
511F7
330
3A5DC
100
AcDbEntity
  8
Defpoints
 62
     0
100
AcDbPoint
 10
5085.992825408085
 20
-3222.136926815855
 30
0.0
  0
POINT
  5
511F8
330
3A5DC
100
AcDbEntity
  8
Defpoints
 62
     0
100
AcDbPoint
 10
5069.892825743575
 20
-3222.136926815855
 30
0.0
  0
ENDBLK
  5
3A5E7
330
3A5DC
100
AcDbEntity
  8
0
 48
0.5
100
AcDbBlockEnd
  0
BLOCK
  5
3A5F2
330
3A5E8
100
AcDbEntity
  8
0
 48
0.5
100
AcDbBlockBegin
  2
*D12
 70
     1
 10
0.0
 20
0.0
 30
0.0
  3
*D12
  1

  0
LINE
  5
51202
330
3A5E8
100
AcDbEntity
  8
AM_5
100
AcDbLine
 10
5087.492825408086
 20
-3205.036916815855
 30
0.0
 11
5060.892825743573
 21
-3205.036916815855
 31
0.0
  0
LINE
  5
51203
330
3A5E8
100
AcDbEntity
  8
AM_5
100
AcDbLine
 10
5087.492825408086
 20
-3223.036916815856
 30
0.0
 11
5060.892825743573
 21
-3223.036916815856
 31
0.0
  0
LINE
  5
51204
330
3A5E8
100
AcDbEntity
  8
AM_5
100
AcDbLine
 10
5061.892825743575
 20
-3206.036916815855
 30
0.0
 11
5061.892825743575
 21
-3222.036916815856
 31
0.0
  0
INSERT
  5
51205
330
3A5E8
100
AcDbEntity
  8
AM_5
100
AcDbBlockReference
  2
_Dot
 10
5061.892825743575
 20
-3205.036916815855
 30
0.0
 50
90.0
  0
INSERT
  5
51206
330
3A5E8
100
AcDbEntity
  8
AM_5
100
AcDbBlockReference
  2
_Dot
 10
5061.892825743575
 20
-3223.036916815856
 30
0.0
 50
270.0
  0
MTEXT
  5
51207
330
3A5E8
100
AcDbEntity
  8
AM_5
 62
     2
100
AcDbMText
 10
5059.292825743574
 20
-3214.036916815855
 30
0.0
 40
3.200000000000001
 41
0.0
 71
     5
 72
     1
  1
18
 11
0.0000000000000001
 21
1.0
 31
0.0
 73
     1
 44
1.0
1001
ACAD
1000
MTEXTBEGIN
1070
    73
1070
     1
1070
    44
1040
1.0
1070
    74
1070
     0
1000
MTEXTEND
  0
POINT
  5
51208
330
3A5E8
100
AcDbEntity
  8
Defpoints
 62
     0
100
AcDbPoint
 10
5088.492825408086
 20
-3205.036916815855
 30
0.0
  0
POINT
  5
51209
330
3A5E8
100
AcDbEntity
  8
Defpoints
 62
     0
100
AcDbPoint
 10
5088.492825408086
 20
-3223.036916815856
 30
0.0
  0
POINT
  5
5120A
330
3A5E8
100
AcDbEntity
  8
Defpoints
 62
     0
100
AcDbPoint
 10
5061.892825743575
 20
-3223.036916815856
 30
0.0
  0
ENDBLK
  5
3A5F3
330
3A5E8
100
AcDbEntity
  8
0
 48
0.5
100
AcDbBlockEnd
  0
BLOCK
  5
3A5FB
330
3A5F4
100
AcDbEntity
  8
0
 48
0.5
100
AcDbBlockBegin
  2
*D13
 70
     1
 10
0.0
 20
0.0
 30
0.0
  3
*D13
  1

  0
LINE
  5
51211
330
3A5F4
100
AcDbEntity
  8
AM_5
100
AcDbLine
 10
5118.854254302835
 20
-3205.472108602258
 30
0.0
 11
5113.054254302838
 21
-3205.472108602258
 31
0.0
  0
LINE
  5
51212
330
3A5F4
100
AcDbEntity
  8
AM_5
100
AcDbLine
 10
5113.054254302838
 20
-3205.472108602258
 30
0.0
 11
5111.332912145548
 21
-3207.099109023778
 31
0.0
  0
MTEXT
  5
51213
330
3A5F4
100
AcDbEntity
  8
AM_5
 62
     2
100
AcDbMText
 10
5117.147587636168
 20
-3202.872108602259
 30
0.0
 40
3.2
 41
0.0
 71
     5
 72
     1
  1
FR
 73
     1
 44
1.0
1001
ACAD
1000
MTEXTBEGIN
1070
    73
1070
     1
1070
    44
1040
1.0
1070
    74
1070
     0
1000
MTEXTEND
  0
INSERT
  5
51214
330
3A5F4
100
AcDbEntity
  8
AM_5
100
AcDbBlockReference
  2
_OPEN30
 10
5109.879429015739
 20
-3208.472930988722
 30
0.0
 41
2.0
 42
2.0
 43
2.0
 50
223.3860810357566
  0
POINT
  5
51215
330
3A5F4
100
AcDbEntity
  8
Defpoints
 62
     0
100
AcDbPoint
 10
5109.879429015739
 20
-3208.472930988722
 30
0.0
  0
POINT
  5
51216
330
3A5F4
100
AcDbEntity
  8
Defpoints
 62
     0
100
AcDbPoint
 10
5103.992815072598
 20
-3214.036916815857
 30
0.0
  0
ENDBLK
  5
3A5FC
330
3A5F4
100
AcDbEntity
  8
0
 48
0.5
100
AcDbBlockEnd
  0
BLOCK
  5
40DF2
330
40DE6
100
AcDbEntity
  8
0
 48
0.5
100
AcDbBlockBegin
  2
*D14
 70
     1
 10
0.0
 20
0.0
 30
0.0
  3
*D14
  1

  0
LINE
  5
5177A
330
40DE6
100
AcDbEntity
  8
AM_5
100
AcDbLine
 10
5078.414780948747
 20
-3158.26636707495
 30
0.0
 11
5078.414780948747
 21
-3150.266366074951
 31
0.0
  0
LINE
  5
5177B
330
40DE6
100
AcDbEntity
  8
AM_5
100
AcDbLine
 10
5077.814780948749
 20
-3158.26636707495
 30
0.0
 11
5077.814780948749
 21
-3150.266366074951
 31
0.0
  0
LINE
  5
5177C
330
40DE6
100
AcDbEntity
  8
AM_5
100
AcDbLine
 10
5079.414780948749
 20
-3151.26636607495
 30
0.0
 11
5080.414780948746
 21
-3151.26636607495
 31
0.0
  0
LINE
  5
5177D
330
40DE6
100
AcDbEntity
  8
AM_5
100
AcDbLine
 10
5076.814780948748
 20
-3151.26636607495
 30
0.0
 11
5069.121447615414
 21
-3151.26636607495
 31
0.0
  0
LINE
  5
5177E
330
40DE6
100
AcDbEntity
  8
AM_5
100
AcDbLine
 10
5078.414780948747
 20
-3151.26636607495
 30
0.0
 11
5077.814780948749
 21
-3151.26636607495
 31
0.0
  0
INSERT
  5
5177F
330
40DE6
100
AcDbEntity
  8
AM_5
100
AcDbBlockReference
  2
_Dot
 10
5078.414780948747
 20
-3151.26636607495
 30
0.0
 50
180.0
  0
INSERT
  5
51780
330
40DE6
100
AcDbEntity
  8
AM_5
100
AcDbBlockReference
  2
_Dot
 10
5077.814780948749
 20
-3151.26636607495
 30
0.0
  0
MTEXT
  5
51781
330
40DE6
100
AcDbEntity
  8
AM_5
 62
     2
100
AcDbMText
 10
5072.468114282082
 20
-3148.666366074952
 30
0.0
 40
3.200000000000001
 41
0.0
 71
     5
 72
     1
  1
0.6
 73
     1
 44
1.0
1001
ACAD
1000
MTEXTBEGIN
1070
    73
1070
     1
1070
    44
1040
1.0
1070
    74
1070
     0
1000
MTEXTEND
  0
POINT
  5
51782
330
40DE6
100
AcDbEntity
  8
Defpoints
 62
     0
100
AcDbPoint
 10
5078.414780948747
 20
-3159.26636707495
 30
0.0
  0
POINT
  5
51783
330
40DE6
100
AcDbEntity
  8
Defpoints
 62
     0
100
AcDbPoint
 10
5077.814780948749
 20
-3159.26636707495
 30
0.0
  0
POINT
  5
51784
330
40DE6
100
AcDbEntity
  8
Defpoints
 62
     0
100
AcDbPoint
 10
5077.814780948749
 20
-3151.26636607495
 30
0.0
  0
ENDBLK
  5
40DF3
330
40DE6
100
AcDbEntity
  8
0
 48
0.5
100
AcDbBlockEnd
  0
BLOCK
  5
40E5B
330
40E51
100
AcDbEntity
  8
0
 48
0.5
100
AcDbBlockBegin
  2
*D15
 70
     1
 10
0.0
 20
0.0
 30
0.0
  3
*D15
  1

  0
LINE
  5
517A0
330
40E51
100
AcDbEntity
  8
AM_5
100
AcDbLine
 10
5083.514780948748
 20
-3160.01636707495
 30
0.0
 11
5107.814781958748
 21
-3160.01636707495
 31
0.0
  0
LINE
  5
517A1
330
40E51
100
AcDbEntity
  8
AM_5
100
AcDbLine
 10
5083.514780948748
 20
-3182.51636707495
 30
0.0
 11
5107.814781958748
 21
-3182.51636707495
 31
0.0
  0
LINE
  5
517A2
330
40E51
100
AcDbEntity
  8
AM_5
100
AcDbLine
 10
5106.814781958749
 20
-3161.01636707495
 30
0.0
 11
5106.814781958749
 21
-3181.51636707495
 31
0.0
  0
INSERT
  5
517A3
330
40E51
100
AcDbEntity
  8
AM_5
100
AcDbBlockReference
  2
_Dot
 10
5106.814781958749
 20
-3160.01636707495
 30
0.0
 50
90.0
  0
INSERT
  5
517A4
330
40E51
100
AcDbEntity
  8
AM_5
100
AcDbBlockReference
  2
_Dot
 10
5106.814781958749
 20
-3182.51636707495
 30
0.0
 50
270.0
  0
MTEXT
  5
517A5
330
40E51
100
AcDbEntity
  8
AM_5
 62
     2
100
AcDbMText
 10
5104.214781958749
 20
-3171.26636707495
 30
0.0
 40
3.200000000000001
 41
0.0
 71
     5
 72
     1
  1
22.5
 11
0.0000000000000001
 21
1.0
 31
0.0
 73
     1
 44
1.0
1001
ACAD
1000
MTEXTBEGIN
1070
    73
1070
     1
1070
    44
1040
1.0
1070
    74
1070
     0
1000
MTEXTEND
  0
POINT
  5
517A6
330
40E51
100
AcDbEntity
  8
Defpoints
 62
     0
100
AcDbPoint
 10
5082.514780948748
 20
-3160.01636707495
 30
0.0
  0
POINT
  5
517A7
330
40E51
100
AcDbEntity
  8
Defpoints
 62
     0
100
AcDbPoint
 10
5082.514780948748
 20
-3182.51636707495
 30
0.0
  0
POINT
  5
517A8
330
40E51
100
AcDbEntity
  8
Defpoints
 62
     0
100
AcDbPoint
 10
5106.814781958749
 20
-3182.51636707495
 30
0.0
  0
ENDBLK
  5
40E5C
330
40E51
100
AcDbEntity
  8
0
 48
0.5
100
AcDbBlockEnd
  0
BLOCK
  5
52D83
330
52D79
100
AcDbEntity
  8
0
 48
0.5
100
AcDbBlockBegin
  2
*D16
 70
     1
 10
0.0
 20
0.0
 30
0.0
  3
*D16
  1

  0
LINE
  5
52EA2
330
52D79
100
AcDbEntity
  8
AM_5
100
AcDbLine
 10
4993.304800621733
 20
-3175.26636707495
 30
0.0
 11
4993.304800621733
 21
-3201.26636707495
 31
0.0
  0
LINE
  5
52EA3
330
52D79
100
AcDbEntity
  8
AM_5
100
AcDbLine
 10
5035.304804621733
 20
-3175.26636707495
 30
0.0
 11
5035.304804621733
 21
-3201.26636707495
 31
0.0
  0
LINE
  5
52EA4
330
52D79
100
AcDbEntity
  8
AM_5
100
AcDbLine
 10
4994.304800621733
 20
-3200.26636707495
 30
0.0
 11
5034.304804621733
 21
-3200.26636707495
 31
0.0
  0
INSERT
  5
52EA5
330
52D79
100
AcDbEntity
  8
AM_5
100
AcDbBlockReference
  2
_Dot
 10
4993.304800621733
 20
-3200.26636707495
 30
0.0
 50
180.0
  0
INSERT
  5
52EA6
330
52D79
100
AcDbEntity
  8
AM_5
100
AcDbBlockReference
  2
_Dot
 10
5035.304804621733
 20
-3200.26636707495
 30
0.0
  0
MTEXT
  5
52EA7
330
52D79
100
AcDbEntity
  8
AM_5
 62
     2
100
AcDbMText
 10
5014.304802621733
 20
-3197.66636707495
 30
0.0
 40
3.200000000000001
 41
0.0
 71
     5
 72
     1
  1
42
 73
     1
 44
1.0
1001
ACAD
1000
MTEXTBEGIN
1070
    73
1070
     1
1070
    44
1040
1.0
1070
    74
1070
     0
1000
MTEXTEND
  0
POINT
  5
52EA8
330
52D79
100
AcDbEntity
  8
Defpoints
 62
     0
100
AcDbPoint
 10
4993.304800621733
 20
-3174.26636707495
 30
0.0
  0
POINT
  5
52EA9
330
52D79
100
AcDbEntity
  8
Defpoints
 62
     0
100
AcDbPoint
 10
5035.304804621733
 20
-3174.26636707495
 30
0.0
  0
POINT
  5
52EAA
330
52D79
100
AcDbEntity
  8
Defpoints
 62
     0
100
AcDbPoint
 10
5035.304804621733
 20
-3200.26636707495
 30
0.0
  0
ENDBLK
  5
52D84
330
52D79
100
AcDbEntity
  8
0
 48
0.5
100
AcDbBlockEnd
  0
BLOCK
  5
52D99
330
52D8F
100
AcDbEntity
  8
0
 48
0.5
100
AcDbBlockBegin
  2
*D17
 70
     1
 10
0.0
 20
0.0
 30
0.0
  3
*D17
  1

  0
LINE
  5
52E7E
330
52D8F
100
AcDbEntity
  8
AM_5
100
AcDbLine
 10
5028.581794866155
 20
-3183.266366529168
 30
0.0
 11
5054.304804621732
 21
-3183.266366529168
 31
0.0
  0
LINE
  5
52E7F
330
52D8F
100
AcDbEntity
  8
AM_5
100
AcDbLine
 10
5028.581794866155
 20
-3159.266367620733
 30
0.0
 11
5054.304804621732
 21
-3159.266367620733
 31
0.0
  0
LINE
  5
52E80
330
52D8F
100
AcDbEntity
  8
AM_5
100
AcDbLine
 10
5053.304804621733
 20
-3182.266366529167
 30
0.0
 11
5053.304804621733
 21
-3160.266367620733
 31
0.0
  0
INSERT
  5
52E81
330
52D8F
100
AcDbEntity
  8
AM_5
100
AcDbBlockReference
  2
_Dot
 10
5053.304804621733
 20
-3183.266366529168
 30
0.0
 50
270.0
  0
INSERT
  5
52E82
330
52D8F
100
AcDbEntity
  8
AM_5
100
AcDbBlockReference
  2
_Dot
 10
5053.304804621733
 20
-3159.266367620733
 30
0.0
 50
90.0
  0
MTEXT
  5
52E83
330
52D8F
100
AcDbEntity
  8
AM_5
 62
     2
100
AcDbMText
 10
5050.704804621734
 20
-3171.26636707495
 30
0.0
 40
3.200000000000001
 41
0.0
 71
     5
 72
     1
  1
24
 11
0.0000000000000001
 21
1.0
 31
0.0
 73
     1
 44
1.0
1001
ACAD
1000
MTEXTBEGIN
1070
    73
1070
     1
1070
    44
1040
1.0
1070
    74
1070
     0
1000
MTEXTEND
  0
POINT
  5
52E84
330
52D8F
100
AcDbEntity
  8
Defpoints
 62
     0
100
AcDbPoint
 10
5027.581794866156
 20
-3183.266366529168
 30
0.0
  0
POINT
  5
52E85
330
52D8F
100
AcDbEntity
  8
Defpoints
 62
     0
100
AcDbPoint
 10
5027.581794866156
 20
-3159.266367620733
 30
0.0
  0
POINT
  5
52E86
330
52D8F
100
AcDbEntity
  8
Defpoints
 62
     0
100
AcDbPoint
 10
5053.304804621733
 20
-3159.266367620733
 30
0.0
  0
ENDBLK
  5
52D9A
330
52D8F
100
AcDbEntity
  8
0
 48
0.5
100
AcDbBlockEnd
  0
ENDSEC
  0
SECTION
  2
ENTITIES
  0
AMDTACMWBLOCKBOMENTITY
  5
1EB3A
330
1F
100
AcDbEntity
  8
AM_6
 92
        8
310
0800000000000000
  0
AMDTACMWBLOCKBOMENTITY
  5
1EB3B
330
1F
100
AcDbEntity
  8
AM_5
 92
        8
310
0800000000000000
  0
AMDTACMWBLOCKBOMENTITY
  5
1EB3C
330
1F
100
AcDbEntity
  8
AM_5
 92
        8
310
0800000000000000
  0
AMDTACMWBLOCKBOMENTITY
  5
1EB3D
330
1F
100
AcDbEntity
  8
AM_5
 92
        8
310
0800000000000000
  0
AMDTACMWBLOCKBOMENTITY
  5
1EB3E
330
1F
100
AcDbEntity
  8
AM_5
 92
        8
310
0800000000000000
  0
AMDTACMWBLOCKBOMENTITY
  5
1EB3F
330
1F
100
AcDbEntity
  8
AM_5
 92
        8
310
0800000000000000
  0
AMDTACMWBLOCKBOMENTITY
  5
1EB40
330
1F
100
AcDbEntity
  8
AM_5
 92
        8
310
0800000000000000
  0
AMDTACMWBLOCKBOMENTITY
  5
1EB41
330
1F
100
AcDbEntity
  8
AM_5
 92
        8
310
0800000000000000
  0
ARC
  5
2121D
330
1F
100
AcDbEntity
  8
001本体
 48
0.5
 60
     1
100
AcDbCircle
 10
4762.519581199091
 20
-2259.06618040198
 30
0.0
 40
17.0
100
AcDbArc
 50
113.1764439438205
 51
176.107466317104
  0
AMDTACMWBLOCKBOMENTITY
  5
214E3
330
1F
100
AcDbEntity
  8
AM_5
 92
        8
310
0800000000000000
  0
AMDTACMWBLOCKBOMENTITY
  5
21FF0
330
1F
100
AcDbEntity
  8
AM_5
 92
        8
310
0800000000000000
  0
AMDTACMWBLOCKBOMENTITY
  5
21FF1
330
1F
100
AcDbEntity
  8
AM_5
 92
        8
310
0800000000000000
  0
AMDTACMWBLOCKBOMENTITY
  5
21FF2
330
1F
100
AcDbEntity
  8
AM_5
 92
        8
310
0800000000000000
  0
AMDTACMWBLOCKBOMENTITY
  5
21FF3
330
1F
100
AcDbEntity
  8
AM_5
 92
        8
310
0800000000000000
  0
AMDTACMWBLOCKBOMENTITY
  5
2627D
330
1F
100
AcDbEntity
  8
AM_6
 92
        8
310
0800000000000000
  0
AMDTACMWBLOCKBOMENTITY
  5
2627E
330
1F
100
AcDbEntity
  8
AM_5
 92
        8
310
0800000000000000
  0
AMDTACMWBLOCKBOMENTITY
  5
2627F
330
1F
100
AcDbEntity
  8
AM_5
 92
        8
310
0800000000000000
  0
AMDTACMWBLOCKBOMENTITY
  5
26280
330
1F
100
AcDbEntity
  8
AM_5
 92
        8
310
0800000000000000
  0
AMDTACMWBLOCKBOMENTITY
  5
26281
330
1F
100
AcDbEntity
  8
AM_5
 92
        8
310
0800000000000000
  0
AMDTACMWBLOCKBOMENTITY
  5
26282
330
1F
100
AcDbEntity
  8
AM_5
 92
        8
310
0800000000000000
  0
AMDTACMWBLOCKBOMENTITY
  5
26283
330
1F
100
AcDbEntity
  8
AM_5
 92
        8
310
0800000000000000
  0
LINE
  5
39DCC
330
1F
100
AcDbEntity
  8
AM_0
  6
Continuous
 62
     7
100
AcDbLine
 10
4993.304802621732
 20
-3220.252527778805
 30
0.0
 11
5035.304802621733
 21
-3220.252527778805
 31
0.0
  0
LINE
  5
39DCD
330
1F
100
AcDbEntity
  8
AM_0
  6
Continuous
 62
     7
100
AcDbLine
 10
4993.304802621732
 20
-3219.652517778805
 30
0.0
 11
5035.304802621733
 21
-3219.652517778805
 31
0.0
  0
LINE
  5
39DCE
330
1F
100
AcDbEntity
  8
AM_0
  6
Continuous
 62
     7
100
AcDbLine
 10
4993.304802621732
 20
-3219.652517778805
 30
0.0
 11
4993.304802621732
 21
-3220.252527778805
 31
0.0
  0
LINE
  5
39DCF
330
1F
100
AcDbEntity
  8
AM_0
  6
Continuous
 62
     7
100
AcDbLine
 10
5019.004812621734
 20
-3221.552527778805
 30
0.0
 11
5019.004812621734
 21
-3239.252517778805
 31
0.0
  0
LINE
  5
39DD0
330
1F
100
AcDbEntity
  8
AM_0
  6
Continuous
 62
     7
100
AcDbLine
 10
5009.604822621732
 20
-3221.552527778805
 30
0.0
 11
5009.604822621732
 21
-3239.252517778805
 31
0.0
  0
LINE
  5
39DD1
330
1F
100
AcDbEntity
  8
AM_7
  6
CENTER
100
AcDbLine
 10
5014.304802621732
 20
-3216.652517778805
 30
0.0
 11
5014.304817621733
 21
-3242.252517778805
 31
0.0
  0
LINE
  5
39DD2
330
1F
100
AcDbEntity
  8
AM_0
  6
Continuous
 62
     7
100
AcDbLine
 10
5005.429802621733
 20
-3238.652547778805
 30
0.0
 11
5009.604822621732
 21
-3238.652547778805
 31
0.0
  0
LINE
  5
39DD3
330
1F
100
AcDbEntity
  8
AM_0
  6
Continuous
 62
     7
100
AcDbLine
 10
5009.604822621732
 20
-3239.252517778805
 30
0.0
 11
5019.004812621734
 21
-3239.252517778805
 31
0.0
  0
LINE
  5
39DD4
330
1F
100
AcDbEntity
  8
AM_0
  6
Continuous
 62
     7
100
AcDbLine
 10
5019.004812621734
 20
-3238.652547778805
 30
0.0
 11
5023.179802621733
 21
-3238.652547778805
 31
0.0
  0
LINE
  5
39DD5
330
1F
100
AcDbEntity
  8
AM_0
  6
Continuous
 62
     7
100
AcDbLine
 10
4997.204822621732
 20
-3220.252527778805
 30
0.0
 11
4997.204822621732
 21
-3230.427537778805
 31
0.0
  0
LINE
  5
39DD6
330
1F
100
AcDbEntity
  8
AM_2
  6
Continuous
 62
     7
100
AcDbLine
 10
5009.604822621732
 20
-3224.352527778805
 30
0.0
 11
5019.004812621734
 21
-3224.352527778805
 31
0.0
  0
LINE
  5
39DD7
330
1F
100
AcDbEntity
  8
AM_0
  6
Continuous
 62
     7
100
AcDbLine
 10
5009.604822621732
 20
-3221.552527778805
 30
0.0
 11
5019.004812621734
 21
-3221.552527778805
 31
0.0
  0
LINE
  5
39DD8
330
1F
100
AcDbEntity
  8
AM_0
  6
Continuous
 62
     7
100
AcDbLine
 10
5031.404812621733
 20
-3220.252527778805
 30
0.0
 11
5031.404812621733
 21
-3230.427537778805
 31
0.0
  0
LINE
  5
39DD9
330
1F
100
AcDbEntity
  8
AM_0
  6
Continuous
 62
     7
100
AcDbLine
 10
5035.304802621733
 20
-3219.652517778805
 30
0.0
 11
5035.304802621733
 21
-3220.252527778805
 31
0.0
  0
LINE
  5
39DDA
330
1F
100
AcDbEntity
  8
AM_7
  6
CENTER
100
AcDbLine
 10
4990.304800621733
 20
-3171.26636707495
 30
0.0
 11
5038.304804621732
 21
-3171.26636707495
 31
0.0
  0
LINE
  5
39DDB
330
1F
100
AcDbEntity
  8
AM_7
  6
CENTER
100
AcDbLine
 10
5014.304787621735
 20
-3156.26636707495
 30
0.0
 11
5014.304787621735
 21
-3186.26636707495
 31
0.0
  0
LINE
  5
39DDC
330
1F
100
AcDbEntity
  8
AM_0
  6
Continuous
 62
     7
100
AcDbLine
 10
5004.027807621731
 20
-3183.26636707495
 30
0.0
 11
5024.581797621733
 21
-3183.26636707495
 31
0.0
  0
LINE
  5
39DDD
330
1F
100
AcDbEntity
  8
AM_0
  6
Continuous
 62
     7
100
AcDbLine
 10
5004.317297621734
 20
-3178.666357074951
 30
0.0
 11
5024.292307621732
 21
-3178.666357074951
 31
0.0
  0
LINE
  5
39DDE
330
1F
100
AcDbEntity
  8
AM_0
  6
Continuous
 62
     7
100
AcDbLine
 10
5004.027807621731
 20
-3159.26636707495
 30
0.0
 11
5024.581797621733
 21
-3159.26636707495
 31
0.0
  0
LINE
  5
39DDF
330
1F
100
AcDbEntity
  8
AM_0
  6
Continuous
 62
     7
100
AcDbLine
 10
5004.317297621734
 20
-3163.86633707495
 30
0.0
 11
5024.292307621732
 21
-3163.86633707495
 31
0.0
  0
ARC
  5
39DF4
330
1F
100
AcDbEntity
  8
AM_0
  6
Continuous
 62
     7
100
AcDbCircle
 10
5023.179802621733
 20
-3230.427537778805
 30
0.0
 40
8.224999399999997
100
AcDbArc
 50
270.0
 51
0.0
  0
ARC
  5
39DF5
330
1F
100
AcDbEntity
  8
AM_0
  6
Continuous
 62
     7
100
AcDbCircle
 10
5005.429802621733
 20
-3230.427537778805
 30
0.0
 40
8.224999399999997
100
AcDbArc
 50
180.0
 51
270.0
  0
ARC
  5
39DF6
330
1F
100
AcDbEntity
  8
AM_0
  6
Continuous
 62
     7
100
AcDbCircle
 10
5005.380837621733
 20
-3171.26636707495
 30
0.0
 40
12.076037
100
AcDbArc
 50
96.4330600000207
 51
263.5669399999793
  0
ARC
  5
39DF7
330
1F
100
AcDbEntity
  8
AM_0
  6
Continuous
 62
     7
100
AcDbCircle
 10
5023.228767621733
 20
-3171.26636707495
 30
0.0
 40
7.4760375
100
AcDbArc
 50
278.1786299999871
 51
81.82137499998059
  0
ARC
  5
39DF8
330
1F
100
AcDbEntity
  8
AM_0
  6
Continuous
 62
     7
100
AcDbCircle
 10
5023.228767621733
 20
-3171.26636707495
 30
0.0
 40
12.076037
100
AcDbArc
 50
276.4330600000207
 51
83.56693999997931
  0
ARC
  5
39DF9
330
1F
100
AcDbEntity
  8
AM_0
  6
Continuous
 62
     7
100
AcDbCircle
 10
5005.380837621733
 20
-3171.26636707495
 30
0.0
 40
7.4760375
100
AcDbArc
 50
98.17862500001943
 51
261.8213700000129
  0
LINE
  5
3A076
330
1F
100
AcDbEntity
  8
AM_0
100
AcDbLine
 10
4914.047826521642
 20
-3089.982271409579
 30
0.0
 11
5024.047826521641
 21
-3089.982271409579
 31
0.0
  0
LINE
  5
3A077
330
1F
100
AcDbEntity
  8
AM_0
100
AcDbLine
 10
4914.047826521642
 20
-3121.982271409579
 30
0.0
 11
5024.047826521641
 21
-3121.982271409579
 31
0.0
  0
LINE
  5
3A078
330
1F
100
AcDbEntity
  8
AM_2
100
AcDbLine
 10
4914.047826521642
 20
-3113.982271409579
 30
0.0
 11
5024.047826521641
 21
-3113.982271409579
 31
0.0
  0
LINE
  5
3A079
330
1F
100
AcDbEntity
  8
AM_2
100
AcDbLine
 10
4914.047826521642
 20
-3105.982271409579
 30
0.0
 11
5024.047826521641
 21
-3105.982271409579
 31
0.0
  0
LINE
  5
3A07A
330
1F
100
AcDbEntity
  8
AM_2
100
AcDbLine
 10
4914.047826521642
 20
-3097.982271409579
 30
0.0
 11
5024.047826521641
 21
-3097.982271409579
 31
0.0
  0
LINE
  5
3A07B
330
1F
100
AcDbEntity
  8
AM_2
100
AcDbLine
 10
4934.04782652164
 20
-3089.982271409579
 30
0.0
 11
4934.04782652164
 21
-3121.982271409579
 31
0.0
  0
MTEXT
  5
3A07C
330
1F
100
AcDbEntity
  8
AM_6
100
AcDbMText
 10
4924.047826521642
 20
-3117.982271409579
 30
0.0
 40
3.2
 41
20.0
 71
     5
 72
     5
  1
仕上げ
 73
     1
 44
1.0
1001
ACAD
1000
MTEXTBEGIN
1070
    73
1070
     1
1070
    44
1040
1.0
1070
    74
1070
     0
1000
MTEXTEND
  0
MTEXT
  5
3A07D
330
1F
100
AcDbEntity
  8
AM_6
100
AcDbMText
 10
4924.047826521642
 20
-3109.982271409579
 30
0.0
 40
3.2
 41
20.0
 71
     5
 72
     5
  1
材　質
 73
     1
 44
1.0
1001
ACAD
1000
MTEXTBEGIN
1070
    73
1070
     1
1070
    44
1040
1.0
1070
    74
1070
     0
1000
MTEXTEND
  0
MTEXT
  5
3A07E
330
1F
100
AcDbEntity
  8
AM_6
100
AcDbMText
 10
4924.047826521642
 20
-3093.982271409579
 30
0.0
 40
3.2
 41
20.0
 71
     5
 72
     5
  1
品　名
 73
     1
 44
1.0
1001
ACAD
1000
MTEXTBEGIN
1070
    73
1070
     1
1070
    44
1040
1.0
1070
    74
1070
     0
1000
MTEXTEND
  0
MTEXT
  5
3A07F
330
1F
100
AcDbEntity
  8
AM_6
100
AcDbMText
 10
4924.047826521642
 20
-3101.982271409579
 30
0.0
 40
3.2
 41
20.0
 71
     5
 72
     5
  1
品　番
 73
     1
 44
1.0
1001
ACAD
1000
MTEXTBEGIN
1070
    73
1070
     1
1070
    44
1040
1.0
1070
    74
1070
     0
1000
MTEXTEND
  0
MTEXT
  5
3A080
330
1F
100
AcDbEntity
  8
AM_6
100
AcDbMText
 10
4934.04782652164
 20
-3117.982271409579
 30
0.0
 40
3.2
 41
90.0
 71
     4
 72
     5
  1
　電解研磨
 73
     1
 44
1.0
1001
ACAD
1000
MTEXTBEGIN
1070
    73
1070
     1
1070
    44
1040
1.0
1070
    74
1070
     0
1000
MTEXTEND
  0
MTEXT
  5
3A081
330
1F
100
AcDbEntity
  8
AM_6
100
AcDbMText
 10
4934.04782652164
 20
-3109.982271409579
 30
0.0
 40
3.2
 41
90.0
 71
     4
 72
     5
  1
　ステンレス
 73
     1
 44
1.0
1001
ACAD
1000
MTEXTBEGIN
1070
    73
1070
     1
1070
    44
1040
1.0
1070
    74
1070
     0
1000
MTEXTEND
  0
MTEXT
  5
3A082
330
1F
100
AcDbEntity
  8
AM_6
100
AcDbMText
 10
4934.04782652164
 20
-3101.982271409579
 30
0.0
 40
3.2
 41
90.0
 71
     4
 72
     5
  1
　DB-67
 73
     1
 44
1.0
1001
ACAD
1000
MTEXTBEGIN
1070
    73
1070
     1
1070
    44
1040
1.0
1070
    74
1070
     0
1000
MTEXTEND
  0
MTEXT
  5
3A083
330
1F
100
AcDbEntity
  8
AM_6
100
AcDbMText
 10
4934.04782652164
 20
-3093.982271409579
 30
0.0
 40
3.2
 41
90.0
 71
     4
 72
     5
  1
　落し受（上・下坪）
 73
     1
 44
1.0
1001
ACAD
1000
MTEXTBEGIN
1070
    73
1070
     1
1070
    44
1040
1.0
1070
    74
1070
     0
1000
MTEXTEND
  0
LINE
  5
3A084
330
1F
100
AcDbEntity
  8
AM_0
100
AcDbLine
 10
5024.047826521641
 20
-3089.982271409579
 30
0.0
 11
5024.047826521641
 21
-3121.982271409579
 31
0.0
  0
LINE
  5
3A085
330
1F
100
AcDbEntity
  8
size
100
AcDbLine
 10
4902.54782652164
 20
-3081.482271409579
 30
0.0
 11
5199.547826521642
 21
-3081.482271409579
 31
0.0
1001
GENIUS_GENREC_14
1002
{
1000
PYDIR
1011
4902.54782652164
1021
-2994.482271409579
1031
0.0
1002
}
1002
{
1000
PXDIR
1011
5322.547826521642
1021
-3291.482271409579
1031
0.0
1002
}
1002
{
1000
PORI
1011
4902.54782652164
1021
-3291.482271409579
1031
0.0
1002
}
1002
{
1000
PINS
1011
5112.547826521641
1021
-3142.982271409579
1031
0.0
1002
}
1002
{
1000
HVAL
1000
297
1002
}
1002
{
1000
H
1070
     2
1002
}
1002
{
1000
WVAL
1000
420
1002
}
1002
{
1000
W
1070
     2
1002
}
1002
{
1000
C
1070
     4
1002
}
1001
GENIUS_GENOBJ-N-REC_13
1002
{
1000
OWNER
1000
GEN
1002
}
1001
GENIUS_GENODEF_13
1002
{
1000
HIER
1070
     0
1002
}
1002
{
1000
MANEDIT
1070
     0
1002
}
1002
{
1000
NOSEL
1070
     0
1002
}
1002
{
1000
BEHIND
1070
     0
1002
}
1002
{
1000
OTHER
1070
     0
1002
}
1002
{
1000
REACTOR
1002
}
  0
LINE
  5
3A086
330
1F
100
AcDbEntity
  8
size
100
AcDbLine
 10
5199.547826521642
 20
-3081.482271409579
 30
0.0
 11
5199.547826521642
 21
-3291.482271409579
 31
0.0
1001
GENIUS_GENREC_14
1002
{
1000
PYDIR
1011
4902.54782652164
1021
-2994.482271409579
1031
0.0
1002
}
1002
{
1000
PXDIR
1011
5322.547826521642
1021
-3291.482271409579
1031
0.0
1002
}
1002
{
1000
PORI
1011
4902.54782652164
1021
-3291.482271409579
1031
0.0
1002
}
1002
{
1000
PINS
1011
5112.547826521641
1021
-3142.982271409579
1031
0.0
1002
}
1002
{
1000
HVAL
1000
297
1002
}
1002
{
1000
H
1070
     2
1002
}
1002
{
1000
WVAL
1000
420
1002
}
1002
{
1000
W
1070
     2
1002
}
1002
{
1000
C
1070
     4
1002
}
1001
GENIUS_GENOBJ-N-REC_13
1002
{
1000
OWNER
1000
GEN
1002
}
1001
GENIUS_GENODEF_13
1002
{
1000
HIER
1070
     0
1002
}
1002
{
1000
MANEDIT
1070
     0
1002
}
1002
{
1000
NOSEL
1070
     0
1002
}
1002
{
1000
BEHIND
1070
     0
1002
}
1002
{
1000
OTHER
1070
     0
1002
}
1002
{
1000
REACTOR
1002
}
  0
LINE
  5
3A087
330
1F
100
AcDbEntity
  8
waku
100
AcDbLine
 10
4914.047826521642
 20
-3282.982271409578
 30
0.0
 11
5188.047826521642
 21
-3282.982271409578
 31
0.0
1001
GENIUS_GENREC_14
1002
{
1000
PYDIR
1011
4902.54782652164
1021
-2994.482271409579
1031
0.0
1002
}
1002
{
1000
PXDIR
1011
5322.547826521642
1021
-3291.482271409579
1031
0.0
1002
}
1002
{
1000
PORI
1011
4902.54782652164
1021
-3291.482271409579
1031
0.0
1002
}
1002
{
1000
PINS
1011
5112.547826521641
1021
-3142.982271409579
1031
0.0
1002
}
1002
{
1000
HVAL
1000
297
1002
}
1002
{
1000
H
1070
     2
1002
}
1002
{
1000
WVAL
1000
420
1002
}
1002
{
1000
W
1070
     2
1002
}
1002
{
1000
C
1070
     4
1002
}
  0
LINE
  5
3A088
330
1F
100
AcDbEntity
  8
waku
100
AcDbLine
 10
5188.047826521642
 20
-3089.982271409579
 30
0.0
 11
4914.047826521642
 21
-3089.982271409579
 31
0.0
1001
GENIUS_GENREC_14
1002
{
1000
PYDIR
1011
4779.547826521642
1021
-3081.482271409579
1031
0.0
1002
}
1002
{
1000
PXDIR
1011
5199.547826521642
1021
-3378.482271409579
1031
0.0
1002
}
1002
{
1000
PORI
1011
4779.547826521642
1021
-3378.482271409579
1031
0.0
1002
}
1002
{
1000
PINS
1011
4989.547826521642
1021
-3229.982271409578
1031
0.0
1002
}
1002
{
1000
HVAL
1000
297
1002
}
1002
{
1000
H
1070
     2
1002
}
1002
{
1000
WVAL
1000
420
1002
}
1002
{
1000
W
1070
     2
1002
}
1002
{
1000
C
1070
     4
1002
}
1001
GENIUS_GENOBJ-N-REC_13
1002
{
1000
OWNER
1000
GEN
1002
}
1001
GENIUS_GENODEF_13
1002
{
1000
HIER
1070
     0
1002
}
1002
{
1000
MANEDIT
1070
     0
1002
}
1002
{
1000
NOSEL
1070
     0
1002
}
1002
{
1000
BEHIND
1070
     0
1002
}
1002
{
1000
OTHER
1070
     0
1002
}
1002
{
1000
REACTOR
1002
}
  0
LINE
  5
3A089
330
1F
100
AcDbEntity
  8
waku
100
AcDbLine
 10
4914.047826521642
 20
-3089.982271409579
 30
0.0
 11
4914.047826521642
 21
-3282.982271409578
 31
0.0
1001
GENIUS_GENREC_14
1002
{
1000
PYDIR
1011
4902.54782652164
1021
-2994.482271409579
1031
0.0
1002
}
1002
{
1000
PXDIR
1011
5322.547826521642
1021
-3291.482271409579
1031
0.0
1002
}
1002
{
1000
PORI
1011
4902.54782652164
1021
-3291.482271409579
1031
0.0
1002
}
1002
{
1000
PINS
1011
5112.547826521641
1021
-3142.982271409579
1031
0.0
1002
}
1002
{
1000
HVAL
1000
297
1002
}
1002
{
1000
H
1070
     2
1002
}
1002
{
1000
WVAL
1000
420
1002
}
1002
{
1000
W
1070
     2
1002
}
1002
{
1000
C
1070
     4
1002
}
1001
GENIUS_GENOBJ-N-REC_13
1002
{
1000
OWNER
1000
GEN
1002
}
1001
GENIUS_GENODEF_13
1002
{
1000
HIER
1070
     0
1002
}
1002
{
1000
MANEDIT
1070
     0
1002
}
1002
{
1000
NOSEL
1070
     0
1002
}
1002
{
1000
BEHIND
1070
     0
1002
}
1002
{
1000
OTHER
1070
     0
1002
}
1002
{
1000
REACTOR
1002
}
  0
LINE
  5
3A08A
330
1F
100
AcDbEntity
  8
waku
100
AcDbLine
 10
5188.047826521642
 20
-3282.982271409578
 30
0.0
 11
5188.047826521642
 21
-3089.982271409579
 31
0.0
1001
GENIUS_GENREC_14
1002
{
1000
PYDIR
1011
4779.547826521642
1021
-3075.482271409578
1031
0.0
1002
}
1002
{
1000
PXDIR
1011
5199.547826521642
1021
-3372.482271409579
1031
0.0
1002
}
1002
{
1000
PORI
1011
4779.547826521642
1021
-3372.482271409579
1031
0.0
1002
}
1002
{
1000
PINS
1011
4989.547826521642
1021
-3223.982271409579
1031
0.0
1002
}
1002
{
1000
HVAL
1000
297
1002
}
1002
{
1000
H
1070
     2
1002
}
1002
{
1000
WVAL
1000
420
1002
}
1002
{
1000
W
1070
     2
1002
}
1002
{
1000
C
1070
     4
1002
}
1001
GENIUS_GENOBJ-N-REC_13
1002
{
1000
OWNER
1000
GEN
1002
}
1001
GENIUS_GENODEF_13
1002
{
1000
HIER
1070
     0
1002
}
1002
{
1000
MANEDIT
1070
     0
1002
}
1002
{
1000
NOSEL
1070
     0
1002
}
1002
{
1000
BEHIND
1070
     0
1002
}
1002
{
1000
OTHER
1070
     0
1002
}
1002
{
1000
REACTOR
1002
}
  0
LINE
  5
3A08B
330
1F
100
AcDbEntity
  8
size
100
AcDbLine
 10
4902.54782652164
 20
-3081.482271409579
 30
0.0
 11
4902.54782652164
 21
-3291.482271409579
 31
0.0
1001
GENIUS_GENREC_14
1002
{
1000
PYDIR
1011
4902.54782652164
1021
-2994.482271409579
1031
0.0
1002
}
1002
{
1000
PXDIR
1011
5322.547826521642
1021
-3291.482271409579
1031
0.0
1002
}
1002
{
1000
PORI
1011
4902.54782652164
1021
-3291.482271409579
1031
0.0
1002
}
1002
{
1000
PINS
1011
5112.547826521641
1021
-3142.982271409579
1031
0.0
1002
}
1002
{
1000
HVAL
1000
297
1002
}
1002
{
1000
H
1070
     2
1002
}
1002
{
1000
WVAL
1000
420
1002
}
1002
{
1000
W
1070
     2
1002
}
1002
{
1000
C
1070
     4
1002
}
1001
GENIUS_GENOBJ-N-REC_13
1002
{
1000
OWNER
1000
GEN
1002
}
1001
GENIUS_GENODEF_13
1002
{
1000
HIER
1070
     0
1002
}
1002
{
1000
MANEDIT
1070
     0
1002
}
1002
{
1000
NOSEL
1070
     0
1002
}
1002
{
1000
BEHIND
1070
     0
1002
}
1002
{
1000
OTHER
1070
     0
1002
}
1002
{
1000
REACTOR
1002
}
  0
LINE
  5
3A08C
330
1F
100
AcDbEntity
  8
size
100
AcDbLine
 10
4902.54782652164
 20
-3291.482271409579
 30
0.0
 11
5199.547826521642
 21
-3291.482271409579
 31
0.0
1001
GENIUS_GENREC_14
1002
{
1000
PYDIR
1011
4902.54782652164
1021
-2994.482271409579
1031
0.0
1002
}
1002
{
1000
PXDIR
1011
5322.547826521642
1021
-3291.482271409579
1031
0.0
1002
}
1002
{
1000
PORI
1011
4902.54782652164
1021
-3291.482271409579
1031
0.0
1002
}
1002
{
1000
PINS
1011
5112.547826521641
1021
-3142.982271409579
1031
0.0
1002
}
1002
{
1000
HVAL
1000
297
1002
}
1002
{
1000
H
1070
     2
1002
}
1002
{
1000
WVAL
1000
420
1002
}
1002
{
1000
W
1070
     2
1002
}
1002
{
1000
C
1070
     4
1002
}
1001
GENIUS_GENOBJ-N-REC_13
1002
{
1000
OWNER
1000
GEN
1002
}
1001
GENIUS_GENODEF_13
1002
{
1000
HIER
1070
     0
1002
}
1002
{
1000
MANEDIT
1070
     0
1002
}
1002
{
1000
NOSEL
1070
     0
1002
}
1002
{
1000
BEHIND
1070
     0
1002
}
1002
{
1000
OTHER
1070
     0
1002
}
1002
{
1000
REACTOR
1002
}
  0
DIMENSION
  5
3A0B6
330
1F
100
AcDbEntity
  8
AM_5
100
AcDbDimension
  2
*D6
 10
5030.704805121732
 20
-3192.26636707495
 30
0.0
 11
5014.304802621733
 21
-3189.66636707495
 31
0.0
 70
    32
 71
     5
 42
32.80000499999915
  3
SYS$0
100
AcDbAlignedDimension
 13
4997.904800121734
 23
-3174.26636707495
 33
0.0
 14
5030.704805121732
 24
-3174.266366748748
 34
0.0
100
AcDbRotatedDimension
  0
DIMENSION
  5
3A0B7
330
1F
100
AcDbEntity
  8
AM_5
100
AcDbDimension
  2
*D7
 10
5045.304804621732
 20
-3178.66636848408
 30
0.0
 11
5042.704804621735
 21
-3171.266352779515
 31
0.0
 70
    32
 71
     5
 42
14.80003140913004
  3
SYS$0
100
AcDbAlignedDimension
 13
5027.292307621732
 23
-3163.86633707495
 33
0.0
 14
5027.29230692344
 24
-3178.66636848408
 34
0.0
 50
90.0
100
AcDbRotatedDimension
  0
LINE
  5
3A0DD
330
1F
100
AcDbEntity
  8
AM_0
  6
Continuous
 62
     7
 48
0.5
100
AcDbLine
 10
5077.814780948749
 20
-3183.26636707495
 30
0.0
 11
5077.814780948749
 21
-3159.26636707495
 31
0.0
  0
LINE
  5
3A0DE
330
1F
100
AcDbEntity
  8
AM_0
  6
Continuous
 62
     7
 48
0.5
100
AcDbLine
 10
5078.414780948747
 20
-3183.26636707495
 30
0.0
 11
5078.414780948747
 21
-3159.26636707495
 31
0.0
  0
ARC
  5
3A0DF
330
1F
100
AcDbEntity
  8
AM_0
  6
Continuous
 62
     7
 48
0.5
100
AcDbCircle
 10
5088.814780948748
 20
-3171.26636707495
 30
0.0
 40
8.0
100
AcDbArc
 50
270.0
 51
90.0
  0
LINE
  5
3A0E0
330
1F
100
AcDbEntity
  8
AM_0
  6
Continuous
 62
     7
 48
0.5
100
AcDbLine
 10
5088.814780948748
 20
-3163.26636707495
 30
0.0
 11
5078.414780948747
 21
-3163.26636707495
 31
0.0
  0
LINE
  5
3A0E1
330
1F
100
AcDbEntity
  8
AM_0
  6
Continuous
 62
     7
 48
0.5
100
AcDbLine
 10
5088.814780948748
 20
-3179.26636707495
 30
0.0
 11
5078.414780948747
 21
-3179.26636707495
 31
0.0
  0
LINE
  5
3A0E2
330
1F
100
AcDbEntity
  8
AM_0
  6
Continuous
 62
     7
 48
0.5
100
AcDbLine
 10
5078.414780948747
 20
-3183.26636707495
 30
0.0
 11
5077.814780948749
 21
-3183.26636707495
 31
0.0
  0
LINE
  5
3A0E3
330
1F
100
AcDbEntity
  8
AM_0
  6
Continuous
 62
     7
 48
0.5
100
AcDbLine
 10
5078.414780948747
 20
-3159.26636707495
 30
0.0
 11
5077.814780948749
 21
-3159.26636707495
 31
0.0
  0
ARC
  5
3A0E4
330
1F
100
AcDbEntity
  8
AM_0
  6
Continuous
 62
     7
 48
0.5
100
AcDbCircle
 10
5082.514780948748
 20
-3160.61636707495
 30
0.0
 40
0.6
100
AcDbArc
 50
70.88644451895733
 51
119.1762641186508
  0
ARC
  5
3A0E5
330
1F
100
AcDbEntity
  8
AM_0
  6
Continuous
 62
     7
 48
0.5
100
AcDbCircle
 10
5088.814780948748
 20
-3171.26636707495
 30
0.0
 40
8.0
100
AcDbArc
 50
289.113555481097
 51
72.02015350991023
  0
ARC
  5
3A0E6
330
1F
100
AcDbEntity
  8
AM_0
  6
Continuous
 62
     7
 48
0.5
100
AcDbCircle
 10
5088.814780948748
 20
-3171.26636707495
 30
0.0
 40
8.599999999999999
100
AcDbArc
 50
289.113555481097
 51
70.88644451890265
  0
LINE
  5
3A0E7
330
1F
100
AcDbEntity
  8
AM_0
  6
Continuous
 62
     7
 48
0.5
100
AcDbLine
 10
5082.711245820656
 20
-3160.049444192976
 30
0.0
 11
5091.630777446106
 21
-3163.14047243332
 31
0.0
  0
LINE
  5
3A0E8
330
1F
100
AcDbEntity
  8
AM_0
  6
Continuous
 62
     7
 48
0.5
100
AcDbLine
 10
5082.514780948748
 20
-3160.61636707495
 30
0.0
 11
5091.434312574197
 21
-3163.707395315295
 31
0.0
  0
LINE
  5
3A0EA
330
1F
100
AcDbEntity
  8
AM_0
  6
Continuous
 62
     7
 48
0.5
100
AcDbLine
 10
5082.514780948748
 20
-3160.61636707495
 30
0.0
 11
5080.007337288419
 21
-3162.01636707495
 31
0.0
  0
LINE
  5
3A0EB
330
1F
100
AcDbEntity
  8
AM_0
  6
Continuous
 62
     7
 48
0.5
100
AcDbLine
 10
5082.222282153256
 20
-3160.092492610373
 30
0.0
 11
5079.714838492928
 21
-3161.492492610373
 31
0.0
  0
LINE
  5
3A0EC
330
1F
100
AcDbEntity
  8
AM_0
  6
Continuous
 62
     7
 48
0.5
100
AcDbLine
 10
5080.007337288419
 20
-3162.01636707495
 30
0.0
 11
5079.714838492928
 21
-3161.492492610372
 31
0.0
  0
ARC
  5
3A0ED
330
1F
100
AcDbEntity
  8
AM_0
  6
Continuous
 62
     7
 48
0.5
100
AcDbCircle
 10
5082.514780948748
 20
-3181.91636707495
 30
0.0
 40
0.6
100
AcDbArc
 50
240.8237358813491
 51
289.1135554810427
  0
LINE
  5
3A0EE
330
1F
100
AcDbEntity
  8
AM_0
  6
Continuous
 62
     7
 48
0.5
100
AcDbLine
 10
5082.711245820656
 20
-3182.483289956924
 30
0.0
 11
5091.630777446106
 21
-3179.392261716579
 31
0.0
  0
LINE
  5
3A0EF
330
1F
100
AcDbEntity
  8
AM_0
  6
Continuous
 62
     7
 48
0.5
100
AcDbLine
 10
5082.514780948748
 20
-3181.91636707495
 30
0.0
 11
5091.434312574197
 21
-3178.825338834605
 31
0.0
  0
LINE
  5
3A0F0
330
1F
100
AcDbEntity
  8
AM_0
  6
Continuous
 62
     7
 48
0.5
100
AcDbLine
 10
5082.514780948748
 20
-3181.91636707495
 30
0.0
 11
5080.007337288419
 21
-3180.51636707495
 31
0.0
  0
LINE
  5
3A0F1
330
1F
100
AcDbEntity
  8
AM_0
  6
Continuous
 62
     7
 48
0.5
100
AcDbLine
 10
5082.222282153256
 20
-3182.440241539528
 30
0.0
 11
5079.714838492928
 21
-3181.040241539527
 31
0.0
  0
LINE
  5
3A0F2
330
1F
100
AcDbEntity
  8
AM_0
  6
Continuous
 62
     7
 48
0.5
100
AcDbLine
 10
5080.007337288419
 20
-3180.51636707495
 30
0.0
 11
5079.714838492928
 21
-3181.040241539527
 31
0.0
  0
DIMENSION
  5
3A0F7
330
1F
100
AcDbEntity
  8
AM_5
100
AcDbDimension
  2
*D8
 10
5097.414780948748
 20
-3151.26636607495
 30
0.0
 11
5087.914780948747
 21
-3148.666366074952
 31
0.0
 70
    32
 71
     5
 42
19.0
  3
SYS$0
100
AcDbAlignedDimension
 13
5078.414780948747
 23
-3159.26636707495
 33
0.0
 14
5097.414780948748
 24
-3171.26636707495
 34
0.0
100
AcDbRotatedDimension
  0
LINE
  5
3A137
330
1F
100
AcDbEntity
  8
AM_0
  6
Continuous
 62
     7
100
AcDbLine
 10
5103.992825408086
 20
-3205.936906815856
 30
0.0
 11
5101.492825408087
 21
-3205.936906815856
 31
0.0
  0
POLYLINE
  5
3A138
330
1F
100
AcDbEntity
  8
AM_0
  6
Continuous
 62
     7
100
AcDb2dPolyline
 66
     1
 10
0.0
 20
0.0
 30
0.0
  0
VERTEX
  5
3A139
330
3A138
100
AcDbEntity
  8
AM_0
  6
Continuous
 62
     7
100
AcDbVertex
100
AcDb2dVertex
 10
5085.992835743573
 20
-3222.136926815855
 30
0.0
  0
VERTEX
  5
3A13A
330
3A138
100
AcDbEntity
  8
AM_0
  6
Continuous
 62
     7
100
AcDbVertex
100
AcDb2dVertex
 10
5088.492825408086
 20
-3222.136926815855
 30
0.0
  0
VERTEX
  5
3A13B
330
3A138
100
AcDbEntity
  8
AM_0
  6
Continuous
 62
     7
100
AcDbVertex
100
AcDb2dVertex
 10
5088.492825408086
 20
-3223.036916815856
 30
0.0
  0
VERTEX
  5
3A13C
330
3A138
100
AcDbEntity
  8
AM_0
  6
Continuous
 62
     7
100
AcDbVertex
100
AcDb2dVertex
 10
5101.492825408087
 20
-3223.036916815856
 30
0.0
  0
VERTEX
  5
3A13D
330
3A138
100
AcDbEntity
  8
AM_0
  6
Continuous
 62
     7
100
AcDbVertex
100
AcDb2dVertex
 10
5101.492825408087
 20
-3222.136926815855
 30
0.0
  0
VERTEX
  5
3A13E
330
3A138
100
AcDbEntity
  8
AM_0
  6
Continuous
 62
     7
100
AcDbVertex
100
AcDb2dVertex
 10
5103.992825408086
 20
-3222.136926815855
 30
0.0
  0
SEQEND
  5
3A13F
330
3A138
100
AcDbEntity
  8
AM_0
  6
Continuous
 62
     7
  0
POLYLINE
  5
3A140
330
1F
100
AcDbEntity
  8
AM_0
  6
Continuous
 62
     7
100
AcDb2dPolyline
 66
     1
 10
0.0
 20
0.0
 30
0.0
  0
VERTEX
  5
3A141
330
3A140
100
AcDbEntity
  8
AM_0
  6
Continuous
 62
     7
100
AcDbVertex
100
AcDb2dVertex
 10
5101.492825408087
 20
-3205.936906815856
 30
0.0
  0
VERTEX
  5
3A142
330
3A140
100
AcDbEntity
  8
AM_0
  6
Continuous
 62
     7
100
AcDbVertex
100
AcDb2dVertex
 10
5101.492825408087
 20
-3205.036916815855
 30
0.0
  0
VERTEX
  5
3A143
330
3A140
100
AcDbEntity
  8
AM_0
  6
Continuous
 62
     7
100
AcDbVertex
100
AcDb2dVertex
 10
5088.492825408086
 20
-3205.036916815855
 30
0.0
  0
VERTEX
  5
3A144
330
3A140
100
AcDbEntity
  8
AM_0
  6
Continuous
 62
     7
100
AcDbVertex
100
AcDb2dVertex
 10
5088.492825408086
 20
-3205.054956815855
 30
0.0
  0
SEQEND
  5
3A145
330
3A140
100
AcDbEntity
  8
AM_0
  6
Continuous
 62
     7
  0
POLYLINE
  5
3A146
330
1F
100
AcDbEntity
  8
AM_0
  6
Continuous
 62
     7
100
AcDb2dPolyline
 66
     1
 10
0.0
 20
0.0
 30
0.0
  0
VERTEX
  5
3A147
330
3A146
100
AcDbEntity
  8
AM_0
  6
Continuous
 62
     7
100
AcDbVertex
100
AcDb2dVertex
 10
5088.492825408086
 20
-3205.936906815856
 30
0.0
  0
VERTEX
  5
3A148
330
3A146
100
AcDbEntity
  8
AM_0
  6
Continuous
 62
     7
100
AcDbVertex
100
AcDb2dVertex
 10
5085.992825408086
 20
-3205.936906815856
 30
0.0
  0
SEQEND
  5
3A149
330
3A146
100
AcDbEntity
  8
AM_0
  6
Continuous
 62
     7
  0
POLYLINE
  5
3A14A
330
1F
100
AcDbEntity
  8
AM_0
  6
Continuous
 62
     7
100
AcDb2dPolyline
 66
     1
 10
0.0
 20
0.0
 30
0.0
  0
VERTEX
  5
3A14B
330
3A14A
100
AcDbEntity
  8
AM_0
  6
Continuous
 62
     7
100
AcDbVertex
100
AcDb2dVertex
 10
5088.492825408086
 20
-3205.036916815855
 30
0.0
  0
VERTEX
  5
3A14C
330
3A14A
100
AcDbEntity
  8
AM_0
  6
Continuous
 62
     7
100
AcDbVertex
100
AcDb2dVertex
 10
5088.492825408086
 20
-3205.258966815855
 30
0.0
  0
SEQEND
  5
3A14D
330
3A14A
100
AcDbEntity
  8
AM_0
  6
Continuous
 62
     7
  0
POLYLINE
  5
3A14E
330
1F
100
AcDbEntity
  8
AM_0
  6
Continuous
 62
     7
100
AcDb2dPolyline
 66
     1
 10
0.0
 20
0.0
 30
0.0
  0
VERTEX
  5
3A14F
330
3A14E
100
AcDbEntity
  8
AM_0
  6
Continuous
 62
     7
100
AcDbVertex
100
AcDb2dVertex
 10
5088.492825408086
 20
-3205.036916815855
 30
0.0
  0
VERTEX
  5
3A150
330
3A14E
100
AcDbEntity
  8
AM_0
  6
Continuous
 62
     7
100
AcDbVertex
100
AcDb2dVertex
 10
5088.492825408086
 20
-3205.936906815856
 30
0.0
  0
SEQEND
  5
3A151
330
3A14E
100
AcDbEntity
  8
AM_0
  6
Continuous
 62
     7
  0
POLYLINE
  5
3A152
330
1F
100
AcDbEntity
  8
AM_0
  6
Continuous
 62
     7
100
AcDb2dPolyline
 66
     1
 10
0.0
 20
0.0
 30
0.0
  0
VERTEX
  5
3A153
330
3A152
100
AcDbEntity
  8
AM_0
  6
Continuous
 62
     7
100
AcDbVertex
100
AcDb2dVertex
 10
5101.492825408087
 20
-3205.936906815856
 30
0.0
  0
VERTEX
  5
3A154
330
3A152
100
AcDbEntity
  8
AM_0
  6
Continuous
 62
     7
100
AcDbVertex
100
AcDb2dVertex
 10
5101.492825408087
 20
-3205.036916815855
 30
0.0
  0
SEQEND
  5
3A155
330
3A152
100
AcDbEntity
  8
AM_0
  6
Continuous
 62
     7
  0
POLYLINE
  5
3A156
330
1F
100
AcDbEntity
  8
AM_0
  6
Continuous
 62
     7
100
AcDb2dPolyline
 66
     1
 10
0.0
 20
0.0
 30
0.0
  0
VERTEX
  5
3A157
330
3A156
100
AcDbEntity
  8
AM_0
  6
Continuous
 62
     7
100
AcDbVertex
100
AcDb2dVertex
 10
5101.492825408087
 20
-3205.036916815855
 30
0.0
  0
VERTEX
  5
3A158
330
3A156
100
AcDbEntity
  8
AM_0
  6
Continuous
 62
     7
100
AcDbVertex
100
AcDb2dVertex
 10
5088.492825408086
 20
-3205.036916815855
 30
0.0
  0
SEQEND
  5
3A159
330
3A156
100
AcDbEntity
  8
AM_0
  6
Continuous
 62
     7
  0
DIMENSION
  5
3A15A
330
1F
100
AcDbEntity
  8
AM_5
100
AcDbDimension
  2
*D9
 10
5101.492825408087
 20
-3231.036916815855
 30
0.0
 11
5094.992825408086
 21
-3228.436916815855
 31
0.0
 70
    32
 71
     5
 42
13.0
  3
SYS$0
100
AcDbAlignedDimension
 13
5088.492825408086
 23
-3223.036916815856
 33
0.0
 14
5101.492825408087
 24
-3223.036916815856
 34
0.0
100
AcDbRotatedDimension
  0
DIMENSION
  5
3A15B
330
1F
100
AcDbEntity
  8
AM_5
100
AcDbDimension
  2
*D10
 10
5077.892825743575
 20
-3239.036916815856
 30
0.0
 11
5094.992845592475
 21
-3236.436916815855
 31
0.0
 70
    32
 71
     5
 42
34.20003969780282
  3
SYS$0
100
AcDbAlignedDimension
 13
5112.092865441375
 23
-3214.036916815855
 33
0.0
 14
5077.892825743575
 24
-3214.036916815855
 34
0.0
100
AcDbRotatedDimension
  0
DIMENSION
  5
3A15C
330
1F
100
AcDbEntity
  8
AM_5
100
AcDbDimension
  2
*D11
 10
5069.892825743575
 20
-3222.136926815855
 30
0.0
 11
5067.292825743574
 21
-3214.036916815854
 31
0.0
 70
    32
 71
     5
 42
16.20001999999977
  3
SYS$0
100
AcDbAlignedDimension
 13
5085.992825408086
 23
-3205.936906815856
 33
0.0
 14
5085.992825408085
 24
-3222.136926815855
 34
0.0
 50
90.0
100
AcDbRotatedDimension
  0
DIMENSION
  5
3A15D
330
1F
100
AcDbEntity
  8
AM_5
100
AcDbDimension
  2
*D12
 10
5061.892825743575
 20
-3223.036916815856
 30
0.0
 11
5059.292825743574
 21
-3214.036916815855
 31
0.0
 70
    32
 71
     5
 42
18.0
  3
SYS$0
100
AcDbAlignedDimension
 13
5088.492825408086
 23
-3205.036916815855
 33
0.0
 14
5088.492825408086
 24
-3223.036916815856
 34
0.0
 50
90.0
100
AcDbRotatedDimension
  0
MTEXT
  5
3A15E
330
1F
100
AcDbEntity
  8
AM_6
 48
0.5
100
AcDbMText
 10
5094.992825408086
 20
-3245.608813859057
 30
0.0
 40
3.5
 41
36.76361606400678
 71
     5
 72
     5
  1
切欠推奨寸法
 73
     1
 44
1.0
1001
ACAD
1000
MTEXTBEGIN
1070
    73
1070
     1
1070
    44
1040
1.0
1070
    74
1070
     0
1000
MTEXTEND
  0
ARC
  5
3A15F
330
1F
100
AcDbEntity
  8
AM_0
  6
Continuous
 62
     7
 48
0.5
100
AcDbCircle
 10
5085.992835743573
 20
-3214.036916815855
 30
0.0
 40
8.100009999999747
100
AcDbArc
 50
90.0
 51
270.0
  0
ARC
  5
3A160
330
1F
100
AcDbEntity
  8
AM_0
  6
Continuous
 62
     7
 48
0.5
100
AcDbCircle
 10
5103.992815072598
 20
-3214.036916815855
 30
0.0
 40
8.100009999999747
100
AcDbArc
 50
270.0
 51
90.0
  0
HATCH
  5
3A161
330
1F
100
AcDbEntity
  8
AM_8
 48
0.5
100
AcDbHatch
 10
0.0
 20
0.0
 30
0.0
210
0.0
220
0.0
230
1.0
  2
_U
 70
     0
 71
     0
 91
        1
 92
        1
 93
       12
 72
     1
 10
5088.492825408086
 20
-3205.936906815856
 11
5085.992835743574
 21
-3205.936906815856
 72
     2
 10
5085.992835743574
 20
-3214.036916815855
 40
8.100009999999656
 50
90.00000000000161
 51
269.9999999999936
 73
     1
 72
     1
 10
5085.992835743573
 20
-3222.136926815855
 11
5088.492825408086
 21
-3222.136926815855
 72
     1
 10
5088.492825408086
 20
-3222.136926815855
 11
5088.492825408086
 21
-3223.036916815856
 72
     1
 10
5088.492825408086
 20
-3223.036916815856
 11
5101.492825408087
 21
-3223.036916815856
 72
     1
 10
5101.492825408087
 20
-3223.036916815856
 11
5101.492825408087
 21
-3222.136926815855
 72
     1
 10
5101.492825408087
 20
-3222.136926815855
 11
5103.992815072598
 21
-3222.136926815855
 72
     2
 10
5103.992815072598
 20
-3214.036916815855
 40
8.100009999999656
 50
270.0
 51
450.0
 73
     1
 72
     1
 10
5103.992815072598
 20
-3205.936906815856
 11
5101.492825408087
 21
-3205.936906815856
 72
     1
 10
5101.492825408087
 20
-3205.936906815856
 11
5101.492825408087
 21
-3205.036916815855
 72
     1
 10
5101.492825408087
 20
-3205.036916815855
 11
5088.492825408086
 21
-3205.036916815855
 72
     1
 10
5088.492825408086
 20
-3205.036916815855
 11
5088.492825408086
 21
-3205.936906815856
 97
        0
 75
     0
 76
     0
 52
45.0
 41
2.5
 77
     0
 78
     1
 53
45.0
 43
3931.532266813162
 44
-4708.343451971852
 45
-1.767766952966368
 46
1.767766952966368
 79
     0
 98
        1
 10
4060.929034864702
 20
-4415.324171664298
1001
GENIUS_GENOBJ-N-HTC_13
1002
{
1000
OWNER
1000
GEN
1002
}
1001
GENIUS_GENODEF_13
1002
{
1000
HIER
1070
     0
1002
}
1002
{
1000
MANEDIT
1070
     0
1002
}
1002
{
1000
NOSEL
1070
     0
1002
}
1002
{
1000
BEHIND
1070
     0
1002
}
1002
{
1000
OTHER
1070
     0
1002
}
1002
{
1000
REACTOR
1002
}
1001
GENIUS_GENHATCH_13
1002
{
1000
DATA
1040
45.0
1042
2.5
1000
_U
1070
     0
1011
5097.298860992865
1021
-3212.890801207754
1031
0.0
1002
}
1002
{
1000
UCS
1010
0.0
1020
0.0
1030
0.0
1010
1.0
1020
0.0
1030
0.0
1010
0.0
1020
1.0
1030
0.0
1002
}
  0
DIMENSION
  5
3A162
330
1F
100
AcDbEntity
  8
AM_5
100
AcDbDimension
  2
*D13
 10
5103.992815072598
 20
-3214.036916815857
 30
0.0
 11
5117.147587636168
 21
-3205.472108602258
 31
0.0
 70
   164
  1
FR
 71
     5
 42
8.100010000002837
  3
SYS$4
100
AcDbRadialDimension
 15
5109.879429015739
 25
-3208.472930988722
 35
0.0
 40
0.0
  0
DIMENSION
  5
40DE5
330
1F
100
AcDbEntity
  8
AM_5
100
AcDbDimension
  2
*D14
 10
5077.814780948749
 20
-3151.26636607495
 30
0.0
 11
5072.468114282082
 21
-3148.666366074952
 31
0.0
 70
    32
 71
     5
 42
0.5999999999994543
  3
SYS$0
100
AcDbAlignedDimension
 13
5078.414780948747
 23
-3159.26636707495
 33
0.0
 14
5077.814780948749
 24
-3159.26636707495
 34
0.0
100
AcDbRotatedDimension
  0
LINE
  5
40E1E
330
1F
100
AcDbEntity
  8
AM_7
 48
0.5
100
AcDbLine
 10
5074.814780948749
 20
-3171.26636707495
 30
0.0
 11
5100.414780948749
 21
-3171.26636707495
 31
0.0
1001
GENIUS_GENOBJ-N-CEN_13
1002
{
1000
OWNER
1000
GEN
1002
}
1001
GENIUS_GENODEF_13
1002
{
1000
HIER
1070
     0
1002
}
1002
{
1000
MANEDIT
1070
     0
1002
}
1002
{
1000
NOSEL
1070
     0
1002
}
1002
{
1000
BEHIND
1070
     0
1002
}
1002
{
1000
OTHER
1070
     0
1002
}
1002
{
1000
REACTOR
1002
}
1001
GENIUS_GENCEN_19
1002
{
1040
3.0
1002
}
  0
DIMENSION
  5
40E50
330
1F
100
AcDbEntity
  8
AM_5
100
AcDbDimension
  2
*D15
 10
5106.814781958749
 20
-3182.51636707495
 30
0.0
 11
5104.214781958749
 21
-3171.26636707495
 31
0.0
 70
    32
 71
     5
 42
22.5
  3
SYS$0
100
AcDbAlignedDimension
 13
5082.514780948748
 23
-3160.01636707495
 33
0.0
 14
5082.514780948748
 24
-3182.51636707495
 34
0.0
 50
90.0
100
AcDbRotatedDimension
  0
DIMENSION
  5
52D78
330
1F
100
AcDbEntity
  8
AM_5
100
AcDbDimension
  2
*D16
 10
5035.304804621733
 20
-3200.26636707495
 30
0.0
 11
5014.304802621733
 21
-3197.66636707495
 31
0.0
 70
    32
 71
     5
 42
42.00000399999953
  3
SYS$0
100
AcDbAlignedDimension
 13
4993.304800621733
 23
-3174.26636707495
 33
0.0
 14
5035.304804621733
 24
-3174.26636707495
 34
0.0
 50
0.0000000000001132
100
AcDbRotatedDimension
1001
ACAD
1000
DSTYLE
1002
{
1070
   271
1070
     1
1002
}
  0
DIMENSION
  5
52D8E
330
1F
100
AcDbEntity
  8
AM_5
100
AcDbDimension
  2
*D17
 10
5053.304804621733
 20
-3159.266367620733
 30
0.0
 11
5050.704804621734
 21
-3171.26636707495
 31
0.0
 70
    32
 71
     5
 42
23.99999890843446
  3
SYS$0
100
AcDbAlignedDimension
 13
5027.581794866156
 23
-3183.266366529168
 33
0.0
 14
5027.581794866156
 24
-3159.266367620733
 34
0.0
 50
90.00000000000005
100
AcDbRotatedDimension
1001
ACAD
1000
DSTYLE
1002
{
1070
   271
1070
     1
1002
}
  0
ENDSEC
  0
SECTION
  2
OBJECTS
  0
DICTIONARY
  5
C
330
0
100
AcDbDictionary
281
     1
  3
ACAD_2007HEADERVARS_RT
350
53523
  3
ACAD_BGPLOT_KEY
350
AB06
  3
ACAD_COLOR
350
A91D
  3
ACAD_GROUP
350
D
  3
ACAD_LAYOUT
350
1A
  3
ACAD_MATERIAL
350
A91C
  3
ACAD_MLINESTYLE
350
17
  3
ACAD_PLOTSETTINGS
350
19
  3
ACAD_PLOTSTYLENAME
350
E
  3
ACAD_TABLESTYLE
350
AAB9
  3
ACAD_VISUALSTYLE
350
B0F1
  3
AcAsAppObject
350
3DA1
  3
ACASGREF_MASTER
350
3DE9
  3
AcDbVariableDictionary
350
34
  3
AcmDictionary
350
47
  3
AD_GREF_MODULE
350
3DEA
  3
AD_MAPI_MODULE
350
3E06
  3
AMG
350
2B
  3
AMGSNAPSETTINGS
350
7D
  3
ASE_INDEX_DICTIONARY
350
B331
  3
DWGPROPS
350
53522
  3
MAPISURF_MODULE
350
3DEB
  0
DICTIONARY
  5
53405
330
8
100
AcDbDictionary
280
     1
281
     1
  0
DICTIONARY
  5
3F95
330
2
100
AcDbDictionary
280
     1
281
     1
  3
ACAD_LAYERFILTERS
360
3F9CB
  3
ACAD_LAYERSTATES
360
3F96
  3
ACLYDICTIONARY
360
3F9CA
  3
AMLAYER_GROUPCOLORS
360
AAB4
  0
DICTIONARY
  5
8A
330
1F
100
AcDbDictionary
280
     1
281
     1
  3
ACAD_SORTENTS
360
B1BA
  0
DICTIONARY
  5
53523
102
{ACAD_REACTORS
330
C
102
}
330
C
100
AcDbDictionary
281
     1
  3
DIMARCSYM
350
53524
  0
DICTIONARY
  5
AB06
102
{ACAD_REACTORS
330
C
102
}
330
C
100
AcDbDictionary
280
     1
281
     1
  0
DICTIONARY
  5
A91D
102
{ACAD_REACTORS
330
C
102
}
330
C
100
AcDbDictionary
281
     1
  0
DICTIONARY
  5
D
102
{ACAD_REACTORS
330
C
102
}
330
C
100
AcDbDictionary
281
     1
  0
DICTIONARY
  5
1A
102
{ACAD_REACTORS
330
C
102
}
330
C
100
AcDbDictionary
281
     1
  3
Model
350
22
  3
ﾚｲｱｳﾄ1
350
1E
  3
ﾚｲｱｳﾄ2
350
26
  0
DICTIONARY
  5
A91C
102
{ACAD_REACTORS
330
C
102
}
330
C
100
AcDbDictionary
281
     1
  3
ByBlock
350
B0EF
  3
ByLayer
350
B0EE
  3
Global
350
B0F0
  0
DICTIONARY
  5
17
102
{ACAD_REACTORS
330
C
102
}
330
C
100
AcDbDictionary
281
     1
  3
Standard
350
18
  0
DICTIONARY
  5
19
102
{ACAD_REACTORS
330
C
102
}
330
C
100
AcDbDictionary
281
     1
  0
ACDBDICTIONARYWDFLT
  5
E
102
{ACAD_REACTORS
330
C
102
}
330
C
100
AcDbDictionary
281
     1
  3
Normal
350
F
100
AcDbDictionaryWithDefault
340
F
  0
DICTIONARY
  5
AAB9
102
{ACAD_REACTORS
330
C
102
}
330
C
100
AcDbDictionary
281
     1
  3
Standard
350
AABA
  0
DICTIONARY
  5
B0F1
102
{ACAD_REACTORS
330
C
102
}
330
C
100
AcDbDictionary
281
     1
  3
2dWireframe
350
B0F7
  3
3D Hidden
350
B0F9
  3
3dWireframe
350
B0F8
  3
Basic
350
B0F6
  3
Brighten
350
B0FD
  3
ColorChange
350
B101
  3
Conceptual
350
B0FA
  3
Dim
350
B0FC
  3
Facepattern
350
B100
  3
Flat
350
B0F2
  3
FlatWithEdges
350
B0F3
  3
Gouraud
350
B0F4
  3
GouraudWithEdges
350
B0F5
  3
Linepattern
350
B0FF
  3
Realistic
350
B0FB
  3
Thicken
350
B0FE
  0
ACAD_PROXY_OBJECT
  5
3DA1
102
{ACAD_REACTORS
330
C
102
}
330
C
100
AcDbProxyObject
 90
      499
 91
      576
 95
   917527
 70
     0
 93
       10
310
407F
 94
        0
1001
ACAD
1000
AcRTDxfName
1000
ASAPP
  0
ACAD_PROXY_OBJECT
  5
3DE9
102
{ACAD_REACTORS
330
C
102
}
330
C
100
AcDbProxyObject
 90
      499
 91
      581
 95
   917527
 70
     0
 93
       34
310
010000407F
 94
        0
1001
ACAD
1000
AcRTDxfName
1000
ACASGREFMASTER
  0
DICTIONARY
  5
34
102
{ACAD_REACTORS
330
C
102
}
330
C
100
AcDbDictionary
281
     1
  3
CTABLESTYLE
350
AAF3
  3
DIMASSOC
350
A10C
  3
FIELDEVAL
350
AB07
  3
HPORIGIN
350
EB56
  3
INDEXCTL
350
35
  3
SORTENTS
350
194C
  0
DICTIONARY
  5
47
102
{ACAD_REACTORS
330
C
102
}
330
C
100
AcDbDictionary
281
     1
  3
AcmBOM
350
7E8
  3
AcmStdDictionary
350
4C
  3
AMDTSECTSYM_ARROWCOLOR
350
A929
  0
ACAD_PROXY_OBJECT
  5
3DEA
102
{ACAD_REACTORS
330
C
102
}
330
C
100
AcDbProxyObject
 90
      499
 91
      582
 95
   917527
 70
     0
 93
      114
310
00000043800000000000000000003F
 94
        0
1001
ACAD
1000
AcRTDxfName
1000
ACADGREFMODULE
  0
ACAD_PROXY_OBJECT
  5
3E06
102
{ACAD_REACTORS
330
C
102
}
330
C
100
AcDbProxyObject
 90
      499
 91
      594
 95
   917527
 70
     0
 93
       34
310
05000044FF
 94
        0
1001
ACAD
1000
AcRTDxfName
1000
MAPIADMODULE
  0
DICTIONARY
  5
2B
102
{ACAD_REACTORS
330
C
102
}
330
C
100
AcDbDictionary
281
     1
  0
DICTIONARY
  5
7D
102
{ACAD_REACTORS
330
C
102
}
330
C
100
AcDbDictionary
281
     1
  0
DICTIONARY
  5
B331
102
{ACAD_REACTORS
330
C
102
}
330
C
100
AcDbDictionary
281
     1
  3
ASEBlockHierarchyIndexRecord
350
B332
1001
DCO15
1040
1594111214.218
  0
XRECORD
  5
53522
102
{ACAD_REACTORS
330
C
102
}
330
C
100
AcDbXrecord
280
     1
  1
DWGPROPS COOKIE
  2

  3

  4

  6

  7

  8
Administrator
  9

300
AmdtFileType=84
301
=
302
=
303
=
304
=
305
=
306
=
307
=
308
=
309
=
 40
8.345985208333333
 41
2455567.561054317
 42
2456030.710315394
  1

 90
        1
  0
ACAD_PROXY_OBJECT
  5
3DEB
102
{ACAD_REACTORS
330
C
102
}
330
C
100
AcDbProxyObject
 90
      499
 91
      583
 95
   917527
 70
     0
 93
        8
310
0477
 94
        0
1001
ACAD
1000
AcRTDxfName
1000
AMDTMAPISURFMOUDULE
  0
DICTIONARY
  5
3F9CB
102
{ACAD_REACTORS
330
3F95
102
}
330
3F95
100
AcDbDictionary
281
     1
  0
DICTIONARY
  5
3F96
102
{ACAD_REACTORS
330
3F95
102
}
330
3F95
100
AcDbDictionary
281
     1
  3
20011210
350
3FB7
  0
DICTIONARY
  5
3F9CA
102
{ACAD_REACTORS
330
3F95
102
}
330
3F95
100
AcDbDictionary
281
     1
1001
ACAD
1000
<All
  0
DICTIONARY
  5
AAB4
102
{ACAD_REACTORS
330
3F95
102
}
330
3F95
100
AcDbDictionary
280
     1
281
     1
  0
SORTENTSTABLE
  5
B1BA
102
{ACAD_REACTORS
330
8A
102
}
330
8A
100
AcDbSortentsTable
330
1F
331
3A07B
  5
3A0B8
331
1EB3C
  5
1EB3C
331
3A08B
  5
3A0C8
331
3A079
  5
3A0B6
331
1EB3A
  5
1EB3A
331
39DF7
  5
39E18
331
3A0F2
  5
3A15E
331
3A089
  5
3A0C6
331
3A077
  5
3A0B4
331
3A0F0
  5
3A137
331
39DF5
  5
39E16
331
3A0B6
  5
3A0D8
331
3A15E
  5
3B4C4
331
3A15C
  5
3B4C2
331
39DDF
  5
39E14
331
3A15A
  5
3B4C0
331
40E1E
  5
40EF4
331
39DDD
  5
39DFE
331
39DDB
  5
39DFC
331
39DD9
  5
39DFA
331
39DF9
  5
39E20
331
3A162
  5
3B4CA
331
39DD7
  5
39DF8
331
3A160
  5
3B4C6
331
39DD5
  5
39DF6
331
3A156
  5
3B4BF
331
39DD3
  5
39DF4
331
39DD1
  5
39DF2
331
3A152
  5
3B4BE
331
3A146
  5
3B4BB
331
39DCF
  5
39DF0
331
39DCD
  5
39DEE
331
3A14E
  5
3B4BD
331
26283
  5
26283
331
26281
  5
26281
331
3A14A
  5
3B4BC
331
3A0EE
  5
3A135
331
2627F
  5
2627F
331
3A140
  5
3B4BA
331
3A0EC
  5
3A133
331
2627D
  5
2627D
331
3A0EA
  5
3A131
331
3A0E8
  5
3A12A
331
3A0E6
  5
3A122
331
3A138
  5
3B4B9
331
2121D
  5
21225
331
3A0E4
  5
3A11A
331
3A0E2
  5
3A110
331
21FF3
  5
22408
331
21FF1
  5
2215E
331
3A086
  5
3A0C3
331
3A0E0
  5
3A102
331
3A084
  5
3A0C1
331
3A0DE
  5
3A100
331
3A082
  5
3A0BF
331
214E3
  5
2154A
331
3A080
  5
3A0BD
331
1EB41
  5
1EB41
331
3A07E
  5
3A0BB
331
1EB3F
  5
1EB3F
331
3A0F7
  5
3A15F
331
3A07C
  5
3A0B9
331
1EB3D
  5
1EB3D
331
1EB3B
  5
1EB3B
331
3A08C
  5
3A0C9
331
3A07A
  5
3A0B7
331
40DE5
  5
40EAF
331
3A078
  5
3A0B5
331
3A0F1
  5
3A14E
331
39DF6
  5
39E17
331
3A08A
  5
3A0C7
331
3A088
  5
3A0C5
331
3A0B7
  5
3A0DF
331
39DF4
  5
39E15
331
3A076
  5
3A0B3
331
3A15F
  5
3B4C5
331
3A15D
  5
3B4C3
331
39DDE
  5
39E13
331
3A15B
  5
3B4C1
331
39DDC
  5
39DFD
331
39DDA
  5
39DFB
331
39DD8
  5
39DF9
331
39DF8
  5
39E1F
331
39DD6
  5
39DF7
331
3A161
  5
3B4C7
331
39DD4
  5
39DF5
331
39DD2
  5
39DF3
331
39DD0
  5
39DF1
331
39DCE
  5
39DEF
331
26282
  5
26282
331
39DCC
  5
39DED
331
26280
  5
26280
331
3A0EF
  5
3A136
331
2627E
  5
2627E
331
3A0ED
  5
3A134
331
3A0EB
  5
3A132
331
3A0E7
  5
3A126
331
3A137
  5
3B4B8
331
3A0E5
  5
3A11E
331
3A0E3
  5
3A116
331
3A0E1
  5
3A108
331
21FF2
  5
22406
331
3A087
  5
3A0C4
331
3A0DF
  5
3A101
331
21FF0
  5
2215D
331
3A085
  5
3A0C2
331
3A0DD
  5
3A0FF
331
3A083
  5
3A0C0
331
3A081
  5
3A0BE
331
1EB40
  5
1EB40
331
3A07F
  5
3A0BC
331
40E50
  5
40F89
331
3A07D
  5
3A0BA
331
1EB3E
  5
1EB3E
  0
XRECORD
  5
53524
102
{ACAD_REACTORS
330
53523
102
}
330
53523
100
AcDbXrecord
280
     1
 70
     1
  0
LAYOUT
  5
22
102
{ACAD_XDICTIONARY
360
53527
102
}
102
{ACAD_REACTORS
330
1A
102
}
330
1A
100
AcDbPlotSettings
  1

  2
Adobe PDF
  4
A3
  6

 40
3.174999952316283
 41
3.174999952316283
 42
3.17498779296875
 43
3.17498779296875
 44
297.0318298339844
 45
420.1583251953125
 46
0.0
 47
1.371553106741457
 48
7017.194750291371
 49
-3860.982271409579
140
7437.194750291372
141
-3563.982271409579
142
1.0
143
1.021735647008086
 70
  3764
 72
     1
 73
     1
 74
     4
  7
monochrome.ctb
 75
     0
147
0.9787267410393916
148
-7017.194750291371
149
3860.982271409579
100
AcDbLayout
  1
Model
 70
     1
 71
     0
 10
0.0
 20
0.0
 11
12.0
 21
9.0
 12
0.0
 22
0.0
 32
0.0
 14
0.0
 24
0.0
 34
0.0
 15
0.0
 25
0.0
 35
0.0
146
0.0
 13
0.0
 23
0.0
 33
0.0
 16
1.0
 26
0.0
 36
0.0
 17
0.0
 27
1.0
 37
0.0
 76
     0
330
1F
331
B0EC
1001
ACAD_PSEXT
1000
Adobe PDF
1000
Adobe PDF Converter
1000
My Documents\*.pdf
1000

1070
     0
  0
LAYOUT
  5
1E
102
{ACAD_XDICTIONARY
360
53525
102
}
102
{ACAD_REACTORS
330
1A
102
}
330
1A
100
AcDbPlotSettings
  1

  2
\\ML370\XEROX
  4
A4
  6

 40
3.174999952316283
 41
3.174999952316283
 42
3.175003051757812
 43
3.17498779296875
 44
209.8674926757813
 45
296.6719970703125
 46
0.0
 47
0.0
 48
0.0
 49
0.0
140
0.0
141
0.0
142
1.0
143
1.0
 70
   688
 72
     1
 73
     1
 74
     5
  7
monochrome.ctb
 75
    16
147
1.0
148
0.0
149
0.0
100
AcDbLayout
  1
ﾚｲｱｳﾄ1
 70
     1
 71
     1
 10
-3.17498779296875
 20
-3.174999952316283
 11
293.4970092773438
 21
206.692492723465
 12
0.0
 22
0.0
 32
0.0
 14
1.000000000000000E+20
 24
1.000000000000000E+20
 34
1.000000000000000E+20
 15
-1.000000000000000E+20
 25
-1.000000000000000E+20
 35
-1.000000000000000E+20
146
0.0
 13
0.0
 23
0.0
 33
0.0
 16
1.0
 26
0.0
 36
0.0
 17
0.0
 27
1.0
 37
0.0
 76
     0
330
1B
  0
LAYOUT
  5
26
102
{ACAD_XDICTIONARY
360
53529
102
}
102
{ACAD_REACTORS
330
1A
102
}
330
1A
100
AcDbPlotSettings
  1

  2
\\ML370\XEROX
  4

  6

 40
0.0
 41
0.0
 42
0.0
 43
0.0
 44
0.0
 45
0.0
 46
0.0
 47
0.0
 48
0.0
 49
0.0
140
0.0
141
0.0
142
1.0
143
1.0
 70
   688
 72
     0
 73
     0
 74
     5
  7
monochrome.ctb
 75
    16
147
1.0
148
0.0
149
0.0
100
AcDbLayout
  1
ﾚｲｱｳﾄ2
 70
     1
 71
     2
 10
0.0
 20
0.0
 11
12.0
 21
9.0
 12
0.0
 22
0.0
 32
0.0
 14
0.0
 24
0.0
 34
0.0
 15
0.0
 25
0.0
 35
0.0
146
0.0
 13
0.0
 23
0.0
 33
0.0
 16
1.0
 26
0.0
 36
0.0
 17
0.0
 27
1.0
 37
0.0
 76
     0
330
23
  0
MATERIAL
  5
B0EF
102
{ACAD_XDICTIONARY
360
5349B
102
}
102
{ACAD_REACTORS
330
A91C
102
}
330
A91C
100
AcDbMaterial
  1
ByBlock
  0
MATERIAL
  5
B0EE
102
{ACAD_XDICTIONARY
360
53499
102
}
102
{ACAD_REACTORS
330
A91C
102
}
330
A91C
100
AcDbMaterial
  1
ByLayer
  0
MATERIAL
  5
B0F0
102
{ACAD_XDICTIONARY
360
5349D
102
}
102
{ACAD_REACTORS
330
A91C
102
}
330
A91C
100
AcDbMaterial
  1
Global
  0
MLINESTYLE
  5
18
102
{ACAD_REACTORS
330
17
102
}
330
17
100
AcDbMlineStyle
  2
STANDARD
 70
     0
  3

 62
   256
 51
90.0
 52
90.0
 71
     2
 49
0.5
 62
   256
  6
BYLAYER
 49
-0.5
 62
   256
  6
BYLAYER
  0
ACDBPLACEHOLDER
  5
F
102
{ACAD_REACTORS
330
E
102
}
330
E
  0
TABLESTYLE
  5
AABA
102
{ACAD_XDICTIONARY
360
5352B
102
}
102
{ACAD_REACTORS
330
AAB9
102
}
330
AAB9
100
AcDbTableStyle
  3
Standard
 70
     0
 71
     0
 40
1.5
 41
1.5
280
     0
281
     0
  7
STANDARD
140
4.5
170
     2
 62
     0
 63
     7
283
     0
274
    -2
284
     1
 64
     0
275
    -2
285
     1
 65
     0
276
    -2
286
     1
 66
     0
277
    -2
287
     1
 67
     0
278
    -2
288
     1
 68
     0
279
    -2
289
     1
 69
     0
  7
STANDARD
140
6.0
170
     5
 62
     0
 63
     7
283
     0
274
    -2
284
     1
 64
     0
275
    -2
285
     1
 65
     0
276
    -2
286
     1
 66
     0
277
    -2
287
     1
 67
     0
278
    -2
288
     1
 68
     0
279
    -2
289
     1
 69
     0
  7
STANDARD
140
4.5
170
     5
 62
     0
 63
     7
283
     0
274
    -2
284
     1
 64
     0
275
    -2
285
     1
 65
     0
276
    -2
286
     1
 66
     0
277
    -2
287
     1
 67
     0
278
    -2
288
     1
 68
     0
279
    -2
289
     1
 69
     0
  0
VISUALSTYLE
  5
B0F7
102
{ACAD_REACTORS
330
B0F1
102
}
330
B0F1
100
AcDbVisualStyle
  2
2dWireframe
 70
     4
 71
     0
 72
     2
 73
     0
 90
        0
 40
-0.6
 41
-30.0
 62
     5
 63
     7
 74
     1
 91
        4
 64
     7
 65
   257
 75
     1
175
     1
 42
1.0
 92
        0
 66
   257
 43
1.0
 76
     1
 77
     6
 78
     2
 67
     7
 79
     5
170
     0
171
     0
290
     0
174
     0
 93
        1
 44
0.0
173
     0
291
     0
 45
0.0
1001
ACAD
1000
AcDbSavedByObjectVersion
1070
     0
1000
AcDbSavedByObjectVersion
1070
     0
  0
VISUALSTYLE
  5
B0F9
102
{ACAD_REACTORS
330
B0F1
102
}
330
B0F1
100
AcDbVisualStyle
  2
3D Hidden
 70
     6
 71
     1
 72
     2
 73
     2
 90
        0
 40
-0.6
 41
-30.0
 62
     5
 63
     7
 74
     2
 91
        2
 64
     7
 65
   257
 75
     2
175
     1
 42
40.0
 92
        0
 66
   257
 43
1.0
 76
     1
 77
     6
 78
     2
 67
     7
 79
     3
170
     0
171
     0
290
     0
174
     0
 93
        1
 44
0.0
173
     0
291
     0
 45
0.0
1001
ACAD
1000
AcDbSavedByObjectVersion
1070
     0
1000
AcDbSavedByObjectVersion
1070
     0
  0
VISUALSTYLE
  5
B0F8
102
{ACAD_REACTORS
330
B0F1
102
}
330
B0F1
100
AcDbVisualStyle
  2
3dWireframe
 70
     5
 71
     0
 72
     2
 73
     0
 90
        0
 40
-0.6
 41
-30.0
 62
     5
 63
     7
 74
     1
 91
        4
 64
     7
 65
   257
 75
     1
175
     1
 42
1.0
 92
        0
 66
   257
 43
1.0
 76
     1
 77
     6
 78
     2
 67
     7
 79
     5
170
     0
171
     0
290
     0
174
     0
 93
        1
 44
0.0
173
     0
291
     0
 45
0.0
1001
ACAD
1000
AcDbSavedByObjectVersion
1070
     0
1000
AcDbSavedByObjectVersion
1070
     0
  0
VISUALSTYLE
  5
B0F6
102
{ACAD_REACTORS
330
B0F1
102
}
330
B0F1
100
AcDbVisualStyle
  2
Basic
 70
     7
 71
     1
 72
     0
 73
     1
 90
        0
 40
-0.6
 41
-30.0
 62
     5
 63
     7
 74
     0
 91
        4
 64
     7
 65
   257
 75
     1
175
     1
 42
1.0
 92
        8
 66
     7
 43
1.0
 76
     1
 77
     6
 78
     2
 67
     7
 79
     5
170
     0
171
     0
290
     0
174
     0
 93
        1
 44
0.0
173
     0
291
     1
 45
0.0
1001
ACAD
1000
AcDbSavedByObjectVersion
1070
     0
1000
AcDbSavedByObjectVersion
1070
     0
  0
VISUALSTYLE
  5
B0FD
102
{ACAD_REACTORS
330
B0F1
102
}
330
B0F1
100
AcDbVisualStyle
  2
Brighten
 70
    12
 71
     2
 72
     2
 73
     0
 90
        0
 40
-0.6
 41
-30.0
 62
     5
 63
     7
 74
     1
 91
        4
 64
     7
 65
   257
 75
     1
175
     1
 42
1.0
 92
        8
 66
     7
 43
1.0
 76
     1
 77
     6
 78
     2
 67
     7
 79
     5
170
     0
171
     0
290
     0
174
     0
 93
        1
 44
50.0
173
     0
291
     1
 45
0.0
1001
ACAD
1000
AcDbSavedByObjectVersion
1070
     0
1000
AcDbSavedByObjectVersion
1070
     0
  0
VISUALSTYLE
  5
B101
102
{ACAD_REACTORS
330
B0F1
102
}
330
B0F1
100
AcDbVisualStyle
  2
ColorChange
 70
    16
 71
     2
 72
     2
 73
     3
 90
        0
 40
-0.6
 41
-30.0
 62
     5
 63
     8
 74
     1
 91
        4
 64
     7
 65
   257
 75
     1
175
     1
 42
1.0
 92
        8
 66
     8
 43
1.0
 76
     1
 77
     6
 78
     2
 67
     7
 79
     5
170
     0
171
     0
290
     0
174
     0
 93
        1
 44
0.0
173
     0
291
     1
 45
0.0
1001
ACAD
1000
AcDbSavedByObjectVersion
1070
     0
1000
AcDbSavedByObjectVersion
1070
     0
  0
VISUALSTYLE
  5
B0FA
102
{ACAD_REACTORS
330
B0F1
102
}
330
B0F1
100
AcDbVisualStyle
  2
Conceptual
 70
     9
 71
     3
 72
     2
 73
     0
 90
        0
 40
-0.6
 41
-30.0
 62
     5
 63
     7
 74
     2
 91
        2
 64
     7
 65
   257
 75
     1
175
     1
 42
40.0
 92
        8
 66
     7
 43
1.0
 76
     1
 77
     6
 78
     2
 67
     7
 79
     3
170
     0
171
     0
290
     0
174
     0
 93
        1
 44
0.0
173
     0
291
     0
 45
0.0
1001
ACAD
1000
AcDbSavedByObjectVersion
1070
     0
1000
AcDbSavedByObjectVersion
1070
     0
  0
VISUALSTYLE
  5
B0FC
102
{ACAD_REACTORS
330
B0F1
102
}
330
B0F1
100
AcDbVisualStyle
  2
Dim
 70
    11
 71
     2
 72
     2
 73
     0
 90
        0
 40
-0.6
 41
-30.0
 62
     5
 63
     7
 74
     1
 91
        4
 64
     7
 65
   257
 75
     1
175
     1
 42
1.0
 92
        8
 66
     7
 43
1.0
 76
     1
 77
     6
 78
     2
 67
     7
 79
     5
170
     0
171
     0
290
     0
174
     0
 93
        1
 44
-50.0
173
     0
291
     1
 45
0.0
1001
ACAD
1000
AcDbSavedByObjectVersion
1070
     0
1000
AcDbSavedByObjectVersion
1070
     0
  0
VISUALSTYLE
  5
B100
102
{ACAD_REACTORS
330
B0F1
102
}
330
B0F1
100
AcDbVisualStyle
  2
Facepattern
 70
    15
 71
     2
 72
     2
 73
     0
 90
        0
 40
-0.6
 41
-30.0
 62
     5
 63
     7
 74
     1
 91
        4
 64
     7
 65
   257
 75
     1
175
     1
 42
1.0
 92
        8
 66
     7
 43
1.0
 76
     1
 77
     6
 78
     2
 67
     7
 79
     5
170
     0
171
     0
290
     0
174
     0
 93
        1
 44
0.0
173
     0
291
     1
 45
0.0
1001
ACAD
1000
AcDbSavedByObjectVersion
1070
     0
1000
AcDbSavedByObjectVersion
1070
     0
  0
VISUALSTYLE
  5
B0F2
102
{ACAD_REACTORS
330
B0F1
102
}
330
B0F1
100
AcDbVisualStyle
  2
Flat
 70
     0
 71
     2
 72
     1
 73
     1
 90
        2
 40
-0.6
 41
30.0
 62
     5
 63
     7
 74
     0
 91
        4
 64
     7
 65
   257
 75
     1
175
     1
 42
1.0
 92
        8
 66
     7
 43
1.0
 76
     1
 77
     6
 78
     2
 67
     7
 79
     5
170
     0
171
     0
290
     0
174
     0
 93
       13
 44
0.0
173
     0
291
     1
 45
0.0
1001
ACAD
1000
AcDbSavedByObjectVersion
1070
     0
1000
AcDbSavedByObjectVersion
1070
     0
  0
VISUALSTYLE
  5
B0F3
102
{ACAD_REACTORS
330
B0F1
102
}
330
B0F1
100
AcDbVisualStyle
  2
FlatWithEdges
 70
     1
 71
     2
 72
     1
 73
     1
 90
        2
 40
-0.6
 41
30.0
 62
     5
 63
     7
 74
     1
 91
        4
 64
     7
 65
   257
 75
     1
175
     1
 42
1.0
 92
        0
 66
   257
 43
1.0
 76
     1
 77
     6
 78
     2
 67
     7
 79
     5
170
     0
171
     0
290
     0
174
     0
 93
       13
 44
0.0
173
     0
291
     1
 45
0.0
1001
ACAD
1000
AcDbSavedByObjectVersion
1070
     0
1000
AcDbSavedByObjectVersion
1070
     0
  0
VISUALSTYLE
  5
B0F4
102
{ACAD_REACTORS
330
B0F1
102
}
330
B0F1
100
AcDbVisualStyle
  2
Gouraud
 70
     2
 71
     2
 72
     2
 73
     1
 90
        2
 40
-0.6
 41
30.0
 62
     5
 63
     7
 74
     0
 91
        4
 64
     7
 65
   257
 75
     1
175
     1
 42
1.0
 92
        0
 66
     7
 43
1.0
 76
     1
 77
     6
 78
     2
 67
     7
 79
     5
170
     0
171
     0
290
     0
174
     0
 93
       13
 44
0.0
173
     0
291
     1
 45
0.0
1001
ACAD
1000
AcDbSavedByObjectVersion
1070
     0
1000
AcDbSavedByObjectVersion
1070
     0
  0
VISUALSTYLE
  5
B0F5
102
{ACAD_REACTORS
330
B0F1
102
}
330
B0F1
100
AcDbVisualStyle
  2
GouraudWithEdges
 70
     3
 71
     2
 72
     2
 73
     1
 90
        2
 40
-0.6
 41
30.0
 62
     5
 63
     7
 74
     1
 91
        4
 64
     7
 65
   257
 75
     1
175
     1
 42
1.0
 92
        0
 66
   257
 43
1.0
 76
     1
 77
     6
 78
     2
 67
     7
 79
     5
170
     0
171
     0
290
     0
174
     0
 93
       13
 44
0.0
173
     0
291
     1
 45
0.0
1001
ACAD
1000
AcDbSavedByObjectVersion
1070
     0
1000
AcDbSavedByObjectVersion
1070
     0
  0
VISUALSTYLE
  5
B0FF
102
{ACAD_REACTORS
330
B0F1
102
}
330
B0F1
100
AcDbVisualStyle
  2
Linepattern
 70
    14
 71
     2
 72
     2
 73
     0
 90
        0
 40
-0.6
 41
-30.0
 62
     5
 63
     7
 74
     1
 91
        4
 64
     7
 65
   257
 75
     7
175
     7
 42
1.0
 92
        8
 66
     7
 43
1.0
 76
     1
 77
     6
 78
     2
 67
     7
 79
     5
170
     0
171
     0
290
     0
174
     0
 93
        1
 44
0.0
173
     0
291
     1
 45
0.0
1001
ACAD
1000
AcDbSavedByObjectVersion
1070
     0
1000
AcDbSavedByObjectVersion
1070
     0
  0
VISUALSTYLE
  5
B0FB
102
{ACAD_REACTORS
330
B0F1
102
}
330
B0F1
100
AcDbVisualStyle
  2
Realistic
 70
     8
 71
     2
 72
     2
 73
     0
 90
        0
 40
-0.6
 41
-30.0
 62
     5
 63
     7
 74
     1
 91
        0
 64
     7
 65
   257
 75
     1
175
     1
 42
1.0
 92
        8
 66
     8
 43
1.0
 76
     1
 77
     6
 78
     2
 67
     7
 79
     5
170
     0
171
     0
290
     0
174
     0
 93
       13
 44
0.0
173
     0
291
     0
 45
0.0
1001
ACAD
1000
AcDbSavedByObjectVersion
1070
     0
1000
AcDbSavedByObjectVersion
1070
     0
  0
VISUALSTYLE
  5
B0FE
102
{ACAD_REACTORS
330
B0F1
102
}
330
B0F1
100
AcDbVisualStyle
  2
Thicken
 70
    13
 71
     2
 72
     2
 73
     0
 90
        0
 40
-0.6
 41
-30.0
 62
     5
 63
     7
 74
     1
 91
        4
 64
     7
 65
   257
 75
     1
175
     1
 42
1.0
 92
       12
 66
     7
 43
1.0
 76
     1
 77
     6
 78
     2
 67
     7
 79
     5
170
     0
171
     0
290
     0
174
     0
 93
        1
 44
0.0
173
     0
291
     1
 45
0.0
1001
ACAD
1000
AcDbSavedByObjectVersion
1070
     0
1000
AcDbSavedByObjectVersion
1070
     0
  0
DICTIONARYVAR
  5
AAF3
102
{ACAD_REACTORS
330
34
102
}
330
34
100
DictionaryVariables
280
     0
  1
STANDARD
  0
DICTIONARYVAR
  5
A10C
102
{ACAD_REACTORS
330
34
102
}
330
34
100
DictionaryVariables
280
     0
  1
1
  0
DICTIONARYVAR
  5
AB07
102
{ACAD_REACTORS
330
34
102
}
330
34
100
DictionaryVariables
280
     0
  1
4
  0
DICTIONARYVAR
  5
EB56
102
{ACAD_REACTORS
330
34
102
}
330
34
100
DictionaryVariables
280
     0
  1
0.000000;0.000000
  0
DICTIONARYVAR
  5
35
102
{ACAD_REACTORS
330
34
102
}
330
34
100
DictionaryVariables
280
     0
  1
0
  0
DICTIONARYVAR
  5
194C
102
{ACAD_REACTORS
330
34
102
}
330
34
100
DictionaryVariables
280
     0
  1
127
  0
DICTIONARY
  5
7E8
102
{ACAD_REACTORS
330
47
102
}
330
47
100
AcDbDictionary
281
     1
  0
DICTIONARY
  5
4C
102
{ACAD_REACTORS
330
47
102
}
330
47
100
AcDbDictionary
281
     1
  0
XRECORD
  5
A929
102
{ACAD_REACTORS
330
47
102
}
330
47
100
AcDbXrecord
280
     1
 90
-1023410169
  0
XRECORD
  5
B332
102
{ACAD_REACTORS
330
B331
102
}
330
B331
100
AcDbXrecord
280
     1
  0
XRECORD
  5
3FB7
102
{ACAD_REACTORS
330
3F96
102
}
330
3F96
100
AcDbXrecord
280
     1
 91
        3
330
0
 90
        8
 62
     7
370
    40
331
16
  1
Color_7
330
0
 90
        0
 62
    14
370
    -3
331
16
  1
Color_14
330
0
 90
        8
 62
     7
370
    20
331
16
  1
Color_7
330
6D1
 90
        0
 62
     7
370
    -3
331
16
  1
Color_7
330
0
 90
        8
 62
     7
370
    50
331
16
  1
Color_7
330
0
 90
        8
 62
     2
370
    35
331
16
  1
Color_2
330
0
 90
        8
 62
     7
370
    -3
331
16
  1
Color_7
330
10
 90
        8
 62
     7
370
    -3
331
16
  1
Color_7
  0
DICTIONARY
  5
53527
330
22
100
AcDbDictionary
280
     1
281
     1
  3
ACAD_XREC_ROUNDTRIP
360
53528
  0
DICTIONARY
  5
53525
330
1E
100
AcDbDictionary
280
     1
281
     1
  3
ACAD_XREC_ROUNDTRIP
360
53526
  0
DICTIONARY
  5
53529
330
26
100
AcDbDictionary
280
     1
281
     1
  3
ACAD_XREC_ROUNDTRIP
360
5352A
  0
DICTIONARY
  5
5349B
330
B0EF
100
AcDbDictionary
280
     1
281
     1
  3
ACAD_XREC_ROUNDTRIP
360
5349C
  0
DICTIONARY
  5
53499
330
B0EE
100
AcDbDictionary
280
     1
281
     1
  3
ACAD_XREC_ROUNDTRIP
360
5349A
  0
DICTIONARY
  5
5349D
330
B0F0
100
AcDbDictionary
280
     1
281
     1
  3
ACAD_XREC_ROUNDTRIP
360
5349E
  0
DICTIONARY
  5
5352B
330
AABA
100
AcDbDictionary
280
     1
281
     1
  3
ACAD_XREC_ROUNDTRIP
360
5352C
  0
XRECORD
  5
53528
102
{ACAD_REACTORS
330
53527
102
}
330
53527
100
AcDbXrecord
280
     1
102
SHADEPLOT
 70
     1
102
SHADEPLOTRESLEVEL
 70
     2
102
SHADEPLOTCUSTOMDPI
 70
   300
  0
XRECORD
  5
53526
102
{ACAD_REACTORS
330
53525
102
}
330
53525
100
AcDbXrecord
280
     1
102
SHADEPLOT
 70
     0
102
SHADEPLOTRESLEVEL
 70
     2
102
SHADEPLOTCUSTOMDPI
 70
   300
  0
XRECORD
  5
5352A
102
{ACAD_REACTORS
330
53529
102
}
330
53529
100
AcDbXrecord
280
     1
102
SHADEPLOT
 70
     0
102
SHADEPLOTRESLEVEL
 70
     2
102
SHADEPLOTCUSTOMDPI
 70
   300
  0
XRECORD
  5
5349C
102
{ACAD_REACTORS
330
5349B
102
}
330
5349B
100
AcDbXrecord
280
     1
102
MATERIAL
148
0.0
149
0.0
149
0.0
 93
        0
 94
       63
282
     0
 72
     1
 77
     1
171
     1
175
     1
179
     1
273
     0
  0
XRECORD
  5
5349A
102
{ACAD_REACTORS
330
53499
102
}
330
53499
100
AcDbXrecord
280
     1
102
MATERIAL
148
0.0
149
0.0
149
0.0
 93
        0
 94
       63
282
     0
 72
     1
 77
     1
171
     1
175
     1
179
     1
273
     0
  0
XRECORD
  5
5349E
102
{ACAD_REACTORS
330
5349D
102
}
330
5349D
100
AcDbXrecord
280
     1
102
MATERIAL
148
0.0
149
0.0
149
0.0
 93
        0
 94
       63
282
     0
 72
     1
 77
     1
171
     1
175
     1
179
     1
273
     0
  0
XRECORD
  5
5352C
102
{ACAD_REACTORS
330
5352B
102
}
330
5352B
100
AcDbXrecord
280
     1
102
ACAD_ROUNDTRIP_PRE2007_TABLESTYLE
 90
        4
 91
        0
  1

 92
        4
 93
        0
  2

 94
        4
 95
        0
  3

  0
ENDSEC
  0
EOF
