  0
SECTION
  2
HEADER
  9
$ACADVER
  1
AC1009
  9
$INSBASE
 10
0.0
 20
0.0
 30
0.0
  9
$EXTMIN
 10
-211.0
 20
-100.0
 30
0.0
  9
$EXTMAX
 10
170.0
 20
173.0
 30
0.0
  9
$LIMMIN
 10
-211.0
 20
-100.0
  9
$LIMMAX
 10
170.0
 20
173.0
  9
$ORTHOMODE
 70
     0
  9
$REGENMODE
 70
     1
  9
$FILLMODE
 70
     1
  9
$QTEXTMODE
 70
     0
  9
$MIRRTEXT
 70
     1
  9
$DRAGMODE
 70
     2
  9
$LTSCALE
 40
1.0
  9
$OSMODE
 70
    37
  9
$ATTMODE
 70
     1
  9
$TEXTSIZE
 40
0.2
  9
$TRACEWID
 40
0.05
  9
$TEXTSTYLE
  7
STANDARD
  9
$CLAYER
  8
0
  9
$CELTYPE
  6
CONTINUOUS
  9
$CECOLOR
 62
   256
  9
$DIMSCALE
 40
1.0
  9
$DIMASZ
 40
1.0
  9
$DIMEXO
 40
2.54
  9
$DIMDLI
 40
0.38
  9
$DIMRND
 40
0.0
  9
$DIMDLE
 40
0.0
  9
$DIMEXE
 40
2.54
  9
$DIMTP
 40
0.0
  9
$DIMTM
 40
0.0
  9
$DIMTXT
 40
3.2000000000000002
  9
$DIMCEN
 40
0.09
  9
$DIMTSZ
 40
0.0
  9
$DIMTOL
 70
     0
  9
$DIMLIM
 70
     0
  9
$DIMTIH
 70
     0
  9
$DIMTOH
 70
     0
  9
$DIMSE1
 70
     0
  9
$DIMSE2
 70
     0
  9
$DIMTAD
 70
     1
  9
$DIMZIN
 70
     0
  9
$DIMBLK
  1

  9
$DIMASO
 70
     1
  9
$DIMSHO
 70
     0
  9
$DIMPOST
  1

  9
$DIMAPOST
  1

  9
$DIMALT
 70
     0
  9
$DIMALTD
 70
     2
  9
$DIMALTF
 40
25.399999999999999
  9
$DIMLFAC
 40
1.0
  9
$DIMTOFL
 70
     0
  9
$DIMTVP
 40
1.0
  9
$DIMTIX
 70
     0
  9
$DIMSOXD
 70
     0
  9
$DIMSAH
 70
     1
  9
$DIMBLK1
  1

  9
$DIMBLK2
  1

  9
$DIMSTYLE
  2
DIMSTYLE
  9
$DIMCLRD
 70
     0
  9
$DIMCLRE
 70
     0
  9
$DIMCLRT
 70
     0
  9
$DIMTFAC
 40
1.0
  9
$DIMGAP
 40
1.6000000000000001
  9
$LUNITS
 70
     2
  9
$LUPREC
 70
     4
  9
$SKETCHINC
 40
0.1
  9
$FILLETRAD
 40
0.0
  9
$AUNITS
 70
     0
  9
$AUPREC
 70
     0
  9
$MENU
  1
.
  9
$ELEVATION
 40
0.0
  9
$PELEVATION
 40
0.0
  9
$THICKNESS
 40
0.0
  9
$LIMCHECK
 70
     0
  9
$BLIPMODE
 70
     0
  9
$CHAMFERA
 40
0.0
  9
$CHAMFERB
 40
0.0
  9
$SKPOLY
 70
     0
  9
$TDCREATE
 40
2452809.685296284
  9
$TDUPDATE
 40
2452809.687055185
  9
$TDINDWG
 40
0.0017694444
  9
$TDUSRTIMER
 40
0.0017694444
  9
$USRTIMER
 70
     1
  9
$ANGBASE
 50
0.0
  9
$ANGDIR
 70
     0
  9
$PDMODE
 70
     0
  9
$PDSIZE
 40
0.0
  9
$PLINEWID
 40
0.0
  9
$COORDS
 70
     1
  9
$SPLFRAME
 70
     0
  9
$SPLINETYPE
 70
     6
  9
$SPLINESEGS
 70
     8
  9
$ATTDIA
 70
     0
  9
$ATTREQ
 70
     1
  9
$HANDLING
 70
 22529
  9
$HANDSEED
  5
3B3
  9
$SURFTAB1
 70
     6
  9
$SURFTAB2
 70
     6
  9
$SURFTYPE
 70
     6
  9
$SURFU
 70
     6
  9
$SURFV
 70
     6
  9
$UCSNAME
  2

  9
$UCSORG
 10
0.0
 20
0.0
 30
0.0
  9
$UCSXDIR
 10
1.0
 20
0.0
 30
0.0
  9
$UCSYDIR
 10
0.0
 20
1.0
 30
0.0
  9
$PUCSNAME
  2

  9
$PUCSORG
 10
0.0
 20
0.0
 30
0.0
  9
$PUCSXDIR
 10
1.0
 20
0.0
 30
0.0
  9
$PUCSYDIR
 10
0.0
 20
1.0
 30
0.0
  9
$USERI1
 70
     0
  9
$USERI2
 70
     0
  9
$USERI3
 70
     0
  9
$USERI4
 70
     0
  9
$USERI5
 70
     0
  9
$USERR1
 40
0.0
  9
$USERR2
 40
0.0
  9
$USERR3
 40
0.0
  9
$USERR4
 40
0.0
  9
$USERR5
 40
0.0
  9
$WORLDVIEW
 70
     1
  9
$SHADEDGE
 70
     3
  9
$SHADEDIF
 70
    70
  9
$TILEMODE
 70
     1
  9
$MAXACTVP
 70
    64
  9
$PLIMCHECK
 70
     0
  9
$PEXTMIN
 10
1.0000000000000000E+020
 20
1.0000000000000000E+020
 30
1.0000000000000000E+020
  9
$PEXTMAX
 10
-1.0000000000000000E+020
 20
-1.0000000000000000E+020
 30
-1.0000000000000000E+020
  9
$PLIMMIN
 10
-211.0
 20
-100.0
  9
$PLIMMAX
 10
170.0
 20
173.0
  9
$UNITMODE
 70
     0
  9
$VISRETAIN
 70
     1
  9
$PLINEGEN
 70
     0
  9
$PSLTSCALE
 70
     1
  0
ENDSEC
  0
SECTION
  2
TABLES
  0
TABLE
  2
VPORT
 70
     2
  0
VPORT
  2
*ACTIVE
 70
     0
 10
0.0
 20
0.0
 11
1.0
 21
1.0
 12
-165.58938685980189
 22
65.496274013534617
 13
0.0
 23
0.0
 14
1.0
 24
1.0
 15
0.0
 25
0.0
 16
0.0
 26
0.0
 36
1.0
 17
0.0
 27
0.0
 37
0.0
 40
90.597653857523468
 41
1.5139593908629441
 42
50.0
 43
0.0
 44
0.0
 50
0.0
 51
0.0
 71
     0
 72
   100
 73
     1
 74
     1
 75
     0
 76
     0
 77
     0
 78
     0
  0
ENDTAB
  0
TABLE
  2
LTYPE
 70
     6
  0
LTYPE
  2
CONTINUOUS
 70
     0
  3
Solid line
 72
    65
 73
     0
 40
0.0
  0
LTYPE
  2
DASHED
 70
     0
  3
__ __ __ __ __ __ __ __ __ __ __ __ __ __ __
 72
    65
 73
     2
 40
3.5
 49
2.0
 49
-1.5
  0
LTYPE
  2
CENTER
 70
     0
  3
____ _ ____ _ ____ _ ____ _ ____ _ ____ _ ____
 72
    65
 73
     4
 40
17.5
 49
13.0
 49
-1.5
 49
1.5
 49
-1.5
  0
LTYPE
  2
PHANTOM
 70
     0
  3
_____ _ _ _____ _ _ _____ _ _ _____ _ _ ____  
 72
    65
 73
     6
 40
15.5
 49
8.0
 49
-1.5
 49
1.5
 49
-1.5
 49
1.5
 49
-1.5
  0
LTYPE
  2
DOT
 70
     0
  3
. . . . . . . . . . . . . . . . . . . . . . . .
 72
    65
 73
     2
 40
0.25
 49
0.0
 49
-0.25
  0
LTYPE
  2
HIDDEN
 70
     0
  3
__ __ __ __ __ __ __ __ __ __ __ __ __ __ __
 72
    65
 73
     2
 40
3.5
 49
2.0
 49
-1.5
  0
ENDTAB
  0
TABLE
  2
LAYER
 70
     4
  0
LAYER
  2
0
 70
     0
 62
     7
  6
CONTINUOUS
  0
LAYER
  2
1
 70
     0
 62
     7
  6
CONTINUOUS
  0
LAYER
  2
2
 70
     0
 62
     7
  6
CONTINUOUS
  0
LAYER
  2
DEFPOINTS
 70
     0
 62
     7
  6
CONTINUOUS
  0
ENDTAB
  0
TABLE
  2
STYLE
 70
     1
  0
STYLE
  2
STANDARD
 70
     0
 40
0.0
 41
1.0
 50
0.0
 71
     0
 42
0.2
  3
txt
  4
BIGFONT
  0
ENDTAB
  0
TABLE
  2
VIEW
 70
     0
  0
ENDTAB
  0
TABLE
  2
UCS
 70
     0
  0
ENDTAB
  0
TABLE
  2
APPID
 70
     1
  0
APPID
  2
ACAD
 70
     0
  0
ENDTAB
  0
TABLE
  2
DIMSTYLE
 70
     1
  0
DIMSTYLE
  2
DIMSTYLE
 70
     0
  3

  4

  5

  6

  7

 40
1.0
 41
1.0
 42
2.54
 43
0.38
 44
2.54
 45
0.0
 46
0.0
 47
0.0
 48
0.0
140
3.2000000000000002
141
0.09
142
0.0
143
25.399999999999999
144
1.0
145
0.0
146
1.0
147
1.6000000000000001
 71
     0
 72
     0
 73
     0
 74
     0
 75
     0
 76
     0
 77
     0
 78
     0
170
     0
171
     2
172
     0
173
     1
174
     0
175
     0
176
     0
177
     0
178
     0
  0
ENDTAB
  0
ENDSEC
  0
SECTION
  2
BLOCKS
  0
BLOCK
  8
0
  2
$MODEL_SPACE
 70
     0
 10
0.0
 20
0.0
 30
0.0
  3
$MODEL_SPACE
  1

  0
ENDBLK
  5
20
  8
0
  0
BLOCK
 67
     1
  8
0
  2
$PAPER_SPACE
 70
     0
 10
0.0
 20
0.0
 30
0.0
  3
$PAPER_SPACE
  1

  0
ENDBLK
  5
1C
 67
     1
  8
0
  0
BLOCK
  8
0
  2
_DOT
 70
     0
 10
0.0
 20
0.0
 30
0.0
  3
_DOT
  1

  0
POLYLINE
  5
30
  8
0
  6
BYBLOCK
 62
     0
 66
     1
 10
0.0
 20
0.0
 30
0.0
 70
     1
 40
0.4000000100000001
 41
0.4000000100000001
  0
VERTEX
  5
3B0
  8
0
  6
BYBLOCK
 62
     0
 10
-0.2
 20
0.0
 30
0.0
 42
1.0
  0
VERTEX
  5
3B1
  8
0
  6
BYBLOCK
 62
     0
 10
0.2
 20
0.0
 30
0.0
 42
1.0
  0
SEQEND
  5
3B2
  8
0
  6
BYBLOCK
 62
     0
  0
LINE
  5
34
  8
0
  6
BYBLOCK
 62
     0
 10
-0.4000000100000001
 20
0.0
 30
0.0
 11
-3.0
 21
0.0
 31
0.0
  0
ENDBLK
  5
35
  8
0
  0
BLOCK
  8
0
  2
*D1
 70
     1
 10
0.0
 20
0.0
 30
0.0
  3
*D1
  1

  0
LINE
  5
38
  8
0
  6
CONTINUOUS
 62
     7
 10
3.5465870000000002
 20
-26.110503999999999
 30
0.0
 11
3.5465870000000002
 21
-17.328711999999989
 31
0.0
  0
LINE
  5
39
  8
0
  6
CONTINUOUS
 62
     7
 10
3.5465870000000002
 20
-29.710505000000001
 30
0.0
 11
3.5465870000000002
 21
-26.110503999999999
 31
0.0
  0
INSERT
  5
3A
  8
0
  6
CONTINUOUS
 62
     7
  2
_DOT
 10
3.5465870000000002
 20
-29.710505000000001
 30
0.0
 50
270.0
  0
INSERT
  5
3B
  8
0
  6
CONTINUOUS
 62
     7
  2
_DOT
 10
3.5465870000000002
 20
-26.110503999999999
 30
0.0
 50
90.0
  0
LINE
  5
3C
  8
0
  6
CONTINUOUS
 62
     7
 10
-8.9134130999999996
 20
-29.710505000000001
 30
0.0
 11
5.8325867999999987
 21
-29.710505000000001
 31
0.0
  0
LINE
  5
3D
  8
0
  6
CONTINUOUS
 62
     7
 10
-10.432164
 20
-26.110503999999999
 30
0.0
 11
5.8325867999999987
 21
-26.110503999999999
 31
0.0
  0
TEXT
  5
3E
  8
0
  6
CONTINUOUS
 62
     7
 10
2.7465872
 20
-25.214711999999999
 30
0.0
 40
3.2000000000000002
  1
3.6
 50
90.000003000000007
 41
1.3571874999999991
  0
POINT
  5
3F
  8
DEFPOINTS
  6
CONTINUOUS
 62
     7
 10
-11.453412999999999
 20
-29.710505000000001
 30
0.0
  0
POINT
  5
40
  8
DEFPOINTS
  6
CONTINUOUS
 62
     7
 10
-12.97216399999999
 20
-26.110503999999999
 30
0.0
  0
POINT
  5
41
  8
DEFPOINTS
  6
CONTINUOUS
 62
     7
 10
3.5465870000000002
 20
-26.110503999999999
 30
0.0
  0
ENDBLK
  5
42
  8
0
  0
BLOCK
  8
0
  2
*D2
 70
     1
 10
0.0
 20
0.0
 30
0.0
  3
*D2
  1

  0
LINE
  5
45
  8
0
  6
CONTINUOUS
 62
     7
 10
-24.153411999999999
 20
-44.710503000000003
 30
0.0
 11
-40.834018999999998
 21
-44.710503000000003
 31
0.0
  0
LINE
  5
46
  8
0
  6
CONTINUOUS
 62
     7
 10
-24.153411999999999
 20
-44.710503000000003
 30
0.0
 11
-11.453412999999999
 21
-44.710503000000003
 31
0.0
  0
INSERT
  5
47
  8
0
  6
CONTINUOUS
 62
     7
  2
_DOT
 10
-24.153411999999999
 20
-44.710503000000003
 30
0.0
 50
180.0
  0
INSERT
  5
48
  8
0
  6
CONTINUOUS
 62
     7
  2
_DOT
 10
-11.453412999999999
 20
-44.710503000000003
 30
0.0
  0
LINE
  5
49
  8
0
  6
CONTINUOUS
 62
     7
 10
-24.153411999999999
 20
-32.250503999999999
 30
0.0
 11
-24.153411999999999
 21
-45.910502999999999
 31
0.0
  0
LINE
  5
4A
  8
0
  6
CONTINUOUS
 62
     7
 10
-11.453412999999999
 20
-32.250503999999999
 30
0.0
 11
-11.453412999999999
 21
-45.910502999999999
 31
0.0
  0
TEXT
  5
4B
  8
0
  6
CONTINUOUS
 62
     7
 10
-40.834015999999998
 20
-43.910502999999999
 30
0.0
 40
3.2000000000000002
  1
%%C12.7
 41
1.2223962999999991
  0
POINT
  5
4C
  8
DEFPOINTS
  6
CONTINUOUS
 62
     7
 10
-24.153411999999999
 20
-29.710505000000001
 30
0.0
  0
POINT
  5
4D
  8
DEFPOINTS
  6
CONTINUOUS
 62
     7
 10
-11.453412999999999
 20
-29.710505000000001
 30
0.0
  0
POINT
  5
4E
  8
DEFPOINTS
  6
CONTINUOUS
 62
     7
 10
-11.453412999999999
 20
-44.710503000000003
 30
0.0
  0
ENDBLK
  5
4F
  8
0
  0
BLOCK
  8
0
  2
*D3
 70
     1
 10
0.0
 20
0.0
 30
0.0
  3
*D3
  1

  0
LINE
  5
52
  8
0
  6
CONTINUOUS
 62
     7
 10
-144.87937999999991
 20
75.530570999999995
 30
0.0
 11
-144.87937999999991
 21
6.5305710000000001
 31
0.0
  0
INSERT
  5
53
  8
0
  6
CONTINUOUS
 62
     7
  2
_DOT
 10
-144.87937999999991
 20
75.530570999999995
 30
0.0
 50
90.0
  0
INSERT
  5
54
  8
0
  6
CONTINUOUS
 62
     7
  2
_DOT
 10
-144.87937999999991
 20
6.5305710000000001
 30
0.0
 50
270.0
  0
LINE
  5
55
  8
0
  6
CONTINUOUS
 62
     7
 10
-104.11938000000001
 20
75.530570999999995
 30
0.0
 11
-144.87949
 21
75.530570999999995
 31
0.0
  0
LINE
  5
56
  8
0
  6
CONTINUOUS
 62
     7
 10
-104.11938000000001
 20
6.5305710000000001
 30
0.0
 11
-144.87949
 21
6.5305710000000001
 31
0.0
  0
TEXT
  5
57
  8
0
  6
CONTINUOUS
 62
     7
 10
-145.62938
 20
39.959071000000002
 30
0.0
 40
3.0
  1
A
 50
90.000003000000007
  0
POINT
  5
58
  8
DEFPOINTS
  6
CONTINUOUS
 62
     7
 10
-101.5793799999999
 20
75.530570999999995
 30
0.0
  0
POINT
  5
59
  8
DEFPOINTS
  6
CONTINUOUS
 62
     7
 10
-101.5793799999999
 20
6.5305710000000001
 30
0.0
  0
POINT
  5
5A
  8
DEFPOINTS
  6
CONTINUOUS
 62
     7
 10
-144.87937999999991
 20
6.5305710000000001
 30
0.0
  0
ENDBLK
  5
5B
  8
0
  0
BLOCK
  8
0
  2
*D4
 70
     1
 10
0.0
 20
0.0
 30
0.0
  3
*D4
  1

  0
LINE
  5
5E
  8
0
  6
CONTINUOUS
 62
     7
 10
-101.5793799999999
 20
-8.4694289999999999
 30
0.0
 11
-84.579375999999996
 21
-8.4694289999999999
 31
0.0
  0
INSERT
  5
5F
  8
0
  6
CONTINUOUS
 62
     7
  2
_DOT
 10
-101.5793799999999
 20
-8.4694289999999999
 30
0.0
 50
180.0
  0
INSERT
  5
60
  8
0
  6
CONTINUOUS
 62
     7
  2
_DOT
 10
-84.579375999999996
 20
-8.4694289999999999
 30
0.0
  0
LINE
  5
61
  8
0
  6
CONTINUOUS
 62
     7
 10
-84.579375999999996
 20
3.9905710999999999
 30
0.0
 11
-84.579375999999996
 21
-8.4695291999999984
 31
0.0
  0
TEXT
  5
62
  8
0
  6
CONTINUOUS
 62
     7
 10
-94.150875999999997
 20
-7.7194289999999981
 30
0.0
 40
3.0
  1
B
  0
POINT
  5
63
  8
DEFPOINTS
  6
CONTINUOUS
 62
     7
 10
-101.5793799999999
 20
6.5305710000000001
 30
0.0
  0
POINT
  5
64
  8
DEFPOINTS
  6
CONTINUOUS
 62
     7
 10
-84.579375999999996
 20
6.5305710000000001
 30
0.0
  0
POINT
  5
65
  8
DEFPOINTS
  6
CONTINUOUS
 62
     7
 10
-84.579375999999996
 20
-8.4694289999999999
 30
0.0
  0
ENDBLK
  5
66
  8
0
  0
BLOCK
  8
0
  2
*D5
 70
     1
 10
0.0
 20
0.0
 30
0.0
  3
*D5
  1

  0
LINE
  5
69
  8
0
  6
CONTINUOUS
 62
     7
 10
-117.7787399999999
 20
-8.4694289999999999
 30
0.0
 11
-101.5793799999999
 21
-8.4694289999999999
 31
0.0
  0
INSERT
  5
6A
  8
0
  6
CONTINUOUS
 62
     7
  2
_DOT
 10
-117.7787399999999
 20
-8.4694289999999999
 30
0.0
 50
180.0
  0
INSERT
  5
6B
  8
0
  6
CONTINUOUS
 62
     7
  2
_DOT
 10
-101.5793799999999
 20
-8.4694289999999999
 30
0.0
  0
LINE
  5
6C
  8
0
  6
CONTINUOUS
 62
     7
 10
-117.7787399999999
 20
37.671017999999989
 30
0.0
 11
-117.7787399999999
 21
-8.4695291999999984
 31
0.0
  0
LINE
  5
6D
  8
0
  6
CONTINUOUS
 62
     7
 10
-101.5793799999999
 20
3.9905710999999999
 30
0.0
 11
-101.5793799999999
 21
-8.4695291999999984
 31
0.0
  0
TEXT
  5
6E
  8
0
  6
CONTINUOUS
 62
     7
 10
-110.75055999999999
 20
-7.7194289999999981
 30
0.0
 40
3.0
  1
F
  0
POINT
  5
6F
  8
DEFPOINTS
  6
CONTINUOUS
 62
     7
 10
-117.7787399999999
 20
40.211018000000003
 30
0.0
  0
POINT
  5
70
  8
DEFPOINTS
  6
CONTINUOUS
 62
     7
 10
-101.5793799999999
 20
6.5305710000000001
 30
0.0
  0
POINT
  5
71
  8
DEFPOINTS
  6
CONTINUOUS
 62
     7
 10
-101.5793799999999
 20
-8.4694289999999999
 30
0.0
  0
ENDBLK
  5
72
  8
0
  0
BLOCK
  8
0
  2
*D6
 70
     1
 10
0.0
 20
0.0
 30
0.0
  3
*D6
  1

  0
LINE
  5
75
  8
0
  6
CONTINUOUS
 62
     7
 10
-129.87938
 20
108.13056999999991
 30
0.0
 11
-64.079375999999996
 21
108.13056999999991
 31
0.0
  0
INSERT
  5
76
  8
0
  6
CONTINUOUS
 62
     7
  2
_DOT
 10
-129.87938
 20
108.13056999999991
 30
0.0
 50
180.0
  0
INSERT
  5
77
  8
0
  6
CONTINUOUS
 62
     7
  2
_DOT
 10
-64.079375999999996
 20
108.13056999999991
 30
0.0
  0
LINE
  5
78
  8
0
  6
CONTINUOUS
 62
     7
 10
-129.87938
 20
65.070571000000001
 30
0.0
 11
-129.87938
 21
108.13066999999999
 31
0.0
  0
LINE
  5
79
  8
0
  6
CONTINUOUS
 62
     7
 10
-64.079375999999996
 20
69.570571000000001
 30
0.0
 11
-64.079375999999996
 21
108.13066999999999
 31
0.0
  0
TEXT
  5
7A
  8
0
  6
CONTINUOUS
 62
     7
 10
-98.050877999999997
 20
108.88056999999991
 30
0.0
 40
3.0
  1
C
  0
POINT
  5
7B
  8
DEFPOINTS
  6
CONTINUOUS
 62
     7
 10
-129.87938
 20
62.530570999999988
 30
0.0
  0
POINT
  5
7C
  8
DEFPOINTS
  6
CONTINUOUS
 62
     7
 10
-64.079375999999996
 20
67.030570999999995
 30
0.0
  0
POINT
  5
7D
  8
DEFPOINTS
  6
CONTINUOUS
 62
     7
 10
-64.079375999999996
 20
108.13056999999991
 30
0.0
  0
ENDBLK
  5
7E
  8
0
  0
BLOCK
  8
0
  2
*D7
 70
     1
 10
0.0
 20
0.0
 30
0.0
  3
*D7
  1

  0
LINE
  5
81
  8
0
  6
CONTINUOUS
 62
     7
 10
-93.079375999999996
 20
93.130568999999994
 30
0.0
 11
-64.079375999999996
 21
93.130568999999994
 31
0.0
  0
INSERT
  5
82
  8
0
  6
CONTINUOUS
 62
     7
  2
_DOT
 10
-93.079375999999996
 20
93.130568999999994
 30
0.0
 50
180.0
  0
INSERT
  5
83
  8
0
  6
CONTINUOUS
 62
     7
  2
_DOT
 10
-64.079375999999996
 20
93.130568999999994
 30
0.0
  0
LINE
  5
84
  8
0
  6
CONTINUOUS
 62
     7
 10
-64.079375999999996
 20
69.570571000000001
 30
0.0
 11
-64.079375999999996
 21
93.130668999999997
 31
0.0
  0
TEXT
  5
85
  8
0
  6
CONTINUOUS
 62
     7
 10
-79.650875999999997
 20
93.880568999999994
 30
0.0
 40
3.0
  1
E
  0
POINT
  5
86
  8
DEFPOINTS
  6
CONTINUOUS
 62
     7
 10
-93.079375999999996
 20
82.630568999999994
 30
0.0
  0
POINT
  5
87
  8
DEFPOINTS
  6
CONTINUOUS
 62
     7
 10
-64.079375999999996
 20
67.030570999999995
 30
0.0
  0
POINT
  5
88
  8
DEFPOINTS
  6
CONTINUOUS
 62
     7
 10
-64.079375999999996
 20
93.130568999999994
 30
0.0
  0
ENDBLK
  5
89
  8
0
  0
BLOCK
  8
0
  2
*D8
 70
     1
 10
0.0
 20
0.0
 30
0.0
  3
*D8
  1

  0
LINE
  5
8C
  8
0
  6
CONTINUOUS
 62
     7
 10
-129.87938
 20
93.130568999999994
 30
0.0
 11
-93.079375999999996
 21
93.130568999999994
 31
0.0
  0
INSERT
  5
8D
  8
0
  6
CONTINUOUS
 62
     7
  2
_DOT
 10
-129.87938
 20
93.130568999999994
 30
0.0
 50
180.0
  0
INSERT
  5
8E
  8
0
  6
CONTINUOUS
 62
     7
  2
_DOT
 10
-93.079375999999996
 20
93.130568999999994
 30
0.0
  0
LINE
  5
8F
  8
0
  6
CONTINUOUS
 62
     7
 10
-129.87938
 20
65.070571000000001
 30
0.0
 11
-129.87938
 21
93.130668999999997
 31
0.0
  0
LINE
  5
90
  8
0
  6
CONTINUOUS
 62
     7
 10
-93.079375999999996
 20
85.170569
 30
0.0
 11
-93.079375999999996
 21
93.130668999999997
 31
0.0
  0
TEXT
  5
91
  8
0
  6
CONTINUOUS
 62
     7
 10
-112.55088000000001
 20
93.880568999999994
 30
0.0
 40
3.0
  1
D
  0
POINT
  5
92
  8
DEFPOINTS
  6
CONTINUOUS
 62
     7
 10
-129.87938
 20
62.530570999999988
 30
0.0
  0
POINT
  5
93
  8
DEFPOINTS
  6
CONTINUOUS
 62
     7
 10
-93.079375999999996
 20
82.630568999999994
 30
0.0
  0
POINT
  5
94
  8
DEFPOINTS
  6
CONTINUOUS
 62
     7
 10
-93.079375999999996
 20
93.130568999999994
 30
0.0
  0
ENDBLK
  5
95
  8
0
  0
BLOCK
  8
0
  2
*D9
 70
     1
 10
0.0
 20
0.0
 30
0.0
  3
*D9
  1

  0
LINE
  5
98
  8
0
  6
CONTINUOUS
 62
     7
 10
-18.659264
 20
100.13056999999991
 30
0.0
 11
-22.879218999999999
 21
100.13056999999991
 31
0.0
  0
LINE
  5
99
  8
0
  6
CONTINUOUS
 62
     7
 10
-18.659264
 20
100.13056999999991
 30
0.0
 11
-16.859264
 21
100.13056999999991
 31
0.0
  0
INSERT
  5
9A
  8
0
  6
CONTINUOUS
 62
     7
  2
_DOT
 10
-18.659264
 20
100.13056999999991
 30
0.0
 50
180.0
  0
INSERT
  5
9B
  8
0
  6
CONTINUOUS
 62
     7
  2
_DOT
 10
-16.859264
 20
100.13056999999991
 30
0.0
  0
LINE
  5
9C
  8
0
  6
CONTINUOUS
 62
     7
 10
-18.659264
 20
81.270568000000011
 30
0.0
 11
-18.659264
 21
100.1306699999999
 31
0.0
  0
LINE
  5
9D
  8
0
  6
CONTINUOUS
 62
     7
 10
-16.859264
 20
81.270568000000011
 30
0.0
 11
-16.859264
 21
100.1306699999999
 31
0.0
  0
TEXT
  5
9E
  8
0
  6
CONTINUOUS
 62
     7
 10
-22.87922
 20
100.88056999999991
 30
0.0
 40
3.0
  1
O
  0
POINT
  5
9F
  8
DEFPOINTS
  6
CONTINUOUS
 62
     7
 10
-18.659264
 20
78.730568000000005
 30
0.0
  0
POINT
  5
A0
  8
DEFPOINTS
  6
CONTINUOUS
 62
     7
 10
-16.859264
 20
78.730568000000005
 30
0.0
  0
POINT
  5
A1
  8
DEFPOINTS
  6
CONTINUOUS
 62
     7
 10
-16.859264
 20
100.13056999999991
 30
0.0
  0
ENDBLK
  5
A2
  8
0
  0
BLOCK
  8
0
  2
*D10
 70
     1
 10
0.0
 20
0.0
 30
0.0
  3
*D10
  1

  0
LINE
  5
A5
  8
0
  6
CONTINUOUS
 62
     7
 10
-16.859264
 20
100.13056999999991
 30
0.0
 11
-10.859263999999991
 21
100.13056999999991
 31
0.0
  0
INSERT
  5
A6
  8
0
  6
CONTINUOUS
 62
     7
  2
_DOT
 10
-16.859264
 20
100.13056999999991
 30
0.0
 50
180.0
  0
INSERT
  5
A7
  8
0
  6
CONTINUOUS
 62
     7
  2
_DOT
 10
-10.859263999999991
 20
100.13056999999991
 30
0.0
  0
LINE
  5
A8
  8
0
  6
CONTINUOUS
 62
     7
 10
-10.859263999999991
 20
87.670569
 30
0.0
 11
-10.859263999999991
 21
100.1306699999999
 31
0.0
  0
TEXT
  5
A9
  8
0
  6
CONTINUOUS
 62
     7
 10
-14.930764
 20
100.88056999999991
 30
0.0
 40
3.0
  1
P
  0
POINT
  5
AA
  8
DEFPOINTS
  6
CONTINUOUS
 62
     7
 10
-16.859264
 20
78.730568000000005
 30
0.0
  0
POINT
  5
AB
  8
DEFPOINTS
  6
CONTINUOUS
 62
     7
 10
-10.859263999999991
 20
85.130568999999994
 30
0.0
  0
POINT
  5
AC
  8
DEFPOINTS
  6
CONTINUOUS
 62
     7
 10
-10.859263999999991
 20
100.13056999999991
 30
0.0
  0
ENDBLK
  5
AD
  8
0
  0
BLOCK
  8
0
  2
*D11
 70
     1
 10
0.0
 20
0.0
 30
0.0
  3
*D11
  1

  0
LINE
  5
B0
  8
0
  6
CONTINUOUS
 62
     7
 10
-9.2592639999999982
 20
100.13056999999991
 30
0.0
 11
-4.6275786999999999
 21
100.13056999999991
 31
0.0
  0
LINE
  5
B1
  8
0
  6
CONTINUOUS
 62
     7
 10
-10.859263999999991
 20
100.13056999999991
 30
0.0
 11
-9.2592639999999982
 21
100.13056999999991
 31
0.0
  0
INSERT
  5
B2
  8
0
  6
CONTINUOUS
 62
     7
  2
_DOT
 10
-10.859263999999991
 20
100.13056999999991
 30
0.0
 50
180.0
  0
INSERT
  5
B3
  8
0
  6
CONTINUOUS
 62
     7
  2
_DOT
 10
-9.2592639999999982
 20
100.13056999999991
 30
0.0
  0
LINE
  5
B4
  8
0
  6
CONTINUOUS
 62
     7
 10
-9.2592639999999982
 20
87.670569
 30
0.0
 11
-9.2592639999999982
 21
100.1306699999999
 31
0.0
  0
TEXT
  5
B5
  8
0
  6
CONTINUOUS
 62
     7
 10
-6.7705785999999986
 20
100.88056999999991
 30
0.0
 40
3.0
  1
Q
  0
POINT
  5
B6
  8
DEFPOINTS
  6
CONTINUOUS
 62
     7
 10
-10.859263999999991
 20
85.130568999999994
 30
0.0
  0
POINT
  5
B7
  8
DEFPOINTS
  6
CONTINUOUS
 62
     7
 10
-9.2592639999999982
 20
85.130568999999994
 30
0.0
  0
POINT
  5
B8
  8
DEFPOINTS
  6
CONTINUOUS
 62
     7
 10
-9.2592639999999982
 20
100.13056999999991
 30
0.0
  0
ENDBLK
  5
B9
  8
0
  0
BLOCK
  8
0
  2
*D12
 70
     1
 10
0.0
 20
0.0
 30
0.0
  3
*D12
  1

  0
LINE
  5
BC
  8
0
  6
CONTINUOUS
 62
     7
 10
22.468886999999992
 20
78.730568000000005
 30
0.0
 11
22.468886999999992
 21
83.038871999999998
 31
0.0
  0
LINE
  5
BD
  8
0
  6
CONTINUOUS
 62
     7
 10
22.468886999999992
 20
78.730568000000005
 30
0.0
 11
22.468886999999992
 21
72.830566000000005
 31
0.0
  0
INSERT
  5
BE
  8
0
  6
CONTINUOUS
 62
     7
  2
_DOT
 10
22.468886999999992
 20
78.730568000000005
 30
0.0
 50
90.0
  0
INSERT
  5
BF
  8
0
  6
CONTINUOUS
 62
     7
  2
_DOT
 10
22.468886999999992
 20
72.830566000000005
 30
0.0
 50
270.0
  0
LINE
  5
C0
  8
0
  6
CONTINUOUS
 62
     7
 10
-6.7192641000000002
 20
78.730568000000005
 30
0.0
 11
22.468986999999998
 21
78.730568000000005
 31
0.0
  0
LINE
  5
C1
  8
0
  6
CONTINUOUS
 62
     7
 10
-6.7192641000000002
 20
72.830566000000005
 30
0.0
 11
22.468986999999998
 21
72.830566000000005
 31
0.0
  0
TEXT
  5
C2
  8
0
  6
CONTINUOUS
 62
     7
 10
21.718886999999992
 20
80.895868999999976
 30
0.0
 40
3.0
  1
K
 50
90.000003000000007
  0
POINT
  5
C3
  8
DEFPOINTS
  6
CONTINUOUS
 62
     7
 10
-9.2592639999999982
 20
78.730568000000005
 30
0.0
  0
POINT
  5
C4
  8
DEFPOINTS
  6
CONTINUOUS
 62
     7
 10
-9.2592639999999982
 20
72.830566000000005
 30
0.0
  0
POINT
  5
C5
  8
DEFPOINTS
  6
CONTINUOUS
 62
     7
 10
22.468886999999992
 20
72.830566000000005
 30
0.0
  0
ENDBLK
  5
C6
  8
0
  0
BLOCK
  8
0
  2
*D13
 70
     1
 10
0.0
 20
0.0
 30
0.0
  3
*D13
  1

  0
LINE
  5
C9
  8
0
  6
CONTINUOUS
 62
     7
 10
22.468886999999992
 20
72.830566000000005
 30
0.0
 11
22.468886999999992
 21
16.630569000000001
 31
0.0
  0
INSERT
  5
CA
  8
0
  6
CONTINUOUS
 62
     7
  2
_DOT
 10
22.468886999999992
 20
72.830566000000005
 30
0.0
 50
90.0
  0
INSERT
  5
CB
  8
0
  6
CONTINUOUS
 62
     7
  2
_DOT
 10
22.468886999999992
 20
16.630569000000001
 30
0.0
 50
270.0
  0
LINE
  5
CC
  8
0
  6
CONTINUOUS
 62
     7
 10
-8.9192648000000005
 20
16.630569000000001
 30
0.0
 11
22.468986999999998
 21
16.630569000000001
 31
0.0
  0
TEXT
  5
CD
  8
0
  6
CONTINUOUS
 62
     7
 10
21.718886999999992
 20
43.659067999999998
 30
0.0
 40
3.0
  1
J
 50
90.000003000000007
  0
POINT
  5
CE
  8
DEFPOINTS
  6
CONTINUOUS
 62
     7
 10
-9.2592639999999982
 20
72.830566000000005
 30
0.0
  0
POINT
  5
CF
  8
DEFPOINTS
  6
CONTINUOUS
 62
     7
 10
-11.459265
 20
16.630569000000001
 30
0.0
  0
POINT
  5
D0
  8
DEFPOINTS
  6
CONTINUOUS
 62
     7
 10
22.468886999999992
 20
16.630569000000001
 30
0.0
  0
ENDBLK
  5
D1
  8
0
  0
BLOCK
  8
0
  2
*D14
 70
     1
 10
0.0
 20
0.0
 30
0.0
  3
*D14
  1

  0
LINE
  5
D4
  8
0
  6
CONTINUOUS
 62
     7
 10
22.468886999999992
 20
10.730572
 30
0.0
 11
22.468886999999992
 21
5.025401099999999
 31
0.0
  0
LINE
  5
D5
  8
0
  6
CONTINUOUS
 62
     7
 10
22.468886999999992
 20
16.630569000000001
 30
0.0
 11
22.468886999999992
 21
10.730572
 31
0.0
  0
INSERT
  5
D6
  8
0
  6
CONTINUOUS
 62
     7
  2
_DOT
 10
22.468886999999992
 20
16.630569000000001
 30
0.0
 50
90.0
  0
INSERT
  5
D7
  8
0
  6
CONTINUOUS
 62
     7
  2
_DOT
 10
22.468886999999992
 20
10.730572
 30
0.0
 50
270.0
  0
LINE
  5
D8
  8
0
  6
CONTINUOUS
 62
     7
 10
-14.319264
 20
10.730572
 30
0.0
 11
22.468986999999998
 21
10.730572
 31
0.0
  0
TEXT
  5
D9
  8
0
  6
CONTINUOUS
 62
     7
 10
21.718886999999992
 20
5.025400799999999
 30
0.0
 40
3.0
  1
K
 50
90.000003000000007
  0
POINT
  5
DA
  8
DEFPOINTS
  6
CONTINUOUS
 62
     7
 10
-11.459265
 20
16.630569000000001
 30
0.0
  0
POINT
  5
DB
  8
DEFPOINTS
  6
CONTINUOUS
 62
     7
 10
-16.859264
 20
10.730572
 30
0.0
  0
POINT
  5
DC
  8
DEFPOINTS
  6
CONTINUOUS
 62
     7
 10
22.468886999999992
 20
10.730572
 30
0.0
  0
ENDBLK
  5
DD
  8
0
  0
BLOCK
  8
0
  2
*D15
 70
     1
 10
0.0
 20
0.0
 30
0.0
  3
*D15
  1

  0
LINE
  5
E0
  8
0
  6
CONTINUOUS
 62
     7
 10
7.4688853999999996
 20
11.330568
 30
0.0
 11
7.4688853999999996
 21
5.025401099999999
 31
0.0
  0
LINE
  5
E1
  8
0
  6
CONTINUOUS
 62
     7
 10
7.4688853999999996
 20
11.330568
 30
0.0
 11
7.4688853999999996
 21
14.53056499999999
 31
0.0
  0
INSERT
  5
E2
  8
0
  6
CONTINUOUS
 62
     7
  2
_DOT
 10
7.4688853999999996
 20
11.330568
 30
0.0
 50
270.0
  0
INSERT
  5
E3
  8
0
  6
CONTINUOUS
 62
     7
  2
_DOT
 10
7.4688853999999996
 20
14.53056499999999
 30
0.0
 50
90.0
  0
LINE
  5
E4
  8
0
  6
CONTINUOUS
 62
     7
 10
-12.91926499999999
 20
11.330568
 30
0.0
 11
7.468984599999998
 21
11.330568
 31
0.0
  0
LINE
  5
E5
  8
0
  6
CONTINUOUS
 62
     7
 10
-12.91926499999999
 20
14.53056499999999
 30
0.0
 11
7.468984599999998
 21
14.53056499999999
 31
0.0
  0
TEXT
  5
E6
  8
0
  6
CONTINUOUS
 62
     7
 10
6.718885499999999
 20
5.025400799999999
 30
0.0
 40
3.0
  1
L
 50
90.000003000000007
  0
POINT
  5
E7
  8
DEFPOINTS
  6
CONTINUOUS
 62
     7
 10
-15.459265
 20
11.330568
 30
0.0
  0
POINT
  5
E8
  8
DEFPOINTS
  6
CONTINUOUS
 62
     7
 10
-15.459265
 20
14.53056499999999
 30
0.0
  0
POINT
  5
E9
  8
DEFPOINTS
  6
CONTINUOUS
 62
     7
 10
7.4688853999999996
 20
14.53056499999999
 30
0.0
  0
ENDBLK
  5
EA
  8
0
  0
BLOCK
  8
0
  2
*D16
 70
     1
 10
0.0
 20
0.0
 30
0.0
  3
*D16
  1

  0
LINE
  5
ED
  8
0
  6
CONTINUOUS
 62
     7
 10
37.468887000000002
 20
10.730572
 30
0.0
 11
37.468887000000002
 21
5.025401099999999
 31
0.0
  0
LINE
  5
EE
  8
0
  6
CONTINUOUS
 62
     7
 10
37.468887000000002
 20
10.730572
 30
0.0
 11
37.468887000000002
 21
12.930567
 31
0.0
  0
INSERT
  5
EF
  8
0
  6
CONTINUOUS
 62
     7
  2
_DOT
 10
37.468887000000002
 20
10.730572
 30
0.0
 50
270.0
  0
INSERT
  5
F0
  8
0
  6
CONTINUOUS
 62
     7
  2
_DOT
 10
37.468887000000002
 20
12.930567
 30
0.0
 50
90.0
  0
LINE
  5
F1
  8
0
  6
CONTINUOUS
 62
     7
 10
-14.319264
 20
10.730572
 30
0.0
 11
37.468986999999998
 21
10.730572
 31
0.0
  0
LINE
  5
F2
  8
0
  6
CONTINUOUS
 62
     7
 10
-10.319264
 20
12.930567
 30
0.0
 11
37.468986999999998
 21
12.930567
 31
0.0
  0
TEXT
  5
F3
  8
0
  6
CONTINUOUS
 62
     7
 10
36.718887000000002
 20
5.025400799999999
 30
0.0
 40
3.0
  1
I
 50
90.000003000000007
 41
0.6666666700000001
  0
POINT
  5
F4
  8
DEFPOINTS
  6
CONTINUOUS
 62
     7
 10
-16.859264
 20
10.730572
 30
0.0
  0
POINT
  5
F5
  8
DEFPOINTS
  6
CONTINUOUS
 62
     7
 10
-12.859264
 20
12.930567
 30
0.0
  0
POINT
  5
F6
  8
DEFPOINTS
  6
CONTINUOUS
 62
     7
 10
37.468887000000002
 20
12.930567
 30
0.0
  0
ENDBLK
  5
F7
  8
0
  0
BLOCK
  8
0
  2
*D17
 70
     1
 10
0.0
 20
0.0
 30
0.0
  3
*D17
  1

  0
LINE
  5
FA
  8
0
  6
CONTINUOUS
 62
     7
 10
37.468887000000002
 20
12.930567
 30
0.0
 11
37.468887000000002
 21
76.530570999999995
 31
0.0
  0
INSERT
  5
FB
  8
0
  6
CONTINUOUS
 62
     7
  2
_DOT
 10
37.468887000000002
 20
12.930567
 30
0.0
 50
270.0
  0
INSERT
  5
FC
  8
0
  6
CONTINUOUS
 62
     7
  2
_DOT
 10
37.468887000000002
 20
76.530570999999995
 30
0.0
 50
90.0
  0
LINE
  5
FD
  8
0
  6
CONTINUOUS
 62
     7
 10
-10.319264
 20
76.530570999999995
 30
0.0
 11
37.468986999999998
 21
76.530570999999995
 31
0.0
  0
TEXT
  5
FE
  8
0
  6
CONTINUOUS
 62
     7
 10
36.718887000000002
 20
43.659067999999998
 30
0.0
 40
3.0
  1
H
 50
90.000003000000007
  0
POINT
  5
FF
  8
DEFPOINTS
  6
CONTINUOUS
 62
     7
 10
-12.859264
 20
12.930567
 30
0.0
  0
POINT
  5
100
  8
DEFPOINTS
  6
CONTINUOUS
 62
     7
 10
-12.859264
 20
76.530570999999995
 30
0.0
  0
POINT
  5
101
  8
DEFPOINTS
  6
CONTINUOUS
 62
     7
 10
37.468887000000002
 20
76.530570999999995
 30
0.0
  0
ENDBLK
  5
102
  8
0
  0
BLOCK
  8
0
  2
*D18
 70
     1
 10
0.0
 20
0.0
 30
0.0
  3
*D18
  1

  0
LINE
  5
105
  8
0
  6
CONTINUOUS
 62
     7
 10
37.468887000000002
 20
78.730568000000005
 30
0.0
 11
37.468887000000002
 21
83.530738999999997
 31
0.0
  0
LINE
  5
106
  8
0
  6
CONTINUOUS
 62
     7
 10
37.468887000000002
 20
78.730568000000005
 30
0.0
 11
37.468887000000002
 21
76.530570999999995
 31
0.0
  0
INSERT
  5
107
  8
0
  6
CONTINUOUS
 62
     7
  2
_DOT
 10
37.468887000000002
 20
78.730568000000005
 30
0.0
 50
90.0
  0
INSERT
  5
108
  8
0
  6
CONTINUOUS
 62
     7
  2
_DOT
 10
37.468887000000002
 20
76.530570999999995
 30
0.0
 50
270.0
  0
LINE
  5
109
  8
0
  6
CONTINUOUS
 62
     7
 10
-14.319264
 20
78.730568000000005
 30
0.0
 11
37.468986999999998
 21
78.730568000000005
 31
0.0
  0
TEXT
  5
10A
  8
0
  6
CONTINUOUS
 62
     7
 10
36.718887000000002
 20
81.387736000000004
 30
0.0
 40
3.0
  1
I
 50
90.000003000000007
 41
0.6666666700000001
  0
POINT
  5
10B
  8
DEFPOINTS
  6
CONTINUOUS
 62
     7
 10
-16.859264
 20
78.730568000000005
 30
0.0
  0
POINT
  5
10C
  8
DEFPOINTS
  6
CONTINUOUS
 62
     7
 10
-12.859264
 20
76.530570999999995
 30
0.0
  0
POINT
  5
10D
  8
DEFPOINTS
  6
CONTINUOUS
 62
     7
 10
37.468887000000002
 20
76.530570999999995
 30
0.0
  0
ENDBLK
  5
10E
  8
0
  0
BLOCK
  8
0
  2
*D19
 70
     1
 10
0.0
 20
0.0
 30
0.0
  3
*D19
  1

  0
LINE
  5
111
  8
0
  6
CONTINUOUS
 62
     7
 10
-18.659264
 20
-4.2694282999999986
 30
0.0
 11
-24.282795
 21
-4.2694282999999986
 31
0.0
  0
LINE
  5
112
  8
0
  6
CONTINUOUS
 62
     7
 10
-18.659264
 20
-4.2694282999999986
 30
0.0
 11
-15.459265
 21
-4.2694282999999986
 31
0.0
  0
INSERT
  5
113
  8
0
  6
CONTINUOUS
 62
     7
  2
_DOT
 10
-18.659264
 20
-4.2694282999999986
 30
0.0
 50
180.0
  0
INSERT
  5
114
  8
0
  6
CONTINUOUS
 62
     7
  2
_DOT
 10
-15.459265
 20
-4.2694282999999986
 30
0.0
  0
LINE
  5
115
  8
0
  6
CONTINUOUS
 62
     7
 10
-18.659264
 20
8.1905717999999972
 30
0.0
 11
-18.659264
 21
-4.2695283999999996
 31
0.0
  0
LINE
  5
116
  8
0
  6
CONTINUOUS
 62
     7
 10
-15.459265
 20
8.7905684000000015
 30
0.0
 11
-15.459265
 21
-4.2695283999999996
 31
0.0
  0
TEXT
  5
117
  8
0
  6
CONTINUOUS
 62
     7
 10
-24.282793999999999
 20
-3.5194282999999991
 30
0.0
 40
3.0
  1
M
  0
POINT
  5
118
  8
DEFPOINTS
  6
CONTINUOUS
 62
     7
 10
-18.659264
 20
10.730572
 30
0.0
  0
POINT
  5
119
  8
DEFPOINTS
  6
CONTINUOUS
 62
     7
 10
-15.459265
 20
11.330568
 30
0.0
  0
POINT
  5
11A
  8
DEFPOINTS
  6
CONTINUOUS
 62
     7
 10
-15.459265
 20
-4.2694282999999986
 30
0.0
  0
ENDBLK
  5
11B
  8
0
  0
BLOCK
  8
0
  2
*D20
 70
     1
 10
0.0
 20
0.0
 30
0.0
  3
*D20
  1

  0
LINE
  5
11E
  8
0
  6
CONTINUOUS
 62
     7
 10
-10.859263999999991
 20
-4.2694282999999986
 30
0.0
 11
-5.6342391999999988
 21
-4.2694282999999986
 31
0.0
  0
LINE
  5
11F
  8
0
  6
CONTINUOUS
 62
     7
 10
-15.459265
 20
-4.2694282999999986
 30
0.0
 11
-10.859263999999991
 21
-4.2694282999999986
 31
0.0
  0
INSERT
  5
120
  8
0
  6
CONTINUOUS
 62
     7
  2
_DOT
 10
-15.459265
 20
-4.2694282999999986
 30
0.0
 50
180.0
  0
INSERT
  5
121
  8
0
  6
CONTINUOUS
 62
     7
  2
_DOT
 10
-10.859263999999991
 20
-4.2694282999999986
 30
0.0
  0
LINE
  5
122
  8
0
  6
CONTINUOUS
 62
     7
 10
-10.859263999999991
 20
26.190567999999999
 30
0.0
 11
-10.859263999999991
 21
-4.2695283999999996
 31
0.0
  0
TEXT
  5
123
  8
0
  6
CONTINUOUS
 62
     7
 10
-7.7772395999999988
 20
-3.5194282999999991
 30
0.0
 40
3.0
  1
N
  0
POINT
  5
124
  8
DEFPOINTS
  6
CONTINUOUS
 62
     7
 10
-15.459265
 20
11.330568
 30
0.0
  0
POINT
  5
125
  8
DEFPOINTS
  6
CONTINUOUS
 62
     7
 10
-10.859263999999991
 20
28.730568000000002
 30
0.0
  0
POINT
  5
126
  8
DEFPOINTS
  6
CONTINUOUS
 62
     7
 10
-10.859263999999991
 20
-4.2694282999999986
 30
0.0
  0
ENDBLK
  5
127
  8
0
  0
BLOCK
  8
0
  2
*D21
 70
     1
 10
0.0
 20
0.0
 30
0.0
  3
*D21
  1

  0
LINE
  5
12A
  8
0
  6
CONTINUOUS
 62
     7
 10
68.301940999999985
 20
-2.6694336000000001
 30
0.0
 11
57.746834
 21
-2.6694336000000001
 31
0.0
  0
LINE
  5
12B
  8
0
  6
CONTINUOUS
 62
     7
 10
68.301940999999985
 20
-2.6694336000000001
 30
0.0
 11
73.301940999999985
 21
-2.6694336000000001
 31
0.0
  0
INSERT
  5
12C
  8
0
  6
CONTINUOUS
 62
     7
  2
_DOT
 10
68.301940999999985
 20
-2.6694336000000001
 30
0.0
 50
180.0
  0
INSERT
  5
12D
  8
0
  6
CONTINUOUS
 62
     7
  2
_DOT
 10
73.301940999999985
 20
-2.6694336000000001
 30
0.0
  0
LINE
  5
12E
  8
0
  6
CONTINUOUS
 62
     7
 10
68.301940999999985
 20
12.290566
 30
0.0
 11
68.301940999999985
 21
-2.6695337000000001
 31
0.0
  0
LINE
  5
12F
  8
0
  6
CONTINUOUS
 62
     7
 10
73.301940999999985
 20
12.290566
 30
0.0
 11
73.301940999999985
 21
-2.6695337000000001
 31
0.0
  0
TEXT
  5
130
  8
0
  6
CONTINUOUS
 62
     7
 10
57.746836000000002
 20
-1.919433599999999
 30
0.0
 40
3.0
  1
切カキ　Ｔ
 41
0.84891958
  0
POINT
  5
131
  8
DEFPOINTS
  6
CONTINUOUS
 62
     7
 10
68.301940999999985
 20
14.830565999999999
 30
0.0
  0
POINT
  5
132
  8
DEFPOINTS
  6
CONTINUOUS
 62
     7
 10
73.301940999999985
 20
14.830565999999999
 30
0.0
  0
POINT
  5
133
  8
DEFPOINTS
  6
CONTINUOUS
 62
     7
 10
73.301940999999985
 20
-2.6694336000000001
 30
0.0
  0
ENDBLK
  5
134
  8
0
  0
BLOCK
  8
0
  2
*D22
 70
     1
 10
0.0
 20
0.0
 30
0.0
  3
*D22
  1

  0
LINE
  5
137
  8
0
  6
CONTINUOUS
 62
     7
 10
64.301940999999999
 20
28.98415399999999
 30
0.0
 11
77.301940999999999
 21
28.98415399999999
 31
0.0
  0
INSERT
  5
138
  8
0
  6
CONTINUOUS
 62
     7
  2
_DOT
 10
64.301940999999999
 20
28.98415399999999
 30
0.0
 50
180.0
  0
INSERT
  5
139
  8
0
  6
CONTINUOUS
 62
     7
  2
_DOT
 10
77.301940999999999
 20
28.98415399999999
 30
0.0
  0
TEXT
  5
13A
  8
0
  6
CONTINUOUS
 62
     7
 10
72.899187999999995
 20
29.734154
 30
0.0
 40
3.0
  1
S
  0
POINT
  5
13B
  8
DEFPOINTS
  6
CONTINUOUS
 62
     7
 10
64.301940999999999
 20
28.98415399999999
 30
0.0
  0
POINT
  5
13C
  8
DEFPOINTS
  6
CONTINUOUS
 62
     7
 10
77.301940999999999
 20
28.98415399999999
 30
0.0
  0
POINT
  5
13D
  8
DEFPOINTS
  6
CONTINUOUS
 62
     7
 10
77.301940999999999
 20
28.98415399999999
 30
0.0
  0
ENDBLK
  5
13E
  8
0
  0
BLOCK
  8
0
  2
*D23
 70
     1
 10
0.0
 20
0.0
 30
0.0
  3
*D23
  1

  0
LINE
  5
141
  8
0
  6
CONTINUOUS
 62
     7
 10
92.301940999999999
 20
73.330566000000005
 30
0.0
 11
92.301940999999999
 21
17.330566000000001
 31
0.0
  0
INSERT
  5
142
  8
0
  6
CONTINUOUS
 62
     7
  2
_DOT
 10
92.301940999999999
 20
73.330566000000005
 30
0.0
 50
90.0
  0
INSERT
  5
143
  8
0
  6
CONTINUOUS
 62
     7
  2
_DOT
 10
92.301940999999999
 20
17.330566000000001
 30
0.0
 50
270.0
  0
LINE
  5
144
  8
0
  6
CONTINUOUS
 62
     7
 10
79.841941000000006
 20
73.330566000000005
 30
0.0
 11
92.302040000000005
 21
73.330566000000005
 31
0.0
  0
LINE
  5
145
  8
0
  6
CONTINUOUS
 62
     7
 10
79.841941000000006
 20
17.330566000000001
 30
0.0
 11
92.302040000000005
 21
17.330566000000001
 31
0.0
  0
TEXT
  5
146
  8
0
  6
CONTINUOUS
 62
     7
 10
91.551941000000014
 20
44.259065999999997
 30
0.0
 40
3.0
  1
R
 50
90.000003000000007
  0
POINT
  5
147
  8
DEFPOINTS
  6
CONTINUOUS
 62
     7
 10
77.301940999999999
 20
73.330566000000005
 30
0.0
  0
POINT
  5
148
  8
DEFPOINTS
  6
CONTINUOUS
 62
     7
 10
77.301940999999999
 20
17.330566000000001
 30
0.0
  0
POINT
  5
149
  8
DEFPOINTS
  6
CONTINUOUS
 62
     7
 10
92.301940999999999
 20
17.330566000000001
 30
0.0
  0
ENDBLK
  5
14A
  8
0
  0
BLOCK
  8
0
  2
*D24
 70
     1
 10
0.0
 20
0.0
 30
0.0
  3
*D24
  1

  0
LINE
  5
14D
  8
0
  6
CONTINUOUS
 62
     7
 10
107.3019399999999
 20
75.830566000000005
 30
0.0
 11
107.3019399999999
 21
14.830565999999999
 31
0.0
  0
INSERT
  5
14E
  8
0
  6
CONTINUOUS
 62
     7
  2
_DOT
 10
107.3019399999999
 20
75.830566000000005
 30
0.0
 50
90.0
  0
INSERT
  5
14F
  8
0
  6
CONTINUOUS
 62
     7
  2
_DOT
 10
107.3019399999999
 20
14.830565999999999
 30
0.0
 50
270.0
  0
LINE
  5
150
  8
0
  6
CONTINUOUS
 62
     7
 10
78.341941000000006
 20
75.830566000000005
 30
0.0
 11
107.30203999999991
 21
75.830566000000005
 31
0.0
  0
LINE
  5
151
  8
0
  6
CONTINUOUS
 62
     7
 10
78.341941000000006
 20
14.830565999999999
 30
0.0
 11
107.30203999999991
 21
14.830565999999999
 31
0.0
  0
TEXT
  5
152
  8
0
  6
CONTINUOUS
 62
     7
 10
106.5519399999999
 20
44.259065999999997
 30
0.0
 40
3.0
  1
H
 50
90.000003000000007
  0
POINT
  5
153
  8
DEFPOINTS
  6
CONTINUOUS
 62
     7
 10
75.801940999999985
 20
75.830566000000005
 30
0.0
  0
POINT
  5
154
  8
DEFPOINTS
  6
CONTINUOUS
 62
     7
 10
75.801940999999985
 20
14.830565999999999
 30
0.0
  0
POINT
  5
155
  8
DEFPOINTS
  6
CONTINUOUS
 62
     7
 10
107.3019399999999
 20
14.830565999999999
 30
0.0
  0
ENDBLK
  5
156
  8
0
  0
BLOCK
  8
0
  2
*D25
 70
     1
 10
0.0
 20
0.0
 30
0.0
  3
*D25
  1

  0
LINE
  5
159
  8
0
  6
CONTINUOUS
 62
     7
 10
-119.78445000000001
 20
68.530570999999995
 30
0.0
 11
-119.78445000000001
 21
56.530570999999988
 31
0.0
  0
INSERT
  5
15A
  8
0
  6
CONTINUOUS
 62
     7
  2
_DOT
 10
-119.78445000000001
 20
68.530570999999995
 30
0.0
 50
90.0
  0
INSERT
  5
15B
  8
0
  6
CONTINUOUS
 62
     7
  2
_DOT
 10
-119.78445000000001
 20
56.530570999999988
 30
0.0
 50
270.0
  0
TEXT
  5
15C
  8
0
  6
CONTINUOUS
 62
     7
 10
-120.53445000000001
 20
61.459070999999987
 30
0.0
 40
3.0
  1
G
 50
90.000003000000007
  0
POINT
  5
15D
  8
DEFPOINTS
  6
CONTINUOUS
 62
     7
 10
-123.4793699999999
 20
68.530570999999995
 30
0.0
  0
POINT
  5
15E
  8
DEFPOINTS
  6
CONTINUOUS
 62
     7
 10
-128.87938
 20
56.530570999999988
 30
0.0
  0
POINT
  5
15F
  8
DEFPOINTS
  6
CONTINUOUS
 62
     7
 10
-119.78445000000001
 20
56.530570999999988
 30
0.0
  0
ENDBLK
  5
160
  8
0
  0
BLOCK
  8
0
  2
*D26
 70
     1
 10
0.0
 20
0.0
 30
0.0
  3
*D26
  1

  0
LINE
  5
163
  8
0
  6
CONTINUOUS
 62
     7
 10
-33.303412999999999
 20
-27.099367000000001
 30
0.0
 11
-24.303412999999999
 21
-27.099367000000001
 31
0.0
  0
INSERT
  5
164
  8
0
  6
CONTINUOUS
 62
     7
  2
_DOT
 10
-33.303412999999999
 20
-27.099367000000001
 30
0.0
 50
180.0
  0
INSERT
  5
165
  8
0
  6
CONTINUOUS
 62
     7
  2
_DOT
 10
-24.303412999999999
 20
-27.099367000000001
 30
0.0
  0
LINE
  5
166
  8
0
  6
CONTINUOUS
 62
     7
 10
-33.303412999999999
 20
-13.569653000000001
 30
0.0
 11
-33.303412999999999
 21
-27.099465999999989
 31
0.0
  0
LINE
  5
167
  8
0
  6
CONTINUOUS
 62
     7
 10
-24.303412999999999
 20
-13.569653000000001
 30
0.0
 11
-24.303412999999999
 21
-27.099465999999989
 31
0.0
  0
TEXT
  5
168
  8
0
  6
CONTINUOUS
 62
     7
 10
-31.374912999999999
 20
-26.34936699999999
 30
0.0
 40
3.0
  1
%%C9
 41
0.9233393399999998
  0
POINT
  5
169
  8
DEFPOINTS
  6
CONTINUOUS
 62
     7
 10
-33.303412999999999
 20
-11.029652999999991
 30
0.0
  0
POINT
  5
16A
  8
DEFPOINTS
  6
CONTINUOUS
 62
     7
 10
-24.303412999999999
 20
-11.029652999999991
 30
0.0
  0
POINT
  5
16B
  8
DEFPOINTS
  6
CONTINUOUS
 62
     7
 10
-24.303412999999999
 20
-27.099367000000001
 30
0.0
  0
ENDBLK
  5
16C
  8
0
  0
BLOCK
  8
0
  2
*D27
 70
     1
 10
0.0
 20
0.0
 30
0.0
  3
*D27
  1

  0
LINE
  5
16F
  8
0
  6
CONTINUOUS
 62
     7
 10
-32.303412999999999
 20
28.400632999999999
 30
0.0
 11
-25.303412999999988
 21
28.400632999999999
 31
0.0
  0
INSERT
  5
170
  8
0
  6
CONTINUOUS
 62
     7
  2
_DOT
 10
-32.303412999999999
 20
28.400632999999999
 30
0.0
 50
180.0
  0
INSERT
  5
171
  8
0
  6
CONTINUOUS
 62
     7
  2
_DOT
 10
-25.303412999999988
 20
28.400632999999999
 30
0.0
  0
LINE
  5
172
  8
0
  6
CONTINUOUS
 62
     7
 10
-32.303412999999999
 20
-4.0593671999999987
 30
0.0
 11
-32.303412999999999
 21
28.400732000000001
 31
0.0
  0
LINE
  5
173
  8
0
  6
CONTINUOUS
 62
     7
 10
-25.303412999999988
 20
-4.0593671999999987
 30
0.0
 11
-25.303412999999988
 21
28.400732000000001
 31
0.0
  0
TEXT
  5
174
  8
0
  6
CONTINUOUS
 62
     7
 10
-31.374912999999999
 20
29.150632999999999
 30
0.0
 40
3.0
  1
%%C7
 41
0.9233393399999998
  0
POINT
  5
175
  8
DEFPOINTS
  6
CONTINUOUS
 62
     7
 10
-32.303412999999999
 20
-6.5993671000000003
 30
0.0
  0
POINT
  5
176
  8
DEFPOINTS
  6
CONTINUOUS
 62
     7
 10
-25.303412999999988
 20
-6.5993671000000003
 30
0.0
  0
POINT
  5
177
  8
DEFPOINTS
  6
CONTINUOUS
 62
     7
 10
-25.303412999999988
 20
28.400632999999999
 30
0.0
  0
ENDBLK
  5
178
  8
0
  0
BLOCK
  8
0
  2
*D28
 70
     1
 10
0.0
 20
0.0
 30
0.0
  3
*D28
  1

  0
LINE
  5
17B
  8
0
  6
CONTINUOUS
 62
     7
 10
-31.303412999999988
 20
13.40063299999999
 30
0.0
 11
-26.303412999999988
 21
13.40063299999999
 31
0.0
  0
INSERT
  5
17C
  8
0
  6
CONTINUOUS
 62
     7
  2
_DOT
 10
-31.303412999999988
 20
13.40063299999999
 30
0.0
 50
180.0
  0
INSERT
  5
17D
  8
0
  6
CONTINUOUS
 62
     7
  2
_DOT
 10
-26.303412999999988
 20
13.40063299999999
 30
0.0
  0
LINE
  5
17E
  8
0
  6
CONTINUOUS
 62
     7
 10
-31.303412999999988
 20
-4.0593671999999987
 30
0.0
 11
-31.303412999999988
 21
13.400733000000001
 31
0.0
  0
LINE
  5
17F
  8
0
  6
CONTINUOUS
 62
     7
 10
-26.303412999999988
 20
-4.0593671999999987
 30
0.0
 11
-26.303412999999988
 21
13.400733000000001
 31
0.0
  0
TEXT
  5
180
  8
0
  6
CONTINUOUS
 62
     7
 10
-31.374912999999999
 20
14.15063299999999
 30
0.0
 40
3.0
  1
%%C5
 41
0.9233393399999998
  0
POINT
  5
181
  8
DEFPOINTS
  6
CONTINUOUS
 62
     7
 10
-31.303412999999988
 20
-6.5993671000000003
 30
0.0
  0
POINT
  5
182
  8
DEFPOINTS
  6
CONTINUOUS
 62
     7
 10
-26.303412999999988
 20
-6.5993671000000003
 30
0.0
  0
POINT
  5
183
  8
DEFPOINTS
  6
CONTINUOUS
 62
     7
 10
-26.303412999999988
 20
13.40063299999999
 30
0.0
  0
ENDBLK
  5
184
  8
0
  0
BLOCK
  8
0
  2
*D29
 70
     1
 10
0.0
 20
0.0
 30
0.0
  3
*D29
  1

  0
LINE
  5
187
  8
0
  6
CONTINUOUS
 62
     7
 10
-9.3034134000000002
 20
-12.099367000000001
 30
0.0
 11
-9.3034134000000002
 21
-16.603591999999999
 31
0.0
  0
LINE
  5
188
  8
0
  6
CONTINUOUS
 62
     7
 10
-9.3034134000000002
 20
-9.0993671000000003
 30
0.0
 11
-9.3034134000000002
 21
-12.099367000000001
 31
0.0
  0
INSERT
  5
189
  8
0
  6
CONTINUOUS
 62
     7
  2
_DOT
 10
-9.3034134000000002
 20
-9.0993671000000003
 30
0.0
 50
90.0
  0
INSERT
  5
18A
  8
0
  6
CONTINUOUS
 62
     7
  2
_DOT
 10
-9.3034134000000002
 20
-12.099367000000001
 30
0.0
 50
270.0
  0
LINE
  5
18B
  8
0
  6
CONTINUOUS
 62
     7
 10
-21.763413
 20
-9.0993671000000003
 30
0.0
 11
-9.303313300000001
 21
-9.0993671000000003
 31
0.0
  0
LINE
  5
18C
  8
0
  6
CONTINUOUS
 62
     7
 10
-26.263412999999989
 20
-12.099367000000001
 30
0.0
 11
-9.303313300000001
 21
-12.099367000000001
 31
0.0
  0
TEXT
  5
18D
  8
0
  6
CONTINUOUS
 62
     7
 10
-10.053413000000001
 20
-16.603591000000002
 30
0.0
 40
3.0
  1
3
 50
90.000003000000007
  0
POINT
  5
18E
  8
DEFPOINTS
  6
CONTINUOUS
 62
     7
 10
-24.303412999999999
 20
-9.0993671000000003
 30
0.0
  0
POINT
  5
18F
  8
DEFPOINTS
  6
CONTINUOUS
 62
     7
 10
-28.803412999999988
 20
-12.099367000000001
 30
0.0
  0
POINT
  5
190
  8
DEFPOINTS
  6
CONTINUOUS
 62
     7
 10
-9.3034134000000002
 20
-12.099367000000001
 30
0.0
  0
ENDBLK
  5
191
  8
0
  0
BLOCK
  8
0
  2
*D30
 70
     1
 10
0.0
 20
0.0
 30
0.0
  3
*D30
  1

  0
LINE
  5
194
  8
0
  6
CONTINUOUS
 62
     7
 10
-9.3034134000000002
 20
-6.5993671000000003
 30
0.0
 11
-9.3034134000000002
 21
-1.5993671
 31
0.0
  0
INSERT
  5
195
  8
0
  6
CONTINUOUS
 62
     7
  2
_DOT
 10
-9.3034134000000002
 20
-6.5993671000000003
 30
0.0
 50
270.0
  0
INSERT
  5
196
  8
0
  6
CONTINUOUS
 62
     7
  2
_DOT
 10
-9.3034134000000002
 20
-1.5993671
 30
0.0
 50
90.0
  0
LINE
  5
197
  8
0
  6
CONTINUOUS
 62
     7
 10
-22.763412999999989
 20
-6.5993671000000003
 30
0.0
 11
-9.303313300000001
 21
-6.5993671000000003
 31
0.0
  0
LINE
  5
198
  8
0
  6
CONTINUOUS
 62
     7
 10
-26.263412999999989
 20
-1.5993671
 30
0.0
 11
-9.303313300000001
 21
-1.5993671
 31
0.0
  0
TEXT
  5
199
  8
0
  6
CONTINUOUS
 62
     7
 10
-10.053413000000001
 20
-5.1708671999999991
 30
0.0
 40
3.0
  1
5
 50
90.000003000000007
  0
POINT
  5
19A
  8
DEFPOINTS
  6
CONTINUOUS
 62
     7
 10
-25.303412999999988
 20
-6.5993671000000003
 30
0.0
  0
POINT
  5
19B
  8
DEFPOINTS
  6
CONTINUOUS
 62
     7
 10
-28.803412999999988
 20
-1.5993671
 30
0.0
  0
POINT
  5
19C
  8
DEFPOINTS
  6
CONTINUOUS
 62
     7
 10
-9.3034134000000002
 20
-1.5993671
 30
0.0
  0
ENDBLK
  5
19D
  8
0
  0
BLOCK
  8
0
  2
*D31
 70
     1
 10
0.0
 20
0.0
 30
0.0
  3
*D31
  1

  0
LINE
  5
1A0
  8
0
  6
CONTINUOUS
 62
     7
 10
-9.3034134000000002
 20
-6.5993671000000003
 30
0.0
 11
-9.3034134000000002
 21
-9.0993671000000003
 31
0.0
  0
INSERT
  5
1A1
  8
0
  6
CONTINUOUS
 62
     7
  2
_DOT
 10
-9.3034134000000002
 20
-6.5993671000000003
 30
0.0
 50
90.0
  0
INSERT
  5
1A2
  8
0
  6
CONTINUOUS
 62
     7
  2
_DOT
 10
-9.3034134000000002
 20
-9.0993671000000003
 30
0.0
 50
270.0
  0
LINE
  5
1A3
  8
0
  6
CONTINUOUS
 62
     7
 10
-21.763413
 20
-9.0993671000000003
 30
0.0
 11
-9.303313300000001
 21
-9.0993671000000003
 31
0.0
  0
TEXT
  5
1A4
  8
0
  6
CONTINUOUS
 62
     7
 10
-4.7884131999999999
 20
-11.920866999999991
 30
0.0
 40
3.0
  1
2.5
 50
90.000003000000007
 41
1.3571666999999989
  0
POINT
  5
1A5
  8
DEFPOINTS
  6
CONTINUOUS
 62
     7
 10
-25.303412999999988
 20
-6.5993671000000003
 30
0.0
  0
POINT
  5
1A6
  8
DEFPOINTS
  6
CONTINUOUS
 62
     7
 10
-24.303412999999999
 20
-9.0993671000000003
 30
0.0
  0
POINT
  5
1A7
  8
DEFPOINTS
  6
CONTINUOUS
 62
     7
 10
-9.3034134000000002
 20
-9.0993671000000003
 30
0.0
  0
ENDBLK
  5
1A8
  8
0
  0
BLOCK
  8
0
  2
*D32
 70
     1
 10
0.0
 20
0.0
 30
0.0
  3
*D32
  1

  0
LINE
  5
1AB
  8
0
  6
CONTINUOUS
 62
     7
 10
-7.4534130000000003
 20
-7.4296527000000001
 30
0.0
 11
-7.4534130000000003
 21
1.3521393999999991
 31
0.0
  0
LINE
  5
1AC
  8
0
  6
CONTINUOUS
 62
     7
 10
-7.4534130000000003
 20
-11.029652999999991
 30
0.0
 11
-7.4534130000000003
 21
-7.4296527000000001
 31
0.0
  0
INSERT
  5
1AD
  8
0
  6
CONTINUOUS
 62
     7
  2
_DOT
 10
-7.4534130000000003
 20
-11.029652999999991
 30
0.0
 50
270.0
  0
INSERT
  5
1AE
  8
0
  6
CONTINUOUS
 62
     7
  2
_DOT
 10
-7.4534130000000003
 20
-7.4296527000000001
 30
0.0
 50
90.0
  0
LINE
  5
1AF
  8
0
  6
CONTINUOUS
 62
     7
 10
-19.913412999999998
 20
-11.029652999999991
 30
0.0
 11
-5.1674132000000004
 21
-11.029652999999991
 31
0.0
  0
LINE
  5
1B0
  8
0
  6
CONTINUOUS
 62
     7
 10
-21.432164
 20
-7.4296527000000001
 30
0.0
 11
-5.1674132000000004
 21
-7.4296527000000001
 31
0.0
  0
TEXT
  5
1B1
  8
0
  6
CONTINUOUS
 62
     7
 10
-8.2534127999999995
 20
-6.5338605000000003
 30
0.0
 40
3.2000000000000002
  1
3.6
 50
90.000003000000007
 41
1.3571874999999991
  0
POINT
  5
1B2
  8
DEFPOINTS
  6
CONTINUOUS
 62
     7
 10
-22.453413000000001
 20
-11.029652999999991
 30
0.0
  0
POINT
  5
1B3
  8
DEFPOINTS
  6
CONTINUOUS
 62
     7
 10
-23.972163999999999
 20
-7.4296527000000001
 30
0.0
  0
POINT
  5
1B4
  8
DEFPOINTS
  6
CONTINUOUS
 62
     7
 10
-7.4534130000000003
 20
-7.4296527000000001
 30
0.0
  0
ENDBLK
  5
1B5
  8
0
  0
BLOCK
  8
0
  2
*D33
 70
     1
 10
0.0
 20
0.0
 30
0.0
  3
*D33
  1

  0
LINE
  5
1B8
  8
0
  6
CONTINUOUS
 62
     7
 10
-35.153412000000003
 20
-26.029651999999992
 30
0.0
 11
-22.453413000000001
 21
-26.029651999999992
 31
0.0
  0
INSERT
  5
1B9
  8
0
  6
CONTINUOUS
 62
     7
  2
_DOT
 10
-35.153412000000003
 20
-26.029651999999992
 30
0.0
 50
180.0
  0
INSERT
  5
1BA
  8
0
  6
CONTINUOUS
 62
     7
  2
_DOT
 10
-22.453413000000001
 20
-26.029651999999992
 30
0.0
  0
LINE
  5
1BB
  8
0
  6
CONTINUOUS
 62
     7
 10
-35.153412000000003
 20
-13.569653000000001
 30
0.0
 11
-35.153412000000003
 21
-26.029751000000001
 31
0.0
  0
LINE
  5
1BC
  8
0
  6
CONTINUOUS
 62
     7
 10
-22.453413000000001
 20
-13.569653000000001
 30
0.0
 11
-22.453413000000001
 21
-26.029751000000001
 31
0.0
  0
TEXT
  5
1BD
  8
0
  6
CONTINUOUS
 62
     7
 10
-35.874912999999992
 20
-30.544651999999999
 30
0.0
 40
3.0
  1
%%C12.7
 41
1.222385499999999
  0
POINT
  5
1BE
  8
DEFPOINTS
  6
CONTINUOUS
 62
     7
 10
-35.153412000000003
 20
-11.029652999999991
 30
0.0
  0
POINT
  5
1BF
  8
DEFPOINTS
  6
CONTINUOUS
 62
     7
 10
-22.453413000000001
 20
-11.029652999999991
 30
0.0
  0
POINT
  5
1C0
  8
DEFPOINTS
  6
CONTINUOUS
 62
     7
 10
-22.453413000000001
 20
-26.029651999999992
 30
0.0
  0
ENDBLK
  5
1C1
  8
0
  0
BLOCK
  8
0
  2
KOZU0001
 70
     0
 10
0.0
 20
0.0
 30
0.0
  3
KOZU0001
  1

  0
LINE
  5
1C4
  8
0
  6
CONTINUOUS
 62
     3
 10
-101.5793799999999
 20
6.5305710000000001
 30
0.0
 11
-84.579375999999996
 21
6.5305710000000001
 31
0.0
  0
LINE
  5
1C5
  8
0
  6
CONTINUOUS
 62
     3
 10
-101.5793799999999
 20
75.530570999999995
 30
0.0
 11
-101.5793799999999
 21
6.5305710000000001
 31
0.0
  0
LINE
  5
1C6
  8
0
  6
CONTINUOUS
 62
     3
 10
-84.579375999999996
 20
75.530570999999995
 30
0.0
 11
-84.579375999999996
 21
6.5305710000000001
 31
0.0
  0
LINE
  5
1C7
  8
0
  6
CONTINUOUS
 62
     3
 10
-101.5793799999999
 20
75.530570999999995
 30
0.0
 11
-84.579375999999996
 21
75.530570999999995
 31
0.0
  0
LINE
  5
1C8
  8
0
  6
CONTINUOUS
 62
     3
 10
-100.77937
 20
74.730568000000005
 30
0.0
 11
-85.379379000000014
 21
74.730568000000005
 31
0.0
  0
LINE
  5
1C9
  8
0
  6
CONTINUOUS
 62
     3
 10
-87.279372999999978
 20
64.530570999999995
 30
0.0
 11
-87.279372999999978
 21
25.530570999999998
 31
0.0
  0
LINE
  5
1CA
  8
0
  6
CONTINUOUS
 62
     3
 10
-100.77937
 20
7.3305702000000004
 30
0.0
 11
-85.379379000000014
 21
7.3305702000000004
 31
0.0
  0
LINE
  5
1CB
  8
0
  6
CONTINUOUS
 62
     3
 10
-85.379379000000014
 20
74.730568000000005
 30
0.0
 11
-85.379379000000014
 21
7.3305702000000004
 31
0.0
  0
LINE
  5
1CC
  8
0
  6
CENTER
 62
     7
 10
-104.55803
 20
18.130570999999989
 30
0.0
 11
-82.040420999999995
 21
18.130570999999989
 31
0.0
  0
LINE
  5
1CD
  8
0
  6
CONTINUOUS
 62
     3
 10
-88.07938399999999
 20
18.130570999999989
 30
0.0
 11
-90.57938399999999
 21
13.800447999999999
 31
0.0
  0
LINE
  5
1CE
  8
0
  6
CONTINUOUS
 62
     3
 10
-98.879379
 20
64.530570999999995
 30
0.0
 11
-87.279372999999978
 21
64.530570999999995
 31
0.0
  0
LINE
  5
1CF
  8
0
  6
CONTINUOUS
 62
     3
 10
-95.57938399999999
 20
22.460702999999992
 30
0.0
 11
-95.581451000000001
 21
22.459506999999999
 31
0.0
  0
LINE
  5
1D0
  8
0
  6
CONTINUOUS
 62
     3
 10
-98.079391000000001
 20
18.130572999999998
 30
0.0
 11
-95.579391000000001
 21
22.460702999999992
 31
0.0
  0
LINE
  5
1D1
  8
0
  6
CONTINUOUS
 62
     3
 10
-95.579375999999996
 20
22.460701
 30
0.0
 11
-90.579375999999996
 21
22.460701
 31
0.0
  0
LINE
  5
1D2
  8
0
  6
CONTINUOUS
 62
     3
 10
-90.579368999999986
 20
22.460697
 30
0.0
 11
-88.079368999999986
 21
18.130569000000001
 31
0.0
  0
LINE
  5
1D3
  8
0
  6
CONTINUOUS
 62
     3
 10
-90.579375999999996
 20
13.800413000000001
 30
0.0
 11
-95.579375999999996
 21
13.800413000000001
 31
0.0
  0
LINE
  5
1D4
  8
0
  6
CONTINUOUS
 62
     3
 10
-95.579375999999996
 20
13.800449999999991
 30
0.0
 11
-98.079369000000014
 21
18.130572999999998
 31
0.0
  0
LINE
  5
1D5
  8
0
  6
CONTINUOUS
 62
     3
 10
-100.77937
 20
74.730568000000005
 30
0.0
 11
-100.77937
 21
7.3305702000000004
 31
0.0
  0
LINE
  5
1D6
  8
0
  6
CONTINUOUS
 62
     3
 10
-98.879379
 20
25.530570999999998
 30
0.0
 11
-87.279372999999978
 21
25.530570999999998
 31
0.0
  0
LINE
  5
1D7
  8
0
  6
CONTINUOUS
 62
     3
 10
-105.85826
 20
78.130568999999994
 30
0.0
 11
-79.102783000000002
 21
78.130568999999994
 31
0.0
  0
LINE
  5
1D8
  8
0
  6
CONTINUOUS
 62
     3
 10
-98.879379
 20
64.530570999999995
 30
0.0
 11
-98.879379
 21
25.530570999999998
 31
0.0
  0
LINE
  5
1D9
  8
0
  6
CONTINUOUS
 62
     3
 10
-64.079375999999996
 20
67.030570999999995
 30
0.0
 11
-64.079375999999996
 21
58.030571000000002
 31
0.0
  0
LINE
  5
1DA
  8
0
  6
CONTINUOUS
 62
     3
 10
-129.87938
 20
63.160324000000003
 30
0.0
 11
-129.87938
 21
57.530570999999988
 31
0.0
  0
LINE
  5
1DB
  8
0
  6
CONTINUOUS
 62
     3
 10
-129.87938
 20
63.160308999999998
 30
0.0
 11
-123.47936
 21
68.530556000000004
 31
0.0
  0
LINE
  5
1DC
  8
0
  6
CONTINUOUS
 62
     3
 10
-70.038239000000004
 20
68.530570999999995
 30
0.0
 11
-65.579375999999996
 21
68.530570999999995
 31
0.0
  0
LINE
  5
1DD
  8
0
  6
CONTINUOUS
 62
     3
 10
-77.054901000000001
 20
77.064506999999992
 30
0.0
 11
-71.676543999999993
 21
69.383414999999985
 31
0.0
  0
LINE
  5
1DE
  8
0
  6
CONTINUOUS
 62
     3
 10
-114.4799099999999
 20
69.244994999999989
 30
0.0
 11
-107.77338
 21
77.237540999999993
 31
0.0
  0
LINE
  5
1DF
  8
0
  6
CONTINUOUS
 62
     3
 10
-84.579375999999996
 20
56.530570999999988
 30
0.0
 11
-65.579375999999996
 21
56.530570999999988
 31
0.0
  0
LINE
  5
1E0
  8
0
  6
PHANTOM
 62
     7
 10
-117.0505899999999
 20
31.888190999999988
 30
0.0
 11
-112.79156
 21
28.905989000000002
 31
0.0
  0
LINE
  5
1E1
  8
0
  6
PHANTOM
 62
     7
 10
-111.4519499999999
 20
29.082359
 30
0.0
 11
-103.24834
 21
38.859028000000002
 31
0.0
  0
LINE
  5
1E2
  8
0
  6
PHANTOM
 62
     7
 10
-117.7787399999999
 20
40.211021000000002
 30
0.0
 11
-111.7660199999999
 21
47.37669799999999
 31
0.0
  0
LINE
  5
1E3
  8
0
  6
CONTINUOUS
 62
     3
 10
-18.659264
 20
10.730572
 30
0.0
 11
-16.859264
 21
10.730572
 31
0.0
  0
LINE
  5
1E4
  8
0
  6
CONTINUOUS
 62
     3
 10
-123.4793699999999
 20
68.530570999999995
 30
0.0
 11
-116.012
 21
68.530570999999995
 31
0.0
  0
LINE
  5
1E5
  8
0
  6
CONTINUOUS
 62
     3
 10
-9.2592639999999982
 20
67.130568999999994
 30
0.0
 11
-9.0092639999999982
 21
67.130568999999994
 31
0.0
  0
LINE
  5
1E6
  8
0
  6
CENTER
 62
     7
 10
-93.079375999999996
 20
82.630568999999994
 30
0.0
 11
-93.079375999999996
 21
1.7084502999999991
 31
0.0
  0
LINE
  5
1E7
  8
0
  6
CONTINUOUS
 62
     3
 10
-18.659264
 20
78.730568000000005
 30
0.0
 11
-16.859264
 21
78.730568000000005
 31
0.0
  0
LINE
  5
1E8
  8
0
  6
CONTINUOUS
 62
     3
 10
-16.859264
 20
78.730568000000005
 30
0.0
 11
-16.859264
 21
10.730572
 31
0.0
  0
LINE
  5
1E9
  8
0
  6
CONTINUOUS
 62
     3
 10
-18.659264
 20
78.730568000000005
 30
0.0
 11
-18.659264
 21
10.730572
 31
0.0
  0
LINE
  5
1EA
  8
0
  6
CONTINUOUS
 62
     3
 10
-16.859264
 20
14.53056499999999
 30
0.0
 11
-15.459265
 21
14.53056499999999
 31
0.0
  0
LINE
  5
1EB
  8
0
  6
PHANTOM
 62
     7
 10
-117.0505899999999
 20
31.888179999999991
 30
0.0
 11
-117.7787499999999
 21
40.211009999999987
 31
0.0
  0
LINE
  5
1EC
  8
0
  6
CONTINUOUS
 62
     3
 10
-17.759264000000002
 20
78.730568000000005
 30
0.0
 11
-17.759264000000002
 21
10.730572
 31
0.0
  0
LINE
  5
1ED
  8
0
  6
CONTINUOUS
 62
     3
 10
-16.859264
 20
78.130568999999994
 30
0.0
 11
-15.459265
 21
78.130568999999994
 31
0.0
  0
LINE
  5
1EE
  8
0
  6
CONTINUOUS
 62
     3
 10
-9.2592639999999982
 20
59.130568999999987
 30
0.0
 11
-9.0092639999999982
 21
59.130568999999987
 31
0.0
  0
LINE
  5
1EF
  8
0
  6
CONTINUOUS
 62
     3
 10
-19.759266
 20
18.730571999999992
 30
0.0
 11
-18.659264
 21
18.730571999999992
 31
0.0
  0
LINE
  5
1F0
  8
0
  6
CONTINUOUS
 62
     3
 10
-15.459265
 20
11.330568
 30
0.0
 11
-15.459265
 21
14.53056499999999
 31
0.0
  0
LINE
  5
1F1
  8
0
  6
CONTINUOUS
 62
     3
 10
-16.859264
 20
11.330568
 30
0.0
 11
-15.459265
 21
11.330568
 31
0.0
  0
LINE
  5
1F2
  8
0
  6
CONTINUOUS
 62
     3
 10
-16.859264
 20
74.930572999999995
 30
0.0
 11
-15.459265
 21
74.930572999999995
 31
0.0
  0
LINE
  5
1F3
  8
0
  6
CONTINUOUS
 62
     3
 10
-10.859263999999991
 20
85.130568999999994
 30
0.0
 11
-10.859263999999991
 21
28.730568000000002
 31
0.0
  0
LINE
  5
1F4
  8
0
  6
CONTINUOUS
 62
     3
 10
-15.459265
 20
78.130568999999994
 30
0.0
 11
-15.459265
 21
74.930572999999995
 31
0.0
  0
LINE
  5
1F5
  8
0
  6
CONTINUOUS
 62
     3
 10
-10.859263999999991
 20
85.130568999999994
 30
0.0
 11
-9.2592639999999982
 21
85.130568999999994
 31
0.0
  0
LINE
  5
1F6
  8
0
  6
CONTINUOUS
 62
     3
 10
-9.2592639999999982
 20
85.130568999999994
 30
0.0
 11
-9.2592639999999982
 21
36.730567999999991
 31
0.0
  0
LINE
  5
1F7
  8
0
  6
CONTINUOUS
 62
     3
 10
-10.859263999999991
 20
36.730567999999991
 30
0.0
 11
-9.2592639999999982
 21
36.730567999999991
 31
0.0
  0
LINE
  5
1F8
  8
0
  6
CONTINUOUS
 62
     3
 10
-11.459265
 20
26.905754000000002
 30
0.0
 11
-11.459265
 21
16.630569000000001
 31
0.0
  0
LINE
  5
1F9
  8
0
  6
CENTER
 62
     7
 10
-20.859264
 20
76.530570999999995
 30
0.0
 11
-12.859264
 21
76.530570999999995
 31
0.0
  0
LINE
  5
1FA
  8
0
  6
PHANTOM
 62
     7
 10
-46.746574000000003
 20
45.863621000000002
 30
0.0
 11
-18.659261999999991
 21
65.530563000000001
 31
0.0
  0
LINE
  5
1FB
  8
0
  6
PHANTOM
 62
     7
 10
-47.498336999999992
 20
46.937243999999993
 30
0.0
 11
-18.659268999999998
 21
67.130577000000002
 31
0.0
  0
LINE
  5
1FC
  8
0
  6
CONTINUOUS
 62
     3
 10
-9.0092639999999982
 20
67.130568999999994
 30
0.0
 11
-9.0092639999999982
 21
65.930572999999995
 31
0.0
  0
LINE
  5
1FD
  8
0
  6
CONTINUOUS
 62
     3
 10
-9.2592639999999982
 20
65.930572999999995
 30
0.0
 11
-9.0092639999999982
 21
65.930572999999995
 31
0.0
  0
LINE
  5
1FE
  8
0
  6
CONTINUOUS
 62
     3
 10
-9.2592639999999982
 20
62.930573000000003
 30
0.0
 11
-9.0092639999999982
 21
62.930573000000003
 31
0.0
  0
LINE
  5
1FF
  8
0
  6
CONTINUOUS
 62
     3
 10
-9.2592639999999982
 20
61.730568000000012
 30
0.0
 11
-9.0092639999999982
 21
61.730568000000012
 31
0.0
  0
LINE
  5
200
  8
0
  6
CONTINUOUS
 62
     3
 10
-9.2592639999999982
 20
60.330573999999999
 30
0.0
 11
-9.0092639999999982
 21
60.330573999999999
 31
0.0
  0
LINE
  5
201
  8
0
  6
CONTINUOUS
 62
     3
 10
-128.87938
 20
56.530570999999988
 30
0.0
 11
-101.5793799999999
 21
56.530570999999988
 31
0.0
  0
LINE
  5
202
  8
0
  6
CONTINUOUS
 62
     3
 10
-9.0092639999999982
 20
62.930573000000003
 30
0.0
 11
-9.0092639999999982
 21
61.730568000000012
 31
0.0
  0
LINE
  5
203
  8
0
  6
CONTINUOUS
 62
     3
 10
-9.0092639999999982
 20
60.330573999999999
 30
0.0
 11
-9.0092639999999982
 21
59.130568999999987
 31
0.0
  0
LINE
  5
204
  8
0
  6
CONTINUOUS
 62
     3
 10
-18.659264
 20
10.730572
 30
0.0
 11
-16.859264
 21
10.730572
 31
0.0
  0
LINE
  5
205
  8
0
  6
CONTINUOUS
 62
     3
 10
-18.659264
 20
78.730568000000005
 30
0.0
 11
-16.859264
 21
78.730568000000005
 31
0.0
  0
LINE
  5
206
  8
0
  6
CENTER
 62
     7
 10
-20.859264
 20
12.930567
 30
0.0
 11
-12.859264
 21
12.930567
 31
0.0
  0
LINE
  5
207
  8
0
  6
CONTINUOUS
 62
     3
 10
-11.398956999999999
 20
27.247779999999999
 30
0.0
 11
-10.859265000000001
 21
28.73057
 31
0.0
  0
LINE
  5
208
  8
0
  6
CONTINUOUS
 62
     3
 10
-16.859264
 20
72.830566000000005
 30
0.0
 11
-10.859263999999991
 21
72.830566000000005
 31
0.0
  0
LINE
  5
209
  8
0
  6
CONTINUOUS
 62
     3
 10
-16.859264
 20
16.630569000000001
 30
0.0
 11
-11.459265
 21
16.630569000000001
 31
0.0
  0
LINE
  5
20A
  8
0
  6
CONTINUOUS
 62
     3
 10
-19.759266
 20
24.330573999999999
 30
0.0
 11
-18.659264
 21
24.330573999999999
 31
0.0
  0
LINE
  5
20B
  8
0
  6
CONTINUOUS
 62
     3
 10
-19.759266
 20
24.330573999999999
 30
0.0
 11
-19.759266
 21
18.730571999999992
 31
0.0
  0
LINE
  5
20C
  8
0
  6
CONTINUOUS
 62
     3
 10
68.301940999999985
 20
75.830566000000005
 30
0.0
 11
68.301940999999985
 21
73.330566000000005
 31
0.0
  0
LINE
  5
20D
  8
0
  6
CONTINUOUS
 62
     3
 10
73.301940999999985
 20
17.330566000000001
 30
0.0
 11
73.301940999999985
 21
14.830565999999999
 31
0.0
  0
LINE
  5
20E
  8
0
  6
CONTINUOUS
 62
     3
 10
68.301940999999985
 20
17.330566000000001
 30
0.0
 11
68.301940999999985
 21
14.830565999999999
 31
0.0
  0
LINE
  5
20F
  8
0
  6
PHANTOM
 62
     7
 10
-42.106121000000002
 20
44.41078199999999
 30
0.0
 11
-43.469974999999991
 21
48.157935999999999
 31
0.0
  0
LINE
  5
210
  8
0
  6
PHANTOM
 62
     7
 10
-43.864280999999991
 20
42.998748999999989
 30
0.0
 11
-42.179347999999997
 21
44.178550999999992
 31
0.0
  0
LINE
  5
211
  8
0
  6
PHANTOM
 62
     7
 10
-45.572062999999993
 20
43.267859999999999
 30
0.0
 11
-44.116832999999993
 21
44.286822999999998
 31
0.0
  0
LINE
  5
212
  8
0
  6
CONTINUOUS
 62
     3
 10
73.301940999999985
 20
17.330566000000001
 30
0.0
 11
77.301940999999999
 21
17.330566000000001
 31
0.0
  0
LINE
  5
213
  8
0
  6
PHANTOM
 62
     7
 10
-45.474772999999992
 20
42.904808000000003
 30
0.0
 11
-44.524997999999997
 21
42.821711999999991
 31
0.0
  0
LINE
  5
214
  8
0
  6
PHANTOM
 62
     7
 10
-44.591941999999989
 20
44.858882999999999
 30
0.0
 11
-46.715305000000001
 21
44.886062999999993
 31
0.0
  0
LINE
  5
215
  8
0
  6
PHANTOM
 62
     7
 10
-44.116832999999993
 20
44.286818999999987
 30
0.0
 11
-44.459403999999999
 21
44.776061999999989
 31
0.0
  0
LINE
  5
216
  8
0
  6
CONTINUOUS
 62
     3
 10
73.301940999999985
 20
75.830566000000005
 30
0.0
 11
73.301940999999985
 21
73.330566000000005
 31
0.0
  0
LINE
  5
217
  8
0
  6
CONTINUOUS
 62
     3
 10
73.301940999999985
 20
73.330566000000005
 30
0.0
 11
77.301940999999999
 21
73.330566000000005
 31
0.0
  0
LINE
  5
218
  8
0
  6
CENTER
 62
     7
 10
60.801940999999999
 20
45.330565999999997
 30
0.0
 11
80.801940999999985
 21
45.330565999999997
 31
0.0
  0
LINE
  5
219
  8
0
  6
CONTINUOUS
 62
     3
 10
64.301940999999999
 20
73.330566000000005
 30
0.0
 11
68.301940999999985
 21
73.330566000000005
 31
0.0
  0
LINE
  5
21A
  8
0
  6
CONTINUOUS
 62
     3
 10
64.301940999999999
 20
17.330566000000001
 30
0.0
 11
68.301940999999985
 21
17.330566000000001
 31
0.0
  0
LINE
  5
21B
  8
0
  6
CENTER
 62
     7
 10
70.801940999999985
 20
80.330566000000005
 30
0.0
 11
70.801940999999985
 21
10.330565999999999
 31
0.0
  0
LINE
  5
21C
  8
0
  6
CONTINUOUS
 62
     3
 10
64.301940999999999
 20
73.330566000000005
 30
0.0
 11
64.301940999999999
 21
17.330566000000001
 31
0.0
  0
LINE
  5
21D
  8
0
  6
CONTINUOUS
 62
     3
 10
77.301940999999999
 20
73.330566000000005
 30
0.0
 11
77.301940999999999
 21
17.330566000000001
 31
0.0
  0
LINE
  5
21E
  8
0
  6
CENTER
 62
     7
 10
65.801940999999985
 20
75.830566000000005
 30
0.0
 11
75.801940999999985
 21
75.830566000000005
 31
0.0
  0
LINE
  5
21F
  8
0
  6
CENTER
 62
     7
 10
65.801940999999985
 20
14.830565999999999
 30
0.0
 11
75.801940999999985
 21
14.830565999999999
 31
0.0
  0
LINE
  5
220
  8
0
  6
CONTINUOUS
 62
     7
 10
-70.0
 20
-92.0
 30
0.0
 11
160.0
 21
-92.0
 31
0.0
  0
LINE
  5
221
  8
0
  6
CONTINUOUS
 62
     7
 10
-70.0
 20
-84.0
 30
0.0
 11
160.0
 21
-84.0
 31
0.0
  0
LINE
  5
222
  8
0
  6
CONTINUOUS
 62
     7
 10
-70.0
 20
-76.0
 30
0.0
 11
160.0
 21
-76.0
 31
0.0
  0
LINE
  5
223
  8
0
  6
CONTINUOUS
 62
     7
 10
-70.0
 20
-68.0
 30
0.0
 11
160.0
 21
-68.0
 31
0.0
  0
LINE
  5
224
  8
0
  6
CONTINUOUS
 62
     7
 10
-70.0
 20
-60.0
 30
0.0
 11
160.0
 21
-60.0
 31
0.0
  0
LINE
  5
225
  8
0
  6
CONTINUOUS
 62
     7
 10
-20.0
 20
-60.0
 30
0.0
 11
-20.0
 21
-92.0
 31
0.0
  0
LINE
  5
226
  8
0
  6
CONTINUOUS
 62
     7
 10
-30.0
 20
-60.0
 30
0.0
 11
-30.0
 21
-92.0
 31
0.0
  0
LINE
  5
227
  8
0
  6
CONTINUOUS
 62
     7
 10
-40.0
 20
-60.0
 30
0.0
 11
-40.0
 21
-92.0
 31
0.0
  0
LINE
  5
228
  8
0
  6
CONTINUOUS
 62
     7
 10
160.0
 20
-60.0
 30
0.0
 11
160.0
 21
-92.0
 31
0.0
  0
LINE
  5
229
  8
0
  6
CONTINUOUS
 62
     7
 10
-10.0
 20
-60.0
 30
0.0
 11
-10.0
 21
-92.0
 31
0.0
  0
LINE
  5
22A
  8
0
  6
CONTINUOUS
 62
     7
 10
0.0
 20
-60.0
 30
0.0
 11
0.0
 21
-92.0
 31
0.0
  0
LINE
  5
22B
  8
0
  6
CONTINUOUS
 62
     7
 10
10.0
 20
-60.0
 30
0.0
 11
10.0
 21
-92.0
 31
0.0
  0
LINE
  5
22C
  8
0
  6
CONTINUOUS
 62
     7
 10
20.0
 20
-60.0
 30
0.0
 11
20.0
 21
-92.0
 31
0.0
  0
LINE
  5
22D
  8
0
  6
CONTINUOUS
 62
     7
 10
30.0
 20
-60.0
 30
0.0
 11
30.0
 21
-92.0
 31
0.0
  0
LINE
  5
22E
  8
0
  6
CONTINUOUS
 62
     7
 10
40.0
 20
-60.0
 30
0.0
 11
40.0
 21
-92.0
 31
0.0
  0
LINE
  5
22F
  8
0
  6
CONTINUOUS
 62
     7
 10
50.0
 20
-60.0
 30
0.0
 11
50.0
 21
-92.0
 31
0.0
  0
LINE
  5
230
  8
0
  6
CONTINUOUS
 62
     7
 10
60.0
 20
-60.0
 30
0.0
 11
60.0
 21
-92.0
 31
0.0
  0
LINE
  5
231
  8
0
  6
CONTINUOUS
 62
     7
 10
70.0
 20
-60.0
 30
0.0
 11
70.0
 21
-92.0
 31
0.0
  0
LINE
  5
232
  8
0
  6
CONTINUOUS
 62
     7
 10
80.0
 20
-60.0
 30
0.0
 11
80.0
 21
-92.0
 31
0.0
  0
LINE
  5
233
  8
0
  6
CONTINUOUS
 62
     7
 10
90.0
 20
-60.0
 30
0.0
 11
90.0
 21
-92.0
 31
0.0
  0
LINE
  5
234
  8
0
  6
CONTINUOUS
 62
     7
 10
100.0
 20
-60.0
 30
0.0
 11
100.0
 21
-92.0
 31
0.0
  0
LINE
  5
235
  8
0
  6
CONTINUOUS
 62
     7
 10
110.0
 20
-60.0
 30
0.0
 11
110.0
 21
-92.0
 31
0.0
  0
LINE
  5
236
  8
0
  6
CONTINUOUS
 62
     7
 10
120.0
 20
-60.0
 30
0.0
 11
120.0
 21
-92.0
 31
0.0
  0
LINE
  5
237
  8
0
  6
CONTINUOUS
 62
     7
 10
130.0
 20
-60.0
 30
0.0
 11
130.0
 21
-92.0
 31
0.0
  0
LINE
  5
238
  8
0
  6
CONTINUOUS
 62
     7
 10
140.0
 20
-60.0
 30
0.0
 11
140.0
 21
-92.0
 31
0.0
  0
LINE
  5
239
  8
0
  6
CONTINUOUS
 62
     7
 10
150.0
 20
-60.0
 30
0.0
 11
150.0
 21
-92.0
 31
0.0
  0
LINE
  5
23A
  8
0
  6
CONTINUOUS
 62
     7
 10
-70.0
 20
-60.0
 30
0.0
 11
-70.0
 21
-92.0
 31
0.0
  0
CIRCLE
  5
23B
  8
0
  6
CONTINUOUS
 62
     3
 10
-93.079375999999996
 20
18.130570999999989
 30
0.0
 40
5.0
  0
ARC
  5
23C
  8
0
  6
PHANTOM
 62
     7
 10
-112.21798
 20
29.72514
 30
0.0
 40
1.0
 50
234.99989999999991
 51
319.99998999999991
  0
ARC
  5
23D
  8
0
  6
CONTINUOUS
 62
     3
 10
-79.102783000000002
 20
75.630568999999994
 30
0.0
 40
2.5
 50
34.999898999999999
 51
90.0
  0
ARC
  5
23E
  8
0
  6
CONTINUOUS
 62
     3
 10
-105.85826
 20
75.630568999999994
 30
0.0
 40
2.5
 50
90.0
 51
140.00014999999991
  0
ARC
  5
23F
  8
0
  6
CONTINUOUS
 62
     3
 10
-70.038239000000004
 20
70.530570999999995
 30
0.0
 40
2.0
 50
215.0000399999999
 51
270.0
  0
ARC
  5
240
  8
0
  6
CONTINUOUS
 62
     3
 10
-116.012
 20
70.530570999999995
 30
0.0
 40
2.0
 50
270.0
 51
319.99998999999991
  0
ARC
  5
241
  8
0
  6
CONTINUOUS
 62
     3
 10
-128.87938
 20
57.530570999999988
 30
0.0
 40
1.0
 50
180.0
 51
270.0
  0
ARC
  5
242
  8
0
  6
CONTINUOUS
 62
     3
 10
-65.579375999999996
 20
58.030571000000002
 30
0.0
 40
1.5
 50
270.0
 51
0.0
  0
ARC
  5
243
  8
0
  6
CONTINUOUS
 62
     3
 10
-65.579375999999996
 20
67.030570999999995
 30
0.0
 40
1.5
 50
0.0
 51
90.0
  0
ARC
  5
244
  8
0
  6
CONTINUOUS
 62
     3
 10
-9.0092639999999982
 20
61.030571000000002
 30
0.0
 40
0.6999999900000001
 50
270.0
 51
90.0
  0
ARC
  5
245
  8
0
  6
CONTINUOUS
 62
     3
 10
-9.0092639999999982
 20
64.430572999999995
 30
0.0
 40
1.5
 50
270.0
 51
90.0
  0
ARC
  5
246
  8
0
  6
CONTINUOUS
 62
     3
 10
-10.45926499999999
 20
26.905754000000002
 30
0.0
 40
1.0
 50
159.99989999999991
 51
180.0
  0
ARC
  5
247
  8
0
  6
PHANTOM
 62
     7
 10
-47.122456
 20
46.400429000000003
 30
0.0
 40
0.65532076
 50
125.0000299999999
 51
305.00002999999992
  0
ARC
  5
248
  8
0
  6
CONTINUOUS
 62
     3
 10
70.801940999999985
 20
75.830566000000005
 30
0.0
 40
2.5
 50
0.0
 51
180.0
  0
ARC
  5
249
  8
0
  6
CONTINUOUS
 62
     3
 10
70.801940999999985
 20
14.830565999999999
 30
0.0
 40
2.5
 50
179.99997999999991
 51
0.0
  0
ARC
  5
24A
  8
0
  6
PHANTOM
 62
     7
 10
-45.457352
 20
43.104027000000002
 30
0.0
 40
0.2
 50
125.00017
 51
265.00047999999998
  0
ARC
  5
24B
  8
0
  6
PHANTOM
 62
     7
 10
-44.437851000000002
 20
43.817889999999998
 30
0.0
 40
1.0
 50
265.00006999999999
 51
305.00004000000001
  0
ARC
  5
24C
  8
0
  6
PHANTOM
 62
     7
 10
-46.637081000000002
 20
45.379897999999997
 30
0.0
 40
0.5
 50
129.19974999999991
 51
261.00006000000002
  0
ARC
  5
24D
  8
0
  6
PHANTOM
 62
     7
 10
-44.623238000000001
 20
44.661349999999999
 30
0.0
 40
0.2
 50
35.00016699999999
 51
80.999591000000009
  0
ARC
  5
24E
  8
0
  6
PHANTOM
 62
     7
 10
-42.294055999999991
 20
44.342372999999988
 30
0.0
 40
0.2
 50
305.00017000000003
 51
20.000285999999988
  0
TEXT
  5
24F
  8
0
  6
CONTINUOUS
 62
     7
 10
-68.942858000000001
 20
-89.599999999999994
 30
0.0
 40
3.2000000000000002
  1
ＥＬ－２（３）－３
 41
0.8449533999999999
  0
TEXT
  5
250
  8
0
  6
CONTINUOUS
 62
     7
 10
153.8571399999999
 20
-89.599999999999994
 30
0.0
 40
3.2000000000000002
  1
９
 41
0.90036055
  0
TEXT
  5
251
  8
0
  6
CONTINUOUS
 62
     7
 10
153.8571399999999
 20
-65.599999999999994
 30
0.0
 40
3.2000000000000002
  1
Ｔ
 41
0.90036055
  0
TEXT
  5
252
  8
0
  6
CONTINUOUS
 62
     7
 10
142.25713999999991
 20
-89.599999999999994
 30
0.0
 40
3.2000000000000002
  1
２６
 41
0.8643459000000001
  0
TEXT
  5
253
  8
0
  6
CONTINUOUS
 62
     7
 10
131.0
 20
-89.599999999999994
 30
0.0
 40
3.2000000000000002
  1
１１５．５
 41
0.45018008
  0
TEXT
  5
254
  8
0
  6
CONTINUOUS
 62
     7
 10
120.6571399999999
 20
-89.599999999999994
 30
0.0
 40
3.2000000000000002
  1
３．０
 41
0.85534224
  0
TEXT
  5
255
  8
0
  6
CONTINUOUS
 62
     7
 10
112.25713999999989
 20
-89.599999999999994
 30
0.0
 40
3.2000000000000002
  1
１７
 41
0.8643459000000001
  0
TEXT
  5
256
  8
0
  6
CONTINUOUS
 62
     7
 10
103.8571399999999
 20
-89.599999999999994
 30
0.0
 40
3.2000000000000002
  1
３
 41
0.90036055
  0
TEXT
  5
257
  8
0
  6
CONTINUOUS
 62
     7
 10
92.257142000000002
 20
-89.599999999999994
 30
0.0
 40
3.2000000000000002
  1
１２
 41
0.8643459000000001
  0
TEXT
  5
258
  8
0
  6
CONTINUOUS
 62
     7
 10
83.857141999999996
 20
-89.599999999999994
 30
0.0
 40
3.2000000000000002
  1
８
 41
0.90036055
  0
TEXT
  5
259
  8
0
  6
CONTINUOUS
 62
     7
 10
70.657142000000007
 20
-89.599999999999994
 30
0.0
 40
3.2000000000000002
  1
８．５
 41
0.85534224
  0
TEXT
  5
25A
  8
0
  6
CONTINUOUS
 62
     7
 10
61.0
 20
-89.599999999999994
 30
0.0
 40
3.2000000000000002
  1
１２．５
 41
0.57295646
  0
TEXT
  5
25B
  8
0
  6
CONTINUOUS
 62
     7
 10
50.657142
 20
-89.599999999999994
 30
0.0
 40
3.2000000000000002
  1
１１５
 41
0.85534224
  0
TEXT
  5
25C
  8
0
  6
CONTINUOUS
 62
     7
 10
43.857141999999989
 20
-89.599999999999994
 30
0.0
 40
3.2000000000000002
  1
７
 41
0.90036055
  0
TEXT
  5
25D
  8
0
  6
CONTINUOUS
 62
     7
 10
30.65714199999999
 20
-89.599999999999994
 30
0.0
 40
3.2000000000000002
  1
１２７
 41
0.85534224
  0
TEXT
  5
25E
  8
0
  6
CONTINUOUS
 62
     7
 10
22.257142000000002
 20
-89.599999999999994
 30
0.0
 40
3.2000000000000002
  1
２０
 41
0.8643459000000001
  0
TEXT
  5
25F
  8
0
  6
CONTINUOUS
 62
     7
 10
12.257142
 20
-89.599999999999994
 30
0.0
 40
3.2000000000000002
  1
２４
 41
0.8643459000000001
  0
TEXT
  5
260
  8
0
  6
CONTINUOUS
 62
     7
 10
2.257142299999999
 20
-89.599999999999994
 30
0.0
 40
3.2000000000000002
  1
４９
 41
0.8643459000000001
  0
TEXT
  5
261
  8
0
  6
CONTINUOUS
 62
     7
 10
-7.7428577000000001
 20
-89.599999999999994
 30
0.0
 40
3.2000000000000002
  1
６６
 41
0.8643459000000001
  0
TEXT
  5
262
  8
0
  6
CONTINUOUS
 62
     7
 10
-19.342857999999989
 20
-89.599999999999994
 30
0.0
 40
3.2000000000000002
  1
１１５
 41
0.85534224
  0
TEXT
  5
263
  8
0
  6
CONTINUOUS
 62
     7
 10
-27.742857999999998
 20
-89.599999999999994
 30
0.0
 40
3.2000000000000002
  1
３２
 41
0.8643459000000001
  0
TEXT
  5
264
  8
0
  6
CONTINUOUS
 62
     7
 10
-39.342857999999993
 20
-89.599999999999994
 30
0.0
 40
3.2000000000000002
  1
１４１
 41
0.85534224
  0
TEXT
  5
265
  8
0
  6
CONTINUOUS
 62
     7
 10
143.8571399999999
 20
-65.599999999999994
 30
0.0
 40
3.2000000000000002
  1
Ｓ
 41
0.90036055
  0
TEXT
  5
266
  8
0
  6
CONTINUOUS
 62
     7
 10
133.8571399999999
 20
-65.599999999999994
 30
0.0
 40
3.2000000000000002
  1
Ｒ
 41
0.90036055
  0
TEXT
  5
267
  8
0
  6
CONTINUOUS
 62
     7
 10
123.8571399999999
 20
-65.599999999999994
 30
0.0
 40
3.2000000000000002
  1
Ｑ
 41
0.90036055
  0
TEXT
  5
268
  8
0
  6
CONTINUOUS
 62
     7
 10
113.8571399999999
 20
-65.599999999999994
 30
0.0
 40
3.2000000000000002
  1
Ｐ
 41
0.90036055
  0
TEXT
  5
269
  8
0
  6
CONTINUOUS
 62
     7
 10
103.8571399999999
 20
-65.599999999999994
 30
0.0
 40
3.2000000000000002
  1
Ｏ
 41
0.90036055
  0
TEXT
  5
26A
  8
0
  6
CONTINUOUS
 62
     7
 10
93.857141999999996
 20
-65.599999999999994
 30
0.0
 40
3.2000000000000002
  1
Ｎ
 41
0.90036055
  0
TEXT
  5
26B
  8
0
  6
CONTINUOUS
 62
     7
 10
83.857141999999996
 20
-65.599999999999994
 30
0.0
 40
3.2000000000000002
  1
Ｍ
 41
0.90036055
  0
TEXT
  5
26C
  8
0
  6
CONTINUOUS
 62
     7
 10
73.85714200000001
 20
-65.599999999999994
 30
0.0
 40
3.2000000000000002
  1
Ｌ
 41
0.90036055
  0
TEXT
  5
26D
  8
0
  6
CONTINUOUS
 62
     7
 10
63.857142000000003
 20
-65.599999999999994
 30
0.0
 40
3.2000000000000002
  1
Ｋ
 41
0.90036055
  0
TEXT
  5
26E
  8
0
  6
CONTINUOUS
 62
     7
 10
53.857142000000003
 20
-65.599999999999994
 30
0.0
 40
3.2000000000000002
  1
Ｊ
 41
0.90036055
  0
TEXT
  5
26F
  8
0
  6
CONTINUOUS
 62
     7
 10
43.857141999999989
 20
-65.599999999999994
 30
0.0
 40
3.2000000000000002
  1
Ｉ
 41
0.90036055
  0
TEXT
  5
270
  8
0
  6
CONTINUOUS
 62
     7
 10
33.857141999999989
 20
-65.599999999999994
 30
0.0
 40
3.2000000000000002
  1
Ｈ
 41
0.90036055
  0
TEXT
  5
271
  8
0
  6
CONTINUOUS
 62
     7
 10
23.857142
 20
-65.599999999999994
 30
0.0
 40
3.2000000000000002
  1
Ｇ
 41
0.90036055
  0
TEXT
  5
272
  8
0
  6
CONTINUOUS
 62
     7
 10
13.857142
 20
-65.599999999999994
 30
0.0
 40
3.2000000000000002
  1
Ｆ
 41
0.90036055
  0
TEXT
  5
273
  8
0
  6
CONTINUOUS
 62
     7
 10
3.8571422999999991
 20
-65.599999999999994
 30
0.0
 40
3.2000000000000002
  1
Ｅ
 41
0.90036055
  0
TEXT
  5
274
  8
0
  6
CONTINUOUS
 62
     7
 10
-6.1428577000000004
 20
-65.599999999999994
 30
0.0
 40
3.2000000000000002
  1
Ｄ
 41
0.90036055
  0
TEXT
  5
275
  8
0
  6
CONTINUOUS
 62
     7
 10
-16.142858
 20
-65.599999999999994
 30
0.0
 40
3.2000000000000002
  1
Ｃ
 41
0.90036055
  0
TEXT
  5
276
  8
0
  6
CONTINUOUS
 62
     7
 10
-26.142858
 20
-65.599999999999994
 30
0.0
 40
3.2000000000000002
  1
Ｂ
 41
0.90036055
  0
TEXT
  5
277
  8
0
  6
CONTINUOUS
 62
     7
 10
-36.142857999999997
 20
-65.599999999999994
 30
0.0
 40
3.2000000000000002
  1
A
  0
TEXT
  5
278
  8
0
  6
CONTINUOUS
 62
     7
 10
-59.114286999999997
 20
-66.400000000000006
 30
0.0
 40
4.8000002000000004
  1
品番
 41
0.8643459000000001
  0
TEXT
  5
279
  8
0
  6
CONTINUOUS
 62
     7
 10
153.8571399999999
 20
-73.599999999999994
 30
0.0
 40
3.2000000000000002
  1
７
 41
0.90036055
  0
TEXT
  5
27A
  8
0
  6
CONTINUOUS
 62
     7
 10
141.0
 20
-73.599999999999994
 30
0.0
 40
3.2000000000000002
  1
２２．５
 41
0.57295646
  0
TEXT
  5
27B
  8
0
  6
CONTINUOUS
 62
     7
 10
131.0
 20
-73.599999999999994
 30
0.0
 40
3.2000000000000002
  1
６５．５
 41
0.57295646
  0
TEXT
  5
27C
  8
0
  6
CONTINUOUS
 62
     7
 10
120.6571399999999
 20
-73.599999999999994
 30
0.0
 40
3.2000000000000002
  1
２．３
 41
0.85534224
  0
TEXT
  5
27D
  8
0
  6
CONTINUOUS
 62
     7
 10
112.25713999999989
 20
-73.599999999999994
 30
0.0
 40
3.2000000000000002
  1
１４
 41
0.8643459000000001
  0
TEXT
  5
27E
  8
0
  6
CONTINUOUS
 62
     7
 10
103.8571399999999
 20
-73.599999999999994
 30
0.0
 40
3.2000000000000002
  1
３
 41
0.90036055
  0
TEXT
  5
27F
  8
0
  6
CONTINUOUS
 62
     7
 10
92.257142000000002
 20
-73.599999999999994
 30
0.0
 40
3.2000000000000002
  1
１０
 41
0.8643459000000001
  0
TEXT
  5
280
  8
0
  6
CONTINUOUS
 62
     7
 10
83.857141999999996
 20
-73.599999999999994
 30
0.0
 40
3.2000000000000002
  1
７
 41
0.90036055
  0
TEXT
  5
281
  8
0
  6
CONTINUOUS
 62
     7
 10
70.657142000000007
 20
-73.599999999999994
 30
0.0
 40
3.2000000000000002
  1
６．２
 41
0.85534224
  0
TEXT
  5
282
  8
0
  6
CONTINUOUS
 62
     7
 10
62.257142000000002
 20
-73.599999999999994
 30
0.0
 40
3.2000000000000002
  1
１０
 41
0.8643459000000001
  0
TEXT
  5
283
  8
0
  6
CONTINUOUS
 62
     7
 10
52.257142000000002
 20
-73.599999999999994
 30
0.0
 40
3.2000000000000002
  1
６５
 41
0.8643459000000001
  0
TEXT
  5
284
  8
0
  6
CONTINUOUS
 62
     7
 10
43.857141999999989
 20
-73.599999999999994
 30
0.0
 40
3.2000000000000002
  1
５
 41
0.90036055
  0
TEXT
  5
285
  8
0
  6
CONTINUOUS
 62
     7
 10
32.257142000000002
 20
-73.599999999999994
 30
0.0
 40
3.2000000000000002
  1
７５
 41
0.8643459000000001
  0
TEXT
  5
286
  8
0
  6
CONTINUOUS
 62
     7
 10
22.257142000000002
 20
-73.599999999999994
 30
0.0
 40
3.2000000000000002
  1
２０
 41
0.8643459000000001
  0
TEXT
  5
287
  8
0
  6
CONTINUOUS
 62
     7
 10
12.257142
 20
-73.599999999999994
 30
0.0
 40
3.2000000000000002
  1
２８
 41
0.8643459000000001
  0
TEXT
  5
288
  8
0
  6
CONTINUOUS
 62
     7
 10
2.257142299999999
 20
-73.599999999999994
 30
0.0
 40
3.2000000000000002
  1
４９
 41
0.8643459000000001
  0
TEXT
  5
289
  8
0
  6
CONTINUOUS
 62
     7
 10
-7.7428577000000001
 20
-73.599999999999994
 30
0.0
 40
3.2000000000000002
  1
６６
 41
0.8643459000000001
  0
TEXT
  5
28A
  8
0
  6
CONTINUOUS
 62
     7
 10
-19.342857999999989
 20
-73.599999999999994
 30
0.0
 40
3.2000000000000002
  1
１１５
 41
0.85534224
  0
TEXT
  5
28B
  8
0
  6
CONTINUOUS
 62
     7
 10
-27.742857999999998
 20
-73.599999999999994
 30
0.0
 40
3.2000000000000002
  1
２７
 41
0.8643459000000001
  0
TEXT
  5
28C
  8
0
  6
CONTINUOUS
 62
     7
 10
-37.742857999999991
 20
-73.599999999999994
 30
0.0
 40
3.2000000000000002
  1
８５
 41
0.8643459000000001
  0
TEXT
  5
28D
  8
0
  6
CONTINUOUS
 62
     7
 10
-68.942858000000001
 20
-73.599999999999994
 30
0.0
 40
3.2000000000000002
  1
ＥＬ－２（３）－１
 41
0.8449533999999999
  0
TEXT
  5
28E
  8
0
  6
CONTINUOUS
 62
     7
 10
153.8571399999999
 20
-81.599999999999994
 30
0.0
 40
3.2000000000000002
  1
７
 41
0.90036055
  0
TEXT
  5
28F
  8
0
  6
CONTINUOUS
 62
     7
 10
141.0
 20
-81.599999999999994
 30
0.0
 40
3.2000000000000002
  1
２２．５
 41
0.57295646
  0
TEXT
  5
290
  8
0
  6
CONTINUOUS
 62
     7
 10
131.0
 20
-81.599999999999994
 30
0.0
 40
3.2000000000000002
  1
９５．５
 41
0.57295646
  0
TEXT
  5
291
  8
0
  6
CONTINUOUS
 62
     7
 10
120.6571399999999
 20
-81.599999999999994
 30
0.0
 40
3.2000000000000002
  1
２．３
 41
0.85534224
  0
TEXT
  5
292
  8
0
  6
CONTINUOUS
 62
     7
 10
112.25713999999989
 20
-81.599999999999994
 30
0.0
 40
3.2000000000000002
  1
１４
 41
0.8643459000000001
  0
TEXT
  5
293
  8
0
  6
CONTINUOUS
 62
     7
 10
103.8571399999999
 20
-81.599999999999994
 30
0.0
 40
3.2000000000000002
  1
３
 41
0.90036055
  0
TEXT
  5
294
  8
0
  6
CONTINUOUS
 62
     7
 10
92.257142000000002
 20
-81.599999999999994
 30
0.0
 40
3.2000000000000002
  1
１０
 41
0.8643459000000001
  0
TEXT
  5
295
  8
0
  6
CONTINUOUS
 62
     7
 10
83.857141999999996
 20
-81.599999999999994
 30
0.0
 40
3.2000000000000002
  1
７
 41
0.90036055
  0
TEXT
  5
296
  8
0
  6
CONTINUOUS
 62
     7
 10
70.657142000000007
 20
-81.599999999999994
 30
0.0
 40
3.2000000000000002
  1
６．２
 41
0.85534224
  0
TEXT
  5
297
  8
0
  6
CONTINUOUS
 62
     7
 10
62.257142000000002
 20
-81.599999999999994
 30
0.0
 40
3.2000000000000002
  1
１０
 41
0.8643459000000001
  0
TEXT
  5
298
  8
0
  6
CONTINUOUS
 62
     7
 10
52.257142000000002
 20
-81.599999999999994
 30
0.0
 40
3.2000000000000002
  1
９５
 41
0.8643459000000001
  0
TEXT
  5
299
  8
0
  6
CONTINUOUS
 62
     7
 10
43.857141999999989
 20
-81.599999999999994
 30
0.0
 40
3.2000000000000002
  1
５
 41
0.90036055
  0
TEXT
  5
29A
  8
0
  6
CONTINUOUS
 62
     7
 10
30.65714199999999
 20
-81.599999999999994
 30
0.0
 40
3.2000000000000002
  1
１０５
 41
0.85534224
  0
TEXT
  5
29B
  8
0
  6
CONTINUOUS
 62
     7
 10
22.257142000000002
 20
-81.599999999999994
 30
0.0
 40
3.2000000000000002
  1
２０
 41
0.8643459000000001
  0
TEXT
  5
29C
  8
0
  6
CONTINUOUS
 62
     7
 10
12.257142
 20
-81.599999999999994
 30
0.0
 40
3.2000000000000002
  1
２８
 41
0.8643459000000001
  0
TEXT
  5
29D
  8
0
  6
CONTINUOUS
 62
     7
 10
2.257142299999999
 20
-81.599999999999994
 30
0.0
 40
3.2000000000000002
  1
４９
 41
0.8643459000000001
  0
TEXT
  5
29E
  8
0
  6
CONTINUOUS
 62
     7
 10
-7.7428577000000001
 20
-81.599999999999994
 30
0.0
 40
3.2000000000000002
  1
６６
 41
0.8643459000000001
  0
TEXT
  5
29F
  8
0
  6
CONTINUOUS
 62
     7
 10
-19.342857999999989
 20
-81.599999999999994
 30
0.0
 40
3.2000000000000002
  1
１１５
 41
0.85534224
  0
TEXT
  5
2A0
  8
0
  6
CONTINUOUS
 62
     7
 10
-27.742857999999998
 20
-81.599999999999994
 30
0.0
 40
3.2000000000000002
  1
２７
 41
0.8643459000000001
  0
TEXT
  5
2A1
  8
0
  6
CONTINUOUS
 62
     7
 10
-39.342857999999993
 20
-81.599999999999994
 30
0.0
 40
3.2000000000000002
  1
１１５
 41
0.85534224
  0
TEXT
  5
2A2
  8
0
  6
CONTINUOUS
 62
     7
 10
-68.942858000000001
 20
-81.599999999999994
 30
0.0
 40
3.2000000000000002
  1
ＥＬ－２（３）－２
 41
0.8449533999999999
  0
DIMENSION
  5
2A3
  8
0
  6
CONTINUOUS
 62
     7
  2
*D3
 10
-144.87937999999991
 20
6.5305710000000001
 30
0.0
 11
-144.87937999999991
 21
41.030571000000002
 31
0.0
  3
DIMSTYLE
 13
-101.5793799999999
 23
75.530570999999995
 33
0.0
 14
-101.5793799999999
 24
6.5305710000000001
 34
0.0
 50
90.0
1001
ACAD
1000
DSTYLE
1002
{
1070
    77
1070
     1
1070
   172
1070
     1
1002
}
  0
DIMENSION
  5
2A4
  8
0
  6
CONTINUOUS
 62
     7
  2
*D4
 10
-84.579375999999996
 20
-8.4694289999999999
 30
0.0
 11
-93.079375999999996
 21
-8.4694289999999999
 31
0.0
  3
DIMSTYLE
 13
-101.5793799999999
 23
6.5305710000000001
 33
0.0
 14
-84.579375999999996
 24
6.5305710000000001
 34
0.0
1001
ACAD
1000
DSTYLE
1002
{
1070
    77
1070
     1
1070
   172
1070
     1
1070
    75
1070
     1
1002
}
  0
DIMENSION
  5
2A5
  8
0
  6
CONTINUOUS
 62
     7
  2
*D5
 10
-101.5793799999999
 20
-8.4694289999999999
 30
0.0
 11
-109.67906000000001
 21
-8.4694289999999999
 31
0.0
  3
DIMSTYLE
 13
-117.7787399999999
 23
40.211018000000003
 33
0.0
 14
-101.5793799999999
 24
6.5305710000000001
 34
0.0
1001
ACAD
1000
DSTYLE
1002
{
1070
    77
1070
     1
1070
   172
1070
     1
1002
}
  0
DIMENSION
  5
2A6
  8
0
  6
CONTINUOUS
 62
     7
  2
*D6
 10
-64.079375999999996
 20
108.13056999999991
 30
0.0
 11
-96.979377999999997
 21
108.13056999999991
 31
0.0
  3
DIMSTYLE
 13
-129.87938
 23
62.530570999999988
 33
0.0
 14
-64.079375999999996
 24
67.030570999999995
 34
0.0
1001
ACAD
1000
DSTYLE
1002
{
1070
    77
1070
     1
1070
   172
1070
     1
1002
}
  0
DIMENSION
  5
2A7
  8
0
  6
CONTINUOUS
 62
     7
  2
*D7
 10
-64.079375999999996
 20
93.130568999999994
 30
0.0
 11
-78.579375999999996
 21
93.130568999999994
 31
0.0
  3
DIMSTYLE
 13
-93.079375999999996
 23
82.630568999999994
 33
0.0
 14
-64.079375999999996
 24
67.030570999999995
 34
0.0
1001
ACAD
1000
DSTYLE
1002
{
1070
    77
1070
     1
1070
   172
1070
     1
1070
    75
1070
     1
1002
}
  0
DIMENSION
  5
2A8
  8
0
  6
CONTINUOUS
 62
     7
  2
*D8
 10
-93.079375999999996
 20
93.130568999999994
 30
0.0
 11
-111.47938000000001
 21
93.130568999999994
 31
0.0
  3
DIMSTYLE
 13
-129.87938
 23
62.530570999999988
 33
0.0
 14
-93.079375999999996
 24
82.630568999999994
 34
0.0
1001
ACAD
1000
DSTYLE
1002
{
1070
    77
1070
     1
1070
   172
1070
     1
1002
}
  0
DIMENSION
  5
2A9
  8
0
  6
CONTINUOUS
 62
     7
  2
*D9
 10
-16.859264
 20
100.13056999999991
 30
0.0
 11
-21.80772
 21
100.13056999999991
 31
0.0
  3
DIMSTYLE
 13
-18.659264
 23
78.730568000000005
 33
0.0
 14
-16.859264
 24
78.730568000000005
 34
0.0
1001
ACAD
1000
DSTYLE
1002
{
1070
    77
1070
     1
1070
   172
1070
     1
1002
}
  0
DIMENSION
  5
2AA
  8
0
  6
CONTINUOUS
 62
     7
  2
*D10
 10
-10.859263999999991
 20
100.13056999999991
 30
0.0
 11
-13.859264
 21
100.13056999999991
 31
0.0
  3
DIMSTYLE
 13
-16.859264
 23
78.730568000000005
 33
0.0
 14
-10.859263999999991
 24
85.130568999999994
 34
0.0
1001
ACAD
1000
DSTYLE
1002
{
1070
    77
1070
     1
1070
   172
1070
     1
1070
    75
1070
     1
1002
}
  0
DIMENSION
  5
2AB
  8
0
  6
CONTINUOUS
 62
     7
  2
*D11
 10
-9.2592639999999982
 20
100.13056999999991
 30
0.0
 11
-5.6990785999999991
 21
100.13056999999991
 31
0.0
  3
DIMSTYLE
 13
-10.859263999999991
 23
85.130568999999994
 33
0.0
 14
-9.2592639999999982
 24
85.130568999999994
 34
0.0
1001
ACAD
1000
DSTYLE
1002
{
1070
    77
1070
     1
1070
   172
1070
     1
1070
    75
1070
     1
1002
}
  0
DIMENSION
  5
2AC
  8
0
  6
CONTINUOUS
 62
     7
  2
*D12
 10
22.468886999999992
 20
72.830566000000005
 30
0.0
 11
22.468886999999992
 21
81.967368999999991
 31
0.0
  3
DIMSTYLE
 13
-9.2592639999999982
 23
78.730568000000005
 33
0.0
 14
-9.2592639999999982
 24
72.830566000000005
 34
0.0
 50
90.0
1001
ACAD
1000
DSTYLE
1002
{
1070
    77
1070
     1
1070
   172
1070
     1
1002
}
  0
DIMENSION
  5
2AD
  8
0
  6
CONTINUOUS
 62
     7
  2
*D13
 10
22.468886999999992
 20
16.630569000000001
 30
0.0
 11
22.468886999999992
 21
44.730567999999998
 31
0.0
  3
DIMSTYLE
 13
-9.2592639999999982
 23
72.830566000000005
 33
0.0
 14
-11.459265
 24
16.630569000000001
 34
0.0
 50
90.0
1001
ACAD
1000
DSTYLE
1002
{
1070
    77
1070
     1
1070
   172
1070
     1
1070
    75
1070
     1
1002
}
  0
DIMENSION
  5
2AE
  8
0
  6
CONTINUOUS
 62
     7
  2
*D14
 10
22.468886999999992
 20
10.730572
 30
0.0
 11
22.468886999999992
 21
6.0969008999999996
 31
0.0
  3
DIMSTYLE
 13
-11.459265
 23
16.630569000000001
 33
0.0
 14
-16.859264
 24
10.730572
 34
0.0
 50
90.0
1001
ACAD
1000
DSTYLE
1002
{
1070
    77
1070
     1
1070
   172
1070
     1
1070
    75
1070
     1
1002
}
  0
DIMENSION
  5
2AF
  8
0
  6
CONTINUOUS
 62
     7
  2
*D15
 10
7.4688853999999996
 20
14.53056499999999
 30
0.0
 11
7.4688853999999996
 21
6.0969008999999996
 31
0.0
  3
DIMSTYLE
 13
-15.459265
 23
11.330568
 33
0.0
 14
-15.459265
 24
14.53056499999999
 34
0.0
 50
90.0
1001
ACAD
1000
DSTYLE
1002
{
1070
    77
1070
     1
1070
   172
1070
     1
1002
}
  0
DIMENSION
  5
2B0
  8
0
  6
CONTINUOUS
 62
     7
  2
*D16
 10
37.468887000000002
 20
12.930567
 30
0.0
 11
37.468887000000002
 21
6.0969008999999996
 31
0.0
  3
DIMSTYLE
 13
-16.859264
 23
10.730572
 33
0.0
 14
-12.859264
 24
12.930567
 34
0.0
 50
90.0
1001
ACAD
1000
DSTYLE
1002
{
1070
    77
1070
     1
1070
   172
1070
     1
1002
}
  0
DIMENSION
  5
2B1
  8
0
  6
CONTINUOUS
 62
     7
  2
*D17
 10
37.468887000000002
 20
76.530570999999995
 30
0.0
 11
37.468887000000002
 21
44.730567999999998
 31
0.0
  3
DIMSTYLE
 13
-12.859264
 23
12.930567
 33
0.0
 14
-12.859264
 24
76.530570999999995
 34
0.0
 50
90.0
1001
ACAD
1000
DSTYLE
1002
{
1070
    77
1070
     1
1070
   172
1070
     1
1070
    75
1070
     1
1002
}
  0
DIMENSION
  5
2B2
  8
0
  6
CONTINUOUS
 62
     7
  2
*D18
 10
37.468887000000002
 20
76.530570999999995
 30
0.0
 11
37.468887000000002
 21
82.459236000000004
 31
0.0
  3
DIMSTYLE
 13
-16.859264
 23
78.730568000000005
 33
0.0
 14
-12.859264
 24
76.530570999999995
 34
0.0
 50
90.0
1001
ACAD
1000
DSTYLE
1002
{
1070
    77
1070
     1
1070
   172
1070
     1
1070
    76
1070
     1
1002
}
  0
DIMENSION
  5
2B3
  8
0
  6
CONTINUOUS
 62
     7
  2
*D19
 10
-15.459265
 20
-4.2694282999999986
 30
0.0
 11
-23.211293999999992
 21
-4.2694282999999986
 31
0.0
  3
DIMSTYLE
 13
-18.659264
 23
10.730572
 33
0.0
 14
-15.459265
 24
11.330568
 34
0.0
1001
ACAD
1000
DSTYLE
1002
{
1070
    77
1070
     1
1070
   172
1070
     1
1002
}
  0
DIMENSION
  5
2B4
  8
0
  6
CONTINUOUS
 62
     7
  2
*D20
 10
-10.859263999999991
 20
-4.2694282999999986
 30
0.0
 11
-6.7057394999999991
 21
-4.2694282999999986
 31
0.0
  3
DIMSTYLE
 13
-15.459265
 23
11.330568
 33
0.0
 14
-10.859263999999991
 24
28.730568000000002
 34
0.0
1001
ACAD
1000
DSTYLE
1002
{
1070
    77
1070
     1
1070
   172
1070
     1
1070
    75
1070
     1
1002
}
  0
DIMENSION
  5
2B5
  8
0
  6
CONTINUOUS
 62
     7
  2
*D21
 10
73.301940999999985
 20
-2.6694336000000001
 30
0.0
 11
64.818336000000002
 21
-2.6694336000000001
 31
0.0
  3
DIMSTYLE
 13
68.301940999999985
 23
14.830565999999999
 33
0.0
 14
73.301940999999985
 24
14.830565999999999
 34
0.0
1001
ACAD
1000
DSTYLE
1002
{
1070
    77
1070
     1
1070
   172
1070
     1
1002
}
  0
DIMENSION
  5
2B6
  8
0
  6
CONTINUOUS
 62
     7
  2
*D22
 10
77.301940999999999
 20
28.98415399999999
 30
0.0
 11
73.970687999999996
 21
28.98415399999999
 31
0.0
  3
DIMSTYLE
 13
64.301940999999999
 23
28.98415399999999
 33
0.0
 14
77.301940999999999
 24
28.98415399999999
 34
0.0
1001
ACAD
1000
DSTYLE
1002
{
1070
    77
1070
     1
1070
   172
1070
     1
1070
    75
1070
     1
1070
    76
1070
     1
1002
}
  0
DIMENSION
  5
2B7
  8
0
  6
CONTINUOUS
 62
     7
  2
*D23
 10
92.301940999999999
 20
17.330566000000001
 30
0.0
 11
92.301940999999999
 21
45.330565999999997
 31
0.0
  3
DIMSTYLE
 13
77.301940999999999
 23
73.330566000000005
 33
0.0
 14
77.301940999999999
 24
17.330566000000001
 34
0.0
 50
90.0
1001
ACAD
1000
DSTYLE
1002
{
1070
    77
1070
     1
1070
   172
1070
     1
1002
}
  0
DIMENSION
  5
2B8
  8
0
  6
CONTINUOUS
 62
     7
  2
*D24
 10
107.3019399999999
 20
14.830565999999999
 30
0.0
 11
107.3019399999999
 21
45.330565999999997
 31
0.0
  3
DIMSTYLE
 13
75.801940999999985
 23
75.830566000000005
 33
0.0
 14
75.801940999999985
 24
14.830565999999999
 34
0.0
 50
90.0
1001
ACAD
1000
DSTYLE
1002
{
1070
    77
1070
     1
1070
   172
1070
     1
1002
}
  0
DIMENSION
  5
2B9
  8
0
  6
CONTINUOUS
 62
     7
  2
*D25
 10
-119.78445000000001
 20
56.530570999999988
 30
0.0
 11
-119.78445000000001
 21
62.530570999999988
 31
0.0
  3
DIMSTYLE
 13
-123.4793699999999
 23
68.530570999999995
 33
0.0
 14
-128.87938
 24
56.530570999999988
 34
0.0
 50
90.0
1001
ACAD
1000
DSTYLE
1002
{
1070
    77
1070
     1
1070
   172
1070
     1
1070
    75
1070
     1
1070
    76
1070
     1
1002
}
  0
ENDBLK
  5
2BA
  8
0
  0
BLOCK
  8
0
  2
KOZU0002
 70
     0
 10
0.0
 20
0.0
 30
0.0
  3
KOZU0002
  1

  0
POINT
  5
2BD
  8
0
  6
CONTINUOUS
 62
     7
 10
0.0
 20
0.0
 30
0.0
  0
POINT
  5
2BE
  8
0
  6
CONTINUOUS
 62
     7
 10
15.0
 20
0.0
 30
0.0
  0
POINT
  5
2BF
  8
0
  6
CONTINUOUS
 62
     7
 10
25.0
 20
0.0
 30
0.0
  0
POINT
  5
2C0
  8
0
  6
CONTINUOUS
 62
     7
 10
35.0
 20
0.0
 30
0.0
  0
POINT
  5
2C1
  8
0
  6
CONTINUOUS
 62
     7
 10
45.0
 20
0.0
 30
0.0
  0
POINT
  5
2C2
  8
0
  6
CONTINUOUS
 62
     7
 10
55.0
 20
0.0
 30
0.0
  0
POINT
  5
2C3
  8
0
  6
CONTINUOUS
 62
     7
 10
65.0
 20
0.0
 30
0.0
  0
POINT
  5
2C4
  8
0
  6
CONTINUOUS
 62
     7
 10
0.0
 20
10.0
 30
0.0
  0
POINT
  5
2C5
  8
0
  6
CONTINUOUS
 62
     7
 10
0.0
 20
20.0
 30
0.0
  0
POINT
  5
2C6
  8
0
  6
CONTINUOUS
 62
     7
 10
0.0
 20
30.0
 30
0.0
  0
POINT
  5
2C7
  8
0
  6
CONTINUOUS
 62
     7
 10
0.0
 20
40.0
 30
0.0
  0
POINT
  5
2C8
  8
0
  6
CONTINUOUS
 62
     7
 10
0.0
 20
50.0
 30
0.0
  0
POINT
  5
2C9
  8
0
  6
CONTINUOUS
 62
     7
 10
0.0
 20
60.0
 30
0.0
  0
POINT
  5
2CA
  8
0
  6
CONTINUOUS
 62
     7
 10
0.0
 20
-15.0
 30
0.0
  0
POINT
  5
2CB
  8
0
  6
CONTINUOUS
 62
     7
 10
0.0
 20
-25.0
 30
0.0
  0
POINT
  5
2CC
  8
0
  6
CONTINUOUS
 62
     7
 10
0.0
 20
-35.0
 30
0.0
  0
POINT
  5
2CD
  8
0
  6
CONTINUOUS
 62
     7
 10
0.0
 20
-45.0
 30
0.0
  0
POINT
  5
2CE
  8
0
  6
CONTINUOUS
 62
     7
 10
0.0
 20
-55.0
 30
0.0
  0
POINT
  5
2CF
  8
0
  6
CONTINUOUS
 62
     7
 10
-10.0
 20
0.0
 30
0.0
  0
POINT
  5
2D0
  8
0
  6
CONTINUOUS
 62
     7
 10
-20.0
 20
0.0
 30
0.0
  0
POINT
  5
2D1
  8
0
  6
CONTINUOUS
 62
     7
 10
-30.0
 20
0.0
 30
0.0
  0
POINT
  5
2D2
  8
0
  6
CONTINUOUS
 62
     7
 10
-40.0
 20
0.0
 30
0.0
  0
POINT
  5
2D3
  8
0
  6
CONTINUOUS
 62
     7
 10
-50.0
 20
0.0
 30
0.0
  0
POINT
  5
2D4
  8
0
  6
CONTINUOUS
 62
     7
 10
-60.0
 20
0.0
 30
0.0
  0
POINT
  5
2D5
  8
0
  6
CONTINUOUS
 62
     7
 10
0.0
 20
-65.0
 30
0.0
  0
ENDBLK
  5
2D6
  8
0
  0
BLOCK
  8
0
  2
KOZU0003
 70
     0
 10
0.0
 20
0.0
 30
0.0
  3
KOZU0003
  1

  0
LINE
  5
2D9
  8
0
  6
CONTINUOUS
 62
     3
 10
-32.303412999999999
 20
103.4006399999999
 30
0.0
 11
-25.303417
 21
103.4006399999999
 31
0.0
  0
LINE
  5
2DA
  8
0
  6
CONTINUOUS
 62
     3
 10
-33.303412999999999
 20
98.970352000000005
 30
0.0
 11
-24.303412999999999
 21
98.970352000000005
 31
0.0
  0
LINE
  5
2DB
  8
0
  6
CONTINUOUS
 62
     3
 10
-33.303412999999999
 20
100.90063000000001
 30
0.0
 11
-24.303412999999999
 21
100.90063000000001
 31
0.0
  0
LINE
  5
2DC
  8
0
  6
CONTINUOUS
 62
     3
 10
-33.303412999999999
 20
100.90063000000001
 30
0.0
 11
-33.303412999999999
 21
98.970352000000005
 31
0.0
  0
LINE
  5
2DD
  8
0
  6
CONTINUOUS
 62
     3
 10
-24.303412999999999
 20
100.90063000000001
 30
0.0
 11
-24.303412999999999
 21
98.970352000000005
 31
0.0
  0
LINE
  5
2DE
  8
0
  6
PHANTOM
 62
     7
 10
-31.303412999999988
 20
95.900634999999994
 30
0.0
 11
18.696587000000001
 21
95.900634999999994
 31
0.0
  0
LINE
  5
2DF
  8
0
  6
CONTINUOUS
 62
     3
 10
-32.30341
 20
103.40063000000001
 30
0.0
 11
-30.135621999999991
 21
107.59
 31
0.0
  0
LINE
  5
2E0
  8
0
  6
CONTINUOUS
 62
     3
 10
-25.303412999999988
 20
103.40063000000001
 30
0.0
 11
-27.471195000000002
 21
107.58998
 31
0.0
  0
LINE
  5
2E1
  8
0
  6
CONTINUOUS
 62
     3
 10
-31.303412999999988
 20
103.40063000000001
 30
0.0
 11
-31.303412999999988
 21
100.90063000000001
 31
0.0
  0
LINE
  5
2E2
  8
0
  6
CONTINUOUS
 62
     3
 10
-26.303412999999988
 20
103.40063000000001
 30
0.0
 11
-26.303412999999988
 21
100.90063000000001
 31
0.0
  0
LINE
  5
2E3
  8
0
  6
CONTINUOUS
 62
     7
 10
-17.937108999999989
 20
4.7631477999999987
 30
0.0
 11
-5.0652957000000001
 21
4.7631477999999987
 31
0.0
  0
LINE
  5
2E4
  8
0
  6
CONTINUOUS
 62
     7
 10
-17.937107000000001
 20
-27.099367000000001
 30
0.0
 11
-7.8575935000000001
 21
-27.099367000000001
 31
0.0
  0
LINE
  5
2E5
  8
0
  6
PHANTOM
 62
     7
 10
-30.803412999999999
 20
97.900634999999994
 30
0.0
 11
18.696587000000001
 21
97.900634999999994
 31
0.0
  0
LINE
  5
2E6
  8
0
  6
CENTER
 62
     7
 10
-28.803412999999988
 20
-0.8838620200000001
 30
0.0
 11
-28.803412999999988
 21
-12.92993899999999
 31
0.0
  0
LINE
  5
2E7
  8
0
  6
CONTINUOUS
 62
     3
 10
-33.303412999999999
 20
-9.0993671000000003
 30
0.0
 11
-24.303412999999999
 21
-9.0993671000000003
 31
0.0
  0
LINE
  5
2E8
  8
0
  6
CONTINUOUS
 62
     3
 10
-33.303412999999999
 20
-9.0993671000000003
 30
0.0
 11
-33.303412999999999
 21
-11.029652999999991
 31
0.0
  0
LINE
  5
2E9
  8
0
  6
CONTINUOUS
 62
     3
 10
-24.303412999999999
 20
-9.0993671000000003
 30
0.0
 11
-24.303412999999999
 21
-11.029652999999991
 31
0.0
  0
LINE
  5
2EA
  8
0
  6
CONTINUOUS
 62
     3
 10
-33.303412999999999
 20
-11.029652999999991
 30
0.0
 11
-24.303412999999999
 21
-11.029652999999991
 31
0.0
  0
LINE
  5
2EB
  8
0
  6
CONTINUOUS
 62
     3
 10
-32.303412999999999
 20
-6.5993671000000003
 30
0.0
 11
-25.303412999999988
 21
-6.5993671000000003
 31
0.0
  0
LINE
  5
2EC
  8
0
  6
CONTINUOUS
 62
     3
 10
-32.303412999999999
 20
-6.5993667
 30
0.0
 11
-30.135625999999998
 21
-2.4100114999999991
 31
0.0
  0
LINE
  5
2ED
  8
0
  6
CONTINUOUS
 62
     3
 10
-25.303412999999988
 20
-6.5993671000000003
 30
0.0
 11
-27.471201000000001
 21
-2.4100122000000002
 31
0.0
  0
LINE
  5
2EE
  8
0
  6
CONTINUOUS
 62
     3
 10
-31.303412999999988
 20
-6.5993671000000003
 30
0.0
 11
-31.303412999999988
 21
-9.0993671000000003
 31
0.0
  0
LINE
  5
2EF
  8
0
  6
CONTINUOUS
 62
     3
 10
-26.303412999999988
 20
-6.5993671000000003
 30
0.0
 11
-26.303412999999988
 21
-9.0993671000000003
 31
0.0
  0
LINE
  5
2F0
  8
0
  6
PHANTOM
 62
     7
 10
-33.303412999999999
 20
95.400634999999994
 30
0.0
 11
-33.303412999999999
 21
60.400635000000001
 31
0.0
  0
LINE
  5
2F1
  8
0
  6
PHANTOM
 62
     7
 10
-31.303412999999988
 20
95.900634999999994
 30
0.0
 11
-31.303412999999988
 21
59.900635000000001
 31
0.0
  0
LINE
  5
2F2
  8
0
  6
PHANTOM
 62
     7
 10
-30.803412999999999
 20
57.900635000000001
 30
0.0
 11
18.696587000000001
 21
57.900635000000001
 31
0.0
  0
LINE
  5
2F3
  8
0
  6
PHANTOM
 62
     7
 10
-31.303412999999988
 20
59.900635000000001
 30
0.0
 11
18.696587000000001
 21
59.900635000000001
 31
0.0
  0
LINE
  5
2F4
  8
0
  6
PHANTOM
 62
     7
 10
-46.303412999999999
 20
122.65063000000001
 30
0.0
 11
-46.303412999999999
 21
115.15063000000001
 31
0.0
  0
LINE
  5
2F5
  8
0
  6
PHANTOM
 62
     7
 10
-39.303412999999999
 20
100.65063000000001
 30
0.0
 11
-39.303412999999999
 21
57.150635000000001
 31
0.0
  0
LINE
  5
2F6
  8
0
  6
PHANTOM
 62
     7
 10
-36.803412999999999
 20
103.15062999999989
 30
0.0
 11
-31.303412999999988
 21
103.15062999999989
 31
0.0
  0
LINE
  5
2F7
  8
0
  6
PHANTOM
 62
     7
 10
-37.303412999999999
 20
101.15063000000001
 30
0.0
 11
-37.303412999999999
 21
57.650635000000001
 31
0.0
  0
LINE
  5
2F8
  8
0
  6
PHANTOM
 62
     7
 10
-21.303412999999988
 20
122.65063000000001
 30
0.0
 11
-21.303412999999988
 21
103.65063000000001
 31
0.0
  0
LINE
  5
2F9
  8
0
  6
PHANTOM
 62
     7
 10
-37.303412999999999
 20
101.15063000000001
 30
0.0
 11
-31.303412999999988
 21
101.15063000000001
 31
0.0
  0
LINE
  5
2FA
  8
0
  6
PHANTOM
 62
     7
 10
-60.303412999999992
 20
57.150635000000001
 30
0.0
 11
-39.303412999999999
 21
57.150635000000001
 31
0.0
  0
LINE
  5
2FB
  8
0
  6
PHANTOM
 62
     7
 10
-59.803412999999999
 20
55.150635000000001
 30
0.0
 11
-39.803412999999999
 21
55.150635000000001
 31
0.0
  0
LINE
  5
2FC
  8
0
  6
PHANTOM
 62
     7
 10
-23.303412999999999
 20
123.15063000000001
 30
0.0
 11
-23.303412999999999
 21
103.15062999999989
 31
0.0
  0
LINE
  5
2FD
  8
0
  6
PHANTOM
 62
     7
 10
-44.303412999999999
 20
123.15063000000001
 30
0.0
 11
-23.303412999999999
 21
123.15063000000001
 31
0.0
  0
LINE
  5
2FE
  8
0
  6
PHANTOM
 62
     7
 10
-26.303412999999988
 20
101.15063000000001
 30
0.0
 11
-23.803412999999988
 21
101.15063000000001
 31
0.0
  0
LINE
  5
2FF
  8
0
  6
PHANTOM
 62
     7
 10
-60.303412999999992
 20
65.150634999999994
 30
0.0
 11
-60.303412999999992
 21
57.150635000000001
 31
0.0
  0
LINE
  5
300
  8
0
  6
PHANTOM
 62
     7
 10
-62.303412999999999
 20
65.150634999999994
 30
0.0
 11
-62.303412999999999
 21
57.650635000000001
 31
0.0
  0
LINE
  5
301
  8
0
  6
PHANTOM
 62
     7
 10
-26.303412999999988
 20
103.15062999999989
 30
0.0
 11
-23.303412999999999
 21
103.15062999999989
 31
0.0
  0
LINE
  5
302
  8
0
  6
PHANTOM
 62
     7
 10
-43.803412999999999
 20
125.15063000000001
 30
0.0
 11
-23.803412999999988
 21
125.15063000000001
 31
0.0
  0
LINE
  5
303
  8
0
  6
PHANTOM
 62
     7
 10
-62.303412999999999
 20
65.150634999999994
 30
0.0
 11
-60.303412999999992
 21
65.150634999999994
 31
0.0
  0
LINE
  5
304
  8
0
  6
PHANTOM
 62
     7
 10
-44.303412999999999
 20
123.15063000000001
 30
0.0
 11
-44.303412999999999
 21
115.15063000000001
 31
0.0
  0
LINE
  5
305
  8
0
  6
PHANTOM
 62
     7
 10
-46.303412999999999
 20
115.15063000000001
 30
0.0
 11
-44.303412999999999
 21
115.15063000000001
 31
0.0
  0
ARC
  5
306
  8
0
  6
CONTINUOUS
 62
     3
 10
-28.803412999999988
 20
106.90063000000001
 30
0.0
 40
1.5
 50
27.359325999999989
 51
152.64067
  0
ARC
  5
307
  8
0
  6
CONTINUOUS
 62
     3
 10
-28.803412999999988
 20
107.90063000000001
 30
0.0
 40
10.0
 50
243.25628999999989
 51
296.74369000000002
  0
ARC
  5
308
  8
0
  6
CONTINUOUS
 62
     3
 10
-28.803412999999988
 20
-2.0993670999999998
 30
0.0
 40
10.0
 50
243.25628999999989
 51
296.74367999999993
  0
ARC
  5
309
  8
0
  6
CONTINUOUS
 62
     3
 10
-28.803412999999988
 20
-3.0993670999999998
 30
0.0
 40
1.5
 50
27.359358
 51
152.64063999999991
  0
ARC
  5
30A
  8
0
  6
PHANTOM
 62
     7
 10
-23.803412999999988
 20
103.65063000000001
 30
0.0
 40
2.5
 50
270.0
 51
0.0
  0
ARC
  5
30B
  8
0
  6
PHANTOM
 62
     7
 10
-30.803412999999999
 20
95.400634999999994
 30
0.0
 40
2.5
 50
90.0
 51
180.0
  0
ARC
  5
30C
  8
0
  6
PHANTOM
 62
     7
 10
-30.803412999999999
 20
60.400635000000001
 30
0.0
 40
2.5
 50
180.0
 51
270.0000399999999
  0
ARC
  5
30D
  8
0
  6
PHANTOM
 62
     7
 10
-23.803412999999988
 20
122.65063000000001
 30
0.0
 40
2.5
 50
0.0
 51
90.0
  0
ARC
  5
30E
  8
0
  6
PHANTOM
 62
     7
 10
-36.803412999999999
 20
100.65063000000001
 30
0.0
 40
2.5
 50
90.0
 51
180.0
  0
ARC
  5
30F
  8
0
  6
PHANTOM
 62
     7
 10
-39.803412999999999
 20
57.650635000000001
 30
0.0
 40
2.5
 50
270.0
 51
0.0
  0
ARC
  5
310
  8
0
  6
PHANTOM
 62
     7
 10
-59.803412999999999
 20
57.650635000000001
 30
0.0
 40
2.5
 50
180.0
 51
270.0
  0
ARC
  5
311
  8
0
  6
PHANTOM
 62
     7
 10
-43.803412999999999
 20
122.65063000000001
 30
0.0
 40
2.5
 50
90.0
 51
180.0
  0
TEXT
  5
312
  8
0
  6
CONTINUOUS
 62
     7
 10
-17.080109
 20
5.5131477999999987
 30
0.0
 40
3.0
  1
R1.5
 41
1.3928750000000001
  0
TEXT
  5
313
  8
0
  6
CONTINUOUS
 62
     7
 10
-17.080107000000002
 20
-26.34936699999999
 30
0.0
 40
3.0
  1
R10
 41
1.221449999999999
  0
DIMENSION
  5
314
  8
0
  6
CONTINUOUS
 62
     7
  2
*D26
 10
-24.303412999999999
 20
-27.099367000000001
 30
0.0
 11
-28.803412999999988
 21
-27.099367000000001
 31
0.0
  3
DIMSTYLE
 13
-33.303412999999999
 23
-11.029652999999991
 33
0.0
 14
-24.303412999999999
 24
-11.029652999999991
 34
0.0
1001
ACAD
1000
DSTYLE
1002
{
1070
    77
1070
     1
1070
   172
1070
     1
1002
}
  0
INSERT
  5
316
  8
0
  6
CONTINUOUS
 62
     7
  2
KOZU0005
 10
-27.989944000000001
 20
-1.8391002000000001
 30
0.0
  0
DIMENSION
  5
317
  8
0
  6
CONTINUOUS
 62
     7
  2
*D27
 10
-25.303412999999988
 20
28.400632999999999
 30
0.0
 11
-28.803412999999988
 21
28.400632999999999
 31
0.0
  3
DIMSTYLE
 13
-32.303412999999999
 23
-6.5993671000000003
 33
0.0
 14
-25.303412999999988
 24
-6.5993671000000003
 34
0.0
1001
ACAD
1000
DSTYLE
1002
{
1070
    77
1070
     1
1070
   172
1070
     1
1002
}
  0
DIMENSION
  5
318
  8
0
  6
CONTINUOUS
 62
     7
  2
*D28
 10
-26.303412999999988
 20
13.40063299999999
 30
0.0
 11
-28.803412999999988
 21
13.40063299999999
 31
0.0
  3
DIMSTYLE
 13
-31.303412999999988
 23
-6.5993671000000003
 33
0.0
 14
-26.303412999999988
 24
-6.5993671000000003
 34
0.0
1001
ACAD
1000
DSTYLE
1002
{
1070
    77
1070
     1
1070
   172
1070
     1
1002
}
  0
DIMENSION
  5
319
  8
0
  6
CONTINUOUS
 62
     7
  2
*D29
 10
-9.3034134000000002
 20
-12.099367000000001
 30
0.0
 11
-9.3034134000000002
 21
-15.532090999999999
 31
0.0
  3
DIMSTYLE
 13
-24.303412999999999
 23
-9.0993671000000003
 33
0.0
 14
-28.803412999999988
 24
-12.099367000000001
 34
0.0
 50
90.0
1001
ACAD
1000
DSTYLE
1002
{
1070
    77
1070
     1
1070
   172
1070
     1
1002
}
  0
DIMENSION
  5
31A
  8
0
  6
CONTINUOUS
 62
     7
  2
*D30
 10
-9.3034134000000002
 20
-1.5993671
 30
0.0
 11
-9.3034134000000002
 21
-4.0993671000000003
 31
0.0
  3
DIMSTYLE
 13
-25.303412999999988
 23
-6.5993671000000003
 33
0.0
 14
-28.803412999999988
 24
-1.5993671
 34
0.0
 50
90.0
1001
ACAD
1000
DSTYLE
1002
{
1070
    77
1070
     1
1070
   172
1070
     1
1002
}
  0
DIMENSION
  5
31B
  8
0
  6
CONTINUOUS
 62
     7
  2
*D31
 10
-9.3034134000000002
 20
-9.0993671000000003
 30
0.0
 11
-9.3034134000000002
 21
-7.8493671000000003
 31
0.0
  3
DIMSTYLE
 13
-25.303412999999988
 23
-6.5993671000000003
 33
0.0
 14
-24.303412999999999
 24
-9.0993671000000003
 34
0.0
 50
90.0
1001
ACAD
1000
DSTYLE
1002
{
1070
    77
1070
     1
1070
   172
1070
     1
1070
    75
1070
     1
1002
}
  0
INSERT
  5
31D
  8
0
  6
CONTINUOUS
 62
     7
  2
KOZU0006
 10
-27.335514
 20
-11.991044
 30
0.0
  0
ENDBLK
  5
31E
  8
0
  0
BLOCK
  8
0
  2
KOZU0005
 70
     0
 10
0.0
 20
0.0
 30
0.0
  3
KOZU0005
  1

  0
LINE
  5
34E
  8
0
  6
CONTINUOUS
 62
     7
 10
0.0
 20
0.0
 30
0.0
 11
10.052834999999989
 21
6.6022475999999992
 31
0.0
  0
CIRCLE
  5
34F
  8
0
  6
CONTINUOUS
 62
     7
 10
0.0
 20
0.0
 30
0.0
 40
0.4000000100000001
  0
ENDBLK
  5
350
  8
0
  0
BLOCK
  8
0
  2
KOZU0006
 70
     0
 10
0.0
 20
0.0
 30
0.0
  3
KOZU0006
  1

  0
LINE
  5
352
  8
0
  6
CONTINUOUS
 62
     7
 10
0.0
 20
0.0
 30
0.0
 11
9.3984050999999997
 21
-15.108325000000001
 31
0.0
  0
CIRCLE
  5
353
  8
0
  6
CONTINUOUS
 62
     7
 10
0.0
 20
0.0
 30
0.0
 40
0.4000000100000001
  0
ENDBLK
  5
354
  8
0
  0
BLOCK
  8
0
  2
KOZU0004
 70
     0
 10
0.0
 20
0.0
 30
0.0
  3
KOZU0004
  1

  0
POINT
  5
321
  8
0
  6
CONTINUOUS
 62
     7
 10
-7.4534130000000003
 20
-11.029652999999991
 30
0.0
  0
LINE
  5
322
  8
0
  6
CONTINUOUS
 62
     3
 10
-35.153407999999999
 20
101.10063
 30
0.0
 11
-22.453414999999989
 21
101.10063
 31
0.0
  0
LINE
  5
323
  8
0
  6
CONTINUOUS
 62
     3
 10
-33.634663000000003
 20
-7.4296527000000001
 30
0.0
 11
-35.153412000000003
 21
-11.02965399999999
 31
0.0
  0
LINE
  5
324
  8
0
  6
CONTINUOUS
 62
     3
 10
-35.153412000000003
 20
-11.029652999999991
 30
0.0
 11
-22.453413000000001
 21
-11.029652999999991
 31
0.0
  0
LINE
  5
325
  8
0
  6
PHANTOM
 62
     7
 10
-36.803412999999999
 20
103.10063
 30
0.0
 11
-23.303412999999999
 21
103.10063
 31
0.0
  0
LINE
  5
326
  8
0
  6
PHANTOM
 62
     7
 10
-31.303412999999988
 20
95.900634999999994
 30
0.0
 11
18.696587000000001
 21
95.900634999999994
 31
0.0
  0
LINE
  5
327
  8
0
  6
CONTINUOUS
 62
     3
 10
-22.453413000000001
 20
-11.029652999999991
 30
0.0
 11
-23.972163999999999
 21
-7.4296527000000001
 31
0.0
  0
LINE
  5
328
  8
0
  6
PHANTOM
 62
     7
 10
-23.803412999999988
 20
101.10063
 30
0.0
 11
-23.803412999999988
 21
101.10063
 31
0.0
  0
LINE
  5
329
  8
0
  6
CONTINUOUS
 62
     3
 10
-33.803416999999989
 20
97.900642000000005
 30
0.0
 11
-35.153412000000003
 21
101.10063
 31
0.0
  0
LINE
  5
32A
  8
0
  6
CONTINUOUS
 62
     3
 10
-22.453410999999999
 20
101.10063
 30
0.0
 11
-23.80341
 21
97.900634999999994
 31
0.0
  0
LINE
  5
32B
  8
0
  6
PHANTOM
 62
     7
 10
-23.80340799999999
 20
97.900634999999994
 30
0.0
 11
18.696587000000001
 21
97.900634999999994
 31
0.0
  0
LINE
  5
32C
  8
0
  6
CENTER
 62
     7
 10
-28.803412999999988
 20
-6.2378469000000001
 30
0.0
 11
-28.803412999999988
 21
-12.340425
 31
0.0
  0
LINE
  5
32D
  8
0
  6
CONTINUOUS
 62
     3
 10
-33.803412999999992
 20
97.900634999999994
 30
0.0
 11
-23.803412999999988
 21
97.900634999999994
 31
0.0
  0
LINE
  5
32E
  8
0
  6
PHANTOM
 62
     7
 10
-33.303412999999999
 20
95.400634999999994
 30
0.0
 11
-33.303412999999999
 21
60.400635000000001
 31
0.0
  0
LINE
  5
32F
  8
0
  6
PHANTOM
 62
     7
 10
-31.303412999999988
 20
95.900634999999994
 30
0.0
 11
-31.303412999999988
 21
59.900635000000001
 31
0.0
  0
LINE
  5
330
  8
0
  6
PHANTOM
 62
     7
 10
-30.803412999999999
 20
57.900635000000001
 30
0.0
 11
18.696587000000001
 21
57.900635000000001
 31
0.0
  0
LINE
  5
331
  8
0
  6
PHANTOM
 62
     7
 10
-31.303412999999988
 20
59.900635000000001
 30
0.0
 11
18.696587000000001
 21
59.900635000000001
 31
0.0
  0
LINE
  5
332
  8
0
  6
PHANTOM
 62
     7
 10
-46.303412999999999
 20
122.65063000000001
 30
0.0
 11
-46.303412999999999
 21
115.15063000000001
 31
0.0
  0
LINE
  5
333
  8
0
  6
PHANTOM
 62
     7
 10
-37.303412999999999
 20
101.10063
 30
0.0
 11
-35.153407999999999
 21
101.10063
 31
0.0
  0
LINE
  5
334
  8
0
  6
PHANTOM
 62
     7
 10
-39.303412999999999
 20
100.60063
 30
0.0
 11
-39.303412999999999
 21
57.150635000000001
 31
0.0
  0
LINE
  5
335
  8
0
  6
PHANTOM
 62
     7
 10
-37.303412999999999
 20
101.15063000000001
 30
0.0
 11
-37.303412999999999
 21
57.650635000000001
 31
0.0
  0
LINE
  5
336
  8
0
  6
PHANTOM
 62
     7
 10
-21.303412999999988
 20
122.65063000000001
 30
0.0
 11
-21.303412999999988
 21
103.60063
 31
0.0
  0
LINE
  5
337
  8
0
  6
PHANTOM
 62
     7
 10
-60.303412999999992
 20
57.150635000000001
 30
0.0
 11
-39.303412999999999
 21
57.150635000000001
 31
0.0
  0
LINE
  5
338
  8
0
  6
PHANTOM
 62
     7
 10
-59.803412999999999
 20
55.150635000000001
 30
0.0
 11
-39.803412999999999
 21
55.150635000000001
 31
0.0
  0
LINE
  5
339
  8
0
  6
PHANTOM
 62
     7
 10
-23.303412999999999
 20
123.15063000000001
 30
0.0
 11
-23.303412999999999
 21
103.10063
 31
0.0
  0
LINE
  5
33A
  8
0
  6
PHANTOM
 62
     7
 10
-44.303412999999999
 20
123.15063000000001
 30
0.0
 11
-23.303412999999999
 21
123.15063000000001
 31
0.0
  0
LINE
  5
33B
  8
0
  6
PHANTOM
 62
     7
 10
-60.303412999999992
 20
65.150634999999994
 30
0.0
 11
-60.303412999999992
 21
57.150635000000001
 31
0.0
  0
LINE
  5
33C
  8
0
  6
PHANTOM
 62
     7
 10
-62.303412999999999
 20
65.150634999999994
 30
0.0
 11
-62.303412999999999
 21
57.650635000000001
 31
0.0
  0
LINE
  5
33D
  8
0
  6
PHANTOM
 62
     7
 10
-43.803412999999999
 20
125.15063000000001
 30
0.0
 11
-23.803412999999988
 21
125.15063000000001
 31
0.0
  0
LINE
  5
33E
  8
0
  6
PHANTOM
 62
     7
 10
-62.303412999999999
 20
65.150634999999994
 30
0.0
 11
-60.303412999999992
 21
65.150634999999994
 31
0.0
  0
LINE
  5
33F
  8
0
  6
PHANTOM
 62
     7
 10
-44.303412999999999
 20
123.15063000000001
 30
0.0
 11
-44.303412999999999
 21
115.15063000000001
 31
0.0
  0
LINE
  5
340
  8
0
  6
PHANTOM
 62
     7
 10
-46.303412999999999
 20
115.15063000000001
 30
0.0
 11
-44.303412999999999
 21
115.15063000000001
 31
0.0
  0
LINE
  5
341
  8
0
  6
CONTINUOUS
 62
     7
 10
-33.634663000000003
 20
-7.4296527000000001
 30
0.0
 11
-23.972163999999999
 21
-7.4296527000000001
 31
0.0
  0
ARC
  5
342
  8
0
  6
CONTINUOUS
 62
     7
 10
-36.803412999999999
 20
100.60063
 30
0.0
 40
2.5
 50
90.0
 51
180.0
  0
ARC
  5
343
  8
0
  6
PHANTOM
 62
     7
 10
-23.803412999999988
 20
103.60063
 30
0.0
 40
2.5
 50
270.0
 51
0.0
  0
ARC
  5
344
  8
0
  6
PHANTOM
 62
     7
 10
-30.803412999999999
 20
95.400634999999994
 30
0.0
 40
2.5
 50
90.0
 51
180.0
  0
ARC
  5
345
  8
0
  6
PHANTOM
 62
     7
 10
-30.803412999999999
 20
60.400635000000001
 30
0.0
 40
2.5
 50
180.0
 51
270.0000399999999
  0
ARC
  5
346
  8
0
  6
PHANTOM
 62
     7
 10
-23.803412999999988
 20
122.65063000000001
 30
0.0
 40
2.5
 50
0.0
 51
90.0
  0
ARC
  5
347
  8
0
  6
PHANTOM
 62
     7
 10
-39.803412999999999
 20
57.650635000000001
 30
0.0
 40
2.5
 50
270.0
 51
0.0
  0
ARC
  5
348
  8
0
  6
PHANTOM
 62
     7
 10
-59.803412999999999
 20
57.650635000000001
 30
0.0
 40
2.5
 50
180.0
 51
270.0
  0
ARC
  5
349
  8
0
  6
PHANTOM
 62
     7
 10
-43.803412999999999
 20
122.65063000000001
 30
0.0
 40
2.5
 50
90.0
 51
180.0
  0
DIMENSION
  5
34A
  8
0
  6
CONTINUOUS
 62
     7
  2
*D32
 10
-7.4534130000000003
 20
-7.4296527000000001
 30
0.0
 11
-7.4534130000000003
 21
-2.190860499999999
 31
0.0
  3
DIMSTYLE
 13
-22.453413000000001
 23
-11.029652999999991
 33
0.0
 14
-23.972163999999999
 24
-7.4296527000000001
 34
0.0
 50
90.0
1001
ACAD
1000
DSTYLE
1002
{
1070
    77
1070
     1
1070
   172
1070
     1
1002
}
  0
DIMENSION
  5
34B
  8
0
  6
CONTINUOUS
 62
     7
  2
*D33
 10
-22.453413000000001
 20
-26.029651999999992
 30
0.0
 11
-28.803412999999988
 21
-26.029651999999992
 31
0.0
  3
DIMSTYLE
 13
-35.153412000000003
 23
-11.029652999999991
 33
0.0
 14
-22.453413000000001
 24
-11.029652999999991
 34
0.0
1001
ACAD
1000
DSTYLE
1002
{
1070
    77
1070
     1
1070
   172
1070
     1
1002
}
  0
ENDBLK
  5
34C
  8
0
  0
ENDSEC
  0
SECTION
  2
ENTITIES
  0
LINE
  5
355
  8
0
  6
CONTINUOUS
 62
     7
 10
170.0
 20
173.0
 30
0.0
 11
170.0
 21
-100.0
 31
0.0
  0
LINE
  5
356
  8
0
  6
CONTINUOUS
 62
     7
 10
-211.0
 20
-100.0
 30
0.0
 11
170.0
 21
-100.0
 31
0.0
  0
LINE
  5
357
  8
0
  6
CONTINUOUS
 62
     7
 10
-211.0
 20
173.0
 30
0.0
 11
170.0
 21
173.0
 31
0.0
  0
LINE
  5
358
  8
0
  6
CONTINUOUS
 62
     7
 10
-211.0
 20
173.0
 30
0.0
 11
-211.0
 21
-100.0
 31
0.0
  0
LINE
  5
359
  8
0
  6
CONTINUOUS
 62
     7
 10
-191.0
 20
173.0
 30
0.0
 11
-191.0
 21
77.0
 31
0.0
  0
LINE
  5
35A
  8
0
  6
CONTINUOUS
 62
     7
 10
-211.0
 20
165.0
 30
0.0
 11
-101.0
 21
165.0
 31
0.0
  0
LINE
  5
35B
  8
0
  6
CONTINUOUS
 62
     7
 10
-211.0
 20
157.0
 30
0.0
 11
-101.0
 21
157.0
 31
0.0
  0
LINE
  5
35C
  8
0
  6
CONTINUOUS
 62
     7
 10
-191.0
 20
117.0
 30
0.0
 11
-101.0
 21
117.0
 31
0.0
  0
LINE
  5
35D
  8
0
  6
CONTINUOUS
 62
     7
 10
-191.0
 20
109.0
 30
0.0
 11
-101.0
 21
109.0
 31
0.0
  0
LINE
  5
35E
  8
0
  6
CONTINUOUS
 62
     7
 10
-211.0
 20
101.0
 30
0.0
 11
-101.0
 21
101.0
 31
0.0
  0
LINE
  5
35F
  8
0
  6
CONTINUOUS
 62
     7
 10
-191.0
 20
93.0
 30
0.0
 11
-101.0
 21
93.0
 31
0.0
  0
LINE
  5
360
  8
0
  6
CONTINUOUS
 62
     7
 10
-191.0
 20
85.0
 30
0.0
 11
-101.0
 21
85.0
 31
0.0
  0
LINE
  5
361
  8
0
  6
CONTINUOUS
 62
     7
 10
-211.0
 20
77.0
 30
0.0
 11
-101.0
 21
77.0
 31
0.0
  0
LINE
  5
362
  8
0
  6
CONTINUOUS
 62
     7
 10
-211.0
 20
173.0
 30
0.0
 11
-211.0
 21
93.0
 31
0.0
  0
LINE
  5
363
  8
0
  6
CONTINUOUS
 62
     7
 10
-211.0
 20
173.0
 30
0.0
 11
-101.0
 21
173.0
 31
0.0
  0
LINE
  5
364
  8
0
  6
CONTINUOUS
 62
     7
 10
-101.0
 20
173.0
 30
0.0
 11
-101.0
 21
77.0
 31
0.0
  0
LINE
  5
365
  8
0
  6
CONTINUOUS
 62
     7
 10
-211.0
 20
133.0
 30
0.0
 11
-101.0
 21
133.0
 31
0.0
  0
LINE
  5
366
  8
0
  6
CONTINUOUS
 62
     7
 10
-211.0
 20
125.0
 30
0.0
 11
-101.0
 21
125.0
 31
0.0
  0
LINE
  5
367
  8
0
  6
CONTINUOUS
 62
     7
 10
-191.0
 20
117.0
 30
0.0
 11
-101.0
 21
117.0
 31
0.0
  0
LINE
  5
368
  8
0
  6
CONTINUOUS
 62
     7
 10
-211.0
 20
149.0
 30
0.0
 11
-101.0
 21
149.0
 31
0.0
  0
LINE
  5
369
  8
0
  6
CONTINUOUS
 62
     7
 10
-211.0
 20
141.0
 30
0.0
 11
-101.0
 21
141.0
 31
0.0
  0
LINE
  5
36A
  8
0
  6
CONTINUOUS
 62
     3
 10
-24.153407999999999
 20
82.419776999999996
 30
0.0
 11
-11.453415
 21
82.419776999999996
 31
0.0
  0
LINE
  5
36B
  8
0
  6
CONTINUOUS
 62
     3
 10
-22.634664999999991
 20
-26.110503999999999
 30
0.0
 11
-24.153411999999999
 21
-29.710505000000001
 31
0.0
  0
LINE
  5
36C
  8
0
  6
CONTINUOUS
 62
     3
 10
-24.153411999999999
 20
-29.710505000000001
 30
0.0
 11
-11.453412999999999
 21
-29.710505000000001
 31
0.0
  0
LINE
  5
36D
  8
0
  6
PHANTOM
 62
     7
 10
-25.803412999999999
 20
84.419776999999996
 30
0.0
 11
-12.303413000000001
 21
84.419776999999996
 31
0.0
  0
LINE
  5
36E
  8
0
  6
PHANTOM
 62
     7
 10
-20.303412999999988
 20
77.21978
 30
0.0
 11
29.696587000000001
 21
77.21978
 31
0.0
  0
LINE
  5
36F
  8
0
  6
CONTINUOUS
 62
     3
 10
-11.453412999999999
 20
-29.710505000000001
 30
0.0
 11
-12.97216399999999
 21
-26.110502
 31
0.0
  0
LINE
  5
370
  8
0
  6
PHANTOM
 62
     7
 10
-12.803413000000001
 20
82.419776999999996
 30
0.0
 11
-12.803413000000001
 21
82.419776999999996
 31
0.0
  0
LINE
  5
371
  8
0
  6
CONTINUOUS
 62
     3
 10
-22.803415000000001
 20
79.219794999999991
 30
0.0
 11
-24.153410000000001
 21
82.419785000000005
 31
0.0
  0
LINE
  5
372
  8
0
  6
CONTINUOUS
 62
     3
 10
-11.453410999999999
 20
82.419776999999996
 30
0.0
 11
-12.80341
 21
79.219787999999994
 31
0.0
  0
LINE
  5
373
  8
0
  6
PHANTOM
 62
     7
 10
-12.803407999999999
 20
79.21978
 30
0.0
 11
29.696587000000001
 21
79.21978
 31
0.0
  0
LINE
  5
374
  8
0
  6
CENTER
 62
     7
 10
-17.803412999999988
 20
-24.918697000000002
 30
0.0
 11
-17.803412999999988
 21
-31.021276
 31
0.0
  0
LINE
  5
375
  8
0
  6
CONTINUOUS
 62
     3
 10
-22.803412999999988
 20
79.21978
 30
0.0
 11
-12.803413000000001
 21
79.21978
 31
0.0
  0
LINE
  5
376
  8
0
  6
PHANTOM
 62
     7
 10
-22.303412999999999
 20
76.71978
 30
0.0
 11
-22.303412999999999
 21
41.719783999999997
 31
0.0
  0
LINE
  5
377
  8
0
  6
PHANTOM
 62
     7
 10
-20.303412999999988
 20
77.21978
 30
0.0
 11
-20.303412999999988
 21
41.219783999999997
 31
0.0
  0
LINE
  5
378
  8
0
  6
PHANTOM
 62
     7
 10
-19.803412999999999
 20
39.219783999999997
 30
0.0
 11
29.696587000000001
 21
39.219783999999997
 31
0.0
  0
LINE
  5
379
  8
0
  6
PHANTOM
 62
     7
 10
-20.303412999999988
 20
41.219783999999997
 30
0.0
 11
29.696587000000001
 21
41.219783999999997
 31
0.0
  0
LINE
  5
37A
  8
0
  6
PHANTOM
 62
     7
 10
-35.303412999999992
 20
103.96978
 30
0.0
 11
-35.303412999999992
 21
96.46978
 31
0.0
  0
LINE
  5
37B
  8
0
  6
PHANTOM
 62
     7
 10
-26.303412999999988
 20
82.419776999999996
 30
0.0
 11
-24.153407999999999
 21
82.419776999999996
 31
0.0
  0
LINE
  5
37C
  8
0
  6
PHANTOM
 62
     7
 10
-28.303412999999999
 20
81.919776999999996
 30
0.0
 11
-28.303412999999999
 21
38.469783999999997
 31
0.0
  0
LINE
  5
37D
  8
0
  6
PHANTOM
 62
     7
 10
-26.303412999999988
 20
82.46978
 30
0.0
 11
-26.303412999999988
 21
38.969783999999997
 31
0.0
  0
LINE
  5
37E
  8
0
  6
PHANTOM
 62
     7
 10
-10.303413000000001
 20
103.96978
 30
0.0
 11
-10.303413000000001
 21
84.919776999999996
 31
0.0
  0
LINE
  5
37F
  8
0
  6
PHANTOM
 62
     7
 10
-49.303412999999999
 20
38.469783999999997
 30
0.0
 11
-28.303412999999999
 21
38.469783999999997
 31
0.0
  0
LINE
  5
380
  8
0
  6
PHANTOM
 62
     7
 10
-48.803412999999999
 20
36.469783999999997
 30
0.0
 11
-28.803412999999988
 21
36.469783999999997
 31
0.0
  0
LINE
  5
381
  8
0
  6
PHANTOM
 62
     7
 10
-12.303413000000001
 20
104.46978
 30
0.0
 11
-12.303413000000001
 21
84.419776999999996
 31
0.0
  0
LINE
  5
382
  8
0
  6
PHANTOM
 62
     7
 10
-33.303412999999999
 20
104.46978
 30
0.0
 11
-12.303413000000001
 21
104.46978
 31
0.0
  0
LINE
  5
383
  8
0
  6
PHANTOM
 62
     7
 10
-49.303412999999999
 20
46.469783999999997
 30
0.0
 11
-49.303412999999999
 21
38.469783999999997
 31
0.0
  0
LINE
  5
384
  8
0
  6
PHANTOM
 62
     7
 10
-51.303412999999999
 20
46.469783999999997
 30
0.0
 11
-51.303412999999999
 21
38.969783999999997
 31
0.0
  0
LINE
  5
385
  8
0
  6
PHANTOM
 62
     7
 10
-32.803412999999992
 20
106.46978
 30
0.0
 11
-12.803413000000001
 21
106.46978
 31
0.0
  0
LINE
  5
386
  8
0
  6
PHANTOM
 62
     7
 10
-51.303412999999999
 20
46.469783999999997
 30
0.0
 11
-49.303412999999999
 21
46.469783999999997
 31
0.0
  0
LINE
  5
387
  8
0
  6
PHANTOM
 62
     7
 10
-33.303412999999999
 20
104.46978
 30
0.0
 11
-33.303412999999999
 21
96.46978
 31
0.0
  0
LINE
  5
388
  8
0
  6
PHANTOM
 62
     7
 10
-35.303412999999992
 20
96.46978
 30
0.0
 11
-33.303412999999999
 21
96.46978
 31
0.0
  0
LINE
  5
389
  8
0
  6
CONTINUOUS
 62
     7
 10
-22.634663
 20
-26.110503999999999
 30
0.0
 11
-12.97216399999999
 21
-26.110503999999999
 31
0.0
  0
ARC
  5
38A
  8
0
  6
PHANTOM
 62
     7
 10
-25.803412999999999
 20
81.919776999999996
 30
0.0
 40
2.5
 50
90.0
 51
180.0
  0
ARC
  5
38B
  8
0
  6
PHANTOM
 62
     7
 10
-12.803413000000001
 20
84.919776999999996
 30
0.0
 40
2.5
 50
270.00002000000001
 51
0.0
  0
ARC
  5
38C
  8
0
  6
PHANTOM
 62
     7
 10
-19.803412999999999
 20
76.71978
 30
0.0
 40
2.5
 50
90.0
 51
180.0
  0
ARC
  5
38D
  8
0
  6
PHANTOM
 62
     7
 10
-19.803412999999999
 20
41.719783999999997
 30
0.0
 40
2.5
 50
180.0
 51
270.0000399999999
  0
ARC
  5
38E
  8
0
  6
PHANTOM
 62
     7
 10
-12.803413000000001
 20
103.96978
 30
0.0
 40
2.5
 50
0.0
 51
89.999977999999999
  0
ARC
  5
38F
  8
0
  6
PHANTOM
 62
     7
 10
-28.803412999999988
 20
38.969783999999997
 30
0.0
 40
2.5
 50
270.0
 51
0.0
  0
ARC
  5
390
  8
0
  6
PHANTOM
 62
     7
 10
-48.803412999999999
 20
38.969783999999997
 30
0.0
 40
2.5
 50
180.0
 51
270.0
  0
ARC
  5
391
  8
0
  6
PHANTOM
 62
     7
 10
-32.803412999999992
 20
103.96978
 30
0.0
 40
2.5
 50
90.0
 51
180.0
  0
TEXT
  5
392
  8
0
  6
CONTINUOUS
 62
     7
 10
-188.14299999999989
 20
95.400000000000006
 30
0.0
 40
3.2000000000000002
  1
1シート単位の販売となります。（20ヶ/1シート）
 41
0.90047268
  0
TEXT
  5
393
  8
0
  6
CONTINUOUS
 62
     7
 10
-205.34299999999999
 20
167.40000000000001
 30
0.0
 40
3.2000000000000002
  1
品　名
 41
0.85537027
  0
TEXT
  5
394
  8
0
  6
CONTINUOUS
 62
     7
 10
-205.34299999999999
 20
159.40000000000001
 30
0.0
 40
3.2000000000000002
  1
品　番
 41
0.85537027
  0
TEXT
  5
395
  8
0
  6
CONTINUOUS
 62
     7
 10
-188.14299999999989
 20
87.400000000000006
 30
0.0
 40
3.2000000000000002
  1
＊
 41
0.90047268
  0
TEXT
  5
396
  8
0
  6
CONTINUOUS
 62
     7
 10
-188.14299999999989
 20
79.400000000000006
 30
0.0
 40
3.2000000000000002
  1
＊
 41
0.90047268
  0
TEXT
  5
397
  8
0
  6
CONTINUOUS
 62
     7
 10
-205.34299999999999
 20
151.40000000000001
 30
0.0
 40
3.2000000000000002
  1
材　質
 41
0.85537027
  0
TEXT
  5
398
  8
0
  6
CONTINUOUS
 62
     7
 10
-205.34299999999999
 20
143.40000000000001
 30
0.0
 40
3.2000000000000002
  1
仕上げ
 41
0.85537027
  0
TEXT
  5
399
  8
0
  6
CONTINUOUS
 62
     7
 10
-188.14299999999989
 20
103.40000000000001
 30
0.0
 40
3.2000000000000002
  1
＊
 41
0.90047268
  0
TEXT
  5
39A
  8
0
  6
CONTINUOUS
 62
     7
 10
-188.14299999999989
 20
111.40000000000001
 30
0.0
 40
3.2000000000000002
  1
＊
 41
0.90047268
  0
TEXT
  5
39B
  8
0
  6
CONTINUOUS
 62
     7
 10
-208.54300000000001
 20
119.40000000000001
 30
0.0
 40
3.2000000000000002
  1
セットビス
 41
0.84892707
  0
TEXT
  5
39C
  8
0
  6
CONTINUOUS
 62
     7
 10
-188.14299999999989
 20
119.40000000000001
 30
0.0
 40
3.2000000000000002
  1
＊
 41
0.90047268
  0
TEXT
  5
39D
  8
0
  6
CONTINUOUS
 62
     7
 10
-203.74299999999999
 20
95.400000000000006
 30
0.0
 40
3.2000000000000002
  1
備考
 41
0.8643907499999999
  0
TEXT
  5
39E
  8
0
  6
CONTINUOUS
 62
     7
 10
-205.34299999999999
 20
135.40000000000001
 30
0.0
 40
3.2000000000000002
  1
定　尺
 41
0.85537027
  0
TEXT
  5
39F
  8
0
  6
CONTINUOUS
 62
     7
 10
-206.9429999999999
 20
127.40000000000001
 30
0.0
 40
3.2000000000000002
  1
左右勝手
 41
0.8512700499999999
  0
TEXT
  5
3A0
  8
0
  6
CONTINUOUS
 62
     7
 10
-188.3785499999999
 20
134.96997999999999
 30
0.0
 40
3.2000000000000002
  1
＊
 41
0.90047268
  0
TEXT
  5
3A1
  8
0
  6
CONTINUOUS
 62
     7
 10
-188.14299999999989
 20
167.40000000000001
 30
0.0
 40
3.2000000000000002
  1
防音戸当りゴム
 41
0.84634979
  0
TEXT
  5
3A2
  8
0
  6
CONTINUOUS
 62
     7
 10
-188.14299999999989
 20
159.40000000000001
 30
0.0
 40
3.2000000000000002
  1
ＤＣ－１１
 41
0.84892707
  0
TEXT
  5
3A3
  8
0
  6
CONTINUOUS
 62
     7
 10
-188.14299999999989
 20
143.40000000000001
 30
0.0
 40
3.2000000000000002
  1
生地
 41
0.8643907499999999
  0
TEXT
  5
3A4
  8
0
  6
CONTINUOUS
 62
     7
 10
-188.3785499999999
 20
127.3661699999999
 30
0.0
 40
3.2000000000000002
  1
＊
 41
0.90047268
  0
TEXT
  5
3A5
  8
0
  6
CONTINUOUS
 62
     7
 10
-188.14299999999989
 20
151.40000000000001
 30
0.0
 40
3.2000000000000002
  1
ウレタンゴム
 41
0.8474109600000001
  0
DIMENSION
  5
3A6
  8
0
  6
CONTINUOUS
 62
     7
  2
*D1
 10
3.5465870000000002
 20
-26.110503999999999
 30
0.0
 11
3.5465870000000002
 21
-20.871711999999992
 31
0.0
 13
-11.453412999999999
 23
-29.710505000000001
 33
0.0
 14
-12.97216399999999
 24
-26.110503999999999
 34
0.0
 50
90.0
1001
ACAD
1000
DSTYLE
1002
{
1070
    77
1070
     1
1070
   172
1070
     1
1002
}
  0
DIMENSION
  5
3A7
  8
0
  6
CONTINUOUS
 62
     7
  2
*D2
 10
-11.453412999999999
 20
-44.710503000000003
 30
0.0
 11
-33.291015999999992
 21
-44.710503000000003
 31
0.0
 13
-24.153411999999999
 23
-29.710505000000001
 33
0.0
 14
-11.453412999999999
 24
-29.710505000000001
 34
0.0
1001
ACAD
1000
DSTYLE
1002
{
1070
    77
1070
     1
1070
   172
1070
     1
1002
}
  0
ENDSEC
  0
EOF
