  0
SECTION
  2
HEADER
  9
$ACADVER
  1
AC1015
  9
$ACADMAINTVER
 70
    20
  9
$DWGCODEPAGE
  3
ANSI_932
  9
$INSBASE
 10
0.0
 20
0.0
 30
0.0
  9
$EXTMIN
 10
-697.9568839960875
 20
-11433.64904086222
 30
0.0
  9
$EXTMAX
 10
45.40766190820341
 20
-11136.64904086222
 30
0.0
  9
$LIMMIN
 10
2406.72721656747
 20
-11272.98785877146
  9
$LIMMAX
 10
3000.72721656747
 20
-10852.98785877146
  9
$ORTHOMODE
 70
     0
  9
$REGENMODE
 70
     1
  9
$FILLMODE
 70
     1
  9
$QTEXTMODE
 70
     0
  9
$MIRRTEXT
 70
     0
  9
$LTSCALE
 40
1.0
  9
$ATTMODE
 70
     1
  9
$TEXTSIZE
 40
3.2
  9
$TRACEWID
 40
1.0
  9
$TEXTSTYLE
  7
STANDARD
  9
$CLAYER
  8
AM_CL
  9
$CELTYPE
  6
ByLayer
  9
$CECOLOR
 62
   256
  9
$CELTSCALE
 40
1.0
  9
$DISPSILH
 70
     0
  9
$DIMSCALE
 40
1.0
  9
$DIMASZ
 40
1.0
  9
$DIMEXO
 40
1.0
  9
$DIMDLI
 40
10.0
  9
$DIMRND
 40
0.0
  9
$DIMDLE
 40
0.0
  9
$DIMEXE
 40
1.0
  9
$DIMTP
 40
0.2
  9
$DIMTM
 40
-0.2
  9
$DIMTXT
 40
3.5
  9
$DIMCEN
 40
0.0
  9
$DIMTSZ
 40
0.0
  9
$DIMTOL
 70
     0
  9
$DIMLIM
 70
     0
  9
$DIMTIH
 70
     0
  9
$DIMTOH
 70
     0
  9
$DIMSE1
 70
     0
  9
$DIMSE2
 70
     0
  9
$DIMTAD
 70
     1
  9
$DIMZIN
 70
     8
  9
$DIMBLK
  1

  9
$DIMASO
 70
     1
  9
$DIMSHO
 70
     1
  9
$DIMPOST
  1

  9
$DIMAPOST
  1
"
  9
$DIMALT
 70
     0
  9
$DIMALTD
 70
     2
  9
$DIMALTF
 40
0.0393701
  9
$DIMLFAC
 40
1.0
  9
$DIMTOFL
 70
     1
  9
$DIMTVP
 40
0.0
  9
$DIMTIX
 70
     0
  9
$DIMSOXD
 70
     0
  9
$DIMSAH
 70
     0
  9
$DIMBLK1
  1

  9
$DIMBLK2
  1

  9
$DIMSTYLE
  2
SYS
  9
$DIMCLRD
 70
   256
  9
$DIMCLRE
 70
   256
  9
$DIMCLRT
 70
     7
  9
$DIMTFAC
 40
0.71
  9
$DIMGAP
 40
1.5
  9
$DIMJUST
 70
     0
  9
$DIMSD1
 70
     0
  9
$DIMSD2
 70
     0
  9
$DIMTOLJ
 70
     0
  9
$DIMTZIN
 70
     8
  9
$DIMALTZ
 70
     0
  9
$DIMALTTZ
 70
     0
  9
$DIMUPT
 70
     0
  9
$DIMDEC
 70
     1
  9
$DIMTDEC
 70
     2
  9
$DIMALTU
 70
     2
  9
$DIMALTTD
 70
     2
  9
$DIMTXSTY
  7
STANDARD
  9
$DIMAUNIT
 70
     0
  9
$DIMADEC
 70
     0
  9
$DIMALTRND
 40
0.0
  9
$DIMAZIN
 70
     2
  9
$DIMDSEP
 70
    46
  9
$DIMATFIT
 70
     3
  9
$DIMFRAC
 70
     0
  9
$DIMLDRBLK
  1

  9
$DIMLUNIT
 70
     2
  9
$DIMLWD
 70
    -1
  9
$DIMLWE
 70
    -1
  9
$DIMTMOVE
 70
     0
  9
$LUNITS
 70
     2
  9
$LUPREC
 70
     2
  9
$SKETCHINC
 40
1.0
  9
$FILLETRAD
 40
1.0
  9
$AUNITS
 70
     0
  9
$AUPREC
 70
     0
  9
$MENU
  1
.
  9
$ELEVATION
 40
0.0
  9
$PELEVATION
 40
0.0
  9
$THICKNESS
 40
0.0
  9
$LIMCHECK
 70
     0
  9
$CHAMFERA
 40
0.5
  9
$CHAMFERB
 40
0.5
  9
$CHAMFERC
 40
20.0
  9
$CHAMFERD
 40
0.0
  9
$SKPOLY
 70
     0
  9
$TDCREATE
 40
2453389.567546297
  9
$TDUCREATE
 40
2453389.192546296
  9
$TDUPDATE
 40
2454922.576493959
  9
$TDUUPDATE
 40
2454922.201493959
  9
$TDINDWG
 40
21.7828619676
  9
$TDUSRTIMER
 40
21.7828614236
  9
$USRTIMER
 70
     1
  9
$ANGBASE
 50
0.0
  9
$ANGDIR
 70
     0
  9
$PDMODE
 70
     0
  9
$PDSIZE
 40
-3.0
  9
$PLINEWID
 40
0.0
  9
$SPLFRAME
 70
     0
  9
$SPLINETYPE
 70
     6
  9
$SPLINESEGS
 70
     8
  9
$HANDSEED
  5
5C6B5
  9
$SURFTAB1
 70
     6
  9
$SURFTAB2
 70
     6
  9
$SURFTYPE
 70
     6
  9
$SURFU
 70
     6
  9
$SURFV
 70
     6
  9
$UCSBASE
  2

  9
$UCSNAME
  2

  9
$UCSORG
 10
0.0
 20
0.0
 30
0.0
  9
$UCSXDIR
 10
1.0
 20
0.0
 30
0.0
  9
$UCSYDIR
 10
0.0
 20
1.0
 30
0.0
  9
$UCSORTHOREF
  2

  9
$UCSORTHOVIEW
 70
     0
  9
$UCSORGTOP
 10
0.0
 20
0.0
 30
0.0
  9
$UCSORGBOTTOM
 10
0.0
 20
0.0
 30
0.0
  9
$UCSORGLEFT
 10
0.0
 20
0.0
 30
0.0
  9
$UCSORGRIGHT
 10
0.0
 20
0.0
 30
0.0
  9
$UCSORGFRONT
 10
0.0
 20
0.0
 30
0.0
  9
$UCSORGBACK
 10
0.0
 20
0.0
 30
0.0
  9
$PUCSBASE
  2

  9
$PUCSNAME
  2

  9
$PUCSORG
 10
0.0
 20
0.0
 30
0.0
  9
$PUCSXDIR
 10
1.0
 20
0.0
 30
0.0
  9
$PUCSYDIR
 10
0.0
 20
1.0
 30
0.0
  9
$PUCSORTHOREF
  2

  9
$PUCSORTHOVIEW
 70
     0
  9
$PUCSORGTOP
 10
0.0
 20
0.0
 30
0.0
  9
$PUCSORGBOTTOM
 10
0.0
 20
0.0
 30
0.0
  9
$PUCSORGLEFT
 10
0.0
 20
0.0
 30
0.0
  9
$PUCSORGRIGHT
 10
0.0
 20
0.0
 30
0.0
  9
$PUCSORGFRONT
 10
0.0
 20
0.0
 30
0.0
  9
$PUCSORGBACK
 10
0.0
 20
0.0
 30
0.0
  9
$USERI1
 70
     0
  9
$USERI2
 70
     0
  9
$USERI3
 70
     0
  9
$USERI4
 70
     0
  9
$USERI5
 70
     0
  9
$USERR1
 40
0.0
  9
$USERR2
 40
0.0
  9
$USERR3
 40
0.0
  9
$USERR4
 40
0.0
  9
$USERR5
 40
0.0
  9
$WORLDVIEW
 70
     1
  9
$SHADEDGE
 70
     3
  9
$SHADEDIF
 70
    70
  9
$TILEMODE
 70
     1
  9
$MAXACTVP
 70
    64
  9
$PINSBASE
 10
0.0
 20
0.0
 30
0.0
  9
$PLIMCHECK
 70
     0
  9
$PEXTMIN
 10
1.000000000000000E+20
 20
1.000000000000000E+20
 30
1.000000000000000E+20
  9
$PEXTMAX
 10
-1.000000000000000E+20
 20
-1.000000000000000E+20
 30
-1.000000000000000E+20
  9
$PLIMMIN
 10
-3.17498779296875
 20
-3.174999952316284
  9
$PLIMMAX
 10
293.4970092773438
 20
206.692492723465
  9
$UNITMODE
 70
     0
  9
$VISRETAIN
 70
     1
  9
$PLINEGEN
 70
     0
  9
$PSLTSCALE
 70
     1
  9
$TREEDEPTH
 70
  3020
  9
$CMLSTYLE
  2
Standard
  9
$CMLJUST
 70
     0
  9
$CMLSCALE
 40
20.0
  9
$PROXYGRAPHICS
 70
     1
  9
$MEASUREMENT
 70
     1
  9
$CELWEIGHT
370
    -1
  9
$ENDCAPS
280
     0
  9
$JOINSTYLE
280
     0
  9
$LWDISPLAY
290
     0
  9
$INSUNITS
 70
     4
  9
$HYPERLINKBASE
  1

  9
$STYLESHEET
  1
monochrome.ctb
  9
$XEDIT
290
     1
  9
$CEPSNTYPE
380
     0
  9
$PSTYLEMODE
290
     1
  9
$FINGERPRINTGUID
  2
{83FB3AA1-FF18-4BFE-AFE0-611B71DE056D}
  9
$VERSIONGUID
  2
{17A7906A-A50C-4386-8756-B2BBC9A239F8}
  9
$EXTNAMES
290
     1
  9
$PSVPSCALE
 40
0.0
  9
$OLESTARTUP
290
     0
  0
ENDSEC
  0
SECTION
  2
CLASSES
  0
CLASS
  1
ACDBDICTIONARYWDFLT
  2
AcDbDictionaryWithDefault
  3
ObjectDBX Classes
 90
        0
280
     0
281
     0
  0
CLASS
  1
ACDBPLACEHOLDER
  2
AcDbPlaceHolder
  3
ObjectDBX Classes
 90
        0
280
     0
281
     0
  0
CLASS
  1
LAYOUT
  2
AcDbLayout
  3
ObjectDBX Classes
 90
        0
280
     0
281
     0
  0
CLASS
  1
AMGSETTINGSOBJ
  2
AmgSettingsObj
  3
"AcadM|Product Description: AutoCAD Mechanical|Company: Autodesk"
 90
        0
280
     0
281
     0
  0
CLASS
  1
ACME_DOCUMENT
  2
AcMeDbDoc
  3
AcMeServices
 90
        0
280
     0
281
     0
  0
CLASS
  1
ACMESCOPE
  2
AcMeScope
  3
AcMeServices
 90
        0
280
     0
281
     0
  0
CLASS
  1
ACMECOMMANDHISTORY
  2
AcMeCommandHistory
  3
AcMeServices
 90
        0
280
     0
281
     0
  0
CLASS
  1
DICTIONARYVAR
  2
AcDbDictionaryVar
  3
ObjectDBX Classes
 90
        0
280
     0
281
     0
  0
CLASS
  1
ACIMSYSVARMAN
  2
AcImSysVarManager
  3
AcMeServices
 90
        0
280
     0
281
     0
  0
CLASS
  1
ACIMREALSYSVAR
  2
AcImRealSysVar
  3
AcMeServices
 90
        0
280
     0
281
     0
  0
CLASS
  1
ACIMINTSYSVAR
  2
AcImIntSysVar
  3
AcMeServices
 90
        0
280
     0
281
     0
  0
CLASS
  1
ACMEDRAWINGMAN
  2
AcMeDrawingMan
  3
AcMeServices
 90
        0
280
     0
281
     0
  0
CLASS
  1
ACMEVIEW
  2
AcMeView
  3
AcMeServices
 90
        0
280
     0
281
     0
  0
CLASS
  1
ACDBENTITYCACHE
  2
AcMeEntityCache
  3
AcMeServices
 90
        0
280
     0
281
     0
  0
CLASS
  1
GSMANAGER
  2
AcMeGSManager
  3
AcMeServices
 90
        0
280
     0
281
     0
  0
CLASS
  1
AMDTINTERNALREACTOR
  2
AmdtInternalReactor
  3
AcMeServices
 90
        0
280
     0
281
     0
  0
CLASS
  1
ACMESTATEMGR
  2
AcMeStateMgr
  3
AcMeServices
 90
        0
280
     0
281
     0
  0
CLASS
  1
ACGREFMASTER
  2
AcGrefMaster
  3
AcAttribServices
 90
        0
280
     0
281
     0
  0
CLASS
  1
ACME_DATABASE
  2
AcMeDbDatabase
  3
AcMeServices
 90
        0
280
     0
281
     0
  0
CLASS
  1
ACRFINSADJUSTERMGR
  2
AcRfInsAdjusterMgr
  3
AcMeServices
 90
        0
280
     0
281
     0
  0
CLASS
  1
ACGREFACADMASTER
  2
AcGrefacadMaster
  3
AcGrefServices
 90
        0
280
     0
281
     0
  0
CLASS
  1
AMIMASTER
  2
AmiMaster
  3
AmiServices
 90
        0
280
     0
281
     0
  0
CLASS
  1
ACMDATADICTIONARY
  2
AcmDataDictionary
  3
"AcmSymBB|Product Description: AutoCAD Mechanical|Company: Autodesk"
 90
        0
280
     0
281
     0
  0
CLASS
  1
ACMDATAENTRYBLOCK
  2
AcmDataEntryBlock
  3
"AcmSymBB|Product Description: AutoCAD Mechanical|Company: Autodesk"
 90
        0
280
     0
281
     0
  0
CLASS
  1
ACIMSTRSYSVAR
  2
AcImStrSysVar
  3
AcMeServices
 90
        0
280
     0
281
     0
  0
CLASS
  1
ACMSTANDARDISO
  2
AcmStandardISO
  3
"Amdt_StdImp|Product Description: AutoCAD Mechanical|Company: Autodesk"
 90
        0
280
     0
281
     0
  0
CLASS
  1
AMGOBJPROPCFG
  2
AmgObjPropCfg
  3
"AmgLay|Product Description: AutoCAD Mechanical|Company: Autodesk"
 90
        1
280
     0
281
     0
  0
CLASS
  1
AMDTEDGESTANDARDISO
  2
AmdtEdgeStdISO
  3
"Amdt_StdImp|Product Description: AutoCAD Mechanical|Company: Autodesk"
 90
        0
280
     0
281
     0
  0
CLASS
  1
ACMSURFSTANDARDISO
  2
AcmSurfTextStdISO
  3
"Amdt_StdImp|Product Description: AutoCAD Mechanical|Company: Autodesk"
 90
        0
280
     0
281
     0
  0
CLASS
  1
ACMFCFSTANDARDISO
  2
AcmFCFStdISO
  3
"Amdt_StdImp|Product Description: AutoCAD Mechanical|Company: Autodesk"
 90
        0
280
     0
281
     0
  0
CLASS
  1
ACMWELDSTANDARDISO
  2
AcmWeldingStdISO
  3
"Amdt_StdImp|Product Description: AutoCAD Mechanical|Company: Autodesk"
 90
        0
280
     0
281
     0
  0
CLASS
  1
ACMIDSTANDARDISO
  2
AcmIdStdISO
  3
"Amdt_StdImp|Product Description: AutoCAD Mechanical|Company: Autodesk"
 90
        0
280
     0
281
     0
  0
CLASS
  1
ACMDATUMSTANDARDISO
  2
AcmDatumStdISO
  3
"Amdt_StdImp|Product Description: AutoCAD Mechanical|Company: Autodesk"
 90
        0
280
     0
281
     0
  0
CLASS
  1
ACMBOMSTANDARDISO
  2
AcmBOMStdISO
  3
"Amdt_StdImp|Product Description: AutoCAD Mechanical|Company: Autodesk"
 90
        0
280
     0
281
     0
  0
CLASS
  1
ACMDETAILSTANDARDISO
  2
AmdtDetailSymStdISO
  3
"Amdt_StdImp|Product Description: AutoCAD Mechanical|Company: Autodesk"
 90
        0
280
     0
281
     0
  0
CLASS
  1
ACMSECTIONSTANDARDISO
  2
AmdtSectionSymStdISO
  3
"Amdt_StdImp|Product Description: AutoCAD Mechanical|Company: Autodesk"
 90
        0
280
     0
281
     0
  0
CLASS
  1
ACMCENTERLINESTANDARDISO
  2
AmdtCenterLineStdISO
  3
"Amdt_StdImp|Product Description: AutoCAD Mechanical|Company: Autodesk"
 90
        0
280
     0
281
     0
  0
CLASS
  1
ACAMGLAYSTD
  2
AcAmgLayStd
  3
"AmgLay|Product Description: AutoCAD Mechanical|Company: Autodesk"
 90
        0
280
     0
281
     0
  0
CLASS
  1
ACAMGDIMSTD
  2
AcAmgDimStd
  3
"AmgDim|Product Description: AutoCAD Mechanical|Company: Autodesk"
 90
        0
280
     0
281
     0
  0
CLASS
  1
ACAMGTITLESTD
  2
AcAmgTitleStd
  3
"AmgTitle|Product Description: AutoCAD Mechanical|Company: Autodesk"
 90
        0
280
     0
281
     0
  0
CLASS
  1
ACAMGFILTERDAT
  2
AcAmgFilterDat
  3
"AcadM|Product Description: AutoCAD Mechanical|Company: Autodesk"
 90
    32768
280
     0
281
     0
  0
CLASS
  1
LAYER_INDEX
  2
AcDbLayerIndex
  3
ObjectDBX Classes
 90
    32768
280
     0
281
     0
  0
CLASS
  1
IDBUFFER
  2
AcDbIdBuffer
  3
ObjectDBX Classes
 90
    32768
280
     0
281
     0
  0
CLASS
  1
PLOTSETTINGS
  2
AcDbPlotSettings
  3
ObjectDBX Classes
 90
        0
280
     0
281
     0
  0
CLASS
  1
AMDTFORMULAUPDATEDISPATCHER
  2
AmdtFormulaUpdateDispatcher
  3
AcMeServices
 90
        0
280
     0
281
     0
  0
CLASS
  1
ACMSTANDARDANSI
  2
AcmStandardANSI
  3
"Amdt_StdImp|Product Description: AutoCAD Mechanical|Company: Autodesk"
 90
        0
280
     0
281
     0
  0
CLASS
  1
ACMSURFSTANDARDANSI
  2
AcmSurfTextStdANSI
  3
"Amdt_StdImp|Product Description: AutoCAD Mechanical|Company: Autodesk"
 90
        0
280
     0
281
     0
  0
CLASS
  1
ACMFCFSTANDARDANSI
  2
AcmFCFStdANSI
  3
"Amdt_StdImp|Product Description: AutoCAD Mechanical|Company: Autodesk"
 90
        0
280
     0
281
     0
  0
CLASS
  1
ACMWELDSTANDARDANSI
  2
AcmWeldingStdANSI
  3
"Amdt_StdImp|Product Description: AutoCAD Mechanical|Company: Autodesk"
 90
        0
280
     0
281
     0
  0
CLASS
  1
ACMIDSTANDARDANSI
  2
AcmIdStdANSI
  3
"Amdt_StdImp|Product Description: AutoCAD Mechanical|Company: Autodesk"
 90
        0
280
     0
281
     0
  0
CLASS
  1
ACMDATUMSTANDARDANSI
  2
AcmDatumStdANSI
  3
"Amdt_StdImp|Product Description: AutoCAD Mechanical|Company: Autodesk"
 90
        0
280
     0
281
     0
  0
CLASS
  1
ACMBOMSTANDARDANSI
  2
AcmBOMStdANSI
  3
"Amdt_StdImp|Product Description: AutoCAD Mechanical|Company: Autodesk"
 90
        0
280
     0
281
     0
  0
CLASS
  1
ACMDETAILSTANDARDANSI
  2
AmdtDetailSymStdANSI
  3
"Amdt_StdImp|Product Description: AutoCAD Mechanical|Company: Autodesk"
 90
        0
280
     0
281
     0
  0
CLASS
  1
ACMSECTIONSTANDARDANSI
  2
AmdtSectionSymStdANSI
  3
"Amdt_StdImp|Product Description: AutoCAD Mechanical|Company: Autodesk"
 90
        0
280
     0
281
     0
  0
CLASS
  1
ACMCENTERLINESTANDARDANSI
  2
AmdtCenterLineStdANSI
  3
"Amdt_StdImp|Product Description: AutoCAD Mechanical|Company: Autodesk"
 90
        0
280
     0
281
     0
  0
CLASS
  1
ACMBOM
  2
AcmBom
  3
"AcmSymBB|Product Description: AutoCAD Mechanical|Company: Autodesk"
 90
        0
280
     0
281
     0
  0
CLASS
  1
ACMDATAENTRYPART
  2
AcmDataEntryPart
  3
"AcmSymBB|Product Description: AutoCAD Mechanical|Company: Autodesk"
 90
        0
280
     0
281
     0
  0
CLASS
  1
ACMPARTREF
  2
AcmPartRef
  3
"AcmSymBB|Product Description: AutoCAD Mechanical|Company: Autodesk"
 90
    35839
280
     0
281
     1
  0
CLASS
  1
ACDBCIRCARCRES
  2
AcDbCircArcRes
  3
AcGrefServices
 90
    32768
280
     0
281
     0
  0
CLASS
  1
ACMBOMROW
  2
AcmBomRow
  3
"AcmSymBB|Product Description: AutoCAD Mechanical|Company: Autodesk"
 90
    32768
280
     0
281
     0
  0
CLASS
  1
ACMBALLOON
  2
AcmBalloon
  3
"AcmSymBB|Product Description: AutoCAD Mechanical|Company: Autodesk"
 90
    35839
280
     0
281
     1
  0
CLASS
  1
AMDTNOTE
  2
AmdtNote
  3
"AcmSymBB|Product Description: AutoCAD Mechanical|Company: Autodesk"
 90
    35839
280
     0
281
     1
  0
CLASS
  1
STDPART2D
  2
AmgStdPart
  3
"g3vace|Class: AmgStdPart|Product Description: AutoCAD Mechanical|Company: Autodesk"
 90
    35839
280
     0
281
     1
  0
CLASS
  1
ACDBSTDPARTRES_LINE
  2
AcDbStdPartRes_Line
  3
"g3vace|Class: AcDbStdPartRes_Line|Product Description: AutoCAD Mechanical|Company: Autodesk"
 90
    32768
280
     0
281
     0
  0
CLASS
  1
ACMDATAENTRY
  2
AcmDataEntry
  3
"AcmSymBB|Product Description: AutoCAD Mechanical|Company: Autodesk"
 90
    32768
280
     0
281
     0
  0
CLASS
  1
ACDBOPPOLYLINERES
  2
AcDbOpPolylineRes
  3
AcGrefServices
 90
    32768
280
     0
281
     0
  0
CLASS
  1
ACMPARTLIST
  2
AcmPartList
  3
"AcmSymBB|Product Description: AutoCAD Mechanical|Company: Autodesk"
 90
    35839
280
     0
281
     1
  0
CLASS
  1
ACDBLINERES
  2
AcDbLineRes
  3
AcGrefServices
 90
    32768
280
     0
281
     0
  0
CLASS
  1
ACRFINSADJ
  2
AcRfInsAdjuster
  3
AcMeServices
 90
    32768
280
     0
281
     0
  0
CLASS
  1
AM_DRAWING_MGR
  2
AcDmDwgMgr
  3
AcMechDwgViewMgmt
 90
        0
280
     0
281
     0
  0
CLASS
  1
AM_DWG_DOCUMENT
  2
AcDmDwgDocument
  3
AcMechDwgViewMgmt
 90
        0
280
     0
281
     0
  0
CLASS
  1
AM_DWG_SHEET
  2
AcDmSheet
  3
AcMechDwgViewMgmt
 90
        0
280
     0
281
     0
  0
CLASS
  1
AM_VIEWDIMPARMAP
  2
AcDmViewDimParMap
  3
AcMechDwgViewMgmt
 90
        0
280
     0
281
     0
  0
CLASS
  1
AM_DWGMGR_NAME
  2
AcDmDwgMgrName
  3
AcMechDwgViewMgmt
 90
        0
280
     0
281
     0
  0
CLASS
  1
AMDTMENUSTATEMGR
  2
AmdtMenuStateMgr
  3
McadcomServices
 90
        0
280
     0
281
     0
  0
CLASS
  1
AMDTMCOMMENUSTATE
  2
AmdtMcomMenuState
  3
McadcomServices
 90
        0
280
     0
281
     0
  0
CLASS
  1
ASAPP
  2
AcAsAppObject
  3
AutoSurfServices
 90
        0
280
     0
281
     0
  0
CLASS
  1
IM_STATIC_MAN
  2
AcImStaticVarManager
  3
AcMeServices
 90
    32768
280
     0
281
     0
  0
CLASS
  1
ACIMDBLSTATICVAR
  2
AcImDblStaticVar
  3
AcMeServices
 90
    32768
280
     0
281
     0
  0
CLASS
  1
ACIMSTRSTATICVAR
  2
AcImStrStaticVar
  3
AcMeServices
 90
    32768
280
     0
281
     0
  0
CLASS
  1
ACIMINTSTATICVAR
  2
AcImIntStaticVar
  3
AcMeServices
 90
    32768
280
     0
281
     0
  0
CLASS
  1
ACASGREFMASTER
  2
AcAsGrefMaster
  3
AutoSurfResolverServices
 90
        0
280
     0
281
     0
  0
CLASS
  1
ACADGREFMODULE
  2
AcAdGrefModule
  3
AdGrefServices
 90
        0
280
     0
281
     0
  0
CLASS
  1
AMDTMAPISURFMOUDULE
  2
AmdtMApiSurfModule
  3
MApiSurfServices
 90
        0
280
     0
281
     0
  0
CLASS
  1
MAPIAMMOUDLE
  2
MApiAmModule
  3
MApiAmServices
 90
        0
280
     0
281
     0
  0
CLASS
  1
AMDTADMENUSTATE
  2
AmdtAdMenuState
  3
DesignerServices
 90
        0
280
     0
281
     0
  0
CLASS
  1
ADAPPL
  2
AcAdAppl
  3
DesignerServices
 90
        0
280
     0
281
     0
  0
CLASS
  1
DEPMGR
  2
AcAdDepMgr
  3
DesignerServices
 90
        0
280
     0
281
     0
  0
CLASS
  1
PARAMMGR
  2
AcAdParamMgr
  3
DesignerServices
 90
        0
280
     0
281
     0
  0
CLASS
  1
PARAMSCOPE
  2
AcAdParamScope
  3
DesignerServices
 90
        0
280
     0
281
     0
  0
CLASS
  1
NAMEDAPPL
  2
AcAdNamedAppl
  3
DesignerServices
 90
        0
280
     0
281
     0
  0
CLASS
  1
ADHNTMPLT
  2
AdHoleNoteTemplateMgr
  3
DesignerServices
 90
    32768
280
     0
281
     0
  0
CLASS
  1
AM_HNTEMPLATE_MGR_NAME
  2
AdHoleNoteTemplateMgrName
  3
DesignerServices
 90
    32768
280
     0
281
     0
  0
CLASS
  1
AMDTDMMENUSTATE
  2
AmdtDmMenuState
  3
AcMechDwgViewMgmt
 90
        0
280
     0
281
     0
  0
CLASS
  1
MAPIADMODULE
  2
MApiAdModule
  3
MApiAdServices
 90
        0
280
     0
281
     0
  0
CLASS
  1
AMDTAMMENUSTATE
  2
AmdtAmMenuState
  3
DesignerAssemblies
 90
        0
280
     0
281
     0
  0
CLASS
  1
ACAMPROJECT
  2
AcAmProject
  3
DesignerAssemblies
 90
        0
280
     0
281
     0
  0
CLASS
  1
ACAMGRCOMPDEF
  2
AcAmGrCompDef
  3
DesignerAssemblies
 90
        0
280
     0
281
     0
  0
CLASS
  1
ACCMCONTEXT
  2
AcCmContext
  3
DesignerAssemblies
 90
        0
280
     0
281
     0
  0
CLASS
  1
ACAMCOMPDEF
  2
AcAmCompDef
  3
DesignerAssemblies
 90
        0
280
     0
281
     0
  0
CLASS
  1
ACAMCOMPDEFMGR
  2
AcAmCompDefMgr
  3
DesignerAssemblies
 90
        0
280
     0
281
     0
  0
CLASS
  1
AMCONTEXTMGR
  2
AcAmContextMgr
  3
DesignerAssemblies
 90
        0
280
     0
281
     0
  0
CLASS
  1
ACAMCONTEXTMODELER
  2
AcAmContextModeler
  3
DesignerAssemblies
 90
        0
280
     0
281
     0
  0
CLASS
  1
CATALOGSTATE
  2
AcAmCatalogState
  3
DesignerAssemblies
 90
        0
280
     0
281
     0
  0
CLASS
  1
ACAMGRCOMPDEFSET
  2
AcAmGrCompDefSet
  3
DesignerAssemblies
 90
        0
280
     0
281
     0
  0
CLASS
  1
AMDTBROWSERDBTAB
  2
AmdtBrowserDbTab
  3
McadcomServices
 90
        0
280
     0
281
     0
  0
CLASS
  1
CBROWSERAPPOBJECT
  2
CBrowserAppObject
  3
McadcomServices
 90
        0
280
     0
281
     0
  0
CLASS
  1
DM_PLACEHOLDER
  2
AcDmSelsetPlaceholder
  3
AcMechDwgViewMgmt
 90
        0
280
     0
281
     0
  0
CLASS
  1
ACMPICKOBJ
  2
AcmPickEnt
  3
"AcmSymBB|Product Description: AutoCAD Mechanical|Company: Autodesk"
 90
    32768
280
     0
281
     1
  0
CLASS
  1
ACMNOTESTANDARDISO
  2
AmdtNoteStdISO
  3
"Amdt_StdImp|Product Description: AutoCAD Mechanical|Company: Autodesk"
 90
        0
280
     0
281
     0
  0
CLASS
  1
ACMNOTESTANDARDANSI
  2
AmdtNoteStdANSI
  3
"Amdt_StdImp|Product Description: AutoCAD Mechanical|Company: Autodesk"
 90
        0
280
     0
281
     0
  0
CLASS
  1
AMDTACMWBLOCKBOMENTITY
  2
AmdtAcmWblockBomEntity
  3
"AcmSymBB|Product Description: AutoCAD Mechanical|Company: Autodesk"
 90
     3071
280
     0
281
     1
  0
CLASS
  1
ACMTHREADLINESTANDARDISO
  2
AmdtThreadLineStdISO
  3
"Amdt_StdImp|Product Description: AutoCAD Mechanical|Company: Autodesk"
 90
        0
280
     0
281
     0
  0
CLASS
  1
ACMTHREADLINESTANDARDANSI
  2
AmdtThreadLineStdANSI
  3
"Amdt_StdImp|Product Description: AutoCAD Mechanical|Company: Autodesk"
 90
        0
280
     0
281
     0
  0
CLASS
  1
AMDTNOTETEMPLATEDB
  2
AmdtNoteTemplateDB
  3
AMDT_STDIMP_MODULE_NAME
 90
        0
280
     0
281
     0
  0
CLASS
  1
DIMASSOC
  2
AcDbDimAssoc
  3
"AcDbDimAssoc|Product Desc:     AcDim ARX App For Dimension|Company:          Autodesk, Inc.|WEB Address:      www.autodesk.com"
 90
        0
280
     0
281
     0
  0
CLASS
  1
ACAMSTDPCOMPDEF
  2
AcAmStdpCompDef
  3
DesignerAssemblies
 90
    32768
280
     0
281
     0
  0
CLASS
  1
ACRFATTGENMGR
  2
AcRfAttGeneralMgr
  3
AcAttribServices
 90
        0
280
     0
281
     0
  0
CLASS
  1
ACRFOBJATTMGR
  2
AcRfObjAttGroupMgr
  3
AcAttribServices
 90
        0
280
     0
281
     0
  0
CLASS
  1
ACRFMCADAPIATTHOLDER
  2
AcRfMCADAPIAttHolder
  3
AcAttribServices
 90
        0
280
     0
281
     0
  0
CLASS
  1
AMDTSYSATTR
  2
AmdtSystemAttribute
  3
AcAttribServices
 90
        0
280
     0
281
     0
  0
CLASS
  1
AC_AM_MVD_DEP_MGR
  2
AcAmMVDdepMgr
  3
DesignerAssemblies
 90
    32768
280
     0
281
     0
  0
CLASS
  1
AC_AM_MASTER_VIEW_DEF
  2
AcAmMasterViewDef
  3
DesignerAssemblies
 90
    32768
280
     0
281
     0
  0
CLASS
  1
AC_AM_DIRTY_NODES
  2
AcAmDirtyNodes
  3
DesignerAssemblies
 90
    32768
280
     0
281
     0
  0
CLASS
  1
ACAMMVDBACKUPOBJECT
  2
AcAmMVDBackupObject
  3
DesignerAssemblies
 90
    32768
280
     0
281
     0
  0
CLASS
  1
ACAMCOMP
  2
AcAmComp
  3
DesignerAssemblies
 90
    32768
280
     0
281
     0
  0
CLASS
  1
AC_AM_STDP_VIEW_DEF
  2
AcAmStdpViewDef
  3
DesignerAssemblies
 90
    32768
280
     0
281
     0
  0
CLASS
  1
AC_AM_COMP_VIEW_INST
  2
AcAmCompView
  3
DesignerAssemblies
 90
    32768
280
     0
281
     0
  0
CLASS
  1
AC_AM_PROPS_OVERRIDE
  2
AcAmPropertiesOverride
  3
DesignerAssemblies
 90
    32768
280
     0
281
     0
  0
CLASS
  1
AC_AM_OVERRIDE_FILTER
  2
AcAmOverrideFilter
  3
DesignerAssemblies
 90
    32768
280
     0
281
     0
  0
CLASS
  1
NEWSTDPARTPARLIST
  2
AmgNewParListFiler
  3
"AmgParList|Product Description: AutoCAD Mechanical 2000|Company: Autodesk"
 90
    35839
280
     0
281
     0
  0
CLASS
  1
SORTENTSTABLE
  2
AcDbSortentsTable
  3
ObjectDBX Classes
 90
        0
280
     0
281
     0
  0
CLASS
  1
MATERIAL
  2
AcDbMaterial
  3
ObjectDBX Classes
 90
     1153
280
     0
281
     0
  0
CLASS
  1
VISUALSTYLE
  2
AcDbVisualStyle
  3
ObjectDBX Classes
 90
     4095
280
     0
281
     0
  0
CLASS
  1
TABLESTYLE
  2
AcDbTableStyle
  3
ObjectDBX Classes
 90
     4095
280
     0
281
     0
  0
CLASS
  1
AC_AM_MAPPER_CACHE
  2
AcAmMapperCache
  3
DesignerAssemblies
 90
    32768
280
     0
281
     0
  0
CLASS
  1
ACMTAPERSTANDARDISO
  2
AcmTaperStdISO
  3
"Amdt_StdImp|Product Description: AutoCAD Mechanical|Company: Autodesk"
 90
        0
280
     0
281
     0
  0
CLASS
  1
ACMTAPERSTANDARDANSI
  2
AcmTaperStdANSI
  3
"Amdt_StdImp|Product Description: AutoCAD Mechanical|Company: Autodesk"
 90
        0
280
     0
281
     0
  0
CLASS
  1
AC_AM_2D_XREF_MGR
  2
AcAmXrefMgr2d
  3
DesignerAssemblies
 90
    32768
280
     0
281
     0
  0
CLASS
  1
AC_AM_HIDE_SITUATION
  2
AcAmHideSituation
  3
DesignerAssemblies
 90
    32768
280
     0
281
     0
  0
CLASS
  1
AC_AM_SPRING_ROD_HIDE_SITUATION
  2
AcAmSpringRodHideSituation
  3
DesignerAssemblies
 90
    32768
280
     0
281
     0
  0
CLASS
  1
AC_AM_TRANSFORM_GHOST
  2
AcDbTransformGhost
  3
DesignerAssemblies
 90
    32768
280
     0
281
     1
  0
CLASS
  1
L"OBJCLONER"
  2
ObjCloner
  3
DesignerAssemblies
 90
    32768
280
     0
281
     1
  0
CLASS
  1
ACAMWBLOCKTEMPENTS
  2
AcAmStructInOutTempObjsHolder
  3
DesignerAssemblies
 90
    32768
280
     0
281
     0
  0
CLASS
  1
AMDTEDGESTANDARDISO13715
  2
AmdtEdgeStdISO13715
  3
"Amdt_StdImp|Product Description: AutoCAD Mechanical|Company: Autodesk"
 90
        0
280
     0
281
     0
  0
CLASS
  1
ACAMGHOLECHARTSTDISO
  2
AcAmgHoleChartStdISO
  3
ACMSYMBB_MODULE_NAME
 90
        0
280
     0
281
     0
  0
CLASS
  1
CAMSSTRUCTBTNSTATE
  2
StructBtnState
  3
L"DesignerAssemblies"
 90
        0
280
     0
281
     0
  0
CLASS
  1
ACAMGHOLECHARTSTDANSI
  2
AcAmgHoleChartStdANSI
  3
ACMSYMBB_MODULE_NAME
 90
        0
280
     0
281
     0
  0
ENDSEC
  0
SECTION
  2
TABLES
  0
TABLE
  2
VPORT
  5
8
102
{ACAD_XDICTIONARY
360
1DE12
102
}
330
0
100
AcDbSymbolTable
 70
     1
  0
VPORT
  5
1D6E6
330
8
100
AcDbSymbolTableRecord
100
AcDbViewportTableRecord
  2
*Active
 70
     0
 10
0.0
 20
0.0
 11
1.0
 21
1.0
 12
-121.6517317783714
 22
-11239.2774358995
 13
0.0
 23
0.0
 14
2.5
 24
2.5
 15
10.0
 25
10.0
 16
0.0
 26
0.0
 36
1.0
 17
0.0
 27
0.0
 37
0.0
 40
277.4233117561438
 41
1.267532467532467
 42
50.0
 43
-1370.695619172058
 44
-1370.695619172058
 50
0.0
 51
0.0
 71
     0
 72
   100
 73
     1
 74
     3
 75
     0
 76
     0
 77
     0
 78
     0
281
     0
 65
     0
110
0.0
120
0.0
130
0.0
111
1.0
121
0.0
131
0.0
112
0.0
122
1.0
132
0.0
 79
     0
146
0.0
  0
ENDTAB
  0
TABLE
  2
LTYPE
  5
5
330
0
100
AcDbSymbolTable
 70
    33
  0
LTYPE
  5
14
330
5
100
AcDbSymbolTableRecord
100
AcDbLinetypeTableRecord
  2
ByBlock
 70
     0
  3

 72
    65
 73
     0
 40
0.0
  0
LTYPE
  5
15
330
5
100
AcDbSymbolTableRecord
100
AcDbLinetypeTableRecord
  2
ByLayer
 70
     0
  3

 72
    65
 73
     0
 40
0.0
  0
LTYPE
  5
16
330
5
100
AcDbSymbolTableRecord
100
AcDbLinetypeTableRecord
  2
Continuous
 70
     0
  3
Solid line
 72
    65
 73
     0
 40
0.0
  0
LTYPE
  5
4F
330
5
100
AcDbSymbolTableRecord
100
AcDbLinetypeTableRecord
  2
AM_ISO02W050
 70
     0
  3
__ __ __ __ __ __ __ __ __ __ __ __ __ __ __
 72
    65
 73
     2
 40
7.5
 49
6.0
 74
     0
 49
-1.5
 74
     0
  0
LTYPE
  5
52
330
5
100
AcDbSymbolTableRecord
100
AcDbLinetypeTableRecord
  2
Amconstr
 70
     0
  3
_______________________
 72
    65
 73
     2
 40
9999.0
 49
9999.0
 74
     0
 49
0.0
 74
     0
  0
LTYPE
  5
64
330
5
100
AcDbSymbolTableRecord
100
AcDbLinetypeTableRecord
  2
ACISOWELD
 70
     0
  3
_ _ _ _ _
 72
    65
 73
     2
 40
2.0
 49
2.0
 74
     0
 49
-1.0
 74
     0
  0
LTYPE
  5
65
330
5
100
AcDbSymbolTableRecord
100
AcDbLinetypeTableRecord
  2
ACISOTGB
 70
     0
  3
__ . . __ . .
 72
    65
 73
     6
 40
9.0
 49
4.0
 74
     0
 49
-1.0
 74
     0
 49
1.0
 74
     0
 49
-1.0
 74
     0
 49
1.0
 74
     0
 49
-1.0
 74
     0
  0
LTYPE
  5
66
330
5
100
AcDbSymbolTableRecord
100
AcDbLinetypeTableRecord
  2
ACISOTGL
 70
     0
  3
_ _ _ _ _
 72
    65
 73
     2
 40
3.0
 49
2.0
 74
     0
 49
-1.0
 74
     0
  0
LTYPE
  5
69
330
5
100
AcDbSymbolTableRecord
100
AcDbLinetypeTableRecord
  2
CENTER
 70
     0
  3
__ . __
 72
    65
 73
     4
 40
7.0
 49
4.0
 74
     0
 49
-1.0
 74
     0
 49
1.0
 74
     0
 49
-1.0
 74
     0
  0
LTYPE
  5
A6E
330
5
100
AcDbSymbolTableRecord
100
AcDbLinetypeTableRecord
  2
PHANTOM2
 70
     0
  3
Phantom (.5x) ___ _ _ ___ _ _ ___ _ _ ___ _ _
 72
    65
 73
     6
 40
31.75
 49
15.875
 74
     0
 49
-3.174999999999999
 74
     0
 49
3.174999999999999
 74
     0
 49
-3.174999999999999
 74
     0
 49
3.174999999999999
 74
     0
 49
-3.174999999999999
 74
     0
  0
LTYPE
  5
4DED
330
5
100
AcDbSymbolTableRecord
100
AcDbLinetypeTableRecord
  2
中線
 70
     0
  3
___________________
 72
    65
 73
     2
 40
2.0
 49
1.0
 74
     0
 49
1.0
 74
     0
  0
LTYPE
  5
4DF6
330
5
100
AcDbSymbolTableRecord
100
AcDbLinetypeTableRecord
  2
細線
 70
     0
  3
___________________
 72
    65
 73
     2
 40
2.0
 49
1.0
 74
     0
 49
1.0
 74
     0
  0
LTYPE
  5
4EA7
330
5
100
AcDbSymbolTableRecord
100
AcDbLinetypeTableRecord
  2
文字
 70
     0
  3
_________________
 72
    65
 73
     2
 40
2.0
 49
1.0
 74
     0
 49
1.0
 74
     0
  0
LTYPE
  5
4EA9
330
5
100
AcDbSymbolTableRecord
100
AcDbLinetypeTableRecord
  2
寸法線
 70
     0
  3
________________
 72
    65
 73
     2
 40
2.0
 49
1.0
 74
     0
 49
1.0
 74
     0
  0
LTYPE
  5
5180
330
5
100
AcDbSymbolTableRecord
100
AcDbLinetypeTableRecord
  2
陰線1
 70
     0
  3
__ __ __ __
 72
    65
 73
     2
 40
4.0
 49
2.2
 74
     0
 49
-1.8
 74
     0
  0
LTYPE
  5
5182
330
5
100
AcDbSymbolTableRecord
100
AcDbLinetypeTableRecord
  2
切断線
 70
     0
  3
/\/-/\/-/\/-/\/-/\/-/\/
 72
    65
 73
     2
 40
11.0001
 49
0.0001
 74
     4
 75
   135
340
56
 46
0.04
 50
0.0
 44
0.0
 45
0.0
 49
-11.0
 74
     0
  0
LTYPE
  5
5183
330
5
100
AcDbSymbolTableRecord
100
AcDbLinetypeTableRecord
  2
想像線1
 70
     0
  3
__ __ __ _____ __ __ ____
 72
    65
 73
     6
 40
14.5
 49
6.0
 74
     0
 49
-1.5
 74
     0
 49
2.0
 74
     0
 49
-1.5
 74
     0
 49
2.0
 74
     0
 49
-1.5
 74
     0
  0
LTYPE
  5
5185
330
5
100
AcDbSymbolTableRecord
100
AcDbLinetypeTableRecord
  2
中心線1
 70
     0
  3
___ _ ___ _ ___
 72
    65
 73
     4
 40
18.0
 49
12.0
 74
     0
 49
-2.0
 74
     0
 49
2.0
 74
     0
 49
-2.0
 74
     0
  0
LTYPE
  5
5188
330
5
100
AcDbSymbolTableRecord
100
AcDbLinetypeTableRecord
  2
補助線
 70
     0
  3
______________
 72
    65
 73
     2
 40
2.0
 49
1.0
 74
     0
 49
1.0
 74
     0
  0
LTYPE
  5
6427
330
5
100
AcDbSymbolTableRecord
100
AcDbLinetypeTableRecord
  2
HIDDEN
 70
     0
  3
Hidden __ __ __ __ __ __ __ __ __ __ __ __ __ _
 72
    65
 73
     2
 40
0.375
 49
0.25
 74
     0
 49
-0.125
 74
     0
  0
LTYPE
  5
26D18
330
5
100
AcDbSymbolTableRecord
100
AcDbLinetypeTableRecord
  2
AM_ISO08W050
 70
     0
  3
____ . ____ . ____ . ____ . ____ . ____ . ____
 72
    65
 73
     4
 40
18.0
 49
12.0
 74
     0
 49
-1.5
 74
     0
 49
3.0
 74
     0
 49
-1.5
 74
     0
  0
LTYPE
  5
26D19
330
5
100
AcDbSymbolTableRecord
100
AcDbLinetypeTableRecord
  2
AM_ISO09W050
 70
     0
  3
_____ . . _____ . . _____ . . ____ .. ____
 72
    65
 73
     6
 40
22.5
 49
12.0
 74
     0
 49
-1.5
 74
     0
 49
3.0
 74
     0
 49
-1.5
 74
     0
 49
3.0
 74
     0
 49
-1.5
 74
     0
  0
LTYPE
  5
26D1A
330
5
100
AcDbSymbolTableRecord
100
AcDbLinetypeTableRecord
  2
AM_ISO08W050x2
 70
     0
  3
__ . __ . __ . __ . __ . __
 72
    65
 73
     4
 40
9.0
 49
6.0
 74
     0
 49
-0.75
 74
     0
 49
1.5
 74
     0
 49
-0.75
 74
     0
  0
LTYPE
  5
26D1B
330
5
100
AcDbSymbolTableRecord
100
AcDbLinetypeTableRecord
  2
AM_ISO02W050x2
 70
     0
  3
 _ _ _ _ _ _ _ _ _ _ _ _
 72
    65
 73
     2
 40
3.75
 49
3.0
 74
     0
 49
-0.75
 74
     0
  0
LTYPE
  5
26D1E
330
5
100
AcDbSymbolTableRecord
100
AcDbLinetypeTableRecord
  2
Amzigzag
 70
     0
  3
/\/-/\/-/\/-/\/-/\/-/\/
 72
    65
 73
     2
 40
11.0001
 49
0.0001
 74
     4
 75
   136
340
26D1D
 46
0.04
 50
0.0
 44
0.0
 45
0.0
 49
-11.0
 74
     0
  0
LTYPE
  5
4F58D
330
5
100
AcDbSymbolTableRecord
100
AcDbLinetypeTableRecord
  2
DOT
 70
     0
  3
. . . . . . . . . . . . . . . . . . . . . . . .
 72
    65
 73
     2
 40
0.25
 49
0.0
 74
     0
 49
-0.25
 74
     0
  0
LTYPE
  5
4F591
330
5
100
AcDbSymbolTableRecord
100
AcDbLinetypeTableRecord
  2
ACANSTGB
 70
     0
  3
__ . . __ . .
 72
    65
 73
     6
 40
0.35433070866
 49
0.15748031496
 74
     0
 49
-0.03937007874
 74
     0
 49
0.03937007874
 74
     0
 49
-0.03937007874
 74
     0
 49
0.03937007874
 74
     0
 49
-0.03937007874
 74
     0
  0
LTYPE
  5
4F592
330
5
100
AcDbSymbolTableRecord
100
AcDbLinetypeTableRecord
  2
ACANSTGL
 70
     0
  3
_ _ _ _ _
 72
    65
 73
     2
 40
0.11811023622
 49
0.07874015748
 74
     0
 49
-0.03937007874
 74
     0
  0
LTYPE
  5
56CA8
330
5
100
AcDbSymbolTableRecord
100
AcDbLinetypeTableRecord
  2
CENTER2
 70
     0
  3
Center (.5x) ___ _ ___ _ ___ _ ___ _ ___ _ ___
 72
    65
 73
     4
 40
1.125
 49
0.75
 74
     0
 49
-0.125
 74
     0
 49
0.125
 74
     0
 49
-0.125
 74
     0
  0
LTYPE
  5
56CA9
330
5
100
AcDbSymbolTableRecord
100
AcDbLinetypeTableRecord
  2
HIDDEN2
 70
     0
  3
Hidden (.5x) _ _ _ _ _ _ _ _ _ _ _ _ _ _ _ _ _
 72
    65
 73
     2
 40
0.1875
 49
0.125
 74
     0
 49
-0.0625
 74
     0
  0
LTYPE
  5
56CAA
330
5
100
AcDbSymbolTableRecord
100
AcDbLinetypeTableRecord
  2
AMZIGZAG2
 70
     0
  3
/\/-/\/-/\/-/\/-/\/-/\/
 72
    65
 73
     2
 40
0.4401
 49
0.0001
 74
     0
 49
-0.4400000000000002
 74
     0
  0
LTYPE
  5
56CAB
330
5
100
AcDbSymbolTableRecord
100
AcDbLinetypeTableRecord
  2
DASHED
 70
     0
  3
__ __ __ __ __ __ __ __ __ __ __ __ __ __ __
 72
    65
 73
     2
 40
3.5
 49
2.0
 74
     0
 49
-1.5
 74
     0
  0
LTYPE
  5
5755D
330
5
100
AcDbSymbolTableRecord
100
AcDbLinetypeTableRecord
  2
PHANTOM
 70
     0
  3
_____ _ _ _____ _ _ _____ _ _ _____ _ _ ____  
 72
    65
 73
     6
 40
15.5
 49
8.0
 74
     0
 49
-1.5
 74
     0
 49
1.5
 74
     0
 49
-1.5
 74
     0
 49
1.5
 74
     0
 49
-1.5
 74
     0
  0
LTYPE
  5
5C344
330
5
100
AcDbSymbolTableRecord
100
AcDbLinetypeTableRecord
  2
太線
 70
     0
  3
___________________
 72
    65
 73
     2
 40
2.0
 49
1.0
 74
     0
 49
1.0
 74
     0
  0
LTYPE
  5
5C345
330
5
100
AcDbSymbolTableRecord
100
AcDbLinetypeTableRecord
  2
ハッチング
 70
     0
  3
_________________
 72
    65
 73
     2
 40
2.0
 49
1.0
 74
     0
 49
1.0
 74
     0
  0
ENDTAB
  0
TABLE
  2
LAYER
  5
2
102
{ACAD_XDICTIONARY
360
3F95
102
}
330
0
100
AcDbSymbolTable
 70
    20
  0
LAYER
  5
10
330
2
100
AcDbSymbolTableRecord
100
AcDbLayerTableRecord
  2
0
 70
     0
 62
     7
  6
Continuous
370
    -3
390
F
  0
LAYER
  5
6D1
330
2
100
AcDbSymbolTableRecord
100
AcDbLayerTableRecord
  2
Defpoints
 70
     0
 62
     7
  6
Continuous
290
     0
370
    -3
390
F
  0
LAYER
  5
A46
330
2
100
AcDbSymbolTableRecord
100
AcDbLayerTableRecord
  2
size
 70
     0
 62
     5
  6
Continuous
290
     0
370
    30
390
F
  0
LAYER
  5
A47
330
2
100
AcDbSymbolTableRecord
100
AcDbLayerTableRecord
  2
waku
 70
     0
 62
     7
  6
Continuous
370
    40
390
F
  0
LAYER
  5
A48
330
2
100
AcDbSymbolTableRecord
100
AcDbLayerTableRecord
  2
AM_6
 70
     0
 62
     2
  6
文字
370
    20
390
F
  0
LAYER
  5
3A31
330
2
100
AcDbSymbolTableRecord
100
AcDbLayerTableRecord
  2
hyosen1
 70
     0
 62
     1
  6
Continuous
370
    30
390
F
  0
LAYER
  5
5765
330
2
100
AcDbSymbolTableRecord
100
AcDbLayerTableRecord
  2
hyomoji
 70
     0
 62
     2
  6
Continuous
370
    20
390
F
  0
LAYER
  5
591A
330
2
100
AcDbSymbolTableRecord
100
AcDbLayerTableRecord
  2
hyosen2
 70
     0
 62
     1
  6
Continuous
370
    20
390
F
  0
LAYER
  5
5F85
330
2
100
AcDbSymbolTableRecord
100
AcDbLayerTableRecord
  2
AM_0
 70
     0
 62
     7
  6
中線
370
    30
390
F
  0
LAYER
  5
5F87
330
2
100
AcDbSymbolTableRecord
100
AcDbLayerTableRecord
  2
AM_2
 70
     0
 62
     1
  6
細線
370
    20
390
F
  0
LAYER
  5
5F88
330
2
100
AcDbSymbolTableRecord
100
AcDbLayerTableRecord
  2
AM_3
 70
     0
 62
     6
  6
陰線1
370
    20
390
F
  0
LAYER
  5
5F89
330
2
100
AcDbSymbolTableRecord
100
AcDbLayerTableRecord
  2
AM_4
 70
     0
 62
     3
  6
補助線
370
    20
390
F
  0
LAYER
  5
5F8A
330
2
100
AcDbSymbolTableRecord
100
AcDbLayerTableRecord
  2
AM_5
 70
     0
 62
     3
  6
寸法線
370
    20
390
F
  0
LAYER
  5
5F8B
330
2
100
AcDbSymbolTableRecord
100
AcDbLayerTableRecord
  2
AM_7
 70
     0
 62
     4
  6
中心線1
370
    20
390
F
  0
LAYER
  5
65AF
330
2
100
AcDbSymbolTableRecord
100
AcDbLayerTableRecord
  2
AM_11
 70
     0
 62
     2
  6
想像線1
370
    20
390
F
  0
LAYER
  5
26D55
330
2
100
AcDbSymbolTableRecord
100
AcDbLayerTableRecord
  2
AM_CL
 70
     0
 62
     1
  6
Amconstr
370
    25
390
F
1001
ACAECLAYERSTANDARD
1000

1000

  0
LAYER
  5
4F593
330
2
100
AcDbSymbolTableRecord
100
AcDbLayerTableRecord
  2
LEVEL001
 70
     0
 62
     7
  6
Continuous
370
    -3
390
F
  0
LAYER
  5
572A7
330
2
100
AcDbSymbolTableRecord
100
AcDbLayerTableRecord
  2
1
 70
     0
 62
     7
  6
Continuous
370
    -3
390
F
  0
LAYER
  5
572A8
330
2
100
AcDbSymbolTableRecord
100
AcDbLayerTableRecord
  2
5
 70
     0
 62
     7
  6
Continuous
370
    -3
390
F
  0
LAYER
  5
5897B
330
2
100
AcDbSymbolTableRecord
100
AcDbLayerTableRecord
  2
2
 70
     0
 62
     7
  6
Continuous
370
    -3
390
F
  0
ENDTAB
  0
TABLE
  2
STYLE
  5
3
330
0
100
AcDbSymbolTable
 70
    10
  0
STYLE
  5
11
330
3
100
AcDbSymbolTableRecord
100
AcDbTextStyleTableRecord
  2
STANDARD
 70
     0
 40
0.0
 41
0.7
 50
0.0
 71
     0
 42
3.2
  3
romans.shx
  4
extfont.shx
  0
STYLE
  5
56
330
3
100
AcDbSymbolTableRecord
100
AcDbTextStyleTableRecord
  2

 70
     1
 40
0.0
 41
1.0
 50
0.0
 71
     0
 42
2.5
  3
ltypeshp.shx
  4

  0
STYLE
  5
58
330
3
100
AcDbSymbolTableRecord
100
AcDbTextStyleTableRecord
  2
ACISOTS
 70
     0
 40
1.0
 41
1.0
 50
0.0
 71
     0
 42
2.5
  3
isocp.shx
  4
extfont.shx
  0
STYLE
  5
63
330
3
100
AcDbSymbolTableRecord
100
AcDbTextStyleTableRecord
  2
ACISOGDT
 70
     0
 40
0.0
 41
1.0
 50
0.0
 71
     0
 42
2.5
  3
amgdt.shx
  4

  0
STYLE
  5
A74
330
3
100
AcDbSymbolTableRecord
100
AcDbTextStyleTableRecord
  2
DIM
 70
     0
 40
0.0
 41
1.0
 50
0.0
 71
     0
 42
2.5
  3
monotxt.shx
  4
extfont.shx
  0
STYLE
  5
26D1D
330
3
100
AcDbSymbolTableRecord
100
AcDbTextStyleTableRecord
  2

 70
     1
 40
0.0
 41
1.0
 50
0.0
 71
     0
 42
3.2
  3
genltshp.shx
  4

  0
STYLE
  5
4F594
330
3
100
AcDbSymbolTableRecord
100
AcDbTextStyleTableRecord
  2
GMM001
 70
     0
 40
0.0
 41
1.0
 50
0.0
 71
     0
 42
1.0
  3
txt.shx
  4
bigfont.shx
  0
STYLE
  5
4F595
330
3
100
AcDbSymbolTableRecord
100
AcDbTextStyleTableRecord
  2
GMM002
 70
     0
 40
0.0
 41
1.0
 50
0.0
 71
     0
 42
1.0
  3
MSgothic.ttf
  4

1001
ACAD
1000
ＭＳ ゴシック
1071
    32817
  0
STYLE
  5
4F596
330
3
100
AcDbSymbolTableRecord
100
AcDbTextStyleTableRecord
  2
ACANSTS
 70
     0
 40
1.0
 41
1.0
 50
0.0
 71
     0
 42
0.2
  3
romans.shx
  4
extfont.shx
  0
STYLE
  5
4F597
330
3
100
AcDbSymbolTableRecord
100
AcDbTextStyleTableRecord
  2
ACANSGDT
 70
     0
 40
0.0
 41
1.0
 50
0.0
 71
     0
 42
0.2
  3
amgdt.shx
  4

  0
ENDTAB
  0
TABLE
  2
VIEW
  5
6
330
0
100
AcDbSymbolTable
 70
     6
  0
VIEW
  5
AE1
330
6
100
AcDbSymbolTableRecord
100
AcDbViewTableRecord
  2
AM_VIEW1
 70
     0
 40
222.9747729566097
 10
2555.22721656747
 20
-10964.47524524976
 41
297.0
 11
0.0
 21
0.0
 31
1.0
 12
0.0
 22
0.0
 32
0.0
 42
50.0
 43
-1370.695619172058
 44
-1370.695619172058
 50
0.0
 71
     0
281
     0
 72
     0
  0
VIEW
  5
AE2
330
6
100
AcDbSymbolTableRecord
100
AcDbViewTableRecord
  2
AM_VIEW2
 70
     0
 40
222.9747729566097
 10
2852.22721656747
 20
-10964.47524524976
 41
297.0
 11
0.0
 21
0.0
 31
1.0
 12
0.0
 22
0.0
 32
0.0
 42
50.0
 43
-1370.695619172058
 44
-1370.695619172058
 50
0.0
 71
     0
281
     0
 72
     0
  0
VIEW
  5
AE3
330
6
100
AcDbSymbolTableRecord
100
AcDbViewTableRecord
  2
AM_VIEW3
 70
     0
 40
222.9747729566097
 10
2555.22721656747
 20
-11161.50047229315
 41
297.0
 11
0.0
 21
0.0
 31
1.0
 12
0.0
 22
0.0
 32
0.0
 42
50.0
 43
-1370.695619172058
 44
-1370.695619172058
 50
0.0
 71
     0
281
     0
 72
     0
  0
VIEW
  5
AE4
330
6
100
AcDbSymbolTableRecord
100
AcDbViewTableRecord
  2
AM_VIEW4
 70
     0
 40
222.9747729566097
 10
2852.22721656747
 20
-11161.50047229315
 41
297.0
 11
0.0
 21
0.0
 31
1.0
 12
0.0
 22
0.0
 32
0.0
 42
50.0
 43
-1370.695619172058
 44
-1370.695619172058
 50
0.0
 71
     0
281
     0
 72
     0
  0
VIEW
  5
AE5
330
6
100
AcDbSymbolTableRecord
100
AcDbViewTableRecord
  2
AM_VIEW5
 70
     0
 40
222.9747729566079
 10
2703.727216567469
 20
-11062.98785877146
 41
297.0
 11
0.0
 21
0.0
 31
1.0
 12
0.0
 22
0.0
 32
0.0
 42
50.0
 43
-1370.695619172058
 44
-1370.695619172058
 50
0.0
 71
     0
281
     0
 72
     0
  0
VIEW
  5
AE6
330
6
100
AcDbSymbolTableRecord
100
AcDbViewTableRecord
  2
AM_VIEW6
 70
     0
 40
445.9450864177597
 10
2703.727216567469
 20
-11062.98785877146
 41
593.9940599999999
 11
0.0
 21
0.0
 31
1.0
 12
0.0
 22
0.0
 32
0.0
 42
50.0
 43
-1370.695619172058
 44
-1370.695619172058
 50
0.0
 71
     0
281
     0
 72
     0
  0
ENDTAB
  0
TABLE
  2
UCS
  5
7
330
0
100
AcDbSymbolTable
 70
     0
  0
ENDTAB
  0
TABLE
  2
APPID
  5
9
330
0
100
AcDbSymbolTable
 70
    94
  0
APPID
  5
12
330
9
100
AcDbSymbolTableRecord
100
AcDbRegAppTableRecord
  2
ACAD
 70
     0
  0
APPID
  5
30
330
9
100
AcDbSymbolTableRecord
100
AcDbRegAppTableRecord
  2
MCAD_NO_VIS
 70
     0
  0
APPID
  5
31
330
9
100
AcDbSymbolTableRecord
100
AcDbRegAppTableRecord
  2
ACAD_TEMP_GRAPHIC
 70
     0
  0
APPID
  5
44
330
9
100
AcDbSymbolTableRecord
100
AcDbRegAppTableRecord
  2
ACATTRIBSERVICES
 70
     0
  0
APPID
  5
7A1
330
9
100
AcDbSymbolTableRecord
100
AcDbRegAppTableRecord
  2
GENIUS_GENDIMSH_14
 70
     0
  0
APPID
  5
A49
330
9
100
AcDbSymbolTableRecord
100
AcDbRegAppTableRecord
  2
GENIUS_GENREC_14
 70
     0
  0
APPID
  5
A4A
330
9
100
AcDbSymbolTableRecord
100
AcDbRegAppTableRecord
  2
GENIUS_GENOBJ-N-REC_13
 70
     0
  0
APPID
  5
A4B
330
9
100
AcDbSymbolTableRecord
100
AcDbRegAppTableRecord
  2
GENIUS_GENODEF_13
 70
     0
  0
APPID
  5
A4C
330
9
100
AcDbSymbolTableRecord
100
AcDbRegAppTableRecord
  2
DCO15
 70
     0
  0
APPID
  5
ADC
330
9
100
AcDbSymbolTableRecord
100
AcDbRegAppTableRecord
  2
GENIUS_GENOLIS_13
 70
     0
  0
APPID
  5
ADD
330
9
100
AcDbSymbolTableRecord
100
AcDbRegAppTableRecord
  2
GENIUS_GENOENT_13
 70
     0
  0
APPID
  5
ADE
330
9
100
AcDbSymbolTableRecord
100
AcDbRegAppTableRecord
  2
GENIUS_GENOBJ-N-TIT_13
 70
     0
  0
APPID
  5
ADF
330
9
100
AcDbSymbolTableRecord
100
AcDbRegAppTableRecord
  2
GENIUS_GENTITLE_13
 70
     0
  0
APPID
  5
AE0
330
9
100
AcDbSymbolTableRecord
100
AcDbRegAppTableRecord
  2
GENIUS_GENOREF_13
 70
     0
  0
APPID
  5
AE7
330
9
100
AcDbSymbolTableRecord
100
AcDbRegAppTableRecord
  2
GENIUS_GENSCREG_15
 70
     0
  0
APPID
  5
AE8
330
9
100
AcDbSymbolTableRecord
100
AcDbRegAppTableRecord
  2
GENIUS_GENOBJ-N-SDF_13
 70
     0
  0
APPID
  5
FAF
330
9
100
AcDbSymbolTableRecord
100
AcDbRegAppTableRecord
  2
GENIUS_GENBLLY_14
 70
     0
  0
APPID
  5
FB0
330
9
100
AcDbSymbolTableRecord
100
AcDbRegAppTableRecord
  2
GENIUS_GENTRA_14
 70
     0
  0
APPID
  5
1285
330
9
100
AcDbSymbolTableRecord
100
AcDbRegAppTableRecord
  2
GENIUS_GENDTOL_13
 70
     0
  0
APPID
  5
142D
330
9
100
AcDbSymbolTableRecord
100
AcDbRegAppTableRecord
  2
GENIUS_GENOBJ-N-CEN_13
 70
     0
  0
APPID
  5
1AB5
330
9
100
AcDbSymbolTableRecord
100
AcDbRegAppTableRecord
  2
GENIUS_GENOBJ-N-CRS_13
 70
     0
  0
APPID
  5
1B36
330
9
100
AcDbSymbolTableRecord
100
AcDbRegAppTableRecord
  2
GENIUS_GENOBJ-N-HTC_13
 70
     0
  0
APPID
  5
1B37
330
9
100
AcDbSymbolTableRecord
100
AcDbRegAppTableRecord
  2
GENIUS_GENHATCH_13
 70
     0
  0
APPID
  5
216D
330
9
100
AcDbSymbolTableRecord
100
AcDbRegAppTableRecord
  2
GENIUS_GENOBJ-N-FIL_13
 70
     0
  0
APPID
  5
2356
330
9
100
AcDbSymbolTableRecord
100
AcDbRegAppTableRecord
  2
GEVID990412420
 70
     0
  0
APPID
  5
2357
330
9
100
AcDbSymbolTableRecord
100
AcDbRegAppTableRecord
  2
GEVDC
 70
     0
  0
APPID
  5
2358
330
9
100
AcDbSymbolTableRecord
100
AcDbRegAppTableRecord
  2
GEVCON
 70
     0
  0
APPID
  5
235B
330
9
100
AcDbSymbolTableRecord
100
AcDbRegAppTableRecord
  2
GEVRADREF
 70
     0
  0
APPID
  5
2360
330
9
100
AcDbSymbolTableRecord
100
AcDbRegAppTableRecord
  2
GENIUS_GENBH_13
 70
     0
  0
APPID
  5
2362
330
9
100
AcDbSymbolTableRecord
100
AcDbRegAppTableRecord
  2
GENIUS_GENOBJ-NBEHI-BHF_13
 70
     0
  0
APPID
  5
2364
330
9
100
AcDbSymbolTableRecord
100
AcDbRegAppTableRecord
  2
GENIUS_GENOBJ-NBEHI-BHB_13
 70
     0
  0
APPID
  5
2379
330
9
100
AcDbSymbolTableRecord
100
AcDbRegAppTableRecord
  2
GENIUS_GENOBJ-F-SCPASSM_13
 70
     0
  0
APPID
  5
3D74
330
9
100
AcDbSymbolTableRecord
100
AcDbRegAppTableRecord
  2
GENIUS_GENDIM_13
 70
     0
  0
APPID
  5
3D76
330
9
100
AcDbSymbolTableRecord
100
AcDbRegAppTableRecord
  2
GENIUS_GE3DTOL_13
 70
     0
  0
APPID
  5
3D9C
330
9
100
AcDbSymbolTableRecord
100
AcDbRegAppTableRecord
  2
AD_DRAW
 70
     0
  0
APPID
  5
3DE8
330
9
100
AcDbSymbolTableRecord
100
AcDbRegAppTableRecord
  2
ASURF_PCURVE_APPNAME
 70
     0
  0
APPID
  5
3DED
330
9
100
AcDbSymbolTableRecord
100
AcDbRegAppTableRecord
  2
AMG_3D2D_5.0
 70
     0
  0
APPID
  5
3E1B
330
9
100
AcDbSymbolTableRecord
100
AcDbRegAppTableRecord
  2
DESIGNERASSEMBLIES
 70
     0
  0
APPID
  5
3E20
330
9
100
AcDbSymbolTableRecord
100
AcDbRegAppTableRecord
  2
ACADM_DIM_EDIT
 70
     0
  0
APPID
  5
3E21
330
9
100
AcDbSymbolTableRecord
100
AcDbRegAppTableRecord
  2
AMDT_DM_ADJ
 70
     0
  0
APPID
  5
4143
330
9
100
AcDbSymbolTableRecord
100
AcDbRegAppTableRecord
  2
GENIUS_GENFIL_13
 70
     0
  0
APPID
  5
4144
330
9
100
AcDbSymbolTableRecord
100
AcDbRegAppTableRecord
  2
GENIUS_GENOBJ-N-CHA_13
 70
     0
  0
APPID
  5
4E17
330
9
100
AcDbSymbolTableRecord
100
AcDbRegAppTableRecord
  2
GEVID1008153417
 70
     0
  0
APPID
  5
4E58
330
9
100
AcDbSymbolTableRecord
100
AcDbRegAppTableRecord
  2
GEVID1008153418
 70
     0
  0
APPID
  5
4E5E
330
9
100
AcDbSymbolTableRecord
100
AcDbRegAppTableRecord
  2
GEVID1008153419
 70
     0
  0
APPID
  5
4E64
330
9
100
AcDbSymbolTableRecord
100
AcDbRegAppTableRecord
  2
GEVID1008153420
 70
     0
  0
APPID
  5
4E75
330
9
100
AcDbSymbolTableRecord
100
AcDbRegAppTableRecord
  2
GEVID1008153421
 70
     0
  0
APPID
  5
4EB7
330
9
100
AcDbSymbolTableRecord
100
AcDbRegAppTableRecord
  2
GENIUS_AMGTXT_16
 70
     0
  0
APPID
  5
7645
330
9
100
AcDbSymbolTableRecord
100
AcDbRegAppTableRecord
  2
GENIUS_GENOBJ-N-DIM_13
 70
     0
  0
APPID
  5
19403
330
9
100
AcDbSymbolTableRecord
100
AcDbRegAppTableRecord
  2
GEVID1129857778
 70
     0
  0
APPID
  5
1941E
330
9
100
AcDbSymbolTableRecord
100
AcDbRegAppTableRecord
  2
AMG_2DHIDE
 70
     0
  0
APPID
  5
1941F
330
9
100
AcDbSymbolTableRecord
100
AcDbRegAppTableRecord
  2
AMG_2DSTRUCT_BTR
 70
     0
  0
APPID
  5
19431
330
9
100
AcDbSymbolTableRecord
100
AcDbRegAppTableRecord
  2
ACADM_2DVIEW_IGN_NOTIFY
 70
     0
  0
APPID
  5
1C436
330
9
100
AcDbSymbolTableRecord
100
AcDbRegAppTableRecord
  2
ACAD_DSTYLE_DIMARC_LENGTH_SYMBOL
 70
     0
  0
APPID
  5
1C437
330
9
100
AcDbSymbolTableRecord
100
AcDbRegAppTableRecord
  2
ACAD_DSTYLE_DIMJOGGED_JOGANGLE_SYMBOL
 70
     0
  0
APPID
  5
1C438
330
9
100
AcDbSymbolTableRecord
100
AcDbRegAppTableRecord
  2
ACAD_PSEXT
 70
     0
  0
APPID
  5
1C439
330
9
100
AcDbSymbolTableRecord
100
AcDbRegAppTableRecord
  2
ACAECLAYERSTANDARD
 70
     0
  0
APPID
  5
1DDCD
330
9
100
AcDbSymbolTableRecord
100
AcDbRegAppTableRecord
  2
ACAD_EXEMPT_FROM_CAD_STANDARDS
 70
     0
  0
APPID
  5
1EA8C
330
9
100
AcDbSymbolTableRecord
100
AcDbRegAppTableRecord
  2
GENIUS_GENCEN_19
 70
     0
  0
APPID
  5
23356
330
9
100
AcDbSymbolTableRecord
100
AcDbRegAppTableRecord
  2
GEVID1213144138
 70
     0
  0
APPID
  5
23376
330
9
100
AcDbSymbolTableRecord
100
AcDbRegAppTableRecord
  2
GEVID1213144139
 70
     0
  0
APPID
  5
233CB
330
9
100
AcDbSymbolTableRecord
100
AcDbRegAppTableRecord
  2
GEVID1213144140
 70
     0
  0
APPID
  5
233E8
330
9
100
AcDbSymbolTableRecord
100
AcDbRegAppTableRecord
  2
GENIUS_GEFSPRING_13
 70
     0
  0
APPID
  5
23412
330
9
100
AcDbSymbolTableRecord
100
AcDbRegAppTableRecord
  2
GEVID1213144141
 70
     0
  0
APPID
  5
2343D
330
9
100
AcDbSymbolTableRecord
100
AcDbRegAppTableRecord
  2
GEVID1213144142
 70
     0
  0
APPID
  5
2343F
330
9
100
AcDbSymbolTableRecord
100
AcDbRegAppTableRecord
  2
GEVID1213144143
 70
     0
  0
APPID
  5
23441
330
9
100
AcDbSymbolTableRecord
100
AcDbRegAppTableRecord
  2
GEVID1213144144
 70
     0
  0
APPID
  5
23473
330
9
100
AcDbSymbolTableRecord
100
AcDbRegAppTableRecord
  2
GEVID1213144146
 70
     0
  0
APPID
  5
23474
330
9
100
AcDbSymbolTableRecord
100
AcDbRegAppTableRecord
  2
GEVID1213144147
 70
     0
  0
APPID
  5
234B2
330
9
100
AcDbSymbolTableRecord
100
AcDbRegAppTableRecord
  2
GEVID1213144148
 70
     0
  0
APPID
  5
234B3
330
9
100
AcDbSymbolTableRecord
100
AcDbRegAppTableRecord
  2
GEVID1213144149
 70
     0
  0
APPID
  5
234B5
330
9
100
AcDbSymbolTableRecord
100
AcDbRegAppTableRecord
  2
GEVID1213144150
 70
     0
  0
APPID
  5
234B6
330
9
100
AcDbSymbolTableRecord
100
AcDbRegAppTableRecord
  2
GEVID1213144151
 70
     0
  0
APPID
  5
2356B
330
9
100
AcDbSymbolTableRecord
100
AcDbRegAppTableRecord
  2
GEVID1213144152
 70
     0
  0
APPID
  5
2356D
330
9
100
AcDbSymbolTableRecord
100
AcDbRegAppTableRecord
  2
GEVID1213144153
 70
     0
  0
APPID
  5
295EE
330
9
100
AcDbSymbolTableRecord
100
AcDbRegAppTableRecord
  2
GEVID1215060123
 70
     0
  0
APPID
  5
295F8
330
9
100
AcDbSymbolTableRecord
100
AcDbRegAppTableRecord
  2
GEVID1215060124
 70
     0
  0
APPID
  5
295FD
330
9
100
AcDbSymbolTableRecord
100
AcDbRegAppTableRecord
  2
GEVID1215060125
 70
     0
  0
APPID
  5
29602
330
9
100
AcDbSymbolTableRecord
100
AcDbRegAppTableRecord
  2
GEVID1215060126
 70
     0
  0
APPID
  5
29607
330
9
100
AcDbSymbolTableRecord
100
AcDbRegAppTableRecord
  2
GEVID1215060127
 70
     0
  0
APPID
  5
2960C
330
9
100
AcDbSymbolTableRecord
100
AcDbRegAppTableRecord
  2
GEVID1215060128
 70
     0
  0
APPID
  5
29611
330
9
100
AcDbSymbolTableRecord
100
AcDbRegAppTableRecord
  2
GEVID1215060129
 70
     0
  0
APPID
  5
29616
330
9
100
AcDbSymbolTableRecord
100
AcDbRegAppTableRecord
  2
GEVID1215060130
 70
     0
  0
APPID
  5
29633
330
9
100
AcDbSymbolTableRecord
100
AcDbRegAppTableRecord
  2
GEVID1215060131
 70
     0
  0
APPID
  5
2963A
330
9
100
AcDbSymbolTableRecord
100
AcDbRegAppTableRecord
  2
GEVID1215060132
 70
     0
  0
APPID
  5
2963F
330
9
100
AcDbSymbolTableRecord
100
AcDbRegAppTableRecord
  2
GEVID1215060133
 70
     0
  0
APPID
  5
48D6F
330
9
100
AcDbSymbolTableRecord
100
AcDbRegAppTableRecord
  2
GEVID1221205362
 70
     0
  0
APPID
  5
48D7E
330
9
100
AcDbSymbolTableRecord
100
AcDbRegAppTableRecord
  2
GEVID1221205363
 70
     0
  0
APPID
  5
48D84
330
9
100
AcDbSymbolTableRecord
100
AcDbRegAppTableRecord
  2
GEVID1221205364
 70
     0
  0
APPID
  5
48D8A
330
9
100
AcDbSymbolTableRecord
100
AcDbRegAppTableRecord
  2
GEVID1221205365
 70
     0
  0
APPID
  5
48D8F
330
9
100
AcDbSymbolTableRecord
100
AcDbRegAppTableRecord
  2
GEVID1221205366
 70
     0
  0
APPID
  5
48D98
330
9
100
AcDbSymbolTableRecord
100
AcDbRegAppTableRecord
  2
GEVID1221205367
 70
     0
  0
APPID
  5
48E1A
330
9
100
AcDbSymbolTableRecord
100
AcDbRegAppTableRecord
  2
GEVID1221205368
 70
     0
  0
APPID
  5
48E1F
330
9
100
AcDbSymbolTableRecord
100
AcDbRegAppTableRecord
  2
GEVID1221205369
 70
     0
  0
ENDTAB
  0
TABLE
  2
DIMSTYLE
  5
A
330
0
100
AcDbSymbolTable
 70
    32
100
AcDbDimStyleTable
 71
     2
340
2515
340
6C
  0
DIMSTYLE
105
6C
330
A
100
AcDbSymbolTableRecord
100
AcDbDimStyleTableRecord
  2
AM_ISO
 70
     0
  4
"
 41
2.5
 42
1.0
 43
10.0
 44
1.0
 47
0.1
 48
0.1
 73
     0
 74
     0
 77
     1
 78
     8
 79
     2
140
3.5
141
0.0
143
0.0393701
146
0.71
147
1.5
172
     1
176
   256
177
   256
178
     2
271
     2
272
     3
274
     4
283
     0
284
     8
340
11
371
    -1
372
    -1
  0
DIMSTYLE
105
6D
330
A
100
AcDbSymbolTableRecord
100
AcDbDimStyleTableRecord
  2
AM_ISO$3
 70
     0
  4
"
 41
0.8
 42
1.0
 43
10.0
 44
1.0
 47
0.1
 48
0.1
 73
     0
 77
     1
 78
     8
 79
     2
140
3.2
141
0.0
143
0.0393701
146
0.71
147
0.9999999999999996
176
   256
177
   256
178
     2
271
     2
272
     2
283
     0
284
     8
288
     1
289
     0
340
11
342
6C4
371
    -1
372
    -1
  0
DIMSTYLE
105
6E
330
A
100
AcDbSymbolTableRecord
100
AcDbDimStyleTableRecord
  2
AM_ISO$4
 70
     0
  4
"
 41
0.8
 42
1.0
 43
10.0
 44
1.0
 47
0.1
 48
0.1
 73
     0
 77
     1
 78
     8
 79
     2
140
3.2
141
0.0
143
0.0393701
146
0.71
147
1.0
173
     1
176
   256
177
   256
178
     2
271
     2
272
     2
283
     0
284
     8
288
     1
289
     0
340
11
344
6C4
371
    -1
372
    -1
  0
DIMSTYLE
105
6F
330
A
100
AcDbSymbolTableRecord
100
AcDbDimStyleTableRecord
  2
AM_ISO$6
 70
     0
  4
"
 41
0.8
 42
1.0
 43
10.0
 44
1.0
 47
0.1
 48
0.1
 73
     0
 74
     0
 78
     8
 79
     2
140
3.2
141
0.0
143
0.0393701
146
0.71
147
1.0
172
     1
176
   256
177
   256
178
     2
271
     2
272
     2
283
     0
284
     8
340
11
341
6C4
371
    -1
372
    -1
  0
DIMSTYLE
105
70
330
A
100
AcDbSymbolTableRecord
100
AcDbDimStyleTableRecord
  2
AM_ISO$7
 70
     0
  4
"
 41
0.8
 42
1.0
 43
10.0
 44
1.0
 47
0.1
 48
0.1
 73
     0
 74
     0
 77
     1
 78
     8
 79
     2
140
3.2
141
0.0
143
0.0393701
146
0.71
147
1.0
172
     1
176
   256
177
   256
178
     2
271
     2
272
     2
283
     0
284
     8
340
11
341
6C4
342
6C4
371
    -1
372
    -1
  0
DIMSTYLE
105
71
330
A
100
AcDbSymbolTableRecord
100
AcDbDimStyleTableRecord
  2
AM_ISO$SF
 70
     0
  4
"
 41
0.8
 42
1.0
 43
10.0
 44
1.0
 47
0.1
 48
0.1
 73
     0
 74
     0
 75
     1
 76
     1
 77
     1
 78
     8
 79
     2
140
3.2
141
0.0
143
0.0393701
146
0.71
147
1.0
172
     1
176
   256
177
   256
178
     2
271
     2
272
     2
283
     0
284
     8
340
11
341
6C4
342
6C4
371
    -1
372
    -1
  0
DIMSTYLE
105
76
330
A
100
AcDbSymbolTableRecord
100
AcDbDimStyleTableRecord
  2
AM_ISO$SH
 70
     0
  4
"
 41
0.8
 42
1.0
 43
10.0
 44
1.0
 47
0.1
 48
0.1
 73
     0
 74
     0
 75
     1
 76
     1
 77
     1
 78
     8
 79
     2
140
3.2
141
0.0
143
0.0393701
144
2.0
146
0.71
147
1.0
172
     1
176
   256
177
   256
178
     2
271
     2
272
     2
283
     0
284
     8
340
11
341
6C4
342
6C4
371
    -1
372
    -1
  0
DIMSTYLE
105
6BE
330
A
100
AcDbSymbolTableRecord
100
AcDbDimStyleTableRecord
  2
AM_ISO$0
 70
     0
  4
"
 41
0.8
 42
1.0
 43
10.0
 44
1.0
 47
0.1
 48
0.1
 73
     0
 74
     0
 77
     1
 78
     8
 79
     2
140
3.2
141
0.0
143
0.0393701
146
0.71
147
0.9999999999999996
172
     1
176
   256
177
   256
178
     2
271
     2
272
     2
283
     0
284
     8
340
11
341
6C4
342
6C4
371
    -1
372
    -1
  0
DIMSTYLE
105
6BF
330
A
100
AcDbSymbolTableRecord
100
AcDbDimStyleTableRecord
  2
AM_ISO$2
 70
     0
  4
"
 41
0.8
 42
1.0
 43
10.0
 44
1.0
 47
0.1
 48
0.1
 73
     0
 74
     0
 77
     3
 78
     8
 79
     2
140
3.200000000000001
141
0.0
143
0.0393701
146
0.71
147
0.9999999999999996
172
     1
176
   256
177
   256
178
     2
271
     2
272
     2
283
     0
284
     8
340
11
342
6C4
371
    -1
372
    -1
  0
DIMSTYLE
105
A76
330
A
100
AcDbSymbolTableRecord
100
AcDbDimStyleTableRecord
  2
STANDARD
 70
     0
 41
3.0
 42
1.0
 43
7.0
 44
2.0
 73
     0
 74
     0
 77
     1
140
2.799999999999999
141
0.0
143
0.0394
147
0.7
171
     4
172
     1
173
     1
176
     3
177
     3
178
     2
271
     3
272
     3
273
     8
274
     4
289
     0
340
A74
341
A66
343
A66
344
A66
  0
DIMSTYLE
105
2515
330
A
100
AcDbSymbolTableRecord
100
AcDbDimStyleTableRecord
  2
SYS
 70
     0
  4
"
 41
1.0
 42
1.0
 43
10.0
 44
1.0
 47
0.1
 48
0.1
 73
     0
 74
     0
 77
     1
 78
     8
 79
     2
140
3.5
141
0.0
143
0.0393701
146
0.71
147
1.5
172
     1
176
   256
177
   256
178
     7
271
     2
272
     2
283
     0
284
     8
340
11
371
    -1
372
    -1
  0
DIMSTYLE
105
2516
102
{ACAD_REACTORS
330
5B8A5
102
}
330
A
100
AcDbSymbolTableRecord
100
AcDbDimStyleTableRecord
  2
SYS$3
 70
     0
  4
"
 41
2.0
 42
1.0
 43
10.0
 44
1.0
 47
0.1
 48
0.1
 73
     0
 77
     1
 78
     8
 79
     2
140
3.5
141
0.0
143
0.0393701
146
0.71
147
1.5
176
   256
177
   256
178
     2
271
     2
272
     2
283
     0
284
     8
288
     1
340
11
342
A66
371
    -1
372
    -1
  0
DIMSTYLE
105
2517
330
A
100
AcDbSymbolTableRecord
100
AcDbDimStyleTableRecord
  2
SYS$4
 70
     0
  4
"
 41
2.0
 42
1.0
 43
10.0
 44
1.0
 47
0.1
 48
0.1
 73
     0
 77
     1
 78
     8
 79
     2
140
3.5
141
0.0
143
0.0393701
146
0.71
147
1.5
173
     1
176
   256
177
   256
178
     2
271
     2
272
     2
283
     0
284
     8
288
     1
340
11
344
A66
371
    -1
372
    -1
  0
DIMSTYLE
105
2518
330
A
100
AcDbSymbolTableRecord
100
AcDbDimStyleTableRecord
  2
SYS$6
 70
     0
  4
"
 41
2.0
 42
1.0
 43
10.0
 44
1.0
 47
0.1
 48
0.1
 73
     0
 74
     0
 78
     8
 79
     2
140
3.5
141
0.0
143
0.0393701
146
0.71
147
1.5
172
     1
176
   256
177
   256
178
     2
271
     2
272
     2
283
     0
284
     8
340
11
341
A66
371
    -1
372
    -1
  0
DIMSTYLE
105
2519
330
A
100
AcDbSymbolTableRecord
100
AcDbDimStyleTableRecord
  2
SYS$7
 70
     0
  4
"
 41
2.0
 42
1.0
 43
10.0
 44
1.0
 47
0.1
 48
0.1
 73
     0
 74
     0
 77
     1
 78
     8
 79
     2
140
5.0
141
0.0
143
0.0393701
146
0.71
147
1.5
172
     1
176
   256
177
   256
178
     2
271
     2
272
     2
283
     0
284
     8
340
11
341
A66
342
A66
371
    -1
372
    -1
  0
DIMSTYLE
105
251A
330
A
100
AcDbSymbolTableRecord
100
AcDbDimStyleTableRecord
  2
SYS$SF
 70
     0
  4
"
 41
2.5
 42
1.0
 43
10.0
 44
1.0
 47
0.1
 48
0.1
 73
     0
 74
     0
 75
     1
 76
     1
 77
     1
 78
     8
 79
     2
140
3.5
141
0.0
143
0.0393701
146
0.71
147
1.5
172
     1
176
   256
177
   256
178
     2
271
     2
272
     3
283
     0
284
     8
340
11
341
6C4
342
6C4
371
    -1
372
    -1
  0
DIMSTYLE
105
251B
330
A
100
AcDbSymbolTableRecord
100
AcDbDimStyleTableRecord
  2
SYS$SH
 70
     0
  4
"
 41
2.5
 42
1.0
 43
10.0
 44
1.0
 47
0.1
 48
0.1
 73
     0
 74
     0
 75
     1
 76
     1
 77
     1
 78
     8
 79
     2
140
3.5
141
0.0
143
0.0393701
144
2.0
146
0.71
147
1.5
172
     1
173
     1
176
   256
177
   256
178
     2
271
     2
272
     3
283
     0
284
     8
340
11
341
6C4
343
72
344
6C4
371
    -1
372
    -1
  0
DIMSTYLE
105
2A59
330
A
100
AcDbSymbolTableRecord
100
AcDbDimStyleTableRecord
  2
SYS$2
 70
     0
  4
"
 41
1.0
 42
1.0
 43
10.0
 44
1.0
 47
0.1
 48
0.1
 73
     0
 74
     0
 77
     1
 78
     8
 79
     2
140
3.5
141
0.0
143
0.0393701
146
0.71
147
1.5
172
     1
176
   256
177
   256
178
     2
271
     2
272
     2
283
     0
284
     8
340
11
342
6C4
371
    -1
372
    -1
  0
DIMSTYLE
105
2AAB
102
{ACAD_REACTORS
330
5B8A1
330
5B8A2
330
5B8A3
330
5B8A4
330
5B8A8
330
5B8A9
330
5B8AA
102
}
330
A
100
AcDbSymbolTableRecord
100
AcDbDimStyleTableRecord
  2
SYS$0
 70
     0
  4
"
 41
1.0
 42
1.0
 43
10.0
 44
1.0
 47
0.1
 48
0.1
 73
     0
 74
     0
 77
     1
 78
     8
 79
     2
140
3.200000000000001
141
0.0
143
0.0393701
146
0.71
147
1.5
172
     1
176
   256
177
   256
178
     2
271
     2
272
     2
283
     0
284
     8
340
11
341
A66
342
6C4
371
    -1
372
    -1
  0
DIMSTYLE
105
4F598
330
A
100
AcDbSymbolTableRecord
100
AcDbDimStyleTableRecord
  2
GMM001
 70
     0
 41
4.0
 42
2.0
 43
16.0
 44
2.0
 73
     0
 74
     0
 77
     3
 78
     8
140
8.0
141
2.0
143
0.0394
146
0.625
147
1.0
172
     1
173
     1
176
     3
177
     3
178
     3
271
     3
272
     0
275
     1
340
4F594
  0
DIMSTYLE
105
4F599
330
A
100
AcDbSymbolTableRecord
100
AcDbDimStyleTableRecord
  2
GMM002
 70
     0
 41
4.0
 42
2.0
 43
16.0
 44
2.0
 73
     0
 74
     0
 77
     3
 78
     8
140
8.0
141
2.0
143
0.0394
146
0.625
147
1.0
172
     1
173
     1
176
     3
177
     3
178
     3
271
     3
272
     0
275
     1
288
     1
340
4F594
  0
DIMSTYLE
105
4F59A
330
A
100
AcDbSymbolTableRecord
100
AcDbDimStyleTableRecord
  2
GMM003
 70
     0
 41
4.0
 42
2.0
 43
16.0
 44
2.0
 73
     0
 74
     0
 77
     3
 78
     8
140
8.0
141
2.0
143
0.0394
146
0.625
147
1.0
172
     1
173
     1
176
     3
177
     3
178
     3
271
     3
272
     0
275
     1
288
     1
340
4F594
  0
DIMSTYLE
105
4F59B
330
A
100
AcDbSymbolTableRecord
100
AcDbDimStyleTableRecord
  2
GMM004
 70
     0
 41
4.0
 42
2.0
 43
16.0
 44
2.0
 73
     0
 74
     0
 77
     3
 78
     8
140
8.0
141
2.0
143
0.0394
146
0.625
147
1.0
172
     1
173
     1
176
     3
177
     3
178
     3
271
     3
272
     0
275
     1
340
4F594
  0
DIMSTYLE
105
4F59C
330
A
100
AcDbSymbolTableRecord
100
AcDbDimStyleTableRecord
  2
GMM005
 70
     0
 41
4.0
 42
2.0
 43
16.0
 44
2.0
 73
     0
 74
     0
 77
     3
 78
     8
140
8.0
141
2.0
143
0.0394
146
0.625
147
1.0
172
     1
173
     1
176
     3
177
     3
178
     3
271
     3
272
     0
275
     1
288
     1
340
4F594
  0
DIMSTYLE
105
4F59D
330
A
100
AcDbSymbolTableRecord
100
AcDbDimStyleTableRecord
  2
GMM006
 70
     0
 41
4.0
 42
2.0
 43
16.0
 44
2.0
 73
     0
 74
     0
 77
     1
 78
     8
140
8.0
141
2.0
143
0.0394
146
0.625
147
0.0
172
     1
173
     1
176
     3
177
     3
178
     3
271
     3
272
     0
275
     1
340
4F594
  0
DIMSTYLE
105
4F59E
330
A
100
AcDbSymbolTableRecord
100
AcDbDimStyleTableRecord
  2
AM_ANSI
 70
     0
  4
mm
 41
0.1
 42
0.05
 43
0.5
 44
0.1
 47
0.1
 48
0.1
 78
     7
 79
     2
140
0.12
141
0.0
146
0.71
147
0.06
176
   256
177
   256
178
     2
274
     4
284
     7
340
11
371
    -1
372
    -1
1001
ACAD_DSTYLE_DIMARC_LENGTH_SYMBOL
1070
   379
1070
     1
  0
DIMSTYLE
105
4F59F
330
A
100
AcDbSymbolTableRecord
100
AcDbDimStyleTableRecord
  2
AM_ANSI$3
 70
     0
  4
mm
 41
0.1
 42
0.05
 43
0.5
 44
0.1
 47
0.1
 48
0.1
 78
     7
 79
     2
140
0.12
141
0.0
146
0.71
147
0.06
176
   256
177
   256
178
     2
274
     4
284
     7
288
     1
289
     0
340
11
371
    -1
372
    -1
1001
ACAD_DSTYLE_DIMARC_LENGTH_SYMBOL
1070
   379
1070
     1
  0
DIMSTYLE
105
4F5A0
330
A
100
AcDbSymbolTableRecord
100
AcDbDimStyleTableRecord
  2
AM_ANSI$4
 70
     0
  4
mm
 41
0.1
 42
0.05
 43
0.5
 44
0.1
 47
0.1
 48
0.1
 78
     7
 79
     2
140
0.12
141
0.0
146
0.71
147
0.06
176
   256
177
   256
178
     2
274
     4
284
     7
288
     1
289
     0
340
11
371
    -1
372
    -1
1001
ACAD_DSTYLE_DIMARC_LENGTH_SYMBOL
1070
   379
1070
     1
  0
DIMSTYLE
105
4F5A1
330
A
100
AcDbSymbolTableRecord
100
AcDbDimStyleTableRecord
  2
AM_ANSI$7
 70
     0
  4
mm
 41
0.1
 42
0.05
 43
0.5
 44
0.1
 47
0.1
 48
0.1
 78
     7
 79
     2
140
0.24
141
0.0
146
0.71
147
0.06
176
   256
177
   256
178
     2
274
     4
284
     7
340
11
371
    -1
372
    -1
1001
ACAD_DSTYLE_DIMARC_LENGTH_SYMBOL
1070
   379
1070
     1
  0
DIMSTYLE
105
4F5A2
330
A
100
AcDbSymbolTableRecord
100
AcDbDimStyleTableRecord
  2
AM_ANSI$SF
 70
     0
  4
mm
 41
0.1
 42
0.05
 43
0.5
 44
0.1
 47
0.1
 48
0.1
 75
     1
 76
     1
 78
     7
 79
     2
140
0.12
141
0.0
146
0.71
147
0.06
176
   256
177
   256
178
     2
274
     4
284
     7
340
11
371
    -1
372
    -1
1001
ACAD_DSTYLE_DIMARC_LENGTH_SYMBOL
1070
   379
1070
     1
  0
DIMSTYLE
105
4F5A3
330
A
100
AcDbSymbolTableRecord
100
AcDbDimStyleTableRecord
  2
AM_ANSI$SH
 70
     0
  4
mm
 41
0.1
 42
0.05
 43
0.5
 44
0.1
 47
0.1
 48
0.1
 75
     1
 76
     1
 78
     7
 79
     2
140
0.12
141
0.0
146
0.71
147
0.06
173
     1
176
   256
177
   256
178
     2
274
     4
284
     7
340
11
343
72
371
    -1
372
    -1
1001
ACAD_DSTYLE_DIMARC_LENGTH_SYMBOL
1070
   379
1070
     1
  0
DIMSTYLE
105
5755E
330
A
100
AcDbSymbolTableRecord
100
AcDbDimStyleTableRecord
  2
DIMSTYLE
 70
     0
 41
1.0
 42
2.54
 44
2.54
 73
     0
 74
     0
140
3.2
147
1.6
173
     1
279
     2
340
11
  0
ENDTAB
  0
TABLE
  2
BLOCK_RECORD
  5
1
330
0
100
AcDbSymbolTable
 70
    25
  0
BLOCK_RECORD
  5
1F
102
{ACAD_XDICTIONARY
360
8A
102
}
330
1
100
AcDbSymbolTableRecord
100
AcDbBlockTableRecord
  2
*Model_Space
340
22
  0
BLOCK_RECORD
  5
1B
330
1
100
AcDbSymbolTableRecord
100
AcDbBlockTableRecord
  2
*Paper_Space
340
1E
  0
BLOCK_RECORD
  5
23
330
1
100
AcDbSymbolTableRecord
100
AcDbBlockTableRecord
  2
*Paper_Space0
340
26
  0
BLOCK_RECORD
  5
72
330
1
100
AcDbSymbolTableRecord
100
AcDbBlockTableRecord
  2
GENAXEH
340
0
  0
BLOCK_RECORD
  5
6C4
330
1
100
AcDbSymbolTableRecord
100
AcDbBlockTableRecord
  2
_Dot
340
0
102
{BLKREFS
331
5B762
331
5B763
331
5B76B
331
5B76C
331
5B77D
331
5B77E
331
5B78F
331
5B790
331
5B79A
331
5B79B
331
5B7A5
331
5B7A6
331
5B7AE
331
5B7AF
331
5C507
331
5C508
331
5C510
331
5C511
331
5C519
331
5C51A
331
5C522
331
5C523
331
5C534
331
5C535
331
5C53F
331
5C540
331
5C54A
331
5C54B
102
}
  0
BLOCK_RECORD
  5
A66
330
1
100
AcDbSymbolTableRecord
100
AcDbBlockTableRecord
  2
_OPEN30
340
0
102
{BLKREFS
331
5C2B8
331
5C2B9
102
}
  0
BLOCK_RECORD
  5
51A6E
330
1
100
AcDbSymbolTableRecord
100
AcDbBlockTableRecord
  2
SYS図枠A3
340
0
102
{BLKREFS
331
51A80
102
}
  0
BLOCK_RECORD
  5
51A7E
330
1
100
AcDbSymbolTableRecord
100
AcDbBlockTableRecord
  2
SYS 図枠A3
340
0
  0
BLOCK_RECORD
  5
51A86
102
{ACAD_XDICTIONARY
360
51A87
102
}
330
1
100
AcDbSymbolTableRecord
100
AcDbBlockTableRecord
  2
SYS 表題-A1A2A3
340
0
310
2800000020000000200000000100080000000000000400000000000000000000000000000000000000000000000080000080000000808000800000008000800080800000C0C0C000C0DCC000F0CAA6000020400000206000002080000020A0000020C0000020E00000400000004020000040400000406000004080000040A0
310
000040C0000040E00000600000006020000060400000606000006080000060A0000060C0000060E00000800000008020000080400000806000008080000080A0000080C0000080E00000A0000000A0200000A0400000A0600000A0800000A0A00000A0C00000A0E00000C0000000C0200000C0400000C0600000C0800000C0
310
A00000C0C00000C0E00000E0000000E0200000E0400000E0600000E0800000E0A00000E0C00000E0E00040000000400020004000400040006000400080004000A0004000C0004000E00040200000402020004020400040206000402080004020A0004020C0004020E000404000004040200040404000404060004040800040
310
40A0004040C0004040E00040600000406020004060400040606000406080004060A0004060C0004060E00040800000408020004080400040806000408080004080A0004080C0004080E00040A0000040A0200040A0400040A0600040A0800040A0A00040A0C00040A0E00040C0000040C0200040C0400040C0600040C08000
310
40C0A00040C0C00040C0E00040E0000040E0200040E0400040E0600040E0800040E0A00040E0C00040E0E00080000000800020008000400080006000800080008000A0008000C0008000E00080200000802020008020400080206000802080008020A0008020C0008020E00080400000804020008040400080406000804080
310
008040A0008040C0008040E00080600000806020008060400080606000806080008060A0008060C0008060E00080800000808020008080400080806000808080008080A0008080C0008080E00080A0000080A0200080A0400080A0600080A0800080A0A00080A0C00080A0E00080C0000080C0200080C0400080C0600080C0
310
800080C0A00080C0C00080C0E00080E0000080E0200080E0400080E0600080E0800080E0A00080E0C00080E0E000C0000000C0002000C0004000C0006000C0008000C000A000C000C000C000E000C0200000C0202000C0204000C0206000C0208000C020A000C020C000C020E000C0400000C0402000C0404000C0406000C0
310
408000C040A000C040C000C040E000C0600000C0602000C0604000C0606000C0608000C060A000C060C000C060E000C0800000C0802000C0804000C0806000C0808000C080A000C080C000C080E000C0A00000C0A02000C0A04000C0A06000C0A08000C0A0A000C0A0C000C0A0E000C0C00000C0C02000C0C04000C0C06000
310
C0C08000C0C0A000F0FBFF00A4A0A000808080000000FF0000FF000000FFFF00FF000000FF00FF00FFFF0000FFFFFF0000000000000000000000000000000000000000000000000000000000000000000000000000000000000000000000000000000000000000000000000000000000000000000000000000000000000000
310
00000000000000000000000000000000000000000000000000000000000000000000000000000000000000000000000000000000000000000000000000000000000000000000000000000000000000000000000000000000000000000000000000000000000000000000000000000000000000000000000000000000000000
310
00000000000000000000000000000000000000000000000000000000000000000000000000000000000000000000000000000000000000000000000000000000000000000000000000000000000000000000000000000000000000000000000000000000000000000000000000000000000000000000000000000000000000
310
00000000000000000000000000000000000000000000000000000000000000000000000000000000000000000000000000000000000000000000000000000000000000000000000000000000000000000000000000000000000000000000000000000000000000000000000000000000000000000000000000000000000000
310
000000000000000000000000000000000000000000F9FBFBFBFBFBFBFBFBFBFBFBFBFBFBF9F9F9FBFBFBFBFBF9F9F9F9F9F9F90000F9FBFBFBFBFBFBFBFBFBFBFBFBFBFBF9F9F9FBFBF9F9FB00FBFBFBFBFBFB0000000000000000000000000000000000000000000000000000000000000000000000000000000000000000
310
00000000000000000000000000000000000000000000000000000000000000000000000000000000000000000000000000000000000000000000000000000000000000000000000000000000000000000000000000000000000000000000000000000000000000000000000000000000000000000000000000000000000000
310
00000000000000000000000000000000000000000000000000000000000000000000000000000000000000000000000000000000000000000000000000000000000000000000000000000000000000000000000000000000000000000000000000000000000000000000000000000000000000000000000000000000000000
310
00000000000000000000000000000000000000000000000000000000000000000000000000000000000000000000000000000000000000000000000000000000000000000000000000000000000000000000000000000000000000000000000000000000000000000000000000000000000000000000000000000000000000
310
0000000000000000000000000000000000000000000000000000000000000000000000000000000000000000000000000000000000000000
  0
BLOCK_RECORD
  5
5B3A3
330
1
100
AcDbSymbolTableRecord
100
AcDbBlockTableRecord
  2
*D8
340
0
  0
BLOCK_RECORD
  5
5B3AF
330
1
100
AcDbSymbolTableRecord
100
AcDbBlockTableRecord
  2
*D9
340
0
  0
BLOCK_RECORD
  5
5B3BB
330
1
100
AcDbSymbolTableRecord
100
AcDbBlockTableRecord
  2
*D10
340
0
  0
BLOCK_RECORD
  5
5B3C7
330
1
100
AcDbSymbolTableRecord
100
AcDbBlockTableRecord
  2
*D11
340
0
  0
BLOCK_RECORD
  5
5B3F7
330
1
100
AcDbSymbolTableRecord
100
AcDbBlockTableRecord
  2
*D12
340
0
  0
BLOCK_RECORD
  5
5B495
330
1
100
AcDbSymbolTableRecord
100
AcDbBlockTableRecord
  2
*D13
340
0
  0
BLOCK_RECORD
  5
5B4A1
330
1
100
AcDbSymbolTableRecord
100
AcDbBlockTableRecord
  2
*D14
340
0
  0
BLOCK_RECORD
  5
5B4F5
330
1
100
AcDbSymbolTableRecord
100
AcDbBlockTableRecord
  2
*D15
340
0
  0
BLOCK_RECORD
  5
5B8AB
330
1
100
AcDbSymbolTableRecord
100
AcDbBlockTableRecord
  2
*D16
340
0
  0
BLOCK_RECORD
  5
5B8B7
330
1
100
AcDbSymbolTableRecord
100
AcDbBlockTableRecord
  2
*D17
340
0
  0
BLOCK_RECORD
  5
5B8C3
330
1
100
AcDbSymbolTableRecord
100
AcDbBlockTableRecord
  2
*D18
340
0
  0
BLOCK_RECORD
  5
5B8CF
330
1
100
AcDbSymbolTableRecord
100
AcDbBlockTableRecord
  2
*D19
340
0
  0
BLOCK_RECORD
  5
5B8DB
330
1
100
AcDbSymbolTableRecord
100
AcDbBlockTableRecord
  2
*D20
340
0
  0
BLOCK_RECORD
  5
5B8E7
330
1
100
AcDbSymbolTableRecord
100
AcDbBlockTableRecord
  2
*D21
340
0
  0
BLOCK_RECORD
  5
5B8F5
330
1
100
AcDbSymbolTableRecord
100
AcDbBlockTableRecord
  2
*D22
340
0
  0
BLOCK_RECORD
  5
5B927
330
1
100
AcDbSymbolTableRecord
100
AcDbBlockTableRecord
  2
*D23
340
0
  0
BLOCK_RECORD
  5
5C613
330
1
100
AcDbSymbolTableRecord
100
AcDbBlockTableRecord
  2
GENDOT
340
0
102
{BLKREFS
331
5C632
331
5C633
102
}
  0
ENDTAB
  0
ENDSEC
  0
SECTION
  2
BLOCKS
  0
BLOCK
  5
20
330
1F
100
AcDbEntity
  8
0
100
AcDbBlockBegin
  2
*Model_Space
 70
     0
 10
0.0
 20
0.0
 30
0.0
  3
*Model_Space
  1

  0
ENDBLK
  5
21
330
1F
100
AcDbEntity
  8
0
100
AcDbBlockEnd
  0
BLOCK
  5
1C
330
1B
100
AcDbEntity
 67
     1
  8
0
100
AcDbBlockBegin
  2
*Paper_Space
 70
     0
 10
0.0
 20
0.0
 30
0.0
  3
*Paper_Space
  1

  0
ENDBLK
  5
1D
330
1B
100
AcDbEntity
 67
     1
  8
0
100
AcDbBlockEnd
  0
BLOCK
  5
24
330
23
100
AcDbEntity
 67
     1
  8
0
100
AcDbBlockBegin
  2
*Paper_Space0
 70
     0
 10
0.0
 20
0.0
 30
0.0
  3
*Paper_Space0
  1

  0
ENDBLK
  5
25
330
23
100
AcDbEntity
 67
     1
  8
0
100
AcDbBlockEnd
  0
BLOCK
  5
74
330
72
100
AcDbEntity
  8
0
100
AcDbBlockBegin
  2
GENAXEH
 70
     0
 10
0.0
 20
0.0
 30
0.0
  3
GENAXEH
  1

  0
LINE
  5
73
330
72
100
AcDbEntity
  8
0
100
AcDbLine
 10
-1.0
 20
0.0
 30
0.0
 11
1.0
 21
0.0
 31
0.0
  0
ENDBLK
  5
75
330
72
100
AcDbEntity
  8
0
100
AcDbBlockEnd
  0
BLOCK
  5
6C7
330
6C4
100
AcDbEntity
  8
0
100
AcDbBlockBegin
  2
_Dot
 70
     0
 10
0.0
 20
0.0
 30
0.0
  3
_Dot
  1

  0
LWPOLYLINE
  5
6C5
330
6C4
100
AcDbEntity
  8
0
  6
ByBlock
 62
     0
100
AcDbPolyline
 90
        2
 70
     1
 43
0.5
 10
-0.25
 20
0.0
 42
1.0
 10
0.25
 20
0.0
 42
1.0
  0
LINE
  5
6C6
330
6C4
100
AcDbEntity
  8
0
  6
ByBlock
 62
     0
370
    -2
100
AcDbLine
 10
-0.5
 20
0.0
 30
0.0
 11
-1.0
 21
0.0
 31
0.0
  0
ENDBLK
  5
6C8
330
6C4
100
AcDbEntity
  8
0
100
AcDbBlockEnd
  0
BLOCK
  5
A6A
330
A66
100
AcDbEntity
  8
0
100
AcDbBlockBegin
  2
_OPEN30
 70
     0
 10
0.0
 20
0.0
 30
0.0
  3
_OPEN30
  1

  0
LINE
  5
A67
330
A66
100
AcDbEntity
  8
0
  6
ByBlock
 62
     0
100
AcDbLine
 10
-1.0
 20
0.26794919
 30
0.0
 11
0.0
 21
0.0
 31
0.0
  0
LINE
  5
A68
330
A66
100
AcDbEntity
  8
0
  6
ByBlock
 62
     0
100
AcDbLine
 10
0.0
 20
0.0
 30
0.0
 11
-1.0
 21
-0.26794919
 31
0.0
  0
LINE
  5
A69
330
A66
100
AcDbEntity
  8
0
  6
ByBlock
 62
     0
100
AcDbLine
 10
0.0
 20
0.0
 30
0.0
 11
-1.0
 21
0.0
 31
0.0
  0
ENDBLK
  5
A6B
330
A66
100
AcDbEntity
  8
0
100
AcDbBlockEnd
  0
BLOCK
  5
51A6F
330
51A6E
100
AcDbEntity
  8
0
100
AcDbBlockBegin
  2
SYS図枠A3
 70
     0
 10
0.0
 20
0.0
 30
0.0
  3
SYS図枠A3
  1

  0
LINE
  5
51A70
330
51A6E
100
AcDbEntity
  8
size
100
AcDbLine
 10
0.0
 20
0.0
 30
0.0
 11
420.0
 21
0.0
 31
0.0
1001
GENIUS_GENREC_14
1002
{
1000
PYDIR
1011
0.0000000000000178
1021
297.0
1031
0.0
1002
}
1002
{
1000
PXDIR
1011
420.0
1021
0.0
1031
0.0
1002
}
1002
{
1000
PORI
1011
0.0
1021
0.0
1031
0.0
1002
}
1002
{
1000
PINS
1011
210.0
1021
148.4999999999999
1031
0.0
1002
}
1002
{
1000
HVAL
1000
297
1002
}
1002
{
1000
H
1070
     2
1002
}
1002
{
1000
WVAL
1000
420
1002
}
1002
{
1000
W
1070
     2
1002
}
1002
{
1000
C
1070
     4
1002
}
1001
GENIUS_GENOBJ-N-REC_13
1002
{
1000
OWNER
1000
GEN
1002
}
1001
GENIUS_GENODEF_13
1002
{
1000
HIER
1070
     0
1002
}
1002
{
1000
MANEDIT
1070
     0
1002
}
1002
{
1000
NOSEL
1070
     0
1002
}
1002
{
1000
BEHIND
1070
     0
1002
}
1002
{
1000
OTHER
1070
     0
1002
}
1002
{
1000
REACTOR
1002
}
  0
LINE
  5
51A71
330
51A6E
100
AcDbEntity
  8
size
100
AcDbLine
 10
420.0
 20
0.0
 30
0.0
 11
420.0
 21
297.0
 31
0.0
1001
GENIUS_GENREC_14
1002
{
1000
PYDIR
1011
0.0000000000000178
1021
297.0
1031
0.0
1002
}
1002
{
1000
PXDIR
1011
420.0
1021
0.0
1031
0.0
1002
}
1002
{
1000
PORI
1011
0.0
1021
0.0
1031
0.0
1002
}
1002
{
1000
PINS
1011
210.0
1021
148.4999999999999
1031
0.0
1002
}
1002
{
1000
HVAL
1000
297
1002
}
1002
{
1000
H
1070
     2
1002
}
1002
{
1000
WVAL
1000
420
1002
}
1002
{
1000
W
1070
     2
1002
}
1002
{
1000
C
1070
     4
1002
}
1001
GENIUS_GENOBJ-N-REC_13
1002
{
1000
OWNER
1000
GEN
1002
}
1001
GENIUS_GENODEF_13
1002
{
1000
HIER
1070
     0
1002
}
1002
{
1000
MANEDIT
1070
     0
1002
}
1002
{
1000
NOSEL
1070
     0
1002
}
1002
{
1000
BEHIND
1070
     0
1002
}
1002
{
1000
OTHER
1070
     0
1002
}
1002
{
1000
REACTOR
1002
}
  0
LINE
  5
51A72
330
51A6E
100
AcDbEntity
  8
size
100
AcDbLine
 10
420.0
 20
297.0
 30
0.0
 11
0.0000000000000275
 21
297.0
 31
0.0
1001
GENIUS_GENREC_14
1002
{
1000
PYDIR
1011
0.0000000000000178
1021
297.0
1031
0.0
1002
}
1002
{
1000
PXDIR
1011
420.0
1021
0.0
1031
0.0
1002
}
1002
{
1000
PORI
1011
0.0
1021
0.0
1031
0.0
1002
}
1002
{
1000
PINS
1011
210.0
1021
148.4999999999999
1031
0.0
1002
}
1002
{
1000
HVAL
1000
297
1002
}
1002
{
1000
H
1070
     2
1002
}
1002
{
1000
WVAL
1000
420
1002
}
1002
{
1000
W
1070
     2
1002
}
1002
{
1000
C
1070
     4
1002
}
1001
GENIUS_GENOBJ-N-REC_13
1002
{
1000
OWNER
1000
GEN
1002
}
1001
GENIUS_GENODEF_13
1002
{
1000
HIER
1070
     0
1002
}
1002
{
1000
MANEDIT
1070
     0
1002
}
1002
{
1000
NOSEL
1070
     0
1002
}
1002
{
1000
BEHIND
1070
     0
1002
}
1002
{
1000
OTHER
1070
     0
1002
}
1002
{
1000
REACTOR
1002
}
  0
LINE
  5
51A73
330
51A6E
100
AcDbEntity
  8
size
100
AcDbLine
 10
0.0000000000000275
 20
297.0
 30
0.0
 11
0.0
 21
0.0
 31
0.0
1001
GENIUS_GENREC_14
1002
{
1000
PYDIR
1011
0.0000000000000178
1021
297.0
1031
0.0
1002
}
1002
{
1000
PXDIR
1011
420.0
1021
0.0
1031
0.0
1002
}
1002
{
1000
PORI
1011
0.0
1021
0.0
1031
0.0
1002
}
1002
{
1000
PINS
1011
210.0
1021
148.4999999999999
1031
0.0
1002
}
1002
{
1000
HVAL
1000
297
1002
}
1002
{
1000
H
1070
     2
1002
}
1002
{
1000
WVAL
1000
420
1002
}
1002
{
1000
W
1070
     2
1002
}
1002
{
1000
C
1070
     4
1002
}
1001
GENIUS_GENOBJ-N-REC_13
1002
{
1000
OWNER
1000
GEN
1002
}
1001
GENIUS_GENODEF_13
1002
{
1000
HIER
1070
     0
1002
}
1002
{
1000
MANEDIT
1070
     0
1002
}
1002
{
1000
NOSEL
1070
     0
1002
}
1002
{
1000
BEHIND
1070
     0
1002
}
1002
{
1000
OTHER
1070
     0
1002
}
1002
{
1000
REACTOR
1002
}
  0
LINE
  5
51A74
330
51A6E
100
AcDbEntity
  8
waku
100
AcDbLine
 10
408.4999999999999
 20
8.5
 30
0.0
 11
408.4999999999999
 21
288.5
 31
0.0
1001
GENIUS_GENREC_14
1002
{
1000
PYDIR
1011
0.0000000000000178
1021
297.0
1031
0.0
1002
}
1002
{
1000
PXDIR
1011
420.0
1021
0.0
1031
0.0
1002
}
1002
{
1000
PORI
1011
0.0
1021
0.0
1031
0.0
1002
}
1002
{
1000
PINS
1011
210.0
1021
148.4999999999999
1031
0.0
1002
}
1002
{
1000
HVAL
1000
297
1002
}
1002
{
1000
H
1070
     2
1002
}
1002
{
1000
WVAL
1000
420
1002
}
1002
{
1000
W
1070
     2
1002
}
1002
{
1000
C
1070
     4
1002
}
1001
GENIUS_GENOBJ-N-REC_13
1002
{
1000
OWNER
1000
GEN
1002
}
1001
GENIUS_GENODEF_13
1002
{
1000
HIER
1070
     0
1002
}
1002
{
1000
MANEDIT
1070
     0
1002
}
1002
{
1000
NOSEL
1070
     0
1002
}
1002
{
1000
BEHIND
1070
     0
1002
}
1002
{
1000
OTHER
1070
     0
1002
}
1002
{
1000
REACTOR
1002
}
  0
LINE
  5
51A75
330
51A6E
100
AcDbEntity
  8
waku
100
AcDbLine
 10
11.50000000000002
 20
288.5
 30
0.0
 11
11.5
 21
8.5
 31
0.0
1001
GENIUS_GENREC_14
1002
{
1000
PYDIR
1011
0.0000000000000178
1021
297.0
1031
0.0
1002
}
1002
{
1000
PXDIR
1011
420.0
1021
0.0
1031
0.0
1002
}
1002
{
1000
PORI
1011
0.0
1021
0.0
1031
0.0
1002
}
1002
{
1000
PINS
1011
210.0
1021
148.4999999999999
1031
0.0
1002
}
1002
{
1000
HVAL
1000
297
1002
}
1002
{
1000
H
1070
     2
1002
}
1002
{
1000
WVAL
1000
420
1002
}
1002
{
1000
W
1070
     2
1002
}
1002
{
1000
C
1070
     4
1002
}
1001
GENIUS_GENOBJ-N-REC_13
1002
{
1000
OWNER
1000
GEN
1002
}
1001
GENIUS_GENODEF_13
1002
{
1000
HIER
1070
     0
1002
}
1002
{
1000
MANEDIT
1070
     0
1002
}
1002
{
1000
NOSEL
1070
     0
1002
}
1002
{
1000
BEHIND
1070
     0
1002
}
1002
{
1000
OTHER
1070
     0
1002
}
1002
{
1000
REACTOR
1002
}
  0
LINE
  5
51A76
330
51A6E
100
AcDbEntity
  8
waku
100
AcDbLine
 10
408.4999999999999
 20
288.5
 30
0.0
 11
11.50000000000002
 21
288.5
 31
0.0
1001
GENIUS_GENREC_14
1002
{
1000
PYDIR
1011
0.0000000000000178
1021
297.0
1031
0.0
1002
}
1002
{
1000
PXDIR
1011
420.0
1021
0.0
1031
0.0
1002
}
1002
{
1000
PORI
1011
0.0
1021
0.0
1031
0.0
1002
}
1002
{
1000
PINS
1011
210.0
1021
148.4999999999999
1031
0.0
1002
}
1002
{
1000
HVAL
1000
297
1002
}
1002
{
1000
H
1070
     2
1002
}
1002
{
1000
WVAL
1000
420
1002
}
1002
{
1000
W
1070
     2
1002
}
1002
{
1000
C
1070
     4
1002
}
1001
GENIUS_GENOBJ-N-REC_13
1002
{
1000
OWNER
1000
GEN
1002
}
1001
GENIUS_GENODEF_13
1002
{
1000
HIER
1070
     0
1002
}
1002
{
1000
MANEDIT
1070
     0
1002
}
1002
{
1000
NOSEL
1070
     0
1002
}
1002
{
1000
BEHIND
1070
     0
1002
}
1002
{
1000
OTHER
1070
     0
1002
}
1002
{
1000
REACTOR
1002
}
  0
TEXT
  5
51A77
330
51A6E
100
AcDbEntity
  8
AM_6
 60
     1
100
AcDbText
 10
0.0
 20
0.0
 30
0.0
 40
2.5
  1
!GENTITLE-LL
100
AcDbText
  0
TEXT
  5
51A78
330
51A6E
100
AcDbEntity
  8
AM_6
 60
     1
100
AcDbText
 10
408.4999999999999
 20
288.5
 30
0.0
 40
2.5
  1
!GENTITLE-RU
100
AcDbText
  0
TEXT
  5
51A79
330
51A6E
100
AcDbEntity
  8
AM_6
 60
     1
100
AcDbText
 10
420.0
 20
297.0
 30
0.0
 40
2.5
  1
!GENTITLE-MAX
100
AcDbText
  0
TEXT
  5
51A7A
330
51A6E
100
AcDbEntity
  8
AM_6
 60
     1
100
AcDbText
 10
408.4999999999999
 20
8.5
 30
0.0
 40
2.5
  1
!GENTITLE-INSERT
100
AcDbText
  0
LINE
  5
51A7B
330
51A6E
100
AcDbEntity
  8
waku
100
AcDbLine
 10
11.5
 20
8.5
 30
0.0
 11
408.4999999999999
 21
8.5
 31
0.0
  0
LINE
  5
51A7C
330
51A6E
100
AcDbEntity
  8
waku
100
AcDbLine
 10
11.5
 20
28.5
 30
0.0
 11
408.4999999999999
 21
28.5
 31
0.0
  0
ENDBLK
  5
51A7D
330
51A6E
100
AcDbEntity
  8
0
100
AcDbBlockEnd
  0
BLOCK
  5
51A7F
330
51A7E
100
AcDbEntity
  8
0
100
AcDbBlockBegin
  2
SYS 図枠A3
 70
     0
 10
0.0
 20
0.0
 30
0.0
  3
SYS 図枠A3
  1

  0
INSERT
  5
51A80
330
51A7E
100
AcDbEntity
  8
AM_0
 48
1.01
370
     0
100
AcDbBlockReference
  2
SYS図枠A3
 10
0.0
 20
0.0
 30
0.0
1001
GENIUS_GENOREF_13
1005
0
1001
GENIUS_GENOBJ-N-SDF_13
1002
{
1000
OWNER
1000
GEN
1002
}
1001
GENIUS_GENODEF_13
1002
{
1000
HIER
1070
     0
1002
}
1002
{
1000
MANEDIT
1070
     0
1002
}
1002
{
1000
NOSEL
1070
     0
1002
}
1002
{
1000
BEHIND
1070
     0
1002
}
1002
{
1000
OTHER
1070
     0
1002
}
1002
{
1000
REACTOR
1002
}
1001
GENIUS_GENSCREG_15
1040
1.0
1040
1.0
1011
0.0
1021
0.0
1031
0.0
1011
420.0
1021
297.0
1031
0.0
1070
     3
  0
TEXT
  5
51A81
330
51A7E
100
AcDbEntity
  8
AM_6
 60
     1
100
AcDbText
 10
420.0
 20
297.0
 30
0.0
 40
2.5
  1
!GENTITLE-MAX
100
AcDbText
  0
TEXT
  5
51A82
330
51A7E
100
AcDbEntity
  8
AM_6
 60
     1
100
AcDbText
 10
420.0
 20
297.0
 30
0.0
 40
2.5
  1
!GENTITLE-RU
100
AcDbText
  0
TEXT
  5
51A83
330
51A7E
100
AcDbEntity
  8
AM_6
 60
     1
100
AcDbText
 10
0.0
 20
0.0
 30
0.0
 40
2.5
  1
!GENTITLE-LL
100
AcDbText
  0
TEXT
  5
51A84
330
51A7E
100
AcDbEntity
  8
AM_6
 60
     1
100
AcDbText
 10
408.4999999999999
 20
8.5
 30
0.0
 40
2.5
  1
!GENTITLE-INSERT
100
AcDbText
  0
ENDBLK
  5
51A85
330
51A7E
100
AcDbEntity
  8
0
100
AcDbBlockEnd
  0
BLOCK
  5
51A88
330
51A86
100
AcDbEntity
  8
0
100
AcDbBlockBegin
  2
SYS 表題-A1A2A3
 70
     2
 10
0.0
 20
0.0
 30
0.0
  3
SYS 表題-A1A2A3
  1

  0
LINE
  5
51A89
330
51A86
100
AcDbEntity
  8
hyosen2
  6
Continuous
100
AcDbLine
 10
-259.0
 20
15.0
 30
0.0
 11
-199.0
 21
15.0
 31
0.0
  0
LINE
  5
51A8A
330
51A86
100
AcDbEntity
  8
hyosen2
  6
Continuous
100
AcDbLine
 10
-397.0
 20
15.00000000000001
 30
0.0
 11
-289.0
 21
15.0
 31
0.0
  0
LINE
  5
51A8B
330
51A86
100
AcDbEntity
  8
hyosen2
  6
Continuous
100
AcDbLine
 10
-335.0
 20
10.0
 30
0.0
 11
-289.0
 21
10.0
 31
0.0
  0
LINE
  5
51A8C
330
51A86
100
AcDbEntity
  8
hyosen2
  6
Continuous
100
AcDbLine
 10
-397.0
 20
5.000000000000014
 30
0.0
 11
-289.0
 21
5.0
 31
0.0
  0
TEXT
  5
51A8D
330
51A86
100
AcDbEntity
  8
hyomoji
  6
Continuous
100
AcDbText
 10
-392.0894449376757
 20
16.00000000000007
 30
0.0
 40
3.0
  1
製図日
 41
0.7
100
AcDbText
  0
TEXT
  5
51A8E
330
51A86
100
AcDbEntity
  8
hyomoji
  6
Continuous
100
AcDbText
 10
-390.5894449376765
 20
7.083327734958166
 30
0.0
 40
3.0
  1
訂正
 41
0.7
100
AcDbText
  0
TEXT
  5
51A8F
330
51A86
100
AcDbEntity
  8
hyomoji
  6
Continuous
100
AcDbText
 10
-262.9538651297137
 20
6.062499999999914
 30
0.0
 40
3.5
  1
角
 41
0.7
100
AcDbText
  0
TEXT
  5
51A90
330
51A86
100
AcDbEntity
  8
hyomoji
  6
Continuous
100
AcDbText
 10
-268.2351151297065
 20
7.750000000000014
 30
0.0
 40
4.5
  1
図
 41
0.7
100
AcDbText
  0
LINE
  5
51A91
330
51A86
100
AcDbEntity
  8
hyosen2
  6
Continuous
100
AcDbLine
 10
-244.0
 20
20.0
 30
0.0
 11
-244.0
 21
0.0
 31
0.0
  0
LINE
  5
51A92
330
51A86
100
AcDbEntity
  8
hyosen1
  6
Continuous
370
    40
100
AcDbLine
 10
-259.0
 20
20.0
 30
0.0
 11
-259.0
 21
0.0
 31
0.0
  0
LINE
  5
51A93
330
51A86
100
AcDbEntity
  8
hyosen2
  6
Continuous
100
AcDbLine
 10
-264.0
 20
20.0
 30
0.0
 11
-264.0
 21
0.0
 31
0.0
  0
LINE
  5
51A94
330
51A86
100
AcDbEntity
  8
hyosen1
  6
Continuous
370
    40
100
AcDbLine
 10
-269.0
 20
20.0
 30
0.0
 11
-269.0
 21
0.0
 31
0.0
  0
LINE
  5
51A95
330
51A86
100
AcDbEntity
  8
hyosen2
  6
Continuous
100
AcDbLine
 10
-284.0
 20
20.0
 30
0.0
 11
-284.0
 21
0.0
 31
0.0
  0
LINE
  5
51A96
330
51A86
100
AcDbEntity
  8
hyosen1
  6
Continuous
370
    40
100
AcDbLine
 10
-289.0
 20
20.0
 30
0.0
 11
-289.0
 21
0.0
 31
0.0
  0
LINE
  5
51A97
330
51A86
100
AcDbEntity
  8
hyosen2
  6
Continuous
100
AcDbLine
 10
-313.0
 20
20.00000000000001
 30
0.0
 11
-313.0
 21
0.0000000000000089
 31
0.0
  0
LINE
  5
51A98
330
51A86
100
AcDbEntity
  8
hyosen2
  6
Continuous
370
    30
100
AcDbLine
 10
-335.0
 20
20.00000000000001
 30
0.0
 11
-335.0
 21
0.0000000000000124
 31
0.0
  0
TEXT
  5
51A99
330
51A86
100
AcDbEntity
  8
hyomoji
  6
Continuous
100
AcDbText
 10
-395.135658070493
 20
1.125685234927118
 30
0.0
 40
3.0
  1
ファイル名
 41
0.7
100
AcDbText
  0
TEXT
  5
51A9A
330
51A86
100
AcDbEntity
  8
hyomoji
  6
Continuous
100
AcDbText
 10
-288.0104583041763
 20
2.125
 30
0.0
 40
4.5
  1
度
 41
0.7
100
AcDbText
  0
TEXT
  5
51A9B
330
51A86
100
AcDbEntity
  8
hyomoji
  6
Continuous
100
AcDbText
 10
-262.9538651297064
 20
1.687499999999985
 30
0.0
 40
3.5
  1
法
 41
0.7
100
AcDbText
  0
TEXT
  5
51A9C
330
51A86
100
AcDbEntity
  8
hyomoji
  6
Continuous
100
AcDbText
 10
-268.2351151297099
 20
2.125
 30
0.0
 40
4.5
  1
法
 41
0.7
100
AcDbText
  0
TEXT
  5
51A9D
330
51A86
100
AcDbEntity
  8
hyomoji
  6
Continuous
100
AcDbText
 10
-332.5587394575698
 20
16.25310284974962
 30
0.0
 40
3.0
  1
得意先コ－ド
 41
0.7
100
AcDbText
  0
TEXT
  5
51A9E
330
51A86
100
AcDbEntity
  8
hyomoji
  6
Continuous
100
AcDbText
 10
-331.0587394575692
 20
11.25309884974954
 30
0.0
 40
3.0
  1
製造コ－ド
 41
0.7
100
AcDbText
  0
TEXT
  5
51A9F
330
51A86
100
AcDbEntity
  8
hyomoji
  6
Continuous
100
AcDbText
 10
-288.0104583041817
 20
13.37499999999974
 30
0.0
 40
4.5
  1
尺
 41
0.7
100
AcDbText
  0
TEXT
  5
51AA0
330
51A86
100
AcDbEntity
  8
hyomoji
  6
Continuous
100
AcDbText
 10
-262.9538651297101
 20
14.81250000000011
 30
0.0
 40
3.5
  1
第
 41
0.7
100
AcDbText
  0
TEXT
  5
51AA1
330
51A86
100
AcDbEntity
  8
hyomoji
  6
Continuous
100
AcDbText
 10
-268.2351151297068
 20
13.37499999999997
 30
0.0
 40
4.5
  1
製
 41
0.7
100
AcDbText
  0
TEXT
  5
51AA2
330
51A86
100
AcDbEntity
  8
hyomoji
  6
Continuous
100
AcDbText
 10
-262.9538651297137
 20
10.43749999999978
 30
0.0
 40
3.5
  1
三
 41
0.7
100
AcDbText
  0
TEXT
  5
51AA3
330
51A86
100
AcDbEntity
  8
hyomoji
  6
Continuous
100
AcDbText
 10
-253.9999999999982
 20
15.90000000000003
 30
0.0
 40
3.2
  1
承認
 41
0.7
100
AcDbText
  0
TEXT
  5
51AA4
330
51A86
100
AcDbEntity
  8
hyomoji
  6
Continuous
100
AcDbText
 10
-117.20313
 20
0.625
 30
0.0
 40
2.0
  1
数
 41
0.7
100
AcDbText
  0
TEXT
  5
51AA5
330
51A86
100
AcDbEntity
  8
hyomoji
  6
Continuous
100
AcDbText
 10
-117.2031300000001
 20
3.250000000000028
 30
0.0
 40
2.0
  1
枚
 41
0.7
100
AcDbText
  0
TEXT
  5
51AA6
330
51A86
100
AcDbEntity
  8
hyomoji
  6
Continuous
100
AcDbText
 10
-117.2031300000003
 20
5.874999999999943
 30
0.0
 40
2.0
  1
総
 41
0.7
100
AcDbText
  0
LINE
  5
51AA7
330
51A86
100
AcDbEntity
  8
hyosen2
  6
Continuous
100
AcDbLine
 10
-194.0
 20
20.0
 30
0.0
 11
-194.0
 21
0.0
 31
0.0
  0
LINE
  5
51AA8
330
51A86
100
AcDbEntity
  8
hyosen1
  6
Continuous
370
    40
100
AcDbLine
 10
-199.0
 20
20.0
 30
0.0
 11
-199.0
 21
0.0
 31
0.0
  0
LINE
  5
51AA9
330
51A86
100
AcDbEntity
  8
hyosen2
  6
Continuous
100
AcDbLine
 10
-214.0
 20
20.0
 30
0.0
 11
-214.0
 21
0.0
 31
0.0
  0
LINE
  5
51AAA
330
51A86
100
AcDbEntity
  8
hyosen1
  6
Continuous
100
AcDbLine
 10
-119.0
 20
9.0
 30
0.0
 11
-119.0
 21
0.0
 31
0.0
  0
TEXT
  5
51AAB
330
51A86
100
AcDbEntity
  8
hyomoji
  6
Continuous
100
AcDbText
 10
-197.14687
 20
0.9750000800000009
 30
0.0
 40
2.299999999999999
  1
番
 41
0.7
100
AcDbText
  0
TEXT
  5
51AAC
330
51A86
100
AcDbEntity
  8
hyomoji
  6
Continuous
100
AcDbText
 10
-197.1468699999975
 20
5.725000099999789
 30
0.0
 40
2.299999999999999
  1
図
 41
0.7
100
AcDbText
  0
TEXT
  5
51AAD
330
51A86
100
AcDbEntity
  8
hyomoji
  6
Continuous
100
AcDbText
 10
-231.5000000000009
 20
15.90000000000015
 30
0.0
 40
3.2
  1
確認
 41
0.7
100
AcDbText
  0
TEXT
  5
51AAE
330
51A86
100
AcDbEntity
  8
hyomoji
  6
Continuous
100
AcDbText
 10
-197.1468699999975
 20
10.97499999999974
 30
0.0
 40
2.299999999999999
  1
名
 41
0.7
100
AcDbText
  0
TEXT
  5
51AAF
330
51A86
100
AcDbEntity
  8
hyomoji
  6
Continuous
100
AcDbText
 10
-197.1468699999975
 20
16.72499999999971
 30
0.0
 40
2.299999999999999
  1
品
 41
0.7
100
AcDbText
  0
TEXT
  5
51AB0
330
51A86
100
AcDbEntity
  8
hyomoji
  6
Continuous
100
AcDbText
 10
-209.0000000000003
 20
15.9
 30
0.0
 40
3.2
  1
作成
 41
0.7
100
AcDbText
  0
LINE
  5
51AB1
330
51A86
100
AcDbEntity
  8
hyosen1
  6
Continuous
370
    40
100
AcDbLine
 10
-99.0
 20
20.0
 30
0.0
 11
-99.0
 21
0.0
 31
0.0
  0
LINE
  5
51AB2
330
51A86
100
AcDbEntity
  8
hyosen2
  6
Continuous
100
AcDbLine
 10
-114.0
 20
9.0
 30
0.0
 11
-114.0
 21
0.0
 31
0.0
  0
LINE
  5
51AB3
330
51A86
100
AcDbEntity
  8
hyosen2
  6
Continuous
100
AcDbLine
 10
-91.0
 20
20.0
 30
0.0
 11
-91.0
 21
9.0
 31
0.0
  0
TEXT
  5
51AB4
330
51A86
100
AcDbEntity
  8
hyomoji
  6
Continuous
100
AcDbText
 10
-97.48311979542314
 20
11.16051326572778
 30
0.0
 40
2.799999999999999
  1
品番
 41
0.7
100
AcDbText
  0
TEXT
  5
51AB5
330
51A86
100
AcDbEntity
  8
hyomoji
  6
Continuous
100
AcDbText
 10
-98.46968299800744
 20
15.35000000000002
 30
0.0
 40
2.799999999999999
  1
S
 41
0.7
100
AcDbText
  0
LINE
  5
51AB6
330
51A86
100
AcDbEntity
  8
hyosen2
  6
Continuous
100
AcDbLine
 10
-41.5
 20
20.0
 30
0.0
 11
-41.5
 21
9.0
 31
0.0
  0
LINE
  5
51AB7
330
51A86
100
AcDbEntity
  8
hyosen1
  6
Continuous
100
AcDbLine
 10
-49.5
 20
20.0
 30
0.0
 11
-49.5
 21
9.0
 31
0.0
  0
TEXT
  5
51AB8
330
51A86
100
AcDbEntity
  8
hyomoji
  6
Continuous
100
AcDbText
 10
-47.7105193958107
 20
10.94749414098044
 30
0.0
 40
2.799999999999999
  1
品番
 41
0.7
100
AcDbText
  0
TEXT
  5
51AB9
330
51A86
100
AcDbEntity
  8
hyomoji
  6
Continuous
100
AcDbText
 10
-49.14528072662211
 20
15.34999999999999
 30
0.0
 40
2.799999999999999
  1
得
 41
0.7
100
AcDbText
  0
HATCH
  5
51ABA
330
51A86
100
AcDbEntity
  8
hyomoji
  6
Continuous
100
AcDbHatch
 10
0.0
 20
0.0
 30
0.0
210
0.0
220
0.0
230
1.0
  2
SOLID
 70
     1
 71
     0
 91
        5
 92
        7
 72
     1
 73
     1
 93
       23
 10
-83.46378652570797
 20
4.753414302732195
 42
-0.1957419841521856
 10
-83.46378407732249
 20
5.305397632785271
 42
0.0
 10
-83.038866237928
 20
6.349200156601098
 42
0.6213425724690987
 10
-83.09028248100203
 20
6.391129141298832
 42
0.0223985860001783
 10
-83.54442748100552
 20
6.150390441296607
 42
0.0223985859996376
 10
-83.94605548099907
 20
5.893357741300618
 42
0.0223985860001622
 10
-84.29194548100156
 20
5.62209244129876
 42
0.0223985859999441
 10
-84.57932448100075
 20
5.338769741299429
 42
0.022398585999998
 10
-84.80588648100081
 20
5.045661641299445
 42
0.0223985860000088
 10
-84.96981548100093
 20
4.745118641299327
 42
0.0223985860000237
 10
-85.06979748100093
 20
4.439550741299071
 42
0.0223985859999749
 10
-85.10502948100088
 20
4.131408441299369
 42
0.0223985859999784
 10
-85.07523048100091
 20
3.823162641299673
 42
0.0223985860000139
 10
-84.98063748100099
 20
3.517285341299426
 42
0.0223985860000266
 10
-84.82201148100063
 20
3.216229241299074
 42
0.0223985860000033
 10
-84.60062248100058
 20
2.92240864129907
 42
0.0223985859999659
 10
-84.31824648100109
 20
2.638179641299543
 42
0.0223985859998799
 10
-83.97714748100311
 20
2.365821541300916
 42
0.0223985860002826
 10
-83.58006248099821
 20
2.107518441297727
 42
0.0220669162097788
 10
-83.13698702184735
 20
1.868630468524954
 42
0.433014482069008
 10
-83.08661212126271
 20
1.88799096927046
 42
0.0
 10
-82.82304964928551
 20
2.535439206675603
 42
0.1957402929298114
 10
-82.82304889069228
 20
3.179414605012069
 42
0.0
 97
        0
 92
        7
 72
     1
 73
     1
 93
       46
 10
-79.15975753181129
 20
3.26399547739514
 42
-0.4787358622778849
 10
-80.08160692178178
 20
4.926098408027441
 42
0.0
 10
-79.07736483811101
 20
7.393042176692503
 42
0.5685357036716303
 10
-79.11571288575101
 20
7.443767025967289
 42
0.0037682570574796
 10
-79.23345348100378
 20
7.429809241298997
 42
0.0037967614000663
 10
-79.35156848100581
 20
7.414988941298716
 42
0.0037967613998709
 10
-79.46914148100148
 20
7.399408441299229
 42
0.0037967614000278
 10
-79.58614348100224
 20
7.383071141299168
 42
0.0037967614000033
 10
-79.70254748100234
 20
7.365980841299077
 42
0.0037967613999715
 10
-79.81832748100117
 20
7.34814164129925
 42
0.0037967614000127
 10
-79.93345648100177
 20
7.329557541299195
 42
0.0037967613999978
 10
-80.04790848100157
 20
7.310232841299224
 42
0.003796761399916
 10
-80.16165548099939
 20
7.290172041299583
 42
0.0037967614001115
 10
-80.2746724810027
 20
7.269379741299032
 42
0.0037967613998133
 10
-80.38693348099736
 20
7.247860641300021
 42
0.0037967614000965
 10
-80.49841148100034
 20
7.225619841299404
 42
0.0037967614000603
 10
-80.60908248100213
 20
7.202662441299067
 42
0.0037967613998026
 10
-80.71891948099642
 20
7.178993641300322
 42
0.0037967614001459
 10
-80.82789748100031
 20
7.154619041299453
 42
0.0038055234899045
 10
-80.93624149281788
 20
7.129484377005225
 42
0.2417074229055406
 10
-80.96187522459041
 20
7.107456547699952
 42
0.0
 10
-81.67679310057867
 20
5.351238007852642
 42
0.1957404060663654
 10
-81.67679324222644
 20
4.707262264772068
 42
0.0
 10
-81.05481874049798
 20
3.179360160222002
 42
-0.1957405476044163
 10
-81.05481905771336
 20
2.535383985854379
 42
0.0
 10
-81.55302151669195
 20
1.311535683439685
 42
0.4443455524912625
 10
-81.52914870534289
 20
1.262076041420399
 42
0.0067708198256677
 10
-81.34540348100079
 20
1.210969441299268
 42
0.0067740667999754
 10
-81.15837748100165
 20
1.161971541299535
 42
0.0067740667999861
 10
-80.96829548100226
 20
1.115144241299659
 42
0.0067740668001172
 10
-80.77529648099886
 20
1.070521841298883
 42
0.0067740667999221
 10
-80.57952248100122
 20
1.028137041299415
 42
0.0067740668000231
 10
-80.38111748100062
 20
0.98802104129929
 42
0.0067740668000178
 10
-80.18022648100027
 20
0.9502032412991772
 42
0.0067740668000117
 10
-79.97699748099989
 20
0.9147114412991603
 42
0.0067740667999077
 10
-79.77157948100302
 20
0.8815717412996795
 42
0.0067740668001033
 10
-79.56412348099991
 20
0.8508083412992126
 42
0.0067740667999557
 10
-79.35478248100139
 20
0.8224438412994024
 42
0.0067740668000387
 10
-79.14370848100015
 20
0.7964991412992637
 42
0.0067740667999537
 10
-78.93105748100158
 20
0.7729933412993964
 42
0.0067740667999914
 10
-78.71698548100181
 20
0.7519435412994389
 42
0.0067740667999878
 10
-78.50164948100223
 20
0.7333653412994315
 42
0.0067636405007964
 10
-78.28554092211977
 20
0.7172925024907633
 42
0.3216815158957555
 10
-78.24902671059788
 20
0.7402739243399159
 42
0.0
 10
-77.22531974689275
 20
3.255019271524289
 42
0.6036079430413216
 10
-77.26747857872481
 20
3.305118758429656
 42
-0.0968770041122257
 97
        0
 92
        7
 72
     1
 73
     1
 93
       23
 10
-78.38295652935596
 20
4.755026023556395
 42
0.5200087835236598
 10
-77.84193479851961
 20
3.915503817791814
 42
0.1173827961225184
 10
-76.91830940053188
 20
4.097361758078064
 42
0.1913082464585336
 10
-76.85596118473819
 20
4.162353364074973
 42
0.0
 10
-75.53148293830719
 20
7.415968590147585
 42
0.5046897278904324
 10
-75.56250708888382
 20
7.466776330723277
 42
0.0053970181930172
 10
-75.73501248100223
 20
7.480090241299464
 42
0.0031368713998986
 10
-75.83551848099915
 20
7.486840141299254
 42
0.0031368713999987
 10
-75.93621748099912
 20
7.493053841299243
 42
0.0031368713999523
 10
-76.03709148099762
 20
7.498730241299156
 42
0.0031368714000881
 10
-76.13812448100043
 20
7.503868641299348
 42
0.0031368714000824
 10
-76.23930248100328
 20
7.508468041299451
 42
0.0031368713999708
 10
-76.34060748100234
 20
7.512527741299422
 42
0.0031368713998812
 10
-76.4420244809981
 20
7.516047241299318
 42
0.0031368714001445
 10
-76.54353748100283
 20
7.519025841299438
 42
0.0031368714000362
 10
-76.64513048100395
 20
7.521463141299435
 42
0.0031368713998308
 10
-76.7467884809983
 20
7.523358741299304
 42
0.0031368714000767
 10
-76.8484934810009
 20
7.524712341299348
 42
0.0031368714000625
 10
-76.95023048100262
 20
7.525523641299358
 42
0.0031368713999152
 10
-77.05198348100026
 20
7.525792741299355
 42
0.0031368714000485
 10
-77.15373648100166
 20
7.5255193412993
 42
0.002378381288338
 10
-77.23087482131643
 20
7.525017965209841
 42
0.3019404427552704
 10
-77.26472766965793
 20
7.501970698744159
 42
0.0
 97
        0
 92
        7
 72
     1
 73
     1
 93
       42
 10
-72.99251550271089
 20
4.993381119125515
 42
-0.1957413474957151
 10
-72.99251642934581
 20
5.637359730877064
 42
0.0
 10
-72.46499287740249
 20
6.933237569940827
 42
0.4460668776928963
 10
-72.48906992686062
 20
6.982756357906693
 42
0.0028283786039479
 10
-72.56563548100297
 20
7.004228641299916
 42
0.0028494113000945
 10
-72.6433444810055
 20
7.025489041300615
 42
0.0028494112998765
 10
-72.72161948100216
 20
7.046371841299687
 42
0.0028494112999565
 10
-72.8004494810009
 20
7.066874241299344
 42
0.0028494113001165
 10
-72.87982448100433
 20
7.086993641300195
 42
0.0028494112998642
 10
-72.95973348100074
 20
7.106727441299297
 42
0.0028494112998679
 10
-73.04016748099702
 20
7.126073041298425
 42
0.0028494113001654
 10
-73.12111448100182
 20
7.145027941299516
 42
0.0028494112999915
 10
-73.20256548100132
 20
7.163589641299451
 42
0.002849411300025
 10
-73.28450848100198
 20
7.181755841299589
 42
0.00284941129982
 10
-73.3669344809968
 20
7.199524041298515
 42
0.002849411300116
 10
-73.4498314810001
 20
7.216892141299168
 42
0.0028494113000772
 10
-73.53318848100241
 20
7.233857641299649
 42
0.0028494112999554
 10
-73.61699548100119
 20
7.250418441299372
 42
0.0028494113000053
 10
-73.70124148100114
 20
7.266572441299401
 42
0.0028485312981449
 10
-73.78588930331165
 20
7.282312727728892
 42
0.3543993923517317
 10
-73.82671550229469
 20
7.259848702368016
 42
0.0
 10
-76.48399329063067
 20
0.7321936259631192
 42
0.5392714590992974
 10
-76.44895126845131
 20
0.6812513337253412
 42
0.0068019099602504
 10
-76.22904048100122
 20
0.6888387412992492
 42
0.0068021948000016
 10
-76.00968748100109
 20
0.6989650412993305
 42
0.0068021948000154
 10
-75.79106448100088
 20
0.7116227412993075
 42
0.0068021948000269
 10
-75.57333248100002
 20
0.7268023412994032
 42
0.0068021947999491
 10
-75.35665348100161
 20
0.7444926412992308
 42
0.0068021947999771
 10
-75.14118848100236
 20
0.7646806412991927
 42
0.0068021948000913
 10
-74.92709448099936
 20
0.7873512412994748
 42
0.0068021947999927
 10
-74.71453248099971
 20
0.8124877412994484
 42
0.0068021947999826
 10
-74.50365948100017
 20
0.8400714412993712
 42
0.0068021947999387
 10
-74.29462948100194
 20
0.8700821412991635
 42
0.0068021948000676
 10
-74.08759948099987
 20
0.9024973412994503
 42
0.0068021947999569
 10
-73.88272248100117
 20
0.9372933412993083
 42
0.0068021948000789
 10
-73.68014948099892
 20
0.9744441412997124
 42
0.0068021947999133
 10
-73.4800304810015
 20
1.013922341299191
 42
0.0068021948001044
 10
-73.28251348099826
 20
1.055698741299877
 42
0.0067876847516365
 10
-73.08815863735453
 20
1.099642758789356
 42
0.2416094440683338
 10
-73.06253822552235
 20
1.121667385795332
 42
0.0
 10
-72.37377681836176
 20
2.813631322146576
 42
0.1957413290603562
 10
-72.37377779121278
 20
3.473445415974807
 42
0.0
 97
        0
 92
        7
 72
     1
 73
     1
 93
       23
 10
-70.6023149132937
 20
3.465320599991442
 42
-0.1957433897416723
 10
-70.60231611425542
 20
2.821335765231835
 42
0.0
 10
-70.98728762316278
 20
1.87566100644254
 42
0.6820149919175252
 10
-70.93736526962032
 20
1.828184631690063
 42
0.0225466705713383
 10
-70.47647948100359
 20
2.069241941297788
 42
0.0225609850000015
 10
-70.06833048100327
 20
2.327111041297668
 42
0.0225609850001515
 10
-69.71653748100078
 20
2.59955444129936
 42
0.0225609849999793
 10
-69.42396348100118
 20
2.884355641298937
 42
0.0225609850000091
 10
-69.19298848100101
 20
3.179197441299137
 42
0.022560984999996
 10
-69.02549148100098
 20
3.481681241299056
 42
0.0225609850000407
 10
-68.92283548100085
 20
3.789346041299594
 42
0.0225609849999855
 10
-68.88585548100081
 20
4.09968874129943
 42
0.0225609849999925
 10
-68.91485148100082
 20
4.410184641299323
 42
0.0225609850000018
 10
-69.00958948100083
 20
4.71830754129938
 42
0.0225609849999988
 10
-69.16929648100079
 20
5.021550641299355
 42
0.0225609850000042
 10
-69.39267448100093
 20
5.317446941299365
 42
0.0225609850000189
 10
-69.67790648100123
 20
5.603589041299598
 42
0.0225609849998744
 10
-70.02267048099923
 20
5.877648941298175
 42
0.022560985000175
 10
-70.42416348100238
 20
6.137397141300211
 42
0.0225711483269983
 10
-70.87932716666506
 20
6.380820495278171
 42
0.4317106519725615
 10
-70.92955566189942
 20
6.361389847202857
 42
0.0
 10
-71.22432796981951
 20
5.637286099455692
 42
0.1957432007478235
 10
-71.22432893634453
 20
4.993301840585714
 42
0.0
 97
        0
 75
     0
 76
     1
 47
0.0210963047906488
 98
        5
 10
-83.72773086737561
 20
4.182914664592359
 10
-79.06086437609189
 20
2.368632469716955
 10
-77.35038366997156
 20
5.1533446658823
 10
-73.71825250504667
 20
4.098529530567232
 10
-69.91718489466416
 20
4.330588809136499
  0
LWPOLYLINE
  5
51ABB
330
51A86
100
AcDbEntity
  8
hyomoji
  6
Continuous
100
AcDbPolyline
 90
       42
 70
   129
 43
0.0
 10
-74.08759948100095
 20
0.9024973412992798
 42
0.0068021948000069
 10
-73.88272248100071
 20
0.9372933412993935
 42
0.0068021948000014
 10
-73.68014948100079
 20
0.9744441412993429
 42
0.0068021947999925
 10
-73.480030481001
 20
1.013922341299276
 42
0.0068021948000045
 10
-73.28251348100071
 20
1.055698741299337
 42
0.0067876847517197
 10
-73.08815863735458
 20
1.099642758789328
 42
0.2416094440683337
 10
-73.06253822552235
 20
1.121667385795304
 10
-72.37377681836176
 20
2.813631322146547
 42
0.1957413290603471
 10
-72.37377779121271
 20
3.47344541597475
 10
-72.99251550271089
 20
4.993381119125458
 42
-0.1957413474957244
 10
-72.99251642934581
 20
5.637359730877036
 10
-72.46499287740249
 20
6.933237569940856
 42
0.4460668776922764
 10
-72.48906992686062
 20
6.982756357906665
 42
0.0028283786038634
 10
-72.5656354810007
 20
7.004228641299291
 42
0.0028494113000101
 10
-72.6433444810009
 20
7.025489041299365
 42
0.0028494112999968
 10
-72.72161948100091
 20
7.046371841299346
 42
0.0028494113000006
 10
-72.80044948100083
 20
7.066874241299315
 42
0.0028494113000024
 10
-72.87982448100109
 20
7.086993641299371
 42
0.002849411299989
 10
-72.95973348100097
 20
7.106727441299354
 42
0.0028494113000037
 10
-73.0401674810011
 20
7.126073041299391
 42
0.0028494112999894
 10
-73.12111448100086
 20
7.145027941299317
 42
0.0028494113000082
 10
-73.20256548100087
 20
7.163589641299338
 42
0.0028494112999955
 10
-73.28450848100072
 20
7.181755841299305
 42
0.0028494113000056
 10
-73.36693448100089
 20
7.199524041299368
 42
0.0028494113000083
 10
-73.44983148100101
 20
7.216892141299338
 42
0.0028494112999919
 10
-73.53318848100087
 20
7.233857641299336
 42
0.0028494112999998
 10
-73.61699548100091
 20
7.250418441299316
 42
0.0028494113000083
 10
-73.70124148100098
 20
7.266572441299373
 42
0.0028485312981507
 10
-73.78588930331165
 20
7.282312727728892
 42
0.3543993923517316
 10
-73.82671550229469
 20
7.259848702368016
 10
-76.48399329063067
 20
0.7321936259631192
 42
0.5392714590992974
 10
-76.44895126845131
 20
0.6812513337253412
 42
0.0068019099602671
 10
-76.22904048100071
 20
0.6888387412992776
 42
0.0068021947999971
 10
-76.00968748100076
 20
0.6989650412993305
 42
0.0068021947999996
 10
-75.791064481001
 20
0.7116227412993075
 42
0.0068021948000011
 10
-75.57333248100093
 20
0.7268023412993179
 42
0.0068021947999982
 10
-75.35665348100105
 20
0.7444926412992876
 42
0.0068021948000014
 10
-75.14118848100094
 20
0.7646806412993348
 42
0.0068021947999974
 10
-74.92709448100089
 20
0.7873512412993043
 42
0.0068021948000009
 10
-74.71453248100101
 20
0.8124877412993063
 42
0.0068021948000053
 10
-74.50365948100079
 20
0.840071441299286
 42
0.0068021947999869
 10
-74.29462948100109
 20
0.8700821412993056
 42
0.006802194800004
  0
LWPOLYLINE
  5
51ABC
330
51A86
100
AcDbEntity
  8
hyomoji
  6
Continuous
100
AcDbPolyline
 90
       46
 70
   129
 43
0.0
 10
-79.56412348100087
 20
0.8508083412993263
 42
0.0067740668000082
 10
-79.35478248100071
 20
0.8224438412992887
 42
0.0067740667999966
 10
-79.14370848100083
 20
0.796499141299349
 42
0.00677406679999
 10
-78.93105748100106
 20
0.7729933412993395
 42
0.0067740668000013
 10
-78.71698548100102
 20
0.7519435412993536
 42
0.0067740668000002
 10
-78.50164948100104
 20
0.7333653412993462
 42
0.0067636405007582
 10
-78.28554092211977
 20
0.7172925024907633
 42
0.3216815158956166
 10
-78.24902671059788
 20
0.7402739243398875
 10
-77.22531974689275
 20
3.255019271524289
 42
0.6036079430413216
 10
-77.26747857872481
 20
3.305118758429656
 42
-0.0968770041122301
 10
-79.15975753181135
 20
3.26399547739514
 42
-0.4787358622778684
 10
-80.08160692178178
 20
4.926098408027441
 10
-79.07736483811101
 20
7.393042176692503
 42
0.5685357036715337
 10
-79.11571288575107
 20
7.443767025967261
 42
0.0037682570573848
 10
-79.23345348100088
 20
7.429809241299366
 42
0.003796761400007
 10
-79.35156848100104
 20
7.414988941299313
 42
0.0037967614000019
 10
-79.46914148100081
 20
7.399408441299343
 42
0.0037967614000093
 10
-79.58614348100098
 20
7.383071141299367
 42
0.0037967613999978
 10
-79.70254748100092
 20
7.365980841299304
 42
0.0037967614000032
 10
-79.81832748100072
 20
7.348141641299335
 42
0.0037967614000015
 10
-79.93345648100097
 20
7.329557541299337
 42
0.0037967613999987
 10
-80.04790848100077
 20
7.310232841299366
 42
0.0037967613999957
 10
-80.16165548100099
 20
7.290172041299299
 42
0.0037967613999885
 10
-80.27467248100066
 20
7.269379741299402
 42
0.0037967613999968
 10
-80.38693348100077
 20
7.247860641299367
 42
0.003796761399993
 10
-80.49841148100069
 20
7.225619841299347
 42
0.0037967614000086
 10
-80.60908248100094
 20
7.202662441299323
 42
0.0037967614000003
 10
-80.71891948100091
 20
7.178993641299327
 42
0.0037967613999995
 10
-80.82789748100067
 20
7.154619041299368
 42
0.0038055234898925
 10
-80.93624149281783
 20
7.129484377005225
 42
0.2417074229057139
 10
-80.96187522459041
 20
7.107456547699952
 10
-81.67679310057867
 20
5.351238007852642
 42
0.1957404060663561
 10
-81.67679324222644
 20
4.707262264772096
 10
-81.05481874049798
 20
3.179360160222002
 42
-0.1957405476044069
 10
-81.05481905771336
 20
2.535383985854408
 10
-81.55302151669195
 20
1.311535683439685
 42
0.4443455524912625
 10
-81.52914870534289
 20
1.262076041420399
 42
0.0067708198256604
 10
-81.34540348100102
 20
1.210969441299325
 42
0.0067740668000073
 10
-81.15837748100096
 20
1.161971541299364
 42
0.0067740668000071
 10
-80.96829548100094
 20
1.115144241299375
 42
0.0067740668000066
 10
-80.7752964810008
 20
1.070521841299309
 42
0.0067740667999989
 10
-80.57952248100088
 20
1.028137041299358
 42
0.0067740668000009
 10
-80.3811174810009
 20
0.9880210412993468
 42
0.0067740668000062
 10
-80.18022648100094
 20
0.9502032412993193
 42
0.0067740668000053
 10
-79.97699748100075
 20
0.9147114412993024
 42
0.0067740668000071
 10
-79.77157948100085
 20
0.8815717412993384
 42
0.0067740668000022
  0
LWPOLYLINE
  5
51ABD
330
51A86
100
AcDbEntity
  8
hyomoji
  6
Continuous
100
AcDbPolyline
 90
       23
 70
   129
 43
0.0
 10
-84.60062248100086
 20
2.922408641299354
 42
0.0223985860000053
 10
-84.31824648100088
 20
2.638179641299315
 42
0.0223985860000067
 10
-83.97714748100083
 20
2.365821541299296
 42
0.0223985860000024
 10
-83.58006248100087
 20
2.107518441299318
 42
0.0220669162099173
 10
-83.13698702184728
 20
1.868630468524954
 42
0.4330144820686968
 10
-83.08661212126271
 20
1.88799096927046
 10
-82.82304964928551
 20
2.535439206675632
 42
0.1957402929298021
 10
-82.82304889069228
 20
3.179414605012069
 10
-83.46378652570797
 20
4.753414302732195
 42
-0.1957419841521856
 10
-83.46378407732249
 20
5.305397632785271
 10
-83.03886623792795
 20
6.349200156601155
 42
0.6213425724569266
 10
-83.09028248100089
 20
6.391129141299372
 42
0.0223985860000949
 10
-83.54442748100273
 20
6.150390441298227
 42
0.0223985859999093
 10
-83.94605548100122
 20
5.893357741299111
 42
0.0223985859999842
 10
-84.29194548100088
 20
5.622092441299357
 42
0.0223985860000033
 10
-84.57932448100086
 20
5.338769741299315
 42
0.0223985859999945
 10
-84.80588648100086
 20
5.04566164129936
 42
0.0223985860000046
 10
-84.96981548100093
 20
4.745118641299298
 42
0.0223985860000012
 10
-85.06979748100087
 20
4.439550741299355
 42
0.0223985859999998
 10
-85.10502948100088
 20
4.131408441299313
 42
0.0223985859999993
 10
-85.07523048100086
 20
3.823162641299332
 42
0.0223985859999987
 10
-84.98063748100088
 20
3.517285341299312
 42
0.0223985859999964
 10
-84.82201148100086
 20
3.216229241299358
 42
0.0223985860000002
  0
LWPOLYLINE
  5
51ABE
330
51A86
100
AcDbEntity
  8
hyomoji
  6
Continuous
100
AcDbPolyline
 90
       23
 70
   129
 43
0.0
 10
-77.84193479851961
 20
3.915503817791786
 42
0.1173827961225227
 10
-76.91830940053188
 20
4.097361758078064
 42
0.1913082464585806
 10
-76.85596118473819
 20
4.162353364075001
 10
-75.53148293830719
 20
7.415968590147585
 42
0.5046897278906438
 10
-75.56250708888382
 20
7.466776330723277
 42
0.0053970181929799
 10
-75.73501248100109
 20
7.480090241299379
 42
0.0031368713999882
 10
-75.83551848100086
 20
7.486840141299367
 42
0.003136871399997
 10
-75.93621748100076
 20
7.493053841299357
 42
0.0031368714000045
 10
-76.03709148100091
 20
7.498730241299355
 42
0.0031368713999919
 10
-76.13812448100066
 20
7.503868641299348
 42
0.0031368714000049
 10
-76.23930248100101
 20
7.508468041299337
 42
0.0031368713999963
 10
-76.34060748100086
 20
7.512527741299365
 42
0.0031368714000025
 10
-76.4420244810006
 20
7.516047241299375
 42
0.0031368714000093
 10
-76.54353748100089
 20
7.519025841299381
 42
0.003136871400002
 10
-76.64513048100099
 20
7.521463141299378
 42
0.0031368714000044
 10
-76.74678848100092
 20
7.523358741299333
 42
0.0031368714000004
 10
-76.84849348100107
 20
7.524712341299348
 42
0.0031368713999985
 10
-76.95023048100068
 20
7.525523641299358
 42
0.0031368713999931
 10
-77.05198348100083
 20
7.525792741299355
 42
0.0031368713999985
 10
-77.15373648100063
 20
7.525519341299329
 42
0.0023783812883705
 10
-77.23087482131649
 20
7.525017965209812
 42
0.3019404427550624
 10
-77.26472766965793
 20
7.501970698744131
 10
-78.38295652935596
 20
4.755026023556395
 42
0.5200087835236676
  0
LWPOLYLINE
  5
51ABF
330
51A86
100
AcDbEntity
  8
hyomoji
  6
Continuous
100
AcDbPolyline
 90
       23
 70
   129
 43
0.0
 10
-69.02549148100087
 20
3.481681241299312
 42
-0.0225609849999951
 10
-69.1929884810009
 20
3.179197441299392
 42
-0.0225609850000035
 10
-69.42396348100095
 20
2.884355641299221
 42
-0.022560985000006
 10
-69.7165374810009
 20
2.599554441299303
 42
-0.0225609849999973
 10
-70.06833048100083
 20
2.327111041299345
 42
-0.0225609849999909
 10
-70.47647948100081
 20
2.069241941299352
 42
-0.0225466705714752
 10
-70.93736526962032
 20
1.828184631690091
 42
-0.6820149919169938
 10
-70.98728762316278
 20
1.87566100644254
 10
-70.60231611425542
 20
2.821335765231807
 42
0.1957433897416816
 10
-70.6023149132937
 20
3.465320599991442
 10
-71.22432893634459
 20
4.993301840585799
 42
-0.1957432007478236
 10
-71.22432796981951
 20
5.637286099455777
 10
-70.92955566189942
 20
6.361389847202885
 42
-0.4317106519725617
 10
-70.87932716666506
 20
6.380820495278199
 42
-0.0225711483270752
 10
-70.4241634810009
 20
6.13739714129933
 42
-0.0225609850000041
 10
-70.02267048100083
 20
5.877648941299255
 42
-0.022560984999992
 10
-69.67790648100089
 20
5.603589041299314
 42
-0.0225609849999975
 10
-69.39267448100088
 20
5.317446941299336
 42
-0.0225609850000032
 10
-69.16929648100079
 20
5.021550641299326
 42
-0.0225609849999971
 10
-69.00958948100083
 20
4.71830754129938
 42
-0.0225609850000056
 10
-68.91485148100082
 20
4.410184641299266
 42
-0.0225609849999966
 10
-68.88585548100081
 20
4.099688741299316
 42
-0.0225609849999982
 10
-68.92283548100085
 20
3.789346041299309
 42
-0.0225609850000013
  0
HATCH
  5
51AC0
330
51A86
100
AcDbEntity
  8
hyomoji
  6
Continuous
100
AcDbHatch
 10
0.0
 20
0.0
 30
0.0
210
0.0
220
0.0
230
1.0
  2
SOLID
 70
     1
 71
     1
 91
        7
 92
       16
 93
        8
 72
     2
 10
-54.74620849627122
 20
4.972172641299137
 40
0.0610000000000071
 50
89.99999999998667
 51
214.2158041457457
 73
     0
 72
     1
 10
-54.79665095182571
 20
5.006473642416223
 11
-54.19290315928896
 21
5.894334643533325
 72
     2
 10
-54.09201824818003
 20
5.825732641299187
 40
0.1219999999999548
 50
214.2158041457457
 51
269.9999999999833
 73
     0
 72
     1
 10
-54.09201824818007
 20
5.947732641299139
 11
-52.82622506559921
 21
5.947732641299139
 72
     2
 10
-52.8262250655992
 20
5.825732641299138
 40
0.1220000000000008
 50
269.9999999999966
 51
325.7843192239316
 73
     0
 72
     1
 10
-52.72534000677615
 20
5.894334426307039
 11
-52.12159508384053
 21
5.006473533803073
 72
     2
 10
-52.17203761325205
 20
4.97217264129912
 40
0.0609999999999922
 50
325.7843192239235
 51
449.9999999999866
 73
     0
 72
     1
 10
-52.17203761325203
 20
4.91117264129913
 11
-54.74620849627121
 21
4.91117264129913
 97
        1
330
51AC5
 92
        1
 93
       69
 72
     2
 10
-62.72728248100087
 20
2.989602841299126
 40
0.0609750040000124
 50
20.55601515250907
 51
180.3287979995261
 73
     1
 72
     1
 10
-62.78825648100087
 20
2.989252931594278
 11
-62.78825648100087
 21
1.862405541299138
 72
     1
 10
-62.78825648100087
 20
1.862405541299138
 11
-63.64189448100091
 21
1.862405541299138
 72
     1
 10
-63.64189448100091
 20
1.862405541299138
 11
-63.64189448100091
 21
2.97177701961047
 72
     2
 10
-63.70289448100091
 20
2.97177701961047
 40
0.061
 50
359.9999999999992
 51
516.501434324047
 73
     1
 72
     1
 10
-63.75883575443237
 20
2.996099312406754
 11
-64.25174608969655
 21
1.862405541299138
 72
     1
 10
-64.25174608969655
 20
1.862405541299138
 11
-64.86139895336487
 21
1.862405541299138
 72
     1
 10
-64.86139895336487
 20
1.862405541299138
 11
-63.90864895294914
 21
4.156057205292952
 72
     2
 10
-63.96498223187829
 20
4.179457241299145
 40
0.0610000000000066
 50
337.4427025304224
 51
450.0000000000199
 73
     1
 72
     1
 10
-63.96498223187831
 20
4.240457241299153
 11
-64.72066345391249
 21
4.240457241299153
 72
     2
 10
-64.72099548100088
 20
4.179483141299136
 40
0.0609750039999958
 50
89.68800584477012
 51
205.584723880978
 73
     1
 72
     1
 10
-64.77599174539887
 20
4.153151373127101
 11
-64.43432036448945
 21
3.53289303306684
 72
     1
 10
-64.43432036448945
 20
3.53289303306684
 11
-64.98318196062911
 21
3.569484639619814
 72
     1
 10
-64.98318196062911
 20
3.569484639619814
 11
-65.06457835488749
 21
3.752614298647173
 72
     2
 10
-65.14225148100092
 20
3.718090604178529
 40
0.0849999999999904
 50
23.96390884029606
 51
180.000000000002
 73
     1
 72
     1
 10
-65.2272514810009
 20
3.718090604178526
 11
-65.2272514810009
 21
1.862405541299138
 72
     1
 10
-65.2272514810009
 20
1.862405541299138
 11
-66.01991548100091
 21
1.862405541299138
 72
     1
 10
-66.01991548100091
 20
1.862405541299138
 11
-66.01991548100091
 21
3.180389201155022
 72
     2
 10
-66.05691548100089
 20
3.180389201155026
 40
0.0369999999999919
 50
359.9999999999931
 51
525.0682641126503
 73
     1
 72
     1
 10
-66.09266612073515
 20
3.189922918089734
 11
-66.20279949565958
 21
2.776931989513939
 72
     1
 10
-66.20279949565958
 20
2.776931989513939
 11
-66.69079791063558
 21
2.715931687446754
 72
     1
 10
-66.69079791063558
 20
2.715931687446754
 11
-66.0423487498785
 21
4.89707424830621
 72
     2
 10
-66.10167148100086
 20
4.911172641299135
 40
0.060975003999994
 50
346.6313300948622
 51
450.3119941552164
 73
     1
 72
     1
 10
-66.10200350808923
 20
4.972146741299154
 11
-66.56871348100088
 21
4.972146741299154
 72
     1
 10
-66.56871348100088
 20
4.972146741299154
 11
-66.56871348100088
 21
5.398965541299147
 72
     1
 10
-66.56871348100088
 20
5.398965541299147
 11
-66.08057635616257
 21
5.398965541299147
 72
     2
 10
-66.08088948100089
 20
5.459939741299113
 40
0.0609750040000025
 50
270.2942322160608
 51
360.328797999525
 73
     1
 72
     1
 10
-66.01991548100091
 20
5.46028965100396
 11
-66.01991548100091
 21
6.435525641299121
 72
     1
 10
-66.01991548100091
 20
6.435525641299121
 11
-65.2272514810009
 21
6.435525641299121
 72
     1
 10
-65.2272514810009
 20
6.435525641299121
 11
-65.2272514810009
 21
5.46028965100396
 72
     2
 10
-65.16627748100091
 20
5.459939741299105
 40
0.060975004
 50
179.6712020004675
 51
270.2942322160609
 73
     1
 72
     1
 10
-65.16596435616259
 20
5.398965541299147
 11
-65.01326412084137
 21
5.398965541299147
 72
     2
 10
-65.01457448100095
 20
5.642862041299148
 40
0.2439000199999955
 50
270.3078247716722
 51
323.2355201469977
 73
     1
 72
     1
 10
-64.81918554624172
 20
5.496881275683761
 11
-64.80043248100088
 21
5.520991826785887
 72
     1
 10
-64.80043248100088
 20
5.520991826785887
 11
-64.80043248100088
 21
4.972146741299154
 72
     1
 10
-64.80043248100088
 20
4.972146741299154
 11
-65.12440350808924
 21
4.972146741299154
 72
     2
 10
-65.12407148100088
 20
4.911172641299118
 40
0.0609750040000152
 50
90.31199415520308
 51
212.5323653743687
 73
     1
 72
     1
 10
-65.17547876299079
 20
4.878381751234782
 11
-64.90594841597351
 21
4.389080222085936
 72
     2
 10
-64.88579048100085
 20
4.402810841299114
 40
0.0243900029999841
 50
214.2608153840807
 51
361.3730430692635
 73
     1
 72
     1
 10
-64.86140748100092
 20
4.403395270373322
 11
-64.86140748100092
 21
4.667276141299125
 72
     1
 10
-64.86140748100092
 20
4.667276141299125
 11
-63.7025364539125
 21
4.667276141299125
 72
     2
 10
-63.70286848100089
 20
4.728250241299138
 40
0.0609750039999914
 50
270.3119941552366
 51
360.3287979995408
 73
     1
 72
     1
 10
-63.64189448100091
 20
4.728600151004001
 11
-63.64189448100091
 21
5.338341351003974
 72
     2
 10
-63.70286848100089
 20
5.337991441299135
 40
0.0609750039999928
 50
0.328797999518302
 51
89.6880058447634
 73
     1
 72
     1
 10
-63.7025364539125
 20
5.398965541299147
 11
-64.28611254821658
 21
5.398965541299147
 72
     2
 10
-64.32991248100091
 20
5.941018841299143
 40
0.5438200199999974
 50
85.38032373407656
 51
167.7784156334982
 73
     0
 72
     1
 10
-64.86140748100092
 20
5.825895954227205
 11
-64.86140748100092
 21
6.435525641299121
 72
     1
 10
-64.86140748100092
 20
6.435525641299121
 11
-64.06874348100086
 21
6.435525641299121
 72
     1
 10
-64.06874348100086
 20
6.435525641299121
 11
-64.06874348100086
 21
5.88678444129914
 72
     2
 10
-64.00774348100084
 20
5.886784441299155
 40
0.0610000000000213
 50
180.0000000000133
 51
270.0000000000134
 73
     1
 72
     1
 10
-64.00774348100083
 20
5.825784441299133
 11
-63.7028944810009
 21
5.825784441299133
 72
     2
 10
-63.70289448100091
 20
5.886784441299126
 40
0.0609999999999928
 50
270.0000000000134
 51
360.0000000000134
 73
     1
 72
     1
 10
-63.64189448100091
 20
5.88678444129914
 11
-63.64189448100091
 21
6.435525641299121
 72
     1
 10
-63.64189448100091
 20
6.435525641299121
 11
-62.78825648100087
 21
6.435525641299121
 72
     1
 10
-62.78825648100087
 20
6.435525641299121
 11
-62.78825648100087
 21
5.88678444129914
 72
     2
 10
-62.72725648100085
 20
5.886784441299155
 40
0.0610000000000213
 50
180.0000000000133
 51
270.0000000000134
 73
     1
 72
     1
 10
-62.72725648100084
 20
5.825784441299133
 11
-61.69069148100089
 21
5.825784441299133
 72
     1
 10
-61.69069148100089
 20
5.825784441299133
 11
-61.69069148100089
 21
5.398965541299147
 72
     1
 10
-61.69069148100089
 20
5.398965541299147
 11
-62.72761450808928
 21
5.398965541299147
 72
     2
 10
-62.72728248100089
 20
5.337991441299134
 40
0.0609750039999914
 50
90.31199415523657
 51
180.3287979995408
 73
     1
 72
     1
 10
-62.78825648100087
 20
5.337641531594271
 11
-62.78825648100087
 21
4.727900331594297
 72
     2
 10
-62.72728248100087
 20
4.728250241299158
 40
0.0609750040000143
 50
180.3287979995382
 51
270.3119941552298
 73
     1
 72
     1
 10
-62.72695045391248
 20
4.667276141299125
 11
-61.69069148100089
 21
4.667276141299125
 72
     1
 10
-61.69069148100089
 20
4.667276141299125
 11
-61.69069148100089
 21
4.240457241299153
 72
     1
 10
-61.69069148100089
 20
4.240457241299153
 11
-62.46552950808933
 21
4.240457241299153
 72
     2
 10
-62.46519748100094
 20
4.179483141299145
 40
0.0609750039999869
 50
90.31199415523662
 51
204.5343249868246
 73
     1
 72
     1
 10
-62.52066721478428
 20
4.154163983595878
 11
-61.56870695644437
 21
1.862405541299138
 72
     1
 10
-61.56870695644437
 20
1.862405541299138
 11
-62.23946240602021
 21
1.862405541299138
 72
     1
 10
-62.23946240602021
 20
1.862405541299138
 11
-62.67018940675479
 21
3.011012709967501
 97
        1
330
51AC4
 92
        1
 93
       43
 72
     2
 10
-59.41023548100087
 20
2.458291741299149
 40
0.0853650050000071
 50
179.2153395627242
 51
276.8671644776522
 73
     1
 72
     1
 10
-59.40002856816966
 20
2.373539142465204
 11
-58.21513648100091
 21
2.655656541307449
 72
     1
 10
-58.21513648100091
 20
2.655656541307449
 11
-58.21513648100091
 21
2.166874593013146
 72
     1
 10
-58.21513648100091
 20
2.166874593013146
 11
-59.97605424750162
 21
1.923989054180878
 72
     1
 10
-59.97605424750162
 20
1.923989054180878
 11
-61.20289848100089
 21
1.862646641298481
 72
     1
 10
-61.20289848100089
 20
1.862646641298481
 11
-61.20289848100089
 21
2.350198541299149
 72
     1
 10
-61.20289848100089
 20
2.350198541299149
 11
-60.41026148100087
 21
2.350198541299149
 72
     2
 10
-60.41026148100089
 20
2.411198541299142
 40
0.0609999999999928
 50
270.0000000000134
 51
360.0000000000134
 73
     1
 72
     1
 10
-60.34926148100089
 20
2.411198541299156
 11
-60.34926148100089
 21
4.17983305100398
 72
     2
 10
-60.41023548100088
 20
4.179483141299141
 40
0.0609750039999928
 50
0.328797999518302
 51
89.6880058447634
 73
     1
 72
     1
 10
-60.40990345391247
 20
4.240457241299153
 11
-61.20289848100089
 21
4.240457241299153
 72
     1
 10
-61.20289848100089
 20
4.240457241299153
 11
-61.20289848100089
 21
4.667276141299125
 72
     1
 10
-61.20289848100089
 20
4.667276141299125
 11
-58.47201198712764
 21
4.667276141299125
 72
     2
 10
-58.47201198712763
 20
4.789276141299128
 40
0.1220000000000034
 50
269.9999999999934
 51
374.2369765495947
 73
     1
 72
     1
 10
-58.35375899315687
 20
4.819279964671365
 11
-58.48916922335632
 21
5.352967452985267
 72
     2
 10
-58.54829572034169
 20
5.337965541299159
 40
0.0609999999999908
 50
14.23697654958662
 51
89.99999999998665
 73
     1
 72
     1
 10
-58.54829572034168
 20
5.398965541299147
 11
-61.20289848100089
 21
5.398965541299147
 72
     1
 10
-61.20289848100089
 20
5.398965541299147
 11
-61.20289848100089
 21
5.825784441299133
 72
     1
 10
-61.20289848100089
 20
5.825784441299133
 11
-58.76596001972183
 21
5.825784441299133
 72
     2
 10
-58.76596001972184
 20
5.94778444129913
 40
0.1219999999999972
 50
270.0000000000033
 51
374.2372718659897
 73
     1
 72
     1
 10
-58.64770718039967
 20
5.977788874175685
 11
-58.76384927206533
 21
6.435525641299121
 72
     1
 10
-58.76384927206533
 20
6.435525641299121
 11
-57.91020861058473
 21
6.435525641299121
 72
     1
 10
-57.91020861058473
 20
6.435525641299121
 11
-57.76716777773612
 21
5.87178207598822
 72
     2
 10
-57.70804139584885
 20
5.886784441299147
 40
0.0610000000000125
 50
194.2374161293682
 51
270.0
 73
     1
 72
     1
 10
-57.70804139584885
 20
5.825784441299133
 11
-57.23957148100095
 21
5.825784441299133
 72
     2
 10
-57.23957148100095
 20
5.947784441299147
 40
0.1220000000000141
 50
270.0
 51
360.0
 73
     1
 72
     1
 10
-57.11757148100094
 20
5.947784441299147
 11
-57.11757148100094
 21
6.435525641299121
 72
     1
 10
-57.11757148100094
 20
6.435525641299121
 11
-56.32490848100087
 21
6.435525641299121
 72
     1
 10
-56.32490848100087
 20
6.435525641299121
 11
-56.32490848100087
 21
5.835573103868767
 72
     2
 10
-56.75953948100088
 20
5.830423141299111
 40
0.4346615099999902
 50
359.3211314615436
 51
443.0390370806019
 73
     0
 72
     1
 10
-56.7068615190268
 20
5.398965541299147
 11
-57.56853345391249
 21
5.398965541299147
 72
     2
 10
-57.56886548100087
 20
5.337991441299132
 40
0.0609750039999931
 50
89.68800584477678
 51
192.0839376141646
 73
     1
 72
     1
 10
-57.62848939861356
 20
5.325226663145385
 11
-56.8853024185089
 21
2.396196312671945
 72
     2
 10
-56.82617600194053
 20
2.411198541299139
 40
0.0609999999999901
 50
194.2372836775213
 51
269.99999999998
 73
     1
 72
     1
 10
-56.82617600194055
 20
2.350198541299149
 11
-56.32490848100087
 21
2.350198541299149
 72
     1
 10
-56.32490848100087
 20
2.350198541299149
 11
-56.32490848100087
 21
1.862313411481465
 72
     1
 10
-56.32490848100087
 20
1.862313411481465
 11
-57.3029635753897
 21
1.908396245450403
 72
     2
 10
-57.28286699320412
 20
2.334923064518641
 40
0.4270000000000124
 50
92.69759919784574
 51
165.7627204339681
 73
     0
 72
     1
 10
-57.6967519167186
 20
2.229907493828249
 11
-58.19522029465185
 21
4.194459465683492
 72
     2
 10
-58.25434671229679
 20
4.179457241299128
 40
0.061000000000022
 50
14.23727956604894
 51
90.00000000002
 73
     1
 72
     1
 10
-58.25434671229681
 20
4.240457241299153
 11
-59.43495050808934
 21
4.240457241299153
 72
     2
 10
-59.43461848100095
 20
4.17948314129914
 40
0.0609750039999914
 50
90.31199415523657
 51
179.6712020004808
 73
     1
 72
     1
 10
-59.49559248100093
 20
4.17983305100398
 11
-59.49559248100093
 21
2.459460770658238
 97
        1
330
51AC3
 92
        1
 93
       18
 72
     1
 10
-52.87093633831881
 20
3.32584544129915
 11
-51.75916059699716
 21
3.32584544129915
 72
     1
 10
-51.75916059699716
 20
3.32584544129915
 11
-51.20585795859813
 21
2.313705249298506
 72
     2
 10
-51.47347969807253
 20
2.167405541299146
 40
0.3050000000000091
 50
331.3360719409863
 51
450.0
 73
     0
 72
     1
 10
-51.47347969807253
 20
1.862405541299138
 11
-55.4447130530363
 21
1.862405541299138
 72
     2
 10
-55.44471305303631
 20
2.167405541299145
 40
0.3050000000000068
 50
89.99999999999868
 51
208.663997012829
 73
     0
 72
     1
 10
-55.71233461644306
 20
2.313705571373431
 11
-55.07504248299546
 21
3.479481935284296
 72
     2
 10
-55.12856679567678
 20
3.508741941299168
 40
0.0609999999999886
 50
331.3360029871494
 51
449.99999999998
 73
     1
 72
     1
 10
-55.12856679567676
 20
3.569741941299155
 11
-55.9590634810009
 21
3.569741941299155
 72
     1
 10
-55.9590634810009
 20
3.569741941299155
 11
-55.9590634810009
 21
4.057534941299137
 72
     1
 10
-55.9590634810009
 20
4.057534941299137
 11
-50.95909348100088
 21
4.057534941299137
 72
     1
 10
-50.95909348100088
 20
4.057534941299137
 11
-50.95909348100088
 21
3.569741941299155
 72
     1
 10
-50.95909348100088
 20
3.569741941299155
 11
-53.87771688642391
 21
3.569741941299155
 72
     2
 10
-53.87771688642389
 20
3.508741941299168
 40
0.0609999999999871
 50
90.00000000002
 51
151.335938873511
 73
     1
 72
     1
 10
-53.9312411663634
 20
3.538002007207409
 11
-54.53123414632449
 21
2.440458607207417
 72
     2
 10
-54.47770986638495
 20
2.41119854129916
 40
0.0610000000000124
 50
151.3359388735077
 51
270.0000000000134
 73
     1
 72
     1
 10
-54.47770986638494
 20
2.350198541299149
 11
-52.44044865694786
 21
2.350198541299149
 72
     2
 10
-52.44044865694788
 20
2.411198541299147
 40
0.0609999999999977
 50
270.0000000000134
 51
388.6639816236973
 73
     1
 72
     1
 10
-52.38692433640756
 20
2.440458532937852
 11
-52.87093633831881
 21
3.32584544129915
 97
        1
330
51AC1
 92
        1
 93
       12
 72
     1
 10
-55.34929148100093
 20
4.423379641299162
 11
-55.34929148100093
 21
4.698244640018955
 72
     2
 10
-55.41029148100093
 20
4.698244640018971
 40
0.0609999999999928
 50
359.9999999999842
 51
455.4360694590207
 73
     1
 72
     1
 10
-55.4160703179266
 20
4.758970293937109
 11
-55.95854716663592
 21
4.707346555988094
 72
     1
 10
-55.95854716663592
 20
4.707346555988094
 11
-54.87947905250138
 21
6.294209984463349
 72
     2
 10
-54.62214948100092
 20
6.130716041299131
 40
0.3048750199999937
 50
212.4297726273445
 51
268.8130299920873
 73
     0
 72
     1
 10
-54.62846498318532
 20
6.435525641299121
 11
-52.30232298318532
 21
6.435525641299121
 72
     2
 10
-52.29600748100089
 20
6.130716041299111
 40
0.3048750200000119
 50
268.8130299920847
 51
323.9431965978808
 73
     0
 72
     1
 10
-52.0495361909027
 20
6.310161523207511
 11
-50.95974050063467
 21
4.70752028219806
 72
     1
 10
-50.95974050063467
 20
4.70752028219806
 11
-51.50208659474504
 21
4.759132021705652
 72
     2
 10
-51.50786548100088
 20
4.698406372481914
 40
0.0610000000000193
 50
84.56388399705218
 51
180.0000000000033
 73
     1
 72
     1
 10
-51.56886548100089
 20
4.698406372481911
 11
-51.56886548100089
 21
4.423379641299162
 72
     1
 10
-51.56886548100089
 20
4.423379641299162
 11
-55.34929148100093
 21
4.423379641299162
 97
        1
330
51AC2
 92
        1
 93
       23
 72
     1
 10
-49.86155948100088
 20
1.862405541299138
 11
-49.86155948100088
 21
3.077863598466819
 72
     2
 10
-49.92255948100087
 20
3.077863598466837
 40
0.0609999999999857
 50
359.9999999999829
 51
454.0856260770403
 73
     1
 72
     1
 10
-49.9269055609231
 20
3.138708578451285
 11
-50.71478207094611
 21
3.082431556381407
 72
     1
 10
-50.71478207094611
 20
3.082431556381407
 11
-49.35559875564741
 21
5.121206529329383
 72
     2
 10
-49.40635382360203
 20
5.155043241299119
 40
0.0610000000000124
 50
326.3099324740318
 51
450.0000000000134
 73
     1
 72
     1
 10
-49.40635382360205
 20
5.216043241299131
 11
-50.5932494810009
 21
5.216043241299131
 72
     1
 10
-50.5932494810009
 20
5.216043241299131
 11
-50.5932494810009
 21
5.642862041299152
 72
     1
 10
-50.5932494810009
 20
5.642862041299152
 11
-49.92286550809757
 21
5.642862041299152
 72
     2
 10
-49.92253348100085
 20
5.703836141299115
 40
0.060975003999987
 50
269.6880058369449
 51
359.6712020004875
 73
     1
 72
     1
 10
-49.86155948100088
 20
5.703486231594282
 11
-49.86155948100088
 21
6.496560841299113
 72
     1
 10
-49.86155948100088
 20
6.496560841299113
 11
-49.00789148100091
 21
6.496560841299113
 72
     1
 10
-49.00789148100091
 20
6.496560841299113
 11
-49.00789148100091
 21
5.704186051003985
 72
     2
 10
-48.9469174810009
 20
5.703836141299146
 40
0.0609750040000213
 50
179.6712020004818
 51
269.6880058369384
 73
     1
 72
     1
 10
-48.94724950809763
 20
5.642862041299152
 11
-48.69823432828718
 21
5.642862041299152
 72
     2
 10
-48.69823432828717
 20
5.337862041299146
 40
0.3050000000000059
 50
269.9999999999987
 51
393.6903557500942
 73
     0
 72
     1
 10
-48.44445983958843
 20
5.168677204845947
 11
-48.72354084329003
 21
4.750060261952881
 72
     2
 10
-48.67512748100091
 20
4.712991441299108
 40
0.0609750039999971
 50
142.5596824517575
 51
204.6828840265598
 73
     1
 72
     1
 10
-48.73053137976512
 20
4.687528544477955
 11
-47.97097340284989
 21
3.325563008176145
 72
     1
 10
-47.97097340284989
 20
3.325563008176145
 11
-48.77287533117197
 21
3.386532052496305
 72
     1
 10
-48.77287533117197
 20
3.386532052496305
 11
-48.89361620086919
 21
3.603034357753826
 72
     2
 10
-48.94689148100086
 20
3.573323340825795
 40
0.0610000000000481
 50
29.14791024784397
 51
180.000000000015
 73
     1
 72
     1
 10
-49.00789148100091
 20
3.573323340825779
 11
-49.00789148100091
 21
1.862405541299138
 72
     1
 10
-49.00789148100091
 20
1.862405541299138
 11
-49.86155948100088
 21
1.862405541299138
 97
        1
330
51AD0
 92
        1
 93
       22
 72
     1
 10
-48.39815048100092
 20
1.862405541299138
 11
-48.39815048100092
 21
2.350198541299149
 72
     1
 10
-48.39815048100092
 20
2.350198541299149
 11
-47.42259048100089
 21
2.350198541299149
 72
     2
 10
-47.4225904810009
 20
2.411198541299142
 40
0.0609999999999928
 50
270.0000000000134
 51
360.0000000000134
 73
     1
 72
     1
 10
-47.36159048100091
 20
2.411198541299156
 11
-47.36159048100091
 21
4.727900331594297
 72
     2
 10
-47.42256448100088
 20
4.728250241299156
 40
0.0609750039999858
 50
359.6712020004633
 51
449.6880058369182
 73
     1
 72
     1
 10
-47.42223245390414
 20
4.789224341299116
 11
-48.09327948100087
 21
4.789224341299116
 72
     1
 10
-48.09327948100087
 20
4.789224341299116
 11
-48.09327948100087
 21
5.216043241299131
 72
     1
 10
-48.09327948100087
 20
5.216043241299131
 11
-47.42289650809346
 21
5.216043241299131
 72
     2
 10
-47.42256448100089
 20
5.277017341299125
 40
0.0609750039999954
 50
269.6880058408508
 51
359.6712020004717
 73
     1
 72
     1
 10
-47.36159048100091
 20
5.276667431594275
 11
-47.36159048100091
 21
6.496560841299113
 72
     1
 10
-47.36159048100091
 20
6.496560841299113
 11
-46.50792148100089
 21
6.496560841299113
 72
     1
 10
-46.50792148100089
 20
6.496560841299113
 11
-46.50792148100089
 21
5.277367251003979
 72
     2
 10
-46.4469474810009
 20
5.277017341299131
 40
0.060975004
 50
179.6712020004742
 51
269.6880058408575
 73
     1
 72
     1
 10
-46.44727950809346
 20
5.216043241299131
 11
-45.77623248100088
 21
5.216043241299131
 72
     1
 10
-45.77623248100088
 20
5.216043241299131
 11
-45.77623248100088
 21
4.789224341299116
 72
     1
 10
-45.77623248100088
 20
4.789224341299116
 11
-46.44661545390414
 21
4.789224341299116
 72
     2
 10
-46.44694748100089
 20
4.728250241299133
 40
0.0609750040000076
 50
89.68800583691161
 51
179.671202000455
 73
     1
 72
     1
 10
-46.50792148100089
 20
4.728600151004001
 11
-46.50792148100089
 21
2.411198541299156
 72
     2
 10
-46.44692148100086
 20
2.41119854129917
 40
0.0610000000000213
 50
180.0000000000133
 51
270.0000000000134
 73
     1
 72
     1
 10
-46.44692148100086
 20
2.350198541299149
 11
-45.47136148100088
 21
2.350198541299149
 72
     1
 10
-45.47136148100088
 20
2.350198541299149
 11
-45.47136148100088
 21
1.862405541299138
 72
     1
 10
-45.47136148100088
 20
1.862405541299138
 11
-48.39815048100092
 21
1.862405541299138
 97
        1
330
51ACF
 75
     0
 76
     1
 98
        1
 10
-11.52273983372674
 20
-102.7401946664322
  0
LWPOLYLINE
  5
51AC1
102
{ACAD_REACTORS
330
51AC0
102
}
330
51A86
100
AcDbEntity
  8
hyomoji
  6
Continuous
100
AcDbPolyline
 90
       18
 70
   129
 43
0.0
 10
-52.87093633831881
 20
3.32584544129915
 10
-51.75916059699716
 20
3.32584544129915
 10
-51.20585795859813
 20
2.313705249298506
 42
-0.56960330458711
 10
-51.47347969807253
 20
1.862405541299138
 10
-55.4447130530363
 20
1.862405541299138
 42
-0.569603703070891
 10
-55.71233461644306
 20
2.313705571373431
 10
-55.07504248299546
 20
3.479481935284296
 42
0.569603703070901
 10
-55.12856679567676
 20
3.569741941299155
 10
-55.9590634810009
 20
3.569741941299155
 10
-55.9590634810009
 20
4.057534941299137
 10
-50.95909348100088
 20
4.057534941299137
 10
-50.95909348100088
 20
3.569741941299155
 10
-53.87771688642391
 20
3.569741941299155
 42
0.2742066828570859
 10
-53.9312411663634
 20
3.538002007207409
 10
-54.53123414632449
 20
2.440458607207417
 42
0.569604073583639
 10
-54.47770986638494
 20
2.350198541299149
 10
-52.44044865694786
 20
2.350198541299149
 42
0.5696036141370885
 10
-52.38692433640756
 20
2.440458532937852
  0
LWPOLYLINE
  5
51AC2
102
{ACAD_REACTORS
330
51AC0
102
}
330
51A86
100
AcDbEntity
  8
hyomoji
  6
Continuous
100
AcDbPolyline
 90
       12
 70
   129
 43
0.0
 10
-55.34929148100093
 20
4.423379641299162
 10
-55.34929148100093
 20
4.698244640018955
 42
0.4422835312456968
 10
-55.4160703179266
 20
4.758970293937109
 10
-55.95854716663592
 20
4.707346555988094
 10
-54.87947905250138
 20
6.294209984463349
 42
-0.251104977230494
 10
-54.62846498318532
 20
6.435525641299121
 10
-52.30232298318532
 20
6.435525641299121
 42
-0.2453004937928962
 10
-52.0495361909027
 20
6.310161523207511
 10
-50.95974050063467
 20
4.70752028219806
 10
-51.50208659474504
 20
4.759132021705652
 42
0.4422837740584967
 10
-51.56886548100089
 20
4.698406372481911
 10
-51.56886548100089
 20
4.423379641299162
  0
LWPOLYLINE
  5
51AC3
102
{ACAD_REACTORS
330
51AC0
102
}
330
51A86
100
AcDbEntity
  8
hyomoji
  6
Continuous
100
AcDbPolyline
 90
       43
 70
   129
 43
0.0
 10
-59.49559248100093
 20
2.459460770658238
 42
0.4538928057970519
 10
-59.40002856816966
 20
2.373539142465204
 10
-58.21513648100091
 20
2.655656541307449
 10
-58.21513648100091
 20
2.166874593013146
 10
-59.97605424750162
 20
1.923989054180878
 10
-61.20289848100089
 20
1.862646641298481
 10
-61.20289848100089
 20
2.350198541299149
 10
-60.41026148100087
 20
2.350198541299149
 42
0.4142135623730951
 10
-60.34926148100089
 20
2.411198541299156
 10
-60.34926148100089
 20
4.17983305100398
 42
0.4109416450539176
 10
-60.40990345391247
 20
4.240457241299153
 10
-61.20289848100089
 20
4.240457241299153
 10
-61.20289848100089
 20
4.667276141299125
 10
-58.47201198712764
 20
4.667276141299125
 42
0.4890132124780574
 10
-58.35375899315687
 20
4.819279964671365
 10
-58.48916922335632
 20
5.352967452985267
 42
0.3431714260423211
 10
-58.54829572034168
 20
5.398965541299147
 10
-61.20289848100089
 20
5.398965541299147
 10
-61.20289848100089
 20
5.825784441299133
 10
-58.76596001972183
 20
5.825784441299133
 42
0.4890148091784922
 10
-58.64770718039967
 20
5.977788874175685
 10
-58.76384927206533
 20
6.435525641299121
 10
-57.91020861058473
 20
6.435525641299121
 10
-57.76716777773612
 20
5.87178207598822
 42
0.3431692821353876
 10
-57.70804139584885
 20
5.825784441299133
 10
-57.23957148100095
 20
5.825784441299133
 42
0.4142135623730951
 10
-57.11757148100094
 20
5.947784441299147
 10
-57.11757148100094
 20
6.435525641299121
 10
-56.32490848100087
 20
6.435525641299121
 10
-56.32490848100087
 20
5.835573103868767
 42
-0.3824524618302969
 10
-56.7068615190268
 20
5.398965541299147
 10
-57.56853345391249
 20
5.398965541299147
 42
0.4790978957378951
 10
-57.62848939861356
 20
5.325226663145385
 10
-56.8853024185089
 20
2.396196312671945
 42
0.3431699281256741
 10
-56.82617600194055
 20
2.350198541299149
 10
-56.32490848100087
 20
2.350198541299149
 10
-56.32490848100087
 20
1.862313411481465
 10
-57.3029635753897
 20
1.908396245450403
 42
-0.3300656182922443
 10
-57.6967519167186
 20
2.229907493828249
 10
-58.19522029465185
 20
4.194459465683492
 42
0.3431699481782171
 10
-58.25434671229681
 20
4.240457241299153
 10
-59.43495050808934
 20
4.240457241299153
 42
0.4109416450539143
 10
-59.49559248100093
 20
4.17983305100398
  0
LWPOLYLINE
  5
51AC4
102
{ACAD_REACTORS
330
51AC0
102
}
330
51A86
100
AcDbEntity
  8
hyomoji
  6
Continuous
100
AcDbPolyline
 90
       70
 70
   128
 43
0.0
 10
-62.67018979441809
 20
3.011012564593982
 42
0.8374115646471505
 10
-62.78825648100087
 20
2.989252931594278
 10
-62.78825648100087
 20
1.862405541299138
 10
-63.64189448100091
 20
1.862405541299138
 10
-63.64189448100091
 20
2.97177701961047
 42
0.8134131176983945
 10
-63.75883575443237
 20
2.996099312406754
 10
-64.25174608969655
 20
1.862405541299138
 10
-64.86139895336487
 20
1.862405541299138
 10
-63.90864895294914
 20
4.156057205292952
 42
0.534832613937013
 10
-63.96498223187831
 20
4.240457241299153
 10
-64.72066345391249
 20
4.240457241299153
 42
0.5537200791098316
 10
-64.77599174539887
 20
4.153151373127101
 10
-64.43432036448945
 20
3.53289303306684
 10
-64.98318196062911
 20
3.569484639619814
 10
-65.06457835488749
 20
3.752614298647173
 42
0.810044809672172
 10
-65.2272514810009
 20
3.718090604178526
 10
-65.2272514810009
 20
1.862405541299138
 10
-66.01991548100091
 20
1.862405541299138
 10
-66.01991548100091
 20
3.180389201155022
 42
0.8775035382925871
 10
-66.09266612073515
 20
3.189922918089734
 10
-66.20279949565958
 20
2.776931989513939
 10
-66.69079791063558
 20
2.715931687446754
 10
-66.0423487498785
 20
4.89707424830621
 42
0.4860089347694501
 10
-66.10200350808923
 20
4.972146741299154
 10
-66.56871348100088
 20
4.972146741299154
 10
-66.56871348100088
 20
5.398965541299147
 10
-66.08057635616257
 20
5.398965541299147
 42
0.4143902720061034
 10
-66.01991548100091
 20
5.46028965100396
 10
-66.01991548100091
 20
6.435525641299121
 10
-65.2272514810009
 20
6.435525641299121
 10
-65.2272514810009
 20
5.46028965100396
 42
0.4174020605283751
 10
-65.16596435616259
 20
5.398965541299147
 10
-65.01326412084137
 20
5.398965541299147
 42
0.2351357873419996
 10
-64.81918554624172
 20
5.496881275683761
 10
-64.80043248100088
 20
5.520991826785887
 10
-64.80043248100088
 20
4.972146741299154
 10
-65.12440350808924
 20
4.972146741299154
 42
0.5903409348321763
 10
-65.17547876299079
 20
4.878381751234782
 10
-64.90594841597351
 20
4.389080222085936
 42
0.7474984379804729
 10
-64.86140748100092
 20
4.403395270373322
 10
-64.86140748100092
 20
4.667276141299125
 10
-63.7025364539125
 20
4.667276141299125
 42
0.4142994654112848
 10
-63.64189448100091
 20
4.728600151004001
 10
-63.64189448100091
 20
5.338341351003974
 42
0.4109416450539159
 10
-63.7025364539125
 20
5.398965541299147
 10
-64.28611254821658
 20
5.398965541299147
 42
-0.3758657869825331
 10
-64.86140748100092
 20
5.825895954227205
 10
-64.86140748100092
 20
6.435525641299121
 10
-64.06874348100086
 20
6.435525641299121
 10
-64.06874348100086
 20
5.88678444129914
 42
0.4142135623730951
 10
-64.00774348100083
 20
5.825784441299133
 10
-63.7028944810009
 20
5.825784441299133
 42
0.4142135623730951
 10
-63.64189448100091
 20
5.88678444129914
 10
-63.64189448100091
 20
6.435525641299121
 10
-62.78825648100087
 20
6.435525641299121
 10
-62.78825648100087
 20
5.88678444129914
 42
0.4142135623730951
 10
-62.72725648100084
 20
5.825784441299133
 10
-61.69069148100089
 20
5.825784441299133
 10
-61.69069148100089
 20
5.398965541299147
 10
-62.72761450808928
 20
5.398965541299147
 42
0.4142994654112848
 10
-62.78825648100087
 20
5.337641531594271
 10
-62.78825648100087
 20
4.727900331594297
 42
0.414127664552564
 10
-62.72695045391248
 20
4.667276141299125
 10
-61.69069148100089
 20
4.667276141299125
 10
-61.69069148100089
 20
4.240457241299153
 10
-62.46552950808933
 20
4.240457241299153
 42
0.5442124499672577
 10
-62.52066721478428
 20
4.154163983595878
 10
-61.56870695644437
 20
1.862405541299138
 10
-62.23946240602021
 20
1.862405541299138
 10
-62.67018940675479
 20
3.011012709967501
  0
LWPOLYLINE
  5
51AC5
102
{ACAD_REACTORS
330
51AC0
102
}
330
51A86
100
AcDbEntity
  8
hyomoji
  6
Continuous
100
AcDbPolyline
 90
        8
 70
   129
 43
0.0
 10
-54.74620849627121
 20
4.91117264129913
 42
-0.6021429256477856
 10
-54.79665095182571
 20
5.006473642416223
 10
-54.19290315928896
 20
5.894334643533325
 42
-0.2483280785897051
 10
-54.09201824818007
 20
5.947732641299139
 10
-52.82622506559921
 20
5.947732641299139
 42
-0.2483286500869998
 10
-52.72534000677615
 20
5.894334426307039
 10
-52.12159508384053
 20
5.006473533803073
 42
-0.6021421921708056
 10
-52.17203761325203
 20
4.91117264129913
  0
HATCH
  5
51AC6
330
51A86
100
AcDbEntity
  8
hyomoji
  6
Continuous
100
AcDbHatch
 10
0.0
 20
0.0
 30
0.0
210
0.0
220
0.0
230
1.0
  2
SOLID
 70
     1
 71
     0
 91
        4
 92
        7
 72
     1
 73
     1
 93
       43
 10
-22.11793748100092
 20
6.499690141703793
 42
0.4111374742261061
 10
-22.72439800153092
 20
7.106302041299144
 42
0.0
 10
-27.29807791691263
 20
7.106302041299144
 42
0.2403459008079904
 10
-27.49562285561598
 20
7.005522141818203
 42
0.0
 10
-28.4104861288638
 20
5.743641940780107
 42
-0.2403459008080008
 10
-28.60803106756714
 20
5.642862041299152
 42
0.0
 10
-29.1910274810009
 20
5.642862041299152
 42
0.0
 10
-29.1910274810009
 20
4.667276141299139
 42
0.0
 10
-27.92468042540406
 20
4.667276141299125
 42
0.0806114902716036
 10
-27.53888292527296
 20
4.729882392874414
 42
0.0
 10
-27.08175505243935
 20
4.882258186176811
 42
-0.5451163426399201
 10
-26.99592848100087
 20
4.826227931606296
 42
0.0
 10
-26.99592848100087
 20
3.935586641299152
 42
0.0
 10
-25.50918792204959
 20
3.935586641299152
 42
-0.138003835399446
 10
-25.38195389927228
 20
3.89978727397809
 42
0.0
 10
-24.5803232616978
 20
3.409900718458287
 42
-0.4326750878113164
 10
-24.54402492762563
 20
3.235793804276595
 42
-0.0138047286378493
 10
-24.6193294810011
 20
3.134393041298848
 42
-0.0137524420014467
 10
-24.69896648100974
 20
3.038389741288994
 42
-0.0137524419982802
 10
-24.7829694809995
 20
2.947682641300544
 42
-0.0137524419997905
 10
-24.87108348099804
 20
2.862546141301733
 42
-0.0137524420004081
 10
-24.96304348100068
 20
2.78323764129925
 42
-0.0137524420000229
 10
-25.05857048100086
 20
2.709997041299103
 42
-0.0137524419998802
 10
-25.15737548100003
 20
2.643046041299682
 42
-0.0137524420001772
 10
-25.25915948100129
 20
2.5825871412989
 42
-0.0137524419999723
 10
-25.36361548100109
 20
2.528803041299013
 42
-0.0137524419999808
 10
-25.47042648100097
 20
2.481856641299073
 42
-0.0137524419999774
 10
-25.57927048100078
 20
2.441889841299171
 42
-0.0137524420001314
 10
-25.68981748100185
 20
2.409023541298878
 42
-0.0137524419994291
 10
-25.80173248099721
 20
2.383357241299861
 42
-0.0137524420005571
 10
-25.91467748100177
 20
2.364968441299025
 42
-0.0137524419998892
 10
-26.02831248100085
 20
2.353912941299141
 42
-0.0162900486309537
 10
-26.16330263573963
 20
2.350198541299149
 42
0.0
 10
-28.9471304810009
 20
2.350198541299149
 42
0.0
 10
-28.9471304810009
 20
1.374612541299142
 42
0.0
 10
-25.16680452813285
 20
1.374612541299128
 42
0.2200765101082553
 10
-22.84327469333408
 20
2.449375950176828
 42
-0.2394335662263612
 10
-22.79295559891625
 20
2.472146741299154
 42
0.0
 10
-21.99598948100089
 20
2.472146741299169
 42
0.0
 10
-21.99598948100089
 20
3.447793741299164
 42
0.0
 10
-22.19417445390275
 20
3.447793741299149
 42
-0.5132470832222941
 10
-22.25237623922618
 20
3.527978312291394
 42
0.0739209250258662
 10
-22.11793748100092
 20
4.414408195970607
 42
0.0
 97
        0
 92
       22
 72
     1
 73
     1
 93
       26
 10
-26.09950634785406
 20
6.022513887169437
 42
-0.2516647099568892
 10
-25.89552812083991
 20
6.130716041299122
 42
0.0
 10
-24.3143468411605
 20
6.130716041299122
 42
-0.4174725427475722
 10
-24.06914048100089
 20
5.885419205627925
 42
0.0
 10
-24.06914048100089
 20
4.789224341305724
 42
-0.0027675332005065
 10
-24.06926748100085
 20
4.762224941300785
 42
-0.0027675332004232
 10
-24.06964848100091
 20
4.735228841296659
 42
-0.0027675331991665
 10
-24.07028348100073
 20
4.708239341304788
 42
-0.0027675332011284
 10
-24.07117248100104
 20
4.681259741293785
 42
-0.0027675331987053
 10
-24.07231548100055
 20
4.654293341306398
 42
-0.0027675332009155
 10
-24.07371148100094
 20
4.627343541297476
 42
-0.0027675332009985
 10
-24.07536148100161
 20
4.600413541287777
 42
-0.0027675331989814
 10
-24.07726448100101
 20
4.573506741297676
 42
-0.0027675331994423
 10
-24.07942148100057
 20
4.5466262413031
 42
-0.0027675332005088
 10
-24.08183048100096
 20
4.519775641298152
 42
-0.0027675331980663
 10
-24.08449148099902
 20
4.492957941316887
 42
-0.0027675332031634
 10
-24.08740548100235
 20
4.466176641286266
 42
-0.0027675331997102
 10
-24.09057148100209
 20
4.439434841289084
 42
-0.0027675331989405
 10
-24.09398848100085
 20
4.412735941299316
 42
-0.0027675331998098
 10
-24.09765648100057
 20
4.386083141301141
 42
-0.002637305733349
 10
-24.10138351745263
 20
4.360730681618632
 42
-0.5743107685812884
 10
-24.19843215589316
 20
4.319786042922884
 42
0.0
 10
-25.10757501850236
 20
4.875373403082348
 42
0.1380035768931384
 10
-25.23480883001833
 20
4.91117264129913
 42
0.0
 10
-26.78554445391336
 20
4.91117264129913
 42
-0.6376639659024507
 10
-26.83273294813051
 20
5.011164975509998
 42
0.0
 97
        0
 92
        7
 72
     1
 73
     1
 93
       16
 10
-15.0448174810009
 20
6.748873848172563
 42
0.0309163692554858
 10
-15.0481645298272
 20
6.793927975883547
 42
0.0488070742210316
 10
-15.06231925804786
 20
6.863064660102408
 42
0.0484601911608653
 10
-15.08713727771453
 20
6.927104619488772
 42
0.0458520337274189
 10
-15.11960667549857
 20
6.981258304011375
 42
0.0419710568843188
 10
-15.15596848100063
 20
7.023648441298845
 42
0.0245951490011407
 10
-15.18002348100174
 20
7.045024941299828
 42
0.0245951490002321
 10
-15.20571948100206
 20
7.063457141299877
 42
0.0245951489982075
 10
-15.23280648100007
 20
7.078766841298757
 42
0.0245951490009266
 10
-15.26102348100113
 20
7.090806141299252
 42
0.0245951489995659
 10
-15.29009848100065
 20
7.099458641299078
 42
0.0245951490006515
 10
-15.3197484810014
 20
7.104640641299197
 42
0.0245951489987076
 10
-15.34968848099981
 20
7.106302041299144
 42
0.0
 10
-20.77647648100094
 20
7.106302041299144
 42
0.0
 10
-20.77647648100094
 20
6.069680941299153
 42
0.0
 10
-15.0448174810009
 20
6.069680941299153
 42
0.0
 97
        0
 92
        7
 72
     1
 73
     1
 93
       16
 10
-14.43507648100092
 20
2.480563253336781
 42
0.0308838912040585
 10
-14.43841708646312
 20
2.525570233433284
 42
0.0488395343566829
 10
-14.4525786036657
 20
2.594753617348614
 42
0.0485095197191555
 10
-14.47742598987509
 20
2.658855853719784
 42
0.0458606787790824
 10
-14.50991317401207
 20
2.713012694748157
 42
0.0419109682859432
 10
-14.54622648100121
 20
2.755337941299472
 42
0.0245951490000142
 10
-14.5702824810013
 20
2.776714341299437
 42
0.0245951490006883
 10
-14.59597748100208
 20
2.795146541299884
 42
0.0245951489991911
 10
-14.62306548100122
 20
2.810456341299285
 42
0.0245951489998262
 10
-14.65128248100103
 20
2.822495641299155
 42
0.0245951489996845
 10
-14.68035648100067
 20
2.831148041299072
 42
0.0245951489998894
 10
-14.71000748100056
 20
2.836330041299063
 42
0.0245951490034687
 10
-14.73994748100477
 20
2.837991441299123
 42
0.0
 10
-21.26426948100089
 20
2.837991441299123
 42
0.0
 10
-21.26426948100089
 20
1.496560841299142
 42
0.0
 10
-14.43507648100092
 20
1.496560841299156
 42
0.0
 97
        0
 75
     0
 76
     1
 47
0.0683084432309891
 98
        5
 10
-11.52273983372674
 20
-102.7401946664322
 10
-27.37847390351385
 20
5.738428971873815
 10
-27.37847390351385
 20
5.738428971873815
 10
-18.42237831150396
 20
6.489822440394219
 10
-18.2856441113986
 20
2.254698718094743
  0
LWPOLYLINE
  5
51AC7
330
51A86
100
AcDbEntity
  8
hyomoji
  6
Continuous
100
AcDbPolyline
 90
       21
 70
   128
 43
0.0
 10
-21.26426948100089
 20
2.837991441299123
 10
-14.74376200274577
 20
2.837991441299123
 42
-0.0277241649809473
 10
-14.7100074810009
 20
2.836330041299105
 42
-0.0245951490000116
 10
-14.68035648100084
 20
2.831148041299129
 42
-0.0245951489999535
 10
-14.65128248100092
 20
2.822495641299112
 42
-0.0245951490000357
 10
-14.62306548100088
 20
2.810456341299114
 42
-0.0245951489999617
 10
-14.59597748100089
 20
2.795146541299145
 42
-0.024595149000028
 10
-14.5702824810009
 20
2.77671434129911
 42
-0.0245951489999838
 10
-14.54622648100087
 20
2.755337941299131
 42
-0.0245951490000106
 10
-14.52404448100088
 20
2.731223841299111
 42
-0.0245951489999761
 10
-14.50394848100092
 20
2.704605241299147
 42
-0.0245951490000292
 10
-14.48613448100087
 20
2.675739441299113
 42
-0.0245951489999958
 10
-14.47077348100089
 20
2.644905441299115
 42
-0.0245951489999834
 10
-14.45801548100092
 20
2.61240154129912
 42
-0.0245951490000133
 10
-14.4479824810009
 20
2.57854164129911
 42
-0.0245951489999937
 10
-14.44077148100092
 20
2.54365324129911
 42
-0.0245951490001447
 10
-14.43645348100091
 20
2.508073641298905
 42
-0.0188381928052038
 10
-14.43507648100092
 20
2.480563253336753
 10
-14.43507648100092
 20
1.496560841299142
 10
-21.26426948100089
 20
1.496560841299142
 10
-21.26426948100089
 20
2.838052541299119
  0
HATCH
  5
51AC8
330
51A86
100
AcDbEntity
  8
hyomoji
  6
Continuous
100
AcDbHatch
 10
0.0
 20
0.0
 30
0.0
210
0.0
220
0.0
230
1.0
  2
SOLID
 70
     1
 71
     0
 91
        1
 92
        7
 72
     1
 73
     1
 93
       45
 10
-31.50807448100091
 20
7.106302041299129
 42
0.0
 10
-37.11778548100091
 20
7.106302041299144
 42
0.0
 10
-37.11778548100091
 20
6.130716041299108
 42
0.0
 10
-32.60586748100093
 20
6.130716041299122
 42
-0.4142135623730968
 10
-31.99586748100092
 20
5.520716041299123
 42
0.0
 10
-31.99586748100092
 20
4.301198541299156
 42
-0.4142135623730962
 10
-33.94686748100088
 20
2.350198541299149
 42
0.0
 10
-36.75194048100093
 20
2.350198541299163
 42
0.0
 10
-36.75194048100093
 20
1.374612541299113
 42
0.0
 10
-33.21568788868888
 20
1.374612541299128
 42
0.0245738278589854
 10
-32.91655048100114
 20
1.393407841299079
 42
0.0245486219999894
 10
-32.62059848100125
 20
1.449600241299022
 42
0.0245486220000304
 10
-32.33037448100089
 20
1.542652741299121
 42
0.0245486220000232
 10
-32.04867448100066
 20
1.671669241299254
 42
0.0245486219999824
 10
-31.77820948100083
 20
1.83540724129915
 42
0.0245486220000847
 10
-31.52158548099999
 20
2.03228984129987
 42
0.0245486220001661
 10
-31.28127348099855
 20
2.26042084130158
 42
0.0245486219995206
 10
-31.05958848100289
 20
2.517603341296562
 42
0.0245486220002942
 10
-30.8586644810004
 20
2.801360541299898
 42
0.0245486219999203
 10
-30.68043648100098
 20
3.108959741298902
 42
0.0245486220000126
 10
-30.52662248100091
 20
3.437438441299049
 42
0.0245486220000909
 10
-30.3987024810005
 20
3.783633241300349
 42
0.0245486219998644
 10
-30.29790848100106
 20
4.144210241298366
 42
0.0245486220000773
 10
-30.22521048100083
 20
4.515696741299534
 42
0.0245486219999914
 10
-30.18131048100088
 20
4.894515141299407
 42
0.0244511737842523
 10
-30.16661348100092
 20
5.275497923116488
 42
0.0
 10
-30.16661348100092
 20
5.886716041299123
 42
0.4142135623730951
 10
-30.4106134810009
 20
6.130716041299122
 42
0.0
 10
-31.25512384264875
 20
6.130716041299122
 42
-0.0338910150518635
 10
-31.28814548100093
 20
6.132342441299129
 42
-0.024611360000011
 10
-31.31188148100091
 20
6.137494441299153
 42
-0.0246113599999024
 10
-31.33515548100087
 20
6.146122041299093
 42
-0.0246113599996793
 10
-31.35774148100058
 20
6.158141841298927
 42
-0.0246113600007094
 10
-31.37942348100114
 20
6.173437441299355
 42
-0.0246113600001381
 10
-31.39998848100123
 20
6.191860741299506
 42
-0.0281712769884098
 10
-31.42184532635571
 20
6.216476553006116
 42
-0.0211922032231682
 10
-31.43698948100149
 20
6.23734894130004
 42
-0.0246113599990504
 10
-31.45306648100086
 20
6.263973341299048
 42
-0.0246113600001016
 10
-31.46731548100087
 20
6.292849241299165
 42
-0.0246113599999766
 10
-31.47959848100089
 20
6.323696941299131
 42
-0.0246113599999236
 10
-31.48979548100084
 20
6.356217941299035
 42
-0.0246113600000503
 10
-31.49780848100085
 20
6.390097441299103
 42
-0.0246113600000346
 10
-31.50356048100088
 20
6.425007441299157
 42
-0.0246113599999966
 10
-31.50699548100084
 20
6.460610141299141
 42
-0.0247875348888672
 10
-31.50807448100091
 20
6.496818253583739
 42
0.0
 97
        0
 75
     0
 76
     1
 47
0.0219243262339325
 98
        1
 10
-34.88913805847534
 20
6.515773347131555
  0
HATCH
  5
51AC9
330
51A86
100
AcDbEntity
  8
hyomoji
  6
Continuous
100
AcDbHatch
 10
0.0
 20
0.0
 30
0.0
210
0.0
220
0.0
230
1.0
  2
SOLID
 70
     1
 71
     1
 91
        5
 92
       17
 93
       24
 72
     1
 10
-40.41062948100085
 20
1.374612541299128
 11
-44.31282348100092
 21
1.374612541299128
 72
     1
 10
-44.31282348100092
 20
1.374612541299128
 11
-44.31282348100092
 21
2.350198541299149
 72
     1
 10
-44.31282348100092
 20
2.350198541299149
 11
-41.32485848100083
 21
2.350198541299149
 72
     2
 10
-41.32485848100085
 20
4.301198541299135
 40
1.950999999999986
 50
270.0000000000006
 51
360.0000000000006
 73
     1
 72
     1
 10
-39.37385848100087
 20
4.301198541299156
 11
-39.37385848100087
 21
5.764871341299126
 72
     1
 10
-39.37385848100087
 20
5.764871341299126
 11
-37.72866439050967
 21
5.764871341299126
 72
     2
 10
-37.73350367664755
 20
5.520648870554699
 40
0.2442704114436222
 50
271.1351715111995
 51
277.0274425571937
 73
     0
 72
     2
 10
-37.74539953794738
 20
5.519484552045805
 40
0.2471567626505262
 50
279.732401952073
 51
285.3577006019165
 73
     0
 72
     2
 10
-37.75712391558223
 20
5.517149106257369
 40
0.2527400033570294
 50
287.781191900676
 51
293.4064905505137
 73
     0
 72
     2
 10
-37.76856239131908
 20
5.513679401613123
 40
0.260627714642242
 50
295.4115667719504
 51
301.0368654217817
 73
     0
 72
     2
 10
-37.77960674183728
 20
5.509104447762097
 40
0.2703354172792714
 50
302.5427679199386
 51
308.1680665697771
 73
     0
 72
     2
 10
-37.79014888556903
 20
5.503464799974072
 40
0.2813250534777913
 50
309.1463353383185
 51
314.7716339881506
 73
     0
 72
     2
 10
-37.8000880244567
 20
5.496831713512613
 40
0.2930436766167751
 50
315.2378398774451
 51
320.8631385272775
 73
     0
 72
     2
 10
-37.80932816166755
 20
5.489234253298037
 40
0.3050060338686421
 50
320.8517256794308
 51
326.4770243292667
 73
     0
 72
     2
 10
-37.81777963703735
 20
5.480789797403753
 40
0.3167242439167999
 50
326.0478621995592
 51
331.673160849394
 73
     0
 72
     2
 10
-37.82536271566213
 20
5.471549229170365
 40
0.327815325652672
 50
330.8803509734951
 51
336.5056496233285
 73
     0
 72
     2
 10
-37.83200357018162
 20
5.461616713515648
 40
0.3379271164879645
 50
335.4100021712468
 51
341.0353008210853
 73
     0
 72
     2
 10
-37.83763836937544
 20
5.451065729395722
 40
0.3467806841550121
 50
339.6891075424539
 51
345.3144061922893
 73
     0
 72
     2
 10
-37.84221227816173
 20
5.440017687344448
 40
0.3541341989384887
 50
343.7727442892093
 51
349.3980429390439
 73
     0
 72
     2
 10
-37.84568097531713
 20
5.428588193506784
 40
0.3598025996588388
 50
347.7104370894088
 51
353.3357357392449
 73
     0
 72
     2
 10
-37.84801274207382
 20
5.416863545263725
 40
0.3636572113879826
 50
351.5432904195479
 51
357.1685890693863
 73
     0
 72
     2
 10
-37.84918440896014
 20
5.404958544376682
 40
0.3656070496854689
 50
355.3139314942612
 51
360.9674864795958
 73
     0
 72
     1
 10
-37.48362948100089
 20
5.398785261261592
 11
-37.48362948100089
 21
4.301612541299134
 72
     2
 10
-40.41062948100087
 20
4.301612541299113
 40
2.926999999999985
 50
359.9999999999996
 51
449.9999999999996
 73
     0
 97
        1
330
51ACC
 92
       16
 93
        4
 72
     1
 10
-44.31282348100092
 20
4.301431441299114
 11
-44.31282348100092
 21
5.337991441299123
 72
     1
 10
-44.31282348100092
 20
5.337991441299123
 11
-39.80067748100089
 21
5.337991441299123
 72
     1
 10
-39.80067748100089
 20
5.337991441299123
 11
-39.80067748100089
 21
4.301431441299114
 72
     1
 10
-39.80067748100089
 20
4.301431441299114
 11
-44.31282348100092
 21
4.301431441299114
 97
        1
330
51ACD
 92
        1
 93
        8
 72
     2
 10
-31.0812034810009
 20
6.557525641299128
 40
0.122000000000007
 50
89.99999999999664
 51
179.9999999999966
 73
     0
 72
     1
 10
-31.20320348100091
 20
6.557525641299121
 11
-31.20320348100091
 21
7.350146741299155
 72
     2
 10
-31.0812034810009
 20
7.350146741299148
 40
0.122000000000007
 50
180.0000000000033
 51
270.0000000000033
 73
     0
 72
     1
 10
-31.0812034810009
 20
7.472146741299155
 11
-30.28861348100094
 21
7.472146741299155
 72
     2
 10
-30.28861348100093
 20
7.350146741299148
 40
0.122000000000007
 50
269.9999999999966
 51
359.9999999999966
 73
     0
 72
     1
 10
-30.16661348100092
 20
7.350146741299155
 11
-30.16661348100092
 21
6.557525641299121
 72
     2
 10
-30.28861348100093
 20
6.557525641299128
 40
0.122000000000007
 50
0.0000000000033587
 51
90.00000000000335
 73
     0
 72
     1
 10
-30.28861348100094
 20
6.435525641299121
 11
-31.0812034810009
 21
6.435525641299121
 97
        1
330
51AD4
 92
        1
 93
        8
 72
     2
 10
-29.67876848100088
 20
6.557525641299128
 40
0.122000000000007
 50
89.99999999999664
 51
179.9999999999966
 73
     0
 72
     1
 10
-29.80076848100089
 20
6.557525641299121
 11
-29.80076848100089
 21
7.350146741299155
 72
     2
 10
-29.67876848100088
 20
7.350146741299148
 40
0.122000000000007
 50
180.0000000000033
 51
270.0000000000033
 73
     0
 72
     1
 10
-29.67876848100087
 20
7.472146741299155
 11
-28.88617848100086
 21
7.472146741299155
 72
     2
 10
-28.88617848100088
 20
7.350146741299177
 40
0.1219999999999786
 50
270.00000000001
 51
360.00000000001
 73
     0
 72
     1
 10
-28.7641784810009
 20
7.350146741299155
 11
-28.7641784810009
 21
6.557525641299121
 72
     2
 10
-28.88617848100088
 20
6.5575256412991
 40
0.1219999999999786
 50
359.99999999999
 51
449.9999999999899
 73
     0
 72
     1
 10
-28.88617848100086
 20
6.435525641299121
 11
-29.67876848100087
 21
6.435525641299121
 97
        1
330
51AD3
 92
       33
 93
       65
 72
     2
 10
-40.15955403217664
 20
6.7408092919751
 40
0.3655642531807597
 50
268.9079085784473
 51
274.5472783620653
 73
     0
 72
     2
 10
-40.14763822412966
 20
6.742072451993011
 40
0.3635512054363512
 50
272.6907127711501
 51
278.3300825547625
 73
     0
 72
     2
 10
-40.1359043625413
 20
6.744514370272779
 40
0.3596113094173716
 50
276.5363585297269
 51
282.1757283133398
 73
     0
 72
     2
 10
-40.12446857838511
 20
6.748088080990185
 40
0.35385965084628
 50
280.48753408145
 51
286.1269038650641
 73
     0
 72
     2
 10
-40.11343850263419
 20
6.752778970082953
 40
0.3464142485698674
 50
284.5896776688345
 51
290.2290474524438
 73
     0
 72
     2
 10
-40.10292294837059
 20
6.758533112938499
 40
0.3374709780506084
 50
288.8915190653625
 51
294.5308888489795
 73
     0
 72
     2
 10
-40.09302285008405
 20
6.765276577914749
 40
0.3272846928118226
 50
293.444251251041
 51
299.0836210346574
 73
     0
 72
     2
 10
-40.08383483954716
 20
6.772965135123369
 40
0.3161285569237874
 50
298.3056685439535
 51
303.9450383275652
 73
     0
 72
     2
 10
-40.07544568511781
 20
6.78153239764952
 40
0.3043446755875352
 50
303.5354792677978
 51
309.1748490514095
 73
     0
 72
     2
 10
-40.06793845866753
 20
6.79086806802656
 40
0.2923652372842618
 50
309.1900320635539
 51
314.8294018471675
 73
     0
 72
     2
 10
-40.06138697488218
 20
6.800907504062979
 40
0.2806369267863284
 50
315.3258135433781
 51
320.965183326995
 73
     0
 72
     2
 10
-40.05585176090673
 20
6.811528701260873
 40
0.2696903073535069
 50
321.9773747645569
 51
327.6167445481712
 73
     0
 72
     2
 10
-40.0513897232835
 20
6.822662012156957
 40
0.2600539621514557
 50
329.1618629455981
 51
334.8012327292105
 73
     0
 72
     2
 10
-40.04803946583914
 20
6.834156273460845
 40
0.252288388816013
 50
336.8397010734225
 51
342.4790708570335
 73
     0
 72
     2
 10
-40.04583754767341
 20
6.845939084194249
 40
0.2468678889690294
 50
344.9337820978299
 51
350.5731518814466
 73
     0
 72
     2
 10
-40.04480375552435
 20
6.857882582826594
 40
0.244168169641417
 50
353.299225470227
 51
358.9385952541413
 73
     0
 72
     1
 10
-39.80067748100089
 20
6.862405541297859
 11
-39.80067748100089
 21
6.069680941299167
 72
     1
 10
-39.80067748100089
 20
6.069680941299167
 11
-44.31282348100092
 21
6.069680941299167
 72
     1
 10
-44.31282348100092
 20
6.069680941299167
 11
-44.31282348100092
 21
7.106302041299144
 72
     1
 10
-44.31282348100092
 20
7.106302041299144
 11
-40.16652148100092
 21
7.106302041299144
 72
     2
 10
-31.14257467544607
 20
6.489589996947623
 40
0.3655712728793128
 50
178.9073972755287
 51
184.5467670591445
 73
     1
 72
     2
 10
-31.1438479872227
 20
6.477680079955248
 40
0.3635484631284685
 50
182.6912372584356
 51
188.3306070420467
 73
     1
 72
     2
 10
-31.14628660997418
 20
6.465945353190732
 40
0.3596116398956016
 50
186.5366781027052
 51
192.1760478863178
 73
     1
 72
     2
 10
-31.14986549657101
 20
6.454503727980221
 40
0.3538537694839348
 50
190.4870828575621
 51
196.1264526411781
 73
     1
 72
     2
 10
-31.15455165978465
 20
6.443474917404434
 40
0.3464133362656131
 50
194.5891964393065
 51
200.228566222925
 73
     1
 72
     2
 10
-31.16029859641006
 20
6.432967134548324
 40
0.3374794681642724
 50
198.8918738167613
 51
204.5312436003729
 73
     1
 72
     2
 10
-31.16704983279188
 20
6.423063690733709
 40
0.3272846808757174
 50
203.4446491229473
 51
209.0840189065599
 73
     1
 72
     2
 10
-31.17474351588014
 20
6.413870954318161
 40
0.3161217602481632
 50
208.3057667989053
 51
213.9451365825176
 73
     1
 72
     2
 10
-31.18330077664805
 20
6.405484945416437
 40
0.3043479498809704
 50
213.5350255565062
 51
219.1743953401192
 73
     1
 72
     2
 10
-31.19264248807965
 20
6.397978634141018
 40
0.2923644070848646
 50
219.1904466843832
 51
224.829816467998
 73
     1
 72
     2
 10
-31.20267709823703
 20
6.391419994125731
 40
0.2806344190524484
 50
225.3245190717162
 51
230.9638888553275
 73
     1
 72
     2
 10
-31.21330525166636
 20
6.385900057787067
 40
0.2696954384525926
 50
231.9792008406406
 51
237.6185706242575
 73
     1
 72
     2
 10
-31.22442638045165
 20
6.381419546999622
 40
0.2600497065895711
 50
239.1593346124937
 51
244.7987043961067
 73
     1
 72
     2
 10
-31.23593317386652
 20
6.378080256489138
 40
0.252288881695582
 50
246.8407272902829
 51
252.4800970738935
 73
     1
 72
     2
 10
-31.24771162389598
 20
6.375880568674586
 40
0.2468718620781297
 50
254.9339822484814
 51
260.5733520320987
 73
     1
 72
     2
 10
-31.25965116182473
 20
6.374836424767416
 40
0.2441623604154202
 50
263.2981767439606
 51
268.9375465275787
 73
     1
 72
     1
 10
-31.2641784810009
 20
6.130716041299122
 11
-30.4106134810009
 21
6.130716041299122
 72
     2
 10
-30.41061348100091
 20
5.886716041299137
 40
0.2439999999999856
 50
270.0000000000033
 51
360.0000000000033
 73
     0
 72
     1
 10
-30.16661348100092
 20
5.886716041299123
 11
-30.16661348100092
 21
5.27549792311636
 72
     2
 10
-34.06697557258851
 20
5.235185552063912
 40
3.900570411203132
 50
359.4078379314366
 51
365.0105178180954
 73
     0
 72
     2
 10
-34.05877333660366
 20
5.151908457652557
 40
3.885996592366323
 50
3.797830276358332
 51
9.422830251404647
 73
     0
 72
     2
 10
-34.04245020973237
 20
5.069854387286857
 40
3.857254184418337
 50
8.260058340267923
 51
13.88505831533831
 73
     0
 72
     2
 10
-34.01816222221169
 20
4.98977624775309
 40
3.815136926803983
 50
12.80505383335247
 51
18.43005380837197
 73
     0
 72
     2
 10
-33.98614101832333
 20
4.912471556376994
 40
3.760849797672591
 50
17.46692010976991
 51
23.0919200848462
 73
     0
 72
     2
 10
-33.94669826752666
 20
4.838677046888362
 40
3.695996214199022
 50
22.27939384303167
 51
27.90439381807504
 73
     0
 72
     2
 10
-33.90021327344463
 20
4.769117291290547
 40
3.622579976198314
 50
27.27620306789391
 51
32.90120304294526
 73
     0
 72
     2
 10
-33.84713174280935
 20
4.704432938925535
 40
3.542967841444326
 50
32.4892084948973
 51
38.11420846994886
 73
     0
 72
     2
 10
-33.78796601886075
 20
4.645263021544927
 40
3.459910360694612
 50
37.94803117320238
 51
43.57303114825342
 73
     0
 72
     2
 10
-33.72328608369366
 20
4.592186920112755
 40
3.376471323440532
 50
43.67703588161295
 51
49.3020358566643
 73
     0
 72
     2
 10
-33.65371618501446
 20
4.545699314799506
 40
3.295938185172603
 50
49.69198602774816
 51
55.3169860027992
 73
     0
 72
     2
 10
-33.57992376739414
 20
4.506259029124219
 40
3.22174233021855
 50
55.99702165353679
 51
61.62202162858774
 73
     0
 72
     2
 10
-33.50262008125396
 20
4.474228619015545
 40
3.15726097656203
 50
62.5800733401317
 51
68.20507331518276
 73
     0
 72
     2
 10
-33.42255006079529
 20
4.449949122417944
 40
3.105675408790454
 50
69.41045277538663
 51
75.03545275043833
 73
     0
 72
     2
 10
-33.3404857730268
 20
4.43362473195602
 40
3.069631879242297
 50
76.4367231923789
 51
82.06172316743341
 73
     0
 72
     2
 10
-33.25721629569448
 20
4.425424499997576
 40
3.051094593080625
 50
83.5893505936195
 51
89.22012384329049
 73
     0
 72
     1
 10
-33.21568788868956
 20
1.374612541299128
 11
-36.75194048100093
 21
1.374612541299128
 72
     1
 10
-36.75194048100093
 20
1.374612541299128
 11
-36.75194048100093
 21
2.350198541299149
 72
     1
 10
-36.75194048100093
 20
2.350198541299149
 11
-33.94686748100088
 21
2.350198541299149
 72
     2
 10
-33.9468674810009
 20
4.301198541299135
 40
1.950999999999986
 50
270.0000000000006
 51
360.0000000000006
 73
     1
 72
     1
 10
-31.99586748100092
 20
4.301198541299156
 11
-31.99586748100092
 21
5.520716041299123
 72
     2
 10
-32.60586748100092
 20
5.520716041299116
 40
0.6100000000000066
 50
0.0000000000006674
 51
90.00000000000067
 73
     1
 72
     1
 10
-32.60586748100093
 20
6.130716041299122
 11
-37.11778548100091
 21
6.130716041299122
 72
     1
 10
-37.11778548100091
 20
6.130716041299122
 11
-37.11778548100091
 21
7.106302041299144
 72
     1
 10
-37.11778548100091
 20
7.106302041299144
 11
-31.50807448100091
 21
7.106302041299144
 72
     1
 10
-31.50807448100091
 20
7.106302041299144
 11
-31.50807448100091
 21
6.496560841299113
 97
        2
330
51ACE
330
51ACA
 75
     0
 76
     1
 98
        1
 10
-11.52273983372674
 20
-102.7401946664322
  0
LWPOLYLINE
  5
51ACA
102
{ACAD_REACTORS
330
51AC9
102
}
330
51A86
100
AcDbEntity
  8
hyomoji
  6
Continuous
100
AcDbPolyline
 90
       46
 70
   128
 43
0.0
 10
-31.50807948100084
 20
6.496560841299113
 42
0.0246113600000082
 10
-31.50699548100084
 20
6.460610141299098
 42
0.0246113599999873
 10
-31.50356048100082
 20
6.425007441299128
 42
0.0246113599999939
 10
-31.49780848100085
 20
6.390097441299132
 42
0.0246113600000089
 10
-31.48979548100084
 20
6.35621794129912
 42
0.0246113600000195
 10
-31.47959848100089
 20
6.323696941299089
 42
0.0246113599999893
 10
-31.46731548100087
 20
6.292849241299108
 42
0.0246113599999934
 10
-31.45306648100086
 20
6.263973341299119
 42
0.0246113599999928
 10
-31.43698948100086
 20
6.237348941299116
 42
0.0246113599999958
 10
-31.41923948100083
 20
6.213233541299117
 42
0.0246113600000034
 10
-31.39998848100089
 20
6.191860741299108
 42
0.0246113599999883
 10
-31.37942348100086
 20
6.173437441299113
 42
0.0246113600000125
 10
-31.35774148100086
 20
6.158141841299126
 42
0.0246113599999954
 10
-31.33515548100087
 20
6.146122041299107
 42
0.024611359999985
 10
-31.31188148100085
 20
6.137494441299138
 42
0.024611360000015
 10
-31.28814548100087
 20
6.132342441299129
 42
0.0246113600000176
 10
-31.2641784810009
 20
6.130716041299122
 10
-30.4106134810009
 20
6.130716041299122
 42
-0.4142135623730951
 10
-30.16661348100092
 20
5.886716041299123
 10
-30.16661348100092
 20
5.27549792311636
 42
-0.0244511737842624
 10
-30.18131048100088
 20
4.894515141299122
 42
-0.0245486219999786
 10
-30.22521048100083
 20
4.515696741299449
 42
-0.0245486220000839
 10
-30.29790848100112
 20
4.144210241298181
 42
-0.0245486219998618
 10
-30.39870248100056
 20
3.783633241300207
 42
-0.0245486220001097
 10
-30.52662248100109
 20
3.437438441298652
 42
-0.024548621999966
 10
-30.68043648100087
 20
3.10895974129913
 42
-0.0245486220000008
 10
-30.85866448100086
 20
2.801360541299131
 42
-0.0245486220000017
 10
-31.0595884810009
 20
2.517603341299106
 42
-0.0245486219999997
 10
-31.28127348100088
 20
2.260420841299121
 42
-0.0245486220000006
 10
-31.5215854810009
 20
2.032289841299117
 42
-0.0245486219999995
 10
-31.77820948100089
 20
1.835407241299122
 42
-0.0245486219999993
 10
-32.04867448100089
 20
1.671669241299141
 42
-0.0245486219999995
 10
-32.33037448100089
 20
1.542652741299135
 42
-0.0245486220000024
 10
-32.62059848100085
 20
1.449600241299122
 42
-0.0245486220000146
 10
-32.91655048100108
 20
1.393407841299093
 42
-0.0245738278590478
 10
-33.21568788868956
 20
1.374612541299128
 10
-36.75194048100093
 20
1.374612541299128
 10
-36.75194048100093
 20
2.350198541299149
 10
-33.94686748100088
 20
2.350198541299149
 42
0.4142135623730951
 10
-31.99586748100092
 20
4.301198541299156
 10
-31.99586748100092
 20
5.520716041299123
 42
0.4142135623730951
 10
-32.60586748100093
 20
6.130716041299122
 10
-37.11778548100091
 20
6.130716041299122
 10
-37.11778548100091
 20
7.106302041299144
 10
-31.50807448100091
 20
7.106302041299144
 10
-31.50807448100091
 20
6.496560841299113
  0
HATCH
  5
51ACB
330
51A86
100
AcDbEntity
  8
hyomoji
  6
Continuous
100
AcDbHatch
 10
0.0
 20
0.0
 30
0.0
210
0.0
220
0.0
230
1.0
  2
SOLID
 70
     1
 71
     0
 91
        1
 92
        7
 72
     1
 73
     1
 93
       20
 10
-39.80067748100089
 20
6.862405541297817
 42
0.0246113600013108
 10
-39.80230348100088
 20
6.886373141299087
 42
0.0246113600000699
 10
-39.80745548100088
 20
6.910108741299153
 42
0.0246113599998168
 10
-39.81608348100082
 20
6.933382541298995
 42
0.0246113600003525
 10
-39.828102481001
 20
6.955969441299301
 42
0.0246113599997321
 10
-39.84339848100086
 20
6.977650541299055
 42
0.0246113599993797
 10
-39.86182148100033
 20
6.998216141298597
 42
0.0246113599605993
 10
-39.88319448096462
 20
7.017467041269553
 42
0.024611360036966
 10
-39.90730948099935
 20
7.03521704129811
 42
0.0246113600006345
 10
-39.93393448099999
 20
7.051294341298613
 42
0.0246113600006277
 10
-39.9628104810007
 20
7.065543141299058
 42
0.0246113600001713
 10
-39.99365748100093
 20
7.077825641299127
 42
0.0246113599996734
 10
-40.02617848100044
 20
7.088022941299001
 42
0.024611360000408
 10
-40.06005848100102
 20
7.096036341299138
 42
0.0246113599998639
 10
-40.09496848100087
 20
7.101788141299109
 42
0.0246113600002751
 10
-40.13057148100125
 20
7.105222841299165
 42
0.0247910788806026
 10
-40.16678406641955
 20
7.106302041299144
 42
0.0
 10
-44.31282348100092
 20
7.106302041299158
 42
0.0
 10
-44.31282348100092
 20
6.069680941299167
 42
0.0
 10
-39.80067748100089
 20
6.069680941299167
 42
0.0
 97
        0
 75
     0
 76
     1
 47
0.0219243262339325
 98
        1
 10
-40.44075897886443
 20
6.537697711871856
  0
LWPOLYLINE
  5
51ACC
102
{ACAD_REACTORS
330
51AC9
102
}
330
51A86
100
AcDbEntity
  8
hyomoji
  6
Continuous
100
AcDbPolyline
 90
       24
 70
   129
 43
0.0
 10
-40.41062948100085
 20
1.374612541299128
 10
-44.31282348100092
 20
1.374612541299128
 10
-44.31282348100092
 20
2.350198541299149
 10
-41.32485848100083
 20
2.350198541299149
 42
0.4142135623730951
 10
-39.37385848100087
 20
4.301198541299156
 10
-39.37385848100087
 20
5.764871341299126
 10
-37.72866439050967
 20
5.764871341299126
 42
-0.0257155487687808
 10
-37.70361848100094
 20
5.763084241299153
 42
-0.024549926000034
 10
-37.67994148100092
 20
5.757815641299145
 42
-0.0245499260000084
 10
-37.65672248100088
 20
5.749091041299137
 42
-0.0245499259999808
 10
-37.63418548100094
 20
5.736994541299153
 42
-0.0245499260000123
 10
-37.61254748100089
 20
5.721642541299131
 42
-0.0245499259999841
 10
-37.59201648100094
 20
5.70318294129916
 42
-0.0245499259999858
 10
-37.57279148100094
 20
5.681793541299156
 42
-0.0245499260000007
 10
-37.55505548100092
 20
5.657680341299168
 42
-0.024549925999996
 10
-37.53898148100092
 20
5.631075641299161
 42
-0.02454992599999
 10
-37.52472348100094
 20
5.602235641299158
 42
-0.0245499260000124
 10
-37.51241948100091
 20
5.571438141299153
 42
-0.0245499259999989
 10
-37.50218648100088
 20
5.538979741299157
 42
-0.0245499259999953
 10
-37.49412348100094
 20
5.505173041299157
 42
-0.0245499260000016
 10
-37.4883094810009
 20
5.470343741299159
 42
-0.0245499260000116
 10
-37.48479948100089
 20
5.434827241299131
 42
-0.024673292203941
 10
-37.48362948100089
 20
5.398785261261592
 10
-37.48362948100089
 20
4.301612541299134
 42
-0.4142135623730951
  0
LWPOLYLINE
  5
51ACD
102
{ACAD_REACTORS
330
51AC9
102
}
330
51A86
100
AcDbEntity
  8
hyomoji
  6
Continuous
100
AcDbPolyline
 90
        4
 70
   129
 43
0.0
 10
-44.31282348100092
 20
4.301431441299114
 10
-44.31282348100092
 20
5.337991441299123
 10
-39.80067748100089
 20
5.337991441299123
 10
-39.80067748100089
 20
4.301431441299114
  0
LWPOLYLINE
  5
51ACE
102
{ACAD_REACTORS
330
51AC9
102
}
330
51A86
100
AcDbEntity
  8
hyomoji
  6
Continuous
100
AcDbPolyline
 90
       21
 70
   128
 43
0.0
 10
-40.16652148100092
 20
7.106307141299125
 42
-0.0246113600000175
 10
-40.13057148100091
 20
7.105222841299151
 42
-0.0246113599999931
 10
-40.09496848100087
 20
7.101788141299123
 42
-0.0246113599999957
 10
-40.0600584810009
 20
7.09603634129911
 42
-0.0246113600000006
 10
-40.02617848100089
 20
7.088022941299114
 42
-0.0246113599999799
 10
-39.99365748100093
 20
7.077825641299127
 42
-0.0246113600000132
 10
-39.96281048100087
 20
7.065543141299143
 42
-0.0246113600000103
 10
-39.93393448100091
 20
7.051294341299111
 42
-0.0246113599999903
 10
-39.90730948100088
 20
7.035217041299133
 42
-0.02461135999999
 10
-39.88319448100089
 20
7.01746704129914
 42
-0.0246113599999982
 10
-39.8618214810009
 20
6.998216141299152
 42
-0.0246113600000129
 10
-39.84339848100092
 20
6.977650541299111
 42
-0.024611360000001
 10
-39.82810248100089
 20
6.955969441299116
 42
-0.0246113599999927
 10
-39.81608348100093
 20
6.933382541299137
 42
-0.0246113599999869
 10
-39.80745548100088
 20
6.910108741299139
 42
-0.024611360000012
 10
-39.80230348100088
 20
6.88637314129913
 42
-0.0246113600013111
 10
-39.80067748100089
 20
6.862405541297859
 10
-39.80067748100089
 20
6.069680941299167
 10
-44.31282348100092
 20
6.069680941299167
 10
-44.31282348100092
 20
7.106302041299144
 10
-40.16652148100092
 20
7.106302041299144
  0
LWPOLYLINE
  5
51ACF
102
{ACAD_REACTORS
330
51AC0
102
}
330
51A86
100
AcDbEntity
  8
hyomoji
  6
Continuous
100
AcDbPolyline
 90
       22
 70
   129
 43
0.0
 10
-48.39815048100092
 20
1.862405541299138
 10
-48.39815048100092
 20
2.350198541299149
 10
-47.42259048100089
 20
2.350198541299149
 42
0.4142135623730951
 10
-47.36159048100091
 20
2.411198541299156
 10
-47.36159048100091
 20
4.727900331594297
 42
0.4142994653711524
 10
-47.42223245390414
 20
4.789224341299116
 10
-48.09327948100087
 20
4.789224341299116
 10
-48.09327948100087
 20
5.216043241299131
 10
-47.42289650809346
 20
5.216043241299131
 42
0.4141276645726239
 10
-47.36159048100091
 20
5.276667431594275
 10
-47.36159048100091
 20
6.496560841299113
 10
-46.50792148100089
 20
6.496560841299113
 10
-46.50792148100089
 20
5.277367251003979
 42
0.4142994653912224
 10
-46.44727950809346
 20
5.216043241299131
 10
-45.77623248100088
 20
5.216043241299131
 10
-45.77623248100088
 20
4.789224341299116
 10
-46.44661545390414
 20
4.789224341299116
 42
0.4141276645926918
 10
-46.50792148100089
 20
4.728600151004001
 10
-46.50792148100089
 20
2.411198541299156
 42
0.4142135623730951
 10
-46.44692148100086
 20
2.350198541299149
 10
-45.47136148100088
 20
2.350198541299149
 10
-45.47136148100088
 20
1.862405541299138
  0
LWPOLYLINE
  5
51AD0
102
{ACAD_REACTORS
330
51AC0
102
}
330
51A86
100
AcDbEntity
  8
hyomoji
  6
Continuous
100
AcDbPolyline
 90
       23
 70
   129
 43
0.0
 10
-49.86155948100088
 20
1.862405541299138
 10
-49.86155948100088
 20
3.077863598466819
 42
0.435256697587034
 10
-49.9269055609231
 20
3.138708578451285
 10
-50.71478207094611
 20
3.082431556381407
 10
-49.35559875564741
 20
5.121206529329383
 42
0.5990215383385383
 10
-49.40635382360205
 20
5.216043241299131
 10
-50.5932494810009
 20
5.216043241299131
 10
-50.5932494810009
 20
5.642862041299152
 10
-49.92286550809757
 20
5.642862041299152
 42
0.4141276645926778
 10
-49.86155948100088
 20
5.703486231594282
 10
-49.86155948100088
 20
6.496560841299113
 10
-49.00789148100091
 20
6.496560841299113
 10
-49.00789148100091
 20
5.704186051003985
 42
0.4142994653711661
 10
-48.94724950809763
 20
5.642862041299152
 10
-48.69823432828718
 20
5.642862041299152
 42
-0.5990232472207202
 10
-48.44445983958843
 20
5.168677204845947
 10
-48.72354084329003
 20
4.750060261952881
 42
0.2779035425008352
 10
-48.73053137976512
 20
4.687528544477955
 10
-47.97097340284989
 20
3.325563008176145
 10
-48.77287533117197
 20
3.386532052496305
 10
-48.89361620086919
 20
3.603034357753826
 42
0.7732509487775636
 10
-49.00789148100091
 20
3.573323340825779
 10
-49.00789148100091
 20
1.862405541299138
  0
LWPOLYLINE
  5
51AD1
330
51A86
100
AcDbEntity
  8
hyomoji
  6
Continuous
100
AcDbPolyline
 90
       44
 70
   128
 43
0.0
 10
-22.79570248100089
 20
2.472208645299132
 42
0.2129151059966407
 10
-22.84107167829768
 20
2.451971670822429
 42
-0.220358021742929
 10
-25.16667448100089
 20
1.374612541299128
 10
-28.9471304810009
 20
1.374612541299128
 10
-28.9471304810009
 20
2.350198541299149
 10
-26.14229048100089
 20
2.350198541299149
 42
0.0137554371945167
 10
-26.02831248100069
 20
2.353912941299156
 42
0.0137524419998822
 10
-25.91467748100166
 20
2.36496844129904
 42
0.0137524420004598
 10
-25.80173248099788
 20
2.383357241299719
 42
0.013752441999331
 10
-25.68981748100333
 20
2.40902354129848
 42
0.0137524420003075
 10
-25.57927048100083
 20
2.441889841299142
 42
0.0137524420000012
 10
-25.47042648100086
 20
2.48185664129913
 42
0.0137524419999966
 10
-25.36361548100086
 20
2.528803041299126
 42
0.0137524419999995
 10
-25.25915948100089
 20
2.582587141299142
 42
0.0137524420000046
 10
-25.15737548100083
 20
2.643046041299156
 42
0.0137524419999986
 10
-25.05857048100086
 20
2.709997041299131
 42
0.0137524419999979
 10
-24.96304348100085
 20
2.783237641299137
 42
0.0137524419999975
 10
-24.87108348100083
 20
2.862546141299161
 42
0.013752441999999
 10
-24.78296948100086
 20
2.947682641299151
 42
0.0137524419999975
 10
-24.69896648100087
 20
3.03838974129914
 42
0.0137524420000003
 10
-24.61932948100088
 20
3.134393041299147
 42
0.0138047286378086
 10
-24.54402492762563
 20
3.235793804276595
 42
0.4326750878113178
 10
-24.5803232616978
 20
3.409900718458287
 10
-25.38195389927228
 20
3.89978727397809
 42
0.1380038353994479
 10
-25.50918792204959
 20
3.935586641299152
 10
-26.99592848100087
 20
3.935586641299152
 10
-26.99592848100087
 20
4.826227931606168
 42
0.483124814362098
 10
-27.07042859230956
 20
4.886033668815598
 10
-27.5388829252729
 20
4.729882392874443
 42
-0.080611490271625
 10
-27.92468042540406
 20
4.667276141299125
 10
-29.1910274810009
 20
4.667276141299125
 10
-29.1910274810009
 20
5.642862041299152
 10
-28.60803106756714
 20
5.642862041299152
 42
0.2403459008079929
 10
-28.4104861288638
 20
5.743641940780093
 10
-27.49562285561598
 20
7.005522141818203
 42
-0.2403459008079905
 10
-27.29807791691263
 20
7.106302041299144
 10
-22.73096096047272
 20
7.106302041299144
 42
-0.4142866644357847
 10
-22.11793748100092
 20
6.499690141703637
 10
-22.11793748100092
 20
4.414408195970479
 42
-0.073920925025852
 10
-22.25237623922613
 20
3.527978312291437
 42
0.5098120014094599
 10
-22.19483850809758
 20
3.447793741299149
 10
-21.99598948100089
 20
3.447793741299149
 10
-21.99598948100089
 20
2.472146741299154
 10
-22.79570248100089
 20
2.472146741299154
  0
LWPOLYLINE
  5
51AD2
330
51A86
100
AcDbEntity
  8
hyomoji
  6
Continuous
100
AcDbPolyline
 90
       26
 70
   129
 43
0.0
 10
-24.18857785518384
 20
4.313763969668541
 10
-25.10757501850236
 20
4.875373403082362
 42
0.1380035768931157
 10
-25.23480883001833
 20
4.91117264129913
 10
-26.78620850808926
 20
4.91117264129913
 42
-0.5877959702502288
 10
-26.83753010714549
 20
5.004548192175859
 10
-26.09950634785401
 20
6.022513887169536
 42
-0.2488102192010769
 10
-25.89814884116043
 20
6.130716041299122
 10
-24.31434684116045
 20
6.130716041299122
 42
-0.4141055155693935
 10
-24.06914048100089
 20
5.888219876970182
 10
-24.06914048100089
 20
4.789224341305952
 42
-0.0027675332005429
 10
-24.06926748100085
 20
4.762224941300657
 42
-0.0027675332004465
 10
-24.06964848100091
 20
4.735228841296303
 42
-0.0027675331990674
 10
-24.07028348100067
 20
4.708239341305399
 42
-0.0027675332013063
 10
-24.0711724810011
 20
4.681259741292662
 42
-0.0027675331985318
 10
-24.07231548100049
 20
4.654293341306966
 42
-0.0027675332011082
 10
-24.073711481001
 20
4.627343541296169
 42
-0.0027675332007225
 10
-24.07536148100155
 20
4.600413541289156
 42
-0.0027675331990705
 10
-24.07726448100095
 20
4.573506741298188
 42
-0.0027675331994759
 10
-24.07942148100051
 20
4.546626241303285
 42
-0.0027675332004882
 10
-24.08183048100091
 20
4.519775641298536
 42
-0.0027675331980648
 10
-24.08449148099896
 20
4.492957941317285
 42
-0.0027675332032427
 10
-24.08740548100235
 20
4.466176641285897
 42
-0.0027675331997779
 10
-24.09057148100226
 20
4.43943484128806
 42
-0.0027675331988507
 10
-24.09398848100091
 20
4.41273594129916
 42
-0.0027675331998305
 10
-24.09765648100063
 20
4.386083141300786
 42
-0.0029245593357009
 10
-24.10180560796943
 20
4.357971732380021
 42
-0.498504514683721
  0
LWPOLYLINE
  5
51AD3
102
{ACAD_REACTORS
330
51AC9
102
}
330
51A86
100
AcDbEntity
  8
hyomoji
  6
Continuous
100
AcDbPolyline
 90
        8
 70
   129
 43
0.0
 10
-29.67876848100087
 20
6.435525641299121
 42
-0.4142135623730951
 10
-29.80076848100089
 20
6.557525641299121
 10
-29.80076848100089
 20
7.350146741299155
 42
-0.4142135623730951
 10
-29.67876848100087
 20
7.472146741299155
 10
-28.88617848100086
 20
7.472146741299155
 42
-0.4142135623730951
 10
-28.7641784810009
 20
7.350146741299155
 10
-28.7641784810009
 20
6.557525641299121
 42
-0.4142135623730951
 10
-28.88617848100086
 20
6.435525641299121
  0
LWPOLYLINE
  5
51AD4
102
{ACAD_REACTORS
330
51AC9
102
}
330
51A86
100
AcDbEntity
  8
hyomoji
  6
Continuous
100
AcDbPolyline
 90
        8
 70
   129
 43
0.0
 10
-31.0812034810009
 20
6.435525641299121
 42
-0.4142135623730951
 10
-31.20320348100091
 20
6.557525641299121
 10
-31.20320348100091
 20
7.350146741299155
 42
-0.4142135623730951
 10
-31.0812034810009
 20
7.472146741299155
 10
-30.28861348100094
 20
7.472146741299155
 42
-0.4142135623730951
 10
-30.16661348100092
 20
7.350146741299155
 10
-30.16661348100092
 20
6.557525641299121
 42
-0.4142135623730951
 10
-30.28861348100094
 20
6.435525641299121
  0
LWPOLYLINE
  5
51AD5
330
51A86
100
AcDbEntity
  8
hyomoji
  6
Continuous
100
AcDbPolyline
 90
       21
 70
   128
 43
0.0
 10
-15.0448174810009
 20
6.740457241299153
 10
-15.0448174810009
 20
6.069680941299167
 10
-20.77647648100094
 20
6.069680941299167
 10
-20.77647648100094
 20
7.106302041299144
 10
-15.34968848100089
 20
7.106302041299144
 42
-0.0245951489999901
 10
-15.31974848100088
 20
7.10464064129914
 42
-0.0245951489999939
 10
-15.29009848100094
 20
7.09945864129915
 42
-0.0245951490000111
 10
-15.2610234810009
 20
7.090806141299167
 42
-0.0245951489999948
 10
-15.23280648100092
 20
7.078766841299155
 42
-0.0245951490000167
 10
-15.20571948100087
 20
7.063457141299138
 42
-0.0245951489999851
 10
-15.18002348100089
 20
7.04502494129916
 42
-0.0245951489999982
 10
-15.15596848100091
 20
7.023648441299143
 42
-0.0245951490000079
 10
-15.13378548100092
 20
6.999534341299152
 42
-0.0245951489999929
 10
-15.1136894810009
 20
6.972915741299174
 42
-0.0245951490000121
 10
-15.09587548100092
 20
6.94404994129914
 42
-0.0245951489999839
 10
-15.08051548100093
 20
6.913216041299164
 42
-0.0245951490000097
 10
-15.06775648100091
 20
6.880712041299161
 42
-0.0245951489999972
 10
-15.05772348100089
 20
6.846852241299159
 42
-0.0245951490000035
 10
-15.0505134810009
 20
6.811963841299159
 42
-0.0245951490000047
 10
-15.04619448100089
 20
6.776384241299154
 42
-0.024595148999995
 10
-15.04481048100086
 20
6.740457241299153
  0
POLYLINE
  5
51AD6
330
51A86
100
AcDbEntity
  8
hyosen2
100
AcDb2dPolyline
 66
     1
 10
0.0
 20
0.0
 30
0.0
 70
     1
  0
VERTEX
  5
51AD7
330
51AD6
100
AcDbEntity
  8
hyosen2
100
AcDbVertex
100
AcDb2dVertex
 10
-374.0661926269643
 20
11.69371524263438
 30
0.0
  0
VERTEX
  5
51AD8
330
51AD6
100
AcDbEntity
  8
hyosen2
100
AcDbVertex
100
AcDb2dVertex
 10
-377.0972815402098
 20
6.443715242634388
 30
0.0
  0
VERTEX
  5
51AD9
330
51AD6
100
AcDbEntity
  8
hyosen2
100
AcDbVertex
100
AcDb2dVertex
 10
-371.0351037137187
 20
6.443715242634385
 30
0.0
  0
SEQEND
  5
51ADA
330
51AD6
100
AcDbEntity
  8
hyosen2
  0
LINE
  5
51ADB
330
51A86
100
AcDbEntity
  8
hyosen1
  6
Continuous
370
    40
100
AcDbLine
 10
-199.0
 20
9.0
 30
0.0
 11
0.0
 21
9.0
 31
0.0
  0
LINE
  5
51ADC
330
51A86
100
AcDbEntity
  8
hyosen2
  6
Continuous
100
AcDbLine
 10
-194.0
 20
13.0
 30
0.0
 11
-99.0
 21
13.0
 31
0.0
  0
TEXT
  5
51ADD
330
51A86
100
AcDbEntity
  8
hyomoji
  6
Continuous
100
AcDbText
 10
-46.57168911155622
 20
15.54033100654931
 30
0.0
 40
2.799999999999999
  1
意
 41
0.7
100
AcDbText
  0
TEXT
  5
51ADE
330
51A86
100
AcDbEntity
  8
hyomoji
  6
Continuous
100
AcDbText
 10
-43.98466554955234
 20
15.54033100654931
 30
0.0
 40
2.799999999999999
  1
先
 41
0.7
100
AcDbText
  0
TEXT
  5
51ADF
330
51A86
100
AcDbEntity
  8
hyomoji
  6
Continuous
100
AcDbText
 10
-96.29006337728595
 20
15.35000000000002
 30
0.0
 40
2.799999999999999
  1
Y
 41
0.7
100
AcDbText
  0
TEXT
  5
51AE0
330
51A86
100
AcDbEntity
  8
hyomoji
  6
Continuous
100
AcDbText
 10
-93.99262583023404
 20
15.35000000000002
 30
0.0
 40
2.799999999999999
  1
S
 41
0.7
100
AcDbText
  0
LINE
  5
51AE1
330
51A86
100
AcDbEntity
  8
hyosen2
  6
Continuous
100
AcDbLine
 10
-379.0
 20
20.00000000000001
 30
0.0
 11
-379.0
 21
0.0000000000000142
 31
0.0
  0
ATTDEF
  5
51AE2
330
51A86
100
AcDbEntity
  8
hyomoji
100
AcDbText
 10
-156.5
 20
4.5
 30
0.0
 40
5.0
  1

 41
0.9
 72
     4
 11
-156.5
 21
4.5
 31
0.0
100
AcDbAttributeDefinition
  3
図番
  2
XXX000000-00-00
 70
     0
  0
ATTDEF
  5
51AE3
330
51A86
100
AcDbEntity
  8
hyomoji
100
AcDbText
 10
-146.5
 20
16.5
 30
0.0
 40
4.5
  1

 41
0.7
 72
     4
 11
-146.5
 21
16.5
 31
0.0
100
AcDbAttributeDefinition
  3
品名
  2
品名
 70
     0
  0
ATTDEF
  5
51AE4
330
51A86
100
AcDbEntity
  8
hyomoji
100
AcDbText
 10
-153.5866666666666
 20
10.0
 30
0.0
 40
2.0
  1
部品名：／現場名：
 41
0.7
 72
     4
 11
-146.5
 21
11.0
 31
0.0
100
AcDbAttributeDefinition
  3
部品名・現場名
  2
現場名：/部品名：
 70
     0
  0
ATTDEF
  5
51AE5
330
51A86
100
AcDbEntity
  8
hyomoji
100
AcDbText
 10
-70.25
 20
14.5
 30
0.0
 40
5.0
  1

 41
0.7
 72
     4
 11
-70.25
 21
14.5
 31
0.0
100
AcDbAttributeDefinition
  3
SYS品番
  2
SYS品番
 70
     0
  0
ATTDEF
  5
51AE6
330
51A86
100
AcDbEntity
  8
hyomoji
100
AcDbText
 10
-20.75
 20
14.5
 30
0.0
 40
5.0
  1

 41
0.7
 72
     4
 11
-20.75
 21
14.5
 31
0.0
100
AcDbAttributeDefinition
  3
得意先品番
  2
得意先品番
 70
     0
  0
ATTDEF
  5
51AE7
330
51A86
100
AcDbEntity
  8
hyomoji
100
AcDbText
 10
-276.7142857142857
 20
13.28978913309856
 30
0.0
 40
4.5
  1

 41
0.7
 72
     4
 11
-276.7142857142857
 21
13.28978913309856
 31
0.0
100
AcDbAttributeDefinition
  3
尺度
  2
1/10
 70
     0
  0
ATTDEF
  5
51AE8
330
51A86
100
AcDbEntity
  8
hyomoji
100
AcDbText
 10
-206.0459174837802
 20
7.608416650702226
 30
0.0
 40
4.0
  1

 41
0.7
 72
     4
 11
-206.0459174837802
 21
7.608416650702226
 31
0.0
100
AcDbAttributeDefinition
  3
作図者
  2
作成
 70
     0
  0
ATTDEF
  5
51AE9
330
51A86
100
AcDbEntity
  8
hyomoji
100
AcDbText
 10
-221.8819871038038
 20
7.635123295558287
 30
0.0
 40
4.0
  1

 41
0.7
 72
     4
 11
-221.8819871038038
 21
7.635123295558287
 31
0.0
100
AcDbAttributeDefinition
  3
検図者１
  2
確認1
 70
     0
  0
ATTDEF
  5
51AEA
330
51A86
100
AcDbEntity
  8
hyomoji
100
AcDbText
 10
-236.447540298851
 20
7.608416650702224
 30
0.0
 40
4.0
  1

 50
0.0000000000000114
 41
0.7
 72
     4
 11
-236.447540298851
 21
7.608416650702224
 31
0.0
100
AcDbAttributeDefinition
  3
検図者2
  2
確認2
 70
     0
  0
ATTDEF
  5
51AEB
330
51A86
100
AcDbEntity
  8
hyomoji
100
AcDbText
 10
-251.2645747193899
 20
7.635123295558287
 30
0.0
 40
4.0
  1

 41
0.7
 72
     4
 11
-251.2645747193899
 21
7.635123295558287
 31
0.0
100
AcDbAttributeDefinition
  3
承認
  2
承認
 70
     0
  0
ATTDEF
  5
51AEC
330
51A86
100
AcDbEntity
  8
hyomoji
100
AcDbText
 10
-106.796373781791
 20
4.474345071246374
 30
0.0
 40
4.5
  1

 41
0.7
 72
     4
 11
-106.796373781791
 21
4.474345071246374
 31
0.0
100
AcDbAttributeDefinition
  3
総枚数
  2
00
 70
     0
  0
ATTDEF
  5
51AED
330
51A86
100
AcDbEntity
  8
hyomoji
100
AcDbText
 10
-366.6947769257895
 20
16.1789919272969
 30
0.0
 40
3.0
  1
 
 41
0.7
100
AcDbAttributeDefinition
  3
製図日
  2
200X年XX年XX日
 70
     0
  0
ATTDEF
  5
51AEE
330
51A86
100
AcDbEntity
  8
hyomoji
100
AcDbText
 10
-374.0661885855164
 20
7.914918680119876
 30
0.0
 40
2.2
  1

 41
0.7
 72
     4
 11
-374.0661885855164
 21
7.914918680119876
 31
0.0
100
AcDbAttributeDefinition
  3
△
  2
99
 70
     0
  0
ATTDEF
  5
51AEF
330
51A86
100
AcDbEntity
  8
hyomoji
100
AcDbText
 10
-366.6947769257895
 20
6.541544646902869
 30
0.0
 40
3.0
  1

 41
0.7
100
AcDbAttributeDefinition
  3
訂正の日付
  2
200X年XX月XX日
 70
     0
  0
ATTDEF
  5
51AF0
330
51A86
100
AcDbEntity
  8
hyomoji
100
AcDbText
 10
-301.0
 20
17.50000000000001
 30
0.0
 40
3.0
  1

 41
0.7
 72
     4
 11
-301.0
 21
17.50000000000001
 31
0.0
100
AcDbAttributeDefinition
  3
得意先コード
  2
XXXXX
 70
     0
  0
ATTDEF
  5
51AF1
330
51A86
100
AcDbEntity
  8
hyomoji
100
AcDbText
 10
-301.0
 20
12.5
 30
0.0
 40
3.0
  1

 41
0.7
 72
     4
 11
-301.0
 21
12.5
 31
0.0
100
AcDbAttributeDefinition
  3
製造コード
  2
XXXX
 70
     0
  0
TEXT
  5
51AF2
330
51A86
100
AcDbEntity
  8
hyomoji
  6
Continuous
100
AcDbText
 10
-332.5587394575698
 20
6.541544646902869
 30
0.0
 40
3.0
  1
ファイルＮｏ
 41
0.7
100
AcDbText
  0
TEXT
  5
51AF3
330
51A86
100
AcDbEntity
  8
hyomoji
  6
Continuous
100
AcDbText
 10
-332.5587394575698
 20
0.9716253422103697
 30
0.0
 40
3.0
  1
整理Ｎｏ
 41
0.7
100
AcDbText
  0
ATTDEF
  5
51AF4
330
51A86
100
AcDbEntity
  8
hyomoji
100
AcDbText
 10
-357.0
 20
2.500000000000008
 30
0.0
 40
3.0
  1

 41
0.7
 72
     4
 11
-357.0
 21
2.500000000000008
 31
0.0
100
AcDbAttributeDefinition
  3
ファイル名
  2
ファイル名
 70
     0
  0
ATTDEF
  5
51AF5
330
51A86
100
AcDbEntity
  8
hyomoji
100
AcDbText
 10
-301.0
 20
7.500000000000001
 30
0.0
 40
3.0
  1

 41
0.7
 72
     4
 11
-301.0
 21
7.500000000000001
 31
0.0
100
AcDbAttributeDefinition
  3
ファイルNo
  2
ファイルＮＯ
 70
     0
  0
ATTDEF
  5
51AF6
330
51A86
100
AcDbEntity
  8
hyomoji
100
AcDbText
 10
-301.0
 20
2.500000000000001
 30
0.0
 40
3.0
  1

 41
0.7
 72
     4
 11
-301.0
 21
2.500000000000001
 31
0.0
100
AcDbAttributeDefinition
  3
整理No
  2
000
 70
     0
  0
ATTDEF
  5
51AF7
330
51A86
100
AcDbEntity
  8
hyomoji
100
AcDbText
 10
-276.8538075206837
 20
5.289931943914781
 30
0.0
 40
3.5
  1

 50
0.0000000000000114
 41
0.7
 72
     4
 11
-276.8538075206837
 21
5.289931943914781
 31
0.0
100
AcDbAttributeDefinition
  3
図面サイズ
  2
（A3）
 70
     0
  0
ENDBLK
  5
51AF8
330
51A86
100
AcDbEntity
  8
0
100
AcDbBlockEnd
  0
BLOCK
  5
5B3AD
330
5B3A3
100
AcDbEntity
  8
0
100
AcDbBlockBegin
  2
*D8
 70
     1
 10
0.0
 20
0.0
 30
0.0
  3
*D8
  1

  0
LINE
  5
5B75F
330
5B3A3
100
AcDbEntity
  8
AM_5
100
AcDbLine
 10
-497.7674918750282
 20
-11221.99566618684
 30
0.0
 11
-497.7674918750282
 21
-11207.00218768684
 31
0.0
  0
LINE
  5
5B760
330
5B3A3
100
AcDbEntity
  8
AM_5
100
AcDbLine
 10
-477.7674918750283
 20
-11221.65333968684
 30
0.0
 11
-477.7674918750283
 21
-11207.00218768684
 31
0.0
  0
LINE
  5
5B761
330
5B3A3
100
AcDbEntity
  8
AM_5
100
AcDbLine
 10
-496.7674918750282
 20
-11208.00218768684
 30
0.0
 11
-478.7674918750282
 21
-11208.00218768684
 31
0.0
  0
INSERT
  5
5B762
330
5B3A3
100
AcDbEntity
  8
AM_5
100
AcDbBlockReference
  2
_Dot
 10
-497.7674918750282
 20
-11208.00218768684
 30
0.0
 50
180.0
  0
INSERT
  5
5B763
330
5B3A3
100
AcDbEntity
  8
AM_5
100
AcDbBlockReference
  2
_Dot
 10
-477.7674918750283
 20
-11208.00218768684
 30
0.0
  0
MTEXT
  5
5B764
330
5B3A3
100
AcDbEntity
  8
AM_5
 62
     2
100
AcDbMText
 10
-487.7674918750281
 20
-11204.90218768684
 30
0.0
 40
3.200000000000001
 41
0.0
 71
     5
 72
     1
  1
20
 73
     1
 44
1.0
1001
ACAD
1000
MTEXTBEGIN
1070
    73
1070
     1
1070
    44
1040
1.0
1070
    74
1070
     0
1000
MTEXTEND
  0
POINT
  5
5B765
330
5B3A3
100
AcDbEntity
  8
Defpoints
 62
     0
100
AcDbPoint
 10
-497.7674918750282
 20
-11222.99566618684
 30
0.0
  0
POINT
  5
5B766
330
5B3A3
100
AcDbEntity
  8
Defpoints
 62
     0
100
AcDbPoint
 10
-477.7674918750283
 20
-11222.65333968684
 30
0.0
  0
POINT
  5
5B767
330
5B3A3
100
AcDbEntity
  8
Defpoints
 62
     0
100
AcDbPoint
 10
-477.7674918750283
 20
-11208.00218768684
 30
0.0
  0
ENDBLK
  5
5B3AE
330
5B3A3
100
AcDbEntity
  8
0
100
AcDbBlockEnd
  0
BLOCK
  5
5B3B9
330
5B3AF
100
AcDbEntity
  8
0
100
AcDbBlockBegin
  2
*D9
 70
     1
 10
0.0
 20
0.0
 30
0.0
  3
*D9
  1

  0
LINE
  5
5B768
330
5B3AF
100
AcDbEntity
  8
AM_5
100
AcDbLine
 10
-503.7674918750282
 20
-11217.00218768684
 30
0.0
 11
-503.7674918750282
 21
-11199.00218768684
 31
0.0
  0
LINE
  5
5B769
330
5B3AF
100
AcDbEntity
  8
AM_5
100
AcDbLine
 10
-471.7674918750282
 20
-11217.00218768684
 30
0.0
 11
-471.7674918750282
 21
-11199.00218768684
 31
0.0
  0
LINE
  5
5B76A
330
5B3AF
100
AcDbEntity
  8
AM_5
100
AcDbLine
 10
-502.7674918750282
 20
-11200.00218768684
 30
0.0
 11
-472.7674918750282
 21
-11200.00218768684
 31
0.0
  0
INSERT
  5
5B76B
330
5B3AF
100
AcDbEntity
  8
AM_5
100
AcDbBlockReference
  2
_Dot
 10
-503.7674918750282
 20
-11200.00218768684
 30
0.0
 50
180.0
  0
INSERT
  5
5B76C
330
5B3AF
100
AcDbEntity
  8
AM_5
100
AcDbBlockReference
  2
_Dot
 10
-471.7674918750282
 20
-11200.00218768684
 30
0.0
  0
MTEXT
  5
5B76D
330
5B3AF
100
AcDbEntity
  8
AM_5
 62
     2
100
AcDbMText
 10
-487.7674918750281
 20
-11196.90218768684
 30
0.0
 40
3.200000000000001
 41
0.0
 71
     5
 72
     1
  1
32
 73
     1
 44
1.0
1001
ACAD
1000
MTEXTBEGIN
1070
    73
1070
     1
1070
    44
1040
1.0
1070
    74
1070
     0
1000
MTEXTEND
  0
POINT
  5
5B76E
330
5B3AF
100
AcDbEntity
  8
Defpoints
 62
     0
100
AcDbPoint
 10
-503.7674918750282
 20
-11218.00218768684
 30
0.0
  0
POINT
  5
5B76F
330
5B3AF
100
AcDbEntity
  8
Defpoints
 62
     0
100
AcDbPoint
 10
-471.7674918750282
 20
-11218.00218768684
 30
0.0
  0
POINT
  5
5B770
330
5B3AF
100
AcDbEntity
  8
Defpoints
 62
     0
100
AcDbPoint
 10
-471.7674918750282
 20
-11200.00218768684
 30
0.0
  0
ENDBLK
  5
5B3BA
330
5B3AF
100
AcDbEntity
  8
0
100
AcDbBlockEnd
  0
BLOCK
  5
5B3C5
330
5B3BB
100
AcDbEntity
  8
0
100
AcDbBlockBegin
  2
*D10
 70
     1
 10
0.0
 20
0.0
 30
0.0
  3
*D10
  1

  0
LINE
  5
5B7AB
330
5B3BB
100
AcDbEntity
  8
AM_5
100
AcDbLine
 10
-504.7674918750281
 20
-11218.00218768684
 30
0.0
 11
-522.7674918750318
 21
-11218.00218768684
 31
0.0
  0
LINE
  5
5B7AC
330
5B3BB
100
AcDbEntity
  8
AM_5
100
AcDbLine
 10
-504.7674918750281
 20
-11268.00218768684
 30
0.0
 11
-522.7674918750318
 21
-11268.00218768684
 31
0.0
  0
LINE
  5
5B7AD
330
5B3BB
100
AcDbEntity
  8
AM_5
100
AcDbLine
 10
-521.7674918750318
 20
-11219.00218768684
 30
0.0
 11
-521.7674918750318
 21
-11267.00218768684
 31
0.0
  0
INSERT
  5
5B7AE
330
5B3BB
100
AcDbEntity
  8
AM_5
100
AcDbBlockReference
  2
_Dot
 10
-521.7674918750318
 20
-11218.00218768684
 30
0.0
 50
90.0
  0
INSERT
  5
5B7AF
330
5B3BB
100
AcDbEntity
  8
AM_5
100
AcDbBlockReference
  2
_Dot
 10
-521.7674918750318
 20
-11268.00218768684
 30
0.0
 50
270.0
  0
MTEXT
  5
5B7B0
330
5B3BB
100
AcDbEntity
  8
AM_5
 62
     2
100
AcDbMText
 10
-524.8674918750301
 20
-11243.00218768684
 30
0.0
 40
3.200000000000001
 41
0.0
 71
     5
 72
     1
  1
L
 11
0.0000000000000001
 21
1.0
 31
0.0
 73
     1
 44
1.0
1001
ACAD
1000
MTEXTBEGIN
1070
    73
1070
     1
1070
    44
1040
1.0
1070
    74
1070
     0
1000
MTEXTEND
  0
POINT
  5
5B7B1
330
5B3BB
100
AcDbEntity
  8
Defpoints
 62
     0
100
AcDbPoint
 10
-503.7674918750282
 20
-11218.00218768684
 30
0.0
  0
POINT
  5
5B7B2
330
5B3BB
100
AcDbEntity
  8
Defpoints
 62
     0
100
AcDbPoint
 10
-503.7674918750282
 20
-11268.00218768684
 30
0.0
  0
POINT
  5
5B7B3
330
5B3BB
100
AcDbEntity
  8
Defpoints
 62
     0
100
AcDbPoint
 10
-521.7674918750318
 20
-11268.00218768684
 30
0.0
  0
ENDBLK
  5
5B3C6
330
5B3BB
100
AcDbEntity
  8
0
100
AcDbBlockEnd
  0
BLOCK
  5
5B3D1
330
5B3C7
100
AcDbEntity
  8
0
100
AcDbBlockBegin
  2
*D11
 70
     1
 10
0.0
 20
0.0
 30
0.0
  3
*D11
  1

  0
LINE
  5
5B77A
330
5B3C7
100
AcDbEntity
  8
AM_5
100
AcDbLine
 10
-503.6884318750282
 20
-11258.00218768684
 30
0.0
 11
-514.7674918750318
 21
-11258.00218768684
 31
0.0
  0
LINE
  5
5B77B
330
5B3C7
100
AcDbEntity
  8
AM_5
100
AcDbLine
 10
-503.5172688750281
 20
-11228.00218768684
 30
0.0
 11
-514.7674918750318
 21
-11228.00218768684
 31
0.0
  0
LINE
  5
5B77C
330
5B3C7
100
AcDbEntity
  8
AM_5
100
AcDbLine
 10
-513.7674918750319
 20
-11257.00218768684
 30
0.0
 11
-513.7674918750319
 21
-11229.00218768684
 31
0.0
  0
INSERT
  5
5B77D
330
5B3C7
100
AcDbEntity
  8
AM_5
100
AcDbBlockReference
  2
_Dot
 10
-513.7674918750319
 20
-11258.00218768684
 30
0.0
 50
270.0
  0
INSERT
  5
5B77E
330
5B3C7
100
AcDbEntity
  8
AM_5
100
AcDbBlockReference
  2
_Dot
 10
-513.7674918750319
 20
-11228.00218768684
 30
0.0
 50
90.0
  0
MTEXT
  5
5B77F
330
5B3C7
100
AcDbEntity
  8
AM_5
 62
     2
100
AcDbMText
 10
-516.86749187503
 20
-11243.00218768684
 30
0.0
 40
3.200000000000001
 41
0.0
 71
     5
 72
     1
  1
P
 11
0.0000000000000001
 21
1.0
 31
0.0
 73
     1
 44
1.0
1001
ACAD
1000
MTEXTBEGIN
1070
    73
1070
     1
1070
    44
1040
1.0
1070
    74
1070
     0
1000
MTEXTEND
  0
POINT
  5
5B780
330
5B3C7
100
AcDbEntity
  8
Defpoints
 62
     0
100
AcDbPoint
 10
-502.6884318750282
 20
-11258.00218768684
 30
0.0
  0
POINT
  5
5B781
330
5B3C7
100
AcDbEntity
  8
Defpoints
 62
     0
100
AcDbPoint
 10
-502.5172688750282
 20
-11228.00218768684
 30
0.0
  0
POINT
  5
5B782
330
5B3C7
100
AcDbEntity
  8
Defpoints
 62
     0
100
AcDbPoint
 10
-513.7674918750319
 20
-11228.00218768684
 30
0.0
  0
ENDBLK
  5
5B3D2
330
5B3C7
100
AcDbEntity
  8
0
100
AcDbBlockEnd
  0
BLOCK
  5
5B3FE
330
5B3F7
100
AcDbEntity
  8
0
100
AcDbBlockBegin
  2
*D12
 70
     1
 10
0.0
 20
0.0
 30
0.0
  3
*D12
  1

  0
LINE
  5
5C2B3
330
5B3F7
100
AcDbEntity
  8
AM_5
100
AcDbLine
 10
-530.7256731130974
 20
-11208.00218768684
 30
0.0
 11
-510.9090064464307
 21
-11208.00218768684
 31
0.0
  0
LINE
  5
5C2B4
330
5B3F7
100
AcDbEntity
  8
AM_5
100
AcDbLine
 10
-510.9090064464307
 20
-11208.00218768684
 30
0.0
 11
-500.6504700741998
 21
-11223.61459874721
 31
0.0
  0
LINE
  5
5C2B5
330
5B3F7
100
AcDbEntity
  8
AM_5
100
AcDbLine
 10
-494.8845136758572
 20
-11232.38977662646
 30
0.0
 11
-493.7862362666501
 21
-11234.06123907965
 31
0.0
  0
MTEXT
  5
5C2B6
330
5B3F7
100
AcDbEntity
  8
AM_5
 62
     2
100
AcDbMText
 10
-521.5673397797645
 20
-11204.75218768684
 30
0.0
 40
3.5
 41
0.0
 71
     5
 72
     1
  1
4-M3用皿孔
 73
     1
 44
1.0
1001
ACAD
1000
MTEXTBEGIN
1070
    73
1070
     1
1070
    44
1040
1.0
1070
    74
1070
     0
1000
MTEXTEND
  0
LINE
  5
5C2B7
330
5B3F7
100
AcDbEntity
  8
AM_5
100
AcDbLine
 10
-495.9827910850654
 20
-11230.71831417327
 30
0.0
 11
-499.5521926649916
 21
-11225.2860612004
 31
0.0
  0
INSERT
  5
5C2B8
330
5B3F7
100
AcDbEntity
  8
AM_5
100
AcDbBlockReference
  2
_OPEN30
 10
-495.9827910850654
 20
-11230.71831417327
 30
0.0
 41
2.0
 42
2.0
 43
2.0
 50
123.3079445529404
  0
INSERT
  5
5C2B9
330
5B3F7
100
AcDbEntity
  8
AM_5
100
AcDbBlockReference
  2
_OPEN30
 10
-499.5521926649916
 20
-11225.2860612004
 30
0.0
 41
2.0
 42
2.0
 43
2.0
 50
303.3079445529405
  0
POINT
  5
5C2BA
330
5B3F7
100
AcDbEntity
  8
Defpoints
 62
     0
100
AcDbPoint
 10
-499.5521926649916
 20
-11225.2860612004
 30
0.0
  0
POINT
  5
5C2BB
330
5B3F7
100
AcDbEntity
  8
Defpoints
 62
     0
100
AcDbPoint
 10
-495.9827910850654
 20
-11230.71831417327
 30
0.0
  0
ENDBLK
  5
5B3FF
330
5B3F7
100
AcDbEntity
  8
0
100
AcDbBlockEnd
  0
BLOCK
  5
5B49F
330
5B495
100
AcDbEntity
  8
0
100
AcDbBlockBegin
  2
*D13
 70
     1
 10
0.0
 20
0.0
 30
0.0
  3
*D13
  1

  0
LINE
  5
5B78C
330
5B495
100
AcDbEntity
  8
AM_5
100
AcDbLine
 10
-490.7674918750282
 20
-11336.37687668684
 30
0.0
 11
-490.7674918750282
 21
-11315.37687668684
 31
0.0
  0
LINE
  5
5B78D
330
5B495
100
AcDbEntity
  8
AM_5
100
AcDbLine
 10
-484.7674918750282
 20
-11336.37687668684
 30
0.0
 11
-484.7674918750282
 21
-11315.37687668684
 31
0.0
  0
LINE
  5
5B78E
330
5B495
100
AcDbEntity
  8
AM_5
100
AcDbLine
 10
-489.7674918750282
 20
-11316.37687668684
 30
0.0
 11
-485.7674918750282
 21
-11316.37687668684
 31
0.0
  0
INSERT
  5
5B78F
330
5B495
100
AcDbEntity
  8
AM_5
100
AcDbBlockReference
  2
_Dot
 10
-490.7674918750282
 20
-11316.37687668684
 30
0.0
 50
180.0
  0
INSERT
  5
5B790
330
5B495
100
AcDbEntity
  8
AM_5
100
AcDbBlockReference
  2
_Dot
 10
-484.7674918750282
 20
-11316.37687668684
 30
0.0
  0
MTEXT
  5
5B791
330
5B495
100
AcDbEntity
  8
AM_5
 62
     2
100
AcDbMText
 10
-487.7674918750281
 20
-11313.27687668684
 30
0.0
 40
3.200000000000001
 41
0.0
 71
     5
 72
     1
  1
（%%c6）
 73
     1
 44
1.0
1001
ACAD
1000
MTEXTBEGIN
1070
    73
1070
     1
1070
    44
1040
1.0
1070
    74
1070
     0
1000
MTEXTEND
  0
POINT
  5
5B792
330
5B495
100
AcDbEntity
  8
Defpoints
 62
     0
100
AcDbPoint
 10
-490.7674918750282
 20
-11337.37687668684
 30
0.0
  0
POINT
  5
5B793
330
5B495
100
AcDbEntity
  8
Defpoints
 62
     0
100
AcDbPoint
 10
-484.7674918750282
 20
-11337.37687668684
 30
0.0
  0
POINT
  5
5B794
330
5B495
100
AcDbEntity
  8
Defpoints
 62
     0
100
AcDbPoint
 10
-484.7674918750282
 20
-11316.37687668684
 30
0.0
  0
ENDBLK
  5
5B4A0
330
5B495
100
AcDbEntity
  8
0
100
AcDbBlockEnd
  0
BLOCK
  5
5B4AB
330
5B4A1
100
AcDbEntity
  8
0
100
AcDbBlockBegin
  2
*D14
 70
     1
 10
0.0
 20
0.0
 30
0.0
  3
*D14
  1

  0
LINE
  5
5B795
330
5B4A1
100
AcDbEntity
  8
AM_5
100
AcDbLine
 10
-489.2674918750282
 20
-11336.37687668684
 30
0.0
 11
-489.2674918750282
 21
-11323.37687668684
 31
0.0
  0
LINE
  5
5B796
330
5B4A1
100
AcDbEntity
  8
AM_5
100
AcDbLine
 10
-486.2674918750282
 20
-11336.37687668684
 30
0.0
 11
-486.2674918750282
 21
-11323.37687668684
 31
0.0
  0
LINE
  5
5B797
330
5B4A1
100
AcDbEntity
  8
AM_5
100
AcDbLine
 10
-490.2674918750282
 20
-11324.37687668684
 30
0.0
 11
-491.2674918750282
 21
-11324.37687668684
 31
0.0
  0
LINE
  5
5B798
330
5B4A1
100
AcDbEntity
  8
AM_5
100
AcDbLine
 10
-485.2674918750282
 20
-11324.37687668684
 30
0.0
 11
-484.2674918750282
 21
-11324.37687668684
 31
0.0
  0
LINE
  5
5B799
330
5B4A1
100
AcDbEntity
  8
AM_5
100
AcDbLine
 10
-489.2674918750282
 20
-11324.37687668684
 30
0.0
 11
-486.2674918750282
 21
-11324.37687668684
 31
0.0
  0
INSERT
  5
5B79A
330
5B4A1
100
AcDbEntity
  8
AM_5
100
AcDbBlockReference
  2
_Dot
 10
-489.2674918750282
 20
-11324.37687668684
 30
0.0
  0
INSERT
  5
5B79B
330
5B4A1
100
AcDbEntity
  8
AM_5
100
AcDbBlockReference
  2
_Dot
 10
-486.2674918750282
 20
-11324.37687668684
 30
0.0
 50
180.0
  0
MTEXT
  5
5B79C
330
5B4A1
100
AcDbEntity
  8
AM_5
 62
     2
100
AcDbMText
 10
-487.7674918750281
 20
-11321.27687668684
 30
0.0
 40
3.200000000000001
 41
0.0
 71
     5
 72
     1
  1
%%c3
 73
     1
 44
1.0
1001
ACAD
1000
MTEXTBEGIN
1070
    73
1070
     1
1070
    44
1040
1.0
1070
    74
1070
     0
1000
MTEXTEND
  0
POINT
  5
5B79D
330
5B4A1
100
AcDbEntity
  8
Defpoints
 62
     0
100
AcDbPoint
 10
-489.2674918750282
 20
-11337.37687668684
 30
0.0
  0
POINT
  5
5B79E
330
5B4A1
100
AcDbEntity
  8
Defpoints
 62
     0
100
AcDbPoint
 10
-486.2674918750282
 20
-11337.37687668684
 30
0.0
  0
POINT
  5
5B79F
330
5B4A1
100
AcDbEntity
  8
Defpoints
 62
     0
100
AcDbPoint
 10
-486.2674918750282
 20
-11324.37687668684
 30
0.0
  0
ENDBLK
  5
5B4AC
330
5B4A1
100
AcDbEntity
  8
0
100
AcDbBlockEnd
  0
BLOCK
  5
5B501
330
5B4F5
100
AcDbEntity
  8
0
100
AcDbBlockBegin
  2
*D15
 70
     1
 10
0.0
 20
0.0
 30
0.0
  3
*D15
  1

  0
LINE
  5
5B7A0
330
5B4F5
100
AcDbEntity
  8
AM_5
100
AcDbLine
 10
-504.7674918750281
 20
-11340.37687668684
 30
0.0
 11
-514.76749187503
 21
-11340.37687668684
 31
0.0
  0
LINE
  5
5B7A1
330
5B4F5
100
AcDbEntity
  8
AM_5
100
AcDbLine
 10
-504.7674918750281
 20
-11338.07687668684
 30
0.0
 11
-514.76749187503
 21
-11338.07687668684
 31
0.0
  0
LINE
  5
5B7A2
330
5B4F5
100
AcDbEntity
  8
AM_5
100
AcDbLine
 10
-513.76749187503
 20
-11341.37687668684
 30
0.0
 11
-513.76749187503
 21
-11342.37687668684
 31
0.0
  0
LINE
  5
5B7A3
330
5B4F5
100
AcDbEntity
  8
AM_5
100
AcDbLine
 10
-513.76749187503
 20
-11337.07687668684
 30
0.0
 11
-513.76749187503
 21
-11327.48354335351
 31
0.0
  0
LINE
  5
5B7A4
330
5B4F5
100
AcDbEntity
  8
AM_5
100
AcDbLine
 10
-513.76749187503
 20
-11340.37687668684
 30
0.0
 11
-513.76749187503
 21
-11338.07687668684
 31
0.0
  0
INSERT
  5
5B7A5
330
5B4F5
100
AcDbEntity
  8
AM_5
100
AcDbBlockReference
  2
_Dot
 10
-513.76749187503
 20
-11340.37687668684
 30
0.0
 50
90.0
  0
INSERT
  5
5B7A6
330
5B4F5
100
AcDbEntity
  8
AM_5
100
AcDbBlockReference
  2
_Dot
 10
-513.76749187503
 20
-11338.07687668684
 30
0.0
 50
270.0
  0
MTEXT
  5
5B7A7
330
5B4F5
100
AcDbEntity
  8
AM_5
 62
     2
100
AcDbMText
 10
-516.8674918750282
 20
-11331.33021002017
 30
0.0
 40
3.200000000000001
 41
0.0
 71
     5
 72
     1
  1
2.3
 11
0.0000000000000001
 21
1.0
 31
0.0
 73
     1
 44
1.0
1001
ACAD
1000
MTEXTBEGIN
1070
    73
1070
     1
1070
    44
1040
1.0
1070
    74
1070
     0
1000
MTEXTEND
  0
POINT
  5
5B7A8
330
5B4F5
100
AcDbEntity
  8
Defpoints
 62
     0
100
AcDbPoint
 10
-503.7674918750282
 20
-11340.37687668684
 30
0.0
  0
POINT
  5
5B7A9
330
5B4F5
100
AcDbEntity
  8
Defpoints
 62
     0
100
AcDbPoint
 10
-503.7674918750282
 20
-11338.07687668684
 30
0.0
  0
POINT
  5
5B7AA
330
5B4F5
100
AcDbEntity
  8
Defpoints
 62
     0
100
AcDbPoint
 10
-513.76749187503
 20
-11338.07687668684
 30
0.0
  0
ENDBLK
  5
5B502
330
5B4F5
100
AcDbEntity
  8
0
100
AcDbBlockEnd
  0
BLOCK
  5
5B8B5
330
5B8AB
100
AcDbEntity
  8
0
100
AcDbBlockBegin
  2
*D16
 70
     1
 10
0.0
 20
0.0
 30
0.0
  3
*D16
  1

  0
LINE
  5
5C504
330
5B8AB
100
AcDbEntity
  8
AM_5
100
AcDbLine
 10
-64.87788890589735
 20
-11210.12410538707
 30
0.0
 11
-64.87788890589735
 21
-11195.13062688707
 31
0.0
  0
LINE
  5
5C505
330
5B8AB
100
AcDbEntity
  8
AM_5
100
AcDbLine
 10
-44.87788890589746
 20
-11209.78177888707
 30
0.0
 11
-44.87788890589746
 21
-11195.13062688707
 31
0.0
  0
LINE
  5
5C506
330
5B8AB
100
AcDbEntity
  8
AM_5
100
AcDbLine
 10
-63.87788890589735
 20
-11196.13062688707
 30
0.0
 11
-45.87788890589746
 21
-11196.13062688707
 31
0.0
  0
INSERT
  5
5C507
330
5B8AB
100
AcDbEntity
  8
AM_5
100
AcDbBlockReference
  2
_Dot
 10
-64.87788890589735
 20
-11196.13062688707
 30
0.0
 50
180.0
  0
INSERT
  5
5C508
330
5B8AB
100
AcDbEntity
  8
AM_5
100
AcDbBlockReference
  2
_Dot
 10
-44.87788890589746
 20
-11196.13062688707
 30
0.0
  0
MTEXT
  5
5C509
330
5B8AB
100
AcDbEntity
  8
AM_5
 62
     2
100
AcDbMText
 10
-54.87788890589735
 20
-11193.03062688707
 30
0.0
 40
3.200000000000001
 41
0.0
 71
     5
 72
     1
  1
20
 73
     1
 44
1.0
1001
ACAD
1000
MTEXTBEGIN
1070
    73
1070
     1
1070
    44
1040
1.0
1070
    74
1070
     0
1000
MTEXTEND
  0
POINT
  5
5C50A
330
5B8AB
100
AcDbEntity
  8
Defpoints
 62
     0
100
AcDbPoint
 10
-64.87788890589735
 20
-11211.12410538707
 30
0.0
  0
POINT
  5
5C50B
330
5B8AB
100
AcDbEntity
  8
Defpoints
 62
     0
100
AcDbPoint
 10
-44.87788890589746
 20
-11210.78177888707
 30
0.0
  0
POINT
  5
5C50C
330
5B8AB
100
AcDbEntity
  8
Defpoints
 62
     0
100
AcDbPoint
 10
-44.87788890589746
 20
-11196.13062688707
 30
0.0
  0
ENDBLK
  5
5B8B6
330
5B8AB
100
AcDbEntity
  8
0
100
AcDbBlockEnd
  0
BLOCK
  5
5B8C1
330
5B8B7
100
AcDbEntity
  8
0
100
AcDbBlockBegin
  2
*D17
 70
     1
 10
0.0
 20
0.0
 30
0.0
  3
*D17
  1

  0
LINE
  5
5C50D
330
5B8B7
100
AcDbEntity
  8
AM_5
100
AcDbLine
 10
-70.87788890589735
 20
-11205.13062688707
 30
0.0
 11
-70.87788890589735
 21
-11187.13062688707
 31
0.0
  0
LINE
  5
5C50E
330
5B8B7
100
AcDbEntity
  8
AM_5
100
AcDbLine
 10
-38.87788890589735
 20
-11205.13062688707
 30
0.0
 11
-38.87788890589735
 21
-11187.13062688707
 31
0.0
  0
LINE
  5
5C50F
330
5B8B7
100
AcDbEntity
  8
AM_5
100
AcDbLine
 10
-69.87788890589735
 20
-11188.13062688707
 30
0.0
 11
-39.87788890589735
 21
-11188.13062688707
 31
0.0
  0
INSERT
  5
5C510
330
5B8B7
100
AcDbEntity
  8
AM_5
100
AcDbBlockReference
  2
_Dot
 10
-70.87788890589735
 20
-11188.13062688707
 30
0.0
 50
180.0
  0
INSERT
  5
5C511
330
5B8B7
100
AcDbEntity
  8
AM_5
100
AcDbBlockReference
  2
_Dot
 10
-38.87788890589735
 20
-11188.13062688707
 30
0.0
  0
MTEXT
  5
5C512
330
5B8B7
100
AcDbEntity
  8
AM_5
 62
     2
100
AcDbMText
 10
-54.87788890589735
 20
-11185.03062688707
 30
0.0
 40
3.200000000000001
 41
0.0
 71
     5
 72
     1
  1
32
 73
     1
 44
1.0
1001
ACAD
1000
MTEXTBEGIN
1070
    73
1070
     1
1070
    44
1040
1.0
1070
    74
1070
     0
1000
MTEXTEND
  0
POINT
  5
5C513
330
5B8B7
100
AcDbEntity
  8
Defpoints
 62
     0
100
AcDbPoint
 10
-70.87788890589735
 20
-11206.13062688707
 30
0.0
  0
POINT
  5
5C514
330
5B8B7
100
AcDbEntity
  8
Defpoints
 62
     0
100
AcDbPoint
 10
-38.87788890589735
 20
-11206.13062688707
 30
0.0
  0
POINT
  5
5C515
330
5B8B7
100
AcDbEntity
  8
Defpoints
 62
     0
100
AcDbPoint
 10
-38.87788890589735
 20
-11188.13062688707
 30
0.0
  0
ENDBLK
  5
5B8C2
330
5B8B7
100
AcDbEntity
  8
0
100
AcDbBlockEnd
  0
BLOCK
  5
5B8CD
330
5B8C3
100
AcDbEntity
  8
0
100
AcDbBlockBegin
  2
*D18
 70
     1
 10
0.0
 20
0.0
 30
0.0
  3
*D18
  1

  0
LINE
  5
5C516
330
5B8C3
100
AcDbEntity
  8
AM_5
100
AcDbLine
 10
-71.87788890589735
 20
-11206.13062688707
 30
0.0
 11
-89.87788890590097
 21
-11206.13062688707
 31
0.0
  0
LINE
  5
5C517
330
5B8C3
100
AcDbEntity
  8
AM_5
100
AcDbLine
 10
-71.87788890589735
 20
-11256.13062688707
 30
0.0
 11
-89.87788890590099
 21
-11256.13062688707
 31
0.0
  0
LINE
  5
5C518
330
5B8C3
100
AcDbEntity
  8
AM_5
100
AcDbLine
 10
-88.87788890590098
 20
-11207.13062688707
 30
0.0
 11
-88.87788890590099
 21
-11255.13062688707
 31
0.0
  0
INSERT
  5
5C519
330
5B8C3
100
AcDbEntity
  8
AM_5
100
AcDbBlockReference
  2
_Dot
 10
-88.87788890590098
 20
-11206.13062688707
 30
0.0
 50
90.0
  0
INSERT
  5
5C51A
330
5B8C3
100
AcDbEntity
  8
AM_5
100
AcDbBlockReference
  2
_Dot
 10
-88.87788890590099
 20
-11256.13062688707
 30
0.0
 50
270.0
  0
MTEXT
  5
5C51B
330
5B8C3
100
AcDbEntity
  8
AM_5
 62
     2
100
AcDbMText
 10
-91.97788890589917
 20
-11231.13062688707
 30
0.0
 40
3.200000000000001
 41
0.0
 71
     5
 72
     1
  1
L
 11
0.0000000000000001
 21
1.0
 31
0.0
 73
     1
 44
1.0
1001
ACAD
1000
MTEXTBEGIN
1070
    73
1070
     1
1070
    44
1040
1.0
1070
    74
1070
     0
1000
MTEXTEND
  0
POINT
  5
5C51C
330
5B8C3
100
AcDbEntity
  8
Defpoints
 62
     0
100
AcDbPoint
 10
-70.87788890589735
 20
-11206.13062688707
 30
0.0
  0
POINT
  5
5C51D
330
5B8C3
100
AcDbEntity
  8
Defpoints
 62
     0
100
AcDbPoint
 10
-70.87788890589735
 20
-11256.13062688707
 30
0.0
  0
POINT
  5
5C51E
330
5B8C3
100
AcDbEntity
  8
Defpoints
 62
     0
100
AcDbPoint
 10
-88.87788890590099
 20
-11256.13062688707
 30
0.0
  0
ENDBLK
  5
5B8CE
330
5B8C3
100
AcDbEntity
  8
0
100
AcDbBlockEnd
  0
BLOCK
  5
5B8D9
330
5B8CF
100
AcDbEntity
  8
0
100
AcDbBlockBegin
  2
*D19
 70
     1
 10
0.0
 20
0.0
 30
0.0
  3
*D19
  1

  0
LINE
  5
5C51F
330
5B8CF
100
AcDbEntity
  8
AM_5
100
AcDbLine
 10
-70.79882890589743
 20
-11246.13062688707
 30
0.0
 11
-81.87788890590098
 21
-11246.13062688707
 31
0.0
  0
LINE
  5
5C520
330
5B8CF
100
AcDbEntity
  8
AM_5
100
AcDbLine
 10
-70.62766590589735
 20
-11216.13062688707
 30
0.0
 11
-81.87788890590097
 21
-11216.13062688707
 31
0.0
  0
LINE
  5
5C521
330
5B8CF
100
AcDbEntity
  8
AM_5
100
AcDbLine
 10
-80.87788890590099
 20
-11245.13062688707
 30
0.0
 11
-80.87788890590097
 21
-11217.13062688707
 31
0.0
  0
INSERT
  5
5C522
330
5B8CF
100
AcDbEntity
  8
AM_5
100
AcDbBlockReference
  2
_Dot
 10
-80.87788890590099
 20
-11246.13062688707
 30
0.0
 50
270.0
  0
INSERT
  5
5C523
330
5B8CF
100
AcDbEntity
  8
AM_5
100
AcDbBlockReference
  2
_Dot
 10
-80.87788890590097
 20
-11216.13062688707
 30
0.0
 50
90.0
  0
MTEXT
  5
5C524
330
5B8CF
100
AcDbEntity
  8
AM_5
 62
     2
100
AcDbMText
 10
-83.97788890589916
 20
-11231.13062688707
 30
0.0
 40
3.200000000000001
 41
0.0
 71
     5
 72
     1
  1
P
 11
0.0000000000000001
 21
1.0
 31
0.0
 73
     1
 44
1.0
1001
ACAD
1000
MTEXTBEGIN
1070
    73
1070
     1
1070
    44
1040
1.0
1070
    74
1070
     0
1000
MTEXTEND
  0
POINT
  5
5C525
330
5B8CF
100
AcDbEntity
  8
Defpoints
 62
     0
100
AcDbPoint
 10
-69.79882890589744
 20
-11246.13062688707
 30
0.0
  0
POINT
  5
5C526
330
5B8CF
100
AcDbEntity
  8
Defpoints
 62
     0
100
AcDbPoint
 10
-69.62766590589734
 20
-11216.13062688707
 30
0.0
  0
POINT
  5
5C527
330
5B8CF
100
AcDbEntity
  8
Defpoints
 62
     0
100
AcDbPoint
 10
-80.87788890590097
 20
-11216.13062688707
 30
0.0
  0
ENDBLK
  5
5B8DA
330
5B8CF
100
AcDbEntity
  8
0
100
AcDbBlockEnd
  0
BLOCK
  5
5B8E5
330
5B8DB
100
AcDbEntity
  8
0
100
AcDbBlockBegin
  2
*D20
 70
     1
 10
0.0
 20
0.0
 30
0.0
  3
*D20
  1

  0
LINE
  5
5C531
330
5B8DB
100
AcDbEntity
  8
AM_5
100
AcDbLine
 10
-57.87788890589735
 20
-11304.02324981325
 30
0.0
 11
-57.87788890589735
 21
-11283.02324981325
 31
0.0
  0
LINE
  5
5C532
330
5B8DB
100
AcDbEntity
  8
AM_5
100
AcDbLine
 10
-51.87788890589735
 20
-11304.02324981325
 30
0.0
 11
-51.87788890589735
 21
-11283.02324981325
 31
0.0
  0
LINE
  5
5C533
330
5B8DB
100
AcDbEntity
  8
AM_5
100
AcDbLine
 10
-56.87788890589735
 20
-11284.02324981325
 30
0.0
 11
-52.87788890589735
 21
-11284.02324981325
 31
0.0
  0
INSERT
  5
5C534
330
5B8DB
100
AcDbEntity
  8
AM_5
100
AcDbBlockReference
  2
_Dot
 10
-57.87788890589735
 20
-11284.02324981325
 30
0.0
 50
180.0
  0
INSERT
  5
5C535
330
5B8DB
100
AcDbEntity
  8
AM_5
100
AcDbBlockReference
  2
_Dot
 10
-51.87788890589735
 20
-11284.02324981325
 30
0.0
  0
MTEXT
  5
5C536
330
5B8DB
100
AcDbEntity
  8
AM_5
 62
     2
100
AcDbMText
 10
-54.87788890589735
 20
-11280.92324981325
 30
0.0
 40
3.200000000000001
 41
0.0
 71
     5
 72
     1
  1
（%%c6）
 73
     1
 44
1.0
1001
ACAD
1000
MTEXTBEGIN
1070
    73
1070
     1
1070
    44
1040
1.0
1070
    74
1070
     0
1000
MTEXTEND
  0
POINT
  5
5C537
330
5B8DB
100
AcDbEntity
  8
Defpoints
 62
     0
100
AcDbPoint
 10
-57.87788890589735
 20
-11305.02324981325
 30
0.0
  0
POINT
  5
5C538
330
5B8DB
100
AcDbEntity
  8
Defpoints
 62
     0
100
AcDbPoint
 10
-51.87788890589735
 20
-11305.02324981325
 30
0.0
  0
POINT
  5
5C539
330
5B8DB
100
AcDbEntity
  8
Defpoints
 62
     0
100
AcDbPoint
 10
-51.87788890589735
 20
-11284.02324981325
 30
0.0
  0
ENDBLK
  5
5B8E6
330
5B8DB
100
AcDbEntity
  8
0
100
AcDbBlockEnd
  0
BLOCK
  5
5B8F3
330
5B8E7
100
AcDbEntity
  8
0
100
AcDbBlockBegin
  2
*D21
 70
     1
 10
0.0
 20
0.0
 30
0.0
  3
*D21
  1

  0
LINE
  5
5C53A
330
5B8E7
100
AcDbEntity
  8
AM_5
100
AcDbLine
 10
-56.37788890589735
 20
-11304.02324981325
 30
0.0
 11
-56.37788890589735
 21
-11291.02324981325
 31
0.0
  0
LINE
  5
5C53B
330
5B8E7
100
AcDbEntity
  8
AM_5
100
AcDbLine
 10
-53.37788890589735
 20
-11304.02324981325
 30
0.0
 11
-53.37788890589735
 21
-11291.02324981325
 31
0.0
  0
LINE
  5
5C53C
330
5B8E7
100
AcDbEntity
  8
AM_5
100
AcDbLine
 10
-57.37788890589735
 20
-11292.02324981325
 30
0.0
 11
-58.37788890589735
 21
-11292.02324981325
 31
0.0
  0
LINE
  5
5C53D
330
5B8E7
100
AcDbEntity
  8
AM_5
100
AcDbLine
 10
-52.37788890589735
 20
-11292.02324981325
 30
0.0
 11
-51.37788890589735
 21
-11292.02324981325
 31
0.0
  0
LINE
  5
5C53E
330
5B8E7
100
AcDbEntity
  8
AM_5
100
AcDbLine
 10
-56.37788890589735
 20
-11292.02324981325
 30
0.0
 11
-53.37788890589735
 21
-11292.02324981325
 31
0.0
  0
INSERT
  5
5C53F
330
5B8E7
100
AcDbEntity
  8
AM_5
100
AcDbBlockReference
  2
_Dot
 10
-56.37788890589735
 20
-11292.02324981325
 30
0.0
  0
INSERT
  5
5C540
330
5B8E7
100
AcDbEntity
  8
AM_5
100
AcDbBlockReference
  2
_Dot
 10
-53.37788890589735
 20
-11292.02324981325
 30
0.0
 50
180.0
  0
MTEXT
  5
5C541
330
5B8E7
100
AcDbEntity
  8
AM_5
 62
     2
100
AcDbMText
 10
-54.87788890589735
 20
-11288.92324981324
 30
0.0
 40
3.200000000000001
 41
0.0
 71
     5
 72
     1
  1
%%c3
 73
     1
 44
1.0
1001
ACAD
1000
MTEXTBEGIN
1070
    73
1070
     1
1070
    44
1040
1.0
1070
    74
1070
     0
1000
MTEXTEND
  0
POINT
  5
5C542
330
5B8E7
100
AcDbEntity
  8
Defpoints
 62
     0
100
AcDbPoint
 10
-56.37788890589735
 20
-11305.02324981325
 30
0.0
  0
POINT
  5
5C543
330
5B8E7
100
AcDbEntity
  8
Defpoints
 62
     0
100
AcDbPoint
 10
-53.37788890589735
 20
-11305.02324981325
 30
0.0
  0
POINT
  5
5C544
330
5B8E7
100
AcDbEntity
  8
Defpoints
 62
     0
100
AcDbPoint
 10
-53.37788890589735
 20
-11292.02324981325
 30
0.0
  0
ENDBLK
  5
5B8F4
330
5B8E7
100
AcDbEntity
  8
0
100
AcDbBlockEnd
  0
BLOCK
  5
5B901
330
5B8F5
100
AcDbEntity
  8
0
100
AcDbBlockBegin
  2
*D22
 70
     1
 10
0.0
 20
0.0
 30
0.0
  3
*D22
  1

  0
LINE
  5
5C545
330
5B8F5
100
AcDbEntity
  8
AM_5
100
AcDbLine
 10
-71.87788890589735
 20
-11308.02324981325
 30
0.0
 11
-81.87788890589917
 21
-11308.02324981325
 31
0.0
  0
LINE
  5
5C546
330
5B8F5
100
AcDbEntity
  8
AM_5
100
AcDbLine
 10
-71.87788890589735
 20
-11305.72324981325
 30
0.0
 11
-81.87788890589917
 21
-11305.72324981325
 31
0.0
  0
LINE
  5
5C547
330
5B8F5
100
AcDbEntity
  8
AM_5
100
AcDbLine
 10
-80.87788890589918
 20
-11309.02324981325
 30
0.0
 11
-80.87788890589918
 21
-11310.02324981325
 31
0.0
  0
LINE
  5
5C548
330
5B8F5
100
AcDbEntity
  8
AM_5
100
AcDbLine
 10
-80.87788890589918
 20
-11304.72324981324
 30
0.0
 11
-80.87788890589916
 21
-11295.12991647991
 31
0.0
  0
LINE
  5
5C549
330
5B8F5
100
AcDbEntity
  8
AM_5
100
AcDbLine
 10
-80.87788890589918
 20
-11308.02324981325
 30
0.0
 11
-80.87788890589918
 21
-11305.72324981325
 31
0.0
  0
INSERT
  5
5C54A
330
5B8F5
100
AcDbEntity
  8
AM_5
100
AcDbBlockReference
  2
_Dot
 10
-80.87788890589918
 20
-11308.02324981325
 30
0.0
 50
90.0
  0
INSERT
  5
5C54B
330
5B8F5
100
AcDbEntity
  8
AM_5
100
AcDbBlockReference
  2
_Dot
 10
-80.87788890589918
 20
-11305.72324981325
 30
0.0
 50
270.0
  0
MTEXT
  5
5C54C
330
5B8F5
100
AcDbEntity
  8
AM_5
 62
     2
100
AcDbMText
 10
-83.97788890589735
 20
-11298.97658314658
 30
0.0
 40
3.200000000000001
 41
0.0
 71
     5
 72
     1
  1
2.3
 11
0.0000000000000001
 21
1.0
 31
0.0
 73
     1
 44
1.0
1001
ACAD
1000
MTEXTBEGIN
1070
    73
1070
     1
1070
    44
1040
1.0
1070
    74
1070
     0
1000
MTEXTEND
  0
POINT
  5
5C54D
330
5B8F5
100
AcDbEntity
  8
Defpoints
 62
     0
100
AcDbPoint
 10
-70.87788890589735
 20
-11308.02324981325
 30
0.0
  0
POINT
  5
5C54E
330
5B8F5
100
AcDbEntity
  8
Defpoints
 62
     0
100
AcDbPoint
 10
-70.87788890589735
 20
-11305.72324981325
 30
0.0
  0
POINT
  5
5C54F
330
5B8F5
100
AcDbEntity
  8
Defpoints
 62
     0
100
AcDbPoint
 10
-80.87788890589918
 20
-11305.72324981325
 30
0.0
  0
ENDBLK
  5
5B902
330
5B8F5
100
AcDbEntity
  8
0
100
AcDbBlockEnd
  0
BLOCK
  5
5B931
330
5B927
100
AcDbEntity
  8
0
100
AcDbBlockBegin
  2
*D23
 70
     1
 10
0.0
 20
0.0
 30
0.0
  3
*D23
  1

  0
LINE
  5
5C62D
330
5B927
100
AcDbEntity
  8
AM_5
100
AcDbLine
 10
-108.4760701439709
 20
-11196.13062688707
 30
0.0
 11
-78.01940347729214
 21
-11196.13062688707
 31
0.0
  0
LINE
  5
5C62E
330
5B927
100
AcDbEntity
  8
AM_5
100
AcDbLine
 10
-78.01940347729214
 20
-11196.13062688707
 30
0.0
 11
-67.76086710507115
 21
-11211.74303794744
 31
0.0
  0
LINE
  5
5C62F
330
5B927
100
AcDbEntity
  8
AM_5
100
AcDbLine
 10
-61.99491070673139
 20
-11220.5182158267
 30
0.0
 11
-60.8966332975242
 21
-11222.18967827989
 31
0.0
  0
MTEXT
  5
5C630
330
5B927
100
AcDbEntity
  8
AM_5
 62
     2
100
AcDbMText
 10
-93.99773681063743
 20
-11192.88062688707
 30
0.0
 40
3.5
 41
0.0
 71
     5
 72
     1
  1
4-%%c3.3×\U+22056.5サラ
 73
     1
 44
1.0
1001
ACAD
1000
MTEXTBEGIN
1070
    73
1070
     1
1070
    44
1040
1.0
1070
    74
1070
     0
1000
MTEXTEND
  0
LINE
  5
5C631
330
5B927
100
AcDbEntity
  8
AM_5
100
AcDbLine
 10
-63.09318811593766
 20
-11218.84675337351
 30
0.0
 11
-66.66258969586488
 21
-11213.41450040063
 31
0.0
  0
INSERT
  5
5C632
330
5B927
100
AcDbEntity
  8
AM_5
100
AcDbBlockReference
  2
GENDOT
 10
-63.09318811593766
 20
-11218.84675337351
 30
0.0
 41
2.0
 42
2.0
 43
2.0
 50
123.3079445529032
  0
INSERT
  5
5C633
330
5B927
100
AcDbEntity
  8
AM_5
100
AcDbBlockReference
  2
GENDOT
 10
-66.66258969586488
 20
-11213.41450040063
 30
0.0
 41
2.0
 42
2.0
 43
2.0
 50
303.3079445529032
  0
POINT
  5
5C634
330
5B927
100
AcDbEntity
  8
Defpoints
 62
     0
100
AcDbPoint
 10
-66.66258969586488
 20
-11213.41450040063
 30
0.0
  0
POINT
  5
5C635
330
5B927
100
AcDbEntity
  8
Defpoints
 62
     0
100
AcDbPoint
 10
-63.09318811593766
 20
-11218.84675337351
 30
0.0
  0
ENDBLK
  5
5B932
330
5B927
100
AcDbEntity
  8
0
100
AcDbBlockEnd
  0
BLOCK
  5
5C616
330
5C613
100
AcDbEntity
  8
0
100
AcDbBlockBegin
  2
GENDOT
 70
     0
 10
0.0
 20
0.0
 30
0.0
  3
GENDOT
  1

  0
LINE
  5
5C614
330
5C613
100
AcDbEntity
  8
0
100
AcDbLine
 10
0.0
 20
0.0
 30
0.0
 11
-1.0
 21
0.0
 31
0.0
  0
LWPOLYLINE
  5
5C615
330
5C613
100
AcDbEntity
  8
0
100
AcDbPolyline
 90
        2
 70
     1
 43
0.25
 10
-0.125
 20
0.0
 42
1.0
 10
0.125
 20
0.0
 42
1.0
  0
ENDBLK
  5
5C617
330
5C613
100
AcDbEntity
  8
0
100
AcDbBlockEnd
  0
ENDSEC
  0
SECTION
  2
ENTITIES
  0
MTEXT
  5
106CC
330
1F
100
AcDbEntity
  8
AM_0
 48
1.01
100
AcDbMText
 10
730.8714680310349
 20
1138.067761010781
 30
0.0
 40
3.2
 41
84.65110299302251
 71
     1
 72
     5
  1

 73
     1
 44
1.0
1001
ACAD
1000
MTEXTBEGIN
1070
    73
1070
     1
1070
    44
1040
1.0
1070
    74
1070
     0
1000
MTEXTEND
  0
MTEXT
  5
15810
330
1F
100
AcDbEntity
  8
AM_0
 48
1.01
100
AcDbMText
 10
1216.290048939032
 20
1069.515025886514
 30
0.0
 40
3.2
 41
480.872052688973
 71
     1
 72
     5
  1

 73
     1
 44
1.0
1001
ACAD
1000
MTEXTBEGIN
1070
    73
1070
     1
1070
    44
1040
1.0
1070
    74
1070
     0
1000
MTEXTEND
  0
AMDTACMWBLOCKBOMENTITY
  5
250AD
330
1F
100
AcDbEntity
  8
AM_5
 48
1.01
 92
        8
310
0800000000000000
370
    13
  0
AMDTACMWBLOCKBOMENTITY
  5
250AE
330
1F
100
AcDbEntity
  8
AM_5
 48
1.01
 92
        8
310
0800000000000000
370
    13
  0
AMDTACMWBLOCKBOMENTITY
  5
250AF
330
1F
100
AcDbEntity
  8
AM_5
 48
1.01
 92
        8
310
0800000000000000
370
    13
  0
AMDTACMWBLOCKBOMENTITY
  5
250B0
330
1F
100
AcDbEntity
  8
AM_5
 48
1.01
 92
        8
310
0800000000000000
370
    13
  0
AMDTACMWBLOCKBOMENTITY
  5
250B1
330
1F
100
AcDbEntity
  8
AM_5
 48
1.01
 92
        8
310
0800000000000000
370
    13
  0
AMDTACMWBLOCKBOMENTITY
  5
250B2
330
1F
100
AcDbEntity
  8
AM_5
 48
1.01
 92
        8
310
0800000000000000
370
    13
  0
AMDTACMWBLOCKBOMENTITY
  5
250B3
330
1F
100
AcDbEntity
  8
AM_5
 48
1.01
 92
        8
310
0800000000000000
370
    13
  0
AMDTACMWBLOCKBOMENTITY
  5
26BAB
330
1F
100
AcDbEntity
  8
AM_5
 92
        8
310
0800000000000000
370
    13
  0
AMDTACMWBLOCKBOMENTITY
  5
26BAC
330
1F
100
AcDbEntity
  8
AM_5
 92
        8
310
0800000000000000
370
    13
  0
AMDTACMWBLOCKBOMENTITY
  5
26BAD
330
1F
100
AcDbEntity
  8
AM_5
 92
        8
310
0800000000000000
370
    13
  0
AMDTACMWBLOCKBOMENTITY
  5
26BAE
330
1F
100
AcDbEntity
  8
AM_5
 92
        8
310
0800000000000000
370
    13
  0
AMDTACMWBLOCKBOMENTITY
  5
26BAF
330
1F
100
AcDbEntity
  8
AM_5
 92
        8
310
0800000000000000
370
    13
  0
AMDTACMWBLOCKBOMENTITY
  5
2AD30
330
1F
100
AcDbEntity
  8
AM_5
 48
8.0
 92
        8
310
0800000000000000
  0
LINE
  5
5851D
330
1F
100
AcDbEntity
  8
AM_0
100
AcDbLine
 10
-220.0923380917966
 20
-11145.14904086222
 30
0.0
 11
-220.0923380917966
 21
-11185.14904086222
 31
0.0
  0
LINE
  5
5851E
330
1F
100
AcDbEntity
  8
AM_4
100
AcDbLine
 10
-240.0923380917966
 20
-11153.14904086222
 30
0.0
 11
-142.0923380917966
 21
-11153.14904086222
 31
0.0
  0
LINE
  5
5851F
330
1F
100
AcDbEntity
  8
AM_4
100
AcDbLine
 10
-240.0923380917966
 20
-11161.14904086222
 30
0.0
 11
-142.0923380917966
 21
-11161.14904086222
 31
0.0
  0
LINE
  5
58520
330
1F
100
AcDbEntity
  8
AM_4
100
AcDbLine
 10
-240.0923380917966
 20
-11169.14904086222
 30
0.0
 11
-142.0923380917966
 21
-11169.14904086222
 31
0.0
  0
LINE
  5
58521
330
1F
100
AcDbEntity
  8
AM_4
100
AcDbLine
 10
-240.0923380917966
 20
-11177.14904086222
 30
0.0
 11
-142.0923380917966
 21
-11177.14904086222
 31
0.0
  0
LINE
  5
58524
330
1F
100
AcDbEntity
  8
AM_0
100
AcDbLine
 10
-240.0923380917966
 20
-11185.14904086222
 30
0.0
 11
-142.0923380917966
 21
-11185.14904086222
 31
0.0
  0
LINE
  5
58528
330
1F
100
AcDbEntity
  8
AM_0
100
AcDbLine
 10
-240.0923380917966
 20
-11145.14904086222
 30
0.0
 11
-240.0923380917966
 21
-11185.14904086222
 31
0.0
  0
LINE
  5
58529
330
1F
100
AcDbEntity
  8
AM_0
100
AcDbLine
 10
-240.0923380917966
 20
-11145.14904086222
 30
0.0
 11
-142.0923380917966
 21
-11145.14904086222
 31
0.0
  0
LINE
  5
5852A
330
1F
100
AcDbEntity
  8
AM_0
100
AcDbLine
 10
-142.0923380917966
 20
-11145.14904086222
 30
0.0
 11
-142.0923380917966
 21
-11185.14904086222
 31
0.0
  0
TEXT
  5
58537
330
1F
100
AcDbEntity
  8
AM_6
100
AcDbText
 10
-234.4353380917966
 20
-11150.74904086222
 30
0.0
 40
3.2
  1
品　名
 41
0.85537027
100
AcDbText
  0
TEXT
  5
58538
330
1F
100
AcDbEntity
  8
AM_6
100
AcDbText
 10
-234.4353380917966
 20
-11158.74904086222
 30
0.0
 40
3.2
  1
品　番
 41
0.85537027
100
AcDbText
  0
TEXT
  5
58539
330
1F
100
AcDbEntity
  8
AM_6
100
AcDbText
 10
-234.4353380917966
 20
-11166.74904086222
 30
0.0
 40
3.2
  1
材　質
 41
0.85537027
100
AcDbText
  0
TEXT
  5
5853A
330
1F
100
AcDbEntity
  8
AM_6
100
AcDbText
 10
-234.4353380917966
 20
-11174.74904086222
 30
0.0
 40
3.2
  1
仕上げ
 41
0.85537027
100
AcDbText
  0
TEXT
  5
5853B
330
1F
100
AcDbEntity
  8
AM_6
100
AcDbText
 10
-237.6353380917966
 20
-11182.74904086222
 30
0.0
 40
3.2
  1
セットビス
 41
0.84892707
100
AcDbText
  0
TEXT
  5
5853D
330
1F
100
AcDbEntity
  8
AM_6
100
AcDbText
 10
-217.2353380917966
 20
-11150.74904086222
 30
0.0
 40
3.2
  1
平型丁番
 41
0.84306961
100
AcDbText
  0
TEXT
  5
5853E
330
1F
100
AcDbEntity
  8
AM_6
100
AcDbText
 10
-217.2353380917966
 20
-11158.74904086222
 30
0.0
 40
3.2
  1
DEH-12-「 」 
 41
0.84741102
100
AcDbText
  0
TEXT
  5
5853F
330
1F
100
AcDbEntity
  8
AM_6
100
AcDbText
 10
-217.2353380917966
 20
-11166.74904086222
 30
0.0
 40
3.2
  1
黄銅条
 41
0.84634979
100
AcDbText
  0
TEXT
  5
58540
330
1F
100
AcDbEntity
  8
AM_6
100
AcDbText
 10
-217.2353380917966
 20
-11174.74904086222
 30
0.0
 40
3.2
  1
クロムメッキ
 41
0.84350122
100
AcDbText
  0
LINE
  5
5B876
330
1F
100
AcDbEntity
  8
AM_7
 48
0.5
100
AcDbLine
 10
-44.87788890589746
 20
-11210.78177888707
 30
0.0
 11
-44.87788890589746
 21
-11221.47947488707
 31
0.0
  0
LINE
  5
5B877
330
1F
100
AcDbEntity
  8
AM_7
 48
0.5
100
AcDbLine
 10
-39.91415790589741
 20
-11216.13062688707
 30
0.0
 11
-49.8416199058974
 21
-11216.13062688707
 31
0.0
  0
LINE
  5
5B878
330
1F
100
AcDbEntity
  8
AM_7
 48
0.5
100
AcDbLine
 10
-44.87788890589735
 20
-11240.73898788707
 30
0.0
 11
-44.87788890589735
 21
-11251.52226588707
 31
0.0
  0
LINE
  5
5B879
330
1F
100
AcDbEntity
  8
AM_7
 48
0.5
100
AcDbLine
 10
-39.95694840589732
 20
-11246.13062688707
 30
0.0
 11
-49.79882940589738
 21
-11246.13062688707
 31
0.0
  0
LINE
  5
5B87A
330
1F
100
AcDbEntity
  8
AM_7
 48
0.5
100
AcDbLine
 10
-64.87788890589735
 20
-11211.12410538707
 30
0.0
 11
-64.87788890589735
 21
-11221.13714838707
 31
0.0
  0
LINE
  5
5B87B
330
1F
100
AcDbEntity
  8
AM_7
 48
0.5
100
AcDbLine
 10
-60.12811190589736
 20
-11216.13062688707
 30
0.0
 11
-69.62766590589734
 21
-11216.13062688707
 31
0.0
  0
LINE
  5
5B87C
330
1F
100
AcDbEntity
  8
AM_7
 48
0.5
100
AcDbLine
 10
-64.87788890589746
 20
-11240.86736038707
 30
0.0
 11
-64.87788890589746
 21
-11251.39389338707
 31
0.0
  0
LINE
  5
5B87D
330
1F
100
AcDbEntity
  8
AM_7
 48
0.5
100
AcDbLine
 10
-59.95694890589738
 20
-11246.13062688707
 30
0.0
 11
-69.79882890589744
 21
-11246.13062688707
 31
0.0
  0
LINE
  5
5B87E
330
1F
100
AcDbEntity
  8
AM_0
100
AcDbLine
 10
-51.37788890589735
 20
-11243.08062688707
 30
0.0
 11
-58.37788890589735
 21
-11243.08062688707
 31
0.0
  0
LINE
  5
5B87F
330
1F
100
AcDbEntity
  8
AM_0
100
AcDbLine
 10
-58.37788890589735
 20
-11219.18062688707
 30
0.0
 11
-51.37788890589735
 21
-11219.18062688707
 31
0.0
  0
LINE
  5
5B880
330
1F
100
AcDbEntity
  8
AM_0
100
AcDbLine
 10
-38.87788890589735
 20
-11256.13062688707
 30
0.0
 11
-57.87788890589735
 21
-11256.13062688707
 31
0.0
  0
LINE
  5
5B881
330
1F
100
AcDbEntity
  8
AM_7
 48
0.5
100
AcDbLine
 10
-54.87788890589735
 20
-11201.65937988707
 30
0.0
 11
-54.87788890589735
 21
-11260.71066188707
 31
0.0
  0
LINE
  5
5B882
330
1F
100
AcDbEntity
  8
AM_0
100
AcDbLine
 10
-51.87788890589735
 20
-11206.13062688707
 30
0.0
 11
-51.87788890589735
 21
-11256.13062688707
 31
0.0
  0
LINE
  5
5B883
330
1F
100
AcDbEntity
  8
AM_0
100
AcDbLine
 10
-57.87788890589735
 20
-11206.13062688707
 30
0.0
 11
-38.87788890589735
 21
-11206.13062688707
 31
0.0
  0
LINE
  5
5B884
330
1F
100
AcDbEntity
  8
AM_0
100
AcDbLine
 10
-57.87788890589735
 20
-11256.13062688707
 30
0.0
 11
-57.87788890589735
 21
-11206.13062688707
 31
0.0
  0
LINE
  5
5B885
330
1F
100
AcDbEntity
  8
AM_0
100
AcDbLine
 10
-51.37788890589735
 20
-11243.08062688707
 30
0.0
 11
-51.37788890589735
 21
-11219.18062688707
 31
0.0
  0
LINE
  5
5B886
330
1F
100
AcDbEntity
  8
AM_0
100
AcDbLine
 10
-38.87788890589735
 20
-11206.13062688707
 30
0.0
 11
-38.87788890589735
 21
-11256.13062688707
 31
0.0
  0
LINE
  5
5B887
330
1F
100
AcDbEntity
  8
AM_0
100
AcDbLine
 10
-58.37788890589735
 20
-11206.13062688707
 30
0.0
 11
-70.87788890589735
 21
-11206.13062688707
 31
0.0
  0
LINE
  5
5B888
330
1F
100
AcDbEntity
  8
AM_0
100
AcDbLine
 10
-58.37788890589735
 20
-11219.18062688707
 30
0.0
 11
-58.37788890589735
 21
-11206.13062688707
 31
0.0
  0
LINE
  5
5B889
330
1F
100
AcDbEntity
  8
AM_0
100
AcDbLine
 10
-58.37788890589735
 20
-11256.13062688707
 30
0.0
 11
-58.37788890589735
 21
-11243.08062688707
 31
0.0
  0
LINE
  5
5B88A
330
1F
100
AcDbEntity
  8
AM_0
100
AcDbLine
 10
-70.87788890589735
 20
-11256.13062688707
 30
0.0
 11
-58.37788890589735
 21
-11256.13062688707
 31
0.0
  0
LINE
  5
5B88B
330
1F
100
AcDbEntity
  8
AM_0
100
AcDbLine
 10
-70.87788890589735
 20
-11206.13062688707
 30
0.0
 11
-70.87788890589735
 21
-11256.13062688707
 31
0.0
  0
LINE
  5
5B88C
330
1F
100
AcDbEntity
  8
AM_0
100
AcDbLine
 10
-70.87788890589735
 20
-11305.72324981325
 30
0.0
 11
-57.79507890589735
 21
-11305.72324981325
 31
0.0
  0
LINE
  5
5B88D
330
1F
100
AcDbEntity
  8
AM_0
100
AcDbLine
 10
-38.87788890589735
 20
-11308.02324981325
 30
0.0
 11
-70.87788890589735
 21
-11308.02324981325
 31
0.0
  0
LINE
  5
5B88E
330
1F
100
AcDbEntity
  8
AM_0
100
AcDbLine
 10
-58.37788890589735
 20
-11305.72324981325
 30
0.0
 11
-58.37788890589735
 21
-11308.02324981325
 31
0.0
  0
LINE
  5
5B88F
330
1F
100
AcDbEntity
  8
AM_7
 48
0.3
100
AcDbLine
 10
-44.87788890589735
 20
-11303.86675581324
 30
0.0
 11
-44.87788890589735
 21
-11309.69166181325
 31
0.0
  0
LINE
  5
5B890
330
1F
100
AcDbEntity
  8
AM_7
 48
0.3
100
AcDbLine
 10
-64.87788890589735
 20
-11303.75328281325
 30
0.0
 11
-64.87788890589735
 21
-11309.80513381325
 31
0.0
  0
LINE
  5
5B891
330
1F
100
AcDbEntity
  8
AM_0
100
AcDbLine
 10
-70.87788890589735
 20
-11308.02324981325
 30
0.0
 11
-70.87788890589735
 21
-11305.72324981325
 31
0.0
  0
LINE
  5
5B892
330
1F
100
AcDbEntity
  8
AM_0
100
AcDbLine
 10
-38.87788890589735
 20
-11305.72324981325
 30
0.0
 11
-38.87788890589735
 21
-11308.02324981325
 31
0.0
  0
LINE
  5
5B893
330
1F
100
AcDbEntity
  8
AM_0
100
AcDbLine
 10
-51.38360790589735
 20
-11305.72324981325
 30
0.0
 11
-38.87788890589735
 21
-11305.72324981325
 31
0.0
  0
LINE
  5
5B894
330
1F
100
AcDbEntity
  8
AM_7
 48
0.5
100
AcDbLine
 10
-54.87788890589735
 20
-11299.29004381325
 30
0.0
 11
-54.87788890589735
 21
-11310.37249481325
 31
0.0
  0
LINE
  5
5B895
330
1F
100
AcDbEntity
  8
AM_7
 48
0.5
100
AcDbLine
 10
-49.33566990589731
 20
-11305.02324981325
 30
0.0
 11
-60.15335290589729
 21
-11305.02324981325
 31
0.0
  0
CIRCLE
  5
5B896
330
1F
100
AcDbEntity
  8
AM_0
100
AcDbCircle
 10
-54.87788890589735
 20
-11305.02324981325
 30
0.0
 40
1.5
  0
ARC
  5
5B897
330
1F
100
AcDbEntity
  8
AM_0
100
AcDbCircle
 10
-54.87788890589735
 20
-11305.02324981325
 30
0.0
 40
3.0
100
AcDbArc
 50
356.7241709999544
 51
270.0
  0
CIRCLE
  5
5B898
330
1F
100
AcDbEntity
  8
AM_0
100
AcDbCircle
 10
-44.87788890589735
 20
-11216.13062688707
 30
0.0
 40
3.25
  0
CIRCLE
  5
5B899
330
1F
100
AcDbEntity
  8
AM_0
100
AcDbCircle
 10
-44.87788890589735
 20
-11216.13062688707
 30
0.0
 40
1.5
  0
CIRCLE
  5
5B89A
330
1F
100
AcDbEntity
  8
AM_0
100
AcDbCircle
 10
-44.87788890589735
 20
-11246.13062688707
 30
0.0
 40
3.25
  0
CIRCLE
  5
5B89B
330
1F
100
AcDbEntity
  8
AM_0
100
AcDbCircle
 10
-44.87788890589735
 20
-11246.13062688707
 30
0.0
 40
1.5
  0
CIRCLE
  5
5B89C
102
{ACAD_REACTORS
330
5B8A7
102
}
330
1F
100
AcDbEntity
  8
1
  6
Continuous
 62
     7
100
AcDbCircle
 10
-64.87788890589735
 20
-11216.13062688707
 30
0.0
 40
3.25
  0
CIRCLE
  5
5B89D
330
1F
100
AcDbEntity
  8
1
  6
Continuous
 62
     7
100
AcDbCircle
 10
-64.87788890589735
 20
-11216.13062688707
 30
0.0
 40
1.5
  0
CIRCLE
  5
5B89E
330
1F
100
AcDbEntity
  8
AM_0
100
AcDbCircle
 10
-64.87788890589735
 20
-11246.13062688707
 30
0.0
 40
3.25
  0
CIRCLE
  5
5B89F
330
1F
100
AcDbEntity
  8
AM_0
100
AcDbCircle
 10
-64.87788890589735
 20
-11246.13062688707
 30
0.0
 40
1.5
  0
ARC
  5
5B8A0
330
1F
100
AcDbEntity
  8
AM_0
100
AcDbCircle
 10
-51.38360790589735
 20
-11305.22324981324
 30
0.0
 40
0.5
100
AcDbArc
 50
176.7241709999544
 51
270.0
  0
DIMENSION
  5
5B8A1
330
1F
100
AcDbEntity
  8
AM_5
100
AcDbDimension
  2
*D16
 10
-44.87788890589746
 20
-11196.13062688707
 30
0.0
 11
-54.87788890589735
 21
-11196.13062688707
 31
0.0
 70
   160
 71
     5
 42
19.99999999999988
  3
SYS$0
100
AcDbAlignedDimension
 13
-64.87788890589735
 23
-11211.12410538707
 33
0.0
 14
-44.87788890589746
 24
-11210.78177888707
 34
0.0
100
AcDbRotatedDimension
1001
ACAD
1000
DSTYLE
1002
{
1070
    47
1040
0.2
1070
    48
1040
-0.2
1070
   271
1070
     1
1002
}
  0
DIMENSION
  5
5B8A2
330
1F
100
AcDbEntity
  8
AM_5
100
AcDbDimension
  2
*D17
 10
-38.87788890589735
 20
-11188.13062688707
 30
0.0
 11
-54.87788890589735
 21
-11188.13062688707
 31
0.0
 70
   160
 71
     5
 42
32.0
  3
SYS$0
100
AcDbAlignedDimension
 13
-70.87788890589735
 23
-11206.13062688707
 33
0.0
 14
-38.87788890589735
 24
-11206.13062688707
 34
0.0
100
AcDbRotatedDimension
1001
ACAD
1000
DSTYLE
1002
{
1070
    47
1040
0.2
1070
    48
1040
-0.2
1070
   271
1070
     1
1002
}
  0
DIMENSION
  5
5B8A3
330
1F
100
AcDbEntity
  8
AM_5
100
AcDbDimension
  2
*D18
 10
-88.87788890590099
 20
-11256.13062688707
 30
0.0
 11
-88.87788890589916
 21
-11231.13062688707
 31
0.0
 70
   160
  1
L
 71
     5
 42
50.0
  3
SYS$0
100
AcDbAlignedDimension
 13
-70.87788890589735
 23
-11206.13062688707
 33
0.0
 14
-70.87788890589735
 24
-11256.13062688707
 34
0.0
 50
90.0
100
AcDbRotatedDimension
1001
ACAD
1000
DSTYLE
1002
{
1070
    47
1040
0.2
1070
    48
1040
-0.2
1070
   271
1070
     1
1002
}
  0
DIMENSION
  5
5B8A4
330
1F
100
AcDbEntity
  8
AM_5
100
AcDbDimension
  2
*D19
 10
-80.87788890590097
 20
-11216.13062688707
 30
0.0
 11
-80.87788890589918
 21
-11231.13062688707
 31
0.0
 70
   160
  1
P
 71
     5
 42
29.99999999999818
  3
SYS$0
100
AcDbAlignedDimension
 13
-69.79882890589744
 23
-11246.13062688707
 33
0.0
 14
-69.62766590589734
 24
-11216.13062688707
 34
0.0
 50
90.0
100
AcDbRotatedDimension
1001
ACAD
1000
DSTYLE
1002
{
1070
    47
1040
0.2
1070
    48
1040
-0.2
1070
   271
1070
     1
1002
}
  0
DIMENSION
  5
5B8A5
102
{ACAD_XDICTIONARY
360
5B8A6
102
}
102
{ACAD_REACTORS
330
5B8A7
102
}
330
1F
100
AcDbEntity
  8
AM_5
100
AcDbDimension
  2
*D23
 10
-63.09318811593766
 20
-11218.84675337351
 30
0.0
 11
-93.99773681063743
 21
-11196.13062688707
 31
0.0
 70
   163
  1
4-%%c3.3×<>サラ
 71
     5
 42
6.500000000009094
  3
SYS$3
100
AcDbDiametricDimension
 15
-66.66258969586488
 25
-11213.41450040063
 35
0.0
 40
0.0
1001
ACAD
1000
DSTYLE
1002
{
1070
    47
1040
0.2
1070
    48
1040
-0.2
1070
   172
1070
     1
1070
   271
1070
     1
1070
   342
1005
5C613
1002
}
  0
DIMENSION
  5
5B8A8
330
1F
100
AcDbEntity
  8
AM_5
100
AcDbDimension
  2
*D20
 10
-51.87788890589735
 20
-11284.02324981325
 30
0.0
 11
-54.87788890589735
 21
-11284.02324981325
 31
0.0
 70
   160
  1
（%%c<>）
 71
     5
 42
6.0
  3
SYS$0
100
AcDbAlignedDimension
 13
-57.87788890589735
 23
-11305.02324981325
 33
0.0
 14
-51.87788890589735
 24
-11305.02324981325
 34
0.0
100
AcDbRotatedDimension
1001
ACAD
1000
DSTYLE
1002
{
1070
    47
1040
0.2
1070
    48
1040
-0.2
1070
   271
1070
     1
1002
}
  0
DIMENSION
  5
5B8A9
330
1F
100
AcDbEntity
  8
AM_5
100
AcDbDimension
  2
*D21
 10
-53.37788890589735
 20
-11292.02324981325
 30
0.0
 11
-54.87788890589735
 21
-11292.02324981325
 31
0.0
 70
   160
  1
%%c<>
 71
     5
 42
3.0
  3
SYS$0
100
AcDbAlignedDimension
 13
-56.37788890589735
 23
-11305.02324981325
 33
0.0
 14
-53.37788890589735
 24
-11305.02324981325
 34
0.0
100
AcDbRotatedDimension
1001
ACAD
1000
DSTYLE
1002
{
1070
    47
1040
0.2
1070
    48
1040
-0.2
1070
   271
1070
     1
1002
}
  0
DIMENSION
  5
5B8AA
330
1F
100
AcDbEntity
  8
AM_5
100
AcDbDimension
  2
*D22
 10
-80.87788890589918
 20
-11305.72324981325
 30
0.0
 11
-80.87788890589735
 21
-11298.97658314658
 31
0.0
 70
   160
 71
     5
 42
2.300000000001091
  3
SYS$0
100
AcDbAlignedDimension
 13
-70.87788890589735
 23
-11308.02324981325
 33
0.0
 14
-70.87788890589735
 24
-11305.72324981325
 34
0.0
 50
90.0
100
AcDbRotatedDimension
1001
ACAD
1000
DSTYLE
1002
{
1070
    47
1040
0.2
1070
    48
1040
-0.2
1070
   271
1070
     1
1002
}
  0
LINE
  5
5B952
330
1F
100
AcDbEntity
  8
AM_0
100
AcDbLine
 10
-180.0923380917966
 20
-11303.14904086222
 30
0.0
 11
-240.0923380917966
 21
-11303.14904086222
 31
0.0
  0
LINE
  5
5B954
330
1F
100
AcDbEntity
  8
AM_4
100
AcDbLine
 10
-240.0923380917966
 20
-11331.14904086222
 30
0.0
 11
-180.0923380917966
 21
-11331.14904086222
 31
0.0
  0
LINE
  5
5B955
330
1F
100
AcDbEntity
  8
AM_0
100
AcDbLine
 10
-180.0923380917966
 20
-11310.14904086222
 30
0.0
 11
-240.0923380917966
 21
-11310.14904086222
 31
0.0
  0
LINE
  5
5B956
330
1F
100
AcDbEntity
  8
AM_4
100
AcDbLine
 10
-180.0923380917966
 20
-11317.14904086222
 30
0.0
 11
-240.0923380917966
 21
-11317.14904086222
 31
0.0
  0
LINE
  5
5B957
330
1F
100
AcDbEntity
  8
AM_4
100
AcDbLine
 10
-180.0923380917966
 20
-11324.14904086222
 30
0.0
 11
-240.0923380917966
 21
-11324.14904086222
 31
0.0
  0
LINE
  5
5B958
330
1F
100
AcDbEntity
  8
AM_0
100
AcDbLine
 10
-240.0923380917966
 20
-11303.14904086222
 30
0.0
 11
-240.0923380917966
 21
-11338.14904086222
 31
0.0
  0
LINE
  5
5B959
330
1F
100
AcDbEntity
  8
AM_0
100
AcDbLine
 10
-210.0923380917966
 20
-11303.14904086222
 30
0.0
 11
-210.0923380917966
 21
-11338.14904086222
 31
0.0
  0
LINE
  5
5B95A
330
1F
100
AcDbEntity
  8
AM_4
100
AcDbLine
 10
-195.0923380917966
 20
-11303.14904086222
 30
0.0
 11
-195.0923380917966
 21
-11338.14904086222
 31
0.0
  0
LINE
  5
5B95B
330
1F
100
AcDbEntity
  8
AM_0
100
AcDbLine
 10
-180.0923380917966
 20
-11303.14904086222
 30
0.0
 11
-180.0923380917966
 21
-11338.14904086222
 31
0.0
  0
MTEXT
  5
5B95D
330
1F
100
AcDbEntity
  8
AM_6
100
AcDbMText
 10
-225.0923380917966
 20
-11306.64904086222
 30
0.0
 40
3.2
 41
30.0
 71
     5
 72
     5
  1
品番
 73
     1
 44
1.0
1001
ACAD
1000
MTEXTBEGIN
1070
    73
1070
     1
1070
    44
1040
1.0
1070
    74
1070
     0
1000
MTEXTEND
  0
MTEXT
  5
5B95E
330
1F
100
AcDbEntity
  8
AM_6
100
AcDbMText
 10
-202.5923380917966
 20
-11306.64904086222
 30
0.0
 40
3.2
 41
15.0
 71
     5
 72
     5
  1
L
 73
     1
 44
1.0
1001
ACAD
1000
MTEXTBEGIN
1070
    73
1070
     1
1070
    44
1040
1.0
1070
    74
1070
     0
1000
MTEXTEND
  0
MTEXT
  5
5B95F
330
1F
100
AcDbEntity
  8
AM_6
100
AcDbMText
 10
-187.5923380917966
 20
-11306.64904086222
 30
0.0
 40
3.2
 41
15.0
 71
     5
 72
     5
  1
P
 73
     1
 44
1.0
1001
ACAD
1000
MTEXTBEGIN
1070
    73
1070
     1
1070
    44
1040
1.0
1070
    74
1070
     0
1000
MTEXTEND
  0
MTEXT
  5
5B961
330
1F
100
AcDbEntity
  8
AM_6
100
AcDbMText
 10
-202.5923380917966
 20
-11313.64904086222
 30
0.0
 40
3.2
 41
15.0
 71
     5
 72
     5
  1
25
 73
     1
 44
1.0
1001
ACAD
1000
MTEXTBEGIN
1070
    73
1070
     1
1070
    44
1040
1.0
1070
    74
1070
     0
1000
MTEXTEND
  0
MTEXT
  5
5B962
330
1F
100
AcDbEntity
  8
AM_6
100
AcDbMText
 10
-187.5923380917966
 20
-11313.64904086222
 30
0.0
 40
3.2
 41
15.0
 71
     5
 72
     5
  1
13
 73
     1
 44
1.0
1001
ACAD
1000
MTEXTBEGIN
1070
    73
1070
     1
1070
    44
1040
1.0
1070
    74
1070
     0
1000
MTEXTEND
  0
MTEXT
  5
5B963
330
1F
100
AcDbEntity
  8
AM_6
100
AcDbMText
 10
-202.5923380917966
 20
-11320.64904086222
 30
0.0
 40
3.2
 41
15.0
 71
     5
 72
     5
  1
30
 73
     1
 44
1.0
1001
ACAD
1000
MTEXTBEGIN
1070
    73
1070
     1
1070
    44
1040
1.0
1070
    74
1070
     0
1000
MTEXTEND
  0
MTEXT
  5
5B964
330
1F
100
AcDbEntity
  8
AM_6
100
AcDbMText
 10
-187.5923380917966
 20
-11320.64904086222
 30
0.0
 40
3.2
 41
15.0
 71
     5
 72
     5
  1
16
 73
     1
 44
1.0
1001
ACAD
1000
MTEXTBEGIN
1070
    73
1070
     1
1070
    44
1040
1.0
1070
    74
1070
     0
1000
MTEXTEND
  0
MTEXT
  5
5B965
330
1F
100
AcDbEntity
  8
AM_6
100
AcDbMText
 10
-202.5923380917966
 20
-11327.64904086222
 30
0.0
 40
3.2
 41
15.0
 71
     5
 72
     5
  1
40
 73
     1
 44
1.0
1001
ACAD
1000
MTEXTBEGIN
1070
    73
1070
     1
1070
    44
1040
1.0
1070
    74
1070
     0
1000
MTEXTEND
  0
MTEXT
  5
5B966
330
1F
100
AcDbEntity
  8
AM_6
100
AcDbMText
 10
-187.5923380917966
 20
-11327.64904086222
 30
0.0
 40
3.2
 41
15.0
 71
     5
 72
     5
  1
24
 73
     1
 44
1.0
1001
ACAD
1000
MTEXTBEGIN
1070
    73
1070
     1
1070
    44
1040
1.0
1070
    74
1070
     0
1000
MTEXTEND
  0
LINE
  5
5B96A
330
1F
100
AcDbEntity
  8
AM_0
100
AcDbLine
 10
-240.0923380917966
 20
-11338.14904086222
 30
0.0
 11
-180.0923380917966
 21
-11338.14904086222
 31
0.0
  0
MTEXT
  5
5B96F
330
1F
100
AcDbEntity
  8
AM_6
100
AcDbMText
 10
-202.5923380917966
 20
-11334.64904086222
 30
0.0
 40
3.2
 41
15.0
 71
     5
 72
     5
  1
50
 73
     1
 44
1.0
1001
ACAD
1000
MTEXTBEGIN
1070
    73
1070
     1
1070
    44
1040
1.0
1070
    74
1070
     0
1000
MTEXTEND
  0
MTEXT
  5
5B970
330
1F
100
AcDbEntity
  8
AM_6
100
AcDbMText
 10
-187.5923380917966
 20
-11334.64904086222
 30
0.0
 40
3.2
 41
15.0
 71
     5
 72
     5
  1
30
 73
     1
 44
1.0
1001
ACAD
1000
MTEXTBEGIN
1070
    73
1070
     1
1070
    44
1040
1.0
1070
    74
1070
     0
1000
MTEXTEND
  0
MTEXT
  5
5C1A4
330
1F
100
AcDbEntity
  8
AM_6
100
AcDbMText
 10
-225.0923380917966
 20
-11313.64904086222
 30
0.0
 40
3.2
 41
30.0
 71
     5
 72
     5
  1
DEH-12-1
 73
     1
 44
1.0
1001
ACAD
1000
MTEXTBEGIN
1070
    73
1070
     1
1070
    44
1040
1.0
1070
    74
1070
     0
1000
MTEXTEND
  0
MTEXT
  5
5C1A5
330
1F
100
AcDbEntity
  8
AM_6
100
AcDbMText
 10
-225.0923380917966
 20
-11320.64904086222
 30
0.0
 40
3.2
 41
30.0
 71
     5
 72
     5
  1
DEH-12-2
 73
     1
 44
1.0
1001
ACAD
1000
MTEXTBEGIN
1070
    73
1070
     1
1070
    44
1040
1.0
1070
    74
1070
     0
1000
MTEXTEND
  0
MTEXT
  5
5C1A6
330
1F
100
AcDbEntity
  8
AM_6
100
AcDbMText
 10
-225.0923380917966
 20
-11327.64904086222
 30
0.0
 40
3.2
 41
30.0
 71
     5
 72
     5
  1
DEH-12-3
 73
     1
 44
1.0
1001
ACAD
1000
MTEXTBEGIN
1070
    73
1070
     1
1070
    44
1040
1.0
1070
    74
1070
     0
1000
MTEXTEND
  0
MTEXT
  5
5C1A7
330
1F
100
AcDbEntity
  8
AM_6
100
AcDbMText
 10
-225.0923380917966
 20
-11334.64904086222
 30
0.0
 40
3.2
 41
30.0
 71
     5
 72
     5
  1
DEH-12-4
 73
     1
 44
1.0
1001
ACAD
1000
MTEXTBEGIN
1070
    73
1070
     1
1070
    44
1040
1.0
1070
    74
1070
     0
1000
MTEXTEND
  0
TEXT
  5
5C322
330
1F
100
AcDbEntity
  8
AM_6
100
AcDbText
 10
-217.2353380917966
 20
-11182.74904086222
 30
0.0
 40
3.2
  1
無し
 41
0.84350122
100
AcDbText
  0
LINE
  5
5C36E
330
1F
100
AcDbEntity
  8
size
100
AcDbLine
 10
-251.5923380917966
 20
-11346.64904086222
 30
0.0
 11
45.40766190820341
 21
-11346.64904086222
 31
0.0
1001
GENIUS_GENREC_14
1002
{
1000
PYDIR
1011
-251.5923380917966
1021
-11049.64904086222
1031
0.0
1002
}
1002
{
1000
PXDIR
1011
168.4076619082034
1021
-11346.64904086222
1031
0.0
1002
}
1002
{
1000
PORI
1011
-251.5923380917966
1021
-11346.64904086222
1031
0.0
1002
}
1002
{
1000
PINS
1011
-41.59233809179659
1021
-11198.14904086222
1031
0.0
1002
}
1002
{
1000
HVAL
1000
297
1002
}
1002
{
1000
H
1070
     2
1002
}
1002
{
1000
WVAL
1000
420
1002
}
1002
{
1000
W
1070
     2
1002
}
1002
{
1000
C
1070
     4
1002
}
1001
GENIUS_GENOBJ-N-REC_13
1002
{
1000
OWNER
1000
GEN
1002
}
1001
GENIUS_GENODEF_13
1002
{
1000
HIER
1070
     0
1002
}
1002
{
1000
MANEDIT
1070
     0
1002
}
1002
{
1000
NOSEL
1070
     0
1002
}
1002
{
1000
BEHIND
1070
     0
1002
}
1002
{
1000
OTHER
1070
     0
1002
}
1002
{
1000
REACTOR
1002
}
  0
LINE
  5
5C36F
330
1F
100
AcDbEntity
  8
size
100
AcDbLine
 10
-251.5923380917966
 20
-11136.64904086222
 30
0.0
 11
-251.5923380917966
 21
-11346.64904086222
 31
0.0
1001
GENIUS_GENREC_14
1002
{
1000
PYDIR
1011
-251.5923380917966
1021
-11049.64904086222
1031
0.0
1002
}
1002
{
1000
PXDIR
1011
168.4076619082034
1021
-11346.64904086222
1031
0.0
1002
}
1002
{
1000
PORI
1011
-251.5923380917966
1021
-11346.64904086222
1031
0.0
1002
}
1002
{
1000
PINS
1011
-41.59233809179659
1021
-11198.14904086222
1031
0.0
1002
}
1002
{
1000
HVAL
1000
297
1002
}
1002
{
1000
H
1070
     2
1002
}
1002
{
1000
WVAL
1000
420
1002
}
1002
{
1000
W
1070
     2
1002
}
1002
{
1000
C
1070
     4
1002
}
1001
GENIUS_GENOBJ-N-REC_13
1002
{
1000
OWNER
1000
GEN
1002
}
1001
GENIUS_GENODEF_13
1002
{
1000
HIER
1070
     0
1002
}
1002
{
1000
MANEDIT
1070
     0
1002
}
1002
{
1000
NOSEL
1070
     0
1002
}
1002
{
1000
BEHIND
1070
     0
1002
}
1002
{
1000
OTHER
1070
     0
1002
}
1002
{
1000
REACTOR
1002
}
  0
LINE
  5
5C370
330
1F
100
AcDbEntity
  8
waku
100
AcDbLine
 10
33.90766190820329
 20
-11338.14904086222
 30
0.0
 11
33.90766190820341
 21
-11145.14904086222
 31
0.0
1001
GENIUS_GENREC_14
1002
{
1000
PYDIR
1011
-374.5923380917966
1021
-11130.64904086222
1031
0.0
1002
}
1002
{
1000
PXDIR
1011
45.40766190820341
1021
-11427.64904086222
1031
0.0
1002
}
1002
{
1000
PORI
1011
-374.5923380917966
1021
-11427.64904086222
1031
0.0
1002
}
1002
{
1000
PINS
1011
-164.5923380917966
1021
-11279.14904086222
1031
0.0
1002
}
1002
{
1000
HVAL
1000
297
1002
}
1002
{
1000
H
1070
     2
1002
}
1002
{
1000
WVAL
1000
420
1002
}
1002
{
1000
W
1070
     2
1002
}
1002
{
1000
C
1070
     4
1002
}
1001
GENIUS_GENOBJ-N-REC_13
1002
{
1000
OWNER
1000
GEN
1002
}
1001
GENIUS_GENODEF_13
1002
{
1000
HIER
1070
     0
1002
}
1002
{
1000
MANEDIT
1070
     0
1002
}
1002
{
1000
NOSEL
1070
     0
1002
}
1002
{
1000
BEHIND
1070
     0
1002
}
1002
{
1000
OTHER
1070
     0
1002
}
1002
{
1000
REACTOR
1002
}
  0
LINE
  5
5C371
330
1F
100
AcDbEntity
  8
waku
100
AcDbLine
 10
-240.0923380917966
 20
-11145.14904086222
 30
0.0
 11
-240.0923380917966
 21
-11338.14904086222
 31
0.0
1001
GENIUS_GENREC_14
1002
{
1000
PYDIR
1011
-251.5923380917966
1021
-11049.64904086222
1031
0.0
1002
}
1002
{
1000
PXDIR
1011
168.4076619082034
1021
-11346.64904086222
1031
0.0
1002
}
1002
{
1000
PORI
1011
-251.5923380917966
1021
-11346.64904086222
1031
0.0
1002
}
1002
{
1000
PINS
1011
-41.59233809179659
1021
-11198.14904086222
1031
0.0
1002
}
1002
{
1000
HVAL
1000
297
1002
}
1002
{
1000
H
1070
     2
1002
}
1002
{
1000
WVAL
1000
420
1002
}
1002
{
1000
W
1070
     2
1002
}
1002
{
1000
C
1070
     4
1002
}
1001
GENIUS_GENOBJ-N-REC_13
1002
{
1000
OWNER
1000
GEN
1002
}
1001
GENIUS_GENODEF_13
1002
{
1000
HIER
1070
     0
1002
}
1002
{
1000
MANEDIT
1070
     0
1002
}
1002
{
1000
NOSEL
1070
     0
1002
}
1002
{
1000
BEHIND
1070
     0
1002
}
1002
{
1000
OTHER
1070
     0
1002
}
1002
{
1000
REACTOR
1002
}
  0
LINE
  5
5C372
330
1F
100
AcDbEntity
  8
waku
100
AcDbLine
 10
33.90766190820341
 20
-11145.14904086222
 30
0.0
 11
-240.0923380917966
 21
-11145.14904086222
 31
0.0
1001
GENIUS_GENREC_14
1002
{
1000
PYDIR
1011
-374.5923380917966
1021
-11136.64904086222
1031
0.0
1002
}
1002
{
1000
PXDIR
1011
45.40766190820341
1021
-11433.64904086222
1031
0.0
1002
}
1002
{
1000
PORI
1011
-374.5923380917966
1021
-11433.64904086222
1031
0.0
1002
}
1002
{
1000
PINS
1011
-164.5923380917966
1021
-11285.14904086222
1031
0.0
1002
}
1002
{
1000
HVAL
1000
297
1002
}
1002
{
1000
H
1070
     2
1002
}
1002
{
1000
WVAL
1000
420
1002
}
1002
{
1000
W
1070
     2
1002
}
1002
{
1000
C
1070
     4
1002
}
1001
GENIUS_GENOBJ-N-REC_13
1002
{
1000
OWNER
1000
GEN
1002
}
1001
GENIUS_GENODEF_13
1002
{
1000
HIER
1070
     0
1002
}
1002
{
1000
MANEDIT
1070
     0
1002
}
1002
{
1000
NOSEL
1070
     0
1002
}
1002
{
1000
BEHIND
1070
     0
1002
}
1002
{
1000
OTHER
1070
     0
1002
}
1002
{
1000
REACTOR
1002
}
  0
LINE
  5
5C373
330
1F
100
AcDbEntity
  8
waku
100
AcDbLine
 10
-240.0923380917966
 20
-11338.14904086222
 30
0.0
 11
33.90766190820329
 21
-11338.14904086222
 31
0.0
1001
GENIUS_GENREC_14
1002
{
1000
PYDIR
1011
-251.5923380917966
1021
-11049.64904086222
1031
0.0
1002
}
1002
{
1000
PXDIR
1011
168.4076619082034
1021
-11346.64904086222
1031
0.0
1002
}
1002
{
1000
PORI
1011
-251.5923380917966
1021
-11346.64904086222
1031
0.0
1002
}
1002
{
1000
PINS
1011
-41.59233809179659
1021
-11198.14904086222
1031
0.0
1002
}
1002
{
1000
HVAL
1000
297
1002
}
1002
{
1000
H
1070
     2
1002
}
1002
{
1000
WVAL
1000
420
1002
}
1002
{
1000
W
1070
     2
1002
}
1002
{
1000
C
1070
     4
1002
}
  0
LINE
  5
5C374
330
1F
100
AcDbEntity
  8
size
100
AcDbLine
 10
45.40766190820341
 20
-11136.64904086222
 30
0.0
 11
45.40766190820341
 21
-11346.64904086222
 31
0.0
1001
GENIUS_GENREC_14
1002
{
1000
PYDIR
1011
-251.5923380917966
1021
-11049.64904086222
1031
0.0
1002
}
1002
{
1000
PXDIR
1011
168.4076619082034
1021
-11346.64904086222
1031
0.0
1002
}
1002
{
1000
PORI
1011
-251.5923380917966
1021
-11346.64904086222
1031
0.0
1002
}
1002
{
1000
PINS
1011
-41.59233809179659
1021
-11198.14904086222
1031
0.0
1002
}
1002
{
1000
HVAL
1000
297
1002
}
1002
{
1000
H
1070
     2
1002
}
1002
{
1000
WVAL
1000
420
1002
}
1002
{
1000
W
1070
     2
1002
}
1002
{
1000
C
1070
     4
1002
}
1001
GENIUS_GENOBJ-N-REC_13
1002
{
1000
OWNER
1000
GEN
1002
}
1001
GENIUS_GENODEF_13
1002
{
1000
HIER
1070
     0
1002
}
1002
{
1000
MANEDIT
1070
     0
1002
}
1002
{
1000
NOSEL
1070
     0
1002
}
1002
{
1000
BEHIND
1070
     0
1002
}
1002
{
1000
OTHER
1070
     0
1002
}
1002
{
1000
REACTOR
1002
}
  0
LINE
  5
5C375
330
1F
100
AcDbEntity
  8
size
100
AcDbLine
 10
-251.5923380917966
 20
-11136.64904086222
 30
0.0
 11
45.40766190820341
 21
-11136.64904086222
 31
0.0
1001
GENIUS_GENREC_14
1002
{
1000
PYDIR
1011
-251.5923380917966
1021
-11049.64904086222
1031
0.0
1002
}
1002
{
1000
PXDIR
1011
168.4076619082034
1021
-11346.64904086222
1031
0.0
1002
}
1002
{
1000
PORI
1011
-251.5923380917966
1021
-11346.64904086222
1031
0.0
1002
}
1002
{
1000
PINS
1011
-41.59233809179659
1021
-11198.14904086222
1031
0.0
1002
}
1002
{
1000
HVAL
1000
297
1002
}
1002
{
1000
H
1070
     2
1002
}
1002
{
1000
WVAL
1000
420
1002
}
1002
{
1000
W
1070
     2
1002
}
1002
{
1000
C
1070
     4
1002
}
1001
GENIUS_GENOBJ-N-REC_13
1002
{
1000
OWNER
1000
GEN
1002
}
1001
GENIUS_GENODEF_13
1002
{
1000
HIER
1070
     0
1002
}
1002
{
1000
MANEDIT
1070
     0
1002
}
1002
{
1000
NOSEL
1070
     0
1002
}
1002
{
1000
BEHIND
1070
     0
1002
}
1002
{
1000
OTHER
1070
     0
1002
}
1002
{
1000
REACTOR
1002
}
  0
LINE
  5
5C5C3
330
1F
100
AcDbEntity
  8
AM_3
 48
0.5
100
AcDbLine
 10
-68.12788890589764
 20
-11305.72324981325
 30
0.0
 11
-66.37788890589776
 21
-11307.47324981324
 31
0.0
  0
LINE
  5
5C5C4
330
1F
100
AcDbEntity
  8
AM_3
 48
0.5
100
AcDbLine
 10
-66.37788890589776
 20
-11307.47324981324
 30
0.0
 11
-66.37788890589776
 21
-11308.02324981325
 31
0.0
  0
LINE
  5
5C5C5
330
1F
100
AcDbEntity
  8
AM_3
 48
0.5
100
AcDbLine
 10
-66.37788890589776
 20
-11307.47324981324
 30
0.0
 11
-63.37788890589735
 21
-11307.47324981324
 31
0.0
  0
LINE
  5
5C5C6
330
1F
100
AcDbEntity
  8
AM_3
 48
0.5
100
AcDbLine
 10
-63.37788890589735
 20
-11307.47324981324
 30
0.0
 11
-61.62788890589735
 21
-11305.72324981325
 31
0.0
  0
LINE
  5
5C5C7
330
1F
100
AcDbEntity
  8
AM_3
 48
0.5
100
AcDbLine
 10
-63.37788890589735
 20
-11308.02324981325
 30
0.0
 11
-63.37788890589735
 21
-11307.47324981324
 31
0.0
  0
LINE
  5
5C5C8
330
1F
100
AcDbEntity
  8
AM_3
 48
0.5
100
AcDbLine
 10
-41.62788890589706
 20
-11305.72324981325
 30
0.0
 11
-43.37788890589694
 21
-11307.47324981324
 31
0.0
  0
LINE
  5
5C5C9
330
1F
100
AcDbEntity
  8
AM_3
 48
0.5
100
AcDbLine
 10
-43.37788890589694
 20
-11307.47324981324
 30
0.0
 11
-43.37788890589694
 21
-11308.02324981325
 31
0.0
  0
LINE
  5
5C5CA
330
1F
100
AcDbEntity
  8
AM_3
 48
0.5
100
AcDbLine
 10
-43.37788890589694
 20
-11307.47324981324
 30
0.0
 11
-46.37788890589734
 21
-11307.47324981324
 31
0.0
  0
LINE
  5
5C5CB
330
1F
100
AcDbEntity
  8
AM_3
 48
0.5
100
AcDbLine
 10
-46.37788890589734
 20
-11307.47324981324
 30
0.0
 11
-48.12788890589735
 21
-11305.72324981325
 31
0.0
  0
LINE
  5
5C5CC
330
1F
100
AcDbEntity
  8
AM_3
 48
0.5
100
AcDbLine
 10
-46.37788890589734
 20
-11308.02324981325
 30
0.0
 11
-46.37788890589734
 21
-11307.47324981324
 31
0.0
  0
ENDSEC
  0
SECTION
  2
OBJECTS
  0
DICTIONARY
  5
C
330
0
100
AcDbDictionary
281
     1
  3
ACAD_COLOR
350
CDEF
  3
ACAD_GROUP
350
D
  3
ACAD_LAYOUT
350
1A
  3
ACAD_MATERIAL
350
CDEE
  3
ACAD_MLINESTYLE
350
17
  3
ACAD_PLOTSETTINGS
350
19
  3
ACAD_PLOTSTYLENAME
350
E
  3
ACAD_TABLESTYLE
350
1D6FC
  3
ACAD_VISUALSTYLE
350
1D6EB
  3
AcAsAppObject
350
3DA1
  3
ACASGREF_MASTER
350
3DE9
  3
AcDbVariableDictionary
350
34
  3
AcmDictionary
350
47
  3
AD_GREF_MODULE
350
3DEA
  3
AD_MAPI_MODULE
350
3E06
  3
AMG
350
2B
  3
AMGSNAPSETTINGS
350
7D
  3
ASE_INDEX_DICTIONARY
350
5733D
  3
DWGPROPS
350
5C6A0
  3
MAPISURF_MODULE
350
3DEB
  0
DICTIONARY
  5
1DE12
330
8
100
AcDbDictionary
280
     1
281
     1
  0
DICTIONARY
  5
3F95
330
2
100
AcDbDictionary
280
     1
281
     1
  3
ACAD_LAYERFILTERS
360
3F98
  3
ACAD_LAYERSTATES
360
3F96
  0
DICTIONARY
  5
8A
330
1F
100
AcDbDictionary
280
     1
281
     1
  3
ACAD_SORTENTS
360
1E18C
  0
DICTIONARY
  5
51A87
330
51A86
100
AcDbDictionary
280
     1
281
     1
  0
DICTIONARY
  5
5B8A6
330
5B8A5
100
AcDbDictionary
280
     1
281
     1
  3
ACAD_DIMASSOC
360
5B8A7
  0
DICTIONARY
  5
CDEF
102
{ACAD_REACTORS
330
C
102
}
330
C
100
AcDbDictionary
281
     1
  0
DICTIONARY
  5
D
102
{ACAD_REACTORS
330
C
102
}
330
C
100
AcDbDictionary
281
     1
  0
DICTIONARY
  5
1A
102
{ACAD_REACTORS
330
C
102
}
330
C
100
AcDbDictionary
281
     1
  3
Model
350
22
  3
ﾚｲｱｳﾄ1
350
1E
  3
ﾚｲｱｳﾄ2
350
26
  0
DICTIONARY
  5
CDEE
102
{ACAD_REACTORS
330
C
102
}
330
C
100
AcDbDictionary
281
     1
  3
ByBlock
350
1D6E9
  3
ByLayer
350
1D6E8
  3
Global
350
1D6EA
  0
DICTIONARY
  5
17
102
{ACAD_REACTORS
330
C
102
}
330
C
100
AcDbDictionary
281
     1
  3
Standard
350
18
  0
DICTIONARY
  5
19
102
{ACAD_REACTORS
330
C
102
}
330
C
100
AcDbDictionary
281
     1
  3
00
350
1A631
  3
01
350
1A630
  3
02
350
23806
  0
ACDBDICTIONARYWDFLT
  5
E
102
{ACAD_REACTORS
330
C
102
}
330
C
100
AcDbDictionary
281
     1
  3
Normal
350
F
100
AcDbDictionaryWithDefault
340
F
  0
DICTIONARY
  5
1D6FC
102
{ACAD_REACTORS
330
C
102
}
330
C
100
AcDbDictionary
281
     1
  3
Standard
350
1D6FD
  0
DICTIONARY
  5
1D6EB
102
{ACAD_REACTORS
330
C
102
}
330
C
100
AcDbDictionary
281
     1
  3
2dWireframe
350
1D6F1
  3
3D Hidden
350
1D6F3
  3
3dWireframe
350
1D6F2
  3
Basic
350
1D6F0
  3
Brighten
350
1D6F7
  3
ColorChange
350
1D6FB
  3
Conceptual
350
1D6F4
  3
Dim
350
1D6F6
  3
Facepattern
350
1D6FA
  3
Flat
350
1D6EC
  3
FlatWithEdges
350
1D6ED
  3
Gouraud
350
1D6EE
  3
GouraudWithEdges
350
1D6EF
  3
Linepattern
350
1D6F9
  3
Realistic
350
1D6F5
  3
Thicken
350
1D6F8
  0
ACAD_PROXY_OBJECT
  5
3DA1
102
{ACAD_REACTORS
330
C
102
}
330
C
100
AcDbProxyObject
 90
      499
 91
      576
 95
       23
 70
     0
 93
       10
310
407F
 94
        0
1001
ACAD
1000
AcRTDxfName
1000
ASAPP
  0
ACAD_PROXY_OBJECT
  5
3DE9
102
{ACAD_REACTORS
330
C
102
}
330
C
100
AcDbProxyObject
 90
      499
 91
      581
 95
       23
 70
     0
 93
       34
310
010000407F
 94
        0
1001
ACAD
1000
AcRTDxfName
1000
ACASGREFMASTER
  0
DICTIONARY
  5
34
102
{ACAD_REACTORS
330
C
102
}
330
C
100
AcDbDictionary
281
     1
  3
CTABLESTYLE
350
1D72C
  3
DIMASSOC
350
A10C
  3
INDEXCTL
350
35
  3
SORTENTS
350
194C
  0
DICTIONARY
  5
47
102
{ACAD_REACTORS
330
C
102
}
330
C
100
AcDbDictionary
281
     1
  3
AcmBOM
350
7E8
  3
AcmStdDictionary
350
4C
  3
AMDTSECTSYM_ARROWCOLOR
350
CFD7
  0
ACAD_PROXY_OBJECT
  5
3DEA
102
{ACAD_REACTORS
330
C
102
}
330
C
100
AcDbProxyObject
 90
      499
 91
      582
 95
       23
 70
     0
 93
      114
310
00000043800000000000000000003F
 94
        0
1001
ACAD
1000
AcRTDxfName
1000
ACADGREFMODULE
  0
ACAD_PROXY_OBJECT
  5
3E06
102
{ACAD_REACTORS
330
C
102
}
330
C
100
AcDbProxyObject
 90
      499
 91
      594
 95
       23
 70
     0
 93
       34
310
05000044FF
 94
        0
1001
ACAD
1000
AcRTDxfName
1000
MAPIADMODULE
  0
DICTIONARY
  5
2B
102
{ACAD_REACTORS
330
C
102
}
330
C
100
AcDbDictionary
281
     1
  0
DICTIONARY
  5
7D
102
{ACAD_REACTORS
330
C
102
}
330
C
100
AcDbDictionary
281
     1
  0
DICTIONARY
  5
5733D
102
{ACAD_REACTORS
330
C
102
}
330
C
100
AcDbDictionary
281
     1
  3
ASEBlockHierarchyIndexRecord
350
5733E
1001
DCO15
1040
1638027569.921
  0
XRECORD
  5
5C6A0
102
{ACAD_REACTORS
330
C
102
}
330
C
100
AcDbXrecord
280
     1
  1
DWGPROPS COOKIE
  2

  3

  4

  6

  7

  8
Administorator
  9

300
AmdtFileType=84
301
=
302
=
303
=
304
=
305
=
306
=
307
=
308
=
309
=
 40
21.78286178240741
 41
2453389.567546297
 42
2454922.576493959
  1

 90
        1
  0
ACAD_PROXY_OBJECT
  5
3DEB
102
{ACAD_REACTORS
330
C
102
}
330
C
100
AcDbProxyObject
 90
      499
 91
      583
 95
       23
 70
     0
 93
        8
310
047E
 94
        0
1001
ACAD
1000
AcRTDxfName
1000
AMDTMAPISURFMOUDULE
  0
DICTIONARY
  5
3F98
102
{ACAD_REACTORS
330
3F95
102
}
330
3F95
100
AcDbDictionary
280
     1
281
     1
  0
DICTIONARY
  5
3F96
102
{ACAD_REACTORS
330
3F95
102
}
330
3F95
100
AcDbDictionary
281
     1
  3
20011210
350
3FB7
  0
SORTENTSTABLE
  5
1E18C
102
{ACAD_REACTORS
330
8A
102
}
330
8A
100
AcDbSortentsTable
330
1F
331
58537
  5
58538
331
250B3
  5
2556A
331
250B2
  5
25569
331
250B1
  5
25568
331
250B0
  5
254FB
331
58540
  5
58544
331
5853F
  5
58540
331
5853E
  5
5853F
331
5853D
  5
5853E
331
5852A
  5
58533
331
58529
  5
5852A
331
5853B
  5
5853C
331
58528
  5
58529
331
5853A
  5
5853B
331
58539
  5
5853A
331
58538
  5
58539
331
58524
  5
58525
331
58521
  5
58524
331
58520
  5
58521
331
5851F
  5
58520
331
5851E
  5
5851F
331
5851D
  5
5851E
331
2AD30
  5
2AE02
331
15810
  5
177FE
331
106CC
  5
106CC
331
250AF
  5
254FA
331
250AE
  5
254F9
331
250AD
  5
254F8
331
26BAF
  5
26BAF
331
26BAE
  5
26BAE
331
26BAD
  5
26BAD
331
26BAC
  5
26BAC
331
26BAB
  5
26BAB
  0
DIMASSOC
  5
5B8A7
102
{ACAD_REACTORS
330
5B8A6
102
}
330
5B8A6
100
AcDbDimAssoc
330
5B8A5
 90
        2
 70
     0
 71
     0
  1
AcDbOsnapPointRef
 72
     3
331
5B89C
 73
     2
 91
        0
 40
0.0
 10
0.0
 20
0.0
 30
0.0
 75
     0
  0
LAYOUT
  5
22
102
{ACAD_XDICTIONARY
360
5C6A3
102
}
102
{ACAD_REACTORS
330
1A
102
}
330
1A
100
AcDbPlotSettings
  1

  2
RICOH imagio Wide 7040e RP-GL/2
  4
A4
  6

 40
5.365749835968017
 41
6.889746665954589
 42
5.535064697265625
 43
6.76275634765625
 44
296.9683227539062
 45
209.9733276367187
 46
-5.466245889663696
 47
-6.839587688446044
 48
-251.5923380917966
 49
-11346.64904086222
140
45.40766190820341
141
-11136.64904086222
142
1.0
143
1.0
 70
  3748
 72
     1
 73
     0
 74
     4
  7
monochrome.ctb
 75
     0
147
0.9348610696338472
148
251.5923380917966
149
11346.64904086222
100
AcDbLayout
  1
Model
 70
     1
 71
     0
 10
0.0
 20
0.0
 11
12.0
 21
9.0
 12
0.0
 22
0.0
 32
0.0
 14
0.0
 24
0.0
 34
0.0
 15
0.0
 25
0.0
 35
0.0
146
0.0
 13
0.0
 23
0.0
 33
0.0
 16
1.0
 26
0.0
 36
0.0
 17
0.0
 27
1.0
 37
0.0
 76
     0
330
1F
331
1D6E6
1001
ACAD_PSEXT
1000
RICOH imagio Wide 7040e RP-GL/2
1000
RICOH imagio Wide 7040e RP-GL/2
1000
192.200.51.212:lp11
1000
RP-GL/2 Driver (Windows 2000/XP/Server 2003)
1070
     0
  0
LAYOUT
  5
1E
102
{ACAD_XDICTIONARY
360
5C6A1
102
}
102
{ACAD_REACTORS
330
1A
102
}
330
1A
100
AcDbPlotSettings
  1

  2
\\ML370\XEROX
  4
A4
  6

 40
3.174999952316284
 41
3.174999952316284
 42
3.175003051757812
 43
3.17498779296875
 44
209.8674926757813
 45
296.6719970703125
 46
0.0
 47
0.0
 48
0.0
 49
0.0
140
0.0
141
0.0
142
1.0
143
1.0
 70
   688
 72
     1
 73
     1
 74
     5
  7
monochrome.ctb
 75
    16
147
1.0
148
0.0
149
0.0
100
AcDbLayout
  1
ﾚｲｱｳﾄ1
 70
     1
 71
     1
 10
-3.17498779296875
 20
-3.174999952316284
 11
293.4970092773438
 21
206.692492723465
 12
0.0
 22
0.0
 32
0.0
 14
1.000000000000000E+20
 24
1.000000000000000E+20
 34
1.000000000000000E+20
 15
-1.000000000000000E+20
 25
-1.000000000000000E+20
 35
-1.000000000000000E+20
146
0.0
 13
0.0
 23
0.0
 33
0.0
 16
1.0
 26
0.0
 36
0.0
 17
0.0
 27
1.0
 37
0.0
 76
     0
330
1B
  0
LAYOUT
  5
26
102
{ACAD_XDICTIONARY
360
5C6A5
102
}
102
{ACAD_REACTORS
330
1A
102
}
330
1A
100
AcDbPlotSettings
  1

  2
\\ML370\XEROX
  4

  6

 40
0.0
 41
0.0
 42
0.0
 43
0.0
 44
0.0
 45
0.0
 46
0.0
 47
0.0
 48
0.0
 49
0.0
140
0.0
141
0.0
142
1.0
143
1.0
 70
   688
 72
     0
 73
     0
 74
     5
  7
monochrome.ctb
 75
    16
147
1.0
148
0.0
149
0.0
100
AcDbLayout
  1
ﾚｲｱｳﾄ2
 70
     1
 71
     2
 10
0.0
 20
0.0
 11
12.0
 21
9.0
 12
0.0
 22
0.0
 32
0.0
 14
0.0
 24
0.0
 34
0.0
 15
0.0
 25
0.0
 35
0.0
146
0.0
 13
0.0
 23
0.0
 33
0.0
 16
1.0
 26
0.0
 36
0.0
 17
0.0
 27
1.0
 37
0.0
 76
     0
330
23
  0
MATERIAL
  5
1D6E9
102
{ACAD_XDICTIONARY
360
5C6AD
102
}
102
{ACAD_REACTORS
330
CDEE
102
}
330
CDEE
100
AcDbMaterial
  1
ByBlock
  0
MATERIAL
  5
1D6E8
102
{ACAD_XDICTIONARY
360
5C6AB
102
}
102
{ACAD_REACTORS
330
CDEE
102
}
330
CDEE
100
AcDbMaterial
  1
ByLayer
  0
MATERIAL
  5
1D6EA
102
{ACAD_XDICTIONARY
360
5C6AF
102
}
102
{ACAD_REACTORS
330
CDEE
102
}
330
CDEE
100
AcDbMaterial
  1
Global
  0
MLINESTYLE
  5
18
102
{ACAD_REACTORS
330
17
102
}
330
17
100
AcDbMlineStyle
  2
STANDARD
 70
     0
  3

 62
   256
 51
90.0
 52
90.0
 71
     2
 49
0.5
 62
   256
  6
BYLAYER
 49
-0.5
 62
   256
  6
BYLAYER
  0
PLOTSETTINGS
  5
1A631
102
{ACAD_XDICTIONARY
360
5C6A9
102
}
102
{ACAD_REACTORS
330
19
102
}
330
19
100
AcDbPlotSettings
  1
00
  2
RICOH imagio Wide 7040e RP-GL/2
  4
A3
  6
AM_VIEW1
 40
5.069416522979736
 41
7.228392601013183
 42
5.23870849609375
 43
7.05908203125
 44
419.9889831542968
 45
296.9683227539062
 46
-5.159570932388305
 47
-7.159575939178466
 48
3759.987976050056
 49
-6455.52447405221
140
7959.987976050055
141
-3485.524474052211
142
1.0
143
10.0
 70
  3748
 72
     1
 73
     0
 74
     4
  7
monochrome.ctb
 75
     0
147
0.0673049638384865
148
-3759.987976050056
149
6455.52447405221
1001
ACAD_PSEXT
1000
RICOH imagio Wide 7040e RP-GL/2
1000
RICOH imagio Wide 7040e RP-GL/2
1000
192.200.51.212:lp11
1000
RP-GL/2 Driver (Windows 2000/XP/Server 2003)
1070
     0
  0
PLOTSETTINGS
  5
1A630
102
{ACAD_XDICTIONARY
360
5C6A7
102
}
102
{ACAD_REACTORS
330
19
102
}
330
19
100
AcDbPlotSettings
  1
01
  2
RICOH imagio Wide 7040e RP-GL/2
  4
A3
  6
AM_VIEW1
 40
5.069416522979736
 41
7.228392601013183
 42
5.23870849609375
 43
7.05908203125
 44
419.9889831542968
 45
296.9683227539062
 46
-5.159570932388305
 47
-7.159575939178466
 48
3759.987976050056
 49
-7049.524474052211
140
4599.987976050055
141
-6455.52447405221
142
1.0
143
2.0
 70
  3748
 72
     1
 73
     0
 74
     4
  7
monochrome.ctb
 75
     0
147
0.0673049638384865
148
-3759.987976050056
149
7049.524474052211
1001
ACAD_PSEXT
1000
RICOH imagio Wide 7040e RP-GL/2
1000
RICOH imagio Wide 7040e RP-GL/2
1000
192.200.51.212:lp11
1000
RP-GL/2 Driver (Windows 2000/XP/Server 2003)
1070
     0
  0
PLOTSETTINGS
  5
23806
102
{ACAD_XDICTIONARY
360
5C6B3
102
}
102
{ACAD_REACTORS
330
19
102
}
330
19
100
AcDbPlotSettings
  1
02
  2
RICOH imagio Wide 7040e RP-GL/2
  4
A3
  6
AM_VIEW1
 40
5.069416522979736
 41
7.228392601013183
 42
5.23870849609375
 43
7.05908203125
 44
419.9889831542968
 45
296.9683227539062
 46
-5.159570932388305
 47
-7.159575939178466
 48
3759.987976050056
 49
-9425.52447405221
140
7119.987976050055
141
-7049.524474052211
142
1.0
143
8.0
 70
  3748
 72
     1
 73
     0
 74
     4
  7
monochrome.ctb
 75
     0
147
0.0673049638384865
148
-3759.987976050056
149
9425.52447405221
1001
ACAD_PSEXT
1000
RICOH imagio Wide 7040e RP-GL/2
1000
RICOH imagio Wide 7040e RP-GL/2
1000
192.200.51.212:lp11
1000
RP-GL/2 Driver (Windows 2000/XP/Server 2003)
1070
     0
  0
ACDBPLACEHOLDER
  5
F
102
{ACAD_REACTORS
330
E
102
}
330
E
  0
TABLESTYLE
  5
1D6FD
102
{ACAD_XDICTIONARY
360
5C6B1
102
}
102
{ACAD_REACTORS
330
1D6FC
102
}
330
1D6FC
100
AcDbTableStyle
  3
Standard
 70
     0
 71
     0
 40
1.5
 41
1.5
280
     0
281
     0
  7
STANDARD
140
4.5
170
     2
 62
     0
 63
     7
283
     0
274
    -2
284
     1
 64
     0
275
    -2
285
     1
 65
     0
276
    -2
286
     1
 66
     0
277
    -2
287
     1
 67
     0
278
    -2
288
     1
 68
     0
279
    -2
289
     1
 69
     0
  7
STANDARD
140
6.0
170
     5
 62
     0
 63
     7
283
     0
274
    -2
284
     1
 64
     0
275
    -2
285
     1
 65
     0
276
    -2
286
     1
 66
     0
277
    -2
287
     1
 67
     0
278
    -2
288
     1
 68
     0
279
    -2
289
     1
 69
     0
  7
STANDARD
140
4.5
170
     5
 62
     0
 63
     7
283
     0
274
    -2
284
     1
 64
     0
275
    -2
285
     1
 65
     0
276
    -2
286
     1
 66
     0
277
    -2
287
     1
 67
     0
278
    -2
288
     1
 68
     0
279
    -2
289
     1
 69
     0
  0
VISUALSTYLE
  5
1D6F1
102
{ACAD_REACTORS
330
1D6EB
102
}
330
1D6EB
100
AcDbVisualStyle
  2
2dWireframe
 70
     4
 71
     0
 72
     2
 73
     0
 90
        0
 40
-0.6
 41
-30.0
 62
     5
 63
     7
 74
     1
 91
        4
 64
     7
 65
   257
 75
     1
175
     1
 42
1.0
 92
        0
 66
   257
 43
1.0
 76
     1
 77
     6
 78
     2
 67
     7
 79
     5
170
     0
171
     0
290
     0
174
     0
 93
        1
 44
0.0
173
     0
291
     0
 45
0.0
1001
ACAD
1000
AcDbSavedByObjectVersion
1070
     0
  0
VISUALSTYLE
  5
1D6F3
102
{ACAD_REACTORS
330
1D6EB
102
}
330
1D6EB
100
AcDbVisualStyle
  2
3D Hidden
 70
     6
 71
     1
 72
     2
 73
     2
 90
        0
 40
-0.6
 41
-30.0
 62
     5
 63
     7
 74
     2
 91
        2
 64
     7
 65
   257
 75
     2
175
     1
 42
40.0
 92
        0
 66
   257
 43
1.0
 76
     1
 77
     6
 78
     2
 67
     7
 79
     3
170
     0
171
     0
290
     0
174
     0
 93
        1
 44
0.0
173
     0
291
     0
 45
0.0
1001
ACAD
1000
AcDbSavedByObjectVersion
1070
     0
  0
VISUALSTYLE
  5
1D6F2
102
{ACAD_REACTORS
330
1D6EB
102
}
330
1D6EB
100
AcDbVisualStyle
  2
3dWireframe
 70
     5
 71
     0
 72
     2
 73
     0
 90
        0
 40
-0.6
 41
-30.0
 62
     5
 63
     7
 74
     1
 91
        4
 64
     7
 65
   257
 75
     1
175
     1
 42
1.0
 92
        0
 66
   257
 43
1.0
 76
     1
 77
     6
 78
     2
 67
     7
 79
     5
170
     0
171
     0
290
     0
174
     0
 93
        1
 44
0.0
173
     0
291
     0
 45
0.0
1001
ACAD
1000
AcDbSavedByObjectVersion
1070
     0
  0
VISUALSTYLE
  5
1D6F0
102
{ACAD_REACTORS
330
1D6EB
102
}
330
1D6EB
100
AcDbVisualStyle
  2
Basic
 70
     7
 71
     1
 72
     0
 73
     1
 90
        0
 40
-0.6
 41
-30.0
 62
     5
 63
     7
 74
     0
 91
        4
 64
     7
 65
   257
 75
     1
175
     1
 42
1.0
 92
        8
 66
     7
 43
1.0
 76
     1
 77
     6
 78
     2
 67
     7
 79
     5
170
     0
171
     0
290
     0
174
     0
 93
        1
 44
0.0
173
     0
291
     1
 45
0.0
1001
ACAD
1000
AcDbSavedByObjectVersion
1070
     0
  0
VISUALSTYLE
  5
1D6F7
102
{ACAD_REACTORS
330
1D6EB
102
}
330
1D6EB
100
AcDbVisualStyle
  2
Brighten
 70
    12
 71
     2
 72
     2
 73
     0
 90
        0
 40
-0.6
 41
-30.0
 62
     5
 63
     7
 74
     1
 91
        4
 64
     7
 65
   257
 75
     1
175
     1
 42
1.0
 92
        8
 66
     7
 43
1.0
 76
     1
 77
     6
 78
     2
 67
     7
 79
     5
170
     0
171
     0
290
     0
174
     0
 93
        1
 44
50.0
173
     0
291
     1
 45
0.0
1001
ACAD
1000
AcDbSavedByObjectVersion
1070
     0
  0
VISUALSTYLE
  5
1D6FB
102
{ACAD_REACTORS
330
1D6EB
102
}
330
1D6EB
100
AcDbVisualStyle
  2
ColorChange
 70
    16
 71
     2
 72
     2
 73
     3
 90
        0
 40
-0.6
 41
-30.0
 62
     5
 63
     8
 74
     1
 91
        4
 64
     7
 65
   257
 75
     1
175
     1
 42
1.0
 92
        8
 66
     8
 43
1.0
 76
     1
 77
     6
 78
     2
 67
     7
 79
     5
170
     0
171
     0
290
     0
174
     0
 93
        1
 44
0.0
173
     0
291
     1
 45
0.0
1001
ACAD
1000
AcDbSavedByObjectVersion
1070
     0
  0
VISUALSTYLE
  5
1D6F4
102
{ACAD_REACTORS
330
1D6EB
102
}
330
1D6EB
100
AcDbVisualStyle
  2
Conceptual
 70
     9
 71
     3
 72
     2
 73
     0
 90
        0
 40
-0.6
 41
-30.0
 62
     5
 63
     7
 74
     2
 91
        2
 64
     7
 65
   257
 75
     1
175
     1
 42
40.0
 92
        8
 66
     7
 43
1.0
 76
     1
 77
     6
 78
     2
 67
     7
 79
     3
170
     0
171
     0
290
     0
174
     0
 93
        1
 44
0.0
173
     0
291
     0
 45
0.0
1001
ACAD
1000
AcDbSavedByObjectVersion
1070
     0
  0
VISUALSTYLE
  5
1D6F6
102
{ACAD_REACTORS
330
1D6EB
102
}
330
1D6EB
100
AcDbVisualStyle
  2
Dim
 70
    11
 71
     2
 72
     2
 73
     0
 90
        0
 40
-0.6
 41
-30.0
 62
     5
 63
     7
 74
     1
 91
        4
 64
     7
 65
   257
 75
     1
175
     1
 42
1.0
 92
        8
 66
     7
 43
1.0
 76
     1
 77
     6
 78
     2
 67
     7
 79
     5
170
     0
171
     0
290
     0
174
     0
 93
        1
 44
-50.0
173
     0
291
     1
 45
0.0
1001
ACAD
1000
AcDbSavedByObjectVersion
1070
     0
  0
VISUALSTYLE
  5
1D6FA
102
{ACAD_REACTORS
330
1D6EB
102
}
330
1D6EB
100
AcDbVisualStyle
  2
Facepattern
 70
    15
 71
     2
 72
     2
 73
     0
 90
        0
 40
-0.6
 41
-30.0
 62
     5
 63
     7
 74
     1
 91
        4
 64
     7
 65
   257
 75
     1
175
     1
 42
1.0
 92
        8
 66
     7
 43
1.0
 76
     1
 77
     6
 78
     2
 67
     7
 79
     5
170
     0
171
     0
290
     0
174
     0
 93
        1
 44
0.0
173
     0
291
     1
 45
0.0
1001
ACAD
1000
AcDbSavedByObjectVersion
1070
     0
  0
VISUALSTYLE
  5
1D6EC
102
{ACAD_REACTORS
330
1D6EB
102
}
330
1D6EB
100
AcDbVisualStyle
  2
Flat
 70
     0
 71
     2
 72
     1
 73
     1
 90
        2
 40
-0.6
 41
30.0
 62
     5
 63
     7
 74
     0
 91
        4
 64
     7
 65
   257
 75
     1
175
     1
 42
1.0
 92
        8
 66
     7
 43
1.0
 76
     1
 77
     6
 78
     2
 67
     7
 79
     5
170
     0
171
     0
290
     0
174
     0
 93
       13
 44
0.0
173
     0
291
     1
 45
0.0
1001
ACAD
1000
AcDbSavedByObjectVersion
1070
     0
  0
VISUALSTYLE
  5
1D6ED
102
{ACAD_REACTORS
330
1D6EB
102
}
330
1D6EB
100
AcDbVisualStyle
  2
FlatWithEdges
 70
     1
 71
     2
 72
     1
 73
     1
 90
        2
 40
-0.6
 41
30.0
 62
     5
 63
     7
 74
     1
 91
        4
 64
     7
 65
   257
 75
     1
175
     1
 42
1.0
 92
        0
 66
   257
 43
1.0
 76
     1
 77
     6
 78
     2
 67
     7
 79
     5
170
     0
171
     0
290
     0
174
     0
 93
       13
 44
0.0
173
     0
291
     1
 45
0.0
1001
ACAD
1000
AcDbSavedByObjectVersion
1070
     0
  0
VISUALSTYLE
  5
1D6EE
102
{ACAD_REACTORS
330
1D6EB
102
}
330
1D6EB
100
AcDbVisualStyle
  2
Gouraud
 70
     2
 71
     2
 72
     2
 73
     1
 90
        2
 40
-0.6
 41
30.0
 62
     5
 63
     7
 74
     0
 91
        4
 64
     7
 65
   257
 75
     1
175
     1
 42
1.0
 92
        0
 66
     7
 43
1.0
 76
     1
 77
     6
 78
     2
 67
     7
 79
     5
170
     0
171
     0
290
     0
174
     0
 93
       13
 44
0.0
173
     0
291
     1
 45
0.0
1001
ACAD
1000
AcDbSavedByObjectVersion
1070
     0
  0
VISUALSTYLE
  5
1D6EF
102
{ACAD_REACTORS
330
1D6EB
102
}
330
1D6EB
100
AcDbVisualStyle
  2
GouraudWithEdges
 70
     3
 71
     2
 72
     2
 73
     1
 90
        2
 40
-0.6
 41
30.0
 62
     5
 63
     7
 74
     1
 91
        4
 64
     7
 65
   257
 75
     1
175
     1
 42
1.0
 92
        0
 66
   257
 43
1.0
 76
     1
 77
     6
 78
     2
 67
     7
 79
     5
170
     0
171
     0
290
     0
174
     0
 93
       13
 44
0.0
173
     0
291
     1
 45
0.0
1001
ACAD
1000
AcDbSavedByObjectVersion
1070
     0
  0
VISUALSTYLE
  5
1D6F9
102
{ACAD_REACTORS
330
1D6EB
102
}
330
1D6EB
100
AcDbVisualStyle
  2
Linepattern
 70
    14
 71
     2
 72
     2
 73
     0
 90
        0
 40
-0.6
 41
-30.0
 62
     5
 63
     7
 74
     1
 91
        4
 64
     7
 65
   257
 75
     7
175
     7
 42
1.0
 92
        8
 66
     7
 43
1.0
 76
     1
 77
     6
 78
     2
 67
     7
 79
     5
170
     0
171
     0
290
     0
174
     0
 93
        1
 44
0.0
173
     0
291
     1
 45
0.0
1001
ACAD
1000
AcDbSavedByObjectVersion
1070
     0
  0
VISUALSTYLE
  5
1D6F5
102
{ACAD_REACTORS
330
1D6EB
102
}
330
1D6EB
100
AcDbVisualStyle
  2
Realistic
 70
     8
 71
     2
 72
     2
 73
     0
 90
        0
 40
-0.6
 41
-30.0
 62
     5
 63
     7
 74
     1
 91
        0
 64
     7
 65
   257
 75
     1
175
     1
 42
1.0
 92
        8
 66
     8
 43
1.0
 76
     1
 77
     6
 78
     2
 67
     7
 79
     5
170
     0
171
     0
290
     0
174
     0
 93
       13
 44
0.0
173
     0
291
     0
 45
0.0
1001
ACAD
1000
AcDbSavedByObjectVersion
1070
     0
  0
VISUALSTYLE
  5
1D6F8
102
{ACAD_REACTORS
330
1D6EB
102
}
330
1D6EB
100
AcDbVisualStyle
  2
Thicken
 70
    13
 71
     2
 72
     2
 73
     0
 90
        0
 40
-0.6
 41
-30.0
 62
     5
 63
     7
 74
     1
 91
        4
 64
     7
 65
   257
 75
     1
175
     1
 42
1.0
 92
       12
 66
     7
 43
1.0
 76
     1
 77
     6
 78
     2
 67
     7
 79
     5
170
     0
171
     0
290
     0
174
     0
 93
        1
 44
0.0
173
     0
291
     1
 45
0.0
1001
ACAD
1000
AcDbSavedByObjectVersion
1070
     0
  0
DICTIONARYVAR
  5
1D72C
102
{ACAD_REACTORS
330
34
102
}
330
34
100
DictionaryVariables
280
     0
  1
STANDARD
  0
DICTIONARYVAR
  5
A10C
102
{ACAD_REACTORS
330
34
102
}
330
34
100
DictionaryVariables
280
     0
  1
2
  0
DICTIONARYVAR
  5
35
102
{ACAD_REACTORS
330
34
102
}
330
34
100
DictionaryVariables
280
     0
  1
0
  0
DICTIONARYVAR
  5
194C
102
{ACAD_REACTORS
330
34
102
}
330
34
100
DictionaryVariables
280
     0
  1
127
  0
DICTIONARY
  5
7E8
102
{ACAD_REACTORS
330
47
102
}
330
47
100
AcDbDictionary
281
     1
  0
DICTIONARY
  5
4C
102
{ACAD_REACTORS
330
47
102
}
330
47
100
AcDbDictionary
281
     1
  0
XRECORD
  5
CFD7
102
{ACAD_REACTORS
330
47
102
}
330
47
100
AcDbXrecord
280
     1
 90
-1023410169
  0
XRECORD
  5
5733E
102
{ACAD_REACTORS
330
5733D
102
}
330
5733D
100
AcDbXrecord
280
     1
330
0
330
0
330
0
330
0
330
0
330
0
330
0
330
0
330
0
330
57F3F
330
57F40
330
0
330
0
330
0
330
0
330
0
330
51A80
330
0
330
0
330
0
330
0
330
0
330
5B762
330
5B763
330
5B76B
330
5B76C
330
5B7AE
330
5B7AF
330
5B77D
330
5B77E
330
0
330
0
330
5B78F
330
5B790
330
5B79A
330
5B79B
330
5B7A5
330
5B7A6
330
0
330
0
330
0
330
0
330
0
330
0
330
0
330
0
330
0
330
0
330
0
330
0
330
0
330
0
330
0
330
0
330
0
330
0
330
0
330
0
330
0
330
0
330
0
330
0
330
0
330
0
330
0
330
0
330
0
330
0
330
0
330
0
330
0
330
0
330
0
330
0
330
0
330
0
330
0
330
0
330
0
330
0
330
0
330
0
330
0
330
0
330
0
330
0
330
0
330
0
330
0
330
0
330
0
330
0
330
0
330
0
330
0
330
0
330
0
330
0
330
0
330
0
330
0
330
0
330
0
330
0
330
0
330
0
330
0
330
0
330
0
330
0
330
0
330
0
330
0
330
0
330
0
330
0
330
0
330
0
330
0
330
0
330
0
330
0
330
0
330
0
330
0
330
0
330
0
330
0
330
0
330
0
  0
XRECORD
  5
3FB7
102
{ACAD_REACTORS
330
3F96
102
}
330
3F96
100
AcDbXrecord
280
     1
 91
        3
330
A47
 90
        8
 62
     7
370
    40
331
16
  1
Color_7
330
A46
 90
        0
 62
    14
370
    -3
331
16
  1
Color_14
330
3A31
 90
        8
 62
     7
370
    20
331
16
  1
Color_7
330
6D1
 90
        0
 62
     7
370
    -3
331
16
  1
Color_7
330
0
 90
        8
 62
     7
370
    50
331
16
  1
Color_7
330
A48
 90
        8
 62
     2
370
    35
331
16
  1
Color_2
330
0
 90
        8
 62
     7
370
    -3
331
16
  1
Color_7
330
10
 90
        8
 62
     7
370
    -3
331
16
  1
Color_7
  0
DICTIONARY
  5
5C6A3
330
22
100
AcDbDictionary
280
     1
281
     1
  3
ACAD_XREC_ROUNDTRIP
360
5C6A4
  0
DICTIONARY
  5
5C6A1
330
1E
100
AcDbDictionary
280
     1
281
     1
  3
ACAD_XREC_ROUNDTRIP
360
5C6A2
  0
DICTIONARY
  5
5C6A5
330
26
100
AcDbDictionary
280
     1
281
     1
  3
ACAD_XREC_ROUNDTRIP
360
5C6A6
  0
DICTIONARY
  5
5C6AD
330
1D6E9
100
AcDbDictionary
280
     1
281
     1
  3
ACAD_XREC_ROUNDTRIP
360
5C6AE
  0
DICTIONARY
  5
5C6AB
330
1D6E8
100
AcDbDictionary
280
     1
281
     1
  3
ACAD_XREC_ROUNDTRIP
360
5C6AC
  0
DICTIONARY
  5
5C6AF
330
1D6EA
100
AcDbDictionary
280
     1
281
     1
  3
ACAD_XREC_ROUNDTRIP
360
5C6B0
  0
DICTIONARY
  5
5C6A9
330
1A631
100
AcDbDictionary
280
     1
281
     1
  3
ACAD_XREC_ROUNDTRIP
360
5C6AA
  0
DICTIONARY
  5
5C6A7
330
1A630
100
AcDbDictionary
280
     1
281
     1
  3
ACAD_XREC_ROUNDTRIP
360
5C6A8
  0
DICTIONARY
  5
5C6B3
330
23806
100
AcDbDictionary
280
     1
281
     1
  3
ACAD_XREC_ROUNDTRIP
360
5C6B4
  0
DICTIONARY
  5
5C6B1
330
1D6FD
100
AcDbDictionary
280
     1
281
     1
  3
ACAD_XREC_ROUNDTRIP
360
5C6B2
  0
XRECORD
  5
5C6A4
102
{ACAD_REACTORS
330
5C6A3
102
}
330
5C6A3
100
AcDbXrecord
280
     1
102
SHADEPLOT
 70
     0
102
SHADEPLOTRESLEVEL
 70
     2
102
SHADEPLOTCUSTOMDPI
 70
   300
  0
XRECORD
  5
5C6A2
102
{ACAD_REACTORS
330
5C6A1
102
}
330
5C6A1
100
AcDbXrecord
280
     1
102
SHADEPLOT
 70
     0
102
SHADEPLOTRESLEVEL
 70
     2
102
SHADEPLOTCUSTOMDPI
 70
   300
  0
XRECORD
  5
5C6A6
102
{ACAD_REACTORS
330
5C6A5
102
}
330
5C6A5
100
AcDbXrecord
280
     1
102
SHADEPLOT
 70
     0
102
SHADEPLOTRESLEVEL
 70
     2
102
SHADEPLOTCUSTOMDPI
 70
   300
  0
XRECORD
  5
5C6AE
102
{ACAD_REACTORS
330
5C6AD
102
}
330
5C6AD
100
AcDbXrecord
280
     1
102
MATERIAL
148
0.0
149
0.0
149
0.0
 93
        0
 94
       63
282
     0
 72
     1
 77
     1
171
     1
175
     1
179
     1
273
     0
  0
XRECORD
  5
5C6AC
102
{ACAD_REACTORS
330
5C6AB
102
}
330
5C6AB
100
AcDbXrecord
280
     1
102
MATERIAL
148
0.0
149
0.0
149
0.0
 93
        0
 94
       63
282
     0
 72
     1
 77
     1
171
     1
175
     1
179
     1
273
     0
  0
XRECORD
  5
5C6B0
102
{ACAD_REACTORS
330
5C6AF
102
}
330
5C6AF
100
AcDbXrecord
280
     1
102
MATERIAL
148
0.0
149
0.0
149
0.0
 93
        0
 94
       63
282
     0
 72
     1
 77
     1
171
     1
175
     1
179
     1
273
     0
  0
XRECORD
  5
5C6AA
102
{ACAD_REACTORS
330
5C6A9
102
}
330
5C6A9
100
AcDbXrecord
280
     1
102
SHADEPLOT
 70
     0
102
SHADEPLOTRESLEVEL
 70
     2
102
SHADEPLOTCUSTOMDPI
 70
   300
  0
XRECORD
  5
5C6A8
102
{ACAD_REACTORS
330
5C6A7
102
}
330
5C6A7
100
AcDbXrecord
280
     1
102
SHADEPLOT
 70
     0
102
SHADEPLOTRESLEVEL
 70
     2
102
SHADEPLOTCUSTOMDPI
 70
   300
  0
XRECORD
  5
5C6B4
102
{ACAD_REACTORS
330
5C6B3
102
}
330
5C6B3
100
AcDbXrecord
280
     1
102
SHADEPLOT
 70
     0
102
SHADEPLOTRESLEVEL
 70
     2
102
SHADEPLOTCUSTOMDPI
 70
   300
  0
XRECORD
  5
5C6B2
102
{ACAD_REACTORS
330
5C6B1
102
}
330
5C6B1
100
AcDbXrecord
280
     1
102
ACAD_ROUNDTRIP_PRE2007_TABLESTYLE
 90
      512
 91
        0
  1

 92
      512
 93
        0
  2

 94
      512
 95
        0
  3

  0
ENDSEC
  0
EOF
