  0
SECTION
  2
HEADER
  9
$ACADVER
  1
AC1015
  9
$ACADMAINTVER
 70
    20
  9
$DWGCODEPAGE
  3
ANSI_932
  9
$INSBASE
 10
0.0
 20
0.0
 30
0.0
  9
$EXTMIN
 10
-697.9568839960876
 20
-11730.64904086222
 30
0.0
  9
$EXTMAX
 10
46.09112746646497
 20
-11433.64904086222
 30
0.0
  9
$LIMMIN
 10
2406.72721656747
 20
-11272.98785877146
  9
$LIMMAX
 10
3000.72721656747
 20
-10852.98785877146
  9
$ORTHOMODE
 70
     0
  9
$REGENMODE
 70
     1
  9
$FILLMODE
 70
     1
  9
$QTEXTMODE
 70
     0
  9
$MIRRTEXT
 70
     0
  9
$LTSCALE
 40
1.0
  9
$ATTMODE
 70
     1
  9
$TEXTSIZE
 40
3.2
  9
$TRACEWID
 40
1.0
  9
$TEXTSTYLE
  7
STANDARD
  9
$CLAYER
  8
AM_CL
  9
$CELTYPE
  6
ByLayer
  9
$CECOLOR
 62
   256
  9
$CELTSCALE
 40
1.0
  9
$DISPSILH
 70
     0
  9
$DIMSCALE
 40
1.0
  9
$DIMASZ
 40
1.0
  9
$DIMEXO
 40
1.0
  9
$DIMDLI
 40
10.0
  9
$DIMRND
 40
0.0
  9
$DIMDLE
 40
0.0
  9
$DIMEXE
 40
1.0
  9
$DIMTP
 40
0.2
  9
$DIMTM
 40
-0.2
  9
$DIMTXT
 40
3.5
  9
$DIMCEN
 40
0.0
  9
$DIMTSZ
 40
0.0
  9
$DIMTOL
 70
     0
  9
$DIMLIM
 70
     0
  9
$DIMTIH
 70
     0
  9
$DIMTOH
 70
     0
  9
$DIMSE1
 70
     0
  9
$DIMSE2
 70
     0
  9
$DIMTAD
 70
     1
  9
$DIMZIN
 70
     8
  9
$DIMBLK
  1

  9
$DIMASO
 70
     1
  9
$DIMSHO
 70
     1
  9
$DIMPOST
  1

  9
$DIMAPOST
  1
"
  9
$DIMALT
 70
     0
  9
$DIMALTD
 70
     2
  9
$DIMALTF
 40
0.0393701
  9
$DIMLFAC
 40
1.0
  9
$DIMTOFL
 70
     1
  9
$DIMTVP
 40
0.0
  9
$DIMTIX
 70
     0
  9
$DIMSOXD
 70
     0
  9
$DIMSAH
 70
     0
  9
$DIMBLK1
  1

  9
$DIMBLK2
  1

  9
$DIMSTYLE
  2
SYS
  9
$DIMCLRD
 70
   256
  9
$DIMCLRE
 70
   256
  9
$DIMCLRT
 70
     7
  9
$DIMTFAC
 40
0.71
  9
$DIMGAP
 40
1.5
  9
$DIMJUST
 70
     0
  9
$DIMSD1
 70
     0
  9
$DIMSD2
 70
     0
  9
$DIMTOLJ
 70
     0
  9
$DIMTZIN
 70
     8
  9
$DIMALTZ
 70
     0
  9
$DIMALTTZ
 70
     0
  9
$DIMUPT
 70
     0
  9
$DIMDEC
 70
     1
  9
$DIMTDEC
 70
     2
  9
$DIMALTU
 70
     2
  9
$DIMALTTD
 70
     2
  9
$DIMTXSTY
  7
STANDARD
  9
$DIMAUNIT
 70
     0
  9
$DIMADEC
 70
     0
  9
$DIMALTRND
 40
0.0
  9
$DIMAZIN
 70
     2
  9
$DIMDSEP
 70
    46
  9
$DIMATFIT
 70
     3
  9
$DIMFRAC
 70
     0
  9
$DIMLDRBLK
  1

  9
$DIMLUNIT
 70
     2
  9
$DIMLWD
 70
    -1
  9
$DIMLWE
 70
    -1
  9
$DIMTMOVE
 70
     0
  9
$LUNITS
 70
     2
  9
$LUPREC
 70
     2
  9
$SKETCHINC
 40
1.0
  9
$FILLETRAD
 40
1.0
  9
$AUNITS
 70
     0
  9
$AUPREC
 70
     0
  9
$MENU
  1
.
  9
$ELEVATION
 40
0.0
  9
$PELEVATION
 40
0.0
  9
$THICKNESS
 40
0.0
  9
$LIMCHECK
 70
     0
  9
$CHAMFERA
 40
0.5
  9
$CHAMFERB
 40
0.5
  9
$CHAMFERC
 40
20.0
  9
$CHAMFERD
 40
0.0
  9
$SKPOLY
 70
     0
  9
$TDCREATE
 40
2453389.567546297
  9
$TDUCREATE
 40
2453389.192546296
  9
$TDUPDATE
 40
2454922.572186956
  9
$TDUUPDATE
 40
2454922.197186956
  9
$TDINDWG
 40
21.7913971528
  9
$TDUSRTIMER
 40
21.7913966088
  9
$USRTIMER
 70
     1
  9
$ANGBASE
 50
0.0
  9
$ANGDIR
 70
     0
  9
$PDMODE
 70
     0
  9
$PDSIZE
 40
-3.0
  9
$PLINEWID
 40
0.0
  9
$SPLFRAME
 70
     0
  9
$SPLINETYPE
 70
     6
  9
$SPLINESEGS
 70
     8
  9
$HANDSEED
  5
5C648
  9
$SURFTAB1
 70
     6
  9
$SURFTAB2
 70
     6
  9
$SURFTYPE
 70
     6
  9
$SURFU
 70
     6
  9
$SURFV
 70
     6
  9
$UCSBASE
  2

  9
$UCSNAME
  2

  9
$UCSORG
 10
0.0
 20
0.0
 30
0.0
  9
$UCSXDIR
 10
1.0
 20
0.0
 30
0.0
  9
$UCSYDIR
 10
0.0
 20
1.0
 30
0.0
  9
$UCSORTHOREF
  2

  9
$UCSORTHOVIEW
 70
     0
  9
$UCSORGTOP
 10
0.0
 20
0.0
 30
0.0
  9
$UCSORGBOTTOM
 10
0.0
 20
0.0
 30
0.0
  9
$UCSORGLEFT
 10
0.0
 20
0.0
 30
0.0
  9
$UCSORGRIGHT
 10
0.0
 20
0.0
 30
0.0
  9
$UCSORGFRONT
 10
0.0
 20
0.0
 30
0.0
  9
$UCSORGBACK
 10
0.0
 20
0.0
 30
0.0
  9
$PUCSBASE
  2

  9
$PUCSNAME
  2

  9
$PUCSORG
 10
0.0
 20
0.0
 30
0.0
  9
$PUCSXDIR
 10
1.0
 20
0.0
 30
0.0
  9
$PUCSYDIR
 10
0.0
 20
1.0
 30
0.0
  9
$PUCSORTHOREF
  2

  9
$PUCSORTHOVIEW
 70
     0
  9
$PUCSORGTOP
 10
0.0
 20
0.0
 30
0.0
  9
$PUCSORGBOTTOM
 10
0.0
 20
0.0
 30
0.0
  9
$PUCSORGLEFT
 10
0.0
 20
0.0
 30
0.0
  9
$PUCSORGRIGHT
 10
0.0
 20
0.0
 30
0.0
  9
$PUCSORGFRONT
 10
0.0
 20
0.0
 30
0.0
  9
$PUCSORGBACK
 10
0.0
 20
0.0
 30
0.0
  9
$USERI1
 70
     0
  9
$USERI2
 70
     0
  9
$USERI3
 70
     0
  9
$USERI4
 70
     0
  9
$USERI5
 70
     0
  9
$USERR1
 40
0.0
  9
$USERR2
 40
0.0
  9
$USERR3
 40
0.0
  9
$USERR4
 40
0.0
  9
$USERR5
 40
0.0
  9
$WORLDVIEW
 70
     1
  9
$SHADEDGE
 70
     3
  9
$SHADEDIF
 70
    70
  9
$TILEMODE
 70
     1
  9
$MAXACTVP
 70
    64
  9
$PINSBASE
 10
0.0
 20
0.0
 30
0.0
  9
$PLIMCHECK
 70
     0
  9
$PEXTMIN
 10
1.000000000000000E+20
 20
1.000000000000000E+20
 30
1.000000000000000E+20
  9
$PEXTMAX
 10
-1.000000000000000E+20
 20
-1.000000000000000E+20
 30
-1.000000000000000E+20
  9
$PLIMMIN
 10
-3.17498779296875
 20
-3.174999952316284
  9
$PLIMMAX
 10
293.4970092773438
 20
206.692492723465
  9
$UNITMODE
 70
     0
  9
$VISRETAIN
 70
     1
  9
$PLINEGEN
 70
     0
  9
$PSLTSCALE
 70
     1
  9
$TREEDEPTH
 70
  3020
  9
$CMLSTYLE
  2
Standard
  9
$CMLJUST
 70
     0
  9
$CMLSCALE
 40
20.0
  9
$PROXYGRAPHICS
 70
     1
  9
$MEASUREMENT
 70
     1
  9
$CELWEIGHT
370
    -1
  9
$ENDCAPS
280
     0
  9
$JOINSTYLE
280
     0
  9
$LWDISPLAY
290
     0
  9
$INSUNITS
 70
     4
  9
$HYPERLINKBASE
  1

  9
$STYLESHEET
  1
monochrome.ctb
  9
$XEDIT
290
     1
  9
$CEPSNTYPE
380
     0
  9
$PSTYLEMODE
290
     1
  9
$FINGERPRINTGUID
  2
{83FB3AA1-FF18-4BFE-AFE0-611B71DE056D}
  9
$VERSIONGUID
  2
{3761E33C-966C-4170-80A5-6DAB8893E398}
  9
$EXTNAMES
290
     1
  9
$PSVPSCALE
 40
0.0
  9
$OLESTARTUP
290
     0
  0
ENDSEC
  0
SECTION
  2
CLASSES
  0
CLASS
  1
ACDBDICTIONARYWDFLT
  2
AcDbDictionaryWithDefault
  3
ObjectDBX Classes
 90
        0
280
     0
281
     0
  0
CLASS
  1
ACDBPLACEHOLDER
  2
AcDbPlaceHolder
  3
ObjectDBX Classes
 90
        0
280
     0
281
     0
  0
CLASS
  1
LAYOUT
  2
AcDbLayout
  3
ObjectDBX Classes
 90
        0
280
     0
281
     0
  0
CLASS
  1
AMGSETTINGSOBJ
  2
AmgSettingsObj
  3
"AcadM|Product Description: AutoCAD Mechanical|Company: Autodesk"
 90
        0
280
     0
281
     0
  0
CLASS
  1
ACME_DOCUMENT
  2
AcMeDbDoc
  3
AcMeServices
 90
        0
280
     0
281
     0
  0
CLASS
  1
ACMESCOPE
  2
AcMeScope
  3
AcMeServices
 90
        0
280
     0
281
     0
  0
CLASS
  1
ACMECOMMANDHISTORY
  2
AcMeCommandHistory
  3
AcMeServices
 90
        0
280
     0
281
     0
  0
CLASS
  1
DICTIONARYVAR
  2
AcDbDictionaryVar
  3
ObjectDBX Classes
 90
        0
280
     0
281
     0
  0
CLASS
  1
ACIMSYSVARMAN
  2
AcImSysVarManager
  3
AcMeServices
 90
        0
280
     0
281
     0
  0
CLASS
  1
ACIMREALSYSVAR
  2
AcImRealSysVar
  3
AcMeServices
 90
        0
280
     0
281
     0
  0
CLASS
  1
ACIMINTSYSVAR
  2
AcImIntSysVar
  3
AcMeServices
 90
        0
280
     0
281
     0
  0
CLASS
  1
ACMEDRAWINGMAN
  2
AcMeDrawingMan
  3
AcMeServices
 90
        0
280
     0
281
     0
  0
CLASS
  1
ACMEVIEW
  2
AcMeView
  3
AcMeServices
 90
        0
280
     0
281
     0
  0
CLASS
  1
ACDBENTITYCACHE
  2
AcMeEntityCache
  3
AcMeServices
 90
        0
280
     0
281
     0
  0
CLASS
  1
GSMANAGER
  2
AcMeGSManager
  3
AcMeServices
 90
        0
280
     0
281
     0
  0
CLASS
  1
AMDTINTERNALREACTOR
  2
AmdtInternalReactor
  3
AcMeServices
 90
        0
280
     0
281
     0
  0
CLASS
  1
ACMESTATEMGR
  2
AcMeStateMgr
  3
AcMeServices
 90
        0
280
     0
281
     0
  0
CLASS
  1
ACGREFMASTER
  2
AcGrefMaster
  3
AcAttribServices
 90
        0
280
     0
281
     0
  0
CLASS
  1
ACME_DATABASE
  2
AcMeDbDatabase
  3
AcMeServices
 90
        0
280
     0
281
     0
  0
CLASS
  1
ACRFINSADJUSTERMGR
  2
AcRfInsAdjusterMgr
  3
AcMeServices
 90
        0
280
     0
281
     0
  0
CLASS
  1
ACGREFACADMASTER
  2
AcGrefacadMaster
  3
AcGrefServices
 90
        0
280
     0
281
     0
  0
CLASS
  1
AMIMASTER
  2
AmiMaster
  3
AmiServices
 90
        0
280
     0
281
     0
  0
CLASS
  1
ACMDATADICTIONARY
  2
AcmDataDictionary
  3
"AcmSymBB|Product Description: AutoCAD Mechanical|Company: Autodesk"
 90
        0
280
     0
281
     0
  0
CLASS
  1
ACMDATAENTRYBLOCK
  2
AcmDataEntryBlock
  3
"AcmSymBB|Product Description: AutoCAD Mechanical|Company: Autodesk"
 90
        0
280
     0
281
     0
  0
CLASS
  1
ACIMSTRSYSVAR
  2
AcImStrSysVar
  3
AcMeServices
 90
        0
280
     0
281
     0
  0
CLASS
  1
ACMSTANDARDISO
  2
AcmStandardISO
  3
"Amdt_StdImp|Product Description: AutoCAD Mechanical|Company: Autodesk"
 90
        0
280
     0
281
     0
  0
CLASS
  1
AMGOBJPROPCFG
  2
AmgObjPropCfg
  3
"AmgLay|Product Description: AutoCAD Mechanical|Company: Autodesk"
 90
        1
280
     0
281
     0
  0
CLASS
  1
AMDTEDGESTANDARDISO
  2
AmdtEdgeStdISO
  3
"Amdt_StdImp|Product Description: AutoCAD Mechanical|Company: Autodesk"
 90
        0
280
     0
281
     0
  0
CLASS
  1
ACMSURFSTANDARDISO
  2
AcmSurfTextStdISO
  3
"Amdt_StdImp|Product Description: AutoCAD Mechanical|Company: Autodesk"
 90
        0
280
     0
281
     0
  0
CLASS
  1
ACMFCFSTANDARDISO
  2
AcmFCFStdISO
  3
"Amdt_StdImp|Product Description: AutoCAD Mechanical|Company: Autodesk"
 90
        0
280
     0
281
     0
  0
CLASS
  1
ACMWELDSTANDARDISO
  2
AcmWeldingStdISO
  3
"Amdt_StdImp|Product Description: AutoCAD Mechanical|Company: Autodesk"
 90
        0
280
     0
281
     0
  0
CLASS
  1
ACMIDSTANDARDISO
  2
AcmIdStdISO
  3
"Amdt_StdImp|Product Description: AutoCAD Mechanical|Company: Autodesk"
 90
        0
280
     0
281
     0
  0
CLASS
  1
ACMDATUMSTANDARDISO
  2
AcmDatumStdISO
  3
"Amdt_StdImp|Product Description: AutoCAD Mechanical|Company: Autodesk"
 90
        0
280
     0
281
     0
  0
CLASS
  1
ACMBOMSTANDARDISO
  2
AcmBOMStdISO
  3
"Amdt_StdImp|Product Description: AutoCAD Mechanical|Company: Autodesk"
 90
        0
280
     0
281
     0
  0
CLASS
  1
ACMDETAILSTANDARDISO
  2
AmdtDetailSymStdISO
  3
"Amdt_StdImp|Product Description: AutoCAD Mechanical|Company: Autodesk"
 90
        0
280
     0
281
     0
  0
CLASS
  1
ACMSECTIONSTANDARDISO
  2
AmdtSectionSymStdISO
  3
"Amdt_StdImp|Product Description: AutoCAD Mechanical|Company: Autodesk"
 90
        0
280
     0
281
     0
  0
CLASS
  1
ACMCENTERLINESTANDARDISO
  2
AmdtCenterLineStdISO
  3
"Amdt_StdImp|Product Description: AutoCAD Mechanical|Company: Autodesk"
 90
        0
280
     0
281
     0
  0
CLASS
  1
ACAMGLAYSTD
  2
AcAmgLayStd
  3
"AmgLay|Product Description: AutoCAD Mechanical|Company: Autodesk"
 90
        0
280
     0
281
     0
  0
CLASS
  1
ACAMGDIMSTD
  2
AcAmgDimStd
  3
"AmgDim|Product Description: AutoCAD Mechanical|Company: Autodesk"
 90
        0
280
     0
281
     0
  0
CLASS
  1
ACAMGTITLESTD
  2
AcAmgTitleStd
  3
"AmgTitle|Product Description: AutoCAD Mechanical|Company: Autodesk"
 90
        0
280
     0
281
     0
  0
CLASS
  1
ACAMGFILTERDAT
  2
AcAmgFilterDat
  3
"AcadM|Product Description: AutoCAD Mechanical|Company: Autodesk"
 90
    32768
280
     0
281
     0
  0
CLASS
  1
LAYER_INDEX
  2
AcDbLayerIndex
  3
ObjectDBX Classes
 90
    32768
280
     0
281
     0
  0
CLASS
  1
IDBUFFER
  2
AcDbIdBuffer
  3
ObjectDBX Classes
 90
    32768
280
     0
281
     0
  0
CLASS
  1
PLOTSETTINGS
  2
AcDbPlotSettings
  3
ObjectDBX Classes
 90
        0
280
     0
281
     0
  0
CLASS
  1
AMDTFORMULAUPDATEDISPATCHER
  2
AmdtFormulaUpdateDispatcher
  3
AcMeServices
 90
        0
280
     0
281
     0
  0
CLASS
  1
ACMSTANDARDANSI
  2
AcmStandardANSI
  3
"Amdt_StdImp|Product Description: AutoCAD Mechanical|Company: Autodesk"
 90
        0
280
     0
281
     0
  0
CLASS
  1
ACMSURFSTANDARDANSI
  2
AcmSurfTextStdANSI
  3
"Amdt_StdImp|Product Description: AutoCAD Mechanical|Company: Autodesk"
 90
        0
280
     0
281
     0
  0
CLASS
  1
ACMFCFSTANDARDANSI
  2
AcmFCFStdANSI
  3
"Amdt_StdImp|Product Description: AutoCAD Mechanical|Company: Autodesk"
 90
        0
280
     0
281
     0
  0
CLASS
  1
ACMWELDSTANDARDANSI
  2
AcmWeldingStdANSI
  3
"Amdt_StdImp|Product Description: AutoCAD Mechanical|Company: Autodesk"
 90
        0
280
     0
281
     0
  0
CLASS
  1
ACMIDSTANDARDANSI
  2
AcmIdStdANSI
  3
"Amdt_StdImp|Product Description: AutoCAD Mechanical|Company: Autodesk"
 90
        0
280
     0
281
     0
  0
CLASS
  1
ACMDATUMSTANDARDANSI
  2
AcmDatumStdANSI
  3
"Amdt_StdImp|Product Description: AutoCAD Mechanical|Company: Autodesk"
 90
        0
280
     0
281
     0
  0
CLASS
  1
ACMBOMSTANDARDANSI
  2
AcmBOMStdANSI
  3
"Amdt_StdImp|Product Description: AutoCAD Mechanical|Company: Autodesk"
 90
        0
280
     0
281
     0
  0
CLASS
  1
ACMDETAILSTANDARDANSI
  2
AmdtDetailSymStdANSI
  3
"Amdt_StdImp|Product Description: AutoCAD Mechanical|Company: Autodesk"
 90
        0
280
     0
281
     0
  0
CLASS
  1
ACMSECTIONSTANDARDANSI
  2
AmdtSectionSymStdANSI
  3
"Amdt_StdImp|Product Description: AutoCAD Mechanical|Company: Autodesk"
 90
        0
280
     0
281
     0
  0
CLASS
  1
ACMCENTERLINESTANDARDANSI
  2
AmdtCenterLineStdANSI
  3
"Amdt_StdImp|Product Description: AutoCAD Mechanical|Company: Autodesk"
 90
        0
280
     0
281
     0
  0
CLASS
  1
ACMBOM
  2
AcmBom
  3
"AcmSymBB|Product Description: AutoCAD Mechanical|Company: Autodesk"
 90
        0
280
     0
281
     0
  0
CLASS
  1
ACMDATAENTRYPART
  2
AcmDataEntryPart
  3
"AcmSymBB|Product Description: AutoCAD Mechanical|Company: Autodesk"
 90
        0
280
     0
281
     0
  0
CLASS
  1
ACMPARTREF
  2
AcmPartRef
  3
"AcmSymBB|Product Description: AutoCAD Mechanical|Company: Autodesk"
 90
    35839
280
     0
281
     1
  0
CLASS
  1
ACDBCIRCARCRES
  2
AcDbCircArcRes
  3
AcGrefServices
 90
    32768
280
     0
281
     0
  0
CLASS
  1
ACMBOMROW
  2
AcmBomRow
  3
"AcmSymBB|Product Description: AutoCAD Mechanical|Company: Autodesk"
 90
    32768
280
     0
281
     0
  0
CLASS
  1
ACMBALLOON
  2
AcmBalloon
  3
"AcmSymBB|Product Description: AutoCAD Mechanical|Company: Autodesk"
 90
    35839
280
     0
281
     1
  0
CLASS
  1
AMDTNOTE
  2
AmdtNote
  3
"AcmSymBB|Product Description: AutoCAD Mechanical|Company: Autodesk"
 90
    35839
280
     0
281
     1
  0
CLASS
  1
STDPART2D
  2
AmgStdPart
  3
"g3vace|Class: AmgStdPart|Product Description: AutoCAD Mechanical|Company: Autodesk"
 90
    35839
280
     0
281
     1
  0
CLASS
  1
ACDBSTDPARTRES_LINE
  2
AcDbStdPartRes_Line
  3
"g3vace|Class: AcDbStdPartRes_Line|Product Description: AutoCAD Mechanical|Company: Autodesk"
 90
    32768
280
     0
281
     0
  0
CLASS
  1
ACMDATAENTRY
  2
AcmDataEntry
  3
"AcmSymBB|Product Description: AutoCAD Mechanical|Company: Autodesk"
 90
    32768
280
     0
281
     0
  0
CLASS
  1
ACDBOPPOLYLINERES
  2
AcDbOpPolylineRes
  3
AcGrefServices
 90
    32768
280
     0
281
     0
  0
CLASS
  1
ACMPARTLIST
  2
AcmPartList
  3
"AcmSymBB|Product Description: AutoCAD Mechanical|Company: Autodesk"
 90
    35839
280
     0
281
     1
  0
CLASS
  1
ACDBLINERES
  2
AcDbLineRes
  3
AcGrefServices
 90
    32768
280
     0
281
     0
  0
CLASS
  1
ACRFINSADJ
  2
AcRfInsAdjuster
  3
AcMeServices
 90
    32768
280
     0
281
     0
  0
CLASS
  1
AM_DRAWING_MGR
  2
AcDmDwgMgr
  3
AcMechDwgViewMgmt
 90
        0
280
     0
281
     0
  0
CLASS
  1
AM_DWG_DOCUMENT
  2
AcDmDwgDocument
  3
AcMechDwgViewMgmt
 90
        0
280
     0
281
     0
  0
CLASS
  1
AM_DWG_SHEET
  2
AcDmSheet
  3
AcMechDwgViewMgmt
 90
        0
280
     0
281
     0
  0
CLASS
  1
AM_VIEWDIMPARMAP
  2
AcDmViewDimParMap
  3
AcMechDwgViewMgmt
 90
        0
280
     0
281
     0
  0
CLASS
  1
AM_DWGMGR_NAME
  2
AcDmDwgMgrName
  3
AcMechDwgViewMgmt
 90
        0
280
     0
281
     0
  0
CLASS
  1
AMDTMENUSTATEMGR
  2
AmdtMenuStateMgr
  3
McadcomServices
 90
        0
280
     0
281
     0
  0
CLASS
  1
AMDTMCOMMENUSTATE
  2
AmdtMcomMenuState
  3
McadcomServices
 90
        0
280
     0
281
     0
  0
CLASS
  1
ASAPP
  2
AcAsAppObject
  3
AutoSurfServices
 90
        0
280
     0
281
     0
  0
CLASS
  1
IM_STATIC_MAN
  2
AcImStaticVarManager
  3
AcMeServices
 90
    32768
280
     0
281
     0
  0
CLASS
  1
ACIMDBLSTATICVAR
  2
AcImDblStaticVar
  3
AcMeServices
 90
    32768
280
     0
281
     0
  0
CLASS
  1
ACIMSTRSTATICVAR
  2
AcImStrStaticVar
  3
AcMeServices
 90
    32768
280
     0
281
     0
  0
CLASS
  1
ACIMINTSTATICVAR
  2
AcImIntStaticVar
  3
AcMeServices
 90
    32768
280
     0
281
     0
  0
CLASS
  1
ACASGREFMASTER
  2
AcAsGrefMaster
  3
AutoSurfResolverServices
 90
        0
280
     0
281
     0
  0
CLASS
  1
ACADGREFMODULE
  2
AcAdGrefModule
  3
AdGrefServices
 90
        0
280
     0
281
     0
  0
CLASS
  1
AMDTMAPISURFMOUDULE
  2
AmdtMApiSurfModule
  3
MApiSurfServices
 90
        0
280
     0
281
     0
  0
CLASS
  1
MAPIAMMOUDLE
  2
MApiAmModule
  3
MApiAmServices
 90
        0
280
     0
281
     0
  0
CLASS
  1
AMDTADMENUSTATE
  2
AmdtAdMenuState
  3
DesignerServices
 90
        0
280
     0
281
     0
  0
CLASS
  1
ADAPPL
  2
AcAdAppl
  3
DesignerServices
 90
        0
280
     0
281
     0
  0
CLASS
  1
DEPMGR
  2
AcAdDepMgr
  3
DesignerServices
 90
        0
280
     0
281
     0
  0
CLASS
  1
PARAMMGR
  2
AcAdParamMgr
  3
DesignerServices
 90
        0
280
     0
281
     0
  0
CLASS
  1
PARAMSCOPE
  2
AcAdParamScope
  3
DesignerServices
 90
        0
280
     0
281
     0
  0
CLASS
  1
NAMEDAPPL
  2
AcAdNamedAppl
  3
DesignerServices
 90
        0
280
     0
281
     0
  0
CLASS
  1
ADHNTMPLT
  2
AdHoleNoteTemplateMgr
  3
DesignerServices
 90
    32768
280
     0
281
     0
  0
CLASS
  1
AM_HNTEMPLATE_MGR_NAME
  2
AdHoleNoteTemplateMgrName
  3
DesignerServices
 90
    32768
280
     0
281
     0
  0
CLASS
  1
AMDTDMMENUSTATE
  2
AmdtDmMenuState
  3
AcMechDwgViewMgmt
 90
        0
280
     0
281
     0
  0
CLASS
  1
MAPIADMODULE
  2
MApiAdModule
  3
MApiAdServices
 90
        0
280
     0
281
     0
  0
CLASS
  1
AMDTAMMENUSTATE
  2
AmdtAmMenuState
  3
DesignerAssemblies
 90
        0
280
     0
281
     0
  0
CLASS
  1
ACAMPROJECT
  2
AcAmProject
  3
DesignerAssemblies
 90
        0
280
     0
281
     0
  0
CLASS
  1
ACAMGRCOMPDEF
  2
AcAmGrCompDef
  3
DesignerAssemblies
 90
        0
280
     0
281
     0
  0
CLASS
  1
ACCMCONTEXT
  2
AcCmContext
  3
DesignerAssemblies
 90
        0
280
     0
281
     0
  0
CLASS
  1
ACAMCOMPDEF
  2
AcAmCompDef
  3
DesignerAssemblies
 90
        0
280
     0
281
     0
  0
CLASS
  1
ACAMCOMPDEFMGR
  2
AcAmCompDefMgr
  3
DesignerAssemblies
 90
        0
280
     0
281
     0
  0
CLASS
  1
AMCONTEXTMGR
  2
AcAmContextMgr
  3
DesignerAssemblies
 90
        0
280
     0
281
     0
  0
CLASS
  1
ACAMCONTEXTMODELER
  2
AcAmContextModeler
  3
DesignerAssemblies
 90
        0
280
     0
281
     0
  0
CLASS
  1
CATALOGSTATE
  2
AcAmCatalogState
  3
DesignerAssemblies
 90
        0
280
     0
281
     0
  0
CLASS
  1
ACAMGRCOMPDEFSET
  2
AcAmGrCompDefSet
  3
DesignerAssemblies
 90
        0
280
     0
281
     0
  0
CLASS
  1
AMDTBROWSERDBTAB
  2
AmdtBrowserDbTab
  3
McadcomServices
 90
        0
280
     0
281
     0
  0
CLASS
  1
CBROWSERAPPOBJECT
  2
CBrowserAppObject
  3
McadcomServices
 90
        0
280
     0
281
     0
  0
CLASS
  1
DM_PLACEHOLDER
  2
AcDmSelsetPlaceholder
  3
AcMechDwgViewMgmt
 90
        0
280
     0
281
     0
  0
CLASS
  1
ACMPICKOBJ
  2
AcmPickEnt
  3
"AcmSymBB|Product Description: AutoCAD Mechanical|Company: Autodesk"
 90
    32768
280
     0
281
     1
  0
CLASS
  1
ACMNOTESTANDARDISO
  2
AmdtNoteStdISO
  3
"Amdt_StdImp|Product Description: AutoCAD Mechanical|Company: Autodesk"
 90
        0
280
     0
281
     0
  0
CLASS
  1
ACMNOTESTANDARDANSI
  2
AmdtNoteStdANSI
  3
"Amdt_StdImp|Product Description: AutoCAD Mechanical|Company: Autodesk"
 90
        0
280
     0
281
     0
  0
CLASS
  1
AMDTACMWBLOCKBOMENTITY
  2
AmdtAcmWblockBomEntity
  3
"AcmSymBB|Product Description: AutoCAD Mechanical|Company: Autodesk"
 90
     3071
280
     0
281
     1
  0
CLASS
  1
ACMTHREADLINESTANDARDISO
  2
AmdtThreadLineStdISO
  3
"Amdt_StdImp|Product Description: AutoCAD Mechanical|Company: Autodesk"
 90
        0
280
     0
281
     0
  0
CLASS
  1
ACMTHREADLINESTANDARDANSI
  2
AmdtThreadLineStdANSI
  3
"Amdt_StdImp|Product Description: AutoCAD Mechanical|Company: Autodesk"
 90
        0
280
     0
281
     0
  0
CLASS
  1
AMDTNOTETEMPLATEDB
  2
AmdtNoteTemplateDB
  3
AMDT_STDIMP_MODULE_NAME
 90
        0
280
     0
281
     0
  0
CLASS
  1
DIMASSOC
  2
AcDbDimAssoc
  3
"AcDbDimAssoc|Product Desc:     AcDim ARX App For Dimension|Company:          Autodesk, Inc.|WEB Address:      www.autodesk.com"
 90
    32768
280
     0
281
     0
  0
CLASS
  1
ACAMSTDPCOMPDEF
  2
AcAmStdpCompDef
  3
DesignerAssemblies
 90
    32768
280
     0
281
     0
  0
CLASS
  1
ACRFATTGENMGR
  2
AcRfAttGeneralMgr
  3
AcAttribServices
 90
        0
280
     0
281
     0
  0
CLASS
  1
ACRFOBJATTMGR
  2
AcRfObjAttGroupMgr
  3
AcAttribServices
 90
        0
280
     0
281
     0
  0
CLASS
  1
ACRFMCADAPIATTHOLDER
  2
AcRfMCADAPIAttHolder
  3
AcAttribServices
 90
        0
280
     0
281
     0
  0
CLASS
  1
AMDTSYSATTR
  2
AmdtSystemAttribute
  3
AcAttribServices
 90
        0
280
     0
281
     0
  0
CLASS
  1
AC_AM_MVD_DEP_MGR
  2
AcAmMVDdepMgr
  3
DesignerAssemblies
 90
    32768
280
     0
281
     0
  0
CLASS
  1
AC_AM_MASTER_VIEW_DEF
  2
AcAmMasterViewDef
  3
DesignerAssemblies
 90
    32768
280
     0
281
     0
  0
CLASS
  1
AC_AM_DIRTY_NODES
  2
AcAmDirtyNodes
  3
DesignerAssemblies
 90
    32768
280
     0
281
     0
  0
CLASS
  1
ACAMMVDBACKUPOBJECT
  2
AcAmMVDBackupObject
  3
DesignerAssemblies
 90
    32768
280
     0
281
     0
  0
CLASS
  1
ACAMCOMP
  2
AcAmComp
  3
DesignerAssemblies
 90
    32768
280
     0
281
     0
  0
CLASS
  1
AC_AM_STDP_VIEW_DEF
  2
AcAmStdpViewDef
  3
DesignerAssemblies
 90
    32768
280
     0
281
     0
  0
CLASS
  1
AC_AM_COMP_VIEW_INST
  2
AcAmCompView
  3
DesignerAssemblies
 90
    32768
280
     0
281
     0
  0
CLASS
  1
AC_AM_PROPS_OVERRIDE
  2
AcAmPropertiesOverride
  3
DesignerAssemblies
 90
    32768
280
     0
281
     0
  0
CLASS
  1
AC_AM_OVERRIDE_FILTER
  2
AcAmOverrideFilter
  3
DesignerAssemblies
 90
    32768
280
     0
281
     0
  0
CLASS
  1
NEWSTDPARTPARLIST
  2
AmgNewParListFiler
  3
"AmgParList|Product Description: AutoCAD Mechanical 2000|Company: Autodesk"
 90
    35839
280
     0
281
     0
  0
CLASS
  1
SORTENTSTABLE
  2
AcDbSortentsTable
  3
ObjectDBX Classes
 90
        0
280
     0
281
     0
  0
CLASS
  1
MATERIAL
  2
AcDbMaterial
  3
ObjectDBX Classes
 90
     1153
280
     0
281
     0
  0
CLASS
  1
VISUALSTYLE
  2
AcDbVisualStyle
  3
ObjectDBX Classes
 90
     4095
280
     0
281
     0
  0
CLASS
  1
TABLESTYLE
  2
AcDbTableStyle
  3
ObjectDBX Classes
 90
     4095
280
     0
281
     0
  0
CLASS
  1
AC_AM_MAPPER_CACHE
  2
AcAmMapperCache
  3
DesignerAssemblies
 90
    32768
280
     0
281
     0
  0
CLASS
  1
ACMTAPERSTANDARDISO
  2
AcmTaperStdISO
  3
"Amdt_StdImp|Product Description: AutoCAD Mechanical|Company: Autodesk"
 90
        0
280
     0
281
     0
  0
CLASS
  1
ACMTAPERSTANDARDANSI
  2
AcmTaperStdANSI
  3
"Amdt_StdImp|Product Description: AutoCAD Mechanical|Company: Autodesk"
 90
        0
280
     0
281
     0
  0
CLASS
  1
AC_AM_2D_XREF_MGR
  2
AcAmXrefMgr2d
  3
DesignerAssemblies
 90
    32768
280
     0
281
     0
  0
CLASS
  1
AC_AM_HIDE_SITUATION
  2
AcAmHideSituation
  3
DesignerAssemblies
 90
    32768
280
     0
281
     0
  0
CLASS
  1
AC_AM_SPRING_ROD_HIDE_SITUATION
  2
AcAmSpringRodHideSituation
  3
DesignerAssemblies
 90
    32768
280
     0
281
     0
  0
CLASS
  1
AC_AM_TRANSFORM_GHOST
  2
AcDbTransformGhost
  3
DesignerAssemblies
 90
    32768
280
     0
281
     1
  0
CLASS
  1
L"OBJCLONER"
  2
ObjCloner
  3
DesignerAssemblies
 90
    32768
280
     0
281
     1
  0
CLASS
  1
ACAMWBLOCKTEMPENTS
  2
AcAmStructInOutTempObjsHolder
  3
DesignerAssemblies
 90
    32768
280
     0
281
     0
  0
CLASS
  1
AMDTEDGESTANDARDISO13715
  2
AmdtEdgeStdISO13715
  3
"Amdt_StdImp|Product Description: AutoCAD Mechanical|Company: Autodesk"
 90
        0
280
     0
281
     0
  0
CLASS
  1
ACAMGHOLECHARTSTDISO
  2
AcAmgHoleChartStdISO
  3
ACMSYMBB_MODULE_NAME
 90
        0
280
     0
281
     0
  0
CLASS
  1
CAMSSTRUCTBTNSTATE
  2
StructBtnState
  3
L"DesignerAssemblies"
 90
        0
280
     0
281
     0
  0
CLASS
  1
ACAMGHOLECHARTSTDANSI
  2
AcAmgHoleChartStdANSI
  3
ACMSYMBB_MODULE_NAME
 90
        0
280
     0
281
     0
  0
ENDSEC
  0
SECTION
  2
TABLES
  0
TABLE
  2
VPORT
  5
8
102
{ACAD_XDICTIONARY
360
1DE12
102
}
330
0
100
AcDbSymbolTable
 70
     1
  0
VPORT
  5
1D6E6
330
8
100
AcDbSymbolTableRecord
100
AcDbViewportTableRecord
  2
*Active
 70
     0
 10
0.0
 20
0.0
 11
1.0
 21
1.0
 12
-159.4770999083842
 22
-11526.42259798728
 13
0.0
 23
0.0
 14
2.5
 24
2.5
 15
10.0
 25
10.0
 16
0.0
 26
0.0
 36
1.0
 17
0.0
 27
0.0
 37
0.0
 40
255.872434388466
 41
1.267532467532467
 42
50.0
 43
-1370.695619172058
 44
-1370.695619172058
 50
0.0
 51
0.0
 71
     0
 72
   100
 73
     1
 74
     3
 75
     0
 76
     0
 77
     0
 78
     0
281
     0
 65
     0
110
0.0
120
0.0
130
0.0
111
1.0
121
0.0
131
0.0
112
0.0
122
1.0
132
0.0
 79
     0
146
0.0
  0
ENDTAB
  0
TABLE
  2
LTYPE
  5
5
330
0
100
AcDbSymbolTable
 70
    33
  0
LTYPE
  5
14
330
5
100
AcDbSymbolTableRecord
100
AcDbLinetypeTableRecord
  2
ByBlock
 70
     0
  3

 72
    65
 73
     0
 40
0.0
  0
LTYPE
  5
15
330
5
100
AcDbSymbolTableRecord
100
AcDbLinetypeTableRecord
  2
ByLayer
 70
     0
  3

 72
    65
 73
     0
 40
0.0
  0
LTYPE
  5
16
330
5
100
AcDbSymbolTableRecord
100
AcDbLinetypeTableRecord
  2
Continuous
 70
     0
  3
Solid line
 72
    65
 73
     0
 40
0.0
  0
LTYPE
  5
4F
330
5
100
AcDbSymbolTableRecord
100
AcDbLinetypeTableRecord
  2
AM_ISO02W050
 70
     0
  3
__ __ __ __ __ __ __ __ __ __ __ __ __ __ __
 72
    65
 73
     2
 40
7.5
 49
6.0
 74
     0
 49
-1.5
 74
     0
  0
LTYPE
  5
52
330
5
100
AcDbSymbolTableRecord
100
AcDbLinetypeTableRecord
  2
Amconstr
 70
     0
  3
_______________________
 72
    65
 73
     2
 40
9999.0
 49
9999.0
 74
     0
 49
0.0
 74
     0
  0
LTYPE
  5
64
330
5
100
AcDbSymbolTableRecord
100
AcDbLinetypeTableRecord
  2
ACISOWELD
 70
     0
  3
_ _ _ _ _
 72
    65
 73
     2
 40
2.0
 49
2.0
 74
     0
 49
-1.0
 74
     0
  0
LTYPE
  5
65
330
5
100
AcDbSymbolTableRecord
100
AcDbLinetypeTableRecord
  2
ACISOTGB
 70
     0
  3
__ . . __ . .
 72
    65
 73
     6
 40
9.0
 49
4.0
 74
     0
 49
-1.0
 74
     0
 49
1.0
 74
     0
 49
-1.0
 74
     0
 49
1.0
 74
     0
 49
-1.0
 74
     0
  0
LTYPE
  5
66
330
5
100
AcDbSymbolTableRecord
100
AcDbLinetypeTableRecord
  2
ACISOTGL
 70
     0
  3
_ _ _ _ _
 72
    65
 73
     2
 40
3.0
 49
2.0
 74
     0
 49
-1.0
 74
     0
  0
LTYPE
  5
69
330
5
100
AcDbSymbolTableRecord
100
AcDbLinetypeTableRecord
  2
CENTER
 70
     0
  3
__ . __
 72
    65
 73
     4
 40
7.0
 49
4.0
 74
     0
 49
-1.0
 74
     0
 49
1.0
 74
     0
 49
-1.0
 74
     0
  0
LTYPE
  5
A6E
330
5
100
AcDbSymbolTableRecord
100
AcDbLinetypeTableRecord
  2
PHANTOM2
 70
     0
  3
Phantom (.5x) ___ _ _ ___ _ _ ___ _ _ ___ _ _
 72
    65
 73
     6
 40
31.75
 49
15.875
 74
     0
 49
-3.174999999999999
 74
     0
 49
3.174999999999999
 74
     0
 49
-3.174999999999999
 74
     0
 49
3.174999999999999
 74
     0
 49
-3.174999999999999
 74
     0
  0
LTYPE
  5
4DED
330
5
100
AcDbSymbolTableRecord
100
AcDbLinetypeTableRecord
  2
中線
 70
     0
  3
___________________
 72
    65
 73
     2
 40
2.0
 49
1.0
 74
     0
 49
1.0
 74
     0
  0
LTYPE
  5
4EA7
330
5
100
AcDbSymbolTableRecord
100
AcDbLinetypeTableRecord
  2
文字
 70
     0
  3
_________________
 72
    65
 73
     2
 40
2.0
 49
1.0
 74
     0
 49
1.0
 74
     0
  0
LTYPE
  5
4EA9
330
5
100
AcDbSymbolTableRecord
100
AcDbLinetypeTableRecord
  2
寸法線
 70
     0
  3
________________
 72
    65
 73
     2
 40
2.0
 49
1.0
 74
     0
 49
1.0
 74
     0
  0
LTYPE
  5
5180
330
5
100
AcDbSymbolTableRecord
100
AcDbLinetypeTableRecord
  2
陰線1
 70
     0
  3
__ __ __ __
 72
    65
 73
     2
 40
4.0
 49
2.2
 74
     0
 49
-1.8
 74
     0
  0
LTYPE
  5
5182
330
5
100
AcDbSymbolTableRecord
100
AcDbLinetypeTableRecord
  2
切断線
 70
     0
  3
/\/-/\/-/\/-/\/-/\/-/\/
 72
    65
 73
     2
 40
11.0001
 49
0.0001
 74
     4
 75
   135
340
56
 46
0.04
 50
0.0
 44
0.0
 45
0.0
 49
-11.0
 74
     0
  0
LTYPE
  5
5185
330
5
100
AcDbSymbolTableRecord
100
AcDbLinetypeTableRecord
  2
中心線1
 70
     0
  3
___ _ ___ _ ___
 72
    65
 73
     4
 40
18.0
 49
12.0
 74
     0
 49
-2.0
 74
     0
 49
2.0
 74
     0
 49
-2.0
 74
     0
  0
LTYPE
  5
5188
330
5
100
AcDbSymbolTableRecord
100
AcDbLinetypeTableRecord
  2
補助線
 70
     0
  3
______________
 72
    65
 73
     2
 40
2.0
 49
1.0
 74
     0
 49
1.0
 74
     0
  0
LTYPE
  5
6427
330
5
100
AcDbSymbolTableRecord
100
AcDbLinetypeTableRecord
  2
HIDDEN
 70
     0
  3
Hidden __ __ __ __ __ __ __ __ __ __ __ __ __ _
 72
    65
 73
     2
 40
0.375
 49
0.25
 74
     0
 49
-0.125
 74
     0
  0
LTYPE
  5
26D18
330
5
100
AcDbSymbolTableRecord
100
AcDbLinetypeTableRecord
  2
AM_ISO08W050
 70
     0
  3
____ . ____ . ____ . ____ . ____ . ____ . ____
 72
    65
 73
     4
 40
18.0
 49
12.0
 74
     0
 49
-1.5
 74
     0
 49
3.0
 74
     0
 49
-1.5
 74
     0
  0
LTYPE
  5
26D19
330
5
100
AcDbSymbolTableRecord
100
AcDbLinetypeTableRecord
  2
AM_ISO09W050
 70
     0
  3
_____ . . _____ . . _____ . . ____ .. ____
 72
    65
 73
     6
 40
22.5
 49
12.0
 74
     0
 49
-1.5
 74
     0
 49
3.0
 74
     0
 49
-1.5
 74
     0
 49
3.0
 74
     0
 49
-1.5
 74
     0
  0
LTYPE
  5
26D1A
330
5
100
AcDbSymbolTableRecord
100
AcDbLinetypeTableRecord
  2
AM_ISO08W050x2
 70
     0
  3
__ . __ . __ . __ . __ . __
 72
    65
 73
     4
 40
9.0
 49
6.0
 74
     0
 49
-0.75
 74
     0
 49
1.5
 74
     0
 49
-0.75
 74
     0
  0
LTYPE
  5
26D1B
330
5
100
AcDbSymbolTableRecord
100
AcDbLinetypeTableRecord
  2
AM_ISO02W050x2
 70
     0
  3
 _ _ _ _ _ _ _ _ _ _ _ _
 72
    65
 73
     2
 40
3.75
 49
3.0
 74
     0
 49
-0.75
 74
     0
  0
LTYPE
  5
26D1E
330
5
100
AcDbSymbolTableRecord
100
AcDbLinetypeTableRecord
  2
Amzigzag
 70
     0
  3
/\/-/\/-/\/-/\/-/\/-/\/
 72
    65
 73
     2
 40
11.0001
 49
0.0001
 74
     4
 75
   136
340
26D1D
 46
0.04
 50
0.0
 44
0.0
 45
0.0
 49
-11.0
 74
     0
  0
LTYPE
  5
4F591
330
5
100
AcDbSymbolTableRecord
100
AcDbLinetypeTableRecord
  2
ACANSTGB
 70
     0
  3
__ . . __ . .
 72
    65
 73
     6
 40
0.35433070866
 49
0.15748031496
 74
     0
 49
-0.03937007874
 74
     0
 49
0.03937007874
 74
     0
 49
-0.03937007874
 74
     0
 49
0.03937007874
 74
     0
 49
-0.03937007874
 74
     0
  0
LTYPE
  5
4F592
330
5
100
AcDbSymbolTableRecord
100
AcDbLinetypeTableRecord
  2
ACANSTGL
 70
     0
  3
_ _ _ _ _
 72
    65
 73
     2
 40
0.11811023622
 49
0.07874015748
 74
     0
 49
-0.03937007874
 74
     0
  0
ENDTAB
  0
TABLE
  2
LAYER
  5
2
102
{ACAD_XDICTIONARY
360
3F95
102
}
330
0
100
AcDbSymbolTable
 70
    20
  0
LAYER
  5
10
330
2
100
AcDbSymbolTableRecord
100
AcDbLayerTableRecord
  2
0
 70
     0
 62
     7
  6
Continuous
370
    -3
390
F
  0
LAYER
  5
6D1
330
2
100
AcDbSymbolTableRecord
100
AcDbLayerTableRecord
  2
Defpoints
 70
     0
 62
     7
  6
Continuous
290
     0
370
    -3
390
F
  0
LAYER
  5
A46
330
2
100
AcDbSymbolTableRecord
100
AcDbLayerTableRecord
  2
size
 70
     0
 62
     5
  6
Continuous
290
     0
370
    30
390
F
  0
LAYER
  5
A47
330
2
100
AcDbSymbolTableRecord
100
AcDbLayerTableRecord
  2
waku
 70
     0
 62
     7
  6
Continuous
370
    40
390
F
  0
LAYER
  5
A48
330
2
100
AcDbSymbolTableRecord
100
AcDbLayerTableRecord
  2
AM_6
 70
     0
 62
     2
  6
文字
370
    20
390
F
  0
LAYER
  5
5F85
330
2
100
AcDbSymbolTableRecord
100
AcDbLayerTableRecord
  2
AM_0
 70
     0
 62
     7
  6
中線
370
    30
390
F
  0
LAYER
  5
5F88
330
2
100
AcDbSymbolTableRecord
100
AcDbLayerTableRecord
  2
AM_3
 70
     0
 62
     6
  6
陰線1
370
    20
390
F
  0
LAYER
  5
5F89
330
2
100
AcDbSymbolTableRecord
100
AcDbLayerTableRecord
  2
AM_4
 70
     0
 62
     3
  6
補助線
370
    20
390
F
  0
LAYER
  5
5F8A
330
2
100
AcDbSymbolTableRecord
100
AcDbLayerTableRecord
  2
AM_5
 70
     0
 62
     3
  6
寸法線
370
    20
390
F
  0
LAYER
  5
5F8B
330
2
100
AcDbSymbolTableRecord
100
AcDbLayerTableRecord
  2
AM_7
 70
     0
 62
     4
  6
中心線1
370
    20
390
F
  0
LAYER
  5
26D55
330
2
100
AcDbSymbolTableRecord
100
AcDbLayerTableRecord
  2
AM_CL
 70
     0
 62
     1
  6
Amconstr
370
    25
390
F
1001
ACAECLAYERSTANDARD
1000

1000

  0
LAYER
  5
572A7
330
2
100
AcDbSymbolTableRecord
100
AcDbLayerTableRecord
  2
1
 70
     0
 62
     7
  6
Continuous
370
    -3
390
F
  0
ENDTAB
  0
TABLE
  2
STYLE
  5
3
330
0
100
AcDbSymbolTable
 70
    10
  0
STYLE
  5
11
330
3
100
AcDbSymbolTableRecord
100
AcDbTextStyleTableRecord
  2
STANDARD
 70
     0
 40
0.0
 41
0.7
 50
0.0
 71
     0
 42
3.2
  3
romans.shx
  4
extfont.shx
  0
STYLE
  5
56
330
3
100
AcDbSymbolTableRecord
100
AcDbTextStyleTableRecord
  2

 70
     1
 40
0.0
 41
1.0
 50
0.0
 71
     0
 42
2.5
  3
ltypeshp.shx
  4

  0
STYLE
  5
58
330
3
100
AcDbSymbolTableRecord
100
AcDbTextStyleTableRecord
  2
ACISOTS
 70
     0
 40
1.0
 41
1.0
 50
0.0
 71
     0
 42
2.5
  3
isocp.shx
  4
extfont.shx
  0
STYLE
  5
63
330
3
100
AcDbSymbolTableRecord
100
AcDbTextStyleTableRecord
  2
ACISOGDT
 70
     0
 40
0.0
 41
1.0
 50
0.0
 71
     0
 42
2.5
  3
amgdt.shx
  4

  0
STYLE
  5
A74
330
3
100
AcDbSymbolTableRecord
100
AcDbTextStyleTableRecord
  2
DIM
 70
     0
 40
0.0
 41
1.0
 50
0.0
 71
     0
 42
2.5
  3
monotxt.shx
  4
extfont.shx
  0
STYLE
  5
26D1D
330
3
100
AcDbSymbolTableRecord
100
AcDbTextStyleTableRecord
  2

 70
     1
 40
0.0
 41
1.0
 50
0.0
 71
     0
 42
3.2
  3
genltshp.shx
  4

  0
STYLE
  5
4F596
330
3
100
AcDbSymbolTableRecord
100
AcDbTextStyleTableRecord
  2
ACANSTS
 70
     0
 40
1.0
 41
1.0
 50
0.0
 71
     0
 42
0.2
  3
romans.shx
  4
extfont.shx
  0
STYLE
  5
4F597
330
3
100
AcDbSymbolTableRecord
100
AcDbTextStyleTableRecord
  2
ACANSGDT
 70
     0
 40
0.0
 41
1.0
 50
0.0
 71
     0
 42
0.2
  3
amgdt.shx
  4

  0
ENDTAB
  0
TABLE
  2
VIEW
  5
6
330
0
100
AcDbSymbolTable
 70
     6
  0
VIEW
  5
AE1
330
6
100
AcDbSymbolTableRecord
100
AcDbViewTableRecord
  2
AM_VIEW1
 70
     0
 40
222.9747729566097
 10
2555.22721656747
 20
-10964.47524524976
 41
297.0
 11
0.0
 21
0.0
 31
1.0
 12
0.0
 22
0.0
 32
0.0
 42
50.0
 43
-1370.695619172058
 44
-1370.695619172058
 50
0.0
 71
     0
281
     0
 72
     0
  0
VIEW
  5
AE2
330
6
100
AcDbSymbolTableRecord
100
AcDbViewTableRecord
  2
AM_VIEW2
 70
     0
 40
222.9747729566097
 10
2852.22721656747
 20
-10964.47524524976
 41
297.0
 11
0.0
 21
0.0
 31
1.0
 12
0.0
 22
0.0
 32
0.0
 42
50.0
 43
-1370.695619172058
 44
-1370.695619172058
 50
0.0
 71
     0
281
     0
 72
     0
  0
VIEW
  5
AE3
330
6
100
AcDbSymbolTableRecord
100
AcDbViewTableRecord
  2
AM_VIEW3
 70
     0
 40
222.9747729566097
 10
2555.22721656747
 20
-11161.50047229315
 41
297.0
 11
0.0
 21
0.0
 31
1.0
 12
0.0
 22
0.0
 32
0.0
 42
50.0
 43
-1370.695619172058
 44
-1370.695619172058
 50
0.0
 71
     0
281
     0
 72
     0
  0
VIEW
  5
AE4
330
6
100
AcDbSymbolTableRecord
100
AcDbViewTableRecord
  2
AM_VIEW4
 70
     0
 40
222.9747729566097
 10
2852.22721656747
 20
-11161.50047229315
 41
297.0
 11
0.0
 21
0.0
 31
1.0
 12
0.0
 22
0.0
 32
0.0
 42
50.0
 43
-1370.695619172058
 44
-1370.695619172058
 50
0.0
 71
     0
281
     0
 72
     0
  0
VIEW
  5
AE5
330
6
100
AcDbSymbolTableRecord
100
AcDbViewTableRecord
  2
AM_VIEW5
 70
     0
 40
222.9747729566079
 10
2703.727216567469
 20
-11062.98785877146
 41
297.0
 11
0.0
 21
0.0
 31
1.0
 12
0.0
 22
0.0
 32
0.0
 42
50.0
 43
-1370.695619172058
 44
-1370.695619172058
 50
0.0
 71
     0
281
     0
 72
     0
  0
VIEW
  5
AE6
330
6
100
AcDbSymbolTableRecord
100
AcDbViewTableRecord
  2
AM_VIEW6
 70
     0
 40
445.9450864177597
 10
2703.727216567469
 20
-11062.98785877146
 41
593.9940599999999
 11
0.0
 21
0.0
 31
1.0
 12
0.0
 22
0.0
 32
0.0
 42
50.0
 43
-1370.695619172058
 44
-1370.695619172058
 50
0.0
 71
     0
281
     0
 72
     0
  0
ENDTAB
  0
TABLE
  2
UCS
  5
7
330
0
100
AcDbSymbolTable
 70
     0
  0
ENDTAB
  0
TABLE
  2
APPID
  5
9
330
0
100
AcDbSymbolTable
 70
    94
  0
APPID
  5
12
330
9
100
AcDbSymbolTableRecord
100
AcDbRegAppTableRecord
  2
ACAD
 70
     0
  0
APPID
  5
30
330
9
100
AcDbSymbolTableRecord
100
AcDbRegAppTableRecord
  2
MCAD_NO_VIS
 70
     0
  0
APPID
  5
31
330
9
100
AcDbSymbolTableRecord
100
AcDbRegAppTableRecord
  2
ACAD_TEMP_GRAPHIC
 70
     0
  0
APPID
  5
44
330
9
100
AcDbSymbolTableRecord
100
AcDbRegAppTableRecord
  2
ACATTRIBSERVICES
 70
     0
  0
APPID
  5
7A1
330
9
100
AcDbSymbolTableRecord
100
AcDbRegAppTableRecord
  2
GENIUS_GENDIMSH_14
 70
     0
  0
APPID
  5
A49
330
9
100
AcDbSymbolTableRecord
100
AcDbRegAppTableRecord
  2
GENIUS_GENREC_14
 70
     0
  0
APPID
  5
A4A
330
9
100
AcDbSymbolTableRecord
100
AcDbRegAppTableRecord
  2
GENIUS_GENOBJ-N-REC_13
 70
     0
  0
APPID
  5
A4B
330
9
100
AcDbSymbolTableRecord
100
AcDbRegAppTableRecord
  2
GENIUS_GENODEF_13
 70
     0
  0
APPID
  5
A4C
330
9
100
AcDbSymbolTableRecord
100
AcDbRegAppTableRecord
  2
DCO15
 70
     0
  0
APPID
  5
ADC
330
9
100
AcDbSymbolTableRecord
100
AcDbRegAppTableRecord
  2
GENIUS_GENOLIS_13
 70
     0
  0
APPID
  5
ADD
330
9
100
AcDbSymbolTableRecord
100
AcDbRegAppTableRecord
  2
GENIUS_GENOENT_13
 70
     0
  0
APPID
  5
ADE
330
9
100
AcDbSymbolTableRecord
100
AcDbRegAppTableRecord
  2
GENIUS_GENOBJ-N-TIT_13
 70
     0
  0
APPID
  5
ADF
330
9
100
AcDbSymbolTableRecord
100
AcDbRegAppTableRecord
  2
GENIUS_GENTITLE_13
 70
     0
  0
APPID
  5
AE0
330
9
100
AcDbSymbolTableRecord
100
AcDbRegAppTableRecord
  2
GENIUS_GENOREF_13
 70
     0
  0
APPID
  5
AE7
330
9
100
AcDbSymbolTableRecord
100
AcDbRegAppTableRecord
  2
GENIUS_GENSCREG_15
 70
     0
  0
APPID
  5
AE8
330
9
100
AcDbSymbolTableRecord
100
AcDbRegAppTableRecord
  2
GENIUS_GENOBJ-N-SDF_13
 70
     0
  0
APPID
  5
FAF
330
9
100
AcDbSymbolTableRecord
100
AcDbRegAppTableRecord
  2
GENIUS_GENBLLY_14
 70
     0
  0
APPID
  5
FB0
330
9
100
AcDbSymbolTableRecord
100
AcDbRegAppTableRecord
  2
GENIUS_GENTRA_14
 70
     0
  0
APPID
  5
1285
330
9
100
AcDbSymbolTableRecord
100
AcDbRegAppTableRecord
  2
GENIUS_GENDTOL_13
 70
     0
  0
APPID
  5
142D
330
9
100
AcDbSymbolTableRecord
100
AcDbRegAppTableRecord
  2
GENIUS_GENOBJ-N-CEN_13
 70
     0
  0
APPID
  5
1AB5
330
9
100
AcDbSymbolTableRecord
100
AcDbRegAppTableRecord
  2
GENIUS_GENOBJ-N-CRS_13
 70
     0
  0
APPID
  5
1B36
330
9
100
AcDbSymbolTableRecord
100
AcDbRegAppTableRecord
  2
GENIUS_GENOBJ-N-HTC_13
 70
     0
  0
APPID
  5
1B37
330
9
100
AcDbSymbolTableRecord
100
AcDbRegAppTableRecord
  2
GENIUS_GENHATCH_13
 70
     0
  0
APPID
  5
216D
330
9
100
AcDbSymbolTableRecord
100
AcDbRegAppTableRecord
  2
GENIUS_GENOBJ-N-FIL_13
 70
     0
  0
APPID
  5
2356
330
9
100
AcDbSymbolTableRecord
100
AcDbRegAppTableRecord
  2
GEVID990412420
 70
     0
  0
APPID
  5
2357
330
9
100
AcDbSymbolTableRecord
100
AcDbRegAppTableRecord
  2
GEVDC
 70
     0
  0
APPID
  5
2358
330
9
100
AcDbSymbolTableRecord
100
AcDbRegAppTableRecord
  2
GEVCON
 70
     0
  0
APPID
  5
235B
330
9
100
AcDbSymbolTableRecord
100
AcDbRegAppTableRecord
  2
GEVRADREF
 70
     0
  0
APPID
  5
2360
330
9
100
AcDbSymbolTableRecord
100
AcDbRegAppTableRecord
  2
GENIUS_GENBH_13
 70
     0
  0
APPID
  5
2362
330
9
100
AcDbSymbolTableRecord
100
AcDbRegAppTableRecord
  2
GENIUS_GENOBJ-NBEHI-BHF_13
 70
     0
  0
APPID
  5
2364
330
9
100
AcDbSymbolTableRecord
100
AcDbRegAppTableRecord
  2
GENIUS_GENOBJ-NBEHI-BHB_13
 70
     0
  0
APPID
  5
2379
330
9
100
AcDbSymbolTableRecord
100
AcDbRegAppTableRecord
  2
GENIUS_GENOBJ-F-SCPASSM_13
 70
     0
  0
APPID
  5
3D74
330
9
100
AcDbSymbolTableRecord
100
AcDbRegAppTableRecord
  2
GENIUS_GENDIM_13
 70
     0
  0
APPID
  5
3D76
330
9
100
AcDbSymbolTableRecord
100
AcDbRegAppTableRecord
  2
GENIUS_GE3DTOL_13
 70
     0
  0
APPID
  5
3D9C
330
9
100
AcDbSymbolTableRecord
100
AcDbRegAppTableRecord
  2
AD_DRAW
 70
     0
  0
APPID
  5
3DE8
330
9
100
AcDbSymbolTableRecord
100
AcDbRegAppTableRecord
  2
ASURF_PCURVE_APPNAME
 70
     0
  0
APPID
  5
3DED
330
9
100
AcDbSymbolTableRecord
100
AcDbRegAppTableRecord
  2
AMG_3D2D_5.0
 70
     0
  0
APPID
  5
3E1B
330
9
100
AcDbSymbolTableRecord
100
AcDbRegAppTableRecord
  2
DESIGNERASSEMBLIES
 70
     0
  0
APPID
  5
3E20
330
9
100
AcDbSymbolTableRecord
100
AcDbRegAppTableRecord
  2
ACADM_DIM_EDIT
 70
     0
  0
APPID
  5
3E21
330
9
100
AcDbSymbolTableRecord
100
AcDbRegAppTableRecord
  2
AMDT_DM_ADJ
 70
     0
  0
APPID
  5
4143
330
9
100
AcDbSymbolTableRecord
100
AcDbRegAppTableRecord
  2
GENIUS_GENFIL_13
 70
     0
  0
APPID
  5
4144
330
9
100
AcDbSymbolTableRecord
100
AcDbRegAppTableRecord
  2
GENIUS_GENOBJ-N-CHA_13
 70
     0
  0
APPID
  5
4E17
330
9
100
AcDbSymbolTableRecord
100
AcDbRegAppTableRecord
  2
GEVID1008153417
 70
     0
  0
APPID
  5
4E58
330
9
100
AcDbSymbolTableRecord
100
AcDbRegAppTableRecord
  2
GEVID1008153418
 70
     0
  0
APPID
  5
4E5E
330
9
100
AcDbSymbolTableRecord
100
AcDbRegAppTableRecord
  2
GEVID1008153419
 70
     0
  0
APPID
  5
4E64
330
9
100
AcDbSymbolTableRecord
100
AcDbRegAppTableRecord
  2
GEVID1008153420
 70
     0
  0
APPID
  5
4E75
330
9
100
AcDbSymbolTableRecord
100
AcDbRegAppTableRecord
  2
GEVID1008153421
 70
     0
  0
APPID
  5
4EB7
330
9
100
AcDbSymbolTableRecord
100
AcDbRegAppTableRecord
  2
GENIUS_AMGTXT_16
 70
     0
  0
APPID
  5
7645
330
9
100
AcDbSymbolTableRecord
100
AcDbRegAppTableRecord
  2
GENIUS_GENOBJ-N-DIM_13
 70
     0
  0
APPID
  5
19403
330
9
100
AcDbSymbolTableRecord
100
AcDbRegAppTableRecord
  2
GEVID1129857778
 70
     0
  0
APPID
  5
1941E
330
9
100
AcDbSymbolTableRecord
100
AcDbRegAppTableRecord
  2
AMG_2DHIDE
 70
     0
  0
APPID
  5
1941F
330
9
100
AcDbSymbolTableRecord
100
AcDbRegAppTableRecord
  2
AMG_2DSTRUCT_BTR
 70
     0
  0
APPID
  5
19431
330
9
100
AcDbSymbolTableRecord
100
AcDbRegAppTableRecord
  2
ACADM_2DVIEW_IGN_NOTIFY
 70
     0
  0
APPID
  5
1C436
330
9
100
AcDbSymbolTableRecord
100
AcDbRegAppTableRecord
  2
ACAD_DSTYLE_DIMARC_LENGTH_SYMBOL
 70
     0
  0
APPID
  5
1C437
330
9
100
AcDbSymbolTableRecord
100
AcDbRegAppTableRecord
  2
ACAD_DSTYLE_DIMJOGGED_JOGANGLE_SYMBOL
 70
     0
  0
APPID
  5
1C438
330
9
100
AcDbSymbolTableRecord
100
AcDbRegAppTableRecord
  2
ACAD_PSEXT
 70
     0
  0
APPID
  5
1C439
330
9
100
AcDbSymbolTableRecord
100
AcDbRegAppTableRecord
  2
ACAECLAYERSTANDARD
 70
     0
  0
APPID
  5
1DDCD
330
9
100
AcDbSymbolTableRecord
100
AcDbRegAppTableRecord
  2
ACAD_EXEMPT_FROM_CAD_STANDARDS
 70
     0
  0
APPID
  5
1EA8C
330
9
100
AcDbSymbolTableRecord
100
AcDbRegAppTableRecord
  2
GENIUS_GENCEN_19
 70
     0
  0
APPID
  5
23356
330
9
100
AcDbSymbolTableRecord
100
AcDbRegAppTableRecord
  2
GEVID1213144138
 70
     0
  0
APPID
  5
23376
330
9
100
AcDbSymbolTableRecord
100
AcDbRegAppTableRecord
  2
GEVID1213144139
 70
     0
  0
APPID
  5
233CB
330
9
100
AcDbSymbolTableRecord
100
AcDbRegAppTableRecord
  2
GEVID1213144140
 70
     0
  0
APPID
  5
233E8
330
9
100
AcDbSymbolTableRecord
100
AcDbRegAppTableRecord
  2
GENIUS_GEFSPRING_13
 70
     0
  0
APPID
  5
23412
330
9
100
AcDbSymbolTableRecord
100
AcDbRegAppTableRecord
  2
GEVID1213144141
 70
     0
  0
APPID
  5
2343D
330
9
100
AcDbSymbolTableRecord
100
AcDbRegAppTableRecord
  2
GEVID1213144142
 70
     0
  0
APPID
  5
2343F
330
9
100
AcDbSymbolTableRecord
100
AcDbRegAppTableRecord
  2
GEVID1213144143
 70
     0
  0
APPID
  5
23441
330
9
100
AcDbSymbolTableRecord
100
AcDbRegAppTableRecord
  2
GEVID1213144144
 70
     0
  0
APPID
  5
23473
330
9
100
AcDbSymbolTableRecord
100
AcDbRegAppTableRecord
  2
GEVID1213144146
 70
     0
  0
APPID
  5
23474
330
9
100
AcDbSymbolTableRecord
100
AcDbRegAppTableRecord
  2
GEVID1213144147
 70
     0
  0
APPID
  5
234B2
330
9
100
AcDbSymbolTableRecord
100
AcDbRegAppTableRecord
  2
GEVID1213144148
 70
     0
  0
APPID
  5
234B3
330
9
100
AcDbSymbolTableRecord
100
AcDbRegAppTableRecord
  2
GEVID1213144149
 70
     0
  0
APPID
  5
234B5
330
9
100
AcDbSymbolTableRecord
100
AcDbRegAppTableRecord
  2
GEVID1213144150
 70
     0
  0
APPID
  5
234B6
330
9
100
AcDbSymbolTableRecord
100
AcDbRegAppTableRecord
  2
GEVID1213144151
 70
     0
  0
APPID
  5
2356B
330
9
100
AcDbSymbolTableRecord
100
AcDbRegAppTableRecord
  2
GEVID1213144152
 70
     0
  0
APPID
  5
2356D
330
9
100
AcDbSymbolTableRecord
100
AcDbRegAppTableRecord
  2
GEVID1213144153
 70
     0
  0
APPID
  5
295EE
330
9
100
AcDbSymbolTableRecord
100
AcDbRegAppTableRecord
  2
GEVID1215060123
 70
     0
  0
APPID
  5
295F8
330
9
100
AcDbSymbolTableRecord
100
AcDbRegAppTableRecord
  2
GEVID1215060124
 70
     0
  0
APPID
  5
295FD
330
9
100
AcDbSymbolTableRecord
100
AcDbRegAppTableRecord
  2
GEVID1215060125
 70
     0
  0
APPID
  5
29602
330
9
100
AcDbSymbolTableRecord
100
AcDbRegAppTableRecord
  2
GEVID1215060126
 70
     0
  0
APPID
  5
29607
330
9
100
AcDbSymbolTableRecord
100
AcDbRegAppTableRecord
  2
GEVID1215060127
 70
     0
  0
APPID
  5
2960C
330
9
100
AcDbSymbolTableRecord
100
AcDbRegAppTableRecord
  2
GEVID1215060128
 70
     0
  0
APPID
  5
29611
330
9
100
AcDbSymbolTableRecord
100
AcDbRegAppTableRecord
  2
GEVID1215060129
 70
     0
  0
APPID
  5
29616
330
9
100
AcDbSymbolTableRecord
100
AcDbRegAppTableRecord
  2
GEVID1215060130
 70
     0
  0
APPID
  5
29633
330
9
100
AcDbSymbolTableRecord
100
AcDbRegAppTableRecord
  2
GEVID1215060131
 70
     0
  0
APPID
  5
2963A
330
9
100
AcDbSymbolTableRecord
100
AcDbRegAppTableRecord
  2
GEVID1215060132
 70
     0
  0
APPID
  5
2963F
330
9
100
AcDbSymbolTableRecord
100
AcDbRegAppTableRecord
  2
GEVID1215060133
 70
     0
  0
APPID
  5
48D6F
330
9
100
AcDbSymbolTableRecord
100
AcDbRegAppTableRecord
  2
GEVID1221205362
 70
     0
  0
APPID
  5
48D7E
330
9
100
AcDbSymbolTableRecord
100
AcDbRegAppTableRecord
  2
GEVID1221205363
 70
     0
  0
APPID
  5
48D84
330
9
100
AcDbSymbolTableRecord
100
AcDbRegAppTableRecord
  2
GEVID1221205364
 70
     0
  0
APPID
  5
48D8A
330
9
100
AcDbSymbolTableRecord
100
AcDbRegAppTableRecord
  2
GEVID1221205365
 70
     0
  0
APPID
  5
48D8F
330
9
100
AcDbSymbolTableRecord
100
AcDbRegAppTableRecord
  2
GEVID1221205366
 70
     0
  0
APPID
  5
48D98
330
9
100
AcDbSymbolTableRecord
100
AcDbRegAppTableRecord
  2
GEVID1221205367
 70
     0
  0
APPID
  5
48E1A
330
9
100
AcDbSymbolTableRecord
100
AcDbRegAppTableRecord
  2
GEVID1221205368
 70
     0
  0
APPID
  5
48E1F
330
9
100
AcDbSymbolTableRecord
100
AcDbRegAppTableRecord
  2
GEVID1221205369
 70
     0
  0
ENDTAB
  0
TABLE
  2
DIMSTYLE
  5
A
330
0
100
AcDbSymbolTable
 70
    32
100
AcDbDimStyleTable
 71
     2
340
2515
340
6C
  0
DIMSTYLE
105
6C
330
A
100
AcDbSymbolTableRecord
100
AcDbDimStyleTableRecord
  2
AM_ISO
 70
     0
  4
"
 41
2.5
 42
1.0
 43
10.0
 44
1.0
 47
0.1
 48
0.1
 73
     0
 74
     0
 77
     1
 78
     8
 79
     2
140
3.5
141
0.0
143
0.0393701
146
0.71
147
1.5
172
     1
176
   256
177
   256
178
     2
271
     2
272
     3
274
     4
283
     0
284
     8
340
11
371
    -1
372
    -1
  0
DIMSTYLE
105
6D
330
A
100
AcDbSymbolTableRecord
100
AcDbDimStyleTableRecord
  2
AM_ISO$3
 70
     0
  4
"
 41
0.8
 42
1.0
 43
10.0
 44
1.0
 47
0.1
 48
0.1
 73
     0
 77
     1
 78
     8
 79
     2
140
3.2
141
0.0
143
0.0393701
146
0.71
147
0.9999999999999996
176
   256
177
   256
178
     2
271
     2
272
     2
283
     0
284
     8
288
     1
289
     0
340
11
342
6C4
371
    -1
372
    -1
  0
DIMSTYLE
105
6E
330
A
100
AcDbSymbolTableRecord
100
AcDbDimStyleTableRecord
  2
AM_ISO$4
 70
     0
  4
"
 41
0.8
 42
1.0
 43
10.0
 44
1.0
 47
0.1
 48
0.1
 73
     0
 77
     1
 78
     8
 79
     2
140
3.2
141
0.0
143
0.0393701
146
0.71
147
1.0
173
     1
176
   256
177
   256
178
     2
271
     2
272
     2
283
     0
284
     8
288
     1
289
     0
340
11
344
6C4
371
    -1
372
    -1
  0
DIMSTYLE
105
6F
330
A
100
AcDbSymbolTableRecord
100
AcDbDimStyleTableRecord
  2
AM_ISO$6
 70
     0
  4
"
 41
0.8
 42
1.0
 43
10.0
 44
1.0
 47
0.1
 48
0.1
 73
     0
 74
     0
 78
     8
 79
     2
140
3.2
141
0.0
143
0.0393701
146
0.71
147
1.0
172
     1
176
   256
177
   256
178
     2
271
     2
272
     2
283
     0
284
     8
340
11
341
6C4
371
    -1
372
    -1
  0
DIMSTYLE
105
70
330
A
100
AcDbSymbolTableRecord
100
AcDbDimStyleTableRecord
  2
AM_ISO$7
 70
     0
  4
"
 41
0.8
 42
1.0
 43
10.0
 44
1.0
 47
0.1
 48
0.1
 73
     0
 74
     0
 77
     1
 78
     8
 79
     2
140
3.2
141
0.0
143
0.0393701
146
0.71
147
1.0
172
     1
176
   256
177
   256
178
     2
271
     2
272
     2
283
     0
284
     8
340
11
341
6C4
342
6C4
371
    -1
372
    -1
  0
DIMSTYLE
105
71
330
A
100
AcDbSymbolTableRecord
100
AcDbDimStyleTableRecord
  2
AM_ISO$SF
 70
     0
  4
"
 41
0.8
 42
1.0
 43
10.0
 44
1.0
 47
0.1
 48
0.1
 73
     0
 74
     0
 75
     1
 76
     1
 77
     1
 78
     8
 79
     2
140
3.2
141
0.0
143
0.0393701
146
0.71
147
1.0
172
     1
176
   256
177
   256
178
     2
271
     2
272
     2
283
     0
284
     8
340
11
341
6C4
342
6C4
371
    -1
372
    -1
  0
DIMSTYLE
105
76
330
A
100
AcDbSymbolTableRecord
100
AcDbDimStyleTableRecord
  2
AM_ISO$SH
 70
     0
  4
"
 41
0.8
 42
1.0
 43
10.0
 44
1.0
 47
0.1
 48
0.1
 73
     0
 74
     0
 75
     1
 76
     1
 77
     1
 78
     8
 79
     2
140
3.2
141
0.0
143
0.0393701
144
2.0
146
0.71
147
1.0
172
     1
176
   256
177
   256
178
     2
271
     2
272
     2
283
     0
284
     8
340
11
341
6C4
342
6C4
371
    -1
372
    -1
  0
DIMSTYLE
105
6BE
330
A
100
AcDbSymbolTableRecord
100
AcDbDimStyleTableRecord
  2
AM_ISO$0
 70
     0
  4
"
 41
0.8
 42
1.0
 43
10.0
 44
1.0
 47
0.1
 48
0.1
 73
     0
 74
     0
 77
     1
 78
     8
 79
     2
140
3.2
141
0.0
143
0.0393701
146
0.71
147
0.9999999999999996
172
     1
176
   256
177
   256
178
     2
271
     2
272
     2
283
     0
284
     8
340
11
341
6C4
342
6C4
371
    -1
372
    -1
  0
DIMSTYLE
105
6BF
330
A
100
AcDbSymbolTableRecord
100
AcDbDimStyleTableRecord
  2
AM_ISO$2
 70
     0
  4
"
 41
0.8
 42
1.0
 43
10.0
 44
1.0
 47
0.1
 48
0.1
 73
     0
 74
     0
 77
     3
 78
     8
 79
     2
140
3.200000000000001
141
0.0
143
0.0393701
146
0.71
147
0.9999999999999996
172
     1
176
   256
177
   256
178
     2
271
     2
272
     2
283
     0
284
     8
340
11
342
6C4
371
    -1
372
    -1
  0
DIMSTYLE
105
A76
330
A
100
AcDbSymbolTableRecord
100
AcDbDimStyleTableRecord
  2
STANDARD
 70
     0
 41
3.0
 42
1.0
 43
7.0
 44
2.0
 73
     0
 74
     0
 77
     1
140
2.799999999999999
141
0.0
143
0.0394
147
0.7
171
     4
172
     1
173
     1
176
     3
177
     3
178
     2
271
     3
272
     3
273
     8
274
     4
289
     0
340
A74
341
A66
343
A66
344
A66
  0
DIMSTYLE
105
2515
330
A
100
AcDbSymbolTableRecord
100
AcDbDimStyleTableRecord
  2
SYS
 70
     0
  4
"
 41
1.0
 42
1.0
 43
10.0
 44
1.0
 47
0.1
 48
0.1
 73
     0
 74
     0
 77
     1
 78
     8
 79
     2
140
3.5
141
0.0
143
0.0393701
146
0.71
147
1.5
172
     1
176
   256
177
   256
178
     7
271
     2
272
     2
283
     0
284
     8
340
11
371
    -1
372
    -1
  0
DIMSTYLE
105
2516
102
{ACAD_REACTORS
330
5BC41
102
}
330
A
100
AcDbSymbolTableRecord
100
AcDbDimStyleTableRecord
  2
SYS$3
 70
     0
  4
"
 41
2.0
 42
1.0
 43
10.0
 44
1.0
 47
0.1
 48
0.1
 73
     0
 77
     1
 78
     8
 79
     2
140
3.5
141
0.0
143
0.0393701
146
0.71
147
1.5
176
   256
177
   256
178
     2
271
     2
272
     2
283
     0
284
     8
288
     1
340
11
342
A66
371
    -1
372
    -1
  0
DIMSTYLE
105
2517
330
A
100
AcDbSymbolTableRecord
100
AcDbDimStyleTableRecord
  2
SYS$4
 70
     0
  4
"
 41
2.0
 42
1.0
 43
10.0
 44
1.0
 47
0.1
 48
0.1
 73
     0
 77
     1
 78
     8
 79
     2
140
3.5
141
0.0
143
0.0393701
146
0.71
147
1.5
173
     1
176
   256
177
   256
178
     2
271
     2
272
     2
283
     0
284
     8
288
     1
340
11
344
A66
371
    -1
372
    -1
  0
DIMSTYLE
105
2518
330
A
100
AcDbSymbolTableRecord
100
AcDbDimStyleTableRecord
  2
SYS$6
 70
     0
  4
"
 41
2.0
 42
1.0
 43
10.0
 44
1.0
 47
0.1
 48
0.1
 73
     0
 74
     0
 78
     8
 79
     2
140
3.5
141
0.0
143
0.0393701
146
0.71
147
1.5
172
     1
176
   256
177
   256
178
     2
271
     2
272
     2
283
     0
284
     8
340
11
341
A66
371
    -1
372
    -1
  0
DIMSTYLE
105
2519
330
A
100
AcDbSymbolTableRecord
100
AcDbDimStyleTableRecord
  2
SYS$7
 70
     0
  4
"
 41
2.0
 42
1.0
 43
10.0
 44
1.0
 47
0.1
 48
0.1
 73
     0
 74
     0
 77
     1
 78
     8
 79
     2
140
5.0
141
0.0
143
0.0393701
146
0.71
147
1.5
172
     1
176
   256
177
   256
178
     2
271
     2
272
     2
283
     0
284
     8
340
11
341
A66
342
A66
371
    -1
372
    -1
  0
DIMSTYLE
105
251A
330
A
100
AcDbSymbolTableRecord
100
AcDbDimStyleTableRecord
  2
SYS$SF
 70
     0
  4
"
 41
2.5
 42
1.0
 43
10.0
 44
1.0
 47
0.1
 48
0.1
 73
     0
 74
     0
 75
     1
 76
     1
 77
     1
 78
     8
 79
     2
140
3.5
141
0.0
143
0.0393701
146
0.71
147
1.5
172
     1
176
   256
177
   256
178
     2
271
     2
272
     3
283
     0
284
     8
340
11
341
6C4
342
6C4
371
    -1
372
    -1
  0
DIMSTYLE
105
251B
330
A
100
AcDbSymbolTableRecord
100
AcDbDimStyleTableRecord
  2
SYS$SH
 70
     0
  4
"
 41
2.5
 42
1.0
 43
10.0
 44
1.0
 47
0.1
 48
0.1
 73
     0
 74
     0
 75
     1
 76
     1
 77
     1
 78
     8
 79
     2
140
3.5
141
0.0
143
0.0393701
144
2.0
146
0.71
147
1.5
172
     1
173
     1
176
   256
177
   256
178
     2
271
     2
272
     3
283
     0
284
     8
340
11
341
6C4
343
72
344
6C4
371
    -1
372
    -1
  0
DIMSTYLE
105
2A59
330
A
100
AcDbSymbolTableRecord
100
AcDbDimStyleTableRecord
  2
SYS$2
 70
     0
  4
"
 41
1.0
 42
1.0
 43
10.0
 44
1.0
 47
0.1
 48
0.1
 73
     0
 74
     0
 77
     1
 78
     8
 79
     2
140
3.5
141
0.0
143
0.0393701
146
0.71
147
1.5
172
     1
176
   256
177
   256
178
     2
271
     2
272
     2
283
     0
284
     8
340
11
342
6C4
371
    -1
372
    -1
  0
DIMSTYLE
105
2AAB
102
{ACAD_REACTORS
330
5BC3C
330
5BC3D
330
5BC3E
330
5BC3F
330
5BC40
330
5BC42
330
5BC43
330
5BC44
102
}
330
A
100
AcDbSymbolTableRecord
100
AcDbDimStyleTableRecord
  2
SYS$0
 70
     0
  4
"
 41
1.0
 42
1.0
 43
10.0
 44
1.0
 47
0.1
 48
0.1
 73
     0
 74
     0
 77
     1
 78
     8
 79
     2
140
3.200000000000001
141
0.0
143
0.0393701
146
0.71
147
1.5
172
     1
176
   256
177
   256
178
     2
271
     2
272
     2
283
     0
284
     8
340
11
341
A66
342
6C4
371
    -1
372
    -1
  0
DIMSTYLE
105
4F59E
330
A
100
AcDbSymbolTableRecord
100
AcDbDimStyleTableRecord
  2
AM_ANSI
 70
     0
  4
mm
 41
0.1
 42
0.05
 43
0.5
 44
0.1
 47
0.1
 48
0.1
 78
     7
 79
     2
140
0.12
141
0.0
146
0.71
147
0.06
176
   256
177
   256
178
     2
274
     4
284
     7
340
11
371
    -1
372
    -1
1001
ACAD_DSTYLE_DIMARC_LENGTH_SYMBOL
1070
   379
1070
     1
  0
DIMSTYLE
105
4F59F
330
A
100
AcDbSymbolTableRecord
100
AcDbDimStyleTableRecord
  2
AM_ANSI$3
 70
     0
  4
mm
 41
0.1
 42
0.05
 43
0.5
 44
0.1
 47
0.1
 48
0.1
 78
     7
 79
     2
140
0.12
141
0.0
146
0.71
147
0.06
176
   256
177
   256
178
     2
274
     4
284
     7
288
     1
289
     0
340
11
371
    -1
372
    -1
1001
ACAD_DSTYLE_DIMARC_LENGTH_SYMBOL
1070
   379
1070
     1
  0
DIMSTYLE
105
4F5A0
330
A
100
AcDbSymbolTableRecord
100
AcDbDimStyleTableRecord
  2
AM_ANSI$4
 70
     0
  4
mm
 41
0.1
 42
0.05
 43
0.5
 44
0.1
 47
0.1
 48
0.1
 78
     7
 79
     2
140
0.12
141
0.0
146
0.71
147
0.06
176
   256
177
   256
178
     2
274
     4
284
     7
288
     1
289
     0
340
11
371
    -1
372
    -1
1001
ACAD_DSTYLE_DIMARC_LENGTH_SYMBOL
1070
   379
1070
     1
  0
DIMSTYLE
105
4F5A1
330
A
100
AcDbSymbolTableRecord
100
AcDbDimStyleTableRecord
  2
AM_ANSI$7
 70
     0
  4
mm
 41
0.1
 42
0.05
 43
0.5
 44
0.1
 47
0.1
 48
0.1
 78
     7
 79
     2
140
0.24
141
0.0
146
0.71
147
0.06
176
   256
177
   256
178
     2
274
     4
284
     7
340
11
371
    -1
372
    -1
1001
ACAD_DSTYLE_DIMARC_LENGTH_SYMBOL
1070
   379
1070
     1
  0
DIMSTYLE
105
4F5A2
330
A
100
AcDbSymbolTableRecord
100
AcDbDimStyleTableRecord
  2
AM_ANSI$SF
 70
     0
  4
mm
 41
0.1
 42
0.05
 43
0.5
 44
0.1
 47
0.1
 48
0.1
 75
     1
 76
     1
 78
     7
 79
     2
140
0.12
141
0.0
146
0.71
147
0.06
176
   256
177
   256
178
     2
274
     4
284
     7
340
11
371
    -1
372
    -1
1001
ACAD_DSTYLE_DIMARC_LENGTH_SYMBOL
1070
   379
1070
     1
  0
DIMSTYLE
105
4F5A3
330
A
100
AcDbSymbolTableRecord
100
AcDbDimStyleTableRecord
  2
AM_ANSI$SH
 70
     0
  4
mm
 41
0.1
 42
0.05
 43
0.5
 44
0.1
 47
0.1
 48
0.1
 75
     1
 76
     1
 78
     7
 79
     2
140
0.12
141
0.0
146
0.71
147
0.06
173
     1
176
   256
177
   256
178
     2
274
     4
284
     7
340
11
343
72
371
    -1
372
    -1
1001
ACAD_DSTYLE_DIMARC_LENGTH_SYMBOL
1070
   379
1070
     1
  0
ENDTAB
  0
TABLE
  2
BLOCK_RECORD
  5
1
330
0
100
AcDbSymbolTable
 70
    27
  0
BLOCK_RECORD
  5
1F
102
{ACAD_XDICTIONARY
360
8A
102
}
330
1
100
AcDbSymbolTableRecord
100
AcDbBlockTableRecord
  2
*Model_Space
340
22
  0
BLOCK_RECORD
  5
1B
330
1
100
AcDbSymbolTableRecord
100
AcDbBlockTableRecord
  2
*Paper_Space
340
1E
  0
BLOCK_RECORD
  5
23
330
1
100
AcDbSymbolTableRecord
100
AcDbBlockTableRecord
  2
*Paper_Space0
340
26
  0
BLOCK_RECORD
  5
72
330
1
100
AcDbSymbolTableRecord
100
AcDbBlockTableRecord
  2
GENAXEH
340
0
  0
BLOCK_RECORD
  5
6C4
330
1
100
AcDbSymbolTableRecord
100
AcDbBlockTableRecord
  2
_Dot
340
0
102
{BLKREFS
331
5BB7E
331
5BB7F
331
5BB87
331
5BB88
331
5BB90
331
5BB91
331
5BB99
331
5BB9A
331
5BBA2
331
5BBA3
331
5BBB4
331
5BBB5
331
5BBBF
331
5BBC0
331
5BBCA
331
5BBCB
331
5C4C3
331
5C4C4
331
5C4CC
331
5C4CD
331
5C4D5
331
5C4D6
331
5C4DE
331
5C4DF
331
5C4E7
331
5C4E8
331
5C4F9
331
5C4FA
331
5C504
331
5C505
331
5C50F
331
5C510
102
}
  0
BLOCK_RECORD
  5
A66
330
1
100
AcDbSymbolTableRecord
100
AcDbBlockTableRecord
  2
_OPEN30
340
0
102
{BLKREFS
331
5C2A6
331
5C2A7
102
}
  0
BLOCK_RECORD
  5
5BC70
330
1
100
AcDbSymbolTableRecord
100
AcDbBlockTableRecord
  2
*D17
340
0
  0
BLOCK_RECORD
  5
5BC7C
330
1
100
AcDbSymbolTableRecord
100
AcDbBlockTableRecord
  2
*D18
340
0
  0
BLOCK_RECORD
  5
5BC88
330
1
100
AcDbSymbolTableRecord
100
AcDbBlockTableRecord
  2
*D19
340
0
  0
BLOCK_RECORD
  5
5BC94
330
1
100
AcDbSymbolTableRecord
100
AcDbBlockTableRecord
  2
*D20
340
0
  0
BLOCK_RECORD
  5
5BCA0
330
1
100
AcDbSymbolTableRecord
100
AcDbBlockTableRecord
  2
*D21
340
0
  0
BLOCK_RECORD
  5
5BCAC
330
1
100
AcDbSymbolTableRecord
100
AcDbBlockTableRecord
  2
*D22
340
0
  0
BLOCK_RECORD
  5
5BCB8
330
1
100
AcDbSymbolTableRecord
100
AcDbBlockTableRecord
  2
*D23
340
0
  0
BLOCK_RECORD
  5
5BCC4
330
1
100
AcDbSymbolTableRecord
100
AcDbBlockTableRecord
  2
*D24
340
0
  0
BLOCK_RECORD
  5
5BCD2
330
1
100
AcDbSymbolTableRecord
100
AcDbBlockTableRecord
  2
*D25
340
0
  0
BLOCK_RECORD
  5
5C5C2
330
1
100
AcDbSymbolTableRecord
100
AcDbBlockTableRecord
  2
GENDOT
340
0
102
{BLKREFS
331
5C5D5
331
5C5D6
102
}
  0
ENDTAB
  0
ENDSEC
  0
SECTION
  2
BLOCKS
  0
BLOCK
  5
20
330
1F
100
AcDbEntity
  8
0
100
AcDbBlockBegin
  2
*Model_Space
 70
     0
 10
0.0
 20
0.0
 30
0.0
  3
*Model_Space
  1

  0
ENDBLK
  5
21
330
1F
100
AcDbEntity
  8
0
100
AcDbBlockEnd
  0
BLOCK
  5
1C
330
1B
100
AcDbEntity
 67
     1
  8
0
100
AcDbBlockBegin
  2
*Paper_Space
 70
     0
 10
0.0
 20
0.0
 30
0.0
  3
*Paper_Space
  1

  0
ENDBLK
  5
1D
330
1B
100
AcDbEntity
 67
     1
  8
0
100
AcDbBlockEnd
  0
BLOCK
  5
24
330
23
100
AcDbEntity
 67
     1
  8
0
100
AcDbBlockBegin
  2
*Paper_Space0
 70
     0
 10
0.0
 20
0.0
 30
0.0
  3
*Paper_Space0
  1

  0
ENDBLK
  5
25
330
23
100
AcDbEntity
 67
     1
  8
0
100
AcDbBlockEnd
  0
BLOCK
  5
74
330
72
100
AcDbEntity
  8
0
100
AcDbBlockBegin
  2
GENAXEH
 70
     0
 10
0.0
 20
0.0
 30
0.0
  3
GENAXEH
  1

  0
LINE
  5
73
330
72
100
AcDbEntity
  8
0
100
AcDbLine
 10
-1.0
 20
0.0
 30
0.0
 11
1.0
 21
0.0
 31
0.0
  0
ENDBLK
  5
75
330
72
100
AcDbEntity
  8
0
100
AcDbBlockEnd
  0
BLOCK
  5
6C7
330
6C4
100
AcDbEntity
  8
0
100
AcDbBlockBegin
  2
_Dot
 70
     0
 10
0.0
 20
0.0
 30
0.0
  3
_Dot
  1

  0
LWPOLYLINE
  5
6C5
330
6C4
100
AcDbEntity
  8
0
  6
ByBlock
 62
     0
100
AcDbPolyline
 90
        2
 70
     1
 43
0.5
 10
-0.25
 20
0.0
 42
1.0
 10
0.25
 20
0.0
 42
1.0
  0
LINE
  5
6C6
330
6C4
100
AcDbEntity
  8
0
  6
ByBlock
 62
     0
370
    -2
100
AcDbLine
 10
-0.5
 20
0.0
 30
0.0
 11
-1.0
 21
0.0
 31
0.0
  0
ENDBLK
  5
6C8
330
6C4
100
AcDbEntity
  8
0
100
AcDbBlockEnd
  0
BLOCK
  5
A6A
330
A66
100
AcDbEntity
  8
0
100
AcDbBlockBegin
  2
_OPEN30
 70
     0
 10
0.0
 20
0.0
 30
0.0
  3
_OPEN30
  1

  0
LINE
  5
A67
330
A66
100
AcDbEntity
  8
0
  6
ByBlock
 62
     0
100
AcDbLine
 10
-1.0
 20
0.26794919
 30
0.0
 11
0.0
 21
0.0
 31
0.0
  0
LINE
  5
A68
330
A66
100
AcDbEntity
  8
0
  6
ByBlock
 62
     0
100
AcDbLine
 10
0.0
 20
0.0
 30
0.0
 11
-1.0
 21
-0.26794919
 31
0.0
  0
LINE
  5
A69
330
A66
100
AcDbEntity
  8
0
  6
ByBlock
 62
     0
100
AcDbLine
 10
0.0
 20
0.0
 30
0.0
 11
-1.0
 21
0.0
 31
0.0
  0
ENDBLK
  5
A6B
330
A66
100
AcDbEntity
  8
0
100
AcDbBlockEnd
  0
BLOCK
  5
5BC7A
330
5BC70
100
AcDbEntity
  8
0
100
AcDbBlockBegin
  2
*D17
 70
     1
 10
0.0
 20
0.0
 30
0.0
  3
*D17
  1

  0
LINE
  5
5C4C0
330
5BC70
100
AcDbEntity
  8
AM_5
100
AcDbLine
 10
-78.53951530823099
 20
-11482.24210429968
 30
0.0
 11
-78.53951530823099
 21
-11467.65923529968
 31
0.0
  0
LINE
  5
5C4C1
330
5BC70
100
AcDbEntity
  8
AM_5
100
AcDbLine
 10
-58.53951530823099
 20
-11482.24210429968
 30
0.0
 11
-58.53951530823099
 21
-11467.65923529968
 31
0.0
  0
LINE
  5
5C4C2
330
5BC70
100
AcDbEntity
  8
AM_5
100
AcDbLine
 10
-77.53951530823099
 20
-11468.65923529968
 30
0.0
 11
-59.53951530823099
 21
-11468.65923529968
 31
0.0
  0
INSERT
  5
5C4C3
330
5BC70
100
AcDbEntity
  8
AM_5
100
AcDbBlockReference
  2
_Dot
 10
-78.53951530823099
 20
-11468.65923529968
 30
0.0
 50
180.0
  0
INSERT
  5
5C4C4
330
5BC70
100
AcDbEntity
  8
AM_5
100
AcDbBlockReference
  2
_Dot
 10
-58.53951530823099
 20
-11468.65923529968
 30
0.0
  0
MTEXT
  5
5C4C5
330
5BC70
100
AcDbEntity
  8
AM_5
 62
     2
100
AcDbMText
 10
-68.53951530823099
 20
-11465.55923529968
 30
0.0
 40
3.200000000000001
 41
0.0
 71
     5
 72
     1
  1
20
 73
     1
 44
1.0
1001
ACAD
1000
MTEXTBEGIN
1070
    73
1070
     1
1070
    44
1040
1.0
1070
    74
1070
     0
1000
MTEXTEND
  0
POINT
  5
5C4C6
330
5BC70
100
AcDbEntity
  8
Defpoints
 62
     0
100
AcDbPoint
 10
-78.53951530823099
 20
-11483.24210429968
 30
0.0
  0
POINT
  5
5C4C7
330
5BC70
100
AcDbEntity
  8
Defpoints
 62
     0
100
AcDbPoint
 10
-58.53951530823099
 20
-11483.24210429968
 30
0.0
  0
POINT
  5
5C4C8
330
5BC70
100
AcDbEntity
  8
Defpoints
 62
     0
100
AcDbPoint
 10
-58.53951530823099
 20
-11468.65923529968
 30
0.0
  0
ENDBLK
  5
5BC7B
330
5BC70
100
AcDbEntity
  8
0
100
AcDbBlockEnd
  0
BLOCK
  5
5BC86
330
5BC7C
100
AcDbEntity
  8
0
100
AcDbBlockBegin
  2
*D18
 70
     1
 10
0.0
 20
0.0
 30
0.0
  3
*D18
  1

  0
LINE
  5
5C4C9
330
5BC7C
100
AcDbEntity
  8
AM_5
100
AcDbLine
 10
-84.53951530823099
 20
-11477.65923529968
 30
0.0
 11
-84.53951530823099
 21
-11459.65923529968
 31
0.0
  0
LINE
  5
5C4CA
330
5BC7C
100
AcDbEntity
  8
AM_5
100
AcDbLine
 10
-52.53951530823099
 20
-11477.65923529968
 30
0.0
 11
-52.53951530823099
 21
-11459.65923529968
 31
0.0
  0
LINE
  5
5C4CB
330
5BC7C
100
AcDbEntity
  8
AM_5
100
AcDbLine
 10
-83.53951530823099
 20
-11460.65923529968
 30
0.0
 11
-53.53951530823099
 21
-11460.65923529968
 31
0.0
  0
INSERT
  5
5C4CC
330
5BC7C
100
AcDbEntity
  8
AM_5
100
AcDbBlockReference
  2
_Dot
 10
-84.53951530823099
 20
-11460.65923529968
 30
0.0
 50
180.0
  0
INSERT
  5
5C4CD
330
5BC7C
100
AcDbEntity
  8
AM_5
100
AcDbBlockReference
  2
_Dot
 10
-52.53951530823099
 20
-11460.65923529968
 30
0.0
  0
MTEXT
  5
5C4CE
330
5BC7C
100
AcDbEntity
  8
AM_5
 62
     2
100
AcDbMText
 10
-68.53951530823099
 20
-11457.55923529968
 30
0.0
 40
3.200000000000001
 41
0.0
 71
     5
 72
     1
  1
32
 73
     1
 44
1.0
1001
ACAD
1000
MTEXTBEGIN
1070
    73
1070
     1
1070
    44
1040
1.0
1070
    74
1070
     0
1000
MTEXTEND
  0
POINT
  5
5C4CF
330
5BC7C
100
AcDbEntity
  8
Defpoints
 62
     0
100
AcDbPoint
 10
-84.53951530823099
 20
-11478.65923529968
 30
0.0
  0
POINT
  5
5C4D0
330
5BC7C
100
AcDbEntity
  8
Defpoints
 62
     0
100
AcDbPoint
 10
-52.53951530823099
 20
-11478.65923529968
 30
0.0
  0
POINT
  5
5C4D1
330
5BC7C
100
AcDbEntity
  8
Defpoints
 62
     0
100
AcDbPoint
 10
-52.53951530823099
 20
-11460.65923529968
 30
0.0
  0
ENDBLK
  5
5BC87
330
5BC7C
100
AcDbEntity
  8
0
100
AcDbBlockEnd
  0
BLOCK
  5
5BC92
330
5BC88
100
AcDbEntity
  8
0
100
AcDbBlockBegin
  2
*D19
 70
     1
 10
0.0
 20
0.0
 30
0.0
  3
*D19
  1

  0
LINE
  5
5C4D2
330
5BC88
100
AcDbEntity
  8
AM_5
100
AcDbLine
 10
-85.53951530823098
 20
-11478.65923529968
 30
0.0
 11
-103.5395153082328
 21
-11478.65923529968
 31
0.0
  0
LINE
  5
5C4D3
330
5BC88
100
AcDbEntity
  8
AM_5
100
AcDbLine
 10
-85.53951530823098
 20
-11568.65923529968
 30
0.0
 11
-103.5395153082328
 21
-11568.65923529968
 31
0.0
  0
LINE
  5
5C4D4
330
5BC88
100
AcDbEntity
  8
AM_5
100
AcDbLine
 10
-102.5395153082328
 20
-11479.65923529968
 30
0.0
 11
-102.5395153082328
 21
-11567.65923529968
 31
0.0
  0
INSERT
  5
5C4D5
330
5BC88
100
AcDbEntity
  8
AM_5
100
AcDbBlockReference
  2
_Dot
 10
-102.5395153082328
 20
-11478.65923529968
 30
0.0
 50
90.0
  0
INSERT
  5
5C4D6
330
5BC88
100
AcDbEntity
  8
AM_5
100
AcDbBlockReference
  2
_Dot
 10
-102.5395153082328
 20
-11568.65923529968
 30
0.0
 50
270.0
  0
MTEXT
  5
5C4D7
330
5BC88
100
AcDbEntity
  8
AM_5
 62
     2
100
AcDbMText
 10
-105.639515308231
 20
-11523.65923529968
 30
0.0
 40
3.200000000000001
 41
0.0
 71
     5
 72
     1
  1
A
 11
0.0000000000000001
 21
1.0
 31
0.0
 73
     1
 44
1.0
1001
ACAD
1000
MTEXTBEGIN
1070
    73
1070
     1
1070
    44
1040
1.0
1070
    74
1070
     0
1000
MTEXTEND
  0
POINT
  5
5C4D8
330
5BC88
100
AcDbEntity
  8
Defpoints
 62
     0
100
AcDbPoint
 10
-84.53951530823099
 20
-11478.65923529968
 30
0.0
  0
POINT
  5
5C4D9
330
5BC88
100
AcDbEntity
  8
Defpoints
 62
     0
100
AcDbPoint
 10
-84.53951530823099
 20
-11568.65923529968
 30
0.0
  0
POINT
  5
5C4DA
330
5BC88
100
AcDbEntity
  8
Defpoints
 62
     0
100
AcDbPoint
 10
-102.5395153082328
 20
-11568.65923529968
 30
0.0
  0
ENDBLK
  5
5BC93
330
5BC88
100
AcDbEntity
  8
0
100
AcDbBlockEnd
  0
BLOCK
  5
5BC9E
330
5BC94
100
AcDbEntity
  8
0
100
AcDbBlockBegin
  2
*D20
 70
     1
 10
0.0
 20
0.0
 30
0.0
  3
*D20
  1

  0
LINE
  5
5C4DB
330
5BC94
100
AcDbEntity
  8
AM_5
100
AcDbLine
 10
-84.38306780823097
 20
-11558.66494929968
 30
0.0
 11
-95.53951530823479
 21
-11558.66494929968
 31
0.0
  0
LINE
  5
5C4DC
330
5BC94
100
AcDbEntity
  8
AM_5
100
AcDbLine
 10
-84.38306780823097
 20
-11523.65923529968
 30
0.0
 11
-95.53951530823477
 21
-11523.65923529968
 31
0.0
  0
LINE
  5
5C4DD
330
5BC94
100
AcDbEntity
  8
AM_5
100
AcDbLine
 10
-94.53951530823479
 20
-11557.66494929968
 30
0.0
 11
-94.53951530823477
 21
-11524.65923529968
 31
0.0
  0
INSERT
  5
5C4DE
330
5BC94
100
AcDbEntity
  8
AM_5
100
AcDbBlockReference
  2
_Dot
 10
-94.53951530823479
 20
-11558.66494929968
 30
0.0
 50
270.0
  0
INSERT
  5
5C4DF
330
5BC94
100
AcDbEntity
  8
AM_5
100
AcDbBlockReference
  2
_Dot
 10
-94.53951530823477
 20
-11523.65923529968
 30
0.0
 50
90.0
  0
MTEXT
  5
5C4E0
330
5BC94
100
AcDbEntity
  8
AM_5
 62
     2
100
AcDbMText
 10
-97.63951530823291
 20
-11541.15923529968
 30
0.0
 40
3.200000000000001
 41
0.0
 71
     5
 72
     1
  1
B
 11
0.0000000000000001
 21
1.0
 31
0.0
 73
     1
 44
1.0
1001
ACAD
1000
MTEXTBEGIN
1070
    73
1070
     1
1070
    44
1040
1.0
1070
    74
1070
     0
1000
MTEXTEND
  0
POINT
  5
5C4E1
330
5BC94
100
AcDbEntity
  8
Defpoints
 62
     0
100
AcDbPoint
 10
-83.38306780823097
 20
-11558.66494929968
 30
0.0
  0
POINT
  5
5C4E2
330
5BC94
100
AcDbEntity
  8
Defpoints
 62
     0
100
AcDbPoint
 10
-83.38306780823097
 20
-11523.65923529968
 30
0.0
  0
POINT
  5
5C4E3
330
5BC94
100
AcDbEntity
  8
Defpoints
 62
     0
100
AcDbPoint
 10
-94.53951530823477
 20
-11523.65923529968
 30
0.0
  0
ENDBLK
  5
5BC9F
330
5BC94
100
AcDbEntity
  8
0
100
AcDbBlockEnd
  0
BLOCK
  5
5BCAA
330
5BCA0
100
AcDbEntity
  8
0
100
AcDbBlockBegin
  2
*D21
 70
     1
 10
0.0
 20
0.0
 30
0.0
  3
*D21
  1

  0
LINE
  5
5C4E4
330
5BCA0
100
AcDbEntity
  8
AM_5
100
AcDbLine
 10
-84.38306780823097
 20
-11523.65923529968
 30
0.0
 11
-95.53951530823477
 21
-11523.65923529968
 31
0.0
  0
LINE
  5
5C4E5
330
5BCA0
100
AcDbEntity
  8
AM_5
100
AcDbLine
 10
-84.38306780823097
 20
-11488.65923529968
 30
0.0
 11
-95.53951530823477
 21
-11488.65923529968
 31
0.0
  0
LINE
  5
5C4E6
330
5BCA0
100
AcDbEntity
  8
AM_5
100
AcDbLine
 10
-94.53951530823477
 20
-11522.65923529968
 30
0.0
 11
-94.53951530823477
 21
-11489.65923529968
 31
0.0
  0
INSERT
  5
5C4E7
330
5BCA0
100
AcDbEntity
  8
AM_5
100
AcDbBlockReference
  2
_Dot
 10
-94.53951530823477
 20
-11523.65923529968
 30
0.0
 50
270.0
  0
INSERT
  5
5C4E8
330
5BCA0
100
AcDbEntity
  8
AM_5
100
AcDbBlockReference
  2
_Dot
 10
-94.53951530823477
 20
-11488.65923529968
 30
0.0
 50
90.0
  0
MTEXT
  5
5C4E9
330
5BCA0
100
AcDbEntity
  8
AM_5
 62
     2
100
AcDbMText
 10
-97.63951530823291
 20
-11506.15923529968
 30
0.0
 40
3.200000000000001
 41
0.0
 71
     5
 72
     1
  1
B
 11
0.0000000000000001
 21
1.0
 31
0.0
 73
     1
 44
1.0
1001
ACAD
1000
MTEXTBEGIN
1070
    73
1070
     1
1070
    44
1040
1.0
1070
    74
1070
     0
1000
MTEXTEND
  0
POINT
  5
5C4EA
330
5BCA0
100
AcDbEntity
  8
Defpoints
 62
     0
100
AcDbPoint
 10
-83.38306780823097
 20
-11523.65923529968
 30
0.0
  0
POINT
  5
5C4EB
330
5BCA0
100
AcDbEntity
  8
Defpoints
 62
     0
100
AcDbPoint
 10
-83.38306780823097
 20
-11488.65923529968
 30
0.0
  0
POINT
  5
5C4EC
330
5BCA0
100
AcDbEntity
  8
Defpoints
 62
     0
100
AcDbPoint
 10
-94.53951530823477
 20
-11488.65923529968
 30
0.0
  0
ENDBLK
  5
5BCAB
330
5BCA0
100
AcDbEntity
  8
0
100
AcDbBlockEnd
  0
BLOCK
  5
5BCB6
330
5BCAC
100
AcDbEntity
  8
0
100
AcDbBlockBegin
  2
*D22
 70
     1
 10
0.0
 20
0.0
 30
0.0
  3
*D22
  1

  0
LINE
  5
5C5D0
330
5BCAC
100
AcDbEntity
  8
AM_5
100
AcDbLine
 10
-122.0210298796592
 20
-11468.65923529967
 30
0.0
 11
-91.68102987965813
 21
-11468.65923529967
 31
0.0
  0
LINE
  5
5C5D1
330
5BCAC
100
AcDbEntity
  8
AM_5
100
AcDbLine
 10
-91.68102987965813
 20
-11468.65923529967
 30
0.0
 11
-81.42249350740257
 21
-11484.27164636005
 31
0.0
  0
LINE
  5
5C5D2
330
5BCAC
100
AcDbEntity
  8
AM_5
100
AcDbLine
 10
-75.65653710905644
 20
-11493.04682423929
 30
0.0
 11
-74.55825969984744
 21
-11494.71828669248
 31
0.0
  0
MTEXT
  5
5C5D3
330
5BCAC
100
AcDbEntity
  8
AM_5
 62
     2
100
AcDbMText
 10
-107.60102987966
 20
-11465.40923529967
 30
0.0
 40
3.5
 41
0.0
 71
     5
 72
     1
  1
6-%%c3.3×\U+22056.5サラ
 73
     1
 44
1.0
1001
ACAD
1000
MTEXTBEGIN
1070
    73
1070
     1
1070
    44
1040
1.0
1070
    74
1070
     0
1000
MTEXTEND
  0
LINE
  5
5C5D4
330
5BCAC
100
AcDbEntity
  8
AM_5
100
AcDbLine
 10
-76.75481451826545
 20
-11491.37536178611
 30
0.0
 11
-80.32421609819357
 21
-11485.94310881324
 31
0.0
  0
INSERT
  5
5C5D5
330
5BCAC
100
AcDbEntity
  8
AM_5
100
AcDbBlockReference
  2
GENDOT
 10
-76.75481451826545
 20
-11491.37536178611
 30
0.0
 41
2.0
 42
2.0
 43
2.0
 50
123.3079445529803
  0
INSERT
  5
5C5D6
330
5BCAC
100
AcDbEntity
  8
AM_5
100
AcDbBlockReference
  2
GENDOT
 10
-80.32421609819357
 20
-11485.94310881324
 30
0.0
 41
2.0
 42
2.0
 43
2.0
 50
303.3079445529803
  0
POINT
  5
5C5D7
330
5BCAC
100
AcDbEntity
  8
Defpoints
 62
     0
100
AcDbPoint
 10
-80.32421609819357
 20
-11485.94310881324
 30
0.0
  0
POINT
  5
5C5D8
330
5BCAC
100
AcDbEntity
  8
Defpoints
 62
     0
100
AcDbPoint
 10
-76.75481451826545
 20
-11491.37536178611
 30
0.0
  0
ENDBLK
  5
5BCB7
330
5BCAC
100
AcDbEntity
  8
0
100
AcDbBlockEnd
  0
BLOCK
  5
5BCC2
330
5BCB8
100
AcDbEntity
  8
0
100
AcDbBlockBegin
  2
*D23
 70
     1
 10
0.0
 20
0.0
 30
0.0
  3
*D23
  1

  0
LINE
  5
5C4F6
330
5BCB8
100
AcDbEntity
  8
AM_5
100
AcDbLine
 10
-71.53951530823099
 20
-11609.24804431507
 30
0.0
 11
-71.53951530823099
 21
-11588.24804431507
 31
0.0
  0
LINE
  5
5C4F7
330
5BCB8
100
AcDbEntity
  8
AM_5
100
AcDbLine
 10
-65.53951530823098
 20
-11609.24804431507
 30
0.0
 11
-65.53951530823098
 21
-11588.24804431507
 31
0.0
  0
LINE
  5
5C4F8
330
5BCB8
100
AcDbEntity
  8
AM_5
100
AcDbLine
 10
-70.53951530823098
 20
-11589.24804431507
 30
0.0
 11
-66.53951530823099
 21
-11589.24804431507
 31
0.0
  0
INSERT
  5
5C4F9
330
5BCB8
100
AcDbEntity
  8
AM_5
100
AcDbBlockReference
  2
_Dot
 10
-71.53951530823099
 20
-11589.24804431507
 30
0.0
 50
180.0
  0
INSERT
  5
5C4FA
330
5BCB8
100
AcDbEntity
  8
AM_5
100
AcDbBlockReference
  2
_Dot
 10
-65.53951530823098
 20
-11589.24804431507
 30
0.0
  0
MTEXT
  5
5C4FB
330
5BCB8
100
AcDbEntity
  8
AM_5
 62
     2
100
AcDbMText
 10
-68.53951530823099
 20
-11586.14804431507
 30
0.0
 40
3.200000000000001
 41
0.0
 71
     5
 72
     1
  1
（%%c6）
 73
     1
 44
1.0
1001
ACAD
1000
MTEXTBEGIN
1070
    73
1070
     1
1070
    44
1040
1.0
1070
    74
1070
     0
1000
MTEXTEND
  0
POINT
  5
5C4FC
330
5BCB8
100
AcDbEntity
  8
Defpoints
 62
     0
100
AcDbPoint
 10
-71.53951530823099
 20
-11610.24804431507
 30
0.0
  0
POINT
  5
5C4FD
330
5BCB8
100
AcDbEntity
  8
Defpoints
 62
     0
100
AcDbPoint
 10
-65.53951530823098
 20
-11610.24804431507
 30
0.0
  0
POINT
  5
5C4FE
330
5BCB8
100
AcDbEntity
  8
Defpoints
 62
     0
100
AcDbPoint
 10
-65.53951530823098
 20
-11589.24804431507
 30
0.0
  0
ENDBLK
  5
5BCC3
330
5BCB8
100
AcDbEntity
  8
0
100
AcDbBlockEnd
  0
BLOCK
  5
5BCD0
330
5BCC4
100
AcDbEntity
  8
0
100
AcDbBlockBegin
  2
*D24
 70
     1
 10
0.0
 20
0.0
 30
0.0
  3
*D24
  1

  0
LINE
  5
5C4FF
330
5BCC4
100
AcDbEntity
  8
AM_5
100
AcDbLine
 10
-70.03951530823099
 20
-11609.24804431507
 30
0.0
 11
-70.03951530823099
 21
-11596.24804431507
 31
0.0
  0
LINE
  5
5C500
330
5BCC4
100
AcDbEntity
  8
AM_5
100
AcDbLine
 10
-67.03951530823099
 20
-11609.24804431507
 30
0.0
 11
-67.03951530823099
 21
-11596.24804431507
 31
0.0
  0
LINE
  5
5C501
330
5BCC4
100
AcDbEntity
  8
AM_5
100
AcDbLine
 10
-71.03951530823099
 20
-11597.24804431507
 30
0.0
 11
-72.03951530823099
 21
-11597.24804431507
 31
0.0
  0
LINE
  5
5C502
330
5BCC4
100
AcDbEntity
  8
AM_5
100
AcDbLine
 10
-66.03951530823099
 20
-11597.24804431507
 30
0.0
 11
-65.03951530823099
 21
-11597.24804431507
 31
0.0
  0
LINE
  5
5C503
330
5BCC4
100
AcDbEntity
  8
AM_5
100
AcDbLine
 10
-70.03951530823099
 20
-11597.24804431507
 30
0.0
 11
-67.03951530823099
 21
-11597.24804431507
 31
0.0
  0
INSERT
  5
5C504
330
5BCC4
100
AcDbEntity
  8
AM_5
100
AcDbBlockReference
  2
_Dot
 10
-70.03951530823099
 20
-11597.24804431507
 30
0.0
  0
INSERT
  5
5C505
330
5BCC4
100
AcDbEntity
  8
AM_5
100
AcDbBlockReference
  2
_Dot
 10
-67.03951530823099
 20
-11597.24804431507
 30
0.0
 50
180.0
  0
MTEXT
  5
5C506
330
5BCC4
100
AcDbEntity
  8
AM_5
 62
     2
100
AcDbMText
 10
-68.53951530823099
 20
-11594.14804431507
 30
0.0
 40
3.200000000000001
 41
0.0
 71
     5
 72
     1
  1
%%c3
 73
     1
 44
1.0
1001
ACAD
1000
MTEXTBEGIN
1070
    73
1070
     1
1070
    44
1040
1.0
1070
    74
1070
     0
1000
MTEXTEND
  0
POINT
  5
5C507
330
5BCC4
100
AcDbEntity
  8
Defpoints
 62
     0
100
AcDbPoint
 10
-70.03951530823099
 20
-11610.24804431507
 30
0.0
  0
POINT
  5
5C508
330
5BCC4
100
AcDbEntity
  8
Defpoints
 62
     0
100
AcDbPoint
 10
-67.03951530823099
 20
-11610.24804431507
 30
0.0
  0
POINT
  5
5C509
330
5BCC4
100
AcDbEntity
  8
Defpoints
 62
     0
100
AcDbPoint
 10
-67.03951530823099
 20
-11597.24804431507
 30
0.0
  0
ENDBLK
  5
5BCD1
330
5BCC4
100
AcDbEntity
  8
0
100
AcDbBlockEnd
  0
BLOCK
  5
5BCDE
330
5BCD2
100
AcDbEntity
  8
0
100
AcDbBlockBegin
  2
*D25
 70
     1
 10
0.0
 20
0.0
 30
0.0
  3
*D25
  1

  0
LINE
  5
5C50A
330
5BCD2
100
AcDbEntity
  8
AM_5
100
AcDbLine
 10
-85.53951530823098
 20
-11613.24804431507
 30
0.0
 11
-95.53951530823285
 21
-11613.24804431507
 31
0.0
  0
LINE
  5
5C50B
330
5BCD2
100
AcDbEntity
  8
AM_5
100
AcDbLine
 10
-85.53951530823098
 20
-11610.94804431507
 30
0.0
 11
-95.53951530823285
 21
-11610.94804431507
 31
0.0
  0
LINE
  5
5C50C
330
5BCD2
100
AcDbEntity
  8
AM_5
100
AcDbLine
 10
-94.53951530823285
 20
-11614.24804431507
 30
0.0
 11
-94.53951530823285
 21
-11615.24804431507
 31
0.0
  0
LINE
  5
5C50D
330
5BCD2
100
AcDbEntity
  8
AM_5
100
AcDbLine
 10
-94.53951530823285
 20
-11609.94804431507
 30
0.0
 11
-94.53951530823285
 21
-11600.35471098173
 31
0.0
  0
LINE
  5
5C50E
330
5BCD2
100
AcDbEntity
  8
AM_5
100
AcDbLine
 10
-94.53951530823285
 20
-11613.24804431507
 30
0.0
 11
-94.53951530823285
 21
-11610.94804431507
 31
0.0
  0
INSERT
  5
5C50F
330
5BCD2
100
AcDbEntity
  8
AM_5
100
AcDbBlockReference
  2
_Dot
 10
-94.53951530823285
 20
-11613.24804431507
 30
0.0
 50
90.0
  0
INSERT
  5
5C510
330
5BCD2
100
AcDbEntity
  8
AM_5
100
AcDbBlockReference
  2
_Dot
 10
-94.53951530823285
 20
-11610.94804431507
 30
0.0
 50
270.0
  0
MTEXT
  5
5C511
330
5BCD2
100
AcDbEntity
  8
AM_5
 62
     2
100
AcDbMText
 10
-97.63951530823099
 20
-11604.2013776484
 30
0.0
 40
3.200000000000001
 41
0.0
 71
     5
 72
     1
  1
2.3
 11
0.0000000000000001
 21
1.0
 31
0.0
 73
     1
 44
1.0
1001
ACAD
1000
MTEXTBEGIN
1070
    73
1070
     1
1070
    44
1040
1.0
1070
    74
1070
     0
1000
MTEXTEND
  0
POINT
  5
5C512
330
5BCD2
100
AcDbEntity
  8
Defpoints
 62
     0
100
AcDbPoint
 10
-84.53951530823099
 20
-11613.24804431507
 30
0.0
  0
POINT
  5
5C513
330
5BCD2
100
AcDbEntity
  8
Defpoints
 62
     0
100
AcDbPoint
 10
-84.53951530823099
 20
-11610.94804431507
 30
0.0
  0
POINT
  5
5C514
330
5BCD2
100
AcDbEntity
  8
Defpoints
 62
     0
100
AcDbPoint
 10
-94.53951530823285
 20
-11610.94804431507
 30
0.0
  0
ENDBLK
  5
5BCDF
330
5BCD2
100
AcDbEntity
  8
0
100
AcDbBlockEnd
  0
BLOCK
  5
5C5C5
330
5C5C2
100
AcDbEntity
  8
0
100
AcDbBlockBegin
  2
GENDOT
 70
     0
 10
0.0
 20
0.0
 30
0.0
  3
GENDOT
  1

  0
LINE
  5
5C5C3
330
5C5C2
100
AcDbEntity
  8
0
100
AcDbLine
 10
0.0
 20
0.0
 30
0.0
 11
-1.0
 21
0.0
 31
0.0
  0
LWPOLYLINE
  5
5C5C4
330
5C5C2
100
AcDbEntity
  8
0
100
AcDbPolyline
 90
        2
 70
     1
 43
0.25
 10
-0.125
 20
0.0
 42
1.0
 10
0.125
 20
0.0
 42
1.0
  0
ENDBLK
  5
5C5C6
330
5C5C2
100
AcDbEntity
  8
0
100
AcDbBlockEnd
  0
ENDSEC
  0
SECTION
  2
ENTITIES
  0
MTEXT
  5
106CC
330
1F
100
AcDbEntity
  8
AM_0
 48
1.01
100
AcDbMText
 10
730.8714680310349
 20
1138.067761010781
 30
0.0
 40
3.2
 41
84.65110299302251
 71
     1
 72
     5
  1

 73
     1
 44
1.0
1001
ACAD
1000
MTEXTBEGIN
1070
    73
1070
     1
1070
    44
1040
1.0
1070
    74
1070
     0
1000
MTEXTEND
  0
MTEXT
  5
15810
330
1F
100
AcDbEntity
  8
AM_0
 48
1.01
100
AcDbMText
 10
1216.290048939032
 20
1069.515025886514
 30
0.0
 40
3.2
 41
480.872052688973
 71
     1
 72
     5
  1

 73
     1
 44
1.0
1001
ACAD
1000
MTEXTBEGIN
1070
    73
1070
     1
1070
    44
1040
1.0
1070
    74
1070
     0
1000
MTEXTEND
  0
AMDTACMWBLOCKBOMENTITY
  5
250AD
330
1F
100
AcDbEntity
  8
AM_5
 48
1.01
 92
        8
310
0800000000000000
370
    13
  0
AMDTACMWBLOCKBOMENTITY
  5
250AE
330
1F
100
AcDbEntity
  8
AM_5
 48
1.01
 92
        8
310
0800000000000000
370
    13
  0
AMDTACMWBLOCKBOMENTITY
  5
250AF
330
1F
100
AcDbEntity
  8
AM_5
 48
1.01
 92
        8
310
0800000000000000
370
    13
  0
AMDTACMWBLOCKBOMENTITY
  5
250B0
330
1F
100
AcDbEntity
  8
AM_5
 48
1.01
 92
        8
310
0800000000000000
370
    13
  0
AMDTACMWBLOCKBOMENTITY
  5
250B1
330
1F
100
AcDbEntity
  8
AM_5
 48
1.01
 92
        8
310
0800000000000000
370
    13
  0
AMDTACMWBLOCKBOMENTITY
  5
250B2
330
1F
100
AcDbEntity
  8
AM_5
 48
1.01
 92
        8
310
0800000000000000
370
    13
  0
AMDTACMWBLOCKBOMENTITY
  5
250B3
330
1F
100
AcDbEntity
  8
AM_5
 48
1.01
 92
        8
310
0800000000000000
370
    13
  0
AMDTACMWBLOCKBOMENTITY
  5
26BAB
330
1F
100
AcDbEntity
  8
AM_5
 92
        8
310
0800000000000000
370
    13
  0
AMDTACMWBLOCKBOMENTITY
  5
26BAC
330
1F
100
AcDbEntity
  8
AM_5
 92
        8
310
0800000000000000
370
    13
  0
AMDTACMWBLOCKBOMENTITY
  5
26BAD
330
1F
100
AcDbEntity
  8
AM_5
 92
        8
310
0800000000000000
370
    13
  0
AMDTACMWBLOCKBOMENTITY
  5
26BAE
330
1F
100
AcDbEntity
  8
AM_5
 92
        8
310
0800000000000000
370
    13
  0
AMDTACMWBLOCKBOMENTITY
  5
26BAF
330
1F
100
AcDbEntity
  8
AM_5
 92
        8
310
0800000000000000
370
    13
  0
AMDTACMWBLOCKBOMENTITY
  5
2AD30
330
1F
100
AcDbEntity
  8
AM_5
 48
8.0
 92
        8
310
0800000000000000
  0
LINE
  5
59E1A
330
1F
100
AcDbEntity
  8
AM_0
100
AcDbLine
 10
-219.408872533535
 20
-11442.14904086222
 30
0.0
 11
-219.408872533535
 21
-11498.14904086222
 31
0.0
  0
LINE
  5
59E1B
330
1F
100
AcDbEntity
  8
AM_4
100
AcDbLine
 10
-239.408872533535
 20
-11450.14904086222
 30
0.0
 11
-141.408872533535
 21
-11450.14904086222
 31
0.0
  0
LINE
  5
59E1C
330
1F
100
AcDbEntity
  8
AM_4
100
AcDbLine
 10
-239.408872533535
 20
-11458.14904086222
 30
0.0
 11
-141.408872533535
 21
-11458.14904086222
 31
0.0
  0
LINE
  5
59E1D
330
1F
100
AcDbEntity
  8
AM_4
100
AcDbLine
 10
-239.408872533535
 20
-11466.14904086222
 30
0.0
 11
-141.408872533535
 21
-11466.14904086222
 31
0.0
  0
LINE
  5
59E1E
330
1F
100
AcDbEntity
  8
AM_4
100
AcDbLine
 10
-239.408872533535
 20
-11474.14904086222
 30
0.0
 11
-141.408872533535
 21
-11474.14904086222
 31
0.0
  0
LINE
  5
59E1F
330
1F
100
AcDbEntity
  8
AM_4
100
AcDbLine
 10
-239.408872533535
 20
-11482.14904086222
 30
0.0
 11
-141.408872533535
 21
-11482.14904086222
 31
0.0
  0
LINE
  5
59E20
330
1F
100
AcDbEntity
  8
AM_0
100
AcDbLine
 10
-239.408872533535
 20
-11498.14904086222
 30
0.0
 11
-141.408872533535
 21
-11498.14904086222
 31
0.0
  0
LINE
  5
59E23
330
1F
100
AcDbEntity
  8
AM_0
100
AcDbLine
 10
-239.408872533535
 20
-11442.14904086222
 30
0.0
 11
-239.408872533535
 21
-11498.14904086222
 31
0.0
  0
LINE
  5
59E24
330
1F
100
AcDbEntity
  8
AM_0
100
AcDbLine
 10
-239.408872533535
 20
-11442.14904086222
 30
0.0
 11
-141.408872533535
 21
-11442.14904086222
 31
0.0
  0
LINE
  5
59E25
330
1F
100
AcDbEntity
  8
AM_0
100
AcDbLine
 10
-141.408872533535
 20
-11442.14904086222
 30
0.0
 11
-141.408872533535
 21
-11498.14904086222
 31
0.0
  0
LINE
  5
59E26
330
1F
100
AcDbEntity
  8
AM_4
100
AcDbLine
 10
-219.408872533535
 20
-11490.14904086222
 30
0.0
 11
-141.408872533535
 21
-11490.14904086222
 31
0.0
  0
TEXT
  5
59E28
330
1F
100
AcDbEntity
  8
AM_6
100
AcDbText
 10
-233.7518725335351
 20
-11447.74904086222
 30
0.0
 40
3.2
  1
品　名
 41
0.85537027
100
AcDbText
  0
TEXT
  5
59E29
330
1F
100
AcDbEntity
  8
AM_6
100
AcDbText
 10
-233.7518725335351
 20
-11455.74904086222
 30
0.0
 40
3.2
  1
品　番
 41
0.85537027
100
AcDbText
  0
TEXT
  5
59E2A
330
1F
100
AcDbEntity
  8
AM_6
100
AcDbText
 10
-233.7518725335351
 20
-11463.74904086222
 30
0.0
 40
3.2
  1
材　質
 41
0.85537027
100
AcDbText
  0
TEXT
  5
59E2B
330
1F
100
AcDbEntity
  8
AM_6
100
AcDbText
 10
-233.7518725335351
 20
-11471.74904086222
 30
0.0
 40
3.2
  1
仕上げ
 41
0.85537027
100
AcDbText
  0
TEXT
  5
59E2C
330
1F
100
AcDbEntity
  8
AM_6
100
AcDbText
 10
-236.951872533535
 20
-11479.74904086222
 30
0.0
 40
3.2
  1
セットビス
 41
0.84892707
100
AcDbText
  0
TEXT
  5
59E2D
330
1F
100
AcDbEntity
  8
AM_6
100
AcDbText
 10
-232.1518725335351
 20
-11487.74904086222
 30
0.0
 40
3.2
  1
備考
 41
0.8643907499999999
100
AcDbText
  0
TEXT
  5
59E2E
330
1F
100
AcDbEntity
  8
AM_6
100
AcDbText
 10
-216.551872533535
 20
-11447.74904086222
 30
0.0
 40
3.2
  1
平型丁番
 41
0.84306961
100
AcDbText
  0
TEXT
  5
59E2F
330
1F
100
AcDbEntity
  8
AM_6
100
AcDbText
 10
-216.551872533535
 20
-11455.74904086222
 30
0.0
 40
3.2
  1
DEH-13-「 」 
 41
0.84741102
100
AcDbText
  0
TEXT
  5
59E30
330
1F
100
AcDbEntity
  8
AM_6
100
AcDbText
 10
-216.551872533535
 20
-11463.74904086222
 30
0.0
 40
3.2
  1
黄銅条
 41
0.84634979
100
AcDbText
  0
TEXT
  5
59E31
330
1F
100
AcDbEntity
  8
AM_6
100
AcDbText
 10
-216.551872533535
 20
-11471.74904086222
 30
0.0
 40
3.2
  1
クロームメッキ
 41
0.84350122
100
AcDbText
  0
LINE
  5
5BBFB
330
1F
100
AcDbEntity
  8
AM_0
100
AcDbLine
 10
-72.03951530823099
 20
-11496.62923529968
 30
0.0
 11
-72.03951530823099
 21
-11478.65923529968
 31
0.0
  0
LINE
  5
5BBFC
330
1F
100
AcDbEntity
  8
AM_0
100
AcDbLine
 10
-71.53951530823099
 20
-11568.65923529968
 30
0.0
 11
-71.53951530823099
 21
-11478.65923529968
 31
0.0
  0
LINE
  5
5BBFD
330
1F
100
AcDbEntity
  8
AM_0
100
AcDbLine
 10
-65.03951530823099
 20
-11514.64923529968
 30
0.0
 11
-65.03951530823099
 21
-11496.62923529968
 31
0.0
  0
LINE
  5
5BBFE
330
1F
100
AcDbEntity
  8
AM_0
100
AcDbLine
 10
-65.03951530823099
 20
-11514.64923529968
 30
0.0
 11
-72.03951530823099
 21
-11514.64923529968
 31
0.0
  0
LINE
  5
5BBFF
330
1F
100
AcDbEntity
  8
AM_0
100
AcDbLine
 10
-72.03951530823099
 20
-11496.62923529968
 30
0.0
 11
-65.03951530823099
 21
-11496.62923529968
 31
0.0
  0
LINE
  5
5BC00
330
1F
100
AcDbEntity
  8
AM_7
 48
0.5
100
AcDbLine
 10
-78.53951530823099
 20
-11553.24781829968
 30
0.0
 11
-78.53951530823099
 21
-11564.08208029968
 31
0.0
  0
LINE
  5
5BC01
330
1F
100
AcDbEntity
  8
AM_7
 48
0.5
100
AcDbLine
 10
-73.695962808231
 20
-11558.66494929968
 30
0.0
 11
-83.38306780823097
 21
-11558.66494929968
 31
0.0
  0
LINE
  5
5BC02
330
1F
100
AcDbEntity
  8
AM_0
100
AcDbLine
 10
-52.53951530823099
 20
-11568.65923529968
 30
0.0
 11
-71.53951530823099
 21
-11568.65923529968
 31
0.0
  0
LINE
  5
5BC03
330
1F
100
AcDbEntity
  8
AM_7
100
AcDbLine
 10
-68.53951530823099
 20
-11472.87215629968
 30
0.0
 11
-68.53951530823099
 21
-11574.16236229968
 31
0.0
  0
LINE
  5
5BC04
330
1F
100
AcDbEntity
  8
AM_0
100
AcDbLine
 10
-65.03951530823099
 20
-11550.68923529968
 30
0.0
 11
-72.03951530823099
 21
-11550.68923529968
 31
0.0
  0
LINE
  5
5BC05
330
1F
100
AcDbEntity
  8
AM_0
100
AcDbLine
 10
-65.53951530823098
 20
-11478.65923529968
 30
0.0
 11
-65.53951530823098
 21
-11568.65923529968
 31
0.0
  0
LINE
  5
5BC06
330
1F
100
AcDbEntity
  8
AM_0
100
AcDbLine
 10
-71.53951530823099
 20
-11478.65923529968
 30
0.0
 11
-52.53951530823099
 21
-11478.65923529968
 31
0.0
  0
LINE
  5
5BC07
330
1F
100
AcDbEntity
  8
AM_0
100
AcDbLine
 10
-65.03951530823099
 20
-11550.68923529968
 30
0.0
 11
-65.03951530823099
 21
-11532.66923529968
 31
0.0
  0
LINE
  5
5BC08
330
1F
100
AcDbEntity
  8
AM_0
100
AcDbLine
 10
-52.53951530823099
 20
-11478.65923529968
 30
0.0
 11
-52.53951530823099
 21
-11568.65923529968
 31
0.0
  0
LINE
  5
5BC09
330
1F
100
AcDbEntity
  8
AM_0
100
AcDbLine
 10
-65.03951530823099
 20
-11532.66923529968
 30
0.0
 11
-72.03951530823099
 21
-11532.66923529968
 31
0.0
  0
LINE
  5
5BC0A
330
1F
100
AcDbEntity
  8
AM_0
100
AcDbLine
 10
-72.03951530823099
 20
-11478.65923529968
 30
0.0
 11
-84.53951530823099
 21
-11478.65923529968
 31
0.0
  0
LINE
  5
5BC0B
330
1F
100
AcDbEntity
  8
AM_0
100
AcDbLine
 10
-72.03951530823099
 20
-11532.66923529968
 30
0.0
 11
-72.03951530823099
 21
-11514.64923529968
 31
0.0
  0
LINE
  5
5BC0C
330
1F
100
AcDbEntity
  8
AM_0
100
AcDbLine
 10
-72.03951530823099
 20
-11568.65923529968
 30
0.0
 11
-72.03951530823099
 21
-11550.68923529968
 31
0.0
  0
LINE
  5
5BC0D
330
1F
100
AcDbEntity
  8
AM_0
100
AcDbLine
 10
-84.53951530823099
 20
-11568.65923529968
 30
0.0
 11
-72.03951530823099
 21
-11568.65923529968
 31
0.0
  0
LINE
  5
5BC0E
330
1F
100
AcDbEntity
  8
AM_0
100
AcDbLine
 10
-84.53951530823099
 20
-11478.65923529968
 30
0.0
 11
-84.53951530823099
 21
-11568.65923529968
 31
0.0
  0
LINE
  5
5BC0F
330
1F
100
AcDbEntity
  8
AM_0
100
AcDbLine
 10
-84.53951530823099
 20
-11610.94804431507
 30
0.0
 11
-71.45670630823099
 21
-11610.94804431507
 31
0.0
  0
LINE
  5
5BC10
330
1F
100
AcDbEntity
  8
AM_0
100
AcDbLine
 10
-52.53951530823099
 20
-11613.24804431507
 30
0.0
 11
-84.53951530823099
 21
-11613.24804431507
 31
0.0
  0
LINE
  5
5BC11
330
1F
100
AcDbEntity
  8
AM_0
100
AcDbLine
 10
-72.03951530823099
 20
-11610.94804431507
 30
0.0
 11
-72.03951530823099
 21
-11613.24804431507
 31
0.0
  0
LINE
  5
5BC12
330
1F
100
AcDbEntity
  8
AM_7
 48
0.3
100
AcDbLine
 10
-58.53951530823099
 20
-11609.36138831507
 30
0.0
 11
-58.53951530823099
 21
-11614.80340831507
 31
0.0
  0
LINE
  5
5BC13
330
1F
100
AcDbEntity
  8
AM_0
100
AcDbLine
 10
-84.53951530823099
 20
-11613.24804431507
 30
0.0
 11
-84.53951530823099
 21
-11610.94804431507
 31
0.0
  0
LINE
  5
5BC14
330
1F
100
AcDbEntity
  8
AM_0
100
AcDbLine
 10
-52.53951530823099
 20
-11610.94804431507
 30
0.0
 11
-52.53951530823099
 21
-11613.24804431507
 31
0.0
  0
LINE
  5
5BC15
330
1F
100
AcDbEntity
  8
AM_0
100
AcDbLine
 10
-65.04523430823098
 20
-11610.94804431507
 30
0.0
 11
-52.53951530823099
 21
-11610.94804431507
 31
0.0
  0
LINE
  5
5BC16
330
1F
100
AcDbEntity
  8
AM_7
 48
0.5
100
AcDbLine
 10
-68.53951530823099
 20
-11604.74154331507
 30
0.0
 11
-68.53951530823099
 21
-11615.89964231507
 31
0.0
  0
LINE
  5
5BC17
330
1F
100
AcDbEntity
  8
AM_7
 48
0.5
100
AcDbLine
 10
-63.09550730823104
 20
-11610.24804431507
 30
0.0
 11
-73.97954730823096
 21
-11610.24804431507
 31
0.0
  0
CIRCLE
  5
5BC18
330
1F
100
AcDbEntity
  8
AM_0
100
AcDbCircle
 10
-68.53951530823099
 20
-11610.24804431507
 30
0.0
 40
1.5
  0
ARC
  5
5BC19
330
1F
100
AcDbEntity
  8
AM_0
100
AcDbCircle
 10
-68.53951530823099
 20
-11610.24804431507
 30
0.0
 40
3.0
100
AcDbArc
 50
356.7241709999544
 51
270.0
  0
CIRCLE
  5
5BC1A
330
1F
100
AcDbEntity
  8
AM_0
100
AcDbCircle
 10
-78.53951530823099
 20
-11488.65923529968
 30
0.0
 40
3.25
  0
CIRCLE
  5
5BC1B
330
1F
100
AcDbEntity
  8
AM_0
100
AcDbCircle
 10
-78.53951530823099
 20
-11488.65923529968
 30
0.0
 40
1.649999999999999
  0
CIRCLE
  5
5BC1C
330
1F
100
AcDbEntity
  8
AM_0
100
AcDbCircle
 10
-58.53951530823099
 20
-11488.65923529968
 30
0.0
 40
3.25
  0
CIRCLE
  5
5BC1D
330
1F
100
AcDbEntity
  8
AM_0
100
AcDbCircle
 10
-58.53951530823099
 20
-11488.65923529968
 30
0.0
 40
1.649999999999999
  0
CIRCLE
  5
5BC1E
330
1F
100
AcDbEntity
  8
1
  6
Continuous
 62
     7
100
AcDbCircle
 10
-58.53951530823099
 20
-11523.65923529968
 30
0.0
 40
3.25
  0
CIRCLE
  5
5BC1F
330
1F
100
AcDbEntity
  8
1
  6
Continuous
 62
     7
100
AcDbCircle
 10
-58.53951530823099
 20
-11523.65923529968
 30
0.0
 40
1.649999999999999
  0
CIRCLE
  5
5BC20
330
1F
100
AcDbEntity
  8
AM_0
100
AcDbCircle
 10
-58.53951530823099
 20
-11558.65923529968
 30
0.0
 40
3.25
  0
CIRCLE
  5
5BC21
330
1F
100
AcDbEntity
  8
AM_0
100
AcDbCircle
 10
-58.53951530823099
 20
-11558.65923529968
 30
0.0
 40
1.649999999999999
  0
CIRCLE
  5
5BC22
330
1F
100
AcDbEntity
  8
AM_0
100
AcDbCircle
 10
-78.53951530823099
 20
-11523.65923529968
 30
0.0
 40
3.25
  0
CIRCLE
  5
5BC23
330
1F
100
AcDbEntity
  8
AM_0
100
AcDbCircle
 10
-78.53951530823099
 20
-11523.65923529968
 30
0.0
 40
1.649999999999999
  0
CIRCLE
  5
5BC24
330
1F
100
AcDbEntity
  8
AM_0
100
AcDbCircle
 10
-78.53951530823099
 20
-11558.65923529968
 30
0.0
 40
3.25
  0
CIRCLE
  5
5BC25
330
1F
100
AcDbEntity
  8
AM_0
100
AcDbCircle
 10
-78.53951530823099
 20
-11558.65923529968
 30
0.0
 40
1.649999999999999
  0
ARC
  5
5BC26
330
1F
100
AcDbEntity
  8
AM_0
100
AcDbCircle
 10
-65.04523430823098
 20
-11610.44804431507
 30
0.0
 40
0.5
100
AcDbArc
 50
176.7241709999544
 51
270.0
  0
LINE
  5
5BC27
330
1F
100
AcDbEntity
  8
AM_7
 48
0.5
100
AcDbLine
 10
-58.53951530823099
 20
-11553.24781829968
 30
0.0
 11
-58.53951530823099
 21
-11564.08208029968
 31
0.0
  0
LINE
  5
5BC28
330
1F
100
AcDbEntity
  8
AM_7
 48
0.5
100
AcDbLine
 10
-53.695962808231
 20
-11558.66494929968
 30
0.0
 11
-63.38306780823097
 21
-11558.66494929968
 31
0.0
  0
LINE
  5
5BC29
330
1F
100
AcDbEntity
  8
AM_7
 48
0.5
100
AcDbLine
 10
-58.53951530823099
 20
-11518.24210429968
 30
0.0
 11
-58.53951530823099
 21
-11529.07636629968
 31
0.0
  0
LINE
  5
5BC2A
330
1F
100
AcDbEntity
  8
AM_7
 48
0.5
100
AcDbLine
 10
-53.695962808231
 20
-11523.65923529968
 30
0.0
 11
-63.38306780823097
 21
-11523.65923529968
 31
0.0
  0
LINE
  5
5BC2B
330
1F
100
AcDbEntity
  8
AM_7
 48
0.5
100
AcDbLine
 10
-78.53951530823099
 20
-11518.24210429968
 30
0.0
 11
-78.53951530823099
 21
-11529.07636629968
 31
0.0
  0
LINE
  5
5BC2C
330
1F
100
AcDbEntity
  8
AM_7
 48
0.5
100
AcDbLine
 10
-73.695962808231
 20
-11523.65923529968
 30
0.0
 11
-83.38306780823097
 21
-11523.65923529968
 31
0.0
  0
LINE
  5
5BC2D
330
1F
100
AcDbEntity
  8
AM_7
 48
0.5
100
AcDbLine
 10
-78.53951530823099
 20
-11483.24210429968
 30
0.0
 11
-78.53951530823099
 21
-11494.07636629968
 31
0.0
  0
LINE
  5
5BC2E
330
1F
100
AcDbEntity
  8
AM_7
 48
0.5
100
AcDbLine
 10
-73.695962808231
 20
-11488.65923529968
 30
0.0
 11
-83.38306780823097
 21
-11488.65923529968
 31
0.0
  0
LINE
  5
5BC2F
330
1F
100
AcDbEntity
  8
AM_7
 48
0.5
100
AcDbLine
 10
-58.53951530823099
 20
-11483.24210429968
 30
0.0
 11
-58.53951530823099
 21
-11494.07636629968
 31
0.0
  0
LINE
  5
5BC30
330
1F
100
AcDbEntity
  8
AM_7
 48
0.5
100
AcDbLine
 10
-53.695962808231
 20
-11488.65923529968
 30
0.0
 11
-63.38306780823097
 21
-11488.65923529968
 31
0.0
  0
LINE
  5
5BC31
330
1F
100
AcDbEntity
  8
AM_7
 48
0.3
100
AcDbLine
 10
-78.53951530823099
 20
-11609.36138831507
 30
0.0
 11
-78.53951530823099
 21
-11614.80340831507
 31
0.0
  0
LINE
  5
5BC32
330
1F
100
AcDbEntity
  8
AM_3
 48
0.5
100
AcDbLine
 10
-61.78949172773798
 20
-11610.94804431507
 30
0.0
 11
-60.18950442492638
 21
-11612.54803161789
 31
0.0
  0
LINE
  5
5BC33
330
1F
100
AcDbEntity
  8
AM_3
 48
0.5
100
AcDbLine
 10
-60.18950442492638
 20
-11612.54803161789
 30
0.0
 11
-56.88952619153575
 21
-11612.54803363906
 31
0.0
  0
LINE
  5
5BC34
330
1F
100
AcDbEntity
  8
AM_3
 48
0.5
100
AcDbLine
 10
-56.88952619153575
 20
-11612.54803363906
 30
0.0
 11
-55.28951530823099
 21
-11610.94804431507
 31
0.0
  0
LINE
  5
5BC35
330
1F
100
AcDbEntity
  8
AM_3
 48
0.5
100
AcDbLine
 10
-60.18950442492624
 20
-11613.24804431507
 30
0.0
 11
-60.18950442492638
 21
-11612.54803161789
 31
0.0
  0
LINE
  5
5BC36
330
1F
100
AcDbEntity
  8
AM_3
 48
0.5
100
AcDbLine
 10
-56.88952619153574
 20
-11613.24804431507
 30
0.0
 11
-56.88952619153575
 21
-11612.54803363906
 31
0.0
  0
LINE
  5
5BC37
330
1F
100
AcDbEntity
  8
AM_3
 48
0.5
100
AcDbLine
 10
-81.78949172773798
 20
-11610.94804431507
 30
0.0
 11
-80.18950442492638
 21
-11612.54803161789
 31
0.0
  0
LINE
  5
5BC38
330
1F
100
AcDbEntity
  8
AM_3
 48
0.5
100
AcDbLine
 10
-80.18950442492638
 20
-11612.54803161789
 30
0.0
 11
-76.88952619153574
 21
-11612.54803363906
 31
0.0
  0
LINE
  5
5BC39
330
1F
100
AcDbEntity
  8
AM_3
 48
0.5
100
AcDbLine
 10
-76.88952619153574
 20
-11612.54803363906
 30
0.0
 11
-75.28951530823099
 21
-11610.94804431507
 31
0.0
  0
LINE
  5
5BC3A
330
1F
100
AcDbEntity
  8
AM_3
 48
0.5
100
AcDbLine
 10
-80.18950442492624
 20
-11613.24804431507
 30
0.0
 11
-80.18950442492638
 21
-11612.54803161789
 31
0.0
  0
LINE
  5
5BC3B
330
1F
100
AcDbEntity
  8
AM_3
 48
0.5
100
AcDbLine
 10
-76.88952619153574
 20
-11613.24804431507
 30
0.0
 11
-76.88952619153574
 21
-11612.54803363906
 31
0.0
  0
DIMENSION
  5
5BC3C
330
1F
100
AcDbEntity
  8
AM_5
100
AcDbDimension
  2
*D17
 10
-58.53951530823099
 20
-11468.65923529968
 30
0.0
 11
-68.53951530823099
 21
-11468.65923529968
 31
0.0
 70
   160
 71
     5
 42
20.0
  3
SYS$0
100
AcDbAlignedDimension
 13
-78.53951530823099
 23
-11483.24210429968
 33
0.0
 14
-58.53951530823099
 24
-11483.24210429968
 34
0.0
100
AcDbRotatedDimension
1001
ACAD
1000
DSTYLE
1002
{
1070
    47
1040
0.2
1070
    48
1040
-0.2
1070
   271
1070
     1
1002
}
  0
DIMENSION
  5
5BC3D
330
1F
100
AcDbEntity
  8
AM_5
100
AcDbDimension
  2
*D18
 10
-52.53951530823099
 20
-11460.65923529968
 30
0.0
 11
-68.53951530823099
 21
-11460.65923529968
 31
0.0
 70
   160
 71
     5
 42
32.0
  3
SYS$0
100
AcDbAlignedDimension
 13
-84.53951530823099
 23
-11478.65923529968
 33
0.0
 14
-52.53951530823099
 24
-11478.65923529968
 34
0.0
100
AcDbRotatedDimension
1001
ACAD
1000
DSTYLE
1002
{
1070
    47
1040
0.2
1070
    48
1040
-0.2
1070
   271
1070
     1
1002
}
  0
DIMENSION
  5
5BC3E
330
1F
100
AcDbEntity
  8
AM_5
100
AcDbDimension
  2
*D19
 10
-102.5395153082328
 20
-11568.65923529968
 30
0.0
 11
-102.539515308231
 21
-11523.65923529968
 31
0.0
 70
   160
  1
A
 71
     5
 42
89.99999999999818
  3
SYS$0
100
AcDbAlignedDimension
 13
-84.53951530823099
 23
-11478.65923529968
 33
0.0
 14
-84.53951530823099
 24
-11568.65923529968
 34
0.0
 50
90.0
100
AcDbRotatedDimension
1001
ACAD
1000
DSTYLE
1002
{
1070
    47
1040
0.2
1070
    48
1040
-0.2
1070
   271
1070
     1
1002
}
  0
DIMENSION
  5
5BC3F
330
1F
100
AcDbEntity
  8
AM_5
100
AcDbDimension
  2
*D20
 10
-94.53951530823477
 20
-11523.65923529968
 30
0.0
 11
-94.53951530823292
 21
-11541.15923529968
 31
0.0
 70
   160
  1
B
 71
     5
 42
35.00571400000081
  3
SYS$0
100
AcDbAlignedDimension
 13
-83.38306780823097
 23
-11558.66494929968
 33
0.0
 14
-83.38306780823097
 24
-11523.65923529968
 34
0.0
 50
90.0
100
AcDbRotatedDimension
1001
ACAD
1000
DSTYLE
1002
{
1070
    47
1040
0.2
1070
    48
1040
-0.2
1070
   271
1070
     1
1002
}
  0
DIMENSION
  5
5BC40
330
1F
100
AcDbEntity
  8
AM_5
100
AcDbDimension
  2
*D21
 10
-94.53951530823477
 20
-11488.65923529968
 30
0.0
 11
-94.53951530823292
 21
-11506.15923529968
 31
0.0
 70
   160
  1
B
 71
     5
 42
35.0
  3
SYS$0
100
AcDbAlignedDimension
 13
-83.38306780823097
 23
-11523.65923529968
 33
0.0
 14
-83.38306780823097
 24
-11488.65923529968
 34
0.0
 50
90.0
100
AcDbRotatedDimension
1001
ACAD
1000
DSTYLE
1002
{
1070
    47
1040
0.2
1070
    48
1040
-0.2
1070
   271
1070
     1
1002
}
  0
DIMENSION
  5
5BC41
330
1F
100
AcDbEntity
  8
AM_5
100
AcDbDimension
  2
*D22
 10
-76.75481451826545
 20
-11491.37536178611
 30
0.0
 11
-107.60102987966
 21
-11468.65923529967
 31
0.0
 70
   163
  1
6-%%c3.3×<>サラ
 71
     5
 42
6.499999999998181
  3
SYS$3
100
AcDbDiametricDimension
 15
-80.32421609819357
 25
-11485.94310881324
 35
0.0
 40
0.0
1001
ACAD
1000
DSTYLE
1002
{
1070
    47
1040
0.2
1070
    48
1040
-0.2
1070
   172
1070
     1
1070
   271
1070
     1
1070
   342
1005
5C5C2
1002
}
  0
DIMENSION
  5
5BC42
330
1F
100
AcDbEntity
  8
AM_5
100
AcDbDimension
  2
*D23
 10
-65.53951530823098
 20
-11589.24804431507
 30
0.0
 11
-68.53951530823099
 21
-11589.24804431507
 31
0.0
 70
   160
  1
（%%c<>）
 71
     5
 42
6.0
  3
SYS$0
100
AcDbAlignedDimension
 13
-71.53951530823099
 23
-11610.24804431507
 33
0.0
 14
-65.53951530823098
 24
-11610.24804431507
 34
0.0
100
AcDbRotatedDimension
1001
ACAD
1000
DSTYLE
1002
{
1070
    47
1040
0.2
1070
    48
1040
-0.2
1070
   271
1070
     1
1002
}
  0
DIMENSION
  5
5BC43
330
1F
100
AcDbEntity
  8
AM_5
100
AcDbDimension
  2
*D24
 10
-67.03951530823099
 20
-11597.24804431507
 30
0.0
 11
-68.53951530823099
 21
-11597.24804431507
 31
0.0
 70
   160
  1
%%c<>
 71
     5
 42
3.0
  3
SYS$0
100
AcDbAlignedDimension
 13
-70.03951530823099
 23
-11610.24804431507
 33
0.0
 14
-67.03951530823099
 24
-11610.24804431507
 34
0.0
100
AcDbRotatedDimension
1001
ACAD
1000
DSTYLE
1002
{
1070
    47
1040
0.2
1070
    48
1040
-0.2
1070
   271
1070
     1
1002
}
  0
DIMENSION
  5
5BC44
330
1F
100
AcDbEntity
  8
AM_5
100
AcDbDimension
  2
*D25
 10
-94.53951530823285
 20
-11610.94804431507
 30
0.0
 11
-94.53951530823099
 21
-11604.2013776484
 31
0.0
 70
   160
 71
     5
 42
2.300000000001091
  3
SYS$0
100
AcDbAlignedDimension
 13
-84.53951530823099
 23
-11613.24804431507
 33
0.0
 14
-84.53951530823099
 24
-11610.94804431507
 34
0.0
 50
90.0
100
AcDbRotatedDimension
1001
ACAD
1000
DSTYLE
1002
{
1070
    47
1040
0.2
1070
    48
1040
-0.2
1070
   271
1070
     1
1002
}
  0
LINE
  5
5BC45
330
1F
100
AcDbEntity
  8
AM_0
100
AcDbLine
 10
-179.408872533535
 20
-11593.14904086222
 30
0.0
 11
-239.408872533535
 21
-11593.14904086222
 31
0.0
  0
LINE
  5
5BC47
330
1F
100
AcDbEntity
  8
AM_4
100
AcDbLine
 10
-239.408872533535
 20
-11621.14904086222
 30
0.0
 11
-179.408872533535
 21
-11621.14904086222
 31
0.0
  0
LINE
  5
5BC48
330
1F
100
AcDbEntity
  8
AM_0
100
AcDbLine
 10
-179.408872533535
 20
-11600.14904086222
 30
0.0
 11
-239.408872533535
 21
-11600.14904086222
 31
0.0
  0
LINE
  5
5BC49
330
1F
100
AcDbEntity
  8
AM_4
100
AcDbLine
 10
-179.408872533535
 20
-11607.14904086222
 30
0.0
 11
-239.408872533535
 21
-11607.14904086222
 31
0.0
  0
LINE
  5
5BC4A
330
1F
100
AcDbEntity
  8
AM_4
100
AcDbLine
 10
-179.408872533535
 20
-11614.14904086222
 30
0.0
 11
-239.408872533535
 21
-11614.14904086222
 31
0.0
  0
LINE
  5
5BC4B
330
1F
100
AcDbEntity
  8
AM_0
100
AcDbLine
 10
-239.408872533535
 20
-11593.14904086222
 30
0.0
 11
-239.408872533535
 21
-11635.14904086222
 31
0.0
  0
LINE
  5
5BC4C
330
1F
100
AcDbEntity
  8
AM_0
100
AcDbLine
 10
-209.408872533535
 20
-11593.14904086222
 30
0.0
 11
-209.408872533535
 21
-11635.14904086222
 31
0.0
  0
LINE
  5
5BC4D
330
1F
100
AcDbEntity
  8
AM_4
100
AcDbLine
 10
-194.408872533535
 20
-11593.14904086222
 30
0.0
 11
-194.408872533535
 21
-11635.14904086222
 31
0.0
  0
LINE
  5
5BC4E
330
1F
100
AcDbEntity
  8
AM_0
100
AcDbLine
 10
-179.408872533535
 20
-11593.14904086222
 30
0.0
 11
-179.408872533535
 21
-11635.14904086222
 31
0.0
  0
MTEXT
  5
5BC50
330
1F
100
AcDbEntity
  8
AM_6
100
AcDbMText
 10
-224.408872533535
 20
-11596.64904086222
 30
0.0
 40
3.2
 41
30.0
 71
     5
 72
     5
  1
品番
 73
     1
 44
1.0
1001
ACAD
1000
MTEXTBEGIN
1070
    73
1070
     1
1070
    44
1040
1.0
1070
    74
1070
     0
1000
MTEXTEND
  0
MTEXT
  5
5BC51
330
1F
100
AcDbEntity
  8
AM_6
100
AcDbMText
 10
-201.908872533535
 20
-11596.64904086222
 30
0.0
 40
3.2
 41
15.0
 71
     5
 72
     5
  1
A
 73
     1
 44
1.0
1001
ACAD
1000
MTEXTBEGIN
1070
    73
1070
     1
1070
    44
1040
1.0
1070
    74
1070
     0
1000
MTEXTEND
  0
MTEXT
  5
5BC52
330
1F
100
AcDbEntity
  8
AM_6
100
AcDbMText
 10
-186.908872533535
 20
-11596.64904086222
 30
0.0
 40
3.2
 41
15.0
 71
     5
 72
     5
  1
B
 73
     1
 44
1.0
1001
ACAD
1000
MTEXTBEGIN
1070
    73
1070
     1
1070
    44
1040
1.0
1070
    74
1070
     0
1000
MTEXTEND
  0
MTEXT
  5
5BC54
330
1F
100
AcDbEntity
  8
AM_6
100
AcDbMText
 10
-201.908872533535
 20
-11603.64904086222
 30
0.0
 40
3.2
 41
15.0
 71
     5
 72
     5
  1
60
 73
     1
 44
1.0
1001
ACAD
1000
MTEXTBEGIN
1070
    73
1070
     1
1070
    44
1040
1.0
1070
    74
1070
     0
1000
MTEXTEND
  0
MTEXT
  5
5BC55
330
1F
100
AcDbEntity
  8
AM_6
100
AcDbMText
 10
-186.908872533535
 20
-11603.64904086222
 30
0.0
 40
3.2
 41
15.0
 71
     5
 72
     5
  1
22
 73
     1
 44
1.0
1001
ACAD
1000
MTEXTBEGIN
1070
    73
1070
     1
1070
    44
1040
1.0
1070
    74
1070
     0
1000
MTEXTEND
  0
MTEXT
  5
5BC56
330
1F
100
AcDbEntity
  8
AM_6
100
AcDbMText
 10
-201.908872533535
 20
-11610.64904086222
 30
0.0
 40
3.2
 41
15.0
 71
     5
 72
     5
  1
65
 73
     1
 44
1.0
1001
ACAD
1000
MTEXTBEGIN
1070
    73
1070
     1
1070
    44
1040
1.0
1070
    74
1070
     0
1000
MTEXTEND
  0
MTEXT
  5
5BC57
330
1F
100
AcDbEntity
  8
AM_6
100
AcDbMText
 10
-186.908872533535
 20
-11610.64904086222
 30
0.0
 40
3.2
 41
15.0
 71
     5
 72
     5
  1
24
 73
     1
 44
1.0
1001
ACAD
1000
MTEXTBEGIN
1070
    73
1070
     1
1070
    44
1040
1.0
1070
    74
1070
     0
1000
MTEXTEND
  0
MTEXT
  5
5BC58
330
1F
100
AcDbEntity
  8
AM_6
100
AcDbMText
 10
-201.908872533535
 20
-11617.64904086222
 30
0.0
 40
3.2
 41
15.0
 71
     5
 72
     5
  1
75
 73
     1
 44
1.0
1001
ACAD
1000
MTEXTBEGIN
1070
    73
1070
     1
1070
    44
1040
1.0
1070
    74
1070
     0
1000
MTEXTEND
  0
MTEXT
  5
5BC59
330
1F
100
AcDbEntity
  8
AM_6
100
AcDbMText
 10
-186.908872533535
 20
-11617.64904086222
 30
0.0
 40
3.2
 41
15.0
 71
     5
 72
     5
  1
28
 73
     1
 44
1.0
1001
ACAD
1000
MTEXTBEGIN
1070
    73
1070
     1
1070
    44
1040
1.0
1070
    74
1070
     0
1000
MTEXTEND
  0
LINE
  5
5BC5D
330
1F
100
AcDbEntity
  8
AM_4
100
AcDbLine
 10
-239.408872533535
 20
-11628.14904086222
 30
0.0
 11
-179.408872533535
 21
-11628.14904086222
 31
0.0
  0
MTEXT
  5
5BC62
330
1F
100
AcDbEntity
  8
AM_6
100
AcDbMText
 10
-201.908872533535
 20
-11624.64904086222
 30
0.0
 40
3.2
 41
15.0
 71
     5
 72
     5
  1
80
 73
     1
 44
1.0
1001
ACAD
1000
MTEXTBEGIN
1070
    73
1070
     1
1070
    44
1040
1.0
1070
    74
1070
     0
1000
MTEXTEND
  0
MTEXT
  5
5BC63
330
1F
100
AcDbEntity
  8
AM_6
100
AcDbMText
 10
-186.908872533535
 20
-11624.64904086222
 30
0.0
 40
3.2
 41
15.0
 71
     5
 72
     5
  1
30
 73
     1
 44
1.0
1001
ACAD
1000
MTEXTBEGIN
1070
    73
1070
     1
1070
    44
1040
1.0
1070
    74
1070
     0
1000
MTEXTEND
  0
LINE
  5
5BC65
330
1F
100
AcDbEntity
  8
AM_0
100
AcDbLine
 10
-239.408872533535
 20
-11635.14904086222
 30
0.0
 11
-179.408872533535
 21
-11635.14904086222
 31
0.0
  0
MTEXT
  5
5BC69
330
1F
100
AcDbEntity
  8
AM_6
100
AcDbMText
 10
-201.908872533535
 20
-11631.64904086222
 30
0.0
 40
3.2
 41
15.0
 71
     5
 72
     5
  1
90
 73
     1
 44
1.0
1001
ACAD
1000
MTEXTBEGIN
1070
    73
1070
     1
1070
    44
1040
1.0
1070
    74
1070
     0
1000
MTEXTEND
  0
MTEXT
  5
5BC6A
330
1F
100
AcDbEntity
  8
AM_6
100
AcDbMText
 10
-186.908872533535
 20
-11631.64904086222
 30
0.0
 40
3.2
 41
15.0
 71
     5
 72
     5
  1
35
 73
     1
 44
1.0
1001
ACAD
1000
MTEXTBEGIN
1070
    73
1070
     1
1070
    44
1040
1.0
1070
    74
1070
     0
1000
MTEXTEND
  0
MTEXT
  5
5C1AF
330
1F
100
AcDbEntity
  8
AM_6
100
AcDbMText
 10
-224.4088725335349
 20
-11603.64904086222
 30
0.0
 40
3.2
 41
30.0
 71
     5
 72
     5
  1
DEH-13-1
 73
     1
 44
1.0
1001
ACAD
1000
MTEXTBEGIN
1070
    73
1070
     1
1070
    44
1040
1.0
1070
    74
1070
     0
1000
MTEXTEND
  0
MTEXT
  5
5C1B0
330
1F
100
AcDbEntity
  8
AM_6
100
AcDbMText
 10
-224.4088725335349
 20
-11610.64904086222
 30
0.0
 40
3.2
 41
30.0
 71
     5
 72
     5
  1
DEH-13-2
 73
     1
 44
1.0
1001
ACAD
1000
MTEXTBEGIN
1070
    73
1070
     1
1070
    44
1040
1.0
1070
    74
1070
     0
1000
MTEXTEND
  0
MTEXT
  5
5C1B1
330
1F
100
AcDbEntity
  8
AM_6
100
AcDbMText
 10
-224.4088725335349
 20
-11617.64904086222
 30
0.0
 40
3.2
 41
30.0
 71
     5
 72
     5
  1
DEH-13-3
 73
     1
 44
1.0
1001
ACAD
1000
MTEXTBEGIN
1070
    73
1070
     1
1070
    44
1040
1.0
1070
    74
1070
     0
1000
MTEXTEND
  0
MTEXT
  5
5C1B2
330
1F
100
AcDbEntity
  8
AM_6
100
AcDbMText
 10
-224.4088725335349
 20
-11624.64904086222
 30
0.0
 40
3.2
 41
30.0
 71
     5
 72
     5
  1
DEH-13-4
 73
     1
 44
1.0
1001
ACAD
1000
MTEXTBEGIN
1070
    73
1070
     1
1070
    44
1040
1.0
1070
    74
1070
     0
1000
MTEXTEND
  0
MTEXT
  5
5C1B3
330
1F
100
AcDbEntity
  8
AM_6
100
AcDbMText
 10
-224.4088725335349
 20
-11631.64904086222
 30
0.0
 40
3.2
 41
30.0
 71
     5
 72
     5
  1
DEH-13-5
 73
     1
 44
1.0
1001
ACAD
1000
MTEXTBEGIN
1070
    73
1070
     1
1070
    44
1040
1.0
1070
    74
1070
     0
1000
MTEXTEND
  0
TEXT
  5
5C2FF
330
1F
100
AcDbEntity
  8
AM_6
100
AcDbText
 10
-216.551872533535
 20
-11479.74904086222
 30
0.0
 40
3.2
  1
無し
 41
0.84350122
100
AcDbText
  0
TEXT
  5
5C320
330
1F
100
AcDbEntity
  8
AM_6
100
AcDbText
 10
-216.551872533535
 20
-11487.74904086222
 30
0.0
 40
3.2
  1
RoHS指令対応品・・・・・DEH-13-2 
 41
0.85537027
100
AcDbText
  0
TEXT
  5
5C321
330
1F
100
AcDbEntity
  8
AM_6
100
AcDbText
 10
-217.2308222764505
 20
-11495.74904086222
 30
0.0
 40
3.2
  1
　　　　　　　　　　　　　 DEH-13-4 　
 41
0.85537027
100
AcDbText
  0
LINE
  5
5C36D
330
1F
100
AcDbEntity
  8
size
100
AcDbLine
 10
-250.908872533535
 20
-11643.64904086222
 30
0.0
 11
46.09112746646497
 21
-11643.64904086222
 31
0.0
1001
GENIUS_GENREC_14
1002
{
1000
PYDIR
1011
-250.908872533535
1021
-11346.64904086222
1031
0.0
1002
}
1002
{
1000
PXDIR
1011
169.0911274664649
1021
-11643.64904086222
1031
0.0
1002
}
1002
{
1000
PORI
1011
-250.908872533535
1021
-11643.64904086222
1031
0.0
1002
}
1002
{
1000
PINS
1011
-40.90887253353503
1021
-11495.14904086222
1031
0.0
1002
}
1002
{
1000
HVAL
1000
297
1002
}
1002
{
1000
H
1070
     2
1002
}
1002
{
1000
WVAL
1000
420
1002
}
1002
{
1000
W
1070
     2
1002
}
1002
{
1000
C
1070
     4
1002
}
1001
GENIUS_GENOBJ-N-REC_13
1002
{
1000
OWNER
1000
GEN
1002
}
1001
GENIUS_GENODEF_13
1002
{
1000
HIER
1070
     0
1002
}
1002
{
1000
MANEDIT
1070
     0
1002
}
1002
{
1000
NOSEL
1070
     0
1002
}
1002
{
1000
BEHIND
1070
     0
1002
}
1002
{
1000
OTHER
1070
     0
1002
}
1002
{
1000
REACTOR
1002
}
  0
LINE
  5
5C36E
330
1F
100
AcDbEntity
  8
size
100
AcDbLine
 10
-250.908872533535
 20
-11433.64904086222
 30
0.0
 11
-250.908872533535
 21
-11643.64904086222
 31
0.0
1001
GENIUS_GENREC_14
1002
{
1000
PYDIR
1011
-250.908872533535
1021
-11346.64904086222
1031
0.0
1002
}
1002
{
1000
PXDIR
1011
169.0911274664649
1021
-11643.64904086222
1031
0.0
1002
}
1002
{
1000
PORI
1011
-250.908872533535
1021
-11643.64904086222
1031
0.0
1002
}
1002
{
1000
PINS
1011
-40.90887253353503
1021
-11495.14904086222
1031
0.0
1002
}
1002
{
1000
HVAL
1000
297
1002
}
1002
{
1000
H
1070
     2
1002
}
1002
{
1000
WVAL
1000
420
1002
}
1002
{
1000
W
1070
     2
1002
}
1002
{
1000
C
1070
     4
1002
}
1001
GENIUS_GENOBJ-N-REC_13
1002
{
1000
OWNER
1000
GEN
1002
}
1001
GENIUS_GENODEF_13
1002
{
1000
HIER
1070
     0
1002
}
1002
{
1000
MANEDIT
1070
     0
1002
}
1002
{
1000
NOSEL
1070
     0
1002
}
1002
{
1000
BEHIND
1070
     0
1002
}
1002
{
1000
OTHER
1070
     0
1002
}
1002
{
1000
REACTOR
1002
}
  0
LINE
  5
5C36F
330
1F
100
AcDbEntity
  8
waku
100
AcDbLine
 10
34.59112746646486
 20
-11635.14904086222
 30
0.0
 11
34.59112746646497
 21
-11442.14904086222
 31
0.0
1001
GENIUS_GENREC_14
1002
{
1000
PYDIR
1011
-373.908872533535
1021
-11427.64904086222
1031
0.0
1002
}
1002
{
1000
PXDIR
1011
46.09112746646497
1021
-11724.64904086222
1031
0.0
1002
}
1002
{
1000
PORI
1011
-373.908872533535
1021
-11724.64904086222
1031
0.0
1002
}
1002
{
1000
PINS
1011
-163.908872533535
1021
-11576.14904086222
1031
0.0
1002
}
1002
{
1000
HVAL
1000
297
1002
}
1002
{
1000
H
1070
     2
1002
}
1002
{
1000
WVAL
1000
420
1002
}
1002
{
1000
W
1070
     2
1002
}
1002
{
1000
C
1070
     4
1002
}
1001
GENIUS_GENOBJ-N-REC_13
1002
{
1000
OWNER
1000
GEN
1002
}
1001
GENIUS_GENODEF_13
1002
{
1000
HIER
1070
     0
1002
}
1002
{
1000
MANEDIT
1070
     0
1002
}
1002
{
1000
NOSEL
1070
     0
1002
}
1002
{
1000
BEHIND
1070
     0
1002
}
1002
{
1000
OTHER
1070
     0
1002
}
1002
{
1000
REACTOR
1002
}
  0
LINE
  5
5C370
330
1F
100
AcDbEntity
  8
waku
100
AcDbLine
 10
-239.408872533535
 20
-11442.14904086222
 30
0.0
 11
-239.408872533535
 21
-11635.14904086222
 31
0.0
1001
GENIUS_GENREC_14
1002
{
1000
PYDIR
1011
-250.908872533535
1021
-11346.64904086222
1031
0.0
1002
}
1002
{
1000
PXDIR
1011
169.0911274664649
1021
-11643.64904086222
1031
0.0
1002
}
1002
{
1000
PORI
1011
-250.908872533535
1021
-11643.64904086222
1031
0.0
1002
}
1002
{
1000
PINS
1011
-40.90887253353503
1021
-11495.14904086222
1031
0.0
1002
}
1002
{
1000
HVAL
1000
297
1002
}
1002
{
1000
H
1070
     2
1002
}
1002
{
1000
WVAL
1000
420
1002
}
1002
{
1000
W
1070
     2
1002
}
1002
{
1000
C
1070
     4
1002
}
1001
GENIUS_GENOBJ-N-REC_13
1002
{
1000
OWNER
1000
GEN
1002
}
1001
GENIUS_GENODEF_13
1002
{
1000
HIER
1070
     0
1002
}
1002
{
1000
MANEDIT
1070
     0
1002
}
1002
{
1000
NOSEL
1070
     0
1002
}
1002
{
1000
BEHIND
1070
     0
1002
}
1002
{
1000
OTHER
1070
     0
1002
}
1002
{
1000
REACTOR
1002
}
  0
LINE
  5
5C371
330
1F
100
AcDbEntity
  8
waku
100
AcDbLine
 10
34.59112746646497
 20
-11442.14904086222
 30
0.0
 11
-239.408872533535
 21
-11442.14904086222
 31
0.0
1001
GENIUS_GENREC_14
1002
{
1000
PYDIR
1011
-373.908872533535
1021
-11433.64904086222
1031
0.0
1002
}
1002
{
1000
PXDIR
1011
46.09112746646497
1021
-11730.64904086222
1031
0.0
1002
}
1002
{
1000
PORI
1011
-373.908872533535
1021
-11730.64904086222
1031
0.0
1002
}
1002
{
1000
PINS
1011
-163.908872533535
1021
-11582.14904086222
1031
0.0
1002
}
1002
{
1000
HVAL
1000
297
1002
}
1002
{
1000
H
1070
     2
1002
}
1002
{
1000
WVAL
1000
420
1002
}
1002
{
1000
W
1070
     2
1002
}
1002
{
1000
C
1070
     4
1002
}
1001
GENIUS_GENOBJ-N-REC_13
1002
{
1000
OWNER
1000
GEN
1002
}
1001
GENIUS_GENODEF_13
1002
{
1000
HIER
1070
     0
1002
}
1002
{
1000
MANEDIT
1070
     0
1002
}
1002
{
1000
NOSEL
1070
     0
1002
}
1002
{
1000
BEHIND
1070
     0
1002
}
1002
{
1000
OTHER
1070
     0
1002
}
1002
{
1000
REACTOR
1002
}
  0
LINE
  5
5C372
330
1F
100
AcDbEntity
  8
waku
100
AcDbLine
 10
-239.408872533535
 20
-11635.14904086222
 30
0.0
 11
34.59112746646486
 21
-11635.14904086222
 31
0.0
1001
GENIUS_GENREC_14
1002
{
1000
PYDIR
1011
-250.908872533535
1021
-11346.64904086222
1031
0.0
1002
}
1002
{
1000
PXDIR
1011
169.0911274664649
1021
-11643.64904086222
1031
0.0
1002
}
1002
{
1000
PORI
1011
-250.908872533535
1021
-11643.64904086222
1031
0.0
1002
}
1002
{
1000
PINS
1011
-40.90887253353503
1021
-11495.14904086222
1031
0.0
1002
}
1002
{
1000
HVAL
1000
297
1002
}
1002
{
1000
H
1070
     2
1002
}
1002
{
1000
WVAL
1000
420
1002
}
1002
{
1000
W
1070
     2
1002
}
1002
{
1000
C
1070
     4
1002
}
  0
LINE
  5
5C373
330
1F
100
AcDbEntity
  8
size
100
AcDbLine
 10
46.09112746646497
 20
-11433.64904086222
 30
0.0
 11
46.09112746646497
 21
-11643.64904086222
 31
0.0
1001
GENIUS_GENREC_14
1002
{
1000
PYDIR
1011
-250.908872533535
1021
-11346.64904086222
1031
0.0
1002
}
1002
{
1000
PXDIR
1011
169.0911274664649
1021
-11643.64904086222
1031
0.0
1002
}
1002
{
1000
PORI
1011
-250.908872533535
1021
-11643.64904086222
1031
0.0
1002
}
1002
{
1000
PINS
1011
-40.90887253353503
1021
-11495.14904086222
1031
0.0
1002
}
1002
{
1000
HVAL
1000
297
1002
}
1002
{
1000
H
1070
     2
1002
}
1002
{
1000
WVAL
1000
420
1002
}
1002
{
1000
W
1070
     2
1002
}
1002
{
1000
C
1070
     4
1002
}
1001
GENIUS_GENOBJ-N-REC_13
1002
{
1000
OWNER
1000
GEN
1002
}
1001
GENIUS_GENODEF_13
1002
{
1000
HIER
1070
     0
1002
}
1002
{
1000
MANEDIT
1070
     0
1002
}
1002
{
1000
NOSEL
1070
     0
1002
}
1002
{
1000
BEHIND
1070
     0
1002
}
1002
{
1000
OTHER
1070
     0
1002
}
1002
{
1000
REACTOR
1002
}
  0
LINE
  5
5C374
330
1F
100
AcDbEntity
  8
size
100
AcDbLine
 10
-250.908872533535
 20
-11433.64904086222
 30
0.0
 11
46.09112746646497
 21
-11433.64904086222
 31
0.0
1001
GENIUS_GENREC_14
1002
{
1000
PYDIR
1011
-250.908872533535
1021
-11346.64904086222
1031
0.0
1002
}
1002
{
1000
PXDIR
1011
169.0911274664649
1021
-11643.64904086222
1031
0.0
1002
}
1002
{
1000
PORI
1011
-250.908872533535
1021
-11643.64904086222
1031
0.0
1002
}
1002
{
1000
PINS
1011
-40.90887253353503
1021
-11495.14904086222
1031
0.0
1002
}
1002
{
1000
HVAL
1000
297
1002
}
1002
{
1000
H
1070
     2
1002
}
1002
{
1000
WVAL
1000
420
1002
}
1002
{
1000
W
1070
     2
1002
}
1002
{
1000
C
1070
     4
1002
}
1001
GENIUS_GENOBJ-N-REC_13
1002
{
1000
OWNER
1000
GEN
1002
}
1001
GENIUS_GENODEF_13
1002
{
1000
HIER
1070
     0
1002
}
1002
{
1000
MANEDIT
1070
     0
1002
}
1002
{
1000
NOSEL
1070
     0
1002
}
1002
{
1000
BEHIND
1070
     0
1002
}
1002
{
1000
OTHER
1070
     0
1002
}
1002
{
1000
REACTOR
1002
}
  0
ENDSEC
  0
SECTION
  2
OBJECTS
  0
DICTIONARY
  5
C
330
0
100
AcDbDictionary
281
     1
  3
ACAD_COLOR
350
CDEF
  3
ACAD_GROUP
350
D
  3
ACAD_LAYOUT
350
1A
  3
ACAD_MATERIAL
350
CDEE
  3
ACAD_MLINESTYLE
350
17
  3
ACAD_PLOTSETTINGS
350
19
  3
ACAD_PLOTSTYLENAME
350
E
  3
ACAD_TABLESTYLE
350
1D6FC
  3
ACAD_VISUALSTYLE
350
1D6EB
  3
AcAsAppObject
350
3DA1
  3
ACASGREF_MASTER
350
3DE9
  3
AcDbVariableDictionary
350
34
  3
AcmDictionary
350
47
  3
AD_GREF_MODULE
350
3DEA
  3
AD_MAPI_MODULE
350
3E06
  3
AMG
350
2B
  3
AMGSNAPSETTINGS
350
7D
  3
ASE_INDEX_DICTIONARY
350
5733D
  3
DWGPROPS
350
5C633
  3
MAPISURF_MODULE
350
3DEB
  0
DICTIONARY
  5
1DE12
330
8
100
AcDbDictionary
280
     1
281
     1
  0
DICTIONARY
  5
3F95
330
2
100
AcDbDictionary
280
     1
281
     1
  3
ACAD_LAYERFILTERS
360
3F98
  3
ACAD_LAYERSTATES
360
3F96
  0
DICTIONARY
  5
8A
330
1F
100
AcDbDictionary
280
     1
281
     1
  3
ACAD_SORTENTS
360
1E18C
  0
DICTIONARY
  5
CDEF
102
{ACAD_REACTORS
330
C
102
}
330
C
100
AcDbDictionary
281
     1
  0
DICTIONARY
  5
D
102
{ACAD_REACTORS
330
C
102
}
330
C
100
AcDbDictionary
281
     1
  0
DICTIONARY
  5
1A
102
{ACAD_REACTORS
330
C
102
}
330
C
100
AcDbDictionary
281
     1
  3
Model
350
22
  3
ﾚｲｱｳﾄ1
350
1E
  3
ﾚｲｱｳﾄ2
350
26
  0
DICTIONARY
  5
CDEE
102
{ACAD_REACTORS
330
C
102
}
330
C
100
AcDbDictionary
281
     1
  3
ByBlock
350
1D6E9
  3
ByLayer
350
1D6E8
  3
Global
350
1D6EA
  0
DICTIONARY
  5
17
102
{ACAD_REACTORS
330
C
102
}
330
C
100
AcDbDictionary
281
     1
  3
Standard
350
18
  0
DICTIONARY
  5
19
102
{ACAD_REACTORS
330
C
102
}
330
C
100
AcDbDictionary
281
     1
  3
00
350
1A631
  3
01
350
1A630
  3
02
350
23806
  0
ACDBDICTIONARYWDFLT
  5
E
102
{ACAD_REACTORS
330
C
102
}
330
C
100
AcDbDictionary
281
     1
  3
Normal
350
F
100
AcDbDictionaryWithDefault
340
F
  0
DICTIONARY
  5
1D6FC
102
{ACAD_REACTORS
330
C
102
}
330
C
100
AcDbDictionary
281
     1
  3
Standard
350
1D6FD
  0
DICTIONARY
  5
1D6EB
102
{ACAD_REACTORS
330
C
102
}
330
C
100
AcDbDictionary
281
     1
  3
2dWireframe
350
1D6F1
  3
3D Hidden
350
1D6F3
  3
3dWireframe
350
1D6F2
  3
Basic
350
1D6F0
  3
Brighten
350
1D6F7
  3
ColorChange
350
1D6FB
  3
Conceptual
350
1D6F4
  3
Dim
350
1D6F6
  3
Facepattern
350
1D6FA
  3
Flat
350
1D6EC
  3
FlatWithEdges
350
1D6ED
  3
Gouraud
350
1D6EE
  3
GouraudWithEdges
350
1D6EF
  3
Linepattern
350
1D6F9
  3
Realistic
350
1D6F5
  3
Thicken
350
1D6F8
  0
ACAD_PROXY_OBJECT
  5
3DA1
102
{ACAD_REACTORS
330
C
102
}
330
C
100
AcDbProxyObject
 90
      499
 91
      576
 95
       23
 70
     0
 93
       10
310
407F
 94
        0
1001
ACAD
1000
AcRTDxfName
1000
ASAPP
  0
ACAD_PROXY_OBJECT
  5
3DE9
102
{ACAD_REACTORS
330
C
102
}
330
C
100
AcDbProxyObject
 90
      499
 91
      581
 95
       23
 70
     0
 93
       34
310
010000407F
 94
        0
1001
ACAD
1000
AcRTDxfName
1000
ACASGREFMASTER
  0
DICTIONARY
  5
34
102
{ACAD_REACTORS
330
C
102
}
330
C
100
AcDbDictionary
281
     1
  3
CTABLESTYLE
350
1D72C
  3
DIMASSOC
350
A10C
  3
INDEXCTL
350
35
  3
SORTENTS
350
194C
  0
DICTIONARY
  5
47
102
{ACAD_REACTORS
330
C
102
}
330
C
100
AcDbDictionary
281
     1
  3
AcmBOM
350
7E8
  3
AcmStdDictionary
350
4C
  3
AMDTSECTSYM_ARROWCOLOR
350
CFD7
  0
ACAD_PROXY_OBJECT
  5
3DEA
102
{ACAD_REACTORS
330
C
102
}
330
C
100
AcDbProxyObject
 90
      499
 91
      582
 95
       23
 70
     0
 93
      114
310
00000043800000000000000000003F
 94
        0
1001
ACAD
1000
AcRTDxfName
1000
ACADGREFMODULE
  0
ACAD_PROXY_OBJECT
  5
3E06
102
{ACAD_REACTORS
330
C
102
}
330
C
100
AcDbProxyObject
 90
      499
 91
      594
 95
       23
 70
     0
 93
       34
310
05000044FF
 94
        0
1001
ACAD
1000
AcRTDxfName
1000
MAPIADMODULE
  0
DICTIONARY
  5
2B
102
{ACAD_REACTORS
330
C
102
}
330
C
100
AcDbDictionary
281
     1
  0
DICTIONARY
  5
7D
102
{ACAD_REACTORS
330
C
102
}
330
C
100
AcDbDictionary
281
     1
  0
DICTIONARY
  5
5733D
102
{ACAD_REACTORS
330
C
102
}
330
C
100
AcDbDictionary
281
     1
  3
ASEBlockHierarchyIndexRecord
350
5733E
1001
DCO15
1040
1638027569.921
  0
XRECORD
  5
5C633
102
{ACAD_REACTORS
330
C
102
}
330
C
100
AcDbXrecord
280
     1
  1
DWGPROPS COOKIE
  2

  3

  4

  6

  7

  8
Administorator
  9

300
AmdtFileType=84
301
=
302
=
303
=
304
=
305
=
306
=
307
=
308
=
309
=
 40
21.79139696759259
 41
2453389.567546297
 42
2454922.572186956
  1

 90
        1
  0
ACAD_PROXY_OBJECT
  5
3DEB
102
{ACAD_REACTORS
330
C
102
}
330
C
100
AcDbProxyObject
 90
      499
 91
      583
 95
       23
 70
     0
 93
        8
310
047E
 94
        0
1001
ACAD
1000
AcRTDxfName
1000
AMDTMAPISURFMOUDULE
  0
DICTIONARY
  5
3F98
102
{ACAD_REACTORS
330
3F95
102
}
330
3F95
100
AcDbDictionary
280
     1
281
     1
  0
DICTIONARY
  5
3F96
102
{ACAD_REACTORS
330
3F95
102
}
330
3F95
100
AcDbDictionary
281
     1
  3
20011210
350
3FB7
  0
SORTENTSTABLE
  5
1E18C
102
{ACAD_REACTORS
330
8A
102
}
330
8A
100
AcDbSortentsTable
330
1F
331
250AF
  5
254FA
331
26BAE
  5
26BAE
331
250AD
  5
254F8
331
26BAC
  5
26BAC
331
15810
  5
177FE
331
250B2
  5
25569
331
106CC
  5
106CC
331
250B0
  5
254FB
331
26BAF
  5
26BAF
331
250AE
  5
254F9
331
2AD30
  5
2AE02
331
26BAD
  5
26BAD
331
26BAB
  5
26BAB
331
250B3
  5
2556A
331
250B1
  5
25568
  0
LAYOUT
  5
22
102
{ACAD_XDICTIONARY
360
5C636
102
}
102
{ACAD_REACTORS
330
1A
102
}
330
1A
100
AcDbPlotSettings
  1

  2
RICOH imagio Wide 7040e RP-GL/2
  4
A4
  6

 40
5.365749835968017
 41
6.889746665954589
 42
5.535064697265625
 43
6.76275634765625
 44
296.9683227539062
 45
209.9733276367187
 46
-5.466245889663696
 47
-6.839587688446044
 48
-250.908872533535
 49
-11643.64904086222
140
46.09112746646497
141
-11433.64904086222
142
1.0
143
1.0
 70
  3748
 72
     1
 73
     0
 74
     4
  7
monochrome.ctb
 75
     0
147
0.9348610696338472
148
250.908872533535
149
11643.64904086222
100
AcDbLayout
  1
Model
 70
     1
 71
     0
 10
0.0
 20
0.0
 11
12.0
 21
9.0
 12
0.0
 22
0.0
 32
0.0
 14
0.0
 24
0.0
 34
0.0
 15
0.0
 25
0.0
 35
0.0
146
0.0
 13
0.0
 23
0.0
 33
0.0
 16
1.0
 26
0.0
 36
0.0
 17
0.0
 27
1.0
 37
0.0
 76
     0
330
1F
331
1D6E6
1001
ACAD_PSEXT
1000
RICOH imagio Wide 7040e RP-GL/2
1000
RICOH imagio Wide 7040e RP-GL/2
1000
192.200.51.212:lp11
1000
RP-GL/2 Driver (Windows 2000/XP/Server 2003)
1070
     0
  0
LAYOUT
  5
1E
102
{ACAD_XDICTIONARY
360
5C634
102
}
102
{ACAD_REACTORS
330
1A
102
}
330
1A
100
AcDbPlotSettings
  1

  2
\\ML370\XEROX
  4
A4
  6

 40
3.174999952316284
 41
3.174999952316284
 42
3.175003051757812
 43
3.17498779296875
 44
209.8674926757813
 45
296.6719970703125
 46
0.0
 47
0.0
 48
0.0
 49
0.0
140
0.0
141
0.0
142
1.0
143
1.0
 70
   688
 72
     1
 73
     1
 74
     5
  7
monochrome.ctb
 75
    16
147
1.0
148
0.0
149
0.0
100
AcDbLayout
  1
ﾚｲｱｳﾄ1
 70
     1
 71
     1
 10
-3.17498779296875
 20
-3.174999952316284
 11
293.4970092773438
 21
206.692492723465
 12
0.0
 22
0.0
 32
0.0
 14
1.000000000000000E+20
 24
1.000000000000000E+20
 34
1.000000000000000E+20
 15
-1.000000000000000E+20
 25
-1.000000000000000E+20
 35
-1.000000000000000E+20
146
0.0
 13
0.0
 23
0.0
 33
0.0
 16
1.0
 26
0.0
 36
0.0
 17
0.0
 27
1.0
 37
0.0
 76
     0
330
1B
  0
LAYOUT
  5
26
102
{ACAD_XDICTIONARY
360
5C638
102
}
102
{ACAD_REACTORS
330
1A
102
}
330
1A
100
AcDbPlotSettings
  1

  2
\\ML370\XEROX
  4

  6

 40
0.0
 41
0.0
 42
0.0
 43
0.0
 44
0.0
 45
0.0
 46
0.0
 47
0.0
 48
0.0
 49
0.0
140
0.0
141
0.0
142
1.0
143
1.0
 70
   688
 72
     0
 73
     0
 74
     5
  7
monochrome.ctb
 75
    16
147
1.0
148
0.0
149
0.0
100
AcDbLayout
  1
ﾚｲｱｳﾄ2
 70
     1
 71
     2
 10
0.0
 20
0.0
 11
12.0
 21
9.0
 12
0.0
 22
0.0
 32
0.0
 14
0.0
 24
0.0
 34
0.0
 15
0.0
 25
0.0
 35
0.0
146
0.0
 13
0.0
 23
0.0
 33
0.0
 16
1.0
 26
0.0
 36
0.0
 17
0.0
 27
1.0
 37
0.0
 76
     0
330
23
  0
MATERIAL
  5
1D6E9
102
{ACAD_XDICTIONARY
360
5C640
102
}
102
{ACAD_REACTORS
330
CDEE
102
}
330
CDEE
100
AcDbMaterial
  1
ByBlock
  0
MATERIAL
  5
1D6E8
102
{ACAD_XDICTIONARY
360
5C63E
102
}
102
{ACAD_REACTORS
330
CDEE
102
}
330
CDEE
100
AcDbMaterial
  1
ByLayer
  0
MATERIAL
  5
1D6EA
102
{ACAD_XDICTIONARY
360
5C642
102
}
102
{ACAD_REACTORS
330
CDEE
102
}
330
CDEE
100
AcDbMaterial
  1
Global
  0
MLINESTYLE
  5
18
102
{ACAD_REACTORS
330
17
102
}
330
17
100
AcDbMlineStyle
  2
STANDARD
 70
     0
  3

 62
   256
 51
90.0
 52
90.0
 71
     2
 49
0.5
 62
   256
  6
BYLAYER
 49
-0.5
 62
   256
  6
BYLAYER
  0
PLOTSETTINGS
  5
1A631
102
{ACAD_XDICTIONARY
360
5C63C
102
}
102
{ACAD_REACTORS
330
19
102
}
330
19
100
AcDbPlotSettings
  1
00
  2
RICOH imagio Wide 7040e RP-GL/2
  4
A3
  6
AM_VIEW1
 40
5.069416522979736
 41
7.228392601013183
 42
5.23870849609375
 43
7.05908203125
 44
419.9889831542968
 45
296.9683227539062
 46
-5.159570932388305
 47
-7.159575939178466
 48
3759.987976050056
 49
-6455.52447405221
140
7959.987976050055
141
-3485.524474052211
142
1.0
143
10.0
 70
  3748
 72
     1
 73
     0
 74
     4
  7
monochrome.ctb
 75
     0
147
0.0673049638384865
148
-3759.987976050056
149
6455.52447405221
1001
ACAD_PSEXT
1000
RICOH imagio Wide 7040e RP-GL/2
1000
RICOH imagio Wide 7040e RP-GL/2
1000
192.200.51.212:lp11
1000
RP-GL/2 Driver (Windows 2000/XP/Server 2003)
1070
     0
  0
PLOTSETTINGS
  5
1A630
102
{ACAD_XDICTIONARY
360
5C63A
102
}
102
{ACAD_REACTORS
330
19
102
}
330
19
100
AcDbPlotSettings
  1
01
  2
RICOH imagio Wide 7040e RP-GL/2
  4
A3
  6
AM_VIEW1
 40
5.069416522979736
 41
7.228392601013183
 42
5.23870849609375
 43
7.05908203125
 44
419.9889831542968
 45
296.9683227539062
 46
-5.159570932388305
 47
-7.159575939178466
 48
3759.987976050056
 49
-7049.524474052211
140
4599.987976050055
141
-6455.52447405221
142
1.0
143
2.0
 70
  3748
 72
     1
 73
     0
 74
     4
  7
monochrome.ctb
 75
     0
147
0.0673049638384865
148
-3759.987976050056
149
7049.524474052211
1001
ACAD_PSEXT
1000
RICOH imagio Wide 7040e RP-GL/2
1000
RICOH imagio Wide 7040e RP-GL/2
1000
192.200.51.212:lp11
1000
RP-GL/2 Driver (Windows 2000/XP/Server 2003)
1070
     0
  0
PLOTSETTINGS
  5
23806
102
{ACAD_XDICTIONARY
360
5C646
102
}
102
{ACAD_REACTORS
330
19
102
}
330
19
100
AcDbPlotSettings
  1
02
  2
RICOH imagio Wide 7040e RP-GL/2
  4
A3
  6
AM_VIEW1
 40
5.069416522979736
 41
7.228392601013183
 42
5.23870849609375
 43
7.05908203125
 44
419.9889831542968
 45
296.9683227539062
 46
-5.159570932388305
 47
-7.159575939178466
 48
3759.987976050056
 49
-9425.52447405221
140
7119.987976050055
141
-7049.524474052211
142
1.0
143
8.0
 70
  3748
 72
     1
 73
     0
 74
     4
  7
monochrome.ctb
 75
     0
147
0.0673049638384865
148
-3759.987976050056
149
9425.52447405221
1001
ACAD_PSEXT
1000
RICOH imagio Wide 7040e RP-GL/2
1000
RICOH imagio Wide 7040e RP-GL/2
1000
192.200.51.212:lp11
1000
RP-GL/2 Driver (Windows 2000/XP/Server 2003)
1070
     0
  0
ACDBPLACEHOLDER
  5
F
102
{ACAD_REACTORS
330
E
102
}
330
E
  0
TABLESTYLE
  5
1D6FD
102
{ACAD_XDICTIONARY
360
5C644
102
}
102
{ACAD_REACTORS
330
1D6FC
102
}
330
1D6FC
100
AcDbTableStyle
  3
Standard
 70
     0
 71
     0
 40
1.5
 41
1.5
280
     0
281
     0
  7
STANDARD
140
4.5
170
     2
 62
     0
 63
     7
283
     0
274
    -2
284
     1
 64
     0
275
    -2
285
     1
 65
     0
276
    -2
286
     1
 66
     0
277
    -2
287
     1
 67
     0
278
    -2
288
     1
 68
     0
279
    -2
289
     1
 69
     0
  7
STANDARD
140
6.0
170
     5
 62
     0
 63
     7
283
     0
274
    -2
284
     1
 64
     0
275
    -2
285
     1
 65
     0
276
    -2
286
     1
 66
     0
277
    -2
287
     1
 67
     0
278
    -2
288
     1
 68
     0
279
    -2
289
     1
 69
     0
  7
STANDARD
140
4.5
170
     5
 62
     0
 63
     7
283
     0
274
    -2
284
     1
 64
     0
275
    -2
285
     1
 65
     0
276
    -2
286
     1
 66
     0
277
    -2
287
     1
 67
     0
278
    -2
288
     1
 68
     0
279
    -2
289
     1
 69
     0
  0
VISUALSTYLE
  5
1D6F1
102
{ACAD_REACTORS
330
1D6EB
102
}
330
1D6EB
100
AcDbVisualStyle
  2
2dWireframe
 70
     4
 71
     0
 72
     2
 73
     0
 90
        0
 40
-0.6
 41
-30.0
 62
     5
 63
     7
 74
     1
 91
        4
 64
     7
 65
   257
 75
     1
175
     1
 42
1.0
 92
        0
 66
   257
 43
1.0
 76
     1
 77
     6
 78
     2
 67
     7
 79
     5
170
     0
171
     0
290
     0
174
     0
 93
        1
 44
0.0
173
     0
291
     0
 45
0.0
1001
ACAD
1000
AcDbSavedByObjectVersion
1070
     0
  0
VISUALSTYLE
  5
1D6F3
102
{ACAD_REACTORS
330
1D6EB
102
}
330
1D6EB
100
AcDbVisualStyle
  2
3D Hidden
 70
     6
 71
     1
 72
     2
 73
     2
 90
        0
 40
-0.6
 41
-30.0
 62
     5
 63
     7
 74
     2
 91
        2
 64
     7
 65
   257
 75
     2
175
     1
 42
40.0
 92
        0
 66
   257
 43
1.0
 76
     1
 77
     6
 78
     2
 67
     7
 79
     3
170
     0
171
     0
290
     0
174
     0
 93
        1
 44
0.0
173
     0
291
     0
 45
0.0
1001
ACAD
1000
AcDbSavedByObjectVersion
1070
     0
  0
VISUALSTYLE
  5
1D6F2
102
{ACAD_REACTORS
330
1D6EB
102
}
330
1D6EB
100
AcDbVisualStyle
  2
3dWireframe
 70
     5
 71
     0
 72
     2
 73
     0
 90
        0
 40
-0.6
 41
-30.0
 62
     5
 63
     7
 74
     1
 91
        4
 64
     7
 65
   257
 75
     1
175
     1
 42
1.0
 92
        0
 66
   257
 43
1.0
 76
     1
 77
     6
 78
     2
 67
     7
 79
     5
170
     0
171
     0
290
     0
174
     0
 93
        1
 44
0.0
173
     0
291
     0
 45
0.0
1001
ACAD
1000
AcDbSavedByObjectVersion
1070
     0
  0
VISUALSTYLE
  5
1D6F0
102
{ACAD_REACTORS
330
1D6EB
102
}
330
1D6EB
100
AcDbVisualStyle
  2
Basic
 70
     7
 71
     1
 72
     0
 73
     1
 90
        0
 40
-0.6
 41
-30.0
 62
     5
 63
     7
 74
     0
 91
        4
 64
     7
 65
   257
 75
     1
175
     1
 42
1.0
 92
        8
 66
     7
 43
1.0
 76
     1
 77
     6
 78
     2
 67
     7
 79
     5
170
     0
171
     0
290
     0
174
     0
 93
        1
 44
0.0
173
     0
291
     1
 45
0.0
1001
ACAD
1000
AcDbSavedByObjectVersion
1070
     0
  0
VISUALSTYLE
  5
1D6F7
102
{ACAD_REACTORS
330
1D6EB
102
}
330
1D6EB
100
AcDbVisualStyle
  2
Brighten
 70
    12
 71
     2
 72
     2
 73
     0
 90
        0
 40
-0.6
 41
-30.0
 62
     5
 63
     7
 74
     1
 91
        4
 64
     7
 65
   257
 75
     1
175
     1
 42
1.0
 92
        8
 66
     7
 43
1.0
 76
     1
 77
     6
 78
     2
 67
     7
 79
     5
170
     0
171
     0
290
     0
174
     0
 93
        1
 44
50.0
173
     0
291
     1
 45
0.0
1001
ACAD
1000
AcDbSavedByObjectVersion
1070
     0
  0
VISUALSTYLE
  5
1D6FB
102
{ACAD_REACTORS
330
1D6EB
102
}
330
1D6EB
100
AcDbVisualStyle
  2
ColorChange
 70
    16
 71
     2
 72
     2
 73
     3
 90
        0
 40
-0.6
 41
-30.0
 62
     5
 63
     8
 74
     1
 91
        4
 64
     7
 65
   257
 75
     1
175
     1
 42
1.0
 92
        8
 66
     8
 43
1.0
 76
     1
 77
     6
 78
     2
 67
     7
 79
     5
170
     0
171
     0
290
     0
174
     0
 93
        1
 44
0.0
173
     0
291
     1
 45
0.0
1001
ACAD
1000
AcDbSavedByObjectVersion
1070
     0
  0
VISUALSTYLE
  5
1D6F4
102
{ACAD_REACTORS
330
1D6EB
102
}
330
1D6EB
100
AcDbVisualStyle
  2
Conceptual
 70
     9
 71
     3
 72
     2
 73
     0
 90
        0
 40
-0.6
 41
-30.0
 62
     5
 63
     7
 74
     2
 91
        2
 64
     7
 65
   257
 75
     1
175
     1
 42
40.0
 92
        8
 66
     7
 43
1.0
 76
     1
 77
     6
 78
     2
 67
     7
 79
     3
170
     0
171
     0
290
     0
174
     0
 93
        1
 44
0.0
173
     0
291
     0
 45
0.0
1001
ACAD
1000
AcDbSavedByObjectVersion
1070
     0
  0
VISUALSTYLE
  5
1D6F6
102
{ACAD_REACTORS
330
1D6EB
102
}
330
1D6EB
100
AcDbVisualStyle
  2
Dim
 70
    11
 71
     2
 72
     2
 73
     0
 90
        0
 40
-0.6
 41
-30.0
 62
     5
 63
     7
 74
     1
 91
        4
 64
     7
 65
   257
 75
     1
175
     1
 42
1.0
 92
        8
 66
     7
 43
1.0
 76
     1
 77
     6
 78
     2
 67
     7
 79
     5
170
     0
171
     0
290
     0
174
     0
 93
        1
 44
-50.0
173
     0
291
     1
 45
0.0
1001
ACAD
1000
AcDbSavedByObjectVersion
1070
     0
  0
VISUALSTYLE
  5
1D6FA
102
{ACAD_REACTORS
330
1D6EB
102
}
330
1D6EB
100
AcDbVisualStyle
  2
Facepattern
 70
    15
 71
     2
 72
     2
 73
     0
 90
        0
 40
-0.6
 41
-30.0
 62
     5
 63
     7
 74
     1
 91
        4
 64
     7
 65
   257
 75
     1
175
     1
 42
1.0
 92
        8
 66
     7
 43
1.0
 76
     1
 77
     6
 78
     2
 67
     7
 79
     5
170
     0
171
     0
290
     0
174
     0
 93
        1
 44
0.0
173
     0
291
     1
 45
0.0
1001
ACAD
1000
AcDbSavedByObjectVersion
1070
     0
  0
VISUALSTYLE
  5
1D6EC
102
{ACAD_REACTORS
330
1D6EB
102
}
330
1D6EB
100
AcDbVisualStyle
  2
Flat
 70
     0
 71
     2
 72
     1
 73
     1
 90
        2
 40
-0.6
 41
30.0
 62
     5
 63
     7
 74
     0
 91
        4
 64
     7
 65
   257
 75
     1
175
     1
 42
1.0
 92
        8
 66
     7
 43
1.0
 76
     1
 77
     6
 78
     2
 67
     7
 79
     5
170
     0
171
     0
290
     0
174
     0
 93
       13
 44
0.0
173
     0
291
     1
 45
0.0
1001
ACAD
1000
AcDbSavedByObjectVersion
1070
     0
  0
VISUALSTYLE
  5
1D6ED
102
{ACAD_REACTORS
330
1D6EB
102
}
330
1D6EB
100
AcDbVisualStyle
  2
FlatWithEdges
 70
     1
 71
     2
 72
     1
 73
     1
 90
        2
 40
-0.6
 41
30.0
 62
     5
 63
     7
 74
     1
 91
        4
 64
     7
 65
   257
 75
     1
175
     1
 42
1.0
 92
        0
 66
   257
 43
1.0
 76
     1
 77
     6
 78
     2
 67
     7
 79
     5
170
     0
171
     0
290
     0
174
     0
 93
       13
 44
0.0
173
     0
291
     1
 45
0.0
1001
ACAD
1000
AcDbSavedByObjectVersion
1070
     0
  0
VISUALSTYLE
  5
1D6EE
102
{ACAD_REACTORS
330
1D6EB
102
}
330
1D6EB
100
AcDbVisualStyle
  2
Gouraud
 70
     2
 71
     2
 72
     2
 73
     1
 90
        2
 40
-0.6
 41
30.0
 62
     5
 63
     7
 74
     0
 91
        4
 64
     7
 65
   257
 75
     1
175
     1
 42
1.0
 92
        0
 66
     7
 43
1.0
 76
     1
 77
     6
 78
     2
 67
     7
 79
     5
170
     0
171
     0
290
     0
174
     0
 93
       13
 44
0.0
173
     0
291
     1
 45
0.0
1001
ACAD
1000
AcDbSavedByObjectVersion
1070
     0
  0
VISUALSTYLE
  5
1D6EF
102
{ACAD_REACTORS
330
1D6EB
102
}
330
1D6EB
100
AcDbVisualStyle
  2
GouraudWithEdges
 70
     3
 71
     2
 72
     2
 73
     1
 90
        2
 40
-0.6
 41
30.0
 62
     5
 63
     7
 74
     1
 91
        4
 64
     7
 65
   257
 75
     1
175
     1
 42
1.0
 92
        0
 66
   257
 43
1.0
 76
     1
 77
     6
 78
     2
 67
     7
 79
     5
170
     0
171
     0
290
     0
174
     0
 93
       13
 44
0.0
173
     0
291
     1
 45
0.0
1001
ACAD
1000
AcDbSavedByObjectVersion
1070
     0
  0
VISUALSTYLE
  5
1D6F9
102
{ACAD_REACTORS
330
1D6EB
102
}
330
1D6EB
100
AcDbVisualStyle
  2
Linepattern
 70
    14
 71
     2
 72
     2
 73
     0
 90
        0
 40
-0.6
 41
-30.0
 62
     5
 63
     7
 74
     1
 91
        4
 64
     7
 65
   257
 75
     7
175
     7
 42
1.0
 92
        8
 66
     7
 43
1.0
 76
     1
 77
     6
 78
     2
 67
     7
 79
     5
170
     0
171
     0
290
     0
174
     0
 93
        1
 44
0.0
173
     0
291
     1
 45
0.0
1001
ACAD
1000
AcDbSavedByObjectVersion
1070
     0
  0
VISUALSTYLE
  5
1D6F5
102
{ACAD_REACTORS
330
1D6EB
102
}
330
1D6EB
100
AcDbVisualStyle
  2
Realistic
 70
     8
 71
     2
 72
     2
 73
     0
 90
        0
 40
-0.6
 41
-30.0
 62
     5
 63
     7
 74
     1
 91
        0
 64
     7
 65
   257
 75
     1
175
     1
 42
1.0
 92
        8
 66
     8
 43
1.0
 76
     1
 77
     6
 78
     2
 67
     7
 79
     5
170
     0
171
     0
290
     0
174
     0
 93
       13
 44
0.0
173
     0
291
     0
 45
0.0
1001
ACAD
1000
AcDbSavedByObjectVersion
1070
     0
  0
VISUALSTYLE
  5
1D6F8
102
{ACAD_REACTORS
330
1D6EB
102
}
330
1D6EB
100
AcDbVisualStyle
  2
Thicken
 70
    13
 71
     2
 72
     2
 73
     0
 90
        0
 40
-0.6
 41
-30.0
 62
     5
 63
     7
 74
     1
 91
        4
 64
     7
 65
   257
 75
     1
175
     1
 42
1.0
 92
       12
 66
     7
 43
1.0
 76
     1
 77
     6
 78
     2
 67
     7
 79
     5
170
     0
171
     0
290
     0
174
     0
 93
        1
 44
0.0
173
     0
291
     1
 45
0.0
1001
ACAD
1000
AcDbSavedByObjectVersion
1070
     0
  0
DICTIONARYVAR
  5
1D72C
102
{ACAD_REACTORS
330
34
102
}
330
34
100
DictionaryVariables
280
     0
  1
STANDARD
  0
DICTIONARYVAR
  5
A10C
102
{ACAD_REACTORS
330
34
102
}
330
34
100
DictionaryVariables
280
     0
  1
2
  0
DICTIONARYVAR
  5
35
102
{ACAD_REACTORS
330
34
102
}
330
34
100
DictionaryVariables
280
     0
  1
0
  0
DICTIONARYVAR
  5
194C
102
{ACAD_REACTORS
330
34
102
}
330
34
100
DictionaryVariables
280
     0
  1
127
  0
DICTIONARY
  5
7E8
102
{ACAD_REACTORS
330
47
102
}
330
47
100
AcDbDictionary
281
     1
  0
DICTIONARY
  5
4C
102
{ACAD_REACTORS
330
47
102
}
330
47
100
AcDbDictionary
281
     1
  0
XRECORD
  5
CFD7
102
{ACAD_REACTORS
330
47
102
}
330
47
100
AcDbXrecord
280
     1
 90
-1023410169
  0
XRECORD
  5
5733E
102
{ACAD_REACTORS
330
5733D
102
}
330
5733D
100
AcDbXrecord
280
     1
330
0
330
0
330
0
330
0
330
0
330
58DA8
330
58DA9
330
0
330
0
330
0
330
0
330
0
330
0
330
0
330
0
330
0
330
51A80
330
0
330
0
330
0
330
0
330
0
330
0
330
0
330
0
330
0
330
0
330
0
330
0
330
0
330
0
330
0
330
0
330
0
330
0
330
0
330
0
330
0
330
0
330
0
330
0
330
0
330
0
330
0
330
0
330
0
330
0
330
0
330
0
330
0
330
0
330
0
330
0
330
0
330
5BB7E
330
5BB7F
330
5BB87
330
5BB88
330
5BB90
330
5BB91
330
5BB99
330
5BB9A
330
5BBA2
330
5BBA3
330
0
330
0
330
5BBB4
330
5BBB5
330
5BBBF
330
5BBC0
330
5BBCA
330
5BBCB
330
0
330
0
330
0
330
0
330
0
330
0
330
0
330
0
330
0
330
0
330
0
330
0
330
0
330
0
330
0
330
0
330
0
330
0
330
0
330
0
330
0
330
0
330
0
330
0
330
0
330
0
330
0
330
0
330
0
330
0
330
0
330
0
330
0
330
0
330
0
330
0
330
0
330
0
330
0
330
0
330
0
330
0
330
0
330
0
330
0
330
0
330
0
330
0
330
0
330
0
330
0
330
0
330
0
330
0
330
0
330
0
330
0
330
0
  0
XRECORD
  5
3FB7
102
{ACAD_REACTORS
330
3F96
102
}
330
3F96
100
AcDbXrecord
280
     1
 91
        3
330
A47
 90
        8
 62
     7
370
    40
331
16
  1
Color_7
330
A46
 90
        0
 62
    14
370
    -3
331
16
  1
Color_14
330
3A31
 90
        8
 62
     7
370
    20
331
16
  1
Color_7
330
6D1
 90
        0
 62
     7
370
    -3
331
16
  1
Color_7
330
0
 90
        8
 62
     7
370
    50
331
16
  1
Color_7
330
A48
 90
        8
 62
     2
370
    35
331
16
  1
Color_2
330
0
 90
        8
 62
     7
370
    -3
331
16
  1
Color_7
330
10
 90
        8
 62
     7
370
    -3
331
16
  1
Color_7
  0
DICTIONARY
  5
5C636
330
22
100
AcDbDictionary
280
     1
281
     1
  3
ACAD_XREC_ROUNDTRIP
360
5C637
  0
DICTIONARY
  5
5C634
330
1E
100
AcDbDictionary
280
     1
281
     1
  3
ACAD_XREC_ROUNDTRIP
360
5C635
  0
DICTIONARY
  5
5C638
330
26
100
AcDbDictionary
280
     1
281
     1
  3
ACAD_XREC_ROUNDTRIP
360
5C639
  0
DICTIONARY
  5
5C640
330
1D6E9
100
AcDbDictionary
280
     1
281
     1
  3
ACAD_XREC_ROUNDTRIP
360
5C641
  0
DICTIONARY
  5
5C63E
330
1D6E8
100
AcDbDictionary
280
     1
281
     1
  3
ACAD_XREC_ROUNDTRIP
360
5C63F
  0
DICTIONARY
  5
5C642
330
1D6EA
100
AcDbDictionary
280
     1
281
     1
  3
ACAD_XREC_ROUNDTRIP
360
5C643
  0
DICTIONARY
  5
5C63C
330
1A631
100
AcDbDictionary
280
     1
281
     1
  3
ACAD_XREC_ROUNDTRIP
360
5C63D
  0
DICTIONARY
  5
5C63A
330
1A630
100
AcDbDictionary
280
     1
281
     1
  3
ACAD_XREC_ROUNDTRIP
360
5C63B
  0
DICTIONARY
  5
5C646
330
23806
100
AcDbDictionary
280
     1
281
     1
  3
ACAD_XREC_ROUNDTRIP
360
5C647
  0
DICTIONARY
  5
5C644
330
1D6FD
100
AcDbDictionary
280
     1
281
     1
  3
ACAD_XREC_ROUNDTRIP
360
5C645
  0
XRECORD
  5
5C637
102
{ACAD_REACTORS
330
5C636
102
}
330
5C636
100
AcDbXrecord
280
     1
102
SHADEPLOT
 70
     0
102
SHADEPLOTRESLEVEL
 70
     2
102
SHADEPLOTCUSTOMDPI
 70
   300
  0
XRECORD
  5
5C635
102
{ACAD_REACTORS
330
5C634
102
}
330
5C634
100
AcDbXrecord
280
     1
102
SHADEPLOT
 70
     0
102
SHADEPLOTRESLEVEL
 70
     2
102
SHADEPLOTCUSTOMDPI
 70
   300
  0
XRECORD
  5
5C639
102
{ACAD_REACTORS
330
5C638
102
}
330
5C638
100
AcDbXrecord
280
     1
102
SHADEPLOT
 70
     0
102
SHADEPLOTRESLEVEL
 70
     2
102
SHADEPLOTCUSTOMDPI
 70
   300
  0
XRECORD
  5
5C641
102
{ACAD_REACTORS
330
5C640
102
}
330
5C640
100
AcDbXrecord
280
     1
102
MATERIAL
148
0.0
149
0.0
149
0.0
 93
        0
 94
       63
282
     0
 72
     1
 77
     1
171
     1
175
     1
179
     1
273
     0
  0
XRECORD
  5
5C63F
102
{ACAD_REACTORS
330
5C63E
102
}
330
5C63E
100
AcDbXrecord
280
     1
102
MATERIAL
148
0.0
149
0.0
149
0.0
 93
        0
 94
       63
282
     0
 72
     1
 77
     1
171
     1
175
     1
179
     1
273
     0
  0
XRECORD
  5
5C643
102
{ACAD_REACTORS
330
5C642
102
}
330
5C642
100
AcDbXrecord
280
     1
102
MATERIAL
148
0.0
149
0.0
149
0.0
 93
        0
 94
       63
282
     0
 72
     1
 77
     1
171
     1
175
     1
179
     1
273
     0
  0
XRECORD
  5
5C63D
102
{ACAD_REACTORS
330
5C63C
102
}
330
5C63C
100
AcDbXrecord
280
     1
102
SHADEPLOT
 70
     0
102
SHADEPLOTRESLEVEL
 70
     2
102
SHADEPLOTCUSTOMDPI
 70
   300
  0
XRECORD
  5
5C63B
102
{ACAD_REACTORS
330
5C63A
102
}
330
5C63A
100
AcDbXrecord
280
     1
102
SHADEPLOT
 70
     0
102
SHADEPLOTRESLEVEL
 70
     2
102
SHADEPLOTCUSTOMDPI
 70
   300
  0
XRECORD
  5
5C647
102
{ACAD_REACTORS
330
5C646
102
}
330
5C646
100
AcDbXrecord
280
     1
102
SHADEPLOT
 70
     0
102
SHADEPLOTRESLEVEL
 70
     2
102
SHADEPLOTCUSTOMDPI
 70
   300
  0
XRECORD
  5
5C645
102
{ACAD_REACTORS
330
5C644
102
}
330
5C644
100
AcDbXrecord
280
     1
102
ACAD_ROUNDTRIP_PRE2007_TABLESTYLE
 90
      512
 91
        0
  1

 92
      512
 93
        0
  2

 94
      512
 95
        0
  3

  0
ENDSEC
  0
EOF
