  0
SECTION
  2
HEADER
  9
$ACADVER
  1
AC1015
  9
$ACADMAINTVER
 70
    20
  9
$DWGCODEPAGE
  3
ANSI_932
  9
$INSBASE
 10
0.0
 20
0.0
 30
0.0
  9
$EXTMIN
 10
-243.7483537171065
 20
-11940.66431639686
 30
-0.0015258207003583
  9
$EXTMAX
 10
53.6769537547334
 20
-11730.59612516591
 30
0.0000000349246037
  9
$LIMMIN
 10
2406.72721656747
 20
-11272.98785877146
  9
$LIMMAX
 10
3000.72721656747
 20
-10852.98785877146
  9
$ORTHOMODE
 70
     0
  9
$REGENMODE
 70
     1
  9
$FILLMODE
 70
     1
  9
$QTEXTMODE
 70
     0
  9
$MIRRTEXT
 70
     0
  9
$LTSCALE
 40
1.0
  9
$ATTMODE
 70
     1
  9
$TEXTSIZE
 40
3.2
  9
$TRACEWID
 40
1.0
  9
$TEXTSTYLE
  7
STANDARD
  9
$CLAYER
  8
AM_CL
  9
$CELTYPE
  6
ByLayer
  9
$CECOLOR
 62
   256
  9
$CELTSCALE
 40
1.0
  9
$DISPSILH
 70
     0
  9
$DIMSCALE
 40
1.0
  9
$DIMASZ
 40
1.0
  9
$DIMEXO
 40
1.0
  9
$DIMDLI
 40
10.0
  9
$DIMRND
 40
0.0
  9
$DIMDLE
 40
0.0
  9
$DIMEXE
 40
1.0
  9
$DIMTP
 40
0.2
  9
$DIMTM
 40
-0.2
  9
$DIMTXT
 40
3.5
  9
$DIMCEN
 40
0.0
  9
$DIMTSZ
 40
0.0
  9
$DIMTOL
 70
     0
  9
$DIMLIM
 70
     0
  9
$DIMTIH
 70
     0
  9
$DIMTOH
 70
     0
  9
$DIMSE1
 70
     0
  9
$DIMSE2
 70
     0
  9
$DIMTAD
 70
     1
  9
$DIMZIN
 70
     8
  9
$DIMBLK
  1

  9
$DIMASO
 70
     1
  9
$DIMSHO
 70
     1
  9
$DIMPOST
  1

  9
$DIMAPOST
  1
"
  9
$DIMALT
 70
     0
  9
$DIMALTD
 70
     2
  9
$DIMALTF
 40
0.0393701
  9
$DIMLFAC
 40
1.0
  9
$DIMTOFL
 70
     1
  9
$DIMTVP
 40
0.0
  9
$DIMTIX
 70
     0
  9
$DIMSOXD
 70
     0
  9
$DIMSAH
 70
     0
  9
$DIMBLK1
  1

  9
$DIMBLK2
  1

  9
$DIMSTYLE
  2
SYS
  9
$DIMCLRD
 70
   256
  9
$DIMCLRE
 70
   256
  9
$DIMCLRT
 70
     7
  9
$DIMTFAC
 40
0.71
  9
$DIMGAP
 40
1.5
  9
$DIMJUST
 70
     0
  9
$DIMSD1
 70
     0
  9
$DIMSD2
 70
     0
  9
$DIMTOLJ
 70
     0
  9
$DIMTZIN
 70
     8
  9
$DIMALTZ
 70
     0
  9
$DIMALTTZ
 70
     0
  9
$DIMUPT
 70
     0
  9
$DIMDEC
 70
     1
  9
$DIMTDEC
 70
     2
  9
$DIMALTU
 70
     2
  9
$DIMALTTD
 70
     2
  9
$DIMTXSTY
  7
STANDARD
  9
$DIMAUNIT
 70
     0
  9
$DIMADEC
 70
     0
  9
$DIMALTRND
 40
0.0
  9
$DIMAZIN
 70
     2
  9
$DIMDSEP
 70
    46
  9
$DIMATFIT
 70
     3
  9
$DIMFRAC
 70
     0
  9
$DIMLDRBLK
  1

  9
$DIMLUNIT
 70
     2
  9
$DIMLWD
 70
    -1
  9
$DIMLWE
 70
    -1
  9
$DIMTMOVE
 70
     0
  9
$LUNITS
 70
     2
  9
$LUPREC
 70
     2
  9
$SKETCHINC
 40
1.0
  9
$FILLETRAD
 40
1.0
  9
$AUNITS
 70
     0
  9
$AUPREC
 70
     0
  9
$MENU
  1
.
  9
$ELEVATION
 40
0.0
  9
$PELEVATION
 40
0.0
  9
$THICKNESS
 40
0.0
  9
$LIMCHECK
 70
     0
  9
$CHAMFERA
 40
0.5
  9
$CHAMFERB
 40
0.5
  9
$CHAMFERC
 40
20.0
  9
$CHAMFERD
 40
0.0
  9
$SKPOLY
 70
     0
  9
$TDCREATE
 40
2453389.567546297
  9
$TDUCREATE
 40
2453389.192546296
  9
$TDUPDATE
 40
2454902.544510995
  9
$TDUUPDATE
 40
2454902.169510996
  9
$TDINDWG
 40
21.7901773495
  9
$TDUSRTIMER
 40
21.7901768056
  9
$USRTIMER
 70
     1
  9
$ANGBASE
 50
0.0
  9
$ANGDIR
 70
     0
  9
$PDMODE
 70
     0
  9
$PDSIZE
 40
-3.0
  9
$PLINEWID
 40
0.0
  9
$SPLFRAME
 70
     0
  9
$SPLINETYPE
 70
     6
  9
$SPLINESEGS
 70
     8
  9
$HANDSEED
  5
5C93E
  9
$SURFTAB1
 70
     6
  9
$SURFTAB2
 70
     6
  9
$SURFTYPE
 70
     6
  9
$SURFU
 70
     6
  9
$SURFV
 70
     6
  9
$UCSBASE
  2

  9
$UCSNAME
  2

  9
$UCSORG
 10
0.0
 20
0.0
 30
0.0
  9
$UCSXDIR
 10
1.0
 20
0.0
 30
0.0
  9
$UCSYDIR
 10
0.0
 20
1.0
 30
0.0
  9
$UCSORTHOREF
  2

  9
$UCSORTHOVIEW
 70
     0
  9
$UCSORGTOP
 10
0.0
 20
0.0
 30
0.0
  9
$UCSORGBOTTOM
 10
0.0
 20
0.0
 30
0.0
  9
$UCSORGLEFT
 10
0.0
 20
0.0
 30
0.0
  9
$UCSORGRIGHT
 10
0.0
 20
0.0
 30
0.0
  9
$UCSORGFRONT
 10
0.0
 20
0.0
 30
0.0
  9
$UCSORGBACK
 10
0.0
 20
0.0
 30
0.0
  9
$PUCSBASE
  2

  9
$PUCSNAME
  2

  9
$PUCSORG
 10
0.0
 20
0.0
 30
0.0
  9
$PUCSXDIR
 10
1.0
 20
0.0
 30
0.0
  9
$PUCSYDIR
 10
0.0
 20
1.0
 30
0.0
  9
$PUCSORTHOREF
  2

  9
$PUCSORTHOVIEW
 70
     0
  9
$PUCSORGTOP
 10
0.0
 20
0.0
 30
0.0
  9
$PUCSORGBOTTOM
 10
0.0
 20
0.0
 30
0.0
  9
$PUCSORGLEFT
 10
0.0
 20
0.0
 30
0.0
  9
$PUCSORGRIGHT
 10
0.0
 20
0.0
 30
0.0
  9
$PUCSORGFRONT
 10
0.0
 20
0.0
 30
0.0
  9
$PUCSORGBACK
 10
0.0
 20
0.0
 30
0.0
  9
$USERI1
 70
     0
  9
$USERI2
 70
     0
  9
$USERI3
 70
     0
  9
$USERI4
 70
     0
  9
$USERI5
 70
     0
  9
$USERR1
 40
0.0
  9
$USERR2
 40
0.0
  9
$USERR3
 40
0.0
  9
$USERR4
 40
0.0
  9
$USERR5
 40
0.0
  9
$WORLDVIEW
 70
     1
  9
$SHADEDGE
 70
     3
  9
$SHADEDIF
 70
    70
  9
$TILEMODE
 70
     1
  9
$MAXACTVP
 70
    64
  9
$PINSBASE
 10
0.0
 20
0.0
 30
0.0
  9
$PLIMCHECK
 70
     0
  9
$PEXTMIN
 10
1.000000000000000E+20
 20
1.000000000000000E+20
 30
1.000000000000000E+20
  9
$PEXTMAX
 10
-1.000000000000000E+20
 20
-1.000000000000000E+20
 30
-1.000000000000000E+20
  9
$PLIMMIN
 10
-3.17498779296875
 20
-3.174999952316284
  9
$PLIMMAX
 10
293.4970092773438
 20
206.692492723465
  9
$UNITMODE
 70
     0
  9
$VISRETAIN
 70
     1
  9
$PLINEGEN
 70
     0
  9
$PSLTSCALE
 70
     1
  9
$TREEDEPTH
 70
  3020
  9
$CMLSTYLE
  2
Standard
  9
$CMLJUST
 70
     0
  9
$CMLSCALE
 40
20.0
  9
$PROXYGRAPHICS
 70
     1
  9
$MEASUREMENT
 70
     1
  9
$CELWEIGHT
370
    -1
  9
$ENDCAPS
280
     0
  9
$JOINSTYLE
280
     0
  9
$LWDISPLAY
290
     0
  9
$INSUNITS
 70
     4
  9
$HYPERLINKBASE
  1

  9
$STYLESHEET
  1
monochrome.ctb
  9
$XEDIT
290
     1
  9
$CEPSNTYPE
380
     0
  9
$PSTYLEMODE
290
     1
  9
$FINGERPRINTGUID
  2
{83FB3AA1-FF18-4BFE-AFE0-611B71DE056D}
  9
$VERSIONGUID
  2
{8F47A7A9-9337-4E51-AEFC-B4205085C68D}
  9
$EXTNAMES
290
     1
  9
$PSVPSCALE
 40
0.0
  9
$OLESTARTUP
290
     0
  0
ENDSEC
  0
SECTION
  2
CLASSES
  0
CLASS
  1
ACDBDICTIONARYWDFLT
  2
AcDbDictionaryWithDefault
  3
ObjectDBX Classes
 90
        0
280
     0
281
     0
  0
CLASS
  1
ACDBPLACEHOLDER
  2
AcDbPlaceHolder
  3
ObjectDBX Classes
 90
        0
280
     0
281
     0
  0
CLASS
  1
LAYOUT
  2
AcDbLayout
  3
ObjectDBX Classes
 90
        0
280
     0
281
     0
  0
CLASS
  1
AMGSETTINGSOBJ
  2
AmgSettingsObj
  3
"AcadM|Product Description: AutoCAD Mechanical|Company: Autodesk, Inc."
 90
     1024
280
     0
281
     0
  0
CLASS
  1
ACME_DOCUMENT
  2
AcMeDbDoc
  3
AcMeServices
 90
     1024
280
     0
281
     0
  0
CLASS
  1
ACMESCOPE
  2
AcMeScope
  3
AcMeServices
 90
     1024
280
     0
281
     0
  0
CLASS
  1
ACMECOMMANDHISTORY
  2
AcMeCommandHistory
  3
AcMeServices
 90
     1024
280
     0
281
     0
  0
CLASS
  1
DICTIONARYVAR
  2
AcDbDictionaryVar
  3
ObjectDBX Classes
 90
        0
280
     0
281
     0
  0
CLASS
  1
ACIMSYSVARMAN
  2
AcImSysVarManager
  3
AcMeServices
 90
     1024
280
     0
281
     0
  0
CLASS
  1
ACIMREALSYSVAR
  2
AcImRealSysVar
  3
AcMeServices
 90
     1024
280
     0
281
     0
  0
CLASS
  1
ACIMINTSYSVAR
  2
AcImIntSysVar
  3
AcMeServices
 90
     1024
280
     0
281
     0
  0
CLASS
  1
ACMEDRAWINGMAN
  2
AcMeDrawingMan
  3
AcMeServices
 90
     1024
280
     0
281
     0
  0
CLASS
  1
ACMEVIEW
  2
AcMeView
  3
AcMeServices
 90
     1024
280
     0
281
     0
  0
CLASS
  1
ACDBENTITYCACHE
  2
AcMeEntityCache
  3
AcMeServices
 90
     1024
280
     0
281
     0
  0
CLASS
  1
GSMANAGER
  2
AcMeGSManager
  3
AcMeServices
 90
     1024
280
     0
281
     0
  0
CLASS
  1
AMDTINTERNALREACTOR
  2
AmdtInternalReactor
  3
AcMeServices
 90
     1024
280
     0
281
     0
  0
CLASS
  1
ACMESTATEMGR
  2
AcMeStateMgr
  3
AcMeServices
 90
     1024
280
     0
281
     0
  0
CLASS
  1
ACGREFMASTER
  2
AcGrefMaster
  3
AcAttribServices
 90
     1024
280
     0
281
     0
  0
CLASS
  1
ACME_DATABASE
  2
AcMeDbDatabase
  3
AcMeServices
 90
     1024
280
     0
281
     0
  0
CLASS
  1
ACRFINSADJUSTERMGR
  2
AcRfInsAdjusterMgr
  3
AcMeServices
 90
     1024
280
     0
281
     0
  0
CLASS
  1
ACGREFACADMASTER
  2
AcGrefacadMaster
  3
AcGrefServices
 90
     1024
280
     0
281
     0
  0
CLASS
  1
AMIMASTER
  2
AmiMaster
  3
AmiServices
 90
     1024
280
     0
281
     0
  0
CLASS
  1
ACMDATADICTIONARY
  2
AcmDataDictionary
  3
"AcmSymBB|Product Description: AutoCAD Mechanical|Company: Autodesk, Inc."
 90
     1024
280
     0
281
     0
  0
CLASS
  1
ACMDATAENTRYBLOCK
  2
AcmDataEntryBlock
  3
AcmSymBB|Product Description: AutoCAD Mechanical|Company: Autodesk, Inc.
 90
    33792
280
     0
281
     0
  0
CLASS
  1
ACIMSTRSYSVAR
  2
AcImStrSysVar
  3
AcMeServices
 90
     1024
280
     0
281
     0
  0
CLASS
  1
ACMSTANDARDISO
  2
AcmStandardISO
  3
"Amdt_StdImp|Product Description: AutoCAD Mechanical|Company: Autodesk, Inc."
 90
     1024
280
     0
281
     0
  0
CLASS
  1
AMGOBJPROPCFG
  2
AmgObjPropCfg
  3
"AmgLay|Product Description: AutoCAD Mechanical|Company: Autodesk, Inc."
 90
     1025
280
     0
281
     0
  0
CLASS
  1
AMDTEDGESTANDARDISO
  2
AmdtEdgeStdISO
  3
"Amdt_StdImp|Product Description: AutoCAD Mechanical|Company: Autodesk, Inc."
 90
    33792
280
     0
281
     0
  0
CLASS
  1
ACMSURFSTANDARDISO
  2
AcmSurfTextStdISO
  3
"Amdt_StdImp|Product Description: AutoCAD Mechanical|Company: Autodesk, Inc."
 90
    33792
280
     0
281
     0
  0
CLASS
  1
ACMFCFSTANDARDISO
  2
AcmFCFStdISO
  3
"Amdt_StdImp|Product Description: AutoCAD Mechanical|Company: Autodesk, Inc."
 90
     1024
280
     0
281
     0
  0
CLASS
  1
ACMWELDSTANDARDISO
  2
AcmWeldingStdISO
  3
"Amdt_StdImp|Product Description: AutoCAD Mechanical|Company: Autodesk, Inc."
 90
     1024
280
     0
281
     0
  0
CLASS
  1
ACMIDSTANDARDISO
  2
AcmIdStdISO
  3
"Amdt_StdImp|Product Description: AutoCAD Mechanical|Company: Autodesk, Inc."
 90
     1024
280
     0
281
     0
  0
CLASS
  1
ACMDATUMSTANDARDISO
  2
AcmDatumStdISO
  3
"Amdt_StdImp|Product Description: AutoCAD Mechanical|Company: Autodesk, Inc."
 90
     1024
280
     0
281
     0
  0
CLASS
  1
ACMBOMSTANDARDISO
  2
AcmBOMStdISO
  3
"Amdt_StdImp|Product Description: AutoCAD Mechanical|Company: Autodesk, Inc."
 90
     1024
280
     0
281
     0
  0
CLASS
  1
ACMDETAILSTANDARDISO
  2
AmdtDetailSymStdISO
  3
"Amdt_StdImp|Product Description: AutoCAD Mechanical|Company: Autodesk, Inc."
 90
     1024
280
     0
281
     0
  0
CLASS
  1
ACMSECTIONSTANDARDISO
  2
AmdtSectionSymStdISO
  3
"Amdt_StdImp|Product Description: AutoCAD Mechanical|Company: Autodesk, Inc."
 90
    33792
280
     0
281
     0
  0
CLASS
  1
ACMCENTERLINESTANDARDISO
  2
AmdtCenterLineStdISO
  3
"Amdt_StdImp|Product Description: AutoCAD Mechanical|Company: Autodesk, Inc."
 90
     1024
280
     0
281
     0
  0
CLASS
  1
ACAMGLAYSTD
  2
AcAmgLayStd
  3
"AmgLay|Product Description: AutoCAD Mechanical|Company: Autodesk, Inc."
 90
     1024
280
     0
281
     0
  0
CLASS
  1
ACAMGDIMSTD
  2
AcAmgDimStd
  3
"AmgDim|Product Description: AutoCAD Mechanical|Company: Autodesk, Inc."
 90
     1024
280
     0
281
     0
  0
CLASS
  1
ACAMGTITLESTD
  2
AcAmgTitleStd
  3
"AmgTitle|Product Description: AutoCAD Mechanical|Company: Autodesk, Inc."
 90
     4095
280
     0
281
     0
  0
CLASS
  1
ACAMGFILTERDAT
  2
AcAmgFilterDat
  3
"AcadM|Product Description: AutoCAD Mechanical|Company: Autodesk, Inc."
 90
    33792
280
     0
281
     0
  0
CLASS
  1
LAYER_INDEX
  2
AcDbLayerIndex
  3
ObjectDBX Classes
 90
    32768
280
     0
281
     0
  0
CLASS
  1
IDBUFFER
  2
AcDbIdBuffer
  3
ObjectDBX Classes
 90
    32768
280
     0
281
     0
  0
CLASS
  1
PLOTSETTINGS
  2
AcDbPlotSettings
  3
ObjectDBX Classes
 90
        0
280
     0
281
     0
  0
CLASS
  1
AMDTFORMULAUPDATEDISPATCHER
  2
AmdtFormulaUpdateDispatcher
  3
AcMeServices
 90
    33792
280
     0
281
     0
  0
CLASS
  1
ACMSTANDARDANSI
  2
AcmStandardANSI
  3
"Amdt_StdImp|Product Description: AutoCAD Mechanical|Company: Autodesk, Inc."
 90
    33792
280
     0
281
     0
  0
CLASS
  1
ACMSURFSTANDARDANSI
  2
AcmSurfTextStdANSI
  3
"Amdt_StdImp|Product Description: AutoCAD Mechanical|Company: Autodesk, Inc."
 90
    33792
280
     0
281
     0
  0
CLASS
  1
ACMFCFSTANDARDANSI
  2
AcmFCFStdANSI
  3
"Amdt_StdImp|Product Description: AutoCAD Mechanical|Company: Autodesk, Inc."
 90
    33792
280
     0
281
     0
  0
CLASS
  1
ACMWELDSTANDARDANSI
  2
AcmWeldingStdANSI
  3
"Amdt_StdImp|Product Description: AutoCAD Mechanical|Company: Autodesk, Inc."
 90
    33792
280
     0
281
     0
  0
CLASS
  1
ACMIDSTANDARDANSI
  2
AcmIdStdANSI
  3
"Amdt_StdImp|Product Description: AutoCAD Mechanical|Company: Autodesk, Inc."
 90
    33792
280
     0
281
     0
  0
CLASS
  1
ACMDATUMSTANDARDANSI
  2
AcmDatumStdANSI
  3
"Amdt_StdImp|Product Description: AutoCAD Mechanical|Company: Autodesk, Inc."
 90
    33792
280
     0
281
     0
  0
CLASS
  1
ACMBOMSTANDARDANSI
  2
AcmBOMStdANSI
  3
"Amdt_StdImp|Product Description: AutoCAD Mechanical|Company: Autodesk, Inc."
 90
    33792
280
     0
281
     0
  0
CLASS
  1
ACMDETAILSTANDARDANSI
  2
AmdtDetailSymStdANSI
  3
"Amdt_StdImp|Product Description: AutoCAD Mechanical|Company: Autodesk, Inc."
 90
    33792
280
     0
281
     0
  0
CLASS
  1
ACMSECTIONSTANDARDANSI
  2
AmdtSectionSymStdANSI
  3
"Amdt_StdImp|Product Description: AutoCAD Mechanical|Company: Autodesk, Inc."
 90
    33792
280
     0
281
     0
  0
CLASS
  1
ACMCENTERLINESTANDARDANSI
  2
AmdtCenterLineStdANSI
  3
"Amdt_StdImp|Product Description: AutoCAD Mechanical|Company: Autodesk, Inc."
 90
    33792
280
     0
281
     0
  0
CLASS
  1
ACMBOM
  2
AcmBom
  3
"AcmSymBB|Product Description: AutoCAD Mechanical|Company: Autodesk, Inc."
 90
    33792
280
     0
281
     0
  0
CLASS
  1
ACMDATAENTRYPART
  2
AcmDataEntryPart
  3
AcmSymBB|Product Description: AutoCAD Mechanical|Company: Autodesk, Inc.
 90
    33792
280
     0
281
     0
  0
CLASS
  1
ACMPARTREF
  2
AcmPartRef
  3
"AcmSymBB|Product Description: AutoCAD Mechanical|Company: Autodesk, Inc."
 90
    36863
280
     0
281
     1
  0
CLASS
  1
ACDBCIRCARCRES
  2
AcDbCircArcRes
  3
AcGrefServices
 90
    33792
280
     0
281
     0
  0
CLASS
  1
ACMBOMROW
  2
AcmBomRow
  3
"AcmSymBB|Product Description: AutoCAD Mechanical|Company: Autodesk, Inc."
 90
    33792
280
     0
281
     0
  0
CLASS
  1
ACMBALLOON
  2
AcmBalloon
  3
"AcmSymBB|Product Description: AutoCAD Mechanical|Company: Autodesk, Inc."
 90
    36863
280
     0
281
     1
  0
CLASS
  1
AMDTNOTE
  2
AmdtNote
  3
"AcmSymBB|Product Description: AutoCAD Mechanical|Company: Autodesk, Inc."
 90
    36863
280
     0
281
     1
  0
CLASS
  1
STDPART2D
  2
AmgStdPart
  3
AmgStdPart|Product Description: AutoCAD Mechanical|Company: Autodesk, Inc.
 90
    36863
280
     0
281
     1
  0
CLASS
  1
ACDBSTDPARTRES_LINE
  2
AcDbStdPartRes_Line
  3
AmgStdPart|Product Description: AutoCAD Mechanical|Company: Autodesk, Inc.
 90
    33792
280
     0
281
     0
  0
CLASS
  1
ACMDATAENTRY
  2
AcmDataEntry
  3
AcmSymBB|Product Description: AutoCAD Mechanical|Company: Autodesk, Inc.
 90
    33792
280
     0
281
     0
  0
CLASS
  1
ACDBOPPOLYLINERES
  2
AcDbOpPolylineRes
  3
AcGrefServices
 90
    33792
280
     0
281
     0
  0
CLASS
  1
ACMPARTLIST
  2
AcmPartList
  3
"AcmSymBB|Product Description: AutoCAD Mechanical|Company: Autodesk, Inc."
 90
    36863
280
     0
281
     1
  0
CLASS
  1
ACDBLINERES
  2
AcDbLineRes
  3
AcGrefServices
 90
    33792
280
     0
281
     0
  0
CLASS
  1
ACRFINSADJ
  2
AcRfInsAdjuster
  3
AcMeServices
 90
    33792
280
     0
281
     0
  0
CLASS
  1
AM_DRAWING_MGR
  2
AcDmDwgMgr
  3
AcMechDwgViewMgmt
 90
     1024
280
     0
281
     0
  0
CLASS
  1
AM_DWG_DOCUMENT
  2
AcDmDwgDocument
  3
AcMechDwgViewMgmt
 90
     1024
280
     0
281
     0
  0
CLASS
  1
AM_DWG_SHEET
  2
AcDmSheet
  3
AcMechDwgViewMgmt
 90
     1024
280
     0
281
     0
  0
CLASS
  1
AM_VIEWDIMPARMAP
  2
AcDmViewDimParMap
  3
AcMechDwgViewMgmt
 90
     1024
280
     0
281
     0
  0
CLASS
  1
AM_DWGMGR_NAME
  2
AcDmDwgMgrName
  3
AcMechDwgViewMgmt
 90
     1024
280
     0
281
     0
  0
CLASS
  1
AMDTMENUSTATEMGR
  2
AmdtMenuStateMgr
  3
McadcomServices
 90
     1024
280
     0
281
     0
  0
CLASS
  1
AMDTMCOMMENUSTATE
  2
AmdtMcomMenuState
  3
McadcomServices
 90
     1024
280
     0
281
     0
  0
CLASS
  1
ASAPP
  2
AcAsAppObject
  3
AutoSurfServices
 90
        0
280
     0
281
     0
  0
CLASS
  1
IM_STATIC_MAN
  2
AcImStaticVarManager
  3
AcMeServices
 90
    33792
280
     0
281
     0
  0
CLASS
  1
ACIMDBLSTATICVAR
  2
AcImDblStaticVar
  3
AcMeServices
 90
    33792
280
     0
281
     0
  0
CLASS
  1
ACIMSTRSTATICVAR
  2
AcImStrStaticVar
  3
AcMeServices
 90
    33792
280
     0
281
     0
  0
CLASS
  1
ACIMINTSTATICVAR
  2
AcImIntStaticVar
  3
AcMeServices
 90
    33792
280
     0
281
     0
  0
CLASS
  1
ACASGREFMASTER
  2
AcAsGrefMaster
  3
AutoSurfResolverServices
 90
        0
280
     0
281
     0
  0
CLASS
  1
ACADGREFMODULE
  2
AcAdGrefModule
  3
AdGrefServices
 90
        0
280
     0
281
     0
  0
CLASS
  1
AMDTMAPISURFMOUDULE
  2
AmdtMApiSurfModule
  3
MApiSurfServices
 90
        0
280
     0
281
     0
  0
CLASS
  1
MAPIAMMOUDLE
  2
MApiAmModule
  3
MApiAmServices
 90
     1024
280
     0
281
     0
  0
CLASS
  1
AMDTADMENUSTATE
  2
AmdtAdMenuState
  3
DesignerServices
 90
     1024
280
     0
281
     0
  0
CLASS
  1
ADAPPL
  2
AcAdAppl
  3
DesignerServices
 90
     1024
280
     0
281
     0
  0
CLASS
  1
DEPMGR
  2
AcAdDepMgr
  3
DesignerServices
 90
     1024
280
     0
281
     0
  0
CLASS
  1
PARAMMGR
  2
AcAdParamMgr
  3
DesignerServices
 90
     1024
280
     0
281
     0
  0
CLASS
  1
PARAMSCOPE
  2
AcAdParamScope
  3
DesignerServices
 90
     1024
280
     0
281
     0
  0
CLASS
  1
NAMEDAPPL
  2
AcAdNamedAppl
  3
DesignerServices
 90
     1024
280
     0
281
     0
  0
CLASS
  1
ADHNTMPLT
  2
AdHoleNoteTemplateMgr
  3
DesignerServices
 90
    33792
280
     0
281
     0
  0
CLASS
  1
AM_HNTEMPLATE_MGR_NAME
  2
AdHoleNoteTemplateMgrName
  3
DesignerServices
 90
    33792
280
     0
281
     0
  0
CLASS
  1
AMDTDMMENUSTATE
  2
AmdtDmMenuState
  3
AcMechDwgViewMgmt
 90
     1024
280
     0
281
     0
  0
CLASS
  1
MAPIADMODULE
  2
MApiAdModule
  3
MApiAdServices
 90
        0
280
     0
281
     0
  0
CLASS
  1
AMDTAMMENUSTATE
  2
AmdtAmMenuState
  3
DesignerAssemblies
 90
     1024
280
     0
281
     0
  0
CLASS
  1
ACAMPROJECT
  2
AcAmProject
  3
DesignerAssemblies
 90
     1024
280
     0
281
     0
  0
CLASS
  1
ACAMGRCOMPDEF
  2
AcAmGrCompDef
  3
DesignerAssemblies
 90
     1024
280
     0
281
     0
  0
CLASS
  1
ACCMCONTEXT
  2
AcCmContext
  3
DesignerAssemblies
 90
     1024
280
     0
281
     0
  0
CLASS
  1
ACAMCOMPDEF
  2
AcAmCompDef
  3
DesignerAssemblies
 90
     1024
280
     0
281
     0
  0
CLASS
  1
ACAMCOMPDEFMGR
  2
AcAmCompDefMgr
  3
DesignerAssemblies
 90
     1024
280
     0
281
     0
  0
CLASS
  1
AMCONTEXTMGR
  2
AcAmContextMgr
  3
DesignerAssemblies
 90
     1024
280
     0
281
     0
  0
CLASS
  1
ACAMCONTEXTMODELER
  2
AcAmContextModeler
  3
DesignerAssemblies
 90
     1024
280
     0
281
     0
  0
CLASS
  1
CATALOGSTATE
  2
AcAmCatalogState
  3
DesignerAssemblies
 90
     1024
280
     0
281
     0
  0
CLASS
  1
ACAMGRCOMPDEFSET
  2
AcAmGrCompDefSet
  3
DesignerAssemblies
 90
     1024
280
     0
281
     0
  0
CLASS
  1
AMDTBROWSERDBTAB
  2
AmdtBrowserDbTab
  3
McadcomServices
 90
     1024
280
     0
281
     0
  0
CLASS
  1
CBROWSERAPPOBJECT
  2
CBrowserAppObject
  3
McadcomServices
 90
     1024
280
     0
281
     0
  0
CLASS
  1
DM_PLACEHOLDER
  2
AcDmSelsetPlaceholder
  3
AcMechDwgViewMgmt
 90
     1024
280
     0
281
     0
  0
CLASS
  1
ACMPICKOBJ
  2
AcmPickEnt
  3
"AcmSymBB|Product Description: AutoCAD Mechanical|Company: Autodesk, Inc."
 90
    33792
280
     0
281
     1
  0
CLASS
  1
ACMNOTESTANDARDISO
  2
AmdtNoteStdISO
  3
"Amdt_StdImp|Product Description: AutoCAD Mechanical|Company: Autodesk, Inc."
 90
     1024
280
     0
281
     0
  0
CLASS
  1
ACMNOTESTANDARDANSI
  2
AmdtNoteStdANSI
  3
"Amdt_StdImp|Product Description: AutoCAD Mechanical|Company: Autodesk, Inc."
 90
    33792
280
     0
281
     0
  0
CLASS
  1
AMDTACMWBLOCKBOMENTITY
  2
AmdtAcmWblockBomEntity
  3
"AcmSymBB|Product Description: AutoCAD Mechanical|Company: Autodesk, Inc."
 90
     4095
280
     0
281
     1
  0
CLASS
  1
ACMTHREADLINESTANDARDISO
  2
AmdtThreadLineStdISO
  3
"Amdt_StdImp|Product Description: AutoCAD Mechanical|Company: Autodesk, Inc."
 90
     1024
280
     0
281
     0
  0
CLASS
  1
ACMTHREADLINESTANDARDANSI
  2
AmdtThreadLineStdANSI
  3
"Amdt_StdImp|Product Description: AutoCAD Mechanical|Company: Autodesk, Inc."
 90
    33792
280
     0
281
     0
  0
CLASS
  1
AMDTNOTETEMPLATEDB
  2
AmdtNoteTemplateDB
  3
AcmSymBB|Product Description: AutoCAD Mechanical|Company: Autodesk, Inc.
 90
     1024
280
     0
281
     0
  0
CLASS
  1
DIMASSOC
  2
AcDbDimAssoc
  3
"AcDbDimAssoc|Product Desc:     AcDim ARX App For Dimension|Company:          Autodesk, Inc.|WEB Address:      www.autodesk.com"
 90
    32768
280
     0
281
     0
  0
CLASS
  1
ACAMSTDPCOMPDEF
  2
AcAmStdpCompDef
  3
DesignerAssemblies
 90
    33792
280
     0
281
     0
  0
CLASS
  1
ACRFATTGENMGR
  2
AcRfAttGeneralMgr
  3
AcAttribServices
 90
    33792
280
     0
281
     0
  0
CLASS
  1
ACRFOBJATTMGR
  2
AcRfObjAttGroupMgr
  3
AcAttribServices
 90
    33792
280
     0
281
     0
  0
CLASS
  1
ACRFMCADAPIATTHOLDER
  2
AcRfMCADAPIAttHolder
  3
AcAttribServices
 90
    33792
280
     0
281
     0
  0
CLASS
  1
AMDTSYSATTR
  2
AmdtSystemAttribute
  3
AcAttribServices
 90
    33792
280
     0
281
     0
  0
CLASS
  1
AC_AM_MVD_DEP_MGR
  2
AcAmMVDdepMgr
  3
DesignerAssemblies
 90
    33792
280
     0
281
     0
  0
CLASS
  1
AC_AM_MASTER_VIEW_DEF
  2
AcAmMasterViewDef
  3
DesignerAssemblies
 90
    33792
280
     0
281
     0
  0
CLASS
  1
AC_AM_DIRTY_NODES
  2
AcAmDirtyNodes
  3
DesignerAssemblies
 90
    33792
280
     0
281
     0
  0
CLASS
  1
ACAMMVDBACKUPOBJECT
  2
AcAmMVDBackupObject
  3
DesignerAssemblies
 90
    33792
280
     0
281
     0
  0
CLASS
  1
ACAMCOMP
  2
AcAmComp
  3
DesignerAssemblies
 90
    33792
280
     0
281
     0
  0
CLASS
  1
AC_AM_STDP_VIEW_DEF
  2
AcAmStdpViewDef
  3
DesignerAssemblies
 90
    33792
280
     0
281
     0
  0
CLASS
  1
AC_AM_COMP_VIEW_INST
  2
AcAmCompView
  3
DesignerAssemblies
 90
    33792
280
     0
281
     0
  0
CLASS
  1
AC_AM_PROPS_OVERRIDE
  2
AcAmPropertiesOverride
  3
DesignerAssemblies
 90
    33792
280
     0
281
     0
  0
CLASS
  1
AC_AM_OVERRIDE_FILTER
  2
AcAmOverrideFilter
  3
DesignerAssemblies
 90
    33792
280
     0
281
     0
  0
CLASS
  1
NEWSTDPARTPARLIST
  2
AmgNewParListFiler
  3
"AmgParList|Product Description: AutoCAD Mechanical|Company: Autodesk, Inc."
 90
    36863
280
     0
281
     0
  0
CLASS
  1
SORTENTSTABLE
  2
AcDbSortentsTable
  3
ObjectDBX Classes
 90
        0
280
     0
281
     0
  0
CLASS
  1
MATERIAL
  2
AcDbMaterial
  3
ObjectDBX Classes
 90
     1153
280
     0
281
     0
  0
CLASS
  1
VISUALSTYLE
  2
AcDbVisualStyle
  3
ObjectDBX Classes
 90
     4095
280
     0
281
     0
  0
CLASS
  1
TABLESTYLE
  2
AcDbTableStyle
  3
ObjectDBX Classes
 90
     4095
280
     0
281
     0
  0
CLASS
  1
AC_AM_MAPPER_CACHE
  2
AcAmMapperCache
  3
DesignerAssemblies
 90
    33792
280
     0
281
     0
  0
CLASS
  1
ACMTAPERSTANDARDISO
  2
AcmTaperStdISO
  3
"Amdt_StdImp|Product Description: AutoCAD Mechanical|Company: Autodesk, Inc."
 90
     1024
280
     0
281
     0
  0
CLASS
  1
ACMTAPERSTANDARDANSI
  2
AcmTaperStdANSI
  3
"Amdt_StdImp|Product Description: AutoCAD Mechanical|Company: Autodesk, Inc."
 90
    33792
280
     0
281
     0
  0
CLASS
  1
AC_AM_2D_XREF_MGR
  2
AcAmXrefMgr2d
  3
DesignerAssemblies
 90
    33792
280
     0
281
     0
  0
CLASS
  1
AC_AM_HIDE_SITUATION
  2
AcAmHideSituation
  3
DesignerAssemblies
 90
    33792
280
     0
281
     0
  0
CLASS
  1
AC_AM_SPRING_ROD_HIDE_SITUATION
  2
AcAmSpringRodHideSituation
  3
DesignerAssemblies
 90
    33792
280
     0
281
     0
  0
CLASS
  1
AC_AM_TRANSFORM_GHOST
  2
AcDbTransformGhost
  3
DesignerAssemblies
 90
    33792
280
     0
281
     1
  0
CLASS
  1
OBJCLONER
  2
ObjCloner
  3
DesignerAssemblies
 90
    33792
280
     0
281
     1
  0
CLASS
  1
ACAMWBLOCKTEMPENTS
  2
AcAmStructInOutTempObjsHolder
  3
DesignerAssemblies
 90
    33792
280
     0
281
     0
  0
CLASS
  1
AMDTEDGESTANDARDISO13715
  2
AmdtEdgeStdISO13715
  3
"Amdt_StdImp|Product Description: AutoCAD Mechanical|Company: Autodesk, Inc."
 90
     1024
280
     0
281
     0
  0
CLASS
  1
ACAMGHOLECHARTSTDISO
  2
AcAmgHoleChartStdISO
  3
AmgDim|Product Description: AutoCAD Mechanical|Company: Autodesk, Inc.
 90
     1024
280
     0
281
     0
  0
CLASS
  1
CAMSSTRUCTBTNSTATE
  2
StructBtnState
  3
DesignerAssemblies
 90
    33792
280
     0
281
     0
  0
CLASS
  1
ACAMGHOLECHARTSTDANSI
  2
AcAmgHoleChartStdANSI
  3
AmgDim|Product Description: AutoCAD Mechanical|Company: Autodesk, Inc.
 90
    33792
280
     0
281
     0
  0
CLASS
  1
SCALE
  2
AcDbScale
  3
ObjectDBX Classes
 90
     1153
280
     0
281
     0
  0
CLASS
  1
MLEADERSTYLE
  2
AcDbMLeaderStyle
  3
ACDB_MLEADERSTYLE_CLASS
 90
     4095
280
     0
281
     0
  0
CLASS
  1
ACMSURFSTANDARDISO2002
  2
AcmSurfTextStdISO2002
  3
"Amdt_StdImp|Product Description: AutoCAD Mechanical|Company: Autodesk, Inc."
 90
     1024
280
     0
281
     0
  0
CLASS
  1
ACMSECTIONSTANDARDISO2001
  2
AmdtSectionSymStdISO2001
  3
"Amdt_StdImp|Product Description: AutoCAD Mechanical|Company: Autodesk, Inc."
 90
     1024
280
     0
281
     0
  0
CLASS
  1
ACMANOOTATIONVIEWSTANDARDISO
  2
AmdtAnViewStdISO
  3
"Amdt_StdImp|Product Description: AutoCAD Mechanical|Company: Autodesk, Inc."
 90
     1024
280
     0
281
     0
  0
CLASS
  1
CELLSTYLEMAP
  2
AcDbCellStyleMap
  3
ObjectDBX Classes
 90
     1152
280
     0
281
     0
  0
ENDSEC
  0
SECTION
  2
TABLES
  0
TABLE
  2
VPORT
  5
8
102
{ACAD_XDICTIONARY
360
1DE12
102
}
330
0
100
AcDbSymbolTable
 70
     1
  0
VPORT
  5
1D6E6
330
8
100
AcDbSymbolTableRecord
100
AcDbViewportTableRecord
  2
*Active
 70
     0
 10
0.0
 20
0.0
 11
1.0
 21
1.0
 12
-99.51334874455936
 22
-11838.75018036445
 13
0.0
 23
0.0
 14
2.5
 24
2.5
 15
10.0
 25
10.0
 16
0.0
 26
0.0
 36
1.0
 17
0.0
 27
0.0
 37
0.0
 40
244.5201557534419
 41
1.645127118644067
 42
50.0
 43
-1370.695619172058
 44
-1370.695619172058
 50
0.0
 51
0.0
 71
     0
 72
   100
 73
     1
 74
     3
 75
     0
 76
     0
 77
     0
 78
     0
281
     0
 65
     0
110
0.0
120
0.0
130
0.0
111
1.0
121
0.0
131
0.0
112
0.0
122
1.0
132
0.0
 79
     0
146
0.0
  0
ENDTAB
  0
TABLE
  2
LTYPE
  5
5
330
0
100
AcDbSymbolTable
 70
    33
  0
LTYPE
  5
14
330
5
100
AcDbSymbolTableRecord
100
AcDbLinetypeTableRecord
  2
ByBlock
 70
     0
  3

 72
    65
 73
     0
 40
0.0
  0
LTYPE
  5
15
330
5
100
AcDbSymbolTableRecord
100
AcDbLinetypeTableRecord
  2
ByLayer
 70
     0
  3

 72
    65
 73
     0
 40
0.0
  0
LTYPE
  5
16
330
5
100
AcDbSymbolTableRecord
100
AcDbLinetypeTableRecord
  2
Continuous
 70
     0
  3
Solid line
 72
    65
 73
     0
 40
0.0
  0
LTYPE
  5
4F
330
5
100
AcDbSymbolTableRecord
100
AcDbLinetypeTableRecord
  2
AM_ISO02W050
 70
     0
  3
__ __ __ __ __ __ __ __ __ __ __ __ __ __ __
 72
    65
 73
     2
 40
7.5
 49
6.0
 74
     0
 49
-1.5
 74
     0
  0
LTYPE
  5
52
330
5
100
AcDbSymbolTableRecord
100
AcDbLinetypeTableRecord
  2
Amconstr
 70
     0
  3
_______________________
 72
    65
 73
     2
 40
9999.0
 49
9999.0
 74
     0
 49
0.0
 74
     0
  0
LTYPE
  5
64
330
5
100
AcDbSymbolTableRecord
100
AcDbLinetypeTableRecord
  2
ACISOWELD
 70
     0
  3
_ _ _ _ _
 72
    65
 73
     2
 40
2.0
 49
2.0
 74
     0
 49
-1.0
 74
     0
  0
LTYPE
  5
65
330
5
100
AcDbSymbolTableRecord
100
AcDbLinetypeTableRecord
  2
ACISOTGB
 70
     0
  3
__ . . __ . .
 72
    65
 73
     6
 40
9.0
 49
4.0
 74
     0
 49
-1.0
 74
     0
 49
1.0
 74
     0
 49
-1.0
 74
     0
 49
1.0
 74
     0
 49
-1.0
 74
     0
  0
LTYPE
  5
66
330
5
100
AcDbSymbolTableRecord
100
AcDbLinetypeTableRecord
  2
ACISOTGL
 70
     0
  3
_ _ _ _ _
 72
    65
 73
     2
 40
3.0
 49
2.0
 74
     0
 49
-1.0
 74
     0
  0
LTYPE
  5
69
330
5
100
AcDbSymbolTableRecord
100
AcDbLinetypeTableRecord
  2
CENTER
 70
     0
  3
__ . __
 72
    65
 73
     4
 40
7.0
 49
4.0
 74
     0
 49
-1.0
 74
     0
 49
1.0
 74
     0
 49
-1.0
 74
     0
  0
LTYPE
  5
A6E
330
5
100
AcDbSymbolTableRecord
100
AcDbLinetypeTableRecord
  2
PHANTOM2
 70
     0
  3
Phantom (.5x) ___ _ _ ___ _ _ ___ _ _ ___ _ _
 72
    65
 73
     6
 40
31.75
 49
15.875
 74
     0
 49
-3.174999999999999
 74
     0
 49
3.174999999999999
 74
     0
 49
-3.174999999999999
 74
     0
 49
3.174999999999999
 74
     0
 49
-3.174999999999999
 74
     0
  0
LTYPE
  5
4DED
330
5
100
AcDbSymbolTableRecord
100
AcDbLinetypeTableRecord
  2
中線
 70
     0
  3
___________________
 72
    65
 73
     2
 40
2.0
 49
1.0
 74
     0
 49
1.0
 74
     0
  0
LTYPE
  5
4DF6
330
5
100
AcDbSymbolTableRecord
100
AcDbLinetypeTableRecord
  2
細線
 70
     0
  3
___________________
 72
    65
 73
     2
 40
2.0
 49
1.0
 74
     0
 49
1.0
 74
     0
  0
LTYPE
  5
4EA7
330
5
100
AcDbSymbolTableRecord
100
AcDbLinetypeTableRecord
  2
文字
 70
     0
  3
_________________
 72
    65
 73
     2
 40
2.0
 49
1.0
 74
     0
 49
1.0
 74
     0
  0
LTYPE
  5
4EA9
330
5
100
AcDbSymbolTableRecord
100
AcDbLinetypeTableRecord
  2
寸法線
 70
     0
  3
________________
 72
    65
 73
     2
 40
2.0
 49
1.0
 74
     0
 49
1.0
 74
     0
  0
LTYPE
  5
5180
330
5
100
AcDbSymbolTableRecord
100
AcDbLinetypeTableRecord
  2
陰線1
 70
     0
  3
__ __ __ __
 72
    65
 73
     2
 40
4.0
 49
2.2
 74
     0
 49
-1.8
 74
     0
  0
LTYPE
  5
5182
330
5
100
AcDbSymbolTableRecord
100
AcDbLinetypeTableRecord
  2
切断線
 70
     0
  3
/\/-/\/-/\/-/\/-/\/-/\/
 72
    65
 73
     2
 40
11.0001
 49
0.0001
 74
     4
 75
   135
340
56
 46
0.04
 50
0.0
 44
0.0
 45
0.0
 49
-11.0
 74
     0
  0
LTYPE
  5
5183
330
5
100
AcDbSymbolTableRecord
100
AcDbLinetypeTableRecord
  2
想像線1
 70
     0
  3
__ __ __ _____ __ __ ____
 72
    65
 73
     6
 40
14.5
 49
6.0
 74
     0
 49
-1.5
 74
     0
 49
2.0
 74
     0
 49
-1.5
 74
     0
 49
2.0
 74
     0
 49
-1.5
 74
     0
  0
LTYPE
  5
5185
330
5
100
AcDbSymbolTableRecord
100
AcDbLinetypeTableRecord
  2
中心線1
 70
     0
  3
___ _ ___ _ ___
 72
    65
 73
     4
 40
18.0
 49
12.0
 74
     0
 49
-2.0
 74
     0
 49
2.0
 74
     0
 49
-2.0
 74
     0
  0
LTYPE
  5
5188
330
5
100
AcDbSymbolTableRecord
100
AcDbLinetypeTableRecord
  2
補助線
 70
     0
  3
______________
 72
    65
 73
     2
 40
2.0
 49
1.0
 74
     0
 49
1.0
 74
     0
  0
LTYPE
  5
6427
330
5
100
AcDbSymbolTableRecord
100
AcDbLinetypeTableRecord
  2
HIDDEN
 70
     0
  3
Hidden __ __ __ __ __ __ __ __ __ __ __ __ __ _
 72
    65
 73
     2
 40
0.375
 49
0.25
 74
     0
 49
-0.125
 74
     0
  0
LTYPE
  5
26D18
330
5
100
AcDbSymbolTableRecord
100
AcDbLinetypeTableRecord
  2
AM_ISO08W050
 70
     0
  3
____ . ____ . ____ . ____ . ____ . ____ . ____
 72
    65
 73
     4
 40
18.0
 49
12.0
 74
     0
 49
-1.5
 74
     0
 49
3.0
 74
     0
 49
-1.5
 74
     0
  0
LTYPE
  5
26D19
330
5
100
AcDbSymbolTableRecord
100
AcDbLinetypeTableRecord
  2
AM_ISO09W050
 70
     0
  3
_____ . . _____ . . _____ . . ____ .. ____
 72
    65
 73
     6
 40
22.5
 49
12.0
 74
     0
 49
-1.5
 74
     0
 49
3.0
 74
     0
 49
-1.5
 74
     0
 49
3.0
 74
     0
 49
-1.5
 74
     0
  0
LTYPE
  5
26D1A
330
5
100
AcDbSymbolTableRecord
100
AcDbLinetypeTableRecord
  2
AM_ISO08W050x2
 70
     0
  3
__ . __ . __ . __ . __ . __
 72
    65
 73
     4
 40
9.0
 49
6.0
 74
     0
 49
-0.75
 74
     0
 49
1.5
 74
     0
 49
-0.75
 74
     0
  0
LTYPE
  5
26D1B
330
5
100
AcDbSymbolTableRecord
100
AcDbLinetypeTableRecord
  2
AM_ISO02W050x2
 70
     0
  3
 _ _ _ _ _ _ _ _ _ _ _ _
 72
    65
 73
     2
 40
3.75
 49
3.0
 74
     0
 49
-0.75
 74
     0
  0
LTYPE
  5
26D1E
330
5
100
AcDbSymbolTableRecord
100
AcDbLinetypeTableRecord
  2
Amzigzag
 70
     0
  3
/\/-/\/-/\/-/\/-/\/-/\/
 72
    65
 73
     2
 40
11.0001
 49
0.0001
 74
     4
 75
   136
340
26D1D
 46
0.04
 50
0.0
 44
0.0
 45
0.0
 49
-11.0
 74
     0
  0
LTYPE
  5
4F58D
330
5
100
AcDbSymbolTableRecord
100
AcDbLinetypeTableRecord
  2
DOT
 70
     0
  3
. . . . . . . . . . . . . . . . . . . . . . . .
 72
    65
 73
     2
 40
0.25
 49
0.0
 74
     0
 49
-0.25
 74
     0
  0
LTYPE
  5
4F591
330
5
100
AcDbSymbolTableRecord
100
AcDbLinetypeTableRecord
  2
ACANSTGB
 70
     0
  3
__ . . __ . .
 72
    65
 73
     6
 40
0.35433070866
 49
0.15748031496
 74
     0
 49
-0.03937007874
 74
     0
 49
0.03937007874
 74
     0
 49
-0.03937007874
 74
     0
 49
0.03937007874
 74
     0
 49
-0.03937007874
 74
     0
  0
LTYPE
  5
4F592
330
5
100
AcDbSymbolTableRecord
100
AcDbLinetypeTableRecord
  2
ACANSTGL
 70
     0
  3
_ _ _ _ _
 72
    65
 73
     2
 40
0.11811023622
 49
0.07874015748
 74
     0
 49
-0.03937007874
 74
     0
  0
LTYPE
  5
56CA8
330
5
100
AcDbSymbolTableRecord
100
AcDbLinetypeTableRecord
  2
CENTER2
 70
     0
  3
Center (.5x) ___ _ ___ _ ___ _ ___ _ ___ _ ___
 72
    65
 73
     4
 40
1.125
 49
0.75
 74
     0
 49
-0.125
 74
     0
 49
0.125
 74
     0
 49
-0.125
 74
     0
  0
LTYPE
  5
56CA9
330
5
100
AcDbSymbolTableRecord
100
AcDbLinetypeTableRecord
  2
HIDDEN2
 70
     0
  3
Hidden (.5x) _ _ _ _ _ _ _ _ _ _ _ _ _ _ _ _ _
 72
    65
 73
     2
 40
0.1875
 49
0.125
 74
     0
 49
-0.0625
 74
     0
  0
LTYPE
  5
56CAA
330
5
100
AcDbSymbolTableRecord
100
AcDbLinetypeTableRecord
  2
AMZIGZAG2
 70
     0
  3
/\/-/\/-/\/-/\/-/\/-/\/
 72
    65
 73
     2
 40
0.4401
 49
0.0001
 74
     0
 49
-0.4400000000000002
 74
     0
  0
LTYPE
  5
56CAB
330
5
100
AcDbSymbolTableRecord
100
AcDbLinetypeTableRecord
  2
DASHED
 70
     0
  3
__ __ __ __ __ __ __ __ __ __ __ __ __ __ __
 72
    65
 73
     2
 40
3.5
 49
2.0
 74
     0
 49
-1.5
 74
     0
  0
LTYPE
  5
5755D
330
5
100
AcDbSymbolTableRecord
100
AcDbLinetypeTableRecord
  2
PHANTOM
 70
     0
  3
_____ _ _ _____ _ _ _____ _ _ _____ _ _ ____  
 72
    65
 73
     6
 40
15.5
 49
8.0
 74
     0
 49
-1.5
 74
     0
 49
1.5
 74
     0
 49
-1.5
 74
     0
 49
1.5
 74
     0
 49
-1.5
 74
     0
  0
LTYPE
  5
5C344
330
5
100
AcDbSymbolTableRecord
100
AcDbLinetypeTableRecord
  2
太線
 70
     0
  3
___________________
 72
    65
 73
     2
 40
2.0
 49
1.0
 74
     0
 49
1.0
 74
     0
  0
LTYPE
  5
5C345
330
5
100
AcDbSymbolTableRecord
100
AcDbLinetypeTableRecord
  2
ハッチング
 70
     0
  3
_________________
 72
    65
 73
     2
 40
2.0
 49
1.0
 74
     0
 49
1.0
 74
     0
  0
ENDTAB
  0
TABLE
  2
LAYER
  5
2
102
{ACAD_XDICTIONARY
360
3F95
102
}
330
0
100
AcDbSymbolTable
 70
    20
  0
LAYER
  5
10
102
{ACAD_XDICTIONARY
360
5C8EE
102
}
330
2
100
AcDbSymbolTableRecord
100
AcDbLayerTableRecord
  2
0
 70
     0
 62
     7
  6
Continuous
370
    -3
390
F
  0
LAYER
  5
6D1
330
2
100
AcDbSymbolTableRecord
100
AcDbLayerTableRecord
  2
Defpoints
 70
     0
 62
     7
  6
Continuous
290
     0
370
    -3
390
F
  0
LAYER
  5
A46
102
{ACAD_XDICTIONARY
360
5C8F0
102
}
330
2
100
AcDbSymbolTableRecord
100
AcDbLayerTableRecord
  2
size
 70
     0
 62
     5
  6
Continuous
290
     0
370
    30
390
F
  0
LAYER
  5
A47
102
{ACAD_XDICTIONARY
360
5C8F2
102
}
330
2
100
AcDbSymbolTableRecord
100
AcDbLayerTableRecord
  2
waku
 70
     0
 62
     7
  6
Continuous
370
    40
390
F
  0
LAYER
  5
A48
102
{ACAD_XDICTIONARY
360
5C8F4
102
}
330
2
100
AcDbSymbolTableRecord
100
AcDbLayerTableRecord
  2
AM_6
 70
     0
 62
     2
  6
文字
370
    20
390
F
  0
LAYER
  5
3A31
102
{ACAD_XDICTIONARY
360
5C8F6
102
}
330
2
100
AcDbSymbolTableRecord
100
AcDbLayerTableRecord
  2
hyosen1
 70
     0
 62
     1
  6
Continuous
370
    30
390
F
  0
LAYER
  5
5765
102
{ACAD_XDICTIONARY
360
5C8F8
102
}
330
2
100
AcDbSymbolTableRecord
100
AcDbLayerTableRecord
  2
hyomoji
 70
     0
 62
     2
  6
Continuous
370
    20
390
F
  0
LAYER
  5
591A
102
{ACAD_XDICTIONARY
360
5C8FA
102
}
330
2
100
AcDbSymbolTableRecord
100
AcDbLayerTableRecord
  2
hyosen2
 70
     0
 62
     1
  6
Continuous
370
    20
390
F
  0
LAYER
  5
5F85
102
{ACAD_XDICTIONARY
360
5C8FC
102
}
330
2
100
AcDbSymbolTableRecord
100
AcDbLayerTableRecord
  2
AM_0
 70
     0
 62
     7
  6
中線
370
    30
390
F
  0
LAYER
  5
5F87
102
{ACAD_XDICTIONARY
360
5C8FE
102
}
330
2
100
AcDbSymbolTableRecord
100
AcDbLayerTableRecord
  2
AM_2
 70
     0
 62
     1
  6
細線
370
    20
390
F
  0
LAYER
  5
5F88
102
{ACAD_XDICTIONARY
360
5C900
102
}
330
2
100
AcDbSymbolTableRecord
100
AcDbLayerTableRecord
  2
AM_3
 70
     0
 62
     6
  6
陰線1
370
    20
390
F
  0
LAYER
  5
5F89
102
{ACAD_XDICTIONARY
360
5C902
102
}
330
2
100
AcDbSymbolTableRecord
100
AcDbLayerTableRecord
  2
AM_4
 70
     0
 62
     3
  6
補助線
370
    20
390
F
  0
LAYER
  5
5F8A
102
{ACAD_XDICTIONARY
360
5C904
102
}
330
2
100
AcDbSymbolTableRecord
100
AcDbLayerTableRecord
  2
AM_5
 70
     0
 62
     3
  6
寸法線
370
    20
390
F
  0
LAYER
  5
5F8B
102
{ACAD_XDICTIONARY
360
5C906
102
}
330
2
100
AcDbSymbolTableRecord
100
AcDbLayerTableRecord
  2
AM_7
 70
     0
 62
     4
  6
中心線1
370
    20
390
F
  0
LAYER
  5
65AF
102
{ACAD_XDICTIONARY
360
5C908
102
}
330
2
100
AcDbSymbolTableRecord
100
AcDbLayerTableRecord
  2
AM_11
 70
     0
 62
     2
  6
想像線1
370
    20
390
F
  0
LAYER
  5
26D55
102
{ACAD_XDICTIONARY
360
5C90A
102
}
330
2
100
AcDbSymbolTableRecord
100
AcDbLayerTableRecord
  2
AM_CL
 70
     0
 62
     1
  6
Amconstr
370
    25
390
F
1001
ACAECLAYERSTANDARD
1000

1000

  0
LAYER
  5
4F593
102
{ACAD_XDICTIONARY
360
5C90C
102
}
330
2
100
AcDbSymbolTableRecord
100
AcDbLayerTableRecord
  2
LEVEL001
 70
     0
 62
     7
  6
Continuous
370
    -3
390
F
  0
LAYER
  5
572A7
102
{ACAD_XDICTIONARY
360
5C90E
102
}
330
2
100
AcDbSymbolTableRecord
100
AcDbLayerTableRecord
  2
1
 70
     0
 62
     7
  6
Continuous
370
    -3
390
F
  0
LAYER
  5
572A8
102
{ACAD_XDICTIONARY
360
5C910
102
}
330
2
100
AcDbSymbolTableRecord
100
AcDbLayerTableRecord
  2
5
 70
     0
 62
     7
  6
Continuous
370
    -3
390
F
  0
LAYER
  5
5897B
102
{ACAD_XDICTIONARY
360
5C912
102
}
330
2
100
AcDbSymbolTableRecord
100
AcDbLayerTableRecord
  2
2
 70
     0
 62
     7
  6
Continuous
370
    -3
390
F
  0
ENDTAB
  0
TABLE
  2
STYLE
  5
3
330
0
100
AcDbSymbolTable
 70
    11
  0
STYLE
  5
11
330
3
100
AcDbSymbolTableRecord
100
AcDbTextStyleTableRecord
  2
STANDARD
 70
     0
 40
0.0
 41
0.7
 50
0.0
 71
     0
 42
3.2
  3
romans.shx
  4
extfont.shx
  0
STYLE
  5
56
330
3
100
AcDbSymbolTableRecord
100
AcDbTextStyleTableRecord
  2

 70
     1
 40
0.0
 41
1.0
 50
0.0
 71
     0
 42
2.5
  3
ltypeshp.shx
  4

  0
STYLE
  5
58
330
3
100
AcDbSymbolTableRecord
100
AcDbTextStyleTableRecord
  2
ACISOTS
 70
     0
 40
1.0
 41
1.0
 50
0.0
 71
     0
 42
2.5
  3
isocp.shx
  4
extfont.shx
  0
STYLE
  5
63
330
3
100
AcDbSymbolTableRecord
100
AcDbTextStyleTableRecord
  2
ACISOGDT
 70
     0
 40
0.0
 41
1.0
 50
0.0
 71
     0
 42
2.5
  3
amgdt.shx
  4

  0
STYLE
  5
A74
330
3
100
AcDbSymbolTableRecord
100
AcDbTextStyleTableRecord
  2
DIM
 70
     0
 40
0.0
 41
1.0
 50
0.0
 71
     0
 42
2.5
  3
monotxt.shx
  4
extfont.shx
  0
STYLE
  5
26D1D
330
3
100
AcDbSymbolTableRecord
100
AcDbTextStyleTableRecord
  2

 70
     1
 40
0.0
 41
1.0
 50
0.0
 71
     0
 42
3.2
  3
genltshp.shx
  4

  0
STYLE
  5
4F594
330
3
100
AcDbSymbolTableRecord
100
AcDbTextStyleTableRecord
  2
GMM001
 70
     0
 40
0.0
 41
1.0
 50
0.0
 71
     0
 42
1.0
  3
txt.shx
  4
bigfont.shx
  0
STYLE
  5
4F595
330
3
100
AcDbSymbolTableRecord
100
AcDbTextStyleTableRecord
  2
GMM002
 70
     0
 40
0.0
 41
1.0
 50
0.0
 71
     0
 42
1.0
  3
MSgothic.ttf
  4

1001
ACAD
1000
ＭＳ ゴシック
1071
    32817
  0
STYLE
  5
4F596
330
3
100
AcDbSymbolTableRecord
100
AcDbTextStyleTableRecord
  2
ACANSTS
 70
     0
 40
1.0
 41
1.0
 50
0.0
 71
     0
 42
0.2
  3
romans.shx
  4
extfont.shx
  0
STYLE
  5
4F597
330
3
100
AcDbSymbolTableRecord
100
AcDbTextStyleTableRecord
  2
ACANSGDT
 70
     0
 40
0.0
 41
1.0
 50
0.0
 71
     0
 42
0.2
  3
amgdt.shx
  4

  0
ENDTAB
  0
TABLE
  2
VIEW
  5
6
330
0
100
AcDbSymbolTable
 70
     6
  0
VIEW
  5
AE1
330
6
100
AcDbSymbolTableRecord
100
AcDbViewTableRecord
  2
AM_VIEW1
 70
     0
 40
222.9747729566097
 10
2555.22721656747
 20
-10964.47524524976
 41
297.0
 11
0.0
 21
0.0
 31
1.0
 12
0.0
 22
0.0
 32
0.0
 42
50.0
 43
-1370.695619172058
 44
-1370.695619172058
 50
0.0
 71
     0
281
     0
 72
     0
  0
VIEW
  5
AE2
330
6
100
AcDbSymbolTableRecord
100
AcDbViewTableRecord
  2
AM_VIEW2
 70
     0
 40
222.9747729566097
 10
2852.22721656747
 20
-10964.47524524976
 41
297.0
 11
0.0
 21
0.0
 31
1.0
 12
0.0
 22
0.0
 32
0.0
 42
50.0
 43
-1370.695619172058
 44
-1370.695619172058
 50
0.0
 71
     0
281
     0
 72
     0
  0
VIEW
  5
AE3
330
6
100
AcDbSymbolTableRecord
100
AcDbViewTableRecord
  2
AM_VIEW3
 70
     0
 40
222.9747729566097
 10
2555.22721656747
 20
-11161.50047229315
 41
297.0
 11
0.0
 21
0.0
 31
1.0
 12
0.0
 22
0.0
 32
0.0
 42
50.0
 43
-1370.695619172058
 44
-1370.695619172058
 50
0.0
 71
     0
281
     0
 72
     0
  0
VIEW
  5
AE4
330
6
100
AcDbSymbolTableRecord
100
AcDbViewTableRecord
  2
AM_VIEW4
 70
     0
 40
222.9747729566097
 10
2852.22721656747
 20
-11161.50047229315
 41
297.0
 11
0.0
 21
0.0
 31
1.0
 12
0.0
 22
0.0
 32
0.0
 42
50.0
 43
-1370.695619172058
 44
-1370.695619172058
 50
0.0
 71
     0
281
     0
 72
     0
  0
VIEW
  5
AE5
330
6
100
AcDbSymbolTableRecord
100
AcDbViewTableRecord
  2
AM_VIEW5
 70
     0
 40
222.9747729566079
 10
2703.727216567469
 20
-11062.98785877146
 41
297.0
 11
0.0
 21
0.0
 31
1.0
 12
0.0
 22
0.0
 32
0.0
 42
50.0
 43
-1370.695619172058
 44
-1370.695619172058
 50
0.0
 71
     0
281
     0
 72
     0
  0
VIEW
  5
AE6
330
6
100
AcDbSymbolTableRecord
100
AcDbViewTableRecord
  2
AM_VIEW6
 70
     0
 40
445.9450864177597
 10
2703.727216567469
 20
-11062.98785877146
 41
593.9940599999999
 11
0.0
 21
0.0
 31
1.0
 12
0.0
 22
0.0
 32
0.0
 42
50.0
 43
-1370.695619172058
 44
-1370.695619172058
 50
0.0
 71
     0
281
     0
 72
     0
  0
ENDTAB
  0
TABLE
  2
UCS
  5
7
330
0
100
AcDbSymbolTable
 70
     0
  0
ENDTAB
  0
TABLE
  2
APPID
  5
9
330
0
100
AcDbSymbolTable
 70
    95
  0
APPID
  5
12
330
9
100
AcDbSymbolTableRecord
100
AcDbRegAppTableRecord
  2
ACAD
 70
     0
  0
APPID
  5
30
330
9
100
AcDbSymbolTableRecord
100
AcDbRegAppTableRecord
  2
MCAD_NO_VIS
 70
     0
  0
APPID
  5
31
330
9
100
AcDbSymbolTableRecord
100
AcDbRegAppTableRecord
  2
ACAD_TEMP_GRAPHIC
 70
     0
  0
APPID
  5
44
330
9
100
AcDbSymbolTableRecord
100
AcDbRegAppTableRecord
  2
ACATTRIBSERVICES
 70
     0
  0
APPID
  5
7A1
330
9
100
AcDbSymbolTableRecord
100
AcDbRegAppTableRecord
  2
GENIUS_GENDIMSH_14
 70
     0
  0
APPID
  5
A49
330
9
100
AcDbSymbolTableRecord
100
AcDbRegAppTableRecord
  2
GENIUS_GENREC_14
 70
     0
  0
APPID
  5
A4A
330
9
100
AcDbSymbolTableRecord
100
AcDbRegAppTableRecord
  2
GENIUS_GENOBJ-N-REC_13
 70
     0
  0
APPID
  5
A4B
330
9
100
AcDbSymbolTableRecord
100
AcDbRegAppTableRecord
  2
GENIUS_GENODEF_13
 70
     0
  0
APPID
  5
A4C
330
9
100
AcDbSymbolTableRecord
100
AcDbRegAppTableRecord
  2
DCO15
 70
     0
  0
APPID
  5
ADC
330
9
100
AcDbSymbolTableRecord
100
AcDbRegAppTableRecord
  2
GENIUS_GENOLIS_13
 70
     0
  0
APPID
  5
ADD
330
9
100
AcDbSymbolTableRecord
100
AcDbRegAppTableRecord
  2
GENIUS_GENOENT_13
 70
     0
  0
APPID
  5
ADE
330
9
100
AcDbSymbolTableRecord
100
AcDbRegAppTableRecord
  2
GENIUS_GENOBJ-N-TIT_13
 70
     0
  0
APPID
  5
ADF
330
9
100
AcDbSymbolTableRecord
100
AcDbRegAppTableRecord
  2
GENIUS_GENTITLE_13
 70
     0
  0
APPID
  5
AE0
330
9
100
AcDbSymbolTableRecord
100
AcDbRegAppTableRecord
  2
GENIUS_GENOREF_13
 70
     0
  0
APPID
  5
AE7
330
9
100
AcDbSymbolTableRecord
100
AcDbRegAppTableRecord
  2
GENIUS_GENSCREG_15
 70
     0
  0
APPID
  5
AE8
330
9
100
AcDbSymbolTableRecord
100
AcDbRegAppTableRecord
  2
GENIUS_GENOBJ-N-SDF_13
 70
     0
  0
APPID
  5
FAF
330
9
100
AcDbSymbolTableRecord
100
AcDbRegAppTableRecord
  2
GENIUS_GENBLLY_14
 70
     0
  0
APPID
  5
FB0
330
9
100
AcDbSymbolTableRecord
100
AcDbRegAppTableRecord
  2
GENIUS_GENTRA_14
 70
     0
  0
APPID
  5
1285
330
9
100
AcDbSymbolTableRecord
100
AcDbRegAppTableRecord
  2
GENIUS_GENDTOL_13
 70
     0
  0
APPID
  5
142D
330
9
100
AcDbSymbolTableRecord
100
AcDbRegAppTableRecord
  2
GENIUS_GENOBJ-N-CEN_13
 70
     0
  0
APPID
  5
1AB5
330
9
100
AcDbSymbolTableRecord
100
AcDbRegAppTableRecord
  2
GENIUS_GENOBJ-N-CRS_13
 70
     0
  0
APPID
  5
1B36
330
9
100
AcDbSymbolTableRecord
100
AcDbRegAppTableRecord
  2
GENIUS_GENOBJ-N-HTC_13
 70
     0
  0
APPID
  5
1B37
330
9
100
AcDbSymbolTableRecord
100
AcDbRegAppTableRecord
  2
GENIUS_GENHATCH_13
 70
     0
  0
APPID
  5
216D
330
9
100
AcDbSymbolTableRecord
100
AcDbRegAppTableRecord
  2
GENIUS_GENOBJ-N-FIL_13
 70
     0
  0
APPID
  5
2356
330
9
100
AcDbSymbolTableRecord
100
AcDbRegAppTableRecord
  2
GEVID990412420
 70
     0
  0
APPID
  5
2357
330
9
100
AcDbSymbolTableRecord
100
AcDbRegAppTableRecord
  2
GEVDC
 70
     0
  0
APPID
  5
2358
330
9
100
AcDbSymbolTableRecord
100
AcDbRegAppTableRecord
  2
GEVCON
 70
     0
  0
APPID
  5
235B
330
9
100
AcDbSymbolTableRecord
100
AcDbRegAppTableRecord
  2
GEVRADREF
 70
     0
  0
APPID
  5
2360
330
9
100
AcDbSymbolTableRecord
100
AcDbRegAppTableRecord
  2
GENIUS_GENBH_13
 70
     0
  0
APPID
  5
2362
330
9
100
AcDbSymbolTableRecord
100
AcDbRegAppTableRecord
  2
GENIUS_GENOBJ-NBEHI-BHF_13
 70
     0
  0
APPID
  5
2364
330
9
100
AcDbSymbolTableRecord
100
AcDbRegAppTableRecord
  2
GENIUS_GENOBJ-NBEHI-BHB_13
 70
     0
  0
APPID
  5
2379
330
9
100
AcDbSymbolTableRecord
100
AcDbRegAppTableRecord
  2
GENIUS_GENOBJ-F-SCPASSM_13
 70
     0
  0
APPID
  5
3D74
330
9
100
AcDbSymbolTableRecord
100
AcDbRegAppTableRecord
  2
GENIUS_GENDIM_13
 70
     0
  0
APPID
  5
3D76
330
9
100
AcDbSymbolTableRecord
100
AcDbRegAppTableRecord
  2
GENIUS_GE3DTOL_13
 70
     0
  0
APPID
  5
3D9C
330
9
100
AcDbSymbolTableRecord
100
AcDbRegAppTableRecord
  2
AD_DRAW
 70
     0
  0
APPID
  5
3DE8
330
9
100
AcDbSymbolTableRecord
100
AcDbRegAppTableRecord
  2
ASURF_PCURVE_APPNAME
 70
     0
  0
APPID
  5
3DED
330
9
100
AcDbSymbolTableRecord
100
AcDbRegAppTableRecord
  2
AMG_3D2D_5.0
 70
     0
  0
APPID
  5
3E1B
330
9
100
AcDbSymbolTableRecord
100
AcDbRegAppTableRecord
  2
DESIGNERASSEMBLIES
 70
     0
  0
APPID
  5
3E20
330
9
100
AcDbSymbolTableRecord
100
AcDbRegAppTableRecord
  2
ACADM_DIM_EDIT
 70
     0
  0
APPID
  5
3E21
330
9
100
AcDbSymbolTableRecord
100
AcDbRegAppTableRecord
  2
AMDT_DM_ADJ
 70
     0
  0
APPID
  5
4143
330
9
100
AcDbSymbolTableRecord
100
AcDbRegAppTableRecord
  2
GENIUS_GENFIL_13
 70
     0
  0
APPID
  5
4144
330
9
100
AcDbSymbolTableRecord
100
AcDbRegAppTableRecord
  2
GENIUS_GENOBJ-N-CHA_13
 70
     0
  0
APPID
  5
4E17
330
9
100
AcDbSymbolTableRecord
100
AcDbRegAppTableRecord
  2
GEVID1008153417
 70
     0
  0
APPID
  5
4E58
330
9
100
AcDbSymbolTableRecord
100
AcDbRegAppTableRecord
  2
GEVID1008153418
 70
     0
  0
APPID
  5
4E5E
330
9
100
AcDbSymbolTableRecord
100
AcDbRegAppTableRecord
  2
GEVID1008153419
 70
     0
  0
APPID
  5
4E64
330
9
100
AcDbSymbolTableRecord
100
AcDbRegAppTableRecord
  2
GEVID1008153420
 70
     0
  0
APPID
  5
4E75
330
9
100
AcDbSymbolTableRecord
100
AcDbRegAppTableRecord
  2
GEVID1008153421
 70
     0
  0
APPID
  5
4EB7
330
9
100
AcDbSymbolTableRecord
100
AcDbRegAppTableRecord
  2
GENIUS_AMGTXT_16
 70
     0
  0
APPID
  5
7645
330
9
100
AcDbSymbolTableRecord
100
AcDbRegAppTableRecord
  2
GENIUS_GENOBJ-N-DIM_13
 70
     0
  0
APPID
  5
19403
330
9
100
AcDbSymbolTableRecord
100
AcDbRegAppTableRecord
  2
GEVID1129857778
 70
     0
  0
APPID
  5
1941E
330
9
100
AcDbSymbolTableRecord
100
AcDbRegAppTableRecord
  2
AMG_2DHIDE
 70
     0
  0
APPID
  5
1941F
330
9
100
AcDbSymbolTableRecord
100
AcDbRegAppTableRecord
  2
AMG_2DSTRUCT_BTR
 70
     0
  0
APPID
  5
19431
330
9
100
AcDbSymbolTableRecord
100
AcDbRegAppTableRecord
  2
ACADM_2DVIEW_IGN_NOTIFY
 70
     0
  0
APPID
  5
1C436
330
9
100
AcDbSymbolTableRecord
100
AcDbRegAppTableRecord
  2
ACAD_DSTYLE_DIMARC_LENGTH_SYMBOL
 70
     0
  0
APPID
  5
1C437
330
9
100
AcDbSymbolTableRecord
100
AcDbRegAppTableRecord
  2
ACAD_DSTYLE_DIMJOGGED_JOGANGLE_SYMBOL
 70
     0
  0
APPID
  5
1C438
330
9
100
AcDbSymbolTableRecord
100
AcDbRegAppTableRecord
  2
ACAD_PSEXT
 70
     0
  0
APPID
  5
1C439
330
9
100
AcDbSymbolTableRecord
100
AcDbRegAppTableRecord
  2
ACAECLAYERSTANDARD
 70
     0
  0
APPID
  5
1DDCD
330
9
100
AcDbSymbolTableRecord
100
AcDbRegAppTableRecord
  2
ACAD_EXEMPT_FROM_CAD_STANDARDS
 70
     0
  0
APPID
  5
1EA8C
330
9
100
AcDbSymbolTableRecord
100
AcDbRegAppTableRecord
  2
GENIUS_GENCEN_19
 70
     0
  0
APPID
  5
23356
330
9
100
AcDbSymbolTableRecord
100
AcDbRegAppTableRecord
  2
GEVID1213144138
 70
     0
  0
APPID
  5
23376
330
9
100
AcDbSymbolTableRecord
100
AcDbRegAppTableRecord
  2
GEVID1213144139
 70
     0
  0
APPID
  5
233CB
330
9
100
AcDbSymbolTableRecord
100
AcDbRegAppTableRecord
  2
GEVID1213144140
 70
     0
  0
APPID
  5
233E8
330
9
100
AcDbSymbolTableRecord
100
AcDbRegAppTableRecord
  2
GENIUS_GEFSPRING_13
 70
     0
  0
APPID
  5
23412
330
9
100
AcDbSymbolTableRecord
100
AcDbRegAppTableRecord
  2
GEVID1213144141
 70
     0
  0
APPID
  5
2343D
330
9
100
AcDbSymbolTableRecord
100
AcDbRegAppTableRecord
  2
GEVID1213144142
 70
     0
  0
APPID
  5
2343F
330
9
100
AcDbSymbolTableRecord
100
AcDbRegAppTableRecord
  2
GEVID1213144143
 70
     0
  0
APPID
  5
23441
330
9
100
AcDbSymbolTableRecord
100
AcDbRegAppTableRecord
  2
GEVID1213144144
 70
     0
  0
APPID
  5
23473
330
9
100
AcDbSymbolTableRecord
100
AcDbRegAppTableRecord
  2
GEVID1213144146
 70
     0
  0
APPID
  5
23474
330
9
100
AcDbSymbolTableRecord
100
AcDbRegAppTableRecord
  2
GEVID1213144147
 70
     0
  0
APPID
  5
234B2
330
9
100
AcDbSymbolTableRecord
100
AcDbRegAppTableRecord
  2
GEVID1213144148
 70
     0
  0
APPID
  5
234B3
330
9
100
AcDbSymbolTableRecord
100
AcDbRegAppTableRecord
  2
GEVID1213144149
 70
     0
  0
APPID
  5
234B5
330
9
100
AcDbSymbolTableRecord
100
AcDbRegAppTableRecord
  2
GEVID1213144150
 70
     0
  0
APPID
  5
234B6
330
9
100
AcDbSymbolTableRecord
100
AcDbRegAppTableRecord
  2
GEVID1213144151
 70
     0
  0
APPID
  5
2356B
330
9
100
AcDbSymbolTableRecord
100
AcDbRegAppTableRecord
  2
GEVID1213144152
 70
     0
  0
APPID
  5
2356D
330
9
100
AcDbSymbolTableRecord
100
AcDbRegAppTableRecord
  2
GEVID1213144153
 70
     0
  0
APPID
  5
295EE
330
9
100
AcDbSymbolTableRecord
100
AcDbRegAppTableRecord
  2
GEVID1215060123
 70
     0
  0
APPID
  5
295F8
330
9
100
AcDbSymbolTableRecord
100
AcDbRegAppTableRecord
  2
GEVID1215060124
 70
     0
  0
APPID
  5
295FD
330
9
100
AcDbSymbolTableRecord
100
AcDbRegAppTableRecord
  2
GEVID1215060125
 70
     0
  0
APPID
  5
29602
330
9
100
AcDbSymbolTableRecord
100
AcDbRegAppTableRecord
  2
GEVID1215060126
 70
     0
  0
APPID
  5
29607
330
9
100
AcDbSymbolTableRecord
100
AcDbRegAppTableRecord
  2
GEVID1215060127
 70
     0
  0
APPID
  5
2960C
330
9
100
AcDbSymbolTableRecord
100
AcDbRegAppTableRecord
  2
GEVID1215060128
 70
     0
  0
APPID
  5
29611
330
9
100
AcDbSymbolTableRecord
100
AcDbRegAppTableRecord
  2
GEVID1215060129
 70
     0
  0
APPID
  5
29616
330
9
100
AcDbSymbolTableRecord
100
AcDbRegAppTableRecord
  2
GEVID1215060130
 70
     0
  0
APPID
  5
29633
330
9
100
AcDbSymbolTableRecord
100
AcDbRegAppTableRecord
  2
GEVID1215060131
 70
     0
  0
APPID
  5
2963A
330
9
100
AcDbSymbolTableRecord
100
AcDbRegAppTableRecord
  2
GEVID1215060132
 70
     0
  0
APPID
  5
2963F
330
9
100
AcDbSymbolTableRecord
100
AcDbRegAppTableRecord
  2
GEVID1215060133
 70
     0
  0
APPID
  5
48D6F
330
9
100
AcDbSymbolTableRecord
100
AcDbRegAppTableRecord
  2
GEVID1221205362
 70
     0
  0
APPID
  5
48D7E
330
9
100
AcDbSymbolTableRecord
100
AcDbRegAppTableRecord
  2
GEVID1221205363
 70
     0
  0
APPID
  5
48D84
330
9
100
AcDbSymbolTableRecord
100
AcDbRegAppTableRecord
  2
GEVID1221205364
 70
     0
  0
APPID
  5
48D8A
330
9
100
AcDbSymbolTableRecord
100
AcDbRegAppTableRecord
  2
GEVID1221205365
 70
     0
  0
APPID
  5
48D8F
330
9
100
AcDbSymbolTableRecord
100
AcDbRegAppTableRecord
  2
GEVID1221205366
 70
     0
  0
APPID
  5
48D98
330
9
100
AcDbSymbolTableRecord
100
AcDbRegAppTableRecord
  2
GEVID1221205367
 70
     0
  0
APPID
  5
48E1A
330
9
100
AcDbSymbolTableRecord
100
AcDbRegAppTableRecord
  2
GEVID1221205368
 70
     0
  0
APPID
  5
48E1F
330
9
100
AcDbSymbolTableRecord
100
AcDbRegAppTableRecord
  2
GEVID1221205369
 70
     0
  0
APPID
  5
5C790
330
9
100
AcDbSymbolTableRecord
100
AcDbRegAppTableRecord
  2
ACAD_MLEADERVER
 70
     0
  0
ENDTAB
  0
TABLE
  2
DIMSTYLE
  5
A
330
0
100
AcDbSymbolTable
 70
    33
100
AcDbDimStyleTable
 71
     2
340
2515
340
6C
  0
DIMSTYLE
105
6C
330
A
100
AcDbSymbolTableRecord
100
AcDbDimStyleTableRecord
  2
AM_ISO
 70
     0
  4
"
 41
2.5
 42
1.0
 43
10.0
 44
1.0
 47
0.1
 48
0.1
 73
     0
 74
     0
 77
     1
 78
     8
 79
     2
140
3.5
141
0.0
143
0.0393701
146
0.71
147
1.5
172
     1
176
   256
177
   256
178
     2
271
     2
272
     3
274
     4
283
     0
284
     8
340
11
371
    -1
372
    -1
  0
DIMSTYLE
105
6D
330
A
100
AcDbSymbolTableRecord
100
AcDbDimStyleTableRecord
  2
AM_ISO$3
 70
     0
  4
"
 41
0.8
 42
1.0
 43
10.0
 44
1.0
 47
0.1
 48
0.1
 73
     0
 77
     1
 78
     8
 79
     2
140
3.2
141
0.0
143
0.0393701
146
0.71
147
0.9999999999999996
176
   256
177
   256
178
     2
271
     2
272
     2
283
     0
284
     8
288
     1
289
     0
340
11
342
6C4
371
    -1
372
    -1
  0
DIMSTYLE
105
6E
330
A
100
AcDbSymbolTableRecord
100
AcDbDimStyleTableRecord
  2
AM_ISO$4
 70
     0
  4
"
 41
0.8
 42
1.0
 43
10.0
 44
1.0
 47
0.1
 48
0.1
 73
     0
 77
     1
 78
     8
 79
     2
140
3.2
141
0.0
143
0.0393701
146
0.71
147
1.0
173
     1
176
   256
177
   256
178
     2
271
     2
272
     2
283
     0
284
     8
288
     1
289
     0
340
11
344
6C4
371
    -1
372
    -1
  0
DIMSTYLE
105
6F
330
A
100
AcDbSymbolTableRecord
100
AcDbDimStyleTableRecord
  2
AM_ISO$6
 70
     0
  4
"
 41
0.8
 42
1.0
 43
10.0
 44
1.0
 47
0.1
 48
0.1
 73
     0
 74
     0
 78
     8
 79
     2
140
3.2
141
0.0
143
0.0393701
146
0.71
147
1.0
172
     1
176
   256
177
   256
178
     2
271
     2
272
     2
283
     0
284
     8
340
11
341
6C4
371
    -1
372
    -1
  0
DIMSTYLE
105
70
330
A
100
AcDbSymbolTableRecord
100
AcDbDimStyleTableRecord
  2
AM_ISO$7
 70
     0
  4
"
 41
0.8
 42
1.0
 43
10.0
 44
1.0
 47
0.1
 48
0.1
 73
     0
 74
     0
 77
     1
 78
     8
 79
     2
140
3.2
141
0.0
143
0.0393701
146
0.71
147
1.0
172
     1
176
   256
177
   256
178
     2
271
     2
272
     2
283
     0
284
     8
340
11
341
6C4
342
6C4
371
    -1
372
    -1
  0
DIMSTYLE
105
71
330
A
100
AcDbSymbolTableRecord
100
AcDbDimStyleTableRecord
  2
AM_ISO$SF
 70
     0
  4
"
 41
0.8
 42
1.0
 43
10.0
 44
1.0
 47
0.1
 48
0.1
 73
     0
 74
     0
 75
     1
 76
     1
 77
     1
 78
     8
 79
     2
140
3.2
141
0.0
143
0.0393701
146
0.71
147
1.0
172
     1
176
   256
177
   256
178
     2
271
     2
272
     2
283
     0
284
     8
340
11
341
6C4
342
6C4
371
    -1
372
    -1
  0
DIMSTYLE
105
76
330
A
100
AcDbSymbolTableRecord
100
AcDbDimStyleTableRecord
  2
AM_ISO$SH
 70
     0
  4
"
 41
0.8
 42
1.0
 43
10.0
 44
1.0
 47
0.1
 48
0.1
 73
     0
 74
     0
 75
     1
 76
     1
 77
     1
 78
     8
 79
     2
140
3.2
141
0.0
143
0.0393701
144
2.0
146
0.71
147
1.0
172
     1
176
   256
177
   256
178
     2
271
     2
272
     2
283
     0
284
     8
340
11
341
6C4
342
6C4
371
    -1
372
    -1
  0
DIMSTYLE
105
6BE
330
A
100
AcDbSymbolTableRecord
100
AcDbDimStyleTableRecord
  2
AM_ISO$0
 70
     0
  4
"
 41
0.8
 42
1.0
 43
10.0
 44
1.0
 47
0.1
 48
0.1
 73
     0
 74
     0
 77
     1
 78
     8
 79
     2
140
3.2
141
0.0
143
0.0393701
146
0.71
147
0.9999999999999996
172
     1
176
   256
177
   256
178
     2
271
     2
272
     2
283
     0
284
     8
340
11
341
6C4
342
6C4
371
    -1
372
    -1
  0
DIMSTYLE
105
6BF
330
A
100
AcDbSymbolTableRecord
100
AcDbDimStyleTableRecord
  2
AM_ISO$2
 70
     0
  4
"
 41
0.8
 42
1.0
 43
10.0
 44
1.0
 47
0.1
 48
0.1
 73
     0
 74
     0
 77
     3
 78
     8
 79
     2
140
3.200000000000001
141
0.0
143
0.0393701
146
0.71
147
0.9999999999999996
172
     1
176
   256
177
   256
178
     2
271
     2
272
     2
283
     0
284
     8
340
11
342
6C4
371
    -1
372
    -1
  0
DIMSTYLE
105
A76
330
A
100
AcDbSymbolTableRecord
100
AcDbDimStyleTableRecord
  2
STANDARD
 70
     0
 41
3.0
 42
1.0
 43
7.0
 44
2.0
 73
     0
 74
     0
 77
     1
140
2.799999999999999
141
0.0
143
0.0394
147
0.7
171
     4
172
     1
173
     1
176
     3
177
     3
178
     2
271
     3
272
     3
273
     8
274
     4
289
     0
340
A74
341
A66
343
A66
344
A66
  0
DIMSTYLE
105
2515
330
A
100
AcDbSymbolTableRecord
100
AcDbDimStyleTableRecord
  2
SYS
 70
     0
  4
"
 41
1.0
 42
1.0
 43
10.0
 44
1.0
 47
0.1
 48
0.1
 73
     0
 74
     0
 77
     1
 78
     8
 79
     2
140
3.5
141
0.0
143
0.0393701
146
0.71
147
1.5
172
     1
176
   256
177
   256
178
     7
271
     2
272
     2
283
     0
284
     8
340
11
371
    -1
372
    -1
  0
DIMSTYLE
105
2516
330
A
100
AcDbSymbolTableRecord
100
AcDbDimStyleTableRecord
  2
SYS$3
 70
     0
  4
"
 41
2.0
 42
1.0
 43
10.0
 44
1.0
 47
0.1
 48
0.1
 73
     0
 77
     1
 78
     8
 79
     2
140
3.5
141
0.0
143
0.0393701
146
0.71
147
1.5
176
   256
177
   256
178
     2
271
     2
272
     2
283
     0
284
     8
288
     1
340
11
342
A66
371
    -1
372
    -1
  0
DIMSTYLE
105
2517
330
A
100
AcDbSymbolTableRecord
100
AcDbDimStyleTableRecord
  2
SYS$4
 70
     0
  4
"
 41
2.0
 42
1.0
 43
10.0
 44
1.0
 47
0.1
 48
0.1
 73
     0
 77
     1
 78
     8
 79
     2
140
3.5
141
0.0
143
0.0393701
146
0.71
147
1.5
173
     1
176
   256
177
   256
178
     2
271
     2
272
     2
283
     0
284
     8
288
     1
340
11
344
A66
371
    -1
372
    -1
  0
DIMSTYLE
105
2518
330
A
100
AcDbSymbolTableRecord
100
AcDbDimStyleTableRecord
  2
SYS$6
 70
     0
  4
"
 41
2.0
 42
1.0
 43
10.0
 44
1.0
 47
0.1
 48
0.1
 73
     0
 74
     0
 78
     8
 79
     2
140
3.5
141
0.0
143
0.0393701
146
0.71
147
1.5
172
     1
176
   256
177
   256
178
     2
271
     2
272
     2
283
     0
284
     8
340
11
341
A66
371
    -1
372
    -1
  0
DIMSTYLE
105
2519
330
A
100
AcDbSymbolTableRecord
100
AcDbDimStyleTableRecord
  2
SYS$7
 70
     0
  4
"
 41
2.0
 42
1.0
 43
10.0
 44
1.0
 47
0.1
 48
0.1
 73
     0
 74
     0
 77
     1
 78
     8
 79
     2
140
5.0
141
0.0
143
0.0393701
146
0.71
147
1.5
172
     1
176
   256
177
   256
178
     2
271
     2
272
     2
283
     0
284
     8
340
11
341
A66
342
A66
371
    -1
372
    -1
  0
DIMSTYLE
105
251A
330
A
100
AcDbSymbolTableRecord
100
AcDbDimStyleTableRecord
  2
SYS$SF
 70
     0
  4
"
 41
2.5
 42
1.0
 43
10.0
 44
1.0
 47
0.1
 48
0.1
 73
     0
 74
     0
 75
     1
 76
     1
 77
     1
 78
     8
 79
     2
140
3.5
141
0.0
143
0.0393701
146
0.71
147
1.5
172
     1
176
   256
177
   256
178
     2
271
     2
272
     3
283
     0
284
     8
340
11
341
6C4
342
6C4
371
    -1
372
    -1
  0
DIMSTYLE
105
251B
330
A
100
AcDbSymbolTableRecord
100
AcDbDimStyleTableRecord
  2
SYS$SH
 70
     0
  4
"
 41
2.5
 42
1.0
 43
10.0
 44
1.0
 47
0.1
 48
0.1
 73
     0
 74
     0
 75
     1
 76
     1
 77
     1
 78
     8
 79
     2
140
3.5
141
0.0
143
0.0393701
144
2.0
146
0.71
147
1.5
172
     1
173
     1
176
   256
177
   256
178
     2
271
     2
272
     3
283
     0
284
     8
340
11
341
6C4
343
72
344
6C4
371
    -1
372
    -1
  0
DIMSTYLE
105
2A59
330
A
100
AcDbSymbolTableRecord
100
AcDbDimStyleTableRecord
  2
SYS$2
 70
     0
  4
"
 41
1.0
 42
1.0
 43
10.0
 44
1.0
 47
0.1
 48
0.1
 73
     0
 74
     0
 77
     1
 78
     8
 79
     2
140
3.5
141
0.0
143
0.0393701
146
0.71
147
1.5
172
     1
176
   256
177
   256
178
     2
271
     2
272
     2
283
     0
284
     8
340
11
342
6C4
371
    -1
372
    -1
  0
DIMSTYLE
105
2AAB
102
{ACAD_REACTORS
330
5BFFC
330
5BFFD
330
5BFFE
330
5BFFF
330
5C000
330
5C001
330
5C003
330
5C004
330
5C005
102
}
330
A
100
AcDbSymbolTableRecord
100
AcDbDimStyleTableRecord
  2
SYS$0
 70
     0
  4
"
 41
1.0
 42
1.0
 43
10.0
 44
1.0
 47
0.1
 48
0.1
 73
     0
 74
     0
 77
     1
 78
     8
 79
     2
140
3.200000000000001
141
0.0
143
0.0393701
146
0.71
147
1.5
172
     1
176
   256
177
   256
178
     2
271
     2
272
     2
283
     0
284
     8
340
11
341
A66
342
6C4
371
    -1
372
    -1
  0
DIMSTYLE
105
4F598
330
A
100
AcDbSymbolTableRecord
100
AcDbDimStyleTableRecord
  2
GMM001
 70
     0
 41
4.0
 42
2.0
 43
16.0
 44
2.0
 73
     0
 74
     0
 77
     3
 78
     8
140
8.0
141
2.0
143
0.0394
146
0.625
147
1.0
172
     1
173
     1
176
     3
177
     3
178
     3
271
     3
272
     0
275
     1
340
4F594
  0
DIMSTYLE
105
4F599
330
A
100
AcDbSymbolTableRecord
100
AcDbDimStyleTableRecord
  2
GMM002
 70
     0
 41
4.0
 42
2.0
 43
16.0
 44
2.0
 73
     0
 74
     0
 77
     3
 78
     8
140
8.0
141
2.0
143
0.0394
146
0.625
147
1.0
172
     1
173
     1
176
     3
177
     3
178
     3
271
     3
272
     0
275
     1
288
     1
340
4F594
  0
DIMSTYLE
105
4F59A
330
A
100
AcDbSymbolTableRecord
100
AcDbDimStyleTableRecord
  2
GMM003
 70
     0
 41
4.0
 42
2.0
 43
16.0
 44
2.0
 73
     0
 74
     0
 77
     3
 78
     8
140
8.0
141
2.0
143
0.0394
146
0.625
147
1.0
172
     1
173
     1
176
     3
177
     3
178
     3
271
     3
272
     0
275
     1
288
     1
340
4F594
  0
DIMSTYLE
105
4F59B
330
A
100
AcDbSymbolTableRecord
100
AcDbDimStyleTableRecord
  2
GMM004
 70
     0
 41
4.0
 42
2.0
 43
16.0
 44
2.0
 73
     0
 74
     0
 77
     3
 78
     8
140
8.0
141
2.0
143
0.0394
146
0.625
147
1.0
172
     1
173
     1
176
     3
177
     3
178
     3
271
     3
272
     0
275
     1
340
4F594
  0
DIMSTYLE
105
4F59C
330
A
100
AcDbSymbolTableRecord
100
AcDbDimStyleTableRecord
  2
GMM005
 70
     0
 41
4.0
 42
2.0
 43
16.0
 44
2.0
 73
     0
 74
     0
 77
     3
 78
     8
140
8.0
141
2.0
143
0.0394
146
0.625
147
1.0
172
     1
173
     1
176
     3
177
     3
178
     3
271
     3
272
     0
275
     1
288
     1
340
4F594
  0
DIMSTYLE
105
4F59D
330
A
100
AcDbSymbolTableRecord
100
AcDbDimStyleTableRecord
  2
GMM006
 70
     0
 41
4.0
 42
2.0
 43
16.0
 44
2.0
 73
     0
 74
     0
 77
     1
 78
     8
140
8.0
141
2.0
143
0.0394
146
0.625
147
0.0
172
     1
173
     1
176
     3
177
     3
178
     3
271
     3
272
     0
275
     1
340
4F594
  0
DIMSTYLE
105
4F59E
330
A
100
AcDbSymbolTableRecord
100
AcDbDimStyleTableRecord
  2
AM_ANSI
 70
     0
  4
mm
 41
0.1
 42
0.05
 43
0.5
 44
0.1
 47
0.1
 48
0.1
 78
     7
 79
     2
140
0.12
141
0.0
146
0.71
147
0.06
176
   256
177
   256
178
     2
274
     4
284
     7
340
11
371
    -1
372
    -1
1001
ACAD_DSTYLE_DIMARC_LENGTH_SYMBOL
1070
   379
1070
     1
  0
DIMSTYLE
105
4F59F
330
A
100
AcDbSymbolTableRecord
100
AcDbDimStyleTableRecord
  2
AM_ANSI$3
 70
     0
  4
mm
 41
0.1
 42
0.05
 43
0.5
 44
0.1
 47
0.1
 48
0.1
 78
     7
 79
     2
140
0.12
141
0.0
146
0.71
147
0.06
176
   256
177
   256
178
     2
274
     4
284
     7
288
     1
289
     0
340
11
371
    -1
372
    -1
1001
ACAD_DSTYLE_DIMARC_LENGTH_SYMBOL
1070
   379
1070
     1
  0
DIMSTYLE
105
4F5A0
330
A
100
AcDbSymbolTableRecord
100
AcDbDimStyleTableRecord
  2
AM_ANSI$4
 70
     0
  4
mm
 41
0.1
 42
0.05
 43
0.5
 44
0.1
 47
0.1
 48
0.1
 78
     7
 79
     2
140
0.12
141
0.0
146
0.71
147
0.06
176
   256
177
   256
178
     2
274
     4
284
     7
288
     1
289
     0
340
11
371
    -1
372
    -1
1001
ACAD_DSTYLE_DIMARC_LENGTH_SYMBOL
1070
   379
1070
     1
  0
DIMSTYLE
105
4F5A1
330
A
100
AcDbSymbolTableRecord
100
AcDbDimStyleTableRecord
  2
AM_ANSI$7
 70
     0
  4
mm
 41
0.1
 42
0.05
 43
0.5
 44
0.1
 47
0.1
 48
0.1
 78
     7
 79
     2
140
0.24
141
0.0
146
0.71
147
0.06
176
   256
177
   256
178
     2
274
     4
284
     7
340
11
371
    -1
372
    -1
1001
ACAD_DSTYLE_DIMARC_LENGTH_SYMBOL
1070
   379
1070
     1
  0
DIMSTYLE
105
4F5A2
330
A
100
AcDbSymbolTableRecord
100
AcDbDimStyleTableRecord
  2
AM_ANSI$SF
 70
     0
  4
mm
 41
0.1
 42
0.05
 43
0.5
 44
0.1
 47
0.1
 48
0.1
 75
     1
 76
     1
 78
     7
 79
     2
140
0.12
141
0.0
146
0.71
147
0.06
176
   256
177
   256
178
     2
274
     4
284
     7
340
11
371
    -1
372
    -1
1001
ACAD_DSTYLE_DIMARC_LENGTH_SYMBOL
1070
   379
1070
     1
  0
DIMSTYLE
105
4F5A3
330
A
100
AcDbSymbolTableRecord
100
AcDbDimStyleTableRecord
  2
AM_ANSI$SH
 70
     0
  4
mm
 41
0.1
 42
0.05
 43
0.5
 44
0.1
 47
0.1
 48
0.1
 75
     1
 76
     1
 78
     7
 79
     2
140
0.12
141
0.0
146
0.71
147
0.06
173
     1
176
   256
177
   256
178
     2
274
     4
284
     7
340
11
343
72
371
    -1
372
    -1
1001
ACAD_DSTYLE_DIMARC_LENGTH_SYMBOL
1070
   379
1070
     1
  0
DIMSTYLE
105
5755E
330
A
100
AcDbSymbolTableRecord
100
AcDbDimStyleTableRecord
  2
DIMSTYLE
 70
     0
 41
1.0
 42
2.54
 44
2.54
 73
     0
 74
     0
140
3.2
147
1.6
173
     1
279
     2
340
11
  0
ENDTAB
  0
TABLE
  2
BLOCK_RECORD
  5
1
330
0
100
AcDbSymbolTable
 70
    32
  0
BLOCK_RECORD
  5
1F
102
{ACAD_XDICTIONARY
360
8A
102
}
330
1
100
AcDbSymbolTableRecord
100
AcDbBlockTableRecord
  2
*Model_Space
340
22
  0
BLOCK_RECORD
  5
1B
330
1
100
AcDbSymbolTableRecord
100
AcDbBlockTableRecord
  2
*Paper_Space
340
1E
  0
BLOCK_RECORD
  5
23
330
1
100
AcDbSymbolTableRecord
100
AcDbBlockTableRecord
  2
*Paper_Space0
340
26
  0
BLOCK_RECORD
  5
72
330
1
100
AcDbSymbolTableRecord
100
AcDbBlockTableRecord
  2
GENAXEH
340
0
  0
BLOCK_RECORD
  5
6C4
330
1
100
AcDbSymbolTableRecord
100
AcDbBlockTableRecord
  2
_Dot
340
0
102
{BLKREFS
331
5BF58
331
5BF59
331
5BF61
331
5BF62
331
5BF97
331
5BF98
331
5BFA2
331
5BFA3
331
5BFAD
331
5BFAE
331
5C1BF
331
5C1C0
331
5C1D0
331
5C1D1
331
5C1E1
331
5C1E2
331
5C1F2
331
5C1F3
331
5C5A7
331
5C5A8
331
5C5B0
331
5C5B1
331
5C5B9
331
5C5BA
331
5C5C2
331
5C5C3
331
5C5CB
331
5C5CC
331
5C5D4
331
5C5D5
331
5C5E6
331
5C5E7
331
5C5F1
331
5C5F2
331
5C5FC
331
5C5FD
102
}
  0
BLOCK_RECORD
  5
A66
330
1
100
AcDbSymbolTableRecord
100
AcDbBlockTableRecord
  2
_OPEN30
340
0
102
{BLKREFS
331
5C2EE
331
5C2EF
102
}
  0
BLOCK_RECORD
  5
5C006
330
1
100
AcDbSymbolTableRecord
100
AcDbBlockTableRecord
  2
*D17
340
0
  0
BLOCK_RECORD
  5
5C012
330
1
100
AcDbSymbolTableRecord
100
AcDbBlockTableRecord
  2
*D18
340
0
  0
BLOCK_RECORD
  5
5C01E
330
1
100
AcDbSymbolTableRecord
100
AcDbBlockTableRecord
  2
*D19
340
0
  0
BLOCK_RECORD
  5
5C02A
330
1
100
AcDbSymbolTableRecord
100
AcDbBlockTableRecord
  2
*D20
340
0
  0
BLOCK_RECORD
  5
5C036
330
1
100
AcDbSymbolTableRecord
100
AcDbBlockTableRecord
  2
*D21
340
0
  0
BLOCK_RECORD
  5
5C042
330
1
100
AcDbSymbolTableRecord
100
AcDbBlockTableRecord
  2
*D22
340
0
  0
BLOCK_RECORD
  5
5C05A
330
1
100
AcDbSymbolTableRecord
100
AcDbBlockTableRecord
  2
*D24
340
0
  0
BLOCK_RECORD
  5
5C066
330
1
100
AcDbSymbolTableRecord
100
AcDbBlockTableRecord
  2
*D25
340
0
  0
BLOCK_RECORD
  5
5C074
330
1
100
AcDbSymbolTableRecord
100
AcDbBlockTableRecord
  2
*D26
340
0
  0
BLOCK_RECORD
  5
5C70A
330
1
100
AcDbSymbolTableRecord
100
AcDbBlockTableRecord
  2
GENDOT
340
0
102
{BLKREFS
331
5C818
331
5C819
331
5C82D
102
}
  0
BLOCK_RECORD
  5
5C825
102
{ACAD_XDICTIONARY
360
5C939
102
}
330
1
100
AcDbSymbolTableRecord
100
AcDbBlockTableRecord
  2
a
340
0
310
2800000020000000200000000100080000000000000400000000000000000000000000000000000000000000000080000080000000808000800000008000800080800000C0C0C000C0DCC000F0CAA6000020400000206000002080000020A0000020C0000020E00000400000004020000040400000406000004080000040A0
310
000040C0000040E00000600000006020000060400000606000006080000060A0000060C0000060E00000800000008020000080400000806000008080000080A0000080C0000080E00000A0000000A0200000A0400000A0600000A0800000A0A00000A0C00000A0E00000C0000000C0200000C0400000C0600000C0800000C0
310
A00000C0C00000C0E00000E0000000E0200000E0400000E0600000E0800000E0A00000E0C00000E0E00040000000400020004000400040006000400080004000A0004000C0004000E00040200000402020004020400040206000402080004020A0004020C0004020E000404000004040200040404000404060004040800040
310
40A0004040C0004040E00040600000406020004060400040606000406080004060A0004060C0004060E00040800000408020004080400040806000408080004080A0004080C0004080E00040A0000040A0200040A0400040A0600040A0800040A0A00040A0C00040A0E00040C0000040C0200040C0400040C0600040C08000
310
40C0A00040C0C00040C0E00040E0000040E0200040E0400040E0600040E0800040E0A00040E0C00040E0E00080000000800020008000400080006000800080008000A0008000C0008000E00080200000802020008020400080206000802080008020A0008020C0008020E00080400000804020008040400080406000804080
310
008040A0008040C0008040E00080600000806020008060400080606000806080008060A0008060C0008060E00080800000808020008080400080806000808080008080A0008080C0008080E00080A0000080A0200080A0400080A0600080A0800080A0A00080A0C00080A0E00080C0000080C0200080C0400080C0600080C0
310
800080C0A00080C0C00080C0E00080E0000080E0200080E0400080E0600080E0800080E0A00080E0C00080E0E000C0000000C0002000C0004000C0006000C0008000C000A000C000C000C000E000C0200000C0202000C0204000C0206000C0208000C020A000C020C000C020E000C0400000C0402000C0404000C0406000C0
310
408000C040A000C040C000C040E000C0600000C0602000C0604000C0606000C0608000C060A000C060C000C060E000C0800000C0802000C0804000C0806000C0808000C080A000C080C000C080E000C0A00000C0A02000C0A04000C0A06000C0A08000C0A0A000C0A0C000C0A0E000C0C00000C0C02000C0C04000C0C06000
310
C0C08000C0C0A000F0FBFF00A4A0A000808080000000FF0000FF000000FFFF00FF000000FF00FF00FFFF0000FFFFFF0000000000000000000000000000000000000000000000000000000000000000000000000000000000000000000000000000000000000000000000000000000000000000000000000000000000000000
310
0000000000000000000000000000000000000000000000000000000000000000000000000000000000000000000000000000000000000000000000000000000000000000000000000000000000000000000000000000000000000000000000000000000000000000000000000000FAFA000000000000000000000000000000
310
000000000000000000000000000000FAFA000000000000000000000000000000000000000000000000000000000000FA000000000000000000000000000000000000000000000000000000000000FA000000000000000000000000000000000000000000000000000000000000FAFA00000000000000000000000000000000
310
0000000000000000000000000000FAFA000000000000000000000000000000000000000000000000000000000000FA000000000000000000000000000000000000000000000000000000000000FA00000000000000000000000000000000000000000000000000000000000000FA0000000000000000000000000000000000
310
00000000000000000000000000FA00000000000000000000000000000000000000000000000000000000000000FA000000000000000000000000000000000000000000000000000000000000FA00000000000000000000000000000000000000000000000000000000000000FA000000000000000000000000000000000000
310
000000000000000000000000FA00000000000000000000000000000000000000000000000000000000000000FA000000000000000000000000000000000000000000000000000000000000FA00000000000000000000000000000000000000000000000000000000000000FA00000000000000000000FAFAFAFAFAFAFAFAFA
310
FAFAFAFAFAFAFAFAFAFAFAFA0000000000000000000000FBFB0000FBFBFBFBFB0000FBFBFBFBFBFB00FB00000000000000000000000000FBFBFBFBFBFBFBFBFBFBFBFBFBFBFBFBFB00FB00000000000000000000000000FBFB0000FBFBFB00FBFBFBFBFBFBFBFBFBFBFBFB0000000000000000000000000000000000000000
310
00000000000000000000000000000000000000000000000000000000000000000000000000000000000000000000000000000000000000000000000000000000000000000000000000000000000000000000000000000000000000000000000000000000000000000000000000000000000000000000000000000000000000
310
0000000000000000000000000000000000000000000000000000000000000000000000000000000000000000000000000000000000000000
102
{BLKREFS
331
5C82E
102
}
1001
ACAD
1000
DesignCenter Data
1002
{
1070
     1
1070
     4
1002
}
  0
ENDTAB
  0
ENDSEC
  0
SECTION
  2
BLOCKS
  0
BLOCK
  5
20
330
1F
100
AcDbEntity
  8
0
100
AcDbBlockBegin
  2
*Model_Space
 70
     0
 10
0.0
 20
0.0
 30
0.0
  3
*Model_Space
  1

  0
ENDBLK
  5
21
330
1F
100
AcDbEntity
  8
0
100
AcDbBlockEnd
  0
BLOCK
  5
1C
330
1B
100
AcDbEntity
 67
     1
  8
0
100
AcDbBlockBegin
  2
*Paper_Space
 70
     0
 10
0.0
 20
0.0
 30
0.0
  3
*Paper_Space
  1

  0
ENDBLK
  5
1D
330
1B
100
AcDbEntity
 67
     1
  8
0
100
AcDbBlockEnd
  0
BLOCK
  5
24
330
23
100
AcDbEntity
 67
     1
  8
0
100
AcDbBlockBegin
  2
*Paper_Space0
 70
     0
 10
0.0
 20
0.0
 30
0.0
  3
*Paper_Space0
  1

  0
ENDBLK
  5
25
330
23
100
AcDbEntity
 67
     1
  8
0
100
AcDbBlockEnd
  0
BLOCK
  5
74
330
72
100
AcDbEntity
  8
0
100
AcDbBlockBegin
  2
GENAXEH
 70
     0
 10
0.0
 20
0.0
 30
0.0
  3
GENAXEH
  1

  0
LINE
  5
73
330
72
100
AcDbEntity
  8
0
100
AcDbLine
 10
-1.0
 20
0.0
 30
0.0
 11
1.0
 21
0.0
 31
0.0
  0
ENDBLK
  5
75
330
72
100
AcDbEntity
  8
0
100
AcDbBlockEnd
  0
BLOCK
  5
6C7
330
6C4
100
AcDbEntity
  8
0
100
AcDbBlockBegin
  2
_Dot
 70
     0
 10
0.0
 20
0.0
 30
0.0
  3
_Dot
  1

  0
LWPOLYLINE
  5
6C5
330
6C4
100
AcDbEntity
  8
0
  6
ByBlock
 62
     0
100
AcDbPolyline
 90
        2
 70
     1
 43
0.5
 10
-0.25
 20
0.0
 42
1.0
 10
0.25
 20
0.0
 42
1.0
  0
LINE
  5
6C6
330
6C4
100
AcDbEntity
  8
0
  6
ByBlock
 62
     0
370
    -2
100
AcDbLine
 10
-0.5
 20
0.0
 30
0.0
 11
-1.0
 21
0.0
 31
0.0
  0
ENDBLK
  5
6C8
330
6C4
100
AcDbEntity
  8
0
100
AcDbBlockEnd
  0
BLOCK
  5
A6A
330
A66
100
AcDbEntity
  8
0
100
AcDbBlockBegin
  2
_OPEN30
 70
     0
 10
0.0
 20
0.0
 30
0.0
  3
_OPEN30
  1

  0
LINE
  5
A67
330
A66
100
AcDbEntity
  8
0
  6
ByBlock
 62
     0
100
AcDbLine
 10
-1.0
 20
0.26794919
 30
0.0
 11
0.0
 21
0.0
 31
0.0
  0
LINE
  5
A68
330
A66
100
AcDbEntity
  8
0
  6
ByBlock
 62
     0
100
AcDbLine
 10
0.0
 20
0.0
 30
0.0
 11
-1.0
 21
-0.26794919
 31
0.0
  0
LINE
  5
A69
330
A66
100
AcDbEntity
  8
0
  6
ByBlock
 62
     0
100
AcDbLine
 10
0.0
 20
0.0
 30
0.0
 11
-1.0
 21
0.0
 31
0.0
  0
ENDBLK
  5
A6B
330
A66
100
AcDbEntity
  8
0
100
AcDbBlockEnd
  0
BLOCK
  5
5C010
330
5C006
100
AcDbEntity
  8
0
100
AcDbBlockBegin
  2
*D17
 70
     1
 10
0.0
 20
0.0
 30
0.0
  3
*D17
  1

  0
LINE
  5
5C5A4
330
5C006
100
AcDbEntity
  8
AM_5
100
AcDbLine
 10
-68.76684964794833
 20
-11778.53653295979
 30
0.0
 11
-68.76684964794833
 21
-11762.70298895979
 31
0.0
  0
LINE
  5
5C5A5
330
5C006
100
AcDbEntity
  8
AM_5
100
AcDbLine
 10
-48.76684964794834
 20
-11778.53653295979
 30
0.0
 11
-48.76684964794834
 21
-11762.70298895979
 31
0.0
  0
LINE
  5
5C5A6
330
5C006
100
AcDbEntity
  8
AM_5
100
AcDbLine
 10
-67.76684964794833
 20
-11763.70298895979
 30
0.0
 11
-49.76684964794834
 21
-11763.70298895979
 31
0.0
  0
INSERT
  5
5C5A7
330
5C006
100
AcDbEntity
  8
AM_5
100
AcDbBlockReference
  2
_Dot
 10
-68.76684964794833
 20
-11763.70298895979
 30
0.0
 50
180.0
  0
INSERT
  5
5C5A8
330
5C006
100
AcDbEntity
  8
AM_5
100
AcDbBlockReference
  2
_Dot
 10
-48.76684964794834
 20
-11763.70298895979
 30
0.0
  0
MTEXT
  5
5C5A9
330
5C006
100
AcDbEntity
  8
AM_5
 62
     2
100
AcDbMText
 10
-58.76684964794834
 20
-11760.60298895979
 30
0.0
 40
3.200000000000001
 41
0.0
 71
     5
 72
     1
  1
20
 73
     1
 44
1.0
1001
ACAD
1000
MTEXTBEGIN
1070
    73
1070
     1
1070
    44
1040
1.0
1070
    74
1070
     0
1000
MTEXTEND
  0
POINT
  5
5C5AA
330
5C006
100
AcDbEntity
  8
Defpoints
 62
     0
100
AcDbPoint
 10
-68.76684964794833
 20
-11779.53653295979
 30
0.0
  0
POINT
  5
5C5AB
330
5C006
100
AcDbEntity
  8
Defpoints
 62
     0
100
AcDbPoint
 10
-48.76684964794834
 20
-11779.53653295979
 30
0.0
  0
POINT
  5
5C5AC
330
5C006
100
AcDbEntity
  8
Defpoints
 62
     0
100
AcDbPoint
 10
-48.76684964794834
 20
-11763.70298895979
 30
0.0
  0
ENDBLK
  5
5C011
330
5C006
100
AcDbEntity
  8
0
100
AcDbBlockEnd
  0
BLOCK
  5
5C01C
330
5C012
100
AcDbEntity
  8
0
100
AcDbBlockBegin
  2
*D18
 70
     1
 10
0.0
 20
0.0
 30
0.0
  3
*D18
  1

  0
LINE
  5
5C5AD
330
5C012
100
AcDbEntity
  8
AM_5
100
AcDbLine
 10
-74.76684964794833
 20
-11772.70298895979
 30
0.0
 11
-74.76684964794833
 21
-11754.70298895979
 31
0.0
  0
LINE
  5
5C5AE
330
5C012
100
AcDbEntity
  8
AM_5
100
AcDbLine
 10
-42.76684964794834
 20
-11772.70298895979
 30
0.0
 11
-42.76684964794834
 21
-11754.70298895979
 31
0.0
  0
LINE
  5
5C5AF
330
5C012
100
AcDbEntity
  8
AM_5
100
AcDbLine
 10
-73.76684964794833
 20
-11755.70298895979
 30
0.0
 11
-43.76684964794834
 21
-11755.70298895979
 31
0.0
  0
INSERT
  5
5C5B0
330
5C012
100
AcDbEntity
  8
AM_5
100
AcDbBlockReference
  2
_Dot
 10
-74.76684964794833
 20
-11755.70298895979
 30
0.0
 50
180.0
  0
INSERT
  5
5C5B1
330
5C012
100
AcDbEntity
  8
AM_5
100
AcDbBlockReference
  2
_Dot
 10
-42.76684964794834
 20
-11755.70298895979
 30
0.0
  0
MTEXT
  5
5C5B2
330
5C012
100
AcDbEntity
  8
AM_5
 62
     2
100
AcDbMText
 10
-58.76684964794834
 20
-11752.60298895979
 30
0.0
 40
3.200000000000001
 41
0.0
 71
     5
 72
     1
  1
32
 73
     1
 44
1.0
1001
ACAD
1000
MTEXTBEGIN
1070
    73
1070
     1
1070
    44
1040
1.0
1070
    74
1070
     0
1000
MTEXTEND
  0
POINT
  5
5C5B3
330
5C012
100
AcDbEntity
  8
Defpoints
 62
     0
100
AcDbPoint
 10
-74.76684964794833
 20
-11773.70298895979
 30
0.0
  0
POINT
  5
5C5B4
330
5C012
100
AcDbEntity
  8
Defpoints
 62
     0
100
AcDbPoint
 10
-42.76684964794834
 20
-11773.70298895979
 30
0.0
  0
POINT
  5
5C5B5
330
5C012
100
AcDbEntity
  8
Defpoints
 62
     0
100
AcDbPoint
 10
-42.76684964794834
 20
-11755.70298895979
 30
0.0
  0
ENDBLK
  5
5C01D
330
5C012
100
AcDbEntity
  8
0
100
AcDbBlockEnd
  0
BLOCK
  5
5C028
330
5C01E
100
AcDbEntity
  8
0
100
AcDbBlockBegin
  2
*D19
 70
     1
 10
0.0
 20
0.0
 30
0.0
  3
*D19
  1

  0
LINE
  5
5C5B6
330
5C01E
100
AcDbEntity
  8
AM_5
100
AcDbLine
 10
-75.76684964794833
 20
-11773.70298895979
 30
0.0
 11
-93.76684964795215
 21
-11773.70298895979
 31
0.0
  0
LINE
  5
5C5B7
330
5C01E
100
AcDbEntity
  8
AM_5
100
AcDbLine
 10
-75.76684964794833
 20
-11873.70298895979
 30
0.0
 11
-93.76684964795218
 21
-11873.70298895979
 31
0.0
  0
LINE
  5
5C5B8
330
5C01E
100
AcDbEntity
  8
AM_5
100
AcDbLine
 10
-92.76684964795215
 20
-11774.70298895979
 30
0.0
 11
-92.76684964795219
 21
-11872.70298895979
 31
0.0
  0
INSERT
  5
5C5B9
330
5C01E
100
AcDbEntity
  8
AM_5
100
AcDbBlockReference
  2
_Dot
 10
-92.76684964795215
 20
-11773.70298895979
 30
0.0
 50
90.0
  0
INSERT
  5
5C5BA
330
5C01E
100
AcDbEntity
  8
AM_5
100
AcDbBlockReference
  2
_Dot
 10
-92.76684964795219
 20
-11873.70298895979
 30
0.0
 50
270.0
  0
MTEXT
  5
5C5BB
330
5C01E
100
AcDbEntity
  8
AM_5
 62
     2
100
AcDbMText
 10
-95.86684964795026
 20
-11823.70298895979
 30
0.0
 40
3.200000000000001
 41
0.0
 71
     5
 72
     1
  1
100
 11
0.0000000000000001
 21
1.0
 31
0.0
 73
     1
 44
1.0
1001
ACAD
1000
MTEXTBEGIN
1070
    73
1070
     1
1070
    44
1040
1.0
1070
    74
1070
     0
1000
MTEXTEND
  0
POINT
  5
5C5BC
330
5C01E
100
AcDbEntity
  8
Defpoints
 62
     0
100
AcDbPoint
 10
-74.76684964794833
 20
-11773.70298895979
 30
0.0
  0
POINT
  5
5C5BD
330
5C01E
100
AcDbEntity
  8
Defpoints
 62
     0
100
AcDbPoint
 10
-74.76684964794833
 20
-11873.70298895979
 30
0.0
  0
POINT
  5
5C5BE
330
5C01E
100
AcDbEntity
  8
Defpoints
 62
     0
100
AcDbPoint
 10
-92.76684964795219
 20
-11873.70298895979
 30
0.0
  0
ENDBLK
  5
5C029
330
5C01E
100
AcDbEntity
  8
0
100
AcDbBlockEnd
  0
BLOCK
  5
5C034
330
5C02A
100
AcDbEntity
  8
0
100
AcDbBlockBegin
  2
*D20
 70
     1
 10
0.0
 20
0.0
 30
0.0
  3
*D20
  1

  0
LINE
  5
5C5BF
330
5C02A
100
AcDbEntity
  8
AM_5
100
AcDbLine
 10
-74.52542764794827
 20
-11836.70298895979
 30
0.0
 11
-85.76684964795409
 21
-11836.70298895979
 31
0.0
  0
LINE
  5
5C5C0
330
5C02A
100
AcDbEntity
  8
AM_5
100
AcDbLine
 10
-74.61040214794832
 20
-11810.70298895978
 30
0.0
 11
-85.76684964795409
 21
-11810.70298895978
 31
0.0
  0
LINE
  5
5C5C1
330
5C02A
100
AcDbEntity
  8
AM_5
100
AcDbLine
 10
-84.7668496479541
 20
-11835.70298895979
 30
0.0
 11
-84.7668496479541
 21
-11811.70298895978
 31
0.0
  0
INSERT
  5
5C5C2
330
5C02A
100
AcDbEntity
  8
AM_5
100
AcDbBlockReference
  2
_Dot
 10
-84.7668496479541
 20
-11836.70298895979
 30
0.0
 50
270.0
  0
INSERT
  5
5C5C3
330
5C02A
100
AcDbEntity
  8
AM_5
100
AcDbBlockReference
  2
_Dot
 10
-84.7668496479541
 20
-11810.70298895978
 30
0.0
 50
90.0
  0
MTEXT
  5
5C5C4
330
5C02A
100
AcDbEntity
  8
AM_5
 62
     2
100
AcDbMText
 10
-87.86684964795218
 20
-11823.70298895978
 30
0.0
 40
3.200000000000001
 41
0.0
 71
     5
 72
     1
  1
26
 11
0.0000000000000001
 21
1.0
 31
0.0
 73
     1
 44
1.0
1001
ACAD
1000
MTEXTBEGIN
1070
    73
1070
     1
1070
    44
1040
1.0
1070
    74
1070
     0
1000
MTEXTEND
  0
POINT
  5
5C5C5
330
5C02A
100
AcDbEntity
  8
Defpoints
 62
     0
100
AcDbPoint
 10
-73.52542764794828
 20
-11836.70298895979
 30
0.0
  0
POINT
  5
5C5C6
330
5C02A
100
AcDbEntity
  8
Defpoints
 62
     0
100
AcDbPoint
 10
-73.61040214794832
 20
-11810.70298895978
 30
0.0
  0
POINT
  5
5C5C7
330
5C02A
100
AcDbEntity
  8
Defpoints
 62
     0
100
AcDbPoint
 10
-84.7668496479541
 20
-11810.70298895978
 30
0.0
  0
ENDBLK
  5
5C035
330
5C02A
100
AcDbEntity
  8
0
100
AcDbBlockEnd
  0
BLOCK
  5
5C040
330
5C036
100
AcDbEntity
  8
0
100
AcDbBlockBegin
  2
*D21
 70
     1
 10
0.0
 20
0.0
 30
0.0
  3
*D21
  1

  0
LINE
  5
5C5C8
330
5C036
100
AcDbEntity
  8
AM_5
100
AcDbLine
 10
-74.61040214794832
 20
-11810.70298895978
 30
0.0
 11
-85.76684964795409
 21
-11810.70298895978
 31
0.0
  0
LINE
  5
5C5C9
330
5C036
100
AcDbEntity
  8
AM_5
100
AcDbLine
 10
-74.52542764794827
 20
-11784.70298895978
 30
0.0
 11
-85.76684964795409
 21
-11784.70298895978
 31
0.0
  0
LINE
  5
5C5CA
330
5C036
100
AcDbEntity
  8
AM_5
100
AcDbLine
 10
-84.7668496479541
 20
-11809.70298895978
 30
0.0
 11
-84.76684964795408
 21
-11785.70298895978
 31
0.0
  0
INSERT
  5
5C5CB
330
5C036
100
AcDbEntity
  8
AM_5
100
AcDbBlockReference
  2
_Dot
 10
-84.7668496479541
 20
-11810.70298895978
 30
0.0
 50
270.0
  0
INSERT
  5
5C5CC
330
5C036
100
AcDbEntity
  8
AM_5
100
AcDbBlockReference
  2
_Dot
 10
-84.76684964795408
 20
-11784.70298895978
 30
0.0
 50
90.0
  0
MTEXT
  5
5C5CD
330
5C036
100
AcDbEntity
  8
AM_5
 62
     2
100
AcDbMText
 10
-87.86684964795218
 20
-11797.70298895978
 30
0.0
 40
3.200000000000001
 41
0.0
 71
     5
 72
     1
  1
26
 11
0.0000000000000001
 21
1.0
 31
0.0
 73
     1
 44
1.0
1001
ACAD
1000
MTEXTBEGIN
1070
    73
1070
     1
1070
    44
1040
1.0
1070
    74
1070
     0
1000
MTEXTEND
  0
POINT
  5
5C5CE
330
5C036
100
AcDbEntity
  8
Defpoints
 62
     0
100
AcDbPoint
 10
-73.61040214794832
 20
-11810.70298895978
 30
0.0
  0
POINT
  5
5C5CF
330
5C036
100
AcDbEntity
  8
Defpoints
 62
     0
100
AcDbPoint
 10
-73.52542764794828
 20
-11784.70298895978
 30
0.0
  0
POINT
  5
5C5D0
330
5C036
100
AcDbEntity
  8
Defpoints
 62
     0
100
AcDbPoint
 10
-84.76684964795408
 20
-11784.70298895978
 30
0.0
  0
ENDBLK
  5
5C041
330
5C036
100
AcDbEntity
  8
0
100
AcDbBlockEnd
  0
BLOCK
  5
5C04C
330
5C042
100
AcDbEntity
  8
0
100
AcDbBlockBegin
  2
*D22
 70
     1
 10
0.0
 20
0.0
 30
0.0
  3
*D22
  1

  0
LINE
  5
5C5D1
330
5C042
100
AcDbEntity
  8
AM_5
100
AcDbLine
 10
-74.52542764794827
 20
-11862.70298895979
 30
0.0
 11
-85.76684964795409
 21
-11862.70298895979
 31
0.0
  0
LINE
  5
5C5D2
330
5C042
100
AcDbEntity
  8
AM_5
100
AcDbLine
 10
-74.61040214794832
 20
-11836.70298895978
 30
0.0
 11
-85.76684964795409
 21
-11836.70298895978
 31
0.0
  0
LINE
  5
5C5D3
330
5C042
100
AcDbEntity
  8
AM_5
100
AcDbLine
 10
-84.7668496479541
 20
-11861.70298895979
 30
0.0
 11
-84.7668496479541
 21
-11837.70298895978
 31
0.0
  0
INSERT
  5
5C5D4
330
5C042
100
AcDbEntity
  8
AM_5
100
AcDbBlockReference
  2
_Dot
 10
-84.7668496479541
 20
-11862.70298895979
 30
0.0
 50
270.0
  0
INSERT
  5
5C5D5
330
5C042
100
AcDbEntity
  8
AM_5
100
AcDbBlockReference
  2
_Dot
 10
-84.7668496479541
 20
-11836.70298895978
 30
0.0
 50
90.0
  0
MTEXT
  5
5C5D6
330
5C042
100
AcDbEntity
  8
AM_5
 62
     2
100
AcDbMText
 10
-87.86684964795218
 20
-11849.70298895978
 30
0.0
 40
3.200000000000001
 41
0.0
 71
     5
 72
     1
  1
26
 11
0.0000000000000001
 21
1.0
 31
0.0
 73
     1
 44
1.0
1001
ACAD
1000
MTEXTBEGIN
1070
    73
1070
     1
1070
    44
1040
1.0
1070
    74
1070
     0
1000
MTEXTEND
  0
POINT
  5
5C5D7
330
5C042
100
AcDbEntity
  8
Defpoints
 62
     0
100
AcDbPoint
 10
-73.52542764794828
 20
-11862.70298895979
 30
0.0
  0
POINT
  5
5C5D8
330
5C042
100
AcDbEntity
  8
Defpoints
 62
     0
100
AcDbPoint
 10
-73.61040214794832
 20
-11836.70298895978
 30
0.0
  0
POINT
  5
5C5D9
330
5C042
100
AcDbEntity
  8
Defpoints
 62
     0
100
AcDbPoint
 10
-84.7668496479541
 20
-11836.70298895978
 30
0.0
  0
ENDBLK
  5
5C04D
330
5C042
100
AcDbEntity
  8
0
100
AcDbBlockEnd
  0
BLOCK
  5
5C064
330
5C05A
100
AcDbEntity
  8
0
100
AcDbBlockBegin
  2
*D24
 70
     1
 10
0.0
 20
0.0
 30
0.0
  3
*D24
  1

  0
LINE
  5
5C5E3
330
5C05A
100
AcDbEntity
  8
AM_5
100
AcDbLine
 10
-61.76684964794834
 20
-11912.0632168123
 30
0.0
 11
-61.76684964794834
 21
-11891.0632168123
 31
0.0
  0
LINE
  5
5C5E4
330
5C05A
100
AcDbEntity
  8
AM_5
100
AcDbLine
 10
-55.76684964794833
 20
-11912.0632168123
 30
0.0
 11
-55.76684964794833
 21
-11891.0632168123
 31
0.0
  0
LINE
  5
5C5E5
330
5C05A
100
AcDbEntity
  8
AM_5
100
AcDbLine
 10
-60.76684964794833
 20
-11892.0632168123
 30
0.0
 11
-56.76684964794834
 21
-11892.0632168123
 31
0.0
  0
INSERT
  5
5C5E6
330
5C05A
100
AcDbEntity
  8
AM_5
100
AcDbBlockReference
  2
_Dot
 10
-61.76684964794834
 20
-11892.0632168123
 30
0.0
 50
180.0
  0
INSERT
  5
5C5E7
330
5C05A
100
AcDbEntity
  8
AM_5
100
AcDbBlockReference
  2
_Dot
 10
-55.76684964794833
 20
-11892.0632168123
 30
0.0
  0
MTEXT
  5
5C5E8
330
5C05A
100
AcDbEntity
  8
AM_5
 62
     2
100
AcDbMText
 10
-58.76684964794833
 20
-11888.9632168123
 30
0.0
 40
3.200000000000001
 41
0.0
 71
     5
 72
     1
  1
（%%c6）
 73
     1
 44
1.0
1001
ACAD
1000
MTEXTBEGIN
1070
    73
1070
     1
1070
    44
1040
1.0
1070
    74
1070
     0
1000
MTEXTEND
  0
POINT
  5
5C5E9
330
5C05A
100
AcDbEntity
  8
Defpoints
 62
     0
100
AcDbPoint
 10
-61.76684964794834
 20
-11913.0632168123
 30
0.0
  0
POINT
  5
5C5EA
330
5C05A
100
AcDbEntity
  8
Defpoints
 62
     0
100
AcDbPoint
 10
-55.76684964794833
 20
-11913.0632168123
 30
0.0
  0
POINT
  5
5C5EB
330
5C05A
100
AcDbEntity
  8
Defpoints
 62
     0
100
AcDbPoint
 10
-55.76684964794833
 20
-11892.0632168123
 30
0.0
  0
ENDBLK
  5
5C065
330
5C05A
100
AcDbEntity
  8
0
100
AcDbBlockEnd
  0
BLOCK
  5
5C072
330
5C066
100
AcDbEntity
  8
0
100
AcDbBlockBegin
  2
*D25
 70
     1
 10
0.0
 20
0.0
 30
0.0
  3
*D25
  1

  0
LINE
  5
5C5EC
330
5C066
100
AcDbEntity
  8
AM_5
100
AcDbLine
 10
-60.26684964794833
 20
-11912.0632168123
 30
0.0
 11
-60.26684964794833
 21
-11899.0632168123
 31
0.0
  0
LINE
  5
5C5ED
330
5C066
100
AcDbEntity
  8
AM_5
100
AcDbLine
 10
-57.26684964794833
 20
-11912.0632168123
 30
0.0
 11
-57.26684964794833
 21
-11899.0632168123
 31
0.0
  0
LINE
  5
5C5EE
330
5C066
100
AcDbEntity
  8
AM_5
100
AcDbLine
 10
-61.26684964794833
 20
-11900.0632168123
 30
0.0
 11
-62.26684964794833
 21
-11900.0632168123
 31
0.0
  0
LINE
  5
5C5EF
330
5C066
100
AcDbEntity
  8
AM_5
100
AcDbLine
 10
-56.26684964794833
 20
-11900.0632168123
 30
0.0
 11
-55.26684964794833
 21
-11900.0632168123
 31
0.0
  0
LINE
  5
5C5F0
330
5C066
100
AcDbEntity
  8
AM_5
100
AcDbLine
 10
-60.26684964794833
 20
-11900.0632168123
 30
0.0
 11
-57.26684964794833
 21
-11900.0632168123
 31
0.0
  0
INSERT
  5
5C5F1
330
5C066
100
AcDbEntity
  8
AM_5
100
AcDbBlockReference
  2
_Dot
 10
-60.26684964794833
 20
-11900.0632168123
 30
0.0
  0
INSERT
  5
5C5F2
330
5C066
100
AcDbEntity
  8
AM_5
100
AcDbBlockReference
  2
_Dot
 10
-57.26684964794833
 20
-11900.0632168123
 30
0.0
 50
180.0
  0
MTEXT
  5
5C5F3
330
5C066
100
AcDbEntity
  8
AM_5
 62
     2
100
AcDbMText
 10
-58.76684964794833
 20
-11896.9632168123
 30
0.0
 40
3.200000000000001
 41
0.0
 71
     5
 72
     1
  1
%%c3
 73
     1
 44
1.0
1001
ACAD
1000
MTEXTBEGIN
1070
    73
1070
     1
1070
    44
1040
1.0
1070
    74
1070
     0
1000
MTEXTEND
  0
POINT
  5
5C5F4
330
5C066
100
AcDbEntity
  8
Defpoints
 62
     0
100
AcDbPoint
 10
-60.26684964794833
 20
-11913.0632168123
 30
0.0
  0
POINT
  5
5C5F5
330
5C066
100
AcDbEntity
  8
Defpoints
 62
     0
100
AcDbPoint
 10
-57.26684964794833
 20
-11913.0632168123
 30
0.0
  0
POINT
  5
5C5F6
330
5C066
100
AcDbEntity
  8
Defpoints
 62
     0
100
AcDbPoint
 10
-57.26684964794833
 20
-11900.0632168123
 30
0.0
  0
ENDBLK
  5
5C073
330
5C066
100
AcDbEntity
  8
0
100
AcDbBlockEnd
  0
BLOCK
  5
5C080
330
5C074
100
AcDbEntity
  8
0
100
AcDbBlockBegin
  2
*D26
 70
     1
 10
0.0
 20
0.0
 30
0.0
  3
*D26
  1

  0
LINE
  5
5C5F7
330
5C074
100
AcDbEntity
  8
AM_5
100
AcDbLine
 10
-75.76684964794833
 20
-11916.0632168123
 30
0.0
 11
-85.76684964795026
 21
-11916.0632168123
 31
0.0
  0
LINE
  5
5C5F8
330
5C074
100
AcDbEntity
  8
AM_5
100
AcDbLine
 10
-75.76684964794833
 20
-11913.7632168123
 30
0.0
 11
-85.76684964795026
 21
-11913.7632168123
 31
0.0
  0
LINE
  5
5C5F9
330
5C074
100
AcDbEntity
  8
AM_5
100
AcDbLine
 10
-84.76684964795024
 20
-11917.0632168123
 30
0.0
 11
-84.76684964795024
 21
-11918.0632168123
 31
0.0
  0
LINE
  5
5C5FA
330
5C074
100
AcDbEntity
  8
AM_5
100
AcDbLine
 10
-84.76684964795024
 20
-11912.7632168123
 30
0.0
 11
-84.76684964795024
 21
-11903.16988347896
 31
0.0
  0
LINE
  5
5C5FB
330
5C074
100
AcDbEntity
  8
AM_5
100
AcDbLine
 10
-84.76684964795024
 20
-11916.0632168123
 30
0.0
 11
-84.76684964795024
 21
-11913.7632168123
 31
0.0
  0
INSERT
  5
5C5FC
330
5C074
100
AcDbEntity
  8
AM_5
100
AcDbBlockReference
  2
_Dot
 10
-84.76684964795024
 20
-11916.0632168123
 30
0.0
 50
90.0
  0
INSERT
  5
5C5FD
330
5C074
100
AcDbEntity
  8
AM_5
100
AcDbBlockReference
  2
_Dot
 10
-84.76684964795024
 20
-11913.7632168123
 30
0.0
 50
270.0
  0
MTEXT
  5
5C5FE
330
5C074
100
AcDbEntity
  8
AM_5
 62
     2
100
AcDbMText
 10
-87.86684964794833
 20
-11907.01655014563
 30
0.0
 40
3.200000000000001
 41
0.0
 71
     5
 72
     1
  1
2.3
 11
0.0000000000000001
 21
1.0
 31
0.0
 73
     1
 44
1.0
1001
ACAD
1000
MTEXTBEGIN
1070
    73
1070
     1
1070
    44
1040
1.0
1070
    74
1070
     0
1000
MTEXTEND
  0
POINT
  5
5C5FF
330
5C074
100
AcDbEntity
  8
Defpoints
 62
     0
100
AcDbPoint
 10
-74.76684964794833
 20
-11916.0632168123
 30
0.0
  0
POINT
  5
5C600
330
5C074
100
AcDbEntity
  8
Defpoints
 62
     0
100
AcDbPoint
 10
-74.76684964794833
 20
-11913.7632168123
 30
0.0
  0
POINT
  5
5C601
330
5C074
100
AcDbEntity
  8
Defpoints
 62
     0
100
AcDbPoint
 10
-84.76684964795024
 20
-11913.7632168123
 30
0.0
  0
ENDBLK
  5
5C081
330
5C074
100
AcDbEntity
  8
0
100
AcDbBlockEnd
  0
BLOCK
  5
5C70D
330
5C70A
100
AcDbEntity
  8
0
100
AcDbBlockBegin
  2
GENDOT
 70
     0
 10
0.0
 20
0.0
 30
0.0
  3
GENDOT
  1

  0
LINE
  5
5C70B
330
5C70A
100
AcDbEntity
  8
0
100
AcDbLine
 10
0.0
 20
0.0
 30
0.0
 11
-1.0
 21
0.0
 31
0.0
  0
LWPOLYLINE
  5
5C70C
330
5C70A
100
AcDbEntity
  8
0
100
AcDbPolyline
 90
        2
 70
     1
 43
0.25
 10
-0.125
 20
0.0
 42
1.0
 10
0.125
 20
0.0
 42
1.0
  0
ENDBLK
  5
5C70E
330
5C70A
100
AcDbEntity
  8
0
100
AcDbBlockEnd
  0
BLOCK
  5
5C826
330
5C825
100
AcDbEntity
  8
0
100
AcDbBlockBegin
  2
a
 70
     0
 10
0.0
 20
0.0
 30
0.0
  3
a
  1

  0
LINE
  5
5C828
330
5C825
100
AcDbEntity
  8
AM_5
100
AcDbLine
 10
-108.140849647938
 20
-11763.7029889598
 30
0.0
 11
-78.92518298127106
 21
-11763.7029889598
 31
0.0
  0
LINE
  5
5C829
330
5C825
100
AcDbEntity
  8
AM_5
100
AcDbLine
 10
-78.92518298127106
 20
-11763.7029889598
 30
0.0
 11
-71.053005278427
 21
-11779.97689200424
 31
0.0
  0
MTEXT
  5
5C82A
102
{ACAD_XDICTIONARY
360
5C93C
102
}
330
5C825
100
AcDbEntity
  8
AM_5
 62
     2
100
AcDbMText
 10
-94.90351631460544
 20
-11760.6029889598
 30
0.0
 40
3.2
 41
0.0
 71
     5
 72
     1
  1
8-%%c3.3×\U+22056.5サラ
 73
     1
 44
1.0
1001
ACAD
1000
MTEXTBEGIN
1070
    73
1070
     1
1070
    44
1040
1.0
1070
    74
1070
     0
1000
MTEXTEND
  0
LINE
  5
5C82B
330
5C825
100
AcDbEntity
  8
AM_5
100
AcDbLine
 10
-67.35161044812412
 20
-11787.62866802751
 30
0.0
 11
-70.18208884776777
 21
-11781.77730989207
 31
0.0
  0
LWPOLYLINE
  5
5C82C
330
5C825
100
AcDbEntity
  8
AM_5
100
AcDbPolyline
 90
        2
 70
     1
 43
0.5
 10
-67.24274589429175
 20
-11787.85372026349
 42
1.0
 10
-67.4604750019565
 20
-11787.40361579153
 42
1.0
  0
INSERT
  5
5C82D
330
5C825
100
AcDbEntity
  8
AM_5
100
AcDbBlockReference
  2
GENDOT
 10
-70.18208884776777
 20
-11781.77730989207
 30
0.0
 41
2.0
 42
2.0
 43
2.0
 50
295.8144544131458
  0
ENDBLK
  5
5C827
330
5C825
100
AcDbEntity
  8
0
100
AcDbBlockEnd
  0
ENDSEC
  0
SECTION
  2
ENTITIES
  0
MTEXT
  5
106CC
330
1F
100
AcDbEntity
  8
AM_0
 48
1.01
100
AcDbMText
 10
730.8714680310349
 20
1138.067761010781
 30
0.0
 40
3.2
 41
84.65110299302251
 71
     1
 72
     5
  1

 73
     1
 44
1.0
1001
ACAD
1000
MTEXTBEGIN
1070
    73
1070
     1
1070
    44
1040
1.0
1070
    74
1070
     0
1000
MTEXTEND
  0
MTEXT
  5
15810
330
1F
100
AcDbEntity
  8
AM_0
 48
1.01
100
AcDbMText
 10
1216.290048939032
 20
1069.515025886514
 30
0.0
 40
3.2
 41
480.872052688973
 71
     1
 72
     5
  1

 73
     1
 44
1.0
1001
ACAD
1000
MTEXTBEGIN
1070
    73
1070
     1
1070
    44
1040
1.0
1070
    74
1070
     0
1000
MTEXTEND
  0
LINE
  5
5BFB5
330
1F
100
AcDbEntity
  8
AM_0
100
AcDbLine
 10
-55.27256864794856
 20
-11913.7078068123
 30
0.0
 11
-42.76684964794833
 21
-11913.7078068123
 31
0.0
  0
LINE
  5
5BFB6
330
1F
100
AcDbEntity
  8
AM_0
100
AcDbLine
 10
-42.76684964794833
 20
-11913.7078068123
 30
0.0
 11
-42.76684964794833
 21
-11916.0078068123
 31
0.0
  0
LINE
  5
5BFB7
330
1F
100
AcDbEntity
  8
AM_0
100
AcDbLine
 10
-74.76684964794833
 20
-11916.0078068123
 30
0.0
 11
-74.76684964794833
 21
-11913.7078068123
 31
0.0
  0
LINE
  5
5BFB8
330
1F
100
AcDbEntity
  8
AM_0
100
AcDbLine
 10
-74.76684964794833
 20
-11913.7078068123
 30
0.0
 11
-61.68403964794845
 21
-11913.7078068123
 31
0.0
  0
LINE
  5
5BFB9
330
1F
100
AcDbEntity
  8
AM_0
100
AcDbLine
 10
-62.26684964794833
 20
-11913.7078068123
 30
0.0
 11
-62.26684964794833
 21
-11916.0078068123
 31
0.0
  0
LINE
  5
5BFBA
330
1F
100
AcDbEntity
  8
AM_0
100
AcDbLine
 10
-42.76684964794833
 20
-11916.0078068123
 30
0.0
 11
-74.76684964794833
 21
-11916.0078068123
 31
0.0
  0
LINE
  5
5BFBB
330
1F
100
AcDbEntity
  8
AM_0
100
AcDbLine
 10
-74.76684964794833
 20
-11773.70298895979
 30
0.0
 11
-74.76684964794833
 21
-11873.70298895979
 31
0.0
  0
LINE
  5
5BFBC
330
1F
100
AcDbEntity
  8
AM_0
100
AcDbLine
 10
-74.76684964794833
 20
-11873.70298895979
 30
0.0
 11
-62.26684964794834
 21
-11873.70298895979
 31
0.0
  0
LINE
  5
5BFBD
330
1F
100
AcDbEntity
  8
AM_0
100
AcDbLine
 10
-62.26684964794834
 20
-11873.70298895979
 30
0.0
 11
-62.26684964794834
 21
-11853.73298895979
 31
0.0
  0
LINE
  5
5BFBE
330
1F
100
AcDbEntity
  8
AM_0
100
AcDbLine
 10
-62.26684964794834
 20
-11853.73298895979
 30
0.0
 11
-55.26684964794834
 21
-11853.73298895979
 31
0.0
  0
LINE
  5
5BFBF
330
1F
100
AcDbEntity
  8
AM_0
100
AcDbLine
 10
-62.26684964794834
 20
-11833.71298895979
 30
0.0
 11
-62.26684964794834
 21
-11813.69298895979
 31
0.0
  0
LINE
  5
5BFC0
330
1F
100
AcDbEntity
  8
AM_0
100
AcDbLine
 10
-62.26684964794834
 20
-11773.70298895979
 30
0.0
 11
-74.76684964794833
 21
-11773.70298895979
 31
0.0
  0
LINE
  5
5BFC1
330
1F
100
AcDbEntity
  8
AM_0
100
AcDbLine
 10
-42.76684964794834
 20
-11773.70298895979
 30
0.0
 11
-42.76684964794834
 21
-11873.70298895979
 31
0.0
  0
LINE
  5
5BFC2
330
1F
100
AcDbEntity
  8
AM_0
100
AcDbLine
 10
-55.26684964794834
 20
-11853.73298895979
 30
0.0
 11
-55.26684964794834
 21
-11833.71298895979
 31
0.0
  0
LINE
  5
5BFC3
330
1F
100
AcDbEntity
  8
AM_0
100
AcDbLine
 10
-62.26684964794834
 20
-11833.71298895979
 30
0.0
 11
-55.26684964794834
 21
-11833.71298895979
 31
0.0
  0
LINE
  5
5BFC4
330
1F
100
AcDbEntity
  8
AM_0
100
AcDbLine
 10
-61.76684964794834
 20
-11773.70298895979
 30
0.0
 11
-42.76684964794834
 21
-11773.70298895979
 31
0.0
  0
LINE
  5
5BFC5
330
1F
100
AcDbEntity
  8
AM_0
100
AcDbLine
 10
-55.76684964794834
 20
-11773.70298895979
 30
0.0
 11
-55.76684964794834
 21
-11873.70298895979
 31
0.0
  0
LINE
  5
5BFC6
330
1F
100
AcDbEntity
  8
AM_7
100
AcDbLine
 10
-58.76684964794834
 20
-11767.98677795979
 30
0.0
 11
-58.76684964794834
 21
-11880.19857895979
 31
0.0
  0
LINE
  5
5BFC7
330
1F
100
AcDbEntity
  8
AM_0
100
AcDbLine
 10
-42.76684964794834
 20
-11873.70298895979
 30
0.0
 11
-61.76684964794834
 21
-11873.70298895979
 31
0.0
  0
LINE
  5
5BFC8
330
1F
100
AcDbEntity
  8
AM_7
 48
0.5
100
AcDbLine
 10
-44.00827164794839
 20
-11862.70298895979
 30
0.0
 11
-53.52542764794828
 21
-11862.70298895979
 31
0.0
  0
LINE
  5
5BFC9
330
1F
100
AcDbEntity
  8
AM_7
 48
0.5
100
AcDbLine
 10
-48.76684964794834
 20
-11857.53653295979
 30
0.0
 11
-48.76684964794834
 21
-11867.86944495979
 31
0.0
  0
LINE
  5
5BFCA
330
1F
100
AcDbEntity
  8
AM_0
100
AcDbLine
 10
-55.26684964794834
 20
-11813.69298895979
 30
0.0
 11
-62.26684964794834
 21
-11813.69298895979
 31
0.0
  0
LINE
  5
5BFCB
330
1F
100
AcDbEntity
  8
AM_0
100
AcDbLine
 10
-55.26684964794834
 20
-11813.69298895979
 30
0.0
 11
-55.26684964794834
 21
-11793.67298895979
 31
0.0
  0
LINE
  5
5BFCC
330
1F
100
AcDbEntity
  8
AM_0
100
AcDbLine
 10
-61.76684964794834
 20
-11873.70298895979
 30
0.0
 11
-61.76684964794834
 21
-11773.70298895979
 31
0.0
  0
LINE
  5
5BFCD
330
1F
100
AcDbEntity
  8
AM_0
100
AcDbLine
 10
-62.26684964794834
 20
-11793.67298895979
 30
0.0
 11
-62.26684964794834
 21
-11773.70298895979
 31
0.0
  0
ARC
  5
5BFCE
330
1F
100
AcDbEntity
  8
AM_0
100
AcDbCircle
 10
-58.76684964794833
 20
-11913.0078068123
 30
0.0
 40
3.0
100
AcDbArc
 50
356.7241709999544
 51
270.0
  0
CIRCLE
  5
5BFCF
330
1F
100
AcDbEntity
  8
AM_0
100
AcDbCircle
 10
-58.76684964794833
 20
-11913.0078068123
 30
0.0
 40
1.5
  0
CIRCLE
  5
5BFD0
330
1F
100
AcDbEntity
  8
AM_0
100
AcDbCircle
 10
-68.76684964794833
 20
-11862.70298895979
 30
0.0
 40
1.649999999999999
  0
CIRCLE
  5
5BFD1
330
1F
100
AcDbEntity
  8
AM_0
100
AcDbCircle
 10
-68.76684964794833
 20
-11862.70298895979
 30
0.0
 40
3.25
  0
CIRCLE
  5
5BFD2
330
1F
100
AcDbEntity
  8
AM_0
100
AcDbCircle
 10
-68.76684964794833
 20
-11836.70298895979
 30
0.0
 40
1.649999999999999
  0
CIRCLE
  5
5BFD3
330
1F
100
AcDbEntity
  8
AM_0
100
AcDbCircle
 10
-68.76684964794833
 20
-11836.70298895979
 30
0.0
 40
3.25
  0
CIRCLE
  5
5BFD4
330
1F
100
AcDbEntity
  8
AM_0
100
AcDbCircle
 10
-48.76684964794834
 20
-11862.70298895979
 30
0.0
 40
1.649999999999999
  0
CIRCLE
  5
5BFD5
330
1F
100
AcDbEntity
  8
AM_0
100
AcDbCircle
 10
-48.76684964794834
 20
-11862.70298895979
 30
0.0
 40
3.25
  0
CIRCLE
  5
5BFD6
330
1F
100
AcDbEntity
  8
AM_0
100
AcDbCircle
 10
-48.76684964794834
 20
-11836.70298895979
 30
0.0
 40
1.649999999999999
  0
CIRCLE
  5
5BFD7
330
1F
100
AcDbEntity
  8
AM_0
100
AcDbCircle
 10
-48.76684964794834
 20
-11836.70298895979
 30
0.0
 40
3.25
  0
CIRCLE
  5
5BFD8
330
1F
100
AcDbEntity
  8
AM_0
100
AcDbCircle
 10
-48.76684964794834
 20
-11810.70298895979
 30
0.0
 40
1.649999999999999
  0
CIRCLE
  5
5BFD9
330
1F
100
AcDbEntity
  8
AM_0
100
AcDbCircle
 10
-48.76684964794834
 20
-11810.70298895979
 30
0.0
 40
3.25
  0
CIRCLE
  5
5BFDA
330
1F
100
AcDbEntity
  8
AM_0
100
AcDbCircle
 10
-68.76684964794833
 20
-11810.70298895979
 30
0.0
 40
1.649999999999999
  0
CIRCLE
  5
5BFDB
330
1F
100
AcDbEntity
  8
AM_0
100
AcDbCircle
 10
-68.76684964794833
 20
-11810.70298895979
 30
0.0
 40
3.25
  0
CIRCLE
  5
5BFDC
330
1F
100
AcDbEntity
  8
AM_0
100
AcDbCircle
 10
-48.76684964794834
 20
-11784.70298895979
 30
0.0
 40
1.649999999999999
  0
CIRCLE
  5
5BFDD
330
1F
100
AcDbEntity
  8
AM_0
100
AcDbCircle
 10
-48.76684964794834
 20
-11784.70298895979
 30
0.0
 40
3.25
  0
CIRCLE
  5
5BFDE
330
1F
100
AcDbEntity
  8
AM_0
100
AcDbCircle
 10
-68.76684964794833
 20
-11784.70298895979
 30
0.0
 40
1.649999999999999
  0
CIRCLE
  5
5BFDF
330
1F
100
AcDbEntity
  8
AM_0
100
AcDbCircle
 10
-68.76684964794833
 20
-11784.70298895979
 30
0.0
 40
3.25
  0
ARC
  5
5BFE0
330
1F
100
AcDbEntity
  8
AM_0
100
AcDbCircle
 10
-55.27256864794856
 20
-11913.2078068123
 30
0.0
 40
0.5
100
AcDbArc
 50
176.7241709999544
 51
270.0
  0
LINE
  5
5BFE1
330
1F
100
AcDbEntity
  8
AM_0
100
AcDbLine
 10
-55.26684964794834
 20
-11793.67298895979
 30
0.0
 11
-62.26684964794834
 21
-11793.67298895979
 31
0.0
  0
LINE
  5
5BFE2
330
1F
100
AcDbEntity
  8
AM_7
 48
0.5
100
AcDbLine
 10
-64.00827164794839
 20
-11862.70298895979
 30
0.0
 11
-73.52542764794828
 21
-11862.70298895979
 31
0.0
  0
LINE
  5
5BFE3
330
1F
100
AcDbEntity
  8
AM_7
 48
0.5
100
AcDbLine
 10
-68.76684964794833
 20
-11857.53653295979
 30
0.0
 11
-68.76684964794833
 21
-11867.86944495979
 31
0.0
  0
LINE
  5
5BFE4
330
1F
100
AcDbEntity
  8
AM_7
 48
0.5
100
AcDbLine
 10
-64.00827164794839
 20
-11836.70298895979
 30
0.0
 11
-73.52542764794828
 21
-11836.70298895979
 31
0.0
  0
LINE
  5
5BFE5
330
1F
100
AcDbEntity
  8
AM_7
 48
0.5
100
AcDbLine
 10
-68.76684964794833
 20
-11831.53653295978
 30
0.0
 11
-68.76684964794833
 21
-11841.86944495979
 31
0.0
  0
LINE
  5
5BFE6
330
1F
100
AcDbEntity
  8
AM_7
 48
0.5
100
AcDbLine
 10
-44.00827164794839
 20
-11836.70298895979
 30
0.0
 11
-53.52542764794828
 21
-11836.70298895979
 31
0.0
  0
LINE
  5
5BFE7
330
1F
100
AcDbEntity
  8
AM_7
 48
0.5
100
AcDbLine
 10
-48.76684964794834
 20
-11831.53653295978
 30
0.0
 11
-48.76684964794834
 21
-11841.86944495979
 31
0.0
  0
LINE
  5
5BFE8
330
1F
100
AcDbEntity
  8
AM_7
 48
0.5
100
AcDbLine
 10
-44.00827164794839
 20
-11810.70298895978
 30
0.0
 11
-53.52542764794828
 21
-11810.70298895978
 31
0.0
  0
LINE
  5
5BFE9
330
1F
100
AcDbEntity
  8
AM_7
 48
0.5
100
AcDbLine
 10
-48.76684964794834
 20
-11805.53653295979
 30
0.0
 11
-48.76684964794834
 21
-11815.86944495979
 31
0.0
  0
LINE
  5
5BFEA
330
1F
100
AcDbEntity
  8
AM_7
 48
0.5
100
AcDbLine
 10
-64.00827164794839
 20
-11810.70298895978
 30
0.0
 11
-73.52542764794828
 21
-11810.70298895978
 31
0.0
  0
LINE
  5
5BFEB
330
1F
100
AcDbEntity
  8
AM_7
 48
0.5
100
AcDbLine
 10
-68.76684964794833
 20
-11805.53653295979
 30
0.0
 11
-68.76684964794833
 21
-11815.86944495979
 31
0.0
  0
LINE
  5
5BFEC
330
1F
100
AcDbEntity
  8
AM_7
 48
0.5
100
AcDbLine
 10
-64.00827164794839
 20
-11784.70298895978
 30
0.0
 11
-73.52542764794828
 21
-11784.70298895978
 31
0.0
  0
LINE
  5
5BFED
330
1F
100
AcDbEntity
  8
AM_7
 48
0.5
100
AcDbLine
 10
-68.76684964794833
 20
-11779.53653295979
 30
0.0
 11
-68.76684964794833
 21
-11789.86944495979
 31
0.0
  0
LINE
  5
5BFEE
330
1F
100
AcDbEntity
  8
AM_7
 48
0.5
100
AcDbLine
 10
-44.00827164794839
 20
-11784.70298895978
 30
0.0
 11
-53.52542764794828
 21
-11784.70298895978
 31
0.0
  0
LINE
  5
5BFEF
330
1F
100
AcDbEntity
  8
AM_7
 48
0.5
100
AcDbLine
 10
-48.76684964794834
 20
-11779.53653295979
 30
0.0
 11
-48.76684964794834
 21
-11789.86944495979
 31
0.0
  0
LINE
  5
5BFF0
330
1F
100
AcDbEntity
  8
AM_7
 48
0.3
100
AcDbLine
 10
-48.76684964794833
 20
-11912.1211508123
 30
0.0
 11
-48.76684964794833
 21
-11917.5631708123
 31
0.0
  0
LINE
  5
5BFF1
330
1F
100
AcDbEntity
  8
AM_7
 48
0.3
100
AcDbLine
 10
-68.76684964794833
 20
-11912.1211508123
 30
0.0
 11
-68.76684964794833
 21
-11917.5631708123
 31
0.0
  0
LINE
  5
5BFF7
330
1F
100
AcDbEntity
  8
AM_3
 48
0.5
100
AcDbLine
 10
-72.01682606745532
 20
-11913.7078068123
 30
0.0
 11
-70.4168387646437
 21
-11915.30779411511
 31
0.0
  0
LINE
  5
5BFF8
330
1F
100
AcDbEntity
  8
AM_3
 48
0.5
100
AcDbLine
 10
-70.4168387646437
 20
-11915.30779411511
 30
0.0
 11
-67.11686053125308
 21
-11915.30779613629
 31
0.0
  0
LINE
  5
5BFF9
330
1F
100
AcDbEntity
  8
AM_3
 48
0.5
100
AcDbLine
 10
-67.11686053125308
 20
-11915.30779613629
 30
0.0
 11
-65.51684964794834
 21
-11913.7078068123
 31
0.0
  0
LINE
  5
5BFFA
330
1F
100
AcDbEntity
  8
AM_3
 48
0.5
100
AcDbLine
 10
-70.41683876464358
 20
-11916.0078068123
 30
0.0
 11
-70.4168387646437
 21
-11915.30779411511
 31
0.0
  0
LINE
  5
5BFFB
330
1F
100
AcDbEntity
  8
AM_3
 48
0.5
100
AcDbLine
 10
-67.11686053125308
 20
-11916.0078068123
 30
0.0
 11
-67.11686053125308
 21
-11915.30779613629
 31
0.0
  0
DIMENSION
  5
5BFFC
330
1F
100
AcDbEntity
  8
AM_5
100
AcDbDimension
  2
*D17
 10
-48.76684964794834
 20
-11763.70298895979
 30
0.0
 11
-58.76684964794834
 21
-11763.70298895979
 31
0.0
 70
   160
 71
     5
 42
19.99999999999999
  3
SYS$0
100
AcDbAlignedDimension
 13
-68.76684964794833
 23
-11779.53653295979
 33
0.0
 14
-48.76684964794834
 24
-11779.53653295979
 34
0.0
100
AcDbRotatedDimension
1001
ACAD
1000
DSTYLE
1002
{
1070
    47
1040
0.2
1070
    48
1040
-0.2
1070
   271
1070
     1
1002
}
  0
DIMENSION
  5
5BFFD
330
1F
100
AcDbEntity
  8
AM_5
100
AcDbDimension
  2
*D18
 10
-42.76684964794834
 20
-11755.70298895979
 30
0.0
 11
-58.76684964794834
 21
-11755.70298895979
 31
0.0
 70
   160
 71
     5
 42
31.99999999999999
  3
SYS$0
100
AcDbAlignedDimension
 13
-74.76684964794833
 23
-11773.70298895979
 33
0.0
 14
-42.76684964794834
 24
-11773.70298895979
 34
0.0
100
AcDbRotatedDimension
1001
ACAD
1000
DSTYLE
1002
{
1070
    47
1040
0.2
1070
    48
1040
-0.2
1070
   271
1070
     1
1002
}
  0
DIMENSION
  5
5BFFE
330
1F
100
AcDbEntity
  8
AM_5
100
AcDbDimension
  2
*D19
 10
-92.76684964795219
 20
-11873.70298895979
 30
0.0
 11
-92.76684964795027
 21
-11823.70298895979
 31
0.0
 70
   160
  1
<>
 71
     5
 42
100.0
  3
SYS$0
100
AcDbAlignedDimension
 13
-74.76684964794833
 23
-11773.70298895979
 33
0.0
 14
-74.76684964794833
 24
-11873.70298895979
 34
0.0
 50
90.0
100
AcDbRotatedDimension
1001
ACAD
1000
DSTYLE
1002
{
1070
    47
1040
0.2
1070
    48
1040
-0.2
1070
   271
1070
     1
1002
}
  0
DIMENSION
  5
5BFFF
330
1F
100
AcDbEntity
  8
AM_5
100
AcDbDimension
  2
*D20
 10
-84.7668496479541
 20
-11810.70298895978
 30
0.0
 11
-84.7668496479522
 21
-11823.70298895978
 31
0.0
 70
   160
  1
<>
 71
     5
 42
26.00000000000182
  3
SYS$0
100
AcDbAlignedDimension
 13
-73.52542764794828
 23
-11836.70298895979
 33
0.0
 14
-73.61040214794832
 24
-11810.70298895978
 34
0.0
 50
90.0
100
AcDbRotatedDimension
1001
ACAD
1000
DSTYLE
1002
{
1070
    47
1040
0.2
1070
    48
1040
-0.2
1070
   271
1070
     1
1002
}
  0
DIMENSION
  5
5C000
330
1F
100
AcDbEntity
  8
AM_5
100
AcDbDimension
  2
*D21
 10
-84.76684964795408
 20
-11784.70298895978
 30
0.0
 11
-84.7668496479522
 21
-11797.70298895978
 31
0.0
 70
   160
  1
<>
 71
     5
 42
25.99999999999818
  3
SYS$0
100
AcDbAlignedDimension
 13
-73.61040214794832
 23
-11810.70298895978
 33
0.0
 14
-73.52542764794828
 24
-11784.70298895978
 34
0.0
 50
90.0
100
AcDbRotatedDimension
1001
ACAD
1000
DSTYLE
1002
{
1070
    47
1040
0.2
1070
    48
1040
-0.2
1070
   271
1070
     1
1002
}
  0
DIMENSION
  5
5C001
330
1F
100
AcDbEntity
  8
AM_5
100
AcDbDimension
  2
*D22
 10
-84.7668496479541
 20
-11836.70298895978
 30
0.0
 11
-84.7668496479522
 21
-11849.70298895978
 31
0.0
 70
   160
  1
<>
 71
     5
 42
26.00000000000182
  3
SYS$0
100
AcDbAlignedDimension
 13
-73.52542764794828
 23
-11862.70298895979
 33
0.0
 14
-73.61040214794832
 24
-11836.70298895978
 34
0.0
 50
90.0
100
AcDbRotatedDimension
1001
ACAD
1000
DSTYLE
1002
{
1070
    47
1040
0.2
1070
    48
1040
-0.2
1070
   271
1070
     1
1002
}
  0
DIMENSION
  5
5C003
330
1F
100
AcDbEntity
  8
AM_5
100
AcDbDimension
  2
*D24
 10
-55.76684964794833
 20
-11892.0632168123
 30
0.0
 11
-58.76684964794833
 21
-11892.0632168123
 31
0.0
 70
   160
  1
（%%c<>）
 71
     5
 42
6.0
  3
SYS$0
100
AcDbAlignedDimension
 13
-61.76684964794834
 23
-11913.0632168123
 33
0.0
 14
-55.76684964794833
 24
-11913.0632168123
 34
0.0
100
AcDbRotatedDimension
1001
ACAD
1000
DSTYLE
1002
{
1070
    47
1040
0.2
1070
    48
1040
-0.2
1070
   271
1070
     1
1002
}
  0
DIMENSION
  5
5C004
330
1F
100
AcDbEntity
  8
AM_5
100
AcDbDimension
  2
*D25
 10
-57.26684964794833
 20
-11900.0632168123
 30
0.0
 11
-58.76684964794833
 21
-11900.0632168123
 31
0.0
 70
   160
  1
%%c<>
 71
     5
 42
3.0
  3
SYS$0
100
AcDbAlignedDimension
 13
-60.26684964794833
 23
-11913.0632168123
 33
0.0
 14
-57.26684964794833
 24
-11913.0632168123
 34
0.0
100
AcDbRotatedDimension
1001
ACAD
1000
DSTYLE
1002
{
1070
    47
1040
0.2
1070
    48
1040
-0.2
1070
   271
1070
     1
1002
}
  0
DIMENSION
  5
5C005
330
1F
100
AcDbEntity
  8
AM_5
100
AcDbDimension
  2
*D26
 10
-84.76684964795024
 20
-11913.7632168123
 30
0.0
 11
-84.76684964794833
 21
-11907.01655014563
 31
0.0
 70
   160
 71
     5
 42
2.300000000001091
  3
SYS$0
100
AcDbAlignedDimension
 13
-74.76684964794833
 23
-11916.0632168123
 33
0.0
 14
-74.76684964794833
 24
-11913.7632168123
 34
0.0
 50
90.0
100
AcDbRotatedDimension
1001
ACAD
1000
DSTYLE
1002
{
1070
    47
1040
0.2
1070
    48
1040
-0.2
1070
   271
1070
     1
1002
}
  0
LINE
  5
5C36E
330
1F
100
AcDbEntity
  8
size
100
AcDbLine
 10
-243.5574302339137
 20
-11940.64904086222
 30
0.0
 11
53.4425697660863
 21
-11940.64904086222
 31
0.0
1001
GENIUS_GENREC_14
1002
{
1000
PYDIR
1011
-243.5574302339137
1021
-11643.64904086222
1031
0.0
1002
}
1002
{
1000
PXDIR
1011
176.4425697660863
1021
-11940.64904086222
1031
0.0
1002
}
1002
{
1000
PORI
1011
-243.5574302339137
1021
-11940.64904086222
1031
0.0
1002
}
1002
{
1000
PINS
1011
-33.55743023391369
1021
-11792.14904086222
1031
0.0
1002
}
1002
{
1000
HVAL
1000
297
1002
}
1002
{
1000
H
1070
     2
1002
}
1002
{
1000
WVAL
1000
420
1002
}
1002
{
1000
W
1070
     2
1002
}
1002
{
1000
C
1070
     4
1002
}
1001
GENIUS_GENOBJ-N-REC_13
1002
{
1000
OWNER
1000
GEN
1002
}
1001
GENIUS_GENODEF_13
1002
{
1000
HIER
1070
     0
1002
}
1002
{
1000
MANEDIT
1070
     0
1002
}
1002
{
1000
NOSEL
1070
     0
1002
}
1002
{
1000
BEHIND
1070
     0
1002
}
1002
{
1000
OTHER
1070
     0
1002
}
1002
{
1000
REACTOR
1002
}
  0
LINE
  5
5C36F
330
1F
100
AcDbEntity
  8
size
100
AcDbLine
 10
-243.5574302339137
 20
-11730.64904086222
 30
0.0
 11
-243.5574302339137
 21
-11940.64904086222
 31
0.0
1001
GENIUS_GENREC_14
1002
{
1000
PYDIR
1011
-243.5574302339137
1021
-11643.64904086222
1031
0.0
1002
}
1002
{
1000
PXDIR
1011
176.4425697660863
1021
-11940.64904086222
1031
0.0
1002
}
1002
{
1000
PORI
1011
-243.5574302339137
1021
-11940.64904086222
1031
0.0
1002
}
1002
{
1000
PINS
1011
-33.55743023391369
1021
-11792.14904086222
1031
0.0
1002
}
1002
{
1000
HVAL
1000
297
1002
}
1002
{
1000
H
1070
     2
1002
}
1002
{
1000
WVAL
1000
420
1002
}
1002
{
1000
W
1070
     2
1002
}
1002
{
1000
C
1070
     4
1002
}
1001
GENIUS_GENOBJ-N-REC_13
1002
{
1000
OWNER
1000
GEN
1002
}
1001
GENIUS_GENODEF_13
1002
{
1000
HIER
1070
     0
1002
}
1002
{
1000
MANEDIT
1070
     0
1002
}
1002
{
1000
NOSEL
1070
     0
1002
}
1002
{
1000
BEHIND
1070
     0
1002
}
1002
{
1000
OTHER
1070
     0
1002
}
1002
{
1000
REACTOR
1002
}
  0
LINE
  5
5C370
330
1F
100
AcDbEntity
  8
waku
100
AcDbLine
 10
41.94256976608619
 20
-11932.14904086222
 30
0.0
 11
41.9425697660863
 21
-11739.14904086222
 31
0.0
1001
GENIUS_GENREC_14
1002
{
1000
PYDIR
1011
-366.5574302339137
1021
-11724.64904086222
1031
0.0
1002
}
1002
{
1000
PXDIR
1011
53.4425697660863
1021
-12021.64904086222
1031
0.0
1002
}
1002
{
1000
PORI
1011
-366.5574302339137
1021
-12021.64904086222
1031
0.0
1002
}
1002
{
1000
PINS
1011
-156.5574302339137
1021
-11873.14904086222
1031
0.0
1002
}
1002
{
1000
HVAL
1000
297
1002
}
1002
{
1000
H
1070
     2
1002
}
1002
{
1000
WVAL
1000
420
1002
}
1002
{
1000
W
1070
     2
1002
}
1002
{
1000
C
1070
     4
1002
}
1001
GENIUS_GENOBJ-N-REC_13
1002
{
1000
OWNER
1000
GEN
1002
}
1001
GENIUS_GENODEF_13
1002
{
1000
HIER
1070
     0
1002
}
1002
{
1000
MANEDIT
1070
     0
1002
}
1002
{
1000
NOSEL
1070
     0
1002
}
1002
{
1000
BEHIND
1070
     0
1002
}
1002
{
1000
OTHER
1070
     0
1002
}
1002
{
1000
REACTOR
1002
}
  0
LINE
  5
5C371
330
1F
100
AcDbEntity
  8
waku
100
AcDbLine
 10
-232.0574302339137
 20
-11739.14904086222
 30
0.0
 11
-232.0574302339137
 21
-11932.14904086222
 31
0.0
1001
GENIUS_GENREC_14
1002
{
1000
PYDIR
1011
-243.5574302339137
1021
-11643.64904086222
1031
0.0
1002
}
1002
{
1000
PXDIR
1011
176.4425697660863
1021
-11940.64904086222
1031
0.0
1002
}
1002
{
1000
PORI
1011
-243.5574302339137
1021
-11940.64904086222
1031
0.0
1002
}
1002
{
1000
PINS
1011
-33.55743023391369
1021
-11792.14904086222
1031
0.0
1002
}
1002
{
1000
HVAL
1000
297
1002
}
1002
{
1000
H
1070
     2
1002
}
1002
{
1000
WVAL
1000
420
1002
}
1002
{
1000
W
1070
     2
1002
}
1002
{
1000
C
1070
     4
1002
}
1001
GENIUS_GENOBJ-N-REC_13
1002
{
1000
OWNER
1000
GEN
1002
}
1001
GENIUS_GENODEF_13
1002
{
1000
HIER
1070
     0
1002
}
1002
{
1000
MANEDIT
1070
     0
1002
}
1002
{
1000
NOSEL
1070
     0
1002
}
1002
{
1000
BEHIND
1070
     0
1002
}
1002
{
1000
OTHER
1070
     0
1002
}
1002
{
1000
REACTOR
1002
}
  0
LINE
  5
5C372
330
1F
100
AcDbEntity
  8
waku
100
AcDbLine
 10
41.9425697660863
 20
-11739.14904086222
 30
0.0
 11
-232.0574302339137
 21
-11739.14904086222
 31
0.0
1001
GENIUS_GENREC_14
1002
{
1000
PYDIR
1011
-366.5574302339137
1021
-11730.64904086222
1031
0.0
1002
}
1002
{
1000
PXDIR
1011
53.4425697660863
1021
-12027.64904086222
1031
0.0
1002
}
1002
{
1000
PORI
1011
-366.5574302339137
1021
-12027.64904086222
1031
0.0
1002
}
1002
{
1000
PINS
1011
-156.5574302339137
1021
-11879.14904086222
1031
0.0
1002
}
1002
{
1000
HVAL
1000
297
1002
}
1002
{
1000
H
1070
     2
1002
}
1002
{
1000
WVAL
1000
420
1002
}
1002
{
1000
W
1070
     2
1002
}
1002
{
1000
C
1070
     4
1002
}
1001
GENIUS_GENOBJ-N-REC_13
1002
{
1000
OWNER
1000
GEN
1002
}
1001
GENIUS_GENODEF_13
1002
{
1000
HIER
1070
     0
1002
}
1002
{
1000
MANEDIT
1070
     0
1002
}
1002
{
1000
NOSEL
1070
     0
1002
}
1002
{
1000
BEHIND
1070
     0
1002
}
1002
{
1000
OTHER
1070
     0
1002
}
1002
{
1000
REACTOR
1002
}
  0
LINE
  5
5C373
330
1F
100
AcDbEntity
  8
waku
100
AcDbLine
 10
-232.0574302339137
 20
-11932.14904086222
 30
0.0
 11
41.94256976608619
 21
-11932.14904086222
 31
0.0
1001
GENIUS_GENREC_14
1002
{
1000
PYDIR
1011
-243.5574302339137
1021
-11643.64904086222
1031
0.0
1002
}
1002
{
1000
PXDIR
1011
176.4425697660863
1021
-11940.64904086222
1031
0.0
1002
}
1002
{
1000
PORI
1011
-243.5574302339137
1021
-11940.64904086222
1031
0.0
1002
}
1002
{
1000
PINS
1011
-33.55743023391369
1021
-11792.14904086222
1031
0.0
1002
}
1002
{
1000
HVAL
1000
297
1002
}
1002
{
1000
H
1070
     2
1002
}
1002
{
1000
WVAL
1000
420
1002
}
1002
{
1000
W
1070
     2
1002
}
1002
{
1000
C
1070
     4
1002
}
  0
LINE
  5
5C374
330
1F
100
AcDbEntity
  8
size
100
AcDbLine
 10
53.4425697660863
 20
-11730.64904086222
 30
0.0
 11
53.4425697660863
 21
-11940.64904086222
 31
0.0
1001
GENIUS_GENREC_14
1002
{
1000
PYDIR
1011
-243.5574302339137
1021
-11643.64904086222
1031
0.0
1002
}
1002
{
1000
PXDIR
1011
176.4425697660863
1021
-11940.64904086222
1031
0.0
1002
}
1002
{
1000
PORI
1011
-243.5574302339137
1021
-11940.64904086222
1031
0.0
1002
}
1002
{
1000
PINS
1011
-33.55743023391369
1021
-11792.14904086222
1031
0.0
1002
}
1002
{
1000
HVAL
1000
297
1002
}
1002
{
1000
H
1070
     2
1002
}
1002
{
1000
WVAL
1000
420
1002
}
1002
{
1000
W
1070
     2
1002
}
1002
{
1000
C
1070
     4
1002
}
1001
GENIUS_GENOBJ-N-REC_13
1002
{
1000
OWNER
1000
GEN
1002
}
1001
GENIUS_GENODEF_13
1002
{
1000
HIER
1070
     0
1002
}
1002
{
1000
MANEDIT
1070
     0
1002
}
1002
{
1000
NOSEL
1070
     0
1002
}
1002
{
1000
BEHIND
1070
     0
1002
}
1002
{
1000
OTHER
1070
     0
1002
}
1002
{
1000
REACTOR
1002
}
  0
LINE
  5
5C375
330
1F
100
AcDbEntity
  8
size
100
AcDbLine
 10
-243.5574302339137
 20
-11730.64904086222
 30
0.0
 11
53.4425697660863
 21
-11730.64904086222
 31
0.0
1001
GENIUS_GENREC_14
1002
{
1000
PYDIR
1011
-243.5574302339137
1021
-11643.64904086222
1031
0.0
1002
}
1002
{
1000
PXDIR
1011
176.4425697660863
1021
-11940.64904086222
1031
0.0
1002
}
1002
{
1000
PORI
1011
-243.5574302339137
1021
-11940.64904086222
1031
0.0
1002
}
1002
{
1000
PINS
1011
-33.55743023391369
1021
-11792.14904086222
1031
0.0
1002
}
1002
{
1000
HVAL
1000
297
1002
}
1002
{
1000
H
1070
     2
1002
}
1002
{
1000
WVAL
1000
420
1002
}
1002
{
1000
W
1070
     2
1002
}
1002
{
1000
C
1070
     4
1002
}
1001
GENIUS_GENOBJ-N-REC_13
1002
{
1000
OWNER
1000
GEN
1002
}
1001
GENIUS_GENODEF_13
1002
{
1000
HIER
1070
     0
1002
}
1002
{
1000
MANEDIT
1070
     0
1002
}
1002
{
1000
NOSEL
1070
     0
1002
}
1002
{
1000
BEHIND
1070
     0
1002
}
1002
{
1000
OTHER
1070
     0
1002
}
1002
{
1000
REACTOR
1002
}
  0
LINE
  5
5C6BC
330
1F
100
AcDbEntity
  8
AM_3
 48
0.5
100
AcDbLine
 10
-45.51687322844133
 20
-11913.7078068123
 30
0.0
 11
-47.11686053125297
 21
-11915.30779411511
 31
0.0
  0
LINE
  5
5C6BD
330
1F
100
AcDbEntity
  8
AM_3
 48
0.5
100
AcDbLine
 10
-47.11686053125297
 20
-11915.30779411511
 30
0.0
 11
-50.41683876464358
 21
-11915.30779613629
 31
0.0
  0
LINE
  5
5C6BE
330
1F
100
AcDbEntity
  8
AM_3
 48
0.5
100
AcDbLine
 10
-50.41683876464358
 20
-11915.30779613629
 30
0.0
 11
-52.01684964794833
 21
-11913.7078068123
 31
0.0
  0
LINE
  5
5C6BF
330
1F
100
AcDbEntity
  8
AM_3
 48
0.5
100
AcDbLine
 10
-47.11686053125307
 20
-11916.0078068123
 30
0.0
 11
-47.11686053125297
 21
-11915.30779411511
 31
0.0
  0
LINE
  5
5C6C0
330
1F
100
AcDbEntity
  8
AM_3
 48
0.5
100
AcDbLine
 10
-50.41683876464358
 20
-11916.0078068123
 30
0.0
 11
-50.41683876464358
 21
-11915.30779613629
 31
0.0
  0
INSERT
  5
5C82E
330
1F
100
AcDbEntity
  8
AM_CL
100
AcDbBlockReference
  2
a
 10
0.0
 20
0.0
 30
0.0
  0
LINE
  5
5C849
330
1F
100
AcDbEntity
  8
AM_0
100
AcDbLine
 10
-232.0574302339137
 20
-11739.14904086222
 30
0.0
 11
-137.4879187384949
 21
-11739.14904086222
 31
0.0
  0
LINE
  5
5C84A
330
1F
100
AcDbEntity
  8
AM_2
100
AcDbLine
 10
-232.0574302339137
 20
-11755.14904086222
 30
0.0
 11
-137.4879187384949
 21
-11755.14904086222
 31
0.0
  0
LINE
  5
5C84B
330
1F
100
AcDbEntity
  8
AM_2
100
AcDbLine
 10
-232.0574302339137
 20
-11747.14904086222
 30
0.0
 11
-137.4879187384949
 21
-11747.14904086222
 31
0.0
  0
LINE
  5
5C84C
330
1F
100
AcDbEntity
  8
AM_0
100
AcDbLine
 10
-232.0574302339137
 20
-11739.14904086222
 30
0.0
 11
-232.0574302339137
 21
-11779.14904086222
 31
0.0
  0
LINE
  5
5C84D
330
1F
100
AcDbEntity
  8
AM_2
100
AcDbLine
 10
-209.0574302339137
 20
-11739.14904086222
 30
0.0
 11
-209.0574302339135
 21
-11779.14904086222
 31
0.0
  0
MTEXT
  5
5C84E
330
1F
100
AcDbEntity
  8
AM_6
100
AcDbMText
 10
-220.5574302339137
 20
-11767.14904086222
 30
0.0
 40
3.2
 41
23.0
 71
     5
 72
     5
  1
仕上げ
 73
     1
 44
1.0
1001
ACAD
1000
MTEXTBEGIN
1070
    73
1070
     1
1070
    44
1040
1.0
1070
    74
1070
     0
1000
MTEXTEND
  0
MTEXT
  5
5C84F
330
1F
100
AcDbEntity
  8
AM_6
100
AcDbMText
 10
-220.5574302339137
 20
-11759.14904086222
 30
0.0
 40
3.2
 41
23.0
 71
     5
 72
     5
  1
材質
 73
     1
 44
1.0
1001
ACAD
1000
MTEXTBEGIN
1070
    73
1070
     1
1070
    44
1040
1.0
1070
    74
1070
     0
1000
MTEXTEND
  0
MTEXT
  5
5C850
330
1F
100
AcDbEntity
  8
AM_6
100
AcDbMText
 10
-220.5574302339137
 20
-11743.14904086222
 30
0.0
 40
3.2
 41
23.0
 71
     5
 72
     5
  1
品名
 73
     1
 44
1.0
1001
ACAD
1000
MTEXTBEGIN
1070
    73
1070
     1
1070
    44
1040
1.0
1070
    74
1070
     0
1000
MTEXTEND
  0
MTEXT
  5
5C851
330
1F
100
AcDbEntity
  8
AM_6
100
AcDbMText
 10
-220.5574302339137
 20
-11751.14904086222
 30
0.0
 40
3.2
 41
23.0
 71
     5
 72
     5
  1
品番
 73
     1
 44
1.0
1001
ACAD
1000
MTEXTBEGIN
1070
    73
1070
     1
1070
    44
1040
1.0
1070
    74
1070
     0
1000
MTEXTEND
  0
MTEXT
  5
5C852
330
1F
100
AcDbEntity
  8
AM_6
100
AcDbMText
 10
-209.0574302339137
 20
-11759.14904086222
 30
0.0
 40
3.2
 41
90.0
 71
     4
 72
     5
  1
　黄銅条
 73
     1
 44
1.0
1001
ACAD
1000
MTEXTBEGIN
1070
    73
1070
     1
1070
    44
1040
1.0
1070
    74
1070
     0
1000
MTEXTEND
  0
MTEXT
  5
5C853
330
1F
100
AcDbEntity
  8
AM_6
100
AcDbMText
 10
-209.0574302339137
 20
-11751.14904086222
 30
0.0
 40
3.2
 41
90.0
 71
     4
 72
     5
  1
　DEH-14
 73
     1
 44
1.0
1001
ACAD
1000
MTEXTBEGIN
1070
    73
1070
     1
1070
    44
1040
1.0
1070
    74
1070
     0
1000
MTEXTEND
  0
MTEXT
  5
5C854
330
1F
100
AcDbEntity
  8
AM_6
100
AcDbMText
 10
-209.0574302339137
 20
-11743.14904086222
 30
0.0
 40
3.2
 41
90.0
 71
     4
 72
     5
  1
　平型丁番
 73
     1
 44
1.0
1001
ACAD
1000
MTEXTBEGIN
1070
    73
1070
     1
1070
    44
1040
1.0
1070
    74
1070
     0
1000
MTEXTEND
  0
LINE
  5
5C855
330
1F
100
AcDbEntity
  8
AM_0
100
AcDbLine
 10
-232.0574302339135
 20
-11779.14904086222
 30
0.0
 11
-137.4879187384949
 21
-11779.14904086222
 31
0.0
  0
LINE
  5
5C856
330
1F
100
AcDbEntity
  8
AM_0
100
AcDbLine
 10
-137.4879187384949
 20
-11739.14904086222
 30
0.0
 11
-137.4879187384945
 21
-11779.14904086222
 31
0.0
  0
MTEXT
  5
5C857
330
1F
100
AcDbEntity
  8
AM_6
100
AcDbMText
 10
-209.0574302339137
 20
-11767.14904086222
 30
0.0
 40
3.2
 41
90.0
 71
     4
 72
     5
  1
　クロームメッキ
 73
     1
 44
1.0
1001
ACAD
1000
MTEXTBEGIN
1070
    73
1070
     1
1070
    44
1040
1.0
1070
    74
1070
     0
1000
MTEXTEND
  0
LINE
  5
5C858
330
1F
100
AcDbEntity
  8
AM_2
100
AcDbLine
 10
-232.0574302339137
 20
-11763.14904086222
 30
0.0
 11
-137.4879187384949
 21
-11763.14904086222
 31
0.0
  0
MTEXT
  5
5C859
330
1F
100
AcDbEntity
  8
AM_6
100
AcDbMText
 10
-220.5574302339137
 20
-11775.14904086222
 30
0.0
 40
3.2
 41
23.0
 71
     5
 72
     5
  1
セットビス
 73
     1
 44
1.0
1001
ACAD
1000
MTEXTBEGIN
1070
    73
1070
     1
1070
    44
1040
1.0
1070
    74
1070
     0
1000
MTEXTEND
  0
MTEXT
  5
5C85A
330
1F
100
AcDbEntity
  8
AM_6
100
AcDbMText
 10
-209.0574302339137
 20
-11775.14904086222
 30
0.0
 40
3.2
 41
90.0
 71
     4
 72
     5
  1
　無し
 73
     1
 44
1.0
1001
ACAD
1000
MTEXTBEGIN
1070
    73
1070
     1
1070
    44
1040
1.0
1070
    74
1070
     0
1000
MTEXTEND
  0
LINE
  5
5C85B
330
1F
100
AcDbEntity
  8
AM_2
100
AcDbLine
 10
-232.0574302339137
 20
-11771.14904086222
 30
0.0
 11
-137.4879187384949
 21
-11771.14904086222
 31
0.0
  0
LINE
  5
5C85C
330
1F
100
AcDbEntity
  8
AM_7
  6
AM_ISO08W050x2
100
AcDbLine
 10
-58.76684964794833
 20
-11907.0078068123
 30
0.0
 11
-58.76684964794833
 21
-11919.0078068123
 31
0.0
1001
GENIUS_GENOBJ-N-CEN_13
1002
{
1000
OWNER
1000
GEN
1002
}
1001
GENIUS_GENODEF_13
1002
{
1000
HIER
1070
     0
1002
}
1002
{
1000
MANEDIT
1070
     0
1002
}
1002
{
1000
NOSEL
1070
     0
1002
}
1002
{
1000
BEHIND
1070
     0
1002
}
1002
{
1000
OTHER
1070
     0
1002
}
1002
{
1000
REACTOR
1002
}
1001
GENIUS_GENCEN_19
1002
{
1040
3.0
1002
}
  0
LINE
  5
5C85D
330
1F
100
AcDbEntity
  8
AM_7
  6
AM_ISO08W050x2
100
AcDbLine
 10
-64.76684964794833
 20
-11913.0078068123
 30
0.0
 11
-52.76684964794833
 21
-11913.0078068123
 31
0.0
1001
GENIUS_GENODEF_13
1002
{
1000
HIER
1070
     0
1002
}
1002
{
1000
MANEDIT
1070
     0
1002
}
1002
{
1000
NOSEL
1070
     0
1002
}
1002
{
1000
BEHIND
1070
     0
1002
}
1002
{
1000
OTHER
1070
     0
1002
}
1002
{
1000
REACTOR
1002
}
1001
GENIUS_GENOBJ-N-CEN_13
1002
{
1000
OWNER
1000
GEN
1002
}
1001
GENIUS_GENCEN_19
1002
{
1040
3.0
1002
}
  0
ENDSEC
  0
SECTION
  2
OBJECTS
  0
DICTIONARY
  5
C
330
0
100
AcDbDictionary
281
     1
  3
ACAD_2007HEADERVARS_RT
350
5C922
  3
ACAD_COLOR
350
CDEF
  3
ACAD_GROUP
350
D
  3
ACAD_LAYOUT
350
1A
  3
ACAD_MATERIAL
350
CDEE
  3
ACAD_MLEADERSTYLE
350
5C78E
  3
ACAD_MLINESTYLE
350
17
  3
ACAD_PLOTSETTINGS
350
19
  3
ACAD_PLOTSTYLENAME
350
E
  3
ACAD_SCALELIST
350
5C76C
  3
ACAD_TABLESTYLE
350
1D6FC
  3
ACAD_VISUALSTYLE
350
1D6EB
  3
AcAsAppObject
350
3DA1
  3
ACASGREF_MASTER
350
3DE9
  3
ACDB_RECOMPOSE_DATA
350
5C920
  3
AcDbVariableDictionary
350
34
  3
AcmDictionary
350
47
  3
AD_GREF_MODULE
350
3DEA
  3
AD_MAPI_MODULE
350
3E06
  3
AMG
350
2B
  3
AMGSNAPSETTINGS
350
7D
  3
ASE_INDEX_DICTIONARY
350
5733D
  3
DWGPROPS
350
5C921
  3
MAPISURF_MODULE
350
3DEB
  0
DICTIONARY
  5
1DE12
330
8
100
AcDbDictionary
280
     1
281
     1
  0
DICTIONARY
  5
3F95
330
2
100
AcDbDictionary
280
     1
281
     1
  3
ACAD_LAYERFILTERS
360
3F98
  3
ACAD_LAYERSTATES
360
3F96
  0
DICTIONARY
  5
5C8EE
330
10
100
AcDbDictionary
280
     1
281
     1
  3
ADSK_XREC_LAYER_RECONCILED
360
5C8EF
  0
DICTIONARY
  5
5C8F0
330
A46
100
AcDbDictionary
280
     1
281
     1
  3
ADSK_XREC_LAYER_RECONCILED
360
5C8F1
  0
DICTIONARY
  5
5C8F2
330
A47
100
AcDbDictionary
280
     1
281
     1
  3
ADSK_XREC_LAYER_RECONCILED
360
5C8F3
  0
DICTIONARY
  5
5C8F4
330
A48
100
AcDbDictionary
280
     1
281
     1
  3
ADSK_XREC_LAYER_RECONCILED
360
5C8F5
  0
DICTIONARY
  5
5C8F6
330
3A31
100
AcDbDictionary
280
     1
281
     1
  3
ADSK_XREC_LAYER_RECONCILED
360
5C8F7
  0
DICTIONARY
  5
5C8F8
330
5765
100
AcDbDictionary
280
     1
281
     1
  3
ADSK_XREC_LAYER_RECONCILED
360
5C8F9
  0
DICTIONARY
  5
5C8FA
330
591A
100
AcDbDictionary
280
     1
281
     1
  3
ADSK_XREC_LAYER_RECONCILED
360
5C8FB
  0
DICTIONARY
  5
5C8FC
330
5F85
100
AcDbDictionary
280
     1
281
     1
  3
ADSK_XREC_LAYER_RECONCILED
360
5C8FD
  0
DICTIONARY
  5
5C8FE
330
5F87
100
AcDbDictionary
280
     1
281
     1
  3
ADSK_XREC_LAYER_RECONCILED
360
5C8FF
  0
DICTIONARY
  5
5C900
330
5F88
100
AcDbDictionary
280
     1
281
     1
  3
ADSK_XREC_LAYER_RECONCILED
360
5C901
  0
DICTIONARY
  5
5C902
330
5F89
100
AcDbDictionary
280
     1
281
     1
  3
ADSK_XREC_LAYER_RECONCILED
360
5C903
  0
DICTIONARY
  5
5C904
330
5F8A
100
AcDbDictionary
280
     1
281
     1
  3
ADSK_XREC_LAYER_RECONCILED
360
5C905
  0
DICTIONARY
  5
5C906
330
5F8B
100
AcDbDictionary
280
     1
281
     1
  3
ADSK_XREC_LAYER_RECONCILED
360
5C907
  0
DICTIONARY
  5
5C908
330
65AF
100
AcDbDictionary
280
     1
281
     1
  3
ADSK_XREC_LAYER_RECONCILED
360
5C909
  0
DICTIONARY
  5
5C90A
330
26D55
100
AcDbDictionary
280
     1
281
     1
  3
ADSK_XREC_LAYER_RECONCILED
360
5C90B
  0
DICTIONARY
  5
5C90C
330
4F593
100
AcDbDictionary
280
     1
281
     1
  3
ADSK_XREC_LAYER_RECONCILED
360
5C90D
  0
DICTIONARY
  5
5C90E
330
572A7
100
AcDbDictionary
280
     1
281
     1
  3
ADSK_XREC_LAYER_RECONCILED
360
5C90F
  0
DICTIONARY
  5
5C910
330
572A8
100
AcDbDictionary
280
     1
281
     1
  3
ADSK_XREC_LAYER_RECONCILED
360
5C911
  0
DICTIONARY
  5
5C912
330
5897B
100
AcDbDictionary
280
     1
281
     1
  3
ADSK_XREC_LAYER_RECONCILED
360
5C913
  0
DICTIONARY
  5
8A
330
1F
100
AcDbDictionary
280
     1
281
     1
  3
ACAD_SORTENTS
360
1E18C
  0
DICTIONARY
  5
5C939
330
5C825
100
AcDbDictionary
280
     1
281
     1
  3
AcDbBlockTableRecordData
360
5C93A
  0
DICTIONARY
  5
5C93C
330
5C82A
100
AcDbDictionary
280
     1
281
     1
  3
ACAD_MTEXT_RT
360
5C93D
  0
DICTIONARY
  5
5C922
102
{ACAD_REACTORS
330
C
102
}
330
C
100
AcDbDictionary
281
     1
  3
DIMARCSYM
350
5C923
  0
DICTIONARY
  5
CDEF
102
{ACAD_REACTORS
330
C
102
}
330
C
100
AcDbDictionary
281
     1
  0
DICTIONARY
  5
D
102
{ACAD_REACTORS
330
C
102
}
330
C
100
AcDbDictionary
281
     1
  0
DICTIONARY
  5
1A
102
{ACAD_REACTORS
330
C
102
}
330
C
100
AcDbDictionary
281
     1
  3
Model
350
22
  3
ﾚｲｱｳﾄ1
350
1E
  3
ﾚｲｱｳﾄ2
350
26
  0
DICTIONARY
  5
CDEE
102
{ACAD_REACTORS
330
C
102
}
330
C
100
AcDbDictionary
281
     1
  3
ByBlock
350
1D6E9
  3
ByLayer
350
1D6E8
  3
Global
350
1D6EA
  0
DICTIONARY
  5
5C78E
102
{ACAD_REACTORS
330
C
102
}
330
C
100
AcDbDictionary
281
     1
  3
Standard
350
5C78F
  0
DICTIONARY
  5
17
102
{ACAD_REACTORS
330
C
102
}
330
C
100
AcDbDictionary
281
     1
  3
Standard
350
18
  0
DICTIONARY
  5
19
102
{ACAD_REACTORS
330
C
102
}
330
C
100
AcDbDictionary
281
     1
  3
00
350
1A631
  3
01
350
1A630
  3
02
350
23806
  0
ACDBDICTIONARYWDFLT
  5
E
102
{ACAD_REACTORS
330
C
102
}
330
C
100
AcDbDictionary
281
     1
  3
Normal
350
F
100
AcDbDictionaryWithDefault
340
F
  0
DICTIONARY
  5
5C76C
102
{ACAD_REACTORS
330
C
102
}
330
C
100
AcDbDictionary
281
     1
  3
A0
350
5C76D
  3
A1
350
5C76E
  3
A2
350
5C76F
  3
A3
350
5C770
  3
A4
350
5C771
  3
A5
350
5C772
  3
A6
350
5C773
  3
A7
350
5C774
  3
A8
350
5C775
  3
A9
350
5C776
  3
B0
350
5C777
  3
B1
350
5C778
  3
B2
350
5C779
  3
B3
350
5C77A
  3
B4
350
5C77B
  3
B5
350
5C77C
  3
B6
350
5C77D
  3
B7
350
5C77E
  3
B8
350
5C77F
  3
B9
350
5C780
  3
C0
350
5C781
  3
C1
350
5C782
  3
C2
350
5C783
  3
C3
350
5C784
  3
C4
350
5C785
  3
C5
350
5C786
  3
C6
350
5C787
  3
C7
350
5C788
  3
C8
350
5C789
  3
C9
350
5C78A
  3
D0
350
5C78B
  3
D1
350
5C78C
  3
D2
350
5C78D
  0
DICTIONARY
  5
1D6FC
102
{ACAD_REACTORS
330
C
102
}
330
C
100
AcDbDictionary
281
     1
  3
Standard
350
1D6FD
  0
DICTIONARY
  5
1D6EB
102
{ACAD_REACTORS
330
C
102
}
330
C
100
AcDbDictionary
281
     1
  3
2dWireframe
350
1D6F1
  3
3D Hidden
350
1D6F3
  3
3dWireframe
350
1D6F2
  3
Basic
350
1D6F0
  3
Brighten
350
1D6F7
  3
ColorChange
350
1D6FB
  3
Conceptual
350
1D6F4
  3
Dim
350
1D6F6
  3
Facepattern
350
1D6FA
  3
Flat
350
1D6EC
  3
FlatWithEdges
350
1D6ED
  3
Gouraud
350
1D6EE
  3
GouraudWithEdges
350
1D6EF
  3
Linepattern
350
1D6F9
  3
Realistic
350
1D6F5
  3
Thicken
350
1D6F8
  0
ACAD_PROXY_OBJECT
  5
3DA1
102
{ACAD_REACTORS
330
C
102
}
330
C
100
AcDbProxyObject
 90
      499
 91
      576
 95
   983063
 70
     0
 93
       10
310
407F
 94
        0
1001
ACAD
1000
AcRTDxfName
1000
ASAPP
1000
AcRTDxfName
1000
ASAPP
  0
ACAD_PROXY_OBJECT
  5
3DE9
102
{ACAD_REACTORS
330
C
102
}
330
C
100
AcDbProxyObject
 90
      499
 91
      581
 95
   983063
 70
     0
 93
       34
310
010000407F
 94
        0
1001
ACAD
1000
AcRTDxfName
1000
ACASGREFMASTER
1000
AcRTDxfName
1000
ACASGREFMASTER
  0
XRECORD
  5
5C920
102
{ACAD_REACTORS
330
C
102
}
330
C
100
AcDbXrecord
280
     1
 90
        1
330
1D6FD
  0
DICTIONARY
  5
34
102
{ACAD_REACTORS
330
C
102
}
330
C
100
AcDbDictionary
281
     1
  3
CANNOSCALE
350
5C91D
  3
CMLEADERSTYLE
350
5C91C
  3
CTABLESTYLE
350
1D72C
  3
DIMASSOC
350
A10C
  3
INDEXCTL
350
35
  3
SORTENTS
350
194C
  0
DICTIONARY
  5
47
102
{ACAD_REACTORS
330
C
102
}
330
C
100
AcDbDictionary
281
     1
  3
AcmBOM
350
7E8
  3
AcmStdDictionary
350
4C
  3
AMDTSECTSYM_ARROWCOLOR
350
CFD7
  0
ACAD_PROXY_OBJECT
  5
3DEA
102
{ACAD_REACTORS
330
C
102
}
330
C
100
AcDbProxyObject
 90
      499
 91
      582
 95
   983063
 70
     0
 93
      114
310
00000043800000000000000000003F
 94
        0
1001
ACAD
1000
AcRTDxfName
1000
ACADGREFMODULE
1000
AcRTDxfName
1000
ACADGREFMODULE
  0
ACAD_PROXY_OBJECT
  5
3E06
102
{ACAD_REACTORS
330
C
102
}
330
C
100
AcDbProxyObject
 90
      499
 91
      594
 95
   983063
 70
     0
 93
       34
310
05000044FF
 94
        0
1001
ACAD
1000
AcRTDxfName
1000
MAPIADMODULE
1000
AcRTDxfName
1000
MAPIADMODULE
  0
DICTIONARY
  5
2B
102
{ACAD_REACTORS
330
C
102
}
330
C
100
AcDbDictionary
281
     1
  0
DICTIONARY
  5
7D
102
{ACAD_REACTORS
330
C
102
}
330
C
100
AcDbDictionary
281
     1
  0
DICTIONARY
  5
5733D
102
{ACAD_REACTORS
330
C
102
}
330
C
100
AcDbDictionary
281
     1
  3
ASEBlockHierarchyIndexRecord
350
5733E
1001
DCO15
1040
1638027569.921
  0
XRECORD
  5
5C921
102
{ACAD_REACTORS
330
C
102
}
330
C
100
AcDbXrecord
280
     1
  1
DWGPROPS COOKIE
  2

  3

  4

  6

  7

  8
Administrator
  9

300
AmdtFileType=84
301
=
302
=
303
=
304
=
305
=
306
=
307
=
308
=
309
=
 40
21.79017716435185
 41
2453389.567546297
 42
2454902.544510995
  1

 90
        1
  0
ACAD_PROXY_OBJECT
  5
3DEB
102
{ACAD_REACTORS
330
C
102
}
330
C
100
AcDbProxyObject
 90
      499
 91
      583
 95
   983063
 70
     0
 93
        8
310
047E
 94
        0
1001
ACAD
1000
AcRTDxfName
1000
AMDTMAPISURFMOUDULE
1000
AcRTDxfName
1000
AMDTMAPISURFMOUDULE
  0
DICTIONARY
  5
3F98
102
{ACAD_REACTORS
330
3F95
102
}
330
3F95
100
AcDbDictionary
280
     1
281
     1
  0
DICTIONARY
  5
3F96
102
{ACAD_REACTORS
330
3F95
102
}
330
3F95
100
AcDbDictionary
281
     1
  3
20011210
350
3FB7
  0
XRECORD
  5
5C8EF
102
{ACAD_REACTORS
330
5C8EE
102
}
330
5C8EE
100
AcDbXrecord
280
     1
290
     1
  0
XRECORD
  5
5C8F1
102
{ACAD_REACTORS
330
5C8F0
102
}
330
5C8F0
100
AcDbXrecord
280
     1
290
     1
  0
XRECORD
  5
5C8F3
102
{ACAD_REACTORS
330
5C8F2
102
}
330
5C8F2
100
AcDbXrecord
280
     1
290
     1
  0
XRECORD
  5
5C8F5
102
{ACAD_REACTORS
330
5C8F4
102
}
330
5C8F4
100
AcDbXrecord
280
     1
290
     1
  0
XRECORD
  5
5C8F7
102
{ACAD_REACTORS
330
5C8F6
102
}
330
5C8F6
100
AcDbXrecord
280
     1
290
     1
  0
XRECORD
  5
5C8F9
102
{ACAD_REACTORS
330
5C8F8
102
}
330
5C8F8
100
AcDbXrecord
280
     1
290
     1
  0
XRECORD
  5
5C8FB
102
{ACAD_REACTORS
330
5C8FA
102
}
330
5C8FA
100
AcDbXrecord
280
     1
290
     1
  0
XRECORD
  5
5C8FD
102
{ACAD_REACTORS
330
5C8FC
102
}
330
5C8FC
100
AcDbXrecord
280
     1
290
     1
  0
XRECORD
  5
5C8FF
102
{ACAD_REACTORS
330
5C8FE
102
}
330
5C8FE
100
AcDbXrecord
280
     1
290
     1
  0
XRECORD
  5
5C901
102
{ACAD_REACTORS
330
5C900
102
}
330
5C900
100
AcDbXrecord
280
     1
290
     1
  0
XRECORD
  5
5C903
102
{ACAD_REACTORS
330
5C902
102
}
330
5C902
100
AcDbXrecord
280
     1
290
     1
  0
XRECORD
  5
5C905
102
{ACAD_REACTORS
330
5C904
102
}
330
5C904
100
AcDbXrecord
280
     1
290
     1
  0
XRECORD
  5
5C907
102
{ACAD_REACTORS
330
5C906
102
}
330
5C906
100
AcDbXrecord
280
     1
290
     1
  0
XRECORD
  5
5C909
102
{ACAD_REACTORS
330
5C908
102
}
330
5C908
100
AcDbXrecord
280
     1
290
     1
  0
XRECORD
  5
5C90B
102
{ACAD_REACTORS
330
5C90A
102
}
330
5C90A
100
AcDbXrecord
280
     1
290
     1
  0
XRECORD
  5
5C90D
102
{ACAD_REACTORS
330
5C90C
102
}
330
5C90C
100
AcDbXrecord
280
     1
290
     1
  0
XRECORD
  5
5C90F
102
{ACAD_REACTORS
330
5C90E
102
}
330
5C90E
100
AcDbXrecord
280
     1
290
     1
  0
XRECORD
  5
5C911
102
{ACAD_REACTORS
330
5C910
102
}
330
5C910
100
AcDbXrecord
280
     1
290
     1
  0
XRECORD
  5
5C913
102
{ACAD_REACTORS
330
5C912
102
}
330
5C912
100
AcDbXrecord
280
     1
290
     1
  0
SORTENTSTABLE
  5
1E18C
102
{ACAD_REACTORS
330
8A
102
}
330
8A
100
AcDbSortentsTable
330
1F
331
5C371
  5
5C6C0
331
5C005
  5
5C375
331
5BFE3
  5
5BFE3
331
5BFD2
  5
5BFD2
331
5BFC1
  5
5BFC1
331
5BFE1
  5
5BFE1
331
5C36F
  5
5C6BE
331
5C003
  5
5C373
331
5BFD0
  5
5BFD0
331
5BFBF
  5
5BFBF
331
5C001
  5
5C001
331
5BFF0
  5
5BFF0
331
5BFCE
  5
5BFCE
331
5BFDF
  5
5BFDF
331
5BFBD
  5
5BFBD
331
5BFEE
  5
5BFEE
331
5BFCC
  5
5BFCC
331
5BFDD
  5
5BFDD
331
5BFBB
  5
5BFBB
331
5BFFF
  5
5BFFF
331
5BFEC
  5
5BFEC
331
5BFCA
  5
5BFCA
331
5BFFD
  5
5BFFD
331
5BFDB
  5
5BFDB
331
5BFB9
  5
5BFB9
331
5BFC8
  5
5BFC8
331
5BFEA
  5
5BFEA
331
15810
  5
177FE
331
5C6BF
  5
5C823
331
5BFFB
  5
5BFFB
331
5BFD9
  5
5BFD9
331
5BFB7
  5
5BFB7
331
5C6BD
  5
5C821
331
5BFE8
  5
5BFE8
331
5BFC6
  5
5BFC6
331
5BFF9
  5
5BFF9
331
5BFD7
  5
5BFD7
331
5BFB5
  5
5BFB5
331
5BFC4
  5
5BFC4
331
5BFE6
  5
5BFE6
331
5C374
  5
5C81E
331
5BFF7
  5
5BFF7
331
5BFD5
  5
5BFD5
331
106CC
  5
106CC
331
5C372
  5
5C81C
331
5BFE4
  5
5BFE4
331
5BFD3
  5
5BFD3
331
5BFC2
  5
5BFC2
331
5BFE2
  5
5BFE2
331
5BFC0
  5
5BFC0
331
5C370
  5
5C6BF
331
5C004
  5
5C374
331
5BFD1
  5
5BFD1
331
5BFE0
  5
5BFE0
331
5C36E
  5
5C6BD
331
5BFF1
  5
5BFF1
331
5BFCF
  5
5BFCF
331
5BFBE
  5
5BFBE
331
5C000
  5
5C000
331
5BFEF
  5
5BFEF
331
5BFCD
  5
5BFCD
331
5BFDE
  5
5BFDE
331
5BFBC
  5
5BFBC
331
5BFED
  5
5BFED
331
5BFCB
  5
5BFCB
331
5BFDC
  5
5BFDC
331
5BFBA
  5
5BFBA
331
5BFFE
  5
5BFFE
331
5BFEB
  5
5BFEB
331
5BFC9
  5
5BFC9
331
5C6C0
  5
5C824
331
5BFFC
  5
5BFFC
331
5BFDA
  5
5BFDA
331
5BFB8
  5
5BFB8
331
5C6BE
  5
5C822
331
5BFE9
  5
5BFE9
331
5BFC7
  5
5BFC7
331
5BFFA
  5
5BFFA
331
5BFD8
  5
5BFD8
331
5BFB6
  5
5BFB6
331
5C6BC
  5
5C820
331
5BFE7
  5
5BFE7
331
5BFC5
  5
5BFC5
331
5C375
  5
5C81F
331
5BFF8
  5
5BFF8
331
5BFD6
  5
5BFD6
331
5C373
  5
5C81D
331
5BFE5
  5
5BFE5
331
5BFD4
  5
5BFD4
331
5BFC3
  5
5BFC3
  0
DICTIONARY
  5
5C93A
102
{ACAD_REACTORS
330
5C939
102
}
330
5C939
100
AcDbDictionary
280
     1
281
     1
  3
Edit
360
5C93B
  0
XRECORD
  5
5C93D
102
{ACAD_REACTORS
330
5C93C
102
}
330
5C93C
100
AcDbXrecord
280
     1
 40
4161.0
  1
8-%%c3.3×\U+22056.5サラ
  0
XRECORD
  5
5C923
102
{ACAD_REACTORS
330
5C922
102
}
330
5C922
100
AcDbXrecord
280
     1
 70
     1
  0
LAYOUT
  5
22
102
{ACAD_XDICTIONARY
360
5C926
102
}
102
{ACAD_REACTORS
330
1A
102
}
330
1A
100
AcDbPlotSettings
  1

  2
RICOH imagio Wide 7040e RP-GL/2
  4
A4
  6

 40
5.365749835968017
 41
6.889746665954589
 42
5.535064697265625
 43
6.76275634765625
 44
296.9683227539062
 45
209.9733276367187
 46
-5.466245889663696
 47
-6.839587688446044
 48
-243.5574302339137
 49
-11940.64904086222
140
53.4425697660863
141
-11730.64904086222
142
1.0
143
1.0
 70
  3748
 72
     1
 73
     0
 74
     4
  7
monochrome.ctb
 75
     0
147
0.9348610696338472
148
243.5574302339137
149
11940.64904086222
100
AcDbLayout
  1
Model
 70
     1
 71
     0
 10
0.0
 20
0.0
 11
12.0
 21
9.0
 12
0.0
 22
0.0
 32
0.0
 14
0.0
 24
0.0
 34
0.0
 15
0.0
 25
0.0
 35
0.0
146
0.0
 13
0.0
 23
0.0
 33
0.0
 16
1.0
 26
0.0
 36
0.0
 17
0.0
 27
1.0
 37
0.0
 76
     0
330
1F
331
1D6E6
1001
ACAD_PSEXT
1000
RICOH imagio Wide 7040e RP-GL/2
1000
RICOH imagio Wide 7040e RP-GL/2
1000
192.200.51.212:lp11
1000
RP-GL/2 Driver (Windows 2000/XP/Server 2003)
1070
     0
  0
LAYOUT
  5
1E
102
{ACAD_XDICTIONARY
360
5C924
102
}
102
{ACAD_REACTORS
330
1A
102
}
330
1A
100
AcDbPlotSettings
  1

  2
\\ML370\XEROX
  4
A4
  6

 40
3.174999952316284
 41
3.174999952316284
 42
3.175003051757812
 43
3.17498779296875
 44
209.8674926757813
 45
296.6719970703125
 46
0.0
 47
0.0
 48
0.0
 49
0.0
140
0.0
141
0.0
142
1.0
143
1.0
 70
   688
 72
     1
 73
     1
 74
     5
  7
monochrome.ctb
 75
    16
147
1.0
148
0.0
149
0.0
100
AcDbLayout
  1
ﾚｲｱｳﾄ1
 70
     1
 71
     1
 10
-3.17498779296875
 20
-3.174999952316284
 11
293.4970092773438
 21
206.692492723465
 12
0.0
 22
0.0
 32
0.0
 14
1.000000000000000E+20
 24
1.000000000000000E+20
 34
1.000000000000000E+20
 15
-1.000000000000000E+20
 25
-1.000000000000000E+20
 35
-1.000000000000000E+20
146
0.0
 13
0.0
 23
0.0
 33
0.0
 16
1.0
 26
0.0
 36
0.0
 17
0.0
 27
1.0
 37
0.0
 76
     0
330
1B
  0
LAYOUT
  5
26
102
{ACAD_XDICTIONARY
360
5C928
102
}
102
{ACAD_REACTORS
330
1A
102
}
330
1A
100
AcDbPlotSettings
  1

  2
\\ML370\XEROX
  4

  6

 40
0.0
 41
0.0
 42
0.0
 43
0.0
 44
0.0
 45
0.0
 46
0.0
 47
0.0
 48
0.0
 49
0.0
140
0.0
141
0.0
142
1.0
143
1.0
 70
   688
 72
     0
 73
     0
 74
     5
  7
monochrome.ctb
 75
    16
147
1.0
148
0.0
149
0.0
100
AcDbLayout
  1
ﾚｲｱｳﾄ2
 70
     1
 71
     2
 10
0.0
 20
0.0
 11
12.0
 21
9.0
 12
0.0
 22
0.0
 32
0.0
 14
0.0
 24
0.0
 34
0.0
 15
0.0
 25
0.0
 35
0.0
146
0.0
 13
0.0
 23
0.0
 33
0.0
 16
1.0
 26
0.0
 36
0.0
 17
0.0
 27
1.0
 37
0.0
 76
     0
330
23
  0
MATERIAL
  5
1D6E9
102
{ACAD_XDICTIONARY
360
5C930
102
}
102
{ACAD_REACTORS
330
CDEE
102
}
330
CDEE
100
AcDbMaterial
  1
ByBlock
 73
     1
 78
     1
172
     1
176
     1
270
     1
274
     1
  0
MATERIAL
  5
1D6E8
102
{ACAD_XDICTIONARY
360
5C92E
102
}
102
{ACAD_REACTORS
330
CDEE
102
}
330
CDEE
100
AcDbMaterial
  1
ByLayer
 73
     1
 78
     1
172
     1
176
     1
270
     1
274
     1
  0
MATERIAL
  5
1D6EA
102
{ACAD_XDICTIONARY
360
5C932
102
}
102
{ACAD_REACTORS
330
CDEE
102
}
330
CDEE
100
AcDbMaterial
  1
Global
 73
     1
 78
     1
172
     1
176
     1
270
     1
274
     1
  0
MLEADERSTYLE
  5
5C78F
102
{ACAD_REACTORS
330
5C78E
102
}
330
5C78E
100
AcDbMLeaderStyle
170
     2
171
     1
172
     0
 90
        2
 40
0.0
 41
0.0
173
     1
 91
-1056964608
340
14
 92
       -2
290
     1
 42
2.0
291
     1
 43
0.36
  3
Standard
 44
4.0
300

342
11
174
     1
178
     6
175
     1
176
     0
 93
-1056964608
 45
4.0
292
     0
297
     0
 46
4.0
 94
-1056964608
 47
1.0
 49
1.0
140
1.0
293
     1
141
0.0
294
     1
177
     0
142
1.0
295
     0
296
     0
143
0.125
1001
ACAD_MLEADERVER
1070
     2
  0
MLINESTYLE
  5
18
102
{ACAD_REACTORS
330
17
102
}
330
17
100
AcDbMlineStyle
  2
STANDARD
 70
     0
  3

 62
   256
 51
90.0
 52
90.0
 71
     2
 49
0.5
 62
   256
  6
BYLAYER
 49
-0.5
 62
   256
  6
BYLAYER
  0
PLOTSETTINGS
  5
1A631
102
{ACAD_XDICTIONARY
360
5C92C
102
}
102
{ACAD_REACTORS
330
19
102
}
330
19
100
AcDbPlotSettings
  1
00
  2
RICOH imagio Wide 7040e RP-GL/2
  4
A3
  6
AM_VIEW1
 40
5.069416522979736
 41
7.228392601013183
 42
5.23870849609375
 43
7.05908203125
 44
419.9889831542968
 45
296.9683227539062
 46
-5.159570932388305
 47
-7.159575939178466
 48
3759.987976050056
 49
-6455.52447405221
140
7959.987976050055
141
-3485.524474052211
142
1.0
143
10.0
 70
  3748
 72
     1
 73
     0
 74
     4
  7
monochrome.ctb
 75
     0
147
0.0673049638384865
148
-3759.987976050056
149
6455.52447405221
1001
ACAD_PSEXT
1000
RICOH imagio Wide 7040e RP-GL/2
1000
RICOH imagio Wide 7040e RP-GL/2
1000
192.200.51.212:lp11
1000
RP-GL/2 Driver (Windows 2000/XP/Server 2003)
1070
     0
  0
PLOTSETTINGS
  5
1A630
102
{ACAD_XDICTIONARY
360
5C92A
102
}
102
{ACAD_REACTORS
330
19
102
}
330
19
100
AcDbPlotSettings
  1
01
  2
RICOH imagio Wide 7040e RP-GL/2
  4
A3
  6
AM_VIEW1
 40
5.069416522979736
 41
7.228392601013183
 42
5.23870849609375
 43
7.05908203125
 44
419.9889831542968
 45
296.9683227539062
 46
-5.159570932388305
 47
-7.159575939178466
 48
3759.987976050056
 49
-7049.524474052211
140
4599.987976050055
141
-6455.52447405221
142
1.0
143
2.0
 70
  3748
 72
     1
 73
     0
 74
     4
  7
monochrome.ctb
 75
     0
147
0.0673049638384865
148
-3759.987976050056
149
7049.524474052211
1001
ACAD_PSEXT
1000
RICOH imagio Wide 7040e RP-GL/2
1000
RICOH imagio Wide 7040e RP-GL/2
1000
192.200.51.212:lp11
1000
RP-GL/2 Driver (Windows 2000/XP/Server 2003)
1070
     0
  0
PLOTSETTINGS
  5
23806
102
{ACAD_XDICTIONARY
360
5C935
102
}
102
{ACAD_REACTORS
330
19
102
}
330
19
100
AcDbPlotSettings
  1
02
  2
RICOH imagio Wide 7040e RP-GL/2
  4
A3
  6
AM_VIEW1
 40
5.069416522979736
 41
7.228392601013183
 42
5.23870849609375
 43
7.05908203125
 44
419.9889831542968
 45
296.9683227539062
 46
-5.159570932388305
 47
-7.159575939178466
 48
3759.987976050056
 49
-9425.52447405221
140
7119.987976050055
141
-7049.524474052211
142
1.0
143
8.0
 70
  3748
 72
     1
 73
     0
 74
     4
  7
monochrome.ctb
 75
     0
147
0.0673049638384865
148
-3759.987976050056
149
9425.52447405221
1001
ACAD_PSEXT
1000
RICOH imagio Wide 7040e RP-GL/2
1000
RICOH imagio Wide 7040e RP-GL/2
1000
192.200.51.212:lp11
1000
RP-GL/2 Driver (Windows 2000/XP/Server 2003)
1070
     0
  0
ACDBPLACEHOLDER
  5
F
102
{ACAD_REACTORS
330
E
102
}
330
E
  0
SCALE
  5
5C76D
102
{ACAD_REACTORS
330
5C76C
102
}
330
5C76C
100
AcDbScale
 70
     0
300
1:1
140
1.0
141
1.0
290
     1
  0
SCALE
  5
5C76E
102
{ACAD_REACTORS
330
5C76C
102
}
330
5C76C
100
AcDbScale
 70
     0
300
1:2
140
1.0
141
2.0
290
     0
  0
SCALE
  5
5C76F
102
{ACAD_REACTORS
330
5C76C
102
}
330
5C76C
100
AcDbScale
 70
     0
300
1:4
140
1.0
141
4.0
290
     0
  0
SCALE
  5
5C770
102
{ACAD_REACTORS
330
5C76C
102
}
330
5C76C
100
AcDbScale
 70
     0
300
1:5
140
1.0
141
5.0
290
     0
  0
SCALE
  5
5C771
102
{ACAD_REACTORS
330
5C76C
102
}
330
5C76C
100
AcDbScale
 70
     0
300
1:8
140
1.0
141
8.0
290
     0
  0
SCALE
  5
5C772
102
{ACAD_REACTORS
330
5C76C
102
}
330
5C76C
100
AcDbScale
 70
     0
300
1:10
140
1.0
141
10.0
290
     0
  0
SCALE
  5
5C773
102
{ACAD_REACTORS
330
5C76C
102
}
330
5C76C
100
AcDbScale
 70
     0
300
1:16
140
1.0
141
16.0
290
     0
  0
SCALE
  5
5C774
102
{ACAD_REACTORS
330
5C76C
102
}
330
5C76C
100
AcDbScale
 70
     0
300
1:20
140
1.0
141
20.0
290
     0
  0
SCALE
  5
5C775
102
{ACAD_REACTORS
330
5C76C
102
}
330
5C76C
100
AcDbScale
 70
     0
300
1:30
140
1.0
141
30.0
290
     0
  0
SCALE
  5
5C776
102
{ACAD_REACTORS
330
5C76C
102
}
330
5C76C
100
AcDbScale
 70
     0
300
1:40
140
1.0
141
40.0
290
     0
  0
SCALE
  5
5C777
102
{ACAD_REACTORS
330
5C76C
102
}
330
5C76C
100
AcDbScale
 70
     0
300
1:50
140
1.0
141
50.0
290
     0
  0
SCALE
  5
5C778
102
{ACAD_REACTORS
330
5C76C
102
}
330
5C76C
100
AcDbScale
 70
     0
300
1:100
140
1.0
141
100.0
290
     0
  0
SCALE
  5
5C779
102
{ACAD_REACTORS
330
5C76C
102
}
330
5C76C
100
AcDbScale
 70
     0
300
2:1
140
2.0
141
1.0
290
     0
  0
SCALE
  5
5C77A
102
{ACAD_REACTORS
330
5C76C
102
}
330
5C76C
100
AcDbScale
 70
     0
300
4:1
140
4.0
141
1.0
290
     0
  0
SCALE
  5
5C77B
102
{ACAD_REACTORS
330
5C76C
102
}
330
5C76C
100
AcDbScale
 70
     0
300
8:1
140
8.0
141
1.0
290
     0
  0
SCALE
  5
5C77C
102
{ACAD_REACTORS
330
5C76C
102
}
330
5C76C
100
AcDbScale
 70
     0
300
10:1
140
10.0
141
1.0
290
     0
  0
SCALE
  5
5C77D
102
{ACAD_REACTORS
330
5C76C
102
}
330
5C76C
100
AcDbScale
 70
     0
300
100:1
140
100.0
141
1.0
290
     0
  0
SCALE
  5
5C77E
102
{ACAD_REACTORS
330
5C76C
102
}
330
5C76C
100
AcDbScale
 70
     0
300
1/128" = 1'-0"
140
0.0078125
141
12.0
290
     0
  0
SCALE
  5
5C77F
102
{ACAD_REACTORS
330
5C76C
102
}
330
5C76C
100
AcDbScale
 70
     0
300
1/64" = 1'-0"
140
0.015625
141
12.0
290
     0
  0
SCALE
  5
5C780
102
{ACAD_REACTORS
330
5C76C
102
}
330
5C76C
100
AcDbScale
 70
     0
300
1/32" = 1'-0"
140
0.03125
141
12.0
290
     0
  0
SCALE
  5
5C781
102
{ACAD_REACTORS
330
5C76C
102
}
330
5C76C
100
AcDbScale
 70
     0
300
1/16" = 1'-0"
140
0.0625
141
12.0
290
     0
  0
SCALE
  5
5C782
102
{ACAD_REACTORS
330
5C76C
102
}
330
5C76C
100
AcDbScale
 70
     0
300
3/32" = 1'-0"
140
0.09375
141
12.0
290
     0
  0
SCALE
  5
5C783
102
{ACAD_REACTORS
330
5C76C
102
}
330
5C76C
100
AcDbScale
 70
     0
300
1/8" = 1'-0"
140
0.125
141
12.0
290
     0
  0
SCALE
  5
5C784
102
{ACAD_REACTORS
330
5C76C
102
}
330
5C76C
100
AcDbScale
 70
     0
300
3/16" = 1'-0"
140
0.1875
141
12.0
290
     0
  0
SCALE
  5
5C785
102
{ACAD_REACTORS
330
5C76C
102
}
330
5C76C
100
AcDbScale
 70
     0
300
1/4" = 1'-0"
140
0.25
141
12.0
290
     0
  0
SCALE
  5
5C786
102
{ACAD_REACTORS
330
5C76C
102
}
330
5C76C
100
AcDbScale
 70
     0
300
3/8" = 1'-0"
140
0.375
141
12.0
290
     0
  0
SCALE
  5
5C787
102
{ACAD_REACTORS
330
5C76C
102
}
330
5C76C
100
AcDbScale
 70
     0
300
1/2" = 1'-0"
140
0.5
141
12.0
290
     0
  0
SCALE
  5
5C788
102
{ACAD_REACTORS
330
5C76C
102
}
330
5C76C
100
AcDbScale
 70
     0
300
3/4" = 1'-0"
140
0.75
141
12.0
290
     0
  0
SCALE
  5
5C789
102
{ACAD_REACTORS
330
5C76C
102
}
330
5C76C
100
AcDbScale
 70
     0
300
1" = 1'-0"
140
1.0
141
12.0
290
     0
  0
SCALE
  5
5C78A
102
{ACAD_REACTORS
330
5C76C
102
}
330
5C76C
100
AcDbScale
 70
     0
300
1-1/2" = 1'-0"
140
1.5
141
12.0
290
     0
  0
SCALE
  5
5C78B
102
{ACAD_REACTORS
330
5C76C
102
}
330
5C76C
100
AcDbScale
 70
     0
300
3" = 1'-0"
140
3.0
141
12.0
290
     0
  0
SCALE
  5
5C78C
102
{ACAD_REACTORS
330
5C76C
102
}
330
5C76C
100
AcDbScale
 70
     0
300
6" = 1'-0"
140
6.0
141
12.0
290
     0
  0
SCALE
  5
5C78D
102
{ACAD_REACTORS
330
5C76C
102
}
330
5C76C
100
AcDbScale
 70
     0
300
1'-0" = 1'-0"
140
12.0
141
12.0
290
     0
  0
TABLESTYLE
  5
1D6FD
102
{ACAD_XDICTIONARY
360
5C91E
102
}
102
{ACAD_REACTORS
330
1D6FC
102
}
330
1D6FC
100
AcDbTableStyle
  3
Standard
 70
     0
 71
     0
 40
1.5
 41
1.5
280
     0
281
     0
  7
STANDARD
140
4.5
170
     2
 62
     0
 63
     7
283
     0
274
    -2
284
     1
 64
     0
275
    -2
285
     1
 65
     0
276
    -2
286
     1
 66
     0
277
    -2
287
     1
 67
     0
278
    -2
288
     1
 68
     0
279
    -2
289
     1
 69
     0
  7
STANDARD
140
6.0
170
     5
 62
     0
 63
     7
283
     0
274
    -2
284
     1
 64
     0
275
    -2
285
     1
 65
     0
276
    -2
286
     1
 66
     0
277
    -2
287
     1
 67
     0
278
    -2
288
     1
 68
     0
279
    -2
289
     1
 69
     0
  7
STANDARD
140
4.5
170
     5
 62
     0
 63
     7
283
     0
274
    -2
284
     1
 64
     0
275
    -2
285
     1
 65
     0
276
    -2
286
     1
 66
     0
277
    -2
287
     1
 67
     0
278
    -2
288
     1
 68
     0
279
    -2
289
     1
 69
     0
  0
VISUALSTYLE
  5
1D6F1
102
{ACAD_REACTORS
330
1D6EB
102
}
330
1D6EB
100
AcDbVisualStyle
  2
2dWireframe
 70
     4
 71
     0
 72
     2
 73
     0
 90
        0
 40
-0.6
 41
-30.0
 62
     5
 63
     7
 74
     1
 91
        4
 64
     7
 65
   257
 75
     1
175
     1
 42
1.0
 92
        0
 66
   257
 43
1.0
 76
     1
 77
     6
 78
     2
 67
     7
 79
     5
170
     0
171
     0
290
     0
174
     0
 93
        1
 44
0.0
173
     0
291
     0
 45
0.0
1001
ACAD
1000
AcDbSavedByObjectVersion
1070
     0
  0
VISUALSTYLE
  5
1D6F3
102
{ACAD_REACTORS
330
1D6EB
102
}
330
1D6EB
100
AcDbVisualStyle
  2
3D Hidden
 70
     6
 71
     1
 72
     2
 73
     2
 90
        0
 40
-0.6
 41
-30.0
 62
     5
 63
     7
 74
     2
 91
        2
 64
     7
 65
   257
 75
     2
175
     1
 42
40.0
 92
        0
 66
   257
 43
1.0
 76
     1
 77
     6
 78
     2
 67
     7
 79
     3
170
     0
171
     0
290
     0
174
     0
 93
        1
 44
0.0
173
     0
291
     0
 45
0.0
1001
ACAD
1000
AcDbSavedByObjectVersion
1070
     0
  0
VISUALSTYLE
  5
1D6F2
102
{ACAD_REACTORS
330
1D6EB
102
}
330
1D6EB
100
AcDbVisualStyle
  2
3dWireframe
 70
     5
 71
     0
 72
     2
 73
     0
 90
        0
 40
-0.6
 41
-30.0
 62
     5
 63
     7
 74
     1
 91
        4
 64
     7
 65
   257
 75
     1
175
     1
 42
1.0
 92
        0
 66
   257
 43
1.0
 76
     1
 77
     6
 78
     2
 67
     7
 79
     5
170
     0
171
     0
290
     0
174
     0
 93
        1
 44
0.0
173
     0
291
     0
 45
0.0
1001
ACAD
1000
AcDbSavedByObjectVersion
1070
     0
  0
VISUALSTYLE
  5
1D6F0
102
{ACAD_REACTORS
330
1D6EB
102
}
330
1D6EB
100
AcDbVisualStyle
  2
Basic
 70
     7
 71
     1
 72
     0
 73
     1
 90
        0
 40
-0.6
 41
-30.0
 62
     5
 63
     7
 74
     0
 91
        4
 64
     7
 65
   257
 75
     1
175
     1
 42
1.0
 92
        8
 66
     7
 43
1.0
 76
     1
 77
     6
 78
     2
 67
     7
 79
     5
170
     0
171
     0
290
     0
174
     0
 93
        1
 44
0.0
173
     0
291
     1
 45
0.0
1001
ACAD
1000
AcDbSavedByObjectVersion
1070
     0
  0
VISUALSTYLE
  5
1D6F7
102
{ACAD_REACTORS
330
1D6EB
102
}
330
1D6EB
100
AcDbVisualStyle
  2
Brighten
 70
    12
 71
     2
 72
     2
 73
     0
 90
        0
 40
-0.6
 41
-30.0
 62
     5
 63
     7
 74
     1
 91
        4
 64
     7
 65
   257
 75
     1
175
     1
 42
1.0
 92
        8
 66
     7
 43
1.0
 76
     1
 77
     6
 78
     2
 67
     7
 79
     5
170
     0
171
     0
290
     0
174
     0
 93
        1
 44
50.0
173
     0
291
     1
 45
0.0
1001
ACAD
1000
AcDbSavedByObjectVersion
1070
     0
  0
VISUALSTYLE
  5
1D6FB
102
{ACAD_REACTORS
330
1D6EB
102
}
330
1D6EB
100
AcDbVisualStyle
  2
ColorChange
 70
    16
 71
     2
 72
     2
 73
     3
 90
        0
 40
-0.6
 41
-30.0
 62
     5
 63
     8
 74
     1
 91
        4
 64
     7
 65
   257
 75
     1
175
     1
 42
1.0
 92
        8
 66
     8
 43
1.0
 76
     1
 77
     6
 78
     2
 67
     7
 79
     5
170
     0
171
     0
290
     0
174
     0
 93
        1
 44
0.0
173
     0
291
     1
 45
0.0
1001
ACAD
1000
AcDbSavedByObjectVersion
1070
     0
  0
VISUALSTYLE
  5
1D6F4
102
{ACAD_REACTORS
330
1D6EB
102
}
330
1D6EB
100
AcDbVisualStyle
  2
Conceptual
 70
     9
 71
     3
 72
     2
 73
     0
 90
        0
 40
-0.6
 41
-30.0
 62
     5
 63
     7
 74
     2
 91
        2
 64
     7
 65
   257
 75
     1
175
     1
 42
40.0
 92
        8
 66
     7
 43
1.0
 76
     1
 77
     6
 78
     2
 67
     7
 79
     3
170
     0
171
     0
290
     0
174
     0
 93
        1
 44
0.0
173
     0
291
     0
 45
0.0
1001
ACAD
1000
AcDbSavedByObjectVersion
1070
     0
  0
VISUALSTYLE
  5
1D6F6
102
{ACAD_REACTORS
330
1D6EB
102
}
330
1D6EB
100
AcDbVisualStyle
  2
Dim
 70
    11
 71
     2
 72
     2
 73
     0
 90
        0
 40
-0.6
 41
-30.0
 62
     5
 63
     7
 74
     1
 91
        4
 64
     7
 65
   257
 75
     1
175
     1
 42
1.0
 92
        8
 66
     7
 43
1.0
 76
     1
 77
     6
 78
     2
 67
     7
 79
     5
170
     0
171
     0
290
     0
174
     0
 93
        1
 44
-50.0
173
     0
291
     1
 45
0.0
1001
ACAD
1000
AcDbSavedByObjectVersion
1070
     0
  0
VISUALSTYLE
  5
1D6FA
102
{ACAD_REACTORS
330
1D6EB
102
}
330
1D6EB
100
AcDbVisualStyle
  2
Facepattern
 70
    15
 71
     2
 72
     2
 73
     0
 90
        0
 40
-0.6
 41
-30.0
 62
     5
 63
     7
 74
     1
 91
        4
 64
     7
 65
   257
 75
     1
175
     1
 42
1.0
 92
        8
 66
     7
 43
1.0
 76
     1
 77
     6
 78
     2
 67
     7
 79
     5
170
     0
171
     0
290
     0
174
     0
 93
        1
 44
0.0
173
     0
291
     1
 45
0.0
1001
ACAD
1000
AcDbSavedByObjectVersion
1070
     0
  0
VISUALSTYLE
  5
1D6EC
102
{ACAD_REACTORS
330
1D6EB
102
}
330
1D6EB
100
AcDbVisualStyle
  2
Flat
 70
     0
 71
     2
 72
     1
 73
     1
 90
        2
 40
-0.6
 41
30.0
 62
     5
 63
     7
 74
     0
 91
        4
 64
     7
 65
   257
 75
     1
175
     1
 42
1.0
 92
        8
 66
     7
 43
1.0
 76
     1
 77
     6
 78
     2
 67
     7
 79
     5
170
     0
171
     0
290
     0
174
     0
 93
       13
 44
0.0
173
     0
291
     1
 45
0.0
1001
ACAD
1000
AcDbSavedByObjectVersion
1070
     0
  0
VISUALSTYLE
  5
1D6ED
102
{ACAD_REACTORS
330
1D6EB
102
}
330
1D6EB
100
AcDbVisualStyle
  2
FlatWithEdges
 70
     1
 71
     2
 72
     1
 73
     1
 90
        2
 40
-0.6
 41
30.0
 62
     5
 63
     7
 74
     1
 91
        4
 64
     7
 65
   257
 75
     1
175
     1
 42
1.0
 92
        0
 66
   257
 43
1.0
 76
     1
 77
     6
 78
     2
 67
     7
 79
     5
170
     0
171
     0
290
     0
174
     0
 93
       13
 44
0.0
173
     0
291
     1
 45
0.0
1001
ACAD
1000
AcDbSavedByObjectVersion
1070
     0
  0
VISUALSTYLE
  5
1D6EE
102
{ACAD_REACTORS
330
1D6EB
102
}
330
1D6EB
100
AcDbVisualStyle
  2
Gouraud
 70
     2
 71
     2
 72
     2
 73
     1
 90
        2
 40
-0.6
 41
30.0
 62
     5
 63
     7
 74
     0
 91
        4
 64
     7
 65
   257
 75
     1
175
     1
 42
1.0
 92
        0
 66
     7
 43
1.0
 76
     1
 77
     6
 78
     2
 67
     7
 79
     5
170
     0
171
     0
290
     0
174
     0
 93
       13
 44
0.0
173
     0
291
     1
 45
0.0
1001
ACAD
1000
AcDbSavedByObjectVersion
1070
     0
  0
VISUALSTYLE
  5
1D6EF
102
{ACAD_REACTORS
330
1D6EB
102
}
330
1D6EB
100
AcDbVisualStyle
  2
GouraudWithEdges
 70
     3
 71
     2
 72
     2
 73
     1
 90
        2
 40
-0.6
 41
30.0
 62
     5
 63
     7
 74
     1
 91
        4
 64
     7
 65
   257
 75
     1
175
     1
 42
1.0
 92
        0
 66
   257
 43
1.0
 76
     1
 77
     6
 78
     2
 67
     7
 79
     5
170
     0
171
     0
290
     0
174
     0
 93
       13
 44
0.0
173
     0
291
     1
 45
0.0
1001
ACAD
1000
AcDbSavedByObjectVersion
1070
     0
  0
VISUALSTYLE
  5
1D6F9
102
{ACAD_REACTORS
330
1D6EB
102
}
330
1D6EB
100
AcDbVisualStyle
  2
Linepattern
 70
    14
 71
     2
 72
     2
 73
     0
 90
        0
 40
-0.6
 41
-30.0
 62
     5
 63
     7
 74
     1
 91
        4
 64
     7
 65
   257
 75
     7
175
     7
 42
1.0
 92
        8
 66
     7
 43
1.0
 76
     1
 77
     6
 78
     2
 67
     7
 79
     5
170
     0
171
     0
290
     0
174
     0
 93
        1
 44
0.0
173
     0
291
     1
 45
0.0
1001
ACAD
1000
AcDbSavedByObjectVersion
1070
     0
  0
VISUALSTYLE
  5
1D6F5
102
{ACAD_REACTORS
330
1D6EB
102
}
330
1D6EB
100
AcDbVisualStyle
  2
Realistic
 70
     8
 71
     2
 72
     2
 73
     0
 90
        0
 40
-0.6
 41
-30.0
 62
     5
 63
     7
 74
     1
 91
        0
 64
     7
 65
   257
 75
     1
175
     1
 42
1.0
 92
        8
 66
     8
 43
1.0
 76
     1
 77
     6
 78
     2
 67
     7
 79
     5
170
     0
171
     0
290
     0
174
     0
 93
       13
 44
0.0
173
     0
291
     0
 45
0.0
1001
ACAD
1000
AcDbSavedByObjectVersion
1070
     0
  0
VISUALSTYLE
  5
1D6F8
102
{ACAD_REACTORS
330
1D6EB
102
}
330
1D6EB
100
AcDbVisualStyle
  2
Thicken
 70
    13
 71
     2
 72
     2
 73
     0
 90
        0
 40
-0.6
 41
-30.0
 62
     5
 63
     7
 74
     1
 91
        4
 64
     7
 65
   257
 75
     1
175
     1
 42
1.0
 92
       12
 66
     7
 43
1.0
 76
     1
 77
     6
 78
     2
 67
     7
 79
     5
170
     0
171
     0
290
     0
174
     0
 93
        1
 44
0.0
173
     0
291
     1
 45
0.0
1001
ACAD
1000
AcDbSavedByObjectVersion
1070
     0
  0
DICTIONARYVAR
  5
5C91D
102
{ACAD_REACTORS
330
34
102
}
330
34
100
DictionaryVariables
280
     0
  1
1:1
  0
DICTIONARYVAR
  5
5C91C
102
{ACAD_REACTORS
330
34
102
}
330
34
100
DictionaryVariables
280
     0
  1
STANDARD
  0
DICTIONARYVAR
  5
1D72C
102
{ACAD_REACTORS
330
34
102
}
330
34
100
DictionaryVariables
280
     0
  1
STANDARD
  0
DICTIONARYVAR
  5
A10C
102
{ACAD_REACTORS
330
34
102
}
330
34
100
DictionaryVariables
280
     0
  1
2
  0
DICTIONARYVAR
  5
35
102
{ACAD_REACTORS
330
34
102
}
330
34
100
DictionaryVariables
280
     0
  1
0
  0
DICTIONARYVAR
  5
194C
102
{ACAD_REACTORS
330
34
102
}
330
34
100
DictionaryVariables
280
     0
  1
127
  0
DICTIONARY
  5
7E8
102
{ACAD_REACTORS
330
47
102
}
330
47
100
AcDbDictionary
281
     1
  0
DICTIONARY
  5
4C
102
{ACAD_REACTORS
330
47
102
}
330
47
100
AcDbDictionary
281
     1
  0
XRECORD
  5
CFD7
102
{ACAD_REACTORS
330
47
102
}
330
47
100
AcDbXrecord
280
     1
 90
-1023410169
  0
XRECORD
  5
5733E
102
{ACAD_REACTORS
330
5733D
102
}
330
5733D
100
AcDbXrecord
280
     1
330
0
330
0
330
0
330
0
330
0
330
0
330
0
330
0
330
0
330
0
330
0
330
0
330
0
330
0
330
0
330
0
330
51A80
330
0
330
0
330
0
330
0
330
0
330
0
330
0
330
0
330
0
330
0
330
0
330
0
330
0
330
0
330
0
330
0
330
0
330
0
330
0
330
0
330
0
330
0
330
0
330
0
330
0
330
0
330
0
330
0
330
0
330
0
330
0
330
0
330
0
330
0
330
0
330
0
330
0
330
0
330
0
330
0
330
0
330
0
330
0
330
0
330
0
330
0
330
0
330
0
330
0
330
0
330
0
330
0
330
0
330
0
330
0
330
0
330
0
330
0
330
0
330
0
330
0
330
0
330
0
330
0
330
0
330
0
330
0
330
0
330
0
330
0
330
0
330
0
330
0
330
5BF58
330
5BF59
330
5BF61
330
5BF62
330
0
330
0
330
0
330
0
330
0
330
0
330
0
330
0
330
0
330
0
330
5BF97
330
5BF98
330
5BFA2
330
5BFA3
330
5BFAD
330
5BFAE
330
0
330
0
330
0
330
0
330
0
330
0
330
0
330
0
330
0
330
0
330
0
330
0
330
0
330
0
330
0
330
0
330
0
330
0
330
0
330
0
  0
XRECORD
  5
3FB7
102
{ACAD_REACTORS
330
3F96
102
}
330
3F96
100
AcDbXrecord
280
     1
 91
        3
330
A47
 90
        8
 62
     7
370
    40
331
16
  1
Color_7
330
A46
 90
        0
 62
    14
370
    -3
331
16
  1
Color_14
330
3A31
 90
        8
 62
     7
370
    20
331
16
  1
Color_7
330
6D1
 90
        0
 62
     7
370
    -3
331
16
  1
Color_7
330
0
 90
        8
 62
     7
370
    50
331
16
  1
Color_7
330
A48
 90
        8
 62
     2
370
    35
331
16
  1
Color_2
330
0
 90
        8
 62
     7
370
    -3
331
16
  1
Color_7
330
10
 90
        8
 62
     7
370
    -3
331
16
  1
Color_7
  0
XRECORD
  5
5C93B
102
{ACAD_REACTORS
330
5C93A
102
}
330
5C93A
100
AcDbXrecord
280
     1
1070
     0
1070
     0
1070
     0
  0
DICTIONARY
  5
5C926
330
22
100
AcDbDictionary
280
     1
281
     1
  3
ACAD_XREC_ROUNDTRIP
360
5C927
  0
DICTIONARY
  5
5C924
330
1E
100
AcDbDictionary
280
     1
281
     1
  3
ACAD_XREC_ROUNDTRIP
360
5C925
  0
DICTIONARY
  5
5C928
330
26
100
AcDbDictionary
280
     1
281
     1
  3
ACAD_XREC_ROUNDTRIP
360
5C929
  0
DICTIONARY
  5
5C930
330
1D6E9
100
AcDbDictionary
280
     1
281
     1
  3
ACAD_XREC_ROUNDTRIP
360
5C931
  0
DICTIONARY
  5
5C92E
330
1D6E8
100
AcDbDictionary
280
     1
281
     1
  3
ACAD_XREC_ROUNDTRIP
360
5C92F
  0
DICTIONARY
  5
5C932
330
1D6EA
100
AcDbDictionary
280
     1
281
     1
  3
ACAD_XREC_ROUNDTRIP
360
5C933
  0
DICTIONARY
  5
5C92C
330
1A631
100
AcDbDictionary
280
     1
281
     1
  3
ACAD_XREC_ROUNDTRIP
360
5C92D
  0
DICTIONARY
  5
5C92A
330
1A630
100
AcDbDictionary
280
     1
281
     1
  3
ACAD_XREC_ROUNDTRIP
360
5C92B
  0
DICTIONARY
  5
5C935
330
23806
100
AcDbDictionary
280
     1
281
     1
  3
ACAD_XREC_ROUNDTRIP
360
5C936
  0
DICTIONARY
  5
5C91E
330
1D6FD
100
AcDbDictionary
280
     1
281
     1
  3
ACAD_ROUNDTRIP_2008_TABLESTYLE_CELLSTYLEMAP
360
5C91F
  3
ACAD_XREC_ROUNDTRIP
360
5C934
  0
XRECORD
  5
5C927
102
{ACAD_REACTORS
330
5C926
102
}
330
5C926
100
AcDbXrecord
280
     1
102
SHADEPLOT
 70
     0
102
SHADEPLOTRESLEVEL
 70
     2
102
SHADEPLOTCUSTOMDPI
 70
   300
  0
XRECORD
  5
5C925
102
{ACAD_REACTORS
330
5C924
102
}
330
5C924
100
AcDbXrecord
280
     1
102
SHADEPLOT
 70
     0
102
SHADEPLOTRESLEVEL
 70
     2
102
SHADEPLOTCUSTOMDPI
 70
   300
  0
XRECORD
  5
5C929
102
{ACAD_REACTORS
330
5C928
102
}
330
5C928
100
AcDbXrecord
280
     1
102
SHADEPLOT
 70
     0
102
SHADEPLOTRESLEVEL
 70
     2
102
SHADEPLOTCUSTOMDPI
 70
   300
  0
XRECORD
  5
5C931
102
{ACAD_REACTORS
330
5C930
102
}
330
5C930
100
AcDbXrecord
280
     1
102
MATERIAL
148
0.0
149
0.0
149
0.0
 93
        0
 94
       63
282
     0
 72
     1
 77
     1
171
     1
175
     1
179
     1
273
     0
  0
XRECORD
  5
5C92F
102
{ACAD_REACTORS
330
5C92E
102
}
330
5C92E
100
AcDbXrecord
280
     1
102
MATERIAL
148
0.0
149
0.0
149
0.0
 93
        0
 94
       63
282
     0
 72
     1
 77
     1
171
     1
175
     1
179
     1
273
     0
  0
XRECORD
  5
5C933
102
{ACAD_REACTORS
330
5C932
102
}
330
5C932
100
AcDbXrecord
280
     1
102
MATERIAL
148
0.0
149
0.0
149
0.0
 93
        0
 94
       63
282
     0
 72
     1
 77
     1
171
     1
175
     1
179
     1
273
     0
  0
XRECORD
  5
5C92D
102
{ACAD_REACTORS
330
5C92C
102
}
330
5C92C
100
AcDbXrecord
280
     1
102
SHADEPLOT
 70
     0
102
SHADEPLOTRESLEVEL
 70
     2
102
SHADEPLOTCUSTOMDPI
 70
   300
  0
XRECORD
  5
5C92B
102
{ACAD_REACTORS
330
5C92A
102
}
330
5C92A
100
AcDbXrecord
280
     1
102
SHADEPLOT
 70
     0
102
SHADEPLOTRESLEVEL
 70
     2
102
SHADEPLOTCUSTOMDPI
 70
   300
  0
XRECORD
  5
5C936
102
{ACAD_REACTORS
330
5C935
102
}
330
5C935
100
AcDbXrecord
280
     1
102
SHADEPLOT
 70
     0
102
SHADEPLOTRESLEVEL
 70
     2
102
SHADEPLOTCUSTOMDPI
 70
   300
  0
CELLSTYLEMAP
  5
5C91F
102
{ACAD_REACTORS
330
5C91E
102
}
330
5C91E
100
AcDbCellStyleMap
 90
        3
300
CELLSTYLE
  1
TABLEFORMAT_BEGIN
 90
        5
170
     1
 91
        0
 92
    32768
 62
   257
 93
        1
300
CONTENTFORMAT
  1
CONTENTFORMAT_BEGIN
 90
        0
 91
        0
 92
      512
 93
        0
300

 40
0.0
140
1.0
 94
        5
 62
     0
340
11
144
6.0
309
CONTENTFORMAT_END
171
     1
301
MARGIN
  1
CELLMARGIN_BEGIN
 40
1.5
 40
1.5
 40
1.5
 40
1.5
 40
0.18
 40
0.18
309
CELLMARGIN_END
 94
        6
 95
        1
302
GRIDFORMAT
  1
GRIDFORMAT_BEGIN
 90
        0
 91
        1
 62
     0
 92
       -2
340
0
 93
        0
 40
0.045
309
GRIDFORMAT_END
 95
        2
302
GRIDFORMAT
  1
GRIDFORMAT_BEGIN
 90
        0
 91
        1
 62
     0
 92
       -2
340
0
 93
        0
 40
0.045
309
GRIDFORMAT_END
 95
        4
302
GRIDFORMAT
  1
GRIDFORMAT_BEGIN
 90
        0
 91
        1
 62
     0
 92
       -2
340
0
 93
        0
 40
0.045
309
GRIDFORMAT_END
 95
        8
302
GRIDFORMAT
  1
GRIDFORMAT_BEGIN
 90
        0
 91
        1
 62
     0
 92
       -2
340
0
 93
        0
 40
0.045
309
GRIDFORMAT_END
 95
       16
302
GRIDFORMAT
  1
GRIDFORMAT_BEGIN
 90
        0
 91
        1
 62
     0
 92
       -2
340
0
 93
        0
 40
0.045
309
GRIDFORMAT_END
 95
       32
302
GRIDFORMAT
  1
GRIDFORMAT_BEGIN
 90
        0
 91
        1
 62
     0
 92
       -2
340
0
 93
        0
 40
0.045
309
GRIDFORMAT_END
309
TABLEFORMAT_END
  1
CELLSTYLE_BEGIN
 90
        1
 91
        1
300
_TITLE
309
CELLSTYLE_END
300
CELLSTYLE
  1
TABLEFORMAT_BEGIN
 90
        5
170
     1
 91
        0
 92
        0
 62
   257
 93
        1
300
CONTENTFORMAT
  1
CONTENTFORMAT_BEGIN
 90
        0
 91
        0
 92
      512
 93
        0
300

 40
0.0
140
1.0
 94
        5
 62
     0
340
11
144
4.5
309
CONTENTFORMAT_END
171
     1
301
MARGIN
  1
CELLMARGIN_BEGIN
 40
1.5
 40
1.5
 40
1.5
 40
1.5
 40
0.18
 40
0.18
309
CELLMARGIN_END
 94
        6
 95
        1
302
GRIDFORMAT
  1
GRIDFORMAT_BEGIN
 90
        0
 91
        1
 62
     0
 92
       -2
340
0
 93
        0
 40
0.045
309
GRIDFORMAT_END
 95
        2
302
GRIDFORMAT
  1
GRIDFORMAT_BEGIN
 90
        0
 91
        1
 62
     0
 92
       -2
340
0
 93
        0
 40
0.045
309
GRIDFORMAT_END
 95
        4
302
GRIDFORMAT
  1
GRIDFORMAT_BEGIN
 90
        0
 91
        1
 62
     0
 92
       -2
340
0
 93
        0
 40
0.045
309
GRIDFORMAT_END
 95
        8
302
GRIDFORMAT
  1
GRIDFORMAT_BEGIN
 90
        0
 91
        1
 62
     0
 92
       -2
340
0
 93
        0
 40
0.045
309
GRIDFORMAT_END
 95
       16
302
GRIDFORMAT
  1
GRIDFORMAT_BEGIN
 90
        0
 91
        1
 62
     0
 92
       -2
340
0
 93
        0
 40
0.045
309
GRIDFORMAT_END
 95
       32
302
GRIDFORMAT
  1
GRIDFORMAT_BEGIN
 90
        0
 91
        1
 62
     0
 92
       -2
340
0
 93
        0
 40
0.045
309
GRIDFORMAT_END
309
TABLEFORMAT_END
  1
CELLSTYLE_BEGIN
 90
        2
 91
        1
300
_HEADER
309
CELLSTYLE_END
300
CELLSTYLE
  1
TABLEFORMAT_BEGIN
 90
        5
170
     1
 91
        0
 92
        0
 62
   257
 93
        1
300
CONTENTFORMAT
  1
CONTENTFORMAT_BEGIN
 90
        0
 91
        0
 92
      512
 93
        0
300

 40
0.0
140
1.0
 94
        2
 62
     0
340
11
144
4.5
309
CONTENTFORMAT_END
171
     1
301
MARGIN
  1
CELLMARGIN_BEGIN
 40
1.5
 40
1.5
 40
1.5
 40
1.5
 40
0.18
 40
0.18
309
CELLMARGIN_END
 94
        6
 95
        1
302
GRIDFORMAT
  1
GRIDFORMAT_BEGIN
 90
        0
 91
        1
 62
     0
 92
       -2
340
0
 93
        0
 40
0.045
309
GRIDFORMAT_END
 95
        2
302
GRIDFORMAT
  1
GRIDFORMAT_BEGIN
 90
        0
 91
        1
 62
     0
 92
       -2
340
0
 93
        0
 40
0.045
309
GRIDFORMAT_END
 95
        4
302
GRIDFORMAT
  1
GRIDFORMAT_BEGIN
 90
        0
 91
        1
 62
     0
 92
       -2
340
0
 93
        0
 40
0.045
309
GRIDFORMAT_END
 95
        8
302
GRIDFORMAT
  1
GRIDFORMAT_BEGIN
 90
        0
 91
        1
 62
     0
 92
       -2
340
0
 93
        0
 40
0.045
309
GRIDFORMAT_END
 95
       16
302
GRIDFORMAT
  1
GRIDFORMAT_BEGIN
 90
        0
 91
        1
 62
     0
 92
       -2
340
0
 93
        0
 40
0.045
309
GRIDFORMAT_END
 95
       32
302
GRIDFORMAT
  1
GRIDFORMAT_BEGIN
 90
        0
 91
        1
 62
     0
 92
       -2
340
0
 93
        0
 40
0.045
309
GRIDFORMAT_END
309
TABLEFORMAT_END
  1
CELLSTYLE_BEGIN
 90
        3
 91
        2
300
_DATA
309
CELLSTYLE_END
  0
XRECORD
  5
5C934
102
{ACAD_REACTORS
330
5C91E
102
}
330
5C91E
100
AcDbXrecord
280
     1
102
ACAD_ROUNDTRIP_PRE2007_TABLESTYLE
 90
      512
 91
        0
  1

 92
      512
 93
        0
  2

 94
      512
 95
        0
  3

  0
ENDSEC
  0
EOF
