  0
SECTION
  2
HEADER
  9
$ACADVER
  1
AC1015
  9
$ACADMAINTVER
 70
    20
  9
$DWGCODEPAGE
  3
ANSI_932
  9
$INSBASE
 10
0.0
 20
0.0
 30
0.0
  9
$EXTMIN
 10
2794.834103467316
 20
-3175.964254165664
 30
0.0
  9
$EXTMAX
 10
4336.370423744667
 20
-2487.635984092392
 30
0.0
  9
$LIMMIN
 10
2168.279185573178
 20
-2530.372216979716
  9
$LIMMAX
 10
2316.779185573178
 20
-2425.372216979716
  9
$ORTHOMODE
 70
     0
  9
$REGENMODE
 70
     1
  9
$FILLMODE
 70
     1
  9
$QTEXTMODE
 70
     0
  9
$MIRRTEXT
 70
     0
  9
$LTSCALE
 40
1.0
  9
$ATTMODE
 70
     1
  9
$TEXTSIZE
 40
3.5
  9
$TRACEWID
 40
1.0
  9
$TEXTSTYLE
  7
STANDARD
  9
$CLAYER
  8
000鈴木検図
  9
$CELTYPE
  6
ByLayer
  9
$CECOLOR
 62
   256
  9
$CELTSCALE
 40
1.0
  9
$DISPSILH
 70
     0
  9
$DIMSCALE
 40
1.0
  9
$DIMASZ
 40
2.5
  9
$DIMEXO
 40
1.0
  9
$DIMDLI
 40
10.0
  9
$DIMRND
 40
0.0
  9
$DIMDLE
 40
0.0
  9
$DIMEXE
 40
1.0
  9
$DIMTP
 40
0.1
  9
$DIMTM
 40
0.1
  9
$DIMTXT
 40
3.5
  9
$DIMCEN
 40
0.0
  9
$DIMTSZ
 40
0.0
  9
$DIMTOL
 70
     0
  9
$DIMLIM
 70
     0
  9
$DIMTIH
 70
     0
  9
$DIMTOH
 70
     0
  9
$DIMSE1
 70
     0
  9
$DIMSE2
 70
     0
  9
$DIMTAD
 70
     1
  9
$DIMZIN
 70
     8
  9
$DIMBLK
  1

  9
$DIMASO
 70
     1
  9
$DIMSHO
 70
     1
  9
$DIMPOST
  1

  9
$DIMAPOST
  1
"
  9
$DIMALT
 70
     0
  9
$DIMALTD
 70
     2
  9
$DIMALTF
 40
0.0393701
  9
$DIMLFAC
 40
1.0
  9
$DIMTOFL
 70
     1
  9
$DIMTVP
 40
0.0
  9
$DIMTIX
 70
     0
  9
$DIMSOXD
 70
     0
  9
$DIMSAH
 70
     0
  9
$DIMBLK1
  1

  9
$DIMBLK2
  1

  9
$DIMSTYLE
  2
SYS
  9
$DIMCLRD
 70
   256
  9
$DIMCLRE
 70
   256
  9
$DIMCLRT
 70
     7
  9
$DIMTFAC
 40
0.71
  9
$DIMGAP
 40
1.5
  9
$DIMJUST
 70
     0
  9
$DIMSD1
 70
     0
  9
$DIMSD2
 70
     0
  9
$DIMTOLJ
 70
     0
  9
$DIMTZIN
 70
     8
  9
$DIMALTZ
 70
     0
  9
$DIMALTTZ
 70
     0
  9
$DIMUPT
 70
     0
  9
$DIMDEC
 70
     1
  9
$DIMTDEC
 70
     3
  9
$DIMALTU
 70
     2
  9
$DIMALTTD
 70
     4
  9
$DIMTXSTY
  7
STANDARD
  9
$DIMAUNIT
 70
     0
  9
$DIMADEC
 70
     0
  9
$DIMALTRND
 40
0.0
  9
$DIMAZIN
 70
     2
  9
$DIMDSEP
 70
    46
  9
$DIMATFIT
 70
     3
  9
$DIMFRAC
 70
     0
  9
$DIMLDRBLK
  1

  9
$DIMLUNIT
 70
     2
  9
$DIMLWD
 70
    -1
  9
$DIMLWE
 70
    -1
  9
$DIMTMOVE
 70
     0
  9
$LUNITS
 70
     2
  9
$LUPREC
 70
     2
  9
$SKETCHINC
 40
1.0
  9
$FILLETRAD
 40
1.0
  9
$AUNITS
 70
     0
  9
$AUPREC
 70
     0
  9
$MENU
  1
.
  9
$ELEVATION
 40
0.0
  9
$PELEVATION
 40
0.0
  9
$THICKNESS
 40
0.0
  9
$LIMCHECK
 70
     0
  9
$CHAMFERA
 40
0.35
  9
$CHAMFERB
 40
0.35
  9
$CHAMFERC
 40
20.0
  9
$CHAMFERD
 40
0.0
  9
$SKPOLY
 70
     0
  9
$TDCREATE
 40
2452002.615067627
  9
$TDUCREATE
 40
2452002.240067627
  9
$TDUPDATE
 40
2455338.702450810
  9
$TDUUPDATE
 40
2455338.327450810
  9
$TDINDWG
 40
13.8009280787
  9
$TDUSRTIMER
 40
13.8009280787
  9
$USRTIMER
 70
     1
  9
$ANGBASE
 50
0.0
  9
$ANGDIR
 70
     0
  9
$PDMODE
 70
     0
  9
$PDSIZE
 40
0.0
  9
$PLINEWID
 40
0.0
  9
$SPLFRAME
 70
     0
  9
$SPLINETYPE
 70
     6
  9
$SPLINESEGS
 70
     8
  9
$HANDSEED
  5
4BEFE
  9
$SURFTAB1
 70
     6
  9
$SURFTAB2
 70
     6
  9
$SURFTYPE
 70
     6
  9
$SURFU
 70
     6
  9
$SURFV
 70
     6
  9
$UCSBASE
  2

  9
$UCSNAME
  2

  9
$UCSORG
 10
0.0
 20
0.0
 30
0.0
  9
$UCSXDIR
 10
1.0
 20
0.0
 30
0.0
  9
$UCSYDIR
 10
0.0
 20
1.0
 30
0.0
  9
$UCSORTHOREF
  2

  9
$UCSORTHOVIEW
 70
     0
  9
$UCSORGTOP
 10
0.0
 20
0.0
 30
0.0
  9
$UCSORGBOTTOM
 10
0.0
 20
0.0
 30
0.0
  9
$UCSORGLEFT
 10
0.0
 20
0.0
 30
0.0
  9
$UCSORGRIGHT
 10
0.0
 20
0.0
 30
0.0
  9
$UCSORGFRONT
 10
0.0
 20
0.0
 30
0.0
  9
$UCSORGBACK
 10
0.0
 20
0.0
 30
0.0
  9
$PUCSBASE
  2

  9
$PUCSNAME
  2

  9
$PUCSORG
 10
0.0
 20
0.0
 30
0.0
  9
$PUCSXDIR
 10
1.0
 20
0.0
 30
0.0
  9
$PUCSYDIR
 10
0.0
 20
1.0
 30
0.0
  9
$PUCSORTHOREF
  2

  9
$PUCSORTHOVIEW
 70
     0
  9
$PUCSORGTOP
 10
0.0
 20
0.0
 30
0.0
  9
$PUCSORGBOTTOM
 10
0.0
 20
0.0
 30
0.0
  9
$PUCSORGLEFT
 10
0.0
 20
0.0
 30
0.0
  9
$PUCSORGRIGHT
 10
0.0
 20
0.0
 30
0.0
  9
$PUCSORGFRONT
 10
0.0
 20
0.0
 30
0.0
  9
$PUCSORGBACK
 10
0.0
 20
0.0
 30
0.0
  9
$USERI1
 70
     0
  9
$USERI2
 70
     0
  9
$USERI3
 70
     0
  9
$USERI4
 70
     0
  9
$USERI5
 70
     0
  9
$USERR1
 40
0.0
  9
$USERR2
 40
0.0
  9
$USERR3
 40
0.0
  9
$USERR4
 40
0.0
  9
$USERR5
 40
0.0
  9
$WORLDVIEW
 70
     1
  9
$SHADEDGE
 70
     3
  9
$SHADEDIF
 70
    70
  9
$TILEMODE
 70
     1
  9
$MAXACTVP
 70
    64
  9
$PINSBASE
 10
0.0
 20
0.0
 30
0.0
  9
$PLIMCHECK
 70
     0
  9
$PEXTMIN
 10
1.000000000000000E+20
 20
1.000000000000000E+20
 30
1.000000000000000E+20
  9
$PEXTMAX
 10
-1.000000000000000E+20
 20
-1.000000000000000E+20
 30
-1.000000000000000E+20
  9
$PLIMMIN
 10
-3.17498779296875
 20
-3.174999952316284
  9
$PLIMMAX
 10
293.4970092773438
 20
206.692492723465
  9
$UNITMODE
 70
     0
  9
$VISRETAIN
 70
     1
  9
$PLINEGEN
 70
     0
  9
$PSLTSCALE
 70
     1
  9
$TREEDEPTH
 70
  3020
  9
$CMLSTYLE
  2
Standard
  9
$CMLJUST
 70
     0
  9
$CMLSCALE
 40
20.0
  9
$PROXYGRAPHICS
 70
     1
  9
$MEASUREMENT
 70
     1
  9
$CELWEIGHT
370
    -1
  9
$ENDCAPS
280
     0
  9
$JOINSTYLE
280
     0
  9
$LWDISPLAY
290
     1
  9
$INSUNITS
 70
     4
  9
$HYPERLINKBASE
  1

  9
$STYLESHEET
  1
monochrome.ctb
  9
$XEDIT
290
     1
  9
$CEPSNTYPE
380
     0
  9
$PSTYLEMODE
290
     1
  9
$FINGERPRINTGUID
  2
{83FB3AA1-FF18-4BFE-AFE0-611B71DE056D}
  9
$VERSIONGUID
  2
{B742374E-9FDD-4F5E-9481-E98BAF728010}
  9
$EXTNAMES
290
     1
  9
$PSVPSCALE
 40
0.0
  9
$OLESTARTUP
290
     0
  0
ENDSEC
  0
SECTION
  2
CLASSES
  0
CLASS
  1
ACDBDICTIONARYWDFLT
  2
AcDbDictionaryWithDefault
  3
ObjectDBX Classes
 90
        0
280
     0
281
     0
  0
CLASS
  1
ACDBPLACEHOLDER
  2
AcDbPlaceHolder
  3
ObjectDBX Classes
 90
        0
280
     0
281
     0
  0
CLASS
  1
LAYOUT
  2
AcDbLayout
  3
ObjectDBX Classes
 90
        0
280
     0
281
     0
  0
CLASS
  1
AMGSETTINGSOBJ
  2
AmgSettingsObj
  3
"AcadM|Product Description: AutoCAD Mechanical|Company: Autodesk"
 90
        0
280
     0
281
     0
  0
CLASS
  1
ACME_DOCUMENT
  2
AcMeDbDoc
  3
AcMeServices
 90
        0
280
     0
281
     0
  0
CLASS
  1
ACMESCOPE
  2
AcMeScope
  3
AcMeServices
 90
        0
280
     0
281
     0
  0
CLASS
  1
ACMECOMMANDHISTORY
  2
AcMeCommandHistory
  3
AcMeServices
 90
        0
280
     0
281
     0
  0
CLASS
  1
DICTIONARYVAR
  2
AcDbDictionaryVar
  3
ObjectDBX Classes
 90
        0
280
     0
281
     0
  0
CLASS
  1
ACIMSYSVARMAN
  2
AcImSysVarManager
  3
AcMeServices
 90
        0
280
     0
281
     0
  0
CLASS
  1
ACIMREALSYSVAR
  2
AcImRealSysVar
  3
AcMeServices
 90
        0
280
     0
281
     0
  0
CLASS
  1
ACIMINTSYSVAR
  2
AcImIntSysVar
  3
AcMeServices
 90
        0
280
     0
281
     0
  0
CLASS
  1
ACMEDRAWINGMAN
  2
AcMeDrawingMan
  3
AcMeServices
 90
        0
280
     0
281
     0
  0
CLASS
  1
ACMEVIEW
  2
AcMeView
  3
AcMeServices
 90
        0
280
     0
281
     0
  0
CLASS
  1
ACDBENTITYCACHE
  2
AcMeEntityCache
  3
AcMeServices
 90
        0
280
     0
281
     0
  0
CLASS
  1
GSMANAGER
  2
AcMeGSManager
  3
AcMeServices
 90
        0
280
     0
281
     0
  0
CLASS
  1
AMDTINTERNALREACTOR
  2
AmdtInternalReactor
  3
AcMeServices
 90
        0
280
     0
281
     0
  0
CLASS
  1
ACMESTATEMGR
  2
AcMeStateMgr
  3
AcMeServices
 90
        0
280
     0
281
     0
  0
CLASS
  1
ACGREFMASTER
  2
AcGrefMaster
  3
AcAttribServices
 90
        0
280
     0
281
     0
  0
CLASS
  1
ACME_DATABASE
  2
AcMeDbDatabase
  3
AcMeServices
 90
        0
280
     0
281
     0
  0
CLASS
  1
ACRFINSADJUSTERMGR
  2
AcRfInsAdjusterMgr
  3
AcMeServices
 90
        0
280
     0
281
     0
  0
CLASS
  1
ACGREFACADMASTER
  2
AcGrefacadMaster
  3
AcGrefServices
 90
        0
280
     0
281
     0
  0
CLASS
  1
AMIMASTER
  2
AmiMaster
  3
AmiServices
 90
        0
280
     0
281
     0
  0
CLASS
  1
ACMDATADICTIONARY
  2
AcmDataDictionary
  3
"AcmSymBB|Product Description: AutoCAD Mechanical|Company: Autodesk"
 90
        0
280
     0
281
     0
  0
CLASS
  1
ACMDATAENTRYBLOCK
  2
AcmDataEntryBlock
  3
"AcmSymBB|Product Description: AutoCAD Mechanical|Company: Autodesk"
 90
        0
280
     0
281
     0
  0
CLASS
  1
ACIMSTRSYSVAR
  2
AcImStrSysVar
  3
AcMeServices
 90
        0
280
     0
281
     0
  0
CLASS
  1
ACMSTANDARDISO
  2
AcmStandardISO
  3
"Amdt_StdImp|Product Description: AutoCAD Mechanical|Company: Autodesk"
 90
        0
280
     0
281
     0
  0
CLASS
  1
AMGOBJPROPCFG
  2
AmgObjPropCfg
  3
"AmgLay|Product Description: AutoCAD Mechanical|Company: Autodesk"
 90
        1
280
     0
281
     0
  0
CLASS
  1
AMDTEDGESTANDARDISO
  2
AmdtEdgeStdISO
  3
"Amdt_StdImp|Product Description: AutoCAD Mechanical|Company: Autodesk"
 90
        0
280
     0
281
     0
  0
CLASS
  1
ACMSURFSTANDARDISO
  2
AcmSurfTextStdISO
  3
"Amdt_StdImp|Product Description: AutoCAD Mechanical|Company: Autodesk"
 90
        0
280
     0
281
     0
  0
CLASS
  1
ACMFCFSTANDARDISO
  2
AcmFCFStdISO
  3
"Amdt_StdImp|Product Description: AutoCAD Mechanical|Company: Autodesk"
 90
        0
280
     0
281
     0
  0
CLASS
  1
ACMWELDSTANDARDISO
  2
AcmWeldingStdISO
  3
"Amdt_StdImp|Product Description: AutoCAD Mechanical|Company: Autodesk"
 90
        0
280
     0
281
     0
  0
CLASS
  1
ACMIDSTANDARDISO
  2
AcmIdStdISO
  3
"Amdt_StdImp|Product Description: AutoCAD Mechanical|Company: Autodesk"
 90
        0
280
     0
281
     0
  0
CLASS
  1
ACMDATUMSTANDARDISO
  2
AcmDatumStdISO
  3
"Amdt_StdImp|Product Description: AutoCAD Mechanical|Company: Autodesk"
 90
        0
280
     0
281
     0
  0
CLASS
  1
ACMBOMSTANDARDISO
  2
AcmBOMStdISO
  3
"Amdt_StdImp|Product Description: AutoCAD Mechanical|Company: Autodesk"
 90
        0
280
     0
281
     0
  0
CLASS
  1
ACMDETAILSTANDARDISO
  2
AmdtDetailSymStdISO
  3
"Amdt_StdImp|Product Description: AutoCAD Mechanical|Company: Autodesk"
 90
        0
280
     0
281
     0
  0
CLASS
  1
ACMSECTIONSTANDARDISO
  2
AmdtSectionSymStdISO
  3
"Amdt_StdImp|Product Description: AutoCAD Mechanical|Company: Autodesk"
 90
        0
280
     0
281
     0
  0
CLASS
  1
ACMCENTERLINESTANDARDISO
  2
AmdtCenterLineStdISO
  3
"Amdt_StdImp|Product Description: AutoCAD Mechanical|Company: Autodesk"
 90
        0
280
     0
281
     0
  0
CLASS
  1
ACAMGLAYSTD
  2
AcAmgLayStd
  3
"AmgLay|Product Description: AutoCAD Mechanical|Company: Autodesk"
 90
        0
280
     0
281
     0
  0
CLASS
  1
ACAMGDIMSTD
  2
AcAmgDimStd
  3
"AmgDim|Product Description: AutoCAD Mechanical|Company: Autodesk"
 90
        0
280
     0
281
     0
  0
CLASS
  1
ACAMGTITLESTD
  2
AcAmgTitleStd
  3
"AmgTitle|Product Description: AutoCAD Mechanical|Company: Autodesk"
 90
        0
280
     0
281
     0
  0
CLASS
  1
ACAMGFILTERDAT
  2
AcAmgFilterDat
  3
"AcadM|Product Description: AutoCAD Mechanical|Company: Autodesk"
 90
        0
280
     0
281
     0
  0
CLASS
  1
LAYER_INDEX
  2
AcDbLayerIndex
  3
ObjectDBX Classes
 90
    32768
280
     0
281
     0
  0
CLASS
  1
IDBUFFER
  2
AcDbIdBuffer
  3
ObjectDBX Classes
 90
    32768
280
     0
281
     0
  0
CLASS
  1
PLOTSETTINGS
  2
AcDbPlotSettings
  3
ObjectDBX Classes
 90
        0
280
     0
281
     0
  0
CLASS
  1
AMDTFORMULAUPDATEDISPATCHER
  2
AmdtFormulaUpdateDispatcher
  3
AcMeServices
 90
        0
280
     0
281
     0
  0
CLASS
  1
ACMSTANDARDANSI
  2
AcmStandardANSI
  3
"Amdt_StdImp|Product Description: AutoCAD Mechanical|Company: Autodesk"
 90
        0
280
     0
281
     0
  0
CLASS
  1
ACMSURFSTANDARDANSI
  2
AcmSurfTextStdANSI
  3
"Amdt_StdImp|Product Description: AutoCAD Mechanical|Company: Autodesk"
 90
        0
280
     0
281
     0
  0
CLASS
  1
ACMFCFSTANDARDANSI
  2
AcmFCFStdANSI
  3
"Amdt_StdImp|Product Description: AutoCAD Mechanical|Company: Autodesk"
 90
        0
280
     0
281
     0
  0
CLASS
  1
ACMWELDSTANDARDANSI
  2
AcmWeldingStdANSI
  3
"Amdt_StdImp|Product Description: AutoCAD Mechanical|Company: Autodesk"
 90
        0
280
     0
281
     0
  0
CLASS
  1
ACMIDSTANDARDANSI
  2
AcmIdStdANSI
  3
"Amdt_StdImp|Product Description: AutoCAD Mechanical|Company: Autodesk"
 90
        0
280
     0
281
     0
  0
CLASS
  1
ACMDATUMSTANDARDANSI
  2
AcmDatumStdANSI
  3
"Amdt_StdImp|Product Description: AutoCAD Mechanical|Company: Autodesk"
 90
        0
280
     0
281
     0
  0
CLASS
  1
ACMBOMSTANDARDANSI
  2
AcmBOMStdANSI
  3
"Amdt_StdImp|Product Description: AutoCAD Mechanical|Company: Autodesk"
 90
        0
280
     0
281
     0
  0
CLASS
  1
ACMDETAILSTANDARDANSI
  2
AmdtDetailSymStdANSI
  3
"Amdt_StdImp|Product Description: AutoCAD Mechanical|Company: Autodesk"
 90
        0
280
     0
281
     0
  0
CLASS
  1
ACMSECTIONSTANDARDANSI
  2
AmdtSectionSymStdANSI
  3
"Amdt_StdImp|Product Description: AutoCAD Mechanical|Company: Autodesk"
 90
        0
280
     0
281
     0
  0
CLASS
  1
ACMCENTERLINESTANDARDANSI
  2
AmdtCenterLineStdANSI
  3
"Amdt_StdImp|Product Description: AutoCAD Mechanical|Company: Autodesk"
 90
        0
280
     0
281
     0
  0
CLASS
  1
ACMBOM
  2
AcmBom
  3
"AcmSymBB|Product Description: AutoCAD Mechanical|Company: Autodesk"
 90
        0
280
     0
281
     0
  0
CLASS
  1
ACMDATAENTRYPART
  2
AcmDataEntryPart
  3
"AcmSymBB|Product Description: AutoCAD Mechanical|Company: Autodesk"
 90
    32768
280
     0
281
     0
  0
CLASS
  1
ACMPARTREF
  2
AcmPartRef
  3
"AcmSymBB|Product Description: AutoCAD Mechanical|Company: Autodesk"
 90
    35839
280
     0
281
     1
  0
CLASS
  1
ACDBCIRCARCRES
  2
AcDbCircArcRes
  3
AcGrefServices
 90
    32768
280
     0
281
     0
  0
CLASS
  1
ACMBOMROW
  2
AcmBomRow
  3
"AcmSymBB|Product Description: AutoCAD Mechanical|Company: Autodesk"
 90
    32768
280
     0
281
     0
  0
CLASS
  1
ACMBALLOON
  2
AcmBalloon
  3
"AcmSymBB|Product Description: AutoCAD Mechanical|Company: Autodesk"
 90
    35839
280
     0
281
     1
  0
CLASS
  1
AMDTNOTE
  2
AmdtNote
  3
"AcmSymBB|Product Description: AutoCAD Mechanical|Company: Autodesk"
 90
    35839
280
     0
281
     1
  0
CLASS
  1
STDPART2D
  2
AmgStdPart
  3
"AmgStdPart|Product Description: AutoCAD Mechanical|Company: Autodesk"
 90
    35839
280
     0
281
     1
  0
CLASS
  1
ACDBSTDPARTRES_LINE
  2
AcDbStdPartRes_Line
  3
"AmgStdPart|Product Description: AutoCAD Mechanical|Company: Autodesk"
 90
    32768
280
     0
281
     0
  0
CLASS
  1
ACMDATAENTRY
  2
AcmDataEntry
  3
"AcmSymBB|Product Description: AutoCAD Mechanical|Company: Autodesk"
 90
        0
280
     0
281
     0
  0
CLASS
  1
ACDBOPPOLYLINERES
  2
AcDbOpPolylineRes
  3
AcGrefServices
 90
    32768
280
     0
281
     0
  0
CLASS
  1
ACMPARTLIST
  2
AcmPartList
  3
"AcmSymBB|Product Description: AutoCAD Mechanical|Company: Autodesk"
 90
    35839
280
     0
281
     1
  0
CLASS
  1
ACDBLINERES
  2
AcDbLineRes
  3
AcGrefServices
 90
    32768
280
     0
281
     0
  0
CLASS
  1
ACRFINSADJ
  2
AcRfInsAdjuster
  3
AcMeServices
 90
    32768
280
     0
281
     0
  0
CLASS
  1
AM_DRAWING_MGR
  2
AcDmDwgMgr
  3
AcMechDwgViewMgmt
 90
        0
280
     0
281
     0
  0
CLASS
  1
AM_DWG_DOCUMENT
  2
AcDmDwgDocument
  3
AcMechDwgViewMgmt
 90
        0
280
     0
281
     0
  0
CLASS
  1
AM_DWG_SHEET
  2
AcDmSheet
  3
AcMechDwgViewMgmt
 90
        0
280
     0
281
     0
  0
CLASS
  1
AM_VIEWDIMPARMAP
  2
AcDmViewDimParMap
  3
AcMechDwgViewMgmt
 90
        0
280
     0
281
     0
  0
CLASS
  1
AM_DWGMGR_NAME
  2
AcDmDwgMgrName
  3
AcMechDwgViewMgmt
 90
        0
280
     0
281
     0
  0
CLASS
  1
AMDTMENUSTATEMGR
  2
AmdtMenuStateMgr
  3
McadcomServices
 90
        0
280
     0
281
     0
  0
CLASS
  1
AMDTMCOMMENUSTATE
  2
AmdtMcomMenuState
  3
McadcomServices
 90
        0
280
     0
281
     0
  0
CLASS
  1
ASAPP
  2
AcAsAppObject
  3
AutoSurfServices
 90
        0
280
     0
281
     0
  0
CLASS
  1
IM_STATIC_MAN
  2
AcImStaticVarManager
  3
AcMeServices
 90
        0
280
     0
281
     0
  0
CLASS
  1
ACIMDBLSTATICVAR
  2
AcImDblStaticVar
  3
AcMeServices
 90
        0
280
     0
281
     0
  0
CLASS
  1
ACIMSTRSTATICVAR
  2
AcImStrStaticVar
  3
AcMeServices
 90
        0
280
     0
281
     0
  0
CLASS
  1
ACIMINTSTATICVAR
  2
AcImIntStaticVar
  3
AcMeServices
 90
        0
280
     0
281
     0
  0
CLASS
  1
ACASGREFMASTER
  2
AcAsGrefMaster
  3
AutoSurfResolverServices
 90
        0
280
     0
281
     0
  0
CLASS
  1
ACADGREFMODULE
  2
AcAdGrefModule
  3
AdGrefServices
 90
        0
280
     0
281
     0
  0
CLASS
  1
AMDTMAPISURFMOUDULE
  2
AmdtMApiSurfModule
  3
MApiSurfServices
 90
        0
280
     0
281
     0
  0
CLASS
  1
MAPIAMMOUDLE
  2
MApiAmModule
  3
MApiAmServices
 90
        0
280
     0
281
     0
  0
CLASS
  1
AMDTADMENUSTATE
  2
AmdtAdMenuState
  3
DesignerServices
 90
        0
280
     0
281
     0
  0
CLASS
  1
ADAPPL
  2
AcAdAppl
  3
DesignerServices
 90
        0
280
     0
281
     0
  0
CLASS
  1
DEPMGR
  2
AcAdDepMgr
  3
DesignerServices
 90
        0
280
     0
281
     0
  0
CLASS
  1
PARAMMGR
  2
AcAdParamMgr
  3
DesignerServices
 90
        0
280
     0
281
     0
  0
CLASS
  1
PARAMSCOPE
  2
AcAdParamScope
  3
DesignerServices
 90
        0
280
     0
281
     0
  0
CLASS
  1
NAMEDAPPL
  2
AcAdNamedAppl
  3
DesignerServices
 90
        0
280
     0
281
     0
  0
CLASS
  1
ADHNTMPLT
  2
AdHoleNoteTemplateMgr
  3
DesignerServices
 90
    32768
280
     0
281
     0
  0
CLASS
  1
AM_HNTEMPLATE_MGR_NAME
  2
AdHoleNoteTemplateMgrName
  3
DesignerServices
 90
    32768
280
     0
281
     0
  0
CLASS
  1
AMDTDMMENUSTATE
  2
AmdtDmMenuState
  3
AcMechDwgViewMgmt
 90
        0
280
     0
281
     0
  0
CLASS
  1
MAPIADMODULE
  2
MApiAdModule
  3
MApiAdServices
 90
        0
280
     0
281
     0
  0
CLASS
  1
AMDTAMMENUSTATE
  2
AmdtAmMenuState
  3
DesignerAssemblies
 90
        0
280
     0
281
     0
  0
CLASS
  1
ACAMPROJECT
  2
AcAmProject
  3
DesignerAssemblies
 90
        0
280
     0
281
     0
  0
CLASS
  1
ACAMGRCOMPDEF
  2
AcAmGrCompDef
  3
DesignerAssemblies
 90
        0
280
     0
281
     0
  0
CLASS
  1
ACCMCONTEXT
  2
AcCmContext
  3
DesignerAssemblies
 90
        0
280
     0
281
     0
  0
CLASS
  1
ACAMCOMPDEF
  2
AcAmCompDef
  3
DesignerAssemblies
 90
        0
280
     0
281
     0
  0
CLASS
  1
ACAMCOMPDEFMGR
  2
AcAmCompDefMgr
  3
DesignerAssemblies
 90
        0
280
     0
281
     0
  0
CLASS
  1
AMCONTEXTMGR
  2
AcAmContextMgr
  3
DesignerAssemblies
 90
        0
280
     0
281
     0
  0
CLASS
  1
ACAMCONTEXTMODELER
  2
AcAmContextModeler
  3
DesignerAssemblies
 90
        0
280
     0
281
     0
  0
CLASS
  1
CATALOGSTATE
  2
AcAmCatalogState
  3
DesignerAssemblies
 90
        0
280
     0
281
     0
  0
CLASS
  1
ACAMGRCOMPDEFSET
  2
AcAmGrCompDefSet
  3
DesignerAssemblies
 90
        0
280
     0
281
     0
  0
CLASS
  1
AMDTBROWSERDBTAB
  2
AmdtBrowserDbTab
  3
McadcomServices
 90
        0
280
     0
281
     0
  0
CLASS
  1
CBROWSERAPPOBJECT
  2
CBrowserAppObject
  3
McadcomServices
 90
        0
280
     0
281
     0
  0
CLASS
  1
DM_PLACEHOLDER
  2
AcDmSelsetPlaceholder
  3
AcMechDwgViewMgmt
 90
        0
280
     0
281
     0
  0
CLASS
  1
ACMPICKOBJ
  2
AcmPickEnt
  3
"AcmSymBB|Product Description: AutoCAD Mechanical|Company: Autodesk"
 90
    32768
280
     0
281
     1
  0
CLASS
  1
MATERIAL
  2
AcDbMaterial
  3
ObjectDBX Classes
 90
     1153
280
     0
281
     0
  0
CLASS
  1
VISUALSTYLE
  2
AcDbVisualStyle
  3
ObjectDBX Classes
 90
     4095
280
     0
281
     0
  0
CLASS
  1
TABLESTYLE
  2
AcDbTableStyle
  3
ObjectDBX Classes
 90
     4095
280
     0
281
     0
  0
CLASS
  1
ACRFATTGENMGR
  2
AcRfAttGeneralMgr
  3
AcAttribServices
 90
        0
280
     0
281
     0
  0
CLASS
  1
ACRFOBJATTMGR
  2
AcRfObjAttGroupMgr
  3
AcAttribServices
 90
        0
280
     0
281
     0
  0
CLASS
  1
ACRFMCADAPIATTHOLDER
  2
AcRfMCADAPIAttHolder
  3
AcAttribServices
 90
        0
280
     0
281
     0
  0
CLASS
  1
AMDTSYSATTR
  2
AmdtSystemAttribute
  3
AcAttribServices
 90
        0
280
     0
281
     0
  0
CLASS
  1
ACMTHREADLINESTANDARDISO
  2
AmdtThreadLineStdISO
  3
"Amdt_StdImp|Product Description: AutoCAD Mechanical|Company: Autodesk"
 90
        0
280
     0
281
     0
  0
CLASS
  1
ACMNOTESTANDARDISO
  2
AmdtNoteStdISO
  3
"Amdt_StdImp|Product Description: AutoCAD Mechanical|Company: Autodesk"
 90
        0
280
     0
281
     0
  0
CLASS
  1
AMDTNOTETEMPLATEDB
  2
AmdtNoteTemplateDB
  3
AMDT_STDIMP_MODULE_NAME
 90
        0
280
     0
281
     0
  0
CLASS
  1
ACMTAPERSTANDARDISO
  2
AcmTaperStdISO
  3
"Amdt_StdImp|Product Description: AutoCAD Mechanical|Company: Autodesk"
 90
        0
280
     0
281
     0
  0
CLASS
  1
ACMTHREADLINESTANDARDANSI
  2
AmdtThreadLineStdANSI
  3
"Amdt_StdImp|Product Description: AutoCAD Mechanical|Company: Autodesk"
 90
        0
280
     0
281
     0
  0
CLASS
  1
ACMNOTESTANDARDANSI
  2
AmdtNoteStdANSI
  3
"Amdt_StdImp|Product Description: AutoCAD Mechanical|Company: Autodesk"
 90
        0
280
     0
281
     0
  0
CLASS
  1
ACMTAPERSTANDARDANSI
  2
AcmTaperStdANSI
  3
"Amdt_StdImp|Product Description: AutoCAD Mechanical|Company: Autodesk"
 90
        0
280
     0
281
     0
  0
CLASS
  1
CAMSSTRUCTBTNSTATE
  2
StructBtnState
  3
L"DesignerAssemblies"
 90
        0
280
     0
281
     0
  0
CLASS
  1
SORTENTSTABLE
  2
AcDbSortentsTable
  3
ObjectDBX Classes
 90
        0
280
     0
281
     0
  0
CLASS
  1
DIMASSOC
  2
AcDbDimAssoc
  3
"AcDbDimAssoc|Product Desc:     AcDim ARX App For Dimension|Company:          Autodesk, Inc.|WEB Address:      www.autodesk.com"
 90
        0
280
     0
281
     0
  0
ENDSEC
  0
SECTION
  2
TABLES
  0
TABLE
  2
VPORT
  5
8
330
0
100
AcDbSymbolTable
 70
     1
  0
VPORT
  5
C444
330
8
100
AcDbSymbolTableRecord
100
AcDbViewportTableRecord
  2
*Active
 70
     0
 10
0.0
 20
0.0
 11
1.0
 21
1.0
 12
3685.312007209466
 22
-2928.374310376945
 13
0.0
 23
0.0
 14
2.5
 24
2.5
 15
10.0
 25
10.0
 16
0.0
 26
0.0
 36
1.0
 17
0.0
 27
0.0
 37
0.0
 40
1036.365737503249
 41
1.240506329113924
 42
50.0
 43
-1370.695619172058
 44
-1370.695619172058
 50
0.0
 51
0.0
 71
    16
 72
   100
 73
     1
 74
     3
 75
     0
 76
     0
 77
     0
 78
     0
281
     0
 65
     0
110
0.0
120
0.0
130
0.0
111
1.0
121
0.0
131
0.0
112
0.0
122
1.0
132
0.0
 79
     0
146
0.0
  0
ENDTAB
  0
TABLE
  2
LTYPE
  5
5
330
0
100
AcDbSymbolTable
 70
    25
  0
LTYPE
  5
14
330
5
100
AcDbSymbolTableRecord
100
AcDbLinetypeTableRecord
  2
ByBlock
 70
     0
  3

 72
    65
 73
     0
 40
0.0
  0
LTYPE
  5
15
330
5
100
AcDbSymbolTableRecord
100
AcDbLinetypeTableRecord
  2
ByLayer
 70
     0
  3

 72
    65
 73
     0
 40
0.0
  0
LTYPE
  5
16
330
5
100
AcDbSymbolTableRecord
100
AcDbLinetypeTableRecord
  2
Continuous
 70
     0
  3
Solid line
 72
    65
 73
     0
 40
0.0
  0
LTYPE
  5
4F
330
5
100
AcDbSymbolTableRecord
100
AcDbLinetypeTableRecord
  2
AM_ISO02W050
 70
     0
  3
__ __ __ __ __ __ __ __ __ __ __ __ __ __ __
 72
    65
 73
     2
 40
7.5
 49
6.0
 74
     0
 49
-1.5
 74
     0
  0
LTYPE
  5
52
330
5
100
AcDbSymbolTableRecord
100
AcDbLinetypeTableRecord
  2
Amconstr
 70
     0
  3
_______________________
 72
    65
 73
     2
 40
9999.0
 49
9999.0
 74
     0
 49
0.0
 74
     0
  0
LTYPE
  5
64
330
5
100
AcDbSymbolTableRecord
100
AcDbLinetypeTableRecord
  2
ACISOWELD
 70
     0
  3
_ _ _ _ _
 72
    65
 73
     2
 40
2.0
 49
2.0
 74
     0
 49
-1.0
 74
     0
  0
LTYPE
  5
65
330
5
100
AcDbSymbolTableRecord
100
AcDbLinetypeTableRecord
  2
ACISOTGB
 70
     0
  3
__ . . __ . .
 72
    65
 73
     6
 40
9.0
 49
4.0
 74
     0
 49
-1.0
 74
     0
 49
1.0
 74
     0
 49
-1.0
 74
     0
 49
1.0
 74
     0
 49
-1.0
 74
     0
  0
LTYPE
  5
66
330
5
100
AcDbSymbolTableRecord
100
AcDbLinetypeTableRecord
  2
ACISOTGL
 70
     0
  3
_ _ _ _ _
 72
    65
 73
     2
 40
3.0
 49
2.0
 74
     0
 49
-1.0
 74
     0
  0
LTYPE
  5
69
330
5
100
AcDbSymbolTableRecord
100
AcDbLinetypeTableRecord
  2
CENTER
 70
     0
  3
__ . __
 72
    65
 73
     4
 40
7.0
 49
4.0
 74
     0
 49
-1.0
 74
     0
 49
1.0
 74
     0
 49
-1.0
 74
     0
  0
LTYPE
  5
A6E
330
5
100
AcDbSymbolTableRecord
100
AcDbLinetypeTableRecord
  2
PHANTOM2
 70
     0
  3
Phantom (.5x) ___ _ _ ___ _ _ ___ _ _ ___ _ _
 72
    65
 73
     6
 40
31.75
 49
15.875
 74
     0
 49
-3.174999999999999
 74
     0
 49
3.174999999999999
 74
     0
 49
-3.174999999999999
 74
     0
 49
3.174999999999999
 74
     0
 49
-3.174999999999999
 74
     0
  0
LTYPE
  5
FA3
330
5
100
AcDbSymbolTableRecord
100
AcDbLinetypeTableRecord
  2
ACANSTGB
 70
     0
  3
__ . . __ . .
 72
    65
 73
     6
 40
0.35433070866
 49
0.15748031496
 74
     0
 49
-0.03937007874
 74
     0
 49
0.03937007874
 74
     0
 49
-0.03937007874
 74
     0
 49
0.03937007874
 74
     0
 49
-0.03937007874
 74
     0
  0
LTYPE
  5
FA4
330
5
100
AcDbSymbolTableRecord
100
AcDbLinetypeTableRecord
  2
ACANSTGL
 70
     0
  3
_ _ _ _ _
 72
    65
 73
     2
 40
0.11811023622
 49
0.07874015748
 74
     0
 49
-0.03937007874
 74
     0
  0
LTYPE
  5
4DED
330
5
100
AcDbSymbolTableRecord
100
AcDbLinetypeTableRecord
  2
中線
 70
     0
  3
___________________
 72
    65
 73
     2
 40
2.0
 49
1.0
 74
     0
 49
1.0
 74
     0
  0
LTYPE
  5
4DF6
330
5
100
AcDbSymbolTableRecord
100
AcDbLinetypeTableRecord
  2
細線
 70
     0
  3
___________________
 72
    65
 73
     2
 40
2.0
 49
1.0
 74
     0
 49
1.0
 74
     0
  0
LTYPE
  5
4DF7
330
5
100
AcDbSymbolTableRecord
100
AcDbLinetypeTableRecord
  2
太線
 70
     0
  3
___________________
 72
    65
 73
     2
 40
2.0
 49
1.0
 74
     0
 49
1.0
 74
     0
  0
LTYPE
  5
4EA7
330
5
100
AcDbSymbolTableRecord
100
AcDbLinetypeTableRecord
  2
文字
 70
     0
  3
_________________
 72
    65
 73
     2
 40
2.0
 49
1.0
 74
     0
 49
1.0
 74
     0
  0
LTYPE
  5
4EA9
330
5
100
AcDbSymbolTableRecord
100
AcDbLinetypeTableRecord
  2
寸法線
 70
     0
  3
________________
 72
    65
 73
     2
 40
2.0
 49
1.0
 74
     0
 49
1.0
 74
     0
  0
LTYPE
  5
4F12
330
5
100
AcDbSymbolTableRecord
100
AcDbLinetypeTableRecord
  2
ハッチング
 70
     0
  3
_________________
 72
    65
 73
     2
 40
2.0
 49
1.0
 74
     0
 49
1.0
 74
     0
  0
LTYPE
  5
5180
330
5
100
AcDbSymbolTableRecord
100
AcDbLinetypeTableRecord
  2
陰線1
 70
     0
  3
__ __ __ __
 72
    65
 73
     2
 40
4.0
 49
2.2
 74
     0
 49
-1.8
 74
     0
  0
LTYPE
  5
5182
330
5
100
AcDbSymbolTableRecord
100
AcDbLinetypeTableRecord
  2
切断線
 70
     0
  3
/\/-/\/-/\/-/\/-/\/-/\/
 72
    65
 73
     2
 40
11.0001
 49
0.0001
 74
     4
 75
   135
340
56
 46
0.04
 50
0.0
 44
0.0
 45
0.0
 49
-11.0
 74
     0
  0
LTYPE
  5
5183
330
5
100
AcDbSymbolTableRecord
100
AcDbLinetypeTableRecord
  2
想像線1
 70
     0
  3
__ __ __ _____ __ __ ____
 72
    65
 73
     6
 40
14.5
 49
6.0
 74
     0
 49
-1.5
 74
     0
 49
2.0
 74
     0
 49
-1.5
 74
     0
 49
2.0
 74
     0
 49
-1.5
 74
     0
  0
LTYPE
  5
5185
330
5
100
AcDbSymbolTableRecord
100
AcDbLinetypeTableRecord
  2
中心線1
 70
     0
  3
___ _ ___ _ ___
 72
    65
 73
     4
 40
18.0
 49
12.0
 74
     0
 49
-2.0
 74
     0
 49
2.0
 74
     0
 49
-2.0
 74
     0
  0
LTYPE
  5
5188
330
5
100
AcDbSymbolTableRecord
100
AcDbLinetypeTableRecord
  2
補助線
 70
     0
  3
______________
 72
    65
 73
     2
 40
2.0
 49
1.0
 74
     0
 49
1.0
 74
     0
  0
LTYPE
  5
C49C
330
5
100
AcDbSymbolTableRecord
100
AcDbLinetypeTableRecord
  2
HIDDEN
 70
     0
  3
Hidden __ __ __ __ __ __ __ __ __ __ __ __ __ _
 72
    65
 73
     2
 40
9.524999999999998
 49
6.349999999999999
 74
     0
 49
-3.174999999999999
 74
     0
  0
ENDTAB
  0
TABLE
  2
LAYER
  5
2
102
{ACAD_XDICTIONARY
360
3F95
102
}
330
0
100
AcDbSymbolTable
 70
    39
  0
LAYER
  5
10
330
2
100
AcDbSymbolTableRecord
100
AcDbLayerTableRecord
  2
0
 70
     0
 62
     7
  6
Continuous
370
    -3
390
F
  0
LAYER
  5
6D1
330
2
100
AcDbSymbolTableRecord
100
AcDbLayerTableRecord
  2
Defpoints
 70
     0
 62
     7
  6
Continuous
290
     0
370
    -3
390
F
  0
LAYER
  5
A46
330
2
100
AcDbSymbolTableRecord
100
AcDbLayerTableRecord
  2
size
 70
     0
 62
     5
  6
Continuous
290
     0
370
    30
390
F
  0
LAYER
  5
A47
330
2
100
AcDbSymbolTableRecord
100
AcDbLayerTableRecord
  2
waku
 70
     0
 62
     7
  6
Continuous
370
    40
390
F
  0
LAYER
  5
A48
330
2
100
AcDbSymbolTableRecord
100
AcDbLayerTableRecord
  2
AM_6
 70
     0
 62
     2
  6
文字
370
    20
390
F
  0
LAYER
  5
5F85
330
2
100
AcDbSymbolTableRecord
100
AcDbLayerTableRecord
  2
AM_0
 70
     0
 62
     7
  6
中線
370
    30
390
F
  0
LAYER
  5
5F89
330
2
100
AcDbSymbolTableRecord
100
AcDbLayerTableRecord
  2
AM_4
 70
     0
 62
     3
  6
補助線
370
    20
390
F
  0
LAYER
  5
BFAB
330
2
100
AcDbSymbolTableRecord
100
AcDbLayerTableRecord
  2
AM_5
 70
     0
 62
     3
  6
寸法線
370
    18
390
F
  0
LAYER
  5
494E2
330
2
100
AcDbSymbolTableRecord
100
AcDbLayerTableRecord
  2
000鈴木検図
 70
     0
 62
     1
  6
中線
370
    40
390
F
1001
AcAecLayerStandard
1000

1000

  0
LAYER
  5
4A3AD
330
2
100
AcDbSymbolTableRecord
100
AcDbLayerTableRecord
  2
0部品4
 70
     0
 62
    70
  6
細線
370
    30
390
F
1001
AcAecLayerStandard
1000

1000

  0
LAYER
  5
4A3B5
330
2
100
AcDbSymbolTableRecord
100
AcDbLayerTableRecord
  2
0部品5
 70
     0
 62
    52
  6
細線
370
    30
390
F
1001
AcAecLayerStandard
1000

1000

  0
LAYER
  5
4A3BE
330
2
100
AcDbSymbolTableRecord
100
AcDbLayerTableRecord
  2
0部品21
 70
     0
 62
   133
  6
細線
370
    30
390
F
1001
AcAecLayerStandard
1000

1000

  0
LAYER
  5
4A3BF
330
2
100
AcDbSymbolTableRecord
100
AcDbLayerTableRecord
  2
0部品22
 70
     0
 62
    30
  6
細線
370
    30
390
F
1001
AcAecLayerStandard
1000

1000

  0
ENDTAB
  0
TABLE
  2
STYLE
  5
3
330
0
100
AcDbSymbolTable
 70
     8
  0
STYLE
  5
11
330
3
100
AcDbSymbolTableRecord
100
AcDbTextStyleTableRecord
  2
STANDARD
 70
     0
 40
0.0
 41
0.7
 50
0.0
 71
     0
 42
3.5
  3
romans.shx
  4
extfont.shx
  0
STYLE
  5
56
330
3
100
AcDbSymbolTableRecord
100
AcDbTextStyleTableRecord
  2

 70
     1
 40
0.0
 41
1.0
 50
0.0
 71
     0
 42
2.5
  3
ltypeshp.shx
  4

  0
STYLE
  5
58
330
3
100
AcDbSymbolTableRecord
100
AcDbTextStyleTableRecord
  2
ACISOTS
 70
     0
 40
1.0
 41
1.0
 50
0.0
 71
     0
 42
2.5
  3
isocp.shx
  4
extfont.shx
  0
STYLE
  5
63
330
3
100
AcDbSymbolTableRecord
100
AcDbTextStyleTableRecord
  2
ACISOGDT
 70
     0
 40
0.0
 41
1.0
 50
0.0
 71
     0
 42
2.5
  3
amgdt.shx
  4

  0
STYLE
  5
A74
330
3
100
AcDbSymbolTableRecord
100
AcDbTextStyleTableRecord
  2
DIM
 70
     0
 40
0.0
 41
1.0
 50
0.0
 71
     0
 42
2.5
  3
monotxt.shx
  4
extfont.shx
  0
STYLE
  5
FA7
330
3
100
AcDbSymbolTableRecord
100
AcDbTextStyleTableRecord
  2
ACANSTS
 70
     0
 40
1.0
 41
1.0
 50
0.0
 71
     0
 42
0.2
  3
romans.shx
  4
extfont.shx
  0
STYLE
  5
FA8
330
3
100
AcDbSymbolTableRecord
100
AcDbTextStyleTableRecord
  2
ACANSGDT
 70
     0
 40
0.0
 41
1.0
 50
0.0
 71
     0
 42
0.2
  3
amgdtans.shx
  4

  0
ENDTAB
  0
TABLE
  2
VIEW
  5
6
330
0
100
AcDbSymbolTable
 70
     6
  0
VIEW
  5
AE1
330
6
100
AcDbSymbolTableRecord
100
AcDbViewTableRecord
  2
AM_VIEW1
 70
     0
 40
52.5
 10
2210.154925218148
 20
-2451.622216979716
 41
83.75147928994101
 11
0.0
 21
0.0
 31
1.0
 12
0.0
 22
0.0
 32
0.0
 42
50.0
 43
-1370.695619172058
 44
-1370.695619172058
 50
0.0
 71
    16
281
     0
 72
     0
  0
VIEW
  5
AE2
330
6
100
AcDbSymbolTableRecord
100
AcDbViewTableRecord
  2
AM_VIEW2
 70
     0
 40
52.5
 10
2274.903445928207
 20
-2451.622216979716
 41
83.75147928994101
 11
0.0
 21
0.0
 31
1.0
 12
0.0
 22
0.0
 32
0.0
 42
50.0
 43
-1370.695619172058
 44
-1370.695619172058
 50
0.0
 71
    16
281
     0
 72
     0
  0
VIEW
  5
AE3
330
6
100
AcDbSymbolTableRecord
100
AcDbViewTableRecord
  2
AM_VIEW3
 70
     0
 40
52.5
 10
2210.154925218148
 20
-2504.122216979716
 41
83.75147928994101
 11
0.0
 21
0.0
 31
1.0
 12
0.0
 22
0.0
 32
0.0
 42
50.0
 43
-1370.695619172058
 44
-1370.695619172058
 50
0.0
 71
    16
281
     0
 72
     0
  0
VIEW
  5
AE4
330
6
100
AcDbSymbolTableRecord
100
AcDbViewTableRecord
  2
AM_VIEW4
 70
     0
 40
52.5
 10
2274.903445928207
 20
-2504.122216979716
 41
83.75147928994101
 11
0.0
 21
0.0
 31
1.0
 12
0.0
 22
0.0
 32
0.0
 42
50.0
 43
-1370.695619172058
 44
-1370.695619172058
 50
0.0
 71
    16
281
     0
 72
     0
  0
VIEW
  5
AE5
330
6
100
AcDbSymbolTableRecord
100
AcDbViewTableRecord
  2
AM_VIEW5
 70
     0
 40
52.5
 10
2242.529185573177
 20
-2477.872216979716
 41
83.75147928994101
 11
0.0
 21
0.0
 31
1.0
 12
0.0
 22
0.0
 32
0.0
 42
50.0
 43
-1370.695619172058
 44
-1370.695619172058
 50
0.0
 71
    16
281
     0
 72
     0
  0
VIEW
  5
AE6
330
6
100
AcDbSymbolTableRecord
100
AcDbViewTableRecord
  2
AM_VIEW6
 70
     0
 40
104.9989500000001
 10
2242.529185573177
 20
-2477.872216979716
 41
167.5012835502957
 11
0.0
 21
0.0
 31
1.0
 12
0.0
 22
0.0
 32
0.0
 42
50.0
 43
-1370.695619172058
 44
-1370.695619172058
 50
0.0
 71
    16
281
     0
 72
     0
  0
ENDTAB
  0
TABLE
  2
UCS
  5
7
330
0
100
AcDbSymbolTable
 70
     0
  0
ENDTAB
  0
TABLE
  2
APPID
  5
9
330
0
100
AcDbSymbolTable
 70
    63
  0
APPID
  5
12
330
9
100
AcDbSymbolTableRecord
100
AcDbRegAppTableRecord
  2
ACAD
 70
     0
  0
APPID
  5
30
330
9
100
AcDbSymbolTableRecord
100
AcDbRegAppTableRecord
  2
MCAD_NO_VIS
 70
     0
  0
APPID
  5
31
330
9
100
AcDbSymbolTableRecord
100
AcDbRegAppTableRecord
  2
ACAD_TEMP_GRAPHIC
 70
     0
  0
APPID
  5
44
330
9
100
AcDbSymbolTableRecord
100
AcDbRegAppTableRecord
  2
ACATTRIBSERVICES
 70
     0
  0
APPID
  5
7A1
330
9
100
AcDbSymbolTableRecord
100
AcDbRegAppTableRecord
  2
GENIUS_GENDIMSH_14
 70
     0
  0
APPID
  5
A49
330
9
100
AcDbSymbolTableRecord
100
AcDbRegAppTableRecord
  2
GENIUS_GENREC_14
 70
     0
  0
APPID
  5
A4A
330
9
100
AcDbSymbolTableRecord
100
AcDbRegAppTableRecord
  2
GENIUS_GENOBJ-N-REC_13
 70
     0
  0
APPID
  5
A4B
330
9
100
AcDbSymbolTableRecord
100
AcDbRegAppTableRecord
  2
GENIUS_GENODEF_13
 70
     0
  0
APPID
  5
A4C
330
9
100
AcDbSymbolTableRecord
100
AcDbRegAppTableRecord
  2
DCO15
 70
     0
  0
APPID
  5
ADC
330
9
100
AcDbSymbolTableRecord
100
AcDbRegAppTableRecord
  2
GENIUS_GENOLIS_13
 70
     0
  0
APPID
  5
ADD
330
9
100
AcDbSymbolTableRecord
100
AcDbRegAppTableRecord
  2
GENIUS_GENOENT_13
 70
     0
  0
APPID
  5
ADE
330
9
100
AcDbSymbolTableRecord
100
AcDbRegAppTableRecord
  2
GENIUS_GENOBJ-N-TIT_13
 70
     0
  0
APPID
  5
ADF
330
9
100
AcDbSymbolTableRecord
100
AcDbRegAppTableRecord
  2
GENIUS_GENTITLE_13
 70
     0
  0
APPID
  5
AE0
330
9
100
AcDbSymbolTableRecord
100
AcDbRegAppTableRecord
  2
GENIUS_GENOREF_13
 70
     0
  0
APPID
  5
AE7
330
9
100
AcDbSymbolTableRecord
100
AcDbRegAppTableRecord
  2
GENIUS_GENSCREG_15
 70
     0
  0
APPID
  5
AE8
330
9
100
AcDbSymbolTableRecord
100
AcDbRegAppTableRecord
  2
GENIUS_GENOBJ-N-SDF_13
 70
     0
  0
APPID
  5
FAF
330
9
100
AcDbSymbolTableRecord
100
AcDbRegAppTableRecord
  2
GENIUS_GENBLLY_14
 70
     0
  0
APPID
  5
FB0
330
9
100
AcDbSymbolTableRecord
100
AcDbRegAppTableRecord
  2
GENIUS_GENTRA_14
 70
     0
  0
APPID
  5
1285
330
9
100
AcDbSymbolTableRecord
100
AcDbRegAppTableRecord
  2
GENIUS_GENDTOL_13
 70
     0
  0
APPID
  5
142D
330
9
100
AcDbSymbolTableRecord
100
AcDbRegAppTableRecord
  2
GENIUS_GENOBJ-N-CEN_13
 70
     0
  0
APPID
  5
1AB5
330
9
100
AcDbSymbolTableRecord
100
AcDbRegAppTableRecord
  2
GENIUS_GENOBJ-N-CRS_13
 70
     0
  0
APPID
  5
1B36
330
9
100
AcDbSymbolTableRecord
100
AcDbRegAppTableRecord
  2
GENIUS_GENOBJ-N-HTC_13
 70
     0
  0
APPID
  5
1B37
330
9
100
AcDbSymbolTableRecord
100
AcDbRegAppTableRecord
  2
GENIUS_GENHATCH_13
 70
     0
  0
APPID
  5
216D
330
9
100
AcDbSymbolTableRecord
100
AcDbRegAppTableRecord
  2
GENIUS_GENOBJ-N-FIL_13
 70
     0
  0
APPID
  5
2356
330
9
100
AcDbSymbolTableRecord
100
AcDbRegAppTableRecord
  2
GEVID990412420
 70
     0
  0
APPID
  5
2357
330
9
100
AcDbSymbolTableRecord
100
AcDbRegAppTableRecord
  2
GEVDC
 70
     0
  0
APPID
  5
2358
330
9
100
AcDbSymbolTableRecord
100
AcDbRegAppTableRecord
  2
GEVCON
 70
     0
  0
APPID
  5
235B
330
9
100
AcDbSymbolTableRecord
100
AcDbRegAppTableRecord
  2
GEVRADREF
 70
     0
  0
APPID
  5
2360
330
9
100
AcDbSymbolTableRecord
100
AcDbRegAppTableRecord
  2
GENIUS_GENBH_13
 70
     0
  0
APPID
  5
2362
330
9
100
AcDbSymbolTableRecord
100
AcDbRegAppTableRecord
  2
GENIUS_GENOBJ-NBEHI-BHF_13
 70
     0
  0
APPID
  5
2364
330
9
100
AcDbSymbolTableRecord
100
AcDbRegAppTableRecord
  2
GENIUS_GENOBJ-NBEHI-BHB_13
 70
     0
  0
APPID
  5
2379
330
9
100
AcDbSymbolTableRecord
100
AcDbRegAppTableRecord
  2
GENIUS_GENOBJ-F-SCPASSM_13
 70
     0
  0
APPID
  5
3D74
330
9
100
AcDbSymbolTableRecord
100
AcDbRegAppTableRecord
  2
GENIUS_GENDIM_13
 70
     0
  0
APPID
  5
3D76
330
9
100
AcDbSymbolTableRecord
100
AcDbRegAppTableRecord
  2
GENIUS_GE3DTOL_13
 70
     0
  0
APPID
  5
3D9C
330
9
100
AcDbSymbolTableRecord
100
AcDbRegAppTableRecord
  2
AD_DRAW
 70
     0
  0
APPID
  5
3DE8
330
9
100
AcDbSymbolTableRecord
100
AcDbRegAppTableRecord
  2
ASURF_PCURVE_APPNAME
 70
     0
  0
APPID
  5
3DED
330
9
100
AcDbSymbolTableRecord
100
AcDbRegAppTableRecord
  2
AMG_3D2D_5.0
 70
     0
  0
APPID
  5
3E1B
330
9
100
AcDbSymbolTableRecord
100
AcDbRegAppTableRecord
  2
DESIGNERASSEMBLIES
 70
     0
  0
APPID
  5
3E20
330
9
100
AcDbSymbolTableRecord
100
AcDbRegAppTableRecord
  2
ACADM_DIM_EDIT
 70
     0
  0
APPID
  5
3E21
330
9
100
AcDbSymbolTableRecord
100
AcDbRegAppTableRecord
  2
AMDT_DM_ADJ
 70
     0
  0
APPID
  5
4143
330
9
100
AcDbSymbolTableRecord
100
AcDbRegAppTableRecord
  2
GENIUS_GENFIL_13
 70
     0
  0
APPID
  5
4144
330
9
100
AcDbSymbolTableRecord
100
AcDbRegAppTableRecord
  2
GENIUS_GENOBJ-N-CHA_13
 70
     0
  0
APPID
  5
4E17
330
9
100
AcDbSymbolTableRecord
100
AcDbRegAppTableRecord
  2
GEVID1008153417
 70
     0
  0
APPID
  5
4E58
330
9
100
AcDbSymbolTableRecord
100
AcDbRegAppTableRecord
  2
GEVID1008153418
 70
     0
  0
APPID
  5
4E5E
330
9
100
AcDbSymbolTableRecord
100
AcDbRegAppTableRecord
  2
GEVID1008153419
 70
     0
  0
APPID
  5
4E64
330
9
100
AcDbSymbolTableRecord
100
AcDbRegAppTableRecord
  2
GEVID1008153420
 70
     0
  0
APPID
  5
4E75
330
9
100
AcDbSymbolTableRecord
100
AcDbRegAppTableRecord
  2
GEVID1008153421
 70
     0
  0
APPID
  5
4EB7
330
9
100
AcDbSymbolTableRecord
100
AcDbRegAppTableRecord
  2
GENIUS_AMGTXT_16
 70
     0
  0
APPID
  5
7645
330
9
100
AcDbSymbolTableRecord
100
AcDbRegAppTableRecord
  2
GENIUS_GENOBJ-N-DIM_13
 70
     0
  0
APPID
  5
C5F0
330
9
100
AcDbSymbolTableRecord
100
AcDbRegAppTableRecord
  2
GENIUS_GENCEN_19
 70
     0
  0
APPID
  5
C5FB
330
9
100
AcDbSymbolTableRecord
100
AcDbRegAppTableRecord
  2
ACAD_DSTYLE_DIMJOGGED_JOGANGLE_SYMBOL
 70
     0
  0
APPID
  5
C5FC
330
9
100
AcDbSymbolTableRecord
100
AcDbRegAppTableRecord
  2
ACAD_PSEXT
 70
     0
  0
APPID
  5
CA37
330
9
100
AcDbSymbolTableRecord
100
AcDbRegAppTableRecord
  2
AcAecLayerStandard
 70
     0
  0
APPID
  5
DCF9
330
9
100
AcDbSymbolTableRecord
100
AcDbRegAppTableRecord
  2
ACAD_EXEMPT_FROM_CAD_STANDARDS
 70
     0
  0
APPID
  5
2A0EB
330
9
100
AcDbSymbolTableRecord
100
AcDbRegAppTableRecord
  2
GEVID1271841997
 70
     0
  0
APPID
  5
2A23A
330
9
100
AcDbSymbolTableRecord
100
AcDbRegAppTableRecord
  2
GEVID1271841998
 70
     0
  0
APPID
  5
2B34C
330
9
100
AcDbSymbolTableRecord
100
AcDbRegAppTableRecord
  2
GEVID1271896698
 70
     0
  0
APPID
  5
2B499
330
9
100
AcDbSymbolTableRecord
100
AcDbRegAppTableRecord
  2
GEVID1271896699
 70
     0
  0
APPID
  5
2B543
330
9
100
AcDbSymbolTableRecord
100
AcDbRegAppTableRecord
  2
GEVID1271896700
 70
     0
  0
APPID
  5
40168
330
9
100
AcDbSymbolTableRecord
100
AcDbRegAppTableRecord
  2
GEVID1273127365
 70
     0
  0
APPID
  5
40271
330
9
100
AcDbSymbolTableRecord
100
AcDbRegAppTableRecord
  2
GEVID1273127366
 70
     0
  0
APPID
  5
498AC
330
9
100
AcDbSymbolTableRecord
100
AcDbRegAppTableRecord
  2
GENIUS_GEFINERT_13
 70
     0
  0
APPID
  5
498DF
330
9
100
AcDbSymbolTableRecord
100
AcDbRegAppTableRecord
  2
GENIUS_GENOBJ-F-INER_13
 70
     0
  0
ENDTAB
  0
TABLE
  2
DIMSTYLE
  5
A
330
0
100
AcDbSymbolTable
 70
    25
100
AcDbDimStyleTable
 71
     5
340
6C
340
2515
340
251A
340
251B
340
FA9
  0
DIMSTYLE
105
6C
330
A
100
AcDbSymbolTableRecord
100
AcDbDimStyleTableRecord
  2
AM_ISO
 70
     0
  4
"
 41
2.5
 42
1.0
 43
10.0
 44
1.0
 47
0.1
 48
0.1
 73
     0
 74
     0
 77
     1
 78
     8
 79
     2
140
3.5
141
0.0
143
0.0393701
146
0.71
147
1.5
172
     1
176
   256
177
   256
178
     2
271
     2
272
     3
274
     4
283
     0
284
     8
340
11
371
    -1
372
    -1
  0
DIMSTYLE
105
6D
102
{ACAD_REACTORS
330
4B94B
330
4B8C0
102
}
330
A
100
AcDbSymbolTableRecord
100
AcDbDimStyleTableRecord
  2
AM_ISO$3
 70
     0
  4
"
 41
0.8
 42
1.0
 43
10.0
 44
1.0
 47
0.1
 48
0.1
 73
     0
 77
     1
 78
     8
 79
     2
140
3.2
141
0.0
143
0.0393701
146
0.71
147
0.9999999999999996
176
   256
177
   256
178
     2
271
     2
272
     2
283
     0
284
     8
288
     1
289
     0
340
11
342
6C4
371
    -1
372
    -1
  0
DIMSTYLE
105
6E
330
A
100
AcDbSymbolTableRecord
100
AcDbDimStyleTableRecord
  2
AM_ISO$4
 70
     0
  4
"
 41
0.8
 42
1.0
 43
10.0
 44
1.0
 47
0.1
 48
0.1
 73
     0
 77
     1
 78
     8
 79
     2
140
3.2
141
0.0
143
0.0393701
146
0.71
147
1.0
173
     1
176
   256
177
   256
178
     2
271
     2
272
     2
283
     0
284
     8
288
     1
289
     0
340
11
344
6C4
371
    -1
372
    -1
  0
DIMSTYLE
105
6F
330
A
100
AcDbSymbolTableRecord
100
AcDbDimStyleTableRecord
  2
AM_ISO$6
 70
     0
  4
"
 41
0.8
 42
1.0
 43
10.0
 44
1.0
 47
0.1
 48
0.1
 73
     0
 74
     0
 78
     8
 79
     2
140
3.2
141
0.0
143
0.0393701
146
0.71
147
1.0
172
     1
176
   256
177
   256
178
     2
271
     2
272
     2
283
     0
284
     8
340
11
341
6C4
371
    -1
372
    -1
  0
DIMSTYLE
105
70
330
A
100
AcDbSymbolTableRecord
100
AcDbDimStyleTableRecord
  2
AM_ISO$7
 70
     0
  4
"
 41
0.8
 42
1.0
 43
10.0
 44
1.0
 47
0.1
 48
0.1
 73
     0
 74
     0
 77
     1
 78
     8
 79
     2
140
3.2
141
0.0
143
0.0393701
146
0.71
147
1.0
172
     1
176
   256
177
   256
178
     2
271
     2
272
     2
283
     0
284
     8
340
11
341
6C4
342
6C4
371
    -1
372
    -1
  0
DIMSTYLE
105
71
330
A
100
AcDbSymbolTableRecord
100
AcDbDimStyleTableRecord
  2
AM_ISO$SF
 70
     0
  4
"
 41
0.8
 42
1.0
 43
10.0
 44
1.0
 47
0.1
 48
0.1
 73
     0
 74
     0
 75
     1
 76
     1
 77
     1
 78
     8
 79
     2
140
3.2
141
0.0
143
0.0393701
146
0.71
147
1.0
172
     1
176
   256
177
   256
178
     2
271
     2
272
     2
283
     0
284
     8
340
11
341
6C4
342
6C4
371
    -1
372
    -1
  0
DIMSTYLE
105
76
330
A
100
AcDbSymbolTableRecord
100
AcDbDimStyleTableRecord
  2
AM_ISO$SH
 70
     0
  4
"
 41
0.8
 42
1.0
 43
10.0
 44
1.0
 47
0.1
 48
0.1
 73
     0
 74
     0
 75
     1
 76
     1
 77
     1
 78
     8
 79
     2
140
3.2
141
0.0
143
0.0393701
144
2.0
146
0.71
147
1.0
172
     1
176
   256
177
   256
178
     2
271
     2
272
     2
283
     0
284
     8
340
11
341
6C4
342
6C4
371
    -1
372
    -1
  0
DIMSTYLE
105
6BE
102
{ACAD_REACTORS
330
4B93B
330
4B93C
330
4B93D
330
4B93E
330
4B93F
330
4B940
330
4B941
330
4B944
330
4B945
330
4B946
330
4B947
330
4B948
330
4B949
330
4B94A
330
4B8A5
330
4B8A8
330
4B8AB
330
4B8AE
330
4B8B1
330
4B8B4
330
4B8B7
330
4B8BA
330
4B8BD
330
4B8E4
330
4B8E5
330
4B8E6
330
4B8E7
330
4B8E8
330
4B8E9
102
}
330
A
100
AcDbSymbolTableRecord
100
AcDbDimStyleTableRecord
  2
AM_ISO$0
 70
     0
  4
"
 41
0.8
 42
1.0
 43
10.0
 44
1.0
 47
0.1
 48
0.1
 73
     0
 74
     0
 77
     1
 78
     8
 79
     2
140
3.2
141
0.0
143
0.0393701
146
0.71
147
0.9999999999999996
172
     1
176
   256
177
   256
178
     2
271
     2
272
     2
283
     0
284
     8
340
11
341
6C4
342
6C4
371
    -1
372
    -1
  0
DIMSTYLE
105
6BF
330
A
100
AcDbSymbolTableRecord
100
AcDbDimStyleTableRecord
  2
AM_ISO$2
 70
     0
  4
"
 41
0.8
 42
1.0
 43
10.0
 44
1.0
 47
0.1
 48
0.1
 73
     0
 74
     0
 77
     3
 78
     8
 79
     2
140
3.200000000000001
141
0.0
143
0.0393701
146
0.71
147
0.9999999999999996
172
     1
176
   256
177
   256
178
     2
271
     2
272
     2
283
     0
284
     8
340
11
342
6C4
371
    -1
372
    -1
  0
DIMSTYLE
105
A76
330
A
100
AcDbSymbolTableRecord
100
AcDbDimStyleTableRecord
  2
STANDARD
 70
     0
 41
3.0
 42
1.0
 43
7.0
 44
2.0
 73
     0
 74
     0
 77
     1
140
2.799999999999999
141
0.0
143
0.0394
147
0.7
171
     4
172
     1
173
     1
176
     3
177
     3
178
     2
271
     3
272
     3
273
     8
274
     4
289
     0
340
A74
341
A66
343
A66
344
A66
  0
DIMSTYLE
105
FA9
330
A
100
AcDbSymbolTableRecord
100
AcDbDimStyleTableRecord
  2
AM_ANSI
 70
     0
  4
mm
 41
0.1
 42
0.05
 43
0.5
 44
0.1
 47
0.1
 48
0.1
 78
     7
 79
     2
140
0.12
141
0.0
146
0.71
147
0.06
176
   256
177
   256
178
     2
274
     4
284
     7
340
11
371
    -1
372
    -1
  0
DIMSTYLE
105
FAA
330
A
100
AcDbSymbolTableRecord
100
AcDbDimStyleTableRecord
  2
AM_ANSI$3
 70
     0
  4
mm
 41
0.1
 42
0.05
 43
0.5
 44
0.1
 47
0.1
 48
0.1
 78
     7
 79
     2
140
0.12
141
0.0
146
0.71
147
0.06
176
   256
177
   256
178
     2
274
     4
284
     7
288
     1
289
     0
340
11
371
    -1
372
    -1
  0
DIMSTYLE
105
FAB
330
A
100
AcDbSymbolTableRecord
100
AcDbDimStyleTableRecord
  2
AM_ANSI$4
 70
     0
  4
mm
 41
0.1
 42
0.05
 43
0.5
 44
0.1
 47
0.1
 48
0.1
 78
     7
 79
     2
140
0.12
141
0.0
146
0.71
147
0.06
176
   256
177
   256
178
     2
274
     4
284
     7
288
     1
289
     0
340
11
371
    -1
372
    -1
  0
DIMSTYLE
105
FAC
330
A
100
AcDbSymbolTableRecord
100
AcDbDimStyleTableRecord
  2
AM_ANSI$7
 70
     0
  4
mm
 41
0.1
 42
0.05
 43
0.5
 44
0.1
 47
0.1
 48
0.1
 78
     7
 79
     2
140
0.24
141
0.0
146
0.71
147
0.06
176
   256
177
   256
178
     2
274
     4
284
     7
340
11
371
    -1
372
    -1
  0
DIMSTYLE
105
FAD
330
A
100
AcDbSymbolTableRecord
100
AcDbDimStyleTableRecord
  2
AM_ANSI$SF
 70
     0
  4
mm
 41
0.1
 42
0.05
 43
0.5
 44
0.1
 47
0.1
 48
0.1
 75
     1
 76
     1
 78
     7
 79
     2
140
0.12
141
0.0
146
0.71
147
0.06
176
   256
177
   256
178
     2
274
     4
284
     7
340
11
371
    -1
372
    -1
  0
DIMSTYLE
105
FAE
330
A
100
AcDbSymbolTableRecord
100
AcDbDimStyleTableRecord
  2
AM_ANSI$SH
 70
     0
  4
mm
 41
0.1
 42
0.05
 43
0.5
 44
0.1
 47
0.1
 48
0.1
 75
     1
 76
     1
 78
     7
 79
     2
140
0.12
141
0.0
146
0.71
147
0.06
173
     1
176
   256
177
   256
178
     2
274
     4
284
     7
340
11
343
72
371
    -1
372
    -1
  0
DIMSTYLE
105
2515
330
A
100
AcDbSymbolTableRecord
100
AcDbDimStyleTableRecord
  2
SYS
 70
     0
  4
"
 41
2.5
 42
1.0
 43
10.0
 44
1.0
 47
0.1
 48
0.1
 73
     0
 74
     0
 77
     1
 78
     8
 79
     2
140
3.5
141
0.0
143
0.0393701
146
0.71
147
1.5
172
     1
176
   256
177
   256
178
     7
271
     2
272
     3
274
     4
283
     0
284
     8
340
11
371
    -1
372
    -1
  0
DIMSTYLE
105
2516
330
A
100
AcDbSymbolTableRecord
100
AcDbDimStyleTableRecord
  2
SYS$3
 70
     0
  4
"
 41
2.0
 42
1.0
 43
10.0
 44
1.0
 47
0.1
 48
0.1
 73
     0
 77
     1
 78
     8
 79
     2
140
3.200000000000001
141
0.0
143
0.0393701
146
0.71
147
0.9999999999999996
176
   256
177
   256
178
     2
271
     1
272
     1
283
     0
284
     8
288
     1
340
11
342
A66
371
    -1
372
    -1
  0
DIMSTYLE
105
2517
330
A
100
AcDbSymbolTableRecord
100
AcDbDimStyleTableRecord
  2
SYS$4
 70
     0
  4
"
 41
2.0
 42
1.0
 43
10.0
 44
1.0
 47
0.1
 48
0.1
 73
     0
 77
     1
 78
     8
 79
     2
140
3.2
141
0.0
143
0.0393701
146
0.71
147
0.9999999999999996
173
     1
176
   256
177
   256
178
     2
271
     2
272
     2
283
     0
284
     8
288
     1
340
11
344
A66
371
    -1
372
    -1
  0
DIMSTYLE
105
2518
330
A
100
AcDbSymbolTableRecord
100
AcDbDimStyleTableRecord
  2
SYS$6
 70
     0
  4
"
 41
2.0
 42
1.5
 43
10.0
 44
1.0
 47
0.1
 48
0.1
 73
     0
 74
     0
 78
     8
 79
     2
140
3.2
141
0.0
143
0.0393701
146
0.71
147
0.9999999999999996
172
     1
176
   256
177
   256
178
     2
271
     2
272
     2
283
     0
284
     8
340
11
341
A66
371
    -1
372
    -1
  0
DIMSTYLE
105
2519
330
A
100
AcDbSymbolTableRecord
100
AcDbDimStyleTableRecord
  2
SYS$7
 70
     0
  4
"
 41
2.0
 42
1.5
 43
10.0
 44
1.0
 47
0.1
 48
0.1
 73
     0
 74
     0
 77
     1
 78
     8
 79
     2
140
3.2
141
0.0
143
0.0393701
146
0.71
147
0.9999999999999996
172
     1
176
   256
177
   256
178
     2
271
     2
272
     2
283
     0
284
     8
340
11
341
A66
342
A66
371
    -1
372
    -1
  0
DIMSTYLE
105
251A
330
A
100
AcDbSymbolTableRecord
100
AcDbDimStyleTableRecord
  2
SYS$SF
 70
     0
  4
"
 41
1.0
 42
1.0
 43
10.0
 44
1.0
 47
0.1
 48
0.1
 73
     0
 74
     0
 75
     1
 76
     1
 77
     1
 78
     8
 79
     2
140
3.2
141
0.0
143
0.0393701
146
0.71
147
0.9999999999999996
172
     1
176
   256
177
   256
178
     2
271
     2
272
     2
283
     0
284
     8
340
11
341
6C4
342
6C4
371
    -1
372
    -1
  0
DIMSTYLE
105
251B
330
A
100
AcDbSymbolTableRecord
100
AcDbDimStyleTableRecord
  2
SYS$SH
 70
     0
  4
"
 41
1.0
 42
1.0
 43
10.0
 44
1.0
 47
0.1
 48
0.1
 73
     0
 74
     0
 75
     1
 76
     1
 77
     1
 78
     8
 79
     2
140
3.2
141
0.0
143
0.0393701
144
2.0
146
0.71
147
0.9999999999999996
172
     1
173
     1
176
   256
177
   256
178
     2
271
     2
272
     2
283
     0
284
     8
340
11
341
6C4
343
72
344
6C4
371
    -1
372
    -1
  0
DIMSTYLE
105
2A59
330
A
100
AcDbSymbolTableRecord
100
AcDbDimStyleTableRecord
  2
SYS$2
 70
     0
  4
"
 41
1.0
 42
1.5
 43
10.0
 44
1.0
 47
0.1
 48
0.1
 73
     0
 74
     0
 77
     1
 78
     8
 79
     2
140
3.2
141
0.0
143
0.0393701
146
0.71
147
0.9999999999999996
172
     1
176
   256
177
   256
178
     2
271
     2
272
     2
283
     0
284
     8
340
11
342
6C4
371
    -1
372
    -1
  0
DIMSTYLE
105
2AAB
330
A
100
AcDbSymbolTableRecord
100
AcDbDimStyleTableRecord
  2
SYS$0
 70
     0
  4
"
 41
1.0
 42
1.499999999999999
 43
10.0
 44
1.0
 47
0.1
 48
0.1
 73
     0
 74
     0
 77
     1
 78
     8
 79
     2
140
3.2
141
0.0
143
0.0393701
146
0.71
147
0.9999999999999996
172
     1
176
   256
177
   256
178
     2
271
     1
272
     1
283
     0
284
     8
340
11
341
A66
342
6C4
371
    -1
372
    -1
  0
ENDTAB
  0
TABLE
  2
BLOCK_RECORD
  5
1
330
0
100
AcDbSymbolTable
 70
    91
  0
BLOCK_RECORD
  5
1F
102
{ACAD_XDICTIONARY
360
8A
102
}
330
1
100
AcDbSymbolTableRecord
100
AcDbBlockTableRecord
  2
*Model_Space
340
22
  0
BLOCK_RECORD
  5
1B
330
1
100
AcDbSymbolTableRecord
100
AcDbBlockTableRecord
  2
*Paper_Space
340
1E
  0
BLOCK_RECORD
  5
23
330
1
100
AcDbSymbolTableRecord
100
AcDbBlockTableRecord
  2
*Paper_Space0
340
26
  0
BLOCK_RECORD
  5
72
330
1
100
AcDbSymbolTableRecord
100
AcDbBlockTableRecord
  2
GENAXEH
340
0
  0
BLOCK_RECORD
  5
6C4
330
1
100
AcDbSymbolTableRecord
100
AcDbBlockTableRecord
  2
_Dot
340
0
102
{BLKREFS
331
4B1C1
331
4B1C2
331
4B1CD
331
4B1CE
331
4B1D9
331
4B1DA
331
4B1E5
331
4B1E6
331
4B1F1
331
4B1F2
331
4B1FD
331
4B1FE
331
4B20A
331
4B20B
331
4B218
331
4B219
331
4B226
331
4B227
331
4B23D
331
4B23E
331
4B246
331
4B247
331
4B24F
331
4B250
331
4B259
331
4B25A
331
4B264
331
4B265
331
4B26F
331
4B270
331
4B279
331
4B27A
331
4B285
331
4B286
331
4B291
331
4B292
331
4B29D
331
4B29E
331
4B2A9
331
4B2AA
331
4B2B5
331
4B2B6
331
4B2C2
331
4B2C3
331
4B2D0
331
4B2D1
331
4B2DE
331
4B2DF
331
4B2F5
331
4B2F6
331
4B2FE
331
4B2FF
331
4B307
331
4B308
331
4B311
331
4B312
331
4B31C
331
4B31D
331
4B327
331
4B328
331
4B331
331
4B332
331
4B572
331
4B573
331
4B60A
331
4B60B
331
4B613
331
4B614
331
4B62F
331
4B630
331
4B642
331
4B643
331
4B737
331
4B738
331
4B740
331
4B741
331
4B794
331
4B795
331
4B79E
331
4B79F
331
4B7A9
331
4B7AA
331
4B7B3
331
4B7B4
331
4B7BE
331
4B7BF
331
4B7C8
331
4B7C9
331
4B7D3
331
4B7D4
331
4B7DE
331
4B7DF
331
4B803
331
4B804
331
4B864
331
4B865
331
4BDBA
331
4BDBB
331
4BDC3
331
4BDC4
331
4BDCC
331
4BDCD
331
4BDD5
331
4BDD6
331
4BDDE
331
4BDDF
331
4BDE7
331
4BDE8
331
4BDF1
331
4BDF2
331
4BDFC
331
4BDFD
331
4BE07
331
4BE08
331
4BE11
331
4BE12
331
4BE19
331
4BE1A
331
4BE22
331
4BE23
331
4BE2B
331
4BE2C
331
4BE35
331
4BE36
331
4BE40
331
4BE41
331
4BE4B
331
4BE4C
331
4BE54
331
4BE55
331
4BE5D
331
4BE5E
331
4BE66
331
4BE67
331
4BE6F
331
4BE70
331
4BE7A
331
4BE7B
331
4BE84
331
4BE85
331
4BE8F
331
4BE90
331
4BE99
331
4BE9A
331
4BEA4
331
4BEA5
331
4BEAF
331
4BEB0
331
4BEB8
331
4BEB9
331
4BEC1
331
4BEC2
331
4BECB
331
4BECC
331
4BED5
331
4BED6
331
4BEE9
331
4BEEA
102
}
  0
BLOCK_RECORD
  5
A66
330
1
100
AcDbSymbolTableRecord
100
AcDbBlockTableRecord
  2
_OPEN30
340
0
  0
BLOCK_RECORD
  5
4B94E
330
1
100
AcDbSymbolTableRecord
100
AcDbBlockTableRecord
  2
*D60
340
0
  0
BLOCK_RECORD
  5
4B95A
330
1
100
AcDbSymbolTableRecord
100
AcDbBlockTableRecord
  2
*D61
340
0
  0
BLOCK_RECORD
  5
4B966
330
1
100
AcDbSymbolTableRecord
100
AcDbBlockTableRecord
  2
*D62
340
0
  0
BLOCK_RECORD
  5
4B972
330
1
100
AcDbSymbolTableRecord
100
AcDbBlockTableRecord
  2
*D63
340
0
  0
BLOCK_RECORD
  5
4B97E
330
1
100
AcDbSymbolTableRecord
100
AcDbBlockTableRecord
  2
*D64
340
0
  0
BLOCK_RECORD
  5
4B98C
330
1
100
AcDbSymbolTableRecord
100
AcDbBlockTableRecord
  2
*D65
340
0
  0
BLOCK_RECORD
  5
4B999
330
1
100
AcDbSymbolTableRecord
100
AcDbBlockTableRecord
  2
*D66
340
0
  0
BLOCK_RECORD
  5
4B9A7
330
1
100
AcDbSymbolTableRecord
100
AcDbBlockTableRecord
  2
*D67
340
0
  0
BLOCK_RECORD
  5
4B9B4
330
1
100
AcDbSymbolTableRecord
100
AcDbBlockTableRecord
  2
*D68
340
0
  0
BLOCK_RECORD
  5
4B9C2
330
1
100
AcDbSymbolTableRecord
100
AcDbBlockTableRecord
  2
*D69
340
0
  0
BLOCK_RECORD
  5
4B9D0
330
1
100
AcDbSymbolTableRecord
100
AcDbBlockTableRecord
  2
*D70
340
0
  0
BLOCK_RECORD
  5
4B9DC
330
1
100
AcDbSymbolTableRecord
100
AcDbBlockTableRecord
  2
*D71
340
0
  0
BLOCK_RECORD
  5
4B9E8
330
1
100
AcDbSymbolTableRecord
100
AcDbBlockTableRecord
  2
*D72
340
0
  0
BLOCK_RECORD
  5
4B9F5
330
1
100
AcDbSymbolTableRecord
100
AcDbBlockTableRecord
  2
*D73
340
0
  0
BLOCK_RECORD
  5
4BA02
330
1
100
AcDbSymbolTableRecord
100
AcDbBlockTableRecord
  2
*D74
340
0
  0
BLOCK_RECORD
  5
4BA0E
330
1
100
AcDbSymbolTableRecord
100
AcDbBlockTableRecord
  2
*D75
340
0
  0
BLOCK_RECORD
  5
4BA1A
330
1
100
AcDbSymbolTableRecord
100
AcDbBlockTableRecord
  2
*D76
340
0
  0
BLOCK_RECORD
  5
4BA26
330
1
100
AcDbSymbolTableRecord
100
AcDbBlockTableRecord
  2
*D77
340
0
  0
BLOCK_RECORD
  5
4BA32
330
1
100
AcDbSymbolTableRecord
100
AcDbBlockTableRecord
  2
*D78
340
0
  0
BLOCK_RECORD
  5
4BA3F
330
1
100
AcDbSymbolTableRecord
100
AcDbBlockTableRecord
  2
*D79
340
0
  0
BLOCK_RECORD
  5
4BA4D
330
1
100
AcDbSymbolTableRecord
100
AcDbBlockTableRecord
  2
*D80
340
0
  0
BLOCK_RECORD
  5
4BAE5
330
1
100
AcDbSymbolTableRecord
100
AcDbBlockTableRecord
  2
*D81
340
0
  0
BLOCK_RECORD
  5
4BAF1
330
1
100
AcDbSymbolTableRecord
100
AcDbBlockTableRecord
  2
*D82
340
0
  0
BLOCK_RECORD
  5
4BAFD
330
1
100
AcDbSymbolTableRecord
100
AcDbBlockTableRecord
  2
*D83
340
0
  0
BLOCK_RECORD
  5
4BB09
330
1
100
AcDbSymbolTableRecord
100
AcDbBlockTableRecord
  2
*D84
340
0
  0
BLOCK_RECORD
  5
4BB15
330
1
100
AcDbSymbolTableRecord
100
AcDbBlockTableRecord
  2
*D85
340
0
  0
BLOCK_RECORD
  5
4BB21
330
1
100
AcDbSymbolTableRecord
100
AcDbBlockTableRecord
  2
*D86
340
0
  0
BLOCK_RECORD
  5
4BB2D
330
1
100
AcDbSymbolTableRecord
100
AcDbBlockTableRecord
  2
*D87
340
0
  0
BLOCK_RECORD
  5
4BB39
330
1
100
AcDbSymbolTableRecord
100
AcDbBlockTableRecord
  2
*D88
340
0
  0
BLOCK_RECORD
  5
4BB46
330
1
100
AcDbSymbolTableRecord
100
AcDbBlockTableRecord
  2
*D89
340
0
  0
BLOCK_RECORD
  5
4BB54
330
1
100
AcDbSymbolTableRecord
100
AcDbBlockTableRecord
  2
*D90
340
0
  0
ENDTAB
  0
ENDSEC
  0
SECTION
  2
BLOCKS
  0
BLOCK
  5
20
330
1F
100
AcDbEntity
  8
0
100
AcDbBlockBegin
  2
*Model_Space
 70
     0
 10
0.0
 20
0.0
 30
0.0
  3
*Model_Space
  1

  0
ENDBLK
  5
21
330
1F
100
AcDbEntity
  8
0
100
AcDbBlockEnd
  0
BLOCK
  5
1C
330
1B
100
AcDbEntity
 67
     1
  8
0
100
AcDbBlockBegin
  2
*Paper_Space
 70
     0
 10
0.0
 20
0.0
 30
0.0
  3
*Paper_Space
  1

  0
ENDBLK
  5
1D
330
1B
100
AcDbEntity
 67
     1
  8
0
100
AcDbBlockEnd
  0
BLOCK
  5
24
330
23
100
AcDbEntity
 67
     1
  8
0
100
AcDbBlockBegin
  2
*Paper_Space0
 70
     0
 10
0.0
 20
0.0
 30
0.0
  3
*Paper_Space0
  1

  0
ENDBLK
  5
25
330
23
100
AcDbEntity
 67
     1
  8
0
100
AcDbBlockEnd
  0
BLOCK
  5
74
330
72
100
AcDbEntity
  8
0
100
AcDbBlockBegin
  2
GENAXEH
 70
     0
 10
0.0
 20
0.0
 30
0.0
  3
GENAXEH
  1

  0
LINE
  5
73
330
72
100
AcDbEntity
  8
0
100
AcDbLine
 10
-1.0
 20
0.0
 30
0.0
 11
1.0
 21
0.0
 31
0.0
  0
ENDBLK
  5
75
330
72
100
AcDbEntity
  8
0
100
AcDbBlockEnd
  0
BLOCK
  5
6C7
330
6C4
100
AcDbEntity
  8
0
100
AcDbBlockBegin
  2
_Dot
 70
     0
 10
0.0
 20
0.0
 30
0.0
  3
_Dot
  1

  0
LWPOLYLINE
  5
6C5
330
6C4
100
AcDbEntity
  8
0
  6
ByBlock
 62
     0
100
AcDbPolyline
 90
        2
 70
     1
 43
0.5
 10
-0.25
 20
0.0
 42
1.0
 10
0.25
 20
0.0
 42
1.0
  0
LINE
  5
6C6
330
6C4
100
AcDbEntity
  8
0
  6
ByBlock
 62
     0
370
    -2
100
AcDbLine
 10
-0.5
 20
0.0
 30
0.0
 11
-1.0
 21
0.0
 31
0.0
  0
ENDBLK
  5
6C8
330
6C4
100
AcDbEntity
  8
0
100
AcDbBlockEnd
  0
BLOCK
  5
A6A
330
A66
100
AcDbEntity
  8
0
100
AcDbBlockBegin
  2
_OPEN30
 70
     0
 10
0.0
 20
0.0
 30
0.0
  3
_OPEN30
  1

  0
LINE
  5
A67
330
A66
100
AcDbEntity
  8
0
  6
ByBlock
 62
     0
100
AcDbLine
 10
-1.0
 20
0.26794919
 30
0.0
 11
0.0
 21
0.0
 31
0.0
  0
LINE
  5
A68
330
A66
100
AcDbEntity
  8
0
  6
ByBlock
 62
     0
100
AcDbLine
 10
0.0
 20
0.0
 30
0.0
 11
-1.0
 21
-0.26794919
 31
0.0
  0
LINE
  5
A69
330
A66
100
AcDbEntity
  8
0
  6
ByBlock
 62
     0
100
AcDbLine
 10
0.0
 20
0.0
 30
0.0
 11
-1.0
 21
0.0
 31
0.0
  0
ENDBLK
  5
A6B
330
A66
100
AcDbEntity
  8
0
100
AcDbBlockEnd
  0
BLOCK
  5
4B958
330
4B94E
100
AcDbEntity
  8
0
100
AcDbBlockBegin
  2
*D60
 70
     1
 10
0.0
 20
0.0
 30
0.0
  3
*D60
  1

  0
LINE
  5
4BE51
330
4B94E
100
AcDbEntity
  8
AM_5
100
AcDbLine
 10
3543.446787915069
 20
-2794.833258774066
 30
0.0
 11
3543.446787915069
 21
-2778.583258774066
 31
0.0
  0
LINE
  5
4BE52
330
4B94E
100
AcDbEntity
  8
AM_5
100
AcDbLine
 10
3575.446787915069
 20
-2794.833258774066
 30
0.0
 11
3575.446787915069
 21
-2778.583258774066
 31
0.0
  0
LINE
  5
4BE53
330
4B94E
100
AcDbEntity
  8
AM_5
100
AcDbLine
 10
3544.446787915069
 20
-2779.583258774066
 30
0.0
 11
3574.446787915069
 21
-2779.583258774066
 31
0.0
  0
INSERT
  5
4BE54
330
4B94E
100
AcDbEntity
  8
AM_5
100
AcDbBlockReference
  2
_Dot
 10
3543.446787915069
 20
-2779.583258774066
 30
0.0
 50
180.0
  0
INSERT
  5
4BE55
330
4B94E
100
AcDbEntity
  8
AM_5
100
AcDbBlockReference
  2
_Dot
 10
3575.446787915069
 20
-2779.583258774066
 30
0.0
  0
MTEXT
  5
4BE56
330
4B94E
100
AcDbEntity
  8
AM_5
 62
     2
100
AcDbMText
 10
3559.446787915069
 20
-2776.983258774067
 30
0.0
 40
3.2
 41
0.0
 71
     5
 72
     1
  1
32
 73
     1
 44
1.0
1001
ACAD
1000
MTEXTBEGIN
1070
    73
1070
     1
1070
    44
1040
1.0
1070
    74
1070
     0
1000
MTEXTEND
  0
POINT
  5
4BE57
330
4B94E
100
AcDbEntity
  8
Defpoints
 62
     0
100
AcDbPoint
 10
3543.446787915069
 20
-2795.833258774066
 30
0.0
  0
POINT
  5
4BE58
330
4B94E
100
AcDbEntity
  8
Defpoints
 62
     0
100
AcDbPoint
 10
3575.446787915069
 20
-2795.833258774066
 30
0.0
  0
POINT
  5
4BE59
330
4B94E
100
AcDbEntity
  8
Defpoints
 62
     0
100
AcDbPoint
 10
3575.446787915069
 20
-2779.583258774066
 30
0.0
  0
ENDBLK
  5
4B959
330
4B94E
100
AcDbEntity
  8
0
100
AcDbBlockEnd
  0
BLOCK
  5
4B964
330
4B95A
100
AcDbEntity
  8
0
100
AcDbBlockBegin
  2
*D61
 70
     1
 10
0.0
 20
0.0
 30
0.0
  3
*D61
  1

  0
LINE
  5
4BE5A
330
4B95A
100
AcDbEntity
  8
AM_5
100
AcDbLine
 10
3549.446787915069
 20
-2797.483258774066
 30
0.0
 11
3549.446787915069
 21
-2786.583258774066
 31
0.0
  0
LINE
  5
4BE5B
330
4B95A
100
AcDbEntity
  8
AM_5
100
AcDbLine
 10
3569.446787915069
 20
-2797.483258774066
 30
0.0
 11
3569.446787915069
 21
-2786.583258774066
 31
0.0
  0
LINE
  5
4BE5C
330
4B95A
100
AcDbEntity
  8
AM_5
100
AcDbLine
 10
3550.446787915069
 20
-2787.583258774066
 30
0.0
 11
3568.446787915069
 21
-2787.583258774066
 31
0.0
  0
INSERT
  5
4BE5D
330
4B95A
100
AcDbEntity
  8
AM_5
100
AcDbBlockReference
  2
_Dot
 10
3549.446787915069
 20
-2787.583258774066
 30
0.0
 50
180.0
  0
INSERT
  5
4BE5E
330
4B95A
100
AcDbEntity
  8
AM_5
100
AcDbBlockReference
  2
_Dot
 10
3569.446787915069
 20
-2787.583258774066
 30
0.0
  0
MTEXT
  5
4BE5F
330
4B95A
100
AcDbEntity
  8
AM_5
 62
     2
100
AcDbMText
 10
3559.446787915069
 20
-2784.983258774066
 30
0.0
 40
3.2
 41
0.0
 71
     5
 72
     1
  1
20
 73
     1
 44
1.0
1001
ACAD
1000
MTEXTBEGIN
1070
    73
1070
     1
1070
    44
1040
1.0
1070
    74
1070
     0
1000
MTEXTEND
  0
POINT
  5
4BE60
330
4B95A
100
AcDbEntity
  8
Defpoints
 62
     0
100
AcDbPoint
 10
3549.446787915069
 20
-2798.483258774066
 30
0.0
  0
POINT
  5
4BE61
330
4B95A
100
AcDbEntity
  8
Defpoints
 62
     0
100
AcDbPoint
 10
3569.446787915069
 20
-2798.483258774066
 30
0.0
  0
POINT
  5
4BE62
330
4B95A
100
AcDbEntity
  8
Defpoints
 62
     0
100
AcDbPoint
 10
3569.446787915069
 20
-2787.583258774066
 30
0.0
  0
ENDBLK
  5
4B965
330
4B95A
100
AcDbEntity
  8
0
100
AcDbBlockEnd
  0
BLOCK
  5
4B970
330
4B966
100
AcDbEntity
  8
0
100
AcDbBlockBegin
  2
*D62
 70
     1
 10
0.0
 20
0.0
 30
0.0
  3
*D62
  1

  0
LINE
  5
4BE63
330
4B966
100
AcDbEntity
  8
AM_5
100
AcDbLine
 10
3542.696787915069
 20
-2795.583258774066
 30
0.0
 11
3526.446787915069
 21
-2795.583258774066
 31
0.0
  0
LINE
  5
4BE64
330
4B966
100
AcDbEntity
  8
AM_5
100
AcDbLine
 10
3542.696787915069
 20
-2820.583258774066
 30
0.0
 11
3526.446787915069
 21
-2820.583258774066
 31
0.0
  0
LINE
  5
4BE65
330
4B966
100
AcDbEntity
  8
AM_5
100
AcDbLine
 10
3527.446787915069
 20
-2796.583258774066
 30
0.0
 11
3527.446787915069
 21
-2819.583258774066
 31
0.0
  0
INSERT
  5
4BE66
330
4B966
100
AcDbEntity
  8
AM_5
100
AcDbBlockReference
  2
_Dot
 10
3527.446787915069
 20
-2795.583258774066
 30
0.0
 50
90.0
  0
INSERT
  5
4BE67
330
4B966
100
AcDbEntity
  8
AM_5
100
AcDbBlockReference
  2
_Dot
 10
3527.446787915069
 20
-2820.583258774066
 30
0.0
 50
270.0
  0
MTEXT
  5
4BE68
330
4B966
100
AcDbEntity
  8
AM_5
 62
     2
100
AcDbMText
 10
3524.846787915069
 20
-2808.097720410336
 30
0.0
 40
3.2
 41
0.0
 71
     5
 72
     1
  1
A
 11
0.0000000000000001
 21
1.0
 31
0.0
 73
     1
 44
1.0
1001
ACAD
1000
MTEXTBEGIN
1070
    73
1070
     1
1070
    44
1040
1.0
1070
    74
1070
     0
1000
MTEXTEND
  0
POINT
  5
4BE69
330
4B966
100
AcDbEntity
  8
Defpoints
 62
     0
100
AcDbPoint
 10
3543.696787915069
 20
-2795.583258774066
 30
0.0
  0
POINT
  5
4BE6A
330
4B966
100
AcDbEntity
  8
Defpoints
 62
     0
100
AcDbPoint
 10
3543.696787915069
 20
-2820.583258774066
 30
0.0
  0
POINT
  5
4BE6B
330
4B966
100
AcDbEntity
  8
Defpoints
 62
     0
100
AcDbPoint
 10
3527.446787915069
 20
-2820.583258774066
 30
0.0
  0
ENDBLK
  5
4B971
330
4B966
100
AcDbEntity
  8
0
100
AcDbBlockEnd
  0
BLOCK
  5
4B97C
330
4B972
100
AcDbEntity
  8
0
100
AcDbBlockBegin
  2
*D63
 70
     1
 10
0.0
 20
0.0
 30
0.0
  3
*D63
  1

  0
LINE
  5
4BE6C
330
4B972
100
AcDbEntity
  8
AM_5
100
AcDbLine
 10
3545.346787915069
 20
-2814.583258774066
 30
0.0
 11
3534.446787915069
 21
-2814.583258774066
 31
0.0
  0
LINE
  5
4BE6D
330
4B972
100
AcDbEntity
  8
AM_5
100
AcDbLine
 10
3545.346787915069
 20
-2801.583258774066
 30
0.0
 11
3534.446787915069
 21
-2801.583258774066
 31
0.0
  0
LINE
  5
4BE6E
330
4B972
100
AcDbEntity
  8
AM_5
100
AcDbLine
 10
3535.446787915069
 20
-2813.583258774066
 30
0.0
 11
3535.446787915069
 21
-2802.583258774066
 31
0.0
  0
INSERT
  5
4BE6F
330
4B972
100
AcDbEntity
  8
AM_5
100
AcDbBlockReference
  2
_Dot
 10
3535.446787915069
 20
-2814.583258774066
 30
0.0
 50
270.0
  0
INSERT
  5
4BE70
330
4B972
100
AcDbEntity
  8
AM_5
100
AcDbBlockReference
  2
_Dot
 10
3535.446787915069
 20
-2801.583258774066
 30
0.0
 50
90.0
  0
MTEXT
  5
4BE71
330
4B972
100
AcDbEntity
  8
AM_5
 62
     2
100
AcDbMText
 10
3532.846787915069
 20
-2808.485202998317
 30
0.0
 40
3.2
 41
0.0
 71
     5
 72
     1
  1
C
 11
0.0000000000000001
 21
1.0
 31
0.0
 73
     1
 44
1.0
1001
ACAD
1000
MTEXTBEGIN
1070
    73
1070
     1
1070
    44
1040
1.0
1070
    74
1070
     0
1000
MTEXTEND
  0
POINT
  5
4BE72
330
4B972
100
AcDbEntity
  8
Defpoints
 62
     0
100
AcDbPoint
 10
3546.346787915069
 20
-2814.583258774066
 30
0.0
  0
POINT
  5
4BE73
330
4B972
100
AcDbEntity
  8
Defpoints
 62
     0
100
AcDbPoint
 10
3546.346787915069
 20
-2801.583258774066
 30
0.0
  0
POINT
  5
4BE74
330
4B972
100
AcDbEntity
  8
Defpoints
 62
     0
100
AcDbPoint
 10
3535.446787915069
 20
-2801.583258774066
 30
0.0
  0
ENDBLK
  5
4B97D
330
4B972
100
AcDbEntity
  8
0
100
AcDbBlockEnd
  0
BLOCK
  5
4B98A
330
4B97E
100
AcDbEntity
  8
0
100
AcDbBlockBegin
  2
*D64
 70
     1
 10
0.0
 20
0.0
 30
0.0
  3
*D64
  1

  0
LINE
  5
4BE75
330
4B97E
100
AcDbEntity
  8
AM_5
100
AcDbLine
 10
3542.446787915069
 20
-2863.573744648293
 30
0.0
 11
3534.446787915064
 21
-2863.573744648293
 31
0.0
  0
LINE
  5
4BE76
330
4B97E
100
AcDbEntity
  8
AM_5
100
AcDbLine
 10
3542.446787915069
 20
-2862.073744648293
 30
0.0
 11
3534.446787915064
 21
-2862.073744648293
 31
0.0
  0
LINE
  5
4BE77
330
4B97E
100
AcDbEntity
  8
AM_5
100
AcDbLine
 10
3535.446787915065
 20
-2861.073744648292
 30
0.0
 11
3535.446787915065
 21
-2860.073744648293
 31
0.0
  0
LINE
  5
4BE78
330
4B97E
100
AcDbEntity
  8
AM_5
100
AcDbLine
 10
3535.446787915065
 20
-2864.573744648293
 30
0.0
 11
3535.446787915065
 21
-2869.067077981627
 31
0.0
  0
LINE
  5
4BE79
330
4B97E
100
AcDbEntity
  8
AM_5
100
AcDbLine
 10
3535.446787915065
 20
-2862.073744648293
 30
0.0
 11
3535.446787915065
 21
-2863.573744648293
 31
0.0
  0
INSERT
  5
4BE7A
330
4B97E
100
AcDbEntity
  8
AM_5
100
AcDbBlockReference
  2
_Dot
 10
3535.446787915065
 20
-2862.073744648293
 30
0.0
 50
270.0
  0
INSERT
  5
4BE7B
330
4B97E
100
AcDbEntity
  8
AM_5
100
AcDbBlockReference
  2
_Dot
 10
3535.446787915065
 20
-2863.573744648293
 30
0.0
 50
90.0
  0
MTEXT
  5
4BE7C
330
4B97E
100
AcDbEntity
  8
AM_5
 62
     2
100
AcDbMText
 10
3532.846787915065
 20
-2867.320411314959
 30
0.0
 40
3.2
 41
0.0
 71
     5
 72
     1
  1
B
 11
0.0000000000000001
 21
1.0
 31
0.0
 73
     1
 44
1.0
1001
ACAD
1000
MTEXTBEGIN
1070
    73
1070
     1
1070
    44
1040
1.0
1070
    74
1070
     0
1000
MTEXTEND
  0
POINT
  5
4BE7D
330
4B97E
100
AcDbEntity
  8
Defpoints
 62
     0
100
AcDbPoint
 10
3543.446787915069
 20
-2863.573744648293
 30
0.0
  0
POINT
  5
4BE7E
330
4B97E
100
AcDbEntity
  8
Defpoints
 62
     0
100
AcDbPoint
 10
3543.446787915069
 20
-2862.073744648293
 30
0.0
  0
POINT
  5
4BE7F
330
4B97E
100
AcDbEntity
  8
Defpoints
 62
     0
100
AcDbPoint
 10
3535.446787915065
 20
-2862.073744648293
 30
0.0
  0
ENDBLK
  5
4B98B
330
4B97E
100
AcDbEntity
  8
0
100
AcDbBlockEnd
  0
BLOCK
  5
4B997
330
4B98C
100
AcDbEntity
  8
0
100
AcDbBlockBegin
  2
*D65
 70
     1
 10
0.0
 20
0.0
 30
0.0
  3
*D65
  1

  0
LINE
  5
4BE80
330
4B98C
100
AcDbEntity
  8
AM_5
100
AcDbLine
 10
3556.196787915069
 20
-2859.323744648293
 30
0.0
 11
3556.196787915069
 21
-2840.073744648293
 31
0.0
  0
LINE
  5
4BE81
330
4B98C
100
AcDbEntity
  8
AM_5
100
AcDbLine
 10
3562.696787915069
 20
-2859.323744648293
 30
0.0
 11
3562.696787915069
 21
-2840.073744648293
 31
0.0
  0
LINE
  5
4BE82
330
4B98C
100
AcDbEntity
  8
AM_5
100
AcDbLine
 10
3557.196787915069
 20
-2841.073744648293
 30
0.0
 11
3561.69678791507
 21
-2841.073744648293
 31
0.0
  0
LINE
  5
4BE83
330
4B98C
100
AcDbEntity
  8
AM_5
100
AcDbLine
 10
3562.696787915069
 20
-2841.073744648293
 30
0.0
 11
3575.147454581735
 21
-2841.073744648293
 31
0.0
  0
INSERT
  5
4BE84
330
4B98C
100
AcDbEntity
  8
AM_5
100
AcDbBlockReference
  2
_Dot
 10
3556.196787915069
 20
-2841.073744648293
 30
0.0
 50
180.0
  0
INSERT
  5
4BE85
330
4B98C
100
AcDbEntity
  8
AM_5
100
AcDbBlockReference
  2
_Dot
 10
3562.696787915069
 20
-2841.073744648293
 30
0.0
  0
MTEXT
  5
4BE86
330
4B98C
100
AcDbEntity
  8
AM_5
 62
     2
100
AcDbMText
 10
3569.422121248403
 20
-2838.473744648293
 30
0.0
 40
3.2
 41
0.0
 71
     5
 72
     1
  1
（%%c6.5）
 73
     1
 44
1.0
1001
ACAD
1000
MTEXTBEGIN
1070
    73
1070
     1
1070
    44
1040
1.0
1070
    74
1070
     0
1000
MTEXTEND
  0
POINT
  5
4BE87
330
4B98C
100
AcDbEntity
  8
Defpoints
 62
     0
100
AcDbPoint
 10
3556.196787915069
 20
-2860.323744648292
 30
0.0
  0
POINT
  5
4BE88
330
4B98C
100
AcDbEntity
  8
Defpoints
 62
     0
100
AcDbPoint
 10
3562.696787915069
 20
-2860.323744648292
 30
0.0
  0
POINT
  5
4BE89
330
4B98C
100
AcDbEntity
  8
Defpoints
 62
     0
100
AcDbPoint
 10
3562.696787915069
 20
-2841.073744648293
 30
0.0
  0
ENDBLK
  5
4B998
330
4B98C
100
AcDbEntity
  8
0
100
AcDbBlockEnd
  0
BLOCK
  5
4B9A5
330
4B999
100
AcDbEntity
  8
0
100
AcDbBlockBegin
  2
*D66
 70
     1
 10
0.0
 20
0.0
 30
0.0
  3
*D66
  1

  0
LINE
  5
4BE8A
330
4B999
100
AcDbEntity
  8
AM_5
100
AcDbLine
 10
3557.946787915069
 20
-2859.323744648293
 30
0.0
 11
3557.946787915069
 21
-2848.073744648293
 31
0.0
  0
LINE
  5
4BE8B
330
4B999
100
AcDbEntity
  8
AM_5
100
AcDbLine
 10
3560.94678791507
 20
-2859.323744648293
 30
0.0
 11
3560.94678791507
 21
-2848.073744648293
 31
0.0
  0
LINE
  5
4BE8C
330
4B999
100
AcDbEntity
  8
AM_5
100
AcDbLine
 10
3556.946787915069
 20
-2849.073744648293
 30
0.0
 11
3555.946787915069
 21
-2849.073744648293
 31
0.0
  0
LINE
  5
4BE8D
330
4B999
100
AcDbEntity
  8
AM_5
100
AcDbLine
 10
3561.946787915069
 20
-2849.073744648293
 30
0.0
 11
3568.64046070209
 21
-2849.073744648293
 31
0.0
  0
LINE
  5
4BE8E
330
4B999
100
AcDbEntity
  8
AM_5
100
AcDbLine
 10
3557.946787915069
 20
-2849.073744648293
 30
0.0
 11
3560.94678791507
 21
-2849.073744648293
 31
0.0
  0
INSERT
  5
4BE8F
330
4B999
100
AcDbEntity
  8
AM_5
100
AcDbBlockReference
  2
_Dot
 10
3557.946787915069
 20
-2849.073744648293
 30
0.0
  0
INSERT
  5
4BE90
330
4B999
100
AcDbEntity
  8
AM_5
100
AcDbBlockReference
  2
_Dot
 10
3560.94678791507
 20
-2849.073744648293
 30
0.0
 50
180.0
  0
MTEXT
  5
4BE91
330
4B999
100
AcDbEntity
  8
AM_5
 62
     2
100
AcDbMText
 10
3565.88046070209
 20
-2846.473744648293
 30
0.0
 40
3.2
 41
0.0
 71
     5
 72
     1
  1
%%c3
 73
     1
 44
1.0
1001
ACAD
1000
MTEXTBEGIN
1070
    73
1070
     1
1070
    44
1040
1.0
1070
    74
1070
     0
1000
MTEXTEND
  0
POINT
  5
4BE92
330
4B999
100
AcDbEntity
  8
Defpoints
 62
     0
100
AcDbPoint
 10
3557.946787915069
 20
-2860.323744648292
 30
0.0
  0
POINT
  5
4BE93
330
4B999
100
AcDbEntity
  8
Defpoints
 62
     0
100
AcDbPoint
 10
3560.94678791507
 20
-2860.323744648292
 30
0.0
  0
POINT
  5
4BE94
330
4B999
100
AcDbEntity
  8
Defpoints
 62
     0
100
AcDbPoint
 10
3560.94678791507
 20
-2849.073744648293
 30
0.0
  0
ENDBLK
  5
4B9A6
330
4B999
100
AcDbEntity
  8
0
100
AcDbBlockEnd
  0
BLOCK
  5
4B9B2
330
4B9A7
100
AcDbEntity
  8
0
100
AcDbBlockBegin
  2
*D67
 70
     1
 10
0.0
 20
0.0
 30
0.0
  3
*D67
  1

  0
LINE
  5
4BE95
330
4B9A7
100
AcDbEntity
  8
AM_5
100
AcDbLine
 10
3631.950832339885
 20
-2856.636979983355
 30
0.0
 11
3631.950832339885
 21
-2837.386979983355
 31
0.0
  0
LINE
  5
4BE96
330
4B9A7
100
AcDbEntity
  8
AM_5
100
AcDbLine
 10
3638.450832339885
 20
-2856.636979983355
 30
0.0
 11
3638.450832339885
 21
-2837.386979983355
 31
0.0
  0
LINE
  5
4BE97
330
4B9A7
100
AcDbEntity
  8
AM_5
100
AcDbLine
 10
3632.950832339885
 20
-2838.386979983355
 30
0.0
 11
3637.450832339885
 21
-2838.386979983355
 31
0.0
  0
LINE
  5
4BE98
330
4B9A7
100
AcDbEntity
  8
AM_5
100
AcDbLine
 10
3638.450832339885
 20
-2838.386979983355
 30
0.0
 11
3650.901499006552
 21
-2838.386979983355
 31
0.0
  0
INSERT
  5
4BE99
330
4B9A7
100
AcDbEntity
  8
AM_5
100
AcDbBlockReference
  2
_Dot
 10
3631.950832339885
 20
-2838.386979983355
 30
0.0
 50
180.0
  0
INSERT
  5
4BE9A
330
4B9A7
100
AcDbEntity
  8
AM_5
100
AcDbBlockReference
  2
_Dot
 10
3638.450832339885
 20
-2838.386979983355
 30
0.0
  0
MTEXT
  5
4BE9B
330
4B9A7
100
AcDbEntity
  8
AM_5
 62
     2
100
AcDbMText
 10
3645.176165673218
 20
-2835.786979983355
 30
0.0
 40
3.2
 41
0.0
 71
     5
 72
     1
  1
（%%c6.5）
 73
     1
 44
1.0
1001
ACAD
1000
MTEXTBEGIN
1070
    73
1070
     1
1070
    44
1040
1.0
1070
    74
1070
     0
1000
MTEXTEND
  0
POINT
  5
4BE9C
330
4B9A7
100
AcDbEntity
  8
Defpoints
 62
     0
100
AcDbPoint
 10
3631.950832339885
 20
-2857.636979983355
 30
0.0
  0
POINT
  5
4BE9D
330
4B9A7
100
AcDbEntity
  8
Defpoints
 62
     0
100
AcDbPoint
 10
3638.450832339885
 20
-2857.636979983355
 30
0.0
  0
POINT
  5
4BE9E
330
4B9A7
100
AcDbEntity
  8
Defpoints
 62
     0
100
AcDbPoint
 10
3638.450832339885
 20
-2838.386979983355
 30
0.0
  0
ENDBLK
  5
4B9B3
330
4B9A7
100
AcDbEntity
  8
0
100
AcDbBlockEnd
  0
BLOCK
  5
4B9C0
330
4B9B4
100
AcDbEntity
  8
0
100
AcDbBlockBegin
  2
*D68
 70
     1
 10
0.0
 20
0.0
 30
0.0
  3
*D68
  1

  0
LINE
  5
4BE9F
330
4B9B4
100
AcDbEntity
  8
AM_5
100
AcDbLine
 10
3633.700832339885
 20
-2856.636979983355
 30
0.0
 11
3633.700832339885
 21
-2845.386979983355
 31
0.0
  0
LINE
  5
4BEA0
330
4B9B4
100
AcDbEntity
  8
AM_5
100
AcDbLine
 10
3636.700832339885
 20
-2856.636979983355
 30
0.0
 11
3636.700832339885
 21
-2845.386979983355
 31
0.0
  0
LINE
  5
4BEA1
330
4B9B4
100
AcDbEntity
  8
AM_5
100
AcDbLine
 10
3632.700832339885
 20
-2846.386979983355
 30
0.0
 11
3631.700832339885
 21
-2846.386979983355
 31
0.0
  0
LINE
  5
4BEA2
330
4B9B4
100
AcDbEntity
  8
AM_5
100
AcDbLine
 10
3637.700832339885
 20
-2846.386979983355
 30
0.0
 11
3644.394505126906
 21
-2846.386979983355
 31
0.0
  0
LINE
  5
4BEA3
330
4B9B4
100
AcDbEntity
  8
AM_5
100
AcDbLine
 10
3633.700832339885
 20
-2846.386979983355
 30
0.0
 11
3636.700832339885
 21
-2846.386979983355
 31
0.0
  0
INSERT
  5
4BEA4
330
4B9B4
100
AcDbEntity
  8
AM_5
100
AcDbBlockReference
  2
_Dot
 10
3633.700832339885
 20
-2846.386979983355
 30
0.0
  0
INSERT
  5
4BEA5
330
4B9B4
100
AcDbEntity
  8
AM_5
100
AcDbBlockReference
  2
_Dot
 10
3636.700832339885
 20
-2846.386979983355
 30
0.0
 50
180.0
  0
MTEXT
  5
4BEA6
330
4B9B4
100
AcDbEntity
  8
AM_5
 62
     2
100
AcDbMText
 10
3641.634505126906
 20
-2843.786979983355
 30
0.0
 40
3.2
 41
0.0
 71
     5
 72
     1
  1
%%c3
 73
     1
 44
1.0
1001
ACAD
1000
MTEXTBEGIN
1070
    73
1070
     1
1070
    44
1040
1.0
1070
    74
1070
     0
1000
MTEXTEND
  0
POINT
  5
4BEA7
330
4B9B4
100
AcDbEntity
  8
Defpoints
 62
     0
100
AcDbPoint
 10
3633.700832339885
 20
-2857.636979983355
 30
0.0
  0
POINT
  5
4BEA8
330
4B9B4
100
AcDbEntity
  8
Defpoints
 62
     0
100
AcDbPoint
 10
3636.700832339885
 20
-2857.636979983355
 30
0.0
  0
POINT
  5
4BEA9
330
4B9B4
100
AcDbEntity
  8
Defpoints
 62
     0
100
AcDbPoint
 10
3636.700832339885
 20
-2846.386979983355
 30
0.0
  0
ENDBLK
  5
4B9C1
330
4B9B4
100
AcDbEntity
  8
0
100
AcDbBlockEnd
  0
BLOCK
  5
4B9CE
330
4B9C2
100
AcDbEntity
  8
0
100
AcDbBlockBegin
  2
*D69
 70
     1
 10
0.0
 20
0.0
 30
0.0
  3
*D69
  1

  0
LINE
  5
4BEAA
330
4B9C2
100
AcDbEntity
  8
AM_5
100
AcDbLine
 10
3618.200832339886
 20
-2860.886979983355
 30
0.0
 11
3610.200832339881
 21
-2860.886979983355
 31
0.0
  0
LINE
  5
4BEAB
330
4B9C2
100
AcDbEntity
  8
AM_5
100
AcDbLine
 10
3618.200832339886
 20
-2859.386979983355
 30
0.0
 11
3610.200832339881
 21
-2859.386979983355
 31
0.0
  0
LINE
  5
4BEAC
330
4B9C2
100
AcDbEntity
  8
AM_5
100
AcDbLine
 10
3611.200832339881
 20
-2858.386979983355
 30
0.0
 11
3611.200832339881
 21
-2857.386979983355
 31
0.0
  0
LINE
  5
4BEAD
330
4B9C2
100
AcDbEntity
  8
AM_5
100
AcDbLine
 10
3611.200832339881
 20
-2861.886979983355
 30
0.0
 11
3611.200832339881
 21
-2866.380313316689
 31
0.0
  0
LINE
  5
4BEAE
330
4B9C2
100
AcDbEntity
  8
AM_5
100
AcDbLine
 10
3611.200832339881
 20
-2859.386979983355
 30
0.0
 11
3611.200832339881
 21
-2860.886979983355
 31
0.0
  0
INSERT
  5
4BEAF
330
4B9C2
100
AcDbEntity
  8
AM_5
100
AcDbBlockReference
  2
_Dot
 10
3611.200832339881
 20
-2859.386979983355
 30
0.0
 50
270.0
  0
INSERT
  5
4BEB0
330
4B9C2
100
AcDbEntity
  8
AM_5
100
AcDbBlockReference
  2
_Dot
 10
3611.200832339881
 20
-2860.886979983355
 30
0.0
 50
90.0
  0
MTEXT
  5
4BEB1
330
4B9C2
100
AcDbEntity
  8
AM_5
 62
     2
100
AcDbMText
 10
3608.600832339881
 20
-2864.633646650021
 30
0.0
 40
3.2
 41
0.0
 71
     5
 72
     1
  1
B
 11
0.0000000000000001
 21
1.0
 31
0.0
 73
     1
 44
1.0
1001
ACAD
1000
MTEXTBEGIN
1070
    73
1070
     1
1070
    44
1040
1.0
1070
    74
1070
     0
1000
MTEXTEND
  0
POINT
  5
4BEB2
330
4B9C2
100
AcDbEntity
  8
Defpoints
 62
     0
100
AcDbPoint
 10
3619.200832339885
 20
-2860.886979983355
 30
0.0
  0
POINT
  5
4BEB3
330
4B9C2
100
AcDbEntity
  8
Defpoints
 62
     0
100
AcDbPoint
 10
3619.200832339885
 20
-2859.386979983355
 30
0.0
  0
POINT
  5
4BEB4
330
4B9C2
100
AcDbEntity
  8
Defpoints
 62
     0
100
AcDbPoint
 10
3611.200832339881
 20
-2859.386979983355
 30
0.0
  0
ENDBLK
  5
4B9CF
330
4B9C2
100
AcDbEntity
  8
0
100
AcDbBlockEnd
  0
BLOCK
  5
4B9DA
330
4B9D0
100
AcDbEntity
  8
0
100
AcDbBlockBegin
  2
*D70
 70
     1
 10
0.0
 20
0.0
 30
0.0
  3
*D70
  1

  0
LINE
  5
4BEB5
330
4B9D0
100
AcDbEntity
  8
AM_5
100
AcDbLine
 10
3619.200832339885
 20
-2794.833258774066
 30
0.0
 11
3619.200832339885
 21
-2786.583258774066
 31
0.0
  0
LINE
  5
4BEB6
330
4B9D0
100
AcDbEntity
  8
AM_5
100
AcDbLine
 10
3651.200832339885
 20
-2794.833258774066
 30
0.0
 11
3651.200832339885
 21
-2786.583258774066
 31
0.0
  0
LINE
  5
4BEB7
330
4B9D0
100
AcDbEntity
  8
AM_5
100
AcDbLine
 10
3620.200832339885
 20
-2787.583258774066
 30
0.0
 11
3650.200832339885
 21
-2787.583258774066
 31
0.0
  0
INSERT
  5
4BEB8
330
4B9D0
100
AcDbEntity
  8
AM_5
100
AcDbBlockReference
  2
_Dot
 10
3619.200832339885
 20
-2787.583258774066
 30
0.0
 50
180.0
  0
INSERT
  5
4BEB9
330
4B9D0
100
AcDbEntity
  8
AM_5
100
AcDbBlockReference
  2
_Dot
 10
3651.200832339885
 20
-2787.583258774066
 30
0.0
  0
MTEXT
  5
4BEBA
330
4B9D0
100
AcDbEntity
  8
AM_5
 62
     2
100
AcDbMText
 10
3635.200832339885
 20
-2784.983258774066
 30
0.0
 40
3.2
 41
0.0
 71
     5
 72
     1
  1
32
 73
     1
 44
1.0
1001
ACAD
1000
MTEXTBEGIN
1070
    73
1070
     1
1070
    44
1040
1.0
1070
    74
1070
     0
1000
MTEXTEND
  0
POINT
  5
4BEBB
330
4B9D0
100
AcDbEntity
  8
Defpoints
 62
     0
100
AcDbPoint
 10
3619.200832339885
 20
-2795.833258774066
 30
0.0
  0
POINT
  5
4BEBC
330
4B9D0
100
AcDbEntity
  8
Defpoints
 62
     0
100
AcDbPoint
 10
3651.200832339885
 20
-2795.833258774066
 30
0.0
  0
POINT
  5
4BEBD
330
4B9D0
100
AcDbEntity
  8
Defpoints
 62
     0
100
AcDbPoint
 10
3651.200832339885
 20
-2787.583258774066
 30
0.0
  0
ENDBLK
  5
4B9DB
330
4B9D0
100
AcDbEntity
  8
0
100
AcDbBlockEnd
  0
BLOCK
  5
4B9E6
330
4B9DC
100
AcDbEntity
  8
0
100
AcDbBlockBegin
  2
*D71
 70
     1
 10
0.0
 20
0.0
 30
0.0
  3
*D71
  1

  0
LINE
  5
4BEBE
330
4B9DC
100
AcDbEntity
  8
AM_5
100
AcDbLine
 10
3618.450832339885
 20
-2795.583258774066
 30
0.0
 11
3610.200832339885
 21
-2795.583258774066
 31
0.0
  0
LINE
  5
4BEBF
330
4B9DC
100
AcDbEntity
  8
AM_5
100
AcDbLine
 10
3618.450832339885
 20
-2820.583258774066
 30
0.0
 11
3610.200832339885
 21
-2820.583258774066
 31
0.0
  0
LINE
  5
4BEC0
330
4B9DC
100
AcDbEntity
  8
AM_5
100
AcDbLine
 10
3611.200832339885
 20
-2796.583258774066
 30
0.0
 11
3611.200832339885
 21
-2819.583258774066
 31
0.0
  0
INSERT
  5
4BEC1
330
4B9DC
100
AcDbEntity
  8
AM_5
100
AcDbBlockReference
  2
_Dot
 10
3611.200832339885
 20
-2795.583258774066
 30
0.0
 50
90.0
  0
INSERT
  5
4BEC2
330
4B9DC
100
AcDbEntity
  8
AM_5
100
AcDbBlockReference
  2
_Dot
 10
3611.200832339885
 20
-2820.583258774066
 30
0.0
 50
270.0
  0
MTEXT
  5
4BEC3
330
4B9DC
100
AcDbEntity
  8
AM_5
 62
     2
100
AcDbMText
 10
3608.600832339885
 20
-2808.097720410336
 30
0.0
 40
3.2
 41
0.0
 71
     5
 72
     1
  1
A
 11
0.0000000000000001
 21
1.0
 31
0.0
 73
     1
 44
1.0
1001
ACAD
1000
MTEXTBEGIN
1070
    73
1070
     1
1070
    44
1040
1.0
1070
    74
1070
     0
1000
MTEXTEND
  0
POINT
  5
4BEC4
330
4B9DC
100
AcDbEntity
  8
Defpoints
 62
     0
100
AcDbPoint
 10
3619.450832339885
 20
-2795.583258774066
 30
0.0
  0
POINT
  5
4BEC5
330
4B9DC
100
AcDbEntity
  8
Defpoints
 62
     0
100
AcDbPoint
 10
3619.450832339885
 20
-2820.583258774066
 30
0.0
  0
POINT
  5
4BEC6
330
4B9DC
100
AcDbEntity
  8
Defpoints
 62
     0
100
AcDbPoint
 10
3611.200832339885
 20
-2820.583258774066
 30
0.0
  0
ENDBLK
  5
4B9E7
330
4B9DC
100
AcDbEntity
  8
0
100
AcDbBlockEnd
  0
BLOCK
  5
4B9F3
330
4B9E8
100
AcDbEntity
  8
0
100
AcDbBlockBegin
  2
*D72
 70
     1
 10
0.0
 20
0.0
 30
0.0
  3
*D72
  1

  0
LINE
  5
4BEC7
330
4B9E8
100
AcDbEntity
  8
AM_5
100
AcDbLine
 10
3563.946787915069
 20
-2802.083258774066
 30
0.0
 11
3584.446787915066
 21
-2802.083258774066
 31
0.0
  0
LINE
  5
4BEC8
330
4B9E8
100
AcDbEntity
  8
AM_5
100
AcDbLine
 10
3564.146787915069
 20
-2814.083258774066
 30
0.0
 11
3584.446787915066
 21
-2814.083258774066
 31
0.0
  0
LINE
  5
4BEC9
330
4B9E8
100
AcDbEntity
  8
AM_5
100
AcDbLine
 10
3583.446787915067
 20
-2803.083258774066
 30
0.0
 11
3583.446787915067
 21
-2813.083258774066
 31
0.0
  0
LINE
  5
4BECA
330
4B9E8
100
AcDbEntity
  8
AM_5
100
AcDbLine
 10
3583.446787915067
 20
-2814.083258774066
 30
0.0
 11
3583.446787915067
 21
-2829.157925440733
 31
0.0
  0
INSERT
  5
4BECB
330
4B9E8
100
AcDbEntity
  8
AM_5
100
AcDbBlockReference
  2
_Dot
 10
3583.446787915067
 20
-2802.083258774066
 30
0.0
 50
90.0
  0
INSERT
  5
4BECC
330
4B9E8
100
AcDbEntity
  8
AM_5
100
AcDbBlockReference
  2
_Dot
 10
3583.446787915067
 20
-2814.083258774066
 30
0.0
 50
270.0
  0
MTEXT
  5
4BECD
330
4B9E8
100
AcDbEntity
  8
AM_5
 62
     2
100
AcDbMText
 10
3580.846787915067
 20
-2822.120592107399
 30
0.0
 40
3.2
 41
0.0
 71
     5
 72
     1
  1
G：割り数
 11
0.0000000000000001
 21
1.0
 31
0.0
 73
     1
 44
1.0
1001
ACAD
1000
MTEXTBEGIN
1070
    73
1070
     1
1070
    44
1040
1.0
1070
    74
1070
     0
1000
MTEXTEND
  0
POINT
  5
4BECE
330
4B9E8
100
AcDbEntity
  8
Defpoints
 62
     0
100
AcDbPoint
 10
3562.946787915069
 20
-2802.083258774066
 30
0.0
  0
POINT
  5
4BECF
330
4B9E8
100
AcDbEntity
  8
Defpoints
 62
     0
100
AcDbPoint
 10
3563.146787915069
 20
-2814.083258774066
 30
0.0
  0
POINT
  5
4BED0
330
4B9E8
100
AcDbEntity
  8
Defpoints
 62
     0
100
AcDbPoint
 10
3583.446787915067
 20
-2814.083258774066
 30
0.0
  0
ENDBLK
  5
4B9F4
330
4B9E8
100
AcDbEntity
  8
0
100
AcDbBlockEnd
  0
BLOCK
  5
4BA00
330
4B9F5
100
AcDbEntity
  8
0
100
AcDbBlockBegin
  2
*D73
 70
     1
 10
0.0
 20
0.0
 30
0.0
  3
*D73
  1

  0
LINE
  5
4BED1
330
4B9F5
100
AcDbEntity
  8
AM_5
100
AcDbLine
 10
3639.700832339885
 20
-2802.083258774066
 30
0.0
 11
3660.200832339883
 21
-2802.083258774066
 31
0.0
  0
LINE
  5
4BED2
330
4B9F5
100
AcDbEntity
  8
AM_5
100
AcDbLine
 10
3639.900832339885
 20
-2814.083258774066
 30
0.0
 11
3660.200832339883
 21
-2814.083258774066
 31
0.0
  0
LINE
  5
4BED3
330
4B9F5
100
AcDbEntity
  8
AM_5
100
AcDbLine
 10
3659.200832339883
 20
-2803.083258774066
 30
0.0
 11
3659.200832339883
 21
-2813.083258774066
 31
0.0
  0
LINE
  5
4BED4
330
4B9F5
100
AcDbEntity
  8
AM_5
100
AcDbLine
 10
3659.200832339883
 20
-2814.083258774066
 30
0.0
 11
3659.200832339883
 21
-2829.157925440733
 31
0.0
  0
INSERT
  5
4BED5
330
4B9F5
100
AcDbEntity
  8
AM_5
100
AcDbBlockReference
  2
_Dot
 10
3659.200832339883
 20
-2802.083258774066
 30
0.0
 50
90.0
  0
INSERT
  5
4BED6
330
4B9F5
100
AcDbEntity
  8
AM_5
100
AcDbBlockReference
  2
_Dot
 10
3659.200832339883
 20
-2814.083258774066
 30
0.0
 50
270.0
  0
MTEXT
  5
4BED7
330
4B9F5
100
AcDbEntity
  8
AM_5
 62
     2
100
AcDbMText
 10
3656.600832339883
 20
-2822.120592107399
 30
0.0
 40
3.2
 41
0.0
 71
     5
 72
     1
  1
G：割り数
 11
0.0000000000000001
 21
1.0
 31
0.0
 73
     1
 44
1.0
1001
ACAD
1000
MTEXTBEGIN
1070
    73
1070
     1
1070
    44
1040
1.0
1070
    74
1070
     0
1000
MTEXTEND
  0
POINT
  5
4BED8
330
4B9F5
100
AcDbEntity
  8
Defpoints
 62
     0
100
AcDbPoint
 10
3638.700832339885
 20
-2802.083258774066
 30
0.0
  0
POINT
  5
4BED9
330
4B9F5
100
AcDbEntity
  8
Defpoints
 62
     0
100
AcDbPoint
 10
3638.900832339885
 20
-2814.083258774066
 30
0.0
  0
POINT
  5
4BEDA
330
4B9F5
100
AcDbEntity
  8
Defpoints
 62
     0
100
AcDbPoint
 10
3659.200832339883
 20
-2814.083258774066
 30
0.0
  0
ENDBLK
  5
4BA01
330
4B9F5
100
AcDbEntity
  8
0
100
AcDbBlockEnd
  0
BLOCK
  5
4BA0C
330
4BA02
100
AcDbEntity
  8
0
100
AcDbBlockBegin
  2
*D74
 70
     1
 10
0.0
 20
0.0
 30
0.0
  3
*D74
  1

  0
LINE
  5
4BE0D
330
4BA02
100
AcDbEntity
  8
AM_5
100
AcDbLine
 10
3745.804125497724
 20
-2807.894871801343
 30
0.0
 11
3744.94069426075
 21
-2808.3993383503
 31
0.0
  0
LINE
  5
4BE0E
330
4BA02
100
AcDbEntity
  8
AM_5
100
AcDbLine
 10
3750.293967929978
 20
-2805.271645746773
 30
0.0
 11
3757.677650402159
 21
-2800.957670694876
 31
0.0
  0
LINE
  5
4BE0F
330
4BA02
100
AcDbEntity
  8
AM_5
100
AcDbLine
 10
3757.677650402159
 20
-2800.957670694876
 30
0.0
 11
3769.984317068825
 21
-2800.957670694875
 31
0.0
  0
LINE
  5
4BE10
330
4BA02
100
AcDbEntity
  8
AM_5
100
AcDbLine
 10
3746.667556734698
 20
-2807.390405252386
 30
0.0
 11
3749.430536693004
 21
-2805.77611229573
 31
0.0
  0
INSERT
  5
4BE11
330
4BA02
100
AcDbEntity
  8
AM_5
100
AcDbBlockReference
  2
_Dot
 10
3746.667556734698
 20
-2807.390405252386
 30
0.0
 50
30.29594709601632
  0
INSERT
  5
4BE12
330
4BA02
100
AcDbEntity
  8
AM_5
100
AcDbBlockReference
  2
_Dot
 10
3749.430536693004
 20
-2805.77611229573
 30
0.0
 50
210.2959470960164
  0
MTEXT
  5
4BE13
330
4BA02
100
AcDbEntity
  8
AM_5
 62
     2
100
AcDbMText
 10
3764.330983735492
 20
-2798.357670694874
 30
0.0
 40
3.2
 41
0.0
 71
     5
 72
     1
  1
F-\U+22053.2
 73
     1
 44
1.0
1001
ACAD
1000
MTEXTBEGIN
1070
    73
1070
     1
1070
    44
1040
1.0
1070
    74
1070
     0
1000
MTEXTEND
  0
POINT
  5
4BE14
330
4BA02
100
AcDbEntity
  8
Defpoints
 62
     0
100
AcDbPoint
 10
3749.430536693004
 20
-2805.77611229573
 30
0.0
  0
POINT
  5
4BE15
330
4BA02
100
AcDbEntity
  8
Defpoints
 62
     0
100
AcDbPoint
 10
3746.667556734698
 20
-2807.390405252386
 30
0.0
  0
ENDBLK
  5
4BA0D
330
4BA02
100
AcDbEntity
  8
0
100
AcDbBlockEnd
  0
BLOCK
  5
4BA18
330
4BA0E
100
AcDbEntity
  8
0
100
AcDbBlockBegin
  2
*D75
 70
     1
 10
0.0
 20
0.0
 30
0.0
  3
*D75
  1

  0
LINE
  5
4BE16
330
4BA0E
100
AcDbEntity
  8
AM_5
100
AcDbLine
 10
3742.74904671386
 20
-2835.583258774066
 30
0.0
 11
3763.049046713857
 21
-2835.583258774066
 31
0.0
  0
LINE
  5
4BE17
330
4BA0E
100
AcDbEntity
  8
AM_5
100
AcDbLine
 10
3742.74904671386
 20
-2855.583258774066
 30
0.0
 11
3763.049046713857
 21
-2855.583258774066
 31
0.0
  0
LINE
  5
4BE18
330
4BA0E
100
AcDbEntity
  8
AM_5
100
AcDbLine
 10
3762.049046713857
 20
-2836.583258774066
 30
0.0
 11
3762.049046713857
 21
-2854.583258774066
 31
0.0
  0
INSERT
  5
4BE19
330
4BA0E
100
AcDbEntity
  8
AM_5
100
AcDbBlockReference
  2
_Dot
 10
3762.049046713857
 20
-2835.583258774066
 30
0.0
 50
90.0
  0
INSERT
  5
4BE1A
330
4BA0E
100
AcDbEntity
  8
AM_5
100
AcDbBlockReference
  2
_Dot
 10
3762.049046713857
 20
-2855.583258774066
 30
0.0
 50
270.0
  0
MTEXT
  5
4BE1B
330
4BA0E
100
AcDbEntity
  8
AM_5
 62
     2
100
AcDbMText
 10
3759.449046713858
 20
-2845.583258774066
 30
0.0
 40
3.2
 41
0.0
 71
     5
 72
     1
  1
G：割り数
 11
0.0000000000000001
 21
1.0
 31
0.0
 73
     1
 44
1.0
1001
ACAD
1000
MTEXTBEGIN
1070
    73
1070
     1
1070
    44
1040
1.0
1070
    74
1070
     0
1000
MTEXTEND
  0
POINT
  5
4BE1C
330
4BA0E
100
AcDbEntity
  8
Defpoints
 62
     0
100
AcDbPoint
 10
3741.74904671386
 20
-2835.583258774066
 30
0.0
  0
POINT
  5
4BE1D
330
4BA0E
100
AcDbEntity
  8
Defpoints
 62
     0
100
AcDbPoint
 10
3741.74904671386
 20
-2855.583258774066
 30
0.0
  0
POINT
  5
4BE1E
330
4BA0E
100
AcDbEntity
  8
Defpoints
 62
     0
100
AcDbPoint
 10
3762.049046713857
 20
-2855.583258774066
 30
0.0
  0
ENDBLK
  5
4BA19
330
4BA0E
100
AcDbEntity
  8
0
100
AcDbBlockEnd
  0
BLOCK
  5
4BA24
330
4BA1A
100
AcDbEntity
  8
0
100
AcDbBlockBegin
  2
*D76
 70
     1
 10
0.0
 20
0.0
 30
0.0
  3
*D76
  1

  0
LINE
  5
4BE1F
330
4BA1A
100
AcDbEntity
  8
AM_5
100
AcDbLine
 10
3805.817155434429
 20
-2796.083258774066
 30
0.0
 11
3805.817155434429
 21
-2786.583258774066
 31
0.0
  0
LINE
  5
4BE20
330
4BA1A
100
AcDbEntity
  8
AM_5
100
AcDbLine
 10
3837.817155434429
 20
-2796.083258774066
 30
0.0
 11
3837.817155434429
 21
-2786.583258774066
 31
0.0
  0
LINE
  5
4BE21
330
4BA1A
100
AcDbEntity
  8
AM_5
100
AcDbLine
 10
3806.817155434429
 20
-2787.583258774066
 30
0.0
 11
3836.81715543443
 21
-2787.583258774066
 31
0.0
  0
INSERT
  5
4BE22
330
4BA1A
100
AcDbEntity
  8
AM_5
100
AcDbBlockReference
  2
_Dot
 10
3805.817155434429
 20
-2787.583258774066
 30
0.0
 50
180.0
  0
INSERT
  5
4BE23
330
4BA1A
100
AcDbEntity
  8
AM_5
100
AcDbBlockReference
  2
_Dot
 10
3837.817155434429
 20
-2787.583258774066
 30
0.0
  0
MTEXT
  5
4BE24
330
4BA1A
100
AcDbEntity
  8
AM_5
 62
     2
100
AcDbMText
 10
3821.817155434429
 20
-2784.983258774066
 30
0.0
 40
3.2
 41
0.0
 71
     5
 72
     1
  1
32
 73
     1
 44
1.0
1001
ACAD
1000
MTEXTBEGIN
1070
    73
1070
     1
1070
    44
1040
1.0
1070
    74
1070
     0
1000
MTEXTEND
  0
POINT
  5
4BE25
330
4BA1A
100
AcDbEntity
  8
Defpoints
 62
     0
100
AcDbPoint
 10
3805.817155434429
 20
-2797.083258774066
 30
0.0
  0
POINT
  5
4BE26
330
4BA1A
100
AcDbEntity
  8
Defpoints
 62
     0
100
AcDbPoint
 10
3837.817155434429
 20
-2797.083258774066
 30
0.0
  0
POINT
  5
4BE27
330
4BA1A
100
AcDbEntity
  8
Defpoints
 62
     0
100
AcDbPoint
 10
3837.817155434429
 20
-2787.583258774066
 30
0.0
  0
ENDBLK
  5
4BA25
330
4BA1A
100
AcDbEntity
  8
0
100
AcDbBlockEnd
  0
BLOCK
  5
4BA30
330
4BA26
100
AcDbEntity
  8
0
100
AcDbBlockBegin
  2
*D77
 70
     1
 10
0.0
 20
0.0
 30
0.0
  3
*D77
  1

  0
LINE
  5
4BE28
330
4BA26
100
AcDbEntity
  8
AM_5
100
AcDbLine
 10
3806.31715543443
 20
-2795.583258774066
 30
0.0
 11
3796.817155434429
 21
-2795.583258774066
 31
0.0
  0
LINE
  5
4BE29
330
4BA26
100
AcDbEntity
  8
AM_5
100
AcDbLine
 10
3806.31715543443
 20
-2895.583258774066
 30
0.0
 11
3796.817155434429
 21
-2895.583258774066
 31
0.0
  0
LINE
  5
4BE2A
330
4BA26
100
AcDbEntity
  8
AM_5
100
AcDbLine
 10
3797.817155434429
 20
-2796.583258774066
 30
0.0
 11
3797.817155434429
 21
-2894.583258774066
 31
0.0
  0
INSERT
  5
4BE2B
330
4BA26
100
AcDbEntity
  8
AM_5
100
AcDbBlockReference
  2
_Dot
 10
3797.817155434429
 20
-2795.583258774066
 30
0.0
 50
90.0
  0
INSERT
  5
4BE2C
330
4BA26
100
AcDbEntity
  8
AM_5
100
AcDbBlockReference
  2
_Dot
 10
3797.817155434429
 20
-2895.583258774066
 30
0.0
 50
270.0
  0
MTEXT
  5
4BE2D
330
4BA26
100
AcDbEntity
  8
AM_5
 62
     2
100
AcDbMText
 10
3795.217155434429
 20
-2845.583258774061
 30
0.0
 40
3.2
 41
0.0
 71
     5
 72
     1
  1
A
 11
0.0000000000000001
 21
1.0
 31
0.0
 73
     1
 44
1.0
1001
ACAD
1000
MTEXTBEGIN
1070
    73
1070
     1
1070
    44
1040
1.0
1070
    74
1070
     0
1000
MTEXTEND
  0
POINT
  5
4BE2E
330
4BA26
100
AcDbEntity
  8
Defpoints
 62
     0
100
AcDbPoint
 10
3807.317155434429
 20
-2795.583258774066
 30
0.0
  0
POINT
  5
4BE2F
330
4BA26
100
AcDbEntity
  8
Defpoints
 62
     0
100
AcDbPoint
 10
3807.317155434429
 20
-2895.583258774066
 30
0.0
  0
POINT
  5
4BE30
330
4BA26
100
AcDbEntity
  8
Defpoints
 62
     0
100
AcDbPoint
 10
3797.817155434429
 20
-2895.583258774066
 30
0.0
  0
ENDBLK
  5
4BA31
330
4BA26
100
AcDbEntity
  8
0
100
AcDbBlockEnd
  0
BLOCK
  5
4BA3D
330
4BA32
100
AcDbEntity
  8
0
100
AcDbBlockBegin
  2
*D78
 70
     1
 10
0.0
 20
0.0
 30
0.0
  3
*D78
  1

  0
LINE
  5
4BE31
330
4BA32
100
AcDbEntity
  8
AM_5
100
AcDbLine
 10
3818.567155434429
 20
-2936.575363068749
 30
0.0
 11
3818.567155434429
 21
-2917.325363068749
 31
0.0
  0
LINE
  5
4BE32
330
4BA32
100
AcDbEntity
  8
AM_5
100
AcDbLine
 10
3825.06715543443
 20
-2936.575363068749
 30
0.0
 11
3825.06715543443
 21
-2917.325363068749
 31
0.0
  0
LINE
  5
4BE33
330
4BA32
100
AcDbEntity
  8
AM_5
100
AcDbLine
 10
3819.567155434429
 20
-2918.325363068749
 30
0.0
 11
3824.067155434429
 21
-2918.325363068749
 31
0.0
  0
LINE
  5
4BE34
330
4BA32
100
AcDbEntity
  8
AM_5
100
AcDbLine
 10
3825.06715543443
 20
-2918.325363068749
 30
0.0
 11
3837.517822101096
 21
-2918.325363068749
 31
0.0
  0
INSERT
  5
4BE35
330
4BA32
100
AcDbEntity
  8
AM_5
100
AcDbBlockReference
  2
_Dot
 10
3818.567155434429
 20
-2918.325363068749
 30
0.0
 50
180.0
  0
INSERT
  5
4BE36
330
4BA32
100
AcDbEntity
  8
AM_5
100
AcDbBlockReference
  2
_Dot
 10
3825.06715543443
 20
-2918.325363068749
 30
0.0
  0
MTEXT
  5
4BE37
330
4BA32
100
AcDbEntity
  8
AM_5
 62
     2
100
AcDbMText
 10
3831.792488767763
 20
-2915.725363068749
 30
0.0
 40
3.2
 41
0.0
 71
     5
 72
     1
  1
（%%c6.5）
 73
     1
 44
1.0
1001
ACAD
1000
MTEXTBEGIN
1070
    73
1070
     1
1070
    44
1040
1.0
1070
    74
1070
     0
1000
MTEXTEND
  0
POINT
  5
4BE38
330
4BA32
100
AcDbEntity
  8
Defpoints
 62
     0
100
AcDbPoint
 10
3818.567155434429
 20
-2937.575363068749
 30
0.0
  0
POINT
  5
4BE39
330
4BA32
100
AcDbEntity
  8
Defpoints
 62
     0
100
AcDbPoint
 10
3825.06715543443
 20
-2937.575363068749
 30
0.0
  0
POINT
  5
4BE3A
330
4BA32
100
AcDbEntity
  8
Defpoints
 62
     0
100
AcDbPoint
 10
3825.06715543443
 20
-2918.325363068749
 30
0.0
  0
ENDBLK
  5
4BA3E
330
4BA32
100
AcDbEntity
  8
0
100
AcDbBlockEnd
  0
BLOCK
  5
4BA4B
330
4BA3F
100
AcDbEntity
  8
0
100
AcDbBlockBegin
  2
*D79
 70
     1
 10
0.0
 20
0.0
 30
0.0
  3
*D79
  1

  0
LINE
  5
4BE3B
330
4BA3F
100
AcDbEntity
  8
AM_5
100
AcDbLine
 10
3820.317155434429
 20
-2936.575363068749
 30
0.0
 11
3820.317155434429
 21
-2925.325363068749
 31
0.0
  0
LINE
  5
4BE3C
330
4BA3F
100
AcDbEntity
  8
AM_5
100
AcDbLine
 10
3823.317155434429
 20
-2936.575363068749
 30
0.0
 11
3823.317155434429
 21
-2925.325363068749
 31
0.0
  0
LINE
  5
4BE3D
330
4BA3F
100
AcDbEntity
  8
AM_5
100
AcDbLine
 10
3819.317155434429
 20
-2926.325363068749
 30
0.0
 11
3818.317155434429
 21
-2926.325363068749
 31
0.0
  0
LINE
  5
4BE3E
330
4BA3F
100
AcDbEntity
  8
AM_5
100
AcDbLine
 10
3824.31715543443
 20
-2926.325363068749
 30
0.0
 11
3830.837155434429
 21
-2926.325363068749
 31
0.0
  0
LINE
  5
4BE3F
330
4BA3F
100
AcDbEntity
  8
AM_5
100
AcDbLine
 10
3820.317155434429
 20
-2926.325363068749
 30
0.0
 11
3823.317155434429
 21
-2926.325363068749
 31
0.0
  0
INSERT
  5
4BE40
330
4BA3F
100
AcDbEntity
  8
AM_5
100
AcDbBlockReference
  2
_Dot
 10
3820.317155434429
 20
-2926.325363068749
 30
0.0
  0
INSERT
  5
4BE41
330
4BA3F
100
AcDbEntity
  8
AM_5
100
AcDbBlockReference
  2
_Dot
 10
3823.317155434429
 20
-2926.325363068749
 30
0.0
 50
180.0
  0
MTEXT
  5
4BE42
330
4BA3F
100
AcDbEntity
  8
AM_5
 62
     2
100
AcDbMText
 10
3828.077155434429
 20
-2923.725363068749
 30
0.0
 40
3.2
 41
0.0
 71
     5
 72
     1
  1
%%c3
 73
     1
 44
1.0
1001
ACAD
1000
MTEXTBEGIN
1070
    73
1070
     1
1070
    44
1040
1.0
1070
    74
1070
     0
1000
MTEXTEND
  0
POINT
  5
4BE43
330
4BA3F
100
AcDbEntity
  8
Defpoints
 62
     0
100
AcDbPoint
 10
3820.317155434429
 20
-2937.575363068749
 30
0.0
  0
POINT
  5
4BE44
330
4BA3F
100
AcDbEntity
  8
Defpoints
 62
     0
100
AcDbPoint
 10
3823.317155434429
 20
-2937.575363068749
 30
0.0
  0
POINT
  5
4BE45
330
4BA3F
100
AcDbEntity
  8
Defpoints
 62
     0
100
AcDbPoint
 10
3823.317155434429
 20
-2926.325363068749
 30
0.0
  0
ENDBLK
  5
4BA4C
330
4BA3F
100
AcDbEntity
  8
0
100
AcDbBlockEnd
  0
BLOCK
  5
4BA59
330
4BA4D
100
AcDbEntity
  8
0
100
AcDbBlockBegin
  2
*D80
 70
     1
 10
0.0
 20
0.0
 30
0.0
  3
*D80
  1

  0
LINE
  5
4BE46
330
4BA4D
100
AcDbEntity
  8
AM_5
100
AcDbLine
 10
3804.81715543443
 20
-2940.825363068748
 30
0.0
 11
3796.817155434425
 21
-2940.825363068748
 31
0.0
  0
LINE
  5
4BE47
330
4BA4D
100
AcDbEntity
  8
AM_5
100
AcDbLine
 10
3804.81715543443
 20
-2939.325363068748
 30
0.0
 11
3796.817155434425
 21
-2939.325363068748
 31
0.0
  0
LINE
  5
4BE48
330
4BA4D
100
AcDbEntity
  8
AM_5
100
AcDbLine
 10
3797.817155434425
 20
-2938.325363068749
 30
0.0
 11
3797.817155434425
 21
-2937.325363068749
 31
0.0
  0
LINE
  5
4BE49
330
4BA4D
100
AcDbEntity
  8
AM_5
100
AcDbLine
 10
3797.817155434425
 20
-2941.825363068749
 30
0.0
 11
3797.817155434425
 21
-2946.318696402082
 31
0.0
  0
LINE
  5
4BE4A
330
4BA4D
100
AcDbEntity
  8
AM_5
100
AcDbLine
 10
3797.817155434425
 20
-2939.325363068748
 30
0.0
 11
3797.817155434425
 21
-2940.825363068748
 31
0.0
  0
INSERT
  5
4BE4B
330
4BA4D
100
AcDbEntity
  8
AM_5
100
AcDbBlockReference
  2
_Dot
 10
3797.817155434425
 20
-2939.325363068748
 30
0.0
 50
270.0
  0
INSERT
  5
4BE4C
330
4BA4D
100
AcDbEntity
  8
AM_5
100
AcDbBlockReference
  2
_Dot
 10
3797.817155434425
 20
-2940.825363068748
 30
0.0
 50
90.0
  0
MTEXT
  5
4BE4D
330
4BA4D
100
AcDbEntity
  8
AM_5
 62
     2
100
AcDbMText
 10
3795.217155434425
 20
-2944.572029735415
 30
0.0
 40
3.2
 41
0.0
 71
     5
 72
     1
  1
B
 11
0.0000000000000001
 21
1.0
 31
0.0
 73
     1
 44
1.0
1001
ACAD
1000
MTEXTBEGIN
1070
    73
1070
     1
1070
    44
1040
1.0
1070
    74
1070
     0
1000
MTEXTEND
  0
POINT
  5
4BE4E
330
4BA4D
100
AcDbEntity
  8
Defpoints
 62
     0
100
AcDbPoint
 10
3805.817155434429
 20
-2940.825363068748
 30
0.0
  0
POINT
  5
4BE4F
330
4BA4D
100
AcDbEntity
  8
Defpoints
 62
     0
100
AcDbPoint
 10
3805.817155434429
 20
-2939.325363068748
 30
0.0
  0
POINT
  5
4BE50
330
4BA4D
100
AcDbEntity
  8
Defpoints
 62
     0
100
AcDbPoint
 10
3797.817155434425
 20
-2939.325363068748
 30
0.0
  0
ENDBLK
  5
4BA5A
330
4BA4D
100
AcDbEntity
  8
0
100
AcDbBlockEnd
  0
BLOCK
  5
4BAEF
330
4BAE5
100
AcDbEntity
  8
0
100
AcDbBlockBegin
  2
*D81
 70
     1
 10
0.0
 20
0.0
 30
0.0
  3
*D81
  1

  0
LINE
  5
4BEE4
330
4BAE5
100
AcDbEntity
  8
AM_5
100
AcDbLine
 10
3591.218370059533
 20
-2797.329548313503
 30
0.0
 11
3578.911703392861
 21
-2797.329548313503
 31
0.0
  0
LINE
  5
4BEE5
330
4BAE5
100
AcDbEntity
  8
AM_5
100
AcDbLine
 10
3578.911703392861
 20
-2797.329548313503
 30
0.0
 11
3571.818299394234
 21
-2800.517457055082
 31
0.0
  0
LINE
  5
4BEE6
330
4BAE5
100
AcDbEntity
  8
AM_5
100
AcDbLine
 10
3567.075276435904
 20
-2802.64906049305
 30
0.0
 11
3566.163156636225
 21
-2803.058984231121
 31
0.0
  0
MTEXT
  5
4BEE7
330
4BAE5
100
AcDbEntity
  8
AM_5
 62
     2
100
AcDbMText
 10
3585.5650367262
 20
-2794.729548313503
 30
0.0
 40
3.200000000000001
 41
0.0
 71
     5
 72
     1
  1
F-\U+22053.2
 73
     1
 44
1.0
1001
ACAD
1000
MTEXTBEGIN
1070
    73
1070
     1
1070
    44
1040
1.0
1070
    74
1070
     0
1000
MTEXTEND
  0
LINE
  5
4BEE8
330
4BAE5
100
AcDbEntity
  8
AM_5
100
AcDbLine
 10
3567.987396235582
 20
-2802.239136754979
 30
0.0
 11
3570.906179594555
 21
-2800.927380793153
 31
0.0
  0
INSERT
  5
4BEE9
330
4BAE5
100
AcDbEntity
  8
AM_5
100
AcDbBlockReference
  2
_Dot
 10
3567.987396235582
 20
-2802.239136754979
 30
0.0
 50
24.20004423690265
  0
INSERT
  5
4BEEA
330
4BAE5
100
AcDbEntity
  8
AM_5
100
AcDbBlockReference
  2
_Dot
 10
3570.906179594555
 20
-2800.927380793153
 30
0.0
 50
204.2000442369027
  0
POINT
  5
4BEEB
330
4BAE5
100
AcDbEntity
  8
Defpoints
 62
     0
100
AcDbPoint
 10
3570.906179594555
 20
-2800.927380793153
 30
0.0
  0
POINT
  5
4BEEC
330
4BAE5
100
AcDbEntity
  8
Defpoints
 62
     0
100
AcDbPoint
 10
3567.987396235582
 20
-2802.239136754979
 30
0.0
  0
ENDBLK
  5
4BAF0
330
4BAE5
100
AcDbEntity
  8
0
100
AcDbBlockEnd
  0
BLOCK
  5
4BAFB
330
4BAF1
100
AcDbEntity
  8
0
100
AcDbBlockBegin
  2
*D82
 70
     1
 10
0.0
 20
0.0
 30
0.0
  3
*D82
  1

  0
LINE
  5
4BDB7
330
4BAF1
100
AcDbEntity
  8
AM_5
100
AcDbLine
 10
3722.04904671386
 20
-2796.083258774066
 30
0.0
 11
3722.04904671386
 21
-2778.583258774066
 31
0.0
  0
LINE
  5
4BDB8
330
4BAF1
100
AcDbEntity
  8
AM_5
100
AcDbLine
 10
3754.04904671386
 20
-2796.083258774066
 30
0.0
 11
3754.04904671386
 21
-2778.583258774066
 31
0.0
  0
LINE
  5
4BDB9
330
4BAF1
100
AcDbEntity
  8
AM_5
100
AcDbLine
 10
3723.049046713859
 20
-2779.583258774066
 30
0.0
 11
3753.049046713859
 21
-2779.583258774066
 31
0.0
  0
INSERT
  5
4BDBA
330
4BAF1
100
AcDbEntity
  8
AM_5
100
AcDbBlockReference
  2
_Dot
 10
3722.04904671386
 20
-2779.583258774066
 30
0.0
 50
180.0
  0
INSERT
  5
4BDBB
330
4BAF1
100
AcDbEntity
  8
AM_5
100
AcDbBlockReference
  2
_Dot
 10
3754.04904671386
 20
-2779.583258774066
 30
0.0
  0
MTEXT
  5
4BDBC
330
4BAF1
100
AcDbEntity
  8
AM_5
 62
     2
100
AcDbMText
 10
3738.04904671386
 20
-2776.983258774067
 30
0.0
 40
3.2
 41
0.0
 71
     5
 72
     1
  1
32
 73
     1
 44
1.0
1001
ACAD
1000
MTEXTBEGIN
1070
    73
1070
     1
1070
    44
1040
1.0
1070
    74
1070
     0
1000
MTEXTEND
  0
POINT
  5
4BDBD
330
4BAF1
100
AcDbEntity
  8
Defpoints
 62
     0
100
AcDbPoint
 10
3722.04904671386
 20
-2797.083258774066
 30
0.0
  0
POINT
  5
4BDBE
330
4BAF1
100
AcDbEntity
  8
Defpoints
 62
     0
100
AcDbPoint
 10
3754.04904671386
 20
-2797.083258774066
 30
0.0
  0
POINT
  5
4BDBF
330
4BAF1
100
AcDbEntity
  8
Defpoints
 62
     0
100
AcDbPoint
 10
3754.04904671386
 20
-2779.583258774066
 30
0.0
  0
ENDBLK
  5
4BAFC
330
4BAF1
100
AcDbEntity
  8
0
100
AcDbBlockEnd
  0
BLOCK
  5
4BB07
330
4BAFD
100
AcDbEntity
  8
0
100
AcDbBlockBegin
  2
*D83
 70
     1
 10
0.0
 20
0.0
 30
0.0
  3
*D83
  1

  0
LINE
  5
4BDC0
330
4BAFD
100
AcDbEntity
  8
AM_5
100
AcDbLine
 10
3728.049046713859
 20
-2802.983258774066
 30
0.0
 11
3728.049046713859
 21
-2786.583258774066
 31
0.0
  0
LINE
  5
4BDC1
330
4BAFD
100
AcDbEntity
  8
AM_5
100
AcDbLine
 10
3748.049046713859
 20
-2802.983258774066
 30
0.0
 11
3748.049046713859
 21
-2786.583258774066
 31
0.0
  0
LINE
  5
4BDC2
330
4BAFD
100
AcDbEntity
  8
AM_5
100
AcDbLine
 10
3729.04904671386
 20
-2787.583258774066
 30
0.0
 11
3747.04904671386
 21
-2787.583258774066
 31
0.0
  0
INSERT
  5
4BDC3
330
4BAFD
100
AcDbEntity
  8
AM_5
100
AcDbBlockReference
  2
_Dot
 10
3728.049046713859
 20
-2787.583258774066
 30
0.0
 50
180.0
  0
INSERT
  5
4BDC4
330
4BAFD
100
AcDbEntity
  8
AM_5
100
AcDbBlockReference
  2
_Dot
 10
3748.049046713859
 20
-2787.583258774066
 30
0.0
  0
MTEXT
  5
4BDC5
330
4BAFD
100
AcDbEntity
  8
AM_5
 62
     2
100
AcDbMText
 10
3738.04904671386
 20
-2784.983258774066
 30
0.0
 40
3.2
 41
0.0
 71
     5
 72
     1
  1
20
 73
     1
 44
1.0
1001
ACAD
1000
MTEXTBEGIN
1070
    73
1070
     1
1070
    44
1040
1.0
1070
    74
1070
     0
1000
MTEXTEND
  0
POINT
  5
4BDC6
330
4BAFD
100
AcDbEntity
  8
Defpoints
 62
     0
100
AcDbPoint
 10
3728.049046713859
 20
-2803.983258774066
 30
0.0
  0
POINT
  5
4BDC7
330
4BAFD
100
AcDbEntity
  8
Defpoints
 62
     0
100
AcDbPoint
 10
3748.049046713859
 20
-2803.983258774066
 30
0.0
  0
POINT
  5
4BDC8
330
4BAFD
100
AcDbEntity
  8
Defpoints
 62
     0
100
AcDbPoint
 10
3748.049046713859
 20
-2787.583258774066
 30
0.0
  0
ENDBLK
  5
4BB08
330
4BAFD
100
AcDbEntity
  8
0
100
AcDbBlockEnd
  0
BLOCK
  5
4BB13
330
4BB09
100
AcDbEntity
  8
0
100
AcDbBlockBegin
  2
*D84
 70
     1
 10
0.0
 20
0.0
 30
0.0
  3
*D84
  1

  0
LINE
  5
4BDC9
330
4BB09
100
AcDbEntity
  8
AM_5
100
AcDbLine
 10
3722.549046713859
 20
-2795.583258774066
 30
0.0
 11
3705.049046713859
 21
-2795.583258774066
 31
0.0
  0
LINE
  5
4BDCA
330
4BB09
100
AcDbEntity
  8
AM_5
100
AcDbLine
 10
3722.549046713859
 20
-2895.583258774066
 30
0.0
 11
3705.049046713859
 21
-2895.583258774066
 31
0.0
  0
LINE
  5
4BDCB
330
4BB09
100
AcDbEntity
  8
AM_5
100
AcDbLine
 10
3706.04904671386
 20
-2796.583258774066
 30
0.0
 11
3706.04904671386
 21
-2894.583258774066
 31
0.0
  0
INSERT
  5
4BDCC
330
4BB09
100
AcDbEntity
  8
AM_5
100
AcDbBlockReference
  2
_Dot
 10
3706.04904671386
 20
-2795.583258774066
 30
0.0
 50
90.0
  0
INSERT
  5
4BDCD
330
4BB09
100
AcDbEntity
  8
AM_5
100
AcDbBlockReference
  2
_Dot
 10
3706.04904671386
 20
-2895.583258774066
 30
0.0
 50
270.0
  0
MTEXT
  5
4BDCE
330
4BB09
100
AcDbEntity
  8
AM_5
 62
     2
100
AcDbMText
 10
3703.44904671386
 20
-2845.583258774061
 30
0.0
 40
3.2
 41
0.0
 71
     5
 72
     1
  1
A
 11
0.0000000000000001
 21
1.0
 31
0.0
 73
     1
 44
1.0
1001
ACAD
1000
MTEXTBEGIN
1070
    73
1070
     1
1070
    44
1040
1.0
1070
    74
1070
     0
1000
MTEXTEND
  0
POINT
  5
4BDCF
330
4BB09
100
AcDbEntity
  8
Defpoints
 62
     0
100
AcDbPoint
 10
3723.54904671386
 20
-2795.583258774066
 30
0.0
  0
POINT
  5
4BDD0
330
4BB09
100
AcDbEntity
  8
Defpoints
 62
     0
100
AcDbPoint
 10
3723.54904671386
 20
-2895.583258774066
 30
0.0
  0
POINT
  5
4BDD1
330
4BB09
100
AcDbEntity
  8
Defpoints
 62
     0
100
AcDbPoint
 10
3706.04904671386
 20
-2895.583258774066
 30
0.0
  0
ENDBLK
  5
4BB14
330
4BB09
100
AcDbEntity
  8
0
100
AcDbBlockEnd
  0
BLOCK
  5
4BB1F
330
4BB15
100
AcDbEntity
  8
0
100
AcDbBlockBegin
  2
*D85
 70
     1
 10
0.0
 20
0.0
 30
0.0
  3
*D85
  1

  0
LINE
  5
4BDD2
330
4BB15
100
AcDbEntity
  8
AM_5
100
AcDbLine
 10
3724.44904671386
 20
-2832.583258774066
 30
0.0
 11
3713.049046713859
 21
-2832.583258774066
 31
0.0
  0
LINE
  5
4BDD3
330
4BB15
100
AcDbEntity
  8
AM_5
100
AcDbLine
 10
3724.44904671386
 20
-2806.583258774066
 30
0.0
 11
3713.049046713859
 21
-2806.583258774066
 31
0.0
  0
LINE
  5
4BDD4
330
4BB15
100
AcDbEntity
  8
AM_5
100
AcDbLine
 10
3714.049046713859
 20
-2831.583258774066
 30
0.0
 11
3714.049046713859
 21
-2807.583258774066
 31
0.0
  0
INSERT
  5
4BDD5
330
4BB15
100
AcDbEntity
  8
AM_5
100
AcDbBlockReference
  2
_Dot
 10
3714.049046713859
 20
-2832.583258774066
 30
0.0
 50
270.0
  0
INSERT
  5
4BDD6
330
4BB15
100
AcDbEntity
  8
AM_5
100
AcDbBlockReference
  2
_Dot
 10
3714.049046713859
 20
-2806.583258774066
 30
0.0
 50
90.0
  0
MTEXT
  5
4BDD7
330
4BB15
100
AcDbEntity
  8
AM_5
 62
     2
100
AcDbMText
 10
3711.449046713859
 20
-2819.583258774066
 30
0.0
 40
3.2
 41
0.0
 71
     5
 72
     1
  1
C
 11
0.0000000000000001
 21
1.0
 31
0.0
 73
     1
 44
1.0
1001
ACAD
1000
MTEXTBEGIN
1070
    73
1070
     1
1070
    44
1040
1.0
1070
    74
1070
     0
1000
MTEXTEND
  0
POINT
  5
4BDD8
330
4BB15
100
AcDbEntity
  8
Defpoints
 62
     0
100
AcDbPoint
 10
3725.44904671386
 20
-2832.583258774066
 30
0.0
  0
POINT
  5
4BDD9
330
4BB15
100
AcDbEntity
  8
Defpoints
 62
     0
100
AcDbPoint
 10
3725.44904671386
 20
-2806.583258774066
 30
0.0
  0
POINT
  5
4BDDA
330
4BB15
100
AcDbEntity
  8
Defpoints
 62
     0
100
AcDbPoint
 10
3714.049046713859
 20
-2806.583258774066
 30
0.0
  0
ENDBLK
  5
4BB20
330
4BB15
100
AcDbEntity
  8
0
100
AcDbBlockEnd
  0
BLOCK
  5
4BB2B
330
4BB21
100
AcDbEntity
  8
0
100
AcDbBlockBegin
  2
*D86
 70
     1
 10
0.0
 20
0.0
 30
0.0
  3
*D86
  1

  0
LINE
  5
4BDDB
330
4BB21
100
AcDbEntity
  8
AM_5
100
AcDbLine
 10
3724.44904671386
 20
-2832.583258774066
 30
0.0
 11
3713.049046713859
 21
-2832.583258774066
 31
0.0
  0
LINE
  5
4BDDC
330
4BB21
100
AcDbEntity
  8
AM_5
100
AcDbLine
 10
3724.44904671386
 20
-2858.583258774066
 30
0.0
 11
3713.049046713859
 21
-2858.583258774066
 31
0.0
  0
LINE
  5
4BDDD
330
4BB21
100
AcDbEntity
  8
AM_5
100
AcDbLine
 10
3714.049046713859
 20
-2833.583258774066
 30
0.0
 11
3714.049046713859
 21
-2857.583258774066
 31
0.0
  0
INSERT
  5
4BDDE
330
4BB21
100
AcDbEntity
  8
AM_5
100
AcDbBlockReference
  2
_Dot
 10
3714.049046713859
 20
-2832.583258774066
 30
0.0
 50
90.0
  0
INSERT
  5
4BDDF
330
4BB21
100
AcDbEntity
  8
AM_5
100
AcDbBlockReference
  2
_Dot
 10
3714.049046713859
 20
-2858.583258774066
 30
0.0
 50
270.0
  0
MTEXT
  5
4BDE0
330
4BB21
100
AcDbEntity
  8
AM_5
 62
     2
100
AcDbMText
 10
3711.449046713859
 20
-2845.583258774066
 30
0.0
 40
3.2
 41
0.0
 71
     5
 72
     1
  1
D
 11
0.0000000000000001
 21
1.0
 31
0.0
 73
     1
 44
1.0
1001
ACAD
1000
MTEXTBEGIN
1070
    73
1070
     1
1070
    44
1040
1.0
1070
    74
1070
     0
1000
MTEXTEND
  0
POINT
  5
4BDE1
330
4BB21
100
AcDbEntity
  8
Defpoints
 62
     0
100
AcDbPoint
 10
3725.44904671386
 20
-2832.583258774066
 30
0.0
  0
POINT
  5
4BDE2
330
4BB21
100
AcDbEntity
  8
Defpoints
 62
     0
100
AcDbPoint
 10
3725.44904671386
 20
-2858.583258774066
 30
0.0
  0
POINT
  5
4BDE3
330
4BB21
100
AcDbEntity
  8
Defpoints
 62
     0
100
AcDbPoint
 10
3714.049046713859
 20
-2858.583258774066
 30
0.0
  0
ENDBLK
  5
4BB2C
330
4BB21
100
AcDbEntity
  8
0
100
AcDbBlockEnd
  0
BLOCK
  5
4BB37
330
4BB2D
100
AcDbEntity
  8
0
100
AcDbBlockBegin
  2
*D87
 70
     1
 10
0.0
 20
0.0
 30
0.0
  3
*D87
  1

  0
LINE
  5
4BDE4
330
4BB2D
100
AcDbEntity
  8
AM_5
100
AcDbLine
 10
3724.44904671386
 20
-2858.583258774066
 30
0.0
 11
3713.049046713859
 21
-2858.583258774066
 31
0.0
  0
LINE
  5
4BDE5
330
4BB2D
100
AcDbEntity
  8
AM_5
100
AcDbLine
 10
3724.44904671386
 20
-2884.583258774066
 30
0.0
 11
3713.049046713859
 21
-2884.583258774066
 31
0.0
  0
LINE
  5
4BDE6
330
4BB2D
100
AcDbEntity
  8
AM_5
100
AcDbLine
 10
3714.049046713859
 20
-2859.583258774066
 30
0.0
 11
3714.049046713859
 21
-2883.583258774066
 31
0.0
  0
INSERT
  5
4BDE7
330
4BB2D
100
AcDbEntity
  8
AM_5
100
AcDbBlockReference
  2
_Dot
 10
3714.049046713859
 20
-2858.583258774066
 30
0.0
 50
90.0
  0
INSERT
  5
4BDE8
330
4BB2D
100
AcDbEntity
  8
AM_5
100
AcDbBlockReference
  2
_Dot
 10
3714.049046713859
 20
-2884.583258774066
 30
0.0
 50
270.0
  0
MTEXT
  5
4BDE9
330
4BB2D
100
AcDbEntity
  8
AM_5
 62
     2
100
AcDbMText
 10
3711.449046713859
 20
-2871.583258774066
 30
0.0
 40
3.2
 41
0.0
 71
     5
 72
     1
  1
E
 11
0.0000000000000001
 21
1.0
 31
0.0
 73
     1
 44
1.0
1001
ACAD
1000
MTEXTBEGIN
1070
    73
1070
     1
1070
    44
1040
1.0
1070
    74
1070
     0
1000
MTEXTEND
  0
POINT
  5
4BDEA
330
4BB2D
100
AcDbEntity
  8
Defpoints
 62
     0
100
AcDbPoint
 10
3725.44904671386
 20
-2858.583258774066
 30
0.0
  0
POINT
  5
4BDEB
330
4BB2D
100
AcDbEntity
  8
Defpoints
 62
     0
100
AcDbPoint
 10
3725.44904671386
 20
-2884.583258774066
 30
0.0
  0
POINT
  5
4BDEC
330
4BB2D
100
AcDbEntity
  8
Defpoints
 62
     0
100
AcDbPoint
 10
3714.049046713859
 20
-2884.583258774066
 30
0.0
  0
ENDBLK
  5
4BB38
330
4BB2D
100
AcDbEntity
  8
0
100
AcDbBlockEnd
  0
BLOCK
  5
4BB44
330
4BB39
100
AcDbEntity
  8
0
100
AcDbBlockBegin
  2
*D88
 70
     1
 10
0.0
 20
0.0
 30
0.0
  3
*D88
  1

  0
LINE
  5
4BDED
330
4BB39
100
AcDbEntity
  8
AM_5
100
AcDbLine
 10
3734.79904671386
 20
-2936.575363068747
 30
0.0
 11
3734.79904671386
 21
-2917.325363068747
 31
0.0
  0
LINE
  5
4BDEE
330
4BB39
100
AcDbEntity
  8
AM_5
100
AcDbLine
 10
3741.299046713859
 20
-2936.575363068747
 30
0.0
 11
3741.299046713859
 21
-2917.325363068747
 31
0.0
  0
LINE
  5
4BDEF
330
4BB39
100
AcDbEntity
  8
AM_5
100
AcDbLine
 10
3735.799046713859
 20
-2918.325363068747
 30
0.0
 11
3740.29904671386
 21
-2918.325363068747
 31
0.0
  0
LINE
  5
4BDF0
330
4BB39
100
AcDbEntity
  8
AM_5
100
AcDbLine
 10
3741.299046713859
 20
-2918.325363068747
 30
0.0
 11
3753.749713380526
 21
-2918.325363068747
 31
0.0
  0
INSERT
  5
4BDF1
330
4BB39
100
AcDbEntity
  8
AM_5
100
AcDbBlockReference
  2
_Dot
 10
3734.79904671386
 20
-2918.325363068747
 30
0.0
 50
180.0
  0
INSERT
  5
4BDF2
330
4BB39
100
AcDbEntity
  8
AM_5
100
AcDbBlockReference
  2
_Dot
 10
3741.299046713859
 20
-2918.325363068747
 30
0.0
  0
MTEXT
  5
4BDF3
330
4BB39
100
AcDbEntity
  8
AM_5
 62
     2
100
AcDbMText
 10
3748.024380047193
 20
-2915.725363068747
 30
0.0
 40
3.2
 41
0.0
 71
     5
 72
     1
  1
（%%c6.5）
 73
     1
 44
1.0
1001
ACAD
1000
MTEXTBEGIN
1070
    73
1070
     1
1070
    44
1040
1.0
1070
    74
1070
     0
1000
MTEXTEND
  0
POINT
  5
4BDF4
330
4BB39
100
AcDbEntity
  8
Defpoints
 62
     0
100
AcDbPoint
 10
3734.79904671386
 20
-2937.575363068747
 30
0.0
  0
POINT
  5
4BDF5
330
4BB39
100
AcDbEntity
  8
Defpoints
 62
     0
100
AcDbPoint
 10
3741.299046713859
 20
-2937.575363068747
 30
0.0
  0
POINT
  5
4BDF6
330
4BB39
100
AcDbEntity
  8
Defpoints
 62
     0
100
AcDbPoint
 10
3741.299046713859
 20
-2918.325363068747
 30
0.0
  0
ENDBLK
  5
4BB45
330
4BB39
100
AcDbEntity
  8
0
100
AcDbBlockEnd
  0
BLOCK
  5
4BB52
330
4BB46
100
AcDbEntity
  8
0
100
AcDbBlockBegin
  2
*D89
 70
     1
 10
0.0
 20
0.0
 30
0.0
  3
*D89
  1

  0
LINE
  5
4BDF7
330
4BB46
100
AcDbEntity
  8
AM_5
100
AcDbLine
 10
3736.54904671386
 20
-2936.575363068747
 30
0.0
 11
3736.54904671386
 21
-2925.325363068747
 31
0.0
  0
LINE
  5
4BDF8
330
4BB46
100
AcDbEntity
  8
AM_5
100
AcDbLine
 10
3739.54904671386
 20
-2936.575363068747
 30
0.0
 11
3739.54904671386
 21
-2925.325363068747
 31
0.0
  0
LINE
  5
4BDF9
330
4BB46
100
AcDbEntity
  8
AM_5
100
AcDbLine
 10
3735.54904671386
 20
-2926.325363068747
 30
0.0
 11
3734.54904671386
 21
-2926.325363068747
 31
0.0
  0
LINE
  5
4BDFA
330
4BB46
100
AcDbEntity
  8
AM_5
100
AcDbLine
 10
3740.549046713859
 20
-2926.325363068747
 30
0.0
 11
3747.24271950088
 21
-2926.325363068747
 31
0.0
  0
LINE
  5
4BDFB
330
4BB46
100
AcDbEntity
  8
AM_5
100
AcDbLine
 10
3736.54904671386
 20
-2926.325363068747
 30
0.0
 11
3739.54904671386
 21
-2926.325363068747
 31
0.0
  0
INSERT
  5
4BDFC
330
4BB46
100
AcDbEntity
  8
AM_5
100
AcDbBlockReference
  2
_Dot
 10
3736.54904671386
 20
-2926.325363068747
 30
0.0
  0
INSERT
  5
4BDFD
330
4BB46
100
AcDbEntity
  8
AM_5
100
AcDbBlockReference
  2
_Dot
 10
3739.54904671386
 20
-2926.325363068747
 30
0.0
 50
180.0
  0
MTEXT
  5
4BDFE
330
4BB46
100
AcDbEntity
  8
AM_5
 62
     2
100
AcDbMText
 10
3744.482719500881
 20
-2923.725363068747
 30
0.0
 40
3.2
 41
0.0
 71
     5
 72
     1
  1
%%c3
 73
     1
 44
1.0
1001
ACAD
1000
MTEXTBEGIN
1070
    73
1070
     1
1070
    44
1040
1.0
1070
    74
1070
     0
1000
MTEXTEND
  0
POINT
  5
4BDFF
330
4BB46
100
AcDbEntity
  8
Defpoints
 62
     0
100
AcDbPoint
 10
3736.54904671386
 20
-2937.575363068747
 30
0.0
  0
POINT
  5
4BE00
330
4BB46
100
AcDbEntity
  8
Defpoints
 62
     0
100
AcDbPoint
 10
3739.54904671386
 20
-2937.575363068747
 30
0.0
  0
POINT
  5
4BE01
330
4BB46
100
AcDbEntity
  8
Defpoints
 62
     0
100
AcDbPoint
 10
3739.54904671386
 20
-2926.325363068747
 30
0.0
  0
ENDBLK
  5
4BB53
330
4BB46
100
AcDbEntity
  8
0
100
AcDbBlockEnd
  0
BLOCK
  5
4BB60
330
4BB54
100
AcDbEntity
  8
0
100
AcDbBlockBegin
  2
*D90
 70
     1
 10
0.0
 20
0.0
 30
0.0
  3
*D90
  1

  0
LINE
  5
4BE02
330
4BB54
100
AcDbEntity
  8
AM_5
100
AcDbLine
 10
3721.049046713859
 20
-2940.825363068747
 30
0.0
 11
3713.049046713855
 21
-2940.825363068747
 31
0.0
  0
LINE
  5
4BE03
330
4BB54
100
AcDbEntity
  8
AM_5
100
AcDbLine
 10
3721.049046713859
 20
-2939.325363068747
 30
0.0
 11
3713.049046713855
 21
-2939.325363068747
 31
0.0
  0
LINE
  5
4BE04
330
4BB54
100
AcDbEntity
  8
AM_5
100
AcDbLine
 10
3714.049046713855
 20
-2938.325363068747
 30
0.0
 11
3714.049046713855
 21
-2937.325363068747
 31
0.0
  0
LINE
  5
4BE05
330
4BB54
100
AcDbEntity
  8
AM_5
100
AcDbLine
 10
3714.049046713855
 20
-2941.825363068747
 30
0.0
 11
3714.049046713855
 21
-2946.318696402081
 31
0.0
  0
LINE
  5
4BE06
330
4BB54
100
AcDbEntity
  8
AM_5
100
AcDbLine
 10
3714.049046713855
 20
-2939.325363068747
 30
0.0
 11
3714.049046713855
 21
-2940.825363068747
 31
0.0
  0
INSERT
  5
4BE07
330
4BB54
100
AcDbEntity
  8
AM_5
100
AcDbBlockReference
  2
_Dot
 10
3714.049046713855
 20
-2939.325363068747
 30
0.0
 50
270.0
  0
INSERT
  5
4BE08
330
4BB54
100
AcDbEntity
  8
AM_5
100
AcDbBlockReference
  2
_Dot
 10
3714.049046713855
 20
-2940.825363068747
 30
0.0
 50
90.0
  0
MTEXT
  5
4BE09
330
4BB54
100
AcDbEntity
  8
AM_5
 62
     2
100
AcDbMText
 10
3711.449046713855
 20
-2944.572029735413
 30
0.0
 40
3.2
 41
0.0
 71
     5
 72
     1
  1
B
 11
0.0000000000000001
 21
1.0
 31
0.0
 73
     1
 44
1.0
1001
ACAD
1000
MTEXTBEGIN
1070
    73
1070
     1
1070
    44
1040
1.0
1070
    74
1070
     0
1000
MTEXTEND
  0
POINT
  5
4BE0A
330
4BB54
100
AcDbEntity
  8
Defpoints
 62
     0
100
AcDbPoint
 10
3722.04904671386
 20
-2940.825363068747
 30
0.0
  0
POINT
  5
4BE0B
330
4BB54
100
AcDbEntity
  8
Defpoints
 62
     0
100
AcDbPoint
 10
3722.04904671386
 20
-2939.325363068747
 30
0.0
  0
POINT
  5
4BE0C
330
4BB54
100
AcDbEntity
  8
Defpoints
 62
     0
100
AcDbPoint
 10
3714.049046713855
 20
-2939.325363068747
 30
0.0
  0
ENDBLK
  5
4BB61
330
4BB54
100
AcDbEntity
  8
0
100
AcDbBlockEnd
  0
ENDSEC
  0
SECTION
  2
ENTITIES
  0
LINE
  5
4AB84
330
1F
100
AcDbEntity
  8
size
100
AcDbLine
 10
3469.541682528135
 20
-2996.062708385174
 30
0.0
 11
3889.541682528135
 21
-2996.062708385174
 31
0.0
1001
GENIUS_GENREC_14
1002
{
1000
PYDIR
1011
3469.541682528135
1021
-2699.062708385174
1031
0.0
1002
}
1002
{
1000
PXDIR
1011
3889.541682528135
1021
-2996.062708385174
1031
0.0
1002
}
1002
{
1000
PORI
1011
3469.541682528135
1021
-2996.062708385174
1031
0.0
1002
}
1002
{
1000
PINS
1011
3679.541682528134
1021
-2847.562708385174
1031
0.0
1002
}
1002
{
1000
HVAL
1000
297
1002
}
1002
{
1000
H
1070
     2
1002
}
1002
{
1000
WVAL
1000
420
1002
}
1002
{
1000
W
1070
     2
1002
}
1002
{
1000
C
1070
     4
1002
}
1001
GENIUS_GENOBJ-N-REC_13
1002
{
1000
OWNER
1000
GEN
1002
}
1001
GENIUS_GENODEF_13
1002
{
1000
HIER
1070
     0
1002
}
1002
{
1000
MANEDIT
1070
     0
1002
}
1002
{
1000
NOSEL
1070
     0
1002
}
1002
{
1000
BEHIND
1070
     0
1002
}
1002
{
1000
OTHER
1070
     0
1002
}
1002
{
1000
REACTOR
1002
}
  0
LINE
  5
4AB85
330
1F
100
AcDbEntity
  8
size
100
AcDbLine
 10
3889.541682528135
 20
-2996.062708385174
 30
0.0
 11
3889.541682528135
 21
-2699.062708385174
 31
0.0
1001
GENIUS_GENREC_14
1002
{
1000
PYDIR
1011
3469.541682528135
1021
-2699.062708385174
1031
0.0
1002
}
1002
{
1000
PXDIR
1011
3889.541682528135
1021
-2996.062708385174
1031
0.0
1002
}
1002
{
1000
PORI
1011
3469.541682528135
1021
-2996.062708385174
1031
0.0
1002
}
1002
{
1000
PINS
1011
3679.541682528134
1021
-2847.562708385174
1031
0.0
1002
}
1002
{
1000
HVAL
1000
297
1002
}
1002
{
1000
H
1070
     2
1002
}
1002
{
1000
WVAL
1000
420
1002
}
1002
{
1000
W
1070
     2
1002
}
1002
{
1000
C
1070
     4
1002
}
1001
GENIUS_GENOBJ-N-REC_13
1002
{
1000
OWNER
1000
GEN
1002
}
1001
GENIUS_GENODEF_13
1002
{
1000
HIER
1070
     0
1002
}
1002
{
1000
MANEDIT
1070
     0
1002
}
1002
{
1000
NOSEL
1070
     0
1002
}
1002
{
1000
BEHIND
1070
     0
1002
}
1002
{
1000
OTHER
1070
     0
1002
}
1002
{
1000
REACTOR
1002
}
  0
LINE
  5
4AB86
330
1F
100
AcDbEntity
  8
size
100
AcDbLine
 10
3889.541682528135
 20
-2699.062708385174
 30
0.0
 11
3469.541682528135
 21
-2699.062708385174
 31
0.0
1001
GENIUS_GENREC_14
1002
{
1000
PYDIR
1011
3469.541682528135
1021
-2699.062708385174
1031
0.0
1002
}
1002
{
1000
PXDIR
1011
3889.541682528135
1021
-2996.062708385174
1031
0.0
1002
}
1002
{
1000
PORI
1011
3469.541682528135
1021
-2996.062708385174
1031
0.0
1002
}
1002
{
1000
PINS
1011
3679.541682528134
1021
-2847.562708385174
1031
0.0
1002
}
1002
{
1000
HVAL
1000
297
1002
}
1002
{
1000
H
1070
     2
1002
}
1002
{
1000
WVAL
1000
420
1002
}
1002
{
1000
W
1070
     2
1002
}
1002
{
1000
C
1070
     4
1002
}
1001
GENIUS_GENOBJ-N-REC_13
1002
{
1000
OWNER
1000
GEN
1002
}
1001
GENIUS_GENODEF_13
1002
{
1000
HIER
1070
     0
1002
}
1002
{
1000
MANEDIT
1070
     0
1002
}
1002
{
1000
NOSEL
1070
     0
1002
}
1002
{
1000
BEHIND
1070
     0
1002
}
1002
{
1000
OTHER
1070
     0
1002
}
1002
{
1000
REACTOR
1002
}
  0
LINE
  5
4AB87
330
1F
100
AcDbEntity
  8
size
100
AcDbLine
 10
3469.541682528135
 20
-2699.062708385174
 30
0.0
 11
3469.541682528135
 21
-2996.062708385174
 31
0.0
1001
GENIUS_GENREC_14
1002
{
1000
PYDIR
1011
3469.541682528135
1021
-2699.062708385174
1031
0.0
1002
}
1002
{
1000
PXDIR
1011
3889.541682528135
1021
-2996.062708385174
1031
0.0
1002
}
1002
{
1000
PORI
1011
3469.541682528135
1021
-2996.062708385174
1031
0.0
1002
}
1002
{
1000
PINS
1011
3679.541682528134
1021
-2847.562708385174
1031
0.0
1002
}
1002
{
1000
HVAL
1000
297
1002
}
1002
{
1000
H
1070
     2
1002
}
1002
{
1000
WVAL
1000
420
1002
}
1002
{
1000
W
1070
     2
1002
}
1002
{
1000
C
1070
     4
1002
}
1001
GENIUS_GENOBJ-N-REC_13
1002
{
1000
OWNER
1000
GEN
1002
}
1001
GENIUS_GENODEF_13
1002
{
1000
HIER
1070
     0
1002
}
1002
{
1000
MANEDIT
1070
     0
1002
}
1002
{
1000
NOSEL
1070
     0
1002
}
1002
{
1000
BEHIND
1070
     0
1002
}
1002
{
1000
OTHER
1070
     0
1002
}
1002
{
1000
REACTOR
1002
}
  0
LINE
  5
4AB88
330
1F
100
AcDbEntity
  8
waku
100
AcDbLine
 10
3878.041682528134
 20
-2987.562708385175
 30
0.0
 11
3878.041682528134
 21
-2707.562708385174
 31
0.0
1001
GENIUS_GENREC_14
1002
{
1000
PYDIR
1011
3469.541682528135
1021
-2699.062708385174
1031
0.0
1002
}
1002
{
1000
PXDIR
1011
3889.541682528135
1021
-2996.062708385174
1031
0.0
1002
}
1002
{
1000
PORI
1011
3469.541682528135
1021
-2996.062708385174
1031
0.0
1002
}
1002
{
1000
PINS
1011
3679.541682528134
1021
-2847.562708385174
1031
0.0
1002
}
1002
{
1000
HVAL
1000
297
1002
}
1002
{
1000
H
1070
     2
1002
}
1002
{
1000
WVAL
1000
420
1002
}
1002
{
1000
W
1070
     2
1002
}
1002
{
1000
C
1070
     4
1002
}
1001
GENIUS_GENOBJ-N-REC_13
1002
{
1000
OWNER
1000
GEN
1002
}
1001
GENIUS_GENODEF_13
1002
{
1000
HIER
1070
     0
1002
}
1002
{
1000
MANEDIT
1070
     0
1002
}
1002
{
1000
NOSEL
1070
     0
1002
}
1002
{
1000
BEHIND
1070
     0
1002
}
1002
{
1000
OTHER
1070
     0
1002
}
1002
{
1000
REACTOR
1002
}
  0
LINE
  5
4AB89
330
1F
100
AcDbEntity
  8
waku
100
AcDbLine
 10
3481.041682528135
 20
-2707.562708385174
 30
0.0
 11
3481.041682528135
 21
-2987.562708385173
 31
0.0
1001
GENIUS_GENREC_14
1002
{
1000
PYDIR
1011
3469.541682528135
1021
-2699.062708385174
1031
0.0
1002
}
1002
{
1000
PXDIR
1011
3889.541682528135
1021
-2996.062708385174
1031
0.0
1002
}
1002
{
1000
PORI
1011
3469.541682528135
1021
-2996.062708385174
1031
0.0
1002
}
1002
{
1000
PINS
1011
3679.541682528134
1021
-2847.562708385174
1031
0.0
1002
}
1002
{
1000
HVAL
1000
297
1002
}
1002
{
1000
H
1070
     2
1002
}
1002
{
1000
WVAL
1000
420
1002
}
1002
{
1000
W
1070
     2
1002
}
1002
{
1000
C
1070
     4
1002
}
1001
GENIUS_GENOBJ-N-REC_13
1002
{
1000
OWNER
1000
GEN
1002
}
1001
GENIUS_GENODEF_13
1002
{
1000
HIER
1070
     0
1002
}
1002
{
1000
MANEDIT
1070
     0
1002
}
1002
{
1000
NOSEL
1070
     0
1002
}
1002
{
1000
BEHIND
1070
     0
1002
}
1002
{
1000
OTHER
1070
     0
1002
}
1002
{
1000
REACTOR
1002
}
  0
LINE
  5
4AB8A
330
1F
100
AcDbEntity
  8
waku
100
AcDbLine
 10
3878.041682528134
 20
-2707.562708385174
 30
0.0
 11
3481.041682528135
 21
-2707.562708385174
 31
0.0
1001
GENIUS_GENREC_14
1002
{
1000
PYDIR
1011
3469.541682528135
1021
-2699.062708385174
1031
0.0
1002
}
1002
{
1000
PXDIR
1011
3889.541682528135
1021
-2996.062708385174
1031
0.0
1002
}
1002
{
1000
PORI
1011
3469.541682528135
1021
-2996.062708385174
1031
0.0
1002
}
1002
{
1000
PINS
1011
3679.541682528134
1021
-2847.562708385174
1031
0.0
1002
}
1002
{
1000
HVAL
1000
297
1002
}
1002
{
1000
H
1070
     2
1002
}
1002
{
1000
WVAL
1000
420
1002
}
1002
{
1000
W
1070
     2
1002
}
1002
{
1000
C
1070
     4
1002
}
1001
GENIUS_GENOBJ-N-REC_13
1002
{
1000
OWNER
1000
GEN
1002
}
1001
GENIUS_GENODEF_13
1002
{
1000
HIER
1070
     0
1002
}
1002
{
1000
MANEDIT
1070
     0
1002
}
1002
{
1000
NOSEL
1070
     0
1002
}
1002
{
1000
BEHIND
1070
     0
1002
}
1002
{
1000
OTHER
1070
     0
1002
}
1002
{
1000
REACTOR
1002
}
  0
LINE
  5
4AB8B
330
1F
100
AcDbEntity
  8
waku
100
AcDbLine
 10
3481.041682528135
 20
-2987.562708385175
 30
0.0
 11
3878.041682528134
 21
-2987.562708385175
 31
0.0
  0
LINE
  5
4AD8A
330
1F
100
AcDbEntity
  8
AM_0
100
AcDbLine
 10
3660.216682528134
 20
-2987.562708385175
 30
0.0
 11
3481.041682528135
 21
-2987.562708385171
 31
0.0
  0
LINE
  5
4AD8B
330
1F
100
AcDbEntity
  8
AM_0
100
AcDbLine
 10
3660.21668252815
 20
-2907.562708385174
 30
0.0
 11
3481.04168252815
 21
-2907.56270838516
 31
0.0
  0
LINE
  5
4AD8C
330
1F
100
AcDbEntity
  8
AM_4
100
AcDbLine
 10
3660.216682528149
 20
-2915.562708385169
 30
0.0
 11
3609.216682528148
 21
-2915.562708385169
 31
0.0
  0
LINE
  5
4AD8D
330
1F
100
AcDbEntity
  8
AM_4
100
AcDbLine
 10
3579.216682528148
 20
-2915.562708385169
 30
0.0
 11
3481.041682528149
 21
-2915.562708385165
 31
0.0
  0
LINE
  5
4AD8E
330
1F
100
AcDbEntity
  8
AM_4
100
AcDbLine
 10
3660.216682528147
 20
-2923.562708385169
 30
0.0
 11
3609.216682528147
 21
-2923.562708385167
 31
0.0
  0
LINE
  5
4AD8F
330
1F
100
AcDbEntity
  8
AM_4
100
AcDbLine
 10
3579.216682528147
 20
-2923.562708385167
 30
0.0
 11
3481.041682528147
 21
-2923.562708385165
 31
0.0
  0
LINE
  5
4AD90
330
1F
100
AcDbEntity
  8
AM_4
100
AcDbLine
 10
3660.216682528145
 20
-2931.562708385167
 30
0.0
 11
3609.216682528145
 21
-2931.562708385165
 31
0.0
  0
LINE
  5
4AD91
330
1F
100
AcDbEntity
  8
AM_4
100
AcDbLine
 10
3579.216682528146
 20
-2931.562708385165
 30
0.0
 11
3481.041682528146
 21
-2931.56270838516
 31
0.0
  0
MTEXT
  5
4AD92
330
1F
100
AcDbEntity
  8
AM_6
100
AcDbMText
 10
3574.116682528153
 20
-2898.637708385168
 30
0.0
 40
3.2
 41
10.20000000000162
 71
     5
 72
     5
  1
A
 73
     1
 44
1.0
1001
ACAD
1000
MTEXTBEGIN
1070
    73
1070
     1
1070
    44
1040
1.0
1070
    74
1070
     0
1000
MTEXTEND
1000
ACAD_MTEXT_DEFINED_HEIGHT_BEGIN
1070
    46
1040
17.85000000000509
1000
ACAD_MTEXT_DEFINED_HEIGHT_END
  0
MTEXT
  5
4AD93
330
1F
100
AcDbEntity
  8
AM_6
100
AcDbMText
 10
3525.029182528153
 20
-2911.581458385161
 30
0.0
 40
3.2
 41
29.32500000000008
 71
     5
 72
     5
  1
DEH-21S-1
 73
     1
 44
1.0
1001
ACAD
1000
MTEXTBEGIN
1070
    73
1070
     1
1070
    44
1040
1.0
1070
    74
1070
     0
1000
MTEXTEND
1000
ACAD_MTEXT_DEFINED_HEIGHT_BEGIN
1070
    46
1040
8.037499999991338
1000
ACAD_MTEXT_DEFINED_HEIGHT_END
  0
MTEXT
  5
4AD94
330
1F
100
AcDbEntity
  8
AM_6
100
AcDbMText
 10
3586.716682528154
 20
-2903.562708385175
 30
0.0
 40
3.2
 41
15.00000000000034
 71
     5
 72
     5
  1
スチール
 73
     1
 44
1.0
1001
ACAD
1000
MTEXTBEGIN
1070
    73
1070
     1
1070
    44
1040
1.0
1070
    74
1070
     0
1000
MTEXTEND
1000
ACAD_MTEXT_DEFINED_HEIGHT_BEGIN
1070
    46
1040
7.999999999991995
1000
ACAD_MTEXT_DEFINED_HEIGHT_END
  0
MTEXT
  5
4AD95
330
1F
100
AcDbEntity
  8
AM_6
100
AcDbMText
 10
3574.116682528146
 20
-2927.581458385171
 30
0.0
 40
3.2
 41
10.20000000000016
 71
     5
 72
     5
  1
40
 73
     1
 44
1.0
1001
ACAD
1000
MTEXTBEGIN
1070
    73
1070
     1
1070
    44
1040
1.0
1070
    74
1070
     0
1000
MTEXTEND
1000
ACAD_MTEXT_DEFINED_HEIGHT_BEGIN
1070
    46
1040
8.037499999972579
1000
ACAD_MTEXT_DEFINED_HEIGHT_END
  0
MTEXT
  5
4AD96
330
1F
100
AcDbEntity
  8
AM_6
100
AcDbMText
 10
3574.116682528152
 20
-2919.581458385166
 30
0.0
 40
3.2
 41
10.20000000000018
 71
     5
 72
     5
  1
30
 73
     1
 44
1.0
1001
ACAD
1000
MTEXTBEGIN
1070
    73
1070
     1
1070
    44
1040
1.0
1070
    74
1070
     0
1000
MTEXTEND
1000
ACAD_MTEXT_DEFINED_HEIGHT_BEGIN
1070
    46
1040
8.037499999995999
1000
ACAD_MTEXT_DEFINED_HEIGHT_END
  0
MTEXT
  5
4AD97
330
1F
100
AcDbEntity
  8
AM_6
100
AcDbMText
 10
3574.116682528152
 20
-2911.581458385166
 30
0.0
 40
3.2
 41
10.20000000000008
 71
     5
 72
     5
  1
25
 73
     1
 44
1.0
1001
ACAD
1000
MTEXTBEGIN
1070
    73
1070
     1
1070
    44
1040
1.0
1070
    74
1070
     0
1000
MTEXTEND
1000
ACAD_MTEXT_DEFINED_HEIGHT_BEGIN
1070
    46
1040
8.037499999999637
1000
ACAD_MTEXT_DEFINED_HEIGHT_END
  0
MTEXT
  5
4AD98
330
1F
100
AcDbEntity
  8
AM_6
100
AcDbMText
 10
3586.716682528151
 20
-2947.56270838517
 30
0.0
 40
3.2
 41
15.00000000000182
 71
     5
 72
     5
  1
1.6
 73
     1
 44
1.0
1001
ACAD
1000
MTEXTBEGIN
1070
    73
1070
     1
1070
    44
1040
1.0
1070
    74
1070
     0
1000
MTEXTEND
1000
ACAD_MTEXT_DEFINED_HEIGHT_BEGIN
1070
    46
1040
80.00000000000291
1000
ACAD_MTEXT_DEFINED_HEIGHT_END
  0
MTEXT
  5
4AD99
330
1F
100
AcDbEntity
  8
AM_6
100
AcDbMText
 10
3614.316682528153
 20
-2898.637708385169
 30
0.0
 40
3.2
 41
10.20000000000179
 71
     5
 72
     5
  1
C
 73
     1
 44
1.0
1001
ACAD
1000
MTEXTBEGIN
1070
    73
1070
     1
1070
    44
1040
1.0
1070
    74
1070
     0
1000
MTEXTEND
1000
ACAD_MTEXT_DEFINED_HEIGHT_BEGIN
1070
    46
1040
17.85000000000145
1000
ACAD_MTEXT_DEFINED_HEIGHT_END
  0
LINE
  5
4AD9A
330
1F
100
AcDbEntity
  8
AM_4
100
AcDbLine
 10
3660.216682528144
 20
-2939.562708385174
 30
0.0
 11
3609.216682528143
 21
-2939.562708385176
 31
0.0
  0
LINE
  5
4AD9B
330
1F
100
AcDbEntity
  8
AM_4
100
AcDbLine
 10
3579.216682528143
 20
-2939.562708385176
 30
0.0
 11
3481.041682528144
 21
-2939.562708385174
 31
0.0
  0
LINE
  5
4AD9C
330
1F
100
AcDbEntity
  8
AM_4
100
AcDbLine
 10
3660.216682528143
 20
-2947.562708385167
 30
0.0
 11
3609.216682528142
 21
-2947.562708385167
 31
0.0
  0
LINE
  5
4AD9D
330
1F
100
AcDbEntity
  8
AM_4
100
AcDbLine
 10
3579.216682528142
 20
-2947.562708385167
 30
0.0
 11
3481.041682528142
 21
-2947.562708385163
 31
0.0
  0
MTEXT
  5
4AD9E
330
1F
100
AcDbEntity
  8
AM_6
100
AcDbMText
 10
3624.516682528153
 20
-2898.637708385172
 30
0.0
 40
3.2
 41
10.19999999999834
 71
     5
 72
     5
  1
D
 73
     1
 44
1.0
1001
ACAD
1000
MTEXTBEGIN
1070
    73
1070
     1
1070
    44
1040
1.0
1070
    74
1070
     0
1000
MTEXTEND
1000
ACAD_MTEXT_DEFINED_HEIGHT_BEGIN
1070
    46
1040
17.85000000000145
1000
ACAD_MTEXT_DEFINED_HEIGHT_END
  0
MTEXT
  5
4AD9F
330
1F
100
AcDbEntity
  8
AM_6
100
AcDbMText
 10
3634.716682528151
 20
-2898.637708385168
 30
0.0
 40
3.2
 41
10.19999999999866
 71
     5
 72
     5
  1
E
 73
     1
 44
1.0
1001
ACAD
1000
MTEXTBEGIN
1070
    73
1070
     1
1070
    44
1040
1.0
1070
    74
1070
     0
1000
MTEXTEND
1000
ACAD_MTEXT_DEFINED_HEIGHT_BEGIN
1070
    46
1040
17.85000000000691
1000
ACAD_MTEXT_DEFINED_HEIGHT_END
  0
MTEXT
  5
4ADA0
330
1F
100
AcDbEntity
  8
AM_6
100
AcDbMText
 10
3644.916682528151
 20
-2898.637708385168
 30
0.0
 40
3.2
 41
10.20000000000179
 71
     5
 72
     5
  1
F
 73
     1
 44
1.0
1001
ACAD
1000
MTEXTBEGIN
1070
    73
1070
     1
1070
    44
1040
1.0
1070
    74
1070
     0
1000
MTEXTEND
1000
ACAD_MTEXT_DEFINED_HEIGHT_BEGIN
1070
    46
1040
17.85000000000691
1000
ACAD_MTEXT_DEFINED_HEIGHT_END
  0
MTEXT
  5
4ADA1
330
1F
100
AcDbEntity
  8
AM_6
100
AcDbMText
 10
3655.116682528151
 20
-2898.637708385169
 30
0.0
 40
3.2
 41
10.19999999999832
 71
     5
 72
     5
  1
G
 73
     1
 44
1.0
1001
ACAD
1000
MTEXTBEGIN
1070
    73
1070
     1
1070
    44
1040
1.0
1070
    74
1070
     0
1000
MTEXTEND
1000
ACAD_MTEXT_DEFINED_HEIGHT_BEGIN
1070
    46
1040
17.85000000000873
1000
ACAD_MTEXT_DEFINED_HEIGHT_END
  0
MTEXT
  5
4ADA2
330
1F
100
AcDbEntity
  8
AM_6
100
AcDbMText
 10
3525.02918252815
 20
-2919.581458385161
 30
0.0
 40
3.2
 41
29.3249999999969
 71
     5
 72
     5
  1
DEH-21S-2
 73
     1
 44
1.0
1001
ACAD
1000
MTEXTBEGIN
1070
    73
1070
     1
1070
    44
1040
1.0
1070
    74
1070
     0
1000
MTEXTEND
1000
ACAD_MTEXT_DEFINED_HEIGHT_BEGIN
1070
    46
1040
8.0374999999877
1000
ACAD_MTEXT_DEFINED_HEIGHT_END
  0
MTEXT
  5
4ADA3
330
1F
100
AcDbEntity
  8
AM_6
100
AcDbMText
 10
3525.029182528147
 20
-2927.581458385161
 30
0.0
 40
3.2
 41
29.32500000000062
 71
     5
 72
     5
  1
DEH-21S-3
 73
     1
 44
1.0
1001
ACAD
1000
MTEXTBEGIN
1070
    73
1070
     1
1070
    44
1040
1.0
1070
    74
1070
     0
1000
MTEXTEND
1000
ACAD_MTEXT_DEFINED_HEIGHT_BEGIN
1070
    46
1040
8.037499999985881
1000
ACAD_MTEXT_DEFINED_HEIGHT_END
  0
MTEXT
  5
4ADA4
330
1F
100
AcDbEntity
  8
AM_6
100
AcDbMText
 10
3525.029182528145
 20
-2935.543958385166
 30
0.0
 40
3.2
 41
29.32499999999999
 71
     5
 72
     5
  1
DEH-21S-4
 73
     1
 44
1.0
1001
ACAD
1000
MTEXTBEGIN
1070
    73
1070
     1
1070
    44
1040
1.0
1070
    74
1070
     0
1000
MTEXTEND
1000
ACAD_MTEXT_DEFINED_HEIGHT_BEGIN
1070
    46
1040
8.03750000002226
1000
ACAD_MTEXT_DEFINED_HEIGHT_END
  0
MTEXT
  5
4ADA5
330
1F
100
AcDbEntity
  8
AM_6
100
AcDbMText
 10
3525.029182528144
 20
-2943.562708385183
 30
0.0
 40
3.2
 41
29.32499999999998
 71
     5
 72
     5
  1
DEH-21S-5
 73
     1
 44
1.0
1001
ACAD
1000
MTEXTBEGIN
1070
    73
1070
     1
1070
    44
1040
1.0
1070
    74
1070
     0
1000
MTEXTEND
1000
ACAD_MTEXT_DEFINED_HEIGHT_BEGIN
1070
    46
1040
7.999999999989155
1000
ACAD_MTEXT_DEFINED_HEIGHT_END
  0
MTEXT
  5
4ADA6
330
1F
100
AcDbEntity
  8
AM_6
100
AcDbMText
 10
3574.116682528145
 20
-2935.543958385168
 30
0.0
 40
3.2
 41
10.1999999999979
 71
     5
 72
     5
  1
50
 73
     1
 44
1.0
1001
ACAD
1000
MTEXTBEGIN
1070
    73
1070
     1
1070
    44
1040
1.0
1070
    74
1070
     0
1000
MTEXTEND
1000
ACAD_MTEXT_DEFINED_HEIGHT_BEGIN
1070
    46
1040
8.037500000014416
1000
ACAD_MTEXT_DEFINED_HEIGHT_END
  0
MTEXT
  5
4ADA7
330
1F
100
AcDbEntity
  8
AM_6
100
AcDbMText
 10
3574.116682528143
 20
-2943.562708385173
 30
0.0
 40
3.2
 41
10.2000000000004
 71
     5
 72
     5
  1
60
 73
     1
 44
1.0
1001
ACAD
1000
MTEXTBEGIN
1070
    73
1070
     1
1070
    44
1040
1.0
1070
    74
1070
     0
1000
MTEXTEND
1000
ACAD_MTEXT_DEFINED_HEIGHT_BEGIN
1070
    46
1040
7.999999999990405
1000
ACAD_MTEXT_DEFINED_HEIGHT_END
  0
MTEXT
  5
4ADA8
330
1F
100
AcDbEntity
  8
AM_6
100
AcDbMText
 10
3601.71668252815
 20
-2947.562708385169
 30
0.0
 40
3.2
 41
15.00000000000003
 71
     5
 72
     5
  1
1.5
 73
     1
 44
1.0
1001
ACAD
1000
MTEXTBEGIN
1070
    73
1070
     1
1070
    44
1040
1.0
1070
    74
1070
     0
1000
MTEXTEND
1000
ACAD_MTEXT_DEFINED_HEIGHT_BEGIN
1070
    46
1040
79.99999999999928
1000
ACAD_MTEXT_DEFINED_HEIGHT_END
  0
LINE
  5
4ADA9
330
1F
100
AcDbEntity
  8
AM_4
100
AcDbLine
 10
3639.816682528146
 20
-2931.562708385167
 30
0.0
 11
3629.616682528143
 21
-2939.562708385176
 31
0.0
  0
LINE
  5
4ADAA
330
1F
100
AcDbEntity
  8
AM_4
100
AcDbLine
 10
3639.816682528144
 20
-2939.562708385178
 30
0.0
 11
3629.616682528143
 21
-2947.562708385165
 31
0.0
  0
LINE
  5
4ADAB
330
1F
100
AcDbEntity
  8
AM_4
100
AcDbLine
 10
3639.816682528151
 20
-2915.56270838517
 30
0.0
 11
3629.616682528152
 21
-2923.562708385169
 31
0.0
  0
LINE
  5
4ADAC
330
1F
100
AcDbEntity
  8
AM_4
100
AcDbLine
 10
3639.816682528151
 20
-2923.562708385171
 30
0.0
 11
3629.616682528145
 21
-2931.562708385165
 31
0.0
  0
LINE
  5
4ADAD
330
1F
100
AcDbEntity
  8
AM_4
100
AcDbLine
 10
3639.816682528151
 20
-2907.562708385174
 30
0.0
 11
3629.616682528151
 21
-2915.562708385169
 31
0.0
  0
LINE
  5
4ADAE
330
1F
100
AcDbEntity
  8
AM_4
100
AcDbLine
 10
3629.616682528146
 20
-2931.562708385167
 30
0.0
 11
3619.416682528143
 21
-2939.562708385176
 31
0.0
  0
LINE
  5
4ADAF
330
1F
100
AcDbEntity
  8
AM_4
100
AcDbLine
 10
3629.616682528152
 20
-2915.56270838517
 30
0.0
 11
3619.416682528151
 21
-2923.562708385169
 31
0.0
  0
LINE
  5
4ADB0
330
1F
100
AcDbEntity
  8
AM_4
100
AcDbLine
 10
3629.616682528151
 20
-2923.562708385171
 30
0.0
 11
3619.416682528146
 21
-2931.562708385165
 31
0.0
  0
LINE
  5
4ADB1
330
1F
100
AcDbEntity
  8
AM_4
100
AcDbLine
 10
3629.616682528151
 20
-2907.562708385174
 30
0.0
 11
3619.416682528151
 21
-2915.562708385169
 31
0.0
  0
LINE
  5
4ADB2
330
1F
100
AcDbEntity
  8
AM_4
100
AcDbLine
 10
3660.21668252814
 20
-2955.562708385169
 30
0.0
 11
3609.216682528141
 21
-2955.562708385167
 31
0.0
  0
LINE
  5
4ADB3
330
1F
100
AcDbEntity
  8
AM_4
100
AcDbLine
 10
3579.216682528141
 20
-2955.562708385167
 30
0.0
 11
3481.041682528141
 21
-2955.562708385165
 31
0.0
  0
LINE
  5
4ADB4
330
1F
100
AcDbEntity
  8
AM_4
100
AcDbLine
 10
3660.216682528139
 20
-2963.562708385178
 30
0.0
 11
3609.216682528138
 21
-2963.562708385174
 31
0.0
  0
LINE
  5
4ADB5
330
1F
100
AcDbEntity
  8
AM_4
100
AcDbLine
 10
3579.216682528139
 20
-2963.562708385174
 30
0.0
 11
3481.04168252814
 21
-2963.56270838517
 31
0.0
  0
LINE
  5
4ADB6
330
1F
100
AcDbEntity
  8
AM_4
100
AcDbLine
 10
3660.216682528137
 20
-2971.562708385169
 30
0.0
 11
3609.216682528137
 21
-2971.562708385167
 31
0.0
  0
LINE
  5
4ADB7
330
1F
100
AcDbEntity
  8
AM_4
100
AcDbLine
 10
3579.216682528137
 20
-2971.562708385167
 30
0.0
 11
3481.041682528137
 21
-2971.562708385163
 31
0.0
  0
MTEXT
  5
4ADB8
330
1F
100
AcDbEntity
  8
AM_6
100
AcDbMText
 10
3525.029182528145
 20
-2967.581458385159
 30
0.0
 40
3.2
 41
29.32500000000002
 71
     5
 72
     5
  1
DEH-21S-8
 73
     1
 44
1.0
1001
ACAD
1000
MTEXTBEGIN
1070
    73
1070
     1
1070
    44
1040
1.0
1070
    74
1070
     0
1000
MTEXTEND
1000
ACAD_MTEXT_DEFINED_HEIGHT_BEGIN
1070
    46
1040
7.962500000048818
1000
ACAD_MTEXT_DEFINED_HEIGHT_END
  0
MTEXT
  5
4ADB9
330
1F
100
AcDbEntity
  8
AM_6
100
AcDbMText
 10
3525.029182528145
 20
-2959.581458385168
 30
0.0
 40
3.2
 41
29.32500000000004
 71
     5
 72
     5
  1
DEH-21S-7
 73
     1
 44
1.0
1001
ACAD
1000
MTEXTBEGIN
1070
    73
1070
     1
1070
    44
1040
1.0
1070
    74
1070
     0
1000
MTEXTEND
1000
ACAD_MTEXT_DEFINED_HEIGHT_BEGIN
1070
    46
1040
7.96250000004518
1000
ACAD_MTEXT_DEFINED_HEIGHT_END
  0
MTEXT
  5
4ADBA
330
1F
100
AcDbEntity
  8
AM_6
100
AcDbMText
 10
3525.029182528145
 20
-2951.581458385161
 30
0.0
 40
3.2
 41
29.32500000000001
 71
     5
 72
     5
  1
DEH-21S-6
 73
     1
 44
1.0
1001
ACAD
1000
MTEXTBEGIN
1070
    73
1070
     1
1070
    44
1040
1.0
1070
    74
1070
     0
1000
MTEXTEND
1000
ACAD_MTEXT_DEFINED_HEIGHT_BEGIN
1070
    46
1040
7.962500000048818
1000
ACAD_MTEXT_DEFINED_HEIGHT_END
  0
LINE
  5
4ADBB
330
1F
100
AcDbEntity
  8
AM_4
100
AcDbLine
 10
3660.216682528135
 20
-2979.56270838518
 30
0.0
 11
3609.216682528135
 21
-2979.562708385178
 31
0.0
  0
LINE
  5
4ADBC
330
1F
100
AcDbEntity
  8
AM_4
100
AcDbLine
 10
3579.216682528135
 20
-2979.562708385178
 30
0.0
 11
3481.041682528136
 21
-2979.562708385176
 31
0.0
  0
MTEXT
  5
4ADBD
330
1F
100
AcDbEntity
  8
AM_6
100
AcDbMText
 10
3525.029182528129
 20
-2975.581458385171
 30
0.0
 40
3.2
 41
29.32500000000001
 71
     5
 72
     5
  1
DEH-21S-9
 73
     1
 44
1.0
1001
ACAD
1000
MTEXTBEGIN
1070
    73
1070
     1
1070
    44
1040
1.0
1070
    74
1070
     0
1000
MTEXTEND
1000
ACAD_MTEXT_DEFINED_HEIGHT_BEGIN
1070
    46
1040
7.962500000050637
1000
ACAD_MTEXT_DEFINED_HEIGHT_END
  0
MTEXT
  5
4ADBE
330
1F
100
AcDbEntity
  8
AM_6
100
AcDbMText
 10
3525.029182528113
 20
-2983.581458385168
 30
0.0
 40
3.2
 41
29.32500000002797
 71
     5
 72
     5
  1
DEH-21S-10
 73
     1
 44
1.0
1001
ACAD
1000
MTEXTBEGIN
1070
    73
1070
     1
1070
    44
1040
1.0
1070
    74
1070
     0
1000
MTEXTEND
1000
ACAD_MTEXT_DEFINED_HEIGHT_BEGIN
1070
    46
1040
7.962500000046999
1000
ACAD_MTEXT_DEFINED_HEIGHT_END
  0
LINE
  5
4ADBF
330
1F
100
AcDbEntity
  8
AM_4
100
AcDbLine
 10
3639.816682528157
 20
-2971.562708385167
 30
0.0
 11
3629.616682528155
 21
-2979.562708385176
 31
0.0
  0
LINE
  5
4ADC0
330
1F
100
AcDbEntity
  8
AM_4
100
AcDbLine
 10
3639.816682528163
 20
-2955.562708385171
 30
0.0
 11
3629.616682528162
 21
-2963.562708385169
 31
0.0
  0
LINE
  5
4ADC1
330
1F
100
AcDbEntity
  8
AM_4
100
AcDbLine
 10
3639.816682528162
 20
-2963.56270838517
 30
0.0
 11
3629.616682528156
 21
-2971.562708385165
 31
0.0
  0
LINE
  5
4ADC2
330
1F
100
AcDbEntity
  8
AM_4
100
AcDbLine
 10
3639.816682528162
 20
-2947.562708385174
 30
0.0
 11
3629.616682528162
 21
-2955.562708385169
 31
0.0
  0
MTEXT
  5
4ADC3
330
1F
100
AcDbEntity
  8
AM_6
100
AcDbMText
 10
3574.116682528143
 20
-2951.562708385165
 30
0.0
 40
3.2
 41
10.20000000000014
 71
     5
 72
     5
  1
65
 73
     1
 44
1.0
1001
ACAD
1000
MTEXTBEGIN
1070
    73
1070
     1
1070
    44
1040
1.0
1070
    74
1070
     0
1000
MTEXTEND
1000
ACAD_MTEXT_DEFINED_HEIGHT_BEGIN
1070
    46
1040
7.9999999999995
1000
ACAD_MTEXT_DEFINED_HEIGHT_END
  0
MTEXT
  5
4ADC4
330
1F
100
AcDbEntity
  8
AM_6
100
AcDbMText
 10
3574.116682528143
 20
-2959.562708385171
 30
0.0
 40
3.2
 41
10.20000000000016
 71
     5
 72
     5
  1
75
 73
     1
 44
1.0
1001
ACAD
1000
MTEXTBEGIN
1070
    73
1070
     1
1070
    44
1040
1.0
1070
    74
1070
     0
1000
MTEXTEND
1000
ACAD_MTEXT_DEFINED_HEIGHT_BEGIN
1070
    46
1040
8.000000000006776
1000
ACAD_MTEXT_DEFINED_HEIGHT_END
  0
MTEXT
  5
4ADC5
330
1F
100
AcDbEntity
  8
AM_6
100
AcDbMText
 10
3574.116682528143
 20
-2967.562708385169
 30
0.0
 40
3.2
 41
10.20000000000018
 71
     5
 72
     5
  1
80
 73
     1
 44
1.0
1001
ACAD
1000
MTEXTBEGIN
1070
    73
1070
     1
1070
    44
1040
1.0
1070
    74
1070
     0
1000
MTEXTEND
1000
ACAD_MTEXT_DEFINED_HEIGHT_BEGIN
1070
    46
1040
7.999999999992224
1000
ACAD_MTEXT_DEFINED_HEIGHT_END
  0
MTEXT
  5
4ADC6
330
1F
100
AcDbEntity
  8
AM_6
100
AcDbMText
 10
3574.116682528143
 20
-2975.562708385173
 30
0.0
 40
3.2
 41
10.20000000000015
 71
     5
 72
     5
  1
90
 73
     1
 44
1.0
1001
ACAD
1000
MTEXTBEGIN
1070
    73
1070
     1
1070
    44
1040
1.0
1070
    74
1070
     0
1000
MTEXTEND
1000
ACAD_MTEXT_DEFINED_HEIGHT_BEGIN
1070
    46
1040
8.000000000010414
1000
ACAD_MTEXT_DEFINED_HEIGHT_END
  0
MTEXT
  5
4ADC7
330
1F
100
AcDbEntity
  8
AM_6
100
AcDbMText
 10
3574.116682528138
 20
-2983.562708385191
 30
0.0
 40
3.2
 41
10.20000000001106
 71
     5
 72
     5
  1
100
 73
     1
 44
1.0
1001
ACAD
1000
MTEXTBEGIN
1070
    73
1070
     1
1070
    44
1040
1.0
1070
    74
1070
     0
1000
MTEXTEND
1000
ACAD_MTEXT_DEFINED_HEIGHT_BEGIN
1070
    46
1040
8.000000000026785
1000
ACAD_MTEXT_DEFINED_HEIGHT_END
  0
LINE
  5
4ADC8
330
1F
100
AcDbEntity
  8
AM_0
100
AcDbLine
 10
3539.691682528154
 20
-2889.712708385168
 30
0.0
 11
3539.691682528134
 21
-2987.562708385173
 31
0.0
  0
LINE
  5
4ADC9
330
1F
100
AcDbEntity
  8
AM_0
100
AcDbLine
 10
3569.016682528154
 20
-2889.712708385167
 30
0.0
 11
3569.016682528134
 21
-2987.562708385171
 31
0.0
  0
LINE
  5
4ADCA
330
1F
100
AcDbEntity
  8
AM_4
100
AcDbLine
 10
3579.216682528154
 20
-2889.712708385168
 30
0.0
 11
3579.216682528134
 21
-2987.562708385171
 31
0.0
  0
LINE
  5
4ADCB
330
1F
100
AcDbEntity
  8
AM_5
100
AcDbLine
 10
3609.216682528154
 20
-2889.712708385167
 30
0.0
 11
3609.216682528134
 21
-2987.562708385169
 31
0.0
  0
LINE
  5
4ADCC
330
1F
100
AcDbEntity
  8
AM_5
100
AcDbLine
 10
3594.216682528154
 20
-2899.562708385178
 30
0.0
 11
3594.216682528134
 21
-2987.562708385167
 31
0.0
  0
LINE
  5
4ADCD
330
1F
100
AcDbEntity
  8
AM_5
100
AcDbLine
 10
3619.416682528154
 20
-2889.712708385167
 30
0.0
 11
3619.416682528134
 21
-2987.562708385169
 31
0.0
  0
LINE
  5
4ADCE
330
1F
100
AcDbEntity
  8
AM_5
100
AcDbLine
 10
3629.616682528154
 20
-2889.712708385163
 30
0.0
 11
3629.616682528133
 21
-2987.562708385169
 31
0.0
  0
LINE
  5
4ADCF
330
1F
100
AcDbEntity
  8
AM_5
100
AcDbLine
 10
3639.816682528154
 20
-2889.712708385163
 30
0.0
 11
3639.816682528134
 21
-2987.562708385169
 31
0.0
  0
LINE
  5
4ADD0
330
1F
100
AcDbEntity
  8
AM_5
100
AcDbLine
 10
3650.016682528154
 20
-2889.712708385163
 30
0.0
 11
3650.016682528133
 21
-2987.562708385169
 31
0.0
  0
LINE
  5
4ADD1
330
1F
100
AcDbEntity
  8
AM_0
100
AcDbLine
 10
3660.216682528154
 20
-2889.712708385163
 30
0.0
 11
3660.216682528134
 21
-2987.562708385169
 31
0.0
  0
LINE
  5
4ADD2
330
1F
100
AcDbEntity
  8
AM_0
100
AcDbLine
 10
3510.366682528154
 20
-2889.712708385168
 30
0.0
 11
3510.366682528134
 21
-2987.562708385173
 31
0.0
  0
LINE
  5
4ADD3
330
1F
100
AcDbEntity
  8
AM_0
100
AcDbLine
 10
3481.041682528154
 20
-2889.712708385168
 30
0.0
 11
3481.041682528135
 21
-2987.562708385173
 31
0.0
  0
LINE
  5
4ADD5
330
1F
100
AcDbEntity
  8
AM_0
100
AcDbLine
 10
3660.216682528154
 20
-2889.712708385165
 30
0.0
 11
3481.041682528154
 21
-2889.712708385167
 31
0.0
  0
MTEXT
  5
4ADD6
330
1F
100
AcDbEntity
  8
AM_6
100
AcDbMText
 10
3554.354182528152
 20
-2898.73562505181
 30
0.0
 40
3.2
 41
29.32500000000361
 71
     5
 72
     5
  1
ステンレス\P穴空き
 73
     1
 44
1.0
1001
ACAD
1000
MTEXTBEGIN
1070
    73
1070
     1
1070
    44
1040
1.0
1070
    74
1070
     0
1000
MTEXTEND
1000
ACAD_MTEXT_DEFINED_HEIGHT_BEGIN
1070
    46
1040
17.65416666670583
1000
ACAD_MTEXT_DEFINED_HEIGHT_END
  0
MTEXT
  5
4ADD7
330
1F
100
AcDbEntity
  8
AM_6
100
AcDbMText
 10
3525.029182528153
 20
-2898.73562505181
 30
0.0
 40
3.2
 41
29.32500000000361
 71
     5
 72
     5
  1
ステンレス\P穴無し
 73
     1
 44
1.0
1001
ACAD
1000
MTEXTBEGIN
1070
    73
1070
     1
1070
    44
1040
1.0
1070
    74
1070
     0
1000
MTEXTEND
1000
ACAD_MTEXT_DEFINED_HEIGHT_BEGIN
1070
    46
1040
17.65416666670583
1000
ACAD_MTEXT_DEFINED_HEIGHT_END
  0
MTEXT
  5
4ADD8
330
1F
100
AcDbEntity
  8
AM_6
100
AcDbMText
 10
3495.704182528152
 20
-2898.735625051806
 30
0.0
 40
3.2
 41
29.32500000000361
 71
     5
 72
     5
  1
スチール\P穴無し
 73
     1
 44
1.0
1001
ACAD
1000
MTEXTBEGIN
1070
    73
1070
     1
1070
    44
1040
1.0
1070
    74
1070
     0
1000
MTEXTEND
1000
ACAD_MTEXT_DEFINED_HEIGHT_BEGIN
1070
    46
1040
17.65416666670583
1000
ACAD_MTEXT_DEFINED_HEIGHT_END
  0
MTEXT
  5
4ADD9
330
1F
100
AcDbEntity
  8
AM_6
100
AcDbMText
 10
3495.704182528168
 20
-2911.58145838515
 30
0.0
 40
3.2
 41
29.32499999996384
 71
     5
 72
     5
  1
DEH-21-1
 73
     1
 44
1.0
1001
ACAD
1000
MTEXTBEGIN
1070
    73
1070
     1
1070
    44
1040
1.0
1070
    74
1070
     0
1000
MTEXTEND
1000
ACAD_MTEXT_DEFINED_HEIGHT_BEGIN
1070
    46
1040
8.037499999974967
1000
ACAD_MTEXT_DEFINED_HEIGHT_END
  0
MTEXT
  5
4ADDA
330
1F
100
AcDbEntity
  8
AM_6
100
AcDbMText
 10
3495.704182528167
 20
-2919.581458385152
 30
0.0
 40
3.2
 41
29.32499999996255
 71
     5
 72
     5
  1
DEH-21-2
 73
     1
 44
1.0
1001
ACAD
1000
MTEXTBEGIN
1070
    73
1070
     1
1070
    44
1040
1.0
1070
    74
1070
     0
1000
MTEXTEND
1000
ACAD_MTEXT_DEFINED_HEIGHT_BEGIN
1070
    46
1040
8.037499999967691
1000
ACAD_MTEXT_DEFINED_HEIGHT_END
  0
MTEXT
  5
4ADDB
330
1F
100
AcDbEntity
  8
AM_6
100
AcDbMText
 10
3495.704182528164
 20
-2927.58145838515
 30
0.0
 40
3.2
 41
29.32499999996627
 71
     5
 72
     5
  1
DEH-21-3
 73
     1
 44
1.0
1001
ACAD
1000
MTEXTBEGIN
1070
    73
1070
     1
1070
    44
1040
1.0
1070
    74
1070
     0
1000
MTEXTEND
1000
ACAD_MTEXT_DEFINED_HEIGHT_BEGIN
1070
    46
1040
8.037499999967691
1000
ACAD_MTEXT_DEFINED_HEIGHT_END
  0
MTEXT
  5
4ADDC
330
1F
100
AcDbEntity
  8
AM_6
100
AcDbMText
 10
3495.704182528162
 20
-2935.543958385155
 30
0.0
 40
3.2
 41
29.32499999996404
 71
     5
 72
     5
  1
DEH-21-4
 73
     1
 44
1.0
1001
ACAD
1000
MTEXTBEGIN
1070
    73
1070
     1
1070
    44
1040
1.0
1070
    74
1070
     0
1000
MTEXTEND
1000
ACAD_MTEXT_DEFINED_HEIGHT_BEGIN
1070
    46
1040
8.03750000004045
1000
ACAD_MTEXT_DEFINED_HEIGHT_END
  0
MTEXT
  5
4ADDD
330
1F
100
AcDbEntity
  8
AM_6
100
AcDbMText
 10
3495.704182528161
 20
-2943.562708385169
 30
0.0
 40
3.2
 41
29.32499999996354
 71
     5
 72
     5
  1
DEH-21-5
 73
     1
 44
1.0
1001
ACAD
1000
MTEXTBEGIN
1070
    73
1070
     1
1070
    44
1040
1.0
1070
    74
1070
     0
1000
MTEXTEND
1000
ACAD_MTEXT_DEFINED_HEIGHT_BEGIN
1070
    46
1040
7.999999999990974
1000
ACAD_MTEXT_DEFINED_HEIGHT_END
  0
MTEXT
  5
4ADDE
330
1F
100
AcDbEntity
  8
AM_6
100
AcDbMText
 10
3495.70418252818
 20
-2967.581458385139
 30
0.0
 40
3.2
 41
29.32499999999997
 71
     5
 72
     5
  1
DEH-21-8
 73
     1
 44
1.0
1001
ACAD
1000
MTEXTBEGIN
1070
    73
1070
     1
1070
    44
1040
1.0
1070
    74
1070
     0
1000
MTEXTEND
1000
ACAD_MTEXT_DEFINED_HEIGHT_BEGIN
1070
    46
1040
7.962500000048818
1000
ACAD_MTEXT_DEFINED_HEIGHT_END
  0
MTEXT
  5
4ADDF
330
1F
100
AcDbEntity
  8
AM_6
100
AcDbMText
 10
3495.70418252818
 20
-2959.581458385148
 30
0.0
 40
3.2
 41
29.32499999999995
 71
     5
 72
     5
  1
DEH-21-7
 73
     1
 44
1.0
1001
ACAD
1000
MTEXTBEGIN
1070
    73
1070
     1
1070
    44
1040
1.0
1070
    74
1070
     0
1000
MTEXTEND
1000
ACAD_MTEXT_DEFINED_HEIGHT_BEGIN
1070
    46
1040
7.96250000004518
1000
ACAD_MTEXT_DEFINED_HEIGHT_END
  0
MTEXT
  5
4ADE0
330
1F
100
AcDbEntity
  8
AM_6
100
AcDbMText
 10
3495.70418252818
 20
-2951.581458385141
 30
0.0
 40
3.2
 41
29.32499999999998
 71
     5
 72
     5
  1
DEH-21-6
 73
     1
 44
1.0
1001
ACAD
1000
MTEXTBEGIN
1070
    73
1070
     1
1070
    44
1040
1.0
1070
    74
1070
     0
1000
MTEXTEND
1000
ACAD_MTEXT_DEFINED_HEIGHT_BEGIN
1070
    46
1040
7.962500000048818
1000
ACAD_MTEXT_DEFINED_HEIGHT_END
  0
MTEXT
  5
4ADE1
330
1F
100
AcDbEntity
  8
AM_6
100
AcDbMText
 10
3495.704182528164
 20
-2975.58145838515
 30
0.0
 40
3.2
 41
29.32499999999998
 71
     5
 72
     5
  1
DEH-21-9
 73
     1
 44
1.0
1001
ACAD
1000
MTEXTBEGIN
1070
    73
1070
     1
1070
    44
1040
1.0
1070
    74
1070
     0
1000
MTEXTEND
1000
ACAD_MTEXT_DEFINED_HEIGHT_BEGIN
1070
    46
1040
7.962500000050637
1000
ACAD_MTEXT_DEFINED_HEIGHT_END
  0
MTEXT
  5
4ADE2
330
1F
100
AcDbEntity
  8
AM_6
100
AcDbMText
 10
3495.704182528148
 20
-2983.581458385146
 30
0.0
 40
3.2
 41
29.32499999997201
 71
     5
 72
     5
  1
DEH-21-10
 73
     1
 44
1.0
1001
ACAD
1000
MTEXTBEGIN
1070
    73
1070
     1
1070
    44
1040
1.0
1070
    74
1070
     0
1000
MTEXTEND
1000
ACAD_MTEXT_DEFINED_HEIGHT_BEGIN
1070
    46
1040
7.962500000046999
1000
ACAD_MTEXT_DEFINED_HEIGHT_END
  0
MTEXT
  5
4ADE3
330
1F
100
AcDbEntity
  8
AM_6
100
AcDbMText
 10
3554.35418252816
 20
-2911.581458385155
 30
0.0
 40
3.2
 41
29.32499999998102
 71
     5
 72
     5
  1
DEH-21S-11
 73
     1
 44
1.0
1001
ACAD
1000
MTEXTBEGIN
1070
    73
1070
     1
1070
    44
1040
1.0
1070
    74
1070
     0
1000
MTEXTEND
1000
ACAD_MTEXT_DEFINED_HEIGHT_BEGIN
1070
    46
1040
8.037499999976786
1000
ACAD_MTEXT_DEFINED_HEIGHT_END
  0
MTEXT
  5
4ADE4
330
1F
100
AcDbEntity
  8
AM_6
100
AcDbMText
 10
3554.354182528158
 20
-2919.581458385157
 30
0.0
 40
3.2
 41
29.32499999997972
 71
     5
 72
     5
  1
DEH-21S-12
 73
     1
 44
1.0
1001
ACAD
1000
MTEXTBEGIN
1070
    73
1070
     1
1070
    44
1040
1.0
1070
    74
1070
     0
1000
MTEXTEND
1000
ACAD_MTEXT_DEFINED_HEIGHT_BEGIN
1070
    46
1040
8.037499999974967
1000
ACAD_MTEXT_DEFINED_HEIGHT_END
  0
MTEXT
  5
4ADE5
330
1F
100
AcDbEntity
  8
AM_6
100
AcDbMText
 10
3554.354182528163
 20
-2927.581458385154
 30
0.0
 40
3.2
 41
29.32500000000001
 71
     5
 72
     5
  1
DEH-21S-13
 73
     1
 44
1.0
1001
ACAD
1000
MTEXTBEGIN
1070
    73
1070
     1
1070
    44
1040
1.0
1070
    74
1070
     0
1000
MTEXTEND
1000
ACAD_MTEXT_DEFINED_HEIGHT_BEGIN
1070
    46
1040
8.037499999973148
1000
ACAD_MTEXT_DEFINED_HEIGHT_END
  0
MTEXT
  5
4ADE6
330
1F
100
AcDbEntity
  8
AM_6
100
AcDbMText
 10
3554.354182528153
 20
-2935.543958385159
 30
0.0
 40
3.2
 41
29.32499999998118
 71
     5
 72
     5
  1
DEH-21S-14
 73
     1
 44
1.0
1001
ACAD
1000
MTEXTBEGIN
1070
    73
1070
     1
1070
    44
1040
1.0
1070
    74
1070
     0
1000
MTEXTEND
1000
ACAD_MTEXT_DEFINED_HEIGHT_BEGIN
1070
    46
1040
8.037500000034993
1000
ACAD_MTEXT_DEFINED_HEIGHT_END
  0
MTEXT
  5
4ADE7
330
1F
100
AcDbEntity
  8
AM_6
100
AcDbMText
 10
3554.354182528161
 20
-2943.562708385173
 30
0.0
 40
3.2
 41
29.32500000000001
 71
     5
 72
     5
  1
DEH-21S-15
 73
     1
 44
1.0
1001
ACAD
1000
MTEXTBEGIN
1070
    73
1070
     1
1070
    44
1040
1.0
1070
    74
1070
     0
1000
MTEXTEND
1000
ACAD_MTEXT_DEFINED_HEIGHT_BEGIN
1070
    46
1040
7.999999999989155
1000
ACAD_MTEXT_DEFINED_HEIGHT_END
  0
MTEXT
  5
4ADE8
330
1F
100
AcDbEntity
  8
AM_6
100
AcDbMText
 10
3554.354182528162
 20
-2967.581458385143
 30
0.0
 40
3.2
 41
29.32499999999999
 71
     5
 72
     5
  1
DEH-21S-18
 73
     1
 44
1.0
1001
ACAD
1000
MTEXTBEGIN
1070
    73
1070
     1
1070
    44
1040
1.0
1070
    74
1070
     0
1000
MTEXTEND
1000
ACAD_MTEXT_DEFINED_HEIGHT_BEGIN
1070
    46
1040
7.962500000043361
1000
ACAD_MTEXT_DEFINED_HEIGHT_END
  0
MTEXT
  5
4ADE9
330
1F
100
AcDbEntity
  8
AM_6
100
AcDbMText
 10
3554.354182528162
 20
-2959.581458385154
 30
0.0
 40
3.2
 41
29.32500000000003
 71
     5
 72
     5
  1
DEH-21S-17
 73
     1
 44
1.0
1001
ACAD
1000
MTEXTBEGIN
1070
    73
1070
     1
1070
    44
1040
1.0
1070
    74
1070
     0
1000
MTEXTEND
1000
ACAD_MTEXT_DEFINED_HEIGHT_BEGIN
1070
    46
1040
7.962500000039723
1000
ACAD_MTEXT_DEFINED_HEIGHT_END
  0
MTEXT
  5
4ADEA
330
1F
100
AcDbEntity
  8
AM_6
100
AcDbMText
 10
3554.354182528162
 20
-2951.581458385146
 30
0.0
 40
3.2
 41
29.32499999999999
 71
     5
 72
     5
  1
DEH-21S-16
 73
     1
 44
1.0
1001
ACAD
1000
MTEXTBEGIN
1070
    73
1070
     1
1070
    44
1040
1.0
1070
    74
1070
     0
1000
MTEXTEND
1000
ACAD_MTEXT_DEFINED_HEIGHT_BEGIN
1070
    46
1040
7.962500000043361
1000
ACAD_MTEXT_DEFINED_HEIGHT_END
  0
MTEXT
  5
4ADEB
330
1F
100
AcDbEntity
  8
AM_6
100
AcDbMText
 10
3554.354182528141
 20
-2975.581458385155
 30
0.0
 40
3.2
 41
29.32500000001073
 71
     5
 72
     5
  1
DEH-21S-19
 73
     1
 44
1.0
1001
ACAD
1000
MTEXTBEGIN
1070
    73
1070
     1
1070
    44
1040
1.0
1070
    74
1070
     0
1000
MTEXTEND
1000
ACAD_MTEXT_DEFINED_HEIGHT_BEGIN
1070
    46
1040
7.96250000004518
1000
ACAD_MTEXT_DEFINED_HEIGHT_END
  0
MTEXT
  5
4ADEC
330
1F
100
AcDbEntity
  8
AM_6
100
AcDbMText
 10
3554.35418252814
 20
-2983.58145838515
 30
0.0
 40
3.2
 41
29.32499999998909
 71
     5
 72
     5
  1
DEH-21S-20
 73
     1
 44
1.0
1001
ACAD
1000
MTEXTBEGIN
1070
    73
1070
     1
1070
    44
1040
1.0
1070
    74
1070
     0
1000
MTEXTEND
1000
ACAD_MTEXT_DEFINED_HEIGHT_BEGIN
1070
    46
1040
7.962500000039723
1000
ACAD_MTEXT_DEFINED_HEIGHT_END
  0
MTEXT
  5
4ADED
330
1F
100
AcDbEntity
  8
AM_6
100
AcDbMText
 10
3601.716682528153
 20
-2903.56270838518
 30
0.0
 40
3.2
 41
14.99999999999801
 71
     5
 72
     5
  1
ステンレス
 73
     1
 44
1.0
1001
ACAD
1000
MTEXTBEGIN
1070
    73
1070
     1
1070
    44
1040
1.0
1070
    74
1070
     0
1000
MTEXTEND
1000
ACAD_MTEXT_DEFINED_HEIGHT_BEGIN
1070
    46
1040
7.999999999971986
1000
ACAD_MTEXT_DEFINED_HEIGHT_END
  0
LINE
  5
4ADEE
330
1F
100
AcDbEntity
  8
AM_5
100
AcDbLine
 10
3579.216682528152
 20
-2899.562708385161
 30
0.0
 11
3609.216682528153
 21
-2899.562708385195
 31
0.0
  0
MTEXT
  5
4ADEF
330
1F
100
AcDbEntity
  8
AM_6
100
AcDbMText
 10
3594.216682528153
 20
-2894.637708385181
 30
0.0
 40
3.2
 41
29.99999999999802
 71
     5
 72
     5
  1
B
 73
     1
 44
1.0
1001
ACAD
1000
MTEXTBEGIN
1070
    73
1070
     1
1070
    44
1040
1.0
1070
    74
1070
     0
1000
MTEXTEND
1000
ACAD_MTEXT_DEFINED_HEIGHT_BEGIN
1070
    46
1040
9.850000000028739
1000
ACAD_MTEXT_DEFINED_HEIGHT_END
  0
MTEXT
  5
4AF11
330
1F
100
AcDbEntity
  8
AM_6
100
AcDbMText
 10
3614.316682528146
 20
-2927.581458385164
 30
0.0
 40
3.2
 41
10.20000000000067
 71
     5
 72
     5
  1
24
 73
     1
 44
1.0
1001
ACAD
1000
MTEXTBEGIN
1070
    73
1070
     1
1070
    44
1040
1.0
1070
    74
1070
     0
1000
MTEXTEND
1000
ACAD_MTEXT_DEFINED_HEIGHT_BEGIN
1070
    46
1040
8.037499999985994
1000
ACAD_MTEXT_DEFINED_HEIGHT_END
  0
MTEXT
  5
4AF12
330
1F
100
AcDbEntity
  8
AM_6
100
AcDbMText
 10
3614.316682528146
 20
-2935.543958385169
 30
0.0
 40
3.2
 41
10.19999999999998
 71
     5
 72
     5
  1
30
 73
     1
 44
1.0
1001
ACAD
1000
MTEXTBEGIN
1070
    73
1070
     1
1070
    44
1040
1.0
1070
    74
1070
     0
1000
MTEXTEND
1000
ACAD_MTEXT_DEFINED_HEIGHT_BEGIN
1070
    46
1040
8.03750000001146
1000
ACAD_MTEXT_DEFINED_HEIGHT_END
  0
MTEXT
  5
4AF13
330
1F
100
AcDbEntity
  8
AM_6
100
AcDbMText
 10
3614.316682528144
 20
-2943.562708385173
 30
0.0
 40
3.2
 41
10.19999999999931
 71
     5
 72
     5
  1
22
 73
     1
 44
1.0
1001
ACAD
1000
MTEXTBEGIN
1070
    73
1070
     1
1070
    44
1040
1.0
1070
    74
1070
     0
1000
MTEXTEND
1000
ACAD_MTEXT_DEFINED_HEIGHT_BEGIN
1070
    46
1040
7.999999999989269
1000
ACAD_MTEXT_DEFINED_HEIGHT_END
  0
MTEXT
  5
4AF14
330
1F
100
AcDbEntity
  8
AM_6
100
AcDbMText
 10
3614.31668252815
 20
-2919.581458385166
 30
0.0
 40
3.2
 41
10.19999999999631
 71
     5
 72
     5
  1
16
 73
     1
 44
1.0
1001
ACAD
1000
MTEXTBEGIN
1070
    73
1070
     1
1070
    44
1040
1.0
1070
    74
1070
     0
1000
MTEXTEND
1000
ACAD_MTEXT_DEFINED_HEIGHT_BEGIN
1070
    46
1040
8.037499999989632
1000
ACAD_MTEXT_DEFINED_HEIGHT_END
  0
MTEXT
  5
4AF15
330
1F
100
AcDbEntity
  8
AM_6
100
AcDbMText
 10
3614.316682528153
 20
-2911.581458385164
 30
0.0
 40
3.2
 41
10.20000000000006
 71
     5
 72
     5
  1
13
 73
     1
 44
1.0
1001
ACAD
1000
MTEXTBEGIN
1070
    73
1070
     1
1070
    44
1040
1.0
1070
    74
1070
     0
1000
MTEXTEND
1000
ACAD_MTEXT_DEFINED_HEIGHT_BEGIN
1070
    46
1040
8.037499999989632
1000
ACAD_MTEXT_DEFINED_HEIGHT_END
  0
MTEXT
  5
4AF16
330
1F
100
AcDbEntity
  8
AM_6
100
AcDbMText
 10
3614.316682528143
 20
-2951.562708385172
 30
0.0
 40
3.2
 41
10.19999999999931
 71
     5
 72
     5
  1
24
 73
     1
 44
1.0
1001
ACAD
1000
MTEXTBEGIN
1070
    73
1070
     1
1070
    44
1040
1.0
1070
    74
1070
     0
1000
MTEXTEND
1000
ACAD_MTEXT_DEFINED_HEIGHT_BEGIN
1070
    46
1040
7.999999999989269
1000
ACAD_MTEXT_DEFINED_HEIGHT_END
  0
MTEXT
  5
4AF17
330
1F
100
AcDbEntity
  8
AM_6
100
AcDbMText
 10
3614.31668252814
 20
-2959.581458385164
 30
0.0
 40
3.2
 41
10.20000000000067
 71
     5
 72
     5
  1
28
 73
     1
 44
1.0
1001
ACAD
1000
MTEXTBEGIN
1070
    73
1070
     1
1070
    44
1040
1.0
1070
    74
1070
     0
1000
MTEXTEND
1000
ACAD_MTEXT_DEFINED_HEIGHT_BEGIN
1070
    46
1040
8.037499999985994
1000
ACAD_MTEXT_DEFINED_HEIGHT_END
  0
MTEXT
  5
4AF18
330
1F
100
AcDbEntity
  8
AM_6
100
AcDbMText
 10
3614.316682528139
 20
-2967.543958385169
 30
0.0
 40
3.2
 41
10.19999999999998
 71
     5
 72
     5
  1
30
 73
     1
 44
1.0
1001
ACAD
1000
MTEXTBEGIN
1070
    73
1070
     1
1070
    44
1040
1.0
1070
    74
1070
     0
1000
MTEXTEND
1000
ACAD_MTEXT_DEFINED_HEIGHT_BEGIN
1070
    46
1040
8.03750000001146
1000
ACAD_MTEXT_DEFINED_HEIGHT_END
  0
MTEXT
  5
4AF19
330
1F
100
AcDbEntity
  8
AM_6
100
AcDbMText
 10
3614.316682528137
 20
-2975.562708385173
 30
0.0
 40
3.2
 41
10.19999999999931
 71
     5
 72
     5
  1
35
 73
     1
 44
1.0
1001
ACAD
1000
MTEXTBEGIN
1070
    73
1070
     1
1070
    44
1040
1.0
1070
    74
1070
     0
1000
MTEXTEND
1000
ACAD_MTEXT_DEFINED_HEIGHT_BEGIN
1070
    46
1040
7.999999999989269
1000
ACAD_MTEXT_DEFINED_HEIGHT_END
  0
MTEXT
  5
4AF1A
330
1F
100
AcDbEntity
  8
AM_6
100
AcDbMText
 10
3614.316682528136
 20
-2983.562708385172
 30
0.0
 40
3.2
 41
10.19999999999931
 71
     5
 72
     5
  1
26
 73
     1
 44
1.0
1001
ACAD
1000
MTEXTBEGIN
1070
    73
1070
     1
1070
    44
1040
1.0
1070
    74
1070
     0
1000
MTEXTEND
1000
ACAD_MTEXT_DEFINED_HEIGHT_BEGIN
1070
    46
1040
7.999999999989269
1000
ACAD_MTEXT_DEFINED_HEIGHT_END
  0
MTEXT
  5
4AF1B
330
1F
100
AcDbEntity
  8
AM_6
100
AcDbMText
 10
3624.516682528143
 20
-2951.562708385185
 30
0.0
 40
3.2
 41
10.19999999999931
 71
     5
 72
     5
  1
24
 73
     1
 44
1.0
1001
ACAD
1000
MTEXTBEGIN
1070
    73
1070
     1
1070
    44
1040
1.0
1070
    74
1070
     0
1000
MTEXTEND
1000
ACAD_MTEXT_DEFINED_HEIGHT_BEGIN
1070
    46
1040
7.999999999989269
1000
ACAD_MTEXT_DEFINED_HEIGHT_END
  0
MTEXT
  5
4AF1C
330
1F
100
AcDbEntity
  8
AM_6
100
AcDbMText
 10
3624.51668252814
 20
-2959.581458385177
 30
0.0
 40
3.2
 41
10.20000000000067
 71
     5
 72
     5
  1
28
 73
     1
 44
1.0
1001
ACAD
1000
MTEXTBEGIN
1070
    73
1070
     1
1070
    44
1040
1.0
1070
    74
1070
     0
1000
MTEXTEND
1000
ACAD_MTEXT_DEFINED_HEIGHT_BEGIN
1070
    46
1040
8.037499999985994
1000
ACAD_MTEXT_DEFINED_HEIGHT_END
  0
MTEXT
  5
4AF1D
330
1F
100
AcDbEntity
  8
AM_6
100
AcDbMText
 10
3624.516682528139
 20
-2967.543958385182
 30
0.0
 40
3.2
 41
10.19999999999998
 71
     5
 72
     5
  1
30
 73
     1
 44
1.0
1001
ACAD
1000
MTEXTBEGIN
1070
    73
1070
     1
1070
    44
1040
1.0
1070
    74
1070
     0
1000
MTEXTEND
1000
ACAD_MTEXT_DEFINED_HEIGHT_BEGIN
1070
    46
1040
8.03750000001146
1000
ACAD_MTEXT_DEFINED_HEIGHT_END
  0
MTEXT
  5
4AF1E
330
1F
100
AcDbEntity
  8
AM_6
100
AcDbMText
 10
3624.516682528137
 20
-2975.562708385185
 30
0.0
 40
3.2
 41
10.19999999999931
 71
     5
 72
     5
  1
35
 73
     1
 44
1.0
1001
ACAD
1000
MTEXTBEGIN
1070
    73
1070
     1
1070
    44
1040
1.0
1070
    74
1070
     0
1000
MTEXTEND
1000
ACAD_MTEXT_DEFINED_HEIGHT_BEGIN
1070
    46
1040
7.999999999989269
1000
ACAD_MTEXT_DEFINED_HEIGHT_END
  0
MTEXT
  5
4AF1F
330
1F
100
AcDbEntity
  8
AM_6
100
AcDbMText
 10
3624.516682528137
 20
-2983.562708385185
 30
0.0
 40
3.2
 41
10.19999999999931
 71
     5
 72
     5
  1
26
 73
     1
 44
1.0
1001
ACAD
1000
MTEXTBEGIN
1070
    73
1070
     1
1070
    44
1040
1.0
1070
    74
1070
     0
1000
MTEXTEND
1000
ACAD_MTEXT_DEFINED_HEIGHT_BEGIN
1070
    46
1040
7.999999999989269
1000
ACAD_MTEXT_DEFINED_HEIGHT_END
  0
MTEXT
  5
4AF20
330
1F
100
AcDbEntity
  8
AM_6
100
AcDbMText
 10
3624.516682528145
 20
-2943.562708385173
 30
0.0
 40
3.2
 41
10.19999999999931
 71
     5
 72
     5
  1
22
 73
     1
 44
1.0
1001
ACAD
1000
MTEXTBEGIN
1070
    73
1070
     1
1070
    44
1040
1.0
1070
    74
1070
     0
1000
MTEXTEND
1000
ACAD_MTEXT_DEFINED_HEIGHT_BEGIN
1070
    46
1040
7.999999999989269
1000
ACAD_MTEXT_DEFINED_HEIGHT_END
  0
MTEXT
  5
4AF21
330
1F
100
AcDbEntity
  8
AM_6
100
AcDbMText
 10
3634.716682528136
 20
-2983.562708385193
 30
0.0
 40
3.2
 41
10.19999999999931
 71
     5
 72
     5
  1
26
 73
     1
 44
1.0
1001
ACAD
1000
MTEXTBEGIN
1070
    73
1070
     1
1070
    44
1040
1.0
1070
    74
1070
     0
1000
MTEXTEND
1000
ACAD_MTEXT_DEFINED_HEIGHT_BEGIN
1070
    46
1040
7.999999999989269
1000
ACAD_MTEXT_DEFINED_HEIGHT_END
  0
MTEXT
  5
4AF22
330
1F
100
AcDbEntity
  8
AM_6
100
AcDbMText
 10
3644.91668252816
 20
-2911.581458385168
 30
0.0
 40
3.2
 41
10.20000000000006
 71
     5
 72
     5
  1
4
 73
     1
 44
1.0
1001
ACAD
1000
MTEXTBEGIN
1070
    73
1070
     1
1070
    44
1040
1.0
1070
    74
1070
     0
1000
MTEXTEND
1000
ACAD_MTEXT_DEFINED_HEIGHT_BEGIN
1070
    46
1040
8.03749999999327
1000
ACAD_MTEXT_DEFINED_HEIGHT_END
  0
MTEXT
  5
4AF23
330
1F
100
AcDbEntity
  8
AM_6
100
AcDbMText
 10
3644.916682528143
 20
-2943.543958385159
 30
0.0
 40
3.2
 41
10.20000000000386
 71
     5
 72
     5
  1
6
 73
     1
 44
1.0
1001
ACAD
1000
MTEXTBEGIN
1070
    73
1070
     1
1070
    44
1040
1.0
1070
    74
1070
     0
1000
MTEXTEND
1000
ACAD_MTEXT_DEFINED_HEIGHT_BEGIN
1070
    46
1040
8.037500000013279
1000
ACAD_MTEXT_DEFINED_HEIGHT_END
  0
MTEXT
  5
4AF24
330
1F
100
AcDbEntity
  8
AM_6
100
AcDbMText
 10
3644.916682528157
 20
-2919.581458385165
 30
0.0
 40
3.2
 41
10.19999999998408
 71
     5
 72
     5
  1
4
 73
     1
 44
1.0
1001
ACAD
1000
MTEXTBEGIN
1070
    73
1070
     1
1070
    44
1040
1.0
1070
    74
1070
     0
1000
MTEXTEND
1000
ACAD_MTEXT_DEFINED_HEIGHT_BEGIN
1070
    46
1040
8.037499999989632
1000
ACAD_MTEXT_DEFINED_HEIGHT_END
  0
MTEXT
  5
4AF25
330
1F
100
AcDbEntity
  8
AM_6
100
AcDbMText
 10
3644.916682528143
 20
-2951.543958385159
 30
0.0
 40
3.2
 41
10.19999999999486
 71
     5
 72
     5
  1
6
 73
     1
 44
1.0
1001
ACAD
1000
MTEXTBEGIN
1070
    73
1070
     1
1070
    44
1040
1.0
1070
    74
1070
     0
1000
MTEXTEND
1000
ACAD_MTEXT_DEFINED_HEIGHT_BEGIN
1070
    46
1040
8.037500000018736
1000
ACAD_MTEXT_DEFINED_HEIGHT_END
  0
MTEXT
  5
4AF26
330
1F
100
AcDbEntity
  8
AM_6
100
AcDbMText
 10
3644.916682528153
 20
-2927.581458385164
 30
0.0
 40
3.2
 41
10.19999999998751
 71
     5
 72
     5
  1
4
 73
     1
 44
1.0
1001
ACAD
1000
MTEXTBEGIN
1070
    73
1070
     1
1070
    44
1040
1.0
1070
    74
1070
     0
1000
MTEXTEND
1000
ACAD_MTEXT_DEFINED_HEIGHT_BEGIN
1070
    46
1040
8.037499999984175
1000
ACAD_MTEXT_DEFINED_HEIGHT_END
  0
MTEXT
  5
4AF27
330
1F
100
AcDbEntity
  8
AM_6
100
AcDbMText
 10
3644.91668252814
 20
-2959.543958385162
 30
0.0
 40
3.2
 41
10.19999999999995
 71
     5
 72
     5
  1
6
 73
     1
 44
1.0
1001
ACAD
1000
MTEXTBEGIN
1070
    73
1070
     1
1070
    44
1040
1.0
1070
    74
1070
     0
1000
MTEXTEND
1000
ACAD_MTEXT_DEFINED_HEIGHT_BEGIN
1070
    46
1040
8.037500000035107
1000
ACAD_MTEXT_DEFINED_HEIGHT_END
  0
MTEXT
  5
4AF28
330
1F
100
AcDbEntity
  8
AM_6
100
AcDbMText
 10
3644.916682528155
 20
-2935.61895838517
 30
0.0
 40
3.2
 41
10.19999999999996
 71
     5
 72
     5
  1
4
 73
     1
 44
1.0
1001
ACAD
1000
MTEXTBEGIN
1070
    73
1070
     1
1070
    44
1040
1.0
1070
    74
1070
     0
1000
MTEXTEND
1000
ACAD_MTEXT_DEFINED_HEIGHT_BEGIN
1070
    46
1040
7.887500000013643
1000
ACAD_MTEXT_DEFINED_HEIGHT_END
  0
MTEXT
  5
4AF29
330
1F
100
AcDbEntity
  8
AM_6
100
AcDbMText
 10
3644.916682528147
 20
-2967.562708385172
 30
0.0
 40
3.2
 41
10.20000000002175
 71
     5
 72
     5
  1
6
 73
     1
 44
1.0
1001
ACAD
1000
MTEXTBEGIN
1070
    73
1070
     1
1070
    44
1040
1.0
1070
    74
1070
     0
1000
MTEXTEND
1000
ACAD_MTEXT_DEFINED_HEIGHT_BEGIN
1070
    46
1040
7.99999999998745
1000
ACAD_MTEXT_DEFINED_HEIGHT_END
  0
MTEXT
  5
4AF2A
330
1F
100
AcDbEntity
  8
AM_6
100
AcDbMText
 10
3644.916682528158
 20
-2975.543958385146
 30
0.0
 40
3.2
 41
10.19999999999995
 71
     5
 72
     5
  1
6
 73
     1
 44
1.0
1001
ACAD
1000
MTEXTBEGIN
1070
    73
1070
     1
1070
    44
1040
1.0
1070
    74
1070
     0
1000
MTEXTEND
1000
ACAD_MTEXT_DEFINED_HEIGHT_BEGIN
1070
    46
1040
8.037500000035107
1000
ACAD_MTEXT_DEFINED_HEIGHT_END
  0
MTEXT
  5
4AF2B
330
1F
100
AcDbEntity
  8
AM_6
100
AcDbMText
 10
3644.916682528164
 20
-2983.562708385156
 30
0.0
 40
3.2
 41
10.20000000002175
 71
     5
 72
     5
  1
8
 73
     1
 44
1.0
1001
ACAD
1000
MTEXTBEGIN
1070
    73
1070
     1
1070
    44
1040
1.0
1070
    74
1070
     0
1000
MTEXTEND
1000
ACAD_MTEXT_DEFINED_HEIGHT_BEGIN
1070
    46
1040
7.99999999998745
1000
ACAD_MTEXT_DEFINED_HEIGHT_END
  0
MTEXT
  5
4AF2C
330
1F
100
AcDbEntity
  8
AM_6
100
AcDbMText
 10
3655.116682528152
 20
-2919.581458385166
 30
0.0
 40
3.2
 41
10.19999999999998
 71
     5
 72
     5
  1
3
 73
     1
 44
1.0
1001
ACAD
1000
MTEXTBEGIN
1070
    73
1070
     1
1070
    44
1040
1.0
1070
    74
1070
     0
1000
MTEXTEND
1000
ACAD_MTEXT_DEFINED_HEIGHT_BEGIN
1070
    46
1040
8.03749999999327
1000
ACAD_MTEXT_DEFINED_HEIGHT_END
  0
MTEXT
  5
4AF2D
330
1F
100
AcDbEntity
  8
AM_6
100
AcDbMText
 10
3655.116682528153
 20
-2911.581458385168
 30
0.0
 40
3.2
 41
10.20000000000006
 71
     5
 72
     5
  1
3
 73
     1
 44
1.0
1001
ACAD
1000
MTEXTBEGIN
1070
    73
1070
     1
1070
    44
1040
1.0
1070
    74
1070
     0
1000
MTEXTEND
1000
ACAD_MTEXT_DEFINED_HEIGHT_BEGIN
1070
    46
1040
8.037499999991451
1000
ACAD_MTEXT_DEFINED_HEIGHT_END
  0
MTEXT
  5
4AF2E
330
1F
100
AcDbEntity
  8
AM_6
100
AcDbMText
 10
3655.116682528152
 20
-2935.581458385165
 30
0.0
 40
3.2
 41
10.19999999999998
 71
     5
 72
     5
  1
3
 73
     1
 44
1.0
1001
ACAD
1000
MTEXTBEGIN
1070
    73
1070
     1
1070
    44
1040
1.0
1070
    74
1070
     0
1000
MTEXTEND
1000
ACAD_MTEXT_DEFINED_HEIGHT_BEGIN
1070
    46
1040
8.03749999999327
1000
ACAD_MTEXT_DEFINED_HEIGHT_END
  0
MTEXT
  5
4AF2F
330
1F
100
AcDbEntity
  8
AM_6
100
AcDbMText
 10
3655.116682528152
 20
-2927.581458385166
 30
0.0
 40
3.2
 41
10.20000000000006
 71
     5
 72
     5
  1
3
 73
     1
 44
1.0
1001
ACAD
1000
MTEXTBEGIN
1070
    73
1070
     1
1070
    44
1040
1.0
1070
    74
1070
     0
1000
MTEXTEND
1000
ACAD_MTEXT_DEFINED_HEIGHT_BEGIN
1070
    46
1040
8.037499999991451
1000
ACAD_MTEXT_DEFINED_HEIGHT_END
  0
MTEXT
  5
4AF30
330
1F
100
AcDbEntity
  8
AM_6
100
AcDbMText
 10
3655.116682528137
 20
-2943.543958385173
 30
0.0
 40
3.2
 41
10.19999999999997
 71
     5
 72
     5
  1
5
 73
     1
 44
1.0
1001
ACAD
1000
MTEXTBEGIN
1070
    73
1070
     1
1070
    44
1040
1.0
1070
    74
1070
     0
1000
MTEXTEND
1000
ACAD_MTEXT_DEFINED_HEIGHT_BEGIN
1070
    46
1040
8.03749999999327
1000
ACAD_MTEXT_DEFINED_HEIGHT_END
  0
MTEXT
  5
4AF31
330
1F
100
AcDbEntity
  8
AM_6
100
AcDbMText
 10
3655.116682528138
 20
-2951.562708385169
 30
0.0
 40
3.2
 41
10.20000000000554
 71
     5
 72
     5
  1
5
 73
     1
 44
1.0
1001
ACAD
1000
MTEXTBEGIN
1070
    73
1070
     1
1070
    44
1040
1.0
1070
    74
1070
     0
1000
MTEXTEND
1000
ACAD_MTEXT_DEFINED_HEIGHT_BEGIN
1070
    46
1040
7.999999999998363
1000
ACAD_MTEXT_DEFINED_HEIGHT_END
  0
MTEXT
  5
4AF32
330
1F
100
AcDbEntity
  8
AM_6
100
AcDbMText
 10
3655.116682528137
 20
-2959.543958385181
 30
0.0
 40
3.2
 41
10.19999999999997
 71
     5
 72
     5
  1
5
 73
     1
 44
1.0
1001
ACAD
1000
MTEXTBEGIN
1070
    73
1070
     1
1070
    44
1040
1.0
1070
    74
1070
     0
1000
MTEXTEND
1000
ACAD_MTEXT_DEFINED_HEIGHT_BEGIN
1070
    46
1040
8.03749999999327
1000
ACAD_MTEXT_DEFINED_HEIGHT_END
  0
MTEXT
  5
4AF33
330
1F
100
AcDbEntity
  8
AM_6
100
AcDbMText
 10
3655.116682528137
 20
-2967.562708385176
 30
0.0
 40
3.2
 41
10.20000000000554
 71
     5
 72
     5
  1
5
 73
     1
 44
1.0
1001
ACAD
1000
MTEXTBEGIN
1070
    73
1070
     1
1070
    44
1040
1.0
1070
    74
1070
     0
1000
MTEXTEND
1000
ACAD_MTEXT_DEFINED_HEIGHT_BEGIN
1070
    46
1040
7.999999999998363
1000
ACAD_MTEXT_DEFINED_HEIGHT_END
  0
MTEXT
  5
4AF34
330
1F
100
AcDbEntity
  8
AM_6
100
AcDbMText
 10
3655.116682528137
 20
-2975.543958385184
 30
0.0
 40
3.2
 41
10.19999999999997
 71
     5
 72
     5
  1
5
 73
     1
 44
1.0
1001
ACAD
1000
MTEXTBEGIN
1070
    73
1070
     1
1070
    44
1040
1.0
1070
    74
1070
     0
1000
MTEXTEND
1000
ACAD_MTEXT_DEFINED_HEIGHT_BEGIN
1070
    46
1040
8.03749999999327
1000
ACAD_MTEXT_DEFINED_HEIGHT_END
  0
MTEXT
  5
4AF35
330
1F
100
AcDbEntity
  8
AM_6
100
AcDbMText
 10
3655.116682528137
 20
-2983.56270838518
 30
0.0
 40
3.2
 41
10.20000000000554
 71
     5
 72
     5
  1
5
 73
     1
 44
1.0
1001
ACAD
1000
MTEXTBEGIN
1070
    73
1070
     1
1070
    44
1040
1.0
1070
    74
1070
     0
1000
MTEXTEND
1000
ACAD_MTEXT_DEFINED_HEIGHT_BEGIN
1070
    46
1040
7.999999999998363
1000
ACAD_MTEXT_DEFINED_HEIGHT_END
  0
LINE
  5
4B081
330
1F
100
AcDbEntity
  8
AM_0
100
AcDbLine
 10
3501.041682528135
 20
-2707.562708385174
 30
0.0
 11
3501.041682528135
 21
-2763.562708385173
 31
0.0
  0
LINE
  5
4B082
330
1F
100
AcDbEntity
  8
AM_4
100
AcDbLine
 10
3481.041682528135
 20
-2715.562708385174
 30
0.0
 11
3591.041682528135
 21
-2715.562708385174
 31
0.0
  0
LINE
  5
4B083
330
1F
100
AcDbEntity
  8
AM_4
100
AcDbLine
 10
3481.041682528135
 20
-2723.562708385174
 30
0.0
 11
3591.041682528135
 21
-2723.562708385174
 31
0.0
  0
LINE
  5
4B084
330
1F
100
AcDbEntity
  8
AM_4
100
AcDbLine
 10
3481.041682528135
 20
-2731.562708385174
 30
0.0
 11
3591.041682528135
 21
-2731.562708385174
 31
0.0
  0
LINE
  5
4B085
330
1F
100
AcDbEntity
  8
AM_4
100
AcDbLine
 10
3481.041682528135
 20
-2747.562708385173
 30
0.0
 11
3591.041682528135
 21
-2747.562708385173
 31
0.0
  0
LINE
  5
4B086
330
1F
100
AcDbEntity
  8
AM_0
100
AcDbLine
 10
3481.041682528135
 20
-2707.562708385174
 30
0.0
 11
3481.041682528135
 21
-2763.562708385173
 31
0.0
  0
LINE
  5
4B087
330
1F
100
AcDbEntity
  8
AM_0
100
AcDbLine
 10
3481.041682528135
 20
-2707.562708385174
 30
0.0
 11
3591.041682528135
 21
-2707.562708385174
 31
0.0
  0
LINE
  5
4B088
330
1F
100
AcDbEntity
  8
AM_0
100
AcDbLine
 10
3591.041682528135
 20
-2707.562708385174
 30
0.0
 11
3591.041682528135
 21
-2763.562708385173
 31
0.0
  0
LINE
  5
4B089
330
1F
100
AcDbEntity
  8
AM_4
100
AcDbLine
 10
3481.041682528135
 20
-2755.562708385173
 30
0.0
 11
3591.041682528135
 21
-2755.562708385173
 31
0.0
  0
LINE
  5
4B08A
330
1F
100
AcDbEntity
  8
AM_0
100
AcDbLine
 10
3481.041682528135
 20
-2763.562708385173
 30
0.0
 11
3591.041682528135
 21
-2763.562708385173
 31
0.0
  0
TEXT
  5
4B08B
330
1F
100
AcDbEntity
  8
AM_6
100
AcDbText
 10
3486.698682528134
 20
-2713.162708385175
 30
0.0
 40
3.2
  1
品　名
 41
0.85537027
100
AcDbText
  0
TEXT
  5
4B08C
330
1F
100
AcDbEntity
  8
AM_6
100
AcDbText
 10
3486.698682528134
 20
-2721.162708385175
 30
0.0
 40
3.2
  1
品　番
 41
0.85537027
100
AcDbText
  0
TEXT
  5
4B08D
330
1F
100
AcDbEntity
  8
AM_6
100
AcDbText
 10
3486.698682528134
 20
-2729.162708385175
 30
0.0
 40
3.2
  1
材　質
 41
0.85537027
100
AcDbText
  0
TEXT
  5
4B08E
330
1F
100
AcDbEntity
  8
AM_6
100
AcDbText
 10
3486.698682528134
 20
-2737.162708385175
 30
0.0
 40
3.2
  1
仕上げ
 41
0.85537027
100
AcDbText
  0
TEXT
  5
4B08F
330
1F
100
AcDbEntity
  8
AM_6
100
AcDbText
 10
3483.498682528135
 20
-2761.162708385175
 30
0.0
 40
3.2
  1
セットビス
 41
0.84892707
100
AcDbText
  0
TEXT
  5
4B090
330
1F
100
AcDbEntity
  8
AM_6
100
AcDbText
 10
3485.098682528135
 20
-2753.162708385175
 30
0.0
 40
3.2
  1
左右勝手
 41
0.8512700499999999
100
AcDbText
  0
MTEXT
  5
4B091
330
1F
100
AcDbEntity
  8
AM_6
100
AcDbMText
 10
3501.041682528135
 20
-2711.562708385174
 30
0.0
 40
3.2
 41
90.0
 71
     4
 72
     5
  1
　　規格型平丁番
 73
     1
 44
1.0
1001
ACAD
1000
MTEXTBEGIN
1070
    73
1070
     1
1070
    44
1040
1.0
1070
    74
1070
     0
1000
MTEXTEND
  0
MTEXT
  5
4B092
330
1F
100
AcDbEntity
  8
AM_6
100
AcDbMText
 10
3501.041682528135
 20
-2719.562708385174
 30
0.0
 40
3.2
 41
90.0
 71
     4
 72
     5
  1
　　DEH-21 ／ DEH-21S
 73
     1
 44
1.0
1001
ACAD
1000
MTEXTBEGIN
1070
    73
1070
     1
1070
    44
1040
1.0
1070
    74
1070
     0
1000
MTEXTEND
  0
MTEXT
  5
4B093
330
1F
100
AcDbEntity
  8
AM_6
100
AcDbMText
 10
3501.041682528135
 20
-2727.562708385174
 30
0.0
 40
3.2
 41
90.0
 71
     4
 72
     5
  1
　　表参照
 73
     1
 44
1.0
1001
ACAD
1000
MTEXTBEGIN
1070
    73
1070
     1
1070
    44
1040
1.0
1070
    74
1070
     0
1000
MTEXTEND
  0
MTEXT
  5
4B094
330
1F
100
AcDbEntity
  8
AM_6
100
AcDbMText
 10
3501.041682528135
 20
-2735.562708385174
 30
0.0
 40
3.2
 41
90.0
 71
     4
 72
     5
  1
　　ステンレス：鏡面
 73
     1
 44
1.0
1001
ACAD
1000
MTEXTBEGIN
1070
    73
1070
     1
1070
    44
1040
1.0
1070
    74
1070
     0
1000
MTEXTEND
  0
MTEXT
  5
4B095
330
1F
100
AcDbEntity
  8
AM_6
100
AcDbMText
 10
3501.041682528135
 20
-2751.562708385174
 30
0.0
 40
3.2
 41
90.0
 71
     4
 72
     5
  1
　　左右勝手無し
 73
     1
 44
1.0
1001
ACAD
1000
MTEXTBEGIN
1070
    73
1070
     1
1070
    44
1040
1.0
1070
    74
1070
     0
1000
MTEXTEND
  0
MTEXT
  5
4B096
330
1F
100
AcDbEntity
  8
AM_6
100
AcDbMText
 10
3501.041682528135
 20
-2759.562708385174
 30
0.0
 40
3.2
 41
90.0
 71
     4
 72
     5
  1
　　無し
 73
     1
 44
1.0
1001
ACAD
1000
MTEXTBEGIN
1070
    73
1070
     1
1070
    44
1040
1.0
1070
    74
1070
     0
1000
MTEXTEND
  0
MTEXT
  5
4B097
330
1F
100
AcDbEntity
  8
AM_6
100
AcDbMText
 10
3501.041682528135
 20
-2743.562708385174
 30
0.0
 40
3.2
 41
90.0
 71
     4
 72
     5
  1
　　スチール：　生地
 73
     1
 44
1.0
1001
ACAD
1000
MTEXTBEGIN
1070
    73
1070
     1
1070
    44
1040
1.0
1070
    74
1070
     0
1000
MTEXTEND
  0
LINE
  5
4B868
102
{ACAD_REACTORS
330
4B8A7
102
}
330
1F
100
AcDbEntity
  8
0部品4
100
AcDbLine
 10
3722.04904671386
 20
-2797.083258774066
 30
0.0
 11
3722.04904671386
 21
-2894.083258774066
 31
0.0
  0
LINE
  5
4B869
102
{ACAD_REACTORS
330
4B8AD
102
}
330
1F
100
AcDbEntity
  8
0部品4
100
AcDbLine
 10
3723.54904671386
 20
-2895.583258774066
 30
0.0
 11
3741.299046713859
 21
-2895.583258774066
 31
0.0
  0
LINE
  5
4B86A
330
1F
100
AcDbEntity
  8
0部品4
100
AcDbLine
 10
3741.74904671386
 20
-2855.583258774066
 30
0.0
 11
3741.74904671386
 21
-2835.583258774066
 31
0.0
  0
LINE
  5
4B86B
330
1F
100
AcDbEntity
  8
0部品4
100
AcDbLine
 10
3734.349046713859
 20
-2855.583258774066
 30
0.0
 11
3741.74904671386
 21
-2855.583258774066
 31
0.0
  0
LINE
  5
4B86C
330
1F
100
AcDbEntity
  8
0部品4
100
AcDbLine
 10
3734.349046713859
 20
-2875.583258774066
 30
0.0
 11
3734.349046713859
 21
-2855.583258774066
 31
0.0
  0
LINE
  5
4B86D
330
1F
100
AcDbEntity
  8
0部品4
100
AcDbLine
 10
3741.74904671386
 20
-2875.583258774066
 30
0.0
 11
3734.349046713859
 21
-2875.583258774066
 31
0.0
  0
LINE
  5
4B86E
330
1F
100
AcDbEntity
  8
0部品4
100
AcDbLine
 10
3741.74904671386
 20
-2895.583258774066
 30
0.0
 11
3741.74904671386
 21
-2875.583258774066
 31
0.0
  0
LINE
  5
4B86F
330
1F
100
AcDbEntity
  8
0部品4
100
AcDbLine
 10
3741.299046713859
 20
-2795.583258774066
 30
0.0
 11
3741.299046713859
 21
-2895.583258774066
 31
0.0
  0
LINE
  5
4B870
102
{ACAD_REACTORS
330
4B8AD
102
}
330
1F
100
AcDbEntity
  8
0部品4
100
AcDbLine
 10
3741.299046713859
 20
-2795.583258774066
 30
0.0
 11
3723.54904671386
 21
-2795.583258774066
 31
0.0
  0
LINE
  5
4B871
102
{ACAD_REACTORS
330
4B8A7
102
}
330
1F
100
AcDbEntity
  8
0部品4
100
AcDbLine
 10
3754.04904671386
 20
-2797.083258774066
 30
0.0
 11
3754.04904671386
 21
-2894.083258774066
 31
0.0
  0
LINE
  5
4B872
330
1F
100
AcDbEntity
  8
0部品4
100
AcDbLine
 10
3752.54904671386
 20
-2895.583258774066
 30
0.0
 11
3741.74904671386
 21
-2895.583258774066
 31
0.0
  0
CIRCLE
  5
4B873
330
1F
100
AcDbEntity
  8
0部品4
100
AcDbCircle
 10
3748.049046713859
 20
-2832.583258774066
 30
0.0
 40
1.6
  0
LINE
  5
4B874
330
1F
100
AcDbEntity
  8
0部品4
100
AcDbLine
 10
3741.74904671386
 20
-2795.583258774066
 30
0.0
 11
3752.54904671386
 21
-2795.583258774066
 31
0.0
  0
CIRCLE
  5
4B875
330
1F
100
AcDbEntity
  8
0部品4
100
AcDbCircle
 10
3748.049046713859
 20
-2858.583258774066
 30
0.0
 40
1.6
  0
CIRCLE
  5
4B876
330
1F
100
AcDbEntity
  8
0部品4
100
AcDbCircle
 10
3748.049046713859
 20
-2884.583258774066
 30
0.0
 40
1.6
  0
CIRCLE
  5
4B877
330
1F
100
AcDbEntity
  8
0部品4
100
AcDbCircle
 10
3728.049046713859
 20
-2884.583258774066
 30
0.0
 40
1.6
  0
CIRCLE
  5
4B878
330
1F
100
AcDbEntity
  8
0部品4
100
AcDbCircle
 10
3728.049046713859
 20
-2858.583258774066
 30
0.0
 40
1.6
  0
CIRCLE
  5
4B879
330
1F
100
AcDbEntity
  8
0部品4
100
AcDbCircle
 10
3728.049046713859
 20
-2832.583258774066
 30
0.0
 40
1.6
  0
LINE
  5
4B87A
102
{ACAD_REACTORS
330
4B8B0
102
}
330
1F
100
AcDbEntity
  8
0部品4
  6
中心線1
 48
0.25
370
    13
100
AcDbLine
 10
3730.649046713859
 20
-2806.583258774066
 30
0.0
 11
3725.44904671386
 21
-2806.583258774066
 31
0.0
  0
LINE
  5
4B87B
102
{ACAD_REACTORS
330
4B8AA
102
}
330
1F
100
AcDbEntity
  8
0部品4
  6
中心線1
 48
0.25
370
    13
100
AcDbLine
 10
3728.049046713859
 20
-2803.983258774066
 30
0.0
 11
3728.049046713859
 21
-2809.183258774067
 31
0.0
  0
CIRCLE
  5
4B87C
330
1F
100
AcDbEntity
  8
0部品4
100
AcDbCircle
 10
3728.049046713859
 20
-2806.583258774066
 30
0.0
 40
1.6
  0
CIRCLE
  5
4B87D
330
1F
100
AcDbEntity
  8
0部品4
100
AcDbCircle
 10
3748.049046713859
 20
-2806.583258774066
 30
0.0
 40
1.6
  0
CIRCLE
  5
4B87E
102
{ACAD_REACTORS
330
4B8BC
102
}
330
1F
100
AcDbEntity
  8
0部品4
100
AcDbCircle
 10
3738.04904671386
 20
-2937.575363068747
 30
0.0
 40
1.5
  0
ARC
  5
4B87F
330
1F
100
AcDbEntity
  8
0部品4
100
AcDbCircle
 10
3738.04904671386
 20
-2937.575363068747
 30
0.0
 40
1.75
100
AcDbArc
 50
270.0
 51
212.5789699999539
  0
ARC
  5
4B880
330
1F
100
AcDbEntity
  8
0部品4
100
AcDbCircle
 10
3738.04904671386
 20
-2937.575363068747
 30
0.0
 40
1.75
100
AcDbArc
 50
212.5789699999539
 51
270.0
  0
ARC
  5
4B881
102
{ACAD_REACTORS
330
4B8B9
102
}
330
1F
100
AcDbEntity
  8
0部品4
100
AcDbCircle
 10
3738.04904671386
 20
-2937.575363068747
 30
0.0
 40
3.25
100
AcDbArc
 50
270.0
 51
212.5789699999539
  0
LINE
  5
4B882
330
1F
100
AcDbEntity
  8
0部品4
  6
中心線1
 48
0.5
370
    13
100
AcDbLine
 10
3738.04904671386
 20
-2932.825363068747
 30
0.0
 11
3738.04904671386
 21
-2942.325363068747
 31
0.0
  0
LINE
  5
4B883
330
1F
100
AcDbEntity
  8
0部品4
100
AcDbLine
 10
3736.57440871386
 20
-2938.517671068749
 30
0.0
 11
3735.31043371386
 21
-2939.325363068747
 31
0.0
  0
LINE
  5
4B884
330
1F
100
AcDbEntity
  8
0部品4
100
AcDbLine
 10
3734.79904671386
 20
-2795.583258774066
 30
0.0
 11
3734.79904671386
 21
-2895.583258774066
 31
0.0
  0
LINE
  5
4B885
330
1F
100
AcDbEntity
  8
0部品4
100
AcDbLine
 10
3741.74904671386
 20
-2815.583258774066
 30
0.0
 11
3741.74904671386
 21
-2795.583258774066
 31
0.0
  0
LINE
  5
4B886
330
1F
100
AcDbEntity
  8
0部品4
100
AcDbLine
 10
3734.349046713859
 20
-2815.583258774066
 30
0.0
 11
3741.74904671386
 21
-2815.583258774066
 31
0.0
  0
LINE
  5
4B887
330
1F
100
AcDbEntity
  8
0部品4
100
AcDbLine
 10
3738.04904671386
 20
-2939.325363068747
 30
0.0
 11
3722.04904671386
 21
-2939.325363068747
 31
0.0
  0
LINE
  5
4B888
330
1F
100
AcDbEntity
  8
0部品4
100
AcDbLine
 10
3754.04904671386
 20
-2940.825363068747
 30
0.0
 11
3722.04904671386
 21
-2940.825363068747
 31
0.0
  0
LINE
  5
4B889
102
{ACAD_REACTORS
330
4B8BF
102
}
330
1F
100
AcDbEntity
  8
0部品4
100
AcDbLine
 10
3722.04904671386
 20
-2939.325363068747
 30
0.0
 11
3722.04904671386
 21
-2940.825363068747
 31
0.0
  0
LINE
  5
4B88A
330
1F
100
AcDbEntity
  8
0部品4
100
AcDbLine
 10
3754.04904671386
 20
-2940.825363068747
 30
0.0
 11
3754.04904671386
 21
-2939.325363068747
 31
0.0
  0
LINE
  5
4B88B
330
1F
100
AcDbEntity
  8
0部品4
100
AcDbLine
 10
3754.04904671386
 20
-2939.325363068747
 30
0.0
 11
3740.78765971386
 21
-2939.325363068747
 31
0.0
  0
ARC
  5
4B88C
330
1F
100
AcDbEntity
  8
0部品4
100
AcDbCircle
 10
3723.54904671386
 20
-2797.083258774066
 30
0.0
 40
1.5
100
AcDbArc
 50
90.0
 51
180.0
  0
ARC
  5
4B88D
330
1F
100
AcDbEntity
  8
0部品4
100
AcDbCircle
 10
3752.54904671386
 20
-2797.083258774066
 30
0.0
 40
1.5
100
AcDbArc
 50
0.0
 51
90.0
  0
ARC
  5
4B88E
330
1F
100
AcDbEntity
  8
0部品4
100
AcDbCircle
 10
3752.54904671386
 20
-2894.083258774066
 30
0.0
 40
1.5
100
AcDbArc
 50
270.0
 51
0.0
  0
ARC
  5
4B88F
330
1F
100
AcDbEntity
  8
0部品4
100
AcDbCircle
 10
3723.54904671386
 20
-2894.083258774066
 30
0.0
 40
1.5
100
AcDbArc
 50
180.0
 51
270.0
  0
LINE
  5
4B890
330
1F
100
AcDbEntity
  8
0部品4
  6
中心線1
 48
0.5
370
    13
100
AcDbLine
 10
3738.04904671386
 20
-2792.583258774066
 30
0.0
 11
3738.04904671386
 21
-2898.583258774066
 31
0.0
  0
LINE
  5
4B891
330
1F
100
AcDbEntity
  8
0部品4
  6
中心線1
 48
0.5
370
    13
100
AcDbLine
 10
3742.799046713859
 20
-2937.575363068747
 30
0.0
 11
3733.29904671386
 21
-2937.575363068747
 31
0.0
  0
LINE
  5
4B892
330
1F
100
AcDbEntity
  8
0部品4
  6
中心線1
 48
0.25
370
    13
100
AcDbLine
 10
3728.049046713859
 20
-2937.825363068747
 30
0.0
 11
3728.049046713859
 21
-2942.325363068747
 31
0.0
  0
LINE
  5
4B893
330
1F
100
AcDbEntity
  8
0部品4
100
AcDbLine
 10
3734.349046713859
 20
-2835.583258774066
 30
0.0
 11
3734.349046713859
 21
-2815.583258774066
 31
0.0
  0
LINE
  5
4B894
330
1F
100
AcDbEntity
  8
0部品4
100
AcDbLine
 10
3741.74904671386
 20
-2835.583258774066
 30
0.0
 11
3734.349046713859
 21
-2835.583258774066
 31
0.0
  0
LINE
  5
4B895
330
1F
100
AcDbEntity
  8
0部品4
  6
中心線1
 48
0.25
370
    13
100
AcDbLine
 10
3748.049046713859
 20
-2937.825363068747
 30
0.0
 11
3748.049046713859
 21
-2942.325363068747
 31
0.0
  0
LINE
  5
4B896
330
1F
100
AcDbEntity
  8
0部品4
100
AcDbLine
 10
3741.74904671386
 20
-2939.325363068747
 30
0.0
 11
3741.74904671386
 21
-2940.825363068747
 31
0.0
  0
LINE
  5
4B897
330
1F
100
AcDbEntity
  8
0部品4
  6
中心線1
 48
0.25
370
    13
100
AcDbLine
 10
3750.649046713859
 20
-2806.583258774066
 30
0.0
 11
3745.44904671386
 21
-2806.583258774066
 31
0.0
  0
LINE
  5
4B898
102
{ACAD_REACTORS
330
4B8AA
102
}
330
1F
100
AcDbEntity
  8
0部品4
  6
中心線1
 48
0.25
370
    13
100
AcDbLine
 10
3748.049046713859
 20
-2803.983258774066
 30
0.0
 11
3748.049046713859
 21
-2809.183258774067
 31
0.0
  0
LINE
  5
4B899
330
1F
100
AcDbEntity
  8
0部品4
  6
中心線1
 48
0.25
370
    13
100
AcDbLine
 10
3750.649046713859
 20
-2832.583258774066
 30
0.0
 11
3745.44904671386
 21
-2832.583258774066
 31
0.0
  0
LINE
  5
4B89A
330
1F
100
AcDbEntity
  8
0部品4
  6
中心線1
 48
0.25
370
    13
100
AcDbLine
 10
3748.049046713859
 20
-2829.983258774066
 30
0.0
 11
3748.049046713859
 21
-2835.183258774066
 31
0.0
  0
LINE
  5
4B89B
102
{ACAD_REACTORS
330
4B8B0
330
4B8B3
102
}
330
1F
100
AcDbEntity
  8
0部品4
  6
中心線1
 48
0.25
370
    13
100
AcDbLine
 10
3730.649046713859
 20
-2832.583258774066
 30
0.0
 11
3725.44904671386
 21
-2832.583258774066
 31
0.0
  0
LINE
  5
4B89C
330
1F
100
AcDbEntity
  8
0部品4
  6
中心線1
 48
0.25
370
    13
100
AcDbLine
 10
3728.049046713859
 20
-2829.983258774066
 30
0.0
 11
3728.049046713859
 21
-2835.183258774066
 31
0.0
  0
LINE
  5
4B89D
102
{ACAD_REACTORS
330
4B8B3
330
4B8B6
102
}
330
1F
100
AcDbEntity
  8
0部品4
  6
中心線1
 48
0.25
370
    13
100
AcDbLine
 10
3730.649046713859
 20
-2858.583258774066
 30
0.0
 11
3725.44904671386
 21
-2858.583258774066
 31
0.0
  0
LINE
  5
4B89E
330
1F
100
AcDbEntity
  8
0部品4
  6
中心線1
 48
0.25
370
    13
100
AcDbLine
 10
3728.049046713859
 20
-2855.983258774066
 30
0.0
 11
3728.049046713859
 21
-2861.183258774067
 31
0.0
  0
LINE
  5
4B89F
330
1F
100
AcDbEntity
  8
0部品4
  6
中心線1
 48
0.25
370
    13
100
AcDbLine
 10
3750.649046713859
 20
-2858.583258774066
 30
0.0
 11
3745.44904671386
 21
-2858.583258774066
 31
0.0
  0
LINE
  5
4B8A0
330
1F
100
AcDbEntity
  8
0部品4
  6
中心線1
 48
0.25
370
    13
100
AcDbLine
 10
3748.049046713859
 20
-2855.983258774066
 30
0.0
 11
3748.049046713859
 21
-2861.183258774067
 31
0.0
  0
LINE
  5
4B8A1
330
1F
100
AcDbEntity
  8
0部品4
  6
中心線1
 48
0.25
370
    13
100
AcDbLine
 10
3750.649046713859
 20
-2884.583258774066
 30
0.0
 11
3745.44904671386
 21
-2884.583258774066
 31
0.0
  0
LINE
  5
4B8A2
330
1F
100
AcDbEntity
  8
0部品4
  6
中心線1
 48
0.25
370
    13
100
AcDbLine
 10
3748.049046713859
 20
-2881.983258774066
 30
0.0
 11
3748.049046713859
 21
-2887.183258774067
 31
0.0
  0
LINE
  5
4B8A3
102
{ACAD_REACTORS
330
4B8B6
102
}
330
1F
100
AcDbEntity
  8
0部品4
  6
中心線1
 48
0.25
370
    13
100
AcDbLine
 10
3730.649046713859
 20
-2884.583258774066
 30
0.0
 11
3725.44904671386
 21
-2884.583258774066
 31
0.0
  0
LINE
  5
4B8A4
330
1F
100
AcDbEntity
  8
0部品4
  6
中心線1
 48
0.25
370
    13
100
AcDbLine
 10
3728.049046713859
 20
-2881.983258774066
 30
0.0
 11
3728.049046713859
 21
-2887.183258774067
 31
0.0
  0
DIMENSION
  5
4B8A5
102
{ACAD_XDICTIONARY
360
4B8A6
102
}
102
{ACAD_REACTORS
330
4B8A7
102
}
330
1F
100
AcDbEntity
  8
AM_5
100
AcDbDimension
  2
*D82
 10
3754.04904671386
 20
-2779.583258774066
 30
0.0
 11
3738.04904671386
 21
-2779.583258774066
 31
0.0
 70
   160
  1
<>
 71
     5
 42
32.0
  3
AM_ISO$0
100
AcDbAlignedDimension
 13
3722.04904671386
 23
-2797.083258774066
 33
0.0
 14
3754.04904671386
 24
-2797.083258774066
 34
0.0
100
AcDbRotatedDimension
1001
ACAD
1000
DSTYLE
1002
{
1070
    41
1040
1.0
1002
}
  0
DIMENSION
  5
4B8A8
102
{ACAD_XDICTIONARY
360
4B8A9
102
}
102
{ACAD_REACTORS
330
4B8AA
102
}
330
1F
100
AcDbEntity
  8
AM_5
100
AcDbDimension
  2
*D83
 10
3748.049046713859
 20
-2787.583258774066
 30
0.0
 11
3738.04904671386
 21
-2787.583258774066
 31
0.0
 70
   160
  1
<>
 71
     5
 42
20.0
  3
AM_ISO$0
100
AcDbAlignedDimension
 13
3728.049046713859
 23
-2803.983258774066
 33
0.0
 14
3748.049046713859
 24
-2803.983258774066
 34
0.0
100
AcDbRotatedDimension
1001
ACAD
1000
DSTYLE
1002
{
1070
    41
1040
1.0
1002
}
  0
DIMENSION
  5
4B8AB
102
{ACAD_XDICTIONARY
360
4B8AC
102
}
102
{ACAD_REACTORS
330
4B8AD
102
}
330
1F
100
AcDbEntity
  8
AM_5
100
AcDbDimension
  2
*D84
 10
3706.04904671386
 20
-2895.583258774066
 30
0.0
 11
3706.04904671386
 21
-2845.583258774061
 31
0.0
 70
   160
  1
A
 71
     5
 42
100.0
  3
AM_ISO$0
100
AcDbAlignedDimension
 13
3723.54904671386
 23
-2795.583258774066
 33
0.0
 14
3723.54904671386
 24
-2895.583258774066
 34
0.0
 50
90.0
100
AcDbRotatedDimension
1001
ACAD
1000
DSTYLE
1002
{
1070
    41
1040
1.0
1002
}
  0
DIMENSION
  5
4B8AE
102
{ACAD_XDICTIONARY
360
4B8AF
102
}
102
{ACAD_REACTORS
330
4B8B0
102
}
330
1F
100
AcDbEntity
  8
AM_5
100
AcDbDimension
  2
*D85
 10
3714.049046713859
 20
-2806.583258774066
 30
0.0
 11
3714.049046713859
 21
-2819.583258774066
 31
0.0
 70
   160
  1
C
 71
     5
 42
26.0
  3
AM_ISO$0
100
AcDbAlignedDimension
 13
3725.44904671386
 23
-2832.583258774066
 33
0.0
 14
3725.44904671386
 24
-2806.583258774066
 34
0.0
 50
90.0
100
AcDbRotatedDimension
1001
ACAD
1000
DSTYLE
1002
{
1070
    41
1040
1.0
1002
}
  0
DIMENSION
  5
4B8B1
102
{ACAD_XDICTIONARY
360
4B8B2
102
}
102
{ACAD_REACTORS
330
4B8B3
102
}
330
1F
100
AcDbEntity
  8
AM_5
100
AcDbDimension
  2
*D86
 10
3714.049046713859
 20
-2858.583258774066
 30
0.0
 11
3714.049046713859
 21
-2845.583258774066
 31
0.0
 70
   160
  1
D
 71
     5
 42
26.0
  3
AM_ISO$0
100
AcDbAlignedDimension
 13
3725.44904671386
 23
-2832.583258774066
 33
0.0
 14
3725.44904671386
 24
-2858.583258774066
 34
0.0
 50
90.0
100
AcDbRotatedDimension
1001
ACAD
1000
DSTYLE
1002
{
1070
    41
1040
1.0
1002
}
  0
DIMENSION
  5
4B8B4
102
{ACAD_XDICTIONARY
360
4B8B5
102
}
102
{ACAD_REACTORS
330
4B8B6
102
}
330
1F
100
AcDbEntity
  8
AM_5
100
AcDbDimension
  2
*D87
 10
3714.049046713859
 20
-2884.583258774066
 30
0.0
 11
3714.049046713859
 21
-2871.583258774066
 31
0.0
 70
   160
  1
E
 71
     5
 42
26.0
  3
AM_ISO$0
100
AcDbAlignedDimension
 13
3725.44904671386
 23
-2858.583258774066
 33
0.0
 14
3725.44904671386
 24
-2884.583258774066
 34
0.0
 50
90.0
100
AcDbRotatedDimension
1001
ACAD
1000
DSTYLE
1002
{
1070
    41
1040
1.0
1002
}
  0
DIMENSION
  5
4B8B7
102
{ACAD_XDICTIONARY
360
4B8B8
102
}
102
{ACAD_REACTORS
330
4B8B9
102
}
330
1F
100
AcDbEntity
  8
AM_5
100
AcDbDimension
  2
*D88
 10
3741.299046713859
 20
-2918.325363068747
 30
0.0
 11
3748.024380047193
 21
-2918.325363068747
 31
0.0
 70
   160
  1
（%%c<>）
 71
     5
 42
6.5
  3
AM_ISO$0
100
AcDbAlignedDimension
 13
3734.79904671386
 23
-2937.575363068747
 33
0.0
 14
3741.299046713859
 24
-2937.575363068747
 34
0.0
100
AcDbRotatedDimension
1001
ACAD
1000
DSTYLE
1002
{
1070
    41
1040
1.0
1002
}
  0
DIMENSION
  5
4B8BA
102
{ACAD_XDICTIONARY
360
4B8BB
102
}
102
{ACAD_REACTORS
330
4B8BC
102
}
330
1F
100
AcDbEntity
  8
AM_5
100
AcDbDimension
  2
*D89
 10
3739.54904671386
 20
-2926.325363068747
 30
0.0
 11
3744.482719500881
 21
-2926.325363068747
 31
0.0
 70
   160
  1
%%c<>
 71
     5
 42
3.0
  3
AM_ISO$0
100
AcDbAlignedDimension
 13
3736.54904671386
 23
-2937.575363068747
 33
0.0
 14
3739.54904671386
 24
-2937.575363068747
 34
0.0
100
AcDbRotatedDimension
1001
ACAD
1000
DSTYLE
1002
{
1070
    41
1040
1.0
1002
}
  0
DIMENSION
  5
4B8BD
102
{ACAD_XDICTIONARY
360
4B8BE
102
}
102
{ACAD_REACTORS
330
4B8BF
102
}
330
1F
100
AcDbEntity
  8
AM_5
100
AcDbDimension
  2
*D90
 10
3714.049046713855
 20
-2939.325363068747
 30
0.0
 11
3714.049046713856
 21
-2944.572029735413
 31
0.0
 70
   160
  1
B
 71
     5
 42
1.5
  3
AM_ISO$0
100
AcDbAlignedDimension
 13
3722.04904671386
 23
-2940.825363068747
 33
0.0
 14
3722.04904671386
 24
-2939.325363068747
 34
0.0
 50
90.0
100
AcDbRotatedDimension
1001
ACAD
1000
DSTYLE
1002
{
1070
    41
1040
1.0
1002
}
  0
DIMENSION
  5
4B8C0
330
1F
100
AcDbEntity
  8
AM_5
100
AcDbDimension
  2
*D74
 10
3746.667556734698
 20
-2807.390405252386
 30
0.0
 11
3764.330983735492
 21
-2800.957670694874
 31
0.0
 70
   163
  1
F-<>
 71
     5
 42
3.199999999985266
  3
AM_ISO$3
100
AcDbDiametricDimension
 15
3749.430536693004
 25
-2805.77611229573
 35
0.0
 40
0.0
1001
ACAD
1000
DSTYLE
1002
{
1070
    41
1040
1.0
1070
   172
1070
     1
1002
}
  0
LINE
  5
4B8C1
330
1F
100
AcDbEntity
  8
0部品5
100
AcDbLine
 10
3805.817155434429
 20
-2797.083258774066
 30
0.0
 11
3805.817155434429
 21
-2894.083258774066
 31
0.0
  0
LINE
  5
4B8C2
330
1F
100
AcDbEntity
  8
0部品5
100
AcDbLine
 10
3807.317155434429
 20
-2895.583258774066
 30
0.0
 11
3825.06715543443
 21
-2895.583258774066
 31
0.0
  0
LINE
  5
4B8C3
330
1F
100
AcDbEntity
  8
0部品5
100
AcDbLine
 10
3825.517155434429
 20
-2855.583258774066
 30
0.0
 11
3825.517155434429
 21
-2835.583258774066
 31
0.0
  0
LINE
  5
4B8C4
330
1F
100
AcDbEntity
  8
0部品5
100
AcDbLine
 10
3818.11715543443
 20
-2855.583258774066
 30
0.0
 11
3825.517155434429
 21
-2855.583258774066
 31
0.0
  0
LINE
  5
4B8C5
330
1F
100
AcDbEntity
  8
0部品5
100
AcDbLine
 10
3818.11715543443
 20
-2875.583258774066
 30
0.0
 11
3818.11715543443
 21
-2855.583258774066
 31
0.0
  0
LINE
  5
4B8C6
330
1F
100
AcDbEntity
  8
0部品5
100
AcDbLine
 10
3825.517155434429
 20
-2875.583258774066
 30
0.0
 11
3818.11715543443
 21
-2875.583258774066
 31
0.0
  0
LINE
  5
4B8C7
330
1F
100
AcDbEntity
  8
0部品5
100
AcDbLine
 10
3825.517155434429
 20
-2895.583258774066
 30
0.0
 11
3825.517155434429
 21
-2875.583258774066
 31
0.0
  0
LINE
  5
4B8C8
330
1F
100
AcDbEntity
  8
0部品5
100
AcDbLine
 10
3825.06715543443
 20
-2795.583258774066
 30
0.0
 11
3825.06715543443
 21
-2895.583258774066
 31
0.0
  0
LINE
  5
4B8C9
330
1F
100
AcDbEntity
  8
0部品5
100
AcDbLine
 10
3825.06715543443
 20
-2795.583258774066
 30
0.0
 11
3807.317155434429
 21
-2795.583258774066
 31
0.0
  0
LINE
  5
4B8CA
330
1F
100
AcDbEntity
  8
0部品5
100
AcDbLine
 10
3837.817155434429
 20
-2797.083258774066
 30
0.0
 11
3837.817155434429
 21
-2894.083258774066
 31
0.0
  0
LINE
  5
4B8CB
330
1F
100
AcDbEntity
  8
0部品5
100
AcDbLine
 10
3836.317155434429
 20
-2895.583258774066
 30
0.0
 11
3825.517155434429
 21
-2895.583258774066
 31
0.0
  0
LINE
  5
4B8CC
330
1F
100
AcDbEntity
  8
0部品5
100
AcDbLine
 10
3825.517155434429
 20
-2795.583258774066
 30
0.0
 11
3836.317155434429
 21
-2795.583258774066
 31
0.0
  0
CIRCLE
  5
4B8CD
330
1F
100
AcDbEntity
  8
0部品5
100
AcDbCircle
 10
3821.817155434429
 20
-2937.575363068749
 30
0.0
 40
1.5
  0
ARC
  5
4B8CE
330
1F
100
AcDbEntity
  8
0部品5
100
AcDbCircle
 10
3821.817155434429
 20
-2937.575363068749
 30
0.0
 40
1.75
100
AcDbArc
 50
270.0
 51
212.5789699999539
  0
ARC
  5
4B8CF
330
1F
100
AcDbEntity
  8
0部品5
100
AcDbCircle
 10
3821.817155434429
 20
-2937.575363068749
 30
0.0
 40
1.75
100
AcDbArc
 50
212.5789699999539
 51
270.0
  0
ARC
  5
4B8D0
330
1F
100
AcDbEntity
  8
0部品5
100
AcDbCircle
 10
3821.817155434429
 20
-2937.575363068749
 30
0.0
 40
3.25
100
AcDbArc
 50
270.0
 51
212.5789699999539
  0
LINE
  5
4B8D1
330
1F
100
AcDbEntity
  8
0部品5
  6
中心線1
 48
0.5
370
    13
100
AcDbLine
 10
3821.817155434429
 20
-2932.825363068749
 30
0.0
 11
3821.817155434429
 21
-2942.325363068749
 31
0.0
  0
LINE
  5
4B8D2
330
1F
100
AcDbEntity
  8
0部品5
100
AcDbLine
 10
3820.342517434429
 20
-2938.517671068749
 30
0.0
 11
3819.078542434429
 21
-2939.325363068748
 31
0.0
  0
LINE
  5
4B8D3
330
1F
100
AcDbEntity
  8
0部品5
100
AcDbLine
 10
3818.567155434429
 20
-2795.583258774066
 30
0.0
 11
3818.567155434429
 21
-2895.583258774066
 31
0.0
  0
LINE
  5
4B8D4
330
1F
100
AcDbEntity
  8
0部品5
100
AcDbLine
 10
3825.517155434429
 20
-2815.583258774066
 30
0.0
 11
3825.517155434429
 21
-2795.583258774066
 31
0.0
  0
LINE
  5
4B8D5
330
1F
100
AcDbEntity
  8
0部品5
100
AcDbLine
 10
3818.11715543443
 20
-2815.583258774066
 30
0.0
 11
3825.517155434429
 21
-2815.583258774066
 31
0.0
  0
LINE
  5
4B8D6
330
1F
100
AcDbEntity
  8
0部品5
100
AcDbLine
 10
3821.817155434429
 20
-2939.325363068748
 30
0.0
 11
3805.817155434429
 21
-2939.325363068748
 31
0.0
  0
LINE
  5
4B8D7
330
1F
100
AcDbEntity
  8
0部品5
100
AcDbLine
 10
3837.817155434429
 20
-2940.825363068748
 30
0.0
 11
3805.817155434429
 21
-2940.825363068748
 31
0.0
  0
LINE
  5
4B8D8
330
1F
100
AcDbEntity
  8
0部品5
100
AcDbLine
 10
3805.817155434429
 20
-2939.325363068748
 30
0.0
 11
3805.817155434429
 21
-2940.825363068748
 31
0.0
  0
LINE
  5
4B8D9
330
1F
100
AcDbEntity
  8
0部品5
100
AcDbLine
 10
3837.817155434429
 20
-2940.825363068748
 30
0.0
 11
3837.817155434429
 21
-2939.325363068748
 31
0.0
  0
LINE
  5
4B8DA
330
1F
100
AcDbEntity
  8
0部品5
100
AcDbLine
 10
3837.817155434429
 20
-2939.325363068748
 30
0.0
 11
3824.555768434429
 21
-2939.325363068748
 31
0.0
  0
ARC
  5
4B8DB
330
1F
100
AcDbEntity
  8
0部品5
100
AcDbCircle
 10
3807.317155434429
 20
-2797.083258774066
 30
0.0
 40
1.5
100
AcDbArc
 50
90.0
 51
180.0
  0
ARC
  5
4B8DC
330
1F
100
AcDbEntity
  8
0部品5
100
AcDbCircle
 10
3836.317155434429
 20
-2797.083258774066
 30
0.0
 40
1.5
100
AcDbArc
 50
0.0
 51
90.0
  0
ARC
  5
4B8DD
330
1F
100
AcDbEntity
  8
0部品5
100
AcDbCircle
 10
3836.317155434429
 20
-2894.083258774066
 30
0.0
 40
1.5
100
AcDbArc
 50
270.0
 51
0.0
  0
ARC
  5
4B8DE
330
1F
100
AcDbEntity
  8
0部品5
100
AcDbCircle
 10
3807.317155434429
 20
-2894.083258774066
 30
0.0
 40
1.5
100
AcDbArc
 50
180.0
 51
270.0
  0
LINE
  5
4B8DF
330
1F
100
AcDbEntity
  8
0部品5
  6
中心線1
 48
0.5
370
    13
100
AcDbLine
 10
3821.817155434429
 20
-2792.583258774066
 30
0.0
 11
3821.817155434429
 21
-2898.583258774066
 31
0.0
  0
LINE
  5
4B8E0
330
1F
100
AcDbEntity
  8
0部品5
  6
中心線1
 48
0.5
370
    13
100
AcDbLine
 10
3826.567155434429
 20
-2937.575363068749
 30
0.0
 11
3817.067155434429
 21
-2937.575363068749
 31
0.0
  0
LINE
  5
4B8E1
330
1F
100
AcDbEntity
  8
0部品5
100
AcDbLine
 10
3818.11715543443
 20
-2835.583258774066
 30
0.0
 11
3818.11715543443
 21
-2815.583258774066
 31
0.0
  0
LINE
  5
4B8E2
330
1F
100
AcDbEntity
  8
0部品5
100
AcDbLine
 10
3825.517155434429
 20
-2835.583258774066
 30
0.0
 11
3818.11715543443
 21
-2835.583258774066
 31
0.0
  0
LINE
  5
4B8E3
330
1F
100
AcDbEntity
  8
0部品5
100
AcDbLine
 10
3825.517155434429
 20
-2939.325363068748
 30
0.0
 11
3825.517155434429
 21
-2940.825363068748
 31
0.0
  0
DIMENSION
  5
4B8E4
330
1F
100
AcDbEntity
  8
AM_5
100
AcDbDimension
  2
*D75
 10
3762.049046713857
 20
-2855.583258774066
 30
0.0
 11
3762.049046713857
 21
-2845.583258774066
 31
0.0
 70
   160
  1
G：割り数
 71
     5
 42
20.0
  3
AM_ISO$0
100
AcDbAlignedDimension
 13
3741.74904671386
 23
-2835.583258774066
 33
0.0
 14
3741.74904671386
 24
-2855.583258774066
 34
0.0
 50
90.0
100
AcDbRotatedDimension
1001
ACAD
1000
DSTYLE
1002
{
1070
    41
1040
1.0
1002
}
  0
DIMENSION
  5
4B8E5
330
1F
100
AcDbEntity
  8
AM_5
100
AcDbDimension
  2
*D76
 10
3837.817155434429
 20
-2787.583258774066
 30
0.0
 11
3821.817155434429
 21
-2787.583258774066
 31
0.0
 70
   160
  1
<>
 71
     5
 42
32.0
  3
AM_ISO$0
100
AcDbAlignedDimension
 13
3805.817155434429
 23
-2797.083258774066
 33
0.0
 14
3837.817155434429
 24
-2797.083258774066
 34
0.0
100
AcDbRotatedDimension
1001
ACAD
1000
DSTYLE
1002
{
1070
    41
1040
1.0
1002
}
  0
DIMENSION
  5
4B8E6
330
1F
100
AcDbEntity
  8
AM_5
100
AcDbDimension
  2
*D77
 10
3797.817155434429
 20
-2895.583258774066
 30
0.0
 11
3797.817155434429
 21
-2845.583258774061
 31
0.0
 70
   160
  1
A
 71
     5
 42
100.0
  3
AM_ISO$0
100
AcDbAlignedDimension
 13
3807.317155434429
 23
-2795.583258774066
 33
0.0
 14
3807.317155434429
 24
-2895.583258774066
 34
0.0
 50
90.0
100
AcDbRotatedDimension
1001
ACAD
1000
DSTYLE
1002
{
1070
    41
1040
1.0
1002
}
  0
DIMENSION
  5
4B8E7
330
1F
100
AcDbEntity
  8
AM_5
100
AcDbDimension
  2
*D78
 10
3825.06715543443
 20
-2918.325363068749
 30
0.0
 11
3831.792488767763
 21
-2918.325363068749
 31
0.0
 70
   160
  1
（%%c<>）
 71
     5
 42
6.5
  3
AM_ISO$0
100
AcDbAlignedDimension
 13
3818.567155434429
 23
-2937.575363068749
 33
0.0
 14
3825.06715543443
 24
-2937.575363068749
 34
0.0
100
AcDbRotatedDimension
1001
ACAD
1000
DSTYLE
1002
{
1070
    41
1040
1.0
1002
}
  0
DIMENSION
  5
4B8E8
330
1F
100
AcDbEntity
  8
AM_5
100
AcDbDimension
  2
*D79
 10
3823.317155434429
 20
-2926.325363068749
 30
0.0
 11
3828.077155434429
 21
-2926.325363068749
 31
0.0
 70
   160
  1
%%c<>
 71
     5
 42
3.0
  3
AM_ISO$0
100
AcDbAlignedDimension
 13
3820.317155434429
 23
-2937.575363068749
 33
0.0
 14
3823.317155434429
 24
-2937.575363068749
 34
0.0
100
AcDbRotatedDimension
1001
ACAD
1000
DSTYLE
1002
{
1070
    41
1040
1.0
1002
}
  0
DIMENSION
  5
4B8E9
330
1F
100
AcDbEntity
  8
AM_5
100
AcDbDimension
  2
*D80
 10
3797.817155434425
 20
-2939.325363068748
 30
0.0
 11
3797.817155434425
 21
-2944.572029735415
 31
0.0
 70
   160
  1
B
 71
     5
 42
1.5
  3
AM_ISO$0
100
AcDbAlignedDimension
 13
3805.817155434429
 23
-2940.825363068748
 33
0.0
 14
3805.817155434429
 24
-2939.325363068748
 34
0.0
 50
90.0
100
AcDbRotatedDimension
1001
ACAD
1000
DSTYLE
1002
{
1070
    41
1040
1.0
1002
}
  0
LINE
  5
4B8EA
330
1F
100
AcDbEntity
  8
0部品22
100
AcDbLine
 10
3557.845752915069
 20
-2861.346821648293
 30
0.0
 11
3556.708174915069
 21
-2862.073744648293
 31
0.0
  0
LINE
  5
4B8EB
330
1F
100
AcDbEntity
  8
0部品22
100
AcDbLine
 10
3558.706854915069
 20
-2862.073744648293
 30
0.0
 11
3543.446787915069
 21
-2862.073744648293
 31
0.0
  0
LINE
  5
4B8EC
330
1F
100
AcDbEntity
  8
0部品22
100
AcDbLine
 10
3575.446787915069
 20
-2863.573744648293
 30
0.0
 11
3543.446787915069
 21
-2863.573744648293
 31
0.0
  0
LINE
  5
4B8ED
330
1F
100
AcDbEntity
  8
0部品22
100
AcDbLine
 10
3543.446787915069
 20
-2862.073744648293
 30
0.0
 11
3543.446787915069
 21
-2863.573744648293
 31
0.0
  0
LINE
  5
4B8EE
330
1F
100
AcDbEntity
  8
0部品22
100
AcDbLine
 10
3575.446787915069
 20
-2863.573744648293
 30
0.0
 11
3575.446787915069
 21
-2862.073744648293
 31
0.0
  0
LINE
  5
4B8EF
330
1F
100
AcDbEntity
  8
0部品22
100
AcDbLine
 10
3575.446787915069
 20
-2862.073744648293
 30
0.0
 11
3562.185400915069
 21
-2862.073744648293
 31
0.0
  0
LINE
  5
4B8F0
330
1F
100
AcDbEntity
  8
0部品22
  6
中心線1
 48
0.5
370
    13
100
AcDbLine
 10
3564.696787915069
 20
-2860.323744648292
 30
0.0
 11
3554.196787915069
 21
-2860.323744648292
 31
0.0
  0
LINE
  5
4B8F1
330
1F
100
AcDbEntity
  8
0部品22
  6
中心線1
 48
0.5
370
    13
100
AcDbLine
 10
3559.446787915069
 20
-2855.073744648293
 30
0.0
 11
3559.446787915069
 21
-2865.573744648293
 31
0.0
  0
LINE
  5
4B8F2
330
1F
100
AcDbEntity
  8
0部品22
100
AcDbLine
 10
3562.946787915069
 20
-2862.073744648293
 30
0.0
 11
3562.946787915069
 21
-2863.573744648293
 31
0.0
  0
LINE
  5
4B8F3
330
1F
100
AcDbEntity
  8
0部品22
100
AcDbLine
 10
3543.446787915069
 20
-2795.833258774066
 30
0.0
 11
3543.446787915069
 21
-2820.333258774066
 31
0.0
  0
LINE
  5
4B8F4
330
1F
100
AcDbEntity
  8
0部品22
100
AcDbLine
 10
3543.696787915069
 20
-2820.583258774066
 30
0.0
 11
3562.696787915069
 21
-2820.583258774066
 31
0.0
  0
LINE
  5
4B8F5
330
1F
100
AcDbEntity
  8
0部品22
100
AcDbLine
 10
3562.946787915069
 20
-2802.083258774066
 30
0.0
 11
3555.946787915069
 21
-2802.083258774066
 31
0.0
  0
LINE
  5
4B8F6
330
1F
100
AcDbEntity
  8
0部品22
  6
中心線1
 48
0.25
370
    13
100
AcDbLine
 10
3569.446787915069
 20
-2811.483258774066
 30
0.0
 11
3569.446787915069
 21
-2817.683258774066
 31
0.0
  0
LINE
  5
4B8F7
330
1F
100
AcDbEntity
  8
0部品22
100
AcDbLine
 10
3556.196787915069
 20
-2795.583258774066
 30
0.0
 11
3556.196787915069
 21
-2820.583258774066
 31
0.0
  0
LINE
  5
4B8F8
330
1F
100
AcDbEntity
  8
0部品22
100
AcDbLine
 10
3562.696787915069
 20
-2795.583258774066
 30
0.0
 11
3543.696787915069
 21
-2795.583258774066
 31
0.0
  0
LINE
  5
4B8F9
330
1F
100
AcDbEntity
  8
0部品22
100
AcDbLine
 10
3575.446787915069
 20
-2795.833258774066
 30
0.0
 11
3575.446787915069
 21
-2820.333258774066
 31
0.0
  0
LINE
  5
4B8FA
330
1F
100
AcDbEntity
  8
0部品22
100
AcDbLine
 10
3575.196787915069
 20
-2820.583258774066
 30
0.0
 11
3562.946787915069
 21
-2820.583258774066
 31
0.0
  0
LINE
  5
4B8FB
330
1F
100
AcDbEntity
  8
0部品22
100
AcDbLine
 10
3562.946787915069
 20
-2820.583258774066
 30
0.0
 11
3562.946787915069
 21
-2814.083258774066
 31
0.0
  0
LINE
  5
4B8FC
330
1F
100
AcDbEntity
  8
0部品22
100
AcDbLine
 10
3562.946787915069
 20
-2814.083258774066
 30
0.0
 11
3555.946787915069
 21
-2814.083258774066
 31
0.0
  0
LINE
  5
4B8FD
330
1F
100
AcDbEntity
  8
0部品22
100
AcDbLine
 10
3555.946787915069
 20
-2802.083258774066
 30
0.0
 11
3555.946787915069
 21
-2814.083258774066
 31
0.0
  0
LINE
  5
4B8FE
330
1F
100
AcDbEntity
  8
0部品22
100
AcDbLine
 10
3562.946787915069
 20
-2802.083258774066
 30
0.0
 11
3562.946787915069
 21
-2795.583258774066
 31
0.0
  0
LINE
  5
4B8FF
330
1F
100
AcDbEntity
  8
0部品22
100
AcDbLine
 10
3562.946787915069
 20
-2795.583258774066
 30
0.0
 11
3575.196787915069
 21
-2795.583258774066
 31
0.0
  0
LINE
  5
4B900
330
1F
100
AcDbEntity
  8
0部品22
100
AcDbLine
 10
3562.696787915069
 20
-2795.583258774066
 30
0.0
 11
3562.696787915069
 21
-2820.583258774066
 31
0.0
  0
LINE
  5
4B901
330
1F
100
AcDbEntity
  8
0部品22
  6
中心線1
 48
0.5
370
    13
100
AcDbLine
 10
3559.446787915069
 20
-2791.683258774066
 30
0.0
 11
3559.446787915069
 21
-2824.483259774066
 31
0.0
  0
CIRCLE
  5
4B902
330
1F
100
AcDbEntity
  8
0部品22
100
AcDbCircle
 10
3559.446787915069
 20
-2860.323744648292
 30
0.0
 40
1.9
  0
LINE
  5
4B903
330
1F
100
AcDbEntity
  8
0部品22
  6
中心線1
 48
0.25
370
    13
100
AcDbLine
 10
3566.346787915069
 20
-2801.583258774066
 30
0.0
 11
3572.546787915069
 21
-2801.583258774066
 31
0.0
  0
LINE
  5
4B904
330
1F
100
AcDbEntity
  8
0部品22
  6
中心線1
 48
0.25
370
    13
100
AcDbLine
 10
3549.446787915069
 20
-2859.073744648293
 30
0.0
 11
3549.446787915069
 21
-2866.573744648293
 31
0.0
  0
LINE
  5
4B905
330
1F
100
AcDbEntity
  8
0部品22
  6
中心線1
 48
0.25
370
    13
100
AcDbLine
 10
3566.346787915069
 20
-2814.583258774066
 30
0.0
 11
3572.546787915069
 21
-2814.583258774066
 31
0.0
  0
LINE
  5
4B906
330
1F
100
AcDbEntity
  8
0部品22
  6
中心線1
 48
0.25
370
    13
100
AcDbLine
 10
3549.446787915069
 20
-2811.483258774066
 30
0.0
 11
3549.446787915069
 21
-2817.683258774066
 31
0.0
  0
LINE
  5
4B907
330
1F
100
AcDbEntity
  8
0部品22
  6
中心線1
 48
0.25
370
    13
100
AcDbLine
 10
3569.446787915069
 20
-2859.073744648293
 30
0.0
 11
3569.446787915069
 21
-2866.573744648293
 31
0.0
  0
LINE
  5
4B908
330
1F
100
AcDbEntity
  8
0部品22
  6
中心線1
 48
0.25
370
    13
100
AcDbLine
 10
3546.346787915069
 20
-2814.583258774066
 30
0.0
 11
3552.546787915069
 21
-2814.583258774066
 31
0.0
  0
LINE
  5
4B909
330
1F
100
AcDbEntity
  8
0部品22
  6
中心線1
 48
0.25
370
    13
100
AcDbLine
 10
3549.446787915069
 20
-2798.483258774066
 30
0.0
 11
3549.446787915069
 21
-2804.683258774066
 31
0.0
  0
LINE
  5
4B90A
330
1F
100
AcDbEntity
  8
0部品22
  6
中心線1
 48
0.25
370
    13
100
AcDbLine
 10
3569.446787915069
 20
-2798.483258774066
 30
0.0
 11
3569.446787915069
 21
-2804.683258774066
 31
0.0
  0
LINE
  5
4B90B
330
1F
100
AcDbEntity
  8
0部品22
  6
中心線1
 48
0.25
370
    13
100
AcDbLine
 10
3546.346787915069
 20
-2801.583258774066
 30
0.0
 11
3552.546787915069
 21
-2801.583258774066
 31
0.0
  0
ARC
  5
4B90C
330
1F
100
AcDbEntity
  8
0部品22
100
AcDbCircle
 10
3559.446787915069
 20
-2860.323744648292
 30
0.0
 40
3.25
100
AcDbArc
 50
270.0
 51
212.5789700000118
  0
CIRCLE
  5
4B90D
330
1F
100
AcDbEntity
  8
0部品22
100
AcDbCircle
 10
3549.446787915069
 20
-2814.583258774066
 30
0.0
 40
1.6
  0
CIRCLE
  5
4B90E
330
1F
100
AcDbEntity
  8
0部品22
100
AcDbCircle
 10
3569.446787915069
 20
-2814.583258774066
 30
0.0
 40
1.6
  0
CIRCLE
  5
4B90F
102
{ACAD_REACTORS
330
4B94D
102
}
330
1F
100
AcDbEntity
  8
0部品22
100
AcDbCircle
 10
3569.446787915069
 20
-2801.583258774066
 30
0.0
 40
1.6
  0
CIRCLE
  5
4B910
330
1F
100
AcDbEntity
  8
0部品22
100
AcDbCircle
 10
3549.446787915069
 20
-2801.583258774066
 30
0.0
 40
1.6
  0
ARC
  5
4B911
330
1F
100
AcDbEntity
  8
0部品22
100
AcDbCircle
 10
3575.196787915069
 20
-2795.833258774066
 30
0.0
 40
0.25
100
AcDbArc
 50
0.0
 51
90.0
  0
ARC
  5
4B912
330
1F
100
AcDbEntity
  8
0部品22
100
AcDbCircle
 10
3543.696787915069
 20
-2795.833258774066
 30
0.0
 40
0.25
100
AcDbArc
 50
90.0
 51
180.0
  0
ARC
  5
4B913
330
1F
100
AcDbEntity
  8
0部品22
100
AcDbCircle
 10
3543.696787915069
 20
-2820.333258774066
 30
0.0
 40
0.25
100
AcDbArc
 50
180.0
 51
270.0
  0
ARC
  5
4B914
330
1F
100
AcDbEntity
  8
0部品22
100
AcDbCircle
 10
3575.196787915069
 20
-2820.333258774066
 30
0.0
 40
0.25
100
AcDbArc
 50
270.0
 51
0.0
  0
ARC
  5
4B915
330
1F
100
AcDbEntity
  8
0部品22
100
AcDbCircle
 10
3559.446787915069
 20
-2819.027703774066
 30
0.0
 40
2.455556
100
AcDbArc
 50
219.3076479999944
 51
320.6923520000052
  0
ARC
  5
4B916
330
1F
100
AcDbEntity
  8
0部品22
100
AcDbCircle
 10
3559.446787915069
 20
-2797.138814774067
 30
0.0
 40
2.455556
100
AcDbArc
 50
39.30764799999464
 51
140.6923520000056
  0
LINE
  5
4B917
330
1F
100
AcDbEntity
  8
0部品21
100
AcDbLine
 10
3651.200832339885
 20
-2859.286979983355
 30
0.0
 11
3638.000832339886
 21
-2859.286979983355
 31
0.0
  0
LINE
  5
4B918
330
1F
100
AcDbEntity
  8
0部品21
100
AcDbLine
 10
3634.258760339886
 20
-2859.286979983355
 30
0.0
 11
3619.200832339885
 21
-2859.286979983355
 31
0.0
  0
LINE
  5
4B919
330
1F
100
AcDbEntity
  8
0部品21
100
AcDbLine
 10
3633.563909339886
 20
-2858.601595983355
 30
0.0
 11
3632.400832339885
 21
-2859.286979983355
 31
0.0
  0
LINE
  5
4B91A
330
1F
100
AcDbEntity
  8
0部品21
100
AcDbLine
 10
3635.200832339885
 20
-2860.886979983355
 30
0.0
 11
3619.200832339885
 21
-2860.886979983355
 31
0.0
  0
LINE
  5
4B91B
330
1F
100
AcDbEntity
  8
0部品21
100
AcDbLine
 10
3619.200832339885
 20
-2859.286979983355
 30
0.0
 11
3619.200832339885
 21
-2860.886979983355
 31
0.0
  0
LINE
  5
4B91C
330
1F
100
AcDbEntity
  8
0部品21
100
AcDbLine
 10
3635.200832339885
 20
-2860.886979983355
 30
0.0
 11
3651.200832339885
 21
-2860.886979983355
 31
0.0
  0
LINE
  5
4B91D
330
1F
100
AcDbEntity
  8
0部品21
100
AcDbLine
 10
3651.200832339885
 20
-2860.886979983355
 30
0.0
 11
3651.200832339885
 21
-2859.286979983355
 31
0.0
  0
LINE
  5
4B91E
330
1F
100
AcDbEntity
  8
0部品21
  6
中心線1
 48
0.5
370
    13
100
AcDbLine
 10
3640.450832339885
 20
-2857.636979983355
 30
0.0
 11
3629.950832339885
 21
-2857.636979983355
 31
0.0
  0
LINE
  5
4B91F
330
1F
100
AcDbEntity
  8
0部品21
  6
中心線1
 48
0.5
370
    13
100
AcDbLine
 10
3635.200832339885
 20
-2852.386979983355
 30
0.0
 11
3635.200832339885
 21
-2862.886979983355
 31
0.0
  0
LINE
  5
4B920
330
1F
100
AcDbEntity
  8
0部品21
100
AcDbLine
 10
3619.200832339885
 20
-2795.833258774066
 30
0.0
 11
3619.200832339885
 21
-2820.333258774066
 31
0.0
  0
LINE
  5
4B921
330
1F
100
AcDbEntity
  8
0部品21
100
AcDbLine
 10
3619.450832339885
 20
-2820.583258774066
 30
0.0
 11
3638.450832339885
 21
-2820.583258774066
 31
0.0
  0
LINE
  5
4B922
330
1F
100
AcDbEntity
  8
0部品21
100
AcDbLine
 10
3631.200832339885
 20
-2814.083258774066
 30
0.0
 11
3631.200832339885
 21
-2802.083258774066
 31
0.0
  0
LINE
  5
4B923
330
1F
100
AcDbEntity
  8
0部品21
100
AcDbLine
 10
3638.450832339885
 20
-2820.583258774066
 30
0.0
 11
3638.450832339885
 21
-2795.583258774066
 31
0.0
  0
LINE
  5
4B924
330
1F
100
AcDbEntity
  8
0部品21
100
AcDbLine
 10
3631.950832339885
 20
-2795.583258774066
 30
0.0
 11
3631.950832339885
 21
-2820.583258774066
 31
0.0
  0
LINE
  5
4B925
330
1F
100
AcDbEntity
  8
0部品21
100
AcDbLine
 10
3638.450832339885
 20
-2795.583258774066
 30
0.0
 11
3619.450832339885
 21
-2795.583258774066
 31
0.0
  0
LINE
  5
4B926
330
1F
100
AcDbEntity
  8
0部品21
100
AcDbLine
 10
3651.200832339885
 20
-2795.833258774066
 30
0.0
 11
3651.200832339885
 21
-2820.333258774066
 31
0.0
  0
LINE
  5
4B927
330
1F
100
AcDbEntity
  8
0部品21
100
AcDbLine
 10
3650.950832339885
 20
-2820.583258774066
 30
0.0
 11
3639.200832339885
 21
-2820.583258774066
 31
0.0
  0
LINE
  5
4B928
330
1F
100
AcDbEntity
  8
0部品21
100
AcDbLine
 10
3639.200832339885
 20
-2820.583258774066
 30
0.0
 11
3639.200832339885
 21
-2814.083258774066
 31
0.0
  0
LINE
  5
4B929
330
1F
100
AcDbEntity
  8
0部品21
100
AcDbLine
 10
3639.200832339885
 20
-2814.083258774066
 30
0.0
 11
3638.450832339885
 21
-2814.083258774066
 31
0.0
  0
LINE
  5
4B92A
330
1F
100
AcDbEntity
  8
0部品21
100
AcDbLine
 10
3631.200832339885
 20
-2802.083258774066
 30
0.0
 11
3633.700832339885
 21
-2802.083258774066
 31
0.0
  0
LINE
  5
4B92B
330
1F
100
AcDbEntity
  8
0部品21
100
AcDbLine
 10
3639.200832339885
 20
-2802.083258774066
 30
0.0
 11
3639.200832339885
 21
-2795.583258774066
 31
0.0
  0
LINE
  5
4B92C
330
1F
100
AcDbEntity
  8
0部品21
100
AcDbLine
 10
3639.200832339885
 20
-2795.583258774066
 30
0.0
 11
3650.950832339885
 21
-2795.583258774066
 31
0.0
  0
LINE
  5
4B92D
330
1F
100
AcDbEntity
  8
0部品21
100
AcDbLine
 10
3638.450832339885
 20
-2814.083258774066
 30
0.0
 11
3633.700832339885
 21
-2814.083258774066
 31
0.0
  0
LINE
  5
4B92E
330
1F
100
AcDbEntity
  8
0部品21
100
AcDbLine
 10
3638.450832339885
 20
-2802.083258774066
 30
0.0
 11
3639.200832339885
 21
-2802.083258774066
 31
0.0
  0
LINE
  5
4B92F
330
1F
100
AcDbEntity
  8
0部品21
  6
中心線1
 48
0.5
370
    13
100
AcDbLine
 10
3635.200832339885
 20
-2791.683258774066
 30
0.0
 11
3635.200832339885
 21
-2824.483259774066
 31
0.0
  0
LINE
  5
4B930
330
1F
100
AcDbEntity
  8
0部品21
100
AcDbLine
 10
3633.700832339885
 20
-2802.083258774066
 30
0.0
 11
3638.450832339885
 21
-2802.083258774066
 31
0.0
  0
LINE
  5
4B931
330
1F
100
AcDbEntity
  8
0部品21
100
AcDbLine
 10
3633.700832339885
 20
-2814.083258774066
 30
0.0
 11
3631.200832339885
 21
-2814.083258774066
 31
0.0
  0
LINE
  5
4B932
330
1F
100
AcDbEntity
  8
0部品21
100
AcDbLine
 10
3639.200832339885
 20
-2859.286979983355
 30
0.0
 11
3639.200832339885
 21
-2860.886979983355
 31
0.0
  0
ARC
  5
4B933
330
1F
100
AcDbEntity
  8
0部品21
100
AcDbCircle
 10
3635.200832339885
 20
-2857.636979983355
 30
0.0
 40
3.25
100
AcDbArc
 50
270.0
 51
210.5102374061192
  0
ARC
  5
4B934
330
1F
100
AcDbEntity
  8
0部品21
100
AcDbCircle
 10
3650.950832339885
 20
-2795.833258774066
 30
0.0
 40
0.25
100
AcDbArc
 50
0.0
 51
90.0
  0
ARC
  5
4B935
330
1F
100
AcDbEntity
  8
0部品21
100
AcDbCircle
 10
3619.450832339885
 20
-2795.833258774066
 30
0.0
 40
0.25
100
AcDbArc
 50
90.0
 51
180.0
  0
ARC
  5
4B936
330
1F
100
AcDbEntity
  8
0部品21
100
AcDbCircle
 10
3619.450832339885
 20
-2820.333258774066
 30
0.0
 40
0.25
100
AcDbArc
 50
180.0
 51
270.0
  0
ARC
  5
4B937
330
1F
100
AcDbEntity
  8
0部品21
100
AcDbCircle
 10
3650.950832339885
 20
-2820.333258774066
 30
0.0
 40
0.25
100
AcDbArc
 50
270.0
 51
0.0
  0
CIRCLE
  5
4B938
330
1F
100
AcDbEntity
  8
0部品21
100
AcDbCircle
 10
3635.200832339885
 20
-2857.636979983355
 30
0.0
 40
1.9
  0
ARC
  5
4B939
330
1F
100
AcDbEntity
  8
0部品21
100
AcDbCircle
 10
3635.200832339885
 20
-2819.027703774066
 30
0.0
 40
2.455556
100
AcDbArc
 50
219.3076479999946
 51
320.6923520000052
  0
ARC
  5
4B93A
330
1F
100
AcDbEntity
  8
0部品21
100
AcDbCircle
 10
3635.200832339885
 20
-2797.138814774067
 30
0.0
 40
2.455556
100
AcDbArc
 50
39.30764799999464
 51
140.6923520000054
  0
DIMENSION
  5
4B93B
330
1F
100
AcDbEntity
  8
AM_5
100
AcDbDimension
  2
*D60
 10
3575.446787915069
 20
-2779.583258774066
 30
0.0
 11
3559.446787915069
 21
-2779.583258774066
 31
0.0
 70
   160
  1
<>
 71
     5
 42
32.0
  3
AM_ISO$0
100
AcDbAlignedDimension
 13
3543.446787915069
 23
-2795.833258774066
 33
0.0
 14
3575.446787915069
 24
-2795.833258774066
 34
0.0
100
AcDbRotatedDimension
1001
ACAD
1000
DSTYLE
1002
{
1070
    41
1040
1.0
1002
}
  0
DIMENSION
  5
4B93C
330
1F
100
AcDbEntity
  8
AM_5
100
AcDbDimension
  2
*D61
 10
3569.446787915069
 20
-2787.583258774066
 30
0.0
 11
3559.446787915069
 21
-2787.583258774066
 31
0.0
 70
   160
  1
<>
 71
     5
 42
20.0
  3
AM_ISO$0
100
AcDbAlignedDimension
 13
3549.446787915069
 23
-2798.483258774066
 33
0.0
 14
3569.446787915069
 24
-2798.483258774066
 34
0.0
100
AcDbRotatedDimension
1001
ACAD
1000
DSTYLE
1002
{
1070
    41
1040
1.0
1002
}
  0
DIMENSION
  5
4B93D
330
1F
100
AcDbEntity
  8
AM_5
100
AcDbDimension
  2
*D62
 10
3527.446787915069
 20
-2820.583258774066
 30
0.0
 11
3527.446787915069
 21
-2808.097720410336
 31
0.0
 70
   160
  1
A
 71
     5
 42
25.0
  3
AM_ISO$0
100
AcDbAlignedDimension
 13
3543.696787915069
 23
-2795.583258774066
 33
0.0
 14
3543.696787915069
 24
-2820.583258774066
 34
0.0
 50
90.0
100
AcDbRotatedDimension
1001
ACAD
1000
DSTYLE
1002
{
1070
    41
1040
1.0
1002
}
  0
DIMENSION
  5
4B93E
330
1F
100
AcDbEntity
  8
AM_5
100
AcDbDimension
  2
*D63
 10
3535.446787915069
 20
-2801.583258774066
 30
0.0
 11
3535.446787915069
 21
-2808.485202998317
 31
0.0
 70
   160
  1
C
 71
     5
 42
13.0
  3
AM_ISO$0
100
AcDbAlignedDimension
 13
3546.346787915069
 23
-2814.583258774066
 33
0.0
 14
3546.346787915069
 24
-2801.583258774066
 34
0.0
 50
90.0
100
AcDbRotatedDimension
1001
ACAD
1000
DSTYLE
1002
{
1070
    41
1040
1.0
1002
}
  0
DIMENSION
  5
4B93F
330
1F
100
AcDbEntity
  8
AM_5
100
AcDbDimension
  2
*D64
 10
3535.446787915065
 20
-2862.073744648293
 30
0.0
 11
3535.446787915065
 21
-2867.320411314959
 31
0.0
 70
   160
  1
B
 71
     5
 42
1.5
  3
AM_ISO$0
100
AcDbAlignedDimension
 13
3543.446787915069
 23
-2863.573744648293
 33
0.0
 14
3543.446787915069
 24
-2862.073744648293
 34
0.0
 50
90.0
100
AcDbRotatedDimension
1001
ACAD
1000
DSTYLE
1002
{
1070
    41
1040
1.0
1002
}
  0
DIMENSION
  5
4B940
330
1F
100
AcDbEntity
  8
AM_5
100
AcDbDimension
  2
*D65
 10
3562.696787915069
 20
-2841.073744648293
 30
0.0
 11
3569.422121248403
 21
-2841.073744648293
 31
0.0
 70
   160
  1
（%%c<>）
 71
     5
 42
6.5
  3
AM_ISO$0
100
AcDbAlignedDimension
 13
3556.196787915069
 23
-2860.323744648292
 33
0.0
 14
3562.696787915069
 24
-2860.323744648292
 34
0.0
100
AcDbRotatedDimension
1001
ACAD
1000
DSTYLE
1002
{
1070
    41
1040
1.0
1002
}
  0
DIMENSION
  5
4B941
330
1F
100
AcDbEntity
  8
AM_5
100
AcDbDimension
  2
*D66
 10
3560.94678791507
 20
-2849.073744648293
 30
0.0
 11
3565.88046070209
 21
-2849.073744648293
 31
0.0
 70
   160
  1
%%c<>
 71
     5
 42
3.0
  3
AM_ISO$0
100
AcDbAlignedDimension
 13
3557.946787915069
 23
-2860.323744648292
 33
0.0
 14
3560.94678791507
 24
-2860.323744648292
 34
0.0
100
AcDbRotatedDimension
1001
ACAD
1000
DSTYLE
1002
{
1070
    41
1040
1.0
1002
}
  0
CIRCLE
  5
4B942
330
1F
100
AcDbEntity
  8
0部品22
100
AcDbCircle
 10
3559.446787915069
 20
-2860.323744648292
 30
0.0
 40
1.5
  0
CIRCLE
  5
4B943
330
1F
100
AcDbEntity
  8
0部品21
100
AcDbCircle
 10
3635.200832339885
 20
-2857.636979983355
 30
0.0
 40
1.5
  0
DIMENSION
  5
4B944
330
1F
100
AcDbEntity
  8
AM_5
100
AcDbDimension
  2
*D67
 10
3638.450832339885
 20
-2838.386979983355
 30
0.0
 11
3645.176165673218
 21
-2838.386979983355
 31
0.0
 70
   160
  1
（%%c<>）
 71
     5
 42
6.5
  3
AM_ISO$0
100
AcDbAlignedDimension
 13
3631.950832339885
 23
-2857.636979983355
 33
0.0
 14
3638.450832339885
 24
-2857.636979983355
 34
0.0
100
AcDbRotatedDimension
1001
ACAD
1000
DSTYLE
1002
{
1070
    41
1040
1.0
1002
}
  0
DIMENSION
  5
4B945
330
1F
100
AcDbEntity
  8
AM_5
100
AcDbDimension
  2
*D68
 10
3636.700832339885
 20
-2846.386979983355
 30
0.0
 11
3641.634505126906
 21
-2846.386979983355
 31
0.0
 70
   160
  1
%%c<>
 71
     5
 42
3.0
  3
AM_ISO$0
100
AcDbAlignedDimension
 13
3633.700832339885
 23
-2857.636979983355
 33
0.0
 14
3636.700832339885
 24
-2857.636979983355
 34
0.0
100
AcDbRotatedDimension
1001
ACAD
1000
DSTYLE
1002
{
1070
    41
1040
1.0
1002
}
  0
DIMENSION
  5
4B946
330
1F
100
AcDbEntity
  8
AM_5
100
AcDbDimension
  2
*D69
 10
3611.200832339881
 20
-2859.386979983355
 30
0.0
 11
3611.200832339881
 21
-2864.633646650021
 31
0.0
 70
   160
  1
B
 71
     5
 42
1.5
  3
AM_ISO$0
100
AcDbAlignedDimension
 13
3619.200832339885
 23
-2860.886979983355
 33
0.0
 14
3619.200832339885
 24
-2859.386979983355
 34
0.0
 50
90.0
100
AcDbRotatedDimension
1001
ACAD
1000
DSTYLE
1002
{
1070
    41
1040
1.0
1002
}
  0
DIMENSION
  5
4B947
330
1F
100
AcDbEntity
  8
AM_5
100
AcDbDimension
  2
*D70
 10
3651.200832339885
 20
-2787.583258774066
 30
0.0
 11
3635.200832339885
 21
-2787.583258774066
 31
0.0
 70
   160
  1
<>
 71
     5
 42
32.0
  3
AM_ISO$0
100
AcDbAlignedDimension
 13
3619.200832339885
 23
-2795.833258774066
 33
0.0
 14
3651.200832339885
 24
-2795.833258774066
 34
0.0
100
AcDbRotatedDimension
1001
ACAD
1000
DSTYLE
1002
{
1070
    41
1040
1.0
1002
}
  0
DIMENSION
  5
4B948
330
1F
100
AcDbEntity
  8
AM_5
100
AcDbDimension
  2
*D71
 10
3611.200832339885
 20
-2820.583258774066
 30
0.0
 11
3611.200832339886
 21
-2808.097720410336
 31
0.0
 70
   160
  1
A
 71
     5
 42
25.0
  3
AM_ISO$0
100
AcDbAlignedDimension
 13
3619.450832339885
 23
-2795.583258774066
 33
0.0
 14
3619.450832339885
 24
-2820.583258774066
 34
0.0
 50
90.0
100
AcDbRotatedDimension
1001
ACAD
1000
DSTYLE
1002
{
1070
    41
1040
1.0
1002
}
  0
DIMENSION
  5
4B949
330
1F
100
AcDbEntity
  8
AM_5
100
AcDbDimension
  2
*D72
 10
3583.446787915067
 20
-2814.083258774066
 30
0.0
 11
3583.446787915067
 21
-2822.120592107399
 31
0.0
 70
   160
  1
G：割り数
 71
     5
 42
12.0
  3
AM_ISO$0
100
AcDbAlignedDimension
 13
3562.946787915069
 23
-2802.083258774066
 33
0.0
 14
3563.146787915069
 24
-2814.083258774066
 34
0.0
 50
90.0
100
AcDbRotatedDimension
1001
ACAD
1000
DSTYLE
1002
{
1070
    41
1040
1.0
1002
}
  0
DIMENSION
  5
4B94A
330
1F
100
AcDbEntity
  8
AM_5
100
AcDbDimension
  2
*D73
 10
3659.200832339883
 20
-2814.083258774066
 30
0.0
 11
3659.200832339883
 21
-2822.120592107399
 31
0.0
 70
   160
  1
G：割り数
 71
     5
 42
12.0
  3
AM_ISO$0
100
AcDbAlignedDimension
 13
3638.700832339885
 23
-2802.083258774066
 33
0.0
 14
3638.900832339885
 24
-2814.083258774066
 34
0.0
 50
90.0
100
AcDbRotatedDimension
1001
ACAD
1000
DSTYLE
1002
{
1070
    41
1040
1.0
1002
}
  0
DIMENSION
  5
4B94B
102
{ACAD_XDICTIONARY
360
4B94C
102
}
102
{ACAD_REACTORS
330
4B94D
102
}
330
1F
100
AcDbEntity
  8
AM_5
100
AcDbDimension
  2
*D81
 10
3567.987396235582
 20
-2802.239136754979
 30
0.0
 11
3585.5650367262
 21
-2797.329548313503
 31
0.0
 70
   163
  1
F-<>
 71
     5
 42
3.200000000000727
  3
AM_ISO$3
100
AcDbDiametricDimension
 15
3570.906179594555
 25
-2800.927380793153
 35
0.0
 40
0.0
1001
ACAD
1000
DSTYLE
1002
{
1070
    41
1040
1.0
1070
   140
1040
3.200000000000001
1070
   172
1070
     1
1070
   289
1070
     3
1002
}
  0
ENDSEC
  0
SECTION
  2
OBJECTS
  0
DICTIONARY
  5
C
330
0
100
AcDbDictionary
281
     1
  3
ACAD_COLOR
350
C45B
  3
ACAD_GROUP
350
D
  3
ACAD_LAYOUT
350
1A
  3
ACAD_MATERIAL
350
C446
  3
ACAD_MLINESTYLE
350
17
  3
ACAD_PLOTSETTINGS
350
19
  3
ACAD_PLOTSTYLENAME
350
E
  3
ACAD_TABLESTYLE
350
C45C
  3
ACAD_VISUALSTYLE
350
C44A
  3
AcadDim
350
37D85
  3
AcAsAppObject
350
3DA1
  3
ACASGREF_MASTER
350
3DE9
  3
AcDbVariableDictionary
350
34
  3
AcmDictionary
350
47
  3
AD_GREF_MODULE
350
3DEA
  3
AD_MAPI_MODULE
350
3E06
  3
AMG
350
2B
  3
AMGSNAPSETTINGS
350
7D
  3
ASE_INDEX_DICTIONARY
350
B42E
  3
DWGPROPS
350
4BEED
  3
MAPISURF_MODULE
350
3DEB
  0
DICTIONARY
  5
3F95
330
2
100
AcDbDictionary
280
     1
281
     1
  3
ACAD_LAYERFILTERS
360
494F1
  3
ACAD_LAYERSTATES
360
3F96
  3
ACLYDICTIONARY
360
494F0
  3
AMLAYER_GROUPCOLORS
360
CB2F
  0
DICTIONARY
  5
8A
330
1F
100
AcDbDictionary
280
     1
281
     1
  3
ACAD_SORTENTS
360
D722
  0
DICTIONARY
  5
4B8A6
330
4B8A5
100
AcDbDictionary
280
     1
281
     1
  3
ACAD_DIMASSOC
360
4B8A7
  0
DICTIONARY
  5
4B8A9
330
4B8A8
100
AcDbDictionary
280
     1
281
     1
  3
ACAD_DIMASSOC
360
4B8AA
  0
DICTIONARY
  5
4B8AC
330
4B8AB
100
AcDbDictionary
280
     1
281
     1
  3
ACAD_DIMASSOC
360
4B8AD
  0
DICTIONARY
  5
4B8AF
330
4B8AE
100
AcDbDictionary
280
     1
281
     1
  3
ACAD_DIMASSOC
360
4B8B0
  0
DICTIONARY
  5
4B8B2
330
4B8B1
100
AcDbDictionary
280
     1
281
     1
  3
ACAD_DIMASSOC
360
4B8B3
  0
DICTIONARY
  5
4B8B5
330
4B8B4
100
AcDbDictionary
280
     1
281
     1
  3
ACAD_DIMASSOC
360
4B8B6
  0
DICTIONARY
  5
4B8B8
330
4B8B7
100
AcDbDictionary
280
     1
281
     1
  3
ACAD_DIMASSOC
360
4B8B9
  0
DICTIONARY
  5
4B8BB
330
4B8BA
100
AcDbDictionary
280
     1
281
     1
  3
ACAD_DIMASSOC
360
4B8BC
  0
DICTIONARY
  5
4B8BE
330
4B8BD
100
AcDbDictionary
280
     1
281
     1
  3
ACAD_DIMASSOC
360
4B8BF
  0
DICTIONARY
  5
4B94C
330
4B94B
100
AcDbDictionary
280
     1
281
     1
  3
ACAD_DIMASSOC
360
4B94D
  0
DICTIONARY
  5
C45B
102
{ACAD_REACTORS
330
C
102
}
330
C
100
AcDbDictionary
281
     1
  0
DICTIONARY
  5
D
102
{ACAD_REACTORS
330
C
102
}
330
C
100
AcDbDictionary
281
     1
  0
DICTIONARY
  5
1A
102
{ACAD_REACTORS
330
C
102
}
330
C
100
AcDbDictionary
281
     1
  3
Model
350
22
  3
ﾚｲｱｳﾄ1
350
1E
  3
ﾚｲｱｳﾄ2
350
26
  0
DICTIONARY
  5
C446
102
{ACAD_REACTORS
330
C
102
}
330
C
100
AcDbDictionary
281
     1
  3
ByBlock
350
C448
  3
ByLayer
350
C447
  3
Global
350
C449
  0
DICTIONARY
  5
17
102
{ACAD_REACTORS
330
C
102
}
330
C
100
AcDbDictionary
281
     1
  3
Standard
350
18
  0
DICTIONARY
  5
19
102
{ACAD_REACTORS
330
C
102
}
330
C
100
AcDbDictionary
281
     1
  3
-00
350
C85D
  0
ACDBDICTIONARYWDFLT
  5
E
102
{ACAD_REACTORS
330
C
102
}
330
C
100
AcDbDictionary
281
     1
  3
Normal
350
F
100
AcDbDictionaryWithDefault
340
F
  0
DICTIONARY
  5
C45C
102
{ACAD_REACTORS
330
C
102
}
330
C
100
AcDbDictionary
281
     1
  3
Standard
350
C45D
  0
DICTIONARY
  5
C44A
102
{ACAD_REACTORS
330
C
102
}
330
C
100
AcDbDictionary
281
     1
  3
2dWireframe
350
C450
  3
3D Hidden
350
C452
  3
3dWireframe
350
C451
  3
Basic
350
C44F
  3
Brighten
350
C456
  3
ColorChange
350
C45A
  3
Conceptual
350
C453
  3
Dim
350
C455
  3
Facepattern
350
C459
  3
Flat
350
C44B
  3
FlatWithEdges
350
C44C
  3
Gouraud
350
C44D
  3
GouraudWithEdges
350
C44E
  3
Linepattern
350
C458
  3
Realistic
350
C454
  3
Thicken
350
C457
  0
XRECORD
  5
37D85
102
{ACAD_REACTORS
330
C
102
}
330
C
100
AcDbXrecord
280
     1
 90
   990106
  3

 60
     0
 61
     0
 62
     1
 63
     3
 64
     0
 65
     0
 66
     0
 67
     3
 68
     1
 69
     0
 70
     0
 71
     0
 72
     0
 40
0.0
170
     0
  0
ACAD_PROXY_OBJECT
  5
3DA1
102
{ACAD_REACTORS
330
C
102
}
330
C
100
AcDbProxyObject
 90
      499
 91
      576
 95
   720919
 70
     0
 93
       10
310
407F
 94
        0
1001
ACAD
1000
AcRTDxfName
1000
ASAPP
  0
ACAD_PROXY_OBJECT
  5
3DE9
102
{ACAD_REACTORS
330
C
102
}
330
C
100
AcDbProxyObject
 90
      499
 91
      581
 95
   720919
 70
     0
 93
       34
310
010000407F
 94
        0
1001
ACAD
1000
AcRTDxfName
1000
ACASGREFMASTER
  0
DICTIONARY
  5
34
102
{ACAD_REACTORS
330
C
102
}
330
C
100
AcDbDictionary
281
     1
  3
CTABLESTYLE
350
C4A2
  3
DIMASSOC
350
AC85
  3
INDEXCTL
350
35
  3
SORTENTS
350
194C
  0
DICTIONARY
  5
47
102
{ACAD_REACTORS
330
C
102
}
330
C
100
AcDbDictionary
281
     1
  3
AcmBOM
350
7E8
  3
AcmStdDictionary
350
4C
  3
AMDTSECTSYM_ARROWCOLOR
350
C487
  0
ACAD_PROXY_OBJECT
  5
3DEA
102
{ACAD_REACTORS
330
C
102
}
330
C
100
AcDbProxyObject
 90
      499
 91
      582
 95
   720919
 70
     0
 93
      114
310
00000043800000000000000000003F
 94
        0
1001
ACAD
1000
AcRTDxfName
1000
ACADGREFMODULE
  0
ACAD_PROXY_OBJECT
  5
3E06
102
{ACAD_REACTORS
330
C
102
}
330
C
100
AcDbProxyObject
 90
      499
 91
      594
 95
   720919
 70
     0
 93
       34
310
05000044FF
 94
        0
1001
ACAD
1000
AcRTDxfName
1000
MAPIADMODULE
  0
DICTIONARY
  5
2B
102
{ACAD_REACTORS
330
C
102
}
330
C
100
AcDbDictionary
281
     1
  0
DICTIONARY
  5
7D
102
{ACAD_REACTORS
330
C
102
}
330
C
100
AcDbDictionary
281
     1
  0
DICTIONARY
  5
B42E
102
{ACAD_REACTORS
330
C
102
}
330
C
100
AcDbDictionary
281
     1
  3
ASEBlockHierarchyIndexRecord
350
B42F
1001
DCO15
1040
1439205644.296
  0
XRECORD
  5
4BEED
102
{ACAD_REACTORS
330
C
102
}
330
C
100
AcDbXrecord
280
     1
  1
DWGPROPS COOKIE
  2

  3

  4

  6

  7

  8
Administrator
  9

300
AmdtFileType=84
301
=
302
=
303
=
304
=
305
=
306
=
307
=
308
=
309
=
 40
13.80092717592592
 41
2452002.615067627
 42
2455338.70245081
  1

 90
        1
  0
ACAD_PROXY_OBJECT
  5
3DEB
102
{ACAD_REACTORS
330
C
102
}
330
C
100
AcDbProxyObject
 90
      499
 91
      583
 95
   720919
 70
     0
 93
        8
310
047E
 94
        0
1001
ACAD
1000
AcRTDxfName
1000
AMDTMAPISURFMOUDULE
  0
DICTIONARY
  5
494F1
102
{ACAD_REACTORS
330
3F95
102
}
330
3F95
100
AcDbDictionary
281
     1
  3
50
350
494F3
  0
DICTIONARY
  5
3F96
102
{ACAD_REACTORS
330
3F95
102
}
330
3F95
100
AcDbDictionary
281
     1
  3
20011210
350
3FB7
  0
DICTIONARY
  5
494F0
102
{ACAD_REACTORS
330
3F95
102
}
330
3F95
100
AcDbDictionary
281
     1
  3
*A1
350
494F2
1001
ACAD
1000
<All
  0
DICTIONARY
  5
CB2F
102
{ACAD_REACTORS
330
3F95
102
}
330
3F95
100
AcDbDictionary
280
     1
281
     1
  0
SORTENTSTABLE
  5
D722
102
{ACAD_REACTORS
330
8A
102
}
330
8A
100
AcDbSortentsTable
330
1F
331
4AB85
  5
4AB85
331
4B096
  5
4B096
331
4ADA7
  5
4ADA7
331
4ADC9
  5
4ADC9
331
4ADE3
  5
4ADE3
331
4AF16
  5
4AF16
331
4B085
  5
4B085
331
4AD96
  5
4AD96
331
4ADB8
  5
4ADB8
331
4AF27
  5
4AF27
331
4B094
  5
4B094
331
4ADA5
  5
4ADA5
331
4ADC7
  5
4ADC7
331
4ADE1
  5
4ADE1
331
4AF14
  5
4AF14
331
4B083
  5
4B083
331
4AD94
  5
4AD94
331
4ADB6
  5
4ADB6
331
4AF25
  5
4AF25
331
4B092
  5
4B092
331
4ADA3
  5
4ADA3
331
4ADC5
  5
4ADC5
331
4ADDF
  5
4ADDF
331
4AF12
  5
4AF12
331
4AF34
  5
4AF34
331
4B081
  5
4B081
331
4AD92
  5
4AD92
331
4ADB4
  5
4ADB4
331
4ADD6
  5
4ADD6
331
4AF23
  5
4AF23
331
4B090
  5
4B090
331
4ADA1
  5
4ADA1
331
4ADC3
  5
4ADC3
331
4ADDD
  5
4ADDD
331
4AF32
  5
4AF32
331
4AD90
  5
4AD90
331
4ADB2
  5
4ADB2
331
4ADEE
  5
4ADEE
331
4AF21
  5
4AF21
331
4ADC1
  5
4ADC1
331
4ADDB
  5
4ADDB
331
4AF30
  5
4AF30
331
4AD8E
  5
4AD8E
331
4ADB0
  5
4ADB0
331
4ADD2
  5
4ADD2
331
4ADEC
  5
4ADEC
331
4AF1F
  5
4AF1F
331
4B08E
  5
4B08E
331
4AD9F
  5
4AD9F
331
4ADD9
  5
4ADD9
331
4AF2E
  5
4AF2E
331
4AD8C
  5
4AD8C
331
4ADAE
  5
4ADAE
331
4ADD0
  5
4ADD0
331
4ADEA
  5
4ADEA
331
4AF1D
  5
4AF1D
331
4B08C
  5
4B08C
331
4AD9D
  5
4AD9D
331
4ADBF
  5
4ADBF
331
4AF2C
  5
4AF2C
331
4AD8A
  5
4AD8A
331
4AB8A
  5
4AB8A
331
4ADAC
  5
4ADAC
331
4ADCE
  5
4ADCE
331
4ADE8
  5
4ADE8
331
4AF1B
  5
4AF1B
331
4B08A
  5
4B08A
331
4AD9B
  5
4AD9B
331
4ADBD
  5
4ADBD
331
4AF2A
  5
4AF2A
331
4AB88
  5
4AB88
331
4ADAA
  5
4ADAA
331
4ADCC
  5
4ADCC
331
4ADE6
  5
4ADE6
331
4AF19
  5
4AF19
331
4B088
  5
4B088
331
4AD99
  5
4AD99
331
4ADBB
  5
4ADBB
331
4AF28
  5
4AF28
331
4AB86
  5
4AB86
331
4B097
  5
4B097
331
4ADA8
  5
4ADA8
331
4ADCA
  5
4ADCA
331
4ADE4
  5
4ADE4
331
4AF17
  5
4AF17
331
4B086
  5
4B086
331
4AD97
  5
4AD97
331
4ADB9
  5
4ADB9
331
4AB84
  5
4AB84
331
4B095
  5
4B095
331
4ADA6
  5
4ADA6
331
4ADC8
  5
4ADC8
331
4ADE2
  5
4ADE2
331
4AF15
  5
4AF15
331
4B084
  5
4B084
331
4AD95
  5
4AD95
331
4ADB7
  5
4ADB7
331
4AF26
  5
4AF26
331
4B093
  5
4B093
331
4ADA4
  5
4ADA4
331
4ADC6
  5
4ADC6
331
4ADE0
  5
4ADE0
331
4AF13
  5
4AF13
331
4AF35
  5
4AF35
331
4B082
  5
4B082
331
4AD93
  5
4AD93
331
4ADB5
  5
4ADB5
331
4ADD7
  5
4ADD7
331
4AF24
  5
4AF24
331
4B091
  5
4B091
331
4ADA2
  5
4ADA2
331
4ADC4
  5
4ADC4
331
4ADDE
  5
4ADDE
331
4AF11
  5
4AF11
331
4AF33
  5
4AF33
331
4AD91
  5
4AD91
331
4ADB3
  5
4ADB3
331
4ADD5
  5
4ADD5
331
4ADEF
  5
4ADEF
331
4AF22
  5
4AF22
331
4ADA0
  5
4ADA0
331
4ADC2
  5
4ADC2
331
4ADDC
  5
4ADDC
331
4AF31
  5
4AF31
331
4AD8F
  5
4AD8F
331
4ADB1
  5
4ADB1
331
4ADD3
  5
4ADD3
331
4ADED
  5
4ADED
331
4AF20
  5
4AF20
331
4B08F
  5
4B08F
331
4ADC0
  5
4ADC0
331
4ADDA
  5
4ADDA
331
4AF2F
  5
4AF2F
331
4AD8D
  5
4AD8D
331
4ADAF
  5
4ADAF
331
4ADD1
  5
4ADD1
331
4ADEB
  5
4ADEB
331
4AF1E
  5
4AF1E
331
4B08D
  5
4B08D
331
4AD9E
  5
4AD9E
331
4ADD8
  5
4ADD8
331
4AF2D
  5
4AF2D
331
4AD8B
  5
4AD8B
331
4AB8B
  5
4AB8B
331
4ADAD
  5
4ADAD
331
4ADCF
  5
4ADCF
331
4ADE9
  5
4ADE9
331
4AF1C
  5
4AF1C
331
4B08B
  5
4B08B
331
4AD9C
  5
4AD9C
331
4ADBE
  5
4ADBE
331
4AF2B
  5
4AF2B
331
4AB89
  5
4AB89
331
4ADAB
  5
4ADAB
331
4ADCD
  5
4ADCD
331
4ADE7
  5
4ADE7
331
4AF1A
  5
4AF1A
331
4B089
  5
4B089
331
4AD9A
  5
4AD9A
331
4ADBC
  5
4ADBC
331
4AF29
  5
4AF29
331
4AB87
  5
4AB87
331
4ADA9
  5
4ADA9
331
4ADCB
  5
4ADCB
331
4ADE5
  5
4ADE5
331
4AF18
  5
4AF18
331
4B087
  5
4B087
331
4AD98
  5
4AD98
331
4ADBA
  5
4ADBA
  0
DIMASSOC
  5
4B8A7
102
{ACAD_REACTORS
330
4B8A6
102
}
330
4B8A6
100
AcDbDimAssoc
330
4B8A5
 90
        3
 70
     0
 71
     0
  1
AcDbOsnapPointRef
 72
    13
331
4B868
 73
     0
 91
        0
 40
0.0
 10
0.0
 20
0.0
 30
2.000000000000000E+50
 75
     0
  1
AcDbOsnapPointRef
 72
    13
331
4B871
 73
     0
 91
        0
 40
0.0
 10
0.0
 20
0.0
 30
2.000000000000000E+50
 75
     0
  0
DIMASSOC
  5
4B8AA
102
{ACAD_REACTORS
330
4B8A9
102
}
330
4B8A9
100
AcDbDimAssoc
330
4B8A8
 90
        3
 70
     0
 71
     0
  1
AcDbOsnapPointRef
 72
    13
331
4B87B
 73
     0
 91
        0
 40
0.0
 10
0.0
 20
0.0
 30
2.000000000000000E+50
 75
     0
  1
AcDbOsnapPointRef
 72
    13
331
4B898
 73
     0
 91
        0
 40
0.0
 10
0.0
 20
0.0
 30
2.000000000000000E+50
 75
     0
  0
DIMASSOC
  5
4B8AD
102
{ACAD_REACTORS
330
4B8AC
102
}
330
4B8AC
100
AcDbDimAssoc
330
4B8AB
 90
        3
 70
     0
 71
     0
  1
AcDbOsnapPointRef
 72
     1
331
4B870
 73
     0
 91
        0
 40
0.0
 10
0.0
 20
0.0
 30
2.000000000000000E+50
 75
     0
  1
AcDbOsnapPointRef
 72
    13
331
4B869
 73
     0
 91
        0
 40
0.0
 10
0.0
 20
0.0
 30
2.000000000000000E+50
 75
     0
  0
DIMASSOC
  5
4B8B0
102
{ACAD_REACTORS
330
4B8AF
102
}
330
4B8AF
100
AcDbDimAssoc
330
4B8AE
 90
        3
 70
     0
 71
     0
  1
AcDbOsnapPointRef
 72
     1
331
4B89B
 73
     0
 91
        0
 40
0.0
 10
0.0
 20
0.0
 30
2.000000000000000E+50
 75
     0
  1
AcDbOsnapPointRef
 72
     1
331
4B87A
 73
     0
 91
        0
 40
0.0
 10
0.0
 20
0.0
 30
2.000000000000000E+50
 75
     0
  0
DIMASSOC
  5
4B8B3
102
{ACAD_REACTORS
330
4B8B2
102
}
330
4B8B2
100
AcDbDimAssoc
330
4B8B1
 90
        3
 70
     0
 71
     0
  1
AcDbOsnapPointRef
 72
     1
331
4B89B
 73
     0
 91
        0
 40
0.0
 10
0.0
 20
0.0
 30
2.000000000000000E+50
 75
     0
  1
AcDbOsnapPointRef
 72
     1
331
4B89D
 73
     0
 91
        0
 40
0.0
 10
0.0
 20
0.0
 30
2.000000000000000E+50
 75
     0
  0
DIMASSOC
  5
4B8B6
102
{ACAD_REACTORS
330
4B8B5
102
}
330
4B8B5
100
AcDbDimAssoc
330
4B8B4
 90
        3
 70
     0
 71
     0
  1
AcDbOsnapPointRef
 72
     1
331
4B89D
 73
     0
 91
        0
 40
0.0
 10
0.0
 20
0.0
 30
2.000000000000000E+50
 75
     0
  1
AcDbOsnapPointRef
 72
     1
331
4B8A3
 73
     0
 91
        0
 40
0.0
 10
0.0
 20
0.0
 30
2.000000000000000E+50
 75
     0
  0
DIMASSOC
  5
4B8B9
102
{ACAD_REACTORS
330
4B8B8
102
}
330
4B8B8
100
AcDbDimAssoc
330
4B8B7
 90
        3
 70
     0
 71
     0
  1
AcDbOsnapPointRef
 72
     5
331
4B881
 73
     0
 91
        0
 40
9.424777960769379
 10
0.0
 20
0.0
 30
0.0
 75
     0
  1
AcDbOsnapPointRef
 72
     5
331
4B881
 73
     0
 91
        0
 40
6.283185307179586
 10
0.0
 20
0.0
 30
0.0
 75
     0
  0
DIMASSOC
  5
4B8BC
102
{ACAD_REACTORS
330
4B8BB
102
}
330
4B8BB
100
AcDbDimAssoc
330
4B8BA
 90
        3
 70
     0
 71
     0
  1
AcDbOsnapPointRef
 72
     5
331
4B87E
 73
     0
 91
        0
 40
3.141592653589793
 10
0.0
 20
0.0
 30
0.0
 75
     0
  1
AcDbOsnapPointRef
 72
     5
331
4B87E
 73
     0
 91
        0
 40
0.0
 10
0.0
 20
0.0
 30
0.0
 75
     0
  0
DIMASSOC
  5
4B8BF
102
{ACAD_REACTORS
330
4B8BE
102
}
330
4B8BE
100
AcDbDimAssoc
330
4B8BD
 90
        3
 70
     0
 71
     0
  1
AcDbOsnapPointRef
 72
     1
331
4B889
 73
     0
 91
        0
 40
0.0
 10
0.0
 20
0.0
 30
2.000000000000000E+50
 75
     0
  1
AcDbOsnapPointRef
 72
    13
331
4B889
 73
     0
 91
        0
 40
0.0
 10
0.0
 20
0.0
 30
2.000000000000000E+50
 75
     0
  0
DIMASSOC
  5
4B94D
102
{ACAD_REACTORS
330
4B94C
102
}
330
4B94C
100
AcDbDimAssoc
330
4B94B
 90
        2
 70
     0
 71
     0
  1
AcDbOsnapPointRef
 72
     3
331
4B90F
 73
     2
 91
        0
 40
0.0
 10
0.0
 20
0.0
 30
0.0
 75
     0
  0
LAYOUT
  5
22
102
{ACAD_XDICTIONARY
360
4BEF0
102
}
102
{ACAD_REACTORS
330
1A
102
}
330
1A
100
AcDbPlotSettings
  1

  2
DocuWide2055
  4
A4
  6
AM_VIEW1
 40
3.174999952316284
 41
3.174999952316284
 42
3.175003051757812
 43
3.17498779296875
 44
210.0156707763672
 45
297.0106506347656
 46
5.332833886146545
 47
8.330331444740295
 48
2133.633066675018
 49
-1460.182731148535
140
2407.633066675018
141
-1267.182731148535
142
1.0
143
1.0
 70
 11940
 72
     1
 73
     1
 74
     4
  7
monochrome.ctb
 75
     0
147
0.7072279707382396
148
-2133.633066675018
149
1460.182731148535
100
AcDbLayout
  1
Model
 70
     1
 71
     0
 10
0.0
 20
0.0
 11
12.0
 21
9.0
 12
0.0
 22
0.0
 32
0.0
 14
0.0
 24
0.0
 34
0.0
 15
0.0
 25
0.0
 35
0.0
146
0.0
 13
0.0
 23
0.0
 33
0.0
 16
1.0
 26
0.0
 36
0.0
 17
0.0
 27
1.0
 37
0.0
 76
     0
330
1F
331
C444
1001
ACAD_PSEXT
1000
DocuWide2055
1000
FX DocuWide 2055
1000
192.200.51.212:plt00t
1000

1070
     0
  0
LAYOUT
  5
1E
102
{ACAD_XDICTIONARY
360
4BEEE
102
}
102
{ACAD_REACTORS
330
1A
102
}
330
1A
100
AcDbPlotSettings
  1

  2
\\ML370\XEROX
  4
A4
  6

 40
3.174999952316284
 41
3.174999952316284
 42
3.175003051757812
 43
3.17498779296875
 44
209.8674926757813
 45
296.6719970703125
 46
0.0
 47
0.0
 48
0.0
 49
0.0
140
0.0
141
0.0
142
1.0
143
1.0
 70
   688
 72
     1
 73
     1
 74
     5
  7
monochrome.ctb
 75
    16
147
1.0
148
0.0
149
0.0
100
AcDbLayout
  1
ﾚｲｱｳﾄ1
 70
     1
 71
     1
 10
-3.17498779296875
 20
-3.174999952316284
 11
293.4970092773438
 21
206.692492723465
 12
0.0
 22
0.0
 32
0.0
 14
1.000000000000000E+20
 24
1.000000000000000E+20
 34
1.000000000000000E+20
 15
-1.000000000000000E+20
 25
-1.000000000000000E+20
 35
-1.000000000000000E+20
146
0.0
 13
0.0
 23
0.0
 33
0.0
 16
1.0
 26
0.0
 36
0.0
 17
0.0
 27
1.0
 37
0.0
 76
     0
330
1B
  0
LAYOUT
  5
26
102
{ACAD_XDICTIONARY
360
4BEF2
102
}
102
{ACAD_REACTORS
330
1A
102
}
330
1A
100
AcDbPlotSettings
  1

  2
\\ML370\XEROX
  4

  6

 40
0.0
 41
0.0
 42
0.0
 43
0.0
 44
0.0
 45
0.0
 46
0.0
 47
0.0
 48
0.0
 49
0.0
140
0.0
141
0.0
142
1.0
143
1.0
 70
   688
 72
     0
 73
     0
 74
     5
  7
monochrome.ctb
 75
    16
147
1.0
148
0.0
149
0.0
100
AcDbLayout
  1
ﾚｲｱｳﾄ2
 70
     1
 71
     2
 10
0.0
 20
0.0
 11
12.0
 21
9.0
 12
0.0
 22
0.0
 32
0.0
 14
0.0
 24
0.0
 34
0.0
 15
0.0
 25
0.0
 35
0.0
146
0.0
 13
0.0
 23
0.0
 33
0.0
 16
1.0
 26
0.0
 36
0.0
 17
0.0
 27
1.0
 37
0.0
 76
     0
330
23
  0
MATERIAL
  5
C448
102
{ACAD_XDICTIONARY
360
4BEF6
102
}
102
{ACAD_REACTORS
330
C446
102
}
330
C446
100
AcDbMaterial
  1
ByBlock
  0
MATERIAL
  5
C447
102
{ACAD_XDICTIONARY
360
4BEF4
102
}
102
{ACAD_REACTORS
330
C446
102
}
330
C446
100
AcDbMaterial
  1
ByLayer
  0
MATERIAL
  5
C449
102
{ACAD_XDICTIONARY
360
4BEF8
102
}
102
{ACAD_REACTORS
330
C446
102
}
330
C446
100
AcDbMaterial
  1
Global
  0
MLINESTYLE
  5
18
102
{ACAD_REACTORS
330
17
102
}
330
17
100
AcDbMlineStyle
  2
STANDARD
 70
     0
  3

 62
   256
 51
90.0
 52
90.0
 71
     2
 49
0.5
 62
   256
  6
BYLAYER
 49
-0.5
 62
   256
  6
BYLAYER
  0
PLOTSETTINGS
  5
C85D
102
{ACAD_XDICTIONARY
360
4BEFC
102
}
102
{ACAD_REACTORS
330
19
102
}
330
19
100
AcDbPlotSettings
  1
-00
  2
RICOH imagio Wide 7040e RP-GL/2
  4
A3
  6
AM_VIEW1
 40
5.069416522979736
 41
7.228392601013183
 42
5.23870849609375
 43
7.05908203125
 44
419.9889831542968
 45
296.9683227539062
 46
-5.159570932388305
 47
-7.159575939178466
 48
347.0000006405867
 49
-0.0000003719120514
140
767.0000006405866
141
296.9999996280879
142
1.0
143
1.0
 70
 11956
 72
     1
 73
     0
 74
     4
  7
monochrome.ctb
 75
    16
147
1.0
148
-347.0000006405867
149
0.0000003719120514
1001
ACAD_PSEXT
1000
RICOH imagio Wide 7040e RP-GL/2
1000
RICOH imagio Wide 7040e RP-GL/2
1000
\\ADMINISTRATOR
1000
RP-GL/2 Driver (Windows 2000/XP/Server 2003)
1070
     0
  0
ACDBPLACEHOLDER
  5
F
102
{ACAD_REACTORS
330
E
102
}
330
E
  0
TABLESTYLE
  5
C45D
102
{ACAD_XDICTIONARY
360
4BEFA
102
}
102
{ACAD_REACTORS
330
C45C
102
}
330
C45C
100
AcDbTableStyle
  3
Standard
 70
     0
 71
     0
 40
1.5
 41
1.5
280
     0
281
     0
  7
STANDARD
140
4.5
170
     2
 62
     0
 63
     7
283
     0
274
    -2
284
     1
 64
     0
275
    -2
285
     1
 65
     0
276
    -2
286
     1
 66
     0
277
    -2
287
     1
 67
     0
278
    -2
288
     1
 68
     0
279
    -2
289
     1
 69
     0
  7
STANDARD
140
6.0
170
     5
 62
     0
 63
     7
283
     0
274
    -2
284
     1
 64
     0
275
    -2
285
     1
 65
     0
276
    -2
286
     1
 66
     0
277
    -2
287
     1
 67
     0
278
    -2
288
     1
 68
     0
279
    -2
289
     1
 69
     0
  7
STANDARD
140
4.5
170
     5
 62
     0
 63
     7
283
     0
274
    -2
284
     1
 64
     0
275
    -2
285
     1
 65
     0
276
    -2
286
     1
 66
     0
277
    -2
287
     1
 67
     0
278
    -2
288
     1
 68
     0
279
    -2
289
     1
 69
     0
  0
VISUALSTYLE
  5
C450
102
{ACAD_REACTORS
330
C44A
102
}
330
C44A
100
AcDbVisualStyle
  2
2dWireframe
 70
     4
 71
     0
 72
     2
 73
     0
 90
        0
 40
-0.6
 41
-30.0
 62
     5
 63
     7
 74
     1
 91
        4
 64
     7
 65
   257
 75
     1
175
     1
 42
1.0
 92
        0
 66
   257
 43
1.0
 76
     1
 77
     6
 78
     2
 67
     7
 79
     5
170
     0
171
     0
290
     0
174
     0
 93
        1
 44
0.0
173
     0
291
     0
 45
0.0
1001
ACAD
1000
AcDbSavedByObjectVersion
1070
     0
  0
VISUALSTYLE
  5
C452
102
{ACAD_REACTORS
330
C44A
102
}
330
C44A
100
AcDbVisualStyle
  2
3D Hidden
 70
     6
 71
     1
 72
     2
 73
     2
 90
        0
 40
-0.6
 41
-30.0
 62
     5
 63
     7
 74
     2
 91
        2
 64
     7
 65
   257
 75
     2
175
     1
 42
40.0
 92
        0
 66
   257
 43
1.0
 76
     1
 77
     6
 78
     2
 67
     7
 79
     3
170
     0
171
     0
290
     0
174
     0
 93
        1
 44
0.0
173
     0
291
     0
 45
0.0
1001
ACAD
1000
AcDbSavedByObjectVersion
1070
     0
  0
VISUALSTYLE
  5
C451
102
{ACAD_REACTORS
330
C44A
102
}
330
C44A
100
AcDbVisualStyle
  2
3dWireframe
 70
     5
 71
     0
 72
     2
 73
     0
 90
        0
 40
-0.6
 41
-30.0
 62
     5
 63
     7
 74
     1
 91
        4
 64
     7
 65
   257
 75
     1
175
     1
 42
1.0
 92
        0
 66
   257
 43
1.0
 76
     1
 77
     6
 78
     2
 67
     7
 79
     5
170
     0
171
     0
290
     0
174
     0
 93
        1
 44
0.0
173
     0
291
     0
 45
0.0
1001
ACAD
1000
AcDbSavedByObjectVersion
1070
     0
  0
VISUALSTYLE
  5
C44F
102
{ACAD_REACTORS
330
C44A
102
}
330
C44A
100
AcDbVisualStyle
  2
Basic
 70
     7
 71
     1
 72
     0
 73
     1
 90
        0
 40
-0.6
 41
-30.0
 62
     5
 63
     7
 74
     0
 91
        4
 64
     7
 65
   257
 75
     1
175
     1
 42
1.0
 92
        8
 66
     7
 43
1.0
 76
     1
 77
     6
 78
     2
 67
     7
 79
     5
170
     0
171
     0
290
     0
174
     0
 93
        1
 44
0.0
173
     0
291
     1
 45
0.0
1001
ACAD
1000
AcDbSavedByObjectVersion
1070
     0
  0
VISUALSTYLE
  5
C456
102
{ACAD_REACTORS
330
C44A
102
}
330
C44A
100
AcDbVisualStyle
  2
Brighten
 70
    12
 71
     2
 72
     2
 73
     0
 90
        0
 40
-0.6
 41
-30.0
 62
     5
 63
     7
 74
     1
 91
        4
 64
     7
 65
   257
 75
     1
175
     1
 42
1.0
 92
        8
 66
     7
 43
1.0
 76
     1
 77
     6
 78
     2
 67
     7
 79
     5
170
     0
171
     0
290
     0
174
     0
 93
        1
 44
50.0
173
     0
291
     1
 45
0.0
1001
ACAD
1000
AcDbSavedByObjectVersion
1070
     0
  0
VISUALSTYLE
  5
C45A
102
{ACAD_REACTORS
330
C44A
102
}
330
C44A
100
AcDbVisualStyle
  2
ColorChange
 70
    16
 71
     2
 72
     2
 73
     3
 90
        0
 40
-0.6
 41
-30.0
 62
     5
 63
     8
 74
     1
 91
        4
 64
     7
 65
   257
 75
     1
175
     1
 42
1.0
 92
        8
 66
     8
 43
1.0
 76
     1
 77
     6
 78
     2
 67
     7
 79
     5
170
     0
171
     0
290
     0
174
     0
 93
        1
 44
0.0
173
     0
291
     1
 45
0.0
1001
ACAD
1000
AcDbSavedByObjectVersion
1070
     0
  0
VISUALSTYLE
  5
C453
102
{ACAD_REACTORS
330
C44A
102
}
330
C44A
100
AcDbVisualStyle
  2
Conceptual
 70
     9
 71
     3
 72
     2
 73
     0
 90
        0
 40
-0.6
 41
-30.0
 62
     5
 63
     7
 74
     2
 91
        2
 64
     7
 65
   257
 75
     1
175
     1
 42
40.0
 92
        8
 66
     7
 43
1.0
 76
     1
 77
     6
 78
     2
 67
     7
 79
     3
170
     0
171
     0
290
     0
174
     0
 93
        1
 44
0.0
173
     0
291
     0
 45
0.0
1001
ACAD
1000
AcDbSavedByObjectVersion
1070
     0
  0
VISUALSTYLE
  5
C455
102
{ACAD_REACTORS
330
C44A
102
}
330
C44A
100
AcDbVisualStyle
  2
Dim
 70
    11
 71
     2
 72
     2
 73
     0
 90
        0
 40
-0.6
 41
-30.0
 62
     5
 63
     7
 74
     1
 91
        4
 64
     7
 65
   257
 75
     1
175
     1
 42
1.0
 92
        8
 66
     7
 43
1.0
 76
     1
 77
     6
 78
     2
 67
     7
 79
     5
170
     0
171
     0
290
     0
174
     0
 93
        1
 44
-50.0
173
     0
291
     1
 45
0.0
1001
ACAD
1000
AcDbSavedByObjectVersion
1070
     0
  0
VISUALSTYLE
  5
C459
102
{ACAD_REACTORS
330
C44A
102
}
330
C44A
100
AcDbVisualStyle
  2
Facepattern
 70
    15
 71
     2
 72
     2
 73
     0
 90
        0
 40
-0.6
 41
-30.0
 62
     5
 63
     7
 74
     1
 91
        4
 64
     7
 65
   257
 75
     1
175
     1
 42
1.0
 92
        8
 66
     7
 43
1.0
 76
     1
 77
     6
 78
     2
 67
     7
 79
     5
170
     0
171
     0
290
     0
174
     0
 93
        1
 44
0.0
173
     0
291
     1
 45
0.0
1001
ACAD
1000
AcDbSavedByObjectVersion
1070
     0
  0
VISUALSTYLE
  5
C44B
102
{ACAD_REACTORS
330
C44A
102
}
330
C44A
100
AcDbVisualStyle
  2
Flat
 70
     0
 71
     2
 72
     1
 73
     1
 90
        2
 40
-0.6
 41
30.0
 62
     5
 63
     7
 74
     0
 91
        4
 64
     7
 65
   257
 75
     1
175
     1
 42
1.0
 92
        8
 66
     7
 43
1.0
 76
     1
 77
     6
 78
     2
 67
     7
 79
     5
170
     0
171
     0
290
     0
174
     0
 93
       13
 44
0.0
173
     0
291
     1
 45
0.0
1001
ACAD
1000
AcDbSavedByObjectVersion
1070
     0
  0
VISUALSTYLE
  5
C44C
102
{ACAD_REACTORS
330
C44A
102
}
330
C44A
100
AcDbVisualStyle
  2
FlatWithEdges
 70
     1
 71
     2
 72
     1
 73
     1
 90
        2
 40
-0.6
 41
30.0
 62
     5
 63
     7
 74
     1
 91
        4
 64
     7
 65
   257
 75
     1
175
     1
 42
1.0
 92
        0
 66
   257
 43
1.0
 76
     1
 77
     6
 78
     2
 67
     7
 79
     5
170
     0
171
     0
290
     0
174
     0
 93
       13
 44
0.0
173
     0
291
     1
 45
0.0
1001
ACAD
1000
AcDbSavedByObjectVersion
1070
     0
  0
VISUALSTYLE
  5
C44D
102
{ACAD_REACTORS
330
C44A
102
}
330
C44A
100
AcDbVisualStyle
  2
Gouraud
 70
     2
 71
     2
 72
     2
 73
     1
 90
        2
 40
-0.6
 41
30.0
 62
     5
 63
     7
 74
     0
 91
        4
 64
     7
 65
   257
 75
     1
175
     1
 42
1.0
 92
        0
 66
     7
 43
1.0
 76
     1
 77
     6
 78
     2
 67
     7
 79
     5
170
     0
171
     0
290
     0
174
     0
 93
       13
 44
0.0
173
     0
291
     1
 45
0.0
1001
ACAD
1000
AcDbSavedByObjectVersion
1070
     0
  0
VISUALSTYLE
  5
C44E
102
{ACAD_REACTORS
330
C44A
102
}
330
C44A
100
AcDbVisualStyle
  2
GouraudWithEdges
 70
     3
 71
     2
 72
     2
 73
     1
 90
        2
 40
-0.6
 41
30.0
 62
     5
 63
     7
 74
     1
 91
        4
 64
     7
 65
   257
 75
     1
175
     1
 42
1.0
 92
        0
 66
   257
 43
1.0
 76
     1
 77
     6
 78
     2
 67
     7
 79
     5
170
     0
171
     0
290
     0
174
     0
 93
       13
 44
0.0
173
     0
291
     1
 45
0.0
1001
ACAD
1000
AcDbSavedByObjectVersion
1070
     0
  0
VISUALSTYLE
  5
C458
102
{ACAD_REACTORS
330
C44A
102
}
330
C44A
100
AcDbVisualStyle
  2
Linepattern
 70
    14
 71
     2
 72
     2
 73
     0
 90
        0
 40
-0.6
 41
-30.0
 62
     5
 63
     7
 74
     1
 91
        4
 64
     7
 65
   257
 75
     7
175
     7
 42
1.0
 92
        8
 66
     7
 43
1.0
 76
     1
 77
     6
 78
     2
 67
     7
 79
     5
170
     0
171
     0
290
     0
174
     0
 93
        1
 44
0.0
173
     0
291
     1
 45
0.0
1001
ACAD
1000
AcDbSavedByObjectVersion
1070
     0
  0
VISUALSTYLE
  5
C454
102
{ACAD_REACTORS
330
C44A
102
}
330
C44A
100
AcDbVisualStyle
  2
Realistic
 70
     8
 71
     2
 72
     2
 73
     0
 90
        0
 40
-0.6
 41
-30.0
 62
     5
 63
     7
 74
     1
 91
        0
 64
     7
 65
   257
 75
     1
175
     1
 42
1.0
 92
        8
 66
     8
 43
1.0
 76
     1
 77
     6
 78
     2
 67
     7
 79
     5
170
     0
171
     0
290
     0
174
     0
 93
       13
 44
0.0
173
     0
291
     0
 45
0.0
1001
ACAD
1000
AcDbSavedByObjectVersion
1070
     0
  0
VISUALSTYLE
  5
C457
102
{ACAD_REACTORS
330
C44A
102
}
330
C44A
100
AcDbVisualStyle
  2
Thicken
 70
    13
 71
     2
 72
     2
 73
     0
 90
        0
 40
-0.6
 41
-30.0
 62
     5
 63
     7
 74
     1
 91
        4
 64
     7
 65
   257
 75
     1
175
     1
 42
1.0
 92
       12
 66
     7
 43
1.0
 76
     1
 77
     6
 78
     2
 67
     7
 79
     5
170
     0
171
     0
290
     0
174
     0
 93
        1
 44
0.0
173
     0
291
     1
 45
0.0
1001
ACAD
1000
AcDbSavedByObjectVersion
1070
     0
  0
DICTIONARYVAR
  5
C4A2
102
{ACAD_REACTORS
330
34
102
}
330
34
100
DictionaryVariables
280
     0
  1
STANDARD
  0
DICTIONARYVAR
  5
AC85
102
{ACAD_REACTORS
330
34
102
}
330
34
100
DictionaryVariables
280
     0
  1
2
  0
DICTIONARYVAR
  5
35
102
{ACAD_REACTORS
330
34
102
}
330
34
100
DictionaryVariables
280
     0
  1
0
  0
DICTIONARYVAR
  5
194C
102
{ACAD_REACTORS
330
34
102
}
330
34
100
DictionaryVariables
280
     0
  1
96
  0
DICTIONARY
  5
7E8
102
{ACAD_REACTORS
330
47
102
}
330
47
100
AcDbDictionary
281
     1
  0
DICTIONARY
  5
4C
102
{ACAD_REACTORS
330
47
102
}
330
47
100
AcDbDictionary
281
     1
  0
XRECORD
  5
C487
102
{ACAD_REACTORS
330
47
102
}
330
47
100
AcDbXrecord
280
     1
 90
-1023410169
  0
XRECORD
  5
B42F
102
{ACAD_REACTORS
330
B42E
102
}
330
B42E
100
AcDbXrecord
280
     1
330
0
330
0
330
0
330
0
330
0
330
0
330
0
330
0
330
0
330
0
330
0
330
0
330
0
330
0
330
0
330
0
330
0
330
0
330
0
330
0
330
0
330
0
330
0
330
0
  0
XRECORD
  5
494F3
102
{ACAD_REACTORS
330
494F1
102
}
330
494F1
100
AcDbXrecord
280
     1
  1
50
  1
*-50
  1
*
  1
*
 70
     0
  1
*
  1
*
1001
ACAD
1000
( NAME== "*-50" )
  0
XRECORD
  5
3FB7
102
{ACAD_REACTORS
330
3F96
102
}
330
3F96
100
AcDbXrecord
280
     1
 91
        3
330
A47
 90
        8
 62
     7
370
    40
331
16
  1
Color_7
330
A46
 90
        0
 62
    14
370
    -3
331
16
  1
Color_14
330
3A31
 90
        8
 62
     7
370
    20
331
16
  1
Color_7
330
6D1
 90
        0
 62
     7
370
    -3
331
16
  1
Color_7
330
0
 90
        8
 62
     7
370
    50
331
16
  1
Color_7
330
A48
 90
        8
 62
     2
370
    35
331
16
  1
Color_2
330
0
 90
        8
 62
     7
370
    -3
331
16
  1
Color_7
330
10
 90
        8
 62
     7
370
    -3
331
16
  1
Color_7
  0
XRECORD
  5
494F2
102
{ACAD_REACTORS
330
494F0
102
}
330
494F0
100
AcDbXrecord
280
     1
  1
AcLyLayerFilter
 90
        1
300
50
301
( NAME== "*-50" )
  0
DICTIONARY
  5
4BEF0
330
22
100
AcDbDictionary
280
     1
281
     1
  3
ACAD_XREC_ROUNDTRIP
360
4BEF1
  0
DICTIONARY
  5
4BEEE
330
1E
100
AcDbDictionary
280
     1
281
     1
  3
ACAD_XREC_ROUNDTRIP
360
4BEEF
  0
DICTIONARY
  5
4BEF2
330
26
100
AcDbDictionary
280
     1
281
     1
  3
ACAD_XREC_ROUNDTRIP
360
4BEF3
  0
DICTIONARY
  5
4BEF6
330
C448
100
AcDbDictionary
280
     1
281
     1
  3
ACAD_XREC_ROUNDTRIP
360
4BEF7
  0
DICTIONARY
  5
4BEF4
330
C447
100
AcDbDictionary
280
     1
281
     1
  3
ACAD_XREC_ROUNDTRIP
360
4BEF5
  0
DICTIONARY
  5
4BEF8
330
C449
100
AcDbDictionary
280
     1
281
     1
  3
ACAD_XREC_ROUNDTRIP
360
4BEF9
  0
DICTIONARY
  5
4BEFC
330
C85D
100
AcDbDictionary
280
     1
281
     1
  3
ACAD_XREC_ROUNDTRIP
360
4BEFD
  0
DICTIONARY
  5
4BEFA
330
C45D
100
AcDbDictionary
280
     1
281
     1
  3
ACAD_XREC_ROUNDTRIP
360
4BEFB
  0
XRECORD
  5
4BEF1
102
{ACAD_REACTORS
330
4BEF0
102
}
330
4BEF0
100
AcDbXrecord
280
     1
102
SHADEPLOT
 70
     0
102
SHADEPLOTRESLEVEL
 70
     2
102
SHADEPLOTCUSTOMDPI
 70
   300
  0
XRECORD
  5
4BEEF
102
{ACAD_REACTORS
330
4BEEE
102
}
330
4BEEE
100
AcDbXrecord
280
     1
102
SHADEPLOT
 70
     0
102
SHADEPLOTRESLEVEL
 70
     2
102
SHADEPLOTCUSTOMDPI
 70
   300
  0
XRECORD
  5
4BEF3
102
{ACAD_REACTORS
330
4BEF2
102
}
330
4BEF2
100
AcDbXrecord
280
     1
102
SHADEPLOT
 70
     0
102
SHADEPLOTRESLEVEL
 70
     2
102
SHADEPLOTCUSTOMDPI
 70
   300
  0
XRECORD
  5
4BEF7
102
{ACAD_REACTORS
330
4BEF6
102
}
330
4BEF6
100
AcDbXrecord
280
     1
102
MATERIAL
148
0.0
149
0.0
149
0.0
 93
        0
 94
       63
282
     0
 72
     1
 77
     1
171
     1
175
     1
179
     1
273
     0
  0
XRECORD
  5
4BEF5
102
{ACAD_REACTORS
330
4BEF4
102
}
330
4BEF4
100
AcDbXrecord
280
     1
102
MATERIAL
148
0.0
149
0.0
149
0.0
 93
        0
 94
       63
282
     0
 72
     1
 77
     1
171
     1
175
     1
179
     1
273
     0
  0
XRECORD
  5
4BEF9
102
{ACAD_REACTORS
330
4BEF8
102
}
330
4BEF8
100
AcDbXrecord
280
     1
102
MATERIAL
148
0.0
149
0.0
149
0.0
 93
        0
 94
       63
282
     0
 72
     1
 77
     1
171
     1
175
     1
179
     1
273
     0
  0
XRECORD
  5
4BEFD
102
{ACAD_REACTORS
330
4BEFC
102
}
330
4BEFC
100
AcDbXrecord
280
     1
102
SHADEPLOT
 70
     0
102
SHADEPLOTRESLEVEL
 70
     2
102
SHADEPLOTCUSTOMDPI
 70
   300
  0
XRECORD
  5
4BEFB
102
{ACAD_REACTORS
330
4BEFA
102
}
330
4BEFA
100
AcDbXrecord
280
     1
102
ACAD_ROUNDTRIP_PRE2007_TABLESTYLE
 90
      512
 91
        0
  1

 92
      512
 93
        0
  2

 94
      512
 95
        0
  3

  0
ENDSEC
  0
EOF
