  0
SECTION
  2
HEADER
  9
$ACADVER
  1
AC1015
  9
$ACADMAINTVER
 70
    20
  9
$DWGCODEPAGE
  3
ANSI_932
  9
$INSBASE
 10
0.0
 20
0.0
 30
0.0
  9
$EXTMIN
 10
2706.684745105202
 20
-3053.273790756371
 30
0.0
  9
$EXTMAX
 10
3701.56718498493
 20
-2536.367031887583
 30
0.0
  9
$LIMMIN
 10
2168.279185573178
 20
-2530.372216979716
  9
$LIMMAX
 10
2316.779185573178
 20
-2425.372216979716
  9
$ORTHOMODE
 70
     0
  9
$REGENMODE
 70
     1
  9
$FILLMODE
 70
     1
  9
$QTEXTMODE
 70
     0
  9
$MIRRTEXT
 70
     0
  9
$LTSCALE
 40
1.0
  9
$ATTMODE
 70
     1
  9
$TEXTSIZE
 40
3.5
  9
$TRACEWID
 40
1.0
  9
$TEXTSTYLE
  7
STANDARD
  9
$CLAYER
  8
000鈴木検図
  9
$CELTYPE
  6
ByLayer
  9
$CECOLOR
 62
   256
  9
$CELTSCALE
 40
1.0
  9
$DISPSILH
 70
     0
  9
$DIMSCALE
 40
1.0
  9
$DIMASZ
 40
2.5
  9
$DIMEXO
 40
1.0
  9
$DIMDLI
 40
10.0
  9
$DIMRND
 40
0.0
  9
$DIMDLE
 40
0.0
  9
$DIMEXE
 40
1.0
  9
$DIMTP
 40
0.1
  9
$DIMTM
 40
0.1
  9
$DIMTXT
 40
3.5
  9
$DIMCEN
 40
0.0
  9
$DIMTSZ
 40
0.0
  9
$DIMTOL
 70
     0
  9
$DIMLIM
 70
     0
  9
$DIMTIH
 70
     0
  9
$DIMTOH
 70
     0
  9
$DIMSE1
 70
     0
  9
$DIMSE2
 70
     0
  9
$DIMTAD
 70
     1
  9
$DIMZIN
 70
     8
  9
$DIMBLK
  1

  9
$DIMASO
 70
     1
  9
$DIMSHO
 70
     1
  9
$DIMPOST
  1

  9
$DIMAPOST
  1
"
  9
$DIMALT
 70
     0
  9
$DIMALTD
 70
     2
  9
$DIMALTF
 40
0.0393701
  9
$DIMLFAC
 40
1.0
  9
$DIMTOFL
 70
     1
  9
$DIMTVP
 40
0.0
  9
$DIMTIX
 70
     0
  9
$DIMSOXD
 70
     0
  9
$DIMSAH
 70
     0
  9
$DIMBLK1
  1

  9
$DIMBLK2
  1

  9
$DIMSTYLE
  2
SYS
  9
$DIMCLRD
 70
   256
  9
$DIMCLRE
 70
   256
  9
$DIMCLRT
 70
     7
  9
$DIMTFAC
 40
0.71
  9
$DIMGAP
 40
1.5
  9
$DIMJUST
 70
     0
  9
$DIMSD1
 70
     0
  9
$DIMSD2
 70
     0
  9
$DIMTOLJ
 70
     0
  9
$DIMTZIN
 70
     8
  9
$DIMALTZ
 70
     0
  9
$DIMALTTZ
 70
     0
  9
$DIMUPT
 70
     0
  9
$DIMDEC
 70
     1
  9
$DIMTDEC
 70
     3
  9
$DIMALTU
 70
     2
  9
$DIMALTTD
 70
     4
  9
$DIMTXSTY
  7
STANDARD
  9
$DIMAUNIT
 70
     0
  9
$DIMADEC
 70
     0
  9
$DIMALTRND
 40
0.0
  9
$DIMAZIN
 70
     2
  9
$DIMDSEP
 70
    46
  9
$DIMATFIT
 70
     3
  9
$DIMFRAC
 70
     0
  9
$DIMLDRBLK
  1

  9
$DIMLUNIT
 70
     2
  9
$DIMLWD
 70
    -1
  9
$DIMLWE
 70
    -1
  9
$DIMTMOVE
 70
     0
  9
$LUNITS
 70
     2
  9
$LUPREC
 70
     2
  9
$SKETCHINC
 40
1.0
  9
$FILLETRAD
 40
1.0
  9
$AUNITS
 70
     0
  9
$AUPREC
 70
     0
  9
$MENU
  1
.
  9
$ELEVATION
 40
0.0
  9
$PELEVATION
 40
0.0
  9
$THICKNESS
 40
0.0
  9
$LIMCHECK
 70
     0
  9
$CHAMFERA
 40
0.35
  9
$CHAMFERB
 40
0.35
  9
$CHAMFERC
 40
20.0
  9
$CHAMFERD
 40
0.0
  9
$SKPOLY
 70
     0
  9
$TDCREATE
 40
2452002.615067627
  9
$TDUCREATE
 40
2452002.240067627
  9
$TDUPDATE
 40
2455338.696867396
  9
$TDUUPDATE
 40
2455338.321867396
  9
$TDINDWG
 40
13.7982765278
  9
$TDUSRTIMER
 40
13.7982765278
  9
$USRTIMER
 70
     1
  9
$ANGBASE
 50
0.0
  9
$ANGDIR
 70
     0
  9
$PDMODE
 70
     0
  9
$PDSIZE
 40
0.0
  9
$PLINEWID
 40
0.0
  9
$SPLFRAME
 70
     0
  9
$SPLINETYPE
 70
     6
  9
$SPLINESEGS
 70
     8
  9
$HANDSEED
  5
4AE0A
  9
$SURFTAB1
 70
     6
  9
$SURFTAB2
 70
     6
  9
$SURFTYPE
 70
     6
  9
$SURFU
 70
     6
  9
$SURFV
 70
     6
  9
$UCSBASE
  2

  9
$UCSNAME
  2

  9
$UCSORG
 10
0.0
 20
0.0
 30
0.0
  9
$UCSXDIR
 10
1.0
 20
0.0
 30
0.0
  9
$UCSYDIR
 10
0.0
 20
1.0
 30
0.0
  9
$UCSORTHOREF
  2

  9
$UCSORTHOVIEW
 70
     0
  9
$UCSORGTOP
 10
0.0
 20
0.0
 30
0.0
  9
$UCSORGBOTTOM
 10
0.0
 20
0.0
 30
0.0
  9
$UCSORGLEFT
 10
0.0
 20
0.0
 30
0.0
  9
$UCSORGRIGHT
 10
0.0
 20
0.0
 30
0.0
  9
$UCSORGFRONT
 10
0.0
 20
0.0
 30
0.0
  9
$UCSORGBACK
 10
0.0
 20
0.0
 30
0.0
  9
$PUCSBASE
  2

  9
$PUCSNAME
  2

  9
$PUCSORG
 10
0.0
 20
0.0
 30
0.0
  9
$PUCSXDIR
 10
1.0
 20
0.0
 30
0.0
  9
$PUCSYDIR
 10
0.0
 20
1.0
 30
0.0
  9
$PUCSORTHOREF
  2

  9
$PUCSORTHOVIEW
 70
     0
  9
$PUCSORGTOP
 10
0.0
 20
0.0
 30
0.0
  9
$PUCSORGBOTTOM
 10
0.0
 20
0.0
 30
0.0
  9
$PUCSORGLEFT
 10
0.0
 20
0.0
 30
0.0
  9
$PUCSORGRIGHT
 10
0.0
 20
0.0
 30
0.0
  9
$PUCSORGFRONT
 10
0.0
 20
0.0
 30
0.0
  9
$PUCSORGBACK
 10
0.0
 20
0.0
 30
0.0
  9
$USERI1
 70
     0
  9
$USERI2
 70
     0
  9
$USERI3
 70
     0
  9
$USERI4
 70
     0
  9
$USERI5
 70
     0
  9
$USERR1
 40
0.0
  9
$USERR2
 40
0.0
  9
$USERR3
 40
0.0
  9
$USERR4
 40
0.0
  9
$USERR5
 40
0.0
  9
$WORLDVIEW
 70
     1
  9
$SHADEDGE
 70
     3
  9
$SHADEDIF
 70
    70
  9
$TILEMODE
 70
     1
  9
$MAXACTVP
 70
    64
  9
$PINSBASE
 10
0.0
 20
0.0
 30
0.0
  9
$PLIMCHECK
 70
     0
  9
$PEXTMIN
 10
1.000000000000000E+20
 20
1.000000000000000E+20
 30
1.000000000000000E+20
  9
$PEXTMAX
 10
-1.000000000000000E+20
 20
-1.000000000000000E+20
 30
-1.000000000000000E+20
  9
$PLIMMIN
 10
-3.17498779296875
 20
-3.174999952316284
  9
$PLIMMAX
 10
293.4970092773438
 20
206.692492723465
  9
$UNITMODE
 70
     0
  9
$VISRETAIN
 70
     1
  9
$PLINEGEN
 70
     0
  9
$PSLTSCALE
 70
     1
  9
$TREEDEPTH
 70
  3020
  9
$CMLSTYLE
  2
Standard
  9
$CMLJUST
 70
     0
  9
$CMLSCALE
 40
20.0
  9
$PROXYGRAPHICS
 70
     1
  9
$MEASUREMENT
 70
     1
  9
$CELWEIGHT
370
    -1
  9
$ENDCAPS
280
     0
  9
$JOINSTYLE
280
     0
  9
$LWDISPLAY
290
     1
  9
$INSUNITS
 70
     4
  9
$HYPERLINKBASE
  1

  9
$STYLESHEET
  1
monochrome.ctb
  9
$XEDIT
290
     1
  9
$CEPSNTYPE
380
     0
  9
$PSTYLEMODE
290
     1
  9
$FINGERPRINTGUID
  2
{83FB3AA1-FF18-4BFE-AFE0-611B71DE056D}
  9
$VERSIONGUID
  2
{7EE935C5-8F9C-4D7A-A8AC-55622D67EA71}
  9
$EXTNAMES
290
     1
  9
$PSVPSCALE
 40
0.0
  9
$OLESTARTUP
290
     0
  0
ENDSEC
  0
SECTION
  2
CLASSES
  0
CLASS
  1
ACDBDICTIONARYWDFLT
  2
AcDbDictionaryWithDefault
  3
ObjectDBX Classes
 90
        0
280
     0
281
     0
  0
CLASS
  1
ACDBPLACEHOLDER
  2
AcDbPlaceHolder
  3
ObjectDBX Classes
 90
        0
280
     0
281
     0
  0
CLASS
  1
LAYOUT
  2
AcDbLayout
  3
ObjectDBX Classes
 90
        0
280
     0
281
     0
  0
CLASS
  1
AMGSETTINGSOBJ
  2
AmgSettingsObj
  3
"AcadM|Product Description: AutoCAD Mechanical|Company: Autodesk"
 90
        0
280
     0
281
     0
  0
CLASS
  1
ACME_DOCUMENT
  2
AcMeDbDoc
  3
AcMeServices
 90
        0
280
     0
281
     0
  0
CLASS
  1
ACMESCOPE
  2
AcMeScope
  3
AcMeServices
 90
        0
280
     0
281
     0
  0
CLASS
  1
ACMECOMMANDHISTORY
  2
AcMeCommandHistory
  3
AcMeServices
 90
        0
280
     0
281
     0
  0
CLASS
  1
DICTIONARYVAR
  2
AcDbDictionaryVar
  3
ObjectDBX Classes
 90
        0
280
     0
281
     0
  0
CLASS
  1
ACIMSYSVARMAN
  2
AcImSysVarManager
  3
AcMeServices
 90
        0
280
     0
281
     0
  0
CLASS
  1
ACIMREALSYSVAR
  2
AcImRealSysVar
  3
AcMeServices
 90
        0
280
     0
281
     0
  0
CLASS
  1
ACIMINTSYSVAR
  2
AcImIntSysVar
  3
AcMeServices
 90
        0
280
     0
281
     0
  0
CLASS
  1
ACMEDRAWINGMAN
  2
AcMeDrawingMan
  3
AcMeServices
 90
        0
280
     0
281
     0
  0
CLASS
  1
ACMEVIEW
  2
AcMeView
  3
AcMeServices
 90
        0
280
     0
281
     0
  0
CLASS
  1
ACDBENTITYCACHE
  2
AcMeEntityCache
  3
AcMeServices
 90
        0
280
     0
281
     0
  0
CLASS
  1
GSMANAGER
  2
AcMeGSManager
  3
AcMeServices
 90
        0
280
     0
281
     0
  0
CLASS
  1
AMDTINTERNALREACTOR
  2
AmdtInternalReactor
  3
AcMeServices
 90
        0
280
     0
281
     0
  0
CLASS
  1
ACMESTATEMGR
  2
AcMeStateMgr
  3
AcMeServices
 90
        0
280
     0
281
     0
  0
CLASS
  1
ACGREFMASTER
  2
AcGrefMaster
  3
AcAttribServices
 90
        0
280
     0
281
     0
  0
CLASS
  1
ACME_DATABASE
  2
AcMeDbDatabase
  3
AcMeServices
 90
        0
280
     0
281
     0
  0
CLASS
  1
ACRFINSADJUSTERMGR
  2
AcRfInsAdjusterMgr
  3
AcMeServices
 90
        0
280
     0
281
     0
  0
CLASS
  1
ACGREFACADMASTER
  2
AcGrefacadMaster
  3
AcGrefServices
 90
        0
280
     0
281
     0
  0
CLASS
  1
AMIMASTER
  2
AmiMaster
  3
AmiServices
 90
        0
280
     0
281
     0
  0
CLASS
  1
ACMDATADICTIONARY
  2
AcmDataDictionary
  3
"AcmSymBB|Product Description: AutoCAD Mechanical|Company: Autodesk"
 90
        0
280
     0
281
     0
  0
CLASS
  1
ACMDATAENTRYBLOCK
  2
AcmDataEntryBlock
  3
"AcmSymBB|Product Description: AutoCAD Mechanical|Company: Autodesk"
 90
        0
280
     0
281
     0
  0
CLASS
  1
ACIMSTRSYSVAR
  2
AcImStrSysVar
  3
AcMeServices
 90
        0
280
     0
281
     0
  0
CLASS
  1
ACMSTANDARDISO
  2
AcmStandardISO
  3
"Amdt_StdImp|Product Description: AutoCAD Mechanical|Company: Autodesk"
 90
        0
280
     0
281
     0
  0
CLASS
  1
AMGOBJPROPCFG
  2
AmgObjPropCfg
  3
"AmgLay|Product Description: AutoCAD Mechanical|Company: Autodesk"
 90
        1
280
     0
281
     0
  0
CLASS
  1
AMDTEDGESTANDARDISO
  2
AmdtEdgeStdISO
  3
"Amdt_StdImp|Product Description: AutoCAD Mechanical|Company: Autodesk"
 90
        0
280
     0
281
     0
  0
CLASS
  1
ACMSURFSTANDARDISO
  2
AcmSurfTextStdISO
  3
"Amdt_StdImp|Product Description: AutoCAD Mechanical|Company: Autodesk"
 90
        0
280
     0
281
     0
  0
CLASS
  1
ACMFCFSTANDARDISO
  2
AcmFCFStdISO
  3
"Amdt_StdImp|Product Description: AutoCAD Mechanical|Company: Autodesk"
 90
        0
280
     0
281
     0
  0
CLASS
  1
ACMWELDSTANDARDISO
  2
AcmWeldingStdISO
  3
"Amdt_StdImp|Product Description: AutoCAD Mechanical|Company: Autodesk"
 90
        0
280
     0
281
     0
  0
CLASS
  1
ACMIDSTANDARDISO
  2
AcmIdStdISO
  3
"Amdt_StdImp|Product Description: AutoCAD Mechanical|Company: Autodesk"
 90
        0
280
     0
281
     0
  0
CLASS
  1
ACMDATUMSTANDARDISO
  2
AcmDatumStdISO
  3
"Amdt_StdImp|Product Description: AutoCAD Mechanical|Company: Autodesk"
 90
        0
280
     0
281
     0
  0
CLASS
  1
ACMBOMSTANDARDISO
  2
AcmBOMStdISO
  3
"Amdt_StdImp|Product Description: AutoCAD Mechanical|Company: Autodesk"
 90
        0
280
     0
281
     0
  0
CLASS
  1
ACMDETAILSTANDARDISO
  2
AmdtDetailSymStdISO
  3
"Amdt_StdImp|Product Description: AutoCAD Mechanical|Company: Autodesk"
 90
        0
280
     0
281
     0
  0
CLASS
  1
ACMSECTIONSTANDARDISO
  2
AmdtSectionSymStdISO
  3
"Amdt_StdImp|Product Description: AutoCAD Mechanical|Company: Autodesk"
 90
        0
280
     0
281
     0
  0
CLASS
  1
ACMCENTERLINESTANDARDISO
  2
AmdtCenterLineStdISO
  3
"Amdt_StdImp|Product Description: AutoCAD Mechanical|Company: Autodesk"
 90
        0
280
     0
281
     0
  0
CLASS
  1
ACAMGLAYSTD
  2
AcAmgLayStd
  3
"AmgLay|Product Description: AutoCAD Mechanical|Company: Autodesk"
 90
        0
280
     0
281
     0
  0
CLASS
  1
ACAMGDIMSTD
  2
AcAmgDimStd
  3
"AmgDim|Product Description: AutoCAD Mechanical|Company: Autodesk"
 90
        0
280
     0
281
     0
  0
CLASS
  1
ACAMGTITLESTD
  2
AcAmgTitleStd
  3
"AmgTitle|Product Description: AutoCAD Mechanical|Company: Autodesk"
 90
        0
280
     0
281
     0
  0
CLASS
  1
ACAMGFILTERDAT
  2
AcAmgFilterDat
  3
"AcadM|Product Description: AutoCAD Mechanical|Company: Autodesk"
 90
        0
280
     0
281
     0
  0
CLASS
  1
LAYER_INDEX
  2
AcDbLayerIndex
  3
ObjectDBX Classes
 90
    32768
280
     0
281
     0
  0
CLASS
  1
IDBUFFER
  2
AcDbIdBuffer
  3
ObjectDBX Classes
 90
    32768
280
     0
281
     0
  0
CLASS
  1
PLOTSETTINGS
  2
AcDbPlotSettings
  3
ObjectDBX Classes
 90
        0
280
     0
281
     0
  0
CLASS
  1
AMDTFORMULAUPDATEDISPATCHER
  2
AmdtFormulaUpdateDispatcher
  3
AcMeServices
 90
        0
280
     0
281
     0
  0
CLASS
  1
ACMSTANDARDANSI
  2
AcmStandardANSI
  3
"Amdt_StdImp|Product Description: AutoCAD Mechanical|Company: Autodesk"
 90
        0
280
     0
281
     0
  0
CLASS
  1
ACMSURFSTANDARDANSI
  2
AcmSurfTextStdANSI
  3
"Amdt_StdImp|Product Description: AutoCAD Mechanical|Company: Autodesk"
 90
        0
280
     0
281
     0
  0
CLASS
  1
ACMFCFSTANDARDANSI
  2
AcmFCFStdANSI
  3
"Amdt_StdImp|Product Description: AutoCAD Mechanical|Company: Autodesk"
 90
        0
280
     0
281
     0
  0
CLASS
  1
ACMWELDSTANDARDANSI
  2
AcmWeldingStdANSI
  3
"Amdt_StdImp|Product Description: AutoCAD Mechanical|Company: Autodesk"
 90
        0
280
     0
281
     0
  0
CLASS
  1
ACMIDSTANDARDANSI
  2
AcmIdStdANSI
  3
"Amdt_StdImp|Product Description: AutoCAD Mechanical|Company: Autodesk"
 90
        0
280
     0
281
     0
  0
CLASS
  1
ACMDATUMSTANDARDANSI
  2
AcmDatumStdANSI
  3
"Amdt_StdImp|Product Description: AutoCAD Mechanical|Company: Autodesk"
 90
        0
280
     0
281
     0
  0
CLASS
  1
ACMBOMSTANDARDANSI
  2
AcmBOMStdANSI
  3
"Amdt_StdImp|Product Description: AutoCAD Mechanical|Company: Autodesk"
 90
        0
280
     0
281
     0
  0
CLASS
  1
ACMDETAILSTANDARDANSI
  2
AmdtDetailSymStdANSI
  3
"Amdt_StdImp|Product Description: AutoCAD Mechanical|Company: Autodesk"
 90
        0
280
     0
281
     0
  0
CLASS
  1
ACMSECTIONSTANDARDANSI
  2
AmdtSectionSymStdANSI
  3
"Amdt_StdImp|Product Description: AutoCAD Mechanical|Company: Autodesk"
 90
        0
280
     0
281
     0
  0
CLASS
  1
ACMCENTERLINESTANDARDANSI
  2
AmdtCenterLineStdANSI
  3
"Amdt_StdImp|Product Description: AutoCAD Mechanical|Company: Autodesk"
 90
        0
280
     0
281
     0
  0
CLASS
  1
ACMBOM
  2
AcmBom
  3
"AcmSymBB|Product Description: AutoCAD Mechanical|Company: Autodesk"
 90
        0
280
     0
281
     0
  0
CLASS
  1
ACMDATAENTRYPART
  2
AcmDataEntryPart
  3
"AcmSymBB|Product Description: AutoCAD Mechanical|Company: Autodesk"
 90
    32768
280
     0
281
     0
  0
CLASS
  1
ACMPARTREF
  2
AcmPartRef
  3
"AcmSymBB|Product Description: AutoCAD Mechanical|Company: Autodesk"
 90
    35839
280
     0
281
     1
  0
CLASS
  1
ACDBCIRCARCRES
  2
AcDbCircArcRes
  3
AcGrefServices
 90
    32768
280
     0
281
     0
  0
CLASS
  1
ACMBOMROW
  2
AcmBomRow
  3
"AcmSymBB|Product Description: AutoCAD Mechanical|Company: Autodesk"
 90
    32768
280
     0
281
     0
  0
CLASS
  1
ACMBALLOON
  2
AcmBalloon
  3
"AcmSymBB|Product Description: AutoCAD Mechanical|Company: Autodesk"
 90
    35839
280
     0
281
     1
  0
CLASS
  1
AMDTNOTE
  2
AmdtNote
  3
"AcmSymBB|Product Description: AutoCAD Mechanical|Company: Autodesk"
 90
    35839
280
     0
281
     1
  0
CLASS
  1
STDPART2D
  2
AmgStdPart
  3
"AmgStdPart|Product Description: AutoCAD Mechanical|Company: Autodesk"
 90
    35839
280
     0
281
     1
  0
CLASS
  1
ACDBSTDPARTRES_LINE
  2
AcDbStdPartRes_Line
  3
"AmgStdPart|Product Description: AutoCAD Mechanical|Company: Autodesk"
 90
    32768
280
     0
281
     0
  0
CLASS
  1
ACMDATAENTRY
  2
AcmDataEntry
  3
"AcmSymBB|Product Description: AutoCAD Mechanical|Company: Autodesk"
 90
        0
280
     0
281
     0
  0
CLASS
  1
ACDBOPPOLYLINERES
  2
AcDbOpPolylineRes
  3
AcGrefServices
 90
    32768
280
     0
281
     0
  0
CLASS
  1
ACMPARTLIST
  2
AcmPartList
  3
"AcmSymBB|Product Description: AutoCAD Mechanical|Company: Autodesk"
 90
    35839
280
     0
281
     1
  0
CLASS
  1
ACDBLINERES
  2
AcDbLineRes
  3
AcGrefServices
 90
    32768
280
     0
281
     0
  0
CLASS
  1
ACRFINSADJ
  2
AcRfInsAdjuster
  3
AcMeServices
 90
    32768
280
     0
281
     0
  0
CLASS
  1
AM_DRAWING_MGR
  2
AcDmDwgMgr
  3
AcMechDwgViewMgmt
 90
        0
280
     0
281
     0
  0
CLASS
  1
AM_DWG_DOCUMENT
  2
AcDmDwgDocument
  3
AcMechDwgViewMgmt
 90
        0
280
     0
281
     0
  0
CLASS
  1
AM_DWG_SHEET
  2
AcDmSheet
  3
AcMechDwgViewMgmt
 90
        0
280
     0
281
     0
  0
CLASS
  1
AM_VIEWDIMPARMAP
  2
AcDmViewDimParMap
  3
AcMechDwgViewMgmt
 90
        0
280
     0
281
     0
  0
CLASS
  1
AM_DWGMGR_NAME
  2
AcDmDwgMgrName
  3
AcMechDwgViewMgmt
 90
        0
280
     0
281
     0
  0
CLASS
  1
AMDTMENUSTATEMGR
  2
AmdtMenuStateMgr
  3
McadcomServices
 90
        0
280
     0
281
     0
  0
CLASS
  1
AMDTMCOMMENUSTATE
  2
AmdtMcomMenuState
  3
McadcomServices
 90
        0
280
     0
281
     0
  0
CLASS
  1
ASAPP
  2
AcAsAppObject
  3
AutoSurfServices
 90
        0
280
     0
281
     0
  0
CLASS
  1
IM_STATIC_MAN
  2
AcImStaticVarManager
  3
AcMeServices
 90
        0
280
     0
281
     0
  0
CLASS
  1
ACIMDBLSTATICVAR
  2
AcImDblStaticVar
  3
AcMeServices
 90
        0
280
     0
281
     0
  0
CLASS
  1
ACIMSTRSTATICVAR
  2
AcImStrStaticVar
  3
AcMeServices
 90
        0
280
     0
281
     0
  0
CLASS
  1
ACIMINTSTATICVAR
  2
AcImIntStaticVar
  3
AcMeServices
 90
        0
280
     0
281
     0
  0
CLASS
  1
ACASGREFMASTER
  2
AcAsGrefMaster
  3
AutoSurfResolverServices
 90
        0
280
     0
281
     0
  0
CLASS
  1
ACADGREFMODULE
  2
AcAdGrefModule
  3
AdGrefServices
 90
        0
280
     0
281
     0
  0
CLASS
  1
AMDTMAPISURFMOUDULE
  2
AmdtMApiSurfModule
  3
MApiSurfServices
 90
        0
280
     0
281
     0
  0
CLASS
  1
MAPIAMMOUDLE
  2
MApiAmModule
  3
MApiAmServices
 90
        0
280
     0
281
     0
  0
CLASS
  1
AMDTADMENUSTATE
  2
AmdtAdMenuState
  3
DesignerServices
 90
        0
280
     0
281
     0
  0
CLASS
  1
ADAPPL
  2
AcAdAppl
  3
DesignerServices
 90
        0
280
     0
281
     0
  0
CLASS
  1
DEPMGR
  2
AcAdDepMgr
  3
DesignerServices
 90
        0
280
     0
281
     0
  0
CLASS
  1
PARAMMGR
  2
AcAdParamMgr
  3
DesignerServices
 90
        0
280
     0
281
     0
  0
CLASS
  1
PARAMSCOPE
  2
AcAdParamScope
  3
DesignerServices
 90
        0
280
     0
281
     0
  0
CLASS
  1
NAMEDAPPL
  2
AcAdNamedAppl
  3
DesignerServices
 90
        0
280
     0
281
     0
  0
CLASS
  1
ADHNTMPLT
  2
AdHoleNoteTemplateMgr
  3
DesignerServices
 90
    32768
280
     0
281
     0
  0
CLASS
  1
AM_HNTEMPLATE_MGR_NAME
  2
AdHoleNoteTemplateMgrName
  3
DesignerServices
 90
    32768
280
     0
281
     0
  0
CLASS
  1
AMDTDMMENUSTATE
  2
AmdtDmMenuState
  3
AcMechDwgViewMgmt
 90
        0
280
     0
281
     0
  0
CLASS
  1
MAPIADMODULE
  2
MApiAdModule
  3
MApiAdServices
 90
        0
280
     0
281
     0
  0
CLASS
  1
AMDTAMMENUSTATE
  2
AmdtAmMenuState
  3
DesignerAssemblies
 90
        0
280
     0
281
     0
  0
CLASS
  1
ACAMPROJECT
  2
AcAmProject
  3
DesignerAssemblies
 90
        0
280
     0
281
     0
  0
CLASS
  1
ACAMGRCOMPDEF
  2
AcAmGrCompDef
  3
DesignerAssemblies
 90
        0
280
     0
281
     0
  0
CLASS
  1
ACCMCONTEXT
  2
AcCmContext
  3
DesignerAssemblies
 90
        0
280
     0
281
     0
  0
CLASS
  1
ACAMCOMPDEF
  2
AcAmCompDef
  3
DesignerAssemblies
 90
        0
280
     0
281
     0
  0
CLASS
  1
ACAMCOMPDEFMGR
  2
AcAmCompDefMgr
  3
DesignerAssemblies
 90
        0
280
     0
281
     0
  0
CLASS
  1
AMCONTEXTMGR
  2
AcAmContextMgr
  3
DesignerAssemblies
 90
        0
280
     0
281
     0
  0
CLASS
  1
ACAMCONTEXTMODELER
  2
AcAmContextModeler
  3
DesignerAssemblies
 90
        0
280
     0
281
     0
  0
CLASS
  1
CATALOGSTATE
  2
AcAmCatalogState
  3
DesignerAssemblies
 90
        0
280
     0
281
     0
  0
CLASS
  1
ACAMGRCOMPDEFSET
  2
AcAmGrCompDefSet
  3
DesignerAssemblies
 90
        0
280
     0
281
     0
  0
CLASS
  1
AMDTBROWSERDBTAB
  2
AmdtBrowserDbTab
  3
McadcomServices
 90
        0
280
     0
281
     0
  0
CLASS
  1
CBROWSERAPPOBJECT
  2
CBrowserAppObject
  3
McadcomServices
 90
        0
280
     0
281
     0
  0
CLASS
  1
DM_PLACEHOLDER
  2
AcDmSelsetPlaceholder
  3
AcMechDwgViewMgmt
 90
        0
280
     0
281
     0
  0
CLASS
  1
ACMPICKOBJ
  2
AcmPickEnt
  3
"AcmSymBB|Product Description: AutoCAD Mechanical|Company: Autodesk"
 90
    32768
280
     0
281
     1
  0
CLASS
  1
MATERIAL
  2
AcDbMaterial
  3
ObjectDBX Classes
 90
     1153
280
     0
281
     0
  0
CLASS
  1
VISUALSTYLE
  2
AcDbVisualStyle
  3
ObjectDBX Classes
 90
     4095
280
     0
281
     0
  0
CLASS
  1
TABLESTYLE
  2
AcDbTableStyle
  3
ObjectDBX Classes
 90
     4095
280
     0
281
     0
  0
CLASS
  1
ACRFATTGENMGR
  2
AcRfAttGeneralMgr
  3
AcAttribServices
 90
        0
280
     0
281
     0
  0
CLASS
  1
ACRFOBJATTMGR
  2
AcRfObjAttGroupMgr
  3
AcAttribServices
 90
        0
280
     0
281
     0
  0
CLASS
  1
ACRFMCADAPIATTHOLDER
  2
AcRfMCADAPIAttHolder
  3
AcAttribServices
 90
        0
280
     0
281
     0
  0
CLASS
  1
AMDTSYSATTR
  2
AmdtSystemAttribute
  3
AcAttribServices
 90
        0
280
     0
281
     0
  0
CLASS
  1
ACMTHREADLINESTANDARDISO
  2
AmdtThreadLineStdISO
  3
"Amdt_StdImp|Product Description: AutoCAD Mechanical|Company: Autodesk"
 90
        0
280
     0
281
     0
  0
CLASS
  1
ACMNOTESTANDARDISO
  2
AmdtNoteStdISO
  3
"Amdt_StdImp|Product Description: AutoCAD Mechanical|Company: Autodesk"
 90
        0
280
     0
281
     0
  0
CLASS
  1
AMDTNOTETEMPLATEDB
  2
AmdtNoteTemplateDB
  3
AMDT_STDIMP_MODULE_NAME
 90
        0
280
     0
281
     0
  0
CLASS
  1
ACMTAPERSTANDARDISO
  2
AcmTaperStdISO
  3
"Amdt_StdImp|Product Description: AutoCAD Mechanical|Company: Autodesk"
 90
        0
280
     0
281
     0
  0
CLASS
  1
ACMTHREADLINESTANDARDANSI
  2
AmdtThreadLineStdANSI
  3
"Amdt_StdImp|Product Description: AutoCAD Mechanical|Company: Autodesk"
 90
        0
280
     0
281
     0
  0
CLASS
  1
ACMNOTESTANDARDANSI
  2
AmdtNoteStdANSI
  3
"Amdt_StdImp|Product Description: AutoCAD Mechanical|Company: Autodesk"
 90
        0
280
     0
281
     0
  0
CLASS
  1
ACMTAPERSTANDARDANSI
  2
AcmTaperStdANSI
  3
"Amdt_StdImp|Product Description: AutoCAD Mechanical|Company: Autodesk"
 90
        0
280
     0
281
     0
  0
CLASS
  1
CAMSSTRUCTBTNSTATE
  2
StructBtnState
  3
L"DesignerAssemblies"
 90
        0
280
     0
281
     0
  0
CLASS
  1
SORTENTSTABLE
  2
AcDbSortentsTable
  3
ObjectDBX Classes
 90
        0
280
     0
281
     0
  0
CLASS
  1
DIMASSOC
  2
AcDbDimAssoc
  3
"AcDbDimAssoc|Product Desc:     AcDim ARX App For Dimension|Company:          Autodesk, Inc.|WEB Address:      www.autodesk.com"
 90
        0
280
     0
281
     0
  0
ENDSEC
  0
SECTION
  2
TABLES
  0
TABLE
  2
VPORT
  5
8
330
0
100
AcDbSymbolTable
 70
     1
  0
VPORT
  5
C444
330
8
100
AcDbSymbolTableRecord
100
AcDbViewportTableRecord
  2
*Active
 70
     0
 10
0.0
 20
0.0
 11
1.0
 21
1.0
 12
3528.120595238545
 22
-2962.875402355117
 13
0.0
 23
0.0
 14
2.5
 24
2.5
 15
10.0
 25
10.0
 16
0.0
 26
0.0
 36
1.0
 17
0.0
 27
0.0
 37
0.0
 40
782.4531324935397
 41
1.240506329113924
 42
50.0
 43
-1370.695619172058
 44
-1370.695619172058
 50
0.0
 51
0.0
 71
    16
 72
   100
 73
     1
 74
     3
 75
     0
 76
     0
 77
     0
 78
     0
281
     0
 65
     0
110
0.0
120
0.0
130
0.0
111
1.0
121
0.0
131
0.0
112
0.0
122
1.0
132
0.0
 79
     0
146
0.0
  0
ENDTAB
  0
TABLE
  2
LTYPE
  5
5
330
0
100
AcDbSymbolTable
 70
    25
  0
LTYPE
  5
14
330
5
100
AcDbSymbolTableRecord
100
AcDbLinetypeTableRecord
  2
ByBlock
 70
     0
  3

 72
    65
 73
     0
 40
0.0
  0
LTYPE
  5
15
330
5
100
AcDbSymbolTableRecord
100
AcDbLinetypeTableRecord
  2
ByLayer
 70
     0
  3

 72
    65
 73
     0
 40
0.0
  0
LTYPE
  5
16
330
5
100
AcDbSymbolTableRecord
100
AcDbLinetypeTableRecord
  2
Continuous
 70
     0
  3
Solid line
 72
    65
 73
     0
 40
0.0
  0
LTYPE
  5
4F
330
5
100
AcDbSymbolTableRecord
100
AcDbLinetypeTableRecord
  2
AM_ISO02W050
 70
     0
  3
__ __ __ __ __ __ __ __ __ __ __ __ __ __ __
 72
    65
 73
     2
 40
7.5
 49
6.0
 74
     0
 49
-1.5
 74
     0
  0
LTYPE
  5
52
330
5
100
AcDbSymbolTableRecord
100
AcDbLinetypeTableRecord
  2
Amconstr
 70
     0
  3
_______________________
 72
    65
 73
     2
 40
9999.0
 49
9999.0
 74
     0
 49
0.0
 74
     0
  0
LTYPE
  5
64
330
5
100
AcDbSymbolTableRecord
100
AcDbLinetypeTableRecord
  2
ACISOWELD
 70
     0
  3
_ _ _ _ _
 72
    65
 73
     2
 40
2.0
 49
2.0
 74
     0
 49
-1.0
 74
     0
  0
LTYPE
  5
65
330
5
100
AcDbSymbolTableRecord
100
AcDbLinetypeTableRecord
  2
ACISOTGB
 70
     0
  3
__ . . __ . .
 72
    65
 73
     6
 40
9.0
 49
4.0
 74
     0
 49
-1.0
 74
     0
 49
1.0
 74
     0
 49
-1.0
 74
     0
 49
1.0
 74
     0
 49
-1.0
 74
     0
  0
LTYPE
  5
66
330
5
100
AcDbSymbolTableRecord
100
AcDbLinetypeTableRecord
  2
ACISOTGL
 70
     0
  3
_ _ _ _ _
 72
    65
 73
     2
 40
3.0
 49
2.0
 74
     0
 49
-1.0
 74
     0
  0
LTYPE
  5
69
330
5
100
AcDbSymbolTableRecord
100
AcDbLinetypeTableRecord
  2
CENTER
 70
     0
  3
__ . __
 72
    65
 73
     4
 40
7.0
 49
4.0
 74
     0
 49
-1.0
 74
     0
 49
1.0
 74
     0
 49
-1.0
 74
     0
  0
LTYPE
  5
A6E
330
5
100
AcDbSymbolTableRecord
100
AcDbLinetypeTableRecord
  2
PHANTOM2
 70
     0
  3
Phantom (.5x) ___ _ _ ___ _ _ ___ _ _ ___ _ _
 72
    65
 73
     6
 40
31.75
 49
15.875
 74
     0
 49
-3.174999999999999
 74
     0
 49
3.174999999999999
 74
     0
 49
-3.174999999999999
 74
     0
 49
3.174999999999999
 74
     0
 49
-3.174999999999999
 74
     0
  0
LTYPE
  5
FA3
330
5
100
AcDbSymbolTableRecord
100
AcDbLinetypeTableRecord
  2
ACANSTGB
 70
     0
  3
__ . . __ . .
 72
    65
 73
     6
 40
0.35433070866
 49
0.15748031496
 74
     0
 49
-0.03937007874
 74
     0
 49
0.03937007874
 74
     0
 49
-0.03937007874
 74
     0
 49
0.03937007874
 74
     0
 49
-0.03937007874
 74
     0
  0
LTYPE
  5
FA4
330
5
100
AcDbSymbolTableRecord
100
AcDbLinetypeTableRecord
  2
ACANSTGL
 70
     0
  3
_ _ _ _ _
 72
    65
 73
     2
 40
0.11811023622
 49
0.07874015748
 74
     0
 49
-0.03937007874
 74
     0
  0
LTYPE
  5
4DED
330
5
100
AcDbSymbolTableRecord
100
AcDbLinetypeTableRecord
  2
中線
 70
     0
  3
___________________
 72
    65
 73
     2
 40
2.0
 49
1.0
 74
     0
 49
1.0
 74
     0
  0
LTYPE
  5
4DF6
330
5
100
AcDbSymbolTableRecord
100
AcDbLinetypeTableRecord
  2
細線
 70
     0
  3
___________________
 72
    65
 73
     2
 40
2.0
 49
1.0
 74
     0
 49
1.0
 74
     0
  0
LTYPE
  5
4DF7
330
5
100
AcDbSymbolTableRecord
100
AcDbLinetypeTableRecord
  2
太線
 70
     0
  3
___________________
 72
    65
 73
     2
 40
2.0
 49
1.0
 74
     0
 49
1.0
 74
     0
  0
LTYPE
  5
4EA7
330
5
100
AcDbSymbolTableRecord
100
AcDbLinetypeTableRecord
  2
文字
 70
     0
  3
_________________
 72
    65
 73
     2
 40
2.0
 49
1.0
 74
     0
 49
1.0
 74
     0
  0
LTYPE
  5
4EA9
330
5
100
AcDbSymbolTableRecord
100
AcDbLinetypeTableRecord
  2
寸法線
 70
     0
  3
________________
 72
    65
 73
     2
 40
2.0
 49
1.0
 74
     0
 49
1.0
 74
     0
  0
LTYPE
  5
4F12
330
5
100
AcDbSymbolTableRecord
100
AcDbLinetypeTableRecord
  2
ハッチング
 70
     0
  3
_________________
 72
    65
 73
     2
 40
2.0
 49
1.0
 74
     0
 49
1.0
 74
     0
  0
LTYPE
  5
5180
330
5
100
AcDbSymbolTableRecord
100
AcDbLinetypeTableRecord
  2
陰線1
 70
     0
  3
__ __ __ __
 72
    65
 73
     2
 40
4.0
 49
2.2
 74
     0
 49
-1.8
 74
     0
  0
LTYPE
  5
5182
330
5
100
AcDbSymbolTableRecord
100
AcDbLinetypeTableRecord
  2
切断線
 70
     0
  3
/\/-/\/-/\/-/\/-/\/-/\/
 72
    65
 73
     2
 40
11.0001
 49
0.0001
 74
     4
 75
   135
340
56
 46
0.04
 50
0.0
 44
0.0
 45
0.0
 49
-11.0
 74
     0
  0
LTYPE
  5
5183
330
5
100
AcDbSymbolTableRecord
100
AcDbLinetypeTableRecord
  2
想像線1
 70
     0
  3
__ __ __ _____ __ __ ____
 72
    65
 73
     6
 40
14.5
 49
6.0
 74
     0
 49
-1.5
 74
     0
 49
2.0
 74
     0
 49
-1.5
 74
     0
 49
2.0
 74
     0
 49
-1.5
 74
     0
  0
LTYPE
  5
5185
330
5
100
AcDbSymbolTableRecord
100
AcDbLinetypeTableRecord
  2
中心線1
 70
     0
  3
___ _ ___ _ ___
 72
    65
 73
     4
 40
18.0
 49
12.0
 74
     0
 49
-2.0
 74
     0
 49
2.0
 74
     0
 49
-2.0
 74
     0
  0
LTYPE
  5
5188
330
5
100
AcDbSymbolTableRecord
100
AcDbLinetypeTableRecord
  2
補助線
 70
     0
  3
______________
 72
    65
 73
     2
 40
2.0
 49
1.0
 74
     0
 49
1.0
 74
     0
  0
LTYPE
  5
C49C
330
5
100
AcDbSymbolTableRecord
100
AcDbLinetypeTableRecord
  2
HIDDEN
 70
     0
  3
Hidden __ __ __ __ __ __ __ __ __ __ __ __ __ _
 72
    65
 73
     2
 40
9.524999999999998
 49
6.349999999999999
 74
     0
 49
-3.174999999999999
 74
     0
  0
ENDTAB
  0
TABLE
  2
LAYER
  5
2
102
{ACAD_XDICTIONARY
360
3F95
102
}
330
0
100
AcDbSymbolTable
 70
    40
  0
LAYER
  5
10
330
2
100
AcDbSymbolTableRecord
100
AcDbLayerTableRecord
  2
0
 70
     0
 62
     7
  6
Continuous
370
    -3
390
F
  0
LAYER
  5
6D1
330
2
100
AcDbSymbolTableRecord
100
AcDbLayerTableRecord
  2
Defpoints
 70
     0
 62
     7
  6
Continuous
290
     0
370
    -3
390
F
  0
LAYER
  5
A46
330
2
100
AcDbSymbolTableRecord
100
AcDbLayerTableRecord
  2
size
 70
     0
 62
     5
  6
Continuous
290
     0
370
    30
390
F
  0
LAYER
  5
A47
330
2
100
AcDbSymbolTableRecord
100
AcDbLayerTableRecord
  2
waku
 70
     0
 62
     7
  6
Continuous
370
    40
390
F
  0
LAYER
  5
A48
330
2
100
AcDbSymbolTableRecord
100
AcDbLayerTableRecord
  2
AM_6
 70
     0
 62
     2
  6
文字
370
    20
390
F
  0
LAYER
  5
5F85
330
2
100
AcDbSymbolTableRecord
100
AcDbLayerTableRecord
  2
AM_0
 70
     0
 62
     7
  6
中線
370
    30
390
F
  0
LAYER
  5
5F89
330
2
100
AcDbSymbolTableRecord
100
AcDbLayerTableRecord
  2
AM_4
 70
     0
 62
     3
  6
補助線
370
    20
390
F
  0
LAYER
  5
BFAB
330
2
100
AcDbSymbolTableRecord
100
AcDbLayerTableRecord
  2
AM_5
 70
     0
 62
     3
  6
寸法線
370
    18
390
F
  0
LAYER
  5
494E2
330
2
100
AcDbSymbolTableRecord
100
AcDbLayerTableRecord
  2
000鈴木検図
 70
     0
 62
     1
  6
中線
370
    40
390
F
1001
AcAecLayerStandard
1000

1000

  0
LAYER
  5
4A2B2
330
2
100
AcDbSymbolTableRecord
100
AcDbLayerTableRecord
  2
0部品1
 70
     0
 62
   213
  6
細線
370
    30
390
F
1001
AcAecLayerStandard
1000

1000

  0
LAYER
  5
4A2BD
330
2
100
AcDbSymbolTableRecord
100
AcDbLayerTableRecord
  2
0部品20
 70
     0
 62
   161
  6
細線
370
    30
390
F
1001
AcAecLayerStandard
1000

1000

  0
ENDTAB
  0
TABLE
  2
STYLE
  5
3
330
0
100
AcDbSymbolTable
 70
     8
  0
STYLE
  5
11
330
3
100
AcDbSymbolTableRecord
100
AcDbTextStyleTableRecord
  2
STANDARD
 70
     0
 40
0.0
 41
0.7
 50
0.0
 71
     0
 42
3.5
  3
romans.shx
  4
extfont.shx
  0
STYLE
  5
56
330
3
100
AcDbSymbolTableRecord
100
AcDbTextStyleTableRecord
  2

 70
     1
 40
0.0
 41
1.0
 50
0.0
 71
     0
 42
2.5
  3
ltypeshp.shx
  4

  0
STYLE
  5
58
330
3
100
AcDbSymbolTableRecord
100
AcDbTextStyleTableRecord
  2
ACISOTS
 70
     0
 40
1.0
 41
1.0
 50
0.0
 71
     0
 42
2.5
  3
isocp.shx
  4
extfont.shx
  0
STYLE
  5
63
330
3
100
AcDbSymbolTableRecord
100
AcDbTextStyleTableRecord
  2
ACISOGDT
 70
     0
 40
0.0
 41
1.0
 50
0.0
 71
     0
 42
2.5
  3
amgdt.shx
  4

  0
STYLE
  5
A74
330
3
100
AcDbSymbolTableRecord
100
AcDbTextStyleTableRecord
  2
DIM
 70
     0
 40
0.0
 41
1.0
 50
0.0
 71
     0
 42
2.5
  3
monotxt.shx
  4
extfont.shx
  0
STYLE
  5
FA7
330
3
100
AcDbSymbolTableRecord
100
AcDbTextStyleTableRecord
  2
ACANSTS
 70
     0
 40
1.0
 41
1.0
 50
0.0
 71
     0
 42
0.2
  3
romans.shx
  4
extfont.shx
  0
STYLE
  5
FA8
330
3
100
AcDbSymbolTableRecord
100
AcDbTextStyleTableRecord
  2
ACANSGDT
 70
     0
 40
0.0
 41
1.0
 50
0.0
 71
     0
 42
0.2
  3
amgdtans.shx
  4

  0
ENDTAB
  0
TABLE
  2
VIEW
  5
6
330
0
100
AcDbSymbolTable
 70
     6
  0
VIEW
  5
AE1
330
6
100
AcDbSymbolTableRecord
100
AcDbViewTableRecord
  2
AM_VIEW1
 70
     0
 40
52.5
 10
2210.154925218148
 20
-2451.622216979716
 41
83.75147928994101
 11
0.0
 21
0.0
 31
1.0
 12
0.0
 22
0.0
 32
0.0
 42
50.0
 43
-1370.695619172058
 44
-1370.695619172058
 50
0.0
 71
    16
281
     0
 72
     0
  0
VIEW
  5
AE2
330
6
100
AcDbSymbolTableRecord
100
AcDbViewTableRecord
  2
AM_VIEW2
 70
     0
 40
52.5
 10
2274.903445928207
 20
-2451.622216979716
 41
83.75147928994101
 11
0.0
 21
0.0
 31
1.0
 12
0.0
 22
0.0
 32
0.0
 42
50.0
 43
-1370.695619172058
 44
-1370.695619172058
 50
0.0
 71
    16
281
     0
 72
     0
  0
VIEW
  5
AE3
330
6
100
AcDbSymbolTableRecord
100
AcDbViewTableRecord
  2
AM_VIEW3
 70
     0
 40
52.5
 10
2210.154925218148
 20
-2504.122216979716
 41
83.75147928994101
 11
0.0
 21
0.0
 31
1.0
 12
0.0
 22
0.0
 32
0.0
 42
50.0
 43
-1370.695619172058
 44
-1370.695619172058
 50
0.0
 71
    16
281
     0
 72
     0
  0
VIEW
  5
AE4
330
6
100
AcDbSymbolTableRecord
100
AcDbViewTableRecord
  2
AM_VIEW4
 70
     0
 40
52.5
 10
2274.903445928207
 20
-2504.122216979716
 41
83.75147928994101
 11
0.0
 21
0.0
 31
1.0
 12
0.0
 22
0.0
 32
0.0
 42
50.0
 43
-1370.695619172058
 44
-1370.695619172058
 50
0.0
 71
    16
281
     0
 72
     0
  0
VIEW
  5
AE5
330
6
100
AcDbSymbolTableRecord
100
AcDbViewTableRecord
  2
AM_VIEW5
 70
     0
 40
52.5
 10
2242.529185573177
 20
-2477.872216979716
 41
83.75147928994101
 11
0.0
 21
0.0
 31
1.0
 12
0.0
 22
0.0
 32
0.0
 42
50.0
 43
-1370.695619172058
 44
-1370.695619172058
 50
0.0
 71
    16
281
     0
 72
     0
  0
VIEW
  5
AE6
330
6
100
AcDbSymbolTableRecord
100
AcDbViewTableRecord
  2
AM_VIEW6
 70
     0
 40
104.9989500000001
 10
2242.529185573177
 20
-2477.872216979716
 41
167.5012835502957
 11
0.0
 21
0.0
 31
1.0
 12
0.0
 22
0.0
 32
0.0
 42
50.0
 43
-1370.695619172058
 44
-1370.695619172058
 50
0.0
 71
    16
281
     0
 72
     0
  0
ENDTAB
  0
TABLE
  2
UCS
  5
7
330
0
100
AcDbSymbolTable
 70
     0
  0
ENDTAB
  0
TABLE
  2
APPID
  5
9
330
0
100
AcDbSymbolTable
 70
    63
  0
APPID
  5
12
330
9
100
AcDbSymbolTableRecord
100
AcDbRegAppTableRecord
  2
ACAD
 70
     0
  0
APPID
  5
30
330
9
100
AcDbSymbolTableRecord
100
AcDbRegAppTableRecord
  2
MCAD_NO_VIS
 70
     0
  0
APPID
  5
31
330
9
100
AcDbSymbolTableRecord
100
AcDbRegAppTableRecord
  2
ACAD_TEMP_GRAPHIC
 70
     0
  0
APPID
  5
44
330
9
100
AcDbSymbolTableRecord
100
AcDbRegAppTableRecord
  2
ACATTRIBSERVICES
 70
     0
  0
APPID
  5
7A1
330
9
100
AcDbSymbolTableRecord
100
AcDbRegAppTableRecord
  2
GENIUS_GENDIMSH_14
 70
     0
  0
APPID
  5
A49
330
9
100
AcDbSymbolTableRecord
100
AcDbRegAppTableRecord
  2
GENIUS_GENREC_14
 70
     0
  0
APPID
  5
A4A
330
9
100
AcDbSymbolTableRecord
100
AcDbRegAppTableRecord
  2
GENIUS_GENOBJ-N-REC_13
 70
     0
  0
APPID
  5
A4B
330
9
100
AcDbSymbolTableRecord
100
AcDbRegAppTableRecord
  2
GENIUS_GENODEF_13
 70
     0
  0
APPID
  5
A4C
330
9
100
AcDbSymbolTableRecord
100
AcDbRegAppTableRecord
  2
DCO15
 70
     0
  0
APPID
  5
ADC
330
9
100
AcDbSymbolTableRecord
100
AcDbRegAppTableRecord
  2
GENIUS_GENOLIS_13
 70
     0
  0
APPID
  5
ADD
330
9
100
AcDbSymbolTableRecord
100
AcDbRegAppTableRecord
  2
GENIUS_GENOENT_13
 70
     0
  0
APPID
  5
ADE
330
9
100
AcDbSymbolTableRecord
100
AcDbRegAppTableRecord
  2
GENIUS_GENOBJ-N-TIT_13
 70
     0
  0
APPID
  5
ADF
330
9
100
AcDbSymbolTableRecord
100
AcDbRegAppTableRecord
  2
GENIUS_GENTITLE_13
 70
     0
  0
APPID
  5
AE0
330
9
100
AcDbSymbolTableRecord
100
AcDbRegAppTableRecord
  2
GENIUS_GENOREF_13
 70
     0
  0
APPID
  5
AE7
330
9
100
AcDbSymbolTableRecord
100
AcDbRegAppTableRecord
  2
GENIUS_GENSCREG_15
 70
     0
  0
APPID
  5
AE8
330
9
100
AcDbSymbolTableRecord
100
AcDbRegAppTableRecord
  2
GENIUS_GENOBJ-N-SDF_13
 70
     0
  0
APPID
  5
FAF
330
9
100
AcDbSymbolTableRecord
100
AcDbRegAppTableRecord
  2
GENIUS_GENBLLY_14
 70
     0
  0
APPID
  5
FB0
330
9
100
AcDbSymbolTableRecord
100
AcDbRegAppTableRecord
  2
GENIUS_GENTRA_14
 70
     0
  0
APPID
  5
1285
330
9
100
AcDbSymbolTableRecord
100
AcDbRegAppTableRecord
  2
GENIUS_GENDTOL_13
 70
     0
  0
APPID
  5
142D
330
9
100
AcDbSymbolTableRecord
100
AcDbRegAppTableRecord
  2
GENIUS_GENOBJ-N-CEN_13
 70
     0
  0
APPID
  5
1AB5
330
9
100
AcDbSymbolTableRecord
100
AcDbRegAppTableRecord
  2
GENIUS_GENOBJ-N-CRS_13
 70
     0
  0
APPID
  5
1B36
330
9
100
AcDbSymbolTableRecord
100
AcDbRegAppTableRecord
  2
GENIUS_GENOBJ-N-HTC_13
 70
     0
  0
APPID
  5
1B37
330
9
100
AcDbSymbolTableRecord
100
AcDbRegAppTableRecord
  2
GENIUS_GENHATCH_13
 70
     0
  0
APPID
  5
216D
330
9
100
AcDbSymbolTableRecord
100
AcDbRegAppTableRecord
  2
GENIUS_GENOBJ-N-FIL_13
 70
     0
  0
APPID
  5
2356
330
9
100
AcDbSymbolTableRecord
100
AcDbRegAppTableRecord
  2
GEVID990412420
 70
     0
  0
APPID
  5
2357
330
9
100
AcDbSymbolTableRecord
100
AcDbRegAppTableRecord
  2
GEVDC
 70
     0
  0
APPID
  5
2358
330
9
100
AcDbSymbolTableRecord
100
AcDbRegAppTableRecord
  2
GEVCON
 70
     0
  0
APPID
  5
235B
330
9
100
AcDbSymbolTableRecord
100
AcDbRegAppTableRecord
  2
GEVRADREF
 70
     0
  0
APPID
  5
2360
330
9
100
AcDbSymbolTableRecord
100
AcDbRegAppTableRecord
  2
GENIUS_GENBH_13
 70
     0
  0
APPID
  5
2362
330
9
100
AcDbSymbolTableRecord
100
AcDbRegAppTableRecord
  2
GENIUS_GENOBJ-NBEHI-BHF_13
 70
     0
  0
APPID
  5
2364
330
9
100
AcDbSymbolTableRecord
100
AcDbRegAppTableRecord
  2
GENIUS_GENOBJ-NBEHI-BHB_13
 70
     0
  0
APPID
  5
2379
330
9
100
AcDbSymbolTableRecord
100
AcDbRegAppTableRecord
  2
GENIUS_GENOBJ-F-SCPASSM_13
 70
     0
  0
APPID
  5
3D74
330
9
100
AcDbSymbolTableRecord
100
AcDbRegAppTableRecord
  2
GENIUS_GENDIM_13
 70
     0
  0
APPID
  5
3D76
330
9
100
AcDbSymbolTableRecord
100
AcDbRegAppTableRecord
  2
GENIUS_GE3DTOL_13
 70
     0
  0
APPID
  5
3D9C
330
9
100
AcDbSymbolTableRecord
100
AcDbRegAppTableRecord
  2
AD_DRAW
 70
     0
  0
APPID
  5
3DE8
330
9
100
AcDbSymbolTableRecord
100
AcDbRegAppTableRecord
  2
ASURF_PCURVE_APPNAME
 70
     0
  0
APPID
  5
3DED
330
9
100
AcDbSymbolTableRecord
100
AcDbRegAppTableRecord
  2
AMG_3D2D_5.0
 70
     0
  0
APPID
  5
3E1B
330
9
100
AcDbSymbolTableRecord
100
AcDbRegAppTableRecord
  2
DESIGNERASSEMBLIES
 70
     0
  0
APPID
  5
3E20
330
9
100
AcDbSymbolTableRecord
100
AcDbRegAppTableRecord
  2
ACADM_DIM_EDIT
 70
     0
  0
APPID
  5
3E21
330
9
100
AcDbSymbolTableRecord
100
AcDbRegAppTableRecord
  2
AMDT_DM_ADJ
 70
     0
  0
APPID
  5
4143
330
9
100
AcDbSymbolTableRecord
100
AcDbRegAppTableRecord
  2
GENIUS_GENFIL_13
 70
     0
  0
APPID
  5
4144
330
9
100
AcDbSymbolTableRecord
100
AcDbRegAppTableRecord
  2
GENIUS_GENOBJ-N-CHA_13
 70
     0
  0
APPID
  5
4E17
330
9
100
AcDbSymbolTableRecord
100
AcDbRegAppTableRecord
  2
GEVID1008153417
 70
     0
  0
APPID
  5
4E58
330
9
100
AcDbSymbolTableRecord
100
AcDbRegAppTableRecord
  2
GEVID1008153418
 70
     0
  0
APPID
  5
4E5E
330
9
100
AcDbSymbolTableRecord
100
AcDbRegAppTableRecord
  2
GEVID1008153419
 70
     0
  0
APPID
  5
4E64
330
9
100
AcDbSymbolTableRecord
100
AcDbRegAppTableRecord
  2
GEVID1008153420
 70
     0
  0
APPID
  5
4E75
330
9
100
AcDbSymbolTableRecord
100
AcDbRegAppTableRecord
  2
GEVID1008153421
 70
     0
  0
APPID
  5
4EB7
330
9
100
AcDbSymbolTableRecord
100
AcDbRegAppTableRecord
  2
GENIUS_AMGTXT_16
 70
     0
  0
APPID
  5
7645
330
9
100
AcDbSymbolTableRecord
100
AcDbRegAppTableRecord
  2
GENIUS_GENOBJ-N-DIM_13
 70
     0
  0
APPID
  5
C5F0
330
9
100
AcDbSymbolTableRecord
100
AcDbRegAppTableRecord
  2
GENIUS_GENCEN_19
 70
     0
  0
APPID
  5
C5FB
330
9
100
AcDbSymbolTableRecord
100
AcDbRegAppTableRecord
  2
ACAD_DSTYLE_DIMJOGGED_JOGANGLE_SYMBOL
 70
     0
  0
APPID
  5
C5FC
330
9
100
AcDbSymbolTableRecord
100
AcDbRegAppTableRecord
  2
ACAD_PSEXT
 70
     0
  0
APPID
  5
CA37
330
9
100
AcDbSymbolTableRecord
100
AcDbRegAppTableRecord
  2
AcAecLayerStandard
 70
     0
  0
APPID
  5
DCF9
330
9
100
AcDbSymbolTableRecord
100
AcDbRegAppTableRecord
  2
ACAD_EXEMPT_FROM_CAD_STANDARDS
 70
     0
  0
APPID
  5
2A0EB
330
9
100
AcDbSymbolTableRecord
100
AcDbRegAppTableRecord
  2
GEVID1271841997
 70
     0
  0
APPID
  5
2A23A
330
9
100
AcDbSymbolTableRecord
100
AcDbRegAppTableRecord
  2
GEVID1271841998
 70
     0
  0
APPID
  5
2B34C
330
9
100
AcDbSymbolTableRecord
100
AcDbRegAppTableRecord
  2
GEVID1271896698
 70
     0
  0
APPID
  5
2B499
330
9
100
AcDbSymbolTableRecord
100
AcDbRegAppTableRecord
  2
GEVID1271896699
 70
     0
  0
APPID
  5
2B543
330
9
100
AcDbSymbolTableRecord
100
AcDbRegAppTableRecord
  2
GEVID1271896700
 70
     0
  0
APPID
  5
40168
330
9
100
AcDbSymbolTableRecord
100
AcDbRegAppTableRecord
  2
GEVID1273127365
 70
     0
  0
APPID
  5
40271
330
9
100
AcDbSymbolTableRecord
100
AcDbRegAppTableRecord
  2
GEVID1273127366
 70
     0
  0
APPID
  5
498AC
330
9
100
AcDbSymbolTableRecord
100
AcDbRegAppTableRecord
  2
GENIUS_GEFINERT_13
 70
     0
  0
APPID
  5
498DF
330
9
100
AcDbSymbolTableRecord
100
AcDbRegAppTableRecord
  2
GENIUS_GENOBJ-F-INER_13
 70
     0
  0
ENDTAB
  0
TABLE
  2
DIMSTYLE
  5
A
330
0
100
AcDbSymbolTable
 70
    25
100
AcDbDimStyleTable
 71
     5
340
2515
340
251A
340
251B
340
6C
340
FA9
  0
DIMSTYLE
105
6C
330
A
100
AcDbSymbolTableRecord
100
AcDbDimStyleTableRecord
  2
AM_ISO
 70
     0
  4
"
 41
2.5
 42
1.0
 43
10.0
 44
1.0
 47
0.1
 48
0.1
 73
     0
 74
     0
 77
     1
 78
     8
 79
     2
140
3.5
141
0.0
143
0.0393701
146
0.71
147
1.5
172
     1
176
   256
177
   256
178
     2
271
     2
272
     3
274
     4
283
     0
284
     8
340
11
371
    -1
372
    -1
  0
DIMSTYLE
105
6D
330
A
100
AcDbSymbolTableRecord
100
AcDbDimStyleTableRecord
  2
AM_ISO$3
 70
     0
  4
"
 41
0.8
 42
1.0
 43
10.0
 44
1.0
 47
0.1
 48
0.1
 73
     0
 77
     1
 78
     8
 79
     2
140
3.2
141
0.0
143
0.0393701
146
0.71
147
0.9999999999999996
176
   256
177
   256
178
     2
271
     2
272
     2
283
     0
284
     8
288
     1
289
     0
340
11
342
6C4
371
    -1
372
    -1
  0
DIMSTYLE
105
6E
330
A
100
AcDbSymbolTableRecord
100
AcDbDimStyleTableRecord
  2
AM_ISO$4
 70
     0
  4
"
 41
0.8
 42
1.0
 43
10.0
 44
1.0
 47
0.1
 48
0.1
 73
     0
 77
     1
 78
     8
 79
     2
140
3.2
141
0.0
143
0.0393701
146
0.71
147
1.0
173
     1
176
   256
177
   256
178
     2
271
     2
272
     2
283
     0
284
     8
288
     1
289
     0
340
11
344
6C4
371
    -1
372
    -1
  0
DIMSTYLE
105
6F
330
A
100
AcDbSymbolTableRecord
100
AcDbDimStyleTableRecord
  2
AM_ISO$6
 70
     0
  4
"
 41
0.8
 42
1.0
 43
10.0
 44
1.0
 47
0.1
 48
0.1
 73
     0
 74
     0
 78
     8
 79
     2
140
3.2
141
0.0
143
0.0393701
146
0.71
147
1.0
172
     1
176
   256
177
   256
178
     2
271
     2
272
     2
283
     0
284
     8
340
11
341
6C4
371
    -1
372
    -1
  0
DIMSTYLE
105
70
330
A
100
AcDbSymbolTableRecord
100
AcDbDimStyleTableRecord
  2
AM_ISO$7
 70
     0
  4
"
 41
0.8
 42
1.0
 43
10.0
 44
1.0
 47
0.1
 48
0.1
 73
     0
 74
     0
 77
     1
 78
     8
 79
     2
140
3.2
141
0.0
143
0.0393701
146
0.71
147
1.0
172
     1
176
   256
177
   256
178
     2
271
     2
272
     2
283
     0
284
     8
340
11
341
6C4
342
6C4
371
    -1
372
    -1
  0
DIMSTYLE
105
71
330
A
100
AcDbSymbolTableRecord
100
AcDbDimStyleTableRecord
  2
AM_ISO$SF
 70
     0
  4
"
 41
0.8
 42
1.0
 43
10.0
 44
1.0
 47
0.1
 48
0.1
 73
     0
 74
     0
 75
     1
 76
     1
 77
     1
 78
     8
 79
     2
140
3.2
141
0.0
143
0.0393701
146
0.71
147
1.0
172
     1
176
   256
177
   256
178
     2
271
     2
272
     2
283
     0
284
     8
340
11
341
6C4
342
6C4
371
    -1
372
    -1
  0
DIMSTYLE
105
76
330
A
100
AcDbSymbolTableRecord
100
AcDbDimStyleTableRecord
  2
AM_ISO$SH
 70
     0
  4
"
 41
0.8
 42
1.0
 43
10.0
 44
1.0
 47
0.1
 48
0.1
 73
     0
 74
     0
 75
     1
 76
     1
 77
     1
 78
     8
 79
     2
140
3.2
141
0.0
143
0.0393701
144
2.0
146
0.71
147
1.0
172
     1
176
   256
177
   256
178
     2
271
     2
272
     2
283
     0
284
     8
340
11
341
6C4
342
6C4
371
    -1
372
    -1
  0
DIMSTYLE
105
6BE
330
A
100
AcDbSymbolTableRecord
100
AcDbDimStyleTableRecord
  2
AM_ISO$0
 70
     0
  4
"
 41
0.8
 42
1.0
 43
10.0
 44
1.0
 47
0.1
 48
0.1
 73
     0
 74
     0
 77
     1
 78
     8
 79
     2
140
3.2
141
0.0
143
0.0393701
146
0.71
147
0.9999999999999996
172
     1
176
   256
177
   256
178
     2
271
     2
272
     2
283
     0
284
     8
340
11
341
6C4
342
6C4
371
    -1
372
    -1
  0
DIMSTYLE
105
6BF
330
A
100
AcDbSymbolTableRecord
100
AcDbDimStyleTableRecord
  2
AM_ISO$2
 70
     0
  4
"
 41
0.8
 42
1.0
 43
10.0
 44
1.0
 47
0.1
 48
0.1
 73
     0
 74
     0
 77
     3
 78
     8
 79
     2
140
3.200000000000001
141
0.0
143
0.0393701
146
0.71
147
0.9999999999999996
172
     1
176
   256
177
   256
178
     2
271
     2
272
     2
283
     0
284
     8
340
11
342
6C4
371
    -1
372
    -1
  0
DIMSTYLE
105
A76
330
A
100
AcDbSymbolTableRecord
100
AcDbDimStyleTableRecord
  2
STANDARD
 70
     0
 41
3.0
 42
1.0
 43
7.0
 44
2.0
 73
     0
 74
     0
 77
     1
140
2.799999999999999
141
0.0
143
0.0394
147
0.7
171
     4
172
     1
173
     1
176
     3
177
     3
178
     2
271
     3
272
     3
273
     8
274
     4
289
     0
340
A74
341
A66
343
A66
344
A66
  0
DIMSTYLE
105
FA9
330
A
100
AcDbSymbolTableRecord
100
AcDbDimStyleTableRecord
  2
AM_ANSI
 70
     0
  4
mm
 41
0.1
 42
0.05
 43
0.5
 44
0.1
 47
0.1
 48
0.1
 78
     7
 79
     2
140
0.12
141
0.0
146
0.71
147
0.06
176
   256
177
   256
178
     2
274
     4
284
     7
340
11
371
    -1
372
    -1
  0
DIMSTYLE
105
FAA
330
A
100
AcDbSymbolTableRecord
100
AcDbDimStyleTableRecord
  2
AM_ANSI$3
 70
     0
  4
mm
 41
0.1
 42
0.05
 43
0.5
 44
0.1
 47
0.1
 48
0.1
 78
     7
 79
     2
140
0.12
141
0.0
146
0.71
147
0.06
176
   256
177
   256
178
     2
274
     4
284
     7
288
     1
289
     0
340
11
371
    -1
372
    -1
  0
DIMSTYLE
105
FAB
330
A
100
AcDbSymbolTableRecord
100
AcDbDimStyleTableRecord
  2
AM_ANSI$4
 70
     0
  4
mm
 41
0.1
 42
0.05
 43
0.5
 44
0.1
 47
0.1
 48
0.1
 78
     7
 79
     2
140
0.12
141
0.0
146
0.71
147
0.06
176
   256
177
   256
178
     2
274
     4
284
     7
288
     1
289
     0
340
11
371
    -1
372
    -1
  0
DIMSTYLE
105
FAC
330
A
100
AcDbSymbolTableRecord
100
AcDbDimStyleTableRecord
  2
AM_ANSI$7
 70
     0
  4
mm
 41
0.1
 42
0.05
 43
0.5
 44
0.1
 47
0.1
 48
0.1
 78
     7
 79
     2
140
0.24
141
0.0
146
0.71
147
0.06
176
   256
177
   256
178
     2
274
     4
284
     7
340
11
371
    -1
372
    -1
  0
DIMSTYLE
105
FAD
330
A
100
AcDbSymbolTableRecord
100
AcDbDimStyleTableRecord
  2
AM_ANSI$SF
 70
     0
  4
mm
 41
0.1
 42
0.05
 43
0.5
 44
0.1
 47
0.1
 48
0.1
 75
     1
 76
     1
 78
     7
 79
     2
140
0.12
141
0.0
146
0.71
147
0.06
176
   256
177
   256
178
     2
274
     4
284
     7
340
11
371
    -1
372
    -1
  0
DIMSTYLE
105
FAE
330
A
100
AcDbSymbolTableRecord
100
AcDbDimStyleTableRecord
  2
AM_ANSI$SH
 70
     0
  4
mm
 41
0.1
 42
0.05
 43
0.5
 44
0.1
 47
0.1
 48
0.1
 75
     1
 76
     1
 78
     7
 79
     2
140
0.12
141
0.0
146
0.71
147
0.06
173
     1
176
   256
177
   256
178
     2
274
     4
284
     7
340
11
343
72
371
    -1
372
    -1
  0
DIMSTYLE
105
2515
330
A
100
AcDbSymbolTableRecord
100
AcDbDimStyleTableRecord
  2
SYS
 70
     0
  4
"
 41
2.5
 42
1.0
 43
10.0
 44
1.0
 47
0.1
 48
0.1
 73
     0
 74
     0
 77
     1
 78
     8
 79
     2
140
3.5
141
0.0
143
0.0393701
146
0.71
147
1.5
172
     1
176
   256
177
   256
178
     7
271
     2
272
     3
274
     4
283
     0
284
     8
340
11
371
    -1
372
    -1
  0
DIMSTYLE
105
2516
330
A
100
AcDbSymbolTableRecord
100
AcDbDimStyleTableRecord
  2
SYS$3
 70
     0
  4
"
 41
2.0
 42
1.0
 43
10.0
 44
1.0
 47
0.1
 48
0.1
 73
     0
 77
     1
 78
     8
 79
     2
140
3.200000000000001
141
0.0
143
0.0393701
146
0.71
147
0.9999999999999996
176
   256
177
   256
178
     2
271
     1
272
     1
283
     0
284
     8
288
     1
340
11
342
A66
371
    -1
372
    -1
  0
DIMSTYLE
105
2517
330
A
100
AcDbSymbolTableRecord
100
AcDbDimStyleTableRecord
  2
SYS$4
 70
     0
  4
"
 41
2.0
 42
1.0
 43
10.0
 44
1.0
 47
0.1
 48
0.1
 73
     0
 77
     1
 78
     8
 79
     2
140
3.2
141
0.0
143
0.0393701
146
0.71
147
0.9999999999999996
173
     1
176
   256
177
   256
178
     2
271
     2
272
     2
283
     0
284
     8
288
     1
340
11
344
A66
371
    -1
372
    -1
  0
DIMSTYLE
105
2518
330
A
100
AcDbSymbolTableRecord
100
AcDbDimStyleTableRecord
  2
SYS$6
 70
     0
  4
"
 41
2.0
 42
1.5
 43
10.0
 44
1.0
 47
0.1
 48
0.1
 73
     0
 74
     0
 78
     8
 79
     2
140
3.2
141
0.0
143
0.0393701
146
0.71
147
0.9999999999999996
172
     1
176
   256
177
   256
178
     2
271
     2
272
     2
283
     0
284
     8
340
11
341
A66
371
    -1
372
    -1
  0
DIMSTYLE
105
2519
330
A
100
AcDbSymbolTableRecord
100
AcDbDimStyleTableRecord
  2
SYS$7
 70
     0
  4
"
 41
2.0
 42
1.5
 43
10.0
 44
1.0
 47
0.1
 48
0.1
 73
     0
 74
     0
 77
     1
 78
     8
 79
     2
140
3.2
141
0.0
143
0.0393701
146
0.71
147
0.9999999999999996
172
     1
176
   256
177
   256
178
     2
271
     2
272
     2
283
     0
284
     8
340
11
341
A66
342
A66
371
    -1
372
    -1
  0
DIMSTYLE
105
251A
330
A
100
AcDbSymbolTableRecord
100
AcDbDimStyleTableRecord
  2
SYS$SF
 70
     0
  4
"
 41
1.0
 42
1.0
 43
10.0
 44
1.0
 47
0.1
 48
0.1
 73
     0
 74
     0
 75
     1
 76
     1
 77
     1
 78
     8
 79
     2
140
3.2
141
0.0
143
0.0393701
146
0.71
147
0.9999999999999996
172
     1
176
   256
177
   256
178
     2
271
     2
272
     2
283
     0
284
     8
340
11
341
6C4
342
6C4
371
    -1
372
    -1
  0
DIMSTYLE
105
251B
330
A
100
AcDbSymbolTableRecord
100
AcDbDimStyleTableRecord
  2
SYS$SH
 70
     0
  4
"
 41
1.0
 42
1.0
 43
10.0
 44
1.0
 47
0.1
 48
0.1
 73
     0
 74
     0
 75
     1
 76
     1
 77
     1
 78
     8
 79
     2
140
3.2
141
0.0
143
0.0393701
144
2.0
146
0.71
147
0.9999999999999996
172
     1
173
     1
176
   256
177
   256
178
     2
271
     2
272
     2
283
     0
284
     8
340
11
341
6C4
343
72
344
6C4
371
    -1
372
    -1
  0
DIMSTYLE
105
2A59
330
A
100
AcDbSymbolTableRecord
100
AcDbDimStyleTableRecord
  2
SYS$2
 70
     0
  4
"
 41
1.0
 42
1.5
 43
10.0
 44
1.0
 47
0.1
 48
0.1
 73
     0
 74
     0
 77
     1
 78
     8
 79
     2
140
3.2
141
0.0
143
0.0393701
146
0.71
147
0.9999999999999996
172
     1
176
   256
177
   256
178
     2
271
     2
272
     2
283
     0
284
     8
340
11
342
6C4
371
    -1
372
    -1
  0
DIMSTYLE
105
2AAB
102
{ACAD_REACTORS
330
4AC20
330
4AC21
330
4AC22
330
4AC26
330
4ABF4
330
4ABF5
330
4ABF6
330
4ABFA
330
4ABFB
330
4ABFC
330
4AC1E
330
4AC1F
102
}
330
A
100
AcDbSymbolTableRecord
100
AcDbDimStyleTableRecord
  2
SYS$0
 70
     0
  4
"
 41
1.0
 42
1.499999999999999
 43
10.0
 44
1.0
 47
0.1
 48
0.1
 73
     0
 74
     0
 77
     1
 78
     8
 79
     2
140
3.2
141
0.0
143
0.0393701
146
0.71
147
0.9999999999999996
172
     1
176
   256
177
   256
178
     2
271
     1
272
     1
283
     0
284
     8
340
11
341
A66
342
6C4
371
    -1
372
    -1
  0
ENDTAB
  0
TABLE
  2
BLOCK_RECORD
  5
1
330
0
100
AcDbSymbolTable
 70
    59
  0
BLOCK_RECORD
  5
1F
102
{ACAD_XDICTIONARY
360
8A
102
}
330
1
100
AcDbSymbolTableRecord
100
AcDbBlockTableRecord
  2
*Model_Space
340
22
  0
BLOCK_RECORD
  5
1B
330
1
100
AcDbSymbolTableRecord
100
AcDbBlockTableRecord
  2
*Paper_Space
340
1E
  0
BLOCK_RECORD
  5
23
330
1
100
AcDbSymbolTableRecord
100
AcDbBlockTableRecord
  2
*Paper_Space0
340
26
  0
BLOCK_RECORD
  5
72
330
1
100
AcDbSymbolTableRecord
100
AcDbBlockTableRecord
  2
GENAXEH
340
0
  0
BLOCK_RECORD
  5
6C4
330
1
100
AcDbSymbolTableRecord
100
AcDbBlockTableRecord
  2
_Dot
340
0
102
{BLKREFS
331
4A736
331
4A737
331
4A756
331
4A757
331
4A7AB
331
4A7AC
331
4A7C8
331
4A7C9
331
4A7EE
331
4A7EF
331
4A800
331
4A801
331
4AB61
331
4AB62
331
4AB6A
331
4AB6B
331
4AB73
331
4AB74
331
4AB7E
331
4AB7F
331
4AB87
331
4AB88
331
4AB90
331
4AB91
331
4AB99
331
4AB9A
331
4ABA2
331
4ABA3
331
4ABAB
331
4ABAC
331
4ABB4
331
4ABB5
331
4ABBD
331
4ABBE
331
4ABC8
331
4ABC9
331
4AD8C
331
4AD8D
331
4AD95
331
4AD96
331
4AD9E
331
4AD9F
331
4ADA9
331
4ADAA
331
4ADB2
331
4ADB3
331
4ADBB
331
4ADBC
331
4ADC4
331
4ADC5
331
4ADCD
331
4ADCE
331
4ADD6
331
4ADD7
331
4ADDF
331
4ADE0
331
4ADE8
331
4ADE9
331
4ADF3
331
4ADF4
102
}
  0
BLOCK_RECORD
  5
A66
330
1
100
AcDbSymbolTableRecord
100
AcDbBlockTableRecord
  2
_OPEN30
340
0
  0
BLOCK_RECORD
  5
4AC27
330
1
100
AcDbSymbolTableRecord
100
AcDbBlockTableRecord
  2
*D47
340
0
  0
BLOCK_RECORD
  5
4AC33
330
1
100
AcDbSymbolTableRecord
100
AcDbBlockTableRecord
  2
*D48
340
0
  0
BLOCK_RECORD
  5
4AC3F
330
1
100
AcDbSymbolTableRecord
100
AcDbBlockTableRecord
  2
*D49
340
0
  0
BLOCK_RECORD
  5
4AC4B
330
1
100
AcDbSymbolTableRecord
100
AcDbBlockTableRecord
  2
*D50
340
0
  0
BLOCK_RECORD
  5
4AC59
330
1
100
AcDbSymbolTableRecord
100
AcDbBlockTableRecord
  2
*D51
340
0
  0
BLOCK_RECORD
  5
4AC65
330
1
100
AcDbSymbolTableRecord
100
AcDbBlockTableRecord
  2
*D52
340
0
  0
BLOCK_RECORD
  5
4AC71
330
1
100
AcDbSymbolTableRecord
100
AcDbBlockTableRecord
  2
*D53
340
0
  0
BLOCK_RECORD
  5
4AC7F
330
1
100
AcDbSymbolTableRecord
100
AcDbBlockTableRecord
  2
*D54
340
0
  0
BLOCK_RECORD
  5
4AC8B
330
1
100
AcDbSymbolTableRecord
100
AcDbBlockTableRecord
  2
*D55
340
0
  0
BLOCK_RECORD
  5
4AC97
330
1
100
AcDbSymbolTableRecord
100
AcDbBlockTableRecord
  2
*D56
340
0
  0
BLOCK_RECORD
  5
4ACDB
330
1
100
AcDbSymbolTableRecord
100
AcDbBlockTableRecord
  2
*D57
340
0
  0
BLOCK_RECORD
  5
4ACFB
330
1
100
AcDbSymbolTableRecord
100
AcDbBlockTableRecord
  2
*D58
340
0
  0
ENDTAB
  0
ENDSEC
  0
SECTION
  2
BLOCKS
  0
BLOCK
  5
20
330
1F
100
AcDbEntity
  8
0
100
AcDbBlockBegin
  2
*Model_Space
 70
     0
 10
0.0
 20
0.0
 30
0.0
  3
*Model_Space
  1

  0
ENDBLK
  5
21
330
1F
100
AcDbEntity
  8
0
100
AcDbBlockEnd
  0
BLOCK
  5
1C
330
1B
100
AcDbEntity
 67
     1
  8
0
100
AcDbBlockBegin
  2
*Paper_Space
 70
     0
 10
0.0
 20
0.0
 30
0.0
  3
*Paper_Space
  1

  0
ENDBLK
  5
1D
330
1B
100
AcDbEntity
 67
     1
  8
0
100
AcDbBlockEnd
  0
BLOCK
  5
24
330
23
100
AcDbEntity
 67
     1
  8
0
100
AcDbBlockBegin
  2
*Paper_Space0
 70
     0
 10
0.0
 20
0.0
 30
0.0
  3
*Paper_Space0
  1

  0
ENDBLK
  5
25
330
23
100
AcDbEntity
 67
     1
  8
0
100
AcDbBlockEnd
  0
BLOCK
  5
74
330
72
100
AcDbEntity
  8
0
100
AcDbBlockBegin
  2
GENAXEH
 70
     0
 10
0.0
 20
0.0
 30
0.0
  3
GENAXEH
  1

  0
LINE
  5
73
330
72
100
AcDbEntity
  8
0
100
AcDbLine
 10
-1.0
 20
0.0
 30
0.0
 11
1.0
 21
0.0
 31
0.0
  0
ENDBLK
  5
75
330
72
100
AcDbEntity
  8
0
100
AcDbBlockEnd
  0
BLOCK
  5
6C7
330
6C4
100
AcDbEntity
  8
0
100
AcDbBlockBegin
  2
_Dot
 70
     0
 10
0.0
 20
0.0
 30
0.0
  3
_Dot
  1

  0
LWPOLYLINE
  5
6C5
330
6C4
100
AcDbEntity
  8
0
  6
ByBlock
 62
     0
100
AcDbPolyline
 90
        2
 70
     1
 43
0.5
 10
-0.25
 20
0.0
 42
1.0
 10
0.25
 20
0.0
 42
1.0
  0
LINE
  5
6C6
330
6C4
100
AcDbEntity
  8
0
  6
ByBlock
 62
     0
370
    -2
100
AcDbLine
 10
-0.5
 20
0.0
 30
0.0
 11
-1.0
 21
0.0
 31
0.0
  0
ENDBLK
  5
6C8
330
6C4
100
AcDbEntity
  8
0
100
AcDbBlockEnd
  0
BLOCK
  5
A6A
330
A66
100
AcDbEntity
  8
0
100
AcDbBlockBegin
  2
_OPEN30
 70
     0
 10
0.0
 20
0.0
 30
0.0
  3
_OPEN30
  1

  0
LINE
  5
A67
330
A66
100
AcDbEntity
  8
0
  6
ByBlock
 62
     0
100
AcDbLine
 10
-1.0
 20
0.26794919
 30
0.0
 11
0.0
 21
0.0
 31
0.0
  0
LINE
  5
A68
330
A66
100
AcDbEntity
  8
0
  6
ByBlock
 62
     0
100
AcDbLine
 10
0.0
 20
0.0
 30
0.0
 11
-1.0
 21
-0.26794919
 31
0.0
  0
LINE
  5
A69
330
A66
100
AcDbEntity
  8
0
  6
ByBlock
 62
     0
100
AcDbLine
 10
0.0
 20
0.0
 30
0.0
 11
-1.0
 21
0.0
 31
0.0
  0
ENDBLK
  5
A6B
330
A66
100
AcDbEntity
  8
0
100
AcDbBlockEnd
  0
BLOCK
  5
4AC31
330
4AC27
100
AcDbEntity
  8
0
100
AcDbBlockBegin
  2
*D47
 70
     1
 10
0.0
 20
0.0
 30
0.0
  3
*D47
  1

  0
LINE
  5
4ADD3
330
4AC27
100
AcDbEntity
  8
AM_5
100
AcDbLine
 10
3447.993388072022
 20
-2892.327410686655
 30
0.0
 11
3473.493388072022
 21
-2892.327410686655
 31
0.0
  0
LINE
  5
4ADD4
330
4AC27
100
AcDbEntity
  8
AM_5
100
AcDbLine
 10
3447.993388072022
 20
-2868.327410686655
 30
0.0
 11
3473.493388072022
 21
-2868.327410686655
 31
0.0
  0
LINE
  5
4ADD5
330
4AC27
100
AcDbEntity
  8
AM_5
100
AcDbLine
 10
3472.493388072021
 20
-2891.327410686655
 30
0.0
 11
3472.493388072021
 21
-2869.327410686654
 31
0.0
  0
INSERT
  5
4ADD6
330
4AC27
100
AcDbEntity
  8
AM_5
100
AcDbBlockReference
  2
_Dot
 10
3472.493388072021
 20
-2892.327410686655
 30
0.0
 41
1.0
 42
1.0
 43
1.0
 50
270.0
  0
INSERT
  5
4ADD7
330
4AC27
100
AcDbEntity
  8
AM_5
100
AcDbBlockReference
  2
_Dot
 10
3472.493388072021
 20
-2868.327410686655
 30
0.0
 41
1.0
 42
1.0
 43
1.0
 50
90.0
  0
MTEXT
  5
4ADD8
330
4AC27
100
AcDbEntity
  8
AM_5
 62
     2
100
AcDbMText
 10
3469.893388072022
 20
-2880.327410686655
 30
0.0
 40
3.2
 41
0.0
 71
     5
 72
     1
  1
C：割り数
 11
0.0000000000000001
 21
1.0
 31
0.0
 73
     1
 44
1.0
1001
ACAD
1000
MTEXTBEGIN
1070
    73
1070
     1
1070
    44
1040
1.0
1070
    74
1070
     0
1000
MTEXTEND
  0
POINT
  5
4ADD9
330
4AC27
100
AcDbEntity
  8
Defpoints
 62
     0
100
AcDbPoint
 10
3446.493388072022
 20
-2892.327410686655
 30
0.0
  0
POINT
  5
4ADDA
330
4AC27
100
AcDbEntity
  8
Defpoints
 62
     0
100
AcDbPoint
 10
3446.493388072022
 20
-2868.327410686655
 30
0.0
  0
POINT
  5
4ADDB
330
4AC27
100
AcDbEntity
  8
Defpoints
 62
     0
100
AcDbPoint
 10
3472.493388072021
 20
-2868.327410686655
 30
0.0
  0
ENDBLK
  5
4AC32
330
4AC27
100
AcDbEntity
  8
0
100
AcDbBlockEnd
  0
BLOCK
  5
4AC3D
330
4AC33
100
AcDbEntity
  8
0
100
AcDbBlockBegin
  2
*D48
 70
     1
 10
0.0
 20
0.0
 30
0.0
  3
*D48
  1

  0
LINE
  5
4ADDC
330
4AC33
100
AcDbEntity
  8
AM_5
100
AcDbLine
 10
3433.293388072022
 20
-2960.360715280122
 30
0.0
 11
3433.293388072022
 21
-2938.860715280122
 31
0.0
  0
LINE
  5
4ADDD
330
4AC33
100
AcDbEntity
  8
AM_5
100
AcDbLine
 10
3445.693388072021
 20
-2960.360715280122
 30
0.0
 11
3445.693388072021
 21
-2938.860715280122
 31
0.0
  0
LINE
  5
4ADDE
330
4AC33
100
AcDbEntity
  8
AM_5
100
AcDbLine
 10
3434.293388072021
 20
-2939.860715280122
 30
0.0
 11
3444.693388072022
 21
-2939.860715280122
 31
0.0
  0
INSERT
  5
4ADDF
330
4AC33
100
AcDbEntity
  8
AM_5
100
AcDbBlockReference
  2
_Dot
 10
3433.293388072022
 20
-2939.860715280122
 30
0.0
 41
1.0
 42
1.0
 43
1.0
 50
180.0
  0
INSERT
  5
4ADE0
330
4AC33
100
AcDbEntity
  8
AM_5
100
AcDbBlockReference
  2
_Dot
 10
3445.693388072021
 20
-2939.860715280122
 30
0.0
 41
1.0
 42
1.0
 43
1.0
  0
MTEXT
  5
4ADE1
330
4AC33
100
AcDbEntity
  8
AM_5
 62
     2
100
AcDbMText
 10
3439.493388072022
 20
-2937.260715280122
 30
0.0
 40
3.2
 41
0.0
 71
     5
 72
     1
  1
（%%c13）
 73
     1
 44
1.0
1001
ACAD
1000
MTEXTBEGIN
1070
    73
1070
     1
1070
    44
1040
1.0
1070
    74
1070
     0
1000
MTEXTEND
  0
POINT
  5
4ADE2
330
4AC33
100
AcDbEntity
  8
Defpoints
 62
     0
100
AcDbPoint
 10
3433.293388072022
 20
-2961.860715280122
 30
0.0
  0
POINT
  5
4ADE3
330
4AC33
100
AcDbEntity
  8
Defpoints
 62
     0
100
AcDbPoint
 10
3445.693388072021
 20
-2961.860715280122
 30
0.0
  0
POINT
  5
4ADE4
330
4AC33
100
AcDbEntity
  8
Defpoints
 62
     0
100
AcDbPoint
 10
3445.693388072021
 20
-2939.860715280122
 30
0.0
  0
ENDBLK
  5
4AC3E
330
4AC33
100
AcDbEntity
  8
0
100
AcDbBlockEnd
  0
BLOCK
  5
4AC49
330
4AC3F
100
AcDbEntity
  8
0
100
AcDbBlockBegin
  2
*D49
 70
     1
 10
0.0
 20
0.0
 30
0.0
  3
*D49
  1

  0
LINE
  5
4ADE5
330
4AC3F
100
AcDbEntity
  8
AM_5
100
AcDbLine
 10
3436.493388072021
 20
-2960.360715280122
 30
0.0
 11
3436.493388072021
 21
-2946.860715280122
 31
0.0
  0
LINE
  5
4ADE6
330
4AC3F
100
AcDbEntity
  8
AM_5
100
AcDbLine
 10
3442.493388072021
 20
-2960.360715280122
 30
0.0
 11
3442.493388072021
 21
-2946.860715280122
 31
0.0
  0
LINE
  5
4ADE7
330
4AC3F
100
AcDbEntity
  8
AM_5
100
AcDbLine
 10
3437.493388072021
 20
-2947.860715280122
 30
0.0
 11
3441.493388072021
 21
-2947.860715280122
 31
0.0
  0
INSERT
  5
4ADE8
330
4AC3F
100
AcDbEntity
  8
AM_5
100
AcDbBlockReference
  2
_Dot
 10
3436.493388072021
 20
-2947.860715280122
 30
0.0
 41
1.0
 42
1.0
 43
1.0
 50
180.0
  0
INSERT
  5
4ADE9
330
4AC3F
100
AcDbEntity
  8
AM_5
100
AcDbBlockReference
  2
_Dot
 10
3442.493388072021
 20
-2947.860715280122
 30
0.0
 41
1.0
 42
1.0
 43
1.0
  0
MTEXT
  5
4ADEA
330
4AC3F
100
AcDbEntity
  8
AM_5
 62
     2
100
AcDbMText
 10
3439.493388072021
 20
-2945.260715280122
 30
0.0
 40
3.2
 41
0.0
 71
     5
 72
     1
  1
%%c6
 73
     1
 44
1.0
1001
ACAD
1000
MTEXTBEGIN
1070
    73
1070
     1
1070
    44
1040
1.0
1070
    74
1070
     0
1000
MTEXTEND
  0
POINT
  5
4ADEB
330
4AC3F
100
AcDbEntity
  8
Defpoints
 62
     0
100
AcDbPoint
 10
3436.493388072021
 20
-2961.860715280122
 30
0.0
  0
POINT
  5
4ADEC
330
4AC3F
100
AcDbEntity
  8
Defpoints
 62
     0
100
AcDbPoint
 10
3442.493388072021
 20
-2961.860715280122
 30
0.0
  0
POINT
  5
4ADED
330
4AC3F
100
AcDbEntity
  8
Defpoints
 62
     0
100
AcDbPoint
 10
3442.493388072021
 20
-2947.860715280122
 30
0.0
  0
ENDBLK
  5
4AC4A
330
4AC3F
100
AcDbEntity
  8
0
100
AcDbBlockEnd
  0
BLOCK
  5
4AC57
330
4AC4B
100
AcDbEntity
  8
0
100
AcDbBlockBegin
  2
*D50
 70
     1
 10
0.0
 20
0.0
 30
0.0
  3
*D50
  1

  0
LINE
  5
4ADEE
330
4AC4B
100
AcDbEntity
  8
AM_5
100
AcDbLine
 10
3412.993388072022
 20
-2964.660715280122
 30
0.0
 11
3405.493388072019
 21
-2964.660715280122
 31
0.0
  0
LINE
  5
4ADEF
330
4AC4B
100
AcDbEntity
  8
AM_5
100
AcDbLine
 10
3412.993388072022
 20
-2967.860715280122
 30
0.0
 11
3405.493388072019
 21
-2967.860715280122
 31
0.0
  0
LINE
  5
4ADF0
330
4AC4B
100
AcDbEntity
  8
AM_5
100
AcDbLine
 10
3406.493388072019
 20
-2963.660715280121
 30
0.0
 11
3406.493388072019
 21
-2962.660715280121
 31
0.0
  0
LINE
  5
4ADF1
330
4AC4B
100
AcDbEntity
  8
AM_5
100
AcDbLine
 10
3406.493388072019
 20
-2968.860715280122
 30
0.0
 11
3406.493388072019
 21
-2976.554048613456
 31
0.0
  0
LINE
  5
4ADF2
330
4AC4B
100
AcDbEntity
  8
AM_5
100
AcDbLine
 10
3406.493388072019
 20
-2964.660715280122
 30
0.0
 11
3406.493388072019
 21
-2967.860715280122
 31
0.0
  0
INSERT
  5
4ADF3
330
4AC4B
100
AcDbEntity
  8
AM_5
100
AcDbBlockReference
  2
_Dot
 10
3406.493388072019
 20
-2964.660715280122
 30
0.0
 41
1.0
 42
1.0
 43
1.0
 50
270.0
  0
INSERT
  5
4ADF4
330
4AC4B
100
AcDbEntity
  8
AM_5
100
AcDbBlockReference
  2
_Dot
 10
3406.493388072019
 20
-2967.860715280122
 30
0.0
 41
1.0
 42
1.0
 43
1.0
 50
90.0
  0
MTEXT
  5
4ADF5
330
4AC4B
100
AcDbEntity
  8
AM_5
 62
     2
100
AcDbMText
 10
3403.893388072019
 20
-2973.207381946788
 30
0.0
 40
3.2
 41
0.0
 71
     5
 72
     1
  1
3.2
 11
0.0000000000000001
 21
1.0
 31
0.0
 73
     1
 44
1.0
1001
ACAD
1000
MTEXTBEGIN
1070
    73
1070
     1
1070
    44
1040
1.0
1070
    74
1070
     0
1000
MTEXTEND
  0
POINT
  5
4ADF6
330
4AC4B
100
AcDbEntity
  8
Defpoints
 62
     0
100
AcDbPoint
 10
3414.493388072022
 20
-2964.660715280122
 30
0.0
  0
POINT
  5
4ADF7
330
4AC4B
100
AcDbEntity
  8
Defpoints
 62
     0
100
AcDbPoint
 10
3414.493388072022
 20
-2967.860715280122
 30
0.0
  0
POINT
  5
4ADF8
330
4AC4B
100
AcDbEntity
  8
Defpoints
 62
     0
100
AcDbPoint
 10
3406.493388072019
 20
-2967.860715280122
 30
0.0
  0
ENDBLK
  5
4AC58
330
4AC4B
100
AcDbEntity
  8
0
100
AcDbBlockEnd
  0
BLOCK
  5
4AC63
330
4AC59
100
AcDbEntity
  8
0
100
AcDbBlockBegin
  2
*D51
 70
     1
 10
0.0
 20
0.0
 30
0.0
  3
*D51
  1

  0
LINE
  5
4AD89
330
4AC59
100
AcDbEntity
  8
AM_5
100
AcDbLine
 10
3510.980137716718
 20
-2848.827410686655
 30
0.0
 11
3510.980137716718
 21
-2839.325927686655
 31
0.0
  0
LINE
  5
4AD8A
330
4AC59
100
AcDbEntity
  8
AM_5
100
AcDbLine
 10
3590.980137716718
 20
-2848.827410686655
 30
0.0
 11
3590.980137716718
 21
-2839.325927686655
 31
0.0
  0
LINE
  5
4AD8B
330
4AC59
100
AcDbEntity
  8
AM_5
100
AcDbLine
 10
3511.980137716718
 20
-2840.325927686655
 30
0.0
 11
3589.980137716719
 21
-2840.325927686655
 31
0.0
  0
INSERT
  5
4AD8C
330
4AC59
100
AcDbEntity
  8
AM_5
100
AcDbBlockReference
  2
_Dot
 10
3510.980137716718
 20
-2840.325927686655
 30
0.0
 41
1.0
 42
1.0
 43
1.0
 50
180.0
  0
INSERT
  5
4AD8D
330
4AC59
100
AcDbEntity
  8
AM_5
100
AcDbBlockReference
  2
_Dot
 10
3590.980137716718
 20
-2840.325927686655
 30
0.0
 41
1.0
 42
1.0
 43
1.0
  0
MTEXT
  5
4AD8E
330
4AC59
100
AcDbEntity
  8
AM_5
 62
     2
100
AcDbMText
 10
3550.980137716718
 20
-2837.725927686655
 30
0.0
 40
3.2
 41
0.0
 71
     5
 72
     1
  1
B
 73
     1
 44
1.0
1001
ACAD
1000
MTEXTBEGIN
1070
    73
1070
     1
1070
    44
1040
1.0
1070
    74
1070
     0
1000
MTEXTEND
  0
POINT
  5
4AD8F
330
4AC59
100
AcDbEntity
  8
Defpoints
 62
     0
100
AcDbPoint
 10
3510.980137716718
 20
-2850.327410686655
 30
0.0
  0
POINT
  5
4AD90
330
4AC59
100
AcDbEntity
  8
Defpoints
 62
     0
100
AcDbPoint
 10
3590.980137716718
 20
-2850.327410686655
 30
0.0
  0
POINT
  5
4AD91
330
4AC59
100
AcDbEntity
  8
Defpoints
 62
     0
100
AcDbPoint
 10
3590.980137716718
 20
-2840.325927686655
 30
0.0
  0
ENDBLK
  5
4AC64
330
4AC59
100
AcDbEntity
  8
0
100
AcDbBlockEnd
  0
BLOCK
  5
4AC6F
330
4AC65
100
AcDbEntity
  8
0
100
AcDbBlockBegin
  2
*D52
 70
     1
 10
0.0
 20
0.0
 30
0.0
  3
*D52
  1

  0
LINE
  5
4AD92
330
4AC65
100
AcDbEntity
  8
AM_5
100
AcDbLine
 10
3509.480137716718
 20
-2950.327410686655
 30
0.0
 11
3501.980137716718
 21
-2950.327410686655
 31
0.0
  0
LINE
  5
4AD93
330
4AC65
100
AcDbEntity
  8
AM_5
100
AcDbLine
 10
3509.480137716717
 20
-2850.327410686655
 30
0.0
 11
3501.980137716718
 21
-2850.327410686655
 31
0.0
  0
LINE
  5
4AD94
330
4AC65
100
AcDbEntity
  8
AM_5
100
AcDbLine
 10
3502.980137716718
 20
-2949.327410686655
 30
0.0
 11
3502.980137716718
 21
-2851.327410686656
 31
0.0
  0
INSERT
  5
4AD95
330
4AC65
100
AcDbEntity
  8
AM_5
100
AcDbBlockReference
  2
_Dot
 10
3502.980137716718
 20
-2950.327410686655
 30
0.0
 41
1.0
 42
1.0
 43
1.0
 50
270.0
  0
INSERT
  5
4AD96
330
4AC65
100
AcDbEntity
  8
AM_5
100
AcDbBlockReference
  2
_Dot
 10
3502.980137716718
 20
-2850.327410686655
 30
0.0
 41
1.0
 42
1.0
 43
1.0
 50
90.0
  0
MTEXT
  5
4AD97
330
4AC65
100
AcDbEntity
  8
AM_5
 62
     2
100
AcDbMText
 10
3500.380137716718
 20
-2900.327410686655
 30
0.0
 40
3.2
 41
0.0
 71
     5
 72
     1
  1
A
 11
0.0000000000000001
 21
1.0
 31
0.0
 73
     1
 44
1.0
1001
ACAD
1000
MTEXTBEGIN
1070
    73
1070
     1
1070
    44
1040
1.0
1070
    74
1070
     0
1000
MTEXTEND
  0
POINT
  5
4AD98
330
4AC65
100
AcDbEntity
  8
Defpoints
 62
     0
100
AcDbPoint
 10
3510.980137716718
 20
-2950.327410686655
 30
0.0
  0
POINT
  5
4AD99
330
4AC65
100
AcDbEntity
  8
Defpoints
 62
     0
100
AcDbPoint
 10
3510.980137716718
 20
-2850.327410686655
 30
0.0
  0
POINT
  5
4AD9A
330
4AC65
100
AcDbEntity
  8
Defpoints
 62
     0
100
AcDbPoint
 10
3502.980137716718
 20
-2850.327410686655
 30
0.0
  0
ENDBLK
  5
4AC70
330
4AC65
100
AcDbEntity
  8
0
100
AcDbBlockEnd
  0
BLOCK
  5
4AC7D
330
4AC71
100
AcDbEntity
  8
0
100
AcDbBlockBegin
  2
*D53
 70
     1
 10
0.0
 20
0.0
 30
0.0
  3
*D53
  1

  0
LINE
  5
4ADA4
330
4AC71
100
AcDbEntity
  8
AM_5
100
AcDbLine
 10
3509.480137716718
 20
-3003.208569194099
 30
0.0
 11
3501.980137716715
 21
-3003.208569194099
 31
0.0
  0
LINE
  5
4ADA5
330
4AC71
100
AcDbEntity
  8
AM_5
100
AcDbLine
 10
3509.480137716718
 20
-3006.408569194099
 30
0.0
 11
3501.980137716715
 21
-3006.408569194099
 31
0.0
  0
LINE
  5
4ADA6
330
4AC71
100
AcDbEntity
  8
AM_5
100
AcDbLine
 10
3502.980137716715
 20
-3002.208569194098
 30
0.0
 11
3502.980137716715
 21
-3001.208569194099
 31
0.0
  0
LINE
  5
4ADA7
330
4AC71
100
AcDbEntity
  8
AM_5
100
AcDbLine
 10
3502.980137716715
 20
-3007.408569194099
 30
0.0
 11
3502.980137716715
 21
-3015.101902527433
 31
0.0
  0
LINE
  5
4ADA8
330
4AC71
100
AcDbEntity
  8
AM_5
100
AcDbLine
 10
3502.980137716715
 20
-3003.208569194099
 30
0.0
 11
3502.980137716715
 21
-3006.408569194099
 31
0.0
  0
INSERT
  5
4ADA9
330
4AC71
100
AcDbEntity
  8
AM_5
100
AcDbBlockReference
  2
_Dot
 10
3502.980137716715
 20
-3003.208569194099
 30
0.0
 41
1.0
 42
1.0
 43
1.0
 50
270.0
  0
INSERT
  5
4ADAA
330
4AC71
100
AcDbEntity
  8
AM_5
100
AcDbBlockReference
  2
_Dot
 10
3502.980137716715
 20
-3006.408569194099
 30
0.0
 41
1.0
 42
1.0
 43
1.0
 50
90.0
  0
MTEXT
  5
4ADAB
330
4AC71
100
AcDbEntity
  8
AM_5
 62
     2
100
AcDbMText
 10
3500.380137716716
 20
-3011.755235860765
 30
0.0
 40
3.2
 41
0.0
 71
     5
 72
     1
  1
3.2
 11
0.0000000000000001
 21
1.0
 31
0.0
 73
     1
 44
1.0
1001
ACAD
1000
MTEXTBEGIN
1070
    73
1070
     1
1070
    44
1040
1.0
1070
    74
1070
     0
1000
MTEXTEND
  0
POINT
  5
4ADAC
330
4AC71
100
AcDbEntity
  8
Defpoints
 62
     0
100
AcDbPoint
 10
3510.980137716718
 20
-3003.208569194099
 30
0.0
  0
POINT
  5
4ADAD
330
4AC71
100
AcDbEntity
  8
Defpoints
 62
     0
100
AcDbPoint
 10
3510.980137716718
 20
-3006.408569194099
 30
0.0
  0
POINT
  5
4ADAE
330
4AC71
100
AcDbEntity
  8
Defpoints
 62
     0
100
AcDbPoint
 10
3502.980137716715
 20
-3006.408569194099
 30
0.0
  0
ENDBLK
  5
4AC7E
330
4AC71
100
AcDbEntity
  8
0
100
AcDbBlockEnd
  0
BLOCK
  5
4AC89
330
4AC7F
100
AcDbEntity
  8
0
100
AcDbBlockBegin
  2
*D54
 70
     1
 10
0.0
 20
0.0
 30
0.0
  3
*D54
  1

  0
LINE
  5
4ADAF
330
4AC7F
100
AcDbEntity
  8
AM_5
100
AcDbLine
 10
3544.780137716718
 20
-2998.708569194099
 30
0.0
 11
3544.780137716718
 21
-2977.208569194099
 31
0.0
  0
LINE
  5
4ADB0
330
4AC7F
100
AcDbEntity
  8
AM_5
100
AcDbLine
 10
3557.180137716719
 20
-2998.708569194099
 30
0.0
 11
3557.180137716719
 21
-2977.208569194099
 31
0.0
  0
LINE
  5
4ADB1
330
4AC7F
100
AcDbEntity
  8
AM_5
100
AcDbLine
 10
3545.780137716718
 20
-2978.208569194098
 30
0.0
 11
3556.180137716718
 21
-2978.208569194098
 31
0.0
  0
INSERT
  5
4ADB2
330
4AC7F
100
AcDbEntity
  8
AM_5
100
AcDbBlockReference
  2
_Dot
 10
3544.780137716718
 20
-2978.208569194098
 30
0.0
 41
1.0
 42
1.0
 43
1.0
 50
180.0
  0
INSERT
  5
4ADB3
330
4AC7F
100
AcDbEntity
  8
AM_5
100
AcDbBlockReference
  2
_Dot
 10
3557.180137716719
 20
-2978.208569194098
 30
0.0
 41
1.0
 42
1.0
 43
1.0
  0
MTEXT
  5
4ADB4
330
4AC7F
100
AcDbEntity
  8
AM_5
 62
     2
100
AcDbMText
 10
3550.980137716719
 20
-2975.608569194099
 30
0.0
 40
3.2
 41
0.0
 71
     5
 72
     1
  1
（%%c13）
 73
     1
 44
1.0
1001
ACAD
1000
MTEXTBEGIN
1070
    73
1070
     1
1070
    44
1040
1.0
1070
    74
1070
     0
1000
MTEXTEND
  0
POINT
  5
4ADB5
330
4AC7F
100
AcDbEntity
  8
Defpoints
 62
     0
100
AcDbPoint
 10
3544.780137716718
 20
-3000.208569194099
 30
0.0
  0
POINT
  5
4ADB6
330
4AC7F
100
AcDbEntity
  8
Defpoints
 62
     0
100
AcDbPoint
 10
3557.180137716719
 20
-3000.208569194099
 30
0.0
  0
POINT
  5
4ADB7
330
4AC7F
100
AcDbEntity
  8
Defpoints
 62
     0
100
AcDbPoint
 10
3557.180137716719
 20
-2978.208569194098
 30
0.0
  0
ENDBLK
  5
4AC8A
330
4AC7F
100
AcDbEntity
  8
0
100
AcDbBlockEnd
  0
BLOCK
  5
4AC95
330
4AC8B
100
AcDbEntity
  8
0
100
AcDbBlockBegin
  2
*D55
 70
     1
 10
0.0
 20
0.0
 30
0.0
  3
*D55
  1

  0
LINE
  5
4ADC1
330
4AC8B
100
AcDbEntity
  8
AM_5
100
AcDbLine
 10
3414.493388072022
 20
-2848.827410686655
 30
0.0
 11
3414.493388072022
 21
-2839.325927686655
 31
0.0
  0
LINE
  5
4ADC2
330
4AC8B
100
AcDbEntity
  8
AM_5
100
AcDbLine
 10
3464.493388072022
 20
-2849.327410686655
 30
0.0
 11
3464.493388072022
 21
-2839.325927686655
 31
0.0
  0
LINE
  5
4ADC3
330
4AC8B
100
AcDbEntity
  8
AM_5
100
AcDbLine
 10
3415.493388072022
 20
-2840.325927686656
 30
0.0
 11
3463.493388072021
 21
-2840.325927686656
 31
0.0
  0
INSERT
  5
4ADC4
330
4AC8B
100
AcDbEntity
  8
AM_5
100
AcDbBlockReference
  2
_Dot
 10
3414.493388072022
 20
-2840.325927686656
 30
0.0
 41
1.0
 42
1.0
 43
1.0
 50
180.0
  0
INSERT
  5
4ADC5
330
4AC8B
100
AcDbEntity
  8
AM_5
100
AcDbBlockReference
  2
_Dot
 10
3464.493388072022
 20
-2840.325927686656
 30
0.0
 41
1.0
 42
1.0
 43
1.0
  0
MTEXT
  5
4ADC6
330
4AC8B
100
AcDbEntity
  8
AM_5
 62
     2
100
AcDbMText
 10
3439.493388072022
 20
-2837.725927686655
 30
0.0
 40
3.2
 41
0.0
 71
     5
 72
     1
  1
B
 73
     1
 44
1.0
1001
ACAD
1000
MTEXTBEGIN
1070
    73
1070
     1
1070
    44
1040
1.0
1070
    74
1070
     0
1000
MTEXTEND
  0
POINT
  5
4ADC7
330
4AC8B
100
AcDbEntity
  8
Defpoints
 62
     0
100
AcDbPoint
 10
3414.493388072022
 20
-2850.327410686655
 30
0.0
  0
POINT
  5
4ADC8
330
4AC8B
100
AcDbEntity
  8
Defpoints
 62
     0
100
AcDbPoint
 10
3464.493388072022
 20
-2850.827410686655
 30
0.0
  0
POINT
  5
4ADC9
330
4AC8B
100
AcDbEntity
  8
Defpoints
 62
     0
100
AcDbPoint
 10
3464.493388072022
 20
-2840.325927686656
 30
0.0
  0
ENDBLK
  5
4AC96
330
4AC8B
100
AcDbEntity
  8
0
100
AcDbBlockEnd
  0
BLOCK
  5
4ACA1
330
4AC97
100
AcDbEntity
  8
0
100
AcDbBlockBegin
  2
*D56
 70
     1
 10
0.0
 20
0.0
 30
0.0
  3
*D56
  1

  0
LINE
  5
4ADCA
330
4AC97
100
AcDbEntity
  8
AM_5
100
AcDbLine
 10
3413.493388072021
 20
-2910.327410686655
 30
0.0
 11
3405.493388072021
 21
-2910.327410686655
 31
0.0
  0
LINE
  5
4ADCB
330
4AC97
100
AcDbEntity
  8
AM_5
100
AcDbLine
 10
3412.993388072021
 20
-2850.327410686655
 30
0.0
 11
3405.493388072021
 21
-2850.327410686655
 31
0.0
  0
LINE
  5
4ADCC
330
4AC97
100
AcDbEntity
  8
AM_5
100
AcDbLine
 10
3406.493388072021
 20
-2909.327410686655
 30
0.0
 11
3406.493388072021
 21
-2851.327410686656
 31
0.0
  0
INSERT
  5
4ADCD
330
4AC97
100
AcDbEntity
  8
AM_5
100
AcDbBlockReference
  2
_Dot
 10
3406.493388072021
 20
-2910.327410686655
 30
0.0
 41
1.0
 42
1.0
 43
1.0
 50
270.0
  0
INSERT
  5
4ADCE
330
4AC97
100
AcDbEntity
  8
AM_5
100
AcDbBlockReference
  2
_Dot
 10
3406.493388072021
 20
-2850.327410686655
 30
0.0
 41
1.0
 42
1.0
 43
1.0
 50
90.0
  0
MTEXT
  5
4ADCF
330
4AC97
100
AcDbEntity
  8
AM_5
 62
     2
100
AcDbMText
 10
3403.893388072023
 20
-2880.327410686655
 30
0.0
 40
3.2
 41
0.0
 71
     5
 72
     1
  1
A
 11
0.0000000000000001
 21
1.0
 31
0.0
 73
     1
 44
1.0
1001
ACAD
1000
MTEXTBEGIN
1070
    73
1070
     1
1070
    44
1040
1.0
1070
    74
1070
     0
1000
MTEXTEND
  0
POINT
  5
4ADD0
330
4AC97
100
AcDbEntity
  8
Defpoints
 62
     0
100
AcDbPoint
 10
3414.993388072022
 20
-2910.327410686655
 30
0.0
  0
POINT
  5
4ADD1
330
4AC97
100
AcDbEntity
  8
Defpoints
 62
     0
100
AcDbPoint
 10
3414.493388072021
 20
-2850.327410686655
 30
0.0
  0
POINT
  5
4ADD2
330
4AC97
100
AcDbEntity
  8
Defpoints
 62
     0
100
AcDbPoint
 10
3406.493388072021
 20
-2850.327410686655
 30
0.0
  0
ENDBLK
  5
4ACA2
330
4AC97
100
AcDbEntity
  8
0
100
AcDbBlockEnd
  0
BLOCK
  5
4ACE5
330
4ACDB
100
AcDbEntity
  8
0
100
AcDbBlockBegin
  2
*D57
 70
     1
 10
0.0
 20
0.0
 30
0.0
  3
*D57
  1

  0
LINE
  5
4AD9B
330
4ACDB
100
AcDbEntity
  8
AM_5
100
AcDbLine
 10
3559.480137716718
 20
-2910.327410686655
 30
0.0
 11
3599.980137716717
 21
-2910.327410686655
 31
0.0
  0
LINE
  5
4AD9C
330
4ACDB
100
AcDbEntity
  8
AM_5
100
AcDbLine
 10
3559.480137716718
 20
-2890.327410686655
 30
0.0
 11
3599.980137716717
 21
-2890.327410686655
 31
0.0
  0
LINE
  5
4AD9D
330
4ACDB
100
AcDbEntity
  8
AM_5
100
AcDbLine
 10
3598.980137716718
 20
-2909.327410686655
 30
0.0
 11
3598.980137716718
 21
-2891.327410686655
 31
0.0
  0
INSERT
  5
4AD9E
330
4ACDB
100
AcDbEntity
  8
AM_5
100
AcDbBlockReference
  2
_Dot
 10
3598.980137716718
 20
-2910.327410686655
 30
0.0
 41
1.0
 42
1.0
 43
1.0
 50
270.0
  0
INSERT
  5
4AD9F
330
4ACDB
100
AcDbEntity
  8
AM_5
100
AcDbBlockReference
  2
_Dot
 10
3598.980137716718
 20
-2890.327410686655
 30
0.0
 41
1.0
 42
1.0
 43
1.0
 50
90.0
  0
MTEXT
  5
4ADA0
330
4ACDB
100
AcDbEntity
  8
AM_5
 62
     2
100
AcDbMText
 10
3596.380137716718
 20
-2900.327410686655
 30
0.0
 40
3.2
 41
0.0
 71
     5
 72
     1
  1
C：割り数
 11
0.0000000000000001
 21
1.0
 31
0.0
 73
     1
 44
1.0
1001
ACAD
1000
MTEXTBEGIN
1070
    73
1070
     1
1070
    44
1040
1.0
1070
    74
1070
     0
1000
MTEXTEND
  0
POINT
  5
4ADA1
330
4ACDB
100
AcDbEntity
  8
Defpoints
 62
     0
100
AcDbPoint
 10
3557.980137716718
 20
-2910.327410686655
 30
0.0
  0
POINT
  5
4ADA2
330
4ACDB
100
AcDbEntity
  8
Defpoints
 62
     0
100
AcDbPoint
 10
3557.980137716718
 20
-2890.327410686655
 30
0.0
  0
POINT
  5
4ADA3
330
4ACDB
100
AcDbEntity
  8
Defpoints
 62
     0
100
AcDbPoint
 10
3598.980137716718
 20
-2890.327410686655
 30
0.0
  0
ENDBLK
  5
4ACE6
330
4ACDB
100
AcDbEntity
  8
0
100
AcDbBlockEnd
  0
BLOCK
  5
4AD05
330
4ACFB
100
AcDbEntity
  8
0
100
AcDbBlockBegin
  2
*D58
 70
     1
 10
0.0
 20
0.0
 30
0.0
  3
*D58
  1

  0
LINE
  5
4ADB8
330
4ACFB
100
AcDbEntity
  8
AM_5
100
AcDbLine
 10
3547.980137716718
 20
-2998.708569194099
 30
0.0
 11
3547.980137716718
 21
-2985.208569194099
 31
0.0
  0
LINE
  5
4ADB9
330
4ACFB
100
AcDbEntity
  8
AM_5
100
AcDbLine
 10
3553.980137716718
 20
-2998.708569194099
 30
0.0
 11
3553.980137716718
 21
-2985.208569194099
 31
0.0
  0
LINE
  5
4ADBA
330
4ACFB
100
AcDbEntity
  8
AM_5
100
AcDbLine
 10
3548.980137716718
 20
-2986.208569194099
 30
0.0
 11
3552.980137716718
 21
-2986.208569194099
 31
0.0
  0
INSERT
  5
4ADBB
330
4ACFB
100
AcDbEntity
  8
AM_5
100
AcDbBlockReference
  2
_Dot
 10
3547.980137716718
 20
-2986.208569194099
 30
0.0
 41
1.0
 42
1.0
 43
1.0
 50
180.0
  0
INSERT
  5
4ADBC
330
4ACFB
100
AcDbEntity
  8
AM_5
100
AcDbBlockReference
  2
_Dot
 10
3553.980137716718
 20
-2986.208569194099
 30
0.0
 41
1.0
 42
1.0
 43
1.0
  0
MTEXT
  5
4ADBD
330
4ACFB
100
AcDbEntity
  8
AM_5
 62
     2
100
AcDbMText
 10
3550.980137716718
 20
-2983.608569194098
 30
0.0
 40
3.2
 41
0.0
 71
     5
 72
     1
  1
%%c6
 73
     1
 44
1.0
1001
ACAD
1000
MTEXTBEGIN
1070
    73
1070
     1
1070
    44
1040
1.0
1070
    74
1070
     0
1000
MTEXTEND
  0
POINT
  5
4ADBE
330
4ACFB
100
AcDbEntity
  8
Defpoints
 62
     0
100
AcDbPoint
 10
3547.980137716718
 20
-3000.208569194099
 30
0.0
  0
POINT
  5
4ADBF
330
4ACFB
100
AcDbEntity
  8
Defpoints
 62
     0
100
AcDbPoint
 10
3553.980137716718
 20
-3000.208569194099
 30
0.0
  0
POINT
  5
4ADC0
330
4ACFB
100
AcDbEntity
  8
Defpoints
 62
     0
100
AcDbPoint
 10
3553.980137716718
 20
-2986.208569194099
 30
0.0
  0
ENDBLK
  5
4AD06
330
4ACFB
100
AcDbEntity
  8
0
100
AcDbBlockEnd
  0
ENDSEC
  0
SECTION
  2
ENTITIES
  0
LINE
  5
4A4CD
330
1F
100
AcDbEntity
  8
AM_0
100
AcDbLine
 10
3313.06718498493
 20
-2764.773790756372
 30
0.0
 11
3313.06718498493
 21
-2812.773790756374
 31
0.0
  0
LINE
  5
4A4CE
330
1F
100
AcDbEntity
  8
AM_4
100
AcDbLine
 10
3293.067184984931
 20
-2772.773790756371
 30
0.0
 11
3403.06718498493
 21
-2772.773790756371
 31
0.0
  0
LINE
  5
4A4CF
330
1F
100
AcDbEntity
  8
AM_4
100
AcDbLine
 10
3293.067184984931
 20
-2780.773790756372
 30
0.0
 11
3403.06718498493
 21
-2780.773790756372
 31
0.0
  0
LINE
  5
4A4D0
330
1F
100
AcDbEntity
  8
AM_4
100
AcDbLine
 10
3293.067184984931
 20
-2788.773790756371
 30
0.0
 11
3403.06718498493
 21
-2788.773790756371
 31
0.0
  0
LINE
  5
4A4D1
330
1F
100
AcDbEntity
  8
AM_4
100
AcDbLine
 10
3293.067184984931
 20
-2796.773790756372
 30
0.0
 11
3403.06718498493
 21
-2796.773790756372
 31
0.0
  0
LINE
  5
4A4D2
330
1F
100
AcDbEntity
  8
AM_0
100
AcDbLine
 10
3293.067184984931
 20
-2764.773790756372
 30
0.0
 11
3293.067184984931
 21
-2812.773790756372
 31
0.0
  0
LINE
  5
4A4D3
330
1F
100
AcDbEntity
  8
AM_0
100
AcDbLine
 10
3293.067184984931
 20
-2764.773790756372
 30
0.0
 11
3403.06718498493
 21
-2764.773790756372
 31
0.0
  0
LINE
  5
4A4D4
330
1F
100
AcDbEntity
  8
AM_0
100
AcDbLine
 10
3403.06718498493
 20
-2764.773790756372
 30
0.0
 11
3403.06718498493
 21
-2812.773790756374
 31
0.0
  0
LINE
  5
4A4D5
330
1F
100
AcDbEntity
  8
AM_4
100
AcDbLine
 10
3293.067184984931
 20
-2804.773790756371
 30
0.0
 11
3403.06718498493
 21
-2804.773790756371
 31
0.0
  0
LINE
  5
4A4D6
330
1F
100
AcDbEntity
  8
AM_0
100
AcDbLine
 10
3293.067184984931
 20
-2812.773790756372
 30
0.0
 11
3403.06718498493
 21
-2812.773790756372
 31
0.0
  0
TEXT
  5
4A4D7
330
1F
100
AcDbEntity
  8
AM_6
100
AcDbText
 10
3298.72418498493
 20
-2770.373790756372
 30
0.0
 40
3.2
  1
品　名
 41
0.85537027
100
AcDbText
  0
TEXT
  5
4A4D8
330
1F
100
AcDbEntity
  8
AM_6
100
AcDbText
 10
3298.72418498493
 20
-2778.373790756372
 30
0.0
 40
3.2
  1
品　番
 41
0.85537027
100
AcDbText
  0
TEXT
  5
4A4D9
330
1F
100
AcDbEntity
  8
AM_6
100
AcDbText
 10
3298.72418498493
 20
-2786.373790756372
 30
0.0
 40
3.2
  1
材　質
 41
0.85537027
100
AcDbText
  0
TEXT
  5
4A4DA
330
1F
100
AcDbEntity
  8
AM_6
100
AcDbText
 10
3298.72418498493
 20
-2794.373790756372
 30
0.0
 40
3.2
  1
仕上げ
 41
0.85537027
100
AcDbText
  0
TEXT
  5
4A4DB
330
1F
100
AcDbEntity
  8
AM_6
100
AcDbText
 10
3295.52418498493
 20
-2810.373790756372
 30
0.0
 40
3.2
  1
セットビス
 41
0.84892707
100
AcDbText
  0
TEXT
  5
4A4DC
330
1F
100
AcDbEntity
  8
AM_6
100
AcDbText
 10
3297.124184984931
 20
-2802.373790756372
 30
0.0
 40
3.2
  1
左右勝手
 41
0.8512700499999999
100
AcDbText
  0
LINE
  5
4A4DD
330
1F
100
AcDbEntity
  8
size
100
AcDbLine
 10
3281.56718498493
 20
-3053.273790756371
 30
0.0
 11
3701.56718498493
 21
-3053.273790756371
 31
0.0
1001
GENIUS_GENREC_14
1002
{
1000
PYDIR
1011
3281.56718498493
1021
-2756.273790756372
1031
0.0
1002
}
1002
{
1000
PXDIR
1011
3701.56718498493
1021
-3053.273790756371
1031
0.0
1002
}
1002
{
1000
PORI
1011
3281.56718498493
1021
-3053.273790756371
1031
0.0
1002
}
1002
{
1000
PINS
1011
3491.56718498493
1021
-2904.773790756371
1031
0.0
1002
}
1002
{
1000
HVAL
1000
297
1002
}
1002
{
1000
H
1070
     2
1002
}
1002
{
1000
WVAL
1000
420
1002
}
1002
{
1000
W
1070
     2
1002
}
1002
{
1000
C
1070
     4
1002
}
1001
GENIUS_GENOBJ-N-REC_13
1002
{
1000
OWNER
1000
GEN
1002
}
1001
GENIUS_GENODEF_13
1002
{
1000
HIER
1070
     0
1002
}
1002
{
1000
MANEDIT
1070
     0
1002
}
1002
{
1000
NOSEL
1070
     0
1002
}
1002
{
1000
BEHIND
1070
     0
1002
}
1002
{
1000
OTHER
1070
     0
1002
}
1002
{
1000
REACTOR
1002
}
  0
LINE
  5
4A4DE
330
1F
100
AcDbEntity
  8
size
100
AcDbLine
 10
3701.56718498493
 20
-3053.273790756371
 30
0.0
 11
3701.56718498493
 21
-2756.273790756372
 31
0.0
1001
GENIUS_GENREC_14
1002
{
1000
PYDIR
1011
3281.56718498493
1021
-2756.273790756372
1031
0.0
1002
}
1002
{
1000
PXDIR
1011
3701.56718498493
1021
-3053.273790756371
1031
0.0
1002
}
1002
{
1000
PORI
1011
3281.56718498493
1021
-3053.273790756371
1031
0.0
1002
}
1002
{
1000
PINS
1011
3491.56718498493
1021
-2904.773790756371
1031
0.0
1002
}
1002
{
1000
HVAL
1000
297
1002
}
1002
{
1000
H
1070
     2
1002
}
1002
{
1000
WVAL
1000
420
1002
}
1002
{
1000
W
1070
     2
1002
}
1002
{
1000
C
1070
     4
1002
}
1001
GENIUS_GENOBJ-N-REC_13
1002
{
1000
OWNER
1000
GEN
1002
}
1001
GENIUS_GENODEF_13
1002
{
1000
HIER
1070
     0
1002
}
1002
{
1000
MANEDIT
1070
     0
1002
}
1002
{
1000
NOSEL
1070
     0
1002
}
1002
{
1000
BEHIND
1070
     0
1002
}
1002
{
1000
OTHER
1070
     0
1002
}
1002
{
1000
REACTOR
1002
}
  0
LINE
  5
4A4DF
330
1F
100
AcDbEntity
  8
size
100
AcDbLine
 10
3701.56718498493
 20
-2756.273790756372
 30
0.0
 11
3281.56718498493
 21
-2756.273790756372
 31
0.0
1001
GENIUS_GENREC_14
1002
{
1000
PYDIR
1011
3281.56718498493
1021
-2756.273790756372
1031
0.0
1002
}
1002
{
1000
PXDIR
1011
3701.56718498493
1021
-3053.273790756371
1031
0.0
1002
}
1002
{
1000
PORI
1011
3281.56718498493
1021
-3053.273790756371
1031
0.0
1002
}
1002
{
1000
PINS
1011
3491.56718498493
1021
-2904.773790756371
1031
0.0
1002
}
1002
{
1000
HVAL
1000
297
1002
}
1002
{
1000
H
1070
     2
1002
}
1002
{
1000
WVAL
1000
420
1002
}
1002
{
1000
W
1070
     2
1002
}
1002
{
1000
C
1070
     4
1002
}
1001
GENIUS_GENOBJ-N-REC_13
1002
{
1000
OWNER
1000
GEN
1002
}
1001
GENIUS_GENODEF_13
1002
{
1000
HIER
1070
     0
1002
}
1002
{
1000
MANEDIT
1070
     0
1002
}
1002
{
1000
NOSEL
1070
     0
1002
}
1002
{
1000
BEHIND
1070
     0
1002
}
1002
{
1000
OTHER
1070
     0
1002
}
1002
{
1000
REACTOR
1002
}
  0
LINE
  5
4A4E0
330
1F
100
AcDbEntity
  8
size
100
AcDbLine
 10
3281.56718498493
 20
-2756.273790756372
 30
0.0
 11
3281.56718498493
 21
-3053.273790756371
 31
0.0
1001
GENIUS_GENREC_14
1002
{
1000
PYDIR
1011
3281.56718498493
1021
-2756.273790756372
1031
0.0
1002
}
1002
{
1000
PXDIR
1011
3701.56718498493
1021
-3053.273790756371
1031
0.0
1002
}
1002
{
1000
PORI
1011
3281.56718498493
1021
-3053.273790756371
1031
0.0
1002
}
1002
{
1000
PINS
1011
3491.56718498493
1021
-2904.773790756371
1031
0.0
1002
}
1002
{
1000
HVAL
1000
297
1002
}
1002
{
1000
H
1070
     2
1002
}
1002
{
1000
WVAL
1000
420
1002
}
1002
{
1000
W
1070
     2
1002
}
1002
{
1000
C
1070
     4
1002
}
1001
GENIUS_GENOBJ-N-REC_13
1002
{
1000
OWNER
1000
GEN
1002
}
1001
GENIUS_GENODEF_13
1002
{
1000
HIER
1070
     0
1002
}
1002
{
1000
MANEDIT
1070
     0
1002
}
1002
{
1000
NOSEL
1070
     0
1002
}
1002
{
1000
BEHIND
1070
     0
1002
}
1002
{
1000
OTHER
1070
     0
1002
}
1002
{
1000
REACTOR
1002
}
  0
LINE
  5
4A4E1
330
1F
100
AcDbEntity
  8
waku
100
AcDbLine
 10
3690.06718498493
 20
-3044.773790756372
 30
0.0
 11
3690.06718498493
 21
-2764.773790756372
 31
0.0
1001
GENIUS_GENREC_14
1002
{
1000
PYDIR
1011
3281.56718498493
1021
-2756.273790756372
1031
0.0
1002
}
1002
{
1000
PXDIR
1011
3701.56718498493
1021
-3053.273790756371
1031
0.0
1002
}
1002
{
1000
PORI
1011
3281.56718498493
1021
-3053.273790756371
1031
0.0
1002
}
1002
{
1000
PINS
1011
3491.56718498493
1021
-2904.773790756371
1031
0.0
1002
}
1002
{
1000
HVAL
1000
297
1002
}
1002
{
1000
H
1070
     2
1002
}
1002
{
1000
WVAL
1000
420
1002
}
1002
{
1000
W
1070
     2
1002
}
1002
{
1000
C
1070
     4
1002
}
1001
GENIUS_GENOBJ-N-REC_13
1002
{
1000
OWNER
1000
GEN
1002
}
1001
GENIUS_GENODEF_13
1002
{
1000
HIER
1070
     0
1002
}
1002
{
1000
MANEDIT
1070
     0
1002
}
1002
{
1000
NOSEL
1070
     0
1002
}
1002
{
1000
BEHIND
1070
     0
1002
}
1002
{
1000
OTHER
1070
     0
1002
}
1002
{
1000
REACTOR
1002
}
  0
LINE
  5
4A4E2
330
1F
100
AcDbEntity
  8
waku
100
AcDbLine
 10
3293.067184984931
 20
-2764.773790756372
 30
0.0
 11
3293.06718498493
 21
-3044.77379075637
 31
0.0
1001
GENIUS_GENREC_14
1002
{
1000
PYDIR
1011
3281.56718498493
1021
-2756.273790756372
1031
0.0
1002
}
1002
{
1000
PXDIR
1011
3701.56718498493
1021
-3053.273790756371
1031
0.0
1002
}
1002
{
1000
PORI
1011
3281.56718498493
1021
-3053.273790756371
1031
0.0
1002
}
1002
{
1000
PINS
1011
3491.56718498493
1021
-2904.773790756371
1031
0.0
1002
}
1002
{
1000
HVAL
1000
297
1002
}
1002
{
1000
H
1070
     2
1002
}
1002
{
1000
WVAL
1000
420
1002
}
1002
{
1000
W
1070
     2
1002
}
1002
{
1000
C
1070
     4
1002
}
1001
GENIUS_GENOBJ-N-REC_13
1002
{
1000
OWNER
1000
GEN
1002
}
1001
GENIUS_GENODEF_13
1002
{
1000
HIER
1070
     0
1002
}
1002
{
1000
MANEDIT
1070
     0
1002
}
1002
{
1000
NOSEL
1070
     0
1002
}
1002
{
1000
BEHIND
1070
     0
1002
}
1002
{
1000
OTHER
1070
     0
1002
}
1002
{
1000
REACTOR
1002
}
  0
LINE
  5
4A4E3
330
1F
100
AcDbEntity
  8
waku
100
AcDbLine
 10
3690.06718498493
 20
-2764.773790756372
 30
0.0
 11
3293.067184984931
 21
-2764.773790756372
 31
0.0
1001
GENIUS_GENREC_14
1002
{
1000
PYDIR
1011
3281.56718498493
1021
-2756.273790756372
1031
0.0
1002
}
1002
{
1000
PXDIR
1011
3701.56718498493
1021
-3053.273790756371
1031
0.0
1002
}
1002
{
1000
PORI
1011
3281.56718498493
1021
-3053.273790756371
1031
0.0
1002
}
1002
{
1000
PINS
1011
3491.56718498493
1021
-2904.773790756371
1031
0.0
1002
}
1002
{
1000
HVAL
1000
297
1002
}
1002
{
1000
H
1070
     2
1002
}
1002
{
1000
WVAL
1000
420
1002
}
1002
{
1000
W
1070
     2
1002
}
1002
{
1000
C
1070
     4
1002
}
1001
GENIUS_GENOBJ-N-REC_13
1002
{
1000
OWNER
1000
GEN
1002
}
1001
GENIUS_GENODEF_13
1002
{
1000
HIER
1070
     0
1002
}
1002
{
1000
MANEDIT
1070
     0
1002
}
1002
{
1000
NOSEL
1070
     0
1002
}
1002
{
1000
BEHIND
1070
     0
1002
}
1002
{
1000
OTHER
1070
     0
1002
}
1002
{
1000
REACTOR
1002
}
  0
LINE
  5
4A4E4
330
1F
100
AcDbEntity
  8
waku
100
AcDbLine
 10
3293.067184984931
 20
-3044.773790756372
 30
0.0
 11
3690.06718498493
 21
-3044.773790756372
 31
0.0
  0
MTEXT
  5
4A609
330
1F
100
AcDbEntity
  8
AM_6
100
AcDbMText
 10
3313.06718498493
 20
-2768.773790756372
 30
0.0
 40
3.2
 41
90.0
 71
     4
 72
     5
  1
　　重量用平型丁番
 73
     1
 44
1.0
1001
ACAD
1000
MTEXTBEGIN
1070
    73
1070
     1
1070
    44
1040
1.0
1070
    74
1070
     0
1000
MTEXTEND
  0
MTEXT
  5
4A60A
330
1F
100
AcDbEntity
  8
AM_6
100
AcDbMText
 10
3313.06718498493
 20
-2776.773790756371
 30
0.0
 40
3.2
 41
90.0
 71
     4
 72
     5
  1
　　DEH-24
 73
     1
 44
1.0
1001
ACAD
1000
MTEXTBEGIN
1070
    73
1070
     1
1070
    44
1040
1.0
1070
    74
1070
     0
1000
MTEXTEND
  0
MTEXT
  5
4A60B
330
1F
100
AcDbEntity
  8
AM_6
100
AcDbMText
 10
3313.06718498493
 20
-2784.773790756372
 30
0.0
 40
3.2
 41
90.0
 71
     4
 72
     5
  1
　　スチール
 73
     1
 44
1.0
1001
ACAD
1000
MTEXTBEGIN
1070
    73
1070
     1
1070
    44
1040
1.0
1070
    74
1070
     0
1000
MTEXTEND
  0
MTEXT
  5
4A60C
330
1F
100
AcDbEntity
  8
AM_6
100
AcDbMText
 10
3313.06718498493
 20
-2792.773790756371
 30
0.0
 40
3.2
 41
90.0
 71
     4
 72
     5
  1
　　有色クロメート
 73
     1
 44
1.0
1001
ACAD
1000
MTEXTBEGIN
1070
    73
1070
     1
1070
    44
1040
1.0
1070
    74
1070
     0
1000
MTEXTEND
  0
MTEXT
  5
4A60D
330
1F
100
AcDbEntity
  8
AM_6
100
AcDbMText
 10
3313.06718498493
 20
-2800.773790756372
 30
0.0
 40
3.2
 41
90.0
 71
     4
 72
     5
  1
　　左右勝手無し
 73
     1
 44
1.0
1001
ACAD
1000
MTEXTBEGIN
1070
    73
1070
     1
1070
    44
1040
1.0
1070
    74
1070
     0
1000
MTEXTEND
  0
MTEXT
  5
4A60E
330
1F
100
AcDbEntity
  8
AM_6
100
AcDbMText
 10
3313.06718498493
 20
-2808.773790756371
 30
0.0
 40
3.2
 41
90.0
 71
     4
 72
     5
  1
　　無し
 73
     1
 44
1.0
1001
ACAD
1000
MTEXTBEGIN
1070
    73
1070
     1
1070
    44
1040
1.0
1070
    74
1070
     0
1000
MTEXTEND
  0
LINE
  5
4A60F
330
1F
100
AcDbEntity
  8
AM_0
100
AcDbLine
 10
3352.99218498493
 20
-3009.073790756367
 30
0.0
 11
3293.06718498493
 21
-3009.073790756369
 31
0.0
  0
LINE
  5
4A610
330
1F
100
AcDbEntity
  8
AM_0
100
AcDbLine
 10
3352.99218498493
 20
-3017.998790756368
 30
0.0
 11
3293.06718498493
 21
-3017.998790756367
 31
0.0
  0
LINE
  5
4A611
330
1F
100
AcDbEntity
  8
AM_4
100
AcDbLine
 10
3352.99218498493
 20
-3026.923790756369
 30
0.0
 11
3293.06718498493
 21
-3026.923790756367
 31
0.0
  0
LINE
  5
4A612
330
1F
100
AcDbEntity
  8
AM_4
100
AcDbLine
 10
3352.99218498493
 20
-3035.84879075637
 30
0.0
 11
3293.06718498493
 21
-3035.848790756368
 31
0.0
  0
LINE
  5
4A613
330
1F
100
AcDbEntity
  8
AM_0
100
AcDbLine
 10
3352.99218498493
 20
-3044.773790756372
 30
0.0
 11
3293.06718498493
 21
-3044.77379075637
 31
0.0
  0
LINE
  5
4A614
330
1F
100
AcDbEntity
  8
AM_0
100
AcDbLine
 10
3293.06718498493
 20
-3009.073790756369
 30
0.0
 11
3293.06718498493
 21
-3044.77379075637
 31
0.0
  0
LINE
  5
4A615
330
1F
100
AcDbEntity
  8
AM_0
100
AcDbLine
 10
3322.39218498493
 20
-3009.073790756369
 30
0.0
 11
3322.39218498493
 21
-3044.773790756372
 31
0.0
  0
MTEXT
  5
4A616
330
1F
100
AcDbEntity
  8
AM_6
100
AcDbMText
 10
3307.72968498493
 20
-3013.536290756368
 30
0.0
 40
3.2
 41
29.32499999999977
 71
     5
 72
     5
  1
品番
 73
     1
 44
1.0
1001
ACAD
1000
MTEXTBEGIN
1070
    73
1070
     1
1070
    44
1040
1.0
1070
    74
1070
     0
1000
MTEXTEND
  0
MTEXT
  5
4A617
330
1F
100
AcDbEntity
  8
AM_6
100
AcDbMText
 10
3327.49218498493
 20
-3013.536290756368
 30
0.0
 40
3.2
 41
10.20000000000014
 71
     5
 72
     5
  1
A
 73
     1
 44
1.0
1001
ACAD
1000
MTEXTBEGIN
1070
    73
1070
     1
1070
    44
1040
1.0
1070
    74
1070
     0
1000
MTEXTEND
  0
MTEXT
  5
4A618
330
1F
100
AcDbEntity
  8
AM_6
100
AcDbMText
 10
3307.72968498493
 20
-3022.461290756368
 30
0.0
 40
3.2
 41
29.32499999999999
 71
     5
 72
     5
  1
DEH-24-1
 73
     1
 44
1.0
1001
ACAD
1000
MTEXTBEGIN
1070
    73
1070
     1
1070
    44
1040
1.0
1070
    74
1070
     0
1000
MTEXTEND
1000
ACAD_MTEXT_DEFINED_HEIGHT_BEGIN
1070
    46
1040
7.000000000000069
1000
ACAD_MTEXT_DEFINED_HEIGHT_END
  0
LINE
  5
4A619
330
1F
100
AcDbEntity
  8
AM_4
100
AcDbLine
 10
3332.59218498493
 20
-3009.073790756369
 30
0.0
 11
3332.59218498493
 21
-3044.773790756372
 31
0.0
  0
LINE
  5
4A61A
330
1F
100
AcDbEntity
  8
AM_0
100
AcDbLine
 10
3352.99218498493
 20
-3009.073790756369
 30
0.0
 11
3352.99218498493
 21
-3044.773790756373
 31
0.0
  0
LINE
  5
4A61B
330
1F
100
AcDbEntity
  8
AM_5
100
AcDbLine
 10
3342.79218498493
 20
-3009.073790756369
 30
0.0
 11
3342.79218498493
 21
-3044.773790756373
 31
0.0
  0
MTEXT
  5
4A61C
330
1F
100
AcDbEntity
  8
AM_6
100
AcDbMText
 10
3337.69218498493
 20
-3013.536290756368
 30
0.0
 40
3.2
 41
10.20000000000014
 71
     5
 72
     5
  1
B
 73
     1
 44
1.0
1001
ACAD
1000
MTEXTBEGIN
1070
    73
1070
     1
1070
    44
1040
1.0
1070
    74
1070
     0
1000
MTEXTEND
  0
MTEXT
  5
4A61D
330
1F
100
AcDbEntity
  8
AM_6
100
AcDbMText
 10
3327.492184984929
 20
-3040.311290756366
 30
0.0
 40
3.2
 41
10.20000000000018
 71
     5
 72
     5
  1
100
 73
     1
 44
1.0
1001
ACAD
1000
MTEXTBEGIN
1070
    73
1070
     1
1070
    44
1040
1.0
1070
    74
1070
     0
1000
MTEXTEND
1000
ACAD_MTEXT_DEFINED_HEIGHT_BEGIN
1070
    46
1040
6.9999999999995
1000
ACAD_MTEXT_DEFINED_HEIGHT_END
  0
MTEXT
  5
4A61E
330
1F
100
AcDbEntity
  8
AM_6
100
AcDbMText
 10
3327.49218498493
 20
-3031.386290756367
 30
0.0
 40
3.2
 41
10.20000000000014
 71
     5
 72
     5
  1
90
 73
     1
 44
1.0
1001
ACAD
1000
MTEXTBEGIN
1070
    73
1070
     1
1070
    44
1040
1.0
1070
    74
1070
     0
1000
MTEXTEND
1000
ACAD_MTEXT_DEFINED_HEIGHT_BEGIN
1070
    46
1040
6.999999999999273
1000
ACAD_MTEXT_DEFINED_HEIGHT_END
  0
MTEXT
  5
4A61F
330
1F
100
AcDbEntity
  8
AM_6
100
AcDbMText
 10
3327.49218498493
 20
-3022.461290756368
 30
0.0
 40
3.2
 41
10.2
 71
     5
 72
     5
  1
60
 73
     1
 44
1.0
1001
ACAD
1000
MTEXTBEGIN
1070
    73
1070
     1
1070
    44
1040
1.0
1070
    74
1070
     0
1000
MTEXTEND
1000
ACAD_MTEXT_DEFINED_HEIGHT_BEGIN
1070
    46
1040
7.000000000001092
1000
ACAD_MTEXT_DEFINED_HEIGHT_END
  0
MTEXT
  5
4A620
330
1F
100
AcDbEntity
  8
AM_6
100
AcDbMText
 10
3347.892184984929
 20
-3040.311290756368
 30
0.0
 40
3.2
 41
10.20000000000007
 71
     5
 72
     5
  1
5
 73
     1
 44
1.0
1001
ACAD
1000
MTEXTBEGIN
1070
    73
1070
     1
1070
    44
1040
1.0
1070
    74
1070
     0
1000
MTEXTEND
1000
ACAD_MTEXT_DEFINED_HEIGHT_BEGIN
1070
    46
1040
6.999999999998363
1000
ACAD_MTEXT_DEFINED_HEIGHT_END
  0
MTEXT
  5
4A621
330
1F
100
AcDbEntity
  8
AM_6
100
AcDbMText
 10
3347.892184984929
 20
-3031.386290756367
 30
0.0
 40
3.2
 41
10.19999999999985
 71
     5
 72
     5
  1
5
 73
     1
 44
1.0
1001
ACAD
1000
MTEXTBEGIN
1070
    73
1070
     1
1070
    44
1040
1.0
1070
    74
1070
     0
1000
MTEXTEND
1000
ACAD_MTEXT_DEFINED_HEIGHT_BEGIN
1070
    46
1040
7.000000000001092
1000
ACAD_MTEXT_DEFINED_HEIGHT_END
  0
MTEXT
  5
4A622
330
1F
100
AcDbEntity
  8
AM_6
100
AcDbMText
 10
3347.892184984929
 20
-3022.46129075637
 30
0.0
 40
3.2
 41
10.19999999999978
 71
     5
 72
     5
  1
3
 73
     1
 44
1.0
1001
ACAD
1000
MTEXTBEGIN
1070
    73
1070
     1
1070
    44
1040
1.0
1070
    74
1070
     0
1000
MTEXTEND
1000
ACAD_MTEXT_DEFINED_HEIGHT_BEGIN
1070
    46
1040
7.000000000001547
1000
ACAD_MTEXT_DEFINED_HEIGHT_END
  0
MTEXT
  5
4A623
330
1F
100
AcDbEntity
  8
AM_6
100
AcDbMText
 10
3337.69218498493
 20
-3040.31129075637
 30
0.0
 40
3.2
 41
10.19999999999992
 71
     5
 72
     5
  1
80
 73
     1
 44
1.0
1001
ACAD
1000
MTEXTBEGIN
1070
    73
1070
     1
1070
    44
1040
1.0
1070
    74
1070
     0
1000
MTEXTEND
1000
ACAD_MTEXT_DEFINED_HEIGHT_BEGIN
1070
    46
1040
6.999999999998363
1000
ACAD_MTEXT_DEFINED_HEIGHT_END
  0
MTEXT
  5
4A624
330
1F
100
AcDbEntity
  8
AM_6
100
AcDbMText
 10
3337.69218498493
 20
-3031.386290756367
 30
0.0
 40
3.2
 41
10.20000000000014
 71
     5
 72
     5
  1
60
 73
     1
 44
1.0
1001
ACAD
1000
MTEXTBEGIN
1070
    73
1070
     1
1070
    44
1040
1.0
1070
    74
1070
     0
1000
MTEXTEND
1000
ACAD_MTEXT_DEFINED_HEIGHT_BEGIN
1070
    46
1040
7.000000000001092
1000
ACAD_MTEXT_DEFINED_HEIGHT_END
  0
MTEXT
  5
4A625
330
1F
100
AcDbEntity
  8
AM_6
100
AcDbMText
 10
3337.69218498493
 20
-3022.461290756366
 30
0.0
 40
3.2
 41
10.20000000000022
 71
     5
 72
     5
  1
50
 73
     1
 44
1.0
1001
ACAD
1000
MTEXTBEGIN
1070
    73
1070
     1
1070
    44
1040
1.0
1070
    74
1070
     0
1000
MTEXTEND
1000
ACAD_MTEXT_DEFINED_HEIGHT_BEGIN
1070
    46
1040
7.000000000001547
1000
ACAD_MTEXT_DEFINED_HEIGHT_END
  0
MTEXT
  5
4A626
330
1F
100
AcDbEntity
  8
AM_6
100
AcDbMText
 10
3347.892184984929
 20
-3013.536290756368
 30
0.0
 40
3.2
 41
10.20000000000014
 71
     5
 72
     5
  1
C
 73
     1
 44
1.0
1001
ACAD
1000
MTEXTBEGIN
1070
    73
1070
     1
1070
    44
1040
1.0
1070
    74
1070
     0
1000
MTEXTEND
  0
MTEXT
  5
4A627
330
1F
100
AcDbEntity
  8
AM_6
100
AcDbMText
 10
3307.72968498493
 20
-3031.386290756369
 30
0.0
 40
3.2
 41
29.32499999999999
 71
     5
 72
     5
  1
DEH-24-2
 73
     1
 44
1.0
1001
ACAD
1000
MTEXTBEGIN
1070
    73
1070
     1
1070
    44
1040
1.0
1070
    74
1070
     0
1000
MTEXTEND
1000
ACAD_MTEXT_DEFINED_HEIGHT_BEGIN
1070
    46
1040
7.000000000000069
1000
ACAD_MTEXT_DEFINED_HEIGHT_END
  0
MTEXT
  5
4A628
330
1F
100
AcDbEntity
  8
AM_6
100
AcDbMText
 10
3307.729684984929
 20
-3040.31129075637
 30
0.0
 40
3.2
 41
29.32499999999999
 71
     5
 72
     5
  1
DEH-24-3
 73
     1
 44
1.0
1001
ACAD
1000
MTEXTBEGIN
1070
    73
1070
     1
1070
    44
1040
1.0
1070
    74
1070
     0
1000
MTEXTEND
1000
ACAD_MTEXT_DEFINED_HEIGHT_BEGIN
1070
    46
1040
7.000000000000069
1000
ACAD_MTEXT_DEFINED_HEIGHT_END
  0
LINE
  5
4ABCE
330
1F
100
AcDbEntity
  8
0部品1
100
AcDbLine
 10
3510.980137716718
 20
-2851.327410686655
 30
0.0
 11
3510.980137716718
 21
-2949.327410686655
 31
0.0
  0
LINE
  5
4ABCF
330
1F
100
AcDbEntity
  8
0部品1
100
AcDbLine
 10
3511.980137716718
 20
-2950.327410686655
 30
0.0
 11
3557.180137716719
 21
-2950.327410686655
 31
0.0
  0
LINE
  5
4ABD0
330
1F
100
AcDbEntity
  8
0部品1
100
AcDbLine
 10
3590.980137716718
 20
-2949.327410686655
 30
0.0
 11
3590.980137716718
 21
-2851.327410686655
 31
0.0
  0
LINE
  5
4ABD1
330
1F
100
AcDbEntity
  8
0部品1
100
AcDbLine
 10
3589.980137716718
 20
-2850.327410686655
 30
0.0
 11
3557.980137716718
 21
-2850.327410686655
 31
0.0
  0
LINE
  5
4ABD2
330
1F
100
AcDbEntity
  8
0部品1
  6
中心線1
 48
0.5
370
    13
100
AcDbLine
 10
3550.980137716718
 20
-2845.327410686655
 30
0.0
 11
3550.980137716718
 21
-2955.327410686655
 31
0.0
  0
LINE
  5
4ABD3
330
1F
100
AcDbEntity
  8
0部品1
100
AcDbLine
 10
3544.780137716718
 20
-2850.327410686655
 30
0.0
 11
3544.780137716718
 21
-2950.327410686655
 31
0.0
  0
LINE
  5
4ABD4
330
1F
100
AcDbEntity
  8
0部品1
100
AcDbLine
 10
3557.180137716719
 20
-2850.327410686655
 30
0.0
 11
3557.180137716719
 21
-2950.327410686655
 31
0.0
  0
LINE
  5
4ABD5
330
1F
100
AcDbEntity
  8
0部品1
100
AcDbLine
 10
3557.980137716718
 20
-2935.327410686655
 30
0.0
 11
3557.980137716718
 21
-2950.327410686655
 31
0.0
  0
LINE
  5
4ABD6
330
1F
100
AcDbEntity
  8
0部品1
100
AcDbLine
 10
3543.980137716718
 20
-2910.327410686655
 30
0.0
 11
3543.980137716718
 21
-2935.327410686655
 31
0.0
  0
LINE
  5
4ABD7
330
1F
100
AcDbEntity
  8
0部品1
100
AcDbLine
 10
3543.980137716718
 20
-2935.327410686655
 30
0.0
 11
3557.980137716718
 21
-2935.327410686655
 31
0.0
  0
LINE
  5
4ABD8
330
1F
100
AcDbEntity
  8
0部品1
100
AcDbLine
 10
3543.980137716718
 20
-2910.327410686655
 30
0.0
 11
3557.980137716718
 21
-2910.327410686655
 31
0.0
  0
LINE
  5
4ABD9
330
1F
100
AcDbEntity
  8
0部品1
100
AcDbLine
 10
3543.980137716718
 20
-2890.327410686655
 30
0.0
 11
3557.980137716718
 21
-2890.327410686655
 31
0.0
  0
LINE
  5
4ABDA
102
{ACAD_REACTORS
330
4ABF8
102
}
330
1F
100
AcDbEntity
  8
0部品1
100
AcDbLine
 10
3557.980137716718
 20
-2890.327410686655
 30
0.0
 11
3557.980137716718
 21
-2910.327410686655
 31
0.0
  0
LINE
  5
4ABDB
330
1F
100
AcDbEntity
  8
0部品1
100
AcDbLine
 10
3543.980137716718
 20
-2865.327410686655
 30
0.0
 11
3557.980137716718
 21
-2865.327410686655
 31
0.0
  0
LINE
  5
4ABDC
330
1F
100
AcDbEntity
  8
0部品1
100
AcDbLine
 10
3543.980137716718
 20
-2865.327410686655
 30
0.0
 11
3543.980137716718
 21
-2890.327410686655
 31
0.0
  0
LINE
  5
4ABDD
330
1F
100
AcDbEntity
  8
0部品1
100
AcDbLine
 10
3557.980137716718
 20
-2850.327410686655
 30
0.0
 11
3557.980137716718
 21
-2865.327410686655
 31
0.0
  0
ARC
  5
4ABDE
330
1F
100
AcDbEntity
  8
0部品1
100
AcDbCircle
 10
3550.980137716718
 20
-2945.082782686654
 30
0.0
 40
7.246110999999999
100
AcDbArc
 50
226.3678869999091
 51
313.6321130000907
  0
ARC
  5
4ABDF
330
1F
100
AcDbEntity
  8
0部品1
100
AcDbCircle
 10
3550.980137716718
 20
-2855.572038686655
 30
0.0
 40
7.246110999999999
100
AcDbArc
 50
46.36788699990929
 51
133.6321130000907
  0
LINE
  5
4ABE0
330
1F
100
AcDbEntity
  8
0部品1
100
AcDbLine
 10
3557.980137716718
 20
-2950.327410686655
 30
0.0
 11
3589.980137716718
 21
-2950.327410686655
 31
0.0
  0
LINE
  5
4ABE1
330
1F
100
AcDbEntity
  8
0部品1
100
AcDbLine
 10
3557.180137716719
 20
-2850.327410686655
 30
0.0
 11
3511.980137716718
 21
-2850.327410686655
 31
0.0
  0
LINE
  5
4ABE2
330
1F
100
AcDbEntity
  8
0部品1
100
AcDbLine
 10
3510.980137716718
 20
-3003.208569194099
 30
0.0
 11
3510.980137716718
 21
-3006.408569194099
 31
0.0
  0
LINE
  5
4ABE3
330
1F
100
AcDbEntity
  8
0部品1
100
AcDbLine
 10
3510.980137716718
 20
-3006.408569194099
 30
0.0
 11
3590.980137716718
 21
-3006.408569194099
 31
0.0
  0
LINE
  5
4ABE4
330
1F
100
AcDbEntity
  8
0部品1
100
AcDbLine
 10
3590.980137716718
 20
-3006.408569194099
 30
0.0
 11
3590.980137716718
 21
-3003.208569194099
 31
0.0
  0
LINE
  5
4ABE5
330
1F
100
AcDbEntity
  8
0部品1
100
AcDbLine
 10
3590.980137716718
 20
-3003.208569194099
 30
0.0
 11
3556.406001703218
 21
-3003.208569194099
 31
0.0
  0
LINE
  5
4ABE6
330
1F
100
AcDbEntity
  8
0部品1
  6
中心線1
 48
0.5
370
    13
100
AcDbLine
 10
3550.980137716718
 20
-2992.208569194099
 30
0.0
 11
3550.980137716718
 21
-3008.208569194099
 31
0.0
  0
LINE
  5
4ABE7
330
1F
100
AcDbEntity
  8
0部品1
  6
中心線1
 48
0.5
370
    13
100
AcDbLine
 10
3542.980137716718
 20
-3000.208569194099
 30
0.0
 11
3558.980137716718
 21
-3000.208569194099
 31
0.0
  0
ARC
  5
4ABE8
330
1F
100
AcDbEntity
  8
0部品1
100
AcDbCircle
 10
3550.980137716718
 20
-3000.208569194099
 30
0.0
 40
6.2
100
AcDbArc
 50
270.0
 51
208.9385277402044
  0
CIRCLE
  5
4ABE9
102
{ACAD_REACTORS
330
4ABFE
102
}
330
1F
100
AcDbEntity
  8
0部品1
  6
陰線1
 48
0.5
370
    13
100
AcDbCircle
 10
3550.980137716718
 20
-3000.208569194099
 30
0.0
 40
3.0
  0
CIRCLE
  5
4ABEA
330
1F
100
AcDbEntity
  8
0部品1
  6
陰線1
 48
0.5
370
    13
100
AcDbCircle
 10
3550.980137716718
 20
-3000.208569194099
 30
0.0
 40
3.2
  0
LINE
  5
4ABEB
330
1F
100
AcDbEntity
  8
0部品1
100
AcDbLine
 10
3545.554273730218
 20
-3003.208569194099
 30
0.0
 11
3546.593725232102
 21
-3002.608441540854
 31
0.0
  0
LINE
  5
4ABEC
330
1F
100
AcDbEntity
  8
0部品1
  6
陰線1
 48
0.5
370
    13
100
AcDbLine
 10
3546.593725232101
 20
-3002.608441540854
 30
0.0
 11
3548.153214134027
 21
-3001.708070130287
 31
0.0
  0
LINE
  5
4ABED
330
1F
100
AcDbEntity
  8
0部品1
  6
陰線1
 48
0.5
370
    13
100
AcDbLine
 10
3550.980137716718
 20
-3003.208569194099
 30
0.0
 11
3546.980137495977
 21
-3003.208569194099
 31
0.0
  0
LINE
  5
4ABEE
330
1F
100
AcDbEntity
  8
0部品1
100
AcDbLine
 10
3546.980137495977
 20
-3003.208569194099
 30
0.0
 11
3510.980137716718
 21
-3003.208569194099
 31
0.0
  0
LINE
  5
4ABEF
330
1F
100
AcDbEntity
  8
0部品1
100
AcDbLine
 10
3557.980137716718
 20
-3003.208569194099
 30
0.0
 11
3557.980137716718
 21
-3006.408569194099
 31
0.0
  0
ARC
  5
4ABF0
330
1F
100
AcDbEntity
  8
0部品1
100
AcDbCircle
 10
3589.980137716718
 20
-2851.327410686655
 30
0.0
 40
1.0
100
AcDbArc
 50
0.0
 51
90.0
  0
ARC
  5
4ABF1
330
1F
100
AcDbEntity
  8
0部品1
100
AcDbCircle
 10
3511.980137716718
 20
-2851.327410686655
 30
0.0
 40
1.0
100
AcDbArc
 50
90.0
 51
180.0
  0
ARC
  5
4ABF2
330
1F
100
AcDbEntity
  8
0部品1
100
AcDbCircle
 10
3511.980137716718
 20
-2949.327410686655
 30
0.0
 40
1.0
100
AcDbArc
 50
180.0
 51
270.0
  0
ARC
  5
4ABF3
330
1F
100
AcDbEntity
  8
0部品1
100
AcDbCircle
 10
3589.980137716718
 20
-2949.327410686655
 30
0.0
 40
1.0
100
AcDbArc
 50
270.0
 51
0.0
  0
DIMENSION
  5
4ABF4
330
1F
100
AcDbEntity
  8
AM_5
100
AcDbDimension
  2
*D51
 10
3590.980137716718
 20
-2840.325927686655
 30
0.0
 11
3550.980137716718
 21
-2840.325927686655
 31
0.0
 70
   160
  1
B
 71
     5
 42
80.00000000000046
  3
SYS$0
100
AcDbAlignedDimension
 13
3510.980137716718
 23
-2850.327410686655
 33
0.0
 14
3590.980137716718
 24
-2850.327410686655
 34
0.0
100
AcDbRotatedDimension
1001
ACAD
1000
DSTYLE
1002
{
1070
    47
1040
0.2
1070
    48
1040
-0.2
1070
   271
1070
     1
1002
}
  0
DIMENSION
  5
4ABF5
330
1F
100
AcDbEntity
  8
AM_5
100
AcDbDimension
  2
*D52
 10
3502.980137716718
 20
-2850.327410686655
 30
0.0
 11
3502.980137716718
 21
-2900.327410686655
 31
0.0
 70
   160
  1
A
 71
     5
 42
100.0
  3
SYS$0
100
AcDbAlignedDimension
 13
3510.980137716718
 23
-2950.327410686655
 33
0.0
 14
3510.980137716718
 24
-2850.327410686655
 34
0.0
 50
270.0
100
AcDbRotatedDimension
1001
ACAD
1000
DSTYLE
1002
{
1070
    47
1040
0.2
1070
    48
1040
-0.2
1070
   271
1070
     1
1002
}
  0
DIMENSION
  5
4ABF6
102
{ACAD_XDICTIONARY
360
4ABF7
102
}
102
{ACAD_REACTORS
330
4ABF8
102
}
330
1F
100
AcDbEntity
  8
AM_5
100
AcDbDimension
  2
*D57
 10
3598.980137716718
 20
-2890.327410686655
 30
0.0
 11
3598.980137716718
 21
-2900.327410686655
 31
0.0
 70
   160
  1
C：割り数
 71
     5
 42
20.0
  3
SYS$0
100
AcDbAlignedDimension
 13
3557.980137716718
 23
-2910.327410686655
 33
0.0
 14
3557.980137716718
 24
-2890.327410686655
 34
0.0
 50
270.0
100
AcDbRotatedDimension
1001
ACAD
1000
DSTYLE
1002
{
1070
    47
1040
0.2
1070
    48
1040
-0.2
1070
   271
1070
     1
1002
}
  0
CIRCLE
  5
4ABF9
330
1F
100
AcDbEntity
  8
0部品1
100
AcDbCircle
 10
3550.980137716719
 20
-3000.208569194099
 30
0.0
 40
5.000000176593289
  0
DIMENSION
  5
4ABFA
330
1F
100
AcDbEntity
  8
AM_5
100
AcDbDimension
  2
*D53
 10
3502.980137716715
 20
-3006.408569194099
 30
0.0
 11
3502.980137716715
 21
-3011.755235860765
 31
0.0
 70
   160
 71
     5
 42
3.200000000000727
  3
SYS$0
100
AcDbAlignedDimension
 13
3510.980137716718
 23
-3003.208569194099
 33
0.0
 14
3510.980137716718
 24
-3006.408569194099
 34
0.0
 50
270.0
100
AcDbRotatedDimension
1001
ACAD
1000
DSTYLE
1002
{
1070
    47
1040
0.2
1070
    48
1040
-0.2
1070
   271
1070
     1
1002
}
  0
DIMENSION
  5
4ABFB
330
1F
100
AcDbEntity
  8
AM_5
100
AcDbDimension
  2
*D54
 10
3557.180137716719
 20
-2978.208569194098
 30
0.0
 11
3550.980137716719
 21
-2978.208569194098
 31
0.0
 70
   160
  1
（%%c13）
 71
     5
 42
12.40000000000009
  3
SYS$0
100
AcDbAlignedDimension
 13
3544.780137716718
 23
-3000.208569194099
 33
0.0
 14
3557.180137716719
 24
-3000.208569194099
 34
0.0
100
AcDbRotatedDimension
1001
ACAD
1000
DSTYLE
1002
{
1070
    47
1040
0.2
1070
    48
1040
-0.2
1070
   271
1070
     1
1002
}
  0
DIMENSION
  5
4ABFC
102
{ACAD_XDICTIONARY
360
4ABFD
102
}
102
{ACAD_REACTORS
330
4ABFE
102
}
330
1F
100
AcDbEntity
  8
AM_5
100
AcDbDimension
  2
*D58
 10
3553.980137716718
 20
-2986.208569194099
 30
0.0
 11
3550.980137716718
 21
-2986.208569194099
 31
0.0
 70
   160
  1
%%c<>
 71
     5
 42
6.0
  3
SYS$0
100
AcDbAlignedDimension
 13
3547.980137716718
 23
-3000.208569194099
 33
0.0
 14
3553.980137716718
 24
-3000.208569194099
 34
0.0
100
AcDbRotatedDimension
1001
ACAD
1000
DSTYLE
1002
{
1070
    47
1040
0.2
1070
    48
1040
-0.2
1070
   271
1070
     1
1002
}
  0
LINE
  5
4ABFF
330
1F
100
AcDbEntity
  8
0部品20
100
AcDbLine
 10
3414.993388072022
 20
-2850.327410686655
 30
0.0
 11
3445.493388072021
 21
-2850.327410686655
 31
0.0
  0
LINE
  5
4AC00
330
1F
100
AcDbEntity
  8
0部品20
100
AcDbLine
 10
3464.493388072022
 20
-2850.827410686655
 30
0.0
 11
3464.493388072022
 21
-2909.827410686655
 31
0.0
  0
LINE
  5
4AC01
330
1F
100
AcDbEntity
  8
0部品20
100
AcDbLine
 10
3463.993388072021
 20
-2910.327410686655
 30
0.0
 11
3446.493388072022
 21
-2910.327410686655
 31
0.0
  0
LINE
  5
4AC02
330
1F
100
AcDbEntity
  8
0部品20
100
AcDbLine
 10
3414.493388072022
 20
-2909.827410686655
 30
0.0
 11
3414.493388072022
 21
-2850.827410686655
 31
0.0
  0
ARC
  5
4AC03
330
1F
100
AcDbEntity
  8
0部品20
100
AcDbCircle
 10
3463.993388072021
 20
-2850.827410686655
 30
0.0
 40
0.5
100
AcDbArc
 50
0.0
 51
90.0
  0
ARC
  5
4AC04
330
1F
100
AcDbEntity
  8
0部品20
100
AcDbCircle
 10
3463.993388072021
 20
-2909.827410686655
 30
0.0
 40
0.5
100
AcDbArc
 50
270.0
 51
0.0
  0
LINE
  5
4AC05
330
1F
100
AcDbEntity
  8
0部品20
100
AcDbLine
 10
3433.493388072021
 20
-2850.327410686655
 30
0.0
 11
3433.493388072021
 21
-2910.327410686655
 31
0.0
  0
LINE
  5
4AC06
330
1F
100
AcDbEntity
  8
0部品20
100
AcDbLine
 10
3445.493388072021
 20
-2850.327410686655
 30
0.0
 11
3445.493388072021
 21
-2910.327410686655
 31
0.0
  0
LINE
  5
4AC07
330
1F
100
AcDbEntity
  8
0部品20
  6
中心線1
 48
0.5
370
    13
100
AcDbLine
 10
3439.493388072022
 20
-2844.827410760676
 30
0.0
 11
3439.493388072022
 21
-2915.827410686004
 31
0.0
  0
ARC
  5
4AC08
330
1F
100
AcDbEntity
  8
0部品20
100
AcDbCircle
 10
3414.993388072022
 20
-2909.827410686655
 30
0.0
 40
0.5
100
AcDbArc
 50
180.0
 51
270.0
  0
ARC
  5
4AC09
330
1F
100
AcDbEntity
  8
0部品20
100
AcDbCircle
 10
3414.993388072022
 20
-2850.827410686655
 30
0.0
 40
0.5
100
AcDbArc
 50
90.0
 51
180.0
  0
LINE
  5
4AC0A
330
1F
100
AcDbEntity
  8
0部品20
100
AcDbLine
 10
3446.493388072022
 20
-2850.327410686655
 30
0.0
 11
3446.493388072022
 21
-2868.327410686655
 31
0.0
  0
LINE
  5
4AC0B
330
1F
100
AcDbEntity
  8
0部品20
100
AcDbLine
 10
3446.493388072022
 20
-2868.327410686655
 30
0.0
 11
3432.493388072022
 21
-2868.327410686655
 31
0.0
  0
LINE
  5
4AC0C
330
1F
100
AcDbEntity
  8
0部品20
100
AcDbLine
 10
3432.493388072022
 20
-2868.327410686655
 30
0.0
 11
3432.493388072022
 21
-2892.327410686655
 31
0.0
  0
LINE
  5
4AC0D
330
1F
100
AcDbEntity
  8
0部品20
100
AcDbLine
 10
3432.493388072022
 20
-2892.327410686655
 30
0.0
 11
3446.493388072022
 21
-2892.327410686655
 31
0.0
  0
LINE
  5
4AC0E
330
1F
100
AcDbEntity
  8
0部品20
100
AcDbLine
 10
3446.493388072022
 20
-2892.327410686655
 30
0.0
 11
3446.493388072022
 21
-2910.327410686655
 31
0.0
  0
LINE
  5
4AC0F
330
1F
100
AcDbEntity
  8
0部品20
100
AcDbLine
 10
3446.493388072022
 20
-2850.327410686655
 30
0.0
 11
3463.993388072021
 21
-2850.327410686655
 31
0.0
  0
LINE
  5
4AC10
330
1F
100
AcDbEntity
  8
0部品20
100
AcDbLine
 10
3445.493388072021
 20
-2910.327410686655
 30
0.0
 11
3414.993388072022
 21
-2910.327410686655
 31
0.0
  0
ARC
  5
4AC11
330
1F
100
AcDbEntity
  8
0部品20
100
AcDbCircle
 10
3439.493388072022
 20
-2853.401910686655
 30
0.0
 40
5.574499999999999
100
AcDbArc
 50
33.47199200001231
 51
146.5280079999877
  0
ARC
  5
4AC12
330
1F
100
AcDbEntity
  8
0部品20
100
AcDbCircle
 10
3439.493388072022
 20
-2907.252910686655
 30
0.0
 40
5.574499999999999
100
AcDbArc
 50
213.4719920000123
 51
326.5280079999877
  0
CIRCLE
  5
4AC13
330
1F
100
AcDbEntity
  8
0部品20
  6
陰線1
 48
0.5
370
    13
100
AcDbCircle
 10
3439.493388072022
 20
-2961.860715280122
 30
0.0
 40
3.0
  0
ARC
  5
4AC14
330
1F
100
AcDbEntity
  8
0部品20
100
AcDbCircle
 10
3439.493388072022
 20
-2961.860715280122
 30
0.0
 40
6.0
100
AcDbArc
 50
270.0
 51
209.9999999999969
  0
LINE
  5
4AC15
330
1F
100
AcDbEntity
  8
0部品20
100
AcDbLine
 10
3414.493388072022
 20
-2964.860715280122
 30
0.0
 11
3414.493388072022
 21
-2967.860715280122
 31
0.0
  0
LINE
  5
4AC16
330
1F
100
AcDbEntity
  8
0部品20
100
AcDbLine
 10
3414.493388072022
 20
-2967.860715280122
 30
0.0
 11
3464.493388072022
 21
-2967.860715280122
 31
0.0
  0
LINE
  5
4AC17
330
1F
100
AcDbEntity
  8
0部品20
100
AcDbLine
 10
3464.493388072022
 20
-2967.860715280122
 30
0.0
 11
3464.493388072022
 21
-2964.860715280122
 31
0.0
  0
LINE
  5
4AC18
330
1F
100
AcDbEntity
  8
0部品20
100
AcDbLine
 10
3464.493388072022
 20
-2964.860715280122
 30
0.0
 11
3444.689540072022
 21
-2964.860715280122
 31
0.0
  0
LINE
  5
4AC19
330
1F
100
AcDbEntity
  8
0部品20
100
AcDbLine
 10
3414.493388072022
 20
-2964.860715280122
 30
0.0
 11
3435.49338785128
 21
-2964.860715280122
 31
0.0
  0
LINE
  5
4AC1A
330
1F
100
AcDbEntity
  8
0部品20
100
AcDbLine
 10
3434.297235072022
 20
-2964.860715280122
 30
0.0
 11
3435.163260821563
 21
-2964.360715232274
 31
0.0
  0
LINE
  5
4AC1B
330
1F
100
AcDbEntity
  8
0部品20
  6
中心線1
 48
0.5
370
    13
100
AcDbLine
 10
3431.493388072021
 20
-2961.860715280122
 30
0.0
 11
3447.493388072022
 21
-2961.860715280122
 31
0.0
  0
LINE
  5
4AC1C
330
1F
100
AcDbEntity
  8
0部品20
  6
中心線1
 48
0.5
370
    13
100
AcDbLine
 10
3439.493388072022
 20
-2953.860715280122
 30
0.0
 11
3439.493388072022
 21
-2969.860715280122
 31
0.0
  0
LINE
  5
4AC1D
330
1F
100
AcDbEntity
  8
0部品20
100
AcDbLine
 10
3446.493388072022
 20
-2964.860715280122
 30
0.0
 11
3446.493388072022
 21
-2967.860715280122
 31
0.0
  0
DIMENSION
  5
4AC1E
330
1F
100
AcDbEntity
  8
AM_5
100
AcDbDimension
  2
*D55
 10
3464.493388072022
 20
-2840.325927686656
 30
0.0
 11
3439.493388072022
 21
-2840.325927686656
 31
0.0
 70
   160
  1
B
 71
     5
 42
50.0
  3
SYS$0
100
AcDbAlignedDimension
 13
3414.493388072022
 23
-2850.327410686655
 33
0.0
 14
3464.493388072022
 24
-2850.827410686655
 34
0.0
100
AcDbRotatedDimension
1001
ACAD
1000
DSTYLE
1002
{
1070
    47
1040
0.2
1070
    48
1040
-0.2
1070
   271
1070
     1
1002
}
  0
DIMENSION
  5
4AC1F
330
1F
100
AcDbEntity
  8
AM_5
100
AcDbDimension
  2
*D56
 10
3406.493388072021
 20
-2850.327410686655
 30
0.0
 11
3406.493388072022
 21
-2880.327410686655
 31
0.0
 70
   160
  1
A
 71
     5
 42
59.99999999999954
  3
SYS$0
100
AcDbAlignedDimension
 13
3414.993388072022
 23
-2910.327410686655
 33
0.0
 14
3414.493388072021
 24
-2850.327410686655
 34
0.0
 50
270.0
100
AcDbRotatedDimension
1001
ACAD
1000
DSTYLE
1002
{
1070
    47
1040
0.2
1070
    48
1040
-0.2
1070
   271
1070
     1
1002
}
  0
DIMENSION
  5
4AC20
330
1F
100
AcDbEntity
  8
AM_5
100
AcDbDimension
  2
*D47
 10
3472.493388072021
 20
-2868.327410686655
 30
0.0
 11
3472.493388072022
 21
-2880.327410686655
 31
0.0
 70
   160
  1
C：割り数
 71
     5
 42
24.0
  3
SYS$0
100
AcDbAlignedDimension
 13
3446.493388072022
 23
-2892.327410686655
 33
0.0
 14
3446.493388072022
 24
-2868.327410686655
 34
0.0
 50
270.0
100
AcDbRotatedDimension
1001
ACAD
1000
DSTYLE
1002
{
1070
    47
1040
0.2
1070
    48
1040
-0.2
1070
   271
1070
     1
1002
}
  0
DIMENSION
  5
4AC21
330
1F
100
AcDbEntity
  8
AM_5
100
AcDbDimension
  2
*D48
 10
3445.693388072021
 20
-2939.860715280122
 30
0.0
 11
3439.493388072022
 21
-2939.860715280122
 31
0.0
 70
   160
  1
（%%c13）
 71
     5
 42
12.40000000000009
  3
SYS$0
100
AcDbAlignedDimension
 13
3433.293388072022
 23
-2961.860715280122
 33
0.0
 14
3445.693388072021
 24
-2961.860715280122
 34
0.0
100
AcDbRotatedDimension
1001
ACAD
1000
DSTYLE
1002
{
1070
    47
1040
0.2
1070
    48
1040
-0.2
1070
   271
1070
     1
1002
}
  0
DIMENSION
  5
4AC22
330
1F
100
AcDbEntity
  8
AM_5
100
AcDbDimension
  2
*D49
 10
3442.493388072021
 20
-2947.860715280122
 30
0.0
 11
3439.493388072021
 21
-2947.860715280122
 31
0.0
 70
   160
  1
%%c<>
 71
     5
 42
6.0
  3
SYS$0
100
AcDbAlignedDimension
 13
3436.493388072021
 23
-2961.860715280122
 33
0.0
 14
3442.493388072021
 24
-2961.860715280122
 34
0.0
100
AcDbRotatedDimension
1001
ACAD
1000
DSTYLE
1002
{
1070
    47
1040
0.2
1070
    48
1040
-0.2
1070
   271
1070
     1
1002
}
  0
CIRCLE
  5
4AC23
330
1F
100
AcDbEntity
  8
0部品20
100
AcDbCircle
 10
3439.493388072022
 20
-2961.860715280122
 30
0.0
 40
5.000000176593289
  0
LINE
  5
4AC24
330
1F
100
AcDbEntity
  8
0部品20
  6
陰線1
 48
0.5
370
    13
100
AcDbLine
 10
3435.163260821563
 20
-2964.360715232274
 30
0.0
 11
3436.895311813507
 21
-2963.360715198435
 31
0.0
  0
LINE
  5
4AC25
330
1F
100
AcDbEntity
  8
0部品20
  6
陰線1
 48
0.5
370
    13
100
AcDbLine
 10
3435.49338785128
 20
-2964.860715280122
 30
0.0
 11
3439.493388072022
 21
-2964.860715280122
 31
0.0
  0
DIMENSION
  5
4AC26
330
1F
100
AcDbEntity
  8
AM_5
100
AcDbDimension
  2
*D50
 10
3406.493388072019
 20
-2967.860715280122
 30
0.0
 11
3406.493388072019
 21
-2973.207381946788
 31
0.0
 70
   160
 71
     5
 42
3.200000000000727
  3
SYS$0
100
AcDbAlignedDimension
 13
3414.493388072022
 23
-2964.660715280122
 33
0.0
 14
3414.493388072022
 24
-2967.860715280122
 34
0.0
 50
270.0
100
AcDbRotatedDimension
1001
ACAD
1000
DSTYLE
1002
{
1070
    47
1040
0.2
1070
    48
1040
-0.2
1070
   271
1070
     1
1002
}
  0
ENDSEC
  0
SECTION
  2
OBJECTS
  0
DICTIONARY
  5
C
330
0
100
AcDbDictionary
281
     1
  3
ACAD_COLOR
350
C45B
  3
ACAD_GROUP
350
D
  3
ACAD_LAYOUT
350
1A
  3
ACAD_MATERIAL
350
C446
  3
ACAD_MLINESTYLE
350
17
  3
ACAD_PLOTSETTINGS
350
19
  3
ACAD_PLOTSTYLENAME
350
E
  3
ACAD_TABLESTYLE
350
C45C
  3
ACAD_VISUALSTYLE
350
C44A
  3
AcadDim
350
37D85
  3
AcAsAppObject
350
3DA1
  3
ACASGREF_MASTER
350
3DE9
  3
AcDbVariableDictionary
350
34
  3
AcmDictionary
350
47
  3
AD_GREF_MODULE
350
3DEA
  3
AD_MAPI_MODULE
350
3E06
  3
AMG
350
2B
  3
AMGSNAPSETTINGS
350
7D
  3
ASE_INDEX_DICTIONARY
350
B42E
  3
DWGPROPS
350
4ADF9
  3
MAPISURF_MODULE
350
3DEB
  0
DICTIONARY
  5
3F95
330
2
100
AcDbDictionary
280
     1
281
     1
  3
ACAD_LAYERFILTERS
360
494F1
  3
ACAD_LAYERSTATES
360
3F96
  3
ACLYDICTIONARY
360
494F0
  3
AMLAYER_GROUPCOLORS
360
CB2F
  0
DICTIONARY
  5
8A
330
1F
100
AcDbDictionary
280
     1
281
     1
  3
ACAD_SORTENTS
360
D722
  0
DICTIONARY
  5
4ABF7
330
4ABF6
100
AcDbDictionary
280
     1
281
     1
  3
ACAD_DIMASSOC
360
4ABF8
  0
DICTIONARY
  5
4ABFD
330
4ABFC
100
AcDbDictionary
280
     1
281
     1
  3
ACAD_DIMASSOC
360
4ABFE
  0
DICTIONARY
  5
C45B
102
{ACAD_REACTORS
330
C
102
}
330
C
100
AcDbDictionary
281
     1
  0
DICTIONARY
  5
D
102
{ACAD_REACTORS
330
C
102
}
330
C
100
AcDbDictionary
281
     1
  0
DICTIONARY
  5
1A
102
{ACAD_REACTORS
330
C
102
}
330
C
100
AcDbDictionary
281
     1
  3
Model
350
22
  3
ﾚｲｱｳﾄ1
350
1E
  3
ﾚｲｱｳﾄ2
350
26
  0
DICTIONARY
  5
C446
102
{ACAD_REACTORS
330
C
102
}
330
C
100
AcDbDictionary
281
     1
  3
ByBlock
350
C448
  3
ByLayer
350
C447
  3
Global
350
C449
  0
DICTIONARY
  5
17
102
{ACAD_REACTORS
330
C
102
}
330
C
100
AcDbDictionary
281
     1
  3
Standard
350
18
  0
DICTIONARY
  5
19
102
{ACAD_REACTORS
330
C
102
}
330
C
100
AcDbDictionary
281
     1
  3
-00
350
C85D
  0
ACDBDICTIONARYWDFLT
  5
E
102
{ACAD_REACTORS
330
C
102
}
330
C
100
AcDbDictionary
281
     1
  3
Normal
350
F
100
AcDbDictionaryWithDefault
340
F
  0
DICTIONARY
  5
C45C
102
{ACAD_REACTORS
330
C
102
}
330
C
100
AcDbDictionary
281
     1
  3
Standard
350
C45D
  0
DICTIONARY
  5
C44A
102
{ACAD_REACTORS
330
C
102
}
330
C
100
AcDbDictionary
281
     1
  3
2dWireframe
350
C450
  3
3D Hidden
350
C452
  3
3dWireframe
350
C451
  3
Basic
350
C44F
  3
Brighten
350
C456
  3
ColorChange
350
C45A
  3
Conceptual
350
C453
  3
Dim
350
C455
  3
Facepattern
350
C459
  3
Flat
350
C44B
  3
FlatWithEdges
350
C44C
  3
Gouraud
350
C44D
  3
GouraudWithEdges
350
C44E
  3
Linepattern
350
C458
  3
Realistic
350
C454
  3
Thicken
350
C457
  0
XRECORD
  5
37D85
102
{ACAD_REACTORS
330
C
102
}
330
C
100
AcDbXrecord
280
     1
 90
   990106
  3

 60
     0
 61
     0
 62
     1
 63
     3
 64
     0
 65
     0
 66
     0
 67
     3
 68
     1
 69
     0
 70
     0
 71
     0
 72
     0
 40
0.0
170
     0
  0
ACAD_PROXY_OBJECT
  5
3DA1
102
{ACAD_REACTORS
330
C
102
}
330
C
100
AcDbProxyObject
 90
      499
 91
      576
 95
   720919
 70
     0
 93
       10
310
407F
 94
        0
1001
ACAD
1000
AcRTDxfName
1000
ASAPP
  0
ACAD_PROXY_OBJECT
  5
3DE9
102
{ACAD_REACTORS
330
C
102
}
330
C
100
AcDbProxyObject
 90
      499
 91
      581
 95
   720919
 70
     0
 93
       34
310
010000407F
 94
        0
1001
ACAD
1000
AcRTDxfName
1000
ACASGREFMASTER
  0
DICTIONARY
  5
34
102
{ACAD_REACTORS
330
C
102
}
330
C
100
AcDbDictionary
281
     1
  3
CTABLESTYLE
350
C4A2
  3
DIMASSOC
350
AC85
  3
INDEXCTL
350
35
  3
SORTENTS
350
194C
  0
DICTIONARY
  5
47
102
{ACAD_REACTORS
330
C
102
}
330
C
100
AcDbDictionary
281
     1
  3
AcmBOM
350
7E8
  3
AcmStdDictionary
350
4C
  3
AMDTSECTSYM_ARROWCOLOR
350
C487
  0
ACAD_PROXY_OBJECT
  5
3DEA
102
{ACAD_REACTORS
330
C
102
}
330
C
100
AcDbProxyObject
 90
      499
 91
      582
 95
   720919
 70
     0
 93
      114
310
00000043800000000000000000003F
 94
        0
1001
ACAD
1000
AcRTDxfName
1000
ACADGREFMODULE
  0
ACAD_PROXY_OBJECT
  5
3E06
102
{ACAD_REACTORS
330
C
102
}
330
C
100
AcDbProxyObject
 90
      499
 91
      594
 95
   720919
 70
     0
 93
       34
310
05000044FF
 94
        0
1001
ACAD
1000
AcRTDxfName
1000
MAPIADMODULE
  0
DICTIONARY
  5
2B
102
{ACAD_REACTORS
330
C
102
}
330
C
100
AcDbDictionary
281
     1
  0
DICTIONARY
  5
7D
102
{ACAD_REACTORS
330
C
102
}
330
C
100
AcDbDictionary
281
     1
  0
DICTIONARY
  5
B42E
102
{ACAD_REACTORS
330
C
102
}
330
C
100
AcDbDictionary
281
     1
  3
ASEBlockHierarchyIndexRecord
350
B42F
1001
DCO15
1040
1439205644.296
  0
XRECORD
  5
4ADF9
102
{ACAD_REACTORS
330
C
102
}
330
C
100
AcDbXrecord
280
     1
  1
DWGPROPS COOKIE
  2

  3

  4

  6

  7

  8
Administrator
  9

300
AmdtFileType=84
301
=
302
=
303
=
304
=
305
=
306
=
307
=
308
=
309
=
 40
13.79827634259259
 41
2452002.615067627
 42
2455338.696867396
  1

 90
        1
  0
ACAD_PROXY_OBJECT
  5
3DEB
102
{ACAD_REACTORS
330
C
102
}
330
C
100
AcDbProxyObject
 90
      499
 91
      583
 95
   720919
 70
     0
 93
        8
310
047E
 94
        0
1001
ACAD
1000
AcRTDxfName
1000
AMDTMAPISURFMOUDULE
  0
DICTIONARY
  5
494F1
102
{ACAD_REACTORS
330
3F95
102
}
330
3F95
100
AcDbDictionary
281
     1
  3
50
350
494F3
  0
DICTIONARY
  5
3F96
102
{ACAD_REACTORS
330
3F95
102
}
330
3F95
100
AcDbDictionary
281
     1
  3
20011210
350
3FB7
  0
DICTIONARY
  5
494F0
102
{ACAD_REACTORS
330
3F95
102
}
330
3F95
100
AcDbDictionary
281
     1
  3
*A1
350
494F2
1001
ACAD
1000
<All
  0
DICTIONARY
  5
CB2F
102
{ACAD_REACTORS
330
3F95
102
}
330
3F95
100
AcDbDictionary
280
     1
281
     1
  0
SORTENTSTABLE
  5
D722
102
{ACAD_REACTORS
330
8A
102
}
330
8A
100
AcDbSortentsTable
330
1F
331
4A61F
  5
4A61F
331
4A60E
  5
4A60E
331
4A4DF
  5
4A4DF
331
4A4CE
  5
4A4CE
331
4A61D
  5
4A61D
331
4A60C
  5
4A60C
331
4A4DD
  5
4A4DD
331
4A61B
  5
4A61B
331
4A60A
  5
4A60A
331
4A4DB
  5
4A4DB
331
4A619
  5
4A619
331
4A4D9
  5
4A4D9
331
4A628
  5
4A628
331
4A617
  5
4A617
331
4A4D7
  5
4A4D7
331
4A626
  5
4A626
331
4A615
  5
4A615
331
4A4D5
  5
4A4D5
331
4A624
  5
4A624
331
4A613
  5
4A613
331
4A4E4
  5
4A4E4
331
4A4D3
  5
4A4D3
331
4A622
  5
4A622
331
4A611
  5
4A611
331
4A4E2
  5
4A4E2
331
4A4D1
  5
4A4D1
331
4A620
  5
4A620
331
4A60F
  5
4A60F
331
4A4E0
  5
4A4E0
331
4A4CF
  5
4A4CF
331
4A61E
  5
4A61E
331
4A60D
  5
4A60D
331
4A4DE
  5
4A4DE
331
4A4CD
  5
4A4CD
331
4A61C
  5
4A61C
331
4A60B
  5
4A60B
331
4A4DC
  5
4A4DC
331
4A61A
  5
4A61A
331
4A609
  5
4A609
331
4A4DA
  5
4A4DA
331
4A618
  5
4A618
331
4A4D8
  5
4A4D8
331
4A627
  5
4A627
331
4A616
  5
4A616
331
4A4D6
  5
4A4D6
331
4A625
  5
4A625
331
4A614
  5
4A614
331
4A4D4
  5
4A4D4
331
4A623
  5
4A623
331
4A612
  5
4A612
331
4A4E3
  5
4A4E3
331
4A4D2
  5
4A4D2
331
4A621
  5
4A621
331
4A610
  5
4A610
331
4A4E1
  5
4A4E1
331
4A4D0
  5
4A4D0
  0
DIMASSOC
  5
4ABF8
102
{ACAD_REACTORS
330
4ABF7
102
}
330
4ABF7
100
AcDbDimAssoc
330
4ABF6
 90
        3
 70
     0
 71
     0
  1
AcDbOsnapPointRef
 72
     1
331
4ABDA
 73
     0
 91
        0
 40
0.0
 10
0.0
 20
0.0
 30
2.000000000000000E+50
 75
     0
  1
AcDbOsnapPointRef
 72
    13
331
4ABDA
 73
     0
 91
        0
 40
0.0
 10
0.0
 20
0.0
 30
2.000000000000000E+50
 75
     0
  0
DIMASSOC
  5
4ABFE
102
{ACAD_REACTORS
330
4ABFD
102
}
330
4ABFD
100
AcDbDimAssoc
330
4ABFC
 90
        3
 70
     0
 71
     0
  1
AcDbOsnapPointRef
 72
     5
331
4ABE9
 73
     0
 91
        0
 40
3.141592653589793
 10
0.0
 20
0.0
 30
0.0
 75
     0
  1
AcDbOsnapPointRef
 72
     5
331
4ABE9
 73
     0
 91
        0
 40
0.0
 10
0.0
 20
0.0
 30
0.0
 75
     0
  0
LAYOUT
  5
22
102
{ACAD_XDICTIONARY
360
4ADFC
102
}
102
{ACAD_REACTORS
330
1A
102
}
330
1A
100
AcDbPlotSettings
  1

  2
DocuWide2055
  4
A4
  6
AM_VIEW1
 40
3.174999952316284
 41
3.174999952316284
 42
3.175003051757812
 43
3.17498779296875
 44
210.0156707763672
 45
297.0106506347656
 46
5.332833886146545
 47
8.330331444740295
 48
2133.633066675018
 49
-1460.182731148535
140
2407.633066675018
141
-1267.182731148535
142
1.0
143
1.0
 70
 11940
 72
     1
 73
     1
 74
     4
  7
monochrome.ctb
 75
     0
147
0.7072279707382396
148
-2133.633066675018
149
1460.182731148535
100
AcDbLayout
  1
Model
 70
     1
 71
     0
 10
0.0
 20
0.0
 11
12.0
 21
9.0
 12
0.0
 22
0.0
 32
0.0
 14
0.0
 24
0.0
 34
0.0
 15
0.0
 25
0.0
 35
0.0
146
0.0
 13
0.0
 23
0.0
 33
0.0
 16
1.0
 26
0.0
 36
0.0
 17
0.0
 27
1.0
 37
0.0
 76
     0
330
1F
331
C444
1001
ACAD_PSEXT
1000
DocuWide2055
1000
FX DocuWide 2055
1000
192.200.51.212:plt00t
1000

1070
     0
  0
LAYOUT
  5
1E
102
{ACAD_XDICTIONARY
360
4ADFA
102
}
102
{ACAD_REACTORS
330
1A
102
}
330
1A
100
AcDbPlotSettings
  1

  2
\\ML370\XEROX
  4
A4
  6

 40
3.174999952316284
 41
3.174999952316284
 42
3.175003051757812
 43
3.17498779296875
 44
209.8674926757813
 45
296.6719970703125
 46
0.0
 47
0.0
 48
0.0
 49
0.0
140
0.0
141
0.0
142
1.0
143
1.0
 70
   688
 72
     1
 73
     1
 74
     5
  7
monochrome.ctb
 75
    16
147
1.0
148
0.0
149
0.0
100
AcDbLayout
  1
ﾚｲｱｳﾄ1
 70
     1
 71
     1
 10
-3.17498779296875
 20
-3.174999952316284
 11
293.4970092773438
 21
206.692492723465
 12
0.0
 22
0.0
 32
0.0
 14
1.000000000000000E+20
 24
1.000000000000000E+20
 34
1.000000000000000E+20
 15
-1.000000000000000E+20
 25
-1.000000000000000E+20
 35
-1.000000000000000E+20
146
0.0
 13
0.0
 23
0.0
 33
0.0
 16
1.0
 26
0.0
 36
0.0
 17
0.0
 27
1.0
 37
0.0
 76
     0
330
1B
  0
LAYOUT
  5
26
102
{ACAD_XDICTIONARY
360
4ADFE
102
}
102
{ACAD_REACTORS
330
1A
102
}
330
1A
100
AcDbPlotSettings
  1

  2
\\ML370\XEROX
  4

  6

 40
0.0
 41
0.0
 42
0.0
 43
0.0
 44
0.0
 45
0.0
 46
0.0
 47
0.0
 48
0.0
 49
0.0
140
0.0
141
0.0
142
1.0
143
1.0
 70
   688
 72
     0
 73
     0
 74
     5
  7
monochrome.ctb
 75
    16
147
1.0
148
0.0
149
0.0
100
AcDbLayout
  1
ﾚｲｱｳﾄ2
 70
     1
 71
     2
 10
0.0
 20
0.0
 11
12.0
 21
9.0
 12
0.0
 22
0.0
 32
0.0
 14
0.0
 24
0.0
 34
0.0
 15
0.0
 25
0.0
 35
0.0
146
0.0
 13
0.0
 23
0.0
 33
0.0
 16
1.0
 26
0.0
 36
0.0
 17
0.0
 27
1.0
 37
0.0
 76
     0
330
23
  0
MATERIAL
  5
C448
102
{ACAD_XDICTIONARY
360
4AE02
102
}
102
{ACAD_REACTORS
330
C446
102
}
330
C446
100
AcDbMaterial
  1
ByBlock
  0
MATERIAL
  5
C447
102
{ACAD_XDICTIONARY
360
4AE00
102
}
102
{ACAD_REACTORS
330
C446
102
}
330
C446
100
AcDbMaterial
  1
ByLayer
  0
MATERIAL
  5
C449
102
{ACAD_XDICTIONARY
360
4AE04
102
}
102
{ACAD_REACTORS
330
C446
102
}
330
C446
100
AcDbMaterial
  1
Global
  0
MLINESTYLE
  5
18
102
{ACAD_REACTORS
330
17
102
}
330
17
100
AcDbMlineStyle
  2
STANDARD
 70
     0
  3

 62
   256
 51
90.0
 52
90.0
 71
     2
 49
0.5
 62
   256
  6
BYLAYER
 49
-0.5
 62
   256
  6
BYLAYER
  0
PLOTSETTINGS
  5
C85D
102
{ACAD_XDICTIONARY
360
4AE08
102
}
102
{ACAD_REACTORS
330
19
102
}
330
19
100
AcDbPlotSettings
  1
-00
  2
RICOH imagio Wide 7040e RP-GL/2
  4
A3
  6
AM_VIEW1
 40
5.069416522979736
 41
7.228392601013183
 42
5.23870849609375
 43
7.05908203125
 44
419.9889831542968
 45
296.9683227539062
 46
-5.159570932388305
 47
-7.159575939178466
 48
347.0000006405867
 49
-0.0000003719120514
140
767.0000006405866
141
296.9999996280879
142
1.0
143
1.0
 70
 11956
 72
     1
 73
     0
 74
     4
  7
monochrome.ctb
 75
    16
147
1.0
148
-347.0000006405867
149
0.0000003719120514
1001
ACAD_PSEXT
1000
RICOH imagio Wide 7040e RP-GL/2
1000
RICOH imagio Wide 7040e RP-GL/2
1000
\\ADMINISTRATOR
1000
RP-GL/2 Driver (Windows 2000/XP/Server 2003)
1070
     0
  0
ACDBPLACEHOLDER
  5
F
102
{ACAD_REACTORS
330
E
102
}
330
E
  0
TABLESTYLE
  5
C45D
102
{ACAD_XDICTIONARY
360
4AE06
102
}
102
{ACAD_REACTORS
330
C45C
102
}
330
C45C
100
AcDbTableStyle
  3
Standard
 70
     0
 71
     0
 40
1.5
 41
1.5
280
     0
281
     0
  7
STANDARD
140
4.5
170
     2
 62
     0
 63
     7
283
     0
274
    -2
284
     1
 64
     0
275
    -2
285
     1
 65
     0
276
    -2
286
     1
 66
     0
277
    -2
287
     1
 67
     0
278
    -2
288
     1
 68
     0
279
    -2
289
     1
 69
     0
  7
STANDARD
140
6.0
170
     5
 62
     0
 63
     7
283
     0
274
    -2
284
     1
 64
     0
275
    -2
285
     1
 65
     0
276
    -2
286
     1
 66
     0
277
    -2
287
     1
 67
     0
278
    -2
288
     1
 68
     0
279
    -2
289
     1
 69
     0
  7
STANDARD
140
4.5
170
     5
 62
     0
 63
     7
283
     0
274
    -2
284
     1
 64
     0
275
    -2
285
     1
 65
     0
276
    -2
286
     1
 66
     0
277
    -2
287
     1
 67
     0
278
    -2
288
     1
 68
     0
279
    -2
289
     1
 69
     0
  0
VISUALSTYLE
  5
C450
102
{ACAD_REACTORS
330
C44A
102
}
330
C44A
100
AcDbVisualStyle
  2
2dWireframe
 70
     4
 71
     0
 72
     2
 73
     0
 90
        0
 40
-0.6
 41
-30.0
 62
     5
 63
     7
 74
     1
 91
        4
 64
     7
 65
   257
 75
     1
175
     1
 42
1.0
 92
        0
 66
   257
 43
1.0
 76
     1
 77
     6
 78
     2
 67
     7
 79
     5
170
     0
171
     0
290
     0
174
     0
 93
        1
 44
0.0
173
     0
291
     0
 45
0.0
1001
ACAD
1000
AcDbSavedByObjectVersion
1070
     0
  0
VISUALSTYLE
  5
C452
102
{ACAD_REACTORS
330
C44A
102
}
330
C44A
100
AcDbVisualStyle
  2
3D Hidden
 70
     6
 71
     1
 72
     2
 73
     2
 90
        0
 40
-0.6
 41
-30.0
 62
     5
 63
     7
 74
     2
 91
        2
 64
     7
 65
   257
 75
     2
175
     1
 42
40.0
 92
        0
 66
   257
 43
1.0
 76
     1
 77
     6
 78
     2
 67
     7
 79
     3
170
     0
171
     0
290
     0
174
     0
 93
        1
 44
0.0
173
     0
291
     0
 45
0.0
1001
ACAD
1000
AcDbSavedByObjectVersion
1070
     0
  0
VISUALSTYLE
  5
C451
102
{ACAD_REACTORS
330
C44A
102
}
330
C44A
100
AcDbVisualStyle
  2
3dWireframe
 70
     5
 71
     0
 72
     2
 73
     0
 90
        0
 40
-0.6
 41
-30.0
 62
     5
 63
     7
 74
     1
 91
        4
 64
     7
 65
   257
 75
     1
175
     1
 42
1.0
 92
        0
 66
   257
 43
1.0
 76
     1
 77
     6
 78
     2
 67
     7
 79
     5
170
     0
171
     0
290
     0
174
     0
 93
        1
 44
0.0
173
     0
291
     0
 45
0.0
1001
ACAD
1000
AcDbSavedByObjectVersion
1070
     0
  0
VISUALSTYLE
  5
C44F
102
{ACAD_REACTORS
330
C44A
102
}
330
C44A
100
AcDbVisualStyle
  2
Basic
 70
     7
 71
     1
 72
     0
 73
     1
 90
        0
 40
-0.6
 41
-30.0
 62
     5
 63
     7
 74
     0
 91
        4
 64
     7
 65
   257
 75
     1
175
     1
 42
1.0
 92
        8
 66
     7
 43
1.0
 76
     1
 77
     6
 78
     2
 67
     7
 79
     5
170
     0
171
     0
290
     0
174
     0
 93
        1
 44
0.0
173
     0
291
     1
 45
0.0
1001
ACAD
1000
AcDbSavedByObjectVersion
1070
     0
  0
VISUALSTYLE
  5
C456
102
{ACAD_REACTORS
330
C44A
102
}
330
C44A
100
AcDbVisualStyle
  2
Brighten
 70
    12
 71
     2
 72
     2
 73
     0
 90
        0
 40
-0.6
 41
-30.0
 62
     5
 63
     7
 74
     1
 91
        4
 64
     7
 65
   257
 75
     1
175
     1
 42
1.0
 92
        8
 66
     7
 43
1.0
 76
     1
 77
     6
 78
     2
 67
     7
 79
     5
170
     0
171
     0
290
     0
174
     0
 93
        1
 44
50.0
173
     0
291
     1
 45
0.0
1001
ACAD
1000
AcDbSavedByObjectVersion
1070
     0
  0
VISUALSTYLE
  5
C45A
102
{ACAD_REACTORS
330
C44A
102
}
330
C44A
100
AcDbVisualStyle
  2
ColorChange
 70
    16
 71
     2
 72
     2
 73
     3
 90
        0
 40
-0.6
 41
-30.0
 62
     5
 63
     8
 74
     1
 91
        4
 64
     7
 65
   257
 75
     1
175
     1
 42
1.0
 92
        8
 66
     8
 43
1.0
 76
     1
 77
     6
 78
     2
 67
     7
 79
     5
170
     0
171
     0
290
     0
174
     0
 93
        1
 44
0.0
173
     0
291
     1
 45
0.0
1001
ACAD
1000
AcDbSavedByObjectVersion
1070
     0
  0
VISUALSTYLE
  5
C453
102
{ACAD_REACTORS
330
C44A
102
}
330
C44A
100
AcDbVisualStyle
  2
Conceptual
 70
     9
 71
     3
 72
     2
 73
     0
 90
        0
 40
-0.6
 41
-30.0
 62
     5
 63
     7
 74
     2
 91
        2
 64
     7
 65
   257
 75
     1
175
     1
 42
40.0
 92
        8
 66
     7
 43
1.0
 76
     1
 77
     6
 78
     2
 67
     7
 79
     3
170
     0
171
     0
290
     0
174
     0
 93
        1
 44
0.0
173
     0
291
     0
 45
0.0
1001
ACAD
1000
AcDbSavedByObjectVersion
1070
     0
  0
VISUALSTYLE
  5
C455
102
{ACAD_REACTORS
330
C44A
102
}
330
C44A
100
AcDbVisualStyle
  2
Dim
 70
    11
 71
     2
 72
     2
 73
     0
 90
        0
 40
-0.6
 41
-30.0
 62
     5
 63
     7
 74
     1
 91
        4
 64
     7
 65
   257
 75
     1
175
     1
 42
1.0
 92
        8
 66
     7
 43
1.0
 76
     1
 77
     6
 78
     2
 67
     7
 79
     5
170
     0
171
     0
290
     0
174
     0
 93
        1
 44
-50.0
173
     0
291
     1
 45
0.0
1001
ACAD
1000
AcDbSavedByObjectVersion
1070
     0
  0
VISUALSTYLE
  5
C459
102
{ACAD_REACTORS
330
C44A
102
}
330
C44A
100
AcDbVisualStyle
  2
Facepattern
 70
    15
 71
     2
 72
     2
 73
     0
 90
        0
 40
-0.6
 41
-30.0
 62
     5
 63
     7
 74
     1
 91
        4
 64
     7
 65
   257
 75
     1
175
     1
 42
1.0
 92
        8
 66
     7
 43
1.0
 76
     1
 77
     6
 78
     2
 67
     7
 79
     5
170
     0
171
     0
290
     0
174
     0
 93
        1
 44
0.0
173
     0
291
     1
 45
0.0
1001
ACAD
1000
AcDbSavedByObjectVersion
1070
     0
  0
VISUALSTYLE
  5
C44B
102
{ACAD_REACTORS
330
C44A
102
}
330
C44A
100
AcDbVisualStyle
  2
Flat
 70
     0
 71
     2
 72
     1
 73
     1
 90
        2
 40
-0.6
 41
30.0
 62
     5
 63
     7
 74
     0
 91
        4
 64
     7
 65
   257
 75
     1
175
     1
 42
1.0
 92
        8
 66
     7
 43
1.0
 76
     1
 77
     6
 78
     2
 67
     7
 79
     5
170
     0
171
     0
290
     0
174
     0
 93
       13
 44
0.0
173
     0
291
     1
 45
0.0
1001
ACAD
1000
AcDbSavedByObjectVersion
1070
     0
  0
VISUALSTYLE
  5
C44C
102
{ACAD_REACTORS
330
C44A
102
}
330
C44A
100
AcDbVisualStyle
  2
FlatWithEdges
 70
     1
 71
     2
 72
     1
 73
     1
 90
        2
 40
-0.6
 41
30.0
 62
     5
 63
     7
 74
     1
 91
        4
 64
     7
 65
   257
 75
     1
175
     1
 42
1.0
 92
        0
 66
   257
 43
1.0
 76
     1
 77
     6
 78
     2
 67
     7
 79
     5
170
     0
171
     0
290
     0
174
     0
 93
       13
 44
0.0
173
     0
291
     1
 45
0.0
1001
ACAD
1000
AcDbSavedByObjectVersion
1070
     0
  0
VISUALSTYLE
  5
C44D
102
{ACAD_REACTORS
330
C44A
102
}
330
C44A
100
AcDbVisualStyle
  2
Gouraud
 70
     2
 71
     2
 72
     2
 73
     1
 90
        2
 40
-0.6
 41
30.0
 62
     5
 63
     7
 74
     0
 91
        4
 64
     7
 65
   257
 75
     1
175
     1
 42
1.0
 92
        0
 66
     7
 43
1.0
 76
     1
 77
     6
 78
     2
 67
     7
 79
     5
170
     0
171
     0
290
     0
174
     0
 93
       13
 44
0.0
173
     0
291
     1
 45
0.0
1001
ACAD
1000
AcDbSavedByObjectVersion
1070
     0
  0
VISUALSTYLE
  5
C44E
102
{ACAD_REACTORS
330
C44A
102
}
330
C44A
100
AcDbVisualStyle
  2
GouraudWithEdges
 70
     3
 71
     2
 72
     2
 73
     1
 90
        2
 40
-0.6
 41
30.0
 62
     5
 63
     7
 74
     1
 91
        4
 64
     7
 65
   257
 75
     1
175
     1
 42
1.0
 92
        0
 66
   257
 43
1.0
 76
     1
 77
     6
 78
     2
 67
     7
 79
     5
170
     0
171
     0
290
     0
174
     0
 93
       13
 44
0.0
173
     0
291
     1
 45
0.0
1001
ACAD
1000
AcDbSavedByObjectVersion
1070
     0
  0
VISUALSTYLE
  5
C458
102
{ACAD_REACTORS
330
C44A
102
}
330
C44A
100
AcDbVisualStyle
  2
Linepattern
 70
    14
 71
     2
 72
     2
 73
     0
 90
        0
 40
-0.6
 41
-30.0
 62
     5
 63
     7
 74
     1
 91
        4
 64
     7
 65
   257
 75
     7
175
     7
 42
1.0
 92
        8
 66
     7
 43
1.0
 76
     1
 77
     6
 78
     2
 67
     7
 79
     5
170
     0
171
     0
290
     0
174
     0
 93
        1
 44
0.0
173
     0
291
     1
 45
0.0
1001
ACAD
1000
AcDbSavedByObjectVersion
1070
     0
  0
VISUALSTYLE
  5
C454
102
{ACAD_REACTORS
330
C44A
102
}
330
C44A
100
AcDbVisualStyle
  2
Realistic
 70
     8
 71
     2
 72
     2
 73
     0
 90
        0
 40
-0.6
 41
-30.0
 62
     5
 63
     7
 74
     1
 91
        0
 64
     7
 65
   257
 75
     1
175
     1
 42
1.0
 92
        8
 66
     8
 43
1.0
 76
     1
 77
     6
 78
     2
 67
     7
 79
     5
170
     0
171
     0
290
     0
174
     0
 93
       13
 44
0.0
173
     0
291
     0
 45
0.0
1001
ACAD
1000
AcDbSavedByObjectVersion
1070
     0
  0
VISUALSTYLE
  5
C457
102
{ACAD_REACTORS
330
C44A
102
}
330
C44A
100
AcDbVisualStyle
  2
Thicken
 70
    13
 71
     2
 72
     2
 73
     0
 90
        0
 40
-0.6
 41
-30.0
 62
     5
 63
     7
 74
     1
 91
        4
 64
     7
 65
   257
 75
     1
175
     1
 42
1.0
 92
       12
 66
     7
 43
1.0
 76
     1
 77
     6
 78
     2
 67
     7
 79
     5
170
     0
171
     0
290
     0
174
     0
 93
        1
 44
0.0
173
     0
291
     1
 45
0.0
1001
ACAD
1000
AcDbSavedByObjectVersion
1070
     0
  0
DICTIONARYVAR
  5
C4A2
102
{ACAD_REACTORS
330
34
102
}
330
34
100
DictionaryVariables
280
     0
  1
STANDARD
  0
DICTIONARYVAR
  5
AC85
102
{ACAD_REACTORS
330
34
102
}
330
34
100
DictionaryVariables
280
     0
  1
2
  0
DICTIONARYVAR
  5
35
102
{ACAD_REACTORS
330
34
102
}
330
34
100
DictionaryVariables
280
     0
  1
0
  0
DICTIONARYVAR
  5
194C
102
{ACAD_REACTORS
330
34
102
}
330
34
100
DictionaryVariables
280
     0
  1
96
  0
DICTIONARY
  5
7E8
102
{ACAD_REACTORS
330
47
102
}
330
47
100
AcDbDictionary
281
     1
  0
DICTIONARY
  5
4C
102
{ACAD_REACTORS
330
47
102
}
330
47
100
AcDbDictionary
281
     1
  0
XRECORD
  5
C487
102
{ACAD_REACTORS
330
47
102
}
330
47
100
AcDbXrecord
280
     1
 90
-1023410169
  0
XRECORD
  5
B42F
102
{ACAD_REACTORS
330
B42E
102
}
330
B42E
100
AcDbXrecord
280
     1
330
0
330
0
330
0
330
0
330
0
330
0
330
0
330
0
330
0
330
0
330
0
330
0
330
0
330
0
330
0
330
0
330
0
330
0
330
0
330
0
330
0
330
0
330
0
330
0
  0
XRECORD
  5
494F3
102
{ACAD_REACTORS
330
494F1
102
}
330
494F1
100
AcDbXrecord
280
     1
  1
50
  1
*-50
  1
*
  1
*
 70
     0
  1
*
  1
*
1001
ACAD
1000
( NAME== "*-50" )
  0
XRECORD
  5
3FB7
102
{ACAD_REACTORS
330
3F96
102
}
330
3F96
100
AcDbXrecord
280
     1
 91
        3
330
A47
 90
        8
 62
     7
370
    40
331
16
  1
Color_7
330
A46
 90
        0
 62
    14
370
    -3
331
16
  1
Color_14
330
3A31
 90
        8
 62
     7
370
    20
331
16
  1
Color_7
330
6D1
 90
        0
 62
     7
370
    -3
331
16
  1
Color_7
330
0
 90
        8
 62
     7
370
    50
331
16
  1
Color_7
330
A48
 90
        8
 62
     2
370
    35
331
16
  1
Color_2
330
0
 90
        8
 62
     7
370
    -3
331
16
  1
Color_7
330
10
 90
        8
 62
     7
370
    -3
331
16
  1
Color_7
  0
XRECORD
  5
494F2
102
{ACAD_REACTORS
330
494F0
102
}
330
494F0
100
AcDbXrecord
280
     1
  1
AcLyLayerFilter
 90
        1
300
50
301
( NAME== "*-50" )
  0
DICTIONARY
  5
4ADFC
330
22
100
AcDbDictionary
280
     1
281
     1
  3
ACAD_XREC_ROUNDTRIP
360
4ADFD
  0
DICTIONARY
  5
4ADFA
330
1E
100
AcDbDictionary
280
     1
281
     1
  3
ACAD_XREC_ROUNDTRIP
360
4ADFB
  0
DICTIONARY
  5
4ADFE
330
26
100
AcDbDictionary
280
     1
281
     1
  3
ACAD_XREC_ROUNDTRIP
360
4ADFF
  0
DICTIONARY
  5
4AE02
330
C448
100
AcDbDictionary
280
     1
281
     1
  3
ACAD_XREC_ROUNDTRIP
360
4AE03
  0
DICTIONARY
  5
4AE00
330
C447
100
AcDbDictionary
280
     1
281
     1
  3
ACAD_XREC_ROUNDTRIP
360
4AE01
  0
DICTIONARY
  5
4AE04
330
C449
100
AcDbDictionary
280
     1
281
     1
  3
ACAD_XREC_ROUNDTRIP
360
4AE05
  0
DICTIONARY
  5
4AE08
330
C85D
100
AcDbDictionary
280
     1
281
     1
  3
ACAD_XREC_ROUNDTRIP
360
4AE09
  0
DICTIONARY
  5
4AE06
330
C45D
100
AcDbDictionary
280
     1
281
     1
  3
ACAD_XREC_ROUNDTRIP
360
4AE07
  0
XRECORD
  5
4ADFD
102
{ACAD_REACTORS
330
4ADFC
102
}
330
4ADFC
100
AcDbXrecord
280
     1
102
SHADEPLOT
 70
     0
102
SHADEPLOTRESLEVEL
 70
     2
102
SHADEPLOTCUSTOMDPI
 70
   300
  0
XRECORD
  5
4ADFB
102
{ACAD_REACTORS
330
4ADFA
102
}
330
4ADFA
100
AcDbXrecord
280
     1
102
SHADEPLOT
 70
     0
102
SHADEPLOTRESLEVEL
 70
     2
102
SHADEPLOTCUSTOMDPI
 70
   300
  0
XRECORD
  5
4ADFF
102
{ACAD_REACTORS
330
4ADFE
102
}
330
4ADFE
100
AcDbXrecord
280
     1
102
SHADEPLOT
 70
     0
102
SHADEPLOTRESLEVEL
 70
     2
102
SHADEPLOTCUSTOMDPI
 70
   300
  0
XRECORD
  5
4AE03
102
{ACAD_REACTORS
330
4AE02
102
}
330
4AE02
100
AcDbXrecord
280
     1
102
MATERIAL
148
0.0
149
0.0
149
0.0
 93
        0
 94
       63
282
     0
 72
     1
 77
     1
171
     1
175
     1
179
     1
273
     0
  0
XRECORD
  5
4AE01
102
{ACAD_REACTORS
330
4AE00
102
}
330
4AE00
100
AcDbXrecord
280
     1
102
MATERIAL
148
0.0
149
0.0
149
0.0
 93
        0
 94
       63
282
     0
 72
     1
 77
     1
171
     1
175
     1
179
     1
273
     0
  0
XRECORD
  5
4AE05
102
{ACAD_REACTORS
330
4AE04
102
}
330
4AE04
100
AcDbXrecord
280
     1
102
MATERIAL
148
0.0
149
0.0
149
0.0
 93
        0
 94
       63
282
     0
 72
     1
 77
     1
171
     1
175
     1
179
     1
273
     0
  0
XRECORD
  5
4AE09
102
{ACAD_REACTORS
330
4AE08
102
}
330
4AE08
100
AcDbXrecord
280
     1
102
SHADEPLOT
 70
     0
102
SHADEPLOTRESLEVEL
 70
     2
102
SHADEPLOTCUSTOMDPI
 70
   300
  0
XRECORD
  5
4AE07
102
{ACAD_REACTORS
330
4AE06
102
}
330
4AE06
100
AcDbXrecord
280
     1
102
ACAD_ROUNDTRIP_PRE2007_TABLESTYLE
 90
      512
 91
        0
  1

 92
      512
 93
        0
  2

 94
      512
 95
        0
  3

  0
ENDSEC
  0
EOF
