  0
SECTION
  2
HEADER
  9
$ACADVER
  1
AC1015
  9
$ACADMAINTVER
 70
    20
  9
$DWGCODEPAGE
  3
ANSI_932
  9
$INSBASE
 10
0.0
 20
0.0
 30
0.0
  9
$EXTMIN
 10
3113.586323213272
 20
-3157.832267167609
 30
0.0
  9
$EXTMAX
 10
3533.586323213273
 20
-2860.832267167609
 30
0.0
  9
$LIMMIN
 10
2168.279185573178
 20
-2530.372216979716
  9
$LIMMAX
 10
2316.779185573178
 20
-2425.372216979716
  9
$ORTHOMODE
 70
     0
  9
$REGENMODE
 70
     1
  9
$FILLMODE
 70
     1
  9
$QTEXTMODE
 70
     0
  9
$MIRRTEXT
 70
     0
  9
$LTSCALE
 40
1.0
  9
$ATTMODE
 70
     1
  9
$TEXTSIZE
 40
3.5
  9
$TRACEWID
 40
1.0
  9
$TEXTSTYLE
  7
STANDARD
  9
$CLAYER
  8
000鈴木検図
  9
$CELTYPE
  6
ByLayer
  9
$CECOLOR
 62
   256
  9
$CELTSCALE
 40
1.0
  9
$DISPSILH
 70
     0
  9
$DIMSCALE
 40
1.0
  9
$DIMASZ
 40
2.5
  9
$DIMEXO
 40
1.0
  9
$DIMDLI
 40
10.0
  9
$DIMRND
 40
0.0
  9
$DIMDLE
 40
0.0
  9
$DIMEXE
 40
1.0
  9
$DIMTP
 40
0.1
  9
$DIMTM
 40
0.1
  9
$DIMTXT
 40
3.5
  9
$DIMCEN
 40
0.0
  9
$DIMTSZ
 40
0.0
  9
$DIMTOL
 70
     0
  9
$DIMLIM
 70
     0
  9
$DIMTIH
 70
     0
  9
$DIMTOH
 70
     0
  9
$DIMSE1
 70
     0
  9
$DIMSE2
 70
     0
  9
$DIMTAD
 70
     1
  9
$DIMZIN
 70
     8
  9
$DIMBLK
  1

  9
$DIMASO
 70
     1
  9
$DIMSHO
 70
     1
  9
$DIMPOST
  1

  9
$DIMAPOST
  1
"
  9
$DIMALT
 70
     0
  9
$DIMALTD
 70
     2
  9
$DIMALTF
 40
0.0393701
  9
$DIMLFAC
 40
1.0
  9
$DIMTOFL
 70
     1
  9
$DIMTVP
 40
0.0
  9
$DIMTIX
 70
     0
  9
$DIMSOXD
 70
     0
  9
$DIMSAH
 70
     0
  9
$DIMBLK1
  1

  9
$DIMBLK2
  1

  9
$DIMSTYLE
  2
SYS
  9
$DIMCLRD
 70
   256
  9
$DIMCLRE
 70
   256
  9
$DIMCLRT
 70
     7
  9
$DIMTFAC
 40
0.71
  9
$DIMGAP
 40
1.5
  9
$DIMJUST
 70
     0
  9
$DIMSD1
 70
     0
  9
$DIMSD2
 70
     0
  9
$DIMTOLJ
 70
     0
  9
$DIMTZIN
 70
     8
  9
$DIMALTZ
 70
     0
  9
$DIMALTTZ
 70
     0
  9
$DIMUPT
 70
     0
  9
$DIMDEC
 70
     1
  9
$DIMTDEC
 70
     3
  9
$DIMALTU
 70
     2
  9
$DIMALTTD
 70
     4
  9
$DIMTXSTY
  7
STANDARD
  9
$DIMAUNIT
 70
     0
  9
$DIMADEC
 70
     0
  9
$DIMALTRND
 40
0.0
  9
$DIMAZIN
 70
     2
  9
$DIMDSEP
 70
    46
  9
$DIMATFIT
 70
     3
  9
$DIMFRAC
 70
     0
  9
$DIMLDRBLK
  1

  9
$DIMLUNIT
 70
     2
  9
$DIMLWD
 70
    -1
  9
$DIMLWE
 70
    -1
  9
$DIMTMOVE
 70
     0
  9
$LUNITS
 70
     2
  9
$LUPREC
 70
     2
  9
$SKETCHINC
 40
1.0
  9
$FILLETRAD
 40
1.0
  9
$AUNITS
 70
     0
  9
$AUPREC
 70
     0
  9
$MENU
  1
.
  9
$ELEVATION
 40
0.0
  9
$PELEVATION
 40
0.0
  9
$THICKNESS
 40
0.0
  9
$LIMCHECK
 70
     0
  9
$CHAMFERA
 40
0.35
  9
$CHAMFERB
 40
0.35
  9
$CHAMFERC
 40
20.0
  9
$CHAMFERD
 40
0.0
  9
$SKPOLY
 70
     0
  9
$TDCREATE
 40
2452002.615067627
  9
$TDUCREATE
 40
2452002.240067627
  9
$TDUPDATE
 40
2456342.568994503
  9
$TDUUPDATE
 40
2456342.193994503
  9
$TDINDWG
 40
13.8278736111
  9
$TDUSRTIMER
 40
13.8278736111
  9
$USRTIMER
 70
     1
  9
$ANGBASE
 50
0.0
  9
$ANGDIR
 70
     0
  9
$PDMODE
 70
     0
  9
$PDSIZE
 40
0.0
  9
$PLINEWID
 40
0.0
  9
$SPLFRAME
 70
     0
  9
$SPLINETYPE
 70
     6
  9
$SPLINESEGS
 70
     8
  9
$HANDSEED
  5
4AE2A
  9
$SURFTAB1
 70
     6
  9
$SURFTAB2
 70
     6
  9
$SURFTYPE
 70
     6
  9
$SURFU
 70
     6
  9
$SURFV
 70
     6
  9
$UCSBASE
  2

  9
$UCSNAME
  2

  9
$UCSORG
 10
0.0
 20
0.0
 30
0.0
  9
$UCSXDIR
 10
1.0
 20
0.0
 30
0.0
  9
$UCSYDIR
 10
0.0
 20
1.0
 30
0.0
  9
$UCSORTHOREF
  2

  9
$UCSORTHOVIEW
 70
     0
  9
$UCSORGTOP
 10
0.0
 20
0.0
 30
0.0
  9
$UCSORGBOTTOM
 10
0.0
 20
0.0
 30
0.0
  9
$UCSORGLEFT
 10
0.0
 20
0.0
 30
0.0
  9
$UCSORGRIGHT
 10
0.0
 20
0.0
 30
0.0
  9
$UCSORGFRONT
 10
0.0
 20
0.0
 30
0.0
  9
$UCSORGBACK
 10
0.0
 20
0.0
 30
0.0
  9
$PUCSBASE
  2

  9
$PUCSNAME
  2

  9
$PUCSORG
 10
0.0
 20
0.0
 30
0.0
  9
$PUCSXDIR
 10
1.0
 20
0.0
 30
0.0
  9
$PUCSYDIR
 10
0.0
 20
1.0
 30
0.0
  9
$PUCSORTHOREF
  2

  9
$PUCSORTHOVIEW
 70
     0
  9
$PUCSORGTOP
 10
0.0
 20
0.0
 30
0.0
  9
$PUCSORGBOTTOM
 10
0.0
 20
0.0
 30
0.0
  9
$PUCSORGLEFT
 10
0.0
 20
0.0
 30
0.0
  9
$PUCSORGRIGHT
 10
0.0
 20
0.0
 30
0.0
  9
$PUCSORGFRONT
 10
0.0
 20
0.0
 30
0.0
  9
$PUCSORGBACK
 10
0.0
 20
0.0
 30
0.0
  9
$USERI1
 70
     0
  9
$USERI2
 70
     0
  9
$USERI3
 70
     0
  9
$USERI4
 70
     0
  9
$USERI5
 70
     0
  9
$USERR1
 40
0.0
  9
$USERR2
 40
0.0
  9
$USERR3
 40
0.0
  9
$USERR4
 40
0.0
  9
$USERR5
 40
0.0
  9
$WORLDVIEW
 70
     1
  9
$SHADEDGE
 70
     3
  9
$SHADEDIF
 70
    70
  9
$TILEMODE
 70
     1
  9
$MAXACTVP
 70
    64
  9
$PINSBASE
 10
0.0
 20
0.0
 30
0.0
  9
$PLIMCHECK
 70
     0
  9
$PEXTMIN
 10
1.000000000000000E+20
 20
1.000000000000000E+20
 30
1.000000000000000E+20
  9
$PEXTMAX
 10
-1.000000000000000E+20
 20
-1.000000000000000E+20
 30
-1.000000000000000E+20
  9
$PLIMMIN
 10
-3.17498779296875
 20
-3.174999952316284
  9
$PLIMMAX
 10
293.4970092773438
 20
206.692492723465
  9
$UNITMODE
 70
     0
  9
$VISRETAIN
 70
     1
  9
$PLINEGEN
 70
     0
  9
$PSLTSCALE
 70
     1
  9
$TREEDEPTH
 70
  3020
  9
$CMLSTYLE
  2
Standard
  9
$CMLJUST
 70
     0
  9
$CMLSCALE
 40
20.0
  9
$PROXYGRAPHICS
 70
     1
  9
$MEASUREMENT
 70
     1
  9
$CELWEIGHT
370
    -1
  9
$ENDCAPS
280
     0
  9
$JOINSTYLE
280
     0
  9
$LWDISPLAY
290
     1
  9
$INSUNITS
 70
     4
  9
$HYPERLINKBASE
  1

  9
$STYLESHEET
  1
monochrome.ctb
  9
$XEDIT
290
     1
  9
$CEPSNTYPE
380
     0
  9
$PSTYLEMODE
290
     1
  9
$FINGERPRINTGUID
  2
{83FB3AA1-FF18-4BFE-AFE0-611B71DE056D}
  9
$VERSIONGUID
  2
{7B9A66DB-0341-4478-89AE-73D023919D50}
  9
$EXTNAMES
290
     1
  9
$PSVPSCALE
 40
0.0
  9
$OLESTARTUP
290
     0
  0
ENDSEC
  0
SECTION
  2
CLASSES
  0
CLASS
  1
ACDBDICTIONARYWDFLT
  2
AcDbDictionaryWithDefault
  3
ObjectDBX Classes
 90
        0
280
     0
281
     0
  0
CLASS
  1
ACDBPLACEHOLDER
  2
AcDbPlaceHolder
  3
ObjectDBX Classes
 90
        0
280
     0
281
     0
  0
CLASS
  1
LAYOUT
  2
AcDbLayout
  3
ObjectDBX Classes
 90
        0
280
     0
281
     0
  0
CLASS
  1
AMGSETTINGSOBJ
  2
AmgSettingsObj
  3
"AcadM|Product Description: AutoCAD Mechanical|Company: Autodesk"
 90
        0
280
     0
281
     0
  0
CLASS
  1
ACME_DOCUMENT
  2
AcMeDbDoc
  3
AcMeServices
 90
        0
280
     0
281
     0
  0
CLASS
  1
ACMESCOPE
  2
AcMeScope
  3
AcMeServices
 90
        0
280
     0
281
     0
  0
CLASS
  1
ACMECOMMANDHISTORY
  2
AcMeCommandHistory
  3
AcMeServices
 90
        0
280
     0
281
     0
  0
CLASS
  1
DICTIONARYVAR
  2
AcDbDictionaryVar
  3
ObjectDBX Classes
 90
        0
280
     0
281
     0
  0
CLASS
  1
ACIMSYSVARMAN
  2
AcImSysVarManager
  3
AcMeServices
 90
        0
280
     0
281
     0
  0
CLASS
  1
ACIMREALSYSVAR
  2
AcImRealSysVar
  3
AcMeServices
 90
        0
280
     0
281
     0
  0
CLASS
  1
ACIMINTSYSVAR
  2
AcImIntSysVar
  3
AcMeServices
 90
        0
280
     0
281
     0
  0
CLASS
  1
ACMEDRAWINGMAN
  2
AcMeDrawingMan
  3
AcMeServices
 90
        0
280
     0
281
     0
  0
CLASS
  1
ACMEVIEW
  2
AcMeView
  3
AcMeServices
 90
        0
280
     0
281
     0
  0
CLASS
  1
ACDBENTITYCACHE
  2
AcMeEntityCache
  3
AcMeServices
 90
        0
280
     0
281
     0
  0
CLASS
  1
GSMANAGER
  2
AcMeGSManager
  3
AcMeServices
 90
        0
280
     0
281
     0
  0
CLASS
  1
AMDTINTERNALREACTOR
  2
AmdtInternalReactor
  3
AcMeServices
 90
        0
280
     0
281
     0
  0
CLASS
  1
ACMESTATEMGR
  2
AcMeStateMgr
  3
AcMeServices
 90
        0
280
     0
281
     0
  0
CLASS
  1
ACGREFMASTER
  2
AcGrefMaster
  3
AcAttribServices
 90
        0
280
     0
281
     0
  0
CLASS
  1
ACME_DATABASE
  2
AcMeDbDatabase
  3
AcMeServices
 90
        0
280
     0
281
     0
  0
CLASS
  1
ACRFINSADJUSTERMGR
  2
AcRfInsAdjusterMgr
  3
AcMeServices
 90
        0
280
     0
281
     0
  0
CLASS
  1
ACGREFACADMASTER
  2
AcGrefacadMaster
  3
AcGrefServices
 90
        0
280
     0
281
     0
  0
CLASS
  1
AMIMASTER
  2
AmiMaster
  3
AmiServices
 90
        0
280
     0
281
     0
  0
CLASS
  1
ACMDATADICTIONARY
  2
AcmDataDictionary
  3
"AcmSymBB|Product Description: AutoCAD Mechanical|Company: Autodesk"
 90
        0
280
     0
281
     0
  0
CLASS
  1
ACMDATAENTRYBLOCK
  2
AcmDataEntryBlock
  3
"AcmSymBB|Product Description: AutoCAD Mechanical|Company: Autodesk"
 90
        0
280
     0
281
     0
  0
CLASS
  1
ACIMSTRSYSVAR
  2
AcImStrSysVar
  3
AcMeServices
 90
        0
280
     0
281
     0
  0
CLASS
  1
ACMSTANDARDISO
  2
AcmStandardISO
  3
"Amdt_StdImp|Product Description: AutoCAD Mechanical|Company: Autodesk"
 90
        0
280
     0
281
     0
  0
CLASS
  1
AMGOBJPROPCFG
  2
AmgObjPropCfg
  3
"AmgLay|Product Description: AutoCAD Mechanical|Company: Autodesk"
 90
        1
280
     0
281
     0
  0
CLASS
  1
AMDTEDGESTANDARDISO
  2
AmdtEdgeStdISO
  3
"Amdt_StdImp|Product Description: AutoCAD Mechanical|Company: Autodesk"
 90
        0
280
     0
281
     0
  0
CLASS
  1
ACMSURFSTANDARDISO
  2
AcmSurfTextStdISO
  3
"Amdt_StdImp|Product Description: AutoCAD Mechanical|Company: Autodesk"
 90
        0
280
     0
281
     0
  0
CLASS
  1
ACMFCFSTANDARDISO
  2
AcmFCFStdISO
  3
"Amdt_StdImp|Product Description: AutoCAD Mechanical|Company: Autodesk"
 90
        0
280
     0
281
     0
  0
CLASS
  1
ACMWELDSTANDARDISO
  2
AcmWeldingStdISO
  3
"Amdt_StdImp|Product Description: AutoCAD Mechanical|Company: Autodesk"
 90
        0
280
     0
281
     0
  0
CLASS
  1
ACMIDSTANDARDISO
  2
AcmIdStdISO
  3
"Amdt_StdImp|Product Description: AutoCAD Mechanical|Company: Autodesk"
 90
        0
280
     0
281
     0
  0
CLASS
  1
ACMDATUMSTANDARDISO
  2
AcmDatumStdISO
  3
"Amdt_StdImp|Product Description: AutoCAD Mechanical|Company: Autodesk"
 90
        0
280
     0
281
     0
  0
CLASS
  1
ACMBOMSTANDARDISO
  2
AcmBOMStdISO
  3
"Amdt_StdImp|Product Description: AutoCAD Mechanical|Company: Autodesk"
 90
        0
280
     0
281
     0
  0
CLASS
  1
ACMDETAILSTANDARDISO
  2
AmdtDetailSymStdISO
  3
"Amdt_StdImp|Product Description: AutoCAD Mechanical|Company: Autodesk"
 90
        0
280
     0
281
     0
  0
CLASS
  1
ACMSECTIONSTANDARDISO
  2
AmdtSectionSymStdISO
  3
"Amdt_StdImp|Product Description: AutoCAD Mechanical|Company: Autodesk"
 90
        0
280
     0
281
     0
  0
CLASS
  1
ACMCENTERLINESTANDARDISO
  2
AmdtCenterLineStdISO
  3
"Amdt_StdImp|Product Description: AutoCAD Mechanical|Company: Autodesk"
 90
        0
280
     0
281
     0
  0
CLASS
  1
ACAMGLAYSTD
  2
AcAmgLayStd
  3
"AmgLay|Product Description: AutoCAD Mechanical|Company: Autodesk"
 90
        0
280
     0
281
     0
  0
CLASS
  1
ACAMGDIMSTD
  2
AcAmgDimStd
  3
"AmgDim|Product Description: AutoCAD Mechanical|Company: Autodesk"
 90
        0
280
     0
281
     0
  0
CLASS
  1
ACAMGTITLESTD
  2
AcAmgTitleStd
  3
"AmgTitle|Product Description: AutoCAD Mechanical|Company: Autodesk"
 90
        0
280
     0
281
     0
  0
CLASS
  1
ACAMGFILTERDAT
  2
AcAmgFilterDat
  3
"AcadM|Product Description: AutoCAD Mechanical|Company: Autodesk"
 90
        0
280
     0
281
     0
  0
CLASS
  1
LAYER_INDEX
  2
AcDbLayerIndex
  3
ObjectDBX Classes
 90
    32768
280
     0
281
     0
  0
CLASS
  1
IDBUFFER
  2
AcDbIdBuffer
  3
ObjectDBX Classes
 90
    32768
280
     0
281
     0
  0
CLASS
  1
PLOTSETTINGS
  2
AcDbPlotSettings
  3
ObjectDBX Classes
 90
        0
280
     0
281
     0
  0
CLASS
  1
AMDTFORMULAUPDATEDISPATCHER
  2
AmdtFormulaUpdateDispatcher
  3
AcMeServices
 90
        0
280
     0
281
     0
  0
CLASS
  1
ACMSTANDARDANSI
  2
AcmStandardANSI
  3
"Amdt_StdImp|Product Description: AutoCAD Mechanical|Company: Autodesk"
 90
        0
280
     0
281
     0
  0
CLASS
  1
ACMSURFSTANDARDANSI
  2
AcmSurfTextStdANSI
  3
"Amdt_StdImp|Product Description: AutoCAD Mechanical|Company: Autodesk"
 90
        0
280
     0
281
     0
  0
CLASS
  1
ACMFCFSTANDARDANSI
  2
AcmFCFStdANSI
  3
"Amdt_StdImp|Product Description: AutoCAD Mechanical|Company: Autodesk"
 90
        0
280
     0
281
     0
  0
CLASS
  1
ACMWELDSTANDARDANSI
  2
AcmWeldingStdANSI
  3
"Amdt_StdImp|Product Description: AutoCAD Mechanical|Company: Autodesk"
 90
        0
280
     0
281
     0
  0
CLASS
  1
ACMIDSTANDARDANSI
  2
AcmIdStdANSI
  3
"Amdt_StdImp|Product Description: AutoCAD Mechanical|Company: Autodesk"
 90
        0
280
     0
281
     0
  0
CLASS
  1
ACMDATUMSTANDARDANSI
  2
AcmDatumStdANSI
  3
"Amdt_StdImp|Product Description: AutoCAD Mechanical|Company: Autodesk"
 90
        0
280
     0
281
     0
  0
CLASS
  1
ACMBOMSTANDARDANSI
  2
AcmBOMStdANSI
  3
"Amdt_StdImp|Product Description: AutoCAD Mechanical|Company: Autodesk"
 90
        0
280
     0
281
     0
  0
CLASS
  1
ACMDETAILSTANDARDANSI
  2
AmdtDetailSymStdANSI
  3
"Amdt_StdImp|Product Description: AutoCAD Mechanical|Company: Autodesk"
 90
        0
280
     0
281
     0
  0
CLASS
  1
ACMSECTIONSTANDARDANSI
  2
AmdtSectionSymStdANSI
  3
"Amdt_StdImp|Product Description: AutoCAD Mechanical|Company: Autodesk"
 90
        0
280
     0
281
     0
  0
CLASS
  1
ACMCENTERLINESTANDARDANSI
  2
AmdtCenterLineStdANSI
  3
"Amdt_StdImp|Product Description: AutoCAD Mechanical|Company: Autodesk"
 90
        0
280
     0
281
     0
  0
CLASS
  1
ACMBOM
  2
AcmBom
  3
"AcmSymBB|Product Description: AutoCAD Mechanical|Company: Autodesk"
 90
        0
280
     0
281
     0
  0
CLASS
  1
ACMDATAENTRYPART
  2
AcmDataEntryPart
  3
"AcmSymBB|Product Description: AutoCAD Mechanical|Company: Autodesk"
 90
    32768
280
     0
281
     0
  0
CLASS
  1
ACMPARTREF
  2
AcmPartRef
  3
"AcmSymBB|Product Description: AutoCAD Mechanical|Company: Autodesk"
 90
    35839
280
     0
281
     1
  0
CLASS
  1
ACDBCIRCARCRES
  2
AcDbCircArcRes
  3
AcGrefServices
 90
    32768
280
     0
281
     0
  0
CLASS
  1
ACMBOMROW
  2
AcmBomRow
  3
"AcmSymBB|Product Description: AutoCAD Mechanical|Company: Autodesk"
 90
    32768
280
     0
281
     0
  0
CLASS
  1
ACMBALLOON
  2
AcmBalloon
  3
"AcmSymBB|Product Description: AutoCAD Mechanical|Company: Autodesk"
 90
    35839
280
     0
281
     1
  0
CLASS
  1
AMDTNOTE
  2
AmdtNote
  3
"AcmSymBB|Product Description: AutoCAD Mechanical|Company: Autodesk"
 90
     3071
280
     0
281
     1
  0
CLASS
  1
STDPART2D
  2
AmgStdPart
  3
"AmgStdPart|Product Description: AutoCAD Mechanical|Company: Autodesk"
 90
    35839
280
     0
281
     1
  0
CLASS
  1
ACDBSTDPARTRES_LINE
  2
AcDbStdPartRes_Line
  3
"AmgStdPart|Product Description: AutoCAD Mechanical|Company: Autodesk"
 90
    32768
280
     0
281
     0
  0
CLASS
  1
ACMDATAENTRY
  2
AcmDataEntry
  3
"AcmSymBB|Product Description: AutoCAD Mechanical|Company: Autodesk"
 90
        0
280
     0
281
     0
  0
CLASS
  1
ACDBOPPOLYLINERES
  2
AcDbOpPolylineRes
  3
AcGrefServices
 90
    32768
280
     0
281
     0
  0
CLASS
  1
ACMPARTLIST
  2
AcmPartList
  3
"AcmSymBB|Product Description: AutoCAD Mechanical|Company: Autodesk"
 90
    35839
280
     0
281
     1
  0
CLASS
  1
ACDBLINERES
  2
AcDbLineRes
  3
AcGrefServices
 90
    32768
280
     0
281
     0
  0
CLASS
  1
ACRFINSADJ
  2
AcRfInsAdjuster
  3
AcMeServices
 90
    32768
280
     0
281
     0
  0
CLASS
  1
AM_DRAWING_MGR
  2
AcDmDwgMgr
  3
AcMechDwgViewMgmt
 90
        0
280
     0
281
     0
  0
CLASS
  1
AM_DWG_DOCUMENT
  2
AcDmDwgDocument
  3
AcMechDwgViewMgmt
 90
        0
280
     0
281
     0
  0
CLASS
  1
AM_DWG_SHEET
  2
AcDmSheet
  3
AcMechDwgViewMgmt
 90
        0
280
     0
281
     0
  0
CLASS
  1
AM_VIEWDIMPARMAP
  2
AcDmViewDimParMap
  3
AcMechDwgViewMgmt
 90
        0
280
     0
281
     0
  0
CLASS
  1
AM_DWGMGR_NAME
  2
AcDmDwgMgrName
  3
AcMechDwgViewMgmt
 90
        0
280
     0
281
     0
  0
CLASS
  1
AMDTMENUSTATEMGR
  2
AmdtMenuStateMgr
  3
McadcomServices
 90
        0
280
     0
281
     0
  0
CLASS
  1
AMDTMCOMMENUSTATE
  2
AmdtMcomMenuState
  3
McadcomServices
 90
        0
280
     0
281
     0
  0
CLASS
  1
ASAPP
  2
AcAsAppObject
  3
AutoSurfServices
 90
        0
280
     0
281
     0
  0
CLASS
  1
IM_STATIC_MAN
  2
AcImStaticVarManager
  3
AcMeServices
 90
        0
280
     0
281
     0
  0
CLASS
  1
ACIMDBLSTATICVAR
  2
AcImDblStaticVar
  3
AcMeServices
 90
        0
280
     0
281
     0
  0
CLASS
  1
ACIMSTRSTATICVAR
  2
AcImStrStaticVar
  3
AcMeServices
 90
        0
280
     0
281
     0
  0
CLASS
  1
ACIMINTSTATICVAR
  2
AcImIntStaticVar
  3
AcMeServices
 90
        0
280
     0
281
     0
  0
CLASS
  1
ACASGREFMASTER
  2
AcAsGrefMaster
  3
AutoSurfResolverServices
 90
        0
280
     0
281
     0
  0
CLASS
  1
ACADGREFMODULE
  2
AcAdGrefModule
  3
AdGrefServices
 90
        0
280
     0
281
     0
  0
CLASS
  1
AMDTMAPISURFMOUDULE
  2
AmdtMApiSurfModule
  3
MApiSurfServices
 90
        0
280
     0
281
     0
  0
CLASS
  1
MAPIAMMOUDLE
  2
MApiAmModule
  3
MApiAmServices
 90
        0
280
     0
281
     0
  0
CLASS
  1
AMDTADMENUSTATE
  2
AmdtAdMenuState
  3
DesignerServices
 90
        0
280
     0
281
     0
  0
CLASS
  1
ADAPPL
  2
AcAdAppl
  3
DesignerServices
 90
        0
280
     0
281
     0
  0
CLASS
  1
DEPMGR
  2
AcAdDepMgr
  3
DesignerServices
 90
        0
280
     0
281
     0
  0
CLASS
  1
PARAMMGR
  2
AcAdParamMgr
  3
DesignerServices
 90
        0
280
     0
281
     0
  0
CLASS
  1
PARAMSCOPE
  2
AcAdParamScope
  3
DesignerServices
 90
        0
280
     0
281
     0
  0
CLASS
  1
NAMEDAPPL
  2
AcAdNamedAppl
  3
DesignerServices
 90
        0
280
     0
281
     0
  0
CLASS
  1
ADHNTMPLT
  2
AdHoleNoteTemplateMgr
  3
DesignerServices
 90
    32768
280
     0
281
     0
  0
CLASS
  1
AM_HNTEMPLATE_MGR_NAME
  2
AdHoleNoteTemplateMgrName
  3
DesignerServices
 90
    32768
280
     0
281
     0
  0
CLASS
  1
AMDTDMMENUSTATE
  2
AmdtDmMenuState
  3
AcMechDwgViewMgmt
 90
        0
280
     0
281
     0
  0
CLASS
  1
MAPIADMODULE
  2
MApiAdModule
  3
MApiAdServices
 90
        0
280
     0
281
     0
  0
CLASS
  1
AMDTAMMENUSTATE
  2
AmdtAmMenuState
  3
DesignerAssemblies
 90
        0
280
     0
281
     0
  0
CLASS
  1
ACAMPROJECT
  2
AcAmProject
  3
DesignerAssemblies
 90
        0
280
     0
281
     0
  0
CLASS
  1
ACAMGRCOMPDEF
  2
AcAmGrCompDef
  3
DesignerAssemblies
 90
        0
280
     0
281
     0
  0
CLASS
  1
ACCMCONTEXT
  2
AcCmContext
  3
DesignerAssemblies
 90
        0
280
     0
281
     0
  0
CLASS
  1
ACAMCOMPDEF
  2
AcAmCompDef
  3
DesignerAssemblies
 90
        0
280
     0
281
     0
  0
CLASS
  1
ACAMCOMPDEFMGR
  2
AcAmCompDefMgr
  3
DesignerAssemblies
 90
        0
280
     0
281
     0
  0
CLASS
  1
AMCONTEXTMGR
  2
AcAmContextMgr
  3
DesignerAssemblies
 90
        0
280
     0
281
     0
  0
CLASS
  1
ACAMCONTEXTMODELER
  2
AcAmContextModeler
  3
DesignerAssemblies
 90
        0
280
     0
281
     0
  0
CLASS
  1
CATALOGSTATE
  2
AcAmCatalogState
  3
DesignerAssemblies
 90
        0
280
     0
281
     0
  0
CLASS
  1
ACAMGRCOMPDEFSET
  2
AcAmGrCompDefSet
  3
DesignerAssemblies
 90
        0
280
     0
281
     0
  0
CLASS
  1
AMDTBROWSERDBTAB
  2
AmdtBrowserDbTab
  3
McadcomServices
 90
        0
280
     0
281
     0
  0
CLASS
  1
CBROWSERAPPOBJECT
  2
CBrowserAppObject
  3
McadcomServices
 90
        0
280
     0
281
     0
  0
CLASS
  1
DM_PLACEHOLDER
  2
AcDmSelsetPlaceholder
  3
AcMechDwgViewMgmt
 90
        0
280
     0
281
     0
  0
CLASS
  1
ACMPICKOBJ
  2
AcmPickEnt
  3
"AcmSymBB|Product Description: AutoCAD Mechanical|Company: Autodesk"
 90
    32768
280
     0
281
     1
  0
CLASS
  1
MATERIAL
  2
AcDbMaterial
  3
ObjectDBX Classes
 90
     1153
280
     0
281
     0
  0
CLASS
  1
VISUALSTYLE
  2
AcDbVisualStyle
  3
ObjectDBX Classes
 90
     4095
280
     0
281
     0
  0
CLASS
  1
TABLESTYLE
  2
AcDbTableStyle
  3
ObjectDBX Classes
 90
     4095
280
     0
281
     0
  0
CLASS
  1
ACRFATTGENMGR
  2
AcRfAttGeneralMgr
  3
AcAttribServices
 90
        0
280
     0
281
     0
  0
CLASS
  1
ACRFOBJATTMGR
  2
AcRfObjAttGroupMgr
  3
AcAttribServices
 90
        0
280
     0
281
     0
  0
CLASS
  1
ACRFMCADAPIATTHOLDER
  2
AcRfMCADAPIAttHolder
  3
AcAttribServices
 90
        0
280
     0
281
     0
  0
CLASS
  1
AMDTSYSATTR
  2
AmdtSystemAttribute
  3
AcAttribServices
 90
        0
280
     0
281
     0
  0
CLASS
  1
ACMTHREADLINESTANDARDISO
  2
AmdtThreadLineStdISO
  3
"Amdt_StdImp|Product Description: AutoCAD Mechanical|Company: Autodesk"
 90
        0
280
     0
281
     0
  0
CLASS
  1
ACMNOTESTANDARDISO
  2
AmdtNoteStdISO
  3
"Amdt_StdImp|Product Description: AutoCAD Mechanical|Company: Autodesk"
 90
        0
280
     0
281
     0
  0
CLASS
  1
AMDTNOTETEMPLATEDB
  2
AmdtNoteTemplateDB
  3
AMDT_STDIMP_MODULE_NAME
 90
        0
280
     0
281
     0
  0
CLASS
  1
ACMTAPERSTANDARDISO
  2
AcmTaperStdISO
  3
"Amdt_StdImp|Product Description: AutoCAD Mechanical|Company: Autodesk"
 90
        0
280
     0
281
     0
  0
CLASS
  1
ACMTHREADLINESTANDARDANSI
  2
AmdtThreadLineStdANSI
  3
"Amdt_StdImp|Product Description: AutoCAD Mechanical|Company: Autodesk"
 90
        0
280
     0
281
     0
  0
CLASS
  1
ACMNOTESTANDARDANSI
  2
AmdtNoteStdANSI
  3
"Amdt_StdImp|Product Description: AutoCAD Mechanical|Company: Autodesk"
 90
        0
280
     0
281
     0
  0
CLASS
  1
ACMTAPERSTANDARDANSI
  2
AcmTaperStdANSI
  3
"Amdt_StdImp|Product Description: AutoCAD Mechanical|Company: Autodesk"
 90
        0
280
     0
281
     0
  0
CLASS
  1
CAMSSTRUCTBTNSTATE
  2
StructBtnState
  3
L"DesignerAssemblies"
 90
        0
280
     0
281
     0
  0
CLASS
  1
SORTENTSTABLE
  2
AcDbSortentsTable
  3
ObjectDBX Classes
 90
        0
280
     0
281
     0
  0
CLASS
  1
DIMASSOC
  2
AcDbDimAssoc
  3
"AcDbDimAssoc|Product Desc:     AcDim ARX App For Dimension|Company:          Autodesk, Inc.|WEB Address:      www.autodesk.com"
 90
        0
280
     0
281
     0
  0
ENDSEC
  0
SECTION
  2
TABLES
  0
TABLE
  2
VPORT
  5
8
330
0
100
AcDbSymbolTable
 70
     1
  0
VPORT
  5
C444
330
8
100
AcDbSymbolTableRecord
100
AcDbViewportTableRecord
  2
*Active
 70
     0
 10
0.0
 20
0.0
 11
1.0
 21
1.0
 12
3277.8359148532
 22
-2993.713627300709
 13
0.0
 23
0.0
 14
2.5
 24
2.5
 15
10.0
 25
10.0
 16
0.0
 26
0.0
 36
1.0
 17
0.0
 27
0.0
 37
0.0
 40
628.5152139178302
 41
1.702970297029702
 42
50.0
 43
-1370.695619172058
 44
-1370.695619172058
 50
0.0
 51
0.0
 71
    16
 72
   100
 73
     1
 74
     3
 75
     0
 76
     0
 77
     0
 78
     0
281
     0
 65
     0
110
0.0
120
0.0
130
0.0
111
1.0
121
0.0
131
0.0
112
0.0
122
1.0
132
0.0
 79
     0
146
0.0
  0
ENDTAB
  0
TABLE
  2
LTYPE
  5
5
330
0
100
AcDbSymbolTable
 70
    22
  0
LTYPE
  5
14
330
5
100
AcDbSymbolTableRecord
100
AcDbLinetypeTableRecord
  2
ByBlock
 70
     0
  3

 72
    65
 73
     0
 40
0.0
  0
LTYPE
  5
15
330
5
100
AcDbSymbolTableRecord
100
AcDbLinetypeTableRecord
  2
ByLayer
 70
     0
  3

 72
    65
 73
     0
 40
0.0
  0
LTYPE
  5
16
330
5
100
AcDbSymbolTableRecord
100
AcDbLinetypeTableRecord
  2
Continuous
 70
     0
  3
Solid line
 72
    65
 73
     0
 40
0.0
  0
LTYPE
  5
4F
330
5
100
AcDbSymbolTableRecord
100
AcDbLinetypeTableRecord
  2
AM_ISO02W050
 70
     0
  3
__ __ __ __ __ __ __ __ __ __ __ __ __ __ __
 72
    65
 73
     2
 40
7.5
 49
6.0
 74
     0
 49
-1.5
 74
     0
  0
LTYPE
  5
52
330
5
100
AcDbSymbolTableRecord
100
AcDbLinetypeTableRecord
  2
Amconstr
 70
     0
  3
_______________________
 72
    65
 73
     2
 40
9999.0
 49
9999.0
 74
     0
 49
0.0
 74
     0
  0
LTYPE
  5
64
330
5
100
AcDbSymbolTableRecord
100
AcDbLinetypeTableRecord
  2
ACISOWELD
 70
     0
  3
_ _ _ _ _
 72
    65
 73
     2
 40
2.0
 49
2.0
 74
     0
 49
-1.0
 74
     0
  0
LTYPE
  5
65
330
5
100
AcDbSymbolTableRecord
100
AcDbLinetypeTableRecord
  2
ACISOTGB
 70
     0
  3
__ . . __ . .
 72
    65
 73
     6
 40
9.0
 49
4.0
 74
     0
 49
-1.0
 74
     0
 49
1.0
 74
     0
 49
-1.0
 74
     0
 49
1.0
 74
     0
 49
-1.0
 74
     0
  0
LTYPE
  5
66
330
5
100
AcDbSymbolTableRecord
100
AcDbLinetypeTableRecord
  2
ACISOTGL
 70
     0
  3
_ _ _ _ _
 72
    65
 73
     2
 40
3.0
 49
2.0
 74
     0
 49
-1.0
 74
     0
  0
LTYPE
  5
69
330
5
100
AcDbSymbolTableRecord
100
AcDbLinetypeTableRecord
  2
CENTER
 70
     0
  3
__ . __
 72
    65
 73
     4
 40
7.0
 49
4.0
 74
     0
 49
-1.0
 74
     0
 49
1.0
 74
     0
 49
-1.0
 74
     0
  0
LTYPE
  5
A6E
330
5
100
AcDbSymbolTableRecord
100
AcDbLinetypeTableRecord
  2
PHANTOM2
 70
     0
  3
Phantom (.5x) ___ _ _ ___ _ _ ___ _ _ ___ _ _
 72
    65
 73
     6
 40
31.75
 49
15.875
 74
     0
 49
-3.174999999999999
 74
     0
 49
3.174999999999999
 74
     0
 49
-3.174999999999999
 74
     0
 49
3.174999999999999
 74
     0
 49
-3.174999999999999
 74
     0
  0
LTYPE
  5
FA3
330
5
100
AcDbSymbolTableRecord
100
AcDbLinetypeTableRecord
  2
ACANSTGB
 70
     0
  3
__ . . __ . .
 72
    65
 73
     6
 40
0.35433070866
 49
0.15748031496
 74
     0
 49
-0.03937007874
 74
     0
 49
0.03937007874
 74
     0
 49
-0.03937007874
 74
     0
 49
0.03937007874
 74
     0
 49
-0.03937007874
 74
     0
  0
LTYPE
  5
FA4
330
5
100
AcDbSymbolTableRecord
100
AcDbLinetypeTableRecord
  2
ACANSTGL
 70
     0
  3
_ _ _ _ _
 72
    65
 73
     2
 40
0.11811023622
 49
0.07874015748
 74
     0
 49
-0.03937007874
 74
     0
  0
LTYPE
  5
4DED
330
5
100
AcDbSymbolTableRecord
100
AcDbLinetypeTableRecord
  2
中線
 70
     0
  3
___________________
 72
    65
 73
     2
 40
2.0
 49
1.0
 74
     0
 49
1.0
 74
     0
  0
LTYPE
  5
4DF6
330
5
100
AcDbSymbolTableRecord
100
AcDbLinetypeTableRecord
  2
細線
 70
     0
  3
___________________
 72
    65
 73
     2
 40
2.0
 49
1.0
 74
     0
 49
1.0
 74
     0
  0
LTYPE
  5
4DF7
330
5
100
AcDbSymbolTableRecord
100
AcDbLinetypeTableRecord
  2
太線
 70
     0
  3
___________________
 72
    65
 73
     2
 40
2.0
 49
1.0
 74
     0
 49
1.0
 74
     0
  0
LTYPE
  5
4EA7
330
5
100
AcDbSymbolTableRecord
100
AcDbLinetypeTableRecord
  2
文字
 70
     0
  3
_________________
 72
    65
 73
     2
 40
2.0
 49
1.0
 74
     0
 49
1.0
 74
     0
  0
LTYPE
  5
4EA9
330
5
100
AcDbSymbolTableRecord
100
AcDbLinetypeTableRecord
  2
寸法線
 70
     0
  3
________________
 72
    65
 73
     2
 40
2.0
 49
1.0
 74
     0
 49
1.0
 74
     0
  0
LTYPE
  5
4F12
330
5
100
AcDbSymbolTableRecord
100
AcDbLinetypeTableRecord
  2
ハッチング
 70
     0
  3
_________________
 72
    65
 73
     2
 40
2.0
 49
1.0
 74
     0
 49
1.0
 74
     0
  0
LTYPE
  5
5180
330
5
100
AcDbSymbolTableRecord
100
AcDbLinetypeTableRecord
  2
陰線1
 70
     0
  3
__ __ __ __
 72
    65
 73
     2
 40
4.0
 49
2.2
 74
     0
 49
-1.8
 74
     0
  0
LTYPE
  5
5182
330
5
100
AcDbSymbolTableRecord
100
AcDbLinetypeTableRecord
  2
切断線
 70
     0
  3
/\/-/\/-/\/-/\/-/\/-/\/
 72
    65
 73
     2
 40
11.0001
 49
0.0001
 74
     4
 75
   135
340
56
 46
0.04
 50
0.0
 44
0.0
 45
0.0
 49
-11.0
 74
     0
  0
LTYPE
  5
5183
330
5
100
AcDbSymbolTableRecord
100
AcDbLinetypeTableRecord
  2
想像線1
 70
     0
  3
__ __ __ _____ __ __ ____
 72
    65
 73
     6
 40
14.5
 49
6.0
 74
     0
 49
-1.5
 74
     0
 49
2.0
 74
     0
 49
-1.5
 74
     0
 49
2.0
 74
     0
 49
-1.5
 74
     0
  0
LTYPE
  5
5185
330
5
100
AcDbSymbolTableRecord
100
AcDbLinetypeTableRecord
  2
中心線1
 70
     0
  3
___ _ ___ _ ___
 72
    65
 73
     4
 40
18.0
 49
12.0
 74
     0
 49
-2.0
 74
     0
 49
2.0
 74
     0
 49
-2.0
 74
     0
  0
LTYPE
  5
5188
330
5
100
AcDbSymbolTableRecord
100
AcDbLinetypeTableRecord
  2
補助線
 70
     0
  3
______________
 72
    65
 73
     2
 40
2.0
 49
1.0
 74
     0
 49
1.0
 74
     0
  0
LTYPE
  5
C49C
330
5
100
AcDbSymbolTableRecord
100
AcDbLinetypeTableRecord
  2
HIDDEN
 70
     0
  3
Hidden __ __ __ __ __ __ __ __ __ __ __ __ __ _
 72
    65
 73
     2
 40
9.524999999999998
 49
6.349999999999999
 74
     0
 49
-3.174999999999999
 74
     0
  0
ENDTAB
  0
TABLE
  2
LAYER
  5
2
102
{ACAD_XDICTIONARY
360
3F95
102
}
330
0
100
AcDbSymbolTable
 70
    12
  0
LAYER
  5
10
330
2
100
AcDbSymbolTableRecord
100
AcDbLayerTableRecord
  2
0
 70
     0
 62
     7
  6
Continuous
370
    -3
390
F
  0
LAYER
  5
6D1
330
2
100
AcDbSymbolTableRecord
100
AcDbLayerTableRecord
  2
Defpoints
 70
     0
 62
     7
  6
Continuous
290
     0
370
    -3
390
F
  0
LAYER
  5
A46
330
2
100
AcDbSymbolTableRecord
100
AcDbLayerTableRecord
  2
size
 70
     0
 62
     5
  6
Continuous
290
     0
370
    30
390
F
  0
LAYER
  5
A47
330
2
100
AcDbSymbolTableRecord
100
AcDbLayerTableRecord
  2
waku
 70
     0
 62
     7
  6
Continuous
370
    40
390
F
  0
LAYER
  5
A48
330
2
100
AcDbSymbolTableRecord
100
AcDbLayerTableRecord
  2
AM_6
 70
     0
 62
     2
  6
文字
370
    20
390
F
  0
LAYER
  5
5F85
330
2
100
AcDbSymbolTableRecord
100
AcDbLayerTableRecord
  2
AM_0
 70
     0
 62
     7
  6
中線
370
    30
390
F
  0
LAYER
  5
5F89
330
2
100
AcDbSymbolTableRecord
100
AcDbLayerTableRecord
  2
AM_4
 70
     0
 62
     3
  6
補助線
370
    20
390
F
  0
LAYER
  5
BFAB
330
2
100
AcDbSymbolTableRecord
100
AcDbLayerTableRecord
  2
AM_5
 70
     0
 62
     3
  6
寸法線
370
    18
390
F
  0
LAYER
  5
494E2
330
2
100
AcDbSymbolTableRecord
100
AcDbLayerTableRecord
  2
000鈴木検図
 70
     0
 62
     1
  6
中線
370
    40
390
F
1001
AcAecLayerStandard
1000

1000

  0
LAYER
  5
4A36E
330
2
100
AcDbSymbolTableRecord
100
AcDbLayerTableRecord
  2
0部品9
 70
     0
 62
    10
  6
Continuous
370
    -3
390
F
1001
AcAecLayerStandard
1000

1000

  0
LAYER
  5
4ADE7
330
2
100
AcDbSymbolTableRecord
100
AcDbLayerTableRecord
  2
AM_CL
 70
     0
 62
     1
  6
Amconstr
370
    20
390
F
1001
AcAecLayerStandard
1000

1000

  0
LAYER
  5
4ADE8
330
2
100
AcDbSymbolTableRecord
100
AcDbLayerTableRecord
  2
AM_7
 70
     0
 62
     4
  6
中心線1
370
    15
390
F
1001
AcAecLayerStandard
1000

1000

  0
ENDTAB
  0
TABLE
  2
STYLE
  5
3
330
0
100
AcDbSymbolTable
 70
     7
  0
STYLE
  5
11
330
3
100
AcDbSymbolTableRecord
100
AcDbTextStyleTableRecord
  2
STANDARD
 70
     0
 40
0.0
 41
0.7
 50
0.0
 71
     0
 42
3.5
  3
romans.shx
  4
extfont.shx
  0
STYLE
  5
56
330
3
100
AcDbSymbolTableRecord
100
AcDbTextStyleTableRecord
  2

 70
     1
 40
0.0
 41
1.0
 50
0.0
 71
     0
 42
2.5
  3
ltypeshp.shx
  4

  0
STYLE
  5
58
330
3
100
AcDbSymbolTableRecord
100
AcDbTextStyleTableRecord
  2
ACISOTS
 70
     0
 40
1.0
 41
1.0
 50
0.0
 71
     0
 42
2.5
  3
isocp.shx
  4
extfont.shx
  0
STYLE
  5
63
330
3
100
AcDbSymbolTableRecord
100
AcDbTextStyleTableRecord
  2
ACISOGDT
 70
     0
 40
0.0
 41
1.0
 50
0.0
 71
     0
 42
2.5
  3
amgdt.shx
  4

  0
STYLE
  5
A74
330
3
100
AcDbSymbolTableRecord
100
AcDbTextStyleTableRecord
  2
DIM
 70
     0
 40
0.0
 41
1.0
 50
0.0
 71
     0
 42
2.5
  3
monotxt.shx
  4
extfont.shx
  0
STYLE
  5
FA7
330
3
100
AcDbSymbolTableRecord
100
AcDbTextStyleTableRecord
  2
ACANSTS
 70
     0
 40
1.0
 41
1.0
 50
0.0
 71
     0
 42
0.2
  3
romans.shx
  4
extfont.shx
  0
STYLE
  5
FA8
330
3
100
AcDbSymbolTableRecord
100
AcDbTextStyleTableRecord
  2
ACANSGDT
 70
     0
 40
0.0
 41
1.0
 50
0.0
 71
     0
 42
0.2
  3
amgdtans.shx
  4

  0
ENDTAB
  0
TABLE
  2
VIEW
  5
6
330
0
100
AcDbSymbolTable
 70
     6
  0
VIEW
  5
AE1
330
6
100
AcDbSymbolTableRecord
100
AcDbViewTableRecord
  2
AM_VIEW1
 70
     0
 40
52.5
 10
2210.154925218148
 20
-2451.622216979716
 41
83.75147928994101
 11
0.0
 21
0.0
 31
1.0
 12
0.0
 22
0.0
 32
0.0
 42
50.0
 43
-1370.695619172058
 44
-1370.695619172058
 50
0.0
 71
    16
281
     0
 72
     0
  0
VIEW
  5
AE2
330
6
100
AcDbSymbolTableRecord
100
AcDbViewTableRecord
  2
AM_VIEW2
 70
     0
 40
52.5
 10
2274.903445928207
 20
-2451.622216979716
 41
83.75147928994101
 11
0.0
 21
0.0
 31
1.0
 12
0.0
 22
0.0
 32
0.0
 42
50.0
 43
-1370.695619172058
 44
-1370.695619172058
 50
0.0
 71
    16
281
     0
 72
     0
  0
VIEW
  5
AE3
330
6
100
AcDbSymbolTableRecord
100
AcDbViewTableRecord
  2
AM_VIEW3
 70
     0
 40
52.5
 10
2210.154925218148
 20
-2504.122216979716
 41
83.75147928994101
 11
0.0
 21
0.0
 31
1.0
 12
0.0
 22
0.0
 32
0.0
 42
50.0
 43
-1370.695619172058
 44
-1370.695619172058
 50
0.0
 71
    16
281
     0
 72
     0
  0
VIEW
  5
AE4
330
6
100
AcDbSymbolTableRecord
100
AcDbViewTableRecord
  2
AM_VIEW4
 70
     0
 40
52.5
 10
2274.903445928207
 20
-2504.122216979716
 41
83.75147928994101
 11
0.0
 21
0.0
 31
1.0
 12
0.0
 22
0.0
 32
0.0
 42
50.0
 43
-1370.695619172058
 44
-1370.695619172058
 50
0.0
 71
    16
281
     0
 72
     0
  0
VIEW
  5
AE5
330
6
100
AcDbSymbolTableRecord
100
AcDbViewTableRecord
  2
AM_VIEW5
 70
     0
 40
52.5
 10
2242.529185573177
 20
-2477.872216979716
 41
83.75147928994101
 11
0.0
 21
0.0
 31
1.0
 12
0.0
 22
0.0
 32
0.0
 42
50.0
 43
-1370.695619172058
 44
-1370.695619172058
 50
0.0
 71
    16
281
     0
 72
     0
  0
VIEW
  5
AE6
330
6
100
AcDbSymbolTableRecord
100
AcDbViewTableRecord
  2
AM_VIEW6
 70
     0
 40
104.9989500000001
 10
2242.529185573177
 20
-2477.872216979716
 41
167.5012835502957
 11
0.0
 21
0.0
 31
1.0
 12
0.0
 22
0.0
 32
0.0
 42
50.0
 43
-1370.695619172058
 44
-1370.695619172058
 50
0.0
 71
    16
281
     0
 72
     0
  0
ENDTAB
  0
TABLE
  2
UCS
  5
7
330
0
100
AcDbSymbolTable
 70
     0
  0
ENDTAB
  0
TABLE
  2
APPID
  5
9
330
0
100
AcDbSymbolTable
 70
    63
  0
APPID
  5
12
330
9
100
AcDbSymbolTableRecord
100
AcDbRegAppTableRecord
  2
ACAD
 70
     0
  0
APPID
  5
30
330
9
100
AcDbSymbolTableRecord
100
AcDbRegAppTableRecord
  2
MCAD_NO_VIS
 70
     0
  0
APPID
  5
31
330
9
100
AcDbSymbolTableRecord
100
AcDbRegAppTableRecord
  2
ACAD_TEMP_GRAPHIC
 70
     0
  0
APPID
  5
44
330
9
100
AcDbSymbolTableRecord
100
AcDbRegAppTableRecord
  2
ACATTRIBSERVICES
 70
     0
  0
APPID
  5
7A1
330
9
100
AcDbSymbolTableRecord
100
AcDbRegAppTableRecord
  2
GENIUS_GENDIMSH_14
 70
     0
  0
APPID
  5
A49
330
9
100
AcDbSymbolTableRecord
100
AcDbRegAppTableRecord
  2
GENIUS_GENREC_14
 70
     0
  0
APPID
  5
A4A
330
9
100
AcDbSymbolTableRecord
100
AcDbRegAppTableRecord
  2
GENIUS_GENOBJ-N-REC_13
 70
     0
  0
APPID
  5
A4B
330
9
100
AcDbSymbolTableRecord
100
AcDbRegAppTableRecord
  2
GENIUS_GENODEF_13
 70
     0
  0
APPID
  5
A4C
330
9
100
AcDbSymbolTableRecord
100
AcDbRegAppTableRecord
  2
DCO15
 70
     0
  0
APPID
  5
ADC
330
9
100
AcDbSymbolTableRecord
100
AcDbRegAppTableRecord
  2
GENIUS_GENOLIS_13
 70
     0
  0
APPID
  5
ADD
330
9
100
AcDbSymbolTableRecord
100
AcDbRegAppTableRecord
  2
GENIUS_GENOENT_13
 70
     0
  0
APPID
  5
ADE
330
9
100
AcDbSymbolTableRecord
100
AcDbRegAppTableRecord
  2
GENIUS_GENOBJ-N-TIT_13
 70
     0
  0
APPID
  5
ADF
330
9
100
AcDbSymbolTableRecord
100
AcDbRegAppTableRecord
  2
GENIUS_GENTITLE_13
 70
     0
  0
APPID
  5
AE0
330
9
100
AcDbSymbolTableRecord
100
AcDbRegAppTableRecord
  2
GENIUS_GENOREF_13
 70
     0
  0
APPID
  5
AE7
330
9
100
AcDbSymbolTableRecord
100
AcDbRegAppTableRecord
  2
GENIUS_GENSCREG_15
 70
     0
  0
APPID
  5
AE8
330
9
100
AcDbSymbolTableRecord
100
AcDbRegAppTableRecord
  2
GENIUS_GENOBJ-N-SDF_13
 70
     0
  0
APPID
  5
FAF
330
9
100
AcDbSymbolTableRecord
100
AcDbRegAppTableRecord
  2
GENIUS_GENBLLY_14
 70
     0
  0
APPID
  5
FB0
330
9
100
AcDbSymbolTableRecord
100
AcDbRegAppTableRecord
  2
GENIUS_GENTRA_14
 70
     0
  0
APPID
  5
1285
330
9
100
AcDbSymbolTableRecord
100
AcDbRegAppTableRecord
  2
GENIUS_GENDTOL_13
 70
     0
  0
APPID
  5
142D
330
9
100
AcDbSymbolTableRecord
100
AcDbRegAppTableRecord
  2
GENIUS_GENOBJ-N-CEN_13
 70
     0
  0
APPID
  5
1AB5
330
9
100
AcDbSymbolTableRecord
100
AcDbRegAppTableRecord
  2
GENIUS_GENOBJ-N-CRS_13
 70
     0
  0
APPID
  5
1B36
330
9
100
AcDbSymbolTableRecord
100
AcDbRegAppTableRecord
  2
GENIUS_GENOBJ-N-HTC_13
 70
     0
  0
APPID
  5
1B37
330
9
100
AcDbSymbolTableRecord
100
AcDbRegAppTableRecord
  2
GENIUS_GENHATCH_13
 70
     0
  0
APPID
  5
216D
330
9
100
AcDbSymbolTableRecord
100
AcDbRegAppTableRecord
  2
GENIUS_GENOBJ-N-FIL_13
 70
     0
  0
APPID
  5
2356
330
9
100
AcDbSymbolTableRecord
100
AcDbRegAppTableRecord
  2
GEVID990412420
 70
     0
  0
APPID
  5
2357
330
9
100
AcDbSymbolTableRecord
100
AcDbRegAppTableRecord
  2
GEVDC
 70
     0
  0
APPID
  5
2358
330
9
100
AcDbSymbolTableRecord
100
AcDbRegAppTableRecord
  2
GEVCON
 70
     0
  0
APPID
  5
235B
330
9
100
AcDbSymbolTableRecord
100
AcDbRegAppTableRecord
  2
GEVRADREF
 70
     0
  0
APPID
  5
2360
330
9
100
AcDbSymbolTableRecord
100
AcDbRegAppTableRecord
  2
GENIUS_GENBH_13
 70
     0
  0
APPID
  5
2362
330
9
100
AcDbSymbolTableRecord
100
AcDbRegAppTableRecord
  2
GENIUS_GENOBJ-NBEHI-BHF_13
 70
     0
  0
APPID
  5
2364
330
9
100
AcDbSymbolTableRecord
100
AcDbRegAppTableRecord
  2
GENIUS_GENOBJ-NBEHI-BHB_13
 70
     0
  0
APPID
  5
2379
330
9
100
AcDbSymbolTableRecord
100
AcDbRegAppTableRecord
  2
GENIUS_GENOBJ-F-SCPASSM_13
 70
     0
  0
APPID
  5
3D74
330
9
100
AcDbSymbolTableRecord
100
AcDbRegAppTableRecord
  2
GENIUS_GENDIM_13
 70
     0
  0
APPID
  5
3D76
330
9
100
AcDbSymbolTableRecord
100
AcDbRegAppTableRecord
  2
GENIUS_GE3DTOL_13
 70
     0
  0
APPID
  5
3D9C
330
9
100
AcDbSymbolTableRecord
100
AcDbRegAppTableRecord
  2
AD_DRAW
 70
     0
  0
APPID
  5
3DE8
330
9
100
AcDbSymbolTableRecord
100
AcDbRegAppTableRecord
  2
ASURF_PCURVE_APPNAME
 70
     0
  0
APPID
  5
3DED
330
9
100
AcDbSymbolTableRecord
100
AcDbRegAppTableRecord
  2
AMG_3D2D_5.0
 70
     0
  0
APPID
  5
3E1B
330
9
100
AcDbSymbolTableRecord
100
AcDbRegAppTableRecord
  2
DESIGNERASSEMBLIES
 70
     0
  0
APPID
  5
3E20
330
9
100
AcDbSymbolTableRecord
100
AcDbRegAppTableRecord
  2
ACADM_DIM_EDIT
 70
     0
  0
APPID
  5
3E21
330
9
100
AcDbSymbolTableRecord
100
AcDbRegAppTableRecord
  2
AMDT_DM_ADJ
 70
     0
  0
APPID
  5
4143
330
9
100
AcDbSymbolTableRecord
100
AcDbRegAppTableRecord
  2
GENIUS_GENFIL_13
 70
     0
  0
APPID
  5
4144
330
9
100
AcDbSymbolTableRecord
100
AcDbRegAppTableRecord
  2
GENIUS_GENOBJ-N-CHA_13
 70
     0
  0
APPID
  5
4E17
330
9
100
AcDbSymbolTableRecord
100
AcDbRegAppTableRecord
  2
GEVID1008153417
 70
     0
  0
APPID
  5
4E58
330
9
100
AcDbSymbolTableRecord
100
AcDbRegAppTableRecord
  2
GEVID1008153418
 70
     0
  0
APPID
  5
4E5E
330
9
100
AcDbSymbolTableRecord
100
AcDbRegAppTableRecord
  2
GEVID1008153419
 70
     0
  0
APPID
  5
4E64
330
9
100
AcDbSymbolTableRecord
100
AcDbRegAppTableRecord
  2
GEVID1008153420
 70
     0
  0
APPID
  5
4E75
330
9
100
AcDbSymbolTableRecord
100
AcDbRegAppTableRecord
  2
GEVID1008153421
 70
     0
  0
APPID
  5
4EB7
330
9
100
AcDbSymbolTableRecord
100
AcDbRegAppTableRecord
  2
GENIUS_AMGTXT_16
 70
     0
  0
APPID
  5
7645
330
9
100
AcDbSymbolTableRecord
100
AcDbRegAppTableRecord
  2
GENIUS_GENOBJ-N-DIM_13
 70
     0
  0
APPID
  5
C5F0
330
9
100
AcDbSymbolTableRecord
100
AcDbRegAppTableRecord
  2
GENIUS_GENCEN_19
 70
     0
  0
APPID
  5
C5FB
330
9
100
AcDbSymbolTableRecord
100
AcDbRegAppTableRecord
  2
ACAD_DSTYLE_DIMJOGGED_JOGANGLE_SYMBOL
 70
     0
  0
APPID
  5
C5FC
330
9
100
AcDbSymbolTableRecord
100
AcDbRegAppTableRecord
  2
ACAD_PSEXT
 70
     0
  0
APPID
  5
CA37
330
9
100
AcDbSymbolTableRecord
100
AcDbRegAppTableRecord
  2
AcAecLayerStandard
 70
     0
  0
APPID
  5
DCF9
330
9
100
AcDbSymbolTableRecord
100
AcDbRegAppTableRecord
  2
ACAD_EXEMPT_FROM_CAD_STANDARDS
 70
     0
  0
APPID
  5
2A0EB
330
9
100
AcDbSymbolTableRecord
100
AcDbRegAppTableRecord
  2
GEVID1271841997
 70
     0
  0
APPID
  5
2A23A
330
9
100
AcDbSymbolTableRecord
100
AcDbRegAppTableRecord
  2
GEVID1271841998
 70
     0
  0
APPID
  5
2B34C
330
9
100
AcDbSymbolTableRecord
100
AcDbRegAppTableRecord
  2
GEVID1271896698
 70
     0
  0
APPID
  5
2B499
330
9
100
AcDbSymbolTableRecord
100
AcDbRegAppTableRecord
  2
GEVID1271896699
 70
     0
  0
APPID
  5
2B543
330
9
100
AcDbSymbolTableRecord
100
AcDbRegAppTableRecord
  2
GEVID1271896700
 70
     0
  0
APPID
  5
40168
330
9
100
AcDbSymbolTableRecord
100
AcDbRegAppTableRecord
  2
GEVID1273127365
 70
     0
  0
APPID
  5
40271
330
9
100
AcDbSymbolTableRecord
100
AcDbRegAppTableRecord
  2
GEVID1273127366
 70
     0
  0
APPID
  5
498AC
330
9
100
AcDbSymbolTableRecord
100
AcDbRegAppTableRecord
  2
GENIUS_GEFINERT_13
 70
     0
  0
APPID
  5
498DF
330
9
100
AcDbSymbolTableRecord
100
AcDbRegAppTableRecord
  2
GENIUS_GENOBJ-F-INER_13
 70
     0
  0
ENDTAB
  0
TABLE
  2
DIMSTYLE
  5
A
330
0
100
AcDbSymbolTable
 70
    25
100
AcDbDimStyleTable
 71
     5
340
2515
340
251A
340
251B
340
6C
340
FA9
  0
DIMSTYLE
105
6C
330
A
100
AcDbSymbolTableRecord
100
AcDbDimStyleTableRecord
  2
AM_ISO
 70
     0
  4
"
 41
2.5
 42
1.0
 43
10.0
 44
1.0
 47
0.1
 48
0.1
 73
     0
 74
     0
 77
     1
 78
     8
 79
     2
140
3.5
141
0.0
143
0.0393701
146
0.71
147
1.5
172
     1
176
   256
177
   256
178
     2
271
     2
272
     3
274
     4
283
     0
284
     8
340
11
371
    -1
372
    -1
  0
DIMSTYLE
105
6D
102
{ACAD_REACTORS
330
4A7BE
330
4A7C1
102
}
330
A
100
AcDbSymbolTableRecord
100
AcDbDimStyleTableRecord
  2
AM_ISO$3
 70
     0
  4
"
 41
0.8
 42
1.0
 43
10.0
 44
1.0
 47
0.1
 48
0.1
 73
     0
 77
     1
 78
     8
 79
     2
140
3.2
141
0.0
143
0.0393701
146
0.71
147
0.9999999999999996
176
   256
177
   256
178
     2
271
     2
272
     2
283
     0
284
     8
288
     1
289
     0
340
11
342
6C4
371
    -1
372
    -1
  0
DIMSTYLE
105
6E
330
A
100
AcDbSymbolTableRecord
100
AcDbDimStyleTableRecord
  2
AM_ISO$4
 70
     0
  4
"
 41
0.8
 42
1.0
 43
10.0
 44
1.0
 47
0.1
 48
0.1
 73
     0
 77
     1
 78
     8
 79
     2
140
3.2
141
0.0
143
0.0393701
146
0.71
147
1.0
173
     1
176
   256
177
   256
178
     2
271
     2
272
     2
283
     0
284
     8
288
     1
289
     0
340
11
344
6C4
371
    -1
372
    -1
  0
DIMSTYLE
105
6F
330
A
100
AcDbSymbolTableRecord
100
AcDbDimStyleTableRecord
  2
AM_ISO$6
 70
     0
  4
"
 41
0.8
 42
1.0
 43
10.0
 44
1.0
 47
0.1
 48
0.1
 73
     0
 74
     0
 78
     8
 79
     2
140
3.2
141
0.0
143
0.0393701
146
0.71
147
1.0
172
     1
176
   256
177
   256
178
     2
271
     2
272
     2
283
     0
284
     8
340
11
341
6C4
371
    -1
372
    -1
  0
DIMSTYLE
105
70
330
A
100
AcDbSymbolTableRecord
100
AcDbDimStyleTableRecord
  2
AM_ISO$7
 70
     0
  4
"
 41
0.8
 42
1.0
 43
10.0
 44
1.0
 47
0.1
 48
0.1
 73
     0
 74
     0
 77
     1
 78
     8
 79
     2
140
3.2
141
0.0
143
0.0393701
146
0.71
147
1.0
172
     1
176
   256
177
   256
178
     2
271
     2
272
     2
283
     0
284
     8
340
11
341
6C4
342
6C4
371
    -1
372
    -1
  0
DIMSTYLE
105
71
330
A
100
AcDbSymbolTableRecord
100
AcDbDimStyleTableRecord
  2
AM_ISO$SF
 70
     0
  4
"
 41
0.8
 42
1.0
 43
10.0
 44
1.0
 47
0.1
 48
0.1
 73
     0
 74
     0
 75
     1
 76
     1
 77
     1
 78
     8
 79
     2
140
3.2
141
0.0
143
0.0393701
146
0.71
147
1.0
172
     1
176
   256
177
   256
178
     2
271
     2
272
     2
283
     0
284
     8
340
11
341
6C4
342
6C4
371
    -1
372
    -1
  0
DIMSTYLE
105
76
330
A
100
AcDbSymbolTableRecord
100
AcDbDimStyleTableRecord
  2
AM_ISO$SH
 70
     0
  4
"
 41
0.8
 42
1.0
 43
10.0
 44
1.0
 47
0.1
 48
0.1
 73
     0
 74
     0
 75
     1
 76
     1
 77
     1
 78
     8
 79
     2
140
3.2
141
0.0
143
0.0393701
144
2.0
146
0.71
147
1.0
172
     1
176
   256
177
   256
178
     2
271
     2
272
     2
283
     0
284
     8
340
11
341
6C4
342
6C4
371
    -1
372
    -1
  0
DIMSTYLE
105
6BE
102
{ACAD_REACTORS
330
4A7AC
330
4A7AF
330
4A7B2
330
4A7B5
330
4A7B8
330
4A7BB
330
4A7F4
330
4A7F5
330
4A7F6
330
4A809
330
4A810
330
4A811
102
}
330
A
100
AcDbSymbolTableRecord
100
AcDbDimStyleTableRecord
  2
AM_ISO$0
 70
     0
  4
"
 41
0.8
 42
1.0
 43
10.0
 44
1.0
 47
0.1
 48
0.1
 73
     0
 74
     0
 77
     1
 78
     8
 79
     2
140
3.2
141
0.0
143
0.0393701
146
0.71
147
0.9999999999999996
172
     1
176
   256
177
   256
178
     2
271
     2
272
     2
283
     0
284
     8
340
11
341
6C4
342
6C4
371
    -1
372
    -1
  0
DIMSTYLE
105
6BF
330
A
100
AcDbSymbolTableRecord
100
AcDbDimStyleTableRecord
  2
AM_ISO$2
 70
     0
  4
"
 41
0.8
 42
1.0
 43
10.0
 44
1.0
 47
0.1
 48
0.1
 73
     0
 74
     0
 77
     3
 78
     8
 79
     2
140
3.200000000000001
141
0.0
143
0.0393701
146
0.71
147
0.9999999999999996
172
     1
176
   256
177
   256
178
     2
271
     2
272
     2
283
     0
284
     8
340
11
342
6C4
371
    -1
372
    -1
  0
DIMSTYLE
105
A76
330
A
100
AcDbSymbolTableRecord
100
AcDbDimStyleTableRecord
  2
STANDARD
 70
     0
 41
3.0
 42
1.0
 43
7.0
 44
2.0
 73
     0
 74
     0
 77
     1
140
2.799999999999999
141
0.0
143
0.0394
147
0.7
171
     4
172
     1
173
     1
176
     3
177
     3
178
     2
271
     3
272
     3
273
     8
274
     4
289
     0
340
A74
341
A66
343
A66
344
A66
  0
DIMSTYLE
105
FA9
330
A
100
AcDbSymbolTableRecord
100
AcDbDimStyleTableRecord
  2
AM_ANSI
 70
     0
  4
mm
 41
0.1
 42
0.05
 43
0.5
 44
0.1
 47
0.1
 48
0.1
 78
     7
 79
     2
140
0.12
141
0.0
146
0.71
147
0.06
176
   256
177
   256
178
     2
274
     4
284
     7
340
11
371
    -1
372
    -1
  0
DIMSTYLE
105
FAA
330
A
100
AcDbSymbolTableRecord
100
AcDbDimStyleTableRecord
  2
AM_ANSI$3
 70
     0
  4
mm
 41
0.1
 42
0.05
 43
0.5
 44
0.1
 47
0.1
 48
0.1
 78
     7
 79
     2
140
0.12
141
0.0
146
0.71
147
0.06
176
   256
177
   256
178
     2
274
     4
284
     7
288
     1
289
     0
340
11
371
    -1
372
    -1
  0
DIMSTYLE
105
FAB
330
A
100
AcDbSymbolTableRecord
100
AcDbDimStyleTableRecord
  2
AM_ANSI$4
 70
     0
  4
mm
 41
0.1
 42
0.05
 43
0.5
 44
0.1
 47
0.1
 48
0.1
 78
     7
 79
     2
140
0.12
141
0.0
146
0.71
147
0.06
176
   256
177
   256
178
     2
274
     4
284
     7
288
     1
289
     0
340
11
371
    -1
372
    -1
  0
DIMSTYLE
105
FAC
330
A
100
AcDbSymbolTableRecord
100
AcDbDimStyleTableRecord
  2
AM_ANSI$7
 70
     0
  4
mm
 41
0.1
 42
0.05
 43
0.5
 44
0.1
 47
0.1
 48
0.1
 78
     7
 79
     2
140
0.24
141
0.0
146
0.71
147
0.06
176
   256
177
   256
178
     2
274
     4
284
     7
340
11
371
    -1
372
    -1
  0
DIMSTYLE
105
FAD
330
A
100
AcDbSymbolTableRecord
100
AcDbDimStyleTableRecord
  2
AM_ANSI$SF
 70
     0
  4
mm
 41
0.1
 42
0.05
 43
0.5
 44
0.1
 47
0.1
 48
0.1
 75
     1
 76
     1
 78
     7
 79
     2
140
0.12
141
0.0
146
0.71
147
0.06
176
   256
177
   256
178
     2
274
     4
284
     7
340
11
371
    -1
372
    -1
  0
DIMSTYLE
105
FAE
330
A
100
AcDbSymbolTableRecord
100
AcDbDimStyleTableRecord
  2
AM_ANSI$SH
 70
     0
  4
mm
 41
0.1
 42
0.05
 43
0.5
 44
0.1
 47
0.1
 48
0.1
 75
     1
 76
     1
 78
     7
 79
     2
140
0.12
141
0.0
146
0.71
147
0.06
173
     1
176
   256
177
   256
178
     2
274
     4
284
     7
340
11
343
72
371
    -1
372
    -1
  0
DIMSTYLE
105
2515
330
A
100
AcDbSymbolTableRecord
100
AcDbDimStyleTableRecord
  2
SYS
 70
     0
  4
"
 41
2.5
 42
1.0
 43
10.0
 44
1.0
 47
0.1
 48
0.1
 73
     0
 74
     0
 77
     1
 78
     8
 79
     2
140
3.5
141
0.0
143
0.0393701
146
0.71
147
1.5
172
     1
176
   256
177
   256
178
     7
271
     2
272
     3
274
     4
283
     0
284
     8
340
11
371
    -1
372
    -1
  0
DIMSTYLE
105
2516
330
A
100
AcDbSymbolTableRecord
100
AcDbDimStyleTableRecord
  2
SYS$3
 70
     0
  4
"
 41
2.0
 42
1.0
 43
10.0
 44
1.0
 47
0.1
 48
0.1
 73
     0
 77
     1
 78
     8
 79
     2
140
3.200000000000001
141
0.0
143
0.0393701
146
0.71
147
0.9999999999999996
176
   256
177
   256
178
     2
271
     1
272
     1
283
     0
284
     8
288
     1
340
11
342
A66
371
    -1
372
    -1
  0
DIMSTYLE
105
2517
330
A
100
AcDbSymbolTableRecord
100
AcDbDimStyleTableRecord
  2
SYS$4
 70
     0
  4
"
 41
2.0
 42
1.0
 43
10.0
 44
1.0
 47
0.1
 48
0.1
 73
     0
 77
     1
 78
     8
 79
     2
140
3.2
141
0.0
143
0.0393701
146
0.71
147
0.9999999999999996
173
     1
176
   256
177
   256
178
     2
271
     2
272
     2
283
     0
284
     8
288
     1
340
11
344
A66
371
    -1
372
    -1
  0
DIMSTYLE
105
2518
330
A
100
AcDbSymbolTableRecord
100
AcDbDimStyleTableRecord
  2
SYS$6
 70
     0
  4
"
 41
2.0
 42
1.5
 43
10.0
 44
1.0
 47
0.1
 48
0.1
 73
     0
 74
     0
 78
     8
 79
     2
140
3.2
141
0.0
143
0.0393701
146
0.71
147
0.9999999999999996
172
     1
176
   256
177
   256
178
     2
271
     2
272
     2
283
     0
284
     8
340
11
341
A66
371
    -1
372
    -1
  0
DIMSTYLE
105
2519
330
A
100
AcDbSymbolTableRecord
100
AcDbDimStyleTableRecord
  2
SYS$7
 70
     0
  4
"
 41
2.0
 42
1.5
 43
10.0
 44
1.0
 47
0.1
 48
0.1
 73
     0
 74
     0
 77
     1
 78
     8
 79
     2
140
3.2
141
0.0
143
0.0393701
146
0.71
147
0.9999999999999996
172
     1
176
   256
177
   256
178
     2
271
     2
272
     2
283
     0
284
     8
340
11
341
A66
342
A66
371
    -1
372
    -1
  0
DIMSTYLE
105
251A
330
A
100
AcDbSymbolTableRecord
100
AcDbDimStyleTableRecord
  2
SYS$SF
 70
     0
  4
"
 41
1.0
 42
1.0
 43
10.0
 44
1.0
 47
0.1
 48
0.1
 73
     0
 74
     0
 75
     1
 76
     1
 77
     1
 78
     8
 79
     2
140
3.2
141
0.0
143
0.0393701
146
0.71
147
0.9999999999999996
172
     1
176
   256
177
   256
178
     2
271
     2
272
     2
283
     0
284
     8
340
11
341
6C4
342
6C4
371
    -1
372
    -1
  0
DIMSTYLE
105
251B
330
A
100
AcDbSymbolTableRecord
100
AcDbDimStyleTableRecord
  2
SYS$SH
 70
     0
  4
"
 41
1.0
 42
1.0
 43
10.0
 44
1.0
 47
0.1
 48
0.1
 73
     0
 74
     0
 75
     1
 76
     1
 77
     1
 78
     8
 79
     2
140
3.2
141
0.0
143
0.0393701
144
2.0
146
0.71
147
0.9999999999999996
172
     1
173
     1
176
   256
177
   256
178
     2
271
     2
272
     2
283
     0
284
     8
340
11
341
6C4
343
72
344
6C4
371
    -1
372
    -1
  0
DIMSTYLE
105
2A59
330
A
100
AcDbSymbolTableRecord
100
AcDbDimStyleTableRecord
  2
SYS$2
 70
     0
  4
"
 41
1.0
 42
1.5
 43
10.0
 44
1.0
 47
0.1
 48
0.1
 73
     0
 74
     0
 77
     1
 78
     8
 79
     2
140
3.2
141
0.0
143
0.0393701
146
0.71
147
0.9999999999999996
172
     1
176
   256
177
   256
178
     2
271
     2
272
     2
283
     0
284
     8
340
11
342
6C4
371
    -1
372
    -1
  0
DIMSTYLE
105
2AAB
102
{ACAD_REACTORS
330
4AA95
102
}
330
A
100
AcDbSymbolTableRecord
100
AcDbDimStyleTableRecord
  2
SYS$0
 70
     0
  4
"
 41
1.0
 42
1.499999999999999
 43
10.0
 44
1.0
 47
0.1
 48
0.1
 73
     0
 74
     0
 77
     1
 78
     8
 79
     2
140
3.2
141
0.0
143
0.0393701
146
0.71
147
0.9999999999999996
172
     1
176
   256
177
   256
178
     2
271
     1
272
     1
283
     0
284
     8
340
11
341
A66
342
6C4
371
    -1
372
    -1
  0
ENDTAB
  0
TABLE
  2
BLOCK_RECORD
  5
1
330
0
100
AcDbSymbolTable
 70
    21
  0
BLOCK_RECORD
  5
1F
102
{ACAD_XDICTIONARY
360
8A
102
}
330
1
100
AcDbSymbolTableRecord
100
AcDbBlockTableRecord
  2
*Model_Space
340
22
  0
BLOCK_RECORD
  5
1B
330
1
100
AcDbSymbolTableRecord
100
AcDbBlockTableRecord
  2
*Paper_Space
340
1E
  0
BLOCK_RECORD
  5
23
330
1
100
AcDbSymbolTableRecord
100
AcDbBlockTableRecord
  2
*Paper_Space0
340
26
  0
BLOCK_RECORD
  5
72
330
1
100
AcDbSymbolTableRecord
100
AcDbBlockTableRecord
  2
GENAXEH
340
0
  0
BLOCK_RECORD
  5
6C4
330
1
100
AcDbSymbolTableRecord
100
AcDbBlockTableRecord
  2
_Dot
340
0
102
{BLKREFS
331
4A907
331
4A908
331
4A913
331
4A914
331
4A91F
331
4A920
331
4A92B
331
4A92C
331
4A937
331
4A938
331
4A943
331
4A944
331
4A992
331
4A993
331
4A99C
331
4A99D
331
4AA52
331
4AA53
331
4AAC4
331
4AAC5
331
4AB17
331
4AB18
331
4AB20
331
4AB21
331
4AD98
331
4AD99
331
4ADA1
331
4ADA2
331
4ADE1
331
4ADE2
102
}
  0
BLOCK_RECORD
  5
A66
330
1
100
AcDbSymbolTableRecord
100
AcDbBlockTableRecord
  2
_OPEN30
340
0
  0
BLOCK_RECORD
  5
4A8BB
330
1
100
AcDbSymbolTableRecord
100
AcDbBlockTableRecord
  2
*D5
340
0
  0
BLOCK_RECORD
  5
4A8C7
330
1
100
AcDbSymbolTableRecord
100
AcDbBlockTableRecord
  2
*D6
340
0
  0
BLOCK_RECORD
  5
4A8D3
330
1
100
AcDbSymbolTableRecord
100
AcDbBlockTableRecord
  2
*D7
340
0
  0
BLOCK_RECORD
  5
4A903
330
1
100
AcDbSymbolTableRecord
100
AcDbBlockTableRecord
  2
*D8
340
0
  0
BLOCK_RECORD
  5
4A90F
330
1
100
AcDbSymbolTableRecord
100
AcDbBlockTableRecord
  2
*D9
340
0
  0
BLOCK_RECORD
  5
4A91B
330
1
100
AcDbSymbolTableRecord
100
AcDbBlockTableRecord
  2
*D10
340
0
  0
BLOCK_RECORD
  5
4A927
330
1
100
AcDbSymbolTableRecord
100
AcDbBlockTableRecord
  2
*D11
340
0
  0
BLOCK_RECORD
  5
4A933
330
1
100
AcDbSymbolTableRecord
100
AcDbBlockTableRecord
  2
*D12
340
0
  0
BLOCK_RECORD
  5
4A93F
330
1
100
AcDbSymbolTableRecord
100
AcDbBlockTableRecord
  2
*D13
340
0
  0
BLOCK_RECORD
  5
4A94B
330
1
100
AcDbSymbolTableRecord
100
AcDbBlockTableRecord
  2
*D14
340
0
  0
BLOCK_RECORD
  5
4A957
330
1
100
AcDbSymbolTableRecord
100
AcDbBlockTableRecord
  2
*D15
340
0
  0
BLOCK_RECORD
  5
4A975
330
1
100
AcDbSymbolTableRecord
100
AcDbBlockTableRecord
  2
*D16
340
0
  0
BLOCK_RECORD
  5
4A983
330
1
100
AcDbSymbolTableRecord
100
AcDbBlockTableRecord
  2
*D17
340
0
  0
BLOCK_RECORD
  5
4A998
330
1
100
AcDbSymbolTableRecord
100
AcDbBlockTableRecord
  2
*D18
340
0
  0
BLOCK_RECORD
  5
4AA96
330
1
100
AcDbSymbolTableRecord
100
AcDbBlockTableRecord
  2
*D19
340
0
  0
BLOCK_RECORD
  5
4AE0F
330
1
100
AcDbSymbolTableRecord
100
AcDbBlockTableRecord
  2
*S20
340
0
  0
ENDTAB
  0
ENDSEC
  0
SECTION
  2
BLOCKS
  0
BLOCK
  5
20
330
1F
100
AcDbEntity
  8
0
100
AcDbBlockBegin
  2
*Model_Space
 70
     0
 10
0.0
 20
0.0
 30
0.0
  3
*Model_Space
  1

  0
ENDBLK
  5
21
330
1F
100
AcDbEntity
  8
0
100
AcDbBlockEnd
  0
BLOCK
  5
1C
330
1B
100
AcDbEntity
 67
     1
  8
0
100
AcDbBlockBegin
  2
*Paper_Space
 70
     0
 10
0.0
 20
0.0
 30
0.0
  3
*Paper_Space
  1

  0
ENDBLK
  5
1D
330
1B
100
AcDbEntity
 67
     1
  8
0
100
AcDbBlockEnd
  0
BLOCK
  5
24
330
23
100
AcDbEntity
 67
     1
  8
0
100
AcDbBlockBegin
  2
*Paper_Space0
 70
     0
 10
0.0
 20
0.0
 30
0.0
  3
*Paper_Space0
  1

  0
ENDBLK
  5
25
330
23
100
AcDbEntity
 67
     1
  8
0
100
AcDbBlockEnd
  0
BLOCK
  5
74
330
72
100
AcDbEntity
  8
0
100
AcDbBlockBegin
  2
GENAXEH
 70
     0
 10
0.0
 20
0.0
 30
0.0
  3
GENAXEH
  1

  0
LINE
  5
73
330
72
100
AcDbEntity
  8
0
100
AcDbLine
 10
-1.0
 20
0.0
 30
0.0
 11
1.0
 21
0.0
 31
0.0
  0
ENDBLK
  5
75
330
72
100
AcDbEntity
  8
0
100
AcDbBlockEnd
  0
BLOCK
  5
6C7
330
6C4
100
AcDbEntity
  8
0
100
AcDbBlockBegin
  2
_Dot
 70
     0
 10
0.0
 20
0.0
 30
0.0
  3
_Dot
  1

  0
LWPOLYLINE
  5
6C5
330
6C4
100
AcDbEntity
  8
0
  6
ByBlock
 62
     0
100
AcDbPolyline
 90
        2
 70
     1
 43
0.5
 10
-0.25
 20
0.0
 42
1.0
 10
0.25
 20
0.0
 42
1.0
  0
LINE
  5
6C6
330
6C4
100
AcDbEntity
  8
0
  6
ByBlock
 62
     0
370
    -2
100
AcDbLine
 10
-0.5
 20
0.0
 30
0.0
 11
-1.0
 21
0.0
 31
0.0
  0
ENDBLK
  5
6C8
330
6C4
100
AcDbEntity
  8
0
100
AcDbBlockEnd
  0
BLOCK
  5
A6A
330
A66
100
AcDbEntity
  8
0
100
AcDbBlockBegin
  2
_OPEN30
 70
     0
 10
0.0
 20
0.0
 30
0.0
  3
_OPEN30
  1

  0
LINE
  5
A67
330
A66
100
AcDbEntity
  8
0
  6
ByBlock
 62
     0
100
AcDbLine
 10
-1.0
 20
0.26794919
 30
0.0
 11
0.0
 21
0.0
 31
0.0
  0
LINE
  5
A68
330
A66
100
AcDbEntity
  8
0
  6
ByBlock
 62
     0
100
AcDbLine
 10
0.0
 20
0.0
 30
0.0
 11
-1.0
 21
-0.26794919
 31
0.0
  0
LINE
  5
A69
330
A66
100
AcDbEntity
  8
0
  6
ByBlock
 62
     0
100
AcDbLine
 10
0.0
 20
0.0
 30
0.0
 11
-1.0
 21
0.0
 31
0.0
  0
ENDBLK
  5
A6B
330
A66
100
AcDbEntity
  8
0
100
AcDbBlockEnd
  0
BLOCK
  5
4A8C5
330
4A8BB
100
AcDbEntity
  8
0
100
AcDbBlockBegin
  2
*D5
 70
     1
 10
0.0
 20
0.0
 30
0.0
  3
*D5
  1

  0
LINE
  5
4AB14
330
4A8BB
100
AcDbEntity
  8
AM_5
100
AcDbLine
 10
3307.356391853188
 20
-2977.116691625295
 30
0.0
 11
3331.856391853188
 21
-2977.116691625295
 31
0.0
  0
LINE
  5
4AB15
330
4A8BB
100
AcDbEntity
  8
AM_5
100
AcDbLine
 10
3304.856391853189
 20
-2944.116691625295
 30
0.0
 11
3331.856391853188
 21
-2944.116691625295
 31
0.0
  0
LINE
  5
4AB16
330
4A8BB
100
AcDbEntity
  8
AM_5
100
AcDbLine
 10
3330.856391853187
 20
-2976.116691625295
 30
0.0
 11
3330.856391853187
 21
-2945.116691625295
 31
0.0
  0
INSERT
  5
4AB17
330
4A8BB
100
AcDbEntity
  8
AM_5
100
AcDbBlockReference
  2
_Dot
 10
3330.856391853187
 20
-2977.116691625295
 30
0.0
 50
270.0
  0
INSERT
  5
4AB18
330
4A8BB
100
AcDbEntity
  8
AM_5
100
AcDbBlockReference
  2
_Dot
 10
3330.856391853187
 20
-2944.116691625295
 30
0.0
 50
90.0
  0
MTEXT
  5
4AB19
330
4A8BB
100
AcDbEntity
  8
AM_5
 62
     2
100
AcDbMText
 10
3328.256391853189
 20
-2960.616691625295
 30
0.0
 40
3.2
 41
0.0
 71
     5
 72
     1
  1
33
 11
0.0000000000000001
 21
1.0
 31
0.0
 73
     1
 44
1.0
1001
ACAD
1000
MTEXTBEGIN
1070
    73
1070
     1
1070
    44
1040
1.0
1070
    74
1070
     0
1000
MTEXTEND
  0
POINT
  5
4AB1A
330
4A8BB
100
AcDbEntity
  8
Defpoints
 62
     0
100
AcDbPoint
 10
3306.356391853189
 20
-2977.116691625295
 30
0.0
  0
POINT
  5
4AB1B
330
4A8BB
100
AcDbEntity
  8
Defpoints
 62
     0
100
AcDbPoint
 10
3303.856391853189
 20
-2944.116691625295
 30
0.0
  0
POINT
  5
4AB1C
330
4A8BB
100
AcDbEntity
  8
Defpoints
 62
     0
100
AcDbPoint
 10
3330.856391853187
 20
-2944.116691625295
 30
0.0
  0
ENDBLK
  5
4A8C6
330
4A8BB
100
AcDbEntity
  8
0
100
AcDbBlockEnd
  0
BLOCK
  5
4A8D1
330
4A8C7
100
AcDbEntity
  8
0
100
AcDbBlockBegin
  2
*D6
 70
     1
 10
0.0
 20
0.0
 30
0.0
  3
*D6
  1

  0
LINE
  5
4AB1D
330
4A8C7
100
AcDbEntity
  8
AM_5
100
AcDbLine
 10
3288.856391853188
 20
-2971.116691625295
 30
0.0
 11
3323.856391853188
 21
-2971.116691625295
 31
0.0
  0
LINE
  5
4AB1E
330
4A8C7
100
AcDbEntity
  8
AM_5
100
AcDbLine
 10
3301.856391853188
 20
-2944.116691625297
 30
0.0
 11
3323.856391853188
 21
-2944.116691625297
 31
0.0
  0
LINE
  5
4AB1F
330
4A8C7
100
AcDbEntity
  8
AM_5
100
AcDbLine
 10
3322.856391853188
 20
-2970.116691625295
 30
0.0
 11
3322.856391853188
 21
-2945.116691625297
 31
0.0
  0
INSERT
  5
4AB20
330
4A8C7
100
AcDbEntity
  8
AM_5
100
AcDbBlockReference
  2
_Dot
 10
3322.856391853188
 20
-2971.116691625295
 30
0.0
 50
270.0
  0
INSERT
  5
4AB21
330
4A8C7
100
AcDbEntity
  8
AM_5
100
AcDbBlockReference
  2
_Dot
 10
3322.856391853188
 20
-2944.116691625297
 30
0.0
 50
90.0
  0
MTEXT
  5
4AB22
330
4A8C7
100
AcDbEntity
  8
AM_5
 62
     2
100
AcDbMText
 10
3320.256391853188
 20
-2957.420302452654
 30
0.0
 40
3.2
 41
0.0
 71
     5
 72
     1
  1
27
 11
0.0000000000000001
 21
1.0
 31
0.0
 73
     1
 44
1.0
1001
ACAD
1000
MTEXTBEGIN
1070
    73
1070
     1
1070
    44
1040
1.0
1070
    74
1070
     0
1000
MTEXTEND
  0
POINT
  5
4AB23
330
4A8C7
100
AcDbEntity
  8
Defpoints
 62
     0
100
AcDbPoint
 10
3287.856391853188
 20
-2971.116691625295
 30
0.0
  0
POINT
  5
4AB24
330
4A8C7
100
AcDbEntity
  8
Defpoints
 62
     0
100
AcDbPoint
 10
3300.856391853189
 20
-2944.116691625297
 30
0.0
  0
POINT
  5
4AB25
330
4A8C7
100
AcDbEntity
  8
Defpoints
 62
     0
100
AcDbPoint
 10
3322.856391853188
 20
-2944.116691625297
 30
0.0
  0
ENDBLK
  5
4A8D2
330
4A8C7
100
AcDbEntity
  8
0
100
AcDbBlockEnd
  0
BLOCK
  5
4A8DD
330
4A8D3
100
AcDbEntity
  8
0
100
AcDbBlockBegin
  2
*D7
 70
     1
 10
0.0
 20
0.0
 30
0.0
  3
*D7
  1

  0
LINE
  5
4A98F
330
4A8D3
100
AcDbEntity
  8
AM_5
100
AcDbLine
 10
3277.856391853188
 20
-2946.116691625297
 30
0.0
 11
3277.856391853188
 21
-2932.116691625297
 31
0.0
  0
LINE
  5
4A990
330
4A8D3
100
AcDbEntity
  8
AM_5
100
AcDbLine
 10
3306.856391853188
 20
-2946.116691625297
 30
0.0
 11
3306.856391853188
 21
-2932.116691625297
 31
0.0
  0
LINE
  5
4A991
330
4A8D3
100
AcDbEntity
  8
AM_5
100
AcDbLine
 10
3278.656391853188
 20
-2933.116691625297
 30
0.0
 11
3306.056391853188
 21
-2933.116691625297
 31
0.0
  0
INSERT
  5
4A992
330
4A8D3
100
AcDbEntity
  8
AM_5
100
AcDbBlockReference
  2
_Dot
 10
3277.856391853188
 20
-2933.116691625297
 30
0.0
 41
0.8
 42
0.8
 43
0.8
 50
180.0
  0
INSERT
  5
4A993
330
4A8D3
100
AcDbEntity
  8
AM_5
100
AcDbBlockReference
  2
_Dot
 10
3306.856391853188
 20
-2933.116691625297
 30
0.0
 41
0.8
 42
0.8
 43
0.8
  0
MTEXT
  5
4A994
330
4A8D3
100
AcDbEntity
  8
AM_5
 62
     2
100
AcDbMText
 10
3292.356391853188
 20
-2930.516691625297
 30
0.0
 40
3.2
 41
0.0
 71
     5
 72
     1
  1
29
 73
     1
 44
1.0
1001
ACAD
1000
MTEXTBEGIN
1070
    73
1070
     1
1070
    44
1040
1.0
1070
    74
1070
     0
1000
MTEXTEND
  0
POINT
  5
4A995
330
4A8D3
100
AcDbEntity
  8
Defpoints
 62
     0
100
AcDbPoint
 10
3277.856391853188
 20
-2947.116691625297
 30
0.0
  0
POINT
  5
4A996
330
4A8D3
100
AcDbEntity
  8
Defpoints
 62
     0
100
AcDbPoint
 10
3306.856391853188
 20
-2947.116691625297
 30
0.0
  0
POINT
  5
4A997
330
4A8D3
100
AcDbEntity
  8
Defpoints
 62
     0
100
AcDbPoint
 10
3306.856391853188
 20
-2933.116691625297
 30
0.0
  0
ENDBLK
  5
4A8DE
330
4A8D3
100
AcDbEntity
  8
0
100
AcDbBlockEnd
  0
BLOCK
  5
4A90D
330
4A903
100
AcDbEntity
  8
0
100
AcDbBlockBegin
  2
*D8
 70
     1
 10
0.0
 20
0.0
 30
0.0
  3
*D8
  1

  0
LINE
  5
4A904
330
4A903
100
AcDbEntity
  8
AM_5
100
AcDbLine
 10
3272.356391853188
 20
-2941.116691625295
 30
0.0
 11
3264.356391853187
 21
-2941.116691625295
 31
0.0
  0
LINE
  5
4A905
330
4A903
100
AcDbEntity
  8
AM_5
100
AcDbLine
 10
3270.356391853189
 20
-2971.116691625297
 30
0.0
 11
3264.356391853187
 21
-2971.116691625297
 31
0.0
  0
LINE
  5
4A906
330
4A903
100
AcDbEntity
  8
AM_5
100
AcDbLine
 10
3265.356391853188
 20
-2942.116691625295
 30
0.0
 11
3265.356391853188
 21
-2970.116691625297
 31
0.0
  0
INSERT
  5
4A907
330
4A903
100
AcDbEntity
  8
AM_5
100
AcDbBlockReference
  2
_Dot
 10
3265.356391853188
 20
-2941.116691625295
 30
0.0
 50
90.0
  0
INSERT
  5
4A908
330
4A903
100
AcDbEntity
  8
AM_5
100
AcDbBlockReference
  2
_Dot
 10
3265.356391853188
 20
-2971.116691625297
 30
0.0
 50
270.0
  0
MTEXT
  5
4A909
330
4A903
100
AcDbEntity
  8
AM_5
 62
     2
100
AcDbMText
 10
3262.756391853188
 20
-2956.116691625297
 30
0.0
 40
3.2
 41
0.0
 71
     5
 72
     1
  1
30
 11
0.0000000000000001
 21
1.0
 31
0.0
 73
     1
 44
1.0
1001
ACAD
1000
MTEXTBEGIN
1070
    73
1070
     1
1070
    44
1040
1.0
1070
    74
1070
     0
1000
MTEXTEND
  0
POINT
  5
4A90A
330
4A903
100
AcDbEntity
  8
Defpoints
 62
     0
100
AcDbPoint
 10
3273.356391853189
 20
-2941.116691625295
 30
0.0
  0
POINT
  5
4A90B
330
4A903
100
AcDbEntity
  8
Defpoints
 62
     0
100
AcDbPoint
 10
3271.356391853188
 20
-2971.116691625297
 30
0.0
  0
POINT
  5
4A90C
330
4A903
100
AcDbEntity
  8
Defpoints
 62
     0
100
AcDbPoint
 10
3265.356391853188
 20
-2971.116691625297
 30
0.0
  0
ENDBLK
  5
4A90E
330
4A903
100
AcDbEntity
  8
0
100
AcDbBlockEnd
  0
BLOCK
  5
4A919
330
4A90F
100
AcDbEntity
  8
0
100
AcDbBlockBegin
  2
*D9
 70
     1
 10
0.0
 20
0.0
 30
0.0
  3
*D9
  1

  0
LINE
  5
4A910
330
4A90F
100
AcDbEntity
  8
AM_5
100
AcDbLine
 10
3366.856391853188
 20
-3036.457642399821
 30
0.0
 11
3354.356391853188
 21
-3036.457642399821
 31
0.0
  0
LINE
  5
4A911
330
4A90F
100
AcDbEntity
  8
AM_5
100
AcDbLine
 10
3366.856391853188
 20
-3071.457642399821
 30
0.0
 11
3354.356391853188
 21
-3071.457642399821
 31
0.0
  0
LINE
  5
4A912
330
4A90F
100
AcDbEntity
  8
AM_5
100
AcDbLine
 10
3355.356391853188
 20
-3037.457642399821
 30
0.0
 11
3355.356391853188
 21
-3070.457642399821
 31
0.0
  0
INSERT
  5
4A913
330
4A90F
100
AcDbEntity
  8
AM_5
100
AcDbBlockReference
  2
_Dot
 10
3355.356391853188
 20
-3036.457642399821
 30
0.0
 50
90.0
  0
INSERT
  5
4A914
330
4A90F
100
AcDbEntity
  8
AM_5
100
AcDbBlockReference
  2
_Dot
 10
3355.356391853188
 20
-3071.457642399821
 30
0.0
 50
270.0
  0
MTEXT
  5
4A915
330
4A90F
100
AcDbEntity
  8
AM_5
 62
     2
100
AcDbMText
 10
3352.756391853188
 20
-3053.957642399843
 30
0.0
 40
3.2
 41
0.0
 71
     5
 72
     1
  1
35
 11
0.0000000000000001
 21
1.0
 31
0.0
 73
     1
 44
1.0
1001
ACAD
1000
MTEXTBEGIN
1070
    73
1070
     1
1070
    44
1040
1.0
1070
    74
1070
     0
1000
MTEXTEND
  0
POINT
  5
4A916
330
4A90F
100
AcDbEntity
  8
Defpoints
 62
     0
100
AcDbPoint
 10
3367.856391853188
 20
-3036.457642399821
 30
0.0
  0
POINT
  5
4A917
330
4A90F
100
AcDbEntity
  8
Defpoints
 62
     0
100
AcDbPoint
 10
3367.856391853188
 20
-3071.457642399821
 30
0.0
  0
POINT
  5
4A918
330
4A90F
100
AcDbEntity
  8
Defpoints
 62
     0
100
AcDbPoint
 10
3355.356391853188
 20
-3071.457642399821
 30
0.0
  0
ENDBLK
  5
4A91A
330
4A90F
100
AcDbEntity
  8
0
100
AcDbBlockEnd
  0
BLOCK
  5
4A925
330
4A91B
100
AcDbEntity
  8
0
100
AcDbBlockBegin
  2
*D10
 70
     1
 10
0.0
 20
0.0
 30
0.0
  3
*D10
  1

  0
LINE
  5
4A91C
330
4A91B
100
AcDbEntity
  8
AM_5
100
AcDbLine
 10
3272.356391853188
 20
-3026.457642399821
 30
0.0
 11
3264.356391853187
 21
-3026.457642399821
 31
0.0
  0
LINE
  5
4A91D
330
4A91B
100
AcDbEntity
  8
AM_5
100
AcDbLine
 10
3275.606391853188
 20
-3086.457642399821
 30
0.0
 11
3264.356391853187
 21
-3086.457642399821
 31
0.0
  0
LINE
  5
4A91E
330
4A91B
100
AcDbEntity
  8
AM_5
100
AcDbLine
 10
3265.356391853188
 20
-3027.45764239982
 30
0.0
 11
3265.356391853187
 21
-3085.457642399821
 31
0.0
  0
INSERT
  5
4A91F
330
4A91B
100
AcDbEntity
  8
AM_5
100
AcDbBlockReference
  2
_Dot
 10
3265.356391853188
 20
-3026.457642399821
 30
0.0
 50
90.0
  0
INSERT
  5
4A920
330
4A91B
100
AcDbEntity
  8
AM_5
100
AcDbBlockReference
  2
_Dot
 10
3265.356391853187
 20
-3086.457642399821
 30
0.0
 50
270.0
  0
MTEXT
  5
4A921
330
4A91B
100
AcDbEntity
  8
AM_5
 62
     2
100
AcDbMText
 10
3262.756391853188
 20
-3055.457642399821
 30
0.0
 40
3.2
 41
0.0
 71
     5
 72
     1
  1
60
 11
0.0000000000000001
 21
1.0
 31
0.0
 73
     1
 44
1.0
1001
ACAD
1000
MTEXTBEGIN
1070
    73
1070
     1
1070
    44
1040
1.0
1070
    74
1070
     0
1000
MTEXTEND
  0
POINT
  5
4A922
330
4A91B
100
AcDbEntity
  8
Defpoints
 62
     0
100
AcDbPoint
 10
3273.356391853189
 20
-3026.457642399821
 30
0.0
  0
POINT
  5
4A923
330
4A91B
100
AcDbEntity
  8
Defpoints
 62
     0
100
AcDbPoint
 10
3276.606391853189
 20
-3086.457642399821
 30
0.0
  0
POINT
  5
4A924
330
4A91B
100
AcDbEntity
  8
Defpoints
 62
     0
100
AcDbPoint
 10
3265.356391853187
 20
-3086.457642399821
 30
0.0
  0
ENDBLK
  5
4A926
330
4A91B
100
AcDbEntity
  8
0
100
AcDbBlockEnd
  0
BLOCK
  5
4A931
330
4A927
100
AcDbEntity
  8
0
100
AcDbBlockBegin
  2
*D11
 70
     1
 10
0.0
 20
0.0
 30
0.0
  3
*D11
  1

  0
LINE
  5
4A928
330
4A927
100
AcDbEntity
  8
AM_5
100
AcDbLine
 10
3366.856391853188
 20
-3036.457642399821
 30
0.0
 11
3354.356391853188
 21
-3036.457642399821
 31
0.0
  0
LINE
  5
4A929
330
4A927
100
AcDbEntity
  8
AM_5
100
AcDbLine
 10
3362.356391853188
 20
-3026.457642399821
 30
0.0
 11
3354.356391853188
 21
-3026.457642399821
 31
0.0
  0
LINE
  5
4A92A
330
4A927
100
AcDbEntity
  8
AM_5
100
AcDbLine
 10
3355.356391853188
 20
-3035.457642399821
 30
0.0
 11
3355.356391853188
 21
-3027.45764239982
 31
0.0
  0
INSERT
  5
4A92B
330
4A927
100
AcDbEntity
  8
AM_5
100
AcDbBlockReference
  2
_Dot
 10
3355.356391853188
 20
-3036.457642399821
 30
0.0
 50
270.0
  0
INSERT
  5
4A92C
330
4A927
100
AcDbEntity
  8
AM_5
100
AcDbBlockReference
  2
_Dot
 10
3355.356391853188
 20
-3026.457642399821
 30
0.0
 50
90.0
  0
MTEXT
  5
4A92D
330
4A927
100
AcDbEntity
  8
AM_5
 62
     2
100
AcDbMText
 10
3352.756391853188
 20
-3031.45764239982
 30
0.0
 40
3.2
 41
0.0
 71
     5
 72
     1
  1
10
 11
0.0000000000000001
 21
1.0
 31
0.0
 73
     1
 44
1.0
1001
ACAD
1000
MTEXTBEGIN
1070
    73
1070
     1
1070
    44
1040
1.0
1070
    74
1070
     0
1000
MTEXTEND
  0
POINT
  5
4A92E
330
4A927
100
AcDbEntity
  8
Defpoints
 62
     0
100
AcDbPoint
 10
3367.856391853188
 20
-3036.457642399821
 30
0.0
  0
POINT
  5
4A92F
330
4A927
100
AcDbEntity
  8
Defpoints
 62
     0
100
AcDbPoint
 10
3363.356391853189
 20
-3026.457642399821
 30
0.0
  0
POINT
  5
4A930
330
4A927
100
AcDbEntity
  8
Defpoints
 62
     0
100
AcDbPoint
 10
3355.356391853188
 20
-3026.457642399821
 30
0.0
  0
ENDBLK
  5
4A932
330
4A927
100
AcDbEntity
  8
0
100
AcDbBlockEnd
  0
BLOCK
  5
4A93D
330
4A933
100
AcDbEntity
  8
0
100
AcDbBlockBegin
  2
*D12
 70
     1
 10
0.0
 20
0.0
 30
0.0
  3
*D12
  1

  0
LINE
  5
4A934
330
4A933
100
AcDbEntity
  8
AM_5
100
AcDbLine
 10
3366.856391853188
 20
-3071.457642399821
 30
0.0
 11
3354.356391853188
 21
-3071.457642399821
 31
0.0
  0
LINE
  5
4A935
330
4A933
100
AcDbEntity
  8
AM_5
100
AcDbLine
 10
3362.356391853188
 20
-3081.457642399821
 30
0.0
 11
3354.356391853187
 21
-3081.457642399821
 31
0.0
  0
LINE
  5
4A936
330
4A933
100
AcDbEntity
  8
AM_5
100
AcDbLine
 10
3355.356391853187
 20
-3072.45764239982
 30
0.0
 11
3355.356391853187
 21
-3080.457642399821
 31
0.0
  0
INSERT
  5
4A937
330
4A933
100
AcDbEntity
  8
AM_5
100
AcDbBlockReference
  2
_Dot
 10
3355.356391853188
 20
-3071.457642399821
 30
0.0
 50
90.0
  0
INSERT
  5
4A938
330
4A933
100
AcDbEntity
  8
AM_5
100
AcDbBlockReference
  2
_Dot
 10
3355.356391853187
 20
-3081.457642399821
 30
0.0
 50
270.0
  0
MTEXT
  5
4A939
330
4A933
100
AcDbEntity
  8
AM_5
 62
     2
100
AcDbMText
 10
3352.756391853188
 20
-3076.457642399821
 30
0.0
 40
3.2
 41
0.0
 71
     5
 72
     1
  1
10
 11
0.0000000000000001
 21
1.0
 31
0.0
 73
     1
 44
1.0
1001
ACAD
1000
MTEXTBEGIN
1070
    73
1070
     1
1070
    44
1040
1.0
1070
    74
1070
     0
1000
MTEXTEND
  0
POINT
  5
4A93A
330
4A933
100
AcDbEntity
  8
Defpoints
 62
     0
100
AcDbPoint
 10
3367.856391853188
 20
-3071.457642399821
 30
0.0
  0
POINT
  5
4A93B
330
4A933
100
AcDbEntity
  8
Defpoints
 62
     0
100
AcDbPoint
 10
3363.356391853189
 20
-3081.457642399821
 30
0.0
  0
POINT
  5
4A93C
330
4A933
100
AcDbEntity
  8
Defpoints
 62
     0
100
AcDbPoint
 10
3355.356391853187
 20
-3081.457642399821
 30
0.0
  0
ENDBLK
  5
4A93E
330
4A933
100
AcDbEntity
  8
0
100
AcDbBlockEnd
  0
BLOCK
  5
4A949
330
4A93F
100
AcDbEntity
  8
0
100
AcDbBlockBegin
  2
*D13
 70
     1
 10
0.0
 20
0.0
 30
0.0
  3
*D13
  1

  0
LINE
  5
4A940
330
4A93F
100
AcDbEntity
  8
AM_5
100
AcDbLine
 10
3362.356391853188
 20
-3026.457642399821
 30
0.0
 11
3346.356391853188
 21
-3026.457642399821
 31
0.0
  0
LINE
  5
4A941
330
4A93F
100
AcDbEntity
  8
AM_5
100
AcDbLine
 10
3362.356391853188
 20
-3081.457642399821
 30
0.0
 11
3346.356391853188
 21
-3081.457642399821
 31
0.0
  0
LINE
  5
4A942
330
4A93F
100
AcDbEntity
  8
AM_5
100
AcDbLine
 10
3347.356391853188
 20
-3027.45764239982
 30
0.0
 11
3347.356391853188
 21
-3080.457642399821
 31
0.0
  0
INSERT
  5
4A943
330
4A93F
100
AcDbEntity
  8
AM_5
100
AcDbBlockReference
  2
_Dot
 10
3347.356391853188
 20
-3026.457642399821
 30
0.0
 50
90.0
  0
INSERT
  5
4A944
330
4A93F
100
AcDbEntity
  8
AM_5
100
AcDbBlockReference
  2
_Dot
 10
3347.356391853188
 20
-3081.457642399821
 30
0.0
 50
270.0
  0
MTEXT
  5
4A945
330
4A93F
100
AcDbEntity
  8
AM_5
 62
     2
100
AcDbMText
 10
3344.756391853188
 20
-3053.957642399821
 30
0.0
 40
3.2
 41
0.0
 71
     5
 72
     1
  1
55
 11
0.0000000000000001
 21
1.0
 31
0.0
 73
     1
 44
1.0
1001
ACAD
1000
MTEXTBEGIN
1070
    73
1070
     1
1070
    44
1040
1.0
1070
    74
1070
     0
1000
MTEXTEND
  0
POINT
  5
4A946
330
4A93F
100
AcDbEntity
  8
Defpoints
 62
     0
100
AcDbPoint
 10
3363.356391853189
 20
-3026.457642399821
 30
0.0
  0
POINT
  5
4A947
330
4A93F
100
AcDbEntity
  8
Defpoints
 62
     0
100
AcDbPoint
 10
3363.356391853189
 20
-3081.457642399821
 30
0.0
  0
POINT
  5
4A948
330
4A93F
100
AcDbEntity
  8
Defpoints
 62
     0
100
AcDbPoint
 10
3347.356391853188
 20
-3081.457642399821
 30
0.0
  0
ENDBLK
  5
4A94A
330
4A93F
100
AcDbEntity
  8
0
100
AcDbBlockEnd
  0
BLOCK
  5
4A955
330
4A94B
100
AcDbEntity
  8
0
100
AcDbBlockBegin
  2
*D14
 70
     1
 10
0.0
 20
0.0
 30
0.0
  3
*D14
  1

  0
LINE
  5
4ADDD
330
4A94B
100
AcDbEntity
  8
AM_5
100
AcDbLine
 10
3283.910592536973
 20
-2965.282623021508
 30
0.0
 11
3284.504275389909
 21
-2964.477923903743
 31
0.0
  0
LINE
  5
4ADDE
330
4A94B
100
AcDbEntity
  8
AM_5
100
AcDbLine
 10
3275.302191169406
 20
-2976.950760229088
 30
0.0
 11
3272.044986877725
 21
-2981.36569222002
 31
0.0
  0
LINE
  5
4ADDF
330
4A94B
100
AcDbEntity
  8
AM_5
100
AcDbLine
 10
3272.044986877725
 20
-2981.36569222002
 30
0.0
 11
3265.007653544392
 21
-2981.36569222002
 31
0.0
  0
LINE
  5
4ADE0
330
4A94B
100
AcDbEntity
  8
AM_5
100
AcDbLine
 10
3283.316909684038
 20
-2966.087322139271
 30
0.0
 11
3275.895874022342
 21
-2976.146061111324
 31
0.0
  0
INSERT
  5
4ADE1
330
4A94B
100
AcDbEntity
  8
AM_5
100
AcDbBlockReference
  2
_Dot
 10
3283.316909684038
 20
-2966.087322139271
 30
0.0
 50
233.58120747616
  0
INSERT
  5
4ADE2
330
4A94B
100
AcDbEntity
  8
AM_5
100
AcDbBlockReference
  2
_Dot
 10
3275.895874022342
 20
-2976.146061111324
 30
0.0
 50
53.58120747615995
  0
MTEXT
  5
4ADE3
330
4A94B
100
AcDbEntity
  8
AM_5
 62
     2
100
AcDbMText
 10
3268.026320211057
 20
-2978.76569222002
 30
0.0
 40
3.2
 41
0.0
 71
     5
 72
     1
  1
（%%cA）
 73
     1
 44
1.0
1001
ACAD
1000
MTEXTBEGIN
1070
    73
1070
     1
1070
    44
1040
1.0
1070
    74
1070
     0
1000
MTEXTEND
  0
POINT
  5
4ADE4
330
4A94B
100
AcDbEntity
  8
Defpoints
 62
     0
100
AcDbPoint
 10
3275.895874022342
 20
-2976.146061111324
 30
0.0
  0
POINT
  5
4ADE5
330
4A94B
100
AcDbEntity
  8
Defpoints
 62
     0
100
AcDbPoint
 10
3283.316909684038
 20
-2966.087322139271
 30
0.0
  0
ENDBLK
  5
4A956
330
4A94B
100
AcDbEntity
  8
0
100
AcDbBlockEnd
  0
BLOCK
  5
4A961
330
4A957
100
AcDbEntity
  8
0
100
AcDbBlockBegin
  2
*D15
 70
     1
 10
0.0
 20
0.0
 30
0.0
  3
*D15
  1

  0
LINE
  5
4AA4E
330
4A957
100
AcDbEntity
  8
AM_5
100
AcDbLine
 10
3370.76374014833
 20
-3040.135706719182
 30
0.0
 11
3370.187595325029
 21
-3040.953054345706
 31
0.0
  0
LINE
  5
4AA4F
330
4A957
100
AcDbEntity
  8
AM_5
100
AcDbLine
 10
3375.949043558043
 20
-3032.779578080465
 30
0.0
 11
3383.105468283504
 21
-3022.627118963957
 31
0.0
  0
LINE
  5
4AA50
330
4A957
100
AcDbEntity
  8
AM_5
100
AcDbLine
 10
3383.105468283504
 20
-3022.627118963957
 30
0.0
 11
3392.532134950171
 21
-3022.627118963957
 31
0.0
  0
LINE
  5
4AA51
330
4A957
100
AcDbEntity
  8
AM_5
100
AcDbLine
 10
3371.339884971631
 20
-3039.318359092659
 30
0.0
 11
3375.372898734742
 21
-3033.596925706989
 31
0.0
  0
INSERT
  5
4AA52
330
4A957
100
AcDbEntity
  8
AM_5
100
AcDbBlockReference
  2
_Dot
 10
3371.339884971631
 20
-3039.318359092659
 30
0.0
 50
54.82015564783285
  0
INSERT
  5
4AA53
330
4A957
100
AcDbEntity
  8
AM_5
100
AcDbBlockReference
  2
_Dot
 10
3375.372898734742
 20
-3033.596925706989
 30
0.0
 50
234.8201556478329
  0
MTEXT
  5
4AA54
330
4A957
100
AcDbEntity
  8
AM_5
 62
     2
100
AcDbMText
 10
3388.318801616838
 20
-3020.027118963957
 30
0.0
 40
3.2
 41
0.0
 71
     5
 72
     1
  1
2-\U+22057
 73
     1
 44
1.0
1001
ACAD
1000
MTEXTBEGIN
1070
    73
1070
     1
1070
    44
1040
1.0
1070
    74
1070
     0
1000
MTEXTEND
  0
POINT
  5
4AA55
330
4A957
100
AcDbEntity
  8
Defpoints
 62
     0
100
AcDbPoint
 10
3375.372898734742
 20
-3033.596925706989
 30
0.0
  0
POINT
  5
4AA56
330
4A957
100
AcDbEntity
  8
Defpoints
 62
     0
100
AcDbPoint
 10
3371.339884971631
 20
-3039.318359092659
 30
0.0
  0
ENDBLK
  5
4A962
330
4A957
100
AcDbEntity
  8
0
100
AcDbBlockEnd
  0
BLOCK
  5
4A981
330
4A975
100
AcDbEntity
  8
0
100
AcDbBlockBegin
  2
*D16
 70
     1
 10
0.0
 20
0.0
 30
0.0
  3
*D16
  1

  0
LINE
  5
4AD93
330
4A975
100
AcDbEntity
  8
AM_5
100
AcDbLine
 10
3306.856391853188
 20
-2978.116691625297
 30
0.0
 11
3306.856391853188
 21
-2986.116691625297
 31
0.0
  0
LINE
  5
4AD94
330
4A975
100
AcDbEntity
  8
AM_5
100
AcDbLine
 10
3303.856391853189
 20
-2978.116691625297
 30
0.0
 11
3303.856391853189
 21
-2986.116691625297
 31
0.0
  0
LINE
  5
4AD95
330
4A975
100
AcDbEntity
  8
AM_5
100
AcDbLine
 10
3302.856391853188
 20
-2985.116691625297
 30
0.0
 11
3301.856391853188
 21
-2985.116691625297
 31
0.0
  0
LINE
  5
4AD96
330
4A975
100
AcDbEntity
  8
AM_5
100
AcDbLine
 10
3307.856391853189
 20
-2985.116691625297
 30
0.0
 11
3312.403058519855
 21
-2985.116691625297
 31
0.0
  0
LINE
  5
4AD97
330
4A975
100
AcDbEntity
  8
AM_5
100
AcDbLine
 10
3303.856391853189
 20
-2985.116691625297
 30
0.0
 11
3306.856391853188
 21
-2985.116691625297
 31
0.0
  0
INSERT
  5
4AD98
330
4A975
100
AcDbEntity
  8
AM_5
100
AcDbBlockReference
  2
_Dot
 10
3303.856391853189
 20
-2985.116691625297
 30
0.0
  0
INSERT
  5
4AD99
330
4A975
100
AcDbEntity
  8
AM_5
100
AcDbBlockReference
  2
_Dot
 10
3306.856391853188
 20
-2985.116691625297
 30
0.0
 50
180.0
  0
MTEXT
  5
4AD9A
330
4A975
100
AcDbEntity
  8
AM_5
 62
     2
100
AcDbMText
 10
3310.656391853188
 20
-2982.516691625297
 30
0.0
 40
3.2
 41
0.0
 71
     5
 72
     1
  1
B
 73
     1
 44
1.0
1001
ACAD
1000
MTEXTBEGIN
1070
    73
1070
     1
1070
    44
1040
1.0
1070
    74
1070
     0
1000
MTEXTEND
  0
POINT
  5
4AD9B
330
4A975
100
AcDbEntity
  8
Defpoints
 62
     0
100
AcDbPoint
 10
3306.856391853188
 20
-2977.116691625297
 30
0.0
  0
POINT
  5
4AD9C
330
4A975
100
AcDbEntity
  8
Defpoints
 62
     0
100
AcDbPoint
 10
3303.856391853189
 20
-2977.116691625297
 30
0.0
  0
POINT
  5
4AD9D
330
4A975
100
AcDbEntity
  8
Defpoints
 62
     0
100
AcDbPoint
 10
3303.856391853189
 20
-2985.116691625297
 30
0.0
  0
ENDBLK
  5
4A982
330
4A975
100
AcDbEntity
  8
0
100
AcDbBlockEnd
  0
BLOCK
  5
4A98D
330
4A983
100
AcDbEntity
  8
0
100
AcDbBlockBegin
  2
*D17
 70
     1
 10
0.0
 20
0.0
 30
0.0
  3
*D17
  1

  0
LINE
  5
4AD9E
330
4A983
100
AcDbEntity
  8
AM_5
100
AcDbLine
 10
3273.356391853189
 20
-2940.116691625297
 30
0.0
 11
3273.356391853189
 21
-2924.116691625297
 31
0.0
  0
LINE
  5
4AD9F
330
4A983
100
AcDbEntity
  8
AM_5
100
AcDbLine
 10
3306.856391853188
 20
-2946.116691625297
 30
0.0
 11
3306.856391853188
 21
-2924.116691625297
 31
0.0
  0
LINE
  5
4ADA0
330
4A983
100
AcDbEntity
  8
AM_5
100
AcDbLine
 10
3274.156391853188
 20
-2925.116691625297
 30
0.0
 11
3306.056391853188
 21
-2925.116691625297
 31
0.0
  0
INSERT
  5
4ADA1
330
4A983
100
AcDbEntity
  8
AM_5
100
AcDbBlockReference
  2
_Dot
 10
3273.356391853189
 20
-2925.116691625297
 30
0.0
 41
0.8
 42
0.8
 43
0.8
 50
180.0
  0
INSERT
  5
4ADA2
330
4A983
100
AcDbEntity
  8
AM_5
100
AcDbBlockReference
  2
_Dot
 10
3306.856391853188
 20
-2925.116691625297
 30
0.0
 41
0.8
 42
0.8
 43
0.8
  0
MTEXT
  5
4ADA3
330
4A983
100
AcDbEntity
  8
AM_5
 62
     2
100
AcDbMText
 10
3290.106391853188
 20
-2922.516691625297
 30
0.0
 40
3.2
 41
0.0
 71
     5
 72
     1
  1
（C）\P
 73
     1
 44
1.0
1001
ACAD
1000
MTEXTBEGIN
1070
    73
1070
     1
1070
    44
1040
1.0
1070
    74
1070
     0
1000
MTEXTEND
  0
POINT
  5
4ADA4
330
4A983
100
AcDbEntity
  8
Defpoints
 62
     0
100
AcDbPoint
 10
3273.356391853189
 20
-2941.116691625297
 30
0.0
  0
POINT
  5
4ADA5
330
4A983
100
AcDbEntity
  8
Defpoints
 62
     0
100
AcDbPoint
 10
3306.856391853188
 20
-2947.116691625297
 30
0.0
  0
POINT
  5
4ADA6
330
4A983
100
AcDbEntity
  8
Defpoints
 62
     0
100
AcDbPoint
 10
3306.856391853188
 20
-2925.116691625297
 30
0.0
  0
ENDBLK
  5
4A98E
330
4A983
100
AcDbEntity
  8
0
100
AcDbBlockEnd
  0
BLOCK
  5
4A9A2
330
4A998
100
AcDbEntity
  8
0
100
AcDbBlockBegin
  2
*D18
 70
     1
 10
0.0
 20
0.0
 30
0.0
  3
*D18
  1

  0
LINE
  5
4A999
330
4A998
100
AcDbEntity
  8
AM_5
100
AcDbLine
 10
3310.856391853189
 20
-2967.116691625297
 30
0.0
 11
3315.856391853188
 21
-2967.116691625297
 31
0.0
  0
LINE
  5
4A99A
330
4A998
100
AcDbEntity
  8
AM_5
100
AcDbLine
 10
3304.856391853189
 20
-2944.116691625295
 30
0.0
 11
3315.856391853188
 21
-2944.116691625295
 31
0.0
  0
LINE
  5
4A99B
330
4A998
100
AcDbEntity
  8
AM_5
100
AcDbLine
 10
3314.856391853188
 20
-2966.316691625297
 30
0.0
 11
3314.856391853188
 21
-2944.916691625295
 31
0.0
  0
INSERT
  5
4A99C
330
4A998
100
AcDbEntity
  8
AM_5
100
AcDbBlockReference
  2
_Dot
 10
3314.856391853188
 20
-2967.116691625297
 30
0.0
 41
0.8
 42
0.8
 43
0.8
 50
270.0
  0
INSERT
  5
4A99D
330
4A998
100
AcDbEntity
  8
AM_5
100
AcDbBlockReference
  2
_Dot
 10
3314.856391853188
 20
-2944.116691625295
 30
0.0
 41
0.8
 42
0.8
 43
0.8
 50
90.0
  0
MTEXT
  5
4A99E
330
4A998
100
AcDbEntity
  8
AM_5
 62
     2
100
AcDbMText
 10
3312.256391853188
 20
-2955.616691625295
 30
0.0
 40
3.2
 41
0.0
 71
     5
 72
     1
  1
23
 11
0.0000000000000001
 21
1.0
 31
0.0
 73
     1
 44
1.0
1001
ACAD
1000
MTEXTBEGIN
1070
    73
1070
     1
1070
    44
1040
1.0
1070
    74
1070
     0
1000
MTEXTEND
  0
POINT
  5
4A99F
330
4A998
100
AcDbEntity
  8
Defpoints
 62
     0
100
AcDbPoint
 10
3309.856391853188
 20
-2967.116691625297
 30
0.0
  0
POINT
  5
4A9A0
330
4A998
100
AcDbEntity
  8
Defpoints
 62
     0
100
AcDbPoint
 10
3303.856391853189
 20
-2944.116691625295
 30
0.0
  0
POINT
  5
4A9A1
330
4A998
100
AcDbEntity
  8
Defpoints
 62
     0
100
AcDbPoint
 10
3314.856391853188
 20
-2944.116691625295
 30
0.0
  0
ENDBLK
  5
4A9A3
330
4A998
100
AcDbEntity
  8
0
100
AcDbBlockEnd
  0
BLOCK
  5
4AAA2
330
4AA96
100
AcDbEntity
  8
0
100
AcDbBlockBegin
  2
*D19
 70
     1
 10
0.0
 20
0.0
 30
0.0
  3
*D19
  1

  0
LINE
  5
4AAC1
330
4AA96
100
AcDbEntity
  8
AM_5
100
AcDbLine
 10
3276.606391853189
 20
-3087.957642399821
 30
0.0
 11
3276.606391853189
 21
-3095.457642399821
 31
0.0
  0
LINE
  5
4AAC2
330
4AA96
100
AcDbEntity
  8
AM_5
100
AcDbLine
 10
3282.606391853189
 20
-3087.957642399821
 30
0.0
 11
3282.606391853189
 21
-3095.457642399821
 31
0.0
  0
LINE
  5
4AAC3
330
4AA96
100
AcDbEntity
  8
AM_5
100
AcDbLine
 10
3277.606391853189
 20
-3094.457642399821
 30
0.0
 11
3281.606391853189
 21
-3094.457642399821
 31
0.0
  0
INSERT
  5
4AAC4
330
4AA96
100
AcDbEntity
  8
AM_5
100
AcDbBlockReference
  2
_Dot
 10
3276.606391853189
 20
-3094.457642399821
 30
0.0
 41
1.0
 42
1.0
 43
1.0
 50
180.0
  0
INSERT
  5
4AAC5
330
4AA96
100
AcDbEntity
  8
AM_5
100
AcDbBlockReference
  2
_Dot
 10
3282.606391853189
 20
-3094.457642399821
 30
0.0
 41
1.0
 42
1.0
 43
1.0
  0
MTEXT
  5
4AAC6
330
4AA96
100
AcDbEntity
  8
AM_5
 62
     2
100
AcDbMText
 10
3279.606391853189
 20
-3091.857642399821
 30
0.0
 40
3.2
 41
0.0
 71
     5
 72
     1
  1
%%c6
 73
     1
 44
1.0
1001
ACAD
1000
MTEXTBEGIN
1070
    73
1070
     1
1070
    44
1040
1.0
1070
    74
1070
     0
1000
MTEXTEND
  0
POINT
  5
4AAC7
330
4AA96
100
AcDbEntity
  8
Defpoints
 62
     0
100
AcDbPoint
 10
3276.606391853189
 20
-3086.457642399821
 30
0.0
  0
POINT
  5
4AAC8
330
4AA96
100
AcDbEntity
  8
Defpoints
 62
     0
100
AcDbPoint
 10
3282.606391853189
 20
-3086.457642399821
 30
0.0
  0
POINT
  5
4AAC9
330
4AA96
100
AcDbEntity
  8
Defpoints
 62
     0
100
AcDbPoint
 10
3282.606391853189
 20
-3094.457642399821
 30
0.0
  0
ENDBLK
  5
4AAA3
330
4AA96
100
AcDbEntity
  8
0
100
AcDbBlockEnd
  0
BLOCK
  5
4AE16
330
4AE0F
100
AcDbEntity
  8
0
100
AcDbBlockBegin
  2
*S20
 70
     1
 10
0.0
 20
0.0
 30
0.0
  3
*S20
  1

  0
LINE
  5
4AE10
330
4AE0F
100
AcDbEntity
  8
AM_5
 62
     3
100
AcDbLine
 10
3307.059480689137
 20
-3088.332056947262
 30
0.0
 11
3288.649156009302
 21
-3088.332056947262
 31
0.0
  0
LINE
  5
4AE11
330
4AE0F
100
AcDbEntity
  8
AM_5
 62
     3
100
AcDbLine
 10
3288.649156009302
 20
-3088.332056947262
 30
0.0
 11
3284.207365277813
 21
-3085.006343402426
 31
0.0
  0
LINE
  5
4AE12
330
4AE0F
100
AcDbEntity
  8
AM_5
  6
Continuous
 62
     3
100
AcDbLine
 10
3284.207365277813
 20
-3085.006343402426
 30
0.0
 11
3282.606391853188
 21
-3083.807642399821
 31
0.0
  0
LINE
  5
4AE13
330
4AE0F
100
AcDbEntity
  8
AM_5
  6
Continuous
 62
     3
100
AcDbLine
 10
3284.528556240513
 20
-3084.577363870086
 30
0.0
 11
3282.606391853188
 21
-3083.807642399821
 31
0.0
  0
LINE
  5
4AE14
330
4AE0F
100
AcDbEntity
  8
AM_5
  6
Continuous
 62
     3
100
AcDbLine
 10
3282.606391853188
 20
-3083.807642399821
 30
0.0
 11
3283.886174315113
 21
-3085.435322934765
 31
0.0
  0
MTEXT
  5
4AE15
330
4AE0F
100
AcDbEntity
  8
AM_5
 62
     2
100
AcDbMText
 10
3289.92881402247
 20
-3087.227080031522
 30
0.0
 40
3.2
 41
0.0
 71
     7
 72
     5
  1
E型止め輪用溝
 73
     1
 44
1.0
1001
ACAD
1000
MTEXTBEGIN
1070
    73
1070
     1
1070
    44
1040
1.0
1070
    74
1070
     0
1000
MTEXTEND
  0
ENDBLK
  5
4AE17
330
4AE0F
100
AcDbEntity
  8
0
100
AcDbBlockEnd
  0
ENDSEC
  0
SECTION
  2
ENTITIES
  0
LINE
  5
4A720
330
1F
100
AcDbEntity
  8
size
100
AcDbLine
 10
3113.586323213272
 20
-3157.832267167609
 30
0.0
 11
3533.586323213273
 21
-3157.832267167609
 31
0.0
1001
GENIUS_GENREC_14
1002
{
1000
PYDIR
1011
3113.586323213272
1021
-2860.832267167609
1031
0.0
1002
}
1002
{
1000
PXDIR
1011
3533.586323213273
1021
-3157.832267167609
1031
0.0
1002
}
1002
{
1000
PORI
1011
3113.586323213272
1021
-3157.832267167609
1031
0.0
1002
}
1002
{
1000
PINS
1011
3323.586323213272
1021
-3009.332267167609
1031
0.0
1002
}
1002
{
1000
HVAL
1000
297
1002
}
1002
{
1000
H
1070
     2
1002
}
1002
{
1000
WVAL
1000
420
1002
}
1002
{
1000
W
1070
     2
1002
}
1002
{
1000
C
1070
     4
1002
}
1001
GENIUS_GENOBJ-N-REC_13
1002
{
1000
OWNER
1000
GEN
1002
}
1001
GENIUS_GENODEF_13
1002
{
1000
HIER
1070
     0
1002
}
1002
{
1000
MANEDIT
1070
     0
1002
}
1002
{
1000
NOSEL
1070
     0
1002
}
1002
{
1000
BEHIND
1070
     0
1002
}
1002
{
1000
OTHER
1070
     0
1002
}
1002
{
1000
REACTOR
1002
}
  0
LINE
  5
4A721
330
1F
100
AcDbEntity
  8
size
100
AcDbLine
 10
3533.586323213273
 20
-3157.832267167609
 30
0.0
 11
3533.586323213273
 21
-2860.832267167609
 31
0.0
1001
GENIUS_GENREC_14
1002
{
1000
PYDIR
1011
3113.586323213272
1021
-2860.832267167609
1031
0.0
1002
}
1002
{
1000
PXDIR
1011
3533.586323213273
1021
-3157.832267167609
1031
0.0
1002
}
1002
{
1000
PORI
1011
3113.586323213272
1021
-3157.832267167609
1031
0.0
1002
}
1002
{
1000
PINS
1011
3323.586323213272
1021
-3009.332267167609
1031
0.0
1002
}
1002
{
1000
HVAL
1000
297
1002
}
1002
{
1000
H
1070
     2
1002
}
1002
{
1000
WVAL
1000
420
1002
}
1002
{
1000
W
1070
     2
1002
}
1002
{
1000
C
1070
     4
1002
}
1001
GENIUS_GENOBJ-N-REC_13
1002
{
1000
OWNER
1000
GEN
1002
}
1001
GENIUS_GENODEF_13
1002
{
1000
HIER
1070
     0
1002
}
1002
{
1000
MANEDIT
1070
     0
1002
}
1002
{
1000
NOSEL
1070
     0
1002
}
1002
{
1000
BEHIND
1070
     0
1002
}
1002
{
1000
OTHER
1070
     0
1002
}
1002
{
1000
REACTOR
1002
}
  0
LINE
  5
4A722
330
1F
100
AcDbEntity
  8
size
100
AcDbLine
 10
3533.586323213273
 20
-2860.832267167609
 30
0.0
 11
3113.586323213272
 21
-2860.832267167609
 31
0.0
1001
GENIUS_GENREC_14
1002
{
1000
PYDIR
1011
3113.586323213272
1021
-2860.832267167609
1031
0.0
1002
}
1002
{
1000
PXDIR
1011
3533.586323213273
1021
-3157.832267167609
1031
0.0
1002
}
1002
{
1000
PORI
1011
3113.586323213272
1021
-3157.832267167609
1031
0.0
1002
}
1002
{
1000
PINS
1011
3323.586323213272
1021
-3009.332267167609
1031
0.0
1002
}
1002
{
1000
HVAL
1000
297
1002
}
1002
{
1000
H
1070
     2
1002
}
1002
{
1000
WVAL
1000
420
1002
}
1002
{
1000
W
1070
     2
1002
}
1002
{
1000
C
1070
     4
1002
}
1001
GENIUS_GENOBJ-N-REC_13
1002
{
1000
OWNER
1000
GEN
1002
}
1001
GENIUS_GENODEF_13
1002
{
1000
HIER
1070
     0
1002
}
1002
{
1000
MANEDIT
1070
     0
1002
}
1002
{
1000
NOSEL
1070
     0
1002
}
1002
{
1000
BEHIND
1070
     0
1002
}
1002
{
1000
OTHER
1070
     0
1002
}
1002
{
1000
REACTOR
1002
}
  0
LINE
  5
4A723
330
1F
100
AcDbEntity
  8
size
100
AcDbLine
 10
3113.586323213272
 20
-2860.832267167609
 30
0.0
 11
3113.586323213272
 21
-3157.832267167609
 31
0.0
1001
GENIUS_GENREC_14
1002
{
1000
PYDIR
1011
3113.586323213272
1021
-2860.832267167609
1031
0.0
1002
}
1002
{
1000
PXDIR
1011
3533.586323213273
1021
-3157.832267167609
1031
0.0
1002
}
1002
{
1000
PORI
1011
3113.586323213272
1021
-3157.832267167609
1031
0.0
1002
}
1002
{
1000
PINS
1011
3323.586323213272
1021
-3009.332267167609
1031
0.0
1002
}
1002
{
1000
HVAL
1000
297
1002
}
1002
{
1000
H
1070
     2
1002
}
1002
{
1000
WVAL
1000
420
1002
}
1002
{
1000
W
1070
     2
1002
}
1002
{
1000
C
1070
     4
1002
}
1001
GENIUS_GENOBJ-N-REC_13
1002
{
1000
OWNER
1000
GEN
1002
}
1001
GENIUS_GENODEF_13
1002
{
1000
HIER
1070
     0
1002
}
1002
{
1000
MANEDIT
1070
     0
1002
}
1002
{
1000
NOSEL
1070
     0
1002
}
1002
{
1000
BEHIND
1070
     0
1002
}
1002
{
1000
OTHER
1070
     0
1002
}
1002
{
1000
REACTOR
1002
}
  0
LINE
  5
4A724
330
1F
100
AcDbEntity
  8
waku
100
AcDbLine
 10
3522.086323213272
 20
-3149.332267167609
 30
0.0
 11
3522.086323213272
 21
-2869.332267167609
 31
0.0
1001
GENIUS_GENREC_14
1002
{
1000
PYDIR
1011
3113.586323213272
1021
-2860.832267167609
1031
0.0
1002
}
1002
{
1000
PXDIR
1011
3533.586323213273
1021
-3157.832267167609
1031
0.0
1002
}
1002
{
1000
PORI
1011
3113.586323213272
1021
-3157.832267167609
1031
0.0
1002
}
1002
{
1000
PINS
1011
3323.586323213272
1021
-3009.332267167609
1031
0.0
1002
}
1002
{
1000
HVAL
1000
297
1002
}
1002
{
1000
H
1070
     2
1002
}
1002
{
1000
WVAL
1000
420
1002
}
1002
{
1000
W
1070
     2
1002
}
1002
{
1000
C
1070
     4
1002
}
1001
GENIUS_GENOBJ-N-REC_13
1002
{
1000
OWNER
1000
GEN
1002
}
1001
GENIUS_GENODEF_13
1002
{
1000
HIER
1070
     0
1002
}
1002
{
1000
MANEDIT
1070
     0
1002
}
1002
{
1000
NOSEL
1070
     0
1002
}
1002
{
1000
BEHIND
1070
     0
1002
}
1002
{
1000
OTHER
1070
     0
1002
}
1002
{
1000
REACTOR
1002
}
  0
LINE
  5
4A725
330
1F
100
AcDbEntity
  8
waku
100
AcDbLine
 10
3125.086323213272
 20
-2869.332267167609
 30
0.0
 11
3125.086323213272
 21
-3149.332267167607
 31
0.0
1001
GENIUS_GENREC_14
1002
{
1000
PYDIR
1011
3113.586323213272
1021
-2860.832267167609
1031
0.0
1002
}
1002
{
1000
PXDIR
1011
3533.586323213273
1021
-3157.832267167609
1031
0.0
1002
}
1002
{
1000
PORI
1011
3113.586323213272
1021
-3157.832267167609
1031
0.0
1002
}
1002
{
1000
PINS
1011
3323.586323213272
1021
-3009.332267167609
1031
0.0
1002
}
1002
{
1000
HVAL
1000
297
1002
}
1002
{
1000
H
1070
     2
1002
}
1002
{
1000
WVAL
1000
420
1002
}
1002
{
1000
W
1070
     2
1002
}
1002
{
1000
C
1070
     4
1002
}
1001
GENIUS_GENOBJ-N-REC_13
1002
{
1000
OWNER
1000
GEN
1002
}
1001
GENIUS_GENODEF_13
1002
{
1000
HIER
1070
     0
1002
}
1002
{
1000
MANEDIT
1070
     0
1002
}
1002
{
1000
NOSEL
1070
     0
1002
}
1002
{
1000
BEHIND
1070
     0
1002
}
1002
{
1000
OTHER
1070
     0
1002
}
1002
{
1000
REACTOR
1002
}
  0
LINE
  5
4A726
330
1F
100
AcDbEntity
  8
waku
100
AcDbLine
 10
3522.086323213272
 20
-2869.332267167609
 30
0.0
 11
3125.086323213272
 21
-2869.332267167609
 31
0.0
1001
GENIUS_GENREC_14
1002
{
1000
PYDIR
1011
3113.586323213272
1021
-2860.832267167609
1031
0.0
1002
}
1002
{
1000
PXDIR
1011
3533.586323213273
1021
-3157.832267167609
1031
0.0
1002
}
1002
{
1000
PORI
1011
3113.586323213272
1021
-3157.832267167609
1031
0.0
1002
}
1002
{
1000
PINS
1011
3323.586323213272
1021
-3009.332267167609
1031
0.0
1002
}
1002
{
1000
HVAL
1000
297
1002
}
1002
{
1000
H
1070
     2
1002
}
1002
{
1000
WVAL
1000
420
1002
}
1002
{
1000
W
1070
     2
1002
}
1002
{
1000
C
1070
     4
1002
}
1001
GENIUS_GENOBJ-N-REC_13
1002
{
1000
OWNER
1000
GEN
1002
}
1001
GENIUS_GENODEF_13
1002
{
1000
HIER
1070
     0
1002
}
1002
{
1000
MANEDIT
1070
     0
1002
}
1002
{
1000
NOSEL
1070
     0
1002
}
1002
{
1000
BEHIND
1070
     0
1002
}
1002
{
1000
OTHER
1070
     0
1002
}
1002
{
1000
REACTOR
1002
}
  0
LINE
  5
4A727
330
1F
100
AcDbEntity
  8
waku
100
AcDbLine
 10
3125.086323213272
 20
-3149.332267167609
 30
0.0
 11
3522.086323213272
 21
-3149.332267167609
 31
0.0
  0
LINE
  5
4A73F
330
1F
100
AcDbEntity
  8
AM_0
100
AcDbLine
 10
3145.086323213272
 20
-2869.332267167609
 30
0.0
 11
3145.086323213273
 21
-2933.332267167604
 31
0.0
  0
LINE
  5
4A740
330
1F
100
AcDbEntity
  8
AM_4
100
AcDbLine
 10
3125.086323213272
 20
-2877.332267167609
 30
0.0
 11
3235.086323213272
 21
-2877.332267167609
 31
0.0
  0
LINE
  5
4A741
330
1F
100
AcDbEntity
  8
AM_4
100
AcDbLine
 10
3125.086323213272
 20
-2885.332267167611
 30
0.0
 11
3235.086323213272
 21
-2885.332267167611
 31
0.0
  0
LINE
  5
4A742
330
1F
100
AcDbEntity
  8
AM_0
100
AcDbLine
 10
3125.086323213272
 20
-2869.332267167609
 30
0.0
 11
3125.086323213272
 21
-2933.332267167604
 31
0.0
  0
LINE
  5
4A743
330
1F
100
AcDbEntity
  8
AM_0
100
AcDbLine
 10
3125.086323213272
 20
-2869.332267167609
 30
0.0
 11
3235.086323213272
 21
-2869.332267167609
 31
0.0
  0
LINE
  5
4A744
330
1F
100
AcDbEntity
  8
AM_0
100
AcDbLine
 10
3235.086323213272
 20
-2869.332267167609
 30
0.0
 11
3235.086323213273
 21
-2933.332267167604
 31
0.0
  0
TEXT
  5
4A745
330
1F
100
AcDbEntity
  8
AM_6
100
AcDbText
 10
3130.743323213272
 20
-2874.932267167609
 30
0.0
 40
3.2
  1
品　名
 41
0.85537027
100
AcDbText
  0
TEXT
  5
4A746
330
1F
100
AcDbEntity
  8
AM_6
100
AcDbText
 10
3130.743323213272
 20
-2882.932267167609
 30
0.0
 40
3.2
  1
品　番
 41
0.85537027
100
AcDbText
  0
TEXT
  5
4A747
330
1F
100
AcDbEntity
  8
AM_6
100
AcDbText
 10
3130.743323213272
 20
-2890.932267167611
 30
0.0
 40
3.2
  1
材　質
 41
0.85537027
100
AcDbText
  0
TEXT
  5
4A748
330
1F
100
AcDbEntity
  8
AM_6
100
AcDbText
 10
3130.743323213272
 20
-2898.932267167611
 30
0.0
 40
3.2
  1
仕上げ
 41
0.85537027
100
AcDbText
  0
MTEXT
  5
4A749
330
1F
100
AcDbEntity
  8
AM_6
100
AcDbMText
 10
3145.086323213272
 20
-2873.332267167609
 30
0.0
 40
3.2
 41
90.0
 71
     4
 72
     5
  1
　　重量用裏丁番
 73
     1
 44
1.0
1001
ACAD
1000
MTEXTBEGIN
1070
    73
1070
     1
1070
    44
1040
1.0
1070
    74
1070
     0
1000
MTEXTEND
  0
MTEXT
  5
4A74A
330
1F
100
AcDbEntity
  8
AM_6
100
AcDbMText
 10
3145.086323213272
 20
-2881.332267167609
 30
0.0
 40
3.2
 41
90.0
 71
     4
 72
     5
  1
　　DEH-25 ／ DEH-25S
 73
     1
 44
1.0
1001
ACAD
1000
MTEXTBEGIN
1070
    73
1070
     1
1070
    44
1040
1.0
1070
    74
1070
     0
1000
MTEXTEND
  0
MTEXT
  5
4A74B
330
1F
100
AcDbEntity
  8
AM_6
100
AcDbMText
 10
3145.086323213272
 20
-2897.332267167611
 30
0.0
 40
3.2
 41
90.0
 71
     4
 72
     5
  1
　　ステンレス：生地
 73
     1
 44
1.0
1001
ACAD
1000
MTEXTBEGIN
1070
    73
1070
     1
1070
    44
1040
1.0
1070
    74
1070
     0
1000
MTEXTEND
  0
LINE
  5
4A74E
102
{ACAD_REACTORS
330
4A7AE
102
}
330
1F
100
AcDbEntity
  8
AM_7
  6
中心線1
 48
0.5
370
    13
100
AcDbLine
 10
3271.356391853188
 20
-2971.116691625297
 30
0.0
 11
3287.856391853188
 21
-2971.116691625297
 31
0.0
  0
LINE
  5
4A74F
330
1F
100
AcDbEntity
  8
AM_7
  6
中心線1
 48
0.5
370
    13
100
AcDbLine
 10
3279.606391853189
 20
-2979.366691625297
 30
0.0
 11
3279.606391853189
 21
-2962.866691625297
 31
0.0
  0
ARC
  5
4A750
102
{ACAD_REACTORS
330
4A7C0
102
}
330
1F
100
AcDbEntity
  8
AM_0
  6
中線
 48
0.5
370
    30
100
AcDbCircle
 10
3279.606391853189
 20
-2971.116691625297
 30
0.0
 40
6.25
100
AcDbArc
 50
180.0
 51
121.3322514980164
  0
LINE
  5
4A751
330
1F
100
AcDbEntity
  8
AM_0
  6
中線
 48
0.5
370
    30
100
AcDbLine
 10
3273.356391853189
 20
-2941.116691625297
 30
0.0
 11
3276.356391853188
 21
-2941.116691625297
 31
0.0
  0
LINE
  5
4A752
102
{ACAD_REACTORS
330
4A80B
102
}
330
1F
100
AcDbEntity
  8
AM_0
  6
中線
 48
0.5
370
    30
100
AcDbLine
 10
3273.356391853189
 20
-2971.116691625297
 30
0.0
 11
3273.356391853189
 21
-2941.116691625297
 31
0.0
  0
LINE
  5
4A753
330
1F
100
AcDbEntity
  8
AM_0
  6
中線
 48
0.5
370
    30
100
AcDbLine
 10
3276.356391853188
 20
-2966.679631788296
 30
0.0
 11
3276.356391853188
 21
-2941.116691625297
 31
0.0
  0
LINE
  5
4A754
330
1F
100
AcDbEntity
  8
AM_0
  6
中線
 48
0.5
370
    30
100
AcDbLine
 10
3306.856391853188
 20
-2977.116691625297
 30
0.0
 11
3306.856391853188
 21
-2950.116691625297
 31
0.0
  0
LINE
  5
4A755
330
1F
100
AcDbEntity
  8
AM_0
  6
中線
 48
0.5
370
    30
100
AcDbLine
 10
3303.856391853189
 20
-2977.116691625297
 30
0.0
 11
3303.856391853189
 21
-2950.116691625297
 31
0.0
  0
LINE
  5
4A756
330
1F
100
AcDbEntity
  8
AM_0
  6
中線
 48
0.5
370
    30
100
AcDbLine
 10
3283.856391853188
 20
-2944.116691625297
 30
0.0
 11
3300.856391853189
 21
-2944.116691625297
 31
0.0
  0
LINE
  5
4A757
330
1F
100
AcDbEntity
  8
AM_0
  6
中線
 48
0.5
370
    30
100
AcDbLine
 10
3283.856391853188
 20
-2947.116691625297
 30
0.0
 11
3300.856391853189
 21
-2947.116691625297
 31
0.0
  0
ARC
  5
4A758
330
1F
100
AcDbEntity
  8
AM_0
  6
中線
 48
0.5
370
    30
100
AcDbCircle
 10
3300.856391853189
 20
-2950.116691625297
 30
0.0
 40
6.0
100
AcDbArc
 50
0.0
 51
90.0
  0
LINE
  5
4A759
330
1F
100
AcDbEntity
  8
AM_0
  6
中線
 48
0.5
370
    30
100
AcDbLine
 10
3277.856391853188
 20
-2962.499166774296
 30
0.0
 11
3277.856391853188
 21
-2950.116691625297
 31
0.0
  0
LINE
  5
4A75A
330
1F
100
AcDbEntity
  8
AM_0
  6
中線
 48
0.5
370
    30
100
AcDbLine
 10
3280.856391853188
 20
-2963.081325729298
 30
0.0
 11
3280.856391853188
 21
-2950.116691625297
 31
0.0
  0
ARC
  5
4A75B
330
1F
100
AcDbEntity
  8
AM_0
  6
中線
 48
0.5
370
    30
100
AcDbCircle
 10
3283.856391853188
 20
-2950.116691625297
 30
0.0
 40
6.0
100
AcDbArc
 50
90.0
 51
180.0
  0
ARC
  5
4A75C
330
1F
100
AcDbEntity
  8
AM_0
  6
中線
 48
0.5
370
    30
100
AcDbCircle
 10
3283.856391853188
 20
-2950.116691625297
 30
0.0
 40
3.0
100
AcDbArc
 50
90.0
 51
180.0
  0
ARC
  5
4A75D
330
1F
100
AcDbEntity
  8
AM_0
  6
中線
 48
0.5
370
    30
100
AcDbCircle
 10
3300.856391853189
 20
-2950.116691625297
 30
0.0
 40
3.0
100
AcDbArc
 50
0.0
 51
90.0
  0
LINE
  5
4A75E
330
1F
100
AcDbEntity
  8
AM_0
  6
中線
 48
0.5
370
    30
100
AcDbLine
 10
3277.749597136188
 20
-2963.116691625297
 30
0.0
 11
3280.642802418189
 21
-2963.116691625297
 31
0.0
  0
LINE
  5
4A75F
102
{ACAD_REACTORS
330
4A7F8
102
}
330
1F
100
AcDbEntity
  8
AM_0
  6
中線
 48
0.5
370
    30
100
AcDbLine
 10
3303.856391853189
 20
-2977.116691625297
 30
0.0
 11
3306.856391853188
 21
-2977.116691625297
 31
0.0
  0
LINE
  5
4A760
330
1F
100
AcDbEntity
  8
AM_0
  6
中線
 48
0.5
370
    30
100
AcDbLine
 10
3277.753519269188
 20
-2962.940938660297
 30
0.0
 11
3276.356391853188
 21
-2965.778152499297
 31
0.0
  0
CIRCLE
  5
4A761
330
1F
100
AcDbEntity
  8
AM_0
  6
中線
 48
0.5
370
    30
100
AcDbCircle
 10
3279.606391853189
 20
-2971.116691625297
 30
0.0
 40
5.5
  0
ARC
  5
4A762
330
1F
100
AcDbEntity
  8
AM_0
  6
中線
 48
0.5
370
    30
100
AcDbCircle
 10
3276.856391853188
 20
-2962.499166774296
 30
0.0
 40
1.0
100
AcDbArc
 50
333.7830108109786
 51
0.0
  0
ARC
  5
4A763
330
1F
100
AcDbEntity
  8
AM_0
  6
中線
 48
0.5
370
    30
100
AcDbCircle
 10
3279.356391853188
 20
-2963.081325729298
 30
0.0
 40
1.5
100
AcDbArc
 50
333.7830108109786
 51
0.0
  0
LINE
  5
4A764
330
1F
100
AcDbEntity
  8
AM_0
  6
中線
 48
0.5
370
    30
100
AcDbLine
 10
3273.356391853189
 20
-3026.457642399821
 30
0.0
 11
3273.356391853189
 21
-3081.457642399821
 31
0.0
  0
LINE
  5
4A765
330
1F
100
AcDbEntity
  8
AM_0
  6
中線
 48
0.5
370
    30
100
AcDbLine
 10
3303.856391853189
 20
-3026.457642399821
 30
0.0
 11
3303.856391853189
 21
-3081.457642399821
 31
0.0
  0
LINE
  5
4A766
330
1F
100
AcDbEntity
  8
AM_0
  6
中線
 48
0.5
370
    30
100
AcDbLine
 10
3306.856391853188
 20
-3026.457642399821
 30
0.0
 11
3306.856391853188
 21
-3081.457642399821
 31
0.0
  0
LINE
  5
4A767
330
1F
100
AcDbEntity
  8
AM_0
  6
中線
 48
0.5
370
    30
100
AcDbLine
 10
3273.356391853189
 20
-3081.457642399821
 30
0.0
 11
3306.856391853188
 21
-3081.457642399821
 31
0.0
  0
LINE
  5
4A768
330
1F
100
AcDbEntity
  8
AM_0
  6
中線
 48
0.5
370
    30
100
AcDbLine
 10
3273.356391853189
 20
-3026.457642399821
 30
0.0
 11
3306.856391853188
 21
-3026.457642399821
 31
0.0
  0
LINE
  5
4A769
330
1F
100
AcDbEntity
  8
AM_0
  6
中線
 48
0.5
370
    30
100
AcDbLine
 10
3285.856391853189
 20
-3026.457642399821
 30
0.0
 11
3285.856391853189
 21
-3039.457642399821
 31
0.0
  0
LINE
  5
4A76A
330
1F
100
AcDbEntity
  8
AM_7
  6
中心線1
 48
0.5
370
    13
100
AcDbLine
 10
3279.606390720188
 20
-3021.457642399821
 30
0.0
 11
3279.606391853189
 21
-3089.457642399821
 31
0.0
  0
LINE
  5
4A76D
330
1F
100
AcDbEntity
  8
AM_0
  6
中線
 48
0.5
370
    30
100
AcDbLine
 10
3275.106281787188
 20
-3024.457642399821
 30
0.0
 11
3284.106499653189
 21
-3024.457642399821
 31
0.0
  0
ARC
  5
4A76E
330
1F
100
AcDbEntity
  8
AM_0
  6
中線
 48
0.5
370
    30
100
AcDbCircle
 10
3275.106281787188
 20
-3025.457642399821
 30
0.0
 40
1.0
100
AcDbArc
 50
90.0
 51
270.0
  0
ARC
  5
4A76F
330
1F
100
AcDbEntity
  8
AM_0
  6
中線
 48
0.5
370
    30
100
AcDbCircle
 10
3284.106499653189
 20
-3025.457642399821
 30
0.0
 40
1.0
100
AcDbArc
 50
270.0
 51
90.0
  0
LINE
  5
4A770
102
{ACAD_REACTORS
330
4AAA5
102
}
330
1F
100
AcDbEntity
  8
AM_0
  6
中線
 48
0.5
370
    30
100
AcDbLine
 10
3276.606391853189
 20
-3086.457642399821
 30
0.0
 11
3282.606391853188
 21
-3086.457642399821
 31
0.0
  0
LINE
  5
4A771
330
1F
100
AcDbEntity
  8
AM_0
  6
中線
 48
0.5
370
    30
100
AcDbLine
 10
3282.606391853188
 20
-3081.457642399821
 30
0.0
 11
3282.606391853188
 21
-3083.457642399821
 31
0.0
  0
LINE
  5
4A772
330
1F
100
AcDbEntity
  8
AM_0
  6
中線
 48
0.5
370
    30
100
AcDbLine
 10
3276.606391853189
 20
-3081.457642399821
 30
0.0
 11
3276.606391853189
 21
-3083.457642399821
 31
0.0
  0
LINE
  5
4A773
102
{ACAD_REACTORS
330
4A813
102
}
330
1F
100
AcDbEntity
  8
AM_7
  6
中心線1
 48
0.5
370
    13
100
AcDbLine
 10
3300.856391853189
 20
-2967.116691625297
 30
0.0
 11
3309.856391853188
 21
-2967.116691625297
 31
0.0
  0
LINE
  5
4A774
330
1F
100
AcDbEntity
  8
AM_0
  6
中線
 48
0.5
370
    30
100
AcDbLine
 10
3363.356391853189
 20
-3026.457642399821
 30
0.0
 11
3399.606391853188
 21
-3026.457642399821
 31
0.0
  0
LINE
  5
4A775
330
1F
100
AcDbEntity
  8
AM_0
  6
中線
 48
0.5
370
    30
100
AcDbLine
 10
3363.356391853189
 20
-3081.457642399821
 30
0.0
 11
3399.606391853188
 21
-3081.457642399821
 31
0.0
  0
LINE
  5
4A776
330
1F
100
AcDbEntity
  8
AM_0
  6
中線
 48
0.5
370
    30
100
AcDbLine
 10
3363.606391853188
 20
-3081.457642399821
 30
0.0
 11
3363.606391853188
 21
-3026.457642399821
 31
0.0
  0
LINE
  5
4A779
330
1F
100
AcDbEntity
  8
AM_0
  6
中線
 48
0.5
370
    30
100
AcDbLine
 10
3363.356391853189
 20
-3039.457642399821
 30
0.0
 11
3363.606391853188
 21
-3039.457642399821
 31
0.0
  0
LINE
  5
4A77A
330
1F
100
AcDbEntity
  8
AM_0
  6
中線
 48
0.5
370
    30
100
AcDbLine
 10
3363.356391853189
 20
-3068.457642399821
 30
0.0
 11
3363.606391853188
 21
-3068.457642399821
 31
0.0
  0
LINE
  5
4A77B
330
1F
100
AcDbEntity
  8
AM_0
  6
中線
 48
0.5
370
    30
100
AcDbLine
 10
3273.356391853189
 20
-3039.457642399821
 30
0.0
 11
3285.856391853189
 21
-3039.457642399821
 31
0.0
  0
LINE
  5
4A77C
330
1F
100
AcDbEntity
  8
AM_0
  6
中線
 48
0.5
370
    30
100
AcDbLine
 10
3273.356391853189
 20
-3068.457642399821
 30
0.0
 11
3285.856391853189
 21
-3068.457642399821
 31
0.0
  0
LINE
  5
4A77D
330
1F
100
AcDbEntity
  8
AM_0
  6
中線
 48
0.5
370
    30
100
AcDbLine
 10
3273.356391853189
 20
-3040.457642399821
 30
0.0
 11
3285.856391853189
 21
-3040.457642399821
 31
0.0
  0
LINE
  5
4A77E
330
1F
100
AcDbEntity
  8
AM_0
  6
中線
 48
0.5
370
    30
100
AcDbLine
 10
3273.356391853189
 20
-3067.457642399821
 30
0.0
 11
3285.856391853189
 21
-3067.457642399821
 31
0.0
  0
LINE
  5
4A77F
330
1F
100
AcDbEntity
  8
AM_0
  6
中線
 48
0.5
370
    30
100
AcDbLine
 10
3285.856391853189
 20
-3068.457642399821
 30
0.0
 11
3285.856391853189
 21
-3081.457642399821
 31
0.0
  0
LINE
  5
4A780
330
1F
100
AcDbEntity
  8
AM_0
  6
中線
 48
0.5
370
    30
100
AcDbLine
 10
3285.856391853189
 20
-3040.457642399821
 30
0.0
 11
3285.856391853189
 21
-3067.457642399821
 31
0.0
  0
LINE
  5
4A781
330
1F
100
AcDbEntity
  8
AM_0
  6
中線
 48
0.5
370
    30
100
AcDbLine
 10
3276.606391853189
 20
-3039.457642399821
 30
0.0
 11
3276.606391853189
 21
-3040.457642399821
 31
0.0
  0
LINE
  5
4A782
330
1F
100
AcDbEntity
  8
AM_0
  6
中線
 48
0.5
370
    30
100
AcDbLine
 10
3282.606391853188
 20
-3039.457642399821
 30
0.0
 11
3282.606391853188
 21
-3040.457642399821
 31
0.0
  0
LINE
  5
4A783
330
1F
100
AcDbEntity
  8
AM_0
  6
中線
 48
0.5
370
    30
100
AcDbLine
 10
3276.606391853189
 20
-3068.457642399821
 30
0.0
 11
3276.606391853189
 21
-3067.457642399821
 31
0.0
  0
LINE
  5
4A784
330
1F
100
AcDbEntity
  8
AM_0
  6
中線
 48
0.5
370
    30
100
AcDbLine
 10
3282.606391853188
 20
-3068.457642399821
 30
0.0
 11
3282.606391853188
 21
-3067.457642399821
 31
0.0
  0
LINE
  5
4A785
330
1F
100
AcDbEntity
  8
AM_0
  6
中線
 48
0.5
370
    30
100
AcDbLine
 10
3363.356391853189
 20
-3067.457642399821
 30
0.0
 11
3363.606391853188
 21
-3067.457642399821
 31
0.0
  0
LINE
  5
4A786
330
1F
100
AcDbEntity
  8
AM_0
  6
中線
 48
0.5
370
    30
100
AcDbLine
 10
3363.356391853189
 20
-3040.457642399821
 30
0.0
 11
3363.606391853188
 21
-3040.457642399821
 31
0.0
  0
LINE
  5
4A787
102
{ACAD_REACTORS
330
4A7BA
330
4A7BD
102
}
330
1F
100
AcDbEntity
  8
AM_0
  6
中線
 48
0.5
370
    30
100
AcDbLine
 10
3363.356391853189
 20
-3081.457642399821
 30
0.0
 11
3363.356391853189
 21
-3068.457642399821
 31
0.0
  0
LINE
  5
4A788
102
{ACAD_REACTORS
330
4A7B7
330
4A7BD
102
}
330
1F
100
AcDbEntity
  8
AM_0
  6
中線
 48
0.5
370
    30
100
AcDbLine
 10
3363.356391853189
 20
-3039.457642399821
 30
0.0
 11
3363.356391853189
 21
-3026.457642399821
 31
0.0
  0
LINE
  5
4A789
330
1F
100
AcDbEntity
  8
AM_0
  6
中線
 48
0.5
370
    30
100
AcDbLine
 10
3363.356391853189
 20
-3067.457642399821
 30
0.0
 11
3363.356391853189
 21
-3040.457642399821
 31
0.0
  0
LINE
  5
4A78A
330
1F
100
AcDbEntity
  8
AM_0
  6
中線
 48
0.5
370
    30
100
AcDbLine
 10
3366.606391853188
 20
-3083.457642399821
 30
0.0
 11
3372.606391853189
 21
-3083.457642399821
 31
0.0
  0
LINE
  5
4A78B
330
1F
100
AcDbEntity
  8
AM_0
  6
中線
 48
0.5
370
    30
100
AcDbLine
 10
3366.606391853188
 20
-3084.157642399822
 30
0.0
 11
3372.606391853189
 21
-3084.157642399822
 31
0.0
  0
LINE
  5
4A78C
330
1F
100
AcDbEntity
  8
AM_0
  6
中線
 48
0.5
370
    30
100
AcDbLine
 10
3366.606391853188
 20
-3086.457642399821
 30
0.0
 11
3372.606391853189
 21
-3086.457642399821
 31
0.0
  0
LINE
  5
4A78D
330
1F
100
AcDbEntity
  8
AM_0
  6
中線
 48
0.5
370
    30
100
AcDbLine
 10
3372.106391853189
 20
-3083.457642399821
 30
0.0
 11
3372.106391853189
 21
-3084.157642399822
 31
0.0
  0
LINE
  5
4A78E
330
1F
100
AcDbEntity
  8
AM_0
  6
中線
 48
0.5
370
    30
100
AcDbLine
 10
3367.106391853189
 20
-3083.457642399821
 30
0.0
 11
3367.106391853189
 21
-3084.157642399822
 31
0.0
  0
LINE
  5
4A78F
330
1F
100
AcDbEntity
  8
AM_0
  6
中線
 48
0.5
370
    30
100
AcDbLine
 10
3372.606391853189
 20
-3081.457642399821
 30
0.0
 11
3372.606391853189
 21
-3083.457642399821
 31
0.0
  0
LINE
  5
4A790
330
1F
100
AcDbEntity
  8
AM_0
  6
中線
 48
0.5
370
    30
100
AcDbLine
 10
3366.606391853188
 20
-3081.457642399821
 30
0.0
 11
3366.606391853188
 21
-3083.457642399821
 31
0.0
  0
ARC
  5
4A791
330
1F
100
AcDbEntity
  8
AM_0
  6
中線
 48
0.5
370
    30
100
AcDbCircle
 10
3374.106499653188
 20
-3025.457642399821
 30
0.0
 40
1.0
100
AcDbArc
 50
270.0
 51
90.0
  0
ARC
  5
4A792
330
1F
100
AcDbEntity
  8
AM_0
  6
中線
 48
0.5
370
    30
100
AcDbCircle
 10
3365.106281787188
 20
-3025.457642399821
 30
0.0
 40
1.0
100
AcDbArc
 50
90.0
 51
270.0
  0
LINE
  5
4A793
330
1F
100
AcDbEntity
  8
AM_0
  6
中線
 48
0.5
370
    30
100
AcDbLine
 10
3365.106281787188
 20
-3024.457642399821
 30
0.0
 11
3374.106499653188
 21
-3024.457642399821
 31
0.0
  0
LINE
  5
4A794
330
1F
100
AcDbEntity
  8
AM_7
  6
中心線1
 48
0.5
370
    13
100
AcDbLine
 10
3369.606391853189
 20
-3021.457642399821
 30
0.0
 11
3369.606391853189
 21
-3089.457642399821
 31
0.0
  0
LINE
  5
4A795
102
{ACAD_REACTORS
330
4A7B4
102
}
330
1F
100
AcDbEntity
  8
AM_0
  6
中線
 48
0.5
370
    30
100
AcDbLine
 10
3276.606391853189
 20
-3084.157642399822
 30
0.0
 11
3276.606391853189
 21
-3086.457642399821
 31
0.0
  0
LINE
  5
4A796
102
{ACAD_REACTORS
330
4AAA5
102
}
330
1F
100
AcDbEntity
  8
AM_0
  6
中線
 48
0.5
370
    30
100
AcDbLine
 10
3282.606391853188
 20
-3084.157642399822
 30
0.0
 11
3282.606391853188
 21
-3086.457642399821
 31
0.0
  0
LINE
  5
4A797
330
1F
100
AcDbEntity
  8
AM_0
  6
中線
 48
0.5
370
    30
100
AcDbLine
 10
3366.606391853188
 20
-3084.157642399822
 30
0.0
 11
3366.606391853188
 21
-3086.457642399821
 31
0.0
  0
LINE
  5
4A798
330
1F
100
AcDbEntity
  8
AM_0
  6
中線
 48
0.5
370
    30
100
AcDbLine
 10
3372.606391853189
 20
-3084.157642399822
 30
0.0
 11
3372.606391853189
 21
-3086.457642399821
 31
0.0
  0
LINE
  5
4A799
330
1F
100
AcDbEntity
  8
AM_7
  6
中心線1
 48
0.5
370
    13
100
AcDbLine
 10
3300.856391853189
 20
-3036.457642399821
 30
0.0
 11
3309.856391853188
 21
-3036.457642399821
 31
0.0
  0
LINE
  5
4A79A
330
1F
100
AcDbEntity
  8
AM_7
  6
中心線1
 48
0.5
370
    13
100
AcDbLine
 10
3300.856391853189
 20
-3071.457642399821
 30
0.0
 11
3309.856391853188
 21
-3071.457642399821
 31
0.0
  0
LINE
  5
4A79B
102
{ACAD_REACTORS
330
4A7B1
330
4A7B7
102
}
330
1F
100
AcDbEntity
  8
AM_7
  6
中心線1
 48
0.5
370
    13
100
AcDbLine
 10
3367.856391853188
 20
-3036.457642399821
 30
0.0
 11
3378.856391853189
 21
-3036.457642399821
 31
0.0
  0
LINE
  5
4A79C
102
{ACAD_REACTORS
330
4A7B1
330
4A7BA
102
}
330
1F
100
AcDbEntity
  8
AM_7
  6
中心線1
 48
0.5
370
    13
100
AcDbLine
 10
3367.856391853188
 20
-3071.457642399821
 30
0.0
 11
3378.856391853189
 21
-3071.457642399821
 31
0.0
  0
LINE
  5
4A79D
330
1F
100
AcDbEntity
  8
AM_7
  6
中心線1
 48
0.5
370
    13
100
AcDbLine
 10
3373.356391853189
 20
-3076.957642399821
 30
0.0
 11
3373.356391853189
 21
-3065.957642399821
 31
0.0
  0
LINE
  5
4A79E
330
1F
100
AcDbEntity
  8
AM_7
  6
中心線1
 48
0.5
370
    13
100
AcDbLine
 10
3373.356391853189
 20
-3041.95764239982
 30
0.0
 11
3373.356391853189
 21
-3030.957642399821
 31
0.0
  0
CIRCLE
  5
4A79F
330
1F
100
AcDbEntity
  8
AM_0
  6
中線
 48
0.5
370
    30
100
AcDbCircle
 10
3373.356391853189
 20
-3071.457642399821
 30
0.0
 40
3.5
  0
CIRCLE
  5
4A7A0
102
{ACAD_REACTORS
330
4A7C3
102
}
330
1F
100
AcDbEntity
  8
AM_0
  6
中線
 48
0.5
370
    30
100
AcDbCircle
 10
3373.356391853189
 20
-3036.457642399821
 30
0.0
 40
3.5
  0
LINE
  5
4A7A1
330
1F
100
AcDbEntity
  8
AM_0
  6
中線
 48
0.5
370
    30
100
AcDbLine
 10
3399.606391853188
 20
-3081.457642399821
 30
0.0
 11
3399.606391853188
 21
-3026.457642399821
 31
0.0
  0
LINE
  5
4A7A2
330
1F
100
AcDbEntity
  8
AM_0
  6
中線
 48
0.5
370
    30
100
AcDbLine
 10
3280.138072182188
 20
-2964.889347406297
 30
0.0
 11
3280.702082977188
 21
-2963.743983558297
 31
0.0
  0
LINE
  5
4A7A3
330
1F
100
AcDbEntity
  8
AM_0
  6
中線
 48
0.5
370
    30
100
AcDbLine
 10
3282.606391853188
 20
-3083.457642399821
 30
0.0
 11
3276.606391853189
 21
-3083.457642399821
 31
0.0
  0
LINE
  5
4A7A4
330
1F
100
AcDbEntity
  8
AM_0
  6
中線
 48
0.5
370
    30
100
AcDbLine
 10
3276.606391853189
 20
-3084.157642399822
 30
0.0
 11
3282.606391853188
 21
-3084.157642399822
 31
0.0
  0
LINE
  5
4A7A5
330
1F
100
AcDbEntity
  8
AM_0
  6
中線
 48
0.5
370
    30
100
AcDbLine
 10
3277.106391853188
 20
-3083.457642399821
 30
0.0
 11
3277.106391853188
 21
-3084.157642399822
 31
0.0
  0
LINE
  5
4A7A6
330
1F
100
AcDbEntity
  8
AM_0
  6
中線
 48
0.5
370
    30
100
AcDbLine
 10
3282.106391853189
 20
-3083.457642399821
 30
0.0
 11
3282.106391853189
 21
-3084.157642399822
 31
0.0
  0
LINE
  5
4A7A7
330
1F
100
AcDbEntity
  8
AM_0
  6
中線
 48
0.5
370
    30
100
AcDbLine
 10
3375.856391853189
 20
-3069.008152656821
 30
0.0
 11
3375.856391853189
 21
-3073.90713214282
 31
0.0
  0
LINE
  5
4A7A8
330
1F
100
AcDbEntity
  8
AM_0
  6
中線
 48
0.5
370
    30
100
AcDbLine
 10
3371.553616215189
 20
-3068.457642399821
 30
0.0
 11
3375.159167491188
 21
-3068.457642399821
 31
0.0
  0
LINE
  5
4A7A9
330
1F
100
AcDbEntity
  8
AM_0
  6
中線
 48
0.5
370
    30
100
AcDbLine
 10
3276.356391853188
 20
-2965.778152499297
 30
0.0
 11
3276.746391853188
 21
-2966.418777194297
 31
0.0
  0
LINE
  5
4A7AA
330
1F
100
AcDbEntity
  8
AM_0
  6
中線
 48
0.5
370
    30
100
AcDbLine
 10
3375.856391853189
 20
-3034.008152656821
 30
0.0
 11
3375.856391853189
 21
-3038.90713214282
 31
0.0
  0
LINE
  5
4A7AB
330
1F
100
AcDbEntity
  8
AM_0
  6
中線
 48
0.5
370
    30
100
AcDbLine
 10
3371.606391853188
 20
-3039.457642399821
 30
0.0
 11
3375.159167491188
 21
-3039.457642399821
 31
0.0
  0
DIMENSION
  5
4A7AC
102
{ACAD_XDICTIONARY
360
4A7AD
102
}
102
{ACAD_REACTORS
330
4A7AE
102
}
330
1F
100
AcDbEntity
  8
AM_5
100
AcDbDimension
  2
*D8
 10
3265.356391853188
 20
-2971.116691625297
 30
0.0
 11
3265.356391853188
 21
-2956.116691625297
 31
0.0
 70
   160
 71
     5
 42
30.00000000000182
  3
AM_ISO$0
100
AcDbAlignedDimension
 13
3273.356391853189
 23
-2941.116691625295
 33
0.0
 14
3271.356391853188
 24
-2971.116691625297
 34
0.0
 50
90.0
100
AcDbRotatedDimension
1001
ACAD
1000
DSTYLE
1002
{
1070
    41
1040
1.0
1002
}
  0
DIMENSION
  5
4A7AF
102
{ACAD_XDICTIONARY
360
4A7B0
102
}
102
{ACAD_REACTORS
330
4A7B1
102
}
330
1F
100
AcDbEntity
  8
AM_5
100
AcDbDimension
  2
*D9
 10
3355.356391853188
 20
-3071.457642399821
 30
0.0
 11
3355.356391853188
 21
-3053.957642399843
 31
0.0
 70
   160
 71
     5
 42
35.0
  3
AM_ISO$0
100
AcDbAlignedDimension
 13
3367.856391853188
 23
-3036.457642399821
 33
0.0
 14
3367.856391853188
 24
-3071.457642399821
 34
0.0
 50
90.0
100
AcDbRotatedDimension
1001
ACAD
1000
DSTYLE
1002
{
1070
    41
1040
1.0
1002
}
  0
DIMENSION
  5
4A7B2
102
{ACAD_XDICTIONARY
360
4A7B3
102
}
102
{ACAD_REACTORS
330
4A7B4
102
}
330
1F
100
AcDbEntity
  8
AM_5
100
AcDbDimension
  2
*D10
 10
3265.356391853187
 20
-3086.457642399821
 30
0.0
 11
3265.356391853188
 21
-3055.457642399821
 31
0.0
 70
   160
 71
     5
 42
60.0
  3
AM_ISO$0
100
AcDbAlignedDimension
 13
3273.356391853189
 23
-3026.457642399821
 33
0.0
 14
3276.606391853189
 24
-3086.457642399821
 34
0.0
 50
90.0
100
AcDbRotatedDimension
1001
ACAD
1000
DSTYLE
1002
{
1070
    41
1040
1.0
1002
}
  0
DIMENSION
  5
4A7B5
102
{ACAD_XDICTIONARY
360
4A7B6
102
}
102
{ACAD_REACTORS
330
4A7B7
102
}
330
1F
100
AcDbEntity
  8
AM_5
100
AcDbDimension
  2
*D11
 10
3355.356391853188
 20
-3026.457642399821
 30
0.0
 11
3355.356391853188
 21
-3031.45764239982
 31
0.0
 70
   160
 71
     5
 42
10.0
  3
AM_ISO$0
100
AcDbAlignedDimension
 13
3367.856391853188
 23
-3036.457642399821
 33
0.0
 14
3363.356391853189
 24
-3026.457642399821
 34
0.0
 50
90.0
100
AcDbRotatedDimension
1001
ACAD
1000
DSTYLE
1002
{
1070
    41
1040
1.0
1002
}
  0
DIMENSION
  5
4A7B8
102
{ACAD_XDICTIONARY
360
4A7B9
102
}
102
{ACAD_REACTORS
330
4A7BA
102
}
330
1F
100
AcDbEntity
  8
AM_5
100
AcDbDimension
  2
*D12
 10
3355.356391853187
 20
-3081.457642399821
 30
0.0
 11
3355.356391853188
 21
-3076.457642399821
 31
0.0
 70
   160
 71
     5
 42
10.0
  3
AM_ISO$0
100
AcDbAlignedDimension
 13
3367.856391853188
 23
-3071.457642399821
 33
0.0
 14
3363.356391853189
 24
-3081.457642399821
 34
0.0
 50
90.0
100
AcDbRotatedDimension
1001
ACAD
1000
DSTYLE
1002
{
1070
    41
1040
1.0
1002
}
  0
DIMENSION
  5
4A7BB
102
{ACAD_XDICTIONARY
360
4A7BC
102
}
102
{ACAD_REACTORS
330
4A7BD
102
}
330
1F
100
AcDbEntity
  8
AM_5
100
AcDbDimension
  2
*D13
 10
3347.356391853188
 20
-3081.457642399821
 30
0.0
 11
3347.356391853188
 21
-3053.957642399821
 31
0.0
 70
   160
 71
     5
 42
55.0
  3
AM_ISO$0
100
AcDbAlignedDimension
 13
3363.356391853189
 23
-3026.457642399821
 33
0.0
 14
3363.356391853189
 24
-3081.457642399821
 34
0.0
 50
90.0
100
AcDbRotatedDimension
1001
ACAD
1000
DSTYLE
1002
{
1070
    41
1040
1.0
1002
}
  0
DIMENSION
  5
4A7BE
102
{ACAD_XDICTIONARY
360
4A7BF
102
}
102
{ACAD_REACTORS
330
4A7C0
102
}
330
1F
100
AcDbEntity
  8
AM_5
100
AcDbDimension
  2
*D14
 10
3283.316909684038
 20
-2966.087322139271
 30
0.0
 11
3268.026320211057
 21
-2981.36569222002
 31
0.0
 70
   163
  1
（%%cA）
 71
     5
 42
12.50000000000159
  3
AM_ISO$3
100
AcDbDiametricDimension
 15
3275.895874022342
 25
-2976.146061111324
 35
0.0
 40
0.0
1001
ACAD
1000
DSTYLE
1002
{
1070
    41
1040
1.0
1070
   172
1070
     1
1002
}
  0
DIMENSION
  5
4A7C1
102
{ACAD_XDICTIONARY
360
4A7C2
102
}
102
{ACAD_REACTORS
330
4A7C3
102
}
330
1F
100
AcDbEntity
  8
AM_5
100
AcDbDimension
  2
*D15
 10
3371.339884971631
 20
-3039.318359092659
 30
0.0
 11
3388.318801616838
 21
-3022.627118963957
 31
0.0
 70
   163
  1
2-<>
 71
     5
 42
7.000000000007503
  3
AM_ISO$3
100
AcDbDiametricDimension
 15
3375.372898734742
 25
-3033.596925706989
 35
0.0
 40
0.0
1001
ACAD
1000
DSTYLE
1002
{
1070
    41
1040
1.0
1070
   172
1070
     1
1002
}
  0
LINE
  5
4A7C4
330
1F
100
AcDbEntity
  8
AM_4
100
AcDbLine
 10
3125.086323213272
 20
-2893.332267167611
 30
0.0
 11
3235.086323213272
 21
-2893.332267167611
 31
0.0
  0
MTEXT
  5
4A7C5
330
1F
100
AcDbEntity
  8
AM_6
100
AcDbMText
 10
3145.086323213272
 20
-2889.332267167611
 30
0.0
 40
3.2
 41
90.0
 71
     4
 72
     5
  1
　　表参照
 73
     1
 44
1.0
1001
ACAD
1000
MTEXTBEGIN
1070
    73
1070
     1
1070
    44
1040
1.0
1070
    74
1070
     0
1000
MTEXTEND
  0
DIMENSION
  5
4A7F4
330
1F
100
AcDbEntity
  8
AM_5
100
AcDbDimension
  2
*D5
 10
3330.856391853187
 20
-2944.116691625295
 30
0.0
 11
3330.856391853188
 21
-2960.616691625295
 31
0.0
 70
   160
 71
     5
 42
33.0
  3
AM_ISO$0
100
AcDbAlignedDimension
 13
3306.356391853189
 23
-2977.116691625295
 33
0.0
 14
3303.856391853189
 24
-2944.116691625295
 34
0.0
 50
90.0
100
AcDbRotatedDimension
1001
ACAD
1000
DSTYLE
1002
{
1070
    41
1040
1.0
1002
}
  0
DIMENSION
  5
4A7F5
330
1F
100
AcDbEntity
  8
AM_5
100
AcDbDimension
  2
*D6
 10
3322.856391853188
 20
-2944.116691625297
 30
0.0
 11
3322.856391853188
 21
-2957.420302452654
 31
0.0
 70
   160
 71
     5
 42
26.99999999999818
  3
AM_ISO$0
100
AcDbAlignedDimension
 13
3287.856391853188
 23
-2971.116691625295
 33
0.0
 14
3300.856391853189
 24
-2944.116691625297
 34
0.0
 50
90.0
100
AcDbRotatedDimension
1001
ACAD
1000
DSTYLE
1002
{
1070
    41
1040
1.0
1002
}
  0
DIMENSION
  5
4A7F6
102
{ACAD_XDICTIONARY
360
4A7F7
102
}
102
{ACAD_REACTORS
330
4A7F8
102
}
330
1F
100
AcDbEntity
  8
AM_5
100
AcDbDimension
  2
*D16
 10
3303.856391853189
 20
-2985.116691625297
 30
0.0
 11
3310.656391853188
 21
-2985.116691625297
 31
0.0
 70
   160
  1
B
 71
     5
 42
3.0
  3
AM_ISO$0
100
AcDbAlignedDimension
 13
3306.856391853188
 23
-2977.116691625297
 33
0.0
 14
3303.856391853189
 24
-2977.116691625297
 34
0.0
100
AcDbRotatedDimension
1001
ACAD
1000
DSTYLE
1002
{
1070
    41
1040
1.0
1002
}
  0
LINE
  5
4A801
330
1F
100
AcDbEntity
  8
AM_4
100
AcDbLine
 10
3125.086323213273
 20
-2917.332267167603
 30
0.0
 11
3235.086323213272
 21
-2917.332267167603
 31
0.0
  0
LINE
  5
4A802
330
1F
100
AcDbEntity
  8
AM_4
100
AcDbLine
 10
3125.086323213273
 20
-2909.332267167604
 30
0.0
 11
3235.086323213272
 21
-2909.332267167604
 31
0.0
  0
LINE
  5
4A803
330
1F
100
AcDbEntity
  8
AM_4
100
AcDbLine
 10
3125.086323213273
 20
-2925.332267167604
 30
0.0
 11
3235.086323213272
 21
-2925.332267167604
 31
0.0
  0
MTEXT
  5
4A804
330
1F
100
AcDbEntity
  8
AM_6
100
AcDbMText
 10
3145.086323213272
 20
-2913.332267167605
 30
0.0
 40
3.2
 41
90.0
 71
     4
 72
     5
  1
　　左右勝手無し
 73
     1
 44
1.0
1001
ACAD
1000
MTEXTBEGIN
1070
    73
1070
     1
1070
    44
1040
1.0
1070
    74
1070
     0
1000
MTEXTEND
  0
MTEXT
  5
4A805
330
1F
100
AcDbEntity
  8
AM_6
100
AcDbMText
 10
3145.086323213272
 20
-2921.332267167605
 30
0.0
 40
3.2
 41
90.0
 71
     4
 72
     5
  1
　　無し
 73
     1
 44
1.0
1001
ACAD
1000
MTEXTBEGIN
1070
    73
1070
     1
1070
    44
1040
1.0
1070
    74
1070
     0
1000
MTEXTEND
  0
TEXT
  5
4A806
330
1F
100
AcDbEntity
  8
AM_6
100
AcDbText
 10
3127.543323213272
 20
-2922.932267167606
 30
0.0
 40
3.2
  1
セットビス
 41
0.84892707
100
AcDbText
  0
TEXT
  5
4A807
330
1F
100
AcDbEntity
  8
AM_6
100
AcDbText
 10
3129.143323213272
 20
-2914.932267167606
 30
0.0
 40
3.2
  1
左右勝手
 41
0.8512700499999999
100
AcDbText
  0
DIMENSION
  5
4A809
102
{ACAD_XDICTIONARY
360
4A80A
102
}
102
{ACAD_REACTORS
330
4A80B
102
}
330
1F
100
AcDbEntity
  8
AM_5
100
AcDbDimension
  2
*D17
 10
3306.856391853188
 20
-2925.116691625297
 30
0.0
 11
3290.106391853188
 21
-2925.116691625297
 31
0.0
 70
   160
  1
（C）\P
 71
     5
 42
33.5
  3
AM_ISO$0
100
AcDbAlignedDimension
 13
3273.356391853189
 23
-2941.116691625297
 33
0.0
 14
3306.856391853188
 24
-2947.116691625297
 34
0.0
100
AcDbRotatedDimension
  0
DIMENSION
  5
4A810
330
1F
100
AcDbEntity
  8
AM_5
100
AcDbDimension
  2
*D7
 10
3306.856391853188
 20
-2933.116691625297
 30
0.0
 11
3292.356391853188
 21
-2930.516691625297
 31
0.0
 70
    32
 71
     5
 42
29.0
  3
AM_ISO$0
100
AcDbAlignedDimension
 13
3277.856391853188
 23
-2947.116691625297
 33
0.0
 14
3306.856391853188
 24
-2947.116691625297
 34
0.0
100
AcDbRotatedDimension
  0
DIMENSION
  5
4A811
102
{ACAD_XDICTIONARY
360
4A812
102
}
102
{ACAD_REACTORS
330
4A813
102
}
330
1F
100
AcDbEntity
  8
AM_5
100
AcDbDimension
  2
*D18
 10
3314.856391853188
 20
-2944.116691625295
 30
0.0
 11
3314.856391853189
 21
-2955.616691625295
 31
0.0
 70
   160
 71
     5
 42
23.00000000000182
  3
AM_ISO$0
100
AcDbAlignedDimension
 13
3309.856391853188
 23
-2967.116691625297
 33
0.0
 14
3303.856391853189
 24
-2944.116691625295
 34
0.0
 50
90.0
100
AcDbRotatedDimension
  0
LINE
  5
4A8B7
330
1F
100
AcDbEntity
  8
AM_0
100
AcDbLine
 10
3125.086323213273
 20
-2933.332267167604
 30
0.0
 11
3235.086323213272
 21
-2933.332267167604
 31
0.0
  0
MTEXT
  5
4A8B8
330
1F
100
AcDbEntity
  8
AM_6
100
AcDbMText
 10
3145.086323213272
 20
-2929.332267167604
 30
0.0
 40
3.2
 41
90.0
 71
     4
 72
     5
  1
　　E型止め輪は別途とする
 73
     1
 44
1.0
1001
ACAD
1000
MTEXTBEGIN
1070
    73
1070
     1
1070
    44
1040
1.0
1070
    74
1070
     0
1000
MTEXTEND
  0
TEXT
  5
4A8B9
330
1F
100
AcDbEntity
  8
AM_6
100
AcDbText
 10
3127.543323213272
 20
-2930.932267167604
 30
0.0
 40
3.2
  1
　備　考
 41
0.84892707
100
AcDbText
  0
INSERT
  5
4AA69
330
1F
100
AcDbEntity
  8
AM_5
100
AcDbBlockReference
  2
*S20
 10
0.0
 20
0.0
 30
0.0
  0
DIMENSION
  5
4AA95
102
{ACAD_XDICTIONARY
360
4AAA4
102
}
102
{ACAD_REACTORS
330
4AAA5
102
}
330
1F
100
AcDbEntity
  8
AM_5
100
AcDbDimension
  2
*D19
 10
3282.606391853189
 20
-3094.457642399821
 30
0.0
 11
3279.606391853189
 21
-3094.457642399821
 31
0.0
 70
   160
  1
%%c<>
 71
     5
 42
6.000000000000454
  3
SYS$0
100
AcDbAlignedDimension
 13
3276.606391853189
 23
-3086.457642399821
 33
0.0
 14
3282.606391853189
 24
-3086.457642399821
 34
0.0
 50
0.0000000000001132
100
AcDbRotatedDimension
1001
ACAD
1000
DSTYLE
1002
{
1070
   271
1070
     1
1002
}
  0
MTEXT
  5
4AB26
330
1F
100
AcDbEntity
  8
AM_6
100
AcDbMText
 10
3145.086323213272
 20
-2905.332267167605
 30
0.0
 40
3.2
 41
90.0
 71
     4
 72
     5
  1
　　スチール：　有色クロメート
 73
     1
 44
1.0
1001
ACAD
1000
MTEXTBEGIN
1070
    73
1070
     1
1070
    44
1040
1.0
1070
    74
1070
     0
1000
MTEXTEND
  0
LINE
  5
4ADA7
330
1F
100
AcDbEntity
  8
AM_0
100
AcDbLine
 10
3214.336323213272
 20
-3122.557267167607
 30
0.0
 11
3125.086323213272
 21
-3122.557267167608
 31
0.0
  0
LINE
  5
4ADA8
330
1F
100
AcDbEntity
  8
AM_0
100
AcDbLine
 10
3214.336323213272
 20
-3131.482267167606
 30
0.0
 11
3125.086323213272
 21
-3131.482267167605
 31
0.0
  0
LINE
  5
4ADA9
330
1F
100
AcDbEntity
  8
AM_4
100
AcDbLine
 10
3214.336323213272
 20
-3140.40726716761
 30
0.0
 11
3125.086323213272
 21
-3140.407267167606
 31
0.0
  0
LINE
  5
4ADAA
330
1F
100
AcDbEntity
  8
AM_0
100
AcDbLine
 10
3214.336323213272
 20
-3149.332267167609
 30
0.0
 11
3125.086323213272
 21
-3149.332267167607
 31
0.0
  0
LINE
  5
4ADAB
330
1F
100
AcDbEntity
  8
AM_0
100
AcDbLine
 10
3125.086323213272
 20
-3122.557267167608
 30
0.0
 11
3125.086323213272
 21
-3149.332267167607
 31
0.0
  0
MTEXT
  5
4ADAC
330
1F
100
AcDbEntity
  8
AM_6
100
AcDbMText
 10
3139.748823213272
 20
-3127.019767167607
 30
0.0
 40
3.2
 41
29.32499999999977
 71
     5
 72
     5
  1
品番
 73
     1
 44
1.0
1001
ACAD
1000
MTEXTBEGIN
1070
    73
1070
     1
1070
    44
1040
1.0
1070
    74
1070
     0
1000
MTEXTEND
  0
MTEXT
  5
4ADAD
330
1F
100
AcDbEntity
  8
AM_6
100
AcDbMText
 10
3188.836323213271
 20
-3127.019767167608
 30
0.0
 40
3.2
 41
10.20000000000014
 71
     5
 72
     5
  1
（A）
 73
     1
 44
1.0
1001
ACAD
1000
MTEXTBEGIN
1070
    73
1070
     1
1070
    44
1040
1.0
1070
    74
1070
     0
1000
MTEXTEND
  0
MTEXT
  5
4ADAE
330
1F
100
AcDbEntity
  8
AM_6
100
AcDbMText
 10
3139.748823213272
 20
-3135.944767167606
 30
0.0
 40
3.2
 41
29.32499999999999
 71
     5
 72
     5
  1
DEH-25
 73
     1
 44
1.0
1001
ACAD
1000
MTEXTBEGIN
1070
    73
1070
     1
1070
    44
1040
1.0
1070
    74
1070
     0
1000
MTEXTEND
1000
ACAD_MTEXT_DEFINED_HEIGHT_BEGIN
1070
    46
1040
7.000000000000069
1000
ACAD_MTEXT_DEFINED_HEIGHT_END
  0
LINE
  5
4ADAF
330
1F
100
AcDbEntity
  8
AM_4
100
AcDbLine
 10
3193.936323213272
 20
-3122.557267167609
 30
0.0
 11
3193.936323213272
 21
-3149.332267167612
 31
0.0
  0
LINE
  5
4ADB0
330
1F
100
AcDbEntity
  8
AM_0
100
AcDbLine
 10
3214.336323213272
 20
-3122.557267167609
 30
0.0
 11
3214.336323213272
 21
-3149.33226716761
 31
0.0
  0
LINE
  5
4ADB1
330
1F
100
AcDbEntity
  8
AM_5
100
AcDbLine
 10
3204.136323213271
 20
-3122.557267167609
 30
0.0
 11
3204.136323213271
 21
-3149.33226716761
 31
0.0
  0
MTEXT
  5
4ADB2
330
1F
100
AcDbEntity
  8
AM_6
100
AcDbMText
 10
3199.036323213272
 20
-3127.019767167608
 30
0.0
 40
3.2
 41
10.20000000000014
 71
     5
 72
     5
  1
B
 73
     1
 44
1.0
1001
ACAD
1000
MTEXTBEGIN
1070
    73
1070
     1
1070
    44
1040
1.0
1070
    74
1070
     0
1000
MTEXTEND
  0
MTEXT
  5
4ADB3
330
1F
100
AcDbEntity
  8
AM_6
100
AcDbMText
 10
3188.836323213271
 20
-3144.869767167607
 30
0.0
 40
3.2
 41
10.20000000000014
 71
     5
 72
     5
  1
12.5
 73
     1
 44
1.0
1001
ACAD
1000
MTEXTBEGIN
1070
    73
1070
     1
1070
    44
1040
1.0
1070
    74
1070
     0
1000
MTEXTEND
1000
ACAD_MTEXT_DEFINED_HEIGHT_BEGIN
1070
    46
1040
6.999999999999273
1000
ACAD_MTEXT_DEFINED_HEIGHT_END
  0
MTEXT
  5
4ADB4
330
1F
100
AcDbEntity
  8
AM_6
100
AcDbMText
 10
3188.836323213271
 20
-3135.944767167608
 30
0.0
 40
3.2
 41
10.2
 71
     5
 72
     5
  1
12.9
 73
     1
 44
1.0
1001
ACAD
1000
MTEXTBEGIN
1070
    73
1070
     1
1070
    44
1040
1.0
1070
    74
1070
     0
1000
MTEXTEND
1000
ACAD_MTEXT_DEFINED_HEIGHT_BEGIN
1070
    46
1040
7.000000000001092
1000
ACAD_MTEXT_DEFINED_HEIGHT_END
  0
MTEXT
  5
4ADB5
330
1F
100
AcDbEntity
  8
AM_6
100
AcDbMText
 10
3199.036323213272
 20
-3144.869767167607
 30
0.0
 40
3.2
 41
10.20000000000014
 71
     5
 72
     5
  1
3
 73
     1
 44
1.0
1001
ACAD
1000
MTEXTBEGIN
1070
    73
1070
     1
1070
    44
1040
1.0
1070
    74
1070
     0
1000
MTEXTEND
1000
ACAD_MTEXT_DEFINED_HEIGHT_BEGIN
1070
    46
1040
7.000000000001092
1000
ACAD_MTEXT_DEFINED_HEIGHT_END
  0
MTEXT
  5
4ADB6
330
1F
100
AcDbEntity
  8
AM_6
100
AcDbMText
 10
3199.036323213272
 20
-3135.944767167606
 30
0.0
 40
3.2
 41
10.20000000000022
 71
     5
 72
     5
  1
3.2
 73
     1
 44
1.0
1001
ACAD
1000
MTEXTBEGIN
1070
    73
1070
     1
1070
    44
1040
1.0
1070
    74
1070
     0
1000
MTEXTEND
1000
ACAD_MTEXT_DEFINED_HEIGHT_BEGIN
1070
    46
1040
7.000000000001547
1000
ACAD_MTEXT_DEFINED_HEIGHT_END
  0
MTEXT
  5
4ADB7
330
1F
100
AcDbEntity
  8
AM_6
100
AcDbMText
 10
3209.236323213271
 20
-3127.019767167608
 30
0.0
 40
3.2
 41
10.20000000000014
 71
     5
 72
     5
  1
（C）
 73
     1
 44
1.0
1001
ACAD
1000
MTEXTBEGIN
1070
    73
1070
     1
1070
    44
1040
1.0
1070
    74
1070
     0
1000
MTEXTEND
  0
MTEXT
  5
4ADB8
330
1F
100
AcDbEntity
  8
AM_6
100
AcDbMText
 10
3139.748823213272
 20
-3144.869767167608
 30
0.0
 40
3.2
 41
29.32499999999999
 71
     5
 72
     5
  1
DEH-25S
 73
     1
 44
1.0
1001
ACAD
1000
MTEXTBEGIN
1070
    73
1070
     1
1070
    44
1040
1.0
1070
    74
1070
     0
1000
MTEXTEND
1000
ACAD_MTEXT_DEFINED_HEIGHT_BEGIN
1070
    46
1040
7.000000000000069
1000
ACAD_MTEXT_DEFINED_HEIGHT_END
  0
LINE
  5
4ADB9
330
1F
100
AcDbEntity
  8
AM_0
100
AcDbLine
 10
3154.411323213271
 20
-3122.5572671676
 30
0.0
 11
3154.411323213271
 21
-3149.332267167603
 31
0.0
  0
LINE
  5
4ADBA
330
1F
100
AcDbEntity
  8
AM_4
100
AcDbLine
 10
3183.736323213271
 20
-3122.557267167609
 30
0.0
 11
3183.736323213271
 21
-3149.332267167612
 31
0.0
  0
MTEXT
  5
4ADBB
330
1F
100
AcDbEntity
  8
AM_6
100
AcDbMText
 10
3169.073823213272
 20
-3127.019767167607
 30
0.0
 40
3.2
 41
29.32499999999977
 71
     5
 72
     5
  1
材質
 73
     1
 44
1.0
1001
ACAD
1000
MTEXTBEGIN
1070
    73
1070
     1
1070
    44
1040
1.0
1070
    74
1070
     0
1000
MTEXTEND
  0
MTEXT
  5
4ADBC
330
1F
100
AcDbEntity
  8
AM_6
100
AcDbMText
 10
3169.073823213271
 20
-3135.944767167606
 30
0.0
 40
3.2
 41
29.32499999999999
 71
     5
 72
     5
  1
スチール
 73
     1
 44
1.0
1001
ACAD
1000
MTEXTBEGIN
1070
    73
1070
     1
1070
    44
1040
1.0
1070
    74
1070
     0
1000
MTEXTEND
1000
ACAD_MTEXT_DEFINED_HEIGHT_BEGIN
1070
    46
1040
7.000000000000069
1000
ACAD_MTEXT_DEFINED_HEIGHT_END
  0
MTEXT
  5
4ADBD
330
1F
100
AcDbEntity
  8
AM_6
100
AcDbMText
 10
3169.073823213271
 20
-3144.869767167608
 30
0.0
 40
3.2
 41
29.32499999999999
 71
     5
 72
     5
  1
ステンレス
 73
     1
 44
1.0
1001
ACAD
1000
MTEXTBEGIN
1070
    73
1070
     1
1070
    44
1040
1.0
1070
    74
1070
     0
1000
MTEXTEND
1000
ACAD_MTEXT_DEFINED_HEIGHT_BEGIN
1070
    46
1040
7.000000000000069
1000
ACAD_MTEXT_DEFINED_HEIGHT_END
  0
MTEXT
  5
4ADBE
330
1F
100
AcDbEntity
  8
AM_6
100
AcDbMText
 10
3209.236323213272
 20
-3144.869767167607
 30
0.0
 40
3.2
 41
10.19999999999985
 71
     5
 72
     5
  1
33.5
 73
     1
 44
1.0
1001
ACAD
1000
MTEXTBEGIN
1070
    73
1070
     1
1070
    44
1040
1.0
1070
    74
1070
     0
1000
MTEXTEND
1000
ACAD_MTEXT_DEFINED_HEIGHT_BEGIN
1070
    46
1040
7.000000000001092
1000
ACAD_MTEXT_DEFINED_HEIGHT_END
  0
MTEXT
  5
4ADBF
330
1F
100
AcDbEntity
  8
AM_6
100
AcDbMText
 10
3209.236323213272
 20
-3135.94476716761
 30
0.0
 40
3.2
 41
10.19999999999978
 71
     5
 72
     5
  1
33.7
 73
     1
 44
1.0
1001
ACAD
1000
MTEXTBEGIN
1070
    73
1070
     1
1070
    44
1040
1.0
1070
    74
1070
     0
1000
MTEXTEND
1000
ACAD_MTEXT_DEFINED_HEIGHT_BEGIN
1070
    46
1040
7.000000000001547
1000
ACAD_MTEXT_DEFINED_HEIGHT_END
  0
ENDSEC
  0
SECTION
  2
OBJECTS
  0
DICTIONARY
  5
C
330
0
100
AcDbDictionary
281
     1
  3
ACAD_COLOR
350
C45B
  3
ACAD_GROUP
350
D
  3
ACAD_LAYOUT
350
1A
  3
ACAD_MATERIAL
350
C446
  3
ACAD_MLINESTYLE
350
17
  3
ACAD_PLOTSETTINGS
350
19
  3
ACAD_PLOTSTYLENAME
350
E
  3
ACAD_TABLESTYLE
350
C45C
  3
ACAD_VISUALSTYLE
350
C44A
  3
AcadDim
350
37D85
  3
AcAsAppObject
350
3DA1
  3
ACASGREF_MASTER
350
3DE9
  3
AcDbVariableDictionary
350
34
  3
AcmDictionary
350
47
  3
AD_GREF_MODULE
350
3DEA
  3
AD_MAPI_MODULE
350
3E06
  3
AMG
350
2B
  3
AMGSNAPSETTINGS
350
7D
  3
ASE_INDEX_DICTIONARY
350
B42E
  3
DWGPROPS
350
4AE19
  3
MAPISURF_MODULE
350
3DEB
  0
DICTIONARY
  5
3F95
330
2
100
AcDbDictionary
280
     1
281
     1
  3
ACAD_LAYERFILTERS
360
494F1
  3
ACAD_LAYERSTATES
360
3F96
  3
ACLYDICTIONARY
360
494F0
  3
AMLAYER_GROUPCOLORS
360
CB2F
  0
DICTIONARY
  5
8A
330
1F
100
AcDbDictionary
280
     1
281
     1
  3
ACAD_SORTENTS
360
D722
  0
DICTIONARY
  5
4A7AD
330
4A7AC
100
AcDbDictionary
280
     1
281
     1
  3
ACAD_DIMASSOC
360
4A7AE
  0
DICTIONARY
  5
4A7B0
330
4A7AF
100
AcDbDictionary
280
     1
281
     1
  3
ACAD_DIMASSOC
360
4A7B1
  0
DICTIONARY
  5
4A7B3
330
4A7B2
100
AcDbDictionary
280
     1
281
     1
  3
ACAD_DIMASSOC
360
4A7B4
  0
DICTIONARY
  5
4A7B6
330
4A7B5
100
AcDbDictionary
280
     1
281
     1
  3
ACAD_DIMASSOC
360
4A7B7
  0
DICTIONARY
  5
4A7B9
330
4A7B8
100
AcDbDictionary
280
     1
281
     1
  3
ACAD_DIMASSOC
360
4A7BA
  0
DICTIONARY
  5
4A7BC
330
4A7BB
100
AcDbDictionary
280
     1
281
     1
  3
ACAD_DIMASSOC
360
4A7BD
  0
DICTIONARY
  5
4A7BF
330
4A7BE
100
AcDbDictionary
280
     1
281
     1
  3
ACAD_DIMASSOC
360
4A7C0
  0
DICTIONARY
  5
4A7C2
330
4A7C1
100
AcDbDictionary
280
     1
281
     1
  3
ACAD_DIMASSOC
360
4A7C3
  0
DICTIONARY
  5
4A7F7
330
4A7F6
100
AcDbDictionary
280
     1
281
     1
  3
ACAD_DIMASSOC
360
4A7F8
  0
DICTIONARY
  5
4A80A
330
4A809
100
AcDbDictionary
280
     1
281
     1
  3
ACAD_DIMASSOC
360
4A80B
  0
DICTIONARY
  5
4A812
330
4A811
100
AcDbDictionary
280
     1
281
     1
  3
ACAD_DIMASSOC
360
4A813
  0
DICTIONARY
  5
4AAA4
330
4AA95
100
AcDbDictionary
280
     1
281
     1
  3
ACAD_DIMASSOC
360
4AAA5
  0
DICTIONARY
  5
C45B
102
{ACAD_REACTORS
330
C
102
}
330
C
100
AcDbDictionary
281
     1
  0
DICTIONARY
  5
D
102
{ACAD_REACTORS
330
C
102
}
330
C
100
AcDbDictionary
281
     1
  0
DICTIONARY
  5
1A
102
{ACAD_REACTORS
330
C
102
}
330
C
100
AcDbDictionary
281
     1
  3
Model
350
22
  3
ﾚｲｱｳﾄ1
350
1E
  3
ﾚｲｱｳﾄ2
350
26
  0
DICTIONARY
  5
C446
102
{ACAD_REACTORS
330
C
102
}
330
C
100
AcDbDictionary
281
     1
  3
ByBlock
350
C448
  3
ByLayer
350
C447
  3
Global
350
C449
  0
DICTIONARY
  5
17
102
{ACAD_REACTORS
330
C
102
}
330
C
100
AcDbDictionary
281
     1
  3
Standard
350
18
  0
DICTIONARY
  5
19
102
{ACAD_REACTORS
330
C
102
}
330
C
100
AcDbDictionary
281
     1
  3
-00
350
C85D
  0
ACDBDICTIONARYWDFLT
  5
E
102
{ACAD_REACTORS
330
C
102
}
330
C
100
AcDbDictionary
281
     1
  3
Normal
350
F
100
AcDbDictionaryWithDefault
340
F
  0
DICTIONARY
  5
C45C
102
{ACAD_REACTORS
330
C
102
}
330
C
100
AcDbDictionary
281
     1
  3
Standard
350
C45D
  0
DICTIONARY
  5
C44A
102
{ACAD_REACTORS
330
C
102
}
330
C
100
AcDbDictionary
281
     1
  3
2dWireframe
350
C450
  3
3D Hidden
350
C452
  3
3dWireframe
350
C451
  3
Basic
350
C44F
  3
Brighten
350
C456
  3
ColorChange
350
C45A
  3
Conceptual
350
C453
  3
Dim
350
C455
  3
Facepattern
350
C459
  3
Flat
350
C44B
  3
FlatWithEdges
350
C44C
  3
Gouraud
350
C44D
  3
GouraudWithEdges
350
C44E
  3
Linepattern
350
C458
  3
Realistic
350
C454
  3
Thicken
350
C457
  0
XRECORD
  5
37D85
102
{ACAD_REACTORS
330
C
102
}
330
C
100
AcDbXrecord
280
     1
 90
   990106
  3

 60
     0
 61
     0
 62
     1
 63
     3
 64
     0
 65
     0
 66
     0
 67
     3
 68
     1
 69
     0
 70
     0
 71
     0
 72
     0
 40
0.0
170
     0
  0
ACAD_PROXY_OBJECT
  5
3DA1
102
{ACAD_REACTORS
330
C
102
}
330
C
100
AcDbProxyObject
 90
      499
 91
      576
 95
   720919
 70
     0
 93
       10
310
407F
 94
        0
1001
ACAD
1000
AcRTDxfName
1000
ASAPP
  0
ACAD_PROXY_OBJECT
  5
3DE9
102
{ACAD_REACTORS
330
C
102
}
330
C
100
AcDbProxyObject
 90
      499
 91
      581
 95
   720919
 70
     0
 93
       34
310
010000407F
 94
        0
1001
ACAD
1000
AcRTDxfName
1000
ACASGREFMASTER
  0
DICTIONARY
  5
34
102
{ACAD_REACTORS
330
C
102
}
330
C
100
AcDbDictionary
281
     1
  3
CTABLESTYLE
350
C4A2
  3
DIMASSOC
350
AC85
  3
INDEXCTL
350
35
  3
SORTENTS
350
194C
  0
DICTIONARY
  5
47
102
{ACAD_REACTORS
330
C
102
}
330
C
100
AcDbDictionary
281
     1
  3
AcmBOM
350
7E8
  3
AcmStdDictionary
350
4C
  3
AMDTSECTSYM_ARROWCOLOR
350
C487
  0
ACAD_PROXY_OBJECT
  5
3DEA
102
{ACAD_REACTORS
330
C
102
}
330
C
100
AcDbProxyObject
 90
      499
 91
      582
 95
   720919
 70
     0
 93
      114
310
00000043800000000000000000003F
 94
        0
1001
ACAD
1000
AcRTDxfName
1000
ACADGREFMODULE
  0
ACAD_PROXY_OBJECT
  5
3E06
102
{ACAD_REACTORS
330
C
102
}
330
C
100
AcDbProxyObject
 90
      499
 91
      594
 95
   720919
 70
     0
 93
       34
310
05000044FF
 94
        0
1001
ACAD
1000
AcRTDxfName
1000
MAPIADMODULE
  0
DICTIONARY
  5
2B
102
{ACAD_REACTORS
330
C
102
}
330
C
100
AcDbDictionary
281
     1
  0
DICTIONARY
  5
7D
102
{ACAD_REACTORS
330
C
102
}
330
C
100
AcDbDictionary
281
     1
  0
DICTIONARY
  5
B42E
102
{ACAD_REACTORS
330
C
102
}
330
C
100
AcDbDictionary
281
     1
  3
ASEBlockHierarchyIndexRecord
350
B42F
1001
DCO15
1040
1439205644.296
  0
XRECORD
  5
4AE19
102
{ACAD_REACTORS
330
C
102
}
330
C
100
AcDbXrecord
280
     1
  1
DWGPROPS COOKIE
  2

  3

  4

  6

  7

  8
Administrator
  9

300
AmdtFileType=84
301
=
302
=
303
=
304
=
305
=
306
=
307
=
308
=
309
=
 40
13.82787306712963
 41
2452002.615067627
 42
2456342.568994503
  1

 90
        1
  0
ACAD_PROXY_OBJECT
  5
3DEB
102
{ACAD_REACTORS
330
C
102
}
330
C
100
AcDbProxyObject
 90
      499
 91
      583
 95
   720919
 70
     0
 93
        8
310
047E
 94
        0
1001
ACAD
1000
AcRTDxfName
1000
AMDTMAPISURFMOUDULE
  0
DICTIONARY
  5
494F1
102
{ACAD_REACTORS
330
3F95
102
}
330
3F95
100
AcDbDictionary
281
     1
  3
50
350
494F3
  0
DICTIONARY
  5
3F96
102
{ACAD_REACTORS
330
3F95
102
}
330
3F95
100
AcDbDictionary
281
     1
  3
20011210
350
3FB7
  0
DICTIONARY
  5
494F0
102
{ACAD_REACTORS
330
3F95
102
}
330
3F95
100
AcDbDictionary
281
     1
  3
*A1
350
494F2
1001
ACAD
1000
<All
  0
DICTIONARY
  5
CB2F
102
{ACAD_REACTORS
330
3F95
102
}
330
3F95
100
AcDbDictionary
280
     1
281
     1
  0
SORTENTSTABLE
  5
D722
102
{ACAD_REACTORS
330
8A
102
}
330
8A
100
AcDbSortentsTable
330
1F
  0
DIMASSOC
  5
4A7AE
102
{ACAD_REACTORS
330
4A7AD
102
}
330
4A7AD
100
AcDbDimAssoc
330
4A7AC
 90
        2
 70
     0
 71
     0
  1
AcDbOsnapPointRef
 72
    13
331
4A74E
 73
     0
 91
        0
 40
0.0
 10
0.0
 20
0.0
 30
2.000000000000000E+50
 75
     0
  0
DIMASSOC
  5
4A7B1
102
{ACAD_REACTORS
330
4A7B0
102
}
330
4A7B0
100
AcDbDimAssoc
330
4A7AF
 90
        3
 70
     0
 71
     0
  1
AcDbOsnapPointRef
 72
    13
331
4A79B
 73
     0
 91
        0
 40
0.0
 10
0.0
 20
0.0
 30
2.000000000000000E+50
 75
     0
  1
AcDbOsnapPointRef
 72
    13
331
4A79C
 73
     0
 91
        0
 40
0.0
 10
0.0
 20
0.0
 30
2.000000000000000E+50
 75
     0
  0
DIMASSOC
  5
4A7B4
102
{ACAD_REACTORS
330
4A7B3
102
}
330
4A7B3
100
AcDbDimAssoc
330
4A7B2
 90
        2
 70
     0
 71
     0
  1
AcDbOsnapPointRef
 72
     1
331
4A795
 73
     0
 91
        0
 40
0.0
 10
0.0
 20
0.0
 30
2.000000000000000E+50
 75
     0
  0
DIMASSOC
  5
4A7B7
102
{ACAD_REACTORS
330
4A7B6
102
}
330
4A7B6
100
AcDbDimAssoc
330
4A7B5
 90
        3
 70
     0
 71
     0
  1
AcDbOsnapPointRef
 72
    13
331
4A79B
 73
     0
 91
        0
 40
0.0
 10
0.0
 20
0.0
 30
2.000000000000000E+50
 75
     0
  1
AcDbOsnapPointRef
 72
     1
331
4A788
 73
     0
 91
        0
 40
0.0
 10
0.0
 20
0.0
 30
2.000000000000000E+50
 75
     0
  0
DIMASSOC
  5
4A7BA
102
{ACAD_REACTORS
330
4A7B9
102
}
330
4A7B9
100
AcDbDimAssoc
330
4A7B8
 90
        3
 70
     0
 71
     0
  1
AcDbOsnapPointRef
 72
    13
331
4A79C
 73
     0
 91
        0
 40
0.0
 10
0.0
 20
0.0
 30
2.000000000000000E+50
 75
     0
  1
AcDbOsnapPointRef
 72
    13
331
4A787
 73
     0
 91
        0
 40
0.0
 10
0.0
 20
0.0
 30
2.000000000000000E+50
 75
     0
  0
DIMASSOC
  5
4A7BD
102
{ACAD_REACTORS
330
4A7BC
102
}
330
4A7BC
100
AcDbDimAssoc
330
4A7BB
 90
        3
 70
     0
 71
     0
  1
AcDbOsnapPointRef
 72
     1
331
4A788
 73
     0
 91
        0
 40
0.0
 10
0.0
 20
0.0
 30
2.000000000000000E+50
 75
     0
  1
AcDbOsnapPointRef
 72
    13
331
4A787
 73
     0
 91
        0
 40
0.0
 10
0.0
 20
0.0
 30
2.000000000000000E+50
 75
     0
  0
DIMASSOC
  5
4A7C0
102
{ACAD_REACTORS
330
4A7BF
102
}
330
4A7BF
100
AcDbDimAssoc
330
4A7BE
 90
        2
 70
     0
 71
     0
  1
AcDbOsnapPointRef
 72
     3
331
4A750
 73
     2
 91
        0
 40
0.0
 10
0.0
 20
0.0
 30
0.0
 75
     0
  0
DIMASSOC
  5
4A7C3
102
{ACAD_REACTORS
330
4A7C2
102
}
330
4A7C2
100
AcDbDimAssoc
330
4A7C1
 90
        2
 70
     0
 71
     0
  1
AcDbOsnapPointRef
 72
     3
331
4A7A0
 73
     2
 91
        0
 40
0.0
 10
0.0
 20
0.0
 30
0.0
 75
     0
  0
DIMASSOC
  5
4A7F8
102
{ACAD_REACTORS
330
4A7F7
102
}
330
4A7F7
100
AcDbDimAssoc
330
4A7F6
 90
        3
 70
     0
 71
     0
  1
AcDbOsnapPointRef
 72
     1
331
4A75F
 73
     0
 91
        0
 40
0.0
 10
0.0
 20
0.0
 30
2.000000000000000E+50
 75
     0
  1
AcDbOsnapPointRef
 72
    13
331
4A75F
 73
     0
 91
        0
 40
0.0
 10
0.0
 20
0.0
 30
2.000000000000000E+50
 75
     0
  0
DIMASSOC
  5
4A80B
102
{ACAD_REACTORS
330
4A80A
102
}
330
4A80A
100
AcDbDimAssoc
330
4A809
 90
        1
 70
     0
 71
     0
  1
AcDbOsnapPointRef
 72
     1
331
4A752
 73
     0
 91
        0
 40
0.0
 10
0.0
 20
0.0
 30
2.000000000000000E+50
 75
     0
  0
DIMASSOC
  5
4A813
102
{ACAD_REACTORS
330
4A812
102
}
330
4A812
100
AcDbDimAssoc
330
4A811
 90
        1
 70
     0
 71
     0
  1
AcDbOsnapPointRef
 72
     1
331
4A773
 73
     0
 91
        0
 40
0.0
 10
0.0
 20
0.0
 30
2.000000000000000E+50
 75
     0
  0
DIMASSOC
  5
4AAA5
102
{ACAD_REACTORS
330
4AAA4
102
}
330
4AAA4
100
AcDbDimAssoc
330
4AA95
 90
        3
 70
     0
 71
     0
  1
AcDbOsnapPointRef
 72
    13
331
4A770
 73
     0
 91
        0
 40
0.0
 10
0.0
 20
0.0
 30
2.000000000000000E+50
 75
     0
  1
AcDbOsnapPointRef
 72
     8
331
4A796
 73
     0
 91
        0
 40
1.0
 10
0.0
 20
0.0
 30
0.0
 75
     1
  1
AcDbOsnapPointRef
 72
    13
331
4A770
 73
     0
 91
        0
 40
0.0
 10
0.0
 20
0.0
 30
2.000000000000000E+50
 75
     0
  0
LAYOUT
  5
22
102
{ACAD_XDICTIONARY
360
4AE1C
102
}
102
{ACAD_REACTORS
330
1A
102
}
330
1A
100
AcDbPlotSettings
  1

  2
DocuWide2055
  4
A4
  6
AM_VIEW1
 40
3.174999952316284
 41
3.174999952316284
 42
3.175003051757812
 43
3.17498779296875
 44
210.0156707763672
 45
297.0106506347656
 46
5.332833886146545
 47
8.330331444740295
 48
2133.633066675018
 49
-1460.182731148535
140
2407.633066675018
141
-1267.182731148535
142
1.0
143
1.0
 70
 11940
 72
     1
 73
     1
 74
     4
  7
monochrome.ctb
 75
     0
147
0.7072279707382396
148
-2133.633066675018
149
1460.182731148535
100
AcDbLayout
  1
Model
 70
     1
 71
     0
 10
0.0
 20
0.0
 11
12.0
 21
9.0
 12
0.0
 22
0.0
 32
0.0
 14
0.0
 24
0.0
 34
0.0
 15
0.0
 25
0.0
 35
0.0
146
0.0
 13
0.0
 23
0.0
 33
0.0
 16
1.0
 26
0.0
 36
0.0
 17
0.0
 27
1.0
 37
0.0
 76
     0
330
1F
331
C444
1001
ACAD_PSEXT
1000
DocuWide2055
1000
FX DocuWide 2055
1000
192.200.51.212:plt00t
1000

1070
     0
  0
LAYOUT
  5
1E
102
{ACAD_XDICTIONARY
360
4AE1A
102
}
102
{ACAD_REACTORS
330
1A
102
}
330
1A
100
AcDbPlotSettings
  1

  2
\\ML370\XEROX
  4
A4
  6

 40
3.174999952316284
 41
3.174999952316284
 42
3.175003051757812
 43
3.17498779296875
 44
209.8674926757813
 45
296.6719970703125
 46
0.0
 47
0.0
 48
0.0
 49
0.0
140
0.0
141
0.0
142
1.0
143
1.0
 70
   688
 72
     1
 73
     1
 74
     5
  7
monochrome.ctb
 75
    16
147
1.0
148
0.0
149
0.0
100
AcDbLayout
  1
ﾚｲｱｳﾄ1
 70
     1
 71
     1
 10
-3.17498779296875
 20
-3.174999952316284
 11
293.4970092773438
 21
206.692492723465
 12
0.0
 22
0.0
 32
0.0
 14
1.000000000000000E+20
 24
1.000000000000000E+20
 34
1.000000000000000E+20
 15
-1.000000000000000E+20
 25
-1.000000000000000E+20
 35
-1.000000000000000E+20
146
0.0
 13
0.0
 23
0.0
 33
0.0
 16
1.0
 26
0.0
 36
0.0
 17
0.0
 27
1.0
 37
0.0
 76
     0
330
1B
  0
LAYOUT
  5
26
102
{ACAD_XDICTIONARY
360
4AE1E
102
}
102
{ACAD_REACTORS
330
1A
102
}
330
1A
100
AcDbPlotSettings
  1

  2
\\ML370\XEROX
  4

  6

 40
0.0
 41
0.0
 42
0.0
 43
0.0
 44
0.0
 45
0.0
 46
0.0
 47
0.0
 48
0.0
 49
0.0
140
0.0
141
0.0
142
1.0
143
1.0
 70
   688
 72
     0
 73
     0
 74
     5
  7
monochrome.ctb
 75
    16
147
1.0
148
0.0
149
0.0
100
AcDbLayout
  1
ﾚｲｱｳﾄ2
 70
     1
 71
     2
 10
0.0
 20
0.0
 11
12.0
 21
9.0
 12
0.0
 22
0.0
 32
0.0
 14
0.0
 24
0.0
 34
0.0
 15
0.0
 25
0.0
 35
0.0
146
0.0
 13
0.0
 23
0.0
 33
0.0
 16
1.0
 26
0.0
 36
0.0
 17
0.0
 27
1.0
 37
0.0
 76
     0
330
23
  0
MATERIAL
  5
C448
102
{ACAD_XDICTIONARY
360
4AE22
102
}
102
{ACAD_REACTORS
330
C446
102
}
330
C446
100
AcDbMaterial
  1
ByBlock
  0
MATERIAL
  5
C447
102
{ACAD_XDICTIONARY
360
4AE20
102
}
102
{ACAD_REACTORS
330
C446
102
}
330
C446
100
AcDbMaterial
  1
ByLayer
  0
MATERIAL
  5
C449
102
{ACAD_XDICTIONARY
360
4AE24
102
}
102
{ACAD_REACTORS
330
C446
102
}
330
C446
100
AcDbMaterial
  1
Global
  0
MLINESTYLE
  5
18
102
{ACAD_REACTORS
330
17
102
}
330
17
100
AcDbMlineStyle
  2
STANDARD
 70
     0
  3

 62
   256
 51
90.0
 52
90.0
 71
     2
 49
0.5
 62
   256
  6
BYLAYER
 49
-0.5
 62
   256
  6
BYLAYER
  0
PLOTSETTINGS
  5
C85D
102
{ACAD_XDICTIONARY
360
4AE28
102
}
102
{ACAD_REACTORS
330
19
102
}
330
19
100
AcDbPlotSettings
  1
-00
  2
RICOH imagio Wide 7040e RP-GL/2
  4
A3
  6
AM_VIEW1
 40
5.069416522979736
 41
7.228392601013183
 42
5.23870849609375
 43
7.05908203125
 44
419.9889831542968
 45
296.9683227539062
 46
-5.159570932388305
 47
-7.159575939178466
 48
347.0000006405867
 49
-0.0000003719120514
140
767.0000006405866
141
296.9999996280879
142
1.0
143
1.0
 70
 11956
 72
     1
 73
     0
 74
     4
  7
monochrome.ctb
 75
    16
147
1.0
148
-347.0000006405867
149
0.0000003719120514
1001
ACAD_PSEXT
1000
RICOH imagio Wide 7040e RP-GL/2
1000
RICOH imagio Wide 7040e RP-GL/2
1000
\\ADMINISTRATOR
1000
RP-GL/2 Driver (Windows 2000/XP/Server 2003)
1070
     0
  0
ACDBPLACEHOLDER
  5
F
102
{ACAD_REACTORS
330
E
102
}
330
E
  0
TABLESTYLE
  5
C45D
102
{ACAD_XDICTIONARY
360
4AE26
102
}
102
{ACAD_REACTORS
330
C45C
102
}
330
C45C
100
AcDbTableStyle
  3
Standard
 70
     0
 71
     0
 40
1.5
 41
1.5
280
     0
281
     0
  7
STANDARD
140
4.5
170
     2
 62
     0
 63
     7
283
     0
274
    -2
284
     1
 64
     0
275
    -2
285
     1
 65
     0
276
    -2
286
     1
 66
     0
277
    -2
287
     1
 67
     0
278
    -2
288
     1
 68
     0
279
    -2
289
     1
 69
     0
  7
STANDARD
140
6.0
170
     5
 62
     0
 63
     7
283
     0
274
    -2
284
     1
 64
     0
275
    -2
285
     1
 65
     0
276
    -2
286
     1
 66
     0
277
    -2
287
     1
 67
     0
278
    -2
288
     1
 68
     0
279
    -2
289
     1
 69
     0
  7
STANDARD
140
4.5
170
     5
 62
     0
 63
     7
283
     0
274
    -2
284
     1
 64
     0
275
    -2
285
     1
 65
     0
276
    -2
286
     1
 66
     0
277
    -2
287
     1
 67
     0
278
    -2
288
     1
 68
     0
279
    -2
289
     1
 69
     0
  0
VISUALSTYLE
  5
C450
102
{ACAD_REACTORS
330
C44A
102
}
330
C44A
100
AcDbVisualStyle
  2
2dWireframe
 70
     4
 71
     0
 72
     2
 73
     0
 90
        0
 40
-0.6
 41
-30.0
 62
     5
 63
     7
 74
     1
 91
        4
 64
     7
 65
   257
 75
     1
175
     1
 42
1.0
 92
        0
 66
   257
 43
1.0
 76
     1
 77
     6
 78
     2
 67
     7
 79
     5
170
     0
171
     0
290
     0
174
     0
 93
        1
 44
0.0
173
     0
291
     0
 45
0.0
1001
ACAD
1000
AcDbSavedByObjectVersion
1070
     0
  0
VISUALSTYLE
  5
C452
102
{ACAD_REACTORS
330
C44A
102
}
330
C44A
100
AcDbVisualStyle
  2
3D Hidden
 70
     6
 71
     1
 72
     2
 73
     2
 90
        0
 40
-0.6
 41
-30.0
 62
     5
 63
     7
 74
     2
 91
        2
 64
     7
 65
   257
 75
     2
175
     1
 42
40.0
 92
        0
 66
   257
 43
1.0
 76
     1
 77
     6
 78
     2
 67
     7
 79
     3
170
     0
171
     0
290
     0
174
     0
 93
        1
 44
0.0
173
     0
291
     0
 45
0.0
1001
ACAD
1000
AcDbSavedByObjectVersion
1070
     0
  0
VISUALSTYLE
  5
C451
102
{ACAD_REACTORS
330
C44A
102
}
330
C44A
100
AcDbVisualStyle
  2
3dWireframe
 70
     5
 71
     0
 72
     2
 73
     0
 90
        0
 40
-0.6
 41
-30.0
 62
     5
 63
     7
 74
     1
 91
        4
 64
     7
 65
   257
 75
     1
175
     1
 42
1.0
 92
        0
 66
   257
 43
1.0
 76
     1
 77
     6
 78
     2
 67
     7
 79
     5
170
     0
171
     0
290
     0
174
     0
 93
        1
 44
0.0
173
     0
291
     0
 45
0.0
1001
ACAD
1000
AcDbSavedByObjectVersion
1070
     0
  0
VISUALSTYLE
  5
C44F
102
{ACAD_REACTORS
330
C44A
102
}
330
C44A
100
AcDbVisualStyle
  2
Basic
 70
     7
 71
     1
 72
     0
 73
     1
 90
        0
 40
-0.6
 41
-30.0
 62
     5
 63
     7
 74
     0
 91
        4
 64
     7
 65
   257
 75
     1
175
     1
 42
1.0
 92
        8
 66
     7
 43
1.0
 76
     1
 77
     6
 78
     2
 67
     7
 79
     5
170
     0
171
     0
290
     0
174
     0
 93
        1
 44
0.0
173
     0
291
     1
 45
0.0
1001
ACAD
1000
AcDbSavedByObjectVersion
1070
     0
  0
VISUALSTYLE
  5
C456
102
{ACAD_REACTORS
330
C44A
102
}
330
C44A
100
AcDbVisualStyle
  2
Brighten
 70
    12
 71
     2
 72
     2
 73
     0
 90
        0
 40
-0.6
 41
-30.0
 62
     5
 63
     7
 74
     1
 91
        4
 64
     7
 65
   257
 75
     1
175
     1
 42
1.0
 92
        8
 66
     7
 43
1.0
 76
     1
 77
     6
 78
     2
 67
     7
 79
     5
170
     0
171
     0
290
     0
174
     0
 93
        1
 44
50.0
173
     0
291
     1
 45
0.0
1001
ACAD
1000
AcDbSavedByObjectVersion
1070
     0
  0
VISUALSTYLE
  5
C45A
102
{ACAD_REACTORS
330
C44A
102
}
330
C44A
100
AcDbVisualStyle
  2
ColorChange
 70
    16
 71
     2
 72
     2
 73
     3
 90
        0
 40
-0.6
 41
-30.0
 62
     5
 63
     8
 74
     1
 91
        4
 64
     7
 65
   257
 75
     1
175
     1
 42
1.0
 92
        8
 66
     8
 43
1.0
 76
     1
 77
     6
 78
     2
 67
     7
 79
     5
170
     0
171
     0
290
     0
174
     0
 93
        1
 44
0.0
173
     0
291
     1
 45
0.0
1001
ACAD
1000
AcDbSavedByObjectVersion
1070
     0
  0
VISUALSTYLE
  5
C453
102
{ACAD_REACTORS
330
C44A
102
}
330
C44A
100
AcDbVisualStyle
  2
Conceptual
 70
     9
 71
     3
 72
     2
 73
     0
 90
        0
 40
-0.6
 41
-30.0
 62
     5
 63
     7
 74
     2
 91
        2
 64
     7
 65
   257
 75
     1
175
     1
 42
40.0
 92
        8
 66
     7
 43
1.0
 76
     1
 77
     6
 78
     2
 67
     7
 79
     3
170
     0
171
     0
290
     0
174
     0
 93
        1
 44
0.0
173
     0
291
     0
 45
0.0
1001
ACAD
1000
AcDbSavedByObjectVersion
1070
     0
  0
VISUALSTYLE
  5
C455
102
{ACAD_REACTORS
330
C44A
102
}
330
C44A
100
AcDbVisualStyle
  2
Dim
 70
    11
 71
     2
 72
     2
 73
     0
 90
        0
 40
-0.6
 41
-30.0
 62
     5
 63
     7
 74
     1
 91
        4
 64
     7
 65
   257
 75
     1
175
     1
 42
1.0
 92
        8
 66
     7
 43
1.0
 76
     1
 77
     6
 78
     2
 67
     7
 79
     5
170
     0
171
     0
290
     0
174
     0
 93
        1
 44
-50.0
173
     0
291
     1
 45
0.0
1001
ACAD
1000
AcDbSavedByObjectVersion
1070
     0
  0
VISUALSTYLE
  5
C459
102
{ACAD_REACTORS
330
C44A
102
}
330
C44A
100
AcDbVisualStyle
  2
Facepattern
 70
    15
 71
     2
 72
     2
 73
     0
 90
        0
 40
-0.6
 41
-30.0
 62
     5
 63
     7
 74
     1
 91
        4
 64
     7
 65
   257
 75
     1
175
     1
 42
1.0
 92
        8
 66
     7
 43
1.0
 76
     1
 77
     6
 78
     2
 67
     7
 79
     5
170
     0
171
     0
290
     0
174
     0
 93
        1
 44
0.0
173
     0
291
     1
 45
0.0
1001
ACAD
1000
AcDbSavedByObjectVersion
1070
     0
  0
VISUALSTYLE
  5
C44B
102
{ACAD_REACTORS
330
C44A
102
}
330
C44A
100
AcDbVisualStyle
  2
Flat
 70
     0
 71
     2
 72
     1
 73
     1
 90
        2
 40
-0.6
 41
30.0
 62
     5
 63
     7
 74
     0
 91
        4
 64
     7
 65
   257
 75
     1
175
     1
 42
1.0
 92
        8
 66
     7
 43
1.0
 76
     1
 77
     6
 78
     2
 67
     7
 79
     5
170
     0
171
     0
290
     0
174
     0
 93
       13
 44
0.0
173
     0
291
     1
 45
0.0
1001
ACAD
1000
AcDbSavedByObjectVersion
1070
     0
  0
VISUALSTYLE
  5
C44C
102
{ACAD_REACTORS
330
C44A
102
}
330
C44A
100
AcDbVisualStyle
  2
FlatWithEdges
 70
     1
 71
     2
 72
     1
 73
     1
 90
        2
 40
-0.6
 41
30.0
 62
     5
 63
     7
 74
     1
 91
        4
 64
     7
 65
   257
 75
     1
175
     1
 42
1.0
 92
        0
 66
   257
 43
1.0
 76
     1
 77
     6
 78
     2
 67
     7
 79
     5
170
     0
171
     0
290
     0
174
     0
 93
       13
 44
0.0
173
     0
291
     1
 45
0.0
1001
ACAD
1000
AcDbSavedByObjectVersion
1070
     0
  0
VISUALSTYLE
  5
C44D
102
{ACAD_REACTORS
330
C44A
102
}
330
C44A
100
AcDbVisualStyle
  2
Gouraud
 70
     2
 71
     2
 72
     2
 73
     1
 90
        2
 40
-0.6
 41
30.0
 62
     5
 63
     7
 74
     0
 91
        4
 64
     7
 65
   257
 75
     1
175
     1
 42
1.0
 92
        0
 66
     7
 43
1.0
 76
     1
 77
     6
 78
     2
 67
     7
 79
     5
170
     0
171
     0
290
     0
174
     0
 93
       13
 44
0.0
173
     0
291
     1
 45
0.0
1001
ACAD
1000
AcDbSavedByObjectVersion
1070
     0
  0
VISUALSTYLE
  5
C44E
102
{ACAD_REACTORS
330
C44A
102
}
330
C44A
100
AcDbVisualStyle
  2
GouraudWithEdges
 70
     3
 71
     2
 72
     2
 73
     1
 90
        2
 40
-0.6
 41
30.0
 62
     5
 63
     7
 74
     1
 91
        4
 64
     7
 65
   257
 75
     1
175
     1
 42
1.0
 92
        0
 66
   257
 43
1.0
 76
     1
 77
     6
 78
     2
 67
     7
 79
     5
170
     0
171
     0
290
     0
174
     0
 93
       13
 44
0.0
173
     0
291
     1
 45
0.0
1001
ACAD
1000
AcDbSavedByObjectVersion
1070
     0
  0
VISUALSTYLE
  5
C458
102
{ACAD_REACTORS
330
C44A
102
}
330
C44A
100
AcDbVisualStyle
  2
Linepattern
 70
    14
 71
     2
 72
     2
 73
     0
 90
        0
 40
-0.6
 41
-30.0
 62
     5
 63
     7
 74
     1
 91
        4
 64
     7
 65
   257
 75
     7
175
     7
 42
1.0
 92
        8
 66
     7
 43
1.0
 76
     1
 77
     6
 78
     2
 67
     7
 79
     5
170
     0
171
     0
290
     0
174
     0
 93
        1
 44
0.0
173
     0
291
     1
 45
0.0
1001
ACAD
1000
AcDbSavedByObjectVersion
1070
     0
  0
VISUALSTYLE
  5
C454
102
{ACAD_REACTORS
330
C44A
102
}
330
C44A
100
AcDbVisualStyle
  2
Realistic
 70
     8
 71
     2
 72
     2
 73
     0
 90
        0
 40
-0.6
 41
-30.0
 62
     5
 63
     7
 74
     1
 91
        0
 64
     7
 65
   257
 75
     1
175
     1
 42
1.0
 92
        8
 66
     8
 43
1.0
 76
     1
 77
     6
 78
     2
 67
     7
 79
     5
170
     0
171
     0
290
     0
174
     0
 93
       13
 44
0.0
173
     0
291
     0
 45
0.0
1001
ACAD
1000
AcDbSavedByObjectVersion
1070
     0
  0
VISUALSTYLE
  5
C457
102
{ACAD_REACTORS
330
C44A
102
}
330
C44A
100
AcDbVisualStyle
  2
Thicken
 70
    13
 71
     2
 72
     2
 73
     0
 90
        0
 40
-0.6
 41
-30.0
 62
     5
 63
     7
 74
     1
 91
        4
 64
     7
 65
   257
 75
     1
175
     1
 42
1.0
 92
       12
 66
     7
 43
1.0
 76
     1
 77
     6
 78
     2
 67
     7
 79
     5
170
     0
171
     0
290
     0
174
     0
 93
        1
 44
0.0
173
     0
291
     1
 45
0.0
1001
ACAD
1000
AcDbSavedByObjectVersion
1070
     0
  0
DICTIONARYVAR
  5
C4A2
102
{ACAD_REACTORS
330
34
102
}
330
34
100
DictionaryVariables
280
     0
  1
STANDARD
  0
DICTIONARYVAR
  5
AC85
102
{ACAD_REACTORS
330
34
102
}
330
34
100
DictionaryVariables
280
     0
  1
2
  0
DICTIONARYVAR
  5
35
102
{ACAD_REACTORS
330
34
102
}
330
34
100
DictionaryVariables
280
     0
  1
0
  0
DICTIONARYVAR
  5
194C
102
{ACAD_REACTORS
330
34
102
}
330
34
100
DictionaryVariables
280
     0
  1
96
  0
DICTIONARY
  5
7E8
102
{ACAD_REACTORS
330
47
102
}
330
47
100
AcDbDictionary
281
     1
  0
DICTIONARY
  5
4C
102
{ACAD_REACTORS
330
47
102
}
330
47
100
AcDbDictionary
281
     1
  0
XRECORD
  5
C487
102
{ACAD_REACTORS
330
47
102
}
330
47
100
AcDbXrecord
280
     1
 90
-1023410169
  0
XRECORD
  5
B42F
102
{ACAD_REACTORS
330
B42E
102
}
330
B42E
100
AcDbXrecord
280
     1
330
0
330
0
330
0
330
0
330
0
330
0
330
0
330
0
330
0
330
0
330
0
330
0
330
0
330
0
330
0
330
0
330
0
330
0
330
0
330
0
330
0
330
0
330
0
330
0
  0
XRECORD
  5
494F3
102
{ACAD_REACTORS
330
494F1
102
}
330
494F1
100
AcDbXrecord
280
     1
  1
50
  1
*-50
  1
*
  1
*
 70
     0
  1
*
  1
*
1001
ACAD
1000
( NAME== "*-50" )
  0
XRECORD
  5
3FB7
102
{ACAD_REACTORS
330
3F96
102
}
330
3F96
100
AcDbXrecord
280
     1
 91
        3
330
A47
 90
        8
 62
     7
370
    40
331
16
  1
Color_7
330
A46
 90
        0
 62
    14
370
    -3
331
16
  1
Color_14
330
0
 90
        8
 62
     7
370
    20
331
16
  1
Color_7
330
6D1
 90
        0
 62
     7
370
    -3
331
16
  1
Color_7
330
0
 90
        8
 62
     7
370
    50
331
16
  1
Color_7
330
A48
 90
        8
 62
     2
370
    35
331
16
  1
Color_2
330
0
 90
        8
 62
     7
370
    -3
331
16
  1
Color_7
330
10
 90
        8
 62
     7
370
    -3
331
16
  1
Color_7
  0
XRECORD
  5
494F2
102
{ACAD_REACTORS
330
494F0
102
}
330
494F0
100
AcDbXrecord
280
     1
  1
AcLyLayerFilter
 90
        1
300
50
301
( NAME== "*-50" )
  0
DICTIONARY
  5
4AE1C
330
22
100
AcDbDictionary
280
     1
281
     1
  3
ACAD_XREC_ROUNDTRIP
360
4AE1D
  0
DICTIONARY
  5
4AE1A
330
1E
100
AcDbDictionary
280
     1
281
     1
  3
ACAD_XREC_ROUNDTRIP
360
4AE1B
  0
DICTIONARY
  5
4AE1E
330
26
100
AcDbDictionary
280
     1
281
     1
  3
ACAD_XREC_ROUNDTRIP
360
4AE1F
  0
DICTIONARY
  5
4AE22
330
C448
100
AcDbDictionary
280
     1
281
     1
  3
ACAD_XREC_ROUNDTRIP
360
4AE23
  0
DICTIONARY
  5
4AE20
330
C447
100
AcDbDictionary
280
     1
281
     1
  3
ACAD_XREC_ROUNDTRIP
360
4AE21
  0
DICTIONARY
  5
4AE24
330
C449
100
AcDbDictionary
280
     1
281
     1
  3
ACAD_XREC_ROUNDTRIP
360
4AE25
  0
DICTIONARY
  5
4AE28
330
C85D
100
AcDbDictionary
280
     1
281
     1
  3
ACAD_XREC_ROUNDTRIP
360
4AE29
  0
DICTIONARY
  5
4AE26
330
C45D
100
AcDbDictionary
280
     1
281
     1
  3
ACAD_XREC_ROUNDTRIP
360
4AE27
  0
XRECORD
  5
4AE1D
102
{ACAD_REACTORS
330
4AE1C
102
}
330
4AE1C
100
AcDbXrecord
280
     1
102
SHADEPLOT
 70
     0
102
SHADEPLOTRESLEVEL
 70
     2
102
SHADEPLOTCUSTOMDPI
 70
   300
  0
XRECORD
  5
4AE1B
102
{ACAD_REACTORS
330
4AE1A
102
}
330
4AE1A
100
AcDbXrecord
280
     1
102
SHADEPLOT
 70
     0
102
SHADEPLOTRESLEVEL
 70
     2
102
SHADEPLOTCUSTOMDPI
 70
   300
  0
XRECORD
  5
4AE1F
102
{ACAD_REACTORS
330
4AE1E
102
}
330
4AE1E
100
AcDbXrecord
280
     1
102
SHADEPLOT
 70
     0
102
SHADEPLOTRESLEVEL
 70
     2
102
SHADEPLOTCUSTOMDPI
 70
   300
  0
XRECORD
  5
4AE23
102
{ACAD_REACTORS
330
4AE22
102
}
330
4AE22
100
AcDbXrecord
280
     1
102
MATERIAL
148
0.0
149
0.0
149
0.0
 93
        0
 94
       63
282
     0
 72
     1
 77
     1
171
     1
175
     1
179
     1
273
     0
  0
XRECORD
  5
4AE21
102
{ACAD_REACTORS
330
4AE20
102
}
330
4AE20
100
AcDbXrecord
280
     1
102
MATERIAL
148
0.0
149
0.0
149
0.0
 93
        0
 94
       63
282
     0
 72
     1
 77
     1
171
     1
175
     1
179
     1
273
     0
  0
XRECORD
  5
4AE25
102
{ACAD_REACTORS
330
4AE24
102
}
330
4AE24
100
AcDbXrecord
280
     1
102
MATERIAL
148
0.0
149
0.0
149
0.0
 93
        0
 94
       63
282
     0
 72
     1
 77
     1
171
     1
175
     1
179
     1
273
     0
  0
XRECORD
  5
4AE29
102
{ACAD_REACTORS
330
4AE28
102
}
330
4AE28
100
AcDbXrecord
280
     1
102
SHADEPLOT
 70
     0
102
SHADEPLOTRESLEVEL
 70
     2
102
SHADEPLOTCUSTOMDPI
 70
   300
  0
XRECORD
  5
4AE27
102
{ACAD_REACTORS
330
4AE26
102
}
330
4AE26
100
AcDbXrecord
280
     1
102
ACAD_ROUNDTRIP_PRE2007_TABLESTYLE
 90
      512
 91
        0
  1

 92
      512
 93
        0
  2

 94
      512
 95
        0
  3

  0
ENDSEC
  0
EOF
