  0
SECTION
  2
HEADER
  9
$ACADVER
  1
AC1015
  9
$ACADMAINTVER
 70
    20
  9
$DWGCODEPAGE
  3
ANSI_932
  9
$INSBASE
 10
0.0
 20
0.0
 30
0.0
  9
$EXTMIN
 10
3071.842651909424
 20
-2788.821360000765
 30
-0.0015258207003583
  9
$EXTMAX
 10
3491.869201077104
 20
-2491.791243242533
 30
0.0000000349246037
  9
$LIMMIN
 10
2168.279185573178
 20
-2530.372216979716
  9
$LIMMAX
 10
2316.779185573178
 20
-2425.372216979716
  9
$ORTHOMODE
 70
     0
  9
$REGENMODE
 70
     1
  9
$FILLMODE
 70
     1
  9
$QTEXTMODE
 70
     0
  9
$MIRRTEXT
 70
     0
  9
$LTSCALE
 40
1.0
  9
$ATTMODE
 70
     1
  9
$TEXTSIZE
 40
3.5
  9
$TRACEWID
 40
1.0
  9
$TEXTSTYLE
  7
STANDARD
  9
$CLAYER
  8
000鈴木検図
  9
$CELTYPE
  6
ByLayer
  9
$CECOLOR
 62
   256
  9
$CELTSCALE
 40
1.0
  9
$DISPSILH
 70
     0
  9
$DIMSCALE
 40
1.0
  9
$DIMASZ
 40
2.5
  9
$DIMEXO
 40
1.0
  9
$DIMDLI
 40
10.0
  9
$DIMRND
 40
0.0
  9
$DIMDLE
 40
0.0
  9
$DIMEXE
 40
1.0
  9
$DIMTP
 40
0.1
  9
$DIMTM
 40
0.1
  9
$DIMTXT
 40
3.5
  9
$DIMCEN
 40
0.0
  9
$DIMTSZ
 40
0.0
  9
$DIMTOL
 70
     0
  9
$DIMLIM
 70
     0
  9
$DIMTIH
 70
     0
  9
$DIMTOH
 70
     0
  9
$DIMSE1
 70
     0
  9
$DIMSE2
 70
     0
  9
$DIMTAD
 70
     1
  9
$DIMZIN
 70
     8
  9
$DIMBLK
  1

  9
$DIMASO
 70
     1
  9
$DIMSHO
 70
     1
  9
$DIMPOST
  1

  9
$DIMAPOST
  1
"
  9
$DIMALT
 70
     0
  9
$DIMALTD
 70
     2
  9
$DIMALTF
 40
0.0393701
  9
$DIMLFAC
 40
1.0
  9
$DIMTOFL
 70
     1
  9
$DIMTVP
 40
0.0
  9
$DIMTIX
 70
     0
  9
$DIMSOXD
 70
     0
  9
$DIMSAH
 70
     0
  9
$DIMBLK1
  1

  9
$DIMBLK2
  1

  9
$DIMSTYLE
  2
SYS
  9
$DIMCLRD
 70
   256
  9
$DIMCLRE
 70
   256
  9
$DIMCLRT
 70
     7
  9
$DIMTFAC
 40
0.71
  9
$DIMGAP
 40
1.5
  9
$DIMJUST
 70
     0
  9
$DIMSD1
 70
     0
  9
$DIMSD2
 70
     0
  9
$DIMTOLJ
 70
     0
  9
$DIMTZIN
 70
     8
  9
$DIMALTZ
 70
     0
  9
$DIMALTTZ
 70
     0
  9
$DIMUPT
 70
     0
  9
$DIMDEC
 70
     1
  9
$DIMTDEC
 70
     3
  9
$DIMALTU
 70
     2
  9
$DIMALTTD
 70
     4
  9
$DIMTXSTY
  7
STANDARD
  9
$DIMAUNIT
 70
     0
  9
$DIMADEC
 70
     0
  9
$DIMALTRND
 40
0.0
  9
$DIMAZIN
 70
     2
  9
$DIMDSEP
 70
    46
  9
$DIMATFIT
 70
     3
  9
$DIMFRAC
 70
     0
  9
$DIMLDRBLK
  1

  9
$DIMLUNIT
 70
     2
  9
$DIMLWD
 70
    -1
  9
$DIMLWE
 70
    -1
  9
$DIMTMOVE
 70
     0
  9
$LUNITS
 70
     2
  9
$LUPREC
 70
     2
  9
$SKETCHINC
 40
1.0
  9
$FILLETRAD
 40
1.0
  9
$AUNITS
 70
     0
  9
$AUPREC
 70
     0
  9
$MENU
  1
.
  9
$ELEVATION
 40
0.0
  9
$PELEVATION
 40
0.0
  9
$THICKNESS
 40
0.0
  9
$LIMCHECK
 70
     0
  9
$CHAMFERA
 40
0.35
  9
$CHAMFERB
 40
0.35
  9
$CHAMFERC
 40
20.0
  9
$CHAMFERD
 40
0.0
  9
$SKPOLY
 70
     0
  9
$TDCREATE
 40
2452002.615067627
  9
$TDUCREATE
 40
2452002.240067627
  9
$TDUPDATE
 40
2455873.426181817
  9
$TDUUPDATE
 40
2455873.051181817
  9
$TDINDWG
 40
13.7060689699
  9
$TDUSRTIMER
 40
13.7060689699
  9
$USRTIMER
 70
     1
  9
$ANGBASE
 50
0.0
  9
$ANGDIR
 70
     0
  9
$PDMODE
 70
     0
  9
$PDSIZE
 40
0.0
  9
$PLINEWID
 40
0.0
  9
$SPLFRAME
 70
     0
  9
$SPLINETYPE
 70
     6
  9
$SPLINESEGS
 70
     8
  9
$HANDSEED
  5
4AE3F
  9
$SURFTAB1
 70
     6
  9
$SURFTAB2
 70
     6
  9
$SURFTYPE
 70
     6
  9
$SURFU
 70
     6
  9
$SURFV
 70
     6
  9
$UCSBASE
  2

  9
$UCSNAME
  2

  9
$UCSORG
 10
0.0
 20
0.0
 30
0.0
  9
$UCSXDIR
 10
1.0
 20
0.0
 30
0.0
  9
$UCSYDIR
 10
0.0
 20
1.0
 30
0.0
  9
$UCSORTHOREF
  2

  9
$UCSORTHOVIEW
 70
     0
  9
$UCSORGTOP
 10
0.0
 20
0.0
 30
0.0
  9
$UCSORGBOTTOM
 10
0.0
 20
0.0
 30
0.0
  9
$UCSORGLEFT
 10
0.0
 20
0.0
 30
0.0
  9
$UCSORGRIGHT
 10
0.0
 20
0.0
 30
0.0
  9
$UCSORGFRONT
 10
0.0
 20
0.0
 30
0.0
  9
$UCSORGBACK
 10
0.0
 20
0.0
 30
0.0
  9
$PUCSBASE
  2

  9
$PUCSNAME
  2

  9
$PUCSORG
 10
0.0
 20
0.0
 30
0.0
  9
$PUCSXDIR
 10
1.0
 20
0.0
 30
0.0
  9
$PUCSYDIR
 10
0.0
 20
1.0
 30
0.0
  9
$PUCSORTHOREF
  2

  9
$PUCSORTHOVIEW
 70
     0
  9
$PUCSORGTOP
 10
0.0
 20
0.0
 30
0.0
  9
$PUCSORGBOTTOM
 10
0.0
 20
0.0
 30
0.0
  9
$PUCSORGLEFT
 10
0.0
 20
0.0
 30
0.0
  9
$PUCSORGRIGHT
 10
0.0
 20
0.0
 30
0.0
  9
$PUCSORGFRONT
 10
0.0
 20
0.0
 30
0.0
  9
$PUCSORGBACK
 10
0.0
 20
0.0
 30
0.0
  9
$USERI1
 70
     0
  9
$USERI2
 70
     0
  9
$USERI3
 70
     0
  9
$USERI4
 70
     0
  9
$USERI5
 70
     0
  9
$USERR1
 40
0.0
  9
$USERR2
 40
0.0
  9
$USERR3
 40
0.0
  9
$USERR4
 40
0.0
  9
$USERR5
 40
0.0
  9
$WORLDVIEW
 70
     1
  9
$SHADEDGE
 70
     3
  9
$SHADEDIF
 70
    70
  9
$TILEMODE
 70
     1
  9
$MAXACTVP
 70
    64
  9
$PINSBASE
 10
0.0
 20
0.0
 30
0.0
  9
$PLIMCHECK
 70
     0
  9
$PEXTMIN
 10
1.000000000000000E+20
 20
1.000000000000000E+20
 30
1.000000000000000E+20
  9
$PEXTMAX
 10
-1.000000000000000E+20
 20
-1.000000000000000E+20
 30
-1.000000000000000E+20
  9
$PLIMMIN
 10
-3.17498779296875
 20
-3.174999952316284
  9
$PLIMMAX
 10
293.4970092773438
 20
206.692492723465
  9
$UNITMODE
 70
     0
  9
$VISRETAIN
 70
     1
  9
$PLINEGEN
 70
     0
  9
$PSLTSCALE
 70
     1
  9
$TREEDEPTH
 70
  3020
  9
$CMLSTYLE
  2
Standard
  9
$CMLJUST
 70
     0
  9
$CMLSCALE
 40
20.0
  9
$PROXYGRAPHICS
 70
     1
  9
$MEASUREMENT
 70
     1
  9
$CELWEIGHT
370
    -1
  9
$ENDCAPS
280
     0
  9
$JOINSTYLE
280
     0
  9
$LWDISPLAY
290
     1
  9
$INSUNITS
 70
     4
  9
$HYPERLINKBASE
  1

  9
$STYLESHEET
  1
monochrome.ctb
  9
$XEDIT
290
     1
  9
$CEPSNTYPE
380
     0
  9
$PSTYLEMODE
290
     1
  9
$FINGERPRINTGUID
  2
{83FB3AA1-FF18-4BFE-AFE0-611B71DE056D}
  9
$VERSIONGUID
  2
{CFB10E69-E5E5-4742-BF4F-FFCA1CA471BA}
  9
$EXTNAMES
290
     1
  9
$PSVPSCALE
 40
0.0
  9
$OLESTARTUP
290
     0
  0
ENDSEC
  0
SECTION
  2
CLASSES
  0
CLASS
  1
ACDBDICTIONARYWDFLT
  2
AcDbDictionaryWithDefault
  3
ObjectDBX Classes
 90
        0
280
     0
281
     0
  0
CLASS
  1
ACDBPLACEHOLDER
  2
AcDbPlaceHolder
  3
ObjectDBX Classes
 90
        0
280
     0
281
     0
  0
CLASS
  1
LAYOUT
  2
AcDbLayout
  3
ObjectDBX Classes
 90
        0
280
     0
281
     0
  0
CLASS
  1
AMGSETTINGSOBJ
  2
AmgSettingsObj
  3
"AcadM|Product Description: AutoCAD Mechanical|Company: Autodesk"
 90
        0
280
     0
281
     0
  0
CLASS
  1
ACME_DOCUMENT
  2
AcMeDbDoc
  3
AcMeServices
 90
        0
280
     0
281
     0
  0
CLASS
  1
ACMESCOPE
  2
AcMeScope
  3
AcMeServices
 90
        0
280
     0
281
     0
  0
CLASS
  1
ACMECOMMANDHISTORY
  2
AcMeCommandHistory
  3
AcMeServices
 90
        0
280
     0
281
     0
  0
CLASS
  1
DICTIONARYVAR
  2
AcDbDictionaryVar
  3
ObjectDBX Classes
 90
        0
280
     0
281
     0
  0
CLASS
  1
ACIMSYSVARMAN
  2
AcImSysVarManager
  3
AcMeServices
 90
        0
280
     0
281
     0
  0
CLASS
  1
ACIMREALSYSVAR
  2
AcImRealSysVar
  3
AcMeServices
 90
        0
280
     0
281
     0
  0
CLASS
  1
ACIMINTSYSVAR
  2
AcImIntSysVar
  3
AcMeServices
 90
        0
280
     0
281
     0
  0
CLASS
  1
ACMEDRAWINGMAN
  2
AcMeDrawingMan
  3
AcMeServices
 90
        0
280
     0
281
     0
  0
CLASS
  1
ACMEVIEW
  2
AcMeView
  3
AcMeServices
 90
        0
280
     0
281
     0
  0
CLASS
  1
ACDBENTITYCACHE
  2
AcMeEntityCache
  3
AcMeServices
 90
        0
280
     0
281
     0
  0
CLASS
  1
GSMANAGER
  2
AcMeGSManager
  3
AcMeServices
 90
        0
280
     0
281
     0
  0
CLASS
  1
AMDTINTERNALREACTOR
  2
AmdtInternalReactor
  3
AcMeServices
 90
        0
280
     0
281
     0
  0
CLASS
  1
ACMESTATEMGR
  2
AcMeStateMgr
  3
AcMeServices
 90
        0
280
     0
281
     0
  0
CLASS
  1
ACGREFMASTER
  2
AcGrefMaster
  3
AcAttribServices
 90
        0
280
     0
281
     0
  0
CLASS
  1
ACME_DATABASE
  2
AcMeDbDatabase
  3
AcMeServices
 90
        0
280
     0
281
     0
  0
CLASS
  1
ACRFINSADJUSTERMGR
  2
AcRfInsAdjusterMgr
  3
AcMeServices
 90
        0
280
     0
281
     0
  0
CLASS
  1
ACGREFACADMASTER
  2
AcGrefacadMaster
  3
AcGrefServices
 90
        0
280
     0
281
     0
  0
CLASS
  1
AMIMASTER
  2
AmiMaster
  3
AmiServices
 90
        0
280
     0
281
     0
  0
CLASS
  1
ACMDATADICTIONARY
  2
AcmDataDictionary
  3
"AcmSymBB|Product Description: AutoCAD Mechanical|Company: Autodesk"
 90
        0
280
     0
281
     0
  0
CLASS
  1
ACMDATAENTRYBLOCK
  2
AcmDataEntryBlock
  3
"AcmSymBB|Product Description: AutoCAD Mechanical|Company: Autodesk"
 90
        0
280
     0
281
     0
  0
CLASS
  1
ACIMSTRSYSVAR
  2
AcImStrSysVar
  3
AcMeServices
 90
        0
280
     0
281
     0
  0
CLASS
  1
ACMSTANDARDISO
  2
AcmStandardISO
  3
"Amdt_StdImp|Product Description: AutoCAD Mechanical|Company: Autodesk"
 90
        0
280
     0
281
     0
  0
CLASS
  1
AMGOBJPROPCFG
  2
AmgObjPropCfg
  3
"AmgLay|Product Description: AutoCAD Mechanical|Company: Autodesk"
 90
        1
280
     0
281
     0
  0
CLASS
  1
AMDTEDGESTANDARDISO
  2
AmdtEdgeStdISO
  3
"Amdt_StdImp|Product Description: AutoCAD Mechanical|Company: Autodesk"
 90
        0
280
     0
281
     0
  0
CLASS
  1
ACMSURFSTANDARDISO
  2
AcmSurfTextStdISO
  3
"Amdt_StdImp|Product Description: AutoCAD Mechanical|Company: Autodesk"
 90
        0
280
     0
281
     0
  0
CLASS
  1
ACMFCFSTANDARDISO
  2
AcmFCFStdISO
  3
"Amdt_StdImp|Product Description: AutoCAD Mechanical|Company: Autodesk"
 90
        0
280
     0
281
     0
  0
CLASS
  1
ACMWELDSTANDARDISO
  2
AcmWeldingStdISO
  3
"Amdt_StdImp|Product Description: AutoCAD Mechanical|Company: Autodesk"
 90
        0
280
     0
281
     0
  0
CLASS
  1
ACMIDSTANDARDISO
  2
AcmIdStdISO
  3
"Amdt_StdImp|Product Description: AutoCAD Mechanical|Company: Autodesk"
 90
        0
280
     0
281
     0
  0
CLASS
  1
ACMDATUMSTANDARDISO
  2
AcmDatumStdISO
  3
"Amdt_StdImp|Product Description: AutoCAD Mechanical|Company: Autodesk"
 90
        0
280
     0
281
     0
  0
CLASS
  1
ACMBOMSTANDARDISO
  2
AcmBOMStdISO
  3
"Amdt_StdImp|Product Description: AutoCAD Mechanical|Company: Autodesk"
 90
        0
280
     0
281
     0
  0
CLASS
  1
ACMDETAILSTANDARDISO
  2
AmdtDetailSymStdISO
  3
"Amdt_StdImp|Product Description: AutoCAD Mechanical|Company: Autodesk"
 90
        0
280
     0
281
     0
  0
CLASS
  1
ACMSECTIONSTANDARDISO
  2
AmdtSectionSymStdISO
  3
"Amdt_StdImp|Product Description: AutoCAD Mechanical|Company: Autodesk"
 90
        0
280
     0
281
     0
  0
CLASS
  1
ACMCENTERLINESTANDARDISO
  2
AmdtCenterLineStdISO
  3
"Amdt_StdImp|Product Description: AutoCAD Mechanical|Company: Autodesk"
 90
        0
280
     0
281
     0
  0
CLASS
  1
ACAMGLAYSTD
  2
AcAmgLayStd
  3
"AmgLay|Product Description: AutoCAD Mechanical|Company: Autodesk"
 90
        0
280
     0
281
     0
  0
CLASS
  1
ACAMGDIMSTD
  2
AcAmgDimStd
  3
"AmgDim|Product Description: AutoCAD Mechanical|Company: Autodesk"
 90
        0
280
     0
281
     0
  0
CLASS
  1
ACAMGTITLESTD
  2
AcAmgTitleStd
  3
"AmgTitle|Product Description: AutoCAD Mechanical|Company: Autodesk"
 90
        0
280
     0
281
     0
  0
CLASS
  1
ACAMGFILTERDAT
  2
AcAmgFilterDat
  3
"AcadM|Product Description: AutoCAD Mechanical|Company: Autodesk"
 90
        0
280
     0
281
     0
  0
CLASS
  1
LAYER_INDEX
  2
AcDbLayerIndex
  3
ObjectDBX Classes
 90
    32768
280
     0
281
     0
  0
CLASS
  1
IDBUFFER
  2
AcDbIdBuffer
  3
ObjectDBX Classes
 90
    32768
280
     0
281
     0
  0
CLASS
  1
PLOTSETTINGS
  2
AcDbPlotSettings
  3
ObjectDBX Classes
 90
        0
280
     0
281
     0
  0
CLASS
  1
AMDTFORMULAUPDATEDISPATCHER
  2
AmdtFormulaUpdateDispatcher
  3
AcMeServices
 90
        0
280
     0
281
     0
  0
CLASS
  1
ACMSTANDARDANSI
  2
AcmStandardANSI
  3
"Amdt_StdImp|Product Description: AutoCAD Mechanical|Company: Autodesk"
 90
        0
280
     0
281
     0
  0
CLASS
  1
ACMSURFSTANDARDANSI
  2
AcmSurfTextStdANSI
  3
"Amdt_StdImp|Product Description: AutoCAD Mechanical|Company: Autodesk"
 90
        0
280
     0
281
     0
  0
CLASS
  1
ACMFCFSTANDARDANSI
  2
AcmFCFStdANSI
  3
"Amdt_StdImp|Product Description: AutoCAD Mechanical|Company: Autodesk"
 90
        0
280
     0
281
     0
  0
CLASS
  1
ACMWELDSTANDARDANSI
  2
AcmWeldingStdANSI
  3
"Amdt_StdImp|Product Description: AutoCAD Mechanical|Company: Autodesk"
 90
        0
280
     0
281
     0
  0
CLASS
  1
ACMIDSTANDARDANSI
  2
AcmIdStdANSI
  3
"Amdt_StdImp|Product Description: AutoCAD Mechanical|Company: Autodesk"
 90
        0
280
     0
281
     0
  0
CLASS
  1
ACMDATUMSTANDARDANSI
  2
AcmDatumStdANSI
  3
"Amdt_StdImp|Product Description: AutoCAD Mechanical|Company: Autodesk"
 90
        0
280
     0
281
     0
  0
CLASS
  1
ACMBOMSTANDARDANSI
  2
AcmBOMStdANSI
  3
"Amdt_StdImp|Product Description: AutoCAD Mechanical|Company: Autodesk"
 90
        0
280
     0
281
     0
  0
CLASS
  1
ACMDETAILSTANDARDANSI
  2
AmdtDetailSymStdANSI
  3
"Amdt_StdImp|Product Description: AutoCAD Mechanical|Company: Autodesk"
 90
        0
280
     0
281
     0
  0
CLASS
  1
ACMSECTIONSTANDARDANSI
  2
AmdtSectionSymStdANSI
  3
"Amdt_StdImp|Product Description: AutoCAD Mechanical|Company: Autodesk"
 90
        0
280
     0
281
     0
  0
CLASS
  1
ACMCENTERLINESTANDARDANSI
  2
AmdtCenterLineStdANSI
  3
"Amdt_StdImp|Product Description: AutoCAD Mechanical|Company: Autodesk"
 90
        0
280
     0
281
     0
  0
CLASS
  1
ACMBOM
  2
AcmBom
  3
"AcmSymBB|Product Description: AutoCAD Mechanical|Company: Autodesk"
 90
        0
280
     0
281
     0
  0
CLASS
  1
ACMDATAENTRYPART
  2
AcmDataEntryPart
  3
"AcmSymBB|Product Description: AutoCAD Mechanical|Company: Autodesk"
 90
    32768
280
     0
281
     0
  0
CLASS
  1
ACMPARTREF
  2
AcmPartRef
  3
"AcmSymBB|Product Description: AutoCAD Mechanical|Company: Autodesk"
 90
    35839
280
     0
281
     1
  0
CLASS
  1
ACDBCIRCARCRES
  2
AcDbCircArcRes
  3
AcGrefServices
 90
    32768
280
     0
281
     0
  0
CLASS
  1
ACMBOMROW
  2
AcmBomRow
  3
"AcmSymBB|Product Description: AutoCAD Mechanical|Company: Autodesk"
 90
    32768
280
     0
281
     0
  0
CLASS
  1
ACMBALLOON
  2
AcmBalloon
  3
"AcmSymBB|Product Description: AutoCAD Mechanical|Company: Autodesk"
 90
    35839
280
     0
281
     1
  0
CLASS
  1
AMDTNOTE
  2
AmdtNote
  3
"AcmSymBB|Product Description: AutoCAD Mechanical|Company: Autodesk"
 90
    35839
280
     0
281
     1
  0
CLASS
  1
STDPART2D
  2
AmgStdPart
  3
"AmgStdPart|Product Description: AutoCAD Mechanical|Company: Autodesk"
 90
    35839
280
     0
281
     1
  0
CLASS
  1
ACDBSTDPARTRES_LINE
  2
AcDbStdPartRes_Line
  3
"AmgStdPart|Product Description: AutoCAD Mechanical|Company: Autodesk"
 90
    32768
280
     0
281
     0
  0
CLASS
  1
ACMDATAENTRY
  2
AcmDataEntry
  3
"AcmSymBB|Product Description: AutoCAD Mechanical|Company: Autodesk"
 90
        0
280
     0
281
     0
  0
CLASS
  1
ACDBOPPOLYLINERES
  2
AcDbOpPolylineRes
  3
AcGrefServices
 90
    32768
280
     0
281
     0
  0
CLASS
  1
ACMPARTLIST
  2
AcmPartList
  3
"AcmSymBB|Product Description: AutoCAD Mechanical|Company: Autodesk"
 90
    35839
280
     0
281
     1
  0
CLASS
  1
ACDBLINERES
  2
AcDbLineRes
  3
AcGrefServices
 90
    32768
280
     0
281
     0
  0
CLASS
  1
ACRFINSADJ
  2
AcRfInsAdjuster
  3
AcMeServices
 90
    32768
280
     0
281
     0
  0
CLASS
  1
AM_DRAWING_MGR
  2
AcDmDwgMgr
  3
AcMechDwgViewMgmt
 90
        0
280
     0
281
     0
  0
CLASS
  1
AM_DWG_DOCUMENT
  2
AcDmDwgDocument
  3
AcMechDwgViewMgmt
 90
        0
280
     0
281
     0
  0
CLASS
  1
AM_DWG_SHEET
  2
AcDmSheet
  3
AcMechDwgViewMgmt
 90
        0
280
     0
281
     0
  0
CLASS
  1
AM_VIEWDIMPARMAP
  2
AcDmViewDimParMap
  3
AcMechDwgViewMgmt
 90
        0
280
     0
281
     0
  0
CLASS
  1
AM_DWGMGR_NAME
  2
AcDmDwgMgrName
  3
AcMechDwgViewMgmt
 90
        0
280
     0
281
     0
  0
CLASS
  1
AMDTMENUSTATEMGR
  2
AmdtMenuStateMgr
  3
McadcomServices
 90
        0
280
     0
281
     0
  0
CLASS
  1
AMDTMCOMMENUSTATE
  2
AmdtMcomMenuState
  3
McadcomServices
 90
        0
280
     0
281
     0
  0
CLASS
  1
ASAPP
  2
AcAsAppObject
  3
AutoSurfServices
 90
        0
280
     0
281
     0
  0
CLASS
  1
IM_STATIC_MAN
  2
AcImStaticVarManager
  3
AcMeServices
 90
        0
280
     0
281
     0
  0
CLASS
  1
ACIMDBLSTATICVAR
  2
AcImDblStaticVar
  3
AcMeServices
 90
        0
280
     0
281
     0
  0
CLASS
  1
ACIMSTRSTATICVAR
  2
AcImStrStaticVar
  3
AcMeServices
 90
        0
280
     0
281
     0
  0
CLASS
  1
ACIMINTSTATICVAR
  2
AcImIntStaticVar
  3
AcMeServices
 90
        0
280
     0
281
     0
  0
CLASS
  1
ACASGREFMASTER
  2
AcAsGrefMaster
  3
AutoSurfResolverServices
 90
        0
280
     0
281
     0
  0
CLASS
  1
ACADGREFMODULE
  2
AcAdGrefModule
  3
AdGrefServices
 90
        0
280
     0
281
     0
  0
CLASS
  1
AMDTMAPISURFMOUDULE
  2
AmdtMApiSurfModule
  3
MApiSurfServices
 90
        0
280
     0
281
     0
  0
CLASS
  1
MAPIAMMOUDLE
  2
MApiAmModule
  3
MApiAmServices
 90
        0
280
     0
281
     0
  0
CLASS
  1
AMDTADMENUSTATE
  2
AmdtAdMenuState
  3
DesignerServices
 90
        0
280
     0
281
     0
  0
CLASS
  1
ADAPPL
  2
AcAdAppl
  3
DesignerServices
 90
        0
280
     0
281
     0
  0
CLASS
  1
DEPMGR
  2
AcAdDepMgr
  3
DesignerServices
 90
        0
280
     0
281
     0
  0
CLASS
  1
PARAMMGR
  2
AcAdParamMgr
  3
DesignerServices
 90
        0
280
     0
281
     0
  0
CLASS
  1
PARAMSCOPE
  2
AcAdParamScope
  3
DesignerServices
 90
        0
280
     0
281
     0
  0
CLASS
  1
NAMEDAPPL
  2
AcAdNamedAppl
  3
DesignerServices
 90
        0
280
     0
281
     0
  0
CLASS
  1
ADHNTMPLT
  2
AdHoleNoteTemplateMgr
  3
DesignerServices
 90
    32768
280
     0
281
     0
  0
CLASS
  1
AM_HNTEMPLATE_MGR_NAME
  2
AdHoleNoteTemplateMgrName
  3
DesignerServices
 90
    32768
280
     0
281
     0
  0
CLASS
  1
AMDTDMMENUSTATE
  2
AmdtDmMenuState
  3
AcMechDwgViewMgmt
 90
        0
280
     0
281
     0
  0
CLASS
  1
MAPIADMODULE
  2
MApiAdModule
  3
MApiAdServices
 90
        0
280
     0
281
     0
  0
CLASS
  1
AMDTAMMENUSTATE
  2
AmdtAmMenuState
  3
DesignerAssemblies
 90
        0
280
     0
281
     0
  0
CLASS
  1
ACAMPROJECT
  2
AcAmProject
  3
DesignerAssemblies
 90
        0
280
     0
281
     0
  0
CLASS
  1
ACAMGRCOMPDEF
  2
AcAmGrCompDef
  3
DesignerAssemblies
 90
        0
280
     0
281
     0
  0
CLASS
  1
ACCMCONTEXT
  2
AcCmContext
  3
DesignerAssemblies
 90
        0
280
     0
281
     0
  0
CLASS
  1
ACAMCOMPDEF
  2
AcAmCompDef
  3
DesignerAssemblies
 90
        0
280
     0
281
     0
  0
CLASS
  1
ACAMCOMPDEFMGR
  2
AcAmCompDefMgr
  3
DesignerAssemblies
 90
        0
280
     0
281
     0
  0
CLASS
  1
AMCONTEXTMGR
  2
AcAmContextMgr
  3
DesignerAssemblies
 90
        0
280
     0
281
     0
  0
CLASS
  1
ACAMCONTEXTMODELER
  2
AcAmContextModeler
  3
DesignerAssemblies
 90
        0
280
     0
281
     0
  0
CLASS
  1
CATALOGSTATE
  2
AcAmCatalogState
  3
DesignerAssemblies
 90
        0
280
     0
281
     0
  0
CLASS
  1
ACAMGRCOMPDEFSET
  2
AcAmGrCompDefSet
  3
DesignerAssemblies
 90
        0
280
     0
281
     0
  0
CLASS
  1
AMDTBROWSERDBTAB
  2
AmdtBrowserDbTab
  3
McadcomServices
 90
        0
280
     0
281
     0
  0
CLASS
  1
CBROWSERAPPOBJECT
  2
CBrowserAppObject
  3
McadcomServices
 90
        0
280
     0
281
     0
  0
CLASS
  1
DM_PLACEHOLDER
  2
AcDmSelsetPlaceholder
  3
AcMechDwgViewMgmt
 90
        0
280
     0
281
     0
  0
CLASS
  1
ACMPICKOBJ
  2
AcmPickEnt
  3
"AcmSymBB|Product Description: AutoCAD Mechanical|Company: Autodesk"
 90
    32768
280
     0
281
     1
  0
CLASS
  1
MATERIAL
  2
AcDbMaterial
  3
ObjectDBX Classes
 90
     1153
280
     0
281
     0
  0
CLASS
  1
VISUALSTYLE
  2
AcDbVisualStyle
  3
ObjectDBX Classes
 90
     4095
280
     0
281
     0
  0
CLASS
  1
TABLESTYLE
  2
AcDbTableStyle
  3
ObjectDBX Classes
 90
     4095
280
     0
281
     0
  0
CLASS
  1
ACRFATTGENMGR
  2
AcRfAttGeneralMgr
  3
AcAttribServices
 90
        0
280
     0
281
     0
  0
CLASS
  1
ACRFOBJATTMGR
  2
AcRfObjAttGroupMgr
  3
AcAttribServices
 90
        0
280
     0
281
     0
  0
CLASS
  1
ACRFMCADAPIATTHOLDER
  2
AcRfMCADAPIAttHolder
  3
AcAttribServices
 90
        0
280
     0
281
     0
  0
CLASS
  1
AMDTSYSATTR
  2
AmdtSystemAttribute
  3
AcAttribServices
 90
        0
280
     0
281
     0
  0
CLASS
  1
ACMTHREADLINESTANDARDISO
  2
AmdtThreadLineStdISO
  3
"Amdt_StdImp|Product Description: AutoCAD Mechanical|Company: Autodesk"
 90
        0
280
     0
281
     0
  0
CLASS
  1
ACMNOTESTANDARDISO
  2
AmdtNoteStdISO
  3
"Amdt_StdImp|Product Description: AutoCAD Mechanical|Company: Autodesk"
 90
        0
280
     0
281
     0
  0
CLASS
  1
AMDTNOTETEMPLATEDB
  2
AmdtNoteTemplateDB
  3
AMDT_STDIMP_MODULE_NAME
 90
        0
280
     0
281
     0
  0
CLASS
  1
ACMTAPERSTANDARDISO
  2
AcmTaperStdISO
  3
"Amdt_StdImp|Product Description: AutoCAD Mechanical|Company: Autodesk"
 90
        0
280
     0
281
     0
  0
CLASS
  1
ACMTHREADLINESTANDARDANSI
  2
AmdtThreadLineStdANSI
  3
"Amdt_StdImp|Product Description: AutoCAD Mechanical|Company: Autodesk"
 90
        0
280
     0
281
     0
  0
CLASS
  1
ACMNOTESTANDARDANSI
  2
AmdtNoteStdANSI
  3
"Amdt_StdImp|Product Description: AutoCAD Mechanical|Company: Autodesk"
 90
        0
280
     0
281
     0
  0
CLASS
  1
ACMTAPERSTANDARDANSI
  2
AcmTaperStdANSI
  3
"Amdt_StdImp|Product Description: AutoCAD Mechanical|Company: Autodesk"
 90
        0
280
     0
281
     0
  0
CLASS
  1
CAMSSTRUCTBTNSTATE
  2
StructBtnState
  3
L"DesignerAssemblies"
 90
        0
280
     0
281
     0
  0
CLASS
  1
SORTENTSTABLE
  2
AcDbSortentsTable
  3
ObjectDBX Classes
 90
        0
280
     0
281
     0
  0
CLASS
  1
DIMASSOC
  2
AcDbDimAssoc
  3
"AcDbDimAssoc|Product Desc:     AcDim ARX App For Dimension|Company:          Autodesk, Inc.|WEB Address:      www.autodesk.com"
 90
        0
280
     0
281
     0
  0
ENDSEC
  0
SECTION
  2
TABLES
  0
TABLE
  2
VPORT
  5
8
330
0
100
AcDbSymbolTable
 70
     1
  0
VPORT
  5
C444
330
8
100
AcDbSymbolTableRecord
100
AcDbViewportTableRecord
  2
*Active
 70
     0
 10
0.0
 20
0.0
 11
1.0
 21
1.0
 12
3254.778290183007
 22
-2622.223633621996
 13
0.0
 23
0.0
 14
2.5
 24
2.5
 15
10.0
 25
10.0
 16
0.0
 26
0.0
 36
1.0
 17
0.0
 27
0.0
 37
0.0
 40
595.4689108714956
 41
1.281120331950207
 42
50.0
 43
-1370.695619172058
 44
-1370.695619172058
 50
0.0
 51
0.0
 71
    16
 72
   100
 73
     1
 74
     3
 75
     0
 76
     0
 77
     0
 78
     0
281
     0
 65
     0
110
0.0
120
0.0
130
0.0
111
1.0
121
0.0
131
0.0
112
0.0
122
1.0
132
0.0
 79
     0
146
0.0
  0
ENDTAB
  0
TABLE
  2
LTYPE
  5
5
330
0
100
AcDbSymbolTable
 70
    22
  0
LTYPE
  5
14
330
5
100
AcDbSymbolTableRecord
100
AcDbLinetypeTableRecord
  2
ByBlock
 70
     0
  3

 72
    65
 73
     0
 40
0.0
  0
LTYPE
  5
15
330
5
100
AcDbSymbolTableRecord
100
AcDbLinetypeTableRecord
  2
ByLayer
 70
     0
  3

 72
    65
 73
     0
 40
0.0
  0
LTYPE
  5
16
330
5
100
AcDbSymbolTableRecord
100
AcDbLinetypeTableRecord
  2
Continuous
 70
     0
  3
Solid line
 72
    65
 73
     0
 40
0.0
  0
LTYPE
  5
4F
330
5
100
AcDbSymbolTableRecord
100
AcDbLinetypeTableRecord
  2
AM_ISO02W050
 70
     0
  3
__ __ __ __ __ __ __ __ __ __ __ __ __ __ __
 72
    65
 73
     2
 40
7.5
 49
6.0
 74
     0
 49
-1.5
 74
     0
  0
LTYPE
  5
52
330
5
100
AcDbSymbolTableRecord
100
AcDbLinetypeTableRecord
  2
Amconstr
 70
     0
  3
_______________________
 72
    65
 73
     2
 40
9999.0
 49
9999.0
 74
     0
 49
0.0
 74
     0
  0
LTYPE
  5
64
330
5
100
AcDbSymbolTableRecord
100
AcDbLinetypeTableRecord
  2
ACISOWELD
 70
     0
  3
_ _ _ _ _
 72
    65
 73
     2
 40
2.0
 49
2.0
 74
     0
 49
-1.0
 74
     0
  0
LTYPE
  5
65
330
5
100
AcDbSymbolTableRecord
100
AcDbLinetypeTableRecord
  2
ACISOTGB
 70
     0
  3
__ . . __ . .
 72
    65
 73
     6
 40
9.0
 49
4.0
 74
     0
 49
-1.0
 74
     0
 49
1.0
 74
     0
 49
-1.0
 74
     0
 49
1.0
 74
     0
 49
-1.0
 74
     0
  0
LTYPE
  5
66
330
5
100
AcDbSymbolTableRecord
100
AcDbLinetypeTableRecord
  2
ACISOTGL
 70
     0
  3
_ _ _ _ _
 72
    65
 73
     2
 40
3.0
 49
2.0
 74
     0
 49
-1.0
 74
     0
  0
LTYPE
  5
69
330
5
100
AcDbSymbolTableRecord
100
AcDbLinetypeTableRecord
  2
CENTER
 70
     0
  3
__ . __
 72
    65
 73
     4
 40
7.0
 49
4.0
 74
     0
 49
-1.0
 74
     0
 49
1.0
 74
     0
 49
-1.0
 74
     0
  0
LTYPE
  5
A6E
330
5
100
AcDbSymbolTableRecord
100
AcDbLinetypeTableRecord
  2
PHANTOM2
 70
     0
  3
Phantom (.5x) ___ _ _ ___ _ _ ___ _ _ ___ _ _
 72
    65
 73
     6
 40
31.75
 49
15.875
 74
     0
 49
-3.174999999999999
 74
     0
 49
3.174999999999999
 74
     0
 49
-3.174999999999999
 74
     0
 49
3.174999999999999
 74
     0
 49
-3.174999999999999
 74
     0
  0
LTYPE
  5
FA3
330
5
100
AcDbSymbolTableRecord
100
AcDbLinetypeTableRecord
  2
ACANSTGB
 70
     0
  3
__ . . __ . .
 72
    65
 73
     6
 40
0.35433070866
 49
0.15748031496
 74
     0
 49
-0.03937007874
 74
     0
 49
0.03937007874
 74
     0
 49
-0.03937007874
 74
     0
 49
0.03937007874
 74
     0
 49
-0.03937007874
 74
     0
  0
LTYPE
  5
FA4
330
5
100
AcDbSymbolTableRecord
100
AcDbLinetypeTableRecord
  2
ACANSTGL
 70
     0
  3
_ _ _ _ _
 72
    65
 73
     2
 40
0.11811023622
 49
0.07874015748
 74
     0
 49
-0.03937007874
 74
     0
  0
LTYPE
  5
4DED
330
5
100
AcDbSymbolTableRecord
100
AcDbLinetypeTableRecord
  2
中線
 70
     0
  3
___________________
 72
    65
 73
     2
 40
2.0
 49
1.0
 74
     0
 49
1.0
 74
     0
  0
LTYPE
  5
4DF6
330
5
100
AcDbSymbolTableRecord
100
AcDbLinetypeTableRecord
  2
細線
 70
     0
  3
___________________
 72
    65
 73
     2
 40
2.0
 49
1.0
 74
     0
 49
1.0
 74
     0
  0
LTYPE
  5
4DF7
330
5
100
AcDbSymbolTableRecord
100
AcDbLinetypeTableRecord
  2
太線
 70
     0
  3
___________________
 72
    65
 73
     2
 40
2.0
 49
1.0
 74
     0
 49
1.0
 74
     0
  0
LTYPE
  5
4EA7
330
5
100
AcDbSymbolTableRecord
100
AcDbLinetypeTableRecord
  2
文字
 70
     0
  3
_________________
 72
    65
 73
     2
 40
2.0
 49
1.0
 74
     0
 49
1.0
 74
     0
  0
LTYPE
  5
4EA9
330
5
100
AcDbSymbolTableRecord
100
AcDbLinetypeTableRecord
  2
寸法線
 70
     0
  3
________________
 72
    65
 73
     2
 40
2.0
 49
1.0
 74
     0
 49
1.0
 74
     0
  0
LTYPE
  5
4F12
330
5
100
AcDbSymbolTableRecord
100
AcDbLinetypeTableRecord
  2
ハッチング
 70
     0
  3
_________________
 72
    65
 73
     2
 40
2.0
 49
1.0
 74
     0
 49
1.0
 74
     0
  0
LTYPE
  5
5180
330
5
100
AcDbSymbolTableRecord
100
AcDbLinetypeTableRecord
  2
陰線1
 70
     0
  3
__ __ __ __
 72
    65
 73
     2
 40
4.0
 49
2.2
 74
     0
 49
-1.8
 74
     0
  0
LTYPE
  5
5182
330
5
100
AcDbSymbolTableRecord
100
AcDbLinetypeTableRecord
  2
切断線
 70
     0
  3
/\/-/\/-/\/-/\/-/\/-/\/
 72
    65
 73
     2
 40
11.0001
 49
0.0001
 74
     4
 75
   135
340
56
 46
0.04
 50
0.0
 44
0.0
 45
0.0
 49
-11.0
 74
     0
  0
LTYPE
  5
5183
330
5
100
AcDbSymbolTableRecord
100
AcDbLinetypeTableRecord
  2
想像線1
 70
     0
  3
__ __ __ _____ __ __ ____
 72
    65
 73
     6
 40
14.5
 49
6.0
 74
     0
 49
-1.5
 74
     0
 49
2.0
 74
     0
 49
-1.5
 74
     0
 49
2.0
 74
     0
 49
-1.5
 74
     0
  0
LTYPE
  5
5185
330
5
100
AcDbSymbolTableRecord
100
AcDbLinetypeTableRecord
  2
中心線1
 70
     0
  3
___ _ ___ _ ___
 72
    65
 73
     4
 40
18.0
 49
12.0
 74
     0
 49
-2.0
 74
     0
 49
2.0
 74
     0
 49
-2.0
 74
     0
  0
LTYPE
  5
5188
330
5
100
AcDbSymbolTableRecord
100
AcDbLinetypeTableRecord
  2
補助線
 70
     0
  3
______________
 72
    65
 73
     2
 40
2.0
 49
1.0
 74
     0
 49
1.0
 74
     0
  0
LTYPE
  5
C49C
330
5
100
AcDbSymbolTableRecord
100
AcDbLinetypeTableRecord
  2
HIDDEN
 70
     0
  3
Hidden __ __ __ __ __ __ __ __ __ __ __ __ __ _
 72
    65
 73
     2
 40
9.524999999999998
 49
6.349999999999999
 74
     0
 49
-3.174999999999999
 74
     0
  0
ENDTAB
  0
TABLE
  2
LAYER
  5
2
102
{ACAD_XDICTIONARY
360
3F95
102
}
330
0
100
AcDbSymbolTable
 70
    10
  0
LAYER
  5
10
330
2
100
AcDbSymbolTableRecord
100
AcDbLayerTableRecord
  2
0
 70
     0
 62
     7
  6
Continuous
370
    -3
390
F
  0
LAYER
  5
6D1
330
2
100
AcDbSymbolTableRecord
100
AcDbLayerTableRecord
  2
Defpoints
 70
     0
 62
     7
  6
Continuous
290
     0
370
    -3
390
F
  0
LAYER
  5
A46
330
2
100
AcDbSymbolTableRecord
100
AcDbLayerTableRecord
  2
size
 70
     0
 62
     5
  6
Continuous
290
     0
370
    30
390
F
  0
LAYER
  5
A47
330
2
100
AcDbSymbolTableRecord
100
AcDbLayerTableRecord
  2
waku
 70
     0
 62
     7
  6
Continuous
370
    40
390
F
  0
LAYER
  5
A48
330
2
100
AcDbSymbolTableRecord
100
AcDbLayerTableRecord
  2
AM_6
 70
     0
 62
     2
  6
文字
370
    20
390
F
  0
LAYER
  5
5F85
330
2
100
AcDbSymbolTableRecord
100
AcDbLayerTableRecord
  2
AM_0
 70
     0
 62
     7
  6
中線
370
    30
390
F
  0
LAYER
  5
5F89
330
2
100
AcDbSymbolTableRecord
100
AcDbLayerTableRecord
  2
AM_4
 70
     0
 62
     3
  6
補助線
370
    20
390
F
  0
LAYER
  5
BFAB
330
2
100
AcDbSymbolTableRecord
100
AcDbLayerTableRecord
  2
AM_5
 70
     0
 62
     3
  6
寸法線
370
    18
390
F
  0
LAYER
  5
494E2
330
2
100
AcDbSymbolTableRecord
100
AcDbLayerTableRecord
  2
000鈴木検図
 70
     0
 62
     1
  6
中線
370
    40
390
F
1001
AcAecLayerStandard
1000

1000

  0
LAYER
  5
4A292
330
2
100
AcDbSymbolTableRecord
100
AcDbLayerTableRecord
  2
0部品6
 70
     0
 62
    13
  6
細線
370
    30
390
F
1001
AcAecLayerStandard
1000

1000

  0
ENDTAB
  0
TABLE
  2
STYLE
  5
3
330
0
100
AcDbSymbolTable
 70
     8
  0
STYLE
  5
11
330
3
100
AcDbSymbolTableRecord
100
AcDbTextStyleTableRecord
  2
STANDARD
 70
     0
 40
0.0
 41
0.7
 50
0.0
 71
     0
 42
3.5
  3
romans.shx
  4
extfont.shx
  0
STYLE
  5
56
330
3
100
AcDbSymbolTableRecord
100
AcDbTextStyleTableRecord
  2

 70
     1
 40
0.0
 41
1.0
 50
0.0
 71
     0
 42
2.5
  3
ltypeshp.shx
  4

  0
STYLE
  5
58
330
3
100
AcDbSymbolTableRecord
100
AcDbTextStyleTableRecord
  2
ACISOTS
 70
     0
 40
1.0
 41
1.0
 50
0.0
 71
     0
 42
2.5
  3
isocp.shx
  4
extfont.shx
  0
STYLE
  5
63
330
3
100
AcDbSymbolTableRecord
100
AcDbTextStyleTableRecord
  2
ACISOGDT
 70
     0
 40
0.0
 41
1.0
 50
0.0
 71
     0
 42
2.5
  3
amgdt.shx
  4

  0
STYLE
  5
A74
330
3
100
AcDbSymbolTableRecord
100
AcDbTextStyleTableRecord
  2
DIM
 70
     0
 40
0.0
 41
1.0
 50
0.0
 71
     0
 42
2.5
  3
monotxt.shx
  4
extfont.shx
  0
STYLE
  5
FA7
330
3
100
AcDbSymbolTableRecord
100
AcDbTextStyleTableRecord
  2
ACANSTS
 70
     0
 40
1.0
 41
1.0
 50
0.0
 71
     0
 42
0.2
  3
romans.shx
  4
extfont.shx
  0
STYLE
  5
FA8
330
3
100
AcDbSymbolTableRecord
100
AcDbTextStyleTableRecord
  2
ACANSGDT
 70
     0
 40
0.0
 41
1.0
 50
0.0
 71
     0
 42
0.2
  3
amgdtans.shx
  4

  0
ENDTAB
  0
TABLE
  2
VIEW
  5
6
330
0
100
AcDbSymbolTable
 70
     6
  0
VIEW
  5
AE1
330
6
100
AcDbSymbolTableRecord
100
AcDbViewTableRecord
  2
AM_VIEW1
 70
     0
 40
52.5
 10
2210.154925218148
 20
-2451.622216979716
 41
83.75147928994101
 11
0.0
 21
0.0
 31
1.0
 12
0.0
 22
0.0
 32
0.0
 42
50.0
 43
-1370.695619172058
 44
-1370.695619172058
 50
0.0
 71
    16
281
     0
 72
     0
  0
VIEW
  5
AE2
330
6
100
AcDbSymbolTableRecord
100
AcDbViewTableRecord
  2
AM_VIEW2
 70
     0
 40
52.5
 10
2274.903445928207
 20
-2451.622216979716
 41
83.75147928994101
 11
0.0
 21
0.0
 31
1.0
 12
0.0
 22
0.0
 32
0.0
 42
50.0
 43
-1370.695619172058
 44
-1370.695619172058
 50
0.0
 71
    16
281
     0
 72
     0
  0
VIEW
  5
AE3
330
6
100
AcDbSymbolTableRecord
100
AcDbViewTableRecord
  2
AM_VIEW3
 70
     0
 40
52.5
 10
2210.154925218148
 20
-2504.122216979716
 41
83.75147928994101
 11
0.0
 21
0.0
 31
1.0
 12
0.0
 22
0.0
 32
0.0
 42
50.0
 43
-1370.695619172058
 44
-1370.695619172058
 50
0.0
 71
    16
281
     0
 72
     0
  0
VIEW
  5
AE4
330
6
100
AcDbSymbolTableRecord
100
AcDbViewTableRecord
  2
AM_VIEW4
 70
     0
 40
52.5
 10
2274.903445928207
 20
-2504.122216979716
 41
83.75147928994101
 11
0.0
 21
0.0
 31
1.0
 12
0.0
 22
0.0
 32
0.0
 42
50.0
 43
-1370.695619172058
 44
-1370.695619172058
 50
0.0
 71
    16
281
     0
 72
     0
  0
VIEW
  5
AE5
330
6
100
AcDbSymbolTableRecord
100
AcDbViewTableRecord
  2
AM_VIEW5
 70
     0
 40
52.5
 10
2242.529185573177
 20
-2477.872216979716
 41
83.75147928994101
 11
0.0
 21
0.0
 31
1.0
 12
0.0
 22
0.0
 32
0.0
 42
50.0
 43
-1370.695619172058
 44
-1370.695619172058
 50
0.0
 71
    16
281
     0
 72
     0
  0
VIEW
  5
AE6
330
6
100
AcDbSymbolTableRecord
100
AcDbViewTableRecord
  2
AM_VIEW6
 70
     0
 40
104.9989500000001
 10
2242.529185573177
 20
-2477.872216979716
 41
167.5012835502957
 11
0.0
 21
0.0
 31
1.0
 12
0.0
 22
0.0
 32
0.0
 42
50.0
 43
-1370.695619172058
 44
-1370.695619172058
 50
0.0
 71
    16
281
     0
 72
     0
  0
ENDTAB
  0
TABLE
  2
UCS
  5
7
330
0
100
AcDbSymbolTable
 70
     0
  0
ENDTAB
  0
TABLE
  2
APPID
  5
9
330
0
100
AcDbSymbolTable
 70
    63
  0
APPID
  5
12
330
9
100
AcDbSymbolTableRecord
100
AcDbRegAppTableRecord
  2
ACAD
 70
     0
  0
APPID
  5
30
330
9
100
AcDbSymbolTableRecord
100
AcDbRegAppTableRecord
  2
MCAD_NO_VIS
 70
     0
  0
APPID
  5
31
330
9
100
AcDbSymbolTableRecord
100
AcDbRegAppTableRecord
  2
ACAD_TEMP_GRAPHIC
 70
     0
  0
APPID
  5
44
330
9
100
AcDbSymbolTableRecord
100
AcDbRegAppTableRecord
  2
ACATTRIBSERVICES
 70
     0
  0
APPID
  5
7A1
330
9
100
AcDbSymbolTableRecord
100
AcDbRegAppTableRecord
  2
GENIUS_GENDIMSH_14
 70
     0
  0
APPID
  5
A49
330
9
100
AcDbSymbolTableRecord
100
AcDbRegAppTableRecord
  2
GENIUS_GENREC_14
 70
     0
  0
APPID
  5
A4A
330
9
100
AcDbSymbolTableRecord
100
AcDbRegAppTableRecord
  2
GENIUS_GENOBJ-N-REC_13
 70
     0
  0
APPID
  5
A4B
330
9
100
AcDbSymbolTableRecord
100
AcDbRegAppTableRecord
  2
GENIUS_GENODEF_13
 70
     0
  0
APPID
  5
A4C
330
9
100
AcDbSymbolTableRecord
100
AcDbRegAppTableRecord
  2
DCO15
 70
     0
  0
APPID
  5
ADC
330
9
100
AcDbSymbolTableRecord
100
AcDbRegAppTableRecord
  2
GENIUS_GENOLIS_13
 70
     0
  0
APPID
  5
ADD
330
9
100
AcDbSymbolTableRecord
100
AcDbRegAppTableRecord
  2
GENIUS_GENOENT_13
 70
     0
  0
APPID
  5
ADE
330
9
100
AcDbSymbolTableRecord
100
AcDbRegAppTableRecord
  2
GENIUS_GENOBJ-N-TIT_13
 70
     0
  0
APPID
  5
ADF
330
9
100
AcDbSymbolTableRecord
100
AcDbRegAppTableRecord
  2
GENIUS_GENTITLE_13
 70
     0
  0
APPID
  5
AE0
330
9
100
AcDbSymbolTableRecord
100
AcDbRegAppTableRecord
  2
GENIUS_GENOREF_13
 70
     0
  0
APPID
  5
AE7
330
9
100
AcDbSymbolTableRecord
100
AcDbRegAppTableRecord
  2
GENIUS_GENSCREG_15
 70
     0
  0
APPID
  5
AE8
330
9
100
AcDbSymbolTableRecord
100
AcDbRegAppTableRecord
  2
GENIUS_GENOBJ-N-SDF_13
 70
     0
  0
APPID
  5
FAF
330
9
100
AcDbSymbolTableRecord
100
AcDbRegAppTableRecord
  2
GENIUS_GENBLLY_14
 70
     0
  0
APPID
  5
FB0
330
9
100
AcDbSymbolTableRecord
100
AcDbRegAppTableRecord
  2
GENIUS_GENTRA_14
 70
     0
  0
APPID
  5
1285
330
9
100
AcDbSymbolTableRecord
100
AcDbRegAppTableRecord
  2
GENIUS_GENDTOL_13
 70
     0
  0
APPID
  5
142D
330
9
100
AcDbSymbolTableRecord
100
AcDbRegAppTableRecord
  2
GENIUS_GENOBJ-N-CEN_13
 70
     0
  0
APPID
  5
1AB5
330
9
100
AcDbSymbolTableRecord
100
AcDbRegAppTableRecord
  2
GENIUS_GENOBJ-N-CRS_13
 70
     0
  0
APPID
  5
1B36
330
9
100
AcDbSymbolTableRecord
100
AcDbRegAppTableRecord
  2
GENIUS_GENOBJ-N-HTC_13
 70
     0
  0
APPID
  5
1B37
330
9
100
AcDbSymbolTableRecord
100
AcDbRegAppTableRecord
  2
GENIUS_GENHATCH_13
 70
     0
  0
APPID
  5
216D
330
9
100
AcDbSymbolTableRecord
100
AcDbRegAppTableRecord
  2
GENIUS_GENOBJ-N-FIL_13
 70
     0
  0
APPID
  5
2356
330
9
100
AcDbSymbolTableRecord
100
AcDbRegAppTableRecord
  2
GEVID990412420
 70
     0
  0
APPID
  5
2357
330
9
100
AcDbSymbolTableRecord
100
AcDbRegAppTableRecord
  2
GEVDC
 70
     0
  0
APPID
  5
2358
330
9
100
AcDbSymbolTableRecord
100
AcDbRegAppTableRecord
  2
GEVCON
 70
     0
  0
APPID
  5
235B
330
9
100
AcDbSymbolTableRecord
100
AcDbRegAppTableRecord
  2
GEVRADREF
 70
     0
  0
APPID
  5
2360
330
9
100
AcDbSymbolTableRecord
100
AcDbRegAppTableRecord
  2
GENIUS_GENBH_13
 70
     0
  0
APPID
  5
2362
330
9
100
AcDbSymbolTableRecord
100
AcDbRegAppTableRecord
  2
GENIUS_GENOBJ-NBEHI-BHF_13
 70
     0
  0
APPID
  5
2364
330
9
100
AcDbSymbolTableRecord
100
AcDbRegAppTableRecord
  2
GENIUS_GENOBJ-NBEHI-BHB_13
 70
     0
  0
APPID
  5
2379
330
9
100
AcDbSymbolTableRecord
100
AcDbRegAppTableRecord
  2
GENIUS_GENOBJ-F-SCPASSM_13
 70
     0
  0
APPID
  5
3D74
330
9
100
AcDbSymbolTableRecord
100
AcDbRegAppTableRecord
  2
GENIUS_GENDIM_13
 70
     0
  0
APPID
  5
3D76
330
9
100
AcDbSymbolTableRecord
100
AcDbRegAppTableRecord
  2
GENIUS_GE3DTOL_13
 70
     0
  0
APPID
  5
3D9C
330
9
100
AcDbSymbolTableRecord
100
AcDbRegAppTableRecord
  2
AD_DRAW
 70
     0
  0
APPID
  5
3DE8
330
9
100
AcDbSymbolTableRecord
100
AcDbRegAppTableRecord
  2
ASURF_PCURVE_APPNAME
 70
     0
  0
APPID
  5
3DED
330
9
100
AcDbSymbolTableRecord
100
AcDbRegAppTableRecord
  2
AMG_3D2D_5.0
 70
     0
  0
APPID
  5
3E1B
330
9
100
AcDbSymbolTableRecord
100
AcDbRegAppTableRecord
  2
DESIGNERASSEMBLIES
 70
     0
  0
APPID
  5
3E20
330
9
100
AcDbSymbolTableRecord
100
AcDbRegAppTableRecord
  2
ACADM_DIM_EDIT
 70
     0
  0
APPID
  5
3E21
330
9
100
AcDbSymbolTableRecord
100
AcDbRegAppTableRecord
  2
AMDT_DM_ADJ
 70
     0
  0
APPID
  5
4143
330
9
100
AcDbSymbolTableRecord
100
AcDbRegAppTableRecord
  2
GENIUS_GENFIL_13
 70
     0
  0
APPID
  5
4144
330
9
100
AcDbSymbolTableRecord
100
AcDbRegAppTableRecord
  2
GENIUS_GENOBJ-N-CHA_13
 70
     0
  0
APPID
  5
4E17
330
9
100
AcDbSymbolTableRecord
100
AcDbRegAppTableRecord
  2
GEVID1008153417
 70
     0
  0
APPID
  5
4E58
330
9
100
AcDbSymbolTableRecord
100
AcDbRegAppTableRecord
  2
GEVID1008153418
 70
     0
  0
APPID
  5
4E5E
330
9
100
AcDbSymbolTableRecord
100
AcDbRegAppTableRecord
  2
GEVID1008153419
 70
     0
  0
APPID
  5
4E64
330
9
100
AcDbSymbolTableRecord
100
AcDbRegAppTableRecord
  2
GEVID1008153420
 70
     0
  0
APPID
  5
4E75
330
9
100
AcDbSymbolTableRecord
100
AcDbRegAppTableRecord
  2
GEVID1008153421
 70
     0
  0
APPID
  5
4EB7
330
9
100
AcDbSymbolTableRecord
100
AcDbRegAppTableRecord
  2
GENIUS_AMGTXT_16
 70
     0
  0
APPID
  5
7645
330
9
100
AcDbSymbolTableRecord
100
AcDbRegAppTableRecord
  2
GENIUS_GENOBJ-N-DIM_13
 70
     0
  0
APPID
  5
C5F0
330
9
100
AcDbSymbolTableRecord
100
AcDbRegAppTableRecord
  2
GENIUS_GENCEN_19
 70
     0
  0
APPID
  5
C5FB
330
9
100
AcDbSymbolTableRecord
100
AcDbRegAppTableRecord
  2
ACAD_DSTYLE_DIMJOGGED_JOGANGLE_SYMBOL
 70
     0
  0
APPID
  5
C5FC
330
9
100
AcDbSymbolTableRecord
100
AcDbRegAppTableRecord
  2
ACAD_PSEXT
 70
     0
  0
APPID
  5
CA37
330
9
100
AcDbSymbolTableRecord
100
AcDbRegAppTableRecord
  2
AcAecLayerStandard
 70
     0
  0
APPID
  5
DCF9
330
9
100
AcDbSymbolTableRecord
100
AcDbRegAppTableRecord
  2
ACAD_EXEMPT_FROM_CAD_STANDARDS
 70
     0
  0
APPID
  5
2A0EB
330
9
100
AcDbSymbolTableRecord
100
AcDbRegAppTableRecord
  2
GEVID1271841997
 70
     0
  0
APPID
  5
2A23A
330
9
100
AcDbSymbolTableRecord
100
AcDbRegAppTableRecord
  2
GEVID1271841998
 70
     0
  0
APPID
  5
2B34C
330
9
100
AcDbSymbolTableRecord
100
AcDbRegAppTableRecord
  2
GEVID1271896698
 70
     0
  0
APPID
  5
2B499
330
9
100
AcDbSymbolTableRecord
100
AcDbRegAppTableRecord
  2
GEVID1271896699
 70
     0
  0
APPID
  5
2B543
330
9
100
AcDbSymbolTableRecord
100
AcDbRegAppTableRecord
  2
GEVID1271896700
 70
     0
  0
APPID
  5
40168
330
9
100
AcDbSymbolTableRecord
100
AcDbRegAppTableRecord
  2
GEVID1273127365
 70
     0
  0
APPID
  5
40271
330
9
100
AcDbSymbolTableRecord
100
AcDbRegAppTableRecord
  2
GEVID1273127366
 70
     0
  0
APPID
  5
498AC
330
9
100
AcDbSymbolTableRecord
100
AcDbRegAppTableRecord
  2
GENIUS_GEFINERT_13
 70
     0
  0
APPID
  5
498DF
330
9
100
AcDbSymbolTableRecord
100
AcDbRegAppTableRecord
  2
GENIUS_GENOBJ-F-INER_13
 70
     0
  0
ENDTAB
  0
TABLE
  2
DIMSTYLE
  5
A
330
0
100
AcDbSymbolTable
 70
    26
100
AcDbDimStyleTable
 71
     5
340
2515
340
251A
340
251B
340
6C
340
FA9
  0
DIMSTYLE
105
6C
330
A
100
AcDbSymbolTableRecord
100
AcDbDimStyleTableRecord
  2
AM_ISO
 70
     0
  4
"
 41
2.5
 42
1.0
 43
10.0
 44
1.0
 47
0.1
 48
0.1
 73
     0
 74
     0
 77
     1
 78
     8
 79
     2
140
3.5
141
0.0
143
0.0393701
146
0.71
147
1.5
172
     1
176
   256
177
   256
178
     2
271
     2
272
     3
274
     4
283
     0
284
     8
340
11
371
    -1
372
    -1
  0
DIMSTYLE
105
6D
330
A
100
AcDbSymbolTableRecord
100
AcDbDimStyleTableRecord
  2
AM_ISO$3
 70
     0
  4
"
 41
0.8
 42
1.0
 43
10.0
 44
1.0
 47
0.1
 48
0.1
 73
     0
 77
     1
 78
     8
 79
     2
140
3.2
141
0.0
143
0.0393701
146
0.71
147
0.9999999999999996
176
   256
177
   256
178
     2
271
     2
272
     2
283
     0
284
     8
288
     1
289
     0
340
11
342
6C4
371
    -1
372
    -1
  0
DIMSTYLE
105
6E
330
A
100
AcDbSymbolTableRecord
100
AcDbDimStyleTableRecord
  2
AM_ISO$4
 70
     0
  4
"
 41
0.8
 42
1.0
 43
10.0
 44
1.0
 47
0.1
 48
0.1
 73
     0
 77
     1
 78
     8
 79
     2
140
3.2
141
0.0
143
0.0393701
146
0.71
147
1.0
173
     1
176
   256
177
   256
178
     2
271
     2
272
     2
283
     0
284
     8
288
     1
289
     0
340
11
344
6C4
371
    -1
372
    -1
  0
DIMSTYLE
105
6F
330
A
100
AcDbSymbolTableRecord
100
AcDbDimStyleTableRecord
  2
AM_ISO$6
 70
     0
  4
"
 41
0.8
 42
1.0
 43
10.0
 44
1.0
 47
0.1
 48
0.1
 73
     0
 74
     0
 78
     8
 79
     2
140
3.2
141
0.0
143
0.0393701
146
0.71
147
1.0
172
     1
176
   256
177
   256
178
     2
271
     2
272
     2
283
     0
284
     8
340
11
341
6C4
371
    -1
372
    -1
  0
DIMSTYLE
105
70
330
A
100
AcDbSymbolTableRecord
100
AcDbDimStyleTableRecord
  2
AM_ISO$7
 70
     0
  4
"
 41
0.8
 42
1.0
 43
10.0
 44
1.0
 47
0.1
 48
0.1
 73
     0
 74
     0
 77
     1
 78
     8
 79
     2
140
3.2
141
0.0
143
0.0393701
146
0.71
147
1.0
172
     1
176
   256
177
   256
178
     2
271
     2
272
     2
283
     0
284
     8
340
11
341
6C4
342
6C4
371
    -1
372
    -1
  0
DIMSTYLE
105
71
330
A
100
AcDbSymbolTableRecord
100
AcDbDimStyleTableRecord
  2
AM_ISO$SF
 70
     0
  4
"
 41
0.8
 42
1.0
 43
10.0
 44
1.0
 47
0.1
 48
0.1
 73
     0
 74
     0
 75
     1
 76
     1
 77
     1
 78
     8
 79
     2
140
3.2
141
0.0
143
0.0393701
146
0.71
147
1.0
172
     1
176
   256
177
   256
178
     2
271
     2
272
     2
283
     0
284
     8
340
11
341
6C4
342
6C4
371
    -1
372
    -1
  0
DIMSTYLE
105
76
330
A
100
AcDbSymbolTableRecord
100
AcDbDimStyleTableRecord
  2
AM_ISO$SH
 70
     0
  4
"
 41
0.8
 42
1.0
 43
10.0
 44
1.0
 47
0.1
 48
0.1
 73
     0
 74
     0
 75
     1
 76
     1
 77
     1
 78
     8
 79
     2
140
3.2
141
0.0
143
0.0393701
144
2.0
146
0.71
147
1.0
172
     1
176
   256
177
   256
178
     2
271
     2
272
     2
283
     0
284
     8
340
11
341
6C4
342
6C4
371
    -1
372
    -1
  0
DIMSTYLE
105
6BE
102
{ACAD_REACTORS
330
4A74F
330
4A752
330
4A755
330
4A758
330
4A7E6
102
}
330
A
100
AcDbSymbolTableRecord
100
AcDbDimStyleTableRecord
  2
AM_ISO$0
 70
     0
  4
"
 41
0.8
 42
1.0
 43
10.0
 44
1.0
 47
0.1
 48
0.1
 73
     0
 74
     0
 77
     1
 78
     8
 79
     2
140
3.2
141
0.0
143
0.0393701
146
0.71
147
0.9999999999999996
172
     1
176
   256
177
   256
178
     2
271
     2
272
     2
283
     0
284
     8
340
11
341
6C4
342
6C4
371
    -1
372
    -1
  0
DIMSTYLE
105
6BF
330
A
100
AcDbSymbolTableRecord
100
AcDbDimStyleTableRecord
  2
AM_ISO$2
 70
     0
  4
"
 41
0.8
 42
1.0
 43
10.0
 44
1.0
 47
0.1
 48
0.1
 73
     0
 74
     0
 77
     3
 78
     8
 79
     2
140
3.200000000000001
141
0.0
143
0.0393701
146
0.71
147
0.9999999999999996
172
     1
176
   256
177
   256
178
     2
271
     2
272
     2
283
     0
284
     8
340
11
342
6C4
371
    -1
372
    -1
  0
DIMSTYLE
105
A76
330
A
100
AcDbSymbolTableRecord
100
AcDbDimStyleTableRecord
  2
STANDARD
 70
     0
 41
3.0
 42
1.0
 43
7.0
 44
2.0
 73
     0
 74
     0
 77
     1
140
2.799999999999999
141
0.0
143
0.0394
147
0.7
171
     4
172
     1
173
     1
176
     3
177
     3
178
     2
271
     3
272
     3
273
     8
274
     4
289
     0
340
A74
341
A66
343
A66
344
A66
  0
DIMSTYLE
105
FA9
330
A
100
AcDbSymbolTableRecord
100
AcDbDimStyleTableRecord
  2
AM_ANSI
 70
     0
  4
mm
 41
0.1
 42
0.05
 43
0.5
 44
0.1
 47
0.1
 48
0.1
 78
     7
 79
     2
140
0.12
141
0.0
146
0.71
147
0.06
176
   256
177
   256
178
     2
274
     4
284
     7
340
11
371
    -1
372
    -1
  0
DIMSTYLE
105
FAA
330
A
100
AcDbSymbolTableRecord
100
AcDbDimStyleTableRecord
  2
AM_ANSI$3
 70
     0
  4
mm
 41
0.1
 42
0.05
 43
0.5
 44
0.1
 47
0.1
 48
0.1
 78
     7
 79
     2
140
0.12
141
0.0
146
0.71
147
0.06
176
   256
177
   256
178
     2
274
     4
284
     7
288
     1
289
     0
340
11
371
    -1
372
    -1
  0
DIMSTYLE
105
FAB
330
A
100
AcDbSymbolTableRecord
100
AcDbDimStyleTableRecord
  2
AM_ANSI$4
 70
     0
  4
mm
 41
0.1
 42
0.05
 43
0.5
 44
0.1
 47
0.1
 48
0.1
 78
     7
 79
     2
140
0.12
141
0.0
146
0.71
147
0.06
176
   256
177
   256
178
     2
274
     4
284
     7
288
     1
289
     0
340
11
371
    -1
372
    -1
  0
DIMSTYLE
105
FAC
330
A
100
AcDbSymbolTableRecord
100
AcDbDimStyleTableRecord
  2
AM_ANSI$7
 70
     0
  4
mm
 41
0.1
 42
0.05
 43
0.5
 44
0.1
 47
0.1
 48
0.1
 78
     7
 79
     2
140
0.24
141
0.0
146
0.71
147
0.06
176
   256
177
   256
178
     2
274
     4
284
     7
340
11
371
    -1
372
    -1
  0
DIMSTYLE
105
FAD
330
A
100
AcDbSymbolTableRecord
100
AcDbDimStyleTableRecord
  2
AM_ANSI$SF
 70
     0
  4
mm
 41
0.1
 42
0.05
 43
0.5
 44
0.1
 47
0.1
 48
0.1
 75
     1
 76
     1
 78
     7
 79
     2
140
0.12
141
0.0
146
0.71
147
0.06
176
   256
177
   256
178
     2
274
     4
284
     7
340
11
371
    -1
372
    -1
  0
DIMSTYLE
105
FAE
330
A
100
AcDbSymbolTableRecord
100
AcDbDimStyleTableRecord
  2
AM_ANSI$SH
 70
     0
  4
mm
 41
0.1
 42
0.05
 43
0.5
 44
0.1
 47
0.1
 48
0.1
 75
     1
 76
     1
 78
     7
 79
     2
140
0.12
141
0.0
146
0.71
147
0.06
173
     1
176
   256
177
   256
178
     2
274
     4
284
     7
340
11
343
72
371
    -1
372
    -1
  0
DIMSTYLE
105
2515
330
A
100
AcDbSymbolTableRecord
100
AcDbDimStyleTableRecord
  2
SYS
 70
     0
  4
"
 41
2.5
 42
1.0
 43
10.0
 44
1.0
 47
0.1
 48
0.1
 73
     0
 74
     0
 77
     1
 78
     8
 79
     2
140
3.5
141
0.0
143
0.0393701
146
0.71
147
1.5
172
     1
176
   256
177
   256
178
     7
271
     2
272
     3
274
     4
283
     0
284
     8
340
11
371
    -1
372
    -1
  0
DIMSTYLE
105
2516
330
A
100
AcDbSymbolTableRecord
100
AcDbDimStyleTableRecord
  2
SYS$3
 70
     0
  4
"
 41
2.0
 42
1.0
 43
10.0
 44
1.0
 47
0.1
 48
0.1
 73
     0
 77
     1
 78
     8
 79
     2
140
3.200000000000001
141
0.0
143
0.0393701
146
0.71
147
0.9999999999999996
176
   256
177
   256
178
     2
271
     1
272
     1
283
     0
284
     8
288
     1
340
11
342
A66
371
    -1
372
    -1
  0
DIMSTYLE
105
2517
330
A
100
AcDbSymbolTableRecord
100
AcDbDimStyleTableRecord
  2
SYS$4
 70
     0
  4
"
 41
2.0
 42
1.0
 43
10.0
 44
1.0
 47
0.1
 48
0.1
 73
     0
 77
     1
 78
     8
 79
     2
140
3.2
141
0.0
143
0.0393701
146
0.71
147
0.9999999999999996
173
     1
176
   256
177
   256
178
     2
271
     2
272
     2
283
     0
284
     8
288
     1
340
11
344
A66
371
    -1
372
    -1
  0
DIMSTYLE
105
2518
330
A
100
AcDbSymbolTableRecord
100
AcDbDimStyleTableRecord
  2
SYS$6
 70
     0
  4
"
 41
2.0
 42
1.5
 43
10.0
 44
1.0
 47
0.1
 48
0.1
 73
     0
 74
     0
 78
     8
 79
     2
140
3.2
141
0.0
143
0.0393701
146
0.71
147
0.9999999999999996
172
     1
176
   256
177
   256
178
     2
271
     2
272
     2
283
     0
284
     8
340
11
341
A66
371
    -1
372
    -1
  0
DIMSTYLE
105
2519
330
A
100
AcDbSymbolTableRecord
100
AcDbDimStyleTableRecord
  2
SYS$7
 70
     0
  4
"
 41
2.0
 42
1.5
 43
10.0
 44
1.0
 47
0.1
 48
0.1
 73
     0
 74
     0
 77
     1
 78
     8
 79
     2
140
3.2
141
0.0
143
0.0393701
146
0.71
147
0.9999999999999996
172
     1
176
   256
177
   256
178
     2
271
     2
272
     2
283
     0
284
     8
340
11
341
A66
342
A66
371
    -1
372
    -1
  0
DIMSTYLE
105
251A
330
A
100
AcDbSymbolTableRecord
100
AcDbDimStyleTableRecord
  2
SYS$SF
 70
     0
  4
"
 41
1.0
 42
1.0
 43
10.0
 44
1.0
 47
0.1
 48
0.1
 73
     0
 74
     0
 75
     1
 76
     1
 77
     1
 78
     8
 79
     2
140
3.2
141
0.0
143
0.0393701
146
0.71
147
0.9999999999999996
172
     1
176
   256
177
   256
178
     2
271
     2
272
     2
283
     0
284
     8
340
11
341
6C4
342
6C4
371
    -1
372
    -1
  0
DIMSTYLE
105
251B
330
A
100
AcDbSymbolTableRecord
100
AcDbDimStyleTableRecord
  2
SYS$SH
 70
     0
  4
"
 41
1.0
 42
1.0
 43
10.0
 44
1.0
 47
0.1
 48
0.1
 73
     0
 74
     0
 75
     1
 76
     1
 77
     1
 78
     8
 79
     2
140
3.2
141
0.0
143
0.0393701
144
2.0
146
0.71
147
0.9999999999999996
172
     1
173
     1
176
   256
177
   256
178
     2
271
     2
272
     2
283
     0
284
     8
340
11
341
6C4
343
72
344
6C4
371
    -1
372
    -1
  0
DIMSTYLE
105
2A59
330
A
100
AcDbSymbolTableRecord
100
AcDbDimStyleTableRecord
  2
SYS$2
 70
     0
  4
"
 41
1.0
 42
1.5
 43
10.0
 44
1.0
 47
0.1
 48
0.1
 73
     0
 74
     0
 77
     1
 78
     8
 79
     2
140
3.2
141
0.0
143
0.0393701
146
0.71
147
0.9999999999999996
172
     1
176
   256
177
   256
178
     2
271
     2
272
     2
283
     0
284
     8
340
11
342
6C4
371
    -1
372
    -1
  0
DIMSTYLE
105
2AAB
330
A
100
AcDbSymbolTableRecord
100
AcDbDimStyleTableRecord
  2
SYS$0
 70
     0
  4
"
 41
1.0
 42
1.499999999999999
 43
10.0
 44
1.0
 47
0.1
 48
0.1
 73
     0
 74
     0
 77
     1
 78
     8
 79
     2
140
3.2
141
0.0
143
0.0393701
146
0.71
147
0.9999999999999996
172
     1
176
   256
177
   256
178
     2
271
     1
272
     1
283
     0
284
     8
340
11
341
A66
342
6C4
371
    -1
372
    -1
  0
ENDTAB
  0
TABLE
  2
BLOCK_RECORD
  5
1
330
0
100
AcDbSymbolTable
 70
    11
  0
BLOCK_RECORD
  5
1F
102
{ACAD_XDICTIONARY
360
8A
102
}
330
1
100
AcDbSymbolTableRecord
100
AcDbBlockTableRecord
  2
*Model_Space
340
22
  0
BLOCK_RECORD
  5
1B
330
1
100
AcDbSymbolTableRecord
100
AcDbBlockTableRecord
  2
*Paper_Space
340
1E
  0
BLOCK_RECORD
  5
23
330
1
100
AcDbSymbolTableRecord
100
AcDbBlockTableRecord
  2
*Paper_Space0
340
26
  0
BLOCK_RECORD
  5
72
330
1
100
AcDbSymbolTableRecord
100
AcDbBlockTableRecord
  2
GENAXEH
340
0
  0
BLOCK_RECORD
  5
6C4
330
1
100
AcDbSymbolTableRecord
100
AcDbBlockTableRecord
  2
_Dot
340
0
102
{BLKREFS
331
4A93B
331
4A93C
331
4A947
331
4A948
331
4A961
331
4A962
331
4A96C
331
4A96D
331
4AE1F
331
4AE20
102
}
  0
BLOCK_RECORD
  5
A66
330
1
100
AcDbSymbolTableRecord
100
AcDbBlockTableRecord
  2
_OPEN30
340
0
  0
BLOCK_RECORD
  5
4A91F
330
1
100
AcDbSymbolTableRecord
100
AcDbBlockTableRecord
  2
*D5
340
0
  0
BLOCK_RECORD
  5
4A937
330
1
100
AcDbSymbolTableRecord
100
AcDbBlockTableRecord
  2
*D6
340
0
  0
BLOCK_RECORD
  5
4A943
330
1
100
AcDbSymbolTableRecord
100
AcDbBlockTableRecord
  2
*D7
340
0
  0
BLOCK_RECORD
  5
4A94F
330
1
100
AcDbSymbolTableRecord
100
AcDbBlockTableRecord
  2
*D8
340
0
  0
BLOCK_RECORD
  5
4A95B
330
1
100
AcDbSymbolTableRecord
100
AcDbBlockTableRecord
  2
*D9
340
0
  0
ENDTAB
  0
ENDSEC
  0
SECTION
  2
BLOCKS
  0
BLOCK
  5
20
330
1F
100
AcDbEntity
  8
0
100
AcDbBlockBegin
  2
*Model_Space
 70
     0
 10
0.0
 20
0.0
 30
0.0
  3
*Model_Space
  1

  0
ENDBLK
  5
21
330
1F
100
AcDbEntity
  8
0
100
AcDbBlockEnd
  0
BLOCK
  5
1C
330
1B
100
AcDbEntity
 67
     1
  8
0
100
AcDbBlockBegin
  2
*Paper_Space
 70
     0
 10
0.0
 20
0.0
 30
0.0
  3
*Paper_Space
  1

  0
ENDBLK
  5
1D
330
1B
100
AcDbEntity
 67
     1
  8
0
100
AcDbBlockEnd
  0
BLOCK
  5
24
330
23
100
AcDbEntity
 67
     1
  8
0
100
AcDbBlockBegin
  2
*Paper_Space0
 70
     0
 10
0.0
 20
0.0
 30
0.0
  3
*Paper_Space0
  1

  0
ENDBLK
  5
25
330
23
100
AcDbEntity
 67
     1
  8
0
100
AcDbBlockEnd
  0
BLOCK
  5
74
330
72
100
AcDbEntity
  8
0
100
AcDbBlockBegin
  2
GENAXEH
 70
     0
 10
0.0
 20
0.0
 30
0.0
  3
GENAXEH
  1

  0
LINE
  5
73
330
72
100
AcDbEntity
  8
0
100
AcDbLine
 10
-1.0
 20
0.0
 30
0.0
 11
1.0
 21
0.0
 31
0.0
  0
ENDBLK
  5
75
330
72
100
AcDbEntity
  8
0
100
AcDbBlockEnd
  0
BLOCK
  5
6C7
330
6C4
100
AcDbEntity
  8
0
100
AcDbBlockBegin
  2
_Dot
 70
     0
 10
0.0
 20
0.0
 30
0.0
  3
_Dot
  1

  0
LWPOLYLINE
  5
6C5
330
6C4
100
AcDbEntity
  8
0
  6
ByBlock
 62
     0
100
AcDbPolyline
 90
        2
 70
     1
 43
0.5
 10
-0.25
 20
0.0
 42
1.0
 10
0.25
 20
0.0
 42
1.0
  0
LINE
  5
6C6
330
6C4
100
AcDbEntity
  8
0
  6
ByBlock
 62
     0
370
    -2
100
AcDbLine
 10
-0.5
 20
0.0
 30
0.0
 11
-1.0
 21
0.0
 31
0.0
  0
ENDBLK
  5
6C8
330
6C4
100
AcDbEntity
  8
0
100
AcDbBlockEnd
  0
BLOCK
  5
A6A
330
A66
100
AcDbEntity
  8
0
100
AcDbBlockBegin
  2
_OPEN30
 70
     0
 10
0.0
 20
0.0
 30
0.0
  3
_OPEN30
  1

  0
LINE
  5
A67
330
A66
100
AcDbEntity
  8
0
  6
ByBlock
 62
     0
100
AcDbLine
 10
-1.0
 20
0.26794919
 30
0.0
 11
0.0
 21
0.0
 31
0.0
  0
LINE
  5
A68
330
A66
100
AcDbEntity
  8
0
  6
ByBlock
 62
     0
100
AcDbLine
 10
0.0
 20
0.0
 30
0.0
 11
-1.0
 21
-0.26794919
 31
0.0
  0
LINE
  5
A69
330
A66
100
AcDbEntity
  8
0
  6
ByBlock
 62
     0
100
AcDbLine
 10
0.0
 20
0.0
 30
0.0
 11
-1.0
 21
0.0
 31
0.0
  0
ENDBLK
  5
A6B
330
A66
100
AcDbEntity
  8
0
100
AcDbBlockEnd
  0
BLOCK
  5
4A929
330
4A91F
100
AcDbEntity
  8
0
100
AcDbBlockBegin
  2
*D5
 70
     1
 10
0.0
 20
0.0
 30
0.0
  3
*D5
  1

  0
LINE
  5
4A969
330
4A91F
100
AcDbEntity
  8
AM_5
100
AcDbLine
 10
3210.717151267863
 20
-2669.729484932819
 30
0.0
 11
3182.067151267862
 21
-2669.729484932819
 31
0.0
  0
LINE
  5
4A96A
330
4A91F
100
AcDbEntity
  8
AM_5
100
AcDbLine
 10
3210.717151267863
 20
-2649.729484932819
 30
0.0
 11
3182.067151267862
 21
-2649.729484932819
 31
0.0
  0
LINE
  5
4A96B
330
4A91F
100
AcDbEntity
  8
AM_5
100
AcDbLine
 10
3183.067151267862
 20
-2668.72948493282
 30
0.0
 11
3183.067151267862
 21
-2650.729484932819
 31
0.0
  0
INSERT
  5
4A96C
330
4A91F
100
AcDbEntity
  8
AM_5
100
AcDbBlockReference
  2
_Dot
 10
3183.067151267862
 20
-2669.729484932819
 30
0.0
 50
270.0
  0
INSERT
  5
4A96D
330
4A91F
100
AcDbEntity
  8
AM_5
100
AcDbBlockReference
  2
_Dot
 10
3183.067151267862
 20
-2649.729484932819
 30
0.0
 50
90.0
  0
MTEXT
  5
4A96E
330
4A91F
100
AcDbEntity
  8
AM_5
 62
     2
100
AcDbMText
 10
3180.467151267863
 20
-2659.72948493282
 30
0.0
 40
3.2
 41
0.0
 71
     5
 72
     1
  1
C
 11
0.0000000000000001
 21
1.0
 31
0.0
 73
     1
 44
1.0
1001
ACAD
1000
MTEXTBEGIN
1070
    73
1070
     1
1070
    44
1040
1.0
1070
    74
1070
     0
1000
MTEXTEND
  0
POINT
  5
4A96F
330
4A91F
100
AcDbEntity
  8
Defpoints
 62
     0
100
AcDbPoint
 10
3211.717151267863
 20
-2669.729484932819
 30
0.0
  0
POINT
  5
4A970
330
4A91F
100
AcDbEntity
  8
Defpoints
 62
     0
100
AcDbPoint
 10
3211.717151267863
 20
-2649.729484932819
 30
0.0
  0
POINT
  5
4A971
330
4A91F
100
AcDbEntity
  8
Defpoints
 62
     0
100
AcDbPoint
 10
3183.067151267862
 20
-2649.729484932819
 30
0.0
  0
ENDBLK
  5
4A92A
330
4A91F
100
AcDbEntity
  8
0
100
AcDbBlockEnd
  0
BLOCK
  5
4A941
330
4A937
100
AcDbEntity
  8
0
100
AcDbBlockBegin
  2
*D6
 70
     1
 10
0.0
 20
0.0
 30
0.0
  3
*D6
  1

  0
LINE
  5
4A938
330
4A937
100
AcDbEntity
  8
AM_5
100
AcDbLine
 10
3190.067151267863
 20
-2729.729484932819
 30
0.0
 11
3174.067151267863
 21
-2729.729484932819
 31
0.0
  0
LINE
  5
4A939
330
4A937
100
AcDbEntity
  8
AM_5
100
AcDbLine
 10
3190.067151267863
 20
-2584.729484932819
 30
0.0
 11
3174.067151267863
 21
-2584.729484932819
 31
0.0
  0
LINE
  5
4A93A
330
4A937
100
AcDbEntity
  8
AM_5
100
AcDbLine
 10
3175.067151267862
 20
-2728.729484932819
 30
0.0
 11
3175.067151267862
 21
-2585.729484932819
 31
0.0
  0
INSERT
  5
4A93B
330
4A937
100
AcDbEntity
  8
AM_5
100
AcDbBlockReference
  2
_Dot
 10
3175.067151267862
 20
-2729.729484932819
 30
0.0
 50
270.0
  0
INSERT
  5
4A93C
330
4A937
100
AcDbEntity
  8
AM_5
100
AcDbBlockReference
  2
_Dot
 10
3175.067151267862
 20
-2584.729484932819
 30
0.0
 50
90.0
  0
MTEXT
  5
4A93D
330
4A937
100
AcDbEntity
  8
AM_5
 62
     2
100
AcDbMText
 10
3172.467151267863
 20
-2657.229484932819
 30
0.0
 40
3.2
 41
0.0
 71
     5
 72
     1
  1
A
 11
0.0000000000000001
 21
1.0
 31
0.0
 73
     1
 44
1.0
1001
ACAD
1000
MTEXTBEGIN
1070
    73
1070
     1
1070
    44
1040
1.0
1070
    74
1070
     0
1000
MTEXTEND
  0
POINT
  5
4A93E
330
4A937
100
AcDbEntity
  8
Defpoints
 62
     0
100
AcDbPoint
 10
3191.067151267863
 20
-2729.729484932819
 30
0.0
  0
POINT
  5
4A93F
330
4A937
100
AcDbEntity
  8
Defpoints
 62
     0
100
AcDbPoint
 10
3191.067151267863
 20
-2584.729484932819
 30
0.0
  0
POINT
  5
4A940
330
4A937
100
AcDbEntity
  8
Defpoints
 62
     0
100
AcDbPoint
 10
3175.067151267862
 20
-2584.729484932819
 30
0.0
  0
ENDBLK
  5
4A942
330
4A937
100
AcDbEntity
  8
0
100
AcDbBlockEnd
  0
BLOCK
  5
4A94D
330
4A943
100
AcDbEntity
  8
0
100
AcDbBlockBegin
  2
*D7
 70
     1
 10
0.0
 20
0.0
 30
0.0
  3
*D7
  1

  0
LINE
  5
4A944
330
4A943
100
AcDbEntity
  8
AM_5
100
AcDbLine
 10
3191.067151267863
 20
-2583.729484932819
 30
0.0
 11
3191.067151267863
 21
-2575.729484932819
 31
0.0
  0
LINE
  5
4A945
330
4A943
100
AcDbEntity
  8
AM_5
100
AcDbLine
 10
3241.067151267863
 20
-2583.729484932819
 30
0.0
 11
3241.067151267863
 21
-2575.729484932819
 31
0.0
  0
LINE
  5
4A946
330
4A943
100
AcDbEntity
  8
AM_5
100
AcDbLine
 10
3192.067151267863
 20
-2576.729484932819
 30
0.0
 11
3240.067151267863
 21
-2576.729484932819
 31
0.0
  0
INSERT
  5
4A947
330
4A943
100
AcDbEntity
  8
AM_5
100
AcDbBlockReference
  2
_Dot
 10
3191.067151267863
 20
-2576.729484932819
 30
0.0
 50
180.0
  0
INSERT
  5
4A948
330
4A943
100
AcDbEntity
  8
AM_5
100
AcDbBlockReference
  2
_Dot
 10
3241.067151267863
 20
-2576.729484932819
 30
0.0
  0
MTEXT
  5
4A949
330
4A943
100
AcDbEntity
  8
AM_5
 62
     2
100
AcDbMText
 10
3216.067151267863
 20
-2574.129484932819
 30
0.0
 40
3.2
 41
0.0
 71
     5
 72
     1
  1
B
 73
     1
 44
1.0
1001
ACAD
1000
MTEXTBEGIN
1070
    73
1070
     1
1070
    44
1040
1.0
1070
    74
1070
     0
1000
MTEXTEND
  0
POINT
  5
4A94A
330
4A943
100
AcDbEntity
  8
Defpoints
 62
     0
100
AcDbPoint
 10
3191.067151267863
 20
-2584.729484932819
 30
0.0
  0
POINT
  5
4A94B
330
4A943
100
AcDbEntity
  8
Defpoints
 62
     0
100
AcDbPoint
 10
3241.067151267863
 20
-2584.729484932819
 30
0.0
  0
POINT
  5
4A94C
330
4A943
100
AcDbEntity
  8
Defpoints
 62
     0
100
AcDbPoint
 10
3241.067151267863
 20
-2576.729484932819
 30
0.0
  0
ENDBLK
  5
4A94E
330
4A943
100
AcDbEntity
  8
0
100
AcDbBlockEnd
  0
BLOCK
  5
4A959
330
4A94F
100
AcDbEntity
  8
0
100
AcDbBlockBegin
  2
*D8
 70
     1
 10
0.0
 20
0.0
 30
0.0
  3
*D8
  1

  0
LINE
  5
4AE1A
330
4A94F
100
AcDbEntity
  8
AM_5
100
AcDbLine
 10
3214.317151267863
 20
-2756.470302187329
 30
0.0
 11
3214.317151267863
 21
-2745.120302187328
 31
0.0
  0
LINE
  5
4AE1B
330
4A94F
100
AcDbEntity
  8
AM_5
100
AcDbLine
 10
3217.817151267863
 20
-2756.470302187329
 30
0.0
 11
3217.817151267863
 21
-2745.120302187328
 31
0.0
  0
LINE
  5
4AE1C
330
4A94F
100
AcDbEntity
  8
AM_5
100
AcDbLine
 10
3213.317151267863
 20
-2746.120302187328
 30
0.0
 11
3212.317151267863
 21
-2746.120302187328
 31
0.0
  0
LINE
  5
4AE1D
330
4A94F
100
AcDbEntity
  8
AM_5
100
AcDbLine
 10
3218.817151267863
 20
-2746.120302187328
 30
0.0
 11
3219.817151267863
 21
-2746.120302187328
 31
0.0
  0
LINE
  5
4AE1E
330
4A94F
100
AcDbEntity
  8
AM_5
100
AcDbLine
 10
3214.317151267863
 20
-2746.120302187328
 30
0.0
 11
3217.817151267863
 21
-2746.120302187328
 31
0.0
  0
INSERT
  5
4AE1F
330
4A94F
100
AcDbEntity
  8
AM_5
100
AcDbBlockReference
  2
_Dot
 10
3214.317151267863
 20
-2746.120302187328
 30
0.0
  0
INSERT
  5
4AE20
330
4A94F
100
AcDbEntity
  8
AM_5
100
AcDbBlockReference
  2
_Dot
 10
3217.817151267863
 20
-2746.120302187328
 30
0.0
 50
180.0
  0
MTEXT
  5
4AE21
330
4A94F
100
AcDbEntity
  8
AM_5
 62
     2
100
AcDbMText
 10
3216.067151267863
 20
-2743.520302187328
 30
0.0
 40
3.2
 41
0.0
 71
     5
 72
     1
  1
%%cE
 73
     1
 44
1.0
1001
ACAD
1000
MTEXTBEGIN
1070
    73
1070
     1
1070
    44
1040
1.0
1070
    74
1070
     0
1000
MTEXTEND
  0
POINT
  5
4AE22
330
4A94F
100
AcDbEntity
  8
Defpoints
 62
     0
100
AcDbPoint
 10
3214.317151267863
 20
-2757.470302187329
 30
0.0
  0
POINT
  5
4AE23
330
4A94F
100
AcDbEntity
  8
Defpoints
 62
     0
100
AcDbPoint
 10
3217.817151267863
 20
-2757.470302187329
 30
0.0
  0
POINT
  5
4AE24
330
4A94F
100
AcDbEntity
  8
Defpoints
 62
     0
100
AcDbPoint
 10
3217.817151267863
 20
-2746.120302187328
 30
0.0
  0
ENDBLK
  5
4A95A
330
4A94F
100
AcDbEntity
  8
0
100
AcDbBlockEnd
  0
BLOCK
  5
4A967
330
4A95B
100
AcDbEntity
  8
0
100
AcDbBlockBegin
  2
*D9
 70
     1
 10
0.0
 20
0.0
 30
0.0
  3
*D9
  1

  0
LINE
  5
4A95C
330
4A95B
100
AcDbEntity
  8
AM_5
100
AcDbLine
 10
3190.067151267863
 20
-2760.820302187329
 30
0.0
 11
3182.06715126786
 21
-2760.820302187329
 31
0.0
  0
LINE
  5
4A95D
330
4A95B
100
AcDbEntity
  8
AM_5
100
AcDbLine
 10
3190.067151267863
 20
-2759.220302187328
 30
0.0
 11
3182.06715126786
 21
-2759.220302187328
 31
0.0
  0
LINE
  5
4A95E
330
4A95B
100
AcDbEntity
  8
AM_5
100
AcDbLine
 10
3183.067151267861
 20
-2758.220302187329
 30
0.0
 11
3183.067151267861
 21
-2757.220302187329
 31
0.0
  0
LINE
  5
4A95F
330
4A95B
100
AcDbEntity
  8
AM_5
100
AcDbLine
 10
3183.067151267861
 20
-2761.820302187329
 30
0.0
 11
3183.067151267861
 21
-2766.313635520663
 31
0.0
  0
LINE
  5
4A960
330
4A95B
100
AcDbEntity
  8
AM_5
100
AcDbLine
 10
3183.067151267861
 20
-2759.220302187328
 30
0.0
 11
3183.067151267861
 21
-2760.820302187329
 31
0.0
  0
INSERT
  5
4A961
330
4A95B
100
AcDbEntity
  8
AM_5
100
AcDbBlockReference
  2
_Dot
 10
3183.067151267861
 20
-2759.220302187328
 30
0.0
 50
270.0
  0
INSERT
  5
4A962
330
4A95B
100
AcDbEntity
  8
AM_5
100
AcDbBlockReference
  2
_Dot
 10
3183.067151267861
 20
-2760.820302187329
 30
0.0
 50
90.0
  0
MTEXT
  5
4A963
330
4A95B
100
AcDbEntity
  8
AM_5
 62
     2
100
AcDbMText
 10
3180.467151267861
 20
-2764.566968853995
 30
0.0
 40
3.2
 41
0.0
 71
     5
 72
     1
  1
D
 11
0.0000000000000001
 21
1.0
 31
0.0
 73
     1
 44
1.0
1001
ACAD
1000
MTEXTBEGIN
1070
    73
1070
     1
1070
    44
1040
1.0
1070
    74
1070
     0
1000
MTEXTEND
  0
POINT
  5
4A964
330
4A95B
100
AcDbEntity
  8
Defpoints
 62
     0
100
AcDbPoint
 10
3191.067151267863
 20
-2760.820302187329
 30
0.0
  0
POINT
  5
4A965
330
4A95B
100
AcDbEntity
  8
Defpoints
 62
     0
100
AcDbPoint
 10
3191.067151267863
 20
-2759.220302187328
 30
0.0
  0
POINT
  5
4A966
330
4A95B
100
AcDbEntity
  8
Defpoints
 62
     0
100
AcDbPoint
 10
3183.067151267861
 20
-2759.220302187328
 30
0.0
  0
ENDBLK
  5
4A968
330
4A95B
100
AcDbEntity
  8
0
100
AcDbBlockEnd
  0
ENDSEC
  0
SECTION
  2
ENTITIES
  0
LINE
  5
4A6E6
330
1F
100
AcDbEntity
  8
size
100
AcDbLine
 10
3071.855134068313
 20
-2788.80623164443
 30
0.0
 11
3491.855134068313
 21
-2788.80623164443
 31
0.0
1001
GENIUS_GENREC_14
1002
{
1000
PYDIR
1011
3071.855134068313
1021
-2491.80623164443
1031
0.0
1002
}
1002
{
1000
PXDIR
1011
3491.855134068313
1021
-2788.80623164443
1031
0.0
1002
}
1002
{
1000
PORI
1011
3071.855134068313
1021
-2788.80623164443
1031
0.0
1002
}
1002
{
1000
PINS
1011
3281.855134068313
1021
-2640.306231644431
1031
0.0
1002
}
1002
{
1000
HVAL
1000
297
1002
}
1002
{
1000
H
1070
     2
1002
}
1002
{
1000
WVAL
1000
420
1002
}
1002
{
1000
W
1070
     2
1002
}
1002
{
1000
C
1070
     4
1002
}
1001
GENIUS_GENOBJ-N-REC_13
1002
{
1000
OWNER
1000
GEN
1002
}
1001
GENIUS_GENODEF_13
1002
{
1000
HIER
1070
     0
1002
}
1002
{
1000
MANEDIT
1070
     0
1002
}
1002
{
1000
NOSEL
1070
     0
1002
}
1002
{
1000
BEHIND
1070
     0
1002
}
1002
{
1000
OTHER
1070
     0
1002
}
1002
{
1000
REACTOR
1002
}
  0
LINE
  5
4A6E7
330
1F
100
AcDbEntity
  8
size
100
AcDbLine
 10
3491.855134068313
 20
-2788.80623164443
 30
0.0
 11
3491.855134068313
 21
-2491.80623164443
 31
0.0
1001
GENIUS_GENREC_14
1002
{
1000
PYDIR
1011
3071.855134068313
1021
-2491.80623164443
1031
0.0
1002
}
1002
{
1000
PXDIR
1011
3491.855134068313
1021
-2788.80623164443
1031
0.0
1002
}
1002
{
1000
PORI
1011
3071.855134068313
1021
-2788.80623164443
1031
0.0
1002
}
1002
{
1000
PINS
1011
3281.855134068313
1021
-2640.306231644431
1031
0.0
1002
}
1002
{
1000
HVAL
1000
297
1002
}
1002
{
1000
H
1070
     2
1002
}
1002
{
1000
WVAL
1000
420
1002
}
1002
{
1000
W
1070
     2
1002
}
1002
{
1000
C
1070
     4
1002
}
1001
GENIUS_GENOBJ-N-REC_13
1002
{
1000
OWNER
1000
GEN
1002
}
1001
GENIUS_GENODEF_13
1002
{
1000
HIER
1070
     0
1002
}
1002
{
1000
MANEDIT
1070
     0
1002
}
1002
{
1000
NOSEL
1070
     0
1002
}
1002
{
1000
BEHIND
1070
     0
1002
}
1002
{
1000
OTHER
1070
     0
1002
}
1002
{
1000
REACTOR
1002
}
  0
LINE
  5
4A6E8
330
1F
100
AcDbEntity
  8
size
100
AcDbLine
 10
3491.855134068313
 20
-2491.80623164443
 30
0.0
 11
3071.855134068313
 21
-2491.80623164443
 31
0.0
1001
GENIUS_GENREC_14
1002
{
1000
PYDIR
1011
3071.855134068313
1021
-2491.80623164443
1031
0.0
1002
}
1002
{
1000
PXDIR
1011
3491.855134068313
1021
-2788.80623164443
1031
0.0
1002
}
1002
{
1000
PORI
1011
3071.855134068313
1021
-2788.80623164443
1031
0.0
1002
}
1002
{
1000
PINS
1011
3281.855134068313
1021
-2640.306231644431
1031
0.0
1002
}
1002
{
1000
HVAL
1000
297
1002
}
1002
{
1000
H
1070
     2
1002
}
1002
{
1000
WVAL
1000
420
1002
}
1002
{
1000
W
1070
     2
1002
}
1002
{
1000
C
1070
     4
1002
}
1001
GENIUS_GENOBJ-N-REC_13
1002
{
1000
OWNER
1000
GEN
1002
}
1001
GENIUS_GENODEF_13
1002
{
1000
HIER
1070
     0
1002
}
1002
{
1000
MANEDIT
1070
     0
1002
}
1002
{
1000
NOSEL
1070
     0
1002
}
1002
{
1000
BEHIND
1070
     0
1002
}
1002
{
1000
OTHER
1070
     0
1002
}
1002
{
1000
REACTOR
1002
}
  0
LINE
  5
4A6E9
330
1F
100
AcDbEntity
  8
size
100
AcDbLine
 10
3071.855134068313
 20
-2491.80623164443
 30
0.0
 11
3071.855134068313
 21
-2788.80623164443
 31
0.0
1001
GENIUS_GENREC_14
1002
{
1000
PYDIR
1011
3071.855134068313
1021
-2491.80623164443
1031
0.0
1002
}
1002
{
1000
PXDIR
1011
3491.855134068313
1021
-2788.80623164443
1031
0.0
1002
}
1002
{
1000
PORI
1011
3071.855134068313
1021
-2788.80623164443
1031
0.0
1002
}
1002
{
1000
PINS
1011
3281.855134068313
1021
-2640.306231644431
1031
0.0
1002
}
1002
{
1000
HVAL
1000
297
1002
}
1002
{
1000
H
1070
     2
1002
}
1002
{
1000
WVAL
1000
420
1002
}
1002
{
1000
W
1070
     2
1002
}
1002
{
1000
C
1070
     4
1002
}
1001
GENIUS_GENOBJ-N-REC_13
1002
{
1000
OWNER
1000
GEN
1002
}
1001
GENIUS_GENODEF_13
1002
{
1000
HIER
1070
     0
1002
}
1002
{
1000
MANEDIT
1070
     0
1002
}
1002
{
1000
NOSEL
1070
     0
1002
}
1002
{
1000
BEHIND
1070
     0
1002
}
1002
{
1000
OTHER
1070
     0
1002
}
1002
{
1000
REACTOR
1002
}
  0
LINE
  5
4A6EA
330
1F
100
AcDbEntity
  8
waku
100
AcDbLine
 10
3480.355134068312
 20
-2780.306231644431
 30
0.0
 11
3480.355134068313
 21
-2500.30623164443
 31
0.0
1001
GENIUS_GENREC_14
1002
{
1000
PYDIR
1011
3071.855134068313
1021
-2491.80623164443
1031
0.0
1002
}
1002
{
1000
PXDIR
1011
3491.855134068313
1021
-2788.80623164443
1031
0.0
1002
}
1002
{
1000
PORI
1011
3071.855134068313
1021
-2788.80623164443
1031
0.0
1002
}
1002
{
1000
PINS
1011
3281.855134068313
1021
-2640.306231644431
1031
0.0
1002
}
1002
{
1000
HVAL
1000
297
1002
}
1002
{
1000
H
1070
     2
1002
}
1002
{
1000
WVAL
1000
420
1002
}
1002
{
1000
W
1070
     2
1002
}
1002
{
1000
C
1070
     4
1002
}
1001
GENIUS_GENOBJ-N-REC_13
1002
{
1000
OWNER
1000
GEN
1002
}
1001
GENIUS_GENODEF_13
1002
{
1000
HIER
1070
     0
1002
}
1002
{
1000
MANEDIT
1070
     0
1002
}
1002
{
1000
NOSEL
1070
     0
1002
}
1002
{
1000
BEHIND
1070
     0
1002
}
1002
{
1000
OTHER
1070
     0
1002
}
1002
{
1000
REACTOR
1002
}
  0
LINE
  5
4A6EB
330
1F
100
AcDbEntity
  8
waku
100
AcDbLine
 10
3083.355134068313
 20
-2500.30623164443
 30
0.0
 11
3083.355134068312
 21
-2780.306231644428
 31
0.0
1001
GENIUS_GENREC_14
1002
{
1000
PYDIR
1011
3071.855134068313
1021
-2491.80623164443
1031
0.0
1002
}
1002
{
1000
PXDIR
1011
3491.855134068313
1021
-2788.80623164443
1031
0.0
1002
}
1002
{
1000
PORI
1011
3071.855134068313
1021
-2788.80623164443
1031
0.0
1002
}
1002
{
1000
PINS
1011
3281.855134068313
1021
-2640.306231644431
1031
0.0
1002
}
1002
{
1000
HVAL
1000
297
1002
}
1002
{
1000
H
1070
     2
1002
}
1002
{
1000
WVAL
1000
420
1002
}
1002
{
1000
W
1070
     2
1002
}
1002
{
1000
C
1070
     4
1002
}
1001
GENIUS_GENOBJ-N-REC_13
1002
{
1000
OWNER
1000
GEN
1002
}
1001
GENIUS_GENODEF_13
1002
{
1000
HIER
1070
     0
1002
}
1002
{
1000
MANEDIT
1070
     0
1002
}
1002
{
1000
NOSEL
1070
     0
1002
}
1002
{
1000
BEHIND
1070
     0
1002
}
1002
{
1000
OTHER
1070
     0
1002
}
1002
{
1000
REACTOR
1002
}
  0
LINE
  5
4A6EC
330
1F
100
AcDbEntity
  8
waku
100
AcDbLine
 10
3480.355134068313
 20
-2500.30623164443
 30
0.0
 11
3083.355134068313
 21
-2500.30623164443
 31
0.0
1001
GENIUS_GENREC_14
1002
{
1000
PYDIR
1011
3071.855134068313
1021
-2491.80623164443
1031
0.0
1002
}
1002
{
1000
PXDIR
1011
3491.855134068313
1021
-2788.80623164443
1031
0.0
1002
}
1002
{
1000
PORI
1011
3071.855134068313
1021
-2788.80623164443
1031
0.0
1002
}
1002
{
1000
PINS
1011
3281.855134068313
1021
-2640.306231644431
1031
0.0
1002
}
1002
{
1000
HVAL
1000
297
1002
}
1002
{
1000
H
1070
     2
1002
}
1002
{
1000
WVAL
1000
420
1002
}
1002
{
1000
W
1070
     2
1002
}
1002
{
1000
C
1070
     4
1002
}
1001
GENIUS_GENOBJ-N-REC_13
1002
{
1000
OWNER
1000
GEN
1002
}
1001
GENIUS_GENODEF_13
1002
{
1000
HIER
1070
     0
1002
}
1002
{
1000
MANEDIT
1070
     0
1002
}
1002
{
1000
NOSEL
1070
     0
1002
}
1002
{
1000
BEHIND
1070
     0
1002
}
1002
{
1000
OTHER
1070
     0
1002
}
1002
{
1000
REACTOR
1002
}
  0
LINE
  5
4A6ED
330
1F
100
AcDbEntity
  8
waku
100
AcDbLine
 10
3083.355134068313
 20
-2780.306231644431
 30
0.0
 11
3480.355134068312
 21
-2780.306231644431
 31
0.0
  0
LINE
  5
4A706
330
1F
100
AcDbEntity
  8
AM_0
100
AcDbLine
 10
3103.355134068312
 20
-2500.30623164443
 30
0.0
 11
3103.355134068312
 21
-2556.306231644429
 31
0.0
  0
LINE
  5
4A707
330
1F
100
AcDbEntity
  8
AM_4
100
AcDbLine
 10
3083.355134068313
 20
-2508.30623164443
 30
0.0
 11
3193.355134068313
 21
-2508.30623164443
 31
0.0
  0
LINE
  5
4A708
330
1F
100
AcDbEntity
  8
AM_4
100
AcDbLine
 10
3083.355134068313
 20
-2516.30623164443
 30
0.0
 11
3193.355134068313
 21
-2516.30623164443
 31
0.0
  0
LINE
  5
4A709
330
1F
100
AcDbEntity
  8
AM_4
100
AcDbLine
 10
3083.355134068313
 20
-2524.30623164443
 30
0.0
 11
3193.355134068313
 21
-2524.30623164443
 31
0.0
  0
LINE
  5
4A70A
330
1F
100
AcDbEntity
  8
AM_4
100
AcDbLine
 10
3083.355134068313
 20
-2540.306231644429
 30
0.0
 11
3193.355134068313
 21
-2540.306231644429
 31
0.0
  0
LINE
  5
4A70B
330
1F
100
AcDbEntity
  8
AM_0
100
AcDbLine
 10
3083.355134068313
 20
-2500.30623164443
 30
0.0
 11
3083.355134068313
 21
-2556.306231644429
 31
0.0
  0
LINE
  5
4A70C
330
1F
100
AcDbEntity
  8
AM_0
100
AcDbLine
 10
3083.355134068313
 20
-2500.30623164443
 30
0.0
 11
3193.355134068313
 21
-2500.30623164443
 31
0.0
  0
LINE
  5
4A70D
330
1F
100
AcDbEntity
  8
AM_0
100
AcDbLine
 10
3193.355134068313
 20
-2500.30623164443
 30
0.0
 11
3193.355134068313
 21
-2556.306231644429
 31
0.0
  0
LINE
  5
4A70E
330
1F
100
AcDbEntity
  8
AM_4
100
AcDbLine
 10
3083.355134068313
 20
-2548.306231644429
 30
0.0
 11
3193.355134068313
 21
-2548.306231644429
 31
0.0
  0
LINE
  5
4A70F
330
1F
100
AcDbEntity
  8
AM_0
100
AcDbLine
 10
3083.355134068313
 20
-2556.306231644429
 30
0.0
 11
3193.355134068313
 21
-2556.306231644429
 31
0.0
  0
TEXT
  5
4A710
330
1F
100
AcDbEntity
  8
AM_6
100
AcDbText
 10
3089.012134068312
 20
-2505.906231644431
 30
0.0
 40
3.2
  1
品　名
 41
0.85537027
100
AcDbText
  0
TEXT
  5
4A711
330
1F
100
AcDbEntity
  8
AM_6
100
AcDbText
 10
3089.012134068312
 20
-2513.906231644431
 30
0.0
 40
3.2
  1
品　番
 41
0.85537027
100
AcDbText
  0
TEXT
  5
4A712
330
1F
100
AcDbEntity
  8
AM_6
100
AcDbText
 10
3089.012134068312
 20
-2521.906231644431
 30
0.0
 40
3.2
  1
材　質
 41
0.85537027
100
AcDbText
  0
TEXT
  5
4A713
330
1F
100
AcDbEntity
  8
AM_6
100
AcDbText
 10
3089.012134068312
 20
-2529.906231644431
 30
0.0
 40
3.2
  1
仕上げ
 41
0.85537027
100
AcDbText
  0
TEXT
  5
4A714
330
1F
100
AcDbEntity
  8
AM_6
100
AcDbText
 10
3085.812134068313
 20
-2553.906231644431
 30
0.0
 40
3.2
  1
セットビス
 41
0.84892707
100
AcDbText
  0
TEXT
  5
4A715
330
1F
100
AcDbEntity
  8
AM_6
100
AcDbText
 10
3087.412134068312
 20
-2545.906231644431
 30
0.0
 40
3.2
  1
左右勝手
 41
0.8512700499999999
100
AcDbText
  0
MTEXT
  5
4A716
330
1F
100
AcDbEntity
  8
AM_6
100
AcDbMText
 10
3103.355134068312
 20
-2504.30623164443
 30
0.0
 40
3.2
 41
90.0
 71
     4
 72
     5
  1
　　長丁番
 73
     1
 44
1.0
1001
ACAD
1000
MTEXTBEGIN
1070
    73
1070
     1
1070
    44
1040
1.0
1070
    74
1070
     0
1000
MTEXTEND
  0
MTEXT
  5
4A717
330
1F
100
AcDbEntity
  8
AM_6
100
AcDbMText
 10
3103.355134068312
 20
-2512.30623164443
 30
0.0
 40
3.2
 41
90.0
 71
     4
 72
     5
  1
　　DEH-26 ／ DEH-26S
 73
     1
 44
1.0
1001
ACAD
1000
MTEXTBEGIN
1070
    73
1070
     1
1070
    44
1040
1.0
1070
    74
1070
     0
1000
MTEXTEND
  0
MTEXT
  5
4A718
330
1F
100
AcDbEntity
  8
AM_6
100
AcDbMText
 10
3103.355134068312
 20
-2520.30623164443
 30
0.0
 40
3.2
 41
90.0
 71
     4
 72
     5
  1
　　表参照
 73
     1
 44
1.0
1001
ACAD
1000
MTEXTBEGIN
1070
    73
1070
     1
1070
    44
1040
1.0
1070
    74
1070
     0
1000
MTEXTEND
  0
MTEXT
  5
4A719
330
1F
100
AcDbEntity
  8
AM_6
100
AcDbMText
 10
3103.355134068312
 20
-2528.30623164443
 30
0.0
 40
3.2
 41
90.0
 71
     4
 72
     5
  1
　　ステンレス：鏡面
 73
     1
 44
1.0
1001
ACAD
1000
MTEXTBEGIN
1070
    73
1070
     1
1070
    44
1040
1.0
1070
    74
1070
     0
1000
MTEXTEND
  0
MTEXT
  5
4A71A
330
1F
100
AcDbEntity
  8
AM_6
100
AcDbMText
 10
3103.355134068312
 20
-2544.30623164443
 30
0.0
 40
3.2
 41
90.0
 71
     4
 72
     5
  1
　　左右勝手無し
 73
     1
 44
1.0
1001
ACAD
1000
MTEXTBEGIN
1070
    73
1070
     1
1070
    44
1040
1.0
1070
    74
1070
     0
1000
MTEXTEND
  0
MTEXT
  5
4A71B
330
1F
100
AcDbEntity
  8
AM_6
100
AcDbMText
 10
3103.355134068312
 20
-2552.30623164443
 30
0.0
 40
3.2
 41
90.0
 71
     4
 72
     5
  1
　　無し
 73
     1
 44
1.0
1001
ACAD
1000
MTEXTBEGIN
1070
    73
1070
     1
1070
    44
1040
1.0
1070
    74
1070
     0
1000
MTEXTEND
  0
MTEXT
  5
4A71C
330
1F
100
AcDbEntity
  8
AM_6
100
AcDbMText
 10
3103.355134068312
 20
-2536.30623164443
 30
0.0
 40
3.2
 41
90.0
 71
     4
 72
     5
  1
　　スチール：　光沢クロメート
 73
     1
 44
1.0
1001
ACAD
1000
MTEXTBEGIN
1070
    73
1070
     1
1070
    44
1040
1.0
1070
    74
1070
     0
1000
MTEXTEND
  0
LINE
  5
4A71D
330
1F
100
AcDbEntity
  8
0部品6
100
AcDbLine
 10
3191.067151267863
 20
-2584.729484932819
 30
0.0
 11
3212.717151267863
 21
-2584.729484932819
 31
0.0
  0
LINE
  5
4A71E
330
1F
100
AcDbEntity
  8
0部品6
100
AcDbLine
 10
3191.067151267863
 20
-2729.729484932819
 30
0.0
 11
3211.717151267863
 21
-2729.729484932819
 31
0.0
  0
LINE
  5
4A71F
330
1F
100
AcDbEntity
  8
0部品6
100
AcDbLine
 10
3211.717151267863
 20
-2629.729484932819
 30
0.0
 11
3220.417151267863
 21
-2629.729484932819
 31
0.0
  0
LINE
  5
4A720
330
1F
100
AcDbEntity
  8
0部品6
100
AcDbLine
 10
3191.067151267863
 20
-2760.820302187329
 30
0.0
 11
3241.067151267863
 21
-2760.820302187329
 31
0.0
  0
LINE
  5
4A721
330
1F
100
AcDbEntity
  8
0部品6
100
AcDbLine
 10
3191.067151267863
 20
-2759.220302187328
 30
0.0
 11
3213.210551267863
 21
-2759.220302187328
 31
0.0
  0
LINE
  5
4A722
102
{ACAD_REACTORS
330
4A75A
102
}
330
1F
100
AcDbEntity
  8
0部品6
100
AcDbLine
 10
3191.067151267863
 20
-2759.220302187328
 30
0.0
 11
3191.067151267863
 21
-2760.820302187329
 31
0.0
  0
LINE
  5
4A723
330
1F
100
AcDbEntity
  8
0部品6
100
AcDbLine
 10
3241.067151267863
 20
-2759.220302187328
 30
0.0
 11
3241.067151267863
 21
-2760.820302187329
 31
0.0
  0
LINE
  5
4A724
330
1F
100
AcDbEntity
  8
0部品6
100
AcDbLine
 10
3216.067151267863
 20
-2759.220302187328
 30
0.0
 11
3241.067151267863
 21
-2759.220302187328
 31
0.0
  0
LINE
  5
4A725
330
1F
100
AcDbEntity
  8
0部品6
  6
中心線1
 48
0.5
370
    13
100
AcDbLine
 10
3220.917151267863
 20
-2757.470302187329
 30
0.0
 11
3211.217151267864
 21
-2757.470302187329
 31
0.0
  0
LINE
  5
4A726
330
1F
100
AcDbEntity
  8
0部品6
  6
中心線1
 48
0.5
370
    13
100
AcDbLine
 10
3216.067151267863
 20
-2752.620302187328
 30
0.0
 11
3216.067151267863
 21
-2762.320302187329
 31
0.0
  0
LINE
  5
4A727
330
1F
100
AcDbEntity
  8
0部品6
100
AcDbLine
 10
3217.559351267863
 20
-2758.384302187329
 30
0.0
 11
3218.923751267863
 21
-2759.220302187328
 31
0.0
  0
LINE
  5
4A728
330
1F
100
AcDbEntity
  8
0部品6
100
AcDbLine
 10
3211.717151267863
 20
-2759.220302187328
 30
0.0
 11
3211.717151267863
 21
-2760.820302187329
 31
0.0
  0
LINE
  5
4A729
330
1F
100
AcDbEntity
  8
0部品6
100
AcDbLine
 10
3211.717151267863
 20
-2709.729484932819
 30
0.0
 11
3211.717151267863
 21
-2729.729484932819
 31
0.0
  0
LINE
  5
4A72A
330
1F
100
AcDbEntity
  8
0部品6
100
AcDbLine
 10
3212.717151267864
 20
-2729.729484932819
 30
0.0
 11
3241.067151267863
 21
-2729.729484932819
 31
0.0
  0
LINE
  5
4A72B
330
1F
100
AcDbEntity
  8
0部品6
100
AcDbLine
 10
3220.417151267863
 20
-2604.729484932819
 30
0.0
 11
3220.417151267863
 21
-2584.729484932819
 31
0.0
  0
LINE
  5
4A72C
330
1F
100
AcDbEntity
  8
0部品6
100
AcDbLine
 10
3219.417151267863
 20
-2584.729484932819
 30
0.0
 11
3212.717151267863
 21
-2584.729484932819
 31
0.0
  0
LINE
  5
4A72D
330
1F
100
AcDbEntity
  8
0部品6
100
AcDbLine
 10
3211.717151267863
 20
-2604.729484932819
 30
0.0
 11
3220.417151267863
 21
-2604.729484932819
 31
0.0
  0
LINE
  5
4A72E
330
1F
100
AcDbEntity
  8
0部品6
100
AcDbLine
 10
3212.717151267864
 20
-2709.729484932819
 30
0.0
 11
3212.717151267864
 21
-2729.729484932819
 31
0.0
  0
LINE
  5
4A72F
330
1F
100
AcDbEntity
  8
0部品6
100
AcDbLine
 10
3212.717151267863
 20
-2604.729484932819
 30
0.0
 11
3212.717151267863
 21
-2584.729484932819
 31
0.0
  0
LINE
  5
4A730
330
1F
100
AcDbEntity
  8
0部品6
100
AcDbLine
 10
3220.417151267863
 20
-2689.729484932819
 30
0.0
 11
3220.417151267863
 21
-2709.729484932819
 31
0.0
  0
LINE
  5
4A731
330
1F
100
AcDbEntity
  8
0部品6
100
AcDbLine
 10
3211.717151267863
 20
-2689.729484932819
 30
0.0
 11
3211.717151267863
 21
-2669.729484932819
 31
0.0
  0
LINE
  5
4A732
330
1F
100
AcDbEntity
  8
0部品6
100
AcDbLine
 10
3211.717151267863
 20
-2689.729484932819
 30
0.0
 11
3220.417151267863
 21
-2689.729484932819
 31
0.0
  0
LINE
  5
4A733
330
1F
100
AcDbEntity
  8
0部品6
100
AcDbLine
 10
3219.417151267863
 20
-2689.729484932819
 30
0.0
 11
3219.417151267863
 21
-2709.729484932819
 31
0.0
  0
LINE
  5
4A734
330
1F
100
AcDbEntity
  8
0部品6
100
AcDbLine
 10
3212.717151267864
 20
-2689.729484932819
 30
0.0
 11
3212.717151267864
 21
-2669.729484932819
 31
0.0
  0
LINE
  5
4A735
330
1F
100
AcDbEntity
  8
0部品6
100
AcDbLine
 10
3211.717151267863
 20
-2709.729484932819
 30
0.0
 11
3220.417151267863
 21
-2709.729484932819
 31
0.0
  0
LINE
  5
4A736
330
1F
100
AcDbEntity
  8
0部品6
100
AcDbLine
 10
3220.417151267863
 20
-2649.729484932819
 30
0.0
 11
3220.417151267863
 21
-2669.729484932819
 31
0.0
  0
LINE
  5
4A737
330
1F
100
AcDbEntity
  8
0部品6
100
AcDbLine
 10
3211.717151267863
 20
-2649.729484932819
 30
0.0
 11
3211.717151267863
 21
-2629.729484932819
 31
0.0
  0
LINE
  5
4A738
330
1F
100
AcDbEntity
  8
0部品6
100
AcDbLine
 10
3211.717151267863
 20
-2649.729484932819
 30
0.0
 11
3220.417151267863
 21
-2649.729484932819
 31
0.0
  0
LINE
  5
4A739
330
1F
100
AcDbEntity
  8
0部品6
100
AcDbLine
 10
3219.417151267863
 20
-2649.729484932819
 30
0.0
 11
3219.417151267863
 21
-2669.729484932819
 31
0.0
  0
LINE
  5
4A73A
330
1F
100
AcDbEntity
  8
0部品6
100
AcDbLine
 10
3212.717151267864
 20
-2649.729484932819
 30
0.0
 11
3212.717151267864
 21
-2629.729484932819
 31
0.0
  0
LINE
  5
4A73B
330
1F
100
AcDbEntity
  8
0部品6
100
AcDbLine
 10
3211.717151267863
 20
-2669.729484932819
 30
0.0
 11
3220.417151267863
 21
-2669.729484932819
 31
0.0
  0
LINE
  5
4A73C
102
{ACAD_REACTORS
330
4A751
330
4A754
102
}
330
1F
100
AcDbEntity
  8
0部品6
100
AcDbLine
 10
3191.067151267863
 20
-2584.729484932819
 30
0.0
 11
3191.067151267863
 21
-2614.729484932819
 31
0.0
  0
LINE
  5
4A73D
102
{ACAD_REACTORS
330
4A751
102
}
330
1F
100
AcDbEntity
  8
0部品6
100
AcDbLine
 10
3191.067151267863
 20
-2619.729484932819
 30
0.0
 11
3191.067151267863
 21
-2729.729484932819
 31
0.0
  0
LINE
  5
4A73E
330
1F
100
AcDbEntity
  8
0部品6
100
AcDbLine
 10
3241.067151267863
 20
-2584.729484932819
 30
0.0
 11
3241.067151267863
 21
-2614.729484932819
 31
0.0
  0
LINE
  5
4A73F
330
1F
100
AcDbEntity
  8
0部品6
100
AcDbLine
 10
3241.067151267863
 20
-2619.729484932819
 30
0.0
 11
3241.067151267863
 21
-2729.729484932819
 31
0.0
  0
LINE
  5
4A740
330
1F
100
AcDbEntity
  8
0部品6
100
AcDbLine
 10
3219.417151267863
 20
-2584.729484932819
 30
0.0
 11
3219.417151267863
 21
-2614.729484932819
 31
0.0
  0
LINE
  5
4A741
330
1F
100
AcDbEntity
  8
0部品6
100
AcDbLine
 10
3219.417151267863
 20
-2619.729484932819
 30
0.0
 11
3219.417151267863
 21
-2629.729484932819
 31
0.0
  0
LINE
  5
4A742
102
{ACAD_REACTORS
330
4A754
102
}
330
1F
100
AcDbEntity
  8
0部品6
100
AcDbLine
 10
3241.067151267863
 20
-2584.729484932819
 30
0.0
 11
3220.417151267863
 21
-2584.729484932819
 31
0.0
  0
LINE
  5
4A743
330
1F
100
AcDbEntity
  8
0部品6
100
AcDbLine
 10
3212.717151267863
 20
-2604.729484932819
 30
0.0
 11
3212.717151267863
 21
-2614.729484932819
 31
0.0
  0
LINE
  5
4A744
330
1F
100
AcDbEntity
  8
0部品6
100
AcDbLine
 10
3212.717151267864
 20
-2619.729484932819
 30
0.0
 11
3212.717151267864
 21
-2729.729484932819
 31
0.0
  0
LINE
  5
4A745
330
1F
100
AcDbEntity
  8
0部品6
  6
中心線1
 48
0.5
370
    13
100
AcDbLine
 10
3216.067151267863
 20
-2581.729484932819
 30
0.0
 11
3216.067151267863
 21
-2732.729484932819
 31
0.0
  0
LINE
  5
4A746
330
1F
100
AcDbEntity
  8
0部品6
100
AcDbLine
 10
3219.417151267863
 20
-2619.729484932819
 30
0.0
 11
3219.417151267863
 21
-2729.729484932819
 31
0.0
  0
ARC
  5
4A747
330
1F
100
AcDbEntity
  8
0部品6
100
AcDbCircle
 10
3216.067151267863
 20
-2757.470302187329
 30
0.0
 40
3.35
100
AcDbArc
 50
328.5074999999509
 51
270.0
  0
CIRCLE
  5
4A748
330
1F
100
AcDbEntity
  8
0部品6
100
AcDbCircle
 10
3216.067151267863
 20
-2757.470302187329
 30
0.0
 40
1.75
  0
LINE
  5
4A749
330
1F
100
AcDbEntity
  8
0部品6
100
AcDbLine
 10
3211.717151267863
 20
-2614.729484932819
 30
0.0
 11
3211.717151267863
 21
-2604.729484932819
 31
0.0
  0
LINE
  5
4A74A
330
1F
100
AcDbEntity
  8
0部品6
100
AcDbLine
 10
3211.717151267863
 20
-2604.729484932819
 30
0.0
 11
3220.417151267863
 21
-2604.729484932819
 31
0.0
  0
LINE
  5
4A74B
330
1F
100
AcDbEntity
  8
0部品6
100
AcDbLine
 10
3220.417151267863
 20
-2619.729484932819
 30
0.0
 11
3220.417151267863
 21
-2629.729484932819
 31
0.0
  0
LINE
  5
4A74C
330
1F
100
AcDbEntity
  8
0部品6
  6
切断線
 48
0.5
370
    13
100
AcDbLine
 10
3246.067151267863
 20
-2619.729484932819
 30
0.0
 11
3186.067151267863
 21
-2619.729484932819
 31
0.0
  0
LINE
  5
4A74D
330
1F
100
AcDbEntity
  8
0部品6
  6
切断線
 48
0.5
370
    13
100
AcDbLine
 10
3246.067151267863
 20
-2614.729484932819
 30
0.0
 11
3186.067151267863
 21
-2614.729484932819
 31
0.0
  0
LINE
  5
4A74E
330
1F
100
AcDbEntity
  8
0部品6
  6
切断線
 48
0.5
370
    13
100
AcDbLine
 10
3246.067151267863
 20
-2614.729484932819
 30
0.0
 11
3186.067151267863
 21
-2614.729484932819
 31
0.0
  0
DIMENSION
  5
4A74F
102
{ACAD_XDICTIONARY
360
4A750
102
}
102
{ACAD_REACTORS
330
4A751
102
}
330
1F
100
AcDbEntity
  8
AM_5
100
AcDbDimension
  2
*D6
 10
3175.067151267862
 20
-2584.729484932819
 30
0.0
 11
3175.067151267863
 21
-2657.229484932819
 31
0.0
 70
   160
  1
A
 71
     5
 42
145.0
  3
AM_ISO$0
100
AcDbAlignedDimension
 13
3191.067151267863
 23
-2729.729484932819
 33
0.0
 14
3191.067151267863
 24
-2584.729484932819
 34
0.0
 50
90.0
100
AcDbRotatedDimension
1001
ACAD
1000
DSTYLE
1002
{
1070
    41
1040
1.0
1002
}
  0
DIMENSION
  5
4A752
102
{ACAD_XDICTIONARY
360
4A753
102
}
102
{ACAD_REACTORS
330
4A754
102
}
330
1F
100
AcDbEntity
  8
AM_5
100
AcDbDimension
  2
*D7
 10
3241.067151267863
 20
-2576.729484932819
 30
0.0
 11
3216.067151267863
 21
-2576.729484932819
 31
0.0
 70
   160
  1
B
 71
     5
 42
50.0
  3
AM_ISO$0
100
AcDbAlignedDimension
 13
3191.067151267863
 23
-2584.729484932819
 33
0.0
 14
3241.067151267863
 24
-2584.729484932819
 34
0.0
100
AcDbRotatedDimension
1001
ACAD
1000
DSTYLE
1002
{
1070
    41
1040
1.0
1002
}
  0
DIMENSION
  5
4A755
330
1F
100
AcDbEntity
  8
AM_5
100
AcDbDimension
  2
*D8
 10
3217.817151267863
 20
-2746.120302187328
 30
0.0
 11
3216.067151267863
 21
-2746.120302187328
 31
0.0
 70
   160
  1
%%cE
 71
     5
 42
3.5
  3
AM_ISO$0
100
AcDbAlignedDimension
 13
3214.317151267863
 23
-2757.470302187329
 33
0.0
 14
3217.817151267863
 24
-2757.470302187329
 34
0.0
100
AcDbRotatedDimension
1001
ACAD
1000
DSTYLE
1002
{
1070
    41
1040
1.0
1002
}
  0
DIMENSION
  5
4A758
102
{ACAD_XDICTIONARY
360
4A759
102
}
102
{ACAD_REACTORS
330
4A75A
102
}
330
1F
100
AcDbEntity
  8
AM_5
100
AcDbDimension
  2
*D9
 10
3183.067151267861
 20
-2759.220302187328
 30
0.0
 11
3183.067151267861
 21
-2764.566968853995
 31
0.0
 70
   160
  1
D
 71
     5
 42
1.600000000000363
  3
AM_ISO$0
100
AcDbAlignedDimension
 13
3191.067151267863
 23
-2760.820302187329
 33
0.0
 14
3191.067151267863
 24
-2759.220302187328
 34
0.0
 50
90.0
100
AcDbRotatedDimension
1001
ACAD
1000
DSTYLE
1002
{
1070
    41
1040
1.0
1002
}
  0
DIMENSION
  5
4A7E6
330
1F
100
AcDbEntity
  8
AM_5
100
AcDbDimension
  2
*D5
 10
3183.067151267862
 20
-2649.729484932819
 30
0.0
 11
3183.067151267863
 21
-2659.72948493282
 31
0.0
 70
   160
  1
C
 71
     5
 42
20.0
  3
AM_ISO$0
100
AcDbAlignedDimension
 13
3211.717151267863
 23
-2669.729484932819
 33
0.0
 14
3211.717151267863
 24
-2649.729484932819
 34
0.0
 50
90.0
100
AcDbRotatedDimension
1001
ACAD
1000
DSTYLE
1002
{
1070
    41
1040
1.0
1002
}
  0
MTEXT
  5
4AD19
330
1F
100
AcDbEntity
  8
AM_6
100
AcDbMText
 10
3394.855134068352
 20
-2584.32498164441
 30
0.0
 40
3.2
 41
10.20000000000016
 71
     5
 72
     5
  1
200
 73
     1
 44
1.0
1001
ACAD
1000
MTEXTBEGIN
1070
    73
1070
     1
1070
    44
1040
1.0
1070
    74
1070
     0
1000
MTEXTEND
1000
ACAD_MTEXT_DEFINED_HEIGHT_BEGIN
1070
    46
1040
8.037499999972579
1000
ACAD_MTEXT_DEFINED_HEIGHT_END
  0
MTEXT
  5
4AD1A
330
1F
100
AcDbEntity
  8
AM_6
100
AcDbMText
 10
3394.855134068358
 20
-2568.324981644404
 30
0.0
 40
3.2
 41
10.20000000000008
 71
     5
 72
     5
  1
120
 73
     1
 44
1.0
1001
ACAD
1000
MTEXTBEGIN
1070
    73
1070
     1
1070
    44
1040
1.0
1070
    74
1070
     0
1000
MTEXTEND
1000
ACAD_MTEXT_DEFINED_HEIGHT_BEGIN
1070
    46
1040
8.037499999999637
1000
ACAD_MTEXT_DEFINED_HEIGHT_END
  0
MTEXT
  5
4AD1B
330
1F
100
AcDbEntity
  8
AM_6
100
AcDbMText
 10
3427.855134068334
 20
-2580.306231644416
 30
0.0
 40
3.2
 41
14.99999999995267
 71
     5
 72
     5
  1
1.6
 73
     1
 44
1.0
1001
ACAD
1000
MTEXTBEGIN
1070
    73
1070
     1
1070
    44
1040
1.0
1070
    74
1070
     0
1000
MTEXTEND
1000
ACAD_MTEXT_DEFINED_HEIGHT_BEGIN
1070
    46
1040
32.000000000012
1000
ACAD_MTEXT_DEFINED_HEIGHT_END
  0
MTEXT
  5
4AD1C
330
1F
100
AcDbEntity
  8
AM_6
100
AcDbMText
 10
3394.85513406835
 20
-2592.287481644405
 30
0.0
 40
3.2
 41
10.1999999999979
 71
     5
 72
     5
  1
250
 73
     1
 44
1.0
1001
ACAD
1000
MTEXTBEGIN
1070
    73
1070
     1
1070
    44
1040
1.0
1070
    74
1070
     0
1000
MTEXTEND
1000
ACAD_MTEXT_DEFINED_HEIGHT_BEGIN
1070
    46
1040
8.037500000014416
1000
ACAD_MTEXT_DEFINED_HEIGHT_END
  0
MTEXT
  5
4AD1D
330
1F
100
AcDbEntity
  8
AM_6
100
AcDbMText
 10
3394.855134068349
 20
-2608.306231644412
 30
0.0
 40
3.2
 41
10.19999999999995
 71
     5
 72
     5
  1
300
 73
     1
 44
1.0
1001
ACAD
1000
MTEXTBEGIN
1070
    73
1070
     1
1070
    44
1040
1.0
1070
    74
1070
     0
1000
MTEXTEND
1000
ACAD_MTEXT_DEFINED_HEIGHT_BEGIN
1070
    46
1040
23.9999999999945
1000
ACAD_MTEXT_DEFINED_HEIGHT_END
  0
MTEXT
  5
4AD1E
330
1F
100
AcDbEntity
  8
AM_6
100
AcDbMText
 10
3442.855134068334
 20
-2580.306231644416
 30
0.0
 40
3.2
 41
14.99999999997963
 71
     5
 72
     5
  1
1.5
 73
     1
 44
1.0
1001
ACAD
1000
MTEXTBEGIN
1070
    73
1070
     1
1070
    44
1040
1.0
1070
    74
1070
     0
1000
MTEXTEND
1000
ACAD_MTEXT_DEFINED_HEIGHT_BEGIN
1070
    46
1040
32.000000000012
1000
ACAD_MTEXT_DEFINED_HEIGHT_END
  0
MTEXT
  5
4AD1F
330
1F
100
AcDbEntity
  8
AM_6
100
AcDbMText
 10
3394.855134068343
 20
-2648.306231644418
 30
0.0
 40
3.2
 41
10.20000000000105
 71
     5
 72
     5
  1
600
 73
     1
 44
1.0
1001
ACAD
1000
MTEXTBEGIN
1070
    73
1070
     1
1070
    44
1040
1.0
1070
    74
1070
     0
1000
MTEXTEND
1000
ACAD_MTEXT_DEFINED_HEIGHT_BEGIN
1070
    46
1040
23.99999999999677
1000
ACAD_MTEXT_DEFINED_HEIGHT_END
  0
MTEXT
  5
4AD20
330
1F
100
AcDbEntity
  8
AM_6
100
AcDbMText
 10
3394.855134068333
 20
-2712.306231644443
 30
0.0
 40
3.2
 41
10.19999999999698
 71
     5
 72
     5
  1
1000
 73
     1
 44
1.0
1001
ACAD
1000
MTEXTBEGIN
1070
    73
1070
     1
1070
    44
1040
1.0
1070
    74
1070
     0
1000
MTEXTEND
1000
ACAD_MTEXT_DEFINED_HEIGHT_BEGIN
1070
    46
1040
56.00000000004634
1000
ACAD_MTEXT_DEFINED_HEIGHT_END
  0
MTEXT
  5
4AD21
330
1F
100
AcDbEntity
  8
AM_6
100
AcDbMText
 10
3405.055134068359
 20
-2580.306231644412
 30
0.0
 40
3.2
 41
10.19999999999957
 71
     5
 72
     5
  1
32
 73
     1
 44
1.0
1001
ACAD
1000
MTEXTBEGIN
1070
    73
1070
     1
1070
    44
1040
1.0
1070
    74
1070
     0
1000
MTEXTEND
1000
ACAD_MTEXT_DEFINED_HEIGHT_BEGIN
1070
    46
1040
32.00000000000564
1000
ACAD_MTEXT_DEFINED_HEIGHT_END
  0
MTEXT
  5
4AD22
330
1F
100
AcDbEntity
  8
AM_6
100
AcDbMText
 10
3405.055134068322
 20
-2752.306231644479
 30
0.0
 40
3.2
 41
10.19999999999438
 71
     5
 72
     5
  1
32
 73
     1
 44
1.0
1001
ACAD
1000
MTEXTBEGIN
1070
    73
1070
     1
1070
    44
1040
1.0
1070
    74
1070
     0
1000
MTEXTEND
1000
ACAD_MTEXT_DEFINED_HEIGHT_BEGIN
1070
    46
1040
8.000000000018829
1000
ACAD_MTEXT_DEFINED_HEIGHT_END
  0
MTEXT
  5
4AD23
330
1F
100
AcDbEntity
  8
AM_6
100
AcDbMText
 10
3457.855134068353
 20
-2580.306231644421
 30
0.0
 40
3.2
 41
15.00000000000023
 71
     5
 72
     5
  1
3.5
 73
     1
 44
1.0
1001
ACAD
1000
MTEXTBEGIN
1070
    73
1070
     1
1070
    44
1040
1.0
1070
    74
1070
     0
1000
MTEXTEND
1000
ACAD_MTEXT_DEFINED_HEIGHT_BEGIN
1070
    46
1040
32.00000000001656
1000
ACAD_MTEXT_DEFINED_HEIGHT_END
  0
MTEXT
  5
4AD24
330
1F
100
AcDbEntity
  8
AM_6
100
AcDbMText
 10
3373.092634068354
 20
-2568.306231644403
 30
0.0
 40
3.2
 41
33.32499999999911
 71
     5
 72
     5
  1
DEH-26S-01222
 73
     1
 44
1.0
1001
ACAD
1000
MTEXTBEGIN
1070
    73
1070
     1
1070
    44
1040
1.0
1070
    74
1070
     0
1000
MTEXTEND
1000
ACAD_MTEXT_DEFINED_HEIGHT_BEGIN
1070
    46
1040
8.000000000003252
1000
ACAD_MTEXT_DEFINED_HEIGHT_END
  0
MTEXT
  5
4AD25
330
1F
100
AcDbEntity
  8
AM_6
100
AcDbMText
 10
3373.092634068351
 20
-2584.306231644401
 30
0.0
 40
3.2
 41
33.32499999999948
 71
     5
 72
     5
  1
DEH-26S-02022
 73
     1
 44
1.0
1001
ACAD
1000
MTEXTBEGIN
1070
    73
1070
     1
1070
    44
1040
1.0
1070
    74
1070
     0
1000
MTEXTEND
1000
ACAD_MTEXT_DEFINED_HEIGHT_BEGIN
1070
    46
1040
7.999999999999159
1000
ACAD_MTEXT_DEFINED_HEIGHT_END
  0
MTEXT
  5
4AD26
330
1F
100
AcDbEntity
  8
AM_6
100
AcDbMText
 10
3373.092634068348
 20
-2592.306231644407
 30
0.0
 40
3.2
 41
33.3250000000008
 71
     5
 72
     5
  1
DEH-26S-02522
 73
     1
 44
1.0
1001
ACAD
1000
MTEXTBEGIN
1070
    73
1070
     1
1070
    44
1040
1.0
1070
    74
1070
     0
1000
MTEXTEND
1000
ACAD_MTEXT_DEFINED_HEIGHT_BEGIN
1070
    46
1040
8.000000000013256
1000
ACAD_MTEXT_DEFINED_HEIGHT_END
  0
MTEXT
  5
4AD27
330
1F
100
AcDbEntity
  8
AM_6
100
AcDbMText
 10
3373.092634068348
 20
-2600.306231644415
 30
0.0
 40
3.2
 41
33.32499999999998
 71
     5
 72
     5
  1
DEH-26S-03011
 73
     1
 44
1.0
1001
ACAD
1000
MTEXTBEGIN
1070
    73
1070
     1
1070
    44
1040
1.0
1070
    74
1070
     0
1000
MTEXTEND
1000
ACAD_MTEXT_DEFINED_HEIGHT_BEGIN
1070
    46
1040
7.99999999998961
1000
ACAD_MTEXT_DEFINED_HEIGHT_END
  0
MTEXT
  5
4AD28
330
1F
100
AcDbEntity
  8
AM_6
100
AcDbMText
 10
3373.092634068331
 20
-2688.30623164442
 30
0.0
 40
3.2
 41
33.32499999999865
 71
     5
 72
     5
  1
DEH-26S-10011
 73
     1
 44
1.0
1001
ACAD
1000
MTEXTBEGIN
1070
    73
1070
     1
1070
    44
1040
1.0
1070
    74
1070
     0
1000
MTEXTEND
1000
ACAD_MTEXT_DEFINED_HEIGHT_BEGIN
1070
    46
1040
8.000000000009164
1000
ACAD_MTEXT_DEFINED_HEIGHT_END
  0
MTEXT
  5
4AD29
330
1F
100
AcDbEntity
  8
AM_6
100
AcDbMText
 10
3373.092634068341
 20
-2640.30623164442
 30
0.0
 40
3.2
 41
33.3249999999989
 71
     5
 72
     5
  1
DEH-26S-06011
 73
     1
 44
1.0
1001
ACAD
1000
MTEXTBEGIN
1070
    73
1070
     1
1070
    44
1040
1.0
1070
    74
1070
     0
1000
MTEXTEND
1000
ACAD_MTEXT_DEFINED_HEIGHT_BEGIN
1070
    46
1040
7.999999999996886
1000
ACAD_MTEXT_DEFINED_HEIGHT_END
  0
MTEXT
  5
4AD2A
330
1F
100
AcDbEntity
  8
AM_6
100
AcDbMText
 10
3373.092634068338
 20
-2648.306231644419
 30
0.0
 40
3.2
 41
33.32499999999924
 71
     5
 72
     5
  1
DEH-26S-06021
 73
     1
 44
1.0
1001
ACAD
1000
MTEXTBEGIN
1070
    73
1070
     1
1070
    44
1040
1.0
1070
    74
1070
     0
1000
MTEXTEND
1000
ACAD_MTEXT_DEFINED_HEIGHT_BEGIN
1070
    46
1040
7.999999999999614
1000
ACAD_MTEXT_DEFINED_HEIGHT_END
  0
MTEXT
  5
4AD2B
330
1F
100
AcDbEntity
  8
AM_6
100
AcDbMText
 10
3373.092634068328
 20
-2696.306231644425
 30
0.0
 40
3.2
 41
33.32499999999967
 71
     5
 72
     5
  1
DEH-26S-10021
 73
     1
 44
1.0
1001
ACAD
1000
MTEXTBEGIN
1070
    73
1070
     1
1070
    44
1040
1.0
1070
    74
1070
     0
1000
MTEXTEND
1000
ACAD_MTEXT_DEFINED_HEIGHT_BEGIN
1070
    46
1040
8.000000000014166
1000
ACAD_MTEXT_DEFINED_HEIGHT_END
  0
MTEXT
  5
4AD2C
330
1F
100
AcDbEntity
  8
AM_6
100
AcDbMText
 10
3373.092634068318
 20
-2752.306231644478
 30
0.0
 40
3.2
 41
33.32499999999953
 71
     5
 72
     5
  1
DEH-26S-18021
 73
     1
 44
1.0
1001
ACAD
1000
MTEXTBEGIN
1070
    73
1070
     1
1070
    44
1040
1.0
1070
    74
1070
     0
1000
MTEXTEND
1000
ACAD_MTEXT_DEFINED_HEIGHT_BEGIN
1070
    46
1040
8.000000000015075
1000
ACAD_MTEXT_DEFINED_HEIGHT_END
  0
MTEXT
  5
4AD2D
330
1F
100
AcDbEntity
  8
AM_6
100
AcDbMText
 10
3373.092634068324
 20
-2720.306231644432
 30
0.0
 40
3.2
 41
33.32499999999952
 71
     5
 72
     5
  1
DEH-26S-10032
 73
     1
 44
1.0
1001
ACAD
1000
MTEXTBEGIN
1070
    73
1070
     1
1070
    44
1040
1.0
1070
    74
1070
     0
1000
MTEXTEND
1000
ACAD_MTEXT_DEFINED_HEIGHT_BEGIN
1070
    46
1040
8.000000000008709
1000
ACAD_MTEXT_DEFINED_HEIGHT_END
  0
MTEXT
  5
4AD2E
330
1F
100
AcDbEntity
  8
AM_6
100
AcDbMText
 10
3373.092634068315
 20
-2768.306231644489
 30
0.0
 40
3.2
 41
33.32500000000061
 71
     5
 72
     5
  1
DEH-26S-18032
 73
     1
 44
1.0
1001
ACAD
1000
MTEXTBEGIN
1070
    73
1070
     1
1070
    44
1040
1.0
1070
    74
1070
     0
1000
MTEXTEND
1000
ACAD_MTEXT_DEFINED_HEIGHT_BEGIN
1070
    46
1040
7.999999999990064
1000
ACAD_MTEXT_DEFINED_HEIGHT_END
  0
MTEXT
  5
4AD2F
330
1F
100
AcDbEntity
  8
AM_6
100
AcDbMText
 10
3373.092634068321
 20
-2728.306231644444
 30
0.0
 40
3.2
 41
33.32500000000003
 71
     5
 72
     5
  1
DEH-26S-10042
 73
     1
 44
1.0
1001
ACAD
1000
MTEXTBEGIN
1070
    73
1070
     1
1070
    44
1040
1.0
1070
    74
1070
     0
1000
MTEXTEND
1000
ACAD_MTEXT_DEFINED_HEIGHT_BEGIN
1070
    46
1040
8.00000000000598
1000
ACAD_MTEXT_DEFINED_HEIGHT_END
  0
MTEXT
  5
4AD30
330
1F
100
AcDbEntity
  8
AM_6
100
AcDbMText
 10
3373.092634068349
 20
-2736.306231644459
 30
0.0
 40
3.2
 41
33.32499999997592
 71
     5
 72
     5
  1
DEH-26S-10043
 73
     1
 44
1.0
1001
ACAD
1000
MTEXTBEGIN
1070
    73
1070
     1
1070
    44
1040
1.0
1070
    74
1070
     0
1000
MTEXTEND
1000
ACAD_MTEXT_DEFINED_HEIGHT_BEGIN
1070
    46
1040
7.999999999984607
1000
ACAD_MTEXT_DEFINED_HEIGHT_END
  0
MTEXT
  5
4AD31
330
1F
100
AcDbEntity
  8
AM_6
100
AcDbMText
 10
3373.092634068315
 20
-2776.306231644511
 30
0.0
 40
3.2
 41
33.3249999999921
 71
     5
 72
     5
  1
DEH-26S-18042
 73
     1
 44
1.0
1001
ACAD
1000
MTEXTBEGIN
1070
    73
1070
     1
1070
    44
1040
1.0
1070
    74
1070
     0
1000
MTEXTEND
1000
ACAD_MTEXT_DEFINED_HEIGHT_BEGIN
1070
    46
1040
8.000000000014621
1000
ACAD_MTEXT_DEFINED_HEIGHT_END
  0
MTEXT
  5
4AD32
330
1F
100
AcDbEntity
  8
AM_6
100
AcDbMText
 10
3373.092634068344
 20
-2616.306231644408
 30
0.0
 40
3.2
 41
33.32499999999987
 71
     5
 72
     5
  1
DEH-26S-03022
 73
     1
 44
1.0
1001
ACAD
1000
MTEXTBEGIN
1070
    73
1070
     1
1070
    44
1040
1.0
1070
    74
1070
     0
1000
MTEXTEND
1000
ACAD_MTEXT_DEFINED_HEIGHT_BEGIN
1070
    46
1040
8.00000000000598
1000
ACAD_MTEXT_DEFINED_HEIGHT_END
  0
LINE
  5
4AD33
330
1F
100
AcDbEntity
  8
AM_4
100
AcDbLine
 10
3435.355134068322
 20
-2732.306231644449
 30
0.0
 11
3420.355134068322
 21
-2740.306231644451
 31
0.0
  0
MTEXT
  5
4AD34
330
1F
100
AcDbEntity
  8
AM_6
100
AcDbMText
 10
3339.767634068355
 20
-2568.306231644403
 30
0.0
 40
3.2
 41
33.32500000000055
 71
     5
 72
     5
  1
DEH-26-01222
 73
     1
 44
1.0
1001
ACAD
1000
MTEXTBEGIN
1070
    73
1070
     1
1070
    44
1040
1.0
1070
    74
1070
     0
1000
MTEXTEND
1000
ACAD_MTEXT_DEFINED_HEIGHT_BEGIN
1070
    46
1040
8.00000000000598
1000
ACAD_MTEXT_DEFINED_HEIGHT_END
  0
MTEXT
  5
4AD35
330
1F
100
AcDbEntity
  8
AM_6
100
AcDbMText
 10
3339.76763406835
 20
-2584.306231644403
 30
0.0
 40
3.2
 41
33.3250000000005
 71
     5
 72
     5
  1
DEH-26-02022
 73
     1
 44
1.0
1001
ACAD
1000
MTEXTBEGIN
1070
    73
1070
     1
1070
    44
1040
1.0
1070
    74
1070
     0
1000
MTEXTEND
1000
ACAD_MTEXT_DEFINED_HEIGHT_BEGIN
1070
    46
1040
7.999999999996431
1000
ACAD_MTEXT_DEFINED_HEIGHT_END
  0
MTEXT
  5
4AD36
330
1F
100
AcDbEntity
  8
AM_6
100
AcDbMText
 10
3339.767634068349
 20
-2592.306231644407
 30
0.0
 40
3.2
 41
33.32499999999964
 71
     5
 72
     5
  1
DEH-26-02522
 73
     1
 44
1.0
1001
ACAD
1000
MTEXTBEGIN
1070
    73
1070
     1
1070
    44
1040
1.0
1070
    74
1070
     0
1000
MTEXTEND
1000
ACAD_MTEXT_DEFINED_HEIGHT_BEGIN
1070
    46
1040
8.000000000012347
1000
ACAD_MTEXT_DEFINED_HEIGHT_END
  0
MTEXT
  5
4AD37
330
1F
100
AcDbEntity
  8
AM_6
100
AcDbMText
 10
3339.767634068348
 20
-2600.306231644413
 30
0.0
 40
3.2
 41
33.32499999999956
 71
     5
 72
     5
  1
DEH-26-03011
 73
     1
 44
1.0
1001
ACAD
1000
MTEXTBEGIN
1070
    73
1070
     1
1070
    44
1040
1.0
1070
    74
1070
     0
1000
MTEXTEND
1000
ACAD_MTEXT_DEFINED_HEIGHT_BEGIN
1070
    46
1040
7.999999999992338
1000
ACAD_MTEXT_DEFINED_HEIGHT_END
  0
MTEXT
  5
4AD38
330
1F
100
AcDbEntity
  8
AM_6
100
AcDbMText
 10
3339.767634068332
 20
-2688.306231644421
 30
0.0
 40
3.2
 41
33.32500000000042
 71
     5
 72
     5
  1
DEH-26-10011
 73
     1
 44
1.0
1001
ACAD
1000
MTEXTBEGIN
1070
    73
1070
     1
1070
    44
1040
1.0
1070
    74
1070
     0
1000
MTEXTEND
1000
ACAD_MTEXT_DEFINED_HEIGHT_BEGIN
1070
    46
1040
8.000000000007345
1000
ACAD_MTEXT_DEFINED_HEIGHT_END
  0
MTEXT
  5
4AD39
330
1F
100
AcDbEntity
  8
AM_6
100
AcDbMText
 10
3339.767634068341
 20
-2640.306231644418
 30
0.0
 40
3.2
 41
33.32499999999972
 71
     5
 72
     5
  1
DEH-26-06011
 73
     1
 44
1.0
1001
ACAD
1000
MTEXTBEGIN
1070
    73
1070
     1
1070
    44
1040
1.0
1070
    74
1070
     0
1000
MTEXTEND
1000
ACAD_MTEXT_DEFINED_HEIGHT_BEGIN
1070
    46
1040
8.000000000001433
1000
ACAD_MTEXT_DEFINED_HEIGHT_END
  0
MTEXT
  5
4AD3A
330
1F
100
AcDbEntity
  8
AM_6
100
AcDbMText
 10
3339.767634068327
 20
-2648.306231644427
 30
0.0
 40
3.2
 41
33.32500000002531
 71
     5
 72
     5
  1
DEH-26-06021
 73
     1
 44
1.0
1001
ACAD
1000
MTEXTBEGIN
1070
    73
1070
     1
1070
    44
1040
1.0
1070
    74
1070
     0
1000
MTEXTEND
1000
ACAD_MTEXT_DEFINED_HEIGHT_BEGIN
1070
    46
1040
8.000000000021897
1000
ACAD_MTEXT_DEFINED_HEIGHT_END
  0
MTEXT
  5
4AD3B
330
1F
100
AcDbEntity
  8
AM_6
100
AcDbMText
 10
3339.767634068328
 20
-2696.306231644423
 30
0.0
 40
3.2
 41
33.32500000000031
 71
     5
 72
     5
  1
DEH-26-10021
 73
     1
 44
1.0
1001
ACAD
1000
MTEXTBEGIN
1070
    73
1070
     1
1070
    44
1040
1.0
1070
    74
1070
     0
1000
MTEXTEND
1000
ACAD_MTEXT_DEFINED_HEIGHT_BEGIN
1070
    46
1040
8.000000000010983
1000
ACAD_MTEXT_DEFINED_HEIGHT_END
  0
MTEXT
  5
4AD3C
330
1F
100
AcDbEntity
  8
AM_6
100
AcDbMText
 10
3339.767634068318
 20
-2752.306231644471
 30
0.0
 40
3.2
 41
33.325
 71
     5
 72
     5
  1
DEH-26-18021
 73
     1
 44
1.0
1001
ACAD
1000
MTEXTBEGIN
1070
    73
1070
     1
1070
    44
1040
1.0
1070
    74
1070
     0
1000
MTEXTEND
1000
ACAD_MTEXT_DEFINED_HEIGHT_BEGIN
1070
    46
1040
8.000000000027354
1000
ACAD_MTEXT_DEFINED_HEIGHT_END
  0
MTEXT
  5
4AD3D
330
1F
100
AcDbEntity
  8
AM_6
100
AcDbMText
 10
3339.767634068325
 20
-2720.306231644432
 30
0.0
 40
3.2
 41
33.32500000000001
 71
     5
 72
     5
  1
DEH-26-10032
 73
     1
 44
1.0
1001
ACAD
1000
MTEXTBEGIN
1070
    73
1070
     1
1070
    44
1040
1.0
1070
    74
1070
     0
1000
MTEXTEND
1000
ACAD_MTEXT_DEFINED_HEIGHT_BEGIN
1070
    46
1040
8.000000000007799
1000
ACAD_MTEXT_DEFINED_HEIGHT_END
  0
MTEXT
  5
4AD3E
330
1F
100
AcDbEntity
  8
AM_6
100
AcDbMText
 10
3339.767634068316
 20
-2768.306231644489
 30
0.0
 40
3.2
 41
33.32499999999984
 71
     5
 72
     5
  1
DEH-26-18032
 73
     1
 44
1.0
1001
ACAD
1000
MTEXTBEGIN
1070
    73
1070
     1
1070
    44
1040
1.0
1070
    74
1070
     0
1000
MTEXTEND
1000
ACAD_MTEXT_DEFINED_HEIGHT_BEGIN
1070
    46
1040
7.999999999990064
1000
ACAD_MTEXT_DEFINED_HEIGHT_END
  0
MTEXT
  5
4AD3F
330
1F
100
AcDbEntity
  8
AM_6
100
AcDbMText
 10
3339.767634068322
 20
-2728.306231644444
 30
0.0
 40
3.2
 41
33.32499999999951
 71
     5
 72
     5
  1
DEH-26-10042
 73
     1
 44
1.0
1001
ACAD
1000
MTEXTBEGIN
1070
    73
1070
     1
1070
    44
1040
1.0
1070
    74
1070
     0
1000
MTEXTEND
1000
ACAD_MTEXT_DEFINED_HEIGHT_BEGIN
1070
    46
1040
8.000000000009164
1000
ACAD_MTEXT_DEFINED_HEIGHT_END
  0
MTEXT
  5
4AD40
330
1F
100
AcDbEntity
  8
AM_6
100
AcDbMText
 10
3339.767634068322
 20
-2776.306231644512
 30
0.0
 40
3.2
 41
33.32499999999424
 71
     5
 72
     5
  1
DEH-26-18042
 73
     1
 44
1.0
1001
ACAD
1000
MTEXTBEGIN
1070
    73
1070
     1
1070
    44
1040
1.0
1070
    74
1070
     0
1000
MTEXTEND
1000
ACAD_MTEXT_DEFINED_HEIGHT_BEGIN
1070
    46
1040
8.000000000013711
1000
ACAD_MTEXT_DEFINED_HEIGHT_END
  0
MTEXT
  5
4AD41
330
1F
100
AcDbEntity
  8
AM_6
100
AcDbMText
 10
3339.767634068343
 20
-2616.306231644399
 30
0.0
 40
3.2
 41
33.3250000000083
 71
     5
 72
     5
  1
DEH-26-03022
 73
     1
 44
1.0
1001
ACAD
1000
MTEXTBEGIN
1070
    73
1070
     1
1070
    44
1040
1.0
1070
    74
1070
     0
1000
MTEXTEND
1000
ACAD_MTEXT_DEFINED_HEIGHT_BEGIN
1070
    46
1040
7.999999999992793
1000
ACAD_MTEXT_DEFINED_HEIGHT_END
  0
MTEXT
  5
4AD42
330
1F
100
AcDbEntity
  8
AM_6
100
AcDbMText
 10
3373.092634068346
 20
-2624.306231644406
 30
0.0
 40
3.2
 41
33.32499999999168
 71
     5
 72
     5
  1
DEH-26S-03522
 73
     1
 44
1.0
1001
ACAD
1000
MTEXTBEGIN
1070
    73
1070
     1
1070
    44
1040
1.0
1070
    74
1070
     0
1000
MTEXTEND
1000
ACAD_MTEXT_DEFINED_HEIGHT_BEGIN
1070
    46
1040
7.999999999954594
1000
ACAD_MTEXT_DEFINED_HEIGHT_END
  0
MTEXT
  5
4AD43
330
1F
100
AcDbEntity
  8
AM_6
100
AcDbMText
 10
3339.767634068345
 20
-2624.306231644398
 30
0.0
 40
3.2
 41
33.32500000000012
 71
     5
 72
     5
  1
DEH-26-03522
 73
     1
 44
1.0
1001
ACAD
1000
MTEXTBEGIN
1070
    73
1070
     1
1070
    44
1040
1.0
1070
    74
1070
     0
1000
MTEXTEND
1000
ACAD_MTEXT_DEFINED_HEIGHT_BEGIN
1070
    46
1040
7.99999999997051
1000
ACAD_MTEXT_DEFINED_HEIGHT_END
  0
MTEXT
  5
4AD44
330
1F
100
AcDbEntity
  8
AM_6
100
AcDbMText
 10
3373.092634068347
 20
-2632.306231644381
 30
0.0
 40
3.2
 41
33.32499999999259
 71
     5
 72
     5
  1
DEH-26S-04522
 73
     1
 44
1.0
1001
ACAD
1000
MTEXTBEGIN
1070
    73
1070
     1
1070
    44
1040
1.0
1070
    74
1070
     0
1000
MTEXTEND
1000
ACAD_MTEXT_DEFINED_HEIGHT_BEGIN
1070
    46
1040
7.999999999966417
1000
ACAD_MTEXT_DEFINED_HEIGHT_END
  0
MTEXT
  5
4AD45
330
1F
100
AcDbEntity
  8
AM_6
100
AcDbMText
 10
3339.76763406835
 20
-2632.306231644379
 30
0.0
 40
3.2
 41
33.32499999998466
 71
     5
 72
     5
  1
DEH-26-04522
 73
     1
 44
1.0
1001
ACAD
1000
MTEXTBEGIN
1070
    73
1070
     1
1070
    44
1040
1.0
1070
    74
1070
     0
1000
MTEXTEND
1000
ACAD_MTEXT_DEFINED_HEIGHT_BEGIN
1070
    46
1040
7.999999999958687
1000
ACAD_MTEXT_DEFINED_HEIGHT_END
  0
MTEXT
  5
4AD46
330
1F
100
AcDbEntity
  8
AM_6
100
AcDbMText
 10
3373.092634068339
 20
-2656.30623164437
 30
0.0
 40
3.2
 41
33.32499999999305
 71
     5
 72
     5
  1
DEH-26S-06022
 73
     1
 44
1.0
1001
ACAD
1000
MTEXTBEGIN
1070
    73
1070
     1
1070
    44
1040
1.0
1070
    74
1070
     0
1000
MTEXTEND
1000
ACAD_MTEXT_DEFINED_HEIGHT_BEGIN
1070
    46
1040
7.999999999994612
1000
ACAD_MTEXT_DEFINED_HEIGHT_END
  0
MTEXT
  5
4AD47
330
1F
100
AcDbEntity
  8
AM_6
100
AcDbMText
 10
3339.767634068337
 20
-2656.306231644393
 30
0.0
 40
3.2
 41
33.32500000000148
 71
     5
 72
     5
  1
DEH-26-06022
 73
     1
 44
1.0
1001
ACAD
1000
MTEXTBEGIN
1070
    73
1070
     1
1070
    44
1040
1.0
1070
    74
1070
     0
1000
MTEXTEND
1000
ACAD_MTEXT_DEFINED_HEIGHT_BEGIN
1070
    46
1040
7.999999999948228
1000
ACAD_MTEXT_DEFINED_HEIGHT_END
  0
MTEXT
  5
4AD48
330
1F
100
AcDbEntity
  8
AM_6
100
AcDbMText
 10
3373.092634068334
 20
-2664.306231644416
 30
0.0
 40
3.2
 41
33.32499999999896
 71
     5
 72
     5
  1
DEH-26S-07522
 73
     1
 44
1.0
1001
ACAD
1000
MTEXTBEGIN
1070
    73
1070
     1
1070
    44
1040
1.0
1070
    74
1070
     0
1000
MTEXTEND
1000
ACAD_MTEXT_DEFINED_HEIGHT_BEGIN
1070
    46
1040
7.999999999996431
1000
ACAD_MTEXT_DEFINED_HEIGHT_END
  0
MTEXT
  5
4AD49
330
1F
100
AcDbEntity
  8
AM_6
100
AcDbMText
 10
3339.767634068336
 20
-2664.306231644389
 30
0.0
 40
3.2
 41
33.32499999999875
 71
     5
 72
     5
  1
DEH-26-07522
 73
     1
 44
1.0
1001
ACAD
1000
MTEXTBEGIN
1070
    73
1070
     1
1070
    44
1040
1.0
1070
    74
1070
     0
1000
MTEXTEND
1000
ACAD_MTEXT_DEFINED_HEIGHT_BEGIN
1070
    46
1040
7.999999999940042
1000
ACAD_MTEXT_DEFINED_HEIGHT_END
  0
MTEXT
  5
4AD4A
330
1F
100
AcDbEntity
  8
AM_6
100
AcDbMText
 10
3373.092634068334
 20
-2680.306231644387
 30
0.0
 40
3.2
 41
33.32499999999669
 71
     5
 72
     5
  1
DEH-26S-09022
 73
     1
 44
1.0
1001
ACAD
1000
MTEXTBEGIN
1070
    73
1070
     1
1070
    44
1040
1.0
1070
    74
1070
     0
1000
MTEXTEND
1000
ACAD_MTEXT_DEFINED_HEIGHT_BEGIN
1070
    46
1040
7.999999999920033
1000
ACAD_MTEXT_DEFINED_HEIGHT_END
  0
MTEXT
  5
4AD4B
330
1F
100
AcDbEntity
  8
AM_6
100
AcDbMText
 10
3339.767634068339
 20
-2680.306231644387
 30
0.0
 40
3.2
 41
33.32499999998738
 71
     5
 72
     5
  1
DEH-26-09022
 73
     1
 44
1.0
1001
ACAD
1000
MTEXTBEGIN
1070
    73
1070
     1
1070
    44
1040
1.0
1070
    74
1070
     0
1000
MTEXTEND
1000
ACAD_MTEXT_DEFINED_HEIGHT_BEGIN
1070
    46
1040
7.999999999919578
1000
ACAD_MTEXT_DEFINED_HEIGHT_END
  0
MTEXT
  5
4AD4C
330
1F
100
AcDbEntity
  8
AM_6
100
AcDbMText
 10
3373.092634068321
 20
-2704.30623164439
 30
0.0
 40
3.2
 41
33.32499999998804
 71
     5
 72
     5
  1
DEH-26S-10022
 73
     1
 44
1.0
1001
ACAD
1000
MTEXTBEGIN
1070
    73
1070
     1
1070
    44
1040
1.0
1070
    74
1070
     0
1000
MTEXTEND
1000
ACAD_MTEXT_DEFINED_HEIGHT_BEGIN
1070
    46
1040
7.9999999999073
1000
ACAD_MTEXT_DEFINED_HEIGHT_END
  0
MTEXT
  5
4AD4D
330
1F
100
AcDbEntity
  8
AM_6
100
AcDbMText
 10
3339.767634068316
 20
-2704.306231644388
 30
0.0
 40
3.2
 41
33.32499999999785
 71
     5
 72
     5
  1
DEH-26-10022
 73
     1
 44
1.0
1001
ACAD
1000
MTEXTBEGIN
1070
    73
1070
     1
1070
    44
1040
1.0
1070
    74
1070
     0
1000
MTEXTEND
1000
ACAD_MTEXT_DEFINED_HEIGHT_BEGIN
1070
    46
1040
7.999999999910029
1000
ACAD_MTEXT_DEFINED_HEIGHT_END
  0
LINE
  5
4AD4E
330
1F
100
AcDbEntity
  8
AM_4
100
AcDbLine
 10
3323.10513406838
 20
-2740.306231644451
 30
0.0
 11
3356.430134068381
 21
-2732.306231644444
 31
0.0
  0
MTEXT
  5
4AD4F
330
1F
100
AcDbEntity
  8
AM_6
100
AcDbMText
 10
3394.855134068364
 20
-2624.306231644394
 30
0.0
 40
3.2
 41
10.20000000000015
 71
     5
 72
     5
  1
350
 73
     1
 44
1.0
1001
ACAD
1000
MTEXTBEGIN
1070
    73
1070
     1
1070
    44
1040
1.0
1070
    74
1070
     0
1000
MTEXTEND
1000
ACAD_MTEXT_DEFINED_HEIGHT_BEGIN
1070
    46
1040
8.000000000010414
1000
ACAD_MTEXT_DEFINED_HEIGHT_END
  0
MTEXT
  5
4AD50
330
1F
100
AcDbEntity
  8
AM_6
100
AcDbMText
 10
3394.85513406836
 20
-2632.306231644392
 30
0.0
 40
3.2
 41
10.20000000001106
 71
     5
 72
     5
  1
450
 73
     1
 44
1.0
1001
ACAD
1000
MTEXTBEGIN
1070
    73
1070
     1
1070
    44
1040
1.0
1070
    74
1070
     0
1000
MTEXTEND
1000
ACAD_MTEXT_DEFINED_HEIGHT_BEGIN
1070
    46
1040
8.000000000026785
1000
ACAD_MTEXT_DEFINED_HEIGHT_END
  0
MTEXT
  5
4AD51
330
1F
100
AcDbEntity
  8
AM_6
100
AcDbMText
 10
3394.855134068367
 20
-2664.30623164441
 30
0.0
 40
3.2
 41
10.20000000000018
 71
     5
 72
     5
  1
750
 73
     1
 44
1.0
1001
ACAD
1000
MTEXTBEGIN
1070
    73
1070
     1
1070
    44
1040
1.0
1070
    74
1070
     0
1000
MTEXTEND
1000
ACAD_MTEXT_DEFINED_HEIGHT_BEGIN
1070
    46
1040
7.999999999992224
1000
ACAD_MTEXT_DEFINED_HEIGHT_END
  0
MTEXT
  5
4AD52
330
1F
100
AcDbEntity
  8
AM_6
100
AcDbMText
 10
3394.855134068361
 20
-2680.306231644418
 30
0.0
 40
3.2
 41
10.20000000001106
 71
     5
 72
     5
  1
900
 73
     1
 44
1.0
1001
ACAD
1000
MTEXTBEGIN
1070
    73
1070
     1
1070
    44
1040
1.0
1070
    74
1070
     0
1000
MTEXTEND
1000
ACAD_MTEXT_DEFINED_HEIGHT_BEGIN
1070
    46
1040
8.000000000026785
1000
ACAD_MTEXT_DEFINED_HEIGHT_END
  0
MTEXT
  5
4AD53
330
1F
100
AcDbEntity
  8
AM_6
100
AcDbMText
 10
3405.05513406833
 20
-2776.306231644508
 30
0.0
 40
3.2
 41
10.19999999999964
 71
     5
 72
     5
  1
50
 73
     1
 44
1.0
1001
ACAD
1000
MTEXTBEGIN
1070
    73
1070
     1
1070
    44
1040
1.0
1070
    74
1070
     0
1000
MTEXTEND
1000
ACAD_MTEXT_DEFINED_HEIGHT_BEGIN
1070
    46
1040
8.000000000014281
1000
ACAD_MTEXT_DEFINED_HEIGHT_END
  0
MTEXT
  5
4AD54
330
1F
100
AcDbEntity
  8
AM_6
100
AcDbMText
 10
3415.25513406836
 20
-2580.306231644414
 30
0.0
 40
3.2
 41
10.20000000000055
 71
     5
 72
     5
  1
20
 73
     1
 44
1.0
1001
ACAD
1000
MTEXTBEGIN
1070
    73
1070
     1
1070
    44
1040
1.0
1070
    74
1070
     0
1000
MTEXTEND
1000
ACAD_MTEXT_DEFINED_HEIGHT_BEGIN
1070
    46
1040
32.00000000000564
1000
ACAD_MTEXT_DEFINED_HEIGHT_END
  0
MTEXT
  5
4AD55
330
1F
100
AcDbEntity
  8
AM_6
100
AcDbMText
 10
3415.255134068334
 20
-2724.306231644443
 30
0.0
 40
3.2
 41
10.19999999999977
 71
     5
 72
     5
  1
20
 73
     1
 44
1.0
1001
ACAD
1000
MTEXTBEGIN
1070
    73
1070
     1
1070
    44
1040
1.0
1070
    74
1070
     0
1000
MTEXTEND
1000
ACAD_MTEXT_DEFINED_HEIGHT_BEGIN
1070
    46
1040
15.99999999999973
1000
ACAD_MTEXT_DEFINED_HEIGHT_END
  0
MTEXT
  5
4AD56
330
1F
100
AcDbEntity
  8
AM_6
100
AcDbMText
 10
3415.255134068337
 20
-2712.306231644437
 30
0.0
 40
3.2
 41
10.19999999999931
 71
     5
 72
     5
  1
12.5
 73
     1
 44
1.0
1001
ACAD
1000
MTEXTBEGIN
1070
    73
1070
     1
1070
    44
1040
1.0
1070
    74
1070
     0
1000
MTEXTEND
1000
ACAD_MTEXT_DEFINED_HEIGHT_BEGIN
1070
    46
1040
7.999999999989269
1000
ACAD_MTEXT_DEFINED_HEIGHT_END
  0
MTEXT
  5
4AD57
330
1F
100
AcDbEntity
  8
AM_6
100
AcDbMText
 10
3415.255134068321
 20
-2772.306231644462
 30
0.0
 40
3.2
 41
10.19999999998476
 71
     5
 72
     5
  1
20
 73
     1
 44
1.0
1001
ACAD
1000
MTEXTBEGIN
1070
    73
1070
     1
1070
    44
1040
1.0
1070
    74
1070
     0
1000
MTEXTEND
1000
ACAD_MTEXT_DEFINED_HEIGHT_BEGIN
1070
    46
1040
15.99999999993288
1000
ACAD_MTEXT_DEFINED_HEIGHT_END
  0
MTEXT
  5
4AD58
330
1F
100
AcDbEntity
  8
AM_6
100
AcDbMText
 10
3415.255134068336
 20
-2736.30623164445
 30
0.0
 40
3.2
 41
10.19999999999931
 71
     5
 72
     5
  1
50
 73
     1
 44
1.0
1001
ACAD
1000
MTEXTBEGIN
1070
    73
1070
     1
1070
    44
1040
1.0
1070
    74
1070
     0
1000
MTEXTEND
1000
ACAD_MTEXT_DEFINED_HEIGHT_BEGIN
1070
    46
1040
7.999999999989269
1000
ACAD_MTEXT_DEFINED_HEIGHT_END
  0
MTEXT
  5
4AD59
330
1F
100
AcDbEntity
  8
AM_6
100
AcDbMText
 10
3427.85513406832
 20
-2724.306231644434
 30
0.0
 40
3.2
 41
14.99999999993958
 71
     5
 72
     5
  1
1.6
 73
     1
 44
1.0
1001
ACAD
1000
MTEXTBEGIN
1070
    73
1070
     1
1070
    44
1040
1.0
1070
    74
1070
     0
1000
MTEXTEND
1000
ACAD_MTEXT_DEFINED_HEIGHT_BEGIN
1070
    46
1040
16.00000000002245
1000
ACAD_MTEXT_DEFINED_HEIGHT_END
  0
MTEXT
  5
4AD5A
330
1F
100
AcDbEntity
  8
AM_6
100
AcDbMText
 10
3442.85513406831
 20
-2724.306231644438
 30
0.0
 40
3.2
 41
14.99999999997044
 71
     5
 72
     5
  1
1.5
 73
     1
 44
1.0
1001
ACAD
1000
MTEXTBEGIN
1070
    73
1070
     1
1070
    44
1040
1.0
1070
    74
1070
     0
1000
MTEXTEND
1000
ACAD_MTEXT_DEFINED_HEIGHT_BEGIN
1070
    46
1040
16.00000000002882
1000
ACAD_MTEXT_DEFINED_HEIGHT_END
  0
MTEXT
  5
4AD5B
330
1F
100
AcDbEntity
  8
AM_6
100
AcDbMText
 10
3457.855134068324
 20
-2724.306231644432
 30
0.0
 40
3.2
 41
15.00000000000387
 71
     5
 72
     5
  1
3.5
 73
     1
 44
1.0
1001
ACAD
1000
MTEXTBEGIN
1070
    73
1070
     1
1070
    44
1040
1.0
1070
    74
1070
     0
1000
MTEXTEND
1000
ACAD_MTEXT_DEFINED_HEIGHT_BEGIN
1070
    46
1040
16.00000000002565
1000
ACAD_MTEXT_DEFINED_HEIGHT_END
  0
MTEXT
  5
4AD5C
330
1F
100
AcDbEntity
  8
AM_6
100
AcDbMText
 10
3442.855134068341
 20
-2712.306231644431
 30
0.0
 40
3.2
 41
14.99999999997747
 71
     5
 72
     5
  1
0.8
 73
     1
 44
1.0
1001
ACAD
1000
MTEXTBEGIN
1070
    73
1070
     1
1070
    44
1040
1.0
1070
    74
1070
     0
1000
MTEXTEND
1000
ACAD_MTEXT_DEFINED_HEIGHT_BEGIN
1070
    46
1040
8.000000000015631
1000
ACAD_MTEXT_DEFINED_HEIGHT_END
  0
MTEXT
  5
4AD5D
330
1F
100
AcDbEntity
  8
AM_6
100
AcDbMText
 10
3427.855134068345
 20
-2712.306231644431
 30
0.0
 40
3.2
 41
14.99999999999158
 71
     5
 72
     5
  1
1.0
 73
     1
 44
1.0
1001
ACAD
1000
MTEXTBEGIN
1070
    73
1070
     1
1070
    44
1040
1.0
1070
    74
1070
     0
1000
MTEXTEND
1000
ACAD_MTEXT_DEFINED_HEIGHT_BEGIN
1070
    46
1040
8.000000000019269
1000
ACAD_MTEXT_DEFINED_HEIGHT_END
  0
MTEXT
  5
4AD5E
330
1F
100
AcDbEntity
  8
AM_6
100
AcDbMText
 10
3457.855134068342
 20
-2712.306231644435
 30
0.0
 40
3.2
 41
15.00000000000324
 71
     5
 72
     5
  1
2.4
 73
     1
 44
1.0
1001
ACAD
1000
MTEXTBEGIN
1070
    73
1070
     1
1070
    44
1040
1.0
1070
    74
1070
     0
1000
MTEXTEND
1000
ACAD_MTEXT_DEFINED_HEIGHT_BEGIN
1070
    46
1040
8.000000000021088
1000
ACAD_MTEXT_DEFINED_HEIGHT_END
  0
MTEXT
  5
4AD5F
330
1F
100
AcDbEntity
  8
AM_6
100
AcDbMText
 10
3472.855134068343
 20
-2712.306231644439
 30
0.0
 40
3.2
 41
14.99999999997378
 71
     5
 72
     5
  1
2.6
 73
     1
 44
1.0
1001
ACAD
1000
MTEXTBEGIN
1070
    73
1070
     1
1070
    44
1040
1.0
1070
    74
1070
     0
1000
MTEXTEND
1000
ACAD_MTEXT_DEFINED_HEIGHT_BEGIN
1070
    46
1040
8.000000000019269
1000
ACAD_MTEXT_DEFINED_HEIGHT_END
  0
MTEXT
  5
4AD60
330
1F
100
AcDbEntity
  8
AM_6
100
AcDbMText
 10
3427.855134068327
 20
-2772.306231644464
 30
0.0
 40
3.2
 41
14.99999999996687
 71
     5
 72
     5
  1
1.6
 73
     1
 44
1.0
1001
ACAD
1000
MTEXTBEGIN
1070
    73
1070
     1
1070
    44
1040
1.0
1070
    74
1070
     0
1000
MTEXTEND
1000
ACAD_MTEXT_DEFINED_HEIGHT_BEGIN
1070
    46
1040
15.99999999993286
1000
ACAD_MTEXT_DEFINED_HEIGHT_END
  0
MTEXT
  5
4AD61
330
1F
100
AcDbEntity
  8
AM_6
100
AcDbMText
 10
3442.855134068314
 20
-2772.306231644463
 30
0.0
 40
3.2
 41
14.99999999999181
 71
     5
 72
     5
  1
1.5
 73
     1
 44
1.0
1001
ACAD
1000
MTEXTBEGIN
1070
    73
1070
     1
1070
    44
1040
1.0
1070
    74
1070
     0
1000
MTEXTEND
1000
ACAD_MTEXT_DEFINED_HEIGHT_BEGIN
1070
    46
1040
15.99999999993241
1000
ACAD_MTEXT_DEFINED_HEIGHT_END
  0
MTEXT
  5
4AD62
330
1F
100
AcDbEntity
  8
AM_6
100
AcDbMText
 10
3457.855134068348
 20
-2772.306231644462
 30
0.0
 40
3.2
 41
15.00000000002161
 71
     5
 72
     5
  1
3.5
 73
     1
 44
1.0
1001
ACAD
1000
MTEXTBEGIN
1070
    73
1070
     1
1070
    44
1040
1.0
1070
    74
1070
     0
1000
MTEXTEND
1000
ACAD_MTEXT_DEFINED_HEIGHT_BEGIN
1070
    46
1040
15.99999999993788
1000
ACAD_MTEXT_DEFINED_HEIGHT_END
  0
LINE
  5
4AD63
330
1F
100
AcDbEntity
  8
AM_4
100
AcDbLine
 10
3465.355134068321
 20
-2732.306231644456
 30
0.0
 11
3450.355134068321
 21
-2740.306231644458
 31
0.0
  0
MTEXT
  5
4AD64
330
1F
100
AcDbEntity
  8
AM_6
100
AcDbMText
 10
3442.855134068341
 20
-2736.306231644465
 30
0.0
 40
3.2
 41
14.99999999997747
 71
     5
 72
     5
  1
2.0
 73
     1
 44
1.0
1001
ACAD
1000
MTEXTBEGIN
1070
    73
1070
     1
1070
    44
1040
1.0
1070
    74
1070
     0
1000
MTEXTEND
1000
ACAD_MTEXT_DEFINED_HEIGHT_BEGIN
1070
    46
1040
8.000000000015631
1000
ACAD_MTEXT_DEFINED_HEIGHT_END
  0
MTEXT
  5
4AD65
330
1F
100
AcDbEntity
  8
AM_6
100
AcDbMText
 10
3472.855134068343
 20
-2736.306231644472
 30
0.0
 40
3.2
 41
14.99999999997378
 71
     5
 72
     5
  1
5.0
 73
     1
 44
1.0
1001
ACAD
1000
MTEXTBEGIN
1070
    73
1070
     1
1070
    44
1040
1.0
1070
    74
1070
     0
1000
MTEXTEND
1000
ACAD_MTEXT_DEFINED_HEIGHT_BEGIN
1070
    46
1040
8.000000000019269
1000
ACAD_MTEXT_DEFINED_HEIGHT_END
  0
MTEXT
  5
4AD66
330
1F
100
AcDbEntity
  8
AM_6
100
AcDbMText
 10
3472.855134068304
 20
-2580.306231644423
 30
0.0
 40
3.2
 41
15.00000000000023
 71
     5
 72
     5
  1
3.5
 73
     1
 44
1.0
1001
ACAD
1000
MTEXTBEGIN
1070
    73
1070
     1
1070
    44
1040
1.0
1070
    74
1070
     0
1000
MTEXTEND
1000
ACAD_MTEXT_DEFINED_HEIGHT_BEGIN
1070
    46
1040
32.00000000001656
1000
ACAD_MTEXT_DEFINED_HEIGHT_END
  0
MTEXT
  5
4AD67
330
1F
100
AcDbEntity
  8
AM_6
100
AcDbMText
 10
3472.855134068279
 20
-2772.306231644463
 30
0.0
 40
3.2
 41
14.99999999997795
 71
     5
 72
     5
  1
3.5
 73
     1
 44
1.0
1001
ACAD
1000
MTEXTBEGIN
1070
    73
1070
     1
1070
    44
1040
1.0
1070
    74
1070
     0
1000
MTEXTEND
1000
ACAD_MTEXT_DEFINED_HEIGHT_BEGIN
1070
    46
1040
15.99999999993606
1000
ACAD_MTEXT_DEFINED_HEIGHT_END
  0
MTEXT
  5
4AD68
330
1F
100
AcDbEntity
  8
AM_6
100
AcDbMText
 10
3472.855134068288
 20
-2724.306231644431
 30
0.0
 40
3.2
 41
14.99999999998204
 71
     5
 72
     5
  1
3.5
 73
     1
 44
1.0
1001
ACAD
1000
MTEXTBEGIN
1070
    73
1070
     1
1070
    44
1040
1.0
1070
    74
1070
     0
1000
MTEXTEND
1000
ACAD_MTEXT_DEFINED_HEIGHT_BEGIN
1070
    46
1040
16.00000000002428
1000
ACAD_MTEXT_DEFINED_HEIGHT_END
  0
MTEXT
  5
4AD69
330
1F
100
AcDbEntity
  8
AM_6
100
AcDbMText
 10
3394.855134068359
 20
-2555.381231644406
 30
0.0
 40
3.2
 41
10.20000000000162
 71
     5
 72
     5
  1
A
 73
     1
 44
1.0
1001
ACAD
1000
MTEXTBEGIN
1070
    73
1070
     1
1070
    44
1040
1.0
1070
    74
1070
     0
1000
MTEXTEND
1000
ACAD_MTEXT_DEFINED_HEIGHT_BEGIN
1070
    46
1040
17.85000000000509
1000
ACAD_MTEXT_DEFINED_HEIGHT_END
  0
MTEXT
  5
4AD6A
330
1F
100
AcDbEntity
  8
AM_6
100
AcDbMText
 10
3427.855134068361
 20
-2560.306231644416
 30
0.0
 40
3.2
 41
15.00000000000034
 71
     5
 72
     5
  1
スチール
 73
     1
 44
1.0
1001
ACAD
1000
MTEXTBEGIN
1070
    73
1070
     1
1070
    44
1040
1.0
1070
    74
1070
     0
1000
MTEXTEND
1000
ACAD_MTEXT_DEFINED_HEIGHT_BEGIN
1070
    46
1040
7.999999999991995
1000
ACAD_MTEXT_DEFINED_HEIGHT_END
  0
MTEXT
  5
4AD6B
330
1F
100
AcDbEntity
  8
AM_6
100
AcDbMText
 10
3405.055134068359
 20
-2555.381231644409
 30
0.0
 40
3.2
 41
10.20000000000179
 71
     5
 72
     5
  1
B
 73
     1
 44
1.0
1001
ACAD
1000
MTEXTBEGIN
1070
    73
1070
     1
1070
    44
1040
1.0
1070
    74
1070
     0
1000
MTEXTEND
1000
ACAD_MTEXT_DEFINED_HEIGHT_BEGIN
1070
    46
1040
17.85000000000145
1000
ACAD_MTEXT_DEFINED_HEIGHT_END
  0
LINE
  5
4AD6C
330
1F
100
AcDbEntity
  8
AM_0
100
AcDbLine
 10
3356.430134068357
 20
-2556.306231644412
 30
0.0
 11
3356.430134068312
 21
-2780.306231644427
 31
0.0
  0
LINE
  5
4AD6D
330
1F
100
AcDbEntity
  8
AM_0
100
AcDbLine
 10
3389.755134068359
 20
-2546.456231644405
 30
0.0
 11
3389.755134068312
 21
-2780.306231644425
 31
0.0
  0
LINE
  5
4AD6E
330
1F
100
AcDbEntity
  8
AM_4
100
AcDbLine
 10
3410.15513406836
 20
-2546.456231644408
 30
0.0
 11
3410.155134068312
 21
-2780.306231644427
 31
0.0
  0
LINE
  5
4AD6F
330
1F
100
AcDbEntity
  8
AM_5
100
AcDbLine
 10
3450.355134068362
 20
-2546.456231644408
 30
0.0
 11
3450.355134068312
 21
-2780.306231644432
 31
0.0
  0
LINE
  5
4AD70
330
1F
100
AcDbEntity
  8
AM_5
100
AcDbLine
 10
3435.355134068362
 20
-2556.306231644419
 30
0.0
 11
3435.35513406831
 21
-2780.306231644431
 31
0.0
  0
LINE
  5
4AD71
330
1F
100
AcDbEntity
  8
AM_0
100
AcDbLine
 10
3323.105134068359
 20
-2546.456231644406
 30
0.0
 11
3323.105134068312
 21
-2780.306231644425
 31
0.0
  0
LINE
  5
4AD72
330
1F
100
AcDbEntity
  8
AM_0
100
AcDbLine
 10
3480.355134068361
 20
-2546.456231644405
 30
0.0
 11
3323.105134068359
 21
-2546.456231644406
 31
0.0
  0
MTEXT
  5
4AD73
330
1F
100
AcDbEntity
  8
AM_6
100
AcDbMText
 10
3373.092634068355
 20
-2560.306231644416
 30
0.0
 40
3.2
 41
33.3249999999992
 71
     5
 72
     5
  1
ステンレス
 73
     1
 44
1.0
1001
ACAD
1000
MTEXTBEGIN
1070
    73
1070
     1
1070
    44
1040
1.0
1070
    74
1070
     0
1000
MTEXTEND
1000
ACAD_MTEXT_DEFINED_HEIGHT_BEGIN
1070
    46
1040
7.999999999973656
1000
ACAD_MTEXT_DEFINED_HEIGHT_END
  0
MTEXT
  5
4AD74
330
1F
100
AcDbEntity
  8
AM_6
100
AcDbMText
 10
3339.767634068355
 20
-2560.306231644406
 30
0.0
 40
3.2
 41
33.32499999999979
 71
     5
 72
     5
  1
スチール
 73
     1
 44
1.0
1001
ACAD
1000
MTEXTBEGIN
1070
    73
1070
     1
1070
    44
1040
1.0
1070
    74
1070
     0
1000
MTEXTEND
1000
ACAD_MTEXT_DEFINED_HEIGHT_BEGIN
1070
    46
1040
7.999999999987299
1000
ACAD_MTEXT_DEFINED_HEIGHT_END
  0
MTEXT
  5
4AD75
330
1F
100
AcDbEntity
  8
AM_6
100
AcDbMText
 10
3442.85513406836
 20
-2560.306231644422
 30
0.0
 40
3.2
 41
14.99999999999801
 71
     5
 72
     5
  1
ステンレス
 73
     1
 44
1.0
1001
ACAD
1000
MTEXTBEGIN
1070
    73
1070
     1
1070
    44
1040
1.0
1070
    74
1070
     0
1000
MTEXTEND
1000
ACAD_MTEXT_DEFINED_HEIGHT_BEGIN
1070
    46
1040
7.999999999971986
1000
ACAD_MTEXT_DEFINED_HEIGHT_END
  0
LINE
  5
4AD76
330
1F
100
AcDbEntity
  8
AM_5
100
AcDbLine
 10
3420.355134068359
 20
-2556.306231644403
 30
0.0
 11
3450.35513406836
 21
-2556.306231644436
 31
0.0
  0
MTEXT
  5
4AD77
330
1F
100
AcDbEntity
  8
AM_6
100
AcDbMText
 10
3435.35513406836
 20
-2551.381231644422
 30
0.0
 40
3.2
 41
29.99999999999802
 71
     5
 72
     5
  1
D
 73
     1
 44
1.0
1001
ACAD
1000
MTEXTBEGIN
1070
    73
1070
     1
1070
    44
1040
1.0
1070
    74
1070
     0
1000
MTEXTEND
1000
ACAD_MTEXT_DEFINED_HEIGHT_BEGIN
1070
    46
1040
9.850000000028739
1000
ACAD_MTEXT_DEFINED_HEIGHT_END
  0
LINE
  5
4AD78
330
1F
100
AcDbEntity
  8
AM_4
100
AcDbLine
 10
3399.955134068358
 20
-2546.456231644406
 30
0.0
 11
3399.95513406831
 21
-2780.306231644431
 31
0.0
  0
LINE
  5
4AD79
330
1F
100
AcDbEntity
  8
AM_0
100
AcDbLine
 10
3323.105134068358
 20
-2556.306231644396
 30
0.0
 11
3389.755134068357
 21
-2556.306231644429
 31
0.0
  0
MTEXT
  5
4AD7A
330
1F
100
AcDbEntity
  8
AM_6
100
AcDbMText
 10
3356.430134068357
 20
-2551.381231644419
 30
0.0
 40
3.2
 41
66.64999999999967
 71
     5
 72
     5
  1
品番
 73
     1
 44
1.0
1001
ACAD
1000
MTEXTBEGIN
1070
    73
1070
     1
1070
    44
1040
1.0
1070
    74
1070
     0
1000
MTEXTEND
1000
ACAD_MTEXT_DEFINED_HEIGHT_BEGIN
1070
    46
1040
9.850000000018736
1000
ACAD_MTEXT_DEFINED_HEIGHT_END
  0
MTEXT
  5
4AD7B
330
1F
100
AcDbEntity
  8
AM_6
100
AcDbMText
 10
3415.25513406836
 20
-2555.381231644411
 30
0.0
 40
3.2
 41
10.20000000000179
 71
     5
 72
     5
  1
C
 73
     1
 44
1.0
1001
ACAD
1000
MTEXTBEGIN
1070
    73
1070
     1
1070
    44
1040
1.0
1070
    74
1070
     0
1000
MTEXTEND
1000
ACAD_MTEXT_DEFINED_HEIGHT_BEGIN
1070
    46
1040
17.85000000000145
1000
ACAD_MTEXT_DEFINED_HEIGHT_END
  0
LINE
  5
4AD7C
330
1F
100
AcDbEntity
  8
AM_4
100
AcDbLine
 10
3420.355134068361
 20
-2546.45623164441
 30
0.0
 11
3420.355134068313
 21
-2780.306231644428
 31
0.0
  0
MTEXT
  5
4AD7D
330
1F
100
AcDbEntity
  8
AM_6
100
AcDbMText
 10
3457.855134068361
 20
-2560.306231644414
 30
0.0
 40
3.2
 41
15.00000000000034
 71
     5
 72
     5
  1
スチール
 73
     1
 44
1.0
1001
ACAD
1000
MTEXTBEGIN
1070
    73
1070
     1
1070
    44
1040
1.0
1070
    74
1070
     0
1000
MTEXTEND
1000
ACAD_MTEXT_DEFINED_HEIGHT_BEGIN
1070
    46
1040
7.999999999991995
1000
ACAD_MTEXT_DEFINED_HEIGHT_END
  0
LINE
  5
4AD7E
330
1F
100
AcDbEntity
  8
AM_0
100
AcDbLine
 10
3480.355134068361
 20
-2546.456231644406
 30
0.0
 11
3480.355134068313
 21
-2780.306231644431
 31
0.0
  0
LINE
  5
4AD7F
330
1F
100
AcDbEntity
  8
AM_5
100
AcDbLine
 10
3465.355134068361
 20
-2556.306231644418
 30
0.0
 11
3465.355134068359
 21
-2780.306231644431
 31
0.0
  0
MTEXT
  5
4AD80
330
1F
100
AcDbEntity
  8
AM_6
100
AcDbMText
 10
3472.85513406836
 20
-2560.30623164442
 30
0.0
 40
3.2
 41
14.99999999999801
 71
     5
 72
     5
  1
ステンレス
 73
     1
 44
1.0
1001
ACAD
1000
MTEXTBEGIN
1070
    73
1070
     1
1070
    44
1040
1.0
1070
    74
1070
     0
1000
MTEXTEND
1000
ACAD_MTEXT_DEFINED_HEIGHT_BEGIN
1070
    46
1040
7.999999999971986
1000
ACAD_MTEXT_DEFINED_HEIGHT_END
  0
LINE
  5
4AD81
330
1F
100
AcDbEntity
  8
AM_5
100
AcDbLine
 10
3450.35513406836
 20
-2556.306231644401
 30
0.0
 11
3480.355134068359
 21
-2556.306231644434
 31
0.0
  0
MTEXT
  5
4AD82
330
1F
100
AcDbEntity
  8
AM_6
100
AcDbMText
 10
3465.35513406836
 20
-2551.38123164442
 30
0.0
 40
3.2
 41
29.99999999999802
 71
     5
 72
     5
  1
E
 73
     1
 44
1.0
1001
ACAD
1000
MTEXTBEGIN
1070
    73
1070
     1
1070
    44
1040
1.0
1070
    74
1070
     0
1000
MTEXTEND
1000
ACAD_MTEXT_DEFINED_HEIGHT_BEGIN
1070
    46
1040
9.850000000028739
1000
ACAD_MTEXT_DEFINED_HEIGHT_END
  0
LINE
  5
4AD83
330
1F
100
AcDbEntity
  8
AM_0
100
AcDbLine
 10
3480.355134068313
 20
-2780.306231644431
 30
0.0
 11
3323.105134068312
 21
-2780.306231644428
 31
0.0
  0
LINE
  5
4AD84
330
1F
100
AcDbEntity
  8
AM_0
100
AcDbLine
 10
3480.355134068358
 20
-2564.306231644418
 30
0.0
 11
3323.105134068356
 21
-2564.3062316444
 31
0.0
  0
LINE
  5
4AD85
330
1F
100
AcDbEntity
  8
AM_4
100
AcDbLine
 10
3399.955134068353
 20
-2572.306231644417
 30
0.0
 11
3323.105134068355
 21
-2572.306231644407
 31
0.0
  0
LINE
  5
4AD86
330
1F
100
AcDbEntity
  8
AM_4
100
AcDbLine
 10
3399.955134068351
 20
-2580.306231644413
 30
0.0
 11
3323.105134068353
 21
-2580.306231644407
 31
0.0
  0
LINE
  5
4AD87
330
1F
100
AcDbEntity
  8
AM_4
100
AcDbLine
 10
3399.95513406835
 20
-2588.306231644403
 30
0.0
 11
3323.105134068351
 21
-2588.306231644401
 31
0.0
  0
LINE
  5
4AD88
330
1F
100
AcDbEntity
  8
AM_4
100
AcDbLine
 10
3480.35513406835
 20
-2596.306231644428
 30
0.0
 11
3323.105134068349
 21
-2596.306231644414
 31
0.0
  0
LINE
  5
4AD89
330
1F
100
AcDbEntity
  8
AM_4
100
AcDbLine
 10
3410.155134068349
 20
-2604.306231644416
 30
0.0
 11
3399.955134068346
 21
-2604.306231644415
 31
0.0
  0
LINE
  5
4AD8A
330
1F
100
AcDbEntity
  8
AM_4
100
AcDbLine
 10
3389.755134068347
 20
-2604.306231644414
 30
0.0
 11
3323.105134068348
 21
-2604.306231644405
 31
0.0
  0
LINE
  5
4AD8B
330
1F
100
AcDbEntity
  8
AM_4
100
AcDbLine
 10
3480.355134068348
 20
-2612.306231644418
 30
0.0
 11
3410.155134068346
 21
-2612.306231644411
 31
0.0
  0
LINE
  5
4AD8C
330
1F
100
AcDbEntity
  8
AM_4
100
AcDbLine
 10
3389.755134068346
 20
-2612.30623164441
 30
0.0
 11
3323.105134068346
 21
-2612.306231644403
 31
0.0
  0
LINE
  5
4AD8D
330
1F
100
AcDbEntity
  8
AM_4
100
AcDbLine
 10
3399.955134068343
 20
-2620.306231644411
 30
0.0
 11
3323.105134068344
 21
-2620.306231644411
 31
0.0
  0
LINE
  5
4AD8E
330
1F
100
AcDbEntity
  8
AM_4
100
AcDbLine
 10
3399.955134068341
 20
-2628.306231644402
 30
0.0
 11
3323.105134068343
 21
-2628.306231644402
 31
0.0
  0
LINE
  5
4AD8F
330
1F
100
AcDbEntity
  8
AM_4
100
AcDbLine
 10
3480.355134068343
 20
-2636.306231644419
 30
0.0
 11
3323.105134068342
 21
-2636.306231644416
 31
0.0
  0
LINE
  5
4AD90
330
1F
100
AcDbEntity
  8
AM_4
100
AcDbLine
 10
3480.355134068339
 20
-2652.306231644416
 30
0.0
 11
3410.155134068338
 21
-2652.306231644417
 31
0.0
  0
LINE
  5
4AD91
330
1F
100
AcDbEntity
  8
AM_4
100
AcDbLine
 10
3389.755134068338
 20
-2652.306231644418
 30
0.0
 11
3323.105134068338
 21
-2652.306231644419
 31
0.0
  0
LINE
  5
4AD92
330
1F
100
AcDbEntity
  8
AM_4
100
AcDbLine
 10
3399.955134068335
 20
-2660.306231644417
 30
0.0
 11
3323.105134068337
 21
-2660.306231644419
 31
0.0
  0
LINE
  5
4AD93
330
1F
100
AcDbEntity
  8
AM_4
100
AcDbLine
 10
3399.955134068334
 20
-2668.306231644414
 30
0.0
 11
3323.105134068335
 21
-2668.306231644414
 31
0.0
  0
LINE
  5
4AD94
330
1F
100
AcDbEntity
  8
AM_4
100
AcDbLine
 10
3399.955134068332
 20
-2676.306231644437
 30
0.0
 11
3323.105134068333
 21
-2676.306231644427
 31
0.0
  0
LINE
  5
4AD95
330
1F
100
AcDbEntity
  8
AM_4
100
AcDbLine
 10
3480.355134068332
 20
-2684.306231644442
 30
0.0
 11
3323.105134068331
 21
-2684.306231644418
 31
0.0
  0
LINE
  5
4AD96
330
1F
100
AcDbEntity
  8
AM_4
100
AcDbLine
 10
3410.155134068329
 20
-2692.306231644427
 30
0.0
 11
3399.955134068328
 21
-2692.306231644426
 31
0.0
  0
LINE
  5
4AD97
330
1F
100
AcDbEntity
  8
AM_4
100
AcDbLine
 10
3389.755134068329
 20
-2692.306231644425
 30
0.0
 11
3323.10513406833
 21
-2692.306231644416
 31
0.0
  0
LINE
  5
4AD98
330
1F
100
AcDbEntity
  8
AM_4
100
AcDbLine
 10
3480.355134068329
 20
-2700.306231644442
 30
0.0
 11
3410.155134068328
 21
-2700.306231644435
 31
0.0
  0
LINE
  5
4AD99
330
1F
100
AcDbEntity
  8
AM_4
100
AcDbLine
 10
3389.755134068328
 20
-2700.306231644432
 30
0.0
 11
3323.105134068328
 21
-2700.306231644423
 31
0.0
  0
LINE
  5
4AD9A
330
1F
100
AcDbEntity
  8
AM_4
100
AcDbLine
 10
3480.355134068327
 20
-2708.306231644435
 30
0.0
 11
3399.955134068325
 21
-2708.306231644425
 31
0.0
  0
LINE
  5
4AD9B
330
1F
100
AcDbEntity
  8
AM_4
100
AcDbLine
 10
3389.755134068326
 20
-2708.306231644423
 30
0.0
 11
3323.105134068327
 21
-2708.306231644414
 31
0.0
  0
LINE
  5
4AD9C
330
1F
100
AcDbEntity
  8
AM_4
100
AcDbLine
 10
3480.355134068326
 20
-2716.306231644427
 30
0.0
 11
3410.155134068324
 21
-2716.306231644428
 31
0.0
  0
LINE
  5
4AD9D
330
1F
100
AcDbEntity
  8
AM_4
100
AcDbLine
 10
3389.755134068324
 20
-2716.306231644428
 30
0.0
 11
3323.105134068325
 21
-2716.306231644429
 31
0.0
  0
LINE
  5
4AD9E
330
1F
100
AcDbEntity
  8
AM_4
100
AcDbLine
 10
3410.15513406834
 20
-2644.30623164442
 30
0.0
 11
3399.955134068338
 21
-2644.30623164442
 31
0.0
  0
LINE
  5
4AD9F
330
1F
100
AcDbEntity
  8
AM_4
100
AcDbLine
 10
3389.755134068339
 20
-2644.30623164442
 30
0.0
 11
3323.105134068338
 21
-2644.306231644419
 31
0.0
  0
LINE
  5
4ADA0
330
1F
100
AcDbEntity
  8
AM_4
100
AcDbLine
 10
3410.155134068323
 20
-2724.306231644443
 30
0.0
 11
3399.955134068322
 21
-2724.306231644443
 31
0.0
  0
LINE
  5
4ADA1
330
1F
100
AcDbEntity
  8
AM_4
100
AcDbLine
 10
3389.755134068323
 20
-2724.306231644443
 30
0.0
 11
3323.105134068325
 21
-2724.306231644439
 31
0.0
  0
LINE
  5
4ADA2
330
1F
100
AcDbEntity
  8
AM_4
100
AcDbLine
 10
3480.355134068323
 20
-2732.306231644443
 30
0.0
 11
3410.155134068322
 21
-2732.306231644446
 31
0.0
  0
LINE
  5
4ADA3
330
1F
100
AcDbEntity
  8
AM_4
100
AcDbLine
 10
3389.755134068321
 20
-2732.306231644447
 30
0.0
 11
3323.105134068322
 21
-2732.306231644451
 31
0.0
  0
LINE
  5
4ADA4
330
1F
100
AcDbEntity
  8
AM_4
100
AcDbLine
 10
3480.355134068321
 20
-2740.306231644472
 30
0.0
 11
3323.105134068325
 21
-2740.306231644461
 31
0.0
  0
LINE
  5
4ADA5
330
1F
100
AcDbEntity
  8
AM_4
100
AcDbLine
 10
3410.155134068318
 20
-2748.30623164447
 30
0.0
 11
3399.955134068317
 21
-2748.30623164447
 31
0.0
  0
LINE
  5
4ADA6
330
1F
100
AcDbEntity
  8
AM_4
100
AcDbLine
 10
3389.755134068318
 20
-2748.30623164447
 30
0.0
 11
3323.105134068319
 21
-2748.306231644472
 31
0.0
  0
LINE
  5
4ADA7
330
1F
100
AcDbEntity
  8
AM_4
100
AcDbLine
 10
3410.155134068317
 20
-2756.30623164449
 30
0.0
 11
3399.955134068316
 21
-2756.306231644489
 31
0.0
  0
LINE
  5
4ADA8
330
1F
100
AcDbEntity
  8
AM_4
100
AcDbLine
 10
3389.755134068316
 20
-2756.306231644488
 30
0.0
 11
3323.105134068325
 21
-2756.306231644483
 31
0.0
  0
LINE
  5
4ADA9
330
1F
100
AcDbEntity
  8
AM_4
100
AcDbLine
 10
3480.355134068317
 20
-2764.306231644495
 30
0.0
 11
3410.155134068315
 21
-2764.306231644495
 31
0.0
  0
LINE
  5
4ADAA
330
1F
100
AcDbEntity
  8
AM_4
100
AcDbLine
 10
3389.755134068315
 20
-2764.306231644495
 30
0.0
 11
3323.105134068315
 21
-2764.306231644494
 31
0.0
  0
LINE
  5
4ADAB
330
1F
100
AcDbEntity
  8
AM_4
100
AcDbLine
 10
3410.155134068313
 20
-2772.306231644501
 30
0.0
 11
3399.955134068311
 21
-2772.306231644501
 31
0.0
  0
LINE
  5
4ADAC
330
1F
100
AcDbEntity
  8
AM_4
100
AcDbLine
 10
3389.755134068313
 20
-2772.306231644502
 30
0.0
 11
3323.105134068325
 21
-2772.306231644505
 31
0.0
  0
MTEXT
  5
4ADAD
330
1F
100
AcDbEntity
  8
AM_6
100
AcDbMText
 10
3394.855134068358
 20
-2576.324981644404
 30
0.0
 40
3.2
 41
10.20000000000018
 71
     5
 72
     5
  1
150
 73
     1
 44
1.0
1001
ACAD
1000
MTEXTBEGIN
1070
    73
1070
     1
1070
    44
1040
1.0
1070
    74
1070
     0
1000
MTEXTEND
1000
ACAD_MTEXT_DEFINED_HEIGHT_BEGIN
1070
    46
1040
8.037499999995999
1000
ACAD_MTEXT_DEFINED_HEIGHT_END
  0
MTEXT
  5
4ADAE
330
1F
100
AcDbEntity
  8
AM_6
100
AcDbMText
 10
3373.092634068352
 20
-2576.306231644404
 30
0.0
 40
3.2
 41
33.32499999999801
 71
     5
 72
     5
  1
DEH-26S-01522
 73
     1
 44
1.0
1001
ACAD
1000
MTEXTBEGIN
1070
    73
1070
     1
1070
    44
1040
1.0
1070
    74
1070
     0
1000
MTEXTEND
1000
ACAD_MTEXT_DEFINED_HEIGHT_BEGIN
1070
    46
1040
7.999999999994612
1000
ACAD_MTEXT_DEFINED_HEIGHT_END
  0
MTEXT
  5
4ADAF
330
1F
100
AcDbEntity
  8
AM_6
100
AcDbMText
 10
3339.767634068353
 20
-2576.306231644406
 30
0.0
 40
3.2
 41
33.32499999999789
 71
     5
 72
     5
  1
DEH-26-01522
 73
     1
 44
1.0
1001
ACAD
1000
MTEXTBEGIN
1070
    73
1070
     1
1070
    44
1040
1.0
1070
    74
1070
     0
1000
MTEXTEND
1000
ACAD_MTEXT_DEFINED_HEIGHT_BEGIN
1070
    46
1040
7.999999999996431
1000
ACAD_MTEXT_DEFINED_HEIGHT_END
  0
MTEXT
  5
4ADB0
330
1F
100
AcDbEntity
  8
AM_6
100
AcDbMText
 10
3405.055134068351
 20
-2600.306231644417
 30
0.0
 40
3.2
 41
10.20000000000204
 71
     5
 72
     5
  1
25
 73
     1
 44
1.0
1001
ACAD
1000
MTEXTBEGIN
1070
    73
1070
     1
1070
    44
1040
1.0
1070
    74
1070
     0
1000
MTEXTEND
1000
ACAD_MTEXT_DEFINED_HEIGHT_BEGIN
1070
    46
1040
7.999999999997456
1000
ACAD_MTEXT_DEFINED_HEIGHT_END
  0
MTEXT
  5
4ADB1
330
1F
100
AcDbEntity
  8
AM_6
100
AcDbMText
 10
3415.25513406835
 20
-2604.306231644416
 30
0.0
 40
3.2
 41
10.19999999999673
 71
     5
 72
     5
  1
12.5
 73
     1
 44
1.0
1001
ACAD
1000
MTEXTBEGIN
1070
    73
1070
     1
1070
    44
1040
1.0
1070
    74
1070
     0
1000
MTEXTEND
1000
ACAD_MTEXT_DEFINED_HEIGHT_BEGIN
1070
    46
1040
15.99999999999336
1000
ACAD_MTEXT_DEFINED_HEIGHT_END
  0
MTEXT
  5
4ADB2
330
1F
100
AcDbEntity
  8
AM_6
100
AcDbMText
 10
3442.855134068349
 20
-2604.30623164442
 30
0.0
 40
3.2
 41
14.99999999997817
 71
     5
 72
     5
  1
0.8
 73
     1
 44
1.0
1001
ACAD
1000
MTEXTBEGIN
1070
    73
1070
     1
1070
    44
1040
1.0
1070
    74
1070
     0
1000
MTEXTEND
1000
ACAD_MTEXT_DEFINED_HEIGHT_BEGIN
1070
    46
1040
15.99999999999335
1000
ACAD_MTEXT_DEFINED_HEIGHT_END
  0
MTEXT
  5
4ADB3
330
1F
100
AcDbEntity
  8
AM_6
100
AcDbMText
 10
3427.855134068359
 20
-2604.306231644418
 30
0.0
 40
3.2
 41
14.99999999997951
 71
     5
 72
     5
  1
1.0
 73
     1
 44
1.0
1001
ACAD
1000
MTEXTBEGIN
1070
    73
1070
     1
1070
    44
1040
1.0
1070
    74
1070
     0
1000
MTEXTEND
1000
ACAD_MTEXT_DEFINED_HEIGHT_BEGIN
1070
    46
1040
15.99999999999244
1000
ACAD_MTEXT_DEFINED_HEIGHT_END
  0
MTEXT
  5
4ADB4
330
1F
100
AcDbEntity
  8
AM_6
100
AcDbMText
 10
3457.855134068346
 20
-2604.306231644422
 30
0.0
 40
3.2
 41
14.99999999999164
 71
     5
 72
     5
  1
2.4
 73
     1
 44
1.0
1001
ACAD
1000
MTEXTBEGIN
1070
    73
1070
     1
1070
    44
1040
1.0
1070
    74
1070
     0
1000
MTEXTEND
1000
ACAD_MTEXT_DEFINED_HEIGHT_BEGIN
1070
    46
1040
15.99999999998926
1000
ACAD_MTEXT_DEFINED_HEIGHT_END
  0
MTEXT
  5
4ADB5
330
1F
100
AcDbEntity
  8
AM_6
100
AcDbMText
 10
3472.855134068345
 20
-2604.306231644425
 30
0.0
 40
3.2
 41
14.99999999998538
 71
     5
 72
     5
  1
2.6
 73
     1
 44
1.0
1001
ACAD
1000
MTEXTBEGIN
1070
    73
1070
     1
1070
    44
1040
1.0
1070
    74
1070
     0
1000
MTEXTEND
1000
ACAD_MTEXT_DEFINED_HEIGHT_BEGIN
1070
    46
1040
15.99999999998926
1000
ACAD_MTEXT_DEFINED_HEIGHT_END
  0
MTEXT
  5
4ADB6
330
1F
100
AcDbEntity
  8
AM_6
100
AcDbMText
 10
3405.055134068343
 20
-2620.30623164442
 30
0.0
 40
3.2
 41
10.1999999999962
 71
     5
 72
     5
  1
32
 73
     1
 44
1.0
1001
ACAD
1000
MTEXTBEGIN
1070
    73
1070
     1
1070
    44
1040
1.0
1070
    74
1070
     0
1000
MTEXTEND
1000
ACAD_MTEXT_DEFINED_HEIGHT_BEGIN
1070
    46
1040
31.99999999999609
1000
ACAD_MTEXT_DEFINED_HEIGHT_END
  0
MTEXT
  5
4ADB7
330
1F
100
AcDbEntity
  8
AM_6
100
AcDbMText
 10
3373.092634068344
 20
-2608.306231644417
 30
0.0
 40
3.2
 41
33.32500000000097
 71
     5
 72
     5
  1
DEH-26S-03021
 73
     1
 44
1.0
1001
ACAD
1000
MTEXTBEGIN
1070
    73
1070
     1
1070
    44
1040
1.0
1070
    74
1070
     0
1000
MTEXTEND
1000
ACAD_MTEXT_DEFINED_HEIGHT_BEGIN
1070
    46
1040
8.000000000007345
1000
ACAD_MTEXT_DEFINED_HEIGHT_END
  0
MTEXT
  5
4ADB8
330
1F
100
AcDbEntity
  8
AM_6
100
AcDbMText
 10
3339.767634068342
 20
-2608.306231644414
 30
0.0
 40
3.2
 41
33.32500000000811
 71
     5
 72
     5
  1
DEH-26-03021
 73
     1
 44
1.0
1001
ACAD
1000
MTEXTBEGIN
1070
    73
1070
     1
1070
    44
1040
1.0
1070
    74
1070
     0
1000
MTEXTEND
1000
ACAD_MTEXT_DEFINED_HEIGHT_BEGIN
1070
    46
1040
8.000000000011892
1000
ACAD_MTEXT_DEFINED_HEIGHT_END
  0
MTEXT
  5
4ADB9
330
1F
100
AcDbEntity
  8
AM_6
100
AcDbMText
 10
3415.255134068355
 20
-2624.306231644419
 30
0.0
 40
3.2
 41
10.19999999998318
 71
     5
 72
     5
  1
20
 73
     1
 44
1.0
1001
ACAD
1000
MTEXTBEGIN
1070
    73
1070
     1
1070
    44
1040
1.0
1070
    74
1070
     0
1000
MTEXTEND
1000
ACAD_MTEXT_DEFINED_HEIGHT_BEGIN
1070
    46
1040
23.99999999999927
1000
ACAD_MTEXT_DEFINED_HEIGHT_END
  0
MTEXT
  5
4ADBA
330
1F
100
AcDbEntity
  8
AM_6
100
AcDbMText
 10
3427.855134068341
 20
-2624.30623164442
 30
0.0
 40
3.2
 41
14.99999999993454
 71
     5
 72
     5
  1
1.6
 73
     1
 44
1.0
1001
ACAD
1000
MTEXTBEGIN
1070
    73
1070
     1
1070
    44
1040
1.0
1070
    74
1070
     0
1000
MTEXTEND
1000
ACAD_MTEXT_DEFINED_HEIGHT_BEGIN
1070
    46
1040
23.99999999999744
1000
ACAD_MTEXT_DEFINED_HEIGHT_END
  0
MTEXT
  5
4ADBB
330
1F
100
AcDbEntity
  8
AM_6
100
AcDbMText
 10
3442.855134068342
 20
-2624.30623164442
 30
0.0
 40
3.2
 41
14.99999999999777
 71
     5
 72
     5
  1
1.5
 73
     1
 44
1.0
1001
ACAD
1000
MTEXTBEGIN
1070
    73
1070
     1
1070
    44
1040
1.0
1070
    74
1070
     0
1000
MTEXTEND
1000
ACAD_MTEXT_DEFINED_HEIGHT_BEGIN
1070
    46
1040
23.99999999999744
1000
ACAD_MTEXT_DEFINED_HEIGHT_END
  0
MTEXT
  5
4ADBC
330
1F
100
AcDbEntity
  8
AM_6
100
AcDbMText
 10
3457.855134068338
 20
-2624.30623164442
 30
0.0
 40
3.2
 41
15.00000000001478
 71
     5
 72
     5
  1
3.5
 73
     1
 44
1.0
1001
ACAD
1000
MTEXTBEGIN
1070
    73
1070
     1
1070
    44
1040
1.0
1070
    74
1070
     0
1000
MTEXTEND
1000
ACAD_MTEXT_DEFINED_HEIGHT_BEGIN
1070
    46
1040
23.99999999999427
1000
ACAD_MTEXT_DEFINED_HEIGHT_END
  0
MTEXT
  5
4ADBD
330
1F
100
AcDbEntity
  8
AM_6
100
AcDbMText
 10
3472.855134068291
 20
-2624.306231644422
 30
0.0
 40
3.2
 41
15.00000000001569
 71
     5
 72
     5
  1
3.5
 73
     1
 44
1.0
1001
ACAD
1000
MTEXTBEGIN
1070
    73
1070
     1
1070
    44
1040
1.0
1070
    74
1070
     0
1000
MTEXTEND
1000
ACAD_MTEXT_DEFINED_HEIGHT_BEGIN
1070
    46
1040
23.99999999999427
1000
ACAD_MTEXT_DEFINED_HEIGHT_END
  0
MTEXT
  5
4ADBE
330
1F
100
AcDbEntity
  8
AM_6
100
AcDbMText
 10
3405.055134068341
 20
-2640.306231644418
 30
0.0
 40
3.2
 41
10.19999999999931
 71
     5
 72
     5
  1
25
 73
     1
 44
1.0
1001
ACAD
1000
MTEXTBEGIN
1070
    73
1070
     1
1070
    44
1040
1.0
1070
    74
1070
     0
1000
MTEXTEND
1000
ACAD_MTEXT_DEFINED_HEIGHT_BEGIN
1070
    46
1040
8.000000000005641
1000
ACAD_MTEXT_DEFINED_HEIGHT_END
  0
MTEXT
  5
4ADBF
330
1F
100
AcDbEntity
  8
AM_6
100
AcDbMText
 10
3442.855134068335
 20
-2644.306231644418
 30
0.0
 40
3.2
 41
14.99999999998954
 71
     5
 72
     5
  1
0.8
 73
     1
 44
1.0
1001
ACAD
1000
MTEXTBEGIN
1070
    73
1070
     1
1070
    44
1040
1.0
1070
    74
1070
     0
1000
MTEXTEND
1000
ACAD_MTEXT_DEFINED_HEIGHT_BEGIN
1070
    46
1040
15.99999999999698
1000
ACAD_MTEXT_DEFINED_HEIGHT_END
  0
MTEXT
  5
4ADC0
330
1F
100
AcDbEntity
  8
AM_6
100
AcDbMText
 10
3427.85513406834
 20
-2644.306231644418
 30
0.0
 40
3.2
 41
14.99999999997997
 71
     5
 72
     5
  1
1.0
 73
     1
 44
1.0
1001
ACAD
1000
MTEXTBEGIN
1070
    73
1070
     1
1070
    44
1040
1.0
1070
    74
1070
     0
1000
MTEXTEND
1000
ACAD_MTEXT_DEFINED_HEIGHT_BEGIN
1070
    46
1040
15.99999999999971
1000
ACAD_MTEXT_DEFINED_HEIGHT_END
  0
MTEXT
  5
4ADC1
330
1F
100
AcDbEntity
  8
AM_6
100
AcDbMText
 10
3457.855134068331
 20
-2644.306231644419
 30
0.0
 40
3.2
 41
14.99999999997982
 71
     5
 72
     5
  1
2.4
 73
     1
 44
1.0
1001
ACAD
1000
MTEXTBEGIN
1070
    73
1070
     1
1070
    44
1040
1.0
1070
    74
1070
     0
1000
MTEXTEND
1000
ACAD_MTEXT_DEFINED_HEIGHT_BEGIN
1070
    46
1040
15.99999999999016
1000
ACAD_MTEXT_DEFINED_HEIGHT_END
  0
MTEXT
  5
4ADC2
330
1F
100
AcDbEntity
  8
AM_6
100
AcDbMText
 10
3472.855134068345
 20
-2644.306231644422
 30
0.0
 40
3.2
 41
14.999999999969
 71
     5
 72
     5
  1
2.6
 73
     1
 44
1.0
1001
ACAD
1000
MTEXTBEGIN
1070
    73
1070
     1
1070
    44
1040
1.0
1070
    74
1070
     0
1000
MTEXTEND
1000
ACAD_MTEXT_DEFINED_HEIGHT_BEGIN
1070
    46
1040
15.99999999998926
1000
ACAD_MTEXT_DEFINED_HEIGHT_END
  0
MTEXT
  5
4ADC3
330
1F
100
AcDbEntity
  8
AM_6
100
AcDbMText
 10
3405.055134068333
 20
-2664.306231644426
 30
0.0
 40
3.2
 41
10.19999999999847
 71
     5
 72
     5
  1
32
 73
     1
 44
1.0
1001
ACAD
1000
MTEXTBEGIN
1070
    73
1070
     1
1070
    44
1040
1.0
1070
    74
1070
     0
1000
MTEXTEND
1000
ACAD_MTEXT_DEFINED_HEIGHT_BEGIN
1070
    46
1040
40.00000000001155
1000
ACAD_MTEXT_DEFINED_HEIGHT_END
  0
MTEXT
  5
4ADC4
330
1F
100
AcDbEntity
  8
AM_6
100
AcDbMText
 10
3415.255134068342
 20
-2644.306231644418
 30
0.0
 40
3.2
 41
10.20000000000082
 71
     5
 72
     5
  1
12.5
 73
     1
 44
1.0
1001
ACAD
1000
MTEXTBEGIN
1070
    73
1070
     1
1070
    44
1040
1.0
1070
    74
1070
     0
1000
MTEXTEND
1000
ACAD_MTEXT_DEFINED_HEIGHT_BEGIN
1070
    46
1040
15.99999999999927
1000
ACAD_MTEXT_DEFINED_HEIGHT_END
  0
MTEXT
  5
4ADC5
330
1F
100
AcDbEntity
  8
AM_6
100
AcDbMText
 10
3415.255134068337
 20
-2668.306231644426
 30
0.0
 40
3.2
 41
10.19999999997363
 71
     5
 72
     5
  1
20
 73
     1
 44
1.0
1001
ACAD
1000
MTEXTBEGIN
1070
    73
1070
     1
1070
    44
1040
1.0
1070
    74
1070
     0
1000
MTEXTEND
1000
ACAD_MTEXT_DEFINED_HEIGHT_BEGIN
1070
    46
1040
32.00000000000337
1000
ACAD_MTEXT_DEFINED_HEIGHT_END
  0
MTEXT
  5
4ADC6
330
1F
100
AcDbEntity
  8
AM_6
100
AcDbMText
 10
3427.855134068349
 20
-2668.306231644431
 30
0.0
 40
3.2
 41
14.99999999996591
 71
     5
 72
     5
  1
1.6
 73
     1
 44
1.0
1001
ACAD
1000
MTEXTBEGIN
1070
    73
1070
     1
1070
    44
1040
1.0
1070
    74
1070
     0
1000
MTEXTEND
1000
ACAD_MTEXT_DEFINED_HEIGHT_BEGIN
1070
    46
1040
32.00000000000881
1000
ACAD_MTEXT_DEFINED_HEIGHT_END
  0
MTEXT
  5
4ADC7
330
1F
100
AcDbEntity
  8
AM_6
100
AcDbMText
 10
3442.855134068349
 20
-2668.306231644431
 30
0.0
 40
3.2
 41
14.99999999996639
 71
     5
 72
     5
  1
1.5
 73
     1
 44
1.0
1001
ACAD
1000
MTEXTBEGIN
1070
    73
1070
     1
1070
    44
1040
1.0
1070
    74
1070
     0
1000
MTEXTEND
1000
ACAD_MTEXT_DEFINED_HEIGHT_BEGIN
1070
    46
1040
32.00000000000881
1000
ACAD_MTEXT_DEFINED_HEIGHT_END
  0
MTEXT
  5
4ADC8
330
1F
100
AcDbEntity
  8
AM_6
100
AcDbMText
 10
3457.855134068341
 20
-2668.306231644435
 30
0.0
 40
3.2
 41
15.00000000003752
 71
     5
 72
     5
  1
3.5
 73
     1
 44
1.0
1001
ACAD
1000
MTEXTBEGIN
1070
    73
1070
     1
1070
    44
1040
1.0
1070
    74
1070
     0
1000
MTEXTEND
1000
ACAD_MTEXT_DEFINED_HEIGHT_BEGIN
1070
    46
1040
32.0000000000111
1000
ACAD_MTEXT_DEFINED_HEIGHT_END
  0
MTEXT
  5
4ADC9
330
1F
100
AcDbEntity
  8
AM_6
100
AcDbMText
 10
3472.855134068293
 20
-2668.306231644436
 30
0.0
 40
3.2
 41
14.99999999999296
 71
     5
 72
     5
  1
3.5
 73
     1
 44
1.0
1001
ACAD
1000
MTEXTBEGIN
1070
    73
1070
     1
1070
    44
1040
1.0
1070
    74
1070
     0
1000
MTEXTEND
1000
ACAD_MTEXT_DEFINED_HEIGHT_BEGIN
1070
    46
1040
32.0000000000111
1000
ACAD_MTEXT_DEFINED_HEIGHT_END
  0
MTEXT
  5
4ADCA
330
1F
100
AcDbEntity
  8
AM_6
100
AcDbMText
 10
3373.092634068333
 20
-2672.306231644409
 30
0.0
 40
3.2
 41
33.32500000000032
 71
     5
 72
     5
  1
DEH-26S-08522
 73
     1
 44
1.0
1001
ACAD
1000
MTEXTBEGIN
1070
    73
1070
     1
1070
    44
1040
1.0
1070
    74
1070
     0
1000
MTEXTEND
1000
ACAD_MTEXT_DEFINED_HEIGHT_BEGIN
1070
    46
1040
7.99999999988047
1000
ACAD_MTEXT_DEFINED_HEIGHT_END
  0
MTEXT
  5
4ADCB
330
1F
100
AcDbEntity
  8
AM_6
100
AcDbMText
 10
3339.767634068334
 20
-2672.306231644379
 30
0.0
 40
3.2
 41
33.32499999999875
 71
     5
 72
     5
  1
DEH-26-08522
 73
     1
 44
1.0
1001
ACAD
1000
MTEXTBEGIN
1070
    73
1070
     1
1070
    44
1040
1.0
1070
    74
1070
     0
1000
MTEXTEND
1000
ACAD_MTEXT_DEFINED_HEIGHT_BEGIN
1070
    46
1040
7.999999999938223
1000
ACAD_MTEXT_DEFINED_HEIGHT_END
  0
MTEXT
  5
4ADCC
330
1F
100
AcDbEntity
  8
AM_6
100
AcDbMText
 10
3394.855134068367
 20
-2672.306231644392
 30
0.0
 40
3.2
 41
10.20000000000015
 71
     5
 72
     5
  1
850
 73
     1
 44
1.0
1001
ACAD
1000
MTEXTBEGIN
1070
    73
1070
     1
1070
    44
1040
1.0
1070
    74
1070
     0
1000
MTEXTEND
1000
ACAD_MTEXT_DEFINED_HEIGHT_BEGIN
1070
    46
1040
8.000000000010414
1000
ACAD_MTEXT_DEFINED_HEIGHT_END
  0
MTEXT
  5
4ADCD
330
1F
100
AcDbEntity
  8
AM_6
100
AcDbMText
 10
3405.055134068333
 20
-2688.306231644427
 30
0.0
 40
3.2
 41
10.20000000000204
 71
     5
 72
     5
  1
25
 73
     1
 44
1.0
1001
ACAD
1000
MTEXTBEGIN
1070
    73
1070
     1
1070
    44
1040
1.0
1070
    74
1070
     0
1000
MTEXTEND
1000
ACAD_MTEXT_DEFINED_HEIGHT_BEGIN
1070
    46
1040
7.99999999999882
1000
ACAD_MTEXT_DEFINED_HEIGHT_END
  0
MTEXT
  5
4ADCE
330
1F
100
AcDbEntity
  8
AM_6
100
AcDbMText
 10
3415.255134068331
 20
-2692.306231644432
 30
0.0
 40
3.2
 41
10.19999999999627
 71
     5
 72
     5
  1
12.5
 73
     1
 44
1.0
1001
ACAD
1000
MTEXTBEGIN
1070
    73
1070
     1
1070
    44
1040
1.0
1070
    74
1070
     0
1000
MTEXTEND
1000
ACAD_MTEXT_DEFINED_HEIGHT_BEGIN
1070
    46
1040
16.00000000000746
1000
ACAD_MTEXT_DEFINED_HEIGHT_END
  0
MTEXT
  5
4ADCF
330
1F
100
AcDbEntity
  8
AM_6
100
AcDbMText
 10
3442.855134068325
 20
-2692.306231644435
 30
0.0
 40
3.2
 41
14.99999999998908
 71
     5
 72
     5
  1
0.8
 73
     1
 44
1.0
1001
ACAD
1000
MTEXTBEGIN
1070
    73
1070
     1
1070
    44
1040
1.0
1070
    74
1070
     0
1000
MTEXTEND
1000
ACAD_MTEXT_DEFINED_HEIGHT_BEGIN
1070
    46
1040
16.00000000000472
1000
ACAD_MTEXT_DEFINED_HEIGHT_END
  0
MTEXT
  5
4ADD0
330
1F
100
AcDbEntity
  8
AM_6
100
AcDbMText
 10
3427.855134068329
 20
-2692.306231644432
 30
0.0
 40
3.2
 41
14.99999999997997
 71
     5
 72
     5
  1
1.0
 73
     1
 44
1.0
1001
ACAD
1000
MTEXTBEGIN
1070
    73
1070
     1
1070
    44
1040
1.0
1070
    74
1070
     0
1000
MTEXTEND
1000
ACAD_MTEXT_DEFINED_HEIGHT_BEGIN
1070
    46
1040
16.00000000000335
1000
ACAD_MTEXT_DEFINED_HEIGHT_END
  0
MTEXT
  5
4ADD1
330
1F
100
AcDbEntity
  8
AM_6
100
AcDbMText
 10
3457.855134068337
 20
-2692.306231644438
 30
0.0
 40
3.2
 41
15.00000000001165
 71
     5
 72
     5
  1
2.4
 73
     1
 44
1.0
1001
ACAD
1000
MTEXTBEGIN
1070
    73
1070
     1
1070
    44
1040
1.0
1070
    74
1070
     0
1000
MTEXTEND
1000
ACAD_MTEXT_DEFINED_HEIGHT_BEGIN
1070
    46
1040
16.00000000000108
1000
ACAD_MTEXT_DEFINED_HEIGHT_END
  0
MTEXT
  5
4ADD2
330
1F
100
AcDbEntity
  8
AM_6
100
AcDbMText
 10
3472.85513406834
 20
-2692.30623164444
 30
0.0
 40
3.2
 41
14.99999999995945
 71
     5
 72
     5
  1
2.6
 73
     1
 44
1.0
1001
ACAD
1000
MTEXTBEGIN
1070
    73
1070
     1
1070
    44
1040
1.0
1070
    74
1070
     0
1000
MTEXTEND
1000
ACAD_MTEXT_DEFINED_HEIGHT_BEGIN
1070
    46
1040
16.00000000000062
1000
ACAD_MTEXT_DEFINED_HEIGHT_END
  0
MTEXT
  5
4ADD3
330
1F
100
AcDbEntity
  8
AM_6
100
AcDbMText
 10
3405.055134068326
 20
-2700.306231644426
 30
0.0
 40
3.2
 41
10.20000000000439
 71
     5
 72
     5
  1
32
 73
     1
 44
1.0
1001
ACAD
1000
MTEXTBEGIN
1070
    73
1070
     1
1070
    44
1040
1.0
1070
    74
1070
     0
1000
MTEXTEND
1000
ACAD_MTEXT_DEFINED_HEIGHT_BEGIN
1070
    46
1040
15.99999999999973
1000
ACAD_MTEXT_DEFINED_HEIGHT_END
  0
MTEXT
  5
4ADD4
330
1F
100
AcDbEntity
  8
AM_6
100
AcDbMText
 10
3415.255134068337
 20
-2704.30623164441
 30
0.0
 40
3.2
 41
10.19999999998318
 71
     5
 72
     5
  1
20
 73
     1
 44
1.0
1001
ACAD
1000
MTEXTBEGIN
1070
    73
1070
     1
1070
    44
1040
1.0
1070
    74
1070
     0
1000
MTEXTEND
1000
ACAD_MTEXT_DEFINED_HEIGHT_BEGIN
1070
    46
1040
8.000000000034745
1000
ACAD_MTEXT_DEFINED_HEIGHT_END
  0
MTEXT
  5
4ADD5
330
1F
100
AcDbEntity
  8
AM_6
100
AcDbMText
 10
3427.855134068324
 20
-2704.306231644412
 30
0.0
 40
3.2
 41
14.99999999990407
 71
     5
 72
     5
  1
1.6
 73
     1
 44
1.0
1001
ACAD
1000
MTEXTBEGIN
1070
    73
1070
     1
1070
    44
1040
1.0
1070
    74
1070
     0
1000
MTEXTEND
1000
ACAD_MTEXT_DEFINED_HEIGHT_BEGIN
1070
    46
1040
8.000000000033821
1000
ACAD_MTEXT_DEFINED_HEIGHT_END
  0
MTEXT
  5
4ADD6
330
1F
100
AcDbEntity
  8
AM_6
100
AcDbMText
 10
3442.855134068324
 20
-2704.306231644412
 30
0.0
 40
3.2
 41
15.00000000002778
 71
     5
 72
     5
  1
1.5
 73
     1
 44
1.0
1001
ACAD
1000
MTEXTBEGIN
1070
    73
1070
     1
1070
    44
1040
1.0
1070
    74
1070
     0
1000
MTEXTEND
1000
ACAD_MTEXT_DEFINED_HEIGHT_BEGIN
1070
    46
1040
8.000000000034731
1000
ACAD_MTEXT_DEFINED_HEIGHT_END
  0
MTEXT
  5
4ADD7
330
1F
100
AcDbEntity
  8
AM_6
100
AcDbMText
 10
3457.855134068328
 20
-2704.306231644414
 30
0.0
 40
3.2
 41
15.00000000000023
 71
     5
 72
     5
  1
3.5
 73
     1
 44
1.0
1001
ACAD
1000
MTEXTBEGIN
1070
    73
1070
     1
1070
    44
1040
1.0
1070
    74
1070
     0
1000
MTEXTEND
1000
ACAD_MTEXT_DEFINED_HEIGHT_BEGIN
1070
    46
1040
8.00000000003429
1000
ACAD_MTEXT_DEFINED_HEIGHT_END
  0
MTEXT
  5
4ADD8
330
1F
100
AcDbEntity
  8
AM_6
100
AcDbMText
 10
3472.855134068272
 20
-2704.306231644417
 30
0.0
 40
3.2
 41
15.00000000001524
 71
     5
 72
     5
  1
3.5
 73
     1
 44
1.0
1001
ACAD
1000
MTEXTBEGIN
1070
    73
1070
     1
1070
    44
1040
1.0
1070
    74
1070
     0
1000
MTEXTEND
1000
ACAD_MTEXT_DEFINED_HEIGHT_BEGIN
1070
    46
1040
8.000000000036109
1000
ACAD_MTEXT_DEFINED_HEIGHT_END
  0
MTEXT
  5
4ADD9
330
1F
100
AcDbEntity
  8
AM_6
100
AcDbMText
 10
3373.092634068334
 20
-2712.306231644413
 30
0.0
 40
3.2
 41
33.32500000001214
 71
     5
 72
     5
  1
DEH-26S-10031
 73
     1
 44
1.0
1001
ACAD
1000
MTEXTBEGIN
1070
    73
1070
     1
1070
    44
1040
1.0
1070
    74
1070
     0
1000
MTEXTEND
1000
ACAD_MTEXT_DEFINED_HEIGHT_BEGIN
1070
    46
1040
7.999999999997795
1000
ACAD_MTEXT_DEFINED_HEIGHT_END
  0
MTEXT
  5
4ADDA
330
1F
100
AcDbEntity
  8
AM_6
100
AcDbMText
 10
3339.767634068327
 20
-2712.306231644417
 30
0.0
 40
3.2
 41
33.32499999999921
 71
     5
 72
     5
  1
DEH-26-10031
 73
     1
 44
1.0
1001
ACAD
1000
MTEXTBEGIN
1070
    73
1070
     1
1070
    44
1040
1.0
1070
    74
1070
     0
1000
MTEXTEND
1000
ACAD_MTEXT_DEFINED_HEIGHT_BEGIN
1070
    46
1040
7.999999999994612
1000
ACAD_MTEXT_DEFINED_HEIGHT_END
  0
MTEXT
  5
4ADDB
330
1F
100
AcDbEntity
  8
AM_6
100
AcDbMText
 10
3405.05513406833
 20
-2716.30623164444
 30
0.0
 40
3.2
 41
10.19999999998515
 71
     5
 72
     5
  1
38
 73
     1
 44
1.0
1001
ACAD
1000
MTEXTBEGIN
1070
    73
1070
     1
1070
    44
1040
1.0
1070
    74
1070
     0
1000
MTEXTEND
1000
ACAD_MTEXT_DEFINED_HEIGHT_BEGIN
1070
    46
1040
16.0000000000061
1000
ACAD_MTEXT_DEFINED_HEIGHT_END
  0
MTEXT
  5
4ADDC
330
1F
100
AcDbEntity
  8
AM_6
100
AcDbMText
 10
3405.055134068338
 20
-2732.306231644443
 30
0.0
 40
3.2
 41
10.19999999999964
 71
     5
 72
     5
  1
50
 73
     1
 44
1.0
1001
ACAD
1000
MTEXTBEGIN
1070
    73
1070
     1
1070
    44
1040
1.0
1070
    74
1070
     0
1000
MTEXTEND
1000
ACAD_MTEXT_DEFINED_HEIGHT_BEGIN
1070
    46
1040
15.99999999999927
1000
ACAD_MTEXT_DEFINED_HEIGHT_END
  0
MTEXT
  5
4ADDD
330
1F
100
AcDbEntity
  8
AM_6
100
AcDbMText
 10
3394.855134068324
 20
-2760.306231644455
 30
0.0
 40
3.2
 41
10.19999999999972
 71
     5
 72
     5
  1
1800
 73
     1
 44
1.0
1001
ACAD
1000
MTEXTBEGIN
1070
    73
1070
     1
1070
    44
1040
1.0
1070
    74
1070
     0
1000
MTEXTEND
1000
ACAD_MTEXT_DEFINED_HEIGHT_BEGIN
1070
    46
1040
39.99999999994721
1000
ACAD_MTEXT_DEFINED_HEIGHT_END
  0
MTEXT
  5
4ADDE
330
1F
100
AcDbEntity
  8
AM_6
100
AcDbMText
 10
3405.055134068323
 20
-2744.306231644471
 30
0.0
 40
3.2
 41
10.19999999999749
 71
     5
 72
     5
  1
25
 73
     1
 44
1.0
1001
ACAD
1000
MTEXTBEGIN
1070
    73
1070
     1
1070
    44
1040
1.0
1070
    74
1070
     0
1000
MTEXTEND
1000
ACAD_MTEXT_DEFINED_HEIGHT_BEGIN
1070
    46
1040
8.000000000005641
1000
ACAD_MTEXT_DEFINED_HEIGHT_END
  0
MTEXT
  5
4ADDF
330
1F
100
AcDbEntity
  8
AM_6
100
AcDbMText
 10
3373.092634068301
 20
-2744.306231644471
 30
0.0
 40
3.2
 41
33.32500000002163
 71
     5
 72
     5
  1
DEH-26S-18011
 73
     1
 44
1.0
1001
ACAD
1000
MTEXTBEGIN
1070
    73
1070
     1
1070
    44
1040
1.0
1070
    74
1070
     0
1000
MTEXTEND
1000
ACAD_MTEXT_DEFINED_HEIGHT_BEGIN
1070
    46
1040
7.999999999976877
1000
ACAD_MTEXT_DEFINED_HEIGHT_END
  0
MTEXT
  5
4ADE0
330
1F
100
AcDbEntity
  8
AM_6
100
AcDbMText
 10
3339.767634068304
 20
-2744.306231644464
 30
0.0
 40
3.2
 41
33.32500000001338
 71
     5
 72
     5
  1
DEH-26-18011
 73
     1
 44
1.0
1001
ACAD
1000
MTEXTBEGIN
1070
    73
1070
     1
1070
    44
1040
1.0
1070
    74
1070
     0
1000
MTEXTEND
1000
ACAD_MTEXT_DEFINED_HEIGHT_BEGIN
1070
    46
1040
7.999999999966417
1000
ACAD_MTEXT_DEFINED_HEIGHT_END
  0
MTEXT
  5
4ADE1
330
1F
100
AcDbEntity
  8
AM_6
100
AcDbMText
 10
3415.255134068321
 20
-2752.30623164448
 30
0.0
 40
3.2
 41
10.19999999999764
 71
     5
 72
     5
  1
12.5
 73
     1
 44
1.0
1001
ACAD
1000
MTEXTBEGIN
1070
    73
1070
     1
1070
    44
1040
1.0
1070
    74
1070
     0
1000
MTEXTEND
1000
ACAD_MTEXT_DEFINED_HEIGHT_BEGIN
1070
    46
1040
24.00000000002974
1000
ACAD_MTEXT_DEFINED_HEIGHT_END
  0
MTEXT
  5
4ADE2
330
1F
100
AcDbEntity
  8
AM_6
100
AcDbMText
 10
3442.855134068313
 20
-2752.306231644482
 30
0.0
 40
3.2
 41
14.99999999998999
 71
     5
 72
     5
  1
0.8
 73
     1
 44
1.0
1001
ACAD
1000
MTEXTBEGIN
1070
    73
1070
     1
1070
    44
1040
1.0
1070
    74
1070
     0
1000
MTEXTEND
1000
ACAD_MTEXT_DEFINED_HEIGHT_BEGIN
1070
    46
1040
24.00000000002564
1000
ACAD_MTEXT_DEFINED_HEIGHT_END
  0
MTEXT
  5
4ADE3
330
1F
100
AcDbEntity
  8
AM_6
100
AcDbMText
 10
3427.85513406832
 20
-2752.306231644481
 30
0.0
 40
3.2
 41
14.99999999998588
 71
     5
 72
     5
  1
1.0
 73
     1
 44
1.0
1001
ACAD
1000
MTEXTBEGIN
1070
    73
1070
     1
1070
    44
1040
1.0
1070
    74
1070
     0
1000
MTEXTEND
1000
ACAD_MTEXT_DEFINED_HEIGHT_BEGIN
1070
    46
1040
24.00000000002746
1000
ACAD_MTEXT_DEFINED_HEIGHT_END
  0
MTEXT
  5
4ADE4
330
1F
100
AcDbEntity
  8
AM_6
100
AcDbMText
 10
3457.85513406834
 20
-2752.306231644484
 30
0.0
 40
3.2
 41
15.00000000003985
 71
     5
 72
     5
  1
2.4
 73
     1
 44
1.0
1001
ACAD
1000
MTEXTBEGIN
1070
    73
1070
     1
1070
    44
1040
1.0
1070
    74
1070
     0
1000
MTEXTEND
1000
ACAD_MTEXT_DEFINED_HEIGHT_BEGIN
1070
    46
1040
24.00000000002109
1000
ACAD_MTEXT_DEFINED_HEIGHT_END
  0
MTEXT
  5
4ADE5
330
1F
100
AcDbEntity
  8
AM_6
100
AcDbMText
 10
3472.855134068344
 20
-2752.306231644486
 30
0.0
 40
3.2
 41
14.9999999999449
 71
     5
 72
     5
  1
2.6
 73
     1
 44
1.0
1001
ACAD
1000
MTEXTBEGIN
1070
    73
1070
     1
1070
    44
1040
1.0
1070
    74
1070
     0
1000
MTEXTEND
1000
ACAD_MTEXT_DEFINED_HEIGHT_BEGIN
1070
    46
1040
24.00000000001836
1000
ACAD_MTEXT_DEFINED_HEIGHT_END
  0
MTEXT
  5
4ADE6
330
1F
100
AcDbEntity
  8
AM_6
100
AcDbMText
 10
3373.092634068328
 20
-2760.306231644397
 30
0.0
 40
3.2
 41
33.32499999997907
 71
     5
 72
     5
  1
DEH-26S-18031
 73
     1
 44
1.0
1001
ACAD
1000
MTEXTBEGIN
1070
    73
1070
     1
1070
    44
1040
1.0
1070
    74
1070
     0
1000
MTEXTEND
1000
ACAD_MTEXT_DEFINED_HEIGHT_BEGIN
1070
    46
1040
7.999999999993248
1000
ACAD_MTEXT_DEFINED_HEIGHT_END
  0
MTEXT
  5
4ADE7
330
1F
100
AcDbEntity
  8
AM_6
100
AcDbMText
 10
3339.767634068318
 20
-2760.306231644395
 30
0.0
 40
3.2
 41
33.32499999999682
 71
     5
 72
     5
  1
DEH-26-18031
 73
     1
 44
1.0
1001
ACAD
1000
MTEXTBEGIN
1070
    73
1070
     1
1070
    44
1040
1.0
1070
    74
1070
     0
1000
MTEXTEND
1000
ACAD_MTEXT_DEFINED_HEIGHT_BEGIN
1070
    46
1040
7.999999999995521
1000
ACAD_MTEXT_DEFINED_HEIGHT_END
  0
MTEXT
  5
4ADE8
330
1F
100
AcDbEntity
  8
AM_6
100
AcDbMText
 10
3405.055134068322
 20
-2764.306231644495
 30
0.0
 40
3.2
 41
10.19999999998333
 71
     5
 72
     5
  1
38
 73
     1
 44
1.0
1001
ACAD
1000
MTEXTBEGIN
1070
    73
1070
     1
1070
    44
1040
1.0
1070
    74
1070
     0
1000
MTEXTEND
1000
ACAD_MTEXT_DEFINED_HEIGHT_BEGIN
1070
    46
1040
16.00000000001155
1000
ACAD_MTEXT_DEFINED_HEIGHT_END
  0
ENDSEC
  0
SECTION
  2
OBJECTS
  0
DICTIONARY
  5
C
330
0
100
AcDbDictionary
281
     1
  3
ACAD_COLOR
350
C45B
  3
ACAD_GROUP
350
D
  3
ACAD_LAYOUT
350
1A
  3
ACAD_MATERIAL
350
C446
  3
ACAD_MLINESTYLE
350
17
  3
ACAD_PLOTSETTINGS
350
19
  3
ACAD_PLOTSTYLENAME
350
E
  3
ACAD_TABLESTYLE
350
C45C
  3
ACAD_VISUALSTYLE
350
C44A
  3
AcadDim
350
37D85
  3
AcAsAppObject
350
3DA1
  3
ACASGREF_MASTER
350
3DE9
  3
AcDbVariableDictionary
350
34
  3
AcmDictionary
350
47
  3
AD_GREF_MODULE
350
3DEA
  3
AD_MAPI_MODULE
350
3E06
  3
AMG
350
2B
  3
AMGSNAPSETTINGS
350
7D
  3
ASE_INDEX_DICTIONARY
350
B42E
  3
DWGPROPS
350
4AE2E
  3
MAPISURF_MODULE
350
3DEB
  0
DICTIONARY
  5
3F95
330
2
100
AcDbDictionary
280
     1
281
     1
  3
ACAD_LAYERFILTERS
360
494F1
  3
ACAD_LAYERSTATES
360
3F96
  3
ACLYDICTIONARY
360
494F0
  3
AMLAYER_GROUPCOLORS
360
CB2F
  0
DICTIONARY
  5
8A
330
1F
100
AcDbDictionary
280
     1
281
     1
  3
ACAD_SORTENTS
360
D722
  0
DICTIONARY
  5
4A750
330
4A74F
100
AcDbDictionary
280
     1
281
     1
  3
ACAD_DIMASSOC
360
4A751
  0
DICTIONARY
  5
4A753
330
4A752
100
AcDbDictionary
280
     1
281
     1
  3
ACAD_DIMASSOC
360
4A754
  0
DICTIONARY
  5
4A759
330
4A758
100
AcDbDictionary
280
     1
281
     1
  3
ACAD_DIMASSOC
360
4A75A
  0
DICTIONARY
  5
C45B
102
{ACAD_REACTORS
330
C
102
}
330
C
100
AcDbDictionary
281
     1
  0
DICTIONARY
  5
D
102
{ACAD_REACTORS
330
C
102
}
330
C
100
AcDbDictionary
281
     1
  0
DICTIONARY
  5
1A
102
{ACAD_REACTORS
330
C
102
}
330
C
100
AcDbDictionary
281
     1
  3
Model
350
22
  3
ﾚｲｱｳﾄ1
350
1E
  3
ﾚｲｱｳﾄ2
350
26
  0
DICTIONARY
  5
C446
102
{ACAD_REACTORS
330
C
102
}
330
C
100
AcDbDictionary
281
     1
  3
ByBlock
350
C448
  3
ByLayer
350
C447
  3
Global
350
C449
  0
DICTIONARY
  5
17
102
{ACAD_REACTORS
330
C
102
}
330
C
100
AcDbDictionary
281
     1
  3
Standard
350
18
  0
DICTIONARY
  5
19
102
{ACAD_REACTORS
330
C
102
}
330
C
100
AcDbDictionary
281
     1
  3
-00
350
C85D
  0
ACDBDICTIONARYWDFLT
  5
E
102
{ACAD_REACTORS
330
C
102
}
330
C
100
AcDbDictionary
281
     1
  3
Normal
350
F
100
AcDbDictionaryWithDefault
340
F
  0
DICTIONARY
  5
C45C
102
{ACAD_REACTORS
330
C
102
}
330
C
100
AcDbDictionary
281
     1
  3
Standard
350
C45D
  0
DICTIONARY
  5
C44A
102
{ACAD_REACTORS
330
C
102
}
330
C
100
AcDbDictionary
281
     1
  3
2dWireframe
350
C450
  3
3D Hidden
350
C452
  3
3dWireframe
350
C451
  3
Basic
350
C44F
  3
Brighten
350
C456
  3
ColorChange
350
C45A
  3
Conceptual
350
C453
  3
Dim
350
C455
  3
Facepattern
350
C459
  3
Flat
350
C44B
  3
FlatWithEdges
350
C44C
  3
Gouraud
350
C44D
  3
GouraudWithEdges
350
C44E
  3
Linepattern
350
C458
  3
Realistic
350
C454
  3
Thicken
350
C457
  0
XRECORD
  5
37D85
102
{ACAD_REACTORS
330
C
102
}
330
C
100
AcDbXrecord
280
     1
 90
   990106
  3

 60
     0
 61
     0
 62
     1
 63
     3
 64
     0
 65
     0
 66
     0
 67
     3
 68
     1
 69
     0
 70
     0
 71
     0
 72
     0
 40
0.0
170
     0
  0
ACAD_PROXY_OBJECT
  5
3DA1
102
{ACAD_REACTORS
330
C
102
}
330
C
100
AcDbProxyObject
 90
      499
 91
      576
 95
   720919
 70
     0
 93
       10
310
407F
 94
        0
1001
ACAD
1000
AcRTDxfName
1000
ASAPP
  0
ACAD_PROXY_OBJECT
  5
3DE9
102
{ACAD_REACTORS
330
C
102
}
330
C
100
AcDbProxyObject
 90
      499
 91
      581
 95
   720919
 70
     0
 93
       34
310
010000407F
 94
        0
1001
ACAD
1000
AcRTDxfName
1000
ACASGREFMASTER
  0
DICTIONARY
  5
34
102
{ACAD_REACTORS
330
C
102
}
330
C
100
AcDbDictionary
281
     1
  3
CTABLESTYLE
350
C4A2
  3
DIMASSOC
350
AC85
  3
INDEXCTL
350
35
  3
SORTENTS
350
194C
  0
DICTIONARY
  5
47
102
{ACAD_REACTORS
330
C
102
}
330
C
100
AcDbDictionary
281
     1
  3
AcmBOM
350
7E8
  3
AcmStdDictionary
350
4C
  3
AMDTSECTSYM_ARROWCOLOR
350
C487
  0
ACAD_PROXY_OBJECT
  5
3DEA
102
{ACAD_REACTORS
330
C
102
}
330
C
100
AcDbProxyObject
 90
      499
 91
      582
 95
   720919
 70
     0
 93
      114
310
00000043800000000000000000003F
 94
        0
1001
ACAD
1000
AcRTDxfName
1000
ACADGREFMODULE
  0
ACAD_PROXY_OBJECT
  5
3E06
102
{ACAD_REACTORS
330
C
102
}
330
C
100
AcDbProxyObject
 90
      499
 91
      594
 95
   720919
 70
     0
 93
       34
310
05000044FF
 94
        0
1001
ACAD
1000
AcRTDxfName
1000
MAPIADMODULE
  0
DICTIONARY
  5
2B
102
{ACAD_REACTORS
330
C
102
}
330
C
100
AcDbDictionary
281
     1
  0
DICTIONARY
  5
7D
102
{ACAD_REACTORS
330
C
102
}
330
C
100
AcDbDictionary
281
     1
  0
DICTIONARY
  5
B42E
102
{ACAD_REACTORS
330
C
102
}
330
C
100
AcDbDictionary
281
     1
  3
ASEBlockHierarchyIndexRecord
350
B42F
1001
DCO15
1040
1439205644.296
  0
XRECORD
  5
4AE2E
102
{ACAD_REACTORS
330
C
102
}
330
C
100
AcDbXrecord
280
     1
  1
DWGPROPS COOKIE
  2

  3

  4

  6

  7

  8
Administrator
  9

300
AmdtFileType=84
301
=
302
=
303
=
304
=
305
=
306
=
307
=
308
=
309
=
 40
13.70606716435185
 41
2452002.615067627
 42
2455873.426181817
  1

 90
        1
  0
ACAD_PROXY_OBJECT
  5
3DEB
102
{ACAD_REACTORS
330
C
102
}
330
C
100
AcDbProxyObject
 90
      499
 91
      583
 95
   720919
 70
     0
 93
        8
310
0478
 94
        0
1001
ACAD
1000
AcRTDxfName
1000
AMDTMAPISURFMOUDULE
  0
DICTIONARY
  5
494F1
102
{ACAD_REACTORS
330
3F95
102
}
330
3F95
100
AcDbDictionary
281
     1
  3
50
350
494F3
  0
DICTIONARY
  5
3F96
102
{ACAD_REACTORS
330
3F95
102
}
330
3F95
100
AcDbDictionary
281
     1
  3
20011210
350
3FB7
  0
DICTIONARY
  5
494F0
102
{ACAD_REACTORS
330
3F95
102
}
330
3F95
100
AcDbDictionary
281
     1
  3
*A1
350
494F2
1001
ACAD
1000
<All
  0
DICTIONARY
  5
CB2F
102
{ACAD_REACTORS
330
3F95
102
}
330
3F95
100
AcDbDictionary
280
     1
281
     1
  0
SORTENTSTABLE
  5
D722
102
{ACAD_REACTORS
330
8A
102
}
330
8A
100
AcDbSortentsTable
330
1F
331
4A735
  5
4A735
331
4A706
  5
4A706
331
4A73D
  5
4A73D
331
4A70E
  5
4A70E
331
4A745
  5
4A745
331
4A716
  5
4A716
331
4A74D
  5
4A74D
331
4A755
  5
4A755
331
4A71E
  5
4A71E
331
4A726
  5
4A726
331
4A72E
  5
4A72E
331
4A6E7
  5
4A6E7
331
4A736
  5
4A736
331
4A707
  5
4A707
331
4A73E
  5
4A73E
331
4A70F
  5
4A70F
331
4A746
  5
4A746
331
4A717
  5
4A717
331
4A74E
  5
4A74E
331
4A71F
  5
4A71F
331
4A727
  5
4A727
331
4A7E6
  5
4A7E6
331
4A72F
  5
4A72F
331
4A6E8
  5
4A6E8
331
4A737
  5
4A737
331
4A708
  5
4A708
331
4A73F
  5
4A73F
331
4A710
  5
4A710
331
4A747
  5
4A747
331
4A74F
  5
4A74F
331
4A718
  5
4A718
331
4A720
  5
4A720
331
4A728
  5
4A728
331
4A730
  5
4A730
331
4A6E9
  5
4A6E9
331
4A738
  5
4A738
331
4A709
  5
4A709
331
4A740
  5
4A740
331
4A711
  5
4A711
331
4A748
  5
4A748
331
4A719
  5
4A719
331
4A721
  5
4A721
331
4A758
  5
4A758
331
4A729
  5
4A729
331
4A731
  5
4A731
331
4A6EA
  5
4A6EA
331
4A739
  5
4A739
331
4A70A
  5
4A70A
331
4A741
  5
4A741
331
4A712
  5
4A712
331
4A749
  5
4A749
331
4A71A
  5
4A71A
331
4A722
  5
4A722
331
4A72A
  5
4A72A
331
4A732
  5
4A732
331
4A6EB
  5
4A6EB
331
4A73A
  5
4A73A
331
4A70B
  5
4A70B
331
4A742
  5
4A742
331
4A713
  5
4A713
331
4A74A
  5
4A74A
331
4A71B
  5
4A71B
331
4A752
  5
4A752
331
4A723
  5
4A723
331
4A72B
  5
4A72B
331
4A733
  5
4A733
331
4A6EC
  5
4A6EC
331
4A73B
  5
4A73B
331
4A70C
  5
4A70C
331
4A743
  5
4A743
331
4A714
  5
4A714
331
4A74B
  5
4A74B
331
4A71C
  5
4A71C
331
4A724
  5
4A724
331
4A72C
  5
4A72C
331
4A734
  5
4A734
331
4A6ED
  5
4A6ED
331
4A73C
  5
4A73C
331
4A70D
  5
4A70D
331
4A744
  5
4A744
331
4A715
  5
4A715
331
4A74C
  5
4A74C
331
4A71D
  5
4A71D
331
4A725
  5
4A725
331
4A72D
  5
4A72D
331
4A6E6
  5
4A6E6
  0
DIMASSOC
  5
4A751
102
{ACAD_REACTORS
330
4A750
102
}
330
4A750
100
AcDbDimAssoc
330
4A74F
 90
        3
 70
     0
 71
     0
  1
AcDbOsnapPointRef
 72
     1
331
4A73D
 73
     0
 91
        0
 40
0.0
 10
0.0
 20
0.0
 30
2.000000000000000E+50
 75
     0
  1
AcDbOsnapPointRef
 72
    13
331
4A73C
 73
     0
 91
        0
 40
0.0
 10
0.0
 20
0.0
 30
2.000000000000000E+50
 75
     0
  0
DIMASSOC
  5
4A754
102
{ACAD_REACTORS
330
4A753
102
}
330
4A753
100
AcDbDimAssoc
330
4A752
 90
        3
 70
     0
 71
     0
  1
AcDbOsnapPointRef
 72
    13
331
4A73C
 73
     0
 91
        0
 40
0.0
 10
0.0
 20
0.0
 30
2.000000000000000E+50
 75
     0
  1
AcDbOsnapPointRef
 72
    13
331
4A742
 73
     0
 91
        0
 40
0.0
 10
0.0
 20
0.0
 30
2.000000000000000E+50
 75
     0
  0
DIMASSOC
  5
4A75A
102
{ACAD_REACTORS
330
4A759
102
}
330
4A759
100
AcDbDimAssoc
330
4A758
 90
        3
 70
     0
 71
     0
  1
AcDbOsnapPointRef
 72
     1
331
4A722
 73
     0
 91
        0
 40
0.0
 10
0.0
 20
0.0
 30
2.000000000000000E+50
 75
     0
  1
AcDbOsnapPointRef
 72
    13
331
4A722
 73
     0
 91
        0
 40
0.0
 10
0.0
 20
0.0
 30
2.000000000000000E+50
 75
     0
  0
LAYOUT
  5
22
102
{ACAD_XDICTIONARY
360
4AE31
102
}
102
{ACAD_REACTORS
330
1A
102
}
330
1A
100
AcDbPlotSettings
  1

  2
DocuWide2055
  4
A4
  6
AM_VIEW1
 40
3.174999952316284
 41
3.174999952316284
 42
3.175003051757812
 43
3.17498779296875
 44
210.0156707763672
 45
297.0106506347656
 46
5.332833886146545
 47
8.330331444740295
 48
2133.633066675018
 49
-1460.182731148535
140
2407.633066675018
141
-1267.182731148535
142
1.0
143
1.0
 70
 11940
 72
     1
 73
     1
 74
     4
  7
monochrome.ctb
 75
     0
147
0.7072279707382396
148
-2133.633066675018
149
1460.182731148535
100
AcDbLayout
  1
Model
 70
     1
 71
     0
 10
0.0
 20
0.0
 11
12.0
 21
9.0
 12
0.0
 22
0.0
 32
0.0
 14
0.0
 24
0.0
 34
0.0
 15
0.0
 25
0.0
 35
0.0
146
0.0
 13
0.0
 23
0.0
 33
0.0
 16
1.0
 26
0.0
 36
0.0
 17
0.0
 27
1.0
 37
0.0
 76
     0
330
1F
331
C444
1001
ACAD_PSEXT
1000
DocuWide2055
1000
FX DocuWide 2055
1000
192.200.51.212:plt00t
1000

1070
     0
  0
LAYOUT
  5
1E
102
{ACAD_XDICTIONARY
360
4AE2F
102
}
102
{ACAD_REACTORS
330
1A
102
}
330
1A
100
AcDbPlotSettings
  1

  2
\\ML370\XEROX
  4
A4
  6

 40
3.174999952316284
 41
3.174999952316284
 42
3.175003051757812
 43
3.17498779296875
 44
209.8674926757813
 45
296.6719970703125
 46
0.0
 47
0.0
 48
0.0
 49
0.0
140
0.0
141
0.0
142
1.0
143
1.0
 70
   688
 72
     1
 73
     1
 74
     5
  7
monochrome.ctb
 75
    16
147
1.0
148
0.0
149
0.0
100
AcDbLayout
  1
ﾚｲｱｳﾄ1
 70
     1
 71
     1
 10
-3.17498779296875
 20
-3.174999952316284
 11
293.4970092773438
 21
206.692492723465
 12
0.0
 22
0.0
 32
0.0
 14
1.000000000000000E+20
 24
1.000000000000000E+20
 34
1.000000000000000E+20
 15
-1.000000000000000E+20
 25
-1.000000000000000E+20
 35
-1.000000000000000E+20
146
0.0
 13
0.0
 23
0.0
 33
0.0
 16
1.0
 26
0.0
 36
0.0
 17
0.0
 27
1.0
 37
0.0
 76
     0
330
1B
  0
LAYOUT
  5
26
102
{ACAD_XDICTIONARY
360
4AE33
102
}
102
{ACAD_REACTORS
330
1A
102
}
330
1A
100
AcDbPlotSettings
  1

  2
\\ML370\XEROX
  4

  6

 40
0.0
 41
0.0
 42
0.0
 43
0.0
 44
0.0
 45
0.0
 46
0.0
 47
0.0
 48
0.0
 49
0.0
140
0.0
141
0.0
142
1.0
143
1.0
 70
   688
 72
     0
 73
     0
 74
     5
  7
monochrome.ctb
 75
    16
147
1.0
148
0.0
149
0.0
100
AcDbLayout
  1
ﾚｲｱｳﾄ2
 70
     1
 71
     2
 10
0.0
 20
0.0
 11
12.0
 21
9.0
 12
0.0
 22
0.0
 32
0.0
 14
0.0
 24
0.0
 34
0.0
 15
0.0
 25
0.0
 35
0.0
146
0.0
 13
0.0
 23
0.0
 33
0.0
 16
1.0
 26
0.0
 36
0.0
 17
0.0
 27
1.0
 37
0.0
 76
     0
330
23
  0
MATERIAL
  5
C448
102
{ACAD_XDICTIONARY
360
4AE37
102
}
102
{ACAD_REACTORS
330
C446
102
}
330
C446
100
AcDbMaterial
  1
ByBlock
  0
MATERIAL
  5
C447
102
{ACAD_XDICTIONARY
360
4AE35
102
}
102
{ACAD_REACTORS
330
C446
102
}
330
C446
100
AcDbMaterial
  1
ByLayer
  0
MATERIAL
  5
C449
102
{ACAD_XDICTIONARY
360
4AE39
102
}
102
{ACAD_REACTORS
330
C446
102
}
330
C446
100
AcDbMaterial
  1
Global
  0
MLINESTYLE
  5
18
102
{ACAD_REACTORS
330
17
102
}
330
17
100
AcDbMlineStyle
  2
STANDARD
 70
     0
  3

 62
   256
 51
90.0
 52
90.0
 71
     2
 49
0.5
 62
   256
  6
BYLAYER
 49
-0.5
 62
   256
  6
BYLAYER
  0
PLOTSETTINGS
  5
C85D
102
{ACAD_XDICTIONARY
360
4AE3D
102
}
102
{ACAD_REACTORS
330
19
102
}
330
19
100
AcDbPlotSettings
  1
-00
  2
RICOH imagio Wide 7040e RP-GL/2
  4
A3
  6
AM_VIEW1
 40
5.069416522979736
 41
7.228392601013183
 42
5.23870849609375
 43
7.05908203125
 44
419.9889831542968
 45
296.9683227539062
 46
-5.159570932388305
 47
-7.159575939178466
 48
347.0000006405867
 49
-0.0000003719120514
140
767.0000006405866
141
296.9999996280879
142
1.0
143
1.0
 70
 11956
 72
     1
 73
     0
 74
     4
  7
monochrome.ctb
 75
    16
147
1.0
148
-347.0000006405867
149
0.0000003719120514
1001
ACAD_PSEXT
1000
RICOH imagio Wide 7040e RP-GL/2
1000
RICOH imagio Wide 7040e RP-GL/2
1000
\\ADMINISTRATOR
1000
RP-GL/2 Driver (Windows 2000/XP/Server 2003)
1070
     0
  0
ACDBPLACEHOLDER
  5
F
102
{ACAD_REACTORS
330
E
102
}
330
E
  0
TABLESTYLE
  5
C45D
102
{ACAD_XDICTIONARY
360
4AE3B
102
}
102
{ACAD_REACTORS
330
C45C
102
}
330
C45C
100
AcDbTableStyle
  3
Standard
 70
     0
 71
     0
 40
1.5
 41
1.5
280
     0
281
     0
  7
STANDARD
140
4.5
170
     2
 62
     0
 63
     7
283
     0
274
    -2
284
     1
 64
     0
275
    -2
285
     1
 65
     0
276
    -2
286
     1
 66
     0
277
    -2
287
     1
 67
     0
278
    -2
288
     1
 68
     0
279
    -2
289
     1
 69
     0
  7
STANDARD
140
6.0
170
     5
 62
     0
 63
     7
283
     0
274
    -2
284
     1
 64
     0
275
    -2
285
     1
 65
     0
276
    -2
286
     1
 66
     0
277
    -2
287
     1
 67
     0
278
    -2
288
     1
 68
     0
279
    -2
289
     1
 69
     0
  7
STANDARD
140
4.5
170
     5
 62
     0
 63
     7
283
     0
274
    -2
284
     1
 64
     0
275
    -2
285
     1
 65
     0
276
    -2
286
     1
 66
     0
277
    -2
287
     1
 67
     0
278
    -2
288
     1
 68
     0
279
    -2
289
     1
 69
     0
  0
VISUALSTYLE
  5
C450
102
{ACAD_REACTORS
330
C44A
102
}
330
C44A
100
AcDbVisualStyle
  2
2dWireframe
 70
     4
 71
     0
 72
     2
 73
     0
 90
        0
 40
-0.6
 41
-30.0
 62
     5
 63
     7
 74
     1
 91
        4
 64
     7
 65
   257
 75
     1
175
     1
 42
1.0
 92
        0
 66
   257
 43
1.0
 76
     1
 77
     6
 78
     2
 67
     7
 79
     5
170
     0
171
     0
290
     0
174
     0
 93
        1
 44
0.0
173
     0
291
     0
 45
0.0
1001
ACAD
1000
AcDbSavedByObjectVersion
1070
     0
  0
VISUALSTYLE
  5
C452
102
{ACAD_REACTORS
330
C44A
102
}
330
C44A
100
AcDbVisualStyle
  2
3D Hidden
 70
     6
 71
     1
 72
     2
 73
     2
 90
        0
 40
-0.6
 41
-30.0
 62
     5
 63
     7
 74
     2
 91
        2
 64
     7
 65
   257
 75
     2
175
     1
 42
40.0
 92
        0
 66
   257
 43
1.0
 76
     1
 77
     6
 78
     2
 67
     7
 79
     3
170
     0
171
     0
290
     0
174
     0
 93
        1
 44
0.0
173
     0
291
     0
 45
0.0
1001
ACAD
1000
AcDbSavedByObjectVersion
1070
     0
  0
VISUALSTYLE
  5
C451
102
{ACAD_REACTORS
330
C44A
102
}
330
C44A
100
AcDbVisualStyle
  2
3dWireframe
 70
     5
 71
     0
 72
     2
 73
     0
 90
        0
 40
-0.6
 41
-30.0
 62
     5
 63
     7
 74
     1
 91
        4
 64
     7
 65
   257
 75
     1
175
     1
 42
1.0
 92
        0
 66
   257
 43
1.0
 76
     1
 77
     6
 78
     2
 67
     7
 79
     5
170
     0
171
     0
290
     0
174
     0
 93
        1
 44
0.0
173
     0
291
     0
 45
0.0
1001
ACAD
1000
AcDbSavedByObjectVersion
1070
     0
  0
VISUALSTYLE
  5
C44F
102
{ACAD_REACTORS
330
C44A
102
}
330
C44A
100
AcDbVisualStyle
  2
Basic
 70
     7
 71
     1
 72
     0
 73
     1
 90
        0
 40
-0.6
 41
-30.0
 62
     5
 63
     7
 74
     0
 91
        4
 64
     7
 65
   257
 75
     1
175
     1
 42
1.0
 92
        8
 66
     7
 43
1.0
 76
     1
 77
     6
 78
     2
 67
     7
 79
     5
170
     0
171
     0
290
     0
174
     0
 93
        1
 44
0.0
173
     0
291
     1
 45
0.0
1001
ACAD
1000
AcDbSavedByObjectVersion
1070
     0
  0
VISUALSTYLE
  5
C456
102
{ACAD_REACTORS
330
C44A
102
}
330
C44A
100
AcDbVisualStyle
  2
Brighten
 70
    12
 71
     2
 72
     2
 73
     0
 90
        0
 40
-0.6
 41
-30.0
 62
     5
 63
     7
 74
     1
 91
        4
 64
     7
 65
   257
 75
     1
175
     1
 42
1.0
 92
        8
 66
     7
 43
1.0
 76
     1
 77
     6
 78
     2
 67
     7
 79
     5
170
     0
171
     0
290
     0
174
     0
 93
        1
 44
50.0
173
     0
291
     1
 45
0.0
1001
ACAD
1000
AcDbSavedByObjectVersion
1070
     0
  0
VISUALSTYLE
  5
C45A
102
{ACAD_REACTORS
330
C44A
102
}
330
C44A
100
AcDbVisualStyle
  2
ColorChange
 70
    16
 71
     2
 72
     2
 73
     3
 90
        0
 40
-0.6
 41
-30.0
 62
     5
 63
     8
 74
     1
 91
        4
 64
     7
 65
   257
 75
     1
175
     1
 42
1.0
 92
        8
 66
     8
 43
1.0
 76
     1
 77
     6
 78
     2
 67
     7
 79
     5
170
     0
171
     0
290
     0
174
     0
 93
        1
 44
0.0
173
     0
291
     1
 45
0.0
1001
ACAD
1000
AcDbSavedByObjectVersion
1070
     0
  0
VISUALSTYLE
  5
C453
102
{ACAD_REACTORS
330
C44A
102
}
330
C44A
100
AcDbVisualStyle
  2
Conceptual
 70
     9
 71
     3
 72
     2
 73
     0
 90
        0
 40
-0.6
 41
-30.0
 62
     5
 63
     7
 74
     2
 91
        2
 64
     7
 65
   257
 75
     1
175
     1
 42
40.0
 92
        8
 66
     7
 43
1.0
 76
     1
 77
     6
 78
     2
 67
     7
 79
     3
170
     0
171
     0
290
     0
174
     0
 93
        1
 44
0.0
173
     0
291
     0
 45
0.0
1001
ACAD
1000
AcDbSavedByObjectVersion
1070
     0
  0
VISUALSTYLE
  5
C455
102
{ACAD_REACTORS
330
C44A
102
}
330
C44A
100
AcDbVisualStyle
  2
Dim
 70
    11
 71
     2
 72
     2
 73
     0
 90
        0
 40
-0.6
 41
-30.0
 62
     5
 63
     7
 74
     1
 91
        4
 64
     7
 65
   257
 75
     1
175
     1
 42
1.0
 92
        8
 66
     7
 43
1.0
 76
     1
 77
     6
 78
     2
 67
     7
 79
     5
170
     0
171
     0
290
     0
174
     0
 93
        1
 44
-50.0
173
     0
291
     1
 45
0.0
1001
ACAD
1000
AcDbSavedByObjectVersion
1070
     0
  0
VISUALSTYLE
  5
C459
102
{ACAD_REACTORS
330
C44A
102
}
330
C44A
100
AcDbVisualStyle
  2
Facepattern
 70
    15
 71
     2
 72
     2
 73
     0
 90
        0
 40
-0.6
 41
-30.0
 62
     5
 63
     7
 74
     1
 91
        4
 64
     7
 65
   257
 75
     1
175
     1
 42
1.0
 92
        8
 66
     7
 43
1.0
 76
     1
 77
     6
 78
     2
 67
     7
 79
     5
170
     0
171
     0
290
     0
174
     0
 93
        1
 44
0.0
173
     0
291
     1
 45
0.0
1001
ACAD
1000
AcDbSavedByObjectVersion
1070
     0
  0
VISUALSTYLE
  5
C44B
102
{ACAD_REACTORS
330
C44A
102
}
330
C44A
100
AcDbVisualStyle
  2
Flat
 70
     0
 71
     2
 72
     1
 73
     1
 90
        2
 40
-0.6
 41
30.0
 62
     5
 63
     7
 74
     0
 91
        4
 64
     7
 65
   257
 75
     1
175
     1
 42
1.0
 92
        8
 66
     7
 43
1.0
 76
     1
 77
     6
 78
     2
 67
     7
 79
     5
170
     0
171
     0
290
     0
174
     0
 93
       13
 44
0.0
173
     0
291
     1
 45
0.0
1001
ACAD
1000
AcDbSavedByObjectVersion
1070
     0
  0
VISUALSTYLE
  5
C44C
102
{ACAD_REACTORS
330
C44A
102
}
330
C44A
100
AcDbVisualStyle
  2
FlatWithEdges
 70
     1
 71
     2
 72
     1
 73
     1
 90
        2
 40
-0.6
 41
30.0
 62
     5
 63
     7
 74
     1
 91
        4
 64
     7
 65
   257
 75
     1
175
     1
 42
1.0
 92
        0
 66
   257
 43
1.0
 76
     1
 77
     6
 78
     2
 67
     7
 79
     5
170
     0
171
     0
290
     0
174
     0
 93
       13
 44
0.0
173
     0
291
     1
 45
0.0
1001
ACAD
1000
AcDbSavedByObjectVersion
1070
     0
  0
VISUALSTYLE
  5
C44D
102
{ACAD_REACTORS
330
C44A
102
}
330
C44A
100
AcDbVisualStyle
  2
Gouraud
 70
     2
 71
     2
 72
     2
 73
     1
 90
        2
 40
-0.6
 41
30.0
 62
     5
 63
     7
 74
     0
 91
        4
 64
     7
 65
   257
 75
     1
175
     1
 42
1.0
 92
        0
 66
     7
 43
1.0
 76
     1
 77
     6
 78
     2
 67
     7
 79
     5
170
     0
171
     0
290
     0
174
     0
 93
       13
 44
0.0
173
     0
291
     1
 45
0.0
1001
ACAD
1000
AcDbSavedByObjectVersion
1070
     0
  0
VISUALSTYLE
  5
C44E
102
{ACAD_REACTORS
330
C44A
102
}
330
C44A
100
AcDbVisualStyle
  2
GouraudWithEdges
 70
     3
 71
     2
 72
     2
 73
     1
 90
        2
 40
-0.6
 41
30.0
 62
     5
 63
     7
 74
     1
 91
        4
 64
     7
 65
   257
 75
     1
175
     1
 42
1.0
 92
        0
 66
   257
 43
1.0
 76
     1
 77
     6
 78
     2
 67
     7
 79
     5
170
     0
171
     0
290
     0
174
     0
 93
       13
 44
0.0
173
     0
291
     1
 45
0.0
1001
ACAD
1000
AcDbSavedByObjectVersion
1070
     0
  0
VISUALSTYLE
  5
C458
102
{ACAD_REACTORS
330
C44A
102
}
330
C44A
100
AcDbVisualStyle
  2
Linepattern
 70
    14
 71
     2
 72
     2
 73
     0
 90
        0
 40
-0.6
 41
-30.0
 62
     5
 63
     7
 74
     1
 91
        4
 64
     7
 65
   257
 75
     7
175
     7
 42
1.0
 92
        8
 66
     7
 43
1.0
 76
     1
 77
     6
 78
     2
 67
     7
 79
     5
170
     0
171
     0
290
     0
174
     0
 93
        1
 44
0.0
173
     0
291
     1
 45
0.0
1001
ACAD
1000
AcDbSavedByObjectVersion
1070
     0
  0
VISUALSTYLE
  5
C454
102
{ACAD_REACTORS
330
C44A
102
}
330
C44A
100
AcDbVisualStyle
  2
Realistic
 70
     8
 71
     2
 72
     2
 73
     0
 90
        0
 40
-0.6
 41
-30.0
 62
     5
 63
     7
 74
     1
 91
        0
 64
     7
 65
   257
 75
     1
175
     1
 42
1.0
 92
        8
 66
     8
 43
1.0
 76
     1
 77
     6
 78
     2
 67
     7
 79
     5
170
     0
171
     0
290
     0
174
     0
 93
       13
 44
0.0
173
     0
291
     0
 45
0.0
1001
ACAD
1000
AcDbSavedByObjectVersion
1070
     0
  0
VISUALSTYLE
  5
C457
102
{ACAD_REACTORS
330
C44A
102
}
330
C44A
100
AcDbVisualStyle
  2
Thicken
 70
    13
 71
     2
 72
     2
 73
     0
 90
        0
 40
-0.6
 41
-30.0
 62
     5
 63
     7
 74
     1
 91
        4
 64
     7
 65
   257
 75
     1
175
     1
 42
1.0
 92
       12
 66
     7
 43
1.0
 76
     1
 77
     6
 78
     2
 67
     7
 79
     5
170
     0
171
     0
290
     0
174
     0
 93
        1
 44
0.0
173
     0
291
     1
 45
0.0
1001
ACAD
1000
AcDbSavedByObjectVersion
1070
     0
  0
DICTIONARYVAR
  5
C4A2
102
{ACAD_REACTORS
330
34
102
}
330
34
100
DictionaryVariables
280
     0
  1
STANDARD
  0
DICTIONARYVAR
  5
AC85
102
{ACAD_REACTORS
330
34
102
}
330
34
100
DictionaryVariables
280
     0
  1
2
  0
DICTIONARYVAR
  5
35
102
{ACAD_REACTORS
330
34
102
}
330
34
100
DictionaryVariables
280
     0
  1
0
  0
DICTIONARYVAR
  5
194C
102
{ACAD_REACTORS
330
34
102
}
330
34
100
DictionaryVariables
280
     0
  1
96
  0
DICTIONARY
  5
7E8
102
{ACAD_REACTORS
330
47
102
}
330
47
100
AcDbDictionary
281
     1
  0
DICTIONARY
  5
4C
102
{ACAD_REACTORS
330
47
102
}
330
47
100
AcDbDictionary
281
     1
  0
XRECORD
  5
C487
102
{ACAD_REACTORS
330
47
102
}
330
47
100
AcDbXrecord
280
     1
 90
-1023410169
  0
XRECORD
  5
B42F
102
{ACAD_REACTORS
330
B42E
102
}
330
B42E
100
AcDbXrecord
280
     1
330
0
330
0
330
0
330
0
330
0
330
0
330
0
330
0
330
0
330
0
330
0
330
0
330
0
330
0
330
0
330
0
330
0
330
0
330
0
330
0
330
0
330
0
330
0
330
0
  0
XRECORD
  5
494F3
102
{ACAD_REACTORS
330
494F1
102
}
330
494F1
100
AcDbXrecord
280
     1
  1
50
  1
*-50
  1
*
  1
*
 70
     0
  1
*
  1
*
1001
ACAD
1000
( NAME== "*-50" )
  0
XRECORD
  5
3FB7
102
{ACAD_REACTORS
330
3F96
102
}
330
3F96
100
AcDbXrecord
280
     1
 91
        3
330
A47
 90
        8
 62
     7
370
    40
331
16
  1
Color_7
330
A46
 90
        0
 62
    14
370
    -3
331
16
  1
Color_14
330
0
 90
        8
 62
     7
370
    20
331
16
  1
Color_7
330
6D1
 90
        0
 62
     7
370
    -3
331
16
  1
Color_7
330
0
 90
        8
 62
     7
370
    50
331
16
  1
Color_7
330
A48
 90
        8
 62
     2
370
    35
331
16
  1
Color_2
330
0
 90
        8
 62
     7
370
    -3
331
16
  1
Color_7
330
10
 90
        8
 62
     7
370
    -3
331
16
  1
Color_7
  0
XRECORD
  5
494F2
102
{ACAD_REACTORS
330
494F0
102
}
330
494F0
100
AcDbXrecord
280
     1
  1
AcLyLayerFilter
 90
        1
300
50
301
( NAME== "*-50" )
  0
DICTIONARY
  5
4AE31
330
22
100
AcDbDictionary
280
     1
281
     1
  3
ACAD_XREC_ROUNDTRIP
360
4AE32
  0
DICTIONARY
  5
4AE2F
330
1E
100
AcDbDictionary
280
     1
281
     1
  3
ACAD_XREC_ROUNDTRIP
360
4AE30
  0
DICTIONARY
  5
4AE33
330
26
100
AcDbDictionary
280
     1
281
     1
  3
ACAD_XREC_ROUNDTRIP
360
4AE34
  0
DICTIONARY
  5
4AE37
330
C448
100
AcDbDictionary
280
     1
281
     1
  3
ACAD_XREC_ROUNDTRIP
360
4AE38
  0
DICTIONARY
  5
4AE35
330
C447
100
AcDbDictionary
280
     1
281
     1
  3
ACAD_XREC_ROUNDTRIP
360
4AE36
  0
DICTIONARY
  5
4AE39
330
C449
100
AcDbDictionary
280
     1
281
     1
  3
ACAD_XREC_ROUNDTRIP
360
4AE3A
  0
DICTIONARY
  5
4AE3D
330
C85D
100
AcDbDictionary
280
     1
281
     1
  3
ACAD_XREC_ROUNDTRIP
360
4AE3E
  0
DICTIONARY
  5
4AE3B
330
C45D
100
AcDbDictionary
280
     1
281
     1
  3
ACAD_XREC_ROUNDTRIP
360
4AE3C
  0
XRECORD
  5
4AE32
102
{ACAD_REACTORS
330
4AE31
102
}
330
4AE31
100
AcDbXrecord
280
     1
102
SHADEPLOT
 70
     0
102
SHADEPLOTRESLEVEL
 70
     2
102
SHADEPLOTCUSTOMDPI
 70
   300
  0
XRECORD
  5
4AE30
102
{ACAD_REACTORS
330
4AE2F
102
}
330
4AE2F
100
AcDbXrecord
280
     1
102
SHADEPLOT
 70
     0
102
SHADEPLOTRESLEVEL
 70
     2
102
SHADEPLOTCUSTOMDPI
 70
   300
  0
XRECORD
  5
4AE34
102
{ACAD_REACTORS
330
4AE33
102
}
330
4AE33
100
AcDbXrecord
280
     1
102
SHADEPLOT
 70
     0
102
SHADEPLOTRESLEVEL
 70
     2
102
SHADEPLOTCUSTOMDPI
 70
   300
  0
XRECORD
  5
4AE38
102
{ACAD_REACTORS
330
4AE37
102
}
330
4AE37
100
AcDbXrecord
280
     1
102
MATERIAL
148
0.0
149
0.0
149
0.0
 93
        0
 94
       63
282
     0
 72
     1
 77
     1
171
     1
175
     1
179
     1
273
     0
  0
XRECORD
  5
4AE36
102
{ACAD_REACTORS
330
4AE35
102
}
330
4AE35
100
AcDbXrecord
280
     1
102
MATERIAL
148
0.0
149
0.0
149
0.0
 93
        0
 94
       63
282
     0
 72
     1
 77
     1
171
     1
175
     1
179
     1
273
     0
  0
XRECORD
  5
4AE3A
102
{ACAD_REACTORS
330
4AE39
102
}
330
4AE39
100
AcDbXrecord
280
     1
102
MATERIAL
148
0.0
149
0.0
149
0.0
 93
        0
 94
       63
282
     0
 72
     1
 77
     1
171
     1
175
     1
179
     1
273
     0
  0
XRECORD
  5
4AE3E
102
{ACAD_REACTORS
330
4AE3D
102
}
330
4AE3D
100
AcDbXrecord
280
     1
102
SHADEPLOT
 70
     0
102
SHADEPLOTRESLEVEL
 70
     2
102
SHADEPLOTCUSTOMDPI
 70
   300
  0
XRECORD
  5
4AE3C
102
{ACAD_REACTORS
330
4AE3B
102
}
330
4AE3B
100
AcDbXrecord
280
     1
102
ACAD_ROUNDTRIP_PRE2007_TABLESTYLE
 90
      512
 91
        0
  1

 92
      512
 93
        0
  2

 94
      512
 95
        0
  3

  0
ENDSEC
  0
EOF
