  0
SECTION
  2
HEADER
  9
$ACADVER
  1
AC1015
  9
$ACADMAINTVER
 70
    20
  9
$DWGCODEPAGE
  3
ANSI_932
  9
$INSBASE
 10
0.0
 20
0.0
 30
0.0
  9
$EXTMIN
 10
-0.0037659144136342
 20
-0.0340952926926548
 30
-0.0015258207003583
  9
$EXTMAX
 10
420.0496701726888
 20
297.1471306458807
 30
0.0000000349246037
  9
$LIMMIN
 10
-1207.468050814234
 20
-4523.809200058368
  9
$LIMMAX
 10
-19.46805081423372
 20
-3683.809200058368
  9
$ORTHOMODE
 70
     0
  9
$REGENMODE
 70
     1
  9
$FILLMODE
 70
     1
  9
$QTEXTMODE
 70
     0
  9
$MIRRTEXT
 70
     0
  9
$LTSCALE
 40
1.0
  9
$ATTMODE
 70
     1
  9
$TEXTSIZE
 40
3.2
  9
$TRACEWID
 40
1.0
  9
$TEXTSTYLE
  7
STANDARD
  9
$CLAYER
  8
AM_6
  9
$CELTYPE
  6
ByLayer
  9
$CECOLOR
 62
   256
  9
$CELTSCALE
 40
1.0
  9
$DISPSILH
 70
     0
  9
$DIMSCALE
 40
1.0
  9
$DIMASZ
 40
2.5
  9
$DIMEXO
 40
1.0
  9
$DIMDLI
 40
10.0
  9
$DIMRND
 40
0.0
  9
$DIMDLE
 40
0.0
  9
$DIMEXE
 40
1.0
  9
$DIMTP
 40
0.1
  9
$DIMTM
 40
0.1
  9
$DIMTXT
 40
3.5
  9
$DIMCEN
 40
0.0
  9
$DIMTSZ
 40
0.0
  9
$DIMTOL
 70
     0
  9
$DIMLIM
 70
     0
  9
$DIMTIH
 70
     0
  9
$DIMTOH
 70
     0
  9
$DIMSE1
 70
     0
  9
$DIMSE2
 70
     0
  9
$DIMTAD
 70
     1
  9
$DIMZIN
 70
     8
  9
$DIMBLK
  1

  9
$DIMASO
 70
     1
  9
$DIMSHO
 70
     1
  9
$DIMPOST
  1

  9
$DIMAPOST
  1
"
  9
$DIMALT
 70
     0
  9
$DIMALTD
 70
     2
  9
$DIMALTF
 40
0.0393701
  9
$DIMLFAC
 40
1.0
  9
$DIMTOFL
 70
     1
  9
$DIMTVP
 40
0.0
  9
$DIMTIX
 70
     0
  9
$DIMSOXD
 70
     0
  9
$DIMSAH
 70
     0
  9
$DIMBLK1
  1

  9
$DIMBLK2
  1

  9
$DIMSTYLE
  2
SYS
  9
$DIMCLRD
 70
   256
  9
$DIMCLRE
 70
   256
  9
$DIMCLRT
 70
     7
  9
$DIMTFAC
 40
0.71
  9
$DIMGAP
 40
1.5
  9
$DIMJUST
 70
     0
  9
$DIMSD1
 70
     0
  9
$DIMSD2
 70
     0
  9
$DIMTOLJ
 70
     0
  9
$DIMTZIN
 70
     8
  9
$DIMALTZ
 70
     0
  9
$DIMALTTZ
 70
     0
  9
$DIMUPT
 70
     0
  9
$DIMDEC
 70
     1
  9
$DIMTDEC
 70
     3
  9
$DIMALTU
 70
     2
  9
$DIMALTTD
 70
     4
  9
$DIMTXSTY
  7
STANDARD
  9
$DIMAUNIT
 70
     0
  9
$DIMADEC
 70
     0
  9
$DIMALTRND
 40
0.0
  9
$DIMAZIN
 70
     2
  9
$DIMDSEP
 70
    46
  9
$DIMATFIT
 70
     3
  9
$DIMFRAC
 70
     0
  9
$DIMLDRBLK
  1

  9
$DIMLUNIT
 70
     2
  9
$DIMLWD
 70
    -1
  9
$DIMLWE
 70
    -1
  9
$DIMTMOVE
 70
     0
  9
$LUNITS
 70
     2
  9
$LUPREC
 70
     2
  9
$SKETCHINC
 40
1.0
  9
$FILLETRAD
 40
2.6
  9
$AUNITS
 70
     0
  9
$AUPREC
 70
     0
  9
$MENU
  1
.
  9
$ELEVATION
 40
0.0
  9
$PELEVATION
 40
0.0
  9
$THICKNESS
 40
0.0
  9
$LIMCHECK
 70
     0
  9
$CHAMFERA
 40
0.0
  9
$CHAMFERB
 40
0.0
  9
$CHAMFERC
 40
20.0
  9
$CHAMFERD
 40
0.0
  9
$SKPOLY
 70
     0
  9
$TDCREATE
 40
2452002.615067627
  9
$TDUCREATE
 40
2452002.240067627
  9
$TDUPDATE
 40
2456267.603770255
  9
$TDUUPDATE
 40
2456267.228770255
  9
$TDINDWG
 40
9.4095292593
  9
$TDUSRTIMER
 40
9.4095292593
  9
$USRTIMER
 70
     1
  9
$ANGBASE
 50
0.0
  9
$ANGDIR
 70
     0
  9
$PDMODE
 70
     0
  9
$PDSIZE
 40
0.0
  9
$PLINEWID
 40
0.0
  9
$SPLFRAME
 70
     0
  9
$SPLINETYPE
 70
     6
  9
$SPLINESEGS
 70
     8
  9
$HANDSEED
  5
640C7
  9
$SURFTAB1
 70
     6
  9
$SURFTAB2
 70
     6
  9
$SURFTYPE
 70
     6
  9
$SURFU
 70
     6
  9
$SURFV
 70
     6
  9
$UCSBASE
  2

  9
$UCSNAME
  2

  9
$UCSORG
 10
0.0
 20
0.0
 30
0.0
  9
$UCSXDIR
 10
1.0
 20
0.0
 30
0.0
  9
$UCSYDIR
 10
0.0
 20
1.0
 30
0.0
  9
$UCSORTHOREF
  2

  9
$UCSORTHOVIEW
 70
     0
  9
$UCSORGTOP
 10
0.0
 20
0.0
 30
0.0
  9
$UCSORGBOTTOM
 10
0.0
 20
0.0
 30
0.0
  9
$UCSORGLEFT
 10
0.0
 20
0.0
 30
0.0
  9
$UCSORGRIGHT
 10
0.0
 20
0.0
 30
0.0
  9
$UCSORGFRONT
 10
0.0
 20
0.0
 30
0.0
  9
$UCSORGBACK
 10
0.0
 20
0.0
 30
0.0
  9
$PUCSBASE
  2

  9
$PUCSNAME
  2

  9
$PUCSORG
 10
0.0
 20
0.0
 30
0.0
  9
$PUCSXDIR
 10
1.0
 20
0.0
 30
0.0
  9
$PUCSYDIR
 10
0.0
 20
1.0
 30
0.0
  9
$PUCSORTHOREF
  2

  9
$PUCSORTHOVIEW
 70
     0
  9
$PUCSORGTOP
 10
0.0
 20
0.0
 30
0.0
  9
$PUCSORGBOTTOM
 10
0.0
 20
0.0
 30
0.0
  9
$PUCSORGLEFT
 10
0.0
 20
0.0
 30
0.0
  9
$PUCSORGRIGHT
 10
0.0
 20
0.0
 30
0.0
  9
$PUCSORGFRONT
 10
0.0
 20
0.0
 30
0.0
  9
$PUCSORGBACK
 10
0.0
 20
0.0
 30
0.0
  9
$USERI1
 70
     0
  9
$USERI2
 70
     0
  9
$USERI3
 70
     0
  9
$USERI4
 70
     0
  9
$USERI5
 70
     0
  9
$USERR1
 40
0.0
  9
$USERR2
 40
0.0
  9
$USERR3
 40
0.0
  9
$USERR4
 40
0.0
  9
$USERR5
 40
0.0
  9
$WORLDVIEW
 70
     1
  9
$SHADEDGE
 70
     3
  9
$SHADEDIF
 70
    70
  9
$TILEMODE
 70
     1
  9
$MAXACTVP
 70
    64
  9
$PINSBASE
 10
0.0
 20
0.0
 30
0.0
  9
$PLIMCHECK
 70
     0
  9
$PEXTMIN
 10
1.000000000000000E+20
 20
1.000000000000000E+20
 30
1.000000000000000E+20
  9
$PEXTMAX
 10
-1.000000000000000E+20
 20
-1.000000000000000E+20
 30
-1.000000000000000E+20
  9
$PLIMMIN
 10
-3.17498779296875
 20
-3.174999952316284
  9
$PLIMMAX
 10
293.4970092773438
 20
206.692492723465
  9
$UNITMODE
 70
     0
  9
$VISRETAIN
 70
     1
  9
$PLINEGEN
 70
     0
  9
$PSLTSCALE
 70
     1
  9
$TREEDEPTH
 70
  3020
  9
$CMLSTYLE
  2
Standard
  9
$CMLJUST
 70
     0
  9
$CMLSCALE
 40
20.0
  9
$PROXYGRAPHICS
 70
     1
  9
$MEASUREMENT
 70
     1
  9
$CELWEIGHT
370
    -1
  9
$ENDCAPS
280
     0
  9
$JOINSTYLE
280
     0
  9
$LWDISPLAY
290
     1
  9
$INSUNITS
 70
     4
  9
$HYPERLINKBASE
  1

  9
$STYLESHEET
  1
monochrome.ctb
  9
$XEDIT
290
     1
  9
$CEPSNTYPE
380
     0
  9
$PSTYLEMODE
290
     1
  9
$FINGERPRINTGUID
  2
{83FB3AA1-FF18-4BFE-AFE0-611B71DE056D}
  9
$VERSIONGUID
  2
{ED8FA410-146F-4B52-8F1F-93D6D9330A3B}
  9
$EXTNAMES
290
     1
  9
$PSVPSCALE
 40
0.0
  9
$OLESTARTUP
290
     0
  0
ENDSEC
  0
SECTION
  2
CLASSES
  0
CLASS
  1
ACDBDICTIONARYWDFLT
  2
AcDbDictionaryWithDefault
  3
ObjectDBX Classes
 90
        0
280
     0
281
     0
  0
CLASS
  1
ACDBPLACEHOLDER
  2
AcDbPlaceHolder
  3
ObjectDBX Classes
 90
        0
280
     0
281
     0
  0
CLASS
  1
LAYOUT
  2
AcDbLayout
  3
ObjectDBX Classes
 90
        0
280
     0
281
     0
  0
CLASS
  1
AMGSETTINGSOBJ
  2
AmgSettingsObj
  3
"AcadM|Product Description: AutoCAD Mechanical|Company: Autodesk"
 90
        0
280
     0
281
     0
  0
CLASS
  1
ACME_DOCUMENT
  2
AcMeDbDoc
  3
AcMeServices
 90
        0
280
     0
281
     0
  0
CLASS
  1
ACMESCOPE
  2
AcMeScope
  3
AcMeServices
 90
        0
280
     0
281
     0
  0
CLASS
  1
ACMECOMMANDHISTORY
  2
AcMeCommandHistory
  3
AcMeServices
 90
        0
280
     0
281
     0
  0
CLASS
  1
DICTIONARYVAR
  2
AcDbDictionaryVar
  3
ObjectDBX Classes
 90
        0
280
     0
281
     0
  0
CLASS
  1
ACIMSYSVARMAN
  2
AcImSysVarManager
  3
AcMeServices
 90
        0
280
     0
281
     0
  0
CLASS
  1
ACIMREALSYSVAR
  2
AcImRealSysVar
  3
AcMeServices
 90
        0
280
     0
281
     0
  0
CLASS
  1
ACIMINTSYSVAR
  2
AcImIntSysVar
  3
AcMeServices
 90
        0
280
     0
281
     0
  0
CLASS
  1
ACMEDRAWINGMAN
  2
AcMeDrawingMan
  3
AcMeServices
 90
        0
280
     0
281
     0
  0
CLASS
  1
ACMEVIEW
  2
AcMeView
  3
AcMeServices
 90
        0
280
     0
281
     0
  0
CLASS
  1
ACDBENTITYCACHE
  2
AcMeEntityCache
  3
AcMeServices
 90
        0
280
     0
281
     0
  0
CLASS
  1
GSMANAGER
  2
AcMeGSManager
  3
AcMeServices
 90
        0
280
     0
281
     0
  0
CLASS
  1
AMDTINTERNALREACTOR
  2
AmdtInternalReactor
  3
AcMeServices
 90
        0
280
     0
281
     0
  0
CLASS
  1
ACMESTATEMGR
  2
AcMeStateMgr
  3
AcMeServices
 90
        0
280
     0
281
     0
  0
CLASS
  1
ACGREFMASTER
  2
AcGrefMaster
  3
AcAttribServices
 90
        0
280
     0
281
     0
  0
CLASS
  1
ACME_DATABASE
  2
AcMeDbDatabase
  3
AcMeServices
 90
        0
280
     0
281
     0
  0
CLASS
  1
ACRFINSADJUSTERMGR
  2
AcRfInsAdjusterMgr
  3
AcMeServices
 90
        0
280
     0
281
     0
  0
CLASS
  1
ACGREFACADMASTER
  2
AcGrefacadMaster
  3
AcGrefServices
 90
        0
280
     0
281
     0
  0
CLASS
  1
AMIMASTER
  2
AmiMaster
  3
AmiServices
 90
        0
280
     0
281
     0
  0
CLASS
  1
ACMDATADICTIONARY
  2
AcmDataDictionary
  3
"AcmSymBB|Product Description: AutoCAD Mechanical|Company: Autodesk"
 90
        0
280
     0
281
     0
  0
CLASS
  1
ACMDATAENTRYBLOCK
  2
AcmDataEntryBlock
  3
"AcmSymBB|Product Description: AutoCAD Mechanical|Company: Autodesk"
 90
        0
280
     0
281
     0
  0
CLASS
  1
ACIMSTRSYSVAR
  2
AcImStrSysVar
  3
AcMeServices
 90
        0
280
     0
281
     0
  0
CLASS
  1
ACMSTANDARDISO
  2
AcmStandardISO
  3
"Amdt_StdImp|Product Description: AutoCAD Mechanical|Company: Autodesk"
 90
        0
280
     0
281
     0
  0
CLASS
  1
AMGOBJPROPCFG
  2
AmgObjPropCfg
  3
"AmgLay|Product Description: AutoCAD Mechanical|Company: Autodesk"
 90
        1
280
     0
281
     0
  0
CLASS
  1
AMDTEDGESTANDARDISO
  2
AmdtEdgeStdISO
  3
"Amdt_StdImp|Product Description: AutoCAD Mechanical|Company: Autodesk"
 90
        0
280
     0
281
     0
  0
CLASS
  1
ACMSURFSTANDARDISO
  2
AcmSurfTextStdISO
  3
"Amdt_StdImp|Product Description: AutoCAD Mechanical|Company: Autodesk"
 90
        0
280
     0
281
     0
  0
CLASS
  1
ACMFCFSTANDARDISO
  2
AcmFCFStdISO
  3
"Amdt_StdImp|Product Description: AutoCAD Mechanical|Company: Autodesk"
 90
        0
280
     0
281
     0
  0
CLASS
  1
ACMWELDSTANDARDISO
  2
AcmWeldingStdISO
  3
"Amdt_StdImp|Product Description: AutoCAD Mechanical|Company: Autodesk"
 90
        0
280
     0
281
     0
  0
CLASS
  1
ACMIDSTANDARDISO
  2
AcmIdStdISO
  3
"Amdt_StdImp|Product Description: AutoCAD Mechanical|Company: Autodesk"
 90
        0
280
     0
281
     0
  0
CLASS
  1
ACMDATUMSTANDARDISO
  2
AcmDatumStdISO
  3
"Amdt_StdImp|Product Description: AutoCAD Mechanical|Company: Autodesk"
 90
        0
280
     0
281
     0
  0
CLASS
  1
ACMBOMSTANDARDISO
  2
AcmBOMStdISO
  3
"Amdt_StdImp|Product Description: AutoCAD Mechanical|Company: Autodesk"
 90
        0
280
     0
281
     0
  0
CLASS
  1
ACMDETAILSTANDARDISO
  2
AmdtDetailSymStdISO
  3
"Amdt_StdImp|Product Description: AutoCAD Mechanical|Company: Autodesk"
 90
        0
280
     0
281
     0
  0
CLASS
  1
ACMSECTIONSTANDARDISO
  2
AmdtSectionSymStdISO
  3
"Amdt_StdImp|Product Description: AutoCAD Mechanical|Company: Autodesk"
 90
        0
280
     0
281
     0
  0
CLASS
  1
ACMCENTERLINESTANDARDISO
  2
AmdtCenterLineStdISO
  3
"Amdt_StdImp|Product Description: AutoCAD Mechanical|Company: Autodesk"
 90
        0
280
     0
281
     0
  0
CLASS
  1
ACAMGLAYSTD
  2
AcAmgLayStd
  3
"AmgLay|Product Description: AutoCAD Mechanical|Company: Autodesk"
 90
        0
280
     0
281
     0
  0
CLASS
  1
ACAMGDIMSTD
  2
AcAmgDimStd
  3
"AmgDim|Product Description: AutoCAD Mechanical|Company: Autodesk"
 90
        0
280
     0
281
     0
  0
CLASS
  1
ACAMGTITLESTD
  2
AcAmgTitleStd
  3
"AmgTitle|Product Description: AutoCAD Mechanical|Company: Autodesk"
 90
        0
280
     0
281
     0
  0
CLASS
  1
ACAMGFILTERDAT
  2
AcAmgFilterDat
  3
"AcadM|Product Description: AutoCAD Mechanical|Company: Autodesk"
 90
        0
280
     0
281
     0
  0
CLASS
  1
LAYER_INDEX
  2
AcDbLayerIndex
  3
ObjectDBX Classes
 90
    32768
280
     0
281
     0
  0
CLASS
  1
IDBUFFER
  2
AcDbIdBuffer
  3
ObjectDBX Classes
 90
    32768
280
     0
281
     0
  0
CLASS
  1
PLOTSETTINGS
  2
AcDbPlotSettings
  3
ObjectDBX Classes
 90
        0
280
     0
281
     0
  0
CLASS
  1
AMDTFORMULAUPDATEDISPATCHER
  2
AmdtFormulaUpdateDispatcher
  3
AcMeServices
 90
        0
280
     0
281
     0
  0
CLASS
  1
ACMSTANDARDANSI
  2
AcmStandardANSI
  3
"Amdt_StdImp|Product Description: AutoCAD Mechanical|Company: Autodesk"
 90
        0
280
     0
281
     0
  0
CLASS
  1
ACMSURFSTANDARDANSI
  2
AcmSurfTextStdANSI
  3
"Amdt_StdImp|Product Description: AutoCAD Mechanical|Company: Autodesk"
 90
        0
280
     0
281
     0
  0
CLASS
  1
ACMFCFSTANDARDANSI
  2
AcmFCFStdANSI
  3
"Amdt_StdImp|Product Description: AutoCAD Mechanical|Company: Autodesk"
 90
        0
280
     0
281
     0
  0
CLASS
  1
ACMWELDSTANDARDANSI
  2
AcmWeldingStdANSI
  3
"Amdt_StdImp|Product Description: AutoCAD Mechanical|Company: Autodesk"
 90
        0
280
     0
281
     0
  0
CLASS
  1
ACMIDSTANDARDANSI
  2
AcmIdStdANSI
  3
"Amdt_StdImp|Product Description: AutoCAD Mechanical|Company: Autodesk"
 90
        0
280
     0
281
     0
  0
CLASS
  1
ACMDATUMSTANDARDANSI
  2
AcmDatumStdANSI
  3
"Amdt_StdImp|Product Description: AutoCAD Mechanical|Company: Autodesk"
 90
        0
280
     0
281
     0
  0
CLASS
  1
ACMBOMSTANDARDANSI
  2
AcmBOMStdANSI
  3
"Amdt_StdImp|Product Description: AutoCAD Mechanical|Company: Autodesk"
 90
        0
280
     0
281
     0
  0
CLASS
  1
ACMDETAILSTANDARDANSI
  2
AmdtDetailSymStdANSI
  3
"Amdt_StdImp|Product Description: AutoCAD Mechanical|Company: Autodesk"
 90
        0
280
     0
281
     0
  0
CLASS
  1
ACMSECTIONSTANDARDANSI
  2
AmdtSectionSymStdANSI
  3
"Amdt_StdImp|Product Description: AutoCAD Mechanical|Company: Autodesk"
 90
        0
280
     0
281
     0
  0
CLASS
  1
ACMCENTERLINESTANDARDANSI
  2
AmdtCenterLineStdANSI
  3
"Amdt_StdImp|Product Description: AutoCAD Mechanical|Company: Autodesk"
 90
        0
280
     0
281
     0
  0
CLASS
  1
ACMBOM
  2
AcmBom
  3
"AcmSymBB|Product Description: AutoCAD Mechanical|Company: Autodesk"
 90
        0
280
     0
281
     0
  0
CLASS
  1
ACMDATAENTRYPART
  2
AcmDataEntryPart
  3
"AcmSymBB|Product Description: AutoCAD Mechanical|Company: Autodesk"
 90
    32768
280
     0
281
     0
  0
CLASS
  1
ACMPARTREF
  2
AcmPartRef
  3
"AcmSymBB|Product Description: AutoCAD Mechanical|Company: Autodesk"
 90
    35839
280
     0
281
     1
  0
CLASS
  1
ACDBCIRCARCRES
  2
AcDbCircArcRes
  3
AcGrefServices
 90
    32768
280
     0
281
     0
  0
CLASS
  1
ACMBOMROW
  2
AcmBomRow
  3
"AcmSymBB|Product Description: AutoCAD Mechanical|Company: Autodesk"
 90
    32768
280
     0
281
     0
  0
CLASS
  1
ACMBALLOON
  2
AcmBalloon
  3
"AcmSymBB|Product Description: AutoCAD Mechanical|Company: Autodesk"
 90
    35839
280
     0
281
     1
  0
CLASS
  1
AMDTNOTE
  2
AmdtNote
  3
"AcmSymBB|Product Description: AutoCAD Mechanical|Company: Autodesk"
 90
    35839
280
     0
281
     1
  0
CLASS
  1
STDPART2D
  2
AmgStdPart
  3
"g3vace|Class: AmgStdPart|Product Description: AutoCAD Mechanical|Company: Autodesk"
 90
    35839
280
     0
281
     1
  0
CLASS
  1
ACDBSTDPARTRES_LINE
  2
AcDbStdPartRes_Line
  3
"g3vace|Class: AcDbStdPartRes_Line|Product Description: AutoCAD Mechanical|Company: Autodesk"
 90
    32768
280
     0
281
     0
  0
CLASS
  1
ACMDATAENTRY
  2
AcmDataEntry
  3
"AcmSymBB|Product Description: AutoCAD Mechanical|Company: Autodesk"
 90
        0
280
     0
281
     0
  0
CLASS
  1
ACDBOPPOLYLINERES
  2
AcDbOpPolylineRes
  3
AcGrefServices
 90
    32768
280
     0
281
     0
  0
CLASS
  1
ACMPARTLIST
  2
AcmPartList
  3
"AcmSymBB|Product Description: AutoCAD Mechanical|Company: Autodesk"
 90
    35839
280
     0
281
     1
  0
CLASS
  1
ACDBLINERES
  2
AcDbLineRes
  3
AcGrefServices
 90
    32768
280
     0
281
     0
  0
CLASS
  1
ACRFINSADJ
  2
AcRfInsAdjuster
  3
AcMeServices
 90
    32768
280
     0
281
     0
  0
CLASS
  1
AM_DRAWING_MGR
  2
AcDmDwgMgr
  3
AcMechDwgViewMgmt
 90
        0
280
     0
281
     0
  0
CLASS
  1
AM_DWG_DOCUMENT
  2
AcDmDwgDocument
  3
AcMechDwgViewMgmt
 90
        0
280
     0
281
     0
  0
CLASS
  1
AM_DWG_SHEET
  2
AcDmSheet
  3
AcMechDwgViewMgmt
 90
        0
280
     0
281
     0
  0
CLASS
  1
AM_VIEWDIMPARMAP
  2
AcDmViewDimParMap
  3
AcMechDwgViewMgmt
 90
        0
280
     0
281
     0
  0
CLASS
  1
AM_DWGMGR_NAME
  2
AcDmDwgMgrName
  3
AcMechDwgViewMgmt
 90
        0
280
     0
281
     0
  0
CLASS
  1
AMDTMENUSTATEMGR
  2
AmdtMenuStateMgr
  3
McadcomServices
 90
        0
280
     0
281
     0
  0
CLASS
  1
AMDTMCOMMENUSTATE
  2
AmdtMcomMenuState
  3
McadcomServices
 90
        0
280
     0
281
     0
  0
CLASS
  1
ASAPP
  2
AcAsAppObject
  3
AutoSurfServices
 90
        0
280
     0
281
     0
  0
CLASS
  1
IM_STATIC_MAN
  2
AcImStaticVarManager
  3
AcMeServices
 90
        0
280
     0
281
     0
  0
CLASS
  1
ACIMDBLSTATICVAR
  2
AcImDblStaticVar
  3
AcMeServices
 90
        0
280
     0
281
     0
  0
CLASS
  1
ACIMSTRSTATICVAR
  2
AcImStrStaticVar
  3
AcMeServices
 90
        0
280
     0
281
     0
  0
CLASS
  1
ACIMINTSTATICVAR
  2
AcImIntStaticVar
  3
AcMeServices
 90
        0
280
     0
281
     0
  0
CLASS
  1
ACASGREFMASTER
  2
AcAsGrefMaster
  3
AutoSurfResolverServices
 90
        0
280
     0
281
     0
  0
CLASS
  1
ACADGREFMODULE
  2
AcAdGrefModule
  3
AdGrefServices
 90
        0
280
     0
281
     0
  0
CLASS
  1
AMDTMAPISURFMOUDULE
  2
AmdtMApiSurfModule
  3
MApiSurfServices
 90
        0
280
     0
281
     0
  0
CLASS
  1
MAPIAMMOUDLE
  2
MApiAmModule
  3
MApiAmServices
 90
        0
280
     0
281
     0
  0
CLASS
  1
AMDTADMENUSTATE
  2
AmdtAdMenuState
  3
DesignerServices
 90
        0
280
     0
281
     0
  0
CLASS
  1
ADAPPL
  2
AcAdAppl
  3
DesignerServices
 90
        0
280
     0
281
     0
  0
CLASS
  1
DEPMGR
  2
AcAdDepMgr
  3
DesignerServices
 90
        0
280
     0
281
     0
  0
CLASS
  1
PARAMMGR
  2
AcAdParamMgr
  3
DesignerServices
 90
        0
280
     0
281
     0
  0
CLASS
  1
PARAMSCOPE
  2
AcAdParamScope
  3
DesignerServices
 90
        0
280
     0
281
     0
  0
CLASS
  1
NAMEDAPPL
  2
AcAdNamedAppl
  3
DesignerServices
 90
        0
280
     0
281
     0
  0
CLASS
  1
ADHNTMPLT
  2
AdHoleNoteTemplateMgr
  3
DesignerServices
 90
    32768
280
     0
281
     0
  0
CLASS
  1
AM_HNTEMPLATE_MGR_NAME
  2
AdHoleNoteTemplateMgrName
  3
DesignerServices
 90
    32768
280
     0
281
     0
  0
CLASS
  1
AMDTDMMENUSTATE
  2
AmdtDmMenuState
  3
AcMechDwgViewMgmt
 90
        0
280
     0
281
     0
  0
CLASS
  1
MAPIADMODULE
  2
MApiAdModule
  3
MApiAdServices
 90
        0
280
     0
281
     0
  0
CLASS
  1
AMDTAMMENUSTATE
  2
AmdtAmMenuState
  3
DesignerAssemblies
 90
        0
280
     0
281
     0
  0
CLASS
  1
ACAMPROJECT
  2
AcAmProject
  3
DesignerAssemblies
 90
        0
280
     0
281
     0
  0
CLASS
  1
ACAMGRCOMPDEF
  2
AcAmGrCompDef
  3
DesignerAssemblies
 90
        0
280
     0
281
     0
  0
CLASS
  1
ACCMCONTEXT
  2
AcCmContext
  3
DesignerAssemblies
 90
        0
280
     0
281
     0
  0
CLASS
  1
ACAMCOMPDEF
  2
AcAmCompDef
  3
DesignerAssemblies
 90
        0
280
     0
281
     0
  0
CLASS
  1
ACAMCOMPDEFMGR
  2
AcAmCompDefMgr
  3
DesignerAssemblies
 90
        0
280
     0
281
     0
  0
CLASS
  1
AMCONTEXTMGR
  2
AcAmContextMgr
  3
DesignerAssemblies
 90
        0
280
     0
281
     0
  0
CLASS
  1
ACAMCONTEXTMODELER
  2
AcAmContextModeler
  3
DesignerAssemblies
 90
        0
280
     0
281
     0
  0
CLASS
  1
CATALOGSTATE
  2
AcAmCatalogState
  3
DesignerAssemblies
 90
        0
280
     0
281
     0
  0
CLASS
  1
ACAMGRCOMPDEFSET
  2
AcAmGrCompDefSet
  3
DesignerAssemblies
 90
        0
280
     0
281
     0
  0
CLASS
  1
AMDTBROWSERDBTAB
  2
AmdtBrowserDbTab
  3
McadcomServices
 90
        0
280
     0
281
     0
  0
CLASS
  1
CBROWSERAPPOBJECT
  2
CBrowserAppObject
  3
McadcomServices
 90
        0
280
     0
281
     0
  0
CLASS
  1
DM_PLACEHOLDER
  2
AcDmSelsetPlaceholder
  3
AcMechDwgViewMgmt
 90
        0
280
     0
281
     0
  0
CLASS
  1
ACMPICKOBJ
  2
AcmPickEnt
  3
"AcmSymBB|Product Description: AutoCAD Mechanical|Company: Autodesk"
 90
    32768
280
     0
281
     1
  0
CLASS
  1
MATERIAL
  2
AcDbMaterial
  3
ObjectDBX Classes
 90
     1024
280
     0
281
     0
  0
CLASS
  1
VISUALSTYLE
  2
AcDbVisualStyle
  3
ObjectDBX Classes
 90
     4095
280
     0
281
     0
  0
CLASS
  1
TABLESTYLE
  2
AcDbTableStyle
  3
ObjectDBX Classes
 90
     4095
280
     0
281
     0
  0
CLASS
  1
ACRFATTGENMGR
  2
AcRfAttGeneralMgr
  3
AcAttribServices
 90
        0
280
     0
281
     0
  0
CLASS
  1
ACRFOBJATTMGR
  2
AcRfObjAttGroupMgr
  3
AcAttribServices
 90
        0
280
     0
281
     0
  0
CLASS
  1
ACRFMCADAPIATTHOLDER
  2
AcRfMCADAPIAttHolder
  3
AcAttribServices
 90
        0
280
     0
281
     0
  0
CLASS
  1
AMDTSYSATTR
  2
AmdtSystemAttribute
  3
AcAttribServices
 90
        0
280
     0
281
     0
  0
CLASS
  1
ACMTHREADLINESTANDARDISO
  2
AmdtThreadLineStdISO
  3
"Amdt_StdImp|Product Description: AutoCAD Mechanical|Company: Autodesk"
 90
        0
280
     0
281
     0
  0
CLASS
  1
ACMNOTESTANDARDISO
  2
AmdtNoteStdISO
  3
"Amdt_StdImp|Product Description: AutoCAD Mechanical|Company: Autodesk"
 90
        0
280
     0
281
     0
  0
CLASS
  1
AMDTNOTETEMPLATEDB
  2
AmdtNoteTemplateDB
  3
AMDT_STDIMP_MODULE_NAME
 90
        0
280
     0
281
     0
  0
CLASS
  1
ACMTAPERSTANDARDISO
  2
AcmTaperStdISO
  3
"Amdt_StdImp|Product Description: AutoCAD Mechanical|Company: Autodesk"
 90
        0
280
     0
281
     0
  0
CLASS
  1
ACMTHREADLINESTANDARDANSI
  2
AmdtThreadLineStdANSI
  3
"Amdt_StdImp|Product Description: AutoCAD Mechanical|Company: Autodesk"
 90
        0
280
     0
281
     0
  0
CLASS
  1
ACMNOTESTANDARDANSI
  2
AmdtNoteStdANSI
  3
"Amdt_StdImp|Product Description: AutoCAD Mechanical|Company: Autodesk"
 90
        0
280
     0
281
     0
  0
CLASS
  1
ACMTAPERSTANDARDANSI
  2
AcmTaperStdANSI
  3
"Amdt_StdImp|Product Description: AutoCAD Mechanical|Company: Autodesk"
 90
        0
280
     0
281
     0
  0
CLASS
  1
CAMSSTRUCTBTNSTATE
  2
StructBtnState
  3
L"DesignerAssemblies"
 90
        0
280
     0
281
     0
  0
CLASS
  1
SORTENTSTABLE
  2
AcDbSortentsTable
  3
ObjectDBX Classes
 90
        0
280
     0
281
     0
  0
CLASS
  1
DIMASSOC
  2
AcDbDimAssoc
  3
"AcDbDimAssoc|Product Desc:     AcDim ARX App For Dimension|Company:          Autodesk, Inc.|WEB Address:      www.autodesk.com"
 90
        0
280
     0
281
     0
  0
ENDSEC
  0
SECTION
  2
TABLES
  0
TABLE
  2
VPORT
  5
8
330
0
100
AcDbSymbolTable
 70
     1
  0
VPORT
  5
C444
330
8
100
AcDbSymbolTableRecord
100
AcDbViewportTableRecord
  2
*Active
 70
     0
 10
0.0
 20
0.0
 11
1.0
 21
1.0
 12
210.0229521291376
 22
148.556517676594
 13
0.0
 23
0.0
 14
2.5
 24
2.5
 15
10.0
 25
10.0
 16
0.0
 26
0.0
 36
1.0
 17
0.0
 27
0.0
 37
0.0
 40
299.3690631847469
 41
1.648648648648648
 42
50.0
 43
-1370.695619172058
 44
-1370.695619172058
 50
0.0
 51
0.0
 71
    16
 72
   100
 73
     1
 74
     3
 75
     0
 76
     0
 77
     0
 78
     0
281
     0
 65
     0
110
0.0
120
0.0
130
0.0
111
1.0
121
0.0
131
0.0
112
0.0
122
1.0
132
0.0
 79
     0
146
0.0
  0
ENDTAB
  0
TABLE
  2
LTYPE
  5
5
330
0
100
AcDbSymbolTable
 70
    36
  0
LTYPE
  5
14
330
5
100
AcDbSymbolTableRecord
100
AcDbLinetypeTableRecord
  2
ByBlock
 70
     0
  3

 72
    65
 73
     0
 40
0.0
  0
LTYPE
  5
15
330
5
100
AcDbSymbolTableRecord
100
AcDbLinetypeTableRecord
  2
ByLayer
 70
     0
  3

 72
    65
 73
     0
 40
0.0
  0
LTYPE
  5
16
330
5
100
AcDbSymbolTableRecord
100
AcDbLinetypeTableRecord
  2
Continuous
 70
     0
  3
Solid line
 72
    65
 73
     0
 40
0.0
  0
LTYPE
  5
4F
330
5
100
AcDbSymbolTableRecord
100
AcDbLinetypeTableRecord
  2
AM_ISO02W050
 70
     0
  3
__ __ __ __ __ __ __ __ __ __ __ __ __ __ __
 72
    65
 73
     2
 40
7.5
 49
6.0
 74
     0
 49
-1.5
 74
     0
  0
LTYPE
  5
52
330
5
100
AcDbSymbolTableRecord
100
AcDbLinetypeTableRecord
  2
Amconstr
 70
     0
  3
_______________________
 72
    65
 73
     2
 40
9999.0
 49
9999.0
 74
     0
 49
0.0
 74
     0
  0
LTYPE
  5
64
330
5
100
AcDbSymbolTableRecord
100
AcDbLinetypeTableRecord
  2
ACISOWELD
 70
     0
  3
_ _ _ _ _
 72
    65
 73
     2
 40
2.0
 49
2.0
 74
     0
 49
-1.0
 74
     0
  0
LTYPE
  5
65
330
5
100
AcDbSymbolTableRecord
100
AcDbLinetypeTableRecord
  2
ACISOTGB
 70
     0
  3
__ . . __ . .
 72
    65
 73
     6
 40
9.0
 49
4.0
 74
     0
 49
-1.0
 74
     0
 49
1.0
 74
     0
 49
-1.0
 74
     0
 49
1.0
 74
     0
 49
-1.0
 74
     0
  0
LTYPE
  5
66
330
5
100
AcDbSymbolTableRecord
100
AcDbLinetypeTableRecord
  2
ACISOTGL
 70
     0
  3
_ _ _ _ _
 72
    65
 73
     2
 40
3.0
 49
2.0
 74
     0
 49
-1.0
 74
     0
  0
LTYPE
  5
69
330
5
100
AcDbSymbolTableRecord
100
AcDbLinetypeTableRecord
  2
CENTER
 70
     0
  3
__ . __
 72
    65
 73
     4
 40
7.0
 49
4.0
 74
     0
 49
-1.0
 74
     0
 49
1.0
 74
     0
 49
-1.0
 74
     0
  0
LTYPE
  5
A6E
330
5
100
AcDbSymbolTableRecord
100
AcDbLinetypeTableRecord
  2
PHANTOM2
 70
     0
  3
Phantom (.5x) ___ _ _ ___ _ _ ___ _ _ ___ _ _
 72
    65
 73
     6
 40
31.75
 49
15.875
 74
     0
 49
-3.174999999999999
 74
     0
 49
3.174999999999999
 74
     0
 49
-3.174999999999999
 74
     0
 49
3.174999999999999
 74
     0
 49
-3.174999999999999
 74
     0
  0
LTYPE
  5
FA3
330
5
100
AcDbSymbolTableRecord
100
AcDbLinetypeTableRecord
  2
ACANSTGB
 70
     0
  3
__ . . __ . .
 72
    65
 73
     6
 40
0.35433070866
 49
0.15748031496
 74
     0
 49
-0.03937007874
 74
     0
 49
0.03937007874
 74
     0
 49
-0.03937007874
 74
     0
 49
0.03937007874
 74
     0
 49
-0.03937007874
 74
     0
  0
LTYPE
  5
FA4
330
5
100
AcDbSymbolTableRecord
100
AcDbLinetypeTableRecord
  2
ACANSTGL
 70
     0
  3
_ _ _ _ _
 72
    65
 73
     2
 40
0.11811023622
 49
0.07874015748
 74
     0
 49
-0.03937007874
 74
     0
  0
LTYPE
  5
4DED
330
5
100
AcDbSymbolTableRecord
100
AcDbLinetypeTableRecord
  2
中線
 70
     0
  3
___________________
 72
    65
 73
     2
 40
2.0
 49
1.0
 74
     0
 49
1.0
 74
     0
  0
LTYPE
  5
4DF6
330
5
100
AcDbSymbolTableRecord
100
AcDbLinetypeTableRecord
  2
細線
 70
     0
  3
___________________
 72
    65
 73
     2
 40
2.0
 49
1.0
 74
     0
 49
1.0
 74
     0
  0
LTYPE
  5
4DF7
330
5
100
AcDbSymbolTableRecord
100
AcDbLinetypeTableRecord
  2
太線
 70
     0
  3
___________________
 72
    65
 73
     2
 40
2.0
 49
1.0
 74
     0
 49
1.0
 74
     0
  0
LTYPE
  5
4EA7
330
5
100
AcDbSymbolTableRecord
100
AcDbLinetypeTableRecord
  2
文字
 70
     0
  3
_________________
 72
    65
 73
     2
 40
2.0
 49
1.0
 74
     0
 49
1.0
 74
     0
  0
LTYPE
  5
4EA9
330
5
100
AcDbSymbolTableRecord
100
AcDbLinetypeTableRecord
  2
寸法線
 70
     0
  3
________________
 72
    65
 73
     2
 40
2.0
 49
1.0
 74
     0
 49
1.0
 74
     0
  0
LTYPE
  5
4F12
330
5
100
AcDbSymbolTableRecord
100
AcDbLinetypeTableRecord
  2
ハッチング
 70
     0
  3
_________________
 72
    65
 73
     2
 40
2.0
 49
1.0
 74
     0
 49
1.0
 74
     0
  0
LTYPE
  5
5180
330
5
100
AcDbSymbolTableRecord
100
AcDbLinetypeTableRecord
  2
陰線1
 70
     0
  3
__ __ __ __
 72
    65
 73
     2
 40
4.0
 49
2.2
 74
     0
 49
-1.8
 74
     0
  0
LTYPE
  5
5182
330
5
100
AcDbSymbolTableRecord
100
AcDbLinetypeTableRecord
  2
切断線
 70
     0
  3
/\/-/\/-/\/-/\/-/\/-/\/
 72
    65
 73
     2
 40
11.0001
 49
0.0001
 74
     4
 75
   135
340
56
 46
0.04
 50
0.0
 44
0.0
 45
0.0
 49
-11.0
 74
     0
  0
LTYPE
  5
5183
330
5
100
AcDbSymbolTableRecord
100
AcDbLinetypeTableRecord
  2
想像線1
 70
     0
  3
__ __ __ _____ __ __ ____
 72
    65
 73
     6
 40
14.5
 49
6.0
 74
     0
 49
-1.5
 74
     0
 49
2.0
 74
     0
 49
-1.5
 74
     0
 49
2.0
 74
     0
 49
-1.5
 74
     0
  0
LTYPE
  5
5185
330
5
100
AcDbSymbolTableRecord
100
AcDbLinetypeTableRecord
  2
中心線1
 70
     0
  3
___ _ ___ _ ___
 72
    65
 73
     4
 40
18.0
 49
12.0
 74
     0
 49
-2.0
 74
     0
 49
2.0
 74
     0
 49
-2.0
 74
     0
  0
LTYPE
  5
5188
330
5
100
AcDbSymbolTableRecord
100
AcDbLinetypeTableRecord
  2
補助線
 70
     0
  3
______________
 72
    65
 73
     2
 40
2.0
 49
1.0
 74
     0
 49
1.0
 74
     0
  0
LTYPE
  5
C49C
330
5
100
AcDbSymbolTableRecord
100
AcDbLinetypeTableRecord
  2
HIDDEN
 70
     0
  3
Hidden __ __ __ __ __ __ __ __ __ __ __ __ __ _
 72
    65
 73
     2
 40
9.524999999999998
 49
6.349999999999999
 74
     0
 49
-3.174999999999999
 74
     0
  0
LTYPE
  5
C543
330
5
100
AcDbSymbolTableRecord
100
AcDbLinetypeTableRecord
  2
AM_ISO08W050
 70
     0
  3
____ . ____ . ____ . ____ . ____ . ____ . ____
 72
    65
 73
     4
 40
18.0
 49
12.0
 74
     0
 49
-1.5
 74
     0
 49
3.0
 74
     0
 49
-1.5
 74
     0
  0
LTYPE
  5
C544
330
5
100
AcDbSymbolTableRecord
100
AcDbLinetypeTableRecord
  2
AM_ISO09W050
 70
     0
  3
_____ . . _____ . . _____ . . ____ .. ____
 72
    65
 73
     6
 40
22.5
 49
12.0
 74
     0
 49
-1.5
 74
     0
 49
3.0
 74
     0
 49
-1.5
 74
     0
 49
3.0
 74
     0
 49
-1.5
 74
     0
  0
LTYPE
  5
C545
330
5
100
AcDbSymbolTableRecord
100
AcDbLinetypeTableRecord
  2
AM_ISO08W050x2
 70
     0
  3
__ . __ . __ . __ . __ . __
 72
    65
 73
     4
 40
9.0
 49
6.0
 74
     0
 49
-0.75
 74
     0
 49
1.5
 74
     0
 49
-0.75
 74
     0
  0
LTYPE
  5
C546
330
5
100
AcDbSymbolTableRecord
100
AcDbLinetypeTableRecord
  2
AM_ISO02W050x2
 70
     0
  3
 _ _ _ _ _ _ _ _ _ _ _ _
 72
    65
 73
     2
 40
3.75
 49
3.0
 74
     0
 49
-0.75
 74
     0
  0
LTYPE
  5
C547
330
5
100
AcDbSymbolTableRecord
100
AcDbLinetypeTableRecord
  2
Amzigzag
 70
     0
  3
/\/-/\/-/\/-/\/-/\/-/\/
 72
    65
 73
     2
 40
11.0001
 49
0.0001
 74
     4
 75
   135
340
56
 46
0.04
 50
0.0
 44
0.0
 45
0.0
 49
-11.0
 74
     0
  0
LTYPE
  5
C7E7
330
5
100
AcDbSymbolTableRecord
100
AcDbLinetypeTableRecord
  2
genzigzag
 70
     0
  3
/\/-/\/-/\/-/\/-/\/-/\/
 72
    65
 73
     2
 40
12.0001
 49
0.0001
 74
     4
 75
   135
340
C7EB
 46
2.0
 50
0.0
 44
0.0
 45
0.0
 49
-12.0
 74
     0
  0
LTYPE
  5
E598
330
5
100
AcDbSymbolTableRecord
100
AcDbLinetypeTableRecord
  2
BORDER
 70
     0
  3
__ __ . __ __ . __ __ . __ __ . __ __ . __ __ .
 72
    65
 73
     6
 40
8.75
 49
2.5
 74
     0
 49
-1.25
 74
     0
 49
2.5
 74
     0
 49
-1.25
 74
     0
 49
0.0
 74
     0
 49
-1.25
 74
     0
  0
LTYPE
  5
E599
330
5
100
AcDbSymbolTableRecord
100
AcDbLinetypeTableRecord
  2
CENTER2
 70
     0
  3
___ _ ___ _ ___ _ ___ _ ___ _ ___ _ ___ _ ___ _
 72
    65
 73
     4
 40
8.4
 49
4.65
 74
     0
 49
-1.25
 74
     0
 49
1.25
 74
     0
 49
-1.25
 74
     0
  0
LTYPE
  5
E59A
330
5
100
AcDbSymbolTableRecord
100
AcDbLinetypeTableRecord
  2
HIDDEN2
 70
     0
  3
_ _ _ _ _ _ _ _ _ _ _ _ _ _ _ _ _ _ _ _ _ _ _ _
 72
    65
 73
     2
 40
1.25
 49
0.625
 74
     0
 49
-0.625
 74
     0
  0
LTYPE
  5
E59B
330
5
100
AcDbSymbolTableRecord
100
AcDbLinetypeTableRecord
  2
Amzigzag2
 70
     0
  3
/\/-/\/-/\/-/\/-/\/-/\/
 72
    65
 73
     2
 40
0.4401
 49
0.0001
 74
     4
 75
   136
340
C7EB
 46
0.0016
 50
0.0
 44
0.0
 45
0.0
 49
-0.4400000000000001
 74
     0
  0
LTYPE
  5
223E4
330
5
100
AcDbSymbolTableRecord
100
AcDbLinetypeTableRecord
  2
DOT
 70
     0
  3
. . . . . . . . . . . . . . . . . . . . . . . .
 72
    65
 73
     2
 40
1.25
 49
0.0
 74
     0
 49
-1.25
 74
     0
  0
LTYPE
  5
25232
330
5
100
AcDbSymbolTableRecord
100
AcDbLinetypeTableRecord
  2
DIVIDE
 70
     0
  3
____ . . ____ . . ____ . . ____ . . ____ . . __
 72
    65
 73
     6
 40
6.25
 49
2.5
 74
     0
 49
-1.25
 74
     0
 49
0.0
 74
     0
 49
-1.25
 74
     0
 49
0.0
 74
     0
 49
-1.25
 74
     0
  0
LTYPE
  5
55C6D
330
5
100
AcDbSymbolTableRecord
100
AcDbLinetypeTableRecord
  2
DASHED
 70
     0
  3
__ __ __ __ __ __ __ __ __ __ __ __ __ __ __ __
 72
    65
 73
     2
 40
4.5
 49
3.0
 74
     0
 49
-1.5
 74
     0
  0
LTYPE
  5
58163
330
5
100
AcDbSymbolTableRecord
100
AcDbLinetypeTableRecord
  2
PHANTOM
 70
     0
  3
______  __  __  ______  __  __  _____
 72
    65
 73
     6
 40
15.0
 49
7.5
 74
     0
 49
-1.5
 74
     0
 49
1.5
 74
     0
 49
-1.5
 74
     0
 49
1.5
 74
     0
 49
-1.5
 74
     0
  0
ENDTAB
  0
TABLE
  2
LAYER
  5
2
102
{ACAD_XDICTIONARY
360
3F95
102
}
330
0
100
AcDbSymbolTable
 70
    37
  0
LAYER
  5
10
330
2
100
AcDbSymbolTableRecord
100
AcDbLayerTableRecord
  2
0
 70
     0
 62
     7
  6
Continuous
370
    -3
390
F
  0
LAYER
  5
6D1
330
2
100
AcDbSymbolTableRecord
100
AcDbLayerTableRecord
  2
Defpoints
 70
     0
 62
     7
  6
Continuous
290
     0
370
    -3
390
F
  0
LAYER
  5
A46
330
2
100
AcDbSymbolTableRecord
100
AcDbLayerTableRecord
  2
size
 70
     0
 62
     5
  6
Continuous
290
     0
370
    30
390
F
  0
LAYER
  5
A47
330
2
100
AcDbSymbolTableRecord
100
AcDbLayerTableRecord
  2
waku
 70
     0
 62
     7
  6
Continuous
370
    40
390
F
  0
LAYER
  5
A48
330
2
100
AcDbSymbolTableRecord
100
AcDbLayerTableRecord
  2
AM_6
 70
     0
 62
     2
  6
文字
370
    20
390
F
  0
LAYER
  5
FA5
330
2
100
AcDbSymbolTableRecord
100
AcDbLayerTableRecord
  2
1
 70
     0
 62
     7
  6
Continuous
370
    -3
390
F
  0
LAYER
  5
3A31
330
2
100
AcDbSymbolTableRecord
100
AcDbLayerTableRecord
  2
hyosen1
 70
     0
 62
     1
  6
Continuous
370
    30
390
F
  0
LAYER
  5
5765
330
2
100
AcDbSymbolTableRecord
100
AcDbLayerTableRecord
  2
hyomoji
 70
     0
 62
     2
  6
Continuous
370
    20
390
F
  0
LAYER
  5
591A
330
2
100
AcDbSymbolTableRecord
100
AcDbLayerTableRecord
  2
hyosen2
 70
     0
 62
     1
  6
Continuous
370
    20
390
F
  0
LAYER
  5
5F85
330
2
100
AcDbSymbolTableRecord
100
AcDbLayerTableRecord
  2
AM_0
 70
     0
 62
     7
  6
中線
370
    30
390
F
  0
LAYER
  5
5F89
330
2
100
AcDbSymbolTableRecord
100
AcDbLayerTableRecord
  2
AM_4
 70
     0
 62
     3
  6
補助線
370
    20
390
F
  0
LAYER
  5
5F8C
330
2
100
AcDbSymbolTableRecord
100
AcDbLayerTableRecord
  2
AM_8
 70
     0
 62
     1
  6
ハッチング
370
    18
390
F
  0
LAYER
  5
642B
330
2
100
AcDbSymbolTableRecord
100
AcDbLayerTableRecord
  2
AM_CL
 70
     0
 62
     1
  6
Amconstr
370
    20
390
F
  0
LAYER
  5
75AE
330
2
100
AcDbSymbolTableRecord
100
AcDbLayerTableRecord
  2
busen1
 70
     0
 62
    30
  6
Continuous
370
    40
390
F
  0
LAYER
  5
75AF
330
2
100
AcDbSymbolTableRecord
100
AcDbLayerTableRecord
  2
busen2
 70
     0
 62
     2
  6
Continuous
370
    20
390
F
  0
LAYER
  5
BFAA
330
2
100
AcDbSymbolTableRecord
100
AcDbLayerTableRecord
  2
AM_2
 70
     0
 62
     1
  6
細線
370
    20
390
F
  0
LAYER
  5
BFAB
330
2
100
AcDbSymbolTableRecord
100
AcDbLayerTableRecord
  2
AM_5
 70
     0
 62
     3
  6
寸法線
370
    18
390
F
  0
LAYER
  5
BFAC
330
2
100
AcDbSymbolTableRecord
100
AcDbLayerTableRecord
  2
AM_7
 70
     0
 62
     4
  6
中心線1
370
    15
390
F
  0
LAYER
  5
C5FA
330
2
100
AcDbSymbolTableRecord
100
AcDbLayerTableRecord
  2
AM_1
 70
     0
 62
    30
  6
太線
370
    40
390
F
  0
LAYER
  5
C7E8
330
2
100
AcDbSymbolTableRecord
100
AcDbLayerTableRecord
  2
AM_3
 70
     0
 62
     6
  6
陰線1
370
    20
390
F
  0
LAYER
  5
C7E9
330
2
100
AcDbSymbolTableRecord
100
AcDbLayerTableRecord
  2
AM_11
 70
     0
 62
     2
  6
想像線1
370
    20
390
F
  0
LAYER
  5
C7EA
330
2
100
AcDbSymbolTableRecord
100
AcDbLayerTableRecord
  2
AM_12
 70
     0
 62
     7
  6
Continuous
290
     0
370
    20
390
F
  0
LAYER
  5
C82C
330
2
100
AcDbSymbolTableRecord
100
AcDbLayerTableRecord
  2
AM_10
 70
     0
 62
     7
  6
切断線
370
    18
390
F
  0
LAYER
  5
CA36
330
2
100
AcDbSymbolTableRecord
100
AcDbLayerTableRecord
  2
△
 70
     0
 62
   150
  6
中線
370
    15
390
F
1001
AcAecLayerStandard
1000

1000

  0
LAYER
  5
12411
330
2
100
AcDbSymbolTableRecord
100
AcDbLayerTableRecord
  2
4
 70
     0
 62
     7
  6
Continuous
370
    -3
390
F
  0
LAYER
  5
2441C
330
2
100
AcDbSymbolTableRecord
100
AcDbLayerTableRecord
  2
0文字
 70
     0
 62
     2
  6
Continuous
370
    13
390
F
1001
AcAecLayerStandard
1000

1000

  0
LAYER
  5
28AB3
330
2
100
AcDbSymbolTableRecord
100
AcDbLayerTableRecord
  2
7
 70
     0
 62
     7
  6
Continuous
370
    -3
390
F
  0
LAYER
  5
28AB4
330
2
100
AcDbSymbolTableRecord
100
AcDbLayerTableRecord
  2
9
 70
     0
 62
     7
  6
Continuous
370
    -3
390
F
  0
LAYER
  5
28AB5
330
2
100
AcDbSymbolTableRecord
100
AcDbLayerTableRecord
  2
10
 70
     0
 62
     7
  6
Continuous
370
    -3
390
F
  0
LAYER
  5
28AB6
330
2
100
AcDbSymbolTableRecord
100
AcDbLayerTableRecord
  2
11
 70
     0
 62
     7
  6
Continuous
370
    -3
390
F
  0
LAYER
  5
28AB7
330
2
100
AcDbSymbolTableRecord
100
AcDbLayerTableRecord
  2
12
 70
     0
 62
     7
  6
Continuous
370
    -3
390
F
  0
LAYER
  5
28AB8
330
2
100
AcDbSymbolTableRecord
100
AcDbLayerTableRecord
  2
13
 70
     0
 62
     7
  6
Continuous
370
    -3
390
F
  0
LAYER
  5
44023
330
2
100
AcDbSymbolTableRecord
100
AcDbLayerTableRecord
  2
16
 70
     0
 62
     7
  6
Continuous
370
    -3
390
F
  0
LAYER
  5
4FC48
330
2
100
AcDbSymbolTableRecord
100
AcDbLayerTableRecord
  2
3
 70
     0
 62
     7
  6
Continuous
370
    -3
390
F
  0
LAYER
  5
54D7F
330
2
100
AcDbSymbolTableRecord
100
AcDbLayerTableRecord
  2
5
 70
     0
 62
     7
  6
Continuous
370
    -3
390
F
  0
LAYER
  5
58164
330
2
100
AcDbSymbolTableRecord
100
AcDbLayerTableRecord
  2
VIEW0001
 70
     0
 62
     7
  6
Continuous
370
    -3
390
F
  0
LAYER
  5
6021F
330
2
100
AcDbSymbolTableRecord
100
AcDbLayerTableRecord
  2
0000120806 鈴木検図
 70
     0
 62
    10
  6
文字
370
    40
390
F
1001
AcAecLayerStandard
1000

1000

  0
ENDTAB
  0
TABLE
  2
STYLE
  5
3
330
0
100
AcDbSymbolTable
 70
     9
  0
STYLE
  5
11
330
3
100
AcDbSymbolTableRecord
100
AcDbTextStyleTableRecord
  2
STANDARD
 70
     0
 40
0.0
 41
0.7
 50
0.0
 71
     0
 42
3.2
  3
romans.shx
  4
extfont.shx
  0
STYLE
  5
56
330
3
100
AcDbSymbolTableRecord
100
AcDbTextStyleTableRecord
  2

 70
     1
 40
0.0
 41
1.0
 50
0.0
 71
     0
 42
2.5
  3
ltypeshp.shx
  4

  0
STYLE
  5
58
330
3
100
AcDbSymbolTableRecord
100
AcDbTextStyleTableRecord
  2
ACISOTS
 70
     0
 40
1.0
 41
1.0
 50
0.0
 71
     0
 42
2.5
  3
isocp.shx
  4
extfont.shx
  0
STYLE
  5
63
330
3
100
AcDbSymbolTableRecord
100
AcDbTextStyleTableRecord
  2
ACISOGDT
 70
     0
 40
0.0
 41
1.0
 50
0.0
 71
     0
 42
2.5
  3
amgdt.shx
  4

  0
STYLE
  5
A74
330
3
100
AcDbSymbolTableRecord
100
AcDbTextStyleTableRecord
  2
DIM
 70
     0
 40
0.0
 41
1.0
 50
0.0
 71
     0
 42
2.5
  3
monotxt.shx
  4
extfont.shx
  0
STYLE
  5
FA7
330
3
100
AcDbSymbolTableRecord
100
AcDbTextStyleTableRecord
  2
ACANSTS
 70
     0
 40
1.0
 41
1.0
 50
0.0
 71
     0
 42
0.2
  3
romans.shx
  4
extfont.shx
  0
STYLE
  5
FA8
330
3
100
AcDbSymbolTableRecord
100
AcDbTextStyleTableRecord
  2
ACANSGDT
 70
     0
 40
0.0
 41
1.0
 50
0.0
 71
     0
 42
0.2
  3
amgdtans.shx
  4

  0
STYLE
  5
C7EB
330
3
100
AcDbSymbolTableRecord
100
AcDbTextStyleTableRecord
  2

 70
     1
 40
0.0
 41
1.0
 50
0.0
 71
     0
 42
3.2
  3
genltshp.shx
  4

  0
STYLE
  5
E59C
330
3
100
AcDbSymbolTableRecord
100
AcDbTextStyleTableRecord
  2
EXCESS_STANDARD
 70
     0
 40
0.0
 41
1.0
 50
0.0
 71
     0
 42
0.0
  3
txt
  4
BIGFONT
  0
ENDTAB
  0
TABLE
  2
VIEW
  5
6
330
0
100
AcDbSymbolTable
 70
     6
  0
VIEW
  5
AE1
330
6
100
AcDbSymbolTableRecord
100
AcDbViewTableRecord
  2
AM_VIEW1
 70
     0
 40
420.0
 10
-872.4621336544704
 20
-3893.809200058367
 41
670.0118343195266
 11
0.0
 21
0.0
 31
1.0
 12
0.0
 22
0.0
 32
0.0
 42
50.0
 43
-1370.695619172058
 44
-1370.695619172058
 50
0.0
 71
    16
281
     0
 72
     0
  0
VIEW
  5
AE2
330
6
100
AcDbSymbolTableRecord
100
AcDbViewTableRecord
  2
AM_VIEW2
 70
     0
 40
420.0
 10
-354.473967973997
 20
-3893.809200058367
 41
670.0118343195266
 11
0.0
 21
0.0
 31
1.0
 12
0.0
 22
0.0
 32
0.0
 42
50.0
 43
-1370.695619172058
 44
-1370.695619172058
 50
0.0
 71
    16
281
     0
 72
     0
  0
VIEW
  5
AE3
330
6
100
AcDbSymbolTableRecord
100
AcDbViewTableRecord
  2
AM_VIEW3
 70
     0
 40
420.0
 10
-872.4621336544704
 20
-4313.809200058368
 41
670.0118343195266
 11
0.0
 21
0.0
 31
1.0
 12
0.0
 22
0.0
 32
0.0
 42
50.0
 43
-1370.695619172058
 44
-1370.695619172058
 50
0.0
 71
    16
281
     0
 72
     0
  0
VIEW
  5
AE4
330
6
100
AcDbSymbolTableRecord
100
AcDbViewTableRecord
  2
AM_VIEW4
 70
     0
 40
420.0
 10
-354.473967973997
 20
-4313.809200058368
 41
670.0118343195266
 11
0.0
 21
0.0
 31
1.0
 12
0.0
 22
0.0
 32
0.0
 42
50.0
 43
-1370.695619172058
 44
-1370.695619172058
 50
0.0
 71
    16
281
     0
 72
     0
  0
VIEW
  5
AE5
330
6
100
AcDbSymbolTableRecord
100
AcDbViewTableRecord
  2
AM_VIEW5
 70
     0
 40
420.0
 10
-613.4680508142337
 20
-4103.809200058367
 41
670.0118343195267
 11
0.0
 21
0.0
 31
1.0
 12
0.0
 22
0.0
 32
0.0
 42
50.0
 43
-1370.695619172058
 44
-1370.695619172058
 50
0.0
 71
    16
281
     0
 72
     0
  0
VIEW
  5
AE6
330
6
100
AcDbSymbolTableRecord
100
AcDbViewTableRecord
  2
AM_VIEW6
 70
     0
 40
839.9915999999999
 10
-613.4680508142337
 20
-4103.809200058367
 41
1340.010268402367
 11
0.0
 21
0.0
 31
1.0
 12
0.0
 22
0.0
 32
0.0
 42
50.0
 43
-1370.695619172058
 44
-1370.695619172058
 50
0.0
 71
    16
281
     0
 72
     0
  0
ENDTAB
  0
TABLE
  2
UCS
  5
7
330
0
100
AcDbSymbolTable
 70
     0
  0
ENDTAB
  0
TABLE
  2
APPID
  5
9
330
0
100
AcDbSymbolTable
 70
    56
  0
APPID
  5
12
330
9
100
AcDbSymbolTableRecord
100
AcDbRegAppTableRecord
  2
ACAD
 70
     0
  0
APPID
  5
30
330
9
100
AcDbSymbolTableRecord
100
AcDbRegAppTableRecord
  2
MCAD_NO_VIS
 70
     0
  0
APPID
  5
31
330
9
100
AcDbSymbolTableRecord
100
AcDbRegAppTableRecord
  2
ACAD_TEMP_GRAPHIC
 70
     0
  0
APPID
  5
44
330
9
100
AcDbSymbolTableRecord
100
AcDbRegAppTableRecord
  2
ACATTRIBSERVICES
 70
     0
  0
APPID
  5
7A1
330
9
100
AcDbSymbolTableRecord
100
AcDbRegAppTableRecord
  2
GENIUS_GENDIMSH_14
 70
     0
  0
APPID
  5
A49
330
9
100
AcDbSymbolTableRecord
100
AcDbRegAppTableRecord
  2
GENIUS_GENREC_14
 70
     0
  0
APPID
  5
A4A
330
9
100
AcDbSymbolTableRecord
100
AcDbRegAppTableRecord
  2
GENIUS_GENOBJ-N-REC_13
 70
     0
  0
APPID
  5
A4B
330
9
100
AcDbSymbolTableRecord
100
AcDbRegAppTableRecord
  2
GENIUS_GENODEF_13
 70
     0
  0
APPID
  5
A4C
330
9
100
AcDbSymbolTableRecord
100
AcDbRegAppTableRecord
  2
DCO15
 70
     0
  0
APPID
  5
ADC
330
9
100
AcDbSymbolTableRecord
100
AcDbRegAppTableRecord
  2
GENIUS_GENOLIS_13
 70
     0
  0
APPID
  5
ADD
330
9
100
AcDbSymbolTableRecord
100
AcDbRegAppTableRecord
  2
GENIUS_GENOENT_13
 70
     0
  0
APPID
  5
ADE
330
9
100
AcDbSymbolTableRecord
100
AcDbRegAppTableRecord
  2
GENIUS_GENOBJ-N-TIT_13
 70
     0
  0
APPID
  5
ADF
330
9
100
AcDbSymbolTableRecord
100
AcDbRegAppTableRecord
  2
GENIUS_GENTITLE_13
 70
     0
  0
APPID
  5
AE0
330
9
100
AcDbSymbolTableRecord
100
AcDbRegAppTableRecord
  2
GENIUS_GENOREF_13
 70
     0
  0
APPID
  5
AE7
330
9
100
AcDbSymbolTableRecord
100
AcDbRegAppTableRecord
  2
GENIUS_GENSCREG_15
 70
     0
  0
APPID
  5
AE8
330
9
100
AcDbSymbolTableRecord
100
AcDbRegAppTableRecord
  2
GENIUS_GENOBJ-N-SDF_13
 70
     0
  0
APPID
  5
FAF
330
9
100
AcDbSymbolTableRecord
100
AcDbRegAppTableRecord
  2
GENIUS_GENBLLY_14
 70
     0
  0
APPID
  5
FB0
330
9
100
AcDbSymbolTableRecord
100
AcDbRegAppTableRecord
  2
GENIUS_GENTRA_14
 70
     0
  0
APPID
  5
1285
330
9
100
AcDbSymbolTableRecord
100
AcDbRegAppTableRecord
  2
GENIUS_GENDTOL_13
 70
     0
  0
APPID
  5
142D
330
9
100
AcDbSymbolTableRecord
100
AcDbRegAppTableRecord
  2
GENIUS_GENOBJ-N-CEN_13
 70
     0
  0
APPID
  5
1AB5
330
9
100
AcDbSymbolTableRecord
100
AcDbRegAppTableRecord
  2
GENIUS_GENOBJ-N-CRS_13
 70
     0
  0
APPID
  5
1B36
330
9
100
AcDbSymbolTableRecord
100
AcDbRegAppTableRecord
  2
GENIUS_GENOBJ-N-HTC_13
 70
     0
  0
APPID
  5
1B37
330
9
100
AcDbSymbolTableRecord
100
AcDbRegAppTableRecord
  2
GENIUS_GENHATCH_13
 70
     0
  0
APPID
  5
216D
330
9
100
AcDbSymbolTableRecord
100
AcDbRegAppTableRecord
  2
GENIUS_GENOBJ-N-FIL_13
 70
     0
  0
APPID
  5
2356
330
9
100
AcDbSymbolTableRecord
100
AcDbRegAppTableRecord
  2
GEVID990412420
 70
     0
  0
APPID
  5
2357
330
9
100
AcDbSymbolTableRecord
100
AcDbRegAppTableRecord
  2
GEVDC
 70
     0
  0
APPID
  5
2358
330
9
100
AcDbSymbolTableRecord
100
AcDbRegAppTableRecord
  2
GEVCON
 70
     0
  0
APPID
  5
235B
330
9
100
AcDbSymbolTableRecord
100
AcDbRegAppTableRecord
  2
GEVRADREF
 70
     0
  0
APPID
  5
2360
330
9
100
AcDbSymbolTableRecord
100
AcDbRegAppTableRecord
  2
GENIUS_GENBH_13
 70
     0
  0
APPID
  5
2362
330
9
100
AcDbSymbolTableRecord
100
AcDbRegAppTableRecord
  2
GENIUS_GENOBJ-NBEHI-BHF_13
 70
     0
  0
APPID
  5
2364
330
9
100
AcDbSymbolTableRecord
100
AcDbRegAppTableRecord
  2
GENIUS_GENOBJ-NBEHI-BHB_13
 70
     0
  0
APPID
  5
2379
330
9
100
AcDbSymbolTableRecord
100
AcDbRegAppTableRecord
  2
GENIUS_GENOBJ-F-SCPASSM_13
 70
     0
  0
APPID
  5
3D74
330
9
100
AcDbSymbolTableRecord
100
AcDbRegAppTableRecord
  2
GENIUS_GENDIM_13
 70
     0
  0
APPID
  5
3D76
330
9
100
AcDbSymbolTableRecord
100
AcDbRegAppTableRecord
  2
GENIUS_GE3DTOL_13
 70
     0
  0
APPID
  5
3D9C
330
9
100
AcDbSymbolTableRecord
100
AcDbRegAppTableRecord
  2
AD_DRAW
 70
     0
  0
APPID
  5
3DE8
330
9
100
AcDbSymbolTableRecord
100
AcDbRegAppTableRecord
  2
ASURF_PCURVE_APPNAME
 70
     0
  0
APPID
  5
3DED
330
9
100
AcDbSymbolTableRecord
100
AcDbRegAppTableRecord
  2
AMG_3D2D_5.0
 70
     0
  0
APPID
  5
3E1B
330
9
100
AcDbSymbolTableRecord
100
AcDbRegAppTableRecord
  2
DESIGNERASSEMBLIES
 70
     0
  0
APPID
  5
3E20
330
9
100
AcDbSymbolTableRecord
100
AcDbRegAppTableRecord
  2
ACADM_DIM_EDIT
 70
     0
  0
APPID
  5
3E21
330
9
100
AcDbSymbolTableRecord
100
AcDbRegAppTableRecord
  2
AMDT_DM_ADJ
 70
     0
  0
APPID
  5
4143
330
9
100
AcDbSymbolTableRecord
100
AcDbRegAppTableRecord
  2
GENIUS_GENFIL_13
 70
     0
  0
APPID
  5
4144
330
9
100
AcDbSymbolTableRecord
100
AcDbRegAppTableRecord
  2
GENIUS_GENOBJ-N-CHA_13
 70
     0
  0
APPID
  5
4E17
330
9
100
AcDbSymbolTableRecord
100
AcDbRegAppTableRecord
  2
GEVID1008153417
 70
     0
  0
APPID
  5
4E58
330
9
100
AcDbSymbolTableRecord
100
AcDbRegAppTableRecord
  2
GEVID1008153418
 70
     0
  0
APPID
  5
4E5E
330
9
100
AcDbSymbolTableRecord
100
AcDbRegAppTableRecord
  2
GEVID1008153419
 70
     0
  0
APPID
  5
4E64
330
9
100
AcDbSymbolTableRecord
100
AcDbRegAppTableRecord
  2
GEVID1008153420
 70
     0
  0
APPID
  5
4E75
330
9
100
AcDbSymbolTableRecord
100
AcDbRegAppTableRecord
  2
GEVID1008153421
 70
     0
  0
APPID
  5
4EB7
330
9
100
AcDbSymbolTableRecord
100
AcDbRegAppTableRecord
  2
GENIUS_AMGTXT_16
 70
     0
  0
APPID
  5
7645
330
9
100
AcDbSymbolTableRecord
100
AcDbRegAppTableRecord
  2
GENIUS_GENOBJ-N-DIM_13
 70
     0
  0
APPID
  5
C5F0
330
9
100
AcDbSymbolTableRecord
100
AcDbRegAppTableRecord
  2
GENIUS_GENCEN_19
 70
     0
  0
APPID
  5
C5FB
330
9
100
AcDbSymbolTableRecord
100
AcDbRegAppTableRecord
  2
ACAD_DSTYLE_DIMJOGGED_JOGANGLE_SYMBOL
 70
     0
  0
APPID
  5
C5FC
330
9
100
AcDbSymbolTableRecord
100
AcDbRegAppTableRecord
  2
ACAD_PSEXT
 70
     0
  0
APPID
  5
CA37
330
9
100
AcDbSymbolTableRecord
100
AcDbRegAppTableRecord
  2
AcAecLayerStandard
 70
     0
  0
APPID
  5
14704
330
9
100
AcDbSymbolTableRecord
100
AcDbRegAppTableRecord
  2
ACAD_EXEMPT_FROM_CAD_STANDARDS
 70
     0
  0
APPID
  5
5EF82
330
9
100
AcDbSymbolTableRecord
100
AcDbRegAppTableRecord
  2
ACAD_DSTYLE_DIMINSPECT
 70
     0
  0
APPID
  5
5EF83
330
9
100
AcDbSymbolTableRecord
100
AcDbRegAppTableRecord
  2
ACAD_DSTYLE_DIMRADIAL_EXTENSION
 70
     0
  0
ENDTAB
  0
TABLE
  2
DIMSTYLE
  5
A
330
0
100
AcDbSymbolTable
 70
    27
100
AcDbDimStyleTable
 71
     5
340
2515
340
251A
340
251B
340
6C
340
FA9
  0
DIMSTYLE
105
6C
330
A
100
AcDbSymbolTableRecord
100
AcDbDimStyleTableRecord
  2
AM_ISO
 70
     0
  4
"
 41
2.5
 42
1.0
 43
10.0
 44
1.0
 47
0.1
 48
0.1
 73
     0
 74
     0
 77
     1
 78
     8
 79
     2
140
3.5
141
0.0
143
0.0393701
146
0.71
147
1.5
172
     1
176
   256
177
   256
178
     2
271
     2
272
     3
274
     4
283
     0
284
     8
340
11
371
    -1
372
    -1
  0
DIMSTYLE
105
6D
330
A
100
AcDbSymbolTableRecord
100
AcDbDimStyleTableRecord
  2
AM_ISO$3
 70
     0
  4
"
 41
0.8
 42
1.0
 43
10.0
 44
1.0
 47
0.1
 48
0.1
 73
     0
 77
     1
 78
     8
 79
     2
140
3.2
141
0.0
143
0.0393701
146
0.71
147
0.9999999999999996
176
   256
177
   256
178
     2
271
     2
272
     2
283
     0
284
     8
288
     1
289
     0
340
11
342
6C4
371
    -1
372
    -1
  0
DIMSTYLE
105
6E
330
A
100
AcDbSymbolTableRecord
100
AcDbDimStyleTableRecord
  2
AM_ISO$4
 70
     0
  4
"
 41
0.8
 42
1.0
 43
10.0
 44
1.0
 47
0.1
 48
0.1
 73
     0
 77
     1
 78
     8
 79
     2
140
3.2
141
0.0
143
0.0393701
146
0.71
147
1.0
173
     1
176
   256
177
   256
178
     2
271
     2
272
     2
283
     0
284
     8
288
     1
289
     0
340
11
344
6C4
371
    -1
372
    -1
  0
DIMSTYLE
105
6F
330
A
100
AcDbSymbolTableRecord
100
AcDbDimStyleTableRecord
  2
AM_ISO$6
 70
     0
  4
"
 41
0.8
 42
1.0
 43
10.0
 44
1.0
 47
0.1
 48
0.1
 73
     0
 74
     0
 78
     8
 79
     2
140
3.2
141
0.0
143
0.0393701
146
0.71
147
1.0
172
     1
176
   256
177
   256
178
     2
271
     2
272
     2
283
     0
284
     8
340
11
341
6C4
371
    -1
372
    -1
  0
DIMSTYLE
105
70
330
A
100
AcDbSymbolTableRecord
100
AcDbDimStyleTableRecord
  2
AM_ISO$7
 70
     0
  4
"
 41
0.8
 42
1.0
 43
10.0
 44
1.0
 47
0.1
 48
0.1
 73
     0
 74
     0
 77
     1
 78
     8
 79
     2
140
3.2
141
0.0
143
0.0393701
146
0.71
147
1.0
172
     1
176
   256
177
   256
178
     2
271
     2
272
     2
283
     0
284
     8
340
11
341
6C4
342
6C4
371
    -1
372
    -1
  0
DIMSTYLE
105
71
330
A
100
AcDbSymbolTableRecord
100
AcDbDimStyleTableRecord
  2
AM_ISO$SF
 70
     0
  4
"
 41
0.8
 42
1.0
 43
10.0
 44
1.0
 47
0.1
 48
0.1
 73
     0
 74
     0
 75
     1
 76
     1
 77
     1
 78
     8
 79
     2
140
3.2
141
0.0
143
0.0393701
146
0.71
147
1.0
172
     1
176
   256
177
   256
178
     2
271
     2
272
     2
283
     0
284
     8
340
11
341
6C4
342
6C4
371
    -1
372
    -1
  0
DIMSTYLE
105
76
330
A
100
AcDbSymbolTableRecord
100
AcDbDimStyleTableRecord
  2
AM_ISO$SH
 70
     0
  4
"
 41
0.8
 42
1.0
 43
10.0
 44
1.0
 47
0.1
 48
0.1
 73
     0
 74
     0
 75
     1
 76
     1
 77
     1
 78
     8
 79
     2
140
3.2
141
0.0
143
0.0393701
144
2.0
146
0.71
147
1.0
172
     1
176
   256
177
   256
178
     2
271
     2
272
     2
283
     0
284
     8
340
11
341
6C4
342
6C4
371
    -1
372
    -1
  0
DIMSTYLE
105
6BE
330
A
100
AcDbSymbolTableRecord
100
AcDbDimStyleTableRecord
  2
AM_ISO$0
 70
     0
  4
"
 41
0.8
 42
1.0
 43
10.0
 44
1.0
 47
0.1
 48
0.1
 73
     0
 74
     0
 77
     1
 78
     8
 79
     2
140
3.2
141
0.0
143
0.0393701
146
0.71
147
0.9999999999999996
172
     1
176
   256
177
   256
178
     2
271
     2
272
     2
283
     0
284
     8
340
11
341
6C4
342
6C4
371
    -1
372
    -1
  0
DIMSTYLE
105
6BF
330
A
100
AcDbSymbolTableRecord
100
AcDbDimStyleTableRecord
  2
AM_ISO$2
 70
     0
  4
"
 41
0.8
 42
1.0
 43
10.0
 44
1.0
 47
0.1
 48
0.1
 73
     0
 74
     0
 77
     3
 78
     8
 79
     2
140
3.200000000000001
141
0.0
143
0.0393701
146
0.71
147
0.9999999999999996
172
     1
176
   256
177
   256
178
     2
271
     2
272
     2
283
     0
284
     8
340
11
342
6C4
371
    -1
372
    -1
  0
DIMSTYLE
105
A76
330
A
100
AcDbSymbolTableRecord
100
AcDbDimStyleTableRecord
  2
STANDARD
 70
     0
 41
3.0
 42
1.0
 43
7.0
 44
2.0
 73
     0
 74
     0
 77
     1
140
2.799999999999999
141
0.0
143
0.0394
147
0.7
171
     4
172
     1
173
     1
176
     3
177
     3
178
     2
271
     3
272
     3
273
     8
274
     4
289
     0
340
A74
341
A66
343
A66
344
A66
  0
DIMSTYLE
105
FA9
330
A
100
AcDbSymbolTableRecord
100
AcDbDimStyleTableRecord
  2
AM_ANSI
 70
     0
  4
mm
 41
0.1
 42
0.05
 43
0.5
 44
0.1
 47
0.1
 48
0.1
 78
     7
 79
     2
140
0.12
141
0.0
146
0.71
147
0.06
176
   256
177
   256
178
     2
274
     4
284
     7
340
11
371
    -1
372
    -1
  0
DIMSTYLE
105
FAA
330
A
100
AcDbSymbolTableRecord
100
AcDbDimStyleTableRecord
  2
AM_ANSI$3
 70
     0
  4
mm
 41
0.1
 42
0.05
 43
0.5
 44
0.1
 47
0.1
 48
0.1
 78
     7
 79
     2
140
0.12
141
0.0
146
0.71
147
0.06
176
   256
177
   256
178
     2
274
     4
284
     7
288
     1
289
     0
340
11
371
    -1
372
    -1
  0
DIMSTYLE
105
FAB
330
A
100
AcDbSymbolTableRecord
100
AcDbDimStyleTableRecord
  2
AM_ANSI$4
 70
     0
  4
mm
 41
0.1
 42
0.05
 43
0.5
 44
0.1
 47
0.1
 48
0.1
 78
     7
 79
     2
140
0.12
141
0.0
146
0.71
147
0.06
176
   256
177
   256
178
     2
274
     4
284
     7
288
     1
289
     0
340
11
371
    -1
372
    -1
  0
DIMSTYLE
105
FAC
330
A
100
AcDbSymbolTableRecord
100
AcDbDimStyleTableRecord
  2
AM_ANSI$7
 70
     0
  4
mm
 41
0.1
 42
0.05
 43
0.5
 44
0.1
 47
0.1
 48
0.1
 78
     7
 79
     2
140
0.24
141
0.0
146
0.71
147
0.06
176
   256
177
   256
178
     2
274
     4
284
     7
340
11
371
    -1
372
    -1
  0
DIMSTYLE
105
FAD
330
A
100
AcDbSymbolTableRecord
100
AcDbDimStyleTableRecord
  2
AM_ANSI$SF
 70
     0
  4
mm
 41
0.1
 42
0.05
 43
0.5
 44
0.1
 47
0.1
 48
0.1
 75
     1
 76
     1
 78
     7
 79
     2
140
0.12
141
0.0
146
0.71
147
0.06
176
   256
177
   256
178
     2
274
     4
284
     7
340
11
371
    -1
372
    -1
  0
DIMSTYLE
105
FAE
330
A
100
AcDbSymbolTableRecord
100
AcDbDimStyleTableRecord
  2
AM_ANSI$SH
 70
     0
  4
mm
 41
0.1
 42
0.05
 43
0.5
 44
0.1
 47
0.1
 48
0.1
 75
     1
 76
     1
 78
     7
 79
     2
140
0.12
141
0.0
146
0.71
147
0.06
173
     1
176
   256
177
   256
178
     2
274
     4
284
     7
340
11
343
72
371
    -1
372
    -1
  0
DIMSTYLE
105
2515
330
A
100
AcDbSymbolTableRecord
100
AcDbDimStyleTableRecord
  2
SYS
 70
     0
  4
"
 41
2.5
 42
1.0
 43
10.0
 44
1.0
 47
0.1
 48
0.1
 73
     0
 74
     0
 77
     1
 78
     8
 79
     2
140
3.5
141
0.0
143
0.0393701
146
0.71
147
1.5
172
     1
176
   256
177
   256
178
     7
271
     2
272
     3
274
     4
283
     0
284
     8
340
11
371
    -1
372
    -1
  0
DIMSTYLE
105
2516
102
{ACAD_REACTORS
330
53C30
330
53D81
330
54B94
102
}
330
A
100
AcDbSymbolTableRecord
100
AcDbDimStyleTableRecord
  2
SYS$3
 70
     0
  4
"
 41
2.0
 42
1.0
 43
10.0
 44
1.0
 47
0.1
 48
0.1
 73
     0
 77
     1
 78
     8
 79
     2
140
3.200000000000001
141
0.0
143
0.0393701
146
0.71
147
0.9999999999999996
176
   256
177
   256
178
     2
271
     1
272
     1
283
     0
284
     8
288
     1
340
11
342
A66
371
    -1
372
    -1
  0
DIMSTYLE
105
2517
330
A
100
AcDbSymbolTableRecord
100
AcDbDimStyleTableRecord
  2
SYS$4
 70
     0
  4
"
 41
2.0
 42
1.0
 43
10.0
 44
1.0
 47
0.1
 48
0.1
 73
     0
 77
     1
 78
     8
 79
     2
140
3.2
141
0.0
143
0.0393701
146
0.71
147
0.9999999999999996
173
     1
176
   256
177
   256
178
     2
271
     2
272
     2
283
     0
284
     8
288
     1
340
11
344
A66
371
    -1
372
    -1
  0
DIMSTYLE
105
2518
330
A
100
AcDbSymbolTableRecord
100
AcDbDimStyleTableRecord
  2
SYS$6
 70
     0
  4
"
 41
2.0
 42
1.0
 43
10.0
 44
1.0
 47
0.1
 48
0.1
 73
     0
 74
     0
 78
     8
 79
     2
140
3.2
141
0.0
143
0.0393701
146
0.71
147
0.9999999999999996
172
     1
176
   256
177
   256
178
     2
271
     2
272
     2
283
     0
284
     8
340
11
341
A66
371
    -1
372
    -1
  0
DIMSTYLE
105
2519
330
A
100
AcDbSymbolTableRecord
100
AcDbDimStyleTableRecord
  2
SYS$7
 70
     0
  4
"
 41
2.0
 42
1.5
 43
10.0
 44
1.0
 47
0.1
 48
0.1
 73
     0
 74
     0
 77
     1
 78
     8
 79
     2
140
3.2
141
0.0
143
0.0393701
146
0.71
147
0.9999999999999996
172
     1
176
   256
177
   256
178
     2
271
     2
272
     2
283
     0
284
     8
340
11
341
A66
342
A66
371
    -1
372
    -1
  0
DIMSTYLE
105
251A
330
A
100
AcDbSymbolTableRecord
100
AcDbDimStyleTableRecord
  2
SYS$SF
 70
     0
  4
"
 41
1.0
 42
1.0
 43
10.0
 44
1.0
 47
0.1
 48
0.1
 73
     0
 74
     0
 75
     1
 76
     1
 77
     1
 78
     8
 79
     2
140
3.2
141
0.0
143
0.0393701
146
0.71
147
0.9999999999999996
172
     1
176
   256
177
   256
178
     2
271
     2
272
     2
283
     0
284
     8
340
11
341
6C4
342
6C4
371
    -1
372
    -1
  0
DIMSTYLE
105
251B
330
A
100
AcDbSymbolTableRecord
100
AcDbDimStyleTableRecord
  2
SYS$SH
 70
     0
  4
"
 41
1.0
 42
1.0
 43
10.0
 44
1.0
 47
0.1
 48
0.1
 73
     0
 74
     0
 75
     1
 76
     1
 77
     1
 78
     8
 79
     2
140
3.2
141
0.0
143
0.0393701
144
2.0
146
0.71
147
0.9999999999999996
172
     1
173
     1
176
   256
177
   256
178
     2
271
     2
272
     2
283
     0
284
     8
340
11
341
6C4
343
72
344
6C4
371
    -1
372
    -1
  0
DIMSTYLE
105
2A59
330
A
100
AcDbSymbolTableRecord
100
AcDbDimStyleTableRecord
  2
SYS$2
 70
     0
  4
"
 41
1.0
 42
1.5
 43
10.0
 44
1.0
 47
0.1
 48
0.1
 73
     0
 74
     0
 77
     1
 78
     8
 79
     2
140
3.2
141
0.0
143
0.0393701
146
0.71
147
0.9999999999999996
172
     1
176
   256
177
   256
178
     2
271
     2
272
     2
283
     0
284
     8
340
11
342
6C4
371
    -1
372
    -1
  0
DIMSTYLE
105
2AAB
102
{ACAD_REACTORS
330
53B36
330
53B64
330
53BB3
330
53BD2
330
53BF3
330
53C0B
330
53C4B
330
53CED
330
53CEB
330
53CEC
330
53D49
330
53DD4
330
53DF5
330
5F829
102
}
330
A
100
AcDbSymbolTableRecord
100
AcDbDimStyleTableRecord
  2
SYS$0
 70
     0
  4
"
 41
1.0
 42
1.5
 43
10.0
 44
1.0
 47
0.1
 48
0.1
 73
     0
 74
     0
 77
     1
 78
     8
 79
     2
140
3.2
141
0.0
143
0.0393701
146
0.71
147
0.9999999999999996
172
     1
176
   256
177
   256
178
     2
271
     1
272
     1
283
     0
284
     8
340
11
341
A66
342
6C4
371
    -1
372
    -1
  0
DIMSTYLE
105
C58E
330
A
100
AcDbSymbolTableRecord
100
AcDbDimStyleTableRecord
  2
SYSORG2P0
 70
     0
  4
"
 41
1.0
 42
1.0
 43
10.0
 44
1.0
 47
0.2
 48
0.2000000002
 71
     1
 73
     0
 74
     0
 77
     1
 78
     8
 79
     2
140
3.5
141
0.0
143
0.0393701
144
2.0
146
0.6
147
1.5
172
     1
176
   256
177
   256
178
     7
271
     2
272
     2
283
     0
284
     8
340
11
341
6C4
342
6C4
371
    -1
372
    -1
  0
DIMSTYLE
105
110F8
330
A
100
AcDbSymbolTableRecord
100
AcDbDimStyleTableRecord
  2
ISO-25
 70
     0
 41
3.0
 42
0.3
 43
9.0
 44
1.25
 73
     0
 74
     0
 77
     1
140
5.0
141
2.5
146
0.6
147
0.2
171
     3
172
     1
279
     2
340
11
  0
ENDTAB
  0
TABLE
  2
BLOCK_RECORD
  5
1
330
0
100
AcDbSymbolTable
 70
    22
  0
BLOCK_RECORD
  5
1F
102
{ACAD_XDICTIONARY
360
8A
102
}
330
1
100
AcDbSymbolTableRecord
100
AcDbBlockTableRecord
  2
*Model_Space
340
22
  0
BLOCK_RECORD
  5
1B
330
1
100
AcDbSymbolTableRecord
100
AcDbBlockTableRecord
  2
*Paper_Space
340
1E
  0
BLOCK_RECORD
  5
23
330
1
100
AcDbSymbolTableRecord
100
AcDbBlockTableRecord
  2
*Paper_Space0
340
26
  0
BLOCK_RECORD
  5
72
330
1
100
AcDbSymbolTableRecord
100
AcDbBlockTableRecord
  2
GENAXEH
340
0
  0
BLOCK_RECORD
  5
6C4
330
1
100
AcDbSymbolTableRecord
100
AcDbBlockTableRecord
  2
_Dot
340
0
102
{BLKREFS
331
63FA0
331
63FA1
331
63FA9
331
63FAA
331
63FB2
331
63FB3
331
63FC4
331
63FC5
331
63FCD
331
63FCE
331
63FE1
331
63FE2
331
63FEA
331
63FEB
331
63FF3
331
63FF4
331
63FFC
331
63FFD
331
64007
331
64008
331
64012
331
64013
331
64019
331
6401A
331
64022
331
64023
331
64035
331
64036
331
6403E
331
6403F
331
64049
331
6404A
331
64052
331
64053
102
}
  0
BLOCK_RECORD
  5
A66
330
1
100
AcDbSymbolTableRecord
100
AcDbBlockTableRecord
  2
_OPEN30
340
0
  0
BLOCK_RECORD
  5
53B37
330
1
100
AcDbSymbolTableRecord
100
AcDbBlockTableRecord
  2
*D5
340
0
  0
BLOCK_RECORD
  5
53B65
330
1
100
AcDbSymbolTableRecord
100
AcDbBlockTableRecord
  2
*D6
340
0
  0
BLOCK_RECORD
  5
53BB4
330
1
100
AcDbSymbolTableRecord
100
AcDbBlockTableRecord
  2
*D7
340
0
  0
BLOCK_RECORD
  5
53BD3
330
1
100
AcDbSymbolTableRecord
100
AcDbBlockTableRecord
  2
*D8
340
0
  0
BLOCK_RECORD
  5
53BF4
330
1
100
AcDbSymbolTableRecord
100
AcDbBlockTableRecord
  2
*D9
340
0
  0
BLOCK_RECORD
  5
53C0C
330
1
100
AcDbSymbolTableRecord
100
AcDbBlockTableRecord
  2
*D10
340
0
  0
BLOCK_RECORD
  5
53C31
330
1
100
AcDbSymbolTableRecord
100
AcDbBlockTableRecord
  2
*D11
340
0
  0
BLOCK_RECORD
  5
53C4C
330
1
100
AcDbSymbolTableRecord
100
AcDbBlockTableRecord
  2
*D12
340
0
  0
BLOCK_RECORD
  5
53CF0
330
1
100
AcDbSymbolTableRecord
100
AcDbBlockTableRecord
  2
*D13
340
0
  0
BLOCK_RECORD
  5
53CFC
330
1
100
AcDbSymbolTableRecord
100
AcDbBlockTableRecord
  2
*D14
340
0
  0
BLOCK_RECORD
  5
53D08
330
1
100
AcDbSymbolTableRecord
100
AcDbBlockTableRecord
  2
*D15
340
0
  0
BLOCK_RECORD
  5
53D4C
330
1
100
AcDbSymbolTableRecord
100
AcDbBlockTableRecord
  2
*D16
340
0
  0
BLOCK_RECORD
  5
53D82
330
1
100
AcDbSymbolTableRecord
100
AcDbBlockTableRecord
  2
*D17
340
0
  0
BLOCK_RECORD
  5
53DD5
330
1
100
AcDbSymbolTableRecord
100
AcDbBlockTableRecord
  2
*D18
340
0
  0
BLOCK_RECORD
  5
53DF6
330
1
100
AcDbSymbolTableRecord
100
AcDbBlockTableRecord
  2
*D19
340
0
  0
BLOCK_RECORD
  5
54B95
330
1
100
AcDbSymbolTableRecord
100
AcDbBlockTableRecord
  2
*D20
340
0
  0
BLOCK_RECORD
  5
5F82A
330
1
100
AcDbSymbolTableRecord
100
AcDbBlockTableRecord
  2
*D21
340
0
  0
ENDTAB
  0
ENDSEC
  0
SECTION
  2
BLOCKS
  0
BLOCK
  5
20
330
1F
100
AcDbEntity
  8
0
100
AcDbBlockBegin
  2
*Model_Space
 70
     0
 10
0.0
 20
0.0
 30
0.0
  3
*Model_Space
  1

  0
ENDBLK
  5
21
330
1F
100
AcDbEntity
  8
0
100
AcDbBlockEnd
  0
BLOCK
  5
1C
330
1B
100
AcDbEntity
 67
     1
  8
0
100
AcDbBlockBegin
  2
*Paper_Space
 70
     0
 10
0.0
 20
0.0
 30
0.0
  3
*Paper_Space
  1

  0
ENDBLK
  5
1D
330
1B
100
AcDbEntity
 67
     1
  8
0
100
AcDbBlockEnd
  0
BLOCK
  5
24
330
23
100
AcDbEntity
 67
     1
  8
0
100
AcDbBlockBegin
  2
*Paper_Space0
 70
     0
 10
0.0
 20
0.0
 30
0.0
  3
*Paper_Space0
  1

  0
ENDBLK
  5
25
330
23
100
AcDbEntity
 67
     1
  8
0
100
AcDbBlockEnd
  0
BLOCK
  5
74
330
72
100
AcDbEntity
  8
0
100
AcDbBlockBegin
  2
GENAXEH
 70
     0
 10
0.0
 20
0.0
 30
0.0
  3
GENAXEH
  1

  0
LINE
  5
73
330
72
100
AcDbEntity
  8
0
100
AcDbLine
 10
-1.0
 20
0.0
 30
0.0
 11
1.0
 21
0.0
 31
0.0
  0
ENDBLK
  5
75
330
72
100
AcDbEntity
  8
0
100
AcDbBlockEnd
  0
BLOCK
  5
6C7
330
6C4
100
AcDbEntity
  8
0
100
AcDbBlockBegin
  2
_Dot
 70
     0
 10
0.0
 20
0.0
 30
0.0
  3
_Dot
  1

  0
LWPOLYLINE
  5
6C5
330
6C4
100
AcDbEntity
  8
0
  6
ByBlock
 62
     0
100
AcDbPolyline
 90
        2
 70
     1
 43
0.5
 10
-0.25
 20
0.0
 42
1.0
 10
0.25
 20
0.0
 42
1.0
  0
LINE
  5
6C6
330
6C4
100
AcDbEntity
  8
0
  6
ByBlock
 62
     0
370
    -2
100
AcDbLine
 10
-0.5
 20
0.0
 30
0.0
 11
-1.0
 21
0.0
 31
0.0
  0
ENDBLK
  5
6C8
330
6C4
100
AcDbEntity
  8
0
100
AcDbBlockEnd
  0
BLOCK
  5
A6A
330
A66
100
AcDbEntity
  8
0
100
AcDbBlockBegin
  2
_OPEN30
 70
     0
 10
0.0
 20
0.0
 30
0.0
  3
_OPEN30
  1

  0
LINE
  5
A67
330
A66
100
AcDbEntity
  8
0
  6
ByBlock
 62
     0
100
AcDbLine
 10
-1.0
 20
0.26794919
 30
0.0
 11
0.0
 21
0.0
 31
0.0
  0
LINE
  5
A68
330
A66
100
AcDbEntity
  8
0
  6
ByBlock
 62
     0
100
AcDbLine
 10
0.0
 20
0.0
 30
0.0
 11
-1.0
 21
-0.26794919
 31
0.0
  0
LINE
  5
A69
330
A66
100
AcDbEntity
  8
0
  6
ByBlock
 62
     0
100
AcDbLine
 10
0.0
 20
0.0
 30
0.0
 11
-1.0
 21
0.0
 31
0.0
  0
ENDBLK
  5
A6B
330
A66
100
AcDbEntity
  8
0
100
AcDbBlockEnd
  0
BLOCK
  5
53B43
330
53B37
100
AcDbEntity
  8
0
100
AcDbBlockBegin
  2
*D5
 70
     1
 10
0.0
 20
0.0
 30
0.0
  3
*D5
  1

  0
LINE
  5
63F9C
330
53B37
100
AcDbEntity
  8
AM_5
100
AcDbLine
 10
251.0000000000005
 20
162.4000000000001
 30
0.0
 11
251.0000000000005
 21
168.9000000000001
 31
0.0
  0
LINE
  5
63F9D
330
53B37
100
AcDbEntity
  8
AM_5
100
AcDbLine
 10
255.0000000000005
 20
162.4000000000001
 30
0.0
 11
255.0000000000005
 21
168.9000000000001
 31
0.0
  0
LINE
  5
63F9E
330
53B37
100
AcDbEntity
  8
AM_5
100
AcDbLine
 10
252.0000000000004
 20
167.9000000000001
 30
0.0
 11
254.0000000000004
 21
167.9000000000001
 31
0.0
  0
LINE
  5
63F9F
330
53B37
100
AcDbEntity
  8
AM_5
100
AcDbLine
 10
255.0000000000005
 20
167.9000000000001
 30
0.0
 11
262.3946666666671
 21
167.9000000000001
 31
0.0
  0
INSERT
  5
63FA0
330
53B37
100
AcDbEntity
  8
AM_5
100
AcDbBlockReference
  2
_Dot
 10
251.0000000000005
 20
167.9000000000001
 30
0.0
 41
1.0
 42
1.0
 43
1.0
 50
180.0
  0
INSERT
  5
63FA1
330
53B37
100
AcDbEntity
  8
AM_5
100
AcDbBlockReference
  2
_Dot
 10
255.0000000000005
 20
167.9000000000001
 30
0.0
 41
1.0
 42
1.0
 43
1.0
  0
MTEXT
  5
63FA2
330
53B37
100
AcDbEntity
  8
AM_5
 62
     2
100
AcDbMText
 10
259.1973333333338
 20
170.5000000000001
 30
0.0
 40
3.2
 41
0.0
 71
     5
 72
     1
  1
%%cＩ　
 73
     1
 44
1.0
1001
ACAD
1000
MTEXTBEGIN
1070
    73
1070
     1
1070
    44
1040
1.0
1070
    74
1070
     0
1000
MTEXTEND
  0
POINT
  5
63FA3
330
53B37
100
AcDbEntity
  8
Defpoints
 62
     0
100
AcDbPoint
 10
251.0000000000005
 20
160.9000000000001
 30
0.0
  0
POINT
  5
63FA4
330
53B37
100
AcDbEntity
  8
Defpoints
 62
     0
100
AcDbPoint
 10
255.0000000000005
 20
160.9000000000001
 30
0.0
  0
POINT
  5
63FA5
330
53B37
100
AcDbEntity
  8
Defpoints
 62
     0
100
AcDbPoint
 10
255.0000000000005
 20
167.9000000000001
 30
0.0
  0
ENDBLK
  5
53B44
330
53B37
100
AcDbEntity
  8
0
100
AcDbBlockEnd
  0
BLOCK
  5
53B6F
330
53B65
100
AcDbEntity
  8
0
100
AcDbBlockBegin
  2
*D6
 70
     1
 10
0.0
 20
0.0
 30
0.0
  3
*D6
  1

  0
LINE
  5
63FA6
330
53B65
100
AcDbEntity
  8
AM_5
100
AcDbLine
 10
240.0000007815961
 20
215.3999995687527
 30
0.0
 11
240.0000007815961
 21
222.8999999999999
 31
0.0
  0
LINE
  5
63FA7
330
53B65
100
AcDbEntity
  8
AM_5
100
AcDbLine
 10
266.0000000000005
 20
165.4000000000001
 30
0.0
 11
266.0000000000005
 21
222.8999999999999
 31
0.0
  0
LINE
  5
63FA8
330
53B65
100
AcDbEntity
  8
AM_5
100
AcDbLine
 10
241.0000007815961
 20
221.8999999999998
 30
0.0
 11
265.0000000000005
 21
221.8999999999998
 31
0.0
  0
INSERT
  5
63FA9
330
53B65
100
AcDbEntity
  8
AM_5
100
AcDbBlockReference
  2
_Dot
 10
240.0000007815961
 20
221.8999999999998
 30
0.0
 41
1.0
 42
1.0
 43
1.0
 50
180.0
  0
INSERT
  5
63FAA
330
53B65
100
AcDbEntity
  8
AM_5
100
AcDbBlockReference
  2
_Dot
 10
266.0000000000005
 20
221.8999999999998
 30
0.0
 41
1.0
 42
1.0
 43
1.0
  0
MTEXT
  5
63FAB
330
53B65
100
AcDbEntity
  8
AM_5
 62
     2
100
AcDbMText
 10
253.0000003907983
 20
224.4999999999999
 30
0.0
 40
3.2
 41
0.0
 71
     5
 72
     1
  1
C
 73
     1
 44
1.0
1001
ACAD
1000
MTEXTBEGIN
1070
    73
1070
     1
1070
    44
1040
1.0
1070
    74
1070
     0
1000
MTEXTEND
  0
POINT
  5
63FAC
330
53B65
100
AcDbEntity
  8
Defpoints
 62
     0
100
AcDbPoint
 10
240.0000007815961
 20
213.8999995687527
 30
0.0
  0
POINT
  5
63FAD
330
53B65
100
AcDbEntity
  8
Defpoints
 62
     0
100
AcDbPoint
 10
266.0000000000005
 20
163.9000000000001
 30
0.0
  0
POINT
  5
63FAE
330
53B65
100
AcDbEntity
  8
Defpoints
 62
     0
100
AcDbPoint
 10
266.0000000000005
 20
221.8999999999998
 30
0.0
  0
ENDBLK
  5
53B70
330
53B65
100
AcDbEntity
  8
0
100
AcDbBlockEnd
  0
BLOCK
  5
53BBE
330
53BB4
100
AcDbEntity
  8
0
100
AcDbBlockBegin
  2
*D7
 70
     1
 10
0.0
 20
0.0
 30
0.0
  3
*D7
  1

  0
LINE
  5
63FAF
330
53BB4
100
AcDbEntity
  8
AM_5
100
AcDbLine
 10
234.0000010000008
 20
195.4
 30
0.0
 11
234.0000010000008
 21
230.8999999999999
 31
0.0
  0
LINE
  5
63FB0
330
53BB4
100
AcDbEntity
  8
AM_5
100
AcDbLine
 10
272.0000000000005
 20
145.4000000000001
 30
0.0
 11
272.0000000000005
 21
230.8999999999999
 31
0.0
  0
LINE
  5
63FB1
330
53BB4
100
AcDbEntity
  8
AM_5
100
AcDbLine
 10
235.0000010000008
 20
229.8999999999999
 30
0.0
 11
271.0000000000004
 21
229.8999999999999
 31
0.0
  0
INSERT
  5
63FB2
330
53BB4
100
AcDbEntity
  8
AM_5
100
AcDbBlockReference
  2
_Dot
 10
234.0000010000008
 20
229.8999999999999
 30
0.0
 41
1.0
 42
1.0
 43
1.0
 50
180.0
  0
INSERT
  5
63FB3
330
53BB4
100
AcDbEntity
  8
AM_5
100
AcDbBlockReference
  2
_Dot
 10
272.0000000000005
 20
229.8999999999999
 30
0.0
 41
1.0
 42
1.0
 43
1.0
  0
MTEXT
  5
63FB4
330
53BB4
100
AcDbEntity
  8
AM_5
 62
     2
100
AcDbMText
 10
253.0000005000006
 20
232.4999999999999
 30
0.0
 40
3.2
 41
0.0
 71
     5
 72
     1
  1
B
 73
     1
 44
1.0
1001
ACAD
1000
MTEXTBEGIN
1070
    73
1070
     1
1070
    44
1040
1.0
1070
    74
1070
     0
1000
MTEXTEND
  0
POINT
  5
63FB5
330
53BB4
100
AcDbEntity
  8
Defpoints
 62
     0
100
AcDbPoint
 10
234.0000010000008
 20
193.9000000000001
 30
0.0
  0
POINT
  5
63FB6
330
53BB4
100
AcDbEntity
  8
Defpoints
 62
     0
100
AcDbPoint
 10
272.0000000000005
 20
143.9000000000001
 30
0.0
  0
POINT
  5
63FB7
330
53BB4
100
AcDbEntity
  8
Defpoints
 62
     0
100
AcDbPoint
 10
272.0000000000005
 20
229.8999999999999
 30
0.0
  0
ENDBLK
  5
53BBF
330
53BB4
100
AcDbEntity
  8
0
100
AcDbBlockEnd
  0
BLOCK
  5
53BDD
330
53BD3
100
AcDbEntity
  8
0
100
AcDbBlockBegin
  2
*D8
 70
     1
 10
0.0
 20
0.0
 30
0.0
  3
*D8
  1

  0
LINE
  5
6403B
330
53BD3
100
AcDbEntity
  8
AM_5
100
AcDbLine
 10
238.500000781594
 20
213.8999995687497
 30
0.0
 11
224.9999999999984
 21
213.8999995687497
 31
0.0
  0
LINE
  5
6403C
330
53BD3
100
AcDbEntity
  8
AM_5
100
AcDbLine
 10
238.4999999999983
 20
173.8999999999971
 30
0.0
 11
224.9999999999984
 21
173.8999999999971
 31
0.0
  0
LINE
  5
6403D
330
53BD3
100
AcDbEntity
  8
AM_5
100
AcDbLine
 10
225.9999999999984
 20
212.8999995687497
 30
0.0
 11
225.9999999999983
 21
174.8999999999971
 31
0.0
  0
INSERT
  5
6403E
330
53BD3
100
AcDbEntity
  8
AM_5
100
AcDbBlockReference
  2
_Dot
 10
225.9999999999984
 20
213.8999995687497
 30
0.0
 41
1.0
 42
1.0
 43
1.0
 50
90.0
  0
INSERT
  5
6403F
330
53BD3
100
AcDbEntity
  8
AM_5
100
AcDbBlockReference
  2
_Dot
 10
225.9999999999983
 20
173.8999999999971
 30
0.0
 41
1.0
 42
1.0
 43
1.0
 50
270.0
  0
MTEXT
  5
64040
330
53BD3
100
AcDbEntity
  8
AM_5
 62
     2
100
AcDbMText
 10
223.3999999999983
 20
193.8999997843734
 30
0.0
 40
3.2
 41
0.0
 71
     5
 72
     1
  1
A
 11
0.0000000000000001
 21
1.0
 31
0.0
 73
     1
 44
1.0
1001
ACAD
1000
MTEXTBEGIN
1070
    73
1070
     1
1070
    44
1040
1.0
1070
    74
1070
     0
1000
MTEXTEND
  0
POINT
  5
64041
330
53BD3
100
AcDbEntity
  8
Defpoints
 62
     0
100
AcDbPoint
 10
240.000000781594
 20
213.8999995687497
 30
0.0
  0
POINT
  5
64042
330
53BD3
100
AcDbEntity
  8
Defpoints
 62
     0
100
AcDbPoint
 10
239.9999999999983
 20
173.8999999999971
 30
0.0
  0
POINT
  5
64043
330
53BD3
100
AcDbEntity
  8
Defpoints
 62
     0
100
AcDbPoint
 10
225.9999999999983
 20
173.8999999999971
 30
0.0
  0
ENDBLK
  5
53BDE
330
53BD3
100
AcDbEntity
  8
0
100
AcDbBlockEnd
  0
BLOCK
  5
53BFE
330
53BF4
100
AcDbEntity
  8
0
100
AcDbBlockBegin
  2
*D9
 70
     1
 10
0.0
 20
0.0
 30
0.0
  3
*D9
  1

  0
LINE
  5
63FC1
330
53BF4
100
AcDbEntity
  8
AM_5
100
AcDbLine
 10
274.3500000000004
 20
143.9000000000001
 30
0.0
 11
283.0000010100002
 21
143.9000000000001
 31
0.0
  0
LINE
  5
63FC2
330
53BF4
100
AcDbEntity
  8
AM_5
100
AcDbLine
 10
269.3500000000004
 20
129.9000000000001
 30
0.0
 11
283.0000010100002
 21
129.9000000000001
 31
0.0
  0
LINE
  5
63FC3
330
53BF4
100
AcDbEntity
  8
AM_5
100
AcDbLine
 10
282.0000010100002
 20
142.9000000000001
 30
0.0
 11
282.0000010100002
 21
130.9000000000001
 31
0.0
  0
INSERT
  5
63FC4
330
53BF4
100
AcDbEntity
  8
AM_5
100
AcDbBlockReference
  2
_Dot
 10
282.0000010100002
 20
143.9000000000001
 30
0.0
 41
1.0
 42
1.0
 43
1.0
 50
90.0
  0
INSERT
  5
63FC5
330
53BF4
100
AcDbEntity
  8
AM_5
100
AcDbBlockReference
  2
_Dot
 10
282.0000010100002
 20
129.9000000000001
 30
0.0
 41
1.0
 42
1.0
 43
1.0
 50
270.0
  0
MTEXT
  5
63FC6
330
53BF4
100
AcDbEntity
  8
AM_5
 62
     2
100
AcDbMText
 10
279.4000010100002
 20
136.9000000000001
 30
0.0
 40
3.2
 41
0.0
 71
     5
 72
     1
  1
D
 11
0.0000000000000001
 21
1.0
 31
0.0
 73
     1
 44
1.0
1001
ACAD
1000
MTEXTBEGIN
1070
    73
1070
     1
1070
    44
1040
1.0
1070
    74
1070
     0
1000
MTEXTEND
  0
POINT
  5
63FC7
330
53BF4
100
AcDbEntity
  8
Defpoints
 62
     0
100
AcDbPoint
 10
272.8500000000003
 20
143.9000000000001
 30
0.0
  0
POINT
  5
63FC8
330
53BF4
100
AcDbEntity
  8
Defpoints
 62
     0
100
AcDbPoint
 10
267.8500000000004
 20
129.9000000000001
 30
0.0
  0
POINT
  5
63FC9
330
53BF4
100
AcDbEntity
  8
Defpoints
 62
     0
100
AcDbPoint
 10
282.0000010100002
 20
129.9000000000001
 30
0.0
  0
ENDBLK
  5
53BFF
330
53BF4
100
AcDbEntity
  8
0
100
AcDbBlockEnd
  0
BLOCK
  5
53C16
330
53C0C
100
AcDbEntity
  8
0
100
AcDbBlockBegin
  2
*D10
 70
     1
 10
0.0
 20
0.0
 30
0.0
  3
*D10
  1

  0
LINE
  5
63FCA
330
53C0C
100
AcDbEntity
  8
AM_5
100
AcDbLine
 10
274.3500000000004
 20
143.9000000000001
 30
0.0
 11
283.0000000000005
 21
143.9000000000001
 31
0.0
  0
LINE
  5
63FCB
330
53C0C
100
AcDbEntity
  8
AM_5
100
AcDbLine
 10
269.3500000000004
 20
157.9000000000001
 30
0.0
 11
283.0000000000005
 21
157.9000000000001
 31
0.0
  0
LINE
  5
63FCC
330
53C0C
100
AcDbEntity
  8
AM_5
100
AcDbLine
 10
282.0000000000005
 20
144.9000000000001
 30
0.0
 11
282.0000000000005
 21
156.9000000000001
 31
0.0
  0
INSERT
  5
63FCD
330
53C0C
100
AcDbEntity
  8
AM_5
100
AcDbBlockReference
  2
_Dot
 10
282.0000000000005
 20
143.9000000000001
 30
0.0
 41
1.0
 42
1.0
 43
1.0
 50
270.0
  0
INSERT
  5
63FCE
330
53C0C
100
AcDbEntity
  8
AM_5
100
AcDbBlockReference
  2
_Dot
 10
282.0000000000005
 20
157.9000000000001
 30
0.0
 41
1.0
 42
1.0
 43
1.0
 50
90.0
  0
MTEXT
  5
63FCF
330
53C0C
100
AcDbEntity
  8
AM_5
 62
     2
100
AcDbMText
 10
279.4000000000004
 20
150.9000000000001
 30
0.0
 40
3.2
 41
0.0
 71
     5
 72
     1
  1
D
 11
0.0000000000000001
 21
1.0
 31
0.0
 73
     1
 44
1.0
1001
ACAD
1000
MTEXTBEGIN
1070
    73
1070
     1
1070
    44
1040
1.0
1070
    74
1070
     0
1000
MTEXTEND
  0
POINT
  5
63FD0
330
53C0C
100
AcDbEntity
  8
Defpoints
 62
     0
100
AcDbPoint
 10
272.8500000000003
 20
143.9000000000001
 30
0.0
  0
POINT
  5
63FD1
330
53C0C
100
AcDbEntity
  8
Defpoints
 62
     0
100
AcDbPoint
 10
267.8500000000004
 20
157.9000000000001
 30
0.0
  0
POINT
  5
63FD2
330
53C0C
100
AcDbEntity
  8
Defpoints
 62
     0
100
AcDbPoint
 10
282.0000000000005
 20
157.9000000000001
 30
0.0
  0
ENDBLK
  5
53C17
330
53C0C
100
AcDbEntity
  8
0
100
AcDbBlockEnd
  0
BLOCK
  5
53C38
330
53C31
100
AcDbEntity
  8
0
100
AcDbBlockBegin
  2
*D11
 70
     1
 10
0.0
 20
0.0
 30
0.0
  3
*D11
  1

  0
LINE
  5
64044
330
53C31
100
AcDbEntity
  8
AM_5
100
AcDbLine
 10
238.1113787975403
 20
243.7753787975431
 30
0.0
 11
245.5753787975426
 21
243.7753787975431
 31
0.0
  0
LINE
  5
64045
330
53C31
100
AcDbEntity
  8
AM_5
100
AcDbLine
 10
245.5753787975426
 20
243.7753787975431
 30
0.0
 11
249.9594408408981
 21
248.1594408408981
 31
0.0
  0
LINE
  5
64046
330
53C31
100
AcDbEntity
  8
AM_5
100
AcDbLine
 10
256.0405591591031
 20
254.2405591591023
 30
0.0
 11
256.7476659402897
 21
254.9476659402888
 31
0.0
  0
MTEXT
  5
64047
330
53C31
100
AcDbEntity
  8
AM_5
 62
     2
100
AcDbMText
 10
241.3433787975403
 20
246.3753787975431
 30
0.0
 40
3.200000000000001
 41
0.0
 71
     5
 72
     1
  1
（%%cH）
 73
     1
 44
1.0
1001
ACAD
1000
MTEXTBEGIN
1070
    73
1070
     1
1070
    44
1040
1.0
1070
    74
1070
     0
1000
MTEXTEND
  0
LINE
  5
64048
330
53C31
100
AcDbEntity
  8
AM_5
100
AcDbLine
 10
255.3334523779165
 20
253.5334523779158
 30
0.0
 11
250.6665476220847
 21
248.8665476220846
 31
0.0
  0
INSERT
  5
64049
330
53C31
100
AcDbEntity
  8
AM_5
100
AcDbBlockReference
  2
_Dot
 10
255.3334523779165
 20
253.5334523779158
 30
0.0
 50
224.9999999999965
  0
INSERT
  5
6404A
330
53C31
100
AcDbEntity
  8
AM_5
100
AcDbBlockReference
  2
_Dot
 10
250.6665476220847
 20
248.8665476220846
 30
0.0
 50
44.99999999999648
  0
POINT
  5
6404B
330
53C31
100
AcDbEntity
  8
Defpoints
 62
     0
100
AcDbPoint
 10
250.6665476220847
 20
248.8665476220846
 30
0.0
  0
POINT
  5
6404C
330
53C31
100
AcDbEntity
  8
Defpoints
 62
     0
100
AcDbPoint
 10
255.3334523779165
 20
253.5334523779158
 30
0.0
  0
ENDBLK
  5
53C39
330
53C31
100
AcDbEntity
  8
0
100
AcDbBlockEnd
  0
BLOCK
  5
53C58
330
53C4C
100
AcDbEntity
  8
0
100
AcDbBlockBegin
  2
*D12
 70
     1
 10
0.0
 20
0.0
 30
0.0
  3
*D12
  1

  0
LINE
  5
63FDC
330
53C4C
100
AcDbEntity
  8
AM_5
100
AcDbLine
 10
273.5000000000005
 20
254.5
 30
0.0
 11
283.0000000000005
 21
254.5
 31
0.0
  0
LINE
  5
63FDD
330
53C4C
100
AcDbEntity
  8
AM_5
100
AcDbLine
 10
273.5000000000005
 20
253.2999999999999
 30
0.0
 11
283.0000000000005
 21
253.2999999999999
 31
0.0
  0
LINE
  5
63FDE
330
53C4C
100
AcDbEntity
  8
AM_5
100
AcDbLine
 10
282.0000000000005
 20
255.5
 30
0.0
 11
282.0000000000005
 21
256.5
 31
0.0
  0
LINE
  5
63FDF
330
53C4C
100
AcDbEntity
  8
AM_5
100
AcDbLine
 10
282.0000000000005
 20
252.3
 30
0.0
 11
282.0000000000005
 21
247.7
 31
0.0
  0
LINE
  5
63FE0
330
53C4C
100
AcDbEntity
  8
AM_5
100
AcDbLine
 10
282.0000000000005
 20
254.5
 30
0.0
 11
282.0000000000005
 21
253.2999999999999
 31
0.0
  0
INSERT
  5
63FE1
330
53C4C
100
AcDbEntity
  8
AM_5
100
AcDbBlockReference
  2
_Dot
 10
282.0000000000005
 20
254.5
 30
0.0
 41
1.0
 42
1.0
 43
1.0
 50
270.0
  0
INSERT
  5
63FE2
330
53C4C
100
AcDbEntity
  8
AM_5
100
AcDbBlockReference
  2
_Dot
 10
282.0000000000005
 20
253.2999999999999
 30
0.0
 41
1.0
 42
1.0
 43
1.0
 50
90.0
  0
MTEXT
  5
63FE3
330
53C4C
100
AcDbEntity
  8
AM_5
 62
     2
100
AcDbMText
 10
279.4000000000004
 20
249.5
 30
0.0
 40
3.2
 41
0.0
 71
     5
 72
     1
  1
G
 11
0.0000000000000001
 21
1.0
 31
0.0
 73
     1
 44
1.0
1001
ACAD
1000
MTEXTBEGIN
1070
    73
1070
     1
1070
    44
1040
1.0
1070
    74
1070
     0
1000
MTEXTEND
  0
POINT
  5
63FE4
330
53C4C
100
AcDbEntity
  8
Defpoints
 62
     0
100
AcDbPoint
 10
272.0000000000005
 20
254.5
 30
0.0
  0
POINT
  5
63FE5
330
53C4C
100
AcDbEntity
  8
Defpoints
 62
     0
100
AcDbPoint
 10
272.0000000000005
 20
253.2999999999999
 30
0.0
  0
POINT
  5
63FE6
330
53C4C
100
AcDbEntity
  8
Defpoints
 62
     0
100
AcDbPoint
 10
282.0000000000005
 20
253.2999999999999
 30
0.0
  0
ENDBLK
  5
53C59
330
53C4C
100
AcDbEntity
  8
0
100
AcDbBlockEnd
  0
BLOCK
  5
53CFA
330
53CF0
100
AcDbEntity
  8
0
100
AcDbBlockBegin
  2
*D13
 70
     1
 10
0.0
 20
0.0
 30
0.0
  3
*D13
  1

  0
LINE
  5
63FE7
330
53CF0
100
AcDbEntity
  8
AM_5
100
AcDbLine
 10
152.0000007815961
 20
215.3999995687529
 30
0.0
 11
152.0000007815961
 21
222.9000000000001
 31
0.0
  0
LINE
  5
63FE8
330
53CF0
100
AcDbEntity
  8
AM_5
100
AcDbLine
 10
178.0000000000004
 20
165.4000000000003
 30
0.0
 11
178.0000000000004
 21
222.9000000000001
 31
0.0
  0
LINE
  5
63FE9
330
53CF0
100
AcDbEntity
  8
AM_5
100
AcDbLine
 10
153.0000007815961
 20
221.9000000000001
 30
0.0
 11
177.0000000000004
 21
221.9000000000001
 31
0.0
  0
INSERT
  5
63FEA
330
53CF0
100
AcDbEntity
  8
AM_5
100
AcDbBlockReference
  2
_Dot
 10
152.0000007815961
 20
221.9000000000001
 30
0.0
 41
1.0
 42
1.0
 43
1.0
 50
180.0
  0
INSERT
  5
63FEB
330
53CF0
100
AcDbEntity
  8
AM_5
100
AcDbBlockReference
  2
_Dot
 10
178.0000000000004
 20
221.9000000000001
 30
0.0
 41
1.0
 42
1.0
 43
1.0
  0
MTEXT
  5
63FEC
330
53CF0
100
AcDbEntity
  8
AM_5
 62
     2
100
AcDbMText
 10
165.0000003907982
 20
224.5000000000001
 30
0.0
 40
3.2
 41
0.0
 71
     5
 72
     1
  1
C
 73
     1
 44
1.0
1001
ACAD
1000
MTEXTBEGIN
1070
    73
1070
     1
1070
    44
1040
1.0
1070
    74
1070
     0
1000
MTEXTEND
  0
POINT
  5
63FED
330
53CF0
100
AcDbEntity
  8
Defpoints
 62
     0
100
AcDbPoint
 10
152.0000007815961
 20
213.8999995687529
 30
0.0
  0
POINT
  5
63FEE
330
53CF0
100
AcDbEntity
  8
Defpoints
 62
     0
100
AcDbPoint
 10
178.0000000000004
 20
163.9000000000003
 30
0.0
  0
POINT
  5
63FEF
330
53CF0
100
AcDbEntity
  8
Defpoints
 62
     0
100
AcDbPoint
 10
178.0000000000004
 20
221.9000000000001
 30
0.0
  0
ENDBLK
  5
53CFB
330
53CF0
100
AcDbEntity
  8
0
100
AcDbBlockEnd
  0
BLOCK
  5
53D06
330
53CFC
100
AcDbEntity
  8
0
100
AcDbBlockBegin
  2
*D14
 70
     1
 10
0.0
 20
0.0
 30
0.0
  3
*D14
  1

  0
LINE
  5
63FF0
330
53CFC
100
AcDbEntity
  8
AM_5
100
AcDbLine
 10
146.0000010000008
 20
195.4000000000003
 30
0.0
 11
146.0000010000008
 21
230.9000000000001
 31
0.0
  0
LINE
  5
63FF1
330
53CFC
100
AcDbEntity
  8
AM_5
100
AcDbLine
 10
184.0000000000004
 20
145.4000000000003
 30
0.0
 11
184.0000000000004
 21
230.9000000000001
 31
0.0
  0
LINE
  5
63FF2
330
53CFC
100
AcDbEntity
  8
AM_5
100
AcDbLine
 10
147.0000010000008
 20
229.9000000000001
 30
0.0
 11
183.0000000000004
 21
229.9000000000001
 31
0.0
  0
INSERT
  5
63FF3
330
53CFC
100
AcDbEntity
  8
AM_5
100
AcDbBlockReference
  2
_Dot
 10
146.0000010000008
 20
229.9000000000001
 30
0.0
 41
1.0
 42
1.0
 43
1.0
 50
180.0
  0
INSERT
  5
63FF4
330
53CFC
100
AcDbEntity
  8
AM_5
100
AcDbBlockReference
  2
_Dot
 10
184.0000000000004
 20
229.9000000000001
 30
0.0
 41
1.0
 42
1.0
 43
1.0
  0
MTEXT
  5
63FF5
330
53CFC
100
AcDbEntity
  8
AM_5
 62
     2
100
AcDbMText
 10
165.0000005000006
 20
232.5000000000001
 30
0.0
 40
3.2
 41
0.0
 71
     5
 72
     1
  1
B
 73
     1
 44
1.0
1001
ACAD
1000
MTEXTBEGIN
1070
    73
1070
     1
1070
    44
1040
1.0
1070
    74
1070
     0
1000
MTEXTEND
  0
POINT
  5
63FF6
330
53CFC
100
AcDbEntity
  8
Defpoints
 62
     0
100
AcDbPoint
 10
146.0000010000008
 20
193.9000000000003
 30
0.0
  0
POINT
  5
63FF7
330
53CFC
100
AcDbEntity
  8
Defpoints
 62
     0
100
AcDbPoint
 10
184.0000000000004
 20
143.9000000000003
 30
0.0
  0
POINT
  5
63FF8
330
53CFC
100
AcDbEntity
  8
Defpoints
 62
     0
100
AcDbPoint
 10
184.0000000000004
 20
229.9000000000001
 30
0.0
  0
ENDBLK
  5
53D07
330
53CFC
100
AcDbEntity
  8
0
100
AcDbBlockEnd
  0
BLOCK
  5
53D12
330
53D08
100
AcDbEntity
  8
0
100
AcDbBlockBegin
  2
*D15
 70
     1
 10
0.0
 20
0.0
 30
0.0
  3
*D15
  1

  0
LINE
  5
63FF9
330
53D08
100
AcDbEntity
  8
AM_5
100
AcDbLine
 10
150.5000007815961
 20
213.8999995687529
 30
0.0
 11
137.0000000000004
 21
213.8999995687529
 31
0.0
  0
LINE
  5
63FFA
330
53D08
100
AcDbEntity
  8
AM_5
100
AcDbLine
 10
150.5000000000004
 20
173.9000000000003
 30
0.0
 11
137.0000000000004
 21
173.9000000000003
 31
0.0
  0
LINE
  5
63FFB
330
53D08
100
AcDbEntity
  8
AM_5
100
AcDbLine
 10
138.0000000000005
 20
212.899999568753
 30
0.0
 11
138.0000000000004
 21
174.9000000000003
 31
0.0
  0
INSERT
  5
63FFC
330
53D08
100
AcDbEntity
  8
AM_5
100
AcDbBlockReference
  2
_Dot
 10
138.0000000000005
 20
213.8999995687529
 30
0.0
 41
1.0
 42
1.0
 43
1.0
 50
90.0
  0
INSERT
  5
63FFD
330
53D08
100
AcDbEntity
  8
AM_5
100
AcDbBlockReference
  2
_Dot
 10
138.0000000000004
 20
173.9000000000003
 30
0.0
 41
1.0
 42
1.0
 43
1.0
 50
270.0
  0
MTEXT
  5
63FFE
330
53D08
100
AcDbEntity
  8
AM_5
 62
     2
100
AcDbMText
 10
135.4000000000004
 20
193.8999997843766
 30
0.0
 40
3.2
 41
0.0
 71
     5
 72
     1
  1
A
 11
0.0000000000000001
 21
1.0
 31
0.0
 73
     1
 44
1.0
1001
ACAD
1000
MTEXTBEGIN
1070
    73
1070
     1
1070
    44
1040
1.0
1070
    74
1070
     0
1000
MTEXTEND
  0
POINT
  5
63FFF
330
53D08
100
AcDbEntity
  8
Defpoints
 62
     0
100
AcDbPoint
 10
152.0000007815961
 20
213.8999995687529
 30
0.0
  0
POINT
  5
64000
330
53D08
100
AcDbEntity
  8
Defpoints
 62
     0
100
AcDbPoint
 10
152.0000000000004
 20
173.9000000000003
 30
0.0
  0
POINT
  5
64001
330
53D08
100
AcDbEntity
  8
Defpoints
 62
     0
100
AcDbPoint
 10
138.0000000000004
 20
173.9000000000003
 30
0.0
  0
ENDBLK
  5
53D13
330
53D08
100
AcDbEntity
  8
0
100
AcDbBlockEnd
  0
BLOCK
  5
53D58
330
53D4C
100
AcDbEntity
  8
0
100
AcDbBlockBegin
  2
*D16
 70
     1
 10
0.0
 20
0.0
 30
0.0
  3
*D16
  1

  0
LINE
  5
64002
330
53D4C
100
AcDbEntity
  8
AM_5
100
AcDbLine
 10
185.5000000000004
 20
254.5
 30
0.0
 11
195.0000000000004
 21
254.5
 31
0.0
  0
LINE
  5
64003
330
53D4C
100
AcDbEntity
  8
AM_5
100
AcDbLine
 10
185.5000000000004
 20
253.2999999999999
 30
0.0
 11
195.0000000000004
 21
253.2999999999999
 31
0.0
  0
LINE
  5
64004
330
53D4C
100
AcDbEntity
  8
AM_5
100
AcDbLine
 10
194.0000000000004
 20
255.5
 30
0.0
 11
194.0000000000004
 21
256.5
 31
0.0
  0
LINE
  5
64005
330
53D4C
100
AcDbEntity
  8
AM_5
100
AcDbLine
 10
194.0000000000004
 20
252.2999999999999
 30
0.0
 11
194.0000000000004
 21
247.6999999999999
 31
0.0
  0
LINE
  5
64006
330
53D4C
100
AcDbEntity
  8
AM_5
100
AcDbLine
 10
194.0000000000004
 20
254.5
 30
0.0
 11
194.0000000000004
 21
253.2999999999999
 31
0.0
  0
INSERT
  5
64007
330
53D4C
100
AcDbEntity
  8
AM_5
100
AcDbBlockReference
  2
_Dot
 10
194.0000000000004
 20
254.5
 30
0.0
 41
1.0
 42
1.0
 43
1.0
 50
270.0
  0
INSERT
  5
64008
330
53D4C
100
AcDbEntity
  8
AM_5
100
AcDbBlockReference
  2
_Dot
 10
194.0000000000004
 20
253.2999999999999
 30
0.0
 41
1.0
 42
1.0
 43
1.0
 50
90.0
  0
MTEXT
  5
64009
330
53D4C
100
AcDbEntity
  8
AM_5
 62
     2
100
AcDbMText
 10
191.4000000000004
 20
249.5
 30
0.0
 40
3.2
 41
0.0
 71
     5
 72
     1
  1
G
 11
0.0000000000000001
 21
1.0
 31
0.0
 73
     1
 44
1.0
1001
ACAD
1000
MTEXTBEGIN
1070
    73
1070
     1
1070
    44
1040
1.0
1070
    74
1070
     0
1000
MTEXTEND
  0
POINT
  5
6400A
330
53D4C
100
AcDbEntity
  8
Defpoints
 62
     0
100
AcDbPoint
 10
184.0000000000004
 20
254.5
 30
0.0
  0
POINT
  5
6400B
330
53D4C
100
AcDbEntity
  8
Defpoints
 62
     0
100
AcDbPoint
 10
184.0000000000004
 20
253.2999999999999
 30
0.0
  0
POINT
  5
6400C
330
53D4C
100
AcDbEntity
  8
Defpoints
 62
     0
100
AcDbPoint
 10
194.0000000000004
 20
253.2999999999999
 30
0.0
  0
ENDBLK
  5
53D59
330
53D4C
100
AcDbEntity
  8
0
100
AcDbBlockEnd
  0
BLOCK
  5
53D89
330
53D82
100
AcDbEntity
  8
0
100
AcDbBlockBegin
  2
*D17
 70
     1
 10
0.0
 20
0.0
 30
0.0
  3
*D17
  1

  0
LINE
  5
6400D
330
53D82
100
AcDbEntity
  8
AM_5
100
AcDbLine
 10
150.1820894756596
 20
243.9460894756598
 30
0.0
 11
157.6460894756596
 21
243.9460894756598
 31
0.0
  0
LINE
  5
6400E
330
53D82
100
AcDbEntity
  8
AM_5
100
AcDbLine
 10
157.6460894756596
 20
243.9460894756598
 30
0.0
 11
162.0301515190168
 21
248.3301515190166
 31
0.0
  0
LINE
  5
6400F
330
53D82
100
AcDbEntity
  8
AM_5
100
AcDbLine
 10
167.9698484809845
 20
254.2698484809837
 30
0.0
 11
168.6769552621711
 21
254.9769552621703
 31
0.0
  0
MTEXT
  5
64010
330
53D82
100
AcDbEntity
  8
AM_5
 62
     2
100
AcDbMText
 10
153.4140894756595
 20
246.5460894756598
 30
0.0
 40
3.200000000000001
 41
0.0
 71
     5
 72
     1
  1
（%%cH）
 73
     1
 44
1.0
1001
ACAD
1000
MTEXTBEGIN
1070
    73
1070
     1
1070
    44
1040
1.0
1070
    74
1070
     0
1000
MTEXTEND
  0
LINE
  5
64011
330
53D82
100
AcDbEntity
  8
AM_5
100
AcDbLine
 10
167.262741699798
 20
253.5627416997972
 30
0.0
 11
162.7372583002034
 21
249.0372583002031
 31
0.0
  0
INSERT
  5
64012
330
53D82
100
AcDbEntity
  8
AM_5
100
AcDbBlockReference
  2
_Dot
 10
167.262741699798
 20
253.5627416997972
 30
0.0
 50
224.9999999999971
  0
INSERT
  5
64013
330
53D82
100
AcDbEntity
  8
AM_5
100
AcDbBlockReference
  2
_Dot
 10
162.7372583002034
 20
249.0372583002031
 30
0.0
 50
44.99999999999712
  0
POINT
  5
64014
330
53D82
100
AcDbEntity
  8
Defpoints
 62
     0
100
AcDbPoint
 10
162.7372583002034
 20
249.0372583002031
 30
0.0
  0
POINT
  5
64015
330
53D82
100
AcDbEntity
  8
Defpoints
 62
     0
100
AcDbPoint
 10
167.262741699798
 20
253.5627416997972
 30
0.0
  0
ENDBLK
  5
53D8A
330
53D82
100
AcDbEntity
  8
0
100
AcDbBlockEnd
  0
BLOCK
  5
53DDF
330
53DD5
100
AcDbEntity
  8
0
100
AcDbBlockBegin
  2
*D18
 70
     1
 10
0.0
 20
0.0
 30
0.0
  3
*D18
  1

  0
LINE
  5
64016
330
53DD5
100
AcDbEntity
  8
AM_5
100
AcDbLine
 10
262.0000000000004
 20
122.5500000000002
 30
0.0
 11
262.0000000000004
 21
112.9000000000001
 31
0.0
  0
LINE
  5
64017
330
53DD5
100
AcDbEntity
  8
AM_5
100
AcDbLine
 10
244.0000000000004
 20
172.5500000000002
 30
0.0
 11
244.0000000000004
 21
112.9000000000001
 31
0.0
  0
LINE
  5
64018
330
53DD5
100
AcDbEntity
  8
AM_5
100
AcDbLine
 10
261.0000000000005
 20
113.9000000000001
 30
0.0
 11
245.0000000000005
 21
113.9000000000001
 31
0.0
  0
INSERT
  5
64019
330
53DD5
100
AcDbEntity
  8
AM_5
100
AcDbBlockReference
  2
_Dot
 10
262.0000000000004
 20
113.9000000000001
 30
0.0
 41
1.0
 42
1.0
 43
1.0
  0
INSERT
  5
6401A
330
53DD5
100
AcDbEntity
  8
AM_5
100
AcDbBlockReference
  2
_Dot
 10
244.0000000000004
 20
113.9000000000001
 30
0.0
 41
1.0
 42
1.0
 43
1.0
 50
180.0
  0
MTEXT
  5
6401B
330
53DD5
100
AcDbEntity
  8
AM_5
 62
     2
100
AcDbMText
 10
253.0000000000005
 20
116.5000000000001
 30
0.0
 40
3.2
 41
0.0
 71
     5
 72
     1
  1
F
 73
     1
 44
1.0
1001
ACAD
1000
MTEXTBEGIN
1070
    73
1070
     1
1070
    44
1040
1.0
1070
    74
1070
     0
1000
MTEXTEND
  0
POINT
  5
6401C
330
53DD5
100
AcDbEntity
  8
Defpoints
 62
     0
100
AcDbPoint
 10
262.0000000000004
 20
124.0500000000002
 30
0.0
  0
POINT
  5
6401D
330
53DD5
100
AcDbEntity
  8
Defpoints
 62
     0
100
AcDbPoint
 10
244.0000000000004
 20
174.0500000000002
 30
0.0
  0
POINT
  5
6401E
330
53DD5
100
AcDbEntity
  8
Defpoints
 62
     0
100
AcDbPoint
 10
244.0000000000004
 20
113.9000000000001
 30
0.0
  0
ENDBLK
  5
53DE0
330
53DD5
100
AcDbEntity
  8
0
100
AcDbBlockEnd
  0
BLOCK
  5
53E00
330
53DF6
100
AcDbEntity
  8
0
100
AcDbBlockBegin
  2
*D19
 70
     1
 10
0.0
 20
0.0
 30
0.0
  3
*D19
  1

  0
LINE
  5
6401F
330
53DF6
100
AcDbEntity
  8
AM_5
100
AcDbLine
 10
267.0000000000005
 20
136.5500000000002
 30
0.0
 11
267.0000000000005
 21
104.9000000000001
 31
0.0
  0
LINE
  5
64020
330
53DF6
100
AcDbEntity
  8
AM_5
100
AcDbLine
 10
239.0000000000005
 20
186.5500000000002
 30
0.0
 11
239.0000000000005
 21
104.9000000000001
 31
0.0
  0
LINE
  5
64021
330
53DF6
100
AcDbEntity
  8
AM_5
100
AcDbLine
 10
266.0000000000005
 20
105.9000000000001
 30
0.0
 11
240.0000000000005
 21
105.9000000000001
 31
0.0
  0
INSERT
  5
64022
330
53DF6
100
AcDbEntity
  8
AM_5
100
AcDbBlockReference
  2
_Dot
 10
267.0000000000005
 20
105.9000000000001
 30
0.0
 41
1.0
 42
1.0
 43
1.0
  0
INSERT
  5
64023
330
53DF6
100
AcDbEntity
  8
AM_5
100
AcDbBlockReference
  2
_Dot
 10
239.0000000000005
 20
105.9000000000001
 30
0.0
 41
1.0
 42
1.0
 43
1.0
 50
180.0
  0
MTEXT
  5
64024
330
53DF6
100
AcDbEntity
  8
AM_5
 62
     2
100
AcDbMText
 10
253.0000000000005
 20
108.5000000000001
 30
0.0
 40
3.2
 41
0.0
 71
     5
 72
     1
  1
E
 73
     1
 44
1.0
1001
ACAD
1000
MTEXTBEGIN
1070
    73
1070
     1
1070
    44
1040
1.0
1070
    74
1070
     0
1000
MTEXTEND
  0
POINT
  5
64025
330
53DF6
100
AcDbEntity
  8
Defpoints
 62
     0
100
AcDbPoint
 10
267.0000000000005
 20
138.0500000000002
 30
0.0
  0
POINT
  5
64026
330
53DF6
100
AcDbEntity
  8
Defpoints
 62
     0
100
AcDbPoint
 10
239.0000000000005
 20
188.0500000000002
 30
0.0
  0
POINT
  5
64027
330
53DF6
100
AcDbEntity
  8
Defpoints
 62
     0
100
AcDbPoint
 10
239.0000000000005
 20
105.9000000000001
 30
0.0
  0
ENDBLK
  5
53E01
330
53DF6
100
AcDbEntity
  8
0
100
AcDbBlockEnd
  0
BLOCK
  5
54B9C
330
54B95
100
AcDbEntity
  8
0
100
AcDbBlockBegin
  2
*D20
 70
     1
 10
0.0
 20
0.0
 30
0.0
  3
*D20
  1

  0
LINE
  5
6404D
330
54B95
100
AcDbEntity
  8
AM_5
100
AcDbLine
 10
294.6480010100024
 20
121.8999999999985
 30
0.0
 11
274.0000010100017
 21
121.8999999999985
 31
0.0
  0
LINE
  5
6404E
330
54B95
100
AcDbEntity
  8
AM_5
100
AcDbLine
 10
274.0000010100017
 20
121.8999999999985
 30
0.0
 11
265.2033937161608
 21
127.7644043689723
 31
0.0
  0
LINE
  5
6404F
330
54B95
100
AcDbEntity
  8
AM_5
100
AcDbLine
 10
258.7966062838408
 20
132.0355956310275
 30
0.0
 11
257.964555967955
 21
132.5902957949308
 31
0.0
  0
MTEXT
  5
64050
330
54B95
100
AcDbEntity
  8
AM_5
 62
     2
100
AcDbMText
 10
284.8240010100024
 20
124.4999999999985
 30
0.0
 40
3.200000000000001
 41
0.0
 71
     5
 72
     1
  1
6-%%cJ×%%cKサラ
 73
     1
 44
1.0
1001
ACAD
1000
MTEXTBEGIN
1070
    73
1070
     1
1070
    44
1040
1.0
1070
    74
1070
     0
1000
MTEXTEND
  0
LINE
  5
64051
330
54B95
100
AcDbEntity
  8
AM_5
100
AcDbLine
 10
259.6286565997265
 20
131.4808954671241
 30
0.0
 11
264.371343400275
 21
128.3191045328756
 31
0.0
  0
INSERT
  5
64052
330
54B95
100
AcDbEntity
  8
AM_5
100
AcDbBlockReference
  2
_Dot
 10
259.6286565997265
 20
131.4808954671241
 30
0.0
 50
326.3099346997383
  0
INSERT
  5
64053
330
54B95
100
AcDbEntity
  8
AM_5
100
AcDbBlockReference
  2
_Dot
 10
264.371343400275
 20
128.3191045328756
 30
0.0
 50
146.3099346997383
  0
POINT
  5
64054
330
54B95
100
AcDbEntity
  8
Defpoints
 62
     0
100
AcDbPoint
 10
264.371343400275
 20
128.3191045328756
 30
0.0
  0
POINT
  5
64055
330
54B95
100
AcDbEntity
  8
Defpoints
 62
     0
100
AcDbPoint
 10
259.6286565997265
 20
131.4808954671241
 30
0.0
  0
ENDBLK
  5
54B9D
330
54B95
100
AcDbEntity
  8
0
100
AcDbBlockEnd
  0
BLOCK
  5
5F835
330
5F82A
100
AcDbEntity
  8
0
100
AcDbBlockBegin
  2
*D21
 70
     1
 10
0.0
 20
0.0
 30
0.0
  3
*D21
  1

  0
LINE
  5
64031
330
5F82A
100
AcDbEntity
  8
AM_5
100
AcDbLine
 10
163.0000000000004
 20
162.4000000000001
 30
0.0
 11
163.0000000000004
 21
168.9000000000001
 31
0.0
  0
LINE
  5
64032
330
5F82A
100
AcDbEntity
  8
AM_5
100
AcDbLine
 10
167.0000000000004
 20
162.4000000000001
 30
0.0
 11
167.0000000000004
 21
168.9000000000001
 31
0.0
  0
LINE
  5
64033
330
5F82A
100
AcDbEntity
  8
AM_5
100
AcDbLine
 10
164.0000000000004
 20
167.9000000000001
 30
0.0
 11
166.0000000000004
 21
167.9000000000001
 31
0.0
  0
LINE
  5
64034
330
5F82A
100
AcDbEntity
  8
AM_5
100
AcDbLine
 10
167.0000000000004
 20
167.9000000000001
 30
0.0
 11
174.3946666666671
 21
167.9000000000001
 31
0.0
  0
INSERT
  5
64035
330
5F82A
100
AcDbEntity
  8
AM_5
100
AcDbBlockReference
  2
_Dot
 10
163.0000000000004
 20
167.9000000000001
 30
0.0
 41
1.0
 42
1.0
 43
1.0
 50
180.0
  0
INSERT
  5
64036
330
5F82A
100
AcDbEntity
  8
AM_5
100
AcDbBlockReference
  2
_Dot
 10
167.0000000000004
 20
167.9000000000001
 30
0.0
 41
1.0
 42
1.0
 43
1.0
  0
MTEXT
  5
64037
330
5F82A
100
AcDbEntity
  8
AM_5
 62
     2
100
AcDbMText
 10
171.1973333333338
 20
170.5000000000001
 30
0.0
 40
3.2
 41
0.0
 71
     5
 72
     1
  1
%%cＩ　
 73
     1
 44
1.0
1001
ACAD
1000
MTEXTBEGIN
1070
    73
1070
     1
1070
    44
1040
1.0
1070
    74
1070
     0
1000
MTEXTEND
  0
POINT
  5
64038
330
5F82A
100
AcDbEntity
  8
Defpoints
 62
     0
100
AcDbPoint
 10
163.0000000000004
 20
160.9000000000001
 30
0.0
  0
POINT
  5
64039
330
5F82A
100
AcDbEntity
  8
Defpoints
 62
     0
100
AcDbPoint
 10
167.0000000000004
 20
160.9000000000001
 30
0.0
  0
POINT
  5
6403A
330
5F82A
100
AcDbEntity
  8
Defpoints
 62
     0
100
AcDbPoint
 10
167.0000000000004
 20
167.9000000000001
 30
0.0
  0
ENDBLK
  5
5F836
330
5F82A
100
AcDbEntity
  8
0
100
AcDbBlockEnd
  0
ENDSEC
  0
SECTION
  2
ENTITIES
  0
LINE
  5
53332
330
1F
100
AcDbEntity
  8
AM_0
100
AcDbLine
 10
255.5455840000004
 20
253.2999999999999
 30
0.0
 11
272.0000000000005
 21
253.2999999999999
 31
0.0
  0
LINE
  5
53333
330
1F
100
AcDbEntity
  8
AM_0
100
AcDbLine
 10
256.5000000000004
 20
253.2999999999999
 30
0.0
 11
256.5000000000004
 21
254.5
 31
0.0
  0
LINE
  5
53336
330
1F
100
AcDbEntity
  8
AM_0
100
AcDbLine
 10
234.0000000000005
 20
253.2999999999999
 30
0.0
 11
234.0000000000005
 21
254.5
 31
0.0
  0
LINE
  5
53337
330
1F
100
AcDbEntity
  8
AM_0
100
AcDbLine
 10
253.0000000000005
 20
253.2999999999999
 30
0.0
 11
234.0000000000005
 21
253.2999999999999
 31
0.0
  0
LINE
  5
53338
330
1F
100
AcDbEntity
  8
AM_0
100
AcDbLine
 10
272.0000000000005
 20
253.2999999999999
 30
0.0
 11
272.0000000000005
 21
254.5
 31
0.0
  0
LINE
  5
53339
330
1F
100
AcDbEntity
  8
AM_0
100
AcDbLine
 10
272.0000000000005
 20
254.5
 30
0.0
 11
234.0000000000005
 21
254.5
 31
0.0
  0
LINE
  5
5333A
330
1F
100
AcDbEntity
  8
AM_0
100
AcDbLine
 10
249.7000000000007
 20
143.9000000000001
 30
0.0
 11
249.7000000000007
 21
123.9000000000001
 31
0.0
  0
LINE
  5
5333B
330
1F
100
AcDbEntity
  8
AM_0
100
AcDbLine
 10
249.7000000000007
 20
123.9000000000001
 30
0.0
 11
266.0000000000005
 21
123.9000000000001
 31
0.0
  0
LINE
  5
5333C
330
1F
100
AcDbEntity
  8
AM_0
100
AcDbLine
 10
256.3000000000006
 20
123.9000000000001
 30
0.0
 11
256.3000000000006
 21
143.9000000000001
 31
0.0
  0
ARC
  5
5333D
330
1F
100
AcDbEntity
  8
AM_0
100
AcDbCircle
 10
235.6666670000004
 20
143.9000000000001
 30
0.0
 40
36.333333
100
AcDbArc
 50
326.6015120000074
 51
33.39848799999253
  0
LINE
  5
5333E
330
1F
100
AcDbEntity
  8
AM_0
100
AcDbLine
 10
256.5000000000004
 20
143.9000000000001
 30
0.0
 11
256.5000000000004
 21
163.9000000000001
 31
0.0
  0
LINE
  5
5333F
330
1F
100
AcDbEntity
  8
AM_0
100
AcDbLine
 10
256.5000000000004
 20
163.9000000000001
 30
0.0
 11
266.0000000000005
 21
163.9000000000001
 31
0.0
  0
LINE
  5
53340
330
1F
100
AcDbEntity
  8
AM_0
100
AcDbLine
 10
255.0000000000005
 20
143.9000000000001
 30
0.0
 11
255.0000000000005
 21
160.9000000000001
 31
0.0
  0
LINE
  5
53341
330
1F
100
AcDbEntity
  8
AM_0
100
AcDbLine
 10
251.0000000000005
 20
160.9000000000001
 30
0.0
 11
251.0000000000005
 21
143.9000000000001
 31
0.0
  0
LINE
  5
53342
330
1F
100
AcDbEntity
  8
AM_0
100
AcDbLine
 10
256.5000000000004
 20
143.9000000000001
 30
0.0
 11
249.7000000000007
 21
143.9000000000001
 31
0.0
  0
ARC
  5
53343
102
{ACAD_REACTORS
330
53BE0
102
}
330
1F
100
AcDbEntity
  8
AM_0
100
AcDbCircle
 10
270.3333340000008
 20
193.9000000000001
 30
0.0
 40
36.333333
100
AcDbArc
 50
146.6015120000074
 51
213.3984879999925
  0
CIRCLE
  5
53344
330
1F
100
AcDbEntity
  8
AM_0
100
AcDbCircle
 10
244.0000000000004
 20
179.9000000000001
 30
0.0
 40
1.649999999999999
  0
LINE
  5
5334A
330
1F
100
AcDbEntity
  8
AM_0
100
AcDbLine
 10
256.3000000000006
 20
193.9000000000001
 30
0.0
 11
256.3000000000006
 21
213.8999999999999
 31
0.0
  0
LINE
  5
5334B
330
1F
100
AcDbEntity
  8
AM_0
100
AcDbLine
 10
249.7000000000007
 20
213.8999999999999
 30
0.0
 11
249.7000000000007
 21
193.9000000000001
 31
0.0
  0
LINE
  5
5334C
330
1F
100
AcDbEntity
  8
AM_0
100
AcDbLine
 10
249.5000000000004
 20
193.9000000000001
 30
0.0
 11
249.5000000000004
 21
173.9000000000001
 31
0.0
  0
LINE
  5
5334D
102
{ACAD_REACTORS
330
53BE0
102
}
330
1F
100
AcDbEntity
  8
AM_0
100
AcDbLine
 10
249.5000000000004
 20
173.9000000000001
 30
0.0
 11
240.0000000000005
 21
173.9000000000001
 31
0.0
  0
LINE
  5
5334E
330
1F
100
AcDbEntity
  8
AM_0
100
AcDbLine
 10
256.3000000000006
 20
213.8999999999999
 30
0.0
 11
240.0000000000005
 21
213.8999999999999
 31
0.0
  0
LINE
  5
5334F
330
1F
100
AcDbEntity
  8
AM_0
100
AcDbLine
 10
249.5000000000004
 20
193.9000000000001
 30
0.0
 11
256.3000000000006
 21
193.9000000000001
 31
0.0
  0
CIRCLE
  5
53354
330
1F
100
AcDbEntity
  8
AM_0
100
AcDbCircle
 10
239.0000000000005
 20
193.9000000000001
 30
0.0
 40
1.649999999999999
  0
CIRCLE
  5
53355
330
1F
100
AcDbEntity
  8
AM_0
100
AcDbCircle
 10
239.0000000000005
 20
193.9000000000001
 30
0.0
 40
2.85
  0
ARC
  5
53357
330
1F
100
AcDbEntity
  8
AM_0
100
AcDbCircle
 10
253.0000000000005
 20
251.2
 30
0.0
 40
2.1
100
AcDbArc
 50
139.9471470000027
 51
90.0
  0
ARC
  5
53358
102
{ACAD_REACTORS
330
53C41
102
}
330
1F
100
AcDbEntity
  8
AM_0
100
AcDbCircle
 10
253.0000000000005
 20
251.2
 30
0.0
 40
3.299999999999999
100
AcDbArc
 50
139.9471470000027
 51
90.0
  0
LINE
  5
53359
330
1F
100
AcDbEntity
  8
AM_0
100
AcDbLine
 10
251.3925520000003
 20
252.551338
 30
0.0
 11
250.4740110000002
 21
253.3235299999999
 31
0.0
  0
CIRCLE
  5
5335A
330
1F
100
AcDbEntity
  8
AM_0
100
AcDbCircle
 10
253.0000000000005
 20
251.2
 30
0.0
 40
2.0
  0
CIRCLE
  5
5335B
330
1F
100
AcDbEntity
  8
AM_0
100
AcDbCircle
 10
244.0000000000004
 20
179.9000000000001
 30
0.0
 40
2.85
  0
CIRCLE
  5
5335F
330
1F
100
AcDbEntity
  8
AM_0
100
AcDbCircle
 10
244.0000000000004
 20
207.8999999999999
 30
0.0
 40
2.85
  0
CIRCLE
  5
53360
330
1F
100
AcDbEntity
  8
AM_0
100
AcDbCircle
 10
244.0000000000004
 20
207.8999999999999
 30
0.0
 40
1.649999999999999
  0
ARC
  5
53361
330
1F
100
AcDbEntity
  8
AM_0
100
AcDbCircle
 10
253.0000000000005
 20
160.9000000000001
 30
0.0
 40
2.0
100
AcDbArc
 50
0.0
 51
180.0
  0
CIRCLE
  5
53363
330
1F
100
AcDbEntity
  8
AM_0
100
AcDbCircle
 10
262.0000000000004
 20
157.9000000000001
 30
0.0
 40
1.649999999999999
  0
CIRCLE
  5
53364
330
1F
100
AcDbEntity
  8
AM_0
100
AcDbCircle
 10
262.0000000000004
 20
157.9000000000001
 30
0.0
 40
2.85
  0
CIRCLE
  5
53366
330
1F
100
AcDbEntity
  8
AM_0
100
AcDbCircle
 10
267.0000000000005
 20
143.9000000000001
 30
0.0
 40
2.85
  0
CIRCLE
  5
53367
330
1F
100
AcDbEntity
  8
AM_0
100
AcDbCircle
 10
267.0000000000005
 20
143.9000000000001
 30
0.0
 40
1.649999999999999
  0
CIRCLE
  5
5336A
102
{ACAD_REACTORS
330
54BA5
102
}
330
1F
100
AcDbEntity
  8
AM_0
100
AcDbCircle
 10
262.0000000000004
 20
129.9000000000001
 30
0.0
 40
2.85
  0
CIRCLE
  5
5336B
330
1F
100
AcDbEntity
  8
AM_0
100
AcDbCircle
 10
262.0000000000004
 20
129.9000000000001
 30
0.0
 40
1.649999999999999
  0
LINE
  5
533A2
330
1F
100
AcDbEntity
  8
AM_0
100
AcDbLine
 10
163.0000000000004
 20
213.9000000000001
 30
0.0
 11
161.8000000000002
 21
213.9000000000001
 31
0.0
  0
LINE
  5
533A4
330
1F
100
AcDbEntity
  8
AM_0
100
AcDbLine
 10
167.0000000000004
 20
213.9000000000001
 30
0.0
 11
163.0000000000004
 21
213.9000000000001
 31
0.0
  0
LINE
  5
533A6
330
1F
100
AcDbEntity
  8
AM_0
100
AcDbLine
 10
167.0000000000004
 20
193.9000000000001
 30
0.0
 11
168.2000000000003
 21
193.9000000000001
 31
0.0
  0
LINE
  5
533A7
330
1F
100
AcDbEntity
  8
AM_0
100
AcDbLine
 10
163.0000000000004
 20
193.9000000000001
 30
0.0
 11
167.0000000000004
 21
193.9000000000001
 31
0.0
  0
LINE
  5
533A8
330
1F
100
AcDbEntity
  8
AM_0
100
AcDbLine
 10
161.8000000000002
 20
213.9000000000001
 30
0.0
 11
152.0000000000004
 21
213.9000000000001
 31
0.0
  0
LINE
  5
533A9
330
1F
100
AcDbEntity
  8
AM_0
100
AcDbLine
 10
161.5000000000004
 20
173.9000000000001
 30
0.0
 11
152.0000000000004
 21
173.9000000000001
 31
0.0
  0
LINE
  5
533AA
330
1F
100
AcDbEntity
  8
AM_0
100
AcDbLine
 10
161.5000000000004
 20
193.9000000000001
 30
0.0
 11
161.5000000000004
 21
173.9000000000001
 31
0.0
  0
LINE
  5
533AB
330
1F
100
AcDbEntity
  8
AM_0
100
AcDbLine
 10
161.8000000000002
 20
193.9000000000001
 30
0.0
 11
161.5000000000004
 21
193.9000000000001
 31
0.0
  0
LINE
  5
533AC
330
1F
100
AcDbEntity
  8
AM_0
100
AcDbLine
 10
161.8000000000002
 20
213.9000000000001
 30
0.0
 11
161.8000000000002
 21
193.9000000000001
 31
0.0
  0
LINE
  5
533AD
330
1F
100
AcDbEntity
  8
AM_0
100
AcDbLine
 10
168.2000000000003
 20
213.9000000000001
 30
0.0
 11
167.0000000000004
 21
213.9000000000001
 31
0.0
  0
LINE
  5
533AE
330
1F
100
AcDbEntity
  8
AM_0
100
AcDbLine
 10
168.2000000000003
 20
193.9000000000001
 30
0.0
 11
168.2000000000003
 21
213.9000000000001
 31
0.0
  0
LINE
  5
533AF
330
1F
100
AcDbEntity
  8
AM_0
100
AcDbLine
 10
161.8000000000002
 20
193.9000000000001
 30
0.0
 11
163.0000000000004
 21
193.9000000000001
 31
0.0
  0
LINE
  5
533B0
330
1F
100
AcDbEntity
  8
AM_0
100
AcDbLine
 10
167.0000000000004
 20
123.9000000000001
 30
0.0
 11
168.2000000000003
 21
123.9000000000001
 31
0.0
  0
LINE
  5
533B2
330
1F
100
AcDbEntity
  8
AM_0
100
AcDbLine
 10
163.0000000000004
 20
123.9000000000001
 30
0.0
 11
167.0000000000004
 21
123.9000000000001
 31
0.0
  0
LINE
  5
533B4
330
1F
100
AcDbEntity
  8
AM_0
100
AcDbLine
 10
163.0000000000004
 20
143.9000000000001
 30
0.0
 11
161.8000000000002
 21
143.9000000000001
 31
0.0
  0
LINE
  5
533B5
330
1F
100
AcDbEntity
  8
AM_0
100
AcDbLine
 10
163.0000000000004
 20
160.9000000000001
 30
0.0
 11
163.0000000000004
 21
143.9000000000001
 31
0.0
  0
LINE
  5
533B6
330
1F
100
AcDbEntity
  8
AM_0
100
AcDbLine
 10
167.0000000000004
 20
143.9000000000001
 30
0.0
 11
163.0000000000004
 21
143.9000000000001
 31
0.0
  0
LINE
  5
533B7
330
1F
100
AcDbEntity
  8
AM_0
100
AcDbLine
 10
167.0000000000004
 20
143.9000000000001
 30
0.0
 11
167.0000000000004
 21
160.9000000000001
 31
0.0
  0
LINE
  5
533B8
330
1F
100
AcDbEntity
  8
AM_0
100
AcDbLine
 10
168.2000000000003
 20
123.9000000000001
 30
0.0
 11
178.0000000000004
 21
123.9000000000001
 31
0.0
  0
LINE
  5
533B9
330
1F
100
AcDbEntity
  8
AM_0
100
AcDbLine
 10
168.5000000000004
 20
163.9000000000001
 30
0.0
 11
178.0000000000004
 21
163.9000000000001
 31
0.0
  0
LINE
  5
533BA
330
1F
100
AcDbEntity
  8
AM_0
100
AcDbLine
 10
168.5000000000004
 20
143.9000000000001
 30
0.0
 11
168.5000000000004
 21
163.9000000000001
 31
0.0
  0
LINE
  5
533BB
330
1F
100
AcDbEntity
  8
AM_0
100
AcDbLine
 10
168.2000000000003
 20
143.9000000000001
 30
0.0
 11
168.5000000000004
 21
143.9000000000001
 31
0.0
  0
LINE
  5
533BC
330
1F
100
AcDbEntity
  8
AM_0
100
AcDbLine
 10
168.2000000000003
 20
123.9000000000001
 30
0.0
 11
168.2000000000003
 21
143.9000000000001
 31
0.0
  0
LINE
  5
533BD
330
1F
100
AcDbEntity
  8
AM_0
100
AcDbLine
 10
161.8000000000002
 20
123.9000000000001
 30
0.0
 11
163.0000000000004
 21
123.9000000000001
 31
0.0
  0
LINE
  5
533BE
330
1F
100
AcDbEntity
  8
AM_0
100
AcDbLine
 10
161.8000000000002
 20
143.9000000000001
 30
0.0
 11
161.8000000000002
 21
123.9000000000001
 31
0.0
  0
LINE
  5
533BF
330
1F
100
AcDbEntity
  8
AM_0
100
AcDbLine
 10
168.2000000000003
 20
143.9000000000001
 30
0.0
 11
167.0000000000004
 21
143.9000000000001
 31
0.0
  0
LINE
  5
533C0
330
1F
100
AcDbEntity
  8
AM_0
100
AcDbLine
 10
184.0000000000004
 20
254.5
 30
0.0
 11
168.5000000000004
 21
254.5
 31
0.0
  0
LINE
  5
533C1
330
1F
100
AcDbEntity
  8
AM_0
100
AcDbLine
 10
184.0000000000004
 20
253.2999999999999
 30
0.0
 11
184.0000000000004
 21
254.5
 31
0.0
  0
LINE
  5
533C2
330
1F
100
AcDbEntity
  8
AM_0
100
AcDbLine
 10
167.4979992000008
 20
253.2999999999999
 30
0.0
 11
168.5000000000004
 21
253.2999999999999
 31
0.0
  0
LINE
  5
533C3
330
1F
100
AcDbEntity
  8
AM_0
100
AcDbLine
 10
165.0000000000004
 20
253.2999999999999
 30
0.0
 11
146.0000000000004
 21
253.2999999999999
 31
0.0
  0
LINE
  5
533C4
330
1F
100
AcDbEntity
  8
AM_0
100
AcDbLine
 10
163.4387505010009
 20
252.55
 30
0.0
 11
162.4569022660007
 21
253.2423320820001
 31
0.0
  0
LINE
  5
533C5
330
1F
100
AcDbEntity
  8
AM_0
100
AcDbLine
 10
146.0000000000004
 20
253.2999999999999
 30
0.0
 11
146.0000000000004
 21
254.5
 31
0.0
  0
LINE
  5
533C6
330
1F
100
AcDbEntity
  8
AM_0
100
AcDbLine
 10
165.0000000000004
 20
254.5
 30
0.0
 11
146.0000000000004
 21
254.5
 31
0.0
  0
LINE
  5
533C9
330
1F
100
AcDbEntity
  8
AM_0
100
AcDbLine
 10
168.5000000000004
 20
253.2999999999999
 30
0.0
 11
168.5000000000004
 21
254.5
 31
0.0
  0
LINE
  5
533CA
330
1F
100
AcDbEntity
  8
AM_0
100
AcDbLine
 10
168.5000000000004
 20
254.5
 30
0.0
 11
165.0000000000004
 21
254.5
 31
0.0
  0
LINE
  5
533CB
330
1F
100
AcDbEntity
  8
AM_0
100
AcDbLine
 10
168.5000000000004
 20
253.2999999999999
 30
0.0
 11
184.0000000000004
 21
253.2999999999999
 31
0.0
  0
ARC
  5
533CC
330
1F
100
AcDbEntity
  8
AM_0
100
AcDbCircle
 10
147.6666666660003
 20
143.9000000000001
 30
0.0
 40
36.33333333299999
100
AcDbArc
 50
326.6015115319854
 51
33.39848846801464
  0
ARC
  5
533CD
330
1F
100
AcDbEntity
  8
AM_0
100
AcDbCircle
 10
182.3333333330001
 20
193.9000000000001
 30
0.0
 40
36.33333333299999
100
AcDbArc
 50
146.6015115319853
 51
213.3984884680146
  0
CIRCLE
  5
533CE
330
1F
100
AcDbEntity
  8
AM_0
100
AcDbCircle
 10
165.0000000000004
 20
251.2999999999999
 30
0.0
 40
2.0
  0
ARC
  5
533CF
330
1F
100
AcDbEntity
  8
AM_0
100
AcDbCircle
 10
165.0000000000004
 20
160.9000000000001
 30
0.0
 40
2.0
100
AcDbArc
 50
0.0
 51
180.0
  0
ARC
  5
533D0
102
{ACAD_REACTORS
330
53D92
102
}
330
1F
100
AcDbEntity
  8
AM_0
100
AcDbCircle
 10
165.0000000000004
 20
251.2999999999999
 30
0.0
 40
3.2
100
AcDbArc
 50
142.6286321019941
 51
90.0
  0
LWPOLYLINE
  5
539A2
330
1F
100
AcDbEntity
  8
waku
100
AcDbPolyline
 90
        4
 70
     1
 43
0.0
 10
11.5
 20
288.5
 10
408.5000000000011
 20
288.5
 10
408.5000000000007
 20
8.5
 10
11.5
 20
8.5
1001
GENIUS_GENREC_14
1002
{
1000
PYDIR
1011
11.5
1021
8.5
1031
0.0
1002
}
1002
{
1000
PXDIR
1011
408.5000000000011
1021
288.5
1031
0.0
1002
}
1002
{
1000
PORI
1011
11.5
1021
288.5
1031
0.0
1002
}
1002
{
1000
PINS
1011
11.5
1021
288.5
1031
0.0
1002
}
1002
{
1000
PINS2
1011
408.5000000000007
1021
8.5
1031
0.0
1002
}
1002
{
1000
C
1070
     1
1002
}
1001
GENIUS_GENODEF_13
1002
{
1000
HIER
1070
     0
1002
}
1002
{
1000
MANEDIT
1070
     0
1002
}
1002
{
1000
NOSEL
1070
     0
1002
}
1002
{
1000
BEHIND
1070
     0
1002
}
1002
{
1000
OTHER
1070
     0
1002
}
1002
{
1000
REACTOR
1002
}
1001
GENIUS_GENOBJ-N-REC_13
1002
{
1000
OWNER
1000
GEN
1002
}
  0
LWPOLYLINE
  5
539A3
330
1F
100
AcDbEntity
  8
size
100
AcDbPolyline
 90
        4
 70
     1
 43
0.0
 10
0.0
 20
297.0
 10
420.0000000000001
 20
297.0
 10
420.0000000000001
 20
0.0
 10
0.0
 20
0.0
1001
GENIUS_GENREC_14
1002
{
1000
PYDIR
1011
0.0
1021
0.0
1031
0.0
1002
}
1002
{
1000
PXDIR
1011
420.0000000000001
1021
297.0
1031
0.0
1002
}
1002
{
1000
PORI
1011
0.0
1021
297.0
1031
0.0
1002
}
1002
{
1000
PINS
1011
0.0
1021
297.0
1031
0.0
1002
}
1002
{
1000
PINS2
1011
420.0000000000001
1021
0.0
1031
0.0
1002
}
1002
{
1000
C
1070
     1
1002
}
1001
GENIUS_GENODEF_13
1002
{
1000
HIER
1070
     0
1002
}
1002
{
1000
MANEDIT
1070
     0
1002
}
1002
{
1000
NOSEL
1070
     0
1002
}
1002
{
1000
BEHIND
1070
     0
1002
}
1002
{
1000
OTHER
1070
     0
1002
}
1002
{
1000
REACTOR
1002
}
1001
GENIUS_GENOBJ-N-REC_13
1002
{
1000
OWNER
1000
GEN
1002
}
  0
LINE
  5
539A8
330
1F
100
AcDbEntity
  8
AM_0
100
AcDbLine
 10
11.5
 20
288.5
 30
0.0
 11
11.50000000000636
 21
232.4999999999995
 31
0.0
  0
LINE
  5
539A9
330
1F
100
AcDbEntity
  8
AM_0
100
AcDbLine
 10
11.5
 20
288.5
 30
0.0
 11
101.5
 21
288.5
 31
0.0
  0
LINE
  5
539AA
330
1F
100
AcDbEntity
  8
AM_0
100
AcDbLine
 10
101.5
 20
288.5
 30
0.0
 11
101.4999999999991
 21
232.4999999999995
 31
0.0
  0
LINE
  5
539AB
330
1F
100
AcDbEntity
  8
AM_0
100
AcDbLine
 10
31.49999999999909
 20
232.4999999999995
 30
0.0
 11
31.5
 21
288.5
 31
0.0
  0
LINE
  5
539AC
330
1F
100
AcDbEntity
  8
AM_5
100
AcDbLine
 10
11.5
 20
280.5
 30
0.0
 11
101.5
 21
280.5
 31
0.0
  0
LINE
  5
539AD
330
1F
100
AcDbEntity
  8
AM_5
100
AcDbLine
 10
31.49999999999909
 20
264.5
 30
0.0
 11
101.5
 21
264.5
 31
0.0
  0
MTEXT
  5
539AE
330
1F
100
AcDbEntity
  8
AM_6
100
AcDbMText
 10
21.5
 20
284.5
 30
0.0
 40
3.2
 41
20.0
 71
     5
 72
     5
  1
品　名
 73
     1
 44
1.0
1001
ACAD
1000
MTEXTBEGIN
1070
    73
1070
     1
1070
    44
1040
1.0
1070
    74
1070
     0
1000
MTEXTEND
  0
MTEXT
  5
539AF
330
1F
100
AcDbEntity
  8
AM_6
100
AcDbMText
 10
31.5
 20
284.5
 30
0.0
 40
3.2
 41
70.0
 71
     4
 72
     5
  1
　小判型抜差丁番
 73
     1
 44
1.0
1001
ACAD
1000
MTEXTBEGIN
1070
    73
1070
     1
1070
    44
1040
1.0
1070
    74
1070
     0
1000
MTEXTEND
  0
MTEXT
  5
539B0
330
1F
100
AcDbEntity
  8
AM_6
100
AcDbMText
 10
21.5
 20
276.5
 30
0.0
 40
3.2
 41
20.0
 71
     5
 72
     5
  1
品　番
 73
     1
 44
1.0
1001
ACAD
1000
MTEXTBEGIN
1070
    73
1070
     1
1070
    44
1040
1.0
1070
    74
1070
     0
1000
MTEXTEND
  0
MTEXT
  5
539B1
330
1F
100
AcDbEntity
  8
AM_6
100
AcDbMText
 10
31.5
 20
276.5
 30
0.0
 40
3.2
 41
70.0
 71
     4
 72
     5
  1
　DEH-38（S）
 73
     1
 44
1.0
1001
ACAD
1000
MTEXTBEGIN
1070
    73
1070
     1
1070
    44
1040
1.0
1070
    74
1070
     0
1000
MTEXTEND
  0
MTEXT
  5
539B2
330
1F
100
AcDbEntity
  8
AM_6
100
AcDbMText
 10
31.5
 20
268.5
 30
0.0
 40
3.2
 41
70.0
 71
     4
 72
     5
  1
　スチール（DEH-38）
 73
     1
 44
1.0
1001
ACAD
1000
MTEXTBEGIN
1070
    73
1070
     1
1070
    44
1040
1.0
1070
    74
1070
     0
1000
MTEXTEND
  0
LINE
  5
539B3
330
1F
100
AcDbEntity
  8
AM_5
100
AcDbLine
 10
11.5
 20
256.5
 30
0.0
 11
101.5
 21
256.5
 31
0.0
  0
MTEXT
  5
539B4
330
1F
100
AcDbEntity
  8
AM_6
100
AcDbMText
 10
21.5
 20
252.5
 30
0.0
 40
3.2
 41
20.0
 71
     5
 72
     5
  1
仕上げ
 73
     1
 44
1.0
1001
ACAD
1000
MTEXTBEGIN
1070
    73
1070
     1
1070
    44
1040
1.0
1070
    74
1070
     0
1000
MTEXTEND
  0
LINE
  5
539B5
330
1F
100
AcDbEntity
  8
AM_5
100
AcDbLine
 10
11.50000000000364
 20
240.5
 30
0.0
 11
101.5000000000009
 21
240.5
 31
0.0
  0
MTEXT
  5
539B6
330
1F
100
AcDbEntity
  8
AM_6
100
AcDbMText
 10
21.5
 20
236.5
 30
0.0
 40
3.2
 41
20.0
 71
     5
 72
     5
  1
備　考
 73
     1
 44
1.0
1001
ACAD
1000
MTEXTBEGIN
1070
    73
1070
     1
1070
    44
1040
1.0
1070
    74
1070
     0
1000
MTEXTEND
  0
LINE
  5
539B8
330
1F
100
AcDbEntity
  8
AM_0
100
AcDbLine
 10
11.50000000000273
 20
232.4999999999995
 30
0.0
 11
101.5000000000009
 21
232.4999999999995
 31
0.0
  0
LINE
  5
539B9
330
1F
100
AcDbEntity
  8
AM_5
100
AcDbLine
 10
11.5
 20
272.5
 30
0.0
 11
101.5
 21
272.5
 31
0.0
  0
MTEXT
  5
539BA
330
1F
100
AcDbEntity
  8
AM_6
100
AcDbMText
 10
21.5
 20
268.5
 30
0.0
 40
3.2
 41
20.0
 71
     5
 72
     5
  1
材　質
 73
     1
 44
1.0
1001
ACAD
1000
MTEXTBEGIN
1070
    73
1070
     1
1070
    44
1040
1.0
1070
    74
1070
     0
1000
MTEXTEND
  0
MTEXT
  5
539BB
330
1F
100
AcDbEntity
  8
AM_6
100
AcDbMText
 10
31.49999999999955
 20
260.5
 30
0.0
 40
3.2
 41
70.0
 71
     4
 72
     5
  1
　ステンレス（DEH-38S ）
 73
     1
 44
1.0
1001
ACAD
1000
MTEXTBEGIN
1070
    73
1070
     1
1070
    44
1040
1.0
1070
    74
1070
     0
1000
MTEXTEND
  0
LINE
  5
539BC
330
1F
100
AcDbEntity
  8
AM_5
100
AcDbLine
 10
31.49999999999909
 20
248.5
 30
0.0
 11
101.5
 21
248.5
 31
0.0
  0
MTEXT
  5
539BD
330
1F
100
AcDbEntity
  8
AM_6
100
AcDbMText
 10
31.5
 20
252.5
 30
0.0
 40
3.2
 41
70.0
 71
     4
 72
     5
  1
　有色クロメート（DEH-38）
 73
     1
 44
1.0
1001
ACAD
1000
MTEXTBEGIN
1070
    73
1070
     1
1070
    44
1040
1.0
1070
    74
1070
     0
1000
MTEXTEND
  0
MTEXT
  5
539BE
330
1F
100
AcDbEntity
  8
AM_6
100
AcDbMText
 10
31.49999999999955
 20
244.5
 30
0.0
 40
3.2
 41
70.0
 71
     4
 72
     5
  1
　ヘアーライン（DEH-38S）
 73
     1
 44
1.0
1001
ACAD
1000
MTEXTBEGIN
1070
    73
1070
     1
1070
    44
1040
1.0
1070
    74
1070
     0
1000
MTEXTEND
  0
LINE
  5
539BF
330
1F
100
AcDbEntity
  8
AM_0
100
AcDbLine
 10
11.5
 20
48.5
 30
0.0
 11
331.5000000000009
 21
48.49999999999909
 31
0.0
  0
LINE
  5
539C0
330
1F
100
AcDbEntity
  8
AM_5
100
AcDbLine
 10
43.5
 20
8.5
 30
0.0
 11
43.5
 21
40.49999999999999
 31
0.0
  0
LINE
  5
539C1
330
1F
100
AcDbEntity
  8
AM_0
100
AcDbLine
 10
11.5
 20
32.5
 30
0.0
 11
331.5000000000009
 21
32.49999999999909
 31
0.0
  0
LINE
  5
539C2
330
1F
100
AcDbEntity
  8
AM_5
100
AcDbLine
 10
11.5
 20
24.5
 30
0.0
 11
123.5000000000004
 21
24.50000000000023
 31
0.0
  0
LINE
  5
539C3
330
1F
100
AcDbEntity
  8
AM_5
100
AcDbLine
 10
11.5
 20
16.5
 30
0.0
 11
91.5
 21
16.5
 31
0.0
  0
LINE
  5
539C5
330
1F
100
AcDbEntity
  8
AM_0
100
AcDbLine
 10
331.5000000000009
 20
8.500000000000227
 30
0.0
 11
11.5
 21
8.5
 31
0.0
  0
LINE
  5
539C6
330
1F
100
AcDbEntity
  8
AM_5
100
AcDbLine
 10
75.5
 20
48.5
 30
0.0
 11
75.5
 21
8.5
 31
0.0
  0
LINE
  5
539C7
330
1F
100
AcDbEntity
  8
AM_5
100
AcDbLine
 10
91.5
 20
48.5
 30
0.0
 11
91.5
 21
8.5
 31
0.0
  0
LINE
  5
539C8
330
1F
100
AcDbEntity
  8
AM_5
100
AcDbLine
 10
107.5
 20
48.5
 30
0.0
 11
107.5
 21
8.5
 31
0.0
  0
LINE
  5
539C9
330
1F
100
AcDbEntity
  8
AM_5
100
AcDbLine
 10
123.5000000000004
 20
48.5
 30
0.0
 11
123.5000000000004
 21
8.5
 31
0.0
  0
LINE
  5
539CA
330
1F
100
AcDbEntity
  8
AM_5
100
AcDbLine
 10
155.5000000000004
 20
48.5
 30
0.0
 11
155.5000000000004
 21
8.5
 31
0.0
  0
MTEXT
  5
539CB
330
1F
100
AcDbEntity
  8
AM_6
100
AcDbMText
 10
83.49999999999999
 20
40.49999999999999
 30
0.0
 40
3.2
 41
16.0
 71
     5
 72
     5
  1
A
 73
     1
 44
1.0
1001
ACAD
1000
MTEXTBEGIN
1070
    73
1070
     1
1070
    44
1040
1.0
1070
    74
1070
     0
1000
MTEXTEND
  0
MTEXT
  5
539CC
330
1F
100
AcDbEntity
  8
AM_6
100
AcDbMText
 10
83.50000000000092
 20
28.5
 30
0.0
 40
3.2
 41
16.0
 71
     5
 72
     5
  1
31
 73
     1
 44
1.0
1001
ACAD
1000
MTEXTBEGIN
1070
    73
1070
     1
1070
    44
1040
1.0
1070
    74
1070
     0
1000
MTEXTEND
  0
MTEXT
  5
539CD
330
1F
100
AcDbEntity
  8
AM_6
100
AcDbMText
 10
83.50000000000092
 20
20.5
 30
0.0
 40
3.2
 41
16.0
 71
     5
 72
     5
  1
38
 73
     1
 44
1.0
1001
ACAD
1000
MTEXTBEGIN
1070
    73
1070
     1
1070
    44
1040
1.0
1070
    74
1070
     0
1000
MTEXTEND
  0
MTEXT
  5
539CE
330
1F
100
AcDbEntity
  8
AM_6
100
AcDbMText
 10
83.50000000000092
 20
12.5
 30
0.0
 40
3.2
 41
16.0
 71
     5
 72
     5
  1
40
 73
     1
 44
1.0
1001
ACAD
1000
MTEXTBEGIN
1070
    73
1070
     1
1070
    44
1040
1.0
1070
    74
1070
     0
1000
MTEXTEND
  0
MTEXT
  5
539CF
330
1F
100
AcDbEntity
  8
AM_6
100
AcDbMText
 10
27.5
 20
28.5
 30
0.0
 40
3.2
 41
32.0
 71
     5
 72
     5
  1
DEH-38-1
 73
     1
 44
1.0
1001
ACAD
1000
MTEXTBEGIN
1070
    73
1070
     1
1070
    44
1040
1.0
1070
    74
1070
     0
1000
MTEXTEND
  0
MTEXT
  5
539D0
330
1F
100
AcDbEntity
  8
AM_6
100
AcDbMText
 10
27.5
 20
20.5
 30
0.0
 40
3.2
 41
32.0
 71
     5
 72
     5
  1
DEH-38-2
 73
     1
 44
1.0
1001
ACAD
1000
MTEXTBEGIN
1070
    73
1070
     1
1070
    44
1040
1.0
1070
    74
1070
     0
1000
MTEXTEND
  0
MTEXT
  5
539D1
330
1F
100
AcDbEntity
  8
AM_6
100
AcDbMText
 10
27.5
 20
12.5
 30
0.0
 40
3.2
 41
32.0
 71
     5
 72
     5
  1
DEH-38-3
 73
     1
 44
1.0
1001
ACAD
1000
MTEXTBEGIN
1070
    73
1070
     1
1070
    44
1040
1.0
1070
    74
1070
     0
1000
MTEXTEND
  0
LINE
  5
539D2
330
1F
100
AcDbEntity
  8
AM_0
100
AcDbLine
 10
11.5
 20
8.5
 30
0.0
 11
11.5
 21
48.5
 31
0.0
  0
MTEXT
  5
539D3
330
1F
100
AcDbEntity
  8
AM_6
100
AcDbMText
 10
43.5
 20
44.5
 30
0.0
 40
3.2
 41
64.0
 71
     5
 72
     5
  1
品番
 73
     1
 44
1.0
1001
ACAD
1000
MTEXTBEGIN
1070
    73
1070
     1
1070
    44
1040
1.0
1070
    74
1070
     0
1000
MTEXTEND
  0
MTEXT
  5
539D4
330
1F
100
AcDbEntity
  8
AM_6
100
AcDbMText
 10
59.5
 20
28.5
 30
0.0
 40
3.2
 41
32.0
 71
     5
 72
     5
  1
DEH-38S-1
 73
     1
 44
1.0
1001
ACAD
1000
MTEXTBEGIN
1070
    73
1070
     1
1070
    44
1040
1.0
1070
    74
1070
     0
1000
MTEXTEND
  0
MTEXT
  5
539D5
330
1F
100
AcDbEntity
  8
AM_6
100
AcDbMText
 10
59.5
 20
20.5
 30
0.0
 40
3.2
 41
32.0
 71
     5
 72
     5
  1
DEH-38S-2
 73
     1
 44
1.0
1001
ACAD
1000
MTEXTBEGIN
1070
    73
1070
     1
1070
    44
1040
1.0
1070
    74
1070
     0
1000
MTEXTEND
  0
MTEXT
  5
539D6
330
1F
100
AcDbEntity
  8
AM_6
100
AcDbMText
 10
59.5
 20
12.5
 30
0.0
 40
3.2
 41
32.0
 71
     5
 72
     5
  1
DEH-38S-3
 73
     1
 44
1.0
1001
ACAD
1000
MTEXTBEGIN
1070
    73
1070
     1
1070
    44
1040
1.0
1070
    74
1070
     0
1000
MTEXTEND
  0
LINE
  5
539D7
330
1F
100
AcDbEntity
  8
AM_5
100
AcDbLine
 10
11.5
 20
40.49999999999999
 30
0.0
 11
75.5
 21
40.49999999999999
 31
0.0
  0
LINE
  5
539D8
330
1F
100
AcDbEntity
  8
AM_5
100
AcDbLine
 10
123.5000000000004
 20
40.49999999999999
 30
0.0
 11
219.5000000000005
 21
40.49999999999999
 31
0.0
  0
MTEXT
  5
539D9
330
1F
100
AcDbEntity
  8
AM_6
100
AcDbMText
 10
27.5
 20
36.5
 30
0.0
 40
3.2
 41
32.0
 71
     5
 72
     5
  1
スチール
 73
     1
 44
1.0
1001
ACAD
1000
MTEXTBEGIN
1070
    73
1070
     1
1070
    44
1040
1.0
1070
    74
1070
     0
1000
MTEXTEND
  0
MTEXT
  5
539DA
330
1F
100
AcDbEntity
  8
AM_6
100
AcDbMText
 10
59.5
 20
36.5
 30
0.0
 40
3.2
 41
32.0
 71
     5
 72
     5
  1
ステンレス
 73
     1
 44
1.0
1001
ACAD
1000
MTEXTBEGIN
1070
    73
1070
     1
1070
    44
1040
1.0
1070
    74
1070
     0
1000
MTEXTEND
  0
MTEXT
  5
539DB
330
1F
100
AcDbEntity
  8
AM_6
100
AcDbMText
 10
139.5000000000004
 20
44.5
 30
0.0
 40
3.2
 41
32.0
 71
     5
 72
     5
  1
D
 73
     1
 44
1.0
1001
ACAD
1000
MTEXTBEGIN
1070
    73
1070
     1
1070
    44
1040
1.0
1070
    74
1070
     0
1000
MTEXTEND
  0
LINE
  5
539DC
330
1F
100
AcDbEntity
  8
AM_5
100
AcDbLine
 10
139.5000000000004
 20
40.49999999999999
 30
0.0
 11
139.5
 21
8.5
 31
0.0
  0
MTEXT
  5
539DD
330
1F
100
AcDbEntity
  8
AM_6
100
AcDbMText
 10
147.5000000000018
 20
36.5
 30
0.0
 40
3.2
 41
16.0
 71
     5
 72
     5
  1
ステンレス
 73
     1
 44
1.0
1001
ACAD
1000
MTEXTBEGIN
1070
    73
1070
     1
1070
    44
1040
1.0
1070
    74
1070
     0
1000
MTEXTEND
  0
MTEXT
  5
539DE
330
1F
100
AcDbEntity
  8
AM_6
100
AcDbMText
 10
131.5000000000013
 20
36.5
 30
0.0
 40
3.2
 41
16.0
 71
     5
 72
     5
  1
スチール
 73
     1
 44
1.0
1001
ACAD
1000
MTEXTBEGIN
1070
    73
1070
     1
1070
    44
1040
1.0
1070
    74
1070
     0
1000
MTEXTEND
  0
MTEXT
  5
53A03
330
1F
100
AcDbEntity
  8
AM_6
100
AcDbMText
 10
99.50000000000001
 20
40.49999999999999
 30
0.0
 40
3.2
 41
16.0
 71
     5
 72
     5
  1
B
 73
     1
 44
1.0
1001
ACAD
1000
MTEXTBEGIN
1070
    73
1070
     1
1070
    44
1040
1.0
1070
    74
1070
     0
1000
MTEXTEND
  0
MTEXT
  5
53A04
330
1F
100
AcDbEntity
  8
AM_6
100
AcDbMText
 10
115.5000000000009
 20
28.5
 30
0.0
 40
3.2
 41
16.0
 71
     5
 72
     5
  1
19
 73
     1
 44
1.0
1001
ACAD
1000
MTEXTBEGIN
1070
    73
1070
     1
1070
    44
1040
1.0
1070
    74
1070
     0
1000
MTEXTEND
  0
MTEXT
  5
53A05
330
1F
100
AcDbEntity
  8
AM_6
100
AcDbMText
 10
115.5000000000009
 20
16.5
 30
0.0
 40
3.2
 41
16.0
 71
     5
 72
     5
  1
26
 73
     1
 44
1.0
1001
ACAD
1000
MTEXTBEGIN
1070
    73
1070
     1
1070
    44
1040
1.0
1070
    74
1070
     0
1000
MTEXTEND
  0
MTEXT
  5
53A2E
330
1F
100
AcDbEntity
  8
AM_6
100
AcDbMText
 10
115.5
 20
40.49999999999999
 30
0.0
 40
3.2
 41
16.0
 71
     5
 72
     5
  1
C
 73
     1
 44
1.0
1001
ACAD
1000
MTEXTBEGIN
1070
    73
1070
     1
1070
    44
1040
1.0
1070
    74
1070
     0
1000
MTEXTEND
  0
MTEXT
  5
53A2F
330
1F
100
AcDbEntity
  8
AM_6
100
AcDbMText
 10
99.50000000000091
 20
28.5
 30
0.0
 40
3.2
 41
16.0
 71
     5
 72
     5
  1
28
 73
     1
 44
1.0
1001
ACAD
1000
MTEXTBEGIN
1070
    73
1070
     1
1070
    44
1040
1.0
1070
    74
1070
     0
1000
MTEXTEND
  0
MTEXT
  5
53A30
330
1F
100
AcDbEntity
  8
AM_6
100
AcDbMText
 10
99.50000000000091
 20
16.5
 30
0.0
 40
3.2
 41
16.0
 71
     5
 72
     5
  1
38
 73
     1
 44
1.0
1001
ACAD
1000
MTEXTBEGIN
1070
    73
1070
     1
1070
    44
1040
1.0
1070
    74
1070
     0
1000
MTEXTEND
  0
LINE
  5
53B11
330
1F
100
AcDbEntity
  8
AM_7
370
     9
100
AcDbLine
 10
253.0000000000005
 20
216.8999999999999
 30
0.0
 11
253.0000000000005
 21
120.9000000000001
 31
0.0
1001
GENIUS_GENOBJ-N-CEN_13
1002
{
1000
OWNER
1000
GEN
1002
}
1001
GENIUS_GENODEF_13
1002
{
1000
HIER
1070
     0
1002
}
1002
{
1000
MANEDIT
1070
     0
1002
}
1002
{
1000
NOSEL
1070
     0
1002
}
1002
{
1000
BEHIND
1070
     0
1002
}
1002
{
1000
OTHER
1070
     0
1002
}
1002
{
1000
REACTOR
1002
}
1001
GENIUS_GENCEN_19
1002
{
1040
3.0
1002
}
  0
LINE
  5
53B12
330
1F
100
AcDbEntity
  8
AM_7
370
     9
100
AcDbLine
 10
165.0000000000004
 20
216.9000000000001
 30
0.0
 11
165.0000000000004
 21
120.9000000000001
 31
0.0
1001
GENIUS_GENODEF_13
1002
{
1000
HIER
1070
     0
1002
}
1002
{
1000
MANEDIT
1070
     0
1002
}
1002
{
1000
NOSEL
1070
     0
1002
}
1002
{
1000
BEHIND
1070
     0
1002
}
1002
{
1000
OTHER
1070
     0
1002
}
1002
{
1000
REACTOR
1002
}
1001
GENIUS_GENOBJ-N-CEN_13
1002
{
1000
OWNER
1000
GEN
1002
}
1001
GENIUS_GENCEN_19
1002
{
1040
3.0
1002
}
  0
LINE
  5
53B13
330
1F
100
AcDbEntity
  8
AM_7
 48
0.5
370
     9
100
AcDbLine
 10
253.0000000000005
 20
257.5000000000002
 30
0.0
 11
253.0000000000005
 21
244.8999999999998
 31
0.0
1001
GENIUS_GENODEF_13
1002
{
1000
HIER
1070
     0
1002
}
1002
{
1000
MANEDIT
1070
     0
1002
}
1002
{
1000
NOSEL
1070
     0
1002
}
1002
{
1000
BEHIND
1070
     0
1002
}
1002
{
1000
OTHER
1070
     0
1002
}
1002
{
1000
REACTOR
1002
}
1001
GENIUS_GENOBJ-N-CEN_13
1002
{
1000
OWNER
1000
GEN
1002
}
1001
GENIUS_GENCEN_19
1002
{
1040
3.0
1002
}
  0
LINE
  5
53B14
330
1F
100
AcDbEntity
  8
AM_7
 48
0.3
370
     9
100
AcDbLine
 10
239.0000000000005
 20
250.3
 30
0.0
 11
239.0000000000005
 21
257.5
 31
0.0
1001
GENIUS_GENOBJ-N-CEN_13
1002
{
1000
OWNER
1000
GEN
1002
}
1001
GENIUS_GENODEF_13
1002
{
1000
HIER
1070
     0
1002
}
1002
{
1000
MANEDIT
1070
     0
1002
}
1002
{
1000
NOSEL
1070
     0
1002
}
1002
{
1000
BEHIND
1070
     0
1002
}
1002
{
1000
OTHER
1070
     0
1002
}
1002
{
1000
REACTOR
1002
}
1001
GENIUS_GENCEN_19
1002
{
1040
3.0
1002
}
  0
LINE
  5
53B15
330
1F
100
AcDbEntity
  8
AM_7
 48
0.3
370
     9
100
AcDbLine
 10
244.0000000000004
 20
250.3
 30
0.0
 11
244.0000000000004
 21
257.5
 31
0.0
1001
GENIUS_GENODEF_13
1002
{
1000
HIER
1070
     0
1002
}
1002
{
1000
MANEDIT
1070
     0
1002
}
1002
{
1000
NOSEL
1070
     0
1002
}
1002
{
1000
BEHIND
1070
     0
1002
}
1002
{
1000
OTHER
1070
     0
1002
}
1002
{
1000
REACTOR
1002
}
1001
GENIUS_GENOBJ-N-CEN_13
1002
{
1000
OWNER
1000
GEN
1002
}
1001
GENIUS_GENCEN_19
1002
{
1040
3.0
1002
}
  0
LINE
  5
53B16
330
1F
100
AcDbEntity
  8
AM_7
 48
0.3
370
     9
100
AcDbLine
 10
262.0000000000004
 20
250.3
 30
0.0
 11
262.0000000000004
 21
257.5
 31
0.0
1001
GENIUS_GENOBJ-N-CEN_13
1002
{
1000
OWNER
1000
GEN
1002
}
1001
GENIUS_GENODEF_13
1002
{
1000
HIER
1070
     0
1002
}
1002
{
1000
MANEDIT
1070
     0
1002
}
1002
{
1000
NOSEL
1070
     0
1002
}
1002
{
1000
BEHIND
1070
     0
1002
}
1002
{
1000
OTHER
1070
     0
1002
}
1002
{
1000
REACTOR
1002
}
1001
GENIUS_GENCEN_19
1002
{
1040
3.0
1002
}
  0
LINE
  5
53B17
330
1F
100
AcDbEntity
  8
AM_7
 48
0.3
370
     9
100
AcDbLine
 10
267.0000000000005
 20
250.3
 30
0.0
 11
267.0000000000005
 21
257.5
 31
0.0
1001
GENIUS_GENOBJ-N-CEN_13
1002
{
1000
OWNER
1000
GEN
1002
}
1001
GENIUS_GENODEF_13
1002
{
1000
HIER
1070
     0
1002
}
1002
{
1000
MANEDIT
1070
     0
1002
}
1002
{
1000
NOSEL
1070
     0
1002
}
1002
{
1000
BEHIND
1070
     0
1002
}
1002
{
1000
OTHER
1070
     0
1002
}
1002
{
1000
REACTOR
1002
}
1001
GENIUS_GENCEN_19
1002
{
1040
3.0
1002
}
  0
LINE
  5
53B18
330
1F
100
AcDbEntity
  8
AM_7
 48
0.5
370
     9
100
AcDbLine
 10
259.3000000000007
 20
251.2
 30
0.0
 11
246.7000000000003
 21
251.2
 31
0.0
1001
GENIUS_GENODEF_13
1002
{
1000
HIER
1070
     0
1002
}
1002
{
1000
MANEDIT
1070
     0
1002
}
1002
{
1000
NOSEL
1070
     0
1002
}
1002
{
1000
BEHIND
1070
     0
1002
}
1002
{
1000
OTHER
1070
     0
1002
}
1002
{
1000
REACTOR
1002
}
1001
GENIUS_GENOBJ-N-CEN_13
1002
{
1000
OWNER
1000
GEN
1002
}
1001
GENIUS_GENCEN_19
1002
{
1040
3.0
1002
}
  0
LINE
  5
53B1E
330
1F
100
AcDbEntity
  8
AM_7
 48
0.5
370
     9
100
AcDbLine
 10
165.0000000000004
 20
257.5000000000002
 30
0.0
 11
165.0000000000004
 21
245.0999999999999
 31
0.0
1001
GENIUS_GENOBJ-N-CEN_13
1002
{
1000
OWNER
1000
GEN
1002
}
1001
GENIUS_GENODEF_13
1002
{
1000
HIER
1070
     0
1002
}
1002
{
1000
MANEDIT
1070
     0
1002
}
1002
{
1000
NOSEL
1070
     0
1002
}
1002
{
1000
BEHIND
1070
     0
1002
}
1002
{
1000
OTHER
1070
     0
1002
}
1002
{
1000
REACTOR
1002
}
1001
GENIUS_GENCEN_19
1002
{
1040
3.0
1002
}
  0
LINE
  5
53B1F
330
1F
100
AcDbEntity
  8
AM_7
 48
0.5
370
     9
100
AcDbLine
 10
171.2000000000007
 20
251.2999999999999
 30
0.0
 11
158.8000000000002
 21
251.2999999999999
 31
0.0
1001
GENIUS_GENOBJ-N-CEN_13
1002
{
1000
OWNER
1000
GEN
1002
}
1001
GENIUS_GENODEF_13
1002
{
1000
HIER
1070
     0
1002
}
1002
{
1000
MANEDIT
1070
     0
1002
}
1002
{
1000
NOSEL
1070
     0
1002
}
1002
{
1000
BEHIND
1070
     0
1002
}
1002
{
1000
OTHER
1070
     0
1002
}
1002
{
1000
REACTOR
1002
}
1001
GENIUS_GENCEN_19
1002
{
1040
3.0
1002
}
  0
LINE
  5
53B20
330
1F
100
AcDbEntity
  8
AM_7
 48
0.5
370
     9
100
AcDbLine
 10
244.0000000000004
 20
213.7499999999998
 30
0.0
 11
244.0000000000004
 21
202.05
 31
0.0
1001
GENIUS_GENOBJ-N-CEN_13
1002
{
1000
OWNER
1000
GEN
1002
}
1001
GENIUS_GENODEF_13
1002
{
1000
HIER
1070
     0
1002
}
1002
{
1000
MANEDIT
1070
     0
1002
}
1002
{
1000
NOSEL
1070
     0
1002
}
1002
{
1000
BEHIND
1070
     0
1002
}
1002
{
1000
OTHER
1070
     0
1002
}
1002
{
1000
REACTOR
1002
}
1001
GENIUS_GENCEN_19
1002
{
1040
3.0
1002
}
  0
LINE
  5
53B21
330
1F
100
AcDbEntity
  8
AM_7
 48
0.5
370
     9
100
AcDbLine
 10
238.1500000000006
 20
207.8999999999999
 30
0.0
 11
249.8500000000003
 21
207.8999999999999
 31
0.0
1001
GENIUS_GENODEF_13
1002
{
1000
HIER
1070
     0
1002
}
1002
{
1000
MANEDIT
1070
     0
1002
}
1002
{
1000
NOSEL
1070
     0
1002
}
1002
{
1000
BEHIND
1070
     0
1002
}
1002
{
1000
OTHER
1070
     0
1002
}
1002
{
1000
REACTOR
1002
}
1001
GENIUS_GENOBJ-N-CEN_13
1002
{
1000
OWNER
1000
GEN
1002
}
1001
GENIUS_GENCEN_19
1002
{
1040
3.0
1002
}
  0
LINE
  5
53B22
102
{ACAD_REACTORS
330
53E03
102
}
330
1F
100
AcDbEntity
  8
AM_7
 48
0.5
370
     9
100
AcDbLine
 10
239.0000000000005
 20
199.75
 30
0.0
 11
239.0000000000005
 21
188.0500000000002
 31
0.0
1001
GENIUS_GENOBJ-N-CEN_13
1002
{
1000
OWNER
1000
GEN
1002
}
1001
GENIUS_GENODEF_13
1002
{
1000
HIER
1070
     0
1002
}
1002
{
1000
MANEDIT
1070
     0
1002
}
1002
{
1000
NOSEL
1070
     0
1002
}
1002
{
1000
BEHIND
1070
     0
1002
}
1002
{
1000
OTHER
1070
     0
1002
}
1002
{
1000
REACTOR
1002
}
1001
GENIUS_GENCEN_19
1002
{
1040
3.0
1002
}
  0
LINE
  5
53B23
330
1F
100
AcDbEntity
  8
AM_7
 48
0.5
370
     9
100
AcDbLine
 10
233.1500000000005
 20
193.9000000000001
 30
0.0
 11
244.8500000000004
 21
193.9000000000001
 31
0.0
1001
GENIUS_GENODEF_13
1002
{
1000
HIER
1070
     0
1002
}
1002
{
1000
MANEDIT
1070
     0
1002
}
1002
{
1000
NOSEL
1070
     0
1002
}
1002
{
1000
BEHIND
1070
     0
1002
}
1002
{
1000
OTHER
1070
     0
1002
}
1002
{
1000
REACTOR
1002
}
1001
GENIUS_GENOBJ-N-CEN_13
1002
{
1000
OWNER
1000
GEN
1002
}
1001
GENIUS_GENCEN_19
1002
{
1040
3.0
1002
}
  0
LINE
  5
53B24
102
{ACAD_REACTORS
330
53DE2
102
}
330
1F
100
AcDbEntity
  8
AM_7
 48
0.5
370
     9
100
AcDbLine
 10
244.0000000000004
 20
185.75
 30
0.0
 11
244.0000000000004
 21
174.0500000000002
 31
0.0
1001
GENIUS_GENOBJ-N-CEN_13
1002
{
1000
OWNER
1000
GEN
1002
}
1001
GENIUS_GENODEF_13
1002
{
1000
HIER
1070
     0
1002
}
1002
{
1000
MANEDIT
1070
     0
1002
}
1002
{
1000
NOSEL
1070
     0
1002
}
1002
{
1000
BEHIND
1070
     0
1002
}
1002
{
1000
OTHER
1070
     0
1002
}
1002
{
1000
REACTOR
1002
}
1001
GENIUS_GENCEN_19
1002
{
1040
3.0
1002
}
  0
LINE
  5
53B25
330
1F
100
AcDbEntity
  8
AM_7
 48
0.5
370
     9
100
AcDbLine
 10
238.1500000000006
 20
179.9000000000001
 30
0.0
 11
249.8500000000003
 21
179.9000000000001
 31
0.0
1001
GENIUS_GENODEF_13
1002
{
1000
HIER
1070
     0
1002
}
1002
{
1000
MANEDIT
1070
     0
1002
}
1002
{
1000
NOSEL
1070
     0
1002
}
1002
{
1000
BEHIND
1070
     0
1002
}
1002
{
1000
OTHER
1070
     0
1002
}
1002
{
1000
REACTOR
1002
}
1001
GENIUS_GENOBJ-N-CEN_13
1002
{
1000
OWNER
1000
GEN
1002
}
1001
GENIUS_GENCEN_19
1002
{
1040
3.0
1002
}
  0
LINE
  5
53B26
330
1F
100
AcDbEntity
  8
AM_7
 48
0.5
370
     9
100
AcDbLine
 10
262.0000000000004
 20
163.75
 30
0.0
 11
262.0000000000004
 21
152.0500000000002
 31
0.0
1001
GENIUS_GENOBJ-N-CEN_13
1002
{
1000
OWNER
1000
GEN
1002
}
1001
GENIUS_GENODEF_13
1002
{
1000
HIER
1070
     0
1002
}
1002
{
1000
MANEDIT
1070
     0
1002
}
1002
{
1000
NOSEL
1070
     0
1002
}
1002
{
1000
BEHIND
1070
     0
1002
}
1002
{
1000
OTHER
1070
     0
1002
}
1002
{
1000
REACTOR
1002
}
1001
GENIUS_GENCEN_19
1002
{
1040
3.0
1002
}
  0
LINE
  5
53B27
102
{ACAD_REACTORS
330
53C19
102
}
330
1F
100
AcDbEntity
  8
AM_7
 48
0.5
370
     9
100
AcDbLine
 10
256.1500000000005
 20
157.9000000000001
 30
0.0
 11
267.8500000000004
 21
157.9000000000001
 31
0.0
1001
GENIUS_GENODEF_13
1002
{
1000
HIER
1070
     0
1002
}
1002
{
1000
MANEDIT
1070
     0
1002
}
1002
{
1000
NOSEL
1070
     0
1002
}
1002
{
1000
BEHIND
1070
     0
1002
}
1002
{
1000
OTHER
1070
     0
1002
}
1002
{
1000
REACTOR
1002
}
1001
GENIUS_GENOBJ-N-CEN_13
1002
{
1000
OWNER
1000
GEN
1002
}
1001
GENIUS_GENCEN_19
1002
{
1040
3.0
1002
}
  0
LINE
  5
53B28
102
{ACAD_REACTORS
330
53E03
102
}
330
1F
100
AcDbEntity
  8
AM_7
 48
0.5
370
     9
100
AcDbLine
 10
267.0000000000005
 20
149.75
 30
0.0
 11
267.0000000000005
 21
138.0500000000002
 31
0.0
1001
GENIUS_GENOBJ-N-CEN_13
1002
{
1000
OWNER
1000
GEN
1002
}
1001
GENIUS_GENODEF_13
1002
{
1000
HIER
1070
     0
1002
}
1002
{
1000
MANEDIT
1070
     0
1002
}
1002
{
1000
NOSEL
1070
     0
1002
}
1002
{
1000
BEHIND
1070
     0
1002
}
1002
{
1000
OTHER
1070
     0
1002
}
1002
{
1000
REACTOR
1002
}
1001
GENIUS_GENCEN_19
1002
{
1040
3.0
1002
}
  0
LINE
  5
53B29
102
{ACAD_REACTORS
330
53C01
330
53C19
102
}
330
1F
100
AcDbEntity
  8
AM_7
 48
0.5
370
     9
100
AcDbLine
 10
261.1500000000006
 20
143.9000000000001
 30
0.0
 11
272.8500000000003
 21
143.9000000000001
 31
0.0
1001
GENIUS_GENODEF_13
1002
{
1000
HIER
1070
     0
1002
}
1002
{
1000
MANEDIT
1070
     0
1002
}
1002
{
1000
NOSEL
1070
     0
1002
}
1002
{
1000
BEHIND
1070
     0
1002
}
1002
{
1000
OTHER
1070
     0
1002
}
1002
{
1000
REACTOR
1002
}
1001
GENIUS_GENOBJ-N-CEN_13
1002
{
1000
OWNER
1000
GEN
1002
}
1001
GENIUS_GENCEN_19
1002
{
1040
3.0
1002
}
  0
LINE
  5
53B2A
102
{ACAD_REACTORS
330
53DE2
102
}
330
1F
100
AcDbEntity
  8
AM_7
 48
0.5
370
     9
100
AcDbLine
 10
262.0000000000004
 20
135.75
 30
0.0
 11
262.0000000000004
 21
124.0500000000002
 31
0.0
1001
GENIUS_GENOBJ-N-CEN_13
1002
{
1000
OWNER
1000
GEN
1002
}
1001
GENIUS_GENODEF_13
1002
{
1000
HIER
1070
     0
1002
}
1002
{
1000
MANEDIT
1070
     0
1002
}
1002
{
1000
NOSEL
1070
     0
1002
}
1002
{
1000
BEHIND
1070
     0
1002
}
1002
{
1000
OTHER
1070
     0
1002
}
1002
{
1000
REACTOR
1002
}
1001
GENIUS_GENCEN_19
1002
{
1040
3.0
1002
}
  0
LINE
  5
53B2B
102
{ACAD_REACTORS
330
53C01
102
}
330
1F
100
AcDbEntity
  8
AM_7
 48
0.5
370
     9
100
AcDbLine
 10
256.1500000000005
 20
129.9000000000001
 30
0.0
 11
267.8500000000004
 21
129.9000000000001
 31
0.0
1001
GENIUS_GENODEF_13
1002
{
1000
HIER
1070
     0
1002
}
1002
{
1000
MANEDIT
1070
     0
1002
}
1002
{
1000
NOSEL
1070
     0
1002
}
1002
{
1000
BEHIND
1070
     0
1002
}
1002
{
1000
OTHER
1070
     0
1002
}
1002
{
1000
REACTOR
1002
}
1001
GENIUS_GENOBJ-N-CEN_13
1002
{
1000
OWNER
1000
GEN
1002
}
1001
GENIUS_GENCEN_19
1002
{
1040
3.0
1002
}
  0
DIMENSION
  5
53B36
330
1F
100
AcDbEntity
  8
AM_5
100
AcDbDimension
  2
*D5
 10
255.0000000000005
 20
167.9000000000001
 30
0.0
 11
259.1973333333338
 21
170.5000000000001
 31
0.0
 70
    32
  1
%%cＩ　
 71
     5
 42
4.0
  3
SYS$0
100
AcDbAlignedDimension
 13
251.0000000000005
 23
160.9000000000001
 33
0.0
 14
255.0000000000005
 24
160.9000000000001
 34
0.0
100
AcDbRotatedDimension
1001
ACAD
1000
DSTYLE
1002
{
1070
   271
1070
     1
1002
}
  0
DIMENSION
  5
53B64
330
1F
100
AcDbEntity
  8
AM_5
100
AcDbDimension
  2
*D6
 10
266.0000000000005
 20
221.8999999999998
 30
0.0
 11
253.0000003907983
 21
224.4999999999999
 31
0.0
 70
    32
  1
C
 71
     5
 42
25.99999921840435
  3
SYS$0
100
AcDbAlignedDimension
 13
240.0000007815961
 23
213.8999995687527
 33
0.0
 14
266.0000000000005
 24
163.9000000000001
 34
0.0
100
AcDbRotatedDimension
1001
ACAD
1000
DSTYLE
1002
{
1070
   271
1070
     1
1002
}
  0
DIMENSION
  5
53BB3
330
1F
100
AcDbEntity
  8
AM_5
100
AcDbDimension
  2
*D7
 10
272.0000000000005
 20
229.8999999999999
 30
0.0
 11
253.0000005000006
 21
232.4999999999999
 31
0.0
 70
    32
  1
B
 71
     5
 42
37.99999899999966
  3
SYS$0
100
AcDbAlignedDimension
 13
234.0000010000008
 23
193.9000000000001
 33
0.0
 14
272.0000000000005
 24
143.9000000000001
 34
0.0
100
AcDbRotatedDimension
1001
ACAD
1000
DSTYLE
1002
{
1070
   271
1070
     1
1002
}
  0
DIMENSION
  5
53BD2
102
{ACAD_XDICTIONARY
360
53BDF
102
}
102
{ACAD_REACTORS
330
53BE0
102
}
330
1F
100
AcDbEntity
  8
AM_5
100
AcDbDimension
  2
*D8
 10
225.9999999999983
 20
173.8999999999971
 30
0.0
 11
223.3999999999983
 21
193.8999997843734
 31
0.0
 70
    32
  1
A
 71
     5
 42
39.99999956875263
  3
SYS$0
100
AcDbAlignedDimension
 13
240.000000781594
 23
213.8999995687497
 33
0.0
 14
239.9999999999983
 24
173.8999999999971
 34
0.0
 50
90.0
100
AcDbRotatedDimension
1001
ACAD
1000
DSTYLE
1002
{
1070
   271
1070
     1
1002
}
  0
DIMENSION
  5
53BF3
102
{ACAD_XDICTIONARY
360
53C00
102
}
102
{ACAD_REACTORS
330
53C01
102
}
330
1F
100
AcDbEntity
  8
AM_5
100
AcDbDimension
  2
*D9
 10
282.0000010100002
 20
129.9000000000001
 30
0.0
 11
279.4000010100002
 21
136.9000000000001
 31
0.0
 70
    32
  1
D
 71
     5
 42
14.0
  3
SYS$0
100
AcDbAlignedDimension
 13
272.8500000000003
 23
143.9000000000001
 33
0.0
 14
267.8500000000004
 24
129.9000000000001
 34
0.0
 50
90.0
100
AcDbRotatedDimension
1001
ACAD
1000
DSTYLE
1002
{
1070
   271
1070
     1
1002
}
  0
DIMENSION
  5
53C0B
102
{ACAD_XDICTIONARY
360
53C18
102
}
102
{ACAD_REACTORS
330
53C19
102
}
330
1F
100
AcDbEntity
  8
AM_5
100
AcDbDimension
  2
*D10
 10
282.0000000000005
 20
157.9000000000001
 30
0.0
 11
279.4000000000004
 21
150.9000000000001
 31
0.0
 70
    32
  1
D
 71
     5
 42
14.0
  3
SYS$0
100
AcDbAlignedDimension
 13
272.8500000000003
 23
143.9000000000001
 33
0.0
 14
267.8500000000004
 24
157.9000000000001
 34
0.0
 50
90.0
100
AcDbRotatedDimension
1001
ACAD
1000
DSTYLE
1002
{
1070
   271
1070
     1
1002
}
  0
DIMENSION
  5
53C30
102
{ACAD_XDICTIONARY
360
53C3A
102
}
102
{ACAD_REACTORS
330
53C41
102
}
330
1F
100
AcDbEntity
  8
AM_5
100
AcDbDimension
  2
*D11
 10
255.3334523779165
 20
253.5334523779158
 30
0.0
 11
241.3433787975403
 21
243.7753787975431
 31
0.0
 70
   163
  1
（%%cH）
 71
     5
 42
6.600000000000363
  3
SYS$3
100
AcDbDiametricDimension
 15
250.6665476220847
 25
248.8665476220846
 35
0.0
 40
0.0
1001
ACAD
1000
DSTYLE
1002
{
1070
   344
1005
6C4
1070
   342
1005
0
1070
   173
1070
     1
1070
   343
1005
6C4
1070
    41
1040
1.0
1070
   172
1070
     1
1002
}
  0
DIMENSION
  5
53C4B
330
1F
100
AcDbEntity
  8
AM_5
100
AcDbDimension
  2
*D12
 10
282.0000000000005
 20
253.2999999999999
 30
0.0
 11
279.4000000000004
 21
249.5
 31
0.0
 70
    32
  1
G
 71
     5
 42
1.200000000000045
  3
SYS$0
100
AcDbAlignedDimension
 13
272.0000000000005
 23
254.5
 33
0.0
 14
272.0000000000005
 24
253.2999999999999
 34
0.0
 50
270.0
100
AcDbRotatedDimension
1001
ACAD
1000
DSTYLE
1002
{
1070
   271
1070
     1
1002
}
  0
DIMENSION
  5
53CEB
330
1F
100
AcDbEntity
  8
AM_5
100
AcDbDimension
  2
*D13
 10
178.0000000000004
 20
221.9000000000001
 30
0.0
 11
165.0000003907982
 21
224.5000000000001
 31
0.0
 70
    32
  1
C
 71
     5
 42
25.99999921840435
  3
SYS$0
100
AcDbAlignedDimension
 13
152.0000007815961
 23
213.8999995687529
 33
0.0
 14
178.0000000000004
 24
163.9000000000003
 34
0.0
100
AcDbRotatedDimension
1001
ACAD
1000
DSTYLE
1002
{
1070
   271
1070
     1
1002
}
  0
DIMENSION
  5
53CEC
330
1F
100
AcDbEntity
  8
AM_5
100
AcDbDimension
  2
*D14
 10
184.0000000000004
 20
229.9000000000001
 30
0.0
 11
165.0000005000006
 21
232.5000000000001
 31
0.0
 70
    32
  1
B
 71
     5
 42
37.99999899999966
  3
SYS$0
100
AcDbAlignedDimension
 13
146.0000010000008
 23
193.9000000000003
 33
0.0
 14
184.0000000000004
 24
143.9000000000003
 34
0.0
100
AcDbRotatedDimension
1001
ACAD
1000
DSTYLE
1002
{
1070
   271
1070
     1
1002
}
  0
DIMENSION
  5
53CED
330
1F
100
AcDbEntity
  8
AM_5
100
AcDbDimension
  2
*D15
 10
138.0000000000004
 20
173.9000000000003
 30
0.0
 11
135.4000000000004
 21
193.8999997843766
 31
0.0
 70
    32
  1
A
 71
     5
 42
39.99999956875263
  3
SYS$0
100
AcDbAlignedDimension
 13
152.0000007815961
 23
213.8999995687529
 33
0.0
 14
152.0000000000004
 24
173.9000000000003
 34
0.0
 50
90.0
100
AcDbRotatedDimension
1001
ACAD
1000
DSTYLE
1002
{
1070
   271
1070
     1
1002
}
  0
DIMENSION
  5
53D49
330
1F
100
AcDbEntity
  8
AM_5
100
AcDbDimension
  2
*D16
 10
194.0000000000004
 20
253.2999999999999
 30
0.0
 11
191.4000000000004
 21
249.5
 31
0.0
 70
    32
  1
G
 71
     5
 42
1.200000000000045
  3
SYS$0
100
AcDbAlignedDimension
 13
184.0000000000004
 23
254.5
 33
0.0
 14
184.0000000000004
 24
253.2999999999999
 34
0.0
 50
270.0
100
AcDbRotatedDimension
1001
ACAD
1000
DSTYLE
1002
{
1070
   271
1070
     1
1002
}
  0
DIMENSION
  5
53D81
102
{ACAD_XDICTIONARY
360
53D8B
102
}
102
{ACAD_REACTORS
330
53D92
102
}
330
1F
100
AcDbEntity
  8
AM_5
100
AcDbDimension
  2
*D17
 10
167.262741699798
 20
253.5627416997972
 30
0.0
 11
153.4140894756595
 21
243.9460894756598
 31
0.0
 70
   163
  1
（%%cH）
 71
     5
 42
6.400000000000602
  3
SYS$3
100
AcDbDiametricDimension
 15
162.7372583002034
 25
249.0372583002031
 35
0.0
 40
0.0
1001
ACAD
1000
DSTYLE
1002
{
1070
   344
1005
6C4
1070
   342
1005
0
1070
   173
1070
     1
1070
   343
1005
6C4
1070
    41
1040
1.0
1070
   172
1070
     1
1002
}
  0
DIMENSION
  5
53DD4
102
{ACAD_XDICTIONARY
360
53DE1
102
}
102
{ACAD_REACTORS
330
53DE2
102
}
330
1F
100
AcDbEntity
  8
AM_5
100
AcDbDimension
  2
*D18
 10
244.0000000000004
 20
113.9000000000001
 30
0.0
 11
253.0000000000005
 21
116.5000000000001
 31
0.0
 70
    32
  1
F
 71
     5
 42
18.0
  3
SYS$0
100
AcDbAlignedDimension
 13
262.0000000000004
 23
124.0500000000002
 33
0.0
 14
244.0000000000004
 24
174.0500000000002
 34
0.0
100
AcDbRotatedDimension
1001
ACAD
1000
DSTYLE
1002
{
1070
   271
1070
     1
1002
}
  0
DIMENSION
  5
53DF5
102
{ACAD_XDICTIONARY
360
53E02
102
}
102
{ACAD_REACTORS
330
53E03
102
}
330
1F
100
AcDbEntity
  8
AM_5
100
AcDbDimension
  2
*D19
 10
239.0000000000005
 20
105.9000000000001
 30
0.0
 11
253.0000000000005
 21
108.5000000000001
 31
0.0
 70
    32
  1
E
 71
     5
 42
28.0
  3
SYS$0
100
AcDbAlignedDimension
 13
267.0000000000005
 23
138.0500000000002
 33
0.0
 14
239.0000000000005
 24
188.0500000000002
 34
0.0
100
AcDbRotatedDimension
1001
ACAD
1000
DSTYLE
1002
{
1070
   271
1070
     1
1002
}
  0
MTEXT
  5
53EED
330
1F
100
AcDbEntity
  8
AM_6
100
AcDbMText
 10
253.0000000000005
 20
95.90000000000008
 30
0.0
 40
3.2
 41
11.65276229289884
 71
     5
 72
     5
  1
{\L左勝手}
 73
     1
 44
1.0
1001
ACAD
1000
MTEXTBEGIN
1070
    73
1070
     1
1070
    44
1040
1.0
1070
    74
1070
     0
1000
MTEXTEND
  0
LWPOLYLINE
  5
53EEE
330
1F
100
AcDbEntity
  8
AM_0
100
AcDbPolyline
 90
        4
 70
     1
 43
0.0
 10
243.0000000000005
 20
83.90000000000009
 10
263.0000000000005
 20
83.90000000000009
 10
263.0000000000005
 20
77.90000000000009
 10
243.0000000000005
 20
77.90000000000009
1001
GENIUS_GENREC_14
1002
{
1000
PYDIR
1011
243.0000000000005
1021
77.90000000000009
1031
0.0
1002
}
1002
{
1000
PXDIR
1011
263.0000000000005
1021
83.90000000000009
1031
0.0
1002
}
1002
{
1000
PORI
1011
243.0000000000005
1021
83.90000000000009
1031
0.0
1002
}
1002
{
1000
PINS
1011
243.0000000000005
1021
83.90000000000009
1031
0.0
1002
}
1002
{
1000
PINS2
1011
263.0000000000005
1021
77.90000000000009
1031
0.0
1002
}
1002
{
1000
C
1070
     1
1002
}
1001
GENIUS_GENODEF_13
1002
{
1000
HIER
1070
     0
1002
}
1002
{
1000
MANEDIT
1070
     0
1002
}
1002
{
1000
NOSEL
1070
     0
1002
}
1002
{
1000
BEHIND
1070
     0
1002
}
1002
{
1000
OTHER
1070
     0
1002
}
1002
{
1000
REACTOR
1002
}
1001
GENIUS_GENOBJ-N-REC_13
1002
{
1000
OWNER
1000
GEN
1002
}
  0
MTEXT
  5
53EEF
330
1F
100
AcDbEntity
  8
AM_6
100
AcDbMText
 10
253.0000000000005
 20
80.90000000000008
 30
0.0
 40
3.2
 41
20.0
 71
     5
 72
     5
  1
DEH-38S
 73
     1
 44
1.0
1001
ACAD
1000
MTEXTBEGIN
1070
    73
1070
     1
1070
    44
1040
1.0
1070
    74
1070
     0
1000
MTEXTEND
  0
MTEXT
  5
53EF0
330
1F
100
AcDbEntity
  8
AM_6
100
AcDbMText
 10
165.0000000000004
 20
95.90000000000008
 30
0.0
 40
3.2
 41
11.65276229289884
 71
     5
 72
     5
  1
{\L左勝手}
 73
     1
 44
1.0
1001
ACAD
1000
MTEXTBEGIN
1070
    73
1070
     1
1070
    44
1040
1.0
1070
    74
1070
     0
1000
MTEXTEND
  0
LWPOLYLINE
  5
53EF1
330
1F
100
AcDbEntity
  8
AM_0
100
AcDbPolyline
 90
        4
 70
     1
 43
0.0
 10
155.0000000000004
 20
83.90000000000009
 10
175.0000000000004
 20
83.90000000000009
 10
175.0000000000004
 20
77.90000000000009
 10
155.0000000000004
 20
77.90000000000009
1001
GENIUS_GENREC_14
1002
{
1000
PYDIR
1011
155.0000000000004
1021
77.90000000000009
1031
0.0
1002
}
1002
{
1000
PXDIR
1011
175.0000000000004
1021
83.90000000000009
1031
0.0
1002
}
1002
{
1000
PORI
1011
155.0000000000004
1021
83.90000000000009
1031
0.0
1002
}
1002
{
1000
PINS
1011
155.0000000000004
1021
83.90000000000009
1031
0.0
1002
}
1002
{
1000
PINS2
1011
175.0000000000004
1021
77.90000000000009
1031
0.0
1002
}
1002
{
1000
C
1070
     1
1002
}
1001
GENIUS_GENODEF_13
1002
{
1000
HIER
1070
     0
1002
}
1002
{
1000
MANEDIT
1070
     0
1002
}
1002
{
1000
NOSEL
1070
     0
1002
}
1002
{
1000
BEHIND
1070
     0
1002
}
1002
{
1000
OTHER
1070
     0
1002
}
1002
{
1000
REACTOR
1002
}
1001
GENIUS_GENOBJ-N-REC_13
1002
{
1000
OWNER
1000
GEN
1002
}
  0
MTEXT
  5
53EF2
330
1F
100
AcDbEntity
  8
AM_6
100
AcDbMText
 10
165.0000000000004
 20
80.90000000000008
 30
0.0
 40
3.2
 41
20.0
 71
     5
 72
     5
  1
DEH-38
 73
     1
 44
1.0
1001
ACAD
1000
MTEXTBEGIN
1070
    73
1070
     1
1070
    44
1040
1.0
1070
    74
1070
     0
1000
MTEXTEND
  0
LINE
  5
53EF3
330
1F
100
AcDbEntity
  8
AM_5
100
AcDbLine
 10
187.5000000000004
 20
48.5
 30
0.0
 11
187.5000000000004
 21
8.5
 31
0.0
  0
MTEXT
  5
53EF4
330
1F
100
AcDbEntity
  8
AM_6
100
AcDbMText
 10
171.5000000000004
 20
44.5
 30
0.0
 40
3.2
 41
32.0
 71
     5
 72
     5
  1
E
 73
     1
 44
1.0
1001
ACAD
1000
MTEXTBEGIN
1070
    73
1070
     1
1070
    44
1040
1.0
1070
    74
1070
     0
1000
MTEXTEND
  0
LINE
  5
53EF5
330
1F
100
AcDbEntity
  8
AM_5
100
AcDbLine
 10
171.5000000000004
 20
40.49999999999999
 30
0.0
 11
171.5000000000004
 21
8.5
 31
0.0
  0
MTEXT
  5
53EF6
330
1F
100
AcDbEntity
  8
AM_6
100
AcDbMText
 10
179.5000000000018
 20
36.5
 30
0.0
 40
3.2
 41
16.0
 71
     5
 72
     5
  1
ステンレス
 73
     1
 44
1.0
1001
ACAD
1000
MTEXTBEGIN
1070
    73
1070
     1
1070
    44
1040
1.0
1070
    74
1070
     0
1000
MTEXTEND
  0
MTEXT
  5
53EF7
330
1F
100
AcDbEntity
  8
AM_6
100
AcDbMText
 10
163.5000000000013
 20
36.5
 30
0.0
 40
3.2
 41
16.0
 71
     5
 72
     5
  1
スチール
 73
     1
 44
1.0
1001
ACAD
1000
MTEXTBEGIN
1070
    73
1070
     1
1070
    44
1040
1.0
1070
    74
1070
     0
1000
MTEXTEND
  0
LINE
  5
53EFC
330
1F
100
AcDbEntity
  8
AM_5
100
AcDbLine
 10
219.5000000000005
 20
48.5
 30
0.0
 11
219.5000000000005
 21
8.5
 31
0.0
  0
MTEXT
  5
53EFD
330
1F
100
AcDbEntity
  8
AM_6
100
AcDbMText
 10
203.5000000000005
 20
44.5
 30
0.0
 40
3.2
 41
32.0
 71
     5
 72
     5
  1
F
 73
     1
 44
1.0
1001
ACAD
1000
MTEXTBEGIN
1070
    73
1070
     1
1070
    44
1040
1.0
1070
    74
1070
     0
1000
MTEXTEND
  0
LINE
  5
53EFE
330
1F
100
AcDbEntity
  8
AM_5
100
AcDbLine
 10
203.5000000000005
 20
40.49999999999999
 30
0.0
 11
203.5
 21
8.5
 31
0.0
  0
MTEXT
  5
53EFF
330
1F
100
AcDbEntity
  8
AM_6
100
AcDbMText
 10
211.5000000000018
 20
36.5
 30
0.0
 40
3.2
 41
16.0
 71
     5
 72
     5
  1
ステンレス
 73
     1
 44
1.0
1001
ACAD
1000
MTEXTBEGIN
1070
    73
1070
     1
1070
    44
1040
1.0
1070
    74
1070
     0
1000
MTEXTEND
  0
MTEXT
  5
53F00
330
1F
100
AcDbEntity
  8
AM_6
100
AcDbMText
 10
195.5000000000013
 20
36.5
 30
0.0
 40
3.2
 41
16.0
 71
     5
 72
     5
  1
スチール
 73
     1
 44
1.0
1001
ACAD
1000
MTEXTBEGIN
1070
    73
1070
     1
1070
    44
1040
1.0
1070
    74
1070
     0
1000
MTEXTEND
  0
LINE
  5
53F05
330
1F
100
AcDbEntity
  8
AM_5
100
AcDbLine
 10
219.5000000000005
 20
16.5
 30
0.0
 11
235.5000000000009
 21
16.5
 31
0.0
  0
LINE
  5
53F06
330
1F
100
AcDbEntity
  8
AM_5
100
AcDbLine
 10
235.5000000000009
 20
48.5
 30
0.0
 11
235.5000000000009
 21
8.5
 31
0.0
  0
MTEXT
  5
53F09
330
1F
100
AcDbEntity
  8
AM_6
100
AcDbMText
 10
227.5000000000014
 20
28.5
 30
0.0
 40
3.2
 41
16.0
 71
     5
 72
     5
  1
0.8
 73
     1
 44
1.0
1001
ACAD
1000
MTEXTBEGIN
1070
    73
1070
     1
1070
    44
1040
1.0
1070
    74
1070
     0
1000
MTEXTEND
  0
MTEXT
  5
53F0A
330
1F
100
AcDbEntity
  8
AM_6
100
AcDbMText
 10
227.5000000000014
 20
20.5
 30
0.0
 40
3.2
 41
16.0
 71
     5
 72
     5
  1
1.0
 73
     1
 44
1.0
1001
ACAD
1000
MTEXTBEGIN
1070
    73
1070
     1
1070
    44
1040
1.0
1070
    74
1070
     0
1000
MTEXTEND
  0
MTEXT
  5
53F0B
330
1F
100
AcDbEntity
  8
AM_6
100
AcDbMText
 10
227.5000000000014
 20
12.5
 30
0.0
 40
3.2
 41
16.0
 71
     5
 72
     5
  1
1.2
 73
     1
 44
1.0
1001
ACAD
1000
MTEXTBEGIN
1070
    73
1070
     1
1070
    44
1040
1.0
1070
    74
1070
     0
1000
MTEXTEND
  0
MTEXT
  5
53F0F
330
1F
100
AcDbEntity
  8
AM_6
100
AcDbMText
 10
227.5000000000005
 20
40.49999999999999
 30
0.0
 40
3.2
 41
16.0
 71
     5
 72
     5
  1
G
 73
     1
 44
1.0
1001
ACAD
1000
MTEXTBEGIN
1070
    73
1070
     1
1070
    44
1040
1.0
1070
    74
1070
     0
1000
MTEXTEND
  0
LINE
  5
53F10
330
1F
100
AcDbEntity
  8
AM_5
100
AcDbLine
 10
235.5000000000009
 20
16.5
 30
0.0
 11
251.5000000000009
 21
16.5
 31
0.0
  0
LINE
  5
53F11
330
1F
100
AcDbEntity
  8
AM_5
100
AcDbLine
 10
251.5000000000009
 20
48.5
 30
0.0
 11
251.5000000000009
 21
8.5
 31
0.0
  0
MTEXT
  5
53F14
330
1F
100
AcDbEntity
  8
AM_6
100
AcDbMText
 10
243.5000000000018
 20
28.5
 30
0.0
 40
3.2
 41
16.0
 71
     5
 72
     5
  1
3.8
 73
     1
 44
1.0
1001
ACAD
1000
MTEXTBEGIN
1070
    73
1070
     1
1070
    44
1040
1.0
1070
    74
1070
     0
1000
MTEXTEND
  0
MTEXT
  5
53F15
330
1F
100
AcDbEntity
  8
AM_6
100
AcDbMText
 10
243.5000000000018
 20
20.5
 30
0.0
 40
3.2
 41
16.0
 71
     5
 72
     5
  1
4.4
 73
     1
 44
1.0
1001
ACAD
1000
MTEXTBEGIN
1070
    73
1070
     1
1070
    44
1040
1.0
1070
    74
1070
     0
1000
MTEXTEND
  0
MTEXT
  5
53F16
330
1F
100
AcDbEntity
  8
AM_6
100
AcDbMText
 10
243.5000000000018
 20
12.5
 30
0.0
 40
3.2
 41
16.0
 71
     5
 72
     5
  1
6.6
 73
     1
 44
1.0
1001
ACAD
1000
MTEXTBEGIN
1070
    73
1070
     1
1070
    44
1040
1.0
1070
    74
1070
     0
1000
MTEXTEND
  0
MTEXT
  5
53F1A
330
1F
100
AcDbEntity
  8
AM_6
100
AcDbMText
 10
243.5000000000009
 20
40.49999999999999
 30
0.0
 40
3.2
 41
16.0
 71
     5
 72
     5
  1
%%CH
 73
     1
 44
1.0
1001
ACAD
1000
MTEXTBEGIN
1070
    73
1070
     1
1070
    44
1040
1.0
1070
    74
1070
     0
1000
MTEXTEND
  0
LINE
  5
53F1B
330
1F
100
AcDbEntity
  8
AM_5
100
AcDbLine
 10
251.5000000000009
 20
16.5
 30
0.0
 11
267.5000000000009
 21
16.49999999999977
 31
0.0
  0
LINE
  5
53F1C
330
1F
100
AcDbEntity
  8
AM_5
100
AcDbLine
 10
267.5000000000009
 20
48.5
 30
0.0
 11
267.5000000000009
 21
8.5
 31
0.0
  0
MTEXT
  5
53F1F
330
1F
100
AcDbEntity
  8
AM_6
100
AcDbMText
 10
259.5000000000018
 20
28.5
 30
0.0
 40
3.2
 41
16.0
 71
     5
 72
     5
  1
2
 73
     1
 44
1.0
1001
ACAD
1000
MTEXTBEGIN
1070
    73
1070
     1
1070
    44
1040
1.0
1070
    74
1070
     0
1000
MTEXTEND
  0
MTEXT
  5
53F20
330
1F
100
AcDbEntity
  8
AM_6
100
AcDbMText
 10
259.5000000000018
 20
20.5
 30
0.0
 40
3.2
 41
16.0
 71
     5
 72
     5
  1
2.3
 73
     1
 44
1.0
1001
ACAD
1000
MTEXTBEGIN
1070
    73
1070
     1
1070
    44
1040
1.0
1070
    74
1070
     0
1000
MTEXTEND
  0
MTEXT
  5
53F21
330
1F
100
AcDbEntity
  8
AM_6
100
AcDbMText
 10
259.5000000000018
 20
12.5
 30
0.0
 40
3.2
 41
16.0
 71
     5
 72
     5
  1
4
 73
     1
 44
1.0
1001
ACAD
1000
MTEXTBEGIN
1070
    73
1070
     1
1070
    44
1040
1.0
1070
    74
1070
     0
1000
MTEXTEND
  0
MTEXT
  5
53F25
330
1F
100
AcDbEntity
  8
AM_6
100
AcDbMText
 10
259.5000000000009
 20
40.49999999999999
 30
0.0
 40
3.2
 41
16.0
 71
     5
 72
     5
  1
%%CＩ
 73
     1
 44
1.0
1001
ACAD
1000
MTEXTBEGIN
1070
    73
1070
     1
1070
    44
1040
1.0
1070
    74
1070
     0
1000
MTEXTEND
  0
MTEXT
  5
53F47
330
1F
100
AcDbEntity
  8
AM_6
100
AcDbMText
 10
147.5000000000018
 20
28.5
 30
0.0
 40
3.2
 41
16.0
 71
     5
 72
     5
  1
12.5
 73
     1
 44
1.0
1001
ACAD
1000
MTEXTBEGIN
1070
    73
1070
     1
1070
    44
1040
1.0
1070
    74
1070
     0
1000
MTEXTEND
  0
MTEXT
  5
53F48
330
1F
100
AcDbEntity
  8
AM_6
100
AcDbMText
 10
147.5000000000018
 20
16.5
 30
0.0
 40
3.2
 41
16.0
 71
     5
 72
     5
  1
14
 73
     1
 44
1.0
1001
ACAD
1000
MTEXTBEGIN
1070
    73
1070
     1
1070
    44
1040
1.0
1070
    74
1070
     0
1000
MTEXTEND
  0
MTEXT
  5
53F4A
330
1F
100
AcDbEntity
  8
AM_6
100
AcDbMText
 10
179.5000000000018
 20
28.5
 30
0.0
 40
3.2
 41
16.0
 71
     5
 72
     5
  1
18
 73
     1
 44
1.0
1001
ACAD
1000
MTEXTBEGIN
1070
    73
1070
     1
1070
    44
1040
1.0
1070
    74
1070
     0
1000
MTEXTEND
  0
MTEXT
  5
53F4D
330
1F
100
AcDbEntity
  8
AM_6
100
AcDbMText
 10
211.5000000000018
 20
28.49999999999955
 30
0.0
 40
3.2
 41
16.0
 71
     5
 72
     5
  1
12
 73
     1
 44
1.0
1001
ACAD
1000
MTEXTBEGIN
1070
    73
1070
     1
1070
    44
1040
1.0
1070
    74
1070
     0
1000
MTEXTEND
  0
MTEXT
  5
53F4E
330
1F
100
AcDbEntity
  8
AM_6
100
AcDbMText
 10
211.5000000000018
 20
16.49999999999954
 30
0.0
 40
3.2
 41
16.0
 71
     5
 72
     5
  1
18
 73
     1
 44
1.0
1001
ACAD
1000
MTEXTBEGIN
1070
    73
1070
     1
1070
    44
1040
1.0
1070
    74
1070
     0
1000
MTEXTEND
  0
MTEXT
  5
53F50
330
1F
100
AcDbEntity
  8
AM_6
100
AcDbMText
 10
179.5000000000018
 20
20.5
 30
0.0
 40
3.2
 41
16.0
 71
     5
 72
     5
  1
26
 73
     1
 44
1.0
1001
ACAD
1000
MTEXTBEGIN
1070
    73
1070
     1
1070
    44
1040
1.0
1070
    74
1070
     0
1000
MTEXTEND
  0
MTEXT
  5
53F51
330
1F
100
AcDbEntity
  8
AM_6
100
AcDbMText
 10
179.5000000000018
 20
12.5
 30
0.0
 40
3.2
 41
16.0
 71
     5
 72
     5
  1
28
 73
     1
 44
1.0
1001
ACAD
1000
MTEXTBEGIN
1070
    73
1070
     1
1070
    44
1040
1.0
1070
    74
1070
     0
1000
MTEXTEND
  0
LINE
  5
53F52
330
1F
100
AcDbEntity
  8
AM_5
100
AcDbLine
 10
171.5000000000009
 20
16.5
 30
0.0
 11
187.5000000000014
 21
16.5
 31
0.0
  0
LINE
  5
53F53
330
1F
100
AcDbEntity
  8
AM_5
100
AcDbLine
 10
171.5000000000009
 20
24.50000000000045
 30
0.0
 11
187.5000000000009
 21
24.50000000000045
 31
0.0
  0
LINE
  5
53F54
330
1F
100
AcDbEntity
  8
AM_5
100
AcDbLine
 10
203.5000000000009
 20
24.50000000000069
 30
0.0
 11
219.5000000000009
 21
24.50000000000045
 31
0.0
  0
LINE
  5
53F55
330
1F
100
AcDbEntity
  8
AM_5
100
AcDbLine
 10
219.5000000000009
 20
24.50000000000069
 30
0.0
 11
267.5000000000009
 21
24.50000000000045
 31
0.0
  0
MTEXT
  5
54A89
330
1F
100
AcDbEntity
  8
AM_6
100
AcDbMText
 10
31.49999999999864
 20
236.5
 30
0.0
 40
3.2
 41
70.0
 71
     4
 72
     5
  1
　左右勝手有り。
 73
     1
 44
1.0
1001
ACAD
1000
MTEXTBEGIN
1070
    73
1070
     1
1070
    44
1040
1.0
1070
    74
1070
     0
1000
MTEXTEND
  0
LINE
  5
54A8A
330
1F
100
AcDbEntity
  8
AM_5
100
AcDbLine
 10
139.5000000000009
 20
24.50000000000045
 30
0.0
 11
155.5000000000009
 21
24.50000000000045
 31
0.0
  0
DIMENSION
  5
54B94
102
{ACAD_XDICTIONARY
360
54B9E
102
}
102
{ACAD_REACTORS
330
54BA5
102
}
330
1F
100
AcDbEntity
  8
AM_5
100
AcDbDimension
  2
*D20
 10
259.6286565997265
 20
131.4808954671241
 30
0.0
 11
284.8240010100024
 21
121.8999999999985
 31
0.0
 70
   163
  1
6-%%cJ×%%cKサラ
 71
     5
 42
5.699999999999306
  3
SYS$3
100
AcDbDiametricDimension
 15
264.371343400275
 25
128.3191045328756
 35
0.0
 40
0.0
1001
ACAD
1000
DSTYLE
1002
{
1070
   344
1005
6C4
1070
   342
1005
0
1070
   173
1070
     1
1070
   343
1005
6C4
1070
    41
1040
1.0
1070
   172
1070
     1
1002
}
  0
DIMENSION
  5
5F829
330
1F
100
AcDbEntity
  8
AM_5
100
AcDbDimension
  2
*D21
 10
167.0000000000004
 20
167.9000000000001
 30
0.0
 11
171.1973333333338
 21
170.5000000000001
 31
0.0
 70
    32
  1
%%cＩ　
 71
     5
 42
4.0
  3
SYS$0
100
AcDbAlignedDimension
 13
163.0000000000004
 23
160.9000000000001
 33
0.0
 14
167.0000000000004
 24
160.9000000000001
 34
0.0
100
AcDbRotatedDimension
1001
ACAD
1000
DSTYLE
1002
{
1070
   271
1070
     1
1002
}
  0
MTEXT
  5
5F842
330
1F
100
AcDbEntity
  8
AM_6
100
AcDbMText
 10
195.5000000000013
 20
20.49999999999954
 30
0.0
 40
3.2
 41
16.0
 71
     5
 72
     5
  1
-
 73
     1
 44
1.0
1001
ACAD
1000
MTEXTBEGIN
1070
    73
1070
     1
1070
    44
1040
1.0
1070
    74
1070
     0
1000
MTEXTEND
  0
MTEXT
  5
5F843
330
1F
100
AcDbEntity
  8
AM_6
100
AcDbMText
 10
163.5000000000013
 20
20.49999999999954
 30
0.0
 40
3.2
 41
16.0
 71
     5
 72
     5
  1
-
 73
     1
 44
1.0
1001
ACAD
1000
MTEXTBEGIN
1070
    73
1070
     1
1070
    44
1040
1.0
1070
    74
1070
     0
1000
MTEXTEND
  0
MTEXT
  5
5F844
330
1F
100
AcDbEntity
  8
AM_6
100
AcDbMText
 10
131.5000000000013
 20
20.49999999999954
 30
0.0
 40
3.2
 41
16.0
 71
     5
 72
     5
  1
-
 73
     1
 44
1.0
1001
ACAD
1000
MTEXTBEGIN
1070
    73
1070
     1
1070
    44
1040
1.0
1070
    74
1070
     0
1000
MTEXTEND
  0
LINE
  5
615F9
330
1F
100
AcDbEntity
  8
AM_5
100
AcDbLine
 10
283.5000000000014
 20
24.50000000000023
 30
0.0
 11
299.5000000000014
 21
24.50000000000023
 31
0.0
  0
LINE
  5
615FA
330
1F
100
AcDbEntity
  8
AM_5
100
AcDbLine
 10
283.5000000000014
 20
16.49999999999977
 30
0.0
 11
299.5000000000018
 21
16.49999999999977
 31
0.0
  0
LINE
  5
615FB
330
1F
100
AcDbEntity
  8
AM_5
100
AcDbLine
 10
299.5000000000009
 20
48.49999999999977
 30
0.0
 11
299.5000000000009
 21
8.499999999999772
 31
0.0
  0
MTEXT
  5
615FC
330
1F
100
AcDbEntity
  8
AM_6
100
AcDbMText
 10
283.5000000000009
 20
44.49999999999977
 30
0.0
 40
3.2
 41
32.0
 71
     5
 72
     5
  1
%%CJ
 73
     1
 44
1.0
1001
ACAD
1000
MTEXTBEGIN
1070
    73
1070
     1
1070
    44
1040
1.0
1070
    74
1070
     0
1000
MTEXTEND
  0
LINE
  5
615FD
330
1F
100
AcDbEntity
  8
AM_5
100
AcDbLine
 10
283.5000000000009
 20
40.49999999999977
 30
0.0
 11
283.5000000000009
 21
8.499999999999772
 31
0.0
  0
MTEXT
  5
615FE
330
1F
100
AcDbEntity
  8
AM_6
100
AcDbMText
 10
291.5000000000023
 20
36.49999999999977
 30
0.0
 40
3.2
 41
16.0
 71
     5
 72
     5
  1
ステンレス
 73
     1
 44
1.0
1001
ACAD
1000
MTEXTBEGIN
1070
    73
1070
     1
1070
    44
1040
1.0
1070
    74
1070
     0
1000
MTEXTEND
  0
MTEXT
  5
615FF
330
1F
100
AcDbEntity
  8
AM_6
100
AcDbMText
 10
275.5000000000018
 20
36.49999999999977
 30
0.0
 40
3.2
 41
16.0
 71
     5
 72
     5
  1
スチール
 73
     1
 44
1.0
1001
ACAD
1000
MTEXTBEGIN
1070
    73
1070
     1
1070
    44
1040
1.0
1070
    74
1070
     0
1000
MTEXTEND
  0
MTEXT
  5
61600
330
1F
100
AcDbEntity
  8
AM_6
100
AcDbMText
 10
291.5000000000023
 20
28.49999999999977
 30
0.0
 40
3.2
 41
16.0
 71
     5
 72
     5
  1
3.2
 73
     1
 44
1.0
1001
ACAD
1000
MTEXTBEGIN
1070
    73
1070
     1
1070
    44
1040
1.0
1070
    74
1070
     0
1000
MTEXTEND
  0
MTEXT
  5
61601
330
1F
100
AcDbEntity
  8
AM_6
100
AcDbMText
 10
291.5000000000023
 20
20.49999999999977
 30
0.0
 40
3.2
 41
16.0
 71
     5
 72
     5
  1
3.6
 73
     1
 44
1.0
1001
ACAD
1000
MTEXTBEGIN
1070
    73
1070
     1
1070
    44
1040
1.0
1070
    74
1070
     0
1000
MTEXTEND
  0
MTEXT
  5
61602
330
1F
100
AcDbEntity
  8
AM_6
100
AcDbMText
 10
291.5000000000023
 20
12.49999999999977
 30
0.0
 40
3.2
 41
16.0
 71
     5
 72
     5
  1
3.5
 73
     1
 44
1.0
1001
ACAD
1000
MTEXTBEGIN
1070
    73
1070
     1
1070
    44
1040
1.0
1070
    74
1070
     0
1000
MTEXTEND
  0
MTEXT
  5
61603
330
1F
100
AcDbEntity
  8
AM_6
100
AcDbMText
 10
275.5000000000018
 20
20.49999999999932
 30
0.0
 40
3.2
 41
16.0
 71
     5
 72
     5
  1
-
 73
     1
 44
1.0
1001
ACAD
1000
MTEXTBEGIN
1070
    73
1070
     1
1070
    44
1040
1.0
1070
    74
1070
     0
1000
MTEXTEND
  0
LINE
  5
61604
330
1F
100
AcDbEntity
  8
AM_5
100
AcDbLine
 10
315.5000000000014
 20
24.50000000000045
 30
0.0
 11
331.5000000000014
 21
24.50000000000045
 31
0.0
  0
LINE
  5
61605
330
1F
100
AcDbEntity
  8
AM_5
100
AcDbLine
 10
315.5000000000014
 20
16.5
 30
0.0
 11
331.5000000000018
 21
16.5
 31
0.0
  0
LINE
  5
61606
330
1F
100
AcDbEntity
  8
AM_0
100
AcDbLine
 10
331.5000000000009
 20
48.5
 30
0.0
 11
331.5000000000009
 21
8.5
 31
0.0
  0
MTEXT
  5
61607
330
1F
100
AcDbEntity
  8
AM_6
100
AcDbMText
 10
315.5000000000009
 20
44.5
 30
0.0
 40
3.2
 41
32.0
 71
     5
 72
     5
  1
%%CK
 73
     1
 44
1.0
1001
ACAD
1000
MTEXTBEGIN
1070
    73
1070
     1
1070
    44
1040
1.0
1070
    74
1070
     0
1000
MTEXTEND
  0
LINE
  5
61608
330
1F
100
AcDbEntity
  8
AM_5
100
AcDbLine
 10
315.5000000000009
 20
40.49999999999999
 30
0.0
 11
315.5000000000009
 21
8.5
 31
0.0
  0
MTEXT
  5
61609
330
1F
100
AcDbEntity
  8
AM_6
100
AcDbMText
 10
323.5000000000023
 20
36.5
 30
0.0
 40
3.2
 41
16.0
 71
     5
 72
     5
  1
ステンレス
 73
     1
 44
1.0
1001
ACAD
1000
MTEXTBEGIN
1070
    73
1070
     1
1070
    44
1040
1.0
1070
    74
1070
     0
1000
MTEXTEND
  0
MTEXT
  5
6160A
330
1F
100
AcDbEntity
  8
AM_6
100
AcDbMText
 10
307.5000000000018
 20
36.5
 30
0.0
 40
3.2
 41
16.0
 71
     5
 72
     5
  1
スチール
 73
     1
 44
1.0
1001
ACAD
1000
MTEXTBEGIN
1070
    73
1070
     1
1070
    44
1040
1.0
1070
    74
1070
     0
1000
MTEXTEND
  0
MTEXT
  5
6160B
330
1F
100
AcDbEntity
  8
AM_6
100
AcDbMText
 10
323.5000000000023
 20
28.5
 30
0.0
 40
3.2
 41
16.0
 71
     5
 72
     5
  1
4.2
 73
     1
 44
1.0
1001
ACAD
1000
MTEXTBEGIN
1070
    73
1070
     1
1070
    44
1040
1.0
1070
    74
1070
     0
1000
MTEXTEND
  0
MTEXT
  5
6160C
330
1F
100
AcDbEntity
  8
AM_6
100
AcDbMText
 10
323.5000000000023
 20
20.5
 30
0.0
 40
3.2
 41
16.0
 71
     5
 72
     5
  1
5.6
 73
     1
 44
1.0
1001
ACAD
1000
MTEXTBEGIN
1070
    73
1070
     1
1070
    44
1040
1.0
1070
    74
1070
     0
1000
MTEXTEND
  0
MTEXT
  5
6160D
330
1F
100
AcDbEntity
  8
AM_6
100
AcDbMText
 10
323.5000000000023
 20
12.5
 30
0.0
 40
3.2
 41
16.0
 71
     5
 72
     5
  1
6
 73
     1
 44
1.0
1001
ACAD
1000
MTEXTBEGIN
1070
    73
1070
     1
1070
    44
1040
1.0
1070
    74
1070
     0
1000
MTEXTEND
  0
MTEXT
  5
6160E
330
1F
100
AcDbEntity
  8
AM_6
100
AcDbMText
 10
307.5000000000018
 20
20.49999999999954
 30
0.0
 40
3.2
 41
16.0
 71
     5
 72
     5
  1
-
 73
     1
 44
1.0
1001
ACAD
1000
MTEXTBEGIN
1070
    73
1070
     1
1070
    44
1040
1.0
1070
    74
1070
     0
1000
MTEXTEND
  0
LINE
  5
6160F
330
1F
100
AcDbEntity
  8
AM_5
100
AcDbLine
 10
267.500000000001
 20
40.49999999999977
 30
0.0
 11
331.5000000000009
 21
40.49999999999977
 31
0.0
  0
ENDSEC
  0
SECTION
  2
OBJECTS
  0
DICTIONARY
  5
C
330
0
100
AcDbDictionary
281
     1
  3
ACAD_COLOR
350
C45B
  3
ACAD_GROUP
350
D
  3
ACAD_LAYOUT
350
1A
  3
ACAD_MATERIAL
350
C446
  3
ACAD_MLINESTYLE
350
17
  3
ACAD_PLOTSETTINGS
350
19
  3
ACAD_PLOTSTYLENAME
350
E
  3
ACAD_TABLESTYLE
350
C45C
  3
ACAD_VISUALSTYLE
350
C44A
  3
AcadDim
350
4DE64
  3
AcAsAppObject
350
3DA1
  3
ACASGREF_MASTER
350
3DE9
  3
AcDbVariableDictionary
350
34
  3
AcmDictionary
350
47
  3
AD_GREF_MODULE
350
3DEA
  3
AD_MAPI_MODULE
350
3E06
  3
AMG
350
2B
  3
AMGSNAPSETTINGS
350
7D
  3
ASE_INDEX_DICTIONARY
350
6169A
  3
DWGPROPS
350
640B6
  3
MAPISURF_MODULE
350
3DEB
  0
DICTIONARY
  5
3F95
330
2
100
AcDbDictionary
280
     1
281
     1
  3
ACAD_LAYERFILTERS
360
CB0C
  3
ACAD_LAYERSTATES
360
3F96
  3
ACLYDICTIONARY
360
CB0B
  3
AMLAYER_GROUPCOLORS
360
CB2F
  0
DICTIONARY
  5
8A
330
1F
100
AcDbDictionary
280
     1
281
     1
  3
ACAD_SORTENTS
360
14A89
  0
DICTIONARY
  5
53BDF
330
53BD2
100
AcDbDictionary
280
     1
281
     1
  3
ACAD_DIMASSOC
360
53BE0
  0
DICTIONARY
  5
53C00
330
53BF3
100
AcDbDictionary
280
     1
281
     1
  3
ACAD_DIMASSOC
360
53C01
  0
DICTIONARY
  5
53C18
330
53C0B
100
AcDbDictionary
280
     1
281
     1
  3
ACAD_DIMASSOC
360
53C19
  0
DICTIONARY
  5
53C3A
330
53C30
100
AcDbDictionary
280
     1
281
     1
  3
ACAD_DIMASSOC
360
53C41
  0
DICTIONARY
  5
53D8B
330
53D81
100
AcDbDictionary
280
     1
281
     1
  3
ACAD_DIMASSOC
360
53D92
  0
DICTIONARY
  5
53DE1
330
53DD4
100
AcDbDictionary
280
     1
281
     1
  3
ACAD_DIMASSOC
360
53DE2
  0
DICTIONARY
  5
53E02
330
53DF5
100
AcDbDictionary
280
     1
281
     1
  3
ACAD_DIMASSOC
360
53E03
  0
DICTIONARY
  5
54B9E
330
54B94
100
AcDbDictionary
280
     1
281
     1
  3
ACAD_DIMASSOC
360
54BA5
  0
DICTIONARY
  5
C45B
102
{ACAD_REACTORS
330
C
102
}
330
C
100
AcDbDictionary
281
     1
  0
DICTIONARY
  5
D
102
{ACAD_REACTORS
330
C
102
}
330
C
100
AcDbDictionary
281
     1
  0
DICTIONARY
  5
1A
102
{ACAD_REACTORS
330
C
102
}
330
C
100
AcDbDictionary
281
     1
  3
Model
350
22
  3
ﾚｲｱｳﾄ1
350
1E
  3
ﾚｲｱｳﾄ2
350
26
  0
DICTIONARY
  5
C446
102
{ACAD_REACTORS
330
C
102
}
330
C
100
AcDbDictionary
281
     1
  3
ByBlock
350
C448
  3
ByLayer
350
C447
  3
Global
350
C449
  0
DICTIONARY
  5
17
102
{ACAD_REACTORS
330
C
102
}
330
C
100
AcDbDictionary
281
     1
  3
Standard
350
18
  0
DICTIONARY
  5
19
102
{ACAD_REACTORS
330
C
102
}
330
C
100
AcDbDictionary
281
     1
  3
-00
350
C85D
  0
ACDBDICTIONARYWDFLT
  5
E
102
{ACAD_REACTORS
330
C
102
}
330
C
100
AcDbDictionary
281
     1
  3
Normal
350
F
100
AcDbDictionaryWithDefault
340
F
  0
DICTIONARY
  5
C45C
102
{ACAD_REACTORS
330
C
102
}
330
C
100
AcDbDictionary
281
     1
  3
Standard
350
C45D
  0
DICTIONARY
  5
C44A
102
{ACAD_REACTORS
330
C
102
}
330
C
100
AcDbDictionary
281
     1
  3
2dWireframe
350
C450
  3
3D Hidden
350
C452
  3
3dWireframe
350
C451
  3
Basic
350
C44F
  3
Brighten
350
C456
  3
ColorChange
350
C45A
  3
Conceptual
350
C453
  3
Dim
350
C455
  3
Facepattern
350
C459
  3
Flat
350
C44B
  3
FlatWithEdges
350
C44C
  3
Gouraud
350
C44D
  3
GouraudWithEdges
350
C44E
  3
Linepattern
350
C458
  3
Realistic
350
C454
  3
Thicken
350
C457
  0
XRECORD
  5
4DE64
102
{ACAD_REACTORS
330
C
102
}
330
C
100
AcDbXrecord
280
     1
 90
   990106
  3

 60
     0
 61
     0
 62
     1
 63
     3
 64
     0
 65
     0
 66
     0
 67
     3
 68
     1
 69
     0
 70
     0
 71
     0
 72
     0
 40
0.0
170
     0
  0
ACAD_PROXY_OBJECT
  5
3DA1
102
{ACAD_REACTORS
330
C
102
}
330
C
100
AcDbProxyObject
 90
      499
 91
      576
 95
   720919
 70
     0
 93
       10
310
407F
 94
        0
1001
ACAD
1000
AcRTDxfName
1000
ASAPP
  0
ACAD_PROXY_OBJECT
  5
3DE9
102
{ACAD_REACTORS
330
C
102
}
330
C
100
AcDbProxyObject
 90
      499
 91
      581
 95
   720919
 70
     0
 93
       34
310
010000407F
 94
        0
1001
ACAD
1000
AcRTDxfName
1000
ACASGREFMASTER
  0
DICTIONARY
  5
34
102
{ACAD_REACTORS
330
C
102
}
330
C
100
AcDbDictionary
281
     1
  3
CTABLESTYLE
350
C4A2
  3
DIMASSOC
350
AC85
  3
INDEXCTL
350
35
  3
SORTENTS
350
194C
  0
DICTIONARY
  5
47
102
{ACAD_REACTORS
330
C
102
}
330
C
100
AcDbDictionary
281
     1
  3
AcmBOM
350
7E8
  3
AcmStdDictionary
350
4C
  3
AMDTSECTSYM_ARROWCOLOR
350
C487
  0
ACAD_PROXY_OBJECT
  5
3DEA
102
{ACAD_REACTORS
330
C
102
}
330
C
100
AcDbProxyObject
 90
      499
 91
      582
 95
   720919
 70
     0
 93
      114
310
00000043800000000000000000003F
 94
        0
1001
ACAD
1000
AcRTDxfName
1000
ACADGREFMODULE
  0
ACAD_PROXY_OBJECT
  5
3E06
102
{ACAD_REACTORS
330
C
102
}
330
C
100
AcDbProxyObject
 90
      499
 91
      594
 95
   720919
 70
     0
 93
       34
310
05000044FF
 94
        0
1001
ACAD
1000
AcRTDxfName
1000
MAPIADMODULE
  0
DICTIONARY
  5
2B
102
{ACAD_REACTORS
330
C
102
}
330
C
100
AcDbDictionary
281
     1
  0
DICTIONARY
  5
7D
102
{ACAD_REACTORS
330
C
102
}
330
C
100
AcDbDictionary
281
     1
  0
DICTIONARY
  5
6169A
102
{ACAD_REACTORS
330
C
102
}
330
C
100
AcDbDictionary
281
     1
  3
ASEBlockHierarchyIndexRecord
350
6169B
1001
DCO15
1040
1758021493.171
  0
XRECORD
  5
640B6
102
{ACAD_REACTORS
330
C
102
}
330
C
100
AcDbXrecord
280
     1
  1
DWGPROPS COOKIE
  2

  3

  4

  6

  7

  8
Administrator
  9

300
AmdtFileType=84
301
=
302
=
303
=
304
=
305
=
306
=
307
=
308
=
309
=
 40
9.409529085648149
 41
2452002.615067627
 42
2456267.603770255
  1

 90
        1
  0
ACAD_PROXY_OBJECT
  5
3DEB
102
{ACAD_REACTORS
330
C
102
}
330
C
100
AcDbProxyObject
 90
      499
 91
      583
 95
   720919
 70
     0
 93
        8
310
047E
 94
        0
1001
ACAD
1000
AcRTDxfName
1000
AMDTMAPISURFMOUDULE
  0
DICTIONARY
  5
CB0C
102
{ACAD_REACTORS
330
3F95
102
}
330
3F95
100
AcDbDictionary
281
     1
  3
50
350
CB0E
  0
DICTIONARY
  5
3F96
102
{ACAD_REACTORS
330
3F95
102
}
330
3F95
100
AcDbDictionary
281
     1
  3
20011210
350
3FB7
  0
DICTIONARY
  5
CB0B
102
{ACAD_REACTORS
330
3F95
102
}
330
3F95
100
AcDbDictionary
281
     1
  3
*A1
350
CB0D
1001
ACAD
1000
<All
  0
DICTIONARY
  5
CB2F
102
{ACAD_REACTORS
330
3F95
102
}
330
3F95
100
AcDbDictionary
280
     1
281
     1
  0
SORTENTSTABLE
  5
14A89
102
{ACAD_REACTORS
330
8A
102
}
330
8A
100
AcDbSortentsTable
330
1F
331
53F4A
  5
53F4E
331
53F52
  5
539C7
331
53DD4
  5
53EEE
331
5F829
  5
5F844
331
53F0B
  5
53F11
331
54A8A
  5
54B84
331
533AD
  5
533AD
331
5333E
  5
5333E
331
539AA
  5
539AA
331
533B5
  5
533B5
331
539B2
  5
539B2
331
539BA
  5
539BA
331
5334E
  5
5334E
331
533BD
  5
533BD
331
53B11
  5
53B14
331
539C2
  5
539C2
331
5F843
  5
5F847
331
615FB
  5
615FB
331
53B21
  5
53B24
331
53B29
  5
53B36
331
53F1B
  5
53F20
331
533C3
  5
533C3
331
539CA
  5
539CD
331
53EF4
  5
53EF7
331
533CB
  5
533CB
331
53366
  5
53366
331
539D2
  5
539D5
331
539DA
  5
539DD
331
539A3
  5
539A3
331
53337
  5
53337
331
533A6
  5
533A6
331
61603
  5
61603
331
6160B
  5
6160B
331
53EFC
  5
53EFF
331
53F53
  5
539C3
331
533AE
  5
533AE
331
5333F
  5
5333F
331
539AB
  5
539AB
331
533B6
  5
533B6
331
539B3
  5
539B3
331
53B12
  5
53B15
331
533BE
  5
533BE
331
5334F
  5
5334F
331
539BB
  5
539BB
331
53357
  5
53357
331
539C3
  5
539C6
331
5F844
  5
5F848
331
615FC
  5
615FC
331
53DF5
  5
53EEF
331
53B22
  5
53B25
331
53F14
  5
53F1A
331
53F1C
  5
53F21
331
53B2A
  5
53B64
331
53EED
  5
53EF0
331
533C4
  5
533C4
331
5335F
  5
5335F
331
539CB
  5
539CE
331
53EF5
  5
53EFC
331
533CC
  5
533CC
331
53367
  5
53367
331
539D3
  5
539D6
331
539DB
  5
539DE
331
533A7
  5
533A7
331
53A03
  5
53A2E
331
61604
  5
61604
331
6160C
  5
6160C
331
53C30
  5
53CEC
331
53EFD
  5
53F00
331
53F05
  5
53F0A
331
53F54
  5
539C5
331
53338
  5
53338
331
533AF
  5
533AF
331
53340
  5
53340
331
539AC
  5
539AC
331
54B94
  5
54B94
331
533B7
  5
533B7
331
539B4
  5
539B4
331
53B13
  5
53B16
331
533BF
  5
533BF
331
539BC
  5
539BC
331
615FD
  5
615FD
331
53F15
  5
53F1B
331
53B23
  5
53B26
331
53BD2
  5
53C30
331
53B2B
  5
53BB3
331
53358
  5
53358
331
53EEE
  5
53EF1
331
53F25
  5
53F48
331
539CC
  5
539CF
331
53360
  5
53360
331
533C5
  5
533C5
331
53EF6
  5
53EFD
331
533CD
  5
533CD
331
539D4
  5
539D7
331
539DC
  5
53A03
331
53A04
  5
53A2F
331
61605
  5
61605
331
6160D
  5
6160D
331
53EFE
  5
53F05
331
53F4D
  5
53F50
331
53F55
  5
53F55
331
53F06
  5
53F0B
331
53339
  5
53339
331
533A8
  5
533A8
331
539AD
  5
539AD
331
53341
  5
53341
331
533B0
  5
533B0
331
533B8
  5
533B8
331
539B5
  5
539B5
331
53B14
  5
53B17
331
539BD
  5
539BD
331
539C5
  5
539C8
331
615FE
  5
615FE
331
53BB3
  5
53C0B
331
53F16
  5
53F1C
331
53B24
  5
53B27
331
53359
  5
53359
331
53EEF
  5
53EF2
331
53361
  5
53361
331
533C6
  5
533C6
331
539CD
  5
539D0
331
53EF7
  5
53EFE
331
539D5
  5
539D8
331
533CE
  5
533CE
331
539DD
  5
53A04
331
53332
  5
53332
331
53A05
  5
53A30
331
61606
  5
61606
331
6160E
  5
6160E
331
53EFF
  5
53F06
331
53B64
  5
53BF3
331
53BF3
  5
53C4B
331
53F4E
  5
53F51
331
5333A
  5
5333A
331
533A9
  5
533A9
331
53F0F
  5
53F14
331
539AE
  5
539AE
331
53342
  5
53342
331
539B6
  5
539B6
331
5334A
  5
5334A
331
533B9
  5
533B9
331
53B15
  5
53B18
331
539BE
  5
539BE
331
539C6
  5
539C9
331
615FF
  5
615FF
331
53D49
  5
53DF5
331
53C0B
  5
53CEB
331
53B25
  5
53B28
331
53F1F
  5
53F25
331
53D81
  5
53EED
331
5335A
  5
5335A
331
53EF0
  5
53EF3
331
539CE
  5
539D1
331
53F47
  5
53F4A
331
539D6
  5
539D9
331
5336A
  5
5336A
331
533CF
  5
533CF
331
533A2
  5
533A2
331
53333
  5
53333
331
539DE
  5
53A05
331
61607
  5
61607
331
6160F
  5
6160F
331
53F00
  5
53F09
331
5333B
  5
5333B
331
533AA
  5
533AA
331
53C4B
  5
53CED
331
53A2E
  5
53B11
331
53343
  5
53343
331
533B2
  5
533B2
331
539AF
  5
539AF
331
5334B
  5
5334B
331
533BA
  5
533BA
331
539BF
  5
539BF
331
53B16
  5
53B1E
331
539C7
  5
539CA
331
53B1E
  5
53B21
331
53F10
  5
53F15
331
53B26
  5
53B29
331
53CEB
  5
53D2F
331
53F20
  5
53F26
331
533C0
  5
533C0
331
5335B
  5
5335B
331
53EF1
  5
53EF4
331
53B36
  5
53BD2
331
539CF
  5
539D2
331
53363
  5
53363
331
539D7
  5
539DA
331
5336B
  5
5336B
331
533D0
  5
533D0
331
61600
  5
61600
331
61608
  5
61608
331
53F48
  5
53F4C
331
53F50
  5
53F53
331
53F09
  5
53F0F
331
533AB
  5
533AB
331
5333C
  5
5333C
331
539A8
  5
539A8
331
53344
  5
53344
331
539B0
  5
539B0
331
53A2F
  5
53B12
331
539B8
  5
539B8
331
5334C
  5
5334C
331
533BB
  5
533BB
331
53354
  5
53354
331
539C0
  5
539C0
331
53B17
  5
53B1F
331
615F9
  5
615F9
331
53F11
  5
53F16
331
53B1F
  5
53B22
331
53B27
  5
53B2A
331
53CEC
  5
53D49
331
53F21
  5
53F47
331
533C1
  5
533C1
331
539C8
  5
539CB
331
53EF2
  5
53EF5
331
533C9
  5
533C9
331
53364
  5
53364
331
539D0
  5
539D3
331
539D8
  5
539DB
331
533A4
  5
533A4
331
61601
  5
61601
331
61609
  5
61609
331
53F51
  5
53F54
331
53F0A
  5
53F10
331
54A89
  5
54A8A
331
533AC
  5
533AC
331
5333D
  5
5333D
331
539A9
  5
539A9
331
539B1
  5
539B1
331
533B4
  5
533B4
331
53A30
  5
53B13
331
539B9
  5
539B9
331
5334D
  5
5334D
331
533BC
  5
533BC
331
53355
  5
53355
331
539C1
  5
539C1
331
5F842
  5
5F846
331
615FA
  5
615FA
331
53B18
  5
53B20
331
53B20
  5
53B23
331
53B28
  5
53B2B
331
53CED
  5
53D81
331
53F1A
  5
53F1F
331
533C2
  5
533C2
331
539C9
  5
539CC
331
53EF3
  5
53EF6
331
533CA
  5
533CA
331
539D1
  5
539D4
331
539D9
  5
539DC
331
539A2
  5
539A2
331
53336
  5
53336
331
61602
  5
61602
331
6160A
  5
6160A
  0
DIMASSOC
  5
53BE0
102
{ACAD_REACTORS
330
53BDF
102
}
330
53BDF
100
AcDbDimAssoc
330
53BD2
 90
        3
 70
     0
 71
     0
  1
AcDbOsnapPointRef
 72
    13
331
53343
 73
     0
 91
        0
 40
0.0
 10
0.0
 20
0.0
 30
2.000000000000000E+50
 75
     0
  1
AcDbOsnapPointRef
 72
     1
331
5334D
 73
     0
 91
        0
 40
0.0
 10
0.0
 20
0.0
 30
2.000000000000000E+50
 75
     0
  0
DIMASSOC
  5
53C01
102
{ACAD_REACTORS
330
53C00
102
}
330
53C00
100
AcDbDimAssoc
330
53BF3
 90
        3
 70
     0
 71
     0
  1
AcDbOsnapPointRef
 72
     1
331
53B29
 73
     0
 91
        0
 40
0.0
 10
0.0
 20
0.0
 30
2.000000000000000E+50
 75
     0
  1
AcDbOsnapPointRef
 72
     1
331
53B2B
 73
     0
 91
        0
 40
0.0
 10
0.0
 20
0.0
 30
2.000000000000000E+50
 75
     0
  0
DIMASSOC
  5
53C19
102
{ACAD_REACTORS
330
53C18
102
}
330
53C18
100
AcDbDimAssoc
330
53C0B
 90
        3
 70
     0
 71
     0
  1
AcDbOsnapPointRef
 72
     1
331
53B29
 73
     0
 91
        0
 40
0.0
 10
0.0
 20
0.0
 30
2.000000000000000E+50
 75
     0
  1
AcDbOsnapPointRef
 72
     1
331
53B27
 73
     0
 91
        0
 40
0.0
 10
0.0
 20
0.0
 30
2.000000000000000E+50
 75
     0
  0
DIMASSOC
  5
53C41
102
{ACAD_REACTORS
330
53C3A
102
}
330
53C3A
100
AcDbDimAssoc
330
53C30
 90
        2
 70
     0
 71
     0
  1
AcDbOsnapPointRef
 72
     3
331
53358
 73
     2
 91
        0
 40
0.0
 10
0.0
 20
0.0
 30
0.0
 75
     0
  0
DIMASSOC
  5
53D92
102
{ACAD_REACTORS
330
53D8B
102
}
330
53D8B
100
AcDbDimAssoc
330
53D81
 90
        2
 70
     0
 71
     0
  1
AcDbOsnapPointRef
 72
     3
331
533D0
 73
     2
 91
        0
 40
0.0
 10
0.0
 20
0.0
 30
0.0
 75
     0
  0
DIMASSOC
  5
53DE2
102
{ACAD_REACTORS
330
53DE1
102
}
330
53DE1
100
AcDbDimAssoc
330
53DD4
 90
        3
 70
     0
 71
     0
  1
AcDbOsnapPointRef
 72
     1
331
53B2A
 73
     0
 91
        0
 40
0.0
 10
0.0
 20
0.0
 30
2.000000000000000E+50
 75
     0
  1
AcDbOsnapPointRef
 72
     1
331
53B24
 73
     0
 91
        0
 40
0.0
 10
0.0
 20
0.0
 30
2.000000000000000E+50
 75
     0
  0
DIMASSOC
  5
53E03
102
{ACAD_REACTORS
330
53E02
102
}
330
53E02
100
AcDbDimAssoc
330
53DF5
 90
        3
 70
     0
 71
     0
  1
AcDbOsnapPointRef
 72
     1
331
53B28
 73
     0
 91
        0
 40
0.0
 10
0.0
 20
0.0
 30
2.000000000000000E+50
 75
     0
  1
AcDbOsnapPointRef
 72
     1
331
53B22
 73
     0
 91
        0
 40
0.0
 10
0.0
 20
0.0
 30
2.000000000000000E+50
 75
     0
  0
DIMASSOC
  5
54BA5
102
{ACAD_REACTORS
330
54B9E
102
}
330
54B9E
100
AcDbDimAssoc
330
54B94
 90
        2
 70
     0
 71
     0
  1
AcDbOsnapPointRef
 72
     3
331
5336A
 73
     2
 91
        0
 40
0.0
 10
0.0
 20
0.0
 30
0.0
 75
     0
  0
LAYOUT
  5
22
102
{ACAD_XDICTIONARY
360
640B9
102
}
102
{ACAD_REACTORS
330
1A
102
}
330
1A
100
AcDbPlotSettings
  1

  2
Adobe PDF
  4
A4
  6

 40
3.174999952316284
 41
3.174999952316284
 42
3.175003051757812
 43
3.17498779296875
 44
209.9733276367187
 45
297.0318298339844
 46
0.0000000000000142
 47
1.364832920257583
 48
-0.0000000000002274
 49
-4693.0
140
419.9999999999995
141
-4396.0
142
1.0
143
1.458575536647462
 70
  3764
 72
     1
 73
     1
 74
     4
  7
monochrome.ctb
 75
     0
147
0.6856004196385342
148
0.0000000000002274
149
4693.0
100
AcDbLayout
  1
Model
 70
     1
 71
     0
 10
0.0
 20
0.0
 11
12.0
 21
9.0
 12
0.0
 22
0.0
 32
0.0
 14
0.0
 24
0.0
 34
0.0
 15
0.0
 25
0.0
 35
0.0
146
0.0
 13
0.0
 23
0.0
 33
0.0
 16
1.0
 26
0.0
 36
0.0
 17
0.0
 27
1.0
 37
0.0
 76
     0
330
1F
331
C444
1001
ACAD_PSEXT
1000
Adobe PDF
1000
Adobe PDF Converter
1000
My Documents\*.pdf
1000

1070
     0
  0
LAYOUT
  5
1E
102
{ACAD_XDICTIONARY
360
640B7
102
}
102
{ACAD_REACTORS
330
1A
102
}
330
1A
100
AcDbPlotSettings
  1

  2
\\ML370\XEROX
  4
A4
  6

 40
3.174999952316284
 41
3.174999952316284
 42
3.175003051757812
 43
3.17498779296875
 44
209.8674926757813
 45
296.6719970703125
 46
0.0
 47
0.0
 48
0.0
 49
0.0
140
0.0
141
0.0
142
1.0
143
1.0
 70
   688
 72
     1
 73
     1
 74
     5
  7
monochrome.ctb
 75
    16
147
1.0
148
0.0
149
0.0
100
AcDbLayout
  1
ﾚｲｱｳﾄ1
 70
     1
 71
     1
 10
-3.17498779296875
 20
-3.174999952316284
 11
293.4970092773438
 21
206.692492723465
 12
0.0
 22
0.0
 32
0.0
 14
1.000000000000000E+20
 24
1.000000000000000E+20
 34
1.000000000000000E+20
 15
-1.000000000000000E+20
 25
-1.000000000000000E+20
 35
-1.000000000000000E+20
146
0.0
 13
0.0
 23
0.0
 33
0.0
 16
1.0
 26
0.0
 36
0.0
 17
0.0
 27
1.0
 37
0.0
 76
     0
330
1B
  0
LAYOUT
  5
26
102
{ACAD_XDICTIONARY
360
640BB
102
}
102
{ACAD_REACTORS
330
1A
102
}
330
1A
100
AcDbPlotSettings
  1

  2
\\ML370\XEROX
  4

  6

 40
0.0
 41
0.0
 42
0.0
 43
0.0
 44
0.0
 45
0.0
 46
0.0
 47
0.0
 48
0.0
 49
0.0
140
0.0
141
0.0
142
1.0
143
1.0
 70
   688
 72
     0
 73
     0
 74
     5
  7
monochrome.ctb
 75
    16
147
1.0
148
0.0
149
0.0
100
AcDbLayout
  1
ﾚｲｱｳﾄ2
 70
     1
 71
     2
 10
0.0
 20
0.0
 11
12.0
 21
9.0
 12
0.0
 22
0.0
 32
0.0
 14
0.0
 24
0.0
 34
0.0
 15
0.0
 25
0.0
 35
0.0
146
0.0
 13
0.0
 23
0.0
 33
0.0
 16
1.0
 26
0.0
 36
0.0
 17
0.0
 27
1.0
 37
0.0
 76
     0
330
23
  0
MATERIAL
  5
C448
102
{ACAD_XDICTIONARY
360
640BF
102
}
102
{ACAD_REACTORS
330
C446
102
}
330
C446
100
AcDbMaterial
  1
ByBlock
  0
MATERIAL
  5
C447
102
{ACAD_XDICTIONARY
360
640BD
102
}
102
{ACAD_REACTORS
330
C446
102
}
330
C446
100
AcDbMaterial
  1
ByLayer
  0
MATERIAL
  5
C449
102
{ACAD_XDICTIONARY
360
640C1
102
}
102
{ACAD_REACTORS
330
C446
102
}
330
C446
100
AcDbMaterial
  1
Global
  0
MLINESTYLE
  5
18
102
{ACAD_REACTORS
330
17
102
}
330
17
100
AcDbMlineStyle
  2
STANDARD
 70
     0
  3

 62
   256
 51
90.0
 52
90.0
 71
     2
 49
0.5
 62
   256
  6
BYLAYER
 49
-0.5
 62
   256
  6
BYLAYER
  0
PLOTSETTINGS
  5
C85D
102
{ACAD_XDICTIONARY
360
640C5
102
}
102
{ACAD_REACTORS
330
19
102
}
330
19
100
AcDbPlotSettings
  1
-00
  2
RICOH imagio Wide 7040e RP-GL/2
  4
A3
  6
AM_VIEW1
 40
5.069416522979736
 41
7.228392601013183
 42
5.23870849609375
 43
7.05908203125
 44
419.9889831542968
 45
296.9683227539062
 46
-5.159570932388305
 47
-7.159575939178466
 48
347.0000006405867
 49
-0.0000003719120514
140
767.0000006405866
141
296.9999996280879
142
1.0
143
1.0
 70
 11956
 72
     1
 73
     0
 74
     4
  7
monochrome.ctb
 75
    16
147
1.0
148
-347.0000006405867
149
0.0000003719120514
1001
ACAD_PSEXT
1000
RICOH imagio Wide 7040e RP-GL/2
1000
RICOH imagio Wide 7040e RP-GL/2
1000
\\ADMINISTRATOR
1000
RP-GL/2 Driver (Windows 2000/XP/Server 2003)
1070
     0
  0
ACDBPLACEHOLDER
  5
F
102
{ACAD_REACTORS
330
E
102
}
330
E
  0
TABLESTYLE
  5
C45D
102
{ACAD_XDICTIONARY
360
640C3
102
}
102
{ACAD_REACTORS
330
C45C
102
}
330
C45C
100
AcDbTableStyle
  3
Standard
 70
     0
 71
     0
 40
1.5
 41
1.5
280
     0
281
     0
  7
STANDARD
140
4.5
170
     2
 62
     0
 63
     7
283
     0
274
    -2
284
     1
 64
     0
275
    -2
285
     1
 65
     0
276
    -2
286
     1
 66
     0
277
    -2
287
     1
 67
     0
278
    -2
288
     1
 68
     0
279
    -2
289
     1
 69
     0
  7
STANDARD
140
6.0
170
     5
 62
     0
 63
     7
283
     0
274
    -2
284
     1
 64
     0
275
    -2
285
     1
 65
     0
276
    -2
286
     1
 66
     0
277
    -2
287
     1
 67
     0
278
    -2
288
     1
 68
     0
279
    -2
289
     1
 69
     0
  7
STANDARD
140
4.5
170
     5
 62
     0
 63
     7
283
     0
274
    -2
284
     1
 64
     0
275
    -2
285
     1
 65
     0
276
    -2
286
     1
 66
     0
277
    -2
287
     1
 67
     0
278
    -2
288
     1
 68
     0
279
    -2
289
     1
 69
     0
  0
VISUALSTYLE
  5
C450
102
{ACAD_REACTORS
330
C44A
102
}
330
C44A
100
AcDbVisualStyle
  2
2dWireframe
 70
     4
 71
     0
 72
     2
 73
     0
 90
        0
 40
-0.6
 41
-30.0
 62
     5
 63
     7
 74
     1
 91
        4
 64
     7
 65
   257
 75
     1
175
     1
 42
1.0
 92
        0
 66
   257
 43
1.0
 76
     1
 77
     6
 78
     2
 67
     7
 79
     5
170
     0
171
     0
290
     0
174
     0
 93
        1
 44
0.0
173
     0
291
     0
 45
0.0
1001
ACAD
1000
AcDbSavedByObjectVersion
1070
     0
  0
VISUALSTYLE
  5
C452
102
{ACAD_REACTORS
330
C44A
102
}
330
C44A
100
AcDbVisualStyle
  2
3D Hidden
 70
     6
 71
     1
 72
     2
 73
     2
 90
        0
 40
-0.6
 41
-30.0
 62
     5
 63
     7
 74
     2
 91
        2
 64
     7
 65
   257
 75
     2
175
     1
 42
40.0
 92
        0
 66
   257
 43
1.0
 76
     1
 77
     6
 78
     2
 67
     7
 79
     3
170
     0
171
     0
290
     0
174
     0
 93
        1
 44
0.0
173
     0
291
     0
 45
0.0
1001
ACAD
1000
AcDbSavedByObjectVersion
1070
     0
  0
VISUALSTYLE
  5
C451
102
{ACAD_REACTORS
330
C44A
102
}
330
C44A
100
AcDbVisualStyle
  2
3dWireframe
 70
     5
 71
     0
 72
     2
 73
     0
 90
        0
 40
-0.6
 41
-30.0
 62
     5
 63
     7
 74
     1
 91
        4
 64
     7
 65
   257
 75
     1
175
     1
 42
1.0
 92
        0
 66
   257
 43
1.0
 76
     1
 77
     6
 78
     2
 67
     7
 79
     5
170
     0
171
     0
290
     0
174
     0
 93
        1
 44
0.0
173
     0
291
     0
 45
0.0
1001
ACAD
1000
AcDbSavedByObjectVersion
1070
     0
  0
VISUALSTYLE
  5
C44F
102
{ACAD_REACTORS
330
C44A
102
}
330
C44A
100
AcDbVisualStyle
  2
Basic
 70
     7
 71
     1
 72
     0
 73
     1
 90
        0
 40
-0.6
 41
-30.0
 62
     5
 63
     7
 74
     0
 91
        4
 64
     7
 65
   257
 75
     1
175
     1
 42
1.0
 92
        8
 66
     7
 43
1.0
 76
     1
 77
     6
 78
     2
 67
     7
 79
     5
170
     0
171
     0
290
     0
174
     0
 93
        1
 44
0.0
173
     0
291
     1
 45
0.0
1001
ACAD
1000
AcDbSavedByObjectVersion
1070
     0
  0
VISUALSTYLE
  5
C456
102
{ACAD_REACTORS
330
C44A
102
}
330
C44A
100
AcDbVisualStyle
  2
Brighten
 70
    12
 71
     2
 72
     2
 73
     0
 90
        0
 40
-0.6
 41
-30.0
 62
     5
 63
     7
 74
     1
 91
        4
 64
     7
 65
   257
 75
     1
175
     1
 42
1.0
 92
        8
 66
     7
 43
1.0
 76
     1
 77
     6
 78
     2
 67
     7
 79
     5
170
     0
171
     0
290
     0
174
     0
 93
        1
 44
50.0
173
     0
291
     1
 45
0.0
1001
ACAD
1000
AcDbSavedByObjectVersion
1070
     0
  0
VISUALSTYLE
  5
C45A
102
{ACAD_REACTORS
330
C44A
102
}
330
C44A
100
AcDbVisualStyle
  2
ColorChange
 70
    16
 71
     2
 72
     2
 73
     3
 90
        0
 40
-0.6
 41
-30.0
 62
     5
 63
     8
 74
     1
 91
        4
 64
     7
 65
   257
 75
     1
175
     1
 42
1.0
 92
        8
 66
     8
 43
1.0
 76
     1
 77
     6
 78
     2
 67
     7
 79
     5
170
     0
171
     0
290
     0
174
     0
 93
        1
 44
0.0
173
     0
291
     1
 45
0.0
1001
ACAD
1000
AcDbSavedByObjectVersion
1070
     0
  0
VISUALSTYLE
  5
C453
102
{ACAD_REACTORS
330
C44A
102
}
330
C44A
100
AcDbVisualStyle
  2
Conceptual
 70
     9
 71
     3
 72
     2
 73
     0
 90
        0
 40
-0.6
 41
-30.0
 62
     5
 63
     7
 74
     2
 91
        2
 64
     7
 65
   257
 75
     1
175
     1
 42
40.0
 92
        8
 66
     7
 43
1.0
 76
     1
 77
     6
 78
     2
 67
     7
 79
     3
170
     0
171
     0
290
     0
174
     0
 93
        1
 44
0.0
173
     0
291
     0
 45
0.0
1001
ACAD
1000
AcDbSavedByObjectVersion
1070
     0
  0
VISUALSTYLE
  5
C455
102
{ACAD_REACTORS
330
C44A
102
}
330
C44A
100
AcDbVisualStyle
  2
Dim
 70
    11
 71
     2
 72
     2
 73
     0
 90
        0
 40
-0.6
 41
-30.0
 62
     5
 63
     7
 74
     1
 91
        4
 64
     7
 65
   257
 75
     1
175
     1
 42
1.0
 92
        8
 66
     7
 43
1.0
 76
     1
 77
     6
 78
     2
 67
     7
 79
     5
170
     0
171
     0
290
     0
174
     0
 93
        1
 44
-50.0
173
     0
291
     1
 45
0.0
1001
ACAD
1000
AcDbSavedByObjectVersion
1070
     0
  0
VISUALSTYLE
  5
C459
102
{ACAD_REACTORS
330
C44A
102
}
330
C44A
100
AcDbVisualStyle
  2
Facepattern
 70
    15
 71
     2
 72
     2
 73
     0
 90
        0
 40
-0.6
 41
-30.0
 62
     5
 63
     7
 74
     1
 91
        4
 64
     7
 65
   257
 75
     1
175
     1
 42
1.0
 92
        8
 66
     7
 43
1.0
 76
     1
 77
     6
 78
     2
 67
     7
 79
     5
170
     0
171
     0
290
     0
174
     0
 93
        1
 44
0.0
173
     0
291
     1
 45
0.0
1001
ACAD
1000
AcDbSavedByObjectVersion
1070
     0
  0
VISUALSTYLE
  5
C44B
102
{ACAD_REACTORS
330
C44A
102
}
330
C44A
100
AcDbVisualStyle
  2
Flat
 70
     0
 71
     2
 72
     1
 73
     1
 90
        2
 40
-0.6
 41
30.0
 62
     5
 63
     7
 74
     0
 91
        4
 64
     7
 65
   257
 75
     1
175
     1
 42
1.0
 92
        8
 66
     7
 43
1.0
 76
     1
 77
     6
 78
     2
 67
     7
 79
     5
170
     0
171
     0
290
     0
174
     0
 93
       13
 44
0.0
173
     0
291
     1
 45
0.0
1001
ACAD
1000
AcDbSavedByObjectVersion
1070
     0
  0
VISUALSTYLE
  5
C44C
102
{ACAD_REACTORS
330
C44A
102
}
330
C44A
100
AcDbVisualStyle
  2
FlatWithEdges
 70
     1
 71
     2
 72
     1
 73
     1
 90
        2
 40
-0.6
 41
30.0
 62
     5
 63
     7
 74
     1
 91
        4
 64
     7
 65
   257
 75
     1
175
     1
 42
1.0
 92
        0
 66
   257
 43
1.0
 76
     1
 77
     6
 78
     2
 67
     7
 79
     5
170
     0
171
     0
290
     0
174
     0
 93
       13
 44
0.0
173
     0
291
     1
 45
0.0
1001
ACAD
1000
AcDbSavedByObjectVersion
1070
     0
  0
VISUALSTYLE
  5
C44D
102
{ACAD_REACTORS
330
C44A
102
}
330
C44A
100
AcDbVisualStyle
  2
Gouraud
 70
     2
 71
     2
 72
     2
 73
     1
 90
        2
 40
-0.6
 41
30.0
 62
     5
 63
     7
 74
     0
 91
        4
 64
     7
 65
   257
 75
     1
175
     1
 42
1.0
 92
        0
 66
     7
 43
1.0
 76
     1
 77
     6
 78
     2
 67
     7
 79
     5
170
     0
171
     0
290
     0
174
     0
 93
       13
 44
0.0
173
     0
291
     1
 45
0.0
1001
ACAD
1000
AcDbSavedByObjectVersion
1070
     0
  0
VISUALSTYLE
  5
C44E
102
{ACAD_REACTORS
330
C44A
102
}
330
C44A
100
AcDbVisualStyle
  2
GouraudWithEdges
 70
     3
 71
     2
 72
     2
 73
     1
 90
        2
 40
-0.6
 41
30.0
 62
     5
 63
     7
 74
     1
 91
        4
 64
     7
 65
   257
 75
     1
175
     1
 42
1.0
 92
        0
 66
   257
 43
1.0
 76
     1
 77
     6
 78
     2
 67
     7
 79
     5
170
     0
171
     0
290
     0
174
     0
 93
       13
 44
0.0
173
     0
291
     1
 45
0.0
1001
ACAD
1000
AcDbSavedByObjectVersion
1070
     0
  0
VISUALSTYLE
  5
C458
102
{ACAD_REACTORS
330
C44A
102
}
330
C44A
100
AcDbVisualStyle
  2
Linepattern
 70
    14
 71
     2
 72
     2
 73
     0
 90
        0
 40
-0.6
 41
-30.0
 62
     5
 63
     7
 74
     1
 91
        4
 64
     7
 65
   257
 75
     7
175
     7
 42
1.0
 92
        8
 66
     7
 43
1.0
 76
     1
 77
     6
 78
     2
 67
     7
 79
     5
170
     0
171
     0
290
     0
174
     0
 93
        1
 44
0.0
173
     0
291
     1
 45
0.0
1001
ACAD
1000
AcDbSavedByObjectVersion
1070
     0
  0
VISUALSTYLE
  5
C454
102
{ACAD_REACTORS
330
C44A
102
}
330
C44A
100
AcDbVisualStyle
  2
Realistic
 70
     8
 71
     2
 72
     2
 73
     0
 90
        0
 40
-0.6
 41
-30.0
 62
     5
 63
     7
 74
     1
 91
        0
 64
     7
 65
   257
 75
     1
175
     1
 42
1.0
 92
        8
 66
     8
 43
1.0
 76
     1
 77
     6
 78
     2
 67
     7
 79
     5
170
     0
171
     0
290
     0
174
     0
 93
       13
 44
0.0
173
     0
291
     0
 45
0.0
1001
ACAD
1000
AcDbSavedByObjectVersion
1070
     0
  0
VISUALSTYLE
  5
C457
102
{ACAD_REACTORS
330
C44A
102
}
330
C44A
100
AcDbVisualStyle
  2
Thicken
 70
    13
 71
     2
 72
     2
 73
     0
 90
        0
 40
-0.6
 41
-30.0
 62
     5
 63
     7
 74
     1
 91
        4
 64
     7
 65
   257
 75
     1
175
     1
 42
1.0
 92
       12
 66
     7
 43
1.0
 76
     1
 77
     6
 78
     2
 67
     7
 79
     5
170
     0
171
     0
290
     0
174
     0
 93
        1
 44
0.0
173
     0
291
     1
 45
0.0
1001
ACAD
1000
AcDbSavedByObjectVersion
1070
     0
  0
DICTIONARYVAR
  5
C4A2
102
{ACAD_REACTORS
330
34
102
}
330
34
100
DictionaryVariables
280
     0
  1
STANDARD
  0
DICTIONARYVAR
  5
AC85
102
{ACAD_REACTORS
330
34
102
}
330
34
100
DictionaryVariables
280
     0
  1
2
  0
DICTIONARYVAR
  5
35
102
{ACAD_REACTORS
330
34
102
}
330
34
100
DictionaryVariables
280
     0
  1
0
  0
DICTIONARYVAR
  5
194C
102
{ACAD_REACTORS
330
34
102
}
330
34
100
DictionaryVariables
280
     0
  1
96
  0
DICTIONARY
  5
7E8
102
{ACAD_REACTORS
330
47
102
}
330
47
100
AcDbDictionary
281
     1
  0
DICTIONARY
  5
4C
102
{ACAD_REACTORS
330
47
102
}
330
47
100
AcDbDictionary
281
     1
  0
XRECORD
  5
C487
102
{ACAD_REACTORS
330
47
102
}
330
47
100
AcDbXrecord
280
     1
 90
-1023410169
  0
XRECORD
  5
6169B
102
{ACAD_REACTORS
330
6169A
102
}
330
6169A
100
AcDbXrecord
280
     1
330
0
330
0
330
0
330
0
330
0
330
0
330
0
330
0
330
0
330
0
330
0
330
0
330
0
330
0
330
0
330
0
330
0
330
0
330
0
330
0
330
0
330
0
330
0
330
0
330
0
330
0
330
0
330
0
330
0
330
0
330
0
330
0
330
0
330
0
330
0
330
0
330
0
330
0
330
0
330
0
330
0
330
0
330
0
330
0
330
0
330
0
330
0
330
0
330
0
330
0
330
0
330
0
330
0
330
0
330
0
330
0
330
0
330
0
330
0
330
0
330
0
330
0
330
0
330
0
330
0
330
0
330
0
330
0
330
0
330
0
330
0
330
0
330
0
330
0
330
0
330
0
330
0
330
0
330
0
330
0
330
0
330
0
330
0
330
0
330
0
330
0
330
0
330
0
330
0
330
0
330
0
330
0
330
0
330
0
330
0
330
0
330
0
330
0
330
0
330
0
330
0
330
0
330
0
330
0
330
0
330
0
330
0
330
0
330
0
330
0
330
0
330
0
330
0
330
0
330
0
330
0
330
0
330
0
330
0
330
0
330
0
330
0
330
0
330
0
330
0
330
0
330
0
330
0
330
0
330
0
330
0
330
0
330
0
330
0
330
0
330
0
330
0
330
0
330
0
330
0
330
0
330
0
330
0
330
0
330
0
330
0
330
0
330
0
330
0
330
0
330
0
330
0
330
0
330
0
330
0
330
0
330
0
330
0
330
0
330
0
330
0
330
0
330
0
330
0
330
0
330
0
330
0
330
0
330
0
330
0
330
0
330
0
330
0
330
0
330
0
330
0
330
0
330
0
330
0
330
0
330
0
330
0
330
0
330
0
330
0
330
0
330
0
330
0
330
0
330
0
330
0
330
0
330
0
330
0
330
0
330
0
330
0
330
0
330
0
330
0
330
0
330
0
330
0
330
0
330
0
330
0
330
0
330
0
330
0
330
0
330
0
330
0
330
0
330
0
330
0
330
0
330
0
330
0
330
0
330
0
330
0
330
0
330
0
330
0
330
0
330
0
330
0
330
0
330
0
330
0
330
0
330
0
330
0
330
0
330
0
330
0
330
0
330
0
330
0
330
0
330
0
330
0
330
0
330
0
330
0
330
0
330
0
330
0
330
0
330
0
330
0
330
0
330
0
330
0
330
0
330
0
330
0
330
0
330
0
330
0
330
0
330
0
330
0
330
0
330
0
330
0
330
0
330
0
330
0
330
0
330
0
330
0
330
0
330
0
330
0
330
0
330
0
330
0
330
0
330
0
330
0
330
0
330
0
330
0
330
0
330
0
330
0
330
0
330
0
330
0
330
0
330
0
330
0
330
0
330
0
330
0
330
0
330
0
330
0
330
0
330
0
330
0
330
0
330
0
330
0
330
0
330
0
330
0
330
0
330
0
330
0
330
0
330
0
330
0
330
0
330
0
330
0
330
0
330
0
330
0
330
0
330
0
330
0
330
0
330
0
330
0
330
0
330
0
330
0
330
0
330
0
330
0
330
0
330
0
330
0
330
0
330
0
330
0
330
0
330
0
330
0
330
0
330
0
330
0
330
0
330
0
330
0
330
0
330
0
330
0
330
0
330
0
330
0
330
0
330
0
330
0
330
0
330
0
330
0
330
0
330
0
330
0
330
0
330
0
330
0
330
0
330
0
330
0
330
0
330
0
330
0
330
0
330
0
330
0
330
0
330
0
330
0
330
0
330
0
330
0
330
0
330
0
330
0
330
0
330
0
330
0
330
0
330
0
330
0
330
0
330
0
330
0
330
0
330
0
330
0
330
0
330
0
330
0
330
0
330
0
330
0
330
0
330
0
330
0
330
0
330
0
330
0
330
0
330
0
330
0
330
0
330
0
330
0
330
0
330
0
330
0
330
0
330
0
330
0
330
0
330
0
330
0
330
0
330
0
330
0
330
0
330
0
330
0
330
0
330
0
330
0
330
0
330
0
330
0
330
0
330
0
330
0
330
0
330
0
330
0
330
0
330
0
330
0
330
0
330
0
330
0
330
0
330
0
330
0
330
0
330
0
330
0
330
0
330
0
330
0
330
0
330
0
330
0
330
0
330
0
330
0
330
0
330
0
330
0
330
0
330
0
330
0
330
0
330
0
330
0
330
0
330
0
330
0
330
0
330
0
330
0
330
0
330
0
330
0
330
0
330
0
330
0
330
0
330
0
330
0
330
0
330
0
330
0
330
0
330
0
330
0
330
0
330
0
330
0
330
0
330
0
330
0
330
0
330
0
330
0
330
0
330
0
330
0
330
0
330
0
330
0
330
0
330
0
330
0
330
0
330
0
330
0
330
0
330
0
330
0
330
0
330
0
330
0
330
0
330
0
330
0
330
0
330
0
330
0
330
0
330
0
330
0
330
0
330
0
330
0
330
0
330
0
330
0
330
0
330
0
330
0
330
0
330
0
330
0
330
0
330
0
330
0
330
0
330
0
330
0
330
0
330
0
330
0
330
0
330
0
330
0
330
0
330
0
330
0
330
0
330
0
330
0
330
0
330
0
330
0
330
0
330
0
330
0
330
0
330
0
330
0
330
0
330
0
330
0
330
0
330
0
330
0
330
0
330
0
330
0
330
0
330
0
330
0
330
0
330
0
330
0
330
0
330
0
330
0
330
0
330
0
330
0
330
0
330
0
330
0
330
0
330
0
330
0
330
0
330
0
330
0
330
0
330
0
330
0
330
0
330
0
330
0
330
0
330
0
330
0
330
0
330
0
330
0
330
0
330
0
330
0
330
0
330
0
330
0
330
0
330
0
330
0
330
0
330
0
330
0
330
0
330
0
330
0
330
0
330
0
330
0
330
0
330
0
330
0
330
0
330
0
330
0
330
0
330
0
330
0
330
0
330
0
330
0
330
0
330
0
330
0
330
0
330
0
330
0
330
0
330
0
330
0
330
0
330
0
330
0
330
0
330
0
330
0
330
0
330
0
330
0
330
0
330
0
330
0
330
0
330
0
330
0
330
0
330
0
330
0
330
0
330
0
330
0
330
0
330
0
330
0
330
0
330
0
330
0
330
0
330
0
330
0
330
0
330
0
330
0
330
0
330
0
330
0
330
0
  0
XRECORD
  5
CB0E
102
{ACAD_REACTORS
330
CB0C
102
}
330
CB0C
100
AcDbXrecord
280
     1
  1
50
  1
*-50
  1
*
  1
*
 70
     0
  1
*
  1
*
1001
ACAD
1000
( NAME== "*-50" )
  0
XRECORD
  5
3FB7
102
{ACAD_REACTORS
330
3F96
102
}
330
3F96
100
AcDbXrecord
280
     1
 91
        3
330
A47
 90
        8
 62
     7
370
    40
331
16
  1
Color_7
330
A46
 90
        0
 62
    14
370
    -3
331
16
  1
Color_14
330
3A31
 90
        8
 62
     7
370
    20
331
16
  1
Color_7
330
6D1
 90
        0
 62
     7
370
    -3
331
16
  1
Color_7
330
0
 90
        8
 62
     7
370
    50
331
16
  1
Color_7
330
A48
 90
        8
 62
     2
370
    35
331
16
  1
Color_2
330
FA5
 90
        8
 62
     7
370
    -3
331
16
  1
Color_7
330
10
 90
        8
 62
     7
370
    -3
331
16
  1
Color_7
  0
XRECORD
  5
CB0D
102
{ACAD_REACTORS
330
CB0B
102
}
330
CB0B
100
AcDbXrecord
280
     1
  1
AcLyLayerFilter
 90
        1
300
50
301
( NAME== "*-50" )
  0
DICTIONARY
  5
640B9
330
22
100
AcDbDictionary
280
     1
281
     1
  3
ACAD_XREC_ROUNDTRIP
360
640BA
  0
DICTIONARY
  5
640B7
330
1E
100
AcDbDictionary
280
     1
281
     1
  3
ACAD_XREC_ROUNDTRIP
360
640B8
  0
DICTIONARY
  5
640BB
330
26
100
AcDbDictionary
280
     1
281
     1
  3
ACAD_XREC_ROUNDTRIP
360
640BC
  0
DICTIONARY
  5
640BF
330
C448
100
AcDbDictionary
280
     1
281
     1
  3
ACAD_XREC_ROUNDTRIP
360
640C0
  0
DICTIONARY
  5
640BD
330
C447
100
AcDbDictionary
280
     1
281
     1
  3
ACAD_XREC_ROUNDTRIP
360
640BE
  0
DICTIONARY
  5
640C1
330
C449
100
AcDbDictionary
280
     1
281
     1
  3
ACAD_XREC_ROUNDTRIP
360
640C2
  0
DICTIONARY
  5
640C5
330
C85D
100
AcDbDictionary
280
     1
281
     1
  3
ACAD_XREC_ROUNDTRIP
360
640C6
  0
DICTIONARY
  5
640C3
330
C45D
100
AcDbDictionary
280
     1
281
     1
  3
ACAD_XREC_ROUNDTRIP
360
640C4
  0
XRECORD
  5
640BA
102
{ACAD_REACTORS
330
640B9
102
}
330
640B9
100
AcDbXrecord
280
     1
102
SHADEPLOT
 70
     1
102
SHADEPLOTRESLEVEL
 70
     2
102
SHADEPLOTCUSTOMDPI
 70
   300
  0
XRECORD
  5
640B8
102
{ACAD_REACTORS
330
640B7
102
}
330
640B7
100
AcDbXrecord
280
     1
102
SHADEPLOT
 70
     0
102
SHADEPLOTRESLEVEL
 70
     2
102
SHADEPLOTCUSTOMDPI
 70
   300
  0
XRECORD
  5
640BC
102
{ACAD_REACTORS
330
640BB
102
}
330
640BB
100
AcDbXrecord
280
     1
102
SHADEPLOT
 70
     0
102
SHADEPLOTRESLEVEL
 70
     2
102
SHADEPLOTCUSTOMDPI
 70
   300
  0
XRECORD
  5
640C0
102
{ACAD_REACTORS
330
640BF
102
}
330
640BF
100
AcDbXrecord
280
     1
102
MATERIAL
148
0.0
149
0.0
149
0.0
 93
        0
 94
       63
282
     0
 72
     1
 77
     1
171
     1
175
     1
179
     1
273
     0
  0
XRECORD
  5
640BE
102
{ACAD_REACTORS
330
640BD
102
}
330
640BD
100
AcDbXrecord
280
     1
102
MATERIAL
148
0.0
149
0.0
149
0.0
 93
        0
 94
       63
282
     0
 72
     1
 77
     1
171
     1
175
     1
179
     1
273
     0
  0
XRECORD
  5
640C2
102
{ACAD_REACTORS
330
640C1
102
}
330
640C1
100
AcDbXrecord
280
     1
102
MATERIAL
148
0.0
149
0.0
149
0.0
 93
        0
 94
       63
282
     0
 72
     1
 77
     1
171
     1
175
     1
179
     1
273
     0
  0
XRECORD
  5
640C6
102
{ACAD_REACTORS
330
640C5
102
}
330
640C5
100
AcDbXrecord
280
     1
102
SHADEPLOT
 70
     0
102
SHADEPLOTRESLEVEL
 70
     2
102
SHADEPLOTCUSTOMDPI
 70
   300
  0
XRECORD
  5
640C4
102
{ACAD_REACTORS
330
640C3
102
}
330
640C3
100
AcDbXrecord
280
     1
102
ACAD_ROUNDTRIP_PRE2007_TABLESTYLE
 90
      512
 91
        0
  1

 92
      512
 93
        0
  2

 94
      512
 95
        0
  3

  0
ENDSEC
  0
EOF
