  0
SECTION
  2
HEADER
  9
$ACADVER
  1
AC1015
  9
$ACADMAINTVER
 70
    20
  9
$DWGCODEPAGE
  3
ANSI_932
  9
$INSBASE
 10
0.0
 20
0.0
 30
0.0
  9
$EXTMIN
 10
-0.0962971160270172
 20
-0.2271992459172907
 30
-0.0000000000112498
  9
$EXTMAX
 10
297.0806506557783
 20
210.3382663995581
 30
0.0000000000002956
  9
$LIMMIN
 10
-1207.468050814234
 20
-4523.809200058368
  9
$LIMMAX
 10
-19.46805081423372
 20
-3683.809200058368
  9
$ORTHOMODE
 70
     0
  9
$REGENMODE
 70
     1
  9
$FILLMODE
 70
     1
  9
$QTEXTMODE
 70
     0
  9
$MIRRTEXT
 70
     0
  9
$LTSCALE
 40
1.0
  9
$ATTMODE
 70
     1
  9
$TEXTSIZE
 40
3.2
  9
$TRACEWID
 40
1.0
  9
$TEXTSTYLE
  7
STANDARD
  9
$CLAYER
  8
AM_6
  9
$CELTYPE
  6
ByLayer
  9
$CECOLOR
 62
   256
  9
$CELTSCALE
 40
1.0
  9
$DISPSILH
 70
     0
  9
$DIMSCALE
 40
1.0
  9
$DIMASZ
 40
2.5
  9
$DIMEXO
 40
1.0
  9
$DIMDLI
 40
10.0
  9
$DIMRND
 40
0.0
  9
$DIMDLE
 40
0.0
  9
$DIMEXE
 40
1.0
  9
$DIMTP
 40
0.1
  9
$DIMTM
 40
0.1
  9
$DIMTXT
 40
3.5
  9
$DIMCEN
 40
0.0
  9
$DIMTSZ
 40
0.0
  9
$DIMTOL
 70
     0
  9
$DIMLIM
 70
     0
  9
$DIMTIH
 70
     0
  9
$DIMTOH
 70
     0
  9
$DIMSE1
 70
     0
  9
$DIMSE2
 70
     0
  9
$DIMTAD
 70
     1
  9
$DIMZIN
 70
     8
  9
$DIMBLK
  1

  9
$DIMASO
 70
     1
  9
$DIMSHO
 70
     1
  9
$DIMPOST
  1

  9
$DIMAPOST
  1
"
  9
$DIMALT
 70
     0
  9
$DIMALTD
 70
     2
  9
$DIMALTF
 40
0.0393701
  9
$DIMLFAC
 40
1.0
  9
$DIMTOFL
 70
     1
  9
$DIMTVP
 40
0.0
  9
$DIMTIX
 70
     0
  9
$DIMSOXD
 70
     0
  9
$DIMSAH
 70
     0
  9
$DIMBLK1
  1

  9
$DIMBLK2
  1

  9
$DIMSTYLE
  2
SYS
  9
$DIMCLRD
 70
   256
  9
$DIMCLRE
 70
   256
  9
$DIMCLRT
 70
     7
  9
$DIMTFAC
 40
0.71
  9
$DIMGAP
 40
1.5
  9
$DIMJUST
 70
     0
  9
$DIMSD1
 70
     0
  9
$DIMSD2
 70
     0
  9
$DIMTOLJ
 70
     0
  9
$DIMTZIN
 70
     8
  9
$DIMALTZ
 70
     0
  9
$DIMALTTZ
 70
     0
  9
$DIMUPT
 70
     0
  9
$DIMDEC
 70
     1
  9
$DIMTDEC
 70
     3
  9
$DIMALTU
 70
     2
  9
$DIMALTTD
 70
     4
  9
$DIMTXSTY
  7
STANDARD
  9
$DIMAUNIT
 70
     0
  9
$DIMADEC
 70
     0
  9
$DIMALTRND
 40
0.0
  9
$DIMAZIN
 70
     2
  9
$DIMDSEP
 70
    46
  9
$DIMATFIT
 70
     3
  9
$DIMFRAC
 70
     0
  9
$DIMLDRBLK
  1

  9
$DIMLUNIT
 70
     2
  9
$DIMLWD
 70
    -1
  9
$DIMLWE
 70
    -1
  9
$DIMTMOVE
 70
     0
  9
$LUNITS
 70
     2
  9
$LUPREC
 70
     2
  9
$SKETCHINC
 40
1.0
  9
$FILLETRAD
 40
2.6
  9
$AUNITS
 70
     0
  9
$AUPREC
 70
     0
  9
$MENU
  1
.
  9
$ELEVATION
 40
0.0
  9
$PELEVATION
 40
0.0
  9
$THICKNESS
 40
0.0
  9
$LIMCHECK
 70
     0
  9
$CHAMFERA
 40
0.0
  9
$CHAMFERB
 40
0.0
  9
$CHAMFERC
 40
20.0
  9
$CHAMFERD
 40
0.0
  9
$SKPOLY
 70
     0
  9
$TDCREATE
 40
2452002.615067627
  9
$TDUCREATE
 40
2452002.240067627
  9
$TDUPDATE
 40
2456267.604139178
  9
$TDUUPDATE
 40
2456267.229139178
  9
$TDINDWG
 40
9.4124582176
  9
$TDUSRTIMER
 40
9.4124582176
  9
$USRTIMER
 70
     1
  9
$ANGBASE
 50
0.0
  9
$ANGDIR
 70
     0
  9
$PDMODE
 70
     0
  9
$PDSIZE
 40
0.0
  9
$PLINEWID
 40
0.0
  9
$SPLFRAME
 70
     0
  9
$SPLINETYPE
 70
     6
  9
$SPLINESEGS
 70
     8
  9
$HANDSEED
  5
64076
  9
$SURFTAB1
 70
     6
  9
$SURFTAB2
 70
     6
  9
$SURFTYPE
 70
     6
  9
$SURFU
 70
     6
  9
$SURFV
 70
     6
  9
$UCSBASE
  2

  9
$UCSNAME
  2

  9
$UCSORG
 10
0.0
 20
0.0
 30
0.0
  9
$UCSXDIR
 10
1.0
 20
0.0
 30
0.0
  9
$UCSYDIR
 10
0.0
 20
1.0
 30
0.0
  9
$UCSORTHOREF
  2

  9
$UCSORTHOVIEW
 70
     0
  9
$UCSORGTOP
 10
0.0
 20
0.0
 30
0.0
  9
$UCSORGBOTTOM
 10
0.0
 20
0.0
 30
0.0
  9
$UCSORGLEFT
 10
0.0
 20
0.0
 30
0.0
  9
$UCSORGRIGHT
 10
0.0
 20
0.0
 30
0.0
  9
$UCSORGFRONT
 10
0.0
 20
0.0
 30
0.0
  9
$UCSORGBACK
 10
0.0
 20
0.0
 30
0.0
  9
$PUCSBASE
  2

  9
$PUCSNAME
  2

  9
$PUCSORG
 10
0.0
 20
0.0
 30
0.0
  9
$PUCSXDIR
 10
1.0
 20
0.0
 30
0.0
  9
$PUCSYDIR
 10
0.0
 20
1.0
 30
0.0
  9
$PUCSORTHOREF
  2

  9
$PUCSORTHOVIEW
 70
     0
  9
$PUCSORGTOP
 10
0.0
 20
0.0
 30
0.0
  9
$PUCSORGBOTTOM
 10
0.0
 20
0.0
 30
0.0
  9
$PUCSORGLEFT
 10
0.0
 20
0.0
 30
0.0
  9
$PUCSORGRIGHT
 10
0.0
 20
0.0
 30
0.0
  9
$PUCSORGFRONT
 10
0.0
 20
0.0
 30
0.0
  9
$PUCSORGBACK
 10
0.0
 20
0.0
 30
0.0
  9
$USERI1
 70
     0
  9
$USERI2
 70
     0
  9
$USERI3
 70
     0
  9
$USERI4
 70
     0
  9
$USERI5
 70
     0
  9
$USERR1
 40
0.0
  9
$USERR2
 40
0.0
  9
$USERR3
 40
0.0
  9
$USERR4
 40
0.0
  9
$USERR5
 40
0.0
  9
$WORLDVIEW
 70
     1
  9
$SHADEDGE
 70
     3
  9
$SHADEDIF
 70
    70
  9
$TILEMODE
 70
     1
  9
$MAXACTVP
 70
    64
  9
$PINSBASE
 10
0.0
 20
0.0
 30
0.0
  9
$PLIMCHECK
 70
     0
  9
$PEXTMIN
 10
1.000000000000000E+20
 20
1.000000000000000E+20
 30
1.000000000000000E+20
  9
$PEXTMAX
 10
-1.000000000000000E+20
 20
-1.000000000000000E+20
 30
-1.000000000000000E+20
  9
$PLIMMIN
 10
-3.17498779296875
 20
-3.174999952316284
  9
$PLIMMAX
 10
293.4970092773438
 20
206.692492723465
  9
$UNITMODE
 70
     0
  9
$VISRETAIN
 70
     1
  9
$PLINEGEN
 70
     0
  9
$PSLTSCALE
 70
     1
  9
$TREEDEPTH
 70
  3020
  9
$CMLSTYLE
  2
Standard
  9
$CMLJUST
 70
     0
  9
$CMLSCALE
 40
20.0
  9
$PROXYGRAPHICS
 70
     1
  9
$MEASUREMENT
 70
     1
  9
$CELWEIGHT
370
    -1
  9
$ENDCAPS
280
     0
  9
$JOINSTYLE
280
     0
  9
$LWDISPLAY
290
     1
  9
$INSUNITS
 70
     4
  9
$HYPERLINKBASE
  1

  9
$STYLESHEET
  1
monochrome.ctb
  9
$XEDIT
290
     1
  9
$CEPSNTYPE
380
     0
  9
$PSTYLEMODE
290
     1
  9
$FINGERPRINTGUID
  2
{83FB3AA1-FF18-4BFE-AFE0-611B71DE056D}
  9
$VERSIONGUID
  2
{1E1B7FA1-77E4-4682-976E-D6258D000C82}
  9
$EXTNAMES
290
     1
  9
$PSVPSCALE
 40
0.0
  9
$OLESTARTUP
290
     0
  0
ENDSEC
  0
SECTION
  2
CLASSES
  0
CLASS
  1
ACDBDICTIONARYWDFLT
  2
AcDbDictionaryWithDefault
  3
ObjectDBX Classes
 90
        0
280
     0
281
     0
  0
CLASS
  1
ACDBPLACEHOLDER
  2
AcDbPlaceHolder
  3
ObjectDBX Classes
 90
        0
280
     0
281
     0
  0
CLASS
  1
LAYOUT
  2
AcDbLayout
  3
ObjectDBX Classes
 90
        0
280
     0
281
     0
  0
CLASS
  1
AMGSETTINGSOBJ
  2
AmgSettingsObj
  3
"AcadM|Product Description: AutoCAD Mechanical|Company: Autodesk"
 90
        0
280
     0
281
     0
  0
CLASS
  1
ACME_DOCUMENT
  2
AcMeDbDoc
  3
AcMeServices
 90
        0
280
     0
281
     0
  0
CLASS
  1
ACMESCOPE
  2
AcMeScope
  3
AcMeServices
 90
        0
280
     0
281
     0
  0
CLASS
  1
ACMECOMMANDHISTORY
  2
AcMeCommandHistory
  3
AcMeServices
 90
        0
280
     0
281
     0
  0
CLASS
  1
DICTIONARYVAR
  2
AcDbDictionaryVar
  3
ObjectDBX Classes
 90
        0
280
     0
281
     0
  0
CLASS
  1
ACIMSYSVARMAN
  2
AcImSysVarManager
  3
AcMeServices
 90
        0
280
     0
281
     0
  0
CLASS
  1
ACIMREALSYSVAR
  2
AcImRealSysVar
  3
AcMeServices
 90
        0
280
     0
281
     0
  0
CLASS
  1
ACIMINTSYSVAR
  2
AcImIntSysVar
  3
AcMeServices
 90
        0
280
     0
281
     0
  0
CLASS
  1
ACMEDRAWINGMAN
  2
AcMeDrawingMan
  3
AcMeServices
 90
        0
280
     0
281
     0
  0
CLASS
  1
ACMEVIEW
  2
AcMeView
  3
AcMeServices
 90
        0
280
     0
281
     0
  0
CLASS
  1
ACDBENTITYCACHE
  2
AcMeEntityCache
  3
AcMeServices
 90
        0
280
     0
281
     0
  0
CLASS
  1
GSMANAGER
  2
AcMeGSManager
  3
AcMeServices
 90
        0
280
     0
281
     0
  0
CLASS
  1
AMDTINTERNALREACTOR
  2
AmdtInternalReactor
  3
AcMeServices
 90
        0
280
     0
281
     0
  0
CLASS
  1
ACMESTATEMGR
  2
AcMeStateMgr
  3
AcMeServices
 90
        0
280
     0
281
     0
  0
CLASS
  1
ACGREFMASTER
  2
AcGrefMaster
  3
AcAttribServices
 90
        0
280
     0
281
     0
  0
CLASS
  1
ACME_DATABASE
  2
AcMeDbDatabase
  3
AcMeServices
 90
        0
280
     0
281
     0
  0
CLASS
  1
ACRFINSADJUSTERMGR
  2
AcRfInsAdjusterMgr
  3
AcMeServices
 90
        0
280
     0
281
     0
  0
CLASS
  1
ACGREFACADMASTER
  2
AcGrefacadMaster
  3
AcGrefServices
 90
        0
280
     0
281
     0
  0
CLASS
  1
AMIMASTER
  2
AmiMaster
  3
AmiServices
 90
        0
280
     0
281
     0
  0
CLASS
  1
ACMDATADICTIONARY
  2
AcmDataDictionary
  3
"AcmSymBB|Product Description: AutoCAD Mechanical|Company: Autodesk"
 90
        0
280
     0
281
     0
  0
CLASS
  1
ACMDATAENTRYBLOCK
  2
AcmDataEntryBlock
  3
"AcmSymBB|Product Description: AutoCAD Mechanical|Company: Autodesk"
 90
        0
280
     0
281
     0
  0
CLASS
  1
ACIMSTRSYSVAR
  2
AcImStrSysVar
  3
AcMeServices
 90
        0
280
     0
281
     0
  0
CLASS
  1
ACMSTANDARDISO
  2
AcmStandardISO
  3
"Amdt_StdImp|Product Description: AutoCAD Mechanical|Company: Autodesk"
 90
        0
280
     0
281
     0
  0
CLASS
  1
AMGOBJPROPCFG
  2
AmgObjPropCfg
  3
"AmgLay|Product Description: AutoCAD Mechanical|Company: Autodesk"
 90
        1
280
     0
281
     0
  0
CLASS
  1
AMDTEDGESTANDARDISO
  2
AmdtEdgeStdISO
  3
"Amdt_StdImp|Product Description: AutoCAD Mechanical|Company: Autodesk"
 90
        0
280
     0
281
     0
  0
CLASS
  1
ACMSURFSTANDARDISO
  2
AcmSurfTextStdISO
  3
"Amdt_StdImp|Product Description: AutoCAD Mechanical|Company: Autodesk"
 90
        0
280
     0
281
     0
  0
CLASS
  1
ACMFCFSTANDARDISO
  2
AcmFCFStdISO
  3
"Amdt_StdImp|Product Description: AutoCAD Mechanical|Company: Autodesk"
 90
        0
280
     0
281
     0
  0
CLASS
  1
ACMWELDSTANDARDISO
  2
AcmWeldingStdISO
  3
"Amdt_StdImp|Product Description: AutoCAD Mechanical|Company: Autodesk"
 90
        0
280
     0
281
     0
  0
CLASS
  1
ACMIDSTANDARDISO
  2
AcmIdStdISO
  3
"Amdt_StdImp|Product Description: AutoCAD Mechanical|Company: Autodesk"
 90
        0
280
     0
281
     0
  0
CLASS
  1
ACMDATUMSTANDARDISO
  2
AcmDatumStdISO
  3
"Amdt_StdImp|Product Description: AutoCAD Mechanical|Company: Autodesk"
 90
        0
280
     0
281
     0
  0
CLASS
  1
ACMBOMSTANDARDISO
  2
AcmBOMStdISO
  3
"Amdt_StdImp|Product Description: AutoCAD Mechanical|Company: Autodesk"
 90
        0
280
     0
281
     0
  0
CLASS
  1
ACMDETAILSTANDARDISO
  2
AmdtDetailSymStdISO
  3
"Amdt_StdImp|Product Description: AutoCAD Mechanical|Company: Autodesk"
 90
        0
280
     0
281
     0
  0
CLASS
  1
ACMSECTIONSTANDARDISO
  2
AmdtSectionSymStdISO
  3
"Amdt_StdImp|Product Description: AutoCAD Mechanical|Company: Autodesk"
 90
        0
280
     0
281
     0
  0
CLASS
  1
ACMCENTERLINESTANDARDISO
  2
AmdtCenterLineStdISO
  3
"Amdt_StdImp|Product Description: AutoCAD Mechanical|Company: Autodesk"
 90
        0
280
     0
281
     0
  0
CLASS
  1
ACAMGLAYSTD
  2
AcAmgLayStd
  3
"AmgLay|Product Description: AutoCAD Mechanical|Company: Autodesk"
 90
        0
280
     0
281
     0
  0
CLASS
  1
ACAMGDIMSTD
  2
AcAmgDimStd
  3
"AmgDim|Product Description: AutoCAD Mechanical|Company: Autodesk"
 90
        0
280
     0
281
     0
  0
CLASS
  1
ACAMGTITLESTD
  2
AcAmgTitleStd
  3
"AmgTitle|Product Description: AutoCAD Mechanical|Company: Autodesk"
 90
        0
280
     0
281
     0
  0
CLASS
  1
ACAMGFILTERDAT
  2
AcAmgFilterDat
  3
"AcadM|Product Description: AutoCAD Mechanical|Company: Autodesk"
 90
        0
280
     0
281
     0
  0
CLASS
  1
LAYER_INDEX
  2
AcDbLayerIndex
  3
ObjectDBX Classes
 90
    32768
280
     0
281
     0
  0
CLASS
  1
IDBUFFER
  2
AcDbIdBuffer
  3
ObjectDBX Classes
 90
    32768
280
     0
281
     0
  0
CLASS
  1
PLOTSETTINGS
  2
AcDbPlotSettings
  3
ObjectDBX Classes
 90
        0
280
     0
281
     0
  0
CLASS
  1
AMDTFORMULAUPDATEDISPATCHER
  2
AmdtFormulaUpdateDispatcher
  3
AcMeServices
 90
        0
280
     0
281
     0
  0
CLASS
  1
ACMSTANDARDANSI
  2
AcmStandardANSI
  3
"Amdt_StdImp|Product Description: AutoCAD Mechanical|Company: Autodesk"
 90
        0
280
     0
281
     0
  0
CLASS
  1
ACMSURFSTANDARDANSI
  2
AcmSurfTextStdANSI
  3
"Amdt_StdImp|Product Description: AutoCAD Mechanical|Company: Autodesk"
 90
        0
280
     0
281
     0
  0
CLASS
  1
ACMFCFSTANDARDANSI
  2
AcmFCFStdANSI
  3
"Amdt_StdImp|Product Description: AutoCAD Mechanical|Company: Autodesk"
 90
        0
280
     0
281
     0
  0
CLASS
  1
ACMWELDSTANDARDANSI
  2
AcmWeldingStdANSI
  3
"Amdt_StdImp|Product Description: AutoCAD Mechanical|Company: Autodesk"
 90
        0
280
     0
281
     0
  0
CLASS
  1
ACMIDSTANDARDANSI
  2
AcmIdStdANSI
  3
"Amdt_StdImp|Product Description: AutoCAD Mechanical|Company: Autodesk"
 90
        0
280
     0
281
     0
  0
CLASS
  1
ACMDATUMSTANDARDANSI
  2
AcmDatumStdANSI
  3
"Amdt_StdImp|Product Description: AutoCAD Mechanical|Company: Autodesk"
 90
        0
280
     0
281
     0
  0
CLASS
  1
ACMBOMSTANDARDANSI
  2
AcmBOMStdANSI
  3
"Amdt_StdImp|Product Description: AutoCAD Mechanical|Company: Autodesk"
 90
        0
280
     0
281
     0
  0
CLASS
  1
ACMDETAILSTANDARDANSI
  2
AmdtDetailSymStdANSI
  3
"Amdt_StdImp|Product Description: AutoCAD Mechanical|Company: Autodesk"
 90
        0
280
     0
281
     0
  0
CLASS
  1
ACMSECTIONSTANDARDANSI
  2
AmdtSectionSymStdANSI
  3
"Amdt_StdImp|Product Description: AutoCAD Mechanical|Company: Autodesk"
 90
        0
280
     0
281
     0
  0
CLASS
  1
ACMCENTERLINESTANDARDANSI
  2
AmdtCenterLineStdANSI
  3
"Amdt_StdImp|Product Description: AutoCAD Mechanical|Company: Autodesk"
 90
        0
280
     0
281
     0
  0
CLASS
  1
ACMBOM
  2
AcmBom
  3
"AcmSymBB|Product Description: AutoCAD Mechanical|Company: Autodesk"
 90
        0
280
     0
281
     0
  0
CLASS
  1
ACMDATAENTRYPART
  2
AcmDataEntryPart
  3
"AcmSymBB|Product Description: AutoCAD Mechanical|Company: Autodesk"
 90
    32768
280
     0
281
     0
  0
CLASS
  1
ACMPARTREF
  2
AcmPartRef
  3
"AcmSymBB|Product Description: AutoCAD Mechanical|Company: Autodesk"
 90
    35839
280
     0
281
     1
  0
CLASS
  1
ACDBCIRCARCRES
  2
AcDbCircArcRes
  3
AcGrefServices
 90
    32768
280
     0
281
     0
  0
CLASS
  1
ACMBOMROW
  2
AcmBomRow
  3
"AcmSymBB|Product Description: AutoCAD Mechanical|Company: Autodesk"
 90
    32768
280
     0
281
     0
  0
CLASS
  1
ACMBALLOON
  2
AcmBalloon
  3
"AcmSymBB|Product Description: AutoCAD Mechanical|Company: Autodesk"
 90
    35839
280
     0
281
     1
  0
CLASS
  1
AMDTNOTE
  2
AmdtNote
  3
"AcmSymBB|Product Description: AutoCAD Mechanical|Company: Autodesk"
 90
    35839
280
     0
281
     1
  0
CLASS
  1
STDPART2D
  2
AmgStdPart
  3
"g3vace|Class: AmgStdPart|Product Description: AutoCAD Mechanical|Company: Autodesk"
 90
    35839
280
     0
281
     1
  0
CLASS
  1
ACDBSTDPARTRES_LINE
  2
AcDbStdPartRes_Line
  3
"g3vace|Class: AcDbStdPartRes_Line|Product Description: AutoCAD Mechanical|Company: Autodesk"
 90
    32768
280
     0
281
     0
  0
CLASS
  1
ACMDATAENTRY
  2
AcmDataEntry
  3
"AcmSymBB|Product Description: AutoCAD Mechanical|Company: Autodesk"
 90
        0
280
     0
281
     0
  0
CLASS
  1
ACDBOPPOLYLINERES
  2
AcDbOpPolylineRes
  3
AcGrefServices
 90
    32768
280
     0
281
     0
  0
CLASS
  1
ACMPARTLIST
  2
AcmPartList
  3
"AcmSymBB|Product Description: AutoCAD Mechanical|Company: Autodesk"
 90
    35839
280
     0
281
     1
  0
CLASS
  1
ACDBLINERES
  2
AcDbLineRes
  3
AcGrefServices
 90
    32768
280
     0
281
     0
  0
CLASS
  1
ACRFINSADJ
  2
AcRfInsAdjuster
  3
AcMeServices
 90
    32768
280
     0
281
     0
  0
CLASS
  1
AM_DRAWING_MGR
  2
AcDmDwgMgr
  3
AcMechDwgViewMgmt
 90
        0
280
     0
281
     0
  0
CLASS
  1
AM_DWG_DOCUMENT
  2
AcDmDwgDocument
  3
AcMechDwgViewMgmt
 90
        0
280
     0
281
     0
  0
CLASS
  1
AM_DWG_SHEET
  2
AcDmSheet
  3
AcMechDwgViewMgmt
 90
        0
280
     0
281
     0
  0
CLASS
  1
AM_VIEWDIMPARMAP
  2
AcDmViewDimParMap
  3
AcMechDwgViewMgmt
 90
        0
280
     0
281
     0
  0
CLASS
  1
AM_DWGMGR_NAME
  2
AcDmDwgMgrName
  3
AcMechDwgViewMgmt
 90
        0
280
     0
281
     0
  0
CLASS
  1
AMDTMENUSTATEMGR
  2
AmdtMenuStateMgr
  3
McadcomServices
 90
        0
280
     0
281
     0
  0
CLASS
  1
AMDTMCOMMENUSTATE
  2
AmdtMcomMenuState
  3
McadcomServices
 90
        0
280
     0
281
     0
  0
CLASS
  1
ASAPP
  2
AcAsAppObject
  3
AutoSurfServices
 90
        0
280
     0
281
     0
  0
CLASS
  1
IM_STATIC_MAN
  2
AcImStaticVarManager
  3
AcMeServices
 90
        0
280
     0
281
     0
  0
CLASS
  1
ACIMDBLSTATICVAR
  2
AcImDblStaticVar
  3
AcMeServices
 90
        0
280
     0
281
     0
  0
CLASS
  1
ACIMSTRSTATICVAR
  2
AcImStrStaticVar
  3
AcMeServices
 90
        0
280
     0
281
     0
  0
CLASS
  1
ACIMINTSTATICVAR
  2
AcImIntStaticVar
  3
AcMeServices
 90
        0
280
     0
281
     0
  0
CLASS
  1
ACASGREFMASTER
  2
AcAsGrefMaster
  3
AutoSurfResolverServices
 90
        0
280
     0
281
     0
  0
CLASS
  1
ACADGREFMODULE
  2
AcAdGrefModule
  3
AdGrefServices
 90
        0
280
     0
281
     0
  0
CLASS
  1
AMDTMAPISURFMOUDULE
  2
AmdtMApiSurfModule
  3
MApiSurfServices
 90
        0
280
     0
281
     0
  0
CLASS
  1
MAPIAMMOUDLE
  2
MApiAmModule
  3
MApiAmServices
 90
        0
280
     0
281
     0
  0
CLASS
  1
AMDTADMENUSTATE
  2
AmdtAdMenuState
  3
DesignerServices
 90
        0
280
     0
281
     0
  0
CLASS
  1
ADAPPL
  2
AcAdAppl
  3
DesignerServices
 90
        0
280
     0
281
     0
  0
CLASS
  1
DEPMGR
  2
AcAdDepMgr
  3
DesignerServices
 90
        0
280
     0
281
     0
  0
CLASS
  1
PARAMMGR
  2
AcAdParamMgr
  3
DesignerServices
 90
        0
280
     0
281
     0
  0
CLASS
  1
PARAMSCOPE
  2
AcAdParamScope
  3
DesignerServices
 90
        0
280
     0
281
     0
  0
CLASS
  1
NAMEDAPPL
  2
AcAdNamedAppl
  3
DesignerServices
 90
        0
280
     0
281
     0
  0
CLASS
  1
ADHNTMPLT
  2
AdHoleNoteTemplateMgr
  3
DesignerServices
 90
    32768
280
     0
281
     0
  0
CLASS
  1
AM_HNTEMPLATE_MGR_NAME
  2
AdHoleNoteTemplateMgrName
  3
DesignerServices
 90
    32768
280
     0
281
     0
  0
CLASS
  1
AMDTDMMENUSTATE
  2
AmdtDmMenuState
  3
AcMechDwgViewMgmt
 90
        0
280
     0
281
     0
  0
CLASS
  1
MAPIADMODULE
  2
MApiAdModule
  3
MApiAdServices
 90
        0
280
     0
281
     0
  0
CLASS
  1
AMDTAMMENUSTATE
  2
AmdtAmMenuState
  3
DesignerAssemblies
 90
        0
280
     0
281
     0
  0
CLASS
  1
ACAMPROJECT
  2
AcAmProject
  3
DesignerAssemblies
 90
        0
280
     0
281
     0
  0
CLASS
  1
ACAMGRCOMPDEF
  2
AcAmGrCompDef
  3
DesignerAssemblies
 90
        0
280
     0
281
     0
  0
CLASS
  1
ACCMCONTEXT
  2
AcCmContext
  3
DesignerAssemblies
 90
        0
280
     0
281
     0
  0
CLASS
  1
ACAMCOMPDEF
  2
AcAmCompDef
  3
DesignerAssemblies
 90
        0
280
     0
281
     0
  0
CLASS
  1
ACAMCOMPDEFMGR
  2
AcAmCompDefMgr
  3
DesignerAssemblies
 90
        0
280
     0
281
     0
  0
CLASS
  1
AMCONTEXTMGR
  2
AcAmContextMgr
  3
DesignerAssemblies
 90
        0
280
     0
281
     0
  0
CLASS
  1
ACAMCONTEXTMODELER
  2
AcAmContextModeler
  3
DesignerAssemblies
 90
        0
280
     0
281
     0
  0
CLASS
  1
CATALOGSTATE
  2
AcAmCatalogState
  3
DesignerAssemblies
 90
        0
280
     0
281
     0
  0
CLASS
  1
ACAMGRCOMPDEFSET
  2
AcAmGrCompDefSet
  3
DesignerAssemblies
 90
        0
280
     0
281
     0
  0
CLASS
  1
AMDTBROWSERDBTAB
  2
AmdtBrowserDbTab
  3
McadcomServices
 90
        0
280
     0
281
     0
  0
CLASS
  1
CBROWSERAPPOBJECT
  2
CBrowserAppObject
  3
McadcomServices
 90
        0
280
     0
281
     0
  0
CLASS
  1
DM_PLACEHOLDER
  2
AcDmSelsetPlaceholder
  3
AcMechDwgViewMgmt
 90
        0
280
     0
281
     0
  0
CLASS
  1
ACMPICKOBJ
  2
AcmPickEnt
  3
"AcmSymBB|Product Description: AutoCAD Mechanical|Company: Autodesk"
 90
    32768
280
     0
281
     1
  0
CLASS
  1
MATERIAL
  2
AcDbMaterial
  3
ObjectDBX Classes
 90
     1024
280
     0
281
     0
  0
CLASS
  1
VISUALSTYLE
  2
AcDbVisualStyle
  3
ObjectDBX Classes
 90
     4095
280
     0
281
     0
  0
CLASS
  1
TABLESTYLE
  2
AcDbTableStyle
  3
ObjectDBX Classes
 90
     4095
280
     0
281
     0
  0
CLASS
  1
ACRFATTGENMGR
  2
AcRfAttGeneralMgr
  3
AcAttribServices
 90
        0
280
     0
281
     0
  0
CLASS
  1
ACRFOBJATTMGR
  2
AcRfObjAttGroupMgr
  3
AcAttribServices
 90
        0
280
     0
281
     0
  0
CLASS
  1
ACRFMCADAPIATTHOLDER
  2
AcRfMCADAPIAttHolder
  3
AcAttribServices
 90
        0
280
     0
281
     0
  0
CLASS
  1
AMDTSYSATTR
  2
AmdtSystemAttribute
  3
AcAttribServices
 90
        0
280
     0
281
     0
  0
CLASS
  1
ACMTHREADLINESTANDARDISO
  2
AmdtThreadLineStdISO
  3
"Amdt_StdImp|Product Description: AutoCAD Mechanical|Company: Autodesk"
 90
        0
280
     0
281
     0
  0
CLASS
  1
ACMNOTESTANDARDISO
  2
AmdtNoteStdISO
  3
"Amdt_StdImp|Product Description: AutoCAD Mechanical|Company: Autodesk"
 90
        0
280
     0
281
     0
  0
CLASS
  1
AMDTNOTETEMPLATEDB
  2
AmdtNoteTemplateDB
  3
AMDT_STDIMP_MODULE_NAME
 90
        0
280
     0
281
     0
  0
CLASS
  1
ACMTAPERSTANDARDISO
  2
AcmTaperStdISO
  3
"Amdt_StdImp|Product Description: AutoCAD Mechanical|Company: Autodesk"
 90
        0
280
     0
281
     0
  0
CLASS
  1
ACMTHREADLINESTANDARDANSI
  2
AmdtThreadLineStdANSI
  3
"Amdt_StdImp|Product Description: AutoCAD Mechanical|Company: Autodesk"
 90
        0
280
     0
281
     0
  0
CLASS
  1
ACMNOTESTANDARDANSI
  2
AmdtNoteStdANSI
  3
"Amdt_StdImp|Product Description: AutoCAD Mechanical|Company: Autodesk"
 90
        0
280
     0
281
     0
  0
CLASS
  1
ACMTAPERSTANDARDANSI
  2
AcmTaperStdANSI
  3
"Amdt_StdImp|Product Description: AutoCAD Mechanical|Company: Autodesk"
 90
        0
280
     0
281
     0
  0
CLASS
  1
CAMSSTRUCTBTNSTATE
  2
StructBtnState
  3
L"DesignerAssemblies"
 90
        0
280
     0
281
     0
  0
CLASS
  1
SORTENTSTABLE
  2
AcDbSortentsTable
  3
ObjectDBX Classes
 90
        0
280
     0
281
     0
  0
CLASS
  1
DIMASSOC
  2
AcDbDimAssoc
  3
"AcDbDimAssoc|Product Desc:     AcDim ARX App For Dimension|Company:          Autodesk, Inc.|WEB Address:      www.autodesk.com"
 90
        0
280
     0
281
     0
  0
ENDSEC
  0
SECTION
  2
TABLES
  0
TABLE
  2
VPORT
  5
8
330
0
100
AcDbSymbolTable
 70
     1
  0
VPORT
  5
C444
330
8
100
AcDbSymbolTableRecord
100
AcDbViewportTableRecord
  2
*Active
 70
     0
 10
0.0
 20
0.0
 11
1.0
 21
1.0
 12
148.4921767698756
 22
105.0555335768204
 13
0.0
 23
0.0
 14
2.5
 24
2.5
 15
10.0
 25
10.0
 16
0.0
 26
0.0
 36
1.0
 17
0.0
 27
0.0
 37
0.0
 40
212.1156408526813
 41
1.648648648648648
 42
50.0
 43
-1370.695619172058
 44
-1370.695619172058
 50
0.0
 51
0.0
 71
    16
 72
   100
 73
     1
 74
     3
 75
     0
 76
     0
 77
     0
 78
     0
281
     0
 65
     0
110
0.0
120
0.0
130
0.0
111
1.0
121
0.0
131
0.0
112
0.0
122
1.0
132
0.0
 79
     0
146
0.0
  0
ENDTAB
  0
TABLE
  2
LTYPE
  5
5
330
0
100
AcDbSymbolTable
 70
    36
  0
LTYPE
  5
14
330
5
100
AcDbSymbolTableRecord
100
AcDbLinetypeTableRecord
  2
ByBlock
 70
     0
  3

 72
    65
 73
     0
 40
0.0
  0
LTYPE
  5
15
330
5
100
AcDbSymbolTableRecord
100
AcDbLinetypeTableRecord
  2
ByLayer
 70
     0
  3

 72
    65
 73
     0
 40
0.0
  0
LTYPE
  5
16
330
5
100
AcDbSymbolTableRecord
100
AcDbLinetypeTableRecord
  2
Continuous
 70
     0
  3
Solid line
 72
    65
 73
     0
 40
0.0
  0
LTYPE
  5
4F
330
5
100
AcDbSymbolTableRecord
100
AcDbLinetypeTableRecord
  2
AM_ISO02W050
 70
     0
  3
__ __ __ __ __ __ __ __ __ __ __ __ __ __ __
 72
    65
 73
     2
 40
7.5
 49
6.0
 74
     0
 49
-1.5
 74
     0
  0
LTYPE
  5
52
330
5
100
AcDbSymbolTableRecord
100
AcDbLinetypeTableRecord
  2
Amconstr
 70
     0
  3
_______________________
 72
    65
 73
     2
 40
9999.0
 49
9999.0
 74
     0
 49
0.0
 74
     0
  0
LTYPE
  5
64
330
5
100
AcDbSymbolTableRecord
100
AcDbLinetypeTableRecord
  2
ACISOWELD
 70
     0
  3
_ _ _ _ _
 72
    65
 73
     2
 40
2.0
 49
2.0
 74
     0
 49
-1.0
 74
     0
  0
LTYPE
  5
65
330
5
100
AcDbSymbolTableRecord
100
AcDbLinetypeTableRecord
  2
ACISOTGB
 70
     0
  3
__ . . __ . .
 72
    65
 73
     6
 40
9.0
 49
4.0
 74
     0
 49
-1.0
 74
     0
 49
1.0
 74
     0
 49
-1.0
 74
     0
 49
1.0
 74
     0
 49
-1.0
 74
     0
  0
LTYPE
  5
66
330
5
100
AcDbSymbolTableRecord
100
AcDbLinetypeTableRecord
  2
ACISOTGL
 70
     0
  3
_ _ _ _ _
 72
    65
 73
     2
 40
3.0
 49
2.0
 74
     0
 49
-1.0
 74
     0
  0
LTYPE
  5
69
330
5
100
AcDbSymbolTableRecord
100
AcDbLinetypeTableRecord
  2
CENTER
 70
     0
  3
__ . __
 72
    65
 73
     4
 40
7.0
 49
4.0
 74
     0
 49
-1.0
 74
     0
 49
1.0
 74
     0
 49
-1.0
 74
     0
  0
LTYPE
  5
A6E
330
5
100
AcDbSymbolTableRecord
100
AcDbLinetypeTableRecord
  2
PHANTOM2
 70
     0
  3
Phantom (.5x) ___ _ _ ___ _ _ ___ _ _ ___ _ _
 72
    65
 73
     6
 40
31.75
 49
15.875
 74
     0
 49
-3.174999999999999
 74
     0
 49
3.174999999999999
 74
     0
 49
-3.174999999999999
 74
     0
 49
3.174999999999999
 74
     0
 49
-3.174999999999999
 74
     0
  0
LTYPE
  5
FA3
330
5
100
AcDbSymbolTableRecord
100
AcDbLinetypeTableRecord
  2
ACANSTGB
 70
     0
  3
__ . . __ . .
 72
    65
 73
     6
 40
0.35433070866
 49
0.15748031496
 74
     0
 49
-0.03937007874
 74
     0
 49
0.03937007874
 74
     0
 49
-0.03937007874
 74
     0
 49
0.03937007874
 74
     0
 49
-0.03937007874
 74
     0
  0
LTYPE
  5
FA4
330
5
100
AcDbSymbolTableRecord
100
AcDbLinetypeTableRecord
  2
ACANSTGL
 70
     0
  3
_ _ _ _ _
 72
    65
 73
     2
 40
0.11811023622
 49
0.07874015748
 74
     0
 49
-0.03937007874
 74
     0
  0
LTYPE
  5
4DED
330
5
100
AcDbSymbolTableRecord
100
AcDbLinetypeTableRecord
  2
中線
 70
     0
  3
___________________
 72
    65
 73
     2
 40
2.0
 49
1.0
 74
     0
 49
1.0
 74
     0
  0
LTYPE
  5
4DF6
330
5
100
AcDbSymbolTableRecord
100
AcDbLinetypeTableRecord
  2
細線
 70
     0
  3
___________________
 72
    65
 73
     2
 40
2.0
 49
1.0
 74
     0
 49
1.0
 74
     0
  0
LTYPE
  5
4DF7
330
5
100
AcDbSymbolTableRecord
100
AcDbLinetypeTableRecord
  2
太線
 70
     0
  3
___________________
 72
    65
 73
     2
 40
2.0
 49
1.0
 74
     0
 49
1.0
 74
     0
  0
LTYPE
  5
4EA7
330
5
100
AcDbSymbolTableRecord
100
AcDbLinetypeTableRecord
  2
文字
 70
     0
  3
_________________
 72
    65
 73
     2
 40
2.0
 49
1.0
 74
     0
 49
1.0
 74
     0
  0
LTYPE
  5
4EA9
330
5
100
AcDbSymbolTableRecord
100
AcDbLinetypeTableRecord
  2
寸法線
 70
     0
  3
________________
 72
    65
 73
     2
 40
2.0
 49
1.0
 74
     0
 49
1.0
 74
     0
  0
LTYPE
  5
4F12
330
5
100
AcDbSymbolTableRecord
100
AcDbLinetypeTableRecord
  2
ハッチング
 70
     0
  3
_________________
 72
    65
 73
     2
 40
2.0
 49
1.0
 74
     0
 49
1.0
 74
     0
  0
LTYPE
  5
5180
330
5
100
AcDbSymbolTableRecord
100
AcDbLinetypeTableRecord
  2
陰線1
 70
     0
  3
__ __ __ __
 72
    65
 73
     2
 40
4.0
 49
2.2
 74
     0
 49
-1.8
 74
     0
  0
LTYPE
  5
5182
330
5
100
AcDbSymbolTableRecord
100
AcDbLinetypeTableRecord
  2
切断線
 70
     0
  3
/\/-/\/-/\/-/\/-/\/-/\/
 72
    65
 73
     2
 40
11.0001
 49
0.0001
 74
     4
 75
   135
340
56
 46
0.04
 50
0.0
 44
0.0
 45
0.0
 49
-11.0
 74
     0
  0
LTYPE
  5
5183
330
5
100
AcDbSymbolTableRecord
100
AcDbLinetypeTableRecord
  2
想像線1
 70
     0
  3
__ __ __ _____ __ __ ____
 72
    65
 73
     6
 40
14.5
 49
6.0
 74
     0
 49
-1.5
 74
     0
 49
2.0
 74
     0
 49
-1.5
 74
     0
 49
2.0
 74
     0
 49
-1.5
 74
     0
  0
LTYPE
  5
5185
330
5
100
AcDbSymbolTableRecord
100
AcDbLinetypeTableRecord
  2
中心線1
 70
     0
  3
___ _ ___ _ ___
 72
    65
 73
     4
 40
18.0
 49
12.0
 74
     0
 49
-2.0
 74
     0
 49
2.0
 74
     0
 49
-2.0
 74
     0
  0
LTYPE
  5
5188
330
5
100
AcDbSymbolTableRecord
100
AcDbLinetypeTableRecord
  2
補助線
 70
     0
  3
______________
 72
    65
 73
     2
 40
2.0
 49
1.0
 74
     0
 49
1.0
 74
     0
  0
LTYPE
  5
C49C
330
5
100
AcDbSymbolTableRecord
100
AcDbLinetypeTableRecord
  2
HIDDEN
 70
     0
  3
Hidden __ __ __ __ __ __ __ __ __ __ __ __ __ _
 72
    65
 73
     2
 40
9.524999999999998
 49
6.349999999999999
 74
     0
 49
-3.174999999999999
 74
     0
  0
LTYPE
  5
C543
330
5
100
AcDbSymbolTableRecord
100
AcDbLinetypeTableRecord
  2
AM_ISO08W050
 70
     0
  3
____ . ____ . ____ . ____ . ____ . ____ . ____
 72
    65
 73
     4
 40
18.0
 49
12.0
 74
     0
 49
-1.5
 74
     0
 49
3.0
 74
     0
 49
-1.5
 74
     0
  0
LTYPE
  5
C544
330
5
100
AcDbSymbolTableRecord
100
AcDbLinetypeTableRecord
  2
AM_ISO09W050
 70
     0
  3
_____ . . _____ . . _____ . . ____ .. ____
 72
    65
 73
     6
 40
22.5
 49
12.0
 74
     0
 49
-1.5
 74
     0
 49
3.0
 74
     0
 49
-1.5
 74
     0
 49
3.0
 74
     0
 49
-1.5
 74
     0
  0
LTYPE
  5
C545
330
5
100
AcDbSymbolTableRecord
100
AcDbLinetypeTableRecord
  2
AM_ISO08W050x2
 70
     0
  3
__ . __ . __ . __ . __ . __
 72
    65
 73
     4
 40
9.0
 49
6.0
 74
     0
 49
-0.75
 74
     0
 49
1.5
 74
     0
 49
-0.75
 74
     0
  0
LTYPE
  5
C546
330
5
100
AcDbSymbolTableRecord
100
AcDbLinetypeTableRecord
  2
AM_ISO02W050x2
 70
     0
  3
 _ _ _ _ _ _ _ _ _ _ _ _
 72
    65
 73
     2
 40
3.75
 49
3.0
 74
     0
 49
-0.75
 74
     0
  0
LTYPE
  5
C547
330
5
100
AcDbSymbolTableRecord
100
AcDbLinetypeTableRecord
  2
Amzigzag
 70
     0
  3
/\/-/\/-/\/-/\/-/\/-/\/
 72
    65
 73
     2
 40
11.0001
 49
0.0001
 74
     4
 75
   135
340
56
 46
0.04
 50
0.0
 44
0.0
 45
0.0
 49
-11.0
 74
     0
  0
LTYPE
  5
C7E7
330
5
100
AcDbSymbolTableRecord
100
AcDbLinetypeTableRecord
  2
genzigzag
 70
     0
  3
/\/-/\/-/\/-/\/-/\/-/\/
 72
    65
 73
     2
 40
12.0001
 49
0.0001
 74
     4
 75
   135
340
C7EB
 46
2.0
 50
0.0
 44
0.0
 45
0.0
 49
-12.0
 74
     0
  0
LTYPE
  5
E598
330
5
100
AcDbSymbolTableRecord
100
AcDbLinetypeTableRecord
  2
BORDER
 70
     0
  3
__ __ . __ __ . __ __ . __ __ . __ __ . __ __ .
 72
    65
 73
     6
 40
8.75
 49
2.5
 74
     0
 49
-1.25
 74
     0
 49
2.5
 74
     0
 49
-1.25
 74
     0
 49
0.0
 74
     0
 49
-1.25
 74
     0
  0
LTYPE
  5
E599
330
5
100
AcDbSymbolTableRecord
100
AcDbLinetypeTableRecord
  2
CENTER2
 70
     0
  3
___ _ ___ _ ___ _ ___ _ ___ _ ___ _ ___ _ ___ _
 72
    65
 73
     4
 40
8.4
 49
4.65
 74
     0
 49
-1.25
 74
     0
 49
1.25
 74
     0
 49
-1.25
 74
     0
  0
LTYPE
  5
E59A
330
5
100
AcDbSymbolTableRecord
100
AcDbLinetypeTableRecord
  2
HIDDEN2
 70
     0
  3
_ _ _ _ _ _ _ _ _ _ _ _ _ _ _ _ _ _ _ _ _ _ _ _
 72
    65
 73
     2
 40
1.25
 49
0.625
 74
     0
 49
-0.625
 74
     0
  0
LTYPE
  5
E59B
330
5
100
AcDbSymbolTableRecord
100
AcDbLinetypeTableRecord
  2
Amzigzag2
 70
     0
  3
/\/-/\/-/\/-/\/-/\/-/\/
 72
    65
 73
     2
 40
0.4401
 49
0.0001
 74
     4
 75
   136
340
C7EB
 46
0.0016
 50
0.0
 44
0.0
 45
0.0
 49
-0.4400000000000001
 74
     0
  0
LTYPE
  5
223E4
330
5
100
AcDbSymbolTableRecord
100
AcDbLinetypeTableRecord
  2
DOT
 70
     0
  3
. . . . . . . . . . . . . . . . . . . . . . . .
 72
    65
 73
     2
 40
1.25
 49
0.0
 74
     0
 49
-1.25
 74
     0
  0
LTYPE
  5
25232
330
5
100
AcDbSymbolTableRecord
100
AcDbLinetypeTableRecord
  2
DIVIDE
 70
     0
  3
____ . . ____ . . ____ . . ____ . . ____ . . __
 72
    65
 73
     6
 40
6.25
 49
2.5
 74
     0
 49
-1.25
 74
     0
 49
0.0
 74
     0
 49
-1.25
 74
     0
 49
0.0
 74
     0
 49
-1.25
 74
     0
  0
LTYPE
  5
55C6D
330
5
100
AcDbSymbolTableRecord
100
AcDbLinetypeTableRecord
  2
DASHED
 70
     0
  3
__ __ __ __ __ __ __ __ __ __ __ __ __ __ __ __
 72
    65
 73
     2
 40
4.5
 49
3.0
 74
     0
 49
-1.5
 74
     0
  0
LTYPE
  5
58163
330
5
100
AcDbSymbolTableRecord
100
AcDbLinetypeTableRecord
  2
PHANTOM
 70
     0
  3
______  __  __  ______  __  __  _____
 72
    65
 73
     6
 40
15.0
 49
7.5
 74
     0
 49
-1.5
 74
     0
 49
1.5
 74
     0
 49
-1.5
 74
     0
 49
1.5
 74
     0
 49
-1.5
 74
     0
  0
ENDTAB
  0
TABLE
  2
LAYER
  5
2
102
{ACAD_XDICTIONARY
360
3F95
102
}
330
0
100
AcDbSymbolTable
 70
    37
  0
LAYER
  5
10
330
2
100
AcDbSymbolTableRecord
100
AcDbLayerTableRecord
  2
0
 70
     0
 62
     7
  6
Continuous
370
    -3
390
F
  0
LAYER
  5
6D1
330
2
100
AcDbSymbolTableRecord
100
AcDbLayerTableRecord
  2
Defpoints
 70
     0
 62
     7
  6
Continuous
290
     0
370
    -3
390
F
  0
LAYER
  5
A46
330
2
100
AcDbSymbolTableRecord
100
AcDbLayerTableRecord
  2
size
 70
     0
 62
     5
  6
Continuous
290
     0
370
    30
390
F
  0
LAYER
  5
A47
330
2
100
AcDbSymbolTableRecord
100
AcDbLayerTableRecord
  2
waku
 70
     0
 62
     7
  6
Continuous
370
    40
390
F
  0
LAYER
  5
A48
330
2
100
AcDbSymbolTableRecord
100
AcDbLayerTableRecord
  2
AM_6
 70
     0
 62
     2
  6
文字
370
    20
390
F
  0
LAYER
  5
FA5
330
2
100
AcDbSymbolTableRecord
100
AcDbLayerTableRecord
  2
1
 70
     0
 62
     7
  6
Continuous
370
    -3
390
F
  0
LAYER
  5
3A31
330
2
100
AcDbSymbolTableRecord
100
AcDbLayerTableRecord
  2
hyosen1
 70
     0
 62
     1
  6
Continuous
370
    30
390
F
  0
LAYER
  5
5765
330
2
100
AcDbSymbolTableRecord
100
AcDbLayerTableRecord
  2
hyomoji
 70
     0
 62
     2
  6
Continuous
370
    20
390
F
  0
LAYER
  5
591A
330
2
100
AcDbSymbolTableRecord
100
AcDbLayerTableRecord
  2
hyosen2
 70
     0
 62
     1
  6
Continuous
370
    20
390
F
  0
LAYER
  5
5F85
330
2
100
AcDbSymbolTableRecord
100
AcDbLayerTableRecord
  2
AM_0
 70
     0
 62
     7
  6
中線
370
    30
390
F
  0
LAYER
  5
5F89
330
2
100
AcDbSymbolTableRecord
100
AcDbLayerTableRecord
  2
AM_4
 70
     0
 62
     3
  6
補助線
370
    20
390
F
  0
LAYER
  5
5F8C
330
2
100
AcDbSymbolTableRecord
100
AcDbLayerTableRecord
  2
AM_8
 70
     0
 62
     1
  6
ハッチング
370
    18
390
F
  0
LAYER
  5
642B
330
2
100
AcDbSymbolTableRecord
100
AcDbLayerTableRecord
  2
AM_CL
 70
     0
 62
     1
  6
Amconstr
370
    20
390
F
  0
LAYER
  5
75AE
330
2
100
AcDbSymbolTableRecord
100
AcDbLayerTableRecord
  2
busen1
 70
     0
 62
    30
  6
Continuous
370
    40
390
F
  0
LAYER
  5
75AF
330
2
100
AcDbSymbolTableRecord
100
AcDbLayerTableRecord
  2
busen2
 70
     0
 62
     2
  6
Continuous
370
    20
390
F
  0
LAYER
  5
BFAA
330
2
100
AcDbSymbolTableRecord
100
AcDbLayerTableRecord
  2
AM_2
 70
     0
 62
     1
  6
細線
370
    20
390
F
  0
LAYER
  5
BFAB
330
2
100
AcDbSymbolTableRecord
100
AcDbLayerTableRecord
  2
AM_5
 70
     0
 62
     3
  6
寸法線
370
    18
390
F
  0
LAYER
  5
BFAC
330
2
100
AcDbSymbolTableRecord
100
AcDbLayerTableRecord
  2
AM_7
 70
     0
 62
     4
  6
中心線1
370
    15
390
F
  0
LAYER
  5
C5FA
330
2
100
AcDbSymbolTableRecord
100
AcDbLayerTableRecord
  2
AM_1
 70
     0
 62
    30
  6
太線
370
    40
390
F
  0
LAYER
  5
C7E8
330
2
100
AcDbSymbolTableRecord
100
AcDbLayerTableRecord
  2
AM_3
 70
     0
 62
     6
  6
陰線1
370
    20
390
F
  0
LAYER
  5
C7E9
330
2
100
AcDbSymbolTableRecord
100
AcDbLayerTableRecord
  2
AM_11
 70
     0
 62
     2
  6
想像線1
370
    20
390
F
  0
LAYER
  5
C7EA
330
2
100
AcDbSymbolTableRecord
100
AcDbLayerTableRecord
  2
AM_12
 70
     0
 62
     7
  6
Continuous
290
     0
370
    20
390
F
  0
LAYER
  5
C82C
330
2
100
AcDbSymbolTableRecord
100
AcDbLayerTableRecord
  2
AM_10
 70
     0
 62
     7
  6
切断線
370
    18
390
F
  0
LAYER
  5
CA36
330
2
100
AcDbSymbolTableRecord
100
AcDbLayerTableRecord
  2
△
 70
     0
 62
   150
  6
中線
370
    15
390
F
1001
AcAecLayerStandard
1000

1000

  0
LAYER
  5
12411
330
2
100
AcDbSymbolTableRecord
100
AcDbLayerTableRecord
  2
4
 70
     0
 62
     7
  6
Continuous
370
    -3
390
F
  0
LAYER
  5
2441C
330
2
100
AcDbSymbolTableRecord
100
AcDbLayerTableRecord
  2
0文字
 70
     0
 62
     2
  6
Continuous
370
    13
390
F
1001
AcAecLayerStandard
1000

1000

  0
LAYER
  5
28AB3
330
2
100
AcDbSymbolTableRecord
100
AcDbLayerTableRecord
  2
7
 70
     0
 62
     7
  6
Continuous
370
    -3
390
F
  0
LAYER
  5
28AB4
330
2
100
AcDbSymbolTableRecord
100
AcDbLayerTableRecord
  2
9
 70
     0
 62
     7
  6
Continuous
370
    -3
390
F
  0
LAYER
  5
28AB5
330
2
100
AcDbSymbolTableRecord
100
AcDbLayerTableRecord
  2
10
 70
     0
 62
     7
  6
Continuous
370
    -3
390
F
  0
LAYER
  5
28AB6
330
2
100
AcDbSymbolTableRecord
100
AcDbLayerTableRecord
  2
11
 70
     0
 62
     7
  6
Continuous
370
    -3
390
F
  0
LAYER
  5
28AB7
330
2
100
AcDbSymbolTableRecord
100
AcDbLayerTableRecord
  2
12
 70
     0
 62
     7
  6
Continuous
370
    -3
390
F
  0
LAYER
  5
28AB8
330
2
100
AcDbSymbolTableRecord
100
AcDbLayerTableRecord
  2
13
 70
     0
 62
     7
  6
Continuous
370
    -3
390
F
  0
LAYER
  5
44023
330
2
100
AcDbSymbolTableRecord
100
AcDbLayerTableRecord
  2
16
 70
     0
 62
     7
  6
Continuous
370
    -3
390
F
  0
LAYER
  5
4FC48
330
2
100
AcDbSymbolTableRecord
100
AcDbLayerTableRecord
  2
3
 70
     0
 62
     7
  6
Continuous
370
    -3
390
F
  0
LAYER
  5
54D7F
330
2
100
AcDbSymbolTableRecord
100
AcDbLayerTableRecord
  2
5
 70
     0
 62
     7
  6
Continuous
370
    -3
390
F
  0
LAYER
  5
58164
330
2
100
AcDbSymbolTableRecord
100
AcDbLayerTableRecord
  2
VIEW0001
 70
     0
 62
     7
  6
Continuous
370
    -3
390
F
  0
LAYER
  5
6021F
330
2
100
AcDbSymbolTableRecord
100
AcDbLayerTableRecord
  2
0000120806 鈴木検図
 70
     0
 62
    10
  6
文字
370
    40
390
F
1001
AcAecLayerStandard
1000

1000

  0
ENDTAB
  0
TABLE
  2
STYLE
  5
3
330
0
100
AcDbSymbolTable
 70
     9
  0
STYLE
  5
11
330
3
100
AcDbSymbolTableRecord
100
AcDbTextStyleTableRecord
  2
STANDARD
 70
     0
 40
0.0
 41
0.7
 50
0.0
 71
     0
 42
3.2
  3
romans.shx
  4
extfont.shx
  0
STYLE
  5
56
330
3
100
AcDbSymbolTableRecord
100
AcDbTextStyleTableRecord
  2

 70
     1
 40
0.0
 41
1.0
 50
0.0
 71
     0
 42
2.5
  3
ltypeshp.shx
  4

  0
STYLE
  5
58
330
3
100
AcDbSymbolTableRecord
100
AcDbTextStyleTableRecord
  2
ACISOTS
 70
     0
 40
1.0
 41
1.0
 50
0.0
 71
     0
 42
2.5
  3
isocp.shx
  4
extfont.shx
  0
STYLE
  5
63
330
3
100
AcDbSymbolTableRecord
100
AcDbTextStyleTableRecord
  2
ACISOGDT
 70
     0
 40
0.0
 41
1.0
 50
0.0
 71
     0
 42
2.5
  3
amgdt.shx
  4

  0
STYLE
  5
A74
330
3
100
AcDbSymbolTableRecord
100
AcDbTextStyleTableRecord
  2
DIM
 70
     0
 40
0.0
 41
1.0
 50
0.0
 71
     0
 42
2.5
  3
monotxt.shx
  4
extfont.shx
  0
STYLE
  5
FA7
330
3
100
AcDbSymbolTableRecord
100
AcDbTextStyleTableRecord
  2
ACANSTS
 70
     0
 40
1.0
 41
1.0
 50
0.0
 71
     0
 42
0.2
  3
romans.shx
  4
extfont.shx
  0
STYLE
  5
FA8
330
3
100
AcDbSymbolTableRecord
100
AcDbTextStyleTableRecord
  2
ACANSGDT
 70
     0
 40
0.0
 41
1.0
 50
0.0
 71
     0
 42
0.2
  3
amgdtans.shx
  4

  0
STYLE
  5
C7EB
330
3
100
AcDbSymbolTableRecord
100
AcDbTextStyleTableRecord
  2

 70
     1
 40
0.0
 41
1.0
 50
0.0
 71
     0
 42
3.2
  3
genltshp.shx
  4

  0
STYLE
  5
E59C
330
3
100
AcDbSymbolTableRecord
100
AcDbTextStyleTableRecord
  2
EXCESS_STANDARD
 70
     0
 40
0.0
 41
1.0
 50
0.0
 71
     0
 42
0.0
  3
txt
  4
BIGFONT
  0
ENDTAB
  0
TABLE
  2
VIEW
  5
6
330
0
100
AcDbSymbolTable
 70
     6
  0
VIEW
  5
AE1
330
6
100
AcDbSymbolTableRecord
100
AcDbViewTableRecord
  2
AM_VIEW1
 70
     0
 40
420.0
 10
-872.4621336544704
 20
-3893.809200058367
 41
670.0118343195266
 11
0.0
 21
0.0
 31
1.0
 12
0.0
 22
0.0
 32
0.0
 42
50.0
 43
-1370.695619172058
 44
-1370.695619172058
 50
0.0
 71
    16
281
     0
 72
     0
  0
VIEW
  5
AE2
330
6
100
AcDbSymbolTableRecord
100
AcDbViewTableRecord
  2
AM_VIEW2
 70
     0
 40
420.0
 10
-354.473967973997
 20
-3893.809200058367
 41
670.0118343195266
 11
0.0
 21
0.0
 31
1.0
 12
0.0
 22
0.0
 32
0.0
 42
50.0
 43
-1370.695619172058
 44
-1370.695619172058
 50
0.0
 71
    16
281
     0
 72
     0
  0
VIEW
  5
AE3
330
6
100
AcDbSymbolTableRecord
100
AcDbViewTableRecord
  2
AM_VIEW3
 70
     0
 40
420.0
 10
-872.4621336544704
 20
-4313.809200058368
 41
670.0118343195266
 11
0.0
 21
0.0
 31
1.0
 12
0.0
 22
0.0
 32
0.0
 42
50.0
 43
-1370.695619172058
 44
-1370.695619172058
 50
0.0
 71
    16
281
     0
 72
     0
  0
VIEW
  5
AE4
330
6
100
AcDbSymbolTableRecord
100
AcDbViewTableRecord
  2
AM_VIEW4
 70
     0
 40
420.0
 10
-354.473967973997
 20
-4313.809200058368
 41
670.0118343195266
 11
0.0
 21
0.0
 31
1.0
 12
0.0
 22
0.0
 32
0.0
 42
50.0
 43
-1370.695619172058
 44
-1370.695619172058
 50
0.0
 71
    16
281
     0
 72
     0
  0
VIEW
  5
AE5
330
6
100
AcDbSymbolTableRecord
100
AcDbViewTableRecord
  2
AM_VIEW5
 70
     0
 40
420.0
 10
-613.4680508142337
 20
-4103.809200058367
 41
670.0118343195267
 11
0.0
 21
0.0
 31
1.0
 12
0.0
 22
0.0
 32
0.0
 42
50.0
 43
-1370.695619172058
 44
-1370.695619172058
 50
0.0
 71
    16
281
     0
 72
     0
  0
VIEW
  5
AE6
330
6
100
AcDbSymbolTableRecord
100
AcDbViewTableRecord
  2
AM_VIEW6
 70
     0
 40
839.9915999999999
 10
-613.4680508142337
 20
-4103.809200058367
 41
1340.010268402367
 11
0.0
 21
0.0
 31
1.0
 12
0.0
 22
0.0
 32
0.0
 42
50.0
 43
-1370.695619172058
 44
-1370.695619172058
 50
0.0
 71
    16
281
     0
 72
     0
  0
ENDTAB
  0
TABLE
  2
UCS
  5
7
330
0
100
AcDbSymbolTable
 70
     0
  0
ENDTAB
  0
TABLE
  2
APPID
  5
9
330
0
100
AcDbSymbolTable
 70
    56
  0
APPID
  5
12
330
9
100
AcDbSymbolTableRecord
100
AcDbRegAppTableRecord
  2
ACAD
 70
     0
  0
APPID
  5
30
330
9
100
AcDbSymbolTableRecord
100
AcDbRegAppTableRecord
  2
MCAD_NO_VIS
 70
     0
  0
APPID
  5
31
330
9
100
AcDbSymbolTableRecord
100
AcDbRegAppTableRecord
  2
ACAD_TEMP_GRAPHIC
 70
     0
  0
APPID
  5
44
330
9
100
AcDbSymbolTableRecord
100
AcDbRegAppTableRecord
  2
ACATTRIBSERVICES
 70
     0
  0
APPID
  5
7A1
330
9
100
AcDbSymbolTableRecord
100
AcDbRegAppTableRecord
  2
GENIUS_GENDIMSH_14
 70
     0
  0
APPID
  5
A49
330
9
100
AcDbSymbolTableRecord
100
AcDbRegAppTableRecord
  2
GENIUS_GENREC_14
 70
     0
  0
APPID
  5
A4A
330
9
100
AcDbSymbolTableRecord
100
AcDbRegAppTableRecord
  2
GENIUS_GENOBJ-N-REC_13
 70
     0
  0
APPID
  5
A4B
330
9
100
AcDbSymbolTableRecord
100
AcDbRegAppTableRecord
  2
GENIUS_GENODEF_13
 70
     0
  0
APPID
  5
A4C
330
9
100
AcDbSymbolTableRecord
100
AcDbRegAppTableRecord
  2
DCO15
 70
     0
  0
APPID
  5
ADC
330
9
100
AcDbSymbolTableRecord
100
AcDbRegAppTableRecord
  2
GENIUS_GENOLIS_13
 70
     0
  0
APPID
  5
ADD
330
9
100
AcDbSymbolTableRecord
100
AcDbRegAppTableRecord
  2
GENIUS_GENOENT_13
 70
     0
  0
APPID
  5
ADE
330
9
100
AcDbSymbolTableRecord
100
AcDbRegAppTableRecord
  2
GENIUS_GENOBJ-N-TIT_13
 70
     0
  0
APPID
  5
ADF
330
9
100
AcDbSymbolTableRecord
100
AcDbRegAppTableRecord
  2
GENIUS_GENTITLE_13
 70
     0
  0
APPID
  5
AE0
330
9
100
AcDbSymbolTableRecord
100
AcDbRegAppTableRecord
  2
GENIUS_GENOREF_13
 70
     0
  0
APPID
  5
AE7
330
9
100
AcDbSymbolTableRecord
100
AcDbRegAppTableRecord
  2
GENIUS_GENSCREG_15
 70
     0
  0
APPID
  5
AE8
330
9
100
AcDbSymbolTableRecord
100
AcDbRegAppTableRecord
  2
GENIUS_GENOBJ-N-SDF_13
 70
     0
  0
APPID
  5
FAF
330
9
100
AcDbSymbolTableRecord
100
AcDbRegAppTableRecord
  2
GENIUS_GENBLLY_14
 70
     0
  0
APPID
  5
FB0
330
9
100
AcDbSymbolTableRecord
100
AcDbRegAppTableRecord
  2
GENIUS_GENTRA_14
 70
     0
  0
APPID
  5
1285
330
9
100
AcDbSymbolTableRecord
100
AcDbRegAppTableRecord
  2
GENIUS_GENDTOL_13
 70
     0
  0
APPID
  5
142D
330
9
100
AcDbSymbolTableRecord
100
AcDbRegAppTableRecord
  2
GENIUS_GENOBJ-N-CEN_13
 70
     0
  0
APPID
  5
1AB5
330
9
100
AcDbSymbolTableRecord
100
AcDbRegAppTableRecord
  2
GENIUS_GENOBJ-N-CRS_13
 70
     0
  0
APPID
  5
1B36
330
9
100
AcDbSymbolTableRecord
100
AcDbRegAppTableRecord
  2
GENIUS_GENOBJ-N-HTC_13
 70
     0
  0
APPID
  5
1B37
330
9
100
AcDbSymbolTableRecord
100
AcDbRegAppTableRecord
  2
GENIUS_GENHATCH_13
 70
     0
  0
APPID
  5
216D
330
9
100
AcDbSymbolTableRecord
100
AcDbRegAppTableRecord
  2
GENIUS_GENOBJ-N-FIL_13
 70
     0
  0
APPID
  5
2356
330
9
100
AcDbSymbolTableRecord
100
AcDbRegAppTableRecord
  2
GEVID990412420
 70
     0
  0
APPID
  5
2357
330
9
100
AcDbSymbolTableRecord
100
AcDbRegAppTableRecord
  2
GEVDC
 70
     0
  0
APPID
  5
2358
330
9
100
AcDbSymbolTableRecord
100
AcDbRegAppTableRecord
  2
GEVCON
 70
     0
  0
APPID
  5
235B
330
9
100
AcDbSymbolTableRecord
100
AcDbRegAppTableRecord
  2
GEVRADREF
 70
     0
  0
APPID
  5
2360
330
9
100
AcDbSymbolTableRecord
100
AcDbRegAppTableRecord
  2
GENIUS_GENBH_13
 70
     0
  0
APPID
  5
2362
330
9
100
AcDbSymbolTableRecord
100
AcDbRegAppTableRecord
  2
GENIUS_GENOBJ-NBEHI-BHF_13
 70
     0
  0
APPID
  5
2364
330
9
100
AcDbSymbolTableRecord
100
AcDbRegAppTableRecord
  2
GENIUS_GENOBJ-NBEHI-BHB_13
 70
     0
  0
APPID
  5
2379
330
9
100
AcDbSymbolTableRecord
100
AcDbRegAppTableRecord
  2
GENIUS_GENOBJ-F-SCPASSM_13
 70
     0
  0
APPID
  5
3D74
330
9
100
AcDbSymbolTableRecord
100
AcDbRegAppTableRecord
  2
GENIUS_GENDIM_13
 70
     0
  0
APPID
  5
3D76
330
9
100
AcDbSymbolTableRecord
100
AcDbRegAppTableRecord
  2
GENIUS_GE3DTOL_13
 70
     0
  0
APPID
  5
3D9C
330
9
100
AcDbSymbolTableRecord
100
AcDbRegAppTableRecord
  2
AD_DRAW
 70
     0
  0
APPID
  5
3DE8
330
9
100
AcDbSymbolTableRecord
100
AcDbRegAppTableRecord
  2
ASURF_PCURVE_APPNAME
 70
     0
  0
APPID
  5
3DED
330
9
100
AcDbSymbolTableRecord
100
AcDbRegAppTableRecord
  2
AMG_3D2D_5.0
 70
     0
  0
APPID
  5
3E1B
330
9
100
AcDbSymbolTableRecord
100
AcDbRegAppTableRecord
  2
DESIGNERASSEMBLIES
 70
     0
  0
APPID
  5
3E20
330
9
100
AcDbSymbolTableRecord
100
AcDbRegAppTableRecord
  2
ACADM_DIM_EDIT
 70
     0
  0
APPID
  5
3E21
330
9
100
AcDbSymbolTableRecord
100
AcDbRegAppTableRecord
  2
AMDT_DM_ADJ
 70
     0
  0
APPID
  5
4143
330
9
100
AcDbSymbolTableRecord
100
AcDbRegAppTableRecord
  2
GENIUS_GENFIL_13
 70
     0
  0
APPID
  5
4144
330
9
100
AcDbSymbolTableRecord
100
AcDbRegAppTableRecord
  2
GENIUS_GENOBJ-N-CHA_13
 70
     0
  0
APPID
  5
4E17
330
9
100
AcDbSymbolTableRecord
100
AcDbRegAppTableRecord
  2
GEVID1008153417
 70
     0
  0
APPID
  5
4E58
330
9
100
AcDbSymbolTableRecord
100
AcDbRegAppTableRecord
  2
GEVID1008153418
 70
     0
  0
APPID
  5
4E5E
330
9
100
AcDbSymbolTableRecord
100
AcDbRegAppTableRecord
  2
GEVID1008153419
 70
     0
  0
APPID
  5
4E64
330
9
100
AcDbSymbolTableRecord
100
AcDbRegAppTableRecord
  2
GEVID1008153420
 70
     0
  0
APPID
  5
4E75
330
9
100
AcDbSymbolTableRecord
100
AcDbRegAppTableRecord
  2
GEVID1008153421
 70
     0
  0
APPID
  5
4EB7
330
9
100
AcDbSymbolTableRecord
100
AcDbRegAppTableRecord
  2
GENIUS_AMGTXT_16
 70
     0
  0
APPID
  5
7645
330
9
100
AcDbSymbolTableRecord
100
AcDbRegAppTableRecord
  2
GENIUS_GENOBJ-N-DIM_13
 70
     0
  0
APPID
  5
C5F0
330
9
100
AcDbSymbolTableRecord
100
AcDbRegAppTableRecord
  2
GENIUS_GENCEN_19
 70
     0
  0
APPID
  5
C5FB
330
9
100
AcDbSymbolTableRecord
100
AcDbRegAppTableRecord
  2
ACAD_DSTYLE_DIMJOGGED_JOGANGLE_SYMBOL
 70
     0
  0
APPID
  5
C5FC
330
9
100
AcDbSymbolTableRecord
100
AcDbRegAppTableRecord
  2
ACAD_PSEXT
 70
     0
  0
APPID
  5
CA37
330
9
100
AcDbSymbolTableRecord
100
AcDbRegAppTableRecord
  2
AcAecLayerStandard
 70
     0
  0
APPID
  5
14704
330
9
100
AcDbSymbolTableRecord
100
AcDbRegAppTableRecord
  2
ACAD_EXEMPT_FROM_CAD_STANDARDS
 70
     0
  0
APPID
  5
5EF82
330
9
100
AcDbSymbolTableRecord
100
AcDbRegAppTableRecord
  2
ACAD_DSTYLE_DIMINSPECT
 70
     0
  0
APPID
  5
5EF83
330
9
100
AcDbSymbolTableRecord
100
AcDbRegAppTableRecord
  2
ACAD_DSTYLE_DIMRADIAL_EXTENSION
 70
     0
  0
ENDTAB
  0
TABLE
  2
DIMSTYLE
  5
A
330
0
100
AcDbSymbolTable
 70
    27
100
AcDbDimStyleTable
 71
     5
340
2515
340
251A
340
251B
340
6C
340
FA9
  0
DIMSTYLE
105
6C
330
A
100
AcDbSymbolTableRecord
100
AcDbDimStyleTableRecord
  2
AM_ISO
 70
     0
  4
"
 41
2.5
 42
1.0
 43
10.0
 44
1.0
 47
0.1
 48
0.1
 73
     0
 74
     0
 77
     1
 78
     8
 79
     2
140
3.5
141
0.0
143
0.0393701
146
0.71
147
1.5
172
     1
176
   256
177
   256
178
     2
271
     2
272
     3
274
     4
283
     0
284
     8
340
11
371
    -1
372
    -1
  0
DIMSTYLE
105
6D
330
A
100
AcDbSymbolTableRecord
100
AcDbDimStyleTableRecord
  2
AM_ISO$3
 70
     0
  4
"
 41
0.8
 42
1.0
 43
10.0
 44
1.0
 47
0.1
 48
0.1
 73
     0
 77
     1
 78
     8
 79
     2
140
3.2
141
0.0
143
0.0393701
146
0.71
147
0.9999999999999996
176
   256
177
   256
178
     2
271
     2
272
     2
283
     0
284
     8
288
     1
289
     0
340
11
342
6C4
371
    -1
372
    -1
  0
DIMSTYLE
105
6E
330
A
100
AcDbSymbolTableRecord
100
AcDbDimStyleTableRecord
  2
AM_ISO$4
 70
     0
  4
"
 41
0.8
 42
1.0
 43
10.0
 44
1.0
 47
0.1
 48
0.1
 73
     0
 77
     1
 78
     8
 79
     2
140
3.2
141
0.0
143
0.0393701
146
0.71
147
1.0
173
     1
176
   256
177
   256
178
     2
271
     2
272
     2
283
     0
284
     8
288
     1
289
     0
340
11
344
6C4
371
    -1
372
    -1
  0
DIMSTYLE
105
6F
330
A
100
AcDbSymbolTableRecord
100
AcDbDimStyleTableRecord
  2
AM_ISO$6
 70
     0
  4
"
 41
0.8
 42
1.0
 43
10.0
 44
1.0
 47
0.1
 48
0.1
 73
     0
 74
     0
 78
     8
 79
     2
140
3.2
141
0.0
143
0.0393701
146
0.71
147
1.0
172
     1
176
   256
177
   256
178
     2
271
     2
272
     2
283
     0
284
     8
340
11
341
6C4
371
    -1
372
    -1
  0
DIMSTYLE
105
70
330
A
100
AcDbSymbolTableRecord
100
AcDbDimStyleTableRecord
  2
AM_ISO$7
 70
     0
  4
"
 41
0.8
 42
1.0
 43
10.0
 44
1.0
 47
0.1
 48
0.1
 73
     0
 74
     0
 77
     1
 78
     8
 79
     2
140
3.2
141
0.0
143
0.0393701
146
0.71
147
1.0
172
     1
176
   256
177
   256
178
     2
271
     2
272
     2
283
     0
284
     8
340
11
341
6C4
342
6C4
371
    -1
372
    -1
  0
DIMSTYLE
105
71
330
A
100
AcDbSymbolTableRecord
100
AcDbDimStyleTableRecord
  2
AM_ISO$SF
 70
     0
  4
"
 41
0.8
 42
1.0
 43
10.0
 44
1.0
 47
0.1
 48
0.1
 73
     0
 74
     0
 75
     1
 76
     1
 77
     1
 78
     8
 79
     2
140
3.2
141
0.0
143
0.0393701
146
0.71
147
1.0
172
     1
176
   256
177
   256
178
     2
271
     2
272
     2
283
     0
284
     8
340
11
341
6C4
342
6C4
371
    -1
372
    -1
  0
DIMSTYLE
105
76
330
A
100
AcDbSymbolTableRecord
100
AcDbDimStyleTableRecord
  2
AM_ISO$SH
 70
     0
  4
"
 41
0.8
 42
1.0
 43
10.0
 44
1.0
 47
0.1
 48
0.1
 73
     0
 74
     0
 75
     1
 76
     1
 77
     1
 78
     8
 79
     2
140
3.2
141
0.0
143
0.0393701
144
2.0
146
0.71
147
1.0
172
     1
176
   256
177
   256
178
     2
271
     2
272
     2
283
     0
284
     8
340
11
341
6C4
342
6C4
371
    -1
372
    -1
  0
DIMSTYLE
105
6BE
330
A
100
AcDbSymbolTableRecord
100
AcDbDimStyleTableRecord
  2
AM_ISO$0
 70
     0
  4
"
 41
0.8
 42
1.0
 43
10.0
 44
1.0
 47
0.1
 48
0.1
 73
     0
 74
     0
 77
     1
 78
     8
 79
     2
140
3.2
141
0.0
143
0.0393701
146
0.71
147
0.9999999999999996
172
     1
176
   256
177
   256
178
     2
271
     2
272
     2
283
     0
284
     8
340
11
341
6C4
342
6C4
371
    -1
372
    -1
  0
DIMSTYLE
105
6BF
330
A
100
AcDbSymbolTableRecord
100
AcDbDimStyleTableRecord
  2
AM_ISO$2
 70
     0
  4
"
 41
0.8
 42
1.0
 43
10.0
 44
1.0
 47
0.1
 48
0.1
 73
     0
 74
     0
 77
     3
 78
     8
 79
     2
140
3.200000000000001
141
0.0
143
0.0393701
146
0.71
147
0.9999999999999996
172
     1
176
   256
177
   256
178
     2
271
     2
272
     2
283
     0
284
     8
340
11
342
6C4
371
    -1
372
    -1
  0
DIMSTYLE
105
A76
330
A
100
AcDbSymbolTableRecord
100
AcDbDimStyleTableRecord
  2
STANDARD
 70
     0
 41
3.0
 42
1.0
 43
7.0
 44
2.0
 73
     0
 74
     0
 77
     1
140
2.799999999999999
141
0.0
143
0.0394
147
0.7
171
     4
172
     1
173
     1
176
     3
177
     3
178
     2
271
     3
272
     3
273
     8
274
     4
289
     0
340
A74
341
A66
343
A66
344
A66
  0
DIMSTYLE
105
FA9
330
A
100
AcDbSymbolTableRecord
100
AcDbDimStyleTableRecord
  2
AM_ANSI
 70
     0
  4
mm
 41
0.1
 42
0.05
 43
0.5
 44
0.1
 47
0.1
 48
0.1
 78
     7
 79
     2
140
0.12
141
0.0
146
0.71
147
0.06
176
   256
177
   256
178
     2
274
     4
284
     7
340
11
371
    -1
372
    -1
  0
DIMSTYLE
105
FAA
330
A
100
AcDbSymbolTableRecord
100
AcDbDimStyleTableRecord
  2
AM_ANSI$3
 70
     0
  4
mm
 41
0.1
 42
0.05
 43
0.5
 44
0.1
 47
0.1
 48
0.1
 78
     7
 79
     2
140
0.12
141
0.0
146
0.71
147
0.06
176
   256
177
   256
178
     2
274
     4
284
     7
288
     1
289
     0
340
11
371
    -1
372
    -1
  0
DIMSTYLE
105
FAB
330
A
100
AcDbSymbolTableRecord
100
AcDbDimStyleTableRecord
  2
AM_ANSI$4
 70
     0
  4
mm
 41
0.1
 42
0.05
 43
0.5
 44
0.1
 47
0.1
 48
0.1
 78
     7
 79
     2
140
0.12
141
0.0
146
0.71
147
0.06
176
   256
177
   256
178
     2
274
     4
284
     7
288
     1
289
     0
340
11
371
    -1
372
    -1
  0
DIMSTYLE
105
FAC
330
A
100
AcDbSymbolTableRecord
100
AcDbDimStyleTableRecord
  2
AM_ANSI$7
 70
     0
  4
mm
 41
0.1
 42
0.05
 43
0.5
 44
0.1
 47
0.1
 48
0.1
 78
     7
 79
     2
140
0.24
141
0.0
146
0.71
147
0.06
176
   256
177
   256
178
     2
274
     4
284
     7
340
11
371
    -1
372
    -1
  0
DIMSTYLE
105
FAD
330
A
100
AcDbSymbolTableRecord
100
AcDbDimStyleTableRecord
  2
AM_ANSI$SF
 70
     0
  4
mm
 41
0.1
 42
0.05
 43
0.5
 44
0.1
 47
0.1
 48
0.1
 75
     1
 76
     1
 78
     7
 79
     2
140
0.12
141
0.0
146
0.71
147
0.06
176
   256
177
   256
178
     2
274
     4
284
     7
340
11
371
    -1
372
    -1
  0
DIMSTYLE
105
FAE
330
A
100
AcDbSymbolTableRecord
100
AcDbDimStyleTableRecord
  2
AM_ANSI$SH
 70
     0
  4
mm
 41
0.1
 42
0.05
 43
0.5
 44
0.1
 47
0.1
 48
0.1
 75
     1
 76
     1
 78
     7
 79
     2
140
0.12
141
0.0
146
0.71
147
0.06
173
     1
176
   256
177
   256
178
     2
274
     4
284
     7
340
11
343
72
371
    -1
372
    -1
  0
DIMSTYLE
105
2515
330
A
100
AcDbSymbolTableRecord
100
AcDbDimStyleTableRecord
  2
SYS
 70
     0
  4
"
 41
2.5
 42
1.0
 43
10.0
 44
1.0
 47
0.1
 48
0.1
 73
     0
 74
     0
 77
     1
 78
     8
 79
     2
140
3.5
141
0.0
143
0.0393701
146
0.71
147
1.5
172
     1
176
   256
177
   256
178
     7
271
     2
272
     3
274
     4
283
     0
284
     8
340
11
371
    -1
372
    -1
  0
DIMSTYLE
105
2516
102
{ACAD_REACTORS
330
54F4E
330
54FCA
330
551DB
102
}
330
A
100
AcDbSymbolTableRecord
100
AcDbDimStyleTableRecord
  2
SYS$3
 70
     0
  4
"
 41
2.0
 42
1.0
 43
10.0
 44
1.0
 47
0.1
 48
0.1
 73
     0
 77
     1
 78
     8
 79
     2
140
3.200000000000001
141
0.0
143
0.0393701
146
0.71
147
0.9999999999999996
176
   256
177
   256
178
     2
271
     1
272
     1
283
     0
284
     8
288
     1
340
11
342
A66
371
    -1
372
    -1
  0
DIMSTYLE
105
2517
330
A
100
AcDbSymbolTableRecord
100
AcDbDimStyleTableRecord
  2
SYS$4
 70
     0
  4
"
 41
2.0
 42
1.0
 43
10.0
 44
1.0
 47
0.1
 48
0.1
 73
     0
 77
     1
 78
     8
 79
     2
140
3.2
141
0.0
143
0.0393701
146
0.71
147
0.9999999999999996
173
     1
176
   256
177
   256
178
     2
271
     2
272
     2
283
     0
284
     8
288
     1
340
11
344
A66
371
    -1
372
    -1
  0
DIMSTYLE
105
2518
330
A
100
AcDbSymbolTableRecord
100
AcDbDimStyleTableRecord
  2
SYS$6
 70
     0
  4
"
 41
2.0
 42
1.0
 43
10.0
 44
1.0
 47
0.1
 48
0.1
 73
     0
 74
     0
 78
     8
 79
     2
140
3.2
141
0.0
143
0.0393701
146
0.71
147
0.9999999999999996
172
     1
176
   256
177
   256
178
     2
271
     2
272
     2
283
     0
284
     8
340
11
341
A66
371
    -1
372
    -1
  0
DIMSTYLE
105
2519
330
A
100
AcDbSymbolTableRecord
100
AcDbDimStyleTableRecord
  2
SYS$7
 70
     0
  4
"
 41
2.0
 42
1.5
 43
10.0
 44
1.0
 47
0.1
 48
0.1
 73
     0
 74
     0
 77
     1
 78
     8
 79
     2
140
3.2
141
0.0
143
0.0393701
146
0.71
147
0.9999999999999996
172
     1
176
   256
177
   256
178
     2
271
     2
272
     2
283
     0
284
     8
340
11
341
A66
342
A66
371
    -1
372
    -1
  0
DIMSTYLE
105
251A
330
A
100
AcDbSymbolTableRecord
100
AcDbDimStyleTableRecord
  2
SYS$SF
 70
     0
  4
"
 41
1.0
 42
1.0
 43
10.0
 44
1.0
 47
0.1
 48
0.1
 73
     0
 74
     0
 75
     1
 76
     1
 77
     1
 78
     8
 79
     2
140
3.2
141
0.0
143
0.0393701
146
0.71
147
0.9999999999999996
172
     1
176
   256
177
   256
178
     2
271
     2
272
     2
283
     0
284
     8
340
11
341
6C4
342
6C4
371
    -1
372
    -1
  0
DIMSTYLE
105
251B
330
A
100
AcDbSymbolTableRecord
100
AcDbDimStyleTableRecord
  2
SYS$SH
 70
     0
  4
"
 41
1.0
 42
1.0
 43
10.0
 44
1.0
 47
0.1
 48
0.1
 73
     0
 74
     0
 75
     1
 76
     1
 77
     1
 78
     8
 79
     2
140
3.2
141
0.0
143
0.0393701
144
2.0
146
0.71
147
0.9999999999999996
172
     1
173
     1
176
   256
177
   256
178
     2
271
     2
272
     2
283
     0
284
     8
340
11
341
6C4
343
72
344
6C4
371
    -1
372
    -1
  0
DIMSTYLE
105
2A59
330
A
100
AcDbSymbolTableRecord
100
AcDbDimStyleTableRecord
  2
SYS$2
 70
     0
  4
"
 41
1.0
 42
1.5
 43
10.0
 44
1.0
 47
0.1
 48
0.1
 73
     0
 74
     0
 77
     1
 78
     8
 79
     2
140
3.2
141
0.0
143
0.0393701
146
0.71
147
0.9999999999999996
172
     1
176
   256
177
   256
178
     2
271
     2
272
     2
283
     0
284
     8
340
11
342
6C4
371
    -1
372
    -1
  0
DIMSTYLE
105
2AAB
102
{ACAD_REACTORS
330
54E3E
330
54EB0
330
54EE3
330
54EFB
330
54F2E
330
5519F
330
551A2
330
551D8
102
}
330
A
100
AcDbSymbolTableRecord
100
AcDbDimStyleTableRecord
  2
SYS$0
 70
     0
  4
"
 41
1.0
 42
1.5
 43
10.0
 44
1.0
 47
0.1
 48
0.1
 73
     0
 74
     0
 77
     1
 78
     8
 79
     2
140
3.2
141
0.0
143
0.0393701
146
0.71
147
0.9999999999999996
172
     1
176
   256
177
   256
178
     2
271
     1
272
     1
283
     0
284
     8
340
11
341
A66
342
6C4
371
    -1
372
    -1
  0
DIMSTYLE
105
C58E
330
A
100
AcDbSymbolTableRecord
100
AcDbDimStyleTableRecord
  2
SYSORG2P0
 70
     0
  4
"
 41
1.0
 42
1.0
 43
10.0
 44
1.0
 47
0.2
 48
0.2000000002
 71
     1
 73
     0
 74
     0
 77
     1
 78
     8
 79
     2
140
3.5
141
0.0
143
0.0393701
144
2.0
146
0.6
147
1.5
172
     1
176
   256
177
   256
178
     7
271
     2
272
     2
283
     0
284
     8
340
11
341
6C4
342
6C4
371
    -1
372
    -1
  0
DIMSTYLE
105
110F8
330
A
100
AcDbSymbolTableRecord
100
AcDbDimStyleTableRecord
  2
ISO-25
 70
     0
 41
3.0
 42
0.3
 43
9.0
 44
1.25
 73
     0
 74
     0
 77
     1
140
5.0
141
2.5
146
0.6
147
0.2
171
     3
172
     1
279
     2
340
11
  0
ENDTAB
  0
TABLE
  2
BLOCK_RECORD
  5
1
330
0
100
AcDbSymbolTable
 70
    16
  0
BLOCK_RECORD
  5
1F
102
{ACAD_XDICTIONARY
360
8A
102
}
330
1
100
AcDbSymbolTableRecord
100
AcDbBlockTableRecord
  2
*Model_Space
340
22
  0
BLOCK_RECORD
  5
1B
330
1
100
AcDbSymbolTableRecord
100
AcDbBlockTableRecord
  2
*Paper_Space
340
1E
  0
BLOCK_RECORD
  5
23
330
1
100
AcDbSymbolTableRecord
100
AcDbBlockTableRecord
  2
*Paper_Space0
340
26
  0
BLOCK_RECORD
  5
72
330
1
100
AcDbSymbolTableRecord
100
AcDbBlockTableRecord
  2
GENAXEH
340
0
  0
BLOCK_RECORD
  5
6C4
330
1
100
AcDbSymbolTableRecord
100
AcDbBlockTableRecord
  2
_Dot
340
0
102
{BLKREFS
331
63F9F
331
63FA0
331
63FA8
331
63FA9
331
63FB1
331
63FB2
331
63FBA
331
63FBB
331
63FC5
331
63FC6
331
63FE0
331
63FE1
331
63FE9
331
63FEA
331
63FF4
331
63FF5
331
63FFF
331
64000
331
64008
331
64009
331
64011
331
64012
102
}
  0
BLOCK_RECORD
  5
A66
330
1
100
AcDbSymbolTableRecord
100
AcDbBlockTableRecord
  2
_OPEN30
340
0
  0
BLOCK_RECORD
  5
54E3F
330
1
100
AcDbSymbolTableRecord
100
AcDbBlockTableRecord
  2
*D5
340
0
  0
BLOCK_RECORD
  5
54EB1
330
1
100
AcDbSymbolTableRecord
100
AcDbBlockTableRecord
  2
*D6
340
0
  0
BLOCK_RECORD
  5
54EE4
330
1
100
AcDbSymbolTableRecord
100
AcDbBlockTableRecord
  2
*D7
340
0
  0
BLOCK_RECORD
  5
54EFC
330
1
100
AcDbSymbolTableRecord
100
AcDbBlockTableRecord
  2
*D8
340
0
  0
BLOCK_RECORD
  5
54F2F
330
1
100
AcDbSymbolTableRecord
100
AcDbBlockTableRecord
  2
*D9
340
0
  0
BLOCK_RECORD
  5
54F4F
330
1
100
AcDbSymbolTableRecord
100
AcDbBlockTableRecord
  2
*D10
340
0
  0
BLOCK_RECORD
  5
54FCB
330
1
100
AcDbSymbolTableRecord
100
AcDbBlockTableRecord
  2
*D11
340
0
  0
BLOCK_RECORD
  5
551A5
330
1
100
AcDbSymbolTableRecord
100
AcDbBlockTableRecord
  2
*D12
340
0
  0
BLOCK_RECORD
  5
551B1
330
1
100
AcDbSymbolTableRecord
100
AcDbBlockTableRecord
  2
*D13
340
0
  0
BLOCK_RECORD
  5
551DE
330
1
100
AcDbSymbolTableRecord
100
AcDbBlockTableRecord
  2
*D14
340
0
  0
BLOCK_RECORD
  5
551EC
330
1
100
AcDbSymbolTableRecord
100
AcDbBlockTableRecord
  2
*D15
340
0
  0
ENDTAB
  0
ENDSEC
  0
SECTION
  2
BLOCKS
  0
BLOCK
  5
20
330
1F
100
AcDbEntity
  8
0
100
AcDbBlockBegin
  2
*Model_Space
 70
     0
 10
0.0
 20
0.0
 30
0.0
  3
*Model_Space
  1

  0
ENDBLK
  5
21
330
1F
100
AcDbEntity
  8
0
100
AcDbBlockEnd
  0
BLOCK
  5
1C
330
1B
100
AcDbEntity
 67
     1
  8
0
100
AcDbBlockBegin
  2
*Paper_Space
 70
     0
 10
0.0
 20
0.0
 30
0.0
  3
*Paper_Space
  1

  0
ENDBLK
  5
1D
330
1B
100
AcDbEntity
 67
     1
  8
0
100
AcDbBlockEnd
  0
BLOCK
  5
24
330
23
100
AcDbEntity
 67
     1
  8
0
100
AcDbBlockBegin
  2
*Paper_Space0
 70
     0
 10
0.0
 20
0.0
 30
0.0
  3
*Paper_Space0
  1

  0
ENDBLK
  5
25
330
23
100
AcDbEntity
 67
     1
  8
0
100
AcDbBlockEnd
  0
BLOCK
  5
74
330
72
100
AcDbEntity
  8
0
100
AcDbBlockBegin
  2
GENAXEH
 70
     0
 10
0.0
 20
0.0
 30
0.0
  3
GENAXEH
  1

  0
LINE
  5
73
330
72
100
AcDbEntity
  8
0
100
AcDbLine
 10
-1.0
 20
0.0
 30
0.0
 11
1.0
 21
0.0
 31
0.0
  0
ENDBLK
  5
75
330
72
100
AcDbEntity
  8
0
100
AcDbBlockEnd
  0
BLOCK
  5
6C7
330
6C4
100
AcDbEntity
  8
0
100
AcDbBlockBegin
  2
_Dot
 70
     0
 10
0.0
 20
0.0
 30
0.0
  3
_Dot
  1

  0
LWPOLYLINE
  5
6C5
330
6C4
100
AcDbEntity
  8
0
  6
ByBlock
 62
     0
100
AcDbPolyline
 90
        2
 70
     1
 43
0.5
 10
-0.25
 20
0.0
 42
1.0
 10
0.25
 20
0.0
 42
1.0
  0
LINE
  5
6C6
330
6C4
100
AcDbEntity
  8
0
  6
ByBlock
 62
     0
370
    -2
100
AcDbLine
 10
-0.5
 20
0.0
 30
0.0
 11
-1.0
 21
0.0
 31
0.0
  0
ENDBLK
  5
6C8
330
6C4
100
AcDbEntity
  8
0
100
AcDbBlockEnd
  0
BLOCK
  5
A6A
330
A66
100
AcDbEntity
  8
0
100
AcDbBlockBegin
  2
_OPEN30
 70
     0
 10
0.0
 20
0.0
 30
0.0
  3
_OPEN30
  1

  0
LINE
  5
A67
330
A66
100
AcDbEntity
  8
0
  6
ByBlock
 62
     0
100
AcDbLine
 10
-1.0
 20
0.26794919
 30
0.0
 11
0.0
 21
0.0
 31
0.0
  0
LINE
  5
A68
330
A66
100
AcDbEntity
  8
0
  6
ByBlock
 62
     0
100
AcDbLine
 10
0.0
 20
0.0
 30
0.0
 11
-1.0
 21
-0.26794919
 31
0.0
  0
LINE
  5
A69
330
A66
100
AcDbEntity
  8
0
  6
ByBlock
 62
     0
100
AcDbLine
 10
0.0
 20
0.0
 30
0.0
 11
-1.0
 21
0.0
 31
0.0
  0
ENDBLK
  5
A6B
330
A66
100
AcDbEntity
  8
0
100
AcDbBlockEnd
  0
BLOCK
  5
54E49
330
54E3F
100
AcDbEntity
  8
0
100
AcDbBlockBegin
  2
*D5
 70
     1
 10
0.0
 20
0.0
 30
0.0
  3
*D5
  1

  0
LINE
  5
63F9C
330
54E3F
100
AcDbEntity
  8
AM_5
100
AcDbLine
 10
216.0
 20
132.1000000000003
 30
0.0
 11
216.0
 21
144.5
 31
0.0
  0
LINE
  5
63F9D
330
54E3F
100
AcDbEntity
  8
AM_5
100
AcDbLine
 10
241.0
 20
132.1277500000001
 30
0.0
 11
241.0
 21
144.5
 31
0.0
  0
LINE
  5
63F9E
330
54E3F
100
AcDbEntity
  8
AM_5
100
AcDbLine
 10
217.0
 20
143.5
 30
0.0
 11
240.0
 21
143.5
 31
0.0
  0
INSERT
  5
63F9F
330
54E3F
100
AcDbEntity
  8
AM_5
100
AcDbBlockReference
  2
_Dot
 10
216.0
 20
143.5
 30
0.0
 41
1.0
 42
1.0
 43
1.0
 50
180.0
  0
INSERT
  5
63FA0
330
54E3F
100
AcDbEntity
  8
AM_5
100
AcDbBlockReference
  2
_Dot
 10
241.0
 20
143.5
 30
0.0
 41
1.0
 42
1.0
 43
1.0
  0
MTEXT
  5
63FA1
330
54E3F
100
AcDbEntity
  8
AM_5
 62
     2
100
AcDbMText
 10
228.5
 20
146.1
 30
0.0
 40
3.2
 41
0.0
 71
     5
 72
     1
  1
D
 73
     1
 44
1.0
1001
ACAD
1000
MTEXTBEGIN
1070
    73
1070
     1
1070
    44
1040
1.0
1070
    74
1070
     0
1000
MTEXTEND
  0
POINT
  5
63FA2
330
54E3F
100
AcDbEntity
  8
Defpoints
 62
     0
100
AcDbPoint
 10
216.0
 20
130.6000000000003
 30
0.0
  0
POINT
  5
63FA3
330
54E3F
100
AcDbEntity
  8
Defpoints
 62
     0
100
AcDbPoint
 10
241.0
 20
130.6277500000001
 30
0.0
  0
POINT
  5
63FA4
330
54E3F
100
AcDbEntity
  8
Defpoints
 62
     0
100
AcDbPoint
 10
241.0
 20
143.5
 30
0.0
  0
ENDBLK
  5
54E4A
330
54E3F
100
AcDbEntity
  8
0
100
AcDbBlockEnd
  0
BLOCK
  5
54EBB
330
54EB1
100
AcDbEntity
  8
0
100
AcDbBlockBegin
  2
*D6
 70
     1
 10
0.0
 20
0.0
 30
0.0
  3
*D6
  1

  0
LINE
  5
63FA5
330
54EB1
100
AcDbEntity
  8
AM_5
100
AcDbLine
 10
209.5
 20
136.5
 30
0.0
 11
209.5
 21
152.5
 31
0.0
  0
LINE
  5
63FA6
330
54EB1
100
AcDbEntity
  8
AM_5
100
AcDbLine
 10
247.5
 20
136.0277500000002
 30
0.0
 11
247.5
 21
152.5
 31
0.0
  0
LINE
  5
63FA7
330
54EB1
100
AcDbEntity
  8
AM_5
100
AcDbLine
 10
210.5
 20
151.5
 30
0.0
 11
246.5
 21
151.5
 31
0.0
  0
INSERT
  5
63FA8
330
54EB1
100
AcDbEntity
  8
AM_5
100
AcDbBlockReference
  2
_Dot
 10
209.5
 20
151.5
 30
0.0
 41
1.0
 42
1.0
 43
1.0
 50
180.0
  0
INSERT
  5
63FA9
330
54EB1
100
AcDbEntity
  8
AM_5
100
AcDbBlockReference
  2
_Dot
 10
247.5
 20
151.5
 30
0.0
 41
1.0
 42
1.0
 43
1.0
  0
MTEXT
  5
63FAA
330
54EB1
100
AcDbEntity
  8
AM_5
 62
     2
100
AcDbMText
 10
228.5
 20
154.1
 30
0.0
 40
3.2
 41
0.0
 71
     5
 72
     1
  1
B
 73
     1
 44
1.0
1001
ACAD
1000
MTEXTBEGIN
1070
    73
1070
     1
1070
    44
1040
1.0
1070
    74
1070
     0
1000
MTEXTEND
  0
POINT
  5
63FAB
330
54EB1
100
AcDbEntity
  8
Defpoints
 62
     0
100
AcDbPoint
 10
209.5
 20
135.0
 30
0.0
  0
POINT
  5
63FAC
330
54EB1
100
AcDbEntity
  8
Defpoints
 62
     0
100
AcDbPoint
 10
247.5
 20
134.5277500000002
 30
0.0
  0
POINT
  5
63FAD
330
54EB1
100
AcDbEntity
  8
Defpoints
 62
     0
100
AcDbPoint
 10
247.5
 20
151.5
 30
0.0
  0
ENDBLK
  5
54EBC
330
54EB1
100
AcDbEntity
  8
0
100
AcDbBlockEnd
  0
BLOCK
  5
54EEE
330
54EE4
100
AcDbEntity
  8
0
100
AcDbBlockBegin
  2
*D7
 70
     1
 10
0.0
 20
0.0
 30
0.0
  3
*D7
  1

  0
LINE
  5
63FAE
330
54EE4
100
AcDbEntity
  8
AM_5
100
AcDbLine
 10
248.0
 20
135.5277500000002
 30
0.0
 11
258.5
 21
135.5277500000002
 31
0.0
  0
LINE
  5
63FAF
330
54EE4
100
AcDbEntity
  8
AM_5
100
AcDbLine
 10
248.0
 20
84.5277500000002
 30
0.0
 11
258.5
 21
84.5277500000002
 31
0.0
  0
LINE
  5
63FB0
330
54EE4
100
AcDbEntity
  8
AM_5
100
AcDbLine
 10
257.5000000000001
 20
134.5277500000002
 30
0.0
 11
257.5
 21
85.5277500000002
 31
0.0
  0
INSERT
  5
63FB1
330
54EE4
100
AcDbEntity
  8
AM_5
100
AcDbBlockReference
  2
_Dot
 10
257.5000000000001
 20
135.5277500000002
 30
0.0
 41
1.0
 42
1.0
 43
1.0
 50
90.0
  0
INSERT
  5
63FB2
330
54EE4
100
AcDbEntity
  8
AM_5
100
AcDbBlockReference
  2
_Dot
 10
257.5
 20
84.5277500000002
 30
0.0
 41
1.0
 42
1.0
 43
1.0
 50
270.0
  0
MTEXT
  5
63FB3
330
54EE4
100
AcDbEntity
  8
AM_5
 62
     2
100
AcDbMText
 10
254.9
 20
110.0277500000002
 30
0.0
 40
3.2
 41
0.0
 71
     5
 72
     1
  1
A
 11
0.0000000000000001
 21
1.0
 31
0.0
 73
     1
 44
1.0
1001
ACAD
1000
MTEXTBEGIN
1070
    73
1070
     1
1070
    44
1040
1.0
1070
    74
1070
     0
1000
MTEXTEND
  0
POINT
  5
63FB4
330
54EE4
100
AcDbEntity
  8
Defpoints
 62
     0
100
AcDbPoint
 10
246.5
 20
135.5277500000002
 30
0.0
  0
POINT
  5
63FB5
330
54EE4
100
AcDbEntity
  8
Defpoints
 62
     0
100
AcDbPoint
 10
246.5
 20
84.5277500000002
 30
0.0
  0
POINT
  5
63FB6
330
54EE4
100
AcDbEntity
  8
Defpoints
 62
     0
100
AcDbPoint
 10
257.5
 20
84.5277500000002
 30
0.0
  0
ENDBLK
  5
54EEF
330
54EE4
100
AcDbEntity
  8
0
100
AcDbBlockEnd
  0
BLOCK
  5
54F06
330
54EFC
100
AcDbEntity
  8
0
100
AcDbBlockBegin
  2
*D8
 70
     1
 10
0.0
 20
0.0
 30
0.0
  3
*D8
  1

  0
LINE
  5
63FB7
330
54EFC
100
AcDbEntity
  8
AM_5
100
AcDbLine
 10
209.9000000000001
 20
126.0
 30
0.0
 11
200.5
 21
126.0
 31
0.0
  0
LINE
  5
63FB8
330
54EFC
100
AcDbEntity
  8
AM_5
100
AcDbLine
 10
209.9000000000001
 20
94.0
 30
0.0
 11
200.5
 21
94.0
 31
0.0
  0
LINE
  5
63FB9
330
54EFC
100
AcDbEntity
  8
AM_5
100
AcDbLine
 10
201.5
 20
125.0
 30
0.0
 11
201.5
 21
95.0
 31
0.0
  0
INSERT
  5
63FBA
330
54EFC
100
AcDbEntity
  8
AM_5
100
AcDbBlockReference
  2
_Dot
 10
201.5
 20
126.0
 30
0.0
 41
1.0
 42
1.0
 43
1.0
 50
90.0
  0
INSERT
  5
63FBB
330
54EFC
100
AcDbEntity
  8
AM_5
100
AcDbBlockReference
  2
_Dot
 10
201.5
 20
94.0
 30
0.0
 41
1.0
 42
1.0
 43
1.0
 50
270.0
  0
MTEXT
  5
63FBC
330
54EFC
100
AcDbEntity
  8
AM_5
 62
     2
100
AcDbMText
 10
198.9
 20
110.0
 30
0.0
 40
3.2
 41
0.0
 71
     5
 72
     1
  1
C
 11
0.0000000000000001
 21
1.0
 31
0.0
 73
     1
 44
1.0
1001
ACAD
1000
MTEXTBEGIN
1070
    73
1070
     1
1070
    44
1040
1.0
1070
    74
1070
     0
1000
MTEXTEND
  0
POINT
  5
63FBD
330
54EFC
100
AcDbEntity
  8
Defpoints
 62
     0
100
AcDbPoint
 10
211.4000000000001
 20
126.0
 30
0.0
  0
POINT
  5
63FBE
330
54EFC
100
AcDbEntity
  8
Defpoints
 62
     0
100
AcDbPoint
 10
211.4000000000001
 20
94.0
 30
0.0
  0
POINT
  5
63FBF
330
54EFC
100
AcDbEntity
  8
Defpoints
 62
     0
100
AcDbPoint
 10
201.5
 20
94.0
 30
0.0
  0
ENDBLK
  5
54F07
330
54EFC
100
AcDbEntity
  8
0
100
AcDbBlockEnd
  0
BLOCK
  5
54F3B
330
54F2F
100
AcDbEntity
  8
0
100
AcDbBlockBegin
  2
*D9
 70
     1
 10
0.0
 20
0.0
 30
0.0
  3
*D9
  1

  0
LINE
  5
63FC0
330
54F2F
100
AcDbEntity
  8
AM_5
100
AcDbLine
 10
249.0
 20
174.0
 30
0.0
 11
258.5004881592029
 21
174.0
 31
0.0
  0
LINE
  5
63FC1
330
54F2F
100
AcDbEntity
  8
AM_5
100
AcDbLine
 10
249.0004881592029
 20
172.5000001588664
 30
0.0
 11
258.5004881592029
 21
172.5000001588664
 31
0.0
  0
LINE
  5
63FC2
330
54F2F
100
AcDbEntity
  8
AM_5
100
AcDbLine
 10
257.5004881592029
 20
175.0
 30
0.0
 11
257.5004881592029
 21
176.0
 31
0.0
  0
LINE
  5
63FC3
330
54F2F
100
AcDbEntity
  8
AM_5
100
AcDbLine
 10
257.5004881592029
 20
171.5000001588664
 30
0.0
 11
257.5004881592029
 21
167.1133334921998
 31
0.0
  0
LINE
  5
63FC4
330
54F2F
100
AcDbEntity
  8
AM_5
100
AcDbLine
 10
257.5004881592029
 20
174.0
 30
0.0
 11
257.5004881592029
 21
172.5000001588664
 31
0.0
  0
INSERT
  5
63FC5
330
54F2F
100
AcDbEntity
  8
AM_5
100
AcDbBlockReference
  2
_Dot
 10
257.5004881592029
 20
174.0
 30
0.0
 41
1.0
 42
1.0
 43
1.0
 50
270.0
  0
INSERT
  5
63FC6
330
54F2F
100
AcDbEntity
  8
AM_5
100
AcDbBlockReference
  2
_Dot
 10
257.5004881592029
 20
172.5000001588664
 30
0.0
 41
1.0
 42
1.0
 43
1.0
 50
90.0
  0
MTEXT
  5
63FC7
330
54F2F
100
AcDbEntity
  8
AM_5
 62
     2
100
AcDbMText
 10
254.9004881592028
 20
168.8066668255331
 30
0.0
 40
3.2
 41
0.0
 71
     5
 72
     1
  1
E
 11
0.0000000000000001
 21
1.0
 31
0.0
 73
     1
 44
1.0
1001
ACAD
1000
MTEXTBEGIN
1070
    73
1070
     1
1070
    44
1040
1.0
1070
    74
1070
     0
1000
MTEXTEND
  0
POINT
  5
63FC8
330
54F2F
100
AcDbEntity
  8
Defpoints
 62
     0
100
AcDbPoint
 10
247.5
 20
174.0
 30
0.0
  0
POINT
  5
63FC9
330
54F2F
100
AcDbEntity
  8
Defpoints
 62
     0
100
AcDbPoint
 10
247.5004881592028
 20
172.5000001588664
 30
0.0
  0
POINT
  5
63FCA
330
54F2F
100
AcDbEntity
  8
Defpoints
 62
     0
100
AcDbPoint
 10
257.5004881592029
 20
172.5000001588664
 30
0.0
  0
ENDBLK
  5
54F3C
330
54F2F
100
AcDbEntity
  8
0
100
AcDbBlockEnd
  0
BLOCK
  5
54F56
330
54F4F
100
AcDbEntity
  8
0
100
AcDbBlockBegin
  2
*D10
 70
     1
 10
0.0
 20
0.0
 30
0.0
  3
*D10
  1

  0
LINE
  5
6400C
330
54F4F
100
AcDbEntity
  8
AM_5
100
AcDbLine
 10
214.0326666666657
 20
163.3200000000005
 30
0.0
 11
221.0700000000007
 21
163.3200000000005
 31
0.0
  0
LINE
  5
6400D
330
54F4F
100
AcDbEntity
  8
AM_5
100
AcDbLine
 10
221.0700000000007
 20
163.3200000000005
 30
0.0
 11
225.4947961799572
 21
167.7447961799571
 31
0.0
  0
LINE
  5
6400E
330
54F4F
100
AcDbEntity
  8
AM_5
100
AcDbLine
 10
231.5052038200426
 20
173.7552038200427
 30
0.0
 11
232.2123106012292
 21
174.4623106012293
 31
0.0
  0
MTEXT
  5
6400F
330
54F4F
100
AcDbEntity
  8
AM_5
 62
     2
100
AcDbMText
 10
217.0513333333324
 20
165.9200000000004
 30
0.0
 40
3.200000000000001
 41
0.0
 71
     5
 72
     1
  1
（%%cF）
 73
     1
 44
1.0
1001
ACAD
1000
MTEXTBEGIN
1070
    73
1070
     1
1070
    44
1040
1.0
1070
    74
1070
     0
1000
MTEXTEND
  0
LINE
  5
64010
330
54F4F
100
AcDbEntity
  8
AM_5
100
AcDbLine
 10
230.7980970388561
 20
173.0480970388562
 30
0.0
 11
226.2019029611437
 21
168.4519029611436
 31
0.0
  0
INSERT
  5
64011
330
54F4F
100
AcDbEntity
  8
AM_5
100
AcDbBlockReference
  2
_Dot
 10
230.7980970388561
 20
173.0480970388562
 30
0.0
 50
225.0000000000009
  0
INSERT
  5
64012
330
54F4F
100
AcDbEntity
  8
AM_5
100
AcDbBlockReference
  2
_Dot
 10
226.2019029611437
 20
168.4519029611436
 30
0.0
 50
45.00000000000087
  0
POINT
  5
64013
330
54F4F
100
AcDbEntity
  8
Defpoints
 62
     0
100
AcDbPoint
 10
226.2019029611437
 20
168.4519029611436
 30
0.0
  0
POINT
  5
64014
330
54F4F
100
AcDbEntity
  8
Defpoints
 62
     0
100
AcDbPoint
 10
230.7980970388561
 20
173.0480970388562
 30
0.0
  0
ENDBLK
  5
54F57
330
54F4F
100
AcDbEntity
  8
0
100
AcDbBlockEnd
  0
BLOCK
  5
54FD2
330
54FCB
100
AcDbEntity
  8
0
100
AcDbBlockBegin
  2
*D11
 70
     1
 10
0.0
 20
0.0
 30
0.0
  3
*D11
  1

  0
LINE
  5
64003
330
54FCB
100
AcDbEntity
  8
AM_5
100
AcDbLine
 10
197.7799999999943
 20
84.50000000000441
 30
0.0
 11
205.4999999999953
 21
84.50000000000441
 31
0.0
  0
LINE
  5
64004
330
54FCB
100
AcDbEntity
  8
AM_5
100
AcDbLine
 10
205.4999999999953
 20
84.50000000000441
 30
0.0
 11
214.0720069742774
 21
92.25562535768114
 31
0.0
  0
LINE
  5
64005
330
54FCB
100
AcDbEntity
  8
AM_5
100
AcDbLine
 10
217.9279930257223
 20
95.74437464231856
 30
0.0
 11
218.6695288048464
 21
96.41528796628735
 31
0.0
  0
MTEXT
  5
64006
330
54FCB
100
AcDbEntity
  8
AM_5
 62
     2
100
AcDbMText
 10
201.1399999999942
 20
87.10000000000441
 30
0.0
 40
3.200000000000001
 41
0.0
 71
     5
 72
     1
  1
\U+22053.2
 73
     1
 44
1.0
1001
ACAD
1000
MTEXTBEGIN
1070
    73
1070
     1
1070
    44
1040
1.0
1070
    74
1070
     0
1000
MTEXTEND
  0
LINE
  5
64007
330
54FCB
100
AcDbEntity
  8
AM_5
100
AcDbLine
 10
217.1864572465982
 20
95.07346131834976
 30
0.0
 11
214.8135427534015
 21
92.92653868164993
 31
0.0
  0
INSERT
  5
64008
330
54FCB
100
AcDbEntity
  8
AM_5
100
AcDbBlockReference
  2
_Dot
 10
217.1864572465982
 20
95.07346131834976
 30
0.0
 50
222.1375947738623
  0
INSERT
  5
64009
330
54FCB
100
AcDbEntity
  8
AM_5
100
AcDbBlockReference
  2
_Dot
 10
214.8135427534015
 20
92.92653868164993
 30
0.0
 50
42.13759477386235
  0
POINT
  5
6400A
330
54FCB
100
AcDbEntity
  8
Defpoints
 62
     0
100
AcDbPoint
 10
214.8135427534015
 20
92.92653868164993
 30
0.0
  0
POINT
  5
6400B
330
54FCB
100
AcDbEntity
  8
Defpoints
 62
     0
100
AcDbPoint
 10
217.1864572465982
 20
95.07346131834976
 30
0.0
  0
ENDBLK
  5
54FD3
330
54FCB
100
AcDbEntity
  8
0
100
AcDbBlockEnd
  0
BLOCK
  5
551AF
330
551A5
100
AcDbEntity
  8
0
100
AcDbBlockBegin
  2
*D12
 70
     1
 10
0.0
 20
0.0
 30
0.0
  3
*D12
  1

  0
LINE
  5
63FDD
330
551A5
100
AcDbEntity
  8
AM_5
100
AcDbLine
 10
129.5
 20
136.5
 30
0.0
 11
129.5
 21
144.5
 31
0.0
  0
LINE
  5
63FDE
330
551A5
100
AcDbEntity
  8
AM_5
100
AcDbLine
 10
167.5
 20
136.0277500000002
 30
0.0
 11
167.5
 21
144.5
 31
0.0
  0
LINE
  5
63FDF
330
551A5
100
AcDbEntity
  8
AM_5
100
AcDbLine
 10
130.5
 20
143.5
 30
0.0
 11
166.5
 21
143.5
 31
0.0
  0
INSERT
  5
63FE0
330
551A5
100
AcDbEntity
  8
AM_5
100
AcDbBlockReference
  2
_Dot
 10
129.5
 20
143.5
 30
0.0
 41
1.0
 42
1.0
 43
1.0
 50
180.0
  0
INSERT
  5
63FE1
330
551A5
100
AcDbEntity
  8
AM_5
100
AcDbBlockReference
  2
_Dot
 10
167.5
 20
143.5
 30
0.0
 41
1.0
 42
1.0
 43
1.0
  0
MTEXT
  5
63FE2
330
551A5
100
AcDbEntity
  8
AM_5
 62
     2
100
AcDbMText
 10
148.5
 20
146.1
 30
0.0
 40
3.2
 41
0.0
 71
     5
 72
     1
  1
B
 73
     1
 44
1.0
1001
ACAD
1000
MTEXTBEGIN
1070
    73
1070
     1
1070
    44
1040
1.0
1070
    74
1070
     0
1000
MTEXTEND
  0
POINT
  5
63FE3
330
551A5
100
AcDbEntity
  8
Defpoints
 62
     0
100
AcDbPoint
 10
129.5
 20
135.0
 30
0.0
  0
POINT
  5
63FE4
330
551A5
100
AcDbEntity
  8
Defpoints
 62
     0
100
AcDbPoint
 10
167.5
 20
134.5277500000002
 30
0.0
  0
POINT
  5
63FE5
330
551A5
100
AcDbEntity
  8
Defpoints
 62
     0
100
AcDbPoint
 10
167.5
 20
143.5
 30
0.0
  0
ENDBLK
  5
551B0
330
551A5
100
AcDbEntity
  8
0
100
AcDbBlockEnd
  0
BLOCK
  5
551BB
330
551B1
100
AcDbEntity
  8
0
100
AcDbBlockBegin
  2
*D13
 70
     1
 10
0.0
 20
0.0
 30
0.0
  3
*D13
  1

  0
LINE
  5
63FE6
330
551B1
100
AcDbEntity
  8
AM_5
100
AcDbLine
 10
168.0
 20
135.5277500000002
 30
0.0
 11
178.5
 21
135.5277500000002
 31
0.0
  0
LINE
  5
63FE7
330
551B1
100
AcDbEntity
  8
AM_5
100
AcDbLine
 10
168.0
 20
84.5277500000002
 30
0.0
 11
178.5
 21
84.5277500000002
 31
0.0
  0
LINE
  5
63FE8
330
551B1
100
AcDbEntity
  8
AM_5
100
AcDbLine
 10
177.5
 20
134.5277500000002
 30
0.0
 11
177.5
 21
85.5277500000002
 31
0.0
  0
INSERT
  5
63FE9
330
551B1
100
AcDbEntity
  8
AM_5
100
AcDbBlockReference
  2
_Dot
 10
177.5
 20
135.5277500000002
 30
0.0
 41
1.0
 42
1.0
 43
1.0
 50
90.0
  0
INSERT
  5
63FEA
330
551B1
100
AcDbEntity
  8
AM_5
100
AcDbBlockReference
  2
_Dot
 10
177.5
 20
84.5277500000002
 30
0.0
 41
1.0
 42
1.0
 43
1.0
 50
270.0
  0
MTEXT
  5
63FEB
330
551B1
100
AcDbEntity
  8
AM_5
 62
     2
100
AcDbMText
 10
174.9
 20
110.0277500000002
 30
0.0
 40
3.2
 41
0.0
 71
     5
 72
     1
  1
A
 11
0.0000000000000001
 21
1.0
 31
0.0
 73
     1
 44
1.0
1001
ACAD
1000
MTEXTBEGIN
1070
    73
1070
     1
1070
    44
1040
1.0
1070
    74
1070
     0
1000
MTEXTEND
  0
POINT
  5
63FEC
330
551B1
100
AcDbEntity
  8
Defpoints
 62
     0
100
AcDbPoint
 10
166.5
 20
135.5277500000002
 30
0.0
  0
POINT
  5
63FED
330
551B1
100
AcDbEntity
  8
Defpoints
 62
     0
100
AcDbPoint
 10
166.5
 20
84.5277500000002
 30
0.0
  0
POINT
  5
63FEE
330
551B1
100
AcDbEntity
  8
Defpoints
 62
     0
100
AcDbPoint
 10
177.5
 20
84.5277500000002
 30
0.0
  0
ENDBLK
  5
551BC
330
551B1
100
AcDbEntity
  8
0
100
AcDbBlockEnd
  0
BLOCK
  5
551EA
330
551DE
100
AcDbEntity
  8
0
100
AcDbBlockBegin
  2
*D14
 70
     1
 10
0.0
 20
0.0
 30
0.0
  3
*D14
  1

  0
LINE
  5
63FEF
330
551DE
100
AcDbEntity
  8
AM_5
100
AcDbLine
 10
169.0
 20
174.0
 30
0.0
 11
178.5004881592028
 21
174.0
 31
0.0
  0
LINE
  5
63FF0
330
551DE
100
AcDbEntity
  8
AM_5
100
AcDbLine
 10
169.0004881592028
 20
172.5000001588664
 30
0.0
 11
178.5004881592028
 21
172.5000001588664
 31
0.0
  0
LINE
  5
63FF1
330
551DE
100
AcDbEntity
  8
AM_5
100
AcDbLine
 10
177.5004881592028
 20
175.0
 30
0.0
 11
177.5004881592028
 21
176.0
 31
0.0
  0
LINE
  5
63FF2
330
551DE
100
AcDbEntity
  8
AM_5
100
AcDbLine
 10
177.5004881592028
 20
171.5000001588664
 30
0.0
 11
177.5004881592028
 21
167.1133334921998
 31
0.0
  0
LINE
  5
63FF3
330
551DE
100
AcDbEntity
  8
AM_5
100
AcDbLine
 10
177.5004881592028
 20
174.0
 30
0.0
 11
177.5004881592028
 21
172.5000001588664
 31
0.0
  0
INSERT
  5
63FF4
330
551DE
100
AcDbEntity
  8
AM_5
100
AcDbBlockReference
  2
_Dot
 10
177.5004881592028
 20
174.0
 30
0.0
 41
1.0
 42
1.0
 43
1.0
 50
270.0
  0
INSERT
  5
63FF5
330
551DE
100
AcDbEntity
  8
AM_5
100
AcDbBlockReference
  2
_Dot
 10
177.5004881592028
 20
172.5000001588664
 30
0.0
 41
1.0
 42
1.0
 43
1.0
 50
90.0
  0
MTEXT
  5
63FF6
330
551DE
100
AcDbEntity
  8
AM_5
 62
     2
100
AcDbMText
 10
174.9004881592028
 20
168.8066668255331
 30
0.0
 40
3.2
 41
0.0
 71
     5
 72
     1
  1
E
 11
0.0000000000000001
 21
1.0
 31
0.0
 73
     1
 44
1.0
1001
ACAD
1000
MTEXTBEGIN
1070
    73
1070
     1
1070
    44
1040
1.0
1070
    74
1070
     0
1000
MTEXTEND
  0
POINT
  5
63FF7
330
551DE
100
AcDbEntity
  8
Defpoints
 62
     0
100
AcDbPoint
 10
167.5
 20
174.0
 30
0.0
  0
POINT
  5
63FF8
330
551DE
100
AcDbEntity
  8
Defpoints
 62
     0
100
AcDbPoint
 10
167.5004881592028
 20
172.5000001588664
 30
0.0
  0
POINT
  5
63FF9
330
551DE
100
AcDbEntity
  8
Defpoints
 62
     0
100
AcDbPoint
 10
177.5004881592028
 20
172.5000001588664
 30
0.0
  0
ENDBLK
  5
551EB
330
551DE
100
AcDbEntity
  8
0
100
AcDbBlockEnd
  0
BLOCK
  5
551F6
330
551EC
100
AcDbEntity
  8
0
100
AcDbBlockBegin
  2
*D15
 70
     1
 10
0.0
 20
0.0
 30
0.0
  3
*D15
  1

  0
LINE
  5
63FFA
330
551EC
100
AcDbEntity
  8
AM_5
100
AcDbLine
 10
134.0326666666652
 20
163.3199999999997
 30
0.0
 11
141.0699999999995
 21
163.3199999999997
 31
0.0
  0
LINE
  5
63FFB
330
551EC
100
AcDbEntity
  8
AM_5
100
AcDbLine
 10
141.0699999999995
 20
163.3199999999997
 30
0.0
 11
145.4947961799569
 21
167.7447961799572
 31
0.0
  0
LINE
  5
63FFC
330
551EC
100
AcDbEntity
  8
AM_5
100
AcDbLine
 10
151.505203820043
 20
173.7552038200432
 30
0.0
 11
152.2123106012295
 21
174.4623106012298
 31
0.0
  0
MTEXT
  5
63FFD
330
551EC
100
AcDbEntity
  8
AM_5
 62
     2
100
AcDbMText
 10
137.051333333332
 20
165.9199999999997
 30
0.0
 40
3.200000000000001
 41
0.0
 71
     5
 72
     1
  1
（%%cF）
 73
     1
 44
1.0
1001
ACAD
1000
MTEXTBEGIN
1070
    73
1070
     1
1070
    44
1040
1.0
1070
    74
1070
     0
1000
MTEXTEND
  0
LINE
  5
63FFE
330
551EC
100
AcDbEntity
  8
AM_5
100
AcDbLine
 10
150.7980970388564
 20
173.0480970388566
 30
0.0
 11
146.2019029611435
 21
168.4519029611438
 31
0.0
  0
INSERT
  5
63FFF
330
551EC
100
AcDbEntity
  8
AM_5
100
AcDbBlockReference
  2
_Dot
 10
150.7980970388564
 20
173.0480970388566
 30
0.0
 50
225.0
  0
INSERT
  5
64000
330
551EC
100
AcDbEntity
  8
AM_5
100
AcDbBlockReference
  2
_Dot
 10
146.2019029611435
 20
168.4519029611438
 30
0.0
 50
45.0
  0
POINT
  5
64001
330
551EC
100
AcDbEntity
  8
Defpoints
 62
     0
100
AcDbPoint
 10
146.2019029611435
 20
168.4519029611438
 30
0.0
  0
POINT
  5
64002
330
551EC
100
AcDbEntity
  8
Defpoints
 62
     0
100
AcDbPoint
 10
150.7980970388564
 20
173.0480970388566
 30
0.0
  0
ENDBLK
  5
551F7
330
551EC
100
AcDbEntity
  8
0
100
AcDbBlockEnd
  0
ENDSEC
  0
SECTION
  2
ENTITIES
  0
ARC
  5
54C92
330
1F
100
AcDbEntity
  8
AM_0
100
AcDbCircle
 10
210.0
 20
85.0
 30
0.0
 40
0.5
100
AcDbArc
 50
180.0
 51
270.0
  0
ARC
  5
54C93
102
{ACAD_REACTORS
330
54EBE
102
}
330
1F
100
AcDbEntity
  8
AM_0
100
AcDbCircle
 10
210.0
 20
135.0
 30
0.0
 40
0.5
100
AcDbArc
 50
90.0
 51
180.0
  0
CIRCLE
  5
54C98
102
{ACAD_REACTORS
330
54FDB
102
}
330
1F
100
AcDbEntity
  8
AM_0
100
AcDbCircle
 10
216.0
 20
94.0
 30
0.0
 40
1.6
  0
CIRCLE
  5
54C99
330
1F
100
AcDbEntity
  8
AM_0
100
AcDbCircle
 10
216.0
 20
126.0
 30
0.0
 40
1.6
  0
LINE
  5
54C9D
330
1F
100
AcDbEntity
  8
AM_0
100
AcDbLine
 10
225.25
 20
104.0277500000002
 30
0.0
 11
225.25
 21
84.50000000000001
 31
0.0
  0
LINE
  5
54C9E
330
1F
100
AcDbEntity
  8
AM_0
100
AcDbLine
 10
225.25
 20
135.5
 30
0.0
 11
225.25
 21
116.0277500000002
 31
0.0
  0
ARC
  5
54C9F
330
1F
100
AcDbEntity
  8
AM_0
100
AcDbCircle
 10
231.0500000000002
 20
107.9750000000003
 30
0.0
 40
0.45
100
AcDbArc
 50
264.9575490000071
 51
90.0
  0
LINE
  5
54CA0
330
1F
100
AcDbEntity
  8
AM_0
100
AcDbLine
 10
209.5
 20
85.0
 30
0.0
 11
209.5
 21
135.0
 31
0.0
  0
LINE
  5
54CA1
330
1F
100
AcDbEntity
  8
AM_0
100
AcDbLine
 10
231.75
 20
84.50000000000001
 30
0.0
 11
210.0
 21
84.50000000000001
 31
0.0
  0
LINE
  5
54CA2
102
{ACAD_REACTORS
330
54EF1
102
}
330
1F
100
AcDbEntity
  8
AM_0
100
AcDbLine
 10
233.5
 20
135.5277500000002
 30
0.0
 11
246.5
 21
135.5277500000002
 31
0.0
  0
LINE
  5
54CA3
102
{ACAD_REACTORS
330
54EBE
102
}
330
1F
100
AcDbEntity
  8
AM_0
100
AcDbLine
 10
247.5
 20
134.5277500000002
 30
0.0
 11
247.5
 21
85.5277500000002
 31
0.0
  0
LINE
  5
54CA4
102
{ACAD_REACTORS
330
54EF1
102
}
330
1F
100
AcDbEntity
  8
AM_0
100
AcDbLine
 10
246.5
 20
84.5277500000002
 30
0.0
 11
233.5
 21
84.5277500000002
 31
0.0
  0
LINE
  5
54CA5
330
1F
100
AcDbEntity
  8
AM_0
100
AcDbLine
 10
232.5
 20
85.5277500000002
 30
0.0
 11
232.5
 21
94.02775000000019
 31
0.0
  0
LINE
  5
54CA6
330
1F
100
AcDbEntity
  8
AM_0
100
AcDbLine
 10
232.5
 20
94.02775000000019
 30
0.0
 11
224.5
 21
94.02775000000019
 31
0.0
  0
ARC
  5
54CA7
330
1F
100
AcDbEntity
  8
AM_0
100
AcDbCircle
 10
231.0500000000002
 20
108.875
 30
0.0
 40
0.45
100
AcDbArc
 50
264.9575490000071
 51
90.0
  0
LINE
  5
54CA8
330
1F
100
AcDbEntity
  8
AM_0
100
AcDbLine
 10
210.0
 20
135.5
 30
0.0
 11
231.75
 21
135.5
 31
0.0
  0
LINE
  5
54CA9
330
1F
100
AcDbEntity
  8
AM_0
100
AcDbLine
 10
231.75
 20
135.5
 30
0.0
 11
231.75
 21
116.0277500000002
 31
0.0
  0
ARC
  5
54CAA
330
1F
100
AcDbEntity
  8
AM_0
100
AcDbCircle
 10
231.0500000000002
 20
109.7750000000001
 30
0.0
 40
0.45
100
AcDbArc
 50
264.9575490000071
 51
92.09095699999217
  0
LINE
  5
54CAB
330
1F
100
AcDbEntity
  8
AM_0
100
AcDbLine
 10
224.5
 20
126.0277500000002
 30
0.0
 11
224.5
 21
105.7250000000003
 31
0.0
  0
ARC
  5
54CAC
330
1F
100
AcDbEntity
  8
AM_0
100
AcDbCircle
 10
231.0500000000002
 20
110.6750000000002
 30
0.0
 40
0.45
100
AcDbArc
 50
262.6080329999929
 51
90.0
  0
LINE
  5
54CAD
330
1F
100
AcDbEntity
  8
AM_0
100
AcDbLine
 10
231.75
 20
104.0277500000002
 30
0.0
 11
231.75
 21
84.50000000000001
 31
0.0
  0
ARC
  5
54CAF
330
1F
100
AcDbEntity
  8
AM_0
100
AcDbCircle
 10
231.0500000000002
 20
111.5749999999998
 30
0.0
 40
0.45
100
AcDbArc
 50
264.9575490000071
 51
90.0
  0
ARC
  5
54CB0
330
1F
100
AcDbEntity
  8
AM_0
100
AcDbCircle
 10
225.9499999999998
 20
114.7250000000003
 30
0.0
 40
0.45
100
AcDbArc
 50
84.95754900000713
 51
264.9575490000071
  0
ARC
  5
54CB1
330
1F
100
AcDbEntity
  8
AM_0
100
AcDbCircle
 10
225.9499999999998
 20
113.8249999999998
 30
0.0
 40
0.45
100
AcDbArc
 50
92.09095699999217
 51
264.9575490000071
  0
ARC
  5
54CB2
330
1F
100
AcDbEntity
  8
AM_0
100
AcDbCircle
 10
225.9499999999998
 20
112.9250000000002
 30
0.0
 40
0.45
100
AcDbArc
 50
92.09095699999217
 51
264.9575490000071
  0
ARC
  5
54CB3
330
1F
100
AcDbEntity
  8
AM_0
100
AcDbCircle
 10
225.9499999999998
 20
105.7250000000003
 30
0.0
 40
0.45
100
AcDbArc
 50
92.09095699999217
 51
264.9575490000071
  0
LINE
  5
54CB4
102
{ACAD_REACTORS
330
54F3E
102
}
330
1F
100
AcDbEntity
  8
AM_0
100
AcDbLine
 10
247.5
 20
174.0
 30
0.0
 11
209.5
 21
174.0
 31
0.0
  0
LINE
  5
54CB5
330
1F
100
AcDbEntity
  8
AM_0
100
AcDbLine
 10
209.5
 20
174.0
 30
0.0
 11
209.5
 21
172.5
 31
0.0
  0
LINE
  5
54CB6
330
1F
100
AcDbEntity
  8
AM_0
100
AcDbLine
 10
209.5
 20
172.5
 30
0.0
 11
228.5
 21
172.5
 31
0.0
  0
ARC
  5
54CB8
330
1F
100
AcDbEntity
  8
AM_0
100
AcDbCircle
 10
225.9499999999998
 20
106.625
 30
0.0
 40
0.45
100
AcDbArc
 50
92.09095699999217
 51
264.9575490000071
  0
LINE
  5
54CB9
330
1F
100
AcDbEntity
  8
AM_0
100
AcDbLine
 10
225.25
 20
104.0277500000002
 30
0.0
 11
232.5
 21
104.0277500000002
 31
0.0
  0
LINE
  5
54CBA
330
1F
100
AcDbEntity
  8
AM_0
100
AcDbLine
 10
232.5
 20
104.0277500000002
 30
0.0
 11
232.5
 21
114.2750000000001
 31
0.0
  0
LINE
  5
54CBB
330
1F
100
AcDbEntity
  8
AM_0
100
AcDbLine
 10
232.5
 20
116.0277500000002
 30
0.0
 11
225.25
 21
116.0277500000002
 31
0.0
  0
LINE
  5
54CBC
330
1F
100
AcDbEntity
  8
AM_0
100
AcDbLine
 10
224.5
 20
126.0277500000002
 30
0.0
 11
232.5
 21
126.0277500000002
 31
0.0
  0
LINE
  5
54CBD
330
1F
100
AcDbEntity
  8
AM_0
100
AcDbLine
 10
232.5
 20
126.0277500000002
 30
0.0
 11
232.5
 21
134.5277500000002
 31
0.0
  0
ARC
  5
54CBE
330
1F
100
AcDbEntity
  8
AM_0
100
AcDbCircle
 10
225.9499999999998
 20
107.5250000000001
 30
0.0
 40
0.45
100
AcDbArc
 50
92.09095699999217
 51
264.9575490000071
  0
ARC
  5
54CC0
330
1F
100
AcDbEntity
  8
AM_0
100
AcDbCircle
 10
225.9499999999998
 20
108.4250000000002
 30
0.0
 40
0.45
100
AcDbArc
 50
92.09095699999217
 51
264.9575490000071
  0
ARC
  5
54CC1
330
1F
100
AcDbEntity
  8
AM_0
100
AcDbCircle
 10
225.9499999999998
 20
109.3249999999998
 30
0.0
 40
0.45
100
AcDbArc
 50
92.09095699999217
 51
264.9575490000071
  0
ARC
  5
54CC2
330
1F
100
AcDbEntity
  8
AM_0
100
AcDbCircle
 10
225.9499999999998
 20
110.2250000000003
 30
0.0
 40
0.45
100
AcDbArc
 50
92.09095699999217
 51
264.9575490000071
  0
ARC
  5
54CC4
330
1F
100
AcDbEntity
  8
AM_0
100
AcDbCircle
 10
233.5
 20
85.5277500000002
 30
0.0
 40
1.0
100
AcDbArc
 50
180.0
 51
270.0
  0
ARC
  5
54CC5
330
1F
100
AcDbEntity
  8
AM_0
100
AcDbCircle
 10
246.5
 20
85.5277500000002
 30
0.0
 40
1.0
100
AcDbArc
 50
270.0
 51
0.0
  0
ARC
  5
54CC6
330
1F
100
AcDbEntity
  8
AM_0
100
AcDbCircle
 10
246.5
 20
134.5277500000002
 30
0.0
 40
1.0
100
AcDbArc
 50
0.0
 51
90.0
  0
ARC
  5
54CC7
330
1F
100
AcDbEntity
  8
AM_0
100
AcDbCircle
 10
233.5
 20
134.5277500000002
 30
0.0
 40
1.0
100
AcDbArc
 50
90.0
 51
180.0
  0
CIRCLE
  5
54CC8
330
1F
100
AcDbEntity
  8
AM_0
100
AcDbCircle
 10
241.0
 20
126.0277500000002
 30
0.0
 40
1.6
  0
CIRCLE
  5
54CC9
330
1F
100
AcDbEntity
  8
AM_0
100
AcDbCircle
 10
241.0
 20
94.02775000000019
 30
0.0
 40
1.6
  0
ARC
  5
54CCE
330
1F
100
AcDbEntity
  8
AM_0
100
AcDbCircle
 10
225.9499999999998
 20
111.125
 30
0.0
 40
0.45
100
AcDbArc
 50
92.09095699999217
 51
264.9575490000071
  0
ARC
  5
54CCF
330
1F
100
AcDbEntity
  8
AM_0
100
AcDbCircle
 10
225.9499999999998
 20
112.0250000000001
 30
0.0
 40
0.45
100
AcDbArc
 50
92.09095699999217
 51
264.9575490000071
  0
CIRCLE
  5
54CD0
330
1F
100
AcDbEntity
  8
AM_0
100
AcDbCircle
 10
228.5
 20
170.75
 30
0.0
 40
1.75
  0
ARC
  5
54CD1
102
{ACAD_REACTORS
330
54F5F
102
}
330
1F
100
AcDbEntity
  8
AM_0
100
AcDbCircle
 10
228.5
 20
170.75
 30
0.0
 40
3.25
100
AcDbArc
 50
147.4210299999862
 51
90.0
  0
LINE
  5
54CD3
330
1F
100
AcDbEntity
  8
AM_0
100
AcDbLine
 10
247.5
 20
174.0
 30
0.0
 11
247.5
 21
172.5
 31
0.0
  0
LINE
  5
54CD4
102
{ACAD_REACTORS
330
54F3E
102
}
330
1F
100
AcDbEntity
  8
AM_0
100
AcDbLine
 10
247.5
 20
172.5
 30
0.0
 11
231.241986
 21
172.494709
 31
0.0
  0
CIRCLE
  5
54CD5
330
1F
100
AcDbEntity
  8
AM_0
100
AcDbCircle
 10
228.5
 20
170.75
 30
0.0
 40
1.5
  0
LINE
  5
54CD8
330
1F
100
AcDbEntity
  8
AM_0
100
AcDbLine
 10
225.761387
 20
172.5
 30
0.0
 11
227.0253619999999
 21
171.6923070000002
 31
0.0
  0
ARC
  5
54CD9
330
1F
100
AcDbEntity
  8
AM_0
100
AcDbCircle
 10
231.0500000000002
 20
107.0749999999998
 30
0.0
 40
0.45
100
AcDbArc
 50
264.9575490000071
 51
90.38524200000479
  0
ARC
  5
54CDA
330
1F
100
AcDbEntity
  8
AM_0
100
AcDbCircle
 10
231.0500000000002
 20
106.1750000000001
 30
0.0
 40
0.45
100
AcDbArc
 50
270.0
 51
90.40515399999307
  0
LINE
  5
54CDB
330
1F
100
AcDbEntity
  8
AM_0
100
AcDbLine
 10
221.5
 20
105.7250000000003
 30
0.0
 11
221.5
 21
104.8235587450113
 31
0.0
  0
ARC
  5
54CDC
330
1F
100
AcDbEntity
  8
AM_0
100
AcDbCircle
 10
231.0500000000002
 20
112.4750000000003
 30
0.0
 40
0.45
100
AcDbArc
 50
263.6044739999979
 51
90.0
  0
ARC
  5
54CDD
330
1F
100
AcDbEntity
  8
AM_0
100
AcDbCircle
 10
231.0500000000002
 20
113.375
 30
0.0
 40
0.45
100
AcDbArc
 50
264.9575490000071
 51
90.0
  0
ARC
  5
54CDE
330
1F
100
AcDbEntity
  8
AM_0
100
AcDbCircle
 10
231.0500000000002
 20
114.2750000000001
 30
0.0
 40
0.45
100
AcDbArc
 50
264.9575490000071
 51
84.95754900000713
  0
LINE
  5
54CDF
330
1F
100
AcDbEntity
  8
AM_0
100
AcDbLine
 10
225.9104470000002
 20
106.1767410000002
 30
0.0
 11
231.0335810000001
 21
105.7247000000002
 31
0.0
  0
LINE
  5
54CE0
330
1F
100
AcDbEntity
  8
AM_0
100
AcDbLine
 10
225.9104470000002
 20
107.0767409999998
 30
0.0
 11
231.0104470000001
 21
106.626741
 31
0.0
  0
LINE
  5
54CE1
330
1F
100
AcDbEntity
  8
AM_0
100
AcDbLine
 10
225.9104470000002
 20
107.9767410000004
 30
0.0
 11
231.0104470000001
 21
107.5267410000001
 31
0.0
  0
LINE
  5
54CE2
330
1F
100
AcDbEntity
  8
AM_0
100
AcDbLine
 10
225.9104470000002
 20
109.7767410000001
 30
0.0
 11
231.0104470000001
 21
109.3267409999998
 31
0.0
  0
LINE
  5
54CE3
330
1F
100
AcDbEntity
  8
AM_0
100
AcDbLine
 10
225.9104470000002
 20
108.876741
 30
0.0
 11
231.0104470000001
 21
108.4267410000002
 31
0.0
  0
LINE
  5
54CE4
330
1F
100
AcDbEntity
  8
AM_0
100
AcDbLine
 10
225.9104470000002
 20
110.6767410000002
 30
0.0
 11
231.0104470000001
 21
110.2267410000004
 31
0.0
  0
LINE
  5
54CE5
330
1F
100
AcDbEntity
  8
AM_0
100
AcDbLine
 10
225.9104470000002
 20
111.5767409999998
 30
0.0
 11
231.0104470000001
 21
111.126741
 31
0.0
  0
LINE
  5
54CE6
330
1F
100
AcDbEntity
  8
AM_0
100
AcDbLine
 10
225.9104470000002
 20
112.4767410000004
 30
0.0
 11
231.0104470000001
 21
112.0267410000001
 31
0.0
  0
LINE
  5
54CE7
330
1F
100
AcDbEntity
  8
AM_0
100
AcDbLine
 10
217.5
 20
105.7250000000003
 30
0.0
 11
217.5
 21
104.8232619999999
 31
0.0
  0
LINE
  5
54CE8
330
1F
100
AcDbEntity
  8
AM_0
100
AcDbLine
 10
243.492937
 20
114.2750000000001
 30
0.0
 11
243.492937
 21
115.1777659999998
 31
0.0
  0
LINE
  5
54CE9
330
1F
100
AcDbEntity
  8
AM_0
100
AcDbLine
 10
231.0387409999998
 20
104.8251399999999
 30
0.0
 11
230.0
 21
104.8249679999999
 31
0.0
  0
LINE
  5
54CEA
330
1F
100
AcDbEntity
  8
AM_0
100
AcDbLine
 10
225.5
 20
105.7250000000003
 30
0.0
 11
213.5070620000001
 21
105.7250000000003
 31
0.0
  0
LINE
  5
54CEB
330
1F
100
AcDbEntity
  8
AM_0
100
AcDbLine
 10
225.9104470000002
 20
113.376741
 30
0.0
 11
231.0104470000001
 21
112.9267410000002
 31
0.0
  0
LINE
  5
54CEC
330
1F
100
AcDbEntity
  8
AM_0
100
AcDbLine
 10
225.9104470000002
 20
114.2767410000001
 30
0.0
 11
231.0104470000001
 21
113.8267409999998
 31
0.0
  0
LINE
  5
54CED
330
1F
100
AcDbEntity
  8
AM_0
100
AcDbLine
 10
231.5
 20
114.2750000000001
 30
0.0
 11
243.492937
 21
114.2750000000001
 31
0.0
  0
LINE
  5
54CEE
330
1F
100
AcDbEntity
  8
AM_0
100
AcDbLine
 10
225.989552
 20
115.1732579999998
 30
0.0
 11
227.0
 21
115.173518
 31
0.0
  0
LINE
  5
54CEF
330
1F
100
AcDbEntity
  8
AM_0
100
AcDbLine
 10
224.5
 20
104.8240560000003
 30
0.0
 11
224.5
 21
94.0
 31
0.0
  0
LINE
  5
54CF0
330
1F
100
AcDbEntity
  8
AM_0
100
AcDbLine
 10
213.5070620000001
 20
105.7250000000003
 30
0.0
 11
213.5070620000001
 21
104.8222329999998
 31
0.0
  0
LINE
  5
54CF1
330
1F
100
AcDbEntity
  8
AM_0
100
AcDbLine
 10
239.5
 20
114.2750000000001
 30
0.0
 11
239.5
 21
115.1767370000002
 31
0.0
  0
LINE
  5
54CF2
330
1F
100
AcDbEntity
  8
AM_0
100
AcDbLine
 10
235.5
 20
114.3341010000003
 30
0.0
 11
235.5
 21
115.1153840000002
 31
0.0
  0
ARC
  5
54CF3
330
1F
100
AcDbEntity
  8
AM_0
100
AcDbCircle
 10
231.0500000000002
 20
105.2750000000001
 30
0.0
 40
0.45
100
AcDbArc
 50
264.9575490000071
 51
92.09095699999217
  0
LINE
  5
54CF4
330
1F
100
AcDbEntity
  8
AM_0
100
AcDbLine
 10
232.5
 20
115.174935
 30
0.0
 11
232.5
 21
116.0277500000002
 31
0.0
  0
LINE
  5
54CF5
330
1F
100
AcDbEntity
  8
AM_0
100
AcDbLine
 10
227.0
 20
116.0277500000002
 30
0.0
 11
227.0
 21
115.0841010000003
 31
0.0
  0
LINE
  5
54CF6
330
1F
100
AcDbEntity
  8
AM_0
100
AcDbLine
 10
230.0
 20
116.0277500000002
 30
0.0
 11
230.0
 21
114.8193950000004
 31
0.0
  0
LINE
  5
54CF7
330
1F
100
AcDbEntity
  8
AM_0
100
AcDbLine
 10
227.0
 20
105.1806040000001
 30
0.0
 11
227.0
 21
104.0277500000002
 31
0.0
  0
LINE
  5
54CF8
330
1F
100
AcDbEntity
  8
AM_0
100
AcDbLine
 10
230.0
 20
104.9158980000002
 30
0.0
 11
230.0
 21
104.0277500000002
 31
0.0
  0
LINE
  5
54CF9
330
1F
100
AcDbEntity
  8
AM_0
100
AcDbLine
 10
230.0
 20
115.1742910000002
 30
0.0
 11
243.492937
 21
115.1777659999998
 31
0.0
  0
LINE
  5
54CFA
330
1F
100
AcDbEntity
  8
AM_0
100
AcDbLine
 10
227.0
 20
104.8244709999999
 30
0.0
 11
213.5070620000001
 21
104.8222329999998
 31
0.0
  0
LINE
  5
54CFB
330
1F
100
AcDbEntity
  8
AM_0
100
AcDbLine
 10
231.940611
 20
172.494936
 30
0.0
 11
235.4800490000002
 21
170.9161720000002
 31
0.0
  0
LINE
  5
54CFC
330
1F
100
AcDbEntity
  8
AM_0
100
AcDbLine
 10
231.6225089999998
 20
171.6513519999998
 30
0.0
 11
235.3232229999999
 21
170.0006510000003
 31
0.0
  0
LINE
  5
54CFD
330
1F
100
AcDbEntity
  8
AM_0
100
AcDbLine
 10
235.5571100000002
 20
170.9143290000002
 30
0.0
 11
239.4633530000001
 21
172.4372680000001
 31
0.0
  0
LINE
  5
54CFE
330
1F
100
AcDbEntity
  8
AM_0
100
AcDbLine
 10
235.6699950000002
 20
169.9923579999999
 30
0.0
 11
239.7727519999999
 21
171.5919130000002
 31
0.0
  0
LINE
  5
54CFF
330
1F
100
AcDbEntity
  8
AM_0
100
AcDbLine
 10
225.3774899999998
 20
171.6513519999998
 30
0.0
 11
221.6767760000002
 21
170.0006510000003
 31
0.0
  0
ARC
  5
54D00
330
1F
100
AcDbEntity
  8
AM_0
100
AcDbCircle
 10
239.7902720000002
 20
171.598743
 30
0.0
 40
0.9
100
AcDbArc
 50
93.04185500000249
 51
111.2994729999971
  0
LINE
  5
54D01
330
1F
100
AcDbEntity
  8
AM_0
100
AcDbLine
 10
243.6093059999998
 20
172.4987430000001
 30
0.0
 11
243.6093059999998
 21
171.598743
 31
0.0
  0
LINE
  5
54D02
330
1F
100
AcDbEntity
  8
AM_0
100
AcDbLine
 10
243.6093059999998
 20
171.598743
 30
0.0
 11
239.809076
 21
171.598743
 31
0.0
  0
LINE
  5
54D03
330
1F
100
AcDbEntity
  8
AM_0
100
AcDbLine
 10
221.3300039999999
 20
169.9923579999999
 30
0.0
 11
217.2272469999998
 21
171.5919130000002
 31
0.0
  0
LINE
  5
54D04
330
1F
100
AcDbEntity
  8
AM_0
100
AcDbLine
 10
213.3906929999998
 20
172.5
 30
0.0
 11
213.3906929999998
 21
171.598743
 31
0.0
  0
LINE
  5
54D05
330
1F
100
AcDbEntity
  8
AM_0
100
AcDbLine
 10
213.3906929999998
 20
171.598743
 30
0.0
 11
217.1909230000001
 21
171.598743
 31
0.0
  0
LINE
  5
54D06
330
1F
100
AcDbEntity
  8
AM_0
100
AcDbLine
 10
225.989552
 20
115.1732579999998
 30
0.0
 11
231.0895519999999
 21
114.723258
 31
0.0
  0
LINE
  5
54D07
330
1F
100
AcDbEntity
  8
AM_0
100
AcDbLine
 10
231.0104470000001
 20
104.8267409999998
 30
0.0
 11
225.9104470000002
 21
105.2767410000001
 31
0.0
  0
ARC
  5
54D08
330
1F
100
AcDbEntity
  8
AM_0
100
AcDbCircle
 10
221.4934629999998
 20
170.4116210000002
 30
0.0
 40
0.45
100
AcDbArc
 50
248.7005270000029
 51
294.0392320000001
  0
ARC
  5
54D09
330
1F
100
AcDbEntity
  8
AM_0
100
AcDbCircle
 10
235.5207860000001
 20
171.0074990000002
 30
0.0
 40
0.1
100
AcDbArc
 50
245.9607679999999
 51
291.2994729999971
  0
LINE
  5
54D0A
330
1F
100
AcDbEntity
  8
AM_0
100
AcDbLine
 10
221.4428889999999
 20
170.916854
 30
0.0
 11
217.536646
 21
172.439793
 31
0.0
  0
LINE
  5
54D0B
330
1F
100
AcDbEntity
  8
AM_0
100
AcDbLine
 10
225.0650799999998
 20
172.5
 30
0.0
 11
221.5199499999999
 21
170.9186959999997
 31
0.0
  0
ARC
  5
54D0C
330
1F
100
AcDbEntity
  8
AM_0
100
AcDbCircle
 10
221.479214
 20
171.0100229999998
 30
0.0
 40
0.1
100
AcDbArc
 50
248.7005270000029
 51
294.0392320000001
  0
ARC
  5
54D0D
330
1F
100
AcDbEntity
  8
AM_0
100
AcDbCircle
 10
217.2097279999998
 20
171.6012680000003
 30
0.0
 40
0.9
100
AcDbArc
 50
68.7005270000029
 51
86.9581449999975
  0
ARC
  5
54D0E
330
1F
100
AcDbEntity
  8
AM_0
100
AcDbCircle
 10
217.1909230000001
 20
171.4987430000001
 30
0.0
 40
0.1
100
AcDbArc
 50
68.7005270000029
 51
90.0
  0
ARC
  5
54D0F
330
1F
100
AcDbEntity
  8
AM_0
100
AcDbCircle
 10
235.5065359999999
 20
170.4116210000002
 30
0.0
 40
0.45
100
AcDbArc
 50
245.9607679999999
 51
291.2994729999971
  0
ARC
  5
54D10
330
1F
100
AcDbEntity
  8
AM_0
100
AcDbCircle
 10
239.809076
 20
171.4987430000001
 30
0.0
 40
0.1
100
AcDbArc
 50
90.0
 51
111.2994729999971
  0
LINE
  5
54D11
330
1F
100
AcDbEntity
  8
AM_7
370
     9
100
AcDbLine
 10
228.5
 20
138.5
 30
0.0
 11
228.5
 21
81.5
 31
0.0
1001
GENIUS_GENOBJ-N-CEN_13
1002
{
1000
OWNER
1000
GEN
1002
}
1001
GENIUS_GENODEF_13
1002
{
1000
HIER
1070
     0
1002
}
1002
{
1000
MANEDIT
1070
     0
1002
}
1002
{
1000
NOSEL
1070
     0
1002
}
1002
{
1000
BEHIND
1070
     0
1002
}
1002
{
1000
OTHER
1070
     0
1002
}
1002
{
1000
REACTOR
1002
}
1001
GENIUS_GENCEN_19
1002
{
1040
3.0
1002
}
  0
LINE
  5
54D12
330
1F
100
AcDbEntity
  8
AM_7
 48
0.3
370
     9
100
AcDbLine
 10
216.0
 20
168.598743
 30
0.0
 11
216.0
 21
177.0
 31
0.0
1001
GENIUS_GENODEF_13
1002
{
1000
HIER
1070
     0
1002
}
1002
{
1000
MANEDIT
1070
     0
1002
}
1002
{
1000
NOSEL
1070
     0
1002
}
1002
{
1000
BEHIND
1070
     0
1002
}
1002
{
1000
OTHER
1070
     0
1002
}
1002
{
1000
REACTOR
1002
}
1001
GENIUS_GENOBJ-N-CEN_13
1002
{
1000
OWNER
1000
GEN
1002
}
1001
GENIUS_GENCEN_19
1002
{
1040
3.0
1002
}
  0
LINE
  5
54D13
330
1F
100
AcDbEntity
  8
AM_7
 48
0.3
370
     9
100
AcDbLine
 10
241.0
 20
168.598743
 30
0.0
 11
241.0
 21
177.0
 31
0.0
1001
GENIUS_GENOBJ-N-CEN_13
1002
{
1000
OWNER
1000
GEN
1002
}
1001
GENIUS_GENODEF_13
1002
{
1000
HIER
1070
     0
1002
}
1002
{
1000
MANEDIT
1070
     0
1002
}
1002
{
1000
NOSEL
1070
     0
1002
}
1002
{
1000
BEHIND
1070
     0
1002
}
1002
{
1000
OTHER
1070
     0
1002
}
1002
{
1000
REACTOR
1002
}
1001
GENIUS_GENCEN_19
1002
{
1040
3.0
1002
}
  0
LINE
  5
54D14
330
1F
100
AcDbEntity
  8
AM_7
 48
0.5
370
     9
100
AcDbLine
 10
228.5
 20
164.5
 30
0.0
 11
228.5
 21
177.0
 31
0.0
1001
GENIUS_GENODEF_13
1002
{
1000
HIER
1070
     0
1002
}
1002
{
1000
MANEDIT
1070
     0
1002
}
1002
{
1000
NOSEL
1070
     0
1002
}
1002
{
1000
BEHIND
1070
     0
1002
}
1002
{
1000
OTHER
1070
     0
1002
}
1002
{
1000
REACTOR
1002
}
1001
GENIUS_GENOBJ-N-CEN_13
1002
{
1000
OWNER
1000
GEN
1002
}
1001
GENIUS_GENCEN_19
1002
{
1040
3.0
1002
}
  0
LINE
  5
54D15
330
1F
100
AcDbEntity
  8
AM_7
 48
0.5
370
     9
100
AcDbLine
 10
234.75
 20
170.75
 30
0.0
 11
222.25
 21
170.75
 31
0.0
1001
GENIUS_GENODEF_13
1002
{
1000
HIER
1070
     0
1002
}
1002
{
1000
MANEDIT
1070
     0
1002
}
1002
{
1000
NOSEL
1070
     0
1002
}
1002
{
1000
BEHIND
1070
     0
1002
}
1002
{
1000
OTHER
1070
     0
1002
}
1002
{
1000
REACTOR
1002
}
1001
GENIUS_GENOBJ-N-CEN_13
1002
{
1000
OWNER
1000
GEN
1002
}
1001
GENIUS_GENCEN_19
1002
{
1040
3.0
1002
}
  0
LWPOLYLINE
  5
54D16
330
1F
100
AcDbEntity
  8
AM_0
  6
中線
370
    30
100
AcDbPolyline
 90
        4
 70
     1
 43
0.0
 10
11.5
 20
201.5
 10
285.5000000000002
 20
201.5
 10
285.5000000000002
 20
8.5
 10
11.5
 20
8.5
1001
GENIUS_GENREC_14
1002
{
1000
PYDIR
1011
11.5
1021
8.5
1031
0.0
1002
}
1002
{
1000
PXDIR
1011
285.5000000000002
1021
201.5
1031
0.0
1002
}
1002
{
1000
PORI
1011
11.5
1021
201.5
1031
0.0
1002
}
1002
{
1000
PINS
1011
11.5
1021
201.5
1031
0.0
1002
}
1002
{
1000
PINS2
1011
285.5000000000002
1021
8.5
1031
0.0
1002
}
1002
{
1000
C
1070
     1
1002
}
1001
GENIUS_GENODEF_13
1002
{
1000
HIER
1070
     0
1002
}
1002
{
1000
MANEDIT
1070
     0
1002
}
1002
{
1000
NOSEL
1070
     0
1002
}
1002
{
1000
BEHIND
1070
     0
1002
}
1002
{
1000
OTHER
1070
     0
1002
}
1002
{
1000
REACTOR
1002
}
1001
GENIUS_GENOBJ-N-REC_13
1002
{
1000
OWNER
1000
GEN
1002
}
  0
LWPOLYLINE
  5
54D17
330
1F
100
AcDbEntity
  8
size
100
AcDbPolyline
 90
        4
 70
     1
 43
0.0
 10
0.0
 20
210.0
 10
297.0000000000002
 20
210.0
 10
297.0000000000002
 20
0.0
 10
0.0
 20
0.0
1001
GENIUS_GENREC_14
1002
{
1000
PYDIR
1011
0.0
1021
0.0
1031
0.0
1002
}
1002
{
1000
PXDIR
1011
297.0000000000002
1021
210.0
1031
0.0
1002
}
1002
{
1000
PORI
1011
0.0
1021
210.0
1031
0.0
1002
}
1002
{
1000
PINS
1011
0.0
1021
210.0
1031
0.0
1002
}
1002
{
1000
PINS2
1011
297.0000000000002
1021
0.0
1031
0.0
1002
}
1002
{
1000
C
1070
     1
1002
}
1001
GENIUS_GENODEF_13
1002
{
1000
HIER
1070
     0
1002
}
1002
{
1000
MANEDIT
1070
     0
1002
}
1002
{
1000
NOSEL
1070
     0
1002
}
1002
{
1000
BEHIND
1070
     0
1002
}
1002
{
1000
OTHER
1070
     0
1002
}
1002
{
1000
REACTOR
1002
}
1001
GENIUS_GENOBJ-N-REC_13
1002
{
1000
OWNER
1000
GEN
1002
}
  0
LINE
  5
54D19
330
1F
100
AcDbEntity
  8
AM_0
100
AcDbLine
 10
11.5
 20
201.5
 30
0.0
 11
11.50000000000636
 21
153.5
 31
0.0
  0
LINE
  5
54D1A
330
1F
100
AcDbEntity
  8
AM_0
100
AcDbLine
 10
11.5
 20
201.5
 30
0.0
 11
101.5
 21
201.5
 31
0.0
  0
LINE
  5
54D1B
330
1F
100
AcDbEntity
  8
AM_0
100
AcDbLine
 10
101.5
 20
201.5
 30
0.0
 11
101.4999999999992
 21
153.5
 31
0.0
  0
LINE
  5
54D1C
330
1F
100
AcDbEntity
  8
AM_0
100
AcDbLine
 10
31.49999999999923
 20
153.5
 30
0.0
 11
31.5
 21
201.5
 31
0.0
  0
LINE
  5
54D1D
330
1F
100
AcDbEntity
  8
AM_5
100
AcDbLine
 10
11.5
 20
193.5
 30
0.0
 11
101.5
 21
193.5
 31
0.0
  0
LINE
  5
54D1E
330
1F
100
AcDbEntity
  8
AM_5
100
AcDbLine
 10
31.49999999999909
 20
177.5
 30
0.0
 11
101.5
 21
177.5
 31
0.0
  0
MTEXT
  5
54D1F
330
1F
100
AcDbEntity
  8
AM_6
100
AcDbMText
 10
21.5
 20
197.5
 30
0.0
 40
3.2
 41
20.0
 71
     5
 72
     5
  1
品　名
 73
     1
 44
1.0
1001
ACAD
1000
MTEXTBEGIN
1070
    73
1070
     1
1070
    44
1040
1.0
1070
    74
1070
     0
1000
MTEXTEND
  0
MTEXT
  5
54D20
330
1F
100
AcDbEntity
  8
AM_6
100
AcDbMText
 10
31.5
 20
197.5
 30
0.0
 40
3.2
 41
70.0
 71
     4
 72
     5
  1
　スプリング付丁番
 73
     1
 44
1.0
1001
ACAD
1000
MTEXTBEGIN
1070
    73
1070
     1
1070
    44
1040
1.0
1070
    74
1070
     0
1000
MTEXTEND
  0
MTEXT
  5
54D21
330
1F
100
AcDbEntity
  8
AM_6
100
AcDbMText
 10
21.5
 20
189.5
 30
0.0
 40
3.2
 41
20.0
 71
     5
 72
     5
  1
品　番
 73
     1
 44
1.0
1001
ACAD
1000
MTEXTBEGIN
1070
    73
1070
     1
1070
    44
1040
1.0
1070
    74
1070
     0
1000
MTEXTEND
  0
MTEXT
  5
54D22
330
1F
100
AcDbEntity
  8
AM_6
100
AcDbMText
 10
31.5
 20
189.5
 30
0.0
 40
3.2
 41
70.0
 71
     4
 72
     5
  1
　DEH-40（S）
 73
     1
 44
1.0
1001
ACAD
1000
MTEXTBEGIN
1070
    73
1070
     1
1070
    44
1040
1.0
1070
    74
1070
     0
1000
MTEXTEND
  0
MTEXT
  5
54D23
330
1F
100
AcDbEntity
  8
AM_6
100
AcDbMText
 10
31.5
 20
181.5
 30
0.0
 40
3.2
 41
70.0
 71
     4
 72
     5
  1
　スチール（DEH-40）
 73
     1
 44
1.0
1001
ACAD
1000
MTEXTBEGIN
1070
    73
1070
     1
1070
    44
1040
1.0
1070
    74
1070
     0
1000
MTEXTEND
  0
LINE
  5
54D24
330
1F
100
AcDbEntity
  8
AM_5
100
AcDbLine
 10
11.5
 20
169.5
 30
0.0
 11
101.5
 21
169.5
 31
0.0
  0
MTEXT
  5
54D25
330
1F
100
AcDbEntity
  8
AM_6
100
AcDbMText
 10
21.5
 20
165.5
 30
0.0
 40
3.2
 41
20.0
 71
     5
 72
     5
  1
仕上げ
 73
     1
 44
1.0
1001
ACAD
1000
MTEXTBEGIN
1070
    73
1070
     1
1070
    44
1040
1.0
1070
    74
1070
     0
1000
MTEXTEND
  0
LINE
  5
54D26
330
1F
100
AcDbEntity
  8
AM_0
100
AcDbLine
 10
11.50000000000364
 20
153.5
 30
0.0
 11
101.5000000000009
 21
153.5
 31
0.0
  0
LINE
  5
54D29
330
1F
100
AcDbEntity
  8
AM_5
100
AcDbLine
 10
11.5
 20
185.5
 30
0.0
 11
101.5
 21
185.5
 31
0.0
  0
MTEXT
  5
54D2A
330
1F
100
AcDbEntity
  8
AM_6
100
AcDbMText
 10
21.5
 20
181.5
 30
0.0
 40
3.2
 41
20.0
 71
     5
 72
     5
  1
材　質
 73
     1
 44
1.0
1001
ACAD
1000
MTEXTBEGIN
1070
    73
1070
     1
1070
    44
1040
1.0
1070
    74
1070
     0
1000
MTEXTEND
  0
MTEXT
  5
54D2B
330
1F
100
AcDbEntity
  8
AM_6
100
AcDbMText
 10
31.50000000000046
 20
173.5
 30
0.0
 40
3.2
 41
70.0
 71
     4
 72
     5
  1
　ステンレス（DEH-40S ）
 73
     1
 44
1.0
1001
ACAD
1000
MTEXTBEGIN
1070
    73
1070
     1
1070
    44
1040
1.0
1070
    74
1070
     0
1000
MTEXTEND
  0
LINE
  5
54D2C
330
1F
100
AcDbEntity
  8
AM_5
100
AcDbLine
 10
31.49999999999909
 20
161.5
 30
0.0
 11
101.5
 21
161.5
 31
0.0
  0
MTEXT
  5
54D2D
330
1F
100
AcDbEntity
  8
AM_6
100
AcDbMText
 10
31.5
 20
165.5
 30
0.0
 40
3.2
 41
70.0
 71
     4
 72
     5
  1
　光沢クロメート（DEH-40）
 73
     1
 44
1.0
1001
ACAD
1000
MTEXTBEGIN
1070
    73
1070
     1
1070
    44
1040
1.0
1070
    74
1070
     0
1000
MTEXTEND
  0
MTEXT
  5
54D2E
330
1F
100
AcDbEntity
  8
AM_6
100
AcDbMText
 10
31.50000000000046
 20
157.5
 30
0.0
 40
3.2
 41
70.0
 71
     4
 72
     5
  1
　光沢バレル研磨（DEH-40S）
 73
     1
 44
1.0
1001
ACAD
1000
MTEXTBEGIN
1070
    73
1070
     1
1070
    44
1040
1.0
1070
    74
1070
     0
1000
MTEXTEND
  0
LINE
  5
54D35
102
{ACAD_REACTORS
330
54F09
102
}
330
1F
100
AcDbEntity
  8
AM_7
 48
0.3
370
     9
100
AcDbLine
 10
211.4000000000001
 20
126.0
 30
0.0
 11
220.5999999999999
 21
126.0
 31
0.0
1001
GENIUS_GENOBJ-N-CEN_13
1002
{
1000
OWNER
1000
GEN
1002
}
1001
GENIUS_GENODEF_13
1002
{
1000
HIER
1070
     0
1002
}
1002
{
1000
MANEDIT
1070
     0
1002
}
1002
{
1000
NOSEL
1070
     0
1002
}
1002
{
1000
BEHIND
1070
     0
1002
}
1002
{
1000
OTHER
1070
     0
1002
}
1002
{
1000
REACTOR
1002
}
1001
GENIUS_GENCEN_19
1002
{
1040
3.0
1002
}
  0
LINE
  5
54D36
330
1F
100
AcDbEntity
  8
AM_7
 48
0.3
370
     9
100
AcDbLine
 10
216.0
 20
130.6000000000003
 30
0.0
 11
216.0
 21
121.4000000000005
 31
0.0
1001
GENIUS_GENODEF_13
1002
{
1000
HIER
1070
     0
1002
}
1002
{
1000
MANEDIT
1070
     0
1002
}
1002
{
1000
NOSEL
1070
     0
1002
}
1002
{
1000
BEHIND
1070
     0
1002
}
1002
{
1000
OTHER
1070
     0
1002
}
1002
{
1000
REACTOR
1002
}
1001
GENIUS_GENOBJ-N-CEN_13
1002
{
1000
OWNER
1000
GEN
1002
}
1001
GENIUS_GENCEN_19
1002
{
1040
3.0
1002
}
  0
LINE
  5
54D37
102
{ACAD_REACTORS
330
54F09
102
}
330
1F
100
AcDbEntity
  8
AM_7
 48
0.3
370
     9
100
AcDbLine
 10
211.4000000000001
 20
94.0
 30
0.0
 11
220.5999999999999
 21
94.0
 31
0.0
1001
GENIUS_GENOBJ-N-CEN_13
1002
{
1000
OWNER
1000
GEN
1002
}
1001
GENIUS_GENODEF_13
1002
{
1000
HIER
1070
     0
1002
}
1002
{
1000
MANEDIT
1070
     0
1002
}
1002
{
1000
NOSEL
1070
     0
1002
}
1002
{
1000
BEHIND
1070
     0
1002
}
1002
{
1000
OTHER
1070
     0
1002
}
1002
{
1000
REACTOR
1002
}
1001
GENIUS_GENCEN_19
1002
{
1040
3.0
1002
}
  0
LINE
  5
54D38
330
1F
100
AcDbEntity
  8
AM_7
 48
0.3
370
     9
100
AcDbLine
 10
216.0
 20
98.60000000000036
 30
0.0
 11
216.0
 21
89.40000000000054
 31
0.0
1001
GENIUS_GENODEF_13
1002
{
1000
HIER
1070
     0
1002
}
1002
{
1000
MANEDIT
1070
     0
1002
}
1002
{
1000
NOSEL
1070
     0
1002
}
1002
{
1000
BEHIND
1070
     0
1002
}
1002
{
1000
OTHER
1070
     0
1002
}
1002
{
1000
REACTOR
1002
}
1001
GENIUS_GENOBJ-N-CEN_13
1002
{
1000
OWNER
1000
GEN
1002
}
1001
GENIUS_GENCEN_19
1002
{
1040
3.0
1002
}
  0
LINE
  5
54D39
330
1F
100
AcDbEntity
  8
AM_7
 48
0.3
370
     9
100
AcDbLine
 10
236.4000000000001
 20
94.02775000000019
 30
0.0
 11
245.5999999999999
 21
94.02775000000019
 31
0.0
1001
GENIUS_GENOBJ-N-CEN_13
1002
{
1000
OWNER
1000
GEN
1002
}
1001
GENIUS_GENODEF_13
1002
{
1000
HIER
1070
     0
1002
}
1002
{
1000
MANEDIT
1070
     0
1002
}
1002
{
1000
NOSEL
1070
     0
1002
}
1002
{
1000
BEHIND
1070
     0
1002
}
1002
{
1000
OTHER
1070
     0
1002
}
1002
{
1000
REACTOR
1002
}
1001
GENIUS_GENCEN_19
1002
{
1040
3.0
1002
}
  0
LINE
  5
54D3A
330
1F
100
AcDbEntity
  8
AM_7
 48
0.3
370
     9
100
AcDbLine
 10
241.0
 20
98.62775000000011
 30
0.0
 11
241.0
 21
89.42775000000029
 31
0.0
1001
GENIUS_GENODEF_13
1002
{
1000
HIER
1070
     0
1002
}
1002
{
1000
MANEDIT
1070
     0
1002
}
1002
{
1000
NOSEL
1070
     0
1002
}
1002
{
1000
BEHIND
1070
     0
1002
}
1002
{
1000
OTHER
1070
     0
1002
}
1002
{
1000
REACTOR
1002
}
1001
GENIUS_GENOBJ-N-CEN_13
1002
{
1000
OWNER
1000
GEN
1002
}
1001
GENIUS_GENCEN_19
1002
{
1040
3.0
1002
}
  0
LINE
  5
54D3B
330
1F
100
AcDbEntity
  8
AM_7
 48
0.3
370
     9
100
AcDbLine
 10
236.4000000000001
 20
126.0277500000002
 30
0.0
 11
245.5999999999999
 21
126.0277500000002
 31
0.0
1001
GENIUS_GENOBJ-N-CEN_13
1002
{
1000
OWNER
1000
GEN
1002
}
1001
GENIUS_GENODEF_13
1002
{
1000
HIER
1070
     0
1002
}
1002
{
1000
MANEDIT
1070
     0
1002
}
1002
{
1000
NOSEL
1070
     0
1002
}
1002
{
1000
BEHIND
1070
     0
1002
}
1002
{
1000
OTHER
1070
     0
1002
}
1002
{
1000
REACTOR
1002
}
1001
GENIUS_GENCEN_19
1002
{
1040
3.0
1002
}
  0
LINE
  5
54D3C
102
{ACAD_REACTORS
330
54E4C
102
}
330
1F
100
AcDbEntity
  8
AM_7
 48
0.3
370
     9
100
AcDbLine
 10
241.0
 20
130.6277500000001
 30
0.0
 11
241.0
 21
121.4277500000003
 31
0.0
1001
GENIUS_GENODEF_13
1002
{
1000
HIER
1070
     0
1002
}
1002
{
1000
MANEDIT
1070
     0
1002
}
1002
{
1000
NOSEL
1070
     0
1002
}
1002
{
1000
BEHIND
1070
     0
1002
}
1002
{
1000
OTHER
1070
     0
1002
}
1002
{
1000
REACTOR
1002
}
1001
GENIUS_GENOBJ-N-CEN_13
1002
{
1000
OWNER
1000
GEN
1002
}
1001
GENIUS_GENCEN_19
1002
{
1040
3.0
1002
}
  0
DIMENSION
  5
54E3E
102
{ACAD_XDICTIONARY
360
54E4B
102
}
102
{ACAD_REACTORS
330
54E4C
102
}
330
1F
100
AcDbEntity
  8
AM_5
100
AcDbDimension
  2
*D5
 10
241.0
 20
143.5
 30
0.0
 11
228.5
 21
146.1
 31
0.0
 70
    32
  1
D
 71
     5
 42
25.0
  3
SYS$0
100
AcDbAlignedDimension
 13
216.0
 23
130.6000000000003
 33
0.0
 14
241.0
 24
130.6277500000001
 34
0.0
100
AcDbRotatedDimension
1001
ACAD
1000
DSTYLE
1002
{
1070
   271
1070
     1
1002
}
  0
DIMENSION
  5
54EB0
102
{ACAD_XDICTIONARY
360
54EBD
102
}
102
{ACAD_REACTORS
330
54EBE
102
}
330
1F
100
AcDbEntity
  8
AM_5
100
AcDbDimension
  2
*D6
 10
247.5
 20
151.5
 30
0.0
 11
228.5
 21
154.1
 31
0.0
 70
    32
  1
B
 71
     5
 42
38.0
  3
SYS$0
100
AcDbAlignedDimension
 13
209.5
 23
135.0
 33
0.0
 14
247.5
 24
134.5277500000002
 34
0.0
100
AcDbRotatedDimension
1001
ACAD
1000
DSTYLE
1002
{
1070
   271
1070
     1
1002
}
  0
DIMENSION
  5
54EE3
102
{ACAD_XDICTIONARY
360
54EF0
102
}
102
{ACAD_REACTORS
330
54EF1
102
}
330
1F
100
AcDbEntity
  8
AM_5
100
AcDbDimension
  2
*D7
 10
257.5
 20
84.5277500000002
 30
0.0
 11
254.9
 21
110.0277500000002
 31
0.0
 70
    32
  1
A
 71
     5
 42
51.0
  3
SYS$0
100
AcDbAlignedDimension
 13
246.5
 23
135.5277500000002
 33
0.0
 14
246.5
 24
84.5277500000002
 34
0.0
 50
90.0
100
AcDbRotatedDimension
1001
ACAD
1000
DSTYLE
1002
{
1070
   271
1070
     1
1002
}
  0
DIMENSION
  5
54EFB
102
{ACAD_XDICTIONARY
360
54F08
102
}
102
{ACAD_REACTORS
330
54F09
102
}
330
1F
100
AcDbEntity
  8
AM_5
100
AcDbDimension
  2
*D8
 10
201.5
 20
94.0
 30
0.0
 11
198.9
 21
110.0
 31
0.0
 70
    32
  1
C
 71
     5
 42
32.0
  3
SYS$0
100
AcDbAlignedDimension
 13
211.4000000000001
 23
126.0
 33
0.0
 14
211.4000000000001
 24
94.0
 34
0.0
 50
90.0
100
AcDbRotatedDimension
1001
ACAD
1000
DSTYLE
1002
{
1070
   271
1070
     1
1002
}
  0
DIMENSION
  5
54F2E
102
{ACAD_XDICTIONARY
360
54F3D
102
}
102
{ACAD_REACTORS
330
54F3E
102
}
330
1F
100
AcDbEntity
  8
AM_5
100
AcDbDimension
  2
*D9
 10
257.5004881592029
 20
172.5000001588664
 30
0.0
 11
254.9004881592028
 21
168.8066668255331
 31
0.0
 70
    32
  1
E
 71
     5
 42
1.499999841133558
  3
SYS$0
100
AcDbAlignedDimension
 13
247.5
 23
174.0
 33
0.0
 14
247.5004881592028
 24
172.5000001588664
 34
0.0
 50
270.0
100
AcDbRotatedDimension
1001
ACAD
1000
DSTYLE
1002
{
1070
   271
1070
     1
1002
}
  0
DIMENSION
  5
54F4E
102
{ACAD_XDICTIONARY
360
54F58
102
}
102
{ACAD_REACTORS
330
54F5F
102
}
330
1F
100
AcDbEntity
  8
AM_5
100
AcDbDimension
  2
*D10
 10
230.7980970388561
 20
173.0480970388562
 30
0.0
 11
217.0513333333324
 21
163.3200000000004
 31
0.0
 70
   163
  1
（%%cF）
 71
     5
 42
6.499999999999829
  3
SYS$3
100
AcDbDiametricDimension
 15
226.2019029611437
 25
168.4519029611436
 35
0.0
 40
0.0
1001
ACAD
1000
DSTYLE
1002
{
1070
    41
1040
1.0
1070
   344
1005
6C4
1070
   342
1005
0
1070
   173
1070
     1
1070
   343
1005
6C4
1070
   172
1070
     1
1002
}
  0
DIMENSION
  5
54FCA
102
{ACAD_XDICTIONARY
360
54FD4
102
}
102
{ACAD_REACTORS
330
54FDB
102
}
330
1F
100
AcDbEntity
  8
AM_5
100
AcDbDimension
  2
*D11
 10
217.1864572465982
 20
95.07346131834976
 30
0.0
 11
201.1399999999942
 21
84.50000000000441
 31
0.0
 70
   163
  1
<>
 71
     5
 42
3.19999999999959
  3
SYS$3
100
AcDbDiametricDimension
 15
214.8135427534015
 25
92.92653868164993
 35
0.0
 40
0.0
1001
ACAD
1000
DSTYLE
1002
{
1070
    41
1040
1.0
1070
   344
1005
6C4
1070
   342
1005
0
1070
   173
1070
     1
1070
   343
1005
6C4
1070
   172
1070
     1
1002
}
  0
ARC
  5
550BD
330
1F
100
AcDbEntity
  8
AM_0
100
AcDbCircle
 10
131.5
 20
86.5
 30
0.0
 40
2.0
100
AcDbArc
 50
180.0
 51
270.0
  0
LINE
  5
550BE
330
1F
100
AcDbEntity
  8
AM_0
100
AcDbLine
 10
129.5
 20
174.0
 30
0.0
 11
167.5
 21
174.0
 31
0.0
  0
LINE
  5
550C2
330
1F
100
AcDbEntity
  8
AM_0
100
AcDbLine
 10
145.25
 20
104.0277504410005
 30
0.0
 11
145.25
 21
84.50000000000001
 31
0.0
  0
LINE
  5
550C3
330
1F
100
AcDbEntity
  8
AM_0
100
AcDbLine
 10
145.25
 20
135.5
 30
0.0
 11
145.25
 21
116.0277504410005
 31
0.0
  0
ARC
  5
550C4
330
1F
100
AcDbEntity
  8
AM_0
100
AcDbCircle
 10
151.0500000000002
 20
107.9750000000003
 30
0.0
 40
0.45
100
AcDbArc
 50
264.9575489310062
 51
90.0
  0
LINE
  5
550C5
330
1F
100
AcDbEntity
  8
AM_0
100
AcDbLine
 10
129.5
 20
86.5
 30
0.0
 11
129.5
 21
133.5
 31
0.0
  0
LINE
  5
550C6
330
1F
100
AcDbEntity
  8
AM_0
100
AcDbLine
 10
151.75
 20
84.50000000000001
 30
0.0
 11
131.5
 21
84.50000000000001
 31
0.0
  0
LINE
  5
550C7
330
1F
100
AcDbEntity
  8
AM_0
100
AcDbLine
 10
153.5
 20
135.5277504410005
 30
0.0
 11
165.5
 21
135.5277504410005
 31
0.0
  0
LINE
  5
550C8
330
1F
100
AcDbEntity
  8
AM_0
100
AcDbLine
 10
167.5
 20
133.5277504410005
 30
0.0
 11
167.5
 21
86.52775044100053
 31
0.0
  0
LINE
  5
550C9
330
1F
100
AcDbEntity
  8
AM_0
100
AcDbLine
 10
165.5
 20
84.52775044100054
 30
0.0
 11
153.5
 21
84.52775044100054
 31
0.0
  0
LINE
  5
550CA
330
1F
100
AcDbEntity
  8
AM_0
100
AcDbLine
 10
152.5
 20
85.52775044100053
 30
0.0
 11
152.5
 21
94.02775044100053
 31
0.0
  0
LINE
  5
550CB
330
1F
100
AcDbEntity
  8
AM_0
100
AcDbLine
 10
152.5
 20
94.02775044100053
 30
0.0
 11
144.5
 21
94.02775044100053
 31
0.0
  0
ARC
  5
550CC
330
1F
100
AcDbEntity
  8
AM_0
100
AcDbCircle
 10
151.0500000000002
 20
108.875
 30
0.0
 40
0.45
100
AcDbArc
 50
264.9575489310062
 51
90.0
  0
LINE
  5
550CD
330
1F
100
AcDbEntity
  8
AM_0
100
AcDbLine
 10
131.5
 20
135.5
 30
0.0
 11
151.75
 21
135.5
 31
0.0
  0
LINE
  5
550CE
330
1F
100
AcDbEntity
  8
AM_0
100
AcDbLine
 10
151.75
 20
135.5
 30
0.0
 11
151.75
 21
116.0277504410005
 31
0.0
  0
ARC
  5
550CF
330
1F
100
AcDbEntity
  8
AM_0
100
AcDbCircle
 10
151.0500000000002
 20
109.7750000000001
 30
0.0
 40
0.45
100
AcDbArc
 50
264.9575489310062
 51
92.09095677000702
  0
LINE
  5
550D0
330
1F
100
AcDbEntity
  8
AM_0
100
AcDbLine
 10
144.5
 20
126.0
 30
0.0
 11
144.5
 21
105.7250000000003
 31
0.0
  0
ARC
  5
550D1
330
1F
100
AcDbEntity
  8
AM_0
100
AcDbCircle
 10
151.0500000000002
 20
110.6750000000002
 30
0.0
 40
0.45
100
AcDbArc
 50
262.6080328610072
 51
90.0
  0
LINE
  5
550D2
330
1F
100
AcDbEntity
  8
AM_0
100
AcDbLine
 10
151.75
 20
104.0277504410005
 30
0.0
 11
151.75
 21
84.50000000000001
 31
0.0
  0
ARC
  5
550D3
330
1F
100
AcDbEntity
  8
AM_0
100
AcDbCircle
 10
151.0500000000002
 20
111.5750000000002
 30
0.0
 40
0.45
100
AcDbArc
 50
264.9575489310062
 51
90.0
  0
ARC
  5
550D4
330
1F
100
AcDbEntity
  8
AM_0
100
AcDbCircle
 10
145.9500000000002
 20
114.7250000000003
 30
0.0
 40
0.45
100
AcDbArc
 50
84.95754893100619
 51
264.9575489310062
  0
ARC
  5
550D5
330
1F
100
AcDbEntity
  8
AM_0
100
AcDbCircle
 10
145.9500000000002
 20
113.8250000000002
 30
0.0
 40
0.45
100
AcDbArc
 50
92.09095677000702
 51
265.5700992610044
  0
ARC
  5
550D6
330
1F
100
AcDbEntity
  8
AM_0
100
AcDbCircle
 10
145.9500000000002
 20
112.9250000000002
 30
0.0
 40
0.45
100
AcDbArc
 50
92.03243206700822
 51
264.9575489310062
  0
ARC
  5
550D7
330
1F
100
AcDbEntity
  8
AM_0
100
AcDbCircle
 10
145.9500000000002
 20
105.7250000000003
 30
0.0
 40
0.45
100
AcDbArc
 50
92.09095677000702
 51
264.9575489310062
  0
LINE
  5
550D8
330
1F
100
AcDbEntity
  8
AM_0
100
AcDbLine
 10
129.5
 20
174.0
 30
0.0
 11
129.5
 21
172.3999999999996
 31
0.0
  0
ARC
  5
550D9
330
1F
100
AcDbEntity
  8
AM_0
100
AcDbCircle
 10
145.9500000000002
 20
106.625
 30
0.0
 40
0.45
100
AcDbArc
 50
92.09095677000702
 51
264.9575489310062
  0
LINE
  5
550DA
330
1F
100
AcDbEntity
  8
AM_0
100
AcDbLine
 10
145.25
 20
104.0277504410005
 30
0.0
 11
152.5
 21
104.0277504410005
 31
0.0
  0
LINE
  5
550DB
330
1F
100
AcDbEntity
  8
AM_0
100
AcDbLine
 10
152.5
 20
104.0277504410005
 30
0.0
 11
152.5
 21
114.2750000000001
 31
0.0
  0
LINE
  5
550DC
330
1F
100
AcDbEntity
  8
AM_0
100
AcDbLine
 10
152.5
 20
116.0277504410005
 30
0.0
 11
145.25
 21
116.0277504410005
 31
0.0
  0
LINE
  5
550DD
330
1F
100
AcDbEntity
  8
AM_0
100
AcDbLine
 10
144.5
 20
126.0277504410005
 30
0.0
 11
152.5
 21
126.0277504410005
 31
0.0
  0
LINE
  5
550DE
330
1F
100
AcDbEntity
  8
AM_0
100
AcDbLine
 10
152.5
 20
126.0277504410005
 30
0.0
 11
152.5
 21
134.5277504410005
 31
0.0
  0
ARC
  5
550DF
330
1F
100
AcDbEntity
  8
AM_0
100
AcDbCircle
 10
145.9500000000002
 20
107.5250000000001
 30
0.0
 40
0.45
100
AcDbArc
 50
92.09095677000702
 51
264.9575489310062
  0
ARC
  5
550E1
330
1F
100
AcDbEntity
  8
AM_0
100
AcDbCircle
 10
145.9500000000002
 20
108.4250000000002
 30
0.0
 40
0.45
100
AcDbArc
 50
92.09095677000702
 51
264.9575489310062
  0
ARC
  5
550E2
330
1F
100
AcDbEntity
  8
AM_0
100
AcDbCircle
 10
145.9500000000002
 20
109.3250000000002
 30
0.0
 40
0.45
100
AcDbArc
 50
92.09095677000702
 51
264.9575489310062
  0
ARC
  5
550E3
330
1F
100
AcDbEntity
  8
AM_0
100
AcDbCircle
 10
145.9500000000002
 20
110.2250000000003
 30
0.0
 40
0.45
100
AcDbArc
 50
92.09095677000702
 51
264.9575489310062
  0
ARC
  5
550E5
330
1F
100
AcDbEntity
  8
AM_0
100
AcDbCircle
 10
153.5
 20
85.52775044100053
 30
0.0
 40
1.0
100
AcDbArc
 50
180.0
 51
270.0
  0
ARC
  5
550E6
330
1F
100
AcDbEntity
  8
AM_0
100
AcDbCircle
 10
165.5
 20
86.52775044100053
 30
0.0
 40
2.0
100
AcDbArc
 50
270.0
 51
0.0
  0
ARC
  5
550E7
330
1F
100
AcDbEntity
  8
AM_0
100
AcDbCircle
 10
165.5
 20
133.5277504410005
 30
0.0
 40
2.0
100
AcDbArc
 50
0.0
 51
90.0
  0
ARC
  5
550E8
330
1F
100
AcDbEntity
  8
AM_0
100
AcDbCircle
 10
153.5
 20
134.5277504410005
 30
0.0
 40
1.0
100
AcDbArc
 50
90.0
 51
180.0
  0
CIRCLE
  5
550E9
330
1F
100
AcDbEntity
  8
AM_0
100
AcDbCircle
 10
148.5
 20
170.75
 30
0.0
 40
1.649999999999999
  0
LINE
  5
550EA
330
1F
100
AcDbEntity
  8
AM_0
100
AcDbLine
 10
146.96131345
 20
171.3457715180002
 30
0.0
 11
145.5950555710001
 21
172.2073255859996
 31
0.0
  0
ARC
  5
550EB
330
1F
100
AcDbEntity
  8
AM_0
100
AcDbCircle
 10
145.9500000000002
 20
111.125
 30
0.0
 40
0.45
100
AcDbArc
 50
92.09095677000702
 51
264.9575489310062
  0
ARC
  5
550EC
330
1F
100
AcDbEntity
  8
AM_0
100
AcDbCircle
 10
145.9500000000002
 20
112.0250000000001
 30
0.0
 40
0.45
100
AcDbArc
 50
92.09095677000702
 51
264.9575489310062
  0
ARC
  5
550ED
330
1F
100
AcDbEntity
  8
AM_0
100
AcDbCircle
 10
131.5
 20
133.5
 30
0.0
 40
2.0
100
AcDbArc
 50
90.0
 51
180.0
  0
CIRCLE
  5
550EE
330
1F
100
AcDbEntity
  8
AM_0
100
AcDbCircle
 10
148.5
 20
170.75
 30
0.0
 40
1.5
  0
LINE
  5
550F0
330
1F
100
AcDbEntity
  8
AM_0
100
AcDbLine
 10
167.5
 20
174.0
 30
0.0
 11
167.5
 21
172.3999999999996
 31
0.0
  0
ARC
  5
550F1
330
1F
100
AcDbEntity
  8
AM_0
100
AcDbCircle
 10
148.5
 20
170.75
 30
0.0
 40
3.25
100
AcDbArc
 50
149.4897625940123
 51
90.0
  0
ARC
  5
550F3
330
1F
100
AcDbEntity
  8
AM_0
100
AcDbCircle
 10
151.0500000000002
 20
107.0750000000002
 30
0.0
 40
0.45
100
AcDbArc
 50
264.9575489310062
 51
90.38524154298793
  0
ARC
  5
550F4
330
1F
100
AcDbEntity
  8
AM_0
100
AcDbCircle
 10
151.0500000000002
 20
106.1750000000001
 30
0.0
 40
0.45
100
AcDbArc
 50
264.9575489310062
 51
90.40515418600522
  0
ARC
  5
550F6
330
1F
100
AcDbEntity
  8
AM_0
100
AcDbCircle
 10
151.0500000000002
 20
112.4750000000003
 30
0.0
 40
0.45
100
AcDbArc
 50
264.9575489310062
 51
90.0
  0
ARC
  5
550F7
330
1F
100
AcDbEntity
  8
AM_0
100
AcDbCircle
 10
151.0500000000002
 20
113.375
 30
0.0
 40
0.45
100
AcDbArc
 50
264.9575489310062
 51
90.0
  0
ARC
  5
550F8
330
1F
100
AcDbEntity
  8
AM_0
100
AcDbCircle
 10
151.0500000000002
 20
114.2750000000001
 30
0.0
 40
0.45
100
AcDbArc
 50
264.9575489310062
 51
84.95754893100619
  0
LINE
  5
550F9
330
1F
100
AcDbEntity
  8
AM_0
100
AcDbLine
 10
145.9104477860001
 20
106.1767415680001
 30
0.0
 11
151.010447786
 21
105.7267415679998
 31
0.0
  0
LINE
  5
550FA
330
1F
100
AcDbEntity
  8
AM_0
100
AcDbLine
 10
145.9104477860001
 20
105.276741568
 30
0.0
 11
151.010447786
 21
104.8267415680002
 31
0.0
  0
LINE
  5
550FB
330
1F
100
AcDbEntity
  8
AM_0
100
AcDbLine
 10
145.9104477860001
 20
107.0767415680002
 30
0.0
 11
151.010447786
 21
106.6267415680004
 31
0.0
  0
LINE
  5
550FC
330
1F
100
AcDbEntity
  8
AM_0
100
AcDbLine
 10
145.9104477860001
 20
107.9767415679998
 30
0.0
 11
151.010447786
 21
107.526741568
 31
0.0
  0
LINE
  5
550FD
330
1F
100
AcDbEntity
  8
AM_0
100
AcDbLine
 10
145.9104477860001
 20
109.776741568
 30
0.0
 11
151.010447786
 21
109.3267415680002
 31
0.0
  0
LINE
  5
550FE
330
1F
100
AcDbEntity
  8
AM_0
100
AcDbLine
 10
145.9104477860001
 20
108.8767415680004
 30
0.0
 11
151.010447786
 21
108.4267415680001
 31
0.0
  0
LINE
  5
550FF
330
1F
100
AcDbEntity
  8
AM_0
100
AcDbLine
 10
145.9104477860001
 20
110.6767415680001
 30
0.0
 11
151.010447786
 21
110.2267415679998
 31
0.0
  0
LINE
  5
55100
330
1F
100
AcDbEntity
  8
AM_0
100
AcDbLine
 10
145.9104477860001
 20
111.5767415680002
 30
0.0
 11
151.010447786
 21
111.1267415680004
 31
0.0
  0
LINE
  5
55101
330
1F
100
AcDbEntity
  8
AM_0
100
AcDbLine
 10
145.9104477860001
 20
112.4767415679998
 30
0.0
 11
151.010447786
 21
112.026741568
 31
0.0
  0
LINE
  5
55103
330
1F
100
AcDbEntity
  8
AM_0
100
AcDbLine
 10
163.492937552
 20
114.2750000000001
 30
0.0
 11
163.492937552
 21
115.177766068
 31
0.0
  0
LINE
  5
55104
330
1F
100
AcDbEntity
  8
AM_0
100
AcDbLine
 10
145.989552215
 20
115.1732584330002
 30
0.0
 11
151.0895522150003
 21
114.7232584330004
 31
0.0
  0
LINE
  5
55105
330
1F
100
AcDbEntity
  8
AM_0
100
AcDbLine
 10
151.0387412250002
 20
104.8251408670003
 30
0.0
 11
150.0
 21
104.8249685950004
 31
0.0
  0
LINE
  5
55106
330
1F
100
AcDbEntity
  8
AM_0
100
AcDbLine
 10
145.5
 20
105.7250000000003
 30
0.0
 11
133.5
 21
105.7250000000003
 31
0.0
  0
LINE
  5
55107
330
1F
100
AcDbEntity
  8
AM_0
100
AcDbLine
 10
145.9152403080002
 20
113.3763186980004
 30
0.0
 11
151.010447786
 21
112.9267415680001
 31
0.0
  0
LINE
  5
55108
330
1F
100
AcDbEntity
  8
AM_0
100
AcDbLine
 10
145.9104477860001
 20
114.276741568
 30
0.0
 11
151.010447786
 21
113.8267415680002
 31
0.0
  0
LINE
  5
55109
330
1F
100
AcDbEntity
  8
AM_0
100
AcDbLine
 10
151.010447786
 20
104.8267415680002
 30
0.0
 11
145.9104477860001
 21
105.276741568
 31
0.0
  0
LINE
  5
5510A
330
1F
100
AcDbEntity
  8
AM_0
100
AcDbLine
 10
151.5
 20
114.2750000000001
 30
0.0
 11
163.5
 21
114.2750000000001
 31
0.0
  0
LINE
  5
5510B
330
1F
100
AcDbEntity
  8
AM_0
100
AcDbLine
 10
145.989552215
 20
115.1732584330002
 30
0.0
 11
147.0
 21
115.1735186530004
 31
0.0
  0
LINE
  5
5510C
330
1F
100
AcDbEntity
  8
AM_0
100
AcDbLine
 10
144.5
 20
104.8240564340003
 30
0.0
 11
144.5
 21
94.0
 31
0.0
  0
LINE
  5
5510D
330
1F
100
AcDbEntity
  8
AM_0
100
AcDbLine
 10
133.5070624480004
 20
105.7250000000003
 30
0.0
 11
133.5070624480004
 21
104.8222339330004
 31
0.0
  0
ARC
  5
55110
330
1F
100
AcDbEntity
  8
AM_0
100
AcDbCircle
 10
151.0500000000002
 20
105.2750000000001
 30
0.0
 40
0.45
100
AcDbArc
 50
264.9575489310062
 51
89.6789688550052
  0
LINE
  5
55111
330
1F
100
AcDbEntity
  8
AM_0
100
AcDbLine
 10
152.5
 20
115.1749350640002
 30
0.0
 11
152.5
 21
116.0277504410005
 31
0.0
  0
LINE
  5
55112
330
1F
100
AcDbEntity
  8
AM_0
100
AcDbLine
 10
147.0
 20
116.0277504410005
 30
0.0
 11
147.0
 21
115.0841012750002
 31
0.0
  0
LINE
  5
55113
330
1F
100
AcDbEntity
  8
AM_0
100
AcDbLine
 10
150.0
 20
116.0277504410005
 30
0.0
 11
150.0
 21
114.8193953930004
 31
0.0
  0
LINE
  5
55114
330
1F
100
AcDbEntity
  8
AM_0
100
AcDbLine
 10
147.0
 20
105.180604608
 30
0.0
 11
147.0
 21
104.0277504410005
 31
0.0
  0
LINE
  5
55115
330
1F
100
AcDbEntity
  8
AM_0
100
AcDbLine
 10
150.0
 20
104.9158987260002
 30
0.0
 11
150.0
 21
104.0277504410005
 31
0.0
  0
LINE
  5
55116
330
1F
100
AcDbEntity
  8
AM_0
100
AcDbLine
 10
150.0
 20
115.174291241
 30
0.0
 11
163.5
 21
115.1777678870003
 31
0.0
  0
LINE
  5
55117
330
1F
100
AcDbEntity
  8
AM_0
100
AcDbLine
 10
147.0
 20
104.8244710530002
 30
0.0
 11
133.5
 21
104.8222321140001
 31
0.0
  0
LINE
  5
55118
330
1F
100
AcDbEntity
  8
AM_0
100
AcDbLine
 10
151.9297296310001
 20
172.3999999999996
 30
0.0
 11
155.480049747
 21
170.8163818590001
 31
0.0
  0
ARC
  5
55119
330
1F
100
AcDbEntity
  8
AM_0
100
AcDbCircle
 10
155.5207859550001
 20
170.907708533
 30
0.0
 40
0.1
100
AcDbArc
 50
245.9607680149939
 51
291.299472807993
  0
LINE
  5
5511A
330
1F
100
AcDbEntity
  8
AM_0
100
AcDbLine
 10
151.6530369880001
 20
171.5379452739998
 30
0.0
 11
155.3232235190003
 21
169.9008607899996
 31
0.0
  0
LINE
  5
5511B
330
1F
100
AcDbEntity
  8
AM_0
100
AcDbLine
 10
155.5571102210001
 20
170.8145390760001
 30
0.0
 11
159.4660385510001
 21
172.3385251130003
 31
0.0
  0
LINE
  5
5511C
330
1F
100
AcDbEntity
  8
AM_0
100
AcDbLine
 10
155.6699956500001
 20
169.8925682669996
 30
0.0
 11
159.7754370300004
 21
171.493169457
 31
0.0
  0
LINE
  5
5511D
330
1F
100
AcDbEntity
  8
AM_0
100
AcDbLine
 10
145.0702703690003
 20
172.3999999999996
 30
0.0
 11
141.5199502530004
 21
170.8163818590001
 31
0.0
  0
LINE
  5
5511E
330
1F
100
AcDbEntity
  8
AM_0
100
AcDbLine
 10
145.3469630120003
 20
171.5379452739998
 30
0.0
 11
141.6767764810001
 21
169.9008607899996
 31
0.0
  0
ARC
  5
5511F
330
1F
100
AcDbEntity
  8
AM_0
100
AcDbCircle
 10
159.7929569430002
 20
171.5
 30
0.0
 40
0.9
100
AcDbArc
 50
90.0
 51
111.299472807993
  0
ARC
  5
55120
330
1F
100
AcDbEntity
  8
AM_0
100
AcDbCircle
 10
155.506536454
 20
170.311830823
 30
0.0
 40
0.45
100
AcDbArc
 50
245.9607680149939
 51
291.299472807993
  0
ARC
  5
55121
330
1F
100
AcDbEntity
  8
AM_0
100
AcDbCircle
 10
141.4792140450004
 20
170.907708533
 30
0.0
 40
0.1
100
AcDbArc
 50
248.7005271920069
 51
294.0392319850062
  0
ARC
  5
55122
330
1F
100
AcDbEntity
  8
AM_0
100
AcDbCircle
 10
159.811761296
 20
171.3999999999996
 30
0.0
 40
0.1
100
AcDbArc
 50
90.0
 51
111.299472807993
  0
LINE
  5
55123
330
1F
100
AcDbEntity
  8
AM_0
100
AcDbLine
 10
163.6093064250003
 20
172.3999999999996
 30
0.0
 11
163.6093064250003
 21
171.5
 31
0.0
  0
LINE
  5
55124
330
1F
100
AcDbEntity
  8
AM_0
100
AcDbLine
 10
163.6093064250003
 20
171.5
 30
0.0
 11
159.811761296
 21
171.5
 31
0.0
  0
LINE
  5
55125
330
1F
100
AcDbEntity
  8
AM_0
100
AcDbLine
 10
141.4428897790003
 20
170.8145390760001
 30
0.0
 11
137.5339614490003
 21
172.3385251130003
 31
0.0
  0
LINE
  5
55126
330
1F
100
AcDbEntity
  8
AM_0
100
AcDbLine
 10
141.3300043510003
 20
169.8925682669996
 30
0.0
 11
137.22456297
 21
171.493169457
 31
0.0
  0
ARC
  5
55127
330
1F
100
AcDbEntity
  8
AM_0
100
AcDbCircle
 10
137.188238705
 20
171.3999999999996
 30
0.0
 40
0.1
100
AcDbArc
 50
68.70052719200697
 51
90.0
  0
ARC
  5
55128
330
1F
100
AcDbEntity
  8
AM_0
100
AcDbCircle
 10
141.4934635470004
 20
170.311830823
 30
0.0
 40
0.45
100
AcDbArc
 50
248.7005271920069
 51
294.0392319850062
  0
ARC
  5
55129
330
1F
100
AcDbEntity
  8
AM_0
100
AcDbCircle
 10
137.2070430570002
 20
171.5
 30
0.0
 40
0.9
100
AcDbArc
 50
68.70052719200697
 51
90.0
  0
LINE
  5
5512A
330
1F
100
AcDbEntity
  8
AM_0
100
AcDbLine
 10
133.3906935750001
 20
172.3999999999996
 30
0.0
 11
133.3906935750001
 21
171.5
 31
0.0
  0
LINE
  5
5512B
330
1F
100
AcDbEntity
  8
AM_0
100
AcDbLine
 10
133.3906935750001
 20
171.5
 30
0.0
 11
137.188238705
 21
171.5
 31
0.0
  0
LINE
  5
5512C
330
1F
100
AcDbEntity
  8
AM_0
100
AcDbLine
 10
152.5
 20
172.3999999999996
 30
0.0
 11
152.5
 21
174.0
 31
0.0
  0
LINE
  5
5512D
330
1F
100
AcDbEntity
  8
AM_0
100
AcDbLine
 10
129.5
 20
172.3999999999996
 30
0.0
 11
148.5
 21
172.3999999999996
 31
0.0
  0
LINE
  5
5512E
330
1F
100
AcDbEntity
  8
AM_0
100
AcDbLine
 10
151.3000000000002
 20
172.3999999999996
 30
0.0
 11
167.5
 21
172.3999999999996
 31
0.0
  0
LINE
  5
55183
330
1F
100
AcDbEntity
  8
AM_7
370
     9
100
AcDbLine
 10
148.5
 20
138.5
 30
0.0
 11
148.5
 21
81.5
 31
0.0
1001
GENIUS_GENODEF_13
1002
{
1000
HIER
1070
     0
1002
}
1002
{
1000
MANEDIT
1070
     0
1002
}
1002
{
1000
NOSEL
1070
     0
1002
}
1002
{
1000
BEHIND
1070
     0
1002
}
1002
{
1000
OTHER
1070
     0
1002
}
1002
{
1000
REACTOR
1002
}
1001
GENIUS_GENOBJ-N-CEN_13
1002
{
1000
OWNER
1000
GEN
1002
}
1001
GENIUS_GENCEN_19
1002
{
1040
3.0
1002
}
  0
LINE
  5
55184
330
1F
100
AcDbEntity
  8
AM_7
 48
0.5
370
     9
100
AcDbLine
 10
148.5000000000002
 20
177.0
 30
0.0
 11
148.5000000000002
 21
164.5
 31
0.0
1001
GENIUS_GENODEF_13
1002
{
1000
HIER
1070
     0
1002
}
1002
{
1000
MANEDIT
1070
     0
1002
}
1002
{
1000
NOSEL
1070
     0
1002
}
1002
{
1000
BEHIND
1070
     0
1002
}
1002
{
1000
OTHER
1070
     0
1002
}
1002
{
1000
REACTOR
1002
}
1001
GENIUS_GENOBJ-N-CEN_13
1002
{
1000
OWNER
1000
GEN
1002
}
1001
GENIUS_GENCEN_19
1002
{
1040
3.0
1002
}
  0
LINE
  5
55185
330
1F
100
AcDbEntity
  8
AM_7
 48
0.5
370
     9
100
AcDbLine
 10
142.25
 20
170.75
 30
0.0
 11
154.75
 21
170.75
 31
0.0
1001
GENIUS_GENODEF_13
1002
{
1000
HIER
1070
     0
1002
}
1002
{
1000
MANEDIT
1070
     0
1002
}
1002
{
1000
NOSEL
1070
     0
1002
}
1002
{
1000
BEHIND
1070
     0
1002
}
1002
{
1000
OTHER
1070
     0
1002
}
1002
{
1000
REACTOR
1002
}
1001
GENIUS_GENOBJ-N-CEN_13
1002
{
1000
OWNER
1000
GEN
1002
}
1001
GENIUS_GENCEN_19
1002
{
1040
3.0
1002
}
  0
DIMENSION
  5
5519F
330
1F
100
AcDbEntity
  8
AM_5
100
AcDbDimension
  2
*D12
 10
167.5
 20
143.5
 30
0.0
 11
148.5
 21
146.1
 31
0.0
 70
    32
  1
B
 71
     5
 42
38.0
  3
SYS$0
100
AcDbAlignedDimension
 13
129.5
 23
135.0
 33
0.0
 14
167.5
 24
134.5277500000002
 34
0.0
100
AcDbRotatedDimension
1001
ACAD
1000
DSTYLE
1002
{
1070
   271
1070
     1
1002
}
  0
DIMENSION
  5
551A2
330
1F
100
AcDbEntity
  8
AM_5
100
AcDbDimension
  2
*D13
 10
177.5
 20
84.5277500000002
 30
0.0
 11
174.9
 21
110.0277500000002
 31
0.0
 70
    32
  1
A
 71
     5
 42
50.99999999999998
  3
SYS$0
100
AcDbAlignedDimension
 13
166.5
 23
135.5277500000002
 33
0.0
 14
166.5
 24
84.5277500000002
 34
0.0
 50
90.0
100
AcDbRotatedDimension
1001
ACAD
1000
DSTYLE
1002
{
1070
   271
1070
     1
1002
}
  0
DIMENSION
  5
551D8
330
1F
100
AcDbEntity
  8
AM_5
100
AcDbDimension
  2
*D14
 10
177.5004881592028
 20
172.5000001588664
 30
0.0
 11
174.9004881592028
 21
168.8066668255331
 31
0.0
 70
    32
  1
E
 71
     5
 42
1.499999841133558
  3
SYS$0
100
AcDbAlignedDimension
 13
167.5
 23
174.0
 33
0.0
 14
167.5004881592028
 24
172.5000001588664
 34
0.0
 50
270.0
100
AcDbRotatedDimension
1001
ACAD
1000
DSTYLE
1002
{
1070
   271
1070
     1
1002
}
  0
DIMENSION
  5
551DB
330
1F
100
AcDbEntity
  8
AM_5
100
AcDbDimension
  2
*D15
 10
150.7980970388564
 20
173.0480970388566
 30
0.0
 11
137.051333333332
 21
163.3199999999997
 31
0.0
 70
   163
  1
（%%cF）
 71
     5
 42
6.500000000000454
  3
SYS$3
100
AcDbDiametricDimension
 15
146.2019029611435
 25
168.4519029611438
 35
0.0
 40
0.0
1001
ACAD
1000
DSTYLE
1002
{
1070
    41
1040
1.0
1070
   344
1005
6C4
1070
   342
1005
0
1070
   173
1070
     1
1070
   343
1005
6C4
1070
   172
1070
     1
1002
}
  0
LINE
  5
55261
330
1F
100
AcDbEntity
  8
AM_0
100
AcDbLine
 10
11.5
 20
56.5
 30
0.0
 11
219.5
 21
56.5
 31
0.0
  0
LINE
  5
55262
330
1F
100
AcDbEntity
  8
AM_5
100
AcDbLine
 10
43.5
 20
8.5
 30
0.0
 11
43.5
 21
48.5
 31
0.0
  0
LINE
  5
55263
330
1F
100
AcDbEntity
  8
AM_0
100
AcDbLine
 10
11.5
 20
40.49999999999999
 30
0.0
 11
219.5
 21
40.49999999999999
 31
0.0
  0
LINE
  5
55264
330
1F
100
AcDbEntity
  8
AM_5
100
AcDbLine
 10
11.5
 20
32.5
 30
0.0
 11
107.5
 21
32.5
 31
0.0
  0
LINE
  5
55265
330
1F
100
AcDbEntity
  8
AM_5
100
AcDbLine
 10
11.5
 20
24.5
 30
0.0
 11
91.5
 21
24.5
 31
0.0
  0
LINE
  5
55267
330
1F
100
AcDbEntity
  8
AM_5
100
AcDbLine
 10
75.5
 20
56.5
 30
0.0
 11
75.5
 21
8.5
 31
0.0
  0
LINE
  5
55268
330
1F
100
AcDbEntity
  8
AM_5
100
AcDbLine
 10
91.5
 20
56.5
 30
0.0
 11
91.5
 21
8.5
 31
0.0
  0
LINE
  5
55269
330
1F
100
AcDbEntity
  8
AM_5
100
AcDbLine
 10
139.5
 20
56.5
 30
0.0
 11
139.5
 21
8.5
 31
0.0
  0
LINE
  5
5526A
330
1F
100
AcDbEntity
  8
AM_5
100
AcDbLine
 10
171.5
 20
56.5
 30
0.0
 11
171.5
 21
8.5
 31
0.0
  0
LINE
  5
5526B
330
1F
100
AcDbEntity
  8
AM_5
100
AcDbLine
 10
203.5
 20
56.5
 30
0.0
 11
203.5
 21
8.5
 31
0.0
  0
MTEXT
  5
5526C
330
1F
100
AcDbEntity
  8
AM_6
100
AcDbMText
 10
83.49999999999999
 20
48.5
 30
0.0
 40
3.2
 41
16.0
 71
     5
 72
     5
  1
A
 73
     1
 44
1.0
1001
ACAD
1000
MTEXTBEGIN
1070
    73
1070
     1
1070
    44
1040
1.0
1070
    74
1070
     0
1000
MTEXTEND
  0
MTEXT
  5
5526D
330
1F
100
AcDbEntity
  8
AM_6
100
AcDbMText
 10
123.5
 20
52.5
 30
0.0
 40
3.2
 41
32.0
 71
     5
 72
     5
  1
C
 73
     1
 44
1.0
1001
ACAD
1000
MTEXTBEGIN
1070
    73
1070
     1
1070
    44
1040
1.0
1070
    74
1070
     0
1000
MTEXTEND
  0
MTEXT
  5
5526E
330
1F
100
AcDbEntity
  8
AM_6
100
AcDbMText
 10
155.5
 20
52.5
 30
0.0
 40
3.2
 41
32.0
 71
     5
 72
     5
  1
D
 73
     1
 44
1.0
1001
ACAD
1000
MTEXTBEGIN
1070
    73
1070
     1
1070
    44
1040
1.0
1070
    74
1070
     0
1000
MTEXTEND
  0
MTEXT
  5
5526F
330
1F
100
AcDbEntity
  8
AM_6
100
AcDbMText
 10
83.50000000000092
 20
36.5
 30
0.0
 40
3.2
 41
16.0
 71
     5
 72
     5
  1
20
 73
     1
 44
1.0
1001
ACAD
1000
MTEXTBEGIN
1070
    73
1070
     1
1070
    44
1040
1.0
1070
    74
1070
     0
1000
MTEXTEND
  0
MTEXT
  5
55270
330
1F
100
AcDbEntity
  8
AM_6
100
AcDbMText
 10
83.50000000000092
 20
28.5
 30
0.0
 40
3.2
 41
16.0
 71
     5
 72
     5
  1
25
 73
     1
 44
1.0
1001
ACAD
1000
MTEXTBEGIN
1070
    73
1070
     1
1070
    44
1040
1.0
1070
    74
1070
     0
1000
MTEXTEND
  0
MTEXT
  5
55271
330
1F
100
AcDbEntity
  8
AM_6
100
AcDbMText
 10
83.50000000000092
 20
20.5
 30
0.0
 40
3.2
 41
16.0
 71
     5
 72
     5
  1
38
 73
     1
 44
1.0
1001
ACAD
1000
MTEXTBEGIN
1070
    73
1070
     1
1070
    44
1040
1.0
1070
    74
1070
     0
1000
MTEXTEND
  0
MTEXT
  5
55273
330
1F
100
AcDbEntity
  8
AM_6
100
AcDbMText
 10
27.5
 20
36.5
 30
0.0
 40
3.2
 41
32.0
 71
     5
 72
     5
  1
DEH-40-1
 73
     1
 44
1.0
1001
ACAD
1000
MTEXTBEGIN
1070
    73
1070
     1
1070
    44
1040
1.0
1070
    74
1070
     0
1000
MTEXTEND
  0
MTEXT
  5
55274
330
1F
100
AcDbEntity
  8
AM_6
100
AcDbMText
 10
27.5
 20
28.5
 30
0.0
 40
3.2
 41
32.0
 71
     5
 72
     5
  1
DEH-40-2
 73
     1
 44
1.0
1001
ACAD
1000
MTEXTBEGIN
1070
    73
1070
     1
1070
    44
1040
1.0
1070
    74
1070
     0
1000
MTEXTEND
  0
MTEXT
  5
55275
330
1F
100
AcDbEntity
  8
AM_6
100
AcDbMText
 10
27.5
 20
20.5
 30
0.0
 40
3.2
 41
32.0
 71
     5
 72
     5
  1
DEH-40-3
 73
     1
 44
1.0
1001
ACAD
1000
MTEXTBEGIN
1070
    73
1070
     1
1070
    44
1040
1.0
1070
    74
1070
     0
1000
MTEXTEND
  0
LINE
  5
55276
330
1F
100
AcDbEntity
  8
AM_0
100
AcDbLine
 10
11.5
 20
8.5
 30
0.0
 11
11.5
 21
56.5
 31
0.0
  0
MTEXT
  5
55277
330
1F
100
AcDbEntity
  8
AM_6
100
AcDbMText
 10
43.5
 20
52.5
 30
0.0
 40
3.2
 41
64.0
 71
     5
 72
     5
  1
品番
 73
     1
 44
1.0
1001
ACAD
1000
MTEXTBEGIN
1070
    73
1070
     1
1070
    44
1040
1.0
1070
    74
1070
     0
1000
MTEXTEND
  0
MTEXT
  5
55278
330
1F
100
AcDbEntity
  8
AM_6
100
AcDbMText
 10
59.5
 20
36.5
 30
0.0
 40
3.2
 41
32.0
 71
     5
 72
     5
  1
DEH-40S-1
 73
     1
 44
1.0
1001
ACAD
1000
MTEXTBEGIN
1070
    73
1070
     1
1070
    44
1040
1.0
1070
    74
1070
     0
1000
MTEXTEND
  0
MTEXT
  5
55279
330
1F
100
AcDbEntity
  8
AM_6
100
AcDbMText
 10
59.5
 20
28.5
 30
0.0
 40
3.2
 41
32.0
 71
     5
 72
     5
  1
DEH-40S-2
 73
     1
 44
1.0
1001
ACAD
1000
MTEXTBEGIN
1070
    73
1070
     1
1070
    44
1040
1.0
1070
    74
1070
     0
1000
MTEXTEND
  0
MTEXT
  5
5527A
330
1F
100
AcDbEntity
  8
AM_6
100
AcDbMText
 10
59.5
 20
20.5
 30
0.0
 40
3.2
 41
32.0
 71
     5
 72
     5
  1
DEH-40S-3
 73
     1
 44
1.0
1001
ACAD
1000
MTEXTBEGIN
1070
    73
1070
     1
1070
    44
1040
1.0
1070
    74
1070
     0
1000
MTEXTEND
  0
LINE
  5
5527B
330
1F
100
AcDbEntity
  8
AM_5
100
AcDbLine
 10
11.5
 20
48.5
 30
0.0
 11
75.5
 21
48.5
 31
0.0
  0
LINE
  5
5527C
330
1F
100
AcDbEntity
  8
AM_5
100
AcDbLine
 10
107.5
 20
48.5
 30
0.0
 11
203.5
 21
48.5
 31
0.0
  0
MTEXT
  5
5527D
330
1F
100
AcDbEntity
  8
AM_6
100
AcDbMText
 10
27.5
 20
44.5
 30
0.0
 40
3.2
 41
32.0
 71
     5
 72
     5
  1
スチール
 73
     1
 44
1.0
1001
ACAD
1000
MTEXTBEGIN
1070
    73
1070
     1
1070
    44
1040
1.0
1070
    74
1070
     0
1000
MTEXTEND
  0
MTEXT
  5
5527E
330
1F
100
AcDbEntity
  8
AM_6
100
AcDbMText
 10
59.5
 20
44.5
 30
0.0
 40
3.2
 41
32.0
 71
     5
 72
     5
  1
ステンレス
 73
     1
 44
1.0
1001
ACAD
1000
MTEXTBEGIN
1070
    73
1070
     1
1070
    44
1040
1.0
1070
    74
1070
     0
1000
MTEXTEND
  0
MTEXT
  5
55280
330
1F
100
AcDbEntity
  8
AM_6
100
AcDbMText
 10
131.5000000000009
 20
44.5
 30
0.0
 40
3.2
 41
16.0
 71
     5
 72
     5
  1
ステンレス
 73
     1
 44
1.0
1001
ACAD
1000
MTEXTBEGIN
1070
    73
1070
     1
1070
    44
1040
1.0
1070
    74
1070
     0
1000
MTEXTEND
  0
MTEXT
  5
55281
330
1F
100
AcDbEntity
  8
AM_6
100
AcDbMText
 10
115.5000000000009
 20
44.5
 30
0.0
 40
3.2
 41
16.0
 71
     5
 72
     5
  1
スチール
 73
     1
 44
1.0
1001
ACAD
1000
MTEXTBEGIN
1070
    73
1070
     1
1070
    44
1040
1.0
1070
    74
1070
     0
1000
MTEXTEND
  0
LINE
  5
55282
330
1F
100
AcDbEntity
  8
AM_5
100
AcDbLine
 10
155.5
 20
48.5
 30
0.0
 11
155.5
 21
8.5
 31
0.0
  0
MTEXT
  5
55284
330
1F
100
AcDbEntity
  8
AM_6
100
AcDbMText
 10
163.5000000000009
 20
44.5
 30
0.0
 40
3.2
 41
16.0
 71
     5
 72
     5
  1
ステンレス
 73
     1
 44
1.0
1001
ACAD
1000
MTEXTBEGIN
1070
    73
1070
     1
1070
    44
1040
1.0
1070
    74
1070
     0
1000
MTEXTEND
  0
MTEXT
  5
55285
330
1F
100
AcDbEntity
  8
AM_6
100
AcDbMText
 10
147.5000000000009
 20
44.5
 30
0.0
 40
3.2
 41
16.0
 71
     5
 72
     5
  1
スチール
 73
     1
 44
1.0
1001
ACAD
1000
MTEXTBEGIN
1070
    73
1070
     1
1070
    44
1040
1.0
1070
    74
1070
     0
1000
MTEXTEND
  0
MTEXT
  5
55286
330
1F
100
AcDbEntity
  8
AM_6
100
AcDbMText
 10
187.5
 20
52.5
 30
0.0
 40
3.2
 41
32.0
 71
     5
 72
     5
  1
E
 73
     1
 44
1.0
1001
ACAD
1000
MTEXTBEGIN
1070
    73
1070
     1
1070
    44
1040
1.0
1070
    74
1070
     0
1000
MTEXTEND
  0
LINE
  5
55287
330
1F
100
AcDbEntity
  8
AM_5
100
AcDbLine
 10
187.5
 20
48.5
 30
0.0
 11
187.5
 21
8.5
 31
0.0
  0
MTEXT
  5
55288
330
1F
100
AcDbEntity
  8
AM_6
100
AcDbMText
 10
195.5000000000009
 20
44.5
 30
0.0
 40
3.2
 41
16.0
 71
     5
 72
     5
  1
ステンレス
 73
     1
 44
1.0
1001
ACAD
1000
MTEXTBEGIN
1070
    73
1070
     1
1070
    44
1040
1.0
1070
    74
1070
     0
1000
MTEXTEND
  0
MTEXT
  5
5528E
330
1F
100
AcDbEntity
  8
AM_6
100
AcDbMText
 10
163.5000000000009
 20
12.5
 30
0.0
 40
3.2
 41
16.0
 71
     5
 72
     5
  1
25
 73
     1
 44
1.0
1001
ACAD
1000
MTEXTBEGIN
1070
    73
1070
     1
1070
    44
1040
1.0
1070
    74
1070
     0
1000
MTEXTEND
  0
LINE
  5
5528F
330
1F
100
AcDbEntity
  8
AM_0
100
AcDbLine
 10
11.5
 20
8.5
 30
0.0
 11
219.5
 21
8.5
 31
0.0
  0
MTEXT
  5
55292
330
1F
100
AcDbEntity
  8
AM_6
100
AcDbMText
 10
83.50000000000092
 20
12.5
 30
0.0
 40
3.2
 41
16.0
 71
     5
 72
     5
  1
51
 73
     1
 44
1.0
1001
ACAD
1000
MTEXTBEGIN
1070
    73
1070
     1
1070
    44
1040
1.0
1070
    74
1070
     0
1000
MTEXTEND
  0
MTEXT
  5
55296
330
1F
100
AcDbEntity
  8
AM_6
100
AcDbMText
 10
27.5
 20
12.5
 30
0.0
 40
3.2
 41
32.0
 71
     5
 72
     5
  1
DEH-40-4
 73
     1
 44
1.0
1001
ACAD
1000
MTEXTBEGIN
1070
    73
1070
     1
1070
    44
1040
1.0
1070
    74
1070
     0
1000
MTEXTEND
  0
MTEXT
  5
55299
330
1F
100
AcDbEntity
  8
AM_6
100
AcDbMText
 10
59.5
 20
12.5
 30
0.0
 40
3.2
 41
32.0
 71
     5
 72
     5
  1
DEH-40S-4
 73
     1
 44
1.0
1001
ACAD
1000
MTEXTBEGIN
1070
    73
1070
     1
1070
    44
1040
1.0
1070
    74
1070
     0
1000
MTEXTEND
  0
MTEXT
  5
5529E
330
1F
100
AcDbEntity
  8
AM_6
100
AcDbMText
 10
163.5000000000009
 20
24.5
 30
0.0
 40
3.2
 41
16.0
 71
     5
 72
     5
  1
20
 73
     1
 44
1.0
1001
ACAD
1000
MTEXTBEGIN
1070
    73
1070
     1
1070
    44
1040
1.0
1070
    74
1070
     0
1000
MTEXTEND
  0
MTEXT
  5
552A0
330
1F
100
AcDbEntity
  8
AM_6
100
AcDbMText
 10
131.5000000000009
 20
12.5
 30
0.0
 40
3.2
 41
16.0
 71
     5
 72
     5
  1
32
 73
     1
 44
1.0
1001
ACAD
1000
MTEXTBEGIN
1070
    73
1070
     1
1070
    44
1040
1.0
1070
    74
1070
     0
1000
MTEXTEND
  0
MTEXT
  5
552A1
330
1F
100
AcDbEntity
  8
AM_6
100
AcDbMText
 10
131.5000000000009
 20
20.5
 30
0.0
 40
3.2
 41
16.0
 71
     5
 72
     5
  1
26
 73
     1
 44
1.0
1001
ACAD
1000
MTEXTBEGIN
1070
    73
1070
     1
1070
    44
1040
1.0
1070
    74
1070
     0
1000
MTEXTEND
  0
LINE
  5
552A2
330
1F
100
AcDbEntity
  8
AM_5
100
AcDbLine
 10
123.5
 20
48.5
 30
0.0
 11
123.5
 21
8.5
 31
0.0
  0
LINE
  5
552A3
330
1F
100
AcDbEntity
  8
AM_0
100
AcDbLine
 10
219.5
 20
56.5
 30
0.0
 11
219.5
 21
8.5
 31
0.0
  0
MTEXT
  5
552A4
330
1F
100
AcDbEntity
  8
AM_6
100
AcDbMText
 10
211.5
 20
48.5
 30
0.0
 40
3.2
 41
16.0
 71
     5
 72
     5
  1
%%CF
 73
     1
 44
1.0
1001
ACAD
1000
MTEXTBEGIN
1070
    73
1070
     1
1070
    44
1040
1.0
1070
    74
1070
     0
1000
MTEXTEND
  0
MTEXT
  5
552AA
330
1F
100
AcDbEntity
  8
AM_6
100
AcDbMText
 10
179.5000000000009
 20
44.5
 30
0.0
 40
3.2
 41
16.0
 71
     5
 72
     5
  1
スチール
 73
     1
 44
1.0
1001
ACAD
1000
MTEXTBEGIN
1070
    73
1070
     1
1070
    44
1040
1.0
1070
    74
1070
     0
1000
MTEXTEND
  0
LINE
  5
552CD
330
1F
100
AcDbEntity
  8
AM_5
100
AcDbLine
 10
107.5
 20
56.5
 30
0.0
 11
107.5
 21
8.5
 31
0.0
  0
MTEXT
  5
552CE
330
1F
100
AcDbEntity
  8
AM_6
100
AcDbMText
 10
99.50000000000001
 20
48.5
 30
0.0
 40
3.2
 41
16.0
 71
     5
 72
     5
  1
B
 73
     1
 44
1.0
1001
ACAD
1000
MTEXTBEGIN
1070
    73
1070
     1
1070
    44
1040
1.0
1070
    74
1070
     0
1000
MTEXTEND
  0
MTEXT
  5
552CF
330
1F
100
AcDbEntity
  8
AM_6
100
AcDbMText
 10
99.50000000000091
 20
36.5
 30
0.0
 40
3.2
 41
16.0
 71
     5
 72
     5
  1
14
 73
     1
 44
1.0
1001
ACAD
1000
MTEXTBEGIN
1070
    73
1070
     1
1070
    44
1040
1.0
1070
    74
1070
     0
1000
MTEXTEND
  0
MTEXT
  5
552D0
330
1F
100
AcDbEntity
  8
AM_6
100
AcDbMText
 10
99.50000000000091
 20
24.5
 30
0.0
 40
3.2
 41
16.0
 71
     5
 72
     5
  1
32
 73
     1
 44
1.0
1001
ACAD
1000
MTEXTBEGIN
1070
    73
1070
     1
1070
    44
1040
1.0
1070
    74
1070
     0
1000
MTEXTEND
  0
MTEXT
  5
552D2
330
1F
100
AcDbEntity
  8
AM_6
100
AcDbMText
 10
99.50000000000091
 20
12.5
 30
0.0
 40
3.2
 41
16.0
 71
     5
 72
     5
  1
38
 73
     1
 44
1.0
1001
ACAD
1000
MTEXTBEGIN
1070
    73
1070
     1
1070
    44
1040
1.0
1070
    74
1070
     0
1000
MTEXTEND
  0
LINE
  5
552D3
330
1F
100
AcDbEntity
  8
AM_5
100
AcDbLine
 10
123.5
 20
24.5
 30
0.0
 11
139.5
 21
24.5
 31
0.0
  0
MTEXT
  5
552E1
330
1F
100
AcDbEntity
  8
AM_6
100
AcDbMText
 10
131.5000000000009
 20
28.5
 30
0.0
 40
3.2
 41
16.0
 71
     5
 72
     5
  1
14
 73
     1
 44
1.0
1001
ACAD
1000
MTEXTBEGIN
1070
    73
1070
     1
1070
    44
1040
1.0
1070
    74
1070
     0
1000
MTEXTEND
  0
LINE
  5
552E2
330
1F
100
AcDbEntity
  8
AM_5
100
AcDbLine
 10
171.5
 20
24.5
 30
0.0
 11
219.5
 21
24.5
 31
0.0
  0
MTEXT
  5
552E3
330
1F
100
AcDbEntity
  8
AM_6
100
AcDbMText
 10
179.5000000000009
 20
36.5
 30
0.0
 40
3.2
 41
16.0
 71
     5
 72
     5
  1
0.5
 73
     1
 44
1.0
1001
ACAD
1000
MTEXTBEGIN
1070
    73
1070
     1
1070
    44
1040
1.0
1070
    74
1070
     0
1000
MTEXTEND
  0
MTEXT
  5
552E4
330
1F
100
AcDbEntity
  8
AM_6
100
AcDbMText
 10
195.5000000000009
 20
36.5
 30
0.0
 40
3.2
 41
16.0
 71
     5
 72
     5
  1
0.5
 73
     1
 44
1.0
1001
ACAD
1000
MTEXTBEGIN
1070
    73
1070
     1
1070
    44
1040
1.0
1070
    74
1070
     0
1000
MTEXTEND
  0
MTEXT
  5
552E6
330
1F
100
AcDbEntity
  8
AM_6
100
AcDbMText
 10
195.5000000000009
 20
28.5
 30
0.0
 40
3.2
 41
16.0
 71
     5
 72
     5
  1
1.2
 73
     1
 44
1.0
1001
ACAD
1000
MTEXTBEGIN
1070
    73
1070
     1
1070
    44
1040
1.0
1070
    74
1070
     0
1000
MTEXTEND
  0
MTEXT
  5
552E8
330
1F
100
AcDbEntity
  8
AM_6
100
AcDbMText
 10
195.5000000000009
 20
16.5
 30
0.0
 40
3.2
 41
16.0
 71
     5
 72
     5
  1
1.5
 73
     1
 44
1.0
1001
ACAD
1000
MTEXTBEGIN
1070
    73
1070
     1
1070
    44
1040
1.0
1070
    74
1070
     0
1000
MTEXTEND
  0
MTEXT
  5
552EB
330
1F
100
AcDbEntity
  8
AM_6
100
AcDbMText
 10
179.5000000000009
 20
28.5
 30
0.0
 40
3.2
 41
16.0
 71
     5
 72
     5
  1
1.2
 73
     1
 44
1.0
1001
ACAD
1000
MTEXTBEGIN
1070
    73
1070
     1
1070
    44
1040
1.0
1070
    74
1070
     0
1000
MTEXTEND
  0
MTEXT
  5
552EC
330
1F
100
AcDbEntity
  8
AM_6
100
AcDbMText
 10
179.5000000000009
 20
16.5
 30
0.0
 40
3.2
 41
16.0
 71
     5
 72
     5
  1
1.6
 73
     1
 44
1.0
1001
ACAD
1000
MTEXTBEGIN
1070
    73
1070
     1
1070
    44
1040
1.0
1070
    74
1070
     0
1000
MTEXTEND
  0
LINE
  5
552ED
330
1F
100
AcDbEntity
  8
AM_5
100
AcDbLine
 10
171.5
 20
16.5
 30
0.0
 11
155.5
 21
16.5
 31
0.0
  0
MTEXT
  5
552EE
330
1F
100
AcDbEntity
  8
AM_6
100
AcDbMText
 10
211.5000000000009
 20
36.5
 30
0.0
 40
3.2
 41
16.0
 71
     5
 72
     5
  1
2.2
 73
     1
 44
1.0
1001
ACAD
1000
MTEXTBEGIN
1070
    73
1070
     1
1070
    44
1040
1.0
1070
    74
1070
     0
1000
MTEXTEND
  0
MTEXT
  5
552EF
330
1F
100
AcDbEntity
  8
AM_6
100
AcDbMText
 10
211.5000000000009
 20
28.5
 30
0.0
 40
3.2
 41
16.0
 71
     5
 72
     5
  1
5.8
 73
     1
 44
1.0
1001
ACAD
1000
MTEXTBEGIN
1070
    73
1070
     1
1070
    44
1040
1.0
1070
    74
1070
     0
1000
MTEXTEND
  0
MTEXT
  5
552F0
330
1F
100
AcDbEntity
  8
AM_6
100
AcDbMText
 10
211.5000000000009
 20
16.5
 30
0.0
 40
3.2
 41
16.0
 71
     5
 72
     5
  1
6.5
 73
     1
 44
1.0
1001
ACAD
1000
MTEXTBEGIN
1070
    73
1070
     1
1070
    44
1040
1.0
1070
    74
1070
     0
1000
MTEXTEND
  0
LWPOLYLINE
  5
55524
330
1F
100
AcDbEntity
  8
AM_0
100
AcDbPolyline
 90
        4
 70
     1
 43
0.0
 10
138.5
 20
72.5
 10
158.5
 20
72.5
 10
158.5
 20
66.5
 10
138.5
 20
66.5
1001
GENIUS_GENREC_14
1002
{
1000
PYDIR
1011
138.5
1021
66.5
1031
0.0
1002
}
1002
{
1000
PXDIR
1011
158.5
1021
72.5
1031
0.0
1002
}
1002
{
1000
PORI
1011
138.5
1021
72.5
1031
0.0
1002
}
1002
{
1000
PINS
1011
138.5
1021
72.5
1031
0.0
1002
}
1002
{
1000
PINS2
1011
158.5
1021
66.5
1031
0.0
1002
}
1002
{
1000
C
1070
     1
1002
}
1001
GENIUS_GENODEF_13
1002
{
1000
HIER
1070
     0
1002
}
1002
{
1000
MANEDIT
1070
     0
1002
}
1002
{
1000
NOSEL
1070
     0
1002
}
1002
{
1000
BEHIND
1070
     0
1002
}
1002
{
1000
OTHER
1070
     0
1002
}
1002
{
1000
REACTOR
1002
}
1001
GENIUS_GENOBJ-N-REC_13
1002
{
1000
OWNER
1000
GEN
1002
}
  0
MTEXT
  5
55525
330
1F
100
AcDbEntity
  8
AM_6
100
AcDbMText
 10
148.5
 20
69.5
 30
0.0
 40
3.2
 41
20.0
 71
     5
 72
     5
  1
DEH-40
 73
     1
 44
1.0
1001
ACAD
1000
MTEXTBEGIN
1070
    73
1070
     1
1070
    44
1040
1.0
1070
    74
1070
     0
1000
MTEXTEND
  0
LWPOLYLINE
  5
55526
330
1F
100
AcDbEntity
  8
AM_0
100
AcDbPolyline
 90
        4
 70
     1
 43
0.0
 10
218.5
 20
72.5
 10
238.5
 20
72.5
 10
238.5
 20
66.5
 10
218.5
 20
66.5
1001
GENIUS_GENREC_14
1002
{
1000
PYDIR
1011
218.5
1021
66.5
1031
0.0
1002
}
1002
{
1000
PXDIR
1011
238.5
1021
72.5
1031
0.0
1002
}
1002
{
1000
PORI
1011
218.5
1021
72.5
1031
0.0
1002
}
1002
{
1000
PINS
1011
218.5
1021
72.5
1031
0.0
1002
}
1002
{
1000
PINS2
1011
238.5
1021
66.5
1031
0.0
1002
}
1002
{
1000
C
1070
     1
1002
}
1001
GENIUS_GENODEF_13
1002
{
1000
HIER
1070
     0
1002
}
1002
{
1000
MANEDIT
1070
     0
1002
}
1002
{
1000
NOSEL
1070
     0
1002
}
1002
{
1000
BEHIND
1070
     0
1002
}
1002
{
1000
OTHER
1070
     0
1002
}
1002
{
1000
REACTOR
1002
}
1001
GENIUS_GENOBJ-N-REC_13
1002
{
1000
OWNER
1000
GEN
1002
}
  0
MTEXT
  5
55527
330
1F
100
AcDbEntity
  8
AM_6
100
AcDbMText
 10
228.5
 20
69.5
 30
0.0
 40
3.2
 41
20.0
 71
     5
 72
     5
  1
DEH-40S
 73
     1
 44
1.0
1001
ACAD
1000
MTEXTBEGIN
1070
    73
1070
     1
1070
    44
1040
1.0
1070
    74
1070
     0
1000
MTEXTEND
  0
LINE
  5
5F847
330
1F
100
AcDbEntity
  8
AM_5
100
AcDbLine
 10
107.5
 20
16.5
 30
0.0
 11
11.5
 21
16.5
 31
0.0
  0
LINE
  5
5F848
330
1F
100
AcDbEntity
  8
AM_5
100
AcDbLine
 10
123.5
 20
32.5
 30
0.0
 11
139.5
 21
32.5
 31
0.0
  0
LINE
  5
5F849
330
1F
100
AcDbEntity
  8
AM_5
100
AcDbLine
 10
139.5
 20
16.5
 30
0.0
 11
123.5
 21
16.5
 31
0.0
  0
LINE
  5
5F84A
330
1F
100
AcDbEntity
  8
AM_5
100
AcDbLine
 10
155.5
 20
32.5
 30
0.0
 11
219.5
 21
32.5
 31
0.0
  0
MTEXT
  5
5F84B
330
1F
100
AcDbEntity
  8
AM_6
100
AcDbMText
 10
131.5000000000009
 20
36.5
 30
0.0
 40
3.2
 41
16.0
 71
     5
 72
     5
  1
-
 73
     1
 44
1.0
1001
ACAD
1000
MTEXTBEGIN
1070
    73
1070
     1
1070
    44
1040
1.0
1070
    74
1070
     0
1000
MTEXTEND
  0
MTEXT
  5
5F84C
330
1F
100
AcDbEntity
  8
AM_6
100
AcDbMText
 10
163.5000000000009
 20
36.5
 30
0.0
 40
3.2
 41
16.0
 71
     5
 72
     5
  1
-
 73
     1
 44
1.0
1001
ACAD
1000
MTEXTBEGIN
1070
    73
1070
     1
1070
    44
1040
1.0
1070
    74
1070
     0
1000
MTEXTEND
  0
MTEXT
  5
5F84D
330
1F
100
AcDbEntity
  8
AM_6
100
AcDbMText
 10
147.5000000000009
 20
24.5
 30
0.0
 40
3.2
 41
16.0
 71
     5
 72
     5
  1
-
 73
     1
 44
1.0
1001
ACAD
1000
MTEXTBEGIN
1070
    73
1070
     1
1070
    44
1040
1.0
1070
    74
1070
     0
1000
MTEXTEND
  0
MTEXT
  5
5F84E
330
1F
100
AcDbEntity
  8
AM_6
100
AcDbMText
 10
115.5000000000009
 20
24.5
 30
0.0
 40
3.2
 41
16.0
 71
     5
 72
     5
  1
-
 73
     1
 44
1.0
1001
ACAD
1000
MTEXTBEGIN
1070
    73
1070
     1
1070
    44
1040
1.0
1070
    74
1070
     0
1000
MTEXTEND
  0
LINE
  5
62D98
330
1F
100
AcDbEntity
  8
AM_0
100
AcDbLine
 10
141.507063
 20
105.7250000000003
 30
0.0
 11
141.507063
 21
104.8235600640464
 31
0.0
  0
LINE
  5
62D99
330
1F
100
AcDbEntity
  8
AM_0
100
AcDbLine
 10
137.507063
 20
105.7250000000003
 30
0.0
 11
137.507063
 21
104.8232619999999
 31
0.0
  0
LINE
  5
62D9A
330
1F
100
AcDbEntity
  8
AM_0
100
AcDbLine
 10
159.507063
 20
114.2750000000001
 30
0.0
 11
159.507063
 21
115.1767370000002
 31
0.0
  0
LINE
  5
62D9B
330
1F
100
AcDbEntity
  8
AM_0
100
AcDbLine
 10
155.507063
 20
114.3341010000003
 30
0.0
 11
155.507063
 21
115.1153840000002
 31
0.0
  0
ENDSEC
  0
SECTION
  2
OBJECTS
  0
DICTIONARY
  5
C
330
0
100
AcDbDictionary
281
     1
  3
ACAD_COLOR
350
C45B
  3
ACAD_GROUP
350
D
  3
ACAD_LAYOUT
350
1A
  3
ACAD_MATERIAL
350
C446
  3
ACAD_MLINESTYLE
350
17
  3
ACAD_PLOTSETTINGS
350
19
  3
ACAD_PLOTSTYLENAME
350
E
  3
ACAD_TABLESTYLE
350
C45C
  3
ACAD_VISUALSTYLE
350
C44A
  3
AcadDim
350
4DE64
  3
AcAsAppObject
350
3DA1
  3
ACASGREF_MASTER
350
3DE9
  3
AcDbVariableDictionary
350
34
  3
AcmDictionary
350
47
  3
AD_GREF_MODULE
350
3DEA
  3
AD_MAPI_MODULE
350
3E06
  3
AMG
350
2B
  3
AMGSNAPSETTINGS
350
7D
  3
ASE_INDEX_DICTIONARY
350
6169A
  3
DWGPROPS
350
64065
  3
MAPISURF_MODULE
350
3DEB
  0
DICTIONARY
  5
3F95
330
2
100
AcDbDictionary
280
     1
281
     1
  3
ACAD_LAYERFILTERS
360
CB0C
  3
ACAD_LAYERSTATES
360
3F96
  3
ACLYDICTIONARY
360
CB0B
  3
AMLAYER_GROUPCOLORS
360
CB2F
  0
DICTIONARY
  5
8A
330
1F
100
AcDbDictionary
280
     1
281
     1
  3
ACAD_SORTENTS
360
14A89
  0
DICTIONARY
  5
54E4B
330
54E3E
100
AcDbDictionary
280
     1
281
     1
  3
ACAD_DIMASSOC
360
54E4C
  0
DICTIONARY
  5
54EBD
330
54EB0
100
AcDbDictionary
280
     1
281
     1
  3
ACAD_DIMASSOC
360
54EBE
  0
DICTIONARY
  5
54EF0
330
54EE3
100
AcDbDictionary
280
     1
281
     1
  3
ACAD_DIMASSOC
360
54EF1
  0
DICTIONARY
  5
54F08
330
54EFB
100
AcDbDictionary
280
     1
281
     1
  3
ACAD_DIMASSOC
360
54F09
  0
DICTIONARY
  5
54F3D
330
54F2E
100
AcDbDictionary
280
     1
281
     1
  3
ACAD_DIMASSOC
360
54F3E
  0
DICTIONARY
  5
54F58
330
54F4E
100
AcDbDictionary
280
     1
281
     1
  3
ACAD_DIMASSOC
360
54F5F
  0
DICTIONARY
  5
54FD4
330
54FCA
100
AcDbDictionary
280
     1
281
     1
  3
ACAD_DIMASSOC
360
54FDB
  0
DICTIONARY
  5
C45B
102
{ACAD_REACTORS
330
C
102
}
330
C
100
AcDbDictionary
281
     1
  0
DICTIONARY
  5
D
102
{ACAD_REACTORS
330
C
102
}
330
C
100
AcDbDictionary
281
     1
  0
DICTIONARY
  5
1A
102
{ACAD_REACTORS
330
C
102
}
330
C
100
AcDbDictionary
281
     1
  3
Model
350
22
  3
ﾚｲｱｳﾄ1
350
1E
  3
ﾚｲｱｳﾄ2
350
26
  0
DICTIONARY
  5
C446
102
{ACAD_REACTORS
330
C
102
}
330
C
100
AcDbDictionary
281
     1
  3
ByBlock
350
C448
  3
ByLayer
350
C447
  3
Global
350
C449
  0
DICTIONARY
  5
17
102
{ACAD_REACTORS
330
C
102
}
330
C
100
AcDbDictionary
281
     1
  3
Standard
350
18
  0
DICTIONARY
  5
19
102
{ACAD_REACTORS
330
C
102
}
330
C
100
AcDbDictionary
281
     1
  3
-00
350
C85D
  0
ACDBDICTIONARYWDFLT
  5
E
102
{ACAD_REACTORS
330
C
102
}
330
C
100
AcDbDictionary
281
     1
  3
Normal
350
F
100
AcDbDictionaryWithDefault
340
F
  0
DICTIONARY
  5
C45C
102
{ACAD_REACTORS
330
C
102
}
330
C
100
AcDbDictionary
281
     1
  3
Standard
350
C45D
  0
DICTIONARY
  5
C44A
102
{ACAD_REACTORS
330
C
102
}
330
C
100
AcDbDictionary
281
     1
  3
2dWireframe
350
C450
  3
3D Hidden
350
C452
  3
3dWireframe
350
C451
  3
Basic
350
C44F
  3
Brighten
350
C456
  3
ColorChange
350
C45A
  3
Conceptual
350
C453
  3
Dim
350
C455
  3
Facepattern
350
C459
  3
Flat
350
C44B
  3
FlatWithEdges
350
C44C
  3
Gouraud
350
C44D
  3
GouraudWithEdges
350
C44E
  3
Linepattern
350
C458
  3
Realistic
350
C454
  3
Thicken
350
C457
  0
XRECORD
  5
4DE64
102
{ACAD_REACTORS
330
C
102
}
330
C
100
AcDbXrecord
280
     1
 90
   990106
  3

 60
     0
 61
     0
 62
     1
 63
     3
 64
     0
 65
     0
 66
     0
 67
     3
 68
     1
 69
     0
 70
     0
 71
     0
 72
     0
 40
0.0
170
     0
  0
ACAD_PROXY_OBJECT
  5
3DA1
102
{ACAD_REACTORS
330
C
102
}
330
C
100
AcDbProxyObject
 90
      499
 91
      576
 95
   720919
 70
     0
 93
       10
310
407F
 94
        0
1001
ACAD
1000
AcRTDxfName
1000
ASAPP
  0
ACAD_PROXY_OBJECT
  5
3DE9
102
{ACAD_REACTORS
330
C
102
}
330
C
100
AcDbProxyObject
 90
      499
 91
      581
 95
   720919
 70
     0
 93
       34
310
010000407F
 94
        0
1001
ACAD
1000
AcRTDxfName
1000
ACASGREFMASTER
  0
DICTIONARY
  5
34
102
{ACAD_REACTORS
330
C
102
}
330
C
100
AcDbDictionary
281
     1
  3
CTABLESTYLE
350
C4A2
  3
DIMASSOC
350
AC85
  3
INDEXCTL
350
35
  3
SORTENTS
350
194C
  0
DICTIONARY
  5
47
102
{ACAD_REACTORS
330
C
102
}
330
C
100
AcDbDictionary
281
     1
  3
AcmBOM
350
7E8
  3
AcmStdDictionary
350
4C
  3
AMDTSECTSYM_ARROWCOLOR
350
C487
  0
ACAD_PROXY_OBJECT
  5
3DEA
102
{ACAD_REACTORS
330
C
102
}
330
C
100
AcDbProxyObject
 90
      499
 91
      582
 95
   720919
 70
     0
 93
      114
310
00000043800000000000000000003F
 94
        0
1001
ACAD
1000
AcRTDxfName
1000
ACADGREFMODULE
  0
ACAD_PROXY_OBJECT
  5
3E06
102
{ACAD_REACTORS
330
C
102
}
330
C
100
AcDbProxyObject
 90
      499
 91
      594
 95
   720919
 70
     0
 93
       34
310
05000044FF
 94
        0
1001
ACAD
1000
AcRTDxfName
1000
MAPIADMODULE
  0
DICTIONARY
  5
2B
102
{ACAD_REACTORS
330
C
102
}
330
C
100
AcDbDictionary
281
     1
  0
DICTIONARY
  5
7D
102
{ACAD_REACTORS
330
C
102
}
330
C
100
AcDbDictionary
281
     1
  0
DICTIONARY
  5
6169A
102
{ACAD_REACTORS
330
C
102
}
330
C
100
AcDbDictionary
281
     1
  3
ASEBlockHierarchyIndexRecord
350
6169B
1001
DCO15
1040
1758021493.171
  0
XRECORD
  5
64065
102
{ACAD_REACTORS
330
C
102
}
330
C
100
AcDbXrecord
280
     1
  1
DWGPROPS COOKIE
  2

  3

  4

  6

  7

  8
Administrator
  9

300
AmdtFileType=84
301
=
302
=
303
=
304
=
305
=
306
=
307
=
308
=
309
=
 40
9.412458032407407
 41
2452002.615067627
 42
2456267.604139178
  1

 90
        1
  0
ACAD_PROXY_OBJECT
  5
3DEB
102
{ACAD_REACTORS
330
C
102
}
330
C
100
AcDbProxyObject
 90
      499
 91
      583
 95
   720919
 70
     0
 93
        8
310
047E
 94
        0
1001
ACAD
1000
AcRTDxfName
1000
AMDTMAPISURFMOUDULE
  0
DICTIONARY
  5
CB0C
102
{ACAD_REACTORS
330
3F95
102
}
330
3F95
100
AcDbDictionary
281
     1
  3
50
350
CB0E
  0
DICTIONARY
  5
3F96
102
{ACAD_REACTORS
330
3F95
102
}
330
3F95
100
AcDbDictionary
281
     1
  3
20011210
350
3FB7
  0
DICTIONARY
  5
CB0B
102
{ACAD_REACTORS
330
3F95
102
}
330
3F95
100
AcDbDictionary
281
     1
  3
*A1
350
CB0D
1001
ACAD
1000
<All
  0
DICTIONARY
  5
CB2F
102
{ACAD_REACTORS
330
3F95
102
}
330
3F95
100
AcDbDictionary
280
     1
281
     1
  0
SORTENTSTABLE
  5
14A89
102
{ACAD_REACTORS
330
8A
102
}
330
8A
100
AcDbSortentsTable
330
1F
331
55299
  5
552A9
331
550C5
  5
550C5
331
550FC
  5
550FC
331
552A1
  5
552D0
331
550CD
  5
550CD
331
55104
  5
55104
331
54D38
  5
54D38
331
54F4E
  5
54F4E
331
55262
  5
55262
331
54CF1
  5
54CF1
331
5510C
  5
5510C
331
5526A
  5
55271
331
54CB2
  5
54CB2
331
550D5
  5
550D5
331
55114
  5
55114
331
54CBA
  5
54CBA
331
54CF9
  5
54CF9
331
54CC2
  5
54CC2
331
54D01
  5
54D01
331
552CD
  5
552DF
331
5F84C
  5
5F84C
331
552ED
  5
5526B
331
54D09
  5
54D09
331
5527A
  5
55284
331
54D11
  5
54D11
331
550DD
  5
550DD
331
5511C
  5
5511C
331
550E5
  5
550E5
331
54D19
  5
54D19
331
54EB0
  5
54EB0
331
55124
  5
55124
331
55282
  5
55292
331
551DB
  5
551DB
331
54C93
  5
54C93
331
54D21
  5
54D21
331
550ED
  5
550ED
331
5512C
  5
5512C
331
55184
  5
55184
331
550BE
  5
550BE
331
55292
  5
552A4
331
54CDA
  5
54CDA
331
54CA3
  5
54CA3
331
54CE2
  5
54CE2
331
54CEA
  5
54CEA
331
54CAB
  5
54CAB
331
55525
  5
55529
331
54D29
  5
54D29
331
550C6
  5
550C6
331
550FD
  5
550FD
331
552A2
  5
552D2
331
550CE
  5
550CE
331
54D39
  5
54D39
331
55105
  5
55105
331
55263
  5
55263
331
54CF2
  5
54CF2
331
552AA
  5
552DE
331
550D6
  5
550D6
331
5510D
  5
5510D
331
5526B
  5
55272
331
54CB3
  5
54CB3
331
54CFA
  5
54CFA
331
55115
  5
55115
331
55273
  5
5527A
331
54CBB
  5
54CBB
331
54D02
  5
54D02
331
552CE
  5
552E0
331
5F84D
  5
5F84D
331
552E6
  5
552EF
331
552EE
  5
55310
331
54D0A
  5
54D0A
331
5511D
  5
5511D
331
5527B
  5
55285
331
54D12
  5
54D12
331
550DE
  5
550DE
331
54D1A
  5
54D1A
331
550E6
  5
550E6
331
55125
  5
55125
331
54D22
  5
54D22
331
550EE
  5
550EE
331
5512D
  5
5512D
331
54CD3
  5
54CD3
331
550F6
  5
550F6
331
55185
  5
55185
331
54CDB
  5
54CDB
331
54CA4
  5
54CA4
331
54CE3
  5
54CE3
331
54CAC
  5
54CAC
331
54CEB
  5
54CEB
331
55526
  5
55533
331
54D2A
  5
54D2A
331
550C7
  5
550C7
331
550FE
  5
550FE
331
552A3
  5
552D3
331
550CF
  5
550CF
331
54D3A
  5
54D3A
331
55106
  5
55106
331
55264
  5
55264
331
54CF3
  5
54CF3
331
550D7
  5
550D7
331
5526C
  5
55274
331
54CB4
  5
54CB4
331
54CFB
  5
54CFB
331
55116
  5
55116
331
55274
  5
5527B
331
54CBC
  5
54CBC
331
54D03
  5
54D03
331
54CC4
  5
54CC4
331
552CF
  5
552E1
331
5F84E
  5
5F84E
331
552EF
  5
55311
331
54D0B
  5
54D0B
331
5511E
  5
5511E
331
5527C
  5
55286
331
54D13
  5
54D13
331
550DF
  5
550DF
331
55126
  5
55126
331
55284
  5
55296
331
54D1B
  5
54D1B
331
550E7
  5
550E7
331
54CD4
  5
54CD4
331
54D23
  5
54D23
331
5512E
  5
5512E
331
550F7
  5
550F7
331
54C9D
  5
54C9D
331
54CDC
  5
54CDC
331
54CA5
  5
54CA5
331
54CE4
  5
54CE4
331
54CAD
  5
54CAD
331
54CEC
  5
54CEC
331
55527
  5
5554B
331
54D2B
  5
54D2B
331
550C8
  5
550C8
331
550FF
  5
550FF
331
552A4
  5
552DD
331
550D0
  5
550D0
331
54D3B
  5
54D3B
331
55107
  5
55107
331
55265
  5
55267
331
54CF4
  5
54CF4
331
5526D
  5
55275
331
54CB5
  5
54CB5
331
54CFC
  5
54CFC
331
55117
  5
55117
331
55275
  5
5527C
331
54CBD
  5
54CBD
331
54D04
  5
54D04
331
54CC5
  5
54CC5
331
552D0
  5
552E2
331
5F847
  5
5526D
331
552E8
  5
552F0
331
54D0C
  5
54D0C
331
550D8
  5
550D8
331
5511F
  5
5511F
331
5527D
  5
55287
331
54D14
  5
54D14
331
55127
  5
55127
331
55285
  5
55299
331
54D1C
  5
54D1C
331
550E8
  5
550E8
331
54CD5
  5
54CD5
331
54D24
  5
54D24
331
550F0
  5
550F0
331
54CDD
  5
54CDD
331
54C9E
  5
54C9E
331
54CA6
  5
54CA6
331
54CE5
  5
54CE5
331
54CED
  5
54CED
331
552F0
  5
55312
331
550F8
  5
550F8
331
54D2C
  5
54D2C
331
54EE3
  5
54EE3
331
55100
  5
55100
331
5519F
  5
5519F
331
550C9
  5
550C9
331
550D1
  5
550D1
331
54D3C
  5
54D3C
331
55108
  5
55108
331
54CF5
  5
54CF5
331
55110
  5
55110
331
5526E
  5
55276
331
54CB6
  5
54CB6
331
54CFD
  5
54CFD
331
55276
  5
5527D
331
54CBE
  5
54CBE
331
54D05
  5
54D05
331
54CC6
  5
54CC6
331
54CCE
  5
54CCE
331
552E1
  5
552EC
331
5F848
  5
55265
331
55118
  5
55118
331
54FCA
  5
54FCA
331
550D9
  5
550D9
331
54D0D
  5
54D0D
331
54EFB
  5
54EFB
331
55120
  5
55120
331
5527E
  5
55288
331
54D15
  5
54D15
331
550E1
  5
550E1
331
55128
  5
55128
331
55286
  5
5529E
331
54D1D
  5
54D1D
331
550E9
  5
550E9
331
5528E
  5
552A2
331
54D25
  5
54D25
331
550F1
  5
550F1
331
54CDE
  5
54CDE
331
55296
  5
552A5
331
54C9F
  5
54C9F
331
54CE6
  5
54CE6
331
54CA7
  5
54CA7
331
54CAF
  5
54CAF
331
54CEE
  5
54CEE
331
62D98
  5
62D98
331
550F9
  5
550F9
331
54D2D
  5
54D2D
331
550C2
  5
550C2
331
55101
  5
55101
331
54D35
  5
54D35
331
550CA
  5
550CA
331
5529E
  5
552AA
331
55109
  5
55109
331
55267
  5
5526E
331
550D2
  5
550D2
331
54CF6
  5
54CF6
331
55111
  5
55111
331
5526F
  5
55277
331
54CFE
  5
54CFE
331
55277
  5
5527E
331
54D06
  5
54D06
331
54CC7
  5
54CC7
331
54CCF
  5
54CCF
331
552D2
  5
552E3
331
552E2
  5
5526A
331
5F849
  5
5526C
331
550DA
  5
550DA
331
55119
  5
55119
331
54D0E
  5
54D0E
331
55121
  5
55121
331
54D16
  5
54D16
331
550E2
  5
550E2
331
55287
  5
552A0
331
55129
  5
55129
331
54D1E
  5
54D1E
331
550EA
  5
550EA
331
551D8
  5
551D8
331
5528F
  5
552A3
331
54D26
  5
54D26
331
54C98
  5
54C98
331
54CDF
  5
54CDF
331
54CA0
  5
54CA0
331
54CE7
  5
54CE7
331
54CA8
  5
54CA8
331
54CEF
  5
54CEF
331
62D99
  5
62D99
331
550FA
  5
550FA
331
54D2E
  5
54D2E
331
550C3
  5
550C3
331
54D36
  5
54D36
331
550CB
  5
550CB
331
5510A
  5
5510A
331
55268
  5
5526F
331
54CB0
  5
54CB0
331
550D3
  5
550D3
331
55112
  5
55112
331
55270
  5
55278
331
54CB8
  5
54CB8
331
54CF7
  5
54CF7
331
54CC0
  5
54CC0
331
54CFF
  5
54CFF
331
54D07
  5
54D07
331
54CC8
  5
54CC8
331
552D3
  5
55269
331
552E3
  5
552ED
331
5F84A
  5
55266
331
552EB
  5
552F1
331
550DB
  5
550DB
331
54D0F
  5
54D0F
331
54E3E
  5
54E3E
331
5511A
  5
5511A
331
55278
  5
5527F
331
550E3
  5
550E3
331
55122
  5
55122
331
55280
  5
55289
331
54D17
  5
54D17
331
5512A
  5
5512A
331
55288
  5
552A1
331
54CD0
  5
54CD0
331
54D1F
  5
54D1F
331
550EB
  5
550EB
331
54CD8
  5
54CD8
331
550F3
  5
550F3
331
54C99
  5
54C99
331
54CE0
  5
54CE0
331
54CA1
  5
54CA1
331
54CE8
  5
54CE8
331
54CA9
  5
54CA9
331
62D9A
  5
62D9A
331
550C4
  5
550C4
331
550FB
  5
550FB
331
552A0
  5
552CF
331
55261
  5
55261
331
55103
  5
55103
331
551A2
  5
551A2
331
54D37
  5
54D37
331
550CC
  5
550CC
331
5510B
  5
5510B
331
55269
  5
55270
331
54CB1
  5
54CB1
331
550D4
  5
550D4
331
54CF0
  5
54CF0
331
55113
  5
55113
331
55271
  5
55279
331
54CB9
  5
54CB9
331
54CF8
  5
54CF8
331
54CC1
  5
54CC1
331
54D00
  5
54D00
331
54CC9
  5
54CC9
331
552E4
  5
552EE
331
5F84B
  5
5F84B
331
552EC
  5
5530F
331
54D08
  5
54D08
331
54D10
  5
54D10
331
550DC
  5
550DC
331
5511B
  5
5511B
331
55279
  5
55282
331
55123
  5
55123
331
55281
  5
5528F
331
54C92
  5
54C92
331
550EC
  5
550EC
331
5512B
  5
5512B
331
54CD1
  5
54CD1
331
54D20
  5
54D20
331
55183
  5
55183
331
54CD9
  5
54CD9
331
550BD
  5
550BD
331
550F4
  5
550F4
331
54F2E
  5
54F2E
331
54CE1
  5
54CE1
331
54CA2
  5
54CA2
331
54CE9
  5
54CE9
331
54CAA
  5
54CAA
331
62D9B
  5
62D9B
331
55524
  5
55528
  0
DIMASSOC
  5
54E4C
102
{ACAD_REACTORS
330
54E4B
102
}
330
54E4B
100
AcDbDimAssoc
330
54E3E
 90
        2
 70
     0
 71
     0
  1
AcDbOsnapPointRef
 72
    13
331
54D3C
 73
     0
 91
        0
 40
0.0
 10
0.0
 20
0.0
 30
2.000000000000000E+50
 75
     0
  0
DIMASSOC
  5
54EBE
102
{ACAD_REACTORS
330
54EBD
102
}
330
54EBD
100
AcDbDimAssoc
330
54EB0
 90
        3
 70
     0
 71
     0
  1
AcDbOsnapPointRef
 72
     1
331
54C93
 73
     0
 91
        0
 40
0.0
 10
0.0
 20
0.0
 30
2.000000000000000E+50
 75
     0
  1
AcDbOsnapPointRef
 72
    13
331
54CA3
 73
     0
 91
        0
 40
0.0
 10
0.0
 20
0.0
 30
2.000000000000000E+50
 75
     0
  0
DIMASSOC
  5
54EF1
102
{ACAD_REACTORS
330
54EF0
102
}
330
54EF0
100
AcDbDimAssoc
330
54EE3
 90
        3
 70
     0
 71
     0
  1
AcDbOsnapPointRef
 72
     1
331
54CA2
 73
     0
 91
        0
 40
0.0
 10
0.0
 20
0.0
 30
2.000000000000000E+50
 75
     0
  1
AcDbOsnapPointRef
 72
    13
331
54CA4
 73
     0
 91
        0
 40
0.0
 10
0.0
 20
0.0
 30
2.000000000000000E+50
 75
     0
  0
DIMASSOC
  5
54F09
102
{ACAD_REACTORS
330
54F08
102
}
330
54F08
100
AcDbDimAssoc
330
54EFB
 90
        3
 70
     0
 71
     0
  1
AcDbOsnapPointRef
 72
    13
331
54D35
 73
     0
 91
        0
 40
0.0
 10
0.0
 20
0.0
 30
2.000000000000000E+50
 75
     0
  1
AcDbOsnapPointRef
 72
    13
331
54D37
 73
     0
 91
        0
 40
0.0
 10
0.0
 20
0.0
 30
2.000000000000000E+50
 75
     0
  0
DIMASSOC
  5
54F3E
102
{ACAD_REACTORS
330
54F3D
102
}
330
54F3D
100
AcDbDimAssoc
330
54F2E
 90
        3
 70
     0
 71
     0
  1
AcDbOsnapPointRef
 72
    13
331
54CB4
 73
     0
 91
        0
 40
0.0
 10
0.0
 20
0.0
 30
2.000000000000000E+50
 75
     0
  1
AcDbOsnapPointRef
 72
     8
331
54CD4
 73
     0
 91
        0
 40
-0.0000300257585496
 10
0.0
 20
0.0
 30
0.0
 75
     1
  1
AcDbOsnapPointRef
 72
    13
331
54CB4
 73
     0
 91
        0
 40
0.0
 10
0.0
 20
0.0
 30
2.000000000000000E+50
 75
     0
  0
DIMASSOC
  5
54F5F
102
{ACAD_REACTORS
330
54F58
102
}
330
54F58
100
AcDbDimAssoc
330
54F4E
 90
        2
 70
     0
 71
     0
  1
AcDbOsnapPointRef
 72
     3
331
54CD1
 73
     2
 91
        0
 40
0.0
 10
0.0
 20
0.0
 30
0.0
 75
     0
  0
DIMASSOC
  5
54FDB
102
{ACAD_REACTORS
330
54FD4
102
}
330
54FD4
100
AcDbDimAssoc
330
54FCA
 90
        2
 70
     0
 71
     0
  1
AcDbOsnapPointRef
 72
     3
331
54C98
 73
     2
 91
        0
 40
0.0
 10
0.0
 20
0.0
 30
0.0
 75
     0
  0
LAYOUT
  5
22
102
{ACAD_XDICTIONARY
360
64068
102
}
102
{ACAD_REACTORS
330
1A
102
}
330
1A
100
AcDbPlotSettings
  1

  2
Adobe PDF
  4
A4
  6

 40
3.174999952316284
 41
3.174999952316284
 42
3.175003051757812
 43
3.17498779296875
 44
209.9733276367187
 45
297.0318298339844
 46
-3.188337683677673
 47
-3.159078955650443
 48
0.0
 49
0.0
140
297.0000000000002
141
210.0
142
1.0
143
1.0
 70
  3748
 72
     1
 73
     1
 74
     4
  7
monochrome.ctb
 75
     0
147
0.6856004196385342
148
0.0
149
0.0
100
AcDbLayout
  1
Model
 70
     1
 71
     0
 10
0.0
 20
0.0
 11
12.0
 21
9.0
 12
0.0
 22
0.0
 32
0.0
 14
0.0
 24
0.0
 34
0.0
 15
0.0
 25
0.0
 35
0.0
146
0.0
 13
0.0
 23
0.0
 33
0.0
 16
1.0
 26
0.0
 36
0.0
 17
0.0
 27
1.0
 37
0.0
 76
     0
330
1F
331
C444
1001
ACAD_PSEXT
1000
Adobe PDF
1000
Adobe PDF Converter
1000
My Documents\*.pdf
1000

1070
     0
  0
LAYOUT
  5
1E
102
{ACAD_XDICTIONARY
360
64066
102
}
102
{ACAD_REACTORS
330
1A
102
}
330
1A
100
AcDbPlotSettings
  1

  2
\\ML370\XEROX
  4
A4
  6

 40
3.174999952316284
 41
3.174999952316284
 42
3.175003051757812
 43
3.17498779296875
 44
209.8674926757813
 45
296.6719970703125
 46
0.0
 47
0.0
 48
0.0
 49
0.0
140
0.0
141
0.0
142
1.0
143
1.0
 70
   688
 72
     1
 73
     1
 74
     5
  7
monochrome.ctb
 75
    16
147
1.0
148
0.0
149
0.0
100
AcDbLayout
  1
ﾚｲｱｳﾄ1
 70
     1
 71
     1
 10
-3.17498779296875
 20
-3.174999952316284
 11
293.4970092773438
 21
206.692492723465
 12
0.0
 22
0.0
 32
0.0
 14
1.000000000000000E+20
 24
1.000000000000000E+20
 34
1.000000000000000E+20
 15
-1.000000000000000E+20
 25
-1.000000000000000E+20
 35
-1.000000000000000E+20
146
0.0
 13
0.0
 23
0.0
 33
0.0
 16
1.0
 26
0.0
 36
0.0
 17
0.0
 27
1.0
 37
0.0
 76
     0
330
1B
  0
LAYOUT
  5
26
102
{ACAD_XDICTIONARY
360
6406A
102
}
102
{ACAD_REACTORS
330
1A
102
}
330
1A
100
AcDbPlotSettings
  1

  2
\\ML370\XEROX
  4

  6

 40
0.0
 41
0.0
 42
0.0
 43
0.0
 44
0.0
 45
0.0
 46
0.0
 47
0.0
 48
0.0
 49
0.0
140
0.0
141
0.0
142
1.0
143
1.0
 70
   688
 72
     0
 73
     0
 74
     5
  7
monochrome.ctb
 75
    16
147
1.0
148
0.0
149
0.0
100
AcDbLayout
  1
ﾚｲｱｳﾄ2
 70
     1
 71
     2
 10
0.0
 20
0.0
 11
12.0
 21
9.0
 12
0.0
 22
0.0
 32
0.0
 14
0.0
 24
0.0
 34
0.0
 15
0.0
 25
0.0
 35
0.0
146
0.0
 13
0.0
 23
0.0
 33
0.0
 16
1.0
 26
0.0
 36
0.0
 17
0.0
 27
1.0
 37
0.0
 76
     0
330
23
  0
MATERIAL
  5
C448
102
{ACAD_XDICTIONARY
360
6406E
102
}
102
{ACAD_REACTORS
330
C446
102
}
330
C446
100
AcDbMaterial
  1
ByBlock
  0
MATERIAL
  5
C447
102
{ACAD_XDICTIONARY
360
6406C
102
}
102
{ACAD_REACTORS
330
C446
102
}
330
C446
100
AcDbMaterial
  1
ByLayer
  0
MATERIAL
  5
C449
102
{ACAD_XDICTIONARY
360
64070
102
}
102
{ACAD_REACTORS
330
C446
102
}
330
C446
100
AcDbMaterial
  1
Global
  0
MLINESTYLE
  5
18
102
{ACAD_REACTORS
330
17
102
}
330
17
100
AcDbMlineStyle
  2
STANDARD
 70
     0
  3

 62
   256
 51
90.0
 52
90.0
 71
     2
 49
0.5
 62
   256
  6
BYLAYER
 49
-0.5
 62
   256
  6
BYLAYER
  0
PLOTSETTINGS
  5
C85D
102
{ACAD_XDICTIONARY
360
64074
102
}
102
{ACAD_REACTORS
330
19
102
}
330
19
100
AcDbPlotSettings
  1
-00
  2
RICOH imagio Wide 7040e RP-GL/2
  4
A3
  6
AM_VIEW1
 40
5.069416522979736
 41
7.228392601013183
 42
5.23870849609375
 43
7.05908203125
 44
419.9889831542968
 45
296.9683227539062
 46
-5.159570932388305
 47
-7.159575939178466
 48
347.0000006405867
 49
-0.0000003719120514
140
767.0000006405866
141
296.9999996280879
142
1.0
143
1.0
 70
 11956
 72
     1
 73
     0
 74
     4
  7
monochrome.ctb
 75
    16
147
1.0
148
-347.0000006405867
149
0.0000003719120514
1001
ACAD_PSEXT
1000
RICOH imagio Wide 7040e RP-GL/2
1000
RICOH imagio Wide 7040e RP-GL/2
1000
\\ADMINISTRATOR
1000
RP-GL/2 Driver (Windows 2000/XP/Server 2003)
1070
     0
  0
ACDBPLACEHOLDER
  5
F
102
{ACAD_REACTORS
330
E
102
}
330
E
  0
TABLESTYLE
  5
C45D
102
{ACAD_XDICTIONARY
360
64072
102
}
102
{ACAD_REACTORS
330
C45C
102
}
330
C45C
100
AcDbTableStyle
  3
Standard
 70
     0
 71
     0
 40
1.5
 41
1.5
280
     0
281
     0
  7
STANDARD
140
4.5
170
     2
 62
     0
 63
     7
283
     0
274
    -2
284
     1
 64
     0
275
    -2
285
     1
 65
     0
276
    -2
286
     1
 66
     0
277
    -2
287
     1
 67
     0
278
    -2
288
     1
 68
     0
279
    -2
289
     1
 69
     0
  7
STANDARD
140
6.0
170
     5
 62
     0
 63
     7
283
     0
274
    -2
284
     1
 64
     0
275
    -2
285
     1
 65
     0
276
    -2
286
     1
 66
     0
277
    -2
287
     1
 67
     0
278
    -2
288
     1
 68
     0
279
    -2
289
     1
 69
     0
  7
STANDARD
140
4.5
170
     5
 62
     0
 63
     7
283
     0
274
    -2
284
     1
 64
     0
275
    -2
285
     1
 65
     0
276
    -2
286
     1
 66
     0
277
    -2
287
     1
 67
     0
278
    -2
288
     1
 68
     0
279
    -2
289
     1
 69
     0
  0
VISUALSTYLE
  5
C450
102
{ACAD_REACTORS
330
C44A
102
}
330
C44A
100
AcDbVisualStyle
  2
2dWireframe
 70
     4
 71
     0
 72
     2
 73
     0
 90
        0
 40
-0.6
 41
-30.0
 62
     5
 63
     7
 74
     1
 91
        4
 64
     7
 65
   257
 75
     1
175
     1
 42
1.0
 92
        0
 66
   257
 43
1.0
 76
     1
 77
     6
 78
     2
 67
     7
 79
     5
170
     0
171
     0
290
     0
174
     0
 93
        1
 44
0.0
173
     0
291
     0
 45
0.0
1001
ACAD
1000
AcDbSavedByObjectVersion
1070
     0
  0
VISUALSTYLE
  5
C452
102
{ACAD_REACTORS
330
C44A
102
}
330
C44A
100
AcDbVisualStyle
  2
3D Hidden
 70
     6
 71
     1
 72
     2
 73
     2
 90
        0
 40
-0.6
 41
-30.0
 62
     5
 63
     7
 74
     2
 91
        2
 64
     7
 65
   257
 75
     2
175
     1
 42
40.0
 92
        0
 66
   257
 43
1.0
 76
     1
 77
     6
 78
     2
 67
     7
 79
     3
170
     0
171
     0
290
     0
174
     0
 93
        1
 44
0.0
173
     0
291
     0
 45
0.0
1001
ACAD
1000
AcDbSavedByObjectVersion
1070
     0
  0
VISUALSTYLE
  5
C451
102
{ACAD_REACTORS
330
C44A
102
}
330
C44A
100
AcDbVisualStyle
  2
3dWireframe
 70
     5
 71
     0
 72
     2
 73
     0
 90
        0
 40
-0.6
 41
-30.0
 62
     5
 63
     7
 74
     1
 91
        4
 64
     7
 65
   257
 75
     1
175
     1
 42
1.0
 92
        0
 66
   257
 43
1.0
 76
     1
 77
     6
 78
     2
 67
     7
 79
     5
170
     0
171
     0
290
     0
174
     0
 93
        1
 44
0.0
173
     0
291
     0
 45
0.0
1001
ACAD
1000
AcDbSavedByObjectVersion
1070
     0
  0
VISUALSTYLE
  5
C44F
102
{ACAD_REACTORS
330
C44A
102
}
330
C44A
100
AcDbVisualStyle
  2
Basic
 70
     7
 71
     1
 72
     0
 73
     1
 90
        0
 40
-0.6
 41
-30.0
 62
     5
 63
     7
 74
     0
 91
        4
 64
     7
 65
   257
 75
     1
175
     1
 42
1.0
 92
        8
 66
     7
 43
1.0
 76
     1
 77
     6
 78
     2
 67
     7
 79
     5
170
     0
171
     0
290
     0
174
     0
 93
        1
 44
0.0
173
     0
291
     1
 45
0.0
1001
ACAD
1000
AcDbSavedByObjectVersion
1070
     0
  0
VISUALSTYLE
  5
C456
102
{ACAD_REACTORS
330
C44A
102
}
330
C44A
100
AcDbVisualStyle
  2
Brighten
 70
    12
 71
     2
 72
     2
 73
     0
 90
        0
 40
-0.6
 41
-30.0
 62
     5
 63
     7
 74
     1
 91
        4
 64
     7
 65
   257
 75
     1
175
     1
 42
1.0
 92
        8
 66
     7
 43
1.0
 76
     1
 77
     6
 78
     2
 67
     7
 79
     5
170
     0
171
     0
290
     0
174
     0
 93
        1
 44
50.0
173
     0
291
     1
 45
0.0
1001
ACAD
1000
AcDbSavedByObjectVersion
1070
     0
  0
VISUALSTYLE
  5
C45A
102
{ACAD_REACTORS
330
C44A
102
}
330
C44A
100
AcDbVisualStyle
  2
ColorChange
 70
    16
 71
     2
 72
     2
 73
     3
 90
        0
 40
-0.6
 41
-30.0
 62
     5
 63
     8
 74
     1
 91
        4
 64
     7
 65
   257
 75
     1
175
     1
 42
1.0
 92
        8
 66
     8
 43
1.0
 76
     1
 77
     6
 78
     2
 67
     7
 79
     5
170
     0
171
     0
290
     0
174
     0
 93
        1
 44
0.0
173
     0
291
     1
 45
0.0
1001
ACAD
1000
AcDbSavedByObjectVersion
1070
     0
  0
VISUALSTYLE
  5
C453
102
{ACAD_REACTORS
330
C44A
102
}
330
C44A
100
AcDbVisualStyle
  2
Conceptual
 70
     9
 71
     3
 72
     2
 73
     0
 90
        0
 40
-0.6
 41
-30.0
 62
     5
 63
     7
 74
     2
 91
        2
 64
     7
 65
   257
 75
     1
175
     1
 42
40.0
 92
        8
 66
     7
 43
1.0
 76
     1
 77
     6
 78
     2
 67
     7
 79
     3
170
     0
171
     0
290
     0
174
     0
 93
        1
 44
0.0
173
     0
291
     0
 45
0.0
1001
ACAD
1000
AcDbSavedByObjectVersion
1070
     0
  0
VISUALSTYLE
  5
C455
102
{ACAD_REACTORS
330
C44A
102
}
330
C44A
100
AcDbVisualStyle
  2
Dim
 70
    11
 71
     2
 72
     2
 73
     0
 90
        0
 40
-0.6
 41
-30.0
 62
     5
 63
     7
 74
     1
 91
        4
 64
     7
 65
   257
 75
     1
175
     1
 42
1.0
 92
        8
 66
     7
 43
1.0
 76
     1
 77
     6
 78
     2
 67
     7
 79
     5
170
     0
171
     0
290
     0
174
     0
 93
        1
 44
-50.0
173
     0
291
     1
 45
0.0
1001
ACAD
1000
AcDbSavedByObjectVersion
1070
     0
  0
VISUALSTYLE
  5
C459
102
{ACAD_REACTORS
330
C44A
102
}
330
C44A
100
AcDbVisualStyle
  2
Facepattern
 70
    15
 71
     2
 72
     2
 73
     0
 90
        0
 40
-0.6
 41
-30.0
 62
     5
 63
     7
 74
     1
 91
        4
 64
     7
 65
   257
 75
     1
175
     1
 42
1.0
 92
        8
 66
     7
 43
1.0
 76
     1
 77
     6
 78
     2
 67
     7
 79
     5
170
     0
171
     0
290
     0
174
     0
 93
        1
 44
0.0
173
     0
291
     1
 45
0.0
1001
ACAD
1000
AcDbSavedByObjectVersion
1070
     0
  0
VISUALSTYLE
  5
C44B
102
{ACAD_REACTORS
330
C44A
102
}
330
C44A
100
AcDbVisualStyle
  2
Flat
 70
     0
 71
     2
 72
     1
 73
     1
 90
        2
 40
-0.6
 41
30.0
 62
     5
 63
     7
 74
     0
 91
        4
 64
     7
 65
   257
 75
     1
175
     1
 42
1.0
 92
        8
 66
     7
 43
1.0
 76
     1
 77
     6
 78
     2
 67
     7
 79
     5
170
     0
171
     0
290
     0
174
     0
 93
       13
 44
0.0
173
     0
291
     1
 45
0.0
1001
ACAD
1000
AcDbSavedByObjectVersion
1070
     0
  0
VISUALSTYLE
  5
C44C
102
{ACAD_REACTORS
330
C44A
102
}
330
C44A
100
AcDbVisualStyle
  2
FlatWithEdges
 70
     1
 71
     2
 72
     1
 73
     1
 90
        2
 40
-0.6
 41
30.0
 62
     5
 63
     7
 74
     1
 91
        4
 64
     7
 65
   257
 75
     1
175
     1
 42
1.0
 92
        0
 66
   257
 43
1.0
 76
     1
 77
     6
 78
     2
 67
     7
 79
     5
170
     0
171
     0
290
     0
174
     0
 93
       13
 44
0.0
173
     0
291
     1
 45
0.0
1001
ACAD
1000
AcDbSavedByObjectVersion
1070
     0
  0
VISUALSTYLE
  5
C44D
102
{ACAD_REACTORS
330
C44A
102
}
330
C44A
100
AcDbVisualStyle
  2
Gouraud
 70
     2
 71
     2
 72
     2
 73
     1
 90
        2
 40
-0.6
 41
30.0
 62
     5
 63
     7
 74
     0
 91
        4
 64
     7
 65
   257
 75
     1
175
     1
 42
1.0
 92
        0
 66
     7
 43
1.0
 76
     1
 77
     6
 78
     2
 67
     7
 79
     5
170
     0
171
     0
290
     0
174
     0
 93
       13
 44
0.0
173
     0
291
     1
 45
0.0
1001
ACAD
1000
AcDbSavedByObjectVersion
1070
     0
  0
VISUALSTYLE
  5
C44E
102
{ACAD_REACTORS
330
C44A
102
}
330
C44A
100
AcDbVisualStyle
  2
GouraudWithEdges
 70
     3
 71
     2
 72
     2
 73
     1
 90
        2
 40
-0.6
 41
30.0
 62
     5
 63
     7
 74
     1
 91
        4
 64
     7
 65
   257
 75
     1
175
     1
 42
1.0
 92
        0
 66
   257
 43
1.0
 76
     1
 77
     6
 78
     2
 67
     7
 79
     5
170
     0
171
     0
290
     0
174
     0
 93
       13
 44
0.0
173
     0
291
     1
 45
0.0
1001
ACAD
1000
AcDbSavedByObjectVersion
1070
     0
  0
VISUALSTYLE
  5
C458
102
{ACAD_REACTORS
330
C44A
102
}
330
C44A
100
AcDbVisualStyle
  2
Linepattern
 70
    14
 71
     2
 72
     2
 73
     0
 90
        0
 40
-0.6
 41
-30.0
 62
     5
 63
     7
 74
     1
 91
        4
 64
     7
 65
   257
 75
     7
175
     7
 42
1.0
 92
        8
 66
     7
 43
1.0
 76
     1
 77
     6
 78
     2
 67
     7
 79
     5
170
     0
171
     0
290
     0
174
     0
 93
        1
 44
0.0
173
     0
291
     1
 45
0.0
1001
ACAD
1000
AcDbSavedByObjectVersion
1070
     0
  0
VISUALSTYLE
  5
C454
102
{ACAD_REACTORS
330
C44A
102
}
330
C44A
100
AcDbVisualStyle
  2
Realistic
 70
     8
 71
     2
 72
     2
 73
     0
 90
        0
 40
-0.6
 41
-30.0
 62
     5
 63
     7
 74
     1
 91
        0
 64
     7
 65
   257
 75
     1
175
     1
 42
1.0
 92
        8
 66
     8
 43
1.0
 76
     1
 77
     6
 78
     2
 67
     7
 79
     5
170
     0
171
     0
290
     0
174
     0
 93
       13
 44
0.0
173
     0
291
     0
 45
0.0
1001
ACAD
1000
AcDbSavedByObjectVersion
1070
     0
  0
VISUALSTYLE
  5
C457
102
{ACAD_REACTORS
330
C44A
102
}
330
C44A
100
AcDbVisualStyle
  2
Thicken
 70
    13
 71
     2
 72
     2
 73
     0
 90
        0
 40
-0.6
 41
-30.0
 62
     5
 63
     7
 74
     1
 91
        4
 64
     7
 65
   257
 75
     1
175
     1
 42
1.0
 92
       12
 66
     7
 43
1.0
 76
     1
 77
     6
 78
     2
 67
     7
 79
     5
170
     0
171
     0
290
     0
174
     0
 93
        1
 44
0.0
173
     0
291
     1
 45
0.0
1001
ACAD
1000
AcDbSavedByObjectVersion
1070
     0
  0
DICTIONARYVAR
  5
C4A2
102
{ACAD_REACTORS
330
34
102
}
330
34
100
DictionaryVariables
280
     0
  1
STANDARD
  0
DICTIONARYVAR
  5
AC85
102
{ACAD_REACTORS
330
34
102
}
330
34
100
DictionaryVariables
280
     0
  1
2
  0
DICTIONARYVAR
  5
35
102
{ACAD_REACTORS
330
34
102
}
330
34
100
DictionaryVariables
280
     0
  1
0
  0
DICTIONARYVAR
  5
194C
102
{ACAD_REACTORS
330
34
102
}
330
34
100
DictionaryVariables
280
     0
  1
96
  0
DICTIONARY
  5
7E8
102
{ACAD_REACTORS
330
47
102
}
330
47
100
AcDbDictionary
281
     1
  0
DICTIONARY
  5
4C
102
{ACAD_REACTORS
330
47
102
}
330
47
100
AcDbDictionary
281
     1
  0
XRECORD
  5
C487
102
{ACAD_REACTORS
330
47
102
}
330
47
100
AcDbXrecord
280
     1
 90
-1023410169
  0
XRECORD
  5
6169B
102
{ACAD_REACTORS
330
6169A
102
}
330
6169A
100
AcDbXrecord
280
     1
330
0
330
0
330
0
330
0
330
0
330
0
330
0
330
0
330
0
330
0
330
0
330
0
330
0
330
0
330
0
330
0
330
0
330
0
330
0
330
0
330
0
330
0
330
0
330
0
330
0
330
0
330
0
330
0
330
0
330
0
330
0
330
0
330
0
330
0
330
0
330
0
330
0
330
0
330
0
330
0
330
0
330
0
330
0
330
0
330
0
330
0
330
0
330
0
330
0
330
0
330
0
330
0
330
0
330
0
330
0
330
0
330
0
330
0
330
0
330
0
330
0
330
0
330
0
330
0
330
0
330
0
330
0
330
0
330
0
330
0
330
0
330
0
330
0
330
0
330
0
330
0
330
0
330
0
330
0
330
0
330
0
330
0
330
0
330
0
330
0
330
0
330
0
330
0
330
0
330
0
330
0
330
0
330
0
330
0
330
0
330
0
330
0
330
0
330
0
330
0
330
0
330
0
330
0
330
0
330
0
330
0
330
0
330
0
330
0
330
0
330
0
330
0
330
0
330
0
330
0
330
0
330
0
330
0
330
0
330
0
330
0
330
0
330
0
330
0
330
0
330
0
330
0
330
0
330
0
330
0
330
0
330
0
330
0
330
0
330
0
330
0
330
0
330
0
330
0
330
0
330
0
330
0
330
0
330
0
330
0
330
0
330
0
330
0
330
0
330
0
330
0
330
0
330
0
330
0
330
0
330
0
330
0
330
0
330
0
330
0
330
0
330
0
330
0
330
0
330
0
330
0
330
0
330
0
330
0
330
0
330
0
330
0
330
0
330
0
330
0
330
0
330
0
330
0
330
0
330
0
330
0
330
0
330
0
330
0
330
0
330
0
330
0
330
0
330
0
330
0
330
0
330
0
330
0
330
0
330
0
330
0
330
0
330
0
330
0
330
0
330
0
330
0
330
0
330
0
330
0
330
0
330
0
330
0
330
0
330
0
330
0
330
0
330
0
330
0
330
0
330
0
330
0
330
0
330
0
330
0
330
0
330
0
330
0
330
0
330
0
330
0
330
0
330
0
330
0
330
0
330
0
330
0
330
0
330
0
330
0
330
0
330
0
330
0
330
0
330
0
330
0
330
0
330
0
330
0
330
0
330
0
330
0
330
0
330
0
330
0
330
0
330
0
330
0
330
0
330
0
330
0
330
0
330
0
330
0
330
0
330
0
330
0
330
0
330
0
330
0
330
0
330
0
330
0
330
0
330
0
330
0
330
0
330
0
330
0
330
0
330
0
330
0
330
0
330
0
330
0
330
0
330
0
330
0
330
0
330
0
330
0
330
0
330
0
330
0
330
0
330
0
330
0
330
0
330
0
330
0
330
0
330
0
330
0
330
0
330
0
330
0
330
0
330
0
330
0
330
0
330
0
330
0
330
0
330
0
330
0
330
0
330
0
330
0
330
0
330
0
330
0
330
0
330
0
330
0
330
0
330
0
330
0
330
0
330
0
330
0
330
0
330
0
330
0
330
0
330
0
330
0
330
0
330
0
330
0
330
0
330
0
330
0
330
0
330
0
330
0
330
0
330
0
330
0
330
0
330
0
330
0
330
0
330
0
330
0
330
0
330
0
330
0
330
0
330
0
330
0
330
0
330
0
330
0
330
0
330
0
330
0
330
0
330
0
330
0
330
0
330
0
330
0
330
0
330
0
330
0
330
0
330
0
330
0
330
0
330
0
330
0
330
0
330
0
330
0
330
0
330
0
330
0
330
0
330
0
330
0
330
0
330
0
330
0
330
0
330
0
330
0
330
0
330
0
330
0
330
0
330
0
330
0
330
0
330
0
330
0
330
0
330
0
330
0
330
0
330
0
330
0
330
0
330
0
330
0
330
0
330
0
330
0
330
0
330
0
330
0
330
0
330
0
330
0
330
0
330
0
330
0
330
0
330
0
330
0
330
0
330
0
330
0
330
0
330
0
330
0
330
0
330
0
330
0
330
0
330
0
330
0
330
0
330
0
330
0
330
0
330
0
330
0
330
0
330
0
330
0
330
0
330
0
330
0
330
0
330
0
330
0
330
0
330
0
330
0
330
0
330
0
330
0
330
0
330
0
330
0
330
0
330
0
330
0
330
0
330
0
330
0
330
0
330
0
330
0
330
0
330
0
330
0
330
0
330
0
330
0
330
0
330
0
330
0
330
0
330
0
330
0
330
0
330
0
330
0
330
0
330
0
330
0
330
0
330
0
330
0
330
0
330
0
330
0
330
0
330
0
330
0
330
0
330
0
330
0
330
0
330
0
330
0
330
0
330
0
330
0
330
0
330
0
330
0
330
0
330
0
330
0
330
0
330
0
330
0
330
0
330
0
330
0
330
0
330
0
330
0
330
0
330
0
330
0
330
0
330
0
330
0
330
0
330
0
330
0
330
0
330
0
330
0
330
0
330
0
330
0
330
0
330
0
330
0
330
0
330
0
330
0
330
0
330
0
330
0
330
0
330
0
330
0
330
0
330
0
330
0
330
0
330
0
330
0
330
0
330
0
330
0
330
0
330
0
330
0
330
0
330
0
330
0
330
0
330
0
330
0
330
0
330
0
330
0
330
0
330
0
330
0
330
0
330
0
330
0
330
0
330
0
330
0
330
0
330
0
330
0
330
0
330
0
330
0
330
0
330
0
330
0
330
0
330
0
330
0
330
0
330
0
330
0
330
0
330
0
330
0
330
0
330
0
330
0
330
0
330
0
330
0
330
0
330
0
330
0
330
0
330
0
330
0
330
0
330
0
330
0
330
0
330
0
330
0
330
0
330
0
330
0
330
0
330
0
330
0
330
0
330
0
330
0
330
0
330
0
330
0
330
0
330
0
330
0
330
0
330
0
330
0
330
0
330
0
330
0
330
0
330
0
330
0
330
0
330
0
330
0
330
0
330
0
330
0
330
0
330
0
330
0
330
0
330
0
330
0
330
0
330
0
330
0
330
0
330
0
330
0
330
0
330
0
330
0
330
0
330
0
330
0
330
0
330
0
330
0
330
0
330
0
330
0
330
0
330
0
330
0
330
0
330
0
330
0
330
0
330
0
330
0
330
0
330
0
330
0
330
0
330
0
330
0
330
0
330
0
  0
XRECORD
  5
CB0E
102
{ACAD_REACTORS
330
CB0C
102
}
330
CB0C
100
AcDbXrecord
280
     1
  1
50
  1
*-50
  1
*
  1
*
 70
     0
  1
*
  1
*
1001
ACAD
1000
( NAME== "*-50" )
  0
XRECORD
  5
3FB7
102
{ACAD_REACTORS
330
3F96
102
}
330
3F96
100
AcDbXrecord
280
     1
 91
        3
330
A47
 90
        8
 62
     7
370
    40
331
16
  1
Color_7
330
A46
 90
        0
 62
    14
370
    -3
331
16
  1
Color_14
330
3A31
 90
        8
 62
     7
370
    20
331
16
  1
Color_7
330
6D1
 90
        0
 62
     7
370
    -3
331
16
  1
Color_7
330
0
 90
        8
 62
     7
370
    50
331
16
  1
Color_7
330
A48
 90
        8
 62
     2
370
    35
331
16
  1
Color_2
330
FA5
 90
        8
 62
     7
370
    -3
331
16
  1
Color_7
330
10
 90
        8
 62
     7
370
    -3
331
16
  1
Color_7
  0
XRECORD
  5
CB0D
102
{ACAD_REACTORS
330
CB0B
102
}
330
CB0B
100
AcDbXrecord
280
     1
  1
AcLyLayerFilter
 90
        1
300
50
301
( NAME== "*-50" )
  0
DICTIONARY
  5
64068
330
22
100
AcDbDictionary
280
     1
281
     1
  3
ACAD_XREC_ROUNDTRIP
360
64069
  0
DICTIONARY
  5
64066
330
1E
100
AcDbDictionary
280
     1
281
     1
  3
ACAD_XREC_ROUNDTRIP
360
64067
  0
DICTIONARY
  5
6406A
330
26
100
AcDbDictionary
280
     1
281
     1
  3
ACAD_XREC_ROUNDTRIP
360
6406B
  0
DICTIONARY
  5
6406E
330
C448
100
AcDbDictionary
280
     1
281
     1
  3
ACAD_XREC_ROUNDTRIP
360
6406F
  0
DICTIONARY
  5
6406C
330
C447
100
AcDbDictionary
280
     1
281
     1
  3
ACAD_XREC_ROUNDTRIP
360
6406D
  0
DICTIONARY
  5
64070
330
C449
100
AcDbDictionary
280
     1
281
     1
  3
ACAD_XREC_ROUNDTRIP
360
64071
  0
DICTIONARY
  5
64074
330
C85D
100
AcDbDictionary
280
     1
281
     1
  3
ACAD_XREC_ROUNDTRIP
360
64075
  0
DICTIONARY
  5
64072
330
C45D
100
AcDbDictionary
280
     1
281
     1
  3
ACAD_XREC_ROUNDTRIP
360
64073
  0
XRECORD
  5
64069
102
{ACAD_REACTORS
330
64068
102
}
330
64068
100
AcDbXrecord
280
     1
102
SHADEPLOT
 70
     1
102
SHADEPLOTRESLEVEL
 70
     2
102
SHADEPLOTCUSTOMDPI
 70
   300
  0
XRECORD
  5
64067
102
{ACAD_REACTORS
330
64066
102
}
330
64066
100
AcDbXrecord
280
     1
102
SHADEPLOT
 70
     0
102
SHADEPLOTRESLEVEL
 70
     2
102
SHADEPLOTCUSTOMDPI
 70
   300
  0
XRECORD
  5
6406B
102
{ACAD_REACTORS
330
6406A
102
}
330
6406A
100
AcDbXrecord
280
     1
102
SHADEPLOT
 70
     0
102
SHADEPLOTRESLEVEL
 70
     2
102
SHADEPLOTCUSTOMDPI
 70
   300
  0
XRECORD
  5
6406F
102
{ACAD_REACTORS
330
6406E
102
}
330
6406E
100
AcDbXrecord
280
     1
102
MATERIAL
148
0.0
149
0.0
149
0.0
 93
        0
 94
       63
282
     0
 72
     1
 77
     1
171
     1
175
     1
179
     1
273
     0
  0
XRECORD
  5
6406D
102
{ACAD_REACTORS
330
6406C
102
}
330
6406C
100
AcDbXrecord
280
     1
102
MATERIAL
148
0.0
149
0.0
149
0.0
 93
        0
 94
       63
282
     0
 72
     1
 77
     1
171
     1
175
     1
179
     1
273
     0
  0
XRECORD
  5
64071
102
{ACAD_REACTORS
330
64070
102
}
330
64070
100
AcDbXrecord
280
     1
102
MATERIAL
148
0.0
149
0.0
149
0.0
 93
        0
 94
       63
282
     0
 72
     1
 77
     1
171
     1
175
     1
179
     1
273
     0
  0
XRECORD
  5
64075
102
{ACAD_REACTORS
330
64074
102
}
330
64074
100
AcDbXrecord
280
     1
102
SHADEPLOT
 70
     0
102
SHADEPLOTRESLEVEL
 70
     2
102
SHADEPLOTCUSTOMDPI
 70
   300
  0
XRECORD
  5
64073
102
{ACAD_REACTORS
330
64072
102
}
330
64072
100
AcDbXrecord
280
     1
102
ACAD_ROUNDTRIP_PRE2007_TABLESTYLE
 90
      512
 91
        0
  1

 92
      512
 93
        0
  2

 94
      512
 95
        0
  3

  0
ENDSEC
  0
EOF
