  0
SECTION
  2
HEADER
  9
$ACADVER
  1
AC1015
  9
$ACADMAINTVER
 70
    20
  9
$DWGCODEPAGE
  3
ANSI_932
  9
$INSBASE
 10
0.0
 20
0.0
 30
0.0
  9
$EXTMIN
 10
-204.6347389212229
 20
-0.2743171456222626
 30
-0.0000000349181948
  9
$EXTMAX
 10
297.0918338497467
 20
210.2889552374145
 30
0.0000000814935746
  9
$LIMMIN
 10
-1207.468050814234
 20
-4523.809200058368
  9
$LIMMAX
 10
-19.46805081423372
 20
-3683.809200058368
  9
$ORTHOMODE
 70
     0
  9
$REGENMODE
 70
     1
  9
$FILLMODE
 70
     1
  9
$QTEXTMODE
 70
     0
  9
$MIRRTEXT
 70
     0
  9
$LTSCALE
 40
1.0
  9
$ATTMODE
 70
     1
  9
$TEXTSIZE
 40
3.2
  9
$TRACEWID
 40
1.0
  9
$TEXTSTYLE
  7
STANDARD
  9
$CLAYER
  8
AM_6
  9
$CELTYPE
  6
ByLayer
  9
$CECOLOR
 62
   256
  9
$CELTSCALE
 40
1.0
  9
$DISPSILH
 70
     0
  9
$DIMSCALE
 40
1.0
  9
$DIMASZ
 40
2.5
  9
$DIMEXO
 40
1.0
  9
$DIMDLI
 40
10.0
  9
$DIMRND
 40
0.0
  9
$DIMDLE
 40
0.0
  9
$DIMEXE
 40
1.0
  9
$DIMTP
 40
0.1
  9
$DIMTM
 40
0.1
  9
$DIMTXT
 40
3.5
  9
$DIMCEN
 40
0.0
  9
$DIMTSZ
 40
0.0
  9
$DIMTOL
 70
     0
  9
$DIMLIM
 70
     0
  9
$DIMTIH
 70
     0
  9
$DIMTOH
 70
     0
  9
$DIMSE1
 70
     0
  9
$DIMSE2
 70
     0
  9
$DIMTAD
 70
     1
  9
$DIMZIN
 70
     8
  9
$DIMBLK
  1

  9
$DIMASO
 70
     1
  9
$DIMSHO
 70
     1
  9
$DIMPOST
  1

  9
$DIMAPOST
  1
"
  9
$DIMALT
 70
     0
  9
$DIMALTD
 70
     2
  9
$DIMALTF
 40
0.0393701
  9
$DIMLFAC
 40
1.0
  9
$DIMTOFL
 70
     1
  9
$DIMTVP
 40
0.0
  9
$DIMTIX
 70
     0
  9
$DIMSOXD
 70
     0
  9
$DIMSAH
 70
     0
  9
$DIMBLK1
  1

  9
$DIMBLK2
  1

  9
$DIMSTYLE
  2
SYS
  9
$DIMCLRD
 70
   256
  9
$DIMCLRE
 70
   256
  9
$DIMCLRT
 70
     7
  9
$DIMTFAC
 40
0.71
  9
$DIMGAP
 40
1.5
  9
$DIMJUST
 70
     0
  9
$DIMSD1
 70
     0
  9
$DIMSD2
 70
     0
  9
$DIMTOLJ
 70
     0
  9
$DIMTZIN
 70
     8
  9
$DIMALTZ
 70
     0
  9
$DIMALTTZ
 70
     0
  9
$DIMUPT
 70
     0
  9
$DIMDEC
 70
     1
  9
$DIMTDEC
 70
     3
  9
$DIMALTU
 70
     2
  9
$DIMALTTD
 70
     4
  9
$DIMTXSTY
  7
STANDARD
  9
$DIMAUNIT
 70
     0
  9
$DIMADEC
 70
     0
  9
$DIMALTRND
 40
0.0
  9
$DIMAZIN
 70
     2
  9
$DIMDSEP
 70
    46
  9
$DIMATFIT
 70
     3
  9
$DIMFRAC
 70
     0
  9
$DIMLDRBLK
  1

  9
$DIMLUNIT
 70
     2
  9
$DIMLWD
 70
    -1
  9
$DIMLWE
 70
    -1
  9
$DIMTMOVE
 70
     0
  9
$LUNITS
 70
     2
  9
$LUPREC
 70
     2
  9
$SKETCHINC
 40
1.0
  9
$FILLETRAD
 40
2.6
  9
$AUNITS
 70
     0
  9
$AUPREC
 70
     0
  9
$MENU
  1
.
  9
$ELEVATION
 40
0.0
  9
$PELEVATION
 40
0.0
  9
$THICKNESS
 40
0.0
  9
$LIMCHECK
 70
     0
  9
$CHAMFERA
 40
0.0
  9
$CHAMFERB
 40
0.0
  9
$CHAMFERC
 40
20.0
  9
$CHAMFERD
 40
0.0
  9
$SKPOLY
 70
     0
  9
$TDCREATE
 40
2452002.615067627
  9
$TDUCREATE
 40
2452002.240067627
  9
$TDUPDATE
 40
2456384.406138599
  9
$TDUUPDATE
 40
2456384.031138600
  9
$TDINDWG
 40
9.4399983796
  9
$TDUSRTIMER
 40
9.4399983796
  9
$USRTIMER
 70
     1
  9
$ANGBASE
 50
0.0
  9
$ANGDIR
 70
     0
  9
$PDMODE
 70
     0
  9
$PDSIZE
 40
0.0
  9
$PLINEWID
 40
0.0
  9
$SPLFRAME
 70
     0
  9
$SPLINETYPE
 70
     6
  9
$SPLINESEGS
 70
     8
  9
$HANDSEED
  5
642BF
  9
$SURFTAB1
 70
     6
  9
$SURFTAB2
 70
     6
  9
$SURFTYPE
 70
     6
  9
$SURFU
 70
     6
  9
$SURFV
 70
     6
  9
$UCSBASE
  2

  9
$UCSNAME
  2

  9
$UCSORG
 10
0.0
 20
0.0
 30
0.0
  9
$UCSXDIR
 10
1.0
 20
0.0
 30
0.0
  9
$UCSYDIR
 10
0.0
 20
1.0
 30
0.0
  9
$UCSORTHOREF
  2

  9
$UCSORTHOVIEW
 70
     0
  9
$UCSORGTOP
 10
0.0
 20
0.0
 30
0.0
  9
$UCSORGBOTTOM
 10
0.0
 20
0.0
 30
0.0
  9
$UCSORGLEFT
 10
0.0
 20
0.0
 30
0.0
  9
$UCSORGRIGHT
 10
0.0
 20
0.0
 30
0.0
  9
$UCSORGFRONT
 10
0.0
 20
0.0
 30
0.0
  9
$UCSORGBACK
 10
0.0
 20
0.0
 30
0.0
  9
$PUCSBASE
  2

  9
$PUCSNAME
  2

  9
$PUCSORG
 10
0.0
 20
0.0
 30
0.0
  9
$PUCSXDIR
 10
1.0
 20
0.0
 30
0.0
  9
$PUCSYDIR
 10
0.0
 20
1.0
 30
0.0
  9
$PUCSORTHOREF
  2

  9
$PUCSORTHOVIEW
 70
     0
  9
$PUCSORGTOP
 10
0.0
 20
0.0
 30
0.0
  9
$PUCSORGBOTTOM
 10
0.0
 20
0.0
 30
0.0
  9
$PUCSORGLEFT
 10
0.0
 20
0.0
 30
0.0
  9
$PUCSORGRIGHT
 10
0.0
 20
0.0
 30
0.0
  9
$PUCSORGFRONT
 10
0.0
 20
0.0
 30
0.0
  9
$PUCSORGBACK
 10
0.0
 20
0.0
 30
0.0
  9
$USERI1
 70
     0
  9
$USERI2
 70
     0
  9
$USERI3
 70
     0
  9
$USERI4
 70
     0
  9
$USERI5
 70
     0
  9
$USERR1
 40
0.0
  9
$USERR2
 40
0.0
  9
$USERR3
 40
0.0
  9
$USERR4
 40
0.0
  9
$USERR5
 40
0.0
  9
$WORLDVIEW
 70
     1
  9
$SHADEDGE
 70
     3
  9
$SHADEDIF
 70
    70
  9
$TILEMODE
 70
     1
  9
$MAXACTVP
 70
    64
  9
$PINSBASE
 10
0.0
 20
0.0
 30
0.0
  9
$PLIMCHECK
 70
     0
  9
$PEXTMIN
 10
1.000000000000000E+20
 20
1.000000000000000E+20
 30
1.000000000000000E+20
  9
$PEXTMAX
 10
-1.000000000000000E+20
 20
-1.000000000000000E+20
 30
-1.000000000000000E+20
  9
$PLIMMIN
 10
-3.17498779296875
 20
-3.174999952316284
  9
$PLIMMAX
 10
293.4970092773438
 20
206.692492723465
  9
$UNITMODE
 70
     0
  9
$VISRETAIN
 70
     1
  9
$PLINEGEN
 70
     0
  9
$PSLTSCALE
 70
     1
  9
$TREEDEPTH
 70
  3020
  9
$CMLSTYLE
  2
Standard
  9
$CMLJUST
 70
     0
  9
$CMLSCALE
 40
20.0
  9
$PROXYGRAPHICS
 70
     1
  9
$MEASUREMENT
 70
     1
  9
$CELWEIGHT
370
    -1
  9
$ENDCAPS
280
     0
  9
$JOINSTYLE
280
     0
  9
$LWDISPLAY
290
     0
  9
$INSUNITS
 70
     4
  9
$HYPERLINKBASE
  1

  9
$STYLESHEET
  1
monochrome.ctb
  9
$XEDIT
290
     1
  9
$CEPSNTYPE
380
     0
  9
$PSTYLEMODE
290
     1
  9
$FINGERPRINTGUID
  2
{83FB3AA1-FF18-4BFE-AFE0-611B71DE056D}
  9
$VERSIONGUID
  2
{E12AB54E-52B6-4B7F-A2CF-98F21347D6F8}
  9
$EXTNAMES
290
     1
  9
$PSVPSCALE
 40
0.0
  9
$OLESTARTUP
290
     0
  0
ENDSEC
  0
SECTION
  2
CLASSES
  0
CLASS
  1
ACDBDICTIONARYWDFLT
  2
AcDbDictionaryWithDefault
  3
ObjectDBX Classes
 90
        0
280
     0
281
     0
  0
CLASS
  1
ACDBPLACEHOLDER
  2
AcDbPlaceHolder
  3
ObjectDBX Classes
 90
        0
280
     0
281
     0
  0
CLASS
  1
LAYOUT
  2
AcDbLayout
  3
ObjectDBX Classes
 90
        0
280
     0
281
     0
  0
CLASS
  1
AMGSETTINGSOBJ
  2
AmgSettingsObj
  3
"AcadM|Product Description: AutoCAD Mechanical|Company: Autodesk"
 90
        0
280
     0
281
     0
  0
CLASS
  1
ACME_DOCUMENT
  2
AcMeDbDoc
  3
AcMeServices
 90
        0
280
     0
281
     0
  0
CLASS
  1
ACMESCOPE
  2
AcMeScope
  3
AcMeServices
 90
        0
280
     0
281
     0
  0
CLASS
  1
ACMECOMMANDHISTORY
  2
AcMeCommandHistory
  3
AcMeServices
 90
        0
280
     0
281
     0
  0
CLASS
  1
DICTIONARYVAR
  2
AcDbDictionaryVar
  3
ObjectDBX Classes
 90
        0
280
     0
281
     0
  0
CLASS
  1
ACIMSYSVARMAN
  2
AcImSysVarManager
  3
AcMeServices
 90
        0
280
     0
281
     0
  0
CLASS
  1
ACIMREALSYSVAR
  2
AcImRealSysVar
  3
AcMeServices
 90
        0
280
     0
281
     0
  0
CLASS
  1
ACIMINTSYSVAR
  2
AcImIntSysVar
  3
AcMeServices
 90
        0
280
     0
281
     0
  0
CLASS
  1
ACMEDRAWINGMAN
  2
AcMeDrawingMan
  3
AcMeServices
 90
        0
280
     0
281
     0
  0
CLASS
  1
ACMEVIEW
  2
AcMeView
  3
AcMeServices
 90
        0
280
     0
281
     0
  0
CLASS
  1
ACDBENTITYCACHE
  2
AcMeEntityCache
  3
AcMeServices
 90
        0
280
     0
281
     0
  0
CLASS
  1
GSMANAGER
  2
AcMeGSManager
  3
AcMeServices
 90
        0
280
     0
281
     0
  0
CLASS
  1
AMDTINTERNALREACTOR
  2
AmdtInternalReactor
  3
AcMeServices
 90
        0
280
     0
281
     0
  0
CLASS
  1
ACMESTATEMGR
  2
AcMeStateMgr
  3
AcMeServices
 90
        0
280
     0
281
     0
  0
CLASS
  1
ACGREFMASTER
  2
AcGrefMaster
  3
AcAttribServices
 90
        0
280
     0
281
     0
  0
CLASS
  1
ACME_DATABASE
  2
AcMeDbDatabase
  3
AcMeServices
 90
        0
280
     0
281
     0
  0
CLASS
  1
ACRFINSADJUSTERMGR
  2
AcRfInsAdjusterMgr
  3
AcMeServices
 90
        0
280
     0
281
     0
  0
CLASS
  1
ACGREFACADMASTER
  2
AcGrefacadMaster
  3
AcGrefServices
 90
        0
280
     0
281
     0
  0
CLASS
  1
AMIMASTER
  2
AmiMaster
  3
AmiServices
 90
        0
280
     0
281
     0
  0
CLASS
  1
ACMDATADICTIONARY
  2
AcmDataDictionary
  3
"AcmSymBB|Product Description: AutoCAD Mechanical|Company: Autodesk"
 90
        0
280
     0
281
     0
  0
CLASS
  1
ACMDATAENTRYBLOCK
  2
AcmDataEntryBlock
  3
"AcmSymBB|Product Description: AutoCAD Mechanical|Company: Autodesk"
 90
        0
280
     0
281
     0
  0
CLASS
  1
ACIMSTRSYSVAR
  2
AcImStrSysVar
  3
AcMeServices
 90
        0
280
     0
281
     0
  0
CLASS
  1
ACMSTANDARDISO
  2
AcmStandardISO
  3
"Amdt_StdImp|Product Description: AutoCAD Mechanical|Company: Autodesk"
 90
        0
280
     0
281
     0
  0
CLASS
  1
AMGOBJPROPCFG
  2
AmgObjPropCfg
  3
"AmgLay|Product Description: AutoCAD Mechanical|Company: Autodesk"
 90
        1
280
     0
281
     0
  0
CLASS
  1
AMDTEDGESTANDARDISO
  2
AmdtEdgeStdISO
  3
"Amdt_StdImp|Product Description: AutoCAD Mechanical|Company: Autodesk"
 90
        0
280
     0
281
     0
  0
CLASS
  1
ACMSURFSTANDARDISO
  2
AcmSurfTextStdISO
  3
"Amdt_StdImp|Product Description: AutoCAD Mechanical|Company: Autodesk"
 90
        0
280
     0
281
     0
  0
CLASS
  1
ACMFCFSTANDARDISO
  2
AcmFCFStdISO
  3
"Amdt_StdImp|Product Description: AutoCAD Mechanical|Company: Autodesk"
 90
        0
280
     0
281
     0
  0
CLASS
  1
ACMWELDSTANDARDISO
  2
AcmWeldingStdISO
  3
"Amdt_StdImp|Product Description: AutoCAD Mechanical|Company: Autodesk"
 90
        0
280
     0
281
     0
  0
CLASS
  1
ACMIDSTANDARDISO
  2
AcmIdStdISO
  3
"Amdt_StdImp|Product Description: AutoCAD Mechanical|Company: Autodesk"
 90
        0
280
     0
281
     0
  0
CLASS
  1
ACMDATUMSTANDARDISO
  2
AcmDatumStdISO
  3
"Amdt_StdImp|Product Description: AutoCAD Mechanical|Company: Autodesk"
 90
        0
280
     0
281
     0
  0
CLASS
  1
ACMBOMSTANDARDISO
  2
AcmBOMStdISO
  3
"Amdt_StdImp|Product Description: AutoCAD Mechanical|Company: Autodesk"
 90
        0
280
     0
281
     0
  0
CLASS
  1
ACMDETAILSTANDARDISO
  2
AmdtDetailSymStdISO
  3
"Amdt_StdImp|Product Description: AutoCAD Mechanical|Company: Autodesk"
 90
        0
280
     0
281
     0
  0
CLASS
  1
ACMSECTIONSTANDARDISO
  2
AmdtSectionSymStdISO
  3
"Amdt_StdImp|Product Description: AutoCAD Mechanical|Company: Autodesk"
 90
        0
280
     0
281
     0
  0
CLASS
  1
ACMCENTERLINESTANDARDISO
  2
AmdtCenterLineStdISO
  3
"Amdt_StdImp|Product Description: AutoCAD Mechanical|Company: Autodesk"
 90
        0
280
     0
281
     0
  0
CLASS
  1
ACAMGLAYSTD
  2
AcAmgLayStd
  3
"AmgLay|Product Description: AutoCAD Mechanical|Company: Autodesk"
 90
        0
280
     0
281
     0
  0
CLASS
  1
ACAMGDIMSTD
  2
AcAmgDimStd
  3
"AmgDim|Product Description: AutoCAD Mechanical|Company: Autodesk"
 90
        0
280
     0
281
     0
  0
CLASS
  1
ACAMGTITLESTD
  2
AcAmgTitleStd
  3
"AmgTitle|Product Description: AutoCAD Mechanical|Company: Autodesk"
 90
        0
280
     0
281
     0
  0
CLASS
  1
ACAMGFILTERDAT
  2
AcAmgFilterDat
  3
"AcadM|Product Description: AutoCAD Mechanical|Company: Autodesk"
 90
        0
280
     0
281
     0
  0
CLASS
  1
LAYER_INDEX
  2
AcDbLayerIndex
  3
ObjectDBX Classes
 90
    32768
280
     0
281
     0
  0
CLASS
  1
IDBUFFER
  2
AcDbIdBuffer
  3
ObjectDBX Classes
 90
    32768
280
     0
281
     0
  0
CLASS
  1
PLOTSETTINGS
  2
AcDbPlotSettings
  3
ObjectDBX Classes
 90
        0
280
     0
281
     0
  0
CLASS
  1
AMDTFORMULAUPDATEDISPATCHER
  2
AmdtFormulaUpdateDispatcher
  3
AcMeServices
 90
        0
280
     0
281
     0
  0
CLASS
  1
ACMSTANDARDANSI
  2
AcmStandardANSI
  3
"Amdt_StdImp|Product Description: AutoCAD Mechanical|Company: Autodesk"
 90
        0
280
     0
281
     0
  0
CLASS
  1
ACMSURFSTANDARDANSI
  2
AcmSurfTextStdANSI
  3
"Amdt_StdImp|Product Description: AutoCAD Mechanical|Company: Autodesk"
 90
        0
280
     0
281
     0
  0
CLASS
  1
ACMFCFSTANDARDANSI
  2
AcmFCFStdANSI
  3
"Amdt_StdImp|Product Description: AutoCAD Mechanical|Company: Autodesk"
 90
        0
280
     0
281
     0
  0
CLASS
  1
ACMWELDSTANDARDANSI
  2
AcmWeldingStdANSI
  3
"Amdt_StdImp|Product Description: AutoCAD Mechanical|Company: Autodesk"
 90
        0
280
     0
281
     0
  0
CLASS
  1
ACMIDSTANDARDANSI
  2
AcmIdStdANSI
  3
"Amdt_StdImp|Product Description: AutoCAD Mechanical|Company: Autodesk"
 90
        0
280
     0
281
     0
  0
CLASS
  1
ACMDATUMSTANDARDANSI
  2
AcmDatumStdANSI
  3
"Amdt_StdImp|Product Description: AutoCAD Mechanical|Company: Autodesk"
 90
        0
280
     0
281
     0
  0
CLASS
  1
ACMBOMSTANDARDANSI
  2
AcmBOMStdANSI
  3
"Amdt_StdImp|Product Description: AutoCAD Mechanical|Company: Autodesk"
 90
        0
280
     0
281
     0
  0
CLASS
  1
ACMDETAILSTANDARDANSI
  2
AmdtDetailSymStdANSI
  3
"Amdt_StdImp|Product Description: AutoCAD Mechanical|Company: Autodesk"
 90
        0
280
     0
281
     0
  0
CLASS
  1
ACMSECTIONSTANDARDANSI
  2
AmdtSectionSymStdANSI
  3
"Amdt_StdImp|Product Description: AutoCAD Mechanical|Company: Autodesk"
 90
        0
280
     0
281
     0
  0
CLASS
  1
ACMCENTERLINESTANDARDANSI
  2
AmdtCenterLineStdANSI
  3
"Amdt_StdImp|Product Description: AutoCAD Mechanical|Company: Autodesk"
 90
        0
280
     0
281
     0
  0
CLASS
  1
ACMBOM
  2
AcmBom
  3
"AcmSymBB|Product Description: AutoCAD Mechanical|Company: Autodesk"
 90
        0
280
     0
281
     0
  0
CLASS
  1
ACMDATAENTRYPART
  2
AcmDataEntryPart
  3
"AcmSymBB|Product Description: AutoCAD Mechanical|Company: Autodesk"
 90
    32768
280
     0
281
     0
  0
CLASS
  1
ACMPARTREF
  2
AcmPartRef
  3
"AcmSymBB|Product Description: AutoCAD Mechanical|Company: Autodesk"
 90
    35839
280
     0
281
     1
  0
CLASS
  1
ACDBCIRCARCRES
  2
AcDbCircArcRes
  3
AcGrefServices
 90
    32768
280
     0
281
     0
  0
CLASS
  1
ACMBOMROW
  2
AcmBomRow
  3
"AcmSymBB|Product Description: AutoCAD Mechanical|Company: Autodesk"
 90
    32768
280
     0
281
     0
  0
CLASS
  1
ACMBALLOON
  2
AcmBalloon
  3
"AcmSymBB|Product Description: AutoCAD Mechanical|Company: Autodesk"
 90
    35839
280
     0
281
     1
  0
CLASS
  1
AMDTNOTE
  2
AmdtNote
  3
"AcmSymBB|Product Description: AutoCAD Mechanical|Company: Autodesk"
 90
     3071
280
     0
281
     1
  0
CLASS
  1
STDPART2D
  2
AmgStdPart
  3
"AmgStdPart|Product Description: AutoCAD Mechanical|Company: Autodesk"
 90
    35839
280
     0
281
     1
  0
CLASS
  1
ACDBSTDPARTRES_LINE
  2
AcDbStdPartRes_Line
  3
"AmgStdPart|Product Description: AutoCAD Mechanical|Company: Autodesk"
 90
    32768
280
     0
281
     0
  0
CLASS
  1
ACMDATAENTRY
  2
AcmDataEntry
  3
"AcmSymBB|Product Description: AutoCAD Mechanical|Company: Autodesk"
 90
        0
280
     0
281
     0
  0
CLASS
  1
ACDBOPPOLYLINERES
  2
AcDbOpPolylineRes
  3
AcGrefServices
 90
    32768
280
     0
281
     0
  0
CLASS
  1
ACMPARTLIST
  2
AcmPartList
  3
"AcmSymBB|Product Description: AutoCAD Mechanical|Company: Autodesk"
 90
    35839
280
     0
281
     1
  0
CLASS
  1
ACDBLINERES
  2
AcDbLineRes
  3
AcGrefServices
 90
    32768
280
     0
281
     0
  0
CLASS
  1
ACRFINSADJ
  2
AcRfInsAdjuster
  3
AcMeServices
 90
    32768
280
     0
281
     0
  0
CLASS
  1
AM_DRAWING_MGR
  2
AcDmDwgMgr
  3
AcMechDwgViewMgmt
 90
        0
280
     0
281
     0
  0
CLASS
  1
AM_DWG_DOCUMENT
  2
AcDmDwgDocument
  3
AcMechDwgViewMgmt
 90
        0
280
     0
281
     0
  0
CLASS
  1
AM_DWG_SHEET
  2
AcDmSheet
  3
AcMechDwgViewMgmt
 90
        0
280
     0
281
     0
  0
CLASS
  1
AM_VIEWDIMPARMAP
  2
AcDmViewDimParMap
  3
AcMechDwgViewMgmt
 90
        0
280
     0
281
     0
  0
CLASS
  1
AM_DWGMGR_NAME
  2
AcDmDwgMgrName
  3
AcMechDwgViewMgmt
 90
        0
280
     0
281
     0
  0
CLASS
  1
AMDTMENUSTATEMGR
  2
AmdtMenuStateMgr
  3
McadcomServices
 90
        0
280
     0
281
     0
  0
CLASS
  1
AMDTMCOMMENUSTATE
  2
AmdtMcomMenuState
  3
McadcomServices
 90
        0
280
     0
281
     0
  0
CLASS
  1
ASAPP
  2
AcAsAppObject
  3
AutoSurfServices
 90
        0
280
     0
281
     0
  0
CLASS
  1
IM_STATIC_MAN
  2
AcImStaticVarManager
  3
AcMeServices
 90
        0
280
     0
281
     0
  0
CLASS
  1
ACIMDBLSTATICVAR
  2
AcImDblStaticVar
  3
AcMeServices
 90
        0
280
     0
281
     0
  0
CLASS
  1
ACIMSTRSTATICVAR
  2
AcImStrStaticVar
  3
AcMeServices
 90
        0
280
     0
281
     0
  0
CLASS
  1
ACIMINTSTATICVAR
  2
AcImIntStaticVar
  3
AcMeServices
 90
        0
280
     0
281
     0
  0
CLASS
  1
ACASGREFMASTER
  2
AcAsGrefMaster
  3
AutoSurfResolverServices
 90
        0
280
     0
281
     0
  0
CLASS
  1
ACADGREFMODULE
  2
AcAdGrefModule
  3
AdGrefServices
 90
        0
280
     0
281
     0
  0
CLASS
  1
AMDTMAPISURFMOUDULE
  2
AmdtMApiSurfModule
  3
MApiSurfServices
 90
        0
280
     0
281
     0
  0
CLASS
  1
MAPIAMMOUDLE
  2
MApiAmModule
  3
MApiAmServices
 90
        0
280
     0
281
     0
  0
CLASS
  1
AMDTADMENUSTATE
  2
AmdtAdMenuState
  3
DesignerServices
 90
        0
280
     0
281
     0
  0
CLASS
  1
ADAPPL
  2
AcAdAppl
  3
DesignerServices
 90
        0
280
     0
281
     0
  0
CLASS
  1
DEPMGR
  2
AcAdDepMgr
  3
DesignerServices
 90
        0
280
     0
281
     0
  0
CLASS
  1
PARAMMGR
  2
AcAdParamMgr
  3
DesignerServices
 90
        0
280
     0
281
     0
  0
CLASS
  1
PARAMSCOPE
  2
AcAdParamScope
  3
DesignerServices
 90
        0
280
     0
281
     0
  0
CLASS
  1
NAMEDAPPL
  2
AcAdNamedAppl
  3
DesignerServices
 90
        0
280
     0
281
     0
  0
CLASS
  1
ADHNTMPLT
  2
AdHoleNoteTemplateMgr
  3
DesignerServices
 90
    32768
280
     0
281
     0
  0
CLASS
  1
AM_HNTEMPLATE_MGR_NAME
  2
AdHoleNoteTemplateMgrName
  3
DesignerServices
 90
    32768
280
     0
281
     0
  0
CLASS
  1
AMDTDMMENUSTATE
  2
AmdtDmMenuState
  3
AcMechDwgViewMgmt
 90
        0
280
     0
281
     0
  0
CLASS
  1
MAPIADMODULE
  2
MApiAdModule
  3
MApiAdServices
 90
        0
280
     0
281
     0
  0
CLASS
  1
AMDTAMMENUSTATE
  2
AmdtAmMenuState
  3
DesignerAssemblies
 90
        0
280
     0
281
     0
  0
CLASS
  1
ACAMPROJECT
  2
AcAmProject
  3
DesignerAssemblies
 90
        0
280
     0
281
     0
  0
CLASS
  1
ACAMGRCOMPDEF
  2
AcAmGrCompDef
  3
DesignerAssemblies
 90
        0
280
     0
281
     0
  0
CLASS
  1
ACCMCONTEXT
  2
AcCmContext
  3
DesignerAssemblies
 90
        0
280
     0
281
     0
  0
CLASS
  1
ACAMCOMPDEF
  2
AcAmCompDef
  3
DesignerAssemblies
 90
        0
280
     0
281
     0
  0
CLASS
  1
ACAMCOMPDEFMGR
  2
AcAmCompDefMgr
  3
DesignerAssemblies
 90
        0
280
     0
281
     0
  0
CLASS
  1
AMCONTEXTMGR
  2
AcAmContextMgr
  3
DesignerAssemblies
 90
        0
280
     0
281
     0
  0
CLASS
  1
ACAMCONTEXTMODELER
  2
AcAmContextModeler
  3
DesignerAssemblies
 90
        0
280
     0
281
     0
  0
CLASS
  1
CATALOGSTATE
  2
AcAmCatalogState
  3
DesignerAssemblies
 90
        0
280
     0
281
     0
  0
CLASS
  1
ACAMGRCOMPDEFSET
  2
AcAmGrCompDefSet
  3
DesignerAssemblies
 90
        0
280
     0
281
     0
  0
CLASS
  1
AMDTBROWSERDBTAB
  2
AmdtBrowserDbTab
  3
McadcomServices
 90
        0
280
     0
281
     0
  0
CLASS
  1
CBROWSERAPPOBJECT
  2
CBrowserAppObject
  3
McadcomServices
 90
        0
280
     0
281
     0
  0
CLASS
  1
DM_PLACEHOLDER
  2
AcDmSelsetPlaceholder
  3
AcMechDwgViewMgmt
 90
        0
280
     0
281
     0
  0
CLASS
  1
ACMPICKOBJ
  2
AcmPickEnt
  3
"AcmSymBB|Product Description: AutoCAD Mechanical|Company: Autodesk"
 90
    32768
280
     0
281
     1
  0
CLASS
  1
MATERIAL
  2
AcDbMaterial
  3
ObjectDBX Classes
 90
     1153
280
     0
281
     0
  0
CLASS
  1
VISUALSTYLE
  2
AcDbVisualStyle
  3
ObjectDBX Classes
 90
     4095
280
     0
281
     0
  0
CLASS
  1
TABLESTYLE
  2
AcDbTableStyle
  3
ObjectDBX Classes
 90
     4095
280
     0
281
     0
  0
CLASS
  1
ACRFATTGENMGR
  2
AcRfAttGeneralMgr
  3
AcAttribServices
 90
        0
280
     0
281
     0
  0
CLASS
  1
ACRFOBJATTMGR
  2
AcRfObjAttGroupMgr
  3
AcAttribServices
 90
        0
280
     0
281
     0
  0
CLASS
  1
ACRFMCADAPIATTHOLDER
  2
AcRfMCADAPIAttHolder
  3
AcAttribServices
 90
        0
280
     0
281
     0
  0
CLASS
  1
AMDTSYSATTR
  2
AmdtSystemAttribute
  3
AcAttribServices
 90
        0
280
     0
281
     0
  0
CLASS
  1
ACMTHREADLINESTANDARDISO
  2
AmdtThreadLineStdISO
  3
"Amdt_StdImp|Product Description: AutoCAD Mechanical|Company: Autodesk"
 90
        0
280
     0
281
     0
  0
CLASS
  1
ACMNOTESTANDARDISO
  2
AmdtNoteStdISO
  3
"Amdt_StdImp|Product Description: AutoCAD Mechanical|Company: Autodesk"
 90
        0
280
     0
281
     0
  0
CLASS
  1
AMDTNOTETEMPLATEDB
  2
AmdtNoteTemplateDB
  3
AMDT_STDIMP_MODULE_NAME
 90
        0
280
     0
281
     0
  0
CLASS
  1
ACMTAPERSTANDARDISO
  2
AcmTaperStdISO
  3
"Amdt_StdImp|Product Description: AutoCAD Mechanical|Company: Autodesk"
 90
        0
280
     0
281
     0
  0
CLASS
  1
ACMTHREADLINESTANDARDANSI
  2
AmdtThreadLineStdANSI
  3
"Amdt_StdImp|Product Description: AutoCAD Mechanical|Company: Autodesk"
 90
        0
280
     0
281
     0
  0
CLASS
  1
ACMNOTESTANDARDANSI
  2
AmdtNoteStdANSI
  3
"Amdt_StdImp|Product Description: AutoCAD Mechanical|Company: Autodesk"
 90
        0
280
     0
281
     0
  0
CLASS
  1
ACMTAPERSTANDARDANSI
  2
AcmTaperStdANSI
  3
"Amdt_StdImp|Product Description: AutoCAD Mechanical|Company: Autodesk"
 90
        0
280
     0
281
     0
  0
CLASS
  1
CAMSSTRUCTBTNSTATE
  2
StructBtnState
  3
L"DesignerAssemblies"
 90
        0
280
     0
281
     0
  0
CLASS
  1
SORTENTSTABLE
  2
AcDbSortentsTable
  3
ObjectDBX Classes
 90
        0
280
     0
281
     0
  0
CLASS
  1
DIMASSOC
  2
AcDbDimAssoc
  3
"AcDbDimAssoc|Product Desc:     AcDim ARX App For Dimension|Company:          Autodesk, Inc.|WEB Address:      www.autodesk.com"
 90
        0
280
     0
281
     0
  0
ENDSEC
  0
SECTION
  2
TABLES
  0
TABLE
  2
VPORT
  5
8
330
0
100
AcDbSymbolTable
 70
     1
  0
VPORT
  5
C444
330
8
100
AcDbSymbolTableRecord
100
AcDbViewportTableRecord
  2
*Active
 70
     0
 10
0.0
 20
0.0
 11
1.0
 21
1.0
 12
134.8955605348875
 22
103.2897676042337
 13
0.0
 23
0.0
 14
2.5
 24
2.5
 15
10.0
 25
10.0
 16
0.0
 26
0.0
 36
1.0
 17
0.0
 27
0.0
 37
0.0
 40
228.412023716271
 41
1.902843601895734
 42
50.0
 43
-1370.695619172058
 44
-1370.695619172058
 50
0.0
 51
0.0
 71
    16
 72
   100
 73
     1
 74
     3
 75
     0
 76
     0
 77
     0
 78
     0
281
     0
 65
     0
110
0.0
120
0.0
130
0.0
111
1.0
121
0.0
131
0.0
112
0.0
122
1.0
132
0.0
 79
     0
146
0.0
  0
ENDTAB
  0
TABLE
  2
LTYPE
  5
5
330
0
100
AcDbSymbolTable
 70
    36
  0
LTYPE
  5
14
330
5
100
AcDbSymbolTableRecord
100
AcDbLinetypeTableRecord
  2
ByBlock
 70
     0
  3

 72
    65
 73
     0
 40
0.0
  0
LTYPE
  5
15
330
5
100
AcDbSymbolTableRecord
100
AcDbLinetypeTableRecord
  2
ByLayer
 70
     0
  3

 72
    65
 73
     0
 40
0.0
  0
LTYPE
  5
16
330
5
100
AcDbSymbolTableRecord
100
AcDbLinetypeTableRecord
  2
Continuous
 70
     0
  3
Solid line
 72
    65
 73
     0
 40
0.0
  0
LTYPE
  5
4F
330
5
100
AcDbSymbolTableRecord
100
AcDbLinetypeTableRecord
  2
AM_ISO02W050
 70
     0
  3
__ __ __ __ __ __ __ __ __ __ __ __ __ __ __
 72
    65
 73
     2
 40
7.5
 49
6.0
 74
     0
 49
-1.5
 74
     0
  0
LTYPE
  5
52
330
5
100
AcDbSymbolTableRecord
100
AcDbLinetypeTableRecord
  2
Amconstr
 70
     0
  3
_______________________
 72
    65
 73
     2
 40
9999.0
 49
9999.0
 74
     0
 49
0.0
 74
     0
  0
LTYPE
  5
64
330
5
100
AcDbSymbolTableRecord
100
AcDbLinetypeTableRecord
  2
ACISOWELD
 70
     0
  3
_ _ _ _ _
 72
    65
 73
     2
 40
2.0
 49
2.0
 74
     0
 49
-1.0
 74
     0
  0
LTYPE
  5
65
330
5
100
AcDbSymbolTableRecord
100
AcDbLinetypeTableRecord
  2
ACISOTGB
 70
     0
  3
__ . . __ . .
 72
    65
 73
     6
 40
9.0
 49
4.0
 74
     0
 49
-1.0
 74
     0
 49
1.0
 74
     0
 49
-1.0
 74
     0
 49
1.0
 74
     0
 49
-1.0
 74
     0
  0
LTYPE
  5
66
330
5
100
AcDbSymbolTableRecord
100
AcDbLinetypeTableRecord
  2
ACISOTGL
 70
     0
  3
_ _ _ _ _
 72
    65
 73
     2
 40
3.0
 49
2.0
 74
     0
 49
-1.0
 74
     0
  0
LTYPE
  5
69
330
5
100
AcDbSymbolTableRecord
100
AcDbLinetypeTableRecord
  2
CENTER
 70
     0
  3
__ . __
 72
    65
 73
     4
 40
7.0
 49
4.0
 74
     0
 49
-1.0
 74
     0
 49
1.0
 74
     0
 49
-1.0
 74
     0
  0
LTYPE
  5
A6E
330
5
100
AcDbSymbolTableRecord
100
AcDbLinetypeTableRecord
  2
PHANTOM2
 70
     0
  3
Phantom (.5x) ___ _ _ ___ _ _ ___ _ _ ___ _ _
 72
    65
 73
     6
 40
31.75
 49
15.875
 74
     0
 49
-3.174999999999999
 74
     0
 49
3.174999999999999
 74
     0
 49
-3.174999999999999
 74
     0
 49
3.174999999999999
 74
     0
 49
-3.174999999999999
 74
     0
  0
LTYPE
  5
FA3
330
5
100
AcDbSymbolTableRecord
100
AcDbLinetypeTableRecord
  2
ACANSTGB
 70
     0
  3
__ . . __ . .
 72
    65
 73
     6
 40
0.35433070866
 49
0.15748031496
 74
     0
 49
-0.03937007874
 74
     0
 49
0.03937007874
 74
     0
 49
-0.03937007874
 74
     0
 49
0.03937007874
 74
     0
 49
-0.03937007874
 74
     0
  0
LTYPE
  5
FA4
330
5
100
AcDbSymbolTableRecord
100
AcDbLinetypeTableRecord
  2
ACANSTGL
 70
     0
  3
_ _ _ _ _
 72
    65
 73
     2
 40
0.11811023622
 49
0.07874015748
 74
     0
 49
-0.03937007874
 74
     0
  0
LTYPE
  5
4DED
330
5
100
AcDbSymbolTableRecord
100
AcDbLinetypeTableRecord
  2
中線
 70
     0
  3
___________________
 72
    65
 73
     2
 40
2.0
 49
1.0
 74
     0
 49
1.0
 74
     0
  0
LTYPE
  5
4DF6
330
5
100
AcDbSymbolTableRecord
100
AcDbLinetypeTableRecord
  2
細線
 70
     0
  3
___________________
 72
    65
 73
     2
 40
2.0
 49
1.0
 74
     0
 49
1.0
 74
     0
  0
LTYPE
  5
4DF7
330
5
100
AcDbSymbolTableRecord
100
AcDbLinetypeTableRecord
  2
太線
 70
     0
  3
___________________
 72
    65
 73
     2
 40
2.0
 49
1.0
 74
     0
 49
1.0
 74
     0
  0
LTYPE
  5
4EA7
330
5
100
AcDbSymbolTableRecord
100
AcDbLinetypeTableRecord
  2
文字
 70
     0
  3
_________________
 72
    65
 73
     2
 40
2.0
 49
1.0
 74
     0
 49
1.0
 74
     0
  0
LTYPE
  5
4EA9
330
5
100
AcDbSymbolTableRecord
100
AcDbLinetypeTableRecord
  2
寸法線
 70
     0
  3
________________
 72
    65
 73
     2
 40
2.0
 49
1.0
 74
     0
 49
1.0
 74
     0
  0
LTYPE
  5
4F12
330
5
100
AcDbSymbolTableRecord
100
AcDbLinetypeTableRecord
  2
ハッチング
 70
     0
  3
_________________
 72
    65
 73
     2
 40
2.0
 49
1.0
 74
     0
 49
1.0
 74
     0
  0
LTYPE
  5
5180
330
5
100
AcDbSymbolTableRecord
100
AcDbLinetypeTableRecord
  2
陰線1
 70
     0
  3
__ __ __ __
 72
    65
 73
     2
 40
4.0
 49
2.2
 74
     0
 49
-1.8
 74
     0
  0
LTYPE
  5
5182
330
5
100
AcDbSymbolTableRecord
100
AcDbLinetypeTableRecord
  2
切断線
 70
     0
  3
/\/-/\/-/\/-/\/-/\/-/\/
 72
    65
 73
     2
 40
11.0001
 49
0.0001
 74
     4
 75
   135
340
56
 46
0.04
 50
0.0
 44
0.0
 45
0.0
 49
-11.0
 74
     0
  0
LTYPE
  5
5183
330
5
100
AcDbSymbolTableRecord
100
AcDbLinetypeTableRecord
  2
想像線1
 70
     0
  3
__ __ __ _____ __ __ ____
 72
    65
 73
     6
 40
14.5
 49
6.0
 74
     0
 49
-1.5
 74
     0
 49
2.0
 74
     0
 49
-1.5
 74
     0
 49
2.0
 74
     0
 49
-1.5
 74
     0
  0
LTYPE
  5
5185
330
5
100
AcDbSymbolTableRecord
100
AcDbLinetypeTableRecord
  2
中心線1
 70
     0
  3
___ _ ___ _ ___
 72
    65
 73
     4
 40
18.0
 49
12.0
 74
     0
 49
-2.0
 74
     0
 49
2.0
 74
     0
 49
-2.0
 74
     0
  0
LTYPE
  5
5188
330
5
100
AcDbSymbolTableRecord
100
AcDbLinetypeTableRecord
  2
補助線
 70
     0
  3
______________
 72
    65
 73
     2
 40
2.0
 49
1.0
 74
     0
 49
1.0
 74
     0
  0
LTYPE
  5
C49C
330
5
100
AcDbSymbolTableRecord
100
AcDbLinetypeTableRecord
  2
HIDDEN
 70
     0
  3
Hidden __ __ __ __ __ __ __ __ __ __ __ __ __ _
 72
    65
 73
     2
 40
9.524999999999998
 49
6.349999999999999
 74
     0
 49
-3.174999999999999
 74
     0
  0
LTYPE
  5
C543
330
5
100
AcDbSymbolTableRecord
100
AcDbLinetypeTableRecord
  2
AM_ISO08W050
 70
     0
  3
____ . ____ . ____ . ____ . ____ . ____ . ____
 72
    65
 73
     4
 40
18.0
 49
12.0
 74
     0
 49
-1.5
 74
     0
 49
3.0
 74
     0
 49
-1.5
 74
     0
  0
LTYPE
  5
C544
330
5
100
AcDbSymbolTableRecord
100
AcDbLinetypeTableRecord
  2
AM_ISO09W050
 70
     0
  3
_____ . . _____ . . _____ . . ____ .. ____
 72
    65
 73
     6
 40
22.5
 49
12.0
 74
     0
 49
-1.5
 74
     0
 49
3.0
 74
     0
 49
-1.5
 74
     0
 49
3.0
 74
     0
 49
-1.5
 74
     0
  0
LTYPE
  5
C545
330
5
100
AcDbSymbolTableRecord
100
AcDbLinetypeTableRecord
  2
AM_ISO08W050x2
 70
     0
  3
__ . __ . __ . __ . __ . __
 72
    65
 73
     4
 40
9.0
 49
6.0
 74
     0
 49
-0.75
 74
     0
 49
1.5
 74
     0
 49
-0.75
 74
     0
  0
LTYPE
  5
C546
330
5
100
AcDbSymbolTableRecord
100
AcDbLinetypeTableRecord
  2
AM_ISO02W050x2
 70
     0
  3
 _ _ _ _ _ _ _ _ _ _ _ _
 72
    65
 73
     2
 40
3.75
 49
3.0
 74
     0
 49
-0.75
 74
     0
  0
LTYPE
  5
C547
330
5
100
AcDbSymbolTableRecord
100
AcDbLinetypeTableRecord
  2
Amzigzag
 70
     0
  3
/\/-/\/-/\/-/\/-/\/-/\/
 72
    65
 73
     2
 40
11.0001
 49
0.0001
 74
     4
 75
   135
340
56
 46
0.04
 50
0.0
 44
0.0
 45
0.0
 49
-11.0
 74
     0
  0
LTYPE
  5
C7E7
330
5
100
AcDbSymbolTableRecord
100
AcDbLinetypeTableRecord
  2
genzigzag
 70
     0
  3
/\/-/\/-/\/-/\/-/\/-/\/
 72
    65
 73
     2
 40
12.0001
 49
0.0001
 74
     4
 75
   135
340
C7EB
 46
2.0
 50
0.0
 44
0.0
 45
0.0
 49
-12.0
 74
     0
  0
LTYPE
  5
E598
330
5
100
AcDbSymbolTableRecord
100
AcDbLinetypeTableRecord
  2
BORDER
 70
     0
  3
__ __ . __ __ . __ __ . __ __ . __ __ . __ __ .
 72
    65
 73
     6
 40
8.75
 49
2.5
 74
     0
 49
-1.25
 74
     0
 49
2.5
 74
     0
 49
-1.25
 74
     0
 49
0.0
 74
     0
 49
-1.25
 74
     0
  0
LTYPE
  5
E599
330
5
100
AcDbSymbolTableRecord
100
AcDbLinetypeTableRecord
  2
CENTER2
 70
     0
  3
___ _ ___ _ ___ _ ___ _ ___ _ ___ _ ___ _ ___ _
 72
    65
 73
     4
 40
8.4
 49
4.65
 74
     0
 49
-1.25
 74
     0
 49
1.25
 74
     0
 49
-1.25
 74
     0
  0
LTYPE
  5
E59A
330
5
100
AcDbSymbolTableRecord
100
AcDbLinetypeTableRecord
  2
HIDDEN2
 70
     0
  3
_ _ _ _ _ _ _ _ _ _ _ _ _ _ _ _ _ _ _ _ _ _ _ _
 72
    65
 73
     2
 40
1.25
 49
0.625
 74
     0
 49
-0.625
 74
     0
  0
LTYPE
  5
E59B
330
5
100
AcDbSymbolTableRecord
100
AcDbLinetypeTableRecord
  2
Amzigzag2
 70
     0
  3
/\/-/\/-/\/-/\/-/\/-/\/
 72
    65
 73
     2
 40
0.4401
 49
0.0001
 74
     4
 75
   136
340
C7EB
 46
0.0016
 50
0.0
 44
0.0
 45
0.0
 49
-0.4400000000000001
 74
     0
  0
LTYPE
  5
223E4
330
5
100
AcDbSymbolTableRecord
100
AcDbLinetypeTableRecord
  2
DOT
 70
     0
  3
. . . . . . . . . . . . . . . . . . . . . . . .
 72
    65
 73
     2
 40
1.25
 49
0.0
 74
     0
 49
-1.25
 74
     0
  0
LTYPE
  5
25232
330
5
100
AcDbSymbolTableRecord
100
AcDbLinetypeTableRecord
  2
DIVIDE
 70
     0
  3
____ . . ____ . . ____ . . ____ . . ____ . . __
 72
    65
 73
     6
 40
6.25
 49
2.5
 74
     0
 49
-1.25
 74
     0
 49
0.0
 74
     0
 49
-1.25
 74
     0
 49
0.0
 74
     0
 49
-1.25
 74
     0
  0
LTYPE
  5
55C6D
330
5
100
AcDbSymbolTableRecord
100
AcDbLinetypeTableRecord
  2
DASHED
 70
     0
  3
__ __ __ __ __ __ __ __ __ __ __ __ __ __ __ __
 72
    65
 73
     2
 40
4.5
 49
3.0
 74
     0
 49
-1.5
 74
     0
  0
LTYPE
  5
58163
330
5
100
AcDbSymbolTableRecord
100
AcDbLinetypeTableRecord
  2
PHANTOM
 70
     0
  3
______  __  __  ______  __  __  _____
 72
    65
 73
     6
 40
15.0
 49
7.5
 74
     0
 49
-1.5
 74
     0
 49
1.5
 74
     0
 49
-1.5
 74
     0
 49
1.5
 74
     0
 49
-1.5
 74
     0
  0
ENDTAB
  0
TABLE
  2
LAYER
  5
2
102
{ACAD_XDICTIONARY
360
3F95
102
}
330
0
100
AcDbSymbolTable
 70
    37
  0
LAYER
  5
10
330
2
100
AcDbSymbolTableRecord
100
AcDbLayerTableRecord
  2
0
 70
     0
 62
     7
  6
Continuous
370
    -3
390
F
  0
LAYER
  5
6D1
330
2
100
AcDbSymbolTableRecord
100
AcDbLayerTableRecord
  2
Defpoints
 70
     0
 62
     7
  6
Continuous
290
     0
370
    -3
390
F
  0
LAYER
  5
A46
330
2
100
AcDbSymbolTableRecord
100
AcDbLayerTableRecord
  2
size
 70
     0
 62
     5
  6
Continuous
290
     0
370
    30
390
F
  0
LAYER
  5
A47
330
2
100
AcDbSymbolTableRecord
100
AcDbLayerTableRecord
  2
waku
 70
     0
 62
     7
  6
Continuous
370
    40
390
F
  0
LAYER
  5
A48
330
2
100
AcDbSymbolTableRecord
100
AcDbLayerTableRecord
  2
AM_6
 70
     0
 62
     2
  6
文字
370
    20
390
F
  0
LAYER
  5
FA5
330
2
100
AcDbSymbolTableRecord
100
AcDbLayerTableRecord
  2
1
 70
     0
 62
     7
  6
Continuous
370
    -3
390
F
  0
LAYER
  5
3A31
330
2
100
AcDbSymbolTableRecord
100
AcDbLayerTableRecord
  2
hyosen1
 70
     0
 62
     1
  6
Continuous
370
    30
390
F
  0
LAYER
  5
5765
330
2
100
AcDbSymbolTableRecord
100
AcDbLayerTableRecord
  2
hyomoji
 70
     0
 62
     2
  6
Continuous
370
    20
390
F
  0
LAYER
  5
591A
330
2
100
AcDbSymbolTableRecord
100
AcDbLayerTableRecord
  2
hyosen2
 70
     0
 62
     1
  6
Continuous
370
    20
390
F
  0
LAYER
  5
5F85
330
2
100
AcDbSymbolTableRecord
100
AcDbLayerTableRecord
  2
AM_0
 70
     0
 62
     7
  6
中線
370
    30
390
F
  0
LAYER
  5
5F89
330
2
100
AcDbSymbolTableRecord
100
AcDbLayerTableRecord
  2
AM_4
 70
     0
 62
     3
  6
補助線
370
    20
390
F
  0
LAYER
  5
5F8C
330
2
100
AcDbSymbolTableRecord
100
AcDbLayerTableRecord
  2
AM_8
 70
     0
 62
     1
  6
ハッチング
370
    18
390
F
  0
LAYER
  5
642B
330
2
100
AcDbSymbolTableRecord
100
AcDbLayerTableRecord
  2
AM_CL
 70
     0
 62
     1
  6
Amconstr
370
    20
390
F
  0
LAYER
  5
75AE
330
2
100
AcDbSymbolTableRecord
100
AcDbLayerTableRecord
  2
busen1
 70
     0
 62
    30
  6
Continuous
370
    40
390
F
  0
LAYER
  5
75AF
330
2
100
AcDbSymbolTableRecord
100
AcDbLayerTableRecord
  2
busen2
 70
     0
 62
     2
  6
Continuous
370
    20
390
F
  0
LAYER
  5
BFAA
330
2
100
AcDbSymbolTableRecord
100
AcDbLayerTableRecord
  2
AM_2
 70
     0
 62
     1
  6
細線
370
    20
390
F
  0
LAYER
  5
BFAB
330
2
100
AcDbSymbolTableRecord
100
AcDbLayerTableRecord
  2
AM_5
 70
     0
 62
     3
  6
寸法線
370
    18
390
F
  0
LAYER
  5
BFAC
330
2
100
AcDbSymbolTableRecord
100
AcDbLayerTableRecord
  2
AM_7
 70
     0
 62
     4
  6
中心線1
370
    15
390
F
  0
LAYER
  5
C5FA
330
2
100
AcDbSymbolTableRecord
100
AcDbLayerTableRecord
  2
AM_1
 70
     0
 62
    30
  6
太線
370
    40
390
F
  0
LAYER
  5
C7E8
330
2
100
AcDbSymbolTableRecord
100
AcDbLayerTableRecord
  2
AM_3
 70
     0
 62
     6
  6
陰線1
370
    20
390
F
  0
LAYER
  5
C7E9
330
2
100
AcDbSymbolTableRecord
100
AcDbLayerTableRecord
  2
AM_11
 70
     0
 62
     2
  6
想像線1
370
    20
390
F
  0
LAYER
  5
C7EA
330
2
100
AcDbSymbolTableRecord
100
AcDbLayerTableRecord
  2
AM_12
 70
     0
 62
     7
  6
Continuous
290
     0
370
    20
390
F
  0
LAYER
  5
C82C
330
2
100
AcDbSymbolTableRecord
100
AcDbLayerTableRecord
  2
AM_10
 70
     0
 62
     7
  6
切断線
370
    18
390
F
  0
LAYER
  5
CA36
330
2
100
AcDbSymbolTableRecord
100
AcDbLayerTableRecord
  2
△
 70
     0
 62
   150
  6
中線
370
    15
390
F
1001
AcAecLayerStandard
1000

1000

  0
LAYER
  5
12411
330
2
100
AcDbSymbolTableRecord
100
AcDbLayerTableRecord
  2
4
 70
     0
 62
     7
  6
Continuous
370
    -3
390
F
  0
LAYER
  5
2441C
330
2
100
AcDbSymbolTableRecord
100
AcDbLayerTableRecord
  2
0文字
 70
     0
 62
     2
  6
Continuous
370
    13
390
F
1001
AcAecLayerStandard
1000

1000

  0
LAYER
  5
28AB3
330
2
100
AcDbSymbolTableRecord
100
AcDbLayerTableRecord
  2
7
 70
     0
 62
     7
  6
Continuous
370
    -3
390
F
  0
LAYER
  5
28AB4
330
2
100
AcDbSymbolTableRecord
100
AcDbLayerTableRecord
  2
9
 70
     0
 62
     7
  6
Continuous
370
    -3
390
F
  0
LAYER
  5
28AB5
330
2
100
AcDbSymbolTableRecord
100
AcDbLayerTableRecord
  2
10
 70
     0
 62
     7
  6
Continuous
370
    -3
390
F
  0
LAYER
  5
28AB6
330
2
100
AcDbSymbolTableRecord
100
AcDbLayerTableRecord
  2
11
 70
     0
 62
     7
  6
Continuous
370
    -3
390
F
  0
LAYER
  5
28AB7
330
2
100
AcDbSymbolTableRecord
100
AcDbLayerTableRecord
  2
12
 70
     0
 62
     7
  6
Continuous
370
    -3
390
F
  0
LAYER
  5
28AB8
330
2
100
AcDbSymbolTableRecord
100
AcDbLayerTableRecord
  2
13
 70
     0
 62
     7
  6
Continuous
370
    -3
390
F
  0
LAYER
  5
44023
330
2
100
AcDbSymbolTableRecord
100
AcDbLayerTableRecord
  2
16
 70
     0
 62
     7
  6
Continuous
370
    -3
390
F
  0
LAYER
  5
4FC48
330
2
100
AcDbSymbolTableRecord
100
AcDbLayerTableRecord
  2
3
 70
     0
 62
     7
  6
Continuous
370
    -3
390
F
  0
LAYER
  5
54D7F
330
2
100
AcDbSymbolTableRecord
100
AcDbLayerTableRecord
  2
5
 70
     0
 62
     7
  6
Continuous
370
    -3
390
F
  0
LAYER
  5
58164
330
2
100
AcDbSymbolTableRecord
100
AcDbLayerTableRecord
  2
VIEW0001
 70
     0
 62
     7
  6
Continuous
370
    -3
390
F
  0
LAYER
  5
6021F
330
2
100
AcDbSymbolTableRecord
100
AcDbLayerTableRecord
  2
0000120806 鈴木検図
 70
     0
 62
    10
  6
文字
370
    40
390
F
1001
AcAecLayerStandard
1000

1000

  0
ENDTAB
  0
TABLE
  2
STYLE
  5
3
330
0
100
AcDbSymbolTable
 70
    10
  0
STYLE
  5
11
330
3
100
AcDbSymbolTableRecord
100
AcDbTextStyleTableRecord
  2
STANDARD
 70
     0
 40
0.0
 41
0.7
 50
0.0
 71
     0
 42
3.2
  3
romans.shx
  4
extfont.shx
  0
STYLE
  5
56
330
3
100
AcDbSymbolTableRecord
100
AcDbTextStyleTableRecord
  2

 70
     1
 40
0.0
 41
1.0
 50
0.0
 71
     0
 42
2.5
  3
ltypeshp.shx
  4

  0
STYLE
  5
58
330
3
100
AcDbSymbolTableRecord
100
AcDbTextStyleTableRecord
  2
ACISOTS
 70
     0
 40
1.0
 41
1.0
 50
0.0
 71
     0
 42
2.5
  3
isocp.shx
  4
extfont.shx
  0
STYLE
  5
63
330
3
100
AcDbSymbolTableRecord
100
AcDbTextStyleTableRecord
  2
ACISOGDT
 70
     0
 40
0.0
 41
1.0
 50
0.0
 71
     0
 42
2.5
  3
amgdt.shx
  4

  0
STYLE
  5
A74
330
3
100
AcDbSymbolTableRecord
100
AcDbTextStyleTableRecord
  2
DIM
 70
     0
 40
0.0
 41
1.0
 50
0.0
 71
     0
 42
2.5
  3
monotxt.shx
  4
extfont.shx
  0
STYLE
  5
FA7
330
3
100
AcDbSymbolTableRecord
100
AcDbTextStyleTableRecord
  2
ACANSTS
 70
     0
 40
1.0
 41
1.0
 50
0.0
 71
     0
 42
0.2
  3
romans.shx
  4
extfont.shx
  0
STYLE
  5
FA8
330
3
100
AcDbSymbolTableRecord
100
AcDbTextStyleTableRecord
  2
ACANSGDT
 70
     0
 40
0.0
 41
1.0
 50
0.0
 71
     0
 42
0.2
  3
amgdtans.shx
  4

  0
STYLE
  5
C7EB
330
3
100
AcDbSymbolTableRecord
100
AcDbTextStyleTableRecord
  2

 70
     1
 40
0.0
 41
1.0
 50
0.0
 71
     0
 42
3.2
  3
genltshp.shx
  4

  0
STYLE
  5
E59C
330
3
100
AcDbSymbolTableRecord
100
AcDbTextStyleTableRecord
  2
EXCESS_STANDARD
 70
     0
 40
0.0
 41
1.0
 50
0.0
 71
     0
 42
0.0
  3
txt
  4
BIGFONT
  0
ENDTAB
  0
TABLE
  2
VIEW
  5
6
330
0
100
AcDbSymbolTable
 70
     6
  0
VIEW
  5
AE1
330
6
100
AcDbSymbolTableRecord
100
AcDbViewTableRecord
  2
AM_VIEW1
 70
     0
 40
420.0
 10
-872.4621336544704
 20
-3893.809200058367
 41
670.0118343195266
 11
0.0
 21
0.0
 31
1.0
 12
0.0
 22
0.0
 32
0.0
 42
50.0
 43
-1370.695619172058
 44
-1370.695619172058
 50
0.0
 71
    16
281
     0
 72
     0
  0
VIEW
  5
AE2
330
6
100
AcDbSymbolTableRecord
100
AcDbViewTableRecord
  2
AM_VIEW2
 70
     0
 40
420.0
 10
-354.473967973997
 20
-3893.809200058367
 41
670.0118343195266
 11
0.0
 21
0.0
 31
1.0
 12
0.0
 22
0.0
 32
0.0
 42
50.0
 43
-1370.695619172058
 44
-1370.695619172058
 50
0.0
 71
    16
281
     0
 72
     0
  0
VIEW
  5
AE3
330
6
100
AcDbSymbolTableRecord
100
AcDbViewTableRecord
  2
AM_VIEW3
 70
     0
 40
420.0
 10
-872.4621336544704
 20
-4313.809200058368
 41
670.0118343195266
 11
0.0
 21
0.0
 31
1.0
 12
0.0
 22
0.0
 32
0.0
 42
50.0
 43
-1370.695619172058
 44
-1370.695619172058
 50
0.0
 71
    16
281
     0
 72
     0
  0
VIEW
  5
AE4
330
6
100
AcDbSymbolTableRecord
100
AcDbViewTableRecord
  2
AM_VIEW4
 70
     0
 40
420.0
 10
-354.473967973997
 20
-4313.809200058368
 41
670.0118343195266
 11
0.0
 21
0.0
 31
1.0
 12
0.0
 22
0.0
 32
0.0
 42
50.0
 43
-1370.695619172058
 44
-1370.695619172058
 50
0.0
 71
    16
281
     0
 72
     0
  0
VIEW
  5
AE5
330
6
100
AcDbSymbolTableRecord
100
AcDbViewTableRecord
  2
AM_VIEW5
 70
     0
 40
420.0
 10
-613.4680508142337
 20
-4103.809200058367
 41
670.0118343195267
 11
0.0
 21
0.0
 31
1.0
 12
0.0
 22
0.0
 32
0.0
 42
50.0
 43
-1370.695619172058
 44
-1370.695619172058
 50
0.0
 71
    16
281
     0
 72
     0
  0
VIEW
  5
AE6
330
6
100
AcDbSymbolTableRecord
100
AcDbViewTableRecord
  2
AM_VIEW6
 70
     0
 40
839.9915999999999
 10
-613.4680508142337
 20
-4103.809200058367
 41
1340.010268402367
 11
0.0
 21
0.0
 31
1.0
 12
0.0
 22
0.0
 32
0.0
 42
50.0
 43
-1370.695619172058
 44
-1370.695619172058
 50
0.0
 71
    16
281
     0
 72
     0
  0
ENDTAB
  0
TABLE
  2
UCS
  5
7
330
0
100
AcDbSymbolTable
 70
     0
  0
ENDTAB
  0
TABLE
  2
APPID
  5
9
330
0
100
AcDbSymbolTable
 70
    56
  0
APPID
  5
12
330
9
100
AcDbSymbolTableRecord
100
AcDbRegAppTableRecord
  2
ACAD
 70
     0
  0
APPID
  5
30
330
9
100
AcDbSymbolTableRecord
100
AcDbRegAppTableRecord
  2
MCAD_NO_VIS
 70
     0
  0
APPID
  5
31
330
9
100
AcDbSymbolTableRecord
100
AcDbRegAppTableRecord
  2
ACAD_TEMP_GRAPHIC
 70
     0
  0
APPID
  5
44
330
9
100
AcDbSymbolTableRecord
100
AcDbRegAppTableRecord
  2
ACATTRIBSERVICES
 70
     0
  0
APPID
  5
7A1
330
9
100
AcDbSymbolTableRecord
100
AcDbRegAppTableRecord
  2
GENIUS_GENDIMSH_14
 70
     0
  0
APPID
  5
A49
330
9
100
AcDbSymbolTableRecord
100
AcDbRegAppTableRecord
  2
GENIUS_GENREC_14
 70
     0
  0
APPID
  5
A4A
330
9
100
AcDbSymbolTableRecord
100
AcDbRegAppTableRecord
  2
GENIUS_GENOBJ-N-REC_13
 70
     0
  0
APPID
  5
A4B
330
9
100
AcDbSymbolTableRecord
100
AcDbRegAppTableRecord
  2
GENIUS_GENODEF_13
 70
     0
  0
APPID
  5
A4C
330
9
100
AcDbSymbolTableRecord
100
AcDbRegAppTableRecord
  2
DCO15
 70
     0
  0
APPID
  5
ADC
330
9
100
AcDbSymbolTableRecord
100
AcDbRegAppTableRecord
  2
GENIUS_GENOLIS_13
 70
     0
  0
APPID
  5
ADD
330
9
100
AcDbSymbolTableRecord
100
AcDbRegAppTableRecord
  2
GENIUS_GENOENT_13
 70
     0
  0
APPID
  5
ADE
330
9
100
AcDbSymbolTableRecord
100
AcDbRegAppTableRecord
  2
GENIUS_GENOBJ-N-TIT_13
 70
     0
  0
APPID
  5
ADF
330
9
100
AcDbSymbolTableRecord
100
AcDbRegAppTableRecord
  2
GENIUS_GENTITLE_13
 70
     0
  0
APPID
  5
AE0
330
9
100
AcDbSymbolTableRecord
100
AcDbRegAppTableRecord
  2
GENIUS_GENOREF_13
 70
     0
  0
APPID
  5
AE7
330
9
100
AcDbSymbolTableRecord
100
AcDbRegAppTableRecord
  2
GENIUS_GENSCREG_15
 70
     0
  0
APPID
  5
AE8
330
9
100
AcDbSymbolTableRecord
100
AcDbRegAppTableRecord
  2
GENIUS_GENOBJ-N-SDF_13
 70
     0
  0
APPID
  5
FAF
330
9
100
AcDbSymbolTableRecord
100
AcDbRegAppTableRecord
  2
GENIUS_GENBLLY_14
 70
     0
  0
APPID
  5
FB0
330
9
100
AcDbSymbolTableRecord
100
AcDbRegAppTableRecord
  2
GENIUS_GENTRA_14
 70
     0
  0
APPID
  5
1285
330
9
100
AcDbSymbolTableRecord
100
AcDbRegAppTableRecord
  2
GENIUS_GENDTOL_13
 70
     0
  0
APPID
  5
142D
330
9
100
AcDbSymbolTableRecord
100
AcDbRegAppTableRecord
  2
GENIUS_GENOBJ-N-CEN_13
 70
     0
  0
APPID
  5
1AB5
330
9
100
AcDbSymbolTableRecord
100
AcDbRegAppTableRecord
  2
GENIUS_GENOBJ-N-CRS_13
 70
     0
  0
APPID
  5
1B36
330
9
100
AcDbSymbolTableRecord
100
AcDbRegAppTableRecord
  2
GENIUS_GENOBJ-N-HTC_13
 70
     0
  0
APPID
  5
1B37
330
9
100
AcDbSymbolTableRecord
100
AcDbRegAppTableRecord
  2
GENIUS_GENHATCH_13
 70
     0
  0
APPID
  5
216D
330
9
100
AcDbSymbolTableRecord
100
AcDbRegAppTableRecord
  2
GENIUS_GENOBJ-N-FIL_13
 70
     0
  0
APPID
  5
2356
330
9
100
AcDbSymbolTableRecord
100
AcDbRegAppTableRecord
  2
GEVID990412420
 70
     0
  0
APPID
  5
2357
330
9
100
AcDbSymbolTableRecord
100
AcDbRegAppTableRecord
  2
GEVDC
 70
     0
  0
APPID
  5
2358
330
9
100
AcDbSymbolTableRecord
100
AcDbRegAppTableRecord
  2
GEVCON
 70
     0
  0
APPID
  5
235B
330
9
100
AcDbSymbolTableRecord
100
AcDbRegAppTableRecord
  2
GEVRADREF
 70
     0
  0
APPID
  5
2360
330
9
100
AcDbSymbolTableRecord
100
AcDbRegAppTableRecord
  2
GENIUS_GENBH_13
 70
     0
  0
APPID
  5
2362
330
9
100
AcDbSymbolTableRecord
100
AcDbRegAppTableRecord
  2
GENIUS_GENOBJ-NBEHI-BHF_13
 70
     0
  0
APPID
  5
2364
330
9
100
AcDbSymbolTableRecord
100
AcDbRegAppTableRecord
  2
GENIUS_GENOBJ-NBEHI-BHB_13
 70
     0
  0
APPID
  5
2379
330
9
100
AcDbSymbolTableRecord
100
AcDbRegAppTableRecord
  2
GENIUS_GENOBJ-F-SCPASSM_13
 70
     0
  0
APPID
  5
3D74
330
9
100
AcDbSymbolTableRecord
100
AcDbRegAppTableRecord
  2
GENIUS_GENDIM_13
 70
     0
  0
APPID
  5
3D76
330
9
100
AcDbSymbolTableRecord
100
AcDbRegAppTableRecord
  2
GENIUS_GE3DTOL_13
 70
     0
  0
APPID
  5
3D9C
330
9
100
AcDbSymbolTableRecord
100
AcDbRegAppTableRecord
  2
AD_DRAW
 70
     0
  0
APPID
  5
3DE8
330
9
100
AcDbSymbolTableRecord
100
AcDbRegAppTableRecord
  2
ASURF_PCURVE_APPNAME
 70
     0
  0
APPID
  5
3DED
330
9
100
AcDbSymbolTableRecord
100
AcDbRegAppTableRecord
  2
AMG_3D2D_5.0
 70
     0
  0
APPID
  5
3E1B
330
9
100
AcDbSymbolTableRecord
100
AcDbRegAppTableRecord
  2
DESIGNERASSEMBLIES
 70
     0
  0
APPID
  5
3E20
330
9
100
AcDbSymbolTableRecord
100
AcDbRegAppTableRecord
  2
ACADM_DIM_EDIT
 70
     0
  0
APPID
  5
3E21
330
9
100
AcDbSymbolTableRecord
100
AcDbRegAppTableRecord
  2
AMDT_DM_ADJ
 70
     0
  0
APPID
  5
4143
330
9
100
AcDbSymbolTableRecord
100
AcDbRegAppTableRecord
  2
GENIUS_GENFIL_13
 70
     0
  0
APPID
  5
4144
330
9
100
AcDbSymbolTableRecord
100
AcDbRegAppTableRecord
  2
GENIUS_GENOBJ-N-CHA_13
 70
     0
  0
APPID
  5
4E17
330
9
100
AcDbSymbolTableRecord
100
AcDbRegAppTableRecord
  2
GEVID1008153417
 70
     0
  0
APPID
  5
4E58
330
9
100
AcDbSymbolTableRecord
100
AcDbRegAppTableRecord
  2
GEVID1008153418
 70
     0
  0
APPID
  5
4E5E
330
9
100
AcDbSymbolTableRecord
100
AcDbRegAppTableRecord
  2
GEVID1008153419
 70
     0
  0
APPID
  5
4E64
330
9
100
AcDbSymbolTableRecord
100
AcDbRegAppTableRecord
  2
GEVID1008153420
 70
     0
  0
APPID
  5
4E75
330
9
100
AcDbSymbolTableRecord
100
AcDbRegAppTableRecord
  2
GEVID1008153421
 70
     0
  0
APPID
  5
4EB7
330
9
100
AcDbSymbolTableRecord
100
AcDbRegAppTableRecord
  2
GENIUS_AMGTXT_16
 70
     0
  0
APPID
  5
7645
330
9
100
AcDbSymbolTableRecord
100
AcDbRegAppTableRecord
  2
GENIUS_GENOBJ-N-DIM_13
 70
     0
  0
APPID
  5
C5F0
330
9
100
AcDbSymbolTableRecord
100
AcDbRegAppTableRecord
  2
GENIUS_GENCEN_19
 70
     0
  0
APPID
  5
C5FB
330
9
100
AcDbSymbolTableRecord
100
AcDbRegAppTableRecord
  2
ACAD_DSTYLE_DIMJOGGED_JOGANGLE_SYMBOL
 70
     0
  0
APPID
  5
C5FC
330
9
100
AcDbSymbolTableRecord
100
AcDbRegAppTableRecord
  2
ACAD_PSEXT
 70
     0
  0
APPID
  5
CA37
330
9
100
AcDbSymbolTableRecord
100
AcDbRegAppTableRecord
  2
AcAecLayerStandard
 70
     0
  0
APPID
  5
14704
330
9
100
AcDbSymbolTableRecord
100
AcDbRegAppTableRecord
  2
ACAD_EXEMPT_FROM_CAD_STANDARDS
 70
     0
  0
APPID
  5
5EF82
330
9
100
AcDbSymbolTableRecord
100
AcDbRegAppTableRecord
  2
ACAD_DSTYLE_DIMINSPECT
 70
     0
  0
APPID
  5
5EF83
330
9
100
AcDbSymbolTableRecord
100
AcDbRegAppTableRecord
  2
ACAD_DSTYLE_DIMRADIAL_EXTENSION
 70
     0
  0
ENDTAB
  0
TABLE
  2
DIMSTYLE
  5
A
330
0
100
AcDbSymbolTable
 70
    28
100
AcDbDimStyleTable
 71
     5
340
2515
340
251A
340
251B
340
6C
340
FA9
  0
DIMSTYLE
105
6C
330
A
100
AcDbSymbolTableRecord
100
AcDbDimStyleTableRecord
  2
AM_ISO
 70
     0
  4
"
 41
2.5
 42
1.0
 43
10.0
 44
1.0
 47
0.1
 48
0.1
 73
     0
 74
     0
 77
     1
 78
     8
 79
     2
140
3.5
141
0.0
143
0.0393701
146
0.71
147
1.5
172
     1
176
   256
177
   256
178
     2
271
     2
272
     3
274
     4
283
     0
284
     8
340
11
371
    -1
372
    -1
  0
DIMSTYLE
105
6D
330
A
100
AcDbSymbolTableRecord
100
AcDbDimStyleTableRecord
  2
AM_ISO$3
 70
     0
  4
"
 41
0.8
 42
1.0
 43
10.0
 44
1.0
 47
0.1
 48
0.1
 73
     0
 77
     1
 78
     8
 79
     2
140
3.2
141
0.0
143
0.0393701
146
0.71
147
0.9999999999999996
176
   256
177
   256
178
     2
271
     2
272
     2
283
     0
284
     8
288
     1
289
     0
340
11
342
6C4
371
    -1
372
    -1
  0
DIMSTYLE
105
6E
330
A
100
AcDbSymbolTableRecord
100
AcDbDimStyleTableRecord
  2
AM_ISO$4
 70
     0
  4
"
 41
0.8
 42
1.0
 43
10.0
 44
1.0
 47
0.1
 48
0.1
 73
     0
 77
     1
 78
     8
 79
     2
140
3.2
141
0.0
143
0.0393701
146
0.71
147
1.0
173
     1
176
   256
177
   256
178
     2
271
     2
272
     2
283
     0
284
     8
288
     1
289
     0
340
11
344
6C4
371
    -1
372
    -1
  0
DIMSTYLE
105
6F
330
A
100
AcDbSymbolTableRecord
100
AcDbDimStyleTableRecord
  2
AM_ISO$6
 70
     0
  4
"
 41
0.8
 42
1.0
 43
10.0
 44
1.0
 47
0.1
 48
0.1
 73
     0
 74
     0
 78
     8
 79
     2
140
3.2
141
0.0
143
0.0393701
146
0.71
147
1.0
172
     1
176
   256
177
   256
178
     2
271
     2
272
     2
283
     0
284
     8
340
11
341
6C4
371
    -1
372
    -1
  0
DIMSTYLE
105
70
330
A
100
AcDbSymbolTableRecord
100
AcDbDimStyleTableRecord
  2
AM_ISO$7
 70
     0
  4
"
 41
0.8
 42
1.0
 43
10.0
 44
1.0
 47
0.1
 48
0.1
 73
     0
 74
     0
 77
     1
 78
     8
 79
     2
140
3.2
141
0.0
143
0.0393701
146
0.71
147
1.0
172
     1
176
   256
177
   256
178
     2
271
     2
272
     2
283
     0
284
     8
340
11
341
6C4
342
6C4
371
    -1
372
    -1
  0
DIMSTYLE
105
71
330
A
100
AcDbSymbolTableRecord
100
AcDbDimStyleTableRecord
  2
AM_ISO$SF
 70
     0
  4
"
 41
0.8
 42
1.0
 43
10.0
 44
1.0
 47
0.1
 48
0.1
 73
     0
 74
     0
 75
     1
 76
     1
 77
     1
 78
     8
 79
     2
140
3.2
141
0.0
143
0.0393701
146
0.71
147
1.0
172
     1
176
   256
177
   256
178
     2
271
     2
272
     2
283
     0
284
     8
340
11
341
6C4
342
6C4
371
    -1
372
    -1
  0
DIMSTYLE
105
76
330
A
100
AcDbSymbolTableRecord
100
AcDbDimStyleTableRecord
  2
AM_ISO$SH
 70
     0
  4
"
 41
0.8
 42
1.0
 43
10.0
 44
1.0
 47
0.1
 48
0.1
 73
     0
 74
     0
 75
     1
 76
     1
 77
     1
 78
     8
 79
     2
140
3.2
141
0.0
143
0.0393701
144
2.0
146
0.71
147
1.0
172
     1
176
   256
177
   256
178
     2
271
     2
272
     2
283
     0
284
     8
340
11
341
6C4
342
6C4
371
    -1
372
    -1
  0
DIMSTYLE
105
6BE
330
A
100
AcDbSymbolTableRecord
100
AcDbDimStyleTableRecord
  2
AM_ISO$0
 70
     0
  4
"
 41
0.8
 42
1.0
 43
10.0
 44
1.0
 47
0.1
 48
0.1
 73
     0
 74
     0
 77
     1
 78
     8
 79
     2
140
3.2
141
0.0
143
0.0393701
146
0.71
147
0.9999999999999996
172
     1
176
   256
177
   256
178
     2
271
     2
272
     2
283
     0
284
     8
340
11
341
6C4
342
6C4
371
    -1
372
    -1
  0
DIMSTYLE
105
6BF
330
A
100
AcDbSymbolTableRecord
100
AcDbDimStyleTableRecord
  2
AM_ISO$2
 70
     0
  4
"
 41
0.8
 42
1.0
 43
10.0
 44
1.0
 47
0.1
 48
0.1
 73
     0
 74
     0
 77
     3
 78
     8
 79
     2
140
3.200000000000001
141
0.0
143
0.0393701
146
0.71
147
0.9999999999999996
172
     1
176
   256
177
   256
178
     2
271
     2
272
     2
283
     0
284
     8
340
11
342
6C4
371
    -1
372
    -1
  0
DIMSTYLE
105
A76
330
A
100
AcDbSymbolTableRecord
100
AcDbDimStyleTableRecord
  2
STANDARD
 70
     0
 41
3.0
 42
1.0
 43
7.0
 44
2.0
 73
     0
 74
     0
 77
     1
140
2.799999999999999
141
0.0
143
0.0394
147
0.7
171
     4
172
     1
173
     1
176
     3
177
     3
178
     2
271
     3
272
     3
273
     8
274
     4
289
     0
340
A74
341
A66
343
A66
344
A66
  0
DIMSTYLE
105
FA9
330
A
100
AcDbSymbolTableRecord
100
AcDbDimStyleTableRecord
  2
AM_ANSI
 70
     0
  4
mm
 41
0.1
 42
0.05
 43
0.5
 44
0.1
 47
0.1
 48
0.1
 78
     7
 79
     2
140
0.12
141
0.0
146
0.71
147
0.06
176
   256
177
   256
178
     2
274
     4
284
     7
340
11
371
    -1
372
    -1
  0
DIMSTYLE
105
FAA
330
A
100
AcDbSymbolTableRecord
100
AcDbDimStyleTableRecord
  2
AM_ANSI$3
 70
     0
  4
mm
 41
0.1
 42
0.05
 43
0.5
 44
0.1
 47
0.1
 48
0.1
 78
     7
 79
     2
140
0.12
141
0.0
146
0.71
147
0.06
176
   256
177
   256
178
     2
274
     4
284
     7
288
     1
289
     0
340
11
371
    -1
372
    -1
  0
DIMSTYLE
105
FAB
330
A
100
AcDbSymbolTableRecord
100
AcDbDimStyleTableRecord
  2
AM_ANSI$4
 70
     0
  4
mm
 41
0.1
 42
0.05
 43
0.5
 44
0.1
 47
0.1
 48
0.1
 78
     7
 79
     2
140
0.12
141
0.0
146
0.71
147
0.06
176
   256
177
   256
178
     2
274
     4
284
     7
288
     1
289
     0
340
11
371
    -1
372
    -1
  0
DIMSTYLE
105
FAC
330
A
100
AcDbSymbolTableRecord
100
AcDbDimStyleTableRecord
  2
AM_ANSI$7
 70
     0
  4
mm
 41
0.1
 42
0.05
 43
0.5
 44
0.1
 47
0.1
 48
0.1
 78
     7
 79
     2
140
0.24
141
0.0
146
0.71
147
0.06
176
   256
177
   256
178
     2
274
     4
284
     7
340
11
371
    -1
372
    -1
  0
DIMSTYLE
105
FAD
330
A
100
AcDbSymbolTableRecord
100
AcDbDimStyleTableRecord
  2
AM_ANSI$SF
 70
     0
  4
mm
 41
0.1
 42
0.05
 43
0.5
 44
0.1
 47
0.1
 48
0.1
 75
     1
 76
     1
 78
     7
 79
     2
140
0.12
141
0.0
146
0.71
147
0.06
176
   256
177
   256
178
     2
274
     4
284
     7
340
11
371
    -1
372
    -1
  0
DIMSTYLE
105
FAE
330
A
100
AcDbSymbolTableRecord
100
AcDbDimStyleTableRecord
  2
AM_ANSI$SH
 70
     0
  4
mm
 41
0.1
 42
0.05
 43
0.5
 44
0.1
 47
0.1
 48
0.1
 75
     1
 76
     1
 78
     7
 79
     2
140
0.12
141
0.0
146
0.71
147
0.06
173
     1
176
   256
177
   256
178
     2
274
     4
284
     7
340
11
343
72
371
    -1
372
    -1
  0
DIMSTYLE
105
2515
330
A
100
AcDbSymbolTableRecord
100
AcDbDimStyleTableRecord
  2
SYS
 70
     0
  4
"
 41
2.5
 42
1.0
 43
10.0
 44
1.0
 47
0.1
 48
0.1
 73
     0
 74
     0
 77
     1
 78
     8
 79
     2
140
3.5
141
0.0
143
0.0393701
146
0.71
147
1.5
172
     1
176
   256
177
   256
178
     7
271
     2
272
     3
274
     4
283
     0
284
     8
340
11
371
    -1
372
    -1
  0
DIMSTYLE
105
2516
102
{ACAD_REACTORS
330
5EBFD
330
5EC45
102
}
330
A
100
AcDbSymbolTableRecord
100
AcDbDimStyleTableRecord
  2
SYS$3
 70
     0
  4
"
 41
2.0
 42
1.0
 43
10.0
 44
1.0
 47
0.1
 48
0.1
 73
     0
 77
     1
 78
     8
 79
     2
140
3.200000000000001
141
0.0
143
0.0393701
146
0.71
147
0.9999999999999996
176
   256
177
   256
178
     2
271
     1
272
     1
283
     0
284
     8
288
     1
340
11
342
A66
371
    -1
372
    -1
  0
DIMSTYLE
105
2517
330
A
100
AcDbSymbolTableRecord
100
AcDbDimStyleTableRecord
  2
SYS$4
 70
     0
  4
"
 41
2.0
 42
1.0
 43
10.0
 44
1.0
 47
0.1
 48
0.1
 73
     0
 77
     1
 78
     8
 79
     2
140
3.2
141
0.0
143
0.0393701
146
0.71
147
0.9999999999999996
173
     1
176
   256
177
   256
178
     2
271
     2
272
     2
283
     0
284
     8
288
     1
340
11
344
A66
371
    -1
372
    -1
  0
DIMSTYLE
105
2518
330
A
100
AcDbSymbolTableRecord
100
AcDbDimStyleTableRecord
  2
SYS$6
 70
     0
  4
"
 41
2.0
 42
1.0
 43
10.0
 44
1.0
 47
0.1
 48
0.1
 73
     0
 74
     0
 78
     8
 79
     2
140
3.2
141
0.0
143
0.0393701
146
0.71
147
0.9999999999999996
172
     1
176
   256
177
   256
178
     2
271
     2
272
     2
283
     0
284
     8
340
11
341
A66
371
    -1
372
    -1
  0
DIMSTYLE
105
2519
330
A
100
AcDbSymbolTableRecord
100
AcDbDimStyleTableRecord
  2
SYS$7
 70
     0
  4
"
 41
2.0
 42
1.5
 43
10.0
 44
1.0
 47
0.1
 48
0.1
 73
     0
 74
     0
 77
     1
 78
     8
 79
     2
140
3.2
141
0.0
143
0.0393701
146
0.71
147
0.9999999999999996
172
     1
176
   256
177
   256
178
     2
271
     2
272
     2
283
     0
284
     8
340
11
341
A66
342
A66
371
    -1
372
    -1
  0
DIMSTYLE
105
251A
330
A
100
AcDbSymbolTableRecord
100
AcDbDimStyleTableRecord
  2
SYS$SF
 70
     0
  4
"
 41
1.0
 42
1.0
 43
10.0
 44
1.0
 47
0.1
 48
0.1
 73
     0
 74
     0
 75
     1
 76
     1
 77
     1
 78
     8
 79
     2
140
3.2
141
0.0
143
0.0393701
146
0.71
147
0.9999999999999996
172
     1
176
   256
177
   256
178
     2
271
     2
272
     2
283
     0
284
     8
340
11
341
6C4
342
6C4
371
    -1
372
    -1
  0
DIMSTYLE
105
251B
330
A
100
AcDbSymbolTableRecord
100
AcDbDimStyleTableRecord
  2
SYS$SH
 70
     0
  4
"
 41
1.0
 42
1.0
 43
10.0
 44
1.0
 47
0.1
 48
0.1
 73
     0
 74
     0
 75
     1
 76
     1
 77
     1
 78
     8
 79
     2
140
3.2
141
0.0
143
0.0393701
144
2.0
146
0.71
147
0.9999999999999996
172
     1
173
     1
176
   256
177
   256
178
     2
271
     2
272
     2
283
     0
284
     8
340
11
341
6C4
343
72
344
6C4
371
    -1
372
    -1
  0
DIMSTYLE
105
2A59
330
A
100
AcDbSymbolTableRecord
100
AcDbDimStyleTableRecord
  2
SYS$2
 70
     0
  4
"
 41
1.0
 42
1.5
 43
10.0
 44
1.0
 47
0.1
 48
0.1
 73
     0
 74
     0
 77
     1
 78
     8
 79
     2
140
3.2
141
0.0
143
0.0393701
146
0.71
147
0.9999999999999996
172
     1
176
   256
177
   256
178
     2
271
     2
272
     2
283
     0
284
     8
340
11
342
6C4
371
    -1
372
    -1
  0
DIMSTYLE
105
2AAB
102
{ACAD_REACTORS
330
5E9CF
330
5E9E7
330
5E9FF
330
5EA17
330
5EA2F
330
5EA47
330
5EA5F
330
5EA79
330
5EA95
330
5EAEF
330
5EB07
330
5EB31
330
5EB54
330
614F5
330
6150D
102
}
330
A
100
AcDbSymbolTableRecord
100
AcDbDimStyleTableRecord
  2
SYS$0
 70
     0
  4
"
 41
1.0
 42
1.5
 43
10.0
 44
1.0
 47
0.1
 48
0.1
 73
     0
 74
     0
 77
     1
 78
     8
 79
     2
140
3.2
141
0.0
143
0.0393701
146
0.71
147
0.9999999999999996
172
     1
176
   256
177
   256
178
     2
271
     1
272
     1
283
     0
284
     8
340
11
341
A66
342
6C4
371
    -1
372
    -1
  0
DIMSTYLE
105
C58E
330
A
100
AcDbSymbolTableRecord
100
AcDbDimStyleTableRecord
  2
SYSORG2P0
 70
     0
  4
"
 41
1.0
 42
1.0
 43
10.0
 44
1.0
 47
0.2
 48
0.2000000002
 71
     1
 73
     0
 74
     0
 77
     1
 78
     8
 79
     2
140
3.5
141
0.0
143
0.0393701
144
2.0
146
0.6
147
1.5
172
     1
176
   256
177
   256
178
     7
271
     2
272
     2
283
     0
284
     8
340
11
341
6C4
342
6C4
371
    -1
372
    -1
  0
DIMSTYLE
105
110F8
330
A
100
AcDbSymbolTableRecord
100
AcDbDimStyleTableRecord
  2
ISO-25
 70
     0
 41
3.0
 42
0.3
 43
9.0
 44
1.25
 73
     0
 74
     0
 77
     1
140
5.0
141
2.5
146
0.6
147
0.2
171
     3
172
     1
279
     2
340
11
  0
ENDTAB
  0
TABLE
  2
BLOCK_RECORD
  5
1
330
0
100
AcDbSymbolTable
 70
    25
  0
BLOCK_RECORD
  5
1F
102
{ACAD_XDICTIONARY
360
8A
102
}
330
1
100
AcDbSymbolTableRecord
100
AcDbBlockTableRecord
  2
*Model_Space
340
22
  0
BLOCK_RECORD
  5
1B
330
1
100
AcDbSymbolTableRecord
100
AcDbBlockTableRecord
  2
*Paper_Space
340
1E
  0
BLOCK_RECORD
  5
23
330
1
100
AcDbSymbolTableRecord
100
AcDbBlockTableRecord
  2
*Paper_Space0
340
26
  0
BLOCK_RECORD
  5
72
330
1
100
AcDbSymbolTableRecord
100
AcDbBlockTableRecord
  2
GENAXEH
340
0
  0
BLOCK_RECORD
  5
6C4
330
1
100
AcDbSymbolTableRecord
100
AcDbBlockTableRecord
  2
_Dot
340
0
102
{BLKREFS
331
63FBF
331
63FC0
331
63FC8
331
63FC9
331
63FD1
331
63FD2
331
63FDA
331
63FDB
331
63FE3
331
63FE4
331
63FEC
331
63FED
331
63FF5
331
63FF6
331
64000
331
64001
331
6400B
331
6400C
331
64014
331
64015
331
6401D
331
6401E
331
64026
331
64027
331
6402F
331
64030
331
6403A
331
6403B
331
6404A
331
6404B
331
64053
331
64054
331
6405E
331
6405F
102
}
  0
BLOCK_RECORD
  5
A66
330
1
100
AcDbSymbolTableRecord
100
AcDbBlockTableRecord
  2
_OPEN30
340
0
  0
BLOCK_RECORD
  5
5E9D0
330
1
100
AcDbSymbolTableRecord
100
AcDbBlockTableRecord
  2
*D5
340
0
  0
BLOCK_RECORD
  5
5E9E8
330
1
100
AcDbSymbolTableRecord
100
AcDbBlockTableRecord
  2
*D6
340
0
  0
BLOCK_RECORD
  5
5EA00
330
1
100
AcDbSymbolTableRecord
100
AcDbBlockTableRecord
  2
*D7
340
0
  0
BLOCK_RECORD
  5
5EA18
330
1
100
AcDbSymbolTableRecord
100
AcDbBlockTableRecord
  2
*D8
340
0
  0
BLOCK_RECORD
  5
5EA30
330
1
100
AcDbSymbolTableRecord
100
AcDbBlockTableRecord
  2
*D9
340
0
  0
BLOCK_RECORD
  5
5EA48
330
1
100
AcDbSymbolTableRecord
100
AcDbBlockTableRecord
  2
*D10
340
0
  0
BLOCK_RECORD
  5
5EA60
330
1
100
AcDbSymbolTableRecord
100
AcDbBlockTableRecord
  2
*D11
340
0
  0
BLOCK_RECORD
  5
5EA7A
330
1
100
AcDbSymbolTableRecord
100
AcDbBlockTableRecord
  2
*D12
340
0
  0
BLOCK_RECORD
  5
5EA96
330
1
100
AcDbSymbolTableRecord
100
AcDbBlockTableRecord
  2
*D13
340
0
  0
BLOCK_RECORD
  5
5EAF0
330
1
100
AcDbSymbolTableRecord
100
AcDbBlockTableRecord
  2
*D14
340
0
  0
BLOCK_RECORD
  5
5EB08
330
1
100
AcDbSymbolTableRecord
100
AcDbBlockTableRecord
  2
*D15
340
0
  0
BLOCK_RECORD
  5
5EB32
330
1
100
AcDbSymbolTableRecord
100
AcDbBlockTableRecord
  2
*D16
340
0
  0
BLOCK_RECORD
  5
5EB55
330
1
100
AcDbSymbolTableRecord
100
AcDbBlockTableRecord
  2
*D17
340
0
  0
BLOCK_RECORD
  5
5EBFE
330
1
100
AcDbSymbolTableRecord
100
AcDbBlockTableRecord
  2
*D18
340
0
  0
BLOCK_RECORD
  5
5EC46
330
1
100
AcDbSymbolTableRecord
100
AcDbBlockTableRecord
  2
*D19
340
0
  0
BLOCK_RECORD
  5
614F6
330
1
100
AcDbSymbolTableRecord
100
AcDbBlockTableRecord
  2
*D20
340
0
  0
BLOCK_RECORD
  5
6150E
330
1
100
AcDbSymbolTableRecord
100
AcDbBlockTableRecord
  2
*D21
340
0
  0
BLOCK_RECORD
  5
6429A
330
1
100
AcDbSymbolTableRecord
100
AcDbBlockTableRecord
  2
*S23
340
0
  0
BLOCK_RECORD
  5
642A4
330
1
100
AcDbSymbolTableRecord
100
AcDbBlockTableRecord
  2
*S24
340
0
  0
ENDTAB
  0
ENDSEC
  0
SECTION
  2
BLOCKS
  0
BLOCK
  5
20
330
1F
100
AcDbEntity
  8
0
100
AcDbBlockBegin
  2
*Model_Space
 70
     0
 10
0.0
 20
0.0
 30
0.0
  3
*Model_Space
  1

  0
ENDBLK
  5
21
330
1F
100
AcDbEntity
  8
0
100
AcDbBlockEnd
  0
BLOCK
  5
1C
330
1B
100
AcDbEntity
 67
     1
  8
0
100
AcDbBlockBegin
  2
*Paper_Space
 70
     0
 10
0.0
 20
0.0
 30
0.0
  3
*Paper_Space
  1

  0
ENDBLK
  5
1D
330
1B
100
AcDbEntity
 67
     1
  8
0
100
AcDbBlockEnd
  0
BLOCK
  5
24
330
23
100
AcDbEntity
 67
     1
  8
0
100
AcDbBlockBegin
  2
*Paper_Space0
 70
     0
 10
0.0
 20
0.0
 30
0.0
  3
*Paper_Space0
  1

  0
ENDBLK
  5
25
330
23
100
AcDbEntity
 67
     1
  8
0
100
AcDbBlockEnd
  0
BLOCK
  5
74
330
72
100
AcDbEntity
  8
0
100
AcDbBlockBegin
  2
GENAXEH
 70
     0
 10
0.0
 20
0.0
 30
0.0
  3
GENAXEH
  1

  0
LINE
  5
73
330
72
100
AcDbEntity
  8
0
100
AcDbLine
 10
-1.0
 20
0.0
 30
0.0
 11
1.0
 21
0.0
 31
0.0
  0
ENDBLK
  5
75
330
72
100
AcDbEntity
  8
0
100
AcDbBlockEnd
  0
BLOCK
  5
6C7
330
6C4
100
AcDbEntity
  8
0
100
AcDbBlockBegin
  2
_Dot
 70
     0
 10
0.0
 20
0.0
 30
0.0
  3
_Dot
  1

  0
LWPOLYLINE
  5
6C5
330
6C4
100
AcDbEntity
  8
0
  6
ByBlock
 62
     0
100
AcDbPolyline
 90
        2
 70
     1
 43
0.5
 10
-0.25
 20
0.0
 42
1.0
 10
0.25
 20
0.0
 42
1.0
  0
LINE
  5
6C6
330
6C4
100
AcDbEntity
  8
0
  6
ByBlock
 62
     0
370
    -2
100
AcDbLine
 10
-0.5
 20
0.0
 30
0.0
 11
-1.0
 21
0.0
 31
0.0
  0
ENDBLK
  5
6C8
330
6C4
100
AcDbEntity
  8
0
100
AcDbBlockEnd
  0
BLOCK
  5
A6A
330
A66
100
AcDbEntity
  8
0
100
AcDbBlockBegin
  2
_OPEN30
 70
     0
 10
0.0
 20
0.0
 30
0.0
  3
_OPEN30
  1

  0
LINE
  5
A67
330
A66
100
AcDbEntity
  8
0
  6
ByBlock
 62
     0
100
AcDbLine
 10
-1.0
 20
0.26794919
 30
0.0
 11
0.0
 21
0.0
 31
0.0
  0
LINE
  5
A68
330
A66
100
AcDbEntity
  8
0
  6
ByBlock
 62
     0
100
AcDbLine
 10
0.0
 20
0.0
 30
0.0
 11
-1.0
 21
-0.26794919
 31
0.0
  0
LINE
  5
A69
330
A66
100
AcDbEntity
  8
0
  6
ByBlock
 62
     0
100
AcDbLine
 10
0.0
 20
0.0
 30
0.0
 11
-1.0
 21
0.0
 31
0.0
  0
ENDBLK
  5
A6B
330
A66
100
AcDbEntity
  8
0
100
AcDbBlockEnd
  0
BLOCK
  5
5E9DA
330
5E9D0
100
AcDbEntity
  8
0
100
AcDbBlockBegin
  2
*D5
 70
     1
 10
0.0
 20
0.0
 30
0.0
  3
*D5
  1

  0
LINE
  5
63FBC
330
5E9D0
100
AcDbEntity
  8
AM_5
100
AcDbLine
 10
225.5000000000001
 20
75.0
 30
0.0
 11
235.0000000000001
 21
75.0
 31
0.0
  0
LINE
  5
63FBD
330
5E9D0
100
AcDbEntity
  8
AM_5
100
AcDbLine
 10
225.5000000000001
 20
120.0
 30
0.0
 11
235.0000000000001
 21
120.0
 31
0.0
  0
LINE
  5
63FBE
330
5E9D0
100
AcDbEntity
  8
AM_5
100
AcDbLine
 10
234.0000000000001
 20
76.0
 30
0.0
 11
234.0000000000001
 21
119.0
 31
0.0
  0
INSERT
  5
63FBF
330
5E9D0
100
AcDbEntity
  8
AM_5
100
AcDbBlockReference
  2
_Dot
 10
234.0000000000001
 20
75.0
 30
0.0
 41
1.0
 42
1.0
 43
1.0
 50
270.0
  0
INSERT
  5
63FC0
330
5E9D0
100
AcDbEntity
  8
AM_5
100
AcDbBlockReference
  2
_Dot
 10
234.0000000000001
 20
120.0
 30
0.0
 41
1.0
 42
1.0
 43
1.0
 50
90.0
  0
MTEXT
  5
63FC1
330
5E9D0
100
AcDbEntity
  8
AM_5
 62
     2
100
AcDbMText
 10
231.4000000000001
 20
97.50000000000005
 30
0.0
 40
3.2
 41
0.0
 71
     5
 72
     1
  1
45
 11
0.0000000000000001
 21
1.0
 31
0.0
 73
     1
 44
1.0
1001
ACAD
1000
MTEXTBEGIN
1070
    73
1070
     1
1070
    44
1040
1.0
1070
    74
1070
     0
1000
MTEXTEND
  0
POINT
  5
63FC2
330
5E9D0
100
AcDbEntity
  8
Defpoints
 62
     0
100
AcDbPoint
 10
224.0000000000001
 20
75.0
 30
0.0
  0
POINT
  5
63FC3
330
5E9D0
100
AcDbEntity
  8
Defpoints
 62
     0
100
AcDbPoint
 10
224.0000000000001
 20
120.0
 30
0.0
  0
POINT
  5
63FC4
330
5E9D0
100
AcDbEntity
  8
Defpoints
 62
     0
100
AcDbPoint
 10
234.0000000000001
 20
120.0
 30
0.0
  0
ENDBLK
  5
5E9DB
330
5E9D0
100
AcDbEntity
  8
0
100
AcDbBlockEnd
  0
BLOCK
  5
5E9F2
330
5E9E8
100
AcDbEntity
  8
0
100
AcDbBlockBegin
  2
*D6
 70
     1
 10
0.0
 20
0.0
 30
0.0
  3
*D6
  1

  0
LINE
  5
63FC5
330
5E9E8
100
AcDbEntity
  8
AM_5
100
AcDbLine
 10
225.5000000000001
 20
75.0
 30
0.0
 11
235.0000000000001
 21
75.0
 31
0.0
  0
LINE
  5
63FC6
330
5E9E8
100
AcDbEntity
  8
AM_5
100
AcDbLine
 10
212.5000000000001
 20
55.0
 30
0.0
 11
235.0000000000001
 21
55.0
 31
0.0
  0
LINE
  5
63FC7
330
5E9E8
100
AcDbEntity
  8
AM_5
100
AcDbLine
 10
234.0000000000002
 20
74.0
 30
0.0
 11
234.0000000000001
 21
56.0
 31
0.0
  0
INSERT
  5
63FC8
330
5E9E8
100
AcDbEntity
  8
AM_5
100
AcDbBlockReference
  2
_Dot
 10
234.0000000000002
 20
75.0
 30
0.0
 41
1.0
 42
1.0
 43
1.0
 50
90.0
  0
INSERT
  5
63FC9
330
5E9E8
100
AcDbEntity
  8
AM_5
100
AcDbBlockReference
  2
_Dot
 10
234.0000000000001
 20
55.0
 30
0.0
 41
1.0
 42
1.0
 43
1.0
 50
270.0
  0
MTEXT
  5
63FCA
330
5E9E8
100
AcDbEntity
  8
AM_5
 62
     2
100
AcDbMText
 10
231.4000000000001
 20
65.00000000000004
 30
0.0
 40
3.2
 41
0.0
 71
     5
 72
     1
  1
20
 11
0.0000000000000001
 21
1.0
 31
0.0
 73
     1
 44
1.0
1001
ACAD
1000
MTEXTBEGIN
1070
    73
1070
     1
1070
    44
1040
1.0
1070
    74
1070
     0
1000
MTEXTEND
  0
POINT
  5
63FCB
330
5E9E8
100
AcDbEntity
  8
Defpoints
 62
     0
100
AcDbPoint
 10
224.0000000000001
 20
75.0
 30
0.0
  0
POINT
  5
63FCC
330
5E9E8
100
AcDbEntity
  8
Defpoints
 62
     0
100
AcDbPoint
 10
211.0000000000001
 20
55.0
 30
0.0
  0
POINT
  5
63FCD
330
5E9E8
100
AcDbEntity
  8
Defpoints
 62
     0
100
AcDbPoint
 10
234.0000000000001
 20
55.0
 30
0.0
  0
ENDBLK
  5
5E9F3
330
5E9E8
100
AcDbEntity
  8
0
100
AcDbBlockEnd
  0
BLOCK
  5
5EA0A
330
5EA00
100
AcDbEntity
  8
0
100
AcDbBlockBegin
  2
*D7
 70
     1
 10
0.0
 20
0.0
 30
0.0
  3
*D7
  1

  0
LINE
  5
63FCE
330
5EA00
100
AcDbEntity
  8
AM_5
100
AcDbLine
 10
225.5000000000001
 20
120.0
 30
0.0
 11
235.0000000000001
 21
120.0
 31
0.0
  0
LINE
  5
63FCF
330
5EA00
100
AcDbEntity
  8
AM_5
100
AcDbLine
 10
212.5000000000001
 20
140.0
 30
0.0
 11
235.0000000000001
 21
140.0
 31
0.0
  0
LINE
  5
63FD0
330
5EA00
100
AcDbEntity
  8
AM_5
100
AcDbLine
 10
234.0000000000001
 20
121.0
 30
0.0
 11
234.0000000000001
 21
139.0
 31
0.0
  0
INSERT
  5
63FD1
330
5EA00
100
AcDbEntity
  8
AM_5
100
AcDbBlockReference
  2
_Dot
 10
234.0000000000001
 20
120.0
 30
0.0
 41
1.0
 42
1.0
 43
1.0
 50
270.0
  0
INSERT
  5
63FD2
330
5EA00
100
AcDbEntity
  8
AM_5
100
AcDbBlockReference
  2
_Dot
 10
234.0000000000001
 20
140.0
 30
0.0
 41
1.0
 42
1.0
 43
1.0
 50
90.0
  0
MTEXT
  5
63FD3
330
5EA00
100
AcDbEntity
  8
AM_5
 62
     2
100
AcDbMText
 10
231.4000000000001
 20
130.0
 30
0.0
 40
3.2
 41
0.0
 71
     5
 72
     1
  1
20
 11
0.0000000000000001
 21
1.0
 31
0.0
 73
     1
 44
1.0
1001
ACAD
1000
MTEXTBEGIN
1070
    73
1070
     1
1070
    44
1040
1.0
1070
    74
1070
     0
1000
MTEXTEND
  0
POINT
  5
63FD4
330
5EA00
100
AcDbEntity
  8
Defpoints
 62
     0
100
AcDbPoint
 10
224.0000000000001
 20
120.0
 30
0.0
  0
POINT
  5
63FD5
330
5EA00
100
AcDbEntity
  8
Defpoints
 62
     0
100
AcDbPoint
 10
211.0000000000001
 20
140.0
 30
0.0
  0
POINT
  5
63FD6
330
5EA00
100
AcDbEntity
  8
Defpoints
 62
     0
100
AcDbPoint
 10
234.0000000000001
 20
140.0
 30
0.0
  0
ENDBLK
  5
5EA0B
330
5EA00
100
AcDbEntity
  8
0
100
AcDbBlockEnd
  0
BLOCK
  5
5EA22
330
5EA18
100
AcDbEntity
  8
0
100
AcDbBlockBegin
  2
*D8
 70
     1
 10
0.0
 20
0.0
 30
0.0
  3
*D8
  1

  0
LINE
  5
63FD7
330
5EA18
100
AcDbEntity
  8
AM_5
100
AcDbLine
 10
150.0000000000001
 20
90.0
 30
0.0
 11
159.5000000000001
 21
90.0
 31
0.0
  0
LINE
  5
63FD8
330
5EA18
100
AcDbEntity
  8
AM_5
100
AcDbLine
 10
150.0000000000001
 20
60.0
 30
0.0
 11
159.5000000000001
 21
60.0
 31
0.0
  0
LINE
  5
63FD9
330
5EA18
100
AcDbEntity
  8
AM_5
100
AcDbLine
 10
158.5000000000001
 20
89.0
 30
0.0
 11
158.5000000000001
 21
61.0
 31
0.0
  0
INSERT
  5
63FDA
330
5EA18
100
AcDbEntity
  8
AM_5
100
AcDbBlockReference
  2
_Dot
 10
158.5000000000001
 20
90.0
 30
0.0
 41
1.0
 42
1.0
 43
1.0
 50
90.0
  0
INSERT
  5
63FDB
330
5EA18
100
AcDbEntity
  8
AM_5
100
AcDbBlockReference
  2
_Dot
 10
158.5000000000001
 20
60.0
 30
0.0
 41
1.0
 42
1.0
 43
1.0
 50
270.0
  0
MTEXT
  5
63FDC
330
5EA18
100
AcDbEntity
  8
AM_5
 62
     2
100
AcDbMText
 10
155.9000000000001
 20
75.00000000000001
 30
0.0
 40
3.2
 41
0.0
 71
     5
 72
     1
  1
30
 11
0.0000000000000001
 21
1.0
 31
0.0
 73
     1
 44
1.0
1001
ACAD
1000
MTEXTBEGIN
1070
    73
1070
     1
1070
    44
1040
1.0
1070
    74
1070
     0
1000
MTEXTEND
  0
POINT
  5
63FDD
330
5EA18
100
AcDbEntity
  8
Defpoints
 62
     0
100
AcDbPoint
 10
148.5000000000001
 20
90.0
 30
0.0
  0
POINT
  5
63FDE
330
5EA18
100
AcDbEntity
  8
Defpoints
 62
     0
100
AcDbPoint
 10
148.5000000000001
 20
60.0
 30
0.0
  0
POINT
  5
63FDF
330
5EA18
100
AcDbEntity
  8
Defpoints
 62
     0
100
AcDbPoint
 10
158.5000000000001
 20
60.0
 30
0.0
  0
ENDBLK
  5
5EA23
330
5EA18
100
AcDbEntity
  8
0
100
AcDbBlockEnd
  0
BLOCK
  5
5EA3A
330
5EA30
100
AcDbEntity
  8
0
100
AcDbBlockBegin
  2
*D9
 70
     1
 10
0.0
 20
0.0
 30
0.0
  3
*D9
  1

  0
LINE
  5
63FE0
330
5EA30
100
AcDbEntity
  8
AM_5
100
AcDbLine
 10
150.0000000000001
 20
90.0
 30
0.0
 11
159.5000000000001
 21
90.0
 31
0.0
  0
LINE
  5
63FE1
330
5EA30
100
AcDbEntity
  8
AM_5
100
AcDbLine
 10
137.0000000000001
 20
110.0
 30
0.0
 11
159.5000000000001
 21
110.0
 31
0.0
  0
LINE
  5
63FE2
330
5EA30
100
AcDbEntity
  8
AM_5
100
AcDbLine
 10
158.5000000000001
 20
91.0
 30
0.0
 11
158.5000000000001
 21
109.0
 31
0.0
  0
INSERT
  5
63FE3
330
5EA30
100
AcDbEntity
  8
AM_5
100
AcDbBlockReference
  2
_Dot
 10
158.5000000000001
 20
90.0
 30
0.0
 41
1.0
 42
1.0
 43
1.0
 50
270.0
  0
INSERT
  5
63FE4
330
5EA30
100
AcDbEntity
  8
AM_5
100
AcDbBlockReference
  2
_Dot
 10
158.5000000000001
 20
110.0
 30
0.0
 41
1.0
 42
1.0
 43
1.0
 50
90.0
  0
MTEXT
  5
63FE5
330
5EA30
100
AcDbEntity
  8
AM_5
 62
     2
100
AcDbMText
 10
155.9000000000001
 20
100.0
 30
0.0
 40
3.2
 41
0.0
 71
     5
 72
     1
  1
20
 11
0.0000000000000001
 21
1.0
 31
0.0
 73
     1
 44
1.0
1001
ACAD
1000
MTEXTBEGIN
1070
    73
1070
     1
1070
    44
1040
1.0
1070
    74
1070
     0
1000
MTEXTEND
  0
POINT
  5
63FE6
330
5EA30
100
AcDbEntity
  8
Defpoints
 62
     0
100
AcDbPoint
 10
148.5000000000001
 20
90.0
 30
0.0
  0
POINT
  5
63FE7
330
5EA30
100
AcDbEntity
  8
Defpoints
 62
     0
100
AcDbPoint
 10
135.5000000000001
 20
110.0
 30
0.0
  0
POINT
  5
63FE8
330
5EA30
100
AcDbEntity
  8
Defpoints
 62
     0
100
AcDbPoint
 10
158.5000000000001
 20
110.0
 30
0.0
  0
ENDBLK
  5
5EA3B
330
5EA30
100
AcDbEntity
  8
0
100
AcDbBlockEnd
  0
BLOCK
  5
5EA52
330
5EA48
100
AcDbEntity
  8
0
100
AcDbBlockBegin
  2
*D10
 70
     1
 10
0.0
 20
0.0
 30
0.0
  3
*D10
  1

  0
LINE
  5
63FE9
330
5EA48
100
AcDbEntity
  8
AM_5
100
AcDbLine
 10
146.0000000000001
 20
144.0
 30
0.0
 11
159.5000000000001
 21
144.0
 31
0.0
  0
LINE
  5
63FEA
330
5EA48
100
AcDbEntity
  8
AM_5
100
AcDbLine
 10
150.0000000000001
 20
131.0
 30
0.0
 11
159.5000000000001
 21
131.0
 31
0.0
  0
LINE
  5
63FEB
330
5EA48
100
AcDbEntity
  8
AM_5
100
AcDbLine
 10
158.5000000000001
 20
143.0
 30
0.0
 11
158.5000000000001
 21
132.0
 31
0.0
  0
INSERT
  5
63FEC
330
5EA48
100
AcDbEntity
  8
AM_5
100
AcDbBlockReference
  2
_Dot
 10
158.5000000000001
 20
144.0
 30
0.0
 41
1.0
 42
1.0
 43
1.0
 50
90.0
  0
INSERT
  5
63FED
330
5EA48
100
AcDbEntity
  8
AM_5
100
AcDbBlockReference
  2
_Dot
 10
158.5000000000001
 20
131.0
 30
0.0
 41
1.0
 42
1.0
 43
1.0
 50
270.0
  0
MTEXT
  5
63FEE
330
5EA48
100
AcDbEntity
  8
AM_5
 62
     2
100
AcDbMText
 10
155.9000000000001
 20
137.5
 30
0.0
 40
3.2
 41
0.0
 71
     5
 72
     1
  1
13
 11
0.0000000000000001
 21
1.0
 31
0.0
 73
     1
 44
1.0
1001
ACAD
1000
MTEXTBEGIN
1070
    73
1070
     1
1070
    44
1040
1.0
1070
    74
1070
     0
1000
MTEXTEND
  0
POINT
  5
63FEF
330
5EA48
100
AcDbEntity
  8
Defpoints
 62
     0
100
AcDbPoint
 10
144.5000000000001
 20
144.0
 30
0.0
  0
POINT
  5
63FF0
330
5EA48
100
AcDbEntity
  8
Defpoints
 62
     0
100
AcDbPoint
 10
148.5000000000001
 20
131.0
 30
0.0
  0
POINT
  5
63FF1
330
5EA48
100
AcDbEntity
  8
Defpoints
 62
     0
100
AcDbPoint
 10
158.5000000000001
 20
131.0
 30
0.0
  0
ENDBLK
  5
5EA53
330
5EA48
100
AcDbEntity
  8
0
100
AcDbBlockEnd
  0
BLOCK
  5
5EA6A
330
5EA60
100
AcDbEntity
  8
0
100
AcDbBlockBegin
  2
*D11
 70
     1
 10
0.0
 20
0.0
 30
0.0
  3
*D11
  1

  0
LINE
  5
63FF2
330
5EA60
100
AcDbEntity
  8
AM_5
100
AcDbLine
 10
221.5000000000001
 20
173.0
 30
0.0
 11
235.0000000000001
 21
173.0
 31
0.0
  0
LINE
  5
63FF3
330
5EA60
100
AcDbEntity
  8
AM_5
100
AcDbLine
 10
225.5000000000001
 20
161.0
 30
0.0
 11
235.0000000000001
 21
161.0
 31
0.0
  0
LINE
  5
63FF4
330
5EA60
100
AcDbEntity
  8
AM_5
100
AcDbLine
 10
234.0000000000001
 20
172.0
 30
0.0
 11
234.0000000000001
 21
162.0
 31
0.0
  0
INSERT
  5
63FF5
330
5EA60
100
AcDbEntity
  8
AM_5
100
AcDbBlockReference
  2
_Dot
 10
234.0000000000001
 20
173.0
 30
0.0
 41
1.0
 42
1.0
 43
1.0
 50
90.0
  0
INSERT
  5
63FF6
330
5EA60
100
AcDbEntity
  8
AM_5
100
AcDbBlockReference
  2
_Dot
 10
234.0000000000001
 20
161.0
 30
0.0
 41
1.0
 42
1.0
 43
1.0
 50
270.0
  0
MTEXT
  5
63FF7
330
5EA60
100
AcDbEntity
  8
AM_5
 62
     2
100
AcDbMText
 10
231.4000000000001
 20
167.0
 30
0.0
 40
3.2
 41
0.0
 71
     5
 72
     1
  1
12
 11
0.0000000000000001
 21
1.0
 31
0.0
 73
     1
 44
1.0
1001
ACAD
1000
MTEXTBEGIN
1070
    73
1070
     1
1070
    44
1040
1.0
1070
    74
1070
     0
1000
MTEXTEND
  0
POINT
  5
63FF8
330
5EA60
100
AcDbEntity
  8
Defpoints
 62
     0
100
AcDbPoint
 10
220.0000000000001
 20
173.0
 30
0.0
  0
POINT
  5
63FF9
330
5EA60
100
AcDbEntity
  8
Defpoints
 62
     0
100
AcDbPoint
 10
224.0000000000001
 20
161.0
 30
0.0
  0
POINT
  5
63FFA
330
5EA60
100
AcDbEntity
  8
Defpoints
 62
     0
100
AcDbPoint
 10
234.0000000000001
 20
161.0
 30
0.0
  0
ENDBLK
  5
5EA6B
330
5EA60
100
AcDbEntity
  8
0
100
AcDbBlockEnd
  0
BLOCK
  5
5EA86
330
5EA7A
100
AcDbEntity
  8
0
100
AcDbBlockBegin
  2
*D12
 70
     1
 10
0.0
 20
0.0
 30
0.0
  3
*D12
  1

  0
LINE
  5
63FFB
330
5EA7A
100
AcDbEntity
  8
AM_5
100
AcDbLine
 10
146.5000000000001
 20
129.5
 30
0.0
 11
146.5000000000001
 21
120.0
 31
0.0
  0
LINE
  5
63FFC
330
5EA7A
100
AcDbEntity
  8
AM_5
100
AcDbLine
 10
148.5000000000001
 20
129.5
 30
0.0
 11
148.5000000000001
 21
120.0
 31
0.0
  0
LINE
  5
63FFD
330
5EA7A
100
AcDbEntity
  8
AM_5
100
AcDbLine
 10
145.5000000000001
 20
121.0
 30
0.0
 11
144.5000000000001
 21
121.0
 31
0.0
  0
LINE
  5
63FFE
330
5EA7A
100
AcDbEntity
  8
AM_5
100
AcDbLine
 10
149.5000000000001
 20
121.0
 30
0.0
 11
153.9933333333334
 21
121.0
 31
0.0
  0
LINE
  5
63FFF
330
5EA7A
100
AcDbEntity
  8
AM_5
100
AcDbLine
 10
146.5000000000001
 20
121.0
 30
0.0
 11
148.5000000000001
 21
121.0
 31
0.0
  0
INSERT
  5
64000
330
5EA7A
100
AcDbEntity
  8
AM_5
100
AcDbBlockReference
  2
_Dot
 10
146.5000000000001
 20
121.0
 30
0.0
 41
1.0
 42
1.0
 43
1.0
  0
INSERT
  5
64001
330
5EA7A
100
AcDbEntity
  8
AM_5
100
AcDbBlockReference
  2
_Dot
 10
148.5000000000001
 20
121.0
 30
0.0
 41
1.0
 42
1.0
 43
1.0
 50
180.0
  0
MTEXT
  5
64002
330
5EA7A
100
AcDbEntity
  8
AM_5
 62
     2
100
AcDbMText
 10
152.2466666666668
 20
123.6
 30
0.0
 40
3.2
 41
0.0
 71
     5
 72
     1
  1
2
 73
     1
 44
1.0
1001
ACAD
1000
MTEXTBEGIN
1070
    73
1070
     1
1070
    44
1040
1.0
1070
    74
1070
     0
1000
MTEXTEND
  0
POINT
  5
64003
330
5EA7A
100
AcDbEntity
  8
Defpoints
 62
     0
100
AcDbPoint
 10
146.5000000000001
 20
131.0
 30
0.0
  0
POINT
  5
64004
330
5EA7A
100
AcDbEntity
  8
Defpoints
 62
     0
100
AcDbPoint
 10
148.5000000000001
 20
131.0
 30
0.0
  0
POINT
  5
64005
330
5EA7A
100
AcDbEntity
  8
Defpoints
 62
     0
100
AcDbPoint
 10
148.5000000000001
 20
121.0
 30
0.0
  0
ENDBLK
  5
5EA87
330
5EA7A
100
AcDbEntity
  8
0
100
AcDbBlockEnd
  0
BLOCK
  5
5EAA2
330
5EA96
100
AcDbEntity
  8
0
100
AcDbBlockBegin
  2
*D13
 70
     1
 10
0.0
 20
0.0
 30
0.0
  3
*D13
  1

  0
LINE
  5
64006
330
5EA96
100
AcDbEntity
  8
AM_5
100
AcDbLine
 10
221.5000000000001
 20
159.5
 30
0.0
 11
221.5000000000001
 21
150.0
 31
0.0
  0
LINE
  5
64007
330
5EA96
100
AcDbEntity
  8
AM_5
100
AcDbLine
 10
224.0000000000001
 20
159.5
 30
0.0
 11
224.0000000000001
 21
150.0
 31
0.0
  0
LINE
  5
64008
330
5EA96
100
AcDbEntity
  8
AM_5
100
AcDbLine
 10
220.5000000000001
 20
151.0
 30
0.0
 11
219.5000000000001
 21
151.0
 31
0.0
  0
LINE
  5
64009
330
5EA96
100
AcDbEntity
  8
AM_5
100
AcDbLine
 10
225.0000000000001
 20
151.0
 30
0.0
 11
232.6933333333335
 21
151.0
 31
0.0
  0
LINE
  5
6400A
330
5EA96
100
AcDbEntity
  8
AM_5
100
AcDbLine
 10
221.5000000000001
 20
151.0
 30
0.0
 11
224.0000000000001
 21
151.0
 31
0.0
  0
INSERT
  5
6400B
330
5EA96
100
AcDbEntity
  8
AM_5
100
AcDbBlockReference
  2
_Dot
 10
221.5000000000001
 20
151.0
 30
0.0
 41
1.0
 42
1.0
 43
1.0
  0
INSERT
  5
6400C
330
5EA96
100
AcDbEntity
  8
AM_5
100
AcDbBlockReference
  2
_Dot
 10
224.0000000000001
 20
151.0
 30
0.0
 41
1.0
 42
1.0
 43
1.0
 50
180.0
  0
MTEXT
  5
6400D
330
5EA96
100
AcDbEntity
  8
AM_5
 62
     2
100
AcDbMText
 10
229.3466666666668
 20
153.6
 30
0.0
 40
3.2
 41
0.0
 71
     5
 72
     1
  1
2.5
 73
     1
 44
1.0
1001
ACAD
1000
MTEXTBEGIN
1070
    73
1070
     1
1070
    44
1040
1.0
1070
    74
1070
     0
1000
MTEXTEND
  0
POINT
  5
6400E
330
5EA96
100
AcDbEntity
  8
Defpoints
 62
     0
100
AcDbPoint
 10
221.5000000000001
 20
161.0
 30
0.0
  0
POINT
  5
6400F
330
5EA96
100
AcDbEntity
  8
Defpoints
 62
     0
100
AcDbPoint
 10
224.0000000000001
 20
161.0
 30
0.0
  0
POINT
  5
64010
330
5EA96
100
AcDbEntity
  8
Defpoints
 62
     0
100
AcDbPoint
 10
224.0000000000001
 20
151.0
 30
0.0
  0
ENDBLK
  5
5EAA3
330
5EA96
100
AcDbEntity
  8
0
100
AcDbBlockEnd
  0
BLOCK
  5
5EAFA
330
5EAF0
100
AcDbEntity
  8
0
100
AcDbBlockBegin
  2
*D14
 70
     1
 10
0.0
 20
0.0
 30
0.0
  3
*D14
  1

  0
LINE
  5
64011
330
5EAF0
100
AcDbEntity
  8
AM_5
100
AcDbLine
 10
122.0000000000001
 20
110.0
 30
0.0
 11
114.0000000000001
 21
110.0
 31
0.0
  0
LINE
  5
64012
330
5EAF0
100
AcDbEntity
  8
AM_5
100
AcDbLine
 10
124.5000000000001
 20
50.0
 30
0.0
 11
114.0000000000001
 21
50.0
 31
0.0
  0
LINE
  5
64013
330
5EAF0
100
AcDbEntity
  8
AM_5
100
AcDbLine
 10
115.0000000000001
 20
109.0
 30
0.0
 11
115.0000000000001
 21
51.0
 31
0.0
  0
INSERT
  5
64014
330
5EAF0
100
AcDbEntity
  8
AM_5
100
AcDbBlockReference
  2
_Dot
 10
115.0000000000001
 20
110.0
 30
0.0
 41
1.0
 42
1.0
 43
1.0
 50
90.0
  0
INSERT
  5
64015
330
5EAF0
100
AcDbEntity
  8
AM_5
100
AcDbBlockReference
  2
_Dot
 10
115.0000000000001
 20
50.0
 30
0.0
 41
1.0
 42
1.0
 43
1.0
 50
270.0
  0
MTEXT
  5
64016
330
5EAF0
100
AcDbEntity
  8
AM_5
 62
     2
100
AcDbMText
 10
112.4000000000001
 20
80.00000000000003
 30
0.0
 40
3.2
 41
0.0
 71
     5
 72
     1
  1
60
 11
0.0000000000000001
 21
1.0
 31
0.0
 73
     1
 44
1.0
1001
ACAD
1000
MTEXTBEGIN
1070
    73
1070
     1
1070
    44
1040
1.0
1070
    74
1070
     0
1000
MTEXTEND
  0
POINT
  5
64017
330
5EAF0
100
AcDbEntity
  8
Defpoints
 62
     0
100
AcDbPoint
 10
123.5000000000001
 20
110.0
 30
0.0
  0
POINT
  5
64018
330
5EAF0
100
AcDbEntity
  8
Defpoints
 62
     0
100
AcDbPoint
 10
126.0000000000001
 20
50.0
 30
0.0
  0
POINT
  5
64019
330
5EAF0
100
AcDbEntity
  8
Defpoints
 62
     0
100
AcDbPoint
 10
115.0000000000001
 20
50.0
 30
0.0
  0
ENDBLK
  5
5EAFB
330
5EAF0
100
AcDbEntity
  8
0
100
AcDbBlockEnd
  0
BLOCK
  5
5EB12
330
5EB08
100
AcDbEntity
  8
0
100
AcDbBlockBegin
  2
*D15
 70
     1
 10
0.0
 20
0.0
 30
0.0
  3
*D15
  1

  0
LINE
  5
6401A
330
5EB08
100
AcDbEntity
  8
AM_5
100
AcDbLine
 10
197.5000000000001
 20
140.0
 30
0.0
 11
189.5000000000002
 21
140.0
 31
0.0
  0
LINE
  5
6401B
330
5EB08
100
AcDbEntity
  8
AM_5
100
AcDbLine
 10
200.0000000000001
 20
50.0
 30
0.0
 11
189.5000000000002
 21
50.0
 31
0.0
  0
LINE
  5
6401C
330
5EB08
100
AcDbEntity
  8
AM_5
100
AcDbLine
 10
190.5000000000002
 20
139.0
 30
0.0
 11
190.5000000000002
 21
51.0
 31
0.0
  0
INSERT
  5
6401D
330
5EB08
100
AcDbEntity
  8
AM_5
100
AcDbBlockReference
  2
_Dot
 10
190.5000000000002
 20
140.0
 30
0.0
 41
1.0
 42
1.0
 43
1.0
 50
90.0
  0
INSERT
  5
6401E
330
5EB08
100
AcDbEntity
  8
AM_5
100
AcDbBlockReference
  2
_Dot
 10
190.5000000000002
 20
50.0
 30
0.0
 41
1.0
 42
1.0
 43
1.0
 50
270.0
  0
MTEXT
  5
6401F
330
5EB08
100
AcDbEntity
  8
AM_5
 62
     2
100
AcDbMText
 10
187.9000000000002
 20
95.00000000000005
 30
0.0
 40
3.2
 41
0.0
 71
     5
 72
     1
  1
90
 11
0.0000000000000001
 21
1.0
 31
0.0
 73
     1
 44
1.0
1001
ACAD
1000
MTEXTBEGIN
1070
    73
1070
     1
1070
    44
1040
1.0
1070
    74
1070
     0
1000
MTEXTEND
  0
POINT
  5
64020
330
5EB08
100
AcDbEntity
  8
Defpoints
 62
     0
100
AcDbPoint
 10
199.0000000000001
 20
140.0
 30
0.0
  0
POINT
  5
64021
330
5EB08
100
AcDbEntity
  8
Defpoints
 62
     0
100
AcDbPoint
 10
201.5000000000001
 20
50.0
 30
0.0
  0
POINT
  5
64022
330
5EB08
100
AcDbEntity
  8
Defpoints
 62
     0
100
AcDbPoint
 10
190.5000000000002
 20
50.0
 30
0.0
  0
ENDBLK
  5
5EB13
330
5EB08
100
AcDbEntity
  8
0
100
AcDbBlockEnd
  0
BLOCK
  5
5EB3E
330
5EB32
100
AcDbEntity
  8
0
100
AcDbBlockBegin
  2
*D16
 70
     1
 10
0.0
 20
0.0
 30
0.0
  3
*D16
  1

  0
LINE
  5
64023
330
5EB32
100
AcDbEntity
  8
AM_5
100
AcDbLine
 10
133.0000000000001
 20
48.5
 30
0.0
 11
133.0000000000001
 21
39.0
 31
0.0
  0
LINE
  5
64024
330
5EB32
100
AcDbEntity
  8
AM_5
100
AcDbLine
 10
126.0000000000001
 20
48.5
 30
0.0
 11
126.0000000000001
 21
39.0
 31
0.0
  0
LINE
  5
64025
330
5EB32
100
AcDbEntity
  8
AM_5
100
AcDbLine
 10
132.0000000000001
 20
40.0
 30
0.0
 11
127.0000000000001
 21
40.0
 31
0.0
  0
INSERT
  5
64026
330
5EB32
100
AcDbEntity
  8
AM_5
100
AcDbBlockReference
  2
_Dot
 10
133.0000000000001
 20
40.0
 30
0.0
 41
1.0
 42
1.0
 43
1.0
  0
INSERT
  5
64027
330
5EB32
100
AcDbEntity
  8
AM_5
100
AcDbBlockReference
  2
_Dot
 10
126.0000000000001
 20
40.0
 30
0.0
 41
1.0
 42
1.0
 43
1.0
 50
180.0
  0
MTEXT
  5
64028
330
5EB32
100
AcDbEntity
  8
AM_5
 62
     2
100
AcDbMText
 10
129.5000000000001
 20
42.6
 30
0.0
 40
3.2
 41
0.0
 71
     5
 72
     1
  1
%%c7
 73
     1
 44
1.0
1001
ACAD
1000
MTEXTBEGIN
1070
    73
1070
     1
1070
    44
1040
1.0
1070
    74
1070
     0
1000
MTEXTEND
  0
POINT
  5
64029
330
5EB32
100
AcDbEntity
  8
Defpoints
 62
     0
100
AcDbPoint
 10
133.0000000000001
 20
50.0
 30
0.0
  0
POINT
  5
6402A
330
5EB32
100
AcDbEntity
  8
Defpoints
 62
     0
100
AcDbPoint
 10
126.0000000000001
 20
50.0
 30
0.0
  0
POINT
  5
6402B
330
5EB32
100
AcDbEntity
  8
Defpoints
 62
     0
100
AcDbPoint
 10
126.0000000000001
 20
40.0
 30
0.0
  0
ENDBLK
  5
5EB3F
330
5EB32
100
AcDbEntity
  8
0
100
AcDbBlockEnd
  0
BLOCK
  5
5EB61
330
5EB55
100
AcDbEntity
  8
0
100
AcDbBlockBegin
  2
*D17
 70
     1
 10
0.0
 20
0.0
 30
0.0
  3
*D17
  1

  0
LINE
  5
6402C
330
5EB55
100
AcDbEntity
  8
AM_5
100
AcDbLine
 10
208.5000000000001
 20
48.5
 30
0.0
 11
208.5000000000001
 21
39.0
 31
0.0
  0
LINE
  5
6402D
330
5EB55
100
AcDbEntity
  8
AM_5
100
AcDbLine
 10
201.5000000000001
 20
48.5
 30
0.0
 11
201.5000000000001
 21
39.0
 31
0.0
  0
LINE
  5
6402E
330
5EB55
100
AcDbEntity
  8
AM_5
100
AcDbLine
 10
207.5000000000001
 20
40.0
 30
0.0
 11
202.5000000000001
 21
40.0
 31
0.0
  0
INSERT
  5
6402F
330
5EB55
100
AcDbEntity
  8
AM_5
100
AcDbBlockReference
  2
_Dot
 10
208.5000000000001
 20
40.0
 30
0.0
 41
1.0
 42
1.0
 43
1.0
  0
INSERT
  5
64030
330
5EB55
100
AcDbEntity
  8
AM_5
100
AcDbBlockReference
  2
_Dot
 10
201.5000000000001
 20
40.0
 30
0.0
 41
1.0
 42
1.0
 43
1.0
 50
180.0
  0
MTEXT
  5
64031
330
5EB55
100
AcDbEntity
  8
AM_5
 62
     2
100
AcDbMText
 10
205.0000000000001
 20
42.6
 30
0.0
 40
3.2
 41
0.0
 71
     5
 72
     1
  1
%%c7
 73
     1
 44
1.0
1001
ACAD
1000
MTEXTBEGIN
1070
    73
1070
     1
1070
    44
1040
1.0
1070
    74
1070
     0
1000
MTEXTEND
  0
POINT
  5
64032
330
5EB55
100
AcDbEntity
  8
Defpoints
 62
     0
100
AcDbPoint
 10
208.5000000000001
 20
50.0
 30
0.0
  0
POINT
  5
64033
330
5EB55
100
AcDbEntity
  8
Defpoints
 62
     0
100
AcDbPoint
 10
201.5000000000001
 20
50.0
 30
0.0
  0
POINT
  5
64034
330
5EB55
100
AcDbEntity
  8
Defpoints
 62
     0
100
AcDbPoint
 10
201.5000000000001
 20
40.0
 30
0.0
  0
ENDBLK
  5
5EB62
330
5EB55
100
AcDbEntity
  8
0
100
AcDbBlockEnd
  0
BLOCK
  5
5EC05
330
5EBFE
100
AcDbEntity
  8
0
100
AcDbBlockBegin
  2
*D18
 70
     1
 10
0.0
 20
0.0
 30
0.0
  3
*D18
  1

  0
LINE
  5
64035
330
5EBFE
100
AcDbEntity
  8
AM_5
100
AcDbLine
 10
110.8484858624139
 20
131.9102437239707
 30
0.0
 11
120.2324858624191
 21
131.9102437239708
 31
0.0
  0
LINE
  5
64036
330
5EBFE
100
AcDbEntity
  8
AM_5
100
AcDbLine
 10
120.2324858624191
 20
131.9102437239708
 30
0.0
 11
124.426543355338
 21
136.4764107977941
 31
0.0
  0
LINE
  5
64037
330
5EBFE
100
AcDbEntity
  8
AM_5
100
AcDbLine
 10
134.5734566446615
 20
147.5235892022095
 30
0.0
 11
135.2499175306163
 21
148.2600677625038
 31
0.0
  0
MTEXT
  5
64038
330
5EBFE
100
AcDbEntity
  8
AM_5
 62
     2
100
AcDbMText
 10
115.0404858624139
 20
134.5102437239708
 30
0.0
 40
3.200000000000001
 41
0.0
 71
     5
 72
     1
  1
（\U+220513）
 73
     1
 44
1.0
1001
ACAD
1000
MTEXTBEGIN
1070
    73
1070
     1
1070
    44
1040
1.0
1070
    74
1070
     0
1000
MTEXTEND
  0
LINE
  5
64039
330
5EBFE
100
AcDbEntity
  8
AM_5
100
AcDbLine
 10
133.8969957587066
 20
146.7871106419152
 30
0.0
 11
125.1030042412928
 21
137.2128893580884
 31
0.0
  0
INSERT
  5
6403A
330
5EBFE
100
AcDbEntity
  8
AM_5
100
AcDbBlockReference
  2
_Dot
 10
133.8969957587066
 20
146.7871106419152
 30
0.0
 50
227.4323006090177
  0
INSERT
  5
6403B
330
5EBFE
100
AcDbEntity
  8
AM_5
100
AcDbBlockReference
  2
_Dot
 10
125.1030042412928
 20
137.2128893580884
 30
0.0
 50
47.4323006090177
  0
POINT
  5
6403C
330
5EBFE
100
AcDbEntity
  8
Defpoints
 62
     0
100
AcDbPoint
 10
125.1030042412928
 20
137.2128893580884
 30
0.0
  0
POINT
  5
6403D
330
5EBFE
100
AcDbEntity
  8
Defpoints
 62
     0
100
AcDbPoint
 10
133.8969957587066
 20
146.7871106419152
 30
0.0
  0
ENDBLK
  5
5EC06
330
5EBFE
100
AcDbEntity
  8
0
100
AcDbBlockEnd
  0
BLOCK
  5
5EC4D
330
5EC46
100
AcDbEntity
  8
0
100
AcDbBlockBegin
  2
*D19
 70
     1
 10
0.0
 20
0.0
 30
0.0
  3
*D19
  1

  0
LINE
  5
64059
330
5EC46
100
AcDbEntity
  8
AM_5
100
AcDbLine
 10
185.9286370977376
 20
160.812637097744
 30
0.0
 11
195.3126370977446
 21
160.812637097744
 31
0.0
  0
LINE
  5
6405A
330
5EC46
100
AcDbEntity
  8
AM_5
100
AcDbLine
 10
195.3126370977446
 20
160.812637097744
 30
0.0
 11
199.6966991411011
 21
165.1966991411008
 31
0.0
  0
LINE
  5
6405B
330
5EC46
100
AcDbEntity
  8
AM_5
100
AcDbLine
 10
210.3033008589004
 20
175.8033008589005
 30
0.0
 11
211.0104076400869
 21
176.5104076400871
 31
0.0
  0
MTEXT
  5
6405C
330
5EC46
100
AcDbEntity
  8
AM_5
 62
     2
100
AcDbMText
 10
190.1206370977376
 20
163.412637097744
 30
0.0
 40
3.200000000000001
 41
0.0
 71
     5
 72
     1
  1
（\U+220513）
 73
     1
 44
1.0
1001
ACAD
1000
MTEXTBEGIN
1070
    73
1070
     1
1070
    44
1040
1.0
1070
    74
1070
     0
1000
MTEXTEND
  0
LINE
  5
6405D
330
5EC46
100
AcDbEntity
  8
AM_5
100
AcDbLine
 10
209.5961940777139
 20
175.096194077714
 30
0.0
 11
200.4038059222877
 21
165.9038059222873
 31
0.0
  0
INSERT
  5
6405E
330
5EC46
100
AcDbEntity
  8
AM_5
100
AcDbBlockReference
  2
_Dot
 10
209.5961940777139
 20
175.096194077714
 30
0.0
 50
225.0000000000015
  0
INSERT
  5
6405F
330
5EC46
100
AcDbEntity
  8
AM_5
100
AcDbBlockReference
  2
_Dot
 10
200.4038059222877
 20
165.9038059222873
 30
0.0
 50
45.00000000000143
  0
POINT
  5
64060
330
5EC46
100
AcDbEntity
  8
Defpoints
 62
     0
100
AcDbPoint
 10
200.4038059222877
 20
165.9038059222873
 30
0.0
  0
POINT
  5
64061
330
5EC46
100
AcDbEntity
  8
Defpoints
 62
     0
100
AcDbPoint
 10
209.5961940777139
 20
175.096194077714
 30
0.0
  0
ENDBLK
  5
5EC4E
330
5EC46
100
AcDbEntity
  8
0
100
AcDbBlockEnd
  0
BLOCK
  5
61500
330
614F6
100
AcDbEntity
  8
0
100
AcDbBlockBegin
  2
*D20
 70
     1
 10
0.0
 20
0.0
 30
0.0
  3
*D20
  1

  0
LINE
  5
64047
330
614F6
100
AcDbEntity
  8
AM_5
100
AcDbLine
 10
129.5000000000001
 20
153.0
 30
0.0
 11
129.5000000000001
 21
157.5000010100002
 31
0.0
  0
LINE
  5
64048
330
614F6
100
AcDbEntity
  8
AM_5
100
AcDbLine
 10
148.5000000000001
 20
141.5
 30
0.0
 11
148.5000000000001
 21
157.5000010100002
 31
0.0
  0
LINE
  5
64049
330
614F6
100
AcDbEntity
  8
AM_5
100
AcDbLine
 10
130.5000000000001
 20
156.5000010100002
 30
0.0
 11
147.5000000000001
 21
156.5000010100002
 31
0.0
  0
INSERT
  5
6404A
330
614F6
100
AcDbEntity
  8
AM_5
100
AcDbBlockReference
  2
_Dot
 10
129.5000000000001
 20
156.5000010100002
 30
0.0
 41
1.0
 42
1.0
 43
1.0
 50
180.0
  0
INSERT
  5
6404B
330
614F6
100
AcDbEntity
  8
AM_5
100
AcDbBlockReference
  2
_Dot
 10
148.5000000000001
 20
156.5000010100002
 30
0.0
 41
1.0
 42
1.0
 43
1.0
  0
MTEXT
  5
6404C
330
614F6
100
AcDbEntity
  8
AM_5
 62
     2
100
AcDbMText
 10
139.0000000000001
 20
159.1000010100002
 30
0.0
 40
3.2
 41
0.0
 71
     5
 72
     1
  1
19
 73
     1
 44
1.0
1001
ACAD
1000
MTEXTBEGIN
1070
    73
1070
     1
1070
    44
1040
1.0
1070
    74
1070
     0
1000
MTEXTEND
  0
POINT
  5
6404D
330
614F6
100
AcDbEntity
  8
Defpoints
 62
     0
100
AcDbPoint
 10
129.5000000000001
 20
151.5
 30
0.0
  0
POINT
  5
6404E
330
614F6
100
AcDbEntity
  8
Defpoints
 62
     0
100
AcDbPoint
 10
148.5000000000001
 20
140.0
 30
0.0
  0
POINT
  5
6404F
330
614F6
100
AcDbEntity
  8
Defpoints
 62
     0
100
AcDbPoint
 10
148.5000000000001
 20
156.5000010100002
 30
0.0
  0
ENDBLK
  5
61501
330
614F6
100
AcDbEntity
  8
0
100
AcDbBlockEnd
  0
BLOCK
  5
61518
330
6150E
100
AcDbEntity
  8
0
100
AcDbBlockBegin
  2
*D21
 70
     1
 10
0.0
 20
0.0
 30
0.0
  3
*D21
  1

  0
LINE
  5
64050
330
6150E
100
AcDbEntity
  8
AM_5
100
AcDbLine
 10
205.0000000000001
 20
181.5
 30
0.0
 11
205.0000000000001
 21
187.5
 31
0.0
  0
LINE
  5
64051
330
6150E
100
AcDbEntity
  8
AM_5
100
AcDbLine
 10
224.0000000000001
 20
170.5
 30
0.0
 11
224.0000000000001
 21
187.5
 31
0.0
  0
LINE
  5
64052
330
6150E
100
AcDbEntity
  8
AM_5
100
AcDbLine
 10
206.0000000000001
 20
186.5
 30
0.0
 11
223.0000000000001
 21
186.5
 31
0.0
  0
INSERT
  5
64053
330
6150E
100
AcDbEntity
  8
AM_5
100
AcDbBlockReference
  2
_Dot
 10
205.0000000000001
 20
186.5
 30
0.0
 41
1.0
 42
1.0
 43
1.0
 50
180.0
  0
INSERT
  5
64054
330
6150E
100
AcDbEntity
  8
AM_5
100
AcDbBlockReference
  2
_Dot
 10
224.0000000000001
 20
186.5
 30
0.0
 41
1.0
 42
1.0
 43
1.0
  0
MTEXT
  5
64055
330
6150E
100
AcDbEntity
  8
AM_5
 62
     2
100
AcDbMText
 10
214.5000000000001
 20
189.1
 30
0.0
 40
3.2
 41
0.0
 71
     5
 72
     1
  1
19
 73
     1
 44
1.0
1001
ACAD
1000
MTEXTBEGIN
1070
    73
1070
     1
1070
    44
1040
1.0
1070
    74
1070
     0
1000
MTEXTEND
  0
POINT
  5
64056
330
6150E
100
AcDbEntity
  8
Defpoints
 62
     0
100
AcDbPoint
 10
205.0000000000001
 20
180.0
 30
0.0
  0
POINT
  5
64057
330
6150E
100
AcDbEntity
  8
Defpoints
 62
     0
100
AcDbPoint
 10
224.0000000000001
 20
169.0
 30
0.0
  0
POINT
  5
64058
330
6150E
100
AcDbEntity
  8
Defpoints
 62
     0
100
AcDbPoint
 10
224.0000000000001
 20
186.5
 30
0.0
  0
ENDBLK
  5
61519
330
6150E
100
AcDbEntity
  8
0
100
AcDbBlockEnd
  0
BLOCK
  5
642A1
330
6429A
100
AcDbEntity
  8
0
100
AcDbBlockBegin
  2
*S23
 70
     1
 10
0.0
 20
0.0
 30
0.0
  3
*S23
  1

  0
LINE
  5
6429B
330
6429A
100
AcDbEntity
  8
AM_5
 62
     3
100
AcDbLine
 10
175.5599999999999
 20
46.0
 30
0.0
 11
141.0000000000001
 21
46.0
 31
0.0
  0
LINE
  5
6429C
330
6429A
100
AcDbEntity
  8
AM_5
 62
     3
100
AcDbLine
 10
141.0000000000001
 20
46.0
 30
0.0
 11
134.0797046283148
 21
51.37340581801473
 31
0.0
  0
LINE
  5
6429D
330
6429A
100
AcDbEntity
  8
AM_5
  6
Continuous
 62
     3
100
AcDbLine
 10
134.0797046283148
 20
51.37340581801473
 30
0.0
 11
132.5000000000001
 21
52.60000000000037
 31
0.0
  0
LINE
  5
6429E
330
6429A
100
AcDbEntity
  8
AM_5
  6
Continuous
 62
     3
100
AcDbLine
 10
134.4083695458366
 20
51.79668639361092
 30
0.0
 11
132.5000000000001
 21
52.60000000000037
 31
0.0
  0
LINE
  5
6429F
330
6429A
100
AcDbEntity
  8
AM_5
  6
Continuous
 62
     3
100
AcDbLine
 10
132.5000000000001
 20
52.60000000000037
 30
0.0
 11
133.7510397107931
 21
50.95012524241855
 31
0.0
  0
MTEXT
  5
642A0
330
6429A
100
AcDbEntity
  8
AM_5
 62
     2
100
AcDbMText
 10
144.1999999999999
 20
47.60000000000036
 30
0.0
 40
3.2
 41
0.0
 71
     7
 72
     5
  1
E 型止め輪（呼び6）用溝
 73
     1
 44
1.0
1001
ACAD
1000
MTEXTBEGIN
1070
    73
1070
     1
1070
    44
1040
1.0
1070
    74
1070
     0
1000
MTEXTEND
  0
ENDBLK
  5
642A2
330
6429A
100
AcDbEntity
  8
0
100
AcDbBlockEnd
  0
BLOCK
  5
642AB
330
642A4
100
AcDbEntity
  8
0
100
AcDbBlockBegin
  2
*S24
 70
     1
 10
0.0
 20
0.0
 30
0.0
  3
*S24
  1

  0
LINE
  5
642A5
330
642A4
100
AcDbEntity
  8
AM_5
 62
     3
100
AcDbLine
 10
251.0599999999999
 20
46.0
 30
0.0
 11
216.5000000000001
 21
46.0
 31
0.0
  0
LINE
  5
642A6
330
642A4
100
AcDbEntity
  8
AM_5
 62
     3
100
AcDbLine
 10
216.5000000000001
 20
46.0
 30
0.0
 11
209.5887156659545
 21
51.28509978485841
 31
0.0
  0
LINE
  5
642A7
330
642A4
100
AcDbEntity
  8
AM_5
  6
Continuous
 62
     3
100
AcDbLine
 10
209.5887156659545
 20
51.28509978485841
 30
0.0
 11
208.0000000000001
 21
52.5
 31
0.0
  0
LINE
  5
642A8
330
642A4
100
AcDbEntity
  8
AM_5
  6
Continuous
 62
     3
100
AcDbLine
 10
209.9142471945325
 20
51.71079486069119
 30
0.0
 11
208.0000000000001
 21
52.5
 31
0.0
  0
LINE
  5
642A9
330
642A4
100
AcDbEntity
  8
AM_5
  6
Continuous
 62
     3
100
AcDbLine
 10
208.0000000000001
 20
52.5
 30
0.0
 11
209.2631841373765
 21
50.85940470902562
 31
0.0
  0
MTEXT
  5
642AA
330
642A4
100
AcDbEntity
  8
AM_5
 62
     2
100
AcDbMText
 10
219.6999999999999
 20
47.60000000000036
 30
0.0
 40
3.2
 41
0.0
 71
     7
 72
     5
  1
E 型止め輪（呼び6）用溝
 73
     1
 44
1.0
1001
ACAD
1000
MTEXTBEGIN
1070
    73
1070
     1
1070
    44
1040
1.0
1070
    74
1070
     0
1000
MTEXTEND
  0
ENDBLK
  5
642AC
330
642A4
100
AcDbEntity
  8
0
100
AcDbBlockEnd
  0
ENDSEC
  0
SECTION
  2
ENTITIES
  0
LINE
  5
5D832
330
1F
100
AcDbEntity
  8
AM_0
100
AcDbLine
 10
201.5000000000001
 20
52.0
 30
0.0
 11
208.5000000000001
 21
52.0
 31
0.0
  0
LINE
  5
5D833
330
1F
100
AcDbEntity
  8
AM_0
100
AcDbLine
 10
208.0000000000001
 20
53.0
 30
0.0
 11
208.0000000000001
 21
52.0
 31
0.0
  0
LINE
  5
5D834
330
1F
100
AcDbEntity
  8
AM_0
100
AcDbLine
 10
208.5000000000001
 20
52.0
 30
0.0
 11
208.5000000000001
 21
50.0
 31
0.0
  0
LINE
  5
5D835
102
{ACAD_REACTORS
330
5EB15
330
5EB64
102
}
330
1F
100
AcDbEntity
  8
AM_0
100
AcDbLine
 10
208.5000000000001
 20
50.0
 30
0.0
 11
201.5000000000001
 21
50.0
 31
0.0
  0
LINE
  5
5D837
102
{ACAD_REACTORS
330
5EA6D
330
5EAA5
102
}
330
1F
100
AcDbEntity
  8
AM_0
100
AcDbLine
 10
224.0000000000001
 20
161.0
 30
0.0
 11
221.5000000000001
 21
161.0
 31
0.0
  0
ARC
  5
5D838
330
1F
100
AcDbEntity
  8
AM_0
100
AcDbCircle
 10
220.0000000000001
 20
169.0
 30
0.0
 40
1.5
100
AcDbArc
 50
0.0
 51
90.0
  0
ARC
  5
5D839
102
{ACAD_REACTORS
330
5EA6D
330
6151B
102
}
330
1F
100
AcDbEntity
  8
AM_0
100
AcDbCircle
 10
220.0000000000001
 20
169.0
 30
0.0
 40
4.0
100
AcDbArc
 50
0.0
 51
90.0
  0
LINE
  5
5D83A
330
1F
100
AcDbEntity
  8
AM_0
100
AcDbLine
 10
220.0000000000001
 20
173.0
 30
0.0
 11
213.1240380000002
 21
173.0
 31
0.0
  0
LINE
  5
5D83B
330
1F
100
AcDbEntity
  8
AM_0
100
AcDbLine
 10
201.5000000000001
 20
50.0
 30
0.0
 11
201.5000000000001
 21
52.0
 31
0.0
  0
LINE
  5
5D83C
330
1F
100
AcDbEntity
  8
AM_0
100
AcDbLine
 10
220.0000000000001
 20
170.5
 30
0.0
 11
212.7459670000002
 21
170.5
 31
0.0
  0
ARC
  5
5D83D
330
1F
100
AcDbEntity
  8
AM_0
100
AcDbCircle
 10
212.7459670000002
 20
168.5
 30
0.0
 40
2.0
100
AcDbArc
 50
90.0
 51
129.1025739999913
  0
ARC
  5
5D83E
330
1F
100
AcDbEntity
  8
AM_0
100
AcDbCircle
 10
213.1240380000002
 20
168.0
 30
0.0
 40
5.0
100
AcDbArc
 50
90.0
 51
113.215580000007
  0
CIRCLE
  5
5D83F
330
1F
100
AcDbEntity
  8
AM_0
100
AcDbCircle
 10
205.0000000000001
 20
170.5
 30
0.0
 40
3.5
  0
CIRCLE
  5
5D840
330
1F
100
AcDbEntity
  8
AM_0
100
AcDbCircle
 10
205.0000000000001
 20
170.5
 30
0.0
 40
6.0
  0
CIRCLE
  5
5D841
102
{ACAD_REACTORS
330
5EC56
102
}
330
1F
100
AcDbEntity
  8
AM_0
100
AcDbCircle
 10
205.0000000000001
 20
170.5
 30
0.0
 40
6.5
  0
LINE
  5
5D843
330
1F
100
AcDbEntity
  8
AM_0
100
AcDbLine
 10
221.5000000000001
 20
161.0
 30
0.0
 11
221.5000000000001
 21
169.0
 31
0.0
  0
LINE
  5
5D844
330
1F
100
AcDbEntity
  8
AM_0
100
AcDbLine
 10
224.0000000000001
 20
161.0
 30
0.0
 11
224.0000000000001
 21
169.0
 31
0.0
  0
LINE
  5
5D845
330
1F
100
AcDbEntity
  8
AM_0
100
AcDbLine
 10
221.5000000000001
 20
120.0
 30
0.0
 11
221.5000000000001
 21
75.0
 31
0.0
  0
LINE
  5
5D846
330
1F
100
AcDbEntity
  8
AM_0
100
AcDbLine
 10
224.0000000000001
 20
120.0
 30
0.0
 11
224.0000000000001
 21
75.0
 31
0.0
  0
LINE
  5
5D847
330
1F
100
AcDbEntity
  8
AM_0
100
AcDbLine
 10
208.5000000000001
 20
53.0
 30
0.0
 11
208.5000000000001
 21
55.0
 31
0.0
  0
LINE
  5
5D848
102
{ACAD_REACTORS
330
5E9DD
330
5E9F5
102
}
330
1F
100
AcDbEntity
  8
AM_0
100
AcDbLine
 10
199.0000000000001
 20
75.0
 30
0.0
 11
224.0000000000001
 21
75.0
 31
0.0
  0
LINE
  5
5D849
330
1F
100
AcDbEntity
  8
AM_0
100
AcDbLine
 10
211.5000000000001
 20
74.5
 30
0.0
 11
211.5000000000001
 21
55.5
 31
0.0
  0
LINE
  5
5D84A
102
{ACAD_REACTORS
330
5E9F5
102
}
330
1F
100
AcDbEntity
  8
AM_0
100
AcDbLine
 10
199.0000000000001
 20
55.0
 30
0.0
 11
211.0000000000001
 21
55.0
 31
0.0
  0
LINE
  5
5D84B
330
1F
100
AcDbEntity
  8
AM_0
100
AcDbLine
 10
198.5000000000001
 20
55.5
 30
0.0
 11
198.5000000000001
 21
74.5
 31
0.0
  0
LINE
  5
5D84C
330
1F
100
AcDbEntity
  8
AM_0
100
AcDbLine
 10
198.5000000000001
 20
74.5
 30
0.0
 11
211.5000000000001
 21
74.5
 31
0.0
  0
LINE
  5
5D84D
330
1F
100
AcDbEntity
  8
AM_0
100
AcDbLine
 10
198.5000000000001
 20
55.5
 30
0.0
 11
211.5000000000001
 21
55.5
 31
0.0
  0
LINE
  5
5D84E
330
1F
100
AcDbEntity
  8
AM_0
100
AcDbLine
 10
211.0000000000001
 20
55.0
 30
0.0
 11
211.5000000000001
 21
55.5
 31
0.0
  0
LINE
  5
5D84F
330
1F
100
AcDbEntity
  8
AM_0
100
AcDbLine
 10
198.5000000000001
 20
55.5
 30
0.0
 11
199.0000000000001
 21
55.0
 31
0.0
  0
LINE
  5
5D850
330
1F
100
AcDbEntity
  8
AM_0
100
AcDbLine
 10
198.5000000000001
 20
74.5
 30
0.0
 11
199.0000000000001
 21
75.0
 31
0.0
  0
LINE
  5
5D851
330
1F
100
AcDbEntity
  8
AM_0
100
AcDbLine
 10
211.0000000000001
 20
75.0
 30
0.0
 11
211.5000000000001
 21
74.5
 31
0.0
  0
LINE
  5
5D852
330
1F
100
AcDbEntity
  8
AM_0
100
AcDbLine
 10
201.5000000000001
 20
55.0
 30
0.0
 11
201.5000000000001
 21
53.0
 31
0.0
  0
LINE
  5
5D853
330
1F
100
AcDbEntity
  8
AM_0
100
AcDbLine
 10
199.0000000000001
 20
75.0
 30
0.0
 11
199.0000000000001
 21
120.0
 31
0.0
  0
LINE
  5
5D854
330
1F
100
AcDbEntity
  8
AM_0
100
AcDbLine
 10
199.0000000000001
 20
55.0
 30
0.0
 11
211.0000000000001
 21
55.0
 31
0.0
  0
LINE
  5
5D855
330
1F
100
AcDbEntity
  8
AM_0
100
AcDbLine
 10
199.0000000000001
 20
75.0
 30
0.0
 11
211.0000000000001
 21
75.0
 31
0.0
  0
LINE
  5
5D856
330
1F
100
AcDbEntity
  8
AM_0
100
AcDbLine
 10
211.0000000000001
 20
140.0
 30
0.0
 11
211.5000000000001
 21
139.5
 31
0.0
  0
LINE
  5
5D857
330
1F
100
AcDbEntity
  8
AM_0
100
AcDbLine
 10
198.5000000000001
 20
139.5
 30
0.0
 11
199.0000000000001
 21
140.0
 31
0.0
  0
LINE
  5
5D858
330
1F
100
AcDbEntity
  8
AM_0
100
AcDbLine
 10
198.5000000000001
 20
120.5
 30
0.0
 11
199.0000000000001
 21
120.0
 31
0.0
  0
LINE
  5
5D859
330
1F
100
AcDbEntity
  8
AM_0
100
AcDbLine
 10
211.0000000000001
 20
120.0
 30
0.0
 11
211.5000000000001
 21
120.5
 31
0.0
  0
LINE
  5
5D85A
330
1F
100
AcDbEntity
  8
AM_0
100
AcDbLine
 10
198.5000000000001
 20
120.5
 30
0.0
 11
211.5000000000001
 21
120.5
 31
0.0
  0
LINE
  5
5D85B
330
1F
100
AcDbEntity
  8
AM_0
100
AcDbLine
 10
198.5000000000001
 20
139.5
 30
0.0
 11
211.5000000000001
 21
139.5
 31
0.0
  0
LINE
  5
5D85C
330
1F
100
AcDbEntity
  8
AM_0
100
AcDbLine
 10
201.5000000000001
 20
53.0
 30
0.0
 11
208.5000000000001
 21
53.0
 31
0.0
  0
LINE
  5
5D85D
330
1F
100
AcDbEntity
  8
AM_0
100
AcDbLine
 10
211.0000000000001
 20
120.0
 30
0.0
 11
211.0000000000001
 21
75.0
 31
0.0
  0
LINE
  5
5D85E
330
1F
100
AcDbEntity
  8
AM_0
100
AcDbLine
 10
198.5000000000001
 20
120.5
 30
0.0
 11
198.5000000000001
 21
139.5
 31
0.0
  0
LINE
  5
5D85F
102
{ACAD_REACTORS
330
5E9DD
330
5EA0D
102
}
330
1F
100
AcDbEntity
  8
AM_0
100
AcDbLine
 10
199.0000000000001
 20
120.0
 30
0.0
 11
224.0000000000001
 21
120.0
 31
0.0
  0
ARC
  5
5D862
330
1F
100
AcDbEntity
  8
AM_0
100
AcDbCircle
 10
202.0000000000001
 20
141.5
 30
0.0
 40
2.5
100
AcDbArc
 50
143.1301019999788
 51
216.8698980000197
  0
ARC
  5
5D864
330
1F
100
AcDbEntity
  8
AM_0
100
AcDbCircle
 10
208.0000000000001
 20
141.5
 30
0.0
 40
2.5
100
AcDbArc
 50
323.1301019999789
 51
36.86989800002115
  0
LINE
  5
5D865
330
1F
100
AcDbEntity
  8
AM_0
100
AcDbLine
 10
200.0000000000001
 20
143.0
 30
0.0
 11
210.0000000000001
 21
143.0
 31
0.0
  0
LINE
  5
5D866
330
1F
100
AcDbEntity
  8
AM_0
100
AcDbLine
 10
202.0000000000001
 20
53.0
 30
0.0
 11
202.0000000000001
 21
52.0
 31
0.0
  0
LINE
  5
5D867
330
1F
100
AcDbEntity
  8
AM_0
100
AcDbLine
 10
211.5000000000001
 20
139.5
 30
0.0
 11
211.5000000000001
 21
120.5
 31
0.0
  0
LINE
  5
5D868
102
{ACAD_REACTORS
330
5EA0D
330
5EB15
102
}
330
1F
100
AcDbEntity
  8
AM_0
100
AcDbLine
 10
199.0000000000001
 20
140.0
 30
0.0
 11
211.0000000000001
 21
140.0
 31
0.0
  0
LINE
  5
5D89E
330
1F
100
AcDbEntity
  8
AM_0
100
AcDbLine
 10
133.0000000000001
 20
53.0
 30
0.0
 11
126.0000000000001
 21
53.0
 31
0.0
  0
LINE
  5
5D8A0
102
{ACAD_REACTORS
330
5EA55
330
5EA89
102
}
330
1F
100
AcDbEntity
  8
AM_0
100
AcDbLine
 10
148.5000000000001
 20
131.0
 30
0.0
 11
146.5000000000001
 21
131.0
 31
0.0
  0
ARC
  5
5D8A1
102
{ACAD_REACTORS
330
5EA55
330
61503
102
}
330
1F
100
AcDbEntity
  8
AM_0
100
AcDbCircle
 10
144.5000000000001
 20
140.0
 30
0.0
 40
4.0
100
AcDbArc
 50
0.0
 51
90.0
  0
LINE
  5
5D8A2
330
1F
100
AcDbEntity
  8
AM_0
100
AcDbLine
 10
144.5000000000001
 20
144.0
 30
0.0
 11
137.6240380000001
 21
144.0
 31
0.0
  0
LINE
  5
5D8A3
330
1F
100
AcDbEntity
  8
AM_0
100
AcDbLine
 10
144.5000000000001
 20
142.0
 30
0.0
 11
137.6240380000001
 21
142.0
 31
0.0
  0
CIRCLE
  5
5D8A6
330
1F
100
AcDbEntity
  8
AM_0
100
AcDbCircle
 10
129.5000000000001
 20
142.0
 30
0.0
 40
3.5
  0
LINE
  5
5D8AA
330
1F
100
AcDbEntity
  8
AM_0
100
AcDbLine
 10
146.5000000000001
 20
131.0
 30
0.0
 11
146.5000000000001
 21
140.0
 31
0.0
  0
LINE
  5
5D8AB
330
1F
100
AcDbEntity
  8
AM_0
100
AcDbLine
 10
148.5000000000001
 20
131.0
 30
0.0
 11
148.5000000000001
 21
140.0
 31
0.0
  0
LINE
  5
5D8AC
330
1F
100
AcDbEntity
  8
AM_0
100
AcDbLine
 10
146.5000000000001
 20
90.0
 30
0.0
 11
146.5000000000001
 21
60.0
 31
0.0
  0
LINE
  5
5D8AD
330
1F
100
AcDbEntity
  8
AM_0
100
AcDbLine
 10
148.5000000000001
 20
90.0
 30
0.0
 11
148.5000000000001
 21
60.0
 31
0.0
  0
LINE
  5
5D8AE
330
1F
100
AcDbEntity
  8
AM_0
100
AcDbLine
 10
133.0000000000001
 20
60.0
 30
0.0
 11
133.0000000000001
 21
53.0
 31
0.0
  0
LINE
  5
5D8AF
330
1F
100
AcDbEntity
  8
AM_0
100
AcDbLine
 10
126.0000000000001
 20
60.0
 30
0.0
 11
126.0000000000001
 21
53.0
 31
0.0
  0
LINE
  5
5D8B0
330
1F
100
AcDbEntity
  8
AM_0
100
AcDbLine
 10
126.0000000000001
 20
52.20000000000073
 30
0.0
 11
126.0000000000001
 21
50.0
 31
0.0
  0
LINE
  5
5D8B1
330
1F
100
AcDbEntity
  8
AM_0
100
AcDbLine
 10
133.0000000000001
 20
52.20000000000073
 30
0.0
 11
133.0000000000001
 21
50.0
 31
0.0
  0
LINE
  5
5D8B2
330
1F
100
AcDbEntity
  8
AM_0
100
AcDbLine
 10
133.0000000000001
 20
53.0
 30
0.0
 11
126.0000000000001
 21
53.0
 31
0.0
  0
LINE
  5
5D8B3
330
1F
100
AcDbEntity
  8
AM_0
100
AcDbLine
 10
133.0000000000001
 20
52.20000000000073
 30
0.0
 11
126.0000000000001
 21
52.20000000000073
 31
0.0
  0
LINE
  5
5D8B4
102
{ACAD_REACTORS
330
5EA25
102
}
330
1F
100
AcDbEntity
  8
AM_0
100
AcDbLine
 10
123.5000000000001
 20
60.0
 30
0.0
 11
148.5000000000001
 21
60.0
 31
0.0
  0
LINE
  5
5D8B5
330
1F
100
AcDbEntity
  8
AM_0
100
AcDbLine
 10
132.5000000000001
 20
53.0
 30
0.0
 11
132.5000000000001
 21
52.20000000000073
 31
0.0
  0
LINE
  5
5D8B6
330
1F
100
AcDbEntity
  8
AM_0
100
AcDbLine
 10
123.5000000000001
 20
60.0
 30
0.0
 11
123.5000000000001
 21
90.0
 31
0.0
  0
LINE
  5
5D8B7
330
1F
100
AcDbEntity
  8
AM_0
100
AcDbLine
 10
123.5000000000001
 20
60.0
 30
0.0
 11
135.5000000000001
 21
60.0
 31
0.0
  0
LINE
  5
5D8B8
330
1F
100
AcDbEntity
  8
AM_0
100
AcDbLine
 10
135.5000000000001
 20
110.0
 30
0.0
 11
136.0000000000001
 21
109.5
 31
0.0
  0
LINE
  5
5D8B9
330
1F
100
AcDbEntity
  8
AM_0
100
AcDbLine
 10
123.0000000000001
 20
109.5
 30
0.0
 11
123.5000000000001
 21
110.0
 31
0.0
  0
LINE
  5
5D8BA
330
1F
100
AcDbEntity
  8
AM_0
100
AcDbLine
 10
123.0000000000001
 20
90.5
 30
0.0
 11
123.5000000000001
 21
90.0
 31
0.0
  0
LINE
  5
5D8BB
330
1F
100
AcDbEntity
  8
AM_0
100
AcDbLine
 10
135.5000000000001
 20
90.0
 30
0.0
 11
136.0000000000001
 21
90.5
 31
0.0
  0
LINE
  5
5D8BC
330
1F
100
AcDbEntity
  8
AM_0
100
AcDbLine
 10
123.0000000000001
 20
90.5
 30
0.0
 11
136.0000000000001
 21
90.5
 31
0.0
  0
LINE
  5
5D8BD
330
1F
100
AcDbEntity
  8
AM_0
100
AcDbLine
 10
123.0000000000001
 20
109.5
 30
0.0
 11
136.0000000000001
 21
109.5
 31
0.0
  0
LINE
  5
5D8BE
330
1F
100
AcDbEntity
  8
AM_0
100
AcDbLine
 10
126.5000000000001
 20
52.20000000000073
 30
0.0
 11
126.5000000000001
 21
53.0
 31
0.0
  0
LINE
  5
5D8BF
330
1F
100
AcDbEntity
  8
AM_0
100
AcDbLine
 10
135.5000000000001
 20
90.0
 30
0.0
 11
135.5000000000001
 21
60.0
 31
0.0
  0
LINE
  5
5D8C0
330
1F
100
AcDbEntity
  8
AM_0
100
AcDbLine
 10
123.0000000000001
 20
90.5
 30
0.0
 11
123.0000000000001
 21
109.5
 31
0.0
  0
LINE
  5
5D8C1
102
{ACAD_REACTORS
330
5EA25
330
5EA3D
102
}
330
1F
100
AcDbEntity
  8
AM_0
100
AcDbLine
 10
123.5000000000001
 20
90.0
 30
0.0
 11
148.5000000000001
 21
90.0
 31
0.0
  0
ARC
  5
5D8C4
330
1F
100
AcDbEntity
  8
AM_0
100
AcDbCircle
 10
126.5000000000001
 20
111.5
 30
0.0
 40
2.5
100
AcDbArc
 50
143.1301019999788
 51
216.8698980000212
  0
ARC
  5
5D8C6
330
1F
100
AcDbEntity
  8
AM_0
100
AcDbCircle
 10
132.5000000000001
 20
111.5
 30
0.0
 40
2.5
100
AcDbArc
 50
323.1301019999789
 51
36.86989800002115
  0
LINE
  5
5D8C7
330
1F
100
AcDbEntity
  8
AM_0
100
AcDbLine
 10
124.5000000000001
 20
113.0
 30
0.0
 11
134.5000000000001
 21
113.0
 31
0.0
  0
LINE
  5
5D8C8
102
{ACAD_REACTORS
330
5EAFD
330
5EB41
102
}
330
1F
100
AcDbEntity
  8
AM_0
100
AcDbLine
 10
133.0000000000001
 20
50.0
 30
0.0
 11
126.0000000000001
 21
50.0
 31
0.0
  0
LINE
  5
5D8C9
330
1F
100
AcDbEntity
  8
AM_0
100
AcDbLine
 10
136.0000000000001
 20
109.5
 30
0.0
 11
136.0000000000001
 21
90.5
 31
0.0
  0
LINE
  5
5D8CA
102
{ACAD_REACTORS
330
5EA3D
330
5EAFD
102
}
330
1F
100
AcDbEntity
  8
AM_0
100
AcDbLine
 10
123.5000000000001
 20
110.0
 30
0.0
 11
135.5000000000001
 21
110.0
 31
0.0
  0
ARC
  5
5D8CB
330
1F
100
AcDbEntity
  8
AM_0
100
AcDbCircle
 10
144.0458540000001
 20
139.5458539999999
 30
0.0
 40
2.495811999999999
100
AcDbArc
 50
10.48412300005586
 51
79.51587699999194
  0
ARC
  5
5D8CC
330
1F
100
AcDbEntity
  8
AM_0
100
AcDbCircle
 10
137.6240380000001
 20
139.5
 30
0.0
 40
2.5
100
AcDbArc
 50
90.0
 51
131.4283750079607
  0
ARC
  5
5D8CD
330
1F
100
AcDbEntity
  8
AM_0
100
AcDbCircle
 10
137.6240380000001
 20
139.5
 30
0.0
 40
4.5
100
AcDbArc
 50
90.0
 51
113.956404281728
  0
LWPOLYLINE
  5
5E998
330
1F
100
AcDbEntity
  8
AM_0
  6
中線
370
    30
100
AcDbPolyline
 90
        4
 70
     1
 43
0.0
 10
11.5
 20
201.5
 10
285.5000000000002
 20
201.5
 10
285.5000000000002
 20
8.5
 10
11.5
 20
8.5
1001
GENIUS_GENREC_14
1002
{
1000
PYDIR
1011
11.5
1021
8.5
1031
0.0
1002
}
1002
{
1000
PXDIR
1011
285.5000000000002
1021
201.5
1031
0.0
1002
}
1002
{
1000
PORI
1011
11.5
1021
201.5
1031
0.0
1002
}
1002
{
1000
PINS
1011
11.5
1021
201.5
1031
0.0
1002
}
1002
{
1000
PINS2
1011
285.5000000000002
1021
8.5
1031
0.0
1002
}
1002
{
1000
C
1070
     1
1002
}
1001
GENIUS_GENODEF_13
1002
{
1000
HIER
1070
     0
1002
}
1002
{
1000
MANEDIT
1070
     0
1002
}
1002
{
1000
NOSEL
1070
     0
1002
}
1002
{
1000
BEHIND
1070
     0
1002
}
1002
{
1000
OTHER
1070
     0
1002
}
1002
{
1000
REACTOR
1002
}
1001
GENIUS_GENOBJ-N-REC_13
1002
{
1000
OWNER
1000
GEN
1002
}
  0
LWPOLYLINE
  5
5E999
330
1F
100
AcDbEntity
  8
size
100
AcDbPolyline
 90
        4
 70
     1
 43
0.0
 10
0.0
 20
210.0
 10
297.0000000000002
 20
210.0
 10
297.0000000000002
 20
0.0
 10
0.0
 20
0.0
1001
GENIUS_GENREC_14
1002
{
1000
PYDIR
1011
0.0
1021
0.0
1031
0.0
1002
}
1002
{
1000
PXDIR
1011
297.0000000000002
1021
210.0
1031
0.0
1002
}
1002
{
1000
PORI
1011
0.0
1021
210.0
1031
0.0
1002
}
1002
{
1000
PINS
1011
0.0
1021
210.0
1031
0.0
1002
}
1002
{
1000
PINS2
1011
297.0000000000002
1021
0.0
1031
0.0
1002
}
1002
{
1000
C
1070
     1
1002
}
1001
GENIUS_GENODEF_13
1002
{
1000
HIER
1070
     0
1002
}
1002
{
1000
MANEDIT
1070
     0
1002
}
1002
{
1000
NOSEL
1070
     0
1002
}
1002
{
1000
BEHIND
1070
     0
1002
}
1002
{
1000
OTHER
1070
     0
1002
}
1002
{
1000
REACTOR
1002
}
1001
GENIUS_GENOBJ-N-REC_13
1002
{
1000
OWNER
1000
GEN
1002
}
  0
LINE
  5
5E99B
330
1F
100
AcDbEntity
  8
AM_0
100
AcDbLine
 10
11.5
 20
201.5
 30
0.0
 11
11.50000000001067
 21
153.5
 31
0.0
  0
LINE
  5
5E99C
330
1F
100
AcDbEntity
  8
AM_0
100
AcDbLine
 10
11.5
 20
201.5
 30
0.0
 11
101.5
 21
201.5
 31
0.0
  0
LINE
  5
5E99D
330
1F
100
AcDbEntity
  8
AM_0
100
AcDbLine
 10
101.5
 20
201.5
 30
0.0
 11
101.499999999999
 21
153.5
 31
0.0
  0
LINE
  5
5E99E
330
1F
100
AcDbEntity
  8
AM_0
100
AcDbLine
 10
31.49999999999849
 20
153.5
 30
0.0
 11
31.5
 21
201.5
 31
0.0
  0
LINE
  5
5E99F
330
1F
100
AcDbEntity
  8
AM_5
100
AcDbLine
 10
11.5
 20
193.5
 30
0.0
 11
101.5
 21
193.5
 31
0.0
  0
MTEXT
  5
5E9A0
330
1F
100
AcDbEntity
  8
AM_6
100
AcDbMText
 10
21.5
 20
197.5
 30
0.0
 40
3.2
 41
20.0
 71
     5
 72
     5
  1
品　名
 73
     1
 44
1.0
1001
ACAD
1000
MTEXTBEGIN
1070
    73
1070
     1
1070
    44
1040
1.0
1070
    74
1070
     0
1000
MTEXTEND
  0
MTEXT
  5
5E9A1
330
1F
100
AcDbEntity
  8
AM_6
100
AcDbMText
 10
31.5
 20
197.5
 30
0.0
 40
3.2
 41
70.0
 71
     4
 72
     5
  1
　L 型裏丁番
 73
     1
 44
1.0
1001
ACAD
1000
MTEXTBEGIN
1070
    73
1070
     1
1070
    44
1040
1.0
1070
    74
1070
     0
1000
MTEXTEND
  0
MTEXT
  5
5E9A2
330
1F
100
AcDbEntity
  8
AM_6
100
AcDbMText
 10
21.5
 20
189.5
 30
0.0
 40
3.2
 41
20.0
 71
     5
 72
     5
  1
品　番
 73
     1
 44
1.0
1001
ACAD
1000
MTEXTBEGIN
1070
    73
1070
     1
1070
    44
1040
1.0
1070
    74
1070
     0
1000
MTEXTEND
  0
MTEXT
  5
5E9A3
330
1F
100
AcDbEntity
  8
AM_6
100
AcDbMText
 10
31.5
 20
189.5
 30
0.0
 40
3.2
 41
70.0
 71
     4
 72
     5
  1
　DEH-57S
 73
     1
 44
1.0
1001
ACAD
1000
MTEXTBEGIN
1070
    73
1070
     1
1070
    44
1040
1.0
1070
    74
1070
     0
1000
MTEXTEND
  0
MTEXT
  5
5E9A4
330
1F
100
AcDbEntity
  8
AM_6
100
AcDbMText
 10
31.5
 20
181.5
 30
0.0
 40
3.2
 41
70.0
 71
     4
 72
     5
  1
　ステンレス
 73
     1
 44
1.0
1001
ACAD
1000
MTEXTBEGIN
1070
    73
1070
     1
1070
    44
1040
1.0
1070
    74
1070
     0
1000
MTEXTEND
  0
LINE
  5
5E9A5
330
1F
100
AcDbEntity
  8
AM_5
100
AcDbLine
 10
11.49999999999988
 20
177.5
 30
0.0
 11
101.4999999999999
 21
177.5
 31
0.0
  0
MTEXT
  5
5E9A6
330
1F
100
AcDbEntity
  8
AM_6
100
AcDbMText
 10
21.49999999999989
 20
173.5
 30
0.0
 40
3.2
 41
20.0
 71
     5
 72
     5
  1
仕上げ
 73
     1
 44
1.0
1001
ACAD
1000
MTEXTBEGIN
1070
    73
1070
     1
1070
    44
1040
1.0
1070
    74
1070
     0
1000
MTEXTEND
  0
LINE
  5
5E9A7
330
1F
100
AcDbEntity
  8
AM_5
100
AcDbLine
 10
11.50000000000378
 20
169.5
 30
0.0
 11
101.500000000001
 21
169.5
 31
0.0
  0
MTEXT
  5
5E9A8
330
1F
100
AcDbEntity
  8
AM_6
100
AcDbMText
 10
21.50000000000014
 20
165.5
 30
0.0
 40
3.2
 41
20.0
 71
     5
 72
     5
  1
備　考
 73
     1
 44
1.0
1001
ACAD
1000
MTEXTBEGIN
1070
    73
1070
     1
1070
    44
1040
1.0
1070
    74
1070
     0
1000
MTEXTEND
  0
LINE
  5
5E9A9
330
1F
100
AcDbEntity
  8
AM_5
100
AcDbLine
 10
11.5
 20
185.5
 30
0.0
 11
101.5
 21
185.5
 31
0.0
  0
MTEXT
  5
5E9AA
330
1F
100
AcDbEntity
  8
AM_6
100
AcDbMText
 10
21.5
 20
181.5
 30
0.0
 40
3.2
 41
20.0
 71
     5
 72
     5
  1
材　質
 73
     1
 44
1.0
1001
ACAD
1000
MTEXTBEGIN
1070
    73
1070
     1
1070
    44
1040
1.0
1070
    74
1070
     0
1000
MTEXTEND
  0
LINE
  5
5E9AC
330
1F
100
AcDbEntity
  8
AM_5
100
AcDbLine
 10
31.49999999999872
 20
161.4999999999991
 30
0.0
 11
101.5000000000008
 21
161.5
 31
0.0
  0
MTEXT
  5
5E9AF
330
1F
100
AcDbEntity
  8
AM_6
100
AcDbMText
 10
31.50000000000015
 20
173.5
 30
0.0
 40
3.2
 41
70.0
 71
     4
 72
     5
  1
　生地
 73
     1
 44
1.0
1001
ACAD
1000
MTEXTBEGIN
1070
    73
1070
     1
1070
    44
1040
1.0
1070
    74
1070
     0
1000
MTEXTEND
  0
LINE
  5
5E9BD
330
1F
100
AcDbEntity
  8
AM_7
370
     9
100
AcDbLine
 10
129.5000000000001
 20
116.0
 30
0.0
 11
129.5000000000001
 21
47.0
 31
0.0
1001
GENIUS_GENODEF_13
1002
{
1000
HIER
1070
     0
1002
}
1002
{
1000
MANEDIT
1070
     0
1002
}
1002
{
1000
NOSEL
1070
     0
1002
}
1002
{
1000
BEHIND
1070
     0
1002
}
1002
{
1000
OTHER
1070
     0
1002
}
1002
{
1000
REACTOR
1002
}
1001
GENIUS_GENOBJ-N-CEN_13
1002
{
1000
OWNER
1000
GEN
1002
}
1001
GENIUS_GENCEN_19
1002
{
1040
3.0
1002
}
  0
LINE
  5
5E9BE
330
1F
100
AcDbEntity
  8
AM_7
370
     9
100
AcDbLine
 10
139.0
 20
142.0
 30
0.0
 11
120.0
 21
142.0
 31
0.0
1001
GENIUS_GENODEF_13
1002
{
1000
HIER
1070
     0
1002
}
1002
{
1000
MANEDIT
1070
     0
1002
}
1002
{
1000
NOSEL
1070
     0
1002
}
1002
{
1000
BEHIND
1070
     0
1002
}
1002
{
1000
OTHER
1070
     0
1002
}
1002
{
1000
REACTOR
1002
}
1001
GENIUS_GENOBJ-N-CEN_13
1002
{
1000
OWNER
1000
GEN
1002
}
1001
GENIUS_GENCEN_19
1002
{
1040
3.0
1002
}
  0
LINE
  5
5E9BF
102
{ACAD_REACTORS
330
61503
102
}
330
1F
100
AcDbEntity
  8
AM_7
370
     9
100
AcDbLine
 10
129.5000000000001
 20
151.5
 30
0.0
 11
129.5000000000001
 21
132.5
 31
0.0
1001
GENIUS_GENODEF_13
1002
{
1000
HIER
1070
     0
1002
}
1002
{
1000
MANEDIT
1070
     0
1002
}
1002
{
1000
NOSEL
1070
     0
1002
}
1002
{
1000
BEHIND
1070
     0
1002
}
1002
{
1000
OTHER
1070
     0
1002
}
1002
{
1000
REACTOR
1002
}
1001
GENIUS_GENOBJ-N-CEN_13
1002
{
1000
OWNER
1000
GEN
1002
}
1001
GENIUS_GENCEN_19
1002
{
1040
3.0
1002
}
  0
LINE
  5
5E9C0
330
1F
100
AcDbEntity
  8
AM_7
370
     9
100
AcDbLine
 10
205.0000000000001
 20
146.0
 30
0.0
 11
205.0000000000001
 21
47.0
 31
0.0
1001
GENIUS_GENOBJ-N-CEN_13
1002
{
1000
OWNER
1000
GEN
1002
}
1001
GENIUS_GENODEF_13
1002
{
1000
HIER
1070
     0
1002
}
1002
{
1000
MANEDIT
1070
     0
1002
}
1002
{
1000
NOSEL
1070
     0
1002
}
1002
{
1000
BEHIND
1070
     0
1002
}
1002
{
1000
OTHER
1070
     0
1002
}
1002
{
1000
REACTOR
1002
}
1001
GENIUS_GENCEN_19
1002
{
1040
3.0
1002
}
  0
LINE
  5
5E9C1
330
1F
100
AcDbEntity
  8
AM_7
370
     9
100
AcDbLine
 10
214.5
 20
170.5
 30
0.0
 11
195.5
 21
170.5
 31
0.0
1001
GENIUS_GENODEF_13
1002
{
1000
HIER
1070
     0
1002
}
1002
{
1000
MANEDIT
1070
     0
1002
}
1002
{
1000
NOSEL
1070
     0
1002
}
1002
{
1000
BEHIND
1070
     0
1002
}
1002
{
1000
OTHER
1070
     0
1002
}
1002
{
1000
REACTOR
1002
}
1001
GENIUS_GENOBJ-N-CEN_13
1002
{
1000
OWNER
1000
GEN
1002
}
1001
GENIUS_GENCEN_19
1002
{
1040
3.0
1002
}
  0
LINE
  5
5E9C2
102
{ACAD_REACTORS
330
6151B
102
}
330
1F
100
AcDbEntity
  8
AM_7
370
     9
100
AcDbLine
 10
205.0000000000001
 20
180.0
 30
0.0
 11
205.0000000000001
 21
161.0
 31
0.0
1001
GENIUS_GENODEF_13
1002
{
1000
HIER
1070
     0
1002
}
1002
{
1000
MANEDIT
1070
     0
1002
}
1002
{
1000
NOSEL
1070
     0
1002
}
1002
{
1000
BEHIND
1070
     0
1002
}
1002
{
1000
OTHER
1070
     0
1002
}
1002
{
1000
REACTOR
1002
}
1001
GENIUS_GENOBJ-N-CEN_13
1002
{
1000
OWNER
1000
GEN
1002
}
1001
GENIUS_GENCEN_19
1002
{
1040
3.0
1002
}
  0
DIMENSION
  5
5E9CF
102
{ACAD_XDICTIONARY
360
5E9DC
102
}
102
{ACAD_REACTORS
330
5E9DD
102
}
330
1F
100
AcDbEntity
  8
AM_5
100
AcDbDimension
  2
*D5
 10
234.0000000000001
 20
120.0
 30
0.0
 11
231.4000000000001
 21
97.50000000000005
 31
0.0
 70
    32
 71
     5
 42
45.0
  3
SYS$0
100
AcDbAlignedDimension
 13
224.0000000000001
 23
75.0
 33
0.0
 14
224.0000000000001
 24
120.0
 34
0.0
 50
90.0
100
AcDbRotatedDimension
1001
ACAD
1000
DSTYLE
1002
{
1070
   271
1070
     1
1002
}
  0
DIMENSION
  5
5E9E7
102
{ACAD_XDICTIONARY
360
5E9F4
102
}
102
{ACAD_REACTORS
330
5E9F5
102
}
330
1F
100
AcDbEntity
  8
AM_5
100
AcDbDimension
  2
*D6
 10
234.0000000000001
 20
55.0
 30
0.0
 11
231.4000000000001
 21
65.00000000000004
 31
0.0
 70
    32
 71
     5
 42
20.00000000000001
  3
SYS$0
100
AcDbAlignedDimension
 13
224.0000000000001
 23
75.0
 33
0.0
 14
211.0000000000001
 24
55.0
 34
0.0
 50
90.0
100
AcDbRotatedDimension
1001
ACAD
1000
DSTYLE
1002
{
1070
   271
1070
     1
1002
}
  0
DIMENSION
  5
5E9FF
102
{ACAD_XDICTIONARY
360
5EA0C
102
}
102
{ACAD_REACTORS
330
5EA0D
102
}
330
1F
100
AcDbEntity
  8
AM_5
100
AcDbDimension
  2
*D7
 10
234.0000000000001
 20
140.0
 30
0.0
 11
231.4000000000001
 21
130.0
 31
0.0
 70
    32
 71
     5
 42
20.0
  3
SYS$0
100
AcDbAlignedDimension
 13
224.0000000000001
 23
120.0
 33
0.0
 14
211.0000000000001
 24
140.0
 34
0.0
 50
90.0
100
AcDbRotatedDimension
1001
ACAD
1000
DSTYLE
1002
{
1070
   271
1070
     1
1002
}
  0
DIMENSION
  5
5EA17
102
{ACAD_XDICTIONARY
360
5EA24
102
}
102
{ACAD_REACTORS
330
5EA25
102
}
330
1F
100
AcDbEntity
  8
AM_5
100
AcDbDimension
  2
*D8
 10
158.5000000000001
 20
60.0
 30
0.0
 11
155.9000000000001
 21
75.00000000000001
 31
0.0
 70
    32
 71
     5
 42
30.0
  3
SYS$0
100
AcDbAlignedDimension
 13
148.5000000000001
 23
90.0
 33
0.0
 14
148.5000000000001
 24
60.0
 34
0.0
 50
90.0
100
AcDbRotatedDimension
1001
ACAD
1000
DSTYLE
1002
{
1070
   271
1070
     1
1002
}
  0
DIMENSION
  5
5EA2F
102
{ACAD_XDICTIONARY
360
5EA3C
102
}
102
{ACAD_REACTORS
330
5EA3D
102
}
330
1F
100
AcDbEntity
  8
AM_5
100
AcDbDimension
  2
*D9
 10
158.5000000000001
 20
110.0
 30
0.0
 11
155.9000000000001
 21
100.0
 31
0.0
 70
    32
 71
     5
 42
20.0
  3
SYS$0
100
AcDbAlignedDimension
 13
148.5000000000001
 23
90.0
 33
0.0
 14
135.5000000000001
 24
110.0
 34
0.0
 50
90.0
100
AcDbRotatedDimension
1001
ACAD
1000
DSTYLE
1002
{
1070
   271
1070
     1
1002
}
  0
DIMENSION
  5
5EA47
102
{ACAD_XDICTIONARY
360
5EA54
102
}
102
{ACAD_REACTORS
330
5EA55
102
}
330
1F
100
AcDbEntity
  8
AM_5
100
AcDbDimension
  2
*D10
 10
158.5000000000001
 20
131.0
 30
0.0
 11
155.9000000000001
 21
137.5
 31
0.0
 70
    32
 71
     5
 42
13.0
  3
SYS$0
100
AcDbAlignedDimension
 13
144.5000000000001
 23
144.0
 33
0.0
 14
148.5000000000001
 24
131.0
 34
0.0
 50
270.0
100
AcDbRotatedDimension
1001
ACAD
1000
DSTYLE
1002
{
1070
   271
1070
     1
1002
}
  0
DIMENSION
  5
5EA5F
102
{ACAD_XDICTIONARY
360
5EA6C
102
}
102
{ACAD_REACTORS
330
5EA6D
102
}
330
1F
100
AcDbEntity
  8
AM_5
100
AcDbDimension
  2
*D11
 10
234.0000000000001
 20
161.0
 30
0.0
 11
231.4000000000001
 21
167.0
 31
0.0
 70
    32
 71
     5
 42
12.0
  3
SYS$0
100
AcDbAlignedDimension
 13
220.0000000000001
 23
173.0
 33
0.0
 14
224.0000000000001
 24
161.0
 34
0.0
 50
270.0
100
AcDbRotatedDimension
1001
ACAD
1000
DSTYLE
1002
{
1070
   271
1070
     1
1002
}
  0
DIMENSION
  5
5EA79
102
{ACAD_XDICTIONARY
360
5EA88
102
}
102
{ACAD_REACTORS
330
5EA89
102
}
330
1F
100
AcDbEntity
  8
AM_5
100
AcDbDimension
  2
*D12
 10
148.5000000000001
 20
121.0
 30
0.0
 11
152.2466666666668
 21
123.6
 31
0.0
 70
    32
 71
     5
 42
2.0
  3
SYS$0
100
AcDbAlignedDimension
 13
146.5000000000001
 23
131.0
 33
0.0
 14
148.5000000000001
 24
131.0
 34
0.0
100
AcDbRotatedDimension
1001
ACAD
1000
DSTYLE
1002
{
1070
   271
1070
     1
1002
}
  0
DIMENSION
  5
5EA95
102
{ACAD_XDICTIONARY
360
5EAA4
102
}
102
{ACAD_REACTORS
330
5EAA5
102
}
330
1F
100
AcDbEntity
  8
AM_5
100
AcDbDimension
  2
*D13
 10
224.0000000000001
 20
151.0
 30
0.0
 11
229.3466666666668
 21
153.6
 31
0.0
 70
    32
 71
     5
 42
2.5
  3
SYS$0
100
AcDbAlignedDimension
 13
221.5000000000001
 23
161.0
 33
0.0
 14
224.0000000000001
 24
161.0
 34
0.0
100
AcDbRotatedDimension
1001
ACAD
1000
DSTYLE
1002
{
1070
   271
1070
     1
1002
}
  0
DIMENSION
  5
5EAEF
102
{ACAD_XDICTIONARY
360
5EAFC
102
}
102
{ACAD_REACTORS
330
5EAFD
102
}
330
1F
100
AcDbEntity
  8
AM_5
100
AcDbDimension
  2
*D14
 10
115.0000000000001
 20
50.0
 30
0.0
 11
112.4000000000001
 21
80.00000000000003
 31
0.0
 70
    32
 71
     5
 42
60.0
  3
SYS$0
100
AcDbAlignedDimension
 13
123.5000000000001
 23
110.0
 33
0.0
 14
126.0000000000001
 24
50.0
 34
0.0
 50
90.0
100
AcDbRotatedDimension
1001
ACAD
1000
DSTYLE
1002
{
1070
   271
1070
     1
1002
}
  0
DIMENSION
  5
5EB07
102
{ACAD_XDICTIONARY
360
5EB14
102
}
102
{ACAD_REACTORS
330
5EB15
102
}
330
1F
100
AcDbEntity
  8
AM_5
100
AcDbDimension
  2
*D15
 10
190.5000000000002
 20
50.0
 30
0.0
 11
187.9000000000002
 21
95.00000000000005
 31
0.0
 70
    32
 71
     5
 42
90.00000000000001
  3
SYS$0
100
AcDbAlignedDimension
 13
199.0000000000001
 23
140.0
 33
0.0
 14
201.5000000000001
 24
50.0
 34
0.0
 50
90.0
100
AcDbRotatedDimension
1001
ACAD
1000
DSTYLE
1002
{
1070
   271
1070
     1
1002
}
  0
DIMENSION
  5
5EB31
102
{ACAD_XDICTIONARY
360
5EB40
102
}
102
{ACAD_REACTORS
330
5EB41
102
}
330
1F
100
AcDbEntity
  8
AM_5
100
AcDbDimension
  2
*D16
 10
126.0000000000001
 20
40.0
 30
0.0
 11
129.5000000000001
 21
42.6
 31
0.0
 70
    32
  1
%%c<>
 71
     5
 42
7.0
  3
SYS$0
100
AcDbAlignedDimension
 13
133.0000000000001
 23
50.0
 33
0.0
 14
126.0000000000001
 24
50.0
 34
0.0
100
AcDbRotatedDimension
1001
ACAD
1000
DSTYLE
1002
{
1070
   271
1070
     1
1002
}
  0
DIMENSION
  5
5EB54
102
{ACAD_XDICTIONARY
360
5EB63
102
}
102
{ACAD_REACTORS
330
5EB64
102
}
330
1F
100
AcDbEntity
  8
AM_5
100
AcDbDimension
  2
*D17
 10
201.5000000000001
 20
40.0
 30
0.0
 11
205.0000000000001
 21
42.6
 31
0.0
 70
    32
  1
%%c<>
 71
     5
 42
7.0
  3
SYS$0
100
AcDbAlignedDimension
 13
208.5000000000001
 23
50.0
 33
0.0
 14
201.5000000000001
 24
50.0
 34
0.0
100
AcDbRotatedDimension
1001
ACAD
1000
DSTYLE
1002
{
1070
   271
1070
     1
1002
}
  0
INSERT
  5
5EB77
330
1F
100
AcDbEntity
  8
AM_5
100
AcDbBlockReference
  2
*S23
 10
0.0
 20
0.0
 30
0.0
  0
INSERT
  5
5EB7C
330
1F
100
AcDbEntity
  8
AM_5
100
AcDbBlockReference
  2
*S24
 10
0.0
 20
0.0
 30
0.0
  0
DIMENSION
  5
5EBFD
330
1F
100
AcDbEntity
  8
AM_5
100
AcDbDimension
  2
*D18
 10
133.8969957587066
 20
146.7871106419152
 30
0.0
 11
115.0404858624139
 21
131.9102437239708
 31
0.0
 70
   163
  1
（<>）
 71
     5
 42
13.00000000000105
  3
SYS$3
100
AcDbDiametricDimension
 15
125.1030042412928
 25
137.2128893580884
 35
0.0
 40
0.0
1001
ACAD
1000
DSTYLE
1002
{
1070
   344
1005
6C4
1070
   342
1005
0
1070
   173
1070
     1
1070
   343
1005
6C4
1070
    41
1040
1.0
1070
   172
1070
     1
1002
}
  0
DIMENSION
  5
5EC45
102
{ACAD_XDICTIONARY
360
5EC4F
102
}
102
{ACAD_REACTORS
330
5EC56
102
}
330
1F
100
AcDbEntity
  8
AM_5
100
AcDbDimension
  2
*D19
 10
209.5961940777139
 20
175.096194077714
 30
0.0
 11
190.1206370977376
 21
160.812637097744
 31
0.0
 70
   163
  1
（<>）
 71
     5
 42
13.00000000000187
  3
SYS$3
100
AcDbDiametricDimension
 15
200.4038059222877
 25
165.9038059222873
 35
0.0
 40
0.0
1001
ACAD
1000
DSTYLE
1002
{
1070
   344
1005
6C4
1070
   342
1005
0
1070
   173
1070
     1
1070
   343
1005
6C4
1070
    41
1040
1.0
1070
   172
1070
     1
1002
}
  0
MTEXT
  5
5ED92
330
1F
100
AcDbEntity
  8
AM_6
100
AcDbMText
 10
31.49999999999977
 20
165.5
 30
0.0
 40
3.2
 41
70.0
 71
     4
 72
     5
  1
　E 型止め輪（呼び6）は別途手配の事。
 73
     1
 44
1.0
1001
ACAD
1000
MTEXTBEGIN
1070
    73
1070
     1
1070
    44
1040
1.0
1070
    74
1070
     0
1000
MTEXTEND
  0
DIMENSION
  5
614F5
102
{ACAD_XDICTIONARY
360
61502
102
}
102
{ACAD_REACTORS
330
61503
102
}
330
1F
100
AcDbEntity
  8
AM_5
100
AcDbDimension
  2
*D20
 10
148.5000000000001
 20
156.5000010100002
 30
0.0
 11
139.0000000000001
 21
159.1000010100002
 31
0.0
 70
    32
 71
     5
 42
19.0
  3
SYS$0
100
AcDbAlignedDimension
 13
129.5000000000001
 23
151.5
 33
0.0
 14
148.5000000000001
 24
140.0
 34
0.0
100
AcDbRotatedDimension
1001
ACAD
1000
DSTYLE
1002
{
1070
   271
1070
     1
1002
}
  0
DIMENSION
  5
6150D
102
{ACAD_XDICTIONARY
360
6151A
102
}
102
{ACAD_REACTORS
330
6151B
102
}
330
1F
100
AcDbEntity
  8
AM_5
100
AcDbDimension
  2
*D21
 10
224.0000000000001
 20
186.5
 30
0.0
 11
214.5000000000001
 21
189.1
 31
0.0
 70
    32
 71
     5
 42
19.0
  3
SYS$0
100
AcDbAlignedDimension
 13
205.0000000000001
 23
180.0
 33
0.0
 14
224.0000000000001
 24
169.0
 34
0.0
100
AcDbRotatedDimension
1001
ACAD
1000
DSTYLE
1002
{
1070
   271
1070
     1
1002
}
  0
MTEXT
  5
63AE8
330
1F
100
AcDbEntity
  8
AM_6
100
AcDbMText
 10
31.50000000000015
 20
157.5
 30
0.0
 40
3.2
 41
70.0
 71
     4
 72
     5
  1
　左右兼用型。（左右組み替え可能）
 73
     1
 44
1.0
1001
ACAD
1000
MTEXTBEGIN
1070
    73
1070
     1
1070
    44
1040
1.0
1070
    74
1070
     0
1000
MTEXTEND
  0
LINE
  5
63AE9
330
1F
100
AcDbEntity
  8
AM_0
100
AcDbLine
 10
11.50000000000378
 20
153.5
 30
0.0
 11
101.500000000001
 21
153.5
 31
0.0
  0
CIRCLE
  5
63C83
330
1F
100
AcDbEntity
  8
AM_0
100
AcDbCircle
 10
129.5000000000001
 20
142.0
 30
0.0
 40
6.0
  0
CIRCLE
  5
63C84
330
1F
100
AcDbEntity
  8
AM_0
100
AcDbCircle
 10
129.5000000000001
 20
142.0
 30
0.0
 40
6.5
  0
MTEXT
  5
63CDA
330
1F
100
AcDbEntity
  8
AM_6
100
AcDbMText
 10
129.5000000000001
 20
32.0
 30
0.0
 40
3.2
 41
11.65276229289884
 71
     5
 72
     5
  1
{\L右勝手}
 73
     1
 44
1.0
1001
ACAD
1000
MTEXTBEGIN
1070
    73
1070
     1
1070
    44
1040
1.0
1070
    74
1070
     0
1000
MTEXTEND
  0
MTEXT
  5
63CDB
330
1F
100
AcDbEntity
  8
AM_6
100
AcDbMText
 10
205.0000000000001
 20
32.0
 30
0.0
 40
3.2
 41
11.65276229289884
 71
     5
 72
     5
  1
{\L右勝手}
 73
     1
 44
1.0
1001
ACAD
1000
MTEXTBEGIN
1070
    73
1070
     1
1070
    44
1040
1.0
1070
    74
1070
     0
1000
MTEXTEND
  0
LWPOLYLINE
  5
63D85
330
1F
100
AcDbEntity
  8
AM_0
100
AcDbPolyline
 90
        4
 70
     1
 43
0.0
 10
114.5000000000001
 20
24.0
 10
144.5000000000001
 20
24.0
 10
144.5000000000001
 20
18.0
 10
114.5000000000001
 20
18.0
1001
GENIUS_GENREC_14
1002
{
1000
PYDIR
1011
114.5000000000001
1021
18.0
1031
0.0
1002
}
1002
{
1000
PXDIR
1011
144.5000000000001
1021
24.0
1031
0.0
1002
}
1002
{
1000
PORI
1011
114.5000000000001
1021
24.0
1031
0.0
1002
}
1002
{
1000
PINS
1011
114.5000000000001
1021
24.0
1031
0.0
1002
}
1002
{
1000
PINS2
1011
144.5000000000001
1021
18.0
1031
0.0
1002
}
1002
{
1000
C
1070
     1
1002
}
1001
GENIUS_GENODEF_13
1002
{
1000
HIER
1070
     0
1002
}
1002
{
1000
MANEDIT
1070
     0
1002
}
1002
{
1000
NOSEL
1070
     0
1002
}
1002
{
1000
BEHIND
1070
     0
1002
}
1002
{
1000
OTHER
1070
     0
1002
}
1002
{
1000
REACTOR
1002
}
1001
GENIUS_GENOBJ-N-REC_13
1002
{
1000
OWNER
1000
GEN
1002
}
  0
MTEXT
  5
63D86
330
1F
100
AcDbEntity
  8
AM_6
100
AcDbMText
 10
129.5000000000001
 20
21.0
 30
0.0
 40
3.2
 41
30.0
 71
     5
 72
     5
  1
DEH-57S-1
 73
     1
 44
1.0
1001
ACAD
1000
MTEXTBEGIN
1070
    73
1070
     1
1070
    44
1040
1.0
1070
    74
1070
     0
1000
MTEXTEND
  0
LWPOLYLINE
  5
63D87
330
1F
100
AcDbEntity
  8
AM_0
100
AcDbPolyline
 90
        4
 70
     1
 43
0.0
 10
190.0000000000001
 20
24.0
 10
220.0000000000001
 20
24.0
 10
220.0000000000001
 20
18.0
 10
190.0000000000001
 20
18.0
1001
GENIUS_GENREC_14
1002
{
1000
PYDIR
1011
190.0000000000001
1021
18.0
1031
0.0
1002
}
1002
{
1000
PXDIR
1011
220.0000000000001
1021
24.0
1031
0.0
1002
}
1002
{
1000
PORI
1011
190.0000000000001
1021
24.0
1031
0.0
1002
}
1002
{
1000
PINS
1011
190.0000000000001
1021
24.0
1031
0.0
1002
}
1002
{
1000
PINS2
1011
220.0000000000001
1021
18.0
1031
0.0
1002
}
1002
{
1000
C
1070
     1
1002
}
1001
GENIUS_GENODEF_13
1002
{
1000
HIER
1070
     0
1002
}
1002
{
1000
MANEDIT
1070
     0
1002
}
1002
{
1000
NOSEL
1070
     0
1002
}
1002
{
1000
BEHIND
1070
     0
1002
}
1002
{
1000
OTHER
1070
     0
1002
}
1002
{
1000
REACTOR
1002
}
1001
GENIUS_GENOBJ-N-REC_13
1002
{
1000
OWNER
1000
GEN
1002
}
  0
MTEXT
  5
63D88
330
1F
100
AcDbEntity
  8
AM_6
100
AcDbMText
 10
205.0000000000001
 20
21.0
 30
0.0
 40
3.2
 41
30.0
 71
     5
 72
     5
  1
DEH-57S-2
 73
     1
 44
1.0
1001
ACAD
1000
MTEXTBEGIN
1070
    73
1070
     1
1070
    44
1040
1.0
1070
    74
1070
     0
1000
MTEXTEND
  0
LINE
  5
63D89
330
1F
100
AcDbEntity
  8
AM_0
100
AcDbLine
 10
70.10000000000008
 20
85.89999999999964
 30
0.0
 11
68.10000000000008
 21
85.89999999999964
 31
0.0
  0
ARC
  5
63D8A
330
1F
100
AcDbEntity
  8
AM_0
100
AcDbCircle
 10
66.10000000000008
 20
94.89999999999964
 30
0.0
 40
4.0
100
AcDbArc
 50
0.0
 51
90.0
  0
LINE
  5
63D8B
330
1F
100
AcDbEntity
  8
AM_0
100
AcDbLine
 10
66.10000000000008
 20
98.89999999999965
 30
0.0
 11
59.22403800000012
 21
98.89999999999965
 31
0.0
  0
LINE
  5
63D8C
330
1F
100
AcDbEntity
  8
AM_0
100
AcDbLine
 10
66.10000000000008
 20
96.89999999999963
 30
0.0
 11
59.22403800000012
 21
96.89999999999963
 31
0.0
  0
CIRCLE
  5
63D8D
330
1F
100
AcDbEntity
  8
AM_0
100
AcDbCircle
 10
51.10000000000008
 20
96.89999999999963
 30
0.0
 40
3.5
  0
LINE
  5
63D8E
330
1F
100
AcDbEntity
  8
AM_0
100
AcDbLine
 10
68.10000000000008
 20
85.89999999999964
 30
0.0
 11
68.10000000000008
 21
94.89999999999964
 31
0.0
  0
LINE
  5
63D8F
330
1F
100
AcDbEntity
  8
AM_0
100
AcDbLine
 10
70.10000000000008
 20
85.89999999999964
 30
0.0
 11
70.10000000000008
 21
94.89999999999964
 31
0.0
  0
ARC
  5
63D90
330
1F
100
AcDbEntity
  8
AM_0
100
AcDbCircle
 10
65.6458540000001
 20
94.4458539999996
 30
0.0
 40
2.495811999999999
100
AcDbArc
 50
10.48412300005586
 51
79.51587699999194
  0
ARC
  5
63D91
330
1F
100
AcDbEntity
  8
AM_0
100
AcDbCircle
 10
59.22403800000012
 20
94.39999999999963
 30
0.0
 40
2.5
100
AcDbArc
 50
90.0
 51
131.4283750079607
  0
ARC
  5
63D92
330
1F
100
AcDbEntity
  8
AM_0
100
AcDbCircle
 10
59.22403800000012
 20
94.39999999999963
 30
0.0
 40
4.5
100
AcDbArc
 50
90.0
 51
113.956404281728
  0
LINE
  5
63D93
330
1F
100
AcDbEntity
  8
AM_7
370
     9
100
AcDbLine
 10
60.60000000000002
 20
96.89999999999963
 30
0.0
 11
41.60000000000002
 21
96.89999999999963
 31
0.0
1001
GENIUS_GENODEF_13
1002
{
1000
HIER
1070
     0
1002
}
1002
{
1000
MANEDIT
1070
     0
1002
}
1002
{
1000
NOSEL
1070
     0
1002
}
1002
{
1000
BEHIND
1070
     0
1002
}
1002
{
1000
OTHER
1070
     0
1002
}
1002
{
1000
REACTOR
1002
}
1001
GENIUS_GENOBJ-N-CEN_13
1002
{
1000
OWNER
1000
GEN
1002
}
1001
GENIUS_GENCEN_19
1002
{
1040
3.0
1002
}
  0
LINE
  5
63D94
330
1F
100
AcDbEntity
  8
AM_7
370
     9
100
AcDbLine
 10
51.10000000000008
 20
106.3999999999996
 30
0.0
 11
51.10000000000008
 21
87.39999999999964
 31
0.0
1001
GENIUS_GENODEF_13
1002
{
1000
HIER
1070
     0
1002
}
1002
{
1000
MANEDIT
1070
     0
1002
}
1002
{
1000
NOSEL
1070
     0
1002
}
1002
{
1000
BEHIND
1070
     0
1002
}
1002
{
1000
OTHER
1070
     0
1002
}
1002
{
1000
REACTOR
1002
}
1001
GENIUS_GENOBJ-N-CEN_13
1002
{
1000
OWNER
1000
GEN
1002
}
1001
GENIUS_GENCEN_19
1002
{
1040
3.0
1002
}
  0
CIRCLE
  5
63D95
330
1F
100
AcDbEntity
  8
AM_0
100
AcDbCircle
 10
51.10000000000013
 20
96.89999999999963
 30
0.0
 40
6.0
  0
CIRCLE
  5
63D96
330
1F
100
AcDbEntity
  8
AM_0
100
AcDbCircle
 10
51.10000000000013
 20
96.89999999999963
 30
0.0
 40
6.5
  0
LINE
  5
63DDB
330
1F
100
AcDbEntity
  8
AM_2
100
AcDbLine
 10
43.00000000000014
 20
76.10000000000036
 30
0.0
 11
43.00000000000014
 21
79.49999999999909
 31
0.0
  0
LINE
  5
63DDC
330
1F
100
AcDbEntity
  8
AM_2
100
AcDbLine
 10
45.60000000000013
 20
82.09999999999945
 30
0.0
 11
69.10000000000005
 21
82.10000000000036
 31
0.0
  0
LINE
  5
63DDD
330
1F
100
AcDbEntity
  8
AM_2
100
AcDbLine
 10
70.10000000000005
 20
83.10000000000036
 30
0.0
 11
70.10000000000008
 21
97.89999999999963
 31
0.0
  0
LINE
  5
63DDE
330
1F
100
AcDbEntity
  8
AM_2
100
AcDbLine
 10
69.10000000000008
 20
98.89999999999965
 30
0.0
 11
60.70000000000007
 21
98.89999999999965
 31
0.0
  0
LINE
  5
63DDF
330
1F
100
AcDbEntity
  8
AM_2
100
AcDbLine
 10
60.70000000000007
 20
98.89999999999965
 30
0.0
 11
60.70000000000007
 21
100.5
 31
0.0
  0
LINE
  5
63DE0
330
1F
100
AcDbEntity
  8
AM_2
100
AcDbLine
 10
60.70000000000007
 20
100.5
 30
0.0
 11
69.10000000000005
 21
100.5
 31
0.0
  0
LINE
  5
63DE1
330
1F
100
AcDbEntity
  8
AM_2
100
AcDbLine
 10
71.70000000000005
 20
97.89999999999963
 30
0.0
 11
71.70000000000007
 21
83.09999999999945
 31
0.0
  0
LINE
  5
63DE2
330
1F
100
AcDbEntity
  8
AM_2
100
AcDbLine
 10
69.10000000000008
 20
80.4999999999991
 30
0.0
 11
45.60000000000013
 21
80.5
 31
0.0
  0
LINE
  5
63DE3
330
1F
100
AcDbEntity
  8
AM_2
100
AcDbLine
 10
44.60000000000014
 20
79.5
 30
0.0
 11
44.60000000000014
 21
76.10000000000036
 31
0.0
  0
LINE
  5
63E02
330
1F
100
AcDbEntity
  8
AM_11
 48
0.5
100
AcDbLine
 10
36.81771653940791
 20
117.1355227051663
 30
0.0
 11
46.87310875318281
 21
89.50855965406026
 31
0.0
  0
LINE
  5
63E03
330
1F
100
AcDbEntity
  8
AM_11
 48
0.5
100
AcDbLine
 10
48.15482151729452
 20
88.91088717660023
 30
0.0
 11
64.41150385689048
 21
94.827835656135
 31
0.0
  0
LINE
  5
63E04
330
1F
100
AcDbEntity
  8
AM_11
 48
0.5
100
AcDbLine
 10
64.41150385689048
 20
94.827835656135
 30
0.0
 11
64.9587360862115
 21
93.32432746287668
 31
0.0
  0
LINE
  5
63E05
330
1F
100
AcDbEntity
  8
AM_11
 48
0.5
100
AcDbLine
 10
64.9587360862115
 20
93.32432746287668
 30
0.0
 11
48.70205374661555
 21
87.40737898334282
 31
0.0
  0
LINE
  5
63E06
330
1F
100
AcDbEntity
  8
AM_11
 48
0.5
100
AcDbLine
 10
45.36960055992472
 20
88.96132742473946
 30
0.0
 11
35.31420834615005
 21
116.5882904758446
 31
0.0
  0
ARC
  5
63E07
330
1F
100
AcDbEntity
  8
AM_2
100
AcDbCircle
 10
45.60000000000013
 20
79.5
 30
0.0
 40
1.0
100
AcDbArc
 50
90.0
 51
180.0
  0
ARC
  5
63E08
330
1F
100
AcDbEntity
  8
AM_2
100
AcDbCircle
 10
69.10000000000005
 20
83.10000000000036
 30
0.0
 40
1.0
100
AcDbArc
 50
270.0
 51
0.0
  0
ARC
  5
63E09
330
1F
100
AcDbEntity
  8
AM_2
100
AcDbCircle
 10
69.10000000000008
 20
97.89999999999963
 30
0.0
 40
1.0
100
AcDbArc
 50
0.0
 51
90.0
  0
ARC
  5
63E0A
330
1F
100
AcDbEntity
  8
AM_11
 48
0.5
100
AcDbCircle
 10
47.81280137396857
 20
89.85057979738668
 30
0.0
 40
0.9999999999999998
100
AcDbArc
 50
199.9999999999909
 51
290.0000000000103
  0
ARC
  5
63E0B
330
1F
100
AcDbEntity
  8
AM_2
100
AcDbCircle
 10
69.10000000000005
 20
97.89999999999963
 30
0.0
 40
2.6
100
AcDbArc
 50
0.0
 51
90.0
  0
ARC
  5
63E0C
330
1F
100
AcDbEntity
  8
AM_2
100
AcDbCircle
 10
69.10000000000008
 20
83.09999999999945
 30
0.0
 40
2.6
100
AcDbArc
 50
270.0
 51
0.0
  0
ARC
  5
63E0D
330
1F
100
AcDbEntity
  8
AM_2
100
AcDbCircle
 10
45.60000000000013
 20
79.49999999999909
 30
0.0
 40
2.6
100
AcDbArc
 50
90.0
 51
180.0
  0
ARC
  5
63E0E
330
1F
100
AcDbEntity
  8
AM_11
 48
0.5
100
AcDbCircle
 10
47.81280137396857
 20
89.85057979738668
 30
0.0
 40
2.599999999999999
100
AcDbArc
 50
199.9999999999909
 51
290.0000000000103
  0
LINE
  5
63E0F
330
1F
100
AcDbEntity
  8
AM_2
100
AcDbLine
 10
75.00000000000014
 20
103.3999999999996
 30
0.0
 11
45.60000000000016
 21
103.3999999999996
 31
0.0
  0
ARC
  5
63E10
330
1F
100
AcDbEntity
  8
AM_2
100
AcDbCircle
 10
45.60000000000016
 20
102.3999999999996
 30
0.0
 40
1.0
100
AcDbArc
 50
90.0
 51
180.0
  0
LINE
  5
63E11
330
1F
100
AcDbEntity
  8
AM_2
100
AcDbLine
 10
44.60000000000016
 20
102.3999999999996
 30
0.0
 11
44.60000000000014
 21
85.10000000000037
 31
0.0
  0
LINE
  5
63E12
330
1F
100
AcDbEntity
  8
AM_2
100
AcDbLine
 10
44.60000000000014
 20
85.10000000000037
 30
0.0
 11
43.00000000000014
 21
85.10000000000037
 31
0.0
  0
LINE
  5
63E13
330
1F
100
AcDbEntity
  8
AM_2
100
AcDbLine
 10
43.00000000000014
 20
85.10000000000037
 30
0.0
 11
43.00000000000014
 21
102.3999999999996
 31
0.0
  0
LINE
  5
63E14
330
1F
100
AcDbEntity
  8
AM_2
100
AcDbLine
 10
45.60000000000013
 20
105.0
 30
0.0
 11
75.00000000000014
 21
105.0
 31
0.0
  0
ARC
  5
63E15
330
1F
100
AcDbEntity
  8
AM_2
100
AcDbCircle
 10
45.60000000000013
 20
102.3999999999996
 30
0.0
 40
2.6
100
AcDbArc
 50
90.0
 51
180.0
  0
ARC
  5
63E56
330
1F
100
AcDbEntity
  8
AM_2
100
AcDbCircle
 10
64.25249999999829
 20
101.9499999999998
 30
0.0
 40
2.352499999998494
100
AcDbArc
 50
141.9487879248543
 51
218.0512120751457
  0
ARC
  5
63E57
330
1F
100
AcDbEntity
  8
AM_2
100
AcDbCircle
 10
65.54749999999947
 20
101.9499999999998
 30
0.0
 40
2.352500000000351
100
AcDbArc
 50
321.9487879248674
 51
38.05121207513263
  0
LINE
  5
63E59
330
1F
100
AcDbEntity
  8
AM_2
100
AcDbLine
 10
63.25249999999795
 20
101.4499999999998
 30
0.0
 11
63.95960678118462
 21
100.7428932188131
 31
0.0
  0
LINE
  5
63E5A
330
1F
100
AcDbEntity
  8
AM_2
100
AcDbLine
 10
62.25249999999795
 20
101.4499999999998
 30
0.0
 11
62.95960678118461
 21
100.7428932188131
 31
0.0
  0
LINE
  5
63E5D
330
1F
100
AcDbEntity
  8
AM_2
100
AcDbLine
 10
62.75249999999795
 20
101.4499999999998
 30
0.0
 11
63.45960678118462
 21
100.7428932188131
 31
0.0
  0
LINE
  5
63E5E
330
1F
100
AcDbEntity
  8
AM_2
100
AcDbLine
 10
63.75249999999795
 20
101.4499999999998
 30
0.0
 11
64.45960678118462
 21
100.7428932188131
 31
0.0
  0
LWPOLYLINE
  5
63E63
330
1F
100
AcDbEntity
  8
AM_0
100
AcDbPolyline
 90
        4
 70
     1
 43
0.0
 10
49.00000000000014
 20
68.10000000000036
 10
69.00000000000014
 20
68.10000000000036
 10
69.00000000000014
 20
62.10000000000036
 10
49.00000000000014
 20
62.10000000000036
1001
GENIUS_GENREC_14
1002
{
1000
PYDIR
1011
49.00000000000014
1021
62.10000000000036
1031
0.0
1002
}
1002
{
1000
PXDIR
1011
69.00000000000014
1021
68.10000000000036
1031
0.0
1002
}
1002
{
1000
PORI
1011
49.00000000000014
1021
68.10000000000036
1031
0.0
1002
}
1002
{
1000
PINS
1011
49.00000000000014
1021
68.10000000000036
1031
0.0
1002
}
1002
{
1000
PINS2
1011
69.00000000000014
1021
62.10000000000036
1031
0.0
1002
}
1002
{
1000
C
1070
     1
1002
}
1001
GENIUS_GENODEF_13
1002
{
1000
HIER
1070
     0
1002
}
1002
{
1000
MANEDIT
1070
     0
1002
}
1002
{
1000
NOSEL
1070
     0
1002
}
1002
{
1000
BEHIND
1070
     0
1002
}
1002
{
1000
OTHER
1070
     0
1002
}
1002
{
1000
REACTOR
1002
}
1001
GENIUS_GENOBJ-N-REC_13
1002
{
1000
OWNER
1000
GEN
1002
}
  0
MTEXT
  5
63E64
330
1F
100
AcDbEntity
  8
AM_6
100
AcDbMText
 10
59.00000000000014
 20
65.10000000000037
 30
0.0
 40
3.2
 41
20.0
 71
     5
 72
     5
  1
納まり図
 73
     1
 44
1.0
1001
ACAD
1000
MTEXTBEGIN
1070
    73
1070
     1
1070
    44
1040
1.0
1070
    74
1070
     0
1000
MTEXTEND
  0
ENDSEC
  0
SECTION
  2
OBJECTS
  0
DICTIONARY
  5
C
330
0
100
AcDbDictionary
281
     1
  3
ACAD_COLOR
350
C45B
  3
ACAD_GROUP
350
D
  3
ACAD_LAYOUT
350
1A
  3
ACAD_MATERIAL
350
C446
  3
ACAD_MLINESTYLE
350
17
  3
ACAD_PLOTSETTINGS
350
19
  3
ACAD_PLOTSTYLENAME
350
E
  3
ACAD_TABLESTYLE
350
C45C
  3
ACAD_VISUALSTYLE
350
C44A
  3
AcadDim
350
4DE64
  3
AcAsAppObject
350
3DA1
  3
ACASGREF_MASTER
350
3DE9
  3
AcDbVariableDictionary
350
34
  3
AcmDictionary
350
47
  3
AD_GREF_MODULE
350
3DEA
  3
AD_MAPI_MODULE
350
3E06
  3
AMG
350
2B
  3
AMGSNAPSETTINGS
350
7D
  3
ASE_INDEX_DICTIONARY
350
6169A
  3
DWGPROPS
350
642AE
  3
MAPISURF_MODULE
350
3DEB
  0
DICTIONARY
  5
3F95
330
2
100
AcDbDictionary
280
     1
281
     1
  3
ACAD_LAYERFILTERS
360
CB0C
  3
ACAD_LAYERSTATES
360
3F96
  3
ACLYDICTIONARY
360
CB0B
  3
AMLAYER_GROUPCOLORS
360
CB2F
  0
DICTIONARY
  5
8A
330
1F
100
AcDbDictionary
280
     1
281
     1
  3
ACAD_SORTENTS
360
14A89
  0
DICTIONARY
  5
5E9DC
330
5E9CF
100
AcDbDictionary
280
     1
281
     1
  3
ACAD_DIMASSOC
360
5E9DD
  0
DICTIONARY
  5
5E9F4
330
5E9E7
100
AcDbDictionary
280
     1
281
     1
  3
ACAD_DIMASSOC
360
5E9F5
  0
DICTIONARY
  5
5EA0C
330
5E9FF
100
AcDbDictionary
280
     1
281
     1
  3
ACAD_DIMASSOC
360
5EA0D
  0
DICTIONARY
  5
5EA24
330
5EA17
100
AcDbDictionary
280
     1
281
     1
  3
ACAD_DIMASSOC
360
5EA25
  0
DICTIONARY
  5
5EA3C
330
5EA2F
100
AcDbDictionary
280
     1
281
     1
  3
ACAD_DIMASSOC
360
5EA3D
  0
DICTIONARY
  5
5EA54
330
5EA47
100
AcDbDictionary
280
     1
281
     1
  3
ACAD_DIMASSOC
360
5EA55
  0
DICTIONARY
  5
5EA6C
330
5EA5F
100
AcDbDictionary
280
     1
281
     1
  3
ACAD_DIMASSOC
360
5EA6D
  0
DICTIONARY
  5
5EA88
330
5EA79
100
AcDbDictionary
280
     1
281
     1
  3
ACAD_DIMASSOC
360
5EA89
  0
DICTIONARY
  5
5EAA4
330
5EA95
100
AcDbDictionary
280
     1
281
     1
  3
ACAD_DIMASSOC
360
5EAA5
  0
DICTIONARY
  5
5EAFC
330
5EAEF
100
AcDbDictionary
280
     1
281
     1
  3
ACAD_DIMASSOC
360
5EAFD
  0
DICTIONARY
  5
5EB14
330
5EB07
100
AcDbDictionary
280
     1
281
     1
  3
ACAD_DIMASSOC
360
5EB15
  0
DICTIONARY
  5
5EB40
330
5EB31
100
AcDbDictionary
280
     1
281
     1
  3
ACAD_DIMASSOC
360
5EB41
  0
DICTIONARY
  5
5EB63
330
5EB54
100
AcDbDictionary
280
     1
281
     1
  3
ACAD_DIMASSOC
360
5EB64
  0
DICTIONARY
  5
5EC4F
330
5EC45
100
AcDbDictionary
280
     1
281
     1
  3
ACAD_DIMASSOC
360
5EC56
  0
DICTIONARY
  5
61502
330
614F5
100
AcDbDictionary
280
     1
281
     1
  3
ACAD_DIMASSOC
360
61503
  0
DICTIONARY
  5
6151A
330
6150D
100
AcDbDictionary
280
     1
281
     1
  3
ACAD_DIMASSOC
360
6151B
  0
DICTIONARY
  5
C45B
102
{ACAD_REACTORS
330
C
102
}
330
C
100
AcDbDictionary
281
     1
  0
DICTIONARY
  5
D
102
{ACAD_REACTORS
330
C
102
}
330
C
100
AcDbDictionary
281
     1
  0
DICTIONARY
  5
1A
102
{ACAD_REACTORS
330
C
102
}
330
C
100
AcDbDictionary
281
     1
  3
Model
350
22
  3
ﾚｲｱｳﾄ1
350
1E
  3
ﾚｲｱｳﾄ2
350
26
  0
DICTIONARY
  5
C446
102
{ACAD_REACTORS
330
C
102
}
330
C
100
AcDbDictionary
281
     1
  3
ByBlock
350
C448
  3
ByLayer
350
C447
  3
Global
350
C449
  0
DICTIONARY
  5
17
102
{ACAD_REACTORS
330
C
102
}
330
C
100
AcDbDictionary
281
     1
  3
Standard
350
18
  0
DICTIONARY
  5
19
102
{ACAD_REACTORS
330
C
102
}
330
C
100
AcDbDictionary
281
     1
  3
-00
350
C85D
  0
ACDBDICTIONARYWDFLT
  5
E
102
{ACAD_REACTORS
330
C
102
}
330
C
100
AcDbDictionary
281
     1
  3
Normal
350
F
100
AcDbDictionaryWithDefault
340
F
  0
DICTIONARY
  5
C45C
102
{ACAD_REACTORS
330
C
102
}
330
C
100
AcDbDictionary
281
     1
  3
Standard
350
C45D
  0
DICTIONARY
  5
C44A
102
{ACAD_REACTORS
330
C
102
}
330
C
100
AcDbDictionary
281
     1
  3
2dWireframe
350
C450
  3
3D Hidden
350
C452
  3
3dWireframe
350
C451
  3
Basic
350
C44F
  3
Brighten
350
C456
  3
ColorChange
350
C45A
  3
Conceptual
350
C453
  3
Dim
350
C455
  3
Facepattern
350
C459
  3
Flat
350
C44B
  3
FlatWithEdges
350
C44C
  3
Gouraud
350
C44D
  3
GouraudWithEdges
350
C44E
  3
Linepattern
350
C458
  3
Realistic
350
C454
  3
Thicken
350
C457
  0
XRECORD
  5
4DE64
102
{ACAD_REACTORS
330
C
102
}
330
C
100
AcDbXrecord
280
     1
 90
   990106
  3

 60
     0
 61
     0
 62
     1
 63
     3
 64
     0
 65
     0
 66
     0
 67
     3
 68
     1
 69
     0
 70
     0
 71
     0
 72
     0
 40
0.0
170
     0
  0
ACAD_PROXY_OBJECT
  5
3DA1
102
{ACAD_REACTORS
330
C
102
}
330
C
100
AcDbProxyObject
 90
      499
 91
      576
 95
       23
 70
     0
 93
       10
310
407F
 94
        0
1001
ACAD
1000
AcRTDxfName
1000
ASAPP
  0
ACAD_PROXY_OBJECT
  5
3DE9
102
{ACAD_REACTORS
330
C
102
}
330
C
100
AcDbProxyObject
 90
      499
 91
      581
 95
       23
 70
     0
 93
       34
310
010000407F
 94
        0
1001
ACAD
1000
AcRTDxfName
1000
ACASGREFMASTER
  0
DICTIONARY
  5
34
102
{ACAD_REACTORS
330
C
102
}
330
C
100
AcDbDictionary
281
     1
  3
CTABLESTYLE
350
C4A2
  3
DIMASSOC
350
AC85
  3
INDEXCTL
350
35
  3
SORTENTS
350
194C
  0
DICTIONARY
  5
47
102
{ACAD_REACTORS
330
C
102
}
330
C
100
AcDbDictionary
281
     1
  3
AcmBOM
350
7E8
  3
AcmStdDictionary
350
4C
  3
AMDTSECTSYM_ARROWCOLOR
350
C487
  0
ACAD_PROXY_OBJECT
  5
3DEA
102
{ACAD_REACTORS
330
C
102
}
330
C
100
AcDbProxyObject
 90
      499
 91
      582
 95
       23
 70
     0
 93
      114
310
00000043800000000000000000003F
 94
        0
1001
ACAD
1000
AcRTDxfName
1000
ACADGREFMODULE
  0
ACAD_PROXY_OBJECT
  5
3E06
102
{ACAD_REACTORS
330
C
102
}
330
C
100
AcDbProxyObject
 90
      499
 91
      594
 95
       23
 70
     0
 93
       34
310
05000044FF
 94
        0
1001
ACAD
1000
AcRTDxfName
1000
MAPIADMODULE
  0
DICTIONARY
  5
2B
102
{ACAD_REACTORS
330
C
102
}
330
C
100
AcDbDictionary
281
     1
  0
DICTIONARY
  5
7D
102
{ACAD_REACTORS
330
C
102
}
330
C
100
AcDbDictionary
281
     1
  0
DICTIONARY
  5
6169A
102
{ACAD_REACTORS
330
C
102
}
330
C
100
AcDbDictionary
281
     1
  3
ASEBlockHierarchyIndexRecord
350
6169B
1001
DCO15
1040
1758021493.171
  0
XRECORD
  5
642AE
102
{ACAD_REACTORS
330
C
102
}
330
C
100
AcDbXrecord
280
     1
  1
DWGPROPS COOKIE
  2

  3

  4

  6

  7

  8
shibutani
  9

300
AmdtFileType=84
301
=
302
=
303
=
304
=
305
=
306
=
307
=
308
=
309
=
 40
9.439997835648147
 41
2452002.615067627
 42
2456384.406138599
  1

 90
        1
  0
ACAD_PROXY_OBJECT
  5
3DEB
102
{ACAD_REACTORS
330
C
102
}
330
C
100
AcDbProxyObject
 90
      499
 91
      583
 95
       23
 70
     0
 93
        8
310
0477
 94
        0
1001
ACAD
1000
AcRTDxfName
1000
AMDTMAPISURFMOUDULE
  0
DICTIONARY
  5
CB0C
102
{ACAD_REACTORS
330
3F95
102
}
330
3F95
100
AcDbDictionary
281
     1
  3
50
350
CB0E
  0
DICTIONARY
  5
3F96
102
{ACAD_REACTORS
330
3F95
102
}
330
3F95
100
AcDbDictionary
281
     1
  3
20011210
350
3FB7
  0
DICTIONARY
  5
CB0B
102
{ACAD_REACTORS
330
3F95
102
}
330
3F95
100
AcDbDictionary
281
     1
  3
*A1
350
CB0D
1001
ACAD
1000
<All
  0
DICTIONARY
  5
CB2F
102
{ACAD_REACTORS
330
3F95
102
}
330
3F95
100
AcDbDictionary
280
     1
281
     1
  0
SORTENTSTABLE
  5
14A89
102
{ACAD_REACTORS
330
8A
102
}
330
8A
100
AcDbSortentsTable
330
1F
331
5D85A
  5
5D85E
331
5D8B9
  5
5D8BD
331
5D862
  5
5D867
331
5D8C1
  5
5D8C8
331
63E06
  5
63E0D
331
5D8C9
  5
5D8CD
331
63E0E
  5
63E0E
331
5EA95
  5
5EB54
331
5EA17
  5
5EA79
331
5D833
  5
5D838
331
5E999
  5
5E99D
331
63E56
  5
63E56
331
63D87
  5
63D87
331
5D8A2
  5
5D8A6
331
5D83B
  5
5D83F
331
5E9A1
  5
5E9A5
331
5D8AA
  5
5D8AE
331
5D843
  5
5D847
331
5E9A9
  5
5E9AF
331
63D8F
  5
63D8F
331
5D8B2
  5
5D8B6
331
5D84B
  5
5D84F
331
5EA2F
  5
5EA95
331
5EB54
  5
5EC45
331
5D853
  5
5D857
331
5E9C1
  5
5E9FF
331
63DDF
  5
63DE2
331
5D85B
  5
5D85F
331
5D8BA
  5
5D8BE
331
63AE8
  5
63AE8
331
5EA47
  5
5EAEF
331
63E07
  5
63E06
331
5EB7C
  5
5ECD8
331
5D8CA
  5
5D8F8
331
5D834
  5
5D839
331
63E0F
  5
63E0F
331
5EA5F
  5
5EB07
331
63E57
  5
63E57
331
5D8A3
  5
5D8A7
331
5D83C
  5
5D840
331
5E9A2
  5
5E9A6
331
63D88
  5
63D88
331
5D8AB
  5
5D8AF
331
5D844
  5
5D848
331
5E9AA
  5
5E9BD
331
5D8B3
  5
5D8B7
331
5D84C
  5
5D850
331
63D90
  5
63D90
331
5D854
  5
5D858
331
5E9C2
  5
5EA17
331
63DE0
  5
63DE3
331
5D85C
  5
5D862
331
5D8BB
  5
5D8BF
331
5D864
  5
5D868
331
63AE9
  5
63AE9
331
63E08
  5
63DDF
331
5D8CB
  5
5D8F9
331
63E10
  5
63E10
331
5EBFD
  5
5ED21
331
5D835
  5
5D83A
331
5E99B
  5
5E99F
331
5D83D
  5
5D841
331
5E9A3
  5
5E9A7
331
63D89
  5
63D89
331
5D845
  5
5D849
331
5D8AC
  5
5D8B0
331
5EAEF
  5
5EB77
331
5EC45
  5
5ED22
331
5D8B4
  5
5D8B8
331
5D84D
  5
5D851
331
63D91
  5
63D91
331
5D855
  5
5D859
331
63DE1
  5
63E03
331
5EB07
  5
5EB7C
331
5D85D
  5
5D864
331
5D8BC
  5
5D8C0
331
5D865
  5
5D89E
331
5D8C4
  5
5D8C9
331
63E09
  5
63DE1
331
5D8CC
  5
5D8FA
331
63E11
  5
63E11
331
63CDA
  5
63CDA
331
5E99C
  5
5E9A0
331
614F5
  5
614F5
331
5D83E
  5
5D843
331
5E9A4
  5
5E9A8
331
63D8A
  5
63D8A
331
63E59
  5
63E59
331
6150D
  5
6150D
331
5D846
  5
5D84A
331
5D8AD
  5
5D8B1
331
5E9AC
  5
5E9BE
331
63D92
  5
63D92
331
5D84E
  5
5D852
331
5D8B5
  5
5D8B9
331
5EA79
  5
5EB31
331
5D856
  5
5D85A
331
63DE2
  5
63E05
331
5D8BD
  5
5D8C1
331
5D85E
  5
5D865
331
63E02
  5
63E08
331
5EB77
  5
5ECA3
331
5D866
  5
5D8A0
331
63E0A
  5
63E09
331
63C83
  5
63C83
331
5D8CD
  5
5D8FC
331
63E12
  5
63E12
331
63CDB
  5
63CDB
331
5E99D
  5
5E9A1
331
5D89E
  5
5D8A3
331
5D837
  5
5D83B
331
5E9A5
  5
5E9A9
331
5D8A6
  5
5D8AB
331
5D83F
  5
5D844
331
63D8B
  5
63D8B
331
63E5A
  5
63E5A
331
5D8AE
  5
5D8B2
331
5D847
  5
5D84B
331
63D93
  5
63D93
331
5E9BD
  5
5E9C1
331
5D84F
  5
5D853
331
5D8B6
  5
5D8BA
331
63DDB
  5
63DDB
331
5D857
  5
5D85B
331
63DE3
  5
63E07
331
5D8BE
  5
5D8C4
331
5D85F
  5
5D866
331
63E03
  5
63E0A
331
5D8C6
  5
5D8CA
331
5D867
  5
5D8A1
331
63E0B
  5
63E02
331
63C84
  5
63C84
331
5EB31
  5
5EBFD
331
63E13
  5
63E13
331
5E99E
  5
5E9A2
331
5D838
  5
5D83C
331
5E9A6
  5
5E9AA
331
5D840
  5
5D845
331
63D8C
  5
63D8C
331
5D848
  5
5D84C
331
5D8AF
  5
5D8B3
331
63D94
  5
63D94
331
5E9BE
  5
5E9C2
331
5D850
  5
5D854
331
5D8B7
  5
5D8BB
331
63DDC
  5
63DDC
331
5D858
  5
5D85C
331
5D8BF
  5
5D8C6
331
63E04
  5
63E0B
331
5D868
  5
5D8A2
331
5D8C7
  5
5D8CB
331
63E0C
  5
63E04
331
63E14
  5
63E14
331
5E99F
  5
5E9A3
331
63D85
  5
63D85
331
5D8A0
  5
5D8A4
331
5D839
  5
5D83D
331
5D841
  5
5D846
331
5E9A7
  5
5E9AC
331
63D8D
  5
63D8D
331
5D8B0
  5
5D8B4
331
5D849
  5
5D84D
331
5E9AF
  5
5E9C0
331
63D95
  5
63D95
331
5D851
  5
5D855
331
5E9BF
  5
5E9CF
331
63DDD
  5
63DDE
331
5D859
  5
5D85D
331
5D8B8
  5
5D8BC
331
5E9CF
  5
5EA2F
331
5D8C0
  5
5D8C7
331
63E05
  5
63E0C
331
5D8C8
  5
5D8CC
331
63E0D
  5
63DDD
331
5D832
  5
5D837
331
5E998
  5
5E99C
331
63E15
  5
63E15
331
5E9E7
  5
5EA47
331
63D86
  5
63D86
331
5D8A1
  5
5D8A5
331
5D83A
  5
5D83E
331
5E9A0
  5
5E9A4
331
5E9A8
  5
5E9AD
331
5D8B1
  5
5D8B5
331
5D84A
  5
5D84E
331
63D8E
  5
63D8E
331
63D96
  5
63D96
331
5E9FF
  5
5EA5F
331
5D852
  5
5D856
331
5E9C0
  5
5E9E7
331
63DDE
  5
63DE0
331
5ED92
  5
5ED96
  0
DIMASSOC
  5
5E9DD
102
{ACAD_REACTORS
330
5E9DC
102
}
330
5E9DC
100
AcDbDimAssoc
330
5E9CF
 90
        3
 70
     0
 71
     0
  1
AcDbOsnapPointRef
 72
     1
331
5D848
 73
     0
 91
        0
 40
0.0
 10
0.0
 20
0.0
 30
2.000000000000000E+50
 75
     0
  1
AcDbOsnapPointRef
 72
     1
331
5D85F
 73
     0
 91
        0
 40
0.0
 10
0.0
 20
0.0
 30
2.000000000000000E+50
 75
     0
  0
DIMASSOC
  5
5E9F5
102
{ACAD_REACTORS
330
5E9F4
102
}
330
5E9F4
100
AcDbDimAssoc
330
5E9E7
 90
        3
 70
     0
 71
     0
  1
AcDbOsnapPointRef
 72
     1
331
5D848
 73
     0
 91
        0
 40
0.0
 10
0.0
 20
0.0
 30
2.000000000000000E+50
 75
     0
  1
AcDbOsnapPointRef
 72
     1
331
5D84A
 73
     0
 91
        0
 40
0.0
 10
0.0
 20
0.0
 30
2.000000000000000E+50
 75
     0
  0
DIMASSOC
  5
5EA0D
102
{ACAD_REACTORS
330
5EA0C
102
}
330
5EA0C
100
AcDbDimAssoc
330
5E9FF
 90
        3
 70
     0
 71
     0
  1
AcDbOsnapPointRef
 72
     1
331
5D85F
 73
     0
 91
        0
 40
0.0
 10
0.0
 20
0.0
 30
2.000000000000000E+50
 75
     0
  1
AcDbOsnapPointRef
 72
     1
331
5D868
 73
     0
 91
        0
 40
0.0
 10
0.0
 20
0.0
 30
2.000000000000000E+50
 75
     0
  0
DIMASSOC
  5
5EA25
102
{ACAD_REACTORS
330
5EA24
102
}
330
5EA24
100
AcDbDimAssoc
330
5EA17
 90
        3
 70
     0
 71
     0
  1
AcDbOsnapPointRef
 72
     1
331
5D8C1
 73
     0
 91
        0
 40
0.0
 10
0.0
 20
0.0
 30
2.000000000000000E+50
 75
     0
  1
AcDbOsnapPointRef
 72
     1
331
5D8B4
 73
     0
 91
        0
 40
0.0
 10
0.0
 20
0.0
 30
2.000000000000000E+50
 75
     0
  0
DIMASSOC
  5
5EA3D
102
{ACAD_REACTORS
330
5EA3C
102
}
330
5EA3C
100
AcDbDimAssoc
330
5EA2F
 90
        3
 70
     0
 71
     0
  1
AcDbOsnapPointRef
 72
     1
331
5D8C1
 73
     0
 91
        0
 40
0.0
 10
0.0
 20
0.0
 30
2.000000000000000E+50
 75
     0
  1
AcDbOsnapPointRef
 72
     1
331
5D8CA
 73
     0
 91
        0
 40
0.0
 10
0.0
 20
0.0
 30
2.000000000000000E+50
 75
     0
  0
DIMASSOC
  5
5EA55
102
{ACAD_REACTORS
330
5EA54
102
}
330
5EA54
100
AcDbDimAssoc
330
5EA47
 90
        3
 70
     0
 71
     0
  1
AcDbOsnapPointRef
 72
     1
331
5D8A1
 73
     0
 91
        0
 40
0.0
 10
0.0
 20
0.0
 30
2.000000000000000E+50
 75
     0
  1
AcDbOsnapPointRef
 72
    13
331
5D8A0
 73
     0
 91
        0
 40
0.0
 10
0.0
 20
0.0
 30
2.000000000000000E+50
 75
     0
  0
DIMASSOC
  5
5EA6D
102
{ACAD_REACTORS
330
5EA6C
102
}
330
5EA6C
100
AcDbDimAssoc
330
5EA5F
 90
        3
 70
     0
 71
     0
  1
AcDbOsnapPointRef
 72
     1
331
5D839
 73
     0
 91
        0
 40
0.0
 10
0.0
 20
0.0
 30
2.000000000000000E+50
 75
     0
  1
AcDbOsnapPointRef
 72
    13
331
5D837
 73
     0
 91
        0
 40
0.0
 10
0.0
 20
0.0
 30
2.000000000000000E+50
 75
     0
  0
DIMASSOC
  5
5EA89
102
{ACAD_REACTORS
330
5EA88
102
}
330
5EA88
100
AcDbDimAssoc
330
5EA79
 90
        3
 70
     0
 71
     0
  1
AcDbOsnapPointRef
 72
     1
331
5D8A0
 73
     0
 91
        0
 40
0.0
 10
0.0
 20
0.0
 30
2.000000000000000E+50
 75
     0
  1
AcDbOsnapPointRef
 72
    13
331
5D8A0
 73
     0
 91
        0
 40
0.0
 10
0.0
 20
0.0
 30
2.000000000000000E+50
 75
     0
  0
DIMASSOC
  5
5EAA5
102
{ACAD_REACTORS
330
5EAA4
102
}
330
5EAA4
100
AcDbDimAssoc
330
5EA95
 90
        3
 70
     0
 71
     0
  1
AcDbOsnapPointRef
 72
     1
331
5D837
 73
     0
 91
        0
 40
0.0
 10
0.0
 20
0.0
 30
2.000000000000000E+50
 75
     0
  1
AcDbOsnapPointRef
 72
    13
331
5D837
 73
     0
 91
        0
 40
0.0
 10
0.0
 20
0.0
 30
2.000000000000000E+50
 75
     0
  0
DIMASSOC
  5
5EAFD
102
{ACAD_REACTORS
330
5EAFC
102
}
330
5EAFC
100
AcDbDimAssoc
330
5EAEF
 90
        3
 70
     0
 71
     0
  1
AcDbOsnapPointRef
 72
    13
331
5D8CA
 73
     0
 91
        0
 40
0.0
 10
0.0
 20
0.0
 30
2.000000000000000E+50
 75
     0
  1
AcDbOsnapPointRef
 72
     1
331
5D8C8
 73
     0
 91
        0
 40
0.0
 10
0.0
 20
0.0
 30
2.000000000000000E+50
 75
     0
  0
DIMASSOC
  5
5EB15
102
{ACAD_REACTORS
330
5EB14
102
}
330
5EB14
100
AcDbDimAssoc
330
5EB07
 90
        3
 70
     0
 71
     0
  1
AcDbOsnapPointRef
 72
    13
331
5D868
 73
     0
 91
        0
 40
0.0
 10
0.0
 20
0.0
 30
2.000000000000000E+50
 75
     0
  1
AcDbOsnapPointRef
 72
     1
331
5D835
 73
     0
 91
        0
 40
0.0
 10
0.0
 20
0.0
 30
2.000000000000000E+50
 75
     0
  0
DIMASSOC
  5
5EB41
102
{ACAD_REACTORS
330
5EB40
102
}
330
5EB40
100
AcDbDimAssoc
330
5EB31
 90
        3
 70
     0
 71
     0
  1
AcDbOsnapPointRef
 72
    13
331
5D8C8
 73
     0
 91
        0
 40
0.0
 10
0.0
 20
0.0
 30
2.000000000000000E+50
 75
     0
  1
AcDbOsnapPointRef
 72
     1
331
5D8C8
 73
     0
 91
        0
 40
0.0
 10
0.0
 20
0.0
 30
2.000000000000000E+50
 75
     0
  0
DIMASSOC
  5
5EB64
102
{ACAD_REACTORS
330
5EB63
102
}
330
5EB63
100
AcDbDimAssoc
330
5EB54
 90
        3
 70
     0
 71
     0
  1
AcDbOsnapPointRef
 72
    13
331
5D835
 73
     0
 91
        0
 40
0.0
 10
0.0
 20
0.0
 30
2.000000000000000E+50
 75
     0
  1
AcDbOsnapPointRef
 72
     1
331
5D835
 73
     0
 91
        0
 40
0.0
 10
0.0
 20
0.0
 30
2.000000000000000E+50
 75
     0
  0
DIMASSOC
  5
5EC56
102
{ACAD_REACTORS
330
5EC4F
102
}
330
5EC4F
100
AcDbDimAssoc
330
5EC45
 90
        2
 70
     0
 71
     0
  1
AcDbOsnapPointRef
 72
     3
331
5D841
 73
     2
 91
        0
 40
0.0
 10
0.0
 20
0.0
 30
0.0
 75
     0
  0
DIMASSOC
  5
61503
102
{ACAD_REACTORS
330
61502
102
}
330
61502
100
AcDbDimAssoc
330
614F5
 90
        3
 70
     0
 71
     0
  1
AcDbOsnapPointRef
 72
    13
331
5E9BF
 73
     0
 91
        0
 40
0.0
 10
0.0
 20
0.0
 30
2.000000000000000E+50
 75
     0
  1
AcDbOsnapPointRef
 72
    13
331
5D8A1
 73
     0
 91
        0
 40
0.0
 10
0.0
 20
0.0
 30
2.000000000000000E+50
 75
     0
  0
DIMASSOC
  5
6151B
102
{ACAD_REACTORS
330
6151A
102
}
330
6151A
100
AcDbDimAssoc
330
6150D
 90
        3
 70
     0
 71
     0
  1
AcDbOsnapPointRef
 72
    13
331
5E9C2
 73
     0
 91
        0
 40
0.0
 10
0.0
 20
0.0
 30
2.000000000000000E+50
 75
     0
  1
AcDbOsnapPointRef
 72
    13
331
5D839
 73
     0
 91
        0
 40
0.0
 10
0.0
 20
0.0
 30
2.000000000000000E+50
 75
     0
  0
LAYOUT
  5
22
102
{ACAD_XDICTIONARY
360
642B1
102
}
102
{ACAD_REACTORS
330
1A
102
}
330
1A
100
AcDbPlotSettings
  1

  2
Adobe PDF
  4
A4
  6

 40
3.174999952316284
 41
3.174999952316284
 42
3.175003051757812
 43
3.17498779296875
 44
209.9733276367187
 45
297.0318298339844
 46
0.0
 47
1.350141482693686
 48
0.0
 49
0.0
140
297.0000000000002
141
210.0
142
1.0
143
1.031316036013356
 70
  3764
 72
     1
 73
     1
 74
     4
  7
monochrome.ctb
 75
     0
147
0.9696348792030697
148
0.0
149
0.0
100
AcDbLayout
  1
Model
 70
     1
 71
     0
 10
0.0
 20
0.0
 11
12.0
 21
9.0
 12
0.0
 22
0.0
 32
0.0
 14
0.0
 24
0.0
 34
0.0
 15
0.0
 25
0.0
 35
0.0
146
0.0
 13
0.0
 23
0.0
 33
0.0
 16
1.0
 26
0.0
 36
0.0
 17
0.0
 27
1.0
 37
0.0
 76
     0
330
1F
331
C444
1001
ACAD_PSEXT
1000
Adobe PDF
1000
Adobe PDF Converter
1000
My Documents\*.pdf
1000

1070
     0
  0
LAYOUT
  5
1E
102
{ACAD_XDICTIONARY
360
642AF
102
}
102
{ACAD_REACTORS
330
1A
102
}
330
1A
100
AcDbPlotSettings
  1

  2
\\ML370\XEROX
  4
A4
  6

 40
3.174999952316284
 41
3.174999952316284
 42
3.175003051757812
 43
3.17498779296875
 44
209.8674926757813
 45
296.6719970703125
 46
0.0
 47
0.0
 48
0.0
 49
0.0
140
0.0
141
0.0
142
1.0
143
1.0
 70
   688
 72
     1
 73
     1
 74
     5
  7
monochrome.ctb
 75
    16
147
1.0
148
0.0
149
0.0
100
AcDbLayout
  1
ﾚｲｱｳﾄ1
 70
     1
 71
     1
 10
-3.17498779296875
 20
-3.174999952316284
 11
293.4970092773438
 21
206.692492723465
 12
0.0
 22
0.0
 32
0.0
 14
1.000000000000000E+20
 24
1.000000000000000E+20
 34
1.000000000000000E+20
 15
-1.000000000000000E+20
 25
-1.000000000000000E+20
 35
-1.000000000000000E+20
146
0.0
 13
0.0
 23
0.0
 33
0.0
 16
1.0
 26
0.0
 36
0.0
 17
0.0
 27
1.0
 37
0.0
 76
     0
330
1B
  0
LAYOUT
  5
26
102
{ACAD_XDICTIONARY
360
642B3
102
}
102
{ACAD_REACTORS
330
1A
102
}
330
1A
100
AcDbPlotSettings
  1

  2
\\ML370\XEROX
  4

  6

 40
0.0
 41
0.0
 42
0.0
 43
0.0
 44
0.0
 45
0.0
 46
0.0
 47
0.0
 48
0.0
 49
0.0
140
0.0
141
0.0
142
1.0
143
1.0
 70
   688
 72
     0
 73
     0
 74
     5
  7
monochrome.ctb
 75
    16
147
1.0
148
0.0
149
0.0
100
AcDbLayout
  1
ﾚｲｱｳﾄ2
 70
     1
 71
     2
 10
0.0
 20
0.0
 11
12.0
 21
9.0
 12
0.0
 22
0.0
 32
0.0
 14
0.0
 24
0.0
 34
0.0
 15
0.0
 25
0.0
 35
0.0
146
0.0
 13
0.0
 23
0.0
 33
0.0
 16
1.0
 26
0.0
 36
0.0
 17
0.0
 27
1.0
 37
0.0
 76
     0
330
23
  0
MATERIAL
  5
C448
102
{ACAD_XDICTIONARY
360
642B7
102
}
102
{ACAD_REACTORS
330
C446
102
}
330
C446
100
AcDbMaterial
  1
ByBlock
  0
MATERIAL
  5
C447
102
{ACAD_XDICTIONARY
360
642B5
102
}
102
{ACAD_REACTORS
330
C446
102
}
330
C446
100
AcDbMaterial
  1
ByLayer
  0
MATERIAL
  5
C449
102
{ACAD_XDICTIONARY
360
642B9
102
}
102
{ACAD_REACTORS
330
C446
102
}
330
C446
100
AcDbMaterial
  1
Global
  0
MLINESTYLE
  5
18
102
{ACAD_REACTORS
330
17
102
}
330
17
100
AcDbMlineStyle
  2
STANDARD
 70
     0
  3

 62
   256
 51
90.0
 52
90.0
 71
     2
 49
0.5
 62
   256
  6
BYLAYER
 49
-0.5
 62
   256
  6
BYLAYER
  0
PLOTSETTINGS
  5
C85D
102
{ACAD_XDICTIONARY
360
642BD
102
}
102
{ACAD_REACTORS
330
19
102
}
330
19
100
AcDbPlotSettings
  1
-00
  2
RICOH imagio Wide 7040e RP-GL/2
  4
A3
  6
AM_VIEW1
 40
5.069416522979736
 41
7.228392601013183
 42
5.23870849609375
 43
7.05908203125
 44
419.9889831542968
 45
296.9683227539062
 46
-5.159570932388305
 47
-7.159575939178466
 48
347.0000006405867
 49
-0.0000003719120514
140
767.0000006405866
141
296.9999996280879
142
1.0
143
1.0
 70
 11956
 72
     1
 73
     0
 74
     4
  7
monochrome.ctb
 75
    16
147
1.0
148
-347.0000006405867
149
0.0000003719120514
1001
ACAD_PSEXT
1000
RICOH imagio Wide 7040e RP-GL/2
1000
RICOH imagio Wide 7040e RP-GL/2
1000
\\ADMINISTRATOR
1000
RP-GL/2 Driver (Windows 2000/XP/Server 2003)
1070
     0
  0
ACDBPLACEHOLDER
  5
F
102
{ACAD_REACTORS
330
E
102
}
330
E
  0
TABLESTYLE
  5
C45D
102
{ACAD_XDICTIONARY
360
642BB
102
}
102
{ACAD_REACTORS
330
C45C
102
}
330
C45C
100
AcDbTableStyle
  3
Standard
 70
     0
 71
     0
 40
1.5
 41
1.5
280
     0
281
     0
  7
STANDARD
140
4.5
170
     2
 62
     0
 63
     7
283
     0
274
    -2
284
     1
 64
     0
275
    -2
285
     1
 65
     0
276
    -2
286
     1
 66
     0
277
    -2
287
     1
 67
     0
278
    -2
288
     1
 68
     0
279
    -2
289
     1
 69
     0
  7
STANDARD
140
6.0
170
     5
 62
     0
 63
     7
283
     0
274
    -2
284
     1
 64
     0
275
    -2
285
     1
 65
     0
276
    -2
286
     1
 66
     0
277
    -2
287
     1
 67
     0
278
    -2
288
     1
 68
     0
279
    -2
289
     1
 69
     0
  7
STANDARD
140
4.5
170
     5
 62
     0
 63
     7
283
     0
274
    -2
284
     1
 64
     0
275
    -2
285
     1
 65
     0
276
    -2
286
     1
 66
     0
277
    -2
287
     1
 67
     0
278
    -2
288
     1
 68
     0
279
    -2
289
     1
 69
     0
  0
VISUALSTYLE
  5
C450
102
{ACAD_REACTORS
330
C44A
102
}
330
C44A
100
AcDbVisualStyle
  2
2dWireframe
 70
     4
 71
     0
 72
     2
 73
     0
 90
        0
 40
-0.6
 41
-30.0
 62
     5
 63
     7
 74
     1
 91
        4
 64
     7
 65
   257
 75
     1
175
     1
 42
1.0
 92
        0
 66
   257
 43
1.0
 76
     1
 77
     6
 78
     2
 67
     7
 79
     5
170
     0
171
     0
290
     0
174
     0
 93
        1
 44
0.0
173
     0
291
     0
 45
0.0
1001
ACAD
1000
AcDbSavedByObjectVersion
1070
     0
  0
VISUALSTYLE
  5
C452
102
{ACAD_REACTORS
330
C44A
102
}
330
C44A
100
AcDbVisualStyle
  2
3D Hidden
 70
     6
 71
     1
 72
     2
 73
     2
 90
        0
 40
-0.6
 41
-30.0
 62
     5
 63
     7
 74
     2
 91
        2
 64
     7
 65
   257
 75
     2
175
     1
 42
40.0
 92
        0
 66
   257
 43
1.0
 76
     1
 77
     6
 78
     2
 67
     7
 79
     3
170
     0
171
     0
290
     0
174
     0
 93
        1
 44
0.0
173
     0
291
     0
 45
0.0
1001
ACAD
1000
AcDbSavedByObjectVersion
1070
     0
  0
VISUALSTYLE
  5
C451
102
{ACAD_REACTORS
330
C44A
102
}
330
C44A
100
AcDbVisualStyle
  2
3dWireframe
 70
     5
 71
     0
 72
     2
 73
     0
 90
        0
 40
-0.6
 41
-30.0
 62
     5
 63
     7
 74
     1
 91
        4
 64
     7
 65
   257
 75
     1
175
     1
 42
1.0
 92
        0
 66
   257
 43
1.0
 76
     1
 77
     6
 78
     2
 67
     7
 79
     5
170
     0
171
     0
290
     0
174
     0
 93
        1
 44
0.0
173
     0
291
     0
 45
0.0
1001
ACAD
1000
AcDbSavedByObjectVersion
1070
     0
  0
VISUALSTYLE
  5
C44F
102
{ACAD_REACTORS
330
C44A
102
}
330
C44A
100
AcDbVisualStyle
  2
Basic
 70
     7
 71
     1
 72
     0
 73
     1
 90
        0
 40
-0.6
 41
-30.0
 62
     5
 63
     7
 74
     0
 91
        4
 64
     7
 65
   257
 75
     1
175
     1
 42
1.0
 92
        8
 66
     7
 43
1.0
 76
     1
 77
     6
 78
     2
 67
     7
 79
     5
170
     0
171
     0
290
     0
174
     0
 93
        1
 44
0.0
173
     0
291
     1
 45
0.0
1001
ACAD
1000
AcDbSavedByObjectVersion
1070
     0
  0
VISUALSTYLE
  5
C456
102
{ACAD_REACTORS
330
C44A
102
}
330
C44A
100
AcDbVisualStyle
  2
Brighten
 70
    12
 71
     2
 72
     2
 73
     0
 90
        0
 40
-0.6
 41
-30.0
 62
     5
 63
     7
 74
     1
 91
        4
 64
     7
 65
   257
 75
     1
175
     1
 42
1.0
 92
        8
 66
     7
 43
1.0
 76
     1
 77
     6
 78
     2
 67
     7
 79
     5
170
     0
171
     0
290
     0
174
     0
 93
        1
 44
50.0
173
     0
291
     1
 45
0.0
1001
ACAD
1000
AcDbSavedByObjectVersion
1070
     0
  0
VISUALSTYLE
  5
C45A
102
{ACAD_REACTORS
330
C44A
102
}
330
C44A
100
AcDbVisualStyle
  2
ColorChange
 70
    16
 71
     2
 72
     2
 73
     3
 90
        0
 40
-0.6
 41
-30.0
 62
     5
 63
     8
 74
     1
 91
        4
 64
     7
 65
   257
 75
     1
175
     1
 42
1.0
 92
        8
 66
     8
 43
1.0
 76
     1
 77
     6
 78
     2
 67
     7
 79
     5
170
     0
171
     0
290
     0
174
     0
 93
        1
 44
0.0
173
     0
291
     1
 45
0.0
1001
ACAD
1000
AcDbSavedByObjectVersion
1070
     0
  0
VISUALSTYLE
  5
C453
102
{ACAD_REACTORS
330
C44A
102
}
330
C44A
100
AcDbVisualStyle
  2
Conceptual
 70
     9
 71
     3
 72
     2
 73
     0
 90
        0
 40
-0.6
 41
-30.0
 62
     5
 63
     7
 74
     2
 91
        2
 64
     7
 65
   257
 75
     1
175
     1
 42
40.0
 92
        8
 66
     7
 43
1.0
 76
     1
 77
     6
 78
     2
 67
     7
 79
     3
170
     0
171
     0
290
     0
174
     0
 93
        1
 44
0.0
173
     0
291
     0
 45
0.0
1001
ACAD
1000
AcDbSavedByObjectVersion
1070
     0
  0
VISUALSTYLE
  5
C455
102
{ACAD_REACTORS
330
C44A
102
}
330
C44A
100
AcDbVisualStyle
  2
Dim
 70
    11
 71
     2
 72
     2
 73
     0
 90
        0
 40
-0.6
 41
-30.0
 62
     5
 63
     7
 74
     1
 91
        4
 64
     7
 65
   257
 75
     1
175
     1
 42
1.0
 92
        8
 66
     7
 43
1.0
 76
     1
 77
     6
 78
     2
 67
     7
 79
     5
170
     0
171
     0
290
     0
174
     0
 93
        1
 44
-50.0
173
     0
291
     1
 45
0.0
1001
ACAD
1000
AcDbSavedByObjectVersion
1070
     0
  0
VISUALSTYLE
  5
C459
102
{ACAD_REACTORS
330
C44A
102
}
330
C44A
100
AcDbVisualStyle
  2
Facepattern
 70
    15
 71
     2
 72
     2
 73
     0
 90
        0
 40
-0.6
 41
-30.0
 62
     5
 63
     7
 74
     1
 91
        4
 64
     7
 65
   257
 75
     1
175
     1
 42
1.0
 92
        8
 66
     7
 43
1.0
 76
     1
 77
     6
 78
     2
 67
     7
 79
     5
170
     0
171
     0
290
     0
174
     0
 93
        1
 44
0.0
173
     0
291
     1
 45
0.0
1001
ACAD
1000
AcDbSavedByObjectVersion
1070
     0
  0
VISUALSTYLE
  5
C44B
102
{ACAD_REACTORS
330
C44A
102
}
330
C44A
100
AcDbVisualStyle
  2
Flat
 70
     0
 71
     2
 72
     1
 73
     1
 90
        2
 40
-0.6
 41
30.0
 62
     5
 63
     7
 74
     0
 91
        4
 64
     7
 65
   257
 75
     1
175
     1
 42
1.0
 92
        8
 66
     7
 43
1.0
 76
     1
 77
     6
 78
     2
 67
     7
 79
     5
170
     0
171
     0
290
     0
174
     0
 93
       13
 44
0.0
173
     0
291
     1
 45
0.0
1001
ACAD
1000
AcDbSavedByObjectVersion
1070
     0
  0
VISUALSTYLE
  5
C44C
102
{ACAD_REACTORS
330
C44A
102
}
330
C44A
100
AcDbVisualStyle
  2
FlatWithEdges
 70
     1
 71
     2
 72
     1
 73
     1
 90
        2
 40
-0.6
 41
30.0
 62
     5
 63
     7
 74
     1
 91
        4
 64
     7
 65
   257
 75
     1
175
     1
 42
1.0
 92
        0
 66
   257
 43
1.0
 76
     1
 77
     6
 78
     2
 67
     7
 79
     5
170
     0
171
     0
290
     0
174
     0
 93
       13
 44
0.0
173
     0
291
     1
 45
0.0
1001
ACAD
1000
AcDbSavedByObjectVersion
1070
     0
  0
VISUALSTYLE
  5
C44D
102
{ACAD_REACTORS
330
C44A
102
}
330
C44A
100
AcDbVisualStyle
  2
Gouraud
 70
     2
 71
     2
 72
     2
 73
     1
 90
        2
 40
-0.6
 41
30.0
 62
     5
 63
     7
 74
     0
 91
        4
 64
     7
 65
   257
 75
     1
175
     1
 42
1.0
 92
        0
 66
     7
 43
1.0
 76
     1
 77
     6
 78
     2
 67
     7
 79
     5
170
     0
171
     0
290
     0
174
     0
 93
       13
 44
0.0
173
     0
291
     1
 45
0.0
1001
ACAD
1000
AcDbSavedByObjectVersion
1070
     0
  0
VISUALSTYLE
  5
C44E
102
{ACAD_REACTORS
330
C44A
102
}
330
C44A
100
AcDbVisualStyle
  2
GouraudWithEdges
 70
     3
 71
     2
 72
     2
 73
     1
 90
        2
 40
-0.6
 41
30.0
 62
     5
 63
     7
 74
     1
 91
        4
 64
     7
 65
   257
 75
     1
175
     1
 42
1.0
 92
        0
 66
   257
 43
1.0
 76
     1
 77
     6
 78
     2
 67
     7
 79
     5
170
     0
171
     0
290
     0
174
     0
 93
       13
 44
0.0
173
     0
291
     1
 45
0.0
1001
ACAD
1000
AcDbSavedByObjectVersion
1070
     0
  0
VISUALSTYLE
  5
C458
102
{ACAD_REACTORS
330
C44A
102
}
330
C44A
100
AcDbVisualStyle
  2
Linepattern
 70
    14
 71
     2
 72
     2
 73
     0
 90
        0
 40
-0.6
 41
-30.0
 62
     5
 63
     7
 74
     1
 91
        4
 64
     7
 65
   257
 75
     7
175
     7
 42
1.0
 92
        8
 66
     7
 43
1.0
 76
     1
 77
     6
 78
     2
 67
     7
 79
     5
170
     0
171
     0
290
     0
174
     0
 93
        1
 44
0.0
173
     0
291
     1
 45
0.0
1001
ACAD
1000
AcDbSavedByObjectVersion
1070
     0
  0
VISUALSTYLE
  5
C454
102
{ACAD_REACTORS
330
C44A
102
}
330
C44A
100
AcDbVisualStyle
  2
Realistic
 70
     8
 71
     2
 72
     2
 73
     0
 90
        0
 40
-0.6
 41
-30.0
 62
     5
 63
     7
 74
     1
 91
        0
 64
     7
 65
   257
 75
     1
175
     1
 42
1.0
 92
        8
 66
     8
 43
1.0
 76
     1
 77
     6
 78
     2
 67
     7
 79
     5
170
     0
171
     0
290
     0
174
     0
 93
       13
 44
0.0
173
     0
291
     0
 45
0.0
1001
ACAD
1000
AcDbSavedByObjectVersion
1070
     0
  0
VISUALSTYLE
  5
C457
102
{ACAD_REACTORS
330
C44A
102
}
330
C44A
100
AcDbVisualStyle
  2
Thicken
 70
    13
 71
     2
 72
     2
 73
     0
 90
        0
 40
-0.6
 41
-30.0
 62
     5
 63
     7
 74
     1
 91
        4
 64
     7
 65
   257
 75
     1
175
     1
 42
1.0
 92
       12
 66
     7
 43
1.0
 76
     1
 77
     6
 78
     2
 67
     7
 79
     5
170
     0
171
     0
290
     0
174
     0
 93
        1
 44
0.0
173
     0
291
     1
 45
0.0
1001
ACAD
1000
AcDbSavedByObjectVersion
1070
     0
  0
DICTIONARYVAR
  5
C4A2
102
{ACAD_REACTORS
330
34
102
}
330
34
100
DictionaryVariables
280
     0
  1
STANDARD
  0
DICTIONARYVAR
  5
AC85
102
{ACAD_REACTORS
330
34
102
}
330
34
100
DictionaryVariables
280
     0
  1
2
  0
DICTIONARYVAR
  5
35
102
{ACAD_REACTORS
330
34
102
}
330
34
100
DictionaryVariables
280
     0
  1
0
  0
DICTIONARYVAR
  5
194C
102
{ACAD_REACTORS
330
34
102
}
330
34
100
DictionaryVariables
280
     0
  1
96
  0
DICTIONARY
  5
7E8
102
{ACAD_REACTORS
330
47
102
}
330
47
100
AcDbDictionary
281
     1
  0
DICTIONARY
  5
4C
102
{ACAD_REACTORS
330
47
102
}
330
47
100
AcDbDictionary
281
     1
  0
XRECORD
  5
C487
102
{ACAD_REACTORS
330
47
102
}
330
47
100
AcDbXrecord
280
     1
 90
-1023410169
  0
XRECORD
  5
6169B
102
{ACAD_REACTORS
330
6169A
102
}
330
6169A
100
AcDbXrecord
280
     1
330
0
330
0
330
0
330
0
330
0
330
0
330
0
330
0
330
0
330
0
330
0
330
0
330
0
330
0
330
0
330
0
330
0
330
0
330
0
330
0
330
0
330
0
330
0
330
0
330
0
330
0
330
0
330
0
330
0
330
0
330
0
330
0
330
0
330
0
330
0
330
0
330
0
330
0
330
0
330
0
330
0
330
0
330
0
330
0
330
0
330
0
330
0
330
0
330
0
330
0
330
0
330
0
330
0
330
0
330
0
330
0
330
0
330
0
330
0
330
0
330
0
330
0
330
0
330
0
330
0
330
0
330
0
330
0
330
0
330
0
330
0
330
0
330
0
330
0
330
0
330
0
330
0
330
0
330
0
330
0
330
0
330
0
330
0
330
0
330
0
330
0
330
0
330
0
330
0
330
0
330
0
330
0
330
0
330
0
330
0
330
0
330
0
330
0
330
0
330
0
330
0
330
0
330
0
330
0
330
0
330
0
330
0
330
0
330
0
330
0
330
0
330
0
330
0
330
0
330
0
330
0
330
0
330
0
330
0
330
0
330
0
330
0
330
0
330
0
330
0
330
0
330
0
330
0
330
0
330
0
330
0
330
0
330
0
330
0
330
0
330
0
330
0
330
0
330
0
330
0
330
0
330
0
330
0
330
0
330
0
330
0
330
0
330
0
330
0
330
0
330
0
330
0
330
0
330
0
330
0
330
0
330
0
330
0
330
0
330
0
330
0
330
0
330
0
330
0
330
0
330
0
330
0
330
0
330
0
330
0
330
0
330
0
330
0
330
0
330
0
330
0
330
0
330
0
330
0
330
0
330
0
330
0
330
0
330
0
330
0
330
0
330
0
330
0
330
0
330
0
330
0
330
0
330
0
330
0
330
0
330
0
330
0
330
0
330
0
330
0
330
0
330
0
330
0
330
0
330
0
330
0
330
0
330
0
330
0
330
0
330
0
330
0
330
0
330
0
330
0
330
0
330
0
330
0
330
0
330
0
330
0
330
0
330
0
330
0
330
0
330
0
330
0
330
0
330
0
330
0
330
0
330
0
330
0
330
0
330
0
330
0
330
0
330
0
330
0
330
0
330
0
330
0
330
0
330
0
330
0
330
0
330
0
330
0
330
0
330
0
330
0
330
0
330
0
330
0
330
0
330
0
330
0
330
0
330
0
330
0
330
0
330
0
330
0
330
0
330
0
330
0
330
0
330
0
330
0
330
0
330
0
330
0
330
0
330
0
330
0
330
0
330
0
330
0
330
0
330
0
330
0
330
0
330
0
330
0
330
0
330
0
330
0
330
0
330
0
330
0
330
0
330
0
330
0
330
0
330
0
330
0
330
0
330
0
330
0
330
0
330
0
330
0
330
0
330
0
330
0
330
0
330
0
330
0
330
0
330
0
330
0
330
0
330
0
330
0
330
0
330
0
330
0
330
0
330
0
330
0
330
0
330
0
330
0
330
0
330
0
330
0
330
0
330
0
330
0
330
0
330
0
330
0
330
0
330
0
330
0
330
0
330
0
330
0
330
0
330
0
330
0
330
0
330
0
330
0
330
0
330
0
330
0
330
0
330
0
330
0
330
0
330
0
330
0
330
0
330
0
330
0
330
0
330
0
330
0
330
0
330
0
330
0
330
0
330
0
330
0
330
0
330
0
330
0
330
0
330
0
330
0
330
0
330
0
330
0
330
0
330
0
330
0
330
0
330
0
330
0
330
0
330
0
330
0
330
0
330
0
330
0
330
0
330
0
330
0
330
0
330
0
330
0
330
0
330
0
330
0
330
0
330
0
330
0
330
0
330
0
330
0
330
0
330
0
330
0
330
0
330
0
330
0
330
0
330
0
330
0
330
0
330
0
330
0
330
0
330
0
330
0
330
0
330
0
330
0
330
0
330
0
330
0
330
0
330
0
330
0
330
0
330
0
330
0
330
0
330
0
330
0
330
0
330
0
330
0
330
0
330
0
330
0
330
0
330
0
330
0
330
0
330
0
330
0
330
0
330
0
330
0
330
0
330
0
330
0
330
0
330
0
330
0
330
0
330
0
330
0
330
0
330
0
330
0
330
0
330
0
330
0
330
0
330
0
330
0
330
0
330
0
330
0
330
0
330
0
330
0
330
0
330
0
330
0
330
0
330
0
330
0
330
0
330
0
330
0
330
0
330
0
330
0
330
0
330
0
330
0
330
0
330
0
330
0
330
0
330
0
330
0
330
0
330
0
330
0
330
0
330
0
330
0
330
0
330
0
330
0
330
0
330
0
330
0
330
0
330
0
330
0
330
0
330
0
330
0
330
0
330
0
330
0
330
0
330
0
330
0
330
0
330
0
330
0
330
0
330
0
330
0
330
0
330
0
330
0
330
0
330
0
330
0
330
0
330
0
330
0
330
0
330
0
330
0
330
0
330
0
330
0
330
0
330
0
330
0
330
0
330
0
330
0
330
0
330
0
330
0
330
0
330
0
330
0
330
0
330
0
330
0
330
0
330
0
330
0
330
0
330
0
330
0
330
0
330
0
330
0
330
0
330
0
330
0
330
0
330
0
330
0
330
0
330
0
330
0
330
0
330
0
330
0
330
0
330
0
330
0
330
0
330
0
330
0
330
0
330
0
330
0
330
0
330
0
330
0
330
0
330
0
330
0
330
0
330
0
330
0
330
0
330
0
330
0
330
0
330
0
330
0
330
0
330
0
330
0
330
0
330
0
330
0
330
0
330
0
330
0
330
0
330
0
330
0
330
0
330
0
330
0
330
0
330
0
330
0
330
0
330
0
330
0
330
0
330
0
330
0
330
0
330
0
330
0
330
0
330
0
330
0
330
0
330
0
330
0
330
0
330
0
330
0
330
0
330
0
330
0
330
0
330
0
330
0
330
0
330
0
330
0
330
0
330
0
330
0
330
0
330
0
330
0
330
0
330
0
330
0
330
0
330
0
330
0
330
0
330
0
330
0
330
0
330
0
330
0
330
0
330
0
330
0
330
0
330
0
330
0
330
0
330
0
330
0
330
0
330
0
330
0
330
0
330
0
330
0
330
0
330
0
330
0
330
0
330
0
330
0
330
0
330
0
330
0
330
0
  0
XRECORD
  5
CB0E
102
{ACAD_REACTORS
330
CB0C
102
}
330
CB0C
100
AcDbXrecord
280
     1
  1
50
  1
*-50
  1
*
  1
*
 70
     0
  1
*
  1
*
1001
ACAD
1000
( NAME== "*-50" )
  0
XRECORD
  5
3FB7
102
{ACAD_REACTORS
330
3F96
102
}
330
3F96
100
AcDbXrecord
280
     1
 91
        3
330
A47
 90
        8
 62
     7
370
    40
331
16
  1
Color_7
330
A46
 90
        0
 62
    14
370
    -3
331
16
  1
Color_14
330
3A31
 90
        8
 62
     7
370
    20
331
16
  1
Color_7
330
6D1
 90
        0
 62
     7
370
    -3
331
16
  1
Color_7
330
0
 90
        8
 62
     7
370
    50
331
16
  1
Color_7
330
A48
 90
        8
 62
     2
370
    35
331
16
  1
Color_2
330
FA5
 90
        8
 62
     7
370
    -3
331
16
  1
Color_7
330
10
 90
        8
 62
     7
370
    -3
331
16
  1
Color_7
  0
XRECORD
  5
CB0D
102
{ACAD_REACTORS
330
CB0B
102
}
330
CB0B
100
AcDbXrecord
280
     1
  1
AcLyLayerFilter
 90
        1
300
50
301
( NAME== "*-50" )
  0
DICTIONARY
  5
642B1
330
22
100
AcDbDictionary
280
     1
281
     1
  3
ACAD_XREC_ROUNDTRIP
360
642B2
  0
DICTIONARY
  5
642AF
330
1E
100
AcDbDictionary
280
     1
281
     1
  3
ACAD_XREC_ROUNDTRIP
360
642B0
  0
DICTIONARY
  5
642B3
330
26
100
AcDbDictionary
280
     1
281
     1
  3
ACAD_XREC_ROUNDTRIP
360
642B4
  0
DICTIONARY
  5
642B7
330
C448
100
AcDbDictionary
280
     1
281
     1
  3
ACAD_XREC_ROUNDTRIP
360
642B8
  0
DICTIONARY
  5
642B5
330
C447
100
AcDbDictionary
280
     1
281
     1
  3
ACAD_XREC_ROUNDTRIP
360
642B6
  0
DICTIONARY
  5
642B9
330
C449
100
AcDbDictionary
280
     1
281
     1
  3
ACAD_XREC_ROUNDTRIP
360
642BA
  0
DICTIONARY
  5
642BD
330
C85D
100
AcDbDictionary
280
     1
281
     1
  3
ACAD_XREC_ROUNDTRIP
360
642BE
  0
DICTIONARY
  5
642BB
330
C45D
100
AcDbDictionary
280
     1
281
     1
  3
ACAD_XREC_ROUNDTRIP
360
642BC
  0
XRECORD
  5
642B2
102
{ACAD_REACTORS
330
642B1
102
}
330
642B1
100
AcDbXrecord
280
     1
102
SHADEPLOT
 70
     1
102
SHADEPLOTRESLEVEL
 70
     2
102
SHADEPLOTCUSTOMDPI
 70
   300
  0
XRECORD
  5
642B0
102
{ACAD_REACTORS
330
642AF
102
}
330
642AF
100
AcDbXrecord
280
     1
102
SHADEPLOT
 70
     0
102
SHADEPLOTRESLEVEL
 70
     2
102
SHADEPLOTCUSTOMDPI
 70
   300
  0
XRECORD
  5
642B4
102
{ACAD_REACTORS
330
642B3
102
}
330
642B3
100
AcDbXrecord
280
     1
102
SHADEPLOT
 70
     0
102
SHADEPLOTRESLEVEL
 70
     2
102
SHADEPLOTCUSTOMDPI
 70
   300
  0
XRECORD
  5
642B8
102
{ACAD_REACTORS
330
642B7
102
}
330
642B7
100
AcDbXrecord
280
     1
102
MATERIAL
148
0.0
149
0.0
149
0.0
 93
        0
 94
       63
282
     0
 72
     1
 77
     1
171
     1
175
     1
179
     1
273
     0
  0
XRECORD
  5
642B6
102
{ACAD_REACTORS
330
642B5
102
}
330
642B5
100
AcDbXrecord
280
     1
102
MATERIAL
148
0.0
149
0.0
149
0.0
 93
        0
 94
       63
282
     0
 72
     1
 77
     1
171
     1
175
     1
179
     1
273
     0
  0
XRECORD
  5
642BA
102
{ACAD_REACTORS
330
642B9
102
}
330
642B9
100
AcDbXrecord
280
     1
102
MATERIAL
148
0.0
149
0.0
149
0.0
 93
        0
 94
       63
282
     0
 72
     1
 77
     1
171
     1
175
     1
179
     1
273
     0
  0
XRECORD
  5
642BE
102
{ACAD_REACTORS
330
642BD
102
}
330
642BD
100
AcDbXrecord
280
     1
102
SHADEPLOT
 70
     0
102
SHADEPLOTRESLEVEL
 70
     2
102
SHADEPLOTCUSTOMDPI
 70
   300
  0
XRECORD
  5
642BC
102
{ACAD_REACTORS
330
642BB
102
}
330
642BB
100
AcDbXrecord
280
     1
102
ACAD_ROUNDTRIP_PRE2007_TABLESTYLE
 90
      512
 91
        0
  1

 92
      512
 93
        0
  2

 94
      512
 95
        0
  3

  0
ENDSEC
  0
EOF
