  0
SECTION
  2
HEADER
  9
$ACADVER
  1
AC1015
  9
$ACADMAINTVER
 70
    20
  9
$DWGCODEPAGE
  3
ANSI_932
  9
$INSBASE
 10
0.0
 20
0.0
 30
0.0
  9
$EXTMIN
 10
-0.0289027823964716
 20
-0.0098290252046809
 30
-0.000000000000013
  9
$EXTMAX
 10
297.0253206144276
 20
210.0197805741804
 30
0.0000000000000023
  9
$LIMMIN
 10
0.0000002820350623
 20
0.0000000504797413
  9
$LIMMAX
 10
420.000000282035
 20
297.0000000504797
  9
$ORTHOMODE
 70
     0
  9
$REGENMODE
 70
     1
  9
$FILLMODE
 70
     1
  9
$QTEXTMODE
 70
     0
  9
$MIRRTEXT
 70
     0
  9
$LTSCALE
 40
1.0
  9
$ATTMODE
 70
     1
  9
$TEXTSIZE
 40
3.2
  9
$TRACEWID
 40
1.0
  9
$TEXTSTYLE
  7
STANDARD
  9
$CLAYER
  8
AM_6
  9
$CELTYPE
  6
ByLayer
  9
$CECOLOR
 62
   256
  9
$CELTSCALE
 40
1.0
  9
$DISPSILH
 70
     0
  9
$DIMSCALE
 40
1.0
  9
$DIMASZ
 40
1.0
  9
$DIMEXO
 40
1.0
  9
$DIMDLI
 40
10.0
  9
$DIMRND
 40
0.0
  9
$DIMDLE
 40
0.0
  9
$DIMEXE
 40
1.0
  9
$DIMTP
 40
0.1
  9
$DIMTM
 40
0.1
  9
$DIMTXT
 40
3.5
  9
$DIMCEN
 40
0.0
  9
$DIMTSZ
 40
0.0
  9
$DIMTOL
 70
     0
  9
$DIMLIM
 70
     0
  9
$DIMTIH
 70
     0
  9
$DIMTOH
 70
     0
  9
$DIMSE1
 70
     0
  9
$DIMSE2
 70
     0
  9
$DIMTAD
 70
     1
  9
$DIMZIN
 70
     8
  9
$DIMBLK
  1

  9
$DIMASO
 70
     1
  9
$DIMSHO
 70
     1
  9
$DIMPOST
  1

  9
$DIMAPOST
  1
"
  9
$DIMALT
 70
     0
  9
$DIMALTD
 70
     2
  9
$DIMALTF
 40
0.0393701
  9
$DIMLFAC
 40
1.0
  9
$DIMTOFL
 70
     1
  9
$DIMTVP
 40
0.0
  9
$DIMTIX
 70
     0
  9
$DIMSOXD
 70
     0
  9
$DIMSAH
 70
     0
  9
$DIMBLK1
  1

  9
$DIMBLK2
  1

  9
$DIMSTYLE
  2
SYS
  9
$DIMCLRD
 70
   256
  9
$DIMCLRE
 70
   256
  9
$DIMCLRT
 70
     7
  9
$DIMTFAC
 40
0.71
  9
$DIMGAP
 40
1.5
  9
$DIMJUST
 70
     0
  9
$DIMSD1
 70
     0
  9
$DIMSD2
 70
     0
  9
$DIMTOLJ
 70
     0
  9
$DIMTZIN
 70
     8
  9
$DIMALTZ
 70
     0
  9
$DIMALTTZ
 70
     0
  9
$DIMUPT
 70
     0
  9
$DIMDEC
 70
     2
  9
$DIMTDEC
 70
     2
  9
$DIMALTU
 70
     2
  9
$DIMALTTD
 70
     2
  9
$DIMTXSTY
  7
STANDARD
  9
$DIMAUNIT
 70
     0
  9
$DIMADEC
 70
     0
  9
$DIMALTRND
 40
0.0
  9
$DIMAZIN
 70
     2
  9
$DIMDSEP
 70
    46
  9
$DIMATFIT
 70
     3
  9
$DIMFRAC
 70
     0
  9
$DIMLDRBLK
  1

  9
$DIMLUNIT
 70
     2
  9
$DIMLWD
 70
    -1
  9
$DIMLWE
 70
    -1
  9
$DIMTMOVE
 70
     0
  9
$LUNITS
 70
     2
  9
$LUPREC
 70
     2
  9
$SKETCHINC
 40
1.0
  9
$FILLETRAD
 40
0.0
  9
$AUNITS
 70
     0
  9
$AUPREC
 70
     0
  9
$MENU
  1
.
  9
$ELEVATION
 40
0.0
  9
$PELEVATION
 40
0.0
  9
$THICKNESS
 40
0.0
  9
$LIMCHECK
 70
     0
  9
$CHAMFERA
 40
0.0
  9
$CHAMFERB
 40
0.0
  9
$CHAMFERC
 40
20.0
  9
$CHAMFERD
 40
0.0
  9
$SKPOLY
 70
     0
  9
$TDCREATE
 40
2456139.798878935
  9
$TDUCREATE
 40
2456139.423878935
  9
$TDUPDATE
 40
2456267.606950231
  9
$TDUUPDATE
 40
2456267.231950231
  9
$TDINDWG
 40
0.1933399306
  9
$TDUSRTIMER
 40
0.1933397569
  9
$USRTIMER
 70
     1
  9
$ANGBASE
 50
0.0
  9
$ANGDIR
 70
     0
  9
$PDMODE
 70
     0
  9
$PDSIZE
 40
-3.0
  9
$PLINEWID
 40
0.0
  9
$SPLFRAME
 70
     0
  9
$SPLINETYPE
 70
     6
  9
$SPLINESEGS
 70
     8
  9
$HANDSEED
  5
F90A
  9
$SURFTAB1
 70
     6
  9
$SURFTAB2
 70
     6
  9
$SURFTYPE
 70
     6
  9
$SURFU
 70
     6
  9
$SURFV
 70
     6
  9
$UCSBASE
  2

  9
$UCSNAME
  2

  9
$UCSORG
 10
0.0
 20
0.0
 30
0.0
  9
$UCSXDIR
 10
1.0
 20
0.0
 30
0.0
  9
$UCSYDIR
 10
0.0
 20
1.0
 30
0.0
  9
$UCSORTHOREF
  2

  9
$UCSORTHOVIEW
 70
     0
  9
$UCSORGTOP
 10
0.0
 20
0.0
 30
0.0
  9
$UCSORGBOTTOM
 10
0.0
 20
0.0
 30
0.0
  9
$UCSORGLEFT
 10
0.0
 20
0.0
 30
0.0
  9
$UCSORGRIGHT
 10
0.0
 20
0.0
 30
0.0
  9
$UCSORGFRONT
 10
0.0
 20
0.0
 30
0.0
  9
$UCSORGBACK
 10
0.0
 20
0.0
 30
0.0
  9
$PUCSBASE
  2

  9
$PUCSNAME
  2

  9
$PUCSORG
 10
0.0
 20
0.0
 30
0.0
  9
$PUCSXDIR
 10
1.0
 20
0.0
 30
0.0
  9
$PUCSYDIR
 10
0.0
 20
1.0
 30
0.0
  9
$PUCSORTHOREF
  2

  9
$PUCSORTHOVIEW
 70
     0
  9
$PUCSORGTOP
 10
0.0
 20
0.0
 30
0.0
  9
$PUCSORGBOTTOM
 10
0.0
 20
0.0
 30
0.0
  9
$PUCSORGLEFT
 10
0.0
 20
0.0
 30
0.0
  9
$PUCSORGRIGHT
 10
0.0
 20
0.0
 30
0.0
  9
$PUCSORGFRONT
 10
0.0
 20
0.0
 30
0.0
  9
$PUCSORGBACK
 10
0.0
 20
0.0
 30
0.0
  9
$USERI1
 70
     0
  9
$USERI2
 70
     0
  9
$USERI3
 70
     0
  9
$USERI4
 70
     0
  9
$USERI5
 70
     0
  9
$USERR1
 40
0.0
  9
$USERR2
 40
0.0
  9
$USERR3
 40
0.0
  9
$USERR4
 40
0.0
  9
$USERR5
 40
0.0
  9
$WORLDVIEW
 70
     1
  9
$SHADEDGE
 70
     3
  9
$SHADEDIF
 70
    70
  9
$TILEMODE
 70
     1
  9
$MAXACTVP
 70
    64
  9
$PINSBASE
 10
0.0
 20
0.0
 30
0.0
  9
$PLIMCHECK
 70
     0
  9
$PEXTMIN
 10
1.000000000000000E+20
 20
1.000000000000000E+20
 30
1.000000000000000E+20
  9
$PEXTMAX
 10
-1.000000000000000E+20
 20
-1.000000000000000E+20
 30
-1.000000000000000E+20
  9
$PLIMMIN
 10
-3.17498779296875
 20
-3.174999952316284
  9
$PLIMMAX
 10
293.4970092773438
 20
206.692492723465
  9
$UNITMODE
 70
     0
  9
$VISRETAIN
 70
     1
  9
$PLINEGEN
 70
     0
  9
$PSLTSCALE
 70
     1
  9
$TREEDEPTH
 70
  3020
  9
$CMLSTYLE
  2
Standard
  9
$CMLJUST
 70
     0
  9
$CMLSCALE
 40
20.0
  9
$PROXYGRAPHICS
 70
     1
  9
$MEASUREMENT
 70
     1
  9
$CELWEIGHT
370
    -1
  9
$ENDCAPS
280
     0
  9
$JOINSTYLE
280
     0
  9
$LWDISPLAY
290
     1
  9
$INSUNITS
 70
     4
  9
$HYPERLINKBASE
  1

  9
$STYLESHEET
  1
monochrome.ctb
  9
$XEDIT
290
     1
  9
$CEPSNTYPE
380
     0
  9
$PSTYLEMODE
290
     1
  9
$FINGERPRINTGUID
  2
{4DF3B1F6-3F13-4469-8453-5E0FD6DA0DB8}
  9
$VERSIONGUID
  2
{98339F20-D7CB-4FF8-B3DA-5600DE003C93}
  9
$EXTNAMES
290
     1
  9
$PSVPSCALE
 40
0.0
  9
$OLESTARTUP
290
     0
  0
ENDSEC
  0
SECTION
  2
CLASSES
  0
CLASS
  1
ACDBDICTIONARYWDFLT
  2
AcDbDictionaryWithDefault
  3
ObjectDBX Classes
 90
        0
280
     0
281
     0
  0
CLASS
  1
ACDBPLACEHOLDER
  2
AcDbPlaceHolder
  3
ObjectDBX Classes
 90
        0
280
     0
281
     0
  0
CLASS
  1
LAYOUT
  2
AcDbLayout
  3
ObjectDBX Classes
 90
        0
280
     0
281
     0
  0
CLASS
  1
AMGSETTINGSOBJ
  2
AmgSettingsObj
  3
"AcadM|Product Description: AutoCAD Mechanical|Company: Autodesk"
 90
        0
280
     0
281
     0
  0
CLASS
  1
ACME_DOCUMENT
  2
AcMeDbDoc
  3
AcMeServices
 90
        0
280
     0
281
     0
  0
CLASS
  1
ACMESCOPE
  2
AcMeScope
  3
AcMeServices
 90
        0
280
     0
281
     0
  0
CLASS
  1
ACMECOMMANDHISTORY
  2
AcMeCommandHistory
  3
AcMeServices
 90
        0
280
     0
281
     0
  0
CLASS
  1
DICTIONARYVAR
  2
AcDbDictionaryVar
  3
ObjectDBX Classes
 90
        0
280
     0
281
     0
  0
CLASS
  1
ACIMSYSVARMAN
  2
AcImSysVarManager
  3
AcMeServices
 90
        0
280
     0
281
     0
  0
CLASS
  1
ACIMREALSYSVAR
  2
AcImRealSysVar
  3
AcMeServices
 90
        0
280
     0
281
     0
  0
CLASS
  1
ACIMINTSYSVAR
  2
AcImIntSysVar
  3
AcMeServices
 90
        0
280
     0
281
     0
  0
CLASS
  1
ACMEDRAWINGMAN
  2
AcMeDrawingMan
  3
AcMeServices
 90
        0
280
     0
281
     0
  0
CLASS
  1
ACMEVIEW
  2
AcMeView
  3
AcMeServices
 90
        0
280
     0
281
     0
  0
CLASS
  1
ACDBENTITYCACHE
  2
AcMeEntityCache
  3
AcMeServices
 90
        0
280
     0
281
     0
  0
CLASS
  1
GSMANAGER
  2
AcMeGSManager
  3
AcMeServices
 90
        0
280
     0
281
     0
  0
CLASS
  1
AMDTINTERNALREACTOR
  2
AmdtInternalReactor
  3
AcMeServices
 90
        0
280
     0
281
     0
  0
CLASS
  1
ACMESTATEMGR
  2
AcMeStateMgr
  3
AcMeServices
 90
        0
280
     0
281
     0
  0
CLASS
  1
ACGREFMASTER
  2
AcGrefMaster
  3
AcAttribServices
 90
        0
280
     0
281
     0
  0
CLASS
  1
ACME_DATABASE
  2
AcMeDbDatabase
  3
AcMeServices
 90
        0
280
     0
281
     0
  0
CLASS
  1
ACRFINSADJUSTERMGR
  2
AcRfInsAdjusterMgr
  3
AcMeServices
 90
        0
280
     0
281
     0
  0
CLASS
  1
ACGREFACADMASTER
  2
AcGrefacadMaster
  3
AcGrefServices
 90
        0
280
     0
281
     0
  0
CLASS
  1
AMIMASTER
  2
AmiMaster
  3
AmiServices
 90
        0
280
     0
281
     0
  0
CLASS
  1
ACMDATADICTIONARY
  2
AcmDataDictionary
  3
"AcmSymBB|Product Description: AutoCAD Mechanical|Company: Autodesk"
 90
        0
280
     0
281
     0
  0
CLASS
  1
ACMDATAENTRYBLOCK
  2
AcmDataEntryBlock
  3
"AcmSymBB|Product Description: AutoCAD Mechanical|Company: Autodesk"
 90
        0
280
     0
281
     0
  0
CLASS
  1
ACIMSTRSYSVAR
  2
AcImStrSysVar
  3
AcMeServices
 90
        0
280
     0
281
     0
  0
CLASS
  1
ACMSTANDARDISO
  2
AcmStandardISO
  3
"Amdt_StdImp|Product Description: AutoCAD Mechanical|Company: Autodesk"
 90
        0
280
     0
281
     0
  0
CLASS
  1
AMGOBJPROPCFG
  2
AmgObjPropCfg
  3
"AmgLay|Product Description: AutoCAD Mechanical|Company: Autodesk"
 90
        1
280
     0
281
     0
  0
CLASS
  1
AMDTEDGESTANDARDISO
  2
AmdtEdgeStdISO
  3
"Amdt_StdImp|Product Description: AutoCAD Mechanical|Company: Autodesk"
 90
        0
280
     0
281
     0
  0
CLASS
  1
ACMSURFSTANDARDISO
  2
AcmSurfTextStdISO
  3
"Amdt_StdImp|Product Description: AutoCAD Mechanical|Company: Autodesk"
 90
        0
280
     0
281
     0
  0
CLASS
  1
ACMFCFSTANDARDISO
  2
AcmFCFStdISO
  3
"Amdt_StdImp|Product Description: AutoCAD Mechanical|Company: Autodesk"
 90
        0
280
     0
281
     0
  0
CLASS
  1
ACMWELDSTANDARDISO
  2
AcmWeldingStdISO
  3
"Amdt_StdImp|Product Description: AutoCAD Mechanical|Company: Autodesk"
 90
        0
280
     0
281
     0
  0
CLASS
  1
ACMIDSTANDARDISO
  2
AcmIdStdISO
  3
"Amdt_StdImp|Product Description: AutoCAD Mechanical|Company: Autodesk"
 90
        0
280
     0
281
     0
  0
CLASS
  1
ACMDATUMSTANDARDISO
  2
AcmDatumStdISO
  3
"Amdt_StdImp|Product Description: AutoCAD Mechanical|Company: Autodesk"
 90
        0
280
     0
281
     0
  0
CLASS
  1
ACMBOMSTANDARDISO
  2
AcmBOMStdISO
  3
"Amdt_StdImp|Product Description: AutoCAD Mechanical|Company: Autodesk"
 90
        0
280
     0
281
     0
  0
CLASS
  1
ACMDETAILSTANDARDISO
  2
AmdtDetailSymStdISO
  3
"Amdt_StdImp|Product Description: AutoCAD Mechanical|Company: Autodesk"
 90
        0
280
     0
281
     0
  0
CLASS
  1
ACMSECTIONSTANDARDISO
  2
AmdtSectionSymStdISO
  3
"Amdt_StdImp|Product Description: AutoCAD Mechanical|Company: Autodesk"
 90
        0
280
     0
281
     0
  0
CLASS
  1
ACMCENTERLINESTANDARDISO
  2
AmdtCenterLineStdISO
  3
"Amdt_StdImp|Product Description: AutoCAD Mechanical|Company: Autodesk"
 90
        0
280
     0
281
     0
  0
CLASS
  1
ACAMGLAYSTD
  2
AcAmgLayStd
  3
"AmgLay|Product Description: AutoCAD Mechanical|Company: Autodesk"
 90
        0
280
     0
281
     0
  0
CLASS
  1
ACAMGDIMSTD
  2
AcAmgDimStd
  3
"AmgDim|Product Description: AutoCAD Mechanical|Company: Autodesk"
 90
        0
280
     0
281
     0
  0
CLASS
  1
ACAMGTITLESTD
  2
AcAmgTitleStd
  3
"AmgTitle|Product Description: AutoCAD Mechanical|Company: Autodesk"
 90
        0
280
     0
281
     0
  0
CLASS
  1
ACAMGFILTERDAT
  2
AcAmgFilterDat
  3
"AcadM|Product Description: AutoCAD Mechanical|Company: Autodesk"
 90
        0
280
     0
281
     0
  0
CLASS
  1
LAYER_INDEX
  2
AcDbLayerIndex
  3
ObjectDBX Classes
 90
    32768
280
     0
281
     0
  0
CLASS
  1
IDBUFFER
  2
AcDbIdBuffer
  3
ObjectDBX Classes
 90
    32768
280
     0
281
     0
  0
CLASS
  1
PLOTSETTINGS
  2
AcDbPlotSettings
  3
ObjectDBX Classes
 90
    32768
280
     0
281
     0
  0
CLASS
  1
AMDTFORMULAUPDATEDISPATCHER
  2
AmdtFormulaUpdateDispatcher
  3
AcMeServices
 90
        0
280
     0
281
     0
  0
CLASS
  1
ACMSTANDARDANSI
  2
AcmStandardANSI
  3
"Amdt_StdImp|Product Description: AutoCAD Mechanical|Company: Autodesk"
 90
        0
280
     0
281
     0
  0
CLASS
  1
ACMSURFSTANDARDANSI
  2
AcmSurfTextStdANSI
  3
"Amdt_StdImp|Product Description: AutoCAD Mechanical|Company: Autodesk"
 90
        0
280
     0
281
     0
  0
CLASS
  1
ACMFCFSTANDARDANSI
  2
AcmFCFStdANSI
  3
"Amdt_StdImp|Product Description: AutoCAD Mechanical|Company: Autodesk"
 90
        0
280
     0
281
     0
  0
CLASS
  1
ACMWELDSTANDARDANSI
  2
AcmWeldingStdANSI
  3
"Amdt_StdImp|Product Description: AutoCAD Mechanical|Company: Autodesk"
 90
        0
280
     0
281
     0
  0
CLASS
  1
ACMIDSTANDARDANSI
  2
AcmIdStdANSI
  3
"Amdt_StdImp|Product Description: AutoCAD Mechanical|Company: Autodesk"
 90
        0
280
     0
281
     0
  0
CLASS
  1
ACMDATUMSTANDARDANSI
  2
AcmDatumStdANSI
  3
"Amdt_StdImp|Product Description: AutoCAD Mechanical|Company: Autodesk"
 90
        0
280
     0
281
     0
  0
CLASS
  1
ACMBOMSTANDARDANSI
  2
AcmBOMStdANSI
  3
"Amdt_StdImp|Product Description: AutoCAD Mechanical|Company: Autodesk"
 90
        0
280
     0
281
     0
  0
CLASS
  1
ACMDETAILSTANDARDANSI
  2
AmdtDetailSymStdANSI
  3
"Amdt_StdImp|Product Description: AutoCAD Mechanical|Company: Autodesk"
 90
        0
280
     0
281
     0
  0
CLASS
  1
ACMSECTIONSTANDARDANSI
  2
AmdtSectionSymStdANSI
  3
"Amdt_StdImp|Product Description: AutoCAD Mechanical|Company: Autodesk"
 90
        0
280
     0
281
     0
  0
CLASS
  1
ACMCENTERLINESTANDARDANSI
  2
AmdtCenterLineStdANSI
  3
"Amdt_StdImp|Product Description: AutoCAD Mechanical|Company: Autodesk"
 90
        0
280
     0
281
     0
  0
CLASS
  1
ACMBOM
  2
AcmBom
  3
"AcmSymBB|Product Description: AutoCAD Mechanical|Company: Autodesk"
 90
        0
280
     0
281
     0
  0
CLASS
  1
ACMDATAENTRYPART
  2
AcmDataEntryPart
  3
"AcmSymBB|Product Description: AutoCAD Mechanical|Company: Autodesk"
 90
    32768
280
     0
281
     0
  0
CLASS
  1
ACMPARTREF
  2
AcmPartRef
  3
"AcmSymBB|Product Description: AutoCAD Mechanical|Company: Autodesk"
 90
    35839
280
     0
281
     1
  0
CLASS
  1
ACDBCIRCARCRES
  2
AcDbCircArcRes
  3
AcGrefServices
 90
    32768
280
     0
281
     0
  0
CLASS
  1
ACMBOMROW
  2
AcmBomRow
  3
"AcmSymBB|Product Description: AutoCAD Mechanical|Company: Autodesk"
 90
    32768
280
     0
281
     0
  0
CLASS
  1
ACMBALLOON
  2
AcmBalloon
  3
"AcmSymBB|Product Description: AutoCAD Mechanical|Company: Autodesk"
 90
    35839
280
     0
281
     1
  0
CLASS
  1
AMDTNOTE
  2
AmdtNote
  3
"AcmSymBB|Product Description: AutoCAD Mechanical|Company: Autodesk"
 90
    35839
280
     0
281
     1
  0
CLASS
  1
STDPART2D
  2
AmgStdPart
  3
"g3vace|Class: AmgStdPart|Product Description: AutoCAD Mechanical|Company: Autodesk"
 90
    35839
280
     0
281
     1
  0
CLASS
  1
ACDBSTDPARTRES_LINE
  2
AcDbStdPartRes_Line
  3
"g3vace|Class: AcDbStdPartRes_Line|Product Description: AutoCAD Mechanical|Company: Autodesk"
 90
    32768
280
     0
281
     0
  0
CLASS
  1
ACMDATAENTRY
  2
AcmDataEntry
  3
"AcmSymBB|Product Description: AutoCAD Mechanical|Company: Autodesk"
 90
        0
280
     0
281
     0
  0
CLASS
  1
ACDBOPPOLYLINERES
  2
AcDbOpPolylineRes
  3
AcGrefServices
 90
    32768
280
     0
281
     0
  0
CLASS
  1
ACMPARTLIST
  2
AcmPartList
  3
"AcmSymBB|Product Description: AutoCAD Mechanical|Company: Autodesk"
 90
    35839
280
     0
281
     1
  0
CLASS
  1
ACDBLINERES
  2
AcDbLineRes
  3
AcGrefServices
 90
    32768
280
     0
281
     0
  0
CLASS
  1
ACRFINSADJ
  2
AcRfInsAdjuster
  3
AcMeServices
 90
    32768
280
     0
281
     0
  0
CLASS
  1
AM_DRAWING_MGR
  2
AcDmDwgMgr
  3
AcMechDwgViewMgmt
 90
        0
280
     0
281
     0
  0
CLASS
  1
AM_DWG_DOCUMENT
  2
AcDmDwgDocument
  3
AcMechDwgViewMgmt
 90
        0
280
     0
281
     0
  0
CLASS
  1
AM_DWG_SHEET
  2
AcDmSheet
  3
AcMechDwgViewMgmt
 90
        0
280
     0
281
     0
  0
CLASS
  1
AM_VIEWDIMPARMAP
  2
AcDmViewDimParMap
  3
AcMechDwgViewMgmt
 90
        0
280
     0
281
     0
  0
CLASS
  1
AM_DWGMGR_NAME
  2
AcDmDwgMgrName
  3
AcMechDwgViewMgmt
 90
        0
280
     0
281
     0
  0
CLASS
  1
AMDTMENUSTATEMGR
  2
AmdtMenuStateMgr
  3
McadcomServices
 90
        0
280
     0
281
     0
  0
CLASS
  1
AMDTMCOMMENUSTATE
  2
AmdtMcomMenuState
  3
McadcomServices
 90
        0
280
     0
281
     0
  0
CLASS
  1
ASAPP
  2
AcAsAppObject
  3
AutoSurfServices
 90
        0
280
     0
281
     0
  0
CLASS
  1
IM_STATIC_MAN
  2
AcImStaticVarManager
  3
AcMeServices
 90
        0
280
     0
281
     0
  0
CLASS
  1
ACIMDBLSTATICVAR
  2
AcImDblStaticVar
  3
AcMeServices
 90
        0
280
     0
281
     0
  0
CLASS
  1
ACIMSTRSTATICVAR
  2
AcImStrStaticVar
  3
AcMeServices
 90
        0
280
     0
281
     0
  0
CLASS
  1
ACIMINTSTATICVAR
  2
AcImIntStaticVar
  3
AcMeServices
 90
        0
280
     0
281
     0
  0
CLASS
  1
ACASGREFMASTER
  2
AcAsGrefMaster
  3
AutoSurfResolverServices
 90
        0
280
     0
281
     0
  0
CLASS
  1
ACADGREFMODULE
  2
AcAdGrefModule
  3
AdGrefServices
 90
        0
280
     0
281
     0
  0
CLASS
  1
AMDTMAPISURFMOUDULE
  2
AmdtMApiSurfModule
  3
MApiSurfServices
 90
        0
280
     0
281
     0
  0
CLASS
  1
MAPIAMMOUDLE
  2
MApiAmModule
  3
MApiAmServices
 90
        0
280
     0
281
     0
  0
CLASS
  1
AMDTADMENUSTATE
  2
AmdtAdMenuState
  3
DesignerServices
 90
        0
280
     0
281
     0
  0
CLASS
  1
ADAPPL
  2
AcAdAppl
  3
DesignerServices
 90
        0
280
     0
281
     0
  0
CLASS
  1
DEPMGR
  2
AcAdDepMgr
  3
DesignerServices
 90
        0
280
     0
281
     0
  0
CLASS
  1
PARAMMGR
  2
AcAdParamMgr
  3
DesignerServices
 90
        0
280
     0
281
     0
  0
CLASS
  1
PARAMSCOPE
  2
AcAdParamScope
  3
DesignerServices
 90
        0
280
     0
281
     0
  0
CLASS
  1
NAMEDAPPL
  2
AcAdNamedAppl
  3
DesignerServices
 90
        0
280
     0
281
     0
  0
CLASS
  1
ADHNTMPLT
  2
AdHoleNoteTemplateMgr
  3
DesignerServices
 90
    32768
280
     0
281
     0
  0
CLASS
  1
AM_HNTEMPLATE_MGR_NAME
  2
AdHoleNoteTemplateMgrName
  3
DesignerServices
 90
    32768
280
     0
281
     0
  0
CLASS
  1
AMDTDMMENUSTATE
  2
AmdtDmMenuState
  3
AcMechDwgViewMgmt
 90
        0
280
     0
281
     0
  0
CLASS
  1
MAPIADMODULE
  2
MApiAdModule
  3
MApiAdServices
 90
        0
280
     0
281
     0
  0
CLASS
  1
AMDTAMMENUSTATE
  2
AmdtAmMenuState
  3
DesignerAssemblies
 90
        0
280
     0
281
     0
  0
CLASS
  1
ACAMPROJECT
  2
AcAmProject
  3
DesignerAssemblies
 90
        0
280
     0
281
     0
  0
CLASS
  1
ACAMGRCOMPDEF
  2
AcAmGrCompDef
  3
DesignerAssemblies
 90
        0
280
     0
281
     0
  0
CLASS
  1
ACCMCONTEXT
  2
AcCmContext
  3
DesignerAssemblies
 90
        0
280
     0
281
     0
  0
CLASS
  1
ACAMCOMPDEF
  2
AcAmCompDef
  3
DesignerAssemblies
 90
        0
280
     0
281
     0
  0
CLASS
  1
ACAMCOMPDEFMGR
  2
AcAmCompDefMgr
  3
DesignerAssemblies
 90
        0
280
     0
281
     0
  0
CLASS
  1
AMCONTEXTMGR
  2
AcAmContextMgr
  3
DesignerAssemblies
 90
        0
280
     0
281
     0
  0
CLASS
  1
ACAMCONTEXTMODELER
  2
AcAmContextModeler
  3
DesignerAssemblies
 90
        0
280
     0
281
     0
  0
CLASS
  1
CATALOGSTATE
  2
AcAmCatalogState
  3
DesignerAssemblies
 90
        0
280
     0
281
     0
  0
CLASS
  1
ACAMGRCOMPDEFSET
  2
AcAmGrCompDefSet
  3
DesignerAssemblies
 90
        0
280
     0
281
     0
  0
CLASS
  1
AMDTBROWSERDBTAB
  2
AmdtBrowserDbTab
  3
McadcomServices
 90
        0
280
     0
281
     0
  0
CLASS
  1
CBROWSERAPPOBJECT
  2
CBrowserAppObject
  3
McadcomServices
 90
        0
280
     0
281
     0
  0
CLASS
  1
DM_PLACEHOLDER
  2
AcDmSelsetPlaceholder
  3
AcMechDwgViewMgmt
 90
        0
280
     0
281
     0
  0
CLASS
  1
ACMPICKOBJ
  2
AcmPickEnt
  3
"AcmSymBB|Product Description: AutoCAD Mechanical|Company: Autodesk"
 90
    32768
280
     0
281
     1
  0
CLASS
  1
ACMNOTESTANDARDISO
  2
AmdtNoteStdISO
  3
"Amdt_StdImp|Product Description: AutoCAD Mechanical|Company: Autodesk"
 90
        0
280
     0
281
     0
  0
CLASS
  1
ACMNOTESTANDARDANSI
  2
AmdtNoteStdANSI
  3
"Amdt_StdImp|Product Description: AutoCAD Mechanical|Company: Autodesk"
 90
        0
280
     0
281
     0
  0
CLASS
  1
ACMTHREADLINESTANDARDISO
  2
AmdtThreadLineStdISO
  3
"Amdt_StdImp|Product Description: AutoCAD Mechanical|Company: Autodesk"
 90
        0
280
     0
281
     0
  0
CLASS
  1
ACMTHREADLINESTANDARDANSI
  2
AmdtThreadLineStdANSI
  3
"Amdt_StdImp|Product Description: AutoCAD Mechanical|Company: Autodesk"
 90
        0
280
     0
281
     0
  0
CLASS
  1
TABLESTYLE
  2
AcDbTableStyle
  3
ObjectDBX Classes
 90
     4095
280
     0
281
     0
  0
CLASS
  1
SORTENTSTABLE
  2
AcDbSortentsTable
  3
ObjectDBX Classes
 90
        0
280
     0
281
     0
  0
CLASS
  1
MATERIAL
  2
AcDbMaterial
  3
ObjectDBX Classes
 90
     1024
280
     0
281
     0
  0
CLASS
  1
VISUALSTYLE
  2
AcDbVisualStyle
  3
ObjectDBX Classes
 90
     4095
280
     0
281
     0
  0
CLASS
  1
ACRFATTGENMGR
  2
AcRfAttGeneralMgr
  3
AcAttribServices
 90
        0
280
     0
281
     0
  0
CLASS
  1
ACRFOBJATTMGR
  2
AcRfObjAttGroupMgr
  3
AcAttribServices
 90
        0
280
     0
281
     0
  0
CLASS
  1
ACRFMCADAPIATTHOLDER
  2
AcRfMCADAPIAttHolder
  3
AcAttribServices
 90
        0
280
     0
281
     0
  0
CLASS
  1
AMDTSYSATTR
  2
AmdtSystemAttribute
  3
AcAttribServices
 90
        0
280
     0
281
     0
  0
CLASS
  1
ACMTAPERSTANDARDISO
  2
AcmTaperStdISO
  3
"Amdt_StdImp|Product Description: AutoCAD Mechanical|Company: Autodesk"
 90
        0
280
     0
281
     0
  0
CLASS
  1
CAMSSTRUCTBTNSTATE
  2
StructBtnState
  3
L"DesignerAssemblies"
 90
        0
280
     0
281
     0
  0
CLASS
  1
DIMASSOC
  2
AcDbDimAssoc
  3
"AcDbDimAssoc|Product Desc:     AcDim ARX App For Dimension|Company:          Autodesk, Inc.|WEB Address:      www.autodesk.com"
 90
    32768
280
     0
281
     0
  0
CLASS
  1
AMDTNOTETEMPLATEDB
  2
AmdtNoteTemplateDB
  3
AMDT_STDIMP_MODULE_NAME
 90
        0
280
     0
281
     0
  0
CLASS
  1
ACMTAPERSTANDARDANSI
  2
AcmTaperStdANSI
  3
"Amdt_StdImp|Product Description: AutoCAD Mechanical|Company: Autodesk"
 90
        0
280
     0
281
     0
  0
CLASS
  1
ACAMGHOLECHARTSTDANSI
  2
AcAmgHoleChartStdANSI
  3
ACMSYMBB_MODULE_NAME
 90
        0
280
     0
281
     0
  0
CLASS
  1
AMDTEDGESTANDARDISO13715
  2
AmdtEdgeStdISO13715
  3
"Amdt_StdImp|Product Description: AutoCAD Mechanical|Company: Autodesk"
 90
        0
280
     0
281
     0
  0
CLASS
  1
ACAMGHOLECHARTSTDISO
  2
AcAmgHoleChartStdISO
  3
ACMSYMBB_MODULE_NAME
 90
        0
280
     0
281
     0
  0
CLASS
  1
AMDTACMWBLOCKBOMENTITY
  2
AmdtAcmWblockBomEntity
  3
"AcmSymBB|Product Description: AutoCAD Mechanical|Company: Autodesk"
 90
    35839
280
     0
281
     1
  0
ENDSEC
  0
SECTION
  2
TABLES
  0
TABLE
  2
VPORT
  5
8
330
0
100
AcDbSymbolTable
 70
     1
  0
VPORT
  5
B0EC
330
8
100
AcDbSymbolTableRecord
100
AcDbViewportTableRecord
  2
*Active
 70
     0
 10
0.0
 20
0.0
 11
1.0
 21
1.0
 12
148.4982089160156
 22
105.0049757744879
 13
0.0
 23
0.0
 14
2.5
 24
2.5
 15
10.0
 25
10.0
 16
0.0
 26
0.0
 36
1.0
 17
0.0
 27
0.0
 37
0.0
 40
211.5758398541045
 41
1.648648648648648
 42
50.0
 43
-1370.695619172058
 44
-1370.695619172058
 50
0.0
 51
0.0
 71
     0
 72
   100
 73
     1
 74
     3
 75
     0
 76
     0
 77
     0
 78
     0
281
     0
 65
     0
110
0.0
120
0.0
130
0.0
111
1.0
121
0.0
131
0.0
112
0.0
122
1.0
132
0.0
 79
     0
146
0.0
  0
ENDTAB
  0
TABLE
  2
LTYPE
  5
5
330
0
100
AcDbSymbolTable
 70
    36
  0
LTYPE
  5
14
330
5
100
AcDbSymbolTableRecord
100
AcDbLinetypeTableRecord
  2
ByBlock
 70
     0
  3

 72
    65
 73
     0
 40
0.0
  0
LTYPE
  5
15
330
5
100
AcDbSymbolTableRecord
100
AcDbLinetypeTableRecord
  2
ByLayer
 70
     0
  3

 72
    65
 73
     0
 40
0.0
  0
LTYPE
  5
16
330
5
100
AcDbSymbolTableRecord
100
AcDbLinetypeTableRecord
  2
Continuous
 70
     0
  3
Solid line
 72
    65
 73
     0
 40
0.0
  0
LTYPE
  5
4F
330
5
100
AcDbSymbolTableRecord
100
AcDbLinetypeTableRecord
  2
AM_ISO02W050
 70
     0
  3
__ __ __ __ __ __ __ __ __ __ __ __ __ __ __
 72
    65
 73
     2
 40
7.5
 49
6.0
 74
     0
 49
-1.5
 74
     0
  0
LTYPE
  5
52
330
5
100
AcDbSymbolTableRecord
100
AcDbLinetypeTableRecord
  2
Amconstr
 70
     0
  3
_______________________
 72
    65
 73
     2
 40
9999.0
 49
9999.0
 74
     0
 49
0.0
 74
     0
  0
LTYPE
  5
64
330
5
100
AcDbSymbolTableRecord
100
AcDbLinetypeTableRecord
  2
ACISOWELD
 70
     0
  3
_ _ _ _ _
 72
    65
 73
     2
 40
2.0
 49
2.0
 74
     0
 49
-1.0
 74
     0
  0
LTYPE
  5
65
330
5
100
AcDbSymbolTableRecord
100
AcDbLinetypeTableRecord
  2
ACISOTGB
 70
     0
  3
__ . . __ . .
 72
    65
 73
     6
 40
9.0
 49
4.0
 74
     0
 49
-1.0
 74
     0
 49
1.0
 74
     0
 49
-1.0
 74
     0
 49
1.0
 74
     0
 49
-1.0
 74
     0
  0
LTYPE
  5
66
330
5
100
AcDbSymbolTableRecord
100
AcDbLinetypeTableRecord
  2
ACISOTGL
 70
     0
  3
_ _ _ _ _
 72
    65
 73
     2
 40
3.0
 49
2.0
 74
     0
 49
-1.0
 74
     0
  0
LTYPE
  5
69
330
5
100
AcDbSymbolTableRecord
100
AcDbLinetypeTableRecord
  2
CENTER
 70
     0
  3
__ . __
 72
    65
 73
     4
 40
7.0
 49
4.0
 74
     0
 49
-1.0
 74
     0
 49
1.0
 74
     0
 49
-1.0
 74
     0
  0
LTYPE
  5
A6E
330
5
100
AcDbSymbolTableRecord
100
AcDbLinetypeTableRecord
  2
PHANTOM2
 70
     0
  3
Phantom (.5x) ___ _ _ ___ _ _ ___ _ _ ___ _ _
 72
    65
 73
     6
 40
31.75
 49
15.875
 74
     0
 49
-3.174999999999999
 74
     0
 49
3.174999999999999
 74
     0
 49
-3.174999999999999
 74
     0
 49
3.174999999999999
 74
     0
 49
-3.174999999999999
 74
     0
  0
LTYPE
  5
4DED
330
5
100
AcDbSymbolTableRecord
100
AcDbLinetypeTableRecord
  2
中線
 70
     0
  3
___________________
 72
    65
 73
     2
 40
2.0
 49
1.0
 74
     0
 49
1.0
 74
     0
  0
LTYPE
  5
4DF6
330
5
100
AcDbSymbolTableRecord
100
AcDbLinetypeTableRecord
  2
細線
 70
     0
  3
___________________
 72
    65
 73
     2
 40
2.0
 49
1.0
 74
     0
 49
1.0
 74
     0
  0
LTYPE
  5
4DF7
330
5
100
AcDbSymbolTableRecord
100
AcDbLinetypeTableRecord
  2
太線
 70
     0
  3
___________________
 72
    65
 73
     2
 40
2.0
 49
1.0
 74
     0
 49
1.0
 74
     0
  0
LTYPE
  5
4EA7
330
5
100
AcDbSymbolTableRecord
100
AcDbLinetypeTableRecord
  2
文字
 70
     0
  3
_________________
 72
    65
 73
     2
 40
2.0
 49
1.0
 74
     0
 49
1.0
 74
     0
  0
LTYPE
  5
4EA9
330
5
100
AcDbSymbolTableRecord
100
AcDbLinetypeTableRecord
  2
寸法線
 70
     0
  3
________________
 72
    65
 73
     2
 40
2.0
 49
1.0
 74
     0
 49
1.0
 74
     0
  0
LTYPE
  5
4F12
330
5
100
AcDbSymbolTableRecord
100
AcDbLinetypeTableRecord
  2
ハッチング
 70
     0
  3
_________________
 72
    65
 73
     2
 40
2.0
 49
1.0
 74
     0
 49
1.0
 74
     0
  0
LTYPE
  5
5180
330
5
100
AcDbSymbolTableRecord
100
AcDbLinetypeTableRecord
  2
陰線1
 70
     0
  3
__ __ __ __
 72
    65
 73
     2
 40
4.0
 49
2.2
 74
     0
 49
-1.8
 74
     0
  0
LTYPE
  5
5182
330
5
100
AcDbSymbolTableRecord
100
AcDbLinetypeTableRecord
  2
切断線
 70
     0
  3
/\/-/\/-/\/-/\/-/\/-/\/
 72
    65
 73
     2
 40
11.0001
 49
0.0001
 74
     4
 75
   135
340
56
 46
0.04
 50
0.0
 44
0.0
 45
0.0
 49
-11.0
 74
     0
  0
LTYPE
  5
5183
330
5
100
AcDbSymbolTableRecord
100
AcDbLinetypeTableRecord
  2
想像線1
 70
     0
  3
__ __ __ _____ __ __ ____
 72
    65
 73
     6
 40
14.5
 49
6.0
 74
     0
 49
-1.5
 74
     0
 49
2.0
 74
     0
 49
-1.5
 74
     0
 49
2.0
 74
     0
 49
-1.5
 74
     0
  0
LTYPE
  5
5185
330
5
100
AcDbSymbolTableRecord
100
AcDbLinetypeTableRecord
  2
中心線1
 70
     0
  3
___ _ ___ _ ___
 72
    65
 73
     4
 40
18.0
 49
12.0
 74
     0
 49
-2.0
 74
     0
 49
2.0
 74
     0
 49
-2.0
 74
     0
  0
LTYPE
  5
5188
330
5
100
AcDbSymbolTableRecord
100
AcDbLinetypeTableRecord
  2
補助線
 70
     0
  3
______________
 72
    65
 73
     2
 40
2.0
 49
1.0
 74
     0
 49
1.0
 74
     0
  0
LTYPE
  5
6427
330
5
100
AcDbSymbolTableRecord
100
AcDbLinetypeTableRecord
  2
HIDDEN
 70
     0
  3
Hidden __ __ __ __ __ __ __ __ __ __ __ __ __ _
 72
    65
 73
     2
 40
0.375
 49
0.25
 74
     0
 49
-0.125
 74
     0
  0
LTYPE
  5
AC81
330
5
100
AcDbSymbolTableRecord
100
AcDbLinetypeTableRecord
  2
破断線
 70
     0
  3
/\/-/\/-/\/-/\/-/\/-/\/
 72
    65
 73
     2
 40
0.4401
 49
0.0001
 74
     4
 75
   136
340
AC80
 46
0.0016
 50
0.0
 44
0.0
 45
0.0
 49
-0.4400000000000001
 74
     0
  0
LTYPE
  5
AC9E
330
5
100
AcDbSymbolTableRecord
100
AcDbLinetypeTableRecord
  2
Amzigzag
 70
     0
  3
/\/-/\/-/\/-/\/-/\/-/\/
 72
    65
 73
     2
 40
11.0001
 49
0.0001
 74
     4
 75
   135
340
56
 46
0.04
 50
0.0
 44
0.0
 45
0.0
 49
-11.0
 74
     0
  0
LTYPE
  5
AF0F
330
5
100
AcDbSymbolTableRecord
100
AcDbLinetypeTableRecord
  2
genzigzag
 70
     0
  3
/\/-/\/-/\/-/\/-/\/-/\/
 72
    65
 73
     2
 40
12.0001
 49
0.0001
 74
     4
 75
   135
340
AC80
 46
2.0
 50
0.0
 44
0.0
 45
0.0
 49
-12.0
 74
     0
  0
LTYPE
  5
AF95
330
5
100
AcDbSymbolTableRecord
100
AcDbLinetypeTableRecord
  2
AM_ISO08W050
 70
     0
  3
____ . ____ . ____ . ____ . ____ . ____ . ____
 72
    65
 73
     4
 40
18.0
 49
12.0
 74
     0
 49
-1.5
 74
     0
 49
3.0
 74
     0
 49
-1.5
 74
     0
  0
LTYPE
  5
AF96
330
5
100
AcDbSymbolTableRecord
100
AcDbLinetypeTableRecord
  2
AM_ISO09W050
 70
     0
  3
_____ . . _____ . . _____ . . ____ .. ____
 72
    65
 73
     6
 40
22.5
 49
12.0
 74
     0
 49
-1.5
 74
     0
 49
3.0
 74
     0
 49
-1.5
 74
     0
 49
3.0
 74
     0
 49
-1.5
 74
     0
  0
LTYPE
  5
AF97
330
5
100
AcDbSymbolTableRecord
100
AcDbLinetypeTableRecord
  2
AM_ISO08W050x2
 70
     0
  3
__ . __ . __ . __ . __ . __
 72
    65
 73
     4
 40
9.0
 49
6.0
 74
     0
 49
-0.75
 74
     0
 49
1.5
 74
     0
 49
-0.75
 74
     0
  0
LTYPE
  5
AF98
330
5
100
AcDbSymbolTableRecord
100
AcDbLinetypeTableRecord
  2
AM_ISO02W050x2
 70
     0
  3
 _ _ _ _ _ _ _ _ _ _ _ _
 72
    65
 73
     2
 40
3.75
 49
3.0
 74
     0
 49
-0.75
 74
     0
  0
LTYPE
  5
B541
330
5
100
AcDbSymbolTableRecord
100
AcDbLinetypeTableRecord
  2
CENTER2
 70
     0
  3
__ _ __ _ __ _
 72
    65
 73
     4
 40
10.0
 49
7.0
 74
     0
 49
-1.0
 74
     0
 49
1.0
 74
     0
 49
-1.0
 74
     0
  0
LTYPE
  5
B542
330
5
100
AcDbSymbolTableRecord
100
AcDbLinetypeTableRecord
  2
HIDDEN2
 70
     0
  3
Hidden (.5x) _ _ _ _ _ _ _ _ _ _ _ _ _ _ _ _ _
 72
    65
 73
     2
 40
0.1875
 49
0.125
 74
     0
 49
-0.0625
 74
     0
  0
LTYPE
  5
B543
330
5
100
AcDbSymbolTableRecord
100
AcDbLinetypeTableRecord
  2
Amzigzag2
 70
     0
  3
/\/-/\/-/\/-/\/-/\/-/\/
 72
    65
 73
     2
 40
0.4401
 49
0.0001
 74
     4
 75
   136
340
AC80
 46
0.0016
 50
0.0
 44
0.0
 45
0.0
 49
-0.4400000000000001
 74
     0
  0
LTYPE
  5
B544
330
5
100
AcDbSymbolTableRecord
100
AcDbLinetypeTableRecord
  2
ACANSTGB
 70
     0
  3
__ . . __ . .
 72
    65
 73
     6
 40
0.35433070866
 49
0.15748031496
 74
     0
 49
-0.03937007874
 74
     0
 49
0.03937007874
 74
     0
 49
-0.03937007874
 74
     0
 49
0.03937007874
 74
     0
 49
-0.03937007874
 74
     0
  0
LTYPE
  5
B545
330
5
100
AcDbSymbolTableRecord
100
AcDbLinetypeTableRecord
  2
ACANSTGL
 70
     0
  3
_ _ _ _ _
 72
    65
 73
     2
 40
0.11811023622
 49
0.07874015748
 74
     0
 49
-0.03937007874
 74
     0
  0
LTYPE
  5
D240
330
5
100
AcDbSymbolTableRecord
100
AcDbLinetypeTableRecord
  2
DOTTED
 70
     0
  3
Dotted
 72
    65
 73
     2
 40
1.0
 49
0.0
 74
     0
 49
-1.0
 74
     0
  0
LTYPE
  5
D241
330
5
100
AcDbSymbolTableRecord
100
AcDbLinetypeTableRecord
  2
DOT_CENTER
 70
     0
  3
Dot_Center
 72
    65
 73
     4
 40
14.0
 49
12.0
 74
     0
 49
-1.0
 74
     0
 49
0.0
 74
     0
 49
-1.0
 74
     0
  0
LTYPE
  5
D242
330
5
100
AcDbSymbolTableRecord
100
AcDbLinetypeTableRecord
  2
PHANTOM
 70
     0
  3
Phantom
 72
    65
 73
     6
 40
13.0
 49
10.0
 74
     0
 49
-1.0
 74
     0
 49
0.0
 74
     0
 49
-1.0
 74
     0
 49
0.0
 74
     0
 49
-1.0
 74
     0
  0
LTYPE
  5
D243
330
5
100
AcDbSymbolTableRecord
100
AcDbLinetypeTableRecord
  2
SLDHIDDEN0
 70
     0
  3
SLDHIDDEN0
 72
    65
 73
     2
 40
3.0
 49
2.0
 74
     0
 49
-1.0
 74
     0
  0
ENDTAB
  0
TABLE
  2
LAYER
  5
2
102
{ACAD_XDICTIONARY
360
3F95
102
}
330
0
100
AcDbSymbolTable
 70
    30
  0
LAYER
  5
10
330
2
100
AcDbSymbolTableRecord
100
AcDbLayerTableRecord
  2
0
 70
     0
 62
     7
  6
Continuous
370
    -3
390
F
  0
LAYER
  5
6D1
330
2
100
AcDbSymbolTableRecord
100
AcDbLayerTableRecord
  2
Defpoints
 70
     0
 62
     7
  6
Continuous
290
     0
370
    -3
390
F
  0
LAYER
  5
5F85
330
2
100
AcDbSymbolTableRecord
100
AcDbLayerTableRecord
  2
AM_0
 70
     0
 62
     7
  6
中線
370
    30
390
F
1001
AcAecLayerStandard
1000

1000

  0
LAYER
  5
AC9F
330
2
100
AcDbSymbolTableRecord
100
AcDbLayerTableRecord
  2
size
 70
     0
 62
     5
  6
Continuous
290
     0
370
    25
390
F
  0
LAYER
  5
ACA0
330
2
100
AcDbSymbolTableRecord
100
AcDbLayerTableRecord
  2
waku
 70
     0
 62
     7
  6
Continuous
370
    35
390
F
  0
LAYER
  5
ACA1
330
2
100
AcDbSymbolTableRecord
100
AcDbLayerTableRecord
  2
AM_6
 70
     0
 62
     2
  6
文字
370
    13
390
F
1001
AcAecLayerStandard
1000

1000

  0
LAYER
  5
ACC8
330
2
100
AcDbSymbolTableRecord
100
AcDbLayerTableRecord
  2
hyomoji
 70
     0
 62
     2
  6
Continuous
370
    13
390
F
  0
LAYER
  5
ACC9
330
2
100
AcDbSymbolTableRecord
100
AcDbLayerTableRecord
  2
hyosen1
 70
     0
 62
     1
  6
Continuous
370
    25
390
F
  0
LAYER
  5
ACCA
330
2
100
AcDbSymbolTableRecord
100
AcDbLayerTableRecord
  2
hyosen2
 70
     0
 62
     1
  6
Continuous
370
    13
390
F
  0
LAYER
  5
AD60
330
2
100
AcDbSymbolTableRecord
100
AcDbLayerTableRecord
  2
AM_1
 70
     0
 62
    30
  6
太線
370
    40
390
F
1001
AcAecLayerStandard
1000

1000

  0
LAYER
  5
AD64
330
2
100
AcDbSymbolTableRecord
100
AcDbLayerTableRecord
  2
AM_2
 70
     0
 62
     1
  6
細線
370
    13
390
F
1001
AcAecLayerStandard
1000

1000

  0
LAYER
  5
AD67
330
2
100
AcDbSymbolTableRecord
100
AcDbLayerTableRecord
  2
AM_3
 70
     0
 62
     6
  6
陰線1
370
    13
390
F
1001
AcAecLayerStandard
1000

1000

  0
LAYER
  5
AD68
330
2
100
AcDbSymbolTableRecord
100
AcDbLayerTableRecord
  2
AM_5
 70
     0
 62
     3
  6
寸法線
370
    13
390
F
1001
AcAecLayerStandard
1000

1000

  0
LAYER
  5
AD69
330
2
100
AcDbSymbolTableRecord
100
AcDbLayerTableRecord
  2
AM_7
 70
     0
 62
     4
  6
中心線1
370
    13
390
F
1001
AcAecLayerStandard
1000

1000

  0
LAYER
  5
AD6A
330
2
100
AcDbSymbolTableRecord
100
AcDbLayerTableRecord
  2
AM_8
 70
     0
 62
     1
  6
ハッチング
370
    13
390
F
1001
AcAecLayerStandard
1000

1000

  0
LAYER
  5
AD6E
330
2
100
AcDbSymbolTableRecord
100
AcDbLayerTableRecord
  2
AM_10
 70
     0
 62
     7
  6
切断線
370
    13
390
F
1001
AcAecLayerStandard
1000

1000

  0
LAYER
  5
AD6F
330
2
100
AcDbSymbolTableRecord
100
AcDbLayerTableRecord
  2
AM_11
 70
     0
 62
     2
  6
想像線1
370
    13
390
F
1001
AcAecLayerStandard
1000

1000

  0
LAYER
  5
B1B6
330
2
100
AcDbSymbolTableRecord
100
AcDbLayerTableRecord
  2
AM_CL
 70
     0
 62
     1
  6
Amconstr
370
    15
390
F
1001
AcAecLayerStandard
1000

1000

  0
LAYER
  5
B2EB
330
2
100
AcDbSymbolTableRecord
100
AcDbLayerTableRecord
  2
AM_14
 70
     0
 62
     5
  6
細線
370
     9
390
F
1001
AcAecLayerStandard
1000

1000

  0
LAYER
  5
B2EC
330
2
100
AcDbSymbolTableRecord
100
AcDbLayerTableRecord
  2
AM_15
 70
     0
 62
     6
  6
陰線1
370
     9
390
F
1001
AcAecLayerStandard
1000

1000

  0
LAYER
  5
B502
330
2
100
AcDbSymbolTableRecord
100
AcDbLayerTableRecord
  2
AM_4
 70
     0
 62
     3
  6
補助線
370
    15
390
F
1001
AcAecLayerStandard
1000

1000

  0
LAYER
  5
B546
330
2
100
AcDbSymbolTableRecord
100
AcDbLayerTableRecord
  2
1
 70
     0
 62
     7
  6
Continuous
370
    -3
390
F
  0
LAYER
  5
B791
330
2
100
AcDbSymbolTableRecord
100
AcDbLayerTableRecord
  2
想像線
 70
     0
 62
     5
  6
PHANTOM2
370
    -3
390
F
  0
LAYER
  5
B792
330
2
100
AcDbSymbolTableRecord
100
AcDbLayerTableRecord
  2
実線
 70
     0
 62
     7
  6
Continuous
370
    -3
390
F
  0
LAYER
  5
B793
330
2
100
AcDbSymbolTableRecord
100
AcDbLayerTableRecord
  2
中心線
 70
     0
 62
     2
  6
CENTER2
370
    -3
390
F
  0
LAYER
  5
B794
330
2
100
AcDbSymbolTableRecord
100
AcDbLayerTableRecord
  2
隠れ線
 70
     0
 62
     4
  6
HIDDEN2
370
    -3
390
F
  0
LAYER
  5
B795
330
2
100
AcDbSymbolTableRecord
100
AcDbLayerTableRecord
  2
細線
 70
     0
 62
     4
  6
Continuous
370
    -3
390
F
  0
LAYER
  5
B796
330
2
100
AcDbSymbolTableRecord
100
AcDbLayerTableRecord
  2
文字
 70
     0
 62
     1
  6
Continuous
370
    -3
390
F
  0
LAYER
  5
BD5F
330
2
100
AcDbSymbolTableRecord
100
AcDbLayerTableRecord
  2
2
 70
     0
 62
     7
  6
Continuous
370
    -3
390
F
  0
LAYER
  5
BD60
330
2
100
AcDbSymbolTableRecord
100
AcDbLayerTableRecord
  2
3
 70
     0
 62
     7
  6
Continuous
370
    -3
390
F
  0
ENDTAB
  0
TABLE
  2
STYLE
  5
3
330
0
100
AcDbSymbolTable
 70
    15
  0
STYLE
  5
11
330
3
100
AcDbSymbolTableRecord
100
AcDbTextStyleTableRecord
  2
STANDARD
 70
     0
 40
0.0
 41
0.7
 50
0.0
 71
     0
 42
3.2
  3
romans.shx
  4
extfont.shx
  0
STYLE
  5
56
330
3
100
AcDbSymbolTableRecord
100
AcDbTextStyleTableRecord
  2

 70
     1
 40
0.0
 41
1.0
 50
0.0
 71
     0
 42
2.5
  3
ltypeshp.shx
  4

  0
STYLE
  5
58
330
3
100
AcDbSymbolTableRecord
100
AcDbTextStyleTableRecord
  2
ACISOTS
 70
     0
 40
1.0
 41
1.0
 50
0.0
 71
     0
 42
2.5
  3
isocp.shx
  4
extfont.shx
  0
STYLE
  5
63
330
3
100
AcDbSymbolTableRecord
100
AcDbTextStyleTableRecord
  2
ACISOGDT
 70
     0
 40
0.0
 41
1.0
 50
0.0
 71
     0
 42
2.5
  3
amgdt.shx
  4

  0
STYLE
  5
A74
330
3
100
AcDbSymbolTableRecord
100
AcDbTextStyleTableRecord
  2
DIM
 70
     0
 40
0.0
 41
1.0
 50
0.0
 71
     0
 42
2.5
  3
monotxt.shx
  4
extfont.shx
  0
STYLE
  5
AC80
330
3
100
AcDbSymbolTableRecord
100
AcDbTextStyleTableRecord
  2

 70
     1
 40
0.0
 41
1.0
 50
0.0
 71
     0
 42
3.2
  3
genltshp.shx
  4

  0
STYLE
  5
B547
330
3
100
AcDbSymbolTableRecord
100
AcDbTextStyleTableRecord
  2
ACANSTS
 70
     0
 40
1.0
 41
1.0
 50
0.0
 71
     0
 42
0.2
  3
romans.shx
  4
extfont.shx
  0
STYLE
  5
B548
330
3
100
AcDbSymbolTableRecord
100
AcDbTextStyleTableRecord
  2
ACANSGDT
 70
     0
 40
0.0
 41
1.0
 50
0.0
 71
     0
 42
0.2
  3
amgdt.shx
  4

  0
STYLE
  5
D244
330
3
100
AcDbSymbolTableRecord
100
AcDbTextStyleTableRecord
  2
CONVERTER_1
 70
     0
 40
0.0
 41
0.7
 50
0.0
 71
     0
 42
0.2
  3
iso.shx
  4

  0
STYLE
  5
D245
330
3
100
AcDbSymbolTableRecord
100
AcDbTextStyleTableRecord
  2
CONVERTER_2
 70
     0
 40
0.0
 41
0.7
 50
0.0
 71
     0
 42
0.2
  3
iso.shx
  4
extfont.shx
  0
STYLE
  5
D246
330
3
100
AcDbSymbolTableRecord
100
AcDbTextStyleTableRecord
  2
CONVERTER_3
 70
     0
 40
0.0
 41
1.0
 50
0.0
 71
     0
 42
0.2
  3
iso.shx
  4

  0
STYLE
  5
D247
330
3
100
AcDbSymbolTableRecord
100
AcDbTextStyleTableRecord
  2
CONVERTER_4
 70
     0
 40
0.0
 41
0.625
 50
0.0
 71
     0
 42
0.2
  3
iso.shx
  4

  0
STYLE
  5
D248
330
3
100
AcDbSymbolTableRecord
100
AcDbTextStyleTableRecord
  2
CONVERTER_5
 70
     0
 40
0.0
 41
0.8679999999999999
 50
0.0
 71
     0
 42
0.2
  3
simplex.shx
  4

  0
STYLE
  5
D249
330
3
100
AcDbSymbolTableRecord
100
AcDbTextStyleTableRecord
  2
CONVERTER_6
 70
     0
 40
0.0
 41
0.79920634920635
 50
0.0
 71
     0
 42
0.2
  3
complex.shx
  4

  0
STYLE
  5
D24A
330
3
100
AcDbSymbolTableRecord
100
AcDbTextStyleTableRecord
  2
CONVERTER_7
 70
     0
 40
0.0
 41
0.4950000000000001
 50
0.0
 71
     0
 42
0.2
  3
txt.shx
  4

  0
ENDTAB
  0
TABLE
  2
VIEW
  5
6
330
0
100
AcDbSymbolTable
 70
     6
  0
VIEW
  5
AE1
330
6
100
AcDbSymbolTableRecord
100
AcDbViewTableRecord
  2
AM_VIEW1
 70
     0
 40
168.7283236994219
 10
105.000000282035
 20
212.6358382007688
 41
210.0
 11
0.0
 21
0.0
 31
1.0
 12
0.0
 22
0.0
 32
0.0
 42
50.0
 43
-1370.695619172058
 44
-1370.695619172058
 50
0.0
 71
     0
281
     0
 72
     0
  0
VIEW
  5
AE2
330
6
100
AcDbSymbolTableRecord
100
AcDbViewTableRecord
  2
AM_VIEW2
 70
     0
 40
168.7283236994219
 10
315.000000282035
 20
212.6358382007688
 41
210.0
 11
0.0
 21
0.0
 31
1.0
 12
0.0
 22
0.0
 32
0.0
 42
50.0
 43
-1370.695619172058
 44
-1370.695619172058
 50
0.0
 71
     0
281
     0
 72
     0
  0
VIEW
  5
AE3
330
6
100
AcDbSymbolTableRecord
100
AcDbViewTableRecord
  2
AM_VIEW3
 70
     0
 40
168.7283236994219
 10
105.000000282035
 20
84.36416190019071
 41
210.0
 11
0.0
 21
0.0
 31
1.0
 12
0.0
 22
0.0
 32
0.0
 42
50.0
 43
-1370.695619172058
 44
-1370.695619172058
 50
0.0
 71
     0
281
     0
 72
     0
  0
VIEW
  5
AE4
330
6
100
AcDbSymbolTableRecord
100
AcDbViewTableRecord
  2
AM_VIEW4
 70
     0
 40
168.7283236994219
 10
315.000000282035
 20
84.36416190019071
 41
210.0
 11
0.0
 21
0.0
 31
1.0
 12
0.0
 22
0.0
 32
0.0
 42
50.0
 43
-1370.695619172058
 44
-1370.695619172058
 50
0.0
 71
     0
281
     0
 72
     0
  0
VIEW
  5
AE5
330
6
100
AcDbSymbolTableRecord
100
AcDbViewTableRecord
  2
AM_VIEW5
 70
     0
 40
168.7283236994219
 10
210.0000002820351
 20
148.5000000504797
 41
210.0
 11
0.0
 21
0.0
 31
1.0
 12
0.0
 22
0.0
 32
0.0
 42
50.0
 43
-1370.695619172058
 44
-1370.695619172058
 50
0.0
 71
     0
281
     0
 72
     0
  0
VIEW
  5
AE6
330
6
100
AcDbSymbolTableRecord
100
AcDbViewTableRecord
  2
AM_VIEW6
 70
     0
 40
337.45327283237
 10
210.0000002820351
 20
148.5000000504797
 41
419.9958
 11
0.0
 21
0.0
 31
1.0
 12
0.0
 22
0.0
 32
0.0
 42
50.0
 43
-1370.695619172058
 44
-1370.695619172058
 50
0.0
 71
     0
281
     0
 72
     0
  0
ENDTAB
  0
TABLE
  2
UCS
  5
7
330
0
100
AcDbSymbolTable
 70
     0
  0
ENDTAB
  0
TABLE
  2
APPID
  5
9
330
0
100
AcDbSymbolTable
 70
    60
  0
APPID
  5
12
330
9
100
AcDbSymbolTableRecord
100
AcDbRegAppTableRecord
  2
ACAD
 70
     0
  0
APPID
  5
30
330
9
100
AcDbSymbolTableRecord
100
AcDbRegAppTableRecord
  2
MCAD_NO_VIS
 70
     0
  0
APPID
  5
31
330
9
100
AcDbSymbolTableRecord
100
AcDbRegAppTableRecord
  2
ACAD_TEMP_GRAPHIC
 70
     0
  0
APPID
  5
44
330
9
100
AcDbSymbolTableRecord
100
AcDbRegAppTableRecord
  2
ACATTRIBSERVICES
 70
     0
  0
APPID
  5
7A1
330
9
100
AcDbSymbolTableRecord
100
AcDbRegAppTableRecord
  2
GENIUS_GENDIMSH_14
 70
     0
  0
APPID
  5
A49
330
9
100
AcDbSymbolTableRecord
100
AcDbRegAppTableRecord
  2
GENIUS_GENREC_14
 70
     0
  0
APPID
  5
A4A
330
9
100
AcDbSymbolTableRecord
100
AcDbRegAppTableRecord
  2
GENIUS_GENOBJ-N-REC_13
 70
     0
  0
APPID
  5
A4B
330
9
100
AcDbSymbolTableRecord
100
AcDbRegAppTableRecord
  2
GENIUS_GENODEF_13
 70
     0
  0
APPID
  5
A4C
330
9
100
AcDbSymbolTableRecord
100
AcDbRegAppTableRecord
  2
DCO15
 70
     0
  0
APPID
  5
ADC
330
9
100
AcDbSymbolTableRecord
100
AcDbRegAppTableRecord
  2
GENIUS_GENOLIS_13
 70
     0
  0
APPID
  5
ADD
330
9
100
AcDbSymbolTableRecord
100
AcDbRegAppTableRecord
  2
GENIUS_GENOENT_13
 70
     0
  0
APPID
  5
ADE
330
9
100
AcDbSymbolTableRecord
100
AcDbRegAppTableRecord
  2
GENIUS_GENOBJ-N-TIT_13
 70
     0
  0
APPID
  5
ADF
330
9
100
AcDbSymbolTableRecord
100
AcDbRegAppTableRecord
  2
GENIUS_GENTITLE_13
 70
     0
  0
APPID
  5
AE0
330
9
100
AcDbSymbolTableRecord
100
AcDbRegAppTableRecord
  2
GENIUS_GENOREF_13
 70
     0
  0
APPID
  5
AE7
330
9
100
AcDbSymbolTableRecord
100
AcDbRegAppTableRecord
  2
GENIUS_GENSCREG_15
 70
     0
  0
APPID
  5
AE8
330
9
100
AcDbSymbolTableRecord
100
AcDbRegAppTableRecord
  2
GENIUS_GENOBJ-N-SDF_13
 70
     0
  0
APPID
  5
FAF
330
9
100
AcDbSymbolTableRecord
100
AcDbRegAppTableRecord
  2
GENIUS_GENBLLY_14
 70
     0
  0
APPID
  5
FB0
330
9
100
AcDbSymbolTableRecord
100
AcDbRegAppTableRecord
  2
GENIUS_GENTRA_14
 70
     0
  0
APPID
  5
1285
330
9
100
AcDbSymbolTableRecord
100
AcDbRegAppTableRecord
  2
GENIUS_GENDTOL_13
 70
     0
  0
APPID
  5
142D
330
9
100
AcDbSymbolTableRecord
100
AcDbRegAppTableRecord
  2
GENIUS_GENOBJ-N-CEN_13
 70
     0
  0
APPID
  5
1AB5
330
9
100
AcDbSymbolTableRecord
100
AcDbRegAppTableRecord
  2
GENIUS_GENOBJ-N-CRS_13
 70
     0
  0
APPID
  5
1B36
330
9
100
AcDbSymbolTableRecord
100
AcDbRegAppTableRecord
  2
GENIUS_GENOBJ-N-HTC_13
 70
     0
  0
APPID
  5
1B37
330
9
100
AcDbSymbolTableRecord
100
AcDbRegAppTableRecord
  2
GENIUS_GENHATCH_13
 70
     0
  0
APPID
  5
216D
330
9
100
AcDbSymbolTableRecord
100
AcDbRegAppTableRecord
  2
GENIUS_GENOBJ-N-FIL_13
 70
     0
  0
APPID
  5
2356
330
9
100
AcDbSymbolTableRecord
100
AcDbRegAppTableRecord
  2
GEVID990412420
 70
     0
  0
APPID
  5
2357
330
9
100
AcDbSymbolTableRecord
100
AcDbRegAppTableRecord
  2
GEVDC
 70
     0
  0
APPID
  5
2358
330
9
100
AcDbSymbolTableRecord
100
AcDbRegAppTableRecord
  2
GEVCON
 70
     0
  0
APPID
  5
235B
330
9
100
AcDbSymbolTableRecord
100
AcDbRegAppTableRecord
  2
GEVRADREF
 70
     0
  0
APPID
  5
2360
330
9
100
AcDbSymbolTableRecord
100
AcDbRegAppTableRecord
  2
GENIUS_GENBH_13
 70
     0
  0
APPID
  5
2362
330
9
100
AcDbSymbolTableRecord
100
AcDbRegAppTableRecord
  2
GENIUS_GENOBJ-NBEHI-BHF_13
 70
     0
  0
APPID
  5
2364
330
9
100
AcDbSymbolTableRecord
100
AcDbRegAppTableRecord
  2
GENIUS_GENOBJ-NBEHI-BHB_13
 70
     0
  0
APPID
  5
2379
330
9
100
AcDbSymbolTableRecord
100
AcDbRegAppTableRecord
  2
GENIUS_GENOBJ-F-SCPASSM_13
 70
     0
  0
APPID
  5
3D74
330
9
100
AcDbSymbolTableRecord
100
AcDbRegAppTableRecord
  2
GENIUS_GENDIM_13
 70
     0
  0
APPID
  5
3D76
330
9
100
AcDbSymbolTableRecord
100
AcDbRegAppTableRecord
  2
GENIUS_GE3DTOL_13
 70
     0
  0
APPID
  5
3D9C
330
9
100
AcDbSymbolTableRecord
100
AcDbRegAppTableRecord
  2
AD_DRAW
 70
     0
  0
APPID
  5
3DE8
330
9
100
AcDbSymbolTableRecord
100
AcDbRegAppTableRecord
  2
ASURF_PCURVE_APPNAME
 70
     0
  0
APPID
  5
3DED
330
9
100
AcDbSymbolTableRecord
100
AcDbRegAppTableRecord
  2
AMG_3D2D_5.0
 70
     0
  0
APPID
  5
3E1B
330
9
100
AcDbSymbolTableRecord
100
AcDbRegAppTableRecord
  2
DESIGNERASSEMBLIES
 70
     0
  0
APPID
  5
3E20
330
9
100
AcDbSymbolTableRecord
100
AcDbRegAppTableRecord
  2
ACADM_DIM_EDIT
 70
     0
  0
APPID
  5
3E21
330
9
100
AcDbSymbolTableRecord
100
AcDbRegAppTableRecord
  2
AMDT_DM_ADJ
 70
     0
  0
APPID
  5
4143
330
9
100
AcDbSymbolTableRecord
100
AcDbRegAppTableRecord
  2
GENIUS_GENFIL_13
 70
     0
  0
APPID
  5
4144
330
9
100
AcDbSymbolTableRecord
100
AcDbRegAppTableRecord
  2
GENIUS_GENOBJ-N-CHA_13
 70
     0
  0
APPID
  5
4E17
330
9
100
AcDbSymbolTableRecord
100
AcDbRegAppTableRecord
  2
GEVID1008153417
 70
     0
  0
APPID
  5
4E58
330
9
100
AcDbSymbolTableRecord
100
AcDbRegAppTableRecord
  2
GEVID1008153418
 70
     0
  0
APPID
  5
4E5E
330
9
100
AcDbSymbolTableRecord
100
AcDbRegAppTableRecord
  2
GEVID1008153419
 70
     0
  0
APPID
  5
4E64
330
9
100
AcDbSymbolTableRecord
100
AcDbRegAppTableRecord
  2
GEVID1008153420
 70
     0
  0
APPID
  5
4E75
330
9
100
AcDbSymbolTableRecord
100
AcDbRegAppTableRecord
  2
GEVID1008153421
 70
     0
  0
APPID
  5
4EB7
330
9
100
AcDbSymbolTableRecord
100
AcDbRegAppTableRecord
  2
GENIUS_AMGTXT_16
 70
     0
  0
APPID
  5
7645
330
9
100
AcDbSymbolTableRecord
100
AcDbRegAppTableRecord
  2
GENIUS_GENOBJ-N-DIM_13
 70
     0
  0
APPID
  5
AAD0
330
9
100
AcDbSymbolTableRecord
100
AcDbRegAppTableRecord
  2
ACAD_DSTYLE_DIMARC_LENGTH_SYMBOL
 70
     0
  0
APPID
  5
AAD1
330
9
100
AcDbSymbolTableRecord
100
AcDbRegAppTableRecord
  2
ACAD_DSTYLE_DIMJOGGED_JOGANGLE_SYMBOL
 70
     0
  0
APPID
  5
AAFD
330
9
100
AcDbSymbolTableRecord
100
AcDbRegAppTableRecord
  2
ACAD_PSEXT
 70
     0
  0
APPID
  5
AD61
330
9
100
AcDbSymbolTableRecord
100
AcDbRegAppTableRecord
  2
AcAecLayerStandard
 70
     0
  0
APPID
  5
AEE3
330
9
100
AcDbSymbolTableRecord
100
AcDbRegAppTableRecord
  2
ACAD_EXEMPT_FROM_CAD_STANDARDS
 70
     0
  0
APPID
  5
B1BE
330
9
100
AcDbSymbolTableRecord
100
AcDbRegAppTableRecord
  2
GENIUS_GENCEN_19
 70
     0
  0
APPID
  5
DBFE
330
9
100
AcDbSymbolTableRecord
100
AcDbRegAppTableRecord
  2
ACAD_MLEADERVER
 70
     0
  0
APPID
  5
DC29
330
9
100
AcDbSymbolTableRecord
100
AcDbRegAppTableRecord
  2
ACAUTHENVIRON
 70
     0
  0
APPID
  5
DC2A
330
9
100
AcDbSymbolTableRecord
100
AcDbRegAppTableRecord
  2
AcDbDynamicBlockTrueName
 70
     0
  0
APPID
  5
DC2B
330
9
100
AcDbSymbolTableRecord
100
AcDbRegAppTableRecord
  2
AcDbDynamicBlockGUID
 70
     0
  0
APPID
  5
DC2C
330
9
100
AcDbSymbolTableRecord
100
AcDbRegAppTableRecord
  2
ACDBBLOCKREPETAG
 70
     0
  0
ENDTAB
  0
TABLE
  2
DIMSTYLE
  5
A
330
0
100
AcDbSymbolTable
 70
    41
100
AcDbDimStyleTable
 71
     1
340
2515
  0
DIMSTYLE
105
A76
330
A
100
AcDbSymbolTableRecord
100
AcDbDimStyleTableRecord
  2
STANDARD
 70
     0
 41
3.0
 42
1.0
 43
7.0
 44
2.0
 73
     0
 74
     0
 77
     1
140
2.799999999999999
141
0.0
143
0.0394
147
0.7
171
     4
172
     1
173
     1
176
     3
177
     3
178
     2
271
     3
272
     3
273
     8
274
     4
289
     0
340
A74
341
A66
343
A66
344
A66
  0
DIMSTYLE
105
2515
330
A
100
AcDbSymbolTableRecord
100
AcDbDimStyleTableRecord
  2
SYS
 70
     0
  4
"
 41
1.0
 42
1.0
 43
10.0
 44
1.0
 47
0.1
 48
0.1
 73
     0
 74
     0
 77
     1
 78
     8
 79
     2
140
3.5
141
0.0
143
0.0393701
146
0.71
147
1.5
172
     1
176
   256
177
   256
178
     7
271
     2
272
     2
283
     0
284
     8
340
11
371
    -1
372
    -1
1001
ACAD_DSTYLE_DIMJOGGED_JOGANGLE_SYMBOL
1070
   384
1040
0.7853981633974483
1001
ACAD_DSTYLE_DIMARC_LENGTH_SYMBOL
1070
   379
1070
     1
  0
DIMSTYLE
105
2516
102
{ACAD_REACTORS
330
F3AC
102
}
330
A
100
AcDbSymbolTableRecord
100
AcDbDimStyleTableRecord
  2
SYS$3
 70
     0
  4
"
 41
2.0
 42
1.0
 43
10.0
 44
1.0
 47
0.1
 48
0.1
 73
     0
 77
     1
 78
     8
 79
     2
140
3.5
141
0.0
143
0.0393701
146
0.71
147
1.5
176
   256
177
   256
178
     2
271
     2
272
     2
283
     0
284
     8
288
     1
340
11
342
A66
371
    -1
372
    -1
1001
ACAD_DSTYLE_DIMJOGGED_JOGANGLE_SYMBOL
1070
   384
1040
0.7853981633974483
1001
ACAD_DSTYLE_DIMARC_LENGTH_SYMBOL
1070
   379
1070
     1
  0
DIMSTYLE
105
2517
330
A
100
AcDbSymbolTableRecord
100
AcDbDimStyleTableRecord
  2
SYS$4
 70
     0
  4
"
 41
2.0
 42
1.0
 43
10.0
 44
1.0
 47
0.1
 48
0.1
 73
     0
 77
     1
 78
     8
 79
     2
140
3.5
141
0.0
143
0.0393701
146
0.71
147
1.5
173
     1
176
   256
177
   256
178
     2
271
     2
272
     2
283
     0
284
     8
288
     1
340
11
344
A66
371
    -1
372
    -1
1001
ACAD_DSTYLE_DIMJOGGED_JOGANGLE_SYMBOL
1070
   384
1040
0.7853981633974483
1001
ACAD_DSTYLE_DIMARC_LENGTH_SYMBOL
1070
   379
1070
     1
  0
DIMSTYLE
105
2518
330
A
100
AcDbSymbolTableRecord
100
AcDbDimStyleTableRecord
  2
SYS$6
 70
     0
  4
"
 41
2.0
 42
1.0
 43
10.0
 44
1.0
 47
0.1
 48
0.1
 73
     0
 74
     0
 78
     8
 79
     2
140
3.5
141
0.0
143
0.0393701
146
0.71
147
1.5
172
     1
176
   256
177
   256
178
     2
271
     2
272
     2
283
     0
284
     8
340
11
341
A66
371
    -1
372
    -1
1001
ACAD_DSTYLE_DIMJOGGED_JOGANGLE_SYMBOL
1070
   384
1040
0.7853981633974483
1001
ACAD_DSTYLE_DIMARC_LENGTH_SYMBOL
1070
   379
1070
     1
  0
DIMSTYLE
105
2519
330
A
100
AcDbSymbolTableRecord
100
AcDbDimStyleTableRecord
  2
SYS$7
 70
     0
  4
"
 41
2.0
 42
1.0
 43
10.0
 44
1.0
 47
0.1
 48
0.1
 73
     0
 74
     0
 77
     1
 78
     8
 79
     2
140
5.0
141
0.0
143
0.0393701
146
0.71
147
1.5
172
     1
176
   256
177
   256
178
     2
271
     2
272
     2
283
     0
284
     8
340
11
341
A66
342
A66
371
    -1
372
    -1
1001
ACAD_DSTYLE_DIMJOGGED_JOGANGLE_SYMBOL
1070
   384
1040
0.7853981633974483
1001
ACAD_DSTYLE_DIMARC_LENGTH_SYMBOL
1070
   379
1070
     1
  0
DIMSTYLE
105
251A
330
A
100
AcDbSymbolTableRecord
100
AcDbDimStyleTableRecord
  2
SYS$SF
 70
     0
  4
"
 41
2.5
 42
1.0
 43
10.0
 44
1.0
 47
0.1
 48
0.1
 73
     0
 74
     0
 75
     1
 76
     1
 77
     1
 78
     8
 79
     2
140
3.5
141
0.0
143
0.0393701
146
0.71
147
1.5
172
     1
176
   256
177
   256
178
     2
271
     2
272
     3
283
     0
284
     8
340
11
341
6C4
342
6C4
371
    -1
372
    -1
1001
ACAD_DSTYLE_DIMJOGGED_JOGANGLE_SYMBOL
1070
   384
1040
0.7853981633974483
1001
ACAD_DSTYLE_DIMARC_LENGTH_SYMBOL
1070
   379
1070
     1
  0
DIMSTYLE
105
251B
330
A
100
AcDbSymbolTableRecord
100
AcDbDimStyleTableRecord
  2
SYS$SH
 70
     0
  4
"
 41
2.5
 42
1.0
 43
10.0
 44
1.0
 47
0.1
 48
0.1
 73
     0
 74
     0
 75
     1
 76
     1
 77
     1
 78
     8
 79
     2
140
3.5
141
0.0
143
0.0393701
144
2.0
146
0.71
147
1.5
172
     1
173
     1
176
   256
177
   256
178
     2
271
     2
272
     3
283
     0
284
     8
340
11
341
6C4
343
72
344
6C4
371
    -1
372
    -1
1001
ACAD_DSTYLE_DIMJOGGED_JOGANGLE_SYMBOL
1070
   384
1040
0.7853981633974483
1001
ACAD_DSTYLE_DIMARC_LENGTH_SYMBOL
1070
   379
1070
     1
  0
DIMSTYLE
105
2A59
102
{ACAD_REACTORS
330
F16A
102
}
330
A
100
AcDbSymbolTableRecord
100
AcDbDimStyleTableRecord
  2
SYS$2
 70
     0
  4
"
 41
1.0
 42
1.0
 43
10.0
 44
1.0
 47
0.1
 48
0.1
 73
     0
 74
     0
 77
     1
 78
     8
 79
     2
140
3.5
141
0.0
143
0.0393701
146
0.71
147
1.5
172
     1
176
   256
177
   256
178
     2
271
     2
272
     2
283
     0
284
     8
340
11
342
6C4
371
    -1
372
    -1
1001
ACAD_DSTYLE_DIMJOGGED_JOGANGLE_SYMBOL
1070
   384
1040
0.7853981633974483
1001
ACAD_DSTYLE_DIMARC_LENGTH_SYMBOL
1070
   379
1070
     1
  0
DIMSTYLE
105
2AAB
102
{ACAD_REACTORS
330
F03A
330
F050
330
F078
330
F0A9
330
F0BF
330
F0DE
330
F0F4
330
F119
330
F13E
330
F154
330
F192
102
}
330
A
100
AcDbSymbolTableRecord
100
AcDbDimStyleTableRecord
  2
SYS$0
 70
     0
  4
"
 41
1.0
 42
1.0
 43
10.0
 44
1.0
 47
0.1
 48
0.1
 73
     0
 74
     0
 77
     1
 78
     8
 79
     2
140
3.200000000000001
141
0.0
143
0.0393701
146
0.71
147
1.5
172
     1
176
   256
177
   256
178
     2
271
     2
272
     2
283
     0
284
     8
340
11
341
A66
342
6C4
371
    -1
372
    -1
1001
ACAD_DSTYLE_DIMJOGGED_JOGANGLE_SYMBOL
1070
   384
1040
0.7853981633974483
1001
ACAD_DSTYLE_DIMARC_LENGTH_SYMBOL
1070
   379
1070
     1
  0
DIMSTYLE
105
AF99
330
A
100
AcDbSymbolTableRecord
100
AcDbDimStyleTableRecord
  2
AM_ISO
 70
     0
  4
"
 41
2.5
 42
1.0
 43
10.0
 44
1.0
 47
0.1
 48
0.1
 73
     0
 74
     0
 77
     1
 78
     8
 79
     2
140
3.5
141
0.0
143
0.0393701
146
0.71
147
1.5
172
     1
176
   256
177
   256
178
     2
271
     2
272
     3
274
     4
283
     0
284
     8
340
11
371
    -1
372
    -1
  0
DIMSTYLE
105
AF9A
330
A
100
AcDbSymbolTableRecord
100
AcDbDimStyleTableRecord
  2
AM_ISO$3
 70
     0
  4
"
 41
2.5
 42
1.0
 43
10.0
 44
1.0
 47
0.1
 48
0.1
 73
     0
 77
     1
 78
     8
 79
     2
140
3.5
141
0.0
143
0.0393701
146
0.71
147
1.5
176
   256
177
   256
178
     2
271
     2
272
     3
274
     4
283
     0
284
     8
288
     1
289
     0
340
11
371
    -1
372
    -1
  0
DIMSTYLE
105
AF9B
330
A
100
AcDbSymbolTableRecord
100
AcDbDimStyleTableRecord
  2
AM_ISO$4
 70
     0
  4
"
 41
2.5
 42
1.0
 43
10.0
 44
1.0
 47
0.1
 48
0.1
 73
     0
 77
     1
 78
     8
 79
     2
140
3.5
141
0.0
143
0.0393701
146
0.71
147
1.5
176
   256
177
   256
178
     2
271
     2
272
     3
274
     4
283
     0
284
     8
288
     1
289
     0
340
11
371
    -1
372
    -1
  0
DIMSTYLE
105
AF9C
330
A
100
AcDbSymbolTableRecord
100
AcDbDimStyleTableRecord
  2
AM_ISO$6
 70
     0
  4
"
 41
2.5
 42
1.0
 43
10.0
 44
1.0
 47
0.1
 48
0.1
 73
     0
 74
     0
 78
     8
 79
     2
140
3.5
141
0.0
143
0.0393701
146
0.71
147
1.5
172
     1
176
   256
177
   256
178
     2
271
     2
272
     3
274
     4
283
     0
284
     8
340
11
371
    -1
372
    -1
  0
DIMSTYLE
105
AF9D
330
A
100
AcDbSymbolTableRecord
100
AcDbDimStyleTableRecord
  2
AM_ISO$7
 70
     0
  4
"
 41
2.5
 42
1.0
 43
10.0
 44
1.0
 47
0.1
 48
0.1
 73
     0
 74
     0
 77
     1
 78
     8
 79
     2
140
5.0
141
0.0
143
0.0393701
146
0.71
147
1.5
172
     1
176
   256
177
   256
178
     2
271
     2
272
     3
274
     4
283
     0
284
     8
340
11
371
    -1
372
    -1
  0
DIMSTYLE
105
AF9E
330
A
100
AcDbSymbolTableRecord
100
AcDbDimStyleTableRecord
  2
AM_ISO$SF
 70
     0
  4
"
 41
2.5
 42
1.0
 43
10.0
 44
1.0
 47
0.1
 48
0.1
 73
     0
 74
     0
 75
     1
 76
     1
 77
     1
 78
     8
 79
     2
140
3.5
141
0.0
143
0.0393701
146
0.71
147
1.5
172
     1
176
   256
177
   256
178
     2
271
     2
272
     3
274
     4
283
     0
284
     8
340
11
371
    -1
372
    -1
  0
DIMSTYLE
105
AF9F
330
A
100
AcDbSymbolTableRecord
100
AcDbDimStyleTableRecord
  2
AM_ISO$SH
 70
     0
  4
"
 41
2.5
 42
1.0
 43
10.0
 44
1.0
 47
0.1
 48
0.1
 73
     0
 74
     0
 75
     1
 76
     1
 77
     1
 78
     8
 79
     2
140
3.5
141
0.0
143
0.0393701
144
2.0
146
0.71
147
1.5
172
     1
173
     1
176
   256
177
   256
178
     2
271
     2
272
     3
274
     4
283
     0
284
     8
340
11
343
72
371
    -1
372
    -1
  0
DIMSTYLE
105
B549
330
A
100
AcDbSymbolTableRecord
100
AcDbDimStyleTableRecord
  2
AM_ANSI
 70
     0
  4
mm
 41
0.1
 42
0.05
 43
0.5
 44
0.1
 47
0.1
 48
0.1
 78
     7
 79
     2
140
0.12
141
0.0
146
0.71
147
0.06
176
   256
177
   256
178
     2
274
     4
284
     7
340
11
371
    -1
372
    -1
1001
ACAD_DSTYLE_DIMARC_LENGTH_SYMBOL
1070
   379
1070
     1
  0
DIMSTYLE
105
B54A
330
A
100
AcDbSymbolTableRecord
100
AcDbDimStyleTableRecord
  2
AM_ANSI$3
 70
     0
  4
mm
 41
0.1
 42
0.05
 43
0.5
 44
0.1
 47
0.1
 48
0.1
 78
     7
 79
     2
140
0.12
141
0.0
146
0.71
147
0.06
176
   256
177
   256
178
     2
274
     4
284
     7
288
     1
289
     0
340
11
371
    -1
372
    -1
1001
ACAD_DSTYLE_DIMARC_LENGTH_SYMBOL
1070
   379
1070
     1
  0
DIMSTYLE
105
B54B
330
A
100
AcDbSymbolTableRecord
100
AcDbDimStyleTableRecord
  2
AM_ANSI$4
 70
     0
  4
mm
 41
0.1
 42
0.05
 43
0.5
 44
0.1
 47
0.1
 48
0.1
 78
     7
 79
     2
140
0.12
141
0.0
146
0.71
147
0.06
176
   256
177
   256
178
     2
274
     4
284
     7
288
     1
289
     0
340
11
371
    -1
372
    -1
1001
ACAD_DSTYLE_DIMARC_LENGTH_SYMBOL
1070
   379
1070
     1
  0
DIMSTYLE
105
B54C
330
A
100
AcDbSymbolTableRecord
100
AcDbDimStyleTableRecord
  2
AM_ANSI$7
 70
     0
  4
mm
 41
0.1
 42
0.05
 43
0.5
 44
0.1
 47
0.1
 48
0.1
 78
     7
 79
     2
140
0.24
141
0.0
146
0.71
147
0.06
176
   256
177
   256
178
     2
274
     4
284
     7
340
11
371
    -1
372
    -1
1001
ACAD_DSTYLE_DIMARC_LENGTH_SYMBOL
1070
   379
1070
     1
  0
DIMSTYLE
105
B54D
330
A
100
AcDbSymbolTableRecord
100
AcDbDimStyleTableRecord
  2
AM_ANSI$SF
 70
     0
  4
mm
 41
0.1
 42
0.05
 43
0.5
 44
0.1
 47
0.1
 48
0.1
 75
     1
 76
     1
 78
     7
 79
     2
140
0.12
141
0.0
146
0.71
147
0.06
176
   256
177
   256
178
     2
274
     4
284
     7
340
11
371
    -1
372
    -1
1001
ACAD_DSTYLE_DIMARC_LENGTH_SYMBOL
1070
   379
1070
     1
  0
DIMSTYLE
105
B54E
330
A
100
AcDbSymbolTableRecord
100
AcDbDimStyleTableRecord
  2
AM_ANSI$SH
 70
     0
  4
mm
 41
0.1
 42
0.05
 43
0.5
 44
0.1
 47
0.1
 48
0.1
 75
     1
 76
     1
 78
     7
 79
     2
140
0.12
141
0.0
146
0.71
147
0.06
173
     1
176
   256
177
   256
178
     2
274
     4
284
     7
340
11
343
72
371
    -1
372
    -1
1001
ACAD_DSTYLE_DIMARC_LENGTH_SYMBOL
1070
   379
1070
     1
  0
DIMSTYLE
105
B797
330
A
100
AcDbSymbolTableRecord
100
AcDbDimStyleTableRecord
  2
AM_JIS
 70
     0
  4
"
 41
2.0
 42
1.0
 43
10.0
 44
1.0
 47
0.1
 48
0.1
 73
     0
 74
     0
 77
     3
 78
     8
140
3.0
141
0.0
143
0.0393701
146
0.71
147
1.6
172
     1
176
   256
177
   256
178
     1
271
     2
272
     2
279
     2
284
     8
285
     8
286
     8
340
11
  0
DIMSTYLE
105
D24B
330
A
100
AcDbSymbolTableRecord
100
AcDbDimStyleTableRecord
  2
ME10_DIM_0
 70
     0
 41
2.24
 42
1.0
 44
1.0
 73
     0
 74
     0
 77
     1
 78
     8
140
3.2
147
0.625
172
     1
173
     1
176
     2
177
     2
178
     3
271
     3
340
D244
341
A66
343
A66
344
A66
  0
DIMSTYLE
105
D24C
330
A
100
AcDbSymbolTableRecord
100
AcDbDimStyleTableRecord
  2
ME10_DIM_1
 70
     0
 41
2.24
 42
1.0
 44
1.0
 73
     0
 74
     0
 77
     1
 78
     8
140
3.2
147
0.625
172
     1
173
     1
176
     2
177
     2
178
     3
271
     3
340
D244
341
A66
343
A66
344
A66
  0
DIMSTYLE
105
D24D
330
A
100
AcDbSymbolTableRecord
100
AcDbDimStyleTableRecord
  2
ME10_DIM_2
 70
     0
 41
2.24
 42
1.0
 44
1.0
 73
     0
 74
     0
 77
     1
 78
     8
140
3.2
147
0.625
172
     1
173
     1
176
     2
177
     2
178
     3
271
     3
340
D244
341
A66
343
A66
344
A66
  0
DIMSTYLE
105
D24E
330
A
100
AcDbSymbolTableRecord
100
AcDbDimStyleTableRecord
  2
ME10_DIM_3
 70
     0
 41
2.24
 42
1.0
 44
1.0
 73
     0
 74
     0
 77
     1
 78
     8
140
3.2
147
0.625
172
     1
173
     1
176
     2
177
     2
178
     3
271
     3
340
D244
341
A66
343
A66
344
A66
  0
DIMSTYLE
105
D24F
330
A
100
AcDbSymbolTableRecord
100
AcDbDimStyleTableRecord
  2
ME10_DIM_4
 70
     0
 41
2.24
 42
1.0
 44
1.0
 73
     0
 74
     0
 77
     1
 78
     8
140
3.2
147
0.625
172
     1
173
     1
176
     2
177
     2
178
     3
271
     3
340
D244
341
A66
343
A66
344
A66
  0
DIMSTYLE
105
D250
330
A
100
AcDbSymbolTableRecord
100
AcDbDimStyleTableRecord
  2
ME10_DIM_5
 70
     0
 41
2.24
 42
1.0
 44
1.0
 73
     0
 74
     0
 77
     1
 78
     8
140
3.2
147
0.625
172
     1
173
     1
176
     2
177
     2
178
     3
271
     3
340
D244
341
A66
343
A66
344
A66
  0
DIMSTYLE
105
D251
330
A
100
AcDbSymbolTableRecord
100
AcDbDimStyleTableRecord
  2
ME10_DIM_6
 70
     0
 41
2.24
 42
1.0
 44
1.0
 73
     0
 74
     0
 77
     1
 78
     8
140
3.2
147
0.625
172
     1
173
     1
176
     2
177
     2
178
     3
271
     3
340
D244
341
A66
343
A66
344
A66
  0
DIMSTYLE
105
D252
330
A
100
AcDbSymbolTableRecord
100
AcDbDimStyleTableRecord
  2
ME10_DIM_7
 70
     0
 41
2.24
 42
1.0
 44
1.0
 73
     0
 74
     0
 77
     1
 78
     8
140
3.2
147
0.625
172
     1
173
     1
176
     2
177
     2
178
     3
271
     3
340
D244
341
A66
343
A66
344
A66
  0
DIMSTYLE
105
D253
330
A
100
AcDbSymbolTableRecord
100
AcDbDimStyleTableRecord
  2
ME10_DIM_8
 70
     0
 41
2.24
 42
1.0
 44
1.0
 73
     0
 74
     0
 77
     1
 78
     8
140
3.2
147
0.625
172
     1
173
     1
176
     2
177
     2
178
     3
271
     3
340
D244
341
A66
343
A66
344
A66
  0
DIMSTYLE
105
D254
330
A
100
AcDbSymbolTableRecord
100
AcDbDimStyleTableRecord
  2
ME10_DIM_9
 70
     0
 41
2.24
 42
1.0
 44
1.0
 73
     0
 74
     0
 77
     1
 78
     8
140
3.2
147
0.625
172
     1
173
     1
176
     2
177
     2
178
     3
271
     3
340
D244
341
A66
343
A66
344
A66
  0
DIMSTYLE
105
D255
330
A
100
AcDbSymbolTableRecord
100
AcDbDimStyleTableRecord
  2
ME10_DIM_10
 70
     0
 41
2.24
 42
1.0
 44
1.0
 73
     0
 74
     0
 77
     1
 78
     8
140
3.2
147
0.625
172
     1
173
     1
176
     2
177
     2
178
     3
271
     3
340
D244
341
A66
343
A66
344
A66
  0
DIMSTYLE
105
D256
330
A
100
AcDbSymbolTableRecord
100
AcDbDimStyleTableRecord
  2
ME10_DIM_11
 70
     0
 41
2.24
 42
1.0
 44
1.0
 73
     0
 74
     0
 77
     1
 78
     8
140
3.2
147
0.625
172
     1
173
     1
176
     2
177
     2
178
     3
271
     3
340
D244
341
A66
343
A66
344
A66
  0
DIMSTYLE
105
D257
330
A
100
AcDbSymbolTableRecord
100
AcDbDimStyleTableRecord
  2
ME10_DIM_12
 70
     0
 41
2.24
 42
1.0
 44
1.0
 73
     0
 74
     0
 77
     1
 78
     8
140
3.2
147
0.625
172
     1
173
     1
176
     2
177
     2
178
     3
271
     3
340
D245
341
A66
343
A66
344
A66
  0
DIMSTYLE
105
D258
330
A
100
AcDbSymbolTableRecord
100
AcDbDimStyleTableRecord
  2
ME10_DIM_13
 70
     0
 41
2.24
 42
1.0
 44
1.0
 73
     0
 74
     0
 77
     1
 78
     8
140
3.2
147
0.625
172
     1
173
     1
176
     2
177
     2
178
     3
271
     3
340
D245
341
A66
343
A66
344
A66
  0
DIMSTYLE
105
D259
330
A
100
AcDbSymbolTableRecord
100
AcDbDimStyleTableRecord
  2
ME10_DIM_14
 70
     0
  3
{\Fgdt;n}<>
 41
2.24
 42
1.0
 44
1.0
 73
     0
 74
     0
 77
     1
 78
     8
140
3.2
147
0.625
172
     1
173
     1
176
     2
177
     2
178
     3
271
     3
340
D244
341
A66
343
A66
344
A66
  0
DIMSTYLE
105
D25A
330
A
100
AcDbSymbolTableRecord
100
AcDbDimStyleTableRecord
  2
ME10_DIM_15
 70
     0
  3
(<>)
 41
2.24
 42
1.0
 44
1.0
 73
     0
 74
     0
 77
     1
 78
     8
140
3.2
147
0.625
172
     1
173
     1
176
     2
177
     2
178
     3
271
     2
340
D244
341
A66
343
A66
344
A66
  0
DIMSTYLE
105
D25B
330
A
100
AcDbSymbolTableRecord
100
AcDbDimStyleTableRecord
  2
ME10_DIM_16
 70
     0
  3
(<>)
 41
2.24
 42
1.0
 44
1.0
 73
     0
 74
     0
 77
     1
 78
     8
140
3.2
147
0.625
172
     1
173
     1
176
     2
177
     2
178
     3
271
     2
340
D244
341
A66
343
A66
344
A66
  0
ENDTAB
  0
TABLE
  2
BLOCK_RECORD
  5
1
330
0
100
AcDbSymbolTable
 70
    19
  0
BLOCK_RECORD
  5
1F
102
{ACAD_XDICTIONARY
360
8A
102
}
330
1
100
AcDbSymbolTableRecord
100
AcDbBlockTableRecord
  2
*Model_Space
340
22
  0
BLOCK_RECORD
  5
1B
330
1
100
AcDbSymbolTableRecord
100
AcDbBlockTableRecord
  2
*Paper_Space
340
1E
  0
BLOCK_RECORD
  5
23
330
1
100
AcDbSymbolTableRecord
100
AcDbBlockTableRecord
  2
*Paper_Space0
340
26
  0
BLOCK_RECORD
  5
72
330
1
100
AcDbSymbolTableRecord
100
AcDbBlockTableRecord
  2
GENAXEH
340
0
  0
BLOCK_RECORD
  5
6C4
330
1
100
AcDbSymbolTableRecord
100
AcDbBlockTableRecord
  2
_Dot
340
0
102
{BLKREFS
331
F7DE
331
F7DF
331
F7E7
331
F7E8
331
F7F0
331
F7F1
331
F82A
331
F82B
331
F833
331
F834
331
F857
331
F858
331
F860
331
F861
331
F86B
331
F86C
331
F881
331
F882
331
F88A
331
F88B
331
F893
331
F894
102
}
  0
BLOCK_RECORD
  5
A66
330
1
100
AcDbSymbolTableRecord
100
AcDbBlockTableRecord
  2
_OPEN30
340
0
102
{BLKREFS
331
F83A
331
F83B
102
}
  0
BLOCK_RECORD
  5
F03B
330
1
100
AcDbSymbolTableRecord
100
AcDbBlockTableRecord
  2
*D5
340
0
  0
BLOCK_RECORD
  5
F051
330
1
100
AcDbSymbolTableRecord
100
AcDbBlockTableRecord
  2
*D6
340
0
  0
BLOCK_RECORD
  5
F079
330
1
100
AcDbSymbolTableRecord
100
AcDbBlockTableRecord
  2
*D7
340
0
  0
BLOCK_RECORD
  5
F0AA
330
1
100
AcDbSymbolTableRecord
100
AcDbBlockTableRecord
  2
*D8
340
0
  0
BLOCK_RECORD
  5
F0C0
330
1
100
AcDbSymbolTableRecord
100
AcDbBlockTableRecord
  2
*D9
340
0
  0
BLOCK_RECORD
  5
F0DF
330
1
100
AcDbSymbolTableRecord
100
AcDbBlockTableRecord
  2
*D10
340
0
  0
BLOCK_RECORD
  5
F0F5
330
1
100
AcDbSymbolTableRecord
100
AcDbBlockTableRecord
  2
*D11
340
0
  0
BLOCK_RECORD
  5
F11A
330
1
100
AcDbSymbolTableRecord
100
AcDbBlockTableRecord
  2
*D12
340
0
  0
BLOCK_RECORD
  5
F13F
330
1
100
AcDbSymbolTableRecord
100
AcDbBlockTableRecord
  2
*D13
340
0
  0
BLOCK_RECORD
  5
F155
330
1
100
AcDbSymbolTableRecord
100
AcDbBlockTableRecord
  2
*D14
340
0
  0
BLOCK_RECORD
  5
F16B
330
1
100
AcDbSymbolTableRecord
100
AcDbBlockTableRecord
  2
*D15
340
0
  0
BLOCK_RECORD
  5
F193
330
1
100
AcDbSymbolTableRecord
100
AcDbBlockTableRecord
  2
*D16
340
0
  0
BLOCK_RECORD
  5
F3AD
330
1
100
AcDbSymbolTableRecord
100
AcDbBlockTableRecord
  2
*D17
340
0
  0
BLOCK_RECORD
  5
F3D9
330
1
100
AcDbSymbolTableRecord
100
AcDbBlockTableRecord
  2
GENDOT
340
0
102
{BLKREFS
331
F850
331
F851
102
}
  0
ENDTAB
  0
ENDSEC
  0
SECTION
  2
BLOCKS
  0
BLOCK
  5
20
330
1F
100
AcDbEntity
  8
0
100
AcDbBlockBegin
  2
*Model_Space
 70
     0
 10
0.0
 20
0.0
 30
0.0
  3
*Model_Space
  1

  0
ENDBLK
  5
21
330
1F
100
AcDbEntity
  8
0
100
AcDbBlockEnd
  0
BLOCK
  5
1C
330
1B
100
AcDbEntity
 67
     1
  8
0
100
AcDbBlockBegin
  2
*Paper_Space
 70
     0
 10
0.0
 20
0.0
 30
0.0
  3
*Paper_Space
  1

  0
ENDBLK
  5
1D
330
1B
100
AcDbEntity
 67
     1
  8
0
100
AcDbBlockEnd
  0
BLOCK
  5
24
330
23
100
AcDbEntity
 67
     1
  8
0
100
AcDbBlockBegin
  2
*Paper_Space0
 70
     0
 10
0.0
 20
0.0
 30
0.0
  3
*Paper_Space0
  1

  0
ENDBLK
  5
25
330
23
100
AcDbEntity
 67
     1
  8
0
100
AcDbBlockEnd
  0
BLOCK
  5
74
330
72
100
AcDbEntity
  8
0
100
AcDbBlockBegin
  2
GENAXEH
 70
     0
 10
0.0
 20
0.0
 30
0.0
  3
GENAXEH
  1

  0
LINE
  5
73
330
72
100
AcDbEntity
  8
0
100
AcDbLine
 10
-1.0
 20
0.0
 30
0.0
 11
1.0
 21
0.0
 31
0.0
  0
ENDBLK
  5
75
330
72
100
AcDbEntity
  8
0
100
AcDbBlockEnd
  0
BLOCK
  5
6C7
330
6C4
100
AcDbEntity
  8
0
100
AcDbBlockBegin
  2
_Dot
 70
     0
 10
0.0
 20
0.0
 30
0.0
  3
_Dot
  1

  0
LWPOLYLINE
  5
6C5
330
6C4
100
AcDbEntity
  8
0
  6
ByBlock
 62
     0
100
AcDbPolyline
 90
        2
 70
     1
 43
0.5
 10
-0.25
 20
0.0
 42
1.0
 10
0.25
 20
0.0
 42
1.0
  0
LINE
  5
6C6
330
6C4
100
AcDbEntity
  8
0
  6
ByBlock
 62
     0
370
    -2
100
AcDbLine
 10
-0.5
 20
0.0
 30
0.0
 11
-1.0
 21
0.0
 31
0.0
  0
ENDBLK
  5
6C8
330
6C4
100
AcDbEntity
  8
0
100
AcDbBlockEnd
  0
BLOCK
  5
A6A
330
A66
100
AcDbEntity
  8
0
100
AcDbBlockBegin
  2
_OPEN30
 70
     0
 10
0.0
 20
0.0
 30
0.0
  3
_OPEN30
  1

  0
LINE
  5
A67
330
A66
100
AcDbEntity
  8
0
  6
ByBlock
 62
     0
100
AcDbLine
 10
-1.0
 20
0.26794919
 30
0.0
 11
0.0
 21
0.0
 31
0.0
  0
LINE
  5
A68
330
A66
100
AcDbEntity
  8
0
  6
ByBlock
 62
     0
100
AcDbLine
 10
0.0
 20
0.0
 30
0.0
 11
-1.0
 21
-0.26794919
 31
0.0
  0
LINE
  5
A69
330
A66
100
AcDbEntity
  8
0
  6
ByBlock
 62
     0
100
AcDbLine
 10
0.0
 20
0.0
 30
0.0
 11
-1.0
 21
0.0
 31
0.0
  0
ENDBLK
  5
A6B
330
A66
100
AcDbEntity
  8
0
100
AcDbBlockEnd
  0
BLOCK
  5
F045
330
F03B
100
AcDbEntity
  8
0
100
AcDbBlockBegin
  2
*D5
 70
     1
 10
0.0
 20
0.0
 30
0.0
  3
*D5
  1

  0
LINE
  5
F7DB
330
F03B
100
AcDbEntity
  8
AM_5
100
AcDbLine
 10
52.08455262060957
 20
146.3579535853823
 30
0.0
 11
52.08455262060957
 21
178.3579535853824
 31
0.0
  0
LINE
  5
F7DC
330
F03B
100
AcDbEntity
  8
AM_5
100
AcDbLine
 10
132.0845526206095
 20
143.3579535853823
 30
0.0
 11
132.0845526206095
 21
178.3579535853824
 31
0.0
  0
LINE
  5
F7DD
330
F03B
100
AcDbEntity
  8
AM_5
100
AcDbLine
 10
53.08455262060957
 20
177.3579535853824
 30
0.0
 11
131.0845526206096
 21
177.3579535853824
 31
0.0
  0
INSERT
  5
F7DE
330
F03B
100
AcDbEntity
  8
AM_5
100
AcDbBlockReference
  2
_Dot
 10
52.08455262060957
 20
177.3579535853824
 30
0.0
 50
180.0
  0
INSERT
  5
F7DF
330
F03B
100
AcDbEntity
  8
AM_5
100
AcDbBlockReference
  2
_Dot
 10
132.0845526206095
 20
177.3579535853824
 30
0.0
  0
MTEXT
  5
F7E0
330
F03B
100
AcDbEntity
  8
AM_5
 62
     2
100
AcDbMText
 10
92.08455262060956
 20
180.4579535853824
 30
0.0
 40
3.200000000000001
 41
0.0
 71
     5
 72
     1
  1
80
 73
     1
 44
1.0
1001
ACAD
1000
MTEXTBEGIN
1070
    73
1070
     1
1070
    44
1040
1.0
1070
    74
1070
     0
1000
MTEXTEND
  0
POINT
  5
F7E1
330
F03B
100
AcDbEntity
  8
Defpoints
 62
     0
100
AcDbPoint
 10
52.08455262060957
 20
145.3579535853823
 30
0.0
  0
POINT
  5
F7E2
330
F03B
100
AcDbEntity
  8
Defpoints
 62
     0
100
AcDbPoint
 10
132.0845526206095
 20
142.3579535853823
 30
0.0
  0
POINT
  5
F7E3
330
F03B
100
AcDbEntity
  8
Defpoints
 62
     0
100
AcDbPoint
 10
132.0845526206095
 20
177.3579535853824
 30
0.0
  0
ENDBLK
  5
F046
330
F03B
100
AcDbEntity
  8
0
100
AcDbBlockEnd
  0
BLOCK
  5
F05B
330
F051
100
AcDbEntity
  8
0
100
AcDbBlockBegin
  2
*D6
 70
     1
 10
0.0
 20
0.0
 30
0.0
  3
*D6
  1

  0
LINE
  5
F7E4
330
F051
100
AcDbEntity
  8
AM_5
100
AcDbLine
 10
59.08455262060957
 20
124.5079535853822
 30
0.0
 11
59.08455262060957
 21
168.3579535853821
 31
0.0
  0
LINE
  5
F7E5
330
F051
100
AcDbEntity
  8
AM_5
100
AcDbLine
 10
125.0845526206096
 20
124.5079535853822
 30
0.0
 11
125.0845526206096
 21
168.3579535853821
 31
0.0
  0
LINE
  5
F7E6
330
F051
100
AcDbEntity
  8
AM_5
100
AcDbLine
 10
60.08455262060957
 20
167.3579535853822
 30
0.0
 11
124.0845526206096
 21
167.3579535853822
 31
0.0
  0
INSERT
  5
F7E7
330
F051
100
AcDbEntity
  8
AM_5
100
AcDbBlockReference
  2
_Dot
 10
59.08455262060957
 20
167.3579535853822
 30
0.0
 50
180.0
  0
INSERT
  5
F7E8
330
F051
100
AcDbEntity
  8
AM_5
100
AcDbBlockReference
  2
_Dot
 10
125.0845526206096
 20
167.3579535853822
 30
0.0
  0
MTEXT
  5
F7E9
330
F051
100
AcDbEntity
  8
AM_5
 62
     2
100
AcDbMText
 10
92.08455262060956
 20
170.4579535853822
 30
0.0
 40
3.200000000000001
 41
0.0
 71
     5
 72
     1
  1
66
 73
     1
 44
1.0
1001
ACAD
1000
MTEXTBEGIN
1070
    73
1070
     1
1070
    44
1040
1.0
1070
    74
1070
     0
1000
MTEXTEND
  0
POINT
  5
F7EA
330
F051
100
AcDbEntity
  8
Defpoints
 62
     0
100
AcDbPoint
 10
59.08455262060957
 20
123.5079535853822
 30
0.0
  0
POINT
  5
F7EB
330
F051
100
AcDbEntity
  8
Defpoints
 62
     0
100
AcDbPoint
 10
125.0845526206096
 20
123.5079535853822
 30
0.0
  0
POINT
  5
F7EC
330
F051
100
AcDbEntity
  8
Defpoints
 62
     0
100
AcDbPoint
 10
125.0845526206096
 20
167.3579535853822
 30
0.0
  0
ENDBLK
  5
F05C
330
F051
100
AcDbEntity
  8
0
100
AcDbBlockEnd
  0
BLOCK
  5
F083
330
F079
100
AcDbEntity
  8
0
100
AcDbBlockBegin
  2
*D7
 70
     1
 10
0.0
 20
0.0
 30
0.0
  3
*D7
  1

  0
LINE
  5
F7ED
330
F079
100
AcDbEntity
  8
AM_5
100
AcDbLine
 10
74.08455262060951
 20
139.5079535853822
 30
0.0
 11
74.08455262060951
 21
158.3579535853819
 31
0.0
  0
LINE
  5
F7EE
330
F079
100
AcDbEntity
  8
AM_5
100
AcDbLine
 10
110.0845526206095
 20
139.5079535853822
 30
0.0
 11
110.0845526206095
 21
158.3579535853819
 31
0.0
  0
LINE
  5
F7EF
330
F079
100
AcDbEntity
  8
AM_5
100
AcDbLine
 10
75.08455262060952
 20
157.3579535853819
 30
0.0
 11
109.0845526206095
 21
157.3579535853819
 31
0.0
  0
INSERT
  5
F7F0
330
F079
100
AcDbEntity
  8
AM_5
100
AcDbBlockReference
  2
_Dot
 10
74.08455262060951
 20
157.3579535853819
 30
0.0
 50
180.0
  0
INSERT
  5
F7F1
330
F079
100
AcDbEntity
  8
AM_5
100
AcDbBlockReference
  2
_Dot
 10
110.0845526206095
 20
157.3579535853819
 30
0.0
  0
MTEXT
  5
F7F2
330
F079
100
AcDbEntity
  8
AM_5
 62
     2
100
AcDbMText
 10
92.08455262060954
 20
160.4579535853819
 30
0.0
 40
3.200000000000001
 41
0.0
 71
     5
 72
     1
  1
36
 73
     1
 44
1.0
1001
ACAD
1000
MTEXTBEGIN
1070
    73
1070
     1
1070
    44
1040
1.0
1070
    74
1070
     0
1000
MTEXTEND
  0
POINT
  5
F7F3
330
F079
100
AcDbEntity
  8
Defpoints
 62
     0
100
AcDbPoint
 10
74.08455262060951
 20
138.5079535853822
 30
0.0
  0
POINT
  5
F7F4
330
F079
100
AcDbEntity
  8
Defpoints
 62
     0
100
AcDbPoint
 10
110.0845526206095
 20
138.5079535853822
 30
0.0
  0
POINT
  5
F7F5
330
F079
100
AcDbEntity
  8
Defpoints
 62
     0
100
AcDbPoint
 10
110.0845526206095
 20
157.3579535853819
 30
0.0
  0
ENDBLK
  5
F084
330
F079
100
AcDbEntity
  8
0
100
AcDbBlockEnd
  0
BLOCK
  5
F0B4
330
F0AA
100
AcDbEntity
  8
0
100
AcDbBlockBegin
  2
*D8
 70
     1
 10
0.0
 20
0.0
 30
0.0
  3
*D8
  1

  0
LINE
  5
F890
330
F0AA
100
AcDbEntity
  8
AM_5
100
AcDbLine
 10
133.0845526206095
 20
140.3579535853823
 30
0.0
 11
153.0845526206095
 21
140.3579535853823
 31
0.0
  0
LINE
  5
F891
330
F0AA
100
AcDbEntity
  8
AM_5
100
AcDbLine
 10
133.0845526206095
 20
96.3579535853823
 30
0.0
 11
153.0845526206095
 21
96.3579535853823
 31
0.0
  0
LINE
  5
F892
330
F0AA
100
AcDbEntity
  8
AM_5
100
AcDbLine
 10
152.0845526206096
 20
139.3579535853823
 30
0.0
 11
152.0845526206096
 21
97.35795358538229
 31
0.0
  0
INSERT
  5
F893
330
F0AA
100
AcDbEntity
  8
AM_5
100
AcDbBlockReference
  2
_Dot
 10
152.0845526206096
 20
140.3579535853823
 30
0.0
 50
90.0
  0
INSERT
  5
F894
330
F0AA
100
AcDbEntity
  8
AM_5
100
AcDbBlockReference
  2
_Dot
 10
152.0845526206096
 20
96.3579535853823
 30
0.0
 50
270.0
  0
MTEXT
  5
F895
330
F0AA
100
AcDbEntity
  8
AM_5
 62
     2
100
AcDbMText
 10
148.9845526206095
 20
118.3579535853823
 30
0.0
 40
3.200000000000001
 41
0.0
 71
     5
 72
     1
  1
44
 11
0.0000000000000001
 21
1.0
 31
0.0
 73
     1
 44
1.0
1001
ACAD
1000
MTEXTBEGIN
1070
    73
1070
     1
1070
    44
1040
1.0
1070
    74
1070
     0
1000
MTEXTEND
  0
POINT
  5
F896
330
F0AA
100
AcDbEntity
  8
Defpoints
 62
     0
100
AcDbPoint
 10
132.0845526206095
 20
140.3579535853823
 30
0.0
  0
POINT
  5
F897
330
F0AA
100
AcDbEntity
  8
Defpoints
 62
     0
100
AcDbPoint
 10
132.0845526206095
 20
96.3579535853823
 30
0.0
  0
POINT
  5
F898
330
F0AA
100
AcDbEntity
  8
Defpoints
 62
     0
100
AcDbPoint
 10
152.0845526206096
 20
96.3579535853823
 30
0.0
  0
ENDBLK
  5
F0B5
330
F0AA
100
AcDbEntity
  8
0
100
AcDbBlockEnd
  0
BLOCK
  5
F0CA
330
F0C0
100
AcDbEntity
  8
0
100
AcDbBlockBegin
  2
*D9
 70
     1
 10
0.0
 20
0.0
 30
0.0
  3
*D9
  1

  0
LINE
  5
F887
330
F0C0
100
AcDbEntity
  8
AM_5
100
AcDbLine
 10
103.8845526206095
 20
100.9579535853833
 30
0.0
 11
143.0845526206095
 21
100.9579535853833
 31
0.0
  0
LINE
  5
F888
330
F0C0
100
AcDbEntity
  8
AM_5
100
AcDbLine
 10
103.8845526206095
 20
135.7579535853813
 30
0.0
 11
143.0845526206095
 21
135.7579535853813
 31
0.0
  0
LINE
  5
F889
330
F0C0
100
AcDbEntity
  8
AM_5
100
AcDbLine
 10
142.0845526206095
 20
101.9579535853833
 30
0.0
 11
142.0845526206095
 21
134.7579535853813
 31
0.0
  0
INSERT
  5
F88A
330
F0C0
100
AcDbEntity
  8
AM_5
100
AcDbBlockReference
  2
_Dot
 10
142.0845526206095
 20
100.9579535853833
 30
0.0
 50
270.0
  0
INSERT
  5
F88B
330
F0C0
100
AcDbEntity
  8
AM_5
100
AcDbBlockReference
  2
_Dot
 10
142.0845526206095
 20
135.7579535853813
 30
0.0
 50
90.0
  0
MTEXT
  5
F88C
330
F0C0
100
AcDbEntity
  8
AM_5
 62
     2
100
AcDbMText
 10
138.9845526206095
 20
118.3579535853823
 30
0.0
 40
3.200000000000001
 41
0.0
 71
     5
 72
     1
  1
34.8
 11
0.0000000000000001
 21
1.0
 31
0.0
 73
     1
 44
1.0
1001
ACAD
1000
MTEXTBEGIN
1070
    73
1070
     1
1070
    44
1040
1.0
1070
    74
1070
     0
1000
MTEXTEND
  0
POINT
  5
F88D
330
F0C0
100
AcDbEntity
  8
Defpoints
 62
     0
100
AcDbPoint
 10
102.8845526206095
 20
100.9579535853833
 30
0.0
  0
POINT
  5
F88E
330
F0C0
100
AcDbEntity
  8
Defpoints
 62
     0
100
AcDbPoint
 10
102.8845526206095
 20
135.7579535853813
 30
0.0
  0
POINT
  5
F88F
330
F0C0
100
AcDbEntity
  8
Defpoints
 62
     0
100
AcDbPoint
 10
142.0845526206095
 20
135.7579535853813
 30
0.0
  0
ENDBLK
  5
F0CB
330
F0C0
100
AcDbEntity
  8
0
100
AcDbBlockEnd
  0
BLOCK
  5
F0E9
330
F0DF
100
AcDbEntity
  8
0
100
AcDbBlockBegin
  2
*D10
 70
     1
 10
0.0
 20
0.0
 30
0.0
  3
*D10
  1

  0
LINE
  5
F85D
330
F0DF
100
AcDbEntity
  8
AM_5
100
AcDbLine
 10
51.08455262060957
 20
145.3579535853823
 30
0.0
 11
31.08455262060953
 21
145.3579535853823
 31
0.0
  0
LINE
  5
F85E
330
F0DF
100
AcDbEntity
  8
AM_5
100
AcDbLine
 10
51.08455262060957
 20
91.3579535853823
 30
0.0
 11
31.08455262060952
 21
91.3579535853823
 31
0.0
  0
LINE
  5
F85F
330
F0DF
100
AcDbEntity
  8
AM_5
100
AcDbLine
 10
32.08455262060953
 20
144.3579535853823
 30
0.0
 11
32.08455262060951
 21
92.35795358538229
 31
0.0
  0
INSERT
  5
F860
330
F0DF
100
AcDbEntity
  8
AM_5
100
AcDbBlockReference
  2
_Dot
 10
32.08455262060953
 20
145.3579535853823
 30
0.0
 50
90.0
  0
INSERT
  5
F861
330
F0DF
100
AcDbEntity
  8
AM_5
100
AcDbBlockReference
  2
_Dot
 10
32.08455262060951
 20
91.3579535853823
 30
0.0
 50
270.0
  0
MTEXT
  5
F862
330
F0DF
100
AcDbEntity
  8
AM_5
 62
     2
100
AcDbMText
 10
28.9845526206095
 20
118.3579535853823
 30
0.0
 40
3.200000000000001
 41
0.0
 71
     5
 72
     1
  1
54
 11
0.0000000000000001
 21
1.0
 31
0.0
 73
     1
 44
1.0
1001
ACAD
1000
MTEXTBEGIN
1070
    73
1070
     1
1070
    44
1040
1.0
1070
    74
1070
     0
1000
MTEXTEND
  0
POINT
  5
F863
330
F0DF
100
AcDbEntity
  8
Defpoints
 62
     0
100
AcDbPoint
 10
52.08455262060957
 20
145.3579535853823
 30
0.0
  0
POINT
  5
F864
330
F0DF
100
AcDbEntity
  8
Defpoints
 62
     0
100
AcDbPoint
 10
52.08455262060957
 20
91.3579535853823
 30
0.0
  0
POINT
  5
F865
330
F0DF
100
AcDbEntity
  8
Defpoints
 62
     0
100
AcDbPoint
 10
32.08455262060951
 20
91.3579535853823
 30
0.0
  0
ENDBLK
  5
F0EA
330
F0DF
100
AcDbEntity
  8
0
100
AcDbBlockEnd
  0
BLOCK
  5
F101
330
F0F5
100
AcDbEntity
  8
0
100
AcDbBlockBegin
  2
*D11
 70
     1
 10
0.0
 20
0.0
 30
0.0
  3
*D11
  1

  0
LINE
  5
F866
330
F0F5
100
AcDbEntity
  8
AM_5
100
AcDbLine
 10
51.08455262060957
 20
145.3579535853823
 30
0.0
 11
31.08455262060946
 21
145.3579535853823
 31
0.0
  0
LINE
  5
F867
330
F0F5
100
AcDbEntity
  8
AM_5
100
AcDbLine
 10
85.78455262060847
 20
146.3579535853843
 30
0.0
 11
31.08455262060946
 21
146.3579535853843
 31
0.0
  0
LINE
  5
F868
330
F0F5
100
AcDbEntity
  8
AM_5
100
AcDbLine
 10
32.08455262060946
 20
144.3579535853823
 30
0.0
 11
32.08455262060945
 21
143.3579535853823
 31
0.0
  0
LINE
  5
F869
330
F0F5
100
AcDbEntity
  8
AM_5
100
AcDbLine
 10
32.08455262060946
 20
147.3579535853843
 30
0.0
 11
32.08455262060946
 21
157.6299535853843
 31
0.0
  0
LINE
  5
F86A
330
F0F5
100
AcDbEntity
  8
AM_5
100
AcDbLine
 10
32.08455262060946
 20
145.3579535853823
 30
0.0
 11
32.08455262060946
 21
146.3579535853843
 31
0.0
  0
INSERT
  5
F86B
330
F0F5
100
AcDbEntity
  8
AM_5
100
AcDbBlockReference
  2
_Dot
 10
32.08455262060946
 20
145.3579535853823
 30
0.0
 50
90.0
  0
INSERT
  5
F86C
330
F0F5
100
AcDbEntity
  8
AM_5
100
AcDbBlockReference
  2
_Dot
 10
32.08455262060946
 20
146.3579535853843
 30
0.0
 50
270.0
  0
MTEXT
  5
F86D
330
F0F5
100
AcDbEntity
  8
AM_5
 62
     2
100
AcDbMText
 10
28.98455262060943
 20
152.9939535853843
 30
0.0
 40
3.200000000000001
 41
0.0
 71
     5
 72
     1
  1
1以下
 11
0.0000000000000001
 21
1.0
 31
0.0
 73
     1
 44
1.0
1001
ACAD
1000
MTEXTBEGIN
1070
    73
1070
     1
1070
    44
1040
1.0
1070
    74
1070
     0
1000
MTEXTEND
  0
POINT
  5
F86E
330
F0F5
100
AcDbEntity
  8
Defpoints
 62
     0
100
AcDbPoint
 10
52.08455262060957
 20
145.3579535853823
 30
0.0
  0
POINT
  5
F86F
330
F0F5
100
AcDbEntity
  8
Defpoints
 62
     0
100
AcDbPoint
 10
86.78455262060849
 20
146.3579535853843
 30
0.0
  0
POINT
  5
F870
330
F0F5
100
AcDbEntity
  8
Defpoints
 62
     0
100
AcDbPoint
 10
32.08455262060946
 20
146.3579535853843
 30
0.0
  0
ENDBLK
  5
F102
330
F0F5
100
AcDbEntity
  8
0
100
AcDbBlockEnd
  0
BLOCK
  5
F126
330
F11A
100
AcDbEntity
  8
0
100
AcDbBlockBegin
  2
*D12
 70
     1
 10
0.0
 20
0.0
 30
0.0
  3
*D12
  1

  0
LINE
  5
F87C
330
F11A
100
AcDbEntity
  8
AM_5
100
AcDbLine
 10
51.08455262060957
 20
91.3579535853823
 30
0.0
 11
31.08455262060952
 21
91.3579535853823
 31
0.0
  0
LINE
  5
F87D
330
F11A
100
AcDbEntity
  8
AM_5
100
AcDbLine
 10
85.78455262060847
 20
90.35795358538029
 30
0.0
 11
31.08455262060952
 21
90.35795358538031
 31
0.0
  0
LINE
  5
F87E
330
F11A
100
AcDbEntity
  8
AM_5
100
AcDbLine
 10
32.08455262060951
 20
92.35795358538229
 30
0.0
 11
32.08455262060951
 21
93.35795358538229
 31
0.0
  0
LINE
  5
F87F
330
F11A
100
AcDbEntity
  8
AM_5
100
AcDbLine
 10
32.08455262060951
 20
89.3579535853803
 30
0.0
 11
32.08455262060951
 21
79.08595358538029
 31
0.0
  0
LINE
  5
F880
330
F11A
100
AcDbEntity
  8
AM_5
100
AcDbLine
 10
32.08455262060951
 20
91.3579535853823
 30
0.0
 11
32.08455262060951
 21
90.35795358538029
 31
0.0
  0
INSERT
  5
F881
330
F11A
100
AcDbEntity
  8
AM_5
100
AcDbBlockReference
  2
_Dot
 10
32.08455262060951
 20
91.3579535853823
 30
0.0
 50
270.0
  0
INSERT
  5
F882
330
F11A
100
AcDbEntity
  8
AM_5
100
AcDbBlockReference
  2
_Dot
 10
32.08455262060951
 20
90.35795358538029
 30
0.0
 50
90.0
  0
MTEXT
  5
F883
330
F11A
100
AcDbEntity
  8
AM_5
 62
     2
100
AcDbMText
 10
28.9845526206095
 20
83.72195358538032
 30
0.0
 40
3.200000000000001
 41
0.0
 71
     5
 72
     1
  1
1以下
 11
0.0000000000000001
 21
1.0
 31
0.0
 73
     1
 44
1.0
1001
ACAD
1000
MTEXTBEGIN
1070
    73
1070
     1
1070
    44
1040
1.0
1070
    74
1070
     0
1000
MTEXTEND
  0
POINT
  5
F884
330
F11A
100
AcDbEntity
  8
Defpoints
 62
     0
100
AcDbPoint
 10
52.08455262060957
 20
91.3579535853823
 30
0.0
  0
POINT
  5
F885
330
F11A
100
AcDbEntity
  8
Defpoints
 62
     0
100
AcDbPoint
 10
86.78455262060849
 20
90.35795358538029
 30
0.0
  0
POINT
  5
F886
330
F11A
100
AcDbEntity
  8
Defpoints
 62
     0
100
AcDbPoint
 10
32.08455262060951
 20
90.35795358538029
 30
0.0
  0
ENDBLK
  5
F127
330
F11A
100
AcDbEntity
  8
0
100
AcDbBlockEnd
  0
BLOCK
  5
F149
330
F13F
100
AcDbEntity
  8
0
100
AcDbBlockBegin
  2
*D13
 70
     1
 10
0.0
 20
0.0
 30
0.0
  3
*D13
  1

  0
LINE
  5
F827
330
F13F
100
AcDbEntity
  8
AM_5
100
AcDbLine
 10
133.0845526206095
 20
30.55276182697586
 30
0.0
 11
145.0845526206095
 21
30.55276182697585
 31
0.0
  0
LINE
  5
F828
330
F13F
100
AcDbEntity
  8
AM_5
100
AcDbLine
 10
136.0845526206095
 20
43.55276182697582
 30
0.0
 11
145.0845526206095
 21
43.55276182697582
 31
0.0
  0
LINE
  5
F829
330
F13F
100
AcDbEntity
  8
AM_5
100
AcDbLine
 10
144.0845526206095
 20
31.55276182697585
 30
0.0
 11
144.0845526206095
 21
42.55276182697581
 31
0.0
  0
INSERT
  5
F82A
330
F13F
100
AcDbEntity
  8
AM_5
100
AcDbBlockReference
  2
_Dot
 10
144.0845526206095
 20
30.55276182697585
 30
0.0
 50
270.0
  0
INSERT
  5
F82B
330
F13F
100
AcDbEntity
  8
AM_5
100
AcDbBlockReference
  2
_Dot
 10
144.0845526206095
 20
43.55276182697582
 30
0.0
 50
90.0
  0
MTEXT
  5
F82C
330
F13F
100
AcDbEntity
  8
AM_5
 62
     2
100
AcDbMText
 10
140.9845526206095
 20
37.05276182697586
 30
0.0
 40
3.200000000000001
 41
0.0
 71
     5
 72
     1
  1
13
 11
0.0000000000000001
 21
1.0
 31
0.0
 73
     1
 44
1.0
1001
ACAD
1000
MTEXTBEGIN
1070
    73
1070
     1
1070
    44
1040
1.0
1070
    74
1070
     0
1000
MTEXTEND
  0
POINT
  5
F82D
330
F13F
100
AcDbEntity
  8
Defpoints
 62
     0
100
AcDbPoint
 10
132.0845526206095
 20
30.55276182697586
 30
0.0
  0
POINT
  5
F82E
330
F13F
100
AcDbEntity
  8
Defpoints
 62
     0
100
AcDbPoint
 10
135.0845526206095
 20
43.55276182697582
 30
0.0
  0
POINT
  5
F82F
330
F13F
100
AcDbEntity
  8
Defpoints
 62
     0
100
AcDbPoint
 10
144.0845526206095
 20
43.55276182697582
 30
0.0
  0
ENDBLK
  5
F14A
330
F13F
100
AcDbEntity
  8
0
100
AcDbBlockEnd
  0
BLOCK
  5
F15F
330
F155
100
AcDbEntity
  8
0
100
AcDbBlockBegin
  2
*D14
 70
     1
 10
0.0
 20
0.0
 30
0.0
  3
*D14
  1

  0
LINE
  5
F830
330
F155
100
AcDbEntity
  8
AM_5
100
AcDbLine
 10
133.0845526206095
 20
30.55276182697586
 30
0.0
 11
155.0845526206094
 21
30.55276182697585
 31
0.0
  0
LINE
  5
F831
330
F155
100
AcDbEntity
  8
AM_5
100
AcDbLine
 10
93.08455262060958
 20
55.55276182697565
 30
0.0
 11
155.0845526206094
 21
55.55276182697563
 31
0.0
  0
LINE
  5
F832
330
F155
100
AcDbEntity
  8
AM_5
100
AcDbLine
 10
154.0845526206094
 20
31.55276182697585
 30
0.0
 11
154.0845526206094
 21
54.55276182697563
 31
0.0
  0
INSERT
  5
F833
330
F155
100
AcDbEntity
  8
AM_5
100
AcDbBlockReference
  2
_Dot
 10
154.0845526206094
 20
30.55276182697585
 30
0.0
 50
270.0
  0
INSERT
  5
F834
330
F155
100
AcDbEntity
  8
AM_5
100
AcDbBlockReference
  2
_Dot
 10
154.0845526206094
 20
55.55276182697563
 30
0.0
 50
90.0
  0
MTEXT
  5
F835
330
F155
100
AcDbEntity
  8
AM_5
 62
     2
100
AcDbMText
 10
150.9845526206094
 20
43.05276182697577
 30
0.0
 40
3.200000000000001
 41
0.0
 71
     5
 72
     1
  1
25
 11
0.0000000000000001
 21
1.0
 31
0.0
 73
     1
 44
1.0
1001
ACAD
1000
MTEXTBEGIN
1070
    73
1070
     1
1070
    44
1040
1.0
1070
    74
1070
     0
1000
MTEXTEND
  0
POINT
  5
F836
330
F155
100
AcDbEntity
  8
Defpoints
 62
     0
100
AcDbPoint
 10
132.0845526206095
 20
30.55276182697586
 30
0.0
  0
POINT
  5
F837
330
F155
100
AcDbEntity
  8
Defpoints
 62
     0
100
AcDbPoint
 10
92.08455262060956
 20
55.55276182697565
 30
0.0
  0
POINT
  5
F838
330
F155
100
AcDbEntity
  8
Defpoints
 62
     0
100
AcDbPoint
 10
154.0845526206094
 20
55.55276182697563
 30
0.0
  0
ENDBLK
  5
F160
330
F155
100
AcDbEntity
  8
0
100
AcDbBlockEnd
  0
BLOCK
  5
F175
330
F16B
100
AcDbEntity
  8
0
100
AcDbBlockBegin
  2
*D15
 70
     1
 10
0.0
 20
0.0
 30
0.0
  3
*D15
  1

  0
ARC
  5
F839
330
F16B
100
AcDbEntity
  8
AM_5
100
AcDbCircle
 10
90.57548513555914
 20
43.55276182697574
 30
0.0
 40
21.51222818062056
100
AcDbArc
 50
2.663645020419395
 51
177.3363549795803
  0
INSERT
  5
F83A
330
F16B
100
AcDbEntity
  8
AM_5
100
AcDbBlockReference
  2
_OPEN30
 10
112.0877133161797
 20
43.55276182697574
 30
0.0
 50
271.3318225102097
  0
INSERT
  5
F83B
330
F16B
100
AcDbEntity
  8
AM_5
100
AcDbBlockReference
  2
_OPEN30
 10
69.06325695493859
 20
43.55276182697586
 30
0.0
 50
268.66817748979
  0
MTEXT
  5
F83C
330
F16B
100
AcDbEntity
  8
AM_5
 62
     2
100
AcDbMText
 10
90.5754851355592
 20
68.31499000759629
 30
0.0
 40
3.5
 41
0.0
 71
     5
 72
     1
  1
180\U+00B0（動作範囲）
 73
     1
 44
1.0
1001
ACAD
1000
MTEXTBEGIN
1070
    73
1070
     1
1070
    44
1040
1.0
1070
    74
1070
     0
1000
MTEXTEND
  0
POINT
  5
F83D
330
F16B
100
AcDbEntity
  8
Defpoints
 62
     0
100
AcDbPoint
 10
101.3315992258694
 20
62.18289792340062
 30
0.0
  0
POINT
  5
F83E
330
F16B
100
AcDbEntity
  8
Defpoints
 62
     0
100
AcDbPoint
 10
90.57548513555914
 20
43.55276182697574
 30
0.0
  0
POINT
  5
F83F
330
F16B
100
AcDbEntity
  8
Defpoints
 62
     0
100
AcDbPoint
 10
65.75961882506843
 20
43.55276182697588
 30
0.0
  0
POINT
  5
F840
330
F16B
100
AcDbEntity
  8
Defpoints
 62
     0
100
AcDbPoint
 10
90.57548513555914
 20
43.55276182697574
 30
0.0
  0
POINT
  5
F841
330
F16B
100
AcDbEntity
  8
Defpoints
 62
     0
100
AcDbPoint
 10
86.84994402098144
 20
43.55276182697574
 30
0.0
  0
ENDBLK
  5
F176
330
F16B
100
AcDbEntity
  8
0
100
AcDbBlockEnd
  0
BLOCK
  5
F19D
330
F193
100
AcDbEntity
  8
0
100
AcDbBlockBegin
  2
*D16
 70
     1
 10
0.0
 20
0.0
 30
0.0
  3
*D16
  1

  0
LINE
  5
F854
330
F193
100
AcDbEntity
  8
AM_5
100
AcDbLine
 10
67.93455262060965
 20
133.3579535853823
 30
0.0
 11
41.08455262060946
 21
133.3579535853824
 31
0.0
  0
LINE
  5
F855
330
F193
100
AcDbEntity
  8
AM_5
100
AcDbLine
 10
67.93455262060965
 20
103.3579535853823
 30
0.0
 11
41.08455262060945
 21
103.3579535853823
 31
0.0
  0
LINE
  5
F856
330
F193
100
AcDbEntity
  8
AM_5
100
AcDbLine
 10
42.08455262060946
 20
132.3579535853824
 30
0.0
 11
42.08455262060946
 21
104.3579535853823
 31
0.0
  0
INSERT
  5
F857
330
F193
100
AcDbEntity
  8
AM_5
100
AcDbBlockReference
  2
_Dot
 10
42.08455262060946
 20
133.3579535853824
 30
0.0
 50
90.0
  0
INSERT
  5
F858
330
F193
100
AcDbEntity
  8
AM_5
100
AcDbBlockReference
  2
_Dot
 10
42.08455262060946
 20
103.3579535853823
 30
0.0
 50
270.0
  0
MTEXT
  5
F859
330
F193
100
AcDbEntity
  8
AM_5
 62
     2
100
AcDbMText
 10
38.98455262060944
 20
118.3579535853823
 30
0.0
 40
3.200000000000001
 41
0.0
 71
     5
 72
     1
  1
30
 11
0.0000000000000001
 21
1.0
 31
0.0
 73
     1
 44
1.0
1001
ACAD
1000
MTEXTBEGIN
1070
    73
1070
     1
1070
    44
1040
1.0
1070
    74
1070
     0
1000
MTEXTEND
  0
POINT
  5
F85A
330
F193
100
AcDbEntity
  8
Defpoints
 62
     0
100
AcDbPoint
 10
68.93455262060965
 20
133.3579535853823
 30
0.0
  0
POINT
  5
F85B
330
F193
100
AcDbEntity
  8
Defpoints
 62
     0
100
AcDbPoint
 10
68.93455262060965
 20
103.3579535853823
 30
0.0
  0
POINT
  5
F85C
330
F193
100
AcDbEntity
  8
Defpoints
 62
     0
100
AcDbPoint
 10
42.08455262060946
 20
103.3579535853823
 30
0.0
  0
ENDBLK
  5
F19E
330
F193
100
AcDbEntity
  8
0
100
AcDbBlockEnd
  0
BLOCK
  5
F3B6
330
F3AD
100
AcDbEntity
  8
0
100
AcDbBlockBegin
  2
*D17
 70
     1
 10
0.0
 20
0.0
 30
0.0
  3
*D17
  1

  0
LINE
  5
F84B
330
F3AD
100
AcDbEntity
  8
AM_5
100
AcDbLine
 10
47.71156021304526
 20
80.75043723272756
 30
0.0
 11
63.12989354637795
 21
80.75043723272756
 31
0.0
  0
LINE
  5
F84C
330
F3AD
100
AcDbEntity
  8
AM_5
100
AcDbLine
 10
63.12989354637795
 20
80.75043723272756
 30
0.0
 11
72.05686414944207
 21
99.17334136154421
 31
0.0
  0
LINE
  5
F84D
330
F3AD
100
AcDbEntity
  8
AM_5
100
AcDbLine
 10
76.11224109177697
 20
107.5425658092203
 30
0.0
 11
76.9843651653974
 21
109.3423990237743
 31
0.0
  0
MTEXT
  5
F84E
330
F3AD
100
AcDbEntity
  8
AM_5
 62
     2
100
AcDbMText
 10
54.01156021304526
 20
84.00043723272757
 30
0.0
 40
3.5
 41
0.0
 71
     5
 72
     1
  1
6-\U+22055.3
 73
     1
 44
1.0
1001
ACAD
1000
MTEXTBEGIN
1070
    73
1070
     1
1070
    44
1040
1.0
1070
    74
1070
     0
1000
MTEXTEND
  0
LINE
  5
F84F
330
F3AD
100
AcDbEntity
  8
AM_5
100
AcDbLine
 10
75.24011701815658
 20
105.7427325946663
 30
0.0
 11
72.92898822306248
 21
100.9731745760982
 31
0.0
  0
INSERT
  5
F850
330
F3AD
100
AcDbEntity
  8
AM_5
100
AcDbBlockReference
  2
GENDOT
 10
75.24011701815658
 20
105.7427325946663
 30
0.0
 41
2.0
 42
2.0
 43
2.0
 50
244.1471077999993
  0
INSERT
  5
F851
330
F3AD
100
AcDbEntity
  8
AM_5
100
AcDbBlockReference
  2
GENDOT
 10
72.92898822306248
 20
100.9731745760982
 30
0.0
 41
2.0
 42
2.0
 43
2.0
 50
64.14710779999926
  0
POINT
  5
F852
330
F3AD
100
AcDbEntity
  8
Defpoints
 62
     0
100
AcDbPoint
 10
72.92898822306248
 20
100.9731745760982
 30
0.0
  0
POINT
  5
F853
330
F3AD
100
AcDbEntity
  8
Defpoints
 62
     0
100
AcDbPoint
 10
75.24011701815658
 20
105.7427325946663
 30
0.0
  0
ENDBLK
  5
F3B7
330
F3AD
100
AcDbEntity
  8
0
100
AcDbBlockEnd
  0
BLOCK
  5
F3DC
330
F3D9
100
AcDbEntity
  8
0
100
AcDbBlockBegin
  2
GENDOT
 70
     0
 10
0.0
 20
0.0
 30
0.0
  3
GENDOT
  1

  0
LINE
  5
F3DA
330
F3D9
100
AcDbEntity
  8
0
100
AcDbLine
 10
0.0
 20
0.0
 30
0.0
 11
-1.0
 21
0.0
 31
0.0
  0
LWPOLYLINE
  5
F3DB
330
F3D9
100
AcDbEntity
  8
0
100
AcDbPolyline
 90
        2
 70
     1
 43
0.25
 10
-0.125
 20
0.0
 42
1.0
 10
0.125
 20
0.0
 42
1.0
  0
ENDBLK
  5
F3DD
330
F3D9
100
AcDbEntity
  8
0
100
AcDbBlockEnd
  0
ENDSEC
  0
SECTION
  2
ENTITIES
  0
LINE
  5
B6A2
330
1F
100
AcDbEntity
  8
AM_0
100
AcDbLine
 10
185.500000282035
 20
64.50000005047986
 30
0.0
 11
285.500000282035
 21
64.50000005047986
 31
0.0
  0
LINE
  5
B6A3
330
1F
100
AcDbEntity
  8
AM_0
100
AcDbLine
 10
185.500000282035
 20
8.500000050479798
 30
0.0
 11
285.5000002820351
 21
8.500000050479741
 31
0.0
  0
LINE
  5
B6A4
330
1F
100
AcDbEntity
  8
AM_2
100
AcDbLine
 10
185.500000282035
 20
40.50000005047991
 30
0.0
 11
285.5000002820351
 21
40.50000005047985
 31
0.0
  0
LINE
  5
B6A5
330
1F
100
AcDbEntity
  8
AM_2
100
AcDbLine
 10
185.500000282035
 20
48.50000005047985
 30
0.0
 11
285.500000282035
 21
48.50000005047985
 31
0.0
  0
LINE
  5
B6A6
330
1F
100
AcDbEntity
  8
AM_2
100
AcDbLine
 10
185.500000282035
 20
56.50000005047985
 30
0.0
 11
285.500000282035
 21
56.5000000504798
 31
0.0
  0
LINE
  5
B6A7
330
1F
100
AcDbEntity
  8
AM_2
100
AcDbLine
 10
205.500000282035
 20
64.50000005047986
 30
0.0
 11
205.500000282035
 21
8.500000050479741
 31
0.0
  0
MTEXT
  5
B6A8
330
1F
100
AcDbEntity
  8
AM_6
100
AcDbMText
 10
195.500000282035
 20
36.5000000504798
 30
0.0
 40
3.2
 41
19.99999999999995
 71
     5
 72
     5
  1
仕上げ
 73
     1
 44
1.0
1001
ACAD
1000
MTEXTBEGIN
1070
    73
1070
     1
1070
    44
1040
1.0
1070
    74
1070
     0
1000
MTEXTEND
1000
ACAD_MTEXT_DEFINED_HEIGHT_BEGIN
1070
    46
1040
8.000000000000156
1000
ACAD_MTEXT_DEFINED_HEIGHT_END
  0
MTEXT
  5
B6A9
330
1F
100
AcDbEntity
  8
AM_6
100
AcDbMText
 10
195.500000282035
 20
44.50000005047991
 30
0.0
 40
3.2
 41
20.0
 71
     5
 72
     5
  1
材　質
 73
     1
 44
1.0
1001
ACAD
1000
MTEXTBEGIN
1070
    73
1070
     1
1070
    44
1040
1.0
1070
    74
1070
     0
1000
MTEXTEND
1000
ACAD_MTEXT_DEFINED_HEIGHT_BEGIN
1070
    46
1040
7.9999999999999
1000
ACAD_MTEXT_DEFINED_HEIGHT_END
  0
MTEXT
  5
B6AA
330
1F
100
AcDbEntity
  8
AM_6
100
AcDbMText
 10
195.500000282035
 20
60.50000005047985
 30
0.0
 40
3.2
 41
20.0
 71
     5
 72
     5
  1
品　名
 73
     1
 44
1.0
1001
ACAD
1000
MTEXTBEGIN
1070
    73
1070
     1
1070
    44
1040
1.0
1070
    74
1070
     0
1000
MTEXTEND
  0
MTEXT
  5
B6AC
330
1F
100
AcDbEntity
  8
AM_6
100
AcDbMText
 10
205.500000282035
 20
44.50000005047991
 30
0.0
 40
3.2
 41
69.99999999999996
 71
     4
 72
     5
  1
　ステンレス
 73
     1
 44
1.0
1001
ACAD
1000
MTEXTBEGIN
1070
    73
1070
     1
1070
    44
1040
1.0
1070
    74
1070
     0
1000
MTEXTEND
  0
MTEXT
  5
B6AD
330
1F
100
AcDbEntity
  8
AM_6
100
AcDbMText
 10
205.500000282035
 20
60.50000005047985
 30
0.0
 40
3.2
 41
70.0
 71
     4
 72
     5
  1
　トルクヒンジ
 73
     1
 44
1.0
1001
ACAD
1000
MTEXTBEGIN
1070
    73
1070
     1
1070
    44
1040
1.0
1070
    74
1070
     0
1000
MTEXTEND
  0
LINE
  5
B6AE
330
1F
100
AcDbEntity
  8
AM_0
100
AcDbLine
 10
185.500000282035
 20
64.50000005047986
 30
0.0
 11
185.500000282035
 21
8.500000050479741
 31
0.0
  0
MTEXT
  5
B6B0
330
1F
100
AcDbEntity
  8
AM_6
100
AcDbMText
 10
195.500000282035
 20
20.50000005047974
 30
0.0
 40
3.2
 41
20.0
 71
     5
 72
     5
  1
備　考
 73
     1
 44
1.0
1001
ACAD
1000
MTEXTBEGIN
1070
    73
1070
     1
1070
    44
1040
1.0
1070
    74
1070
     0
1000
MTEXTEND
1000
ACAD_MTEXT_DEFINED_HEIGHT_BEGIN
1070
    46
1040
23.99999999999998
1000
ACAD_MTEXT_DEFINED_HEIGHT_END
  0
MTEXT
  5
B6B1
330
1F
100
AcDbEntity
  8
AM_6
100
AcDbMText
 10
195.500000282035
 20
52.50000005047986
 30
0.0
 40
3.2
 41
20.0
 71
     5
 72
     5
  1
品　番
 73
     1
 44
1.0
1001
ACAD
1000
MTEXTBEGIN
1070
    73
1070
     1
1070
    44
1040
1.0
1070
    74
1070
     0
1000
MTEXTEND
  0
MTEXT
  5
B6B2
330
1F
100
AcDbEntity
  8
AM_6
100
AcDbMText
 10
205.500000282035
 20
52.50000005047986
 30
0.0
 40
3.2
 41
69.99999999999997
 71
     4
 72
     5
  1
　DEH-ITM「　」
 73
     1
 44
1.0
1001
ACAD
1000
MTEXTBEGIN
1070
    73
1070
     1
1070
    44
1040
1.0
1070
    74
1070
     0
1000
MTEXTEND
  0
LINE
  5
B867
330
1F
100
AcDbEntity
  8
AM_2
100
AcDbLine
 10
185.500000282035
 20
32.50000005047969
 30
0.0
 11
285.5000002820351
 21
32.50000005047969
 31
0.0
  0
MTEXT
  5
D844
330
1F
100
AcDbEntity
  8
AM_6
100
AcDbMText
 10
205.500000282035
 20
36.50000005047991
 30
0.0
 40
3.2
 41
69.99999999999996
 71
     4
 72
     5
  1
　光沢バレル研磨
 73
     1
 44
1.0
1001
ACAD
1000
MTEXTBEGIN
1070
    73
1070
     1
1070
    44
1040
1.0
1070
    74
1070
     0
1000
MTEXTEND
  0
TEXT
  5
DCAE
330
1F
100
AcDbEntity
  8
AM_6
 60
     1
100
AcDbText
 10
408.500000282035
 20
8.500000050479741
 30
0.0
 40
2.5
  1
!GENTITLE-INSERT
100
AcDbText
  0
TEXT
  5
DCAF
330
1F
100
AcDbEntity
  8
AM_6
 60
     1
100
AcDbText
 10
0.0000002820350623
 20
0.0000000504797413
 30
0.0
 40
2.5
  1
!GENTITLE-LL
100
AcDbText
  0
TEXT
  5
DCB0
330
1F
100
AcDbEntity
  8
AM_6
 60
     1
100
AcDbText
 10
420.000000282035
 20
297.0000000504797
 30
0.0
 40
2.5
  1
!GENTITLE-RU
100
AcDbText
  0
TEXT
  5
DCB1
330
1F
100
AcDbEntity
  8
AM_6
 60
     1
100
AcDbText
 10
420.000000282035
 20
297.0000000504797
 30
0.0
 40
2.5
  1
!GENTITLE-MAX
100
AcDbText
  0
TEXT
  5
DCB9
330
1F
100
AcDbEntity
  8
AM_6
 60
     1
100
AcDbText
 10
0.0000002820350623
 20
0.0000000504797413
 30
0.0
 40
2.5
  1
!GENTITLE-LL
100
AcDbText
  0
TEXT
  5
DCBA
330
1F
100
AcDbEntity
  8
AM_6
 60
     1
100
AcDbText
 10
408.500000282035
 20
288.5000000504797
 30
0.0
 40
2.5
  1
!GENTITLE-RU
100
AcDbText
  0
TEXT
  5
DCBB
330
1F
100
AcDbEntity
  8
AM_6
 60
     1
100
AcDbText
 10
420.000000282035
 20
297.0000000504797
 30
0.0
 40
2.5
  1
!GENTITLE-MAX
100
AcDbText
  0
TEXT
  5
DCBC
330
1F
100
AcDbEntity
  8
AM_6
 60
     1
100
AcDbText
 10
408.500000282035
 20
8.500000050479741
 30
0.0
 40
2.5
  1
!GENTITLE-INSERT
100
AcDbText
  0
LINE
  5
DF08
330
1F
100
AcDbEntity
  8
AM_0
100
AcDbLine
 10
193.00863959803
 20
188.516495090344
 30
0.0
 11
275.00863959803
 21
188.516495090344
 31
0.0
  0
LINE
  5
DF09
330
1F
100
AcDbEntity
  8
AM_0
100
AcDbLine
 10
193.00863959803
 20
188.516495090344
 30
0.0
 11
193.00863959803
 21
163.516495090344
 31
0.0
  0
LINE
  5
DF0A
330
1F
100
AcDbEntity
  8
AM_0
100
AcDbLine
 10
193.00863959803
 20
181.516495090344
 30
0.0
 11
275.00863959803
 21
181.5164950903439
 31
0.0
  0
LINE
  5
DF0B
330
1F
100
AcDbEntity
  8
AM_2
100
AcDbLine
 10
193.00863959803
 20
175.516495090344
 30
0.0
 11
248.00863959803
 21
175.516495090344
 31
0.0
  0
MTEXT
  5
DF0C
330
1F
100
AcDbEntity
  8
AM_6
100
AcDbMText
 10
207.00863959803
 20
185.016495090344
 30
0.0
 40
3.2
 41
28.0
 71
     5
 72
     5
  1
品　番
 73
     1
 44
1.0
1001
ACAD
1000
MTEXTBEGIN
1070
    73
1070
     1
1070
    44
1040
1.0
1070
    74
1070
     0
1000
MTEXTEND
  0
MTEXT
  5
DF0D
330
1F
100
AcDbEntity
  8
AM_6
100
AcDbMText
 10
207.00863959803
 20
178.516495090344
 30
0.0
 40
3.2
 41
28.0
 71
     5
 72
     5
  1
DEH-ITM50
 73
     1
 44
1.0
1001
ACAD
1000
MTEXTBEGIN
1070
    73
1070
     1
1070
    44
1040
1.0
1070
    74
1070
     0
1000
MTEXTEND
1000
ACAD_MTEXT_DEFINED_HEIGHT_BEGIN
1070
    46
1040
6.000000000000012
1000
ACAD_MTEXT_DEFINED_HEIGHT_END
  0
LINE
  5
DF0E
330
1F
100
AcDbEntity
  8
AM_0
100
AcDbLine
 10
221.00863959803
 20
188.516495090344
 30
0.0
 11
221.00863959803
 21
163.516495090344
 31
0.0
  0
LINE
  5
DF1A
330
1F
100
AcDbEntity
  8
AM_2
100
AcDbLine
 10
193.00863959803
 20
169.516495090344
 30
0.0
 11
248.00863959803
 21
169.516495090344
 31
0.0
  0
LINE
  5
DF45
330
1F
100
AcDbEntity
  8
AM_0
100
AcDbLine
 10
248.00863959803
 20
188.516495090344
 30
0.0
 11
248.00863959803
 21
163.516495090344
 31
0.0
  0
MTEXT
  5
DF46
330
1F
100
AcDbEntity
  8
AM_6
100
AcDbMText
 10
234.50863959803
 20
178.516495090344
 30
0.0
 40
3.2
 41
27.0
 71
     5
 72
     5
  1
5.0N・m
 73
     1
 44
1.0
1001
ACAD
1000
MTEXTBEGIN
1070
    73
1070
     1
1070
    44
1040
1.0
1070
    74
1070
     0
1000
MTEXTEND
1000
ACAD_MTEXT_DEFINED_HEIGHT_BEGIN
1070
    46
1040
6.000000000000012
1000
ACAD_MTEXT_DEFINED_HEIGHT_END
  0
MTEXT
  5
DF47
330
1F
100
AcDbEntity
  8
AM_6
100
AcDbMText
 10
234.50863959803
 20
185.016495090344
 30
0.0
 40
3.2
 41
27.0
 71
     5
 72
     5
  1
定格トルク
 73
     1
 44
1.0
1001
ACAD
1000
MTEXTBEGIN
1070
    73
1070
     1
1070
    44
1040
1.0
1070
    74
1070
     0
1000
MTEXTEND
1000
ACAD_MTEXT_DEFINED_HEIGHT_BEGIN
1070
    46
1040
7.000000000000001
1000
ACAD_MTEXT_DEFINED_HEIGHT_END
  0
MTEXT
  5
DF4D
330
1F
100
AcDbEntity
  8
AM_6
100
AcDbMText
 10
205.500000282035
 20
28.50000005047969
 30
0.0
 40
3.2
 41
79.99999999999992
 71
     4
 72
     5
  1
　・往復フリーストップ仕様（DEH-ITMFはトルク無し）
 73
     1
 44
1.0
1001
ACAD
1000
MTEXTBEGIN
1070
    73
1070
     1
1070
    44
1040
1.0
1070
    74
1070
     0
1000
MTEXTEND
  0
MTEXT
  5
DF4E
330
1F
100
AcDbEntity
  8
AM_6
100
AcDbMText
 10
205.500000282035
 20
20.50000005047968
 30
0.0
 40
3.2
 41
69.99999999999996
 71
     4
 72
     5
  1
　・使用温度：-10℃～+50℃
 73
     1
 44
1.0
1001
ACAD
1000
MTEXTBEGIN
1070
    73
1070
     1
1070
    44
1040
1.0
1070
    74
1070
     0
1000
MTEXTEND
  0
LINE
  5
DF4F
330
1F
100
AcDbEntity
  8
AM_0
100
AcDbLine
 10
193.00863959803
 20
163.516495090344
 30
0.0
 11
275.00863959803
 21
163.516495090344
 31
0.0
  0
MTEXT
  5
DF52
330
1F
100
AcDbEntity
  8
AM_6
100
AcDbMText
 10
207.00863959803
 20
172.516495090344
 30
0.0
 40
3.2
 41
28.0
 71
     5
 72
     5
  1
DEH-ITM70
 73
     1
 44
1.0
1001
ACAD
1000
MTEXTBEGIN
1070
    73
1070
     1
1070
    44
1040
1.0
1070
    74
1070
     0
1000
MTEXTEND
1000
ACAD_MTEXT_DEFINED_HEIGHT_BEGIN
1070
    46
1040
6.000000000000012
1000
ACAD_MTEXT_DEFINED_HEIGHT_END
  0
MTEXT
  5
DF53
330
1F
100
AcDbEntity
  8
AM_6
100
AcDbMText
 10
207.00863959803
 20
166.516495090344
 30
0.0
 40
3.2
 41
28.0
 71
     5
 72
     5
  1
DEH-ITMF
 73
     1
 44
1.0
1001
ACAD
1000
MTEXTBEGIN
1070
    73
1070
     1
1070
    44
1040
1.0
1070
    74
1070
     0
1000
MTEXTEND
1000
ACAD_MTEXT_DEFINED_HEIGHT_BEGIN
1070
    46
1040
6.000000000000012
1000
ACAD_MTEXT_DEFINED_HEIGHT_END
  0
MTEXT
  5
DF54
330
1F
100
AcDbEntity
  8
AM_6
100
AcDbMText
 10
234.50863959803
 20
166.516495090344
 30
0.0
 40
3.2
 41
27.0
 71
     5
 72
     5
  1
トルクフリー
 73
     1
 44
1.0
1001
ACAD
1000
MTEXTBEGIN
1070
    73
1070
     1
1070
    44
1040
1.0
1070
    74
1070
     0
1000
MTEXTEND
1000
ACAD_MTEXT_DEFINED_HEIGHT_BEGIN
1070
    46
1040
6.000000000000012
1000
ACAD_MTEXT_DEFINED_HEIGHT_END
  0
MTEXT
  5
DF55
330
1F
100
AcDbEntity
  8
AM_6
100
AcDbMText
 10
234.50863959803
 20
172.516495090344
 30
0.0
 40
3.2
 41
27.0
 71
     5
 72
     5
  1
7.0N・m
 73
     1
 44
1.0
1001
ACAD
1000
MTEXTBEGIN
1070
    73
1070
     1
1070
    44
1040
1.0
1070
    74
1070
     0
1000
MTEXTEND
1000
ACAD_MTEXT_DEFINED_HEIGHT_BEGIN
1070
    46
1040
6.000000000000012
1000
ACAD_MTEXT_DEFINED_HEIGHT_END
  0
LINE
  5
DF66
330
1F
100
AcDbEntity
  8
size
100
AcDbLine
 10
0.0000002820350623
 20
210.0000000504798
 30
0.0
 11
297.000000282035
 21
210.0000000504798
 31
0.0
1001
GENIUS_GENREC_14
1002
{
1000
PYDIR
1011
0.0000002820350765
1021
297.0000000504797
1031
0.0
1002
}
1002
{
1000
PXDIR
1011
420.000000282035
1021
0.0000000504797413
1031
0.0
1002
}
1002
{
1000
PORI
1011
0.0000002820350623
1021
0.0000000504797413
1031
0.0
1002
}
1002
{
1000
PINS
1011
210.0000002820351
1021
148.5000000504797
1031
0.0
1002
}
1002
{
1000
HVAL
1000
297
1002
}
1002
{
1000
H
1070
     2
1002
}
1002
{
1000
WVAL
1000
420
1002
}
1002
{
1000
W
1070
     2
1002
}
1002
{
1000
C
1070
     4
1002
}
1001
GENIUS_GENOBJ-N-REC_13
1002
{
1000
OWNER
1000
GEN
1002
}
1001
GENIUS_GENODEF_13
1002
{
1000
HIER
1070
     0
1002
}
1002
{
1000
MANEDIT
1070
     0
1002
}
1002
{
1000
NOSEL
1070
     0
1002
}
1002
{
1000
BEHIND
1070
     0
1002
}
1002
{
1000
OTHER
1070
     0
1002
}
1002
{
1000
REACTOR
1002
}
  0
LINE
  5
DF67
330
1F
100
AcDbEntity
  8
size
100
AcDbLine
 10
297.000000282035
 20
210.0000000504798
 30
0.0
 11
297.000000282035
 21
0.0000000504797129
 31
0.0
1001
GENIUS_GENREC_14
1002
{
1000
PYDIR
1011
0.0000002820350765
1021
297.0000000504797
1031
0.0
1002
}
1002
{
1000
PXDIR
1011
420.000000282035
1021
0.0000000504797413
1031
0.0
1002
}
1002
{
1000
PORI
1011
0.0000002820350623
1021
0.0000000504797413
1031
0.0
1002
}
1002
{
1000
PINS
1011
210.0000002820351
1021
148.5000000504797
1031
0.0
1002
}
1002
{
1000
HVAL
1000
297
1002
}
1002
{
1000
H
1070
     2
1002
}
1002
{
1000
WVAL
1000
420
1002
}
1002
{
1000
W
1070
     2
1002
}
1002
{
1000
C
1070
     4
1002
}
1001
GENIUS_GENOBJ-N-REC_13
1002
{
1000
OWNER
1000
GEN
1002
}
1001
GENIUS_GENODEF_13
1002
{
1000
HIER
1070
     0
1002
}
1002
{
1000
MANEDIT
1070
     0
1002
}
1002
{
1000
NOSEL
1070
     0
1002
}
1002
{
1000
BEHIND
1070
     0
1002
}
1002
{
1000
OTHER
1070
     0
1002
}
1002
{
1000
REACTOR
1002
}
  0
LINE
  5
DF68
330
1F
100
AcDbEntity
  8
waku
100
AcDbLine
 10
11.50000028203506
 20
8.500000050479741
 30
0.0
 11
285.500000282035
 21
8.500000050479741
 31
0.0
1001
GENIUS_GENREC_14
1002
{
1000
PYDIR
1011
0.0000002820350765
1021
297.0000000504797
1031
0.0
1002
}
1002
{
1000
PXDIR
1011
420.000000282035
1021
0.0000000504797413
1031
0.0
1002
}
1002
{
1000
PORI
1011
0.0000002820350623
1021
0.0000000504797413
1031
0.0
1002
}
1002
{
1000
PINS
1011
210.0000002820351
1021
148.5000000504797
1031
0.0
1002
}
1002
{
1000
HVAL
1000
297
1002
}
1002
{
1000
H
1070
     2
1002
}
1002
{
1000
WVAL
1000
420
1002
}
1002
{
1000
W
1070
     2
1002
}
1002
{
1000
C
1070
     4
1002
}
  0
LINE
  5
DF69
330
1F
100
AcDbEntity
  8
waku
100
AcDbLine
 10
285.500000282035
 20
201.5000000504798
 30
0.0
 11
11.50000028203506
 21
201.5000000504798
 31
0.0
1001
GENIUS_GENREC_14
1002
{
1000
PYDIR
1011
-122.9999997179649
1021
210.0000000504798
1031
0.0
1002
}
1002
{
1000
PXDIR
1011
297.000000282035
1021
-86.99999994952026
1031
0.0
1002
}
1002
{
1000
PORI
1011
-122.9999997179649
1021
-86.99999994952026
1031
0.0
1002
}
1002
{
1000
PINS
1011
87.00000028203509
1021
61.50000005047971
1031
0.0
1002
}
1002
{
1000
HVAL
1000
297
1002
}
1002
{
1000
H
1070
     2
1002
}
1002
{
1000
WVAL
1000
420
1002
}
1002
{
1000
W
1070
     2
1002
}
1002
{
1000
C
1070
     4
1002
}
1001
GENIUS_GENOBJ-N-REC_13
1002
{
1000
OWNER
1000
GEN
1002
}
1001
GENIUS_GENODEF_13
1002
{
1000
HIER
1070
     0
1002
}
1002
{
1000
MANEDIT
1070
     0
1002
}
1002
{
1000
NOSEL
1070
     0
1002
}
1002
{
1000
BEHIND
1070
     0
1002
}
1002
{
1000
OTHER
1070
     0
1002
}
1002
{
1000
REACTOR
1002
}
  0
LINE
  5
DF6A
330
1F
100
AcDbEntity
  8
waku
100
AcDbLine
 10
11.50000028203508
 20
201.5000000504798
 30
0.0
 11
11.50000028203506
 21
8.500000050479741
 31
0.0
1001
GENIUS_GENREC_14
1002
{
1000
PYDIR
1011
0.0000002820350765
1021
297.0000000504797
1031
0.0
1002
}
1002
{
1000
PXDIR
1011
420.000000282035
1021
0.0000000504797413
1031
0.0
1002
}
1002
{
1000
PORI
1011
0.0000002820350623
1021
0.0000000504797413
1031
0.0
1002
}
1002
{
1000
PINS
1011
210.0000002820351
1021
148.5000000504797
1031
0.0
1002
}
1002
{
1000
HVAL
1000
297
1002
}
1002
{
1000
H
1070
     2
1002
}
1002
{
1000
WVAL
1000
420
1002
}
1002
{
1000
W
1070
     2
1002
}
1002
{
1000
C
1070
     4
1002
}
1001
GENIUS_GENOBJ-N-REC_13
1002
{
1000
OWNER
1000
GEN
1002
}
1001
GENIUS_GENODEF_13
1002
{
1000
HIER
1070
     0
1002
}
1002
{
1000
MANEDIT
1070
     0
1002
}
1002
{
1000
NOSEL
1070
     0
1002
}
1002
{
1000
BEHIND
1070
     0
1002
}
1002
{
1000
OTHER
1070
     0
1002
}
1002
{
1000
REACTOR
1002
}
  0
LINE
  5
DF6B
330
1F
100
AcDbEntity
  8
waku
100
AcDbLine
 10
285.500000282035
 20
8.500000050479741
 30
0.0
 11
285.500000282035
 21
201.5000000504798
 31
0.0
1001
GENIUS_GENREC_14
1002
{
1000
PYDIR
1011
-122.9999997179649
1021
216.0000000504798
1031
0.0
1002
}
1002
{
1000
PXDIR
1011
297.000000282035
1021
-80.99999994952026
1031
0.0
1002
}
1002
{
1000
PORI
1011
-122.9999997179649
1021
-80.99999994952026
1031
0.0
1002
}
1002
{
1000
PINS
1011
87.00000028203509
1021
67.50000005047971
1031
0.0
1002
}
1002
{
1000
HVAL
1000
297
1002
}
1002
{
1000
H
1070
     2
1002
}
1002
{
1000
WVAL
1000
420
1002
}
1002
{
1000
W
1070
     2
1002
}
1002
{
1000
C
1070
     4
1002
}
1001
GENIUS_GENOBJ-N-REC_13
1002
{
1000
OWNER
1000
GEN
1002
}
1001
GENIUS_GENODEF_13
1002
{
1000
HIER
1070
     0
1002
}
1002
{
1000
MANEDIT
1070
     0
1002
}
1002
{
1000
NOSEL
1070
     0
1002
}
1002
{
1000
BEHIND
1070
     0
1002
}
1002
{
1000
OTHER
1070
     0
1002
}
1002
{
1000
REACTOR
1002
}
  0
LINE
  5
DF6C
330
1F
100
AcDbEntity
  8
size
100
AcDbLine
 10
0.0000002820350836
 20
210.0000000504798
 30
0.0
 11
0.0000002820350623
 21
0.0000000504797413
 31
0.0
1001
GENIUS_GENREC_14
1002
{
1000
PYDIR
1011
0.0000002820350765
1021
297.0000000504797
1031
0.0
1002
}
1002
{
1000
PXDIR
1011
420.000000282035
1021
0.0000000504797413
1031
0.0
1002
}
1002
{
1000
PORI
1011
0.0000002820350623
1021
0.0000000504797413
1031
0.0
1002
}
1002
{
1000
PINS
1011
210.0000002820351
1021
148.5000000504797
1031
0.0
1002
}
1002
{
1000
HVAL
1000
297
1002
}
1002
{
1000
H
1070
     2
1002
}
1002
{
1000
WVAL
1000
420
1002
}
1002
{
1000
W
1070
     2
1002
}
1002
{
1000
C
1070
     4
1002
}
1001
GENIUS_GENOBJ-N-REC_13
1002
{
1000
OWNER
1000
GEN
1002
}
1001
GENIUS_GENODEF_13
1002
{
1000
HIER
1070
     0
1002
}
1002
{
1000
MANEDIT
1070
     0
1002
}
1002
{
1000
NOSEL
1070
     0
1002
}
1002
{
1000
BEHIND
1070
     0
1002
}
1002
{
1000
OTHER
1070
     0
1002
}
1002
{
1000
REACTOR
1002
}
  0
LINE
  5
DF6D
330
1F
100
AcDbEntity
  8
size
100
AcDbLine
 10
0.0000002820350623
 20
0.0000000504797413
 30
0.0
 11
297.000000282035
 21
0.0000000504797413
 31
0.0
1001
GENIUS_GENREC_14
1002
{
1000
PYDIR
1011
0.0000002820350765
1021
297.0000000504797
1031
0.0
1002
}
1002
{
1000
PXDIR
1011
420.000000282035
1021
0.0000000504797413
1031
0.0
1002
}
1002
{
1000
PORI
1011
0.0000002820350623
1021
0.0000000504797413
1031
0.0
1002
}
1002
{
1000
PINS
1011
210.0000002820351
1021
148.5000000504797
1031
0.0
1002
}
1002
{
1000
HVAL
1000
297
1002
}
1002
{
1000
H
1070
     2
1002
}
1002
{
1000
WVAL
1000
420
1002
}
1002
{
1000
W
1070
     2
1002
}
1002
{
1000
C
1070
     4
1002
}
1001
GENIUS_GENOBJ-N-REC_13
1002
{
1000
OWNER
1000
GEN
1002
}
1001
GENIUS_GENODEF_13
1002
{
1000
HIER
1070
     0
1002
}
1002
{
1000
MANEDIT
1070
     0
1002
}
1002
{
1000
NOSEL
1070
     0
1002
}
1002
{
1000
BEHIND
1070
     0
1002
}
1002
{
1000
OTHER
1070
     0
1002
}
1002
{
1000
REACTOR
1002
}
  0
MTEXT
  5
E195
330
1F
100
AcDbEntity
  8
AM_6
100
AcDbMText
 10
205.500000282035
 20
12.50000005047968
 30
0.0
 40
3.2
 41
76.61028014940653
 71
     4
 72
     5
  1
　・オプションのヒンジカバーで取付穴を隠せます。
 73
     1
 44
1.0
1001
ACAD
1000
MTEXTBEGIN
1070
    73
1070
     1
1070
    44
1040
1.0
1070
    74
1070
     0
1000
MTEXTEND
  0
POINT
  5
EBB7
330
1F
100
AcDbEntity
  8
0
 62
     7
100
AcDbPoint
 10
52.08455262060957
 20
91.3579535853823
 30
0.0
  0
POINT
  5
EBB8
330
1F
100
AcDbEntity
  8
0
 62
     7
100
AcDbPoint
 10
88.68455262060948
 20
90.35795358538029
 30
0.0
  0
POINT
  5
EBB9
330
1F
100
AcDbEntity
  8
0
 62
     7
100
AcDbPoint
 10
86.78455262060849
 20
146.3579535853843
 30
0.0
  0
POINT
  5
EBBA
330
1F
100
AcDbEntity
  8
0
 62
     7
100
AcDbPoint
 10
52.08455262060957
 20
145.3579535853823
 30
0.0
  0
POINT
  5
EBBB
330
1F
100
AcDbEntity
  8
0
 62
     7
100
AcDbPoint
 10
81.28455262060951
 20
135.7579535853813
 30
0.0
  0
POINT
  5
EBBC
330
1F
100
AcDbEntity
  8
0
 62
     7
100
AcDbPoint
 10
81.28455262060951
 20
100.9579535853833
 30
0.0
  0
POINT
  5
EBBD
330
1F
100
AcDbEntity
  8
0
 62
     7
100
AcDbPoint
 10
103.0845526206096
 20
135.9579535853823
 30
0.0
  0
POINT
  5
EBBE
330
1F
100
AcDbEntity
  8
0
 62
     7
100
AcDbPoint
 10
81.08455262060957
 20
135.9579535853823
 30
0.0
  0
POINT
  5
EBBF
330
1F
100
AcDbEntity
  8
0
 62
     7
100
AcDbPoint
 10
92.08455262060956
 20
55.55276182697588
 30
0.0
  0
POINT
  5
EBC0
330
1F
100
AcDbEntity
  8
0
 62
     7
100
AcDbPoint
 10
132.0845526206095
 20
30.55276182697586
 30
0.0
  0
POINT
  5
EBC1
330
1F
100
AcDbEntity
  8
0
 62
     7
100
AcDbPoint
 10
132.0845526206095
 20
43.55276182697582
 30
0.0
  0
POINT
  5
EBC2
330
1F
100
AcDbEntity
  8
0
 62
     7
100
AcDbPoint
 10
132.0845526206095
 20
30.55276182697586
 30
0.0
  0
POINT
  5
EBC3
330
1F
100
AcDbEntity
  8
0
 62
     7
100
AcDbPoint
 10
132.0845526206095
 20
96.3579535853823
 30
0.0
  0
POINT
  5
EBC4
330
1F
100
AcDbEntity
  8
0
 62
     7
100
AcDbPoint
 10
132.0845526206095
 20
140.3579535853823
 30
0.0
  0
POINT
  5
EBC5
330
1F
100
AcDbEntity
  8
0
 62
     7
100
AcDbPoint
 10
132.0845526206095
 20
142.3579535853823
 30
0.0
  0
POINT
  5
EBC6
330
1F
100
AcDbEntity
  8
0
 62
     7
100
AcDbPoint
 10
52.08455262060957
 20
145.3579535853823
 30
0.0
  0
POINT
  5
EBCD
330
1F
100
AcDbEntity
  8
0
 62
     7
100
AcDbPoint
 10
52.08455262060957
 20
91.3579535853823
 30
0.0
  0
POINT
  5
EBCE
330
1F
100
AcDbEntity
  8
0
 62
     7
100
AcDbPoint
 10
52.08455262060957
 20
145.3579535853823
 30
0.0
  0
LINE
  5
EBD1
330
1F
100
AcDbEntity
  8
AM_0
100
AcDbLine
 10
95.82988304662174
 20
39.80276182697617
 30
0.0
 11
96.10792185546863
 21
39.80276182697594
 31
0.0
  0
LINE
  5
EBD2
330
1F
100
AcDbEntity
  8
AM_0
100
AcDbLine
 10
95.82988304662174
 20
47.30276182697553
 30
0.0
 11
96.10792185546863
 21
47.30276182697571
 31
0.0
  0
LINE
  5
EBD3
330
1F
100
AcDbEntity
  8
AM_0
100
AcDbLine
 10
88.06118338575416
 20
39.80276182697617
 30
0.0
 11
88.33922219459887
 21
39.80276182697594
 31
0.0
  0
LINE
  5
EBD4
330
1F
100
AcDbEntity
  8
AM_0
100
AcDbLine
 10
88.33922219459887
 20
39.80276182697594
 30
0.0
 11
95.82988304662174
 21
39.80276182697617
 31
0.0
  0
LINE
  5
EBD5
330
1F
100
AcDbEntity
  8
AM_0
100
AcDbLine
 10
88.06118338575416
 20
47.30276182697553
 30
0.0
 11
88.33922219459887
 21
47.30276182697576
 31
0.0
  0
LINE
  5
EBD6
330
1F
100
AcDbEntity
  8
AM_0
100
AcDbLine
 10
88.33922219459887
 20
47.30276182697576
 30
0.0
 11
95.82988304662174
 21
47.30276182697553
 31
0.0
  0
LINE
  5
EBD9
330
1F
100
AcDbEntity
  8
AM_0
100
AcDbLine
 10
52.08455262060957
 20
32.55276182697585
 30
0.0
 11
52.08455262060957
 21
36.27058172650186
 31
0.0
  0
LINE
  5
EBDA
330
1F
100
AcDbEntity
  8
AM_0
100
AcDbLine
 10
83.08455262060958
 20
32.55276182697585
 30
0.0
 11
83.08455262060958
 21
33.05276182697586
 31
0.0
  0
LINE
  5
EBDB
330
1F
100
AcDbEntity
  8
AM_0
100
AcDbLine
 10
83.58455262060957
 20
33.55276182697585
 30
0.0
 11
85.30222263748456
 21
33.55276182697585
 31
0.0
  0
LINE
  5
EBDC
330
1F
100
AcDbEntity
  8
AM_0
100
AcDbLine
 10
52.08455262060957
 20
32.55276182697585
 30
0.0
 11
52.08455262060957
 21
30.55276182697586
 31
0.0
  0
LINE
  5
EBDD
330
1F
100
AcDbEntity
  8
AM_0
100
AcDbLine
 10
83.08455262060958
 20
32.55276182697585
 30
0.0
 11
83.08455262060958
 21
30.55276182697586
 31
0.0
  0
LINE
  5
EBDE
330
1F
100
AcDbEntity
  8
AM_0
100
AcDbLine
 10
52.08455262060957
 20
30.55276182697586
 30
0.0
 11
83.08455262060958
 21
30.55276182697586
 31
0.0
  0
LINE
  5
EBE0
330
1F
100
AcDbEntity
  8
AM_0
100
AcDbLine
 10
96.19155882951648
 20
39.70276182697586
 30
0.0
 11
87.97754641170243
 21
39.70276182697586
 31
0.0
  0
LINE
  5
EBE1
330
1F
100
AcDbEntity
  8
AM_0
100
AcDbLine
 10
96.19155882951648
 20
47.40276182697482
 30
0.0
 11
87.97754641170243
 21
47.40276182697482
 31
0.0
  0
LINE
  5
EBE2
330
1F
100
AcDbEntity
  8
AM_0
100
AcDbLine
 10
86.58455262060957
 20
45.31060141009783
 30
0.0
 11
86.58455262060957
 21
41.79492224385183
 31
0.0
  0
LINE
  5
EBE3
330
1F
100
AcDbEntity
  8
AM_0
100
AcDbLine
 10
97.58455262060843
 20
45.31060141010487
 30
0.0
 11
97.58455262060843
 21
41.79492224384785
 31
0.0
  0
LINE
  5
EBE4
330
1F
100
AcDbEntity
  8
AM_0
100
AcDbLine
 10
57.37705399195741
 20
43.79849320152908
 30
0.0
 11
87.34041582938406
 21
54.57515567342056
 31
0.0
  0
LINE
  5
EBE6
330
1F
100
AcDbEntity
  8
AM_0
100
AcDbLine
 10
101.0845526206096
 20
30.55276182697586
 30
0.0
 11
132.0845526206095
 21
30.55276182697586
 31
0.0
  0
LINE
  5
EBE7
330
1F
100
AcDbEntity
  8
AM_0
100
AcDbLine
 10
132.0845526206095
 20
32.55276182697585
 30
0.0
 11
132.0845526206095
 21
30.55276182697586
 31
0.0
  0
LINE
  5
EBE8
330
1F
100
AcDbEntity
  8
AM_0
100
AcDbLine
 10
101.0845526206096
 20
32.55276182697585
 30
0.0
 11
101.0845526206096
 21
30.55276182697586
 31
0.0
  0
LINE
  5
EBE9
330
1F
100
AcDbEntity
  8
AM_0
100
AcDbLine
 10
127.2473104814263
 20
43.63475406208033
 30
0.0
 11
96.82868941183542
 21
54.57515567342034
 31
0.0
  0
LINE
  5
EBEA
330
1F
100
AcDbEntity
  8
AM_0
100
AcDbLine
 10
100.5845526206095
 20
33.55276182697585
 30
0.0
 11
98.86688260373446
 21
33.55276182697585
 31
0.0
  0
LINE
  5
EBEB
330
1F
100
AcDbEntity
  8
AM_0
100
AcDbLine
 10
101.0845526206096
 20
32.55276182697585
 30
0.0
 11
101.0845526206096
 21
33.05276182697586
 31
0.0
  0
LINE
  5
EBEC
330
1F
100
AcDbEntity
  8
AM_0
100
AcDbLine
 10
132.0845526206095
 20
36.28649149778386
 30
0.0
 11
132.0845526206095
 21
32.55276182697585
 31
0.0
  0
LINE
  5
EBEF
330
1F
100
AcDbEntity
  8
AM_0
100
AcDbLine
 10
96.82868941183542
 20
54.57515567342034
 30
0.0
 11
95.44771156212098
 21
55.07183999904026
 31
0.0
  0
LINE
  5
EBF0
330
1F
100
AcDbEntity
  8
AM_0
100
AcDbLine
 10
180.6882063716173
 20
139.3579535853823
 30
0.0
 11
180.4098915549934
 21
139.0815241391194
 31
0.0
  0
LINE
  5
EBF1
330
1F
100
AcDbEntity
  8
0
  6
Continuous
 62
     7
100
AcDbLine
 10
169.9662921957036
 20
139.0817515804083
 30
0.0
 11
169.0784407566173
 21
139.0204535853823
 31
0.0
  0
LINE
  5
EBF2
330
1F
100
AcDbEntity
  8
AM_0
100
AcDbLine
 10
169.9662921957036
 20
139.0817515804083
 30
0.0
 11
169.6882063716173
 21
139.3579535853823
 31
0.0
  0
LINE
  5
EBF3
330
1F
100
AcDbEntity
  8
0
  6
Continuous
 62
     7
100
AcDbLine
 10
179.0772936681433
 20
137.7579535853813
 30
0.0
 11
182.9663809647183
 21
137.7579535853813
 31
0.0
  0
LINE
  5
EBF4
330
1F
100
AcDbEntity
  8
AM_0
100
AcDbLine
 10
179.0772936681433
 20
137.7579535853813
 30
0.0
 11
175.1882063716173
 21
138.1579535853813
 31
0.0
  0
LINE
  5
EBF5
330
1F
100
AcDbEntity
  8
AM_0
100
AcDbLine
 10
175.1882063716173
 20
138.1579535853813
 30
0.0
 11
171.2991190750913
 21
137.7579535853813
 31
0.0
  0
LINE
  5
EBF6
330
1F
100
AcDbEntity
  8
0
  6
Continuous
 62
     7
100
AcDbLine
 10
183.6881358328184
 20
138.9751410853823
 30
0.0
 11
182.9663809647183
 21
138.9579535853823
 31
0.0
  0
LINE
  5
EBF7
330
1F
100
AcDbEntity
  8
0
  6
Continuous
 62
     7
100
AcDbLine
 10
184.3269101264164
 20
139.0204535853823
 30
0.0
 11
183.6881358328184
 21
138.9751410853823
 31
0.0
  0
LINE
  5
EBF8
330
1F
100
AcDbEntity
  8
0
  6
Continuous
 62
     7
100
AcDbLine
 10
184.8786188910174
 20
139.0845160853823
 30
0.0
 11
184.3269101264164
 21
139.0204535853823
 31
0.0
  0
LINE
  5
EBF9
330
1F
100
AcDbEntity
  8
0
  6
Continuous
 62
     7
100
AcDbLine
 10
185.3391771721174
 20
139.1579535853823
 30
0.0
 11
184.8786188910174
 21
139.0845160853823
 31
0.0
  0
LINE
  5
EBFA
330
1F
100
AcDbEntity
  8
0
  6
Continuous
 62
     7
100
AcDbLine
 10
185.7045000151164
 20
139.2313910853823
 30
0.0
 11
185.3391771721174
 21
139.1579535853823
 31
0.0
  0
LINE
  5
EBFB
330
1F
100
AcDbEntity
  8
0
  6
Continuous
 62
     7
100
AcDbLine
 10
185.9705024657164
 20
139.2954535853823
 30
0.0
 11
185.7045000151164
 21
139.2313910853823
 31
0.0
  0
LINE
  5
EBFC
330
1F
100
AcDbEntity
  8
0
  6
Continuous
 62
     7
100
AcDbLine
 10
186.1330995694173
 20
139.3407660853823
 30
0.0
 11
185.9705024657164
 21
139.2954535853823
 31
0.0
  0
LINE
  5
EBFD
330
1F
100
AcDbEntity
  8
0
  6
Continuous
 62
     7
100
AcDbLine
 10
186.1882063716204
 20
139.3579535853823
 30
0.0
 11
186.1330995694173
 21
139.3407660853823
 31
0.0
  0
LINE
  5
EBFE
330
1F
100
AcDbEntity
  8
0
  6
Continuous
 62
     7
100
AcDbLine
 10
164.2433131738173
 20
139.3407660853823
 30
0.0
 11
164.1882063716204
 21
139.3579535853823
 31
0.0
  0
LINE
  5
EBFF
330
1F
100
AcDbEntity
  8
0
  6
Continuous
 62
     7
100
AcDbLine
 10
164.4059102775184
 20
139.2954535853823
 30
0.0
 11
164.2433131738173
 21
139.3407660853823
 31
0.0
  0
LINE
  5
EC00
330
1F
100
AcDbEntity
  8
0
  6
Continuous
 62
     7
100
AcDbLine
 10
164.6719127281164
 20
139.2313910853823
 30
0.0
 11
164.4059102775184
 21
139.2954535853823
 31
0.0
  0
LINE
  5
EC01
330
1F
100
AcDbEntity
  8
0
  6
Continuous
 62
     7
100
AcDbLine
 10
165.0372355711174
 20
139.1579535853823
 30
0.0
 11
164.6719127281164
 21
139.2313910853823
 31
0.0
  0
LINE
  5
EC02
330
1F
100
AcDbEntity
  8
0
  6
Continuous
 62
     7
100
AcDbLine
 10
165.4977938522173
 20
139.0845160853823
 30
0.0
 11
165.0372355711174
 21
139.1579535853823
 31
0.0
  0
LINE
  5
EC03
330
1F
100
AcDbEntity
  8
0
  6
Continuous
 62
     7
100
AcDbLine
 10
166.0495026168184
 20
139.0204535853823
 30
0.0
 11
165.4977938522173
 21
139.0845160853823
 31
0.0
  0
LINE
  5
EC04
330
1F
100
AcDbEntity
  8
0
  6
Continuous
 62
     7
100
AcDbLine
 10
166.6882769104163
 20
138.9751410853823
 30
0.0
 11
166.0495026168184
 21
139.0204535853823
 31
0.0
  0
LINE
  5
EC05
330
1F
100
AcDbEntity
  8
0
  6
Continuous
 62
     7
100
AcDbLine
 10
167.4100317785163
 20
138.9579535853823
 30
0.0
 11
166.6882769104163
 21
138.9751410853823
 31
0.0
  0
LINE
  5
EC06
330
1F
100
AcDbEntity
  8
0
  6
Continuous
 62
     7
100
AcDbLine
 10
168.2097194338173
 20
138.9751410853823
 30
0.0
 11
167.4100317785163
 21
138.9579535853823
 31
0.0
  0
LINE
  5
EC07
330
1F
100
AcDbEntity
  8
0
  6
Continuous
 62
     7
100
AcDbLine
 10
169.0784407566173
 20
139.0204535853823
 30
0.0
 11
168.2097194338173
 21
138.9751410853823
 31
0.0
  0
LINE
  5
EC08
330
1F
100
AcDbEntity
  8
0
  6
Continuous
 62
     7
100
AcDbLine
 10
170.0063337944164
 20
139.0845160853823
 30
0.0
 11
169.9662921957036
 21
139.0817515804083
 31
0.0
  0
LINE
  5
EC09
330
1F
100
AcDbEntity
  8
0
  6
Continuous
 62
     7
100
AcDbLine
 10
170.9835365948173
 20
139.1579535853823
 30
0.0
 11
170.0063337944164
 21
139.0845160853823
 31
0.0
  0
LINE
  5
EC0A
330
1F
100
AcDbEntity
  8
0
  6
Continuous
 62
     7
100
AcDbLine
 10
172.0001872052172
 20
139.2313910853823
 30
0.0
 11
170.9835365948173
 21
139.1579535853823
 31
0.0
  0
LINE
  5
EC0B
330
1F
100
AcDbEntity
  8
0
  6
Continuous
 62
     7
100
AcDbLine
 10
173.0464236732175
 20
139.2954535853823
 30
0.0
 11
172.0001872052172
 21
139.2313910853823
 31
0.0
  0
LINE
  5
EC0C
330
1F
100
AcDbEntity
  8
0
  6
Continuous
 62
     7
100
AcDbLine
 10
174.1123840461173
 20
139.3407660853823
 30
0.0
 11
173.0464236732175
 21
139.2954535853823
 31
0.0
  0
LINE
  5
EC0D
330
1F
100
AcDbEntity
  8
0
  6
Continuous
 62
     7
100
AcDbLine
 10
175.1882063716173
 20
139.3579535853823
 30
0.0
 11
174.1123840461173
 21
139.3407660853823
 31
0.0
  0
LINE
  5
EC0E
330
1F
100
AcDbEntity
  8
0
  6
Continuous
 62
     7
100
AcDbLine
 10
176.2640286971173
 20
139.3407660853823
 30
0.0
 11
175.1882063716173
 21
139.3579535853823
 31
0.0
  0
LINE
  5
EC0F
330
1F
100
AcDbEntity
  8
0
  6
Continuous
 62
     7
100
AcDbLine
 10
177.3299890700173
 20
139.2954535853823
 30
0.0
 11
176.2640286971173
 21
139.3407660853823
 31
0.0
  0
LINE
  5
EC10
330
1F
100
AcDbEntity
  8
0
  6
Continuous
 62
     7
100
AcDbLine
 10
178.3762255380174
 20
139.2313910853823
 30
0.0
 11
177.3299890700173
 21
139.2954535853823
 31
0.0
  0
LINE
  5
EC11
330
1F
100
AcDbEntity
  8
0
  6
Continuous
 62
     7
100
AcDbLine
 10
179.3928761484174
 20
139.1579535853823
 30
0.0
 11
178.3762255380174
 21
139.2313910853823
 31
0.0
  0
LINE
  5
EC12
330
1F
100
AcDbEntity
  8
0
  6
Continuous
 62
     7
100
AcDbLine
 10
180.3700789488163
 20
139.0845160853823
 30
0.0
 11
179.3928761484174
 21
139.1579535853823
 31
0.0
  0
LINE
  5
EC13
330
1F
100
AcDbEntity
  8
0
  6
Continuous
 62
     7
100
AcDbLine
 10
181.2979719866173
 20
139.0204535853823
 30
0.0
 11
180.3700789488163
 21
139.0845160853823
 31
0.0
  0
LINE
  5
EC14
330
1F
100
AcDbEntity
  8
0
  6
Continuous
 62
     7
100
AcDbLine
 10
182.1666933094173
 20
138.9751410853823
 30
0.0
 11
181.2979719866173
 21
139.0204535853823
 31
0.0
  0
LINE
  5
EC15
330
1F
100
AcDbEntity
  8
0
  6
Continuous
 62
     7
100
AcDbLine
 10
182.9663809647183
 20
138.9579535853823
 30
0.0
 11
182.1666933094173
 21
138.9751410853823
 31
0.0
  0
LINE
  5
EC16
330
1F
100
AcDbEntity
  8
0
  6
Continuous
 62
     7
100
AcDbLine
 10
182.1666933094173
 20
137.7751410853813
 30
0.0
 11
182.9663809647183
 21
137.7579535853813
 31
0.0
  0
LINE
  5
EC17
330
1F
100
AcDbEntity
  8
0
  6
Continuous
 62
     7
100
AcDbLine
 10
181.2979719866173
 20
137.8204535853813
 30
0.0
 11
182.1666933094173
 21
137.7751410853813
 31
0.0
  0
LINE
  5
EC18
330
1F
100
AcDbEntity
  8
0
  6
Continuous
 62
     7
100
AcDbLine
 10
180.3700789488163
 20
137.8845160853813
 30
0.0
 11
181.2979719866173
 21
137.8204535853813
 31
0.0
  0
LINE
  5
EC19
330
1F
100
AcDbEntity
  8
0
  6
Continuous
 62
     7
100
AcDbLine
 10
179.3928761484174
 20
137.9579535853823
 30
0.0
 11
180.3700789488163
 21
137.8845160853813
 31
0.0
  0
LINE
  5
EC1A
330
1F
100
AcDbEntity
  8
0
  6
Continuous
 62
     7
100
AcDbLine
 10
178.3762255380174
 20
138.0313910853813
 30
0.0
 11
179.3928761484174
 21
137.9579535853823
 31
0.0
  0
LINE
  5
EC1B
330
1F
100
AcDbEntity
  8
0
  6
Continuous
 62
     7
100
AcDbLine
 10
177.3299890700173
 20
138.0954535853813
 30
0.0
 11
178.3762255380174
 21
138.0313910853813
 31
0.0
  0
LINE
  5
EC1C
330
1F
100
AcDbEntity
  8
0
  6
Continuous
 62
     7
100
AcDbLine
 10
176.2640286971173
 20
138.1407660853813
 30
0.0
 11
177.3299890700173
 21
138.0954535853813
 31
0.0
  0
LINE
  5
EC1D
330
1F
100
AcDbEntity
  8
0
  6
Continuous
 62
     7
100
AcDbLine
 10
175.1882063716173
 20
138.1579535853813
 30
0.0
 11
176.2640286971173
 21
138.1407660853813
 31
0.0
  0
LINE
  5
EC1E
330
1F
100
AcDbEntity
  8
0
  6
Continuous
 62
     7
100
AcDbLine
 10
174.1123840461173
 20
138.1407660853813
 30
0.0
 11
175.1882063716173
 21
138.1579535853813
 31
0.0
  0
LINE
  5
EC1F
330
1F
100
AcDbEntity
  8
0
  6
Continuous
 62
     7
100
AcDbLine
 10
173.0464236732175
 20
138.0954535853813
 30
0.0
 11
174.1123840461173
 21
138.1407660853813
 31
0.0
  0
LINE
  5
EC20
330
1F
100
AcDbEntity
  8
0
  6
Continuous
 62
     7
100
AcDbLine
 10
172.0001872052172
 20
138.0313910853813
 30
0.0
 11
173.0464236732175
 21
138.0954535853813
 31
0.0
  0
LINE
  5
EC21
330
1F
100
AcDbEntity
  8
0
  6
Continuous
 62
     7
100
AcDbLine
 10
170.9835365948173
 20
137.9579535853823
 30
0.0
 11
172.0001872052172
 21
138.0313910853813
 31
0.0
  0
LINE
  5
EC22
330
1F
100
AcDbEntity
  8
0
  6
Continuous
 62
     7
100
AcDbLine
 10
170.0063337944164
 20
137.8845160853813
 30
0.0
 11
170.9835365948173
 21
137.9579535853823
 31
0.0
  0
LINE
  5
EC23
330
1F
100
AcDbEntity
  8
0
  6
Continuous
 62
     7
100
AcDbLine
 10
169.0784407566173
 20
137.8204535853813
 30
0.0
 11
170.0063337944164
 21
137.8845160853813
 31
0.0
  0
LINE
  5
EC24
330
1F
100
AcDbEntity
  8
0
  6
Continuous
 62
     7
100
AcDbLine
 10
168.2097194338173
 20
137.7751410853813
 30
0.0
 11
169.0784407566173
 21
137.8204535853813
 31
0.0
  0
LINE
  5
EC25
330
1F
100
AcDbEntity
  8
0
  6
Continuous
 62
     7
100
AcDbLine
 10
167.4100317785163
 20
137.7579535853813
 30
0.0
 11
168.2097194338173
 21
137.7751410853813
 31
0.0
  0
LINE
  5
EC26
330
1F
100
AcDbEntity
  8
0
  6
Continuous
 62
     7
100
AcDbLine
 10
166.6882769104163
 20
137.7751410853813
 30
0.0
 11
167.4100317785163
 21
137.7579535853813
 31
0.0
  0
LINE
  5
EC27
330
1F
100
AcDbEntity
  8
0
  6
Continuous
 62
     7
100
AcDbLine
 10
166.0495026168184
 20
137.8204535853813
 30
0.0
 11
166.6882769104163
 21
137.7751410853813
 31
0.0
  0
LINE
  5
EC28
330
1F
100
AcDbEntity
  8
0
  6
Continuous
 62
     7
100
AcDbLine
 10
165.4977938522173
 20
137.8845160853813
 30
0.0
 11
166.0495026168184
 21
137.8204535853813
 31
0.0
  0
LINE
  5
EC29
330
1F
100
AcDbEntity
  8
0
  6
Continuous
 62
     7
100
AcDbLine
 10
165.0372355711174
 20
137.9579535853823
 30
0.0
 11
165.4977938522173
 21
137.8845160853813
 31
0.0
  0
LINE
  5
EC2A
330
1F
100
AcDbEntity
  8
0
  6
Continuous
 62
     7
100
AcDbLine
 10
164.6719127281164
 20
138.0313910853813
 30
0.0
 11
165.0372355711174
 21
137.9579535853823
 31
0.0
  0
LINE
  5
EC2B
330
1F
100
AcDbEntity
  8
0
  6
Continuous
 62
     7
100
AcDbLine
 10
164.4059102775184
 20
138.0954535853813
 30
0.0
 11
164.6719127281164
 21
138.0313910853813
 31
0.0
  0
LINE
  5
EC2C
330
1F
100
AcDbEntity
  8
0
  6
Continuous
 62
     7
100
AcDbLine
 10
164.2433131738173
 20
138.1407660853813
 30
0.0
 11
164.4059102775184
 21
138.0954535853813
 31
0.0
  0
LINE
  5
EC2D
330
1F
100
AcDbEntity
  8
0
  6
Continuous
 62
     7
100
AcDbLine
 10
164.1882063716173
 20
138.1579535853813
 30
0.0
 11
164.2433131738173
 21
138.1407660853813
 31
0.0
  0
LINE
  5
EC2E
330
1F
100
AcDbEntity
  8
0
  6
Continuous
 62
     7
100
AcDbLine
 10
186.1330995694173
 20
138.1407660853813
 30
0.0
 11
186.1882063716173
 21
138.1579535853813
 31
0.0
  0
LINE
  5
EC2F
330
1F
100
AcDbEntity
  8
0
  6
Continuous
 62
     7
100
AcDbLine
 10
185.9705024657164
 20
138.0954535853813
 30
0.0
 11
186.1330995694173
 21
138.1407660853813
 31
0.0
  0
LINE
  5
EC30
330
1F
100
AcDbEntity
  8
0
  6
Continuous
 62
     7
100
AcDbLine
 10
185.7045000151164
 20
138.0313910853813
 30
0.0
 11
185.9705024657164
 21
138.0954535853813
 31
0.0
  0
LINE
  5
EC31
330
1F
100
AcDbEntity
  8
0
  6
Continuous
 62
     7
100
AcDbLine
 10
185.3391771721174
 20
137.9579535853823
 30
0.0
 11
185.7045000151164
 21
138.0313910853813
 31
0.0
  0
LINE
  5
EC32
330
1F
100
AcDbEntity
  8
0
  6
Continuous
 62
     7
100
AcDbLine
 10
184.8786188910174
 20
137.8845160853813
 30
0.0
 11
185.3391771721174
 21
137.9579535853823
 31
0.0
  0
LINE
  5
EC33
330
1F
100
AcDbEntity
  8
0
  6
Continuous
 62
     7
100
AcDbLine
 10
184.3269101264164
 20
137.8204535853813
 30
0.0
 11
184.8786188910174
 21
137.8845160853813
 31
0.0
  0
LINE
  5
EC34
330
1F
100
AcDbEntity
  8
0
  6
Continuous
 62
     7
100
AcDbLine
 10
183.6881358328184
 20
137.7751410853813
 30
0.0
 11
184.3269101264164
 21
137.8204535853813
 31
0.0
  0
LINE
  5
EC35
330
1F
100
AcDbEntity
  8
0
  6
Continuous
 62
     7
100
AcDbLine
 10
182.9663809647183
 20
137.7579535853813
 30
0.0
 11
183.6881358328184
 21
137.7751410853813
 31
0.0
  0
LINE
  5
EC36
330
1F
100
AcDbEntity
  8
0
  6
Continuous
 62
     7
100
AcDbLine
 10
164.1882063716204
 20
139.3579535853823
 30
0.0
 11
164.1882063716173
 21
138.1579535853813
 31
0.0
  0
LINE
  5
EC37
330
1F
100
AcDbEntity
  8
0
  6
Continuous
 62
     7
100
AcDbLine
 10
186.1882063716173
 20
138.1579535853813
 30
0.0
 11
186.1882063716204
 21
139.3579535853823
 31
0.0
  0
LINE
  5
EC38
330
1F
100
AcDbEntity
  8
0
  6
Continuous
 62
     7
100
AcDbLine
 10
169.6882063716173
 20
139.3579535853823
 30
0.0
 11
164.1882063716204
 21
139.3579535853823
 31
0.0
  0
LINE
  5
EC39
330
1F
100
AcDbEntity
  8
0
  6
Continuous
 62
     7
100
AcDbLine
 10
186.1882063716204
 20
139.3579535853823
 30
0.0
 11
180.6882063716173
 21
139.3579535853823
 31
0.0
  0
LINE
  5
EC3A
330
1F
100
AcDbEntity
  8
0
  6
Continuous
 62
     7
100
AcDbLine
 10
167.4100317785163
 20
137.7579535853813
 30
0.0
 11
171.2991190750913
 21
137.7579535853813
 31
0.0
  0
LINE
  5
EC3B
330
1F
100
AcDbEntity
  8
AM_0
100
AcDbLine
 10
180.4098915549934
 20
97.63438303164532
 30
0.0
 11
180.6882063716173
 21
97.35795358538229
 31
0.0
  0
LINE
  5
EC3C
330
1F
100
AcDbEntity
  8
0
  6
Continuous
 62
     7
100
AcDbLine
 10
169.0784407566173
 20
97.69545358538232
 30
0.0
 11
169.9662921957036
 21
97.63415559035633
 31
0.0
  0
LINE
  5
EC3D
330
1F
100
AcDbEntity
  8
AM_0
100
AcDbLine
 10
169.6882063716173
 20
97.35795358538229
 30
0.0
 11
169.9662921957036
 21
97.63415559035633
 31
0.0
  0
LINE
  5
EC3E
330
1F
100
AcDbEntity
  8
0
  6
Continuous
 62
     7
100
AcDbLine
 10
182.9663809647183
 20
98.95795358538334
 30
0.0
 11
179.0772936681433
 21
98.95795358538334
 31
0.0
  0
LINE
  5
EC3F
330
1F
100
AcDbEntity
  8
AM_0
100
AcDbLine
 10
175.1882063716173
 20
98.5579535853833
 30
0.0
 11
179.0772936681433
 21
98.95795358538334
 31
0.0
  0
LINE
  5
EC40
330
1F
100
AcDbEntity
  8
AM_0
100
AcDbLine
 10
171.2991190750913
 20
98.95795358538334
 30
0.0
 11
175.1882063716173
 21
98.5579535853833
 31
0.0
  0
LINE
  5
EC41
330
1F
100
AcDbEntity
  8
0
  6
Continuous
 62
     7
100
AcDbLine
 10
182.9663809647183
 20
97.75795358538232
 30
0.0
 11
183.6881358328184
 21
97.7407660853823
 31
0.0
  0
LINE
  5
EC42
330
1F
100
AcDbEntity
  8
0
  6
Continuous
 62
     7
100
AcDbLine
 10
183.6881358328184
 20
97.7407660853823
 30
0.0
 11
184.3269101264164
 21
97.69545358538232
 31
0.0
  0
LINE
  5
EC43
330
1F
100
AcDbEntity
  8
0
  6
Continuous
 62
     7
100
AcDbLine
 10
184.3269101264164
 20
97.69545358538232
 30
0.0
 11
184.8786188910174
 21
97.63139108538229
 31
0.0
  0
LINE
  5
EC44
330
1F
100
AcDbEntity
  8
0
  6
Continuous
 62
     7
100
AcDbLine
 10
184.8786188910174
 20
97.63139108538229
 30
0.0
 11
185.3391771721174
 21
97.55795358538234
 31
0.0
  0
LINE
  5
EC45
330
1F
100
AcDbEntity
  8
0
  6
Continuous
 62
     7
100
AcDbLine
 10
185.3391771721174
 20
97.55795358538234
 30
0.0
 11
185.7045000151164
 21
97.48451608538232
 31
0.0
  0
LINE
  5
EC46
330
1F
100
AcDbEntity
  8
0
  6
Continuous
 62
     7
100
AcDbLine
 10
185.7045000151164
 20
97.48451608538232
 30
0.0
 11
185.9705024657164
 21
97.42045358538229
 31
0.0
  0
LINE
  5
EC47
330
1F
100
AcDbEntity
  8
0
  6
Continuous
 62
     7
100
AcDbLine
 10
185.9705024657164
 20
97.42045358538229
 30
0.0
 11
186.1330995694173
 21
97.37514108538233
 31
0.0
  0
LINE
  5
EC48
330
1F
100
AcDbEntity
  8
0
  6
Continuous
 62
     7
100
AcDbLine
 10
186.1330995694173
 20
97.37514108538233
 30
0.0
 11
186.1882063716204
 21
97.35795358538229
 31
0.0
  0
LINE
  5
EC49
330
1F
100
AcDbEntity
  8
0
  6
Continuous
 62
     7
100
AcDbLine
 10
164.1882063716204
 20
97.35795358538229
 30
0.0
 11
164.2433131738173
 21
97.37514108538233
 31
0.0
  0
LINE
  5
EC4A
330
1F
100
AcDbEntity
  8
0
  6
Continuous
 62
     7
100
AcDbLine
 10
164.2433131738173
 20
97.37514108538233
 30
0.0
 11
164.4059102775184
 21
97.42045358538229
 31
0.0
  0
LINE
  5
EC4B
330
1F
100
AcDbEntity
  8
0
  6
Continuous
 62
     7
100
AcDbLine
 10
164.4059102775184
 20
97.42045358538229
 30
0.0
 11
164.6719127281164
 21
97.48451608538232
 31
0.0
  0
LINE
  5
EC4C
330
1F
100
AcDbEntity
  8
0
  6
Continuous
 62
     7
100
AcDbLine
 10
164.6719127281164
 20
97.48451608538232
 30
0.0
 11
165.0372355711174
 21
97.55795358538234
 31
0.0
  0
LINE
  5
EC4D
330
1F
100
AcDbEntity
  8
0
  6
Continuous
 62
     7
100
AcDbLine
 10
165.0372355711174
 20
97.55795358538234
 30
0.0
 11
165.4977938522173
 21
97.63139108538229
 31
0.0
  0
LINE
  5
EC4E
330
1F
100
AcDbEntity
  8
0
  6
Continuous
 62
     7
100
AcDbLine
 10
165.4977938522173
 20
97.63139108538229
 30
0.0
 11
166.0495026168184
 21
97.69545358538232
 31
0.0
  0
LINE
  5
EC4F
330
1F
100
AcDbEntity
  8
0
  6
Continuous
 62
     7
100
AcDbLine
 10
166.0495026168184
 20
97.69545358538232
 30
0.0
 11
166.6882769104163
 21
97.7407660853823
 31
0.0
  0
LINE
  5
EC50
330
1F
100
AcDbEntity
  8
0
  6
Continuous
 62
     7
100
AcDbLine
 10
166.6882769104163
 20
97.7407660853823
 30
0.0
 11
167.4100317785163
 21
97.75795358538232
 31
0.0
  0
LINE
  5
EC51
330
1F
100
AcDbEntity
  8
0
  6
Continuous
 62
     7
100
AcDbLine
 10
167.4100317785163
 20
97.75795358538232
 30
0.0
 11
168.2097194338173
 21
97.7407660853823
 31
0.0
  0
LINE
  5
EC52
330
1F
100
AcDbEntity
  8
0
  6
Continuous
 62
     7
100
AcDbLine
 10
168.2097194338173
 20
97.7407660853823
 30
0.0
 11
169.0784407566173
 21
97.69545358538232
 31
0.0
  0
LINE
  5
EC53
330
1F
100
AcDbEntity
  8
0
  6
Continuous
 62
     7
100
AcDbLine
 10
169.9662921957036
 20
97.63415559035633
 30
0.0
 11
170.0063337944164
 21
97.63139108538229
 31
0.0
  0
LINE
  5
EC54
330
1F
100
AcDbEntity
  8
0
  6
Continuous
 62
     7
100
AcDbLine
 10
170.0063337944164
 20
97.63139108538229
 30
0.0
 11
170.9835365948173
 21
97.55795358538234
 31
0.0
  0
LINE
  5
EC55
330
1F
100
AcDbEntity
  8
0
  6
Continuous
 62
     7
100
AcDbLine
 10
170.9835365948173
 20
97.55795358538234
 30
0.0
 11
172.0001872052172
 21
97.48451608538232
 31
0.0
  0
LINE
  5
EC56
330
1F
100
AcDbEntity
  8
0
  6
Continuous
 62
     7
100
AcDbLine
 10
172.0001872052172
 20
97.48451608538232
 30
0.0
 11
173.0464236732175
 21
97.42045358538229
 31
0.0
  0
LINE
  5
EC57
330
1F
100
AcDbEntity
  8
0
  6
Continuous
 62
     7
100
AcDbLine
 10
173.0464236732175
 20
97.42045358538229
 30
0.0
 11
174.1123840461173
 21
97.37514108538233
 31
0.0
  0
LINE
  5
EC58
330
1F
100
AcDbEntity
  8
0
  6
Continuous
 62
     7
100
AcDbLine
 10
174.1123840461173
 20
97.37514108538233
 30
0.0
 11
175.1882063716173
 21
97.35795358538229
 31
0.0
  0
LINE
  5
EC59
330
1F
100
AcDbEntity
  8
0
  6
Continuous
 62
     7
100
AcDbLine
 10
175.1882063716173
 20
97.35795358538229
 30
0.0
 11
176.2640286971173
 21
97.37514108538233
 31
0.0
  0
LINE
  5
EC5A
330
1F
100
AcDbEntity
  8
0
  6
Continuous
 62
     7
100
AcDbLine
 10
176.2640286971173
 20
97.37514108538233
 30
0.0
 11
177.3299890700173
 21
97.42045358538229
 31
0.0
  0
LINE
  5
EC5B
330
1F
100
AcDbEntity
  8
0
  6
Continuous
 62
     7
100
AcDbLine
 10
177.3299890700173
 20
97.42045358538229
 30
0.0
 11
178.3762255380174
 21
97.48451608538232
 31
0.0
  0
LINE
  5
EC5C
330
1F
100
AcDbEntity
  8
0
  6
Continuous
 62
     7
100
AcDbLine
 10
178.3762255380174
 20
97.48451608538232
 30
0.0
 11
179.3928761484174
 21
97.55795358538234
 31
0.0
  0
LINE
  5
EC5D
330
1F
100
AcDbEntity
  8
0
  6
Continuous
 62
     7
100
AcDbLine
 10
179.3928761484174
 20
97.55795358538234
 30
0.0
 11
180.3700789488163
 21
97.63139108538229
 31
0.0
  0
LINE
  5
EC5E
330
1F
100
AcDbEntity
  8
0
  6
Continuous
 62
     7
100
AcDbLine
 10
180.3700789488163
 20
97.63139108538229
 30
0.0
 11
181.2979719866173
 21
97.69545358538232
 31
0.0
  0
LINE
  5
EC5F
330
1F
100
AcDbEntity
  8
0
  6
Continuous
 62
     7
100
AcDbLine
 10
181.2979719866173
 20
97.69545358538232
 30
0.0
 11
182.1666933094173
 21
97.7407660853823
 31
0.0
  0
LINE
  5
EC60
330
1F
100
AcDbEntity
  8
0
  6
Continuous
 62
     7
100
AcDbLine
 10
182.1666933094173
 20
97.7407660853823
 30
0.0
 11
182.9663809647183
 21
97.75795358538232
 31
0.0
  0
LINE
  5
EC61
330
1F
100
AcDbEntity
  8
0
  6
Continuous
 62
     7
100
AcDbLine
 10
182.9663809647183
 20
98.95795358538334
 30
0.0
 11
182.1666933094173
 21
98.9407660853833
 31
0.0
  0
LINE
  5
EC62
330
1F
100
AcDbEntity
  8
0
  6
Continuous
 62
     7
100
AcDbLine
 10
182.1666933094173
 20
98.9407660853833
 30
0.0
 11
181.2979719866173
 21
98.89545358538335
 31
0.0
  0
LINE
  5
EC63
330
1F
100
AcDbEntity
  8
0
  6
Continuous
 62
     7
100
AcDbLine
 10
181.2979719866173
 20
98.89545358538335
 30
0.0
 11
180.3700789488163
 21
98.8313910853833
 31
0.0
  0
LINE
  5
EC64
330
1F
100
AcDbEntity
  8
0
  6
Continuous
 62
     7
100
AcDbLine
 10
180.3700789488163
 20
98.8313910853833
 30
0.0
 11
179.3928761484174
 21
98.75795358538233
 31
0.0
  0
LINE
  5
EC65
330
1F
100
AcDbEntity
  8
0
  6
Continuous
 62
     7
100
AcDbLine
 10
179.3928761484174
 20
98.75795358538233
 30
0.0
 11
178.3762255380174
 21
98.68451608538334
 31
0.0
  0
LINE
  5
EC66
330
1F
100
AcDbEntity
  8
0
  6
Continuous
 62
     7
100
AcDbLine
 10
178.3762255380174
 20
98.68451608538334
 30
0.0
 11
177.3299890700173
 21
98.62045358538331
 31
0.0
  0
LINE
  5
EC67
330
1F
100
AcDbEntity
  8
0
  6
Continuous
 62
     7
100
AcDbLine
 10
177.3299890700173
 20
98.62045358538331
 30
0.0
 11
176.2640286971173
 21
98.57514108538333
 31
0.0
  0
LINE
  5
EC68
330
1F
100
AcDbEntity
  8
0
  6
Continuous
 62
     7
100
AcDbLine
 10
176.2640286971173
 20
98.57514108538333
 30
0.0
 11
175.1882063716173
 21
98.5579535853833
 31
0.0
  0
LINE
  5
EC69
330
1F
100
AcDbEntity
  8
0
  6
Continuous
 62
     7
100
AcDbLine
 10
175.1882063716173
 20
98.5579535853833
 30
0.0
 11
174.1123840461173
 21
98.57514108538333
 31
0.0
  0
LINE
  5
EC6A
330
1F
100
AcDbEntity
  8
0
  6
Continuous
 62
     7
100
AcDbLine
 10
174.1123840461173
 20
98.57514108538333
 30
0.0
 11
173.0464236732175
 21
98.62045358538331
 31
0.0
  0
LINE
  5
EC6B
330
1F
100
AcDbEntity
  8
0
  6
Continuous
 62
     7
100
AcDbLine
 10
173.0464236732175
 20
98.62045358538331
 30
0.0
 11
172.0001872052172
 21
98.68451608538334
 31
0.0
  0
LINE
  5
EC6C
330
1F
100
AcDbEntity
  8
0
  6
Continuous
 62
     7
100
AcDbLine
 10
172.0001872052172
 20
98.68451608538334
 30
0.0
 11
170.9835365948173
 21
98.75795358538233
 31
0.0
  0
LINE
  5
EC6D
330
1F
100
AcDbEntity
  8
0
  6
Continuous
 62
     7
100
AcDbLine
 10
170.9835365948173
 20
98.75795358538233
 30
0.0
 11
170.0063337944164
 21
98.8313910853833
 31
0.0
  0
LINE
  5
EC6E
330
1F
100
AcDbEntity
  8
0
  6
Continuous
 62
     7
100
AcDbLine
 10
170.0063337944164
 20
98.8313910853833
 30
0.0
 11
169.0784407566173
 21
98.89545358538335
 31
0.0
  0
LINE
  5
EC6F
330
1F
100
AcDbEntity
  8
0
  6
Continuous
 62
     7
100
AcDbLine
 10
169.0784407566173
 20
98.89545358538335
 30
0.0
 11
168.2097194338173
 21
98.9407660853833
 31
0.0
  0
LINE
  5
EC70
330
1F
100
AcDbEntity
  8
0
  6
Continuous
 62
     7
100
AcDbLine
 10
168.2097194338173
 20
98.9407660853833
 30
0.0
 11
167.4100317785163
 21
98.95795358538334
 31
0.0
  0
LINE
  5
EC71
330
1F
100
AcDbEntity
  8
0
  6
Continuous
 62
     7
100
AcDbLine
 10
167.4100317785163
 20
98.95795358538334
 30
0.0
 11
166.6882769104163
 21
98.9407660853833
 31
0.0
  0
LINE
  5
EC72
330
1F
100
AcDbEntity
  8
0
  6
Continuous
 62
     7
100
AcDbLine
 10
166.6882769104163
 20
98.9407660853833
 30
0.0
 11
166.0495026168184
 21
98.89545358538335
 31
0.0
  0
LINE
  5
EC73
330
1F
100
AcDbEntity
  8
0
  6
Continuous
 62
     7
100
AcDbLine
 10
166.0495026168184
 20
98.89545358538335
 30
0.0
 11
165.4977938522173
 21
98.8313910853833
 31
0.0
  0
LINE
  5
EC74
330
1F
100
AcDbEntity
  8
0
  6
Continuous
 62
     7
100
AcDbLine
 10
165.4977938522173
 20
98.8313910853833
 30
0.0
 11
165.0372355711174
 21
98.75795358538233
 31
0.0
  0
LINE
  5
EC75
330
1F
100
AcDbEntity
  8
0
  6
Continuous
 62
     7
100
AcDbLine
 10
165.0372355711174
 20
98.75795358538233
 30
0.0
 11
164.6719127281164
 21
98.68451608538334
 31
0.0
  0
LINE
  5
EC76
330
1F
100
AcDbEntity
  8
0
  6
Continuous
 62
     7
100
AcDbLine
 10
164.6719127281164
 20
98.68451608538334
 30
0.0
 11
164.4059102775184
 21
98.62045358538331
 31
0.0
  0
LINE
  5
EC77
330
1F
100
AcDbEntity
  8
0
  6
Continuous
 62
     7
100
AcDbLine
 10
164.4059102775184
 20
98.62045358538331
 30
0.0
 11
164.2433131738173
 21
98.57514108538333
 31
0.0
  0
LINE
  5
EC78
330
1F
100
AcDbEntity
  8
0
  6
Continuous
 62
     7
100
AcDbLine
 10
164.2433131738173
 20
98.57514108538333
 30
0.0
 11
164.1882063716173
 21
98.5579535853833
 31
0.0
  0
LINE
  5
EC79
330
1F
100
AcDbEntity
  8
0
  6
Continuous
 62
     7
100
AcDbLine
 10
186.1882063716173
 20
98.5579535853833
 30
0.0
 11
186.1330995694173
 21
98.57514108538333
 31
0.0
  0
LINE
  5
EC7A
330
1F
100
AcDbEntity
  8
0
  6
Continuous
 62
     7
100
AcDbLine
 10
186.1330995694173
 20
98.57514108538333
 30
0.0
 11
185.9705024657164
 21
98.62045358538331
 31
0.0
  0
LINE
  5
EC7B
330
1F
100
AcDbEntity
  8
0
  6
Continuous
 62
     7
100
AcDbLine
 10
185.9705024657164
 20
98.62045358538331
 30
0.0
 11
185.7045000151164
 21
98.68451608538334
 31
0.0
  0
LINE
  5
EC7C
330
1F
100
AcDbEntity
  8
0
  6
Continuous
 62
     7
100
AcDbLine
 10
185.7045000151164
 20
98.68451608538334
 30
0.0
 11
185.3391771721174
 21
98.75795358538233
 31
0.0
  0
LINE
  5
EC7D
330
1F
100
AcDbEntity
  8
0
  6
Continuous
 62
     7
100
AcDbLine
 10
185.3391771721174
 20
98.75795358538233
 30
0.0
 11
184.8786188910174
 21
98.8313910853833
 31
0.0
  0
LINE
  5
EC7E
330
1F
100
AcDbEntity
  8
0
  6
Continuous
 62
     7
100
AcDbLine
 10
184.8786188910174
 20
98.8313910853833
 30
0.0
 11
184.3269101264164
 21
98.89545358538335
 31
0.0
  0
LINE
  5
EC7F
330
1F
100
AcDbEntity
  8
0
  6
Continuous
 62
     7
100
AcDbLine
 10
184.3269101264164
 20
98.89545358538335
 30
0.0
 11
183.6881358328184
 21
98.9407660853833
 31
0.0
  0
LINE
  5
EC80
330
1F
100
AcDbEntity
  8
0
  6
Continuous
 62
     7
100
AcDbLine
 10
183.6881358328184
 20
98.9407660853833
 30
0.0
 11
182.9663809647183
 21
98.95795358538334
 31
0.0
  0
LINE
  5
EC81
330
1F
100
AcDbEntity
  8
0
  6
Continuous
 62
     7
100
AcDbLine
 10
164.1882063716173
 20
98.5579535853833
 30
0.0
 11
164.1882063716204
 21
97.35795358538229
 31
0.0
  0
LINE
  5
EC82
330
1F
100
AcDbEntity
  8
0
  6
Continuous
 62
     7
100
AcDbLine
 10
186.1882063716204
 20
97.35795358538229
 30
0.0
 11
186.1882063716173
 21
98.5579535853833
 31
0.0
  0
LINE
  5
EC83
330
1F
100
AcDbEntity
  8
0
  6
Continuous
 62
     7
100
AcDbLine
 10
164.1882063716204
 20
97.35795358538229
 30
0.0
 11
169.6882063716173
 21
97.35795358538229
 31
0.0
  0
LINE
  5
EC84
330
1F
100
AcDbEntity
  8
0
  6
Continuous
 62
     7
100
AcDbLine
 10
180.6882063716173
 20
97.35795358538229
 30
0.0
 11
186.1882063716204
 21
97.35795358538229
 31
0.0
  0
LINE
  5
EC85
330
1F
100
AcDbEntity
  8
0
  6
Continuous
 62
     7
100
AcDbLine
 10
171.2991190750913
 20
98.95795358538334
 30
0.0
 11
167.4100317785163
 21
98.95795358538334
 31
0.0
  0
LINE
  5
EC86
330
1F
100
AcDbEntity
  8
AM_0
100
AcDbLine
 10
97.58455262060957
 20
139.3579535853823
 30
0.0
 11
97.30623780398552
 21
139.0815241391194
 31
0.0
  0
LINE
  5
EC87
330
1F
100
AcDbEntity
  8
0
  6
Continuous
 62
     7
100
AcDbLine
 10
86.86263844469548
 20
139.0817515804083
 30
0.0
 11
85.97478700560955
 21
139.0204535853823
 31
0.0
  0
LINE
  5
EC88
330
1F
100
AcDbEntity
  8
AM_0
100
AcDbLine
 10
86.86263844469548
 20
139.0817515804083
 30
0.0
 11
86.58455262060957
 21
139.3579535853823
 31
0.0
  0
LINE
  5
EC89
330
1F
100
AcDbEntity
  8
0
  6
Continuous
 62
     7
100
AcDbLine
 10
95.97363991713555
 20
137.7579535853813
 30
0.0
 11
99.86272721371044
 21
137.7579535853813
 31
0.0
  0
LINE
  5
EC8A
330
1F
100
AcDbEntity
  8
AM_0
100
AcDbLine
 10
95.97363991713555
 20
137.7579535853813
 30
0.0
 11
92.08455262060956
 21
138.1579535853813
 31
0.0
  0
LINE
  5
EC8B
330
1F
100
AcDbEntity
  8
AM_0
100
AcDbLine
 10
92.08455262060956
 20
138.1579535853813
 30
0.0
 11
88.19546532408358
 21
137.7579535853813
 31
0.0
  0
LINE
  5
EC8C
330
1F
100
AcDbEntity
  8
0
  6
Continuous
 62
     7
100
AcDbLine
 10
100.5844820818105
 20
138.9751410853823
 30
0.0
 11
99.86272721371044
 21
138.9579535853823
 31
0.0
  0
LINE
  5
EC8D
330
1F
100
AcDbEntity
  8
0
  6
Continuous
 62
     7
100
AcDbLine
 10
101.2232563754084
 20
139.0204535853823
 30
0.0
 11
100.5844820818105
 21
138.9751410853823
 31
0.0
  0
LINE
  5
EC8E
330
1F
100
AcDbEntity
  8
0
  6
Continuous
 62
     7
100
AcDbLine
 10
101.7749651400096
 20
139.0845160853823
 30
0.0
 11
101.2232563754084
 21
139.0204535853823
 31
0.0
  0
LINE
  5
EC8F
330
1F
100
AcDbEntity
  8
0
  6
Continuous
 62
     7
100
AcDbLine
 10
102.2355234211094
 20
139.1579535853823
 30
0.0
 11
101.7749651400096
 21
139.0845160853823
 31
0.0
  0
LINE
  5
EC90
330
1F
100
AcDbEntity
  8
0
  6
Continuous
 62
     7
100
AcDbLine
 10
102.6008462641085
 20
139.2313910853823
 30
0.0
 11
102.2355234211094
 21
139.1579535853823
 31
0.0
  0
LINE
  5
EC91
330
1F
100
AcDbEntity
  8
0
  6
Continuous
 62
     7
100
AcDbLine
 10
102.8668487147085
 20
139.2954535853823
 30
0.0
 11
102.6008462641085
 21
139.2313910853823
 31
0.0
  0
LINE
  5
EC92
330
1F
100
AcDbEntity
  8
0
  6
Continuous
 62
     7
100
AcDbLine
 10
103.0294458184095
 20
139.3407660853823
 30
0.0
 11
102.8668487147085
 21
139.2954535853823
 31
0.0
  0
LINE
  5
EC93
330
1F
100
AcDbEntity
  8
0
  6
Continuous
 62
     7
100
AcDbLine
 10
103.0845526206096
 20
139.3579535853823
 30
0.0
 11
103.0294458184095
 21
139.3407660853823
 31
0.0
  0
LINE
  5
EC94
330
1F
100
AcDbEntity
  8
0
  6
Continuous
 62
     7
100
AcDbLine
 10
81.1396594228095
 20
139.3407660853823
 30
0.0
 11
81.08455262060957
 21
139.3579535853823
 31
0.0
  0
LINE
  5
EC95
330
1F
100
AcDbEntity
  8
0
  6
Continuous
 62
     7
100
AcDbLine
 10
81.30225652651043
 20
139.2954535853823
 30
0.0
 11
81.1396594228095
 21
139.3407660853823
 31
0.0
  0
LINE
  5
EC96
330
1F
100
AcDbEntity
  8
0
  6
Continuous
 62
     7
100
AcDbLine
 10
81.5682589771085
 20
139.2313910853823
 30
0.0
 11
81.30225652651043
 21
139.2954535853823
 31
0.0
  0
LINE
  5
EC97
330
1F
100
AcDbEntity
  8
0
  6
Continuous
 62
     7
100
AcDbLine
 10
81.93358182010948
 20
139.1579535853823
 30
0.0
 11
81.5682589771085
 21
139.2313910853823
 31
0.0
  0
LINE
  5
EC98
330
1F
100
AcDbEntity
  8
0
  6
Continuous
 62
     7
100
AcDbLine
 10
82.39414010120951
 20
139.0845160853823
 30
0.0
 11
81.93358182010948
 21
139.1579535853823
 31
0.0
  0
LINE
  5
EC99
330
1F
100
AcDbEntity
  8
0
  6
Continuous
 62
     7
100
AcDbLine
 10
82.94584886581052
 20
139.0204535853823
 30
0.0
 11
82.39414010120951
 21
139.0845160853823
 31
0.0
  0
LINE
  5
EC9A
330
1F
100
AcDbEntity
  8
0
  6
Continuous
 62
     7
100
AcDbLine
 10
83.58462315940849
 20
138.9751410853823
 30
0.0
 11
82.94584886581052
 21
139.0204535853823
 31
0.0
  0
LINE
  5
EC9B
330
1F
100
AcDbEntity
  8
0
  6
Continuous
 62
     7
100
AcDbLine
 10
84.30637802750849
 20
138.9579535853823
 30
0.0
 11
83.58462315940849
 21
138.9751410853823
 31
0.0
  0
LINE
  5
EC9C
330
1F
100
AcDbEntity
  8
0
  6
Continuous
 62
     7
100
AcDbLine
 10
85.10606568280948
 20
138.9751410853823
 30
0.0
 11
84.30637802750849
 21
138.9579535853823
 31
0.0
  0
LINE
  5
EC9D
330
1F
100
AcDbEntity
  8
0
  6
Continuous
 62
     7
100
AcDbLine
 10
85.97478700560955
 20
139.0204535853823
 30
0.0
 11
85.10606568280948
 21
138.9751410853823
 31
0.0
  0
LINE
  5
EC9E
330
1F
100
AcDbEntity
  8
0
  6
Continuous
 62
     7
100
AcDbLine
 10
86.90268004340842
 20
139.0845160853823
 30
0.0
 11
86.86263844469548
 21
139.0817515804083
 31
0.0
  0
LINE
  5
EC9F
330
1F
100
AcDbEntity
  8
0
  6
Continuous
 62
     7
100
AcDbLine
 10
87.87988284380949
 20
139.1579535853823
 30
0.0
 11
86.90268004340842
 21
139.0845160853823
 31
0.0
  0
LINE
  5
ECA0
330
1F
100
AcDbEntity
  8
0
  6
Continuous
 62
     7
100
AcDbLine
 10
88.89653345420951
 20
139.2313910853823
 30
0.0
 11
87.87988284380949
 21
139.1579535853823
 31
0.0
  0
LINE
  5
ECA1
330
1F
100
AcDbEntity
  8
0
  6
Continuous
 62
     7
100
AcDbLine
 10
89.94276992220946
 20
139.2954535853823
 30
0.0
 11
88.89653345420951
 21
139.2313910853823
 31
0.0
  0
LINE
  5
ECA2
330
1F
100
AcDbEntity
  8
0
  6
Continuous
 62
     7
100
AcDbLine
 10
91.00873029510959
 20
139.3407660853823
 30
0.0
 11
89.94276992220946
 21
139.2954535853823
 31
0.0
  0
LINE
  5
ECA3
330
1F
100
AcDbEntity
  8
0
  6
Continuous
 62
     7
100
AcDbLine
 10
92.08455262060956
 20
139.3579535853823
 30
0.0
 11
91.00873029510959
 21
139.3407660853823
 31
0.0
  0
LINE
  5
ECA4
330
1F
100
AcDbEntity
  8
0
  6
Continuous
 62
     7
100
AcDbLine
 10
93.16037494610956
 20
139.3407660853823
 30
0.0
 11
92.08455262060956
 21
139.3579535853823
 31
0.0
  0
LINE
  5
ECA5
330
1F
100
AcDbEntity
  8
0
  6
Continuous
 62
     7
100
AcDbLine
 10
94.22633531900956
 20
139.2954535853823
 30
0.0
 11
93.16037494610956
 21
139.3407660853823
 31
0.0
  0
LINE
  5
ECA6
330
1F
100
AcDbEntity
  8
0
  6
Continuous
 62
     7
100
AcDbLine
 10
95.27257178700953
 20
139.2313910853823
 30
0.0
 11
94.22633531900956
 21
139.2954535853823
 31
0.0
  0
LINE
  5
ECA7
330
1F
100
AcDbEntity
  8
0
  6
Continuous
 62
     7
100
AcDbLine
 10
96.28922239740942
 20
139.1579535853823
 30
0.0
 11
95.27257178700953
 21
139.2313910853823
 31
0.0
  0
LINE
  5
ECA8
330
1F
100
AcDbEntity
  8
0
  6
Continuous
 62
     7
100
AcDbLine
 10
97.26642519780845
 20
139.0845160853823
 30
0.0
 11
96.28922239740942
 21
139.1579535853823
 31
0.0
  0
LINE
  5
ECA9
330
1F
100
AcDbEntity
  8
0
  6
Continuous
 62
     7
100
AcDbLine
 10
98.19431823560947
 20
139.0204535853823
 30
0.0
 11
97.26642519780845
 21
139.0845160853823
 31
0.0
  0
LINE
  5
ECAA
330
1F
100
AcDbEntity
  8
0
  6
Continuous
 62
     7
100
AcDbLine
 10
99.06303955840954
 20
138.9751410853823
 30
0.0
 11
98.19431823560947
 21
139.0204535853823
 31
0.0
  0
LINE
  5
ECAB
330
1F
100
AcDbEntity
  8
0
  6
Continuous
 62
     7
100
AcDbLine
 10
99.86272721371044
 20
138.9579535853823
 30
0.0
 11
99.06303955840954
 21
138.9751410853823
 31
0.0
  0
LINE
  5
ECAC
330
1F
100
AcDbEntity
  8
0
  6
Continuous
 62
     7
100
AcDbLine
 10
99.06303955840954
 20
137.7751410853813
 30
0.0
 11
99.86272721371044
 21
137.7579535853813
 31
0.0
  0
LINE
  5
ECAD
330
1F
100
AcDbEntity
  8
0
  6
Continuous
 62
     7
100
AcDbLine
 10
98.19431823560947
 20
137.8204535853813
 30
0.0
 11
99.06303955840954
 21
137.7751410853813
 31
0.0
  0
LINE
  5
ECAE
330
1F
100
AcDbEntity
  8
0
  6
Continuous
 62
     7
100
AcDbLine
 10
97.26642519780845
 20
137.8845160853813
 30
0.0
 11
98.19431823560947
 21
137.8204535853813
 31
0.0
  0
LINE
  5
ECAF
330
1F
100
AcDbEntity
  8
0
  6
Continuous
 62
     7
100
AcDbLine
 10
96.28922239740942
 20
137.9579535853823
 30
0.0
 11
97.26642519780845
 21
137.8845160853813
 31
0.0
  0
LINE
  5
ECB0
330
1F
100
AcDbEntity
  8
0
  6
Continuous
 62
     7
100
AcDbLine
 10
95.27257178700953
 20
138.0313910853813
 30
0.0
 11
96.28922239740942
 21
137.9579535853823
 31
0.0
  0
LINE
  5
ECB1
330
1F
100
AcDbEntity
  8
0
  6
Continuous
 62
     7
100
AcDbLine
 10
94.22633531900956
 20
138.0954535853813
 30
0.0
 11
95.27257178700953
 21
138.0313910853813
 31
0.0
  0
LINE
  5
ECB2
330
1F
100
AcDbEntity
  8
0
  6
Continuous
 62
     7
100
AcDbLine
 10
93.16037494610956
 20
138.1407660853813
 30
0.0
 11
94.22633531900956
 21
138.0954535853813
 31
0.0
  0
LINE
  5
ECB3
330
1F
100
AcDbEntity
  8
0
  6
Continuous
 62
     7
100
AcDbLine
 10
92.08455262060956
 20
138.1579535853813
 30
0.0
 11
93.16037494610956
 21
138.1407660853813
 31
0.0
  0
LINE
  5
ECB4
330
1F
100
AcDbEntity
  8
0
  6
Continuous
 62
     7
100
AcDbLine
 10
91.00873029510959
 20
138.1407660853813
 30
0.0
 11
92.08455262060956
 21
138.1579535853813
 31
0.0
  0
LINE
  5
ECB5
330
1F
100
AcDbEntity
  8
0
  6
Continuous
 62
     7
100
AcDbLine
 10
89.94276992220946
 20
138.0954535853813
 30
0.0
 11
91.00873029510959
 21
138.1407660853813
 31
0.0
  0
LINE
  5
ECB6
330
1F
100
AcDbEntity
  8
0
  6
Continuous
 62
     7
100
AcDbLine
 10
88.89653345420951
 20
138.0313910853813
 30
0.0
 11
89.94276992220946
 21
138.0954535853813
 31
0.0
  0
LINE
  5
ECB7
330
1F
100
AcDbEntity
  8
0
  6
Continuous
 62
     7
100
AcDbLine
 10
87.87988284380949
 20
137.9579535853823
 30
0.0
 11
88.89653345420951
 21
138.0313910853813
 31
0.0
  0
LINE
  5
ECB8
330
1F
100
AcDbEntity
  8
0
  6
Continuous
 62
     7
100
AcDbLine
 10
86.90268004340842
 20
137.8845160853813
 30
0.0
 11
87.87988284380949
 21
137.9579535853823
 31
0.0
  0
LINE
  5
ECB9
330
1F
100
AcDbEntity
  8
0
  6
Continuous
 62
     7
100
AcDbLine
 10
85.97478700560955
 20
137.8204535853813
 30
0.0
 11
86.90268004340842
 21
137.8845160853813
 31
0.0
  0
LINE
  5
ECBA
330
1F
100
AcDbEntity
  8
0
  6
Continuous
 62
     7
100
AcDbLine
 10
85.10606568280948
 20
137.7751410853813
 30
0.0
 11
85.97478700560955
 21
137.8204535853813
 31
0.0
  0
LINE
  5
ECBB
330
1F
100
AcDbEntity
  8
0
  6
Continuous
 62
     7
100
AcDbLine
 10
84.30637802750849
 20
137.7579535853813
 30
0.0
 11
85.10606568280948
 21
137.7751410853813
 31
0.0
  0
LINE
  5
ECBC
330
1F
100
AcDbEntity
  8
0
  6
Continuous
 62
     7
100
AcDbLine
 10
83.58462315940849
 20
137.7751410853813
 30
0.0
 11
84.30637802750849
 21
137.7579535853813
 31
0.0
  0
LINE
  5
ECBD
330
1F
100
AcDbEntity
  8
0
  6
Continuous
 62
     7
100
AcDbLine
 10
82.94584886581052
 20
137.8204535853813
 30
0.0
 11
83.58462315940849
 21
137.7751410853813
 31
0.0
  0
LINE
  5
ECBE
330
1F
100
AcDbEntity
  8
0
  6
Continuous
 62
     7
100
AcDbLine
 10
82.39414010120951
 20
137.8845160853813
 30
0.0
 11
82.94584886581052
 21
137.8204535853813
 31
0.0
  0
LINE
  5
ECBF
330
1F
100
AcDbEntity
  8
0
  6
Continuous
 62
     7
100
AcDbLine
 10
81.93358182010948
 20
137.9579535853823
 30
0.0
 11
82.39414010120951
 21
137.8845160853813
 31
0.0
  0
LINE
  5
ECC0
330
1F
100
AcDbEntity
  8
0
  6
Continuous
 62
     7
100
AcDbLine
 10
81.5682589771085
 20
138.0313910853813
 30
0.0
 11
81.93358182010948
 21
137.9579535853823
 31
0.0
  0
LINE
  5
ECC1
330
1F
100
AcDbEntity
  8
0
  6
Continuous
 62
     7
100
AcDbLine
 10
81.30225652651043
 20
138.0954535853813
 30
0.0
 11
81.5682589771085
 21
138.0313910853813
 31
0.0
  0
LINE
  5
ECC2
330
1F
100
AcDbEntity
  8
0
  6
Continuous
 62
     7
100
AcDbLine
 10
81.1396594228095
 20
138.1407660853813
 30
0.0
 11
81.30225652651043
 21
138.0954535853813
 31
0.0
  0
LINE
  5
ECC3
330
1F
100
AcDbEntity
  8
0
  6
Continuous
 62
     7
100
AcDbLine
 10
81.08455262060957
 20
138.1579535853813
 30
0.0
 11
81.1396594228095
 21
138.1407660853813
 31
0.0
  0
LINE
  5
ECC4
330
1F
100
AcDbEntity
  8
0
  6
Continuous
 62
     7
100
AcDbLine
 10
103.0294458184095
 20
138.1407660853813
 30
0.0
 11
103.0845526206096
 21
138.1579535853813
 31
0.0
  0
LINE
  5
ECC5
330
1F
100
AcDbEntity
  8
0
  6
Continuous
 62
     7
100
AcDbLine
 10
102.8668487147085
 20
138.0954535853813
 30
0.0
 11
103.0294458184095
 21
138.1407660853813
 31
0.0
  0
LINE
  5
ECC6
330
1F
100
AcDbEntity
  8
0
  6
Continuous
 62
     7
100
AcDbLine
 10
102.6008462641085
 20
138.0313910853813
 30
0.0
 11
102.8668487147085
 21
138.0954535853813
 31
0.0
  0
LINE
  5
ECC7
330
1F
100
AcDbEntity
  8
0
  6
Continuous
 62
     7
100
AcDbLine
 10
102.2355234211094
 20
137.9579535853823
 30
0.0
 11
102.6008462641085
 21
138.0313910853813
 31
0.0
  0
LINE
  5
ECC8
330
1F
100
AcDbEntity
  8
0
  6
Continuous
 62
     7
100
AcDbLine
 10
101.7749651400096
 20
137.8845160853813
 30
0.0
 11
102.2355234211094
 21
137.9579535853823
 31
0.0
  0
LINE
  5
ECC9
330
1F
100
AcDbEntity
  8
0
  6
Continuous
 62
     7
100
AcDbLine
 10
101.2232563754084
 20
137.8204535853813
 30
0.0
 11
101.7749651400096
 21
137.8845160853813
 31
0.0
  0
LINE
  5
ECCA
330
1F
100
AcDbEntity
  8
0
  6
Continuous
 62
     7
100
AcDbLine
 10
100.5844820818105
 20
137.7751410853813
 30
0.0
 11
101.2232563754084
 21
137.8204535853813
 31
0.0
  0
LINE
  5
ECCB
330
1F
100
AcDbEntity
  8
0
  6
Continuous
 62
     7
100
AcDbLine
 10
99.86272721371044
 20
137.7579535853813
 30
0.0
 11
100.5844820818105
 21
137.7751410853813
 31
0.0
  0
LINE
  5
ECCC
330
1F
100
AcDbEntity
  8
0
  6
Continuous
 62
     7
100
AcDbLine
 10
81.08455262060957
 20
139.3579535853823
 30
0.0
 11
81.08455262060957
 21
138.1579535853813
 31
0.0
  0
LINE
  5
ECCD
330
1F
100
AcDbEntity
  8
0
  6
Continuous
 62
     7
100
AcDbLine
 10
103.0845526206096
 20
138.1579535853813
 30
0.0
 11
103.0845526206096
 21
139.3579535853823
 31
0.0
  0
LINE
  5
ECCE
330
1F
100
AcDbEntity
  8
0
  6
Continuous
 62
     7
100
AcDbLine
 10
86.58455262060957
 20
139.3579535853823
 30
0.0
 11
81.08455262060957
 21
139.3579535853823
 31
0.0
  0
LINE
  5
ECCF
330
1F
100
AcDbEntity
  8
0
  6
Continuous
 62
     7
100
AcDbLine
 10
103.0845526206096
 20
139.3579535853823
 30
0.0
 11
97.58455262060957
 21
139.3579535853823
 31
0.0
  0
LINE
  5
ECD0
330
1F
100
AcDbEntity
  8
0
  6
Continuous
 62
     7
100
AcDbLine
 10
84.30637802750849
 20
137.7579535853813
 30
0.0
 11
88.19546532408358
 21
137.7579535853813
 31
0.0
  0
LINE
  5
ECD1
330
1F
100
AcDbEntity
  8
AM_0
100
AcDbLine
 10
97.30623780398552
 20
97.63438303164532
 30
0.0
 11
97.58455262060957
 21
97.35795358538229
 31
0.0
  0
LINE
  5
ECD2
330
1F
100
AcDbEntity
  8
0
  6
Continuous
 62
     7
100
AcDbLine
 10
85.97478700560955
 20
97.69545358538232
 30
0.0
 11
86.86263844469548
 21
97.63415559035633
 31
0.0
  0
LINE
  5
ECD3
330
1F
100
AcDbEntity
  8
AM_0
100
AcDbLine
 10
86.58455262060957
 20
97.35795358538229
 30
0.0
 11
86.86263844469548
 21
97.63415559035633
 31
0.0
  0
LINE
  5
ECD4
330
1F
100
AcDbEntity
  8
0
  6
Continuous
 62
     7
100
AcDbLine
 10
99.86272721371044
 20
98.95795358538334
 30
0.0
 11
95.97363991713555
 21
98.95795358538334
 31
0.0
  0
LINE
  5
ECD5
330
1F
100
AcDbEntity
  8
AM_0
100
AcDbLine
 10
92.08455262060956
 20
98.5579535853833
 30
0.0
 11
95.97363991713555
 21
98.95795358538334
 31
0.0
  0
LINE
  5
ECD6
330
1F
100
AcDbEntity
  8
AM_0
100
AcDbLine
 10
88.19546532408358
 20
98.95795358538334
 30
0.0
 11
92.08455262060956
 21
98.5579535853833
 31
0.0
  0
LINE
  5
ECD7
330
1F
100
AcDbEntity
  8
0
  6
Continuous
 62
     7
100
AcDbLine
 10
99.86272721371044
 20
97.75795358538232
 30
0.0
 11
100.5844820818105
 21
97.7407660853823
 31
0.0
  0
LINE
  5
ECD8
330
1F
100
AcDbEntity
  8
0
  6
Continuous
 62
     7
100
AcDbLine
 10
100.5844820818105
 20
97.7407660853823
 30
0.0
 11
101.2232563754084
 21
97.69545358538232
 31
0.0
  0
LINE
  5
ECD9
330
1F
100
AcDbEntity
  8
0
  6
Continuous
 62
     7
100
AcDbLine
 10
101.2232563754084
 20
97.69545358538232
 30
0.0
 11
101.7749651400096
 21
97.63139108538229
 31
0.0
  0
LINE
  5
ECDA
330
1F
100
AcDbEntity
  8
0
  6
Continuous
 62
     7
100
AcDbLine
 10
101.7749651400096
 20
97.63139108538229
 30
0.0
 11
102.2355234211094
 21
97.55795358538234
 31
0.0
  0
LINE
  5
ECDB
330
1F
100
AcDbEntity
  8
0
  6
Continuous
 62
     7
100
AcDbLine
 10
102.2355234211094
 20
97.55795358538234
 30
0.0
 11
102.6008462641085
 21
97.48451608538232
 31
0.0
  0
LINE
  5
ECDC
330
1F
100
AcDbEntity
  8
0
  6
Continuous
 62
     7
100
AcDbLine
 10
102.6008462641085
 20
97.48451608538232
 30
0.0
 11
102.8668487147085
 21
97.42045358538229
 31
0.0
  0
LINE
  5
ECDD
330
1F
100
AcDbEntity
  8
0
  6
Continuous
 62
     7
100
AcDbLine
 10
102.8668487147085
 20
97.42045358538229
 30
0.0
 11
103.0294458184095
 21
97.37514108538233
 31
0.0
  0
LINE
  5
ECDE
330
1F
100
AcDbEntity
  8
0
  6
Continuous
 62
     7
100
AcDbLine
 10
103.0294458184095
 20
97.37514108538233
 30
0.0
 11
103.0845526206096
 21
97.35795358538229
 31
0.0
  0
LINE
  5
ECDF
330
1F
100
AcDbEntity
  8
0
  6
Continuous
 62
     7
100
AcDbLine
 10
81.08455262060957
 20
97.35795358538229
 30
0.0
 11
81.1396594228095
 21
97.37514108538233
 31
0.0
  0
LINE
  5
ECE0
330
1F
100
AcDbEntity
  8
0
  6
Continuous
 62
     7
100
AcDbLine
 10
81.1396594228095
 20
97.37514108538233
 30
0.0
 11
81.30225652651043
 21
97.42045358538229
 31
0.0
  0
LINE
  5
ECE1
330
1F
100
AcDbEntity
  8
0
  6
Continuous
 62
     7
100
AcDbLine
 10
81.30225652651043
 20
97.42045358538229
 30
0.0
 11
81.5682589771085
 21
97.48451608538232
 31
0.0
  0
LINE
  5
ECE2
330
1F
100
AcDbEntity
  8
0
  6
Continuous
 62
     7
100
AcDbLine
 10
81.5682589771085
 20
97.48451608538232
 30
0.0
 11
81.93358182010948
 21
97.55795358538234
 31
0.0
  0
LINE
  5
ECE3
330
1F
100
AcDbEntity
  8
0
  6
Continuous
 62
     7
100
AcDbLine
 10
81.93358182010948
 20
97.55795358538234
 30
0.0
 11
82.39414010120951
 21
97.63139108538229
 31
0.0
  0
LINE
  5
ECE4
330
1F
100
AcDbEntity
  8
0
  6
Continuous
 62
     7
100
AcDbLine
 10
82.39414010120951
 20
97.63139108538229
 30
0.0
 11
82.94584886581052
 21
97.69545358538232
 31
0.0
  0
LINE
  5
ECE5
330
1F
100
AcDbEntity
  8
0
  6
Continuous
 62
     7
100
AcDbLine
 10
82.94584886581052
 20
97.69545358538232
 30
0.0
 11
83.58462315940849
 21
97.7407660853823
 31
0.0
  0
LINE
  5
ECE6
330
1F
100
AcDbEntity
  8
0
  6
Continuous
 62
     7
100
AcDbLine
 10
83.58462315940849
 20
97.7407660853823
 30
0.0
 11
84.30637802750849
 21
97.75795358538232
 31
0.0
  0
LINE
  5
ECE7
330
1F
100
AcDbEntity
  8
0
  6
Continuous
 62
     7
100
AcDbLine
 10
84.30637802750849
 20
97.75795358538232
 30
0.0
 11
85.10606568280948
 21
97.7407660853823
 31
0.0
  0
LINE
  5
ECE8
330
1F
100
AcDbEntity
  8
0
  6
Continuous
 62
     7
100
AcDbLine
 10
85.10606568280948
 20
97.7407660853823
 30
0.0
 11
85.97478700560955
 21
97.69545358538232
 31
0.0
  0
LINE
  5
ECE9
330
1F
100
AcDbEntity
  8
0
  6
Continuous
 62
     7
100
AcDbLine
 10
86.86263844469548
 20
97.63415559035633
 30
0.0
 11
86.90268004340842
 21
97.63139108538229
 31
0.0
  0
LINE
  5
ECEA
330
1F
100
AcDbEntity
  8
0
  6
Continuous
 62
     7
100
AcDbLine
 10
86.90268004340842
 20
97.63139108538229
 30
0.0
 11
87.87988284380949
 21
97.55795358538234
 31
0.0
  0
LINE
  5
ECEB
330
1F
100
AcDbEntity
  8
0
  6
Continuous
 62
     7
100
AcDbLine
 10
87.87988284380949
 20
97.55795358538234
 30
0.0
 11
88.89653345420951
 21
97.48451608538232
 31
0.0
  0
LINE
  5
ECEC
330
1F
100
AcDbEntity
  8
0
  6
Continuous
 62
     7
100
AcDbLine
 10
88.89653345420951
 20
97.48451608538232
 30
0.0
 11
89.94276992220946
 21
97.42045358538229
 31
0.0
  0
LINE
  5
ECED
330
1F
100
AcDbEntity
  8
0
  6
Continuous
 62
     7
100
AcDbLine
 10
89.94276992220946
 20
97.42045358538229
 30
0.0
 11
91.00873029510959
 21
97.37514108538233
 31
0.0
  0
LINE
  5
ECEE
330
1F
100
AcDbEntity
  8
0
  6
Continuous
 62
     7
100
AcDbLine
 10
91.00873029510959
 20
97.37514108538233
 30
0.0
 11
92.08455262060956
 21
97.35795358538229
 31
0.0
  0
LINE
  5
ECEF
330
1F
100
AcDbEntity
  8
0
  6
Continuous
 62
     7
100
AcDbLine
 10
92.08455262060956
 20
97.35795358538229
 30
0.0
 11
93.16037494610956
 21
97.37514108538233
 31
0.0
  0
LINE
  5
ECF0
330
1F
100
AcDbEntity
  8
0
  6
Continuous
 62
     7
100
AcDbLine
 10
93.16037494610956
 20
97.37514108538233
 30
0.0
 11
94.22633531900956
 21
97.42045358538229
 31
0.0
  0
LINE
  5
ECF1
330
1F
100
AcDbEntity
  8
0
  6
Continuous
 62
     7
100
AcDbLine
 10
94.22633531900956
 20
97.42045358538229
 30
0.0
 11
95.27257178700953
 21
97.48451608538232
 31
0.0
  0
LINE
  5
ECF2
330
1F
100
AcDbEntity
  8
0
  6
Continuous
 62
     7
100
AcDbLine
 10
95.27257178700953
 20
97.48451608538232
 30
0.0
 11
96.28922239740942
 21
97.55795358538234
 31
0.0
  0
LINE
  5
ECF3
330
1F
100
AcDbEntity
  8
0
  6
Continuous
 62
     7
100
AcDbLine
 10
96.28922239740942
 20
97.55795358538234
 30
0.0
 11
97.26642519780845
 21
97.63139108538229
 31
0.0
  0
LINE
  5
ECF4
330
1F
100
AcDbEntity
  8
0
  6
Continuous
 62
     7
100
AcDbLine
 10
97.26642519780845
 20
97.63139108538229
 30
0.0
 11
98.19431823560947
 21
97.69545358538232
 31
0.0
  0
LINE
  5
ECF5
330
1F
100
AcDbEntity
  8
0
  6
Continuous
 62
     7
100
AcDbLine
 10
98.19431823560947
 20
97.69545358538232
 30
0.0
 11
99.06303955840954
 21
97.7407660853823
 31
0.0
  0
LINE
  5
ECF6
330
1F
100
AcDbEntity
  8
0
  6
Continuous
 62
     7
100
AcDbLine
 10
99.06303955840954
 20
97.7407660853823
 30
0.0
 11
99.86272721371044
 21
97.75795358538232
 31
0.0
  0
LINE
  5
ECF7
330
1F
100
AcDbEntity
  8
0
  6
Continuous
 62
     7
100
AcDbLine
 10
99.86272721371044
 20
98.95795358538334
 30
0.0
 11
99.06303955840954
 21
98.9407660853833
 31
0.0
  0
LINE
  5
ECF8
330
1F
100
AcDbEntity
  8
0
  6
Continuous
 62
     7
100
AcDbLine
 10
99.06303955840954
 20
98.9407660853833
 30
0.0
 11
98.19431823560947
 21
98.89545358538335
 31
0.0
  0
LINE
  5
ECF9
330
1F
100
AcDbEntity
  8
0
  6
Continuous
 62
     7
100
AcDbLine
 10
98.19431823560947
 20
98.89545358538335
 30
0.0
 11
97.26642519780845
 21
98.8313910853833
 31
0.0
  0
LINE
  5
ECFA
330
1F
100
AcDbEntity
  8
0
  6
Continuous
 62
     7
100
AcDbLine
 10
97.26642519780845
 20
98.8313910853833
 30
0.0
 11
96.28922239740942
 21
98.75795358538233
 31
0.0
  0
LINE
  5
ECFB
330
1F
100
AcDbEntity
  8
0
  6
Continuous
 62
     7
100
AcDbLine
 10
96.28922239740942
 20
98.75795358538233
 30
0.0
 11
95.27257178700953
 21
98.68451608538334
 31
0.0
  0
LINE
  5
ECFC
330
1F
100
AcDbEntity
  8
0
  6
Continuous
 62
     7
100
AcDbLine
 10
95.27257178700953
 20
98.68451608538334
 30
0.0
 11
94.22633531900956
 21
98.62045358538331
 31
0.0
  0
LINE
  5
ECFD
330
1F
100
AcDbEntity
  8
0
  6
Continuous
 62
     7
100
AcDbLine
 10
94.22633531900956
 20
98.62045358538331
 30
0.0
 11
93.16037494610956
 21
98.57514108538333
 31
0.0
  0
LINE
  5
ECFE
330
1F
100
AcDbEntity
  8
0
  6
Continuous
 62
     7
100
AcDbLine
 10
93.16037494610956
 20
98.57514108538333
 30
0.0
 11
92.08455262060956
 21
98.5579535853833
 31
0.0
  0
LINE
  5
ECFF
330
1F
100
AcDbEntity
  8
0
  6
Continuous
 62
     7
100
AcDbLine
 10
92.08455262060956
 20
98.5579535853833
 30
0.0
 11
91.00873029510959
 21
98.57514108538333
 31
0.0
  0
LINE
  5
ED00
330
1F
100
AcDbEntity
  8
0
  6
Continuous
 62
     7
100
AcDbLine
 10
91.00873029510959
 20
98.57514108538333
 30
0.0
 11
89.94276992220946
 21
98.62045358538331
 31
0.0
  0
LINE
  5
ED01
330
1F
100
AcDbEntity
  8
0
  6
Continuous
 62
     7
100
AcDbLine
 10
89.94276992220946
 20
98.62045358538331
 30
0.0
 11
88.89653345420951
 21
98.68451608538334
 31
0.0
  0
LINE
  5
ED02
330
1F
100
AcDbEntity
  8
0
  6
Continuous
 62
     7
100
AcDbLine
 10
88.89653345420951
 20
98.68451608538334
 30
0.0
 11
87.87988284380949
 21
98.75795358538233
 31
0.0
  0
LINE
  5
ED03
330
1F
100
AcDbEntity
  8
0
  6
Continuous
 62
     7
100
AcDbLine
 10
87.87988284380949
 20
98.75795358538233
 30
0.0
 11
86.90268004340842
 21
98.8313910853833
 31
0.0
  0
LINE
  5
ED04
330
1F
100
AcDbEntity
  8
0
  6
Continuous
 62
     7
100
AcDbLine
 10
86.90268004340842
 20
98.8313910853833
 30
0.0
 11
85.97478700560955
 21
98.89545358538335
 31
0.0
  0
LINE
  5
ED05
330
1F
100
AcDbEntity
  8
0
  6
Continuous
 62
     7
100
AcDbLine
 10
85.97478700560955
 20
98.89545358538335
 30
0.0
 11
85.10606568280948
 21
98.9407660853833
 31
0.0
  0
LINE
  5
ED06
330
1F
100
AcDbEntity
  8
0
  6
Continuous
 62
     7
100
AcDbLine
 10
85.10606568280948
 20
98.9407660853833
 30
0.0
 11
84.30637802750849
 21
98.95795358538334
 31
0.0
  0
LINE
  5
ED07
330
1F
100
AcDbEntity
  8
0
  6
Continuous
 62
     7
100
AcDbLine
 10
84.30637802750849
 20
98.95795358538334
 30
0.0
 11
83.58462315940849
 21
98.9407660853833
 31
0.0
  0
LINE
  5
ED08
330
1F
100
AcDbEntity
  8
0
  6
Continuous
 62
     7
100
AcDbLine
 10
83.58462315940849
 20
98.9407660853833
 30
0.0
 11
82.94584886581052
 21
98.89545358538335
 31
0.0
  0
LINE
  5
ED09
330
1F
100
AcDbEntity
  8
0
  6
Continuous
 62
     7
100
AcDbLine
 10
82.94584886581052
 20
98.89545358538335
 30
0.0
 11
82.39414010120951
 21
98.8313910853833
 31
0.0
  0
LINE
  5
ED0A
330
1F
100
AcDbEntity
  8
0
  6
Continuous
 62
     7
100
AcDbLine
 10
82.39414010120951
 20
98.8313910853833
 30
0.0
 11
81.93358182010948
 21
98.75795358538233
 31
0.0
  0
LINE
  5
ED0B
330
1F
100
AcDbEntity
  8
0
  6
Continuous
 62
     7
100
AcDbLine
 10
81.93358182010948
 20
98.75795358538233
 30
0.0
 11
81.5682589771085
 21
98.68451608538334
 31
0.0
  0
LINE
  5
ED0C
330
1F
100
AcDbEntity
  8
0
  6
Continuous
 62
     7
100
AcDbLine
 10
81.5682589771085
 20
98.68451608538334
 30
0.0
 11
81.30225652651043
 21
98.62045358538331
 31
0.0
  0
LINE
  5
ED0D
330
1F
100
AcDbEntity
  8
0
  6
Continuous
 62
     7
100
AcDbLine
 10
81.30225652651043
 20
98.62045358538331
 30
0.0
 11
81.1396594228095
 21
98.57514108538333
 31
0.0
  0
LINE
  5
ED0E
330
1F
100
AcDbEntity
  8
0
  6
Continuous
 62
     7
100
AcDbLine
 10
81.1396594228095
 20
98.57514108538333
 30
0.0
 11
81.08455262060957
 21
98.5579535853833
 31
0.0
  0
LINE
  5
ED0F
330
1F
100
AcDbEntity
  8
0
  6
Continuous
 62
     7
100
AcDbLine
 10
103.0845526206096
 20
98.55795358538234
 30
0.0
 11
103.0294458184095
 21
98.57514108538333
 31
0.0
  0
LINE
  5
ED10
330
1F
100
AcDbEntity
  8
0
  6
Continuous
 62
     7
100
AcDbLine
 10
103.0294458184095
 20
98.57514108538333
 30
0.0
 11
102.8668487147085
 21
98.62045358538331
 31
0.0
  0
LINE
  5
ED11
330
1F
100
AcDbEntity
  8
0
  6
Continuous
 62
     7
100
AcDbLine
 10
102.8668487147085
 20
98.62045358538331
 30
0.0
 11
102.6008462641085
 21
98.68451608538334
 31
0.0
  0
LINE
  5
ED12
330
1F
100
AcDbEntity
  8
0
  6
Continuous
 62
     7
100
AcDbLine
 10
102.6008462641085
 20
98.68451608538334
 30
0.0
 11
102.2355234211094
 21
98.75795358538233
 31
0.0
  0
LINE
  5
ED13
330
1F
100
AcDbEntity
  8
0
  6
Continuous
 62
     7
100
AcDbLine
 10
102.2355234211094
 20
98.75795358538233
 30
0.0
 11
101.7749651400096
 21
98.8313910853833
 31
0.0
  0
LINE
  5
ED14
330
1F
100
AcDbEntity
  8
0
  6
Continuous
 62
     7
100
AcDbLine
 10
101.7749651400096
 20
98.8313910853833
 30
0.0
 11
101.2232563754084
 21
98.89545358538335
 31
0.0
  0
LINE
  5
ED15
330
1F
100
AcDbEntity
  8
0
  6
Continuous
 62
     7
100
AcDbLine
 10
101.2232563754084
 20
98.89545358538335
 30
0.0
 11
100.5844820818105
 21
98.9407660853833
 31
0.0
  0
LINE
  5
ED16
330
1F
100
AcDbEntity
  8
0
  6
Continuous
 62
     7
100
AcDbLine
 10
100.5844820818105
 20
98.9407660853833
 30
0.0
 11
99.86272721371044
 21
98.95795358538334
 31
0.0
  0
LINE
  5
ED17
330
1F
100
AcDbEntity
  8
0
  6
Continuous
 62
     7
100
AcDbLine
 10
81.08455262060957
 20
98.5579535853833
 30
0.0
 11
81.08455262060957
 21
97.35795358538229
 31
0.0
  0
LINE
  5
ED18
330
1F
100
AcDbEntity
  8
0
  6
Continuous
 62
     7
100
AcDbLine
 10
103.0845526206096
 20
97.35795358538229
 30
0.0
 11
103.0845526206096
 21
98.55795358538234
 31
0.0
  0
LINE
  5
ED19
330
1F
100
AcDbEntity
  8
0
  6
Continuous
 62
     7
100
AcDbLine
 10
81.08455262060957
 20
97.35795358538229
 30
0.0
 11
86.58455262060957
 21
97.35795358538229
 31
0.0
  0
LINE
  5
ED1A
330
1F
100
AcDbEntity
  8
0
  6
Continuous
 62
     7
100
AcDbLine
 10
97.58455262060957
 20
97.35795358538229
 30
0.0
 11
103.0845526206096
 21
97.35795358538229
 31
0.0
  0
LINE
  5
ED1B
330
1F
100
AcDbEntity
  8
0
  6
Continuous
 62
     7
100
AcDbLine
 10
88.19546532408358
 20
98.95795358538334
 30
0.0
 11
84.30637802750849
 21
98.95795358538334
 31
0.0
  0
LINE
  5
ED1C
330
1F
100
AcDbEntity
  8
AM_0
100
AcDbLine
 10
164.1882063716204
 20
140.3579535853823
 30
0.0
 11
164.1882063716204
 21
139.3579535853823
 31
0.0
  0
LINE
  5
ED1D
330
1F
100
AcDbEntity
  8
AM_0
100
AcDbLine
 10
186.1882063716173
 20
140.3579535853814
 30
0.0
 11
186.1882063716204
 21
139.3579535853823
 31
0.0
  0
LINE
  5
ED1E
330
1F
100
AcDbEntity
  8
AM_0
100
AcDbLine
 10
178.1882063716204
 20
139.3579535853823
 30
0.0
 11
164.1882063716204
 21
139.3579535853823
 31
0.0
  0
LINE
  5
ED1F
330
1F
100
AcDbEntity
  8
AM_0
100
AcDbLine
 10
186.1882063716204
 20
139.3579535853823
 30
0.0
 11
178.1882063716204
 21
139.3579535853823
 31
0.0
  0
LINE
  5
ED20
330
1F
100
AcDbEntity
  8
AM_0
100
AcDbLine
 10
164.1882063716204
 20
143.3579535853823
 30
0.0
 11
164.1882063716204
 21
142.3579535853823
 31
0.0
  0
LINE
  5
ED21
330
1F
100
AcDbEntity
  8
AM_0
100
AcDbLine
 10
186.1882063716173
 20
143.3579535853823
 30
0.0
 11
186.1882063716173
 21
142.3579535853814
 31
0.0
  0
LINE
  5
ED22
330
1F
100
AcDbEntity
  8
AM_0
100
AcDbLine
 10
164.1882063716204
 20
97.35795358538229
 30
0.0
 11
164.1882063716204
 21
96.3579535853823
 31
0.0
  0
LINE
  5
ED23
330
1F
100
AcDbEntity
  8
AM_0
100
AcDbLine
 10
186.1882063716204
 20
97.35795358538229
 30
0.0
 11
186.1882063716173
 21
96.3579535853823
 31
0.0
  0
LINE
  5
ED24
330
1F
100
AcDbEntity
  8
AM_0
100
AcDbLine
 10
164.1882063716204
 20
97.35795358538229
 30
0.0
 11
178.1882063716204
 21
97.35795358538229
 31
0.0
  0
LINE
  5
ED25
330
1F
100
AcDbEntity
  8
AM_0
100
AcDbLine
 10
178.1882063716204
 20
97.35795358538229
 30
0.0
 11
186.1882063716204
 21
97.35795358538229
 31
0.0
  0
LINE
  5
ED26
330
1F
100
AcDbEntity
  8
AM_0
100
AcDbLine
 10
164.1882063716204
 20
94.35795358538229
 30
0.0
 11
164.1882063716204
 21
93.35795358538229
 31
0.0
  0
LINE
  5
ED27
330
1F
100
AcDbEntity
  8
AM_0
100
AcDbLine
 10
186.1882063716173
 20
94.35795358538229
 30
0.0
 11
186.1882063716173
 21
93.35795358538229
 31
0.0
  0
LINE
  5
ED28
330
1F
100
AcDbEntity
  8
AM_0
100
AcDbLine
 10
81.08455262060957
 20
140.3579535853814
 30
0.0
 11
81.08455262060957
 21
139.3579535853823
 31
0.0
  0
LINE
  5
ED29
330
1F
100
AcDbEntity
  8
AM_0
100
AcDbLine
 10
103.0845526206096
 20
140.3579535853814
 30
0.0
 11
103.0845526206096
 21
139.3579535853823
 31
0.0
  0
LINE
  5
ED2A
330
1F
100
AcDbEntity
  8
AM_0
100
AcDbLine
 10
89.08455262060957
 20
139.3579535853823
 30
0.0
 11
90.08455262060957
 21
139.3579535853823
 31
0.0
  0
LINE
  5
ED2B
330
1F
100
AcDbEntity
  8
AM_0
100
AcDbLine
 10
95.08455262060957
 20
139.3579535853823
 30
0.0
 11
81.08455262060957
 21
139.3579535853823
 31
0.0
  0
LINE
  5
ED2C
330
1F
100
AcDbEntity
  8
AM_0
100
AcDbLine
 10
103.0845526206096
 20
139.3579535853823
 30
0.0
 11
95.08455262060957
 21
139.3579535853823
 31
0.0
  0
LINE
  5
ED2D
330
1F
100
AcDbEntity
  8
AM_0
100
AcDbLine
 10
81.08455262060957
 20
143.3579535853823
 30
0.0
 11
81.08455262060957
 21
142.3579535853823
 31
0.0
  0
LINE
  5
ED2E
330
1F
100
AcDbEntity
  8
AM_0
100
AcDbLine
 10
103.0845526206096
 20
143.3579535853823
 30
0.0
 11
103.0845526206096
 21
142.3579535853823
 31
0.0
  0
LINE
  5
ED2F
330
1F
100
AcDbEntity
  8
AM_0
100
AcDbLine
 10
81.08455262060957
 20
97.35795358538229
 30
0.0
 11
81.08455262060957
 21
96.3579535853823
 31
0.0
  0
LINE
  5
ED30
330
1F
100
AcDbEntity
  8
AM_0
100
AcDbLine
 10
103.0845526206096
 20
97.35795358538229
 30
0.0
 11
103.0845526206096
 21
96.3579535853823
 31
0.0
  0
LINE
  5
ED31
330
1F
100
AcDbEntity
  8
AM_0
100
AcDbLine
 10
90.08455262060957
 20
97.35795358538229
 30
0.0
 11
89.08455262060957
 21
97.35795358538229
 31
0.0
  0
LINE
  5
ED32
330
1F
100
AcDbEntity
  8
AM_0
100
AcDbLine
 10
81.08455262060957
 20
97.35795358538229
 30
0.0
 11
95.08455262060957
 21
97.35795358538229
 31
0.0
  0
LINE
  5
ED33
330
1F
100
AcDbEntity
  8
AM_0
100
AcDbLine
 10
95.08455262060957
 20
97.35795358538229
 30
0.0
 11
103.0845526206096
 21
97.35795358538229
 31
0.0
  0
LINE
  5
ED34
330
1F
100
AcDbEntity
  8
AM_0
100
AcDbLine
 10
81.08455262060957
 20
94.35795358538229
 30
0.0
 11
81.08455262060957
 21
93.35795358538229
 31
0.0
  0
LINE
  5
ED35
330
1F
100
AcDbEntity
  8
AM_0
100
AcDbLine
 10
103.0845526206096
 20
94.35795358538229
 30
0.0
 11
103.0845526206096
 21
93.35795358538229
 31
0.0
  0
LINE
  5
ED36
330
1F
100
AcDbEntity
  8
AM_0
100
AcDbLine
 10
171.4382063716173
 20
146.3579535853843
 30
0.0
 11
171.4382063716173
 21
145.3579535853823
 31
0.0
  0
LINE
  5
ED37
330
1F
100
AcDbEntity
  8
AM_0
100
AcDbLine
 10
178.9382063716173
 20
146.3579535853843
 30
0.0
 11
178.9382063716173
 21
145.3579535853823
 31
0.0
  0
LINE
  5
ED38
330
1F
100
AcDbEntity
  8
AM_0
100
AcDbLine
 10
171.4382063716173
 20
146.3579535853843
 30
0.0
 11
178.9382063716173
 21
146.3579535853843
 31
0.0
  0
LINE
  5
ED39
330
1F
100
AcDbEntity
  8
AM_0
100
AcDbLine
 10
180.6882063716173
 20
137.7579535853824
 30
0.0
 11
186.1882063716173
 21
137.7579535853824
 31
0.0
  0
LINE
  5
ED3A
330
1F
100
AcDbEntity
  8
AM_0
100
AcDbLine
 10
164.1882063716173
 20
135.9579535853823
 30
0.0
 11
164.1882063716173
 21
137.7579535853824
 31
0.0
  0
LINE
  5
ED3B
330
1F
100
AcDbEntity
  8
AM_0
100
AcDbLine
 10
186.1882063716173
 20
137.7579535853824
 30
0.0
 11
186.1882063716173
 21
135.9579535853823
 31
0.0
  0
LINE
  5
ED3C
330
1F
100
AcDbEntity
  8
AM_0
100
AcDbLine
 10
169.6882063716173
 20
137.7579535853824
 30
0.0
 11
180.6882063716173
 21
137.7579535853824
 31
0.0
  0
LINE
  5
ED3D
330
1F
100
AcDbEntity
  8
AM_0
100
AcDbLine
 10
164.1882063716173
 20
137.7579535853824
 30
0.0
 11
169.6882063716173
 21
137.7579535853824
 31
0.0
  0
LINE
  5
ED3E
330
1F
100
AcDbEntity
  8
AM_0
100
AcDbLine
 10
164.1882063716173
 20
135.9579535853823
 30
0.0
 11
186.1882063716173
 21
135.9579535853823
 31
0.0
  0
LINE
  5
ED3F
330
1F
100
AcDbEntity
  8
AM_0
100
AcDbLine
 10
171.4382063716173
 20
146.1579535853853
 30
0.0
 11
178.9382063716173
 21
146.1579535853853
 31
0.0
  0
LINE
  5
ED40
330
1F
100
AcDbEntity
  8
AM_0
100
AcDbLine
 10
164.3882063716174
 20
135.7579535853824
 30
0.0
 11
185.9882063716174
 21
135.7579535853824
 31
0.0
  0
LINE
  5
ED41
330
1F
100
AcDbEntity
  8
AM_0
100
AcDbLine
 10
186.1882063716173
 20
135.9579535853823
 30
0.0
 11
185.9882063716174
 21
135.7579535853824
 31
0.0
  0
LINE
  5
ED42
330
1F
100
AcDbEntity
  8
AM_0
100
AcDbLine
 10
164.1882063716173
 20
135.9579535853823
 30
0.0
 11
164.3882063716174
 21
135.7579535853824
 31
0.0
  0
LINE
  5
ED43
330
1F
100
AcDbEntity
  8
AM_0
100
AcDbLine
 10
171.4382063716173
 20
91.3579535853823
 30
0.0
 11
171.4382063716173
 21
90.35795358538029
 31
0.0
  0
LINE
  5
ED44
330
1F
100
AcDbEntity
  8
AM_0
100
AcDbLine
 10
178.9382063716173
 20
91.3579535853823
 30
0.0
 11
178.9382063716173
 21
90.35795358538029
 31
0.0
  0
LINE
  5
ED45
330
1F
100
AcDbEntity
  8
AM_0
100
AcDbLine
 10
178.9382063716173
 20
90.35795358538029
 30
0.0
 11
171.4382063716173
 21
90.35795358538029
 31
0.0
  0
LINE
  5
ED46
330
1F
100
AcDbEntity
  8
AM_0
100
AcDbLine
 10
186.1882063716173
 20
98.95795358538334
 30
0.0
 11
180.6882063716173
 21
98.95795358538334
 31
0.0
  0
LINE
  5
ED47
330
1F
100
AcDbEntity
  8
AM_0
100
AcDbLine
 10
164.1882063716173
 20
98.95795358538334
 30
0.0
 11
164.1882063716173
 21
100.7579535853822
 31
0.0
  0
LINE
  5
ED48
330
1F
100
AcDbEntity
  8
AM_0
100
AcDbLine
 10
186.1882063716173
 20
100.7579535853822
 30
0.0
 11
186.1882063716173
 21
98.95795358538334
 31
0.0
  0
LINE
  5
ED49
330
1F
100
AcDbEntity
  8
AM_0
100
AcDbLine
 10
180.6882063716173
 20
98.95795358538334
 30
0.0
 11
169.6882063716173
 21
98.95795358538334
 31
0.0
  0
LINE
  5
ED4A
330
1F
100
AcDbEntity
  8
AM_0
100
AcDbLine
 10
169.6882063716173
 20
98.95795358538334
 30
0.0
 11
164.1882063716173
 21
98.95795358538334
 31
0.0
  0
LINE
  5
ED4B
330
1F
100
AcDbEntity
  8
AM_0
100
AcDbLine
 10
186.1882063716173
 20
100.7579535853822
 30
0.0
 11
164.1882063716173
 21
100.7579535853822
 31
0.0
  0
LINE
  5
ED4C
330
1F
100
AcDbEntity
  8
AM_0
100
AcDbLine
 10
178.9382063716173
 20
90.55795358537933
 30
0.0
 11
171.4382063716173
 21
90.55795358537933
 31
0.0
  0
LINE
  5
ED4D
330
1F
100
AcDbEntity
  8
AM_0
100
AcDbLine
 10
185.9882063716174
 20
100.9579535853833
 30
0.0
 11
164.3882063716174
 21
100.9579535853833
 31
0.0
  0
LINE
  5
ED4E
330
1F
100
AcDbEntity
  8
AM_0
100
AcDbLine
 10
185.9882063716174
 20
100.9579535853833
 30
0.0
 11
186.1882063716173
 21
100.7579535853822
 31
0.0
  0
LINE
  5
ED4F
330
1F
100
AcDbEntity
  8
AM_0
100
AcDbLine
 10
164.3882063716174
 20
100.9579535853833
 30
0.0
 11
164.1882063716173
 21
100.7579535853822
 31
0.0
  0
LINE
  5
ED50
330
1F
100
AcDbEntity
  8
AM_0
100
AcDbLine
 10
86.58455262060957
 20
146.1579535853853
 30
0.0
 11
86.58455262060957
 21
145.3579535853823
 31
0.0
  0
LINE
  5
ED51
330
1F
100
AcDbEntity
  8
AM_0
100
AcDbLine
 10
88.06118338575348
 20
146.1579535853853
 30
0.0
 11
88.06118338575348
 21
145.3579535853823
 31
0.0
  0
LINE
  5
ED52
330
1F
100
AcDbEntity
  8
AM_0
100
AcDbLine
 10
96.1079218554685
 20
146.1579535853853
 30
0.0
 11
96.1079218554685
 21
145.3579535853823
 31
0.0
  0
LINE
  5
ED53
330
1F
100
AcDbEntity
  8
AM_0
100
AcDbLine
 10
97.58455262060957
 20
146.1579535853853
 30
0.0
 11
97.58455262060957
 21
145.3579535853823
 31
0.0
  0
LINE
  5
ED54
330
1F
100
AcDbEntity
  8
AM_0
100
AcDbLine
 10
88.68455262060948
 20
146.3579535853843
 30
0.0
 11
95.48455262060944
 21
146.3579535853843
 31
0.0
  0
LINE
  5
ED55
330
1F
100
AcDbEntity
  8
AM_0
100
AcDbLine
 10
95.48455262060944
 20
146.3579535853843
 30
0.0
 11
95.83128943940655
 21
146.3579535853843
 31
0.0
  0
LINE
  5
ED56
330
1F
100
AcDbEntity
  8
AM_0
100
AcDbLine
 10
86.78455262060849
 20
146.3579535853843
 30
0.0
 11
88.68455262060948
 21
146.3579535853843
 31
0.0
  0
LINE
  5
ED57
330
1F
100
AcDbEntity
  8
AM_0
100
AcDbLine
 10
95.83128943940655
 20
146.3579535853843
 30
0.0
 11
97.38455262060838
 21
146.3579535853843
 31
0.0
  0
LINE
  5
ED58
330
1F
100
AcDbEntity
  8
AM_0
100
AcDbLine
 10
97.58455262060957
 20
137.7579535853824
 30
0.0
 11
103.0845526206096
 21
137.7579535853813
 31
0.0
  0
LINE
  5
ED59
330
1F
100
AcDbEntity
  8
AM_0
100
AcDbLine
 10
81.08455262060957
 20
135.9579535853823
 30
0.0
 11
81.08455262060957
 21
137.7579535853813
 31
0.0
  0
LINE
  5
ED5A
330
1F
100
AcDbEntity
  8
AM_0
100
AcDbLine
 10
103.0845526206096
 20
137.7579535853813
 30
0.0
 11
103.0845526206096
 21
135.9579535853823
 31
0.0
  0
LINE
  5
ED5B
330
1F
100
AcDbEntity
  8
AM_0
100
AcDbLine
 10
86.58455262060957
 20
137.7579535853824
 30
0.0
 11
97.58455262060957
 21
137.7579535853824
 31
0.0
  0
LINE
  5
ED5C
330
1F
100
AcDbEntity
  8
AM_0
100
AcDbLine
 10
81.08455262060957
 20
137.7579535853813
 30
0.0
 11
86.58455262060957
 21
137.7579535853824
 31
0.0
  0
LINE
  5
ED5D
330
1F
100
AcDbEntity
  8
AM_0
100
AcDbLine
 10
81.08455262060957
 20
135.9579535853823
 30
0.0
 11
103.0845526206096
 21
135.9579535853823
 31
0.0
  0
LINE
  5
ED5E
330
1F
100
AcDbEntity
  8
AM_0
100
AcDbLine
 10
97.38455262060838
 20
146.3579535853843
 30
0.0
 11
97.58455262060957
 21
146.1579535853853
 31
0.0
  0
LINE
  5
ED5F
330
1F
100
AcDbEntity
  8
AM_0
100
AcDbLine
 10
86.78455262060849
 20
146.3579535853843
 30
0.0
 11
86.58455262060957
 21
146.1579535853853
 31
0.0
  0
LINE
  5
ED60
330
1F
100
AcDbEntity
  8
AM_0
100
AcDbLine
 10
88.06118338575348
 20
146.1579535853853
 30
0.0
 11
86.58455262060957
 21
146.1579535853853
 31
0.0
  0
LINE
  5
ED61
330
1F
100
AcDbEntity
  8
AM_0
100
AcDbLine
 10
96.1079218554685
 20
146.1579535853853
 30
0.0
 11
97.58455262060957
 21
146.1579535853853
 31
0.0
  0
LINE
  5
ED62
330
1F
100
AcDbEntity
  8
AM_0
100
AcDbLine
 10
88.33781580181554
 20
146.3579535853843
 30
0.0
 11
88.06118338575348
 21
146.1579535853853
 31
0.0
  0
LINE
  5
ED63
330
1F
100
AcDbEntity
  8
AM_0
100
AcDbLine
 10
95.83128943940655
 20
146.3579535853843
 30
0.0
 11
96.1079218554685
 21
146.1579535853853
 31
0.0
  0
LINE
  5
ED64
330
1F
100
AcDbEntity
  8
AM_0
100
AcDbLine
 10
81.28455262060951
 20
135.7579535853813
 30
0.0
 11
102.8845526206095
 21
135.7579535853813
 31
0.0
  0
LINE
  5
ED65
330
1F
100
AcDbEntity
  8
AM_0
100
AcDbLine
 10
103.0845526206096
 20
135.9579535853823
 30
0.0
 11
102.8845526206095
 21
135.7579535853813
 31
0.0
  0
LINE
  5
ED66
330
1F
100
AcDbEntity
  8
AM_0
100
AcDbLine
 10
81.08455262060957
 20
135.9579535853823
 30
0.0
 11
81.28455262060951
 21
135.7579535853813
 31
0.0
  0
LINE
  5
ED67
330
1F
100
AcDbEntity
  8
AM_0
100
AcDbLine
 10
86.58455262060957
 20
91.3579535853823
 30
0.0
 11
86.58455262060957
 21
90.55795358537933
 31
0.0
  0
LINE
  5
ED68
330
1F
100
AcDbEntity
  8
AM_0
100
AcDbLine
 10
88.06118338575348
 20
91.3579535853823
 30
0.0
 11
88.06118338575348
 21
90.55795358537933
 31
0.0
  0
LINE
  5
ED69
330
1F
100
AcDbEntity
  8
AM_0
100
AcDbLine
 10
96.1079218554685
 20
91.3579535853823
 30
0.0
 11
96.1079218554685
 21
90.55795358537933
 31
0.0
  0
LINE
  5
ED6A
330
1F
100
AcDbEntity
  8
AM_0
100
AcDbLine
 10
97.58455262060957
 20
91.3579535853823
 30
0.0
 11
97.58455262060957
 21
90.55795358537933
 31
0.0
  0
LINE
  5
ED6B
330
1F
100
AcDbEntity
  8
AM_0
100
AcDbLine
 10
95.48455262060944
 20
90.35795358538029
 30
0.0
 11
88.68455262060948
 21
90.35795358538029
 31
0.0
  0
LINE
  5
ED6C
330
1F
100
AcDbEntity
  8
AM_0
100
AcDbLine
 10
95.83128943940655
 20
90.35795358538029
 30
0.0
 11
95.48455262060944
 21
90.35795358538029
 31
0.0
  0
LINE
  5
ED6D
330
1F
100
AcDbEntity
  8
AM_0
100
AcDbLine
 10
88.68455262060948
 20
90.35795358538029
 30
0.0
 11
86.78455262060849
 21
90.35795358538029
 31
0.0
  0
LINE
  5
ED6E
330
1F
100
AcDbEntity
  8
AM_0
100
AcDbLine
 10
97.38455262060838
 20
90.35795358538029
 30
0.0
 11
95.83128943940655
 21
90.35795358538029
 31
0.0
  0
LINE
  5
ED6F
330
1F
100
AcDbEntity
  8
AM_0
100
AcDbLine
 10
103.0845526206096
 20
98.95795358538334
 30
0.0
 11
97.58455262060957
 21
98.95795358538334
 31
0.0
  0
LINE
  5
ED70
330
1F
100
AcDbEntity
  8
AM_0
100
AcDbLine
 10
81.08455262060957
 20
98.95795358538334
 30
0.0
 11
81.08455262060957
 21
100.7579535853822
 31
0.0
  0
LINE
  5
ED71
330
1F
100
AcDbEntity
  8
AM_0
100
AcDbLine
 10
103.0845526206096
 20
100.7579535853822
 30
0.0
 11
103.0845526206096
 21
98.95795358538334
 31
0.0
  0
LINE
  5
ED72
330
1F
100
AcDbEntity
  8
AM_0
100
AcDbLine
 10
97.58455262060957
 20
98.95795358538334
 30
0.0
 11
86.58455262060957
 21
98.95795358538334
 31
0.0
  0
LINE
  5
ED73
330
1F
100
AcDbEntity
  8
AM_0
100
AcDbLine
 10
86.58455262060957
 20
98.95795358538334
 30
0.0
 11
81.08455262060957
 21
98.95795358538334
 31
0.0
  0
LINE
  5
ED74
330
1F
100
AcDbEntity
  8
AM_0
100
AcDbLine
 10
103.0845526206096
 20
100.7579535853822
 30
0.0
 11
81.08455262060957
 21
100.7579535853822
 31
0.0
  0
LINE
  5
ED75
330
1F
100
AcDbEntity
  8
AM_0
100
AcDbLine
 10
97.58455262060957
 20
90.55795358537933
 30
0.0
 11
97.38455262060838
 21
90.35795358538029
 31
0.0
  0
LINE
  5
ED76
330
1F
100
AcDbEntity
  8
AM_0
100
AcDbLine
 10
86.58455262060957
 20
90.55795358537933
 30
0.0
 11
86.78455262060849
 21
90.35795358538029
 31
0.0
  0
LINE
  5
ED77
330
1F
100
AcDbEntity
  8
AM_0
100
AcDbLine
 10
86.58455262060957
 20
90.55795358537933
 30
0.0
 11
88.06118338575348
 21
90.55795358537933
 31
0.0
  0
LINE
  5
ED78
330
1F
100
AcDbEntity
  8
AM_0
100
AcDbLine
 10
97.58455262060957
 20
90.55795358537933
 30
0.0
 11
96.1079218554685
 21
90.55795358537933
 31
0.0
  0
LINE
  5
ED79
330
1F
100
AcDbEntity
  8
AM_0
100
AcDbLine
 10
88.06118338575348
 20
90.55795358537933
 30
0.0
 11
88.33781580181554
 21
90.35795358538029
 31
0.0
  0
LINE
  5
ED7A
330
1F
100
AcDbEntity
  8
AM_0
100
AcDbLine
 10
96.1079218554685
 20
90.55795358537933
 30
0.0
 11
95.83128943940655
 21
90.35795358538029
 31
0.0
  0
LINE
  5
ED7B
330
1F
100
AcDbEntity
  8
AM_0
100
AcDbLine
 10
102.8845526206095
 20
100.9579535853833
 30
0.0
 11
81.28455262060951
 21
100.9579535853833
 31
0.0
  0
LINE
  5
ED7C
330
1F
100
AcDbEntity
  8
AM_0
100
AcDbLine
 10
102.8845526206095
 20
100.9579535853833
 30
0.0
 11
103.0845526206096
 21
100.7579535853822
 31
0.0
  0
LINE
  5
ED7D
330
1F
100
AcDbEntity
  8
AM_0
100
AcDbLine
 10
81.28455262060951
 20
100.9579535853833
 30
0.0
 11
81.08455262060957
 21
100.7579535853822
 31
0.0
  0
LINE
  5
ED85
330
1F
100
AcDbEntity
  8
AM_0
100
AcDbLine
 10
101.0845526206096
 20
100.9579535853833
 30
0.0
 11
101.0845526206096
 21
135.7579535853813
 31
0.0
  0
LINE
  5
ED86
330
1F
100
AcDbEntity
  8
AM_0
100
AcDbLine
 10
188.1882063716172
 20
140.3579535853823
 30
0.0
 11
188.1882063716172
 21
96.3579535853823
 31
0.0
  0
LINE
  5
ED87
330
1F
100
AcDbEntity
  8
AM_0
100
AcDbLine
 10
187.1882063716172
 20
94.35795358538229
 30
0.0
 11
187.1882063716172
 21
94.62590277781339
 31
0.0
  0
LINE
  5
ED88
330
1F
100
AcDbEntity
  8
AM_0
100
AcDbLine
 10
187.1882063716172
 20
94.35795358538229
 30
0.0
 11
186.1882063716173
 21
94.35795358538229
 31
0.0
  0
LINE
  5
ED89
330
1F
100
AcDbEntity
  8
AM_0
100
AcDbLine
 10
163.1882063716173
 20
96.3579535853823
 30
0.0
 11
186.1882063716173
 21
96.3579535853823
 31
0.0
  0
LINE
  5
ED8A
330
1F
100
AcDbEntity
  8
AM_0
100
AcDbLine
 10
186.1882063716173
 20
94.35795358538229
 30
0.0
 11
163.1882063716173
 21
94.35795358538229
 31
0.0
  0
LINE
  5
ED8B
330
1F
100
AcDbEntity
  8
AM_0
100
AcDbLine
 10
163.1882063716173
 20
94.35795358538229
 30
0.0
 11
163.1882063716173
 21
96.3579535853823
 31
0.0
  0
LINE
  5
ED8C
330
1F
100
AcDbEntity
  8
AM_0
100
AcDbLine
 10
187.1882063716172
 20
142.0900043929513
 30
0.0
 11
187.1882063716172
 21
142.3579535853823
 31
0.0
  0
LINE
  5
ED8D
330
1F
100
AcDbEntity
  8
AM_0
100
AcDbLine
 10
186.1882063716173
 20
142.3579535853814
 30
0.0
 11
187.1882063716172
 21
142.3579535853823
 31
0.0
  0
LINE
  5
ED8E
330
1F
100
AcDbEntity
  8
AM_0
100
AcDbLine
 10
186.1882063716173
 20
140.3579535853814
 30
0.0
 11
163.1882063716173
 21
140.3579535853823
 31
0.0
  0
LINE
  5
ED8F
330
1F
100
AcDbEntity
  8
AM_0
100
AcDbLine
 10
186.1882063716173
 20
96.3579535853823
 30
0.0
 11
186.1882063716173
 21
140.3579535853814
 31
0.0
  0
LINE
  5
ED90
330
1F
100
AcDbEntity
  8
AM_0
100
AcDbLine
 10
163.1882063716173
 20
142.3579535853823
 30
0.0
 11
186.1882063716173
 21
142.3579535853814
 31
0.0
  0
LINE
  5
ED91
330
1F
100
AcDbEntity
  8
AM_0
100
AcDbLine
 10
163.1882063716173
 20
140.3579535853823
 30
0.0
 11
163.1882063716173
 21
142.3579535853823
 31
0.0
  0
LINE
  5
ED92
330
1F
100
AcDbEntity
  8
AM_0
100
AcDbLine
 10
132.0845526206095
 20
96.3579535853823
 30
0.0
 11
132.0845526206095
 21
94.35795358538229
 31
0.0
  0
LINE
  5
ED93
330
1F
100
AcDbEntity
  8
AM_0
100
AcDbLine
 10
101.0845526206096
 20
96.3579535853823
 30
0.0
 11
80.08455262060957
 21
96.3579535853823
 31
0.0
  0
LINE
  5
ED94
330
1F
100
AcDbEntity
  8
AM_0
100
AcDbLine
 10
101.0845526206096
 20
94.35795358538229
 30
0.0
 11
80.08455262060957
 21
94.35795358538229
 31
0.0
  0
LINE
  5
ED95
330
1F
100
AcDbEntity
  8
AM_0
100
AcDbLine
 10
101.0845526206096
 20
142.3579535853823
 30
0.0
 11
132.0845526206095
 21
142.3579535853823
 31
0.0
  0
LINE
  5
ED96
330
1F
100
AcDbEntity
  8
AM_0
100
AcDbLine
 10
101.0845526206096
 20
96.3579535853823
 30
0.0
 11
81.08455262060957
 21
96.3579535853823
 31
0.0
  0
LINE
  5
ED97
330
1F
100
AcDbEntity
  8
AM_0
100
AcDbLine
 10
101.0845526206096
 20
140.3579535853823
 30
0.0
 11
132.0845526206095
 21
140.3579535853823
 31
0.0
  0
LINE
  5
ED98
330
1F
100
AcDbEntity
  8
AM_0
100
AcDbLine
 10
80.08455262060957
 20
140.3579535853823
 30
0.0
 11
101.0845526206096
 21
140.3579535853823
 31
0.0
  0
LINE
  5
ED99
330
1F
100
AcDbEntity
  8
AM_0
100
AcDbLine
 10
81.08455262060957
 20
140.3579535853814
 30
0.0
 11
101.0845526206096
 21
140.3579535853823
 31
0.0
  0
LINE
  5
ED9A
330
1F
100
AcDbEntity
  8
AM_0
100
AcDbLine
 10
80.08455262060957
 20
142.3579535853823
 30
0.0
 11
101.0845526206096
 21
142.3579535853823
 31
0.0
  0
LINE
  5
ED9B
330
1F
100
AcDbEntity
  8
AM_0
100
AcDbLine
 10
80.08455262060957
 20
142.3579535853823
 30
0.0
 11
80.08455262060957
 21
140.3579535853823
 31
0.0
  0
LINE
  5
ED9C
330
1F
100
AcDbEntity
  8
AM_0
100
AcDbLine
 10
80.08455262060957
 20
96.3579535853823
 30
0.0
 11
80.08455262060957
 21
94.35795358538229
 31
0.0
  0
LINE
  5
ED9D
330
1F
100
AcDbEntity
  8
AM_0
100
AcDbLine
 10
132.0845526206095
 20
142.3579535853823
 30
0.0
 11
132.0845526206095
 21
96.3579535853823
 31
0.0
  0
LINE
  5
ED9E
330
1F
100
AcDbEntity
  8
AM_0
100
AcDbLine
 10
132.0845526206095
 20
94.35795358538229
 30
0.0
 11
101.0845526206096
 21
94.35795358538229
 31
0.0
  0
LINE
  5
ED9F
330
1F
100
AcDbEntity
  8
AM_0
100
AcDbLine
 10
132.0845526206095
 20
96.3579535853823
 30
0.0
 11
101.0845526206096
 21
96.3579535853823
 31
0.0
  0
LINE
  5
EDA6
330
1F
100
AcDbEntity
  8
AM_0
100
AcDbLine
 10
188.1882063716172
 20
140.3579535853823
 30
0.0
 11
188.1882063716172
 21
143.3579535853823
 31
0.0
  0
LINE
  5
EDA7
330
1F
100
AcDbEntity
  8
AM_0
100
AcDbLine
 10
186.1882063716173
 20
94.35795358538229
 30
0.0
 11
186.1882063716173
 21
93.35795358538229
 31
0.0
  0
LINE
  5
EDA8
330
1F
100
AcDbEntity
  8
AM_0
100
AcDbLine
 10
83.08455262060958
 20
100.9579535853833
 30
0.0
 11
83.08455262060958
 21
135.7579535853813
 31
0.0
  0
LINE
  5
EDA9
330
1F
100
AcDbEntity
  8
AM_0
100
AcDbLine
 10
104.0845526206096
 20
91.3579535853823
 30
0.0
 11
52.08455262060957
 21
91.3579535853823
 31
0.0
  0
LINE
  5
EDAA
330
1F
100
AcDbEntity
  8
AM_0
100
AcDbLine
 10
104.0845526206096
 20
93.35795358538229
 30
0.0
 11
83.08455262060958
 21
93.35795358538229
 31
0.0
  0
LINE
  5
EDAB
330
1F
100
AcDbEntity
  8
AM_0
100
AcDbLine
 10
52.08455262060957
 20
145.3579535853823
 30
0.0
 11
52.08455262060957
 21
91.3579535853823
 31
0.0
  0
LINE
  5
EDAC
330
1F
100
AcDbEntity
  8
AM_0
100
AcDbLine
 10
104.0845526206096
 20
93.35795358538229
 30
0.0
 11
104.0845526206096
 21
91.3579535853823
 31
0.0
  0
LINE
  5
EDAD
330
1F
100
AcDbEntity
  8
AM_0
100
AcDbLine
 10
104.0845526206096
 20
145.3579535853823
 30
0.0
 11
104.0845526206096
 21
143.3579535853823
 31
0.0
  0
LINE
  5
EDAE
330
1F
100
AcDbEntity
  8
AM_0
100
AcDbLine
 10
52.08455262060957
 20
143.3579535853823
 30
0.0
 11
83.08455262060958
 21
143.3579535853823
 31
0.0
  0
LINE
  5
EDAF
330
1F
100
AcDbEntity
  8
AM_0
100
AcDbLine
 10
52.08455262060957
 20
145.3579535853823
 30
0.0
 11
104.0845526206096
 21
145.3579535853823
 31
0.0
  0
LINE
  5
EDB0
330
1F
100
AcDbEntity
  8
AM_0
100
AcDbLine
 10
83.08455262060958
 20
93.35795358538229
 30
0.0
 11
52.08455262060957
 21
93.35795358538229
 31
0.0
  0
LINE
  5
EDB1
330
1F
100
AcDbEntity
  8
AM_0
100
AcDbLine
 10
83.08455262060958
 20
143.3579535853823
 30
0.0
 11
104.0845526206096
 21
143.3579535853823
 31
0.0
  0
LINE
  5
EDB2
330
1F
100
AcDbEntity
  8
AM_0
100
AcDbLine
 10
187.1882063716172
 20
145.3579535853823
 30
0.0
 11
163.1882063716173
 21
145.3579535853823
 31
0.0
  0
LINE
  5
EDB3
330
1F
100
AcDbEntity
  8
AM_0
100
AcDbLine
 10
188.1882063716172
 20
93.35795358538218
 30
0.0
 11
188.1882063716172
 21
95.92143051222132
 31
0.0
  0
LINE
  5
EDB4
330
1F
100
AcDbEntity
  8
AM_0
100
AcDbLine
 10
163.1882063716173
 20
91.3579535853823
 30
0.0
 11
187.1882063716172
 21
91.3579535853823
 31
0.0
  0
LINE
  5
EDB5
330
1F
100
AcDbEntity
  8
AM_0
100
AcDbLine
 10
163.1882063716173
 20
93.35795358538229
 30
0.0
 11
163.1882063716173
 21
91.3579535853823
 31
0.0
  0
LINE
  5
EDB6
330
1F
100
AcDbEntity
  8
AM_0
100
AcDbLine
 10
186.1882063716173
 20
93.35795358538229
 30
0.0
 11
163.1882063716173
 21
93.35795358538229
 31
0.0
  0
LINE
  5
EDB7
330
1F
100
AcDbEntity
  8
AM_0
100
AcDbLine
 10
186.1882063716173
 20
143.3579535853823
 30
0.0
 11
186.1882063716173
 21
142.3579535853814
 31
0.0
  0
LINE
  5
EDB8
330
1F
100
AcDbEntity
  8
AM_0
100
AcDbLine
 10
163.1882063716173
 20
143.3579535853823
 30
0.0
 11
186.1882063716173
 21
143.3579535853823
 31
0.0
  0
LINE
  5
EDB9
330
1F
100
AcDbEntity
  8
AM_0
100
AcDbLine
 10
163.1882063716173
 20
145.3579535853823
 30
0.0
 11
163.1882063716173
 21
143.3579535853823
 31
0.0
  0
LINE
  5
EDBA
330
1F
100
AcDbEntity
  8
AM_0
100
AcDbLine
 10
187.1882063716172
 20
91.62590277781339
 30
0.0
 11
187.1882063716172
 21
91.3579535853823
 31
0.0
  0
LINE
  5
EDBB
330
1F
100
AcDbEntity
  8
AM_0
100
AcDbLine
 10
186.1882063716173
 20
93.35795358538229
 30
0.0
 11
187.1882063716172
 21
93.35795358538229
 31
0.0
  0
LINE
  5
EDBC
330
1F
100
AcDbEntity
  8
AM_0
100
AcDbLine
 10
187.1882063716172
 20
93.35795358538229
 30
0.0
 11
187.1882063716172
 21
91.62590277781339
 31
0.0
  0
LINE
  5
EDBD
330
1F
100
AcDbEntity
  8
AM_0
100
AcDbLine
 10
187.1882063716172
 20
145.3579535853823
 30
0.0
 11
187.1882063716172
 21
145.0900043929512
 31
0.0
  0
LINE
  5
EDBE
330
1F
100
AcDbEntity
  8
AM_0
100
AcDbLine
 10
187.1882063716172
 20
145.0900043929512
 30
0.0
 11
187.1882063716172
 21
143.3579535853823
 31
0.0
  0
LINE
  5
EDBF
330
1F
100
AcDbEntity
  8
AM_0
100
AcDbLine
 10
186.1882063716173
 20
143.3579535853823
 30
0.0
 11
187.1882063716172
 21
143.3579535853823
 31
0.0
  0
ARC
  5
EDF1
330
1F
100
AcDbEntity
  8
AM_0
100
AcDbCircle
 10
92.08455262060956
 20
43.55276182697582
 30
0.0
 40
11.99999999999987
100
AcDbArc
 50
237.140119621109
 51
90.0
  0
ARC
  5
EDF2
330
1F
100
AcDbEntity
  8
AM_0
100
AcDbCircle
 10
92.08455262060956
 20
43.55276182697582
 30
0.0
 40
5.300000000000019
100
AcDbArc
 50
134.9643048629107
 51
225.0356951370892
  0
ARC
  5
EDF3
330
1F
100
AcDbEntity
  8
AM_0
100
AcDbCircle
 10
92.08455262060956
 20
43.55276182697582
 30
0.0
 40
5.300000000000959
100
AcDbArc
 50
314.9643048629246
 51
45.03569513707542
  0
ARC
  5
EDF4
330
1F
100
AcDbEntity
  8
AM_0
100
AcDbCircle
 10
92.08455262060956
 20
43.55276182697582
 30
0.0
 40
5.50000000000193
100
AcDbArc
 50
315.5729959992046
 51
317.0141139198181
  0
ARC
  5
EDF5
330
1F
100
AcDbEntity
  8
AM_0
100
AcDbCircle
 10
92.08455262060956
 20
43.55276182697582
 30
0.0
 40
5.499999999998039
100
AcDbArc
 50
135.5729959991907
 51
137.0141139197957
  0
ARC
  5
EDF6
330
1F
100
AcDbEntity
  8
AM_0
100
AcDbCircle
 10
92.08455262060956
 20
43.55276182697582
 30
0.0
 40
5.499999999997999
100
AcDbArc
 50
222.9858860802043
 51
224.427004000823
  0
ARC
  5
EDF7
330
1F
100
AcDbEntity
  8
AM_0
100
AcDbCircle
 10
92.08455262060956
 20
43.55276182697582
 30
0.0
 40
5.500000000000969
100
AcDbArc
 50
317.0141139198181
 51
42.98588608018165
  0
ARC
  5
EDF8
330
1F
100
AcDbEntity
  8
AM_0
100
AcDbCircle
 10
92.08455262060956
 20
43.55276182697582
 30
0.0
 40
5.49999999999802
100
AcDbArc
 50
137.0141139197957
 51
222.9858860802043
  0
ARC
  5
EDF9
330
1F
100
AcDbEntity
  8
AM_0
100
AcDbCircle
 10
92.08455262060956
 20
43.55276182697582
 30
0.0
 40
5.500000000000959
100
AcDbArc
 50
42.98588608018165
 51
44.42700400078203
  0
ARC
  5
EDFA
330
1F
100
AcDbEntity
  8
AM_0
100
AcDbCircle
 10
92.08455262060956
 20
43.55276182697582
 30
0.0
 40
12.00000000000001
100
AcDbArc
 50
90.0
 51
113.2874758828493
  0
ARC
  5
EDFB
330
1F
100
AcDbEntity
  8
AM_0
100
AcDbCircle
 10
92.08455262060956
 20
43.55276182697582
 30
0.0
 40
5.799999999999469
100
AcDbArc
 50
140.7965863941863
 51
160.6299617544877
  0
ARC
  5
EDFC
330
1F
100
AcDbEntity
  8
AM_0
100
AcDbCircle
 10
92.08455262060956
 20
43.55276182697582
 30
0.0
 40
5.79999999999978
100
AcDbArc
 50
199.3700382455331
 51
219.2034136058258
  0
ARC
  5
EDFD
330
1F
100
AcDbEntity
  8
AM_0
100
AcDbCircle
 10
92.08455262060956
 20
43.55276182697582
 30
0.0
 40
5.800000000000009
100
AcDbArc
 50
320.7965863941736
 51
340.6299617544221
  0
ARC
  5
EDFE
330
1F
100
AcDbEntity
  8
AM_0
100
AcDbCircle
 10
92.08455262060956
 20
43.55276182697582
 30
0.0
 40
5.800000000000459
100
AcDbArc
 50
19.37003824558819
 51
39.20341360581775
  0
ARC
  5
EDFF
330
1F
100
AcDbEntity
  8
AM_0
100
AcDbCircle
 10
124.0845526206096
 20
36.28649149778386
 30
0.0
 40
8.0
100
AcDbArc
 50
0.0
 51
66.7125241171507
  0
ARC
  5
EE00
330
1F
100
AcDbEntity
  8
AM_0
100
AcDbCircle
 10
92.08455262060956
 20
43.55276182697582
 30
0.0
 40
12.00000000000001
100
AcDbArc
 50
66.71252411714937
 51
73.72408337701277
  0
ARC
  5
EE04
330
1F
100
AcDbEntity
  8
AM_0
100
AcDbCircle
 10
87.97754641170243
 20
46.90276182697482
 30
0.0
 40
0.5
100
AcDbArc
 50
90.0
 51
140.7965863942031
  0
ARC
  5
EE05
330
1F
100
AcDbEntity
  8
AM_0
100
AcDbCircle
 10
87.08455262060956
 20
45.31060141009783
 30
0.0
 40
0.5000000000000801
100
AcDbArc
 50
160.6299617544911
 51
180.0
  0
ARC
  5
EE06
330
1F
100
AcDbEntity
  8
AM_0
100
AcDbCircle
 10
87.08455262060956
 20
41.79492224385183
 30
0.0
 40
0.5
100
AcDbArc
 50
180.0
 51
199.3700382455158
  0
ARC
  5
EE07
330
1F
100
AcDbEntity
  8
AM_0
100
AcDbCircle
 10
87.97754641170243
 20
40.20276182697585
 30
0.0
 40
0.5000000000000801
100
AcDbArc
 50
219.2034136058258
 51
270.0
  0
ARC
  5
EE08
330
1F
100
AcDbEntity
  8
AM_0
100
AcDbCircle
 10
97.08455262060844
 20
41.79492224384785
 30
0.0
 40
0.4999999999999901
100
AcDbArc
 50
340.6299617544187
 51
0.0
  0
ARC
  5
EE09
330
1F
100
AcDbEntity
  8
AM_0
100
AcDbCircle
 10
96.19155882951648
 20
40.20276182697585
 30
0.0
 40
0.5
100
AcDbArc
 50
270.0
 51
320.7965863941783
  0
ARC
  5
EE0A
330
1F
100
AcDbEntity
  8
AM_0
100
AcDbCircle
 10
97.08455262060844
 20
45.31060141010487
 30
0.0
 40
0.5
100
AcDbArc
 50
0.0
 51
19.37003824558128
  0
ARC
  5
EE0B
330
1F
100
AcDbEntity
  8
AM_0
100
AcDbCircle
 10
96.19155882951648
 20
46.90276182697482
 30
0.0
 40
0.4999999999999401
100
AcDbArc
 50
39.20341360580493
 51
90.0
  0
ARC
  5
EE0C
330
1F
100
AcDbEntity
  8
AM_0
100
AcDbCircle
 10
83.58455262060957
 20
33.05276182697586
 30
0.0
 40
0.5
100
AcDbArc
 50
90.0
 51
180.0
  0
ARC
  5
EE0D
330
1F
100
AcDbEntity
  8
AM_0
100
AcDbCircle
 10
85.30222263748456
 20
33.05276182697586
 30
0.0
 40
0.4999999999999901
100
AcDbArc
 50
57.14011962111417
 51
90.0
  0
ARC
  5
EE0E
330
1F
100
AcDbEntity
  8
AM_0
100
AcDbCircle
 10
60.08455262060957
 20
36.27058172650186
 30
0.0
 40
7.999999999999981
100
AcDbArc
 50
178.9394794880814
 51
180.0
  0
ARC
  5
EE0F
330
1F
100
AcDbEntity
  8
AM_0
100
AcDbCircle
 10
60.08455262060957
 20
36.27058172650186
 30
0.0
 40
7.999999999999981
100
AcDbArc
 50
109.7816962529172
 51
180.0
  0
ARC
  5
EE10
330
1F
100
AcDbEntity
  8
AM_0
100
AcDbCircle
 10
100.5845526206095
 20
33.05276182697586
 30
0.0
 40
0.5
100
AcDbArc
 50
0.0
 51
90.0
  0
ARC
  5
EE11
330
1F
100
AcDbEntity
  8
AM_0
100
AcDbCircle
 10
98.86688260373446
 20
33.05276182697586
 30
0.0
 40
0.5
100
AcDbArc
 50
90.0
 51
122.8598803788894
  0
ARC
  5
EE12
330
1F
100
AcDbEntity
  8
AM_0
100
AcDbCircle
 10
186.1882063716173
 20
96.3579535853823
 30
0.0
 40
2.0
100
AcDbArc
 50
270.0
 51
299.999999999999
  0
ARC
  5
EE13
330
1F
100
AcDbEntity
  8
AM_0
100
AcDbCircle
 10
186.1882063716173
 20
96.3579535853823
 30
0.0
 40
2.000000000000019
100
AcDbArc
 50
299.999999999999
 51
0.0
  0
ARC
  5
EE14
330
1F
100
AcDbEntity
  8
AM_0
100
AcDbCircle
 10
186.1882063716173
 20
140.3579535853814
 30
0.0
 40
2.0
100
AcDbArc
 50
0.0000000000260551
 51
90.0
  0
ARC
  5
EE15
330
1F
100
AcDbEntity
  8
AM_0
100
AcDbCircle
 10
186.1882063716173
 20
93.35795358538229
 30
0.0
 40
2.000000000000019
100
AcDbArc
 50
299.999999999999
 51
359.9999999999968
  0
ARC
  5
EE16
330
1F
100
AcDbEntity
  8
AM_0
100
AcDbCircle
 10
186.1882063716173
 20
143.3579535853823
 30
0.0
 40
2.0
100
AcDbArc
 50
0.0
 51
60.00000000000023
  0
CIRCLE
  5
EE1B
330
1F
100
AcDbEntity
  8
AM_0
100
AcDbCircle
 10
92.08455262060956
 20
43.55276182697582
 30
0.0
 40
3.0
  0
CIRCLE
  5
EE1C
330
1F
100
AcDbEntity
  8
AM_0
100
AcDbCircle
 10
110.0845526206095
 20
133.3579535853823
 30
0.0
 40
2.649999999999979
  0
CIRCLE
  5
EE1D
330
1F
100
AcDbEntity
  8
AM_0
100
AcDbCircle
 10
125.0845526206096
 20
118.3579535853823
 30
0.0
 40
2.649999999999979
  0
CIRCLE
  5
EE1E
330
1F
100
AcDbEntity
  8
AM_0
100
AcDbCircle
 10
110.0845526206095
 20
103.3579535853823
 30
0.0
 40
2.649999999999979
  0
CIRCLE
  5
EE1F
330
1F
100
AcDbEntity
  8
AM_0
100
AcDbCircle
 10
74.08455262060957
 20
103.3579535853823
 30
0.0
 40
2.649999999999979
  0
CIRCLE
  5
EE20
330
1F
100
AcDbEntity
  8
AM_0
100
AcDbCircle
 10
59.08455262060957
 20
118.3579535853823
 30
0.0
 40
2.649999999999979
  0
CIRCLE
  5
EE21
330
1F
100
AcDbEntity
  8
AM_0
100
AcDbCircle
 10
74.08455262060957
 20
133.3579535853823
 30
0.0
 40
2.649999999999979
  0
ARC
  5
EFB0
330
1F
100
AcDbEntity
  8
AM_11
 48
0.5
100
AcDbCircle
 10
60.08455262060957
 20
50.81903215616785
 30
0.0
 40
7.99999999999991
100
AcDbArc
 50
180.0
 51
246.7125241171507
  0
ARC
  5
EFB1
330
1F
100
AcDbEntity
  8
AM_11
 48
0.5
100
AcDbCircle
 10
83.58455262060957
 20
54.05276182697576
 30
0.0
 40
0.5
100
AcDbArc
 50
179.9999999999967
 51
270.0
  0
ARC
  5
EFB2
330
1F
100
AcDbEntity
  8
AM_11
 48
0.5
100
AcDbCircle
 10
85.30222263748456
 20
54.05276182697583
 30
0.0
 40
0.4999999999999901
100
AcDbArc
 50
270.0
 51
302.8598803788858
  0
LINE
  5
EFBB
330
1F
100
AcDbEntity
  8
AM_11
 48
0.5
100
AcDbLine
 10
56.92179475979273
 20
43.47076959187134
 30
0.0
 11
87.3404158293836
 21
32.5303679805314
 31
0.0
  0
LINE
  5
EFBC
330
1F
100
AcDbEntity
  8
AM_11
 48
0.5
100
AcDbLine
 10
83.08455262060968
 20
56.55276182697583
 30
0.0
 11
52.08455262060969
 21
56.55276182697588
 31
0.0
  0
LINE
  5
EFBD
330
1F
100
AcDbEntity
  8
AM_11
 48
0.5
100
AcDbLine
 10
83.08455262060958
 20
54.55276182697582
 30
0.0
 11
52.08455262060957
 21
54.55276182697588
 31
0.0
  0
LINE
  5
EFBF
330
1F
100
AcDbEntity
  8
AM_11
 48
0.5
100
AcDbLine
 10
83.08455262060958
 20
54.55276182697582
 30
0.0
 11
83.08455262060968
 21
56.55276182697583
 31
0.0
  0
LINE
  5
EFC0
330
1F
100
AcDbEntity
  8
AM_11
 48
0.5
100
AcDbLine
 10
83.58455262060957
 20
53.55276182697583
 30
0.0
 11
85.30222263748456
 21
53.55276182697583
 31
0.0
  0
LINE
  5
EFC1
330
1F
100
AcDbEntity
  8
AM_11
 48
0.5
100
AcDbLine
 10
83.08455262060958
 20
54.55276182697582
 30
0.0
 11
83.08455262060958
 21
54.05276182697583
 31
0.0
  0
LINE
  5
EFC2
330
1F
100
AcDbEntity
  8
AM_11
 48
0.5
100
AcDbLine
 10
52.08455262060969
 20
50.8190321561679
 30
0.0
 11
52.08455262060969
 21
56.55276182697588
 31
0.0
  0
LINE
  5
F027
330
1F
100
AcDbEntity
  8
AM_7
100
AcDbLine
 10
49.08455262060957
 20
118.3579535853823
 30
0.0
 11
135.0845526206095
 21
118.3579535853823
 31
0.0
1001
GENIUS_GENODEF_13
1002
{
1000
HIER
1070
     0
1002
}
1002
{
1000
MANEDIT
1070
     0
1002
}
1002
{
1000
NOSEL
1070
     0
1002
}
1002
{
1000
BEHIND
1070
     0
1002
}
1002
{
1000
OTHER
1070
     0
1002
}
1002
{
1000
REACTOR
1002
}
1001
GENIUS_GENOBJ-N-CEN_13
1002
{
1000
OWNER
1000
GEN
1002
}
1001
GENIUS_GENCEN_19
1002
{
1040
3.0
1002
}
  0
LINE
  5
F028
330
1F
100
AcDbEntity
  8
AM_7
 48
0.5
100
AcDbLine
 10
104.9345526206097
 20
133.3579535853823
 30
0.0
 11
115.2345526206094
 21
133.3579535853823
 31
0.0
1001
GENIUS_GENODEF_13
1002
{
1000
HIER
1070
     0
1002
}
1002
{
1000
MANEDIT
1070
     0
1002
}
1002
{
1000
NOSEL
1070
     0
1002
}
1002
{
1000
BEHIND
1070
     0
1002
}
1002
{
1000
OTHER
1070
     0
1002
}
1002
{
1000
REACTOR
1002
}
1001
GENIUS_GENOBJ-N-CEN_13
1002
{
1000
OWNER
1000
GEN
1002
}
1001
GENIUS_GENCEN_19
1002
{
1040
3.0
1002
}
  0
LINE
  5
F029
330
1F
100
AcDbEntity
  8
AM_7
 48
0.5
100
AcDbLine
 10
110.0845526206095
 20
138.5079535853822
 30
0.0
 11
110.0845526206095
 21
128.2079535853824
 31
0.0
1001
GENIUS_GENODEF_13
1002
{
1000
HIER
1070
     0
1002
}
1002
{
1000
MANEDIT
1070
     0
1002
}
1002
{
1000
NOSEL
1070
     0
1002
}
1002
{
1000
BEHIND
1070
     0
1002
}
1002
{
1000
OTHER
1070
     0
1002
}
1002
{
1000
REACTOR
1002
}
1001
GENIUS_GENOBJ-N-CEN_13
1002
{
1000
OWNER
1000
GEN
1002
}
1001
GENIUS_GENCEN_19
1002
{
1040
3.0
1002
}
  0
LINE
  5
F02A
330
1F
100
AcDbEntity
  8
AM_7
 48
0.5
100
AcDbLine
 10
104.9345526206097
 20
103.3579535853823
 30
0.0
 11
115.2345526206095
 21
103.3579535853823
 31
0.0
1001
GENIUS_GENODEF_13
1002
{
1000
HIER
1070
     0
1002
}
1002
{
1000
MANEDIT
1070
     0
1002
}
1002
{
1000
NOSEL
1070
     0
1002
}
1002
{
1000
BEHIND
1070
     0
1002
}
1002
{
1000
OTHER
1070
     0
1002
}
1002
{
1000
REACTOR
1002
}
1001
GENIUS_GENOBJ-N-CEN_13
1002
{
1000
OWNER
1000
GEN
1002
}
1001
GENIUS_GENCEN_19
1002
{
1040
3.0
1002
}
  0
LINE
  5
F02B
330
1F
100
AcDbEntity
  8
AM_7
 48
0.5
100
AcDbLine
 10
110.0845526206096
 20
108.5079535853822
 30
0.0
 11
110.0845526206096
 21
98.20795358538237
 31
0.0
1001
GENIUS_GENODEF_13
1002
{
1000
HIER
1070
     0
1002
}
1002
{
1000
MANEDIT
1070
     0
1002
}
1002
{
1000
NOSEL
1070
     0
1002
}
1002
{
1000
BEHIND
1070
     0
1002
}
1002
{
1000
OTHER
1070
     0
1002
}
1002
{
1000
REACTOR
1002
}
1001
GENIUS_GENOBJ-N-CEN_13
1002
{
1000
OWNER
1000
GEN
1002
}
1001
GENIUS_GENCEN_19
1002
{
1040
3.0
1002
}
  0
LINE
  5
F02C
330
1F
100
AcDbEntity
  8
AM_7
 48
0.8
100
AcDbLine
 10
110.0845526206095
 20
128.2079535853824
 30
0.0
 11
110.0845526206096
 21
108.5079535853822
 31
0.0
1001
GENIUS_GENOBJ-N-CEN_13
1002
{
1000
OWNER
1000
GEN
1002
}
1001
GENIUS_GENODEF_13
1002
{
1000
HIER
1070
     0
1002
}
1002
{
1000
MANEDIT
1070
     0
1002
}
1002
{
1000
NOSEL
1070
     0
1002
}
1002
{
1000
BEHIND
1070
     0
1002
}
1002
{
1000
OTHER
1070
     0
1002
}
1002
{
1000
REACTOR
1002
}
1001
GENIUS_GENCEN_19
1002
{
1040
3.0
1002
}
  0
LINE
  5
F02D
330
1F
100
AcDbEntity
  8
AM_7
 48
0.5
100
AcDbLine
 10
68.93455262060965
 20
133.3579535853823
 30
0.0
 11
79.23455262060937
 21
133.3579535853823
 31
0.0
1001
GENIUS_GENODEF_13
1002
{
1000
HIER
1070
     0
1002
}
1002
{
1000
MANEDIT
1070
     0
1002
}
1002
{
1000
NOSEL
1070
     0
1002
}
1002
{
1000
BEHIND
1070
     0
1002
}
1002
{
1000
OTHER
1070
     0
1002
}
1002
{
1000
REACTOR
1002
}
1001
GENIUS_GENOBJ-N-CEN_13
1002
{
1000
OWNER
1000
GEN
1002
}
1001
GENIUS_GENCEN_19
1002
{
1040
3.0
1002
}
  0
LINE
  5
F02E
330
1F
100
AcDbEntity
  8
AM_7
 48
0.5
100
AcDbLine
 10
74.08455262060951
 20
138.5079535853822
 30
0.0
 11
74.08455262060951
 21
128.2079535853824
 31
0.0
1001
GENIUS_GENODEF_13
1002
{
1000
HIER
1070
     0
1002
}
1002
{
1000
MANEDIT
1070
     0
1002
}
1002
{
1000
NOSEL
1070
     0
1002
}
1002
{
1000
BEHIND
1070
     0
1002
}
1002
{
1000
OTHER
1070
     0
1002
}
1002
{
1000
REACTOR
1002
}
1001
GENIUS_GENOBJ-N-CEN_13
1002
{
1000
OWNER
1000
GEN
1002
}
1001
GENIUS_GENCEN_19
1002
{
1040
3.0
1002
}
  0
LINE
  5
F02F
330
1F
100
AcDbEntity
  8
AM_7
 48
0.5
100
AcDbLine
 10
68.93455262060971
 20
103.3579535853823
 30
0.0
 11
79.23455262060944
 21
103.3579535853823
 31
0.0
1001
GENIUS_GENODEF_13
1002
{
1000
HIER
1070
     0
1002
}
1002
{
1000
MANEDIT
1070
     0
1002
}
1002
{
1000
NOSEL
1070
     0
1002
}
1002
{
1000
BEHIND
1070
     0
1002
}
1002
{
1000
OTHER
1070
     0
1002
}
1002
{
1000
REACTOR
1002
}
1001
GENIUS_GENOBJ-N-CEN_13
1002
{
1000
OWNER
1000
GEN
1002
}
1001
GENIUS_GENCEN_19
1002
{
1040
3.0
1002
}
  0
LINE
  5
F030
330
1F
100
AcDbEntity
  8
AM_7
 48
0.5
100
AcDbLine
 10
74.08455262060957
 20
108.5079535853822
 30
0.0
 11
74.08455262060957
 21
98.20795358538237
 31
0.0
1001
GENIUS_GENODEF_13
1002
{
1000
HIER
1070
     0
1002
}
1002
{
1000
MANEDIT
1070
     0
1002
}
1002
{
1000
NOSEL
1070
     0
1002
}
1002
{
1000
BEHIND
1070
     0
1002
}
1002
{
1000
OTHER
1070
     0
1002
}
1002
{
1000
REACTOR
1002
}
1001
GENIUS_GENOBJ-N-CEN_13
1002
{
1000
OWNER
1000
GEN
1002
}
1001
GENIUS_GENCEN_19
1002
{
1040
3.0
1002
}
  0
LINE
  5
F031
330
1F
100
AcDbEntity
  8
AM_7
 48
0.8
100
AcDbLine
 10
74.08455262060951
 20
128.2079535853824
 30
0.0
 11
74.08455262060957
 21
108.5079535853822
 31
0.0
1001
GENIUS_GENOBJ-N-CEN_13
1002
{
1000
OWNER
1000
GEN
1002
}
1001
GENIUS_GENODEF_13
1002
{
1000
HIER
1070
     0
1002
}
1002
{
1000
MANEDIT
1070
     0
1002
}
1002
{
1000
NOSEL
1070
     0
1002
}
1002
{
1000
BEHIND
1070
     0
1002
}
1002
{
1000
OTHER
1070
     0
1002
}
1002
{
1000
REACTOR
1002
}
1001
GENIUS_GENCEN_19
1002
{
1040
3.0
1002
}
  0
LINE
  5
F032
330
1F
100
AcDbEntity
  8
AM_7
 48
0.5
100
AcDbLine
 10
125.0845526206096
 20
123.5079535853822
 30
0.0
 11
125.0845526206096
 21
113.2079535853824
 31
0.0
1001
GENIUS_GENODEF_13
1002
{
1000
HIER
1070
     0
1002
}
1002
{
1000
MANEDIT
1070
     0
1002
}
1002
{
1000
NOSEL
1070
     0
1002
}
1002
{
1000
BEHIND
1070
     0
1002
}
1002
{
1000
OTHER
1070
     0
1002
}
1002
{
1000
REACTOR
1002
}
1001
GENIUS_GENOBJ-N-CEN_13
1002
{
1000
OWNER
1000
GEN
1002
}
1001
GENIUS_GENCEN_19
1002
{
1040
3.0
1002
}
  0
LINE
  5
F033
330
1F
100
AcDbEntity
  8
AM_7
 48
0.5
100
AcDbLine
 10
59.08455262060957
 20
123.5079535853822
 30
0.0
 11
59.08455262060957
 21
113.2079535853824
 31
0.0
1001
GENIUS_GENODEF_13
1002
{
1000
HIER
1070
     0
1002
}
1002
{
1000
MANEDIT
1070
     0
1002
}
1002
{
1000
NOSEL
1070
     0
1002
}
1002
{
1000
BEHIND
1070
     0
1002
}
1002
{
1000
OTHER
1070
     0
1002
}
1002
{
1000
REACTOR
1002
}
1001
GENIUS_GENOBJ-N-CEN_13
1002
{
1000
OWNER
1000
GEN
1002
}
1001
GENIUS_GENCEN_19
1002
{
1040
3.0
1002
}
  0
LINE
  5
F034
330
1F
100
AcDbEntity
  8
AM_7
100
AcDbLine
 10
92.08455262060946
 20
149.3579535853843
 30
0.0
 11
92.08455262060956
 21
87.3579535853803
 31
0.0
1001
GENIUS_GENODEF_13
1002
{
1000
HIER
1070
     0
1002
}
1002
{
1000
MANEDIT
1070
     0
1002
}
1002
{
1000
NOSEL
1070
     0
1002
}
1002
{
1000
BEHIND
1070
     0
1002
}
1002
{
1000
OTHER
1070
     0
1002
}
1002
{
1000
REACTOR
1002
}
1001
GENIUS_GENOBJ-N-CEN_13
1002
{
1000
OWNER
1000
GEN
1002
}
1001
GENIUS_GENCEN_19
1002
{
1040
3.0
1002
}
  0
LINE
  5
F035
330
1F
100
AcDbEntity
  8
AM_7
100
AcDbLine
 10
175.1882063716173
 20
149.3579535853843
 30
0.0
 11
175.1882063716173
 21
87.3579535853803
 31
0.0
1001
GENIUS_GENOBJ-N-CEN_13
1002
{
1000
OWNER
1000
GEN
1002
}
1001
GENIUS_GENODEF_13
1002
{
1000
HIER
1070
     0
1002
}
1002
{
1000
MANEDIT
1070
     0
1002
}
1002
{
1000
NOSEL
1070
     0
1002
}
1002
{
1000
BEHIND
1070
     0
1002
}
1002
{
1000
OTHER
1070
     0
1002
}
1002
{
1000
REACTOR
1002
}
1001
GENIUS_GENCEN_19
1002
{
1040
3.0
1002
}
  0
LINE
  5
F036
330
1F
100
AcDbEntity
  8
AM_7
100
AcDbLine
 10
192.1882063716172
 20
118.3579535853823
 30
0.0
 11
158.1882063716174
 21
118.3579535853823
 31
0.0
1001
GENIUS_GENOBJ-N-CEN_13
1002
{
1000
OWNER
1000
GEN
1002
}
1001
GENIUS_GENODEF_13
1002
{
1000
HIER
1070
     0
1002
}
1002
{
1000
MANEDIT
1070
     0
1002
}
1002
{
1000
NOSEL
1070
     0
1002
}
1002
{
1000
BEHIND
1070
     0
1002
}
1002
{
1000
OTHER
1070
     0
1002
}
1002
{
1000
REACTOR
1002
}
1001
GENIUS_GENCEN_19
1002
{
1040
3.0
1002
}
  0
LINE
  5
F037
330
1F
100
AcDbEntity
  8
AM_7
100
AcDbLine
 10
92.08455262060956
 20
26.7027618269758
 30
0.0
 11
92.08455262060956
 21
60.40276182697579
 31
0.0
1001
GENIUS_GENODEF_13
1002
{
1000
HIER
1070
     0
1002
}
1002
{
1000
MANEDIT
1070
     0
1002
}
1002
{
1000
NOSEL
1070
     0
1002
}
1002
{
1000
BEHIND
1070
     0
1002
}
1002
{
1000
OTHER
1070
     0
1002
}
1002
{
1000
REACTOR
1002
}
1001
GENIUS_GENOBJ-N-CEN_13
1002
{
1000
OWNER
1000
GEN
1002
}
1001
GENIUS_GENCEN_19
1002
{
1040
3.0
1002
}
  0
LINE
  5
F038
330
1F
100
AcDbEntity
  8
AM_7
100
AcDbLine
 10
49.08455262060957
 20
43.55276182697582
 30
0.0
 11
135.0845526206095
 21
43.55276182697582
 31
0.0
1001
GENIUS_GENOBJ-N-CEN_13
1002
{
1000
OWNER
1000
GEN
1002
}
1001
GENIUS_GENODEF_13
1002
{
1000
HIER
1070
     0
1002
}
1002
{
1000
MANEDIT
1070
     0
1002
}
1002
{
1000
NOSEL
1070
     0
1002
}
1002
{
1000
BEHIND
1070
     0
1002
}
1002
{
1000
OTHER
1070
     0
1002
}
1002
{
1000
REACTOR
1002
}
1001
GENIUS_GENCEN_19
1002
{
1040
3.0
1002
}
  0
DIMENSION
  5
F03A
330
1F
100
AcDbEntity
  8
AM_5
100
AcDbDimension
  2
*D5
 10
132.0845526206095
 20
177.3579535853824
 30
0.0
 11
92.08455262060956
 21
180.4579535853824
 31
0.0
 70
    32
 71
     5
 42
80.0
  3
SYS$0
100
AcDbAlignedDimension
 13
52.08455262060957
 23
145.3579535853823
 33
0.0
 14
132.0845526206095
 24
142.3579535853823
 34
0.0
100
AcDbRotatedDimension
  0
DIMENSION
  5
F050
330
1F
100
AcDbEntity
  8
AM_5
100
AcDbDimension
  2
*D6
 10
125.0845526206096
 20
167.3579535853822
 30
0.0
 11
92.08455262060956
 21
170.4579535853822
 31
0.0
 70
    32
 71
     5
 42
66.0
  3
SYS$0
100
AcDbAlignedDimension
 13
59.08455262060957
 23
123.5079535853822
 33
0.0
 14
125.0845526206096
 24
123.5079535853822
 34
0.0
100
AcDbRotatedDimension
  0
DIMENSION
  5
F078
330
1F
100
AcDbEntity
  8
AM_5
100
AcDbDimension
  2
*D7
 10
110.0845526206095
 20
157.3579535853819
 30
0.0
 11
92.08455262060954
 21
160.4579535853819
 31
0.0
 70
    32
 71
     5
 42
36.00000000000006
  3
SYS$0
100
AcDbAlignedDimension
 13
74.08455262060951
 23
138.5079535853822
 33
0.0
 14
110.0845526206095
 24
138.5079535853822
 34
0.0
100
AcDbRotatedDimension
  0
DIMENSION
  5
F0A9
330
1F
100
AcDbEntity
  8
AM_5
100
AcDbDimension
  2
*D8
 10
152.0845526206096
 20
96.3579535853823
 30
0.0
 11
148.9845526206095
 21
118.3579535853823
 31
0.0
 70
    32
 71
     5
 42
44.00000000000005
  3
SYS$0
100
AcDbAlignedDimension
 13
132.0845526206095
 23
140.3579535853823
 33
0.0
 14
132.0845526206095
 24
96.3579535853823
 34
0.0
 50
90.0
100
AcDbRotatedDimension
  0
DIMENSION
  5
F0BF
330
1F
100
AcDbEntity
  8
AM_5
100
AcDbDimension
  2
*D9
 10
142.0845526206095
 20
135.7579535853813
 30
0.0
 11
138.9845526206095
 21
118.3579535853823
 31
0.0
 70
    32
 71
     5
 42
34.79999999999802
  3
SYS$0
100
AcDbAlignedDimension
 13
102.8845526206095
 23
100.9579535853833
 33
0.0
 14
102.8845526206095
 24
135.7579535853813
 34
0.0
 50
90.0
100
AcDbRotatedDimension
  0
DIMENSION
  5
F0DE
330
1F
100
AcDbEntity
  8
AM_5
100
AcDbDimension
  2
*D10
 10
32.08455262060951
 20
91.3579535853823
 30
0.0
 11
28.9845526206095
 21
118.3579535853823
 31
0.0
 70
    32
 71
     5
 42
54.00000000000004
  3
SYS$0
100
AcDbAlignedDimension
 13
52.08455262060957
 23
145.3579535853823
 33
0.0
 14
52.08455262060957
 24
91.3579535853823
 34
0.0
 50
90.0
100
AcDbRotatedDimension
  0
DIMENSION
  5
F0F4
330
1F
100
AcDbEntity
  8
AM_5
100
AcDbDimension
  2
*D11
 10
32.08455262060946
 20
146.3579535853843
 30
0.0
 11
28.98455262060943
 21
152.9939535853843
 31
0.0
 70
    32
  1
<>以下
 71
     5
 42
1.000000000002017
  3
SYS$0
100
AcDbAlignedDimension
 13
52.08455262060957
 23
145.3579535853823
 33
0.0
 14
86.78455262060849
 24
146.3579535853843
 34
0.0
 50
90.0
100
AcDbRotatedDimension
  0
DIMENSION
  5
F119
330
1F
100
AcDbEntity
  8
AM_5
100
AcDbDimension
  2
*D12
 10
32.08455262060951
 20
90.35795358538029
 30
0.0
 11
28.9845526206095
 21
83.72195358538032
 31
0.0
 70
    32
  1
<>以下
 71
     5
 42
1.000000000001989
  3
SYS$0
100
AcDbAlignedDimension
 13
52.08455262060957
 23
91.3579535853823
 33
0.0
 14
86.78455262060849
 24
90.35795358538029
 34
0.0
 50
90.0
100
AcDbRotatedDimension
  0
DIMENSION
  5
F13E
330
1F
100
AcDbEntity
  8
AM_5
100
AcDbDimension
  2
*D13
 10
144.0845526206095
 20
43.55276182697582
 30
0.0
 11
140.9845526206095
 21
37.05276182697586
 31
0.0
 70
    32
 71
     5
 42
12.99999999999997
  3
SYS$0
100
AcDbAlignedDimension
 13
132.0845526206095
 23
30.55276182697586
 33
0.0
 14
135.0845526206095
 24
43.55276182697582
 34
0.0
 50
90.0
100
AcDbRotatedDimension
  0
DIMENSION
  5
F154
330
1F
100
AcDbEntity
  8
AM_5
100
AcDbDimension
  2
*D14
 10
154.0845526206094
 20
55.55276182697563
 30
0.0
 11
150.9845526206094
 21
43.05276182697577
 31
0.0
 70
    32
 71
     5
 42
24.9999999999998
  3
SYS$0
100
AcDbAlignedDimension
 13
132.0845526206095
 23
30.55276182697586
 33
0.0
 14
92.08455262060956
 24
55.55276182697565
 34
0.0
 50
90.0
100
AcDbRotatedDimension
  0
DIMENSION
  5
F16A
330
1F
100
AcDbEntity
  8
AM_5
100
AcDbDimension
  2
*D15
 10
86.84994402098144
 20
43.55276182697574
 30
0.0
 11
90.5754851355592
 21
68.31499000759629
 31
0.0
 70
    34
  1
<>（動作範囲）
 71
     5
 42
3.141592653589787
  3
SYS$2
100
AcDb2LineAngularDimension
 13
65.75961882506843
 23
43.55276182697588
 33
0.0
 14
90.57548513555914
 24
43.55276182697574
 34
0.0
 15
90.57548513555914
 25
43.55276182697574
 35
0.0
 16
101.3315992258694
 26
62.18289792340062
 36
0.0
1001
ACAD
1000
DSTYLE
1002
{
1070
    75
1070
     1
1070
    76
1070
     1
1070
   342
1005
A66
1002
}
  0
DIMENSION
  5
F192
330
1F
100
AcDbEntity
  8
AM_5
100
AcDbDimension
  2
*D16
 10
42.08455262060946
 20
103.3579535853823
 30
0.0
 11
38.98455262060944
 21
118.3579535853823
 31
0.0
 70
    32
 71
     5
 42
30.00000000000007
  3
SYS$0
100
AcDbAlignedDimension
 13
68.93455262060965
 23
133.3579535853823
 33
0.0
 14
68.93455262060965
 24
103.3579535853823
 34
0.0
 50
90.0
100
AcDbRotatedDimension
  0
DIMENSION
  5
F3AC
330
1F
100
AcDbEntity
  8
AM_5
100
AcDbDimension
  2
*D17
 10
75.24011701815658
 20
105.7427325946663
 30
0.0
 11
54.01156021304526
 21
80.75043723272756
 31
0.0
 70
   163
  1
6-<>
 71
     5
 42
5.300000000000054
  3
SYS$3
100
AcDbDiametricDimension
 15
72.92898822306248
 25
100.9731745760982
 35
0.0
 40
0.0
1001
ACAD
1000
DSTYLE
1002
{
1070
   172
1070
     1
1070
   342
1005
F3D9
1002
}
  0
LINE
  5
F516
330
1F
100
AcDbEntity
  8
AM_0
100
AcDbLine
 10
275.00863959803
 20
188.516495090344
 30
0.0
 11
275.00863959803
 21
163.516495090344
 31
0.0
  0
MTEXT
  5
F518
330
1F
100
AcDbEntity
  8
AM_6
100
AcDbMText
 10
261.5086395980299
 20
185.016495090344
 30
0.0
 40
3.2
 41
27.0
 71
     5
 72
     5
  1
対応ヒンジカバー
 73
     1
 44
1.0
1001
ACAD
1000
MTEXTBEGIN
1070
    73
1070
     1
1070
    44
1040
1.0
1070
    74
1070
     0
1000
MTEXTEND
1000
ACAD_MTEXT_DEFINED_HEIGHT_BEGIN
1070
    46
1040
7.000000000000001
1000
ACAD_MTEXT_DEFINED_HEIGHT_END
  0
MTEXT
  5
F51A
330
1F
100
AcDbEntity
  8
AM_6
100
AcDbMText
 10
261.5086395980299
 20
172.516495090344
 30
0.0
 40
3.2
 41
27.0
 71
     5
 72
     5
  1
DEH-ITMC
 73
     1
 44
1.0
1001
ACAD
1000
MTEXTBEGIN
1070
    73
1070
     1
1070
    44
1040
1.0
1070
    74
1070
     0
1000
MTEXTEND
1000
ACAD_MTEXT_DEFINED_HEIGHT_BEGIN
1070
    46
1040
17.99999999999998
1000
ACAD_MTEXT_DEFINED_HEIGHT_END
  0
MTEXT
  5
F75D
330
1F
100
AcDbEntity
  8
AM_6
100
AcDbMText
 10
211.0688971290088
 20
84.74065743765521
 30
0.0
 40
3.2
 41
68.2329675809575
 71
     1
 72
     5
  1
※計算値がヒンジのトルク値以下になる様に選定下さい。
 73
     1
 44
1.0
1001
ACAD
1000
MTEXTBEGIN
1070
    73
1070
     1
1070
    44
1040
1.0
1070
    74
1070
     0
1000
MTEXTEND
  0
MTEXT
  5
F7D7
330
1F
100
AcDbEntity
  8
AM_6
100
AcDbMText
 10
218.042338756053
 20
72.67878189045942
 30
0.0
 40
3.2
 41
17.8343458819885
 71
     5
 72
     5
  1
トルク値\P（N・m）
 73
     1
 44
1.0
1001
ACAD
1000
MTEXTBEGIN
1070
    73
1070
     1
1070
    44
1040
1.0
1070
    74
1070
     0
1000
MTEXTEND
  0
MTEXT
  5
F7D8
330
1F
100
AcDbEntity
  8
AM_6
100
AcDbMText
 10
250.8576546432683
 20
72.67878189045942
 30
0.0
 40
3.2
 41
51.67601794361565
 71
     5
 72
     5
  1
＝　　　　　　　　×扉重量（kg）×9.8
 73
     1
 44
1.0
1001
ACAD
1000
MTEXTBEGIN
1070
    73
1070
     1
1070
    44
1040
1.0
1070
    74
1070
     0
1000
MTEXTEND
  0
MTEXT
  5
F7D9
330
1F
100
AcDbEntity
  8
AM_6
100
AcDbMText
 10
236.8882659301789
 20
72.67878189045942
 30
0.0
 40
3.2
 41
17.8343458819885
 71
     5
 72
     5
  1
{\L扉高さ（m）}\P2
 73
     1
 44
1.0
1001
ACAD
1000
MTEXTBEGIN
1070
    73
1070
     1
1070
    44
1040
1.0
1070
    74
1070
     0
1000
MTEXTEND
  0
LWPOLYLINE
  5
F7DA
330
1F
100
AcDbEntity
  8
AM_0
100
AcDbPolyline
 90
        4
 70
     1
 43
0.0
 10
205.500000282035
 20
88.19866700462233
 10
285.500000282035
 20
88.19866700462233
 10
285.500000282035
 20
64.50000005047986
 10
205.500000282035
 20
64.50000005047986
1001
GENIUS_GENREC_14
1002
{
1000
PYDIR
1011
205.500000282035
1021
64.50000005047986
1031
0.0
1002
}
1002
{
1000
PXDIR
1011
285.500000282035
1021
88.19866700462233
1031
0.0
1002
}
1002
{
1000
PORI
1011
205.500000282035
1021
88.19866700462233
1031
0.0
1002
}
1002
{
1000
PINS
1011
205.500000282035
1021
88.19866700462233
1031
0.0
1002
}
1002
{
1000
PINS2
1011
285.500000282035
1021
64.50000005047986
1031
0.0
1002
}
1002
{
1000
C
1070
     1
1002
}
1001
GENIUS_GENODEF_13
1002
{
1000
HIER
1070
     0
1002
}
1002
{
1000
MANEDIT
1070
     0
1002
}
1002
{
1000
NOSEL
1070
     0
1002
}
1002
{
1000
BEHIND
1070
     0
1002
}
1002
{
1000
OTHER
1070
     0
1002
}
1002
{
1000
REACTOR
1002
}
1001
GENIUS_GENOBJ-N-REC_13
1002
{
1000
OWNER
1000
GEN
1002
}
  0
ENDSEC
  0
SECTION
  2
OBJECTS
  0
DICTIONARY
  5
C
330
0
100
AcDbDictionary
281
     1
  3
ACAD_2007HEADERVARS_RT
350
F8FA
  3
ACAD_BGPLOT_KEY
350
AB06
  3
ACAD_COLOR
350
A91D
  3
ACAD_GROUP
350
D
  3
ACAD_LAYOUT
350
1A
  3
ACAD_MATERIAL
350
A91C
  3
ACAD_MLINESTYLE
350
17
  3
ACAD_PLOTSETTINGS
350
19
  3
ACAD_PLOTSTYLENAME
350
E
  3
ACAD_TABLESTYLE
350
AAB9
  3
ACAD_VISUALSTYLE
350
B0F1
  3
AcAsAppObject
350
3DA1
  3
ACASGREF_MASTER
350
3DE9
  3
AcDbVariableDictionary
350
34
  3
AcmDictionary
350
47
  3
AD_GREF_MODULE
350
3DEA
  3
AD_MAPI_MODULE
350
3E06
  3
AMG
350
2B
  3
AMGSNAPSETTINGS
350
7D
  3
ASE_INDEX_DICTIONARY
350
CFB7
  3
DWGPROPS
350
F8F9
  3
MAPISURF_MODULE
350
3DEB
  0
DICTIONARY
  5
3F95
330
2
100
AcDbDictionary
280
     1
281
     1
  3
ACAD_LAYERFILTERS
360
B466
  3
ACAD_LAYERSTATES
360
3F96
  3
ACLYDICTIONARY
360
B465
  3
AMLAYER_GROUPCOLORS
360
AAB4
  0
DICTIONARY
  5
8A
330
1F
100
AcDbDictionary
280
     1
281
     1
  3
ACAD_SORTENTS
360
B1BA
  0
DICTIONARY
  5
F8FA
102
{ACAD_REACTORS
330
C
102
}
330
C
100
AcDbDictionary
281
     1
  3
DIMARCSYM
350
F8FB
  0
DICTIONARY
  5
AB06
102
{ACAD_REACTORS
330
C
102
}
330
C
100
AcDbDictionary
280
     1
281
     1
  0
DICTIONARY
  5
A91D
102
{ACAD_REACTORS
330
C
102
}
330
C
100
AcDbDictionary
281
     1
  0
DICTIONARY
  5
D
102
{ACAD_REACTORS
330
C
102
}
330
C
100
AcDbDictionary
281
     1
  0
DICTIONARY
  5
1A
102
{ACAD_REACTORS
330
C
102
}
330
C
100
AcDbDictionary
281
     1
  3
Model
350
22
  3
ﾚｲｱｳﾄ1
350
1E
  3
ﾚｲｱｳﾄ2
350
26
  0
DICTIONARY
  5
A91C
102
{ACAD_REACTORS
330
C
102
}
330
C
100
AcDbDictionary
281
     1
  3
ByBlock
350
B0EF
  3
ByLayer
350
B0EE
  3
Global
350
B0F0
  0
DICTIONARY
  5
17
102
{ACAD_REACTORS
330
C
102
}
330
C
100
AcDbDictionary
281
     1
  3
Standard
350
18
  0
DICTIONARY
  5
19
102
{ACAD_REACTORS
330
C
102
}
330
C
100
AcDbDictionary
281
     1
  0
ACDBDICTIONARYWDFLT
  5
E
102
{ACAD_REACTORS
330
C
102
}
330
C
100
AcDbDictionary
281
     1
  3
Normal
350
F
100
AcDbDictionaryWithDefault
340
F
  0
DICTIONARY
  5
AAB9
102
{ACAD_REACTORS
330
C
102
}
330
C
100
AcDbDictionary
281
     1
  3
Standard
350
AABA
  0
DICTIONARY
  5
B0F1
102
{ACAD_REACTORS
330
C
102
}
330
C
100
AcDbDictionary
281
     1
  3
2dWireframe
350
B0F7
  3
3D Hidden
350
B0F9
  3
3dWireframe
350
B0F8
  3
Basic
350
B0F6
  3
Brighten
350
B0FD
  3
ColorChange
350
B101
  3
Conceptual
350
B0FA
  3
Dim
350
B0FC
  3
Facepattern
350
B100
  3
Flat
350
B0F2
  3
FlatWithEdges
350
B0F3
  3
Gouraud
350
B0F4
  3
GouraudWithEdges
350
B0F5
  3
Linepattern
350
B0FF
  3
Realistic
350
B0FB
  3
Thicken
350
B0FE
  0
ACAD_PROXY_OBJECT
  5
3DA1
102
{ACAD_REACTORS
330
C
102
}
330
C
100
AcDbProxyObject
 90
      499
 91
      576
 95
   917527
 70
     0
 93
       10
310
407F
 94
        0
1001
ACAD
1000
AcRTDxfName
1000
ASAPP
  0
ACAD_PROXY_OBJECT
  5
3DE9
102
{ACAD_REACTORS
330
C
102
}
330
C
100
AcDbProxyObject
 90
      499
 91
      581
 95
   917527
 70
     0
 93
       34
310
010000407F
 94
        0
1001
ACAD
1000
AcRTDxfName
1000
ACASGREFMASTER
  0
DICTIONARY
  5
34
102
{ACAD_REACTORS
330
C
102
}
330
C
100
AcDbDictionary
281
     1
  3
CTABLESTYLE
350
AAF3
  3
DIMASSOC
350
A10C
  3
FIELDEVAL
350
AB07
  3
INDEXCTL
350
35
  3
SORTENTS
350
194C
  0
DICTIONARY
  5
47
102
{ACAD_REACTORS
330
C
102
}
330
C
100
AcDbDictionary
281
     1
  3
AcmBOM
350
7E8
  3
AcmStdDictionary
350
4C
  3
AMDTSECTSYM_ARROWCOLOR
350
A929
  0
ACAD_PROXY_OBJECT
  5
3DEA
102
{ACAD_REACTORS
330
C
102
}
330
C
100
AcDbProxyObject
 90
      499
 91
      582
 95
   917527
 70
     0
 93
      114
310
00000043800000000000000000003F
 94
        0
1001
ACAD
1000
AcRTDxfName
1000
ACADGREFMODULE
  0
ACAD_PROXY_OBJECT
  5
3E06
102
{ACAD_REACTORS
330
C
102
}
330
C
100
AcDbProxyObject
 90
      499
 91
      594
 95
   917527
 70
     0
 93
       34
310
05000044FF
 94
        0
1001
ACAD
1000
AcRTDxfName
1000
MAPIADMODULE
  0
DICTIONARY
  5
2B
102
{ACAD_REACTORS
330
C
102
}
330
C
100
AcDbDictionary
281
     1
  0
DICTIONARY
  5
7D
102
{ACAD_REACTORS
330
C
102
}
330
C
100
AcDbDictionary
281
     1
  0
DICTIONARY
  5
CFB7
102
{ACAD_REACTORS
330
C
102
}
330
C
100
AcDbDictionary
281
     1
  3
ASEBlockHierarchyIndexRecord
350
CFB8
1001
DCO15
1040
1758720271.252
  0
XRECORD
  5
F8F9
102
{ACAD_REACTORS
330
C
102
}
330
C
100
AcDbXrecord
280
     1
  1
DWGPROPS COOKIE
  2

  3

  4

  6

  7

  8
Administrator
  9

300
AmdtFileType=84
301
=
302
=
303
=
304
=
305
=
306
=
307
=
308
=
309
=
 40
0.1933397569444444
 41
2456139.798878935
 42
2456267.606950231
  1

 90
        1
  0
ACAD_PROXY_OBJECT
  5
3DEB
102
{ACAD_REACTORS
330
C
102
}
330
C
100
AcDbProxyObject
 90
      499
 91
      583
 95
   917527
 70
     0
 93
        8
310
047E
 94
        0
1001
ACAD
1000
AcRTDxfName
1000
AMDTMAPISURFMOUDULE
  0
DICTIONARY
  5
B466
102
{ACAD_REACTORS
330
3F95
102
}
330
3F95
100
AcDbDictionary
281
     1
  0
DICTIONARY
  5
3F96
102
{ACAD_REACTORS
330
3F95
102
}
330
3F95
100
AcDbDictionary
281
     1
  3
20011210
350
3FB7
  0
DICTIONARY
  5
B465
102
{ACAD_REACTORS
330
3F95
102
}
330
3F95
100
AcDbDictionary
281
     1
1001
ACAD
1000
<All
  0
DICTIONARY
  5
AAB4
102
{ACAD_REACTORS
330
3F95
102
}
330
3F95
100
AcDbDictionary
280
     1
281
     1
  0
SORTENTSTABLE
  5
B1BA
102
{ACAD_REACTORS
330
8A
102
}
330
8A
100
AcDbSortentsTable
330
1F
331
EC60
  5
EC8B
331
EFC1
  5
EBC5
331
EDFA
  5
EE25
331
EC68
  5
EC93
331
ECA7
  5
ECD2
331
ECDE
  5
ED09
331
ED1D
  5
ED48
331
ED54
  5
ED7F
331
ED93
  5
EDBE
331
EC70
  5
EC9B
331
ECAF
  5
ECDA
331
ECE6
  5
ED11
331
ED25
  5
ED50
331
ED5C
  5
ED87
331
ED9B
  5
EDC6
331
EE0A
  5
EE38
331
ED2D
  5
ED58
331
ECB7
  5
ECE2
331
EC78
  5
ECA3
331
ECEE
  5
ED19
331
ED64
  5
ED8F
331
EC29
  5
EC54
331
EBEA
  5
EC15
331
DF0C
  5
DF0C
331
EE12
  5
EFB4
331
ECF6
  5
ED21
331
ED6C
  5
ED97
331
B867
  5
C4B6
331
EC31
  5
EC5C
331
EBF2
  5
EC1D
331
EBBB
  5
EBE6
331
EC39
  5
EC64
331
EBFA
  5
EC25
331
EBC3
  5
EBEE
331
EC02
  5
EC2D
331
EC41
  5
EC6C
331
EC80
  5
ECAB
331
EC49
  5
EC74
331
EC88
  5
ECB3
331
ECBF
  5
ECEA
331
ECFE
  5
ED29
331
ED35
  5
ED60
331
ED74
  5
ED9F
331
EDAB
  5
EDD6
331
EC51
  5
EC7C
331
EC90
  5
ECBB
331
ECC7
  5
ECF2
331
ED06
  5
ED31
331
ED3D
  5
ED68
331
ED7C
  5
EDA7
331
EDB3
  5
EDDE
331
EFB2
  5
EBB6
331
EC59
  5
EC84
331
EC98
  5
ECC3
331
ECCF
  5
ECFA
331
ED0E
  5
ED39
331
ED45
  5
ED70
331
EDBB
  5
EDE6
331
EC0A
  5
EC35
331
DF54
  5
DF54
331
EDF3
  5
EE1E
331
ECD7
  5
ED02
331
ED16
  5
ED41
331
ED4D
  5
ED78
331
ED8C
  5
EDB7
331
B6A8
  5
B6BE
331
EC12
  5
EC3D
331
EBD3
  5
EBFE
331
B6B0
  5
B864
331
EC1A
  5
EC45
331
EBDB
  5
EC06
331
DF6C
  5
DF6C
331
EC22
  5
EC4D
331
EBE3
  5
EC0E
331
EC61
  5
EC8C
331
ECA0
  5
ECCB
331
EFC2
  5
EBC6
331
EDFB
  5
EE26
331
EC69
  5
EC94
331
ECA8
  5
ECD3
331
ECDF
  5
ED0A
331
ED1E
  5
ED49
331
ED55
  5
ED80
331
ED94
  5
EDBF
331
ECB0
  5
ECDB
331
EC71
  5
EC9C
331
ECE7
  5
ED12
331
ED26
  5
ED51
331
ED5D
  5
ED88
331
ED9C
  5
EDC7
331
EE0B
  5
EE39
331
ED2E
  5
ED59
331
EC79
  5
ECA4
331
ECEF
  5
ED1A
331
ED65
  5
ED90
331
EC2A
  5
EC55
331
EBEB
  5
EC16
331
EE13
  5
EFB5
331
ECF7
  5
ED22
331
ED6D
  5
ED98
331
DF0D
  5
DF0D
331
EC32
  5
EC5D
331
EBF3
  5
EC1E
331
EBBC
  5
EBE7
331
EC3A
  5
EC65
331
EBFB
  5
EC26
331
EBC4
  5
EBEF
331
DF45
  5
DF45
331
EC03
  5
EC2E
331
DF4D
  5
DF4D
331
ECB8
  5
ECE3
331
EC42
  5
EC6D
331
EC81
  5
ECAC
331
EE1B
  5
EFBD
331
EC4A
  5
EC75
331
EC89
  5
ECB4
331
ECC0
  5
ECEB
331
ECFF
  5
ED2A
331
ED36
  5
ED61
331
ED75
  5
EDA0
331
EDAC
  5
EDD7
331
EC52
  5
EC7D
331
EC91
  5
ECBC
331
ECC8
  5
ECF3
331
ED07
  5
ED32
331
ED3E
  5
ED69
331
ED7D
  5
EDA8
331
EDB4
  5
EDDF
331
ECD0
  5
ECFB
331
EC5A
  5
EC85
331
EC99
  5
ECC4
331
ED0F
  5
ED3A
331
ED46
  5
ED71
331
ED85
  5
EDB0
331
EDBC
  5
EDE7
331
EC0B
  5
EC36
331
DF55
  5
DF55
331
DCAE
  5
DCCB
331
EFBB
  5
EBBF
331
EDF4
  5
EE1F
331
ED17
  5
ED42
331
ED4E
  5
ED79
331
ED8D
  5
EDB8
331
B6A9
  5
B6BF
331
EC13
  5
EC3E
331
EBD4
  5
EBFF
331
B6B1
  5
B867
331
EC1B
  5
EC46
331
EBDC
  5
EC07
331
DF6D
  5
DF6D
331
EC23
  5
EC4E
331
EBE4
  5
EC0F
331
E195
  5
E195
331
ECD8
  5
ED03
331
ECA1
  5
ECCC
331
EC62
  5
EC8D
331
EDFC
  5
EE27
331
ED1F
  5
ED4A
331
ECE0
  5
ED0B
331
ECA9
  5
ECD4
331
EC6A
  5
EC95
331
ED56
  5
ED81
331
ED95
  5
EDC0
331
EE04
  5
EE32
331
ED27
  5
ED52
331
ECE8
  5
ED13
331
ECB1
  5
ECDC
331
EC72
  5
EC9D
331
ED5E
  5
ED89
331
ED9D
  5
EDC8
331
EE0C
  5
EE3A
331
ED2F
  5
ED5A
331
ECF0
  5
ED1B
331
EC7A
  5
ECA5
331
ED66
  5
ED91
331
EC2B
  5
EC56
331
EBEC
  5
EC17
331
EE14
  5
EFB6
331
ED6E
  5
ED99
331
DF0E
  5
DF0E
331
EC33
  5
EC5E
331
EBF4
  5
EC1F
331
EBBD
  5
EBE8
331
EC3B
  5
EC66
331
EBFC
  5
EC27
331
EBC5
  5
EBF0
331
DF46
  5
DF46
331
EC04
  5
EC2F
331
DF4E
  5
DF4E
331
ECF8
  5
ED23
331
EC82
  5
ECAD
331
EC43
  5
EC6E
331
ECB9
  5
ECE4
331
EE1C
  5
EFBE
331
ED00
  5
ED2B
331
ECC1
  5
ECEC
331
EC4B
  5
EC76
331
EC8A
  5
ECB5
331
ED37
  5
ED62
331
ED76
  5
EDA1
331
EDAD
  5
EDD8
331
ED08
  5
ED33
331
ECC9
  5
ECF4
331
EC92
  5
ECBD
331
EC53
  5
EC7E
331
ED3F
  5
ED6A
331
EDB5
  5
EDE0
331
ED10
  5
ED3B
331
ECD1
  5
ECFC
331
EC5B
  5
EC86
331
EC9A
  5
ECC5
331
ED47
  5
ED72
331
ED86
  5
EDB1
331
EDBD
  5
EDE8
331
B6A2
  5
B6B1
331
EC0C
  5
EC37
331
EBCD
  5
EBF8
331
DCAF
  5
DCCC
331
EDF5
  5
EE20
331
ED4F
  5
ED7A
331
ED8E
  5
EDB9
331
EFBC
  5
EBC0
331
B6AA
  5
B6C1
331
EC14
  5
EC3F
331
EBD5
  5
EC00
331
DF66
  5
DF66
331
B6B2
  5
BDD0
331
EC1C
  5
EC47
331
EBDD
  5
EC08
331
EC24
  5
EC4F
331
ED18
  5
ED43
331
ECD9
  5
ED04
331
EC63
  5
EC8E
331
ECA2
  5
ECCD
331
EDFD
  5
EE28
331
ED20
  5
ED4B
331
ECE1
  5
ED0C
331
ECAA
  5
ECD5
331
EC6B
  5
EC96
331
ED57
  5
ED82
331
ED96
  5
EDC1
331
ED28
  5
ED53
331
ECE9
  5
ED14
331
ECB2
  5
ECDD
331
EC73
  5
EC9E
331
ED5F
  5
ED8A
331
ED9E
  5
EDC9
331
EE05
  5
EE33
331
EDA6
  5
EDD1
331
ECF1
  5
ED1C
331
EC7B
  5
ECA6
331
ED67
  5
ED92
331
EE0D
  5
EE3F
331
ED6F
  5
ED9A
331
EE15
  5
EFB7
331
EC2C
  5
EC57
331
EC34
  5
EC5F
331
EBF5
  5
EC20
331
EBBE
  5
EBE9
331
EC3C
  5
EC67
331
EBFD
  5
EC28
331
EBC6
  5
EBF1
331
DF47
  5
DF47
331
EC05
  5
EC30
331
DF4F
  5
DF4F
331
ECF9
  5
ED24
331
EC83
  5
ECAE
331
EC44
  5
EC6F
331
ECBA
  5
ECE5
331
ED30
  5
ED5B
331
ED01
  5
ED2C
331
ECC2
  5
ECED
331
EC4C
  5
EC77
331
EC8B
  5
ECB6
331
ED38
  5
ED63
331
ED77
  5
EDA2
331
EDAE
  5
EDD9
331
EE1D
  5
EFBF
331
ED09
  5
ED34
331
ECCA
  5
ECF5
331
EC93
  5
ECBE
331
EC54
  5
EC7F
331
ED40
  5
ED6B
331
EDB6
  5
EDE1
331
ED87
  5
EDB2
331
EC5C
  5
EC87
331
EC9B
  5
ECC6
331
ECD2
  5
ECFD
331
ED11
  5
ED3C
331
ED48
  5
ED73
331
EDBE
  5
EDE9
331
B6A3
  5
B6B2
331
EC0D
  5
EC38
331
EBCE
  5
EBF9
331
EFBD
  5
EBC1
331
EDF6
  5
EE21
331
ED8F
  5
EDBA
331
DCB0
  5
DCCD
331
EC15
  5
EC40
331
EBD6
  5
EC01
331
DF67
  5
DF67
331
EC1D
  5
EC48
331
EBDE
  5
EC09
331
EC25
  5
EC50
331
EBE6
  5
EC11
331
EC64
  5
EC8F
331
ECA3
  5
ECCE
331
ECDA
  5
ED05
331
ED19
  5
ED44
331
ED50
  5
ED7B
331
EDFE
  5
EE29
331
EC6C
  5
EC97
331
ECAB
  5
ECD6
331
ECE2
  5
ED0D
331
ED21
  5
ED4C
331
ED58
  5
ED83
331
ED97
  5
EDC2
331
EE06
  5
EE34
331
ED29
  5
ED54
331
ECB3
  5
ECDE
331
EC74
  5
EC9F
331
ECEA
  5
ED15
331
ED60
  5
ED8B
331
ED9F
  5
EDCA
331
EE0E
  5
EFB0
331
EDA7
  5
EDD2
331
EC7C
  5
ECA7
331
ECF2
  5
ED1D
331
ED68
  5
ED93
331
DF08
  5
DF08
331
EC2D
  5
EC58
331
EE16
  5
EFB8
331
EBB7
  5
EBE2
331
EC35
  5
EC60
331
EBF6
  5
EC21
331
EBBF
  5
EBEA
331
EBFE
  5
EC29
331
EC3D
  5
EC68
331
EC06
  5
EC31
331
EC45
  5
EC70
331
EC84
  5
ECAF
331
ECBB
  5
ECE6
331
ECFA
  5
ED25
331
ED31
  5
ED5C
331
ED70
  5
ED9B
331
EE1E
  5
EFC0
331
EC4D
  5
EC78
331
EC8C
  5
ECB7
331
ECC3
  5
ECEE
331
ED02
  5
ED2D
331
ED39
  5
ED64
331
ED78
  5
EDA3
331
EDAF
  5
EDDA
331
EC55
  5
EC80
331
EC94
  5
ECBF
331
ECCB
  5
ECF6
331
ED0A
  5
ED35
331
ED41
  5
ED6C
331
EDB7
  5
EDE2
331
EC5D
  5
EC88
331
EC9C
  5
ECC7
331
ECD3
  5
ECFE
331
ED12
  5
ED3D
331
ED49
  5
ED74
331
ED88
  5
EDB3
331
EDBF
  5
EDEA
331
B6A4
  5
B6B9
331
EC0E
  5
EC39
331
DCB1
  5
DCD5
331
EDF7
  5
EE22
331
B6AC
  5
B6C2
331
EC16
  5
EC41
331
DF68
  5
DF68
331
DCB9
  5
DCD6
331
EC1E
  5
EC49
331
EC26
  5
EC51
331
EBE7
  5
EC12
331
EC65
  5
EC90
331
ECA4
  5
ECCF
331
ECDB
  5
ED06
331
ED1A
  5
ED45
331
ED51
  5
ED7C
331
ED90
  5
EDBB
331
EDFF
  5
EE2A
331
EC6D
  5
EC98
331
ECAC
  5
ECD7
331
ECE3
  5
ED0E
331
ED22
  5
ED4D
331
ED59
  5
ED84
331
ED98
  5
EDC3
331
EE07
  5
EE35
331
ED2A
  5
ED55
331
ECB4
  5
ECDF
331
EC75
  5
ECA0
331
ECEB
  5
ED16
331
ED61
  5
ED8C
331
EE0F
  5
EFB1
331
EC7D
  5
ECA8
331
ECF3
  5
ED1E
331
ED69
  5
ED94
331
DF09
  5
DF09
331
EC2E
  5
EC59
331
EBEF
  5
EC1A
331
EBB8
  5
EBE3
331
EC36
  5
EC61
331
EBF7
  5
EC22
331
EBC0
  5
EBEB
331
EBFF
  5
EC2A
331
EC3E
  5
EC69
331
EC07
  5
EC32
331
EC46
  5
EC71
331
EC85
  5
ECB0
331
ECBC
  5
ECE7
331
ECFB
  5
ED26
331
ED32
  5
ED5D
331
ED71
  5
ED9C
331
EDA8
  5
EDD3
331
EE1F
  5
EFC1
331
EC4E
  5
EC79
331
EC8D
  5
ECB8
331
ECC4
  5
ECEF
331
ED03
  5
ED2E
331
ED3A
  5
ED65
331
ED79
  5
EDA4
331
EDB0
  5
EDDB
331
EC56
  5
EC81
331
EC95
  5
ECC0
331
ECCC
  5
ECF7
331
ED0B
  5
ED36
331
ED42
  5
ED6D
331
EDB8
  5
EDE3
331
ED89
  5
EDB4
331
EC5E
  5
EC89
331
EC9D
  5
ECC8
331
ECD4
  5
ECFF
331
ED13
  5
ED3E
331
ED4A
  5
ED75
331
B6A5
  5
B6BA
331
EC0F
  5
EC3A
331
EFBF
  5
EBC3
331
B6AD
  5
B6C4
331
EC17
  5
EC42
331
DF69
  5
DF69
331
DCBA
  5
DCD7
331
EC1F
  5
EC4A
331
EBE0
  5
EC0B
331
EC27
  5
EC52
331
EDF8
  5
EE23
331
EC66
  5
EC91
331
ECA5
  5
ECD0
331
ECDC
  5
ED07
331
ED1B
  5
ED46
331
ED52
  5
ED7D
331
ED91
  5
EDBC
331
EE00
  5
EE2B
331
EC6E
  5
EC99
331
ECAD
  5
ECD8
331
ECE4
  5
ED0F
331
ED23
  5
ED4E
331
ED5A
  5
ED85
331
ED99
  5
EDC4
331
EE08
  5
EE36
331
ED2B
  5
ED56
331
ECB5
  5
ECE0
331
EC76
  5
ECA1
331
ECEC
  5
ED17
331
ED62
  5
ED8D
331
DF0A
  5
DF0A
331
EBE8
  5
EC13
331
EE10
  5
EFB2
331
ED6A
  5
ED95
331
EC7E
  5
ECA9
331
ECF4
  5
ED1F
331
EBB9
  5
EBE4
331
DF1A
  5
DF1A
331
EBF0
  5
EC1B
331
EC2F
  5
EC5A
331
EBC1
  5
EBEC
331
EBF8
  5
EC23
331
EC37
  5
EC62
331
EC3F
  5
EC6A
331
EC00
  5
EC2B
331
EC47
  5
EC72
331
EC86
  5
ECB1
331
ECBD
  5
ECE8
331
ECFC
  5
ED27
331
ED33
  5
ED5E
331
ED72
  5
ED9D
331
EDA9
  5
EDD4
331
EE20
  5
EFC2
331
EC4F
  5
EC7A
331
EC8E
  5
ECB9
331
ECC5
  5
ECF0
331
ED04
  5
ED2F
331
ED3B
  5
ED66
331
ED7A
  5
EDA5
331
EDB1
  5
EDDC
331
EFB0
  5
EBB4
331
EC57
  5
EC82
331
EC96
  5
ECC1
331
ECCD
  5
ECF8
331
ED0C
  5
ED37
331
ED43
  5
ED6E
331
EDB9
  5
EDE4
331
EC08
  5
EC33
331
DF52
  5
DF52
331
B6A6
  5
B6BB
331
EDF1
  5
EE1C
331
ED4B
  5
ED76
331
EC5F
  5
EC8A
331
EC9E
  5
ECC9
331
ECD5
  5
ED00
331
ED14
  5
ED3F
331
ED8A
  5
EDB5
331
EBD1
  5
EBFC
331
B6AE
  5
B6C6
331
EC10
  5
EC3B
331
D844
  5
D845
331
DCBB
  5
DCD8
331
DF6A
  5
DF6A
331
EBD9
  5
EC04
331
EC18
  5
EC43
331
EBE1
  5
EC0C
331
EC20
  5
EC4B
331
EFC0
  5
EBC4
331
EDF9
  5
EE24
331
EC67
  5
EC92
331
ECA6
  5
ECD1
331
ECDD
  5
ED08
331
ED1C
  5
ED47
331
ED53
  5
ED7E
331
ED92
  5
EDBD
331
EC6F
  5
EC9A
331
ECAE
  5
ECD9
331
ECE5
  5
ED10
331
ED24
  5
ED4F
331
ED5B
  5
ED86
331
ED9A
  5
EDC5
331
EE09
  5
EE37
331
ED2C
  5
ED57
331
ECB6
  5
ECE1
331
EC77
  5
ECA2
331
ECED
  5
ED18
331
ED63
  5
ED8E
331
DF0B
  5
DF0B
331
EBE9
  5
EC14
331
EC28
  5
EC53
331
EE11
  5
EFB3
331
EC7F
  5
ECAA
331
ECF5
  5
ED20
331
ED6B
  5
ED96
331
EBF1
  5
EC1C
331
EBBA
  5
EBE5
331
EC30
  5
EC5B
331
EC38
  5
EC63
331
EBC2
  5
EBED
331
EBF9
  5
EC24
331
EC01
  5
EC2C
331
EC40
  5
EC6B
331
EC48
  5
EC73
331
EC87
  5
ECB2
331
ECBE
  5
ECE9
331
ECFD
  5
ED28
331
ED34
  5
ED5F
331
ED73
  5
ED9E
331
EDAA
  5
EDD5
331
EE21
  5
EFC3
331
EC50
  5
EC7B
331
EC8F
  5
ECBA
331
ECC6
  5
ECF1
331
ED05
  5
ED30
331
ED3C
  5
ED67
331
ED7B
  5
EDA6
331
EDB2
  5
EDDD
331
EFB1
  5
EBB5
331
EC58
  5
EC83
331
EC97
  5
ECC2
331
ECCE
  5
ECF9
331
ED0D
  5
ED38
331
ED44
  5
ED6F
331
EDBA
  5
EDE5
331
DF53
  5
DF53
331
B6A7
  5
B6BD
331
EC09
  5
EC34
331
EDF2
  5
EE1D
331
ED15
  5
ED40
331
EC9F
  5
ECCA
331
ECD6
  5
ED01
331
ED4C
  5
ED77
331
ED8B
  5
EDB6
331
EBD2
  5
EBFD
331
EC11
  5
EC3C
331
DCBC
  5
DCDD
331
DF6B
  5
DF6B
331
EBDA
  5
EC05
331
EC19
  5
EC44
331
EC21
  5
EC4C
331
EBE2
  5
EC0D
  0
XRECORD
  5
F8FB
102
{ACAD_REACTORS
330
F8FA
102
}
330
F8FA
100
AcDbXrecord
280
     1
 70
     1
  0
LAYOUT
  5
22
102
{ACAD_XDICTIONARY
360
F8FE
102
}
102
{ACAD_REACTORS
330
1A
102
}
330
1A
100
AcDbPlotSettings
  1

  2
DocuCentre-II C5400
  4
A4
  6
AM_VIEW1
 40
4.857749938964843
 41
4.942390441894531
 42
4.942413330078125
 43
4.857757568359375
 44
209.9733276367187
 45
297.0106506347656
 46
-4.958807910208179
 47
-4.941300664398795
 48
214.3704939521119
 49
367.5855324241176
140
275.6727856380065
141
407.629191407817
142
1.0
143
1.0
 70
  3748
 72
     1
 73
     1
 74
     1
  7
monochrome.ctb
 75
     0
147
0.9532055446079798
148
0.0304669030847435
149
0.0283341126892083
100
AcDbLayout
  1
Model
 70
     1
 71
     0
 10
0.0
 20
0.0
 11
12.0
 21
9.0
 12
0.0
 22
0.0
 32
0.0
 14
0.0
 24
0.0
 34
0.0
 15
0.0
 25
0.0
 35
0.0
146
0.0
 13
0.0
 23
0.0
 33
0.0
 16
1.0
 26
0.0
 36
0.0
 17
0.0
 27
1.0
 37
0.0
 76
     0
330
1F
331
B0EC
1001
ACAD_PSEXT
1000
DocuCentre-II C5400
1000
FX DocuCentre-II C5400
1000
192.168.2.200
1000

1070
     0
  0
LAYOUT
  5
1E
102
{ACAD_XDICTIONARY
360
F8FC
102
}
102
{ACAD_REACTORS
330
1A
102
}
330
1A
100
AcDbPlotSettings
  1

  2
\\ML370\XEROX
  4
A4
  6

 40
3.174999952316284
 41
3.174999952316284
 42
3.175003051757812
 43
3.17498779296875
 44
209.8674926757813
 45
296.6719970703125
 46
0.0
 47
0.0
 48
0.0
 49
0.0
140
0.0
141
0.0
142
1.0
143
1.0
 70
   688
 72
     1
 73
     1
 74
     5
  7
monochrome.ctb
 75
    16
147
1.0
148
0.0
149
0.0
100
AcDbLayout
  1
ﾚｲｱｳﾄ1
 70
     1
 71
     1
 10
-3.17498779296875
 20
-3.174999952316284
 11
293.4970092773438
 21
206.692492723465
 12
0.0
 22
0.0
 32
0.0
 14
1.000000000000000E+20
 24
1.000000000000000E+20
 34
1.000000000000000E+20
 15
-1.000000000000000E+20
 25
-1.000000000000000E+20
 35
-1.000000000000000E+20
146
0.0
 13
0.0
 23
0.0
 33
0.0
 16
1.0
 26
0.0
 36
0.0
 17
0.0
 27
1.0
 37
0.0
 76
     0
330
1B
  0
LAYOUT
  5
26
102
{ACAD_XDICTIONARY
360
F900
102
}
102
{ACAD_REACTORS
330
1A
102
}
330
1A
100
AcDbPlotSettings
  1

  2
\\ML370\XEROX
  4

  6

 40
0.0
 41
0.0
 42
0.0
 43
0.0
 44
0.0
 45
0.0
 46
0.0
 47
0.0
 48
0.0
 49
0.0
140
0.0
141
0.0
142
1.0
143
1.0
 70
   688
 72
     0
 73
     0
 74
     5
  7
monochrome.ctb
 75
    16
147
1.0
148
0.0
149
0.0
100
AcDbLayout
  1
ﾚｲｱｳﾄ2
 70
     1
 71
     2
 10
0.0
 20
0.0
 11
12.0
 21
9.0
 12
0.0
 22
0.0
 32
0.0
 14
0.0
 24
0.0
 34
0.0
 15
0.0
 25
0.0
 35
0.0
146
0.0
 13
0.0
 23
0.0
 33
0.0
 16
1.0
 26
0.0
 36
0.0
 17
0.0
 27
1.0
 37
0.0
 76
     0
330
23
  0
MATERIAL
  5
B0EF
102
{ACAD_XDICTIONARY
360
F906
102
}
102
{ACAD_REACTORS
330
A91C
102
}
330
A91C
100
AcDbMaterial
  1
ByBlock
  0
MATERIAL
  5
B0EE
102
{ACAD_XDICTIONARY
360
F904
102
}
102
{ACAD_REACTORS
330
A91C
102
}
330
A91C
100
AcDbMaterial
  1
ByLayer
  0
MATERIAL
  5
B0F0
102
{ACAD_XDICTIONARY
360
F908
102
}
102
{ACAD_REACTORS
330
A91C
102
}
330
A91C
100
AcDbMaterial
  1
Global
  0
MLINESTYLE
  5
18
102
{ACAD_REACTORS
330
17
102
}
330
17
100
AcDbMlineStyle
  2
STANDARD
 70
     0
  3

 62
   256
 51
90.0
 52
90.0
 71
     2
 49
0.5
 62
   256
  6
BYLAYER
 49
-0.5
 62
   256
  6
BYLAYER
  0
ACDBPLACEHOLDER
  5
F
102
{ACAD_REACTORS
330
E
102
}
330
E
  0
TABLESTYLE
  5
AABA
102
{ACAD_XDICTIONARY
360
F902
102
}
102
{ACAD_REACTORS
330
AAB9
102
}
330
AAB9
100
AcDbTableStyle
  3
Standard
 70
     0
 71
     0
 40
1.5
 41
1.5
280
     0
281
     0
  7
STANDARD
140
4.5
170
     2
 62
     0
 63
     7
283
     0
274
    -2
284
     1
 64
     0
275
    -2
285
     1
 65
     0
276
    -2
286
     1
 66
     0
277
    -2
287
     1
 67
     0
278
    -2
288
     1
 68
     0
279
    -2
289
     1
 69
     0
  7
STANDARD
140
6.0
170
     5
 62
     0
 63
     7
283
     0
274
    -2
284
     1
 64
     0
275
    -2
285
     1
 65
     0
276
    -2
286
     1
 66
     0
277
    -2
287
     1
 67
     0
278
    -2
288
     1
 68
     0
279
    -2
289
     1
 69
     0
  7
STANDARD
140
4.5
170
     5
 62
     0
 63
     7
283
     0
274
    -2
284
     1
 64
     0
275
    -2
285
     1
 65
     0
276
    -2
286
     1
 66
     0
277
    -2
287
     1
 67
     0
278
    -2
288
     1
 68
     0
279
    -2
289
     1
 69
     0
  0
VISUALSTYLE
  5
B0F7
102
{ACAD_REACTORS
330
B0F1
102
}
330
B0F1
100
AcDbVisualStyle
  2
2dWireframe
 70
     4
 71
     0
 72
     2
 73
     0
 90
        0
 40
-0.6
 41
-30.0
 62
     5
 63
     7
 74
     1
 91
        4
 64
     7
 65
   257
 75
     1
175
     1
 42
1.0
 92
        0
 66
   257
 43
1.0
 76
     1
 77
     6
 78
     2
 67
     7
 79
     5
170
     0
171
     0
290
     0
174
     0
 93
        1
 44
0.0
173
     0
291
     0
 45
0.0
1001
ACAD
1000
AcDbSavedByObjectVersion
1070
     0
  0
VISUALSTYLE
  5
B0F9
102
{ACAD_REACTORS
330
B0F1
102
}
330
B0F1
100
AcDbVisualStyle
  2
3D Hidden
 70
     6
 71
     1
 72
     2
 73
     2
 90
        0
 40
-0.6
 41
-30.0
 62
     5
 63
     7
 74
     2
 91
        2
 64
     7
 65
   257
 75
     2
175
     1
 42
40.0
 92
        0
 66
   257
 43
1.0
 76
     1
 77
     6
 78
     2
 67
     7
 79
     3
170
     0
171
     0
290
     0
174
     0
 93
        1
 44
0.0
173
     0
291
     0
 45
0.0
1001
ACAD
1000
AcDbSavedByObjectVersion
1070
     0
  0
VISUALSTYLE
  5
B0F8
102
{ACAD_REACTORS
330
B0F1
102
}
330
B0F1
100
AcDbVisualStyle
  2
3dWireframe
 70
     5
 71
     0
 72
     2
 73
     0
 90
        0
 40
-0.6
 41
-30.0
 62
     5
 63
     7
 74
     1
 91
        4
 64
     7
 65
   257
 75
     1
175
     1
 42
1.0
 92
        0
 66
   257
 43
1.0
 76
     1
 77
     6
 78
     2
 67
     7
 79
     5
170
     0
171
     0
290
     0
174
     0
 93
        1
 44
0.0
173
     0
291
     0
 45
0.0
1001
ACAD
1000
AcDbSavedByObjectVersion
1070
     0
  0
VISUALSTYLE
  5
B0F6
102
{ACAD_REACTORS
330
B0F1
102
}
330
B0F1
100
AcDbVisualStyle
  2
Basic
 70
     7
 71
     1
 72
     0
 73
     1
 90
        0
 40
-0.6
 41
-30.0
 62
     5
 63
     7
 74
     0
 91
        4
 64
     7
 65
   257
 75
     1
175
     1
 42
1.0
 92
        8
 66
     7
 43
1.0
 76
     1
 77
     6
 78
     2
 67
     7
 79
     5
170
     0
171
     0
290
     0
174
     0
 93
        1
 44
0.0
173
     0
291
     1
 45
0.0
1001
ACAD
1000
AcDbSavedByObjectVersion
1070
     0
  0
VISUALSTYLE
  5
B0FD
102
{ACAD_REACTORS
330
B0F1
102
}
330
B0F1
100
AcDbVisualStyle
  2
Brighten
 70
    12
 71
     2
 72
     2
 73
     0
 90
        0
 40
-0.6
 41
-30.0
 62
     5
 63
     7
 74
     1
 91
        4
 64
     7
 65
   257
 75
     1
175
     1
 42
1.0
 92
        8
 66
     7
 43
1.0
 76
     1
 77
     6
 78
     2
 67
     7
 79
     5
170
     0
171
     0
290
     0
174
     0
 93
        1
 44
50.0
173
     0
291
     1
 45
0.0
1001
ACAD
1000
AcDbSavedByObjectVersion
1070
     0
  0
VISUALSTYLE
  5
B101
102
{ACAD_REACTORS
330
B0F1
102
}
330
B0F1
100
AcDbVisualStyle
  2
ColorChange
 70
    16
 71
     2
 72
     2
 73
     3
 90
        0
 40
-0.6
 41
-30.0
 62
     5
 63
     8
 74
     1
 91
        4
 64
     7
 65
   257
 75
     1
175
     1
 42
1.0
 92
        8
 66
     8
 43
1.0
 76
     1
 77
     6
 78
     2
 67
     7
 79
     5
170
     0
171
     0
290
     0
174
     0
 93
        1
 44
0.0
173
     0
291
     1
 45
0.0
1001
ACAD
1000
AcDbSavedByObjectVersion
1070
     0
  0
VISUALSTYLE
  5
B0FA
102
{ACAD_REACTORS
330
B0F1
102
}
330
B0F1
100
AcDbVisualStyle
  2
Conceptual
 70
     9
 71
     3
 72
     2
 73
     0
 90
        0
 40
-0.6
 41
-30.0
 62
     5
 63
     7
 74
     2
 91
        2
 64
     7
 65
   257
 75
     1
175
     1
 42
40.0
 92
        8
 66
     7
 43
1.0
 76
     1
 77
     6
 78
     2
 67
     7
 79
     3
170
     0
171
     0
290
     0
174
     0
 93
        1
 44
0.0
173
     0
291
     0
 45
0.0
1001
ACAD
1000
AcDbSavedByObjectVersion
1070
     0
  0
VISUALSTYLE
  5
B0FC
102
{ACAD_REACTORS
330
B0F1
102
}
330
B0F1
100
AcDbVisualStyle
  2
Dim
 70
    11
 71
     2
 72
     2
 73
     0
 90
        0
 40
-0.6
 41
-30.0
 62
     5
 63
     7
 74
     1
 91
        4
 64
     7
 65
   257
 75
     1
175
     1
 42
1.0
 92
        8
 66
     7
 43
1.0
 76
     1
 77
     6
 78
     2
 67
     7
 79
     5
170
     0
171
     0
290
     0
174
     0
 93
        1
 44
-50.0
173
     0
291
     1
 45
0.0
1001
ACAD
1000
AcDbSavedByObjectVersion
1070
     0
  0
VISUALSTYLE
  5
B100
102
{ACAD_REACTORS
330
B0F1
102
}
330
B0F1
100
AcDbVisualStyle
  2
Facepattern
 70
    15
 71
     2
 72
     2
 73
     0
 90
        0
 40
-0.6
 41
-30.0
 62
     5
 63
     7
 74
     1
 91
        4
 64
     7
 65
   257
 75
     1
175
     1
 42
1.0
 92
        8
 66
     7
 43
1.0
 76
     1
 77
     6
 78
     2
 67
     7
 79
     5
170
     0
171
     0
290
     0
174
     0
 93
        1
 44
0.0
173
     0
291
     1
 45
0.0
1001
ACAD
1000
AcDbSavedByObjectVersion
1070
     0
  0
VISUALSTYLE
  5
B0F2
102
{ACAD_REACTORS
330
B0F1
102
}
330
B0F1
100
AcDbVisualStyle
  2
Flat
 70
     0
 71
     2
 72
     1
 73
     1
 90
        2
 40
-0.6
 41
30.0
 62
     5
 63
     7
 74
     0
 91
        4
 64
     7
 65
   257
 75
     1
175
     1
 42
1.0
 92
        8
 66
     7
 43
1.0
 76
     1
 77
     6
 78
     2
 67
     7
 79
     5
170
     0
171
     0
290
     0
174
     0
 93
       13
 44
0.0
173
     0
291
     1
 45
0.0
1001
ACAD
1000
AcDbSavedByObjectVersion
1070
     0
  0
VISUALSTYLE
  5
B0F3
102
{ACAD_REACTORS
330
B0F1
102
}
330
B0F1
100
AcDbVisualStyle
  2
FlatWithEdges
 70
     1
 71
     2
 72
     1
 73
     1
 90
        2
 40
-0.6
 41
30.0
 62
     5
 63
     7
 74
     1
 91
        4
 64
     7
 65
   257
 75
     1
175
     1
 42
1.0
 92
        0
 66
   257
 43
1.0
 76
     1
 77
     6
 78
     2
 67
     7
 79
     5
170
     0
171
     0
290
     0
174
     0
 93
       13
 44
0.0
173
     0
291
     1
 45
0.0
1001
ACAD
1000
AcDbSavedByObjectVersion
1070
     0
  0
VISUALSTYLE
  5
B0F4
102
{ACAD_REACTORS
330
B0F1
102
}
330
B0F1
100
AcDbVisualStyle
  2
Gouraud
 70
     2
 71
     2
 72
     2
 73
     1
 90
        2
 40
-0.6
 41
30.0
 62
     5
 63
     7
 74
     0
 91
        4
 64
     7
 65
   257
 75
     1
175
     1
 42
1.0
 92
        0
 66
     7
 43
1.0
 76
     1
 77
     6
 78
     2
 67
     7
 79
     5
170
     0
171
     0
290
     0
174
     0
 93
       13
 44
0.0
173
     0
291
     1
 45
0.0
1001
ACAD
1000
AcDbSavedByObjectVersion
1070
     0
  0
VISUALSTYLE
  5
B0F5
102
{ACAD_REACTORS
330
B0F1
102
}
330
B0F1
100
AcDbVisualStyle
  2
GouraudWithEdges
 70
     3
 71
     2
 72
     2
 73
     1
 90
        2
 40
-0.6
 41
30.0
 62
     5
 63
     7
 74
     1
 91
        4
 64
     7
 65
   257
 75
     1
175
     1
 42
1.0
 92
        0
 66
   257
 43
1.0
 76
     1
 77
     6
 78
     2
 67
     7
 79
     5
170
     0
171
     0
290
     0
174
     0
 93
       13
 44
0.0
173
     0
291
     1
 45
0.0
1001
ACAD
1000
AcDbSavedByObjectVersion
1070
     0
  0
VISUALSTYLE
  5
B0FF
102
{ACAD_REACTORS
330
B0F1
102
}
330
B0F1
100
AcDbVisualStyle
  2
Linepattern
 70
    14
 71
     2
 72
     2
 73
     0
 90
        0
 40
-0.6
 41
-30.0
 62
     5
 63
     7
 74
     1
 91
        4
 64
     7
 65
   257
 75
     7
175
     7
 42
1.0
 92
        8
 66
     7
 43
1.0
 76
     1
 77
     6
 78
     2
 67
     7
 79
     5
170
     0
171
     0
290
     0
174
     0
 93
        1
 44
0.0
173
     0
291
     1
 45
0.0
1001
ACAD
1000
AcDbSavedByObjectVersion
1070
     0
  0
VISUALSTYLE
  5
B0FB
102
{ACAD_REACTORS
330
B0F1
102
}
330
B0F1
100
AcDbVisualStyle
  2
Realistic
 70
     8
 71
     2
 72
     2
 73
     0
 90
        0
 40
-0.6
 41
-30.0
 62
     5
 63
     7
 74
     1
 91
        0
 64
     7
 65
   257
 75
     1
175
     1
 42
1.0
 92
        8
 66
     8
 43
1.0
 76
     1
 77
     6
 78
     2
 67
     7
 79
     5
170
     0
171
     0
290
     0
174
     0
 93
       13
 44
0.0
173
     0
291
     0
 45
0.0
1001
ACAD
1000
AcDbSavedByObjectVersion
1070
     0
  0
VISUALSTYLE
  5
B0FE
102
{ACAD_REACTORS
330
B0F1
102
}
330
B0F1
100
AcDbVisualStyle
  2
Thicken
 70
    13
 71
     2
 72
     2
 73
     0
 90
        0
 40
-0.6
 41
-30.0
 62
     5
 63
     7
 74
     1
 91
        4
 64
     7
 65
   257
 75
     1
175
     1
 42
1.0
 92
       12
 66
     7
 43
1.0
 76
     1
 77
     6
 78
     2
 67
     7
 79
     5
170
     0
171
     0
290
     0
174
     0
 93
        1
 44
0.0
173
     0
291
     1
 45
0.0
1001
ACAD
1000
AcDbSavedByObjectVersion
1070
     0
  0
DICTIONARYVAR
  5
AAF3
102
{ACAD_REACTORS
330
34
102
}
330
34
100
DictionaryVariables
280
     0
  1
STANDARD
  0
DICTIONARYVAR
  5
A10C
102
{ACAD_REACTORS
330
34
102
}
330
34
100
DictionaryVariables
280
     0
  1
1
  0
DICTIONARYVAR
  5
AB07
102
{ACAD_REACTORS
330
34
102
}
330
34
100
DictionaryVariables
280
     0
  1
4
  0
DICTIONARYVAR
  5
35
102
{ACAD_REACTORS
330
34
102
}
330
34
100
DictionaryVariables
280
     0
  1
0
  0
DICTIONARYVAR
  5
194C
102
{ACAD_REACTORS
330
34
102
}
330
34
100
DictionaryVariables
280
     0
  1
127
  0
DICTIONARY
  5
7E8
102
{ACAD_REACTORS
330
47
102
}
330
47
100
AcDbDictionary
281
     1
  0
DICTIONARY
  5
4C
102
{ACAD_REACTORS
330
47
102
}
330
47
100
AcDbDictionary
281
     1
  0
XRECORD
  5
A929
102
{ACAD_REACTORS
330
47
102
}
330
47
100
AcDbXrecord
280
     1
 90
-1023410169
  0
XRECORD
  5
CFB8
102
{ACAD_REACTORS
330
CFB7
102
}
330
CFB7
100
AcDbXrecord
280
     1
330
F7DE
330
F7DF
330
F7E7
330
F7E8
330
F7F0
330
F7F1
330
F893
330
F894
330
F88A
330
F88B
330
F860
330
F861
330
F86B
330
F86C
330
F881
330
F882
330
F82A
330
F82B
330
F833
330
F834
330
F83A
330
F83B
330
F857
330
F858
330
F850
330
F851
  0
XRECORD
  5
3FB7
102
{ACAD_REACTORS
330
3F96
102
}
330
3F96
100
AcDbXrecord
280
     1
 91
        3
330
0
 90
        8
 62
     7
370
    40
331
16
  1
Color_7
330
0
 90
        0
 62
    14
370
    -3
331
16
  1
Color_14
330
0
 90
        8
 62
     7
370
    20
331
16
  1
Color_7
330
6D1
 90
        0
 62
     7
370
    -3
331
16
  1
Color_7
330
0
 90
        8
 62
     7
370
    50
331
16
  1
Color_7
330
0
 90
        8
 62
     2
370
    35
331
16
  1
Color_2
330
0
 90
        8
 62
     7
370
    -3
331
16
  1
Color_7
330
10
 90
        8
 62
     7
370
    -3
331
16
  1
Color_7
  0
DICTIONARY
  5
F8FE
330
22
100
AcDbDictionary
280
     1
281
     1
  3
ACAD_XREC_ROUNDTRIP
360
F8FF
  0
DICTIONARY
  5
F8FC
330
1E
100
AcDbDictionary
280
     1
281
     1
  3
ACAD_XREC_ROUNDTRIP
360
F8FD
  0
DICTIONARY
  5
F900
330
26
100
AcDbDictionary
280
     1
281
     1
  3
ACAD_XREC_ROUNDTRIP
360
F901
  0
DICTIONARY
  5
F906
330
B0EF
100
AcDbDictionary
280
     1
281
     1
  3
ACAD_XREC_ROUNDTRIP
360
F907
  0
DICTIONARY
  5
F904
330
B0EE
100
AcDbDictionary
280
     1
281
     1
  3
ACAD_XREC_ROUNDTRIP
360
F905
  0
DICTIONARY
  5
F908
330
B0F0
100
AcDbDictionary
280
     1
281
     1
  3
ACAD_XREC_ROUNDTRIP
360
F909
  0
DICTIONARY
  5
F902
330
AABA
100
AcDbDictionary
280
     1
281
     1
  3
ACAD_XREC_ROUNDTRIP
360
F903
  0
XRECORD
  5
F8FF
102
{ACAD_REACTORS
330
F8FE
102
}
330
F8FE
100
AcDbXrecord
280
     1
102
SHADEPLOT
 70
     0
102
SHADEPLOTRESLEVEL
 70
     2
102
SHADEPLOTCUSTOMDPI
 70
   200
  0
XRECORD
  5
F8FD
102
{ACAD_REACTORS
330
F8FC
102
}
330
F8FC
100
AcDbXrecord
280
     1
102
SHADEPLOT
 70
     0
102
SHADEPLOTRESLEVEL
 70
     2
102
SHADEPLOTCUSTOMDPI
 70
   300
  0
XRECORD
  5
F901
102
{ACAD_REACTORS
330
F900
102
}
330
F900
100
AcDbXrecord
280
     1
102
SHADEPLOT
 70
     0
102
SHADEPLOTRESLEVEL
 70
     2
102
SHADEPLOTCUSTOMDPI
 70
   300
  0
XRECORD
  5
F907
102
{ACAD_REACTORS
330
F906
102
}
330
F906
100
AcDbXrecord
280
     1
102
MATERIAL
148
0.0
149
0.0
149
0.0
 93
        0
 94
       63
282
     0
 72
     1
 77
     1
171
     1
175
     1
179
     1
273
     0
  0
XRECORD
  5
F905
102
{ACAD_REACTORS
330
F904
102
}
330
F904
100
AcDbXrecord
280
     1
102
MATERIAL
148
0.0
149
0.0
149
0.0
 93
        0
 94
       63
282
     0
 72
     1
 77
     1
171
     1
175
     1
179
     1
273
     0
  0
XRECORD
  5
F909
102
{ACAD_REACTORS
330
F908
102
}
330
F908
100
AcDbXrecord
280
     1
102
MATERIAL
148
0.0
149
0.0
149
0.0
 93
        0
 94
       63
282
     0
 72
     1
 77
     1
171
     1
175
     1
179
     1
273
     0
  0
XRECORD
  5
F903
102
{ACAD_REACTORS
330
F902
102
}
330
F902
100
AcDbXrecord
280
     1
102
ACAD_ROUNDTRIP_PRE2007_TABLESTYLE
 90
        4
 91
        0
  1

 92
        4
 93
        0
  2

 94
        4
 95
        0
  3

  0
ENDSEC
  0
EOF
