  0
SECTION
  2
HEADER
  9
$ACADVER
  1
AC1015
  9
$ACADMAINTVER
 70
    20
  9
$DWGCODEPAGE
  3
ANSI_932
  9
$INSBASE
 10
0.0
 20
0.0
 30
0.0
  9
$EXTMIN
 10
-0.0032630255300319
 20
-0.014358407693976
 30
-0.0000000000000053
  9
$EXTMAX
 10
297.0234452577688
 20
210.0184541309303
 30
0.0000000000000099
  9
$LIMMIN
 10
0.0000002820350623
 20
0.0000000504797413
  9
$LIMMAX
 10
420.000000282035
 20
297.0000000504797
  9
$ORTHOMODE
 70
     0
  9
$REGENMODE
 70
     1
  9
$FILLMODE
 70
     1
  9
$QTEXTMODE
 70
     0
  9
$MIRRTEXT
 70
     0
  9
$LTSCALE
 40
1.0
  9
$ATTMODE
 70
     1
  9
$TEXTSIZE
 40
3.2
  9
$TRACEWID
 40
1.0
  9
$TEXTSTYLE
  7
STANDARD
  9
$CLAYER
  8
AM_0
  9
$CELTYPE
  6
ByLayer
  9
$CECOLOR
 62
   256
  9
$CELTSCALE
 40
1.0
  9
$DISPSILH
 70
     0
  9
$DIMSCALE
 40
1.0
  9
$DIMASZ
 40
1.0
  9
$DIMEXO
 40
1.0
  9
$DIMDLI
 40
10.0
  9
$DIMRND
 40
0.0
  9
$DIMDLE
 40
0.0
  9
$DIMEXE
 40
1.0
  9
$DIMTP
 40
0.1
  9
$DIMTM
 40
0.1
  9
$DIMTXT
 40
3.5
  9
$DIMCEN
 40
0.0
  9
$DIMTSZ
 40
0.0
  9
$DIMTOL
 70
     0
  9
$DIMLIM
 70
     0
  9
$DIMTIH
 70
     0
  9
$DIMTOH
 70
     0
  9
$DIMSE1
 70
     0
  9
$DIMSE2
 70
     0
  9
$DIMTAD
 70
     1
  9
$DIMZIN
 70
     8
  9
$DIMBLK
  1

  9
$DIMASO
 70
     1
  9
$DIMSHO
 70
     1
  9
$DIMPOST
  1

  9
$DIMAPOST
  1
"
  9
$DIMALT
 70
     0
  9
$DIMALTD
 70
     2
  9
$DIMALTF
 40
0.0393701
  9
$DIMLFAC
 40
1.0
  9
$DIMTOFL
 70
     1
  9
$DIMTVP
 40
0.0
  9
$DIMTIX
 70
     0
  9
$DIMSOXD
 70
     0
  9
$DIMSAH
 70
     0
  9
$DIMBLK1
  1

  9
$DIMBLK2
  1

  9
$DIMSTYLE
  2
SYS
  9
$DIMCLRD
 70
   256
  9
$DIMCLRE
 70
   256
  9
$DIMCLRT
 70
     7
  9
$DIMTFAC
 40
0.71
  9
$DIMGAP
 40
1.5
  9
$DIMJUST
 70
     0
  9
$DIMSD1
 70
     0
  9
$DIMSD2
 70
     0
  9
$DIMTOLJ
 70
     0
  9
$DIMTZIN
 70
     8
  9
$DIMALTZ
 70
     0
  9
$DIMALTTZ
 70
     0
  9
$DIMUPT
 70
     0
  9
$DIMDEC
 70
     2
  9
$DIMTDEC
 70
     2
  9
$DIMALTU
 70
     2
  9
$DIMALTTD
 70
     2
  9
$DIMTXSTY
  7
STANDARD
  9
$DIMAUNIT
 70
     0
  9
$DIMADEC
 70
     0
  9
$DIMALTRND
 40
0.0
  9
$DIMAZIN
 70
     2
  9
$DIMDSEP
 70
    46
  9
$DIMATFIT
 70
     3
  9
$DIMFRAC
 70
     0
  9
$DIMLDRBLK
  1

  9
$DIMLUNIT
 70
     2
  9
$DIMLWD
 70
    -1
  9
$DIMLWE
 70
    -1
  9
$DIMTMOVE
 70
     0
  9
$LUNITS
 70
     2
  9
$LUPREC
 70
     2
  9
$SKETCHINC
 40
1.0
  9
$FILLETRAD
 40
0.0
  9
$AUNITS
 70
     0
  9
$AUPREC
 70
     0
  9
$MENU
  1
.
  9
$ELEVATION
 40
0.0
  9
$PELEVATION
 40
0.0
  9
$THICKNESS
 40
0.0
  9
$LIMCHECK
 70
     0
  9
$CHAMFERA
 40
0.0
  9
$CHAMFERB
 40
0.0
  9
$CHAMFERC
 40
20.0
  9
$CHAMFERD
 40
0.0
  9
$SKPOLY
 70
     0
  9
$TDCREATE
 40
2456139.798878935
  9
$TDUCREATE
 40
2456139.423878935
  9
$TDUPDATE
 40
2456267.607148796
  9
$TDUUPDATE
 40
2456267.232148796
  9
$TDINDWG
 40
0.1688638657
  9
$TDUSRTIMER
 40
0.1688636921
  9
$USRTIMER
 70
     1
  9
$ANGBASE
 50
0.0
  9
$ANGDIR
 70
     0
  9
$PDMODE
 70
     0
  9
$PDSIZE
 40
-3.0
  9
$PLINEWID
 40
0.0
  9
$SPLFRAME
 70
     0
  9
$SPLINETYPE
 70
     6
  9
$SPLINESEGS
 70
     8
  9
$HANDSEED
  5
E7A9
  9
$SURFTAB1
 70
     6
  9
$SURFTAB2
 70
     6
  9
$SURFTYPE
 70
     6
  9
$SURFU
 70
     6
  9
$SURFV
 70
     6
  9
$UCSBASE
  2

  9
$UCSNAME
  2

  9
$UCSORG
 10
0.0
 20
0.0
 30
0.0
  9
$UCSXDIR
 10
1.0
 20
0.0
 30
0.0
  9
$UCSYDIR
 10
0.0
 20
1.0
 30
0.0
  9
$UCSORTHOREF
  2

  9
$UCSORTHOVIEW
 70
     0
  9
$UCSORGTOP
 10
0.0
 20
0.0
 30
0.0
  9
$UCSORGBOTTOM
 10
0.0
 20
0.0
 30
0.0
  9
$UCSORGLEFT
 10
0.0
 20
0.0
 30
0.0
  9
$UCSORGRIGHT
 10
0.0
 20
0.0
 30
0.0
  9
$UCSORGFRONT
 10
0.0
 20
0.0
 30
0.0
  9
$UCSORGBACK
 10
0.0
 20
0.0
 30
0.0
  9
$PUCSBASE
  2

  9
$PUCSNAME
  2

  9
$PUCSORG
 10
0.0
 20
0.0
 30
0.0
  9
$PUCSXDIR
 10
1.0
 20
0.0
 30
0.0
  9
$PUCSYDIR
 10
0.0
 20
1.0
 30
0.0
  9
$PUCSORTHOREF
  2

  9
$PUCSORTHOVIEW
 70
     0
  9
$PUCSORGTOP
 10
0.0
 20
0.0
 30
0.0
  9
$PUCSORGBOTTOM
 10
0.0
 20
0.0
 30
0.0
  9
$PUCSORGLEFT
 10
0.0
 20
0.0
 30
0.0
  9
$PUCSORGRIGHT
 10
0.0
 20
0.0
 30
0.0
  9
$PUCSORGFRONT
 10
0.0
 20
0.0
 30
0.0
  9
$PUCSORGBACK
 10
0.0
 20
0.0
 30
0.0
  9
$USERI1
 70
     0
  9
$USERI2
 70
     0
  9
$USERI3
 70
     0
  9
$USERI4
 70
     0
  9
$USERI5
 70
     0
  9
$USERR1
 40
0.0
  9
$USERR2
 40
0.0
  9
$USERR3
 40
0.0
  9
$USERR4
 40
0.0
  9
$USERR5
 40
0.0
  9
$WORLDVIEW
 70
     1
  9
$SHADEDGE
 70
     3
  9
$SHADEDIF
 70
    70
  9
$TILEMODE
 70
     1
  9
$MAXACTVP
 70
    64
  9
$PINSBASE
 10
0.0
 20
0.0
 30
0.0
  9
$PLIMCHECK
 70
     0
  9
$PEXTMIN
 10
1.000000000000000E+20
 20
1.000000000000000E+20
 30
1.000000000000000E+20
  9
$PEXTMAX
 10
-1.000000000000000E+20
 20
-1.000000000000000E+20
 30
-1.000000000000000E+20
  9
$PLIMMIN
 10
-3.17498779296875
 20
-3.174999952316284
  9
$PLIMMAX
 10
293.4970092773438
 20
206.692492723465
  9
$UNITMODE
 70
     0
  9
$VISRETAIN
 70
     1
  9
$PLINEGEN
 70
     0
  9
$PSLTSCALE
 70
     1
  9
$TREEDEPTH
 70
  3020
  9
$CMLSTYLE
  2
Standard
  9
$CMLJUST
 70
     0
  9
$CMLSCALE
 40
20.0
  9
$PROXYGRAPHICS
 70
     1
  9
$MEASUREMENT
 70
     1
  9
$CELWEIGHT
370
    -1
  9
$ENDCAPS
280
     0
  9
$JOINSTYLE
280
     0
  9
$LWDISPLAY
290
     1
  9
$INSUNITS
 70
     4
  9
$HYPERLINKBASE
  1

  9
$STYLESHEET
  1
monochrome.ctb
  9
$XEDIT
290
     1
  9
$CEPSNTYPE
380
     0
  9
$PSTYLEMODE
290
     1
  9
$FINGERPRINTGUID
  2
{4DF3B1F6-3F13-4469-8453-5E0FD6DA0DB8}
  9
$VERSIONGUID
  2
{BE6035E8-1DDB-4FA7-AFDE-702B192E4B42}
  9
$EXTNAMES
290
     1
  9
$PSVPSCALE
 40
0.0
  9
$OLESTARTUP
290
     0
  0
ENDSEC
  0
SECTION
  2
CLASSES
  0
CLASS
  1
ACDBDICTIONARYWDFLT
  2
AcDbDictionaryWithDefault
  3
ObjectDBX Classes
 90
        0
280
     0
281
     0
  0
CLASS
  1
ACDBPLACEHOLDER
  2
AcDbPlaceHolder
  3
ObjectDBX Classes
 90
        0
280
     0
281
     0
  0
CLASS
  1
LAYOUT
  2
AcDbLayout
  3
ObjectDBX Classes
 90
        0
280
     0
281
     0
  0
CLASS
  1
AMGSETTINGSOBJ
  2
AmgSettingsObj
  3
"AcadM|Product Description: AutoCAD Mechanical|Company: Autodesk"
 90
        0
280
     0
281
     0
  0
CLASS
  1
ACME_DOCUMENT
  2
AcMeDbDoc
  3
AcMeServices
 90
        0
280
     0
281
     0
  0
CLASS
  1
ACMESCOPE
  2
AcMeScope
  3
AcMeServices
 90
        0
280
     0
281
     0
  0
CLASS
  1
ACMECOMMANDHISTORY
  2
AcMeCommandHistory
  3
AcMeServices
 90
        0
280
     0
281
     0
  0
CLASS
  1
DICTIONARYVAR
  2
AcDbDictionaryVar
  3
ObjectDBX Classes
 90
        0
280
     0
281
     0
  0
CLASS
  1
ACIMSYSVARMAN
  2
AcImSysVarManager
  3
AcMeServices
 90
        0
280
     0
281
     0
  0
CLASS
  1
ACIMREALSYSVAR
  2
AcImRealSysVar
  3
AcMeServices
 90
        0
280
     0
281
     0
  0
CLASS
  1
ACIMINTSYSVAR
  2
AcImIntSysVar
  3
AcMeServices
 90
        0
280
     0
281
     0
  0
CLASS
  1
ACMEDRAWINGMAN
  2
AcMeDrawingMan
  3
AcMeServices
 90
        0
280
     0
281
     0
  0
CLASS
  1
ACMEVIEW
  2
AcMeView
  3
AcMeServices
 90
        0
280
     0
281
     0
  0
CLASS
  1
ACDBENTITYCACHE
  2
AcMeEntityCache
  3
AcMeServices
 90
        0
280
     0
281
     0
  0
CLASS
  1
GSMANAGER
  2
AcMeGSManager
  3
AcMeServices
 90
        0
280
     0
281
     0
  0
CLASS
  1
AMDTINTERNALREACTOR
  2
AmdtInternalReactor
  3
AcMeServices
 90
        0
280
     0
281
     0
  0
CLASS
  1
ACMESTATEMGR
  2
AcMeStateMgr
  3
AcMeServices
 90
        0
280
     0
281
     0
  0
CLASS
  1
ACGREFMASTER
  2
AcGrefMaster
  3
AcAttribServices
 90
        0
280
     0
281
     0
  0
CLASS
  1
ACME_DATABASE
  2
AcMeDbDatabase
  3
AcMeServices
 90
        0
280
     0
281
     0
  0
CLASS
  1
ACRFINSADJUSTERMGR
  2
AcRfInsAdjusterMgr
  3
AcMeServices
 90
        0
280
     0
281
     0
  0
CLASS
  1
ACGREFACADMASTER
  2
AcGrefacadMaster
  3
AcGrefServices
 90
        0
280
     0
281
     0
  0
CLASS
  1
AMIMASTER
  2
AmiMaster
  3
AmiServices
 90
        0
280
     0
281
     0
  0
CLASS
  1
ACMDATADICTIONARY
  2
AcmDataDictionary
  3
"AcmSymBB|Product Description: AutoCAD Mechanical|Company: Autodesk"
 90
        0
280
     0
281
     0
  0
CLASS
  1
ACMDATAENTRYBLOCK
  2
AcmDataEntryBlock
  3
"AcmSymBB|Product Description: AutoCAD Mechanical|Company: Autodesk"
 90
        0
280
     0
281
     0
  0
CLASS
  1
ACIMSTRSYSVAR
  2
AcImStrSysVar
  3
AcMeServices
 90
        0
280
     0
281
     0
  0
CLASS
  1
ACMSTANDARDISO
  2
AcmStandardISO
  3
"Amdt_StdImp|Product Description: AutoCAD Mechanical|Company: Autodesk"
 90
        0
280
     0
281
     0
  0
CLASS
  1
AMGOBJPROPCFG
  2
AmgObjPropCfg
  3
"AmgLay|Product Description: AutoCAD Mechanical|Company: Autodesk"
 90
        1
280
     0
281
     0
  0
CLASS
  1
AMDTEDGESTANDARDISO
  2
AmdtEdgeStdISO
  3
"Amdt_StdImp|Product Description: AutoCAD Mechanical|Company: Autodesk"
 90
        0
280
     0
281
     0
  0
CLASS
  1
ACMSURFSTANDARDISO
  2
AcmSurfTextStdISO
  3
"Amdt_StdImp|Product Description: AutoCAD Mechanical|Company: Autodesk"
 90
        0
280
     0
281
     0
  0
CLASS
  1
ACMFCFSTANDARDISO
  2
AcmFCFStdISO
  3
"Amdt_StdImp|Product Description: AutoCAD Mechanical|Company: Autodesk"
 90
        0
280
     0
281
     0
  0
CLASS
  1
ACMWELDSTANDARDISO
  2
AcmWeldingStdISO
  3
"Amdt_StdImp|Product Description: AutoCAD Mechanical|Company: Autodesk"
 90
        0
280
     0
281
     0
  0
CLASS
  1
ACMIDSTANDARDISO
  2
AcmIdStdISO
  3
"Amdt_StdImp|Product Description: AutoCAD Mechanical|Company: Autodesk"
 90
        0
280
     0
281
     0
  0
CLASS
  1
ACMDATUMSTANDARDISO
  2
AcmDatumStdISO
  3
"Amdt_StdImp|Product Description: AutoCAD Mechanical|Company: Autodesk"
 90
        0
280
     0
281
     0
  0
CLASS
  1
ACMBOMSTANDARDISO
  2
AcmBOMStdISO
  3
"Amdt_StdImp|Product Description: AutoCAD Mechanical|Company: Autodesk"
 90
        0
280
     0
281
     0
  0
CLASS
  1
ACMDETAILSTANDARDISO
  2
AmdtDetailSymStdISO
  3
"Amdt_StdImp|Product Description: AutoCAD Mechanical|Company: Autodesk"
 90
        0
280
     0
281
     0
  0
CLASS
  1
ACMSECTIONSTANDARDISO
  2
AmdtSectionSymStdISO
  3
"Amdt_StdImp|Product Description: AutoCAD Mechanical|Company: Autodesk"
 90
        0
280
     0
281
     0
  0
CLASS
  1
ACMCENTERLINESTANDARDISO
  2
AmdtCenterLineStdISO
  3
"Amdt_StdImp|Product Description: AutoCAD Mechanical|Company: Autodesk"
 90
        0
280
     0
281
     0
  0
CLASS
  1
ACAMGLAYSTD
  2
AcAmgLayStd
  3
"AmgLay|Product Description: AutoCAD Mechanical|Company: Autodesk"
 90
        0
280
     0
281
     0
  0
CLASS
  1
ACAMGDIMSTD
  2
AcAmgDimStd
  3
"AmgDim|Product Description: AutoCAD Mechanical|Company: Autodesk"
 90
        0
280
     0
281
     0
  0
CLASS
  1
ACAMGTITLESTD
  2
AcAmgTitleStd
  3
"AmgTitle|Product Description: AutoCAD Mechanical|Company: Autodesk"
 90
        0
280
     0
281
     0
  0
CLASS
  1
ACAMGFILTERDAT
  2
AcAmgFilterDat
  3
"AcadM|Product Description: AutoCAD Mechanical|Company: Autodesk"
 90
        0
280
     0
281
     0
  0
CLASS
  1
LAYER_INDEX
  2
AcDbLayerIndex
  3
ObjectDBX Classes
 90
    32768
280
     0
281
     0
  0
CLASS
  1
IDBUFFER
  2
AcDbIdBuffer
  3
ObjectDBX Classes
 90
    32768
280
     0
281
     0
  0
CLASS
  1
PLOTSETTINGS
  2
AcDbPlotSettings
  3
ObjectDBX Classes
 90
    32768
280
     0
281
     0
  0
CLASS
  1
AMDTFORMULAUPDATEDISPATCHER
  2
AmdtFormulaUpdateDispatcher
  3
AcMeServices
 90
        0
280
     0
281
     0
  0
CLASS
  1
ACMSTANDARDANSI
  2
AcmStandardANSI
  3
"Amdt_StdImp|Product Description: AutoCAD Mechanical|Company: Autodesk"
 90
        0
280
     0
281
     0
  0
CLASS
  1
ACMSURFSTANDARDANSI
  2
AcmSurfTextStdANSI
  3
"Amdt_StdImp|Product Description: AutoCAD Mechanical|Company: Autodesk"
 90
        0
280
     0
281
     0
  0
CLASS
  1
ACMFCFSTANDARDANSI
  2
AcmFCFStdANSI
  3
"Amdt_StdImp|Product Description: AutoCAD Mechanical|Company: Autodesk"
 90
        0
280
     0
281
     0
  0
CLASS
  1
ACMWELDSTANDARDANSI
  2
AcmWeldingStdANSI
  3
"Amdt_StdImp|Product Description: AutoCAD Mechanical|Company: Autodesk"
 90
        0
280
     0
281
     0
  0
CLASS
  1
ACMIDSTANDARDANSI
  2
AcmIdStdANSI
  3
"Amdt_StdImp|Product Description: AutoCAD Mechanical|Company: Autodesk"
 90
        0
280
     0
281
     0
  0
CLASS
  1
ACMDATUMSTANDARDANSI
  2
AcmDatumStdANSI
  3
"Amdt_StdImp|Product Description: AutoCAD Mechanical|Company: Autodesk"
 90
        0
280
     0
281
     0
  0
CLASS
  1
ACMBOMSTANDARDANSI
  2
AcmBOMStdANSI
  3
"Amdt_StdImp|Product Description: AutoCAD Mechanical|Company: Autodesk"
 90
        0
280
     0
281
     0
  0
CLASS
  1
ACMDETAILSTANDARDANSI
  2
AmdtDetailSymStdANSI
  3
"Amdt_StdImp|Product Description: AutoCAD Mechanical|Company: Autodesk"
 90
        0
280
     0
281
     0
  0
CLASS
  1
ACMSECTIONSTANDARDANSI
  2
AmdtSectionSymStdANSI
  3
"Amdt_StdImp|Product Description: AutoCAD Mechanical|Company: Autodesk"
 90
        0
280
     0
281
     0
  0
CLASS
  1
ACMCENTERLINESTANDARDANSI
  2
AmdtCenterLineStdANSI
  3
"Amdt_StdImp|Product Description: AutoCAD Mechanical|Company: Autodesk"
 90
        0
280
     0
281
     0
  0
CLASS
  1
ACMBOM
  2
AcmBom
  3
"AcmSymBB|Product Description: AutoCAD Mechanical|Company: Autodesk"
 90
        0
280
     0
281
     0
  0
CLASS
  1
ACMDATAENTRYPART
  2
AcmDataEntryPart
  3
"AcmSymBB|Product Description: AutoCAD Mechanical|Company: Autodesk"
 90
    32768
280
     0
281
     0
  0
CLASS
  1
ACMPARTREF
  2
AcmPartRef
  3
"AcmSymBB|Product Description: AutoCAD Mechanical|Company: Autodesk"
 90
    35839
280
     0
281
     1
  0
CLASS
  1
ACDBCIRCARCRES
  2
AcDbCircArcRes
  3
AcGrefServices
 90
    32768
280
     0
281
     0
  0
CLASS
  1
ACMBOMROW
  2
AcmBomRow
  3
"AcmSymBB|Product Description: AutoCAD Mechanical|Company: Autodesk"
 90
    32768
280
     0
281
     0
  0
CLASS
  1
ACMBALLOON
  2
AcmBalloon
  3
"AcmSymBB|Product Description: AutoCAD Mechanical|Company: Autodesk"
 90
    35839
280
     0
281
     1
  0
CLASS
  1
AMDTNOTE
  2
AmdtNote
  3
"AcmSymBB|Product Description: AutoCAD Mechanical|Company: Autodesk"
 90
    35839
280
     0
281
     1
  0
CLASS
  1
STDPART2D
  2
AmgStdPart
  3
"g3vace|Class: AmgStdPart|Product Description: AutoCAD Mechanical|Company: Autodesk"
 90
    35839
280
     0
281
     1
  0
CLASS
  1
ACDBSTDPARTRES_LINE
  2
AcDbStdPartRes_Line
  3
"g3vace|Class: AcDbStdPartRes_Line|Product Description: AutoCAD Mechanical|Company: Autodesk"
 90
    32768
280
     0
281
     0
  0
CLASS
  1
ACMDATAENTRY
  2
AcmDataEntry
  3
"AcmSymBB|Product Description: AutoCAD Mechanical|Company: Autodesk"
 90
        0
280
     0
281
     0
  0
CLASS
  1
ACDBOPPOLYLINERES
  2
AcDbOpPolylineRes
  3
AcGrefServices
 90
    32768
280
     0
281
     0
  0
CLASS
  1
ACMPARTLIST
  2
AcmPartList
  3
"AcmSymBB|Product Description: AutoCAD Mechanical|Company: Autodesk"
 90
    35839
280
     0
281
     1
  0
CLASS
  1
ACDBLINERES
  2
AcDbLineRes
  3
AcGrefServices
 90
    32768
280
     0
281
     0
  0
CLASS
  1
ACRFINSADJ
  2
AcRfInsAdjuster
  3
AcMeServices
 90
    32768
280
     0
281
     0
  0
CLASS
  1
AM_DRAWING_MGR
  2
AcDmDwgMgr
  3
AcMechDwgViewMgmt
 90
        0
280
     0
281
     0
  0
CLASS
  1
AM_DWG_DOCUMENT
  2
AcDmDwgDocument
  3
AcMechDwgViewMgmt
 90
        0
280
     0
281
     0
  0
CLASS
  1
AM_DWG_SHEET
  2
AcDmSheet
  3
AcMechDwgViewMgmt
 90
        0
280
     0
281
     0
  0
CLASS
  1
AM_VIEWDIMPARMAP
  2
AcDmViewDimParMap
  3
AcMechDwgViewMgmt
 90
        0
280
     0
281
     0
  0
CLASS
  1
AM_DWGMGR_NAME
  2
AcDmDwgMgrName
  3
AcMechDwgViewMgmt
 90
        0
280
     0
281
     0
  0
CLASS
  1
AMDTMENUSTATEMGR
  2
AmdtMenuStateMgr
  3
McadcomServices
 90
        0
280
     0
281
     0
  0
CLASS
  1
AMDTMCOMMENUSTATE
  2
AmdtMcomMenuState
  3
McadcomServices
 90
        0
280
     0
281
     0
  0
CLASS
  1
ASAPP
  2
AcAsAppObject
  3
AutoSurfServices
 90
        0
280
     0
281
     0
  0
CLASS
  1
IM_STATIC_MAN
  2
AcImStaticVarManager
  3
AcMeServices
 90
        0
280
     0
281
     0
  0
CLASS
  1
ACIMDBLSTATICVAR
  2
AcImDblStaticVar
  3
AcMeServices
 90
        0
280
     0
281
     0
  0
CLASS
  1
ACIMSTRSTATICVAR
  2
AcImStrStaticVar
  3
AcMeServices
 90
        0
280
     0
281
     0
  0
CLASS
  1
ACIMINTSTATICVAR
  2
AcImIntStaticVar
  3
AcMeServices
 90
        0
280
     0
281
     0
  0
CLASS
  1
ACASGREFMASTER
  2
AcAsGrefMaster
  3
AutoSurfResolverServices
 90
        0
280
     0
281
     0
  0
CLASS
  1
ACADGREFMODULE
  2
AcAdGrefModule
  3
AdGrefServices
 90
        0
280
     0
281
     0
  0
CLASS
  1
AMDTMAPISURFMOUDULE
  2
AmdtMApiSurfModule
  3
MApiSurfServices
 90
        0
280
     0
281
     0
  0
CLASS
  1
MAPIAMMOUDLE
  2
MApiAmModule
  3
MApiAmServices
 90
        0
280
     0
281
     0
  0
CLASS
  1
AMDTADMENUSTATE
  2
AmdtAdMenuState
  3
DesignerServices
 90
        0
280
     0
281
     0
  0
CLASS
  1
ADAPPL
  2
AcAdAppl
  3
DesignerServices
 90
        0
280
     0
281
     0
  0
CLASS
  1
DEPMGR
  2
AcAdDepMgr
  3
DesignerServices
 90
        0
280
     0
281
     0
  0
CLASS
  1
PARAMMGR
  2
AcAdParamMgr
  3
DesignerServices
 90
        0
280
     0
281
     0
  0
CLASS
  1
PARAMSCOPE
  2
AcAdParamScope
  3
DesignerServices
 90
        0
280
     0
281
     0
  0
CLASS
  1
NAMEDAPPL
  2
AcAdNamedAppl
  3
DesignerServices
 90
        0
280
     0
281
     0
  0
CLASS
  1
ADHNTMPLT
  2
AdHoleNoteTemplateMgr
  3
DesignerServices
 90
    32768
280
     0
281
     0
  0
CLASS
  1
AM_HNTEMPLATE_MGR_NAME
  2
AdHoleNoteTemplateMgrName
  3
DesignerServices
 90
    32768
280
     0
281
     0
  0
CLASS
  1
AMDTDMMENUSTATE
  2
AmdtDmMenuState
  3
AcMechDwgViewMgmt
 90
        0
280
     0
281
     0
  0
CLASS
  1
MAPIADMODULE
  2
MApiAdModule
  3
MApiAdServices
 90
        0
280
     0
281
     0
  0
CLASS
  1
AMDTAMMENUSTATE
  2
AmdtAmMenuState
  3
DesignerAssemblies
 90
        0
280
     0
281
     0
  0
CLASS
  1
ACAMPROJECT
  2
AcAmProject
  3
DesignerAssemblies
 90
        0
280
     0
281
     0
  0
CLASS
  1
ACAMGRCOMPDEF
  2
AcAmGrCompDef
  3
DesignerAssemblies
 90
        0
280
     0
281
     0
  0
CLASS
  1
ACCMCONTEXT
  2
AcCmContext
  3
DesignerAssemblies
 90
        0
280
     0
281
     0
  0
CLASS
  1
ACAMCOMPDEF
  2
AcAmCompDef
  3
DesignerAssemblies
 90
        0
280
     0
281
     0
  0
CLASS
  1
ACAMCOMPDEFMGR
  2
AcAmCompDefMgr
  3
DesignerAssemblies
 90
        0
280
     0
281
     0
  0
CLASS
  1
AMCONTEXTMGR
  2
AcAmContextMgr
  3
DesignerAssemblies
 90
        0
280
     0
281
     0
  0
CLASS
  1
ACAMCONTEXTMODELER
  2
AcAmContextModeler
  3
DesignerAssemblies
 90
        0
280
     0
281
     0
  0
CLASS
  1
CATALOGSTATE
  2
AcAmCatalogState
  3
DesignerAssemblies
 90
        0
280
     0
281
     0
  0
CLASS
  1
ACAMGRCOMPDEFSET
  2
AcAmGrCompDefSet
  3
DesignerAssemblies
 90
        0
280
     0
281
     0
  0
CLASS
  1
AMDTBROWSERDBTAB
  2
AmdtBrowserDbTab
  3
McadcomServices
 90
        0
280
     0
281
     0
  0
CLASS
  1
CBROWSERAPPOBJECT
  2
CBrowserAppObject
  3
McadcomServices
 90
        0
280
     0
281
     0
  0
CLASS
  1
DM_PLACEHOLDER
  2
AcDmSelsetPlaceholder
  3
AcMechDwgViewMgmt
 90
        0
280
     0
281
     0
  0
CLASS
  1
ACMPICKOBJ
  2
AcmPickEnt
  3
"AcmSymBB|Product Description: AutoCAD Mechanical|Company: Autodesk"
 90
    32768
280
     0
281
     1
  0
CLASS
  1
ACMNOTESTANDARDISO
  2
AmdtNoteStdISO
  3
"Amdt_StdImp|Product Description: AutoCAD Mechanical|Company: Autodesk"
 90
        0
280
     0
281
     0
  0
CLASS
  1
ACMNOTESTANDARDANSI
  2
AmdtNoteStdANSI
  3
"Amdt_StdImp|Product Description: AutoCAD Mechanical|Company: Autodesk"
 90
        0
280
     0
281
     0
  0
CLASS
  1
ACMTHREADLINESTANDARDISO
  2
AmdtThreadLineStdISO
  3
"Amdt_StdImp|Product Description: AutoCAD Mechanical|Company: Autodesk"
 90
        0
280
     0
281
     0
  0
CLASS
  1
ACMTHREADLINESTANDARDANSI
  2
AmdtThreadLineStdANSI
  3
"Amdt_StdImp|Product Description: AutoCAD Mechanical|Company: Autodesk"
 90
        0
280
     0
281
     0
  0
CLASS
  1
TABLESTYLE
  2
AcDbTableStyle
  3
ObjectDBX Classes
 90
     4095
280
     0
281
     0
  0
CLASS
  1
SORTENTSTABLE
  2
AcDbSortentsTable
  3
ObjectDBX Classes
 90
        0
280
     0
281
     0
  0
CLASS
  1
MATERIAL
  2
AcDbMaterial
  3
ObjectDBX Classes
 90
     1024
280
     0
281
     0
  0
CLASS
  1
VISUALSTYLE
  2
AcDbVisualStyle
  3
ObjectDBX Classes
 90
     4095
280
     0
281
     0
  0
CLASS
  1
ACRFATTGENMGR
  2
AcRfAttGeneralMgr
  3
AcAttribServices
 90
        0
280
     0
281
     0
  0
CLASS
  1
ACRFOBJATTMGR
  2
AcRfObjAttGroupMgr
  3
AcAttribServices
 90
        0
280
     0
281
     0
  0
CLASS
  1
ACRFMCADAPIATTHOLDER
  2
AcRfMCADAPIAttHolder
  3
AcAttribServices
 90
        0
280
     0
281
     0
  0
CLASS
  1
AMDTSYSATTR
  2
AmdtSystemAttribute
  3
AcAttribServices
 90
        0
280
     0
281
     0
  0
CLASS
  1
ACMTAPERSTANDARDISO
  2
AcmTaperStdISO
  3
"Amdt_StdImp|Product Description: AutoCAD Mechanical|Company: Autodesk"
 90
        0
280
     0
281
     0
  0
CLASS
  1
CAMSSTRUCTBTNSTATE
  2
StructBtnState
  3
L"DesignerAssemblies"
 90
        0
280
     0
281
     0
  0
CLASS
  1
DIMASSOC
  2
AcDbDimAssoc
  3
"AcDbDimAssoc|Product Desc:     AcDim ARX App For Dimension|Company:          Autodesk, Inc.|WEB Address:      www.autodesk.com"
 90
    32768
280
     0
281
     0
  0
CLASS
  1
AMDTNOTETEMPLATEDB
  2
AmdtNoteTemplateDB
  3
AMDT_STDIMP_MODULE_NAME
 90
        0
280
     0
281
     0
  0
CLASS
  1
ACMTAPERSTANDARDANSI
  2
AcmTaperStdANSI
  3
"Amdt_StdImp|Product Description: AutoCAD Mechanical|Company: Autodesk"
 90
        0
280
     0
281
     0
  0
CLASS
  1
ACAMGHOLECHARTSTDANSI
  2
AcAmgHoleChartStdANSI
  3
ACMSYMBB_MODULE_NAME
 90
        0
280
     0
281
     0
  0
CLASS
  1
AMDTEDGESTANDARDISO13715
  2
AmdtEdgeStdISO13715
  3
"Amdt_StdImp|Product Description: AutoCAD Mechanical|Company: Autodesk"
 90
        0
280
     0
281
     0
  0
CLASS
  1
ACAMGHOLECHARTSTDISO
  2
AcAmgHoleChartStdISO
  3
ACMSYMBB_MODULE_NAME
 90
        0
280
     0
281
     0
  0
CLASS
  1
AMDTACMWBLOCKBOMENTITY
  2
AmdtAcmWblockBomEntity
  3
"AcmSymBB|Product Description: AutoCAD Mechanical|Company: Autodesk"
 90
    35839
280
     0
281
     1
  0
ENDSEC
  0
SECTION
  2
TABLES
  0
TABLE
  2
VPORT
  5
8
330
0
100
AcDbSymbolTable
 70
     1
  0
VPORT
  5
B0EC
330
8
100
AcDbSymbolTableRecord
100
AcDbViewportTableRecord
  2
*Active
 70
     0
 10
0.0
 20
0.0
 11
1.0
 21
1.0
 12
148.5100911161194
 22
105.0020478616181
 13
0.0
 23
0.0
 14
2.5
 24
2.5
 15
10.0
 25
10.0
 16
0.0
 26
0.0
 36
1.0
 17
0.0
 27
0.0
 37
0.0
 40
211.5790663732645
 41
1.648648648648648
 42
50.0
 43
-1370.695619172058
 44
-1370.695619172058
 50
0.0
 51
0.0
 71
     0
 72
   100
 73
     1
 74
     3
 75
     0
 76
     0
 77
     0
 78
     0
281
     0
 65
     0
110
0.0
120
0.0
130
0.0
111
1.0
121
0.0
131
0.0
112
0.0
122
1.0
132
0.0
 79
     0
146
0.0
  0
ENDTAB
  0
TABLE
  2
LTYPE
  5
5
330
0
100
AcDbSymbolTable
 70
    36
  0
LTYPE
  5
14
330
5
100
AcDbSymbolTableRecord
100
AcDbLinetypeTableRecord
  2
ByBlock
 70
     0
  3

 72
    65
 73
     0
 40
0.0
  0
LTYPE
  5
15
330
5
100
AcDbSymbolTableRecord
100
AcDbLinetypeTableRecord
  2
ByLayer
 70
     0
  3

 72
    65
 73
     0
 40
0.0
  0
LTYPE
  5
16
330
5
100
AcDbSymbolTableRecord
100
AcDbLinetypeTableRecord
  2
Continuous
 70
     0
  3
Solid line
 72
    65
 73
     0
 40
0.0
  0
LTYPE
  5
4F
330
5
100
AcDbSymbolTableRecord
100
AcDbLinetypeTableRecord
  2
AM_ISO02W050
 70
     0
  3
__ __ __ __ __ __ __ __ __ __ __ __ __ __ __
 72
    65
 73
     2
 40
7.5
 49
6.0
 74
     0
 49
-1.5
 74
     0
  0
LTYPE
  5
52
330
5
100
AcDbSymbolTableRecord
100
AcDbLinetypeTableRecord
  2
Amconstr
 70
     0
  3
_______________________
 72
    65
 73
     2
 40
9999.0
 49
9999.0
 74
     0
 49
0.0
 74
     0
  0
LTYPE
  5
64
330
5
100
AcDbSymbolTableRecord
100
AcDbLinetypeTableRecord
  2
ACISOWELD
 70
     0
  3
_ _ _ _ _
 72
    65
 73
     2
 40
2.0
 49
2.0
 74
     0
 49
-1.0
 74
     0
  0
LTYPE
  5
65
330
5
100
AcDbSymbolTableRecord
100
AcDbLinetypeTableRecord
  2
ACISOTGB
 70
     0
  3
__ . . __ . .
 72
    65
 73
     6
 40
9.0
 49
4.0
 74
     0
 49
-1.0
 74
     0
 49
1.0
 74
     0
 49
-1.0
 74
     0
 49
1.0
 74
     0
 49
-1.0
 74
     0
  0
LTYPE
  5
66
330
5
100
AcDbSymbolTableRecord
100
AcDbLinetypeTableRecord
  2
ACISOTGL
 70
     0
  3
_ _ _ _ _
 72
    65
 73
     2
 40
3.0
 49
2.0
 74
     0
 49
-1.0
 74
     0
  0
LTYPE
  5
69
330
5
100
AcDbSymbolTableRecord
100
AcDbLinetypeTableRecord
  2
CENTER
 70
     0
  3
__ . __
 72
    65
 73
     4
 40
7.0
 49
4.0
 74
     0
 49
-1.0
 74
     0
 49
1.0
 74
     0
 49
-1.0
 74
     0
  0
LTYPE
  5
A6E
330
5
100
AcDbSymbolTableRecord
100
AcDbLinetypeTableRecord
  2
PHANTOM2
 70
     0
  3
Phantom (.5x) ___ _ _ ___ _ _ ___ _ _ ___ _ _
 72
    65
 73
     6
 40
31.75
 49
15.875
 74
     0
 49
-3.174999999999999
 74
     0
 49
3.174999999999999
 74
     0
 49
-3.174999999999999
 74
     0
 49
3.174999999999999
 74
     0
 49
-3.174999999999999
 74
     0
  0
LTYPE
  5
4DED
330
5
100
AcDbSymbolTableRecord
100
AcDbLinetypeTableRecord
  2
中線
 70
     0
  3
___________________
 72
    65
 73
     2
 40
2.0
 49
1.0
 74
     0
 49
1.0
 74
     0
  0
LTYPE
  5
4DF6
330
5
100
AcDbSymbolTableRecord
100
AcDbLinetypeTableRecord
  2
細線
 70
     0
  3
___________________
 72
    65
 73
     2
 40
2.0
 49
1.0
 74
     0
 49
1.0
 74
     0
  0
LTYPE
  5
4DF7
330
5
100
AcDbSymbolTableRecord
100
AcDbLinetypeTableRecord
  2
太線
 70
     0
  3
___________________
 72
    65
 73
     2
 40
2.0
 49
1.0
 74
     0
 49
1.0
 74
     0
  0
LTYPE
  5
4EA7
330
5
100
AcDbSymbolTableRecord
100
AcDbLinetypeTableRecord
  2
文字
 70
     0
  3
_________________
 72
    65
 73
     2
 40
2.0
 49
1.0
 74
     0
 49
1.0
 74
     0
  0
LTYPE
  5
4EA9
330
5
100
AcDbSymbolTableRecord
100
AcDbLinetypeTableRecord
  2
寸法線
 70
     0
  3
________________
 72
    65
 73
     2
 40
2.0
 49
1.0
 74
     0
 49
1.0
 74
     0
  0
LTYPE
  5
4F12
330
5
100
AcDbSymbolTableRecord
100
AcDbLinetypeTableRecord
  2
ハッチング
 70
     0
  3
_________________
 72
    65
 73
     2
 40
2.0
 49
1.0
 74
     0
 49
1.0
 74
     0
  0
LTYPE
  5
5180
330
5
100
AcDbSymbolTableRecord
100
AcDbLinetypeTableRecord
  2
陰線1
 70
     0
  3
__ __ __ __
 72
    65
 73
     2
 40
4.0
 49
2.2
 74
     0
 49
-1.8
 74
     0
  0
LTYPE
  5
5182
330
5
100
AcDbSymbolTableRecord
100
AcDbLinetypeTableRecord
  2
切断線
 70
     0
  3
/\/-/\/-/\/-/\/-/\/-/\/
 72
    65
 73
     2
 40
11.0001
 49
0.0001
 74
     4
 75
   135
340
56
 46
0.04
 50
0.0
 44
0.0
 45
0.0
 49
-11.0
 74
     0
  0
LTYPE
  5
5183
330
5
100
AcDbSymbolTableRecord
100
AcDbLinetypeTableRecord
  2
想像線1
 70
     0
  3
__ __ __ _____ __ __ ____
 72
    65
 73
     6
 40
14.5
 49
6.0
 74
     0
 49
-1.5
 74
     0
 49
2.0
 74
     0
 49
-1.5
 74
     0
 49
2.0
 74
     0
 49
-1.5
 74
     0
  0
LTYPE
  5
5185
330
5
100
AcDbSymbolTableRecord
100
AcDbLinetypeTableRecord
  2
中心線1
 70
     0
  3
___ _ ___ _ ___
 72
    65
 73
     4
 40
18.0
 49
12.0
 74
     0
 49
-2.0
 74
     0
 49
2.0
 74
     0
 49
-2.0
 74
     0
  0
LTYPE
  5
5188
330
5
100
AcDbSymbolTableRecord
100
AcDbLinetypeTableRecord
  2
補助線
 70
     0
  3
______________
 72
    65
 73
     2
 40
2.0
 49
1.0
 74
     0
 49
1.0
 74
     0
  0
LTYPE
  5
6427
330
5
100
AcDbSymbolTableRecord
100
AcDbLinetypeTableRecord
  2
HIDDEN
 70
     0
  3
Hidden __ __ __ __ __ __ __ __ __ __ __ __ __ _
 72
    65
 73
     2
 40
0.375
 49
0.25
 74
     0
 49
-0.125
 74
     0
  0
LTYPE
  5
AC81
330
5
100
AcDbSymbolTableRecord
100
AcDbLinetypeTableRecord
  2
破断線
 70
     0
  3
/\/-/\/-/\/-/\/-/\/-/\/
 72
    65
 73
     2
 40
0.4401
 49
0.0001
 74
     4
 75
   136
340
AC80
 46
0.0016
 50
0.0
 44
0.0
 45
0.0
 49
-0.4400000000000001
 74
     0
  0
LTYPE
  5
AC9E
330
5
100
AcDbSymbolTableRecord
100
AcDbLinetypeTableRecord
  2
Amzigzag
 70
     0
  3
/\/-/\/-/\/-/\/-/\/-/\/
 72
    65
 73
     2
 40
11.0001
 49
0.0001
 74
     4
 75
   135
340
56
 46
0.04
 50
0.0
 44
0.0
 45
0.0
 49
-11.0
 74
     0
  0
LTYPE
  5
AF0F
330
5
100
AcDbSymbolTableRecord
100
AcDbLinetypeTableRecord
  2
genzigzag
 70
     0
  3
/\/-/\/-/\/-/\/-/\/-/\/
 72
    65
 73
     2
 40
12.0001
 49
0.0001
 74
     4
 75
   135
340
AC80
 46
2.0
 50
0.0
 44
0.0
 45
0.0
 49
-12.0
 74
     0
  0
LTYPE
  5
AF95
330
5
100
AcDbSymbolTableRecord
100
AcDbLinetypeTableRecord
  2
AM_ISO08W050
 70
     0
  3
____ . ____ . ____ . ____ . ____ . ____ . ____
 72
    65
 73
     4
 40
18.0
 49
12.0
 74
     0
 49
-1.5
 74
     0
 49
3.0
 74
     0
 49
-1.5
 74
     0
  0
LTYPE
  5
AF96
330
5
100
AcDbSymbolTableRecord
100
AcDbLinetypeTableRecord
  2
AM_ISO09W050
 70
     0
  3
_____ . . _____ . . _____ . . ____ .. ____
 72
    65
 73
     6
 40
22.5
 49
12.0
 74
     0
 49
-1.5
 74
     0
 49
3.0
 74
     0
 49
-1.5
 74
     0
 49
3.0
 74
     0
 49
-1.5
 74
     0
  0
LTYPE
  5
AF97
330
5
100
AcDbSymbolTableRecord
100
AcDbLinetypeTableRecord
  2
AM_ISO08W050x2
 70
     0
  3
__ . __ . __ . __ . __ . __
 72
    65
 73
     4
 40
9.0
 49
6.0
 74
     0
 49
-0.75
 74
     0
 49
1.5
 74
     0
 49
-0.75
 74
     0
  0
LTYPE
  5
AF98
330
5
100
AcDbSymbolTableRecord
100
AcDbLinetypeTableRecord
  2
AM_ISO02W050x2
 70
     0
  3
 _ _ _ _ _ _ _ _ _ _ _ _
 72
    65
 73
     2
 40
3.75
 49
3.0
 74
     0
 49
-0.75
 74
     0
  0
LTYPE
  5
B541
330
5
100
AcDbSymbolTableRecord
100
AcDbLinetypeTableRecord
  2
CENTER2
 70
     0
  3
__ _ __ _ __ _
 72
    65
 73
     4
 40
10.0
 49
7.0
 74
     0
 49
-1.0
 74
     0
 49
1.0
 74
     0
 49
-1.0
 74
     0
  0
LTYPE
  5
B542
330
5
100
AcDbSymbolTableRecord
100
AcDbLinetypeTableRecord
  2
HIDDEN2
 70
     0
  3
Hidden (.5x) _ _ _ _ _ _ _ _ _ _ _ _ _ _ _ _ _
 72
    65
 73
     2
 40
0.1875
 49
0.125
 74
     0
 49
-0.0625
 74
     0
  0
LTYPE
  5
B543
330
5
100
AcDbSymbolTableRecord
100
AcDbLinetypeTableRecord
  2
Amzigzag2
 70
     0
  3
/\/-/\/-/\/-/\/-/\/-/\/
 72
    65
 73
     2
 40
0.4401
 49
0.0001
 74
     4
 75
   136
340
AC80
 46
0.0016
 50
0.0
 44
0.0
 45
0.0
 49
-0.4400000000000001
 74
     0
  0
LTYPE
  5
B544
330
5
100
AcDbSymbolTableRecord
100
AcDbLinetypeTableRecord
  2
ACANSTGB
 70
     0
  3
__ . . __ . .
 72
    65
 73
     6
 40
0.35433070866
 49
0.15748031496
 74
     0
 49
-0.03937007874
 74
     0
 49
0.03937007874
 74
     0
 49
-0.03937007874
 74
     0
 49
0.03937007874
 74
     0
 49
-0.03937007874
 74
     0
  0
LTYPE
  5
B545
330
5
100
AcDbSymbolTableRecord
100
AcDbLinetypeTableRecord
  2
ACANSTGL
 70
     0
  3
_ _ _ _ _
 72
    65
 73
     2
 40
0.11811023622
 49
0.07874015748
 74
     0
 49
-0.03937007874
 74
     0
  0
LTYPE
  5
D240
330
5
100
AcDbSymbolTableRecord
100
AcDbLinetypeTableRecord
  2
DOTTED
 70
     0
  3
Dotted
 72
    65
 73
     2
 40
1.0
 49
0.0
 74
     0
 49
-1.0
 74
     0
  0
LTYPE
  5
D241
330
5
100
AcDbSymbolTableRecord
100
AcDbLinetypeTableRecord
  2
DOT_CENTER
 70
     0
  3
Dot_Center
 72
    65
 73
     4
 40
14.0
 49
12.0
 74
     0
 49
-1.0
 74
     0
 49
0.0
 74
     0
 49
-1.0
 74
     0
  0
LTYPE
  5
D242
330
5
100
AcDbSymbolTableRecord
100
AcDbLinetypeTableRecord
  2
PHANTOM
 70
     0
  3
Phantom
 72
    65
 73
     6
 40
13.0
 49
10.0
 74
     0
 49
-1.0
 74
     0
 49
0.0
 74
     0
 49
-1.0
 74
     0
 49
0.0
 74
     0
 49
-1.0
 74
     0
  0
LTYPE
  5
D243
330
5
100
AcDbSymbolTableRecord
100
AcDbLinetypeTableRecord
  2
SLDHIDDEN0
 70
     0
  3
SLDHIDDEN0
 72
    65
 73
     2
 40
3.0
 49
2.0
 74
     0
 49
-1.0
 74
     0
  0
ENDTAB
  0
TABLE
  2
LAYER
  5
2
102
{ACAD_XDICTIONARY
360
3F95
102
}
330
0
100
AcDbSymbolTable
 70
    30
  0
LAYER
  5
10
330
2
100
AcDbSymbolTableRecord
100
AcDbLayerTableRecord
  2
0
 70
     0
 62
     7
  6
Continuous
370
    -3
390
F
  0
LAYER
  5
6D1
330
2
100
AcDbSymbolTableRecord
100
AcDbLayerTableRecord
  2
Defpoints
 70
     0
 62
     7
  6
Continuous
290
     0
370
    -3
390
F
  0
LAYER
  5
5F85
330
2
100
AcDbSymbolTableRecord
100
AcDbLayerTableRecord
  2
AM_0
 70
     0
 62
     7
  6
中線
370
    30
390
F
1001
AcAecLayerStandard
1000

1000

  0
LAYER
  5
AC9F
330
2
100
AcDbSymbolTableRecord
100
AcDbLayerTableRecord
  2
size
 70
     0
 62
     5
  6
Continuous
290
     0
370
    25
390
F
  0
LAYER
  5
ACA0
330
2
100
AcDbSymbolTableRecord
100
AcDbLayerTableRecord
  2
waku
 70
     0
 62
     7
  6
Continuous
370
    35
390
F
  0
LAYER
  5
ACA1
330
2
100
AcDbSymbolTableRecord
100
AcDbLayerTableRecord
  2
AM_6
 70
     0
 62
     2
  6
文字
370
    13
390
F
1001
AcAecLayerStandard
1000

1000

  0
LAYER
  5
ACC8
330
2
100
AcDbSymbolTableRecord
100
AcDbLayerTableRecord
  2
hyomoji
 70
     0
 62
     2
  6
Continuous
370
    13
390
F
  0
LAYER
  5
ACC9
330
2
100
AcDbSymbolTableRecord
100
AcDbLayerTableRecord
  2
hyosen1
 70
     0
 62
     1
  6
Continuous
370
    25
390
F
  0
LAYER
  5
ACCA
330
2
100
AcDbSymbolTableRecord
100
AcDbLayerTableRecord
  2
hyosen2
 70
     0
 62
     1
  6
Continuous
370
    13
390
F
  0
LAYER
  5
AD60
330
2
100
AcDbSymbolTableRecord
100
AcDbLayerTableRecord
  2
AM_1
 70
     0
 62
    30
  6
太線
370
    40
390
F
1001
AcAecLayerStandard
1000

1000

  0
LAYER
  5
AD64
330
2
100
AcDbSymbolTableRecord
100
AcDbLayerTableRecord
  2
AM_2
 70
     0
 62
     1
  6
細線
370
    13
390
F
1001
AcAecLayerStandard
1000

1000

  0
LAYER
  5
AD67
330
2
100
AcDbSymbolTableRecord
100
AcDbLayerTableRecord
  2
AM_3
 70
     0
 62
     6
  6
陰線1
370
    13
390
F
1001
AcAecLayerStandard
1000

1000

  0
LAYER
  5
AD68
330
2
100
AcDbSymbolTableRecord
100
AcDbLayerTableRecord
  2
AM_5
 70
     0
 62
     3
  6
寸法線
370
    13
390
F
1001
AcAecLayerStandard
1000

1000

  0
LAYER
  5
AD69
330
2
100
AcDbSymbolTableRecord
100
AcDbLayerTableRecord
  2
AM_7
 70
     0
 62
     4
  6
中心線1
370
    13
390
F
1001
AcAecLayerStandard
1000

1000

  0
LAYER
  5
AD6A
330
2
100
AcDbSymbolTableRecord
100
AcDbLayerTableRecord
  2
AM_8
 70
     0
 62
     1
  6
ハッチング
370
    13
390
F
1001
AcAecLayerStandard
1000

1000

  0
LAYER
  5
AD6E
330
2
100
AcDbSymbolTableRecord
100
AcDbLayerTableRecord
  2
AM_10
 70
     0
 62
     7
  6
切断線
370
    13
390
F
1001
AcAecLayerStandard
1000

1000

  0
LAYER
  5
AD6F
330
2
100
AcDbSymbolTableRecord
100
AcDbLayerTableRecord
  2
AM_11
 70
     0
 62
     2
  6
想像線1
370
    13
390
F
1001
AcAecLayerStandard
1000

1000

  0
LAYER
  5
B1B6
330
2
100
AcDbSymbolTableRecord
100
AcDbLayerTableRecord
  2
AM_CL
 70
     1
 62
    -1
  6
Amconstr
370
    15
390
F
1001
AcAecLayerStandard
1000

1000

  0
LAYER
  5
B2EB
330
2
100
AcDbSymbolTableRecord
100
AcDbLayerTableRecord
  2
AM_14
 70
     0
 62
     5
  6
細線
370
     9
390
F
1001
AcAecLayerStandard
1000

1000

  0
LAYER
  5
B2EC
330
2
100
AcDbSymbolTableRecord
100
AcDbLayerTableRecord
  2
AM_15
 70
     0
 62
     6
  6
陰線1
370
     9
390
F
1001
AcAecLayerStandard
1000

1000

  0
LAYER
  5
B502
330
2
100
AcDbSymbolTableRecord
100
AcDbLayerTableRecord
  2
AM_4
 70
     0
 62
     3
  6
補助線
370
    15
390
F
1001
AcAecLayerStandard
1000

1000

  0
LAYER
  5
B546
330
2
100
AcDbSymbolTableRecord
100
AcDbLayerTableRecord
  2
1
 70
     0
 62
     7
  6
Continuous
370
    -3
390
F
  0
LAYER
  5
B791
330
2
100
AcDbSymbolTableRecord
100
AcDbLayerTableRecord
  2
想像線
 70
     0
 62
     5
  6
PHANTOM2
370
    -3
390
F
  0
LAYER
  5
B792
330
2
100
AcDbSymbolTableRecord
100
AcDbLayerTableRecord
  2
実線
 70
     0
 62
     7
  6
Continuous
370
    -3
390
F
  0
LAYER
  5
B793
330
2
100
AcDbSymbolTableRecord
100
AcDbLayerTableRecord
  2
中心線
 70
     0
 62
     2
  6
CENTER2
370
    -3
390
F
  0
LAYER
  5
B794
330
2
100
AcDbSymbolTableRecord
100
AcDbLayerTableRecord
  2
隠れ線
 70
     0
 62
     4
  6
HIDDEN2
370
    -3
390
F
  0
LAYER
  5
B795
330
2
100
AcDbSymbolTableRecord
100
AcDbLayerTableRecord
  2
細線
 70
     0
 62
     4
  6
Continuous
370
    -3
390
F
  0
LAYER
  5
B796
330
2
100
AcDbSymbolTableRecord
100
AcDbLayerTableRecord
  2
文字
 70
     0
 62
     1
  6
Continuous
370
    -3
390
F
  0
LAYER
  5
BD5F
330
2
100
AcDbSymbolTableRecord
100
AcDbLayerTableRecord
  2
2
 70
     0
 62
     7
  6
Continuous
370
    -3
390
F
  0
LAYER
  5
BD60
330
2
100
AcDbSymbolTableRecord
100
AcDbLayerTableRecord
  2
3
 70
     0
 62
     7
  6
Continuous
370
    -3
390
F
  0
ENDTAB
  0
TABLE
  2
STYLE
  5
3
330
0
100
AcDbSymbolTable
 70
    15
  0
STYLE
  5
11
330
3
100
AcDbSymbolTableRecord
100
AcDbTextStyleTableRecord
  2
STANDARD
 70
     0
 40
0.0
 41
0.7
 50
0.0
 71
     0
 42
3.2
  3
romans.shx
  4
extfont.shx
  0
STYLE
  5
56
330
3
100
AcDbSymbolTableRecord
100
AcDbTextStyleTableRecord
  2

 70
     1
 40
0.0
 41
1.0
 50
0.0
 71
     0
 42
2.5
  3
ltypeshp.shx
  4

  0
STYLE
  5
58
330
3
100
AcDbSymbolTableRecord
100
AcDbTextStyleTableRecord
  2
ACISOTS
 70
     0
 40
1.0
 41
1.0
 50
0.0
 71
     0
 42
2.5
  3
isocp.shx
  4
extfont.shx
  0
STYLE
  5
63
330
3
100
AcDbSymbolTableRecord
100
AcDbTextStyleTableRecord
  2
ACISOGDT
 70
     0
 40
0.0
 41
1.0
 50
0.0
 71
     0
 42
2.5
  3
amgdt.shx
  4

  0
STYLE
  5
A74
330
3
100
AcDbSymbolTableRecord
100
AcDbTextStyleTableRecord
  2
DIM
 70
     0
 40
0.0
 41
1.0
 50
0.0
 71
     0
 42
2.5
  3
monotxt.shx
  4
extfont.shx
  0
STYLE
  5
AC80
330
3
100
AcDbSymbolTableRecord
100
AcDbTextStyleTableRecord
  2

 70
     1
 40
0.0
 41
1.0
 50
0.0
 71
     0
 42
3.2
  3
genltshp.shx
  4

  0
STYLE
  5
B547
330
3
100
AcDbSymbolTableRecord
100
AcDbTextStyleTableRecord
  2
ACANSTS
 70
     0
 40
1.0
 41
1.0
 50
0.0
 71
     0
 42
0.2
  3
romans.shx
  4
extfont.shx
  0
STYLE
  5
B548
330
3
100
AcDbSymbolTableRecord
100
AcDbTextStyleTableRecord
  2
ACANSGDT
 70
     0
 40
0.0
 41
1.0
 50
0.0
 71
     0
 42
0.2
  3
amgdt.shx
  4

  0
STYLE
  5
D244
330
3
100
AcDbSymbolTableRecord
100
AcDbTextStyleTableRecord
  2
CONVERTER_1
 70
     0
 40
0.0
 41
0.7
 50
0.0
 71
     0
 42
0.2
  3
iso.shx
  4

  0
STYLE
  5
D245
330
3
100
AcDbSymbolTableRecord
100
AcDbTextStyleTableRecord
  2
CONVERTER_2
 70
     0
 40
0.0
 41
0.7
 50
0.0
 71
     0
 42
0.2
  3
iso.shx
  4
extfont.shx
  0
STYLE
  5
D246
330
3
100
AcDbSymbolTableRecord
100
AcDbTextStyleTableRecord
  2
CONVERTER_3
 70
     0
 40
0.0
 41
1.0
 50
0.0
 71
     0
 42
0.2
  3
iso.shx
  4

  0
STYLE
  5
D247
330
3
100
AcDbSymbolTableRecord
100
AcDbTextStyleTableRecord
  2
CONVERTER_4
 70
     0
 40
0.0
 41
0.625
 50
0.0
 71
     0
 42
0.2
  3
iso.shx
  4

  0
STYLE
  5
D248
330
3
100
AcDbSymbolTableRecord
100
AcDbTextStyleTableRecord
  2
CONVERTER_5
 70
     0
 40
0.0
 41
0.8679999999999999
 50
0.0
 71
     0
 42
0.2
  3
simplex.shx
  4

  0
STYLE
  5
D249
330
3
100
AcDbSymbolTableRecord
100
AcDbTextStyleTableRecord
  2
CONVERTER_6
 70
     0
 40
0.0
 41
0.79920634920635
 50
0.0
 71
     0
 42
0.2
  3
complex.shx
  4

  0
STYLE
  5
D24A
330
3
100
AcDbSymbolTableRecord
100
AcDbTextStyleTableRecord
  2
CONVERTER_7
 70
     0
 40
0.0
 41
0.4950000000000001
 50
0.0
 71
     0
 42
0.2
  3
txt.shx
  4

  0
ENDTAB
  0
TABLE
  2
VIEW
  5
6
330
0
100
AcDbSymbolTable
 70
     6
  0
VIEW
  5
AE1
330
6
100
AcDbSymbolTableRecord
100
AcDbViewTableRecord
  2
AM_VIEW1
 70
     0
 40
168.7283236994219
 10
105.000000282035
 20
212.6358382007688
 41
210.0
 11
0.0
 21
0.0
 31
1.0
 12
0.0
 22
0.0
 32
0.0
 42
50.0
 43
-1370.695619172058
 44
-1370.695619172058
 50
0.0
 71
     0
281
     0
 72
     0
  0
VIEW
  5
AE2
330
6
100
AcDbSymbolTableRecord
100
AcDbViewTableRecord
  2
AM_VIEW2
 70
     0
 40
168.7283236994219
 10
315.000000282035
 20
212.6358382007688
 41
210.0
 11
0.0
 21
0.0
 31
1.0
 12
0.0
 22
0.0
 32
0.0
 42
50.0
 43
-1370.695619172058
 44
-1370.695619172058
 50
0.0
 71
     0
281
     0
 72
     0
  0
VIEW
  5
AE3
330
6
100
AcDbSymbolTableRecord
100
AcDbViewTableRecord
  2
AM_VIEW3
 70
     0
 40
168.7283236994219
 10
105.000000282035
 20
84.36416190019071
 41
210.0
 11
0.0
 21
0.0
 31
1.0
 12
0.0
 22
0.0
 32
0.0
 42
50.0
 43
-1370.695619172058
 44
-1370.695619172058
 50
0.0
 71
     0
281
     0
 72
     0
  0
VIEW
  5
AE4
330
6
100
AcDbSymbolTableRecord
100
AcDbViewTableRecord
  2
AM_VIEW4
 70
     0
 40
168.7283236994219
 10
315.000000282035
 20
84.36416190019071
 41
210.0
 11
0.0
 21
0.0
 31
1.0
 12
0.0
 22
0.0
 32
0.0
 42
50.0
 43
-1370.695619172058
 44
-1370.695619172058
 50
0.0
 71
     0
281
     0
 72
     0
  0
VIEW
  5
AE5
330
6
100
AcDbSymbolTableRecord
100
AcDbViewTableRecord
  2
AM_VIEW5
 70
     0
 40
168.7283236994219
 10
210.0000002820351
 20
148.5000000504797
 41
210.0
 11
0.0
 21
0.0
 31
1.0
 12
0.0
 22
0.0
 32
0.0
 42
50.0
 43
-1370.695619172058
 44
-1370.695619172058
 50
0.0
 71
     0
281
     0
 72
     0
  0
VIEW
  5
AE6
330
6
100
AcDbSymbolTableRecord
100
AcDbViewTableRecord
  2
AM_VIEW6
 70
     0
 40
337.45327283237
 10
210.0000002820351
 20
148.5000000504797
 41
419.9958
 11
0.0
 21
0.0
 31
1.0
 12
0.0
 22
0.0
 32
0.0
 42
50.0
 43
-1370.695619172058
 44
-1370.695619172058
 50
0.0
 71
     0
281
     0
 72
     0
  0
ENDTAB
  0
TABLE
  2
UCS
  5
7
330
0
100
AcDbSymbolTable
 70
     0
  0
ENDTAB
  0
TABLE
  2
APPID
  5
9
330
0
100
AcDbSymbolTable
 70
    60
  0
APPID
  5
12
330
9
100
AcDbSymbolTableRecord
100
AcDbRegAppTableRecord
  2
ACAD
 70
     0
  0
APPID
  5
30
330
9
100
AcDbSymbolTableRecord
100
AcDbRegAppTableRecord
  2
MCAD_NO_VIS
 70
     0
  0
APPID
  5
31
330
9
100
AcDbSymbolTableRecord
100
AcDbRegAppTableRecord
  2
ACAD_TEMP_GRAPHIC
 70
     0
  0
APPID
  5
44
330
9
100
AcDbSymbolTableRecord
100
AcDbRegAppTableRecord
  2
ACATTRIBSERVICES
 70
     0
  0
APPID
  5
7A1
330
9
100
AcDbSymbolTableRecord
100
AcDbRegAppTableRecord
  2
GENIUS_GENDIMSH_14
 70
     0
  0
APPID
  5
A49
330
9
100
AcDbSymbolTableRecord
100
AcDbRegAppTableRecord
  2
GENIUS_GENREC_14
 70
     0
  0
APPID
  5
A4A
330
9
100
AcDbSymbolTableRecord
100
AcDbRegAppTableRecord
  2
GENIUS_GENOBJ-N-REC_13
 70
     0
  0
APPID
  5
A4B
330
9
100
AcDbSymbolTableRecord
100
AcDbRegAppTableRecord
  2
GENIUS_GENODEF_13
 70
     0
  0
APPID
  5
A4C
330
9
100
AcDbSymbolTableRecord
100
AcDbRegAppTableRecord
  2
DCO15
 70
     0
  0
APPID
  5
ADC
330
9
100
AcDbSymbolTableRecord
100
AcDbRegAppTableRecord
  2
GENIUS_GENOLIS_13
 70
     0
  0
APPID
  5
ADD
330
9
100
AcDbSymbolTableRecord
100
AcDbRegAppTableRecord
  2
GENIUS_GENOENT_13
 70
     0
  0
APPID
  5
ADE
330
9
100
AcDbSymbolTableRecord
100
AcDbRegAppTableRecord
  2
GENIUS_GENOBJ-N-TIT_13
 70
     0
  0
APPID
  5
ADF
330
9
100
AcDbSymbolTableRecord
100
AcDbRegAppTableRecord
  2
GENIUS_GENTITLE_13
 70
     0
  0
APPID
  5
AE0
330
9
100
AcDbSymbolTableRecord
100
AcDbRegAppTableRecord
  2
GENIUS_GENOREF_13
 70
     0
  0
APPID
  5
AE7
330
9
100
AcDbSymbolTableRecord
100
AcDbRegAppTableRecord
  2
GENIUS_GENSCREG_15
 70
     0
  0
APPID
  5
AE8
330
9
100
AcDbSymbolTableRecord
100
AcDbRegAppTableRecord
  2
GENIUS_GENOBJ-N-SDF_13
 70
     0
  0
APPID
  5
FAF
330
9
100
AcDbSymbolTableRecord
100
AcDbRegAppTableRecord
  2
GENIUS_GENBLLY_14
 70
     0
  0
APPID
  5
FB0
330
9
100
AcDbSymbolTableRecord
100
AcDbRegAppTableRecord
  2
GENIUS_GENTRA_14
 70
     0
  0
APPID
  5
1285
330
9
100
AcDbSymbolTableRecord
100
AcDbRegAppTableRecord
  2
GENIUS_GENDTOL_13
 70
     0
  0
APPID
  5
142D
330
9
100
AcDbSymbolTableRecord
100
AcDbRegAppTableRecord
  2
GENIUS_GENOBJ-N-CEN_13
 70
     0
  0
APPID
  5
1AB5
330
9
100
AcDbSymbolTableRecord
100
AcDbRegAppTableRecord
  2
GENIUS_GENOBJ-N-CRS_13
 70
     0
  0
APPID
  5
1B36
330
9
100
AcDbSymbolTableRecord
100
AcDbRegAppTableRecord
  2
GENIUS_GENOBJ-N-HTC_13
 70
     0
  0
APPID
  5
1B37
330
9
100
AcDbSymbolTableRecord
100
AcDbRegAppTableRecord
  2
GENIUS_GENHATCH_13
 70
     0
  0
APPID
  5
216D
330
9
100
AcDbSymbolTableRecord
100
AcDbRegAppTableRecord
  2
GENIUS_GENOBJ-N-FIL_13
 70
     0
  0
APPID
  5
2356
330
9
100
AcDbSymbolTableRecord
100
AcDbRegAppTableRecord
  2
GEVID990412420
 70
     0
  0
APPID
  5
2357
330
9
100
AcDbSymbolTableRecord
100
AcDbRegAppTableRecord
  2
GEVDC
 70
     0
  0
APPID
  5
2358
330
9
100
AcDbSymbolTableRecord
100
AcDbRegAppTableRecord
  2
GEVCON
 70
     0
  0
APPID
  5
235B
330
9
100
AcDbSymbolTableRecord
100
AcDbRegAppTableRecord
  2
GEVRADREF
 70
     0
  0
APPID
  5
2360
330
9
100
AcDbSymbolTableRecord
100
AcDbRegAppTableRecord
  2
GENIUS_GENBH_13
 70
     0
  0
APPID
  5
2362
330
9
100
AcDbSymbolTableRecord
100
AcDbRegAppTableRecord
  2
GENIUS_GENOBJ-NBEHI-BHF_13
 70
     0
  0
APPID
  5
2364
330
9
100
AcDbSymbolTableRecord
100
AcDbRegAppTableRecord
  2
GENIUS_GENOBJ-NBEHI-BHB_13
 70
     0
  0
APPID
  5
2379
330
9
100
AcDbSymbolTableRecord
100
AcDbRegAppTableRecord
  2
GENIUS_GENOBJ-F-SCPASSM_13
 70
     0
  0
APPID
  5
3D74
330
9
100
AcDbSymbolTableRecord
100
AcDbRegAppTableRecord
  2
GENIUS_GENDIM_13
 70
     0
  0
APPID
  5
3D76
330
9
100
AcDbSymbolTableRecord
100
AcDbRegAppTableRecord
  2
GENIUS_GE3DTOL_13
 70
     0
  0
APPID
  5
3D9C
330
9
100
AcDbSymbolTableRecord
100
AcDbRegAppTableRecord
  2
AD_DRAW
 70
     0
  0
APPID
  5
3DE8
330
9
100
AcDbSymbolTableRecord
100
AcDbRegAppTableRecord
  2
ASURF_PCURVE_APPNAME
 70
     0
  0
APPID
  5
3DED
330
9
100
AcDbSymbolTableRecord
100
AcDbRegAppTableRecord
  2
AMG_3D2D_5.0
 70
     0
  0
APPID
  5
3E1B
330
9
100
AcDbSymbolTableRecord
100
AcDbRegAppTableRecord
  2
DESIGNERASSEMBLIES
 70
     0
  0
APPID
  5
3E20
330
9
100
AcDbSymbolTableRecord
100
AcDbRegAppTableRecord
  2
ACADM_DIM_EDIT
 70
     0
  0
APPID
  5
3E21
330
9
100
AcDbSymbolTableRecord
100
AcDbRegAppTableRecord
  2
AMDT_DM_ADJ
 70
     0
  0
APPID
  5
4143
330
9
100
AcDbSymbolTableRecord
100
AcDbRegAppTableRecord
  2
GENIUS_GENFIL_13
 70
     0
  0
APPID
  5
4144
330
9
100
AcDbSymbolTableRecord
100
AcDbRegAppTableRecord
  2
GENIUS_GENOBJ-N-CHA_13
 70
     0
  0
APPID
  5
4E17
330
9
100
AcDbSymbolTableRecord
100
AcDbRegAppTableRecord
  2
GEVID1008153417
 70
     0
  0
APPID
  5
4E58
330
9
100
AcDbSymbolTableRecord
100
AcDbRegAppTableRecord
  2
GEVID1008153418
 70
     0
  0
APPID
  5
4E5E
330
9
100
AcDbSymbolTableRecord
100
AcDbRegAppTableRecord
  2
GEVID1008153419
 70
     0
  0
APPID
  5
4E64
330
9
100
AcDbSymbolTableRecord
100
AcDbRegAppTableRecord
  2
GEVID1008153420
 70
     0
  0
APPID
  5
4E75
330
9
100
AcDbSymbolTableRecord
100
AcDbRegAppTableRecord
  2
GEVID1008153421
 70
     0
  0
APPID
  5
4EB7
330
9
100
AcDbSymbolTableRecord
100
AcDbRegAppTableRecord
  2
GENIUS_AMGTXT_16
 70
     0
  0
APPID
  5
7645
330
9
100
AcDbSymbolTableRecord
100
AcDbRegAppTableRecord
  2
GENIUS_GENOBJ-N-DIM_13
 70
     0
  0
APPID
  5
AAD0
330
9
100
AcDbSymbolTableRecord
100
AcDbRegAppTableRecord
  2
ACAD_DSTYLE_DIMARC_LENGTH_SYMBOL
 70
     0
  0
APPID
  5
AAD1
330
9
100
AcDbSymbolTableRecord
100
AcDbRegAppTableRecord
  2
ACAD_DSTYLE_DIMJOGGED_JOGANGLE_SYMBOL
 70
     0
  0
APPID
  5
AAFD
330
9
100
AcDbSymbolTableRecord
100
AcDbRegAppTableRecord
  2
ACAD_PSEXT
 70
     0
  0
APPID
  5
AD61
330
9
100
AcDbSymbolTableRecord
100
AcDbRegAppTableRecord
  2
AcAecLayerStandard
 70
     0
  0
APPID
  5
AEE3
330
9
100
AcDbSymbolTableRecord
100
AcDbRegAppTableRecord
  2
ACAD_EXEMPT_FROM_CAD_STANDARDS
 70
     0
  0
APPID
  5
B1BE
330
9
100
AcDbSymbolTableRecord
100
AcDbRegAppTableRecord
  2
GENIUS_GENCEN_19
 70
     0
  0
APPID
  5
DBFE
330
9
100
AcDbSymbolTableRecord
100
AcDbRegAppTableRecord
  2
ACAD_MLEADERVER
 70
     0
  0
APPID
  5
DC29
330
9
100
AcDbSymbolTableRecord
100
AcDbRegAppTableRecord
  2
ACAUTHENVIRON
 70
     0
  0
APPID
  5
DC2A
330
9
100
AcDbSymbolTableRecord
100
AcDbRegAppTableRecord
  2
AcDbDynamicBlockTrueName
 70
     0
  0
APPID
  5
DC2B
330
9
100
AcDbSymbolTableRecord
100
AcDbRegAppTableRecord
  2
AcDbDynamicBlockGUID
 70
     0
  0
APPID
  5
DC2C
330
9
100
AcDbSymbolTableRecord
100
AcDbRegAppTableRecord
  2
ACDBBLOCKREPETAG
 70
     0
  0
ENDTAB
  0
TABLE
  2
DIMSTYLE
  5
A
330
0
100
AcDbSymbolTable
 70
    41
100
AcDbDimStyleTable
 71
     1
340
2515
  0
DIMSTYLE
105
A76
330
A
100
AcDbSymbolTableRecord
100
AcDbDimStyleTableRecord
  2
STANDARD
 70
     0
 41
3.0
 42
1.0
 43
7.0
 44
2.0
 73
     0
 74
     0
 77
     1
140
2.799999999999999
141
0.0
143
0.0394
147
0.7
171
     4
172
     1
173
     1
176
     3
177
     3
178
     2
271
     3
272
     3
273
     8
274
     4
289
     0
340
A74
341
A66
343
A66
344
A66
  0
DIMSTYLE
105
2515
330
A
100
AcDbSymbolTableRecord
100
AcDbDimStyleTableRecord
  2
SYS
 70
     0
  4
"
 41
1.0
 42
1.0
 43
10.0
 44
1.0
 47
0.1
 48
0.1
 73
     0
 74
     0
 77
     1
 78
     8
 79
     2
140
3.5
141
0.0
143
0.0393701
146
0.71
147
1.5
172
     1
176
   256
177
   256
178
     7
271
     2
272
     2
283
     0
284
     8
340
11
371
    -1
372
    -1
1001
ACAD_DSTYLE_DIMJOGGED_JOGANGLE_SYMBOL
1070
   384
1040
0.7853981633974483
1001
ACAD_DSTYLE_DIMARC_LENGTH_SYMBOL
1070
   379
1070
     1
  0
DIMSTYLE
105
2516
102
{ACAD_REACTORS
330
DE14
102
}
330
A
100
AcDbSymbolTableRecord
100
AcDbDimStyleTableRecord
  2
SYS$3
 70
     0
  4
"
 41
2.0
 42
1.0
 43
10.0
 44
1.0
 47
0.1
 48
0.1
 73
     0
 77
     1
 78
     8
 79
     2
140
3.5
141
0.0
143
0.0393701
146
0.71
147
1.5
176
   256
177
   256
178
     2
271
     2
272
     2
283
     0
284
     8
288
     1
340
11
342
A66
371
    -1
372
    -1
1001
ACAD_DSTYLE_DIMJOGGED_JOGANGLE_SYMBOL
1070
   384
1040
0.7853981633974483
1001
ACAD_DSTYLE_DIMARC_LENGTH_SYMBOL
1070
   379
1070
     1
  0
DIMSTYLE
105
2517
330
A
100
AcDbSymbolTableRecord
100
AcDbDimStyleTableRecord
  2
SYS$4
 70
     0
  4
"
 41
2.0
 42
1.0
 43
10.0
 44
1.0
 47
0.1
 48
0.1
 73
     0
 77
     1
 78
     8
 79
     2
140
3.5
141
0.0
143
0.0393701
146
0.71
147
1.5
173
     1
176
   256
177
   256
178
     2
271
     2
272
     2
283
     0
284
     8
288
     1
340
11
344
A66
371
    -1
372
    -1
1001
ACAD_DSTYLE_DIMJOGGED_JOGANGLE_SYMBOL
1070
   384
1040
0.7853981633974483
1001
ACAD_DSTYLE_DIMARC_LENGTH_SYMBOL
1070
   379
1070
     1
  0
DIMSTYLE
105
2518
330
A
100
AcDbSymbolTableRecord
100
AcDbDimStyleTableRecord
  2
SYS$6
 70
     0
  4
"
 41
2.0
 42
1.0
 43
10.0
 44
1.0
 47
0.1
 48
0.1
 73
     0
 74
     0
 78
     8
 79
     2
140
3.5
141
0.0
143
0.0393701
146
0.71
147
1.5
172
     1
176
   256
177
   256
178
     2
271
     2
272
     2
283
     0
284
     8
340
11
341
A66
371
    -1
372
    -1
1001
ACAD_DSTYLE_DIMJOGGED_JOGANGLE_SYMBOL
1070
   384
1040
0.7853981633974483
1001
ACAD_DSTYLE_DIMARC_LENGTH_SYMBOL
1070
   379
1070
     1
  0
DIMSTYLE
105
2519
330
A
100
AcDbSymbolTableRecord
100
AcDbDimStyleTableRecord
  2
SYS$7
 70
     0
  4
"
 41
2.0
 42
1.0
 43
10.0
 44
1.0
 47
0.1
 48
0.1
 73
     0
 74
     0
 77
     1
 78
     8
 79
     2
140
5.0
141
0.0
143
0.0393701
146
0.71
147
1.5
172
     1
176
   256
177
   256
178
     2
271
     2
272
     2
283
     0
284
     8
340
11
341
A66
342
A66
371
    -1
372
    -1
1001
ACAD_DSTYLE_DIMJOGGED_JOGANGLE_SYMBOL
1070
   384
1040
0.7853981633974483
1001
ACAD_DSTYLE_DIMARC_LENGTH_SYMBOL
1070
   379
1070
     1
  0
DIMSTYLE
105
251A
330
A
100
AcDbSymbolTableRecord
100
AcDbDimStyleTableRecord
  2
SYS$SF
 70
     0
  4
"
 41
2.5
 42
1.0
 43
10.0
 44
1.0
 47
0.1
 48
0.1
 73
     0
 74
     0
 75
     1
 76
     1
 77
     1
 78
     8
 79
     2
140
3.5
141
0.0
143
0.0393701
146
0.71
147
1.5
172
     1
176
   256
177
   256
178
     2
271
     2
272
     3
283
     0
284
     8
340
11
341
6C4
342
6C4
371
    -1
372
    -1
1001
ACAD_DSTYLE_DIMJOGGED_JOGANGLE_SYMBOL
1070
   384
1040
0.7853981633974483
1001
ACAD_DSTYLE_DIMARC_LENGTH_SYMBOL
1070
   379
1070
     1
  0
DIMSTYLE
105
251B
330
A
100
AcDbSymbolTableRecord
100
AcDbDimStyleTableRecord
  2
SYS$SH
 70
     0
  4
"
 41
2.5
 42
1.0
 43
10.0
 44
1.0
 47
0.1
 48
0.1
 73
     0
 74
     0
 75
     1
 76
     1
 77
     1
 78
     8
 79
     2
140
3.5
141
0.0
143
0.0393701
144
2.0
146
0.71
147
1.5
172
     1
173
     1
176
   256
177
   256
178
     2
271
     2
272
     3
283
     0
284
     8
340
11
341
6C4
343
72
344
6C4
371
    -1
372
    -1
1001
ACAD_DSTYLE_DIMJOGGED_JOGANGLE_SYMBOL
1070
   384
1040
0.7853981633974483
1001
ACAD_DSTYLE_DIMARC_LENGTH_SYMBOL
1070
   379
1070
     1
  0
DIMSTYLE
105
2A59
102
{ACAD_REACTORS
330
E3A2
102
}
330
A
100
AcDbSymbolTableRecord
100
AcDbDimStyleTableRecord
  2
SYS$2
 70
     0
  4
"
 41
1.0
 42
1.0
 43
10.0
 44
1.0
 47
0.1
 48
0.1
 73
     0
 74
     0
 77
     1
 78
     8
 79
     2
140
3.5
141
0.0
143
0.0393701
146
0.71
147
1.5
172
     1
176
   256
177
   256
178
     2
271
     2
272
     2
283
     0
284
     8
340
11
342
6C4
371
    -1
372
    -1
1001
ACAD_DSTYLE_DIMJOGGED_JOGANGLE_SYMBOL
1070
   384
1040
0.7853981633974483
1001
ACAD_DSTYLE_DIMARC_LENGTH_SYMBOL
1070
   379
1070
     1
  0
DIMSTYLE
105
2AAB
102
{ACAD_REACTORS
330
DCF6
330
DD0C
330
DD34
330
DDE8
330
DDFE
330
E206
330
E207
330
E208
330
E209
330
E20D
102
}
330
A
100
AcDbSymbolTableRecord
100
AcDbDimStyleTableRecord
  2
SYS$0
 70
     0
  4
"
 41
1.0
 42
1.0
 43
10.0
 44
1.0
 47
0.1
 48
0.1
 73
     0
 74
     0
 77
     1
 78
     8
 79
     2
140
3.200000000000001
141
0.0
143
0.0393701
146
0.71
147
1.5
172
     1
176
   256
177
   256
178
     2
271
     2
272
     2
283
     0
284
     8
340
11
341
A66
342
6C4
371
    -1
372
    -1
1001
ACAD_DSTYLE_DIMJOGGED_JOGANGLE_SYMBOL
1070
   384
1040
0.7853981633974483
1001
ACAD_DSTYLE_DIMARC_LENGTH_SYMBOL
1070
   379
1070
     1
  0
DIMSTYLE
105
AF99
330
A
100
AcDbSymbolTableRecord
100
AcDbDimStyleTableRecord
  2
AM_ISO
 70
     0
  4
"
 41
2.5
 42
1.0
 43
10.0
 44
1.0
 47
0.1
 48
0.1
 73
     0
 74
     0
 77
     1
 78
     8
 79
     2
140
3.5
141
0.0
143
0.0393701
146
0.71
147
1.5
172
     1
176
   256
177
   256
178
     2
271
     2
272
     3
274
     4
283
     0
284
     8
340
11
371
    -1
372
    -1
  0
DIMSTYLE
105
AF9A
330
A
100
AcDbSymbolTableRecord
100
AcDbDimStyleTableRecord
  2
AM_ISO$3
 70
     0
  4
"
 41
2.5
 42
1.0
 43
10.0
 44
1.0
 47
0.1
 48
0.1
 73
     0
 77
     1
 78
     8
 79
     2
140
3.5
141
0.0
143
0.0393701
146
0.71
147
1.5
176
   256
177
   256
178
     2
271
     2
272
     3
274
     4
283
     0
284
     8
288
     1
289
     0
340
11
371
    -1
372
    -1
  0
DIMSTYLE
105
AF9B
330
A
100
AcDbSymbolTableRecord
100
AcDbDimStyleTableRecord
  2
AM_ISO$4
 70
     0
  4
"
 41
2.5
 42
1.0
 43
10.0
 44
1.0
 47
0.1
 48
0.1
 73
     0
 77
     1
 78
     8
 79
     2
140
3.5
141
0.0
143
0.0393701
146
0.71
147
1.5
176
   256
177
   256
178
     2
271
     2
272
     3
274
     4
283
     0
284
     8
288
     1
289
     0
340
11
371
    -1
372
    -1
  0
DIMSTYLE
105
AF9C
330
A
100
AcDbSymbolTableRecord
100
AcDbDimStyleTableRecord
  2
AM_ISO$6
 70
     0
  4
"
 41
2.5
 42
1.0
 43
10.0
 44
1.0
 47
0.1
 48
0.1
 73
     0
 74
     0
 78
     8
 79
     2
140
3.5
141
0.0
143
0.0393701
146
0.71
147
1.5
172
     1
176
   256
177
   256
178
     2
271
     2
272
     3
274
     4
283
     0
284
     8
340
11
371
    -1
372
    -1
  0
DIMSTYLE
105
AF9D
330
A
100
AcDbSymbolTableRecord
100
AcDbDimStyleTableRecord
  2
AM_ISO$7
 70
     0
  4
"
 41
2.5
 42
1.0
 43
10.0
 44
1.0
 47
0.1
 48
0.1
 73
     0
 74
     0
 77
     1
 78
     8
 79
     2
140
5.0
141
0.0
143
0.0393701
146
0.71
147
1.5
172
     1
176
   256
177
   256
178
     2
271
     2
272
     3
274
     4
283
     0
284
     8
340
11
371
    -1
372
    -1
  0
DIMSTYLE
105
AF9E
330
A
100
AcDbSymbolTableRecord
100
AcDbDimStyleTableRecord
  2
AM_ISO$SF
 70
     0
  4
"
 41
2.5
 42
1.0
 43
10.0
 44
1.0
 47
0.1
 48
0.1
 73
     0
 74
     0
 75
     1
 76
     1
 77
     1
 78
     8
 79
     2
140
3.5
141
0.0
143
0.0393701
146
0.71
147
1.5
172
     1
176
   256
177
   256
178
     2
271
     2
272
     3
274
     4
283
     0
284
     8
340
11
371
    -1
372
    -1
  0
DIMSTYLE
105
AF9F
330
A
100
AcDbSymbolTableRecord
100
AcDbDimStyleTableRecord
  2
AM_ISO$SH
 70
     0
  4
"
 41
2.5
 42
1.0
 43
10.0
 44
1.0
 47
0.1
 48
0.1
 73
     0
 74
     0
 75
     1
 76
     1
 77
     1
 78
     8
 79
     2
140
3.5
141
0.0
143
0.0393701
144
2.0
146
0.71
147
1.5
172
     1
173
     1
176
   256
177
   256
178
     2
271
     2
272
     3
274
     4
283
     0
284
     8
340
11
343
72
371
    -1
372
    -1
  0
DIMSTYLE
105
B549
330
A
100
AcDbSymbolTableRecord
100
AcDbDimStyleTableRecord
  2
AM_ANSI
 70
     0
  4
mm
 41
0.1
 42
0.05
 43
0.5
 44
0.1
 47
0.1
 48
0.1
 78
     7
 79
     2
140
0.12
141
0.0
146
0.71
147
0.06
176
   256
177
   256
178
     2
274
     4
284
     7
340
11
371
    -1
372
    -1
1001
ACAD_DSTYLE_DIMARC_LENGTH_SYMBOL
1070
   379
1070
     1
  0
DIMSTYLE
105
B54A
330
A
100
AcDbSymbolTableRecord
100
AcDbDimStyleTableRecord
  2
AM_ANSI$3
 70
     0
  4
mm
 41
0.1
 42
0.05
 43
0.5
 44
0.1
 47
0.1
 48
0.1
 78
     7
 79
     2
140
0.12
141
0.0
146
0.71
147
0.06
176
   256
177
   256
178
     2
274
     4
284
     7
288
     1
289
     0
340
11
371
    -1
372
    -1
1001
ACAD_DSTYLE_DIMARC_LENGTH_SYMBOL
1070
   379
1070
     1
  0
DIMSTYLE
105
B54B
330
A
100
AcDbSymbolTableRecord
100
AcDbDimStyleTableRecord
  2
AM_ANSI$4
 70
     0
  4
mm
 41
0.1
 42
0.05
 43
0.5
 44
0.1
 47
0.1
 48
0.1
 78
     7
 79
     2
140
0.12
141
0.0
146
0.71
147
0.06
176
   256
177
   256
178
     2
274
     4
284
     7
288
     1
289
     0
340
11
371
    -1
372
    -1
1001
ACAD_DSTYLE_DIMARC_LENGTH_SYMBOL
1070
   379
1070
     1
  0
DIMSTYLE
105
B54C
330
A
100
AcDbSymbolTableRecord
100
AcDbDimStyleTableRecord
  2
AM_ANSI$7
 70
     0
  4
mm
 41
0.1
 42
0.05
 43
0.5
 44
0.1
 47
0.1
 48
0.1
 78
     7
 79
     2
140
0.24
141
0.0
146
0.71
147
0.06
176
   256
177
   256
178
     2
274
     4
284
     7
340
11
371
    -1
372
    -1
1001
ACAD_DSTYLE_DIMARC_LENGTH_SYMBOL
1070
   379
1070
     1
  0
DIMSTYLE
105
B54D
330
A
100
AcDbSymbolTableRecord
100
AcDbDimStyleTableRecord
  2
AM_ANSI$SF
 70
     0
  4
mm
 41
0.1
 42
0.05
 43
0.5
 44
0.1
 47
0.1
 48
0.1
 75
     1
 76
     1
 78
     7
 79
     2
140
0.12
141
0.0
146
0.71
147
0.06
176
   256
177
   256
178
     2
274
     4
284
     7
340
11
371
    -1
372
    -1
1001
ACAD_DSTYLE_DIMARC_LENGTH_SYMBOL
1070
   379
1070
     1
  0
DIMSTYLE
105
B54E
330
A
100
AcDbSymbolTableRecord
100
AcDbDimStyleTableRecord
  2
AM_ANSI$SH
 70
     0
  4
mm
 41
0.1
 42
0.05
 43
0.5
 44
0.1
 47
0.1
 48
0.1
 75
     1
 76
     1
 78
     7
 79
     2
140
0.12
141
0.0
146
0.71
147
0.06
173
     1
176
   256
177
   256
178
     2
274
     4
284
     7
340
11
343
72
371
    -1
372
    -1
1001
ACAD_DSTYLE_DIMARC_LENGTH_SYMBOL
1070
   379
1070
     1
  0
DIMSTYLE
105
B797
330
A
100
AcDbSymbolTableRecord
100
AcDbDimStyleTableRecord
  2
AM_JIS
 70
     0
  4
"
 41
2.0
 42
1.0
 43
10.0
 44
1.0
 47
0.1
 48
0.1
 73
     0
 74
     0
 77
     3
 78
     8
140
3.0
141
0.0
143
0.0393701
146
0.71
147
1.6
172
     1
176
   256
177
   256
178
     1
271
     2
272
     2
279
     2
284
     8
285
     8
286
     8
340
11
  0
DIMSTYLE
105
D24B
330
A
100
AcDbSymbolTableRecord
100
AcDbDimStyleTableRecord
  2
ME10_DIM_0
 70
     0
 41
2.24
 42
1.0
 44
1.0
 73
     0
 74
     0
 77
     1
 78
     8
140
3.2
147
0.625
172
     1
173
     1
176
     2
177
     2
178
     3
271
     3
340
D244
341
A66
343
A66
344
A66
  0
DIMSTYLE
105
D24C
330
A
100
AcDbSymbolTableRecord
100
AcDbDimStyleTableRecord
  2
ME10_DIM_1
 70
     0
 41
2.24
 42
1.0
 44
1.0
 73
     0
 74
     0
 77
     1
 78
     8
140
3.2
147
0.625
172
     1
173
     1
176
     2
177
     2
178
     3
271
     3
340
D244
341
A66
343
A66
344
A66
  0
DIMSTYLE
105
D24D
330
A
100
AcDbSymbolTableRecord
100
AcDbDimStyleTableRecord
  2
ME10_DIM_2
 70
     0
 41
2.24
 42
1.0
 44
1.0
 73
     0
 74
     0
 77
     1
 78
     8
140
3.2
147
0.625
172
     1
173
     1
176
     2
177
     2
178
     3
271
     3
340
D244
341
A66
343
A66
344
A66
  0
DIMSTYLE
105
D24E
330
A
100
AcDbSymbolTableRecord
100
AcDbDimStyleTableRecord
  2
ME10_DIM_3
 70
     0
 41
2.24
 42
1.0
 44
1.0
 73
     0
 74
     0
 77
     1
 78
     8
140
3.2
147
0.625
172
     1
173
     1
176
     2
177
     2
178
     3
271
     3
340
D244
341
A66
343
A66
344
A66
  0
DIMSTYLE
105
D24F
330
A
100
AcDbSymbolTableRecord
100
AcDbDimStyleTableRecord
  2
ME10_DIM_4
 70
     0
 41
2.24
 42
1.0
 44
1.0
 73
     0
 74
     0
 77
     1
 78
     8
140
3.2
147
0.625
172
     1
173
     1
176
     2
177
     2
178
     3
271
     3
340
D244
341
A66
343
A66
344
A66
  0
DIMSTYLE
105
D250
330
A
100
AcDbSymbolTableRecord
100
AcDbDimStyleTableRecord
  2
ME10_DIM_5
 70
     0
 41
2.24
 42
1.0
 44
1.0
 73
     0
 74
     0
 77
     1
 78
     8
140
3.2
147
0.625
172
     1
173
     1
176
     2
177
     2
178
     3
271
     3
340
D244
341
A66
343
A66
344
A66
  0
DIMSTYLE
105
D251
330
A
100
AcDbSymbolTableRecord
100
AcDbDimStyleTableRecord
  2
ME10_DIM_6
 70
     0
 41
2.24
 42
1.0
 44
1.0
 73
     0
 74
     0
 77
     1
 78
     8
140
3.2
147
0.625
172
     1
173
     1
176
     2
177
     2
178
     3
271
     3
340
D244
341
A66
343
A66
344
A66
  0
DIMSTYLE
105
D252
330
A
100
AcDbSymbolTableRecord
100
AcDbDimStyleTableRecord
  2
ME10_DIM_7
 70
     0
 41
2.24
 42
1.0
 44
1.0
 73
     0
 74
     0
 77
     1
 78
     8
140
3.2
147
0.625
172
     1
173
     1
176
     2
177
     2
178
     3
271
     3
340
D244
341
A66
343
A66
344
A66
  0
DIMSTYLE
105
D253
330
A
100
AcDbSymbolTableRecord
100
AcDbDimStyleTableRecord
  2
ME10_DIM_8
 70
     0
 41
2.24
 42
1.0
 44
1.0
 73
     0
 74
     0
 77
     1
 78
     8
140
3.2
147
0.625
172
     1
173
     1
176
     2
177
     2
178
     3
271
     3
340
D244
341
A66
343
A66
344
A66
  0
DIMSTYLE
105
D254
330
A
100
AcDbSymbolTableRecord
100
AcDbDimStyleTableRecord
  2
ME10_DIM_9
 70
     0
 41
2.24
 42
1.0
 44
1.0
 73
     0
 74
     0
 77
     1
 78
     8
140
3.2
147
0.625
172
     1
173
     1
176
     2
177
     2
178
     3
271
     3
340
D244
341
A66
343
A66
344
A66
  0
DIMSTYLE
105
D255
330
A
100
AcDbSymbolTableRecord
100
AcDbDimStyleTableRecord
  2
ME10_DIM_10
 70
     0
 41
2.24
 42
1.0
 44
1.0
 73
     0
 74
     0
 77
     1
 78
     8
140
3.2
147
0.625
172
     1
173
     1
176
     2
177
     2
178
     3
271
     3
340
D244
341
A66
343
A66
344
A66
  0
DIMSTYLE
105
D256
330
A
100
AcDbSymbolTableRecord
100
AcDbDimStyleTableRecord
  2
ME10_DIM_11
 70
     0
 41
2.24
 42
1.0
 44
1.0
 73
     0
 74
     0
 77
     1
 78
     8
140
3.2
147
0.625
172
     1
173
     1
176
     2
177
     2
178
     3
271
     3
340
D244
341
A66
343
A66
344
A66
  0
DIMSTYLE
105
D257
330
A
100
AcDbSymbolTableRecord
100
AcDbDimStyleTableRecord
  2
ME10_DIM_12
 70
     0
 41
2.24
 42
1.0
 44
1.0
 73
     0
 74
     0
 77
     1
 78
     8
140
3.2
147
0.625
172
     1
173
     1
176
     2
177
     2
178
     3
271
     3
340
D245
341
A66
343
A66
344
A66
  0
DIMSTYLE
105
D258
330
A
100
AcDbSymbolTableRecord
100
AcDbDimStyleTableRecord
  2
ME10_DIM_13
 70
     0
 41
2.24
 42
1.0
 44
1.0
 73
     0
 74
     0
 77
     1
 78
     8
140
3.2
147
0.625
172
     1
173
     1
176
     2
177
     2
178
     3
271
     3
340
D245
341
A66
343
A66
344
A66
  0
DIMSTYLE
105
D259
330
A
100
AcDbSymbolTableRecord
100
AcDbDimStyleTableRecord
  2
ME10_DIM_14
 70
     0
  3
{\Fgdt;n}<>
 41
2.24
 42
1.0
 44
1.0
 73
     0
 74
     0
 77
     1
 78
     8
140
3.2
147
0.625
172
     1
173
     1
176
     2
177
     2
178
     3
271
     3
340
D244
341
A66
343
A66
344
A66
  0
DIMSTYLE
105
D25A
330
A
100
AcDbSymbolTableRecord
100
AcDbDimStyleTableRecord
  2
ME10_DIM_15
 70
     0
  3
(<>)
 41
2.24
 42
1.0
 44
1.0
 73
     0
 74
     0
 77
     1
 78
     8
140
3.2
147
0.625
172
     1
173
     1
176
     2
177
     2
178
     3
271
     2
340
D244
341
A66
343
A66
344
A66
  0
DIMSTYLE
105
D25B
330
A
100
AcDbSymbolTableRecord
100
AcDbDimStyleTableRecord
  2
ME10_DIM_16
 70
     0
  3
(<>)
 41
2.24
 42
1.0
 44
1.0
 73
     0
 74
     0
 77
     1
 78
     8
140
3.2
147
0.625
172
     1
173
     1
176
     2
177
     2
178
     3
271
     2
340
D244
341
A66
343
A66
344
A66
  0
ENDTAB
  0
TABLE
  2
BLOCK_RECORD
  5
1
330
0
100
AcDbSymbolTable
 70
    18
  0
BLOCK_RECORD
  5
1F
102
{ACAD_XDICTIONARY
360
8A
102
}
330
1
100
AcDbSymbolTableRecord
100
AcDbBlockTableRecord
  2
*Model_Space
340
22
  0
BLOCK_RECORD
  5
1B
330
1
100
AcDbSymbolTableRecord
100
AcDbBlockTableRecord
  2
*Paper_Space
340
1E
  0
BLOCK_RECORD
  5
23
330
1
100
AcDbSymbolTableRecord
100
AcDbBlockTableRecord
  2
*Paper_Space0
340
26
  0
BLOCK_RECORD
  5
72
330
1
100
AcDbSymbolTableRecord
100
AcDbBlockTableRecord
  2
GENAXEH
340
0
  0
BLOCK_RECORD
  5
6C4
330
1
100
AcDbSymbolTableRecord
100
AcDbBlockTableRecord
  2
_Dot
340
0
102
{BLKREFS
331
E699
331
E69A
331
E6A2
331
E6A3
331
E6AB
331
E6AC
331
E6B4
331
E6B5
331
E6BD
331
E6BE
331
E6CF
331
E6D0
331
E6DA
331
E6DB
331
E6E5
331
E6E6
331
E6EE
331
E6EF
331
E6F7
331
E6F8
102
}
  0
BLOCK_RECORD
  5
A66
330
1
100
AcDbSymbolTableRecord
100
AcDbBlockTableRecord
  2
_OPEN30
340
0
102
{BLKREFS
331
E6FE
331
E6FF
102
}
  0
BLOCK_RECORD
  5
DCF7
330
1
100
AcDbSymbolTableRecord
100
AcDbBlockTableRecord
  2
*D5
340
0
  0
BLOCK_RECORD
  5
DD0D
330
1
100
AcDbSymbolTableRecord
100
AcDbBlockTableRecord
  2
*D6
340
0
  0
BLOCK_RECORD
  5
DD35
330
1
100
AcDbSymbolTableRecord
100
AcDbBlockTableRecord
  2
*D7
340
0
  0
BLOCK_RECORD
  5
DDE9
330
1
100
AcDbSymbolTableRecord
100
AcDbBlockTableRecord
  2
*D8
340
0
  0
BLOCK_RECORD
  5
DDFF
330
1
100
AcDbSymbolTableRecord
100
AcDbBlockTableRecord
  2
*D9
340
0
  0
BLOCK_RECORD
  5
DE15
330
1
100
AcDbSymbolTableRecord
100
AcDbBlockTableRecord
  2
*D10
340
0
  0
BLOCK_RECORD
  5
DE4A
330
1
100
AcDbSymbolTableRecord
100
AcDbBlockTableRecord
  2
GENDOT
340
0
102
{BLKREFS
331
E6C8
331
E6C9
102
}
  0
BLOCK_RECORD
  5
E20E
330
1
100
AcDbSymbolTableRecord
100
AcDbBlockTableRecord
  2
*D12
340
0
  0
BLOCK_RECORD
  5
E21A
330
1
100
AcDbSymbolTableRecord
100
AcDbBlockTableRecord
  2
*D13
340
0
  0
BLOCK_RECORD
  5
E228
330
1
100
AcDbSymbolTableRecord
100
AcDbBlockTableRecord
  2
*D14
340
0
  0
BLOCK_RECORD
  5
E236
330
1
100
AcDbSymbolTableRecord
100
AcDbBlockTableRecord
  2
*D15
340
0
  0
BLOCK_RECORD
  5
E242
330
1
100
AcDbSymbolTableRecord
100
AcDbBlockTableRecord
  2
*D16
340
0
  0
BLOCK_RECORD
  5
E3A3
330
1
100
AcDbSymbolTableRecord
100
AcDbBlockTableRecord
  2
*D17
340
0
  0
ENDTAB
  0
ENDSEC
  0
SECTION
  2
BLOCKS
  0
BLOCK
  5
20
330
1F
100
AcDbEntity
  8
0
100
AcDbBlockBegin
  2
*Model_Space
 70
     0
 10
0.0
 20
0.0
 30
0.0
  3
*Model_Space
  1

  0
ENDBLK
  5
21
330
1F
100
AcDbEntity
  8
0
100
AcDbBlockEnd
  0
BLOCK
  5
1C
330
1B
100
AcDbEntity
 67
     1
  8
0
100
AcDbBlockBegin
  2
*Paper_Space
 70
     0
 10
0.0
 20
0.0
 30
0.0
  3
*Paper_Space
  1

  0
ENDBLK
  5
1D
330
1B
100
AcDbEntity
 67
     1
  8
0
100
AcDbBlockEnd
  0
BLOCK
  5
24
330
23
100
AcDbEntity
 67
     1
  8
0
100
AcDbBlockBegin
  2
*Paper_Space0
 70
     0
 10
0.0
 20
0.0
 30
0.0
  3
*Paper_Space0
  1

  0
ENDBLK
  5
25
330
23
100
AcDbEntity
 67
     1
  8
0
100
AcDbBlockEnd
  0
BLOCK
  5
74
330
72
100
AcDbEntity
  8
0
100
AcDbBlockBegin
  2
GENAXEH
 70
     0
 10
0.0
 20
0.0
 30
0.0
  3
GENAXEH
  1

  0
LINE
  5
73
330
72
100
AcDbEntity
  8
0
100
AcDbLine
 10
-1.0
 20
0.0
 30
0.0
 11
1.0
 21
0.0
 31
0.0
  0
ENDBLK
  5
75
330
72
100
AcDbEntity
  8
0
100
AcDbBlockEnd
  0
BLOCK
  5
6C7
330
6C4
100
AcDbEntity
  8
0
100
AcDbBlockBegin
  2
_Dot
 70
     0
 10
0.0
 20
0.0
 30
0.0
  3
_Dot
  1

  0
LWPOLYLINE
  5
6C5
330
6C4
100
AcDbEntity
  8
0
  6
ByBlock
 62
     0
100
AcDbPolyline
 90
        2
 70
     1
 43
0.5
 10
-0.25
 20
0.0
 42
1.0
 10
0.25
 20
0.0
 42
1.0
  0
LINE
  5
6C6
330
6C4
100
AcDbEntity
  8
0
  6
ByBlock
 62
     0
370
    -2
100
AcDbLine
 10
-0.5
 20
0.0
 30
0.0
 11
-1.0
 21
0.0
 31
0.0
  0
ENDBLK
  5
6C8
330
6C4
100
AcDbEntity
  8
0
100
AcDbBlockEnd
  0
BLOCK
  5
A6A
330
A66
100
AcDbEntity
  8
0
100
AcDbBlockBegin
  2
_OPEN30
 70
     0
 10
0.0
 20
0.0
 30
0.0
  3
_OPEN30
  1

  0
LINE
  5
A67
330
A66
100
AcDbEntity
  8
0
  6
ByBlock
 62
     0
100
AcDbLine
 10
-1.0
 20
0.26794919
 30
0.0
 11
0.0
 21
0.0
 31
0.0
  0
LINE
  5
A68
330
A66
100
AcDbEntity
  8
0
  6
ByBlock
 62
     0
100
AcDbLine
 10
0.0
 20
0.0
 30
0.0
 11
-1.0
 21
-0.26794919
 31
0.0
  0
LINE
  5
A69
330
A66
100
AcDbEntity
  8
0
  6
ByBlock
 62
     0
100
AcDbLine
 10
0.0
 20
0.0
 30
0.0
 11
-1.0
 21
0.0
 31
0.0
  0
ENDBLK
  5
A6B
330
A66
100
AcDbEntity
  8
0
100
AcDbBlockEnd
  0
BLOCK
  5
DD01
330
DCF7
100
AcDbEntity
  8
0
100
AcDbBlockBegin
  2
*D5
 70
     1
 10
0.0
 20
0.0
 30
0.0
  3
*D5
  1

  0
LINE
  5
E696
330
DCF7
100
AcDbEntity
  8
AM_5
100
AcDbLine
 10
72.94744545868574
 20
145.8300722814826
 30
0.0
 11
72.94744545868574
 21
177.8300722814826
 31
0.0
  0
LINE
  5
E697
330
DCF7
100
AcDbEntity
  8
AM_5
100
AcDbLine
 10
116.9474454586857
 20
143.3300722814826
 30
0.0
 11
116.9474454586857
 21
177.8300722814826
 31
0.0
  0
LINE
  5
E698
330
DCF7
100
AcDbEntity
  8
AM_5
100
AcDbLine
 10
73.94744545868573
 20
176.8300722814826
 30
0.0
 11
115.9474454586857
 21
176.8300722814826
 31
0.0
  0
INSERT
  5
E699
330
DCF7
100
AcDbEntity
  8
AM_5
100
AcDbBlockReference
  2
_Dot
 10
72.94744545868574
 20
176.8300722814826
 30
0.0
 50
180.0
  0
INSERT
  5
E69A
330
DCF7
100
AcDbEntity
  8
AM_5
100
AcDbBlockReference
  2
_Dot
 10
116.9474454586857
 20
176.8300722814826
 30
0.0
  0
MTEXT
  5
E69B
330
DCF7
100
AcDbEntity
  8
AM_5
 62
     2
100
AcDbMText
 10
94.94744545868574
 20
179.9300722814827
 30
0.0
 40
3.200000000000001
 41
0.0
 71
     5
 72
     1
  1
44
 73
     1
 44
1.0
1001
ACAD
1000
MTEXTBEGIN
1070
    73
1070
     1
1070
    44
1040
1.0
1070
    74
1070
     0
1000
MTEXTEND
  0
POINT
  5
E69C
330
DCF7
100
AcDbEntity
  8
Defpoints
 62
     0
100
AcDbPoint
 10
72.94744545868574
 20
144.8300722814826
 30
0.0
  0
POINT
  5
E69D
330
DCF7
100
AcDbEntity
  8
Defpoints
 62
     0
100
AcDbPoint
 10
116.9474454586857
 20
142.3300722814826
 30
0.0
  0
POINT
  5
E69E
330
DCF7
100
AcDbEntity
  8
Defpoints
 62
     0
100
AcDbPoint
 10
116.9474454586857
 20
176.8300722814826
 30
0.0
  0
ENDBLK
  5
DD02
330
DCF7
100
AcDbEntity
  8
0
100
AcDbBlockEnd
  0
BLOCK
  5
DD17
330
DD0D
100
AcDbEntity
  8
0
100
AcDbBlockBegin
  2
*D6
 70
     1
 10
0.0
 20
0.0
 30
0.0
  3
*D6
  1

  0
LINE
  5
E69F
330
DD0D
100
AcDbEntity
  8
AM_5
100
AcDbLine
 10
81.90215388178572
 20
140.9800722814825
 30
0.0
 11
81.90215388178572
 21
157.8300722814825
 31
0.0
  0
LINE
  5
E6A0
330
DD0D
100
AcDbEntity
  8
AM_5
100
AcDbLine
 10
107.9021538817858
 20
140.9800722814825
 30
0.0
 11
107.9021538817858
 21
157.8300722814825
 31
0.0
  0
LINE
  5
E6A1
330
DD0D
100
AcDbEntity
  8
AM_5
100
AcDbLine
 10
82.90215388178571
 20
156.8300722814825
 30
0.0
 11
106.9021538817858
 21
156.8300722814825
 31
0.0
  0
INSERT
  5
E6A2
330
DD0D
100
AcDbEntity
  8
AM_5
100
AcDbBlockReference
  2
_Dot
 10
81.90215388178572
 20
156.8300722814825
 30
0.0
 50
180.0
  0
INSERT
  5
E6A3
330
DD0D
100
AcDbEntity
  8
AM_5
100
AcDbBlockReference
  2
_Dot
 10
107.9021538817858
 20
156.8300722814825
 30
0.0
  0
MTEXT
  5
E6A4
330
DD0D
100
AcDbEntity
  8
AM_5
 62
     2
100
AcDbMText
 10
94.90215388178578
 20
159.9300722814825
 30
0.0
 40
3.200000000000001
 41
0.0
 71
     5
 72
     1
  1
26
 73
     1
 44
1.0
1001
ACAD
1000
MTEXTBEGIN
1070
    73
1070
     1
1070
    44
1040
1.0
1070
    74
1070
     0
1000
MTEXTEND
  0
POINT
  5
E6A5
330
DD0D
100
AcDbEntity
  8
Defpoints
 62
     0
100
AcDbPoint
 10
81.90215388178572
 20
139.9800722814825
 30
0.0
  0
POINT
  5
E6A6
330
DD0D
100
AcDbEntity
  8
Defpoints
 62
     0
100
AcDbPoint
 10
107.9021538817858
 20
139.9800722814825
 30
0.0
  0
POINT
  5
E6A7
330
DD0D
100
AcDbEntity
  8
Defpoints
 62
     0
100
AcDbPoint
 10
107.9021538817858
 20
156.8300722814825
 30
0.0
  0
ENDBLK
  5
DD18
330
DD0D
100
AcDbEntity
  8
0
100
AcDbBlockEnd
  0
BLOCK
  5
DD3F
330
DD35
100
AcDbEntity
  8
0
100
AcDbBlockBegin
  2
*D7
 70
     1
 10
0.0
 20
0.0
 30
0.0
  3
*D7
  1

  0
LINE
  5
E6A8
330
DD35
100
AcDbEntity
  8
AM_5
100
AcDbLine
 10
77.90215388178572
 20
123.9800722814825
 30
0.0
 11
77.90215388178572
 21
167.8300722814824
 31
0.0
  0
LINE
  5
E6A9
330
DD35
100
AcDbEntity
  8
AM_5
100
AcDbLine
 10
111.9021538817858
 20
123.9800722814825
 30
0.0
 11
111.9021538817858
 21
167.8300722814824
 31
0.0
  0
LINE
  5
E6AA
330
DD35
100
AcDbEntity
  8
AM_5
100
AcDbLine
 10
78.90215388178572
 20
166.8300722814824
 30
0.0
 11
110.9021538817858
 21
166.8300722814824
 31
0.0
  0
INSERT
  5
E6AB
330
DD35
100
AcDbEntity
  8
AM_5
100
AcDbBlockReference
  2
_Dot
 10
77.90215388178572
 20
166.8300722814824
 30
0.0
 50
180.0
  0
INSERT
  5
E6AC
330
DD35
100
AcDbEntity
  8
AM_5
100
AcDbBlockReference
  2
_Dot
 10
111.9021538817858
 20
166.8300722814824
 30
0.0
  0
MTEXT
  5
E6AD
330
DD35
100
AcDbEntity
  8
AM_5
 62
     2
100
AcDbMText
 10
94.90215388178578
 20
169.9300722814824
 30
0.0
 40
3.200000000000001
 41
0.0
 71
     5
 72
     1
  1
34
 73
     1
 44
1.0
1001
ACAD
1000
MTEXTBEGIN
1070
    73
1070
     1
1070
    44
1040
1.0
1070
    74
1070
     0
1000
MTEXTEND
  0
POINT
  5
E6AE
330
DD35
100
AcDbEntity
  8
Defpoints
 62
     0
100
AcDbPoint
 10
77.90215388178572
 20
122.9800722814825
 30
0.0
  0
POINT
  5
E6AF
330
DD35
100
AcDbEntity
  8
Defpoints
 62
     0
100
AcDbPoint
 10
111.9021538817858
 20
122.9800722814825
 30
0.0
  0
POINT
  5
E6B0
330
DD35
100
AcDbEntity
  8
Defpoints
 62
     0
100
AcDbPoint
 10
111.9021538817858
 20
166.8300722814824
 30
0.0
  0
ENDBLK
  5
DD40
330
DD35
100
AcDbEntity
  8
0
100
AcDbBlockEnd
  0
BLOCK
  5
DDF3
330
DDE9
100
AcDbEntity
  8
0
100
AcDbBlockBegin
  2
*D8
 70
     1
 10
0.0
 20
0.0
 30
0.0
  3
*D8
  1

  0
LINE
  5
E6B1
330
DDE9
100
AcDbEntity
  8
AM_5
100
AcDbLine
 10
117.9474454586857
 20
36.85376189812081
 30
0.0
 11
129.9474454586857
 21
36.85376189812081
 31
0.0
  0
LINE
  5
E6B2
330
DDE9
100
AcDbEntity
  8
AM_5
100
AcDbLine
 10
121.9474454586857
 20
44.85376189812072
 30
0.0
 11
129.9474454586857
 21
44.85376189812072
 31
0.0
  0
LINE
  5
E6B3
330
DDE9
100
AcDbEntity
  8
AM_5
100
AcDbLine
 10
128.9474454586857
 20
37.85376189812081
 30
0.0
 11
128.9474454586857
 21
43.85376189812072
 31
0.0
  0
INSERT
  5
E6B4
330
DDE9
100
AcDbEntity
  8
AM_5
100
AcDbBlockReference
  2
_Dot
 10
128.9474454586857
 20
36.85376189812081
 30
0.0
 50
270.0
  0
INSERT
  5
E6B5
330
DDE9
100
AcDbEntity
  8
AM_5
100
AcDbBlockReference
  2
_Dot
 10
128.9474454586857
 20
44.85376189812072
 30
0.0
 50
90.0
  0
MTEXT
  5
E6B6
330
DDE9
100
AcDbEntity
  8
AM_5
 62
     2
100
AcDbMText
 10
125.8474454586858
 20
40.85376189812079
 30
0.0
 40
3.200000000000001
 41
0.0
 71
     5
 72
     1
  1
8
 11
0.0000000000000001
 21
1.0
 31
0.0
 73
     1
 44
1.0
1001
ACAD
1000
MTEXTBEGIN
1070
    73
1070
     1
1070
    44
1040
1.0
1070
    74
1070
     0
1000
MTEXTEND
  0
POINT
  5
E6B7
330
DDE9
100
AcDbEntity
  8
Defpoints
 62
     0
100
AcDbPoint
 10
116.9474454586857
 20
36.85376189812081
 30
0.0
  0
POINT
  5
E6B8
330
DDE9
100
AcDbEntity
  8
Defpoints
 62
     0
100
AcDbPoint
 10
120.9474454586857
 20
44.85376189812072
 30
0.0
  0
POINT
  5
E6B9
330
DDE9
100
AcDbEntity
  8
Defpoints
 62
     0
100
AcDbPoint
 10
128.9474454586857
 20
44.85376189812072
 30
0.0
  0
ENDBLK
  5
DDF4
330
DDE9
100
AcDbEntity
  8
0
100
AcDbBlockEnd
  0
BLOCK
  5
DE09
330
DDFF
100
AcDbEntity
  8
0
100
AcDbBlockBegin
  2
*D9
 70
     1
 10
0.0
 20
0.0
 30
0.0
  3
*D9
  1

  0
LINE
  5
E6BA
330
DDFF
100
AcDbEntity
  8
AM_5
100
AcDbLine
 10
117.9474454586857
 20
36.85376189812081
 30
0.0
 11
139.9474454586858
 21
36.85376189812081
 31
0.0
  0
LINE
  5
E6BB
330
DDFF
100
AcDbEntity
  8
AM_5
100
AcDbLine
 10
95.90215388178572
 20
52.35376189808391
 30
0.0
 11
139.9474454586858
 21
52.35376189808391
 31
0.0
  0
LINE
  5
E6BC
330
DDFF
100
AcDbEntity
  8
AM_5
100
AcDbLine
 10
138.9474454586858
 20
37.85376189812081
 30
0.0
 11
138.9474454586858
 21
51.35376189808391
 31
0.0
  0
INSERT
  5
E6BD
330
DDFF
100
AcDbEntity
  8
AM_5
100
AcDbBlockReference
  2
_Dot
 10
138.9474454586858
 20
36.85376189812081
 30
0.0
 50
270.0
  0
INSERT
  5
E6BE
330
DDFF
100
AcDbEntity
  8
AM_5
100
AcDbBlockReference
  2
_Dot
 10
138.9474454586858
 20
52.35376189808391
 30
0.0
 50
90.0
  0
MTEXT
  5
E6BF
330
DDFF
100
AcDbEntity
  8
AM_5
 62
     2
100
AcDbMText
 10
135.8474454586858
 20
44.60376189810238
 30
0.0
 40
3.200000000000001
 41
0.0
 71
     5
 72
     1
  1
15.5
 11
0.0000000000000001
 21
1.0
 31
0.0
 73
     1
 44
1.0
1001
ACAD
1000
MTEXTBEGIN
1070
    73
1070
     1
1070
    44
1040
1.0
1070
    74
1070
     0
1000
MTEXTEND
  0
POINT
  5
E6C0
330
DDFF
100
AcDbEntity
  8
Defpoints
 62
     0
100
AcDbPoint
 10
116.9474454586857
 20
36.85376189812081
 30
0.0
  0
POINT
  5
E6C1
330
DDFF
100
AcDbEntity
  8
Defpoints
 62
     0
100
AcDbPoint
 10
94.90215388178572
 20
52.35376189808391
 30
0.0
  0
POINT
  5
E6C2
330
DDFF
100
AcDbEntity
  8
Defpoints
 62
     0
100
AcDbPoint
 10
138.9474454586858
 20
52.35376189808391
 30
0.0
  0
ENDBLK
  5
DE0A
330
DDFF
100
AcDbEntity
  8
0
100
AcDbBlockEnd
  0
BLOCK
  5
DE1B
330
DE15
100
AcDbEntity
  8
0
100
AcDbBlockBegin
  2
*D10
 70
     1
 10
0.0
 20
0.0
 30
0.0
  3
*D10
  1

  0
LINE
  5
E6C3
330
DE15
100
AcDbEntity
  8
AM_5
100
AcDbLine
 10
140.7570332196302
 20
156.8300722814829
 30
0.0
 11
125.3386998862963
 21
156.830072281483
 31
0.0
  0
LINE
  5
E6C4
330
DE15
100
AcDbEntity
  8
AM_5
100
AcDbLine
 10
125.3386998862963
 20
156.830072281483
 30
0.0
 11
110.479877298271
 21
138.0824317308829
 31
0.0
  0
LINE
  5
E6C5
330
DE15
100
AcDbEntity
  8
AM_5
100
AcDbLine
 10
105.3244304653008
 20
131.5777128320822
 30
0.0
 11
104.0821541200067
 21
130.0103106877928
 31
0.0
  0
MTEXT
  5
E6C6
330
DE15
100
AcDbEntity
  8
AM_5
 62
     2
100
AcDbMText
 10
134.4570332196302
 20
160.0800722814829
 30
0.0
 40
3.5
 41
0.0
 71
     5
 72
     1
  1
6-\U+22054.3
 73
     1
 44
1.0
1001
ACAD
1000
MTEXTBEGIN
1070
    73
1070
     1
1070
    44
1040
1.0
1070
    74
1070
     0
1000
MTEXTEND
  0
LINE
  5
E6C7
330
DE15
100
AcDbEntity
  8
AM_5
100
AcDbLine
 10
106.5667068105948
 20
133.1451149763715
 30
0.0
 11
109.2376009529769
 21
136.5150295865936
 31
0.0
  0
INSERT
  5
E6C8
330
DE15
100
AcDbEntity
  8
AM_5
100
AcDbBlockReference
  2
GENDOT
 10
106.5667068105948
 20
133.1451149763715
 30
0.0
 41
2.0
 42
2.0
 43
2.0
 50
51.60070240990823
  0
INSERT
  5
E6C9
330
DE15
100
AcDbEntity
  8
AM_5
100
AcDbBlockReference
  2
GENDOT
 10
109.2376009529769
 20
136.5150295865936
 30
0.0
 41
2.0
 42
2.0
 43
2.0
 50
231.6007024099082
  0
POINT
  5
E6CA
330
DE15
100
AcDbEntity
  8
Defpoints
 62
     0
100
AcDbPoint
 10
109.2376009529769
 20
136.5150295865936
 30
0.0
  0
POINT
  5
E6CB
330
DE15
100
AcDbEntity
  8
Defpoints
 62
     0
100
AcDbPoint
 10
106.5667068105948
 20
133.1451149763715
 30
0.0
  0
ENDBLK
  5
DE1C
330
DE15
100
AcDbEntity
  8
0
100
AcDbBlockEnd
  0
BLOCK
  5
DE4D
330
DE4A
100
AcDbEntity
  8
0
100
AcDbBlockBegin
  2
GENDOT
 70
     0
 10
0.0
 20
0.0
 30
0.0
  3
GENDOT
  1

  0
LINE
  5
DE4B
330
DE4A
100
AcDbEntity
  8
0
100
AcDbLine
 10
0.0
 20
0.0
 30
0.0
 11
-1.0
 21
0.0
 31
0.0
  0
LWPOLYLINE
  5
DE4C
330
DE4A
100
AcDbEntity
  8
0
100
AcDbPolyline
 90
        2
 70
     1
 43
0.25
 10
-0.125
 20
0.0
 42
1.0
 10
0.125
 20
0.0
 42
1.0
  0
ENDBLK
  5
DE4E
330
DE4A
100
AcDbEntity
  8
0
100
AcDbBlockEnd
  0
BLOCK
  5
E218
330
E20E
100
AcDbEntity
  8
0
100
AcDbBlockBegin
  2
*D12
 70
     1
 10
0.0
 20
0.0
 30
0.0
  3
*D12
  1

  0
LINE
  5
E6CC
330
E20E
100
AcDbEntity
  8
AM_5
100
AcDbLine
 10
71.94744545868573
 20
144.8300722814826
 30
0.0
 11
59.94744445868573
 21
144.8300722814826
 31
0.0
  0
LINE
  5
E6CD
330
E20E
100
AcDbEntity
  8
AM_5
100
AcDbLine
 10
71.94744545868573
 20
90.83007228148261
 30
0.0
 11
59.94744445868571
 21
90.83007228148261
 31
0.0
  0
LINE
  5
E6CE
330
E20E
100
AcDbEntity
  8
AM_5
100
AcDbLine
 10
60.94744445868571
 20
143.8300722814826
 30
0.0
 11
60.9474444586857
 21
91.83007228148261
 31
0.0
  0
INSERT
  5
E6CF
330
E20E
100
AcDbEntity
  8
AM_5
100
AcDbBlockReference
  2
_Dot
 10
60.94744445868572
 20
144.8300722814826
 30
0.0
 50
90.0
  0
INSERT
  5
E6D0
330
E20E
100
AcDbEntity
  8
AM_5
100
AcDbBlockReference
  2
_Dot
 10
60.9474444586857
 20
90.83007228148261
 30
0.0
 50
270.0
  0
MTEXT
  5
E6D1
330
E20E
100
AcDbEntity
  8
AM_5
 62
     2
100
AcDbMText
 10
57.84744445868569
 20
117.8300722814826
 30
0.0
 40
3.200000000000001
 41
0.0
 71
     5
 72
     1
  1
54
 11
0.0000000000000001
 21
1.0
 31
0.0
 73
     1
 44
1.0
1001
ACAD
1000
MTEXTBEGIN
1070
    73
1070
     1
1070
    44
1040
1.0
1070
    74
1070
     0
1000
MTEXTEND
  0
POINT
  5
E6D2
330
E20E
100
AcDbEntity
  8
Defpoints
 62
     0
100
AcDbPoint
 10
72.94744545868574
 20
144.8300722814826
 30
0.0
  0
POINT
  5
E6D3
330
E20E
100
AcDbEntity
  8
Defpoints
 62
     0
100
AcDbPoint
 10
72.94744545868574
 20
90.83007228148261
 30
0.0
  0
POINT
  5
E6D4
330
E20E
100
AcDbEntity
  8
Defpoints
 62
     0
100
AcDbPoint
 10
60.9474444586857
 20
90.83007228148261
 30
0.0
  0
ENDBLK
  5
E219
330
E20E
100
AcDbEntity
  8
0
100
AcDbBlockEnd
  0
BLOCK
  5
E226
330
E21A
100
AcDbEntity
  8
0
100
AcDbBlockBegin
  2
*D13
 70
     1
 10
0.0
 20
0.0
 30
0.0
  3
*D13
  1

  0
LINE
  5
E6D5
330
E21A
100
AcDbEntity
  8
AM_5
100
AcDbLine
 10
71.94744545868573
 20
144.8300722814826
 30
0.0
 11
59.94744445868565
 21
144.8300722814826
 31
0.0
  0
LINE
  5
E6D6
330
E21A
100
AcDbEntity
  8
AM_5
100
AcDbLine
 10
90.60215388178566
 20
145.4300722814826
 30
0.0
 11
59.94744445868565
 21
145.4300722814826
 31
0.0
  0
LINE
  5
E6D7
330
E21A
100
AcDbEntity
  8
AM_5
100
AcDbLine
 10
60.94744445868564
 20
143.8300722814826
 30
0.0
 11
60.94744445868564
 21
142.8300722814826
 31
0.0
  0
LINE
  5
E6D8
330
E21A
100
AcDbEntity
  8
AM_5
100
AcDbLine
 10
60.94744445868565
 20
146.4300722814826
 30
0.0
 11
60.94744445868565
 21
160.2220722814826
 31
0.0
  0
LINE
  5
E6D9
330
E21A
100
AcDbEntity
  8
AM_5
100
AcDbLine
 10
60.94744445868565
 20
144.8300722814826
 30
0.0
 11
60.94744445868565
 21
145.4300722814826
 31
0.0
  0
INSERT
  5
E6DA
330
E21A
100
AcDbEntity
  8
AM_5
100
AcDbBlockReference
  2
_Dot
 10
60.94744445868565
 20
144.8300722814826
 30
0.0
 50
90.0
  0
INSERT
  5
E6DB
330
E21A
100
AcDbEntity
  8
AM_5
100
AcDbBlockReference
  2
_Dot
 10
60.94744445868565
 20
145.4300722814826
 30
0.0
 50
270.0
  0
MTEXT
  5
E6DC
330
E21A
100
AcDbEntity
  8
AM_5
 62
     2
100
AcDbMText
 10
57.84744445868562
 20
153.8260722814826
 30
0.0
 40
3.200000000000001
 41
0.0
 71
     5
 72
     1
  1
0.6以下
 11
0.0000000000000001
 21
1.0
 31
0.0
 73
     1
 44
1.0
1001
ACAD
1000
MTEXTBEGIN
1070
    73
1070
     1
1070
    44
1040
1.0
1070
    74
1070
     0
1000
MTEXTEND
  0
POINT
  5
E6DD
330
E21A
100
AcDbEntity
  8
Defpoints
 62
     0
100
AcDbPoint
 10
72.94744545868574
 20
144.8300722814826
 30
0.0
  0
POINT
  5
E6DE
330
E21A
100
AcDbEntity
  8
Defpoints
 62
     0
100
AcDbPoint
 10
91.60215388178565
 20
145.4300722814826
 30
0.0
  0
POINT
  5
E6DF
330
E21A
100
AcDbEntity
  8
Defpoints
 62
     0
100
AcDbPoint
 10
60.94744445868565
 20
145.4300722814826
 30
0.0
  0
ENDBLK
  5
E227
330
E21A
100
AcDbEntity
  8
0
100
AcDbBlockEnd
  0
BLOCK
  5
E234
330
E228
100
AcDbEntity
  8
0
100
AcDbBlockBegin
  2
*D14
 70
     1
 10
0.0
 20
0.0
 30
0.0
  3
*D14
  1

  0
LINE
  5
E6E0
330
E228
100
AcDbEntity
  8
AM_5
100
AcDbLine
 10
71.94744545868573
 20
90.83007228148261
 30
0.0
 11
59.94744445868571
 21
90.83007228148261
 31
0.0
  0
LINE
  5
E6E1
330
E228
100
AcDbEntity
  8
AM_5
100
AcDbLine
 10
90.60215388178566
 20
90.23007228148259
 30
0.0
 11
59.94744445868571
 21
90.23007228148259
 31
0.0
  0
LINE
  5
E6E2
330
E228
100
AcDbEntity
  8
AM_5
100
AcDbLine
 10
60.9474444586857
 20
91.83007228148261
 30
0.0
 11
60.9474444586857
 21
92.83007228148262
 31
0.0
  0
LINE
  5
E6E3
330
E228
100
AcDbEntity
  8
AM_5
100
AcDbLine
 10
60.9474444586857
 20
89.23007228148259
 30
0.0
 11
60.9474444586857
 21
75.43807228148259
 31
0.0
  0
LINE
  5
E6E4
330
E228
100
AcDbEntity
  8
AM_5
100
AcDbLine
 10
60.9474444586857
 20
90.83007228148261
 30
0.0
 11
60.9474444586857
 21
90.23007228148259
 31
0.0
  0
INSERT
  5
E6E5
330
E228
100
AcDbEntity
  8
AM_5
100
AcDbBlockReference
  2
_Dot
 10
60.9474444586857
 20
90.83007228148261
 30
0.0
 50
270.0
  0
INSERT
  5
E6E6
330
E228
100
AcDbEntity
  8
AM_5
100
AcDbBlockReference
  2
_Dot
 10
60.9474444586857
 20
90.23007228148259
 30
0.0
 50
90.0
  0
MTEXT
  5
E6E7
330
E228
100
AcDbEntity
  8
AM_5
 62
     2
100
AcDbMText
 10
57.84744445868569
 20
81.8340722814826
 30
0.0
 40
3.200000000000001
 41
0.0
 71
     5
 72
     1
  1
0.6以下
 11
0.0000000000000001
 21
1.0
 31
0.0
 73
     1
 44
1.0
1001
ACAD
1000
MTEXTBEGIN
1070
    73
1070
     1
1070
    44
1040
1.0
1070
    74
1070
     0
1000
MTEXTEND
  0
POINT
  5
E6E8
330
E228
100
AcDbEntity
  8
Defpoints
 62
     0
100
AcDbPoint
 10
72.94744545868574
 20
90.83007228148261
 30
0.0
  0
POINT
  5
E6E9
330
E228
100
AcDbEntity
  8
Defpoints
 62
     0
100
AcDbPoint
 10
91.60215388178565
 20
90.23007228148259
 30
0.0
  0
POINT
  5
E6EA
330
E228
100
AcDbEntity
  8
Defpoints
 62
     0
100
AcDbPoint
 10
60.9474444586857
 20
90.23007228148259
 30
0.0
  0
ENDBLK
  5
E235
330
E228
100
AcDbEntity
  8
0
100
AcDbBlockEnd
  0
BLOCK
  5
E240
330
E236
100
AcDbEntity
  8
0
100
AcDbBlockBegin
  2
*D15
 70
     1
 10
0.0
 20
0.0
 30
0.0
  3
*D15
  1

  0
LINE
  5
E6EB
330
E236
100
AcDbEntity
  8
AM_5
100
AcDbLine
 10
117.9474454586857
 20
95.33007228148255
 30
0.0
 11
139.9474454586857
 21
95.33007228148255
 31
0.0
  0
LINE
  5
E6EC
330
E236
100
AcDbEntity
  8
AM_5
100
AcDbLine
 10
117.9474454586857
 20
140.3300722814826
 30
0.0
 11
139.9474454586857
 21
140.3300722814826
 31
0.0
  0
LINE
  5
E6ED
330
E236
100
AcDbEntity
  8
AM_5
100
AcDbLine
 10
138.9474454586857
 20
96.33007228148256
 30
0.0
 11
138.9474454586857
 21
139.3300722814826
 31
0.0
  0
INSERT
  5
E6EE
330
E236
100
AcDbEntity
  8
AM_5
100
AcDbBlockReference
  2
_Dot
 10
138.9474454586857
 20
95.33007228148255
 30
0.0
 50
270.0
  0
INSERT
  5
E6EF
330
E236
100
AcDbEntity
  8
AM_5
100
AcDbBlockReference
  2
_Dot
 10
138.9474454586857
 20
140.3300722814826
 30
0.0
 50
90.0
  0
MTEXT
  5
E6F0
330
E236
100
AcDbEntity
  8
AM_5
 62
     2
100
AcDbMText
 10
135.8474454586857
 20
117.8300722814826
 30
0.0
 40
3.200000000000001
 41
0.0
 71
     5
 72
     1
  1
45
 11
0.0000000000000001
 21
1.0
 31
0.0
 73
     1
 44
1.0
1001
ACAD
1000
MTEXTBEGIN
1070
    73
1070
     1
1070
    44
1040
1.0
1070
    74
1070
     0
1000
MTEXTEND
  0
POINT
  5
E6F1
330
E236
100
AcDbEntity
  8
Defpoints
 62
     0
100
AcDbPoint
 10
116.9474454586857
 20
95.33007228148255
 30
0.0
  0
POINT
  5
E6F2
330
E236
100
AcDbEntity
  8
Defpoints
 62
     0
100
AcDbPoint
 10
116.9474454586857
 20
140.3300722814826
 30
0.0
  0
POINT
  5
E6F3
330
E236
100
AcDbEntity
  8
Defpoints
 62
     0
100
AcDbPoint
 10
138.9474454586857
 20
140.3300722814826
 30
0.0
  0
ENDBLK
  5
E241
330
E236
100
AcDbEntity
  8
0
100
AcDbBlockEnd
  0
BLOCK
  5
E24C
330
E242
100
AcDbEntity
  8
0
100
AcDbBlockBegin
  2
*D16
 70
     1
 10
0.0
 20
0.0
 30
0.0
  3
*D16
  1

  0
LINE
  5
E6F4
330
E242
100
AcDbEntity
  8
AM_5
100
AcDbLine
 10
114.1427370355856
 20
134.8300722814826
 30
0.0
 11
129.9474464586857
 21
134.8300722814826
 31
0.0
  0
LINE
  5
E6F5
330
E242
100
AcDbEntity
  8
AM_5
100
AcDbLine
 10
114.1427370355856
 20
100.8300722814825
 30
0.0
 11
129.9474464586857
 21
100.8300722814825
 31
0.0
  0
LINE
  5
E6F6
330
E242
100
AcDbEntity
  8
AM_5
100
AcDbLine
 10
128.9474464586857
 20
133.8300722814826
 30
0.0
 11
128.9474464586857
 21
101.8300722814825
 31
0.0
  0
INSERT
  5
E6F7
330
E242
100
AcDbEntity
  8
AM_5
100
AcDbBlockReference
  2
_Dot
 10
128.9474464586857
 20
134.8300722814826
 30
0.0
 50
90.0
  0
INSERT
  5
E6F8
330
E242
100
AcDbEntity
  8
AM_5
100
AcDbBlockReference
  2
_Dot
 10
128.9474464586857
 20
100.8300722814825
 30
0.0
 50
270.0
  0
MTEXT
  5
E6F9
330
E242
100
AcDbEntity
  8
AM_5
 62
     2
100
AcDbMText
 10
125.8474464586857
 20
117.8300722814826
 30
0.0
 40
3.200000000000001
 41
0.0
 71
     5
 72
     1
  1
34
 11
0.0000000000000001
 21
1.0
 31
0.0
 73
     1
 44
1.0
1001
ACAD
1000
MTEXTBEGIN
1070
    73
1070
     1
1070
    44
1040
1.0
1070
    74
1070
     0
1000
MTEXTEND
  0
POINT
  5
E6FA
330
E242
100
AcDbEntity
  8
Defpoints
 62
     0
100
AcDbPoint
 10
113.1427370355856
 20
134.8300722814826
 30
0.0
  0
POINT
  5
E6FB
330
E242
100
AcDbEntity
  8
Defpoints
 62
     0
100
AcDbPoint
 10
113.1427370355856
 20
100.8300722814825
 30
0.0
  0
POINT
  5
E6FC
330
E242
100
AcDbEntity
  8
Defpoints
 62
     0
100
AcDbPoint
 10
128.9474464586857
 20
100.8300722814825
 30
0.0
  0
ENDBLK
  5
E24D
330
E242
100
AcDbEntity
  8
0
100
AcDbBlockEnd
  0
BLOCK
  5
E3AD
330
E3A3
100
AcDbEntity
  8
0
100
AcDbBlockBegin
  2
*D17
 70
     1
 10
0.0
 20
0.0
 30
0.0
  3
*D17
  1

  0
ARC
  5
E6FD
330
E3A3
100
AcDbEntity
  8
AM_5
100
AcDbCircle
 10
94.79801486300951
 20
44.85376189812072
 30
0.0
 40
24.08305585645184
100
AcDbArc
 50
2.379261866720752
 51
177.6207381332789
  0
INSERT
  5
E6FE
330
E3A3
100
AcDbEntity
  8
AM_5
100
AcDbBlockReference
  2
_OPEN30
 10
118.8810707194613
 20
44.85376189812072
 30
0.0
 50
271.1896309333604
  0
INSERT
  5
E6FF
330
E3A3
100
AcDbEntity
  8
AM_5
100
AcDbBlockReference
  2
_OPEN30
 10
70.71495900655768
 20
44.85376189812086
 30
0.0
 50
268.8103690666393
  0
MTEXT
  5
E700
330
E3A3
100
AcDbEntity
  8
AM_5
 62
     2
100
AcDbMText
 10
94.79801486300958
 20
72.18681775457255
 30
0.0
 40
3.5
 41
0.0
 71
     5
 72
     1
  1
180\U+00B0（動作範囲）
 73
     1
 44
1.0
1001
ACAD
1000
MTEXTBEGIN
1070
    73
1070
     1
1070
    44
1040
1.0
1070
    74
1070
     0
1000
MTEXTEND
  0
POINT
  5
E701
330
E3A3
100
AcDbEntity
  8
Defpoints
 62
     0
100
AcDbPoint
 10
106.8395427912355
 20
65.71030007056759
 30
0.0
  0
POINT
  5
E702
330
E3A3
100
AcDbEntity
  8
Defpoints
 62
     0
100
AcDbPoint
 10
94.79801486300951
 20
44.85376189812072
 30
0.0
  0
POINT
  5
E703
330
E3A3
100
AcDbEntity
  8
Defpoints
 62
     0
100
AcDbPoint
 10
69.98214855251879
 20
44.85376189812086
 30
0.0
  0
POINT
  5
E704
330
E3A3
100
AcDbEntity
  8
Defpoints
 62
     0
100
AcDbPoint
 10
94.79801486300951
 20
44.85376189812072
 30
0.0
  0
POINT
  5
E705
330
E3A3
100
AcDbEntity
  8
Defpoints
 62
     0
100
AcDbPoint
 10
91.07247374843183
 20
44.85376189812072
 30
0.0
  0
ENDBLK
  5
E3AE
330
E3A3
100
AcDbEntity
  8
0
100
AcDbBlockEnd
  0
ENDSEC
  0
SECTION
  2
ENTITIES
  0
MTEXT
  5
B6B2
330
1F
100
AcDbEntity
  8
AM_6
100
AcDbMText
 10
205.500000282035
 20
52.50000005047986
 30
0.0
 40
3.2
 41
69.99999999999997
 71
     4
 72
     5
  1
　DEH-ITS「　」
 73
     1
 44
1.0
1001
ACAD
1000
MTEXTBEGIN
1070
    73
1070
     1
1070
    44
1040
1.0
1070
    74
1070
     0
1000
MTEXTEND
  0
LINE
  5
D853
330
1F
100
AcDbEntity
  8
AM_0
100
AcDbLine
 10
87.90215388178571
 20
139.8300722814826
 30
0.0
 11
101.9021538817857
 21
139.8300722814826
 31
0.0
  0
LINE
  5
D854
330
1F
100
AcDbEntity
  8
AM_0
100
AcDbLine
 10
87.90215388178571
 20
95.83007228148256
 30
0.0
 11
101.9021538817857
 21
95.83007228148256
 31
0.0
  0
LINE
  5
D855
330
1F
100
AcDbEntity
  8
AM_0
100
AcDbLine
 10
98.2021538817858
 20
90.23007228148259
 30
0.0
 11
97.1671042123858
 21
90.23007228148259
 31
0.0
  0
LINE
  5
D856
330
1F
100
AcDbEntity
  8
AM_0
100
AcDbLine
 10
92.63720355128569
 20
90.23007228148259
 30
0.0
 11
91.60215388178565
 21
90.23007228148259
 31
0.0
  0
LINE
  5
D857
330
1F
100
AcDbEntity
  8
AM_0
100
AcDbLine
 10
92.63720355128569
 20
90.23007228148259
 30
0.0
 11
97.1671042123858
 21
90.23007228148259
 31
0.0
  0
LINE
  5
D858
330
1F
100
AcDbEntity
  8
AM_0
100
AcDbLine
 10
97.1671042123858
 20
90.23007228148259
 30
0.0
 11
97.44970172238575
 21
90.43007228148258
 31
0.0
  0
LINE
  5
D859
330
1F
100
AcDbEntity
  8
AM_0
100
AcDbLine
 10
92.35460604128574
 20
90.43007228148258
 30
0.0
 11
92.63720355128569
 21
90.23007228148259
 31
0.0
  0
LINE
  5
D85A
330
1F
100
AcDbEntity
  8
AM_0
100
AcDbLine
 10
97.44970172238575
 20
90.83007228148261
 30
0.0
 11
97.44970172238575
 21
90.43007228148258
 31
0.0
  0
LINE
  5
D85B
330
1F
100
AcDbEntity
  8
AM_0
100
AcDbLine
 10
97.44970172238575
 20
90.43007228148258
 30
0.0
 11
98.40215388178572
 21
90.43007228148258
 31
0.0
  0
LINE
  5
D85C
330
1F
100
AcDbEntity
  8
AM_0
100
AcDbLine
 10
91.40215388178573
 20
90.43007228148258
 30
0.0
 11
92.35460604128574
 21
90.43007228148258
 31
0.0
  0
LINE
  5
D85D
330
1F
100
AcDbEntity
  8
AM_0
100
AcDbLine
 10
92.35460604128574
 20
90.43007228148258
 30
0.0
 11
92.35460604128574
 21
90.83007228148261
 31
0.0
  0
LINE
  5
D85E
330
1F
100
AcDbEntity
  8
AM_0
100
AcDbLine
 10
92.45266413908566
 20
95.83007228148256
 30
0.0
 11
92.45266413908566
 21
95.83712265018254
 31
0.0
  0
LINE
  5
D85F
330
1F
100
AcDbEntity
  8
AM_0
100
AcDbLine
 10
88.10215388178566
 20
99.03007228148261
 30
0.0
 11
101.7021538817858
 21
99.03007228148261
 31
0.0
  0
LINE
  5
D860
330
1F
100
AcDbEntity
  8
AM_0
100
AcDbLine
 10
101.9021538817857
 20
98.83007228148256
 30
0.0
 11
87.90215388178571
 21
98.83007228148256
 31
0.0
  0
LINE
  5
D861
330
1F
100
AcDbEntity
  8
AM_0
100
AcDbLine
 10
101.9021538817857
 20
97.0300722814826
 30
0.0
 11
87.90215388178571
 21
97.0300722814826
 31
0.0
  0
LINE
  5
D862
330
1F
100
AcDbEntity
  8
AM_0
100
AcDbLine
 10
97.1671042123858
 20
145.4300722814826
 30
0.0
 11
92.63720355128569
 21
145.4300722814826
 31
0.0
  0
LINE
  5
D863
330
1F
100
AcDbEntity
  8
AM_0
100
AcDbLine
 10
92.63720355128569
 20
145.4300722814826
 30
0.0
 11
92.35460604128574
 21
145.2300722814826
 31
0.0
  0
LINE
  5
D864
330
1F
100
AcDbEntity
  8
AM_0
100
AcDbLine
 10
91.60215388178565
 20
145.4300722814826
 30
0.0
 11
92.63720355128569
 21
145.4300722814826
 31
0.0
  0
LINE
  5
D865
330
1F
100
AcDbEntity
  8
AM_0
100
AcDbLine
 10
97.44970172238575
 20
145.2300722814826
 30
0.0
 11
97.1671042123858
 21
145.4300722814826
 31
0.0
  0
LINE
  5
D866
330
1F
100
AcDbEntity
  8
AM_0
100
AcDbLine
 10
97.1671042123858
 20
145.4300722814826
 30
0.0
 11
98.2021538817858
 21
145.4300722814826
 31
0.0
  0
LINE
  5
D867
330
1F
100
AcDbEntity
  8
AM_0
100
AcDbLine
 10
98.40215388178572
 20
145.2300722814826
 30
0.0
 11
97.44970172238575
 21
145.2300722814826
 31
0.0
  0
LINE
  5
D868
330
1F
100
AcDbEntity
  8
AM_0
100
AcDbLine
 10
97.44970172238575
 20
145.2300722814826
 30
0.0
 11
97.44970172238575
 21
144.8300722814826
 31
0.0
  0
LINE
  5
D869
330
1F
100
AcDbEntity
  8
AM_0
100
AcDbLine
 10
97.3516436245857
 20
139.8300722814826
 30
0.0
 11
97.3516436245857
 21
139.6555061725826
 31
0.0
  0
LINE
  5
D86A
330
1F
100
AcDbEntity
  8
AM_0
100
AcDbLine
 10
92.45266413908566
 20
139.6555061725826
 30
0.0
 11
92.45266413908566
 21
139.8300722814826
 31
0.0
  0
LINE
  5
D86B
330
1F
100
AcDbEntity
  8
AM_0
100
AcDbLine
 10
92.35460604128574
 20
144.8300722814826
 30
0.0
 11
92.35460604128574
 21
145.2300722814826
 31
0.0
  0
LINE
  5
D86C
330
1F
100
AcDbEntity
  8
AM_0
100
AcDbLine
 10
92.35460604128574
 20
145.2300722814826
 30
0.0
 11
91.40215388178573
 21
145.2300722814826
 31
0.0
  0
LINE
  5
D86D
330
1F
100
AcDbEntity
  8
AM_0
100
AcDbLine
 10
101.7021538817858
 20
136.6300722814826
 30
0.0
 11
88.10215388178566
 21
136.6300722814826
 31
0.0
  0
LINE
  5
D86E
330
1F
100
AcDbEntity
  8
AM_0
100
AcDbLine
 10
87.90215388178571
 20
138.6300722814826
 30
0.0
 11
101.9021538817857
 21
138.6300722814826
 31
0.0
  0
LINE
  5
D86F
330
1F
100
AcDbEntity
  8
AM_0
100
AcDbLine
 10
87.90215388178571
 20
136.8300722814826
 30
0.0
 11
101.9021538817857
 21
136.8300722814826
 31
0.0
  0
LINE
  5
D870
330
1F
100
AcDbEntity
  8
AM_0
100
AcDbLine
 10
72.94744545868574
 20
142.8300722814826
 30
0.0
 11
72.94744545868574
 21
92.83007228148255
 31
0.0
  0
LINE
  5
D871
330
1F
100
AcDbEntity
  8
AM_0
100
AcDbLine
 10
88.39658954098572
 20
96.0484357748826
 30
0.0
 11
88.39658954098572
 21
95.83007228148256
 31
0.0
  0
LINE
  5
D872
330
1F
100
AcDbEntity
  8
AM_0
100
AcDbLine
 10
88.39658954098572
 20
136.6300722814826
 30
0.0
 11
88.39658954098572
 21
99.03007228148261
 31
0.0
  0
LINE
  5
D873
330
1F
100
AcDbEntity
  8
AM_0
100
AcDbLine
 10
88.39658954098572
 20
138.8484357748826
 30
0.0
 11
88.39658954098572
 21
138.6300722814826
 31
0.0
  0
LINE
  5
D874
330
1F
100
AcDbEntity
  8
AM_0
100
AcDbLine
 10
72.94744545868574
 20
90.83007228148261
 30
0.0
 11
72.94744545868574
 21
92.83007228148255
 31
0.0
  0
LINE
  5
D875
330
1F
100
AcDbEntity
  8
AM_0
100
AcDbLine
 10
72.94744545868574
 20
144.8300722814826
 30
0.0
 11
73.52474613758571
 21
144.8300722814826
 31
0.0
  0
LINE
  5
D876
330
1F
100
AcDbEntity
  8
AM_0
100
AcDbLine
 10
72.94744545868574
 20
142.8300722814826
 30
0.0
 11
72.94744545868574
 21
144.8300722814826
 31
0.0
  0
LINE
  5
D877
330
1F
100
AcDbEntity
  8
AM_0
100
AcDbLine
 10
91.73190897338569
 20
92.83007228148255
 30
0.0
 11
72.94744545868574
 21
92.83007228148255
 31
0.0
  0
LINE
  5
D878
330
1F
100
AcDbEntity
  8
AM_0
100
AcDbLine
 10
91.73190897338569
 20
90.83007228148261
 30
0.0
 11
72.94744545868574
 21
90.83007228148261
 31
0.0
  0
LINE
  5
D879
330
1F
100
AcDbEntity
  8
AM_0
100
AcDbLine
 10
91.73190897338569
 20
144.8300722814826
 30
0.0
 11
73.52474613758571
 21
144.8300722814826
 31
0.0
  0
LINE
  5
D87A
330
1F
100
AcDbEntity
  8
AM_0
100
AcDbLine
 10
72.94744545868574
 20
142.8300722814826
 30
0.0
 11
91.73190897338569
 21
142.8300722814826
 31
0.0
  0
LINE
  5
D87B
330
1F
100
AcDbEntity
  8
AM_0
100
AcDbLine
 10
102.4021538817858
 20
92.83007228148255
 30
0.0
 11
91.73190897338569
 21
92.83007228148255
 31
0.0
  0
LINE
  5
D87C
330
1F
100
AcDbEntity
  8
AM_0
100
AcDbLine
 10
91.73190897338569
 20
90.83007228148261
 30
0.0
 11
91.73190897338569
 21
92.83007228148255
 31
0.0
  0
LINE
  5
D87D
330
1F
100
AcDbEntity
  8
AM_0
100
AcDbLine
 10
102.4021538817858
 20
90.83007228148261
 30
0.0
 11
91.73190897338569
 21
90.83007228148261
 31
0.0
  0
LINE
  5
D87E
330
1F
100
AcDbEntity
  8
AM_0
100
AcDbLine
 10
102.4021538817858
 20
144.8300722814826
 30
0.0
 11
91.73190897338569
 21
144.8300722814826
 31
0.0
  0
LINE
  5
D87F
330
1F
100
AcDbEntity
  8
AM_0
100
AcDbLine
 10
91.73190897338569
 20
142.8300722814826
 30
0.0
 11
91.73190897338569
 21
144.8300722814826
 31
0.0
  0
LINE
  5
D880
330
1F
100
AcDbEntity
  8
AM_0
100
AcDbLine
 10
91.73190897338569
 20
142.8300722814826
 30
0.0
 11
102.4021538817858
 21
142.8300722814826
 31
0.0
  0
LINE
  5
D881
330
1F
100
AcDbEntity
  8
AM_0
100
AcDbLine
 10
116.9474454586857
 20
95.33007228148255
 30
0.0
 11
116.9474454586857
 21
140.3300722814826
 31
0.0
  0
LINE
  5
D882
330
1F
100
AcDbEntity
  8
AM_0
100
AcDbLine
 10
101.4077182226856
 20
138.6300722814826
 30
0.0
 11
101.4077182226856
 21
138.8484357748826
 31
0.0
  0
LINE
  5
D883
330
1F
100
AcDbEntity
  8
AM_0
100
AcDbLine
 10
101.4077182226856
 20
99.03007228148261
 30
0.0
 11
101.4077182226856
 21
136.6300722814826
 31
0.0
  0
LINE
  5
D884
330
1F
100
AcDbEntity
  8
AM_0
100
AcDbLine
 10
101.4077182226856
 20
95.83007228148256
 30
0.0
 11
101.4077182226856
 21
96.0484357748826
 31
0.0
  0
LINE
  5
D885
330
1F
100
AcDbEntity
  8
AM_0
100
AcDbLine
 10
116.3701447797855
 20
95.33007228148255
 30
0.0
 11
116.9474454586857
 21
95.33007228148255
 31
0.0
  0
LINE
  5
D886
330
1F
100
AcDbEntity
  8
AM_0
100
AcDbLine
 10
116.9474454586857
 20
95.33007228148255
 30
0.0
 11
116.9474454586857
 21
93.33007228148256
 31
0.0
  0
LINE
  5
D887
330
1F
100
AcDbEntity
  8
AM_0
100
AcDbLine
 10
116.9474454586857
 20
140.3300722814826
 30
0.0
 11
116.3701447797855
 21
140.3300722814826
 31
0.0
  0
LINE
  5
D888
330
1F
100
AcDbEntity
  8
AM_0
100
AcDbLine
 10
116.9474454586857
 20
142.3300722814826
 30
0.0
 11
116.9474454586857
 21
140.3300722814826
 31
0.0
  0
LINE
  5
D889
330
1F
100
AcDbEntity
  8
AM_0
100
AcDbLine
 10
116.3701447797855
 20
95.33007228148255
 30
0.0
 11
98.07239879028569
 21
95.33007228148255
 31
0.0
  0
LINE
  5
D88A
330
1F
100
AcDbEntity
  8
AM_0
100
AcDbLine
 10
98.07239879028569
 20
93.33007228148256
 30
0.0
 11
116.9474454586857
 21
93.33007228148256
 31
0.0
  0
LINE
  5
D88B
330
1F
100
AcDbEntity
  8
AM_0
100
AcDbLine
 10
98.07239879028569
 20
142.3300722814826
 30
0.0
 11
116.9474454586857
 21
142.3300722814826
 31
0.0
  0
LINE
  5
D88C
330
1F
100
AcDbEntity
  8
AM_0
100
AcDbLine
 10
98.07239879028569
 20
140.3300722814826
 30
0.0
 11
116.3701447797855
 21
140.3300722814826
 31
0.0
  0
LINE
  5
D88D
330
1F
100
AcDbEntity
  8
AM_0
100
AcDbLine
 10
98.07239879028569
 20
95.33007228148255
 30
0.0
 11
87.40215388178572
 21
95.33007228148255
 31
0.0
  0
LINE
  5
D88E
330
1F
100
AcDbEntity
  8
AM_0
100
AcDbLine
 10
98.07239879028569
 20
95.33007228148255
 30
0.0
 11
98.07239879028569
 21
93.33007228148256
 31
0.0
  0
LINE
  5
D88F
330
1F
100
AcDbEntity
  8
AM_0
100
AcDbLine
 10
87.40215388178572
 20
93.33007228148256
 30
0.0
 11
98.07239879028569
 21
93.33007228148256
 31
0.0
  0
LINE
  5
D890
330
1F
100
AcDbEntity
  8
AM_0
100
AcDbLine
 10
87.40215388178572
 20
140.3300722814826
 30
0.0
 11
98.07239879028569
 21
140.3300722814826
 31
0.0
  0
LINE
  5
D891
330
1F
100
AcDbEntity
  8
AM_0
100
AcDbLine
 10
98.07239879028569
 20
142.3300722814826
 30
0.0
 11
98.07239879028569
 21
140.3300722814826
 31
0.0
  0
LINE
  5
D892
330
1F
100
AcDbEntity
  8
AM_0
100
AcDbLine
 10
87.40215388178572
 20
142.3300722814826
 30
0.0
 11
98.07239879028569
 21
142.3300722814826
 31
0.0
  0
LINE
  5
D893
330
1F
100
AcDbEntity
  8
AM_0
100
AcDbLine
 10
87.90215388178571
 20
140.3300722814826
 30
0.0
 11
87.90215388178571
 21
139.8300722814826
 31
0.0
  0
LINE
  5
D894
330
1F
100
AcDbEntity
  8
AM_0
100
AcDbLine
 10
101.9021538817857
 20
139.8300722814826
 30
0.0
 11
101.9021538817857
 21
140.3300722814826
 31
0.0
  0
LINE
  5
D895
330
1F
100
AcDbEntity
  8
AM_0
100
AcDbLine
 10
87.90215388178571
 20
95.83007228148256
 30
0.0
 11
87.90215388178571
 21
95.33007228148255
 31
0.0
  0
LINE
  5
D896
330
1F
100
AcDbEntity
  8
AM_0
100
AcDbLine
 10
101.9021538817857
 20
95.33007228148255
 30
0.0
 11
101.9021538817857
 21
95.83007228148256
 31
0.0
  0
LINE
  5
D897
330
1F
100
AcDbEntity
  8
AM_0
100
AcDbLine
 10
87.90215388178571
 20
142.8300722814826
 30
0.0
 11
87.90215388178571
 21
142.3300722814826
 31
0.0
  0
LINE
  5
D898
330
1F
100
AcDbEntity
  8
AM_0
100
AcDbLine
 10
101.9021538817857
 20
142.3300722814826
 30
0.0
 11
101.9021538817857
 21
142.8300722814826
 31
0.0
  0
LINE
  5
D899
330
1F
100
AcDbEntity
  8
AM_0
100
AcDbLine
 10
101.9021538817857
 20
92.83007228148255
 30
0.0
 11
101.9021538817857
 21
93.33007228148256
 31
0.0
  0
LINE
  5
D89A
330
1F
100
AcDbEntity
  8
AM_0
100
AcDbLine
 10
87.90215388178571
 20
93.33007228148256
 30
0.0
 11
87.90215388178571
 21
92.83007228148255
 31
0.0
  0
LINE
  5
D89B
330
1F
100
AcDbEntity
  8
AM_0
100
AcDbLine
 10
89.95240641348576
 20
95.83007228148256
 30
0.0
 11
92.39192480858575
 21
95.83007228148256
 31
0.0
  0
LINE
  5
D89C
330
1F
100
AcDbEntity
  8
AM_0
100
AcDbLine
 10
101.9021538817857
 20
96.2300722814826
 30
0.0
 11
101.9021538817857
 21
97.0300722814826
 31
0.0
  0
LINE
  5
D89D
330
1F
100
AcDbEntity
  8
AM_0
100
AcDbLine
 10
87.90215388178571
 20
97.0300722814826
 30
0.0
 11
87.90215388178571
 21
96.2300722814826
 31
0.0
  0
LINE
  5
D89E
330
1F
100
AcDbEntity
  8
AM_0
100
AcDbLine
 10
97.4123829549857
 20
138.6300722814826
 30
0.0
 11
99.85190135008569
 21
138.6300722814826
 31
0.0
  0
LINE
  5
D89F
330
1F
100
AcDbEntity
  8
AM_0
100
AcDbLine
 10
101.9021538817857
 20
139.0300722814826
 30
0.0
 11
101.9021538817857
 21
139.8300722814826
 31
0.0
  0
LINE
  5
D8A0
330
1F
100
AcDbEntity
  8
AM_0
100
AcDbLine
 10
87.90215388178571
 20
139.8300722814826
 30
0.0
 11
87.90215388178571
 21
139.0300722814826
 31
0.0
  0
LINE
  5
D8A1
330
1F
100
AcDbEntity
  8
AM_0
100
AcDbLine
 10
98.2021538817858
 20
90.23007228148259
 30
0.0
 11
98.40215388178572
 21
90.43007228148258
 31
0.0
  0
LINE
  5
D8A2
330
1F
100
AcDbEntity
  8
AM_0
100
AcDbLine
 10
91.40215388178573
 20
90.43007228148258
 30
0.0
 11
91.60215388178565
 21
90.23007228148259
 31
0.0
  0
LINE
  5
D8A3
330
1F
100
AcDbEntity
  8
AM_0
100
AcDbLine
 10
98.40215388178572
 20
96.98559398628255
 30
0.0
 11
98.40215388178572
 21
97.0300722814826
 31
0.0
  0
LINE
  5
D8A4
330
1F
100
AcDbEntity
  8
AM_0
100
AcDbLine
 10
98.40215388178572
 20
90.43007228148258
 30
0.0
 11
98.40215388178572
 21
90.83007228148261
 31
0.0
  0
LINE
  5
D8A5
330
1F
100
AcDbEntity
  8
AM_0
100
AcDbLine
 10
91.40215388178573
 20
90.83007228148261
 30
0.0
 11
91.40215388178573
 21
90.43007228148258
 31
0.0
  0
LINE
  5
D8A6
330
1F
100
AcDbEntity
  8
AM_0
100
AcDbLine
 10
91.40215388178573
 20
97.0300722814826
 30
0.0
 11
91.40215388178573
 21
96.98559398628255
 31
0.0
  0
LINE
  5
D8A7
330
1F
100
AcDbEntity
  8
AM_0
100
AcDbLine
 10
88.10215388178566
 20
99.03007228148261
 30
0.0
 11
87.90215388178571
 21
98.83007228148256
 31
0.0
  0
LINE
  5
D8A8
330
1F
100
AcDbEntity
  8
AM_0
100
AcDbLine
 10
101.9021538817857
 20
98.83007228148256
 30
0.0
 11
101.7021538817858
 21
99.03007228148261
 31
0.0
  0
LINE
  5
D8A9
330
1F
100
AcDbEntity
  8
AM_0
100
AcDbLine
 10
101.9021538817857
 20
97.0300722814826
 30
0.0
 11
101.9021538817857
 21
98.83007228148256
 31
0.0
  0
LINE
  5
D8AA
330
1F
100
AcDbEntity
  8
AM_0
100
AcDbLine
 10
87.90215388178571
 20
98.83007228148256
 30
0.0
 11
87.90215388178571
 21
97.0300722814826
 31
0.0
  0
LINE
  5
D8AB
330
1F
100
AcDbEntity
  8
AM_0
100
AcDbLine
 10
91.60215388178565
 20
145.4300722814826
 30
0.0
 11
91.40215388178573
 21
145.2300722814826
 31
0.0
  0
LINE
  5
D8AC
330
1F
100
AcDbEntity
  8
AM_0
100
AcDbLine
 10
98.40215388178572
 20
145.2300722814826
 30
0.0
 11
98.2021538817858
 21
145.4300722814826
 31
0.0
  0
LINE
  5
D8AD
330
1F
100
AcDbEntity
  8
AM_0
100
AcDbLine
 10
91.40215388178573
 20
139.8300722814826
 30
0.0
 11
91.40215388178573
 21
139.7855939862826
 31
0.0
  0
LINE
  5
D8AE
330
1F
100
AcDbEntity
  8
AM_0
100
AcDbLine
 10
91.40215388178573
 20
145.2300722814826
 30
0.0
 11
91.40215388178573
 21
144.8300722814826
 31
0.0
  0
LINE
  5
D8AF
330
1F
100
AcDbEntity
  8
AM_0
100
AcDbLine
 10
98.40215388178572
 20
144.8300722814826
 30
0.0
 11
98.40215388178572
 21
145.2300722814826
 31
0.0
  0
LINE
  5
D8B0
330
1F
100
AcDbEntity
  8
AM_0
100
AcDbLine
 10
98.40215388178572
 20
139.7855939862826
 30
0.0
 11
98.40215388178572
 21
139.8300722814826
 31
0.0
  0
LINE
  5
D8B1
330
1F
100
AcDbEntity
  8
AM_0
100
AcDbLine
 10
101.7021538817858
 20
136.6300722814826
 30
0.0
 11
101.9021538817857
 21
136.8300722814826
 31
0.0
  0
LINE
  5
D8B2
330
1F
100
AcDbEntity
  8
AM_0
100
AcDbLine
 10
87.90215388178571
 20
136.8300722814826
 30
0.0
 11
88.10215388178566
 21
136.6300722814826
 31
0.0
  0
LINE
  5
D8B3
330
1F
100
AcDbEntity
  8
AM_0
100
AcDbLine
 10
87.90215388178571
 20
138.6300722814826
 30
0.0
 11
87.90215388178571
 21
136.8300722814826
 31
0.0
  0
LINE
  5
D8B4
330
1F
100
AcDbEntity
  8
AM_0
100
AcDbLine
 10
101.9021538817857
 20
136.8300722814826
 30
0.0
 11
101.9021538817857
 21
138.6300722814826
 31
0.0
  0
LINE
  5
D8B5
330
1F
100
AcDbEntity
  8
AM_0
100
AcDbLine
 10
102.4021538817858
 20
90.83007228148261
 30
0.0
 11
102.4021538817858
 21
92.83007228148255
 31
0.0
  0
LINE
  5
D8B6
330
1F
100
AcDbEntity
  8
AM_0
100
AcDbLine
 10
102.4021538817858
 20
142.8300722814826
 30
0.0
 11
102.4021538817858
 21
144.8300722814826
 31
0.0
  0
LINE
  5
D8B7
330
1F
100
AcDbEntity
  8
AM_0
100
AcDbLine
 10
87.40215388178572
 20
95.33007228148255
 30
0.0
 11
87.40215388178572
 21
93.33007228148256
 31
0.0
  0
LINE
  5
D8B8
330
1F
100
AcDbEntity
  8
AM_0
100
AcDbLine
 10
87.40215388178572
 20
142.3300722814826
 30
0.0
 11
87.40215388178572
 21
140.3300722814826
 31
0.0
  0
LINE
  5
D8B9
330
1F
100
AcDbEntity
  8
AM_0
100
AcDbLine
 10
101.4077182226856
 20
36.85376189812081
 30
0.0
 11
101.4077182226856
 21
39.85376189812081
 31
0.0
  0
LINE
  5
D8BA
330
1F
100
AcDbEntity
  8
AM_0
100
AcDbLine
 10
101.4077182226856
 20
39.85376189812081
 30
0.0
 11
100.4923238255857
 21
39.85376189812081
 31
0.0
  0
LINE
  5
D8BB
330
1F
100
AcDbEntity
  8
AM_0
100
AcDbLine
 10
116.9474454586857
 20
42.22867464092082
 30
0.0
 11
116.9474454586857
 21
36.85376189812081
 31
0.0
  0
LINE
  5
D8BC
330
1F
100
AcDbEntity
  8
AM_0
100
AcDbLine
 10
116.9474454586857
 20
36.85376189812081
 30
0.0
 11
101.4077182226856
 21
36.85376189812081
 31
0.0
  0
LINE
  5
D8BD
330
1F
100
AcDbEntity
  8
AM_0
100
AcDbLine
 10
98.07239879028569
 20
51.65078677822084
 30
0.0
 11
116.3701447798077
 21
43.13494462493411
 31
0.0
  0
LINE
  5
D8BE
330
1F
100
AcDbEntity
  8
AM_0
100
AcDbLine
 10
88.39658954098572
 20
39.85376189812081
 30
0.0
 11
89.31198393808566
 21
39.85376189812081
 31
0.0
  0
LINE
  5
D8BF
330
1F
100
AcDbEntity
  8
AM_0
100
AcDbLine
 10
88.39658954098572
 20
36.85376189812081
 30
0.0
 11
88.39658954098572
 21
39.85376189812081
 31
0.0
  0
LINE
  5
D8C0
330
1F
100
AcDbEntity
  8
AM_0
100
AcDbLine
 10
72.94744545868574
 20
36.85376189812081
 30
0.0
 11
88.39658954098572
 21
36.85376189812081
 31
0.0
  0
LINE
  5
D8C1
330
1F
100
AcDbEntity
  8
AM_0
100
AcDbLine
 10
72.94744545868574
 20
42.22867464092082
 30
0.0
 11
72.94744545868574
 21
36.85376189812081
 31
0.0
  0
LINE
  5
D8C2
330
1F
100
AcDbEntity
  8
AM_0
100
AcDbLine
 10
91.73190897338569
 20
51.65078677822084
 30
0.0
 11
73.52474613756365
 21
43.13494462493411
 31
0.0
  0
LINE
  5
D8C3
330
1F
100
AcDbEntity
  8
AM_0
100
AcDbLine
 10
97.37704883798578
 20
47.35376189812083
 30
0.0
 11
92.42725892568572
 21
47.35376189812083
 31
0.0
  0
LINE
  5
D8C4
330
1F
100
AcDbEntity
  8
AM_0
100
AcDbLine
 10
92.42725892568572
 20
42.35376189812081
 30
0.0
 11
97.37704883798578
 21
42.35376189812081
 31
0.0
  0
LINE
  5
D8C5
330
1F
100
AcDbEntity
  8
AM_0
100
AcDbLine
 10
97.16710421236578
 20
47.25376189812175
 30
0.0
 11
97.44970172238575
 21
47.25376189812084
 31
0.0
  0
LINE
  5
D8C6
330
1F
100
AcDbEntity
  8
AM_0
100
AcDbLine
 10
97.44970172235575
 20
42.45376189811949
 30
0.0
 11
97.16710421236578
 21
42.45376189811992
 31
0.0
  0
LINE
  5
D8C7
330
1F
100
AcDbEntity
  8
AM_0
100
AcDbLine
 10
97.16710421236578
 20
42.45376189811992
 30
0.0
 11
92.63720355120566
 21
42.45376189811992
 31
0.0
  0
LINE
  5
D8C8
330
1F
100
AcDbEntity
  8
AM_0
100
AcDbLine
 10
92.63720355120566
 20
47.25376189812175
 30
0.0
 11
97.16710421236578
 21
47.25376189812175
 31
0.0
  0
LINE
  5
D8C9
330
1F
100
AcDbEntity
  8
AM_0
100
AcDbLine
 10
92.63720355120566
 20
42.45376189811992
 30
0.0
 11
92.3546060412157
 21
42.45376189811949
 31
0.0
  0
LINE
  5
D8CA
330
1F
100
AcDbEntity
  8
AM_0
100
AcDbLine
 10
92.3546060412157
 20
47.25376189812215
 30
0.0
 11
92.63720355120566
 21
47.25376189812175
 31
0.0
  0
LINE
  5
D8CD
330
1F
100
AcDbEntity
  8
AM_0
100
AcDbLine
 10
97.37876841238566
 20
47.35376189812083
 30
0.0
 11
97.37704883798578
 21
47.35376189812083
 31
0.0
  0
LINE
  5
D8CE
330
1F
100
AcDbEntity
  8
AM_0
100
AcDbLine
 10
97.37704883798578
 20
42.35376189812081
 30
0.0
 11
97.37876841238566
 21
42.35376189812081
 31
0.0
  0
LINE
  5
D8DD
330
1F
100
AcDbEntity
  8
AM_0
100
AcDbLine
 10
158.182406784769
 20
142.3300722814826
 30
0.0
 11
158.182406784769
 21
140.3300722814826
 31
0.0
  0
LINE
  5
D8DE
330
1F
100
AcDbEntity
  8
AM_0
100
AcDbLine
 10
158.182406784769
 20
95.33007228148255
 30
0.0
 11
158.182406784769
 21
93.33007228148256
 31
0.0
  0
LINE
  5
D8DF
330
1F
100
AcDbEntity
  8
AM_0
100
AcDbLine
 10
158.182406784769
 20
144.8300722814826
 30
0.0
 11
158.182406784769
 21
142.8300722814826
 31
0.0
  0
LINE
  5
D8E0
330
1F
100
AcDbEntity
  8
AM_0
100
AcDbLine
 10
173.182406784769
 20
142.8300722814826
 30
0.0
 11
173.182406784769
 21
144.8300722814826
 31
0.0
  0
LINE
  5
D8E1
330
1F
100
AcDbEntity
  8
AM_0
100
AcDbLine
 10
158.182406784769
 20
92.83007228148255
 30
0.0
 11
158.182406784769
 21
90.83007228148261
 31
0.0
  0
LINE
  5
D8E2
330
1F
100
AcDbEntity
  8
AM_0
100
AcDbLine
 10
173.182406784769
 20
90.83007228148261
 30
0.0
 11
173.182406784769
 21
92.83007228148255
 31
0.0
  0
LINE
  5
D8E3
330
1F
100
AcDbEntity
  8
AM_0
100
AcDbLine
 10
158.682406784769
 20
138.6300722814826
 30
0.0
 11
158.682406784769
 21
136.8300722814826
 31
0.0
  0
LINE
  5
D8E4
330
1F
100
AcDbEntity
  8
AM_0
100
AcDbLine
 10
158.682406784769
 20
136.8300722814826
 30
0.0
 11
158.882406784769
 21
136.6300722814826
 31
0.0
  0
LINE
  5
D8E5
330
1F
100
AcDbEntity
  8
AM_0
100
AcDbLine
 10
158.682406784769
 20
98.83007228148256
 30
0.0
 11
158.682406784769
 21
97.0300722814826
 31
0.0
  0
LINE
  5
D8E6
330
1F
100
AcDbEntity
  8
AM_0
100
AcDbLine
 10
158.882406784769
 20
99.03007228148261
 30
0.0
 11
158.682406784769
 21
98.83007228148256
 31
0.0
  0
LINE
  5
D8E7
330
1F
100
AcDbEntity
  8
AM_0
100
AcDbLine
 10
162.182406784769
 20
97.0300722814826
 30
0.0
 11
162.182406784769
 21
96.98559398628255
 31
0.0
  0
LINE
  5
D8E8
330
1F
100
AcDbEntity
  8
AM_0
100
AcDbLine
 10
169.182406784769
 20
96.98559398628255
 30
0.0
 11
169.182406784769
 21
97.0300722814826
 31
0.0
  0
LINE
  5
D8E9
330
1F
100
AcDbEntity
  8
AM_0
100
AcDbLine
 10
171.682406784769
 20
139.8300722814826
 30
0.0
 11
169.232406784769
 21
139.8300722814826
 31
0.0
  0
LINE
  5
D8EA
330
1F
100
AcDbEntity
  8
AM_0
100
AcDbLine
 10
158.682406784769
 20
139.8300722814826
 30
0.0
 11
158.682406784769
 21
139.0300722814826
 31
0.0
  0
LINE
  5
D8EB
330
1F
100
AcDbEntity
  8
AM_0
100
AcDbLine
 10
160.7326593164689
 20
138.6300722814826
 30
0.0
 11
163.172177711569
 21
138.6300722814826
 31
0.0
  0
LINE
  5
D8EC
330
1F
100
AcDbEntity
  8
AM_0
100
AcDbLine
 10
158.682406784769
 20
97.0300722814826
 30
0.0
 11
158.682406784769
 21
96.2300722814826
 31
0.0
  0
LINE
  5
D8ED
330
1F
100
AcDbEntity
  8
AM_0
100
AcDbLine
 10
158.682406784769
 20
93.33007228148256
 30
0.0
 11
158.682406784769
 21
92.83007228148255
 31
0.0
  0
LINE
  5
D8EE
330
1F
100
AcDbEntity
  8
AM_0
100
AcDbLine
 10
172.682406784769
 20
92.83007228148255
 30
0.0
 11
172.682406784769
 21
93.33007228148256
 31
0.0
  0
LINE
  5
D8EF
330
1F
100
AcDbEntity
  8
AM_0
100
AcDbLine
 10
172.682406784769
 20
142.3300722814826
 30
0.0
 11
172.682406784769
 21
142.8300722814826
 31
0.0
  0
LINE
  5
D8F0
330
1F
100
AcDbEntity
  8
AM_0
100
AcDbLine
 10
158.682406784769
 20
142.8300722814826
 30
0.0
 11
158.682406784769
 21
142.3300722814826
 31
0.0
  0
LINE
  5
D8F1
330
1F
100
AcDbEntity
  8
AM_0
100
AcDbLine
 10
158.682406784769
 20
95.83007228148256
 30
0.0
 11
158.682406784769
 21
95.33007228148255
 31
0.0
  0
LINE
  5
D8F2
330
1F
100
AcDbEntity
  8
AM_0
100
AcDbLine
 10
158.682406784769
 20
140.3300722814826
 30
0.0
 11
158.682406784769
 21
139.8300722814826
 31
0.0
  0
LINE
  5
D8F3
330
1F
100
AcDbEntity
  8
AM_0
100
AcDbLine
 10
171.682406784769
 20
140.3300722814826
 30
0.0
 11
168.3074940420689
 21
140.3300722814826
 31
0.0
  0
LINE
  5
D8F4
330
1F
100
AcDbEntity
  8
AM_0
100
AcDbLine
 10
168.3074940420689
 20
142.3300722814826
 30
0.0
 11
168.3074940420689
 21
140.3300722814826
 31
0.0
  0
LINE
  5
D8F5
330
1F
100
AcDbEntity
  8
AM_0
100
AcDbLine
 10
173.682406784769
 20
142.3300722814826
 30
0.0
 11
173.682406784769
 21
93.33007228148256
 31
0.0
  0
LINE
  5
D8F6
330
1F
100
AcDbEntity
  8
AM_0
100
AcDbLine
 10
168.3074940420689
 20
93.33007228148256
 30
0.0
 11
173.682406784769
 21
93.33007228148256
 31
0.0
  0
LINE
  5
D8F7
330
1F
100
AcDbEntity
  8
AM_0
100
AcDbLine
 10
168.3074940420689
 20
95.33007228148255
 30
0.0
 11
168.3074940420689
 21
93.33007228148256
 31
0.0
  0
LINE
  5
D8F8
330
1F
100
AcDbEntity
  8
AM_0
100
AcDbLine
 10
168.3074940420689
 20
95.33007228148255
 30
0.0
 11
171.682406784769
 21
95.33007228148255
 31
0.0
  0
LINE
  5
D8F9
330
1F
100
AcDbEntity
  8
AM_0
100
AcDbLine
 10
171.682406784769
 20
95.33007228148255
 30
0.0
 11
171.682406784769
 21
140.3300722814826
 31
0.0
  0
LINE
  5
D8FA
330
1F
100
AcDbEntity
  8
AM_0
100
AcDbLine
 10
168.3074940420689
 20
142.3300722814826
 30
0.0
 11
173.682406784769
 21
142.3300722814826
 31
0.0
  0
LINE
  5
D8FB
330
1F
100
AcDbEntity
  8
AM_0
100
AcDbLine
 10
167.4012240580689
 20
140.3300722814826
 30
0.0
 11
167.4012240580689
 21
142.3300722814826
 31
0.0
  0
LINE
  5
D8FC
330
1F
100
AcDbEntity
  8
AM_0
100
AcDbLine
 10
168.3074940420689
 20
140.3300722814826
 30
0.0
 11
167.4012240580689
 21
140.3300722814826
 31
0.0
  0
LINE
  5
D8FD
330
1F
100
AcDbEntity
  8
AM_0
100
AcDbLine
 10
167.4012240580689
 20
142.3300722814826
 30
0.0
 11
168.3074940420689
 21
142.3300722814826
 31
0.0
  0
LINE
  5
D8FE
330
1F
100
AcDbEntity
  8
AM_0
100
AcDbLine
 10
167.4012240580689
 20
93.33007228148256
 30
0.0
 11
167.4012240580689
 21
95.33007228148255
 31
0.0
  0
LINE
  5
D8FF
330
1F
100
AcDbEntity
  8
AM_0
100
AcDbLine
 10
167.4012240580689
 20
95.33007228148255
 30
0.0
 11
168.3074940420689
 21
95.33007228148255
 31
0.0
  0
LINE
  5
D900
330
1F
100
AcDbEntity
  8
AM_0
100
AcDbLine
 10
158.8853819046688
 20
142.3300722814826
 30
0.0
 11
158.8853819046688
 21
140.3300722814826
 31
0.0
  0
LINE
  5
D901
330
1F
100
AcDbEntity
  8
AM_0
100
AcDbLine
 10
158.8853819046688
 20
140.3300722814826
 30
0.0
 11
167.4012240580689
 21
140.3300722814826
 31
0.0
  0
LINE
  5
D902
330
1F
100
AcDbEntity
  8
AM_0
100
AcDbLine
 10
158.8853819046688
 20
142.3300722814826
 30
0.0
 11
167.4012240580689
 21
142.3300722814826
 31
0.0
  0
LINE
  5
D903
330
1F
100
AcDbEntity
  8
AM_0
100
AcDbLine
 10
158.8853819046688
 20
95.33007228148255
 30
0.0
 11
158.8853819046688
 21
93.33007228148256
 31
0.0
  0
LINE
  5
D904
330
1F
100
AcDbEntity
  8
AM_0
100
AcDbLine
 10
158.8853819046688
 20
93.33007228148256
 30
0.0
 11
167.4012240580689
 21
93.33007228148256
 31
0.0
  0
LINE
  5
D905
330
1F
100
AcDbEntity
  8
AM_0
100
AcDbLine
 10
167.4012240580689
 20
95.33007228148255
 30
0.0
 11
158.8853819046688
 21
95.33007228148255
 31
0.0
  0
LINE
  5
D906
330
1F
100
AcDbEntity
  8
AM_0
100
AcDbLine
 10
158.182406784769
 20
140.3300722814826
 30
0.0
 11
158.8853819046688
 21
140.3300722814826
 31
0.0
  0
LINE
  5
D907
330
1F
100
AcDbEntity
  8
AM_0
100
AcDbLine
 10
158.182406784769
 20
142.3300722814826
 30
0.0
 11
158.8853819046688
 21
142.3300722814826
 31
0.0
  0
LINE
  5
D908
330
1F
100
AcDbEntity
  8
AM_0
100
AcDbLine
 10
158.182406784769
 20
93.33007228148256
 30
0.0
 11
158.8853819046688
 21
93.33007228148256
 31
0.0
  0
LINE
  5
D909
330
1F
100
AcDbEntity
  8
AM_0
100
AcDbLine
 10
158.8853819046688
 20
95.33007228148255
 30
0.0
 11
158.182406784769
 21
95.33007228148255
 31
0.0
  0
LINE
  5
D90A
330
1F
100
AcDbEntity
  8
AM_0
100
AcDbLine
 10
158.182406784769
 20
142.8300722814826
 30
0.0
 11
173.182406784769
 21
142.8300722814826
 31
0.0
  0
LINE
  5
D90B
330
1F
100
AcDbEntity
  8
AM_0
100
AcDbLine
 10
173.182406784769
 20
144.8300722814826
 30
0.0
 11
158.182406784769
 21
144.8300722814826
 31
0.0
  0
LINE
  5
D90C
330
1F
100
AcDbEntity
  8
AM_0
100
AcDbLine
 10
173.182406784769
 20
90.83007228148261
 30
0.0
 11
158.182406784769
 21
90.83007228148261
 31
0.0
  0
LINE
  5
D90D
330
1F
100
AcDbEntity
  8
AM_0
100
AcDbLine
 10
173.182406784769
 20
92.83007228148255
 30
0.0
 11
158.182406784769
 21
92.83007228148255
 31
0.0
  0
LINE
  5
D90E
330
1F
100
AcDbEntity
  8
AM_0
100
AcDbLine
 10
173.682406784769
 20
90.83007228148261
 30
0.0
 11
173.682406784769
 21
93.33007228148256
 31
0.0
  0
LINE
  5
D90F
330
1F
100
AcDbEntity
  8
AM_0
100
AcDbLine
 10
173.682406784769
 20
142.3300722814826
 30
0.0
 11
173.682406784769
 21
144.8300722814826
 31
0.0
  0
LINE
  5
D910
330
1F
100
AcDbEntity
  8
AM_0
100
AcDbLine
 10
173.682406784769
 20
90.83007228148261
 30
0.0
 11
173.182406784769
 21
90.83007228148261
 31
0.0
  0
LINE
  5
D911
330
1F
100
AcDbEntity
  8
AM_0
100
AcDbLine
 10
173.682406784769
 20
144.8300722814826
 30
0.0
 11
173.182406784769
 21
144.8300722814826
 31
0.0
  0
LINE
  5
D912
330
1F
100
AcDbEntity
  8
AM_0
100
AcDbLine
 10
165.682406784769
 20
138.6300722814826
 30
0.0
 11
171.682406784769
 21
138.6300722814826
 31
0.0
  0
LINE
  5
D913
330
1F
100
AcDbEntity
  8
AM_0
100
AcDbLine
 10
158.682406784769
 20
138.6300722814826
 30
0.0
 11
165.682406784769
 21
138.6300722814826
 31
0.0
  0
LINE
  5
D914
330
1F
100
AcDbEntity
  8
AM_0
100
AcDbLine
 10
165.682406784769
 20
136.8300722814826
 30
0.0
 11
171.682406784769
 21
136.8300722814826
 31
0.0
  0
LINE
  5
D915
330
1F
100
AcDbEntity
  8
AM_0
100
AcDbLine
 10
158.682406784769
 20
136.8300722814826
 30
0.0
 11
165.682406784769
 21
136.8300722814826
 31
0.0
  0
LINE
  5
D916
330
1F
100
AcDbEntity
  8
AM_0
100
AcDbLine
 10
165.682406784769
 20
136.6300722814826
 30
0.0
 11
158.882406784769
 21
136.6300722814826
 31
0.0
  0
LINE
  5
D917
330
1F
100
AcDbEntity
  8
AM_0
100
AcDbLine
 10
171.682406784769
 20
136.6300722814826
 30
0.0
 11
165.682406784769
 21
136.6300722814826
 31
0.0
  0
LINE
  5
D918
330
1F
100
AcDbEntity
  8
AM_0
100
AcDbLine
 10
168.182406784769
 20
139.6496179391826
 30
0.0
 11
168.182406784769
 21
139.8300722814826
 31
0.0
  0
LINE
  5
D919
330
1F
100
AcDbEntity
  8
AM_0
100
AcDbLine
 10
163.182406784769
 20
139.8300722814826
 30
0.0
 11
163.182406784769
 21
139.6496179391826
 31
0.0
  0
LINE
  5
D91A
330
1F
100
AcDbEntity
  8
AM_0
100
AcDbLine
 10
163.2824067847689
 20
145.2300722814826
 30
0.0
 11
163.2824067847689
 21
144.8300722814826
 31
0.0
  0
LINE
  5
D91B
330
1F
100
AcDbEntity
  8
AM_0
100
AcDbLine
 10
168.0824067847689
 20
145.2300722814826
 30
0.0
 11
163.2824067847689
 21
145.2300722814826
 31
0.0
  0
LINE
  5
D91C
330
1F
100
AcDbEntity
  8
AM_0
100
AcDbLine
 10
168.0824067847689
 20
144.8300722814826
 30
0.0
 11
168.0824067847689
 21
145.2300722814826
 31
0.0
  0
LINE
  5
D91D
330
1F
100
AcDbEntity
  8
AM_0
100
AcDbLine
 10
163.2824067847689
 20
145.4300722814826
 30
0.0
 11
168.0824067847689
 21
145.4300722814826
 31
0.0
  0
LINE
  5
D91E
330
1F
100
AcDbEntity
  8
AM_0
100
AcDbLine
 10
168.0824067847689
 20
145.4300722814826
 30
0.0
 11
168.0824067847689
 21
145.2300722814826
 31
0.0
  0
LINE
  5
D91F
330
1F
100
AcDbEntity
  8
AM_0
100
AcDbLine
 10
163.2824067847689
 20
145.2300722814826
 30
0.0
 11
163.2824067847689
 21
145.4300722814826
 31
0.0
  0
LINE
  5
D920
330
1F
100
AcDbEntity
  8
AM_0
100
AcDbLine
 10
165.682406784769
 20
97.0300722814826
 30
0.0
 11
158.682406784769
 21
97.0300722814826
 31
0.0
  0
LINE
  5
D921
330
1F
100
AcDbEntity
  8
AM_0
100
AcDbLine
 10
171.682406784769
 20
97.0300722814826
 30
0.0
 11
165.682406784769
 21
97.0300722814826
 31
0.0
  0
LINE
  5
D922
330
1F
100
AcDbEntity
  8
AM_0
100
AcDbLine
 10
165.682406784769
 20
98.83007228148256
 30
0.0
 11
158.682406784769
 21
98.83007228148256
 31
0.0
  0
LINE
  5
D923
330
1F
100
AcDbEntity
  8
AM_0
100
AcDbLine
 10
171.682406784769
 20
98.83007228148256
 30
0.0
 11
165.682406784769
 21
98.83007228148256
 31
0.0
  0
LINE
  5
D924
330
1F
100
AcDbEntity
  8
AM_0
100
AcDbLine
 10
165.682406784769
 20
99.03007228148261
 30
0.0
 11
171.682406784769
 21
99.03007228148261
 31
0.0
  0
LINE
  5
D925
330
1F
100
AcDbEntity
  8
AM_0
100
AcDbLine
 10
158.882406784769
 20
99.03007228148261
 30
0.0
 11
165.682406784769
 21
99.03007228148261
 31
0.0
  0
LINE
  5
D926
330
1F
100
AcDbEntity
  8
AM_0
100
AcDbLine
 10
168.182406784769
 20
95.83007228148256
 30
0.0
 11
168.182406784769
 21
95.83125962978261
 31
0.0
  0
LINE
  5
D927
330
1F
100
AcDbEntity
  8
AM_0
100
AcDbLine
 10
168.0824067847689
 20
90.43007228148258
 30
0.0
 11
168.0824067847689
 21
90.83007228148261
 31
0.0
  0
LINE
  5
D928
330
1F
100
AcDbEntity
  8
AM_0
100
AcDbLine
 10
163.2824067847689
 20
90.43007228148258
 30
0.0
 11
168.0824067847689
 21
90.43007228148258
 31
0.0
  0
LINE
  5
D929
330
1F
100
AcDbEntity
  8
AM_0
100
AcDbLine
 10
163.2824067847689
 20
90.83007228148261
 30
0.0
 11
163.2824067847689
 21
90.43007228148258
 31
0.0
  0
LINE
  5
D92A
330
1F
100
AcDbEntity
  8
AM_0
100
AcDbLine
 10
168.0824067847689
 20
90.23007228148259
 30
0.0
 11
163.2824067847689
 21
90.23007228148259
 31
0.0
  0
LINE
  5
D92B
330
1F
100
AcDbEntity
  8
AM_0
100
AcDbLine
 10
163.2824067847689
 20
90.23007228148259
 30
0.0
 11
163.2824067847689
 21
90.43007228148258
 31
0.0
  0
LINE
  5
D92C
330
1F
100
AcDbEntity
  8
AM_0
100
AcDbLine
 10
168.0824067847689
 20
90.43007228148258
 30
0.0
 11
168.0824067847689
 21
90.23007228148259
 31
0.0
  0
LINE
  5
D92D
330
1F
100
AcDbEntity
  8
AM_0
100
AcDbLine
 10
158.682406784769
 20
95.83007228148256
 30
0.0
 11
171.682406784769
 21
95.83007228148256
 31
0.0
  0
LINE
  5
D92E
330
1F
100
AcDbEntity
  8
AM_0
100
AcDbLine
 10
158.682406784769
 20
139.8300722814826
 30
0.0
 11
171.682406784769
 21
139.8300722814826
 31
0.0
  0
LINE
  5
D92F
330
1F
100
AcDbEntity
  8
AM_0
100
AcDbLine
 10
168.3074940420689
 20
93.33007228148256
 30
0.0
 11
167.4012240580689
 21
93.33007228148256
 31
0.0
  0
ARC
  5
D964
330
1F
100
AcDbEntity
  8
AM_0
100
AcDbCircle
 10
95.40215388178571
 20
44.85376189812081
 30
0.0
 40
3.999999999976532
100
AcDbArc
 50
143.5162629383824
 51
216.4837370613987
  0
ARC
  5
D965
330
1F
100
AcDbEntity
  8
AM_0
100
AcDbCircle
 10
115.9474454586857
 20
42.22867464092082
 30
0.0
 40
1.0
100
AcDbArc
 50
0.0
 51
64.9948754083742
  0
ARC
  5
D966
330
1F
100
AcDbEntity
  8
AM_0
100
AcDbCircle
 10
73.94744545868573
 20
42.22867464092082
 30
0.0
 40
1.00000000000023
100
AcDbArc
 50
115.0051245916196
 51
180.0
  0
ARC
  5
D967
330
1F
100
AcDbEntity
  8
AM_0
100
AcDbCircle
 10
97.37704883798578
 20
47.05376189812085
 30
0.0
 40
0.299999999999591
100
AcDbArc
 50
36.48373706145138
 51
90.0
  0
ARC
  5
D968
330
1F
100
AcDbEntity
  8
AM_0
100
AcDbCircle
 10
92.42725892568572
 20
47.05376189812085
 30
0.0
 40
0.3000000000000007
100
AcDbArc
 50
90.0
 51
143.5162629385486
  0
ARC
  5
D969
330
1F
100
AcDbEntity
  8
AM_0
100
AcDbCircle
 10
92.42725892568572
 20
42.65376189812082
 30
0.0
 40
0.300000000023135
100
AcDbArc
 50
216.4837370585388
 51
270.0
  0
ARC
  5
D96A
330
1F
100
AcDbEntity
  8
AM_0
100
AcDbCircle
 10
97.37704883798578
 20
42.65376189812082
 30
0.0
 40
0.3000000000000114
100
AcDbArc
 50
270.0
 51
323.5162629385487
  0
ARC
  5
D96B
330
1F
100
AcDbEntity
  8
AM_0
100
AcDbCircle
 10
94.40215388178572
 20
44.85376189812081
 30
0.0
 40
4.000000000056935
100
AcDbArc
 50
323.5162629392373
 51
36.48373706076673
  0
ARC
  5
D96C
330
1F
100
AcDbEntity
  8
AM_0
100
AcDbCircle
 10
94.90215388178572
 20
44.85376189812081
 30
0.0
 40
7.499999999995633
100
AcDbArc
 50
90.0
 51
115.005124591518
  0
ARC
  5
D96D
330
1F
100
AcDbEntity
  8
AM_0
100
AcDbCircle
 10
94.90215388178572
 20
44.85376189812081
 30
0.0
 40
3.299999999999831
100
AcDbArc
 50
313.341758227197
 51
46.65824177280765
  0
ARC
  5
D96E
330
1F
100
AcDbEntity
  8
AM_0
100
AcDbCircle
 10
94.90215388178572
 20
44.85376189812081
 30
0.0
 40
3.499999999999872
100
AcDbArc
 50
316.708192406695
 51
43.29180759294671
  0
ARC
  5
D96F
330
1F
100
AcDbEntity
  8
AM_0
100
AcDbCircle
 10
94.90215388178572
 20
44.85376189812081
 30
0.0
 40
3.299999999999819
100
AcDbArc
 50
133.3417582271923
 51
226.6582417728077
  0
ARC
  5
D970
330
1F
100
AcDbEntity
  8
AM_0
100
AcDbCircle
 10
94.90215388178572
 20
44.85376189812081
 30
0.0
 40
3.499999999999893
100
AcDbArc
 50
136.7081924066933
 51
223.2918075933049
  0
ARC
  5
D971
330
1F
100
AcDbEntity
  8
AM_0
100
AcDbCircle
 10
94.90215388178572
 20
44.85376189812081
 30
0.0
 40
3.500000000020841
100
AcDbArc
 50
43.29180759294671
 51
45.58469140279337
  0
ARC
  5
D972
330
1F
100
AcDbEntity
  8
AM_0
100
AcDbCircle
 10
94.90215388178572
 20
44.85376189812081
 30
0.0
 40
3.499999999999674
100
AcDbArc
 50
134.4153085971925
 51
136.7081924066933
  0
ARC
  5
D973
330
1F
100
AcDbEntity
  8
AM_0
100
AcDbCircle
 10
94.90215388178572
 20
44.85376189812081
 30
0.0
 40
3.499999999999872
100
AcDbArc
 50
223.2918075933049
 51
225.5846914028029
  0
ARC
  5
D974
330
1F
100
AcDbEntity
  8
AM_0
100
AcDbCircle
 10
94.90215388178572
 20
44.85376189812081
 30
0.0
 40
3.500000000000341
100
AcDbArc
 50
314.4153085972063
 51
316.708192406695
  0
ARC
  5
D975
330
1F
100
AcDbEntity
  8
AM_0
100
AcDbCircle
 10
94.90215388178572
 20
44.85376189812081
 30
0.0
 40
7.499999999963106
100
AcDbArc
 50
221.810314896029
 51
90.0
  0
CIRCLE
  5
D97D
330
1F
100
AcDbEntity
  8
AM_0
100
AcDbCircle
 10
81.90215388178572
 20
100.8300722814825
 30
0.0
 40
2.100000000000023
  0
CIRCLE
  5
D97E
330
1F
100
AcDbEntity
  8
AM_0
100
AcDbCircle
 10
81.90215388178572
 20
134.8300722814826
 30
0.0
 40
2.100000000000023
  0
CIRCLE
  5
D97F
330
1F
100
AcDbEntity
  8
AM_0
100
AcDbCircle
 10
77.90215388178572
 20
117.8300722814825
 30
0.0
 40
2.100000000000023
  0
CIRCLE
  5
D980
330
1F
100
AcDbEntity
  8
AM_0
100
AcDbCircle
 10
107.9021538817858
 20
134.8300722814826
 30
0.0
 40
2.149999999999919
  0
CIRCLE
  5
D981
330
1F
100
AcDbEntity
  8
AM_0
100
AcDbCircle
 10
107.9021538817858
 20
100.8300722814825
 30
0.0
 40
2.149999999999919
  0
CIRCLE
  5
D982
330
1F
100
AcDbEntity
  8
AM_0
100
AcDbCircle
 10
111.9021538817858
 20
117.8300722814825
 30
0.0
 40
2.149999999999919
  0
CIRCLE
  5
D983
330
1F
100
AcDbEntity
  8
AM_0
100
AcDbCircle
 10
94.90215388178572
 20
44.85376189812081
 30
0.0
 40
1.75
  0
LWPOLYLINE
  5
D984
330
1F
100
AcDbEntity
  8
AM_0
100
AcDbPolyline
 90
        9
 70
     0
 43
0.0
 10
92.39192480858575
 20
95.83007228148256
 10
92.93036588788575
 20
95.89257228148255
 10
93.5451922719857
 20
96.03007228148261
 10
94.21094219278566
 20
96.16757228148259
 10
94.90215388178572
 20
96.2300722814826
 10
95.5933655708857
 20
96.16757228148259
 10
96.25911549158573
 20
96.03007228148261
 10
96.87394187578574
 20
95.89257228148255
 10
97.4123829549857
 20
95.83007228148256
  0
LWPOLYLINE
  5
D985
330
1F
100
AcDbEntity
  8
AM_0
100
AcDbPolyline
 90
        4
 70
     0
 43
0.0
 10
91.75810326088575
 20
96.77453773538259
 10
91.62615875988572
 20
96.83007228148255
 10
91.42241286958578
 20
96.96757228148261
 10
91.35215388178565
 20
97.0300722814826
  0
LWPOLYLINE
  5
D986
330
1F
100
AcDbEntity
  8
AM_0
100
AcDbPolyline
 90
        4
 70
     0
 43
0.0
 10
98.4521538817858
 20
97.0300722814826
 10
98.38189489398567
 20
96.96757228148261
 10
98.17814900378564
 20
96.83007228148255
 10
98.0462045026857
 20
96.77453773538259
  0
LWPOLYLINE
  5
D987
330
1F
100
AcDbEntity
  8
AM_0
100
AcDbPolyline
 90
       21
 70
     0
 43
0.0
 10
101.9021538817857
 20
97.0300722814826
 10
101.8130453674858
 20
96.9884722814826
 10
101.5528182376856
 20
96.88927228148259
 10
101.1321201117858
 20
96.77087228148259
 10
100.5615986094856
 20
96.67167228148258
 10
99.85190135008569
 20
96.63007228148257
 10
99.01618562138564
 20
96.67167228148258
 10
98.07764738268568
 20
96.77087228148259
 10
97.06199226158563
 20
96.88927228148259
 10
95.9949258853857
 20
96.9884722814826
 10
94.90215388178572
 20
97.0300722814826
 10
93.80938187818575
 20
96.9884722814826
 10
92.74231550208574
 20
96.88927228148259
 10
91.72666038098569
 20
96.77087228148259
 10
90.78812214228575
 20
96.67167228148258
 10
89.95240641348576
 20
96.63007228148257
 10
89.24270915418574
 20
96.67167228148258
 10
88.67218765178566
 20
96.77087228148259
 10
88.25148952598571
 20
96.88927228148259
 10
87.99126239608566
 20
96.9884722814826
 10
87.90215388178571
 20
97.0300722814826
  0
LWPOLYLINE
  5
D988
330
1F
100
AcDbEntity
  8
AM_0
100
AcDbPolyline
 90
       21
 70
     0
 43
0.0
 10
87.90215388178571
 20
96.2300722814826
 10
87.99126239608566
 20
96.18847228148258
 10
88.25148952598571
 20
96.08927228148258
 10
88.67218765178566
 20
95.97087228148257
 10
89.24270915418574
 20
95.87167228148258
 10
89.95240641348576
 20
95.83007228148256
 10
90.78812214228575
 20
95.87167228148258
 10
91.72666038098569
 20
95.97087228148257
 10
92.74231550208574
 20
96.08927228148258
 10
93.80938187818575
 20
96.18847228148258
 10
94.90215388178572
 20
96.2300722814826
 10
95.9949258853857
 20
96.18847228148258
 10
97.06199226158563
 20
96.08927228148258
 10
98.07764738268568
 20
95.97087228148257
 10
99.01618562138564
 20
95.87167228148258
 10
99.85190135008569
 20
95.83007228148256
 10
100.5615986094856
 20
95.87167228148258
 10
101.1321201117858
 20
95.97087228148257
 10
101.5528182376856
 20
96.08927228148258
 10
101.8130453674858
 20
96.18847228148258
 10
101.9021538817857
 20
96.2300722814826
  0
LWPOLYLINE
  5
D989
330
1F
100
AcDbEntity
  8
AM_0
100
AcDbPolyline
 90
        9
 70
     0
 43
0.0
 10
92.39192480858575
 20
138.6300722814826
 10
92.93036588788575
 20
138.6925722814826
 10
93.5451922719857
 20
138.8300722814826
 10
94.21094219278566
 20
138.9675722814826
 10
94.90215388178572
 20
139.0300722814826
 10
95.5933655708857
 20
138.9675722814826
 10
96.25911549158573
 20
138.8300722814826
 10
96.87394187578574
 20
138.6925722814826
 10
97.4123829549857
 20
138.6300722814826
  0
LWPOLYLINE
  5
D98A
330
1F
100
AcDbEntity
  8
AM_0
100
AcDbPolyline
 90
       21
 70
     0
 43
0.0
 10
87.90215388178571
 20
139.0300722814826
 10
87.99126239608566
 20
138.9884722814826
 10
88.25148952598571
 20
138.8892722814826
 10
88.67218765178566
 20
138.7708722814826
 10
89.24270915418574
 20
138.6716722814826
 10
89.95240641348576
 20
138.6300722814826
 10
90.78812214228575
 20
138.6716722814826
 10
91.72666038098569
 20
138.7708722814826
 10
92.74231550208574
 20
138.8892722814826
 10
93.80938187818575
 20
138.9884722814826
 10
94.90215388178572
 20
139.0300722814826
 10
95.9949258853857
 20
138.9884722814826
 10
97.06199226158563
 20
138.8892722814826
 10
98.07764738268568
 20
138.7708722814826
 10
99.01618562138564
 20
138.6716722814826
 10
99.85190135008569
 20
138.6300722814826
 10
100.5615986094856
 20
138.6716722814826
 10
101.1321201117858
 20
138.7708722814826
 10
101.5528182376856
 20
138.8892722814826
 10
101.8130453674858
 20
138.9884722814826
 10
101.9021538817857
 20
139.0300722814826
  0
LWPOLYLINE
  5
D98B
330
1F
100
AcDbEntity
  8
AM_0
100
AcDbPolyline
 90
        4
 70
     0
 43
0.0
 10
91.75810326088575
 20
139.5745377353826
 10
91.62615875988572
 20
139.6300722814826
 10
91.42241286958578
 20
139.7675722814826
 10
91.35215388178565
 20
139.8300722814826
  0
LWPOLYLINE
  5
D98C
330
1F
100
AcDbEntity
  8
AM_0
100
AcDbPolyline
 90
        4
 70
     0
 43
0.0
 10
98.4521538817858
 20
139.8300722814826
 10
98.38189489398567
 20
139.7675722814826
 10
98.17814900378564
 20
139.6300722814826
 10
98.0462045026857
 20
139.5745377353826
  0
LWPOLYLINE
  5
D98D
330
1F
100
AcDbEntity
  8
AM_0
100
AcDbPolyline
 90
       21
 70
     0
 43
0.0
 10
101.9021538817857
 20
139.8300722814826
 10
101.8130453674858
 20
139.7884722814826
 10
101.5528182376856
 20
139.6892722814826
 10
101.1321201117858
 20
139.5708722814826
 10
100.5615986094856
 20
139.4716722814826
 10
99.85190135008569
 20
139.4300722814826
 10
99.01618562138564
 20
139.4716722814826
 10
98.07764738268568
 20
139.5708722814826
 10
97.06199226158563
 20
139.6892722814826
 10
95.9949258853857
 20
139.7884722814826
 10
94.90215388178572
 20
139.8300722814826
 10
93.80938187818575
 20
139.7884722814826
 10
92.74231550208574
 20
139.6892722814826
 10
91.72666038098569
 20
139.5708722814826
 10
90.78812214228575
 20
139.4716722814826
 10
89.95240641348576
 20
139.4300722814826
 10
89.24270915418574
 20
139.4716722814826
 10
88.67218765178566
 20
139.5708722814826
 10
88.25148952598571
 20
139.6892722814826
 10
87.99126239608566
 20
139.7884722814826
 10
87.90215388178571
 20
139.8300722814826
  0
LWPOLYLINE
  5
D98E
330
1F
100
AcDbEntity
  8
AM_0
100
AcDbPolyline
 90
       18
 70
     0
 43
0.0
 10
171.682406784769
 20
139.5308866719826
 10
171.3418515123688
 20
139.4716722814826
 10
170.6321542530689
 20
139.4300722814826
 10
169.7964385243689
 20
139.4716722814826
 10
168.857900285669
 20
139.5708722814826
 10
167.8422451644687
 20
139.6892722814826
 10
166.7751787883688
 20
139.7884722814826
 10
165.682406784769
 20
139.8300722814826
 10
164.5896347811689
 20
139.7884722814826
 10
163.5225684050689
 20
139.6892722814826
 10
162.506913283969
 20
139.5708722814826
 10
161.5683750452689
 20
139.4716722814826
 10
160.7326593164689
 20
139.4300722814826
 10
160.0229620571689
 20
139.4716722814826
 10
159.4524405547691
 20
139.5708722814826
 10
159.031742428969
 20
139.6892722814826
 10
158.771515299069
 20
139.7884722814826
 10
158.682406784769
 20
139.8300722814826
  0
LWPOLYLINE
  5
D98F
330
1F
100
AcDbEntity
  8
AM_0
100
AcDbPolyline
 90
        4
 70
     0
 43
0.0
 10
169.232406784769
 20
139.8300722814826
 10
169.1621477969691
 20
139.7675722814826
 10
168.9584019067689
 20
139.6300722814826
 10
168.8264574056689
 20
139.5745377353826
  0
LWPOLYLINE
  5
D990
330
1F
100
AcDbEntity
  8
AM_0
100
AcDbPolyline
 90
        4
 70
     0
 43
0.0
 10
162.5383561638689
 20
139.5745377353826
 10
162.406411662769
 20
139.6300722814826
 10
162.2026657725689
 20
139.7675722814826
 10
162.1324067847691
 20
139.8300722814826
  0
LWPOLYLINE
  5
D991
330
1F
100
AcDbEntity
  8
AM_0
100
AcDbPolyline
 90
       18
 70
     0
 43
0.0
 10
158.682406784769
 20
139.0300722814826
 10
158.771515299069
 20
138.9884722814826
 10
159.031742428969
 20
138.8892722814826
 10
159.4524405547691
 20
138.7708722814826
 10
160.0229620571689
 20
138.6716722814826
 10
160.7326593164689
 20
138.6300722814826
 10
161.5683750452689
 20
138.6716722814826
 10
162.506913283969
 20
138.7708722814826
 10
163.5225684050689
 20
138.8892722814826
 10
164.5896347811689
 20
138.9884722814826
 10
165.682406784769
 20
139.0300722814826
 10
166.7751787883688
 20
138.9884722814826
 10
167.8422451644687
 20
138.8892722814826
 10
168.857900285669
 20
138.7708722814826
 10
169.7964385243689
 20
138.6716722814826
 10
170.6321542530689
 20
138.6300722814826
 10
171.3418515123688
 20
138.6716722814826
 10
171.682406784769
 20
138.7308866719826
  0
LWPOLYLINE
  5
D992
330
1F
100
AcDbEntity
  8
AM_0
100
AcDbPolyline
 90
        9
 70
     0
 43
0.0
 10
163.172177711569
 20
138.6300722814826
 10
163.7106187908689
 20
138.6925722814826
 10
164.325445174969
 20
138.8300722814826
 10
164.991195095769
 20
138.9675722814826
 10
165.682406784769
 20
139.0300722814826
 10
166.3736184738689
 20
138.9675722814826
 10
167.039368394569
 20
138.8300722814826
 10
167.6541947787689
 20
138.6925722814826
 10
168.192635857969
 20
138.6300722814826
  0
LWPOLYLINE
  5
D993
330
1F
100
AcDbEntity
  8
AM_0
100
AcDbPolyline
 90
       18
 70
     0
 43
0.0
 10
158.682406784769
 20
96.2300722814826
 10
158.771515299069
 20
96.18847228148258
 10
159.031742428969
 20
96.08927228148258
 10
159.4524405547691
 20
95.97087228148257
 10
160.0229620571689
 20
95.87167228148258
 10
160.7326593164689
 20
95.83007228148256
 10
161.5683750452689
 20
95.87167228148258
 10
162.506913283969
 20
95.97087228148257
 10
163.5225684050689
 20
96.08927228148258
 10
164.5896347811689
 20
96.18847228148258
 10
165.682406784769
 20
96.2300722814826
 10
166.7751787883688
 20
96.18847228148258
 10
167.8422451644687
 20
96.08927228148258
 10
168.857900285669
 20
95.97087228148257
 10
169.7964385243689
 20
95.87167228148258
 10
170.6321542530689
 20
95.83007228148256
 10
171.3418515123688
 20
95.87167228148258
 10
171.682406784769
 20
95.93088667198259
  0
LWPOLYLINE
  5
D994
330
1F
100
AcDbEntity
  8
AM_0
100
AcDbPolyline
 90
       18
 70
     0
 43
0.0
 10
171.682406784769
 20
96.7308866719826
 10
171.3418515123688
 20
96.67167228148258
 10
170.6321542530689
 20
96.63007228148257
 10
169.7964385243689
 20
96.67167228148258
 10
168.857900285669
 20
96.77087228148259
 10
167.8422451644687
 20
96.88927228148259
 10
166.7751787883688
 20
96.9884722814826
 10
165.682406784769
 20
97.0300722814826
 10
164.5896347811689
 20
96.9884722814826
 10
163.5225684050689
 20
96.88927228148259
 10
162.506913283969
 20
96.77087228148259
 10
161.5683750452689
 20
96.67167228148258
 10
160.7326593164689
 20
96.63007228148257
 10
160.0229620571689
 20
96.67167228148258
 10
159.4524405547691
 20
96.77087228148259
 10
159.031742428969
 20
96.88927228148259
 10
158.771515299069
 20
96.9884722814826
 10
158.682406784769
 20
97.0300722814826
  0
LWPOLYLINE
  5
D995
330
1F
100
AcDbEntity
  8
AM_0
100
AcDbPolyline
 90
        4
 70
     0
 43
0.0
 10
169.232406784769
 20
97.0300722814826
 10
169.1621477969691
 20
96.96757228148261
 10
168.9584019067689
 20
96.83007228148255
 10
168.8264574056689
 20
96.77453773538259
  0
LWPOLYLINE
  5
D996
330
1F
100
AcDbEntity
  8
AM_0
100
AcDbPolyline
 90
        4
 70
     0
 43
0.0
 10
162.5383561638689
 20
96.77453773538259
 10
162.406411662769
 20
96.83007228148255
 10
162.2026657725689
 20
96.96757228148261
 10
162.1324067847691
 20
97.0300722814826
  0
LWPOLYLINE
  5
D997
330
1F
100
AcDbEntity
  8
AM_0
100
AcDbPolyline
 90
        9
 70
     0
 43
0.0
 10
163.172177711569
 20
95.83007228148256
 10
163.7106187908689
 20
95.89257228148255
 10
164.325445174969
 20
96.03007228148261
 10
164.991195095769
 20
96.16757228148259
 10
165.682406784769
 20
96.2300722814826
 10
166.3736184738689
 20
96.16757228148259
 10
167.039368394569
 20
96.03007228148261
 10
167.6541947787689
 20
95.89257228148255
 10
168.192635857969
 20
95.83007228148256
  0
TEXT
  5
DCAE
330
1F
100
AcDbEntity
  8
AM_6
 60
     1
100
AcDbText
 10
408.500000282035
 20
8.500000050479741
 30
0.0
 40
2.5
  1
!GENTITLE-INSERT
100
AcDbText
  0
TEXT
  5
DCAF
330
1F
100
AcDbEntity
  8
AM_6
 60
     1
100
AcDbText
 10
0.0000002820350623
 20
0.0000000504797413
 30
0.0
 40
2.5
  1
!GENTITLE-LL
100
AcDbText
  0
TEXT
  5
DCB0
330
1F
100
AcDbEntity
  8
AM_6
 60
     1
100
AcDbText
 10
420.000000282035
 20
297.0000000504797
 30
0.0
 40
2.5
  1
!GENTITLE-RU
100
AcDbText
  0
TEXT
  5
DCB1
330
1F
100
AcDbEntity
  8
AM_6
 60
     1
100
AcDbText
 10
420.000000282035
 20
297.0000000504797
 30
0.0
 40
2.5
  1
!GENTITLE-MAX
100
AcDbText
  0
TEXT
  5
DCB9
330
1F
100
AcDbEntity
  8
AM_6
 60
     1
100
AcDbText
 10
0.0000002820350623
 20
0.0000000504797413
 30
0.0
 40
2.5
  1
!GENTITLE-LL
100
AcDbText
  0
TEXT
  5
DCBA
330
1F
100
AcDbEntity
  8
AM_6
 60
     1
100
AcDbText
 10
408.500000282035
 20
288.5000000504797
 30
0.0
 40
2.5
  1
!GENTITLE-RU
100
AcDbText
  0
TEXT
  5
DCBB
330
1F
100
AcDbEntity
  8
AM_6
 60
     1
100
AcDbText
 10
420.000000282035
 20
297.0000000504797
 30
0.0
 40
2.5
  1
!GENTITLE-MAX
100
AcDbText
  0
TEXT
  5
DCBC
330
1F
100
AcDbEntity
  8
AM_6
 60
     1
100
AcDbText
 10
408.500000282035
 20
8.500000050479741
 30
0.0
 40
2.5
  1
!GENTITLE-INSERT
100
AcDbText
  0
LINE
  5
DCC5
330
1F
100
AcDbEntity
  8
AM_7
100
AcDbLine
 10
94.94744545868574
 20
87.2300722814826
 30
0.0
 11
94.94744545868574
 21
148.4300722814825
 31
0.0
1001
GENIUS_GENODEF_13
1002
{
1000
HIER
1070
     0
1002
}
1002
{
1000
MANEDIT
1070
     0
1002
}
1002
{
1000
NOSEL
1070
     0
1002
}
1002
{
1000
BEHIND
1070
     0
1002
}
1002
{
1000
OTHER
1070
     0
1002
}
1002
{
1000
REACTOR
1002
}
1001
GENIUS_GENOBJ-N-CEN_13
1002
{
1000
OWNER
1000
GEN
1002
}
1001
GENIUS_GENCEN_19
1002
{
1040
3.0
1002
}
  0
LINE
  5
DCC6
330
1F
100
AcDbEntity
  8
AM_7
 48
0.5
100
AcDbLine
 10
102.752153881786
 20
134.8300722814826
 30
0.0
 11
113.0521538817857
 21
134.8300722814826
 31
0.0
1001
GENIUS_GENODEF_13
1002
{
1000
HIER
1070
     0
1002
}
1002
{
1000
MANEDIT
1070
     0
1002
}
1002
{
1000
NOSEL
1070
     0
1002
}
1002
{
1000
BEHIND
1070
     0
1002
}
1002
{
1000
OTHER
1070
     0
1002
}
1002
{
1000
REACTOR
1002
}
1001
GENIUS_GENOBJ-N-CEN_13
1002
{
1000
OWNER
1000
GEN
1002
}
1001
GENIUS_GENCEN_19
1002
{
1040
3.0
1002
}
  0
LINE
  5
DCC7
330
1F
100
AcDbEntity
  8
AM_7
 48
0.5
100
AcDbLine
 10
107.9021538817858
 20
139.9800722814825
 30
0.0
 11
107.9021538817858
 21
129.6800722814827
 31
0.0
1001
GENIUS_GENODEF_13
1002
{
1000
HIER
1070
     0
1002
}
1002
{
1000
MANEDIT
1070
     0
1002
}
1002
{
1000
NOSEL
1070
     0
1002
}
1002
{
1000
BEHIND
1070
     0
1002
}
1002
{
1000
OTHER
1070
     0
1002
}
1002
{
1000
REACTOR
1002
}
1001
GENIUS_GENOBJ-N-CEN_13
1002
{
1000
OWNER
1000
GEN
1002
}
1001
GENIUS_GENCEN_19
1002
{
1040
3.0
1002
}
  0
LINE
  5
DCC9
330
1F
100
AcDbEntity
  8
AM_7
 48
0.5
100
AcDbLine
 10
111.9021538817858
 20
122.9800722814825
 30
0.0
 11
111.9021538817858
 21
112.6800722814826
 31
0.0
1001
GENIUS_GENODEF_13
1002
{
1000
HIER
1070
     0
1002
}
1002
{
1000
MANEDIT
1070
     0
1002
}
1002
{
1000
NOSEL
1070
     0
1002
}
1002
{
1000
BEHIND
1070
     0
1002
}
1002
{
1000
OTHER
1070
     0
1002
}
1002
{
1000
REACTOR
1002
}
1001
GENIUS_GENOBJ-N-CEN_13
1002
{
1000
OWNER
1000
GEN
1002
}
1001
GENIUS_GENCEN_19
1002
{
1040
3.0
1002
}
  0
LINE
  5
DCCA
330
1F
100
AcDbEntity
  8
AM_7
 48
0.5
100
AcDbLine
 10
102.752153881786
 20
100.8300722814825
 30
0.0
 11
113.0521538817857
 21
100.8300722814825
 31
0.0
1001
GENIUS_GENODEF_13
1002
{
1000
HIER
1070
     0
1002
}
1002
{
1000
MANEDIT
1070
     0
1002
}
1002
{
1000
NOSEL
1070
     0
1002
}
1002
{
1000
BEHIND
1070
     0
1002
}
1002
{
1000
OTHER
1070
     0
1002
}
1002
{
1000
REACTOR
1002
}
1001
GENIUS_GENOBJ-N-CEN_13
1002
{
1000
OWNER
1000
GEN
1002
}
1001
GENIUS_GENCEN_19
1002
{
1040
3.0
1002
}
  0
LINE
  5
DCCB
330
1F
100
AcDbEntity
  8
AM_7
 48
0.5
100
AcDbLine
 10
107.9021538817858
 20
105.9800722814825
 30
0.0
 11
107.9021538817858
 21
95.68007228148269
 31
0.0
1001
GENIUS_GENODEF_13
1002
{
1000
HIER
1070
     0
1002
}
1002
{
1000
MANEDIT
1070
     0
1002
}
1002
{
1000
NOSEL
1070
     0
1002
}
1002
{
1000
BEHIND
1070
     0
1002
}
1002
{
1000
OTHER
1070
     0
1002
}
1002
{
1000
REACTOR
1002
}
1001
GENIUS_GENOBJ-N-CEN_13
1002
{
1000
OWNER
1000
GEN
1002
}
1001
GENIUS_GENCEN_19
1002
{
1040
3.0
1002
}
  0
LINE
  5
DCCC
330
1F
100
AcDbEntity
  8
AM_7
 48
0.5
100
AcDbLine
 10
76.75215388178585
 20
100.8300722814825
 30
0.0
 11
87.05215388178558
 21
100.8300722814825
 31
0.0
1001
GENIUS_GENODEF_13
1002
{
1000
HIER
1070
     0
1002
}
1002
{
1000
MANEDIT
1070
     0
1002
}
1002
{
1000
NOSEL
1070
     0
1002
}
1002
{
1000
BEHIND
1070
     0
1002
}
1002
{
1000
OTHER
1070
     0
1002
}
1002
{
1000
REACTOR
1002
}
1001
GENIUS_GENOBJ-N-CEN_13
1002
{
1000
OWNER
1000
GEN
1002
}
1001
GENIUS_GENCEN_19
1002
{
1040
3.0
1002
}
  0
LINE
  5
DCCD
330
1F
100
AcDbEntity
  8
AM_7
 48
0.5
100
AcDbLine
 10
81.90215388178572
 20
105.9800722814825
 30
0.0
 11
81.90215388178572
 21
95.68007228148269
 31
0.0
1001
GENIUS_GENODEF_13
1002
{
1000
HIER
1070
     0
1002
}
1002
{
1000
MANEDIT
1070
     0
1002
}
1002
{
1000
NOSEL
1070
     0
1002
}
1002
{
1000
BEHIND
1070
     0
1002
}
1002
{
1000
OTHER
1070
     0
1002
}
1002
{
1000
REACTOR
1002
}
1001
GENIUS_GENOBJ-N-CEN_13
1002
{
1000
OWNER
1000
GEN
1002
}
1001
GENIUS_GENCEN_19
1002
{
1040
3.0
1002
}
  0
LINE
  5
DCCF
330
1F
100
AcDbEntity
  8
AM_7
 48
0.5
100
AcDbLine
 10
77.90215388178572
 20
122.9800722814825
 30
0.0
 11
77.90215388178572
 21
112.6800722814826
 31
0.0
1001
GENIUS_GENODEF_13
1002
{
1000
HIER
1070
     0
1002
}
1002
{
1000
MANEDIT
1070
     0
1002
}
1002
{
1000
NOSEL
1070
     0
1002
}
1002
{
1000
BEHIND
1070
     0
1002
}
1002
{
1000
OTHER
1070
     0
1002
}
1002
{
1000
REACTOR
1002
}
1001
GENIUS_GENOBJ-N-CEN_13
1002
{
1000
OWNER
1000
GEN
1002
}
1001
GENIUS_GENCEN_19
1002
{
1040
3.0
1002
}
  0
LINE
  5
DCD0
330
1F
100
AcDbEntity
  8
AM_7
 48
0.5
100
AcDbLine
 10
76.75215388178585
 20
134.8300722814826
 30
0.0
 11
87.05215388178558
 21
134.8300722814826
 31
0.0
1001
GENIUS_GENODEF_13
1002
{
1000
HIER
1070
     0
1002
}
1002
{
1000
MANEDIT
1070
     0
1002
}
1002
{
1000
NOSEL
1070
     0
1002
}
1002
{
1000
BEHIND
1070
     0
1002
}
1002
{
1000
OTHER
1070
     0
1002
}
1002
{
1000
REACTOR
1002
}
1001
GENIUS_GENOBJ-N-CEN_13
1002
{
1000
OWNER
1000
GEN
1002
}
1001
GENIUS_GENCEN_19
1002
{
1040
3.0
1002
}
  0
LINE
  5
DCD1
330
1F
100
AcDbEntity
  8
AM_7
 48
0.5
100
AcDbLine
 10
81.90215388178572
 20
139.9800722814825
 30
0.0
 11
81.90215388178572
 21
129.6800722814827
 31
0.0
1001
GENIUS_GENODEF_13
1002
{
1000
HIER
1070
     0
1002
}
1002
{
1000
MANEDIT
1070
     0
1002
}
1002
{
1000
NOSEL
1070
     0
1002
}
1002
{
1000
BEHIND
1070
     0
1002
}
1002
{
1000
OTHER
1070
     0
1002
}
1002
{
1000
REACTOR
1002
}
1001
GENIUS_GENOBJ-N-CEN_13
1002
{
1000
OWNER
1000
GEN
1002
}
1001
GENIUS_GENCEN_19
1002
{
1040
3.0
1002
}
  0
LINE
  5
DCD2
330
1F
100
AcDbEntity
  8
AM_7
100
AcDbLine
 10
165.682406784769
 20
148.4300722814825
 30
0.0
 11
165.6824067847689
 21
87.2300722814826
 31
0.0
1001
GENIUS_GENODEF_13
1002
{
1000
HIER
1070
     0
1002
}
1002
{
1000
MANEDIT
1070
     0
1002
}
1002
{
1000
NOSEL
1070
     0
1002
}
1002
{
1000
BEHIND
1070
     0
1002
}
1002
{
1000
OTHER
1070
     0
1002
}
1002
{
1000
REACTOR
1002
}
1001
GENIUS_GENOBJ-N-CEN_13
1002
{
1000
OWNER
1000
GEN
1002
}
1001
GENIUS_GENCEN_19
1002
{
1040
3.0
1002
}
  0
LINE
  5
DCD3
330
1F
100
AcDbEntity
  8
AM_7
100
AcDbLine
 10
178.2478513118903
 20
117.8300722814825
 30
0.0
 11
153.1169622576477
 21
117.8300722814825
 31
0.0
1001
GENIUS_GENODEF_13
1002
{
1000
HIER
1070
     0
1002
}
1002
{
1000
MANEDIT
1070
     0
1002
}
1002
{
1000
NOSEL
1070
     0
1002
}
1002
{
1000
BEHIND
1070
     0
1002
}
1002
{
1000
OTHER
1070
     0
1002
}
1002
{
1000
REACTOR
1002
}
1001
GENIUS_GENOBJ-N-CEN_13
1002
{
1000
OWNER
1000
GEN
1002
}
1001
GENIUS_GENCEN_19
1002
{
1040
3.0
1002
}
  0
LINE
  5
DCD4
330
1F
100
AcDbEntity
  8
AM_7
100
AcDbLine
 10
68.71704119556515
 20
44.85376189813712
 30
0.0
 11
121.0872665680063
 21
44.85376189813701
 31
0.0
1001
GENIUS_GENODEF_13
1002
{
1000
HIER
1070
     0
1002
}
1002
{
1000
MANEDIT
1070
     0
1002
}
1002
{
1000
NOSEL
1070
     0
1002
}
1002
{
1000
BEHIND
1070
     0
1002
}
1002
{
1000
OTHER
1070
     0
1002
}
1002
{
1000
REACTOR
1002
}
1001
GENIUS_GENOBJ-N-CEN_13
1002
{
1000
OWNER
1000
GEN
1002
}
1001
GENIUS_GENCEN_19
1002
{
1040
3.0
1002
}
  0
LINE
  5
DCD5
330
1F
100
AcDbEntity
  8
AM_7
100
AcDbLine
 10
94.90215388178572
 20
55.35376189811643
 30
0.0
 11
94.90215388178572
 21
34.3537618981577
 31
0.0
1001
GENIUS_GENOBJ-N-CEN_13
1002
{
1000
OWNER
1000
GEN
1002
}
1001
GENIUS_GENODEF_13
1002
{
1000
HIER
1070
     0
1002
}
1002
{
1000
MANEDIT
1070
     0
1002
}
1002
{
1000
NOSEL
1070
     0
1002
}
1002
{
1000
BEHIND
1070
     0
1002
}
1002
{
1000
OTHER
1070
     0
1002
}
1002
{
1000
REACTOR
1002
}
1001
GENIUS_GENCEN_19
1002
{
1040
3.0
1002
}
  0
LINE
  5
DCDD
330
1F
100
AcDbEntity
  8
AM_11
 48
0.5
100
AcDbLine
 10
88.39658954088557
 20
52.85376189812081
 30
0.0
 11
88.39658954088557
 21
49.85376189812081
 31
0.0
  0
LINE
  5
DCDE
330
1F
100
AcDbEntity
  8
AM_11
 48
0.5
100
AcDbLine
 10
88.39658954088557
 20
49.85376189812081
 30
0.0
 11
89.31198393798572
 21
49.85376189812081
 31
0.0
  0
LINE
  5
DCDF
330
1F
100
AcDbEntity
  8
AM_11
 48
0.5
100
AcDbLine
 10
72.85686230488571
 20
47.4788491553208
 30
0.0
 11
72.85686230488571
 21
52.85376189812081
 31
0.0
  0
LINE
  5
DCE0
330
1F
100
AcDbEntity
  8
AM_11
 48
0.5
100
AcDbLine
 10
72.85686230488571
 20
52.85376189812081
 30
0.0
 11
88.39658954088557
 21
52.85376189812081
 31
0.0
  0
LINE
  5
DCE1
330
1F
100
AcDbEntity
  8
AM_11
 48
0.5
100
AcDbLine
 10
91.73190897328575
 20
38.05673701802076
 30
0.0
 11
73.43416298376374
 21
46.57257917130749
 31
0.0
  0
LINE
  5
DCE2
330
1F
100
AcDbEntity
  8
AM_11
 48
0.5
100
AcDbLine
 10
88.39658954088557
 20
50.8537618981208
 30
0.0
 11
72.85686230488571
 21
50.8537618981208
 31
0.0
  0
ARC
  5
DCEC
330
1F
100
AcDbEntity
  8
AM_11
 48
0.5
100
AcDbCircle
 10
73.85686230488571
 20
47.4788491553208
 30
0.0
 40
1.0
100
AcDbArc
 50
180.0
 51
244.9948754083774
  0
DIMENSION
  5
DCF6
330
1F
100
AcDbEntity
  8
AM_5
100
AcDbDimension
  2
*D5
 10
116.9474454586857
 20
176.8300722814826
 30
0.0
 11
94.94744545868574
 21
179.9300722814827
 31
0.0
 70
    32
 71
     5
 42
44.0
  3
SYS$0
100
AcDbAlignedDimension
 13
72.94744545868574
 23
144.8300722814826
 33
0.0
 14
116.9474454586857
 24
142.3300722814826
 34
0.0
100
AcDbRotatedDimension
  0
DIMENSION
  5
DD0C
330
1F
100
AcDbEntity
  8
AM_5
100
AcDbDimension
  2
*D6
 10
107.9021538817858
 20
156.8300722814825
 30
0.0
 11
94.90215388178578
 21
159.9300722814825
 31
0.0
 70
    32
 71
     5
 42
26.00000000000012
  3
SYS$0
100
AcDbAlignedDimension
 13
81.90215388178572
 23
139.9800722814825
 33
0.0
 14
107.9021538817858
 24
139.9800722814825
 34
0.0
100
AcDbRotatedDimension
  0
DIMENSION
  5
DD34
330
1F
100
AcDbEntity
  8
AM_5
100
AcDbDimension
  2
*D7
 10
111.9021538817858
 20
166.8300722814824
 30
0.0
 11
94.90215388178578
 21
169.9300722814824
 31
0.0
 70
    32
 71
     5
 42
34.00000000000011
  3
SYS$0
100
AcDbAlignedDimension
 13
77.90215388178572
 23
122.9800722814825
 33
0.0
 14
111.9021538817858
 24
122.9800722814825
 34
0.0
100
AcDbRotatedDimension
  0
DIMENSION
  5
DDE8
330
1F
100
AcDbEntity
  8
AM_5
100
AcDbDimension
  2
*D8
 10
128.9474454586857
 20
44.85376189812072
 30
0.0
 11
125.8474454586858
 21
40.85376189812079
 31
0.0
 70
    32
 71
     5
 42
7.999999999999914
  3
SYS$0
100
AcDbAlignedDimension
 13
116.9474454586857
 23
36.85376189812081
 33
0.0
 14
120.9474454586857
 24
44.85376189812072
 34
0.0
 50
90.0
100
AcDbRotatedDimension
  0
DIMENSION
  5
DDFE
330
1F
100
AcDbEntity
  8
AM_5
100
AcDbDimension
  2
*D9
 10
138.9474454586858
 20
52.35376189808391
 30
0.0
 11
135.8474454586858
 21
44.60376189810238
 31
0.0
 70
    32
 71
     5
 42
15.4999999999631
  3
SYS$0
100
AcDbAlignedDimension
 13
116.9474454586857
 23
36.85376189812081
 33
0.0
 14
94.90215388178572
 24
52.35376189808391
 34
0.0
 50
90.0
100
AcDbRotatedDimension
  0
DIMENSION
  5
DE14
330
1F
100
AcDbEntity
  8
AM_5
100
AcDbDimension
  2
*D10
 10
106.5667068105948
 20
133.1451149763715
 30
0.0
 11
134.4570332196302
 21
156.8300722814829
 31
0.0
 70
   163
  1
6-<>
 71
     5
 42
4.299999999999897
  3
SYS$3
100
AcDbDiametricDimension
 15
109.2376009529769
 25
136.5150295865936
 35
0.0
 40
0.0
1001
ACAD
1000
DSTYLE
1002
{
1070
   172
1070
     1
1070
   342
1005
DE4A
1002
}
  0
LINE
  5
DF66
330
1F
100
AcDbEntity
  8
size
100
AcDbLine
 10
0.0000002820350623
 20
210.0000000504798
 30
0.0
 11
297.000000282035
 21
210.0000000504798
 31
0.0
1001
GENIUS_GENREC_14
1002
{
1000
PYDIR
1011
0.0000002820350765
1021
297.0000000504797
1031
0.0
1002
}
1002
{
1000
PXDIR
1011
420.000000282035
1021
0.0000000504797413
1031
0.0
1002
}
1002
{
1000
PORI
1011
0.0000002820350623
1021
0.0000000504797413
1031
0.0
1002
}
1002
{
1000
PINS
1011
210.0000002820351
1021
148.5000000504797
1031
0.0
1002
}
1002
{
1000
HVAL
1000
297
1002
}
1002
{
1000
H
1070
     2
1002
}
1002
{
1000
WVAL
1000
420
1002
}
1002
{
1000
W
1070
     2
1002
}
1002
{
1000
C
1070
     4
1002
}
1001
GENIUS_GENOBJ-N-REC_13
1002
{
1000
OWNER
1000
GEN
1002
}
1001
GENIUS_GENODEF_13
1002
{
1000
HIER
1070
     0
1002
}
1002
{
1000
MANEDIT
1070
     0
1002
}
1002
{
1000
NOSEL
1070
     0
1002
}
1002
{
1000
BEHIND
1070
     0
1002
}
1002
{
1000
OTHER
1070
     0
1002
}
1002
{
1000
REACTOR
1002
}
  0
LINE
  5
DF67
330
1F
100
AcDbEntity
  8
size
100
AcDbLine
 10
297.000000282035
 20
210.0000000504798
 30
0.0
 11
297.000000282035
 21
0.0000000504797129
 31
0.0
1001
GENIUS_GENREC_14
1002
{
1000
PYDIR
1011
0.0000002820350765
1021
297.0000000504797
1031
0.0
1002
}
1002
{
1000
PXDIR
1011
420.000000282035
1021
0.0000000504797413
1031
0.0
1002
}
1002
{
1000
PORI
1011
0.0000002820350623
1021
0.0000000504797413
1031
0.0
1002
}
1002
{
1000
PINS
1011
210.0000002820351
1021
148.5000000504797
1031
0.0
1002
}
1002
{
1000
HVAL
1000
297
1002
}
1002
{
1000
H
1070
     2
1002
}
1002
{
1000
WVAL
1000
420
1002
}
1002
{
1000
W
1070
     2
1002
}
1002
{
1000
C
1070
     4
1002
}
1001
GENIUS_GENOBJ-N-REC_13
1002
{
1000
OWNER
1000
GEN
1002
}
1001
GENIUS_GENODEF_13
1002
{
1000
HIER
1070
     0
1002
}
1002
{
1000
MANEDIT
1070
     0
1002
}
1002
{
1000
NOSEL
1070
     0
1002
}
1002
{
1000
BEHIND
1070
     0
1002
}
1002
{
1000
OTHER
1070
     0
1002
}
1002
{
1000
REACTOR
1002
}
  0
LINE
  5
DF68
330
1F
100
AcDbEntity
  8
waku
100
AcDbLine
 10
11.50000028203506
 20
8.500000050479741
 30
0.0
 11
285.500000282035
 21
8.500000050479741
 31
0.0
1001
GENIUS_GENREC_14
1002
{
1000
PYDIR
1011
0.0000002820350765
1021
297.0000000504797
1031
0.0
1002
}
1002
{
1000
PXDIR
1011
420.000000282035
1021
0.0000000504797413
1031
0.0
1002
}
1002
{
1000
PORI
1011
0.0000002820350623
1021
0.0000000504797413
1031
0.0
1002
}
1002
{
1000
PINS
1011
210.0000002820351
1021
148.5000000504797
1031
0.0
1002
}
1002
{
1000
HVAL
1000
297
1002
}
1002
{
1000
H
1070
     2
1002
}
1002
{
1000
WVAL
1000
420
1002
}
1002
{
1000
W
1070
     2
1002
}
1002
{
1000
C
1070
     4
1002
}
  0
LINE
  5
DF69
330
1F
100
AcDbEntity
  8
waku
100
AcDbLine
 10
285.500000282035
 20
201.5000000504798
 30
0.0
 11
11.50000028203506
 21
201.5000000504798
 31
0.0
1001
GENIUS_GENREC_14
1002
{
1000
PYDIR
1011
-122.9999997179649
1021
210.0000000504798
1031
0.0
1002
}
1002
{
1000
PXDIR
1011
297.000000282035
1021
-86.99999994952026
1031
0.0
1002
}
1002
{
1000
PORI
1011
-122.9999997179649
1021
-86.99999994952026
1031
0.0
1002
}
1002
{
1000
PINS
1011
87.00000028203509
1021
61.50000005047971
1031
0.0
1002
}
1002
{
1000
HVAL
1000
297
1002
}
1002
{
1000
H
1070
     2
1002
}
1002
{
1000
WVAL
1000
420
1002
}
1002
{
1000
W
1070
     2
1002
}
1002
{
1000
C
1070
     4
1002
}
1001
GENIUS_GENOBJ-N-REC_13
1002
{
1000
OWNER
1000
GEN
1002
}
1001
GENIUS_GENODEF_13
1002
{
1000
HIER
1070
     0
1002
}
1002
{
1000
MANEDIT
1070
     0
1002
}
1002
{
1000
NOSEL
1070
     0
1002
}
1002
{
1000
BEHIND
1070
     0
1002
}
1002
{
1000
OTHER
1070
     0
1002
}
1002
{
1000
REACTOR
1002
}
  0
LINE
  5
DF6A
330
1F
100
AcDbEntity
  8
waku
100
AcDbLine
 10
11.50000028203508
 20
201.5000000504798
 30
0.0
 11
11.50000028203506
 21
8.500000050479741
 31
0.0
1001
GENIUS_GENREC_14
1002
{
1000
PYDIR
1011
0.0000002820350765
1021
297.0000000504797
1031
0.0
1002
}
1002
{
1000
PXDIR
1011
420.000000282035
1021
0.0000000504797413
1031
0.0
1002
}
1002
{
1000
PORI
1011
0.0000002820350623
1021
0.0000000504797413
1031
0.0
1002
}
1002
{
1000
PINS
1011
210.0000002820351
1021
148.5000000504797
1031
0.0
1002
}
1002
{
1000
HVAL
1000
297
1002
}
1002
{
1000
H
1070
     2
1002
}
1002
{
1000
WVAL
1000
420
1002
}
1002
{
1000
W
1070
     2
1002
}
1002
{
1000
C
1070
     4
1002
}
1001
GENIUS_GENOBJ-N-REC_13
1002
{
1000
OWNER
1000
GEN
1002
}
1001
GENIUS_GENODEF_13
1002
{
1000
HIER
1070
     0
1002
}
1002
{
1000
MANEDIT
1070
     0
1002
}
1002
{
1000
NOSEL
1070
     0
1002
}
1002
{
1000
BEHIND
1070
     0
1002
}
1002
{
1000
OTHER
1070
     0
1002
}
1002
{
1000
REACTOR
1002
}
  0
LINE
  5
DF6B
330
1F
100
AcDbEntity
  8
waku
100
AcDbLine
 10
285.500000282035
 20
8.500000050479741
 30
0.0
 11
285.500000282035
 21
201.5000000504798
 31
0.0
1001
GENIUS_GENREC_14
1002
{
1000
PYDIR
1011
-122.9999997179649
1021
216.0000000504798
1031
0.0
1002
}
1002
{
1000
PXDIR
1011
297.000000282035
1021
-80.99999994952026
1031
0.0
1002
}
1002
{
1000
PORI
1011
-122.9999997179649
1021
-80.99999994952026
1031
0.0
1002
}
1002
{
1000
PINS
1011
87.00000028203509
1021
67.50000005047971
1031
0.0
1002
}
1002
{
1000
HVAL
1000
297
1002
}
1002
{
1000
H
1070
     2
1002
}
1002
{
1000
WVAL
1000
420
1002
}
1002
{
1000
W
1070
     2
1002
}
1002
{
1000
C
1070
     4
1002
}
1001
GENIUS_GENOBJ-N-REC_13
1002
{
1000
OWNER
1000
GEN
1002
}
1001
GENIUS_GENODEF_13
1002
{
1000
HIER
1070
     0
1002
}
1002
{
1000
MANEDIT
1070
     0
1002
}
1002
{
1000
NOSEL
1070
     0
1002
}
1002
{
1000
BEHIND
1070
     0
1002
}
1002
{
1000
OTHER
1070
     0
1002
}
1002
{
1000
REACTOR
1002
}
  0
LINE
  5
DF6C
330
1F
100
AcDbEntity
  8
size
100
AcDbLine
 10
0.0000002820350836
 20
210.0000000504798
 30
0.0
 11
0.0000002820350623
 21
0.0000000504797413
 31
0.0
1001
GENIUS_GENREC_14
1002
{
1000
PYDIR
1011
0.0000002820350765
1021
297.0000000504797
1031
0.0
1002
}
1002
{
1000
PXDIR
1011
420.000000282035
1021
0.0000000504797413
1031
0.0
1002
}
1002
{
1000
PORI
1011
0.0000002820350623
1021
0.0000000504797413
1031
0.0
1002
}
1002
{
1000
PINS
1011
210.0000002820351
1021
148.5000000504797
1031
0.0
1002
}
1002
{
1000
HVAL
1000
297
1002
}
1002
{
1000
H
1070
     2
1002
}
1002
{
1000
WVAL
1000
420
1002
}
1002
{
1000
W
1070
     2
1002
}
1002
{
1000
C
1070
     4
1002
}
1001
GENIUS_GENOBJ-N-REC_13
1002
{
1000
OWNER
1000
GEN
1002
}
1001
GENIUS_GENODEF_13
1002
{
1000
HIER
1070
     0
1002
}
1002
{
1000
MANEDIT
1070
     0
1002
}
1002
{
1000
NOSEL
1070
     0
1002
}
1002
{
1000
BEHIND
1070
     0
1002
}
1002
{
1000
OTHER
1070
     0
1002
}
1002
{
1000
REACTOR
1002
}
  0
LINE
  5
DF6D
330
1F
100
AcDbEntity
  8
size
100
AcDbLine
 10
0.0000002820350623
 20
0.0000000504797413
 30
0.0
 11
297.000000282035
 21
0.0000000504797413
 31
0.0
1001
GENIUS_GENREC_14
1002
{
1000
PYDIR
1011
0.0000002820350765
1021
297.0000000504797
1031
0.0
1002
}
1002
{
1000
PXDIR
1011
420.000000282035
1021
0.0000000504797413
1031
0.0
1002
}
1002
{
1000
PORI
1011
0.0000002820350623
1021
0.0000000504797413
1031
0.0
1002
}
1002
{
1000
PINS
1011
210.0000002820351
1021
148.5000000504797
1031
0.0
1002
}
1002
{
1000
HVAL
1000
297
1002
}
1002
{
1000
H
1070
     2
1002
}
1002
{
1000
WVAL
1000
420
1002
}
1002
{
1000
W
1070
     2
1002
}
1002
{
1000
C
1070
     4
1002
}
1001
GENIUS_GENOBJ-N-REC_13
1002
{
1000
OWNER
1000
GEN
1002
}
1001
GENIUS_GENODEF_13
1002
{
1000
HIER
1070
     0
1002
}
1002
{
1000
MANEDIT
1070
     0
1002
}
1002
{
1000
NOSEL
1070
     0
1002
}
1002
{
1000
BEHIND
1070
     0
1002
}
1002
{
1000
OTHER
1070
     0
1002
}
1002
{
1000
REACTOR
1002
}
  0
DIMENSION
  5
E206
330
1F
100
AcDbEntity
  8
AM_5
100
AcDbDimension
  2
*D12
 10
60.9474444586857
 20
90.83007228148261
 30
0.0
 11
57.84744445868569
 21
117.8300722814826
 31
0.0
 70
    32
 71
     5
 42
54.00000000000002
  3
SYS$0
100
AcDbAlignedDimension
 13
72.94744545868574
 23
144.8300722814826
 33
0.0
 14
72.94744545868574
 24
90.83007228148261
 34
0.0
 50
90.0
100
AcDbRotatedDimension
  0
DIMENSION
  5
E207
330
1F
100
AcDbEntity
  8
AM_5
100
AcDbDimension
  2
*D13
 10
60.94744445868565
 20
145.4300722814826
 30
0.0
 11
57.84744445868562
 21
153.8260722814826
 31
0.0
 70
    32
  1
<>以下
 71
     5
 42
0.5999999999999659
  3
SYS$0
100
AcDbAlignedDimension
 13
72.94744545868574
 23
144.8300722814826
 33
0.0
 14
91.60215388178565
 24
145.4300722814826
 34
0.0
 50
90.0
100
AcDbRotatedDimension
  0
DIMENSION
  5
E208
330
1F
100
AcDbEntity
  8
AM_5
100
AcDbDimension
  2
*D14
 10
60.9474444586857
 20
90.23007228148259
 30
0.0
 11
57.84744445868569
 21
81.8340722814826
 31
0.0
 70
    32
  1
<>以下
 71
     5
 42
0.6000000000000228
  3
SYS$0
100
AcDbAlignedDimension
 13
72.94744545868574
 23
90.83007228148261
 33
0.0
 14
91.60215388178565
 24
90.23007228148259
 34
0.0
 50
90.0
100
AcDbRotatedDimension
  0
DIMENSION
  5
E209
330
1F
100
AcDbEntity
  8
AM_5
100
AcDbDimension
  2
*D15
 10
138.9474454586857
 20
140.3300722814826
 30
0.0
 11
135.8474454586857
 21
117.8300722814826
 31
0.0
 70
    32
 71
     5
 42
45.00000000000006
  3
SYS$0
100
AcDbAlignedDimension
 13
116.9474454586857
 23
95.33007228148255
 33
0.0
 14
116.9474454586857
 24
140.3300722814826
 34
0.0
 50
90.0
100
AcDbRotatedDimension
  0
LINE
  5
E20A
330
1F
100
AcDbEntity
  8
AM_7
 48
0.8
100
AcDbLine
 10
81.90215388178572
 20
129.6800722814827
 30
0.0
 11
81.90215388178572
 21
105.9800722814825
 31
0.0
1001
GENIUS_GENOBJ-N-CEN_13
1002
{
1000
OWNER
1000
GEN
1002
}
1001
GENIUS_GENODEF_13
1002
{
1000
HIER
1070
     0
1002
}
1002
{
1000
MANEDIT
1070
     0
1002
}
1002
{
1000
NOSEL
1070
     0
1002
}
1002
{
1000
BEHIND
1070
     0
1002
}
1002
{
1000
OTHER
1070
     0
1002
}
1002
{
1000
REACTOR
1002
}
1001
GENIUS_GENCEN_19
1002
{
1040
3.0
1002
}
  0
LINE
  5
E20B
330
1F
100
AcDbEntity
  8
AM_7
 48
0.8
100
AcDbLine
 10
107.9021538817858
 20
129.6800722814827
 30
0.0
 11
107.9021538817858
 21
105.9800722814825
 31
0.0
1001
GENIUS_GENOBJ-N-CEN_13
1002
{
1000
OWNER
1000
GEN
1002
}
1001
GENIUS_GENODEF_13
1002
{
1000
HIER
1070
     0
1002
}
1002
{
1000
MANEDIT
1070
     0
1002
}
1002
{
1000
NOSEL
1070
     0
1002
}
1002
{
1000
BEHIND
1070
     0
1002
}
1002
{
1000
OTHER
1070
     0
1002
}
1002
{
1000
REACTOR
1002
}
1001
GENIUS_GENCEN_19
1002
{
1040
3.0
1002
}
  0
LINE
  5
E20C
330
1F
100
AcDbEntity
  8
AM_7
 48
0.8
100
AcDbLine
 10
103.752153881786
 20
117.8300722814825
 30
0.0
 11
86.05215388178558
 21
117.8300722814825
 31
0.0
1001
GENIUS_GENOBJ-N-CEN_13
1002
{
1000
OWNER
1000
GEN
1002
}
1001
GENIUS_GENODEF_13
1002
{
1000
HIER
1070
     0
1002
}
1002
{
1000
MANEDIT
1070
     0
1002
}
1002
{
1000
NOSEL
1070
     0
1002
}
1002
{
1000
BEHIND
1070
     0
1002
}
1002
{
1000
OTHER
1070
     0
1002
}
1002
{
1000
REACTOR
1002
}
1001
GENIUS_GENCEN_19
1002
{
1040
3.0
1002
}
  0
DIMENSION
  5
E20D
330
1F
100
AcDbEntity
  8
AM_5
100
AcDbDimension
  2
*D16
 10
128.9474464586857
 20
100.8300722814825
 30
0.0
 11
125.8474464586857
 21
117.8300722814826
 31
0.0
 70
    32
 71
     5
 42
34.00000000000006
  3
SYS$0
100
AcDbAlignedDimension
 13
113.1427370355856
 23
134.8300722814826
 33
0.0
 14
113.1427370355856
 24
100.8300722814825
 34
0.0
 50
90.0
100
AcDbRotatedDimension
  0
LINE
  5
E36A
330
1F
100
AcDbEntity
  8
AM_7
 48
0.5
100
AcDbLine
 10
103.752153881786
 20
117.8300722814825
 30
0.0
 11
120.0521538817857
 21
117.8300722814825
 31
0.0
1001
GENIUS_GENODEF_13
1002
{
1000
HIER
1070
     0
1002
}
1002
{
1000
MANEDIT
1070
     0
1002
}
1002
{
1000
NOSEL
1070
     0
1002
}
1002
{
1000
BEHIND
1070
     0
1002
}
1002
{
1000
OTHER
1070
     0
1002
}
1002
{
1000
REACTOR
1002
}
1001
GENIUS_GENOBJ-N-CEN_13
1002
{
1000
OWNER
1000
GEN
1002
}
1001
GENIUS_GENCEN_19
1002
{
1040
3.0
1002
}
  0
LINE
  5
E36B
330
1F
100
AcDbEntity
  8
AM_7
 48
0.5
100
AcDbLine
 10
69.75215388178586
 20
117.8300722814825
 30
0.0
 11
86.05215388178558
 21
117.8300722814825
 31
0.0
1001
GENIUS_GENODEF_13
1002
{
1000
HIER
1070
     0
1002
}
1002
{
1000
MANEDIT
1070
     0
1002
}
1002
{
1000
NOSEL
1070
     0
1002
}
1002
{
1000
BEHIND
1070
     0
1002
}
1002
{
1000
OTHER
1070
     0
1002
}
1002
{
1000
REACTOR
1002
}
1001
GENIUS_GENOBJ-N-CEN_13
1002
{
1000
OWNER
1000
GEN
1002
}
1001
GENIUS_GENCEN_19
1002
{
1040
3.0
1002
}
  0
DIMENSION
  5
E3A2
330
1F
100
AcDbEntity
  8
AM_5
100
AcDbDimension
  2
*D17
 10
91.07247374843183
 20
44.85376189812072
 30
0.0
 11
94.79801486300958
 21
72.18681775457255
 31
0.0
 70
    34
  1
<>（動作範囲）
 71
     5
 42
3.141592653589787
  3
SYS$2
100
AcDb2LineAngularDimension
 13
69.98214855251879
 23
44.85376189812086
 33
0.0
 14
94.79801486300951
 24
44.85376189812072
 34
0.0
 15
94.79801486300951
 25
44.85376189812072
 35
0.0
 16
106.8395427912355
 26
65.71030007056759
 36
0.0
1001
ACAD
1000
DSTYLE
1002
{
1070
    75
1070
     1
1070
   342
1005
A66
1002
}
  0
LINE
  5
E580
330
1F
100
AcDbEntity
  8
AM_0
100
AcDbLine
 10
185.500000282035
 20
64.50000005047986
 30
0.0
 11
285.500000282035
 21
64.50000005047986
 31
0.0
  0
LINE
  5
E581
330
1F
100
AcDbEntity
  8
AM_0
100
AcDbLine
 10
185.500000282035
 20
8.500000050479798
 30
0.0
 11
285.5000002820351
 21
8.500000050479741
 31
0.0
  0
LINE
  5
E582
330
1F
100
AcDbEntity
  8
AM_2
100
AcDbLine
 10
185.500000282035
 20
40.50000005047991
 30
0.0
 11
285.5000002820351
 21
40.50000005047985
 31
0.0
  0
LINE
  5
E583
330
1F
100
AcDbEntity
  8
AM_2
100
AcDbLine
 10
185.500000282035
 20
48.50000005047985
 30
0.0
 11
285.500000282035
 21
48.50000005047985
 31
0.0
  0
LINE
  5
E584
330
1F
100
AcDbEntity
  8
AM_2
100
AcDbLine
 10
185.500000282035
 20
56.50000005047985
 30
0.0
 11
285.500000282035
 21
56.5000000504798
 31
0.0
  0
LINE
  5
E585
330
1F
100
AcDbEntity
  8
AM_2
100
AcDbLine
 10
205.500000282035
 20
64.50000005047986
 30
0.0
 11
205.500000282035
 21
8.500000050479741
 31
0.0
  0
MTEXT
  5
E586
330
1F
100
AcDbEntity
  8
AM_6
100
AcDbMText
 10
195.500000282035
 20
36.5000000504798
 30
0.0
 40
3.2
 41
19.99999999999995
 71
     5
 72
     5
  1
仕上げ
 73
     1
 44
1.0
1001
ACAD
1000
MTEXTBEGIN
1070
    73
1070
     1
1070
    44
1040
1.0
1070
    74
1070
     0
1000
MTEXTEND
1000
ACAD_MTEXT_DEFINED_HEIGHT_BEGIN
1070
    46
1040
8.000000000000156
1000
ACAD_MTEXT_DEFINED_HEIGHT_END
  0
MTEXT
  5
E587
330
1F
100
AcDbEntity
  8
AM_6
100
AcDbMText
 10
195.500000282035
 20
44.50000005047991
 30
0.0
 40
3.2
 41
20.0
 71
     5
 72
     5
  1
材　質
 73
     1
 44
1.0
1001
ACAD
1000
MTEXTBEGIN
1070
    73
1070
     1
1070
    44
1040
1.0
1070
    74
1070
     0
1000
MTEXTEND
1000
ACAD_MTEXT_DEFINED_HEIGHT_BEGIN
1070
    46
1040
7.9999999999999
1000
ACAD_MTEXT_DEFINED_HEIGHT_END
  0
MTEXT
  5
E588
330
1F
100
AcDbEntity
  8
AM_6
100
AcDbMText
 10
195.500000282035
 20
60.50000005047985
 30
0.0
 40
3.2
 41
20.0
 71
     5
 72
     5
  1
品　名
 73
     1
 44
1.0
1001
ACAD
1000
MTEXTBEGIN
1070
    73
1070
     1
1070
    44
1040
1.0
1070
    74
1070
     0
1000
MTEXTEND
  0
MTEXT
  5
E589
330
1F
100
AcDbEntity
  8
AM_6
100
AcDbMText
 10
205.500000282035
 20
44.50000005047991
 30
0.0
 40
3.2
 41
69.99999999999996
 71
     4
 72
     5
  1
　ステンレス
 73
     1
 44
1.0
1001
ACAD
1000
MTEXTBEGIN
1070
    73
1070
     1
1070
    44
1040
1.0
1070
    74
1070
     0
1000
MTEXTEND
  0
MTEXT
  5
E58A
330
1F
100
AcDbEntity
  8
AM_6
100
AcDbMText
 10
205.500000282035
 20
60.50000005047985
 30
0.0
 40
3.2
 41
70.0
 71
     4
 72
     5
  1
　トルクヒンジ
 73
     1
 44
1.0
1001
ACAD
1000
MTEXTBEGIN
1070
    73
1070
     1
1070
    44
1040
1.0
1070
    74
1070
     0
1000
MTEXTEND
  0
LINE
  5
E58B
330
1F
100
AcDbEntity
  8
AM_0
100
AcDbLine
 10
185.500000282035
 20
64.50000005047986
 30
0.0
 11
185.500000282035
 21
8.500000050479741
 31
0.0
  0
MTEXT
  5
E58C
330
1F
100
AcDbEntity
  8
AM_6
100
AcDbMText
 10
195.500000282035
 20
20.50000005047974
 30
0.0
 40
3.2
 41
20.0
 71
     5
 72
     5
  1
備　考
 73
     1
 44
1.0
1001
ACAD
1000
MTEXTBEGIN
1070
    73
1070
     1
1070
    44
1040
1.0
1070
    74
1070
     0
1000
MTEXTEND
1000
ACAD_MTEXT_DEFINED_HEIGHT_BEGIN
1070
    46
1040
23.99999999999998
1000
ACAD_MTEXT_DEFINED_HEIGHT_END
  0
MTEXT
  5
E58D
330
1F
100
AcDbEntity
  8
AM_6
100
AcDbMText
 10
195.500000282035
 20
52.50000005047986
 30
0.0
 40
3.2
 41
20.0
 71
     5
 72
     5
  1
品　番
 73
     1
 44
1.0
1001
ACAD
1000
MTEXTBEGIN
1070
    73
1070
     1
1070
    44
1040
1.0
1070
    74
1070
     0
1000
MTEXTEND
  0
LINE
  5
E58F
330
1F
100
AcDbEntity
  8
AM_2
100
AcDbLine
 10
185.500000282035
 20
32.50000005047969
 30
0.0
 11
285.5000002820351
 21
32.50000005047969
 31
0.0
  0
MTEXT
  5
E590
330
1F
100
AcDbEntity
  8
AM_6
100
AcDbMText
 10
205.500000282035
 20
36.50000005047991
 30
0.0
 40
3.2
 41
69.99999999999996
 71
     4
 72
     5
  1
　光沢バレル研磨
 73
     1
 44
1.0
1001
ACAD
1000
MTEXTBEGIN
1070
    73
1070
     1
1070
    44
1040
1.0
1070
    74
1070
     0
1000
MTEXTEND
  0
LINE
  5
E591
330
1F
100
AcDbEntity
  8
AM_0
100
AcDbLine
 10
185.552034234374
 20
182.8966929056982
 30
0.0
 11
267.5520342343741
 21
182.8966929056982
 31
0.0
  0
LINE
  5
E592
330
1F
100
AcDbEntity
  8
AM_0
100
AcDbLine
 10
185.552034234374
 20
182.8966929056982
 30
0.0
 11
185.552034234374
 21
157.8966929056982
 31
0.0
  0
LINE
  5
E593
330
1F
100
AcDbEntity
  8
AM_0
100
AcDbLine
 10
185.552034234374
 20
175.8966929056982
 30
0.0
 11
267.5520342343741
 21
175.8966929056981
 31
0.0
  0
LINE
  5
E594
330
1F
100
AcDbEntity
  8
AM_2
100
AcDbLine
 10
185.552034234374
 20
169.8966929056982
 30
0.0
 11
240.5520342343741
 21
169.8966929056982
 31
0.0
  0
MTEXT
  5
E595
330
1F
100
AcDbEntity
  8
AM_6
100
AcDbMText
 10
199.552034234374
 20
179.3966929056982
 30
0.0
 40
3.2
 41
28.0
 71
     5
 72
     5
  1
品　番
 73
     1
 44
1.0
1001
ACAD
1000
MTEXTBEGIN
1070
    73
1070
     1
1070
    44
1040
1.0
1070
    74
1070
     0
1000
MTEXTEND
  0
LINE
  5
E597
330
1F
100
AcDbEntity
  8
AM_0
100
AcDbLine
 10
213.552034234374
 20
182.8966929056982
 30
0.0
 11
213.552034234374
 21
157.8966929056982
 31
0.0
  0
LINE
  5
E598
330
1F
100
AcDbEntity
  8
AM_2
100
AcDbLine
 10
185.552034234374
 20
163.8966929056982
 30
0.0
 11
240.5520342343741
 21
163.8966929056982
 31
0.0
  0
LINE
  5
E599
330
1F
100
AcDbEntity
  8
AM_0
100
AcDbLine
 10
240.5520342343741
 20
182.8966929056982
 30
0.0
 11
240.5520342343741
 21
157.8966929056982
 31
0.0
  0
MTEXT
  5
E59B
330
1F
100
AcDbEntity
  8
AM_6
100
AcDbMText
 10
227.052034234374
 20
179.3966929056982
 30
0.0
 40
3.2
 41
27.0
 71
     5
 72
     5
  1
定格トルク
 73
     1
 44
1.0
1001
ACAD
1000
MTEXTBEGIN
1070
    73
1070
     1
1070
    44
1040
1.0
1070
    74
1070
     0
1000
MTEXTEND
1000
ACAD_MTEXT_DEFINED_HEIGHT_BEGIN
1070
    46
1040
7.000000000000001
1000
ACAD_MTEXT_DEFINED_HEIGHT_END
  0
MTEXT
  5
E59C
330
1F
100
AcDbEntity
  8
AM_6
100
AcDbMText
 10
205.500000282035
 20
28.36666671714635
 30
0.0
 40
3.2
 41
79.99999999999992
 71
     4
 72
     5
  1
　・往復フリーストップ仕様（DEH-ITSFはトルク無し）
 73
     1
 44
1.0
1001
ACAD
1000
MTEXTBEGIN
1070
    73
1070
     1
1070
    44
1040
1.0
1070
    74
1070
     0
1000
MTEXTEND
1000
ACAD_MTEXT_DEFINED_HEIGHT_BEGIN
1070
    46
1040
8.266666666666669
1000
ACAD_MTEXT_DEFINED_HEIGHT_END
  0
MTEXT
  5
E59D
330
1F
100
AcDbEntity
  8
AM_6
100
AcDbMText
 10
205.500000282035
 20
20.50000005047968
 30
0.0
 40
3.2
 41
69.99999999999996
 71
     4
 72
     5
  1
　・使用温度：-10℃～+50℃
 73
     1
 44
1.0
1001
ACAD
1000
MTEXTBEGIN
1070
    73
1070
     1
1070
    44
1040
1.0
1070
    74
1070
     0
1000
MTEXTEND
  0
LINE
  5
E59E
330
1F
100
AcDbEntity
  8
AM_0
100
AcDbLine
 10
185.552034234374
 20
157.8966929056982
 30
0.0
 11
267.5520342343741
 21
157.8966929056982
 31
0.0
  0
MTEXT
  5
E5A1
330
1F
100
AcDbEntity
  8
AM_6
100
AcDbMText
 10
227.052034234374
 20
160.8966929056982
 30
0.0
 40
3.2
 41
27.0
 71
     5
 72
     5
  1
トルクフリー
 73
     1
 44
1.0
1001
ACAD
1000
MTEXTBEGIN
1070
    73
1070
     1
1070
    44
1040
1.0
1070
    74
1070
     0
1000
MTEXTEND
1000
ACAD_MTEXT_DEFINED_HEIGHT_BEGIN
1070
    46
1040
6.000000000000012
1000
ACAD_MTEXT_DEFINED_HEIGHT_END
  0
MTEXT
  5
E5A3
330
1F
100
AcDbEntity
  8
AM_6
100
AcDbMText
 10
205.500000282035
 20
12.50000005047968
 30
0.0
 40
3.2
 41
76.61028014940653
 71
     4
 72
     5
  1
　・オプションのヒンジカバーで取付穴を隠せます。
 73
     1
 44
1.0
1001
ACAD
1000
MTEXTBEGIN
1070
    73
1070
     1
1070
    44
1040
1.0
1070
    74
1070
     0
1000
MTEXTEND
  0
LINE
  5
E5A9
330
1F
100
AcDbEntity
  8
AM_0
100
AcDbLine
 10
267.5520342343741
 20
182.8966929056982
 30
0.0
 11
267.5520342343741
 21
157.8966929056982
 31
0.0
  0
MTEXT
  5
E5AA
330
1F
100
AcDbEntity
  8
AM_6
100
AcDbMText
 10
254.052034234374
 20
179.3966929056982
 30
0.0
 40
3.2
 41
27.0
 71
     5
 72
     5
  1
対応ヒンジカバー
 73
     1
 44
1.0
1001
ACAD
1000
MTEXTBEGIN
1070
    73
1070
     1
1070
    44
1040
1.0
1070
    74
1070
     0
1000
MTEXTEND
1000
ACAD_MTEXT_DEFINED_HEIGHT_BEGIN
1070
    46
1040
7.000000000000001
1000
ACAD_MTEXT_DEFINED_HEIGHT_END
  0
MTEXT
  5
E5AB
330
1F
100
AcDbEntity
  8
AM_6
100
AcDbMText
 10
254.052034234374
 20
166.8966929056982
 30
0.0
 40
3.2
 41
27.0
 71
     5
 72
     5
  1
DEH-ITSC
 73
     1
 44
1.0
1001
ACAD
1000
MTEXTBEGIN
1070
    73
1070
     1
1070
    44
1040
1.0
1070
    74
1070
     0
1000
MTEXTEND
1000
ACAD_MTEXT_DEFINED_HEIGHT_BEGIN
1070
    46
1040
17.99999999999998
1000
ACAD_MTEXT_DEFINED_HEIGHT_END
  0
MTEXT
  5
E5B1
330
1F
100
AcDbEntity
  8
AM_6
100
AcDbMText
 10
199.552034234374
 20
172.8966929056982
 30
0.0
 40
3.2
 41
28.0
 71
     5
 72
     5
  1
DEH-ITS25
 73
     1
 44
1.0
1001
ACAD
1000
MTEXTBEGIN
1070
    73
1070
     1
1070
    44
1040
1.0
1070
    74
1070
     0
1000
MTEXTEND
1000
ACAD_MTEXT_DEFINED_HEIGHT_BEGIN
1070
    46
1040
6.000000000000012
1000
ACAD_MTEXT_DEFINED_HEIGHT_END
  0
MTEXT
  5
E5B2
330
1F
100
AcDbEntity
  8
AM_6
100
AcDbMText
 10
227.052034234374
 20
172.8966929056982
 30
0.0
 40
3.2
 41
27.0
 71
     5
 72
     5
  1
2.5N・m
 73
     1
 44
1.0
1001
ACAD
1000
MTEXTBEGIN
1070
    73
1070
     1
1070
    44
1040
1.0
1070
    74
1070
     0
1000
MTEXTEND
1000
ACAD_MTEXT_DEFINED_HEIGHT_BEGIN
1070
    46
1040
6.000000000000012
1000
ACAD_MTEXT_DEFINED_HEIGHT_END
  0
MTEXT
  5
E5B3
330
1F
100
AcDbEntity
  8
AM_6
100
AcDbMText
 10
199.552034234374
 20
166.8966929056982
 30
0.0
 40
3.2
 41
28.0
 71
     5
 72
     5
  1
DEH-ITS35
 73
     1
 44
1.0
1001
ACAD
1000
MTEXTBEGIN
1070
    73
1070
     1
1070
    44
1040
1.0
1070
    74
1070
     0
1000
MTEXTEND
1000
ACAD_MTEXT_DEFINED_HEIGHT_BEGIN
1070
    46
1040
6.000000000000012
1000
ACAD_MTEXT_DEFINED_HEIGHT_END
  0
MTEXT
  5
E5B4
330
1F
100
AcDbEntity
  8
AM_6
100
AcDbMText
 10
199.552034234374
 20
160.8966929056982
 30
0.0
 40
3.2
 41
28.0
 71
     5
 72
     5
  1
DEH-ITSF
 73
     1
 44
1.0
1001
ACAD
1000
MTEXTBEGIN
1070
    73
1070
     1
1070
    44
1040
1.0
1070
    74
1070
     0
1000
MTEXTEND
1000
ACAD_MTEXT_DEFINED_HEIGHT_BEGIN
1070
    46
1040
6.000000000000012
1000
ACAD_MTEXT_DEFINED_HEIGHT_END
  0
MTEXT
  5
E5B5
330
1F
100
AcDbEntity
  8
AM_6
100
AcDbMText
 10
227.052034234374
 20
166.8966929056982
 30
0.0
 40
3.2
 41
27.0
 71
     5
 72
     5
  1
3.5N・m
 73
     1
 44
1.0
1001
ACAD
1000
MTEXTBEGIN
1070
    73
1070
     1
1070
    44
1040
1.0
1070
    74
1070
     0
1000
MTEXTEND
1000
ACAD_MTEXT_DEFINED_HEIGHT_BEGIN
1070
    46
1040
6.000000000000012
1000
ACAD_MTEXT_DEFINED_HEIGHT_END
  0
MTEXT
  5
E753
330
1F
100
AcDbEntity
  8
AM_6
100
AcDbMText
 10
211.0688971290088
 20
84.74065743765521
 30
0.0
 40
3.2
 41
68.2329675809575
 71
     1
 72
     5
  1
※計算値がヒンジのトルク値以下になる様に選定下さい。
 73
     1
 44
1.0
1001
ACAD
1000
MTEXTBEGIN
1070
    73
1070
     1
1070
    44
1040
1.0
1070
    74
1070
     0
1000
MTEXTEND
  0
MTEXT
  5
E754
330
1F
100
AcDbEntity
  8
AM_6
100
AcDbMText
 10
218.042338756053
 20
72.67878189045942
 30
0.0
 40
3.2
 41
17.8343458819885
 71
     5
 72
     5
  1
トルク値\P（N・m）
 73
     1
 44
1.0
1001
ACAD
1000
MTEXTBEGIN
1070
    73
1070
     1
1070
    44
1040
1.0
1070
    74
1070
     0
1000
MTEXTEND
  0
MTEXT
  5
E755
330
1F
100
AcDbEntity
  8
AM_6
100
AcDbMText
 10
250.8576546432683
 20
72.67878189045942
 30
0.0
 40
3.2
 41
51.67601794361565
 71
     5
 72
     5
  1
＝　　　　　　　　×扉重量（kg）×9.8
 73
     1
 44
1.0
1001
ACAD
1000
MTEXTBEGIN
1070
    73
1070
     1
1070
    44
1040
1.0
1070
    74
1070
     0
1000
MTEXTEND
  0
MTEXT
  5
E756
330
1F
100
AcDbEntity
  8
AM_6
100
AcDbMText
 10
236.8882659301789
 20
72.67878189045942
 30
0.0
 40
3.2
 41
17.8343458819885
 71
     5
 72
     5
  1
{\L扉高さ（m）}\P2
 73
     1
 44
1.0
1001
ACAD
1000
MTEXTBEGIN
1070
    73
1070
     1
1070
    44
1040
1.0
1070
    74
1070
     0
1000
MTEXTEND
  0
LWPOLYLINE
  5
E757
330
1F
100
AcDbEntity
  8
AM_0
100
AcDbPolyline
 90
        4
 70
     1
 43
0.0
 10
205.500000282035
 20
88.19866700462233
 10
285.500000282035
 20
88.19866700462233
 10
285.500000282035
 20
64.50000005047986
 10
205.500000282035
 20
64.50000005047986
1001
GENIUS_GENREC_14
1002
{
1000
PYDIR
1011
205.500000282035
1021
64.50000005047986
1031
0.0
1002
}
1002
{
1000
PXDIR
1011
285.500000282035
1021
88.19866700462233
1031
0.0
1002
}
1002
{
1000
PORI
1011
205.500000282035
1021
88.19866700462233
1031
0.0
1002
}
1002
{
1000
PINS
1011
205.500000282035
1021
88.19866700462233
1031
0.0
1002
}
1002
{
1000
PINS2
1011
285.500000282035
1021
64.50000005047986
1031
0.0
1002
}
1002
{
1000
C
1070
     1
1002
}
1001
GENIUS_GENODEF_13
1002
{
1000
HIER
1070
     0
1002
}
1002
{
1000
MANEDIT
1070
     0
1002
}
1002
{
1000
NOSEL
1070
     0
1002
}
1002
{
1000
BEHIND
1070
     0
1002
}
1002
{
1000
OTHER
1070
     0
1002
}
1002
{
1000
REACTOR
1002
}
1001
GENIUS_GENOBJ-N-REC_13
1002
{
1000
OWNER
1000
GEN
1002
}
  0
ENDSEC
  0
SECTION
  2
OBJECTS
  0
DICTIONARY
  5
C
330
0
100
AcDbDictionary
281
     1
  3
ACAD_2007HEADERVARS_RT
350
E799
  3
ACAD_BGPLOT_KEY
350
AB06
  3
ACAD_COLOR
350
A91D
  3
ACAD_GROUP
350
D
  3
ACAD_LAYOUT
350
1A
  3
ACAD_MATERIAL
350
A91C
  3
ACAD_MLINESTYLE
350
17
  3
ACAD_PLOTSETTINGS
350
19
  3
ACAD_PLOTSTYLENAME
350
E
  3
ACAD_TABLESTYLE
350
AAB9
  3
ACAD_VISUALSTYLE
350
B0F1
  3
AcAsAppObject
350
3DA1
  3
ACASGREF_MASTER
350
3DE9
  3
AcDbVariableDictionary
350
34
  3
AcmDictionary
350
47
  3
AD_GREF_MODULE
350
3DEA
  3
AD_MAPI_MODULE
350
3E06
  3
AMG
350
2B
  3
AMGSNAPSETTINGS
350
7D
  3
ASE_INDEX_DICTIONARY
350
CFB7
  3
DWGPROPS
350
E798
  3
MAPISURF_MODULE
350
3DEB
  0
DICTIONARY
  5
3F95
330
2
100
AcDbDictionary
280
     1
281
     1
  3
ACAD_LAYERFILTERS
360
B466
  3
ACAD_LAYERSTATES
360
3F96
  3
ACLYDICTIONARY
360
B465
  3
AMLAYER_GROUPCOLORS
360
AAB4
  0
DICTIONARY
  5
8A
330
1F
100
AcDbDictionary
280
     1
281
     1
  3
ACAD_SORTENTS
360
B1BA
  0
DICTIONARY
  5
E799
102
{ACAD_REACTORS
330
C
102
}
330
C
100
AcDbDictionary
281
     1
  3
DIMARCSYM
350
E79A
  0
DICTIONARY
  5
AB06
102
{ACAD_REACTORS
330
C
102
}
330
C
100
AcDbDictionary
280
     1
281
     1
  0
DICTIONARY
  5
A91D
102
{ACAD_REACTORS
330
C
102
}
330
C
100
AcDbDictionary
281
     1
  0
DICTIONARY
  5
D
102
{ACAD_REACTORS
330
C
102
}
330
C
100
AcDbDictionary
281
     1
  0
DICTIONARY
  5
1A
102
{ACAD_REACTORS
330
C
102
}
330
C
100
AcDbDictionary
281
     1
  3
Model
350
22
  3
ﾚｲｱｳﾄ1
350
1E
  3
ﾚｲｱｳﾄ2
350
26
  0
DICTIONARY
  5
A91C
102
{ACAD_REACTORS
330
C
102
}
330
C
100
AcDbDictionary
281
     1
  3
ByBlock
350
B0EF
  3
ByLayer
350
B0EE
  3
Global
350
B0F0
  0
DICTIONARY
  5
17
102
{ACAD_REACTORS
330
C
102
}
330
C
100
AcDbDictionary
281
     1
  3
Standard
350
18
  0
DICTIONARY
  5
19
102
{ACAD_REACTORS
330
C
102
}
330
C
100
AcDbDictionary
281
     1
  0
ACDBDICTIONARYWDFLT
  5
E
102
{ACAD_REACTORS
330
C
102
}
330
C
100
AcDbDictionary
281
     1
  3
Normal
350
F
100
AcDbDictionaryWithDefault
340
F
  0
DICTIONARY
  5
AAB9
102
{ACAD_REACTORS
330
C
102
}
330
C
100
AcDbDictionary
281
     1
  3
Standard
350
AABA
  0
DICTIONARY
  5
B0F1
102
{ACAD_REACTORS
330
C
102
}
330
C
100
AcDbDictionary
281
     1
  3
2dWireframe
350
B0F7
  3
3D Hidden
350
B0F9
  3
3dWireframe
350
B0F8
  3
Basic
350
B0F6
  3
Brighten
350
B0FD
  3
ColorChange
350
B101
  3
Conceptual
350
B0FA
  3
Dim
350
B0FC
  3
Facepattern
350
B100
  3
Flat
350
B0F2
  3
FlatWithEdges
350
B0F3
  3
Gouraud
350
B0F4
  3
GouraudWithEdges
350
B0F5
  3
Linepattern
350
B0FF
  3
Realistic
350
B0FB
  3
Thicken
350
B0FE
  0
ACAD_PROXY_OBJECT
  5
3DA1
102
{ACAD_REACTORS
330
C
102
}
330
C
100
AcDbProxyObject
 90
      499
 91
      576
 95
   917527
 70
     0
 93
       10
310
407F
 94
        0
1001
ACAD
1000
AcRTDxfName
1000
ASAPP
  0
ACAD_PROXY_OBJECT
  5
3DE9
102
{ACAD_REACTORS
330
C
102
}
330
C
100
AcDbProxyObject
 90
      499
 91
      581
 95
   917527
 70
     0
 93
       34
310
010000407F
 94
        0
1001
ACAD
1000
AcRTDxfName
1000
ACASGREFMASTER
  0
DICTIONARY
  5
34
102
{ACAD_REACTORS
330
C
102
}
330
C
100
AcDbDictionary
281
     1
  3
CTABLESTYLE
350
AAF3
  3
DIMASSOC
350
A10C
  3
FIELDEVAL
350
AB07
  3
INDEXCTL
350
35
  3
SORTENTS
350
194C
  0
DICTIONARY
  5
47
102
{ACAD_REACTORS
330
C
102
}
330
C
100
AcDbDictionary
281
     1
  3
AcmBOM
350
7E8
  3
AcmStdDictionary
350
4C
  3
AMDTSECTSYM_ARROWCOLOR
350
A929
  0
ACAD_PROXY_OBJECT
  5
3DEA
102
{ACAD_REACTORS
330
C
102
}
330
C
100
AcDbProxyObject
 90
      499
 91
      582
 95
   917527
 70
     0
 93
      114
310
00000043800000000000000000003F
 94
        0
1001
ACAD
1000
AcRTDxfName
1000
ACADGREFMODULE
  0
ACAD_PROXY_OBJECT
  5
3E06
102
{ACAD_REACTORS
330
C
102
}
330
C
100
AcDbProxyObject
 90
      499
 91
      594
 95
   917527
 70
     0
 93
       34
310
05000044FF
 94
        0
1001
ACAD
1000
AcRTDxfName
1000
MAPIADMODULE
  0
DICTIONARY
  5
2B
102
{ACAD_REACTORS
330
C
102
}
330
C
100
AcDbDictionary
281
     1
  0
DICTIONARY
  5
7D
102
{ACAD_REACTORS
330
C
102
}
330
C
100
AcDbDictionary
281
     1
  0
DICTIONARY
  5
CFB7
102
{ACAD_REACTORS
330
C
102
}
330
C
100
AcDbDictionary
281
     1
  3
ASEBlockHierarchyIndexRecord
350
CFB8
1001
DCO15
1040
1758720314.267
  0
XRECORD
  5
E798
102
{ACAD_REACTORS
330
C
102
}
330
C
100
AcDbXrecord
280
     1
  1
DWGPROPS COOKIE
  2

  3

  4

  6

  7

  8
Administrator
  9

300
AmdtFileType=84
301
=
302
=
303
=
304
=
305
=
306
=
307
=
308
=
309
=
 40
0.1688636805555556
 41
2456139.798878935
 42
2456267.607148796
  1

 90
        1
  0
ACAD_PROXY_OBJECT
  5
3DEB
102
{ACAD_REACTORS
330
C
102
}
330
C
100
AcDbProxyObject
 90
      499
 91
      583
 95
   917527
 70
     0
 93
        8
310
047E
 94
        0
1001
ACAD
1000
AcRTDxfName
1000
AMDTMAPISURFMOUDULE
  0
DICTIONARY
  5
B466
102
{ACAD_REACTORS
330
3F95
102
}
330
3F95
100
AcDbDictionary
281
     1
  0
DICTIONARY
  5
3F96
102
{ACAD_REACTORS
330
3F95
102
}
330
3F95
100
AcDbDictionary
281
     1
  3
20011210
350
3FB7
  0
DICTIONARY
  5
B465
102
{ACAD_REACTORS
330
3F95
102
}
330
3F95
100
AcDbDictionary
281
     1
1001
ACAD
1000
<All
  0
DICTIONARY
  5
AAB4
102
{ACAD_REACTORS
330
3F95
102
}
330
3F95
100
AcDbDictionary
280
     1
281
     1
  0
SORTENTSTABLE
  5
B1BA
102
{ACAD_REACTORS
330
8A
102
}
330
8A
100
AcDbSortentsTable
330
1F
331
D8B4
  5
D8CD
331
D87D
  5
D896
331
D8FB
  5
D914
331
D96A
  5
D983
331
D8BC
  5
D8E3
331
D885
  5
D89E
331
D903
  5
D91C
331
D972
  5
D98B
331
D8C4
  5
D8EB
331
D88D
  5
D8A6
331
D90B
  5
D924
331
D856
  5
D86F
331
DCD0
  5
DCE9
331
DDFE
  5
DDFE
331
DCE0
  5
D85E
331
D982
  5
DC9E
331
D913
  5
D92C
331
D85E
  5
D877
331
D895
  5
D8AE
331
D98A
  5
DCB5
331
D8E4
  5
D8FD
331
D866
  5
D87F
331
D89D
  5
D8B6
331
D91B
  5
D935
331
D992
  5
DCC1
331
D923
  5
D93D
331
D8A5
  5
D8BE
331
D86E
  5
D887
331
D8EC
  5
D905
331
D92B
  5
D945
331
D8AD
  5
D8C6
331
D876
  5
D88F
331
D8F4
  5
D90D
331
DCB1
  5
DCD5
331
DCB9
  5
DCD6
331
DF66
  5
DF66
331
D8B5
  5
D8CE
331
D87E
  5
D897
331
D8FC
  5
D915
331
D96B
  5
D984
331
D8BD
  5
D8E4
331
D886
  5
D89F
331
D904
  5
D91D
331
D973
  5
D98C
331
D8C5
  5
D8EC
331
D88E
  5
D8A7
331
D90C
  5
D925
331
D8CD
  5
D8F4
331
D857
  5
D870
331
DCC9
  5
DCE2
331
DCD1
  5
DCEA
331
DCE1
  5
D85F
331
D983
  5
DCAE
331
D8DD
  5
D8F6
331
D85F
  5
D878
331
D896
  5
D8AF
331
D914
  5
D92D
331
D98B
  5
DCB6
331
D8E5
  5
D8FE
331
D867
  5
D880
331
D89E
  5
D8B7
331
D91C
  5
D936
331
D993
  5
DCC2
331
D924
  5
D93E
331
D8A6
  5
D8BF
331
D86F
  5
D888
331
D8ED
  5
D906
331
D92C
  5
D946
331
D8AE
  5
D8C7
331
D877
  5
D890
331
D8F5
  5
D90E
331
DCBA
  5
DCD7
331
DDE8
  5
DDE8
331
DF67
  5
DF67
331
D964
  5
D97D
331
D8B6
  5
D8DD
331
D87F
  5
D898
331
D8FD
  5
D916
331
D96C
  5
D985
331
D8BE
  5
D8E5
331
D887
  5
D8A0
331
D905
  5
D91E
331
D974
  5
D98D
331
D8C6
  5
D8ED
331
D88F
  5
D8A8
331
D90D
  5
D926
331
D8CE
  5
D8F5
331
DCCA
  5
DCE3
331
DCD2
  5
DCEB
331
DCE2
  5
D869
331
B6B2
  5
BDD0
331
D858
  5
D871
331
D984
  5
DCAF
331
D8DE
  5
D8F7
331
D860
  5
D879
331
D897
  5
D8B0
331
D915
  5
D92E
331
D98C
  5
DCB7
331
D8E6
  5
D8FF
331
D89F
  5
D8B8
331
D868
  5
D881
331
D91D
  5
D937
331
D994
  5
DCC3
331
D925
  5
D93F
331
D8A7
  5
D8C0
331
D870
  5
D889
331
D8EE
  5
D907
331
D92D
  5
D947
331
D8AF
  5
D8C8
331
D8F6
  5
D90F
331
DCBB
  5
DCD8
331
DF68
  5
DF68
331
D878
  5
D891
331
D965
  5
D97E
331
D8B7
  5
D8DE
331
D880
  5
D899
331
D8FE
  5
D917
331
D96D
  5
D986
331
D8BF
  5
D8E6
331
D888
  5
D8A1
331
D906
  5
D91F
331
D975
  5
D98E
331
D8C7
  5
D8EE
331
D90E
  5
D927
331
D97D
  5
D996
331
DCCB
  5
DCE4
331
DCD3
  5
DCEC
331
D859
  5
D872
331
D890
  5
D8A9
331
D985
  5
DCB0
331
D8DF
  5
D8F8
331
D861
  5
D87A
331
D898
  5
D8B1
331
D916
  5
D92F
331
D98D
  5
DCB8
331
D8E7
  5
D900
331
D869
  5
D882
331
D8A0
  5
D8B9
331
D91E
  5
D938
331
D995
  5
DCC5
331
D8A8
  5
D8C1
331
D871
  5
D88A
331
D8EF
  5
D908
331
D926
  5
D940
331
D92E
  5
D948
331
D8F7
  5
D910
331
DCBC
  5
DCDD
331
DF69
  5
DF69
331
D8B0
  5
D8C9
331
D879
  5
D892
331
D8B8
  5
D8DF
331
D881
  5
D89A
331
D8FF
  5
D918
331
D966
  5
D97F
331
D8C0
  5
D8E7
331
D889
  5
D8A2
331
D907
  5
D920
331
D96E
  5
D987
331
D8C8
  5
D8EF
331
D90F
  5
D928
331
D97E
  5
D997
331
DCCC
  5
DCE5
331
DCD4
  5
B6B0
331
D85A
  5
D873
331
D891
  5
D8AA
331
D8E0
  5
D8F9
331
D862
  5
D87B
331
D899
  5
D8B2
331
D917
  5
D931
331
D986
  5
DCB1
331
D91F
  5
D939
331
D8A1
  5
D8BA
331
D86A
  5
D883
331
D8E8
  5
D901
331
D98E
  5
DCB9
331
D927
  5
D941
331
D8A9
  5
D8C2
331
D872
  5
D88B
331
D8F0
  5
D909
331
D996
  5
DCC6
331
D92F
  5
D949
331
DCEC
  5
D86B
331
DD0C
  5
DD0C
331
DCC5
  5
DCDE
331
DF6A
  5
DF6A
331
D8B1
  5
D8CA
331
D87A
  5
D893
331
D8F8
  5
D911
331
D8B9
  5
D8E0
331
D882
  5
D89B
331
D900
  5
D919
331
D967
  5
D980
331
D8C1
  5
D8E8
331
D88A
  5
D8A3
331
D908
  5
D921
331
D96F
  5
D988
331
D8C9
  5
D8F0
331
D853
  5
D86C
331
D97F
  5
D9A0
331
DCCD
  5
DCE6
331
DCD5
  5
DCED
331
DD34
  5
DD34
331
DCDD
  5
D85B
331
D910
  5
D929
331
D85B
  5
D874
331
D892
  5
D8AB
331
D8E1
  5
D8FA
331
D863
  5
D87C
331
D89A
  5
D8B3
331
D918
  5
D932
331
D987
  5
DCB2
331
D920
  5
D93A
331
D8A2
  5
D8BB
331
D86B
  5
D884
331
D8E9
  5
D902
331
D98F
  5
DCBA
331
D928
  5
D942
331
D8AA
  5
D8C3
331
D873
  5
D88C
331
D8F1
  5
D90A
331
D997
  5
DCC7
331
DCAE
  5
DCCB
331
DCC6
  5
DCDF
331
DF6B
  5
DF6B
331
D8B2
  5
D8CB
331
D87B
  5
D894
331
D8F9
  5
D912
331
D8BA
  5
D8E1
331
D883
  5
D89C
331
D901
  5
D91A
331
D968
  5
D981
331
D8C2
  5
D8E9
331
D88B
  5
D8A4
331
D909
  5
D922
331
D970
  5
D989
331
D8CA
  5
D8F1
331
D854
  5
D86D
331
DCDE
  5
D85C
331
DE14
  5
DE14
331
D911
  5
D92A
331
D85C
  5
D875
331
D893
  5
D8AC
331
D980
  5
D9A1
331
D8E2
  5
D8FB
331
D864
  5
D87D
331
D89B
  5
D8B4
331
D919
  5
D933
331
D988
  5
DCB3
331
D921
  5
D93B
331
D8A3
  5
D8BC
331
D86C
  5
D885
331
D8EA
  5
D903
331
D990
  5
DCBB
331
D929
  5
D943
331
D8AB
  5
D8C4
331
D874
  5
D88D
331
D8F2
  5
D90B
331
DCAF
  5
DCCC
331
DCF6
  5
DCF6
331
DCC7
  5
DCE0
331
DF6C
  5
DF6C
331
D8B3
  5
D8CC
331
D87C
  5
D895
331
D8FA
  5
D913
331
D969
  5
D982
331
D8BB
  5
D8E2
331
D884
  5
D89D
331
D902
  5
D91B
331
D971
  5
D98A
331
D8C3
  5
D8EA
331
D88C
  5
D8A5
331
D90A
  5
D923
331
D855
  5
D86E
331
DCCF
  5
DCE8
331
DCDF
  5
D85D
331
D981
  5
D9B7
331
D912
  5
D92B
331
D85D
  5
D876
331
D894
  5
D8AD
331
D989
  5
DCB4
331
D8E3
  5
D8FC
331
D865
  5
D87E
331
D89C
  5
D8B5
331
D91A
  5
D934
331
D991
  5
DCBC
331
D922
  5
D93C
331
D8A4
  5
D8BD
331
D86D
  5
D886
331
D8EB
  5
D904
331
D92A
  5
D944
331
D8AC
  5
D8C5
331
D875
  5
D88E
331
D8F3
  5
D90C
331
DCB0
  5
DCCD
331
DF6D
  5
DF6D
  0
XRECORD
  5
E79A
102
{ACAD_REACTORS
330
E799
102
}
330
E799
100
AcDbXrecord
280
     1
 70
     1
  0
LAYOUT
  5
22
102
{ACAD_XDICTIONARY
360
E79D
102
}
102
{ACAD_REACTORS
330
1A
102
}
330
1A
100
AcDbPlotSettings
  1

  2
DocuCentre-II C5400
  4
A4
  6
AM_VIEW1
 40
4.857749938964843
 41
4.942390441894531
 42
4.942413330078125
 43
4.857757568359375
 44
209.9733276367187
 45
297.0106506347656
 46
-4.958807910208179
 47
-4.941300664398795
 48
214.3704939521119
 49
367.5855324241176
140
275.6727856380065
141
407.629191407817
142
1.0
143
1.0
 70
  3748
 72
     1
 73
     1
 74
     1
  7
monochrome.ctb
 75
     0
147
0.9532055446079798
148
0.0304669030847435
149
0.0283341126892083
100
AcDbLayout
  1
Model
 70
     1
 71
     0
 10
0.0
 20
0.0
 11
12.0
 21
9.0
 12
0.0
 22
0.0
 32
0.0
 14
0.0
 24
0.0
 34
0.0
 15
0.0
 25
0.0
 35
0.0
146
0.0
 13
0.0
 23
0.0
 33
0.0
 16
1.0
 26
0.0
 36
0.0
 17
0.0
 27
1.0
 37
0.0
 76
     0
330
1F
331
B0EC
1001
ACAD_PSEXT
1000
DocuCentre-II C5400
1000
FX DocuCentre-II C5400
1000
192.168.2.200
1000

1070
     0
  0
LAYOUT
  5
1E
102
{ACAD_XDICTIONARY
360
E79B
102
}
102
{ACAD_REACTORS
330
1A
102
}
330
1A
100
AcDbPlotSettings
  1

  2
\\ML370\XEROX
  4
A4
  6

 40
3.174999952316284
 41
3.174999952316284
 42
3.175003051757812
 43
3.17498779296875
 44
209.8674926757813
 45
296.6719970703125
 46
0.0
 47
0.0
 48
0.0
 49
0.0
140
0.0
141
0.0
142
1.0
143
1.0
 70
   688
 72
     1
 73
     1
 74
     5
  7
monochrome.ctb
 75
    16
147
1.0
148
0.0
149
0.0
100
AcDbLayout
  1
ﾚｲｱｳﾄ1
 70
     1
 71
     1
 10
-3.17498779296875
 20
-3.174999952316284
 11
293.4970092773438
 21
206.692492723465
 12
0.0
 22
0.0
 32
0.0
 14
1.000000000000000E+20
 24
1.000000000000000E+20
 34
1.000000000000000E+20
 15
-1.000000000000000E+20
 25
-1.000000000000000E+20
 35
-1.000000000000000E+20
146
0.0
 13
0.0
 23
0.0
 33
0.0
 16
1.0
 26
0.0
 36
0.0
 17
0.0
 27
1.0
 37
0.0
 76
     0
330
1B
  0
LAYOUT
  5
26
102
{ACAD_XDICTIONARY
360
E79F
102
}
102
{ACAD_REACTORS
330
1A
102
}
330
1A
100
AcDbPlotSettings
  1

  2
\\ML370\XEROX
  4

  6

 40
0.0
 41
0.0
 42
0.0
 43
0.0
 44
0.0
 45
0.0
 46
0.0
 47
0.0
 48
0.0
 49
0.0
140
0.0
141
0.0
142
1.0
143
1.0
 70
   688
 72
     0
 73
     0
 74
     5
  7
monochrome.ctb
 75
    16
147
1.0
148
0.0
149
0.0
100
AcDbLayout
  1
ﾚｲｱｳﾄ2
 70
     1
 71
     2
 10
0.0
 20
0.0
 11
12.0
 21
9.0
 12
0.0
 22
0.0
 32
0.0
 14
0.0
 24
0.0
 34
0.0
 15
0.0
 25
0.0
 35
0.0
146
0.0
 13
0.0
 23
0.0
 33
0.0
 16
1.0
 26
0.0
 36
0.0
 17
0.0
 27
1.0
 37
0.0
 76
     0
330
23
  0
MATERIAL
  5
B0EF
102
{ACAD_XDICTIONARY
360
E7A5
102
}
102
{ACAD_REACTORS
330
A91C
102
}
330
A91C
100
AcDbMaterial
  1
ByBlock
  0
MATERIAL
  5
B0EE
102
{ACAD_XDICTIONARY
360
E7A3
102
}
102
{ACAD_REACTORS
330
A91C
102
}
330
A91C
100
AcDbMaterial
  1
ByLayer
  0
MATERIAL
  5
B0F0
102
{ACAD_XDICTIONARY
360
E7A7
102
}
102
{ACAD_REACTORS
330
A91C
102
}
330
A91C
100
AcDbMaterial
  1
Global
  0
MLINESTYLE
  5
18
102
{ACAD_REACTORS
330
17
102
}
330
17
100
AcDbMlineStyle
  2
STANDARD
 70
     0
  3

 62
   256
 51
90.0
 52
90.0
 71
     2
 49
0.5
 62
   256
  6
BYLAYER
 49
-0.5
 62
   256
  6
BYLAYER
  0
ACDBPLACEHOLDER
  5
F
102
{ACAD_REACTORS
330
E
102
}
330
E
  0
TABLESTYLE
  5
AABA
102
{ACAD_XDICTIONARY
360
E7A1
102
}
102
{ACAD_REACTORS
330
AAB9
102
}
330
AAB9
100
AcDbTableStyle
  3
Standard
 70
     0
 71
     0
 40
1.5
 41
1.5
280
     0
281
     0
  7
STANDARD
140
4.5
170
     2
 62
     0
 63
     7
283
     0
274
    -2
284
     1
 64
     0
275
    -2
285
     1
 65
     0
276
    -2
286
     1
 66
     0
277
    -2
287
     1
 67
     0
278
    -2
288
     1
 68
     0
279
    -2
289
     1
 69
     0
  7
STANDARD
140
6.0
170
     5
 62
     0
 63
     7
283
     0
274
    -2
284
     1
 64
     0
275
    -2
285
     1
 65
     0
276
    -2
286
     1
 66
     0
277
    -2
287
     1
 67
     0
278
    -2
288
     1
 68
     0
279
    -2
289
     1
 69
     0
  7
STANDARD
140
4.5
170
     5
 62
     0
 63
     7
283
     0
274
    -2
284
     1
 64
     0
275
    -2
285
     1
 65
     0
276
    -2
286
     1
 66
     0
277
    -2
287
     1
 67
     0
278
    -2
288
     1
 68
     0
279
    -2
289
     1
 69
     0
  0
VISUALSTYLE
  5
B0F7
102
{ACAD_REACTORS
330
B0F1
102
}
330
B0F1
100
AcDbVisualStyle
  2
2dWireframe
 70
     4
 71
     0
 72
     2
 73
     0
 90
        0
 40
-0.6
 41
-30.0
 62
     5
 63
     7
 74
     1
 91
        4
 64
     7
 65
   257
 75
     1
175
     1
 42
1.0
 92
        0
 66
   257
 43
1.0
 76
     1
 77
     6
 78
     2
 67
     7
 79
     5
170
     0
171
     0
290
     0
174
     0
 93
        1
 44
0.0
173
     0
291
     0
 45
0.0
1001
ACAD
1000
AcDbSavedByObjectVersion
1070
     0
  0
VISUALSTYLE
  5
B0F9
102
{ACAD_REACTORS
330
B0F1
102
}
330
B0F1
100
AcDbVisualStyle
  2
3D Hidden
 70
     6
 71
     1
 72
     2
 73
     2
 90
        0
 40
-0.6
 41
-30.0
 62
     5
 63
     7
 74
     2
 91
        2
 64
     7
 65
   257
 75
     2
175
     1
 42
40.0
 92
        0
 66
   257
 43
1.0
 76
     1
 77
     6
 78
     2
 67
     7
 79
     3
170
     0
171
     0
290
     0
174
     0
 93
        1
 44
0.0
173
     0
291
     0
 45
0.0
1001
ACAD
1000
AcDbSavedByObjectVersion
1070
     0
  0
VISUALSTYLE
  5
B0F8
102
{ACAD_REACTORS
330
B0F1
102
}
330
B0F1
100
AcDbVisualStyle
  2
3dWireframe
 70
     5
 71
     0
 72
     2
 73
     0
 90
        0
 40
-0.6
 41
-30.0
 62
     5
 63
     7
 74
     1
 91
        4
 64
     7
 65
   257
 75
     1
175
     1
 42
1.0
 92
        0
 66
   257
 43
1.0
 76
     1
 77
     6
 78
     2
 67
     7
 79
     5
170
     0
171
     0
290
     0
174
     0
 93
        1
 44
0.0
173
     0
291
     0
 45
0.0
1001
ACAD
1000
AcDbSavedByObjectVersion
1070
     0
  0
VISUALSTYLE
  5
B0F6
102
{ACAD_REACTORS
330
B0F1
102
}
330
B0F1
100
AcDbVisualStyle
  2
Basic
 70
     7
 71
     1
 72
     0
 73
     1
 90
        0
 40
-0.6
 41
-30.0
 62
     5
 63
     7
 74
     0
 91
        4
 64
     7
 65
   257
 75
     1
175
     1
 42
1.0
 92
        8
 66
     7
 43
1.0
 76
     1
 77
     6
 78
     2
 67
     7
 79
     5
170
     0
171
     0
290
     0
174
     0
 93
        1
 44
0.0
173
     0
291
     1
 45
0.0
1001
ACAD
1000
AcDbSavedByObjectVersion
1070
     0
  0
VISUALSTYLE
  5
B0FD
102
{ACAD_REACTORS
330
B0F1
102
}
330
B0F1
100
AcDbVisualStyle
  2
Brighten
 70
    12
 71
     2
 72
     2
 73
     0
 90
        0
 40
-0.6
 41
-30.0
 62
     5
 63
     7
 74
     1
 91
        4
 64
     7
 65
   257
 75
     1
175
     1
 42
1.0
 92
        8
 66
     7
 43
1.0
 76
     1
 77
     6
 78
     2
 67
     7
 79
     5
170
     0
171
     0
290
     0
174
     0
 93
        1
 44
50.0
173
     0
291
     1
 45
0.0
1001
ACAD
1000
AcDbSavedByObjectVersion
1070
     0
  0
VISUALSTYLE
  5
B101
102
{ACAD_REACTORS
330
B0F1
102
}
330
B0F1
100
AcDbVisualStyle
  2
ColorChange
 70
    16
 71
     2
 72
     2
 73
     3
 90
        0
 40
-0.6
 41
-30.0
 62
     5
 63
     8
 74
     1
 91
        4
 64
     7
 65
   257
 75
     1
175
     1
 42
1.0
 92
        8
 66
     8
 43
1.0
 76
     1
 77
     6
 78
     2
 67
     7
 79
     5
170
     0
171
     0
290
     0
174
     0
 93
        1
 44
0.0
173
     0
291
     1
 45
0.0
1001
ACAD
1000
AcDbSavedByObjectVersion
1070
     0
  0
VISUALSTYLE
  5
B0FA
102
{ACAD_REACTORS
330
B0F1
102
}
330
B0F1
100
AcDbVisualStyle
  2
Conceptual
 70
     9
 71
     3
 72
     2
 73
     0
 90
        0
 40
-0.6
 41
-30.0
 62
     5
 63
     7
 74
     2
 91
        2
 64
     7
 65
   257
 75
     1
175
     1
 42
40.0
 92
        8
 66
     7
 43
1.0
 76
     1
 77
     6
 78
     2
 67
     7
 79
     3
170
     0
171
     0
290
     0
174
     0
 93
        1
 44
0.0
173
     0
291
     0
 45
0.0
1001
ACAD
1000
AcDbSavedByObjectVersion
1070
     0
  0
VISUALSTYLE
  5
B0FC
102
{ACAD_REACTORS
330
B0F1
102
}
330
B0F1
100
AcDbVisualStyle
  2
Dim
 70
    11
 71
     2
 72
     2
 73
     0
 90
        0
 40
-0.6
 41
-30.0
 62
     5
 63
     7
 74
     1
 91
        4
 64
     7
 65
   257
 75
     1
175
     1
 42
1.0
 92
        8
 66
     7
 43
1.0
 76
     1
 77
     6
 78
     2
 67
     7
 79
     5
170
     0
171
     0
290
     0
174
     0
 93
        1
 44
-50.0
173
     0
291
     1
 45
0.0
1001
ACAD
1000
AcDbSavedByObjectVersion
1070
     0
  0
VISUALSTYLE
  5
B100
102
{ACAD_REACTORS
330
B0F1
102
}
330
B0F1
100
AcDbVisualStyle
  2
Facepattern
 70
    15
 71
     2
 72
     2
 73
     0
 90
        0
 40
-0.6
 41
-30.0
 62
     5
 63
     7
 74
     1
 91
        4
 64
     7
 65
   257
 75
     1
175
     1
 42
1.0
 92
        8
 66
     7
 43
1.0
 76
     1
 77
     6
 78
     2
 67
     7
 79
     5
170
     0
171
     0
290
     0
174
     0
 93
        1
 44
0.0
173
     0
291
     1
 45
0.0
1001
ACAD
1000
AcDbSavedByObjectVersion
1070
     0
  0
VISUALSTYLE
  5
B0F2
102
{ACAD_REACTORS
330
B0F1
102
}
330
B0F1
100
AcDbVisualStyle
  2
Flat
 70
     0
 71
     2
 72
     1
 73
     1
 90
        2
 40
-0.6
 41
30.0
 62
     5
 63
     7
 74
     0
 91
        4
 64
     7
 65
   257
 75
     1
175
     1
 42
1.0
 92
        8
 66
     7
 43
1.0
 76
     1
 77
     6
 78
     2
 67
     7
 79
     5
170
     0
171
     0
290
     0
174
     0
 93
       13
 44
0.0
173
     0
291
     1
 45
0.0
1001
ACAD
1000
AcDbSavedByObjectVersion
1070
     0
  0
VISUALSTYLE
  5
B0F3
102
{ACAD_REACTORS
330
B0F1
102
}
330
B0F1
100
AcDbVisualStyle
  2
FlatWithEdges
 70
     1
 71
     2
 72
     1
 73
     1
 90
        2
 40
-0.6
 41
30.0
 62
     5
 63
     7
 74
     1
 91
        4
 64
     7
 65
   257
 75
     1
175
     1
 42
1.0
 92
        0
 66
   257
 43
1.0
 76
     1
 77
     6
 78
     2
 67
     7
 79
     5
170
     0
171
     0
290
     0
174
     0
 93
       13
 44
0.0
173
     0
291
     1
 45
0.0
1001
ACAD
1000
AcDbSavedByObjectVersion
1070
     0
  0
VISUALSTYLE
  5
B0F4
102
{ACAD_REACTORS
330
B0F1
102
}
330
B0F1
100
AcDbVisualStyle
  2
Gouraud
 70
     2
 71
     2
 72
     2
 73
     1
 90
        2
 40
-0.6
 41
30.0
 62
     5
 63
     7
 74
     0
 91
        4
 64
     7
 65
   257
 75
     1
175
     1
 42
1.0
 92
        0
 66
     7
 43
1.0
 76
     1
 77
     6
 78
     2
 67
     7
 79
     5
170
     0
171
     0
290
     0
174
     0
 93
       13
 44
0.0
173
     0
291
     1
 45
0.0
1001
ACAD
1000
AcDbSavedByObjectVersion
1070
     0
  0
VISUALSTYLE
  5
B0F5
102
{ACAD_REACTORS
330
B0F1
102
}
330
B0F1
100
AcDbVisualStyle
  2
GouraudWithEdges
 70
     3
 71
     2
 72
     2
 73
     1
 90
        2
 40
-0.6
 41
30.0
 62
     5
 63
     7
 74
     1
 91
        4
 64
     7
 65
   257
 75
     1
175
     1
 42
1.0
 92
        0
 66
   257
 43
1.0
 76
     1
 77
     6
 78
     2
 67
     7
 79
     5
170
     0
171
     0
290
     0
174
     0
 93
       13
 44
0.0
173
     0
291
     1
 45
0.0
1001
ACAD
1000
AcDbSavedByObjectVersion
1070
     0
  0
VISUALSTYLE
  5
B0FF
102
{ACAD_REACTORS
330
B0F1
102
}
330
B0F1
100
AcDbVisualStyle
  2
Linepattern
 70
    14
 71
     2
 72
     2
 73
     0
 90
        0
 40
-0.6
 41
-30.0
 62
     5
 63
     7
 74
     1
 91
        4
 64
     7
 65
   257
 75
     7
175
     7
 42
1.0
 92
        8
 66
     7
 43
1.0
 76
     1
 77
     6
 78
     2
 67
     7
 79
     5
170
     0
171
     0
290
     0
174
     0
 93
        1
 44
0.0
173
     0
291
     1
 45
0.0
1001
ACAD
1000
AcDbSavedByObjectVersion
1070
     0
  0
VISUALSTYLE
  5
B0FB
102
{ACAD_REACTORS
330
B0F1
102
}
330
B0F1
100
AcDbVisualStyle
  2
Realistic
 70
     8
 71
     2
 72
     2
 73
     0
 90
        0
 40
-0.6
 41
-30.0
 62
     5
 63
     7
 74
     1
 91
        0
 64
     7
 65
   257
 75
     1
175
     1
 42
1.0
 92
        8
 66
     8
 43
1.0
 76
     1
 77
     6
 78
     2
 67
     7
 79
     5
170
     0
171
     0
290
     0
174
     0
 93
       13
 44
0.0
173
     0
291
     0
 45
0.0
1001
ACAD
1000
AcDbSavedByObjectVersion
1070
     0
  0
VISUALSTYLE
  5
B0FE
102
{ACAD_REACTORS
330
B0F1
102
}
330
B0F1
100
AcDbVisualStyle
  2
Thicken
 70
    13
 71
     2
 72
     2
 73
     0
 90
        0
 40
-0.6
 41
-30.0
 62
     5
 63
     7
 74
     1
 91
        4
 64
     7
 65
   257
 75
     1
175
     1
 42
1.0
 92
       12
 66
     7
 43
1.0
 76
     1
 77
     6
 78
     2
 67
     7
 79
     5
170
     0
171
     0
290
     0
174
     0
 93
        1
 44
0.0
173
     0
291
     1
 45
0.0
1001
ACAD
1000
AcDbSavedByObjectVersion
1070
     0
  0
DICTIONARYVAR
  5
AAF3
102
{ACAD_REACTORS
330
34
102
}
330
34
100
DictionaryVariables
280
     0
  1
STANDARD
  0
DICTIONARYVAR
  5
A10C
102
{ACAD_REACTORS
330
34
102
}
330
34
100
DictionaryVariables
280
     0
  1
1
  0
DICTIONARYVAR
  5
AB07
102
{ACAD_REACTORS
330
34
102
}
330
34
100
DictionaryVariables
280
     0
  1
4
  0
DICTIONARYVAR
  5
35
102
{ACAD_REACTORS
330
34
102
}
330
34
100
DictionaryVariables
280
     0
  1
0
  0
DICTIONARYVAR
  5
194C
102
{ACAD_REACTORS
330
34
102
}
330
34
100
DictionaryVariables
280
     0
  1
127
  0
DICTIONARY
  5
7E8
102
{ACAD_REACTORS
330
47
102
}
330
47
100
AcDbDictionary
281
     1
  0
DICTIONARY
  5
4C
102
{ACAD_REACTORS
330
47
102
}
330
47
100
AcDbDictionary
281
     1
  0
XRECORD
  5
A929
102
{ACAD_REACTORS
330
47
102
}
330
47
100
AcDbXrecord
280
     1
 90
-1023410169
  0
XRECORD
  5
CFB8
102
{ACAD_REACTORS
330
CFB7
102
}
330
CFB7
100
AcDbXrecord
280
     1
330
E699
330
E69A
330
E6A2
330
E6A3
330
E6AB
330
E6AC
330
E6B4
330
E6B5
330
E6BD
330
E6BE
330
E6C8
330
E6C9
330
E6CF
330
E6D0
330
E6DA
330
E6DB
330
E6E5
330
E6E6
330
E6EE
330
E6EF
330
E6F7
330
E6F8
330
E6FE
330
E6FF
  0
XRECORD
  5
3FB7
102
{ACAD_REACTORS
330
3F96
102
}
330
3F96
100
AcDbXrecord
280
     1
 91
        3
330
0
 90
        8
 62
     7
370
    40
331
16
  1
Color_7
330
0
 90
        0
 62
    14
370
    -3
331
16
  1
Color_14
330
0
 90
        8
 62
     7
370
    20
331
16
  1
Color_7
330
6D1
 90
        0
 62
     7
370
    -3
331
16
  1
Color_7
330
0
 90
        8
 62
     7
370
    50
331
16
  1
Color_7
330
0
 90
        8
 62
     2
370
    35
331
16
  1
Color_2
330
0
 90
        8
 62
     7
370
    -3
331
16
  1
Color_7
330
10
 90
        8
 62
     7
370
    -3
331
16
  1
Color_7
  0
DICTIONARY
  5
E79D
330
22
100
AcDbDictionary
280
     1
281
     1
  3
ACAD_XREC_ROUNDTRIP
360
E79E
  0
DICTIONARY
  5
E79B
330
1E
100
AcDbDictionary
280
     1
281
     1
  3
ACAD_XREC_ROUNDTRIP
360
E79C
  0
DICTIONARY
  5
E79F
330
26
100
AcDbDictionary
280
     1
281
     1
  3
ACAD_XREC_ROUNDTRIP
360
E7A0
  0
DICTIONARY
  5
E7A5
330
B0EF
100
AcDbDictionary
280
     1
281
     1
  3
ACAD_XREC_ROUNDTRIP
360
E7A6
  0
DICTIONARY
  5
E7A3
330
B0EE
100
AcDbDictionary
280
     1
281
     1
  3
ACAD_XREC_ROUNDTRIP
360
E7A4
  0
DICTIONARY
  5
E7A7
330
B0F0
100
AcDbDictionary
280
     1
281
     1
  3
ACAD_XREC_ROUNDTRIP
360
E7A8
  0
DICTIONARY
  5
E7A1
330
AABA
100
AcDbDictionary
280
     1
281
     1
  3
ACAD_XREC_ROUNDTRIP
360
E7A2
  0
XRECORD
  5
E79E
102
{ACAD_REACTORS
330
E79D
102
}
330
E79D
100
AcDbXrecord
280
     1
102
SHADEPLOT
 70
     0
102
SHADEPLOTRESLEVEL
 70
     2
102
SHADEPLOTCUSTOMDPI
 70
   200
  0
XRECORD
  5
E79C
102
{ACAD_REACTORS
330
E79B
102
}
330
E79B
100
AcDbXrecord
280
     1
102
SHADEPLOT
 70
     0
102
SHADEPLOTRESLEVEL
 70
     2
102
SHADEPLOTCUSTOMDPI
 70
   300
  0
XRECORD
  5
E7A0
102
{ACAD_REACTORS
330
E79F
102
}
330
E79F
100
AcDbXrecord
280
     1
102
SHADEPLOT
 70
     0
102
SHADEPLOTRESLEVEL
 70
     2
102
SHADEPLOTCUSTOMDPI
 70
   300
  0
XRECORD
  5
E7A6
102
{ACAD_REACTORS
330
E7A5
102
}
330
E7A5
100
AcDbXrecord
280
     1
102
MATERIAL
148
0.0
149
0.0
149
0.0
 93
        0
 94
       63
282
     0
 72
     1
 77
     1
171
     1
175
     1
179
     1
273
     0
  0
XRECORD
  5
E7A4
102
{ACAD_REACTORS
330
E7A3
102
}
330
E7A3
100
AcDbXrecord
280
     1
102
MATERIAL
148
0.0
149
0.0
149
0.0
 93
        0
 94
       63
282
     0
 72
     1
 77
     1
171
     1
175
     1
179
     1
273
     0
  0
XRECORD
  5
E7A8
102
{ACAD_REACTORS
330
E7A7
102
}
330
E7A7
100
AcDbXrecord
280
     1
102
MATERIAL
148
0.0
149
0.0
149
0.0
 93
        0
 94
       63
282
     0
 72
     1
 77
     1
171
     1
175
     1
179
     1
273
     0
  0
XRECORD
  5
E7A2
102
{ACAD_REACTORS
330
E7A1
102
}
330
E7A1
100
AcDbXrecord
280
     1
102
ACAD_ROUNDTRIP_PRE2007_TABLESTYLE
 90
        4
 91
        0
  1

 92
        4
 93
        0
  2

 94
        4
 95
        0
  3

  0
ENDSEC
  0
EOF
