  0
SECTION
  2
HEADER
  9
$ACADVER
  1
AC1015
  9
$ACADMAINTVER
 70
    20
  9
$DWGCODEPAGE
  3
ANSI_932
  9
$INSBASE
 10
0.0
 20
0.0
 30
0.0
  9
$EXTMIN
 10
-0.0064046933538293
 20
-0.0045291821166984
 30
-0.0000000000000153
  9
$EXTMAX
 10
297.0225253804254
 20
210.0146963996278
 30
0.0000000000000153
  9
$LIMMIN
 10
0.0000002820350623
 20
0.0000000504797413
  9
$LIMMAX
 10
420.000000282035
 20
297.0000000504797
  9
$ORTHOMODE
 70
     0
  9
$REGENMODE
 70
     1
  9
$FILLMODE
 70
     1
  9
$QTEXTMODE
 70
     0
  9
$MIRRTEXT
 70
     0
  9
$LTSCALE
 40
1.0
  9
$ATTMODE
 70
     1
  9
$TEXTSIZE
 40
3.2
  9
$TRACEWID
 40
1.0
  9
$TEXTSTYLE
  7
STANDARD
  9
$CLAYER
  8
AM_2
  9
$CELTYPE
  6
ByLayer
  9
$CECOLOR
 62
   256
  9
$CELTSCALE
 40
1.0
  9
$DISPSILH
 70
     0
  9
$DIMSCALE
 40
1.0
  9
$DIMASZ
 40
1.0
  9
$DIMEXO
 40
1.0
  9
$DIMDLI
 40
10.0
  9
$DIMRND
 40
0.0
  9
$DIMDLE
 40
0.0
  9
$DIMEXE
 40
1.0
  9
$DIMTP
 40
0.1
  9
$DIMTM
 40
0.1
  9
$DIMTXT
 40
3.5
  9
$DIMCEN
 40
0.0
  9
$DIMTSZ
 40
0.0
  9
$DIMTOL
 70
     0
  9
$DIMLIM
 70
     0
  9
$DIMTIH
 70
     0
  9
$DIMTOH
 70
     0
  9
$DIMSE1
 70
     0
  9
$DIMSE2
 70
     0
  9
$DIMTAD
 70
     1
  9
$DIMZIN
 70
     8
  9
$DIMBLK
  1

  9
$DIMASO
 70
     1
  9
$DIMSHO
 70
     1
  9
$DIMPOST
  1

  9
$DIMAPOST
  1
"
  9
$DIMALT
 70
     0
  9
$DIMALTD
 70
     2
  9
$DIMALTF
 40
0.0393701
  9
$DIMLFAC
 40
1.0
  9
$DIMTOFL
 70
     1
  9
$DIMTVP
 40
0.0
  9
$DIMTIX
 70
     0
  9
$DIMSOXD
 70
     0
  9
$DIMSAH
 70
     0
  9
$DIMBLK1
  1

  9
$DIMBLK2
  1

  9
$DIMSTYLE
  2
SYS
  9
$DIMCLRD
 70
   256
  9
$DIMCLRE
 70
   256
  9
$DIMCLRT
 70
     7
  9
$DIMTFAC
 40
0.71
  9
$DIMGAP
 40
1.5
  9
$DIMJUST
 70
     0
  9
$DIMSD1
 70
     0
  9
$DIMSD2
 70
     0
  9
$DIMTOLJ
 70
     0
  9
$DIMTZIN
 70
     8
  9
$DIMALTZ
 70
     0
  9
$DIMALTTZ
 70
     0
  9
$DIMUPT
 70
     0
  9
$DIMDEC
 70
     2
  9
$DIMTDEC
 70
     2
  9
$DIMALTU
 70
     2
  9
$DIMALTTD
 70
     2
  9
$DIMTXSTY
  7
STANDARD
  9
$DIMAUNIT
 70
     0
  9
$DIMADEC
 70
     0
  9
$DIMALTRND
 40
0.0
  9
$DIMAZIN
 70
     2
  9
$DIMDSEP
 70
    46
  9
$DIMATFIT
 70
     3
  9
$DIMFRAC
 70
     0
  9
$DIMLDRBLK
  1

  9
$DIMLUNIT
 70
     2
  9
$DIMLWD
 70
    -1
  9
$DIMLWE
 70
    -1
  9
$DIMTMOVE
 70
     0
  9
$LUNITS
 70
     2
  9
$LUPREC
 70
     2
  9
$SKETCHINC
 40
1.0
  9
$FILLETRAD
 40
0.0
  9
$AUNITS
 70
     0
  9
$AUPREC
 70
     0
  9
$MENU
  1
.
  9
$ELEVATION
 40
0.0
  9
$PELEVATION
 40
0.0
  9
$THICKNESS
 40
0.0
  9
$LIMCHECK
 70
     0
  9
$CHAMFERA
 40
0.0
  9
$CHAMFERB
 40
0.0
  9
$CHAMFERC
 40
20.0
  9
$CHAMFERD
 40
0.0
  9
$SKPOLY
 70
     0
  9
$TDCREATE
 40
2456139.798878935
  9
$TDUCREATE
 40
2456139.423878935
  9
$TDUPDATE
 40
2456267.607345012
  9
$TDUUPDATE
 40
2456267.232345012
  9
$TDINDWG
 40
0.2524235880
  9
$TDUSRTIMER
 40
0.2524234144
  9
$USRTIMER
 70
     1
  9
$ANGBASE
 50
0.0
  9
$ANGDIR
 70
     0
  9
$PDMODE
 70
     0
  9
$PDSIZE
 40
-3.0
  9
$PLINEWID
 40
0.0
  9
$SPLFRAME
 70
     0
  9
$SPLINETYPE
 70
     6
  9
$SPLINESEGS
 70
     8
  9
$HANDSEED
  5
14DA1
  9
$SURFTAB1
 70
     6
  9
$SURFTAB2
 70
     6
  9
$SURFTYPE
 70
     6
  9
$SURFU
 70
     6
  9
$SURFV
 70
     6
  9
$UCSBASE
  2

  9
$UCSNAME
  2

  9
$UCSORG
 10
0.0
 20
0.0
 30
0.0
  9
$UCSXDIR
 10
1.0
 20
0.0
 30
0.0
  9
$UCSYDIR
 10
0.0
 20
1.0
 30
0.0
  9
$UCSORTHOREF
  2

  9
$UCSORTHOVIEW
 70
     0
  9
$UCSORGTOP
 10
0.0
 20
0.0
 30
0.0
  9
$UCSORGBOTTOM
 10
0.0
 20
0.0
 30
0.0
  9
$UCSORGLEFT
 10
0.0
 20
0.0
 30
0.0
  9
$UCSORGRIGHT
 10
0.0
 20
0.0
 30
0.0
  9
$UCSORGFRONT
 10
0.0
 20
0.0
 30
0.0
  9
$UCSORGBACK
 10
0.0
 20
0.0
 30
0.0
  9
$PUCSBASE
  2

  9
$PUCSNAME
  2

  9
$PUCSORG
 10
0.0
 20
0.0
 30
0.0
  9
$PUCSXDIR
 10
1.0
 20
0.0
 30
0.0
  9
$PUCSYDIR
 10
0.0
 20
1.0
 30
0.0
  9
$PUCSORTHOREF
  2

  9
$PUCSORTHOVIEW
 70
     0
  9
$PUCSORGTOP
 10
0.0
 20
0.0
 30
0.0
  9
$PUCSORGBOTTOM
 10
0.0
 20
0.0
 30
0.0
  9
$PUCSORGLEFT
 10
0.0
 20
0.0
 30
0.0
  9
$PUCSORGRIGHT
 10
0.0
 20
0.0
 30
0.0
  9
$PUCSORGFRONT
 10
0.0
 20
0.0
 30
0.0
  9
$PUCSORGBACK
 10
0.0
 20
0.0
 30
0.0
  9
$USERI1
 70
     0
  9
$USERI2
 70
     0
  9
$USERI3
 70
     0
  9
$USERI4
 70
     0
  9
$USERI5
 70
     0
  9
$USERR1
 40
0.0
  9
$USERR2
 40
0.0
  9
$USERR3
 40
0.0
  9
$USERR4
 40
0.0
  9
$USERR5
 40
0.0
  9
$WORLDVIEW
 70
     1
  9
$SHADEDGE
 70
     3
  9
$SHADEDIF
 70
    70
  9
$TILEMODE
 70
     1
  9
$MAXACTVP
 70
    64
  9
$PINSBASE
 10
0.0
 20
0.0
 30
0.0
  9
$PLIMCHECK
 70
     0
  9
$PEXTMIN
 10
1.000000000000000E+20
 20
1.000000000000000E+20
 30
1.000000000000000E+20
  9
$PEXTMAX
 10
-1.000000000000000E+20
 20
-1.000000000000000E+20
 30
-1.000000000000000E+20
  9
$PLIMMIN
 10
-3.17498779296875
 20
-3.174999952316284
  9
$PLIMMAX
 10
293.4970092773438
 20
206.692492723465
  9
$UNITMODE
 70
     0
  9
$VISRETAIN
 70
     1
  9
$PLINEGEN
 70
     0
  9
$PSLTSCALE
 70
     1
  9
$TREEDEPTH
 70
  3020
  9
$CMLSTYLE
  2
Standard
  9
$CMLJUST
 70
     0
  9
$CMLSCALE
 40
20.0
  9
$PROXYGRAPHICS
 70
     1
  9
$MEASUREMENT
 70
     1
  9
$CELWEIGHT
370
    -1
  9
$ENDCAPS
280
     0
  9
$JOINSTYLE
280
     0
  9
$LWDISPLAY
290
     1
  9
$INSUNITS
 70
     4
  9
$HYPERLINKBASE
  1

  9
$STYLESHEET
  1
monochrome.ctb
  9
$XEDIT
290
     1
  9
$CEPSNTYPE
380
     0
  9
$PSTYLEMODE
290
     1
  9
$FINGERPRINTGUID
  2
{4DF3B1F6-3F13-4469-8453-5E0FD6DA0DB8}
  9
$VERSIONGUID
  2
{77CAD484-A740-4D6B-8975-6B82121A7B7C}
  9
$EXTNAMES
290
     1
  9
$PSVPSCALE
 40
0.0
  9
$OLESTARTUP
290
     0
  0
ENDSEC
  0
SECTION
  2
CLASSES
  0
CLASS
  1
ACDBDICTIONARYWDFLT
  2
AcDbDictionaryWithDefault
  3
ObjectDBX Classes
 90
        0
280
     0
281
     0
  0
CLASS
  1
ACDBPLACEHOLDER
  2
AcDbPlaceHolder
  3
ObjectDBX Classes
 90
        0
280
     0
281
     0
  0
CLASS
  1
LAYOUT
  2
AcDbLayout
  3
ObjectDBX Classes
 90
        0
280
     0
281
     0
  0
CLASS
  1
AMGSETTINGSOBJ
  2
AmgSettingsObj
  3
"AcadM|Product Description: AutoCAD Mechanical|Company: Autodesk"
 90
        0
280
     0
281
     0
  0
CLASS
  1
ACME_DOCUMENT
  2
AcMeDbDoc
  3
AcMeServices
 90
        0
280
     0
281
     0
  0
CLASS
  1
ACMESCOPE
  2
AcMeScope
  3
AcMeServices
 90
        0
280
     0
281
     0
  0
CLASS
  1
ACMECOMMANDHISTORY
  2
AcMeCommandHistory
  3
AcMeServices
 90
        0
280
     0
281
     0
  0
CLASS
  1
DICTIONARYVAR
  2
AcDbDictionaryVar
  3
ObjectDBX Classes
 90
        0
280
     0
281
     0
  0
CLASS
  1
ACIMSYSVARMAN
  2
AcImSysVarManager
  3
AcMeServices
 90
        0
280
     0
281
     0
  0
CLASS
  1
ACIMREALSYSVAR
  2
AcImRealSysVar
  3
AcMeServices
 90
        0
280
     0
281
     0
  0
CLASS
  1
ACIMINTSYSVAR
  2
AcImIntSysVar
  3
AcMeServices
 90
        0
280
     0
281
     0
  0
CLASS
  1
ACMEDRAWINGMAN
  2
AcMeDrawingMan
  3
AcMeServices
 90
        0
280
     0
281
     0
  0
CLASS
  1
ACMEVIEW
  2
AcMeView
  3
AcMeServices
 90
        0
280
     0
281
     0
  0
CLASS
  1
ACDBENTITYCACHE
  2
AcMeEntityCache
  3
AcMeServices
 90
        0
280
     0
281
     0
  0
CLASS
  1
GSMANAGER
  2
AcMeGSManager
  3
AcMeServices
 90
        0
280
     0
281
     0
  0
CLASS
  1
AMDTINTERNALREACTOR
  2
AmdtInternalReactor
  3
AcMeServices
 90
        0
280
     0
281
     0
  0
CLASS
  1
ACMESTATEMGR
  2
AcMeStateMgr
  3
AcMeServices
 90
        0
280
     0
281
     0
  0
CLASS
  1
ACGREFMASTER
  2
AcGrefMaster
  3
AcAttribServices
 90
        0
280
     0
281
     0
  0
CLASS
  1
ACME_DATABASE
  2
AcMeDbDatabase
  3
AcMeServices
 90
        0
280
     0
281
     0
  0
CLASS
  1
ACRFINSADJUSTERMGR
  2
AcRfInsAdjusterMgr
  3
AcMeServices
 90
        0
280
     0
281
     0
  0
CLASS
  1
ACGREFACADMASTER
  2
AcGrefacadMaster
  3
AcGrefServices
 90
        0
280
     0
281
     0
  0
CLASS
  1
AMIMASTER
  2
AmiMaster
  3
AmiServices
 90
        0
280
     0
281
     0
  0
CLASS
  1
ACMDATADICTIONARY
  2
AcmDataDictionary
  3
"AcmSymBB|Product Description: AutoCAD Mechanical|Company: Autodesk"
 90
        0
280
     0
281
     0
  0
CLASS
  1
ACMDATAENTRYBLOCK
  2
AcmDataEntryBlock
  3
"AcmSymBB|Product Description: AutoCAD Mechanical|Company: Autodesk"
 90
        0
280
     0
281
     0
  0
CLASS
  1
ACIMSTRSYSVAR
  2
AcImStrSysVar
  3
AcMeServices
 90
        0
280
     0
281
     0
  0
CLASS
  1
ACMSTANDARDISO
  2
AcmStandardISO
  3
"Amdt_StdImp|Product Description: AutoCAD Mechanical|Company: Autodesk"
 90
        0
280
     0
281
     0
  0
CLASS
  1
AMGOBJPROPCFG
  2
AmgObjPropCfg
  3
"AmgLay|Product Description: AutoCAD Mechanical|Company: Autodesk"
 90
        1
280
     0
281
     0
  0
CLASS
  1
AMDTEDGESTANDARDISO
  2
AmdtEdgeStdISO
  3
"Amdt_StdImp|Product Description: AutoCAD Mechanical|Company: Autodesk"
 90
        0
280
     0
281
     0
  0
CLASS
  1
ACMSURFSTANDARDISO
  2
AcmSurfTextStdISO
  3
"Amdt_StdImp|Product Description: AutoCAD Mechanical|Company: Autodesk"
 90
        0
280
     0
281
     0
  0
CLASS
  1
ACMFCFSTANDARDISO
  2
AcmFCFStdISO
  3
"Amdt_StdImp|Product Description: AutoCAD Mechanical|Company: Autodesk"
 90
        0
280
     0
281
     0
  0
CLASS
  1
ACMWELDSTANDARDISO
  2
AcmWeldingStdISO
  3
"Amdt_StdImp|Product Description: AutoCAD Mechanical|Company: Autodesk"
 90
        0
280
     0
281
     0
  0
CLASS
  1
ACMIDSTANDARDISO
  2
AcmIdStdISO
  3
"Amdt_StdImp|Product Description: AutoCAD Mechanical|Company: Autodesk"
 90
        0
280
     0
281
     0
  0
CLASS
  1
ACMDATUMSTANDARDISO
  2
AcmDatumStdISO
  3
"Amdt_StdImp|Product Description: AutoCAD Mechanical|Company: Autodesk"
 90
        0
280
     0
281
     0
  0
CLASS
  1
ACMBOMSTANDARDISO
  2
AcmBOMStdISO
  3
"Amdt_StdImp|Product Description: AutoCAD Mechanical|Company: Autodesk"
 90
        0
280
     0
281
     0
  0
CLASS
  1
ACMDETAILSTANDARDISO
  2
AmdtDetailSymStdISO
  3
"Amdt_StdImp|Product Description: AutoCAD Mechanical|Company: Autodesk"
 90
        0
280
     0
281
     0
  0
CLASS
  1
ACMSECTIONSTANDARDISO
  2
AmdtSectionSymStdISO
  3
"Amdt_StdImp|Product Description: AutoCAD Mechanical|Company: Autodesk"
 90
        0
280
     0
281
     0
  0
CLASS
  1
ACMCENTERLINESTANDARDISO
  2
AmdtCenterLineStdISO
  3
"Amdt_StdImp|Product Description: AutoCAD Mechanical|Company: Autodesk"
 90
        0
280
     0
281
     0
  0
CLASS
  1
ACAMGLAYSTD
  2
AcAmgLayStd
  3
"AmgLay|Product Description: AutoCAD Mechanical|Company: Autodesk"
 90
        0
280
     0
281
     0
  0
CLASS
  1
ACAMGDIMSTD
  2
AcAmgDimStd
  3
"AmgDim|Product Description: AutoCAD Mechanical|Company: Autodesk"
 90
        0
280
     0
281
     0
  0
CLASS
  1
ACAMGTITLESTD
  2
AcAmgTitleStd
  3
"AmgTitle|Product Description: AutoCAD Mechanical|Company: Autodesk"
 90
        0
280
     0
281
     0
  0
CLASS
  1
ACAMGFILTERDAT
  2
AcAmgFilterDat
  3
"AcadM|Product Description: AutoCAD Mechanical|Company: Autodesk"
 90
        0
280
     0
281
     0
  0
CLASS
  1
LAYER_INDEX
  2
AcDbLayerIndex
  3
ObjectDBX Classes
 90
    32768
280
     0
281
     0
  0
CLASS
  1
IDBUFFER
  2
AcDbIdBuffer
  3
ObjectDBX Classes
 90
    32768
280
     0
281
     0
  0
CLASS
  1
PLOTSETTINGS
  2
AcDbPlotSettings
  3
ObjectDBX Classes
 90
    32768
280
     0
281
     0
  0
CLASS
  1
AMDTFORMULAUPDATEDISPATCHER
  2
AmdtFormulaUpdateDispatcher
  3
AcMeServices
 90
        0
280
     0
281
     0
  0
CLASS
  1
ACMSTANDARDANSI
  2
AcmStandardANSI
  3
"Amdt_StdImp|Product Description: AutoCAD Mechanical|Company: Autodesk"
 90
        0
280
     0
281
     0
  0
CLASS
  1
ACMSURFSTANDARDANSI
  2
AcmSurfTextStdANSI
  3
"Amdt_StdImp|Product Description: AutoCAD Mechanical|Company: Autodesk"
 90
        0
280
     0
281
     0
  0
CLASS
  1
ACMFCFSTANDARDANSI
  2
AcmFCFStdANSI
  3
"Amdt_StdImp|Product Description: AutoCAD Mechanical|Company: Autodesk"
 90
        0
280
     0
281
     0
  0
CLASS
  1
ACMWELDSTANDARDANSI
  2
AcmWeldingStdANSI
  3
"Amdt_StdImp|Product Description: AutoCAD Mechanical|Company: Autodesk"
 90
        0
280
     0
281
     0
  0
CLASS
  1
ACMIDSTANDARDANSI
  2
AcmIdStdANSI
  3
"Amdt_StdImp|Product Description: AutoCAD Mechanical|Company: Autodesk"
 90
        0
280
     0
281
     0
  0
CLASS
  1
ACMDATUMSTANDARDANSI
  2
AcmDatumStdANSI
  3
"Amdt_StdImp|Product Description: AutoCAD Mechanical|Company: Autodesk"
 90
        0
280
     0
281
     0
  0
CLASS
  1
ACMBOMSTANDARDANSI
  2
AcmBOMStdANSI
  3
"Amdt_StdImp|Product Description: AutoCAD Mechanical|Company: Autodesk"
 90
        0
280
     0
281
     0
  0
CLASS
  1
ACMDETAILSTANDARDANSI
  2
AmdtDetailSymStdANSI
  3
"Amdt_StdImp|Product Description: AutoCAD Mechanical|Company: Autodesk"
 90
        0
280
     0
281
     0
  0
CLASS
  1
ACMSECTIONSTANDARDANSI
  2
AmdtSectionSymStdANSI
  3
"Amdt_StdImp|Product Description: AutoCAD Mechanical|Company: Autodesk"
 90
        0
280
     0
281
     0
  0
CLASS
  1
ACMCENTERLINESTANDARDANSI
  2
AmdtCenterLineStdANSI
  3
"Amdt_StdImp|Product Description: AutoCAD Mechanical|Company: Autodesk"
 90
        0
280
     0
281
     0
  0
CLASS
  1
ACMBOM
  2
AcmBom
  3
"AcmSymBB|Product Description: AutoCAD Mechanical|Company: Autodesk"
 90
        0
280
     0
281
     0
  0
CLASS
  1
ACMDATAENTRYPART
  2
AcmDataEntryPart
  3
"AcmSymBB|Product Description: AutoCAD Mechanical|Company: Autodesk"
 90
    32768
280
     0
281
     0
  0
CLASS
  1
ACMPARTREF
  2
AcmPartRef
  3
"AcmSymBB|Product Description: AutoCAD Mechanical|Company: Autodesk"
 90
    35839
280
     0
281
     1
  0
CLASS
  1
ACDBCIRCARCRES
  2
AcDbCircArcRes
  3
AcGrefServices
 90
        0
280
     0
281
     0
  0
CLASS
  1
ACMBOMROW
  2
AcmBomRow
  3
"AcmSymBB|Product Description: AutoCAD Mechanical|Company: Autodesk"
 90
    32768
280
     0
281
     0
  0
CLASS
  1
ACMBALLOON
  2
AcmBalloon
  3
"AcmSymBB|Product Description: AutoCAD Mechanical|Company: Autodesk"
 90
    35839
280
     0
281
     1
  0
CLASS
  1
AMDTNOTE
  2
AmdtNote
  3
"AcmSymBB|Product Description: AutoCAD Mechanical|Company: Autodesk"
 90
     3071
280
     0
281
     1
  0
CLASS
  1
STDPART2D
  2
AmgStdPart
  3
"g3vace|Class: AmgStdPart|Product Description: AutoCAD Mechanical|Company: Autodesk"
 90
    35839
280
     0
281
     1
  0
CLASS
  1
ACDBSTDPARTRES_LINE
  2
AcDbStdPartRes_Line
  3
"g3vace|Class: AcDbStdPartRes_Line|Product Description: AutoCAD Mechanical|Company: Autodesk"
 90
    32768
280
     0
281
     0
  0
CLASS
  1
ACMDATAENTRY
  2
AcmDataEntry
  3
"AcmSymBB|Product Description: AutoCAD Mechanical|Company: Autodesk"
 90
        0
280
     0
281
     0
  0
CLASS
  1
ACDBOPPOLYLINERES
  2
AcDbOpPolylineRes
  3
AcGrefServices
 90
    32768
280
     0
281
     0
  0
CLASS
  1
ACMPARTLIST
  2
AcmPartList
  3
"AcmSymBB|Product Description: AutoCAD Mechanical|Company: Autodesk"
 90
    35839
280
     0
281
     1
  0
CLASS
  1
ACDBLINERES
  2
AcDbLineRes
  3
AcGrefServices
 90
        0
280
     0
281
     0
  0
CLASS
  1
ACRFINSADJ
  2
AcRfInsAdjuster
  3
AcMeServices
 90
    32768
280
     0
281
     0
  0
CLASS
  1
AM_DRAWING_MGR
  2
AcDmDwgMgr
  3
AcMechDwgViewMgmt
 90
        0
280
     0
281
     0
  0
CLASS
  1
AM_DWG_DOCUMENT
  2
AcDmDwgDocument
  3
AcMechDwgViewMgmt
 90
        0
280
     0
281
     0
  0
CLASS
  1
AM_DWG_SHEET
  2
AcDmSheet
  3
AcMechDwgViewMgmt
 90
        0
280
     0
281
     0
  0
CLASS
  1
AM_VIEWDIMPARMAP
  2
AcDmViewDimParMap
  3
AcMechDwgViewMgmt
 90
        0
280
     0
281
     0
  0
CLASS
  1
AM_DWGMGR_NAME
  2
AcDmDwgMgrName
  3
AcMechDwgViewMgmt
 90
        0
280
     0
281
     0
  0
CLASS
  1
AMDTMENUSTATEMGR
  2
AmdtMenuStateMgr
  3
McadcomServices
 90
        0
280
     0
281
     0
  0
CLASS
  1
AMDTMCOMMENUSTATE
  2
AmdtMcomMenuState
  3
McadcomServices
 90
        0
280
     0
281
     0
  0
CLASS
  1
ASAPP
  2
AcAsAppObject
  3
AutoSurfServices
 90
        0
280
     0
281
     0
  0
CLASS
  1
IM_STATIC_MAN
  2
AcImStaticVarManager
  3
AcMeServices
 90
        0
280
     0
281
     0
  0
CLASS
  1
ACIMDBLSTATICVAR
  2
AcImDblStaticVar
  3
AcMeServices
 90
        0
280
     0
281
     0
  0
CLASS
  1
ACIMSTRSTATICVAR
  2
AcImStrStaticVar
  3
AcMeServices
 90
        0
280
     0
281
     0
  0
CLASS
  1
ACIMINTSTATICVAR
  2
AcImIntStaticVar
  3
AcMeServices
 90
        0
280
     0
281
     0
  0
CLASS
  1
ACASGREFMASTER
  2
AcAsGrefMaster
  3
AutoSurfResolverServices
 90
        0
280
     0
281
     0
  0
CLASS
  1
ACADGREFMODULE
  2
AcAdGrefModule
  3
AdGrefServices
 90
        0
280
     0
281
     0
  0
CLASS
  1
AMDTMAPISURFMOUDULE
  2
AmdtMApiSurfModule
  3
MApiSurfServices
 90
        0
280
     0
281
     0
  0
CLASS
  1
MAPIAMMOUDLE
  2
MApiAmModule
  3
MApiAmServices
 90
        0
280
     0
281
     0
  0
CLASS
  1
AMDTADMENUSTATE
  2
AmdtAdMenuState
  3
DesignerServices
 90
        0
280
     0
281
     0
  0
CLASS
  1
ADAPPL
  2
AcAdAppl
  3
DesignerServices
 90
        0
280
     0
281
     0
  0
CLASS
  1
DEPMGR
  2
AcAdDepMgr
  3
DesignerServices
 90
        0
280
     0
281
     0
  0
CLASS
  1
PARAMMGR
  2
AcAdParamMgr
  3
DesignerServices
 90
        0
280
     0
281
     0
  0
CLASS
  1
PARAMSCOPE
  2
AcAdParamScope
  3
DesignerServices
 90
        0
280
     0
281
     0
  0
CLASS
  1
NAMEDAPPL
  2
AcAdNamedAppl
  3
DesignerServices
 90
        0
280
     0
281
     0
  0
CLASS
  1
ADHNTMPLT
  2
AdHoleNoteTemplateMgr
  3
DesignerServices
 90
    32768
280
     0
281
     0
  0
CLASS
  1
AM_HNTEMPLATE_MGR_NAME
  2
AdHoleNoteTemplateMgrName
  3
DesignerServices
 90
    32768
280
     0
281
     0
  0
CLASS
  1
AMDTDMMENUSTATE
  2
AmdtDmMenuState
  3
AcMechDwgViewMgmt
 90
        0
280
     0
281
     0
  0
CLASS
  1
MAPIADMODULE
  2
MApiAdModule
  3
MApiAdServices
 90
        0
280
     0
281
     0
  0
CLASS
  1
AMDTAMMENUSTATE
  2
AmdtAmMenuState
  3
DesignerAssemblies
 90
        0
280
     0
281
     0
  0
CLASS
  1
ACAMPROJECT
  2
AcAmProject
  3
DesignerAssemblies
 90
        0
280
     0
281
     0
  0
CLASS
  1
ACAMGRCOMPDEF
  2
AcAmGrCompDef
  3
DesignerAssemblies
 90
        0
280
     0
281
     0
  0
CLASS
  1
ACCMCONTEXT
  2
AcCmContext
  3
DesignerAssemblies
 90
        0
280
     0
281
     0
  0
CLASS
  1
ACAMCOMPDEF
  2
AcAmCompDef
  3
DesignerAssemblies
 90
        0
280
     0
281
     0
  0
CLASS
  1
ACAMCOMPDEFMGR
  2
AcAmCompDefMgr
  3
DesignerAssemblies
 90
        0
280
     0
281
     0
  0
CLASS
  1
AMCONTEXTMGR
  2
AcAmContextMgr
  3
DesignerAssemblies
 90
        0
280
     0
281
     0
  0
CLASS
  1
ACAMCONTEXTMODELER
  2
AcAmContextModeler
  3
DesignerAssemblies
 90
        0
280
     0
281
     0
  0
CLASS
  1
CATALOGSTATE
  2
AcAmCatalogState
  3
DesignerAssemblies
 90
        0
280
     0
281
     0
  0
CLASS
  1
ACAMGRCOMPDEFSET
  2
AcAmGrCompDefSet
  3
DesignerAssemblies
 90
        0
280
     0
281
     0
  0
CLASS
  1
AMDTBROWSERDBTAB
  2
AmdtBrowserDbTab
  3
McadcomServices
 90
        0
280
     0
281
     0
  0
CLASS
  1
CBROWSERAPPOBJECT
  2
CBrowserAppObject
  3
McadcomServices
 90
        0
280
     0
281
     0
  0
CLASS
  1
DM_PLACEHOLDER
  2
AcDmSelsetPlaceholder
  3
AcMechDwgViewMgmt
 90
        0
280
     0
281
     0
  0
CLASS
  1
ACMPICKOBJ
  2
AcmPickEnt
  3
"AcmSymBB|Product Description: AutoCAD Mechanical|Company: Autodesk"
 90
    32768
280
     0
281
     1
  0
CLASS
  1
ACMNOTESTANDARDISO
  2
AmdtNoteStdISO
  3
"Amdt_StdImp|Product Description: AutoCAD Mechanical|Company: Autodesk"
 90
        0
280
     0
281
     0
  0
CLASS
  1
ACMNOTESTANDARDANSI
  2
AmdtNoteStdANSI
  3
"Amdt_StdImp|Product Description: AutoCAD Mechanical|Company: Autodesk"
 90
        0
280
     0
281
     0
  0
CLASS
  1
ACMTHREADLINESTANDARDISO
  2
AmdtThreadLineStdISO
  3
"Amdt_StdImp|Product Description: AutoCAD Mechanical|Company: Autodesk"
 90
        0
280
     0
281
     0
  0
CLASS
  1
ACMTHREADLINESTANDARDANSI
  2
AmdtThreadLineStdANSI
  3
"Amdt_StdImp|Product Description: AutoCAD Mechanical|Company: Autodesk"
 90
        0
280
     0
281
     0
  0
CLASS
  1
TABLESTYLE
  2
AcDbTableStyle
  3
ObjectDBX Classes
 90
     4095
280
     0
281
     0
  0
CLASS
  1
SORTENTSTABLE
  2
AcDbSortentsTable
  3
ObjectDBX Classes
 90
        0
280
     0
281
     0
  0
CLASS
  1
MATERIAL
  2
AcDbMaterial
  3
ObjectDBX Classes
 90
     1024
280
     0
281
     0
  0
CLASS
  1
VISUALSTYLE
  2
AcDbVisualStyle
  3
ObjectDBX Classes
 90
     4095
280
     0
281
     0
  0
CLASS
  1
ACRFATTGENMGR
  2
AcRfAttGeneralMgr
  3
AcAttribServices
 90
        0
280
     0
281
     0
  0
CLASS
  1
ACRFOBJATTMGR
  2
AcRfObjAttGroupMgr
  3
AcAttribServices
 90
        0
280
     0
281
     0
  0
CLASS
  1
ACRFMCADAPIATTHOLDER
  2
AcRfMCADAPIAttHolder
  3
AcAttribServices
 90
        0
280
     0
281
     0
  0
CLASS
  1
AMDTSYSATTR
  2
AmdtSystemAttribute
  3
AcAttribServices
 90
        0
280
     0
281
     0
  0
CLASS
  1
ACMTAPERSTANDARDISO
  2
AcmTaperStdISO
  3
"Amdt_StdImp|Product Description: AutoCAD Mechanical|Company: Autodesk"
 90
        0
280
     0
281
     0
  0
CLASS
  1
CAMSSTRUCTBTNSTATE
  2
StructBtnState
  3
L"DesignerAssemblies"
 90
        0
280
     0
281
     0
  0
CLASS
  1
DIMASSOC
  2
AcDbDimAssoc
  3
"AcDbDimAssoc|Product Desc:     AcDim ARX App For Dimension|Company:          Autodesk, Inc.|WEB Address:      www.autodesk.com"
 90
    32768
280
     0
281
     0
  0
CLASS
  1
AMDTNOTETEMPLATEDB
  2
AmdtNoteTemplateDB
  3
AMDT_STDIMP_MODULE_NAME
 90
        0
280
     0
281
     0
  0
CLASS
  1
ACMTAPERSTANDARDANSI
  2
AcmTaperStdANSI
  3
"Amdt_StdImp|Product Description: AutoCAD Mechanical|Company: Autodesk"
 90
        0
280
     0
281
     0
  0
CLASS
  1
ACAMGHOLECHARTSTDANSI
  2
AcAmgHoleChartStdANSI
  3
ACMSYMBB_MODULE_NAME
 90
        0
280
     0
281
     0
  0
CLASS
  1
AMDTEDGESTANDARDISO13715
  2
AmdtEdgeStdISO13715
  3
"Amdt_StdImp|Product Description: AutoCAD Mechanical|Company: Autodesk"
 90
        0
280
     0
281
     0
  0
CLASS
  1
ACAMGHOLECHARTSTDISO
  2
AcAmgHoleChartStdISO
  3
ACMSYMBB_MODULE_NAME
 90
        0
280
     0
281
     0
  0
CLASS
  1
AMDTACMWBLOCKBOMENTITY
  2
AmdtAcmWblockBomEntity
  3
"AcmSymBB|Product Description: AutoCAD Mechanical|Company: Autodesk"
 90
    35839
280
     0
281
     1
  0
ENDSEC
  0
SECTION
  2
TABLES
  0
TABLE
  2
VPORT
  5
8
330
0
100
AcDbSymbolTable
 70
     1
  0
VPORT
  5
B0EC
330
8
100
AcDbSymbolTableRecord
100
AcDbViewportTableRecord
  2
*Active
 70
     0
 10
0.0
 20
0.0
 11
1.0
 21
1.0
 12
148.5080603435357
 22
105.0050836087556
 13
0.0
 23
0.0
 14
2.5
 24
2.5
 15
10.0
 25
10.0
 16
0.0
 26
0.0
 36
1.0
 17
0.0
 27
0.0
 37
0.0
 40
211.5653793897083
 41
1.648648648648648
 42
50.0
 43
-1370.695619172058
 44
-1370.695619172058
 50
0.0
 51
0.0
 71
     0
 72
   100
 73
     1
 74
     3
 75
     0
 76
     0
 77
     0
 78
     0
281
     0
 65
     0
110
0.0
120
0.0
130
0.0
111
1.0
121
0.0
131
0.0
112
0.0
122
1.0
132
0.0
 79
     0
146
0.0
  0
ENDTAB
  0
TABLE
  2
LTYPE
  5
5
330
0
100
AcDbSymbolTable
 70
    38
  0
LTYPE
  5
14
330
5
100
AcDbSymbolTableRecord
100
AcDbLinetypeTableRecord
  2
ByBlock
 70
     0
  3

 72
    65
 73
     0
 40
0.0
  0
LTYPE
  5
15
330
5
100
AcDbSymbolTableRecord
100
AcDbLinetypeTableRecord
  2
ByLayer
 70
     0
  3

 72
    65
 73
     0
 40
0.0
  0
LTYPE
  5
16
330
5
100
AcDbSymbolTableRecord
100
AcDbLinetypeTableRecord
  2
Continuous
 70
     0
  3
Solid line
 72
    65
 73
     0
 40
0.0
  0
LTYPE
  5
4F
330
5
100
AcDbSymbolTableRecord
100
AcDbLinetypeTableRecord
  2
AM_ISO02W050
 70
     0
  3
__ __ __ __ __ __ __ __ __ __ __ __ __ __ __
 72
    65
 73
     2
 40
7.5
 49
6.0
 74
     0
 49
-1.5
 74
     0
  0
LTYPE
  5
52
330
5
100
AcDbSymbolTableRecord
100
AcDbLinetypeTableRecord
  2
Amconstr
 70
     0
  3
_______________________
 72
    65
 73
     2
 40
9999.0
 49
9999.0
 74
     0
 49
0.0
 74
     0
  0
LTYPE
  5
64
330
5
100
AcDbSymbolTableRecord
100
AcDbLinetypeTableRecord
  2
ACISOWELD
 70
     0
  3
_ _ _ _ _
 72
    65
 73
     2
 40
2.0
 49
2.0
 74
     0
 49
-1.0
 74
     0
  0
LTYPE
  5
65
330
5
100
AcDbSymbolTableRecord
100
AcDbLinetypeTableRecord
  2
ACISOTGB
 70
     0
  3
__ . . __ . .
 72
    65
 73
     6
 40
9.0
 49
4.0
 74
     0
 49
-1.0
 74
     0
 49
1.0
 74
     0
 49
-1.0
 74
     0
 49
1.0
 74
     0
 49
-1.0
 74
     0
  0
LTYPE
  5
66
330
5
100
AcDbSymbolTableRecord
100
AcDbLinetypeTableRecord
  2
ACISOTGL
 70
     0
  3
_ _ _ _ _
 72
    65
 73
     2
 40
3.0
 49
2.0
 74
     0
 49
-1.0
 74
     0
  0
LTYPE
  5
69
330
5
100
AcDbSymbolTableRecord
100
AcDbLinetypeTableRecord
  2
CENTER
 70
     0
  3
__ . __
 72
    65
 73
     4
 40
7.0
 49
4.0
 74
     0
 49
-1.0
 74
     0
 49
1.0
 74
     0
 49
-1.0
 74
     0
  0
LTYPE
  5
A6E
330
5
100
AcDbSymbolTableRecord
100
AcDbLinetypeTableRecord
  2
PHANTOM2
 70
     0
  3
Phantom (.5x) ___ _ _ ___ _ _ ___ _ _ ___ _ _
 72
    65
 73
     6
 40
31.75
 49
15.875
 74
     0
 49
-3.174999999999999
 74
     0
 49
3.174999999999999
 74
     0
 49
-3.174999999999999
 74
     0
 49
3.174999999999999
 74
     0
 49
-3.174999999999999
 74
     0
  0
LTYPE
  5
4DED
330
5
100
AcDbSymbolTableRecord
100
AcDbLinetypeTableRecord
  2
中線
 70
     0
  3
___________________
 72
    65
 73
     2
 40
2.0
 49
1.0
 74
     0
 49
1.0
 74
     0
  0
LTYPE
  5
4DF6
330
5
100
AcDbSymbolTableRecord
100
AcDbLinetypeTableRecord
  2
細線
 70
     0
  3
___________________
 72
    65
 73
     2
 40
2.0
 49
1.0
 74
     0
 49
1.0
 74
     0
  0
LTYPE
  5
4DF7
330
5
100
AcDbSymbolTableRecord
100
AcDbLinetypeTableRecord
  2
太線
 70
     0
  3
___________________
 72
    65
 73
     2
 40
2.0
 49
1.0
 74
     0
 49
1.0
 74
     0
  0
LTYPE
  5
4EA7
330
5
100
AcDbSymbolTableRecord
100
AcDbLinetypeTableRecord
  2
文字
 70
     0
  3
_________________
 72
    65
 73
     2
 40
2.0
 49
1.0
 74
     0
 49
1.0
 74
     0
  0
LTYPE
  5
4EA9
330
5
100
AcDbSymbolTableRecord
100
AcDbLinetypeTableRecord
  2
寸法線
 70
     0
  3
________________
 72
    65
 73
     2
 40
2.0
 49
1.0
 74
     0
 49
1.0
 74
     0
  0
LTYPE
  5
4F12
330
5
100
AcDbSymbolTableRecord
100
AcDbLinetypeTableRecord
  2
ハッチング
 70
     0
  3
_________________
 72
    65
 73
     2
 40
2.0
 49
1.0
 74
     0
 49
1.0
 74
     0
  0
LTYPE
  5
5180
330
5
100
AcDbSymbolTableRecord
100
AcDbLinetypeTableRecord
  2
陰線1
 70
     0
  3
__ __ __ __
 72
    65
 73
     2
 40
4.0
 49
2.2
 74
     0
 49
-1.8
 74
     0
  0
LTYPE
  5
5182
330
5
100
AcDbSymbolTableRecord
100
AcDbLinetypeTableRecord
  2
切断線
 70
     0
  3
/\/-/\/-/\/-/\/-/\/-/\/
 72
    65
 73
     2
 40
11.0001
 49
0.0001
 74
     4
 75
   135
340
56
 46
0.04
 50
0.0
 44
0.0
 45
0.0
 49
-11.0
 74
     0
  0
LTYPE
  5
5183
330
5
100
AcDbSymbolTableRecord
100
AcDbLinetypeTableRecord
  2
想像線1
 70
     0
  3
__ __ __ _____ __ __ ____
 72
    65
 73
     6
 40
14.5
 49
6.0
 74
     0
 49
-1.5
 74
     0
 49
2.0
 74
     0
 49
-1.5
 74
     0
 49
2.0
 74
     0
 49
-1.5
 74
     0
  0
LTYPE
  5
5185
330
5
100
AcDbSymbolTableRecord
100
AcDbLinetypeTableRecord
  2
中心線1
 70
     0
  3
___ _ ___ _ ___
 72
    65
 73
     4
 40
18.0
 49
12.0
 74
     0
 49
-2.0
 74
     0
 49
2.0
 74
     0
 49
-2.0
 74
     0
  0
LTYPE
  5
5188
330
5
100
AcDbSymbolTableRecord
100
AcDbLinetypeTableRecord
  2
補助線
 70
     0
  3
______________
 72
    65
 73
     2
 40
2.0
 49
1.0
 74
     0
 49
1.0
 74
     0
  0
LTYPE
  5
6427
330
5
100
AcDbSymbolTableRecord
100
AcDbLinetypeTableRecord
  2
HIDDEN
 70
     0
  3
Hidden __ __ __ __ __ __ __ __ __ __ __ __ __ _
 72
    65
 73
     2
 40
0.375
 49
0.25
 74
     0
 49
-0.125
 74
     0
  0
LTYPE
  5
AC81
330
5
100
AcDbSymbolTableRecord
100
AcDbLinetypeTableRecord
  2
破断線
 70
     0
  3
/\/-/\/-/\/-/\/-/\/-/\/
 72
    65
 73
     2
 40
0.4401
 49
0.0001
 74
     4
 75
   136
340
AC80
 46
0.0016
 50
0.0
 44
0.0
 45
0.0
 49
-0.4400000000000001
 74
     0
  0
LTYPE
  5
AC9E
330
5
100
AcDbSymbolTableRecord
100
AcDbLinetypeTableRecord
  2
Amzigzag
 70
     0
  3
/\/-/\/-/\/-/\/-/\/-/\/
 72
    65
 73
     2
 40
11.0001
 49
0.0001
 74
     4
 75
   135
340
56
 46
0.04
 50
0.0
 44
0.0
 45
0.0
 49
-11.0
 74
     0
  0
LTYPE
  5
AF0F
330
5
100
AcDbSymbolTableRecord
100
AcDbLinetypeTableRecord
  2
genzigzag
 70
     0
  3
/\/-/\/-/\/-/\/-/\/-/\/
 72
    65
 73
     2
 40
12.0001
 49
0.0001
 74
     4
 75
   135
340
AC80
 46
2.0
 50
0.0
 44
0.0
 45
0.0
 49
-12.0
 74
     0
  0
LTYPE
  5
AF95
330
5
100
AcDbSymbolTableRecord
100
AcDbLinetypeTableRecord
  2
AM_ISO08W050
 70
     0
  3
____ . ____ . ____ . ____ . ____ . ____ . ____
 72
    65
 73
     4
 40
18.0
 49
12.0
 74
     0
 49
-1.5
 74
     0
 49
3.0
 74
     0
 49
-1.5
 74
     0
  0
LTYPE
  5
AF96
330
5
100
AcDbSymbolTableRecord
100
AcDbLinetypeTableRecord
  2
AM_ISO09W050
 70
     0
  3
_____ . . _____ . . _____ . . ____ .. ____
 72
    65
 73
     6
 40
22.5
 49
12.0
 74
     0
 49
-1.5
 74
     0
 49
3.0
 74
     0
 49
-1.5
 74
     0
 49
3.0
 74
     0
 49
-1.5
 74
     0
  0
LTYPE
  5
AF97
330
5
100
AcDbSymbolTableRecord
100
AcDbLinetypeTableRecord
  2
AM_ISO08W050x2
 70
     0
  3
__ . __ . __ . __ . __ . __
 72
    65
 73
     4
 40
9.0
 49
6.0
 74
     0
 49
-0.75
 74
     0
 49
1.5
 74
     0
 49
-0.75
 74
     0
  0
LTYPE
  5
AF98
330
5
100
AcDbSymbolTableRecord
100
AcDbLinetypeTableRecord
  2
AM_ISO02W050x2
 70
     0
  3
 _ _ _ _ _ _ _ _ _ _ _ _
 72
    65
 73
     2
 40
3.75
 49
3.0
 74
     0
 49
-0.75
 74
     0
  0
LTYPE
  5
B541
330
5
100
AcDbSymbolTableRecord
100
AcDbLinetypeTableRecord
  2
CENTER2
 70
     0
  3
__ _ __ _ __ _
 72
    65
 73
     4
 40
10.0
 49
7.0
 74
     0
 49
-1.0
 74
     0
 49
1.0
 74
     0
 49
-1.0
 74
     0
  0
LTYPE
  5
B542
330
5
100
AcDbSymbolTableRecord
100
AcDbLinetypeTableRecord
  2
HIDDEN2
 70
     0
  3
Hidden (.5x) _ _ _ _ _ _ _ _ _ _ _ _ _ _ _ _ _
 72
    65
 73
     2
 40
0.1875
 49
0.125
 74
     0
 49
-0.0625
 74
     0
  0
LTYPE
  5
B543
330
5
100
AcDbSymbolTableRecord
100
AcDbLinetypeTableRecord
  2
Amzigzag2
 70
     0
  3
/\/-/\/-/\/-/\/-/\/-/\/
 72
    65
 73
     2
 40
0.4401
 49
0.0001
 74
     4
 75
   136
340
AC80
 46
0.0016
 50
0.0
 44
0.0
 45
0.0
 49
-0.4400000000000001
 74
     0
  0
LTYPE
  5
B544
330
5
100
AcDbSymbolTableRecord
100
AcDbLinetypeTableRecord
  2
ACANSTGB
 70
     0
  3
__ . . __ . .
 72
    65
 73
     6
 40
0.35433070866
 49
0.15748031496
 74
     0
 49
-0.03937007874
 74
     0
 49
0.03937007874
 74
     0
 49
-0.03937007874
 74
     0
 49
0.03937007874
 74
     0
 49
-0.03937007874
 74
     0
  0
LTYPE
  5
B545
330
5
100
AcDbSymbolTableRecord
100
AcDbLinetypeTableRecord
  2
ACANSTGL
 70
     0
  3
_ _ _ _ _
 72
    65
 73
     2
 40
0.11811023622
 49
0.07874015748
 74
     0
 49
-0.03937007874
 74
     0
  0
LTYPE
  5
D240
330
5
100
AcDbSymbolTableRecord
100
AcDbLinetypeTableRecord
  2
DOTTED
 70
     0
  3
Dotted
 72
    65
 73
     2
 40
1.0
 49
0.0
 74
     0
 49
-1.0
 74
     0
  0
LTYPE
  5
D241
330
5
100
AcDbSymbolTableRecord
100
AcDbLinetypeTableRecord
  2
DOT_CENTER
 70
     0
  3
Dot_Center
 72
    65
 73
     4
 40
14.0
 49
12.0
 74
     0
 49
-1.0
 74
     0
 49
0.0
 74
     0
 49
-1.0
 74
     0
  0
LTYPE
  5
D242
330
5
100
AcDbSymbolTableRecord
100
AcDbLinetypeTableRecord
  2
PHANTOM
 70
     0
  3
Phantom
 72
    65
 73
     6
 40
13.0
 49
10.0
 74
     0
 49
-1.0
 74
     0
 49
0.0
 74
     0
 49
-1.0
 74
     0
 49
0.0
 74
     0
 49
-1.0
 74
     0
  0
LTYPE
  5
D243
330
5
100
AcDbSymbolTableRecord
100
AcDbLinetypeTableRecord
  2
SLDHIDDEN0
 70
     0
  3
SLDHIDDEN0
 72
    65
 73
     2
 40
3.0
 49
2.0
 74
     0
 49
-1.0
 74
     0
  0
LTYPE
  5
E647
330
5
100
AcDbSymbolTableRecord
100
AcDbLinetypeTableRecord
  2
DOT2
 70
     0
  3
Dot (.5x) ........................................
 72
    65
 73
     2
 40
0.635
 49
0.0
 74
     0
 49
-0.635
 74
     0
  0
LTYPE
  5
10413
330
5
100
AcDbSymbolTableRecord
100
AcDbLinetypeTableRecord
  2
CENTERX2
 70
     0
  3
Center (2x) ________  __  ________  __  _____
 72
    65
 73
     4
 40
20.32
 49
12.7
 74
     0
 49
-2.54
 74
     0
 49
2.54
 74
     0
 49
-2.54
 74
     0
  0
ENDTAB
  0
TABLE
  2
LAYER
  5
2
102
{ACAD_XDICTIONARY
360
3F95
102
}
330
0
100
AcDbSymbolTable
 70
    33
  0
LAYER
  5
10
330
2
100
AcDbSymbolTableRecord
100
AcDbLayerTableRecord
  2
0
 70
     0
 62
     7
  6
Continuous
370
    -3
390
F
  0
LAYER
  5
6D1
330
2
100
AcDbSymbolTableRecord
100
AcDbLayerTableRecord
  2
Defpoints
 70
     0
 62
     7
  6
Continuous
290
     0
370
    -3
390
F
  0
LAYER
  5
5F85
330
2
100
AcDbSymbolTableRecord
100
AcDbLayerTableRecord
  2
AM_0
 70
     0
 62
     7
  6
中線
370
    30
390
F
1001
AcAecLayerStandard
1000

1000

  0
LAYER
  5
AC9F
330
2
100
AcDbSymbolTableRecord
100
AcDbLayerTableRecord
  2
size
 70
     0
 62
     5
  6
Continuous
290
     0
370
    25
390
F
  0
LAYER
  5
ACA0
330
2
100
AcDbSymbolTableRecord
100
AcDbLayerTableRecord
  2
waku
 70
     0
 62
     7
  6
Continuous
370
    35
390
F
  0
LAYER
  5
ACA1
330
2
100
AcDbSymbolTableRecord
100
AcDbLayerTableRecord
  2
AM_6
 70
     0
 62
     2
  6
文字
370
    13
390
F
1001
AcAecLayerStandard
1000

1000

  0
LAYER
  5
ACC8
330
2
100
AcDbSymbolTableRecord
100
AcDbLayerTableRecord
  2
hyomoji
 70
     0
 62
     2
  6
Continuous
370
    13
390
F
  0
LAYER
  5
ACC9
330
2
100
AcDbSymbolTableRecord
100
AcDbLayerTableRecord
  2
hyosen1
 70
     0
 62
     1
  6
Continuous
370
    25
390
F
  0
LAYER
  5
ACCA
330
2
100
AcDbSymbolTableRecord
100
AcDbLayerTableRecord
  2
hyosen2
 70
     0
 62
     1
  6
Continuous
370
    13
390
F
  0
LAYER
  5
AD60
330
2
100
AcDbSymbolTableRecord
100
AcDbLayerTableRecord
  2
AM_1
 70
     0
 62
    30
  6
太線
370
    40
390
F
1001
AcAecLayerStandard
1000

1000

  0
LAYER
  5
AD64
330
2
100
AcDbSymbolTableRecord
100
AcDbLayerTableRecord
  2
AM_2
 70
     0
 62
     1
  6
細線
370
    13
390
F
1001
AcAecLayerStandard
1000

1000

  0
LAYER
  5
AD67
330
2
100
AcDbSymbolTableRecord
100
AcDbLayerTableRecord
  2
AM_3
 70
     0
 62
     6
  6
陰線1
370
    13
390
F
1001
AcAecLayerStandard
1000

1000

  0
LAYER
  5
AD68
330
2
100
AcDbSymbolTableRecord
100
AcDbLayerTableRecord
  2
AM_5
 70
     0
 62
     3
  6
寸法線
370
    13
390
F
1001
AcAecLayerStandard
1000

1000

  0
LAYER
  5
AD69
330
2
100
AcDbSymbolTableRecord
100
AcDbLayerTableRecord
  2
AM_7
 70
     0
 62
     4
  6
中心線1
370
    13
390
F
1001
AcAecLayerStandard
1000

1000

  0
LAYER
  5
AD6A
330
2
100
AcDbSymbolTableRecord
100
AcDbLayerTableRecord
  2
AM_8
 70
     0
 62
     1
  6
ハッチング
370
    13
390
F
1001
AcAecLayerStandard
1000

1000

  0
LAYER
  5
AD6E
330
2
100
AcDbSymbolTableRecord
100
AcDbLayerTableRecord
  2
AM_10
 70
     0
 62
     7
  6
切断線
370
    13
390
F
1001
AcAecLayerStandard
1000

1000

  0
LAYER
  5
AD6F
330
2
100
AcDbSymbolTableRecord
100
AcDbLayerTableRecord
  2
AM_11
 70
     0
 62
     2
  6
想像線1
370
    13
390
F
1001
AcAecLayerStandard
1000

1000

  0
LAYER
  5
B1B6
330
2
100
AcDbSymbolTableRecord
100
AcDbLayerTableRecord
  2
AM_CL
 70
     0
 62
     1
  6
Amconstr
370
    15
390
F
1001
AcAecLayerStandard
1000

1000

  0
LAYER
  5
B2EB
330
2
100
AcDbSymbolTableRecord
100
AcDbLayerTableRecord
  2
AM_14
 70
     0
 62
     5
  6
細線
370
     9
390
F
1001
AcAecLayerStandard
1000

1000

  0
LAYER
  5
B2EC
330
2
100
AcDbSymbolTableRecord
100
AcDbLayerTableRecord
  2
AM_15
 70
     0
 62
     6
  6
陰線1
370
     9
390
F
1001
AcAecLayerStandard
1000

1000

  0
LAYER
  5
B502
330
2
100
AcDbSymbolTableRecord
100
AcDbLayerTableRecord
  2
AM_4
 70
     0
 62
     3
  6
補助線
370
    15
390
F
1001
AcAecLayerStandard
1000

1000

  0
LAYER
  5
B546
330
2
100
AcDbSymbolTableRecord
100
AcDbLayerTableRecord
  2
1
 70
     0
 62
     7
  6
Continuous
370
    -3
390
F
  0
LAYER
  5
B791
330
2
100
AcDbSymbolTableRecord
100
AcDbLayerTableRecord
  2
想像線
 70
     0
 62
     5
  6
PHANTOM2
370
    -3
390
F
  0
LAYER
  5
B792
330
2
100
AcDbSymbolTableRecord
100
AcDbLayerTableRecord
  2
実線
 70
     0
 62
     7
  6
Continuous
370
    -3
390
F
  0
LAYER
  5
B793
330
2
100
AcDbSymbolTableRecord
100
AcDbLayerTableRecord
  2
中心線
 70
     0
 62
     2
  6
CENTER2
370
    -3
390
F
  0
LAYER
  5
B794
330
2
100
AcDbSymbolTableRecord
100
AcDbLayerTableRecord
  2
隠れ線
 70
     0
 62
     4
  6
HIDDEN2
370
    -3
390
F
  0
LAYER
  5
B795
330
2
100
AcDbSymbolTableRecord
100
AcDbLayerTableRecord
  2
細線
 70
     0
 62
     4
  6
Continuous
370
    -3
390
F
  0
LAYER
  5
B796
330
2
100
AcDbSymbolTableRecord
100
AcDbLayerTableRecord
  2
文字
 70
     0
 62
     1
  6
Continuous
370
    -3
390
F
  0
LAYER
  5
BD5F
330
2
100
AcDbSymbolTableRecord
100
AcDbLayerTableRecord
  2
2
 70
     0
 62
     7
  6
Continuous
370
    -3
390
F
  0
LAYER
  5
BD60
330
2
100
AcDbSymbolTableRecord
100
AcDbLayerTableRecord
  2
3
 70
     0
 62
     7
  6
Continuous
370
    -3
390
F
  0
LAYER
  5
E648
330
2
100
AcDbSymbolTableRecord
100
AcDbLayerTableRecord
  2
SLD-0
 70
     0
 62
     7
  6
Continuous
370
    -3
390
F
  0
LAYER
  5
E649
330
2
100
AcDbSymbolTableRecord
100
AcDbLayerTableRecord
  2
8
 70
     0
 62
     7
  6
Continuous
370
    15
390
F
  0
LAYER
  5
E64A
330
2
100
AcDbSymbolTableRecord
100
AcDbLayerTableRecord
  2
9
 70
     0
 62
     7
  6
Continuous
370
    -3
390
F
  0
ENDTAB
  0
TABLE
  2
STYLE
  5
3
330
0
100
AcDbSymbolTable
 70
    19
  0
STYLE
  5
11
330
3
100
AcDbSymbolTableRecord
100
AcDbTextStyleTableRecord
  2
STANDARD
 70
     0
 40
0.0
 41
0.7
 50
0.0
 71
     0
 42
3.2
  3
romans.shx
  4
extfont.shx
  0
STYLE
  5
56
330
3
100
AcDbSymbolTableRecord
100
AcDbTextStyleTableRecord
  2

 70
     1
 40
0.0
 41
1.0
 50
0.0
 71
     0
 42
2.5
  3
ltypeshp.shx
  4

  0
STYLE
  5
58
330
3
100
AcDbSymbolTableRecord
100
AcDbTextStyleTableRecord
  2
ACISOTS
 70
     0
 40
1.0
 41
1.0
 50
0.0
 71
     0
 42
2.5
  3
isocp.shx
  4
extfont.shx
  0
STYLE
  5
63
330
3
100
AcDbSymbolTableRecord
100
AcDbTextStyleTableRecord
  2
ACISOGDT
 70
     0
 40
0.0
 41
1.0
 50
0.0
 71
     0
 42
2.5
  3
amgdt.shx
  4

  0
STYLE
  5
A74
330
3
100
AcDbSymbolTableRecord
100
AcDbTextStyleTableRecord
  2
DIM
 70
     0
 40
0.0
 41
1.0
 50
0.0
 71
     0
 42
2.5
  3
monotxt.shx
  4
extfont.shx
  0
STYLE
  5
AC80
330
3
100
AcDbSymbolTableRecord
100
AcDbTextStyleTableRecord
  2

 70
     1
 40
0.0
 41
1.0
 50
0.0
 71
     0
 42
3.2
  3
genltshp.shx
  4

  0
STYLE
  5
B547
330
3
100
AcDbSymbolTableRecord
100
AcDbTextStyleTableRecord
  2
ACANSTS
 70
     0
 40
1.0
 41
1.0
 50
0.0
 71
     0
 42
0.2
  3
romans.shx
  4
extfont.shx
  0
STYLE
  5
B548
330
3
100
AcDbSymbolTableRecord
100
AcDbTextStyleTableRecord
  2
ACANSGDT
 70
     0
 40
0.0
 41
1.0
 50
0.0
 71
     0
 42
0.2
  3
amgdt.shx
  4

  0
STYLE
  5
D244
330
3
100
AcDbSymbolTableRecord
100
AcDbTextStyleTableRecord
  2
CONVERTER_1
 70
     0
 40
0.0
 41
0.7
 50
0.0
 71
     0
 42
0.2
  3
iso.shx
  4

  0
STYLE
  5
D245
330
3
100
AcDbSymbolTableRecord
100
AcDbTextStyleTableRecord
  2
CONVERTER_2
 70
     0
 40
0.0
 41
0.7
 50
0.0
 71
     0
 42
0.2
  3
iso.shx
  4
extfont.shx
  0
STYLE
  5
D246
330
3
100
AcDbSymbolTableRecord
100
AcDbTextStyleTableRecord
  2
CONVERTER_3
 70
     0
 40
0.0
 41
1.0
 50
0.0
 71
     0
 42
0.2
  3
iso.shx
  4

  0
STYLE
  5
D247
330
3
100
AcDbSymbolTableRecord
100
AcDbTextStyleTableRecord
  2
CONVERTER_4
 70
     0
 40
0.0
 41
0.625
 50
0.0
 71
     0
 42
0.2
  3
iso.shx
  4

  0
STYLE
  5
D248
330
3
100
AcDbSymbolTableRecord
100
AcDbTextStyleTableRecord
  2
CONVERTER_5
 70
     0
 40
0.0
 41
0.8679999999999999
 50
0.0
 71
     0
 42
0.2
  3
simplex.shx
  4

  0
STYLE
  5
D249
330
3
100
AcDbSymbolTableRecord
100
AcDbTextStyleTableRecord
  2
CONVERTER_6
 70
     0
 40
0.0
 41
0.79920634920635
 50
0.0
 71
     0
 42
0.2
  3
complex.shx
  4

  0
STYLE
  5
D24A
330
3
100
AcDbSymbolTableRecord
100
AcDbTextStyleTableRecord
  2
CONVERTER_7
 70
     0
 40
0.0
 41
0.4950000000000001
 50
0.0
 71
     0
 42
0.2
  3
txt.shx
  4

  0
STYLE
  5
E64B
330
3
100
AcDbSymbolTableRecord
100
AcDbTextStyleTableRecord
  2
SLDTEXTSTYLE0
 70
     0
 40
0.0
 41
0.7
 50
0.0
 71
     0
 42
0.2
  3
TXT
  4
bigfont
  0
STYLE
  5
E64C
330
3
100
AcDbSymbolTableRecord
100
AcDbTextStyleTableRecord
  2
SLDTEXTSTYLE1
 70
     0
 40
0.0
 41
0.6009644957
 50
0.0
 71
     0
 42
0.2
  3
TXT
  4
bigfont
  0
STYLE
  5
10414
330
3
100
AcDbSymbolTableRecord
100
AcDbTextStyleTableRecord
  2
SLDTEXTSTYLE2
 70
     0
 40
0.0
 41
0.6333333333
 50
0.0
 71
     0
 42
0.2
  3
TXT
  4
bigfont
  0
STYLE
  5
10415
330
3
100
AcDbSymbolTableRecord
100
AcDbTextStyleTableRecord
  2
SLDTEXTSTYLE3
 70
     0
 40
0.0
 41
0.6142857143000001
 50
0.0
 71
     0
 42
0.2
  3
TXT
  4
bigfont
  0
ENDTAB
  0
TABLE
  2
VIEW
  5
6
330
0
100
AcDbSymbolTable
 70
     6
  0
VIEW
  5
AE1
330
6
100
AcDbSymbolTableRecord
100
AcDbViewTableRecord
  2
AM_VIEW1
 70
     0
 40
168.7283236994219
 10
105.000000282035
 20
212.6358382007688
 41
210.0
 11
0.0
 21
0.0
 31
1.0
 12
0.0
 22
0.0
 32
0.0
 42
50.0
 43
-1370.695619172058
 44
-1370.695619172058
 50
0.0
 71
     0
281
     0
 72
     0
  0
VIEW
  5
AE2
330
6
100
AcDbSymbolTableRecord
100
AcDbViewTableRecord
  2
AM_VIEW2
 70
     0
 40
168.7283236994219
 10
315.000000282035
 20
212.6358382007688
 41
210.0
 11
0.0
 21
0.0
 31
1.0
 12
0.0
 22
0.0
 32
0.0
 42
50.0
 43
-1370.695619172058
 44
-1370.695619172058
 50
0.0
 71
     0
281
     0
 72
     0
  0
VIEW
  5
AE3
330
6
100
AcDbSymbolTableRecord
100
AcDbViewTableRecord
  2
AM_VIEW3
 70
     0
 40
168.7283236994219
 10
105.000000282035
 20
84.36416190019071
 41
210.0
 11
0.0
 21
0.0
 31
1.0
 12
0.0
 22
0.0
 32
0.0
 42
50.0
 43
-1370.695619172058
 44
-1370.695619172058
 50
0.0
 71
     0
281
     0
 72
     0
  0
VIEW
  5
AE4
330
6
100
AcDbSymbolTableRecord
100
AcDbViewTableRecord
  2
AM_VIEW4
 70
     0
 40
168.7283236994219
 10
315.000000282035
 20
84.36416190019071
 41
210.0
 11
0.0
 21
0.0
 31
1.0
 12
0.0
 22
0.0
 32
0.0
 42
50.0
 43
-1370.695619172058
 44
-1370.695619172058
 50
0.0
 71
     0
281
     0
 72
     0
  0
VIEW
  5
AE5
330
6
100
AcDbSymbolTableRecord
100
AcDbViewTableRecord
  2
AM_VIEW5
 70
     0
 40
168.7283236994219
 10
210.0000002820351
 20
148.5000000504797
 41
210.0
 11
0.0
 21
0.0
 31
1.0
 12
0.0
 22
0.0
 32
0.0
 42
50.0
 43
-1370.695619172058
 44
-1370.695619172058
 50
0.0
 71
     0
281
     0
 72
     0
  0
VIEW
  5
AE6
330
6
100
AcDbSymbolTableRecord
100
AcDbViewTableRecord
  2
AM_VIEW6
 70
     0
 40
337.45327283237
 10
210.0000002820351
 20
148.5000000504797
 41
419.9958
 11
0.0
 21
0.0
 31
1.0
 12
0.0
 22
0.0
 32
0.0
 42
50.0
 43
-1370.695619172058
 44
-1370.695619172058
 50
0.0
 71
     0
281
     0
 72
     0
  0
ENDTAB
  0
TABLE
  2
UCS
  5
7
330
0
100
AcDbSymbolTable
 70
     0
  0
ENDTAB
  0
TABLE
  2
APPID
  5
9
330
0
100
AcDbSymbolTable
 70
    60
  0
APPID
  5
12
330
9
100
AcDbSymbolTableRecord
100
AcDbRegAppTableRecord
  2
ACAD
 70
     0
  0
APPID
  5
30
330
9
100
AcDbSymbolTableRecord
100
AcDbRegAppTableRecord
  2
MCAD_NO_VIS
 70
     0
  0
APPID
  5
31
330
9
100
AcDbSymbolTableRecord
100
AcDbRegAppTableRecord
  2
ACAD_TEMP_GRAPHIC
 70
     0
  0
APPID
  5
44
330
9
100
AcDbSymbolTableRecord
100
AcDbRegAppTableRecord
  2
ACATTRIBSERVICES
 70
     0
  0
APPID
  5
7A1
330
9
100
AcDbSymbolTableRecord
100
AcDbRegAppTableRecord
  2
GENIUS_GENDIMSH_14
 70
     0
  0
APPID
  5
A49
330
9
100
AcDbSymbolTableRecord
100
AcDbRegAppTableRecord
  2
GENIUS_GENREC_14
 70
     0
  0
APPID
  5
A4A
330
9
100
AcDbSymbolTableRecord
100
AcDbRegAppTableRecord
  2
GENIUS_GENOBJ-N-REC_13
 70
     0
  0
APPID
  5
A4B
330
9
100
AcDbSymbolTableRecord
100
AcDbRegAppTableRecord
  2
GENIUS_GENODEF_13
 70
     0
  0
APPID
  5
A4C
330
9
100
AcDbSymbolTableRecord
100
AcDbRegAppTableRecord
  2
DCO15
 70
     0
  0
APPID
  5
ADC
330
9
100
AcDbSymbolTableRecord
100
AcDbRegAppTableRecord
  2
GENIUS_GENOLIS_13
 70
     0
  0
APPID
  5
ADD
330
9
100
AcDbSymbolTableRecord
100
AcDbRegAppTableRecord
  2
GENIUS_GENOENT_13
 70
     0
  0
APPID
  5
ADE
330
9
100
AcDbSymbolTableRecord
100
AcDbRegAppTableRecord
  2
GENIUS_GENOBJ-N-TIT_13
 70
     0
  0
APPID
  5
ADF
330
9
100
AcDbSymbolTableRecord
100
AcDbRegAppTableRecord
  2
GENIUS_GENTITLE_13
 70
     0
  0
APPID
  5
AE0
330
9
100
AcDbSymbolTableRecord
100
AcDbRegAppTableRecord
  2
GENIUS_GENOREF_13
 70
     0
  0
APPID
  5
AE7
330
9
100
AcDbSymbolTableRecord
100
AcDbRegAppTableRecord
  2
GENIUS_GENSCREG_15
 70
     0
  0
APPID
  5
AE8
330
9
100
AcDbSymbolTableRecord
100
AcDbRegAppTableRecord
  2
GENIUS_GENOBJ-N-SDF_13
 70
     0
  0
APPID
  5
FAF
330
9
100
AcDbSymbolTableRecord
100
AcDbRegAppTableRecord
  2
GENIUS_GENBLLY_14
 70
     0
  0
APPID
  5
FB0
330
9
100
AcDbSymbolTableRecord
100
AcDbRegAppTableRecord
  2
GENIUS_GENTRA_14
 70
     0
  0
APPID
  5
1285
330
9
100
AcDbSymbolTableRecord
100
AcDbRegAppTableRecord
  2
GENIUS_GENDTOL_13
 70
     0
  0
APPID
  5
142D
330
9
100
AcDbSymbolTableRecord
100
AcDbRegAppTableRecord
  2
GENIUS_GENOBJ-N-CEN_13
 70
     0
  0
APPID
  5
1AB5
330
9
100
AcDbSymbolTableRecord
100
AcDbRegAppTableRecord
  2
GENIUS_GENOBJ-N-CRS_13
 70
     0
  0
APPID
  5
1B36
330
9
100
AcDbSymbolTableRecord
100
AcDbRegAppTableRecord
  2
GENIUS_GENOBJ-N-HTC_13
 70
     0
  0
APPID
  5
1B37
330
9
100
AcDbSymbolTableRecord
100
AcDbRegAppTableRecord
  2
GENIUS_GENHATCH_13
 70
     0
  0
APPID
  5
216D
330
9
100
AcDbSymbolTableRecord
100
AcDbRegAppTableRecord
  2
GENIUS_GENOBJ-N-FIL_13
 70
     0
  0
APPID
  5
2356
330
9
100
AcDbSymbolTableRecord
100
AcDbRegAppTableRecord
  2
GEVID990412420
 70
     0
  0
APPID
  5
2357
330
9
100
AcDbSymbolTableRecord
100
AcDbRegAppTableRecord
  2
GEVDC
 70
     0
  0
APPID
  5
2358
330
9
100
AcDbSymbolTableRecord
100
AcDbRegAppTableRecord
  2
GEVCON
 70
     0
  0
APPID
  5
235B
330
9
100
AcDbSymbolTableRecord
100
AcDbRegAppTableRecord
  2
GEVRADREF
 70
     0
  0
APPID
  5
2360
330
9
100
AcDbSymbolTableRecord
100
AcDbRegAppTableRecord
  2
GENIUS_GENBH_13
 70
     0
  0
APPID
  5
2362
330
9
100
AcDbSymbolTableRecord
100
AcDbRegAppTableRecord
  2
GENIUS_GENOBJ-NBEHI-BHF_13
 70
     0
  0
APPID
  5
2364
330
9
100
AcDbSymbolTableRecord
100
AcDbRegAppTableRecord
  2
GENIUS_GENOBJ-NBEHI-BHB_13
 70
     0
  0
APPID
  5
2379
330
9
100
AcDbSymbolTableRecord
100
AcDbRegAppTableRecord
  2
GENIUS_GENOBJ-F-SCPASSM_13
 70
     0
  0
APPID
  5
3D74
330
9
100
AcDbSymbolTableRecord
100
AcDbRegAppTableRecord
  2
GENIUS_GENDIM_13
 70
     0
  0
APPID
  5
3D76
330
9
100
AcDbSymbolTableRecord
100
AcDbRegAppTableRecord
  2
GENIUS_GE3DTOL_13
 70
     0
  0
APPID
  5
3D9C
330
9
100
AcDbSymbolTableRecord
100
AcDbRegAppTableRecord
  2
AD_DRAW
 70
     0
  0
APPID
  5
3DE8
330
9
100
AcDbSymbolTableRecord
100
AcDbRegAppTableRecord
  2
ASURF_PCURVE_APPNAME
 70
     0
  0
APPID
  5
3DED
330
9
100
AcDbSymbolTableRecord
100
AcDbRegAppTableRecord
  2
AMG_3D2D_5.0
 70
     0
  0
APPID
  5
3E1B
330
9
100
AcDbSymbolTableRecord
100
AcDbRegAppTableRecord
  2
DESIGNERASSEMBLIES
 70
     0
  0
APPID
  5
3E20
330
9
100
AcDbSymbolTableRecord
100
AcDbRegAppTableRecord
  2
ACADM_DIM_EDIT
 70
     0
  0
APPID
  5
3E21
330
9
100
AcDbSymbolTableRecord
100
AcDbRegAppTableRecord
  2
AMDT_DM_ADJ
 70
     0
  0
APPID
  5
4143
330
9
100
AcDbSymbolTableRecord
100
AcDbRegAppTableRecord
  2
GENIUS_GENFIL_13
 70
     0
  0
APPID
  5
4144
330
9
100
AcDbSymbolTableRecord
100
AcDbRegAppTableRecord
  2
GENIUS_GENOBJ-N-CHA_13
 70
     0
  0
APPID
  5
4E17
330
9
100
AcDbSymbolTableRecord
100
AcDbRegAppTableRecord
  2
GEVID1008153417
 70
     0
  0
APPID
  5
4E58
330
9
100
AcDbSymbolTableRecord
100
AcDbRegAppTableRecord
  2
GEVID1008153418
 70
     0
  0
APPID
  5
4E5E
330
9
100
AcDbSymbolTableRecord
100
AcDbRegAppTableRecord
  2
GEVID1008153419
 70
     0
  0
APPID
  5
4E64
330
9
100
AcDbSymbolTableRecord
100
AcDbRegAppTableRecord
  2
GEVID1008153420
 70
     0
  0
APPID
  5
4E75
330
9
100
AcDbSymbolTableRecord
100
AcDbRegAppTableRecord
  2
GEVID1008153421
 70
     0
  0
APPID
  5
4EB7
330
9
100
AcDbSymbolTableRecord
100
AcDbRegAppTableRecord
  2
GENIUS_AMGTXT_16
 70
     0
  0
APPID
  5
7645
330
9
100
AcDbSymbolTableRecord
100
AcDbRegAppTableRecord
  2
GENIUS_GENOBJ-N-DIM_13
 70
     0
  0
APPID
  5
AAD0
330
9
100
AcDbSymbolTableRecord
100
AcDbRegAppTableRecord
  2
ACAD_DSTYLE_DIMARC_LENGTH_SYMBOL
 70
     0
  0
APPID
  5
AAD1
330
9
100
AcDbSymbolTableRecord
100
AcDbRegAppTableRecord
  2
ACAD_DSTYLE_DIMJOGGED_JOGANGLE_SYMBOL
 70
     0
  0
APPID
  5
AAFD
330
9
100
AcDbSymbolTableRecord
100
AcDbRegAppTableRecord
  2
ACAD_PSEXT
 70
     0
  0
APPID
  5
AD61
330
9
100
AcDbSymbolTableRecord
100
AcDbRegAppTableRecord
  2
AcAecLayerStandard
 70
     0
  0
APPID
  5
AEE3
330
9
100
AcDbSymbolTableRecord
100
AcDbRegAppTableRecord
  2
ACAD_EXEMPT_FROM_CAD_STANDARDS
 70
     0
  0
APPID
  5
B1BE
330
9
100
AcDbSymbolTableRecord
100
AcDbRegAppTableRecord
  2
GENIUS_GENCEN_19
 70
     0
  0
APPID
  5
DBFE
330
9
100
AcDbSymbolTableRecord
100
AcDbRegAppTableRecord
  2
ACAD_MLEADERVER
 70
     0
  0
APPID
  5
DC29
330
9
100
AcDbSymbolTableRecord
100
AcDbRegAppTableRecord
  2
ACAUTHENVIRON
 70
     0
  0
APPID
  5
DC2A
330
9
100
AcDbSymbolTableRecord
100
AcDbRegAppTableRecord
  2
AcDbDynamicBlockTrueName
 70
     0
  0
APPID
  5
DC2B
330
9
100
AcDbSymbolTableRecord
100
AcDbRegAppTableRecord
  2
AcDbDynamicBlockGUID
 70
     0
  0
APPID
  5
DC2C
330
9
100
AcDbSymbolTableRecord
100
AcDbRegAppTableRecord
  2
ACDBBLOCKREPETAG
 70
     0
  0
ENDTAB
  0
TABLE
  2
DIMSTYLE
  5
A
330
0
100
AcDbSymbolTable
 70
    51
100
AcDbDimStyleTable
 71
     1
340
2515
  0
DIMSTYLE
105
A76
330
A
100
AcDbSymbolTableRecord
100
AcDbDimStyleTableRecord
  2
STANDARD
 70
     0
 41
3.0
 42
1.0
 43
7.0
 44
2.0
 73
     0
 74
     0
 77
     1
140
2.799999999999999
141
0.0
143
0.0394
147
0.7
171
     4
172
     1
173
     1
176
     3
177
     3
178
     2
271
     3
272
     3
273
     8
274
     4
289
     0
340
A74
341
A66
343
A66
344
A66
  0
DIMSTYLE
105
2515
330
A
100
AcDbSymbolTableRecord
100
AcDbDimStyleTableRecord
  2
SYS
 70
     0
  4
"
 41
1.0
 42
1.0
 43
10.0
 44
1.0
 47
0.1
 48
0.1
 73
     0
 74
     0
 77
     1
 78
     8
 79
     2
140
3.5
141
0.0
143
0.0393701
146
0.71
147
1.5
172
     1
176
   256
177
   256
178
     7
271
     2
272
     2
283
     0
284
     8
340
11
371
    -1
372
    -1
1001
ACAD_DSTYLE_DIMJOGGED_JOGANGLE_SYMBOL
1070
   384
1040
0.7853981633974483
1001
ACAD_DSTYLE_DIMARC_LENGTH_SYMBOL
1070
   379
1070
     1
  0
DIMSTYLE
105
2516
102
{ACAD_REACTORS
330
14695
330
14BB6
102
}
330
A
100
AcDbSymbolTableRecord
100
AcDbDimStyleTableRecord
  2
SYS$3
 70
     0
  4
"
 41
2.0
 42
1.0
 43
10.0
 44
1.0
 47
0.1
 48
0.1
 73
     0
 77
     1
 78
     8
 79
     2
140
3.5
141
0.0
143
0.0393701
146
0.71
147
1.5
176
   256
177
   256
178
     2
271
     2
272
     2
283
     0
284
     8
288
     1
340
11
342
A66
371
    -1
372
    -1
1001
ACAD_DSTYLE_DIMJOGGED_JOGANGLE_SYMBOL
1070
   384
1040
0.7853981633974483
1001
ACAD_DSTYLE_DIMARC_LENGTH_SYMBOL
1070
   379
1070
     1
  0
DIMSTYLE
105
2517
330
A
100
AcDbSymbolTableRecord
100
AcDbDimStyleTableRecord
  2
SYS$4
 70
     0
  4
"
 41
2.0
 42
1.0
 43
10.0
 44
1.0
 47
0.1
 48
0.1
 73
     0
 77
     1
 78
     8
 79
     2
140
3.5
141
0.0
143
0.0393701
146
0.71
147
1.5
173
     1
176
   256
177
   256
178
     2
271
     2
272
     2
283
     0
284
     8
288
     1
340
11
344
A66
371
    -1
372
    -1
1001
ACAD_DSTYLE_DIMJOGGED_JOGANGLE_SYMBOL
1070
   384
1040
0.7853981633974483
1001
ACAD_DSTYLE_DIMARC_LENGTH_SYMBOL
1070
   379
1070
     1
  0
DIMSTYLE
105
2518
330
A
100
AcDbSymbolTableRecord
100
AcDbDimStyleTableRecord
  2
SYS$6
 70
     0
  4
"
 41
2.0
 42
1.0
 43
10.0
 44
1.0
 47
0.1
 48
0.1
 73
     0
 74
     0
 78
     8
 79
     2
140
3.5
141
0.0
143
0.0393701
146
0.71
147
1.5
172
     1
176
   256
177
   256
178
     2
271
     2
272
     2
283
     0
284
     8
340
11
341
A66
371
    -1
372
    -1
1001
ACAD_DSTYLE_DIMJOGGED_JOGANGLE_SYMBOL
1070
   384
1040
0.7853981633974483
1001
ACAD_DSTYLE_DIMARC_LENGTH_SYMBOL
1070
   379
1070
     1
  0
DIMSTYLE
105
2519
330
A
100
AcDbSymbolTableRecord
100
AcDbDimStyleTableRecord
  2
SYS$7
 70
     0
  4
"
 41
2.0
 42
1.0
 43
10.0
 44
1.0
 47
0.1
 48
0.1
 73
     0
 74
     0
 77
     1
 78
     8
 79
     2
140
5.0
141
0.0
143
0.0393701
146
0.71
147
1.5
172
     1
176
   256
177
   256
178
     2
271
     2
272
     2
283
     0
284
     8
340
11
341
A66
342
A66
371
    -1
372
    -1
1001
ACAD_DSTYLE_DIMJOGGED_JOGANGLE_SYMBOL
1070
   384
1040
0.7853981633974483
1001
ACAD_DSTYLE_DIMARC_LENGTH_SYMBOL
1070
   379
1070
     1
  0
DIMSTYLE
105
251A
330
A
100
AcDbSymbolTableRecord
100
AcDbDimStyleTableRecord
  2
SYS$SF
 70
     0
  4
"
 41
2.5
 42
1.0
 43
10.0
 44
1.0
 47
0.1
 48
0.1
 73
     0
 74
     0
 75
     1
 76
     1
 77
     1
 78
     8
 79
     2
140
3.5
141
0.0
143
0.0393701
146
0.71
147
1.5
172
     1
176
   256
177
   256
178
     2
271
     2
272
     3
283
     0
284
     8
340
11
341
6C4
342
6C4
371
    -1
372
    -1
1001
ACAD_DSTYLE_DIMJOGGED_JOGANGLE_SYMBOL
1070
   384
1040
0.7853981633974483
1001
ACAD_DSTYLE_DIMARC_LENGTH_SYMBOL
1070
   379
1070
     1
  0
DIMSTYLE
105
251B
330
A
100
AcDbSymbolTableRecord
100
AcDbDimStyleTableRecord
  2
SYS$SH
 70
     0
  4
"
 41
2.5
 42
1.0
 43
10.0
 44
1.0
 47
0.1
 48
0.1
 73
     0
 74
     0
 75
     1
 76
     1
 77
     1
 78
     8
 79
     2
140
3.5
141
0.0
143
0.0393701
144
2.0
146
0.71
147
1.5
172
     1
173
     1
176
   256
177
   256
178
     2
271
     2
272
     3
283
     0
284
     8
340
11
341
6C4
343
72
344
6C4
371
    -1
372
    -1
1001
ACAD_DSTYLE_DIMJOGGED_JOGANGLE_SYMBOL
1070
   384
1040
0.7853981633974483
1001
ACAD_DSTYLE_DIMARC_LENGTH_SYMBOL
1070
   379
1070
     1
  0
DIMSTYLE
105
2A59
330
A
100
AcDbSymbolTableRecord
100
AcDbDimStyleTableRecord
  2
SYS$2
 70
     0
  4
"
 41
1.0
 42
1.0
 43
10.0
 44
1.0
 47
0.1
 48
0.1
 73
     0
 74
     0
 77
     1
 78
     8
 79
     2
140
3.5
141
0.0
143
0.0393701
146
0.71
147
1.5
172
     1
176
   256
177
   256
178
     2
271
     2
272
     2
283
     0
284
     8
340
11
342
6C4
371
    -1
372
    -1
1001
ACAD_DSTYLE_DIMJOGGED_JOGANGLE_SYMBOL
1070
   384
1040
0.7853981633974483
1001
ACAD_DSTYLE_DIMARC_LENGTH_SYMBOL
1070
   379
1070
     1
  0
DIMSTYLE
105
2AAB
102
{ACAD_REACTORS
330
1456A
330
14592
330
145B1
330
145C7
330
145DD
330
145F3
330
14651
330
14667
330
14730
330
14761
330
147A5
330
147BB
330
14802
330
14BED
330
14C03
102
}
330
A
100
AcDbSymbolTableRecord
100
AcDbDimStyleTableRecord
  2
SYS$0
 70
     0
  4
"
 41
1.0
 42
1.0
 43
10.0
 44
1.0
 47
0.1
 48
0.1
 73
     0
 74
     0
 77
     1
 78
     8
 79
     2
140
3.200000000000001
141
0.0
143
0.0393701
146
0.71
147
1.5
172
     1
176
   256
177
   256
178
     2
271
     2
272
     2
283
     0
284
     8
340
11
341
A66
342
6C4
371
    -1
372
    -1
1001
ACAD_DSTYLE_DIMJOGGED_JOGANGLE_SYMBOL
1070
   384
1040
0.7853981633974483
1001
ACAD_DSTYLE_DIMARC_LENGTH_SYMBOL
1070
   379
1070
     1
  0
DIMSTYLE
105
AF99
330
A
100
AcDbSymbolTableRecord
100
AcDbDimStyleTableRecord
  2
AM_ISO
 70
     0
  4
"
 41
2.5
 42
1.0
 43
10.0
 44
1.0
 47
0.1
 48
0.1
 73
     0
 74
     0
 77
     1
 78
     8
 79
     2
140
3.5
141
0.0
143
0.0393701
146
0.71
147
1.5
172
     1
176
   256
177
   256
178
     2
271
     2
272
     3
274
     4
283
     0
284
     8
340
11
371
    -1
372
    -1
  0
DIMSTYLE
105
AF9A
330
A
100
AcDbSymbolTableRecord
100
AcDbDimStyleTableRecord
  2
AM_ISO$3
 70
     0
  4
"
 41
2.5
 42
1.0
 43
10.0
 44
1.0
 47
0.1
 48
0.1
 73
     0
 77
     1
 78
     8
 79
     2
140
3.5
141
0.0
143
0.0393701
146
0.71
147
1.5
176
   256
177
   256
178
     2
271
     2
272
     3
274
     4
283
     0
284
     8
288
     1
289
     0
340
11
371
    -1
372
    -1
  0
DIMSTYLE
105
AF9B
330
A
100
AcDbSymbolTableRecord
100
AcDbDimStyleTableRecord
  2
AM_ISO$4
 70
     0
  4
"
 41
2.5
 42
1.0
 43
10.0
 44
1.0
 47
0.1
 48
0.1
 73
     0
 77
     1
 78
     8
 79
     2
140
3.5
141
0.0
143
0.0393701
146
0.71
147
1.5
176
   256
177
   256
178
     2
271
     2
272
     3
274
     4
283
     0
284
     8
288
     1
289
     0
340
11
371
    -1
372
    -1
  0
DIMSTYLE
105
AF9C
330
A
100
AcDbSymbolTableRecord
100
AcDbDimStyleTableRecord
  2
AM_ISO$6
 70
     0
  4
"
 41
2.5
 42
1.0
 43
10.0
 44
1.0
 47
0.1
 48
0.1
 73
     0
 74
     0
 78
     8
 79
     2
140
3.5
141
0.0
143
0.0393701
146
0.71
147
1.5
172
     1
176
   256
177
   256
178
     2
271
     2
272
     3
274
     4
283
     0
284
     8
340
11
371
    -1
372
    -1
  0
DIMSTYLE
105
AF9D
330
A
100
AcDbSymbolTableRecord
100
AcDbDimStyleTableRecord
  2
AM_ISO$7
 70
     0
  4
"
 41
2.5
 42
1.0
 43
10.0
 44
1.0
 47
0.1
 48
0.1
 73
     0
 74
     0
 77
     1
 78
     8
 79
     2
140
5.0
141
0.0
143
0.0393701
146
0.71
147
1.5
172
     1
176
   256
177
   256
178
     2
271
     2
272
     3
274
     4
283
     0
284
     8
340
11
371
    -1
372
    -1
  0
DIMSTYLE
105
AF9E
330
A
100
AcDbSymbolTableRecord
100
AcDbDimStyleTableRecord
  2
AM_ISO$SF
 70
     0
  4
"
 41
2.5
 42
1.0
 43
10.0
 44
1.0
 47
0.1
 48
0.1
 73
     0
 74
     0
 75
     1
 76
     1
 77
     1
 78
     8
 79
     2
140
3.5
141
0.0
143
0.0393701
146
0.71
147
1.5
172
     1
176
   256
177
   256
178
     2
271
     2
272
     3
274
     4
283
     0
284
     8
340
11
371
    -1
372
    -1
  0
DIMSTYLE
105
AF9F
330
A
100
AcDbSymbolTableRecord
100
AcDbDimStyleTableRecord
  2
AM_ISO$SH
 70
     0
  4
"
 41
2.5
 42
1.0
 43
10.0
 44
1.0
 47
0.1
 48
0.1
 73
     0
 74
     0
 75
     1
 76
     1
 77
     1
 78
     8
 79
     2
140
3.5
141
0.0
143
0.0393701
144
2.0
146
0.71
147
1.5
172
     1
173
     1
176
   256
177
   256
178
     2
271
     2
272
     3
274
     4
283
     0
284
     8
340
11
343
72
371
    -1
372
    -1
  0
DIMSTYLE
105
B549
330
A
100
AcDbSymbolTableRecord
100
AcDbDimStyleTableRecord
  2
AM_ANSI
 70
     0
  4
mm
 41
0.1
 42
0.05
 43
0.5
 44
0.1
 47
0.1
 48
0.1
 78
     7
 79
     2
140
0.12
141
0.0
146
0.71
147
0.06
176
   256
177
   256
178
     2
274
     4
284
     7
340
11
371
    -1
372
    -1
1001
ACAD_DSTYLE_DIMARC_LENGTH_SYMBOL
1070
   379
1070
     1
  0
DIMSTYLE
105
B54A
330
A
100
AcDbSymbolTableRecord
100
AcDbDimStyleTableRecord
  2
AM_ANSI$3
 70
     0
  4
mm
 41
0.1
 42
0.05
 43
0.5
 44
0.1
 47
0.1
 48
0.1
 78
     7
 79
     2
140
0.12
141
0.0
146
0.71
147
0.06
176
   256
177
   256
178
     2
274
     4
284
     7
288
     1
289
     0
340
11
371
    -1
372
    -1
1001
ACAD_DSTYLE_DIMARC_LENGTH_SYMBOL
1070
   379
1070
     1
  0
DIMSTYLE
105
B54B
330
A
100
AcDbSymbolTableRecord
100
AcDbDimStyleTableRecord
  2
AM_ANSI$4
 70
     0
  4
mm
 41
0.1
 42
0.05
 43
0.5
 44
0.1
 47
0.1
 48
0.1
 78
     7
 79
     2
140
0.12
141
0.0
146
0.71
147
0.06
176
   256
177
   256
178
     2
274
     4
284
     7
288
     1
289
     0
340
11
371
    -1
372
    -1
1001
ACAD_DSTYLE_DIMARC_LENGTH_SYMBOL
1070
   379
1070
     1
  0
DIMSTYLE
105
B54C
330
A
100
AcDbSymbolTableRecord
100
AcDbDimStyleTableRecord
  2
AM_ANSI$7
 70
     0
  4
mm
 41
0.1
 42
0.05
 43
0.5
 44
0.1
 47
0.1
 48
0.1
 78
     7
 79
     2
140
0.24
141
0.0
146
0.71
147
0.06
176
   256
177
   256
178
     2
274
     4
284
     7
340
11
371
    -1
372
    -1
1001
ACAD_DSTYLE_DIMARC_LENGTH_SYMBOL
1070
   379
1070
     1
  0
DIMSTYLE
105
B54D
330
A
100
AcDbSymbolTableRecord
100
AcDbDimStyleTableRecord
  2
AM_ANSI$SF
 70
     0
  4
mm
 41
0.1
 42
0.05
 43
0.5
 44
0.1
 47
0.1
 48
0.1
 75
     1
 76
     1
 78
     7
 79
     2
140
0.12
141
0.0
146
0.71
147
0.06
176
   256
177
   256
178
     2
274
     4
284
     7
340
11
371
    -1
372
    -1
1001
ACAD_DSTYLE_DIMARC_LENGTH_SYMBOL
1070
   379
1070
     1
  0
DIMSTYLE
105
B54E
330
A
100
AcDbSymbolTableRecord
100
AcDbDimStyleTableRecord
  2
AM_ANSI$SH
 70
     0
  4
mm
 41
0.1
 42
0.05
 43
0.5
 44
0.1
 47
0.1
 48
0.1
 75
     1
 76
     1
 78
     7
 79
     2
140
0.12
141
0.0
146
0.71
147
0.06
173
     1
176
   256
177
   256
178
     2
274
     4
284
     7
340
11
343
72
371
    -1
372
    -1
1001
ACAD_DSTYLE_DIMARC_LENGTH_SYMBOL
1070
   379
1070
     1
  0
DIMSTYLE
105
B797
330
A
100
AcDbSymbolTableRecord
100
AcDbDimStyleTableRecord
  2
AM_JIS
 70
     0
  4
"
 41
2.0
 42
1.0
 43
10.0
 44
1.0
 47
0.1
 48
0.1
 73
     0
 74
     0
 77
     3
 78
     8
140
3.0
141
0.0
143
0.0393701
146
0.71
147
1.6
172
     1
176
   256
177
   256
178
     1
271
     2
272
     2
279
     2
284
     8
285
     8
286
     8
340
11
  0
DIMSTYLE
105
D24B
330
A
100
AcDbSymbolTableRecord
100
AcDbDimStyleTableRecord
  2
ME10_DIM_0
 70
     0
 41
2.24
 42
1.0
 44
1.0
 73
     0
 74
     0
 77
     1
 78
     8
140
3.2
147
0.625
172
     1
173
     1
176
     2
177
     2
178
     3
271
     3
340
D244
341
A66
343
A66
344
A66
  0
DIMSTYLE
105
D24C
330
A
100
AcDbSymbolTableRecord
100
AcDbDimStyleTableRecord
  2
ME10_DIM_1
 70
     0
 41
2.24
 42
1.0
 44
1.0
 73
     0
 74
     0
 77
     1
 78
     8
140
3.2
147
0.625
172
     1
173
     1
176
     2
177
     2
178
     3
271
     3
340
D244
341
A66
343
A66
344
A66
  0
DIMSTYLE
105
D24D
330
A
100
AcDbSymbolTableRecord
100
AcDbDimStyleTableRecord
  2
ME10_DIM_2
 70
     0
 41
2.24
 42
1.0
 44
1.0
 73
     0
 74
     0
 77
     1
 78
     8
140
3.2
147
0.625
172
     1
173
     1
176
     2
177
     2
178
     3
271
     3
340
D244
341
A66
343
A66
344
A66
  0
DIMSTYLE
105
D24E
330
A
100
AcDbSymbolTableRecord
100
AcDbDimStyleTableRecord
  2
ME10_DIM_3
 70
     0
 41
2.24
 42
1.0
 44
1.0
 73
     0
 74
     0
 77
     1
 78
     8
140
3.2
147
0.625
172
     1
173
     1
176
     2
177
     2
178
     3
271
     3
340
D244
341
A66
343
A66
344
A66
  0
DIMSTYLE
105
D24F
330
A
100
AcDbSymbolTableRecord
100
AcDbDimStyleTableRecord
  2
ME10_DIM_4
 70
     0
 41
2.24
 42
1.0
 44
1.0
 73
     0
 74
     0
 77
     1
 78
     8
140
3.2
147
0.625
172
     1
173
     1
176
     2
177
     2
178
     3
271
     3
340
D244
341
A66
343
A66
344
A66
  0
DIMSTYLE
105
D250
330
A
100
AcDbSymbolTableRecord
100
AcDbDimStyleTableRecord
  2
ME10_DIM_5
 70
     0
 41
2.24
 42
1.0
 44
1.0
 73
     0
 74
     0
 77
     1
 78
     8
140
3.2
147
0.625
172
     1
173
     1
176
     2
177
     2
178
     3
271
     3
340
D244
341
A66
343
A66
344
A66
  0
DIMSTYLE
105
D251
330
A
100
AcDbSymbolTableRecord
100
AcDbDimStyleTableRecord
  2
ME10_DIM_6
 70
     0
 41
2.24
 42
1.0
 44
1.0
 73
     0
 74
     0
 77
     1
 78
     8
140
3.2
147
0.625
172
     1
173
     1
176
     2
177
     2
178
     3
271
     3
340
D244
341
A66
343
A66
344
A66
  0
DIMSTYLE
105
D252
330
A
100
AcDbSymbolTableRecord
100
AcDbDimStyleTableRecord
  2
ME10_DIM_7
 70
     0
 41
2.24
 42
1.0
 44
1.0
 73
     0
 74
     0
 77
     1
 78
     8
140
3.2
147
0.625
172
     1
173
     1
176
     2
177
     2
178
     3
271
     3
340
D244
341
A66
343
A66
344
A66
  0
DIMSTYLE
105
D253
330
A
100
AcDbSymbolTableRecord
100
AcDbDimStyleTableRecord
  2
ME10_DIM_8
 70
     0
 41
2.24
 42
1.0
 44
1.0
 73
     0
 74
     0
 77
     1
 78
     8
140
3.2
147
0.625
172
     1
173
     1
176
     2
177
     2
178
     3
271
     3
340
D244
341
A66
343
A66
344
A66
  0
DIMSTYLE
105
D254
330
A
100
AcDbSymbolTableRecord
100
AcDbDimStyleTableRecord
  2
ME10_DIM_9
 70
     0
 41
2.24
 42
1.0
 44
1.0
 73
     0
 74
     0
 77
     1
 78
     8
140
3.2
147
0.625
172
     1
173
     1
176
     2
177
     2
178
     3
271
     3
340
D244
341
A66
343
A66
344
A66
  0
DIMSTYLE
105
D255
330
A
100
AcDbSymbolTableRecord
100
AcDbDimStyleTableRecord
  2
ME10_DIM_10
 70
     0
 41
2.24
 42
1.0
 44
1.0
 73
     0
 74
     0
 77
     1
 78
     8
140
3.2
147
0.625
172
     1
173
     1
176
     2
177
     2
178
     3
271
     3
340
D244
341
A66
343
A66
344
A66
  0
DIMSTYLE
105
D256
330
A
100
AcDbSymbolTableRecord
100
AcDbDimStyleTableRecord
  2
ME10_DIM_11
 70
     0
 41
2.24
 42
1.0
 44
1.0
 73
     0
 74
     0
 77
     1
 78
     8
140
3.2
147
0.625
172
     1
173
     1
176
     2
177
     2
178
     3
271
     3
340
D244
341
A66
343
A66
344
A66
  0
DIMSTYLE
105
D257
330
A
100
AcDbSymbolTableRecord
100
AcDbDimStyleTableRecord
  2
ME10_DIM_12
 70
     0
 41
2.24
 42
1.0
 44
1.0
 73
     0
 74
     0
 77
     1
 78
     8
140
3.2
147
0.625
172
     1
173
     1
176
     2
177
     2
178
     3
271
     3
340
D245
341
A66
343
A66
344
A66
  0
DIMSTYLE
105
D258
330
A
100
AcDbSymbolTableRecord
100
AcDbDimStyleTableRecord
  2
ME10_DIM_13
 70
     0
 41
2.24
 42
1.0
 44
1.0
 73
     0
 74
     0
 77
     1
 78
     8
140
3.2
147
0.625
172
     1
173
     1
176
     2
177
     2
178
     3
271
     3
340
D245
341
A66
343
A66
344
A66
  0
DIMSTYLE
105
D259
330
A
100
AcDbSymbolTableRecord
100
AcDbDimStyleTableRecord
  2
ME10_DIM_14
 70
     0
  3
{\Fgdt;n}<>
 41
2.24
 42
1.0
 44
1.0
 73
     0
 74
     0
 77
     1
 78
     8
140
3.2
147
0.625
172
     1
173
     1
176
     2
177
     2
178
     3
271
     3
340
D244
341
A66
343
A66
344
A66
  0
DIMSTYLE
105
D25A
330
A
100
AcDbSymbolTableRecord
100
AcDbDimStyleTableRecord
  2
ME10_DIM_15
 70
     0
  3
(<>)
 41
2.24
 42
1.0
 44
1.0
 73
     0
 74
     0
 77
     1
 78
     8
140
3.2
147
0.625
172
     1
173
     1
176
     2
177
     2
178
     3
271
     2
340
D244
341
A66
343
A66
344
A66
  0
DIMSTYLE
105
D25B
330
A
100
AcDbSymbolTableRecord
100
AcDbDimStyleTableRecord
  2
ME10_DIM_16
 70
     0
  3
(<>)
 41
2.24
 42
1.0
 44
1.0
 73
     0
 74
     0
 77
     1
 78
     8
140
3.2
147
0.625
172
     1
173
     1
176
     2
177
     2
178
     3
271
     2
340
D244
341
A66
343
A66
344
A66
  0
DIMSTYLE
105
E64D
330
A
100
AcDbSymbolTableRecord
100
AcDbDimStyleTableRecord
  2
ISO-25
 70
     0
 41
2.5
 42
0.625
 43
3.75
 44
1.25
 73
     0
 74
     0
 77
     1
 78
     8
140
2.5
141
2.5
143
0.0393700787
147
0.625
171
     3
172
     1
271
     2
272
     2
274
     3
278
    44
283
     0
284
     8
340
11
  0
DIMSTYLE
105
E64E
330
A
100
AcDbSymbolTableRecord
100
AcDbDimStyleTableRecord
  2
SLDDIMSTYLE0
 70
     0
 41
3.0
 44
0.0
 45
0.000000001
 73
     0
 74
     0
 77
     3
 78
    12
140
4.0
144
0.6666666667
147
1.0
173
     1
271
     2
272
     2
284
    12
340
E64B
341
A66
343
A66
344
A66
  0
DIMSTYLE
105
E64F
330
A
100
AcDbSymbolTableRecord
100
AcDbDimStyleTableRecord
  2
SLDDIMSTYLE1
 70
     0
 41
3.0
 44
0.0
 45
0.000000001
 73
     0
 74
     0
 77
     3
 78
    12
140
4.0
144
0.6666666667
147
1.0
173
     1
271
     2
272
     1
284
    12
340
E64B
341
A66
343
A66
344
A66
  0
DIMSTYLE
105
E650
330
A
100
AcDbSymbolTableRecord
100
AcDbDimStyleTableRecord
  2
SLDDIMSTYLE2
 70
     0
 41
3.0
 44
0.0
 45
0.000000001
 73
     0
 74
     0
 77
     3
 78
    12
140
4.0
144
0.6666666667
147
1.0
172
     1
173
     1
271
     2
272
     1
284
    12
340
E64B
341
A66
343
A66
344
A66
  0
DIMSTYLE
105
E651
330
A
100
AcDbSymbolTableRecord
100
AcDbDimStyleTableRecord
  2
SLDDIMSTYLE3
 70
     0
 41
3.0
 44
0.0
 45
0.000000001
140
0.0
146
3.0
147
0.0
173
     1
271
     0
272
     0
340
11
341
A66
343
A66
344
A66
  0
DIMSTYLE
105
E652
330
A
100
AcDbSymbolTableRecord
100
AcDbDimStyleTableRecord
  2
SLDDIMSTYLE4
 70
     0
 41
1.199999999999999
 44
0.0
 45
0.000000001
140
0.0
146
1.199999999999999
147
0.0
173
     1
271
     0
272
     0
340
11
341
6C4
343
6C4
344
6C4
  0
DIMSTYLE
105
E653
330
A
100
AcDbSymbolTableRecord
100
AcDbDimStyleTableRecord
  2
SLDDIMSTYLE5
 70
     0
 41
3.0
 44
0.0
 45
0.000000001
 73
     0
 74
     0
 77
     3
 78
    12
140
4.0
144
0.6666666667
147
1.0
173
     1
271
     2
272
     2
284
    12
340
E64B
341
A66
343
A66
344
A66
  0
DIMSTYLE
105
E654
330
A
100
AcDbSymbolTableRecord
100
AcDbDimStyleTableRecord
  2
SLDDIMSTYLE6
 70
     0
 41
3.0
 44
0.0
 45
0.000000001
 73
     0
 74
     0
 77
     3
 78
    12
140
4.0
144
0.6666666667
147
1.0
172
     1
173
     1
271
     2
272
     2
284
    12
340
E64B
341
A66
343
A66
344
A66
  0
DIMSTYLE
105
E655
330
A
100
AcDbSymbolTableRecord
100
AcDbDimStyleTableRecord
  2
SLDDIMSTYLE7
 70
     0
 41
3.0
 44
0.0
 45
0.000000001
 73
     0
 74
     0
 77
     3
 78
    12
140
4.0
144
0.6666666667
147
1.0
173
     1
271
     2
272
     0
284
    12
340
E64B
341
A66
343
A66
344
A66
  0
DIMSTYLE
105
E656
330
A
100
AcDbSymbolTableRecord
100
AcDbDimStyleTableRecord
  2
SLDDIMSTYLE8
 70
     0
 41
3.0
 44
0.0
 45
0.000000001
 73
     0
 74
     0
 77
     3
 78
    12
140
4.0
144
0.6666666667
147
1.0
173
     1
271
     2
272
     2
284
    12
340
E64B
341
A66
343
A66
344
A66
  0
ENDTAB
  0
TABLE
  2
BLOCK_RECORD
  5
1
330
0
100
AcDbSymbolTable
 70
    27
  0
BLOCK_RECORD
  5
1F
102
{ACAD_XDICTIONARY
360
8A
102
}
330
1
100
AcDbSymbolTableRecord
100
AcDbBlockTableRecord
  2
*Model_Space
340
22
  0
BLOCK_RECORD
  5
1B
330
1
100
AcDbSymbolTableRecord
100
AcDbBlockTableRecord
  2
*Paper_Space
340
1E
  0
BLOCK_RECORD
  5
23
330
1
100
AcDbSymbolTableRecord
100
AcDbBlockTableRecord
  2
*Paper_Space0
340
26
  0
BLOCK_RECORD
  5
72
330
1
100
AcDbSymbolTableRecord
100
AcDbBlockTableRecord
  2
GENAXEH
340
0
  0
BLOCK_RECORD
  5
6C4
330
1
100
AcDbSymbolTableRecord
100
AcDbBlockTableRecord
  2
_Dot
340
0
102
{BLKREFS
331
14C89
331
14C8A
331
14C92
331
14C93
331
14C9B
331
14C9C
331
14CA4
331
14CA5
331
14CAD
331
14CAE
331
14CB6
331
14CB7
331
14CBF
331
14CC0
331
14CC8
331
14CC9
331
14CDA
331
14CDB
331
14CE5
331
14CE6
331
14CEE
331
14CEF
331
14CF7
331
14CF8
331
14D00
331
14D01
331
14D11
331
14D12
331
14D1A
331
14D1B
102
}
  0
BLOCK_RECORD
  5
A66
330
1
100
AcDbSymbolTableRecord
100
AcDbBlockTableRecord
  2
_OPEN30
340
0
  0
BLOCK_RECORD
  5
DE4A
330
1
100
AcDbSymbolTableRecord
100
AcDbBlockTableRecord
  2
GENDOT
340
0
102
{BLKREFS
331
14CD3
331
14CD4
331
14D09
331
14D0A
102
}
  0
BLOCK_RECORD
  5
1456B
330
1
100
AcDbSymbolTableRecord
100
AcDbBlockTableRecord
  2
*D6
340
0
  0
BLOCK_RECORD
  5
14593
330
1
100
AcDbSymbolTableRecord
100
AcDbBlockTableRecord
  2
*D7
340
0
  0
BLOCK_RECORD
  5
145B2
330
1
100
AcDbSymbolTableRecord
100
AcDbBlockTableRecord
  2
*D8
340
0
  0
BLOCK_RECORD
  5
145C8
330
1
100
AcDbSymbolTableRecord
100
AcDbBlockTableRecord
  2
*D9
340
0
  0
BLOCK_RECORD
  5
145DE
330
1
100
AcDbSymbolTableRecord
100
AcDbBlockTableRecord
  2
*D10
340
0
  0
BLOCK_RECORD
  5
145F4
330
1
100
AcDbSymbolTableRecord
100
AcDbBlockTableRecord
  2
*D11
340
0
  0
BLOCK_RECORD
  5
14652
330
1
100
AcDbSymbolTableRecord
100
AcDbBlockTableRecord
  2
*D12
340
0
  0
BLOCK_RECORD
  5
14668
330
1
100
AcDbSymbolTableRecord
100
AcDbBlockTableRecord
  2
*D13
340
0
  0
BLOCK_RECORD
  5
14696
330
1
100
AcDbSymbolTableRecord
100
AcDbBlockTableRecord
  2
*D14
340
0
  0
BLOCK_RECORD
  5
14731
330
1
100
AcDbSymbolTableRecord
100
AcDbBlockTableRecord
  2
*D15
340
0
  0
BLOCK_RECORD
  5
14762
330
1
100
AcDbSymbolTableRecord
100
AcDbBlockTableRecord
  2
*D16
340
0
  0
BLOCK_RECORD
  5
147A6
330
1
100
AcDbSymbolTableRecord
100
AcDbBlockTableRecord
  2
*D17
340
0
  0
BLOCK_RECORD
  5
147BC
330
1
100
AcDbSymbolTableRecord
100
AcDbBlockTableRecord
  2
*D18
340
0
  0
BLOCK_RECORD
  5
14803
330
1
100
AcDbSymbolTableRecord
100
AcDbBlockTableRecord
  2
*D19
340
0
  0
BLOCK_RECORD
  5
14BB7
330
1
100
AcDbSymbolTableRecord
100
AcDbBlockTableRecord
  2
*D20
340
0
  0
BLOCK_RECORD
  5
14BEE
330
1
100
AcDbSymbolTableRecord
100
AcDbBlockTableRecord
  2
*D21
340
0
  0
BLOCK_RECORD
  5
14C04
330
1
100
AcDbSymbolTableRecord
100
AcDbBlockTableRecord
  2
*D22
340
0
  0
BLOCK_RECORD
  5
14D68
330
1
100
AcDbSymbolTableRecord
100
AcDbBlockTableRecord
  2
*S23
340
0
  0
BLOCK_RECORD
  5
14D72
330
1
100
AcDbSymbolTableRecord
100
AcDbBlockTableRecord
  2
*S24
340
0
  0
BLOCK_RECORD
  5
14D7C
330
1
100
AcDbSymbolTableRecord
100
AcDbBlockTableRecord
  2
*S25
340
0
  0
BLOCK_RECORD
  5
14D86
330
1
100
AcDbSymbolTableRecord
100
AcDbBlockTableRecord
  2
*S26
340
0
  0
ENDTAB
  0
ENDSEC
  0
SECTION
  2
BLOCKS
  0
BLOCK
  5
20
330
1F
100
AcDbEntity
  8
0
100
AcDbBlockBegin
  2
*Model_Space
 70
     0
 10
0.0
 20
0.0
 30
0.0
  3
*Model_Space
  1

  0
ENDBLK
  5
21
330
1F
100
AcDbEntity
  8
0
100
AcDbBlockEnd
  0
BLOCK
  5
1C
330
1B
100
AcDbEntity
 67
     1
  8
0
100
AcDbBlockBegin
  2
*Paper_Space
 70
     0
 10
0.0
 20
0.0
 30
0.0
  3
*Paper_Space
  1

  0
ENDBLK
  5
1D
330
1B
100
AcDbEntity
 67
     1
  8
0
100
AcDbBlockEnd
  0
BLOCK
  5
24
330
23
100
AcDbEntity
 67
     1
  8
0
100
AcDbBlockBegin
  2
*Paper_Space0
 70
     0
 10
0.0
 20
0.0
 30
0.0
  3
*Paper_Space0
  1

  0
ENDBLK
  5
25
330
23
100
AcDbEntity
 67
     1
  8
0
100
AcDbBlockEnd
  0
BLOCK
  5
74
330
72
100
AcDbEntity
  8
0
100
AcDbBlockBegin
  2
GENAXEH
 70
     0
 10
0.0
 20
0.0
 30
0.0
  3
GENAXEH
  1

  0
LINE
  5
73
330
72
100
AcDbEntity
  8
0
100
AcDbLine
 10
-1.0
 20
0.0
 30
0.0
 11
1.0
 21
0.0
 31
0.0
  0
ENDBLK
  5
75
330
72
100
AcDbEntity
  8
0
100
AcDbBlockEnd
  0
BLOCK
  5
6C7
330
6C4
100
AcDbEntity
  8
0
100
AcDbBlockBegin
  2
_Dot
 70
     0
 10
0.0
 20
0.0
 30
0.0
  3
_Dot
  1

  0
LWPOLYLINE
  5
6C5
330
6C4
100
AcDbEntity
  8
0
  6
ByBlock
 62
     0
100
AcDbPolyline
 90
        2
 70
     1
 43
0.5
 10
-0.25
 20
0.0
 42
1.0
 10
0.25
 20
0.0
 42
1.0
  0
LINE
  5
6C6
330
6C4
100
AcDbEntity
  8
0
  6
ByBlock
 62
     0
370
    -2
100
AcDbLine
 10
-0.5
 20
0.0
 30
0.0
 11
-1.0
 21
0.0
 31
0.0
  0
ENDBLK
  5
6C8
330
6C4
100
AcDbEntity
  8
0
100
AcDbBlockEnd
  0
BLOCK
  5
A6A
330
A66
100
AcDbEntity
  8
0
100
AcDbBlockBegin
  2
_OPEN30
 70
     0
 10
0.0
 20
0.0
 30
0.0
  3
_OPEN30
  1

  0
LINE
  5
A67
330
A66
100
AcDbEntity
  8
0
  6
ByBlock
 62
     0
100
AcDbLine
 10
-1.0
 20
0.26794919
 30
0.0
 11
0.0
 21
0.0
 31
0.0
  0
LINE
  5
A68
330
A66
100
AcDbEntity
  8
0
  6
ByBlock
 62
     0
100
AcDbLine
 10
0.0
 20
0.0
 30
0.0
 11
-1.0
 21
-0.26794919
 31
0.0
  0
LINE
  5
A69
330
A66
100
AcDbEntity
  8
0
  6
ByBlock
 62
     0
100
AcDbLine
 10
0.0
 20
0.0
 30
0.0
 11
-1.0
 21
0.0
 31
0.0
  0
ENDBLK
  5
A6B
330
A66
100
AcDbEntity
  8
0
100
AcDbBlockEnd
  0
BLOCK
  5
DE4D
330
DE4A
100
AcDbEntity
  8
0
100
AcDbBlockBegin
  2
GENDOT
 70
     0
 10
0.0
 20
0.0
 30
0.0
  3
GENDOT
  1

  0
LINE
  5
DE4B
330
DE4A
100
AcDbEntity
  8
0
100
AcDbLine
 10
0.0
 20
0.0
 30
0.0
 11
-1.0
 21
0.0
 31
0.0
  0
LWPOLYLINE
  5
DE4C
330
DE4A
100
AcDbEntity
  8
0
100
AcDbPolyline
 90
        2
 70
     1
 43
0.25
 10
-0.125
 20
0.0
 42
1.0
 10
0.125
 20
0.0
 42
1.0
  0
ENDBLK
  5
DE4E
330
DE4A
100
AcDbEntity
  8
0
100
AcDbBlockEnd
  0
BLOCK
  5
14575
330
1456B
100
AcDbEntity
  8
0
100
AcDbBlockBegin
  2
*D6
 70
     1
 10
0.0
 20
0.0
 30
0.0
  3
*D6
  1

  0
LINE
  5
14C86
330
1456B
100
AcDbEntity
  8
AM_5
100
AcDbLine
 10
128.6321214146168
 20
156.4922266249189
 30
0.0
 11
150.6321214146168
 21
156.4922266249189
 31
0.0
  0
LINE
  5
14C87
330
1456B
100
AcDbEntity
  8
AM_5
100
AcDbLine
 10
90.63212077391687
 20
96.4922279660189
 30
0.0
 11
150.6321214146168
 21
96.4922279660189
 31
0.0
  0
LINE
  5
14C88
330
1456B
100
AcDbEntity
  8
AM_5
100
AcDbLine
 10
149.6321214146168
 20
155.4922266249189
 30
0.0
 11
149.6321214146168
 21
97.49222796601889
 31
0.0
  0
INSERT
  5
14C89
330
1456B
100
AcDbEntity
  8
AM_5
100
AcDbBlockReference
  2
_Dot
 10
149.6321214146168
 20
156.4922266249189
 30
0.0
 50
90.0
  0
INSERT
  5
14C8A
330
1456B
100
AcDbEntity
  8
AM_5
100
AcDbBlockReference
  2
_Dot
 10
149.6321214146168
 20
96.4922279660189
 30
0.0
 50
270.0
  0
MTEXT
  5
14C8B
330
1456B
100
AcDbEntity
  8
AM_5
 62
     2
100
AcDbMText
 10
146.5321214146168
 20
126.4922272954689
 30
0.0
 40
3.200000000000001
 41
0.0
 71
     5
 72
     1
  1
（60）
 11
0.0000000000000001
 21
1.0
 31
0.0
 73
     1
 44
1.0
1001
ACAD
1000
MTEXTBEGIN
1070
    73
1070
     1
1070
    44
1040
1.0
1070
    74
1070
     0
1000
MTEXTEND
  0
POINT
  5
14C8C
330
1456B
100
AcDbEntity
  8
Defpoints
 62
     0
100
AcDbPoint
 10
127.6321214146168
 20
156.4922266249189
 30
0.0
  0
POINT
  5
14C8D
330
1456B
100
AcDbEntity
  8
Defpoints
 62
     0
100
AcDbPoint
 10
89.63212077391686
 20
96.4922279660189
 30
0.0
  0
POINT
  5
14C8E
330
1456B
100
AcDbEntity
  8
Defpoints
 62
     0
100
AcDbPoint
 10
149.6321214146168
 20
96.4922279660189
 30
0.0
  0
ENDBLK
  5
14576
330
1456B
100
AcDbEntity
  8
0
100
AcDbBlockEnd
  0
BLOCK
  5
1459D
330
14593
100
AcDbEntity
  8
0
100
AcDbBlockBegin
  2
*D7
 70
     1
 10
0.0
 20
0.0
 30
0.0
  3
*D7
  1

  0
LINE
  5
14C8F
330
14593
100
AcDbEntity
  8
AM_5
100
AcDbLine
 10
91.3821206994168
 20
110.4922272954188
 30
0.0
 11
140.6321214146168
 21
110.4922272954188
 31
0.0
  0
LINE
  5
14C90
330
14593
100
AcDbEntity
  8
AM_5
100
AcDbLine
 10
129.3821206994167
 20
142.4922272954189
 30
0.0
 11
140.6321214146168
 21
142.4922272954189
 31
0.0
  0
LINE
  5
14C91
330
14593
100
AcDbEntity
  8
AM_5
100
AcDbLine
 10
139.6321214146168
 20
111.4922272954188
 30
0.0
 11
139.6321214146168
 21
141.4922272954189
 31
0.0
  0
INSERT
  5
14C92
330
14593
100
AcDbEntity
  8
AM_5
100
AcDbBlockReference
  2
_Dot
 10
139.6321214146168
 20
110.4922272954188
 30
0.0
 50
270.0
  0
INSERT
  5
14C93
330
14593
100
AcDbEntity
  8
AM_5
100
AcDbBlockReference
  2
_Dot
 10
139.6321214146168
 20
142.4922272954189
 30
0.0
 50
90.0
  0
MTEXT
  5
14C94
330
14593
100
AcDbEntity
  8
AM_5
 62
     2
100
AcDbMText
 10
136.5321214146168
 20
126.4922272954189
 30
0.0
 40
3.200000000000001
 41
0.0
 71
     5
 72
     1
  1
32
 11
0.0000000000000001
 21
1.0
 31
0.0
 73
     1
 44
1.0
1001
ACAD
1000
MTEXTBEGIN
1070
    73
1070
     1
1070
    44
1040
1.0
1070
    74
1070
     0
1000
MTEXTEND
  0
POINT
  5
14C95
330
14593
100
AcDbEntity
  8
Defpoints
 62
     0
100
AcDbPoint
 10
90.3821206994168
 20
110.4922272954188
 30
0.0
  0
POINT
  5
14C96
330
14593
100
AcDbEntity
  8
Defpoints
 62
     0
100
AcDbPoint
 10
128.3821206994167
 20
142.4922272954189
 30
0.0
  0
POINT
  5
14C97
330
14593
100
AcDbEntity
  8
Defpoints
 62
     0
100
AcDbPoint
 10
139.6321214146168
 20
142.4922272954189
 30
0.0
  0
ENDBLK
  5
1459E
330
14593
100
AcDbEntity
  8
0
100
AcDbBlockEnd
  0
BLOCK
  5
145BC
330
145B2
100
AcDbEntity
  8
0
100
AcDbBlockBegin
  2
*D8
 70
     1
 10
0.0
 20
0.0
 30
0.0
  3
*D8
  1

  0
LINE
  5
14C98
330
145B2
100
AcDbEntity
  8
AM_5
100
AcDbLine
 10
82.13212069941686
 20
101.2422272954189
 30
0.0
 11
82.13212069941686
 21
84.0780121016189
 31
0.0
  0
LINE
  5
14C99
330
145B2
100
AcDbEntity
  8
AM_5
100
AcDbLine
 10
100.1321206994168
 20
133.2422272954189
 30
0.0
 11
100.1321206994168
 21
84.0780121016189
 31
0.0
  0
LINE
  5
14C9A
330
145B2
100
AcDbEntity
  8
AM_5
100
AcDbLine
 10
83.13212069941686
 20
85.0780121016189
 30
0.0
 11
99.13212069941685
 21
85.0780121016189
 31
0.0
  0
INSERT
  5
14C9B
330
145B2
100
AcDbEntity
  8
AM_5
100
AcDbBlockReference
  2
_Dot
 10
82.13212069941686
 20
85.0780121016189
 30
0.0
 50
180.0
  0
INSERT
  5
14C9C
330
145B2
100
AcDbEntity
  8
AM_5
100
AcDbBlockReference
  2
_Dot
 10
100.1321206994168
 20
85.0780121016189
 30
0.0
  0
MTEXT
  5
14C9D
330
145B2
100
AcDbEntity
  8
AM_5
 62
     2
100
AcDbMText
 10
91.13212069941686
 20
88.17801210161889
 30
0.0
 40
3.200000000000001
 41
0.0
 71
     5
 72
     1
  1
18
 73
     1
 44
1.0
1001
ACAD
1000
MTEXTBEGIN
1070
    73
1070
     1
1070
    44
1040
1.0
1070
    74
1070
     0
1000
MTEXTEND
  0
POINT
  5
14C9E
330
145B2
100
AcDbEntity
  8
Defpoints
 62
     0
100
AcDbPoint
 10
82.13212069941686
 20
102.2422272954189
 30
0.0
  0
POINT
  5
14C9F
330
145B2
100
AcDbEntity
  8
Defpoints
 62
     0
100
AcDbPoint
 10
100.1321206994168
 20
134.2422272954189
 30
0.0
  0
POINT
  5
14CA0
330
145B2
100
AcDbEntity
  8
Defpoints
 62
     0
100
AcDbPoint
 10
100.1321206994168
 20
85.0780121016189
 30
0.0
  0
ENDBLK
  5
145BD
330
145B2
100
AcDbEntity
  8
0
100
AcDbBlockEnd
  0
BLOCK
  5
145D2
330
145C8
100
AcDbEntity
  8
0
100
AcDbBlockBegin
  2
*D9
 70
     1
 10
0.0
 20
0.0
 30
0.0
  3
*D9
  1

  0
LINE
  5
14CA1
330
145C8
100
AcDbEntity
  8
AM_5
100
AcDbLine
 10
82.13212069941686
 20
101.2422272954189
 30
0.0
 11
82.13212069941686
 21
84.07801210161869
 31
0.0
  0
LINE
  5
14CA2
330
145C8
100
AcDbEntity
  8
AM_5
100
AcDbLine
 10
62.13212069941686
 20
101.2422272954189
 30
0.0
 11
62.13212069941686
 21
84.07801210161869
 31
0.0
  0
LINE
  5
14CA3
330
145C8
100
AcDbEntity
  8
AM_5
100
AcDbLine
 10
81.13212069941686
 20
85.0780121016187
 30
0.0
 11
63.13212069941686
 21
85.0780121016187
 31
0.0
  0
INSERT
  5
14CA4
330
145C8
100
AcDbEntity
  8
AM_5
100
AcDbBlockReference
  2
_Dot
 10
82.13212069941686
 20
85.0780121016187
 30
0.0
  0
INSERT
  5
14CA5
330
145C8
100
AcDbEntity
  8
AM_5
100
AcDbBlockReference
  2
_Dot
 10
62.13212069941686
 20
85.0780121016187
 30
0.0
 50
180.0
  0
MTEXT
  5
14CA6
330
145C8
100
AcDbEntity
  8
AM_5
 62
     2
100
AcDbMText
 10
72.13212069941686
 20
88.17801210161869
 30
0.0
 40
3.200000000000001
 41
0.0
 71
     5
 72
     1
  1
20
 73
     1
 44
1.0
1001
ACAD
1000
MTEXTBEGIN
1070
    73
1070
     1
1070
    44
1040
1.0
1070
    74
1070
     0
1000
MTEXTEND
  0
POINT
  5
14CA7
330
145C8
100
AcDbEntity
  8
Defpoints
 62
     0
100
AcDbPoint
 10
82.13212069941686
 20
102.2422272954189
 30
0.0
  0
POINT
  5
14CA8
330
145C8
100
AcDbEntity
  8
Defpoints
 62
     0
100
AcDbPoint
 10
62.13212069941686
 20
102.2422272954189
 30
0.0
  0
POINT
  5
14CA9
330
145C8
100
AcDbEntity
  8
Defpoints
 62
     0
100
AcDbPoint
 10
62.13212069941686
 20
85.0780121016187
 30
0.0
  0
ENDBLK
  5
145D3
330
145C8
100
AcDbEntity
  8
0
100
AcDbBlockEnd
  0
BLOCK
  5
145E8
330
145DE
100
AcDbEntity
  8
0
100
AcDbBlockBegin
  2
*D10
 70
     1
 10
0.0
 20
0.0
 30
0.0
  3
*D10
  1

  0
LINE
  5
14CAA
330
145DE
100
AcDbEntity
  8
AM_5
100
AcDbLine
 10
100.1321206994168
 20
133.2422272954189
 30
0.0
 11
100.1321206994168
 21
84.07801210161876
 31
0.0
  0
LINE
  5
14CAB
330
145DE
100
AcDbEntity
  8
AM_5
100
AcDbLine
 10
120.1321206994168
 20
133.2422272954189
 30
0.0
 11
120.1321206994168
 21
84.07801210161876
 31
0.0
  0
LINE
  5
14CAC
330
145DE
100
AcDbEntity
  8
AM_5
100
AcDbLine
 10
101.1321206994168
 20
85.07801210161876
 30
0.0
 11
119.1321206994168
 21
85.07801210161876
 31
0.0
  0
INSERT
  5
14CAD
330
145DE
100
AcDbEntity
  8
AM_5
100
AcDbBlockReference
  2
_Dot
 10
100.1321206994168
 20
85.07801210161876
 30
0.0
 50
180.0
  0
INSERT
  5
14CAE
330
145DE
100
AcDbEntity
  8
AM_5
100
AcDbBlockReference
  2
_Dot
 10
120.1321206994168
 20
85.07801210161876
 30
0.0
  0
MTEXT
  5
14CAF
330
145DE
100
AcDbEntity
  8
AM_5
 62
     2
100
AcDbMText
 10
110.1321206994168
 20
88.17801210161874
 30
0.0
 40
3.200000000000001
 41
0.0
 71
     5
 72
     1
  1
20
 73
     1
 44
1.0
1001
ACAD
1000
MTEXTBEGIN
1070
    73
1070
     1
1070
    44
1040
1.0
1070
    74
1070
     0
1000
MTEXTEND
  0
POINT
  5
14CB0
330
145DE
100
AcDbEntity
  8
Defpoints
 62
     0
100
AcDbPoint
 10
100.1321206994168
 20
134.2422272954189
 30
0.0
  0
POINT
  5
14CB1
330
145DE
100
AcDbEntity
  8
Defpoints
 62
     0
100
AcDbPoint
 10
120.1321206994168
 20
134.2422272954189
 30
0.0
  0
POINT
  5
14CB2
330
145DE
100
AcDbEntity
  8
Defpoints
 62
     0
100
AcDbPoint
 10
120.1321206994168
 20
85.07801210161876
 30
0.0
  0
ENDBLK
  5
145E9
330
145DE
100
AcDbEntity
  8
0
100
AcDbBlockEnd
  0
BLOCK
  5
145FE
330
145F4
100
AcDbEntity
  8
0
100
AcDbBlockBegin
  2
*D11
 70
     1
 10
0.0
 20
0.0
 30
0.0
  3
*D11
  1

  0
LINE
  5
14CB3
330
145F4
100
AcDbEntity
  8
AM_5
100
AcDbLine
 10
52.40602027561682
 20
119.6343146163189
 30
0.0
 11
52.40602027561682
 21
74.07801210161858
 31
0.0
  0
LINE
  5
14CB4
330
145F4
100
AcDbEntity
  8
AM_5
100
AcDbLine
 10
129.8582211232168
 20
119.6343146163189
 30
0.0
 11
129.8582211232168
 21
74.07801210161858
 31
0.0
  0
LINE
  5
14CB5
330
145F4
100
AcDbEntity
  8
AM_5
100
AcDbLine
 10
53.40602027561683
 20
75.07801210161858
 30
0.0
 11
128.8582211232168
 21
75.07801210161858
 31
0.0
  0
INSERT
  5
14CB6
330
145F4
100
AcDbEntity
  8
AM_5
100
AcDbBlockReference
  2
_Dot
 10
52.40602027561682
 20
75.07801210161858
 30
0.0
 50
180.0
  0
INSERT
  5
14CB7
330
145F4
100
AcDbEntity
  8
AM_5
100
AcDbBlockReference
  2
_Dot
 10
129.8582211232168
 20
75.07801210161858
 30
0.0
  0
MTEXT
  5
14CB8
330
145F4
100
AcDbEntity
  8
AM_5
 62
     2
100
AcDbMText
 10
91.13212069941681
 20
78.17801210161857
 30
0.0
 40
3.200000000000001
 41
0.0
 71
     5
 72
     1
  1
（77.5）
 73
     1
 44
1.0
1001
ACAD
1000
MTEXTBEGIN
1070
    73
1070
     1
1070
    44
1040
1.0
1070
    74
1070
     0
1000
MTEXTEND
  0
POINT
  5
14CB9
330
145F4
100
AcDbEntity
  8
Defpoints
 62
     0
100
AcDbPoint
 10
52.40602027561682
 20
120.6343146163189
 30
0.0
  0
POINT
  5
14CBA
330
145F4
100
AcDbEntity
  8
Defpoints
 62
     0
100
AcDbPoint
 10
129.8582211232168
 20
120.6343146163189
 30
0.0
  0
POINT
  5
14CBB
330
145F4
100
AcDbEntity
  8
Defpoints
 62
     0
100
AcDbPoint
 10
129.8582211232168
 20
75.07801210161858
 30
0.0
  0
ENDBLK
  5
145FF
330
145F4
100
AcDbEntity
  8
0
100
AcDbBlockEnd
  0
BLOCK
  5
1465C
330
14652
100
AcDbEntity
  8
0
100
AcDbBlockBegin
  2
*D12
 70
     1
 10
0.0
 20
0.0
 30
0.0
  3
*D12
  1

  0
LINE
  5
14CBC
330
14652
100
AcDbEntity
  8
AM_5
100
AcDbLine
 10
48.42602047391686
 20
126.4922272954708
 30
0.0
 11
39.42601926561741
 21
126.4922272954708
 31
0.0
  0
LINE
  5
14CBD
330
14652
100
AcDbEntity
  8
AM_5
100
AcDbLine
 10
52.88212069941685
 20
110.4922272954188
 30
0.0
 11
39.4260192656174
 21
110.4922272954188
 31
0.0
  0
LINE
  5
14CBE
330
14652
100
AcDbEntity
  8
AM_5
100
AcDbLine
 10
40.4260192656174
 20
125.4922272954708
 30
0.0
 11
40.42601926561739
 21
111.4922272954188
 31
0.0
  0
INSERT
  5
14CBF
330
14652
100
AcDbEntity
  8
AM_5
100
AcDbBlockReference
  2
_Dot
 10
40.4260192656174
 20
126.4922272954708
 30
0.0
 50
90.0
  0
INSERT
  5
14CC0
330
14652
100
AcDbEntity
  8
AM_5
100
AcDbBlockReference
  2
_Dot
 10
40.42601926561739
 20
110.4922272954188
 30
0.0
 50
270.0
  0
MTEXT
  5
14CC1
330
14652
100
AcDbEntity
  8
AM_5
 62
     2
100
AcDbMText
 10
37.32601926561738
 20
118.4922272954449
 30
0.0
 40
3.200000000000001
 41
0.0
 71
     5
 72
     1
  1
16
 11
0.0000000000000001
 21
1.0
 31
0.0
 73
     1
 44
1.0
1001
ACAD
1000
MTEXTBEGIN
1070
    73
1070
     1
1070
    44
1040
1.0
1070
    74
1070
     0
1000
MTEXTEND
  0
POINT
  5
14CC2
330
14652
100
AcDbEntity
  8
Defpoints
 62
     0
100
AcDbPoint
 10
49.42602047391686
 20
126.4922272954708
 30
0.0
  0
POINT
  5
14CC3
330
14652
100
AcDbEntity
  8
Defpoints
 62
     0
100
AcDbPoint
 10
53.88212069941686
 20
110.4922272954188
 30
0.0
  0
POINT
  5
14CC4
330
14652
100
AcDbEntity
  8
Defpoints
 62
     0
100
AcDbPoint
 10
40.42601926561739
 20
110.4922272954188
 30
0.0
  0
ENDBLK
  5
1465D
330
14652
100
AcDbEntity
  8
0
100
AcDbBlockEnd
  0
BLOCK
  5
14672
330
14668
100
AcDbEntity
  8
0
100
AcDbBlockBegin
  2
*D13
 70
     1
 10
0.0
 20
0.0
 30
0.0
  3
*D13
  1

  0
LINE
  5
14CC5
330
14668
100
AcDbEntity
  8
AM_5
100
AcDbLine
 10
48.42602047391686
 20
126.4922272954708
 30
0.0
 11
29.426019265619
 21
126.4922272954708
 31
0.0
  0
LINE
  5
14CC6
330
14668
100
AcDbEntity
  8
AM_5
100
AcDbLine
 10
53.63212062491685
 20
96.4922279660189
 30
0.0
 11
29.42601926561899
 21
96.49222796601891
 31
0.0
  0
LINE
  5
14CC7
330
14668
100
AcDbEntity
  8
AM_5
100
AcDbLine
 10
30.426019265619
 20
125.4922272954708
 30
0.0
 11
30.42601926561899
 21
97.49222796601891
 31
0.0
  0
INSERT
  5
14CC8
330
14668
100
AcDbEntity
  8
AM_5
100
AcDbBlockReference
  2
_Dot
 10
30.426019265619
 20
126.4922272954708
 30
0.0
 50
90.0
  0
INSERT
  5
14CC9
330
14668
100
AcDbEntity
  8
AM_5
100
AcDbBlockReference
  2
_Dot
 10
30.42601926561899
 20
96.49222796601891
 30
0.0
 50
270.0
  0
MTEXT
  5
14CCA
330
14668
100
AcDbEntity
  8
AM_5
 62
     2
100
AcDbMText
 10
27.32601926561898
 20
111.4922276307449
 30
0.0
 40
3.200000000000001
 41
0.0
 71
     5
 72
     1
  1
30
 11
0.0000000000000001
 21
1.0
 31
0.0
 73
     1
 44
1.0
1001
ACAD
1000
MTEXTBEGIN
1070
    73
1070
     1
1070
    44
1040
1.0
1070
    74
1070
     0
1000
MTEXTEND
  0
POINT
  5
14CCB
330
14668
100
AcDbEntity
  8
Defpoints
 62
     0
100
AcDbPoint
 10
49.42602047391686
 20
126.4922272954708
 30
0.0
  0
POINT
  5
14CCC
330
14668
100
AcDbEntity
  8
Defpoints
 62
     0
100
AcDbPoint
 10
54.63212062491685
 20
96.4922279660189
 30
0.0
  0
POINT
  5
14CCD
330
14668
100
AcDbEntity
  8
Defpoints
 62
     0
100
AcDbPoint
 10
30.42601926561899
 20
96.49222796601891
 30
0.0
  0
ENDBLK
  5
14673
330
14668
100
AcDbEntity
  8
0
100
AcDbBlockEnd
  0
BLOCK
  5
1469C
330
14696
100
AcDbEntity
  8
0
100
AcDbBlockBegin
  2
*D14
 70
     1
 10
0.0
 20
0.0
 30
0.0
  3
*D14
  1

  0
LINE
  5
14CCE
330
14696
100
AcDbEntity
  8
AM_5
100
AcDbLine
 10
143.4900853319039
 20
162.812513384071
 30
0.0
 11
129.2734186652372
 21
162.812513384071
 31
0.0
  0
LINE
  5
14CCF
330
14696
100
AcDbEntity
  8
AM_5
100
AcDbLine
 10
129.2734186652372
 20
162.812513384071
 30
0.0
 11
122.0193122114533
 21
146.6872848870257
 31
0.0
  0
LINE
  5
14CD0
330
14696
100
AcDbEntity
  8
AM_5
100
AcDbLine
 10
118.2449291873807
 20
138.297169703812
 30
0.0
 11
117.4244111386692
 21
136.4732316205047
 31
0.0
  0
MTEXT
  5
14CD1
330
14696
100
AcDbEntity
  8
AM_5
 62
     2
100
AcDbMText
 10
137.1317519985705
 20
166.062513384071
 30
0.0
 40
3.5
 41
0.0
 71
     5
 72
     1
  1
4-\U+22055.2
 73
     1
 44
1.0
1001
ACAD
1000
MTEXTBEGIN
1070
    73
1070
     1
1070
    44
1040
1.0
1070
    74
1070
     0
1000
MTEXTEND
  0
LINE
  5
14CD2
330
14696
100
AcDbEntity
  8
AM_5
100
AcDbLine
 10
119.0654472360921
 20
140.1211077871194
 30
0.0
 11
121.1987941627419
 21
144.8633468037184
 31
0.0
  0
INSERT
  5
14CD3
330
14696
100
AcDbEntity
  8
AM_5
100
AcDbBlockReference
  2
GENDOT
 10
119.0654472360921
 20
140.1211077871194
 30
0.0
 41
2.0
 42
2.0
 43
2.0
 50
65.77889265651638
  0
INSERT
  5
14CD4
330
14696
100
AcDbEntity
  8
AM_5
100
AcDbBlockReference
  2
GENDOT
 10
121.1987941627419
 20
144.8633468037184
 30
0.0
 41
2.0
 42
2.0
 43
2.0
 50
245.7788926565164
  0
POINT
  5
14CD5
330
14696
100
AcDbEntity
  8
Defpoints
 62
     0
100
AcDbPoint
 10
121.1987941627419
 20
144.8633468037184
 30
0.0
  0
POINT
  5
14CD6
330
14696
100
AcDbEntity
  8
Defpoints
 62
     0
100
AcDbPoint
 10
119.0654472360921
 20
140.1211077871194
 30
0.0
  0
ENDBLK
  5
1469D
330
14696
100
AcDbEntity
  8
0
100
AcDbBlockEnd
  0
BLOCK
  5
1473B
330
14731
100
AcDbEntity
  8
0
100
AcDbBlockBegin
  2
*D15
 70
     1
 10
0.0
 20
0.0
 30
0.0
  3
*D15
  1

  0
LINE
  5
14CD7
330
14731
100
AcDbEntity
  8
AM_5
100
AcDbLine
 10
229.1898773436257
 20
33.81387587242426
 30
0.0
 11
229.1898773436257
 21
18.31387579052423
 31
0.0
  0
LINE
  5
14CD8
330
14731
100
AcDbEntity
  8
AM_5
100
AcDbLine
 10
206.1898771350247
 20
33.41545218797938
 30
0.0
 11
206.1898771350247
 21
18.31387579052423
 31
0.0
  0
LINE
  5
14CD9
330
14731
100
AcDbEntity
  8
AM_5
100
AcDbLine
 10
228.1898773436257
 20
19.31387579052423
 30
0.0
 11
207.1898771350247
 21
19.31387579052423
 31
0.0
  0
INSERT
  5
14CDA
330
14731
100
AcDbEntity
  8
AM_5
100
AcDbBlockReference
  2
_Dot
 10
229.1898773436257
 20
19.31387579052423
 30
0.0
  0
INSERT
  5
14CDB
330
14731
100
AcDbEntity
  8
AM_5
100
AcDbBlockReference
  2
_Dot
 10
206.1898771350247
 20
19.31387579052423
 30
0.0
 50
180.0
  0
MTEXT
  5
14CDC
330
14731
100
AcDbEntity
  8
AM_5
 62
     2
100
AcDbMText
 10
217.6898772393252
 20
22.41387579052424
 30
0.0
 40
3.200000000000001
 41
0.0
 71
     5
 72
     1
  1
23
 73
     1
 44
1.0
1001
ACAD
1000
MTEXTBEGIN
1070
    73
1070
     1
1070
    44
1040
1.0
1070
    74
1070
     0
1000
MTEXTEND
  0
POINT
  5
14CDD
330
14731
100
AcDbEntity
  8
Defpoints
 62
     0
100
AcDbPoint
 10
229.1898773436257
 20
34.81387587242426
 30
0.0
  0
POINT
  5
14CDE
330
14731
100
AcDbEntity
  8
Defpoints
 62
     0
100
AcDbPoint
 10
206.1898771350247
 20
34.41545218797938
 30
0.0
  0
POINT
  5
14CDF
330
14731
100
AcDbEntity
  8
Defpoints
 62
     0
100
AcDbPoint
 10
206.1898771350247
 20
19.31387579052423
 30
0.0
  0
ENDBLK
  5
1473C
330
14731
100
AcDbEntity
  8
0
100
AcDbBlockEnd
  0
BLOCK
  5
1476E
330
14762
100
AcDbEntity
  8
0
100
AcDbBlockBegin
  2
*D16
 70
     1
 10
0.0
 20
0.0
 30
0.0
  3
*D16
  1

  0
LINE
  5
14CE0
330
14762
100
AcDbEntity
  8
AM_5
100
AcDbLine
 10
205.1898771350247
 20
30.56387576072427
 30
0.0
 11
205.1898771350247
 21
18.31387579052401
 31
0.0
  0
LINE
  5
14CE1
330
14762
100
AcDbEntity
  8
AM_5
100
AcDbLine
 10
206.1898771350247
 20
33.41545218797938
 30
0.0
 11
206.1898771350247
 21
18.31387579052401
 31
0.0
  0
LINE
  5
14CE2
330
14762
100
AcDbEntity
  8
AM_5
100
AcDbLine
 10
207.1898771350247
 20
19.31387579052401
 30
0.0
 11
208.1898771350247
 21
19.31387579052401
 31
0.0
  0
LINE
  5
14CE3
330
14762
100
AcDbEntity
  8
AM_5
100
AcDbLine
 10
204.1898771350247
 20
19.31387579052401
 30
0.0
 11
199.6565438016914
 21
19.31387579052401
 31
0.0
  0
LINE
  5
14CE4
330
14762
100
AcDbEntity
  8
AM_5
100
AcDbLine
 10
206.1898771350247
 20
19.31387579052401
 30
0.0
 11
205.1898771350247
 21
19.31387579052401
 31
0.0
  0
INSERT
  5
14CE5
330
14762
100
AcDbEntity
  8
AM_5
100
AcDbBlockReference
  2
_Dot
 10
206.1898771350247
 20
19.31387579052401
 30
0.0
 50
180.0
  0
INSERT
  5
14CE6
330
14762
100
AcDbEntity
  8
AM_5
100
AcDbBlockReference
  2
_Dot
 10
205.1898771350247
 20
19.31387579052401
 30
0.0
  0
MTEXT
  5
14CE7
330
14762
100
AcDbEntity
  8
AM_5
 62
     2
100
AcDbMText
 10
201.423210468358
 20
22.41387579052401
 30
0.0
 40
3.200000000000001
 41
0.0
 71
     5
 72
     1
  1
1
 73
     1
 44
1.0
1001
ACAD
1000
MTEXTBEGIN
1070
    73
1070
     1
1070
    44
1040
1.0
1070
    74
1070
     0
1000
MTEXTEND
  0
POINT
  5
14CE8
330
14762
100
AcDbEntity
  8
Defpoints
 62
     0
100
AcDbPoint
 10
205.1898771350247
 20
31.56387576072428
 30
0.0
  0
POINT
  5
14CE9
330
14762
100
AcDbEntity
  8
Defpoints
 62
     0
100
AcDbPoint
 10
206.1898771350247
 20
34.41545218797938
 30
0.0
  0
POINT
  5
14CEA
330
14762
100
AcDbEntity
  8
Defpoints
 62
     0
100
AcDbPoint
 10
206.1898771350247
 20
19.31387579052401
 30
0.0
  0
ENDBLK
  5
1476F
330
14762
100
AcDbEntity
  8
0
100
AcDbBlockEnd
  0
BLOCK
  5
147B0
330
147A6
100
AcDbEntity
  8
0
100
AcDbBlockBegin
  2
*D17
 70
     1
 10
0.0
 20
0.0
 30
0.0
  3
*D17
  1

  0
LINE
  5
14CEB
330
147A6
100
AcDbEntity
  8
AM_5
100
AcDbLine
 10
229.6898771350258
 20
34.31387573092428
 30
0.0
 11
248.1898781450258
 21
34.31387573092428
 31
0.0
  0
LINE
  5
14CEC
330
147A6
100
AcDbEntity
  8
AM_5
100
AcDbLine
 10
228.1898770791434
 20
43.31387573092428
 30
0.0
 11
248.1898781450258
 21
43.31387573092427
 31
0.0
  0
LINE
  5
14CED
330
147A6
100
AcDbEntity
  8
AM_5
100
AcDbLine
 10
247.1898781450258
 20
35.31387573092427
 30
0.0
 11
247.1898781450258
 21
42.31387573092427
 31
0.0
  0
INSERT
  5
14CEE
330
147A6
100
AcDbEntity
  8
AM_5
100
AcDbBlockReference
  2
_Dot
 10
247.1898781450258
 20
34.31387573092428
 30
0.0
 50
270.0
  0
INSERT
  5
14CEF
330
147A6
100
AcDbEntity
  8
AM_5
100
AcDbBlockReference
  2
_Dot
 10
247.1898781450258
 20
43.31387573092427
 30
0.0
 50
90.0
  0
MTEXT
  5
14CF0
330
147A6
100
AcDbEntity
  8
AM_5
 62
     2
100
AcDbMText
 10
244.0898781450258
 20
38.81387573092432
 30
0.0
 40
3.200000000000001
 41
0.0
 71
     5
 72
     1
  1
9
 11
0.0000000000000001
 21
1.0
 31
0.0
 73
     1
 44
1.0
1001
ACAD
1000
MTEXTBEGIN
1070
    73
1070
     1
1070
    44
1040
1.0
1070
    74
1070
     0
1000
MTEXTEND
  0
POINT
  5
14CF1
330
147A6
100
AcDbEntity
  8
Defpoints
 62
     0
100
AcDbPoint
 10
228.6898771350258
 20
34.31387573092428
 30
0.0
  0
POINT
  5
14CF2
330
147A6
100
AcDbEntity
  8
Defpoints
 62
     0
100
AcDbPoint
 10
227.1898770791434
 20
43.31387573092428
 30
0.0
  0
POINT
  5
14CF3
330
147A6
100
AcDbEntity
  8
Defpoints
 62
     0
100
AcDbPoint
 10
247.1898781450258
 20
43.31387573092427
 30
0.0
  0
ENDBLK
  5
147B1
330
147A6
100
AcDbEntity
  8
0
100
AcDbBlockEnd
  0
BLOCK
  5
147C6
330
147BC
100
AcDbEntity
  8
0
100
AcDbBlockBegin
  2
*D18
 70
     1
 10
0.0
 20
0.0
 30
0.0
  3
*D18
  1

  0
LINE
  5
14CF4
330
147BC
100
AcDbEntity
  8
AM_5
100
AcDbLine
 10
229.6898771350258
 20
34.31387573092428
 30
0.0
 11
258.1898781450257
 21
34.31387573092428
 31
0.0
  0
LINE
  5
14CF5
330
147BC
100
AcDbEntity
  8
AM_5
100
AcDbLine
 10
230.3614500103257
 20
50.3138757309243
 30
0.0
 11
258.1898781450257
 21
50.3138757309243
 31
0.0
  0
LINE
  5
14CF6
330
147BC
100
AcDbEntity
  8
AM_5
100
AcDbLine
 10
257.1898781450256
 20
35.31387573092427
 30
0.0
 11
257.1898781450256
 21
49.3138757309243
 31
0.0
  0
INSERT
  5
14CF7
330
147BC
100
AcDbEntity
  8
AM_5
100
AcDbBlockReference
  2
_Dot
 10
257.1898781450256
 20
34.31387573092428
 30
0.0
 50
270.0
  0
INSERT
  5
14CF8
330
147BC
100
AcDbEntity
  8
AM_5
100
AcDbBlockReference
  2
_Dot
 10
257.1898781450256
 20
50.3138757309243
 30
0.0
 50
90.0
  0
MTEXT
  5
14CF9
330
147BC
100
AcDbEntity
  8
AM_5
 62
     2
100
AcDbMText
 10
254.0898781450257
 20
42.31387573092432
 30
0.0
 40
3.200000000000001
 41
0.0
 71
     5
 72
     1
  1
16
 11
0.0000000000000001
 21
1.0
 31
0.0
 73
     1
 44
1.0
1001
ACAD
1000
MTEXTBEGIN
1070
    73
1070
     1
1070
    44
1040
1.0
1070
    74
1070
     0
1000
MTEXTEND
  0
POINT
  5
14CFA
330
147BC
100
AcDbEntity
  8
Defpoints
 62
     0
100
AcDbPoint
 10
228.6898771350258
 20
34.31387573092428
 30
0.0
  0
POINT
  5
14CFB
330
147BC
100
AcDbEntity
  8
Defpoints
 62
     0
100
AcDbPoint
 10
229.3614500103257
 20
50.3138757309243
 30
0.0
  0
POINT
  5
14CFC
330
147BC
100
AcDbEntity
  8
Defpoints
 62
     0
100
AcDbPoint
 10
257.1898781450256
 20
50.3138757309243
 30
0.0
  0
ENDBLK
  5
147C7
330
147BC
100
AcDbEntity
  8
0
100
AcDbBlockEnd
  0
BLOCK
  5
1480D
330
14803
100
AcDbEntity
  8
0
100
AcDbBlockBegin
  2
*D19
 70
     1
 10
0.0
 20
0.0
 30
0.0
  3
*D19
  1

  0
LINE
  5
14CFD
330
14803
100
AcDbEntity
  8
AM_5
100
AcDbLine
 10
128.6321214146168
 20
55.81387558932425
 30
0.0
 11
140.6321214146167
 21
55.81387558932425
 31
0.0
  0
LINE
  5
14CFE
330
14803
100
AcDbEntity
  8
AM_5
100
AcDbLine
 10
128.6321214146168
 20
34.31387579052426
 30
0.0
 11
140.6321214146167
 21
34.31387579052426
 31
0.0
  0
LINE
  5
14CFF
330
14803
100
AcDbEntity
  8
AM_5
100
AcDbLine
 10
139.6321214146167
 20
54.81387558932425
 30
0.0
 11
139.6321214146167
 21
35.31387579052426
 31
0.0
  0
INSERT
  5
14D00
330
14803
100
AcDbEntity
  8
AM_5
100
AcDbBlockReference
  2
_Dot
 10
139.6321214146167
 20
55.81387558932425
 30
0.0
 50
90.0
  0
INSERT
  5
14D01
330
14803
100
AcDbEntity
  8
AM_5
100
AcDbBlockReference
  2
_Dot
 10
139.6321214146167
 20
34.31387579052426
 30
0.0
 50
270.0
  0
MTEXT
  5
14D02
330
14803
100
AcDbEntity
  8
AM_5
 62
     2
100
AcDbMText
 10
136.5321214146167
 20
45.06387568992428
 30
0.0
 40
3.200000000000001
 41
0.0
 71
     5
 72
     1
  1
21.5
 11
0.0000000000000001
 21
1.0
 31
0.0
 73
     1
 44
1.0
1001
ACAD
1000
MTEXTBEGIN
1070
    73
1070
     1
1070
    44
1040
1.0
1070
    74
1070
     0
1000
MTEXTEND
  0
POINT
  5
14D03
330
14803
100
AcDbEntity
  8
Defpoints
 62
     0
100
AcDbPoint
 10
127.6321214146168
 20
55.81387558932425
 30
0.0
  0
POINT
  5
14D04
330
14803
100
AcDbEntity
  8
Defpoints
 62
     0
100
AcDbPoint
 10
127.6321214146168
 20
34.31387579052426
 30
0.0
  0
POINT
  5
14D05
330
14803
100
AcDbEntity
  8
Defpoints
 62
     0
100
AcDbPoint
 10
139.6321214146167
 20
34.31387579052426
 30
0.0
  0
ENDBLK
  5
1480E
330
14803
100
AcDbEntity
  8
0
100
AcDbBlockEnd
  0
BLOCK
  5
14BBD
330
14BB7
100
AcDbEntity
  8
0
100
AcDbBlockBegin
  2
*D20
 70
     1
 10
0.0
 20
0.0
 30
0.0
  3
*D20
  1

  0
LINE
  5
14D06
330
14BB7
100
AcDbEntity
  8
AM_5
100
AcDbLine
 10
102.0328464649897
 20
139.8559910457464
 30
0.0
 11
98.23139493384381
 21
145.1284635450913
 31
0.0
  0
LINE
  5
14D07
330
14BB7
100
AcDbEntity
  8
AM_5
100
AcDbLine
 10
97.06171753964506
 20
146.750762775659
 30
0.0
 11
84.89885997011839
 21
163.6201958128459
 31
0.0
  0
LINE
  5
14D08
330
14BB7
100
AcDbEntity
  8
AM_5
100
AcDbLine
 10
84.89885997011839
 20
163.6201958128459
 30
0.0
 11
68.34885997011841
 21
163.620195812846
 31
0.0
  0
INSERT
  5
14D09
330
14BB7
100
AcDbEntity
  8
AM_5
100
AcDbBlockReference
  2
GENDOT
 10
103.2025238591885
 20
138.2336918151787
 30
0.0
 41
2.0
 42
2.0
 43
2.0
 50
305.7915955192178
  0
INSERT
  5
14D0A
330
14BB7
100
AcDbEntity
  8
AM_5
100
AcDbBlockReference
  2
GENDOT
 10
97.06171753964506
 20
146.750762775659
 30
0.0
 41
2.0
 42
2.0
 43
2.0
 50
125.7915955192178
  0
MTEXT
  5
14D0B
330
14BB7
100
AcDbEntity
  8
AM_5
 62
     2
100
AcDbMText
 10
75.87385997011836
 20
166.8701958128459
 30
0.0
 40
3.5
 41
0.0
 71
     5
 72
     1
  1
4-\U+220510.5
 73
     1
 44
1.0
1001
ACAD
1000
MTEXTBEGIN
1070
    73
1070
     1
1070
    44
1040
1.0
1070
    74
1070
     0
1000
MTEXTEND
  0
POINT
  5
14D0C
330
14BB7
100
AcDbEntity
  8
Defpoints
 62
     0
100
AcDbPoint
 10
97.06171753964506
 20
146.750762775659
 30
0.0
  0
POINT
  5
14D0D
330
14BB7
100
AcDbEntity
  8
Defpoints
 62
     0
100
AcDbPoint
 10
103.2025238591885
 20
138.2336918151787
 30
0.0
  0
ENDBLK
  5
14BBE
330
14BB7
100
AcDbEntity
  8
0
100
AcDbBlockEnd
  0
BLOCK
  5
14BF8
330
14BEE
100
AcDbEntity
  8
0
100
AcDbBlockBegin
  2
*D21
 70
     1
 10
0.0
 20
0.0
 30
0.0
  3
*D21
  1

  0
LINE
  5
14D0E
330
14BEE
100
AcDbEntity
  8
AM_5
100
AcDbLine
 10
171.3695176928013
 20
45.31387573092428
 30
0.0
 11
162.1898761250257
 21
45.31387573092428
 31
0.0
  0
LINE
  5
14D0F
330
14BEE
100
AcDbEntity
  8
AM_5
100
AcDbLine
 10
180.6898779397258
 20
34.31387579052426
 30
0.0
 11
162.1898761250257
 21
34.31387579052427
 31
0.0
  0
LINE
  5
14D10
330
14BEE
100
AcDbEntity
  8
AM_5
100
AcDbLine
 10
163.1898761250257
 20
44.31387573092428
 30
0.0
 11
163.1898761250257
 21
35.31387579052427
 31
0.0
  0
INSERT
  5
14D11
330
14BEE
100
AcDbEntity
  8
AM_5
100
AcDbBlockReference
  2
_Dot
 10
163.1898761250257
 20
45.31387573092428
 30
0.0
 50
90.0
  0
INSERT
  5
14D12
330
14BEE
100
AcDbEntity
  8
AM_5
100
AcDbBlockReference
  2
_Dot
 10
163.1898761250257
 20
34.31387579052427
 30
0.0
 50
270.0
  0
MTEXT
  5
14D13
330
14BEE
100
AcDbEntity
  8
AM_5
 62
     2
100
AcDbMText
 10
160.0898761250257
 20
39.81387576072431
 30
0.0
 40
3.200000000000001
 41
0.0
 71
     5
 72
     1
  1
11
 11
0.0000000000000001
 21
1.0
 31
0.0
 73
     1
 44
1.0
1001
ACAD
1000
MTEXTBEGIN
1070
    73
1070
     1
1070
    44
1040
1.0
1070
    74
1070
     0
1000
MTEXTEND
  0
POINT
  5
14D14
330
14BEE
100
AcDbEntity
  8
Defpoints
 62
     0
100
AcDbPoint
 10
172.3695176928013
 20
45.31387573092428
 30
0.0
  0
POINT
  5
14D15
330
14BEE
100
AcDbEntity
  8
Defpoints
 62
     0
100
AcDbPoint
 10
181.6898779397258
 20
34.31387579052426
 30
0.0
  0
POINT
  5
14D16
330
14BEE
100
AcDbEntity
  8
Defpoints
 62
     0
100
AcDbPoint
 10
163.1898761250257
 20
34.31387579052427
 30
0.0
  0
ENDBLK
  5
14BF9
330
14BEE
100
AcDbEntity
  8
0
100
AcDbBlockEnd
  0
BLOCK
  5
14C0E
330
14C04
100
AcDbEntity
  8
0
100
AcDbBlockBegin
  2
*D22
 70
     1
 10
0.0
 20
0.0
 30
0.0
  3
*D22
  1

  0
LINE
  5
14D17
330
14C04
100
AcDbEntity
  8
AM_5
100
AcDbLine
 10
180.6898779397258
 20
34.31387579052426
 30
0.0
 11
152.1898761250257
 21
34.31387579052427
 31
0.0
  0
LINE
  5
14D18
330
14C04
100
AcDbEntity
  8
AM_5
100
AcDbLine
 10
185.8148771350275
 20
53.06387573091005
 30
0.0
 11
152.1898761250257
 21
53.06387573091006
 31
0.0
  0
LINE
  5
14D19
330
14C04
100
AcDbEntity
  8
AM_5
100
AcDbLine
 10
153.1898761250257
 20
35.31387579052427
 30
0.0
 11
153.1898761250257
 21
52.06387573091006
 31
0.0
  0
INSERT
  5
14D1A
330
14C04
100
AcDbEntity
  8
AM_5
100
AcDbBlockReference
  2
_Dot
 10
153.1898761250257
 20
34.31387579052427
 30
0.0
 50
270.0
  0
INSERT
  5
14D1B
330
14C04
100
AcDbEntity
  8
AM_5
100
AcDbBlockReference
  2
_Dot
 10
153.1898761250257
 20
53.06387573091006
 30
0.0
 50
90.0
  0
MTEXT
  5
14D1C
330
14C04
100
AcDbEntity
  8
AM_5
 62
     2
100
AcDbMText
 10
150.0898761250257
 20
43.6888757607172
 30
0.0
 40
3.200000000000001
 41
0.0
 71
     5
 72
     1
  1
（19）
 11
0.0000000000000001
 21
1.0
 31
0.0
 73
     1
 44
1.0
1001
ACAD
1000
MTEXTBEGIN
1070
    73
1070
     1
1070
    44
1040
1.0
1070
    74
1070
     0
1000
MTEXTEND
  0
POINT
  5
14D1D
330
14C04
100
AcDbEntity
  8
Defpoints
 62
     0
100
AcDbPoint
 10
181.6898779397258
 20
34.31387579052426
 30
0.0
  0
POINT
  5
14D1E
330
14C04
100
AcDbEntity
  8
Defpoints
 62
     0
100
AcDbPoint
 10
186.8148771350275
 20
53.06387573091005
 30
0.0
  0
POINT
  5
14D1F
330
14C04
100
AcDbEntity
  8
Defpoints
 62
     0
100
AcDbPoint
 10
153.1898761250257
 20
53.06387573091006
 30
0.0
  0
ENDBLK
  5
14C0F
330
14C04
100
AcDbEntity
  8
0
100
AcDbBlockEnd
  0
BLOCK
  5
14D6F
330
14D68
100
AcDbEntity
  8
0
100
AcDbBlockBegin
  2
*S23
 70
     1
 10
0.0
 20
0.0
 30
0.0
  3
*S23
  1

  0
LINE
  5
14D69
330
14D68
100
AcDbEntity
  8
AM_5
 62
     3
100
AcDbLine
 10
35.13456230129148
 20
146.7455820911077
 30
0.0
 11
58.13526724523024
 21
146.7455820911077
 31
0.0
  0
LINE
  5
14D6A
330
14D68
100
AcDbEntity
  8
AM_5
 62
     3
100
AcDbLine
 10
58.13526724523024
 20
146.7455820911077
 30
0.0
 11
63.66660037187905
 21
138.6439692194348
 31
0.0
  0
LINE
  5
14D6B
330
14D68
100
AcDbEntity
  8
AM_5
  6
Continuous
 62
     3
100
AcDbLine
 10
63.66660037187905
 20
138.6439692194348
 30
0.0
 11
64.7943184878128
 21
136.9922271539189
 31
0.0
  0
LINE
  5
14D6C
330
14D68
100
AcDbEntity
  8
AM_5
  6
Continuous
 62
     3
100
AcDbLine
 10
63.22401742333513
 20
138.3417980637221
 30
0.0
 11
64.7943184878128
 21
136.9922271539189
 31
0.0
  0
LINE
  5
14D6D
330
14D68
100
AcDbEntity
  8
AM_5
  6
Continuous
 62
     3
100
AcDbLine
 10
64.7943184878128
 20
136.9922271539189
 30
0.0
 11
64.10918332042297
 21
138.9461403751476
 31
0.0
  0
MTEXT
  5
14D6E
330
14D68
100
AcDbEntity
  8
AM_5
 62
     2
100
AcDbMText
 10
35.13456230129148
 20
148.3455820911077
 30
0.0
 40
3.2
 41
0.0
 71
     7
 72
     5
  1
トルク機構ユニット\P（固定側）
 73
     1
 44
1.0
1001
ACAD
1000
MTEXTBEGIN
1070
    73
1070
     1
1070
    44
1040
1.0
1070
    74
1070
     0
1000
MTEXTEND
  0
ENDBLK
  5
14D70
330
14D68
100
AcDbEntity
  8
0
100
AcDbBlockEnd
  0
BLOCK
  5
14D79
330
14D72
100
AcDbEntity
  8
0
100
AcDbBlockBegin
  2
*S24
 70
     1
 10
0.0
 20
0.0
 30
0.0
  3
*S24
  1

  0
LINE
  5
14D73
330
14D72
100
AcDbEntity
  8
AM_5
 62
     3
100
AcDbLine
 10
199.4626584452502
 20
90.82376358672419
 30
0.0
 11
207.0588177810002
 21
90.82376358672419
 31
0.0
  0
LINE
  5
14D74
330
14D72
100
AcDbEntity
  8
AM_5
 62
     3
100
AcDbLine
 10
207.0588177810002
 20
90.82376358672419
 30
0.0
 11
208.7882448105669
 21
85.92951135793658
 31
0.0
  0
LINE
  5
14D75
330
14D72
100
AcDbEntity
  8
AM_5
  6
Continuous
 62
     3
100
AcDbLine
 10
208.7882448105669
 20
85.92951135793658
 30
0.0
 11
209.4545852708303
 21
84.04377797513399
 31
0.0
  0
LINE
  5
14D76
330
14D72
100
AcDbEntity
  8
AM_5
  6
Continuous
 62
     3
100
AcDbLine
 10
208.282964078089
 20
85.75096597134479
 30
0.0
 11
209.4545852708303
 21
84.04377797513399
 31
0.0
  0
LINE
  5
14D77
330
14D72
100
AcDbEntity
  8
AM_5
  6
Continuous
 62
     3
100
AcDbLine
 10
209.4545852708303
 20
84.04377797513399
 30
0.0
 11
209.2935255430449
 21
86.10805674452835
 31
0.0
  0
MTEXT
  5
14D78
330
14D72
100
AcDbEntity
  8
AM_5
 62
     2
100
AcDbMText
 10
206.7799917785836
 20
92.42376358672419
 30
0.0
 40
3.2
 41
0.0
 71
     9
 72
     5
  1
固定側
 73
     1
 44
1.0
1001
ACAD
1000
MTEXTBEGIN
1070
    73
1070
     1
1070
    44
1040
1.0
1070
    74
1070
     0
1000
MTEXTEND
  0
ENDBLK
  5
14D7A
330
14D72
100
AcDbEntity
  8
0
100
AcDbBlockEnd
  0
BLOCK
  5
14D83
330
14D7C
100
AcDbEntity
  8
0
100
AcDbBlockBegin
  2
*S25
 70
     1
 10
0.0
 20
0.0
 30
0.0
  3
*S25
  1

  0
LINE
  5
14D7D
330
14D7C
100
AcDbEntity
  8
AM_5
 62
     3
100
AcDbLine
 10
55.73901865821885
 20
84.32159069089562
 30
0.0
 11
57.76357243511154
 21
84.32159069089562
 31
0.0
  0
LINE
  5
14D7E
330
14D7C
100
AcDbEntity
  8
AM_5
 62
     3
100
AcDbLine
 10
57.76357243511154
 20
84.32159069089562
 30
0.0
 11
68.88356193783614
 21
104.5753559961123
 31
0.0
  0
LINE
  5
14D7F
330
14D7C
100
AcDbEntity
  8
AM_5
  6
Continuous
 62
     3
100
AcDbLine
 10
68.88356193783614
 20
104.5753559961123
 30
0.0
 11
69.84609786719339
 21
106.3285030477587
 31
0.0
  0
LINE
  5
14D80
330
14D7C
100
AcDbEntity
  8
AM_5
  6
Continuous
 62
     3
100
AcDbLine
 10
69.35331627027569
 20
104.3174452734952
 30
0.0
 11
69.84609786719339
 21
106.3285030477587
 31
0.0
  0
LINE
  5
14D81
330
14D7C
100
AcDbEntity
  8
AM_5
  6
Continuous
 62
     3
100
AcDbLine
 10
69.84609786719339
 20
106.3285030477587
 30
0.0
 11
68.41380760539661
 21
104.8332667187295
 31
0.0
  0
MTEXT
  5
14D82
330
14D7C
100
AcDbEntity
  8
AM_5
 62
     2
100
AcDbMText
 10
56.93368532488552
 20
85.28652085611007
 30
0.0
 40
3.2
 41
0.0
 71
     9
 72
     5
  1
※
 73
     1
 44
1.0
1001
ACAD
1000
MTEXTBEGIN
1070
    73
1070
     1
1070
    44
1040
1.0
1070
    74
1070
     0
1000
MTEXTEND
  0
ENDBLK
  5
14D84
330
14D7C
100
AcDbEntity
  8
0
100
AcDbBlockEnd
  0
BLOCK
  5
14D8D
330
14D86
100
AcDbEntity
  8
0
100
AcDbBlockBegin
  2
*S26
 70
     1
 10
0.0
 20
0.0
 30
0.0
  3
*S26
  1

  0
LINE
  5
14D87
330
14D86
100
AcDbEntity
  8
AM_5
 62
     3
100
AcDbLine
 10
119.7289149518685
 20
163.1459667096342
 30
0.0
 11
118.0701093795287
 21
163.1459667096342
 31
0.0
  0
LINE
  5
14D88
330
14D86
100
AcDbEntity
  8
AM_5
 62
     3
100
AcDbLine
 10
118.0701093795287
 20
163.1459667096342
 30
0.0
 11
112.5536994251651
 21
148.7928984084832
 31
0.0
  0
LINE
  5
14D89
330
14D86
100
AcDbEntity
  8
AM_5
  6
Continuous
 62
     3
100
AcDbLine
 10
112.5536994251651
 20
148.7928984084832
 30
0.0
 11
111.8361946175359
 21
146.9260328935012
 31
0.0
  0
LINE
  5
14D8A
330
14D86
100
AcDbEntity
  8
AM_5
  6
Continuous
 62
     3
100
AcDbLine
 10
112.0534743225867
 20
148.9851532405086
 30
0.0
 11
111.8361946175359
 21
146.9260328935012
 31
0.0
  0
LINE
  5
14D8B
330
14D86
100
AcDbEntity
  8
AM_5
  6
Continuous
 62
     3
100
AcDbLine
 10
111.8361946175359
 20
146.9260328935012
 30
0.0
 11
113.0539245277434
 21
148.6006435764579
 31
0.0
  0
MTEXT
  5
14D8C
330
14D86
100
AcDbEntity
  8
AM_5
 62
     2
100
AcDbMText
 10
118.5342482852018
 20
164.0128949388055
 30
0.0
 40
3.2
 41
0.0
 71
     7
 72
     5
  1
※
 73
     1
 44
1.0
1001
ACAD
1000
MTEXTBEGIN
1070
    73
1070
     1
1070
    44
1040
1.0
1070
    74
1070
     0
1000
MTEXTEND
  0
ENDBLK
  5
14D8E
330
14D86
100
AcDbEntity
  8
0
100
AcDbBlockEnd
  0
ENDSEC
  0
SECTION
  2
ENTITIES
  0
LINE
  5
B6A2
330
1F
100
AcDbEntity
  8
AM_0
100
AcDbLine
 10
195.500000282035
 20
201.5000000504798
 30
0.0
 11
285.500000282035
 21
201.5000000504798
 31
0.0
  0
LINE
  5
B6A3
330
1F
100
AcDbEntity
  8
AM_0
100
AcDbLine
 10
195.5000002820351
 20
127.5000000504796
 30
0.0
 11
285.5000002820352
 21
127.5000000504796
 31
0.0
  0
LINE
  5
B6A4
330
1F
100
AcDbEntity
  8
AM_2
100
AcDbLine
 10
195.5000002820351
 20
165.5000000504798
 30
0.0
 11
285.5000002820352
 21
165.5000000504797
 31
0.0
  0
LINE
  5
B6A5
330
1F
100
AcDbEntity
  8
AM_2
100
AcDbLine
 10
195.500000282035
 20
185.5000000504797
 30
0.0
 11
285.5000002820351
 21
185.5000000504797
 31
0.0
  0
LINE
  5
B6A6
330
1F
100
AcDbEntity
  8
AM_2
100
AcDbLine
 10
195.500000282035
 20
193.5000000504797
 30
0.0
 11
285.5000002820351
 21
193.5000000504797
 31
0.0
  0
LINE
  5
B6A7
330
1F
100
AcDbEntity
  8
AM_2
100
AcDbLine
 10
215.500000282035
 20
201.5000000504798
 30
0.0
 11
215.5000002820352
 21
127.5000000504796
 31
0.0
  0
MTEXT
  5
B6A8
330
1F
100
AcDbEntity
  8
AM_6
100
AcDbMText
 10
205.5000002820351
 20
158.5000000504797
 30
0.0
 40
3.2
 41
19.99999999999994
 71
     5
 72
     5
  1
仕上げ
 73
     1
 44
1.0
1001
ACAD
1000
MTEXTBEGIN
1070
    73
1070
     1
1070
    44
1040
1.0
1070
    74
1070
     0
1000
MTEXTEND
1000
ACAD_MTEXT_DEFINED_HEIGHT_BEGIN
1070
    46
1040
14.0000000000001
1000
ACAD_MTEXT_DEFINED_HEIGHT_END
  0
MTEXT
  5
B6A9
330
1F
100
AcDbEntity
  8
AM_6
100
AcDbMText
 10
205.5000002820351
 20
175.5000000504797
 30
0.0
 40
3.2
 41
20.0
 71
     5
 72
     5
  1
材　質
 73
     1
 44
1.0
1001
ACAD
1000
MTEXTBEGIN
1070
    73
1070
     1
1070
    44
1040
1.0
1070
    74
1070
     0
1000
MTEXTEND
1000
ACAD_MTEXT_DEFINED_HEIGHT_BEGIN
1070
    46
1040
19.9999999999999
1000
ACAD_MTEXT_DEFINED_HEIGHT_END
  0
MTEXT
  5
B6AA
330
1F
100
AcDbEntity
  8
AM_6
100
AcDbMText
 10
205.500000282035
 20
197.5000000504797
 30
0.0
 40
3.2
 41
20.0
 71
     5
 72
     5
  1
品　名
 73
     1
 44
1.0
1001
ACAD
1000
MTEXTBEGIN
1070
    73
1070
     1
1070
    44
1040
1.0
1070
    74
1070
     0
1000
MTEXTEND
  0
MTEXT
  5
B6AC
330
1F
100
AcDbEntity
  8
AM_6
100
AcDbMText
 10
215.5000002820351
 20
181.5000000504798
 30
0.0
 40
3.2
 41
69.99999999999996
 71
     4
 72
     5
  1
　本体：アルミ
 73
     1
 44
1.0
1001
ACAD
1000
MTEXTBEGIN
1070
    73
1070
     1
1070
    44
1040
1.0
1070
    74
1070
     0
1000
MTEXTEND
  0
MTEXT
  5
B6AD
330
1F
100
AcDbEntity
  8
AM_6
100
AcDbMText
 10
215.500000282035
 20
197.5000000504797
 30
0.0
 40
3.2
 41
70.0
 71
     4
 72
     5
  1
　ワンウェイトルクヒンジ
 73
     1
 44
1.0
1001
ACAD
1000
MTEXTBEGIN
1070
    73
1070
     1
1070
    44
1040
1.0
1070
    74
1070
     0
1000
MTEXTEND
  0
LINE
  5
B6AE
330
1F
100
AcDbEntity
  8
AM_0
100
AcDbLine
 10
195.500000282035
 20
201.5000000504798
 30
0.0
 11
195.500000282035
 21
127.5000000504796
 31
0.0
  0
MTEXT
  5
B6B0
330
1F
100
AcDbEntity
  8
AM_6
100
AcDbMText
 10
205.5000002820351
 20
139.5000000504796
 30
0.0
 40
3.2
 41
19.99999999999999
 71
     5
 72
     5
  1
備　考
 73
     1
 44
1.0
1001
ACAD
1000
MTEXTBEGIN
1070
    73
1070
     1
1070
    44
1040
1.0
1070
    74
1070
     0
1000
MTEXTEND
1000
ACAD_MTEXT_DEFINED_HEIGHT_BEGIN
1070
    46
1040
24.00000000000001
1000
ACAD_MTEXT_DEFINED_HEIGHT_END
  0
MTEXT
  5
B6B1
330
1F
100
AcDbEntity
  8
AM_6
100
AcDbMText
 10
205.5000002820351
 20
189.5000000504797
 30
0.0
 40
3.2
 41
20.0
 71
     5
 72
     5
  1
品　番
 73
     1
 44
1.0
1001
ACAD
1000
MTEXTBEGIN
1070
    73
1070
     1
1070
    44
1040
1.0
1070
    74
1070
     0
1000
MTEXTEND
  0
MTEXT
  5
B6B2
330
1F
100
AcDbEntity
  8
AM_6
100
AcDbMText
 10
215.5000002820351
 20
189.5000000504797
 30
0.0
 40
3.2
 41
69.99999999999997
 71
     4
 72
     5
  1
　DEH-TQA90-「A・B」
 73
     1
 44
1.0
1001
ACAD
1000
MTEXTBEGIN
1070
    73
1070
     1
1070
    44
1040
1.0
1070
    74
1070
     0
1000
MTEXTEND
  0
LINE
  5
B867
330
1F
100
AcDbEntity
  8
AM_2
100
AcDbLine
 10
195.5000002820351
 20
151.5000000504796
 30
0.0
 11
285.5000002820352
 21
151.5000000504796
 31
0.0
  0
MTEXT
  5
C4B3
330
1F
100
AcDbEntity
  8
AM_6
100
AcDbMText
 10
215.5000002820351
 20
169.5000000504798
 30
0.0
 40
3.2
 41
69.9999999999999
 71
     4
 72
     5
  1
　スリーブ、カバー：ポリアセタール樹脂
 73
     1
 44
1.0
1001
ACAD
1000
MTEXTBEGIN
1070
    73
1070
     1
1070
    44
1040
1.0
1070
    74
1070
     0
1000
MTEXTEND
  0
MTEXT
  5
D844
330
1F
100
AcDbEntity
  8
AM_6
100
AcDbMText
 10
215.5000002820351
 20
161.5000000504798
 30
0.0
 40
3.2
 41
69.99999999999996
 71
     4
 72
     5
  1
　本体：クリア塗装
 73
     1
 44
1.0
1001
ACAD
1000
MTEXTBEGIN
1070
    73
1070
     1
1070
    44
1040
1.0
1070
    74
1070
     0
1000
MTEXTEND
  0
MTEXT
  5
D845
330
1F
100
AcDbEntity
  8
AM_6
100
AcDbMText
 10
215.5000002820352
 20
155.5000000504798
 30
0.0
 40
3.2
 41
69.9999999999999
 71
     4
 72
     5
  1
　スリーブ、カバー：生地（ブラック）
 73
     1
 44
1.0
1001
ACAD
1000
MTEXTBEGIN
1070
    73
1070
     1
1070
    44
1040
1.0
1070
    74
1070
     0
1000
MTEXTEND
  0
TEXT
  5
DCAE
330
1F
100
AcDbEntity
  8
AM_6
 60
     1
100
AcDbText
 10
408.500000282035
 20
8.500000050479741
 30
0.0
 40
2.5
  1
!GENTITLE-INSERT
100
AcDbText
  0
TEXT
  5
DCAF
330
1F
100
AcDbEntity
  8
AM_6
 60
     1
100
AcDbText
 10
0.0000002820350623
 20
0.0000000504797413
 30
0.0
 40
2.5
  1
!GENTITLE-LL
100
AcDbText
  0
TEXT
  5
DCB0
330
1F
100
AcDbEntity
  8
AM_6
 60
     1
100
AcDbText
 10
420.000000282035
 20
297.0000000504797
 30
0.0
 40
2.5
  1
!GENTITLE-RU
100
AcDbText
  0
TEXT
  5
DCB1
330
1F
100
AcDbEntity
  8
AM_6
 60
     1
100
AcDbText
 10
420.000000282035
 20
297.0000000504797
 30
0.0
 40
2.5
  1
!GENTITLE-MAX
100
AcDbText
  0
TEXT
  5
DCB9
330
1F
100
AcDbEntity
  8
AM_6
 60
     1
100
AcDbText
 10
0.0000002820350623
 20
0.0000000504797413
 30
0.0
 40
2.5
  1
!GENTITLE-LL
100
AcDbText
  0
TEXT
  5
DCBA
330
1F
100
AcDbEntity
  8
AM_6
 60
     1
100
AcDbText
 10
408.500000282035
 20
288.5000000504797
 30
0.0
 40
2.5
  1
!GENTITLE-RU
100
AcDbText
  0
TEXT
  5
DCBB
330
1F
100
AcDbEntity
  8
AM_6
 60
     1
100
AcDbText
 10
420.000000282035
 20
297.0000000504797
 30
0.0
 40
2.5
  1
!GENTITLE-MAX
100
AcDbText
  0
TEXT
  5
DCBC
330
1F
100
AcDbEntity
  8
AM_6
 60
     1
100
AcDbText
 10
408.500000282035
 20
8.500000050479741
 30
0.0
 40
2.5
  1
!GENTITLE-INSERT
100
AcDbText
  0
LINE
  5
DF66
330
1F
100
AcDbEntity
  8
size
100
AcDbLine
 10
0.0000002820350623
 20
210.0000000504798
 30
0.0
 11
297.000000282035
 21
210.0000000504798
 31
0.0
1001
GENIUS_GENREC_14
1002
{
1000
PYDIR
1011
0.0000002820350765
1021
297.0000000504797
1031
0.0
1002
}
1002
{
1000
PXDIR
1011
420.000000282035
1021
0.0000000504797413
1031
0.0
1002
}
1002
{
1000
PORI
1011
0.0000002820350623
1021
0.0000000504797413
1031
0.0
1002
}
1002
{
1000
PINS
1011
210.0000002820351
1021
148.5000000504797
1031
0.0
1002
}
1002
{
1000
HVAL
1000
297
1002
}
1002
{
1000
H
1070
     2
1002
}
1002
{
1000
WVAL
1000
420
1002
}
1002
{
1000
W
1070
     2
1002
}
1002
{
1000
C
1070
     4
1002
}
1001
GENIUS_GENOBJ-N-REC_13
1002
{
1000
OWNER
1000
GEN
1002
}
1001
GENIUS_GENODEF_13
1002
{
1000
HIER
1070
     0
1002
}
1002
{
1000
MANEDIT
1070
     0
1002
}
1002
{
1000
NOSEL
1070
     0
1002
}
1002
{
1000
BEHIND
1070
     0
1002
}
1002
{
1000
OTHER
1070
     0
1002
}
1002
{
1000
REACTOR
1002
}
  0
LINE
  5
DF67
330
1F
100
AcDbEntity
  8
size
100
AcDbLine
 10
297.000000282035
 20
210.0000000504798
 30
0.0
 11
297.000000282035
 21
0.0000000504797129
 31
0.0
1001
GENIUS_GENREC_14
1002
{
1000
PYDIR
1011
0.0000002820350765
1021
297.0000000504797
1031
0.0
1002
}
1002
{
1000
PXDIR
1011
420.000000282035
1021
0.0000000504797413
1031
0.0
1002
}
1002
{
1000
PORI
1011
0.0000002820350623
1021
0.0000000504797413
1031
0.0
1002
}
1002
{
1000
PINS
1011
210.0000002820351
1021
148.5000000504797
1031
0.0
1002
}
1002
{
1000
HVAL
1000
297
1002
}
1002
{
1000
H
1070
     2
1002
}
1002
{
1000
WVAL
1000
420
1002
}
1002
{
1000
W
1070
     2
1002
}
1002
{
1000
C
1070
     4
1002
}
1001
GENIUS_GENOBJ-N-REC_13
1002
{
1000
OWNER
1000
GEN
1002
}
1001
GENIUS_GENODEF_13
1002
{
1000
HIER
1070
     0
1002
}
1002
{
1000
MANEDIT
1070
     0
1002
}
1002
{
1000
NOSEL
1070
     0
1002
}
1002
{
1000
BEHIND
1070
     0
1002
}
1002
{
1000
OTHER
1070
     0
1002
}
1002
{
1000
REACTOR
1002
}
  0
LINE
  5
DF68
330
1F
100
AcDbEntity
  8
waku
100
AcDbLine
 10
11.50000028203506
 20
8.500000050479741
 30
0.0
 11
285.500000282035
 21
8.500000050479741
 31
0.0
1001
GENIUS_GENREC_14
1002
{
1000
PYDIR
1011
0.0000002820350765
1021
297.0000000504797
1031
0.0
1002
}
1002
{
1000
PXDIR
1011
420.000000282035
1021
0.0000000504797413
1031
0.0
1002
}
1002
{
1000
PORI
1011
0.0000002820350623
1021
0.0000000504797413
1031
0.0
1002
}
1002
{
1000
PINS
1011
210.0000002820351
1021
148.5000000504797
1031
0.0
1002
}
1002
{
1000
HVAL
1000
297
1002
}
1002
{
1000
H
1070
     2
1002
}
1002
{
1000
WVAL
1000
420
1002
}
1002
{
1000
W
1070
     2
1002
}
1002
{
1000
C
1070
     4
1002
}
  0
LINE
  5
DF69
330
1F
100
AcDbEntity
  8
waku
100
AcDbLine
 10
285.500000282035
 20
201.5000000504798
 30
0.0
 11
11.50000028203506
 21
201.5000000504798
 31
0.0
1001
GENIUS_GENREC_14
1002
{
1000
PYDIR
1011
-122.9999997179649
1021
210.0000000504798
1031
0.0
1002
}
1002
{
1000
PXDIR
1011
297.000000282035
1021
-86.99999994952026
1031
0.0
1002
}
1002
{
1000
PORI
1011
-122.9999997179649
1021
-86.99999994952026
1031
0.0
1002
}
1002
{
1000
PINS
1011
87.00000028203509
1021
61.50000005047971
1031
0.0
1002
}
1002
{
1000
HVAL
1000
297
1002
}
1002
{
1000
H
1070
     2
1002
}
1002
{
1000
WVAL
1000
420
1002
}
1002
{
1000
W
1070
     2
1002
}
1002
{
1000
C
1070
     4
1002
}
1001
GENIUS_GENOBJ-N-REC_13
1002
{
1000
OWNER
1000
GEN
1002
}
1001
GENIUS_GENODEF_13
1002
{
1000
HIER
1070
     0
1002
}
1002
{
1000
MANEDIT
1070
     0
1002
}
1002
{
1000
NOSEL
1070
     0
1002
}
1002
{
1000
BEHIND
1070
     0
1002
}
1002
{
1000
OTHER
1070
     0
1002
}
1002
{
1000
REACTOR
1002
}
  0
LINE
  5
DF6A
330
1F
100
AcDbEntity
  8
waku
100
AcDbLine
 10
11.50000028203508
 20
201.5000000504798
 30
0.0
 11
11.50000028203506
 21
8.500000050479741
 31
0.0
1001
GENIUS_GENREC_14
1002
{
1000
PYDIR
1011
0.0000002820350765
1021
297.0000000504797
1031
0.0
1002
}
1002
{
1000
PXDIR
1011
420.000000282035
1021
0.0000000504797413
1031
0.0
1002
}
1002
{
1000
PORI
1011
0.0000002820350623
1021
0.0000000504797413
1031
0.0
1002
}
1002
{
1000
PINS
1011
210.0000002820351
1021
148.5000000504797
1031
0.0
1002
}
1002
{
1000
HVAL
1000
297
1002
}
1002
{
1000
H
1070
     2
1002
}
1002
{
1000
WVAL
1000
420
1002
}
1002
{
1000
W
1070
     2
1002
}
1002
{
1000
C
1070
     4
1002
}
1001
GENIUS_GENOBJ-N-REC_13
1002
{
1000
OWNER
1000
GEN
1002
}
1001
GENIUS_GENODEF_13
1002
{
1000
HIER
1070
     0
1002
}
1002
{
1000
MANEDIT
1070
     0
1002
}
1002
{
1000
NOSEL
1070
     0
1002
}
1002
{
1000
BEHIND
1070
     0
1002
}
1002
{
1000
OTHER
1070
     0
1002
}
1002
{
1000
REACTOR
1002
}
  0
LINE
  5
DF6B
330
1F
100
AcDbEntity
  8
waku
100
AcDbLine
 10
285.500000282035
 20
8.500000050479741
 30
0.0
 11
285.500000282035
 21
201.5000000504798
 31
0.0
1001
GENIUS_GENREC_14
1002
{
1000
PYDIR
1011
-122.9999997179649
1021
216.0000000504798
1031
0.0
1002
}
1002
{
1000
PXDIR
1011
297.000000282035
1021
-80.99999994952026
1031
0.0
1002
}
1002
{
1000
PORI
1011
-122.9999997179649
1021
-80.99999994952026
1031
0.0
1002
}
1002
{
1000
PINS
1011
87.00000028203509
1021
67.50000005047971
1031
0.0
1002
}
1002
{
1000
HVAL
1000
297
1002
}
1002
{
1000
H
1070
     2
1002
}
1002
{
1000
WVAL
1000
420
1002
}
1002
{
1000
W
1070
     2
1002
}
1002
{
1000
C
1070
     4
1002
}
1001
GENIUS_GENOBJ-N-REC_13
1002
{
1000
OWNER
1000
GEN
1002
}
1001
GENIUS_GENODEF_13
1002
{
1000
HIER
1070
     0
1002
}
1002
{
1000
MANEDIT
1070
     0
1002
}
1002
{
1000
NOSEL
1070
     0
1002
}
1002
{
1000
BEHIND
1070
     0
1002
}
1002
{
1000
OTHER
1070
     0
1002
}
1002
{
1000
REACTOR
1002
}
  0
LINE
  5
DF6C
330
1F
100
AcDbEntity
  8
size
100
AcDbLine
 10
0.0000002820350836
 20
210.0000000504798
 30
0.0
 11
0.0000002820350623
 21
0.0000000504797413
 31
0.0
1001
GENIUS_GENREC_14
1002
{
1000
PYDIR
1011
0.0000002820350765
1021
297.0000000504797
1031
0.0
1002
}
1002
{
1000
PXDIR
1011
420.000000282035
1021
0.0000000504797413
1031
0.0
1002
}
1002
{
1000
PORI
1011
0.0000002820350623
1021
0.0000000504797413
1031
0.0
1002
}
1002
{
1000
PINS
1011
210.0000002820351
1021
148.5000000504797
1031
0.0
1002
}
1002
{
1000
HVAL
1000
297
1002
}
1002
{
1000
H
1070
     2
1002
}
1002
{
1000
WVAL
1000
420
1002
}
1002
{
1000
W
1070
     2
1002
}
1002
{
1000
C
1070
     4
1002
}
1001
GENIUS_GENOBJ-N-REC_13
1002
{
1000
OWNER
1000
GEN
1002
}
1001
GENIUS_GENODEF_13
1002
{
1000
HIER
1070
     0
1002
}
1002
{
1000
MANEDIT
1070
     0
1002
}
1002
{
1000
NOSEL
1070
     0
1002
}
1002
{
1000
BEHIND
1070
     0
1002
}
1002
{
1000
OTHER
1070
     0
1002
}
1002
{
1000
REACTOR
1002
}
  0
LINE
  5
DF6D
330
1F
100
AcDbEntity
  8
size
100
AcDbLine
 10
0.0000002820350623
 20
0.0000000504797413
 30
0.0
 11
297.000000282035
 21
0.0000000504797413
 31
0.0
1001
GENIUS_GENREC_14
1002
{
1000
PYDIR
1011
0.0000002820350765
1021
297.0000000504797
1031
0.0
1002
}
1002
{
1000
PXDIR
1011
420.000000282035
1021
0.0000000504797413
1031
0.0
1002
}
1002
{
1000
PORI
1011
0.0000002820350623
1021
0.0000000504797413
1031
0.0
1002
}
1002
{
1000
PINS
1011
210.0000002820351
1021
148.5000000504797
1031
0.0
1002
}
1002
{
1000
HVAL
1000
297
1002
}
1002
{
1000
H
1070
     2
1002
}
1002
{
1000
WVAL
1000
420
1002
}
1002
{
1000
W
1070
     2
1002
}
1002
{
1000
C
1070
     4
1002
}
1001
GENIUS_GENOBJ-N-REC_13
1002
{
1000
OWNER
1000
GEN
1002
}
1001
GENIUS_GENODEF_13
1002
{
1000
HIER
1070
     0
1002
}
1002
{
1000
MANEDIT
1070
     0
1002
}
1002
{
1000
NOSEL
1070
     0
1002
}
1002
{
1000
BEHIND
1070
     0
1002
}
1002
{
1000
OTHER
1070
     0
1002
}
1002
{
1000
REACTOR
1002
}
  0
MTEXT
  5
FF48
330
1F
100
AcDbEntity
  8
AM_6
100
AcDbMText
 10
215.5000002820352
 20
139.5000000504796
 30
0.0
 40
3.2
 41
69.9999999999999
 71
     4
 72
     5
  1
　・定格トルク：9N・m\P　・本図は左勝手を示す。（LR各1個で1セット）\P　・推奨取付ビス：M5バインド小ネジ（別途）\P　・※部ボルトは調整用ではありません。
 73
     1
 44
1.0
1001
ACAD
1000
MTEXTBEGIN
1070
    73
1070
     1
1070
    44
1040
1.0
1070
    74
1070
     0
1000
MTEXTEND
1000
ACAD_MTEXT_DEFINED_HEIGHT_BEGIN
1070
    46
1040
24.00000000000004
1000
ACAD_MTEXT_DEFINED_HEIGHT_END
  0
LINE
  5
12302
330
1F
100
AcDbEntity
  8
AM_0
100
AcDbLine
 10
127.6338462241169
 20
136.0132292453189
 30
0.0
 11
128.4577128000168
 21
136.1167327110189
 31
0.0
  0
SPLINE
  5
12303
330
1F
100
AcDbEntity
  8
AM_0
100
AcDbSpline
210
0.0
220
0.0
230
1.0
 70
     8
 71
     3
 72
     9
 73
     5
 74
     0
 42
0.0000000001
 43
0.0000000001
 40
0.0
 40
0.0
 40
0.0
 40
0.0
 40
0.2201508448258503
 40
1.0
 40
1.0
 40
1.0
 40
1.0
 10
91.80829753052954
 20
136.0530656371557
 30
0.0
 10
91.86874728734727
 20
136.0510001323325
 30
0.0
 10
92.14333063889233
 20
136.0416179070453
 30
0.0
 10
92.41790829414064
 20
136.032071516005
 30
0.0
 10
92.63203744661574
 20
136.0246267710173
 30
0.0
  0
LINE
  5
12304
330
1F
100
AcDbEntity
  8
AM_0
100
AcDbLine
 10
128.8821202225169
 20
151.1554502491189
 30
0.0
 11
128.8821202225169
 21
155.6996003334189
 31
0.0
  0
LINE
  5
12305
330
1F
100
AcDbEntity
  8
AM_0
100
AcDbLine
 10
91.38212059511685
 20
155.6996003334189
 30
0.0
 11
91.38212059511685
 21
151.1554502491189
 31
0.0
  0
LINE
  5
12306
330
1F
100
AcDbEntity
  8
AM_0
100
AcDbLine
 10
91.43886049161681
 20
148.4922271762189
 30
0.0
 11
91.43886049161681
 21
136.7813421954189
 31
0.0
  0
LINE
  5
12307
330
1F
100
AcDbEntity
  8
AM_0
100
AcDbLine
 10
128.8253803260168
 20
136.8857285548189
 30
0.0
 11
128.8253803260168
 21
148.4922271762189
 31
0.0
  0
ARC
  5
12308
330
1F
100
AcDbEntity
  8
AM_0
100
AcDbCircle
 10
91.58212069941685
 20
155.6996002312189
 30
0.0
 40
0.1999999999999909
100
AcDbArc
 50
94.99999999999976
 51
176.6808343239996
  0
ARC
  5
12309
330
1F
100
AcDbEntity
  8
AM_0
100
AcDbCircle
 10
128.6821206994169
 20
155.6996002312189
 30
0.0
 40
0.2000000000000014
100
AcDbArc
 50
2.410051586399301
 51
85.00000000000021
  0
LINE
  5
1230A
330
1F
100
AcDbEntity
  8
AM_0
100
AcDbLine
 10
91.43886049161681
 20
136.7563995142189
 30
0.0
 11
91.43886049161681
 21
136.4421014283189
 31
0.0
  0
LINE
  5
1230B
330
1F
100
AcDbEntity
  8
AM_0
100
AcDbLine
 10
128.8253803260168
 20
135.5211845208189
 30
0.0
 11
128.8253803260168
 21
136.8719254229189
 31
0.0
  0
LINE
  5
1230C
330
1F
100
AcDbEntity
  8
AM_0
100
AcDbLine
 10
54.63039581551685
 20
116.9712253455189
 30
0.0
 11
53.80652737691683
 21
116.8677218799189
 31
0.0
  0
SPLINE
  5
1230D
330
1F
100
AcDbEntity
  8
AM_0
100
AcDbSpline
210
0.0
220
0.0
230
1.0
 70
     8
 71
     3
 72
     9
 73
     5
 74
     0
 42
0.0000000001
 43
0.0000000001
 40
0.0
 40
0.0
 40
0.0
 40
0.0
 40
0.2201490968781872
 40
1.0
 40
1.0
 40
1.0
 40
1.0
 10
90.45594264638189
 20
116.9313889537298
 30
0.0
 10
90.39549351104579
 20
116.933454460919
 30
0.0
 10
90.1209108023575
 20
116.9428367714459
 30
0.0
 10
89.84633375292069
 20
116.9523831038902
 30
0.0
 10
89.63220459294085
 20
116.9598278198683
 30
0.0
  0
LINE
  5
1230E
330
1F
100
AcDbEntity
  8
AM_0
100
AcDbLine
 10
53.38211995431684
 20
101.8290043417189
 30
0.0
 11
53.38211995431684
 21
97.28485425751891
 31
0.0
  0
LINE
  5
1230F
330
1F
100
AcDbEntity
  8
AM_0
100
AcDbLine
 10
90.88212144441689
 20
97.28485425751891
 30
0.0
 11
90.88212144441689
 21
101.8290043417189
 31
0.0
  0
LINE
  5
12310
330
1F
100
AcDbEntity
  8
AM_0
100
AcDbLine
 10
90.82538154791683
 20
104.4922274146189
 30
0.0
 11
90.82538154791683
 21
116.2031123955189
 31
0.0
  0
LINE
  5
12311
330
1F
100
AcDbEntity
  8
AM_0
100
AcDbLine
 10
53.43885985091684
 20
116.0987260360189
 30
0.0
 11
53.43885985091684
 21
104.4922274146189
 31
0.0
  0
ARC
  5
12312
330
1F
100
AcDbEntity
  8
AM_0
100
AcDbCircle
 10
53.58212069941685
 20
97.28485435961889
 30
0.0
 40
0.1999999999999897
100
AcDbArc
 50
182.4100515863993
 51
265.0000000000002
  0
ARC
  5
12313
330
1F
100
AcDbEntity
  8
AM_0
100
AcDbCircle
 10
90.68212069941687
 20
97.28485435961889
 30
0.0
 40
0.200000000000018
100
AcDbArc
 50
274.9999999999998
 51
356.6808343239996
  0
LINE
  5
12314
330
1F
100
AcDbEntity
  8
AM_0
100
AcDbLine
 10
90.82538154791683
 20
116.2280550767189
 30
0.0
 11
90.82538154791683
 21
116.5423531626189
 31
0.0
  0
LINE
  5
12315
330
1F
100
AcDbEntity
  8
AM_0
100
AcDbLine
 10
53.43885985091684
 20
117.4632700700189
 30
0.0
 11
53.43885985091684
 21
116.1125291679189
 31
0.0
  0
LINE
  5
12316
330
1F
100
AcDbEntity
  8
AM_0
100
AcDbLine
 10
54.63212062491685
 20
136.7922274936189
 30
0.0
 11
54.00715847381682
 21
136.7375504766189
 31
0.0
  0
ARC
  5
12317
330
1F
100
AcDbEntity
  8
AM_0
100
AcDbCircle
 10
54.02458976151688
 20
136.5383112581189
 30
0.0
 40
0.2000000000000065
100
AcDbArc
 50
94.99999999999976
 51
159.286740771899
  0
ARC
  5
12318
330
1F
100
AcDbEntity
  8
AM_0
100
AcDbCircle
 10
106.6854819384168
 20
136.3589642061189
 30
0.0
 40
56.50000000000002
100
AcDbArc
 50
196.2184941307999
 51
200.2893126039987
  0
ARC
  5
12319
330
1F
100
AcDbEntity
  8
AM_0
100
AcDbCircle
 10
106.6854819384168
 20
116.6254903848189
 30
0.0
 40
56.50000000000003
100
AcDbArc
 50
159.286740771899
 51
163.7815058692
  0
ARC
  5
1231A
330
1F
100
AcDbEntity
  8
AM_0
100
AcDbCircle
 10
52.62602027561682
 20
132.3501399745189
 30
0.0
 40
0.1999999999999923
100
AcDbArc
 50
163.7815058692
 51
180.0
  0
ARC
  5
1231B
330
1F
100
AcDbEntity
  8
AM_0
100
AcDbCircle
 10
52.62602027561682
 20
120.6343146163189
 30
0.0
 40
0.2000000000000002
100
AcDbArc
 50
180.0
 51
196.2184941307999
  0
LINE
  5
1231C
330
1F
100
AcDbEntity
  8
AM_0
100
AcDbLine
 10
52.42602047391686
 20
132.3501401190189
 30
0.0
 11
52.42602047391686
 21
120.6343144719189
 31
0.0
  0
LINE
  5
1231D
330
1F
100
AcDbEntity
  8
AM_0
100
AcDbLine
 10
127.6321214146168
 20
116.1922270972189
 30
0.0
 11
128.2570835657169
 21
116.2469041143189
 31
0.0
  0
ARC
  5
1231E
330
1F
100
AcDbEntity
  8
AM_0
100
AcDbCircle
 10
128.2396516372168
 20
116.4461433327189
 30
0.0
 40
0.1999999999999999
100
AcDbArc
 50
274.9999999999998
 51
339.2867407718989
  0
ARC
  5
1231F
330
1F
100
AcDbEntity
  8
AM_0
100
AcDbCircle
 10
75.57875946031685
 20
116.6254903848189
 30
0.0
 40
56.50000000000003
100
AcDbArc
 50
16.21849413079995
 51
20.28931260399875
  0
ARC
  5
12320
330
1F
100
AcDbEntity
  8
AM_0
100
AcDbCircle
 10
75.57875946031685
 20
136.3589642061189
 30
0.0
 40
56.50000000000002
100
AcDbArc
 50
339.2867407718989
 51
343.7815058692001
  0
ARC
  5
12321
330
1F
100
AcDbEntity
  8
AM_0
100
AcDbCircle
 10
129.6382211232168
 20
120.6343146163189
 30
0.0
 40
0.2000000000000028
100
AcDbArc
 50
343.7815058692001
 51
0.0
  0
ARC
  5
12322
330
1F
100
AcDbEntity
  8
AM_0
100
AcDbCircle
 10
129.6382211232168
 20
132.3501399745189
 30
0.0
 40
0.1999999999999923
100
AcDbArc
 50
0.0
 51
16.21849413079995
  0
LINE
  5
12323
330
1F
100
AcDbEntity
  8
AM_0
100
AcDbLine
 10
129.8382197029169
 20
120.6343144719189
 30
0.0
 11
129.8382197029169
 21
132.3501401190189
 31
0.0
  0
LINE
  5
12324
330
1F
100
AcDbEntity
  8
AM_0
100
AcDbLine
 10
89.63212077391686
 20
136.9922271539189
 30
0.0
 11
54.63212062491685
 21
136.9922271539189
 31
0.0
  0
LINE
  5
12325
330
1F
100
AcDbEntity
  8
AM_0
100
AcDbLine
 10
92.63212126561681
 20
115.9922274370189
 30
0.0
 11
127.6321214146168
 21
115.9922274370189
 31
0.0
  0
CIRCLE
  5
12327
330
1F
100
AcDbEntity
  8
AM_0
100
AcDbCircle
 10
72.13212069941686
 20
110.4922272954189
 30
0.0
 40
4.750000000000011
  0
ARC
  5
12328
330
1F
100
AcDbEntity
  8
AM_2
100
AcDbCircle
 10
73.81493817261683
 20
109.7237057591189
 30
0.0
 40
0.4000000000000137
100
AcDbArc
 50
275.4544173581
 51
35.45441735809875
  0
ARC
  5
12329
330
1F
100
AcDbEntity
  8
AM_2
100
AcDbCircle
 10
71.30466875351685
 20
108.6803709884189
 30
0.0
 40
0.4000000000000137
100
AcDbArc
 50
35.45441735809875
 51
95.4544173581001
  0
ARC
  5
1232A
330
1F
100
AcDbEntity
  8
AM_2
100
AcDbCircle
 10
70.97673308241683
 20
112.1147498544189
 30
0.0
 40
0.3999999999999982
100
AcDbArc
 50
275.4544173581
 51
335.4544173581001
  0
LINE
  5
1232B
330
1F
100
AcDbEntity
  8
AM_2
100
AcDbLine
 10
72.63374174831686
 20
112.0720616151189
 30
0.0
 11
72.28210203641684
 21
112.5658730585189
 31
0.0
  0
ARC
  5
1232C
330
1F
100
AcDbEntity
  8
AM_2
100
AcDbCircle
 10
71.95627113661685
 20
112.3338507453189
 30
0.0
 40
0.3999999999999933
100
AcDbArc
 50
35.45441735809875
 51
155.4544173581001
  0
ARC
  5
1232D
330
1F
100
AcDbEntity
  8
AM_2
100
AcDbCircle
 10
70.14928113661686
 20
110.3028935474189
 30
0.0
 40
0.4000000000000036
100
AcDbArc
 50
335.4544173581001
 51
35.45441735809875
  0
ARC
  5
1232E
330
1F
100
AcDbEntity
  8
AM_2
100
AcDbCircle
 10
73.28750831641683
 20
108.8697047364189
 30
0.0
 40
0.3999999999999982
100
AcDbArc
 50
95.4544173581001
 51
155.4544173581001
  0
ARC
  5
1232F
330
1F
100
AcDbEntity
  8
AM_2
100
AcDbCircle
 10
70.62515278901684
 20
109.4191253819189
 30
0.0
 40
0.4000000000000125
100
AcDbArc
 50
155.4544173581001
 51
275.4544173581
  0
LINE
  5
12330
330
1F
100
AcDbEntity
  8
AM_2
100
AcDbLine
 10
73.24948683261685
 20
109.2678931151189
 30
0.0
 11
73.85295964661684
 21
109.3255177681189
 31
0.0
  0
LINE
  5
12331
330
1F
100
AcDbEntity
  8
AM_2
100
AcDbLine
 10
72.67182271351685
 20
108.4844366256189
 30
0.0
 11
72.92365588831687
 21
109.0358708594189
 31
0.0
  0
LINE
  5
12332
330
1F
100
AcDbEntity
  8
AM_2
100
AcDbLine
 10
73.75110788151686
 20
110.8477272634189
 30
0.0
 11
74.00294099821683
 21
111.3991624285189
 31
0.0
  0
LINE
  5
12333
330
1F
100
AcDbEntity
  8
AM_2
100
AcDbLine
 10
74.14076905581684
 20
109.9557269905189
 30
0.0
 11
73.78912935851683
 21
110.4495384339189
 31
0.0
  0
LINE
  5
12334
330
1F
100
AcDbEntity
  8
AM_2
100
AcDbLine
 10
70.12347234301687
 20
111.0287270118189
 30
0.0
 11
70.47511204031683
 21
110.5349164996189
 31
0.0
  0
LINE
  5
12335
330
1F
100
AcDbEntity
  8
AM_2
100
AcDbLine
 10
71.63049965051685
 20
108.9123923872189
 30
0.0
 11
71.98213936241682
 21
108.4185809437189
 31
0.0
  0
ARC
  5
12336
330
1F
100
AcDbEntity
  8
AM_2
100
AcDbCircle
 10
72.95957264521682
 20
112.3040836025189
 30
0.0
 40
0.4000000000000137
100
AcDbArc
 50
215.4544173580987
 51
275.4544173581
  0
ARC
  5
12337
330
1F
100
AcDbEntity
  8
AM_2
100
AcDbCircle
 10
70.44930322621683
 20
111.2607488318189
 30
0.0
 40
0.400000000000042
100
AcDbArc
 50
95.4544173581001
 51
215.4544173580987
  0
LINE
  5
12338
330
1F
100
AcDbEntity
  8
AM_2
100
AcDbLine
 10
70.66317435701687
 20
109.0209361706189
 30
0.0
 11
71.26664722921685
 21
109.0785589609189
 31
0.0
  0
ARC
  5
12339
330
1F
100
AcDbEntity
  8
AM_2
100
AcDbCircle
 10
72.30797026221686
 20
108.6506038455189
 30
0.0
 40
0.3999999999999853
100
AcDbArc
 50
215.4544173580987
 51
335.4544173581001
  0
LINE
  5
1233A
330
1F
100
AcDbEntity
  8
AM_2
100
AcDbLine
 10
70.51313351721687
 20
110.1367258076189
 30
0.0
 11
70.26130040061683
 21
109.5852915738189
 31
0.0
  0
LINE
  5
1233B
330
1F
100
AcDbEntity
  8
AM_2
100
AcDbLine
 10
71.01475456611687
 20
111.7165608872189
 30
0.0
 11
70.41128175221682
 21
111.6589380968189
 31
0.0
  0
ARC
  5
1233C
330
1F
100
AcDbEntity
  8
AM_2
100
AcDbCircle
 10
74.11496026221685
 20
110.6815610434189
 30
0.0
 40
0.4000000000000049
100
AcDbArc
 50
155.4544173581001
 51
215.4544173580987
  0
ARC
  5
1233D
330
1F
100
AcDbEntity
  8
AM_2
100
AcDbCircle
 10
73.63908860981682
 20
111.5653292090189
 30
0.0
 40
0.40000000000001
100
AcDbArc
 50
335.4544173581001
 51
95.4544173581001
  0
LINE
  5
1233E
330
1F
100
AcDbEntity
  8
AM_2
100
AcDbLine
 10
73.60106704171686
 20
111.9635178316189
 30
0.0
 11
72.99759416961688
 21
111.9058950413189
 31
0.0
  0
LINE
  5
1233F
330
1F
100
AcDbEntity
  8
AM_2
100
AcDbLine
 10
71.59241868531687
 20
112.5000173766189
 30
0.0
 11
71.34058551051684
 21
111.9485831428189
 31
0.0
  0
ARC
  5
12341
330
1F
100
AcDbEntity
  8
AM_2
100
AcDbCircle
 10
108.4493032262168
 20
143.2607488318189
 30
0.0
 40
0.4000000000000049
100
AcDbArc
 50
95.4544173581001
 51
215.4544173580987
  0
LINE
  5
12342
330
1F
100
AcDbEntity
  8
AM_2
100
AcDbLine
 10
108.1234727509168
 20
143.0287276004189
 30
0.0
 11
108.4751103527168
 21
142.5349161569189
 31
0.0
  0
ARC
  5
12343
330
1F
100
AcDbEntity
  8
AM_2
100
AcDbCircle
 10
108.1492811366168
 20
142.3028935474189
 30
0.0
 40
0.40000000000001
100
AcDbArc
 50
335.4544173581001
 51
35.45441735809875
  0
LINE
  5
12344
330
1F
100
AcDbEntity
  8
AM_2
100
AcDbLine
 10
108.5131343908169
 20
142.1367273275189
 30
0.0
 11
108.2613010413169
 21
141.5852921624189
 31
0.0
  0
ARC
  5
12345
330
1F
100
AcDbEntity
  8
AM_2
100
AcDbCircle
 10
108.6251527890169
 20
141.4191253819189
 30
0.0
 40
0.3999999999999982
100
AcDbArc
 50
155.4544173581001
 51
275.4544173581
  0
LINE
  5
12346
330
1F
100
AcDbEntity
  8
AM_2
100
AcDbLine
 10
108.6631741829168
 20
141.0209367592189
 30
0.0
 11
109.2666488595168
 21
141.0785595495189
 31
0.0
  0
ARC
  5
12347
330
1F
100
AcDbEntity
  8
AM_2
100
AcDbCircle
 10
109.3046687535168
 20
140.6803709884189
 30
0.0
 40
0.4000000000000049
100
AcDbArc
 50
35.45441735809875
 51
95.4544173581001
  0
LINE
  5
12348
330
1F
100
AcDbEntity
  8
AM_2
100
AcDbLine
 10
109.6304979629168
 20
140.9123929758188
 30
0.0
 11
109.9821392901169
 21
140.4185815323189
 31
0.0
  0
ARC
  5
12349
330
1F
100
AcDbEntity
  8
AM_2
100
AcDbCircle
 10
110.3079702622169
 20
140.6506038455189
 30
0.0
 40
0.3999999999999933
100
AcDbArc
 50
215.4544173580987
 51
335.4544173581001
  0
LINE
  5
1234A
330
1F
100
AcDbEntity
  8
AM_2
100
AcDbLine
 10
110.6718209095168
 20
140.4844372142189
 30
0.0
 11
110.9236542589169
 21
141.0358714480189
 31
0.0
  0
ARC
  5
1234B
330
1F
100
AcDbEntity
  8
AM_2
100
AcDbCircle
 10
111.2875083164169
 20
140.8697047364189
 30
0.0
 40
0.4000000000000125
100
AcDbArc
 50
95.4544173581001
 51
155.4544173581001
  0
LINE
  5
1234C
330
1F
100
AcDbEntity
  8
AM_2
100
AcDbLine
 10
111.2494867749168
 20
141.2678937037189
 30
0.0
 11
111.8529614515168
 21
141.3255164940189
 31
0.0
  0
ARC
  5
1234D
330
1F
100
AcDbEntity
  8
AM_2
100
AcDbCircle
 10
111.8149381726169
 20
141.7237057591189
 30
0.0
 40
0.4000000000000125
100
AcDbArc
 50
275.4544173581
 51
35.45441735809875
  0
LINE
  5
1234E
330
1F
100
AcDbEntity
  8
AM_2
100
AcDbLine
 10
112.1407699294168
 20
141.9557275791189
 30
0.0
 11
111.7891286022168
 21
142.4495380912189
 31
0.0
  0
ARC
  5
1234F
330
1F
100
AcDbEntity
  8
AM_2
100
AcDbCircle
 10
112.1149602622169
 20
142.6815610434189
 30
0.0
 40
0.4000000000000098
100
AcDbArc
 50
155.4544173581001
 51
215.4544173580987
  0
LINE
  5
12350
330
1F
100
AcDbEntity
  8
AM_2
100
AcDbLine
 10
111.7511082895168
 20
142.8477287833189
 30
0.0
 11
112.0029416389168
 21
143.3991630171189
 31
0.0
  0
ARC
  5
12351
330
1F
100
AcDbEntity
  8
AM_2
100
AcDbCircle
 10
111.6390886098168
 20
143.5653292090189
 30
0.0
 40
0.40000000000001
100
AcDbArc
 50
335.4544173581001
 51
95.4544173581001
  0
LINE
  5
12352
330
1F
100
AcDbEntity
  8
AM_2
100
AcDbLine
 10
111.6010684974168
 20
143.9635184202189
 30
0.0
 11
110.9975938208169
 21
143.9058956299189
 31
0.0
  0
ARC
  5
12353
330
1F
100
AcDbEntity
  8
AM_2
100
AcDbCircle
 10
110.9595726452168
 20
144.3040836025189
 30
0.0
 40
0.4000000000000137
100
AcDbArc
 50
215.4544173580987
 51
275.4544173581
  0
LINE
  5
12354
330
1F
100
AcDbEntity
  8
AM_2
100
AcDbLine
 10
110.6337409921168
 20
144.0720622037189
 30
0.0
 11
110.2821033902168
 21
144.5658736471189
 31
0.0
  0
LINE
  5
12355
330
1F
100
AcDbEntity
  8
AM_2
100
AcDbLine
 10
109.5924180455169
 20
144.5000179652189
 30
0.0
 11
109.3405846960168
 21
143.9485837314189
 31
0.0
  0
ARC
  5
12356
330
1F
100
AcDbEntity
  8
AM_2
100
AcDbCircle
 10
108.9767330824168
 20
144.1147498544189
 30
0.0
 40
0.4000000000000137
100
AcDbArc
 50
275.4544173581
 51
335.4544173581001
  0
LINE
  5
12357
330
1F
100
AcDbEntity
  8
AM_2
100
AcDbLine
 10
109.0147559054168
 20
143.7165614758189
 30
0.0
 11
108.4112812288169
 21
143.6589368228189
 31
0.0
  0
ARC
  5
12358
330
1F
100
AcDbEntity
  8
AM_2
100
AcDbCircle
 10
109.9562711366168
 20
144.3338507453189
 30
0.0
 40
0.3999999999999853
100
AcDbArc
 50
35.45441735809875
 51
155.4544173581001
  0
CIRCLE
  5
12359
330
1F
100
AcDbEntity
  8
AM_0
100
AcDbCircle
 10
110.1321206994168
 20
142.4922272954189
 30
0.0
 40
4.750000000000004
  0
SPLINE
  5
1235B
330
1F
100
AcDbEntity
  8
AM_0
100
AcDbSpline
210
0.0
220
0.0
230
1.0
 70
     8
 71
     3
 72
    11
 73
     7
 74
     0
 42
0.0000000001
 43
0.0000000001
 40
0.0
 40
0.0
 40
0.0
 40
0.0
 40
0.1499678384408385
 40
0.440893115719017
 40
0.7388641164581609
 40
1.0
 40
1.0
 40
1.0
 40
1.0
 10
128.4119103558041
 20
136.2564953584516
 30
0.0
 10
128.4147329403426
 20
136.2386774616708
 30
0.0
 10
128.4230311068334
 20
136.1862943099971
 30
0.0
 10
128.4396869156338
 20
136.1338040480361
 30
0.0
 10
128.4598494921279
 20
136.1202049063939
 30
0.0
 10
128.4720214234102
 20
136.1510787283013
 30
0.0
 10
128.4777064330555
 20
136.1654986236536
 30
0.0
  0
SPLINE
  5
1235C
330
1F
100
AcDbEntity
  8
AM_0
100
AcDbSpline
210
0.0
220
0.0
230
1.0
 70
     8
 71
     3
 72
    11
 73
     7
 74
     0
 42
0.0000000001
 43
0.0000000001
 40
0.0
 40
0.0
 40
0.0
 40
0.0
 40
0.3070943461311489
 40
0.6142030499482094
 40
0.9203133998513232
 40
1.0
 40
1.0
 40
1.0
 40
1.0
 10
91.78586196970705
 20
136.0882975701535
 30
0.0
 10
91.79269757620145
 20
136.0724662925773
 30
0.0
 10
91.80636910877773
 20
136.04080299726
 30
0.0
 10
91.82843393726397
 20
136.0684457572991
 30
0.0
 10
91.84369975107095
 20
136.12880482094
 30
0.0
 10
91.85085450551836
 20
136.1768415050081
 30
0.0
 10
91.85233232450251
 20
136.1867635119998
 30
0.0
  0
SPLINE
  5
12360
330
1F
100
AcDbEntity
  8
AM_0
100
AcDbSpline
210
0.0
220
0.0
230
1.0
 70
     8
 71
     3
 72
    11
 73
     7
 74
     0
 42
0.0000000001
 43
0.0000000001
 40
0.0
 40
0.0
 40
0.0
 40
0.0
 40
0.1632063633892102
 40
0.450394711721004
 40
0.7237242073169422
 40
1.0
 40
1.0
 40
1.0
 40
1.0
 10
128.7998360104538
 20
136.8803771753156
 30
0.0
 10
128.7890348852756
 20
136.8812723690356
 30
0.0
 10
128.7592274098818
 20
136.8837428028415
 30
0.0
 10
128.6881361828134
 20
136.7575283149483
 30
0.0
 10
128.5920963289937
 20
136.5279031275137
 30
0.0
 10
128.5159724254649
 20
136.2867310793714
 30
0.0
 10
128.4777064330555
 20
136.1654986236536
 30
0.0
  0
SPLINE
  5
12361
330
1F
100
AcDbEntity
  8
AM_0
100
AcDbSpline
210
0.0
220
0.0
230
1.0
 70
     8
 71
     3
 72
    12
 73
     8
 74
     0
 42
0.0000000001
 43
0.0000000001
 40
0.0
 40
0.0
 40
0.0
 40
0.0
 40
0.2274130720289644
 40
0.4552129015533188
 40
0.6814720934983677
 40
0.8936814587917092
 40
1.0
 40
1.0
 40
1.0
 40
1.0
 10
128.8251791603541
 20
148.4922271762335
 30
0.0
 10
128.8265315324577
 20
148.8035593434114
 30
0.0
 10
128.8292385766208
 20
149.4267531550226
 30
0.0
 10
128.8485068301602
 20
150.2645904188814
 30
0.0
 10
128.8687206592917
 20
150.869129552989
 30
0.0
 10
128.8816071692046
 20
151.1784764426947
 30
0.0
 10
128.8808857901728
 20
151.1612125929589
 30
0.0
 10
128.8806450076079
 20
151.15545024912
 30
0.0
  0
SPLINE
  5
12362
330
1F
100
AcDbEntity
  8
AM_0
100
AcDbSpline
210
0.0
220
0.0
230
1.0
 70
     8
 71
     3
 72
    10
 73
     6
 74
     0
 42
0.0000000001
 43
0.0000000001
 40
0.0
 40
0.0
 40
0.0
 40
0.0
 40
0.3338959946099251
 40
0.6731214385354426
 40
1.0
 40
1.0
 40
1.0
 40
1.0
 10
91.78586196970705
 20
136.0882975701535
 30
0.0
 10
91.74026418655811
 20
136.2274040242461
 30
0.0
 10
91.64834081556033
 20
136.5078372669321
 30
0.0
 10
91.53643355125284
 20
136.7535228092407
 30
0.0
 10
91.48980515187922
 20
136.7605516780671
 30
0.0
 10
91.46692310344938
 20
136.7640009690368
 30
0.0
  0
SPLINE
  5
12363
330
1F
100
AcDbEntity
  8
AM_0
100
AcDbSpline
210
0.0
220
0.0
230
1.0
 70
     8
 71
     3
 72
    13
 73
     9
 74
     0
 42
0.0000000001
 43
0.0000000001
 40
0.0
 40
0.0
 40
0.0
 40
0.0
 40
0.09356130176403
 40
0.2883758407053342
 40
0.4865321852434893
 40
0.694525714052304
 40
0.9153845664450283
 40
1.0
 40
1.0
 40
1.0
 40
1.0
 10
91.38359581005339
 20
151.15545024912
 30
0.0
 10
91.38328206450914
 20
151.1629852470478
 30
0.0
 10
91.38231503398058
 20
151.1862097140142
 30
0.0
 10
91.39296329264082
 20
150.9306714256845
 30
0.0
 10
91.41053353197143
 20
150.4340808956229
 30
0.0
 10
91.4290987153759
 20
149.7110187200233
 30
0.0
 10
91.43818043873288
 20
149.0249458714612
 30
0.0
 10
91.43887050976347
 20
148.6077806530516
 30
0.0
 10
91.43906165730719
 20
148.4922271762335
 30
0.0
  0
LINE
  5
12364
330
1F
100
AcDbEntity
  8
AM_0
100
AcDbLine
 10
128.8159218139169
 20
136.8820936028189
 30
0.0
 11
128.8251791603168
 21
136.8862528894189
 31
0.0
  0
LINE
  5
12365
330
1F
100
AcDbEntity
  8
AM_0
100
AcDbLine
 10
91.43906165731685
 20
136.7817687411189
 30
0.0
 11
91.44831900371682
 21
136.7783861775189
 31
0.0
  0
LINE
  5
12366
330
1F
100
AcDbEntity
  8
AM_0
100
AcDbLine
 10
91.60528038511682
 20
155.9023902360189
 30
0.0
 11
92.63212126561681
 21
155.9922274742189
 31
0.0
  0
LINE
  5
12367
330
1F
100
AcDbEntity
  8
AM_0
100
AcDbLine
 10
127.6321214146168
 20
155.9922274742189
 30
0.0
 11
128.6589604325168
 21
155.9023902360189
 31
0.0
  0
LINE
  5
12368
330
1F
100
AcDbEntity
  8
AM_0
100
AcDbLine
 10
91.43906165731685
 20
148.4922271762189
 30
0.0
 11
91.43886049161681
 21
148.4922271762189
 31
0.0
  0
LINE
  5
12369
330
1F
100
AcDbEntity
  8
AM_0
100
AcDbLine
 10
128.8251791603168
 20
148.4922271762189
 30
0.0
 11
128.8253803260168
 21
148.4922271762189
 31
0.0
  0
LWPOLYLINE
  5
1236A
330
1F
100
AcDbEntity
  8
AM_0
100
AcDbPolyline
 90
        3
 70
   128
 43
0.0
 10
91.56468962201687
 20
155.8988400344189
 10
91.56733271551683
 20
155.8990710024189
 10
91.60528038511682
 20
155.9023902360189
  0
LWPOLYLINE
  5
1236B
330
1F
100
AcDbEntity
  8
AM_0
100
AcDbPolyline
 90
        3
 70
   128
 43
0.0
 10
128.6589604325168
 20
155.9023902360189
 10
128.6969099648168
 20
155.8990710024189
 10
128.6995511956168
 20
155.8988400344189
  0
SPLINE
  5
1236D
330
1F
100
AcDbEntity
  8
AM_0
100
AcDbSpline
210
0.0
220
0.0
230
1.0
 70
     8
 71
     3
 72
    10
 73
     6
 74
     0
 42
0.0000000001
 43
0.0000000001
 40
0.0
 40
0.0
 40
0.0
 40
0.0
 40
0.5
 40
0.5
 40
1.0
 40
1.0
 40
1.0
 40
1.0
 10
53.85233167677352
 20
116.7279591297174
 30
0.0
 10
53.84334407959504
 20
116.7908299779005
 30
0.0
 10
53.83202087068723
 20
116.8332710658788
 30
0.0
 10
53.80886814089198
 20
116.8644576889743
 30
0.0
 10
53.79710593249972
 20
116.8540012554655
 30
0.0
 10
53.78653328080172
 20
116.8189557370576
 30
0.0
  0
SPLINE
  5
1236E
330
1F
100
AcDbEntity
  8
AM_0
100
AcDbSpline
210
0.0
220
0.0
230
1.0
 70
     8
 71
     3
 72
    10
 73
     6
 74
     0
 42
0.0000000001
 43
0.0000000001
 40
0.0
 40
0.0
 40
0.0
 40
0.0
 40
0.5
 40
0.5
 40
1.0
 40
1.0
 40
1.0
 40
1.0
 10
90.47837968613787
 20
116.8961567486253
 30
0.0
 10
90.46763905648667
 20
116.9310069280888
 30
0.0
 10
90.4556948979337
 20
116.9400241730754
 30
0.0
 10
90.43240537579622
 20
116.906009655543
 30
0.0
 10
90.420980364709
 20
116.8620677678102
 30
0.0
 10
90.41190972203462
 20
116.7976911251837
 30
0.0
  0
SPLINE
  5
12372
330
1F
100
AcDbEntity
  8
AM_0
100
AcDbSpline
210
0.0
220
0.0
230
1.0
 70
     8
 71
     3
 72
    11
 73
     7
 74
     0
 42
0.0000000001
 43
0.0000000001
 40
0.0
 40
0.0
 40
0.0
 40
0.0
 40
0.1632063716536536
 40
0.4503947345280901
 40
0.7237242439648867
 40
1.0
 40
1.0
 40
1.0
 40
1.0
 10
53.46440602910284
 20
116.10407741557
 30
0.0
 10
53.47520715915912
 20
116.1031822216623
 30
0.0
 10
53.50501464801515
 20
116.1007117873384
 30
0.0
 10
53.57610571762466
 20
116.226926281291
 30
0.0
 10
53.67214619187108
 20
116.4565514307308
 30
0.0
 10
53.7482685378727
 20
116.697723507949
 30
0.0
 10
53.78653374385599
 20
116.818955967232
 30
0.0
  0
SPLINE
  5
12373
330
1F
100
AcDbEntity
  8
AM_0
100
AcDbSpline
210
0.0
220
0.0
230
1.0
 70
     8
 71
     3
 72
    12
 73
     8
 74
     0
 42
0.0000000001
 43
0.0000000001
 40
0.0
 40
0.0
 40
0.0
 40
0.0
 40
0.2274130694900498
 40
0.455212899701809
 40
0.6814720923296137
 40
0.8936814582633145
 40
1.0
 40
1.0
 40
1.0
 40
1.0
 10
53.43906101655726
 20
104.4922274146521
 30
0.0
 10
53.43770942265233
 20
104.180895246421
 30
0.0
 10
53.43500393619085
 20
103.5577014282787
 30
0.0
 10
53.41573518340583
 20
102.7198641729747
 30
0.0
 10
53.39552102417876
 20
102.1153250376358
 30
0.0
 10
53.38263593836062
 20
101.8059781481437
 30
0.0
 10
53.3833551201394
 20
101.8232419979093
 30
0.0
 10
53.38359516930346
 20
101.8290043417656
 30
0.0
  0
SPLINE
  5
12374
330
1F
100
AcDbEntity
  8
AM_0
100
AcDbSpline
210
0.0
220
0.0
230
1.0
 70
     8
 71
     3
 72
    10
 73
     6
 74
     0
 42
0.0000000001
 43
0.0000000001
 40
0.0
 40
0.0
 40
0.0
 40
0.0
 40
0.3338959986662792
 40
0.673121405456044
 40
1.0
 40
1.0
 40
1.0
 40
1.0
 10
90.47838006984953
 20
116.8961570207321
 30
0.0
 10
90.52397809752134
 20
116.7570505689996
 30
0.0
 10
90.61590195583374
 20
116.4766173482594
 30
0.0
 10
90.72780552356316
 20
116.23093176278
 30
0.0
 10
90.77443591007163
 20
116.2239029068567
 30
0.0
 10
90.7973189361072
 20
116.2204536218488
 30
0.0
  0
SPLINE
  5
12375
330
1F
100
AcDbEntity
  8
AM_0
100
AcDbSpline
210
0.0
220
0.0
230
1.0
 70
     8
 71
     3
 72
    13
 73
     9
 74
     0
 42
0.0000000001
 43
0.0000000001
 40
0.0
 40
0.0
 40
0.0
 40
0.0
 40
0.0935613017501123
 40
0.2883758406624369
 40
0.4865321945171167
 40
0.6945257140977446
 40
0.9153845664576152
 40
1.0
 40
1.0
 40
1.0
 40
1.0
 10
90.88064622950319
 20
101.8290043417656
 30
0.0
 10
90.88095995317859
 20
101.8214693435171
 30
0.0
 10
90.88192691630251
 20
101.798244875562
 30
0.0
 10
90.871279595257
 20
102.0537831825559
 30
0.0
 10
90.85370527419932
 20
102.5503736571769
 30
0.0
 10
90.83514429234167
 20
103.2734358974506
 30
0.0
 10
90.82606151972207
 20
103.9595087182267
 30
0.0
 10
90.82537151220115
 20
104.3766739375742
 30
0.0
 10
90.82518038224939
 20
104.4922274146521
 30
0.0
  0
SPLINE
  5
12376
330
1F
100
AcDbEntity
  8
AM_0
100
AcDbSpline
210
0.0
220
0.0
230
1.0
 70
     8
 71
     3
 72
     8
 73
     4
 74
     0
 42
0.0000000001
 43
0.0000000001
 40
0.0
 40
0.0
 40
0.0
 40
0.0
 40
1.0
 40
1.0
 40
1.0
 40
1.0
 10
53.44831867751939
 20
116.1023612502111
 30
0.0
 10
53.4410854352394
 20
116.1005625465827
 30
0.0
 10
53.43799113816873
 20
116.0991715506498
 30
0.0
 10
53.43906171727489
 20
116.0982015108317
 30
0.0
  0
SPLINE
  5
12377
330
1F
100
AcDbEntity
  8
AM_0
100
AcDbSpline
210
0.0
220
0.0
230
1.0
 70
     8
 71
     3
 72
     8
 73
     4
 74
     0
 42
0.0000000001
 43
0.0000000001
 40
0.0
 40
0.0
 40
0.0
 40
0.0
 40
1.0
 40
1.0
 40
1.0
 40
1.0
 10
90.82517968153181
 20
116.2026856725829
 30
0.0
 10
90.82624925629202
 20
116.2037592633371
 30
0.0
 10
90.82316273817745
 20
116.204890590262
 30
0.0
 10
90.81592272128721
 20
116.20606848093
 30
0.0
  0
LINE
  5
12378
330
1F
100
AcDbEntity
  8
AM_0
100
AcDbLine
 10
54.63212062491685
 20
96.99222711661889
 30
0.0
 11
53.60528160701687
 21
97.08206435481891
 31
0.0
  0
LINE
  5
12379
330
1F
100
AcDbEntity
  8
AM_0
100
AcDbLine
 10
90.65895979181686
 20
97.08206435481891
 30
0.0
 11
89.63212077391686
 21
96.99222711661889
 31
0.0
  0
LINE
  5
1237A
330
1F
100
AcDbEntity
  8
AM_0
100
AcDbLine
 10
90.82518038221683
 20
104.4922274146189
 30
0.0
 11
90.82538154791683
 21
104.4922274146189
 31
0.0
  0
LINE
  5
1237B
330
1F
100
AcDbEntity
  8
AM_0
100
AcDbLine
 10
53.43906101651684
 20
104.4922274146189
 30
0.0
 11
53.43885985091684
 21
104.4922274146189
 31
0.0
  0
LWPOLYLINE
  5
1237C
330
1F
100
AcDbEntity
  8
AM_0
100
AcDbPolyline
 90
        3
 70
   128
 43
0.0
 10
53.60528160701687
 20
97.08206435481891
 10
53.56733393741688
 20
97.08538358851891
 10
53.56468898131685
 20
97.08561455651889
  0
LWPOLYLINE
  5
1237D
330
1F
100
AcDbEntity
  8
AM_0
100
AcDbPolyline
 90
        3
 70
   128
 43
0.0
 10
90.69955241751681
 20
97.08561455651889
 10
90.69690746141684
 20
97.08538358851891
 10
90.65895979181686
 20
97.08206435481891
  0
LINE
  5
1237E
330
1F
100
AcDbEntity
  8
AM_0
100
AcDbLine
 10
92.63207097421682
 20
116.5423531626189
 30
0.0
 11
90.59907947551685
 21
116.5423531626189
 31
0.0
  0
LINE
  5
1237F
330
1F
100
AcDbEntity
  8
AM_0
100
AcDbLine
 10
91.66516256401683
 20
136.4421014283189
 30
0.0
 11
89.63212077391686
 21
136.4421014283189
 31
0.0
  0
LINE
  5
12380
330
1F
100
AcDbEntity
  8
AM_0
100
AcDbLine
 10
89.63212077391686
 20
136.9922271539189
 30
0.0
 11
89.63212077391686
 21
117.7930551190189
 31
0.0
  0
LINE
  5
12381
330
1F
100
AcDbEntity
  8
AM_0
100
AcDbLine
 10
54.63212062491685
 20
136.9922271539189
 30
0.0
 11
54.63212062491685
 21
117.7930551190189
 31
0.0
  0
LINE
  5
12382
330
1F
100
AcDbEntity
  8
AM_0
100
AcDbLine
 10
54.63212062491685
 20
116.1360692773189
 30
0.0
 11
54.63212062491685
 21
117.7930551190189
 31
0.0
  0
LINE
  5
12383
330
1F
100
AcDbEntity
  8
AM_0
100
AcDbLine
 10
89.63212077391686
 20
117.7930551190189
 30
0.0
 11
89.63212077391686
 21
116.1360692773189
 31
0.0
  0
LINE
  5
12384
330
1F
100
AcDbEntity
  8
AM_0
100
AcDbLine
 10
54.63212062491685
 20
100.9064417873189
 30
0.0
 11
54.63212062491685
 21
102.3206551168189
 31
0.0
  0
LINE
  5
12385
330
1F
100
AcDbEntity
  8
AM_0
100
AcDbLine
 10
89.63212077391686
 20
102.3206551168189
 30
0.0
 11
89.63212077391686
 21
100.9064417873189
 31
0.0
  0
CIRCLE
  5
12386
330
1F
100
AcDbEntity
  8
AM_0
100
AcDbCircle
 10
82.13212069941686
 20
110.4922272954189
 30
0.0
 40
5.25
  0
CIRCLE
  5
12387
330
1F
100
AcDbEntity
  8
AM_0
100
AcDbCircle
 10
62.13212069941686
 20
110.4922272954189
 30
0.0
 40
5.25
  0
LINE
  5
12388
330
1F
100
AcDbEntity
  8
AM_0
100
AcDbLine
 10
54.63212062491685
 20
116.1360692773189
 30
0.0
 11
54.63212062491685
 21
102.3206551168189
 31
0.0
  0
LINE
  5
12389
330
1F
100
AcDbEntity
  8
AM_0
100
AcDbLine
 10
89.63212077391686
 20
116.1360692773189
 30
0.0
 11
89.63212077391686
 21
102.3206551168189
 31
0.0
  0
LINE
  5
1238A
330
1F
100
AcDbEntity
  8
AM_0
100
AcDbLine
 10
54.63212062491685
 20
100.9064417873189
 30
0.0
 11
54.63212062491685
 21
97.0780131016189
 31
0.0
  0
LINE
  5
1238B
330
1F
100
AcDbEntity
  8
AM_0
100
AcDbLine
 10
89.63212077391686
 20
100.9064417873189
 30
0.0
 11
89.63212077391686
 21
97.0780131016189
 31
0.0
  0
LINE
  5
1238C
330
1F
100
AcDbEntity
  8
AM_0
100
AcDbLine
 10
89.63212077391686
 20
96.4922279660189
 30
0.0
 11
54.63212062491685
 21
96.4922279660189
 31
0.0
  0
LINE
  5
1238D
330
1F
100
AcDbEntity
  8
AM_0
100
AcDbLine
 10
54.63212062491685
 20
96.4922279660189
 30
0.0
 11
54.63212062491685
 21
97.0780131016189
 31
0.0
  0
LINE
  5
1238E
330
1F
100
AcDbEntity
  8
AM_0
100
AcDbLine
 10
89.63212077391686
 20
97.0780131016189
 30
0.0
 11
89.63212077391686
 21
96.4922279660189
 31
0.0
  0
CIRCLE
  5
1238F
330
1F
100
AcDbEntity
  8
AM_0
100
AcDbCircle
 10
62.13212069941686
 20
110.4922272954189
 30
0.0
 40
2.599999999999993
  0
CIRCLE
  5
12390
330
1F
100
AcDbEntity
  8
AM_0
100
AcDbCircle
 10
82.13212069941686
 20
110.4922272954189
 30
0.0
 40
2.599999999999993
  0
LINE
  5
12391
330
1F
100
AcDbEntity
  8
AM_0
100
AcDbLine
 10
127.6321214146168
 20
115.9922274370189
 30
0.0
 11
127.6321214146168
 21
135.1913994718189
 31
0.0
  0
LINE
  5
12392
330
1F
100
AcDbEntity
  8
AM_0
100
AcDbLine
 10
92.63212126561681
 20
115.9922274370189
 30
0.0
 11
92.63212126561681
 21
135.1913994718189
 31
0.0
  0
LINE
  5
12393
330
1F
100
AcDbEntity
  8
AM_0
100
AcDbLine
 10
127.6321214146168
 20
136.8483853135189
 30
0.0
 11
127.6321214146168
 21
135.1913994718189
 31
0.0
  0
LINE
  5
12394
330
1F
100
AcDbEntity
  8
AM_0
100
AcDbLine
 10
92.63212126561681
 20
135.1913994718189
 30
0.0
 11
92.63212126561681
 21
136.8483853135189
 31
0.0
  0
LINE
  5
12395
330
1F
100
AcDbEntity
  8
AM_0
100
AcDbLine
 10
127.6321214146168
 20
152.0780128036189
 30
0.0
 11
127.6321214146168
 21
150.6637994740189
 31
0.0
  0
LINE
  5
12396
330
1F
100
AcDbEntity
  8
AM_0
100
AcDbLine
 10
92.63212126561681
 20
150.6637994740189
 30
0.0
 11
92.63212126561681
 21
152.0780128036189
 31
0.0
  0
CIRCLE
  5
12397
330
1F
100
AcDbEntity
  8
AM_0
100
AcDbCircle
 10
120.1321206994168
 20
142.4922272954189
 30
0.0
 40
5.249999999999971
  0
CIRCLE
  5
12398
330
1F
100
AcDbEntity
  8
AM_0
100
AcDbCircle
 10
100.1321206994168
 20
142.4922272954189
 30
0.0
 40
5.249999999999971
  0
LINE
  5
12399
330
1F
100
AcDbEntity
  8
AM_0
100
AcDbLine
 10
127.6321214146168
 20
136.8483853135189
 30
0.0
 11
127.6321214146168
 21
150.6637994740189
 31
0.0
  0
LINE
  5
1239A
330
1F
100
AcDbEntity
  8
AM_0
100
AcDbLine
 10
92.63212126561681
 20
136.8483853135189
 30
0.0
 11
92.63212126561681
 21
150.6637994740189
 31
0.0
  0
LINE
  5
1239B
330
1F
100
AcDbEntity
  8
AM_0
100
AcDbLine
 10
127.6321214146168
 20
152.0780128036189
 30
0.0
 11
127.6321214146168
 21
155.9064414892189
 31
0.0
  0
LINE
  5
1239C
330
1F
100
AcDbEntity
  8
AM_0
100
AcDbLine
 10
92.63212126561681
 20
152.0780128036189
 30
0.0
 11
92.63212126561681
 21
155.9064414892189
 31
0.0
  0
LINE
  5
1239D
330
1F
100
AcDbEntity
  8
AM_0
100
AcDbLine
 10
92.63212126561681
 20
156.4922266249189
 30
0.0
 11
127.6321214146168
 21
156.4922266249189
 31
0.0
  0
LINE
  5
1239E
330
1F
100
AcDbEntity
  8
AM_0
100
AcDbLine
 10
127.6321214146168
 20
156.4922266249189
 30
0.0
 11
127.6321214146168
 21
155.9064414892189
 31
0.0
  0
LINE
  5
1239F
330
1F
100
AcDbEntity
  8
AM_0
100
AcDbLine
 10
92.63212126561681
 20
155.9064414892189
 30
0.0
 11
92.63212126561681
 21
156.4922266249189
 31
0.0
  0
CIRCLE
  5
123A0
330
1F
100
AcDbEntity
  8
AM_0
100
AcDbCircle
 10
120.1321206994168
 20
142.4922272954189
 30
0.0
 40
2.599999999999993
  0
CIRCLE
  5
123A1
330
1F
100
AcDbEntity
  8
AM_0
100
AcDbCircle
 10
100.1321206994168
 20
142.4922272954189
 30
0.0
 40
2.599999999999993
  0
LINE
  5
123FC
330
1F
100
AcDbEntity
  8
AM_0
100
AcDbLine
 10
67.38212085211687
 20
50.69387571872425
 30
0.0
 11
67.38212085211687
 21
50.31387561912424
 31
0.0
  0
LINE
  5
123FD
330
1F
100
AcDbEntity
  8
AM_0
100
AcDbLine
 10
76.88212054661686
 20
50.31387561912424
 30
0.0
 11
76.88212054661686
 21
50.69387571872425
 31
0.0
  0
ARC
  5
123FE
330
1F
100
AcDbEntity
  8
AM_0
100
AcDbCircle
 10
72.13212069941686
 20
48.30885990812427
 30
0.0
 40
5.315148208181401
100
AcDbArc
 50
116.5408707231994
 51
153.3383795227006
  0
ARC
  5
123FF
330
1F
100
AcDbEntity
  8
AM_0
100
AcDbCircle
 10
72.13212069941686
 20
48.30885990812427
 30
0.0
 40
5.315148208181407
100
AcDbArc
 50
26.66162047729935
 51
63.45912927680053
  0
LINE
  5
12400
330
1F
100
AcDbEntity
  8
AM_0
100
AcDbLine
 10
54.63212062491685
 20
55.61387592912428
 30
0.0
 11
54.00715847381682
 21
55.55919891202427
 31
0.0
  0
ARC
  5
12401
330
1F
100
AcDbEntity
  8
AM_0
100
AcDbCircle
 10
54.02458976151688
 20
35.26779176822425
 30
0.0
 40
0.19999999999999
100
AcDbArc
 50
200.713259228101
 51
265.0000000000002
  0
ARC
  5
12402
330
1F
100
AcDbEntity
  8
AM_0
100
AcDbCircle
 10
54.02458976151688
 20
55.35995969362426
 30
0.0
 40
0.2000000000000038
100
AcDbArc
 50
94.99999999999976
 51
159.2867407718989
  0
ARC
  5
12403
330
1F
100
AcDbEntity
  8
AM_0
100
AcDbCircle
 10
106.6854819384168
 20
55.18061264152425
 30
0.0
 40
56.50000000000002
100
AcDbArc
 50
196.2184941307999
 51
200.713259228101
  0
ARC
  5
12404
330
1F
100
AcDbEntity
  8
AM_0
100
AcDbCircle
 10
106.6854819384168
 20
35.44713882022427
 30
0.0
 40
56.50000000000002
100
AcDbArc
 50
159.2867407718989
 51
163.7815058692
  0
ARC
  5
12405
330
1F
100
AcDbEntity
  8
AM_0
100
AcDbCircle
 10
52.62602027561682
 20
51.17178841002425
 30
0.0
 40
0.2000000000000002
100
AcDbArc
 50
163.7815058692
 51
180.0
  0
ARC
  5
12406
330
1F
100
AcDbEntity
  8
AM_0
100
AcDbCircle
 10
52.62602027561682
 20
39.45596305182426
 30
0.0
 40
0.2000000000000002
100
AcDbArc
 50
180.0
 51
196.2184941307999
  0
LINE
  5
12407
330
1F
100
AcDbEntity
  8
AM_0
100
AcDbLine
 10
52.42602047391686
 20
51.17178855442427
 30
0.0
 11
52.42602047391686
 21
39.45596290732428
 31
0.0
  0
LINE
  5
12408
330
1F
100
AcDbEntity
  8
AM_0
100
AcDbLine
 10
127.6321214146168
 20
35.01387553272429
 30
0.0
 11
128.2570835657169
 21
35.06855254972427
 31
0.0
  0
LINE
  5
12409
330
1F
100
AcDbEntity
  8
AM_0
100
AcDbLine
 10
128.2570835657169
 20
55.55919891202427
 30
0.0
 11
127.6321214146168
 21
55.61387592912428
 31
0.0
  0
ARC
  5
1240A
330
1F
100
AcDbEntity
  8
AM_0
100
AcDbCircle
 10
128.2396516372168
 20
55.35995969362426
 30
0.0
 40
0.200000000000018
100
AcDbArc
 50
20.71325922810099
 51
85.00000000000021
  0
ARC
  5
1240B
330
1F
100
AcDbEntity
  8
AM_0
100
AcDbCircle
 10
128.2396516372168
 20
35.26779176822425
 30
0.0
 40
0.1999999999999897
100
AcDbArc
 50
274.9999999999998
 51
339.2867407718989
  0
ARC
  5
1240C
330
1F
100
AcDbEntity
  8
AM_0
100
AcDbCircle
 10
75.57875946031685
 20
35.44713882022427
 30
0.0
 40
56.50000000000001
100
AcDbArc
 50
16.21849413079995
 51
20.71325922810099
  0
ARC
  5
1240D
330
1F
100
AcDbEntity
  8
AM_0
100
AcDbCircle
 10
75.57875946031685
 20
55.18061264152425
 30
0.0
 40
56.50000000000003
100
AcDbArc
 50
339.2867407718989
 51
343.7815058692001
  0
ARC
  5
1240E
330
1F
100
AcDbEntity
  8
AM_0
100
AcDbCircle
 10
129.6382211232168
 20
39.45596305182426
 30
0.0
 40
0.2000000000000002
100
AcDbArc
 50
343.7815058692001
 51
0.0
  0
ARC
  5
1240F
330
1F
100
AcDbEntity
  8
AM_0
100
AcDbCircle
 10
129.6382211232168
 20
51.17178841002425
 30
0.0
 40
0.2000000000000028
100
AcDbArc
 50
0.0
 51
16.21849413079995
  0
LINE
  5
12410
330
1F
100
AcDbEntity
  8
AM_0
100
AcDbLine
 10
129.8382197029169
 20
39.45596290732428
 30
0.0
 11
129.8382197029169
 21
51.17178855442427
 31
0.0
  0
LINE
  5
12411
330
1F
100
AcDbEntity
  8
AM_0
100
AcDbLine
 10
90.44660148091685
 20
35.31387595442428
 30
0.0
 11
92.63212126561681
 21
35.31387595442428
 31
0.0
  0
LINE
  5
12412
330
1F
100
AcDbEntity
  8
AM_0
100
AcDbLine
 10
92.63212126561681
 20
55.31387550742426
 30
0.0
 11
89.63212077391686
 21
55.31387550742426
 31
0.0
  0
LINE
  5
12413
330
1F
100
AcDbEntity
  8
AM_0
100
AcDbLine
 10
89.63212077391686
 20
55.81387558932425
 30
0.0
 11
54.63212062491685
 21
55.81387558932425
 31
0.0
  0
LINE
  5
12414
330
1F
100
AcDbEntity
  8
AM_0
100
AcDbLine
 10
127.6321214146168
 20
55.81387558932425
 30
0.0
 11
92.63212126561681
 21
55.81387558932425
 31
0.0
  0
LINE
  5
12415
330
1F
100
AcDbEntity
  8
AM_0
100
AcDbLine
 10
92.63212126561681
 20
34.81387587242426
 30
0.0
 11
127.6321214146168
 21
34.81387587242426
 31
0.0
  0
LINE
  5
12418
330
1F
100
AcDbEntity
  8
AM_0
100
AcDbLine
 10
73.50975156181686
 20
53.06387560422428
 30
0.0
 11
74.50712062301686
 21
53.06387560422428
 31
0.0
  0
LINE
  5
12419
330
1F
100
AcDbEntity
  8
AM_0
100
AcDbLine
 10
69.75712077581686
 20
53.06387560422428
 30
0.0
 11
73.50975156181686
 21
53.06387560422428
 31
0.0
  0
LINE
  5
1241A
330
1F
100
AcDbEntity
  8
AM_0
100
AcDbLine
 10
92.63212126561681
 20
34.81387587242426
 30
0.0
 11
92.03323614671687
 21
34.86627114922425
 31
0.0
  0
SPLINE
  5
1241B
330
1F
100
AcDbEntity
  8
AM_0
100
AcDbSpline
210
0.0
220
0.0
230
1.0
 70
     8
 71
     3
 72
    11
 73
     7
 74
     0
 42
0.0000000001
 43
0.0000000001
 40
0.0
 40
0.0
 40
0.0
 40
0.0
 40
0.2772843606261503
 40
0.6747494031081529
 40
0.9901342374656065
 40
1.0
 40
1.0
 40
1.0
 40
1.0
 10
91.85233232450251
 20
35.0397616436695
 30
0.0
 10
91.86022604320958
 20
35.01138723921264
 30
0.0
 10
91.87943477886943
 20
34.94234038627235
 30
0.0
 10
91.94985332662467
 20
34.88605829004223
 30
0.0
 10
92.00627522167353
 20
34.86873508382593
 30
0.0
 10
92.03244242212928
 20
34.86634368695195
 30
0.0
 10
92.03323614668612
 20
34.86627114917983
 30
0.0
  0
SPLINE
  5
1241C
330
1F
100
AcDbEntity
  8
AM_0
100
AcDbSpline
210
0.0
220
0.0
230
1.0
 70
     8
 71
     3
 72
    10
 73
     6
 74
     0
 42
0.0000000001
 43
0.0000000001
 40
0.0
 40
0.0
 40
0.0
 40
0.0
 40
0.28897095087525
 40
0.8407085887068765
 40
1.0
 40
1.0
 40
1.0
 40
1.0
 10
91.85233232450251
 20
35.0397616436695
 30
0.0
 10
91.849381137782
 20
35.06256220078535
 30
0.0
 10
91.84079519509378
 20
35.12889628778112
 30
0.0
 10
91.82848623614761
 20
35.2252227573454
 30
0.0
 10
91.81947647153434
 20
35.29765010023599
 30
0.0
 10
91.81745801937346
 20
35.31387595441092
 30
0.0
  0
SPLINE
  5
1241D
330
1F
100
AcDbEntity
  8
AM_0
100
AcDbSpline
210
0.0
220
0.0
230
1.0
 70
     8
 71
     3
 72
     9
 73
     5
 74
     0
 42
0.0000000001
 43
0.0000000001
 40
0.0
 40
0.0
 40
0.0
 40
0.0
 40
0.7640809091763884
 40
1.0
 40
1.0
 40
1.0
 40
1.0
 10
128.4271914966083
 20
35.15883496012441
 30
0.0
 10
128.4229978372154
 20
35.12595019480102
 30
0.0
 10
128.417509335484
 20
35.08291186609995
 30
0.0
 10
128.4129791200989
 20
35.0479983974507
 30
0.0
 10
128.4119103558041
 20
35.0397616436695
 30
0.0
  0
SPLINE
  5
1241E
330
1F
100
AcDbEntity
  8
AM_0
100
AcDbSpline
210
0.0
220
0.0
230
1.0
 70
     8
 71
     3
 72
    11
 73
     7
 74
     0
 42
0.0000000001
 43
0.0000000001
 40
0.0
 40
0.0
 40
0.0
 40
0.0
 40
0.0101715712323185
 40
0.3263789792374032
 40
0.7170607046900708
 40
1.0
 40
1.0
 40
1.0
 40
1.0
 10
128.2310065336204
 20
34.86627114917983
 30
0.0
 10
128.2318313002309
 20
34.86634697514162
 30
0.0
 10
128.2582958924047
 20
34.86878003090604
 30
0.0
 10
128.314839660765
 20
34.88623370124808
 30
0.0
 10
128.3851147243219
 20
34.94325724955411
 30
0.0
 10
128.4039845230451
 20
35.01121677848272
 30
0.0
 10
128.4119103558041
 20
35.0397616436695
 30
0.0
  0
LINE
  5
1241F
330
1F
100
AcDbEntity
  8
AM_0
100
AcDbLine
 10
128.2310065336168
 20
34.86627114922425
 30
0.0
 11
127.6321214146168
 21
34.81387587242426
 31
0.0
  0
SPLINE
  5
12420
330
1F
100
AcDbEntity
  8
AM_0
100
AcDbSpline
210
0.0
220
0.0
230
1.0
 70
     8
 71
     3
 72
    12
 73
     8
 74
     0
 42
0.0000000001
 43
0.0000000001
 40
0.0
 40
0.0
 40
0.0
 40
0.0
 40
0.25
 40
0.25
 40
0.5
 40
0.5
 40
1.0
 40
1.0
 40
1.0
 40
1.0
 10
90.82005046413284
 20
39.6662194330587
 30
0.0
 10
90.81448117701192
 20
39.54750348203959
 30
0.0
 10
90.8086266707712
 20
39.43070462111197
 30
0.0
 10
90.79640955969914
 20
39.2007961989516
 30
0.0
 10
90.78997543275919
 20
39.08651236515607
 30
0.0
 10
90.77060921570078
 20
38.75913769512778
 30
0.0
 10
90.75753214735668
 20
38.55999043556148
 30
0.0
 10
90.74577593942892
 20
38.39107469291906
 30
0.0
  0
SPLINE
  5
12421
330
1F
100
AcDbEntity
  8
AM_0
100
AcDbSpline
210
0.0
220
0.0
230
1.0
 70
     8
 71
     3
 72
    12
 73
     8
 74
     0
 42
0.0000000001
 43
0.0000000001
 40
0.0
 40
0.0
 40
0.0
 40
0.0
 40
0.2499999999999997
 40
0.2499999999999997
 40
0.4999999999999994
 40
0.4999999999999994
 40
1.0
 40
1.0
 40
1.0
 40
1.0
 10
53.51846545937774
 20
38.39107469291906
 30
0.0
 10
53.51258765222688
 20
38.47552829956646
 30
0.0
 10
53.50642683973124
 20
38.56677876985799
 30
0.0
 10
53.49377386314244
 20
38.76226555121167
 30
0.0
 10
53.48720951035584
 20
38.86772803163069
 30
0.0
 10
53.46784640645892
 20
39.19499388907878
 30
0.0
 10
53.45532887961432
 20
39.4288009453245
 30
0.0
 10
53.44419093467386
 20
39.66621943305859
 30
0.0
  0
SPLINE
  5
12422
330
1F
100
AcDbEntity
  8
AM_0
100
AcDbSpline
210
0.0
220
0.0
230
1.0
 70
     8
 71
     3
 72
    12
 73
     8
 74
     0
 42
0.0000000001
 43
0.0000000001
 40
0.0
 40
0.0
 40
0.0
 40
0.0
 40
0.2500000000000001
 40
0.2500000000000001
 40
0.5000000000000002
 40
0.5000000000000002
 40
1.0
 40
1.0
 40
1.0
 40
1.0
 10
53.4228564805794
 20
44.45898269070449
 30
0.0
 10
53.42736683018118
 20
44.57769519532837
 30
0.0
 10
53.43217873893881
 20
44.69448250724008
 30
0.0
 10
53.44234179303457
 20
44.92435326644425
 30
0.0
 10
53.44775399912122
 20
45.03861148402859
 30
0.0
 10
53.46418869542275
 20
45.36586975767619
 30
0.0
 10
53.47547789018704
 20
45.56491330901417
 30
0.0
 10
53.48571382470725
 20
45.73371368374006
 30
0.0
  0
SPLINE
  5
12423
330
1F
100
AcDbEntity
  8
AM_0
100
AcDbSpline
210
0.0
220
0.0
230
1.0
 70
     8
 71
     3
 72
    12
 73
     8
 74
     0
 42
0.0000000001
 43
0.0000000001
 40
0.0
 40
0.0
 40
0.0
 40
0.0
 40
0.25
 40
0.25
 40
0.5
 40
0.5
 40
1.0
 40
1.0
 40
1.0
 40
1.0
 10
90.77852757409941
 20
45.73371368374006
 30
0.0
 10
90.78364533346636
 20
45.64931692473408
 30
0.0
 10
90.78898589406513
 20
45.55812178115917
 30
0.0
 10
90.79988403882792
 20
45.3627367149482
 30
0.0
 10
90.80550282764612
 20
45.25732128197256
 30
0.0
 10
90.82193581596429
 20
44.93016310347235
 30
0.0
 10
90.83236463206139
 20
44.69639682879068
 30
0.0
 10
90.8413849182272
 20
44.45898269070449
 30
0.0
  0
ARC
  5
12424
330
1F
100
AcDbEntity
  8
AM_0
100
AcDbCircle
 10
34.38212069941686
 20
42.31387573092428
 30
0.0
 40
56.49999999999996
100
AcDbArc
 50
357.3140688908995
 51
2.175842862100195
  0
ARC
  5
12425
330
1F
100
AcDbEntity
  8
AM_0
100
AcDbCircle
 10
109.8821206994168
 20
42.31387573092428
 30
0.0
 40
56.49999999999992
100
AcDbArc
 50
177.8241571378998
 51
182.6859311091005
  0
LINE
  5
12426
330
1F
100
AcDbEntity
  8
AM_0
100
AcDbLine
 10
89.63212077391686
 20
35.39743328452426
 30
0.0
 11
89.63212077391686
 21
36.81387526892428
 31
0.0
  0
LINE
  5
12427
330
1F
100
AcDbEntity
  8
AM_0
100
AcDbLine
 10
54.63212062491685
 20
36.81387526892428
 30
0.0
 11
54.63212062491685
 21
35.39743328452426
 31
0.0
  0
ARC
  5
12428
330
1F
100
AcDbEntity
  8
AM_0
100
AcDbCircle
 10
109.8821206994168
 20
42.31387573092428
 30
0.0
 40
56.49999999999991
100
AcDbArc
 50
183.9812551073
 51
186.8524913655
  0
ARC
  5
12429
330
1F
100
AcDbEntity
  8
AM_0
100
AcDbCircle
 10
34.38212069941686
 20
42.31387573092428
 30
0.0
 40
56.49999999999994
100
AcDbArc
 50
353.1475086344999
 51
356.0187448926998
  0
ARC
  5
1242A
330
1F
100
AcDbEntity
  8
AM_0
100
AcDbCircle
 10
34.38212069941686
 20
42.31387573092428
 30
0.0
 40
56.49999999999992
100
AcDbArc
 50
3.470126071499902
 51
6.852491365500016
  0
ARC
  5
1242B
330
1F
100
AcDbEntity
  8
AM_0
100
AcDbCircle
 10
109.8821206994168
 20
42.31387573092428
 30
0.0
 40
56.49999999999994
100
AcDbArc
 50
173.1475086345
 51
176.5298739285
  0
LINE
  5
1242C
330
1F
100
AcDbEntity
  8
AM_0
100
AcDbLine
 10
90.23100589291685
 20
34.86627114922425
 30
0.0
 11
89.63212077391686
 21
34.81387587242426
 31
0.0
  0
LINE
  5
1242D
330
1F
100
AcDbEntity
  8
AM_0
100
AcDbLine
 10
89.63212077391686
 20
34.81387587242426
 30
0.0
 11
89.63212077391686
 21
35.39743328452426
 31
0.0
  0
LINE
  5
1242E
330
1F
100
AcDbEntity
  8
AM_0
100
AcDbLine
 10
54.63212062491685
 20
34.81387587242426
 30
0.0
 11
54.03323550591686
 21
34.86627114922425
 31
0.0
  0
LINE
  5
1242F
330
1F
100
AcDbEntity
  8
AM_0
100
AcDbLine
 10
54.63212062491685
 20
35.39743328452426
 30
0.0
 11
54.63212062491685
 21
34.81387587242426
 31
0.0
  0
ARC
  5
12430
330
1F
100
AcDbEntity
  8
AM_0
100
AcDbCircle
 10
90.21357418571687
 20
35.06551028682427
 30
0.0
 40
0.2000000000000063
100
AcDbArc
 50
274.9999999999998
 51
352.6029007889006
  0
SPLINE
  5
12431
330
1F
100
AcDbEntity
  8
AM_0
100
AcDbSpline
210
0.0
220
0.0
230
1.0
 70
     8
 71
     3
 72
    14
 73
    10
 74
     0
 42
0.0000000001
 43
0.0000000001
 40
0.0
 40
0.0
 40
0.0
 40
0.0
 40
0.25
 40
0.25
 40
0.5
 40
0.5
 40
0.75
 40
0.75
 40
1.0
 40
1.0
 40
1.0
 40
1.0
 10
90.47851950070308
 20
35.57265614349433
 30
0.0
 10
90.46838242759655
 20
35.48830148210229
 30
0.0
 10
90.45918749569146
 20
35.41337054811703
 30
0.0
 10
90.44284472293433
 20
35.28183376497941
 30
0.0
 10
90.43563528655878
 20
35.22475531483906
 30
0.0
 10
90.42399046681572
 20
35.13327973765206
 30
0.0
 10
90.41953579833277
 20
35.09870650822194
 30
0.0
 10
90.4134836891656
 20
35.05185676981813
 30
0.0
 10
90.41190972203303
 20
35.03976120886404
 30
0.0
 10
90.41190972203303
 20
35.03976120886404
 30
0.0
  0
ARC
  5
12432
330
1F
100
AcDbEntity
  8
AM_0
100
AcDbCircle
 10
54.05066721311685
 20
35.06551028682427
 30
0.0
 40
0.2000000000000063
100
AcDbArc
 50
187.3970992110994
 51
265.0000000000002
  0
SPLINE
  5
12433
330
1F
100
AcDbEntity
  8
AM_0
100
AcDbSpline
210
0.0
220
0.0
230
1.0
 70
     8
 71
     3
 72
    12
 73
     8
 74
     0
 42
0.0000000001
 43
0.0000000001
 40
0.0
 40
0.0
 40
0.0
 40
0.0
 40
0.2500000000000014
 40
0.2500000000000014
 40
0.5000000000000029
 40
0.5000000000000029
 40
1.0
 40
1.0
 40
1.0
 40
1.0
 10
53.85233167677363
 20
35.03976120886404
 30
0.0
 10
53.85233167677363
 20
35.03976120886404
 30
0.0
 10
53.85079305993558
 20
35.05158483387607
 30
0.0
 10
53.84480468810038
 20
35.09793779021936
 30
0.0
 10
53.84027829976365
 20
35.13306651852011
 30
0.0
 10
53.82283242245795
 20
35.2701068644007
 30
0.0
 10
53.80599469484121
 20
35.40395805023883
 30
0.0
 10
53.78572189810357
 20
35.57265614349433
 30
0.0
  0
LINE
  5
12434
330
1F
100
AcDbEntity
  8
AM_0
100
AcDbLine
 10
89.63212077391686
 20
49.81387553722427
 30
0.0
 11
90.23100589291685
 21
49.76148026042427
 31
0.0
  0
LINE
  5
12435
330
1F
100
AcDbEntity
  8
AM_0
100
AcDbLine
 10
54.03323550591686
 20
49.76148026042427
 30
0.0
 11
54.63212062491685
 21
49.81387553722427
 31
0.0
  0
ARC
  5
12436
330
1F
100
AcDbEntity
  8
AM_0
100
AcDbCircle
 10
90.21357418571687
 20
49.56224117492428
 30
0.0
 40
0.2000000000000038
100
AcDbArc
 50
7.397099211099392
 51
85.00000000000021
  0
SPLINE
  5
12437
330
1F
100
AcDbEntity
  8
AM_0
100
AcDbSpline
210
0.0
220
0.0
230
1.0
 70
     8
 71
     3
 72
    12
 73
     8
 74
     0
 42
0.0000000001
 43
0.0000000001
 40
0.0
 40
0.0
 40
0.0
 40
0.0
 40
0.2500000000000001
 40
0.2500000000000001
 40
0.5000000000000002
 40
0.5000000000000002
 40
1.0
 40
1.0
 40
1.0
 40
1.0
 10
90.41190972203303
 20
49.58799025292297
 30
0.0
 10
90.41190972203303
 20
49.58799025292297
 30
0.0
 10
90.41344833887107
 20
49.576166627911
 30
0.0
 10
90.41943671070628
 20
49.5298136715677
 30
0.0
 10
90.42396309904306
 20
49.49468494326686
 30
0.0
 10
90.44140897634877
 20
49.35764459738627
 30
0.0
 10
90.45824670396546
 20
49.22379341154817
 30
0.0
 10
90.47851950070308
 20
49.05509531829267
 30
0.0
  0
ARC
  5
12438
330
1F
100
AcDbEntity
  8
AM_0
100
AcDbCircle
 10
54.05066721311685
 20
49.56224117492428
 30
0.0
 40
0.2000000000000038
100
AcDbArc
 50
94.99999999999976
 51
172.6029007888989
  0
SPLINE
  5
12439
330
1F
100
AcDbEntity
  8
AM_0
100
AcDbSpline
210
0.0
220
0.0
230
1.0
 70
     8
 71
     3
 72
    14
 73
    10
 74
     0
 42
0.0000000001
 43
0.0000000001
 40
0.0
 40
0.0
 40
0.0
 40
0.0
 40
0.25
 40
0.25
 40
0.5
 40
0.5
 40
0.75
 40
0.75
 40
1.0
 40
1.0
 40
1.0
 40
1.0
 10
53.78572189810352
 20
49.05509531829267
 30
0.0
 10
53.7958589712101
 20
49.13944997968468
 30
0.0
 10
53.80505390311525
 20
49.21438091366997
 30
0.0
 10
53.82139667587232
 20
49.34591769680756
 30
0.0
 10
53.82860611224792
 20
49.402996146948
 30
0.0
 10
53.84025093199095
 20
49.49447172413499
 30
0.0
 10
53.84470560047389
 20
49.52904495356506
 30
0.0
 10
53.85075770964111
 20
49.57589469196898
 30
0.0
 10
53.85233167677357
 20
49.58799025292297
 30
0.0
 10
53.85233167677357
 20
49.58799025292297
 30
0.0
  0
SPLINE
  5
1243A
330
1F
100
AcDbEntity
  8
AM_0
100
AcDbSpline
210
0.0
220
0.0
230
1.0
 70
     8
 71
     3
 72
     9
 73
     5
 74
     0
 42
0.0000000001
 43
0.0000000001
 40
0.0
 40
0.0
 40
0.0
 40
0.0
 40
0.7440087637836949
 40
1.0
 40
1.0
 40
1.0
 40
1.0
 10
53.43906101655726
 20
44.84983564335755
 30
0.0
 10
53.43815214607501
 20
44.83565403271756
 30
0.0
 10
53.43693056035384
 20
44.81659295261965
 30
0.0
 10
53.42872623335238
 20
44.6011712028307
 30
0.0
 10
53.42662599754099
 20
44.54602512279428
 30
0.0
  0
SPLINE
  5
1243B
330
1F
100
AcDbEntity
  8
AM_0
100
AcDbSpline
210
0.0
220
0.0
230
1.0
 70
     8
 71
     3
 72
    10
 73
     6
 74
     0
 42
0.0000000001
 43
0.0000000001
 40
0.0
 40
0.0
 40
0.0
 40
0.0
 40
0.154247503895293
 40
0.7657291712260442
 40
1.0
 40
1.0
 40
1.0
 40
1.0
 10
90.84134255420927
 20
44.44949679756436
 30
0.0
 10
90.83975717003806
 20
44.49428637633846
 30
0.0
 10
90.83188686499669
 20
44.71663478502029
 30
0.0
 10
90.82613109569233
 20
44.82648726110207
 30
0.0
 10
90.82538660411612
 20
44.84477108156937
 30
0.0
 10
90.82518038224939
 20
44.84983564335755
 30
0.0
  0
SPLINE
  5
1243C
330
1F
100
AcDbEntity
  8
AM_0
100
AcDbSpline
210
0.0
220
0.0
230
1.0
 70
     8
 71
     3
 72
    10
 73
     6
 74
     0
 42
0.0000000001
 43
0.0000000001
 40
0.0
 40
0.0
 40
0.0
 40
0.0
 40
0.2570372986215211
 40
0.5879694506492445
 40
1.0
 40
1.0
 40
1.0
 40
1.0
 10
92.63207097422842
 20
44.31387568339608
 30
0.0
 10
92.62921749153843
 20
44.34958768141905
 30
0.0
 10
92.62269018729618
 20
44.43127840868618
 30
0.0
 10
92.57355988932248
 20
44.55713380621017
 30
0.0
 10
92.51705896204297
 20
44.62347805957728
 30
0.0
 10
92.48572480749849
 20
44.66027110330657
 30
0.0
  0
LINE
  5
1243D
330
1F
100
AcDbEntity
  8
AM_0
100
AcDbLine
 10
92.63207097421682
 20
44.31387568342427
 30
0.0
 11
90.84671069751685
 21
44.31387568342427
 31
0.0
  0
LINE
  5
1243E
330
1F
100
AcDbEntity
  8
AM_0
100
AcDbLine
 10
92.13212025241686
 20
45.01387571662428
 30
0.0
 11
90.81685808371684
 21
45.01387571662428
 31
0.0
  0
LINE
  5
1243F
330
1F
100
AcDbEntity
  8
AM_0
100
AcDbLine
 10
92.48567451611682
 20
44.66032232602427
 30
0.0
 11
92.13212025241686
 21
45.01387571662428
 31
0.0
  0
LINE
  5
12440
330
1F
100
AcDbEntity
  8
AM_0
100
AcDbLine
 10
92.48572480751686
 20
44.66027110332425
 30
0.0
 11
92.48567451611682
 21
44.66032232602427
 31
0.0
  0
LINE
  5
12441
330
1F
100
AcDbEntity
  8
AM_0
100
AcDbLine
 10
92.63212126561681
 20
45.01387571662428
 30
0.0
 11
92.13212025241686
 21
45.01387571662428
 31
0.0
  0
LINE
  5
12442
330
1F
100
AcDbEntity
  8
AM_0
100
AcDbLine
 10
92.63207097421682
 20
46.31387577842426
 30
0.0
 11
90.74034993421683
 21
46.31387577842426
 31
0.0
  0
SPLINE
  5
12443
330
1F
100
AcDbEntity
  8
AM_0
100
AcDbSpline
210
0.0
220
0.0
230
1.0
 70
     8
 71
     3
 72
    10
 73
     6
 74
     0
 42
0.0000000001
 43
0.0000000001
 40
0.0
 40
0.0
 40
0.0
 40
0.0
 40
0.2570372986215211
 40
0.5879694506492445
 40
1.0
 40
1.0
 40
1.0
 40
1.0
 10
92.63207097422842
 20
46.31387577839098
 30
0.0
 10
92.62921749153843
 20
46.27816378036797
 30
0.0
 10
92.62269018729618
 20
46.19647305310087
 30
0.0
 10
92.57355988932248
 20
46.07061765557676
 30
0.0
 10
92.51705896204297
 20
46.00427340220977
 30
0.0
 10
92.48572480749849
 20
45.96748035848037
 30
0.0
  0
LINE
  5
12444
330
1F
100
AcDbEntity
  8
AM_0
100
AcDbLine
 10
92.48567451611682
 20
45.96742913572427
 30
0.0
 11
92.13212025241686
 21
45.61387574512429
 31
0.0
  0
LINE
  5
12445
330
1F
100
AcDbEntity
  8
AM_0
100
AcDbLine
 10
92.13212025241686
 20
45.61387574512429
 30
0.0
 11
90.78526762201686
 21
45.61387574512429
 31
0.0
  0
LINE
  5
12446
330
1F
100
AcDbEntity
  8
AM_0
100
AcDbLine
 10
92.48572480751686
 20
45.96748035852425
 30
0.0
 11
92.48567451611682
 21
45.96742913572427
 31
0.0
  0
LINE
  5
12447
330
1F
100
AcDbEntity
  8
AM_0
100
AcDbLine
 10
92.63212126561681
 20
45.61387574512429
 30
0.0
 11
92.13212025241686
 21
45.61387574512429
 31
0.0
  0
LINE
  5
12448
330
1F
100
AcDbEntity
  8
AM_0
100
AcDbLine
 10
54.63212062491685
 20
44.48544858472428
 30
0.0
 11
54.63212062491685
 21
39.14230277742428
 31
0.0
  0
LINE
  5
12449
330
1F
100
AcDbEntity
  8
AM_0
100
AcDbLine
 10
89.63212077391686
 20
44.48544858472428
 30
0.0
 11
89.63212077391686
 21
39.14230277742428
 31
0.0
  0
LINE
  5
1244A
330
1F
100
AcDbEntity
  8
AM_0
100
AcDbLine
 10
54.63212062491685
 20
37.72808944792428
 30
0.0
 11
54.63212062491685
 21
39.14230277742428
 31
0.0
  0
LINE
  5
1244B
330
1F
100
AcDbEntity
  8
AM_0
100
AcDbLine
 10
89.63212077391686
 20
39.14230277742428
 30
0.0
 11
89.63212077391686
 21
37.72808944792428
 31
0.0
  0
LINE
  5
1244C
330
1F
100
AcDbEntity
  8
AM_0
100
AcDbLine
 10
54.63212062491685
 20
44.48544858472428
 30
0.0
 11
54.63212062491685
 21
45.89966214712427
 31
0.0
  0
LINE
  5
1244D
330
1F
100
AcDbEntity
  8
AM_0
100
AcDbLine
 10
89.63212077391686
 20
45.89966214712427
 30
0.0
 11
89.63212077391686
 21
44.48544858472428
 31
0.0
  0
LINE
  5
1244E
330
1F
100
AcDbEntity
  8
AM_0
100
AcDbLine
 10
54.63212062491685
 20
37.72808944792428
 30
0.0
 11
54.63212062491685
 21
36.96032201852427
 31
0.0
  0
LINE
  5
1244F
330
1F
100
AcDbEntity
  8
AM_0
100
AcDbLine
 10
89.63212077391686
 20
37.72808944792428
 30
0.0
 11
89.63212077391686
 21
36.96032201852427
 31
0.0
  0
LINE
  5
12450
330
1F
100
AcDbEntity
  8
AM_0
100
AcDbLine
 10
54.63212062491685
 20
49.72808908652428
 30
0.0
 11
54.63212062491685
 21
45.89966214712427
 31
0.0
  0
LINE
  5
12451
330
1F
100
AcDbEntity
  8
AM_0
100
AcDbLine
 10
89.63212077391686
 20
49.72808908652428
 30
0.0
 11
89.63212077391686
 21
45.89966214712427
 31
0.0
  0
LINE
  5
12452
330
1F
100
AcDbEntity
  8
AM_0
100
AcDbLine
 10
89.63212077391686
 20
36.81387526892428
 30
0.0
 11
54.63212062491685
 21
36.81387526892428
 31
0.0
  0
LINE
  5
12453
330
1F
100
AcDbEntity
  8
AM_0
100
AcDbLine
 10
54.63212062491685
 20
36.81387526892428
 30
0.0
 11
54.63212062491685
 21
36.96032201852427
 31
0.0
  0
LINE
  5
12454
330
1F
100
AcDbEntity
  8
AM_0
100
AcDbLine
 10
89.63212077391686
 20
36.96032201852427
 30
0.0
 11
89.63212077391686
 21
36.81387526892428
 31
0.0
  0
LINE
  5
12455
330
1F
100
AcDbEntity
  8
AM_0
100
AcDbLine
 10
54.63212062491685
 20
50.31387561912424
 30
0.0
 11
89.63212077391686
 21
50.31387561912424
 31
0.0
  0
LINE
  5
12456
330
1F
100
AcDbEntity
  8
AM_0
100
AcDbLine
 10
54.63212062491685
 20
49.72808908652428
 30
0.0
 11
54.63212062491685
 21
50.31387561912424
 31
0.0
  0
LINE
  5
12457
330
1F
100
AcDbEntity
  8
AM_0
100
AcDbLine
 10
89.63212077391686
 20
50.31387561912424
 30
0.0
 11
89.63212077391686
 21
49.72808908652428
 31
0.0
  0
LINE
  5
12458
330
1F
100
AcDbEntity
  8
AM_0
100
AcDbLine
 10
89.63212077391686
 20
34.31387579052426
 30
0.0
 11
54.63212062491685
 21
34.31387579052426
 31
0.0
  0
LINE
  5
12459
330
1F
100
AcDbEntity
  8
AM_0
100
AcDbLine
 10
54.63212062491685
 20
34.31387579052426
 30
0.0
 11
54.63212062491685
 21
34.81387587242426
 31
0.0
  0
LINE
  5
1245A
330
1F
100
AcDbEntity
  8
AM_0
100
AcDbLine
 10
89.63212077391686
 20
34.81387587242426
 30
0.0
 11
89.63212077391686
 21
34.31387579052426
 31
0.0
  0
LINE
  5
1245B
330
1F
100
AcDbEntity
  8
AM_0
100
AcDbLine
 10
54.63212062491685
 20
50.31387561912424
 30
0.0
 11
54.63212062491685
 21
51.19387580062428
 31
0.0
  0
LINE
  5
1245C
330
1F
100
AcDbEntity
  8
AM_0
100
AcDbLine
 10
89.63212077391686
 20
51.19387580062428
 30
0.0
 11
89.63212077391686
 21
50.31387561912424
 31
0.0
  0
LINE
  5
1245D
330
1F
100
AcDbEntity
  8
AM_0
100
AcDbLine
 10
54.63212062491685
 20
55.81387558932425
 30
0.0
 11
54.63212062491685
 21
51.19387580062428
 31
0.0
  0
LINE
  5
1245E
330
1F
100
AcDbEntity
  8
AM_0
100
AcDbLine
 10
89.63212077391686
 20
55.81387558932425
 30
0.0
 11
89.63212077391686
 21
51.19387580062428
 31
0.0
  0
LINE
  5
1245F
330
1F
100
AcDbEntity
  8
AM_0
100
AcDbLine
 10
92.63212126561681
 20
34.81387587242426
 30
0.0
 11
92.63212126561681
 21
55.81387558932425
 31
0.0
  0
LINE
  5
12460
330
1F
100
AcDbEntity
  8
AM_0
100
AcDbLine
 10
127.6321214146168
 20
34.81387587242426
 30
0.0
 11
127.6321214146168
 21
55.81387558932425
 31
0.0
  0
LINE
  5
12461
330
1F
100
AcDbEntity
  8
AM_0
100
AcDbLine
 10
92.63212126561681
 20
34.45998167602426
 30
0.0
 11
92.63212126561681
 21
34.81387587242426
 31
0.0
  0
LINE
  5
12462
330
1F
100
AcDbEntity
  8
AM_0
100
AcDbLine
 10
127.6321214146168
 20
34.81387587242426
 30
0.0
 11
127.6321214146168
 21
34.45998167602426
 31
0.0
  0
LINE
  5
12463
330
1F
100
AcDbEntity
  8
AM_0
100
AcDbLine
 10
127.6321214146168
 20
34.31387579052426
 30
0.0
 11
92.63212126561681
 21
34.31387579052426
 31
0.0
  0
LINE
  5
12464
330
1F
100
AcDbEntity
  8
AM_0
100
AcDbLine
 10
92.63212126561681
 20
34.31387579052426
 30
0.0
 11
92.63212126561681
 21
34.45998167602426
 31
0.0
  0
LINE
  5
12465
330
1F
100
AcDbEntity
  8
AM_0
100
AcDbLine
 10
127.6321214146168
 20
34.45998167602426
 30
0.0
 11
127.6321214146168
 21
34.31387579052426
 31
0.0
  0
ARC
  5
124A1
330
1F
100
AcDbEntity
  8
AM_0
100
AcDbCircle
 10
189.1898771350258
 20
48.3088599081243
 30
0.0
 40
5.315148208181446
100
AcDbArc
 50
116.5408707231994
 51
153.3383795227006
  0
ARC
  5
124A2
330
1F
100
AcDbEntity
  8
AM_0
100
AcDbCircle
 10
189.1898771350258
 20
48.3088599081243
 30
0.0
 40
5.315148208181398
100
AcDbArc
 50
26.66162047729933
 51
63.45912927680054
  0
LINE
  5
124A3
330
1F
100
AcDbEntity
  8
AM_0
100
AcDbLine
 10
184.4398779248257
 20
50.69387571872425
 30
0.0
 11
184.4398779248257
 21
50.31387561912424
 31
0.0
  0
LINE
  5
124A4
330
1F
100
AcDbEntity
  8
AM_0
100
AcDbLine
 10
193.9398766880257
 20
50.31387561912424
 30
0.0
 11
193.9398766880257
 21
50.69387571872425
 31
0.0
  0
ARC
  5
124A5
330
1F
100
AcDbEntity
  8
AM_0
100
AcDbCircle
 10
221.1898771350258
 20
48.3088599081243
 30
0.0
 40
5.315148208181394
100
AcDbArc
 50
116.5408707231994
 51
153.3383795227006
  0
ARC
  5
124A6
330
1F
100
AcDbEntity
  8
AM_0
100
AcDbCircle
 10
221.1898771350258
 20
48.3088599081243
 30
0.0
 40
5.315148208181446
100
AcDbArc
 50
26.66162047729933
 51
63.45912927680054
  0
LINE
  5
124A7
330
1F
100
AcDbEntity
  8
AM_0
100
AcDbLine
 10
216.4398775820257
 20
50.69387571872425
 30
0.0
 11
216.4398775820257
 21
50.31387561912424
 31
0.0
  0
LINE
  5
124A8
330
1F
100
AcDbEntity
  8
AM_0
100
AcDbLine
 10
225.9398763452257
 20
50.31387561912424
 30
0.0
 11
225.9398763452257
 21
50.69387571872425
 31
0.0
  0
SPLINE
  5
124A9
330
1F
100
AcDbEntity
  8
AM_0
100
AcDbSpline
210
0.0
220
0.0
230
1.0
 70
     8
 71
     3
 72
    10
 73
     6
 74
     0
 42
0.0000000001
 43
0.0000000001
 40
0.0
 40
0.0
 40
0.0
 40
0.0
 40
0.4558386902686872
 40
0.9120089121642507
 40
1.0
 40
1.0
 40
1.0
 40
1.0
 10
209.2619160574877
 20
35.38401199486009
 30
0.0
 10
209.2668622069483
 20
35.32680683518242
 30
0.0
 10
209.2767581032052
 20
35.21235491049606
 30
0.0
 10
209.3401020768407
 20
35.09938410074443
 30
0.0
 10
209.3849100068639
 20
35.04806066282635
 30
0.0
 10
209.3921554659509
 20
35.03976164366952
 30
0.0
  0
ELLIPSE
  5
124AA
330
1F
100
AcDbEntity
  8
AM_0
100
AcDbEllipse
 10
204.3561284752258
 20
42.31387573092428
 30
0.0
 11
0.0
 21
56.49999999999992
 31
0.0
210
0.0
220
0.0
230
1.0
 40
0.0874886635
 41
4.589426899063263
 42
4.590615644927853
  0
SPLINE
  5
124AB
330
1F
100
AcDbEntity
  8
AM_0
100
AcDbSpline
210
0.0
220
0.0
230
1.0
 70
     8
 71
     3
 72
    10
 73
     6
 74
     0
 42
0.0000000001
 43
0.0000000001
 40
0.0
 40
0.0
 40
0.0
 40
0.0
 40
0.3799088083190852
 40
0.8438810831132245
 40
1.0
 40
1.0
 40
1.0
 40
1.0
 10
209.3976293143832
 20
35.77947670575134
 30
0.0
 10
209.3677589195087
 20
35.74395975834705
 30
0.0
 10
209.3014086253652
 20
35.66506693094197
 30
0.0
 10
209.2671669660941
 20
35.54428746905859
 30
0.0
 10
209.2635450557999
 20
35.46950261168416
 30
0.0
 10
209.2626331758703
 20
35.45067420210592
 30
0.0
  0
LINE
  5
124AC
330
1F
100
AcDbEntity
  8
AM_0
100
AcDbLine
 10
212.9205380951257
 20
38.2084633035243
 30
0.0
 11
214.4840880682258
 21
35.03976164362427
 31
0.0
  0
SPLINE
  5
124AE
330
1F
100
AcDbEntity
  8
AM_0
100
AcDbSpline
210
0.0
220
0.0
230
1.0
 70
     8
 71
     3
 72
    11
 73
     7
 74
     0
 42
0.0000000001
 43
0.0000000001
 40
0.0
 40
0.0
 40
0.0
 40
0.0
 40
0.0101808617274504
 40
0.3263822313195985
 40
0.717062070653745
 40
1.0
 40
1.0
 40
1.0
 40
1.0
 10
209.7403699916804
 20
34.86627114917985
 30
0.0
 10
209.7391263624549
 20
34.86634697055439
 30
0.0
 10
209.699257587843
 20
34.86877768320591
 30
0.0
 10
209.6116871735125
 20
34.88623529117257
 30
0.0
 10
209.4922716952957
 20
34.94325700123426
 30
0.0
 10
209.4217686695346
 20
35.01121670503261
 30
0.0
 10
209.3921554659509
 20
35.03976164366952
 30
0.0
  0
LINE
  5
124B0
330
1F
100
AcDbEntity
  8
AM_0
100
AcDbLine
 10
214.5930136938257
 20
34.86627114922425
 30
0.0
 11
209.7403699917258
 21
34.86627114922425
 31
0.0
  0
SPLINE
  5
124B1
330
1F
100
AcDbEntity
  8
AM_0
100
AcDbSpline
210
0.0
220
0.0
230
1.0
 70
     8
 71
     3
 72
    11
 73
     7
 74
     0
 42
0.0000000001
 43
0.0000000001
 40
0.0
 40
0.0
 40
0.0
 40
0.0
 40
0.346964785103109
 40
0.6023392363514707
 40
0.8591450460341805
 40
1.0
 40
1.0
 40
1.0
 40
1.0
 10
214.4840880681777
 20
35.03976164366952
 30
0.0
 10
214.5018705099218
 20
35.01118834310546
 30
0.0
 10
214.5327412577341
 20
34.96158440408709
 30
0.0
 10
214.5687456879813
 20
34.90450799175517
 30
0.0
 10
214.5880212276601
 20
34.87412288671499
 30
0.0
 10
214.5917078571426
 20
34.86832486106397
 30
0.0
 10
214.5930136938596
 20
34.86627114917985
 30
0.0
  0
LINE
  5
124B3
330
1F
100
AcDbEntity
  8
AM_0
100
AcDbLine
 10
214.5930136938257
 20
34.86627114922425
 30
0.0
 11
214.6264537622257
 21
34.81387587242426
 31
0.0
  0
LINE
  5
124B4
330
1F
100
AcDbEntity
  8
AM_0
100
AcDbLine
 10
216.5058375721258
 20
38.11387585452428
 30
0.0
 11
216.5058375721258
 21
38.31387551482431
 31
0.0
  0
LINE
  5
124B5
330
1F
100
AcDbEntity
  8
AM_0
100
AcDbLine
 10
216.5075325791257
 20
38.31387551482431
 30
0.0
 11
216.5075325791257
 21
38.11387585452428
 31
0.0
  0
LINE
  5
124B6
102
{ACAD_REACTORS
330
13D4C
102
}
330
1F
100
AcDbEntity
  8
AM_0
100
AcDbLine
 10
223.8898770337257
 20
38.31387551482431
 30
0.0
 11
223.8898770337257
 21
39.81387576072427
 31
0.0
  0
LINE
  5
124B7
330
1F
100
AcDbEntity
  8
AM_0
100
AcDbLine
 10
223.8898770337257
 20
38.31387551482431
 30
0.0
 11
221.1898778950257
 21
38.31387551482431
 31
0.0
  0
LINE
  5
124B8
330
1F
100
AcDbEntity
  8
AM_0
100
AcDbLine
 10
218.4898768936257
 20
39.81387576072427
 30
0.0
 11
218.4898768936257
 21
38.31387551482431
 31
0.0
  0
LINE
  5
124B9
330
1F
100
AcDbEntity
  8
AM_0
100
AcDbLine
 10
221.1898778950257
 20
38.31387551482431
 30
0.0
 11
218.4898768936257
 21
38.31387551482431
 31
0.0
  0
LINE
  5
124BA
330
1F
100
AcDbEntity
  8
AM_0
100
AcDbLine
 10
216.1898770754257
 20
38.31387551482431
 30
0.0
 11
216.1898770754257
 21
39.81387576072427
 31
0.0
  0
LINE
  5
124BB
330
1F
100
AcDbEntity
  8
AM_0
100
AcDbLine
 10
218.0041409482257
 20
38.11387585452428
 30
0.0
 11
218.0041409482257
 21
38.31387551482431
 31
0.0
  0
LINE
  5
124BC
330
1F
100
AcDbEntity
  8
AM_0
100
AcDbLine
 10
216.6560291697257
 20
38.11387585452428
 30
0.0
 11
216.6560291697257
 21
38.31387551482431
 31
0.0
  0
LINE
  5
124BD
330
1F
100
AcDbEntity
  8
AM_0
100
AcDbLine
 10
216.1898770754257
 20
39.81387576072427
 30
0.0
 11
218.4898768936257
 21
39.81387576072427
 31
0.0
  0
LINE
  5
124BE
330
1F
100
AcDbEntity
  8
AM_0
100
AcDbLine
 10
217.8550753196257
 20
38.11387585452428
 30
0.0
 11
218.0041409482257
 21
38.11387585452428
 31
0.0
  0
LINE
  5
124BF
330
1F
100
AcDbEntity
  8
AM_0
100
AcDbLine
 10
216.5075325791257
 20
38.11387585452428
 30
0.0
 11
216.6560291697257
 21
38.11387585452428
 31
0.0
  0
LINE
  5
124C0
330
1F
100
AcDbEntity
  8
AM_0
100
AcDbLine
 10
216.5075325791257
 20
38.31387551482431
 30
0.0
 11
216.1898770754257
 21
38.31387551482431
 31
0.0
  0
LINE
  5
124C1
330
1F
100
AcDbEntity
  8
AM_0
100
AcDbLine
 10
218.4898768936257
 20
38.31387551482431
 30
0.0
 11
218.0041409482257
 21
38.31387551482431
 31
0.0
  0
LINE
  5
124C2
330
1F
100
AcDbEntity
  8
AM_0
100
AcDbLine
 10
217.8550753196257
 20
38.31387551482431
 30
0.0
 11
216.6560291697257
 21
38.31387551482431
 31
0.0
  0
LINE
  5
124C3
330
1F
100
AcDbEntity
  8
AM_0
100
AcDbLine
 10
217.8550753196257
 20
38.31387551482431
 30
0.0
 11
217.8550753196257
 21
38.11387585452428
 31
0.0
  0
LINE
  5
124C4
102
{ACAD_REACTORS
330
13D4C
102
}
330
1F
100
AcDbEntity
  8
AM_0
100
AcDbLine
 10
225.6898777012258
 20
38.31387551482431
 30
0.0
 11
223.8898770337257
 21
38.31387551482431
 31
0.0
  0
LINE
  5
124C5
102
{ACAD_REACTORS
330
13D4C
102
}
330
1F
100
AcDbEntity
  8
AM_0
100
AcDbLine
 10
225.6898777012258
 20
39.81387576072427
 30
0.0
 11
225.6898777012258
 21
38.31387551482431
 31
0.0
  0
LINE
  5
124C6
330
1F
100
AcDbEntity
  8
AM_0
100
AcDbLine
 10
223.8898770337257
 20
39.81387576072427
 30
0.0
 11
225.6898777012258
 21
39.81387576072427
 31
0.0
  0
LINE
  5
124C7
330
1F
100
AcDbEntity
  8
AM_0
100
AcDbLine
 10
218.0058378179257
 20
38.11387585452428
 30
0.0
 11
218.0058378179257
 21
38.31387551482431
 31
0.0
  0
LINE
  5
124C8
330
1F
100
AcDbEntity
  8
AM_0
100
AcDbLine
 10
217.7903707524257
 20
38.11387585452428
 30
0.0
 11
217.7903707524257
 21
38.31387551482431
 31
0.0
  0
SPLINE
  5
124C9
330
1F
100
AcDbEntity
  8
AM_0
100
AcDbSpline
210
0.0
220
0.0
230
1.0
 70
    24
 71
     3
 72
     9
 73
     5
 74
     0
 42
0.0000000001
 43
0.0000000001
 40
0.0
 40
0.0
 40
0.0
 40
0.0
 40
0.560420653861871
 40
1.0
 40
1.0
 40
1.0
 40
1.0
 10
217.7903707523846
 20
38.11387585457317
 30
0.0
 10
217.8114669642636
 20
38.11387585457317
 30
0.0
 10
217.8491104945896
 20
38.11387585457317
 30
0.0
 10
217.8564168379909
 20
38.11387585457317
 30
0.0
 10
217.8596285556459
 20
38.11387585457317
 30
0.0
  0
LINE
  5
124CA
330
1F
100
AcDbEntity
  8
AM_0
100
AcDbLine
 10
216.7207337369259
 20
38.11387585452428
 30
0.0
 11
216.7207337369259
 21
38.31387551482431
 31
0.0
  0
SPLINE
  5
124CB
330
1F
100
AcDbEntity
  8
AM_0
100
AcDbSpline
210
0.0
220
0.0
230
1.0
 70
    24
 71
     3
 72
     9
 73
     5
 74
     0
 42
0.0000000001
 43
0.0000000001
 40
0.0
 40
0.0
 40
0.0
 40
0.0
 40
0.55829755055295
 40
1.0
 40
1.0
 40
1.0
 40
1.0
 10
216.651476864984
 20
38.11387585457317
 30
0.0
 10
216.6566797467491
 20
38.11387585457317
 30
0.0
 10
216.6659989382087
 20
38.11387585457317
 30
0.0
 10
216.7039643302596
 20
38.11387585457317
 30
0.0
 10
216.7207337369227
 20
38.11387585457317
 30
0.0
  0
SPLINE
  5
124CC
330
1F
100
AcDbEntity
  8
AM_0
100
AcDbSpline
210
0.0
220
0.0
230
1.0
 70
    24
 71
     3
 72
    10
 73
     6
 74
     0
 42
0.0000000001
 43
0.0000000001
 40
0.0
 40
0.0
 40
0.0
 40
0.0
 40
0.5610382656481101
 40
0.7814245190324653
 40
1.0
 40
1.0
 40
1.0
 40
1.0
 10
217.2594004695322
 20
38.11387585457317
 30
0.0
 10
217.3616677669286
 20
38.11387585457317
 30
0.0
 10
217.504107558604
 20
38.11387585457317
 30
0.0
 10
217.6870879661198
 20
38.11387585457317
 30
0.0
 10
217.7560379661066
 20
38.11387585457317
 30
0.0
 10
217.7903707523846
 20
38.11387585457317
 30
0.0
  0
SPLINE
  5
124CD
330
1F
100
AcDbEntity
  8
AM_0
100
AcDbSpline
210
0.0
220
0.0
230
1.0
 70
    24
 71
     3
 72
    10
 73
     6
 74
     0
 42
0.0000000001
 43
0.0000000001
 40
0.0
 40
0.0
 40
0.0
 40
0.0
 40
0.2778644237431174
 40
0.558626989471151
 40
1.0
 40
1.0
 40
1.0
 40
1.0
 10
216.7207337369227
 20
38.11387585457317
 30
0.0
 10
216.7662478237637
 20
38.11387585457317
 30
0.0
 10
216.8577507119996
 20
38.11387585457317
 30
0.0
 10
217.0448036002543
 20
38.11387585457317
 30
0.0
 10
217.1779938797407
 20
38.11387585457317
 30
0.0
 10
217.2594004695322
 20
38.11387585457317
 30
0.0
  0
LINE
  5
124CE
330
1F
100
AcDbEntity
  8
AM_0
100
AcDbLine
 10
216.1898770754257
 20
38.01387555882428
 30
0.0
 11
216.1898770754257
 21
38.31387551482431
 31
0.0
  0
LINE
  5
124D0
330
1F
100
AcDbEntity
  8
AM_0
100
AcDbLine
 10
225.9898771916258
 20
34.31387579052426
 30
0.0
 11
216.1898770754257
 21
34.31387579052426
 31
0.0
  0
LINE
  5
124D1
330
1F
100
AcDbEntity
  8
AM_0
100
AcDbLine
 10
225.9898771916258
 20
34.81387587242426
 30
0.0
 11
225.9898771916258
 21
34.31387579052426
 31
0.0
  0
LINE
  5
124D2
330
1F
100
AcDbEntity
  8
AM_0
100
AcDbLine
 10
216.1898770754257
 20
34.31387579052426
 30
0.0
 11
216.1898770754257
 21
34.81387587242426
 31
0.0
  0
ARC
  5
124D3
330
1F
100
AcDbEntity
  8
AM_0
100
AcDbCircle
 10
225.6898771350258
 20
39.51387573092427
 30
0.0
 40
0.3000000000000114
100
AcDbArc
 50
0.0
 51
90.0
  0
LINE
  5
124D4
330
1F
100
AcDbEntity
  8
AM_0
100
AcDbLine
 10
225.9898771916258
 20
39.51387580462426
 30
0.0
 11
225.9898771916258
 21
34.81387587242426
 31
0.0
  0
LINE
  5
124D5
330
1F
100
AcDbEntity
  8
AM_0
100
AcDbLine
 10
216.1898770754257
 20
38.01387555882428
 30
0.0
 11
216.1898770754257
 21
36.31387611832429
 31
0.0
  0
LINE
  5
124D6
330
1F
100
AcDbEntity
  8
AM_0
100
AcDbLine
 10
231.2734340702258
 20
35.39743328452426
 30
0.0
 11
233.1898779993256
 21
37.31387535092427
 31
0.0
  0
ELLIPSE
  5
124D7
330
1F
100
AcDbEntity
  8
AM_0
100
AcDbEllipse
 10
229.8582855532258
 20
36.82151540602428
 30
0.0
 11
-0.7687909309413499
 21
1.856025492108145
 31
0.0
210
-0.0000000000000016
220
-0.0000000000000007
230
1.0
 40
0.9955461672999998
 41
2.750469265995345
 42
3.532716041184283
  0
LINE
  5
124D8
330
1F
100
AcDbEntity
  8
AM_0
100
AcDbLine
 10
225.9898771916258
 20
34.81387587242426
 30
0.0
 11
226.1898768519258
 21
34.81387587242426
 31
0.0
  0
LINE
  5
124D9
330
1F
100
AcDbEntity
  8
AM_0
100
AcDbLine
 10
229.1898773436257
 20
34.81387587242426
 30
0.0
 11
229.8646019225258
 21
34.81387587242426
 31
0.0
  0
ARC
  5
124DA
330
1F
100
AcDbEntity
  8
AM_0
100
AcDbCircle
 10
206.3639828678257
 20
34.51387573092427
 30
0.0
 40
0.2000000000000139
100
AcDbArc
 50
195.6328576720998
 51
270.0
  0
ARC
  5
124DB
330
1F
100
AcDbEntity
  8
AM_0
100
AcDbCircle
 10
205.6898771350258
 20
34.32524524302432
 30
0.0
 40
0.5000000000000016
100
AcDbArc
 50
15.63285767209983
 51
92.60525126510055
  0
LINE
  5
124DC
330
1F
100
AcDbEntity
  8
AM_0
100
AcDbLine
 10
214.9587580387257
 20
34.31387579052426
 30
0.0
 11
214.6264537622257
 21
34.81387587242426
 31
0.0
  0
LINE
  5
124DD
330
1F
100
AcDbEntity
  8
AM_0
100
AcDbLine
 10
214.9587580387257
 20
34.31387579052426
 30
0.0
 11
206.3639828156258
 21
34.31387579052426
 31
0.0
  0
LINE
  5
124DE
330
1F
100
AcDbEntity
  8
AM_0
100
AcDbLine
 10
226.4398773585257
 20
47.3138758259243
 30
0.0
 11
226.4398773585257
 21
50.31387561912424
 31
0.0
  0
LINE
  5
124DF
330
1F
100
AcDbEntity
  8
AM_0
100
AcDbLine
 10
215.9398775001257
 20
50.31387561912424
 30
0.0
 11
215.9398775001257
 21
47.3138758259243
 31
0.0
  0
LINE
  5
124E0
330
1F
100
AcDbEntity
  8
AM_0
100
AcDbLine
 10
226.4398773585257
 20
50.31387561912424
 30
0.0
 11
215.9398775001257
 21
50.31387561912424
 31
0.0
  0
LINE
  5
124E1
330
1F
100
AcDbEntity
  8
AM_0
100
AcDbLine
 10
226.4398773585257
 20
47.3138758259243
 30
0.0
 11
215.9398775001257
 21
47.3138758259243
 31
0.0
  0
LINE
  5
124E2
330
1F
100
AcDbEntity
  8
AM_0
100
AcDbLine
 10
230.7756632501774
 20
49.72808961581873
 30
0.0
 11
234.604090584741
 21
45.89966228115526
 31
0.0
  0
ARC
  5
124E3
330
1F
100
AcDbEntity
  8
AM_0
100
AcDbCircle
 10
233.1898771350258
 20
44.48544860612429
 30
0.0
 40
2.000000000000005
100
AcDbArc
 50
0.0
 51
45.00000456424738
  0
LINE
  5
124E4
330
1F
100
AcDbEntity
  8
AM_0
100
AcDbLine
 10
235.1898771350258
 20
44.48544860612429
 30
0.0
 11
235.1898771350258
 21
39.14230260464851
 31
0.0
  0
ARC
  5
124E5
330
1F
100
AcDbEntity
  8
AM_0
100
AcDbCircle
 10
233.1898771350258
 20
39.14230285562428
 30
0.0
 40
2.000000000000005
100
AcDbArc
 50
315.000000003733
 51
359.9999928100728
  0
LINE
  5
124E6
330
1F
100
AcDbEntity
  8
AM_0
100
AcDbLine
 10
234.6040906974911
 20
37.72808929334332
 30
0.0
 11
233.8363238542136
 21
36.96032245012555
 31
0.0
  0
ARC
  5
124E7
330
1F
100
AcDbEntity
  8
AM_0
100
AcDbCircle
 10
233.4827703538257
 20
37.31387573092428
 30
0.0
 40
0.5000000000000142
100
AcDbArc
 50
270.0
 51
315.0000177929664
  0
LINE
  5
124E8
330
1F
100
AcDbEntity
  8
AM_0
100
AcDbLine
 10
233.4827696358258
 20
36.81387526892428
 30
0.0
 11
233.3898776595257
 21
36.81387526892428
 31
0.0
  0
ARC
  5
124E9
330
1F
100
AcDbEntity
  8
AM_0
100
AcDbCircle
 10
233.3898771350257
 20
37.01387573092427
 30
0.0
 40
0.1999999999999886
100
AcDbArc
 50
180.0
 51
270.0
  0
LINE
  5
124EA
330
1F
100
AcDbEntity
  8
AM_0
100
AcDbLine
 10
233.1898771350257
 20
37.01387573092427
 30
0.0
 11
233.1898771350237
 21
37.31387429042257
 31
0.0
  0
ARC
  5
124EB
330
1F
100
AcDbEntity
  8
AM_0
100
AcDbCircle
 10
232.6898771350258
 20
37.31387573092428
 30
0.0
 40
0.5
100
AcDbArc
 50
359.9998349306637
 51
90.0000170741441
  0
LINE
  5
124EC
330
1F
100
AcDbEntity
  8
AM_0
100
AcDbLine
 10
232.6898769860258
 20
37.81387573092426
 30
0.0
 11
232.6898769860258
 21
39.81387573092431
 31
0.0
  0
ARC
  5
124ED
330
1F
100
AcDbEntity
  8
AM_0
100
AcDbCircle
 10
232.6898771350258
 20
40.31387573092428
 30
0.0
 40
0.5
100
AcDbArc
 50
269.9999829258559
 51
0.0
  0
LINE
  5
124EE
330
1F
100
AcDbEntity
  8
AM_0
100
AcDbLine
 10
233.1898771350258
 20
44.27834171591842
 30
0.0
 11
233.1898771350258
 21
40.31387573092428
 31
0.0
  0
ARC
  5
124EF
330
1F
100
AcDbEntity
  8
AM_0
100
AcDbCircle
 10
232.6898771350258
 20
44.27834182492427
 30
0.0
 40
0.500000000000004
100
AcDbArc
 50
359.9999875088508
 51
45.00001315265323
  0
LINE
  5
124F0
330
1F
100
AcDbEntity
  8
AM_0
100
AcDbLine
 10
230.5078965892037
 20
47.16742915203292
 30
0.0
 11
233.0434304444584
 21
44.63189529667824
 31
0.0
  0
ARC
  5
124F1
330
1F
100
AcDbEntity
  8
AM_0
100
AcDbCircle
 10
230.1543432291258
 20
46.81387573092428
 30
0.0
 40
0.500000000000004
100
AcDbArc
 50
45.00000494522724
 51
90.0
  0
ARC
  5
124F2
330
1F
100
AcDbEntity
  8
AM_0
100
AcDbCircle
 10
229.3614500103257
 20
48.31387573092428
 30
0.0
 40
2.000000000000015
100
AcDbArc
 50
45.0000130667065
 51
90.0
  0
LINE
  5
124F3
330
1F
100
AcDbEntity
  8
AM_0
100
AcDbLine
 10
226.4398773585257
 20
50.31387561912424
 30
0.0
 11
229.3614500103257
 21
50.3138757309243
 31
0.0
  0
LINE
  5
124F4
330
1F
100
AcDbEntity
  8
AM_0
100
AcDbLine
 10
226.4398773585257
 20
47.3138758259243
 30
0.0
 11
230.1543432291258
 21
47.31387573092428
 31
0.0
  0
LINE
  5
124F5
330
1F
100
AcDbEntity
  8
AM_0
100
AcDbLine
 10
223.7898772035258
 20
39.81387576072427
 30
0.0
 11
223.7898772035258
 21
43.31387563592426
 31
0.0
  0
LINE
  5
124F6
330
1F
100
AcDbEntity
  8
AM_0
100
AcDbLine
 10
218.5898767237258
 20
43.31387563592426
 30
0.0
 11
218.5898767237258
 21
39.81387576072427
 31
0.0
  0
LINE
  5
124F7
330
1F
100
AcDbEntity
  8
AM_0
100
AcDbLine
 10
223.7898772035258
 20
39.81387576072427
 30
0.0
 11
218.5898767237258
 21
39.81387576072427
 31
0.0
  0
LINE
  5
124F8
330
1F
100
AcDbEntity
  8
AM_0
100
AcDbLine
 10
223.7898772035258
 20
43.31387563592426
 30
0.0
 11
218.5898767237258
 21
43.31387563592426
 31
0.0
  0
ARC
  5
124F9
330
1F
100
AcDbEntity
  8
AM_0
100
AcDbCircle
 10
214.8898771350257
 20
38.56387573092428
 30
0.0
 40
1.25
100
AcDbArc
 50
90.0
 51
270.0000725747252
  0
LINE
  5
124FA
330
1F
100
AcDbEntity
  8
AM_0
100
AcDbLine
 10
214.8898787183606
 20
37.31387573092528
 30
0.0
 11
215.1898771350258
 21
37.31387573092428
 31
0.0
  0
ARC
  5
124FB
330
1F
100
AcDbEntity
  8
AM_0
100
AcDbCircle
 10
215.1898771350258
 20
36.31387573092428
 30
0.0
 40
1.0
100
AcDbArc
 50
0.0
 51
90.0
  0
LINE
  5
124FC
330
1F
100
AcDbEntity
  8
AM_0
100
AcDbLine
 10
216.1898771350258
 20
36.31387573092428
 30
0.0
 11
216.1898770754257
 21
34.81387587242426
 31
0.0
  0
ARC
  5
124FD
330
1F
100
AcDbEntity
  8
AM_0
100
AcDbCircle
 10
215.6898771350258
 20
34.81387573092428
 30
0.0
 40
0.5000000000000285
100
AcDbArc
 50
270.0
 51
0.0
  0
LINE
  5
124FE
330
1F
100
AcDbEntity
  8
AM_0
100
AcDbLine
 10
218.5898767237258
 20
39.81387576072427
 30
0.0
 11
214.8898771350257
 21
39.81387573092428
 31
0.0
  0
LINE
  5
124FF
330
1F
100
AcDbEntity
  8
AM_0
100
AcDbLine
 10
218.5898767237258
 20
43.31387563592426
 30
0.0
 11
211.8145077971639
 21
43.31387563592426
 31
0.0
  0
LINE
  5
12500
330
1F
100
AcDbEntity
  8
AM_0
100
AcDbLine
 10
215.6898771350258
 20
34.31387573092425
 30
0.0
 11
214.9587580387257
 21
34.31387579052426
 31
0.0
  0
ARC
  5
12501
102
{ACAD_REACTORS
330
13D4C
102
}
330
1F
100
AcDbEntity
  8
AM_0
100
AcDbCircle
 10
225.6898771350258
 20
39.31387573092428
 30
0.0
 40
0.5
100
AcDbArc
 50
0.0000036045412458
 51
90.0
  0
ARC
  5
12502
330
1F
100
AcDbEntity
  8
AM_0
100
AcDbCircle
 10
227.1898771350258
 20
41.31387573092427
 30
0.0
 40
2.0
100
AcDbArc
 50
0.0
 51
90.0
  0
LINE
  5
12503
330
1F
100
AcDbEntity
  8
AM_0
100
AcDbLine
 10
229.1898771350258
 20
40.31387562662433
 30
0.0
 11
229.1898771350258
 21
41.31387573092427
 31
0.0
  0
ARC
  5
12504
330
1F
100
AcDbEntity
  8
AM_0
100
AcDbCircle
 10
229.6898771350258
 20
40.31387573092428
 30
0.0
 40
0.5
100
AcDbArc
 50
180.000011951893
 51
269.9999265811725
  0
LINE
  5
12505
330
1F
100
AcDbEntity
  8
AM_0
100
AcDbLine
 10
229.6898764943257
 20
39.81387573092468
 30
0.0
 11
229.6898764943257
 21
37.81387573092388
 31
0.0
  0
ARC
  5
12506
330
1F
100
AcDbEntity
  8
AM_0
100
AcDbCircle
 10
229.6898771350258
 20
37.31387573092428
 30
0.0
 40
0.5
100
AcDbArc
 50
90.00007341882753
 51
180.0
  0
LINE
  5
12507
330
1F
100
AcDbEntity
  8
AM_0
100
AcDbLine
 10
229.1898771350258
 20
37.31387573092428
 30
0.0
 11
229.1898773436257
 21
34.81387587242426
 31
0.0
  0
ARC
  5
12508
330
1F
100
AcDbEntity
  8
AM_0
100
AcDbCircle
 10
228.6898771350258
 20
34.81387573092428
 30
0.0
 40
0.5000000000000142
100
AcDbArc
 50
270.0
 51
0.0
  0
LINE
  5
12509
330
1F
100
AcDbEntity
  8
AM_0
100
AcDbLine
 10
228.6898771350258
 20
34.31387573092428
 30
0.0
 11
226.6898771201258
 21
34.31387573092428
 31
0.0
  0
ARC
  5
1250A
330
1F
100
AcDbEntity
  8
AM_0
100
AcDbCircle
 10
226.6898771350258
 20
34.81387573092428
 30
0.0
 40
0.5000000000000142
100
AcDbArc
 50
180.0
 51
269.999998292583
  0
LINE
  5
1250B
330
1F
100
AcDbEntity
  8
AM_0
100
AcDbLine
 10
226.1898771350258
 20
34.81387573092428
 30
0.0
 11
226.1898771350258
 21
39.31387576237984
 31
0.0
  0
LINE
  5
1250C
102
{ACAD_REACTORS
330
13D4C
102
}
330
1F
100
AcDbEntity
  8
AM_0
100
AcDbLine
 10
225.6898777012258
 20
39.81387576072427
 30
0.0
 11
223.7898772035258
 21
39.81387576072427
 31
0.0
  0
LINE
  5
1250D
330
1F
100
AcDbEntity
  8
AM_0
100
AcDbLine
 10
227.1898771350258
 20
43.31387573092428
 30
0.0
 11
223.7898772035258
 21
43.31387563592426
 31
0.0
  0
ARC
  5
1250E
330
1F
100
AcDbEntity
  8
AM_0
100
AcDbCircle
 10
215.5460347236257
 20
52.31387573092428
 30
0.0
 40
2.000000000000053
100
AcDbArc
 50
214.0557977426018
 51
270.0
  0
LINE
  5
1250F
330
1F
100
AcDbEntity
  8
AM_0
100
AcDbLine
 10
215.5460351531257
 20
50.31387561912424
 30
0.0
 11
215.9398775001257
 21
50.31387561912424
 31
0.0
  0
ARC
  5
12510
330
1F
100
AcDbEntity
  8
AM_0
100
AcDbCircle
 10
205.1898771350258
 20
45.31387573092428
 30
0.0
 40
10.50000000000003
100
AcDbArc
 50
34.05579774260132
 51
36.95828047120089
  0
LINE
  5
12511
330
1F
100
AcDbEntity
  8
AM_0
100
AcDbLine
 10
212.1060951066258
 20
47.3138758259243
 30
0.0
 11
215.9398775001257
 21
47.3138758259243
 31
0.0
  0
SPLINE
  5
12512
330
1F
100
AcDbEntity
  8
AM_1
100
AcDbSpline
210
0.0
220
0.0
230
1.0
 70
     8
 71
     3
 72
    13
 73
     9
 74
     0
 42
0.0000000001
 43
0.0000000001
 40
0.0
 40
0.0
 40
0.0
 40
0.0
 40
0.1976112917356977
 40
0.401953015322428
 40
0.5489075911631172
 40
0.7005285358836954
 40
0.8488856717014119
 40
1.0
 40
1.0
 40
1.0
 40
1.0
 10
212.7717476722802
 20
38.61571669559828
 30
0.0
 10
212.5254689609011
 20
39.41349841844107
 30
0.0
 10
212.0245235453881
 20
41.03623346687476
 30
0.0
 10
211.7525874832544
 20
43.43475366549831
 30
0.0
 10
211.8198466163284
 20
45.66083645897236
 30
0.0
 10
212.1303641113265
 20
47.60373863450559
 30
0.0
 10
212.6453658542756
 20
49.48908104559172
 30
0.0
 10
213.141912632154
 20
50.64990453698607
 30
0.0
 10
213.3924718399549
 20
51.23566005360237
 30
0.0
  0
SPLINE
  5
12513
330
1F
100
AcDbEntity
  8
AM_0
100
AcDbSpline
210
0.0
220
0.0
230
1.0
 70
     8
 71
     3
 72
    11
 73
     7
 74
     0
 42
0.0000000001
 43
0.0000000001
 40
0.0
 40
0.0
 40
0.0
 40
0.0
 40
0.3285740904087475
 40
0.6584815344305435
 40
0.9531699512620402
 40
1.0
 40
1.0
 40
1.0
 40
1.0
 10
212.7717476722802
 20
38.61571669559828
 30
0.0
 10
212.7797195665486
 20
38.59315401983128
 30
0.0
 10
212.7956957050316
 20
38.54793710896206
 30
0.0
 10
212.8131161122916
 20
38.49939868755581
 30
0.0
 10
212.8197186624616
 20
38.48109467269501
 30
0.0
 10
212.8207985697619
 20
38.47810181952349
 30
0.0
 10
212.8209466499294
 20
38.47769143041126
 30
0.0
  0
SPLINE
  5
12514
330
1F
100
AcDbEntity
  8
AM_0
100
AcDbSpline
210
0.0
220
0.0
230
1.0
 70
     8
 71
     3
 72
    11
 73
     7
 74
     0
 42
0.0000000001
 43
0.0000000001
 40
0.0
 40
0.0
 40
0.0
 40
0.0
 40
0.2637753055475298
 40
0.5269663992288049
 40
0.8058676848017963
 40
1.0
 40
1.0
 40
1.0
 40
1.0
 10
213.4548294742609
 20
51.36839540656558
 30
0.0
 10
213.453014508728
 20
51.36457573090848
 30
0.0
 10
213.449388597464
 20
51.35694483944559
 30
0.0
 10
213.4329320971569
 20
51.32215162959346
 30
0.0
 10
213.4132061392719
 20
51.28018924145601
 30
0.0
 10
213.3985051180856
 20
51.2486171818444
 30
0.0
 10
213.3924718399549
 20
51.23566005360237
 30
0.0
  0
ARC
  5
12515
330
1F
100
AcDbEntity
  8
AM_0
100
AcDbCircle
 10
205.1898771350258
 20
45.31387573092428
 30
0.0
 40
10.29999999999999
100
AcDbArc
 50
245.3821597505011
 51
317.9819347617985
  0
ARC
  5
12516
330
1F
100
AcDbEntity
  8
AM_0
100
AcDbCircle
 10
205.1898771350258
 20
45.31387573092428
 30
0.0
 40
10.3
100
AcDbArc
 50
36.38822585479957
 51
158.2466444511001
  0
LINE
  5
12517
330
1F
100
AcDbEntity
  8
AM_0
100
AcDbLine
 10
213.4548294742257
 20
51.36839540652426
 30
0.0
 11
213.4815388744257
 21
51.4243865197243
 31
0.0
  0
LINE
  5
12518
330
1F
100
AcDbEntity
  8
AM_0
100
AcDbLine
 10
212.8420955886258
 20
38.41941764562426
 30
0.0
 11
212.8209466499258
 21
38.47769143042427
 31
0.0
  0
LINE
  5
12519
330
1F
100
AcDbEntity
  8
AM_0
100
AcDbLine
 10
177.1898762707257
 20
37.01387586052431
 30
0.0
 11
177.1898762707257
 21
37.31387535092427
 31
0.0
  0
ARC
  5
1251A
330
1F
100
AcDbEntity
  8
AM_0
100
AcDbCircle
 10
176.9898771350257
 20
37.01387573092427
 30
0.0
 40
0.2000000000000455
100
AcDbArc
 50
270.0
 51
0.0
  0
LINE
  5
1251B
330
1F
100
AcDbEntity
  8
AM_0
100
AcDbLine
 10
176.8969846342258
 20
36.81387526892428
 30
0.0
 11
176.9898766105257
 21
36.81387526892428
 31
0.0
  0
ARC
  5
1251C
330
1F
100
AcDbEntity
  8
AM_0
100
AcDbCircle
 10
176.8969839162257
 20
37.31387573092428
 30
0.0
 40
0.500000000000004
100
AcDbArc
 50
225.0000000000001
 51
270.0
  0
LINE
  5
1251D
330
1F
100
AcDbEntity
  8
AM_0
100
AcDbLine
 10
175.7756629412257
 20
37.72808944792428
 30
0.0
 11
176.5434303705257
 21
36.96032201852427
 31
0.0
  0
ARC
  5
1251E
330
1F
100
AcDbEntity
  8
AM_0
100
AcDbCircle
 10
177.1898771350258
 20
39.14230285562428
 30
0.0
 40
2.000000000000045
100
AcDbArc
 50
180.0
 51
225.0000000000001
  0
LINE
  5
1251F
330
1F
100
AcDbEntity
  8
AM_0
100
AcDbLine
 10
175.1898778056258
 20
44.48544858472428
 30
0.0
 11
175.1898778056258
 21
39.14230277742428
 31
0.0
  0
ARC
  5
12520
330
1F
100
AcDbEntity
  8
AM_0
100
AcDbCircle
 10
177.1898771350258
 20
44.48544860612429
 30
0.0
 40
2.000000000000045
100
AcDbArc
 50
134.9999999999999
 51
180.0
  0
LINE
  5
12521
330
1F
100
AcDbEntity
  8
AM_0
100
AcDbLine
 10
179.6040916268257
 20
49.72808908652428
 30
0.0
 11
175.7756629412257
 21
45.89966214712427
 31
0.0
  0
ARC
  5
12522
330
1F
100
AcDbEntity
  8
AM_0
100
AcDbCircle
 10
181.0183042597257
 20
48.31387573092428
 30
0.0
 40
2.0
100
AcDbArc
 50
90.0
 51
134.9999999999999
  0
LINE
  5
12523
330
1F
100
AcDbEntity
  8
AM_0
100
AcDbLine
 10
194.8337191169257
 20
50.31387561912424
 30
0.0
 11
181.0183049564257
 21
50.31387561912424
 31
0.0
  0
ARC
  5
12524
330
1F
100
AcDbEntity
  8
AM_0
100
AcDbCircle
 10
194.8337195464258
 20
52.31387573092428
 30
0.0
 40
2.000000000000053
100
AcDbArc
 50
270.0
 51
325.9442022573982
  0
ARC
  5
12525
330
1F
100
AcDbEntity
  8
AM_0
100
AcDbCircle
 10
205.1898771350258
 20
45.31387573092428
 30
0.0
 40
10.50000000000002
100
AcDbArc
 50
36.95828047120089
 51
145.9442022573981
  0
LINE
  5
12526
330
1F
100
AcDbEntity
  8
AM_0
100
AcDbLine
 10
213.5801491712258
 20
51.62682577952427
 30
0.0
 11
213.4815391181532
 21
51.42438647533504
 31
0.0
  0
ARC
  5
12527
330
1F
100
AcDbEntity
  8
AM_0
100
AcDbCircle
 10
204.6898771350258
 20
34.32524524302432
 30
0.0
 40
0.5000000000000054
100
AcDbArc
 50
87.39474873489944
 51
164.3671423279001
  0
ARC
  5
12528
330
1F
100
AcDbEntity
  8
AM_0
100
AcDbCircle
 10
204.0157714022257
 20
34.51387573092427
 30
0.0
 40
0.2000000000000101
100
AcDbArc
 50
270.0
 51
344.3671423279
  0
LINE
  5
12529
330
1F
100
AcDbEntity
  8
AM_0
100
AcDbLine
 10
194.6898772766257
 20
34.31387579052426
 30
0.0
 11
204.0157714545256
 21
34.31387579052426
 31
0.0
  0
ARC
  5
1252A
330
1F
100
AcDbEntity
  8
AM_0
100
AcDbCircle
 10
194.6898771350258
 20
34.81387573092428
 30
0.0
 40
0.5
100
AcDbArc
 50
180.0
 51
270.0
  0
ARC
  5
1252B
330
1F
100
AcDbEntity
  8
AM_0
100
AcDbCircle
 10
183.6898771350258
 20
34.81387573092428
 30
0.0
 40
0.5
100
AcDbArc
 50
270.0
 51
0.0
  0
LINE
  5
1252C
330
1F
100
AcDbEntity
  8
AM_0
100
AcDbLine
 10
181.6898779397258
 20
34.31387579052426
 30
0.0
 11
183.6898764048257
 21
34.31387579052426
 31
0.0
  0
ARC
  5
1252D
330
1F
100
AcDbEntity
  8
AM_0
100
AcDbCircle
 10
181.6898771350258
 20
34.81387573092428
 30
0.0
 40
0.5
100
AcDbArc
 50
180.0
 51
270.0
  0
LINE
  5
1252E
330
1F
100
AcDbEntity
  8
AM_0
100
AcDbLine
 10
212.8420955886258
 20
38.41941764562426
 30
0.0
 11
212.9205380951257
 21
38.2084633035243
 31
0.0
  0
ARC
  5
1252F
330
1F
100
AcDbEntity
  8
AM_0
100
AcDbCircle
 10
205.1898771350258
 20
45.31387573092428
 30
0.0
 40
10.49999999999999
100
AcDbArc
 50
267.3947487348995
 51
317.4132338952992
  0
LINE
  5
12530
330
1F
100
AcDbEntity
  8
AM_0
100
AcDbLine
 10
226.1898768519258
 20
38.81387559682429
 30
0.0
 11
225.9898771916258
 21
38.81387559682429
 31
0.0
  0
LINE
  5
12531
330
1F
100
AcDbEntity
  8
AM_0
100
AcDbLine
 10
187.2552567546257
 20
53.06387560422428
 30
0.0
 11
191.5648774628257
 21
53.06387560422428
 31
0.0
  0
LINE
  5
12532
330
1F
100
AcDbEntity
  8
AM_0
100
AcDbLine
 10
186.8148771499258
 20
53.06387560422428
 30
0.0
 11
187.2552567546257
 21
53.06387560422428
 31
0.0
  0
LINE
  5
12535
330
1F
100
AcDbEntity
  8
AM_0
100
AcDbLine
 10
218.8148768072257
 20
53.06387560422428
 30
0.0
 11
223.5648771201258
 21
53.06387560422428
 31
0.0
  0
SPLINE
  5
12537
330
1F
100
AcDbEntity
  8
AM_0
100
AcDbSpline
210
0.0
220
0.0
230
1.0
 70
     8
 71
     3
 72
    12
 73
     8
 74
     0
 42
0.0000000001
 43
0.0000000001
 40
0.0
 40
0.0
 40
0.0
 40
0.0
 40
0.2195664657354036
 40
0.4444057828146477
 40
0.6680107050471423
 40
0.8992769521627545
 40
1.0
 40
1.0
 40
1.0
 40
1.0
 10
196.4600085665488
 20
39.84767066296086
 30
0.0
 10
196.2698731288316
 20
40.17365683325158
 30
0.0
 10
195.8850361831868
 20
40.8334576762881
 30
0.0
 10
195.4395211586554
 20
41.92717987674621
 30
0.0
 10
195.1101763417548
 20
43.08550212818687
 30
0.0
 10
194.9526464869485
 20
44.04900737606038
 30
0.0
 10
194.9151073453456
 20
44.60990797020679
 30
0.0
 10
194.9037182529473
 20
44.78008097950271
 30
0.0
  0
SPLINE
  5
12538
330
1F
100
AcDbEntity
  8
AM_0
100
AcDbSpline
210
0.0
220
0.0
230
1.0
 70
     8
 71
     3
 72
    11
 73
     7
 74
     0
 42
0.0000000001
 43
0.0000000001
 40
0.0
 40
0.0
 40
0.0
 40
0.0
 40
0.2977819938509551
 40
0.5956010388000976
 40
0.8923089199094803
 40
1.0
 40
1.0
 40
1.0
 40
1.0
 10
201.189876945039
 20
35.49603519942514
 30
0.0
 10
201.1843076035868
 20
35.55256619680733
 30
0.0
 10
201.1731682277251
 20
35.66563522536018
 30
0.0
 10
201.0859346566993
 20
35.81550572457081
 30
0.0
 10
200.9851800332318
 20
35.90669420729921
 30
0.0
 10
200.9164999167248
 20
35.94133861369642
 30
0.0
 10
200.8982104633951
 20
35.9505643879985
 30
0.0
  0
LINE
  5
12539
330
1F
100
AcDbEntity
  8
AM_0
100
AcDbLine
 10
201.1898769450258
 20
35.49603519942428
 30
0.0
 11
201.1898769450258
 21
35.38786580762428
 31
0.0
  0
SPLINE
  5
1253C
330
1F
100
AcDbEntity
  8
AM_0
100
AcDbSpline
210
0.0
220
0.0
230
1.0
 70
     8
 71
     3
 72
    10
 73
     6
 74
     0
 42
0.0000000001
 43
0.0000000001
 40
0.0
 40
0.0
 40
0.0
 40
0.0
 40
0.2979000379808671
 40
0.6005547583770074
 40
1.0
 40
1.0
 40
1.0
 40
1.0
 10
195.5938068603183
 20
49.05625859256736
 30
0.0
 10
195.454163715927
 20
48.6544605509867
 30
0.0
 10
195.1726486298355
 20
47.84445150428308
 30
0.0
 10
194.906370415364
 20
46.43137981107417
 30
0.0
 10
194.9025240176976
 20
45.42333938167189
 30
0.0
 10
194.9003356893563
 20
44.84983564335755
 30
0.0
  0
SPLINE
  5
1253D
330
1F
100
AcDbEntity
  8
AM_0
100
AcDbSpline
210
0.0
220
0.0
230
1.0
 70
     8
 71
     3
 72
    11
 73
     7
 74
     0
 42
0.0000000001
 43
0.0000000001
 40
0.0
 40
0.0
 40
0.0
 40
0.0
 40
0.2704076029773044
 40
0.5476141202158825
 40
0.7719033954210943
 40
1.0
 40
1.0
 40
1.0
 40
1.0
 10
196.5040759568119
 20
39.77791599910609
 30
0.0
 10
196.8105194470646
 20
39.34129048903287
 30
0.0
 10
197.4311113995942
 20
38.45706130342586
 30
0.0
 10
198.5405356254222
 20
37.40736878827937
 30
0.0
 10
199.7007251569397
 20
36.55467586753161
 30
0.0
 10
200.4968153669567
 20
36.15306155792587
 30
0.0
 10
200.8982104633951
 20
35.9505643879985
 30
0.0
  0
LINE
  5
1253F
330
1F
100
AcDbEntity
  8
AM_0
100
AcDbLine
 10
196.4600085665257
 20
39.84767066292426
 30
0.0
 11
196.5040759568257
 21
39.77791599912428
 31
0.0
  0
ELLIPSE
  5
12540
330
1F
100
AcDbEntity
  8
AM_0
100
AcDbEllipse
 10
177.6975168101258
 20
44.48228414912427
 30
0.0
 11
1.856025492108159
 21
-0.7687909309413925
 31
0.0
210
0.0
220
0.0
230
1.0
 40
0.9955461673
 41
2.750469265995327
 42
3.532716041184263
  0
ELLIPSE
  5
12541
330
1F
100
AcDbEntity
  8
AM_0
100
AcDbEllipse
 10
177.6975168101258
 20
39.64546731262425
 30
0.0
 11
1.856025492108158
 21
0.7687909309414068
 31
0.0
210
0.0
220
0.0
230
1.0
 40
0.9955461673
 41
2.750469265995334
 42
3.532716041184256
  0
LINE
  5
12542
330
1F
100
AcDbEntity
  8
AM_0
100
AcDbLine
 10
175.6898769562257
 20
39.63915033242427
 30
0.0
 11
175.6898769562257
 21
44.48860099522426
 31
0.0
  0
LINE
  5
1257F
330
1F
100
AcDbEntity
  8
AM_0
100
AcDbLine
 10
176.2734343682257
 20
45.8974330847243
 30
0.0
 11
179.6063193504257
 21
49.23031859082425
 31
0.0
  0
LINE
  5
12580
330
1F
100
AcDbEntity
  8
AM_0
100
AcDbLine
 10
179.1063201998257
 20
35.39743328452426
 30
0.0
 11
176.2734343682257
 21
38.2303181847243
 31
0.0
  0
SPLINE
  5
12581
330
1F
100
AcDbEntity
  8
AM_0
100
AcDbSpline
210
0.0
220
0.0
230
1.0
 70
     8
 71
     3
 72
    14
 73
    10
 74
     0
 42
0.0000000001
 43
0.0000000001
 40
0.0
 40
0.0
 40
0.0
 40
0.0
 40
0.0901117462092854
 40
0.2621219885464973
 40
0.4341156004027212
 40
0.6062917747350197
 40
0.7790593786006638
 40
0.9525732188774323
 40
1.0
 40
1.0
 40
1.0
 40
1.0
 10
195.1586873655225
 20
49.81387553717837
 30
0.0
 10
195.1879017919338
 20
49.81233037774967
 30
0.0
 10
195.2728823174184
 20
49.80783573327636
 30
0.0
 10
195.4080213191256
 20
49.75752965040436
 30
0.0
 10
195.5402245944944
 20
49.65070516577759
 30
0.0
 10
195.6298210342467
 20
49.50516922362459
 30
0.0
 10
195.6661886103825
 20
49.3382771275206
 30
0.0
 10
195.6515306230947
 20
49.20853870163887
 30
0.0
 10
195.6269257393671
 20
49.14130205845657
 30
0.0
 10
195.6216440920733
 20
49.12686914186827
 30
0.0
  0
ARC
  5
12583
330
1F
100
AcDbEntity
  8
AM_0
100
AcDbCircle
 10
205.1898771350258
 20
45.31387573092428
 30
0.0
 40
10.29999999999995
100
AcDbArc
 50
158.2724469725004
 51
158.6946546904002
  0
LINE
  5
12584
330
1F
100
AcDbEntity
  8
AM_0
100
AcDbLine
 10
201.1898769450258
 20
35.38786580762428
 30
0.0
 11
201.1898769450258
 21
35.31578609702427
 31
0.0
  0
ELLIPSE
  5
12585
330
1F
100
AcDbEntity
  8
AM_0
100
AcDbEllipse
 10
200.6898771350258
 20
35.31578564962428
 30
0.0
 11
0.0
 21
0.5019099187716592
 31
0.0
210
0.0
220
0.0
230
1.0
 40
0.9961946980999998
 41
3.141592653589792
 42
4.712388980384703
  0
ELLIPSE
  5
12589
330
1F
100
AcDbEntity
  8
AM_0
100
AcDbEllipse
 10
180.5214687168258
 20
36.82151540602428
 30
0.0
 11
0.7687909309414068
 21
1.856025492108158
 31
0.0
210
0.0
220
0.0
230
1.0
 40
0.9955461673
 41
2.750469265995327
 42
3.532716041184256
  0
ELLIPSE
  5
1258A
330
1F
100
AcDbEntity
  8
AM_0
100
AcDbEllipse
 10
181.0214687168258
 20
47.80623605582428
 30
0.0
 11
0.7687909309414068
 21
-1.856025492108158
 31
0.0
210
0.0
220
0.0
230
1.0
 40
0.9955461673
 41
2.750469265995354
 42
3.532716041184256
  0
LINE
  5
1258B
330
1F
100
AcDbEntity
  8
AM_0
100
AcDbLine
 10
200.6898773287258
 20
34.81387587242426
 30
0.0
 11
180.5151523475257
 21
34.81387587242426
 31
0.0
  0
LINE
  5
1258C
330
1F
100
AcDbEntity
  8
AM_0
100
AcDbLine
 10
195.1586873655257
 20
49.81387553722431
 30
0.0
 11
181.0151514982257
 21
49.81387553722431
 31
0.0
  0
LINE
  5
1258D
330
1F
100
AcDbEntity
  8
AM_0
100
AcDbLine
 10
194.1898771946258
 20
34.31387579052426
 30
0.0
 11
184.3898770784257
 21
34.31387579052426
 31
0.0
  0
LINE
  5
1258E
330
1F
100
AcDbEntity
  8
AM_0
100
AcDbLine
 10
184.3898770784257
 20
34.31387579052426
 30
0.0
 11
184.3898770784257
 21
34.81387587242426
 31
0.0
  0
LINE
  5
1258F
330
1F
100
AcDbEntity
  8
AM_0
100
AcDbLine
 10
194.1898771946258
 20
34.81387587242426
 30
0.0
 11
194.1898771946258
 21
34.31387579052426
 31
0.0
  0
HATCH
  5
125C5
330
1F
100
AcDbEntity
  8
AM_0
100
AcDbHatch
 10
0.0
 20
0.0
 30
0.0
210
0.0
220
0.0
230
1.0
  2
ANSI38
 70
     0
 71
     0
 91
        1
 92
        0
 93
        2
 72
     4
 94
        3
 73
     1
 74
     0
 95
        8
 96
        4
 40
0.7036971754069218
 40
0.7036971754069218
 40
0.7036971754069218
 40
0.7036971754069218
 40
0.7567931437159471
 40
0.7567931437159471
 40
0.7567931437159471
 40
0.7567931437159471
 10
212.9205379289178
 20
38.20846344941248
 42
1.0
 10
212.327834933613
 20
39.77284178080259
 42
1.0
 10
211.9462106683295
 20
41.428037157012
 42
1.0
 10
211.8293277839721
 20
43.09628805951695
 42
1.0
 72
     4
 94
        3
 73
     1
 74
     0
 95
        8
 96
        4
 40
0.2432068562840527
 40
0.2432068562840527
 40
0.2432068562840527
 40
0.2432068562840527
 40
0.2963028245930772
 40
0.2963028245930772
 40
0.2963028245930772
 40
0.2963028245930772
 10
211.8293277839721
 20
43.09628805951695
 42
1.0
 10
211.9462106683295
 20
41.42803715701205
 42
1.0
 10
212.327834933613
 20
39.77284178080271
 42
1.0
 10
212.9205379289178
 20
38.20846344941259
 42
1.0
 97
        0
 75
     0
 76
     1
 52
0.0
 41
1.0
 77
     0
 78
     2
 53
45.0
 43
-77.32279492917424
 44
-62.63443090807573
 45
-2.245064030267287
 46
2.245064030267287
 79
     0
 53
135.0
 43
-77.32279492917424
 44
-62.63443090807573
 45
-6.735192090801863
 46
2.245064030267288
 79
     2
 49
7.9375
 49
-4.7625
 98
        1
 10
-77.32279492917424
 20
-62.63443090807573
  0
HATCH
  5
125CE
330
1F
100
AcDbEntity
  8
AM_0
100
AcDbHatch
 10
0.0
 20
0.0
 30
0.0
210
0.0
220
0.0
230
1.0
  2
ANSI38
 70
     0
 71
     0
 91
        1
 92
        0
 93
        3
 72
     4
 94
        3
 73
     1
 74
     0
 95
        8
 96
        4
 40
0.1494414581140439
 40
0.1494414581140439
 40
0.1494414581140439
 40
0.1494414581140439
 40
0.1982581416447188
 40
0.1982581416447188
 40
0.1982581416447188
 40
0.1982581416447188
 10
213.5801489456571
 20
51.62682582920507
 42
1.0
 10
212.9106676430166
 20
50.27450493088394
 42
1.0
 10
212.4059463258022
 20
48.81660538389275
 42
1.0
 10
212.1060951940445
 20
47.31387573089347
 42
1.0
 72
     1
 10
212.1060951940445
 20
47.31387573089347
 11
212.1060951960989
 21
47.31387574118876
 72
     4
 94
        3
 73
     1
 74
     0
 95
        8
 96
        4
 40
0.8017418584667627
 40
0.8017418584667627
 40
0.8017418584667627
 40
0.8017418584667627
 40
0.8505585418859563
 40
0.8505585418859563
 40
0.8505585418859563
 40
0.8505585418859563
 10
212.1060951960989
 20
47.31387574118878
 42
1.0
 10
212.4059463281075
 20
48.81660539055156
 42
1.0
 10
212.9106676445455
 20
50.27450493397225
 42
1.0
 10
213.5801489456571
 20
51.62682582920507
 42
1.0
 97
        0
 75
     0
 76
     1
 52
0.0
 41
1.0
 77
     0
 78
     2
 53
45.0
 43
-77.32279492917424
 44
-62.63443090807573
 45
-2.245064030267287
 46
2.245064030267287
 79
     0
 53
135.0
 43
-77.32279492917424
 44
-62.63443090807573
 45
-6.735192090801863
 46
2.245064030267288
 79
     2
 49
7.9375
 49
-4.7625
 98
        1
 10
-77.32279492917424
 20
-62.63443090807573
  0
HATCH
  5
125CF
330
1F
100
AcDbEntity
  8
AM_0
100
AcDbHatch
 10
0.0
 20
0.0
 30
0.0
210
0.0
220
0.0
230
1.0
  2
ANSI38
 70
     0
 71
     0
 91
        1
 92
        0
 93
        2
 72
     4
 94
        3
 73
     1
 74
     0
 95
        8
 96
        4
 40
0.6565957757347308
 40
0.6565957757347308
 40
0.6565957757347308
 40
0.6565957757347308
 40
0.7567931437159455
 40
0.7567931437159455
 40
0.7567931437159455
 40
0.7567931437159455
 10
214.9587576843461
 20
34.31387573090422
 42
1.0
 10
213.2132491991581
 20
36.84647023738745
 42
1.0
 10
212.0498974006049
 20
39.94813284384349
 42
1.0
 10
211.8293277839721
 20
43.09628805951677
 42
1.0
 72
     4
 94
        3
 73
     1
 74
     0
 95
        8
 96
        4
 40
0.2432068562840543
 40
0.2432068562840543
 40
0.2432068562840543
 40
0.2432068562840543
 40
0.3434042242651761
 40
0.3434042242651761
 40
0.3434042242651761
 40
0.3434042242651761
 10
211.8293277839721
 20
43.09628805951689
 42
1.0
 10
212.0498974006047
 20
39.94813284384651
 42
1.0
 10
213.213249199156
 20
36.84647023739325
 42
1.0
 10
214.9587576843411
 20
34.31387573091126
 42
1.0
 97
        0
 75
     0
 76
     1
 52
0.0
 41
1.0
 77
     0
 78
     2
 53
45.0
 43
-77.32279492917424
 44
-62.63443090807573
 45
-2.245064030267287
 46
2.245064030267287
 79
     0
 53
135.0
 43
-77.32279492917424
 44
-62.63443090807573
 45
-6.735192090801863
 46
2.245064030267288
 79
     2
 49
7.9375
 49
-4.7625
 98
        1
 10
-77.32279492917424
 20
-62.63443090807573
  0
LINE
  5
125EC
330
1F
100
AcDbEntity
  8
AM_7
100
AcDbLine
 10
132.8302624829168
 20
126.4922272954169
 30
0.0
 11
49.42602047391686
 21
126.4922272954708
 31
0.0
1001
GENIUS_GENOBJ-N-CEN_13
1002
{
1000
OWNER
1000
GEN
1002
}
1001
GENIUS_GENODEF_13
1002
{
1000
HIER
1070
     0
1002
}
1002
{
1000
MANEDIT
1070
     0
1002
}
1002
{
1000
NOSEL
1070
     0
1002
}
1002
{
1000
BEHIND
1070
     0
1002
}
1002
{
1000
OTHER
1070
     0
1002
}
1002
{
1000
REACTOR
1002
}
1001
GENIUS_GENCEN_19
1002
{
1040
3.0
1002
}
  0
LINE
  5
125ED
330
1F
100
AcDbEntity
  8
AM_7
100
AcDbLine
 10
49.42602047391686
 20
45.31387573092428
 30
0.0
 11
132.8382197029168
 21
45.31387573092428
 31
0.0
1001
GENIUS_GENODEF_13
1002
{
1000
HIER
1070
     0
1002
}
1002
{
1000
MANEDIT
1070
     0
1002
}
1002
{
1000
NOSEL
1070
     0
1002
}
1002
{
1000
BEHIND
1070
     0
1002
}
1002
{
1000
OTHER
1070
     0
1002
}
1002
{
1000
REACTOR
1002
}
1001
GENIUS_GENOBJ-N-CEN_13
1002
{
1000
OWNER
1000
GEN
1002
}
1001
GENIUS_GENCEN_19
1002
{
1040
3.0
1002
}
  0
LINE
  5
125EF
330
1F
100
AcDbEntity
  8
AM_7
100
AcDbLine
 10
172.3695176928013
 20
45.31387573092428
 30
0.0
 11
238.0102365772502
 21
45.31387573092428
 31
0.0
1001
GENIUS_GENODEF_13
1002
{
1000
HIER
1070
     0
1002
}
1002
{
1000
MANEDIT
1070
     0
1002
}
1002
{
1000
NOSEL
1070
     0
1002
}
1002
{
1000
BEHIND
1070
     0
1002
}
1002
{
1000
OTHER
1070
     0
1002
}
1002
{
1000
REACTOR
1002
}
1001
GENIUS_GENOBJ-N-CEN_13
1002
{
1000
OWNER
1000
GEN
1002
}
1001
GENIUS_GENCEN_19
1002
{
1040
3.0
1002
}
  0
LINE
  5
125F1
330
1F
100
AcDbEntity
  8
AM_7
100
AcDbLine
 10
205.1898771350268
 20
59.06387570112428
 30
0.0
 11
205.1898771350247
 21
31.56387576072428
 31
0.0
1001
GENIUS_GENOBJ-N-CEN_13
1002
{
1000
OWNER
1000
GEN
1002
}
1001
GENIUS_GENODEF_13
1002
{
1000
HIER
1070
     0
1002
}
1002
{
1000
MANEDIT
1070
     0
1002
}
1002
{
1000
NOSEL
1070
     0
1002
}
1002
{
1000
BEHIND
1070
     0
1002
}
1002
{
1000
OTHER
1070
     0
1002
}
1002
{
1000
REACTOR
1002
}
1001
GENIUS_GENCEN_19
1002
{
1040
3.0
1002
}
  0
LINE
  5
125F2
330
1F
100
AcDbEntity
  8
AM_7
100
AcDbLine
 10
221.1898771350258
 20
56.06387560422428
 30
0.0
 11
221.1898771350258
 21
31.31387579052427
 31
0.0
1001
GENIUS_GENODEF_13
1002
{
1000
HIER
1070
     0
1002
}
1002
{
1000
MANEDIT
1070
     0
1002
}
1002
{
1000
NOSEL
1070
     0
1002
}
1002
{
1000
BEHIND
1070
     0
1002
}
1002
{
1000
OTHER
1070
     0
1002
}
1002
{
1000
REACTOR
1002
}
1001
GENIUS_GENOBJ-N-CEN_13
1002
{
1000
OWNER
1000
GEN
1002
}
1001
GENIUS_GENCEN_19
1002
{
1040
3.0
1002
}
  0
LINE
  5
126FC
330
1F
100
AcDbEntity
  8
AM_2
100
AcDbLine
 10
92.63212126561681
 20
135.9103017320167
 30
0.0
 11
127.6321214146168
 21
135.9103017320167
 31
0.0
  0
LINE
  5
126FD
330
1F
100
AcDbEntity
  8
AM_2
100
AcDbLine
 10
54.63212062491685
 20
117.0741530734762
 30
0.0
 11
89.63212077391686
 21
117.0741526440141
 31
0.0
  0
HATCH
  5
13D4C
330
1F
100
AcDbEntity
  8
AM_2
100
AcDbHatch
 10
0.0
 20
0.0
 30
0.0
210
0.0
220
0.0
230
1.0
  2
ANSI31
 70
     0
 71
     1
 91
        1
 92
        7
 72
     0
 73
     1
 93
        7
 10
225.6898777012258
 20
38.31387551482431
 10
225.6898777012258
 20
39.81387573092396
 10
225.6898771350258
 20
39.81387573092428
 10
225.6898777012258
 20
39.81387573092396
 10
225.6898777012258
 20
39.81387576072428
 10
223.8898770337258
 20
39.81387576072427
 10
223.8898770337257
 20
38.3138755148243
 97
        5
330
12501
330
124C5
330
1250C
330
124B6
330
124C4
 75
     0
 76
     1
 52
0.0
 41
1.0
 77
     0
 78
     1
 53
45.0
 43
-77.32279492917424
 44
-62.63443090807573
 45
-2.245064030267287
 46
2.245064030267288
 79
     0
 47
0.0113709292980771
 98
        1
 10
224.5380674359257
 20
38.90564104099667
1001
ACAD
1010
25.53280940880188
1020
-271.3331123364537
1030
0.0
  0
HATCH
  5
13D67
330
1F
100
AcDbEntity
  8
AM_2
100
AcDbHatch
 10
0.0
 20
0.0
 30
0.0
210
0.0
220
0.0
230
1.0
  2
ANSI31
 70
     0
 71
     0
 91
        2
 92
        5
 93
       13
 72
     1
 10
216.1898770754257
 20
39.8138757413945
 11
216.1898770754257
 21
38.31387551482428
 72
     1
 10
216.1898770754257
 20
38.31387551482428
 11
216.5075325791257
 21
38.31387551482431
 72
     1
 10
216.5075325791257
 20
38.31387551482431
 11
216.5075325791258
 21
38.11387585452425
 72
     1
 10
216.5075325791258
 20
38.11387585452425
 11
216.6560291697257
 21
38.11387585452431
 72
     1
 10
216.6560291697257
 20
38.11387585452431
 11
216.6560291697257
 21
38.31387551482431
 72
     1
 10
216.6560291697257
 20
38.31387551482431
 11
217.8550753196258
 21
38.31387551482428
 72
     1
 10
217.8550753196258
 20
38.31387551482428
 11
217.8550753196257
 21
38.11387585457317
 72
     4
 94
        3
 73
     0
 74
     0
 95
        8
 96
        4
 40
0.8128943889574248
 40
0.8128943889574248
 40
0.8128943889574248
 40
0.8128943889574248
 40
1.0
 40
1.0
 40
1.0
 40
1.0
 10
217.8550753196258
 20
38.11387585457317
 10
217.8568944399528
 20
38.11387585457317
 10
217.8582614977993
 20
38.11387585457317
 10
217.8596285556459
 20
38.11387585457317
 72
     1
 10
217.8596285556459
 20
38.11387585457317
 11
218.0041409482256
 21
38.11387585452425
 72
     1
 10
218.0041409482256
 20
38.11387585452425
 11
218.0041409482257
 21
38.31387551482431
 72
     1
 10
218.0041409482257
 20
38.31387551482431
 11
218.4898768936257
 21
38.31387551482431
 72
     1
 10
218.4898768936257
 20
38.31387551482431
 11
218.4898768936257
 21
39.81387575991883
 72
     1
 10
218.4898768936257
 20
39.81387575991883
 11
216.1898770754257
 21
39.8138757413945
 97
        0
 92
        7
 72
     0
 73
     1
 93
        7
 10
225.6898777012258
 20
38.31387551482428
 10
225.6898777012258
 20
39.81387573092397
 10
225.6898771350258
 20
39.81387573092428
 10
225.6898777012258
 20
39.81387573092397
 10
225.6898777012258
 20
39.81387576072427
 10
223.8898770337257
 20
39.81387576072425
 10
223.8898770337257
 20
38.31387551482431
 97
        0
 75
     0
 76
     1
 52
90.0
 41
0.2
 77
     0
 78
     1
 53
135.0
 43
-77.32279492917424
 44
-62.63443090807573
 45
-0.4490128060534577
 46
-0.4490128060534576
 79
     0
 47
0.0113709292980771
 98
        2
 10
217.1113470415868
 20
39.17854329486204
 10
224.685918293821
 20
38.83741586428551
1001
ACAD
1010
25.53280940880188
1020
-271.3331123364537
1030
0.0
  0
HATCH
  5
1410C
330
1F
100
AcDbEntity
  8
AM_2
100
AcDbHatch
 10
0.0
 20
0.0
 30
0.0
210
0.0
220
0.0
230
1.0
  2
ANSI31
 70
     0
 71
     0
 91
        7
 92
        7
 72
     1
 73
     1
 93
       21
 10
214.8898771347103
 20
37.31387573092528
 42
0.0
 10
215.1898771350291
 20
37.31387573092428
 42
-0.4143146885157033
 10
216.1898770754257
 20
36.3135304770251
 42
0.0
 10
216.1898770754257
 20
34.8136315995817
 42
-0.4143566023184925
 10
215.6898770942668
 20
34.31387573092425
 42
0.0
 10
214.9587580783364
 20
34.31387573092425
 42
0.0
 10
214.6264537622247
 20
34.81387587242532
 42
0.0
 10
214.5930136938623
 20
34.8662711491767
 42
0.0
 10
214.4840880681775
 20
35.03976164366978
 42
0.0
 10
213.9825878217343
 20
36.05610566254402
 42
0.0
 10
213.8172172943124
 20
36.05610566254398
 42
0.0
 10
213.8172172943124
 20
36.39124676693092
 42
0.0
 10
212.9205380951256
 20
38.20846330352467
 42
0.0
 10
212.8420954097053
 20
38.4194174145201
 42
0.0
 10
212.7717476722802
 20
38.61571669559828
 42
-0.0716798924255532
 10
211.8145077971639
 20
43.31387563592426
 42
0.0
 10
218.5898767237258
 20
43.31387563592426
 42
0.0
 10
218.5898767237258
 20
39.81387576072425
 42
0.0
 10
214.8898771249582
 20
39.81387573092428
 42
0.2637774458416955
 10
213.8172172943124
 20
39.2056707657982
 42
0.0
 10
213.8172172943124
 20
37.92208069657079
 42
0.2637774479908167
 97
        0
 92
       23
 72
     0
 73
     1
 93
        3
 10
213.8172172943124
 20
36.39124676693092
 10
213.8172172943125
 20
36.05610566254404
 10
213.9825878217343
 20
36.05610566254404
 97
        0
 92
        7
 72
     1
 73
     1
 93
        8
 10
232.018670987559
 20
48.48508187840479
 42
0.0
 10
226.4398773585257
 20
48.48508187840479
 42
0.0
 10
226.4398773585257
 20
47.3138758259243
 42
0.0
 10
230.1543432291258
 20
47.31387573092428
 42
-0.1989123607378908
 10
230.5078966287684
 20
47.16742911246817
 42
0.0
 10
232.3614500102393
 20
45.31387573092428
 42
0.0
 10
235.0102365772501
 20
45.31387573092428
 42
0.0898202788648311
 10
234.6040906974172
 20
45.89966216847918
 42
0.0
 97
        0
 92
        7
 72
     1
 73
     1
 93
        5
 10
230.7756635727173
 20
49.72808929327891
 42
0.198912377328342
 10
229.3614499337914
 20
50.3138757309243
 42
0.0
 10
226.4398773585257
 20
50.31387561912424
 42
0.0
 10
226.4398773585257
 20
48.48508187840479
 42
0.0
 10
232.018670987559
 20
48.48508187840479
 42
0.0
 97
        0
 92
        7
 72
     1
 73
     1
 93
       18
 10
235.1898771350257
 20
44.48544860612429
 42
0.1071772212314818
 10
235.0102365772501
 20
45.31387573092428
 42
0.0
 10
232.3614500102393
 20
45.31387573092428
 42
0.0
 10
233.0434304444584
 20
44.63189529667824
 42
-0.1989124270396037
 10
233.1898771350258
 20
44.27834182492427
 42
0.0
 10
233.1898771350258
 20
40.31387573092428
 42
-0.4142136496553066
 10
232.6898769860258
 20
39.81387573092428
 42
0.0
 10
232.6898769860258
 20
37.81387573092426
 42
-0.4142136496520527
 10
233.1898771350237
 20
37.31387573092769
 42
0.0
 10
233.1898771350257
 20
37.0138757309229
 42
0.0001127554303456
 10
233.1898771553678
 20
37.01378552658207
 42
0.4140815591623139
 10
233.3898776595257
 20
36.81387526892428
 42
0.0
 10
233.4827696358258
 20
36.81387526892428
 42
0.1989126546316832
 10
233.8363238542136
 20
36.96032245012555
 42
0.0
 10
234.6040906974911
 20
37.72808929334332
 42
0.0000320914127214
 10
234.6042722222834
 20
37.72827084143865
 42
0.1988579296112778
 10
235.1898771284486
 20
39.14214065585955
 42
0.0000202749803203
 10
235.1898771350258
 20
39.14230285570187
 42
0.0
 97
        0
 92
        7
 72
     1
 73
     1
 93
       14
 10
229.1898771350258
 20
41.31387573092427
 42
0.4142135705568779
 10
227.1898770791434
 20
43.31387573092428
 42
0.0
 10
223.7898772035258
 20
43.31387563592423
 42
0.0
 10
223.7898772035258
 20
39.81387576072425
 42
0.0
 10
225.6898777012258
 20
39.81387576072427
 42
-0.4142132500966993
 10
226.1898771350258
 20
39.31387573092428
 42
0.0
 10
226.1898768519258
 20
34.81387587242426
 42
0.4142135492569104
 10
226.6898770158165
 20
34.31387573092428
 42
0.0
 10
228.6898771350258
 20
34.31387573092428
 42
0.4142135623730952
 10
229.1898771350258
 20
34.81387573092428
 42
0.0
 10
229.1898771350258
 20
37.31387573092428
 42
-0.4142131870596871
 10
229.6898764943257
 20
37.81387573092388
 42
0.0
 10
229.6898764943257
 20
39.81387573092468
 42
-0.4142132481571707
 10
229.1898771350258
 20
40.31387562662433
 42
0.0
 97
        0
 92
        7
 72
     1
 73
     1
 93
        7
 10
215.9398775001257
 20
50.31387561912424
 42
0.0
 10
215.5460351531257
 20
50.31387561912424
 42
-0.2490693911026747
 10
213.8890495094517
 20
51.19387573092558
 42
0.0126650863869841
 10
213.5801490972794
 20
51.62682562771749
 42
0.0
 10
213.4815391181532
 20
51.42438647533504
 42
0.0653254439413087
 10
212.1064992196956
 20
47.3138758259243
 42
0.0
 10
215.9398775001257
 20
47.3138758259243
 42
0.0
 97
        0
 75
     0
 76
     1
 52
0.0
 41
0.25
 77
     0
 78
     1
 53
45.0
 43
25.53280940880188
 44
-275.0981207522617
 45
-0.5612660075668221
 46
0.5612660075668221
 79
     0
 47
0.0027821035666705
 98
       17
 10
215.2386889089898
 20
36.48183812904154
 10
-102.8556043379761
 20
208.698681428378
 10
215.1206786075803
 20
36.60336437009141
 10
213.8681012687215
 20
36.12513064915424
 10
215.8198007669106
 20
40.21475977592581
 10
213.1708317467154
 20
39.77922228981424
 10
-102.8556043379761
 20
208.698681428378
 10
231.4353187192116
 20
47.75600797124411
 10
229.1087548130792
 20
49.07528434415098
 10
215.8785960034071
 20
42.96495020403677
 10
215.2882729559623
 20
40.84716342975162
 10
214.9410247842249
 20
35.39646824960119
 10
-102.8556043379761
 20
208.698681428378
 10
234.2118732100225
 20
41.95333146061034
 10
214.5357613324528
 20
41.22370371990245
 10
226.9931643153381
 20
40.64842846057081
 10
214.5833540831747
 20
49.10924145688773
1001
ACAD
1010
25.53280940880188
1020
-271.3331123364537
1030
0.0
  0
LINE
  5
14467
330
1F
100
AcDbEntity
  8
AM_1
100
AcDbLine
 10
226.1512014855265
 20
109.4570160569829
 30
0.0
 11
236.6322240141765
 21
109.4570160569829
 31
0.0
  0
LINE
  5
14468
330
1F
100
AcDbEntity
  8
AM_3
 48
0.5
100
AcDbLine
 10
226.1512014855265
 20
104.3211201917662
 30
0.0
 11
236.6322240141765
 21
104.3211201917662
 31
0.0
  0
LINE
  5
14469
330
1F
100
AcDbEntity
  8
AM_1
100
AcDbLine
 10
236.6322240141765
 20
109.4570160569829
 30
0.0
 11
234.2072914263265
 21
110.341221050483
 31
0.0
  0
LINE
  5
1446A
330
1F
100
AcDbEntity
  8
AM_1
100
AcDbLine
 10
234.2072914263265
 20
110.341221050483
 30
0.0
 11
236.6322240141765
 21
109.4570160569829
 31
0.0
  0
LINE
  5
1446B
330
1F
100
AcDbEntity
  8
AM_1
100
AcDbLine
 10
236.6322240141765
 20
109.4570160569829
 30
0.0
 11
234.2072914263265
 21
108.7201785624329
 31
0.0
  0
LINE
  5
1446C
330
1F
100
AcDbEntity
  8
AM_3
 48
0.5
100
AcDbLine
 10
236.6322240141765
 20
104.3211201917662
 30
0.0
 11
234.2072914263265
 21
105.1562026856662
 31
0.0
  0
LINE
  5
1446D
330
1F
100
AcDbEntity
  8
AM_3
 48
0.5
100
AcDbLine
 10
236.6322240141765
 20
104.3211201917662
 30
0.0
 11
234.2072914263265
 21
103.4369151982662
 31
0.0
  0
LINE
  5
14471
330
1F
100
AcDbEntity
  8
AM_0
100
AcDbLine
 10
211.332887883868
 20
83.30295272311039
 30
0.0
 11
211.332887883868
 21
83.11295267341041
 31
0.0
  0
LINE
  5
14472
330
1F
100
AcDbEntity
  8
AM_0
100
AcDbLine
 10
216.082887265468
 20
83.11295267341041
 30
0.0
 11
216.082887265468
 21
83.30295272311039
 31
0.0
  0
ARC
  5
14473
330
1F
100
AcDbEntity
  8
AM_0
100
AcDbCircle
 10
213.707887488968
 20
82.11044481791043
 30
0.0
 40
2.657574104090745
100
AcDbArc
 50
116.5408707231994
 51
153.3383795227009
  0
ARC
  5
14474
330
1F
100
AcDbEntity
  8
AM_0
100
AcDbCircle
 10
213.707887488968
 20
82.11044481791043
 30
0.0
 40
2.657574104090693
100
AcDbArc
 50
26.66162047729889
 51
63.45912927680058
  0
LINE
  5
14475
330
1F
100
AcDbEntity
  8
AM_0
100
AcDbLine
 10
227.332887712568
 20
83.30295272311039
 30
0.0
 11
227.332887712568
 21
83.11295267341041
 31
0.0
  0
LINE
  5
14476
330
1F
100
AcDbEntity
  8
AM_0
100
AcDbLine
 10
232.082887094168
 20
83.11295267341041
 30
0.0
 11
232.082887094168
 21
83.30295272311039
 31
0.0
  0
ARC
  5
14477
330
1F
100
AcDbEntity
  8
AM_0
100
AcDbCircle
 10
229.707887488968
 20
82.11044481791043
 30
0.0
 40
2.657574104090694
100
AcDbArc
 50
116.5408707231994
 51
153.3383795227009
  0
ARC
  5
14478
330
1F
100
AcDbEntity
  8
AM_0
100
AcDbCircle
 10
229.707887488968
 20
82.11044481791043
 30
0.0
 40
2.657574104090694
100
AcDbArc
 50
26.66162047729889
 51
63.45912927680058
  0
LINE
  5
1447B
330
1F
100
AcDbEntity
  8
AM_0
100
AcDbLine
 10
212.7405772987681
 20
84.48795266591039
 30
0.0
 11
214.8953876529681
 21
84.48795266591039
 31
0.0
  0
LINE
  5
1447C
330
1F
100
AcDbEntity
  8
AM_0
100
AcDbLine
 10
212.5203874964679
 20
84.48795266591039
 30
0.0
 11
212.7405772987681
 21
84.48795266591039
 31
0.0
  0
LINE
  5
1447E
330
1F
100
AcDbEntity
  8
AM_0
100
AcDbLine
 10
228.520387325068
 20
84.48795266591039
 30
0.0
 11
230.8953874815681
 21
84.48795266591039
 31
0.0
  0
SPLINE
  5
1447F
330
1F
100
AcDbEntity
  8
AM_0
100
AcDbSpline
210
0.0
220
0.0
230
1.0
 70
     8
 71
     3
 72
    12
 73
     8
 74
     0
 42
0.0000000001
 43
0.0000000001
 40
0.0
 40
0.0
 40
0.0
 40
0.0
 40
0.2195664657354036
 40
0.4444057828146477
 40
0.6680107050471423
 40
0.8992769521627545
 40
1.0
 40
1.0
 40
1.0
 40
1.0
 10
217.3429532047689
 20
77.87985019529134
 30
0.0
 10
217.2478854859102
 20
78.04284328043658
 30
0.0
 10
217.0554670130879
 20
78.37274370195491
 30
0.0
 10
216.8327095008221
 20
78.9196048021839
 30
0.0
 10
216.6680370923718
 20
79.49876592790431
 30
0.0
 10
216.5892721649687
 20
79.98051855184101
 30
0.0
 10
216.5705025941672
 20
80.26096884891421
 30
0.0
 10
216.5648080479682
 20
80.3460553535622
 30
0.0
  0
SPLINE
  5
14480
330
1F
100
AcDbEntity
  8
AM_0
100
AcDbSpline
210
0.0
220
0.0
230
1.0
 70
     8
 71
     3
 72
    11
 73
     7
 74
     0
 42
0.0000000001
 43
0.0000000001
 40
0.0
 40
0.0
 40
0.0
 40
0.0
 40
0.2977819938509551
 40
0.5956010388000976
 40
0.8923089199094803
 40
1.0
 40
1.0
 40
1.0
 40
1.0
 10
219.7078873940139
 20
75.70403246352339
 30
0.0
 10
219.7051027232878
 20
75.73229796221451
 30
0.0
 10
219.6995330353569
 20
75.78883247649088
 30
0.0
 10
219.6559162498441
 20
75.86376772609631
 30
0.0
 10
219.6055389381104
 20
75.90936196746051
 30
0.0
 10
219.5711988798568
 20
75.92668417065908
 30
0.0
 10
219.5620541531921
 20
75.93129705781009
 30
0.0
  0
LINE
  5
14481
330
1F
100
AcDbEntity
  8
AM_0
100
AcDbLine
 10
219.707887393968
 20
75.7040324635104
 30
0.0
 11
219.707887393968
 21
75.64994776761039
 31
0.0
  0
SPLINE
  5
14484
330
1F
100
AcDbEntity
  8
AM_0
100
AcDbSpline
210
0.0
220
0.0
230
1.0
 70
     8
 71
     3
 72
    10
 73
     6
 74
     0
 42
0.0000000001
 43
0.0000000001
 40
0.0
 40
0.0
 40
0.0
 40
0.0
 40
0.2979000379808671
 40
0.6005547583770074
 40
1.0
 40
1.0
 40
1.0
 40
1.0
 10
216.9098523516536
 20
82.48414416009447
 30
0.0
 10
216.840030779458
 20
82.28324513930422
 30
0.0
 10
216.6992732364122
 20
81.87824061595241
 30
0.0
 10
216.5661341291765
 20
81.17170476934791
 30
0.0
 10
216.5642109303433
 20
80.6676845546468
 30
0.0
 10
216.5631167661727
 20
80.38093268548957
 30
0.0
  0
SPLINE
  5
14485
330
1F
100
AcDbEntity
  8
AM_0
100
AcDbSpline
210
0.0
220
0.0
230
1.0
 70
     8
 71
     3
 72
    11
 73
     7
 74
     0
 42
0.0000000001
 43
0.0000000001
 40
0.0
 40
0.0
 40
0.0
 40
0.0
 40
0.2704076029773044
 40
0.5476141202158825
 40
0.7719033954210943
 40
1.0
 40
1.0
 40
1.0
 40
1.0
 10
217.3649868999004
 20
77.84497286336392
 30
0.0
 10
217.5182086450267
 20
77.62666010832734
 30
0.0
 10
217.8285046212916
 20
77.18454551552378
 30
0.0
 10
218.3832167342055
 20
76.6596992579505
 30
0.0
 10
218.9633114999642
 20
76.2333527975766
 30
0.0
 10
219.3613566049728
 20
76.03254564277381
 30
0.0
 10
219.5620541531921
 20
75.93129705781009
 30
0.0
  0
LINE
  5
14486
330
1F
100
AcDbEntity
  8
AM_2
100
AcDbLine
 10
216.563116766168
 20
80.3809326855104
 30
0.0
 11
216.564808047968
 21
80.34605535361041
 31
0.0
  0
LINE
  5
14487
330
1F
100
AcDbEntity
  8
AM_2
100
AcDbLine
 10
217.3429532047681
 20
77.87985019531041
 30
0.0
 11
217.364986899868
 21
77.84497286341042
 31
0.0
  0
ELLIPSE
  5
14488
330
1F
100
AcDbEntity
  8
AM_0
100
AcDbEllipse
 10
207.9617073265681
 20
80.19715693841041
 30
0.0
 11
0.9280127460540935
 21
-0.3843954654707034
 31
0.0
210
0.0
220
0.0
230
1.0
 40
0.9955461673
 41
2.750469265995339
 42
3.532716041184278
  0
ELLIPSE
  5
14489
330
1F
100
AcDbEntity
  8
AM_0
100
AcDbEllipse
 10
207.9617073265681
 20
77.77874852011038
 30
0.0
 11
0.9280127460540935
 21
0.3843954654707034
 31
0.0
210
0.0
220
0.0
230
1.0
 40
0.9955461673
 41
2.750469265995314
 42
3.532716041184248
  0
LINE
  5
1448A
330
1F
100
AcDbEntity
  8
AM_0
100
AcDbLine
 10
206.9578873995681
 20
77.77559003001042
 30
0.0
 11
206.9578873995681
 21
80.20031536141042
 31
0.0
  0
LINE
  5
144C7
330
1F
100
AcDbEntity
  8
AM_0
100
AcDbLine
 10
207.249666105568
 20
80.90473140621041
 30
0.0
 11
208.916108596768
 21
82.57117415921038
 31
0.0
  0
LINE
  5
144C8
330
1F
100
AcDbEntity
  8
AM_0
100
AcDbLine
 10
208.666109021368
 20
75.65473150601039
 30
0.0
 11
207.249666105568
 21
77.0711739562104
 31
0.0
  0
SPLINE
  5
144C9
330
1F
100
AcDbEntity
  8
AM_0
100
AcDbSpline
210
0.0
220
0.0
230
1.0
 70
     8
 71
     3
 72
    14
 73
    10
 74
     0
 42
0.0000000001
 43
0.0000000001
 40
0.0
 40
0.0
 40
0.0
 40
0.0
 40
0.0901117462092854
 40
0.2621219885464973
 40
0.4341156004027212
 40
0.6062917747350197
 40
0.7790593786006638
 40
0.9525732188774323
 40
1.0
 40
1.0
 40
1.0
 40
1.0
 10
216.6922926042556
 20
82.86295263240001
 30
0.0
 10
216.7068998174614
 20
82.86218005268574
 30
0.0
 10
216.7493900802037
 20
82.85993273044898
 30
0.0
 10
216.8169595810573
 20
82.83477968901298
 30
0.0
 10
216.8830612187417
 20
82.78136744669959
 30
0.0
 10
216.9278594386178
 20
82.70859947562309
 30
0.0
 10
216.9460432266858
 20
82.6251534275711
 30
0.0
 10
216.9387142330418
 20
82.56028421463032
 30
0.0
 10
216.926411791178
 20
82.52666589303908
 30
0.0
 10
216.9237709675313
 20
82.51944943474498
 30
0.0
  0
ARC
  5
144CB
330
1F
100
AcDbEntity
  8
AM_0
100
AcDbCircle
 10
221.707887488968
 20
80.61295272921041
 30
0.0
 40
5.150000000000018
100
AcDbArc
 50
158.272446972499
 51
158.6946546904021
  0
LINE
  5
144CC
330
1F
100
AcDbEntity
  8
AM_0
100
AcDbLine
 10
219.707887393968
 20
75.64994776761039
 30
0.0
 11
219.707887393968
 21
75.6139079123104
 31
0.0
  0
ELLIPSE
  5
144CD
330
1F
100
AcDbEntity
  8
AM_0
100
AcDbEllipse
 10
219.457887488968
 20
75.61390768861042
 30
0.0
 11
0.0
 21
0.2509549593858367
 31
0.0
210
0.0
220
0.0
230
1.0
 40
0.9961946981
 41
3.141592653589792
 42
4.712388980384703
  0
ELLIPSE
  5
144D1
330
1F
100
AcDbEntity
  8
AM_0
100
AcDbEllipse
 10
209.373683279868
 20
76.36677256681043
 30
0.0
 11
0.3843954654707317
 21
0.9280127460540652
 31
0.0
210
0.0
220
0.0
230
1.0
 40
0.9955461673
 41
2.750469265995446
 42
3.532716041184333
  0
ELLIPSE
  5
144D2
330
1F
100
AcDbEntity
  8
AM_0
100
AcDbEllipse
 10
209.623683279868
 20
81.8591328917104
 30
0.0
 11
0.3843954654706747
 21
-0.9280127460540933
 31
0.0
210
0.0
220
0.0
230
1.0
 40
0.9955461673
 41
2.750469265995385
 42
3.532716041184298
  0
LINE
  5
144D3
330
1F
100
AcDbEntity
  8
AM_0
100
AcDbLine
 10
219.4578875858681
 20
75.36295280001041
 30
0.0
 11
209.370525095268
 21
75.36295280001041
 31
0.0
  0
LINE
  5
144D4
330
1F
100
AcDbEntity
  8
AM_0
100
AcDbLine
 10
216.692292604268
 20
82.86295263241038
 30
0.0
 11
209.6205246705681
 21
82.86295263241038
 31
0.0
  0
LINE
  5
144D5
330
1F
100
AcDbEntity
  8
AM_0
100
AcDbLine
 10
216.2078875187681
 20
75.1129527590104
 30
0.0
 11
211.3078874606681
 21
75.1129527590104
 31
0.0
  0
LINE
  5
144D6
330
1F
100
AcDbEntity
  8
AM_0
100
AcDbLine
 10
211.3078874606681
 20
75.1129527590104
 30
0.0
 11
211.3078874606681
 21
75.36295280001041
 31
0.0
  0
LINE
  5
144D7
330
1F
100
AcDbEntity
  8
AM_0
100
AcDbLine
 10
216.2078875187681
 20
75.36295280001041
 30
0.0
 11
216.2078875187681
 21
75.1129527590104
 31
0.0
  0
ELLIPSE
  5
144DC
330
1F
100
AcDbEntity
  8
AM_0
100
AcDbEllipse
 10
235.454067651468
 20
80.19715693841041
 30
0.0
 11
0.9280127460540933
 21
0.3843954654706747
 31
0.0
210
0.0
220
0.0
230
1.0
 40
0.9955461673
 41
5.892061919585132
 42
6.67430869477408
  0
ELLIPSE
  5
144DD
330
1F
100
AcDbEntity
  8
AM_0
100
AcDbEllipse
 10
235.454067651468
 20
77.77874852011038
 30
0.0
 11
0.9280127460540935
 21
-0.3843954654707034
 31
0.0
210
0.0
220
0.0
230
1.0
 40
0.9955461673
 41
5.892061919585117
 42
6.674308694774036
  0
LINE
  5
144DE
330
1F
100
AcDbEntity
  8
AM_0
100
AcDbLine
 10
236.457887578368
 20
80.20031536141042
 30
0.0
 11
236.457887578368
 21
77.77559003001042
 31
0.0
  0
LINE
  5
1451B
330
1F
100
AcDbEntity
  8
AM_0
100
AcDbLine
 10
234.4996663812681
 20
82.57117415921038
 30
0.0
 11
236.1661088723681
 21
80.90473140621041
 31
0.0
  0
LINE
  5
1451C
330
1F
100
AcDbEntity
  8
AM_0
100
AcDbLine
 10
236.1661088723681
 20
77.0711739562104
 30
0.0
 11
234.749665956568
 21
75.65473150601039
 31
0.0
  0
SPLINE
  5
1451D
330
1F
100
AcDbEntity
  8
AM_0
100
AcDbSpline
210
0.0
220
0.0
230
1.0
 70
     8
 71
     3
 72
    12
 73
     8
 74
     0
 42
0.0000000001
 43
0.0000000001
 40
0.0
 40
0.0
 40
0.0
 40
0.0
 40
0.0293046117044381
 40
0.2863438093055723
 40
0.5416378652458432
 40
0.7971163514324445
 40
1.0
 40
1.0
 40
1.0
 40
1.0
 10
226.4828602854491
 20
82.67810722025002
 30
0.0
 10
226.4832123283034
 20
82.68126924145523
 30
0.0
 10
226.4866522405267
 20
82.71216626224239
 30
0.0
 10
226.5194807146729
 20
82.76466693965659
 30
0.0
 10
226.5784026956965
 20
82.82343856736522
 30
0.0
 10
226.6506927204568
 20
82.85741244137332
 30
0.0
 10
226.7004392199346
 20
82.8612527891684
 30
0.0
 10
226.7224583845914
 20
82.86295263240001
 30
0.0
  0
ELLIPSE
  5
1451F
330
1F
100
AcDbEntity
  8
AM_0
100
AcDbEllipse
 10
223.9588424483681
 20
75.61390768861042
 30
0.0
 11
-0.1781246519725528
 21
-0.1781246519725812
 31
0.0
210
0.0
220
0.0
230
1.0
 40
0.9924325091
 41
5.501585242055356
 42
7.064785372303898
  0
LINE
  5
14521
330
1F
100
AcDbEntity
  8
AM_0
100
AcDbLine
 10
223.7078875839679
 20
75.61200149501042
 30
0.0
 11
223.7078875839679
 21
75.70464294551041
 31
0.0
  0
ELLIPSE
  5
14524
330
1F
100
AcDbEntity
  8
AM_0
100
AcDbEllipse
 10
233.7920916981681
 20
81.8591328917104
 30
0.0
 11
0.3843954654706747
 21
0.9280127460540654
 31
0.0
210
0.0
220
0.0
230
1.0
 40
0.9955461672999998
 41
5.892061919585146
 42
6.674308694774075
  0
ELLIPSE
  5
14525
330
1F
100
AcDbEntity
  8
AM_0
100
AcDbEllipse
 10
234.0420916981681
 20
76.36677256681043
 30
0.0
 11
0.3843954654707317
 21
-0.9280127460540652
 31
0.0
210
0.0
220
0.0
230
1.0
 40
0.9955461673
 41
5.892061919585168
 42
6.674308694774031
  0
LINE
  5
14526
330
1F
100
AcDbEntity
  8
AM_0
100
AcDbLine
 10
233.795250307468
 20
82.86295263241038
 30
0.0
 11
226.7224583845681
 21
82.86295263241038
 31
0.0
  0
LINE
  5
14527
330
1F
100
AcDbEntity
  8
AM_0
100
AcDbLine
 10
234.0452498827681
 20
75.36295280001041
 30
0.0
 11
223.956936278968
 21
75.36295280001041
 31
0.0
  0
LINE
  5
14528
330
1F
100
AcDbEntity
  8
AM_0
100
AcDbLine
 10
232.107887517368
 20
75.1129527590104
 30
0.0
 11
227.207887459168
 21
75.1129527590104
 31
0.0
  0
LINE
  5
14529
330
1F
100
AcDbEntity
  8
AM_0
100
AcDbLine
 10
232.107887517368
 20
75.36295280001041
 30
0.0
 11
232.107887517368
 21
75.1129527590104
 31
0.0
  0
LINE
  5
1452A
330
1F
100
AcDbEntity
  8
AM_0
100
AcDbLine
 10
227.207887459168
 20
75.1129527590104
 30
0.0
 11
227.207887459168
 21
75.36295280001041
 31
0.0
  0
ARC
  5
1452B
330
1F
100
AcDbEntity
  8
AM_0
100
AcDbCircle
 10
221.707887488968
 20
80.61295272921041
 30
0.0
 40
5.150000000000003
100
AcDbArc
 50
245.5649832943016
 51
158.2466444510998
  0
LINE
  5
1452C
330
1F
100
AcDbEntity
  8
AM_0
100
AcDbLine
 10
207.707887056868
 20
76.46295279411041
 30
0.0
 11
207.707887056868
 21
76.61295253931041
 31
0.0
  0
ARC
  5
1452D
330
1F
100
AcDbEntity
  8
AM_0
100
AcDbCircle
 10
207.6078874889681
 20
76.4629527292104
 30
0.0
 40
0.1000000000000227
100
AcDbArc
 50
270.0
 51
0.0
  0
LINE
  5
1452E
330
1F
100
AcDbEntity
  8
AM_0
100
AcDbLine
 10
207.5614412386681
 20
76.36295249831039
 30
0.0
 11
207.6078872267681
 21
76.36295249831039
 31
0.0
  0
ARC
  5
1452F
330
1F
100
AcDbEntity
  8
AM_0
100
AcDbCircle
 10
207.5614408795681
 20
76.61295272921041
 30
0.0
 40
0.250000000000002
100
AcDbArc
 50
225.0
 51
270.0
  0
LINE
  5
14530
330
1F
100
AcDbEntity
  8
AM_0
100
AcDbLine
 10
207.000780392068
 20
76.8200595877104
 30
0.0
 11
207.384664106768
 21
76.43617587311038
 31
0.0
  0
ARC
  5
14531
330
1F
100
AcDbEntity
  8
AM_0
100
AcDbCircle
 10
207.707887488968
 20
77.5271662916104
 30
0.0
 40
1.000000000000067
100
AcDbArc
 50
180.0
 51
225.0
  0
LINE
  5
14532
330
1F
100
AcDbEntity
  8
AM_0
100
AcDbLine
 10
206.707887824268
 20
80.19873915621039
 30
0.0
 11
206.707887824268
 21
77.52716625251039
 31
0.0
  0
ARC
  5
14533
330
1F
100
AcDbEntity
  8
AM_0
100
AcDbCircle
 10
207.707887488968
 20
80.19873916691039
 30
0.0
 40
1.000000000000047
100
AcDbArc
 50
135.0000000000001
 51
180.0
  0
LINE
  5
14534
330
1F
100
AcDbEntity
  8
AM_0
100
AcDbLine
 10
208.9149947349681
 20
82.82005940711039
 30
0.0
 11
207.000780392068
 21
80.9058459373104
 31
0.0
  0
ARC
  5
14535
330
1F
100
AcDbEntity
  8
AM_0
100
AcDbCircle
 10
209.622101051368
 20
82.1129527292104
 30
0.0
 40
1.0
100
AcDbArc
 50
90.0
 51
135.0000000000001
  0
LINE
  5
14536
330
1F
100
AcDbEntity
  8
AM_0
100
AcDbLine
 10
216.5298084799681
 20
83.11295267341041
 30
0.0
 11
209.6221013996681
 21
83.11295267341041
 31
0.0
  0
ARC
  5
14537
330
1F
100
AcDbEntity
  8
AM_0
100
AcDbCircle
 10
216.529808694668
 20
84.11295272921041
 30
0.0
 40
1.000000000000002
100
AcDbArc
 50
270.0
 51
325.9442022574003
  0
ARC
  5
14538
330
1F
100
AcDbEntity
  8
AM_0
100
AcDbCircle
 10
221.707887488968
 20
80.61295272921041
 30
0.0
 40
5.249999999999998
100
AcDbArc
 50
267.3947487348995
 51
145.9442022574004
  0
ARC
  5
14539
330
1F
100
AcDbEntity
  8
AM_0
100
AcDbCircle
 10
221.457887488968
 20
75.11863748531038
 30
0.0
 40
0.2499999999999912
100
AcDbArc
 50
87.39474873489944
 51
164.3671423279018
  0
ARC
  5
1453A
330
1F
100
AcDbEntity
  8
AM_0
100
AcDbCircle
 10
221.1208346225681
 20
75.2129527292104
 30
0.0
 40
0.1000000000000362
100
AcDbArc
 50
270.0
 51
344.3671423279019
  0
LINE
  5
1453B
330
1F
100
AcDbEntity
  8
AM_0
100
AcDbLine
 10
216.4578875597681
 20
75.1129527590104
 30
0.0
 11
221.1208346487681
 21
75.1129527590104
 31
0.0
  0
ARC
  5
1453C
330
1F
100
AcDbEntity
  8
AM_0
100
AcDbCircle
 10
216.457887488968
 20
75.36295272921041
 30
0.0
 40
0.25
100
AcDbArc
 50
180.0
 51
270.0
  0
ARC
  5
1453D
330
1F
100
AcDbEntity
  8
AM_0
100
AcDbCircle
 10
210.957887488968
 20
75.36295272921041
 30
0.0
 40
0.2500000000000568
100
AcDbArc
 50
270.0
 51
0.0
  0
LINE
  5
1453E
330
1F
100
AcDbEntity
  8
AM_0
100
AcDbLine
 10
209.9578878913681
 20
75.1129527590104
 30
0.0
 11
210.957887123968
 21
75.1129527590104
 31
0.0
  0
ARC
  5
1453F
330
1F
100
AcDbEntity
  8
AM_0
100
AcDbCircle
 10
209.957887488968
 20
75.36295272921041
 30
0.0
 40
0.2499999999999716
100
AcDbArc
 50
180.0
 51
270.0
  0
ARC
  5
14540
330
1F
100
AcDbEntity
  8
AM_0
100
AcDbCircle
 10
233.457887488968
 20
75.36295272921041
 30
0.0
 40
0.25
100
AcDbArc
 50
270.0
 51
0.0
  0
LINE
  5
14541
330
1F
100
AcDbEntity
  8
AM_0
100
AcDbLine
 10
233.4578870866681
 20
75.1129527590104
 30
0.0
 11
232.4578878540681
 21
75.1129527590104
 31
0.0
  0
ARC
  5
14542
330
1F
100
AcDbEntity
  8
AM_0
100
AcDbCircle
 10
232.457887488968
 20
75.36295272921041
 30
0.0
 40
0.25
100
AcDbArc
 50
180.0
 51
270.0
  0
ARC
  5
14543
330
1F
100
AcDbEntity
  8
AM_0
100
AcDbCircle
 10
226.957887488968
 20
75.36295272921041
 30
0.0
 40
0.2500000000000568
100
AcDbArc
 50
270.0
 51
0.0
  0
LINE
  5
14544
330
1F
100
AcDbEntity
  8
AM_0
100
AcDbLine
 10
226.957887418268
 20
75.1129527590104
 30
0.0
 11
222.294940329268
 21
75.1129527590104
 31
0.0
  0
ARC
  5
14545
330
1F
100
AcDbEntity
  8
AM_0
100
AcDbCircle
 10
222.2949403554681
 20
75.2129527292104
 30
0.0
 40
0.1000000000000362
100
AcDbArc
 50
195.632857672098
 51
270.0
  0
ARC
  5
14546
330
1F
100
AcDbEntity
  8
AM_0
100
AcDbCircle
 10
221.957887488968
 20
75.11863748531038
 30
0.0
 40
0.2499999999999931
100
AcDbArc
 50
15.63285767209805
 51
92.60525126510051
  0
ARC
  5
14547
330
1F
100
AcDbEntity
  8
AM_0
100
AcDbCircle
 10
226.8859662832681
 20
84.11295272921041
 30
0.0
 40
1.000000000000049
100
AcDbArc
 50
214.0557977425995
 51
270.0
  0
LINE
  5
14548
330
1F
100
AcDbEntity
  8
AM_0
100
AcDbLine
 10
226.885966498068
 20
83.11295267341041
 30
0.0
 11
233.793673578268
 21
83.11295267341041
 31
0.0
  0
ARC
  5
14549
330
1F
100
AcDbEntity
  8
AM_0
100
AcDbCircle
 10
233.7936739266681
 20
82.1129527292104
 30
0.0
 40
1.000000000000027
100
AcDbArc
 50
44.99999999999992
 51
90.0
  0
LINE
  5
1454A
330
1F
100
AcDbEntity
  8
AM_0
100
AcDbLine
 10
234.500780243068
 20
82.82005940711039
 30
0.0
 11
236.4149945859681
 21
80.9058459373104
 31
0.0
  0
ARC
  5
1454B
330
1F
100
AcDbEntity
  8
AM_0
100
AcDbCircle
 10
235.707887488968
 20
80.19873916691039
 30
0.0
 40
1.000000000000007
100
AcDbArc
 50
0.0
 51
44.99999999999992
  0
LINE
  5
1454C
330
1F
100
AcDbEntity
  8
AM_0
100
AcDbLine
 10
236.7078871537681
 20
80.19873915621039
 30
0.0
 11
236.7078871537681
 21
77.52716625251039
 31
0.0
  0
ARC
  5
1454D
330
1F
100
AcDbEntity
  8
AM_0
100
AcDbCircle
 10
235.707887488968
 20
77.5271662916104
 30
0.0
 40
1.000000000000007
100
AcDbArc
 50
314.9999999999999
 51
0.0
  0
LINE
  5
1454E
330
1F
100
AcDbEntity
  8
AM_0
100
AcDbLine
 10
236.4149945859681
 20
76.8200595877104
 30
0.0
 11
236.0311108712681
 21
76.43617587311038
 31
0.0
  0
ARC
  5
1454F
330
1F
100
AcDbEntity
  8
AM_0
100
AcDbCircle
 10
235.8543340983681
 20
76.61295272921041
 30
0.0
 40
0.25
100
AcDbArc
 50
270.0
 51
314.9999999999999
  0
LINE
  5
14550
330
1F
100
AcDbEntity
  8
AM_0
100
AcDbLine
 10
235.854333739368
 20
76.36295249831039
 30
0.0
 11
235.807887751268
 21
76.36295249831039
 31
0.0
  0
ARC
  5
14551
330
1F
100
AcDbEntity
  8
AM_0
100
AcDbCircle
 10
235.8078874889679
 20
76.4629527292104
 30
0.0
 40
0.1000000000000227
100
AcDbArc
 50
180.0
 51
270.0
  0
LINE
  5
14552
330
1F
100
AcDbEntity
  8
AM_0
100
AcDbLine
 10
235.7078879211681
 20
76.46295279411041
 30
0.0
 11
235.7078879211681
 21
76.61295253931041
 31
0.0
  0
LINE
  5
14553
330
1F
100
AcDbEntity
  8
AM_3
 48
0.5
100
AcDbLine
 10
234.9640959896681
 20
91.78473873446838
 30
0.0
 11
236.9815400858681
 21
88.31378193006839
 31
0.0
  0
LINE
  5
14554
330
1F
100
AcDbEntity
  8
AM_3
 48
0.5
100
AcDbLine
 10
234.9640959896681
 20
91.78473873446838
 30
0.0
 11
238.8405700543681
 21
89.8242437793684
 31
0.0
  0
LINE
  5
14555
330
1F
100
AcDbEntity
  8
AM_1
100
AcDbLine
 10
246.7661266125748
 20
74.26444295456841
 30
0.0
 11
245.6671899989748
 21
77.18628890526841
 31
0.0
  0
LINE
  5
14556
330
1F
100
AcDbEntity
  8
AM_1
100
AcDbLine
 10
246.7661266125748
 20
74.26444295456841
 30
0.0
 11
248.0104096571747
 21
77.18628890526841
 31
0.0
  0
ARC
  5
1455C
330
1F
100
AcDbEntity
  8
AM_1
100
AcDbCircle
 10
223.3065516513748
 20
76.0271201812684
 30
0.0
 40
23.52570271779961
100
AcDbArc
 50
355.7030529316984
 51
47.54968212820054
  0
ARC
  5
1455D
330
1F
100
AcDbEntity
  8
AM_3
 48
0.5
100
AcDbCircle
 10
221.707887488968
 20
76.0271201812684
 30
0.0
 40
20.59197917339923
100
AcDbArc
 50
354.9808351626991
 51
49.92753740019983
  0
MTEXT
  5
1455F
330
1F
100
AcDbEntity
  8
AM_6
100
AcDbMText
 10
254.5891463891137
 20
103.0578634371819
 30
0.0
 40
4.0
 41
0.0
 71
     1
 72
     1
  1
DEH-TQA90-A
 11
-0.0000000000000002
 21
-1.0
 31
0.0
 73
     1
 44
1.0
1001
ACAD
1000
MTEXTBEGIN
1070
    73
1070
     1
1070
    44
1040
1.0
1070
    74
1070
     0
1000
MTEXTEND
  0
MTEXT
  5
14560
330
1F
100
AcDbEntity
  8
AM_6
100
AcDbMText
 10
277.8248138965527
 20
103.0578634371819
 30
0.0
 40
4.0
 41
0.0
 71
     1
 72
     1
  1
DEH-TQA90-B
 11
-0.0000000000000002
 21
-1.0
 31
0.0
 73
     1
 44
1.0
1001
ACAD
1000
MTEXTBEGIN
1070
    73
1070
     1
1070
    44
1040
1.0
1070
    74
1070
     0
1000
MTEXTEND
  0
LINE
  5
14562
330
1F
100
AcDbEntity
  8
AM_7
 48
0.8
100
AcDbLine
 10
100.1321206994168
 20
150.7422272954189
 30
0.0
 11
100.1321206994168
 21
134.2422272954189
 31
0.0
1001
GENIUS_GENODEF_13
1002
{
1000
HIER
1070
     0
1002
}
1002
{
1000
MANEDIT
1070
     0
1002
}
1002
{
1000
NOSEL
1070
     0
1002
}
1002
{
1000
BEHIND
1070
     0
1002
}
1002
{
1000
OTHER
1070
     0
1002
}
1002
{
1000
REACTOR
1002
}
1001
GENIUS_GENOBJ-N-CEN_13
1002
{
1000
OWNER
1000
GEN
1002
}
1001
GENIUS_GENCEN_19
1002
{
1040
3.0
1002
}
  0
LINE
  5
14563
330
1F
100
AcDbEntity
  8
AM_7
 48
0.8
100
AcDbLine
 10
91.88212069941686
 20
142.4922272954189
 30
0.0
 11
108.3821206994168
 21
142.4922272954189
 31
0.0
1001
GENIUS_GENODEF_13
1002
{
1000
HIER
1070
     0
1002
}
1002
{
1000
MANEDIT
1070
     0
1002
}
1002
{
1000
NOSEL
1070
     0
1002
}
1002
{
1000
BEHIND
1070
     0
1002
}
1002
{
1000
OTHER
1070
     0
1002
}
1002
{
1000
REACTOR
1002
}
1001
GENIUS_GENOBJ-N-CEN_13
1002
{
1000
OWNER
1000
GEN
1002
}
1001
GENIUS_GENCEN_19
1002
{
1040
3.0
1002
}
  0
LINE
  5
14564
330
1F
100
AcDbEntity
  8
AM_7
 48
0.8
100
AcDbLine
 10
120.1321206994168
 20
150.7422272954189
 30
0.0
 11
120.1321206994168
 21
134.2422272954189
 31
0.0
1001
GENIUS_GENODEF_13
1002
{
1000
HIER
1070
     0
1002
}
1002
{
1000
MANEDIT
1070
     0
1002
}
1002
{
1000
NOSEL
1070
     0
1002
}
1002
{
1000
BEHIND
1070
     0
1002
}
1002
{
1000
OTHER
1070
     0
1002
}
1002
{
1000
REACTOR
1002
}
1001
GENIUS_GENOBJ-N-CEN_13
1002
{
1000
OWNER
1000
GEN
1002
}
1001
GENIUS_GENCEN_19
1002
{
1040
3.0
1002
}
  0
LINE
  5
14565
330
1F
100
AcDbEntity
  8
AM_7
 48
0.8
100
AcDbLine
 10
111.8821206994168
 20
142.4922272954189
 30
0.0
 11
128.3821206994167
 21
142.4922272954189
 31
0.0
1001
GENIUS_GENODEF_13
1002
{
1000
HIER
1070
     0
1002
}
1002
{
1000
MANEDIT
1070
     0
1002
}
1002
{
1000
NOSEL
1070
     0
1002
}
1002
{
1000
BEHIND
1070
     0
1002
}
1002
{
1000
OTHER
1070
     0
1002
}
1002
{
1000
REACTOR
1002
}
1001
GENIUS_GENOBJ-N-CEN_13
1002
{
1000
OWNER
1000
GEN
1002
}
1001
GENIUS_GENCEN_19
1002
{
1040
3.0
1002
}
  0
LINE
  5
14566
330
1F
100
AcDbEntity
  8
AM_7
 48
0.8
100
AcDbLine
 10
82.13212069941686
 20
118.7422272954188
 30
0.0
 11
82.13212069941686
 21
102.2422272954189
 31
0.0
1001
GENIUS_GENODEF_13
1002
{
1000
HIER
1070
     0
1002
}
1002
{
1000
MANEDIT
1070
     0
1002
}
1002
{
1000
NOSEL
1070
     0
1002
}
1002
{
1000
BEHIND
1070
     0
1002
}
1002
{
1000
OTHER
1070
     0
1002
}
1002
{
1000
REACTOR
1002
}
1001
GENIUS_GENOBJ-N-CEN_13
1002
{
1000
OWNER
1000
GEN
1002
}
1001
GENIUS_GENCEN_19
1002
{
1040
3.0
1002
}
  0
LINE
  5
14567
330
1F
100
AcDbEntity
  8
AM_7
 48
0.8
100
AcDbLine
 10
73.88212069941686
 20
110.4922272954188
 30
0.0
 11
90.3821206994168
 21
110.4922272954188
 31
0.0
1001
GENIUS_GENODEF_13
1002
{
1000
HIER
1070
     0
1002
}
1002
{
1000
MANEDIT
1070
     0
1002
}
1002
{
1000
NOSEL
1070
     0
1002
}
1002
{
1000
BEHIND
1070
     0
1002
}
1002
{
1000
OTHER
1070
     0
1002
}
1002
{
1000
REACTOR
1002
}
1001
GENIUS_GENOBJ-N-CEN_13
1002
{
1000
OWNER
1000
GEN
1002
}
1001
GENIUS_GENCEN_19
1002
{
1040
3.0
1002
}
  0
LINE
  5
14568
330
1F
100
AcDbEntity
  8
AM_7
 48
0.8
100
AcDbLine
 10
62.13212069941686
 20
118.7422272954188
 30
0.0
 11
62.13212069941686
 21
102.2422272954189
 31
0.0
1001
GENIUS_GENODEF_13
1002
{
1000
HIER
1070
     0
1002
}
1002
{
1000
MANEDIT
1070
     0
1002
}
1002
{
1000
NOSEL
1070
     0
1002
}
1002
{
1000
BEHIND
1070
     0
1002
}
1002
{
1000
OTHER
1070
     0
1002
}
1002
{
1000
REACTOR
1002
}
1001
GENIUS_GENOBJ-N-CEN_13
1002
{
1000
OWNER
1000
GEN
1002
}
1001
GENIUS_GENCEN_19
1002
{
1040
3.0
1002
}
  0
LINE
  5
14569
330
1F
100
AcDbEntity
  8
AM_7
 48
0.8
100
AcDbLine
 10
53.88212069941686
 20
110.4922272954188
 30
0.0
 11
70.3821206994168
 21
110.4922272954188
 31
0.0
1001
GENIUS_GENODEF_13
1002
{
1000
HIER
1070
     0
1002
}
1002
{
1000
MANEDIT
1070
     0
1002
}
1002
{
1000
NOSEL
1070
     0
1002
}
1002
{
1000
BEHIND
1070
     0
1002
}
1002
{
1000
OTHER
1070
     0
1002
}
1002
{
1000
REACTOR
1002
}
1001
GENIUS_GENOBJ-N-CEN_13
1002
{
1000
OWNER
1000
GEN
1002
}
1001
GENIUS_GENCEN_19
1002
{
1040
3.0
1002
}
  0
DIMENSION
  5
1456A
330
1F
100
AcDbEntity
  8
AM_5
100
AcDbDimension
  2
*D6
 10
149.6321214146168
 20
96.4922279660189
 30
0.0
 11
146.5321214146168
 21
126.4922272954689
 31
0.0
 70
    32
  1
（<>）
 71
     5
 42
59.9999986589
  3
SYS$0
100
AcDbAlignedDimension
 13
127.6321214146168
 23
156.4922266249189
 33
0.0
 14
89.63212077391686
 24
96.4922279660189
 34
0.0
 50
90.0
100
AcDbRotatedDimension
  0
DIMENSION
  5
14592
330
1F
100
AcDbEntity
  8
AM_5
100
AcDbDimension
  2
*D7
 10
139.6321214146168
 20
142.4922272954189
 30
0.0
 11
136.5321214146168
 21
126.4922272954189
 31
0.0
 70
    32
 71
     5
 42
32.00000000000005
  3
SYS$0
100
AcDbAlignedDimension
 13
90.3821206994168
 23
110.4922272954188
 33
0.0
 14
128.3821206994167
 24
142.4922272954189
 34
0.0
 50
90.0
100
AcDbRotatedDimension
  0
DIMENSION
  5
145B1
330
1F
100
AcDbEntity
  8
AM_5
100
AcDbDimension
  2
*D8
 10
100.1321206994168
 20
85.0780121016189
 30
0.0
 11
91.13212069941686
 21
88.17801210161889
 31
0.0
 70
    32
 71
     5
 42
18.0
  3
SYS$0
100
AcDbAlignedDimension
 13
82.13212069941686
 23
102.2422272954189
 33
0.0
 14
100.1321206994168
 24
134.2422272954189
 34
0.0
100
AcDbRotatedDimension
  0
DIMENSION
  5
145C7
330
1F
100
AcDbEntity
  8
AM_5
100
AcDbDimension
  2
*D9
 10
62.13212069941686
 20
85.0780121016187
 30
0.0
 11
72.13212069941686
 21
88.17801210161869
 31
0.0
 70
    32
 71
     5
 42
20.0
  3
SYS$0
100
AcDbAlignedDimension
 13
82.13212069941686
 23
102.2422272954189
 33
0.0
 14
62.13212069941686
 24
102.2422272954189
 34
0.0
100
AcDbRotatedDimension
  0
DIMENSION
  5
145DD
330
1F
100
AcDbEntity
  8
AM_5
100
AcDbDimension
  2
*D10
 10
120.1321206994168
 20
85.07801210161876
 30
0.0
 11
110.1321206994168
 21
88.17801210161874
 31
0.0
 70
    32
 71
     5
 42
19.99999999999994
  3
SYS$0
100
AcDbAlignedDimension
 13
100.1321206994168
 23
134.2422272954189
 33
0.0
 14
120.1321206994168
 24
134.2422272954189
 34
0.0
100
AcDbRotatedDimension
  0
DIMENSION
  5
145F3
330
1F
100
AcDbEntity
  8
AM_5
100
AcDbDimension
  2
*D11
 10
129.8582211232168
 20
75.07801210161858
 30
0.0
 11
91.13212069941681
 21
78.17801210161857
 31
0.0
 70
    32
  1
（<>）
 71
     5
 42
77.45220084759999
  3
SYS$0
100
AcDbAlignedDimension
 13
52.40602027561682
 23
120.6343146163189
 33
0.0
 14
129.8582211232168
 24
120.6343146163189
 34
0.0
100
AcDbRotatedDimension
1001
ACAD
1000
DSTYLE
1002
{
1070
   271
1070
     1
1002
}
  0
DIMENSION
  5
14651
330
1F
100
AcDbEntity
  8
AM_5
100
AcDbDimension
  2
*D12
 10
40.42601926561739
 20
110.4922272954188
 30
0.0
 11
37.32601926561738
 21
118.4922272954449
 31
0.0
 70
    32
 71
     5
 42
16.00000000005198
  3
SYS$0
100
AcDbAlignedDimension
 13
49.42602047391686
 23
126.4922272954708
 33
0.0
 14
53.88212069941686
 24
110.4922272954188
 34
0.0
 50
89.99999999996337
100
AcDbRotatedDimension
  0
DIMENSION
  5
14667
330
1F
100
AcDbEntity
  8
AM_5
100
AcDbDimension
  2
*D13
 10
30.42601926561899
 20
96.49222796601891
 30
0.0
 11
27.32601926561898
 21
111.4922276307449
 31
0.0
 70
    32
 71
     5
 42
29.99999932945195
  3
SYS$0
100
AcDbAlignedDimension
 13
49.42602047391686
 23
126.4922272954708
 33
0.0
 14
54.63212062491685
 24
96.4922279660189
 34
0.0
 50
89.99999999996337
100
AcDbRotatedDimension
  0
DIMENSION
  5
14695
330
1F
100
AcDbEntity
  8
AM_5
100
AcDbDimension
  2
*D14
 10
119.0654472360921
 20
140.1211077871194
 30
0.0
 11
137.1317519985705
 21
162.812513384071
 31
0.0
 70
   163
  1
4-<>
 71
     5
 42
5.19999999999996
  3
SYS$3
100
AcDbDiametricDimension
 15
121.1987941627419
 25
144.8633468037184
 35
0.0
 40
0.0
1001
ACAD
1000
DSTYLE
1002
{
1070
   172
1070
     1
1070
   342
1005
DE4A
1002
}
  0
DIMENSION
  5
14730
330
1F
100
AcDbEntity
  8
AM_5
100
AcDbDimension
  2
*D15
 10
206.1898771350247
 20
19.31387579052423
 30
0.0
 11
217.6898772393252
 21
22.41387579052424
 31
0.0
 70
    32
 71
     5
 42
23.00000020860097
  3
SYS$0
100
AcDbAlignedDimension
 13
229.1898773436257
 23
34.81387587242426
 33
0.0
 14
206.1898771350247
 24
34.41545218797938
 34
0.0
100
AcDbRotatedDimension
1001
ACAD
1000
DSTYLE
1002
{
1070
   271
1070
     1
1002
}
  0
DIMENSION
  5
14761
330
1F
100
AcDbEntity
  8
AM_5
100
AcDbDimension
  2
*D16
 10
206.1898771350247
 20
19.31387579052401
 30
0.0
 11
201.423210468358
 21
19.31387579052401
 31
0.0
 70
   160
 71
     5
  3
SYS$0
100
AcDbAlignedDimension
 13
205.1898771350247
 23
31.56387576072428
 33
0.0
 14
206.1898771350247
 24
34.41545218797938
 34
0.0
100
AcDbRotatedDimension
  0
DIMENSION
  5
147A5
330
1F
100
AcDbEntity
  8
AM_5
100
AcDbDimension
  2
*D17
 10
247.1898781450258
 20
43.31387573092427
 30
0.0
 11
244.0898781450258
 21
38.81387573092432
 31
0.0
 70
    32
 71
     5
 42
9.0
  3
SYS$0
100
AcDbAlignedDimension
 13
228.6898771350258
 23
34.31387573092428
 33
0.0
 14
227.1898770791434
 24
43.31387573092428
 34
0.0
 50
90.0
100
AcDbRotatedDimension
  0
DIMENSION
  5
147BB
330
1F
100
AcDbEntity
  8
AM_5
100
AcDbDimension
  2
*D18
 10
257.1898781450256
 20
50.3138757309243
 30
0.0
 11
254.0898781450257
 21
42.31387573092432
 31
0.0
 70
    32
 71
     5
 42
16.00000000000003
  3
SYS$0
100
AcDbAlignedDimension
 13
228.6898771350258
 23
34.31387573092428
 33
0.0
 14
229.3614500103257
 24
50.3138757309243
 34
0.0
 50
90.0
100
AcDbRotatedDimension
  0
DIMENSION
  5
14802
330
1F
100
AcDbEntity
  8
AM_5
100
AcDbDimension
  2
*D19
 10
139.6321214146167
 20
34.31387579052426
 30
0.0
 11
136.5321214146167
 21
45.06387568992428
 31
0.0
 70
    32
 71
     5
 42
21.49999979879999
  3
SYS$0
100
AcDbAlignedDimension
 13
127.6321214146168
 23
55.81387558932425
 33
0.0
 14
127.6321214146168
 24
34.31387579052426
 34
0.0
 50
90.0
100
AcDbRotatedDimension
  0
MTEXT
  5
14A76
330
1F
100
AcDbEntity
  8
AM_6
100
AcDbMText
 10
201.6636609296448
 20
116.7637076964348
 30
0.0
 40
3.2
 41
27.55732626046916
 71
     1
 72
     5
  1
{\L開閉方向の動作状態\P}トルク発生方向　：\Pトルクフリー方向：
 73
     1
 44
1.0
1001
ACAD
1000
MTEXTBEGIN
1070
    73
1070
     1
1070
    44
1040
1.0
1070
    74
1070
     0
1000
MTEXTEND
  0
LWPOLYLINE
  5
14A79
330
1F
100
AcDbEntity
  8
AM_0
100
AcDbPolyline
 90
        4
 70
     1
 43
0.0
 10
195.500000282035
 20
127.5000000504796
 10
285.500000282035
 20
127.5000000504796
 10
285.500000282035
 20
68.99377464328066
 10
195.500000282035
 20
68.99377464328067
1001
GENIUS_GENREC_14
1002
{
1000
PYDIR
1011
195.500000282035
1021
68.99377464328066
1031
0.0
1002
}
1002
{
1000
PXDIR
1011
285.500000282035
1021
127.5000000504796
1031
0.0
1002
}
1002
{
1000
PORI
1011
195.500000282035
1021
127.5000000504796
1031
0.0
1002
}
1002
{
1000
PINS
1011
195.500000282035
1021
127.5000000504796
1031
0.0
1002
}
1002
{
1000
PINS2
1011
285.500000282035
1021
68.99377464328066
1031
0.0
1002
}
1002
{
1000
C
1070
     1
1002
}
1001
GENIUS_GENOBJ-N-REC_13
1002
{
1000
OWNER
1000
GEN
1002
}
1001
GENIUS_GENODEF_13
1002
{
1000
HIER
1070
     0
1002
}
1002
{
1000
MANEDIT
1070
     0
1002
}
1002
{
1000
NOSEL
1070
     0
1002
}
1002
{
1000
BEHIND
1070
     0
1002
}
1002
{
1000
OTHER
1070
     0
1002
}
1002
{
1000
REACTOR
1002
}
  0
LINE
  5
14B02
330
1F
100
AcDbEntity
  8
AM_3
370
    15
100
AcDbLine
 10
126.1321221001168
 20
131.4922271836189
 30
0.0
 11
103.6321212061168
 21
131.4922271836189
 31
0.0
  0
LINE
  5
14B03
330
1F
100
AcDbEntity
  8
AM_3
370
    15
100
AcDbLine
 10
103.6321212061168
 20
121.4922274071189
 30
0.0
 11
126.1321221001168
 21
121.4922274071189
 31
0.0
  0
LINE
  5
14B04
330
1F
100
AcDbEntity
  8
AM_3
370
    15
100
AcDbLine
 10
126.1321221001168
 20
121.4922274071189
 30
0.0
 11
126.6321193881168
 21
121.9922274891189
 31
0.0
  0
LINE
  5
14B05
330
1F
100
AcDbEntity
  8
AM_3
370
    15
100
AcDbLine
 10
126.6321193881168
 20
130.9922271016189
 30
0.0
 11
126.1321221001168
 21
131.4922271836189
 31
0.0
  0
LINE
  5
14B06
330
1F
100
AcDbEntity
  8
AM_3
370
    15
100
AcDbLine
 10
102.6321210422168
 20
119.6145460549189
 30
0.0
 11
92.63212126571685
 21
119.6145460549189
 31
0.0
  0
LINE
  5
14B07
330
1F
100
AcDbEntity
  8
AM_3
370
    15
100
AcDbLine
 10
102.6321210422168
 20
133.3699085358189
 30
0.0
 11
92.63212126571685
 21
133.3699085358189
 31
0.0
  0
LINE
  5
14B08
330
1F
100
AcDbEntity
  8
AM_3
370
    15
100
AcDbLine
 10
102.6443213679168
 20
133.3577086757189
 30
0.0
 11
102.6321210422168
 21
133.3699085358189
 31
0.0
  0
LINE
  5
14B0A
330
1F
100
AcDbEntity
  8
AM_3
370
    15
100
AcDbLine
 10
102.6321210422168
 20
119.6145460549189
 30
0.0
 11
102.6443213679168
 21
119.6267459150189
 31
0.0
  0
LINE
  5
14B0B
330
1F
100
AcDbEntity
  8
AM_3
370
    15
100
AcDbLine
 10
103.6321212061168
 20
132.3699083719189
 30
0.0
 11
103.6321212061168
 21
120.6145462188189
 31
0.0
  0
LINE
  5
14B0C
330
1F
100
AcDbEntity
  8
AM_3
370
    15
100
AcDbLine
 10
103.6321212061168
 20
120.6145462188189
 30
0.0
 11
102.6443213679168
 21
119.6267459150189
 31
0.0
  0
LINE
  5
14B0D
330
1F
100
AcDbEntity
  8
AM_3
370
    15
100
AcDbLine
 10
102.6443213679168
 20
133.3577086757189
 30
0.0
 11
103.6321212061168
 21
132.3699083719189
 31
0.0
  0
LINE
  5
14B10
330
1F
100
AcDbEntity
  8
AM_3
370
    15
100
AcDbLine
 10
126.6321193881168
 20
130.9922271016189
 30
0.0
 11
126.6321193881168
 21
121.9922274891189
 31
0.0
  0
DIMENSION
  5
14BB6
330
1F
100
AcDbEntity
  8
AM_5
100
AcDbDimension
  2
*D20
 10
103.2025238591885
 20
138.2336918151787
 30
0.0
 11
75.87385997011836
 21
163.6201958128459
 31
0.0
 70
   163
  1
4-<>
 71
     5
 42
10.5
  3
SYS$3
100
AcDbDiametricDimension
 15
97.06171753964506
 25
146.750762775659
 35
0.0
 40
0.0
1001
ACAD
1000
DSTYLE
1002
{
1070
   172
1070
     1
1070
   289
1070
     2
1070
   342
1005
DE4A
1002
}
  0
INSERT
  5
14BEB
330
1F
100
AcDbEntity
  8
AM_5
100
AcDbBlockReference
  2
*S23
 10
0.0
 20
0.0
 30
0.0
  0
DIMENSION
  5
14BED
330
1F
100
AcDbEntity
  8
AM_5
100
AcDbDimension
  2
*D21
 10
163.1898761250257
 20
34.31387579052427
 30
0.0
 11
160.0898761250257
 21
39.81387576072431
 31
0.0
 70
    32
 71
     5
 42
10.99999994040001
  3
SYS$0
100
AcDbAlignedDimension
 13
172.3695176928013
 23
45.31387573092428
 33
0.0
 14
181.6898779397258
 24
34.31387579052426
 34
0.0
 50
90.0
100
AcDbRotatedDimension
  0
DIMENSION
  5
14C03
330
1F
100
AcDbEntity
  8
AM_5
100
AcDbDimension
  2
*D22
 10
153.1898761250257
 20
53.06387573091006
 30
0.0
 11
150.0898761250257
 21
43.6888757607172
 31
0.0
 70
    32
  1
（19）
 71
     5
 42
18.74999994038579
  3
SYS$0
100
AcDbAlignedDimension
 13
181.6898779397258
 23
34.31387579052426
 33
0.0
 14
186.8148771350275
 24
53.06387573091005
 34
0.0
 50
90.0
100
AcDbRotatedDimension
  0
INSERT
  5
14C5A
330
1F
100
AcDbEntity
  8
AM_5
100
AcDbBlockReference
  2
*S24
 10
0.0
 20
0.0
 30
0.0
  0
INSERT
  5
14C5C
330
1F
100
AcDbEntity
  8
AM_5
100
AcDbBlockReference
  2
*S25
 10
0.0
 20
0.0
 30
0.0
  0
INSERT
  5
14C5F
330
1F
100
AcDbEntity
  8
AM_5
100
AcDbBlockReference
  2
*S26
 10
0.0
 20
0.0
 30
0.0
  0
LINE
  5
14C73
330
1F
100
AcDbEntity
  8
AM_7
 48
0.25
100
AcDbLine
 10
221.707887488968
 20
88.8629527292104
 30
0.0
 11
221.707887488968
 21
72.4629527292104
 31
0.0
1001
GENIUS_GENOBJ-N-CEN_13
1002
{
1000
OWNER
1000
GEN
1002
}
1001
GENIUS_GENODEF_13
1002
{
1000
HIER
1070
     0
1002
}
1002
{
1000
MANEDIT
1070
     0
1002
}
1002
{
1000
NOSEL
1070
     0
1002
}
1002
{
1000
BEHIND
1070
     0
1002
}
1002
{
1000
OTHER
1070
     0
1002
}
1002
{
1000
REACTOR
1002
}
1001
GENIUS_GENCEN_19
1002
{
1040
3.0
1002
}
  0
LINE
  5
14C74
330
1F
100
AcDbEntity
  8
AM_7
 48
0.5
100
AcDbLine
 10
213.504917887653
 20
80.61295272921041
 30
0.0
 11
229.910857090283
 21
80.61295272921041
 31
0.0
1001
GENIUS_GENOBJ-N-CEN_13
1002
{
1000
OWNER
1000
GEN
1002
}
1001
GENIUS_GENODEF_13
1002
{
1000
HIER
1070
     0
1002
}
1002
{
1000
MANEDIT
1070
     0
1002
}
1002
{
1000
NOSEL
1070
     0
1002
}
1002
{
1000
BEHIND
1070
     0
1002
}
1002
{
1000
OTHER
1070
     0
1002
}
1002
{
1000
REACTOR
1002
}
1001
GENIUS_GENCEN_19
1002
{
1040
3.0
1002
}
  0
LINE
  5
14C7D
330
1F
100
AcDbEntity
  8
AM_1
 48
0.5
100
AcDbLine
 10
262.7977015212819
 20
93.3324358824778
 30
0.0
 11
264.5335229345709
 21
89.86147907807779
 31
0.0
  0
LINE
  5
14C7E
330
1F
100
AcDbEntity
  8
AM_1
 48
0.5
100
AcDbLine
 10
262.7977015212819
 20
93.3324358824778
 30
0.0
 11
266.6741755859819
 21
91.37194092737781
 31
0.0
  0
LINE
  5
14C7F
330
1F
100
AcDbEntity
  8
AM_3
 48
0.5
100
AcDbLine
 10
266.139536254149
 20
74.22554945149085
 30
0.0
 11
265.040599640549
 21
77.14739540219085
 31
0.0
  0
LINE
  5
14C80
330
1F
100
AcDbEntity
  8
AM_3
 48
0.5
100
AcDbLine
 10
266.139536254149
 20
74.22554945149085
 30
0.0
 11
267.3838192987489
 21
77.14739540219085
 31
0.0
  0
ARC
  5
14C81
330
1F
100
AcDbEntity
  8
AM_1
100
AcDbCircle
 10
246.8608029255001
 20
76.0271201812684
 30
0.0
 40
23.52570271779961
100
AcDbArc
 50
355.7030529316984
 51
47.54968212820052
  0
ARC
  5
14C82
330
1F
100
AcDbEntity
  8
AM_3
 48
0.5
100
AcDbCircle
 10
245.6265172373696
 20
76.0271201812684
 30
0.0
 40
20.59197917339923
100
AcDbArc
 50
354.9808351626991
 51
49.92753740019983
  0
LWPOLYLINE
  5
14C83
330
1F
100
AcDbEntity
  8
AM_2
100
AcDbPolyline
 90
        4
 70
     1
 43
0.0
 10
198.500000282035
 20
118.4680427062979
 10
239.2013640553733
 20
118.4680427062979
 10
239.2013640553733
 20
99.87482381293272
 10
198.500000282035
 20
99.87482381293272
1001
GENIUS_GENOBJ-N-REC_13
1002
{
1000
OWNER
1000
GEN
1002
}
1001
GENIUS_GENODEF_13
1002
{
1000
HIER
1070
     0
1002
}
1002
{
1000
MANEDIT
1070
     0
1002
}
1002
{
1000
NOSEL
1070
     0
1002
}
1002
{
1000
BEHIND
1070
     0
1002
}
1002
{
1000
OTHER
1070
     0
1002
}
1002
{
1000
REACTOR
1002
}
1001
GENIUS_GENREC_14
1002
{
1000
PYDIR
1011
198.500000282035
1021
99.87482381293272
1031
0.0
1002
}
1002
{
1000
PXDIR
1011
239.2013640553733
1021
118.4680427062979
1031
0.0
1002
}
1002
{
1000
PORI
1011
198.500000282035
1021
118.4680427062979
1031
0.0
1002
}
1002
{
1000
PINS
1011
198.500000282035
1021
118.4680427062979
1031
0.0
1002
}
1002
{
1000
PINS2
1011
239.2013640553733
1021
99.87482381293272
1031
0.0
1002
}
1002
{
1000
C
1070
     1
1002
}
  0
MTEXT
  5
14C84
330
1F
100
AcDbEntity
  8
AM_2
100
AcDbMText
 10
198.500000282035
 20
124.5000000504796
 30
0.0
 40
3.2
 41
89.99999999999998
 71
     1
 72
     5
  1
{\C2;・使用方法に応じて「A」「B」タイプを選定ください}
 73
     1
 44
1.0
1001
ACAD
1000
MTEXTBEGIN
1070
    73
1070
     1
1070
    44
1040
1.0
1070
    74
1070
     0
1000
MTEXTEND
  0
MTEXT
  5
14C85
330
1F
100
AcDbEntity
  8
AM_6
100
AcDbMText
 10
215.5000002820351
 20
175.5000000504798
 30
0.0
 40
3.2
 41
69.99999999999996
 71
     4
 72
     5
  1
　軸：ステンレス
 73
     1
 44
1.0
1001
ACAD
1000
MTEXTBEGIN
1070
    73
1070
     1
1070
    44
1040
1.0
1070
    74
1070
     0
1000
MTEXTEND
  0
ENDSEC
  0
SECTION
  2
OBJECTS
  0
DICTIONARY
  5
C
330
0
100
AcDbDictionary
281
     1
  3
ACAD_2007HEADERVARS_RT
350
14D91
  3
ACAD_BGPLOT_KEY
350
AB06
  3
ACAD_COLOR
350
A91D
  3
ACAD_GROUP
350
D
  3
ACAD_LAYOUT
350
1A
  3
ACAD_MATERIAL
350
A91C
  3
ACAD_MLINESTYLE
350
17
  3
ACAD_PLOTSETTINGS
350
19
  3
ACAD_PLOTSTYLENAME
350
E
  3
ACAD_TABLESTYLE
350
AAB9
  3
ACAD_VISUALSTYLE
350
B0F1
  3
AcAsAppObject
350
3DA1
  3
ACASGREF_MASTER
350
3DE9
  3
AcDbVariableDictionary
350
34
  3
AcmDictionary
350
47
  3
AD_GREF_MODULE
350
3DEA
  3
AD_MAPI_MODULE
350
3E06
  3
AMG
350
2B
  3
AMGSNAPSETTINGS
350
7D
  3
ASE_INDEX_DICTIONARY
350
14D43
  3
DWGPROPS
350
14D90
  3
MAPISURF_MODULE
350
3DEB
  0
DICTIONARY
  5
3F95
330
2
100
AcDbDictionary
280
     1
281
     1
  3
ACAD_LAYERFILTERS
360
B466
  3
ACAD_LAYERSTATES
360
3F96
  3
ACLYDICTIONARY
360
B465
  3
AMLAYER_GROUPCOLORS
360
AAB4
  0
DICTIONARY
  5
8A
330
1F
100
AcDbDictionary
280
     1
281
     1
  3
ACAD_SORTENTS
360
B1BA
  0
DICTIONARY
  5
14D91
102
{ACAD_REACTORS
330
C
102
}
330
C
100
AcDbDictionary
281
     1
  3
DIMARCSYM
350
14D92
  0
DICTIONARY
  5
AB06
102
{ACAD_REACTORS
330
C
102
}
330
C
100
AcDbDictionary
280
     1
281
     1
  0
DICTIONARY
  5
A91D
102
{ACAD_REACTORS
330
C
102
}
330
C
100
AcDbDictionary
281
     1
  0
DICTIONARY
  5
D
102
{ACAD_REACTORS
330
C
102
}
330
C
100
AcDbDictionary
281
     1
  0
DICTIONARY
  5
1A
102
{ACAD_REACTORS
330
C
102
}
330
C
100
AcDbDictionary
281
     1
  3
Model
350
22
  3
ﾚｲｱｳﾄ1
350
1E
  3
ﾚｲｱｳﾄ2
350
26
  0
DICTIONARY
  5
A91C
102
{ACAD_REACTORS
330
C
102
}
330
C
100
AcDbDictionary
281
     1
  3
ByBlock
350
B0EF
  3
ByLayer
350
B0EE
  3
Global
350
B0F0
  0
DICTIONARY
  5
17
102
{ACAD_REACTORS
330
C
102
}
330
C
100
AcDbDictionary
281
     1
  3
Standard
350
18
  0
DICTIONARY
  5
19
102
{ACAD_REACTORS
330
C
102
}
330
C
100
AcDbDictionary
281
     1
  0
ACDBDICTIONARYWDFLT
  5
E
102
{ACAD_REACTORS
330
C
102
}
330
C
100
AcDbDictionary
281
     1
  3
Normal
350
F
100
AcDbDictionaryWithDefault
340
F
  0
DICTIONARY
  5
AAB9
102
{ACAD_REACTORS
330
C
102
}
330
C
100
AcDbDictionary
281
     1
  3
Standard
350
AABA
  0
DICTIONARY
  5
B0F1
102
{ACAD_REACTORS
330
C
102
}
330
C
100
AcDbDictionary
281
     1
  3
2dWireframe
350
B0F7
  3
3D Hidden
350
B0F9
  3
3dWireframe
350
B0F8
  3
Basic
350
B0F6
  3
Brighten
350
B0FD
  3
ColorChange
350
B101
  3
Conceptual
350
B0FA
  3
Dim
350
B0FC
  3
Facepattern
350
B100
  3
Flat
350
B0F2
  3
FlatWithEdges
350
B0F3
  3
Gouraud
350
B0F4
  3
GouraudWithEdges
350
B0F5
  3
Linepattern
350
B0FF
  3
Realistic
350
B0FB
  3
Thicken
350
B0FE
  0
ACAD_PROXY_OBJECT
  5
3DA1
102
{ACAD_REACTORS
330
C
102
}
330
C
100
AcDbProxyObject
 90
      499
 91
      576
 95
   917527
 70
     0
 93
       10
310
407F
 94
        0
1001
ACAD
1000
AcRTDxfName
1000
ASAPP
  0
ACAD_PROXY_OBJECT
  5
3DE9
102
{ACAD_REACTORS
330
C
102
}
330
C
100
AcDbProxyObject
 90
      499
 91
      581
 95
   917527
 70
     0
 93
       34
310
010000407F
 94
        0
1001
ACAD
1000
AcRTDxfName
1000
ACASGREFMASTER
  0
DICTIONARY
  5
34
102
{ACAD_REACTORS
330
C
102
}
330
C
100
AcDbDictionary
281
     1
  3
CTABLESTYLE
350
AAF3
  3
DIMASSOC
350
A10C
  3
FIELDEVAL
350
AB07
  3
HPORIGIN
350
13D6D
  3
INDEXCTL
350
35
  3
SORTENTS
350
194C
  0
DICTIONARY
  5
47
102
{ACAD_REACTORS
330
C
102
}
330
C
100
AcDbDictionary
281
     1
  3
AcmBOM
350
7E8
  3
AcmStdDictionary
350
4C
  3
AMDTSECTSYM_ARROWCOLOR
350
A929
  0
ACAD_PROXY_OBJECT
  5
3DEA
102
{ACAD_REACTORS
330
C
102
}
330
C
100
AcDbProxyObject
 90
      499
 91
      582
 95
   917527
 70
     0
 93
      114
310
00000043800000000000000000003F
 94
        0
1001
ACAD
1000
AcRTDxfName
1000
ACADGREFMODULE
  0
ACAD_PROXY_OBJECT
  5
3E06
102
{ACAD_REACTORS
330
C
102
}
330
C
100
AcDbProxyObject
 90
      499
 91
      594
 95
   917527
 70
     0
 93
       34
310
05000044FF
 94
        0
1001
ACAD
1000
AcRTDxfName
1000
MAPIADMODULE
  0
DICTIONARY
  5
2B
102
{ACAD_REACTORS
330
C
102
}
330
C
100
AcDbDictionary
281
     1
  0
DICTIONARY
  5
7D
102
{ACAD_REACTORS
330
C
102
}
330
C
100
AcDbDictionary
281
     1
  0
DICTIONARY
  5
14D43
102
{ACAD_REACTORS
330
C
102
}
330
C
100
AcDbDictionary
281
     1
  3
ASEBlockHierarchyIndexRecord
350
14D44
1001
DCO15
1040
1758720109.861
  0
XRECORD
  5
14D90
102
{ACAD_REACTORS
330
C
102
}
330
C
100
AcDbXrecord
280
     1
  1
DWGPROPS COOKIE
  2

  3

  4

  6

  7

  8
Administrator
  9

300
AmdtFileType=84
301
=
302
=
303
=
304
=
305
=
306
=
307
=
308
=
309
=
 40
0.2524234143518518
 41
2456139.798878935
 42
2456267.607345012
  1

 90
        1
  0
ACAD_PROXY_OBJECT
  5
3DEB
102
{ACAD_REACTORS
330
C
102
}
330
C
100
AcDbProxyObject
 90
      499
 91
      583
 95
   917527
 70
     0
 93
        8
310
047E
 94
        0
1001
ACAD
1000
AcRTDxfName
1000
AMDTMAPISURFMOUDULE
  0
DICTIONARY
  5
B466
102
{ACAD_REACTORS
330
3F95
102
}
330
3F95
100
AcDbDictionary
281
     1
  0
DICTIONARY
  5
3F96
102
{ACAD_REACTORS
330
3F95
102
}
330
3F95
100
AcDbDictionary
281
     1
  3
20011210
350
3FB7
  0
DICTIONARY
  5
B465
102
{ACAD_REACTORS
330
3F95
102
}
330
3F95
100
AcDbDictionary
281
     1
1001
ACAD
1000
<All
  0
DICTIONARY
  5
AAB4
102
{ACAD_REACTORS
330
3F95
102
}
330
3F95
100
AcDbDictionary
280
     1
281
     1
  0
SORTENTSTABLE
  5
B1BA
102
{ACAD_REACTORS
330
8A
102
}
330
8A
100
AcDbSortentsTable
330
1F
331
1230B
  5
1230B
331
B867
  5
C4B6
331
12313
  5
12313
331
DF6C
  5
E207
331
1231B
  5
1231B
331
12532
  5
12535
331
124FB
  5
124FE
331
124BC
  5
124BE
331
1244D
  5
1244D
331
1240E
  5
1240E
331
12387
  5
12387
331
12348
  5
12348
331
12503
  5
12506
331
12455
  5
12455
331
1238F
  5
1238F
331
12350
  5
12350
331
124C4
  5
124C6
331
125F1
  5
126FD
331
1250B
  5
1250E
331
12542
  5
12545
331
1245D
  5
1245D
331
124CC
  5
124CE
331
12397
  5
12397
331
1241E
  5
1241E
331
12358
  5
12358
331
124D4
  5
124D6
331
12426
  5
12426
331
B6A8
  5
B6BE
331
B6B0
  5
B864
331
12360
  5
12360
331
12304
  5
12304
331
12321
  5
12321
331
12513
  5
12516
331
124DC
  5
124DE
331
12465
  5
12465
331
1242E
  5
1242E
331
1239F
  5
1239F
331
12368
  5
12368
331
12329
  5
12329
331
1258A
  5
1258D
331
1251B
  5
1251E
331
124E4
  5
124E7
331
124A5
  5
124A5
331
12331
  5
12331
331
12436
  5
12436
331
12523
  5
12526
331
124EC
  5
124EF
331
1243E
  5
1243E
331
123FF
  5
123FF
331
12378
  5
12378
331
12339
  5
12339
331
1252B
  5
1252E
331
124F4
  5
124F7
331
124B5
  5
124B6
331
12446
  5
12446
331
12407
  5
12407
331
1230C
  5
1230C
331
12314
  5
12314
331
DF6D
  5
E208
331
DCAE
  5
DCCB
331
1231C
  5
1231C
331
12380
  5
12380
331
12341
  5
12341
331
124FC
  5
124FF
331
124BD
  5
124BF
331
1244E
  5
1244E
331
12388
  5
12388
331
1240F
  5
1240F
331
12349
  5
12349
331
12504
  5
12507
331
12456
  5
12456
331
12390
  5
12390
331
12351
  5
12351
331
124C5
  5
124C7
331
125F2
  5
1296C
331
1250C
  5
1250F
331
1245E
  5
1245E
331
124CD
  5
124D0
331
1241F
  5
1241F
331
12359
  5
12359
331
124D5
  5
124D7
331
12427
  5
12427
331
B6A9
  5
B6BF
331
B6B1
  5
B867
331
12398
  5
12398
331
12361
  5
12361
331
12322
  5
12322
331
12305
  5
12305
331
12583
  5
12586
331
12514
  5
12517
331
124DD
  5
124E0
331
1242F
  5
1242F
331
123A0
  5
123A0
331
12369
  5
12369
331
1232A
  5
1232A
331
1258B
  5
1258E
331
1251C
  5
1251F
331
124E5
  5
124E8
331
124A6
  5
124A6
331
12332
  5
12332
331
12437
  5
12437
331
12524
  5
12527
331
124ED
  5
124F0
331
124AE
  5
124AE
331
1243F
  5
1243F
331
12400
  5
12400
331
12379
  5
12379
331
1233A
  5
1233A
331
1252C
  5
1252F
331
124F5
  5
124F8
331
124B6
  5
124B8
331
12447
  5
12447
331
1230D
  5
1230D
331
DF66
  5
DF69
331
12315
  5
12315
331
DCAF
  5
DCCC
331
1231D
  5
1231D
331
12408
  5
12408
331
12381
  5
12381
331
12342
  5
12342
331
124FD
  5
12500
331
124BE
  5
124C0
331
1244F
  5
1244F
331
12389
  5
12389
331
12410
  5
12410
331
1234A
  5
1234A
331
12505
  5
12508
331
1253C
  5
1253F
331
12457
  5
12457
331
12391
  5
12391
331
12418
  5
12418
331
12352
  5
12352
331
124C6
  5
124C8
331
1250D
  5
12510
331
1245F
  5
1245F
331
124CE
  5
124D1
331
12420
  5
12420
331
124D6
  5
124D8
331
B6A2
  5
B6B1
331
B6AA
  5
B6C1
331
B6B2
  5
BDD0
331
12428
  5
12428
331
12399
  5
12399
331
12362
  5
12362
331
12323
  5
12323
331
12306
  5
12306
331
12515
  5
12518
331
124DE
  5
124E1
331
12430
  5
12430
331
123A1
  5
123A1
331
1236A
  5
1236A
331
1232B
  5
1232B
331
12584
  5
12587
331
1251D
  5
12520
331
124E6
  5
124E9
331
12438
  5
12438
331
12372
  5
12372
331
12333
  5
12333
331
124A7
  5
124A7
331
1258C
  5
1258F
331
12525
  5
12528
331
124EE
  5
124F1
331
12440
  5
12440
331
12401
  5
12401
331
1237A
  5
1237A
331
1233B
  5
1233B
331
1252D
  5
12530
331
124F6
  5
124F9
331
124B7
  5
124B9
331
1230E
  5
1230E
331
DF67
  5
DF6A
331
12316
  5
12316
331
1231E
  5
1231E
331
12448
  5
12448
331
12409
  5
12409
331
12382
  5
12382
331
12343
  5
12343
331
125EC
  5
125F1
331
12535
  5
12538
331
124FE
  5
12501
331
12450
  5
12450
331
124BF
  5
124C1
331
1238A
  5
1238A
331
12411
  5
12411
331
1234B
  5
1234B
331
12506
  5
12509
331
1253D
  5
12540
331
12458
  5
12458
331
12392
  5
12392
331
12419
  5
12419
331
12353
  5
12353
331
124C7
  5
124C9
331
1250E
  5
12511
331
12421
  5
12421
331
1235B
  5
1235B
331
126FC
  5
13D3E
331
124D7
  5
124D9
331
DCB0
  5
DCCD
331
B6A3
  5
B6B2
331
13D4C
  5
124B7
331
12460
  5
12460
331
12429
  5
12429
331
1239A
  5
1239A
331
12363
  5
12363
331
12324
  5
12324
331
1410C
  5
13D6A
331
12307
  5
12307
331
12585
  5
12588
331
12516
  5
12519
331
124DF
  5
124E2
331
12431
  5
12431
331
1236B
  5
1236B
331
1232C
  5
1232C
331
1258D
  5
12598
331
1251E
  5
12521
331
124E7
  5
124EA
331
124A8
  5
124A8
331
12439
  5
12439
331
12373
  5
12373
331
12334
  5
12334
331
125C5
  5
125D1
331
12526
  5
12529
331
124EF
  5
124F2
331
124B0
  5
124B0
331
12441
  5
12441
331
12402
  5
12402
331
1237B
  5
1237B
331
1233C
  5
1233C
331
1252E
  5
12531
331
124F7
  5
124FA
331
1230F
  5
1230F
331
DF68
  5
DF6B
331
12317
  5
12317
331
1231F
  5
1231F
331
124B8
  5
124BA
331
12449
  5
12449
331
1240A
  5
1240A
331
12383
  5
12383
331
12344
  5
12344
331
125ED
  5
125F2
331
124FF
  5
12502
331
12451
  5
12451
331
124C0
  5
124C2
331
1238B
  5
1238B
331
12412
  5
12412
331
1234C
  5
1234C
331
12507
  5
1250A
331
12459
  5
12459
331
124C8
  5
124CA
331
12393
  5
12393
331
1241A
  5
1241A
331
12354
  5
12354
331
126FD
  5
13D4D
331
1250F
  5
12512
331
124D0
  5
124D2
331
12422
  5
12422
331
1235C
  5
1235C
331
DCB1
  5
DCD5
331
C4B3
  5
D498
331
B6A4
  5
B6B9
331
FF48
  5
FF4C
331
DCB9
  5
DCD6
331
B6AC
  5
B6C2
331
124D8
  5
124DA
331
12461
  5
12461
331
1242A
  5
1242A
331
1239B
  5
1239B
331
12364
  5
12364
331
12325
  5
12325
331
12517
  5
1251A
331
124E0
  5
124E3
331
124A1
  5
124A1
331
12432
  5
12432
331
1232D
  5
1232D
331
1258E
  5
1259A
331
124E8
  5
124EB
331
124A9
  5
124A9
331
1243A
  5
1243A
331
12374
  5
12374
331
12335
  5
12335
331
1251F
  5
12522
331
12527
  5
1252A
331
124F0
  5
124F3
331
124B1
  5
124B1
331
12442
  5
12442
331
12403
  5
12403
331
1237C
  5
1237C
331
1233D
  5
1233D
331
125CE
  5
125ED
331
1252F
  5
12532
331
12308
  5
12308
331
12310
  5
12310
331
DF69
  5
DF6C
331
12318
  5
12318
331
124F8
  5
124FB
331
124B9
  5
124BB
331
1244A
  5
1244A
331
1240B
  5
1240B
331
12384
  5
12384
331
12345
  5
12345
331
12500
  5
12503
331
12537
  5
1253A
331
12452
  5
12452
331
124C1
  5
124C3
331
1238C
  5
1238C
331
12413
  5
12413
331
1234D
  5
1234D
331
12508
  5
1250B
331
1245A
  5
1245A
331
124C9
  5
124CB
331
12394
  5
12394
331
1241B
  5
1241B
331
12355
  5
12355
331
1253F
  5
12542
331
124D1
  5
124D3
331
12423
  5
12423
331
1257F
  5
12582
331
B6A5
  5
B6BA
331
DCBA
  5
DCD7
331
B6AD
  5
B6C4
331
12510
  5
12513
331
124D9
  5
124DB
331
12462
  5
12462
331
1242B
  5
1242B
331
1239C
  5
1239C
331
12365
  5
12365
331
12518
  5
1251B
331
124E1
  5
124E4
331
124A2
  5
124A2
331
12433
  5
12433
331
1236D
  5
1236D
331
1232E
  5
1232E
331
12520
  5
12523
331
124E9
  5
124EC
331
124AA
  5
124AA
331
1243B
  5
1243B
331
123FC
  5
123FC
331
12375
  5
12375
331
12336
  5
12336
331
1258F
  5
125C5
331
12528
  5
1252B
331
124F1
  5
124F4
331
12443
  5
12443
331
12404
  5
12404
331
1237D
  5
1237D
331
1233E
  5
1233E
331
125CF
  5
125EF
331
12309
  5
12309
331
12311
  5
12311
331
DF6A
  5
DF6D
331
12319
  5
12319
331
12530
  5
12533
331
124F9
  5
124FC
331
124BA
  5
124BC
331
1244B
  5
1244B
331
1240C
  5
1240C
331
12385
  5
12385
331
12346
  5
12346
331
125EF
  5
126FC
331
12501
  5
12504
331
12538
  5
1253B
331
12453
  5
12453
331
124C2
  5
124C4
331
1238D
  5
1238D
331
12414
  5
12414
331
1234E
  5
1234E
331
12509
  5
1250C
331
12540
  5
12543
331
1245B
  5
1245B
331
124CA
  5
124CC
331
12395
  5
12395
331
1241C
  5
1241C
331
12356
  5
12356
331
124D2
  5
124D4
331
12424
  5
12424
331
B6A6
  5
B6BB
331
DCBB
  5
DCD8
331
D844
  5
D845
331
B6AE
  5
B6C6
331
13D67
  5
124B5
331
12302
  5
12302
331
12580
  5
12583
331
12511
  5
12514
331
124DA
  5
124DC
331
12463
  5
12463
331
1242C
  5
1242C
331
1239D
  5
1239D
331
12366
  5
12366
331
12327
  5
12327
331
12519
  5
1251C
331
124E2
  5
124E5
331
124A3
  5
124A3
331
12434
  5
12434
331
1236E
  5
1236E
331
1232F
  5
1232F
331
12521
  5
12524
331
124EA
  5
124ED
331
124AB
  5
124AB
331
1243C
  5
1243C
331
123FD
  5
123FD
331
12376
  5
12376
331
12337
  5
12337
331
12529
  5
1252C
331
124F2
  5
124F5
331
124B3
  5
124B3
331
12444
  5
12444
331
12405
  5
12405
331
1237E
  5
1237E
331
1233F
  5
1233F
331
1230A
  5
1230A
331
12312
  5
12312
331
DF6B
  5
E206
331
1231A
  5
1231A
331
12531
  5
12534
331
124FA
  5
124FD
331
124BB
  5
124BD
331
1244C
  5
1244C
331
1240D
  5
1240D
331
12386
  5
12386
331
12347
  5
12347
331
12502
  5
12505
331
12539
  5
1253C
331
12454
  5
12454
331
124C3
  5
124C5
331
1238E
  5
1238E
331
12415
  5
12415
331
1234F
  5
1234F
331
1250A
  5
1250D
331
12541
  5
12544
331
1245C
  5
1245C
331
124CB
  5
124CD
331
12396
  5
12396
331
1241D
  5
1241D
331
12357
  5
12357
331
124D3
  5
124D5
331
12425
  5
12425
331
B6A7
  5
B6BD
331
DCBC
  5
DCDD
331
D845
  5
D85A
331
12303
  5
12303
331
12320
  5
12320
331
12581
  5
12584
331
12512
  5
12515
331
124DB
  5
124DD
331
12464
  5
12464
331
1242D
  5
1242D
331
1239E
  5
1239E
331
12367
  5
12367
331
12328
  5
12328
331
12589
  5
1258C
331
1251A
  5
1251D
331
124E3
  5
124E6
331
124A4
  5
124A4
331
12330
  5
12330
331
12435
  5
12435
331
12522
  5
12525
331
124EB
  5
124EE
331
124AC
  5
124AC
331
1243D
  5
1243D
331
123FE
  5
123FE
331
12377
  5
12377
331
12338
  5
12338
331
1252A
  5
1252D
331
124F3
  5
124F6
331
124B4
  5
124B4
331
12445
  5
12445
331
12406
  5
12406
331
1237F
  5
1237F
  0
XRECORD
  5
14D92
102
{ACAD_REACTORS
330
14D91
102
}
330
14D91
100
AcDbXrecord
280
     1
 70
     1
  0
LAYOUT
  5
22
102
{ACAD_XDICTIONARY
360
14D95
102
}
102
{ACAD_REACTORS
330
1A
102
}
330
1A
100
AcDbPlotSettings
  1

  2
DocuCentre-II C5400
  4
A4
  6
AM_VIEW1
 40
4.857749938964843
 41
4.942390441894531
 42
4.942413330078125
 43
4.857757568359375
 44
209.9733276367187
 45
297.0106506347656
 46
-4.958807910208179
 47
-4.941300664398795
 48
214.3704939521119
 49
367.5855324241176
140
275.6727856380065
141
407.629191407817
142
1.0
143
1.0
 70
  3748
 72
     1
 73
     1
 74
     1
  7
monochrome.ctb
 75
     0
147
0.9532055446079798
148
0.0304669030847435
149
0.0283341126892083
100
AcDbLayout
  1
Model
 70
     1
 71
     0
 10
0.0
 20
0.0
 11
12.0
 21
9.0
 12
0.0
 22
0.0
 32
0.0
 14
0.0
 24
0.0
 34
0.0
 15
0.0
 25
0.0
 35
0.0
146
0.0
 13
0.0
 23
0.0
 33
0.0
 16
1.0
 26
0.0
 36
0.0
 17
0.0
 27
1.0
 37
0.0
 76
     0
330
1F
331
B0EC
1001
ACAD_PSEXT
1000
DocuCentre-II C5400
1000
FX DocuCentre-II C5400
1000
192.168.2.200
1000

1070
     0
  0
LAYOUT
  5
1E
102
{ACAD_XDICTIONARY
360
14D93
102
}
102
{ACAD_REACTORS
330
1A
102
}
330
1A
100
AcDbPlotSettings
  1

  2
\\ML370\XEROX
  4
A4
  6

 40
3.174999952316284
 41
3.174999952316284
 42
3.175003051757812
 43
3.17498779296875
 44
209.8674926757813
 45
296.6719970703125
 46
0.0
 47
0.0
 48
0.0
 49
0.0
140
0.0
141
0.0
142
1.0
143
1.0
 70
   688
 72
     1
 73
     1
 74
     5
  7
monochrome.ctb
 75
    16
147
1.0
148
0.0
149
0.0
100
AcDbLayout
  1
ﾚｲｱｳﾄ1
 70
     1
 71
     1
 10
-3.17498779296875
 20
-3.174999952316284
 11
293.4970092773438
 21
206.692492723465
 12
0.0
 22
0.0
 32
0.0
 14
1.000000000000000E+20
 24
1.000000000000000E+20
 34
1.000000000000000E+20
 15
-1.000000000000000E+20
 25
-1.000000000000000E+20
 35
-1.000000000000000E+20
146
0.0
 13
0.0
 23
0.0
 33
0.0
 16
1.0
 26
0.0
 36
0.0
 17
0.0
 27
1.0
 37
0.0
 76
     0
330
1B
  0
LAYOUT
  5
26
102
{ACAD_XDICTIONARY
360
14D97
102
}
102
{ACAD_REACTORS
330
1A
102
}
330
1A
100
AcDbPlotSettings
  1

  2
\\ML370\XEROX
  4

  6

 40
0.0
 41
0.0
 42
0.0
 43
0.0
 44
0.0
 45
0.0
 46
0.0
 47
0.0
 48
0.0
 49
0.0
140
0.0
141
0.0
142
1.0
143
1.0
 70
   688
 72
     0
 73
     0
 74
     5
  7
monochrome.ctb
 75
    16
147
1.0
148
0.0
149
0.0
100
AcDbLayout
  1
ﾚｲｱｳﾄ2
 70
     1
 71
     2
 10
0.0
 20
0.0
 11
12.0
 21
9.0
 12
0.0
 22
0.0
 32
0.0
 14
0.0
 24
0.0
 34
0.0
 15
0.0
 25
0.0
 35
0.0
146
0.0
 13
0.0
 23
0.0
 33
0.0
 16
1.0
 26
0.0
 36
0.0
 17
0.0
 27
1.0
 37
0.0
 76
     0
330
23
  0
MATERIAL
  5
B0EF
102
{ACAD_XDICTIONARY
360
14D9D
102
}
102
{ACAD_REACTORS
330
A91C
102
}
330
A91C
100
AcDbMaterial
  1
ByBlock
  0
MATERIAL
  5
B0EE
102
{ACAD_XDICTIONARY
360
14D9B
102
}
102
{ACAD_REACTORS
330
A91C
102
}
330
A91C
100
AcDbMaterial
  1
ByLayer
  0
MATERIAL
  5
B0F0
102
{ACAD_XDICTIONARY
360
14D9F
102
}
102
{ACAD_REACTORS
330
A91C
102
}
330
A91C
100
AcDbMaterial
  1
Global
  0
MLINESTYLE
  5
18
102
{ACAD_REACTORS
330
17
102
}
330
17
100
AcDbMlineStyle
  2
STANDARD
 70
     0
  3

 62
   256
 51
90.0
 52
90.0
 71
     2
 49
0.5
 62
   256
  6
BYLAYER
 49
-0.5
 62
   256
  6
BYLAYER
  0
ACDBPLACEHOLDER
  5
F
102
{ACAD_REACTORS
330
E
102
}
330
E
  0
TABLESTYLE
  5
AABA
102
{ACAD_XDICTIONARY
360
14D99
102
}
102
{ACAD_REACTORS
330
AAB9
102
}
330
AAB9
100
AcDbTableStyle
  3
Standard
 70
     0
 71
     0
 40
1.5
 41
1.5
280
     0
281
     0
  7
STANDARD
140
4.5
170
     2
 62
     0
 63
     7
283
     0
274
    -2
284
     1
 64
     0
275
    -2
285
     1
 65
     0
276
    -2
286
     1
 66
     0
277
    -2
287
     1
 67
     0
278
    -2
288
     1
 68
     0
279
    -2
289
     1
 69
     0
  7
STANDARD
140
6.0
170
     5
 62
     0
 63
     7
283
     0
274
    -2
284
     1
 64
     0
275
    -2
285
     1
 65
     0
276
    -2
286
     1
 66
     0
277
    -2
287
     1
 67
     0
278
    -2
288
     1
 68
     0
279
    -2
289
     1
 69
     0
  7
STANDARD
140
4.5
170
     5
 62
     0
 63
     7
283
     0
274
    -2
284
     1
 64
     0
275
    -2
285
     1
 65
     0
276
    -2
286
     1
 66
     0
277
    -2
287
     1
 67
     0
278
    -2
288
     1
 68
     0
279
    -2
289
     1
 69
     0
  0
VISUALSTYLE
  5
B0F7
102
{ACAD_REACTORS
330
B0F1
102
}
330
B0F1
100
AcDbVisualStyle
  2
2dWireframe
 70
     4
 71
     0
 72
     2
 73
     0
 90
        0
 40
-0.6
 41
-30.0
 62
     5
 63
     7
 74
     1
 91
        4
 64
     7
 65
   257
 75
     1
175
     1
 42
1.0
 92
        0
 66
   257
 43
1.0
 76
     1
 77
     6
 78
     2
 67
     7
 79
     5
170
     0
171
     0
290
     0
174
     0
 93
        1
 44
0.0
173
     0
291
     0
 45
0.0
1001
ACAD
1000
AcDbSavedByObjectVersion
1070
     0
  0
VISUALSTYLE
  5
B0F9
102
{ACAD_REACTORS
330
B0F1
102
}
330
B0F1
100
AcDbVisualStyle
  2
3D Hidden
 70
     6
 71
     1
 72
     2
 73
     2
 90
        0
 40
-0.6
 41
-30.0
 62
     5
 63
     7
 74
     2
 91
        2
 64
     7
 65
   257
 75
     2
175
     1
 42
40.0
 92
        0
 66
   257
 43
1.0
 76
     1
 77
     6
 78
     2
 67
     7
 79
     3
170
     0
171
     0
290
     0
174
     0
 93
        1
 44
0.0
173
     0
291
     0
 45
0.0
1001
ACAD
1000
AcDbSavedByObjectVersion
1070
     0
  0
VISUALSTYLE
  5
B0F8
102
{ACAD_REACTORS
330
B0F1
102
}
330
B0F1
100
AcDbVisualStyle
  2
3dWireframe
 70
     5
 71
     0
 72
     2
 73
     0
 90
        0
 40
-0.6
 41
-30.0
 62
     5
 63
     7
 74
     1
 91
        4
 64
     7
 65
   257
 75
     1
175
     1
 42
1.0
 92
        0
 66
   257
 43
1.0
 76
     1
 77
     6
 78
     2
 67
     7
 79
     5
170
     0
171
     0
290
     0
174
     0
 93
        1
 44
0.0
173
     0
291
     0
 45
0.0
1001
ACAD
1000
AcDbSavedByObjectVersion
1070
     0
  0
VISUALSTYLE
  5
B0F6
102
{ACAD_REACTORS
330
B0F1
102
}
330
B0F1
100
AcDbVisualStyle
  2
Basic
 70
     7
 71
     1
 72
     0
 73
     1
 90
        0
 40
-0.6
 41
-30.0
 62
     5
 63
     7
 74
     0
 91
        4
 64
     7
 65
   257
 75
     1
175
     1
 42
1.0
 92
        8
 66
     7
 43
1.0
 76
     1
 77
     6
 78
     2
 67
     7
 79
     5
170
     0
171
     0
290
     0
174
     0
 93
        1
 44
0.0
173
     0
291
     1
 45
0.0
1001
ACAD
1000
AcDbSavedByObjectVersion
1070
     0
  0
VISUALSTYLE
  5
B0FD
102
{ACAD_REACTORS
330
B0F1
102
}
330
B0F1
100
AcDbVisualStyle
  2
Brighten
 70
    12
 71
     2
 72
     2
 73
     0
 90
        0
 40
-0.6
 41
-30.0
 62
     5
 63
     7
 74
     1
 91
        4
 64
     7
 65
   257
 75
     1
175
     1
 42
1.0
 92
        8
 66
     7
 43
1.0
 76
     1
 77
     6
 78
     2
 67
     7
 79
     5
170
     0
171
     0
290
     0
174
     0
 93
        1
 44
50.0
173
     0
291
     1
 45
0.0
1001
ACAD
1000
AcDbSavedByObjectVersion
1070
     0
  0
VISUALSTYLE
  5
B101
102
{ACAD_REACTORS
330
B0F1
102
}
330
B0F1
100
AcDbVisualStyle
  2
ColorChange
 70
    16
 71
     2
 72
     2
 73
     3
 90
        0
 40
-0.6
 41
-30.0
 62
     5
 63
     8
 74
     1
 91
        4
 64
     7
 65
   257
 75
     1
175
     1
 42
1.0
 92
        8
 66
     8
 43
1.0
 76
     1
 77
     6
 78
     2
 67
     7
 79
     5
170
     0
171
     0
290
     0
174
     0
 93
        1
 44
0.0
173
     0
291
     1
 45
0.0
1001
ACAD
1000
AcDbSavedByObjectVersion
1070
     0
  0
VISUALSTYLE
  5
B0FA
102
{ACAD_REACTORS
330
B0F1
102
}
330
B0F1
100
AcDbVisualStyle
  2
Conceptual
 70
     9
 71
     3
 72
     2
 73
     0
 90
        0
 40
-0.6
 41
-30.0
 62
     5
 63
     7
 74
     2
 91
        2
 64
     7
 65
   257
 75
     1
175
     1
 42
40.0
 92
        8
 66
     7
 43
1.0
 76
     1
 77
     6
 78
     2
 67
     7
 79
     3
170
     0
171
     0
290
     0
174
     0
 93
        1
 44
0.0
173
     0
291
     0
 45
0.0
1001
ACAD
1000
AcDbSavedByObjectVersion
1070
     0
  0
VISUALSTYLE
  5
B0FC
102
{ACAD_REACTORS
330
B0F1
102
}
330
B0F1
100
AcDbVisualStyle
  2
Dim
 70
    11
 71
     2
 72
     2
 73
     0
 90
        0
 40
-0.6
 41
-30.0
 62
     5
 63
     7
 74
     1
 91
        4
 64
     7
 65
   257
 75
     1
175
     1
 42
1.0
 92
        8
 66
     7
 43
1.0
 76
     1
 77
     6
 78
     2
 67
     7
 79
     5
170
     0
171
     0
290
     0
174
     0
 93
        1
 44
-50.0
173
     0
291
     1
 45
0.0
1001
ACAD
1000
AcDbSavedByObjectVersion
1070
     0
  0
VISUALSTYLE
  5
B100
102
{ACAD_REACTORS
330
B0F1
102
}
330
B0F1
100
AcDbVisualStyle
  2
Facepattern
 70
    15
 71
     2
 72
     2
 73
     0
 90
        0
 40
-0.6
 41
-30.0
 62
     5
 63
     7
 74
     1
 91
        4
 64
     7
 65
   257
 75
     1
175
     1
 42
1.0
 92
        8
 66
     7
 43
1.0
 76
     1
 77
     6
 78
     2
 67
     7
 79
     5
170
     0
171
     0
290
     0
174
     0
 93
        1
 44
0.0
173
     0
291
     1
 45
0.0
1001
ACAD
1000
AcDbSavedByObjectVersion
1070
     0
  0
VISUALSTYLE
  5
B0F2
102
{ACAD_REACTORS
330
B0F1
102
}
330
B0F1
100
AcDbVisualStyle
  2
Flat
 70
     0
 71
     2
 72
     1
 73
     1
 90
        2
 40
-0.6
 41
30.0
 62
     5
 63
     7
 74
     0
 91
        4
 64
     7
 65
   257
 75
     1
175
     1
 42
1.0
 92
        8
 66
     7
 43
1.0
 76
     1
 77
     6
 78
     2
 67
     7
 79
     5
170
     0
171
     0
290
     0
174
     0
 93
       13
 44
0.0
173
     0
291
     1
 45
0.0
1001
ACAD
1000
AcDbSavedByObjectVersion
1070
     0
  0
VISUALSTYLE
  5
B0F3
102
{ACAD_REACTORS
330
B0F1
102
}
330
B0F1
100
AcDbVisualStyle
  2
FlatWithEdges
 70
     1
 71
     2
 72
     1
 73
     1
 90
        2
 40
-0.6
 41
30.0
 62
     5
 63
     7
 74
     1
 91
        4
 64
     7
 65
   257
 75
     1
175
     1
 42
1.0
 92
        0
 66
   257
 43
1.0
 76
     1
 77
     6
 78
     2
 67
     7
 79
     5
170
     0
171
     0
290
     0
174
     0
 93
       13
 44
0.0
173
     0
291
     1
 45
0.0
1001
ACAD
1000
AcDbSavedByObjectVersion
1070
     0
  0
VISUALSTYLE
  5
B0F4
102
{ACAD_REACTORS
330
B0F1
102
}
330
B0F1
100
AcDbVisualStyle
  2
Gouraud
 70
     2
 71
     2
 72
     2
 73
     1
 90
        2
 40
-0.6
 41
30.0
 62
     5
 63
     7
 74
     0
 91
        4
 64
     7
 65
   257
 75
     1
175
     1
 42
1.0
 92
        0
 66
     7
 43
1.0
 76
     1
 77
     6
 78
     2
 67
     7
 79
     5
170
     0
171
     0
290
     0
174
     0
 93
       13
 44
0.0
173
     0
291
     1
 45
0.0
1001
ACAD
1000
AcDbSavedByObjectVersion
1070
     0
  0
VISUALSTYLE
  5
B0F5
102
{ACAD_REACTORS
330
B0F1
102
}
330
B0F1
100
AcDbVisualStyle
  2
GouraudWithEdges
 70
     3
 71
     2
 72
     2
 73
     1
 90
        2
 40
-0.6
 41
30.0
 62
     5
 63
     7
 74
     1
 91
        4
 64
     7
 65
   257
 75
     1
175
     1
 42
1.0
 92
        0
 66
   257
 43
1.0
 76
     1
 77
     6
 78
     2
 67
     7
 79
     5
170
     0
171
     0
290
     0
174
     0
 93
       13
 44
0.0
173
     0
291
     1
 45
0.0
1001
ACAD
1000
AcDbSavedByObjectVersion
1070
     0
  0
VISUALSTYLE
  5
B0FF
102
{ACAD_REACTORS
330
B0F1
102
}
330
B0F1
100
AcDbVisualStyle
  2
Linepattern
 70
    14
 71
     2
 72
     2
 73
     0
 90
        0
 40
-0.6
 41
-30.0
 62
     5
 63
     7
 74
     1
 91
        4
 64
     7
 65
   257
 75
     7
175
     7
 42
1.0
 92
        8
 66
     7
 43
1.0
 76
     1
 77
     6
 78
     2
 67
     7
 79
     5
170
     0
171
     0
290
     0
174
     0
 93
        1
 44
0.0
173
     0
291
     1
 45
0.0
1001
ACAD
1000
AcDbSavedByObjectVersion
1070
     0
  0
VISUALSTYLE
  5
B0FB
102
{ACAD_REACTORS
330
B0F1
102
}
330
B0F1
100
AcDbVisualStyle
  2
Realistic
 70
     8
 71
     2
 72
     2
 73
     0
 90
        0
 40
-0.6
 41
-30.0
 62
     5
 63
     7
 74
     1
 91
        0
 64
     7
 65
   257
 75
     1
175
     1
 42
1.0
 92
        8
 66
     8
 43
1.0
 76
     1
 77
     6
 78
     2
 67
     7
 79
     5
170
     0
171
     0
290
     0
174
     0
 93
       13
 44
0.0
173
     0
291
     0
 45
0.0
1001
ACAD
1000
AcDbSavedByObjectVersion
1070
     0
  0
VISUALSTYLE
  5
B0FE
102
{ACAD_REACTORS
330
B0F1
102
}
330
B0F1
100
AcDbVisualStyle
  2
Thicken
 70
    13
 71
     2
 72
     2
 73
     0
 90
        0
 40
-0.6
 41
-30.0
 62
     5
 63
     7
 74
     1
 91
        4
 64
     7
 65
   257
 75
     1
175
     1
 42
1.0
 92
       12
 66
     7
 43
1.0
 76
     1
 77
     6
 78
     2
 67
     7
 79
     5
170
     0
171
     0
290
     0
174
     0
 93
        1
 44
0.0
173
     0
291
     1
 45
0.0
1001
ACAD
1000
AcDbSavedByObjectVersion
1070
     0
  0
DICTIONARYVAR
  5
AAF3
102
{ACAD_REACTORS
330
34
102
}
330
34
100
DictionaryVariables
280
     0
  1
STANDARD
  0
DICTIONARYVAR
  5
A10C
102
{ACAD_REACTORS
330
34
102
}
330
34
100
DictionaryVariables
280
     0
  1
1
  0
DICTIONARYVAR
  5
AB07
102
{ACAD_REACTORS
330
34
102
}
330
34
100
DictionaryVariables
280
     0
  1
4
  0
DICTIONARYVAR
  5
13D6D
102
{ACAD_REACTORS
330
34
102
}
330
34
100
DictionaryVariables
280
     0
  1
25.532809;-271.333112
  0
DICTIONARYVAR
  5
35
102
{ACAD_REACTORS
330
34
102
}
330
34
100
DictionaryVariables
280
     0
  1
0
  0
DICTIONARYVAR
  5
194C
102
{ACAD_REACTORS
330
34
102
}
330
34
100
DictionaryVariables
280
     0
  1
127
  0
DICTIONARY
  5
7E8
102
{ACAD_REACTORS
330
47
102
}
330
47
100
AcDbDictionary
281
     1
  0
DICTIONARY
  5
4C
102
{ACAD_REACTORS
330
47
102
}
330
47
100
AcDbDictionary
281
     1
  0
XRECORD
  5
A929
102
{ACAD_REACTORS
330
47
102
}
330
47
100
AcDbXrecord
280
     1
 90
-1023410169
  0
XRECORD
  5
14D44
102
{ACAD_REACTORS
330
14D43
102
}
330
14D43
100
AcDbXrecord
280
     1
330
14C89
330
14C8A
330
14C92
330
14C93
330
14C9B
330
14C9C
330
14CA4
330
14CA5
330
14CAD
330
14CAE
330
14CB6
330
14CB7
330
14CBF
330
14CC0
330
14CC8
330
14CC9
330
14CD3
330
14CD4
330
14CDA
330
14CDB
330
14CE5
330
14CE6
330
14CEE
330
14CEF
330
14CF7
330
14CF8
330
14D00
330
14D01
330
14D09
330
14D0A
330
14D11
330
14D12
330
14D1A
330
14D1B
330
0
330
0
  0
XRECORD
  5
3FB7
102
{ACAD_REACTORS
330
3F96
102
}
330
3F96
100
AcDbXrecord
280
     1
 91
        3
330
0
 90
        8
 62
     7
370
    40
331
16
  1
Color_7
330
0
 90
        0
 62
    14
370
    -3
331
16
  1
Color_14
330
0
 90
        8
 62
     7
370
    20
331
16
  1
Color_7
330
6D1
 90
        0
 62
     7
370
    -3
331
16
  1
Color_7
330
0
 90
        8
 62
     7
370
    50
331
16
  1
Color_7
330
0
 90
        8
 62
     2
370
    35
331
16
  1
Color_2
330
0
 90
        8
 62
     7
370
    -3
331
16
  1
Color_7
330
10
 90
        8
 62
     7
370
    -3
331
16
  1
Color_7
  0
DICTIONARY
  5
14D95
330
22
100
AcDbDictionary
280
     1
281
     1
  3
ACAD_XREC_ROUNDTRIP
360
14D96
  0
DICTIONARY
  5
14D93
330
1E
100
AcDbDictionary
280
     1
281
     1
  3
ACAD_XREC_ROUNDTRIP
360
14D94
  0
DICTIONARY
  5
14D97
330
26
100
AcDbDictionary
280
     1
281
     1
  3
ACAD_XREC_ROUNDTRIP
360
14D98
  0
DICTIONARY
  5
14D9D
330
B0EF
100
AcDbDictionary
280
     1
281
     1
  3
ACAD_XREC_ROUNDTRIP
360
14D9E
  0
DICTIONARY
  5
14D9B
330
B0EE
100
AcDbDictionary
280
     1
281
     1
  3
ACAD_XREC_ROUNDTRIP
360
14D9C
  0
DICTIONARY
  5
14D9F
330
B0F0
100
AcDbDictionary
280
     1
281
     1
  3
ACAD_XREC_ROUNDTRIP
360
14DA0
  0
DICTIONARY
  5
14D99
330
AABA
100
AcDbDictionary
280
     1
281
     1
  3
ACAD_XREC_ROUNDTRIP
360
14D9A
  0
XRECORD
  5
14D96
102
{ACAD_REACTORS
330
14D95
102
}
330
14D95
100
AcDbXrecord
280
     1
102
SHADEPLOT
 70
     0
102
SHADEPLOTRESLEVEL
 70
     2
102
SHADEPLOTCUSTOMDPI
 70
   200
  0
XRECORD
  5
14D94
102
{ACAD_REACTORS
330
14D93
102
}
330
14D93
100
AcDbXrecord
280
     1
102
SHADEPLOT
 70
     0
102
SHADEPLOTRESLEVEL
 70
     2
102
SHADEPLOTCUSTOMDPI
 70
   300
  0
XRECORD
  5
14D98
102
{ACAD_REACTORS
330
14D97
102
}
330
14D97
100
AcDbXrecord
280
     1
102
SHADEPLOT
 70
     0
102
SHADEPLOTRESLEVEL
 70
     2
102
SHADEPLOTCUSTOMDPI
 70
   300
  0
XRECORD
  5
14D9E
102
{ACAD_REACTORS
330
14D9D
102
}
330
14D9D
100
AcDbXrecord
280
     1
102
MATERIAL
148
0.0
149
0.0
149
0.0
 93
        0
 94
       63
282
     0
 72
     1
 77
     1
171
     1
175
     1
179
     1
273
     0
  0
XRECORD
  5
14D9C
102
{ACAD_REACTORS
330
14D9B
102
}
330
14D9B
100
AcDbXrecord
280
     1
102
MATERIAL
148
0.0
149
0.0
149
0.0
 93
        0
 94
       63
282
     0
 72
     1
 77
     1
171
     1
175
     1
179
     1
273
     0
  0
XRECORD
  5
14DA0
102
{ACAD_REACTORS
330
14D9F
102
}
330
14D9F
100
AcDbXrecord
280
     1
102
MATERIAL
148
0.0
149
0.0
149
0.0
 93
        0
 94
       63
282
     0
 72
     1
 77
     1
171
     1
175
     1
179
     1
273
     0
  0
XRECORD
  5
14D9A
102
{ACAD_REACTORS
330
14D99
102
}
330
14D99
100
AcDbXrecord
280
     1
102
ACAD_ROUNDTRIP_PRE2007_TABLESTYLE
 90
        4
 91
        0
  1

 92
        4
 93
        0
  2

 94
        4
 95
        0
  3

  0
ENDSEC
  0
EOF
