  0
SECTION
  2
HEADER
  9
$ACADVER
  1
AC1015
  9
$ACADMAINTVER
 70
    20
  9
$DWGCODEPAGE
  3
ANSI_932
  9
$INSBASE
 10
0.0
 20
0.0
 30
0.0
  9
$EXTMIN
 10
530.0879878493342
 20
545.9010296918759
 30
-0.0000000349181948
  9
$EXTMAX
 10
950.2308922749366
 20
843.0008322527083
 30
0.0000000814935746
  9
$LIMMIN
 10
1700.85588156276
 20
1647.985052086429
  9
$LIMMAX
 10
1997.85588156276
 20
1857.985052086429
  9
$ORTHOMODE
 70
     0
  9
$REGENMODE
 70
     1
  9
$FILLMODE
 70
     1
  9
$QTEXTMODE
 70
     0
  9
$MIRRTEXT
 70
     0
  9
$LTSCALE
 40
1.0
  9
$ATTMODE
 70
     1
  9
$TEXTSIZE
 40
3.2
  9
$TRACEWID
 40
1.0
  9
$TEXTSTYLE
  7
STANDARD
  9
$CLAYER
  8
0DFB-2010
  9
$CELTYPE
  6
ByLayer
  9
$CECOLOR
 62
   256
  9
$CELTSCALE
 40
1.0
  9
$DISPSILH
 70
     0
  9
$DIMSCALE
 40
1.0
  9
$DIMASZ
 40
1.0
  9
$DIMEXO
 40
1.0
  9
$DIMDLI
 40
10.0
  9
$DIMRND
 40
0.0
  9
$DIMDLE
 40
0.0
  9
$DIMEXE
 40
1.0
  9
$DIMTP
 40
0.1
  9
$DIMTM
 40
0.1
  9
$DIMTXT
 40
3.5
  9
$DIMCEN
 40
0.0
  9
$DIMTSZ
 40
0.0
  9
$DIMTOL
 70
     0
  9
$DIMLIM
 70
     0
  9
$DIMTIH
 70
     0
  9
$DIMTOH
 70
     0
  9
$DIMSE1
 70
     0
  9
$DIMSE2
 70
     0
  9
$DIMTAD
 70
     1
  9
$DIMZIN
 70
     8
  9
$DIMBLK
  1

  9
$DIMASO
 70
     1
  9
$DIMSHO
 70
     1
  9
$DIMPOST
  1

  9
$DIMAPOST
  1
"
  9
$DIMALT
 70
     0
  9
$DIMALTD
 70
     2
  9
$DIMALTF
 40
0.0393701
  9
$DIMLFAC
 40
1.0
  9
$DIMTOFL
 70
     1
  9
$DIMTVP
 40
0.0
  9
$DIMTIX
 70
     0
  9
$DIMSOXD
 70
     0
  9
$DIMSAH
 70
     0
  9
$DIMBLK1
  1

  9
$DIMBLK2
  1

  9
$DIMSTYLE
  2
SYS
  9
$DIMCLRD
 70
   256
  9
$DIMCLRE
 70
   256
  9
$DIMCLRT
 70
     7
  9
$DIMTFAC
 40
0.71
  9
$DIMGAP
 40
1.5
  9
$DIMJUST
 70
     0
  9
$DIMSD1
 70
     0
  9
$DIMSD2
 70
     0
  9
$DIMTOLJ
 70
     0
  9
$DIMTZIN
 70
     8
  9
$DIMALTZ
 70
     0
  9
$DIMALTTZ
 70
     0
  9
$DIMUPT
 70
     0
  9
$DIMDEC
 70
     2
  9
$DIMTDEC
 70
     2
  9
$DIMALTU
 70
     2
  9
$DIMALTTD
 70
     2
  9
$DIMTXSTY
  7
STANDARD
  9
$DIMAUNIT
 70
     0
  9
$DIMADEC
 70
     0
  9
$DIMALTRND
 40
0.0
  9
$DIMAZIN
 70
     2
  9
$DIMDSEP
 70
    46
  9
$DIMATFIT
 70
     3
  9
$DIMFRAC
 70
     0
  9
$DIMLDRBLK
  1

  9
$DIMLUNIT
 70
     2
  9
$DIMLWD
 70
    -1
  9
$DIMLWE
 70
    -1
  9
$DIMTMOVE
 70
     0
  9
$LUNITS
 70
     2
  9
$LUPREC
 70
     2
  9
$SKETCHINC
 40
1.0
  9
$FILLETRAD
 40
0.5
  9
$AUNITS
 70
     0
  9
$AUPREC
 70
     0
  9
$MENU
  1
.
  9
$ELEVATION
 40
0.0
  9
$PELEVATION
 40
0.0
  9
$THICKNESS
 40
0.0
  9
$LIMCHECK
 70
     0
  9
$CHAMFERA
 40
1.0
  9
$CHAMFERB
 40
1.0
  9
$CHAMFERC
 40
20.0
  9
$CHAMFERD
 40
0.0
  9
$SKPOLY
 70
     0
  9
$TDCREATE
 40
2453690.706505706
  9
$TDUCREATE
 40
2453690.331505706
  9
$TDUPDATE
 40
2455250.617936192
  9
$TDUUPDATE
 40
2455250.242936192
  9
$TDINDWG
 40
13.3354481713
  9
$TDUSRTIMER
 40
13.3354443750
  9
$USRTIMER
 70
     1
  9
$ANGBASE
 50
0.0
  9
$ANGDIR
 70
     0
  9
$PDMODE
 70
     0
  9
$PDSIZE
 40
-3.0
  9
$PLINEWID
 40
0.0
  9
$SPLFRAME
 70
     0
  9
$SPLINETYPE
 70
     6
  9
$SPLINESEGS
 70
     8
  9
$HANDSEED
  5
30C7D
  9
$SURFTAB1
 70
     6
  9
$SURFTAB2
 70
     6
  9
$SURFTYPE
 70
     6
  9
$SURFU
 70
     6
  9
$SURFV
 70
     6
  9
$UCSBASE
  2

  9
$UCSNAME
  2

  9
$UCSORG
 10
0.0
 20
0.0
 30
0.0
  9
$UCSXDIR
 10
1.0
 20
0.0
 30
0.0
  9
$UCSYDIR
 10
0.0
 20
1.0
 30
0.0
  9
$UCSORTHOREF
  2

  9
$UCSORTHOVIEW
 70
     0
  9
$UCSORGTOP
 10
0.0
 20
0.0
 30
0.0
  9
$UCSORGBOTTOM
 10
0.0
 20
0.0
 30
0.0
  9
$UCSORGLEFT
 10
0.0
 20
0.0
 30
0.0
  9
$UCSORGRIGHT
 10
0.0
 20
0.0
 30
0.0
  9
$UCSORGFRONT
 10
0.0
 20
0.0
 30
0.0
  9
$UCSORGBACK
 10
0.0
 20
0.0
 30
0.0
  9
$PUCSBASE
  2

  9
$PUCSNAME
  2

  9
$PUCSORG
 10
0.0
 20
0.0
 30
0.0
  9
$PUCSXDIR
 10
1.0
 20
0.0
 30
0.0
  9
$PUCSYDIR
 10
0.0
 20
1.0
 30
0.0
  9
$PUCSORTHOREF
  2

  9
$PUCSORTHOVIEW
 70
     0
  9
$PUCSORGTOP
 10
0.0
 20
0.0
 30
0.0
  9
$PUCSORGBOTTOM
 10
0.0
 20
0.0
 30
0.0
  9
$PUCSORGLEFT
 10
0.0
 20
0.0
 30
0.0
  9
$PUCSORGRIGHT
 10
0.0
 20
0.0
 30
0.0
  9
$PUCSORGFRONT
 10
0.0
 20
0.0
 30
0.0
  9
$PUCSORGBACK
 10
0.0
 20
0.0
 30
0.0
  9
$USERI1
 70
     0
  9
$USERI2
 70
     0
  9
$USERI3
 70
     0
  9
$USERI4
 70
     0
  9
$USERI5
 70
     0
  9
$USERR1
 40
0.0
  9
$USERR2
 40
0.0
  9
$USERR3
 40
0.0
  9
$USERR4
 40
0.0
  9
$USERR5
 40
0.0
  9
$WORLDVIEW
 70
     1
  9
$SHADEDGE
 70
     3
  9
$SHADEDIF
 70
    70
  9
$TILEMODE
 70
     1
  9
$MAXACTVP
 70
    64
  9
$PINSBASE
 10
0.0
 20
0.0
 30
0.0
  9
$PLIMCHECK
 70
     0
  9
$PEXTMIN
 10
1.000000000000000E+20
 20
1.000000000000000E+20
 30
1.000000000000000E+20
  9
$PEXTMAX
 10
-1.000000000000000E+20
 20
-1.000000000000000E+20
 30
-1.000000000000000E+20
  9
$PLIMMIN
 10
-3.17498779296875
 20
-3.174999952316281
  9
$PLIMMAX
 10
293.4970092773438
 20
206.692492723465
  9
$UNITMODE
 70
     0
  9
$VISRETAIN
 70
     1
  9
$PLINEGEN
 70
     0
  9
$PSLTSCALE
 70
     1
  9
$TREEDEPTH
 70
  3020
  9
$CMLSTYLE
  2
Standard
  9
$CMLJUST
 70
     0
  9
$CMLSCALE
 40
20.0
  9
$PROXYGRAPHICS
 70
     1
  9
$MEASUREMENT
 70
     1
  9
$CELWEIGHT
370
    -1
  9
$ENDCAPS
280
     0
  9
$JOINSTYLE
280
     0
  9
$LWDISPLAY
290
     0
  9
$INSUNITS
 70
     4
  9
$HYPERLINKBASE
  1

  9
$STYLESHEET
  1
monochrome.ctb
  9
$XEDIT
290
     1
  9
$CEPSNTYPE
380
     0
  9
$PSTYLEMODE
290
     1
  9
$FINGERPRINTGUID
  2
{F4957AF8-857E-42C6-BAB8-18E6896E5882}
  9
$VERSIONGUID
  2
{14C85D9F-FD48-406D-821E-999942E7BF7C}
  9
$EXTNAMES
290
     1
  9
$PSVPSCALE
 40
0.0
  9
$OLESTARTUP
290
     0
  0
ENDSEC
  0
SECTION
  2
CLASSES
  0
CLASS
  1
ACDBDICTIONARYWDFLT
  2
AcDbDictionaryWithDefault
  3
ObjectDBX Classes
 90
        0
280
     0
281
     0
  0
CLASS
  1
ACDBPLACEHOLDER
  2
AcDbPlaceHolder
  3
ObjectDBX Classes
 90
        0
280
     0
281
     0
  0
CLASS
  1
LAYOUT
  2
AcDbLayout
  3
ObjectDBX Classes
 90
        0
280
     0
281
     0
  0
CLASS
  1
AMGSETTINGSOBJ
  2
AmgSettingsObj
  3
"AcadM|Product Description: AutoCAD Mechanical|Company: Autodesk"
 90
        0
280
     0
281
     0
  0
CLASS
  1
ACME_DOCUMENT
  2
AcMeDbDoc
  3
AcMeServices
 90
        0
280
     0
281
     0
  0
CLASS
  1
ACMESCOPE
  2
AcMeScope
  3
AcMeServices
 90
        0
280
     0
281
     0
  0
CLASS
  1
ACMECOMMANDHISTORY
  2
AcMeCommandHistory
  3
AcMeServices
 90
        0
280
     0
281
     0
  0
CLASS
  1
DICTIONARYVAR
  2
AcDbDictionaryVar
  3
ObjectDBX Classes
 90
        0
280
     0
281
     0
  0
CLASS
  1
ACIMSYSVARMAN
  2
AcImSysVarManager
  3
AcMeServices
 90
        0
280
     0
281
     0
  0
CLASS
  1
ACIMREALSYSVAR
  2
AcImRealSysVar
  3
AcMeServices
 90
        0
280
     0
281
     0
  0
CLASS
  1
ACIMINTSYSVAR
  2
AcImIntSysVar
  3
AcMeServices
 90
        0
280
     0
281
     0
  0
CLASS
  1
ACMEDRAWINGMAN
  2
AcMeDrawingMan
  3
AcMeServices
 90
        0
280
     0
281
     0
  0
CLASS
  1
ACMEVIEW
  2
AcMeView
  3
AcMeServices
 90
        0
280
     0
281
     0
  0
CLASS
  1
ACDBENTITYCACHE
  2
AcMeEntityCache
  3
AcMeServices
 90
        0
280
     0
281
     0
  0
CLASS
  1
GSMANAGER
  2
AcMeGSManager
  3
AcMeServices
 90
        0
280
     0
281
     0
  0
CLASS
  1
AMDTINTERNALREACTOR
  2
AmdtInternalReactor
  3
AcMeServices
 90
        0
280
     0
281
     0
  0
CLASS
  1
ACMESTATEMGR
  2
AcMeStateMgr
  3
AcMeServices
 90
        0
280
     0
281
     0
  0
CLASS
  1
ACGREFMASTER
  2
AcGrefMaster
  3
AcAttribServices
 90
        0
280
     0
281
     0
  0
CLASS
  1
ACME_DATABASE
  2
AcMeDbDatabase
  3
AcMeServices
 90
        0
280
     0
281
     0
  0
CLASS
  1
ACRFINSADJUSTERMGR
  2
AcRfInsAdjusterMgr
  3
AcMeServices
 90
        0
280
     0
281
     0
  0
CLASS
  1
ACGREFACADMASTER
  2
AcGrefacadMaster
  3
AcGrefServices
 90
        0
280
     0
281
     0
  0
CLASS
  1
AMIMASTER
  2
AmiMaster
  3
AmiServices
 90
        0
280
     0
281
     0
  0
CLASS
  1
ACMDATADICTIONARY
  2
AcmDataDictionary
  3
"AcmSymBB|Product Description: AutoCAD Mechanical|Company: Autodesk"
 90
        0
280
     0
281
     0
  0
CLASS
  1
ACMDATAENTRYBLOCK
  2
AcmDataEntryBlock
  3
"AcmSymBB|Product Description: AutoCAD Mechanical|Company: Autodesk"
 90
    32768
280
     0
281
     0
  0
CLASS
  1
ACIMSTRSYSVAR
  2
AcImStrSysVar
  3
AcMeServices
 90
        0
280
     0
281
     0
  0
CLASS
  1
ACMSTANDARDISO
  2
AcmStandardISO
  3
"Amdt_StdImp|Product Description: AutoCAD Mechanical|Company: Autodesk"
 90
        0
280
     0
281
     0
  0
CLASS
  1
AMGOBJPROPCFG
  2
AmgObjPropCfg
  3
"AmgLay|Product Description: AutoCAD Mechanical|Company: Autodesk"
 90
        1
280
     0
281
     0
  0
CLASS
  1
AMDTEDGESTANDARDISO
  2
AmdtEdgeStdISO
  3
"Amdt_StdImp|Product Description: AutoCAD Mechanical|Company: Autodesk"
 90
        0
280
     0
281
     0
  0
CLASS
  1
ACMSURFSTANDARDISO
  2
AcmSurfTextStdISO
  3
"Amdt_StdImp|Product Description: AutoCAD Mechanical|Company: Autodesk"
 90
        0
280
     0
281
     0
  0
CLASS
  1
ACMFCFSTANDARDISO
  2
AcmFCFStdISO
  3
"Amdt_StdImp|Product Description: AutoCAD Mechanical|Company: Autodesk"
 90
        0
280
     0
281
     0
  0
CLASS
  1
ACMWELDSTANDARDISO
  2
AcmWeldingStdISO
  3
"Amdt_StdImp|Product Description: AutoCAD Mechanical|Company: Autodesk"
 90
        0
280
     0
281
     0
  0
CLASS
  1
ACMIDSTANDARDISO
  2
AcmIdStdISO
  3
"Amdt_StdImp|Product Description: AutoCAD Mechanical|Company: Autodesk"
 90
        0
280
     0
281
     0
  0
CLASS
  1
ACMDATUMSTANDARDISO
  2
AcmDatumStdISO
  3
"Amdt_StdImp|Product Description: AutoCAD Mechanical|Company: Autodesk"
 90
        0
280
     0
281
     0
  0
CLASS
  1
ACMBOMSTANDARDISO
  2
AcmBOMStdISO
  3
"Amdt_StdImp|Product Description: AutoCAD Mechanical|Company: Autodesk"
 90
        0
280
     0
281
     0
  0
CLASS
  1
ACMDETAILSTANDARDISO
  2
AmdtDetailSymStdISO
  3
"Amdt_StdImp|Product Description: AutoCAD Mechanical|Company: Autodesk"
 90
        0
280
     0
281
     0
  0
CLASS
  1
ACMSECTIONSTANDARDISO
  2
AmdtSectionSymStdISO
  3
"Amdt_StdImp|Product Description: AutoCAD Mechanical|Company: Autodesk"
 90
        0
280
     0
281
     0
  0
CLASS
  1
ACMCENTERLINESTANDARDISO
  2
AmdtCenterLineStdISO
  3
"Amdt_StdImp|Product Description: AutoCAD Mechanical|Company: Autodesk"
 90
        0
280
     0
281
     0
  0
CLASS
  1
ACAMGLAYSTD
  2
AcAmgLayStd
  3
"AmgLay|Product Description: AutoCAD Mechanical|Company: Autodesk"
 90
        0
280
     0
281
     0
  0
CLASS
  1
ACAMGDIMSTD
  2
AcAmgDimStd
  3
"AmgDim|Product Description: AutoCAD Mechanical|Company: Autodesk"
 90
        0
280
     0
281
     0
  0
CLASS
  1
ACAMGTITLESTD
  2
AcAmgTitleStd
  3
"AmgTitle|Product Description: AutoCAD Mechanical|Company: Autodesk"
 90
        0
280
     0
281
     0
  0
CLASS
  1
ACAMGFILTERDAT
  2
AcAmgFilterDat
  3
"AcadM|Product Description: AutoCAD Mechanical|Company: Autodesk"
 90
    32768
280
     0
281
     0
  0
CLASS
  1
LAYER_INDEX
  2
AcDbLayerIndex
  3
ObjectDBX Classes
 90
    32768
280
     0
281
     0
  0
CLASS
  1
IDBUFFER
  2
AcDbIdBuffer
  3
ObjectDBX Classes
 90
    32768
280
     0
281
     0
  0
CLASS
  1
PLOTSETTINGS
  2
AcDbPlotSettings
  3
ObjectDBX Classes
 90
        0
280
     0
281
     0
  0
CLASS
  1
AMDTFORMULAUPDATEDISPATCHER
  2
AmdtFormulaUpdateDispatcher
  3
AcMeServices
 90
    32768
280
     0
281
     0
  0
CLASS
  1
ACMSTANDARDANSI
  2
AcmStandardANSI
  3
"Amdt_StdImp|Product Description: AutoCAD Mechanical|Company: Autodesk"
 90
        0
280
     0
281
     0
  0
CLASS
  1
ACMSURFSTANDARDANSI
  2
AcmSurfTextStdANSI
  3
"Amdt_StdImp|Product Description: AutoCAD Mechanical|Company: Autodesk"
 90
        0
280
     0
281
     0
  0
CLASS
  1
ACMFCFSTANDARDANSI
  2
AcmFCFStdANSI
  3
"Amdt_StdImp|Product Description: AutoCAD Mechanical|Company: Autodesk"
 90
        0
280
     0
281
     0
  0
CLASS
  1
ACMWELDSTANDARDANSI
  2
AcmWeldingStdANSI
  3
"Amdt_StdImp|Product Description: AutoCAD Mechanical|Company: Autodesk"
 90
        0
280
     0
281
     0
  0
CLASS
  1
ACMIDSTANDARDANSI
  2
AcmIdStdANSI
  3
"Amdt_StdImp|Product Description: AutoCAD Mechanical|Company: Autodesk"
 90
        0
280
     0
281
     0
  0
CLASS
  1
ACMDATUMSTANDARDANSI
  2
AcmDatumStdANSI
  3
"Amdt_StdImp|Product Description: AutoCAD Mechanical|Company: Autodesk"
 90
        0
280
     0
281
     0
  0
CLASS
  1
ACMBOMSTANDARDANSI
  2
AcmBOMStdANSI
  3
"Amdt_StdImp|Product Description: AutoCAD Mechanical|Company: Autodesk"
 90
        0
280
     0
281
     0
  0
CLASS
  1
ACMDETAILSTANDARDANSI
  2
AmdtDetailSymStdANSI
  3
"Amdt_StdImp|Product Description: AutoCAD Mechanical|Company: Autodesk"
 90
        0
280
     0
281
     0
  0
CLASS
  1
ACMSECTIONSTANDARDANSI
  2
AmdtSectionSymStdANSI
  3
"Amdt_StdImp|Product Description: AutoCAD Mechanical|Company: Autodesk"
 90
        0
280
     0
281
     0
  0
CLASS
  1
ACMCENTERLINESTANDARDANSI
  2
AmdtCenterLineStdANSI
  3
"Amdt_StdImp|Product Description: AutoCAD Mechanical|Company: Autodesk"
 90
        0
280
     0
281
     0
  0
CLASS
  1
ACMBOM
  2
AcmBom
  3
"AcmSymBB|Product Description: AutoCAD Mechanical|Company: Autodesk"
 90
    32768
280
     0
281
     0
  0
CLASS
  1
ACMDATAENTRYPART
  2
AcmDataEntryPart
  3
"AcmSymBB|Product Description: AutoCAD Mechanical|Company: Autodesk"
 90
    32768
280
     0
281
     0
  0
CLASS
  1
ACMPARTREF
  2
AcmPartRef
  3
"AcmSymBB|Product Description: AutoCAD Mechanical|Company: Autodesk"
 90
    35839
280
     0
281
     1
  0
CLASS
  1
ACDBCIRCARCRES
  2
AcDbCircArcRes
  3
AcGrefServices
 90
    32768
280
     0
281
     0
  0
CLASS
  1
ACMBOMROW
  2
AcmBomRow
  3
"AcmSymBB|Product Description: AutoCAD Mechanical|Company: Autodesk"
 90
    32768
280
     0
281
     0
  0
CLASS
  1
ACMBALLOON
  2
AcmBalloon
  3
"AcmSymBB|Product Description: AutoCAD Mechanical|Company: Autodesk"
 90
    35839
280
     0
281
     1
  0
CLASS
  1
AMDTNOTE
  2
AmdtNote
  3
"AcmSymBB|Product Description: AutoCAD Mechanical|Company: Autodesk"
 90
    35839
280
     0
281
     1
  0
CLASS
  1
STDPART2D
  2
AmgStdPart
  3
"g3vace|Class: AmgStdPart|Product Description: AutoCAD Mechanical|Company: Autodesk"
 90
    35839
280
     0
281
     1
  0
CLASS
  1
ACDBSTDPARTRES_LINE
  2
AcDbStdPartRes_Line
  3
"g3vace|Class: AcDbStdPartRes_Line|Product Description: AutoCAD Mechanical|Company: Autodesk"
 90
    32768
280
     0
281
     0
  0
CLASS
  1
ACMDATAENTRY
  2
AcmDataEntry
  3
"AcmSymBB|Product Description: AutoCAD Mechanical|Company: Autodesk"
 90
    32768
280
     0
281
     0
  0
CLASS
  1
ACDBOPPOLYLINERES
  2
AcDbOpPolylineRes
  3
AcGrefServices
 90
    32768
280
     0
281
     0
  0
CLASS
  1
ACMPARTLIST
  2
AcmPartList
  3
"AcmSymBB|Product Description: AutoCAD Mechanical|Company: Autodesk"
 90
    35839
280
     0
281
     1
  0
CLASS
  1
ACDBLINERES
  2
AcDbLineRes
  3
AcGrefServices
 90
    32768
280
     0
281
     0
  0
CLASS
  1
ACRFINSADJ
  2
AcRfInsAdjuster
  3
AcMeServices
 90
    32768
280
     0
281
     0
  0
CLASS
  1
AM_DRAWING_MGR
  2
AcDmDwgMgr
  3
AcMechDwgViewMgmt
 90
        0
280
     0
281
     0
  0
CLASS
  1
AM_DWG_DOCUMENT
  2
AcDmDwgDocument
  3
AcMechDwgViewMgmt
 90
        0
280
     0
281
     0
  0
CLASS
  1
AM_DWG_SHEET
  2
AcDmSheet
  3
AcMechDwgViewMgmt
 90
        0
280
     0
281
     0
  0
CLASS
  1
AM_VIEWDIMPARMAP
  2
AcDmViewDimParMap
  3
AcMechDwgViewMgmt
 90
        0
280
     0
281
     0
  0
CLASS
  1
AM_DWGMGR_NAME
  2
AcDmDwgMgrName
  3
AcMechDwgViewMgmt
 90
        0
280
     0
281
     0
  0
CLASS
  1
AMDTMENUSTATEMGR
  2
AmdtMenuStateMgr
  3
McadcomServices
 90
        0
280
     0
281
     0
  0
CLASS
  1
AMDTMCOMMENUSTATE
  2
AmdtMcomMenuState
  3
McadcomServices
 90
        0
280
     0
281
     0
  0
CLASS
  1
ASAPP
  2
AcAsAppObject
  3
AutoSurfServices
 90
        0
280
     0
281
     0
  0
CLASS
  1
IM_STATIC_MAN
  2
AcImStaticVarManager
  3
AcMeServices
 90
    32768
280
     0
281
     0
  0
CLASS
  1
ACIMDBLSTATICVAR
  2
AcImDblStaticVar
  3
AcMeServices
 90
    32768
280
     0
281
     0
  0
CLASS
  1
ACIMSTRSTATICVAR
  2
AcImStrStaticVar
  3
AcMeServices
 90
    32768
280
     0
281
     0
  0
CLASS
  1
ACIMINTSTATICVAR
  2
AcImIntStaticVar
  3
AcMeServices
 90
    32768
280
     0
281
     0
  0
CLASS
  1
ACASGREFMASTER
  2
AcAsGrefMaster
  3
AutoSurfResolverServices
 90
        0
280
     0
281
     0
  0
CLASS
  1
ACADGREFMODULE
  2
AcAdGrefModule
  3
AdGrefServices
 90
        0
280
     0
281
     0
  0
CLASS
  1
AMDTMAPISURFMOUDULE
  2
AmdtMApiSurfModule
  3
MApiSurfServices
 90
        0
280
     0
281
     0
  0
CLASS
  1
MAPIAMMOUDLE
  2
MApiAmModule
  3
MApiAmServices
 90
        0
280
     0
281
     0
  0
CLASS
  1
AMDTADMENUSTATE
  2
AmdtAdMenuState
  3
DesignerServices
 90
        0
280
     0
281
     0
  0
CLASS
  1
ADAPPL
  2
AcAdAppl
  3
DesignerServices
 90
        0
280
     0
281
     0
  0
CLASS
  1
DEPMGR
  2
AcAdDepMgr
  3
DesignerServices
 90
        0
280
     0
281
     0
  0
CLASS
  1
PARAMMGR
  2
AcAdParamMgr
  3
DesignerServices
 90
        0
280
     0
281
     0
  0
CLASS
  1
PARAMSCOPE
  2
AcAdParamScope
  3
DesignerServices
 90
        0
280
     0
281
     0
  0
CLASS
  1
NAMEDAPPL
  2
AcAdNamedAppl
  3
DesignerServices
 90
        0
280
     0
281
     0
  0
CLASS
  1
ADHNTMPLT
  2
AdHoleNoteTemplateMgr
  3
DesignerServices
 90
    32768
280
     0
281
     0
  0
CLASS
  1
AM_HNTEMPLATE_MGR_NAME
  2
AdHoleNoteTemplateMgrName
  3
DesignerServices
 90
    32768
280
     0
281
     0
  0
CLASS
  1
AMDTDMMENUSTATE
  2
AmdtDmMenuState
  3
AcMechDwgViewMgmt
 90
        0
280
     0
281
     0
  0
CLASS
  1
MAPIADMODULE
  2
MApiAdModule
  3
MApiAdServices
 90
        0
280
     0
281
     0
  0
CLASS
  1
AMDTAMMENUSTATE
  2
AmdtAmMenuState
  3
DesignerAssemblies
 90
        0
280
     0
281
     0
  0
CLASS
  1
ACAMPROJECT
  2
AcAmProject
  3
DesignerAssemblies
 90
        0
280
     0
281
     0
  0
CLASS
  1
ACAMGRCOMPDEF
  2
AcAmGrCompDef
  3
DesignerAssemblies
 90
        0
280
     0
281
     0
  0
CLASS
  1
ACCMCONTEXT
  2
AcCmContext
  3
DesignerAssemblies
 90
        0
280
     0
281
     0
  0
CLASS
  1
ACAMCOMPDEF
  2
AcAmCompDef
  3
DesignerAssemblies
 90
        0
280
     0
281
     0
  0
CLASS
  1
ACAMCOMPDEFMGR
  2
AcAmCompDefMgr
  3
DesignerAssemblies
 90
        0
280
     0
281
     0
  0
CLASS
  1
AMCONTEXTMGR
  2
AcAmContextMgr
  3
DesignerAssemblies
 90
        0
280
     0
281
     0
  0
CLASS
  1
ACAMCONTEXTMODELER
  2
AcAmContextModeler
  3
DesignerAssemblies
 90
        0
280
     0
281
     0
  0
CLASS
  1
CATALOGSTATE
  2
AcAmCatalogState
  3
DesignerAssemblies
 90
        0
280
     0
281
     0
  0
CLASS
  1
ACAMGRCOMPDEFSET
  2
AcAmGrCompDefSet
  3
DesignerAssemblies
 90
        0
280
     0
281
     0
  0
CLASS
  1
AMDTBROWSERDBTAB
  2
AmdtBrowserDbTab
  3
McadcomServices
 90
        0
280
     0
281
     0
  0
CLASS
  1
CBROWSERAPPOBJECT
  2
CBrowserAppObject
  3
McadcomServices
 90
        0
280
     0
281
     0
  0
CLASS
  1
DM_PLACEHOLDER
  2
AcDmSelsetPlaceholder
  3
AcMechDwgViewMgmt
 90
        0
280
     0
281
     0
  0
CLASS
  1
ACMPICKOBJ
  2
AcmPickEnt
  3
"AcmSymBB|Product Description: AutoCAD Mechanical|Company: Autodesk"
 90
    32768
280
     0
281
     1
  0
CLASS
  1
ACMNOTESTANDARDISO
  2
AmdtNoteStdISO
  3
"Amdt_StdImp|Product Description: AutoCAD Mechanical|Company: Autodesk"
 90
        0
280
     0
281
     0
  0
CLASS
  1
ACMNOTESTANDARDANSI
  2
AmdtNoteStdANSI
  3
"Amdt_StdImp|Product Description: AutoCAD Mechanical|Company: Autodesk"
 90
        0
280
     0
281
     0
  0
CLASS
  1
ACMTHREADLINESTANDARDISO
  2
AmdtThreadLineStdISO
  3
"Amdt_StdImp|Product Description: AutoCAD Mechanical|Company: Autodesk"
 90
        0
280
     0
281
     0
  0
CLASS
  1
ACMTHREADLINESTANDARDANSI
  2
AmdtThreadLineStdANSI
  3
"Amdt_StdImp|Product Description: AutoCAD Mechanical|Company: Autodesk"
 90
        0
280
     0
281
     0
  0
CLASS
  1
TABLESTYLE
  2
AcDbTableStyle
  3
ObjectDBX Classes
 90
     4095
280
     0
281
     0
  0
CLASS
  1
SORTENTSTABLE
  2
AcDbSortentsTable
  3
ObjectDBX Classes
 90
        0
280
     0
281
     0
  0
CLASS
  1
EXACXREFPANELOBJECT
  2
ExAcXREFPanelObject
  3
EXAC_ESW
 90
    32768
280
     0
281
     0
  0
CLASS
  1
DIMASSOC
  2
AcDbDimAssoc
  3
"AcDbDimAssoc|Product Desc:     AcDim ARX App For Dimension|Company:          Autodesk, Inc.|WEB Address:      www.autodesk.com"
 90
        0
280
     0
281
     0
  0
CLASS
  1
AMDTNOTETEMPLATEDB
  2
AmdtNoteTemplateDB
  3
AMDT_STDIMP_MODULE_NAME
 90
        0
280
     0
281
     0
  0
CLASS
  1
AMDTDETAILSYM
  2
AmdtDetailSym
  3
"AcmSymBB|Product Description: AutoCAD Mechanical|Company: Autodesk"
 90
    35839
280
     0
281
     1
  0
CLASS
  1
AMDTDETAILSYMLABEL
  2
AmdtDetailSymLabel
  3
"AcmSymBB|Product Description: AutoCAD Mechanical|Company: Autodesk"
 90
    35839
280
     0
281
     1
  0
CLASS
  1
ACMDIMBREAKPERSREACTOR
  2
AcmDimBreakPersReactor
  3
amgDimApp().moduleName()
 90
    35839
280
     0
281
     0
  0
CLASS
  1
AMDTEDGESTANDARDISO13715
  2
AmdtEdgeStdISO13715
  3
"Amdt_StdImp|Product Description: AutoCAD Mechanical|Company: Autodesk"
 90
        0
280
     0
281
     0
  0
CLASS
  1
ACAMGHOLECHARTSTDISO
  2
AcAmgHoleChartStdISO
  3
ACMSYMBB_MODULE_NAME
 90
        0
280
     0
281
     0
  0
CLASS
  1
MATERIAL
  2
AcDbMaterial
  3
ObjectDBX Classes
 90
     1153
280
     0
281
     0
  0
CLASS
  1
VISUALSTYLE
  2
AcDbVisualStyle
  3
ObjectDBX Classes
 90
     4095
280
     0
281
     0
  0
CLASS
  1
ACMTAPERSTANDARDISO
  2
AcmTaperStdISO
  3
"Amdt_StdImp|Product Description: AutoCAD Mechanical|Company: Autodesk"
 90
        0
280
     0
281
     0
  0
CLASS
  1
CAMSSTRUCTBTNSTATE
  2
StructBtnState
  3
L"DesignerAssemblies"
 90
        0
280
     0
281
     0
  0
CLASS
  1
ACMTAPERSTANDARDANSI
  2
AcmTaperStdANSI
  3
"Amdt_StdImp|Product Description: AutoCAD Mechanical|Company: Autodesk"
 90
        0
280
     0
281
     0
  0
CLASS
  1
ACAMGHOLECHARTSTDANSI
  2
AcAmgHoleChartStdANSI
  3
ACMSYMBB_MODULE_NAME
 90
        0
280
     0
281
     0
  0
ENDSEC
  0
SECTION
  2
TABLES
  0
TABLE
  2
VPORT
  5
8
330
0
100
AcDbSymbolTable
 70
     1
  0
VPORT
  5
2FC26
330
8
100
AcDbSymbolTableRecord
100
AcDbViewportTableRecord
  2
*Active
 70
     0
 10
0.0
 20
0.0
 11
1.0
 21
1.0
 12
819.1597837367872
 22
671.3815345610296
 13
0.0
 23
0.0
 14
2.5
 24
2.5
 15
10.0
 25
10.0
 16
0.0
 26
0.0
 36
1.0
 17
0.0
 27
0.0
 37
0.0
 40
470.728790089122
 41
1.916666666666666
 42
50.0
 43
-1370.695619172058
 44
-1370.695619172058
 50
0.0
 51
0.0
 71
    16
 72
   100
 73
     1
 74
     3
 75
     0
 76
     0
 77
     0
 78
     0
281
     0
 65
     0
110
0.0
120
0.0
130
0.0
111
1.0
121
0.0
131
0.0
112
0.0
122
1.0
132
0.0
 79
     0
146
0.0
  0
ENDTAB
  0
TABLE
  2
LTYPE
  5
5
330
0
100
AcDbSymbolTable
 70
    40
  0
LTYPE
  5
14
330
5
100
AcDbSymbolTableRecord
100
AcDbLinetypeTableRecord
  2
ByBlock
 70
     0
  3

 72
    65
 73
     0
 40
0.0
  0
LTYPE
  5
15
330
5
100
AcDbSymbolTableRecord
100
AcDbLinetypeTableRecord
  2
ByLayer
 70
     0
  3

 72
    65
 73
     0
 40
0.0
  0
LTYPE
  5
16
330
5
100
AcDbSymbolTableRecord
100
AcDbLinetypeTableRecord
  2
Continuous
 70
     0
  3
Solid line
 72
    65
 73
     0
 40
0.0
  0
LTYPE
  5
4F
330
5
100
AcDbSymbolTableRecord
100
AcDbLinetypeTableRecord
  2
AM_ISO02W050
 70
     0
  3
__ __ __ __ __ __ __ __ __ __ __ __ __ __ __
 72
    65
 73
     2
 40
7.5
 49
6.0
 74
     0
 49
-1.5
 74
     0
  0
LTYPE
  5
52
330
5
100
AcDbSymbolTableRecord
100
AcDbLinetypeTableRecord
  2
Amconstr
 70
     0
  3
_______________________
 72
    65
 73
     2
 40
9999.0
 49
9999.0
 74
     0
 49
0.0
 74
     0
  0
LTYPE
  5
64
330
5
100
AcDbSymbolTableRecord
100
AcDbLinetypeTableRecord
  2
ACISOWELD
 70
     0
  3
_ _ _ _ _
 72
    65
 73
     2
 40
2.0
 49
2.0
 74
     0
 49
-1.0
 74
     0
  0
LTYPE
  5
65
330
5
100
AcDbSymbolTableRecord
100
AcDbLinetypeTableRecord
  2
ACISOTGB
 70
     0
  3
__ . . __ . .
 72
    65
 73
     6
 40
9.0
 49
4.0
 74
     0
 49
-1.0
 74
     0
 49
1.0
 74
     0
 49
-1.0
 74
     0
 49
1.0
 74
     0
 49
-1.0
 74
     0
  0
LTYPE
  5
66
330
5
100
AcDbSymbolTableRecord
100
AcDbLinetypeTableRecord
  2
ACISOTGL
 70
     0
  3
_ _ _ _ _
 72
    65
 73
     2
 40
3.0
 49
2.0
 74
     0
 49
-1.0
 74
     0
  0
LTYPE
  5
69
330
5
100
AcDbSymbolTableRecord
100
AcDbLinetypeTableRecord
  2
CENTER
 70
     0
  3
__ . __
 72
    65
 73
     4
 40
7.0
 49
4.0
 74
     0
 49
-1.0
 74
     0
 49
1.0
 74
     0
 49
-1.0
 74
     0
  0
LTYPE
  5
A6E
330
5
100
AcDbSymbolTableRecord
100
AcDbLinetypeTableRecord
  2
PHANTOM2
 70
     0
  3
Phantom (.5x) ___ _ _ ___ _ _ ___ _ _ ___ _ _
 72
    65
 73
     6
 40
31.75
 49
15.875
 74
     0
 49
-3.174999999999998
 74
     0
 49
3.174999999999998
 74
     0
 49
-3.174999999999998
 74
     0
 49
3.174999999999998
 74
     0
 49
-3.174999999999998
 74
     0
  0
LTYPE
  5
4DED
330
5
100
AcDbSymbolTableRecord
100
AcDbLinetypeTableRecord
  2
中線
 70
     0
  3
___________________
 72
    65
 73
     2
 40
2.0
 49
1.0
 74
     0
 49
1.0
 74
     0
  0
LTYPE
  5
4DF6
330
5
100
AcDbSymbolTableRecord
100
AcDbLinetypeTableRecord
  2
細線
 70
     0
  3
___________________
 72
    65
 73
     2
 40
2.0
 49
1.0
 74
     0
 49
1.0
 74
     0
  0
LTYPE
  5
4DF7
330
5
100
AcDbSymbolTableRecord
100
AcDbLinetypeTableRecord
  2
太線
 70
     0
  3
___________________
 72
    65
 73
     2
 40
2.0
 49
1.0
 74
     0
 49
1.0
 74
     0
  0
LTYPE
  5
4EA7
330
5
100
AcDbSymbolTableRecord
100
AcDbLinetypeTableRecord
  2
文字
 70
     0
  3
_________________
 72
    65
 73
     2
 40
2.0
 49
1.0
 74
     0
 49
1.0
 74
     0
  0
LTYPE
  5
4EA9
330
5
100
AcDbSymbolTableRecord
100
AcDbLinetypeTableRecord
  2
寸法線
 70
     0
  3
________________
 72
    65
 73
     2
 40
2.0
 49
1.0
 74
     0
 49
1.0
 74
     0
  0
LTYPE
  5
4F12
330
5
100
AcDbSymbolTableRecord
100
AcDbLinetypeTableRecord
  2
ハッチング
 70
     0
  3
_________________
 72
    65
 73
     2
 40
2.0
 49
1.0
 74
     0
 49
1.0
 74
     0
  0
LTYPE
  5
5180
330
5
100
AcDbSymbolTableRecord
100
AcDbLinetypeTableRecord
  2
陰線1
 70
     0
  3
__ __ __ __
 72
    65
 73
     2
 40
4.0
 49
2.2
 74
     0
 49
-1.8
 74
     0
  0
LTYPE
  5
5182
330
5
100
AcDbSymbolTableRecord
100
AcDbLinetypeTableRecord
  2
切断線
 70
     0
  3
/\/-/\/-/\/-/\/-/\/-/\/
 72
    65
 73
     2
 40
11.0001
 49
0.0001
 74
     4
 75
   135
340
56
 46
0.04
 50
0.0
 44
0.0
 45
0.0
 49
-11.0
 74
     0
  0
LTYPE
  5
5183
330
5
100
AcDbSymbolTableRecord
100
AcDbLinetypeTableRecord
  2
想像線1
 70
     0
  3
__ __ __ _____ __ __ ____
 72
    65
 73
     6
 40
14.5
 49
6.0
 74
     0
 49
-1.5
 74
     0
 49
2.0
 74
     0
 49
-1.5
 74
     0
 49
2.0
 74
     0
 49
-1.5
 74
     0
  0
LTYPE
  5
5185
330
5
100
AcDbSymbolTableRecord
100
AcDbLinetypeTableRecord
  2
中心線1
 70
     0
  3
___ _ ___ _ ___
 72
    65
 73
     4
 40
18.0
 49
12.0
 74
     0
 49
-2.0
 74
     0
 49
2.0
 74
     0
 49
-2.0
 74
     0
  0
LTYPE
  5
5188
330
5
100
AcDbSymbolTableRecord
100
AcDbLinetypeTableRecord
  2
補助線
 70
     0
  3
______________
 72
    65
 73
     2
 40
2.0
 49
1.0
 74
     0
 49
1.0
 74
     0
  0
LTYPE
  5
6427
330
5
100
AcDbSymbolTableRecord
100
AcDbLinetypeTableRecord
  2
HIDDEN
 70
     0
  3
Hidden __ __ __ __ __ __ __ __ __ __ __ __ __ _
 72
    65
 73
     2
 40
0.375
 49
0.25
 74
     0
 49
-0.125
 74
     0
  0
LTYPE
  5
AC81
330
5
100
AcDbSymbolTableRecord
100
AcDbLinetypeTableRecord
  2
破断線
 70
     0
  3
/\/-/\/-/\/-/\/-/\/-/\/
 72
    65
 73
     2
 40
0.4401
 49
0.0001
 74
     4
 75
   136
340
AC80
 46
0.0016
 50
0.0
 44
0.0
 45
0.0
 49
-0.4400000000000003
 74
     0
  0
LTYPE
  5
AC9E
330
5
100
AcDbSymbolTableRecord
100
AcDbLinetypeTableRecord
  2
Amzigzag
 70
     0
  3
/\/-/\/-/\/-/\/-/\/-/\/
 72
    65
 73
     2
 40
11.0001
 49
0.0001
 74
     4
 75
   135
340
56
 46
0.04
 50
0.0
 44
0.0
 45
0.0
 49
-11.0
 74
     0
  0
LTYPE
  5
AF0F
330
5
100
AcDbSymbolTableRecord
100
AcDbLinetypeTableRecord
  2
genzigzag
 70
     0
  3
/\/-/\/-/\/-/\/-/\/-/\/
 72
    65
 73
     2
 40
12.0001
 49
0.0001
 74
     4
 75
   135
340
AC80
 46
2.0
 50
0.0
 44
0.0
 45
0.0
 49
-12.0
 74
     0
  0
LTYPE
  5
AF95
330
5
100
AcDbSymbolTableRecord
100
AcDbLinetypeTableRecord
  2
AM_ISO08W050
 70
     0
  3
____ . ____ . ____ . ____ . ____ . ____ . ____
 72
    65
 73
     4
 40
18.0
 49
12.0
 74
     0
 49
-1.5
 74
     0
 49
3.0
 74
     0
 49
-1.5
 74
     0
  0
LTYPE
  5
AF96
330
5
100
AcDbSymbolTableRecord
100
AcDbLinetypeTableRecord
  2
AM_ISO09W050
 70
     0
  3
_____ . . _____ . . _____ . . ____ .. ____
 72
    65
 73
     6
 40
22.5
 49
12.0
 74
     0
 49
-1.5
 74
     0
 49
3.0
 74
     0
 49
-1.5
 74
     0
 49
3.0
 74
     0
 49
-1.5
 74
     0
  0
LTYPE
  5
AF97
330
5
100
AcDbSymbolTableRecord
100
AcDbLinetypeTableRecord
  2
AM_ISO08W050x2
 70
     0
  3
__ . __ . __ . __ . __ . __
 72
    65
 73
     4
 40
9.0
 49
6.0
 74
     0
 49
-0.75
 74
     0
 49
1.5
 74
     0
 49
-0.75
 74
     0
  0
LTYPE
  5
AF98
330
5
100
AcDbSymbolTableRecord
100
AcDbLinetypeTableRecord
  2
AM_ISO02W050x2
 70
     0
  3
 _ _ _ _ _ _ _ _ _ _ _ _
 72
    65
 73
     2
 40
3.75
 49
3.0
 74
     0
 49
-0.75
 74
     0
  0
LTYPE
  5
B168
330
5
100
AcDbSymbolTableRecord
100
AcDbLinetypeTableRecord
  2
CHAIN
 70
     0
  3
Chain ____ _ ____ _ ____ _ ____ _ ____ _ ____
 72
    65
 73
     4
 40
0.3543
 49
0.2362
 74
     0
 49
-0.0295
 74
     0
 49
0.0591
 74
     0
 49
-0.0295
 74
     0
  0
LTYPE
  5
B169
330
5
100
AcDbSymbolTableRecord
100
AcDbLinetypeTableRecord
  2
DOUBLE_DASH_CHAIN
 70
     0
  3
Double Dash Chain ___ _ _ ___ _ _ ___ _ _ ___ _
 72
    65
 73
     6
 40
1.240299999999997
 49
0.6614
 74
     0
 49
-0.0827
 74
     0
 49
0.1654
 74
     0
 49
-0.0827
 74
     0
 49
0.1654
 74
     0
 49
-0.0827
 74
     0
  0
LTYPE
  5
C97B
330
5
100
AcDbSymbolTableRecord
100
AcDbLinetypeTableRecord
  2
ACANSTGB
 70
     0
  3
__ . . __ . .
 72
    65
 73
     6
 40
0.35433070866
 49
0.15748031496
 74
     0
 49
-0.03937007874
 74
     0
 49
0.03937007874
 74
     0
 49
-0.03937007874
 74
     0
 49
0.03937007874
 74
     0
 49
-0.03937007874
 74
     0
  0
LTYPE
  5
C97C
330
5
100
AcDbSymbolTableRecord
100
AcDbLinetypeTableRecord
  2
ACANSTGL
 70
     0
  3
_ _ _ _ _
 72
    65
 73
     2
 40
0.11811023622
 49
0.07874015748
 74
     0
 49
-0.03937007874
 74
     0
  0
LTYPE
  5
C97D
330
5
100
AcDbSymbolTableRecord
100
AcDbLinetypeTableRecord
  2
陰線2
 70
     0
  3
_ _ _ _
 72
    65
 73
     2
 40
1.199999999999999
 49
0.7
 74
     0
 49
-0.5
 74
     0
  0
LTYPE
  5
C97E
330
5
100
AcDbSymbolTableRecord
100
AcDbLinetypeTableRecord
  2
想像線2
 70
     0
  3
__ _ _ __ _ _ __
 72
    65
 73
     6
 40
6.9
 49
2.5
 74
     0
 49
-0.8
 74
     0
 49
1.0
 74
     0
 49
-0.8
 74
     0
 49
1.0
 74
     0
 49
-0.8
 74
     0
  0
LTYPE
  5
C97F
330
5
100
AcDbSymbolTableRecord
100
AcDbLinetypeTableRecord
  2
中心線2
 70
     0
  3
 -+-
 72
    65
 73
     4
 40
9.5
 49
6.0
 74
     0
 49
-1.0
 74
     0
 49
1.5
 74
     0
 49
-1.0
 74
     0
  0
LTYPE
  5
C980
330
5
100
AcDbSymbolTableRecord
100
AcDbLinetypeTableRecord
  2
中心線3
 70
     0
  3
 +
 72
    65
 73
     4
 40
3.799999999999998
 49
2.0
 74
     0
 49
-0.6
 74
     0
 49
0.6
 74
     0
 49
-0.6
 74
     0
  0
LTYPE
  5
C981
330
5
100
AcDbSymbolTableRecord
100
AcDbLinetypeTableRecord
  2
CENTER2
 70
     0
  3
Center (.5x) ___ _ ___ _ ___ _ ___ _ ___ _ ___
 72
    65
 73
     4
 40
1.125
 49
0.75
 74
     0
 49
-0.125
 74
     0
 49
0.125
 74
     0
 49
-0.125
 74
     0
  0
LTYPE
  5
C982
330
5
100
AcDbSymbolTableRecord
100
AcDbLinetypeTableRecord
  2
HIDDEN2
 70
     0
  3
Hidden (.5x) _ _ _ _ _ _ _ _ _ _ _ _ _ _ _ _ _
 72
    65
 73
     2
 40
0.1875
 49
0.125
 74
     0
 49
-0.0625
 74
     0
  0
LTYPE
  5
C983
330
5
100
AcDbSymbolTableRecord
100
AcDbLinetypeTableRecord
  2
Amzigzag2
 70
     0
  3
/\/-/\/-/\/-/\/-/\/-/\/
 72
    65
 73
     2
 40
0.4401
 49
0.0001
 74
     4
 75
   135
340
56
 46
0.0016
 50
0.0
 44
0.0
 45
0.0
 49
-0.4400000000000003
 74
     0
  0
LTYPE
  5
2FD1C
330
5
100
AcDbSymbolTableRecord
100
AcDbLinetypeTableRecord
  2
DASHED
 70
     0
  3
__ __ __ __ __ __ __ __ __ __ __ __ __ __ __
 72
    65
 73
     2
 40
3.5
 49
2.0
 74
     0
 49
-1.5
 74
     0
  0
LTYPE
  5
2FD1D
330
5
100
AcDbSymbolTableRecord
100
AcDbLinetypeTableRecord
  2
PHANTOM
 70
     0
  3
_____ _ _ _____ _ _ _____ _ _ _____ _ _ ____  
 72
    65
 73
     6
 40
15.5
 49
8.0
 74
     0
 49
-1.5
 74
     0
 49
1.5
 74
     0
 49
-1.5
 74
     0
 49
1.5
 74
     0
 49
-1.5
 74
     0
  0
ENDTAB
  0
TABLE
  2
LAYER
  5
2
102
{ACAD_XDICTIONARY
360
3F95
102
}
330
0
100
AcDbSymbolTable
 70
   157
  0
LAYER
  5
10
330
2
100
AcDbSymbolTableRecord
100
AcDbLayerTableRecord
  2
0
 70
     0
 62
     7
  6
Continuous
370
    -3
390
F
  0
LAYER
  5
6D1
330
2
100
AcDbSymbolTableRecord
100
AcDbLayerTableRecord
  2
Defpoints
 70
     0
 62
     7
  6
Continuous
290
     0
370
    -3
390
F
  0
LAYER
  5
5F85
330
2
100
AcDbSymbolTableRecord
100
AcDbLayerTableRecord
  2
AM_0
 70
     0
 62
     7
  6
中線
370
    25
390
F
1001
AcAecLayerStandard
1000

1000

  0
LAYER
  5
AC9F
330
2
100
AcDbSymbolTableRecord
100
AcDbLayerTableRecord
  2
size
 70
     0
 62
     5
  6
Continuous
290
     0
370
    25
390
F
  0
LAYER
  5
ACA0
330
2
100
AcDbSymbolTableRecord
100
AcDbLayerTableRecord
  2
waku
 70
     0
 62
     7
  6
Continuous
370
    35
390
F
  0
LAYER
  5
ACA1
330
2
100
AcDbSymbolTableRecord
100
AcDbLayerTableRecord
  2
AM_6
 70
     0
 62
     2
  6
文字
370
    15
390
F
1001
AcAecLayerStandard
1000

1000

  0
LAYER
  5
ACC8
330
2
100
AcDbSymbolTableRecord
100
AcDbLayerTableRecord
  2
hyomoji
 70
     0
 62
     2
  6
Continuous
370
    15
390
F
  0
LAYER
  5
ACC9
330
2
100
AcDbSymbolTableRecord
100
AcDbLayerTableRecord
  2
hyosen1
 70
     0
 62
     1
  6
Continuous
370
    25
390
F
  0
LAYER
  5
ACCA
330
2
100
AcDbSymbolTableRecord
100
AcDbLayerTableRecord
  2
hyosen2
 70
     0
 62
     1
  6
Continuous
370
    15
390
F
  0
LAYER
  5
AD60
330
2
100
AcDbSymbolTableRecord
100
AcDbLayerTableRecord
  2
AM_1
 70
     0
 62
    30
  6
太線
370
    25
390
F
1001
AcAecLayerStandard
1000

1000

  0
LAYER
  5
AD64
330
2
100
AcDbSymbolTableRecord
100
AcDbLayerTableRecord
  2
AM_2
 70
     0
 62
     1
  6
細線
370
    15
390
F
1001
AcAecLayerStandard
1000

1000

  0
LAYER
  5
AD67
330
2
100
AcDbSymbolTableRecord
100
AcDbLayerTableRecord
  2
AM_3
 70
     0
 62
     6
  6
陰線1
370
    15
390
F
1001
AcAecLayerStandard
1000

1000

  0
LAYER
  5
AD68
330
2
100
AcDbSymbolTableRecord
100
AcDbLayerTableRecord
  2
AM_5
 70
     0
 62
     3
  6
寸法線
370
    15
390
F
1001
AcAecLayerStandard
1000

1000

  0
LAYER
  5
AD69
330
2
100
AcDbSymbolTableRecord
100
AcDbLayerTableRecord
  2
AM_7
 70
     0
 62
     4
  6
中心線1
370
    15
390
F
1001
AcAecLayerStandard
1000

1000

  0
LAYER
  5
AD6A
330
2
100
AcDbSymbolTableRecord
100
AcDbLayerTableRecord
  2
AM_8
 70
     0
 62
     1
  6
ハッチング
370
    15
390
F
1001
AcAecLayerStandard
1000

1000

  0
LAYER
  5
AD6E
330
2
100
AcDbSymbolTableRecord
100
AcDbLayerTableRecord
  2
AM_10
 70
     0
 62
     7
  6
切断線
370
    25
390
F
1001
AcAecLayerStandard
1000

1000

  0
LAYER
  5
AD6F
330
2
100
AcDbSymbolTableRecord
100
AcDbLayerTableRecord
  2
AM_11
 70
     0
 62
     2
  6
想像線1
370
    15
390
F
1001
AcAecLayerStandard
1000

1000

  0
LAYER
  5
B16A
330
2
100
AcDbSymbolTableRecord
100
AcDbLayerTableRecord
  2
Section Line (ISO)
 70
     0
 62
     7
  6
CHAIN
370
    70
390
F
  0
LAYER
  5
B16B
330
2
100
AcDbSymbolTableRecord
100
AcDbLayerTableRecord
  2
ビス-AM_0
 70
     0
 62
     7
  6
中線
370
    25
390
F
1001
AcAecLayerStandard
1000

1000

  0
LAYER
  5
B16C
330
2
100
AcDbSymbolTableRecord
100
AcDbLayerTableRecord
  2
ビス-AM_2
 70
     0
 62
     1
  6
細線
370
    15
390
F
1001
AcAecLayerStandard
1000

1000

  0
LAYER
  5
BFC7
330
2
100
AcDbSymbolTableRecord
100
AcDbLayerTableRecord
  2
AM_12
 70
     0
 62
     7
  6
Continuous
290
     0
370
    15
390
F
1001
AcAecLayerStandard
1000

1000

  0
LAYER
  5
BFC8
330
2
100
AcDbSymbolTableRecord
100
AcDbLayerTableRecord
  2
AM_PAREF
 70
     0
 62
     4
  6
Continuous
290
     0
370
    15
390
F
1001
AcAecLayerStandard
1000

1000

  0
LAYER
  5
C984
330
2
100
AcDbSymbolTableRecord
100
AcDbLayerTableRecord
  2
1
 70
     0
 62
     7
  6
Continuous
370
    -3
390
F
  0
LAYER
  5
C985
330
2
100
AcDbSymbolTableRecord
100
AcDbLayerTableRecord
  2
AM_BOR
 70
     0
 62
     7
  6
Continuous
370
    25
390
F
  0
LAYER
  5
C986
330
2
100
AcDbSymbolTableRecord
100
AcDbLayerTableRecord
  2
AM_4
 70
     0
 62
     3
  6
補助線
370
    15
390
F
  0
LAYER
  5
C987
330
2
100
AcDbSymbolTableRecord
100
AcDbLayerTableRecord
  2
AM_FEA-AM_1
 70
     0
 62
    30
  6
太線
370
    25
390
F
  0
LAYER
  5
C988
330
2
100
AcDbSymbolTableRecord
100
AcDbLayerTableRecord
  2
AM_FEA-AM_6
 70
     0
 62
     2
  6
文字
370
    15
390
F
  0
LAYER
  5
C989
330
2
100
AcDbSymbolTableRecord
100
AcDbLayerTableRecord
  2
AM_CL
 70
     0
 62
     1
  6
Amconstr
370
    15
390
F
  0
LAYER
  5
C98A
330
2
100
AcDbSymbolTableRecord
100
AcDbLayerTableRecord
  2
busen1
 70
     0
 62
    30
  6
Continuous
370
    40
390
F
  0
LAYER
  5
C98B
330
2
100
AcDbSymbolTableRecord
100
AcDbLayerTableRecord
  2
busen2
 70
     0
 62
     2
  6
Continuous
370
    20
390
F
  0
LAYER
  5
C98C
330
2
100
AcDbSymbolTableRecord
100
AcDbLayerTableRecord
  2
PV0001_1
 70
     0
 62
     7
  6
Continuous
370
    -3
390
F
  0
LAYER
  5
D2C4
330
2
100
AcDbSymbolTableRecord
100
AcDbLayerTableRecord
  2
表示板-AM_0
 70
     0
 62
     7
  6
中線
370
    25
390
F
1001
AcAecLayerStandard
1000

1000

  0
LAYER
  5
D4A1
330
2
100
AcDbSymbolTableRecord
100
AcDbLayerTableRecord
  2
ラッチ座-AM_0
 70
     0
 62
     7
  6
中線
370
    25
390
F
1001
AcAecLayerStandard
1000

1000

  0
LAYER
  5
D4A2
330
2
100
AcDbSymbolTableRecord
100
AcDbLayerTableRecord
  2
ラッチ座-AM_3
 70
     0
 62
     6
  6
陰線1
370
    15
390
F
1001
AcAecLayerStandard
1000

1000

  0
LAYER
  5
D5C2
330
2
100
AcDbSymbolTableRecord
100
AcDbLayerTableRecord
  2
表示カバー-AM_0
 70
     0
 62
     7
  6
中線
370
    25
390
F
1001
AcAecLayerStandard
1000

1000

  0
LAYER
  5
D5C3
330
2
100
AcDbSymbolTableRecord
100
AcDbLayerTableRecord
  2
表示カバー-AM_3
 70
     0
 62
     6
  6
陰線1
370
    15
390
F
1001
AcAecLayerStandard
1000

1000

  0
LAYER
  5
D5C4
330
2
100
AcDbSymbolTableRecord
100
AcDbLayerTableRecord
  2
表示カバー-AM_5
 70
     0
 62
     3
  6
寸法線
370
    15
390
F
1001
AcAecLayerStandard
1000

1000

  0
LAYER
  5
D5C5
330
2
100
AcDbSymbolTableRecord
100
AcDbLayerTableRecord
  2
表示カバー-AM_7
 70
     0
 62
     4
  6
中心線1
370
    15
390
F
1001
AcAecLayerStandard
1000

1000

  0
LAYER
  5
D849
330
2
100
AcDbSymbolTableRecord
100
AcDbLayerTableRecord
  2
Hatch (ISO)
 70
     0
 62
     7
  6
Continuous
370
    18
390
F
  0
LAYER
  5
D84A
330
2
100
AcDbSymbolTableRecord
100
AcDbLayerTableRecord
  2
Symbol (ISO)
 70
     0
 62
     7
  6
Continuous
370
    25
390
F
  0
LAYER
  5
D84B
330
2
100
AcDbSymbolTableRecord
100
AcDbLayerTableRecord
  2
Visible (ISO)
 70
     0
 62
     7
  6
Continuous
370
    50
390
F
  0
LAYER
  5
E2E6
330
2
100
AcDbSymbolTableRecord
100
AcDbLayerTableRecord
  2
ストッパー-AM_0
 70
     0
 62
     7
  6
中線
370
    25
390
F
1001
AcAecLayerStandard
1000

1000

  0
LAYER
  5
E2E7
330
2
100
AcDbSymbolTableRecord
100
AcDbLayerTableRecord
  2
ストッパー-AM_6
 70
     0
 62
     2
  6
文字
370
    15
390
F
1001
AcAecLayerStandard
1000

1000

  0
LAYER
  5
E2F2
330
2
100
AcDbSymbolTableRecord
100
AcDbLayerTableRecord
  2
ストッパー-AM_5
 70
     0
 62
     3
  6
寸法線
370
    15
390
F
1001
AcAecLayerStandard
1000

1000

  0
LAYER
  5
E527
330
2
100
AcDbSymbolTableRecord
100
AcDbLayerTableRecord
  2
ストッパー-AM_3
 70
     0
 62
     6
  6
陰線1
370
    15
390
F
1001
AcAecLayerStandard
1000

1000

  0
LAYER
  5
E5B3
330
2
100
AcDbSymbolTableRecord
100
AcDbLayerTableRecord
  2
ストッパー-AM_7
 70
     0
 62
     4
  6
中心線1
370
    15
390
F
1001
AcAecLayerStandard
1000

1000

  0
LAYER
  5
E61B
330
2
100
AcDbSymbolTableRecord
100
AcDbLayerTableRecord
  2
表示カバー-AM_11
 70
     0
 62
     2
  6
想像線1
370
    15
390
F
1001
AcAecLayerStandard
1000

1000

  0
LAYER
  5
E782
330
2
100
AcDbSymbolTableRecord
100
AcDbLayerTableRecord
  2
ラッチ座-AM_7
 70
     0
 62
     4
  6
中心線1
370
    15
390
F
1001
AcAecLayerStandard
1000

1000

  0
LAYER
  5
E783
330
2
100
AcDbSymbolTableRecord
100
AcDbLayerTableRecord
  2
ラッチ座-AM_5
 70
     0
 62
     3
  6
寸法線
370
    15
390
F
1001
AcAecLayerStandard
1000

1000

  0
LAYER
  5
E784
330
2
100
AcDbSymbolTableRecord
100
AcDbLayerTableRecord
  2
ラッチ座-AM_4
 70
     0
 62
     3
  6
補助線
370
    15
390
F
1001
AcAecLayerStandard
1000

1000

  0
LAYER
  5
EC35
330
2
100
AcDbSymbolTableRecord
100
AcDbLayerTableRecord
  2
表示カバー-AM_2
 70
     0
 62
     1
  6
細線
370
    15
390
F
1001
AcAecLayerStandard
1000

1000

  0
LAYER
  5
EFB5
330
2
100
AcDbSymbolTableRecord
100
AcDbLayerTableRecord
  2
表示座-AM_0
 70
     0
 62
     7
  6
中線
370
    25
390
F
1001
AcAecLayerStandard
1000

1000

  0
LAYER
  5
EFB6
330
2
100
AcDbSymbolTableRecord
100
AcDbLayerTableRecord
  2
表示座-AM_8
 70
     0
 62
     1
  6
ハッチング
370
    15
390
F
1001
AcAecLayerStandard
1000

1000

  0
LAYER
  5
EFB7
330
2
100
AcDbSymbolTableRecord
100
AcDbLayerTableRecord
  2
表示座-AM_7
 70
     0
 62
     4
  6
中心線1
370
    15
390
F
1001
AcAecLayerStandard
1000

1000

  0
LAYER
  5
F048
330
2
100
AcDbSymbolTableRecord
100
AcDbLayerTableRecord
  2
台座-AM_0
 70
     0
 62
     7
  6
中線
370
    25
390
F
1001
AcAecLayerStandard
1000

1000

  0
LAYER
  5
F049
330
2
100
AcDbSymbolTableRecord
100
AcDbLayerTableRecord
  2
台座-AM_8
 70
     0
 62
     1
  6
ハッチング
370
    15
390
F
1001
AcAecLayerStandard
1000

1000

  0
LAYER
  5
F04A
330
2
100
AcDbSymbolTableRecord
100
AcDbLayerTableRecord
  2
台座-AM_2
 70
     0
 62
     1
  6
細線
370
    15
390
F
1001
AcAecLayerStandard
1000

1000

  0
LAYER
  5
F04B
330
2
100
AcDbSymbolTableRecord
100
AcDbLayerTableRecord
  2
台座-AM_7
 70
     0
 62
     4
  6
中心線1
370
    15
390
F
1001
AcAecLayerStandard
1000

1000

  0
LAYER
  5
F04C
330
2
100
AcDbSymbolTableRecord
100
AcDbLayerTableRecord
  2
台座-AM_5
 70
     0
 62
     3
  6
寸法線
370
    15
390
F
1001
AcAecLayerStandard
1000

1000

  0
LAYER
  5
F24C
330
2
100
AcDbSymbolTableRecord
100
AcDbLayerTableRecord
  2
ラッチ座-AM_8
 70
     0
 62
     1
  6
ハッチング
370
    15
390
F
1001
AcAecLayerStandard
1000

1000

  0
LAYER
  5
F508
330
2
100
AcDbSymbolTableRecord
100
AcDbLayerTableRecord
  2
台座-AM_4
 70
     0
 62
     3
  6
補助線
370
    15
390
F
1001
AcAecLayerStandard
1000

1000

  0
LAYER
  5
F522
330
2
100
AcDbSymbolTableRecord
100
AcDbLayerTableRecord
  2
表示カバー-AM_4
 70
     0
 62
     3
  6
補助線
370
    15
390
F
1001
AcAecLayerStandard
1000

1000

  0
LAYER
  5
F524
330
2
100
AcDbSymbolTableRecord
100
AcDbLayerTableRecord
  2
表示カバー-AM_8
 70
     0
 62
     1
  6
ハッチング
370
    15
390
F
1001
AcAecLayerStandard
1000

1000

  0
LAYER
  5
F589
330
2
100
AcDbSymbolTableRecord
100
AcDbLayerTableRecord
  2
ギア-AM_0
 70
     0
 62
     7
  6
中線
370
    25
390
F
1001
AcAecLayerStandard
1000

1000

  0
LAYER
  5
F58A
330
2
100
AcDbSymbolTableRecord
100
AcDbLayerTableRecord
  2
ギア-AM_7
 70
     0
 62
     4
  6
中心線1
370
    15
390
F
1001
AcAecLayerStandard
1000

1000

  0
LAYER
  5
F58B
330
2
100
AcDbSymbolTableRecord
100
AcDbLayerTableRecord
  2
ギア-AM_8
 70
     0
 62
     1
  6
ハッチング
370
    15
390
F
1001
AcAecLayerStandard
1000

1000

  0
LAYER
  5
F609
330
2
100
AcDbSymbolTableRecord
100
AcDbLayerTableRecord
  2
補強板-AM_0
 70
     0
 62
     7
  6
中線
370
    25
390
F
1001
AcAecLayerStandard
1000

1000

  0
LAYER
  5
F60A
330
2
100
AcDbSymbolTableRecord
100
AcDbLayerTableRecord
  2
補強板-AM_7
 70
     0
 62
     4
  6
中心線1
370
    15
390
F
1001
AcAecLayerStandard
1000

1000

  0
LAYER
  5
F60B
330
2
100
AcDbSymbolTableRecord
100
AcDbLayerTableRecord
  2
補強板-AM_5
 70
     0
 62
     3
  6
寸法線
370
    15
390
F
1001
AcAecLayerStandard
1000

1000

  0
LAYER
  5
F60C
330
2
100
AcDbSymbolTableRecord
100
AcDbLayerTableRecord
  2
補強板-AM_8
 70
     0
 62
     1
  6
ハッチング
370
    15
390
F
1001
AcAecLayerStandard
1000

1000

  0
LAYER
  5
F7D1
330
2
100
AcDbSymbolTableRecord
100
AcDbLayerTableRecord
  2
ギア-AM_4
 70
     0
 62
     3
  6
補助線
370
    15
390
F
1001
AcAecLayerStandard
1000

1000

  0
LAYER
  5
F7FF
330
2
100
AcDbSymbolTableRecord
100
AcDbLayerTableRecord
  2
表示板-AM_8
 70
     0
 62
     1
  6
ハッチング
370
    15
390
F
1001
AcAecLayerStandard
1000

1000

  0
LAYER
  5
F800
330
2
100
AcDbSymbolTableRecord
100
AcDbLayerTableRecord
  2
表示板-AM_7
 70
     0
 62
     4
  6
中心線1
370
    15
390
F
1001
AcAecLayerStandard
1000

1000

  0
LAYER
  5
F869
330
2
100
AcDbSymbolTableRecord
100
AcDbLayerTableRecord
  2
表示板-AM_5
 70
     0
 62
     3
  6
寸法線
370
    15
390
F
1001
AcAecLayerStandard
1000

1000

  0
LAYER
  5
101DA
330
2
100
AcDbSymbolTableRecord
100
AcDbLayerTableRecord
  2
表示板-AM_4
 70
     0
 62
     3
  6
補助線
370
    15
390
F
1001
AcAecLayerStandard
1000

1000

  0
LAYER
  5
1030F
330
2
100
AcDbSymbolTableRecord
100
AcDbLayerTableRecord
  2
ビス-AM_5
 70
     0
 62
     3
  6
寸法線
370
    15
390
F
1001
AcAecLayerStandard
1000

1000

  0
LAYER
  5
10AD2
330
2
100
AcDbSymbolTableRecord
100
AcDbLayerTableRecord
  2
ビス-AM_7
 70
     0
 62
     4
  6
中心線1
370
    15
390
F
1001
AcAecLayerStandard
1000

1000

  0
LAYER
  5
10AD3
330
2
100
AcDbSymbolTableRecord
100
AcDbLayerTableRecord
  2
ビス-AM_6
 70
     0
 62
     2
  6
文字
370
    15
390
F
1001
AcAecLayerStandard
1000

1000

  0
LAYER
  5
10C52
330
2
100
AcDbSymbolTableRecord
100
AcDbLayerTableRecord
  2
表示座-AM_3
 70
     0
 62
     6
  6
陰線1
370
    15
390
F
1001
AcAecLayerStandard
1000

1000

  0
LAYER
  5
10C53
330
2
100
AcDbSymbolTableRecord
100
AcDbLayerTableRecord
  2
表示座-AM_5
 70
     0
 62
     3
  6
寸法線
370
    15
390
F
1001
AcAecLayerStandard
1000

1000

  0
LAYER
  5
10D06
330
2
100
AcDbSymbolTableRecord
100
AcDbLayerTableRecord
  2
台座-AM_3
 70
     0
 62
     6
  6
陰線1
370
    15
390
F
1001
AcAecLayerStandard
1000

1000

  0
LAYER
  5
1100A
330
2
100
AcDbSymbolTableRecord
100
AcDbLayerTableRecord
  2
補強板-AM_3
 70
     0
 62
     6
  6
陰線1
370
    15
390
F
1001
AcAecLayerStandard
1000

1000

  0
LAYER
  5
1118C
330
2
100
AcDbSymbolTableRecord
100
AcDbLayerTableRecord
  2
ギア-AM_5
 70
     0
 62
     3
  6
寸法線
370
    15
390
F
1001
AcAecLayerStandard
1000

1000

  0
LAYER
  5
1118D
330
2
100
AcDbSymbolTableRecord
100
AcDbLayerTableRecord
  2
ギア-AM_3
 70
     0
 62
     6
  6
陰線1
370
    15
390
F
1001
AcAecLayerStandard
1000

1000

  0
LAYER
  5
13979
330
2
100
AcDbSymbolTableRecord
100
AcDbLayerTableRecord
  2
AM_0N
 70
     0
 62
     7
  6
中線
370
    25
390
F
1001
AcAecLayerStandard
1000

1000

  0
LAYER
  5
1397A
330
2
100
AcDbSymbolTableRecord
100
AcDbLayerTableRecord
  2
AM_8N
 70
     0
 62
     1
  6
ハッチング
370
    15
390
F
1001
AcAecLayerStandard
1000

1000

  0
LAYER
  5
1641A
330
2
100
AcDbSymbolTableRecord
100
AcDbLayerTableRecord
  2
ストップピン-AM_0
 70
     0
 62
     7
  6
中線
370
    25
390
F
1001
AcAecLayerStandard
1000

1000

  0
LAYER
  5
1641B
330
2
100
AcDbSymbolTableRecord
100
AcDbLayerTableRecord
  2
ストップピン２-AM_0
 70
     0
 62
     7
  6
中線
370
    25
390
F
1001
AcAecLayerStandard
1000

1000

  0
LAYER
  5
1641C
330
2
100
AcDbSymbolTableRecord
100
AcDbLayerTableRecord
  2
ストップピン２-AM_3
 70
     0
 62
     6
  6
陰線1
370
    15
390
F
1001
AcAecLayerStandard
1000

1000

  0
LAYER
  5
1754B
330
2
100
AcDbSymbolTableRecord
100
AcDbLayerTableRecord
  2
表示座-AM_12
 70
     0
 62
     7
  6
Continuous
290
     0
370
    15
390
F
1001
AcAecLayerStandard
1000

1000

  0
LAYER
  5
18EEF
330
2
100
AcDbSymbolTableRecord
100
AcDbLayerTableRecord
  2
表示座-AM_6
 70
     0
 62
     2
  6
文字
370
    15
390
F
1001
AcAecLayerStandard
1000

1000

  0
LAYER
  5
18EF0
330
2
100
AcDbSymbolTableRecord
100
AcDbLayerTableRecord
  2
表示座-AM_2
 70
     0
 62
     1
  6
細線
370
    15
390
F
1001
AcAecLayerStandard
1000

1000

  0
LAYER
  5
19823
330
2
100
AcDbSymbolTableRecord
100
AcDbLayerTableRecord
  2
表示座-AM_4
 70
     0
 62
     3
  6
補助線
370
    15
390
F
1001
AcAecLayerStandard
1000

1000

  0
LAYER
  5
1AA47
330
2
100
AcDbSymbolTableRecord
100
AcDbLayerTableRecord
  2
表示軸-AM_0
 70
     0
 62
     7
  6
中線
370
    25
390
F
1001
AcAecLayerStandard
1000

1000

  0
LAYER
  5
1AA48
330
2
100
AcDbSymbolTableRecord
100
AcDbLayerTableRecord
  2
表示軸-AM_8
 70
     0
 62
     1
  6
ハッチング
370
    15
390
F
1001
AcAecLayerStandard
1000

1000

  0
LAYER
  5
1AA49
330
2
100
AcDbSymbolTableRecord
100
AcDbLayerTableRecord
  2
表示軸-AM_7
 70
     0
 62
     4
  6
中心線1
370
    15
390
F
1001
AcAecLayerStandard
1000

1000

  0
LAYER
  5
1AF70
330
2
100
AcDbSymbolTableRecord
100
AcDbLayerTableRecord
  2
表示軸-AM_5
 70
     0
 62
     3
  6
寸法線
370
    15
390
F
1001
AcAecLayerStandard
1000

1000

  0
LAYER
  5
1B424
330
2
100
AcDbSymbolTableRecord
100
AcDbLayerTableRecord
  2
ワッシャ-AM_0
 70
     0
 62
     7
  6
中線
370
    25
390
F
1001
AcAecLayerStandard
1000

1000

  0
LAYER
  5
1B42C
330
2
100
AcDbSymbolTableRecord
100
AcDbLayerTableRecord
  2
ワッシャ-AM_5
 70
     0
 62
     3
  6
寸法線
370
    15
390
F
1001
AcAecLayerStandard
1000

1000

  0
LAYER
  5
1B4AB
330
2
100
AcDbSymbolTableRecord
100
AcDbLayerTableRecord
  2
バネ-AM_0
 70
     0
 62
     7
  6
中線
370
    25
390
F
1001
AcAecLayerStandard
1000

1000

  0
LAYER
  5
1B4AF
330
2
100
AcDbSymbolTableRecord
100
AcDbLayerTableRecord
  2
バネ-AM_5
 70
     0
 62
     3
  6
寸法線
370
    15
390
F
1001
AcAecLayerStandard
1000

1000

  0
LAYER
  5
1B4D7
330
2
100
AcDbSymbolTableRecord
100
AcDbLayerTableRecord
  2
バネ-AM_7
 70
     0
 62
     4
  6
中心線1
370
    15
390
F
1001
AcAecLayerStandard
1000

1000

  0
LAYER
  5
1B80A
330
2
100
AcDbSymbolTableRecord
100
AcDbLayerTableRecord
  2
表示板-AM_3
 70
     0
 62
     6
  6
陰線1
370
    15
390
F
1001
AcAecLayerStandard
1000

1000

  0
LAYER
  5
1D0A2
330
2
100
AcDbSymbolTableRecord
100
AcDbLayerTableRecord
  2
表示軸-AM_3
 70
     0
 62
     6
  6
陰線1
370
    15
390
F
1001
AcAecLayerStandard
1000

1000

  0
LAYER
  5
1D5A7
330
2
100
AcDbSymbolTableRecord
100
AcDbLayerTableRecord
  2
表示軸-AM_4
 70
     0
 62
     3
  6
補助線
370
    15
390
F
1001
AcAecLayerStandard
1000

1000

  0
LAYER
  5
1DD58
330
2
100
AcDbSymbolTableRecord
100
AcDbLayerTableRecord
  2
引き手-AM_0
 70
     0
 62
     7
  6
中線
370
    25
390
F
1001
AcAecLayerStandard
1000

1000

  0
LAYER
  5
1DD59
330
2
100
AcDbSymbolTableRecord
100
AcDbLayerTableRecord
  2
引き手-AM_5
 70
     0
 62
     3
  6
寸法線
370
    15
390
F
1001
AcAecLayerStandard
1000

1000

  0
LAYER
  5
1DD5A
330
2
100
AcDbSymbolTableRecord
100
AcDbLayerTableRecord
  2
引き手-AM_2
 70
     0
 62
     1
  6
細線
370
    15
390
F
1001
AcAecLayerStandard
1000

1000

  0
LAYER
  5
1DD5B
330
2
100
AcDbSymbolTableRecord
100
AcDbLayerTableRecord
  2
引き手-AM_3
 70
     0
 62
     6
  6
陰線1
370
    15
390
F
1001
AcAecLayerStandard
1000

1000

  0
LAYER
  5
1DD5C
330
2
100
AcDbSymbolTableRecord
100
AcDbLayerTableRecord
  2
引き手-AM_7
 70
     0
 62
     4
  6
中心線1
370
    15
390
F
1001
AcAecLayerStandard
1000

1000

  0
LAYER
  5
1E7A7
330
2
100
AcDbSymbolTableRecord
100
AcDbLayerTableRecord
  2
ストップピン２-AM_7
 70
     0
 62
     4
  6
中心線1
370
    15
390
F
1001
AcAecLayerStandard
1000

1000

  0
LAYER
  5
1E7A8
330
2
100
AcDbSymbolTableRecord
100
AcDbLayerTableRecord
  2
ストップピン２-AM_8
 70
     0
 62
     1
  6
ハッチング
370
    15
390
F
1001
AcAecLayerStandard
1000

1000

  0
LAYER
  5
1E7E0
330
2
100
AcDbSymbolTableRecord
100
AcDbLayerTableRecord
  2
ストップピン２-AM_5
 70
     0
 62
     3
  6
寸法線
370
    15
390
F
1001
AcAecLayerStandard
1000

1000

  0
LAYER
  5
1E8A3
330
2
100
AcDbSymbolTableRecord
100
AcDbLayerTableRecord
  2
ストップピン２-AM_4
 70
     0
 62
     3
  6
補助線
370
    15
390
F
1001
AcAecLayerStandard
1000

1000

  0
LAYER
  5
1EC48
330
2
100
AcDbSymbolTableRecord
100
AcDbLayerTableRecord
  2
補強板-AM_4
 70
     0
 62
     3
  6
補助線
370
    15
390
F
1001
AcAecLayerStandard
1000

1000

  0
LAYER
  5
1F474
330
2
100
AcDbSymbolTableRecord
100
AcDbLayerTableRecord
  2
引き手-AM_8
 70
     0
 62
     1
  6
ハッチング
370
    15
390
F
1001
AcAecLayerStandard
1000

1000

  0
LAYER
  5
1F5E4
330
2
100
AcDbSymbolTableRecord
100
AcDbLayerTableRecord
  2
引き手-AM_4
 70
     0
 62
     3
  6
補助線
370
    15
390
F
1001
AcAecLayerStandard
1000

1000

  0
LAYER
  5
1F7CF
330
2
100
AcDbSymbolTableRecord
100
AcDbLayerTableRecord
  2
取付軸-AM_7
 70
     0
 62
     4
  6
中心線1
370
    15
390
F
1001
AcAecLayerStandard
1000

1000

  0
LAYER
  5
1F7D0
330
2
100
AcDbSymbolTableRecord
100
AcDbLayerTableRecord
  2
ストップピン-AM_3
 70
     0
 62
     6
  6
陰線1
370
    15
390
F
1001
AcAecLayerStandard
1000

1000

  0
LAYER
  5
1F7D1
330
2
100
AcDbSymbolTableRecord
100
AcDbLayerTableRecord
  2
ストップピン-AM_5
 70
     0
 62
     3
  6
寸法線
370
    15
390
F
1001
AcAecLayerStandard
1000

1000

  0
LAYER
  5
1F7D2
330
2
100
AcDbSymbolTableRecord
100
AcDbLayerTableRecord
  2
ストップピン-AM_2
 70
     0
 62
     1
  6
細線
370
    15
390
F
1001
AcAecLayerStandard
1000

1000

  0
LAYER
  5
1FEBC
330
2
100
AcDbSymbolTableRecord
100
AcDbLayerTableRecord
  2
ゴムシート-AM_0
 70
     0
 62
     7
  6
中線
370
    25
390
F
1001
AcAecLayerStandard
1000

1000

  0
LAYER
  5
1FEBD
330
2
100
AcDbSymbolTableRecord
100
AcDbLayerTableRecord
  2
ゴムシート-AM_5
 70
     0
 62
     3
  6
寸法線
370
    15
390
F
1001
AcAecLayerStandard
1000

1000

  0
LAYER
  5
1FF48
330
2
100
AcDbSymbolTableRecord
100
AcDbLayerTableRecord
  2
ゴムシート-AM_4
 70
     0
 62
     3
  6
補助線
370
    15
390
F
1001
AcAecLayerStandard
1000

1000

  0
LAYER
  5
1FF4A
330
2
100
AcDbSymbolTableRecord
100
AcDbLayerTableRecord
  2
ゴムシート-AM_8
 70
     0
 62
     1
  6
ハッチング
370
    15
390
F
1001
AcAecLayerStandard
1000

1000

  0
LAYER
  5
20B2C
330
2
100
AcDbSymbolTableRecord
100
AcDbLayerTableRecord
  2
取付軸-AM_5
 70
     0
 62
     3
  6
寸法線
370
    15
390
F
1001
AcAecLayerStandard
1000

1000

  0
LAYER
  5
20ECD
330
2
100
AcDbSymbolTableRecord
100
AcDbLayerTableRecord
  2
ゴムシート-AM_7
 70
     0
 62
     4
  6
中心線1
370
    15
390
F
1001
AcAecLayerStandard
1000

1000

  0
LAYER
  5
2112D
330
2
100
AcDbSymbolTableRecord
100
AcDbLayerTableRecord
  2
非常解錠キー-AM_0
 70
     0
 62
     7
  6
中線
370
    25
390
F
1001
AcAecLayerStandard
1000

1000

  0
LAYER
  5
2112E
330
2
100
AcDbSymbolTableRecord
100
AcDbLayerTableRecord
  2
非常解錠キー-AM_5
 70
     0
 62
     3
  6
寸法線
370
    15
390
F
1001
AcAecLayerStandard
1000

1000

  0
LAYER
  5
21849
330
2
100
AcDbSymbolTableRecord
100
AcDbLayerTableRecord
  2
LAYER002
 70
     0
 62
     7
  6
Continuous
370
    -3
390
F
  0
LAYER
  5
2184A
330
2
100
AcDbSymbolTableRecord
100
AcDbLayerTableRecord
  2
LAYER006
 70
     0
 62
     7
  6
Continuous
370
    -3
390
F
  0
LAYER
  5
2184B
330
2
100
AcDbSymbolTableRecord
100
AcDbLayerTableRecord
  2
LAYER008
 70
     0
 62
     7
  6
Continuous
370
    -3
390
F
  0
LAYER
  5
2184C
330
2
100
AcDbSymbolTableRecord
100
AcDbLayerTableRecord
  2
LAYER010
 70
     0
 62
     7
  6
Continuous
370
    -3
390
F
  0
LAYER
  5
2184D
330
2
100
AcDbSymbolTableRecord
100
AcDbLayerTableRecord
  2
LAYER011
 70
     0
 62
     7
  6
Continuous
370
    -3
390
F
  0
LAYER
  5
22B99
330
2
100
AcDbSymbolTableRecord
100
AcDbLayerTableRecord
  2
表示軸-AM_2
 70
     0
 62
     1
  6
細線
370
    15
390
F
1001
AcAecLayerStandard
1000

1000

  0
LAYER
  5
23667
330
2
100
AcDbSymbolTableRecord
100
AcDbLayerTableRecord
  2
ラッチ座-AM_6
 70
     0
 62
     2
  6
文字
370
    15
390
F
1001
AcAecLayerStandard
1000

1000

  0
LAYER
  5
24FD7
330
2
100
AcDbSymbolTableRecord
100
AcDbLayerTableRecord
  2
台座-AM_11
 70
     0
 62
     2
  6
想像線1
370
    15
390
F
1001
AcAecLayerStandard
1000

1000

  0
LAYER
  5
25982
330
2
100
AcDbSymbolTableRecord
100
AcDbLayerTableRecord
  2
ラッチ座-AM_2
 70
     0
 62
     1
  6
細線
370
    15
390
F
1001
AcAecLayerStandard
1000

1000

  0
LAYER
  5
25983
330
2
100
AcDbSymbolTableRecord
100
AcDbLayerTableRecord
  2
ラッチ座-AM_11
 70
     0
 62
     2
  6
想像線1
370
    15
390
F
1001
AcAecLayerStandard
1000

1000

  0
LAYER
  5
25984
330
2
100
AcDbSymbolTableRecord
100
AcDbLayerTableRecord
  2
ラッチ座-AM_1
 70
     0
 62
    30
  6
太線
370
    25
390
F
1001
AcAecLayerStandard
1000

1000

  0
LAYER
  5
261F9
330
2
100
AcDbSymbolTableRecord
100
AcDbLayerTableRecord
  2
ストップピン２-AM_2
 70
     0
 62
     1
  6
細線
370
    15
390
F
1001
AcAecLayerStandard
1000

1000

  0
LAYER
  5
26D04
330
2
100
AcDbSymbolTableRecord
100
AcDbLayerTableRecord
  2
ストップピン-AM_7
 70
     0
 62
     4
  6
中心線1
370
    15
390
F
1001
AcAecLayerStandard
1000

1000

  0
LAYER
  5
26D4B
330
2
100
AcDbSymbolTableRecord
100
AcDbLayerTableRecord
  2
ストップピン-AM_4
 70
     0
 62
     3
  6
補助線
370
    15
390
F
1001
AcAecLayerStandard
1000

1000

  0
LAYER
  5
26D4D
330
2
100
AcDbSymbolTableRecord
100
AcDbLayerTableRecord
  2
ストップピン-AM_8
 70
     0
 62
     1
  6
ハッチング
370
    15
390
F
1001
AcAecLayerStandard
1000

1000

  0
LAYER
  5
2851C
330
2
100
AcDbSymbolTableRecord
100
AcDbLayerTableRecord
  2
ゴムシート-AM_12
 70
     0
 62
     7
  6
Continuous
290
     0
370
    15
390
F
1001
AcAecLayerStandard
1000

1000

  0
LAYER
  5
28768
330
2
100
AcDbSymbolTableRecord
100
AcDbLayerTableRecord
  2
ブース-AM_0
 70
     0
 62
     7
  6
中線
370
    25
390
F
1001
AcAecLayerStandard
1000

1000

  0
LAYER
  5
2876A
330
2
100
AcDbSymbolTableRecord
100
AcDbLayerTableRecord
  2
ブース-AM_11
 70
     0
 62
     2
  6
想像線1
370
    15
390
F
1001
AcAecLayerStandard
1000

1000

  0
LAYER
  5
28D5F
330
2
100
AcDbSymbolTableRecord
100
AcDbLayerTableRecord
  2
ベスト-AM_0
 70
     0
 62
     7
  6
中線
370
    25
390
F
1001
AcAecLayerStandard
1000

1000

  0
LAYER
  5
28D7A
330
2
100
AcDbSymbolTableRecord
100
AcDbLayerTableRecord
  2
ベスト-AM_7
 70
     0
 62
     4
  6
中心線1
370
    15
390
F
1001
AcAecLayerStandard
1000

1000

  0
LAYER
  5
28D83
330
2
100
AcDbSymbolTableRecord
100
AcDbLayerTableRecord
  2
ベスト-AM_11
 70
     0
 62
     2
  6
想像線1
370
    15
390
F
1001
AcAecLayerStandard
1000

1000

  0
LAYER
  5
2E91C
330
2
100
AcDbSymbolTableRecord
100
AcDbLayerTableRecord
  2
台座-AM_6
 70
     0
 62
     2
  6
Continuous
370
    35
390
F
1001
AcAecLayerStandard
1000

1000

  0
LAYER
  5
2F59B
330
2
100
AcDbSymbolTableRecord
100
AcDbLayerTableRecord
  2
受-AM_0
 70
     0
 62
     7
  6
Continuous
370
    50
390
F
1001
AcAecLayerStandard
1000

1000

  0
LAYER
  5
2F59C
330
2
100
AcDbSymbolTableRecord
100
AcDbLayerTableRecord
  2
受-AM_7
 70
     0
 62
     4
  6
AM_ISO08W050
370
    25
390
F
1001
AcAecLayerStandard
1000

1000

  0
LAYER
  5
2F59D
330
2
100
AcDbSymbolTableRecord
100
AcDbLayerTableRecord
  2
受-AM_5
 70
     0
 62
     3
  6
Continuous
370
    25
390
F
1001
AcAecLayerStandard
1000

1000

  0
LAYER
  5
2F59E
330
2
100
AcDbSymbolTableRecord
100
AcDbLayerTableRecord
  2
受樹脂-AM_3
 70
     0
 62
     6
  6
AM_ISO02W050
370
    25
390
F
1001
AcAecLayerStandard
1000

1000

  0
LAYER
  5
2FD1E
330
2
100
AcDbSymbolTableRecord
100
AcDbLayerTableRecord
  2
0DFB-2020
 70
     0
 62
   140
  6
Continuous
370
    25
390
F
1001
AcAecLayerStandard
1000

1000

  0
LAYER
  5
30658
330
2
100
AcDbSymbolTableRecord
100
AcDbLayerTableRecord
  2
0DFB-2010
 70
     0
 62
   140
  6
Continuous
370
    25
390
F
1001
AcAecLayerStandard
1000

1000

  0
ENDTAB
  0
TABLE
  2
STYLE
  5
3
330
0
100
AcDbSymbolTable
 70
    13
  0
STYLE
  5
11
330
3
100
AcDbSymbolTableRecord
100
AcDbTextStyleTableRecord
  2
STANDARD
 70
     0
 40
0.0
 41
0.7
 50
0.0
 71
     0
 42
3.2
  3
romans.shx
  4
extfont.shx
  0
STYLE
  5
56
330
3
100
AcDbSymbolTableRecord
100
AcDbTextStyleTableRecord
  2

 70
     1
 40
0.0
 41
1.0
 50
0.0
 71
     0
 42
2.5
  3
ltypeshp.shx
  4

  0
STYLE
  5
58
330
3
100
AcDbSymbolTableRecord
100
AcDbTextStyleTableRecord
  2
ACISOTS
 70
     0
 40
1.0
 41
1.0
 50
0.0
 71
     0
 42
2.5
  3
isocp.shx
  4
extfont.shx
  0
STYLE
  5
63
330
3
100
AcDbSymbolTableRecord
100
AcDbTextStyleTableRecord
  2
ACISOGDT
 70
     0
 40
0.0
 41
1.0
 50
0.0
 71
     0
 42
2.5
  3
amgdt.shx
  4

  0
STYLE
  5
A74
330
3
100
AcDbSymbolTableRecord
100
AcDbTextStyleTableRecord
  2
DIM
 70
     0
 40
0.0
 41
1.0
 50
0.0
 71
     0
 42
2.5
  3
monotxt.shx
  4
extfont.shx
  0
STYLE
  5
AC80
330
3
100
AcDbSymbolTableRecord
100
AcDbTextStyleTableRecord
  2

 70
     1
 40
0.0
 41
1.0
 50
0.0
 71
     0
 42
3.2
  3
genltshp.shx
  4

  0
STYLE
  5
B16D
330
3
100
AcDbSymbolTableRecord
100
AcDbTextStyleTableRecord
  2
文字スタイル7
 70
     0
 40
0.0
 41
1.0
 50
0.0
 71
     0
 42
0.2
  3
TAHOMA.TTF
  4

1001
ACAD
1000
Tahoma
1071
      256
  0
STYLE
  5
C98D
330
3
100
AcDbSymbolTableRecord
100
AcDbTextStyleTableRecord
  2
ACANSTS
 70
     0
 40
1.0
 41
1.0
 50
0.0
 71
     0
 42
0.2
  3
romans.shx
  4
extfont.shx
  0
STYLE
  5
C98E
330
3
100
AcDbSymbolTableRecord
100
AcDbTextStyleTableRecord
  2
ACANSGDT
 70
     0
 40
0.0
 41
1.0
 50
0.0
 71
     0
 42
0.2
  3
amgdtans.shx
  4

  0
STYLE
  5
C98F
330
3
100
AcDbSymbolTableRecord
100
AcDbTextStyleTableRecord
  2
USER1
 70
     0
 40
0.0
 41
1.0
 50
0.0
 71
     0
 42
2.5
  3
TXT.SHX
  4

  0
STYLE
  5
C990
330
3
100
AcDbSymbolTableRecord
100
AcDbTextStyleTableRecord
  2
USER2
 70
     0
 40
0.0
 41
1.0
 50
0.0
 71
     0
 42
2.5
  3
SIMPLEX.SHX
  4

  0
STYLE
  5
C991
330
3
100
AcDbSymbolTableRecord
100
AcDbTextStyleTableRecord
  2
USER3
 70
     0
 40
0.0
 41
1.0
 50
0.0
 71
     0
 42
2.5
  3
ITALIC.SHX
  4

  0
ENDTAB
  0
TABLE
  2
VIEW
  5
6
330
0
100
AcDbSymbolTable
 70
     6
  0
VIEW
  5
AE1
330
6
100
AcDbSymbolTableRecord
100
AcDbViewTableRecord
  2
AM_VIEW1
 70
     0
 40
129.7276464542651
 10
1775.10588156276
 20
1793.121228859297
 41
148.5
 11
0.0
 21
0.0
 31
1.0
 12
0.0
 22
0.0
 32
0.0
 42
50.0
 43
-1370.695619172058
 44
-1370.695619172058
 50
0.0
 71
    16
281
     0
 72
     0
  0
VIEW
  5
AE2
330
6
100
AcDbSymbolTableRecord
100
AcDbViewTableRecord
  2
AM_VIEW2
 70
     0
 40
129.7276464542651
 10
1923.60588156276
 20
1793.121228859297
 41
148.5
 11
0.0
 21
0.0
 31
1.0
 12
0.0
 22
0.0
 32
0.0
 42
50.0
 43
-1370.695619172058
 44
-1370.695619172058
 50
0.0
 71
    16
281
     0
 72
     0
  0
VIEW
  5
AE3
330
6
100
AcDbSymbolTableRecord
100
AcDbViewTableRecord
  2
AM_VIEW3
 70
     0
 40
129.7276464542651
 10
1775.10588156276
 20
1712.848875313562
 41
148.5
 11
0.0
 21
0.0
 31
1.0
 12
0.0
 22
0.0
 32
0.0
 42
50.0
 43
-1370.695619172058
 44
-1370.695619172058
 50
0.0
 71
    16
281
     0
 72
     0
  0
VIEW
  5
AE4
330
6
100
AcDbSymbolTableRecord
100
AcDbViewTableRecord
  2
AM_VIEW4
 70
     0
 40
129.7276464542651
 10
1923.60588156276
 20
1712.848875313562
 41
148.5
 11
0.0
 21
0.0
 31
1.0
 12
0.0
 22
0.0
 32
0.0
 42
50.0
 43
-1370.695619172058
 44
-1370.695619172058
 50
0.0
 71
    16
281
     0
 72
     0
  0
VIEW
  5
AE5
330
6
100
AcDbSymbolTableRecord
100
AcDbViewTableRecord
  2
AM_VIEW5
 70
     0
 40
129.7276464542651
 10
1849.35588156276
 20
1752.985052086429
 41
148.5
 11
0.0
 21
0.0
 31
1.0
 12
0.0
 22
0.0
 32
0.0
 42
50.0
 43
-1370.695619172058
 44
-1370.695619172058
 50
0.0
 71
    16
281
     0
 72
     0
  0
VIEW
  5
AE6
330
6
100
AcDbSymbolTableRecord
100
AcDbViewTableRecord
  2
AM_VIEW6
 70
     0
 40
259.452698355601
 10
1849.35588156276
 20
1752.985052086429
 41
296.99703
 11
0.0
 21
0.0
 31
1.0
 12
0.0
 22
0.0
 32
0.0
 42
50.0
 43
-1370.695619172058
 44
-1370.695619172058
 50
0.0
 71
    16
281
     0
 72
     0
  0
ENDTAB
  0
TABLE
  2
UCS
  5
7
330
0
100
AcDbSymbolTable
 70
     0
  0
ENDTAB
  0
TABLE
  2
APPID
  5
9
330
0
100
AcDbSymbolTable
 70
    58
  0
APPID
  5
12
330
9
100
AcDbSymbolTableRecord
100
AcDbRegAppTableRecord
  2
ACAD
 70
     0
  0
APPID
  5
30
330
9
100
AcDbSymbolTableRecord
100
AcDbRegAppTableRecord
  2
MCAD_NO_VIS
 70
     0
  0
APPID
  5
31
330
9
100
AcDbSymbolTableRecord
100
AcDbRegAppTableRecord
  2
ACAD_TEMP_GRAPHIC
 70
     0
  0
APPID
  5
44
330
9
100
AcDbSymbolTableRecord
100
AcDbRegAppTableRecord
  2
ACATTRIBSERVICES
 70
     0
  0
APPID
  5
7A1
330
9
100
AcDbSymbolTableRecord
100
AcDbRegAppTableRecord
  2
GENIUS_GENDIMSH_14
 70
     0
  0
APPID
  5
A49
330
9
100
AcDbSymbolTableRecord
100
AcDbRegAppTableRecord
  2
GENIUS_GENREC_14
 70
     0
  0
APPID
  5
A4A
330
9
100
AcDbSymbolTableRecord
100
AcDbRegAppTableRecord
  2
GENIUS_GENOBJ-N-REC_13
 70
     0
  0
APPID
  5
A4B
330
9
100
AcDbSymbolTableRecord
100
AcDbRegAppTableRecord
  2
GENIUS_GENODEF_13
 70
     0
  0
APPID
  5
A4C
330
9
100
AcDbSymbolTableRecord
100
AcDbRegAppTableRecord
  2
DCO15
 70
     0
  0
APPID
  5
ADC
330
9
100
AcDbSymbolTableRecord
100
AcDbRegAppTableRecord
  2
GENIUS_GENOLIS_13
 70
     0
  0
APPID
  5
ADD
330
9
100
AcDbSymbolTableRecord
100
AcDbRegAppTableRecord
  2
GENIUS_GENOENT_13
 70
     0
  0
APPID
  5
ADE
330
9
100
AcDbSymbolTableRecord
100
AcDbRegAppTableRecord
  2
GENIUS_GENOBJ-N-TIT_13
 70
     0
  0
APPID
  5
ADF
330
9
100
AcDbSymbolTableRecord
100
AcDbRegAppTableRecord
  2
GENIUS_GENTITLE_13
 70
     0
  0
APPID
  5
AE0
330
9
100
AcDbSymbolTableRecord
100
AcDbRegAppTableRecord
  2
GENIUS_GENOREF_13
 70
     0
  0
APPID
  5
AE7
330
9
100
AcDbSymbolTableRecord
100
AcDbRegAppTableRecord
  2
GENIUS_GENSCREG_15
 70
     0
  0
APPID
  5
AE8
330
9
100
AcDbSymbolTableRecord
100
AcDbRegAppTableRecord
  2
GENIUS_GENOBJ-N-SDF_13
 70
     0
  0
APPID
  5
FAF
330
9
100
AcDbSymbolTableRecord
100
AcDbRegAppTableRecord
  2
GENIUS_GENBLLY_14
 70
     0
  0
APPID
  5
FB0
330
9
100
AcDbSymbolTableRecord
100
AcDbRegAppTableRecord
  2
GENIUS_GENTRA_14
 70
     0
  0
APPID
  5
1285
330
9
100
AcDbSymbolTableRecord
100
AcDbRegAppTableRecord
  2
GENIUS_GENDTOL_13
 70
     0
  0
APPID
  5
142D
330
9
100
AcDbSymbolTableRecord
100
AcDbRegAppTableRecord
  2
GENIUS_GENOBJ-N-CEN_13
 70
     0
  0
APPID
  5
1AB5
330
9
100
AcDbSymbolTableRecord
100
AcDbRegAppTableRecord
  2
GENIUS_GENOBJ-N-CRS_13
 70
     0
  0
APPID
  5
1B36
330
9
100
AcDbSymbolTableRecord
100
AcDbRegAppTableRecord
  2
GENIUS_GENOBJ-N-HTC_13
 70
     0
  0
APPID
  5
1B37
330
9
100
AcDbSymbolTableRecord
100
AcDbRegAppTableRecord
  2
GENIUS_GENHATCH_13
 70
     0
  0
APPID
  5
216D
330
9
100
AcDbSymbolTableRecord
100
AcDbRegAppTableRecord
  2
GENIUS_GENOBJ-N-FIL_13
 70
     0
  0
APPID
  5
2356
330
9
100
AcDbSymbolTableRecord
100
AcDbRegAppTableRecord
  2
GEVID990412420
 70
     0
  0
APPID
  5
2357
330
9
100
AcDbSymbolTableRecord
100
AcDbRegAppTableRecord
  2
GEVDC
 70
     0
  0
APPID
  5
2358
330
9
100
AcDbSymbolTableRecord
100
AcDbRegAppTableRecord
  2
GEVCON
 70
     0
  0
APPID
  5
235B
330
9
100
AcDbSymbolTableRecord
100
AcDbRegAppTableRecord
  2
GEVRADREF
 70
     0
  0
APPID
  5
2360
330
9
100
AcDbSymbolTableRecord
100
AcDbRegAppTableRecord
  2
GENIUS_GENBH_13
 70
     0
  0
APPID
  5
2362
330
9
100
AcDbSymbolTableRecord
100
AcDbRegAppTableRecord
  2
GENIUS_GENOBJ-NBEHI-BHF_13
 70
     0
  0
APPID
  5
2364
330
9
100
AcDbSymbolTableRecord
100
AcDbRegAppTableRecord
  2
GENIUS_GENOBJ-NBEHI-BHB_13
 70
     0
  0
APPID
  5
2379
330
9
100
AcDbSymbolTableRecord
100
AcDbRegAppTableRecord
  2
GENIUS_GENOBJ-F-SCPASSM_13
 70
     0
  0
APPID
  5
3D74
330
9
100
AcDbSymbolTableRecord
100
AcDbRegAppTableRecord
  2
GENIUS_GENDIM_13
 70
     0
  0
APPID
  5
3D76
330
9
100
AcDbSymbolTableRecord
100
AcDbRegAppTableRecord
  2
GENIUS_GE3DTOL_13
 70
     0
  0
APPID
  5
3D9C
330
9
100
AcDbSymbolTableRecord
100
AcDbRegAppTableRecord
  2
AD_DRAW
 70
     0
  0
APPID
  5
3DE8
330
9
100
AcDbSymbolTableRecord
100
AcDbRegAppTableRecord
  2
ASURF_PCURVE_APPNAME
 70
     0
  0
APPID
  5
3DED
330
9
100
AcDbSymbolTableRecord
100
AcDbRegAppTableRecord
  2
AMG_3D2D_5.0
 70
     0
  0
APPID
  5
3E1B
330
9
100
AcDbSymbolTableRecord
100
AcDbRegAppTableRecord
  2
DESIGNERASSEMBLIES
 70
     0
  0
APPID
  5
3E20
330
9
100
AcDbSymbolTableRecord
100
AcDbRegAppTableRecord
  2
ACADM_DIM_EDIT
 70
     0
  0
APPID
  5
3E21
330
9
100
AcDbSymbolTableRecord
100
AcDbRegAppTableRecord
  2
AMDT_DM_ADJ
 70
     0
  0
APPID
  5
4143
330
9
100
AcDbSymbolTableRecord
100
AcDbRegAppTableRecord
  2
GENIUS_GENFIL_13
 70
     0
  0
APPID
  5
4144
330
9
100
AcDbSymbolTableRecord
100
AcDbRegAppTableRecord
  2
GENIUS_GENOBJ-N-CHA_13
 70
     0
  0
APPID
  5
4E17
330
9
100
AcDbSymbolTableRecord
100
AcDbRegAppTableRecord
  2
GEVID1008153417
 70
     0
  0
APPID
  5
4E58
330
9
100
AcDbSymbolTableRecord
100
AcDbRegAppTableRecord
  2
GEVID1008153418
 70
     0
  0
APPID
  5
4E5E
330
9
100
AcDbSymbolTableRecord
100
AcDbRegAppTableRecord
  2
GEVID1008153419
 70
     0
  0
APPID
  5
4E64
330
9
100
AcDbSymbolTableRecord
100
AcDbRegAppTableRecord
  2
GEVID1008153420
 70
     0
  0
APPID
  5
4E75
330
9
100
AcDbSymbolTableRecord
100
AcDbRegAppTableRecord
  2
GEVID1008153421
 70
     0
  0
APPID
  5
4EB7
330
9
100
AcDbSymbolTableRecord
100
AcDbRegAppTableRecord
  2
GENIUS_AMGTXT_16
 70
     0
  0
APPID
  5
7645
330
9
100
AcDbSymbolTableRecord
100
AcDbRegAppTableRecord
  2
GENIUS_GENOBJ-N-DIM_13
 70
     0
  0
APPID
  5
AAD0
330
9
100
AcDbSymbolTableRecord
100
AcDbRegAppTableRecord
  2
ACAD_DSTYLE_DIMARC_LENGTH_SYMBOL
 70
     0
  0
APPID
  5
AAD1
330
9
100
AcDbSymbolTableRecord
100
AcDbRegAppTableRecord
  2
ACAD_DSTYLE_DIMJOGGED_JOGANGLE_SYMBOL
 70
     0
  0
APPID
  5
AAFD
330
9
100
AcDbSymbolTableRecord
100
AcDbRegAppTableRecord
  2
ACAD_PSEXT
 70
     0
  0
APPID
  5
AD61
330
9
100
AcDbSymbolTableRecord
100
AcDbRegAppTableRecord
  2
AcAecLayerStandard
 70
     0
  0
APPID
  5
AEE3
330
9
100
AcDbSymbolTableRecord
100
AcDbRegAppTableRecord
  2
ACAD_EXEMPT_FROM_CAD_STANDARDS
 70
     0
  0
APPID
  5
B16E
330
9
100
AcDbSymbolTableRecord
100
AcDbRegAppTableRecord
  2
GENIUS_GENCEN_19
 70
     0
  0
APPID
  5
E2EA
330
9
100
AcDbSymbolTableRecord
100
AcDbRegAppTableRecord
  2
GENLAYCOLOR
 70
     0
  0
APPID
  5
E785
330
9
100
AcDbSymbolTableRecord
100
AcDbRegAppTableRecord
  2
GENIUS_GENOBJ-N-ZOO_13
 70
     0
  0
APPID
  5
E786
330
9
100
AcDbSymbolTableRecord
100
AcDbRegAppTableRecord
  2
GENIUS_GENZOO_17
 70
     0
  0
ENDTAB
  0
TABLE
  2
DIMSTYLE
  5
A
330
0
100
AcDbSymbolTable
 70
    29
100
AcDbDimStyleTable
 71
     1
340
2515
  0
DIMSTYLE
105
A76
330
A
100
AcDbSymbolTableRecord
100
AcDbDimStyleTableRecord
  2
STANDARD
 70
     0
 41
3.0
 42
1.0
 43
7.0
 44
2.0
 73
     0
 74
     0
 77
     1
140
2.799999999999998
141
0.0
143
0.0394
147
0.7
171
     4
172
     1
173
     1
176
     3
177
     3
178
     2
271
     3
272
     3
273
     8
274
     4
289
     0
340
A74
341
A66
343
A66
344
A66
  0
DIMSTYLE
105
2515
330
A
100
AcDbSymbolTableRecord
100
AcDbDimStyleTableRecord
  2
SYS
 70
     0
  4
"
 41
1.0
 42
1.0
 43
10.0
 44
1.0
 47
0.1
 48
0.1
 73
     0
 74
     0
 77
     1
 78
     8
 79
     2
140
3.5
141
0.0
143
0.0393701
146
0.71
147
1.5
172
     1
176
   256
177
   256
178
     7
271
     2
272
     2
283
     0
284
     8
340
11
371
    -1
372
    -1
1001
ACAD_DSTYLE_DIMJOGGED_JOGANGLE_SYMBOL
1070
   384
1040
0.7853981633974483
1001
ACAD_DSTYLE_DIMARC_LENGTH_SYMBOL
1070
   379
1070
     1
  0
DIMSTYLE
105
2516
330
A
100
AcDbSymbolTableRecord
100
AcDbDimStyleTableRecord
  2
SYS$3
 70
     0
  4
"
 41
2.0
 42
1.0
 43
10.0
 44
1.0
 47
0.1
 48
0.1
 73
     0
 77
     1
 78
     8
 79
     2
140
3.5
141
0.0
143
0.0393701
146
0.71
147
1.5
176
   256
177
   256
178
     2
271
     2
272
     2
283
     0
284
     8
288
     1
340
11
342
A66
371
    -1
372
    -1
1001
ACAD_DSTYLE_DIMJOGGED_JOGANGLE_SYMBOL
1070
   384
1040
0.7853981633974483
1001
ACAD_DSTYLE_DIMARC_LENGTH_SYMBOL
1070
   379
1070
     1
  0
DIMSTYLE
105
2517
330
A
100
AcDbSymbolTableRecord
100
AcDbDimStyleTableRecord
  2
SYS$4
 70
     0
  4
"
 41
2.0
 42
1.0
 43
10.0
 44
1.0
 47
0.1
 48
0.1
 73
     0
 77
     1
 78
     8
 79
     2
140
3.5
141
0.0
143
0.0393701
146
0.71
147
1.5
173
     1
176
   256
177
   256
178
     2
271
     2
272
     2
283
     0
284
     8
288
     1
340
11
344
A66
371
    -1
372
    -1
1001
ACAD_DSTYLE_DIMJOGGED_JOGANGLE_SYMBOL
1070
   384
1040
0.7853981633974483
1001
ACAD_DSTYLE_DIMARC_LENGTH_SYMBOL
1070
   379
1070
     1
  0
DIMSTYLE
105
2518
330
A
100
AcDbSymbolTableRecord
100
AcDbDimStyleTableRecord
  2
SYS$6
 70
     0
  4
"
 41
2.0
 42
1.0
 43
10.0
 44
1.0
 47
0.1
 48
0.1
 73
     0
 74
     0
 78
     8
 79
     2
140
3.5
141
0.0
143
0.0393701
146
0.71
147
1.5
172
     1
176
   256
177
   256
178
     2
271
     2
272
     2
283
     0
284
     8
340
11
341
A66
371
    -1
372
    -1
1001
ACAD_DSTYLE_DIMJOGGED_JOGANGLE_SYMBOL
1070
   384
1040
0.7853981633974483
1001
ACAD_DSTYLE_DIMARC_LENGTH_SYMBOL
1070
   379
1070
     1
  0
DIMSTYLE
105
2519
330
A
100
AcDbSymbolTableRecord
100
AcDbDimStyleTableRecord
  2
SYS$7
 70
     0
  4
"
 41
2.0
 42
1.0
 43
10.0
 44
1.0
 47
0.1
 48
0.1
 73
     0
 74
     0
 77
     1
 78
     8
 79
     2
140
5.0
141
0.0
143
0.0393701
146
0.71
147
1.5
172
     1
176
   256
177
   256
178
     2
271
     2
272
     2
283
     0
284
     8
340
11
341
A66
342
A66
371
    -1
372
    -1
1001
ACAD_DSTYLE_DIMJOGGED_JOGANGLE_SYMBOL
1070
   384
1040
0.7853981633974483
1001
ACAD_DSTYLE_DIMARC_LENGTH_SYMBOL
1070
   379
1070
     1
  0
DIMSTYLE
105
251A
330
A
100
AcDbSymbolTableRecord
100
AcDbDimStyleTableRecord
  2
SYS$SF
 70
     0
  4
"
 41
2.5
 42
1.0
 43
10.0
 44
1.0
 47
0.1
 48
0.1
 73
     0
 74
     0
 75
     1
 76
     1
 77
     1
 78
     8
 79
     2
140
3.5
141
0.0
143
0.0393701
146
0.71
147
1.5
172
     1
176
   256
177
   256
178
     2
271
     2
272
     3
283
     0
284
     8
340
11
341
6C4
342
6C4
371
    -1
372
    -1
1001
ACAD_DSTYLE_DIMJOGGED_JOGANGLE_SYMBOL
1070
   384
1040
0.7853981633974483
1001
ACAD_DSTYLE_DIMARC_LENGTH_SYMBOL
1070
   379
1070
     1
  0
DIMSTYLE
105
251B
330
A
100
AcDbSymbolTableRecord
100
AcDbDimStyleTableRecord
  2
SYS$SH
 70
     0
  4
"
 41
2.5
 42
1.0
 43
10.0
 44
1.0
 47
0.1
 48
0.1
 73
     0
 74
     0
 75
     1
 76
     1
 77
     1
 78
     8
 79
     2
140
3.5
141
0.0
143
0.0393701
144
2.0
146
0.71
147
1.5
172
     1
173
     1
176
   256
177
   256
178
     2
271
     2
272
     3
283
     0
284
     8
340
11
341
6C4
343
72
344
6C4
371
    -1
372
    -1
1001
ACAD_DSTYLE_DIMJOGGED_JOGANGLE_SYMBOL
1070
   384
1040
0.7853981633974483
1001
ACAD_DSTYLE_DIMARC_LENGTH_SYMBOL
1070
   379
1070
     1
  0
DIMSTYLE
105
2A59
330
A
100
AcDbSymbolTableRecord
100
AcDbDimStyleTableRecord
  2
SYS$2
 70
     0
  4
"
 41
1.0
 42
1.0
 43
10.0
 44
1.0
 47
0.1
 48
0.1
 73
     0
 74
     0
 77
     1
 78
     8
 79
     2
140
3.5
141
0.0
143
0.0393701
146
0.71
147
1.5
172
     1
176
   256
177
   256
178
     2
271
     2
272
     2
283
     0
284
     8
340
11
342
6C4
371
    -1
372
    -1
1001
ACAD_DSTYLE_DIMJOGGED_JOGANGLE_SYMBOL
1070
   384
1040
0.7853981633974483
1001
ACAD_DSTYLE_DIMARC_LENGTH_SYMBOL
1070
   379
1070
     1
  0
DIMSTYLE
105
2AAB
102
{ACAD_REACTORS
330
30753
330
30783
330
30807
330
3081C
330
308A6
330
308C0
330
308D8
330
308F2
330
30913
330
3092B
330
30ACA
330
30AE2
330
30B15
330
30B2D
330
30B9E
330
30BBF
330
30BD7
330
30BF8
330
30C37
102
}
330
A
100
AcDbSymbolTableRecord
100
AcDbDimStyleTableRecord
  2
SYS$0
 70
     0
  4
"
 41
1.0
 42
1.0
 43
10.0
 44
1.0
 47
0.1
 48
0.1
 73
     0
 74
     0
 77
     1
 78
     8
 79
     2
140
3.200000000000001
141
0.0
143
0.0393701
146
0.71
147
1.5
172
     1
176
   256
177
   256
178
     2
271
     2
272
     2
283
     0
284
     8
340
11
341
A66
342
6C4
371
    -1
372
    -1
1001
ACAD_DSTYLE_DIMJOGGED_JOGANGLE_SYMBOL
1070
   384
1040
0.7853981633974483
1001
ACAD_DSTYLE_DIMARC_LENGTH_SYMBOL
1070
   379
1070
     1
  0
DIMSTYLE
105
AF99
330
A
100
AcDbSymbolTableRecord
100
AcDbDimStyleTableRecord
  2
AM_ISO
 70
     0
  4
"
 41
2.5
 42
1.0
 43
10.0
 44
1.0
 47
0.1
 48
0.1
 73
     0
 74
     0
 77
     1
 78
     8
 79
     2
140
3.5
141
0.0
143
0.0393701
146
0.71
147
1.5
172
     1
176
   256
177
   256
178
     2
271
     2
272
     3
274
     4
283
     0
284
     8
340
11
371
    -1
372
    -1
  0
DIMSTYLE
105
AF9A
330
A
100
AcDbSymbolTableRecord
100
AcDbDimStyleTableRecord
  2
AM_ISO$3
 70
     0
  4
"
 41
2.5
 42
1.0
 43
10.0
 44
1.0
 47
0.1
 48
0.1
 73
     0
 77
     1
 78
     8
 79
     2
140
3.5
141
0.0
143
0.0393701
146
0.71
147
1.5
176
   256
177
   256
178
     2
271
     2
272
     3
274
     4
283
     0
284
     8
288
     1
289
     0
340
11
371
    -1
372
    -1
  0
DIMSTYLE
105
AF9B
330
A
100
AcDbSymbolTableRecord
100
AcDbDimStyleTableRecord
  2
AM_ISO$4
 70
     0
  4
"
 41
2.5
 42
1.0
 43
10.0
 44
1.0
 47
0.1
 48
0.1
 73
     0
 77
     1
 78
     8
 79
     2
140
3.5
141
0.0
143
0.0393701
146
0.71
147
1.5
176
   256
177
   256
178
     2
271
     2
272
     3
274
     4
283
     0
284
     8
288
     1
289
     0
340
11
371
    -1
372
    -1
  0
DIMSTYLE
105
AF9C
330
A
100
AcDbSymbolTableRecord
100
AcDbDimStyleTableRecord
  2
AM_ISO$6
 70
     0
  4
"
 41
2.5
 42
1.0
 43
10.0
 44
1.0
 47
0.1
 48
0.1
 73
     0
 74
     0
 78
     8
 79
     2
140
3.5
141
0.0
143
0.0393701
146
0.71
147
1.5
172
     1
176
   256
177
   256
178
     2
271
     2
272
     3
274
     4
283
     0
284
     8
340
11
371
    -1
372
    -1
  0
DIMSTYLE
105
AF9D
330
A
100
AcDbSymbolTableRecord
100
AcDbDimStyleTableRecord
  2
AM_ISO$7
 70
     0
  4
"
 41
2.5
 42
1.0
 43
10.0
 44
1.0
 47
0.1
 48
0.1
 73
     0
 74
     0
 77
     1
 78
     8
 79
     2
140
5.0
141
0.0
143
0.0393701
146
0.71
147
1.5
172
     1
176
   256
177
   256
178
     2
271
     2
272
     3
274
     4
283
     0
284
     8
340
11
371
    -1
372
    -1
  0
DIMSTYLE
105
AF9E
330
A
100
AcDbSymbolTableRecord
100
AcDbDimStyleTableRecord
  2
AM_ISO$SF
 70
     0
  4
"
 41
2.5
 42
1.0
 43
10.0
 44
1.0
 47
0.1
 48
0.1
 73
     0
 74
     0
 75
     1
 76
     1
 77
     1
 78
     8
 79
     2
140
3.5
141
0.0
143
0.0393701
146
0.71
147
1.5
172
     1
176
   256
177
   256
178
     2
271
     2
272
     3
274
     4
283
     0
284
     8
340
11
371
    -1
372
    -1
  0
DIMSTYLE
105
AF9F
330
A
100
AcDbSymbolTableRecord
100
AcDbDimStyleTableRecord
  2
AM_ISO$SH
 70
     0
  4
"
 41
2.5
 42
1.0
 43
10.0
 44
1.0
 47
0.1
 48
0.1
 73
     0
 74
     0
 75
     1
 76
     1
 77
     1
 78
     8
 79
     2
140
3.5
141
0.0
143
0.0393701
144
2.0
146
0.71
147
1.5
172
     1
173
     1
176
   256
177
   256
178
     2
271
     2
272
     3
274
     4
283
     0
284
     8
340
11
343
72
371
    -1
372
    -1
  0
DIMSTYLE
105
C992
330
A
100
AcDbSymbolTableRecord
100
AcDbDimStyleTableRecord
  2
AM_ISO$0
 70
     0
  4
"
 41
0.8
 42
1.0
 43
10.0
 44
1.0
 47
0.1
 48
0.1
 73
     0
 74
     0
 77
     1
 78
     8
 79
     2
140
3.2
141
0.0
143
0.0393701
146
0.71
147
0.9999999999999996
172
     1
176
   256
177
   256
178
     2
271
     2
272
     2
283
     0
284
     8
340
11
341
6C4
342
6C4
371
    -1
372
    -1
1001
ACAD_DSTYLE_DIMJOGGED_JOGANGLE_SYMBOL
1070
   384
1040
0.7853981633974483
1001
ACAD_DSTYLE_DIMARC_LENGTH_SYMBOL
1070
   379
1070
     1
  0
DIMSTYLE
105
C993
330
A
100
AcDbSymbolTableRecord
100
AcDbDimStyleTableRecord
  2
AM_ISO$2
 70
     0
  4
"
 41
0.8
 42
1.0
 43
10.0
 44
1.0
 47
0.1
 48
0.1
 73
     0
 74
     0
 77
     3
 78
     8
 79
     2
140
3.200000000000001
141
0.0
143
0.0393701
146
0.71
147
0.9999999999999996
172
     1
176
   256
177
   256
178
     2
271
     2
272
     2
283
     0
284
     8
340
11
342
6C4
371
    -1
372
    -1
1001
ACAD_DSTYLE_DIMJOGGED_JOGANGLE_SYMBOL
1070
   384
1040
0.7853981633974483
1001
ACAD_DSTYLE_DIMARC_LENGTH_SYMBOL
1070
   379
1070
     1
  0
DIMSTYLE
105
C994
330
A
100
AcDbSymbolTableRecord
100
AcDbDimStyleTableRecord
  2
AM_ANSI
 70
     0
  4
mm
 41
0.1
 42
0.05
 43
0.5
 44
0.1
 47
0.1
 48
0.1
 78
     7
 79
     2
140
0.12
141
0.0
146
0.71
147
0.06
176
   256
177
   256
178
     2
274
     4
284
     7
340
11
371
    -1
372
    -1
1001
ACAD_DSTYLE_DIMJOGGED_JOGANGLE_SYMBOL
1070
   384
1040
0.7853981633974483
1001
ACAD_DSTYLE_DIMARC_LENGTH_SYMBOL
1070
   379
1070
     1
  0
DIMSTYLE
105
C995
330
A
100
AcDbSymbolTableRecord
100
AcDbDimStyleTableRecord
  2
AM_ANSI$3
 70
     0
  4
mm
 41
0.1
 42
0.05
 43
0.5
 44
0.1
 47
0.1
 48
0.1
 78
     7
 79
     2
140
0.12
141
0.0
146
0.71
147
0.06
176
   256
177
   256
178
     2
274
     4
284
     7
288
     1
289
     0
340
11
371
    -1
372
    -1
1001
ACAD_DSTYLE_DIMJOGGED_JOGANGLE_SYMBOL
1070
   384
1040
0.7853981633974483
1001
ACAD_DSTYLE_DIMARC_LENGTH_SYMBOL
1070
   379
1070
     1
  0
DIMSTYLE
105
C996
330
A
100
AcDbSymbolTableRecord
100
AcDbDimStyleTableRecord
  2
AM_ANSI$4
 70
     0
  4
mm
 41
0.1
 42
0.05
 43
0.5
 44
0.1
 47
0.1
 48
0.1
 78
     7
 79
     2
140
0.12
141
0.0
146
0.71
147
0.06
176
   256
177
   256
178
     2
274
     4
284
     7
288
     1
289
     0
340
11
371
    -1
372
    -1
1001
ACAD_DSTYLE_DIMJOGGED_JOGANGLE_SYMBOL
1070
   384
1040
0.7853981633974483
1001
ACAD_DSTYLE_DIMARC_LENGTH_SYMBOL
1070
   379
1070
     1
  0
DIMSTYLE
105
C997
330
A
100
AcDbSymbolTableRecord
100
AcDbDimStyleTableRecord
  2
AM_ANSI$7
 70
     0
  4
mm
 41
0.1
 42
0.05
 43
0.5
 44
0.1
 47
0.1
 48
0.1
 78
     7
 79
     2
140
0.24
141
0.0
146
0.71
147
0.06
176
   256
177
   256
178
     2
274
     4
284
     7
340
11
371
    -1
372
    -1
1001
ACAD_DSTYLE_DIMJOGGED_JOGANGLE_SYMBOL
1070
   384
1040
0.7853981633974483
1001
ACAD_DSTYLE_DIMARC_LENGTH_SYMBOL
1070
   379
1070
     1
  0
DIMSTYLE
105
C998
330
A
100
AcDbSymbolTableRecord
100
AcDbDimStyleTableRecord
  2
AM_ANSI$SF
 70
     0
  4
mm
 41
0.1
 42
0.05
 43
0.5
 44
0.1
 47
0.1
 48
0.1
 75
     1
 76
     1
 78
     7
 79
     2
140
0.12
141
0.0
146
0.71
147
0.06
176
   256
177
   256
178
     2
274
     4
284
     7
340
11
371
    -1
372
    -1
1001
ACAD_DSTYLE_DIMJOGGED_JOGANGLE_SYMBOL
1070
   384
1040
0.7853981633974483
1001
ACAD_DSTYLE_DIMARC_LENGTH_SYMBOL
1070
   379
1070
     1
  0
DIMSTYLE
105
C999
330
A
100
AcDbSymbolTableRecord
100
AcDbDimStyleTableRecord
  2
AM_ANSI$SH
 70
     0
  4
mm
 41
0.1
 42
0.05
 43
0.5
 44
0.1
 47
0.1
 48
0.1
 75
     1
 76
     1
 78
     7
 79
     2
140
0.12
141
0.0
146
0.71
147
0.06
173
     1
176
   256
177
   256
178
     2
274
     4
284
     7
340
11
343
72
371
    -1
372
    -1
1001
ACAD_DSTYLE_DIMJOGGED_JOGANGLE_SYMBOL
1070
   384
1040
0.7853981633974483
1001
ACAD_DSTYLE_DIMARC_LENGTH_SYMBOL
1070
   379
1070
     1
  0
DIMSTYLE
105
C99A
330
A
100
AcDbSymbolTableRecord
100
AcDbDimStyleTableRecord
  2
SYMBOL
 70
     0
  4
"
 41
2.5
 42
1.0
 43
10.0
 44
1.0
 47
0.1
 48
0.1
 73
     0
 74
     0
 77
     1
 78
     8
 79
     2
140
3.5
141
0.0
143
0.0393701
146
0.71
147
1.5
172
     1
176
   256
177
   256
178
     7
271
     2
272
     3
274
     4
283
     0
284
     8
340
11
371
    -1
372
    -1
  0
DIMSTYLE
105
2184E
330
A
100
AcDbSymbolTableRecord
100
AcDbDimStyleTableRecord
  2
DIMSTYLE
 70
     0
 41
1.0
 42
2.54
 44
2.54
 73
     0
 74
     0
140
3.2
147
1.6
173
     1
279
     2
340
11
  0
DIMSTYLE
105
2184F
330
A
100
AcDbSymbolTableRecord
100
AcDbDimStyleTableRecord
  2
DIMSTYLE$0
 70
     0
 41
1.0
 42
2.54
 44
2.54
 73
     0
 74
     0
140
3.2
147
1.6
173
     1
279
     2
340
11
  0
ENDTAB
  0
TABLE
  2
BLOCK_RECORD
  5
1
330
0
100
AcDbSymbolTable
 70
    27
  0
BLOCK_RECORD
  5
1F
102
{ACAD_XDICTIONARY
360
8A
102
}
330
1
100
AcDbSymbolTableRecord
100
AcDbBlockTableRecord
  2
*Model_Space
340
22
  0
BLOCK_RECORD
  5
1B
330
1
100
AcDbSymbolTableRecord
100
AcDbBlockTableRecord
  2
*Paper_Space
340
1E
  0
BLOCK_RECORD
  5
23
330
1
100
AcDbSymbolTableRecord
100
AcDbBlockTableRecord
  2
*Paper_Space0
340
26
  0
BLOCK_RECORD
  5
72
330
1
100
AcDbSymbolTableRecord
100
AcDbBlockTableRecord
  2
GENAXEH
340
0
  0
BLOCK_RECORD
  5
6C4
330
1
100
AcDbSymbolTableRecord
100
AcDbBlockTableRecord
  2
_Dot
340
0
102
{BLKREFS
331
30A61
331
30A62
331
30A78
331
30A79
331
30A82
331
30A83
331
30A8B
331
30A8C
331
30A95
331
30A96
331
30A9E
331
30A9F
331
30AA7
331
30AA8
331
30AB0
331
30AB1
331
30ADC
331
30ADD
331
30B0F
331
30B10
331
30B27
331
30B28
331
30B3F
331
30B40
331
30BB9
331
30BBA
331
30BD1
331
30BD2
331
30BF2
331
30BF3
331
30C0E
331
30C0F
331
30C49
331
30C4A
102
}
  0
BLOCK_RECORD
  5
A66
330
1
100
AcDbSymbolTableRecord
100
AcDbBlockTableRecord
  2
_OPEN30
340
0
102
{BLKREFS
331
30A6A
331
30A71
102
}
  0
BLOCK_RECORD
  5
30141
330
1
100
AcDbSymbolTableRecord
100
AcDbBlockTableRecord
  2
GENDOT
340
0
102
{BLKREFS
331
30B99
102
}
  0
BLOCK_RECORD
  5
30754
330
1
100
AcDbSymbolTableRecord
100
AcDbBlockTableRecord
  2
*D6
340
0
  0
BLOCK_RECORD
  5
30784
330
1
100
AcDbSymbolTableRecord
100
AcDbBlockTableRecord
  2
*D7
340
0
  0
BLOCK_RECORD
  5
307BC
330
1
100
AcDbSymbolTableRecord
100
AcDbBlockTableRecord
  2
_DotSmall
340
0
102
{BLKREFS
331
30A69
331
30A70
102
}
  0
BLOCK_RECORD
  5
3080B
330
1
100
AcDbSymbolTableRecord
100
AcDbBlockTableRecord
  2
*D9
340
0
  0
BLOCK_RECORD
  5
3081D
330
1
100
AcDbSymbolTableRecord
100
AcDbBlockTableRecord
  2
*D10
340
0
  0
BLOCK_RECORD
  5
308A7
330
1
100
AcDbSymbolTableRecord
100
AcDbBlockTableRecord
  2
*D11
340
0
  0
BLOCK_RECORD
  5
308C1
330
1
100
AcDbSymbolTableRecord
100
AcDbBlockTableRecord
  2
*D12
340
0
  0
BLOCK_RECORD
  5
308D9
330
1
100
AcDbSymbolTableRecord
100
AcDbBlockTableRecord
  2
*D13
340
0
  0
BLOCK_RECORD
  5
308F3
330
1
100
AcDbSymbolTableRecord
100
AcDbBlockTableRecord
  2
*D14
340
0
  0
BLOCK_RECORD
  5
30914
330
1
100
AcDbSymbolTableRecord
100
AcDbBlockTableRecord
  2
*D15
340
0
  0
BLOCK_RECORD
  5
3092C
330
1
100
AcDbSymbolTableRecord
100
AcDbBlockTableRecord
  2
*D16
340
0
  0
BLOCK_RECORD
  5
30ACB
330
1
100
AcDbSymbolTableRecord
100
AcDbBlockTableRecord
  2
*D17
340
0
  0
BLOCK_RECORD
  5
30AE3
330
1
100
AcDbSymbolTableRecord
100
AcDbBlockTableRecord
  2
*D18
340
0
  0
BLOCK_RECORD
  5
30B16
330
1
100
AcDbSymbolTableRecord
100
AcDbBlockTableRecord
  2
*D19
340
0
  0
BLOCK_RECORD
  5
30B2E
330
1
100
AcDbSymbolTableRecord
100
AcDbBlockTableRecord
  2
*D20
340
0
  0
BLOCK_RECORD
  5
30B9F
330
1
100
AcDbSymbolTableRecord
100
AcDbBlockTableRecord
  2
*D21
340
0
  0
BLOCK_RECORD
  5
30BC0
330
1
100
AcDbSymbolTableRecord
100
AcDbBlockTableRecord
  2
*D22
340
0
  0
BLOCK_RECORD
  5
30BD8
330
1
100
AcDbSymbolTableRecord
100
AcDbBlockTableRecord
  2
*D23
340
0
  0
BLOCK_RECORD
  5
30BF9
330
1
100
AcDbSymbolTableRecord
100
AcDbBlockTableRecord
  2
*D24
340
0
  0
BLOCK_RECORD
  5
30C38
330
1
100
AcDbSymbolTableRecord
100
AcDbBlockTableRecord
  2
*D25
340
0
  0
ENDTAB
  0
ENDSEC
  0
SECTION
  2
BLOCKS
  0
BLOCK
  5
20
330
1F
100
AcDbEntity
  8
0
100
AcDbBlockBegin
  2
*Model_Space
 70
     0
 10
0.0
 20
0.0
 30
0.0
  3
*Model_Space
  1

  0
ENDBLK
  5
21
330
1F
100
AcDbEntity
  8
0
100
AcDbBlockEnd
  0
BLOCK
  5
1C
330
1B
100
AcDbEntity
 67
     1
  8
0
100
AcDbBlockBegin
  2
*Paper_Space
 70
     0
 10
0.0
 20
0.0
 30
0.0
  3
*Paper_Space
  1

  0
ENDBLK
  5
1D
330
1B
100
AcDbEntity
 67
     1
  8
0
100
AcDbBlockEnd
  0
BLOCK
  5
24
330
23
100
AcDbEntity
 67
     1
  8
0
100
AcDbBlockBegin
  2
*Paper_Space0
 70
     0
 10
0.0
 20
0.0
 30
0.0
  3
*Paper_Space0
  1

  0
ENDBLK
  5
25
330
23
100
AcDbEntity
 67
     1
  8
0
100
AcDbBlockEnd
  0
BLOCK
  5
74
330
72
100
AcDbEntity
  8
0
100
AcDbBlockBegin
  2
GENAXEH
 70
     0
 10
0.0
 20
0.0
 30
0.0
  3
GENAXEH
  1

  0
LINE
  5
73
330
72
100
AcDbEntity
  8
0
100
AcDbLine
 10
-1.0
 20
0.0
 30
0.0
 11
1.0
 21
0.0
 31
0.0
  0
ENDBLK
  5
75
330
72
100
AcDbEntity
  8
0
100
AcDbBlockEnd
  0
BLOCK
  5
6C7
330
6C4
100
AcDbEntity
  8
0
100
AcDbBlockBegin
  2
_Dot
 70
     0
 10
0.0
 20
0.0
 30
0.0
  3
_Dot
  1

  0
LWPOLYLINE
  5
6C5
330
6C4
100
AcDbEntity
  8
0
  6
ByBlock
 62
     0
100
AcDbPolyline
 90
        2
 70
     1
 43
0.5
 10
-0.25
 20
0.0
 42
1.0
 10
0.25
 20
0.0
 42
1.0
  0
LINE
  5
6C6
330
6C4
100
AcDbEntity
  8
0
  6
ByBlock
 62
     0
370
    -2
100
AcDbLine
 10
-0.5
 20
0.0
 30
0.0
 11
-1.0
 21
0.0
 31
0.0
  0
ENDBLK
  5
6C8
330
6C4
100
AcDbEntity
  8
0
100
AcDbBlockEnd
  0
BLOCK
  5
A6A
330
A66
100
AcDbEntity
  8
0
100
AcDbBlockBegin
  2
_OPEN30
 70
     0
 10
0.0
 20
0.0
 30
0.0
  3
_OPEN30
  1

  0
LINE
  5
A67
330
A66
100
AcDbEntity
  8
0
  6
ByBlock
 62
     0
100
AcDbLine
 10
-1.0
 20
0.26794919
 30
0.0
 11
0.0
 21
0.0
 31
0.0
  0
LINE
  5
A68
330
A66
100
AcDbEntity
  8
0
  6
ByBlock
 62
     0
100
AcDbLine
 10
0.0
 20
0.0
 30
0.0
 11
-1.0
 21
-0.26794919
 31
0.0
  0
LINE
  5
A69
330
A66
100
AcDbEntity
  8
0
  6
ByBlock
 62
     0
100
AcDbLine
 10
0.0
 20
0.0
 30
0.0
 11
-1.0
 21
0.0
 31
0.0
  0
ENDBLK
  5
A6B
330
A66
100
AcDbEntity
  8
0
100
AcDbBlockEnd
  0
BLOCK
  5
30144
330
30141
100
AcDbEntity
  8
0
100
AcDbBlockBegin
  2
GENDOT
 70
     0
 10
0.0
 20
0.0
 30
0.0
  3
GENDOT
  1

  0
LINE
  5
30142
330
30141
100
AcDbEntity
  8
0
100
AcDbLine
 10
0.0
 20
0.0
 30
0.0
 11
-1.0
 21
0.0
 31
0.0
  0
LWPOLYLINE
  5
30143
330
30141
100
AcDbEntity
  8
0
100
AcDbPolyline
 90
        2
 70
     1
 43
0.25
 10
-0.125
 20
0.0
 42
1.0
 10
0.125
 20
0.0
 42
1.0
  0
ENDBLK
  5
30145
330
30141
100
AcDbEntity
  8
0
100
AcDbBlockEnd
  0
BLOCK
  5
3075E
330
30754
100
AcDbEntity
  8
0
100
AcDbBlockBegin
  2
*D6
 70
     1
 10
0.0
 20
0.0
 30
0.0
  3
*D6
  1

  0
LINE
  5
30A5F
330
30754
100
AcDbEntity
  8
AM_5
100
AcDbLine
 10
739.2287703800874
 20
747.4319196579529
 30
0.0
 11
751.2287703800873
 21
747.4319196579529
 31
0.0
  0
LINE
  5
30A60
330
30754
100
AcDbEntity
  8
AM_5
100
AcDbLine
 10
750.2287703800873
 20
748.4319196579528
 30
0.0
 11
750.2287703800874
 21
793.4319196579547
 31
0.0
  0
INSERT
  5
30A61
330
30754
100
AcDbEntity
  8
AM_5
100
AcDbBlockReference
  2
_Dot
 10
750.2287703800873
 20
747.4319196579529
 30
0.0
 50
270.0
  0
INSERT
  5
30A62
330
30754
100
AcDbEntity
  8
AM_5
100
AcDbBlockReference
  2
_Dot
 10
750.2287703800874
 20
794.4319196579547
 30
0.0
 50
90.0
  0
MTEXT
  5
30A63
330
30754
100
AcDbEntity
  8
AM_5
 62
     2
100
AcDbMText
 10
747.1287703800872
 20
770.9319196579539
 30
0.0
 40
3.200000000000001
 41
0.0
 71
     5
 72
     1
  1
（47）
 11
0.0000000000000001
 21
1.0
 31
0.0
 73
     1
 44
1.0
1001
ACAD
1000
MTEXTBEGIN
1070
    73
1070
     1
1070
    44
1040
1.0
1070
    74
1070
     0
1000
MTEXTEND
  0
POINT
  5
30A64
330
30754
100
AcDbEntity
  8
Defpoints
 62
     0
100
AcDbPoint
 10
738.2287703800874
 20
747.4319196579529
 30
0.0
  0
POINT
  5
30A65
330
30754
100
AcDbEntity
  8
Defpoints
 62
     0
100
AcDbPoint
 10
738.2287703800874
 20
794.4319196579547
 30
0.0
  0
POINT
  5
30A66
330
30754
100
AcDbEntity
  8
Defpoints
 62
     0
100
AcDbPoint
 10
750.2287703800874
 20
794.4319196579547
 30
0.0
  0
ENDBLK
  5
3075F
330
30754
100
AcDbEntity
  8
0
100
AcDbBlockEnd
  0
BLOCK
  5
3078E
330
30784
100
AcDbEntity
  8
0
100
AcDbBlockBegin
  2
*D7
 70
     1
 10
0.0
 20
0.0
 30
0.0
  3
*D7
  1

  0
LINE
  5
30A67
330
30784
100
AcDbEntity
  8
AM_5
100
AcDbLine
 10
739.2287703800874
 20
747.4319196579529
 30
0.0
 11
761.2287703800879
 21
747.4319196579529
 31
0.0
  0
LINE
  5
30A68
330
30784
100
AcDbEntity
  8
AM_5
100
AcDbLine
 10
760.2287703800879
 20
747.4319196579529
 30
0.0
 11
760.2287703800879
 21
751.9319196579528
 31
0.0
  0
INSERT
  5
30A69
330
30784
100
AcDbEntity
  8
AM_5
100
AcDbBlockReference
  2
_DotSmall
 10
760.2287703800879
 20
747.4319196579529
 30
0.0
 41
3.0
 42
3.0
 43
3.0
 50
270.0
  0
INSERT
  5
30A6A
330
30784
100
AcDbEntity
  8
AM_5
100
AcDbBlockReference
  2
_OPEN30
 10
760.2287703800879
 20
754.9319196579529
 30
0.0
 41
3.0
 42
3.0
 43
3.0
 50
90.0
  0
POINT
  5
30A6B
330
30784
100
AcDbEntity
  8
Defpoints
 62
     0
100
AcDbPoint
 10
738.2287703800874
 20
747.4319196579529
 30
0.0
  0
POINT
  5
30A6C
330
30784
100
AcDbEntity
  8
Defpoints
 62
     0
100
AcDbPoint
 10
738.2287773800875
 20
754.9319196579529
 30
0.0
  0
POINT
  5
30A6D
330
30784
100
AcDbEntity
  8
Defpoints
 62
     0
100
AcDbPoint
 10
760.2287703800879
 20
754.9319196579529
 30
0.0
  0
ENDBLK
  5
3078F
330
30784
100
AcDbEntity
  8
0
100
AcDbBlockEnd
  0
BLOCK
  5
307BE
330
307BC
100
AcDbEntity
  8
0
100
AcDbBlockBegin
  2
_DotSmall
 70
     0
 10
0.0
 20
0.0
 30
0.0
  3
_DotSmall
  1

  0
LWPOLYLINE
  5
307BD
330
307BC
100
AcDbEntity
  8
0
  6
ByBlock
 62
     0
100
AcDbPolyline
 90
        2
 70
     1
 43
0.5
 10
-0.0625
 20
0.0
 42
1.0
 10
0.0625
 20
0.0
 42
1.0
  0
ENDBLK
  5
307BF
330
307BC
100
AcDbEntity
  8
0
100
AcDbBlockEnd
  0
BLOCK
  5
30813
330
3080B
100
AcDbEntity
  8
0
100
AcDbBlockBegin
  2
*D9
 70
     1
 10
0.0
 20
0.0
 30
0.0
  3
*D9
  1

  0
LINE
  5
30A6E
330
3080B
100
AcDbEntity
  8
AM_5
100
AcDbLine
 10
739.2287703800874
 20
747.4319196579529
 30
0.0
 11
761.2287703800879
 21
747.4319196579529
 31
0.0
  0
LINE
  5
30A6F
330
3080B
100
AcDbEntity
  8
AM_5
100
AcDbLine
 10
760.2287703800879
 20
747.4319196579529
 30
0.0
 11
760.2287703800879
 21
742.9319196579529
 31
0.0
  0
INSERT
  5
30A70
330
3080B
100
AcDbEntity
  8
AM_5
100
AcDbBlockReference
  2
_DotSmall
 10
760.2287703800879
 20
747.4319196579529
 30
0.0
 41
3.0
 42
3.0
 43
3.0
 50
90.0
  0
INSERT
  5
30A71
330
3080B
100
AcDbEntity
  8
AM_5
100
AcDbBlockReference
  2
_OPEN30
 10
760.2287703800879
 20
739.9319196579528
 30
0.0
 41
3.0
 42
3.0
 43
3.0
 50
270.0
  0
POINT
  5
30A72
330
3080B
100
AcDbEntity
  8
Defpoints
 62
     0
100
AcDbPoint
 10
738.2287703800874
 20
747.4319196579529
 30
0.0
  0
POINT
  5
30A73
330
3080B
100
AcDbEntity
  8
Defpoints
 62
     0
100
AcDbPoint
 10
738.2287773800875
 20
739.9319196579528
 30
0.0
  0
POINT
  5
30A74
330
3080B
100
AcDbEntity
  8
Defpoints
 62
     0
100
AcDbPoint
 10
760.2287703800879
 20
739.9319196579528
 30
0.0
  0
ENDBLK
  5
30814
330
3080B
100
AcDbEntity
  8
0
100
AcDbBlockEnd
  0
BLOCK
  5
30827
330
3081D
100
AcDbEntity
  8
0
100
AcDbBlockBegin
  2
*D10
 70
     1
 10
0.0
 20
0.0
 30
0.0
  3
*D10
  1

  0
LINE
  5
30A75
330
3081D
100
AcDbEntity
  8
AM_5
100
AcDbLine
 10
701.7287703800874
 20
728.4319196579529
 30
0.0
 11
689.7287703800874
 21
728.4319196579529
 31
0.0
  0
LINE
  5
30A76
330
3081D
100
AcDbEntity
  8
AM_5
100
AcDbLine
 10
701.7287703800874
 20
766.4319196579529
 30
0.0
 11
689.7287703800874
 21
766.4319196579529
 31
0.0
  0
LINE
  5
30A77
330
3081D
100
AcDbEntity
  8
AM_5
100
AcDbLine
 10
690.7287703800874
 20
729.4319196579529
 30
0.0
 11
690.7287703800874
 21
765.4319196579528
 31
0.0
  0
INSERT
  5
30A78
330
3081D
100
AcDbEntity
  8
AM_5
100
AcDbBlockReference
  2
_Dot
 10
690.7287703800874
 20
728.4319196579529
 30
0.0
 50
270.0
  0
INSERT
  5
30A79
330
3081D
100
AcDbEntity
  8
AM_5
100
AcDbBlockReference
  2
_Dot
 10
690.7287703800874
 20
766.4319196579529
 30
0.0
 50
90.0
  0
MTEXT
  5
30A7A
330
3081D
100
AcDbEntity
  8
AM_5
 62
     2
100
AcDbMText
 10
684.9621037134206
 20
747.4319196579529
 30
0.0
 40
3.200000000000001
 41
0.0
 71
     5
 72
     1
  1
38\P（切欠40×77）
 11
0.0000000000000001
 21
1.0
 31
0.0
 73
     1
 44
1.0
1001
ACAD
1000
MTEXTBEGIN
1070
    73
1070
     1
1070
    44
1040
1.0
1070
    74
1070
     0
1000
MTEXTEND
  0
POINT
  5
30A7B
330
3081D
100
AcDbEntity
  8
Defpoints
 62
     0
100
AcDbPoint
 10
702.7287703800874
 20
728.4319196579529
 30
0.0
  0
POINT
  5
30A7C
330
3081D
100
AcDbEntity
  8
Defpoints
 62
     0
100
AcDbPoint
 10
702.7287703800874
 20
766.4319196579529
 30
0.0
  0
POINT
  5
30A7D
330
3081D
100
AcDbEntity
  8
Defpoints
 62
     0
100
AcDbPoint
 10
690.7287703800874
 20
766.4319196579529
 30
0.0
  0
ENDBLK
  5
30828
330
3081D
100
AcDbEntity
  8
0
100
AcDbBlockEnd
  0
BLOCK
  5
308B2
330
308A7
100
AcDbEntity
  8
0
100
AcDbBlockBegin
  2
*D11
 70
     1
 10
0.0
 20
0.0
 30
0.0
  3
*D11
  1

  0
LINE
  5
30A7E
330
308A7
100
AcDbEntity
  8
AM_5
100
AcDbLine
 10
701.7287703800874
 20
607.5091020759197
 30
0.0
 11
689.7287703800874
 21
607.5091020759197
 31
0.0
  0
LINE
  5
30A7F
330
308A7
100
AcDbEntity
  8
AM_5
100
AcDbLine
 10
720.7287703800874
 20
600.0091020759197
 30
0.0
 11
689.7287703800874
 21
600.0091020759197
 31
0.0
  0
LINE
  5
30A80
330
308A7
100
AcDbEntity
  8
AM_5
100
AcDbLine
 10
690.7287703800874
 20
606.5091020759197
 30
0.0
 11
690.7287703800874
 21
601.0091020759197
 31
0.0
  0
LINE
  5
30A81
330
308A7
100
AcDbEntity
  8
AM_5
100
AcDbLine
 10
690.7287703800874
 20
600.0091020759197
 30
0.0
 11
690.7287703800874
 21
591.3157687425863
 31
0.0
  0
INSERT
  5
30A82
330
308A7
100
AcDbEntity
  8
AM_5
100
AcDbBlockReference
  2
_Dot
 10
690.7287703800874
 20
607.5091020759197
 30
0.0
 50
90.0
  0
INSERT
  5
30A83
330
308A7
100
AcDbEntity
  8
AM_5
100
AcDbBlockReference
  2
_Dot
 10
690.7287703800874
 20
600.0091020759197
 30
0.0
 50
270.0
  0
MTEXT
  5
30A84
330
308A7
100
AcDbEntity
  8
AM_5
 62
     2
100
AcDbMText
 10
687.6287703800873
 20
595.1624354092531
 30
0.0
 40
3.200000000000001
 41
0.0
 71
     5
 72
     1
  1
7.5
 11
0.0000000000000001
 21
1.0
 31
0.0
 73
     1
 44
1.0
1001
ACAD
1000
MTEXTBEGIN
1070
    73
1070
     1
1070
    44
1040
1.0
1070
    74
1070
     0
1000
MTEXTEND
  0
POINT
  5
30A85
330
308A7
100
AcDbEntity
  8
Defpoints
 62
     0
100
AcDbPoint
 10
702.7287703800874
 20
607.5091020759197
 30
0.0
  0
POINT
  5
30A86
330
308A7
100
AcDbEntity
  8
Defpoints
 62
     0
100
AcDbPoint
 10
721.7287703800874
 20
600.0091020759197
 30
0.0
  0
POINT
  5
30A87
330
308A7
100
AcDbEntity
  8
Defpoints
 62
     0
100
AcDbPoint
 10
690.7287703800874
 20
600.0091020759197
 30
0.0
  0
ENDBLK
  5
308B3
330
308A7
100
AcDbEntity
  8
0
100
AcDbBlockEnd
  0
BLOCK
  5
308CB
330
308C1
100
AcDbEntity
  8
0
100
AcDbBlockBegin
  2
*D12
 70
     1
 10
0.0
 20
0.0
 30
0.0
  3
*D12
  1

  0
LINE
  5
30A88
330
308C1
100
AcDbEntity
  8
AM_5
100
AcDbLine
 10
701.7287703800874
 20
607.5091020759197
 30
0.0
 11
689.7287703800874
 21
607.5091020759197
 31
0.0
  0
LINE
  5
30A89
330
308C1
100
AcDbEntity
  8
AM_5
100
AcDbLine
 10
701.7287703800874
 20
682.5091020759197
 30
0.0
 11
689.7287703800874
 21
682.5091020759197
 31
0.0
  0
LINE
  5
30A8A
330
308C1
100
AcDbEntity
  8
AM_5
100
AcDbLine
 10
690.7287703800874
 20
608.5091020759197
 30
0.0
 11
690.7287703800874
 21
681.5091020759197
 31
0.0
  0
INSERT
  5
30A8B
330
308C1
100
AcDbEntity
  8
AM_5
100
AcDbBlockReference
  2
_Dot
 10
690.7287703800874
 20
607.5091020759197
 30
0.0
 50
270.0
  0
INSERT
  5
30A8C
330
308C1
100
AcDbEntity
  8
AM_5
100
AcDbBlockReference
  2
_Dot
 10
690.7287703800874
 20
682.5091020759197
 30
0.0
 50
90.0
  0
MTEXT
  5
30A8D
330
308C1
100
AcDbEntity
  8
AM_5
 62
     2
100
AcDbMText
 10
687.6287703800873
 20
645.0091020759198
 30
0.0
 40
3.200000000000001
 41
0.0
 71
     5
 72
     1
  1
75
 11
0.0000000000000001
 21
1.0
 31
0.0
 73
     1
 44
1.0
1001
ACAD
1000
MTEXTBEGIN
1070
    73
1070
     1
1070
    44
1040
1.0
1070
    74
1070
     0
1000
MTEXTEND
  0
POINT
  5
30A8E
330
308C1
100
AcDbEntity
  8
Defpoints
 62
     0
100
AcDbPoint
 10
702.7287703800874
 20
607.5091020759197
 30
0.0
  0
POINT
  5
30A8F
330
308C1
100
AcDbEntity
  8
Defpoints
 62
     0
100
AcDbPoint
 10
702.7287703800874
 20
682.5091020759197
 30
0.0
  0
POINT
  5
30A90
330
308C1
100
AcDbEntity
  8
Defpoints
 62
     0
100
AcDbPoint
 10
690.7287703800874
 20
682.5091020759197
 30
0.0
  0
ENDBLK
  5
308CC
330
308C1
100
AcDbEntity
  8
0
100
AcDbBlockEnd
  0
BLOCK
  5
308E4
330
308D9
100
AcDbEntity
  8
0
100
AcDbBlockBegin
  2
*D13
 70
     1
 10
0.0
 20
0.0
 30
0.0
  3
*D13
  1

  0
LINE
  5
30A91
330
308D9
100
AcDbEntity
  8
AM_5
100
AcDbLine
 10
701.7287703800874
 20
682.5091020759197
 30
0.0
 11
689.7287703800871
 21
682.5091020759197
 31
0.0
  0
LINE
  5
30A92
330
308D9
100
AcDbEntity
  8
AM_5
100
AcDbLine
 10
720.7287703800874
 20
690.0091020759197
 30
0.0
 11
689.7287703800871
 21
690.0091020759197
 31
0.0
  0
LINE
  5
30A93
330
308D9
100
AcDbEntity
  8
AM_5
100
AcDbLine
 10
690.7287703800871
 20
683.5091020759197
 30
0.0
 11
690.7287703800871
 21
689.0091020759196
 31
0.0
  0
LINE
  5
30A94
330
308D9
100
AcDbEntity
  8
AM_5
100
AcDbLine
 10
690.7287703800871
 20
690.0091020759197
 30
0.0
 11
690.7287703800871
 21
698.7024354092531
 31
0.0
  0
INSERT
  5
30A95
330
308D9
100
AcDbEntity
  8
AM_5
100
AcDbBlockReference
  2
_Dot
 10
690.7287703800871
 20
682.5091020759197
 30
0.0
 50
270.0
  0
INSERT
  5
30A96
330
308D9
100
AcDbEntity
  8
AM_5
100
AcDbBlockReference
  2
_Dot
 10
690.7287703800871
 20
690.0091020759197
 30
0.0
 50
90.0
  0
MTEXT
  5
30A97
330
308D9
100
AcDbEntity
  8
AM_5
 62
     2
100
AcDbMText
 10
687.6287703800869
 20
694.8557687425865
 30
0.0
 40
3.200000000000001
 41
0.0
 71
     5
 72
     1
  1
7.5
 11
0.0000000000000001
 21
1.0
 31
0.0
 73
     1
 44
1.0
1001
ACAD
1000
MTEXTBEGIN
1070
    73
1070
     1
1070
    44
1040
1.0
1070
    74
1070
     0
1000
MTEXTEND
  0
POINT
  5
30A98
330
308D9
100
AcDbEntity
  8
Defpoints
 62
     0
100
AcDbPoint
 10
702.7287703800874
 20
682.5091020759197
 30
0.0
  0
POINT
  5
30A99
330
308D9
100
AcDbEntity
  8
Defpoints
 62
     0
100
AcDbPoint
 10
721.7287703800874
 20
690.0091020759197
 30
0.0
  0
POINT
  5
30A9A
330
308D9
100
AcDbEntity
  8
Defpoints
 62
     0
100
AcDbPoint
 10
690.7287703800871
 20
690.0091020759197
 30
0.0
  0
ENDBLK
  5
308E5
330
308D9
100
AcDbEntity
  8
0
100
AcDbBlockEnd
  0
BLOCK
  5
308FD
330
308F3
100
AcDbEntity
  8
0
100
AcDbBlockBegin
  2
*D14
 70
     1
 10
0.0
 20
0.0
 30
0.0
  3
*D14
  1

  0
LINE
  5
30A9B
330
308F3
100
AcDbEntity
  8
AM_5
100
AcDbLine
 10
724.7287703800874
 20
592.0091020759197
 30
0.0
 11
724.7287703800874
 21
575.0091020759197
 31
0.0
  0
LINE
  5
30A9C
330
308F3
100
AcDbEntity
  8
AM_5
100
AcDbLine
 10
735.2287703800874
 20
588.0091020759197
 30
0.0
 11
735.2287703800874
 21
575.0091020759197
 31
0.0
  0
LINE
  5
30A9D
330
308F3
100
AcDbEntity
  8
AM_5
100
AcDbLine
 10
725.7287703800874
 20
576.0091020759197
 30
0.0
 11
734.2287703800874
 21
576.0091020759197
 31
0.0
  0
INSERT
  5
30A9E
330
308F3
100
AcDbEntity
  8
AM_5
100
AcDbBlockReference
  2
_Dot
 10
724.7287703800874
 20
576.0091020759197
 30
0.0
 50
180.0
  0
INSERT
  5
30A9F
330
308F3
100
AcDbEntity
  8
AM_5
100
AcDbBlockReference
  2
_Dot
 10
735.2287703800874
 20
576.0091020759197
 30
0.0
  0
MTEXT
  5
30AA0
330
308F3
100
AcDbEntity
  8
AM_5
 62
     2
100
AcDbMText
 10
729.9787703800874
 20
579.1091020759197
 30
0.0
 40
3.200000000000001
 41
0.0
 71
     5
 72
     1
  1
10.5
 73
     1
 44
1.0
1001
ACAD
1000
MTEXTBEGIN
1070
    73
1070
     1
1070
    44
1040
1.0
1070
    74
1070
     0
1000
MTEXTEND
  0
POINT
  5
30AA1
330
308F3
100
AcDbEntity
  8
Defpoints
 62
     0
100
AcDbPoint
 10
724.7287703800874
 20
593.0091020759197
 30
0.0
  0
POINT
  5
30AA2
330
308F3
100
AcDbEntity
  8
Defpoints
 62
     0
100
AcDbPoint
 10
735.2287703800874
 20
589.0091020759196
 30
0.0
  0
POINT
  5
30AA3
330
308F3
100
AcDbEntity
  8
Defpoints
 62
     0
100
AcDbPoint
 10
735.2287703800874
 20
576.0091020759197
 30
0.0
  0
ENDBLK
  5
308FE
330
308F3
100
AcDbEntity
  8
0
100
AcDbBlockEnd
  0
BLOCK
  5
3091E
330
30914
100
AcDbEntity
  8
0
100
AcDbBlockBegin
  2
*D15
 70
     1
 10
0.0
 20
0.0
 30
0.0
  3
*D15
  1

  0
LINE
  5
30AA4
330
30914
100
AcDbEntity
  8
AM_5
100
AcDbLine
 10
724.7287703800874
 20
592.0091020759197
 30
0.0
 11
724.7287703800874
 21
575.0091020759191
 31
0.0
  0
LINE
  5
30AA5
330
30914
100
AcDbEntity
  8
AM_5
100
AcDbLine
 10
702.7287703800874
 20
606.5091020759197
 30
0.0
 11
702.7287703800874
 21
575.0091020759191
 31
0.0
  0
LINE
  5
30AA6
330
30914
100
AcDbEntity
  8
AM_5
100
AcDbLine
 10
723.7287703800874
 20
576.0091020759191
 30
0.0
 11
703.7287703800874
 21
576.0091020759191
 31
0.0
  0
INSERT
  5
30AA7
330
30914
100
AcDbEntity
  8
AM_5
100
AcDbBlockReference
  2
_Dot
 10
724.7287703800874
 20
576.0091020759191
 30
0.0
  0
INSERT
  5
30AA8
330
30914
100
AcDbEntity
  8
AM_5
100
AcDbBlockReference
  2
_Dot
 10
702.7287703800874
 20
576.0091020759191
 30
0.0
 50
180.0
  0
MTEXT
  5
30AA9
330
30914
100
AcDbEntity
  8
AM_5
 62
     2
100
AcDbMText
 10
713.7287703800874
 20
579.1091020759191
 30
0.0
 40
3.200000000000001
 41
0.0
 71
     5
 72
     1
  1
22
 73
     1
 44
1.0
1001
ACAD
1000
MTEXTBEGIN
1070
    73
1070
     1
1070
    44
1040
1.0
1070
    74
1070
     0
1000
MTEXTEND
  0
POINT
  5
30AAA
330
30914
100
AcDbEntity
  8
Defpoints
 62
     0
100
AcDbPoint
 10
724.7287703800874
 20
593.0091020759197
 30
0.0
  0
POINT
  5
30AAB
330
30914
100
AcDbEntity
  8
Defpoints
 62
     0
100
AcDbPoint
 10
702.7287703800874
 20
607.5091020759197
 30
0.0
  0
POINT
  5
30AAC
330
30914
100
AcDbEntity
  8
Defpoints
 62
     0
100
AcDbPoint
 10
702.7287703800874
 20
576.0091020759191
 30
0.0
  0
ENDBLK
  5
3091F
330
30914
100
AcDbEntity
  8
0
100
AcDbBlockEnd
  0
BLOCK
  5
30936
330
3092C
100
AcDbEntity
  8
0
100
AcDbBlockBegin
  2
*D16
 70
     1
 10
0.0
 20
0.0
 30
0.0
  3
*D16
  1

  0
LINE
  5
30AAD
330
3092C
100
AcDbEntity
  8
AM_5
100
AcDbLine
 10
735.2287703800874
 20
588.0091020759197
 30
0.0
 11
735.2287703800874
 21
565.0091020759186
 31
0.0
  0
LINE
  5
30AAE
330
3092C
100
AcDbEntity
  8
AM_5
100
AcDbLine
 10
702.7287703800874
 20
606.5091020759197
 30
0.0
 11
702.7287703800874
 21
565.0091020759186
 31
0.0
  0
LINE
  5
30AAF
330
3092C
100
AcDbEntity
  8
AM_5
100
AcDbLine
 10
734.2287703800874
 20
566.0091020759185
 30
0.0
 11
703.7287703800874
 21
566.0091020759185
 31
0.0
  0
INSERT
  5
30AB0
330
3092C
100
AcDbEntity
  8
AM_5
100
AcDbBlockReference
  2
_Dot
 10
735.2287703800874
 20
566.0091020759185
 30
0.0
  0
INSERT
  5
30AB1
330
3092C
100
AcDbEntity
  8
AM_5
100
AcDbBlockReference
  2
_Dot
 10
702.7287703800874
 20
566.0091020759185
 30
0.0
 50
180.0
  0
MTEXT
  5
30AB2
330
3092C
100
AcDbEntity
  8
AM_5
 62
     2
100
AcDbMText
 10
718.9787703800874
 20
569.1091020759186
 30
0.0
 40
3.200000000000001
 41
0.0
 71
     5
 72
     1
  1
32.5
 73
     1
 44
1.0
1001
ACAD
1000
MTEXTBEGIN
1070
    73
1070
     1
1070
    44
1040
1.0
1070
    74
1070
     0
1000
MTEXTEND
  0
POINT
  5
30AB3
330
3092C
100
AcDbEntity
  8
Defpoints
 62
     0
100
AcDbPoint
 10
735.2287703800874
 20
589.0091020759196
 30
0.0
  0
POINT
  5
30AB4
330
3092C
100
AcDbEntity
  8
Defpoints
 62
     0
100
AcDbPoint
 10
702.7287703800874
 20
607.5091020759197
 30
0.0
  0
POINT
  5
30AB5
330
3092C
100
AcDbEntity
  8
Defpoints
 62
     0
100
AcDbPoint
 10
702.7287703800874
 20
566.0091020759185
 30
0.0
  0
ENDBLK
  5
30937
330
3092C
100
AcDbEntity
  8
0
100
AcDbBlockEnd
  0
BLOCK
  5
30AD5
330
30ACB
100
AcDbEntity
  8
0
100
AcDbBlockBegin
  2
*D17
 70
     1
 10
0.0
 20
0.0
 30
0.0
  3
*D17
  1

  0
LINE
  5
30AD9
330
30ACB
100
AcDbEntity
  8
AM_5
100
AcDbLine
 10
860.9441384692214
 20
600.0053931292787
 30
0.0
 11
876.3441414919864
 21
600.0053931292787
 31
0.0
  0
LINE
  5
30ADA
330
30ACB
100
AcDbEntity
  8
AM_5
100
AcDbLine
 10
862.3441404819862
 20
588.0091020759197
 30
0.0
 11
876.3441414919864
 21
588.0091020759197
 31
0.0
  0
LINE
  5
30ADB
330
30ACB
100
AcDbEntity
  8
AM_5
100
AcDbLine
 10
875.3441414919862
 20
599.0053931292786
 30
0.0
 11
875.3441414919862
 21
589.0091020759196
 31
0.0
  0
INSERT
  5
30ADC
330
30ACB
100
AcDbEntity
  8
AM_5
100
AcDbBlockReference
  2
_Dot
 10
875.3441414919862
 20
600.0053931292787
 30
0.0
 50
90.0
  0
INSERT
  5
30ADD
330
30ACB
100
AcDbEntity
  8
AM_5
100
AcDbBlockReference
  2
_Dot
 10
875.3441414919862
 20
588.0091020759197
 30
0.0
 50
270.0
  0
MTEXT
  5
30ADE
330
30ACB
100
AcDbEntity
  8
AM_5
 62
     2
100
AcDbMText
 10
872.2441414919861
 20
594.0072476025993
 30
0.0
 40
3.200000000000001
 41
0.0
 71
     5
 72
     1
  1
12
 11
0.0000000000000001
 21
1.0
 31
0.0
 73
     1
 44
1.0
1001
ACAD
1000
MTEXTBEGIN
1070
    73
1070
     1
1070
    44
1040
1.0
1070
    74
1070
     0
1000
MTEXTEND
  0
POINT
  5
30ADF
330
30ACB
100
AcDbEntity
  8
Defpoints
 62
     0
100
AcDbPoint
 10
859.9441384692214
 20
600.0053931292787
 30
0.0
  0
POINT
  5
30AE0
330
30ACB
100
AcDbEntity
  8
Defpoints
 62
     0
100
AcDbPoint
 10
861.3441404819862
 20
588.0091020759197
 30
0.0
  0
POINT
  5
30AE1
330
30ACB
100
AcDbEntity
  8
Defpoints
 62
     0
100
AcDbPoint
 10
875.3441414919862
 20
588.0091020759197
 30
0.0
  0
ENDBLK
  5
30AD6
330
30ACB
100
AcDbEntity
  8
0
100
AcDbBlockEnd
  0
BLOCK
  5
30AED
330
30AE3
100
AcDbEntity
  8
0
100
AcDbBlockBegin
  2
*D18
 70
     1
 10
0.0
 20
0.0
 30
0.0
  3
*D18
  1

  0
LINE
  5
30B0C
330
30AE3
100
AcDbEntity
  8
AM_5
100
AcDbLine
 10
860.9441384649663
 20
600.005300880379
 30
0.0
 11
876.344140346679
 21
600.0038802471439
 31
0.0
  0
LINE
  5
30B0D
330
30AE3
100
AcDbEntity
  8
AM_5
100
AcDbLine
 10
860.9441384649663
 20
690.012718773661
 30
0.0
 11
876.3524434319093
 21
690.0112973744755
 31
0.0
  0
LINE
  5
30B0E
330
30AE3
100
AcDbEntity
  8
AM_5
100
AcDbLine
 10
875.3442325998337
 20
601.0039724917886
 30
0.0
 11
875.3523511872645
 21
689.0113896276302
 31
0.0
  0
INSERT
  5
30B0F
330
30AE3
100
AcDbEntity
  8
AM_5
100
AcDbBlockReference
  2
_Dot
 10
875.344140350934
 20
600.0039724960436
 30
0.0
 50
269.994714527375
  0
INSERT
  5
30B10
330
30AE3
100
AcDbEntity
  8
AM_5
100
AcDbBlockReference
  2
_Dot
 10
875.3524434361642
 20
690.0113896233753
 30
0.0
 50
89.99471452737497
  0
MTEXT
  5
30B11
330
30AE3
100
AcDbEntity
  8
AM_5
 62
     2
100
AcDbMText
 10
872.2482919067395
 20
645.0079670312986
 30
0.0
 40
3.200000000000001
 41
0.0
 71
     5
 72
     1
  1
90
 11
0.0000922488997
 21
0.9999999957450702
 31
0.0
 73
     1
 44
1.0
1001
ACAD
1000
MTEXTBEGIN
1070
    73
1070
     1
1070
    44
1040
1.0
1070
    74
1070
     0
1000
MTEXTEND
  0
POINT
  5
30B12
330
30AE3
100
AcDbEntity
  8
Defpoints
 62
     0
100
AcDbPoint
 10
859.9441384692212
 20
600.0053931292787
 30
0.0
  0
POINT
  5
30B13
330
30AE3
100
AcDbEntity
  8
Defpoints
 62
     0
100
AcDbPoint
 10
859.9441384692212
 20
690.0128110225607
 30
0.0
  0
POINT
  5
30B14
330
30AE3
100
AcDbEntity
  8
Defpoints
 62
     0
100
AcDbPoint
 10
875.3524434361642
 20
690.0113896233753
 30
0.0
  0
ENDBLK
  5
30AEE
330
30AE3
100
AcDbEntity
  8
0
100
AcDbBlockEnd
  0
BLOCK
  5
30B20
330
30B16
100
AcDbEntity
  8
0
100
AcDbBlockBegin
  2
*D19
 70
     1
 10
0.0
 20
0.0
 30
0.0
  3
*D19
  1

  0
LINE
  5
30B24
330
30B16
100
AcDbEntity
  8
AM_5
100
AcDbLine
 10
860.9441384692214
 20
690.0128110225607
 30
0.0
 11
876.3441414919864
 21
690.0128110225607
 31
0.0
  0
LINE
  5
30B25
330
30B16
100
AcDbEntity
  8
AM_5
100
AcDbLine
 10
862.3441403772666
 20
702.0091020759196
 30
0.0
 11
876.3441414919864
 21
702.0091020759196
 31
0.0
  0
LINE
  5
30B26
330
30B16
100
AcDbEntity
  8
AM_5
100
AcDbLine
 10
875.3441414919862
 20
691.0128110225607
 30
0.0
 11
875.3441414919862
 21
701.0091020759197
 31
0.0
  0
INSERT
  5
30B27
330
30B16
100
AcDbEntity
  8
AM_5
100
AcDbBlockReference
  2
_Dot
 10
875.3441414919862
 20
690.0128110225607
 30
0.0
 50
270.0
  0
INSERT
  5
30B28
330
30B16
100
AcDbEntity
  8
AM_5
100
AcDbBlockReference
  2
_Dot
 10
875.3441414919862
 20
702.0091020759196
 30
0.0
 50
90.0
  0
MTEXT
  5
30B29
330
30B16
100
AcDbEntity
  8
AM_5
 62
     2
100
AcDbMText
 10
872.2441414919861
 20
696.0109565492405
 30
0.0
 40
3.200000000000001
 41
0.0
 71
     5
 72
     1
  1
12
 11
0.0000000000000001
 21
1.0
 31
0.0
 73
     1
 44
1.0
1001
ACAD
1000
MTEXTBEGIN
1070
    73
1070
     1
1070
    44
1040
1.0
1070
    74
1070
     0
1000
MTEXTEND
  0
POINT
  5
30B2A
330
30B16
100
AcDbEntity
  8
Defpoints
 62
     0
100
AcDbPoint
 10
859.9441384692214
 20
690.0128110225607
 30
0.0
  0
POINT
  5
30B2B
330
30B16
100
AcDbEntity
  8
Defpoints
 62
     0
100
AcDbPoint
 10
861.3441403772666
 20
702.0091020759196
 30
0.0
  0
POINT
  5
30B2C
330
30B16
100
AcDbEntity
  8
Defpoints
 62
     0
100
AcDbPoint
 10
875.3441414919862
 20
702.0091020759196
 30
0.0
  0
ENDBLK
  5
30B21
330
30B16
100
AcDbEntity
  8
0
100
AcDbBlockEnd
  0
BLOCK
  5
30B38
330
30B2E
100
AcDbEntity
  8
0
100
AcDbBlockBegin
  2
*D20
 70
     1
 10
0.0
 20
0.0
 30
0.0
  3
*D20
  1

  0
LINE
  5
30B3C
330
30B2E
100
AcDbEntity
  8
AM_5
100
AcDbLine
 10
862.3441404819862
 20
588.0091020759197
 30
0.0
 11
886.3441414919867
 21
588.0091020759197
 31
0.0
  0
LINE
  5
30B3D
330
30B2E
100
AcDbEntity
  8
AM_5
100
AcDbLine
 10
862.3441403772666
 20
702.0091020759196
 30
0.0
 11
886.3441414919867
 21
702.0091020759196
 31
0.0
  0
LINE
  5
30B3E
330
30B2E
100
AcDbEntity
  8
AM_5
100
AcDbLine
 10
885.3441414919867
 20
589.0091020759196
 30
0.0
 11
885.3441414919867
 21
701.0091020759197
 31
0.0
  0
INSERT
  5
30B3F
330
30B2E
100
AcDbEntity
  8
AM_5
100
AcDbBlockReference
  2
_Dot
 10
885.3441414919867
 20
588.0091020759197
 30
0.0
 50
270.0
  0
INSERT
  5
30B40
330
30B2E
100
AcDbEntity
  8
AM_5
100
AcDbBlockReference
  2
_Dot
 10
885.3441414919867
 20
702.0091020759196
 30
0.0
 50
90.0
  0
MTEXT
  5
30B41
330
30B2E
100
AcDbEntity
  8
AM_5
 62
     2
100
AcDbMText
 10
882.2441414919865
 20
645.0091020759199
 30
0.0
 40
3.200000000000001
 41
0.0
 71
     5
 72
     1
  1
114
 11
0.0000000000000001
 21
1.0
 31
0.0
 73
     1
 44
1.0
1001
ACAD
1000
MTEXTBEGIN
1070
    73
1070
     1
1070
    44
1040
1.0
1070
    74
1070
     0
1000
MTEXTEND
  0
POINT
  5
30B42
330
30B2E
100
AcDbEntity
  8
Defpoints
 62
     0
100
AcDbPoint
 10
861.3441404819862
 20
588.0091020759197
 30
0.0
  0
POINT
  5
30B43
330
30B2E
100
AcDbEntity
  8
Defpoints
 62
     0
100
AcDbPoint
 10
861.3441403772666
 20
702.0091020759196
 30
0.0
  0
POINT
  5
30B44
330
30B2E
100
AcDbEntity
  8
Defpoints
 62
     0
100
AcDbPoint
 10
885.3441414919867
 20
702.0091020759196
 30
0.0
  0
ENDBLK
  5
30B39
330
30B2E
100
AcDbEntity
  8
0
100
AcDbBlockEnd
  0
BLOCK
  5
30BA9
330
30B9F
100
AcDbEntity
  8
0
100
AcDbBlockBegin
  2
*D21
 70
     1
 10
0.0
 20
0.0
 30
0.0
  3
*D21
  1

  0
LINE
  5
30BB6
102
{ACAD_REACTORS
330
30BCD
102
}
330
30B9F
100
AcDbEntity
  8
AM_5
100
AcDbLine
 10
850.8373867983316
 20
592.9091059146294
 30
0.0
 11
850.8373867983316
 21
577.0091020759196
 31
0.0
  0
LINE
  5
30BB7
330
30B9F
100
AcDbEntity
  8
AM_5
100
AcDbLine
 10
863.3441404819862
 20
589.0091020759196
 30
0.0
 11
863.3441404819862
 21
577.0091020759196
 31
0.0
  0
LINE
  5
30BB8
330
30B9F
100
AcDbEntity
  8
AM_5
100
AcDbLine
 10
851.8373867983315
 20
578.0091020759197
 30
0.0
 11
862.3441404819862
 21
578.0091020759197
 31
0.0
  0
INSERT
  5
30BB9
330
30B9F
100
AcDbEntity
  8
AM_5
100
AcDbBlockReference
  2
_Dot
 10
850.8373867983316
 20
578.0091020759197
 30
0.0
 50
180.0
  0
INSERT
  5
30BBA
330
30B9F
100
AcDbEntity
  8
AM_5
100
AcDbBlockReference
  2
_Dot
 10
863.3441404819862
 20
578.0091020759197
 30
0.0
  0
MTEXT
  5
30BBB
330
30B9F
100
AcDbEntity
  8
AM_5
 62
     2
100
AcDbMText
 10
857.0907636401589
 20
581.1091020759197
 30
0.0
 40
3.200000000000001
 41
0.0
 71
     5
 72
     1
  1
12.5
 73
     1
 44
1.0
1001
ACAD
1000
MTEXTBEGIN
1070
    73
1070
     1
1070
    44
1040
1.0
1070
    74
1070
     0
1000
MTEXTEND
  0
POINT
  5
30BBC
330
30B9F
100
AcDbEntity
  8
Defpoints
 62
     0
100
AcDbPoint
 10
850.8373867983316
 20
593.9091059146294
 30
0.0
  0
POINT
  5
30BBD
330
30B9F
100
AcDbEntity
  8
Defpoints
 62
     0
100
AcDbPoint
 10
863.3441404819862
 20
590.0091020759197
 30
0.0
  0
POINT
  5
30BBE
330
30B9F
100
AcDbEntity
  8
Defpoints
 62
     0
100
AcDbPoint
 10
863.3441404819862
 20
578.0091020759197
 30
0.0
  0
ENDBLK
  5
30BAA
330
30B9F
100
AcDbEntity
  8
0
100
AcDbBlockEnd
  0
BLOCK
  5
30BCA
330
30BC0
100
AcDbEntity
  8
0
100
AcDbBlockBegin
  2
*D22
 70
     1
 10
0.0
 20
0.0
 30
0.0
  3
*D22
  1

  0
LINE
  5
30BCE
330
30BC0
100
AcDbEntity
  8
AM_5
100
AcDbLine
 10
850.8373867983316
 20
591.9091059146294
 30
0.0
 11
850.8373867983316
 21
577.009102075919
 31
0.0
  0
LINE
  5
30BCF
330
30BC0
100
AcDbEntity
  8
AM_5
100
AcDbLine
 10
825.8373867983316
 20
592.9091059146294
 30
0.0
 11
825.8373867983316
 21
577.009102075919
 31
0.0
  0
LINE
  5
30BD0
330
30BC0
100
AcDbEntity
  8
AM_5
100
AcDbLine
 10
849.8373867983316
 20
578.009102075919
 30
0.0
 11
826.8373867983315
 21
578.009102075919
 31
0.0
  0
INSERT
  5
30BD1
330
30BC0
100
AcDbEntity
  8
AM_5
100
AcDbBlockReference
  2
_Dot
 10
850.8373867983316
 20
578.009102075919
 30
0.0
  0
INSERT
  5
30BD2
330
30BC0
100
AcDbEntity
  8
AM_5
100
AcDbBlockReference
  2
_Dot
 10
825.8373867983316
 20
578.009102075919
 30
0.0
 50
180.0
  0
MTEXT
  5
30BD3
330
30BC0
100
AcDbEntity
  8
AM_5
 62
     2
100
AcDbMText
 10
838.3373867983316
 20
581.1091020759191
 30
0.0
 40
3.200000000000001
 41
0.0
 71
     5
 72
     1
  1
25
 73
     1
 44
1.0
1001
ACAD
1000
MTEXTBEGIN
1070
    73
1070
     1
1070
    44
1040
1.0
1070
    74
1070
     0
1000
MTEXTEND
  0
POINT
  5
30BD4
330
30BC0
100
AcDbEntity
  8
Defpoints
 62
     0
100
AcDbPoint
 10
850.8373867983316
 20
592.9091059146294
 30
0.0
  0
POINT
  5
30BD5
330
30BC0
100
AcDbEntity
  8
Defpoints
 62
     0
100
AcDbPoint
 10
825.8373867983316
 20
593.9091059146294
 30
0.0
  0
POINT
  5
30BD6
330
30BC0
100
AcDbEntity
  8
Defpoints
 62
     0
100
AcDbPoint
 10
825.8373867983316
 20
578.009102075919
 30
0.0
  0
ENDBLK
  5
30BCB
330
30BC0
100
AcDbEntity
  8
0
100
AcDbBlockEnd
  0
BLOCK
  5
30BE2
330
30BD8
100
AcDbEntity
  8
0
100
AcDbBlockBegin
  2
*D23
 70
     1
 10
0.0
 20
0.0
 30
0.0
  3
*D23
  1

  0
LINE
  5
30BEF
330
30BD8
100
AcDbEntity
  8
AM_5
100
AcDbLine
 10
825.8373867983316
 20
592.9091059146294
 30
0.0
 11
825.8373867983316
 21
577.0091020759183
 31
0.0
  0
LINE
  5
30BF0
330
30BD8
100
AcDbEntity
  8
AM_5
100
AcDbLine
 10
813.3441404819862
 20
589.0091020759196
 30
0.0
 11
813.3441404819862
 21
577.0091020759183
 31
0.0
  0
LINE
  5
30BF1
330
30BD8
100
AcDbEntity
  8
AM_5
100
AcDbLine
 10
824.8373867983316
 20
578.0091020759183
 30
0.0
 11
814.3441404819864
 21
578.0091020759183
 31
0.0
  0
INSERT
  5
30BF2
330
30BD8
100
AcDbEntity
  8
AM_5
100
AcDbBlockReference
  2
_Dot
 10
825.8373867983316
 20
578.0091020759183
 30
0.0
  0
INSERT
  5
30BF3
330
30BD8
100
AcDbEntity
  8
AM_5
100
AcDbBlockReference
  2
_Dot
 10
813.3441404819862
 20
578.0091020759183
 30
0.0
 50
180.0
  0
MTEXT
  5
30BF4
330
30BD8
100
AcDbEntity
  8
AM_5
 62
     2
100
AcDbMText
 10
819.5907636401589
 20
581.1091020759183
 30
0.0
 40
3.200000000000001
 41
0.0
 71
     5
 72
     1
  1
12.5
 73
     1
 44
1.0
1001
ACAD
1000
MTEXTBEGIN
1070
    73
1070
     1
1070
    44
1040
1.0
1070
    74
1070
     0
1000
MTEXTEND
  0
POINT
  5
30BF5
330
30BD8
100
AcDbEntity
  8
Defpoints
 62
     0
100
AcDbPoint
 10
825.8373867983316
 20
593.9091059146294
 30
0.0
  0
POINT
  5
30BF6
330
30BD8
100
AcDbEntity
  8
Defpoints
 62
     0
100
AcDbPoint
 10
813.3441404819862
 20
590.0091020759197
 30
0.0
  0
POINT
  5
30BF7
330
30BD8
100
AcDbEntity
  8
Defpoints
 62
     0
100
AcDbPoint
 10
813.3441404819862
 20
578.0091020759183
 30
0.0
  0
ENDBLK
  5
30BE3
330
30BD8
100
AcDbEntity
  8
0
100
AcDbBlockEnd
  0
BLOCK
  5
30C05
330
30BF9
100
AcDbEntity
  8
0
100
AcDbBlockBegin
  2
*D24
 70
     1
 10
0.0
 20
0.0
 30
0.0
  3
*D24
  1

  0
LINE
  5
30C09
330
30BF9
100
AcDbEntity
  8
AM_5
100
AcDbLine
 10
839.3441404819864
 20
648.0091020759196
 30
0.0
 11
839.3441404819864
 21
641.6994228575645
 31
0.0
  0
LINE
  5
30C0A
330
30BF9
100
AcDbEntity
  8
AM_5
100
AcDbLine
 10
838.3441404819862
 20
647.7411528834885
 30
0.0
 11
838.3441404819862
 21
641.6994228575645
 31
0.0
  0
LINE
  5
30C0B
330
30BF9
100
AcDbEntity
  8
AM_5
100
AcDbLine
 10
840.3441404819863
 20
642.6994228575645
 30
0.0
 11
841.3441404819863
 21
642.6994228575645
 31
0.0
  0
LINE
  5
30C0C
330
30BF9
100
AcDbEntity
  8
AM_5
100
AcDbLine
 10
837.3441404819862
 20
642.6994228575645
 30
0.0
 11
832.810807148653
 21
642.6994228575645
 31
0.0
  0
LINE
  5
30C0D
330
30BF9
100
AcDbEntity
  8
AM_5
100
AcDbLine
 10
839.3441404819864
 20
642.6994228575645
 30
0.0
 11
838.3441404819862
 21
642.6994228575645
 31
0.0
  0
INSERT
  5
30C0E
330
30BF9
100
AcDbEntity
  8
AM_5
100
AcDbBlockReference
  2
_Dot
 10
839.3441404819864
 20
642.6994228575645
 30
0.0
 50
180.0
  0
INSERT
  5
30C0F
330
30BF9
100
AcDbEntity
  8
AM_5
100
AcDbBlockReference
  2
_Dot
 10
838.3441404819862
 20
642.6994228575645
 30
0.0
  0
MTEXT
  5
30C10
330
30BF9
100
AcDbEntity
  8
AM_5
 62
     2
100
AcDbMText
 10
834.5774738153195
 20
645.7994228575645
 30
0.0
 40
3.200000000000001
 41
0.0
 71
     5
 72
     1
  1
1
 73
     1
 44
1.0
1001
ACAD
1000
MTEXTBEGIN
1070
    73
1070
     1
1070
    44
1040
1.0
1070
    74
1070
     0
1000
MTEXTEND
  0
POINT
  5
30C11
330
30BF9
100
AcDbEntity
  8
Defpoints
 62
     0
100
AcDbPoint
 10
839.3441404819864
 20
649.0091020759197
 30
0.0
  0
POINT
  5
30C12
330
30BF9
100
AcDbEntity
  8
Defpoints
 62
     0
100
AcDbPoint
 10
838.3441404819862
 20
648.7411528834885
 30
0.0
  0
POINT
  5
30C13
330
30BF9
100
AcDbEntity
  8
Defpoints
 62
     0
100
AcDbPoint
 10
838.3441404819862
 20
642.6994228575645
 30
0.0
  0
ENDBLK
  5
30C06
330
30BF9
100
AcDbEntity
  8
0
100
AcDbBlockEnd
  0
BLOCK
  5
30C42
330
30C38
100
AcDbEntity
  8
0
100
AcDbBlockBegin
  2
*D25
 70
     1
 10
0.0
 20
0.0
 30
0.0
  3
*D25
  1

  0
LINE
  5
30C46
330
30C38
100
AcDbEntity
  8
AM_5
100
AcDbLine
 10
815.744140594751
 20
690.0088258702727
 30
0.0
 11
803.7441405947511
 21
690.0088258702727
 31
0.0
  0
LINE
  5
30C47
330
30C38
100
AcDbEntity
  8
AM_5
100
AcDbLine
 10
822.3441404819862
 20
665.0091020759197
 30
0.0
 11
803.7441405947511
 21
665.0091020759197
 31
0.0
  0
LINE
  5
30C48
330
30C38
100
AcDbEntity
  8
AM_5
100
AcDbLine
 10
804.7441405947511
 20
689.0088258702727
 30
0.0
 11
804.7441405947511
 21
666.0091020759197
 31
0.0
  0
INSERT
  5
30C49
330
30C38
100
AcDbEntity
  8
AM_5
100
AcDbBlockReference
  2
_Dot
 10
804.7441405947511
 20
690.0088258702727
 30
0.0
 50
90.0
  0
INSERT
  5
30C4A
330
30C38
100
AcDbEntity
  8
AM_5
100
AcDbBlockReference
  2
_Dot
 10
804.7441405947511
 20
665.0091020759197
 30
0.0
 50
270.0
  0
MTEXT
  5
30C4B
330
30C38
100
AcDbEntity
  8
AM_5
 62
     2
100
AcDbMText
 10
801.644140594751
 20
677.5089639730964
 30
0.0
 40
3.200000000000001
 41
0.0
 71
     5
 72
     1
  1
25
 11
0.0000000000000001
 21
1.0
 31
0.0
 73
     1
 44
1.0
1001
ACAD
1000
MTEXTBEGIN
1070
    73
1070
     1
1070
    44
1040
1.0
1070
    74
1070
     0
1000
MTEXTEND
  0
POINT
  5
30C4C
330
30C38
100
AcDbEntity
  8
Defpoints
 62
     0
100
AcDbPoint
 10
816.744140594751
 20
690.0088258702727
 30
0.0
  0
POINT
  5
30C4D
330
30C38
100
AcDbEntity
  8
Defpoints
 62
     0
100
AcDbPoint
 10
823.3441404819863
 20
665.0091020759197
 30
0.0
  0
POINT
  5
30C4E
330
30C38
100
AcDbEntity
  8
Defpoints
 62
     0
100
AcDbPoint
 10
804.7441405947511
 20
665.0091020759197
 30
0.0
  0
ENDBLK
  5
30C43
330
30C38
100
AcDbEntity
  8
0
100
AcDbBlockEnd
  0
ENDSEC
  0
SECTION
  2
ENTITIES
  0
TEXT
  5
2CB67
330
1F
100
AcDbEntity
  8
AM_6
 60
     1
100
AcDbText
 10
938.6775623572388
 20
554.4811031702102
 30
0.0
 40
2.5
  1
!GENTITLE-INSERT
100
AcDbText
  0
TEXT
  5
2CB68
330
1F
100
AcDbEntity
  8
AM_6
 60
     1
100
AcDbText
 10
530.177562357239
 20
545.9811031702098
 30
0.0
 40
2.5
  1
!GENTITLE-LL
100
AcDbText
  0
TEXT
  5
2CB69
330
1F
100
AcDbEntity
  8
AM_6
 60
     1
100
AcDbText
 10
950.177562357239
 20
842.9811031702101
 30
0.0
 40
2.5
  1
!GENTITLE-RU
100
AcDbText
  0
TEXT
  5
2CB6A
330
1F
100
AcDbEntity
  8
AM_6
 60
     1
100
AcDbText
 10
950.177562357239
 20
842.9811031702101
 30
0.0
 40
2.5
  1
!GENTITLE-MAX
100
AcDbText
  0
LINE
  5
2CB6C
330
1F
100
AcDbEntity
  8
size
100
AcDbLine
 10
530.177562357239
 20
545.9811031702098
 30
0.0
 11
950.177562357239
 21
545.9811031702098
 31
0.0
1001
GENIUS_GENREC_14
1002
{
1000
PYDIR
1011
530.177562357239
1021
842.9811031702101
1031
0.0
1002
}
1002
{
1000
PXDIR
1011
950.177562357239
1021
545.9811031702098
1031
0.0
1002
}
1002
{
1000
PORI
1011
530.177562357239
1021
545.9811031702098
1031
0.0
1002
}
1002
{
1000
PINS
1011
740.177562357239
1021
694.4811031702101
1031
0.0
1002
}
1002
{
1000
HVAL
1000
297
1002
}
1002
{
1000
H
1070
     2
1002
}
1002
{
1000
WVAL
1000
420
1002
}
1002
{
1000
W
1070
     2
1002
}
1002
{
1000
C
1070
     4
1002
}
1001
GENIUS_GENOBJ-N-REC_13
1002
{
1000
OWNER
1000
GEN
1002
}
1001
GENIUS_GENODEF_13
1002
{
1000
HIER
1070
     0
1002
}
1002
{
1000
MANEDIT
1070
     0
1002
}
1002
{
1000
NOSEL
1070
     0
1002
}
1002
{
1000
BEHIND
1070
     0
1002
}
1002
{
1000
OTHER
1070
     0
1002
}
1002
{
1000
REACTOR
1002
}
  0
LINE
  5
2CB6D
330
1F
100
AcDbEntity
  8
size
100
AcDbLine
 10
950.177562357239
 20
545.9811031702098
 30
0.0
 11
950.177562357239
 21
842.9811031702101
 31
0.0
1001
GENIUS_GENREC_14
1002
{
1000
PYDIR
1011
530.177562357239
1021
842.9811031702101
1031
0.0
1002
}
1002
{
1000
PXDIR
1011
950.177562357239
1021
545.9811031702098
1031
0.0
1002
}
1002
{
1000
PORI
1011
530.177562357239
1021
545.9811031702098
1031
0.0
1002
}
1002
{
1000
PINS
1011
740.177562357239
1021
694.4811031702101
1031
0.0
1002
}
1002
{
1000
HVAL
1000
297
1002
}
1002
{
1000
H
1070
     2
1002
}
1002
{
1000
WVAL
1000
420
1002
}
1002
{
1000
W
1070
     2
1002
}
1002
{
1000
C
1070
     4
1002
}
1001
GENIUS_GENOBJ-N-REC_13
1002
{
1000
OWNER
1000
GEN
1002
}
1001
GENIUS_GENODEF_13
1002
{
1000
HIER
1070
     0
1002
}
1002
{
1000
MANEDIT
1070
     0
1002
}
1002
{
1000
NOSEL
1070
     0
1002
}
1002
{
1000
BEHIND
1070
     0
1002
}
1002
{
1000
OTHER
1070
     0
1002
}
1002
{
1000
REACTOR
1002
}
  0
LINE
  5
2CB6E
330
1F
100
AcDbEntity
  8
size
100
AcDbLine
 10
950.177562357239
 20
842.9811031702101
 30
0.0
 11
530.177562357239
 21
842.9811031702101
 31
0.0
1001
GENIUS_GENREC_14
1002
{
1000
PYDIR
1011
530.177562357239
1021
842.9811031702101
1031
0.0
1002
}
1002
{
1000
PXDIR
1011
950.177562357239
1021
545.9811031702098
1031
0.0
1002
}
1002
{
1000
PORI
1011
530.177562357239
1021
545.9811031702098
1031
0.0
1002
}
1002
{
1000
PINS
1011
740.177562357239
1021
694.4811031702101
1031
0.0
1002
}
1002
{
1000
HVAL
1000
297
1002
}
1002
{
1000
H
1070
     2
1002
}
1002
{
1000
WVAL
1000
420
1002
}
1002
{
1000
W
1070
     2
1002
}
1002
{
1000
C
1070
     4
1002
}
1001
GENIUS_GENOBJ-N-REC_13
1002
{
1000
OWNER
1000
GEN
1002
}
1001
GENIUS_GENODEF_13
1002
{
1000
HIER
1070
     0
1002
}
1002
{
1000
MANEDIT
1070
     0
1002
}
1002
{
1000
NOSEL
1070
     0
1002
}
1002
{
1000
BEHIND
1070
     0
1002
}
1002
{
1000
OTHER
1070
     0
1002
}
1002
{
1000
REACTOR
1002
}
  0
LINE
  5
2CB6F
330
1F
100
AcDbEntity
  8
size
100
AcDbLine
 10
530.177562357239
 20
842.9811031702101
 30
0.0
 11
530.177562357239
 21
545.9811031702098
 31
0.0
1001
GENIUS_GENREC_14
1002
{
1000
PYDIR
1011
530.177562357239
1021
842.9811031702101
1031
0.0
1002
}
1002
{
1000
PXDIR
1011
950.177562357239
1021
545.9811031702098
1031
0.0
1002
}
1002
{
1000
PORI
1011
530.177562357239
1021
545.9811031702098
1031
0.0
1002
}
1002
{
1000
PINS
1011
740.177562357239
1021
694.4811031702101
1031
0.0
1002
}
1002
{
1000
HVAL
1000
297
1002
}
1002
{
1000
H
1070
     2
1002
}
1002
{
1000
WVAL
1000
420
1002
}
1002
{
1000
W
1070
     2
1002
}
1002
{
1000
C
1070
     4
1002
}
1001
GENIUS_GENOBJ-N-REC_13
1002
{
1000
OWNER
1000
GEN
1002
}
1001
GENIUS_GENODEF_13
1002
{
1000
HIER
1070
     0
1002
}
1002
{
1000
MANEDIT
1070
     0
1002
}
1002
{
1000
NOSEL
1070
     0
1002
}
1002
{
1000
BEHIND
1070
     0
1002
}
1002
{
1000
OTHER
1070
     0
1002
}
1002
{
1000
REACTOR
1002
}
  0
LINE
  5
2CB70
330
1F
100
AcDbEntity
  8
waku
100
AcDbLine
 10
938.6775623572388
 20
554.4811031702102
 30
0.0
 11
938.677562357239
 21
834.4811031702104
 31
0.0
1001
GENIUS_GENREC_14
1002
{
1000
PYDIR
1011
530.177562357239
1021
842.9811031702101
1031
0.0
1002
}
1002
{
1000
PXDIR
1011
950.177562357239
1021
545.9811031702098
1031
0.0
1002
}
1002
{
1000
PORI
1011
530.177562357239
1021
545.9811031702098
1031
0.0
1002
}
1002
{
1000
PINS
1011
740.177562357239
1021
694.4811031702101
1031
0.0
1002
}
1002
{
1000
HVAL
1000
297
1002
}
1002
{
1000
H
1070
     2
1002
}
1002
{
1000
WVAL
1000
420
1002
}
1002
{
1000
W
1070
     2
1002
}
1002
{
1000
C
1070
     4
1002
}
1001
GENIUS_GENOBJ-N-REC_13
1002
{
1000
OWNER
1000
GEN
1002
}
1001
GENIUS_GENODEF_13
1002
{
1000
HIER
1070
     0
1002
}
1002
{
1000
MANEDIT
1070
     0
1002
}
1002
{
1000
NOSEL
1070
     0
1002
}
1002
{
1000
BEHIND
1070
     0
1002
}
1002
{
1000
OTHER
1070
     0
1002
}
1002
{
1000
REACTOR
1002
}
  0
LINE
  5
2CB71
330
1F
100
AcDbEntity
  8
waku
100
AcDbLine
 10
541.677562357239
 20
834.4811031702104
 30
0.0
 11
541.677562357239
 21
554.4811031702102
 31
0.0
1001
GENIUS_GENREC_14
1002
{
1000
PYDIR
1011
530.177562357239
1021
842.9811031702101
1031
0.0
1002
}
1002
{
1000
PXDIR
1011
950.177562357239
1021
545.9811031702098
1031
0.0
1002
}
1002
{
1000
PORI
1011
530.177562357239
1021
545.9811031702098
1031
0.0
1002
}
1002
{
1000
PINS
1011
740.177562357239
1021
694.4811031702101
1031
0.0
1002
}
1002
{
1000
HVAL
1000
297
1002
}
1002
{
1000
H
1070
     2
1002
}
1002
{
1000
WVAL
1000
420
1002
}
1002
{
1000
W
1070
     2
1002
}
1002
{
1000
C
1070
     4
1002
}
1001
GENIUS_GENOBJ-N-REC_13
1002
{
1000
OWNER
1000
GEN
1002
}
1001
GENIUS_GENODEF_13
1002
{
1000
HIER
1070
     0
1002
}
1002
{
1000
MANEDIT
1070
     0
1002
}
1002
{
1000
NOSEL
1070
     0
1002
}
1002
{
1000
BEHIND
1070
     0
1002
}
1002
{
1000
OTHER
1070
     0
1002
}
1002
{
1000
REACTOR
1002
}
  0
LINE
  5
2CB72
330
1F
100
AcDbEntity
  8
waku
100
AcDbLine
 10
938.677562357239
 20
834.4811031702104
 30
0.0
 11
541.677562357239
 21
834.4811031702104
 31
0.0
1001
GENIUS_GENREC_14
1002
{
1000
PYDIR
1011
530.177562357239
1021
842.9811031702101
1031
0.0
1002
}
1002
{
1000
PXDIR
1011
950.177562357239
1021
545.9811031702098
1031
0.0
1002
}
1002
{
1000
PORI
1011
530.177562357239
1021
545.9811031702098
1031
0.0
1002
}
1002
{
1000
PINS
1011
740.177562357239
1021
694.4811031702101
1031
0.0
1002
}
1002
{
1000
HVAL
1000
297
1002
}
1002
{
1000
H
1070
     2
1002
}
1002
{
1000
WVAL
1000
420
1002
}
1002
{
1000
W
1070
     2
1002
}
1002
{
1000
C
1070
     4
1002
}
1001
GENIUS_GENOBJ-N-REC_13
1002
{
1000
OWNER
1000
GEN
1002
}
1001
GENIUS_GENODEF_13
1002
{
1000
HIER
1070
     0
1002
}
1002
{
1000
MANEDIT
1070
     0
1002
}
1002
{
1000
NOSEL
1070
     0
1002
}
1002
{
1000
BEHIND
1070
     0
1002
}
1002
{
1000
OTHER
1070
     0
1002
}
1002
{
1000
REACTOR
1002
}
  0
TEXT
  5
2CB73
330
1F
100
AcDbEntity
  8
AM_6
 60
     1
100
AcDbText
 10
530.177562357239
 20
545.9811031702098
 30
0.0
 40
2.5
  1
!GENTITLE-LL
100
AcDbText
  0
TEXT
  5
2CB74
330
1F
100
AcDbEntity
  8
AM_6
 60
     1
100
AcDbText
 10
938.677562357239
 20
834.4811031702104
 30
0.0
 40
2.5
  1
!GENTITLE-RU
100
AcDbText
  0
TEXT
  5
2CB75
330
1F
100
AcDbEntity
  8
AM_6
 60
     1
100
AcDbText
 10
950.177562357239
 20
842.9811031702101
 30
0.0
 40
2.5
  1
!GENTITLE-MAX
100
AcDbText
  0
TEXT
  5
2CB76
330
1F
100
AcDbEntity
  8
AM_6
 60
     1
100
AcDbText
 10
938.6775623572388
 20
554.4811031702102
 30
0.0
 40
2.5
  1
!GENTITLE-INSERT
100
AcDbText
  0
LINE
  5
2CB77
330
1F
100
AcDbEntity
  8
waku
100
AcDbLine
 10
541.677562357239
 20
554.4811031702102
 30
0.0
 11
938.6775623572388
 21
554.4811031702102
 31
0.0
  0
LINE
  5
2FD03
330
1F
100
AcDbEntity
  8
AM_0
100
AcDbLine
 10
541.677562357239
 20
834.4811031702104
 30
0.0
 11
636.2470738526577
 21
834.4811031702104
 31
0.0
  0
LINE
  5
2FD04
330
1F
100
AcDbEntity
  8
AM_2
100
AcDbLine
 10
564.6775623572392
 20
786.48110317021
 30
0.0
 11
636.2470738526577
 21
786.48110317021
 31
0.0
  0
LINE
  5
2FD05
330
1F
100
AcDbEntity
  8
AM_2
100
AcDbLine
 10
564.6775623572391
 20
794.4811031702101
 30
0.0
 11
636.2470738526577
 21
794.4811031702101
 31
0.0
  0
LINE
  5
2FD06
330
1F
100
AcDbEntity
  8
AM_2
100
AcDbLine
 10
541.677562357239
 20
802.48110317021
 30
0.0
 11
636.2470738526577
 21
802.48110317021
 31
0.0
  0
LINE
  5
2FD07
330
1F
100
AcDbEntity
  8
AM_2
100
AcDbLine
 10
541.677562357239
 20
810.4811031702103
 30
0.0
 11
636.2470738526577
 21
810.4811031702103
 31
0.0
  0
LINE
  5
2FD08
330
1F
100
AcDbEntity
  8
AM_2
100
AcDbLine
 10
541.677562357239
 20
818.4811031702103
 30
0.0
 11
636.2470738526577
 21
818.4811031702103
 31
0.0
  0
LINE
  5
2FD09
330
1F
100
AcDbEntity
  8
AM_2
100
AcDbLine
 10
541.677562357239
 20
826.4811031702103
 30
0.0
 11
636.2470738526577
 21
826.4811031702103
 31
0.0
  0
LINE
  5
2FD0A
330
1F
100
AcDbEntity
  8
AM_0
100
AcDbLine
 10
541.677562357239
 20
834.4811031702104
 30
0.0
 11
541.6775623572391
 21
786.4811031702103
 31
0.0
  0
LINE
  5
2FD0B
330
1F
100
AcDbEntity
  8
AM_2
100
AcDbLine
 10
564.677562357239
 20
834.4811031702104
 30
0.0
 11
564.6775623572392
 21
786.48110317021
 31
0.0
  0
MTEXT
  5
2FD0C
330
1F
100
AcDbEntity
  8
AM_6
100
AcDbMText
 10
553.177562357239
 20
806.4811031702102
 30
0.0
 40
3.2
 41
23.0
 71
     5
 72
     5
  1
仕上げ
 73
     1
 44
1.0
1001
ACAD
1000
MTEXTBEGIN
1070
    73
1070
     1
1070
    44
1040
1.0
1070
    74
1070
     0
1000
MTEXTEND
  0
MTEXT
  5
2FD0D
330
1F
100
AcDbEntity
  8
AM_6
100
AcDbMText
 10
553.177562357239
 20
814.4811031702101
 30
0.0
 40
3.2
 41
23.0
 71
     5
 72
     5
  1
材質
 73
     1
 44
1.0
1001
ACAD
1000
MTEXTBEGIN
1070
    73
1070
     1
1070
    44
1040
1.0
1070
    74
1070
     0
1000
MTEXTEND
  0
MTEXT
  5
2FD0E
330
1F
100
AcDbEntity
  8
AM_6
100
AcDbMText
 10
553.177562357239
 20
830.4811031702101
 30
0.0
 40
3.2
 41
23.0
 71
     5
 72
     5
  1
品名
 73
     1
 44
1.0
1001
ACAD
1000
MTEXTBEGIN
1070
    73
1070
     1
1070
    44
1040
1.0
1070
    74
1070
     0
1000
MTEXTEND
  0
MTEXT
  5
2FD0F
330
1F
100
AcDbEntity
  8
AM_6
100
AcDbMText
 10
553.177562357239
 20
822.4811031702101
 30
0.0
 40
3.2
 41
23.0
 71
     5
 72
     5
  1
品番
 73
     1
 44
1.0
1001
ACAD
1000
MTEXTBEGIN
1070
    73
1070
     1
1070
    44
1040
1.0
1070
    74
1070
     0
1000
MTEXTEND
  0
MTEXT
  5
2FD10
330
1F
100
AcDbEntity
  8
AM_6
100
AcDbMText
 10
564.677562357239
 20
806.4811031702102
 30
0.0
 40
3.2
 41
90.0
 71
     4
 72
     5
  1
　ダルクロームメッキ
 73
     1
 44
1.0
1001
ACAD
1000
MTEXTBEGIN
1070
    73
1070
     1
1070
    44
1040
1.0
1070
    74
1070
     0
1000
MTEXTEND
  0
MTEXT
  5
2FD11
330
1F
100
AcDbEntity
  8
AM_6
100
AcDbMText
 10
564.677562357239
 20
814.4811031702101
 30
0.0
 40
3.2
 41
90.0
 71
     4
 72
     5
  1
　真鍮鋳物
 73
     1
 44
1.0
1001
ACAD
1000
MTEXTBEGIN
1070
    73
1070
     1
1070
    44
1040
1.0
1070
    74
1070
     0
1000
MTEXTEND
  0
MTEXT
  5
2FD12
330
1F
100
AcDbEntity
  8
AM_6
100
AcDbMText
 10
564.677562357239
 20
822.4811031702101
 30
0.0
 40
3.2
 41
90.0
 71
     4
 72
     5
  1
　DFB-2010
 73
     1
 44
1.0
1001
ACAD
1000
MTEXTBEGIN
1070
    73
1070
     1
1070
    44
1040
1.0
1070
    74
1070
     0
1000
MTEXTEND
  0
MTEXT
  5
2FD13
330
1F
100
AcDbEntity
  8
AM_6
100
AcDbMText
 10
564.677562357239
 20
830.4811031702101
 30
0.0
 40
3.2
 41
90.0
 71
     4
 72
     5
  1
　ATハンドル受（掘込タイプ）
 73
     1
 44
1.0
1001
ACAD
1000
MTEXTBEGIN
1070
    73
1070
     1
1070
    44
1040
1.0
1070
    74
1070
     0
1000
MTEXTEND
  0
MTEXT
  5
2FD14
330
1F
100
AcDbEntity
  8
AM_6
100
AcDbMText
 10
553.177562357239
 20
798.4811031702101
 30
0.0
 40
3.2
 41
23.0
 71
     5
 72
     5
  1
セットビス
 73
     1
 44
1.0
1001
ACAD
1000
MTEXTBEGIN
1070
    73
1070
     1
1070
    44
1040
1.0
1070
    74
1070
     0
1000
MTEXTEND
  0
MTEXT
  5
2FD15
330
1F
100
AcDbEntity
  8
AM_6
100
AcDbMText
 10
564.677562357239
 20
798.4811031702101
 30
0.0
 40
3.2
 41
90.0
 71
     4
 72
     5
  1
　M6×16　D=12 トラス小ネジ　+  SUS   4本付　
 73
     1
 44
1.0
1001
ACAD
1000
MTEXTBEGIN
1070
    73
1070
     1
1070
    44
1040
1.0
1070
    74
1070
     0
1000
MTEXTEND
  0
LINE
  5
2FD16
330
1F
100
AcDbEntity
  8
AM_0
100
AcDbLine
 10
541.6775623572394
 20
786.48110317021
 30
0.0
 11
636.2470738526581
 21
786.48110317021
 31
0.0
  0
LINE
  5
2FD17
330
1F
100
AcDbEntity
  8
AM_0
100
AcDbLine
 10
636.2470738526577
 20
834.4811031702104
 30
0.0
 11
636.2470738526581
 21
786.48110317021
 31
0.0
  0
CIRCLE
  5
2FD18
330
1F
100
AcDbEntity
  8
AM_6
100
AcDbCircle
 10
612.5792862631007
 20
798.2342401854947
 30
0.0
 40
2.252271541660876
  0
MTEXT
  5
2FD19
330
1F
100
AcDbEntity
  8
AM_6
100
AcDbMText
 10
564.677562357239
 20
790.48110317021
 30
0.0
 40
3.2
 41
90.0
 71
     4
 72
     5
  1
　M5×10　D=12 サラ小ネジ　+  SUS   2本付　
 73
     1
 44
1.0
1001
ACAD
1000
MTEXTBEGIN
1070
    73
1070
     1
1070
    44
1040
1.0
1070
    74
1070
     0
1000
MTEXTEND
  0
CIRCLE
  5
2FD1A
330
1F
100
AcDbEntity
  8
AM_6
100
AcDbCircle
 10
609.9010155161378
 20
790.2342401854946
 30
0.0
 40
2.252271541660876
  0
LINE
  5
306FE
330
1F
100
AcDbEntity
  8
AM_11
100
AcDbLine
 10
709.7287703800874
 20
795.9319196579547
 30
0.0
 11
709.7287703800872
 21
819.2444196579529
 31
0.0
  0
LINE
  5
306FF
330
1F
100
AcDbEntity
  8
AM_11
100
AcDbLine
 10
711.2287703800874
 20
794.4319196579547
 30
0.0
 11
789.7287703800865
 21
794.4319196579548
 31
0.0
  0
LINE
  5
30701
330
1F
100
AcDbEntity
  8
AM_11
100
AcDbLine
 10
711.2287703800874
 20
795.9319196579547
 30
0.0
 11
789.7287703800865
 21
795.9319196579547
 31
0.0
  0
LINE
  5
30703
330
1F
100
AcDbEntity
  8
AM_11
100
AcDbLine
 10
711.2287703800874
 20
795.9319196579547
 30
0.0
 11
711.2287703800872
 21
819.2444196579529
 31
0.0
  0
LINE
  5
30704
330
1F
100
AcDbEntity
  8
AM_11
100
AcDbLine
 10
713.2287703800874
 20
797.9319196579547
 30
0.0
 11
733.2287703800874
 21
797.9319196579547
 31
0.0
  0
LINE
  5
30705
330
1F
100
AcDbEntity
  8
AM_11
100
AcDbLine
 10
713.2287703800874
 20
797.9319196579547
 30
0.0
 11
713.2287703800874
 21
819.2444196579529
 31
0.0
  0
LINE
  5
30707
330
1F
100
AcDbEntity
  8
AM_11
100
AcDbLine
 10
733.2287703800874
 20
795.9319196579547
 30
0.0
 11
733.2287703800874
 21
797.9319196579547
 31
0.0
  0
LINE
  5
30709
330
1F
100
AcDbEntity
  8
AM_11
100
AcDbLine
 10
715.2287703800874
 20
794.4319196579547
 30
0.0
 11
716.7287703800874
 21
794.4319196579547
 31
0.0
  0
LINE
  5
3070A
330
1F
100
AcDbEntity
  8
AM_11
100
AcDbLine
 10
709.7287703800874
 20
814.4319196579546
 30
0.0
 11
711.2287703800874
 21
814.4319196579546
 31
0.0
  0
LINE
  5
3070B
330
1F
100
AcDbEntity
  8
AM_11
100
AcDbLine
 10
709.7287703800874
 20
791.9319196579547
 30
0.0
 11
709.7287703800874
 21
814.4319196579546
 31
0.0
  0
LINE
  5
3070C
330
1F
100
AcDbEntity
  8
AM_11
100
AcDbLine
 10
711.2287703800874
 20
791.9319196579547
 30
0.0
 11
711.2287703800874
 21
814.4319196579546
 31
0.0
  0
LINE
  5
3070D
330
1F
100
AcDbEntity
  8
AM_11
100
AcDbLine
 10
716.7287703800874
 20
787.9319196579547
 30
0.0
 11
716.7287703800874
 21
794.4319196579547
 31
0.0
  0
LINE
  5
3070E
330
1F
100
AcDbEntity
  8
AM_11
100
AcDbLine
 10
715.2287703800874
 20
787.9319196579547
 30
0.0
 11
715.2287703800874
 21
794.4319196579547
 31
0.0
  0
LINE
  5
3070F
330
1F
100
AcDbEntity
  8
AM_11
100
AcDbLine
 10
714.1681123800871
 20
786.8712586579552
 30
0.0
 11
710.1681123800871
 21
790.8712586579552
 31
0.0
  0
LINE
  5
30710
330
1F
100
AcDbEntity
  8
AM_11
100
AcDbLine
 10
715.2287703800874
 20
787.9319196579547
 30
0.0
 11
711.228774380087
 21
791.9319196579547
 31
0.0
  0
ARC
  5
30712
330
1F
100
AcDbEntity
  8
AM_11
100
AcDbCircle
 10
713.2287703800874
 20
797.9319196579547
 30
0.0
 40
2.0
100
AcDbArc
 50
180.0000029999847
 51
270.0000099999489
  0
ARC
  5
30714
330
1F
100
AcDbEntity
  8
AM_11
100
AcDbCircle
 10
715.2287703800874
 20
787.9319196579547
 30
0.0
 40
1.5
100
AcDbArc
 50
225.0000000000046
 51
0.0
  0
ARC
  5
30715
330
1F
100
AcDbEntity
  8
AM_11
100
AcDbCircle
 10
711.2287703800874
 20
791.9319196579547
 30
0.0
 40
1.5
100
AcDbArc
 50
180.0000029999847
 51
225.0000000000046
  0
LINE
  5
30716
330
1F
100
AcDbEntity
  8
0DFB-2010
100
AcDbLine
 10
702.7287703800874
 20
766.4319196579529
 30
0.0
 11
702.7287703800874
 21
728.4319196579529
 31
0.0
  0
LINE
  5
30717
330
1F
100
AcDbEntity
  8
AM_11
100
AcDbLine
 10
724.7287703800874
 20
787.4319196579529
 30
0.0
 11
724.7287703800874
 21
766.4319196579527
 31
0.0
  0
LINE
  5
30718
330
1F
100
AcDbEntity
  8
0DFB-2010
100
AcDbLine
 10
735.2287703800874
 20
771.4319196579529
 30
0.0
 11
735.2287703800874
 21
723.4319196579528
 31
0.0
  0
LINE
  5
30719
330
1F
100
AcDbEntity
  8
AM_11
100
AcDbLine
 10
722.7287703800874
 20
787.4349896579531
 30
0.0
 11
722.7287703800874
 21
766.4319196579527
 31
0.0
  0
LINE
  5
3071A
102
{ACAD_REACTORS
330
3082A
102
}
330
1F
100
AcDbEntity
  8
0DFB-2010
100
AcDbLine
 10
702.7287703800874
 20
728.4319196579529
 30
0.0
 11
724.7287703800874
 21
728.4319196579529
 31
0.0
  0
LINE
  5
3071B
102
{ACAD_REACTORS
330
3082A
102
}
330
1F
100
AcDbEntity
  8
0DFB-2010
100
AcDbLine
 10
702.7287703800874
 20
766.4319196579529
 30
0.0
 11
724.7287703800874
 21
766.4319196579529
 31
0.0
  0
LINE
  5
3071C
330
1F
100
AcDbEntity
  8
AM_11
100
AcDbLine
 10
704.7287703800874
 20
774.4319196579529
 30
0.0
 11
720.7287703800874
 21
774.4319196579529
 31
0.0
  0
LINE
  5
3071D
330
1F
100
AcDbEntity
  8
AM_11
100
AcDbLine
 10
720.7287703800874
 20
787.4319196579529
 30
0.0
 11
720.7287703800874
 21
774.4319196579529
 31
0.0
  0
LINE
  5
3071E
330
1F
100
AcDbEntity
  8
AM_11
100
AcDbLine
 10
704.7287703800874
 20
772.4319196579529
 30
0.0
 11
720.7287703800874
 21
772.4319196579529
 31
0.0
  0
LINE
  5
3071F
330
1F
100
AcDbEntity
  8
AM_11
100
AcDbLine
 10
704.7287703800874
 20
819.2444196579529
 30
0.0
 11
704.7287703800874
 21
774.4319196579529
 31
0.0
  0
LINE
  5
30720
330
1F
100
AcDbEntity
  8
0DFB-2010
100
AcDbLine
 10
725.2287703800874
 20
722.4319196579529
 30
0.0
 11
734.2287703800874
 21
722.4319196579529
 31
0.0
  0
LINE
  5
30721
330
1F
100
AcDbEntity
  8
0DFB-2010
100
AcDbLine
 10
725.2287703800874
 20
772.4319196579529
 30
0.0
 11
734.2287703800874
 21
772.4319196579529
 31
0.0
  0
LINE
  5
30722
330
1F
100
AcDbEntity
  8
AM_11
100
AcDbLine
 10
724.7287703800874
 20
728.4319196579529
 30
0.0
 11
724.7287703800874
 21
717.4319196579529
 31
0.0
  0
LINE
  5
30724
330
1F
100
AcDbEntity
  8
AM_11
100
AcDbLine
 10
722.7287703800874
 20
728.4319196579529
 30
0.0
 11
722.7287703800874
 21
717.4319196579529
 31
0.0
  0
LINE
  5
30725
330
1F
100
AcDbEntity
  8
AM_11
100
AcDbLine
 10
702.7287703800874
 20
819.2444196579529
 30
0.0
 11
702.7287703800874
 21
774.4319196579529
 31
0.0
  0
LINE
  5
30726
330
1F
100
AcDbEntity
  8
0DFB-2010
  6
陰線1
370
    13
100
AcDbLine
 10
732.0287703800876
 20
770.4319196579529
 30
0.0
 11
732.0287703800876
 21
724.4319196579529
 31
0.0
  0
LINE
  5
30727
330
1F
100
AcDbEntity
  8
0DFB-2010
  6
陰線1
370
    13
100
AcDbLine
 10
725.2287703800874
 20
770.4319196579529
 30
0.0
 11
732.0287703800876
 21
770.4319196579529
 31
0.0
  0
LINE
  5
30728
330
1F
100
AcDbEntity
  8
0DFB-2010
  6
陰線1
370
    13
100
AcDbLine
 10
725.2287703800874
 20
724.4319196579529
 30
0.0
 11
732.0287703800876
 21
724.4319196579529
 31
0.0
  0
LINE
  5
30729
330
1F
100
AcDbEntity
  8
0DFB-2010
  6
陰線1
370
    13
100
AcDbLine
 10
729.7287703800874
 20
770.4319196579529
 30
0.0
 11
729.7287703800874
 21
724.4319196579529
 31
0.0
  0
LINE
  5
3072B
330
1F
100
AcDbEntity
  8
0DFB-2010
  6
陰線1
370
    13
100
AcDbLine
 10
725.2287703800875
 20
728.9319196579529
 30
0.0
 11
729.7287703800874
 21
728.9319196579529
 31
0.0
  0
LINE
  5
3072C
330
1F
100
AcDbEntity
  8
0DFB-2010
  6
陰線1
370
    13
100
AcDbLine
 10
719.7287703800883
 20
731.9319196579528
 30
0.0
 11
735.2287703800874
 21
731.9319196579528
 31
0.0
  0
LINE
  5
3072D
330
1F
100
AcDbEntity
  8
0DFB-2010
  6
陰線1
370
    13
100
AcDbLine
 10
719.2287703800874
 20
732.4319196579529
 30
0.0
 11
735.2287703800874
 21
732.4319196579529
 31
0.0
  0
LINE
  5
3072E
330
1F
100
AcDbEntity
  8
0DFB-2010
  6
陰線1
370
    13
100
AcDbLine
 10
719.7287703800874
 20
737.9319196579529
 30
0.0
 11
735.2287703800874
 21
737.9319196579529
 31
0.0
  0
LINE
  5
3072F
330
1F
100
AcDbEntity
  8
0DFB-2010
  6
陰線1
370
    13
100
AcDbLine
 10
719.2287703800874
 20
737.4319196579529
 30
0.0
 11
735.2287703800874
 21
737.4319196579529
 31
0.0
  0
LINE
  5
30730
330
1F
100
AcDbEntity
  8
0DFB-2010
  6
陰線1
370
    13
100
AcDbLine
 10
719.2287703800874
 20
737.4319196579529
 30
0.0
 11
719.2287703800874
 21
732.4319196579529
 31
0.0
  0
LINE
  5
30731
330
1F
100
AcDbEntity
  8
0DFB-2010
  6
陰線1
370
    13
100
AcDbLine
 10
719.7287703800874
 20
737.9319196579529
 30
0.0
 11
719.2287703800874
 21
737.4319196579529
 31
0.0
  0
LINE
  5
30732
330
1F
100
AcDbEntity
  8
0DFB-2010
  6
陰線1
370
    13
100
AcDbLine
 10
719.7287703800883
 20
731.9319196579528
 30
0.0
 11
719.2287703800874
 21
732.4319196579529
 31
0.0
  0
LINE
  5
30733
330
1F
100
AcDbEntity
  8
0DFB-2010
  6
陰線1
370
    13
100
AcDbLine
 10
719.7287703800883
 20
737.9319196579529
 30
0.0
 11
719.7287703800883
 21
731.9319196579528
 31
0.0
  0
LINE
  5
30734
330
1F
100
AcDbEntity
  8
0DFB-2010
  6
陰線1
370
    13
100
AcDbLine
 10
719.6287703800879
 20
744.9319196579529
 30
0.0
 11
724.7287703800874
 21
744.9319196579529
 31
0.0
  0
LINE
  5
30735
330
1F
100
AcDbEntity
  8
0DFB-2010
  6
陰線1
370
    13
100
AcDbLine
 10
719.2287703800874
 20
745.3319196579525
 30
0.0
 11
724.7287703800874
 21
745.331919657953
 31
0.0
  0
LINE
  5
30736
330
1F
100
AcDbEntity
  8
0DFB-2010
  6
陰線1
370
    13
100
AcDbLine
 10
719.6287663800884
 20
749.9319196579529
 30
0.0
 11
724.7287703800874
 21
749.9319196579529
 31
0.0
  0
LINE
  5
30737
330
1F
100
AcDbEntity
  8
0DFB-2010
  6
陰線1
370
    13
100
AcDbLine
 10
719.2287703800883
 20
749.5319196579528
 30
0.0
 11
724.7287703800874
 21
749.5319196579528
 31
0.0
  0
LINE
  5
30738
330
1F
100
AcDbEntity
  8
0DFB-2010
  6
陰線1
370
    13
100
AcDbLine
 10
719.2287703800883
 20
749.5319196579528
 30
0.0
 11
719.2287703800874
 21
745.3319196579525
 31
0.0
  0
LINE
  5
30739
330
1F
100
AcDbEntity
  8
0DFB-2010
  6
陰線1
370
    13
100
AcDbLine
 10
719.6287663800884
 20
749.9319196579529
 30
0.0
 11
719.6287663800884
 21
744.9319196579529
 31
0.0
  0
LINE
  5
3073A
330
1F
100
AcDbEntity
  8
0DFB-2010
  6
陰線1
370
    13
100
AcDbLine
 10
719.6287663800884
 20
749.9319196579529
 30
0.0
 11
719.2287803800872
 21
749.5319296580516
 31
0.0
  0
LINE
  5
3073B
330
1F
100
AcDbEntity
  8
0DFB-2010
  6
陰線1
370
    13
100
AcDbLine
 10
719.6287703800879
 20
744.9319196579529
 30
0.0
 11
719.2287603800877
 21
745.3319296579523
 31
0.0
  0
LINE
  5
3073C
330
1F
100
AcDbEntity
  8
AM_11
100
AcDbLine
 10
722.7287703800874
 20
767.4319196579529
 30
0.0
 11
724.7287703800874
 21
767.4319196579529
 31
0.0
  0
LINE
  5
3073D
330
1F
100
AcDbEntity
  8
AM_11
100
AcDbLine
 10
722.7287703800874
 20
727.4319196579528
 30
0.0
 11
724.7287703800874
 21
727.4319196579528
 31
0.0
  0
LINE
  5
3073E
330
1F
100
AcDbEntity
  8
0DFB-2010
100
AcDbLine
 10
725.2287703800874
 20
772.4319196579529
 30
0.0
 11
725.2287703800875
 21
769.4319196579528
 31
0.0
  0
ARC
  5
3073F
330
1F
100
AcDbEntity
  8
AM_11
100
AcDbCircle
 10
722.7287703800874
 20
787.4319196579529
 30
0.0
 40
2.0
100
AcDbArc
 50
0.0
 51
90.00000299998466
  0
ARC
  5
30740
330
1F
100
AcDbEntity
  8
AM_11
100
AcDbCircle
 10
722.7287703800874
 20
787.4319196579529
 30
0.0
 40
2.0
100
AcDbArc
 50
90.00000299998466
 51
180.000010000001
  0
ARC
  5
30741
330
1F
100
AcDbEntity
  8
AM_11
100
AcDbCircle
 10
720.7287703800874
 20
774.4319196579529
 30
0.0
 40
2.0
100
AcDbArc
 50
270.0
 51
0.0
  0
ARC
  5
30742
330
1F
100
AcDbEntity
  8
AM_11
100
AcDbCircle
 10
704.7287703800874
 20
774.4319196579529
 30
0.0
 40
2.0
100
AcDbArc
 50
179.999989999999
 51
270.0
  0
ARC
  5
30743
330
1F
100
AcDbEntity
  8
0DFB-2010
100
AcDbCircle
 10
734.2287703800874
 20
723.4319196579528
 30
0.0
 40
1.0
100
AcDbArc
 50
270.0
 51
0.0
  0
ARC
  5
30744
330
1F
100
AcDbEntity
  8
0DFB-2010
100
AcDbCircle
 10
734.2287703800874
 20
771.4319196579529
 30
0.0
 40
1.0
100
AcDbArc
 50
0.0
 51
90.00000299998466
  0
ARC
  5
30745
330
1F
100
AcDbEntity
  8
0DFB-2010
100
AcDbCircle
 10
728.5621103800876
 20
759.9319196579529
 30
0.0
 40
9.666667
100
AcDbArc
 50
313.6028199999698
 51
46.39718100001105
  0
ARC
  5
30746
330
1F
100
AcDbEntity
  8
0DFB-2010
100
AcDbCircle
 10
728.5621103800876
 20
734.9319196579529
 30
0.0
 40
9.666667
100
AcDbArc
 50
313.6028199999698
 51
46.39718100001105
  0
LINE
  5
30748
330
1F
100
AcDbEntity
  8
0DFB-2010
  6
陰線1
370
    13
100
AcDbLine
 10
719.7287703800883
 20
756.9319196579528
 30
0.0
 11
735.2287703800874
 21
756.9319196579528
 31
0.0
  0
LINE
  5
30749
330
1F
100
AcDbEntity
  8
0DFB-2010
  6
陰線1
370
    13
100
AcDbLine
 10
719.2287703800874
 20
757.4319196579529
 30
0.0
 11
735.2287703800874
 21
757.4319196579529
 31
0.0
  0
LINE
  5
3074A
330
1F
100
AcDbEntity
  8
0DFB-2010
  6
陰線1
370
    13
100
AcDbLine
 10
719.7287703800874
 20
762.9319196579529
 30
0.0
 11
735.2287703800874
 21
762.9319196579529
 31
0.0
  0
LINE
  5
3074B
330
1F
100
AcDbEntity
  8
0DFB-2010
  6
陰線1
370
    13
100
AcDbLine
 10
719.2287703800874
 20
762.4319196579529
 30
0.0
 11
735.2287703800874
 21
762.4319196579529
 31
0.0
  0
LINE
  5
3074C
330
1F
100
AcDbEntity
  8
0DFB-2010
  6
陰線1
370
    13
100
AcDbLine
 10
719.2287703800874
 20
762.4319196579529
 30
0.0
 11
719.2287703800874
 21
757.4319196579529
 31
0.0
  0
LINE
  5
3074D
330
1F
100
AcDbEntity
  8
0DFB-2010
  6
陰線1
370
    13
100
AcDbLine
 10
719.7287703800874
 20
762.9319196579529
 30
0.0
 11
719.2287703800874
 21
762.4319196579529
 31
0.0
  0
LINE
  5
3074E
330
1F
100
AcDbEntity
  8
0DFB-2010
  6
陰線1
370
    13
100
AcDbLine
 10
719.7287703800883
 20
756.9319196579528
 30
0.0
 11
719.2287703800874
 21
757.4319196579529
 31
0.0
  0
LINE
  5
3074F
330
1F
100
AcDbEntity
  8
0DFB-2010
  6
陰線1
370
    13
100
AcDbLine
 10
719.7287703800883
 20
762.9319196579529
 30
0.0
 11
719.7287703800883
 21
756.9319196579528
 31
0.0
  0
LINE
  5
30751
102
{ACAD_REACTORS
330
30761
330
30791
102
}
330
1F
100
AcDbEntity
  8
AM_7
100
AcDbLine
 10
699.7287703800874
 20
747.4319196579529
 30
0.0
 11
738.2287703800874
 21
747.4319196579529
 31
0.0
1001
GENIUS_GENODEF_13
1002
{
1000
HIER
1070
     0
1002
}
1002
{
1000
MANEDIT
1070
     0
1002
}
1002
{
1000
NOSEL
1070
     0
1002
}
1002
{
1000
BEHIND
1070
     0
1002
}
1002
{
1000
OTHER
1070
     0
1002
}
1002
{
1000
REACTOR
1002
}
1001
GENIUS_GENOBJ-N-CEN_13
1002
{
1000
OWNER
1000
GEN
1002
}
1001
GENIUS_GENCEN_19
1002
{
1040
3.0
1002
}
  0
DIMENSION
  5
30753
102
{ACAD_XDICTIONARY
360
30760
102
}
102
{ACAD_REACTORS
330
30761
102
}
330
1F
100
AcDbEntity
  8
AM_5
100
AcDbDimension
  2
*D6
 10
750.2287703800874
 20
794.4319196579547
 30
0.0
 11
747.1287703800872
 21
770.9319196579539
 31
0.0
 70
    32
  1
（<>）
 71
     5
 42
47.00000000000182
  3
SYS$0
100
AcDbAlignedDimension
 13
738.2287703800874
 23
747.4319196579529
 33
0.0
 14
738.2287703800874
 24
794.4319196579547
 34
0.0
 50
90.0
100
AcDbRotatedDimension
1001
ACAD
1000
DSTYLE
1002
{
1070
    76
1070
     1
1002
}
  0
DIMENSION
  5
30783
102
{ACAD_XDICTIONARY
360
30790
102
}
102
{ACAD_REACTORS
330
30791
102
}
330
1F
100
AcDbEntity
  8
AM_5
100
AcDbDimension
  2
*D7
 10
760.2287703800879
 20
754.9319196579529
 30
0.0
 11
760.2287703800877
 21
749.6819196579529
 31
0.0
 70
    32
  1
 
 71
     5
 42
7.5
  3
SYS$0
100
AcDbAlignedDimension
 13
738.2287703800874
 23
747.4319196579529
 33
0.0
 14
738.2287773800875
 24
754.9319196579529
 34
0.0
 50
90.0
100
AcDbRotatedDimension
1001
ACAD
1000
DSTYLE
1002
{
1070
    41
1040
3.0
1070
    76
1070
     1
1070
   173
1070
     1
1070
   342
1005
0
1070
   343
1005
307BC
1070
   344
1005
A66
1002
}
  0
MTEXT
  5
307F7
330
1F
100
AcDbEntity
  8
AM_6
100
AcDbMText
 10
765.4902993747357
 20
739.0085891537928
 30
0.0
 40
3.2
 41
19.23916934343879
 71
     4
 72
     5
  1
　調整寸法
 11
0.0000000000000001
 21
1.0
 31
0.0
 73
     1
 44
1.0
1001
ACAD
1000
MTEXTBEGIN
1070
    73
1070
     1
1070
    44
1040
1.0
1070
    74
1070
     0
1000
MTEXTEND
1000
ACAD_MTEXT_DEFINED_HEIGHT_BEGIN
1070
    46
1040
3.200000000000006
1000
ACAD_MTEXT_DEFINED_HEIGHT_END
  0
MTEXT
  5
307F8
330
1F
100
AcDbEntity
  8
AM_6
100
AcDbMText
 10
760.1101082100527
 20
756.0877359348232
 30
0.0
 40
3.2
 41
19.23916934343879
 71
     4
 72
     5
  1
3
 11
0.0000000000000001
 21
1.0
 31
0.0
 73
     1
 44
1.0
1001
ACAD
1000
MTEXTBEGIN
1070
    73
1070
     1
1070
    44
1040
1.0
1070
    74
1070
     0
1000
MTEXTEND
1000
ACAD_MTEXT_DEFINED_HEIGHT_BEGIN
1070
    46
1040
3.200000000000006
1000
ACAD_MTEXT_DEFINED_HEIGHT_END
  0
DIMENSION
  5
30807
330
1F
100
AcDbEntity
  8
AM_5
100
AcDbDimension
  2
*D9
 10
760.2287703800879
 20
739.9319196579528
 30
0.0
 11
760.2287703800877
 21
745.1819196579529
 31
0.0
 70
    32
  1
 
 71
     5
 42
7.5
  3
SYS$0
100
AcDbAlignedDimension
 13
738.2287703800874
 23
747.4319196579529
 33
0.0
 14
738.2287773800875
 24
739.9319196579528
 34
0.0
 50
270.0
100
AcDbRotatedDimension
1001
ACAD
1000
DSTYLE
1002
{
1070
    41
1040
3.0
1070
    76
1070
     1
1070
   173
1070
     1
1070
   342
1005
0
1070
   343
1005
307BC
1070
   344
1005
A66
1002
}
  0
MTEXT
  5
3080A
330
1F
100
AcDbEntity
  8
AM_6
100
AcDbMText
 10
760.1101082100527
 20
738.7761033810825
 30
0.0
 40
3.2
 41
19.23916934343879
 71
     6
 72
     5
  1
3
 11
-0.0000000000000001
 21
1.0
 31
0.0
 73
     1
 44
1.0
1001
ACAD
1000
MTEXTBEGIN
1070
    73
1070
     1
1070
    44
1040
1.0
1070
    74
1070
     0
1000
MTEXTEND
1000
ACAD_MTEXT_DEFINED_HEIGHT_BEGIN
1070
    46
1040
3.200000000000006
1000
ACAD_MTEXT_DEFINED_HEIGHT_END
  0
DIMENSION
  5
3081C
102
{ACAD_XDICTIONARY
360
30829
102
}
102
{ACAD_REACTORS
330
3082A
102
}
330
1F
100
AcDbEntity
  8
AM_5
100
AcDbDimension
  2
*D10
 10
690.7287703800874
 20
766.4319196579529
 30
0.0
 11
684.9621037134206
 21
747.4319196579529
 31
0.0
 70
    32
  1
<>\P（切欠40×77）
 71
     5
 42
38.0
  3
SYS$0
100
AcDbAlignedDimension
 13
702.7287703800874
 23
728.4319196579529
 33
0.0
 14
702.7287703800874
 24
766.4319196579529
 34
0.0
 50
90.0
100
AcDbRotatedDimension
  0
LINE
  5
3084F
330
1F
100
AcDbEntity
  8
AM_7
100
AcDbLine
 10
741.2287773800875
 20
759.9319196579529
 30
0.0
 11
716.2287703800874
 21
759.9319196579529
 31
0.0
1001
GENIUS_GENOBJ-N-CEN_13
1002
{
1000
OWNER
1000
GEN
1002
}
1001
GENIUS_GENODEF_13
1002
{
1000
HIER
1070
     0
1002
}
1002
{
1000
MANEDIT
1070
     0
1002
}
1002
{
1000
NOSEL
1070
     0
1002
}
1002
{
1000
BEHIND
1070
     0
1002
}
1002
{
1000
OTHER
1070
     0
1002
}
1002
{
1000
REACTOR
1002
}
1001
GENIUS_GENCEN_19
1002
{
1040
3.0
1002
}
  0
LINE
  5
30850
330
1F
100
AcDbEntity
  8
AM_7
100
AcDbLine
 10
741.2287773800875
 20
734.9319196579529
 30
0.0
 11
716.2287703800874
 21
734.9319196579529
 31
0.0
1001
GENIUS_GENOBJ-N-CEN_13
1002
{
1000
OWNER
1000
GEN
1002
}
1001
GENIUS_GENODEF_13
1002
{
1000
HIER
1070
     0
1002
}
1002
{
1000
MANEDIT
1070
     0
1002
}
1002
{
1000
NOSEL
1070
     0
1002
}
1002
{
1000
BEHIND
1070
     0
1002
}
1002
{
1000
OTHER
1070
     0
1002
}
1002
{
1000
REACTOR
1002
}
1001
GENIUS_GENCEN_19
1002
{
1040
3.0
1002
}
  0
LINE
  5
30851
330
1F
100
AcDbEntity
  8
0DFB-2010
100
AcDbLine
 10
735.2287703800874
 20
701.0091020759197
 30
0.0
 11
735.2287703800874
 21
589.0091020759196
 31
0.0
  0
LINE
  5
30852
330
1F
100
AcDbEntity
  8
0DFB-2010
100
AcDbLine
 10
725.2287703800874
 20
588.0091020759197
 30
0.0
 11
734.2287703800874
 21
588.0091020759197
 31
0.0
  0
LINE
  5
30853
330
1F
100
AcDbEntity
  8
0DFB-2010
100
AcDbLine
 10
725.2287703800874
 20
702.0091020759196
 30
0.0
 11
734.2287703800874
 21
702.0091020759196
 31
0.0
  0
LINE
  5
30854
330
1F
100
AcDbEntity
  8
0DFB-2010
100
AcDbLine
 10
724.7287703800874
 20
697.0091020759197
 30
0.0
 11
724.7287703800874
 21
682.5091020759197
 31
0.0
  0
LINE
  5
30855
330
1F
100
AcDbEntity
  8
0DFB-2010
100
AcDbLine
 10
702.7287703800874
 20
682.5091020759197
 30
0.0
 11
702.7287703800874
 21
607.5091020759197
 31
0.0
  0
LINE
  5
30857
102
{ACAD_REACTORS
330
308CE
330
308E7
102
}
330
1F
100
AcDbEntity
  8
0DFB-2010
100
AcDbLine
 10
702.7287703800874
 20
682.5091020759197
 30
0.0
 11
725.2287703800874
 21
682.5091020759197
 31
0.0
  0
LINE
  5
30858
102
{ACAD_REACTORS
330
30921
102
}
330
1F
100
AcDbEntity
  8
0DFB-2010
100
AcDbLine
 10
702.7287703800874
 20
607.5091020759197
 30
0.0
 11
725.2287703800874
 21
607.5091020759197
 31
0.0
  0
LINE
  5
3085B
330
1F
100
AcDbEntity
  8
0DFB-2010
100
AcDbLine
 10
725.2287703800874
 20
702.0091020759196
 30
0.0
 11
725.2287703800874
 21
588.0091020759197
 31
0.0
  0
LINE
  5
3085C
330
1F
100
AcDbEntity
  8
0DFB-2010
100
AcDbLine
 10
724.7287703800874
 20
593.0091020759197
 30
0.0
 11
725.2287703800874
 21
593.0091020759197
 31
0.0
  0
LINE
  5
3085D
330
1F
100
AcDbEntity
  8
0DFB-2010
100
AcDbLine
 10
724.7287703800874
 20
697.0091020759197
 30
0.0
 11
725.2287703800874
 21
697.0091020759197
 31
0.0
  0
LINE
  5
3085E
102
{ACAD_REACTORS
330
30921
102
}
330
1F
100
AcDbEntity
  8
0DFB-2010
100
AcDbLine
 10
724.7287703800874
 20
607.5091020759197
 30
0.0
 11
724.7287703800874
 21
593.0091020759197
 31
0.0
  0
ARC
  5
3085F
102
{ACAD_REACTORS
330
30900
330
30939
102
}
330
1F
100
AcDbEntity
  8
0DFB-2010
100
AcDbCircle
 10
734.2287703800874
 20
589.0091020759196
 30
0.0
 40
1.0
100
AcDbArc
 50
270.0
 51
0.0
  0
ARC
  5
30860
330
1F
100
AcDbEntity
  8
0DFB-2010
100
AcDbCircle
 10
734.2287703800874
 20
701.0091020759197
 30
0.0
 40
1.0
100
AcDbArc
 50
0.0
 51
90.00000299999769
  0
LINE
  5
30889
330
1F
100
AcDbEntity
  8
AM_7
100
AcDbLine
 10
699.7287703800874
 20
645.0091020759197
 30
0.0
 11
738.2287703800874
 21
645.0091020759197
 31
0.0
1001
GENIUS_GENODEF_13
1002
{
1000
HIER
1070
     0
1002
}
1002
{
1000
MANEDIT
1070
     0
1002
}
1002
{
1000
NOSEL
1070
     0
1002
}
1002
{
1000
BEHIND
1070
     0
1002
}
1002
{
1000
OTHER
1070
     0
1002
}
1002
{
1000
REACTOR
1002
}
1001
GENIUS_GENOBJ-N-CEN_13
1002
{
1000
OWNER
1000
GEN
1002
}
1001
GENIUS_GENCEN_19
1002
{
1040
3.0
1002
}
  0
LINE
  5
3088A
102
{ACAD_REACTORS
330
308B5
102
}
330
1F
100
AcDbEntity
  8
AM_7
  6
AM_ISO08W050x2
100
AcDbLine
 10
721.7287703800874
 20
600.0091020759197
 30
0.0
 11
738.2287703800874
 21
600.0091020759197
 31
0.0
1001
GENIUS_GENOBJ-N-CEN_13
1002
{
1000
OWNER
1000
GEN
1002
}
1001
GENIUS_GENODEF_13
1002
{
1000
HIER
1070
     0
1002
}
1002
{
1000
MANEDIT
1070
     0
1002
}
1002
{
1000
NOSEL
1070
     0
1002
}
1002
{
1000
BEHIND
1070
     0
1002
}
1002
{
1000
OTHER
1070
     0
1002
}
1002
{
1000
REACTOR
1002
}
1001
GENIUS_GENCEN_19
1002
{
1040
3.0
1002
}
  0
LINE
  5
3088B
102
{ACAD_REACTORS
330
308E7
102
}
330
1F
100
AcDbEntity
  8
AM_7
  6
AM_ISO08W050x2
100
AcDbLine
 10
721.7287703800874
 20
690.0091020759197
 30
0.0
 11
738.2287703800874
 21
690.0091020759197
 31
0.0
1001
GENIUS_GENOBJ-N-CEN_13
1002
{
1000
OWNER
1000
GEN
1002
}
1001
GENIUS_GENODEF_13
1002
{
1000
HIER
1070
     0
1002
}
1002
{
1000
MANEDIT
1070
     0
1002
}
1002
{
1000
NOSEL
1070
     0
1002
}
1002
{
1000
BEHIND
1070
     0
1002
}
1002
{
1000
OTHER
1070
     0
1002
}
1002
{
1000
REACTOR
1002
}
1001
GENIUS_GENCEN_19
1002
{
1040
3.0
1002
}
  0
DIMENSION
  5
308A6
102
{ACAD_XDICTIONARY
360
308B4
102
}
102
{ACAD_REACTORS
330
308B5
102
}
330
1F
100
AcDbEntity
  8
AM_5
100
AcDbDimension
  2
*D11
 10
690.7287703800874
 20
600.0091020759197
 30
0.0
 11
687.6287703800873
 21
595.1624354092531
 31
0.0
 70
    32
 71
     5
 42
7.5
  3
SYS$0
100
AcDbAlignedDimension
 13
702.7287703800874
 23
607.5091020759197
 33
0.0
 14
721.7287703800874
 24
600.0091020759197
 34
0.0
 50
90.0
100
AcDbRotatedDimension
  0
DIMENSION
  5
308C0
102
{ACAD_XDICTIONARY
360
308CD
102
}
102
{ACAD_REACTORS
330
308CE
102
}
330
1F
100
AcDbEntity
  8
AM_5
100
AcDbDimension
  2
*D12
 10
690.7287703800874
 20
682.5091020759197
 30
0.0
 11
687.6287703800873
 21
645.0091020759198
 31
0.0
 70
    32
 71
     5
 42
75.0
  3
SYS$0
100
AcDbAlignedDimension
 13
702.7287703800874
 23
607.5091020759197
 33
0.0
 14
702.7287703800874
 24
682.5091020759197
 34
0.0
 50
90.0
100
AcDbRotatedDimension
  0
DIMENSION
  5
308D8
102
{ACAD_XDICTIONARY
360
308E6
102
}
102
{ACAD_REACTORS
330
308E7
102
}
330
1F
100
AcDbEntity
  8
AM_5
100
AcDbDimension
  2
*D13
 10
690.7287703800871
 20
690.0091020759197
 30
0.0
 11
687.6287703800869
 21
694.8557687425865
 31
0.0
 70
    32
 71
     5
 42
7.5
  3
SYS$0
100
AcDbAlignedDimension
 13
702.7287703800874
 23
682.5091020759197
 33
0.0
 14
721.7287703800874
 24
690.0091020759197
 34
0.0
 50
90.0
100
AcDbRotatedDimension
  0
DIMENSION
  5
308F2
102
{ACAD_XDICTIONARY
360
308FF
102
}
102
{ACAD_REACTORS
330
30900
102
}
330
1F
100
AcDbEntity
  8
AM_5
100
AcDbDimension
  2
*D14
 10
735.2287703800874
 20
576.0091020759197
 30
0.0
 11
729.9787703800874
 21
579.1091020759197
 31
0.0
 70
    32
 71
     5
 42
10.5
  3
SYS$0
100
AcDbAlignedDimension
 13
724.7287703800874
 23
593.0091020759197
 33
0.0
 14
735.2287703800874
 24
589.0091020759196
 34
0.0
 50
0.0000000000001132
100
AcDbRotatedDimension
  0
DIMENSION
  5
30913
102
{ACAD_XDICTIONARY
360
30920
102
}
102
{ACAD_REACTORS
330
30921
102
}
330
1F
100
AcDbEntity
  8
AM_5
100
AcDbDimension
  2
*D15
 10
702.7287703800874
 20
576.0091020759191
 30
0.0
 11
713.7287703800874
 21
579.1091020759191
 31
0.0
 70
    32
 71
     5
 42
22.0
  3
SYS$0
100
AcDbAlignedDimension
 13
724.7287703800874
 23
593.0091020759197
 33
0.0
 14
702.7287703800874
 24
607.5091020759197
 34
0.0
 50
0.0000000000001132
100
AcDbRotatedDimension
  0
DIMENSION
  5
3092B
102
{ACAD_XDICTIONARY
360
30938
102
}
102
{ACAD_REACTORS
330
30939
102
}
330
1F
100
AcDbEntity
  8
AM_5
100
AcDbDimension
  2
*D16
 10
702.7287703800874
 20
566.0091020759185
 30
0.0
 11
718.9787703800874
 21
569.1091020759186
 31
0.0
 70
    32
 71
     5
 42
32.5
  3
SYS$0
100
AcDbAlignedDimension
 13
735.2287703800874
 23
589.0091020759196
 33
0.0
 14
702.7287703800874
 24
607.5091020759197
 34
0.0
 50
0.0000000000001132
100
AcDbRotatedDimension
  0
LINE
  5
30943
330
1F
100
AcDbEntity
  8
0DFB-2010
100
AcDbLine
 10
725.2287703800874
 20
769.4319196579528
 30
0.0
 11
725.8287703800874
 21
769.4319196579528
 31
0.0
  0
LINE
  5
30944
330
1F
100
AcDbEntity
  8
0DFB-2010
100
AcDbLine
 10
725.8287703800874
 20
769.4319196579528
 30
0.0
 11
725.8287703800874
 21
725.4319196579529
 31
0.0
  0
LINE
  5
30945
330
1F
100
AcDbEntity
  8
0DFB-2010
100
AcDbLine
 10
725.8287703800874
 20
725.4319196579529
 30
0.0
 11
725.2287703800874
 21
725.4319196579529
 31
0.0
  0
LINE
  5
30946
330
1F
100
AcDbEntity
  8
0DFB-2010
100
AcDbLine
 10
725.2287703800874
 20
725.4319196579529
 30
0.0
 11
725.2287703800874
 21
722.4319196579529
 31
0.0
  0
LINE
  5
3097B
330
1F
100
AcDbEntity
  8
0DFB-2010
100
AcDbLine
 10
725.2287703800874
 20
724.4319196579529
 30
0.0
 11
725.2287703800877
 21
765.931919657953
 31
0.0
  0
LINE
  5
3097C
330
1F
100
AcDbEntity
  8
0DFB-2010
100
AcDbLine
 10
724.7287703800875
 20
766.4319196579529
 30
0.0
 11
724.7287703800875
 21
728.4319196579529
 31
0.0
  0
LINE
  5
30983
330
1F
100
AcDbEntity
  8
0DFB-2010
100
AcDbLine
 10
724.7287703800874
 20
765.9319196579529
 30
0.0
 11
725.2287703800875
 21
765.9319196579529
 31
0.0
  0
LINE
  5
30984
330
1F
100
AcDbEntity
  8
0DFB-2010
100
AcDbLine
 10
725.2287703800875
 20
769.4319196579528
 30
0.0
 11
725.2287703800875
 21
770.4319196579529
 31
0.0
  0
LINE
  5
30985
330
1F
100
AcDbEntity
  8
0DFB-2010
100
AcDbLine
 10
724.7287703800874
 20
728.9319196579529
 30
0.0
 11
725.2287703800875
 21
728.9319196579529
 31
0.0
  0
LINE
  5
309A2
330
1F
100
AcDbEntity
  8
0DFB-2010
  6
陰線1
370
    13
100
AcDbLine
 10
725.2287703800875
 20
765.9319196579529
 30
0.0
 11
729.7287703800874
 21
765.9319196579529
 31
0.0
  0
LINE
  5
309BF
330
1F
100
AcDbEntity
  8
0DFB-2010
100
AcDbLine
 10
813.3441404819862
 20
700.0091020759197
 30
0.0
 11
813.3441404819862
 21
590.0091020759197
 31
0.0
  0
LINE
  5
309C0
330
1F
100
AcDbEntity
  8
0DFB-2010
100
AcDbLine
 10
863.3441404819862
 20
700.0091020759197
 30
0.0
 11
863.3441404819862
 21
590.0091020759197
 31
0.0
  0
LINE
  5
309C1
330
1F
100
AcDbEntity
  8
0DFB-2010
100
AcDbLine
 10
815.3441404819863
 20
588.0091020759197
 30
0.0
 11
861.3441404819862
 21
588.0091020759197
 31
0.0
  0
LINE
  5
309C2
330
1F
100
AcDbEntity
  8
0DFB-2010
100
AcDbLine
 10
815.3441404819863
 20
702.0091020759196
 30
0.0
 11
861.3441404819862
 21
702.0091020759196
 31
0.0
  0
LINE
  5
309C9
330
1F
100
AcDbEntity
  8
0
  6
Continuous
 62
     7
100
AcDbLine
 10
832.0441414819862
 20
600.0091020759197
 30
0.0
 11
832.0441414819862
 21
600.0091020759197
 31
0.0
  0
LINE
  5
309CA
330
1F
100
AcDbEntity
  8
0
  6
Continuous
 62
     7
100
AcDbLine
 10
857.0441414819862
 20
600.0091020759197
 30
0.0
 11
857.0441414819862
 21
600.0091020759197
 31
0.0
  0
LINE
  5
309CB
330
1F
100
AcDbEntity
  8
0
  6
Continuous
 62
     7
100
AcDbLine
 10
844.6441394819864
 20
600.0091020759197
 30
0.0
 11
844.6441394819864
 21
600.0091020759197
 31
0.0
  0
LINE
  5
309CC
330
1F
100
AcDbEntity
  8
0DFB-2010
100
AcDbLine
 10
822.8441404819863
 20
603.1091000759197
 30
0.0
 11
828.8441404819863
 21
603.1091000759197
 31
0.0
  0
LINE
  5
309CE
330
1F
100
AcDbEntity
  8
0
  6
Continuous
 62
     7
100
AcDbLine
 10
831.9441404819862
 20
600.0091020759197
 30
0.0
 11
831.9441404819862
 21
600.0091020759197
 31
0.0
  0
LINE
  5
309CF
330
1F
100
AcDbEntity
  8
0DFB-2010
  6
陰線1
370
    13
100
AcDbLine
 10
818.3441404819863
 20
590.0091020759197
 30
0.0
 11
858.3441404819863
 21
590.0091020759197
 31
0.0
  0
LINE
  5
309D0
330
1F
100
AcDbEntity
  8
0DFB-2010
  6
陰線1
370
    13
100
AcDbLine
 10
818.3441404819863
 20
606.5091020759197
 30
0.0
 11
858.3441404819863
 21
606.5091020759197
 31
0.0
  0
LINE
  5
309D1
330
1F
100
AcDbEntity
  8
0DFB-2010
  6
陰線1
370
    13
100
AcDbLine
 10
815.3441404819863
 20
603.5091020759197
 30
0.0
 11
815.3441404819863
 21
593.0091020759197
 31
0.0
  0
LINE
  5
309D2
330
1F
100
AcDbEntity
  8
0DFB-2010
  6
陰線1
370
    13
100
AcDbLine
 10
861.3441404819862
 20
603.5091020759197
 30
0.0
 11
861.3441404819862
 21
593.0091020759197
 31
0.0
  0
LINE
  5
309D3
330
1F
100
AcDbEntity
  8
0DFB-2010
100
AcDbLine
 10
853.8441404819863
 20
603.1091000759197
 30
0.0
 11
847.8441404819863
 21
603.1091000759197
 31
0.0
  0
LINE
  5
309D4
330
1F
100
AcDbEntity
  8
0DFB-2010
100
AcDbLine
 10
853.8441404819863
 20
596.9091040759196
 30
0.0
 11
847.8441404819863
 21
596.9091040759196
 31
0.0
  0
LINE
  5
309D5
330
1F
100
AcDbEntity
  8
0DFB-2010
100
AcDbLine
 10
822.8441404819863
 20
596.9091040759196
 30
0.0
 11
828.8441404819863
 21
596.9091040759196
 31
0.0
  0
LINE
  5
309D6
330
1F
100
AcDbEntity
  8
0DFB-2010
  6
陰線1
370
    13
100
AcDbLine
 10
819.7441405819862
 20
605.0091020759197
 30
0.0
 11
856.9441384819862
 21
605.0091020759197
 31
0.0
  0
LINE
  5
309D8
330
1F
100
AcDbEntity
  8
0DFB-2010
  6
陰線1
370
    13
100
AcDbLine
 10
856.9441384819862
 20
605.0091020759197
 30
0.0
 11
856.9441384819862
 21
590.0091020759197
 31
0.0
  0
LINE
  5
309DD
330
1F
100
AcDbEntity
  8
0
  6
Continuous
 62
     7
100
AcDbLine
 10
819.6441406819861
 20
690.0091020759197
 30
0.0
 11
819.6441406819861
 21
690.0091020759197
 31
0.0
  0
LINE
  5
309DE
330
1F
100
AcDbEntity
  8
0
  6
Continuous
 62
     7
100
AcDbLine
 10
832.0441414819862
 20
690.0091020759197
 30
0.0
 11
832.0441414819862
 21
690.0091020759197
 31
0.0
  0
LINE
  5
309DF
330
1F
100
AcDbEntity
  8
0
  6
Continuous
 62
     7
100
AcDbLine
 10
857.0441414819862
 20
690.0091020759197
 30
0.0
 11
857.0441414819862
 21
690.0091020759197
 31
0.0
  0
LINE
  5
309E0
330
1F
100
AcDbEntity
  8
0
  6
Continuous
 62
     7
100
AcDbLine
 10
844.6441394819864
 20
690.0091020759197
 30
0.0
 11
844.6441394819864
 21
690.0091020759197
 31
0.0
  0
LINE
  5
309E1
330
1F
100
AcDbEntity
  8
0DFB-2010
100
AcDbLine
 10
822.8441404819863
 20
686.9091040759196
 30
0.0
 11
828.8441404819863
 21
686.9091040759196
 31
0.0
  0
LINE
  5
309E2
330
1F
100
AcDbEntity
  8
0
  6
Continuous
 62
     7
100
AcDbLine
 10
819.7441405819862
 20
690.0091020759197
 30
0.0
 11
819.7441405819862
 21
690.0091020759197
 31
0.0
  0
LINE
  5
309E3
330
1F
100
AcDbEntity
  8
0
  6
Continuous
 62
     7
100
AcDbLine
 10
831.9441404819862
 20
690.0091020759197
 30
0.0
 11
831.9441404819862
 21
690.0091020759197
 31
0.0
  0
LINE
  5
309E4
330
1F
100
AcDbEntity
  8
0DFB-2010
  6
陰線1
370
    13
100
AcDbLine
 10
818.3441404819863
 20
700.0091020759197
 30
0.0
 11
858.3441404819863
 21
700.0091020759197
 31
0.0
  0
LINE
  5
309E5
330
1F
100
AcDbEntity
  8
0DFB-2010
  6
陰線1
370
    13
100
AcDbLine
 10
818.3441404819863
 20
683.5091020759197
 30
0.0
 11
858.3441404819863
 21
683.5091020759197
 31
0.0
  0
LINE
  5
309E6
330
1F
100
AcDbEntity
  8
0DFB-2010
  6
陰線1
370
    13
100
AcDbLine
 10
815.3441404819863
 20
686.5091020759197
 30
0.0
 11
815.3441404819863
 21
697.0091020759197
 31
0.0
  0
LINE
  5
309E7
330
1F
100
AcDbEntity
  8
0DFB-2010
  6
陰線1
370
    13
100
AcDbLine
 10
861.3441404819862
 20
686.5091020759197
 30
0.0
 11
861.3441404819862
 21
697.0091020759197
 31
0.0
  0
LINE
  5
309E8
330
1F
100
AcDbEntity
  8
0DFB-2010
100
AcDbLine
 10
853.8441404819863
 20
686.9091040759196
 30
0.0
 11
847.8441404819863
 21
686.9091040759196
 31
0.0
  0
LINE
  5
309E9
330
1F
100
AcDbEntity
  8
0DFB-2010
100
AcDbLine
 10
853.8441404819863
 20
693.1091000759197
 30
0.0
 11
847.8441404819863
 21
693.1091000759197
 31
0.0
  0
LINE
  5
309EA
330
1F
100
AcDbEntity
  8
0DFB-2010
100
AcDbLine
 10
822.8441404819863
 20
693.1091000759197
 30
0.0
 11
828.8441404819863
 21
693.1091000759197
 31
0.0
  0
LINE
  5
309EB
330
1F
100
AcDbEntity
  8
0DFB-2010
  6
陰線1
370
    13
100
AcDbLine
 10
819.7441405819862
 20
685.0091020759196
 30
0.0
 11
856.9441384819862
 21
685.0091020759196
 31
0.0
  0
LINE
  5
309EC
330
1F
100
AcDbEntity
  8
0DFB-2010
  6
陰線1
370
    13
100
AcDbLine
 10
819.7441405819862
 20
685.0091020759196
 30
0.0
 11
819.7441405819862
 21
702.0091020759196
 31
0.0
  0
LINE
  5
309ED
330
1F
100
AcDbEntity
  8
0DFB-2010
  6
陰線1
370
    13
100
AcDbLine
 10
856.9441384819862
 20
685.0091020759196
 30
0.0
 11
856.9441384819862
 21
702.0091020759196
 31
0.0
  0
LINE
  5
309EE
330
1F
100
AcDbEntity
  8
0DFB-2010
100
AcDbLine
 10
852.3441404819863
 20
675.5091020759197
 30
0.0
 11
852.3441404819863
 21
646.5091020759197
 31
0.0
  0
LINE
  5
309EF
330
1F
100
AcDbEntity
  8
0DFB-2010
100
AcDbLine
 10
824.3441404819863
 20
675.5091020759197
 30
0.0
 11
824.3441404819863
 21
646.5091020759197
 31
0.0
  0
LINE
  5
309F0
330
1F
100
AcDbEntity
  8
0DFB-2010
100
AcDbLine
 10
830.3441404819862
 20
681.5091020759197
 30
0.0
 11
846.3441404819862
 21
681.5091020759197
 31
0.0
  0
LINE
  5
309F1
330
1F
100
AcDbEntity
  8
0DFB-2010
100
AcDbLine
 10
827.0088684819862
 20
608.5091020759197
 30
0.0
 11
849.6794104819864
 21
608.5091020759197
 31
0.0
  0
LINE
  5
309F2
330
1F
100
AcDbEntity
  8
0DFB-2010
100
AcDbLine
 10
821.0418361819861
 20
615.1372110759197
 30
0.0
 11
824.3441404819863
 21
646.5091020759197
 31
0.0
  0
LINE
  5
309F3
330
1F
100
AcDbEntity
  8
0DFB-2010
100
AcDbLine
 10
852.3441404819863
 20
646.5091020759197
 30
0.0
 11
855.6464474819861
 21
615.1372110759197
 31
0.0
  0
ARC
  5
309F6
330
1F
100
AcDbEntity
  8
0DFB-2010
100
AcDbCircle
 10
815.3441404819863
 20
700.0091020759197
 30
0.0
 40
2.0
100
AcDbArc
 50
90.00000299999769
 51
180.000010000001
  0
ARC
  5
309F7
102
{ACAD_REACTORS
330
30B23
330
30B3B
102
}
330
1F
100
AcDbEntity
  8
0DFB-2010
100
AcDbCircle
 10
861.3441404819862
 20
700.0091020759197
 30
0.0
 40
2.0
100
AcDbArc
 50
0.0
 51
90.00000299999769
  0
ARC
  5
309F8
102
{ACAD_REACTORS
330
30AD8
330
30B3B
330
30BAC
102
}
330
1F
100
AcDbEntity
  8
0DFB-2010
100
AcDbCircle
 10
861.3441404819862
 20
590.0091020759197
 30
0.0
 40
2.0
100
AcDbArc
 50
270.0
 51
0.0
  0
ARC
  5
309F9
102
{ACAD_REACTORS
330
30BE5
102
}
330
1F
100
AcDbEntity
  8
0DFB-2010
100
AcDbCircle
 10
815.3441404819863
 20
590.0091020759197
 30
0.0
 40
2.0
100
AcDbArc
 50
179.999989999999
 51
270.0
  0
ARC
  5
309FA
330
1F
100
AcDbEntity
  8
0DFB-2010
100
AcDbCircle
 10
828.8441404819863
 20
600.0091020759197
 30
0.0
 40
3.099999899999998
100
AcDbArc
 50
0.0
 51
90.00000299999769
  0
ARC
  5
309FB
330
1F
100
AcDbEntity
  8
0DFB-2010
100
AcDbCircle
 10
828.8441404819863
 20
600.0091020759197
 30
0.0
 40
3.099999899999998
100
AcDbArc
 50
270.0
 51
0.0
  0
ARC
  5
309FC
330
1F
100
AcDbEntity
  8
0DFB-2010
100
AcDbCircle
 10
822.8441404819863
 20
600.0091020759197
 30
0.0
 40
3.099999899999998
100
AcDbArc
 50
179.999989999999
 51
270.0
  0
ARC
  5
309FD
330
1F
100
AcDbEntity
  8
0DFB-2010
100
AcDbCircle
 10
822.8441404819863
 20
600.0091020759197
 30
0.0
 40
3.099999899999998
100
AcDbArc
 50
90.00000299999769
 51
180.000010000001
  0
CIRCLE
  5
309FE
330
1F
100
AcDbEntity
  8
0DFB-2010
100
AcDbCircle
 10
825.8441404819862
 20
600.0091020759197
 30
0.0
 40
3.099999899999998
  0
ARC
  5
309FF
330
1F
100
AcDbEntity
  8
0DFB-2010
  6
陰線1
370
    13
100
AcDbCircle
 10
858.3441404819863
 20
603.5091020759197
 30
0.0
 40
3.0
100
AcDbArc
 50
0.0
 51
90.00000299999769
  0
ARC
  5
30A00
330
1F
100
AcDbEntity
  8
0DFB-2010
  6
陰線1
370
    13
100
AcDbCircle
 10
818.3441404819863
 20
603.5091020759197
 30
0.0
 40
3.0
100
AcDbArc
 50
90.00000299999769
 51
180.000010000001
  0
ARC
  5
30A01
330
1F
100
AcDbEntity
  8
0DFB-2010
  6
陰線1
370
    13
100
AcDbCircle
 10
818.3441404819863
 20
593.0091020759197
 30
0.0
 40
3.0
100
AcDbArc
 50
179.999989999999
 51
270.0
  0
ARC
  5
30A02
330
1F
100
AcDbEntity
  8
0DFB-2010
  6
陰線1
370
    13
100
AcDbCircle
 10
858.3441404819863
 20
593.0091020759197
 30
0.0
 40
3.0
100
AcDbArc
 50
270.0
 51
0.0
  0
CIRCLE
  5
30A03
330
1F
100
AcDbEntity
  8
0DFB-2010
  6
陰線1
370
    13
100
AcDbCircle
 10
838.3441404819862
 20
600.0091020759197
 30
0.0
 40
5.0
  0
CIRCLE
  5
30A04
330
1F
100
AcDbEntity
  8
0DFB-2010
100
AcDbCircle
 10
850.8441404819862
 20
600.0091020759197
 30
0.0
 40
3.099999899999998
  0
ARC
  5
30A05
330
1F
100
AcDbEntity
  8
0DFB-2010
100
AcDbCircle
 10
853.8441404819863
 20
600.0091020759197
 30
0.0
 40
3.099999899999998
100
AcDbArc
 50
0.0
 51
90.00000299999769
  0
ARC
  5
30A06
330
1F
100
AcDbEntity
  8
0DFB-2010
100
AcDbCircle
 10
847.8441404819863
 20
600.0091020759197
 30
0.0
 40
3.099999899999998
100
AcDbArc
 50
90.00000299999769
 51
180.000010000001
  0
ARC
  5
30A07
330
1F
100
AcDbEntity
  8
0DFB-2010
100
AcDbCircle
 10
847.8441404819863
 20
600.0091020759197
 30
0.0
 40
3.099999899999998
100
AcDbArc
 50
180.000010000001
 51
270.0
  0
ARC
  5
30A08
330
1F
100
AcDbEntity
  8
0DFB-2010
100
AcDbCircle
 10
853.8441404819863
 20
600.0091020759197
 30
0.0
 40
3.099999899999998
100
AcDbArc
 50
270.0
 51
0.0
  0
ARC
  5
30A09
330
1F
100
AcDbEntity
  8
0DFB-2010
100
AcDbCircle
 10
853.8441404819863
 20
690.0091020759197
 30
0.0
 40
3.099999899999998
100
AcDbArc
 50
0.0
 51
90.00000299999769
  0
ARC
  5
30A0A
330
1F
100
AcDbEntity
  8
0DFB-2010
100
AcDbCircle
 10
828.8441404819863
 20
690.0091020759197
 30
0.0
 40
3.099999899999998
100
AcDbArc
 50
270.0
 51
0.0
  0
ARC
  5
30A0B
330
1F
100
AcDbEntity
  8
0DFB-2010
100
AcDbCircle
 10
828.8441404819863
 20
690.0091020759197
 30
0.0
 40
3.099999899999998
100
AcDbArc
 50
0.0
 51
90.00000299999769
  0
ARC
  5
30A0C
330
1F
100
AcDbEntity
  8
0DFB-2010
100
AcDbCircle
 10
822.8441404819863
 20
690.0091020759197
 30
0.0
 40
3.099999899999998
100
AcDbArc
 50
90.00000299999769
 51
180.000010000001
  0
ARC
  5
30A0D
330
1F
100
AcDbEntity
  8
0DFB-2010
100
AcDbCircle
 10
822.8441404819863
 20
690.0091020759197
 30
0.0
 40
3.099999899999998
100
AcDbArc
 50
179.999989999999
 51
270.0
  0
CIRCLE
  5
30A0E
330
1F
100
AcDbEntity
  8
0DFB-2010
100
AcDbCircle
 10
825.8441404819862
 20
690.0091020759197
 30
0.0
 40
3.099999899999998
  0
ARC
  5
30A0F
330
1F
100
AcDbEntity
  8
0DFB-2010
  6
陰線1
370
    13
100
AcDbCircle
 10
858.3441404819863
 20
686.5091020759197
 30
0.0
 40
3.0
100
AcDbArc
 50
270.0
 51
0.0
  0
ARC
  5
30A10
330
1F
100
AcDbEntity
  8
0DFB-2010
  6
陰線1
370
    13
100
AcDbCircle
 10
818.3441404819863
 20
686.5091020759197
 30
0.0
 40
3.0
100
AcDbArc
 50
179.999989999999
 51
270.0
  0
ARC
  5
30A11
330
1F
100
AcDbEntity
  8
0DFB-2010
  6
陰線1
370
    13
100
AcDbCircle
 10
818.3441404819863
 20
697.0091020759197
 30
0.0
 40
3.0
100
AcDbArc
 50
90.00000299999769
 51
180.000010000001
  0
ARC
  5
30A12
330
1F
100
AcDbEntity
  8
0DFB-2010
  6
陰線1
370
    13
100
AcDbCircle
 10
858.3441404819863
 20
697.0091020759197
 30
0.0
 40
3.0
100
AcDbArc
 50
0.0
 51
90.00000299999769
  0
CIRCLE
  5
30A13
330
1F
100
AcDbEntity
  8
0DFB-2010
  6
陰線1
370
    13
100
AcDbCircle
 10
838.3441404819862
 20
690.0091020759197
 30
0.0
 40
5.0
  0
CIRCLE
  5
30A14
330
1F
100
AcDbEntity
  8
0DFB-2010
100
AcDbCircle
 10
850.8441404819862
 20
690.0091020759197
 30
0.0
 40
3.099999899999998
  0
ARC
  5
30A15
330
1F
100
AcDbEntity
  8
0DFB-2010
100
AcDbCircle
 10
853.8441404819863
 20
690.0091020759197
 30
0.0
 40
3.099999899999998
100
AcDbArc
 50
270.0
 51
0.0
  0
ARC
  5
30A16
330
1F
100
AcDbEntity
  8
0DFB-2010
100
AcDbCircle
 10
847.8441404819863
 20
690.0091020759197
 30
0.0
 40
3.099999899999998
100
AcDbArc
 50
179.999989999999
 51
270.0
  0
ARC
  5
30A17
330
1F
100
AcDbEntity
  8
0DFB-2010
100
AcDbCircle
 10
847.8441404819863
 20
690.0091020759197
 30
0.0
 40
3.099999899999998
100
AcDbArc
 50
90.00000299999769
 51
180.000010000001
  0
ARC
  5
30A18
330
1F
100
AcDbEntity
  8
0DFB-2010
100
AcDbCircle
 10
830.3441404819862
 20
675.5091020759197
 30
0.0
 40
6.0
100
AcDbArc
 50
90.00000299999769
 51
180.000010000001
  0
ARC
  5
30A19
330
1F
100
AcDbEntity
  8
0DFB-2010
100
AcDbCircle
 10
846.3441404819862
 20
675.5091020759197
 30
0.0
 40
6.0
100
AcDbArc
 50
0.0
 51
90.00000299999769
  0
ARC
  5
30A1A
330
1F
100
AcDbEntity
  8
0DFB-2010
100
AcDbCircle
 10
827.0088684819862
 20
614.5091020759196
 30
0.0
 40
6.0
100
AcDbArc
 50
173.9909999999969
 51
270.0
  0
ARC
  5
30A1B
330
1F
100
AcDbEntity
  8
0DFB-2010
100
AcDbCircle
 10
849.6794104819864
 20
614.5091020759196
 30
0.0
 40
6.0
100
AcDbArc
 50
270.0
 51
6.009005800002485
  0
CIRCLE
  5
30A1C
330
1F
100
AcDbEntity
  8
AM_11
100
AcDbCircle
 10
839.3441404819864
 20
665.0091020759197
 30
0.0
 40
13.0
  0
LINE
  5
30AB9
330
1F
100
AcDbEntity
  8
AM_7
100
AcDbLine
 10
823.3441404819863
 20
665.0091020759197
 30
0.0
 11
855.3441404819862
 21
665.0091020759197
 31
0.0
1001
GENIUS_GENOBJ-N-CEN_13
1002
{
1000
OWNER
1000
GEN
1002
}
1001
GENIUS_GENODEF_13
1002
{
1000
HIER
1070
     0
1002
}
1002
{
1000
MANEDIT
1070
     0
1002
}
1002
{
1000
NOSEL
1070
     0
1002
}
1002
{
1000
BEHIND
1070
     0
1002
}
1002
{
1000
OTHER
1070
     0
1002
}
1002
{
1000
REACTOR
1002
}
1001
GENIUS_GENCEN_19
1002
{
1040
3.0
1002
}
  0
LINE
  5
30ABA
102
{ACAD_REACTORS
330
30C08
102
}
330
1F
100
AcDbEntity
  8
AM_7
100
AcDbLine
 10
839.3441404819864
 20
649.0091020759197
 30
0.0
 11
839.3441404819864
 21
681.0091020759196
 31
0.0
1001
GENIUS_GENODEF_13
1002
{
1000
HIER
1070
     0
1002
}
1002
{
1000
MANEDIT
1070
     0
1002
}
1002
{
1000
NOSEL
1070
     0
1002
}
1002
{
1000
BEHIND
1070
     0
1002
}
1002
{
1000
OTHER
1070
     0
1002
}
1002
{
1000
REACTOR
1002
}
1001
GENIUS_GENOBJ-N-CEN_13
1002
{
1000
OWNER
1000
GEN
1002
}
1001
GENIUS_GENCEN_19
1002
{
1040
3.0
1002
}
  0
LINE
  5
30ABB
330
1F
100
AcDbEntity
  8
AM_7
100
AcDbLine
 10
838.3441404819862
 20
705.0091020759197
 30
0.0
 11
838.3441404819862
 21
585.0091020759196
 31
0.0
1001
GENIUS_GENODEF_13
1002
{
1000
HIER
1070
     0
1002
}
1002
{
1000
MANEDIT
1070
     0
1002
}
1002
{
1000
NOSEL
1070
     0
1002
}
1002
{
1000
BEHIND
1070
     0
1002
}
1002
{
1000
OTHER
1070
     0
1002
}
1002
{
1000
REACTOR
1002
}
1001
GENIUS_GENOBJ-N-CEN_13
1002
{
1000
OWNER
1000
GEN
1002
}
1001
GENIUS_GENCEN_19
1002
{
1040
3.0
1002
}
  0
LINE
  5
30ABC
102
{ACAD_REACTORS
330
30AD8
330
30AF0
102
}
330
1F
100
AcDbEntity
  8
AM_7
100
AcDbLine
 10
816.744140594751
 20
600.0093782815667
 30
0.0
 11
859.9441384692214
 21
600.0053931292787
 31
0.0
1001
GENIUS_GENODEF_13
1002
{
1000
HIER
1070
     0
1002
}
1002
{
1000
MANEDIT
1070
     0
1002
}
1002
{
1000
NOSEL
1070
     0
1002
}
1002
{
1000
BEHIND
1070
     0
1002
}
1002
{
1000
OTHER
1070
     0
1002
}
1002
{
1000
REACTOR
1002
}
1001
GENIUS_GENOBJ-N-CEN_13
1002
{
1000
OWNER
1000
GEN
1002
}
1001
GENIUS_GENCEN_19
1002
{
1040
3.0
1002
}
  0
LINE
  5
30ABD
102
{ACAD_REACTORS
330
30BCD
330
30BE5
102
}
330
1F
100
AcDbEntity
  8
AM_7
  6
AM_ISO08W050x2
100
AcDbLine
 10
825.8373867983316
 20
593.9091059146294
 30
0.0
 11
825.8508941657092
 21
606.10909823721
 31
0.0
1001
GENIUS_GENODEF_13
1002
{
1000
HIER
1070
     0
1002
}
1002
{
1000
MANEDIT
1070
     0
1002
}
1002
{
1000
NOSEL
1070
     0
1002
}
1002
{
1000
BEHIND
1070
     0
1002
}
1002
{
1000
OTHER
1070
     0
1002
}
1002
{
1000
REACTOR
1002
}
1001
GENIUS_GENOBJ-N-CEN_13
1002
{
1000
OWNER
1000
GEN
1002
}
1001
GENIUS_GENCEN_19
1002
{
1040
3.0
1002
}
  0
LINE
  5
30ABE
102
{ACAD_REACTORS
330
30BAC
102
}
330
1F
100
AcDbEntity
  8
AM_7
  6
AM_ISO08W050x2
100
AcDbLine
 10
850.8373867983316
 20
593.9091059146294
 30
0.0
 11
850.8508941657092
 21
606.10909823721
 31
0.0
1001
GENIUS_GENOBJ-N-CEN_13
1002
{
1000
OWNER
1000
GEN
1002
}
1001
GENIUS_GENODEF_13
1002
{
1000
HIER
1070
     0
1002
}
1002
{
1000
MANEDIT
1070
     0
1002
}
1002
{
1000
NOSEL
1070
     0
1002
}
1002
{
1000
BEHIND
1070
     0
1002
}
1002
{
1000
OTHER
1070
     0
1002
}
1002
{
1000
REACTOR
1002
}
1001
GENIUS_GENCEN_19
1002
{
1040
3.0
1002
}
  0
LINE
  5
30AC2
330
1F
100
AcDbEntity
  8
0DFB-2010
  6
陰線1
370
    13
100
AcDbLine
 10
819.7441424819864
 20
605.0091020759197
 30
0.0
 11
819.7441424819864
 21
590.0091020759197
 31
0.0
  0
LINE
  5
30AC7
102
{ACAD_REACTORS
330
30AF0
330
30B23
330
30C45
102
}
330
1F
100
AcDbEntity
  8
AM_7
100
AcDbLine
 10
816.744140594751
 20
690.0088258702727
 30
0.0
 11
859.9441384692214
 21
690.0128110225607
 31
0.0
1001
GENIUS_GENODEF_13
1002
{
1000
HIER
1070
     0
1002
}
1002
{
1000
MANEDIT
1070
     0
1002
}
1002
{
1000
NOSEL
1070
     0
1002
}
1002
{
1000
BEHIND
1070
     0
1002
}
1002
{
1000
OTHER
1070
     0
1002
}
1002
{
1000
REACTOR
1002
}
1001
GENIUS_GENOBJ-N-CEN_13
1002
{
1000
OWNER
1000
GEN
1002
}
1001
GENIUS_GENCEN_19
1002
{
1040
3.0
1002
}
  0
LINE
  5
30AC8
330
1F
100
AcDbEntity
  8
AM_7
  6
AM_ISO08W050x2
100
AcDbLine
 10
825.8373867983316
 20
696.1090982372099
 30
0.0
 11
825.8508941657092
 21
683.9091059146294
 31
0.0
1001
GENIUS_GENODEF_13
1002
{
1000
HIER
1070
     0
1002
}
1002
{
1000
MANEDIT
1070
     0
1002
}
1002
{
1000
NOSEL
1070
     0
1002
}
1002
{
1000
BEHIND
1070
     0
1002
}
1002
{
1000
OTHER
1070
     0
1002
}
1002
{
1000
REACTOR
1002
}
1001
GENIUS_GENOBJ-N-CEN_13
1002
{
1000
OWNER
1000
GEN
1002
}
1001
GENIUS_GENCEN_19
1002
{
1040
3.0
1002
}
  0
LINE
  5
30AC9
330
1F
100
AcDbEntity
  8
AM_7
  6
AM_ISO08W050x2
100
AcDbLine
 10
850.8373867983316
 20
696.1090982372099
 30
0.0
 11
850.8508941657092
 21
683.9091059146294
 31
0.0
1001
GENIUS_GENOBJ-N-CEN_13
1002
{
1000
OWNER
1000
GEN
1002
}
1001
GENIUS_GENODEF_13
1002
{
1000
HIER
1070
     0
1002
}
1002
{
1000
MANEDIT
1070
     0
1002
}
1002
{
1000
NOSEL
1070
     0
1002
}
1002
{
1000
BEHIND
1070
     0
1002
}
1002
{
1000
OTHER
1070
     0
1002
}
1002
{
1000
REACTOR
1002
}
1001
GENIUS_GENCEN_19
1002
{
1040
3.0
1002
}
  0
DIMENSION
  5
30ACA
102
{ACAD_XDICTIONARY
360
30AD7
102
}
102
{ACAD_REACTORS
330
30AD8
102
}
330
1F
100
AcDbEntity
  8
AM_5
100
AcDbDimension
  2
*D17
 10
875.3441414919862
 20
588.0091020759197
 30
0.0
 11
872.2441414919861
 21
594.0072476025993
 31
0.0
 70
    32
 71
     5
 42
11.99629105335896
  3
SYS$0
100
AcDbAlignedDimension
 13
859.9441384692214
 23
600.0053931292787
 33
0.0
 14
861.3441404819862
 24
588.0091020759197
 34
0.0
 50
90.00000000000003
100
AcDbRotatedDimension
  0
DIMENSION
  5
30AE2
102
{ACAD_XDICTIONARY
360
30AEF
102
}
102
{ACAD_REACTORS
330
30AF0
102
}
330
1F
100
AcDbEntity
  8
AM_5
100
AcDbDimension
  2
*D18
 10
875.3524434361642
 20
690.0113896233753
 30
0.0
 11
872.2482919067395
 21
645.0079670312986
 31
0.0
 70
    32
 71
     5
 42
90.00741751030693
  3
SYS$0
100
AcDbAlignedDimension
 13
859.9441384692214
 23
600.0053931292787
 33
0.0
 14
859.9441384692212
 24
690.0128110225608
 34
0.0
 50
89.99471452737497
100
AcDbRotatedDimension
1001
ACAD
1000
DSTYLE
1002
{
1070
   271
1070
     1
1002
}
  0
DIMENSION
  5
30B15
102
{ACAD_XDICTIONARY
360
30B22
102
}
102
{ACAD_REACTORS
330
30B23
102
}
330
1F
100
AcDbEntity
  8
AM_5
100
AcDbDimension
  2
*D19
 10
875.3441414919862
 20
702.0091020759196
 30
0.0
 11
872.2441414919861
 21
696.0109565492405
 31
0.0
 70
    32
 71
     5
 42
11.99629105335896
  3
SYS$0
100
AcDbAlignedDimension
 13
859.9441384692214
 23
690.0128110225607
 33
0.0
 14
861.3441403772666
 24
702.0091020759196
 34
0.0
 50
90.00000000000003
100
AcDbRotatedDimension
  0
DIMENSION
  5
30B2D
102
{ACAD_XDICTIONARY
360
30B3A
102
}
102
{ACAD_REACTORS
330
30B3B
102
}
330
1F
100
AcDbEntity
  8
AM_5
100
AcDbDimension
  2
*D20
 10
885.3441414919867
 20
702.0091020759196
 30
0.0
 11
882.2441414919865
 21
645.0091020759199
 31
0.0
 70
    32
 71
     5
 42
114.0
  3
SYS$0
100
AcDbAlignedDimension
 13
861.3441404819862
 23
588.0091020759197
 33
0.0
 14
861.3441403772666
 24
702.0091020759196
 34
0.0
 50
90.00000000000003
100
AcDbRotatedDimension
  0
LINE
  5
30B95
330
1F
100
AcDbEntity
  8
AM_5
100
AcDbLine
 10
822.9427628150949
 20
694.2033846861004
 30
0.0
 11
815.2394639519853
 21
705.3394090759194
 31
0.0
  0
LINE
  5
30B96
330
1F
100
AcDbEntity
  8
AM_5
100
AcDbLine
 10
815.2394639519853
 20
705.3394090759194
 30
0.0
 11
806.3894639519855
 21
705.3394090759194
 31
0.0
  0
LINE
  5
30B97
330
1F
100
AcDbEntity
  8
AM_5
100
AcDbLine
 10
827.60772296308
 20
687.4596362078641
 30
0.0
 11
824.0805580008911
 21
692.5585679439741
 31
0.0
  0
INSERT
  5
30B99
330
1F
100
AcDbEntity
  8
AM_5
100
AcDbBlockReference
  2
GENDOT
 10
824.0805580008911
 20
692.5585679439741
 30
0.0
 41
2.0
 42
2.0
 43
2.0
 50
304.6733872790693
  0
MTEXT
  5
30B9A
330
1F
100
AcDbEntity
  8
AM_5
 62
     2
100
AcDbMText
 10
810.0644639519854
 20
708.5894090759195
 30
0.0
 40
3.5
 41
0.0
 71
     5
 72
     1
  1
\U+22056.2
 73
     1
 44
1.0
1001
ACAD
1000
MTEXTBEGIN
1070
    73
1070
     1
1070
    44
1040
1.0
1070
    74
1070
     0
1000
MTEXTEND
  0
LWPOLYLINE
  5
30B9C
330
1F
100
AcDbEntity
  8
AM_5
100
AcDbPolyline
 90
        2
 70
     1
 43
0.5
 10
827.7499473613044
 20
687.2540341150984
 42
1.0
 10
827.4654985648556
 20
687.6652383006298
 42
1.0
  0
DIMENSION
  5
30B9E
102
{ACAD_XDICTIONARY
360
30BAB
102
}
102
{ACAD_REACTORS
330
30BAC
330
30BCD
102
}
330
1F
100
AcDbEntity
  8
AM_5
100
AcDbDimension
  2
*D21
 10
863.3441404819862
 20
578.0091020759197
 30
0.0
 11
857.0907636401589
 21
581.1091020759197
 31
0.0
 70
    32
 71
     5
 42
12.50675368365466
  3
SYS$0
100
AcDbAlignedDimension
 13
850.8373867983316
 23
593.9091059146294
 33
0.0
 14
863.3441404819862
 24
590.0091020759197
 34
0.0
 50
0.0000000000001132
100
AcDbRotatedDimension
1001
ACAD
1000
DSTYLE
1002
{
1070
   271
1070
     1
1002
}
  0
DIMENSION
  5
30BBF
102
{ACAD_XDICTIONARY
360
30BCC
102
}
102
{ACAD_REACTORS
330
30BCD
102
}
330
1F
100
AcDbEntity
  8
AM_5
100
AcDbDimension
  2
*D22
 10
825.8373867983316
 20
578.009102075919
 30
0.0
 11
838.3373867983316
 21
581.1091020759191
 31
0.0
 70
    32
 71
     5
 42
25.0
  3
SYS$0
100
AcDbAlignedDimension
 13
850.8373867983316
 23
592.9091059146294
 33
0.0
 14
825.8373867983316
 24
593.9091059146294
 34
0.0
 50
0.0000000000001132
100
AcDbRotatedDimension
  0
DIMENSION
  5
30BD7
102
{ACAD_XDICTIONARY
360
30BE4
102
}
102
{ACAD_REACTORS
330
30BE5
102
}
330
1F
100
AcDbEntity
  8
AM_5
100
AcDbDimension
  2
*D23
 10
813.3441404819862
 20
578.0091020759183
 30
0.0
 11
819.5907636401589
 21
581.1091020759183
 31
0.0
 70
    32
 71
     5
 42
12.49324631634533
  3
SYS$0
100
AcDbAlignedDimension
 13
825.8373867983316
 23
593.9091059146294
 33
0.0
 14
813.3441404819862
 24
590.0091020759197
 34
0.0
 50
0.0000000000001132
100
AcDbRotatedDimension
1001
ACAD
1000
DSTYLE
1002
{
1070
   271
1070
     1
1002
}
  0
DIMENSION
  5
30BF8
102
{ACAD_XDICTIONARY
360
30C07
102
}
102
{ACAD_REACTORS
330
30C08
102
}
330
1F
100
AcDbEntity
  8
AM_5
100
AcDbDimension
  2
*D24
 10
838.3441404819862
 20
642.6994228575645
 30
0.0
 11
834.5774738153195
 21
645.7994228575645
 31
0.0
 70
    32
 71
     5
  3
SYS$0
100
AcDbAlignedDimension
 13
839.3441404819864
 23
649.0091020759197
 33
0.0
 14
838.3441404819862
 24
648.7411528834885
 34
0.0
 50
0.0000000000001132
100
AcDbRotatedDimension
  0
DIMENSION
  5
30C37
102
{ACAD_XDICTIONARY
360
30C44
102
}
102
{ACAD_REACTORS
330
30C45
102
}
330
1F
100
AcDbEntity
  8
AM_5
100
AcDbDimension
  2
*D25
 10
804.7441405947511
 20
665.0091020759197
 30
0.0
 11
801.644140594751
 21
677.5089639730964
 31
0.0
 70
    32
 71
     5
 42
24.99972379435303
  3
SYS$0
100
AcDbAlignedDimension
 13
816.744140594751
 23
690.0088258702727
 33
0.0
 14
823.3441404819863
 24
665.0091020759197
 34
0.0
 50
90.00000000000003
100
AcDbRotatedDimension
  0
VIEWPORT
  5
1B6C8
102
{ACAD_XDICTIONARY
360
30C75
102
}
330
1B
100
AcDbEntity
 67
     1
  8
0
100
AcDbViewport
 10
153.4634011109285
 20
101.7587463855743
 30
0.0
 40
313.2767778077945
 41
209.8674926757813
 68
     1
 69
     1
 12
153.4634011109285
 22
101.7587463855743
 13
0.0
 23
0.0
 14
2.5
 24
2.5
 15
10.0
 25
10.0
 16
0.0
 26
0.0
 36
1.0
 17
0.0
 27
0.0
 37
0.0
 42
50.0
 43
0.0
 44
0.0
 45
209.8674926757813
 50
0.0
 51
0.0
 72
   100
 90
    32800
  1

281
     0
 71
     1
 74
     0
110
0.0
120
0.0
130
0.0
111
1.0
121
0.0
131
0.0
112
0.0
122
1.0
132
0.0
 79
     0
146
0.0
1001
GENIUS_GENOBJ-N-SDF_13
1002
{
1000
OWNER
1000
GEN
1002
}
1001
GENIUS_GENODEF_13
1002
{
1000
HIER
1070
     0
1002
}
1002
{
1000
MANEDIT
1070
     0
1002
}
1002
{
1000
NOSEL
1070
     0
1002
}
1002
{
1000
BEHIND
1070
     0
1002
}
1002
{
1000
OTHER
1070
     0
1002
}
1002
{
1000
REACTOR
1002
}
1001
GENIUS_GENSCREG_15
1000
PF
1040
1.0
1000
DF
1040
1.0
1000
MIN
1011
-3.17498779296875
1021
-3.174999952316369
1031
0.0
1000
MAX
1011
310.1017900148257
1021
206.692492723465
1031
0.0
1000
FLAGS
1070
     2
  0
ENDSEC
  0
SECTION
  2
OBJECTS
  0
DICTIONARY
  5
C
330
0
100
AcDbDictionary
281
     1
  3
ACAD_2007HEADERVARS_RT
350
30C58
  3
ACAD_BGPLOT_KEY
350
AB06
  3
ACAD_COLOR
350
A91D
  3
ACAD_GROUP
350
D
  3
ACAD_LAYOUT
350
1A
  3
ACAD_MATERIAL
350
A91C
  3
ACAD_MLINESTYLE
350
17
  3
ACAD_PLOTSETTINGS
350
19
  3
ACAD_PLOTSTYLENAME
350
E
  3
ACAD_TABLESTYLE
350
AAB9
  3
ACAD_VISUALSTYLE
350
2FC4D
  3
AcAsAppObject
350
3DA1
  3
ACASGREF_MASTER
350
3DE9
  3
AcDbVariableDictionary
350
34
  3
AcmDictionary
350
47
  3
AD_GREF_MODULE
350
3DEA
  3
AD_MAPI_MODULE
350
3E06
  3
AMG
350
2B
  3
AMGSNAPSETTINGS
350
7D
  3
ASE_INDEX_DICTIONARY
350
2C9F5
  3
DWGPROPS
350
30C57
  3
MAPISURF_MODULE
350
3DEB
  0
DICTIONARY
  5
3F95
330
2
100
AcDbDictionary
280
     1
281
     1
  3
ACAD_LAYERFILTERS
360
AF79
  3
ACAD_LAYERSTATES
360
3F96
  3
ACLYDICTIONARY
360
AF78
  3
AMLAYER_GROUPCOLORS
360
AAB4
  0
DICTIONARY
  5
8A
330
1F
100
AcDbDictionary
280
     1
281
     1
  3
ACAD_SORTENTS
360
C9FA
  0
DICTIONARY
  5
30760
330
30753
100
AcDbDictionary
280
     1
281
     1
  3
ACAD_DIMASSOC
360
30761
  0
DICTIONARY
  5
30790
330
30783
100
AcDbDictionary
280
     1
281
     1
  3
ACAD_DIMASSOC
360
30791
  0
DICTIONARY
  5
30829
330
3081C
100
AcDbDictionary
280
     1
281
     1
  3
ACAD_DIMASSOC
360
3082A
  0
DICTIONARY
  5
308B4
330
308A6
100
AcDbDictionary
280
     1
281
     1
  3
ACAD_DIMASSOC
360
308B5
  0
DICTIONARY
  5
308CD
330
308C0
100
AcDbDictionary
280
     1
281
     1
  3
ACAD_DIMASSOC
360
308CE
  0
DICTIONARY
  5
308E6
330
308D8
100
AcDbDictionary
280
     1
281
     1
  3
ACAD_DIMASSOC
360
308E7
  0
DICTIONARY
  5
308FF
330
308F2
100
AcDbDictionary
280
     1
281
     1
  3
ACAD_DIMASSOC
360
30900
  0
DICTIONARY
  5
30920
330
30913
100
AcDbDictionary
280
     1
281
     1
  3
ACAD_DIMASSOC
360
30921
  0
DICTIONARY
  5
30938
330
3092B
100
AcDbDictionary
280
     1
281
     1
  3
ACAD_DIMASSOC
360
30939
  0
DICTIONARY
  5
30AD7
330
30ACA
100
AcDbDictionary
280
     1
281
     1
  3
ACAD_DIMASSOC
360
30AD8
  0
DICTIONARY
  5
30AEF
330
30AE2
100
AcDbDictionary
280
     1
281
     1
  3
ACAD_DIMASSOC
360
30AF0
  0
DICTIONARY
  5
30B22
330
30B15
100
AcDbDictionary
280
     1
281
     1
  3
ACAD_DIMASSOC
360
30B23
  0
DICTIONARY
  5
30B3A
330
30B2D
100
AcDbDictionary
280
     1
281
     1
  3
ACAD_DIMASSOC
360
30B3B
  0
DICTIONARY
  5
30BAB
330
30B9E
100
AcDbDictionary
280
     1
281
     1
  3
ACAD_DIMASSOC
360
30BAC
  0
DICTIONARY
  5
30BCC
330
30BBF
100
AcDbDictionary
280
     1
281
     1
  3
ACAD_DIMASSOC
360
30BCD
  0
DICTIONARY
  5
30BE4
330
30BD7
100
AcDbDictionary
280
     1
281
     1
  3
ACAD_DIMASSOC
360
30BE5
  0
DICTIONARY
  5
30C07
330
30BF8
100
AcDbDictionary
280
     1
281
     1
  3
ACAD_DIMASSOC
360
30C08
  0
DICTIONARY
  5
30C44
330
30C37
100
AcDbDictionary
280
     1
281
     1
  3
ACAD_DIMASSOC
360
30C45
  0
DICTIONARY
  5
30C75
330
1B6C8
100
AcDbDictionary
280
     1
281
     1
  3
ACAD_XREC_ROUNDTRIP
360
30C76
  0
DICTIONARY
  5
30C58
102
{ACAD_REACTORS
330
C
102
}
330
C
100
AcDbDictionary
281
     1
  3
DIMARCSYM
350
30C59
  0
DICTIONARY
  5
AB06
102
{ACAD_REACTORS
330
C
102
}
330
C
100
AcDbDictionary
280
     1
281
     1
  0
DICTIONARY
  5
A91D
102
{ACAD_REACTORS
330
C
102
}
330
C
100
AcDbDictionary
281
     1
  0
DICTIONARY
  5
D
102
{ACAD_REACTORS
330
C
102
}
330
C
100
AcDbDictionary
281
     1
  0
DICTIONARY
  5
1A
102
{ACAD_REACTORS
330
C
102
}
330
C
100
AcDbDictionary
281
     1
  3
Model
350
22
  3
ﾚｲｱｳﾄ1
350
1E
  3
ﾚｲｱｳﾄ2
350
26
  0
DICTIONARY
  5
A91C
102
{ACAD_REACTORS
330
C
102
}
330
C
100
AcDbDictionary
281
     1
  3
ByBlock
350
2FC4B
  3
ByLayer
350
2FC4A
  3
Global
350
2FC4C
  0
DICTIONARY
  5
17
102
{ACAD_REACTORS
330
C
102
}
330
C
100
AcDbDictionary
281
     1
  3
Standard
350
18
  0
DICTIONARY
  5
19
102
{ACAD_REACTORS
330
C
102
}
330
C
100
AcDbDictionary
281
     1
  3
01   A1　１：１
350
C99B
  3
02   A2　１：１
350
C99C
  3
03   A3　１：１
350
C99D
  3
04   A4  １：１
350
C99E
  3
05   A1 自動調整
350
C99F
  3
06   A2 自動調整
350
C9A0
  3
07   A3 自動調整
350
C9A1
  3
08   A4 自動調整
350
C9A2
  3
09   A1をA3に
350
C9A3
  3
10   A2をA3に
350
C9A4
  0
ACDBDICTIONARYWDFLT
  5
E
102
{ACAD_REACTORS
330
C
102
}
330
C
100
AcDbDictionary
281
     1
  3
Normal
350
F
100
AcDbDictionaryWithDefault
340
F
  0
DICTIONARY
  5
AAB9
102
{ACAD_REACTORS
330
C
102
}
330
C
100
AcDbDictionary
281
     1
  3
Standard
350
AABA
  0
DICTIONARY
  5
2FC4D
102
{ACAD_REACTORS
330
C
102
}
330
C
100
AcDbDictionary
281
     1
  3
2dWireframe
350
2FC53
  3
3D Hidden
350
2FC55
  3
3dWireframe
350
2FC54
  3
Basic
350
2FC52
  3
Brighten
350
2FC59
  3
ColorChange
350
2FC5D
  3
Conceptual
350
2FC56
  3
Dim
350
2FC58
  3
Facepattern
350
2FC5C
  3
Flat
350
2FC4E
  3
FlatWithEdges
350
2FC4F
  3
Gouraud
350
2FC50
  3
GouraudWithEdges
350
2FC51
  3
Linepattern
350
2FC5B
  3
Realistic
350
2FC57
  3
Thicken
350
2FC5A
  0
ACAD_PROXY_OBJECT
  5
3DA1
102
{ACAD_REACTORS
330
C
102
}
330
C
100
AcDbProxyObject
 90
      499
 91
      576
 95
   917527
 70
     0
 93
       10
310
407F
 94
        0
1001
ACAD
1000
AcRTDxfName
1000
ASAPP
1000
AcRTDxfName
1000
ASAPP
1000
AcRTDxfName
1000
ASAPP
1000
AcRTDxfName
1000
ASAPP
1000
AcRTDxfName
1000
ASAPP
1000
AcRTDxfName
1000
ASAPP
  0
ACAD_PROXY_OBJECT
  5
3DE9
102
{ACAD_REACTORS
330
C
102
}
330
C
100
AcDbProxyObject
 90
      499
 91
      581
 95
   917527
 70
     0
 93
       34
310
010000407F
 94
        0
1001
ACAD
1000
AcRTDxfName
1000
ACASGREFMASTER
1000
AcRTDxfName
1000
ACASGREFMASTER
1000
AcRTDxfName
1000
ACASGREFMASTER
1000
AcRTDxfName
1000
ACASGREFMASTER
1000
AcRTDxfName
1000
ACASGREFMASTER
1000
AcRTDxfName
1000
ACASGREFMASTER
  0
DICTIONARY
  5
34
102
{ACAD_REACTORS
330
C
102
}
330
C
100
AcDbDictionary
281
     1
  3
CTABLESTYLE
350
AAF3
  3
DIMASSOC
350
A10C
  3
FIELDEVAL
350
AB07
  3
INDEXCTL
350
35
  3
PROJECTNAME
350
2F3AA
  3
SORTENTS
350
194C
  0
DICTIONARY
  5
47
102
{ACAD_REACTORS
330
C
102
}
330
C
100
AcDbDictionary
281
     1
  3
AcmBOM
350
7E8
  3
AcmStdDictionary
350
4C
  3
AMDTSECTSYM_ARROWCOLOR
350
A929
  0
ACAD_PROXY_OBJECT
  5
3DEA
102
{ACAD_REACTORS
330
C
102
}
330
C
100
AcDbProxyObject
 90
      499
 91
      582
 95
   917527
 70
     0
 93
      114
310
00000043800000000000000000003F
 94
        0
1001
ACAD
1000
AcRTDxfName
1000
ACADGREFMODULE
1000
AcRTDxfName
1000
ACADGREFMODULE
1000
AcRTDxfName
1000
ACADGREFMODULE
1000
AcRTDxfName
1000
ACADGREFMODULE
1000
AcRTDxfName
1000
ACADGREFMODULE
1000
AcRTDxfName
1000
ACADGREFMODULE
  0
ACAD_PROXY_OBJECT
  5
3E06
102
{ACAD_REACTORS
330
C
102
}
330
C
100
AcDbProxyObject
 90
      499
 91
      594
 95
   917527
 70
     0
 93
       34
310
05000044FF
 94
        0
1001
ACAD
1000
AcRTDxfName
1000
MAPIADMODULE
1000
AcRTDxfName
1000
MAPIADMODULE
1000
AcRTDxfName
1000
MAPIADMODULE
1000
AcRTDxfName
1000
MAPIADMODULE
1000
AcRTDxfName
1000
MAPIADMODULE
1000
AcRTDxfName
1000
MAPIADMODULE
  0
DICTIONARY
  5
2B
102
{ACAD_REACTORS
330
C
102
}
330
C
100
AcDbDictionary
281
     1
  0
DICTIONARY
  5
7D
102
{ACAD_REACTORS
330
C
102
}
330
C
100
AcDbDictionary
281
     1
  0
DICTIONARY
  5
2C9F5
102
{ACAD_REACTORS
330
C
102
}
330
C
100
AcDbDictionary
281
     1
  3
ASEBlockHierarchyIndexRecord
350
2C9F6
1001
DCO15
1040
1558967278.687
  0
XRECORD
  5
30C57
102
{ACAD_REACTORS
330
C
102
}
330
C
100
AcDbXrecord
280
     1
  1
DWGPROPS COOKIE
  2

  3

  4

  6

  7

  8
Administrator
  9

300
AmdtFileType=84
301
=
302
=
303
=
304
=
305
=
306
=
307
=
308
=
309
=
 40
13.33544780092593
 41
2453690.706505706
 42
2455250.617936192
  1

 90
        1
  0
ACAD_PROXY_OBJECT
  5
3DEB
102
{ACAD_REACTORS
330
C
102
}
330
C
100
AcDbProxyObject
 90
      499
 91
      583
 95
   917527
 70
     0
 93
        8
310
047E
 94
        0
1001
ACAD
1000
AcRTDxfName
1000
AMDTMAPISURFMOUDULE
1000
AcRTDxfName
1000
AMDTMAPISURFMOUDULE
1000
AcRTDxfName
1000
AMDTMAPISURFMOUDULE
1000
AcRTDxfName
1000
AMDTMAPISURFMOUDULE
1000
AcRTDxfName
1000
AMDTMAPISURFMOUDULE
1000
AcRTDxfName
1000
AMDTMAPISURFMOUDULE
  0
DICTIONARY
  5
AF79
102
{ACAD_REACTORS
330
3F95
102
}
330
3F95
100
AcDbDictionary
281
     1
  0
DICTIONARY
  5
3F96
102
{ACAD_REACTORS
330
3F95
102
}
330
3F95
100
AcDbDictionary
281
     1
  3
20011210
350
3FB7
  0
DICTIONARY
  5
AF78
102
{ACAD_REACTORS
330
3F95
102
}
330
3F95
100
AcDbDictionary
281
     1
1001
ACAD
1000
<All
  0
DICTIONARY
  5
AAB4
102
{ACAD_REACTORS
330
3F95
102
}
330
3F95
100
AcDbDictionary
280
     1
281
     1
  3
ゴムシート
360
1FEBE
  3
ストッパー
360
E2E8
  3
バネ
360
1B4AC
  3
ブース
360
28769
  3
ベスト
360
28D60
  3
ワッシャ
360
1B425
  3
非常解錠キー
360
2112F
  0
SORTENTSTABLE
  5
C9FA
102
{ACAD_REACTORS
330
8A
102
}
330
8A
100
AcDbSortentsTable
330
1F
331
2CB69
  5
13D9A
331
2CB71
  5
13DA4
331
2FD06
  5
2FD06
331
30A02
  5
30A02
331
2FD0E
  5
2FD0E
331
30731
  5
30733
331
30B96
  5
30B96
331
30A0A
  5
30A0A
331
30739
  5
3073B
331
309CB
  5
309CB
331
30A12
  5
30A12
331
309D3
  5
309D3
331
30A1A
  5
30A1A
331
30AC8
  5
30AC8
331
30741
  5
30744
331
3070A
  5
3070A
331
308A6
  5
308F2
331
30944
  5
3097B
331
3097C
  5
30724
331
2FD16
  5
2FD16
331
309E3
  5
309E3
331
30749
  5
3074C
331
309EB
  5
309EB
331
30712
  5
30712
331
30984
  5
30984
331
30751
  5
307F7
331
3071A
  5
3071A
331
307F8
  5
3081C
331
309F3
  5
309F3
331
309FB
  5
309FB
331
30722
  5
30722
331
3084F
  5
30852
331
30857
  5
3085C
331
3085F
  5
3088A
331
2CB6A
  5
13D9B
331
2CB72
  5
13DA5
331
2FD07
  5
2FD07
331
2FD0F
  5
2FD0F
331
30A03
  5
30A03
331
30732
  5
30734
331
30B97
  5
30B97
331
30A0B
  5
30A0B
331
30AB9
  5
30AB9
331
309CC
  5
309CC
331
30A13
  5
30A13
331
3073A
  5
3073C
331
30AC9
  5
30AC9
331
30703
  5
30703
331
30742
  5
30745
331
309D4
  5
309D4
331
30A1B
  5
30A1B
331
30945
  5
3097C
331
3070B
  5
3070B
331
2FD17
  5
2FD17
331
309E4
  5
309E4
331
3074A
  5
3074D
331
309EC
  5
309EC
331
3071B
  5
3071B
331
30985
  5
30986
331
309FC
  5
309FC
331
30850
  5
30853
331
3072B
  5
3072D
331
30858
  5
3085D
331
2CB73
  5
13DA6
331
2FD08
  5
2FD08
331
30A04
  5
30A04
331
30733
  5
30735
331
30860
  5
3088B
331
30A0C
  5
30A0C
331
30ABA
  5
30ABA
331
30A14
  5
30A14
331
30AC2
  5
30AC2
331
3073B
  5
3073D
331
30704
  5
30704
331
30743
  5
30746
331
309D5
  5
309D5
331
30A1C
  5
30A1C
331
30ACA
  5
30ACA
331
309DD
  5
309DD
331
30946
  5
30741
331
3070C
  5
3070C
331
2FD10
  5
2FD10
331
2FD18
  5
2FD18
331
309E5
  5
309E5
331
308C0
  5
30913
331
3074B
  5
3074E
331
30714
  5
30714
331
309ED
  5
309ED
331
3071C
  5
3071C
331
30AE2
  5
30AE2
331
30753
  5
307F8
331
308D8
  5
3092B
331
30724
  5
30726
331
30851
  5
30854
331
309FD
  5
309FD
331
3072C
  5
3072E
331
3080A
  5
30850
331
2CB6C
  5
13D9E
331
2CB74
  5
13DA7
331
2FD09
  5
2FD09
331
30A05
  5
30A05
331
30B99
  5
30B9B
331
30A0D
  5
30A0D
331
30ABB
  5
30ABB
331
30734
  5
30736
331
30783
  5
30807
331
30889
  5
308A6
331
3073C
  5
3073E
331
309CE
  5
309CE
331
30A15
  5
30A15
331
30744
  5
30747
331
309D6
  5
309D6
331
30705
  5
30705
331
309DE
  5
309DE
331
3070D
  5
3070D
331
2FD11
  5
2FD11
331
2FD19
  5
2FD19
331
309E6
  5
309E6
331
30715
  5
30715
331
309EE
  5
309EE
331
3074C
  5
3074F
331
309F6
  5
309F6
331
3071D
  5
3071D
331
30725
  5
30727
331
30852
  5
30855
331
309FE
  5
309FE
331
3072D
  5
3072F
331
309BF
  5
309BF
331
2CB6D
  5
13D9F
331
2CB75
  5
13DA8
331
2FD0A
  5
2FD0A
331
30A06
  5
30A06
331
30735
  5
30737
331
30A0E
  5
30A0E
331
30ABC
  5
30ABC
331
30B9A
  5
30B9C
331
309CF
  5
309CF
331
306FE
  5
306FE
331
3073D
  5
3073F
331
30A16
  5
30A16
331
3088A
  5
308C0
331
30745
  5
30748
331
309DF
  5
309DF
331
3070E
  5
3070E
331
2FD12
  5
2FD12
331
2FD1A
  5
2FD1A
331
309E7
  5
309E7
331
30716
  5
30716
331
309EF
  5
309EF
331
3074D
  5
30750
331
3071E
  5
3071E
331
309F7
  5
309F7
331
30726
  5
30728
331
30853
  5
30857
331
309FF
  5
309FF
331
309C0
  5
309C0
331
3072E
  5
30730
331
3085B
  5
3085E
331
2CB6E
  5
13DA1
331
2CB76
  5
13DA9
331
2FD03
  5
2FD03
331
2FD0B
  5
2FD0B
331
30A07
  5
30A07
331
30ABD
  5
30ABD
331
30736
  5
30738
331
308F2
  5
30943
331
30A0F
  5
30A0F
331
309D0
  5
309D0
331
3081C
  5
30851
331
3073E
  5
30740
331
3088B
  5
308D8
331
30A17
  5
30A17
331
306FF
  5
306FF
331
309D8
  5
309D8
331
30707
  5
30707
331
30746
  5
30749
331
3070F
  5
3070F
331
2FD13
  5
2FD13
331
2CB67
  5
CA6C
331
309E0
  5
309E0
331
309E8
  5
309E8
331
3074E
  5
30751
331
30717
  5
30717
331
309F0
  5
309F0
331
3071F
  5
3071F
331
309F8
  5
309F8
331
30727
  5
30729
331
30854
  5
30858
331
309C1
  5
309C1
331
3072F
  5
30731
331
3085C
  5
3085F
331
2CB6F
  5
13DA2
331
2CB77
  5
13DAA
331
2FD04
  5
2FD04
331
30A00
  5
30A00
331
2FD0C
  5
2FD0C
331
30A08
  5
30A08
331
30737
  5
30739
331
30B9C
  5
30B9A
331
309C9
  5
309C9
331
30A10
  5
30A10
331
30ABE
  5
30ABE
331
3073F
  5
30742
331
309D1
  5
309D1
331
30A18
  5
30A18
331
30B15
  5
30B15
331
2FD14
  5
2FD14
331
309E1
  5
309E1
331
30710
  5
30710
331
309E9
  5
309E9
331
3074F
  5
30753
331
30B2D
  5
30B2D
331
30718
  5
30718
331
309F1
  5
309F1
331
30913
  5
30944
331
309A2
  5
309A2
331
30720
  5
30720
331
309F9
  5
309F9
331
30728
  5
3072B
331
30855
  5
3085B
331
309C2
  5
309C2
331
3085D
  5
30860
331
3092B
  5
30945
331
2CB68
  5
13D99
331
2CB70
  5
13DA3
331
2FD05
  5
2FD05
331
30A01
  5
30A01
331
2FD0D
  5
2FD0D
331
30730
  5
30732
331
30B95
  5
30B95
331
30A09
  5
30A09
331
30738
  5
3073A
331
309CA
  5
309CA
331
30A11
  5
30A11
331
309D2
  5
309D2
331
30A19
  5
30A19
331
30AC7
  5
30AC7
331
30701
  5
30701
331
30740
  5
30743
331
30709
  5
30709
331
30943
  5
30946
331
3097B
  5
30983
331
2FD15
  5
2FD15
331
309E2
  5
309E2
331
309EA
  5
309EA
331
30748
  5
3074B
331
30983
  5
30985
331
30719
  5
30719
331
309F2
  5
309F2
331
307F7
  5
3080A
331
30721
  5
30721
331
309FA
  5
309FA
331
30807
  5
3084F
331
30729
  5
3072C
331
3085E
  5
30889
  0
DIMASSOC
  5
30761
102
{ACAD_REACTORS
330
30760
102
}
330
30760
100
AcDbDimAssoc
330
30753
 90
        1
 70
     0
 71
     0
  1
AcDbOsnapPointRef
 72
     1
331
30751
 73
     0
 91
        0
 40
0.0
 10
0.0
 20
0.0
 30
2.000000000000000E+50
 75
     0
  0
DIMASSOC
  5
30791
102
{ACAD_REACTORS
330
30790
102
}
330
30790
100
AcDbDimAssoc
330
30783
 90
        1
 70
     0
 71
     0
  1
AcDbOsnapPointRef
 72
     1
331
30751
 73
     0
 91
        0
 40
0.0
 10
0.0
 20
0.0
 30
2.000000000000000E+50
 75
     0
  0
DIMASSOC
  5
3082A
102
{ACAD_REACTORS
330
30829
102
}
330
30829
100
AcDbDimAssoc
330
3081C
 90
        3
 70
     0
 71
     0
  1
AcDbOsnapPointRef
 72
    13
331
3071A
 73
     0
 91
        0
 40
0.0
 10
0.0
 20
0.0
 30
2.000000000000000E+50
 75
     0
  1
AcDbOsnapPointRef
 72
    13
331
3071B
 73
     0
 91
        0
 40
0.0
 10
0.0
 20
0.0
 30
2.000000000000000E+50
 75
     0
  0
DIMASSOC
  5
308B5
102
{ACAD_REACTORS
330
308B4
102
}
330
308B4
100
AcDbDimAssoc
330
308A6
 90
        2
 70
     0
 71
     0
  1
AcDbOsnapPointRef
 72
    13
331
3088A
 73
     0
 91
        0
 40
0.0
 10
0.0
 20
0.0
 30
2.000000000000000E+50
 75
     0
  0
DIMASSOC
  5
308CE
102
{ACAD_REACTORS
330
308CD
102
}
330
308CD
100
AcDbDimAssoc
330
308C0
 90
        2
 70
     0
 71
     0
  1
AcDbOsnapPointRef
 72
    13
331
30857
 73
     0
 91
        0
 40
0.0
 10
0.0
 20
0.0
 30
2.000000000000000E+50
 75
     0
  0
DIMASSOC
  5
308E7
102
{ACAD_REACTORS
330
308E6
102
}
330
308E6
100
AcDbDimAssoc
330
308D8
 90
        3
 70
     0
 71
     0
  1
AcDbOsnapPointRef
 72
    13
331
30857
 73
     0
 91
        0
 40
0.0
 10
0.0
 20
0.0
 30
2.000000000000000E+50
 75
     0
  1
AcDbOsnapPointRef
 72
    13
331
3088B
 73
     0
 91
        0
 40
0.0
 10
0.0
 20
0.0
 30
2.000000000000000E+50
 75
     0
  0
DIMASSOC
  5
30900
102
{ACAD_REACTORS
330
308FF
102
}
330
308FF
100
AcDbDimAssoc
330
308F2
 90
        2
 70
     0
 71
     0
  1
AcDbOsnapPointRef
 72
     1
331
3085F
 73
     0
 91
        0
 40
0.0
 10
0.0
 20
0.0
 30
2.000000000000000E+50
 75
     0
  0
DIMASSOC
  5
30921
102
{ACAD_REACTORS
330
30920
102
}
330
30920
100
AcDbDimAssoc
330
30913
 90
        3
 70
     0
 71
     0
  1
AcDbOsnapPointRef
 72
     1
331
3085E
 73
     0
 91
        0
 40
0.0
 10
0.0
 20
0.0
 30
2.000000000000000E+50
 75
     0
  1
AcDbOsnapPointRef
 72
    13
331
30858
 73
     0
 91
        0
 40
0.0
 10
0.0
 20
0.0
 30
2.000000000000000E+50
 75
     0
  0
DIMASSOC
  5
30939
102
{ACAD_REACTORS
330
30938
102
}
330
30938
100
AcDbDimAssoc
330
3092B
 90
        1
 70
     0
 71
     0
  1
AcDbOsnapPointRef
 72
     1
331
3085F
 73
     0
 91
        0
 40
0.0
 10
0.0
 20
0.0
 30
2.000000000000000E+50
 75
     0
  0
DIMASSOC
  5
30AD8
102
{ACAD_REACTORS
330
30AD7
102
}
330
30AD7
100
AcDbDimAssoc
330
30ACA
 90
        3
 70
     0
 71
     0
  1
AcDbOsnapPointRef
 72
     1
331
30ABC
 73
     0
 91
        0
 40
0.0
 10
0.0
 20
0.0
 30
2.000000000000000E+50
 75
     0
  1
AcDbOsnapPointRef
 72
    13
331
309F8
 73
     0
 91
        0
 40
0.0
 10
0.0
 20
0.0
 30
2.000000000000000E+50
 75
     0
  0
DIMASSOC
  5
30AF0
102
{ACAD_REACTORS
330
30AEF
102
}
330
30AEF
100
AcDbDimAssoc
330
30AE2
 90
        3
 70
     0
 71
     1
  1
AcDbOsnapPointRef
 72
     1
331
30ABC
 73
     0
 91
        0
 40
0.0
 10
0.0
 20
0.0
 30
2.000000000000000E+50
 75
     0
  1
AcDbOsnapPointRef
 72
     1
331
30AC7
 73
     0
 91
        0
 40
0.0
 10
0.0
 20
0.0
 30
2.000000000000000E+50
 75
     0
  0
DIMASSOC
  5
30B23
102
{ACAD_REACTORS
330
30B22
102
}
330
30B22
100
AcDbDimAssoc
330
30B15
 90
        3
 70
     0
 71
     0
  1
AcDbOsnapPointRef
 72
     1
331
30AC7
 73
     0
 91
        0
 40
0.0
 10
0.0
 20
0.0
 30
2.000000000000000E+50
 75
     0
  1
AcDbOsnapPointRef
 72
     1
331
309F7
 73
     0
 91
        0
 40
0.0
 10
0.0
 20
0.0
 30
2.000000000000000E+50
 75
     0
  0
DIMASSOC
  5
30B3B
102
{ACAD_REACTORS
330
30B3A
102
}
330
30B3A
100
AcDbDimAssoc
330
30B2D
 90
        3
 70
     0
 71
     0
  1
AcDbOsnapPointRef
 72
    13
331
309F8
 73
     0
 91
        0
 40
0.0
 10
0.0
 20
0.0
 30
2.000000000000000E+50
 75
     0
  1
AcDbOsnapPointRef
 72
     1
331
309F7
 73
     0
 91
        0
 40
0.0
 10
0.0
 20
0.0
 30
2.000000000000000E+50
 75
     0
  0
DIMASSOC
  5
30BAC
102
{ACAD_REACTORS
330
30BAB
102
}
330
30BAB
100
AcDbDimAssoc
330
30B9E
 90
        3
 70
     0
 71
     0
  1
AcDbOsnapPointRef
 72
    13
331
30ABE
 73
     0
 91
        0
 40
0.0
 10
0.0
 20
0.0
 30
2.000000000000000E+50
 75
     0
  1
AcDbOsnapPointRef
 72
     1
331
309F8
 73
     0
 91
        0
 40
0.0
 10
0.0
 20
0.0
 30
2.000000000000000E+50
 75
     0
  0
DIMASSOC
  5
30BCD
102
{ACAD_REACTORS
330
30BCC
102
}
330
30BCC
100
AcDbDimAssoc
330
30BBF
 90
        3
 70
     0
 71
     0
  1
AcDbOsnapPointRef
 72
    13
331
30B9E
331
30BB6
 73
     0
 91
        0
 40
0.0
 10
0.0
 20
0.0
 30
2.000000000000000E+50
 75
     0
  1
AcDbOsnapPointRef
 72
    13
331
30ABD
 73
     0
 91
        0
 40
0.0
 10
0.0
 20
0.0
 30
2.000000000000000E+50
 75
     0
  0
DIMASSOC
  5
30BE5
102
{ACAD_REACTORS
330
30BE4
102
}
330
30BE4
100
AcDbDimAssoc
330
30BD7
 90
        3
 70
     0
 71
     0
  1
AcDbOsnapPointRef
 72
    13
331
30ABD
 73
     0
 91
        0
 40
0.0
 10
0.0
 20
0.0
 30
2.000000000000000E+50
 75
     0
  1
AcDbOsnapPointRef
 72
     5
331
309F9
 73
     0
 91
        0
 40
3.141592653589793
 10
0.0
 20
0.0
 30
0.0
 75
     0
  0
DIMASSOC
  5
30C08
102
{ACAD_REACTORS
330
30C07
102
}
330
30C07
100
AcDbDimAssoc
330
30BF8
 90
        1
 70
     0
 71
     0
  1
AcDbOsnapPointRef
 72
    13
331
30ABA
 73
     0
 91
        0
 40
0.0
 10
0.0
 20
0.0
 30
2.000000000000000E+50
 75
     0
  0
DIMASSOC
  5
30C45
102
{ACAD_REACTORS
330
30C44
102
}
330
30C44
100
AcDbDimAssoc
330
30C37
 90
        1
 70
     0
 71
     0
  1
AcDbOsnapPointRef
 72
    13
331
30AC7
 73
     0
 91
        0
 40
0.0
 10
0.0
 20
0.0
 30
2.000000000000000E+50
 75
     0
  0
XRECORD
  5
30C76
102
{ACAD_REACTORS
330
30C75
102
}
330
30C75
100
AcDbXrecord
280
     1
102
SHADEPLOT
 70
     0
  0
XRECORD
  5
30C59
102
{ACAD_REACTORS
330
30C58
102
}
330
30C58
100
AcDbXrecord
280
     1
 70
     1
  0
LAYOUT
  5
22
102
{ACAD_XDICTIONARY
360
30C5B
102
}
102
{ACAD_REACTORS
330
1A
102
}
330
1A
100
AcDbPlotSettings
  1

  2
DocuCentre-II C5400
  4
A4
  6
AM_VIEW1
 40
4.857749938964843
 41
4.942390441894531
 42
4.942413330078125
 43
4.857757568359375
 44
209.9733276367187
 45
297.0106506347656
 46
-0.0000000000000142
 47
2.068670446222569
 48
530.177562357239
 49
545.9811031702098
140
950.177562357239
141
842.9811031702101
142
1.0
143
1.483715366833458
 70
  3764
 72
     1
 73
     1
 74
     4
  7
monochrome.ctb
 75
     0
147
0.6739837184096823
148
-530.177562357239
149
-545.9811031702098
100
AcDbLayout
  1
Model
 70
     1
 71
     0
 10
0.0
 20
0.0
 11
12.0
 21
9.0
 12
0.0
 22
0.0
 32
0.0
 14
0.0
 24
0.0
 34
0.0
 15
0.0
 25
0.0
 35
0.0
146
0.0
 13
0.0
 23
0.0
 33
0.0
 16
1.0
 26
0.0
 36
0.0
 17
0.0
 27
1.0
 37
0.0
 76
     0
330
1F
331
2FC26
1001
ACAD_PSEXT
1000
DocuCentre-II C5400
1000
FX DocuCentre-II C5400
1000
192.168.2.200
1000

1070
     0
  0
LAYOUT
  5
1E
102
{ACAD_XDICTIONARY
360
1B6CD
102
}
102
{ACAD_REACTORS
330
1A
102
}
330
1A
100
AcDbPlotSettings
  1

  2
\\ML370\XEROX
  4
A4
  6

 40
3.174999952316281
 41
3.174999952316281
 42
3.175003051757812
 43
3.17498779296875
 44
209.8674926757813
 45
296.6719970703125
 46
0.0
 47
0.0
 48
0.0
 49
0.0
140
0.0
141
0.0
142
1.0
143
1.0
 70
   688
 72
     1
 73
     1
 74
     5
  7
monochrome.ctb
 75
    16
147
1.0
148
0.0
149
0.0
100
AcDbLayout
  1
ﾚｲｱｳﾄ1
 70
     1
 71
     1
 10
-3.17498779296875
 20
-3.174999952316281
 11
293.4970092773438
 21
206.692492723465
 12
0.0
 22
0.0
 32
0.0
 14
1.000000000000000E+20
 24
1.000000000000000E+20
 34
1.000000000000000E+20
 15
-1.000000000000000E+20
 25
-1.000000000000000E+20
 35
-1.000000000000000E+20
146
0.0
 13
0.0
 23
0.0
 33
0.0
 16
1.0
 26
0.0
 36
0.0
 17
0.0
 27
1.0
 37
0.0
 76
     0
330
1B
331
1B6C8
  0
LAYOUT
  5
26
102
{ACAD_XDICTIONARY
360
30C5D
102
}
102
{ACAD_REACTORS
330
1A
102
}
330
1A
100
AcDbPlotSettings
  1

  2
\\ML370\XEROX
  4

  6

 40
0.0
 41
0.0
 42
0.0
 43
0.0
 44
0.0
 45
0.0
 46
0.0
 47
0.0
 48
0.0
 49
0.0
140
0.0
141
0.0
142
1.0
143
1.0
 70
   688
 72
     0
 73
     0
 74
     5
  7
monochrome.ctb
 75
    16
147
1.0
148
0.0
149
0.0
100
AcDbLayout
  1
ﾚｲｱｳﾄ2
 70
     1
 71
     2
 10
0.0
 20
0.0
 11
12.0
 21
9.0
 12
0.0
 22
0.0
 32
0.0
 14
0.0
 24
0.0
 34
0.0
 15
0.0
 25
0.0
 35
0.0
146
0.0
 13
0.0
 23
0.0
 33
0.0
 16
1.0
 26
0.0
 36
0.0
 17
0.0
 27
1.0
 37
0.0
 76
     0
330
23
  0
MATERIAL
  5
2FC4B
102
{ACAD_XDICTIONARY
360
30C79
102
}
102
{ACAD_REACTORS
330
A91C
102
}
330
A91C
100
AcDbMaterial
  1
ByBlock
  0
MATERIAL
  5
2FC4A
102
{ACAD_XDICTIONARY
360
30C77
102
}
102
{ACAD_REACTORS
330
A91C
102
}
330
A91C
100
AcDbMaterial
  1
ByLayer
  0
MATERIAL
  5
2FC4C
102
{ACAD_XDICTIONARY
360
30C7B
102
}
102
{ACAD_REACTORS
330
A91C
102
}
330
A91C
100
AcDbMaterial
  1
Global
  0
MLINESTYLE
  5
18
102
{ACAD_REACTORS
330
17
102
}
330
17
100
AcDbMlineStyle
  2
STANDARD
 70
     0
  3

 62
   256
 51
90.0
 52
90.0
 71
     2
 49
0.5
 62
   256
  6
BYLAYER
 49
-0.5
 62
   256
  6
BYLAYER
  0
PLOTSETTINGS
  5
C99B
102
{ACAD_XDICTIONARY
360
30C61
102
}
102
{ACAD_REACTORS
330
19
102
}
330
19
100
AcDbPlotSettings
  1
01   A1　１：１
  2
\\ML370\Fuji Xerox BT8050(AutoCAD)
  4
User122
  6

 40
3.174999952316281
 41
3.174999952316281
 42
3.17498779296875
 43
3.17498779296875
 44
593.7249755859375
 45
840.6129760742187
 46
145.19
 47
207.13
 48
214.3704939521119
 49
367.5855324241177
140
275.6727856380065
141
407.6291914078168
142
1.0
143
1.0
 70
  1716
 72
     1
 73
     1
 74
     2
  7
monochrome.ctb
 75
    16
147
1.0
148
-538.139750291099
149
411.0980235086544
  0
PLOTSETTINGS
  5
C99C
102
{ACAD_XDICTIONARY
360
30C63
102
}
102
{ACAD_REACTORS
330
19
102
}
330
19
100
AcDbPlotSettings
  1
02   A2　１：１
  2
\\ML370\Fuji Xerox BT8050(AutoCAD)
  4
User123
  6

 40
3.174999952316281
 41
3.174999952316281
 42
3.17498779296875
 43
3.17498779296875
 44
420.0
 45
594.0
 46
58.33
 47
83.83
 48
214.3704939521119
 49
367.5855324241177
140
275.6727856380065
141
407.6291914078168
142
1.0
143
1.0
 70
  1716
 72
     1
 73
     1
 74
     2
  7
monochrome.ctb
 75
    16
147
1.0
148
-538.139750291099
149
411.0980235086544
  0
PLOTSETTINGS
  5
C99D
102
{ACAD_XDICTIONARY
360
30C65
102
}
102
{ACAD_REACTORS
330
19
102
}
330
19
100
AcDbPlotSettings
  1
03   A3　１：１
  2
\\ML370\Fuji Xerox BT8050(AutoCAD)
  4
User124
  6

 40
3.174999952316281
 41
3.174999952316281
 42
3.17498779296875
 43
3.17498779296875
 44
297.0
 45
420.0
 46
-3.169999999999998
 47
-3.169999999999998
 48
214.3704939521119
 49
367.5855324241177
140
275.6727856380065
141
407.6291914078168
142
1.0
143
1.0
 70
  1716
 72
     1
 73
     1
 74
     2
  7
monochrome.ctb
 75
    16
147
1.0
148
-538.139750291099
149
411.0980235086544
  0
PLOTSETTINGS
  5
C99E
102
{ACAD_XDICTIONARY
360
30C67
102
}
102
{ACAD_REACTORS
330
19
102
}
330
19
100
AcDbPlotSettings
  1
04   A4  １：１
  2
\\ML370\Fuji Xerox BT8050(AutoCAD)
  4
User125
  6

 40
3.174999952316281
 41
3.174999952316281
 42
3.175003051757812
 43
3.17498779296875
 44
210.0
 45
297.0
 46
-46.68
 47
-64.67
 48
214.3704939521119
 49
367.5855324241177
140
275.6727856380065
141
407.6291914078168
142
1.0
143
1.0
 70
  1716
 72
     1
 73
     1
 74
     2
  7
monochrome.ctb
 75
    16
147
1.0
148
-538.139750291099
149
411.0980235086544
  0
PLOTSETTINGS
  5
C99F
102
{ACAD_XDICTIONARY
360
30C69
102
}
102
{ACAD_REACTORS
330
19
102
}
330
19
100
AcDbPlotSettings
  1
05   A1 自動調整
  2
\\ML370\Fuji Xerox BT8050(AutoCAD)
  4
User122
  6

 40
3.174999952316281
 41
3.174999952316281
 42
3.17498779296875
 43
3.17498779296875
 44
593.7249755859375
 45
840.6129760742187
 46
0.0
 47
1.77
 48
214.3704939521119
 49
367.5855324241177
140
275.6727856380065
141
407.6291914078168
142
1.0
143
0.7150457692181145
 70
  1716
 72
     1
 73
     1
 74
     2
  7
monochrome.ctb
 75
     0
147
1.398511875811077
148
-408.2719444961221
149
-428.6675171947153
  0
PLOTSETTINGS
  5
C9A0
102
{ACAD_XDICTIONARY
360
30C6B
102
}
102
{ACAD_REACTORS
330
19
102
}
330
19
100
AcDbPlotSettings
  1
06   A2 自動調整
  2
\\ML370\Fuji Xerox BT8050(AutoCAD)
  4
User123
  6

 40
3.174999952316281
 41
3.174999952316281
 42
3.17498779296875
 43
3.17498779296875
 44
420.0
 45
594.0
 46
0.0
 47
1.32
 48
214.3704939521119
 49
367.5855324241177
140
275.6727856380065
141
407.6291914078168
142
1.0
143
1.015351112189439
 70
  1716
 72
     1
 73
     1
 74
     2
  7
monochrome.ctb
 75
     0
147
0.9848809815588451
148
-408.2719444961221
149
-428.6675171947153
  0
PLOTSETTINGS
  5
C9A1
102
{ACAD_XDICTIONARY
360
30C6D
102
}
102
{ACAD_REACTORS
330
19
102
}
330
19
100
AcDbPlotSettings
  1
07   A3 自動調整
  2
\\ML370\Fuji Xerox BT8050(AutoCAD)
  4
User124
  6

 40
3.174999952316281
 41
3.174999952316281
 42
3.17498779296875
 43
3.17498779296875
 44
297.0
 45
420.0
 46
0.0
 47
1.29
 48
214.3704939521119
 49
367.5855324241177
140
275.6727856380065
141
407.6291914078168
142
1.0
143
1.445036925138428
 70
  1716
 72
     1
 73
     1
 74
     2
  7
monochrome.ctb
 75
     0
147
0.6920238387017023
148
-408.2719444961221
149
-428.6675171947153
  0
PLOTSETTINGS
  5
C9A2
102
{ACAD_XDICTIONARY
360
30C6F
102
}
102
{ACAD_REACTORS
330
19
102
}
330
19
100
AcDbPlotSettings
  1
08   A4 自動調整
  2
\\ML370\Fuji Xerox BT8050(AutoCAD)
  4
User125
  6

 40
3.174999952316281
 41
3.174999952316281
 42
3.175003051757812
 43
3.17498779296875
 44
210.0
 45
297.0
 46
0.0
 47
1.32
 48
214.3704939521119
 49
367.5855324241177
140
275.6727856380065
141
407.6291914078168
142
1.0
143
2.062361925831023
 70
  1716
 72
     1
 73
     1
 74
     2
  7
monochrome.ctb
 75
     0
147
0.484880945228395
148
-408.2719444961221
149
-428.6675171947153
  0
PLOTSETTINGS
  5
C9A3
102
{ACAD_XDICTIONARY
360
30C71
102
}
102
{ACAD_REACTORS
330
19
102
}
330
19
100
AcDbPlotSettings
  1
09   A1をA3に
  2
\\ML370\Fuji Xerox BT8050(AutoCAD)
  4
User124
  6

 40
3.174999952316281
 41
3.174999952316281
 42
3.17498779296875
 43
3.17498779296875
 44
297.0
 45
420.0
 46
-3.169999999999998
 47
-3.419999999999998
 48
214.3704939521119
 49
367.5855324241177
140
275.6727856380065
141
407.6291914078168
142
1.0
143
20.0
 70
  1716
 72
     1
 73
     1
 74
     2
  7
monochrome.ctb
 75
    22
147
0.05
148
-66.24202774817149
149
-81.38953477958603
  0
PLOTSETTINGS
  5
C9A4
102
{ACAD_XDICTIONARY
360
30C73
102
}
102
{ACAD_REACTORS
330
19
102
}
330
19
100
AcDbPlotSettings
  1
10   A2をA3に
  2
\\ML370\Fuji Xerox BT8050(AutoCAD)
  4
User124
  6

 40
3.174999952316281
 41
3.174999952316281
 42
3.17498779296875
 43
3.17498779296875
 44
297.0
 45
420.0
 46
-3.189999999999998
 47
-3.22
 48
214.3704939521119
 49
367.5855324241177
140
275.6727856380065
141
407.6291914078168
142
1.0
143
1.414
 70
  1700
 72
     1
 73
     1
 74
     2
  7
monochrome.ctb
 75
     0
147
0.7072135785007072
148
-408.2719444961221
149
-428.6675171947153
  0
ACDBPLACEHOLDER
  5
F
102
{ACAD_REACTORS
330
E
102
}
330
E
  0
TABLESTYLE
  5
AABA
102
{ACAD_XDICTIONARY
360
30C5F
102
}
102
{ACAD_REACTORS
330
AAB9
102
}
330
AAB9
100
AcDbTableStyle
  3
Standard
 70
     0
 71
     0
 40
1.5
 41
1.5
280
     0
281
     0
  7
STANDARD
140
4.5
170
     2
 62
     0
 63
     7
283
     0
274
    -2
284
     1
 64
     0
275
    -2
285
     1
 65
     0
276
    -2
286
     1
 66
     0
277
    -2
287
     1
 67
     0
278
    -2
288
     1
 68
     0
279
    -2
289
     1
 69
     0
  7
STANDARD
140
6.0
170
     5
 62
     0
 63
     7
283
     0
274
    -2
284
     1
 64
     0
275
    -2
285
     1
 65
     0
276
    -2
286
     1
 66
     0
277
    -2
287
     1
 67
     0
278
    -2
288
     1
 68
     0
279
    -2
289
     1
 69
     0
  7
STANDARD
140
4.5
170
     5
 62
     0
 63
     7
283
     0
274
    -2
284
     1
 64
     0
275
    -2
285
     1
 65
     0
276
    -2
286
     1
 66
     0
277
    -2
287
     1
 67
     0
278
    -2
288
     1
 68
     0
279
    -2
289
     1
 69
     0
  0
VISUALSTYLE
  5
2FC53
102
{ACAD_REACTORS
330
2FC4D
102
}
330
2FC4D
100
AcDbVisualStyle
  2
2dWireframe
 70
     4
 71
     0
 72
     2
 73
     0
 90
        0
 40
-0.6
 41
-30.0
 62
     5
 63
     7
 74
     1
 91
        4
 64
     7
 65
   257
 75
     1
175
     1
 42
1.0
 92
        0
 66
   257
 43
1.0
 76
     1
 77
     6
 78
     2
 67
     7
 79
     5
170
     0
171
     0
290
     0
174
     0
 93
        1
 44
0.0
173
     0
291
     0
 45
0.0
1001
ACAD
1000
AcDbSavedByObjectVersion
1070
     0
  0
VISUALSTYLE
  5
2FC55
102
{ACAD_REACTORS
330
2FC4D
102
}
330
2FC4D
100
AcDbVisualStyle
  2
3D Hidden
 70
     6
 71
     1
 72
     2
 73
     2
 90
        0
 40
-0.6
 41
-30.0
 62
     5
 63
     7
 74
     2
 91
        2
 64
     7
 65
   257
 75
     2
175
     1
 42
40.0
 92
        0
 66
   257
 43
1.0
 76
     1
 77
     6
 78
     2
 67
     7
 79
     3
170
     0
171
     0
290
     0
174
     0
 93
        1
 44
0.0
173
     0
291
     0
 45
0.0
1001
ACAD
1000
AcDbSavedByObjectVersion
1070
     0
  0
VISUALSTYLE
  5
2FC54
102
{ACAD_REACTORS
330
2FC4D
102
}
330
2FC4D
100
AcDbVisualStyle
  2
3dWireframe
 70
     5
 71
     0
 72
     2
 73
     0
 90
        0
 40
-0.6
 41
-30.0
 62
     5
 63
     7
 74
     1
 91
        4
 64
     7
 65
   257
 75
     1
175
     1
 42
1.0
 92
        0
 66
   257
 43
1.0
 76
     1
 77
     6
 78
     2
 67
     7
 79
     5
170
     0
171
     0
290
     0
174
     0
 93
        1
 44
0.0
173
     0
291
     0
 45
0.0
1001
ACAD
1000
AcDbSavedByObjectVersion
1070
     0
  0
VISUALSTYLE
  5
2FC52
102
{ACAD_REACTORS
330
2FC4D
102
}
330
2FC4D
100
AcDbVisualStyle
  2
Basic
 70
     7
 71
     1
 72
     0
 73
     1
 90
        0
 40
-0.6
 41
-30.0
 62
     5
 63
     7
 74
     0
 91
        4
 64
     7
 65
   257
 75
     1
175
     1
 42
1.0
 92
        8
 66
     7
 43
1.0
 76
     1
 77
     6
 78
     2
 67
     7
 79
     5
170
     0
171
     0
290
     0
174
     0
 93
        1
 44
0.0
173
     0
291
     1
 45
0.0
1001
ACAD
1000
AcDbSavedByObjectVersion
1070
     0
  0
VISUALSTYLE
  5
2FC59
102
{ACAD_REACTORS
330
2FC4D
102
}
330
2FC4D
100
AcDbVisualStyle
  2
Brighten
 70
    12
 71
     2
 72
     2
 73
     0
 90
        0
 40
-0.6
 41
-30.0
 62
     5
 63
     7
 74
     1
 91
        4
 64
     7
 65
   257
 75
     1
175
     1
 42
1.0
 92
        8
 66
     7
 43
1.0
 76
     1
 77
     6
 78
     2
 67
     7
 79
     5
170
     0
171
     0
290
     0
174
     0
 93
        1
 44
50.0
173
     0
291
     1
 45
0.0
1001
ACAD
1000
AcDbSavedByObjectVersion
1070
     0
  0
VISUALSTYLE
  5
2FC5D
102
{ACAD_REACTORS
330
2FC4D
102
}
330
2FC4D
100
AcDbVisualStyle
  2
ColorChange
 70
    16
 71
     2
 72
     2
 73
     3
 90
        0
 40
-0.6
 41
-30.0
 62
     5
 63
     8
 74
     1
 91
        4
 64
     7
 65
   257
 75
     1
175
     1
 42
1.0
 92
        8
 66
     8
 43
1.0
 76
     1
 77
     6
 78
     2
 67
     7
 79
     5
170
     0
171
     0
290
     0
174
     0
 93
        1
 44
0.0
173
     0
291
     1
 45
0.0
1001
ACAD
1000
AcDbSavedByObjectVersion
1070
     0
  0
VISUALSTYLE
  5
2FC56
102
{ACAD_REACTORS
330
2FC4D
102
}
330
2FC4D
100
AcDbVisualStyle
  2
Conceptual
 70
     9
 71
     3
 72
     2
 73
     0
 90
        0
 40
-0.6
 41
-30.0
 62
     5
 63
     7
 74
     2
 91
        2
 64
     7
 65
   257
 75
     1
175
     1
 42
40.0
 92
        8
 66
     7
 43
1.0
 76
     1
 77
     6
 78
     2
 67
     7
 79
     3
170
     0
171
     0
290
     0
174
     0
 93
        1
 44
0.0
173
     0
291
     0
 45
0.0
1001
ACAD
1000
AcDbSavedByObjectVersion
1070
     0
  0
VISUALSTYLE
  5
2FC58
102
{ACAD_REACTORS
330
2FC4D
102
}
330
2FC4D
100
AcDbVisualStyle
  2
Dim
 70
    11
 71
     2
 72
     2
 73
     0
 90
        0
 40
-0.6
 41
-30.0
 62
     5
 63
     7
 74
     1
 91
        4
 64
     7
 65
   257
 75
     1
175
     1
 42
1.0
 92
        8
 66
     7
 43
1.0
 76
     1
 77
     6
 78
     2
 67
     7
 79
     5
170
     0
171
     0
290
     0
174
     0
 93
        1
 44
-50.0
173
     0
291
     1
 45
0.0
1001
ACAD
1000
AcDbSavedByObjectVersion
1070
     0
  0
VISUALSTYLE
  5
2FC5C
102
{ACAD_REACTORS
330
2FC4D
102
}
330
2FC4D
100
AcDbVisualStyle
  2
Facepattern
 70
    15
 71
     2
 72
     2
 73
     0
 90
        0
 40
-0.6
 41
-30.0
 62
     5
 63
     7
 74
     1
 91
        4
 64
     7
 65
   257
 75
     1
175
     1
 42
1.0
 92
        8
 66
     7
 43
1.0
 76
     1
 77
     6
 78
     2
 67
     7
 79
     5
170
     0
171
     0
290
     0
174
     0
 93
        1
 44
0.0
173
     0
291
     1
 45
0.0
1001
ACAD
1000
AcDbSavedByObjectVersion
1070
     0
  0
VISUALSTYLE
  5
2FC4E
102
{ACAD_REACTORS
330
2FC4D
102
}
330
2FC4D
100
AcDbVisualStyle
  2
Flat
 70
     0
 71
     2
 72
     1
 73
     1
 90
        2
 40
-0.6
 41
30.0
 62
     5
 63
     7
 74
     0
 91
        4
 64
     7
 65
   257
 75
     1
175
     1
 42
1.0
 92
        8
 66
     7
 43
1.0
 76
     1
 77
     6
 78
     2
 67
     7
 79
     5
170
     0
171
     0
290
     0
174
     0
 93
       13
 44
0.0
173
     0
291
     1
 45
0.0
1001
ACAD
1000
AcDbSavedByObjectVersion
1070
     0
  0
VISUALSTYLE
  5
2FC4F
102
{ACAD_REACTORS
330
2FC4D
102
}
330
2FC4D
100
AcDbVisualStyle
  2
FlatWithEdges
 70
     1
 71
     2
 72
     1
 73
     1
 90
        2
 40
-0.6
 41
30.0
 62
     5
 63
     7
 74
     1
 91
        4
 64
     7
 65
   257
 75
     1
175
     1
 42
1.0
 92
        0
 66
   257
 43
1.0
 76
     1
 77
     6
 78
     2
 67
     7
 79
     5
170
     0
171
     0
290
     0
174
     0
 93
       13
 44
0.0
173
     0
291
     1
 45
0.0
1001
ACAD
1000
AcDbSavedByObjectVersion
1070
     0
  0
VISUALSTYLE
  5
2FC50
102
{ACAD_REACTORS
330
2FC4D
102
}
330
2FC4D
100
AcDbVisualStyle
  2
Gouraud
 70
     2
 71
     2
 72
     2
 73
     1
 90
        2
 40
-0.6
 41
30.0
 62
     5
 63
     7
 74
     0
 91
        4
 64
     7
 65
   257
 75
     1
175
     1
 42
1.0
 92
        0
 66
     7
 43
1.0
 76
     1
 77
     6
 78
     2
 67
     7
 79
     5
170
     0
171
     0
290
     0
174
     0
 93
       13
 44
0.0
173
     0
291
     1
 45
0.0
1001
ACAD
1000
AcDbSavedByObjectVersion
1070
     0
  0
VISUALSTYLE
  5
2FC51
102
{ACAD_REACTORS
330
2FC4D
102
}
330
2FC4D
100
AcDbVisualStyle
  2
GouraudWithEdges
 70
     3
 71
     2
 72
     2
 73
     1
 90
        2
 40
-0.6
 41
30.0
 62
     5
 63
     7
 74
     1
 91
        4
 64
     7
 65
   257
 75
     1
175
     1
 42
1.0
 92
        0
 66
   257
 43
1.0
 76
     1
 77
     6
 78
     2
 67
     7
 79
     5
170
     0
171
     0
290
     0
174
     0
 93
       13
 44
0.0
173
     0
291
     1
 45
0.0
1001
ACAD
1000
AcDbSavedByObjectVersion
1070
     0
  0
VISUALSTYLE
  5
2FC5B
102
{ACAD_REACTORS
330
2FC4D
102
}
330
2FC4D
100
AcDbVisualStyle
  2
Linepattern
 70
    14
 71
     2
 72
     2
 73
     0
 90
        0
 40
-0.6
 41
-30.0
 62
     5
 63
     7
 74
     1
 91
        4
 64
     7
 65
   257
 75
     7
175
     7
 42
1.0
 92
        8
 66
     7
 43
1.0
 76
     1
 77
     6
 78
     2
 67
     7
 79
     5
170
     0
171
     0
290
     0
174
     0
 93
        1
 44
0.0
173
     0
291
     1
 45
0.0
1001
ACAD
1000
AcDbSavedByObjectVersion
1070
     0
  0
VISUALSTYLE
  5
2FC57
102
{ACAD_REACTORS
330
2FC4D
102
}
330
2FC4D
100
AcDbVisualStyle
  2
Realistic
 70
     8
 71
     2
 72
     2
 73
     0
 90
        0
 40
-0.6
 41
-30.0
 62
     5
 63
     7
 74
     1
 91
        0
 64
     7
 65
   257
 75
     1
175
     1
 42
1.0
 92
        8
 66
     8
 43
1.0
 76
     1
 77
     6
 78
     2
 67
     7
 79
     5
170
     0
171
     0
290
     0
174
     0
 93
       13
 44
0.0
173
     0
291
     0
 45
0.0
1001
ACAD
1000
AcDbSavedByObjectVersion
1070
     0
  0
VISUALSTYLE
  5
2FC5A
102
{ACAD_REACTORS
330
2FC4D
102
}
330
2FC4D
100
AcDbVisualStyle
  2
Thicken
 70
    13
 71
     2
 72
     2
 73
     0
 90
        0
 40
-0.6
 41
-30.0
 62
     5
 63
     7
 74
     1
 91
        4
 64
     7
 65
   257
 75
     1
175
     1
 42
1.0
 92
       12
 66
     7
 43
1.0
 76
     1
 77
     6
 78
     2
 67
     7
 79
     5
170
     0
171
     0
290
     0
174
     0
 93
        1
 44
0.0
173
     0
291
     1
 45
0.0
1001
ACAD
1000
AcDbSavedByObjectVersion
1070
     0
  0
DICTIONARYVAR
  5
AAF3
102
{ACAD_REACTORS
330
34
102
}
330
34
100
DictionaryVariables
280
     0
  1
STANDARD
  0
DICTIONARYVAR
  5
A10C
102
{ACAD_REACTORS
330
34
102
}
330
34
100
DictionaryVariables
280
     0
  1
2
  0
DICTIONARYVAR
  5
AB07
102
{ACAD_REACTORS
330
34
102
}
330
34
100
DictionaryVariables
280
     0
  1
4
  0
DICTIONARYVAR
  5
35
102
{ACAD_REACTORS
330
34
102
}
330
34
100
DictionaryVariables
280
     0
  1
0
  0
DICTIONARYVAR
  5
2F3AA
102
{ACAD_REACTORS
330
34
102
}
330
34
100
DictionaryVariables
280
     0
  1

  0
DICTIONARYVAR
  5
194C
102
{ACAD_REACTORS
330
34
102
}
330
34
100
DictionaryVariables
280
     0
  1
127
  0
DICTIONARY
  5
7E8
102
{ACAD_REACTORS
330
47
102
}
330
47
100
AcDbDictionary
281
     1
  0
DICTIONARY
  5
4C
102
{ACAD_REACTORS
330
47
102
}
330
47
100
AcDbDictionary
281
     1
  0
XRECORD
  5
A929
102
{ACAD_REACTORS
330
47
102
}
330
47
100
AcDbXrecord
280
     1
 90
-1023410169
  0
XRECORD
  5
2C9F6
102
{ACAD_REACTORS
330
2C9F5
102
}
330
2C9F5
100
AcDbXrecord
280
     1
330
0
330
0
330
0
330
0
330
0
330
0
330
0
330
0
330
0
330
0
330
0
330
0
330
0
330
0
330
0
330
0
330
0
330
0
330
0
330
0
330
0
330
0
330
0
330
0
330
0
330
0
330
0
330
0
330
0
330
0
330
0
330
0
330
0
330
0
330
0
330
0
330
0
330
0
330
0
330
0
330
0
330
0
330
0
330
0
330
0
330
0
330
0
330
0
330
0
330
0
330
0
330
0
330
0
330
0
330
0
330
0
330
0
330
0
330
0
330
0
330
0
330
0
330
0
330
0
330
0
330
0
330
0
330
0
330
0
330
0
330
0
330
0
330
0
330
0
330
0
330
0
330
0
330
0
330
0
330
0
330
0
330
0
330
0
330
0
330
0
330
0
330
0
330
0
330
0
330
0
330
0
330
0
330
0
330
0
330
0
330
0
330
0
330
0
330
0
330
0
330
0
330
0
330
0
330
0
330
0
330
0
330
0
330
0
330
0
330
0
330
0
330
0
330
0
330
0
330
0
330
0
330
0
330
0
330
0
330
0
330
0
330
0
330
0
330
0
330
0
330
0
330
0
330
0
330
0
330
0
330
0
330
0
330
0
330
0
330
0
330
0
330
0
330
0
330
0
330
0
330
0
330
0
330
0
330
0
330
0
330
0
330
0
330
0
330
0
330
0
330
0
330
0
330
0
330
0
330
0
330
0
330
0
330
0
330
0
330
0
330
0
330
0
330
0
330
0
330
0
330
0
330
0
330
0
330
0
330
0
330
0
330
0
330
0
330
0
330
0
330
0
330
0
330
0
330
0
330
0
330
0
330
0
330
0
330
0
330
0
330
0
330
0
330
0
330
0
330
0
330
0
330
0
330
0
330
0
330
0
330
0
330
0
330
0
330
0
330
0
330
0
330
0
330
0
330
0
330
0
330
0
330
0
330
0
330
0
330
0
330
0
330
0
330
0
330
0
330
0
330
0
330
0
330
0
330
0
330
0
330
0
330
0
330
0
330
0
330
0
330
0
330
0
330
0
330
0
330
0
330
0
330
0
330
0
330
0
330
0
330
0
330
0
330
0
330
0
330
0
330
0
330
0
330
0
330
0
330
0
330
0
330
0
330
0
330
0
330
0
330
0
330
0
330
0
330
0
330
0
330
0
330
0
330
0
330
0
330
0
330
0
330
0
330
0
330
0
330
0
330
0
330
0
330
0
330
0
330
0
330
0
330
0
330
0
330
0
330
0
330
0
  0
XRECORD
  5
3FB7
102
{ACAD_REACTORS
330
3F96
102
}
330
3F96
100
AcDbXrecord
280
     1
 91
        3
330
0
 90
        8
 62
     7
370
    40
331
16
  1
Color_7
330
0
 90
        0
 62
    14
370
    -3
331
16
  1
Color_14
330
0
 90
        8
 62
     7
370
    20
331
16
  1
Color_7
330
6D1
 90
        0
 62
     7
370
    -3
331
16
  1
Color_7
330
0
 90
        8
 62
     7
370
    50
331
16
  1
Color_7
330
0
 90
        8
 62
     2
370
    35
331
16
  1
Color_2
330
0
 90
        8
 62
     7
370
    -3
331
16
  1
Color_7
330
10
 90
        8
 62
     7
370
    -3
331
16
  1
Color_7
  0
XRECORD
  5
1FEBE
102
{ACAD_REACTORS
330
AAB4
102
}
330
AAB4
100
AcDbXrecord
280
     1
 90
-1073741824
  0
XRECORD
  5
E2E8
102
{ACAD_REACTORS
330
AAB4
102
}
330
AAB4
100
AcDbXrecord
280
     1
 90
-1073741824
  0
XRECORD
  5
1B4AC
102
{ACAD_REACTORS
330
AAB4
102
}
330
AAB4
100
AcDbXrecord
280
     1
 90
-1073741824
  0
XRECORD
  5
28769
102
{ACAD_REACTORS
330
AAB4
102
}
330
AAB4
100
AcDbXrecord
280
     1
 90
-1073741824
  0
XRECORD
  5
28D60
102
{ACAD_REACTORS
330
AAB4
102
}
330
AAB4
100
AcDbXrecord
280
     1
 90
-1073741824
  0
XRECORD
  5
1B425
102
{ACAD_REACTORS
330
AAB4
102
}
330
AAB4
100
AcDbXrecord
280
     1
 90
-1073741824
  0
XRECORD
  5
2112F
102
{ACAD_REACTORS
330
AAB4
102
}
330
AAB4
100
AcDbXrecord
280
     1
 90
-1073741824
  0
DICTIONARY
  5
30C5B
330
22
100
AcDbDictionary
280
     1
281
     1
  3
ACAD_XREC_ROUNDTRIP
360
30C5C
  0
DICTIONARY
  5
1B6CD
330
1E
100
AcDbDictionary
280
     1
281
     1
  3
ACAD_XREC_ROUNDTRIP
360
30C5A
  3
ADSK_XREC_LAYOUTTHUMBNAIL
360
1B6CE
  0
DICTIONARY
  5
30C5D
330
26
100
AcDbDictionary
280
     1
281
     1
  3
ACAD_XREC_ROUNDTRIP
360
30C5E
  0
DICTIONARY
  5
30C79
330
2FC4B
100
AcDbDictionary
280
     1
281
     1
  3
ACAD_XREC_ROUNDTRIP
360
30C7A
  0
DICTIONARY
  5
30C77
330
2FC4A
100
AcDbDictionary
280
     1
281
     1
  3
ACAD_XREC_ROUNDTRIP
360
30C78
  0
DICTIONARY
  5
30C7B
330
2FC4C
100
AcDbDictionary
280
     1
281
     1
  3
ACAD_XREC_ROUNDTRIP
360
30C7C
  0
DICTIONARY
  5
30C61
330
C99B
100
AcDbDictionary
280
     1
281
     1
  3
ACAD_XREC_ROUNDTRIP
360
30C62
  0
DICTIONARY
  5
30C63
330
C99C
100
AcDbDictionary
280
     1
281
     1
  3
ACAD_XREC_ROUNDTRIP
360
30C64
  0
DICTIONARY
  5
30C65
330
C99D
100
AcDbDictionary
280
     1
281
     1
  3
ACAD_XREC_ROUNDTRIP
360
30C66
  0
DICTIONARY
  5
30C67
330
C99E
100
AcDbDictionary
280
     1
281
     1
  3
ACAD_XREC_ROUNDTRIP
360
30C68
  0
DICTIONARY
  5
30C69
330
C99F
100
AcDbDictionary
280
     1
281
     1
  3
ACAD_XREC_ROUNDTRIP
360
30C6A
  0
DICTIONARY
  5
30C6B
330
C9A0
100
AcDbDictionary
280
     1
281
     1
  3
ACAD_XREC_ROUNDTRIP
360
30C6C
  0
DICTIONARY
  5
30C6D
330
C9A1
100
AcDbDictionary
280
     1
281
     1
  3
ACAD_XREC_ROUNDTRIP
360
30C6E
  0
DICTIONARY
  5
30C6F
330
C9A2
100
AcDbDictionary
280
     1
281
     1
  3
ACAD_XREC_ROUNDTRIP
360
30C70
  0
DICTIONARY
  5
30C71
330
C9A3
100
AcDbDictionary
280
     1
281
     1
  3
ACAD_XREC_ROUNDTRIP
360
30C72
  0
DICTIONARY
  5
30C73
330
C9A4
100
AcDbDictionary
280
     1
281
     1
  3
ACAD_XREC_ROUNDTRIP
360
30C74
  0
DICTIONARY
  5
30C5F
330
AABA
100
AcDbDictionary
280
     1
281
     1
  3
ACAD_XREC_ROUNDTRIP
360
30C60
  0
XRECORD
  5
30C5C
102
{ACAD_REACTORS
330
30C5B
102
}
330
30C5B
100
AcDbXrecord
280
     1
102
SHADEPLOT
 70
     0
102
SHADEPLOTRESLEVEL
 70
     2
102
SHADEPLOTCUSTOMDPI
 70
   200
  0
XRECORD
  5
30C5A
102
{ACAD_REACTORS
330
1B6CD
102
}
330
1B6CD
100
AcDbXrecord
280
     1
102
SHADEPLOT
 70
     0
102
SHADEPLOTRESLEVEL
 70
     2
102
SHADEPLOTCUSTOMDPI
 70
   300
  0
XRECORD
  5
1B6CE
102
{ACAD_REACTORS
330
1B6CD
102
}
330
1B6CD
100
AcDbXrecord
280
     1
310
28000000B40000007F00000001000800000000004C59000000000000000000000001000000000000FFFFFF0000000000FFFFFF000000000000000000000000000000000000000000000000000000000000000000330000006600000099000000CC000000FF00000000330000333300006633000099330000CC330000FF3300
310
0000660000336600006666000099660000CC660000FF66000000990000339900006699000099990000CC990000FF99000000CC000033CC000066CC000099CC0000CCCC0000FFCC000000FF000033FF000066FF000099FF0000CCFF0000FFFF000000003300330033006600330099003300CC003300FF003300003333003333
310
33006633330099333300CC333300FF33330000663300336633006666330099663300CC663300FF66330000993300339933006699330099993300CC993300FF99330000CC330033CC330066CC330099CC3300CCCC3300FFCC330000FF330033FF330066FF330099FF3300CCFF3300FFFF330000006600330066006600660099
310
006600CC006600FF00660000336600333366006633660099336600CC336600FF33660000666600336666006666660099666600CC666600FF66660000996600339966006699660099996600CC996600FF99660000CC660033CC660066CC660099CC6600CCCC6600FFCC660000FF660033FF660066FF660099FF6600CCFF6600
310
FFFF660000009900330099006600990099009900CC009900FF00990000339900333399006633990099339900CC339900FF33990000669900336699006666990099669900CC669900FF66990000999900339999006699990099999900CC999900FF99990000CC990033CC990066CC990099CC9900CCCC9900FFCC990000FF99
310
0033FF990066FF990099FF9900CCFF9900FFFF99000000CC003300CC006600CC009900CC00CC00CC00FF00CC000033CC003333CC006633CC009933CC00CC33CC00FF33CC000066CC003366CC006666CC009966CC00CC66CC00FF66CC000099CC003399CC006699CC009999CC00CC99CC00FF99CC0000CCCC0033CCCC0066CC
310
CC0099CCCC00CCCCCC00FFCCCC0000FFCC0033FFCC0066FFCC0099FFCC00CCFFCC00FFFFCC000000FF003300FF006600FF009900FF00CC00FF00FF00FF000033FF003333FF006633FF009933FF00CC33FF00FF33FF000066FF003366FF006666FF009966FF00CC66FF00FF66FF000099FF003399FF006699FF009999FF00CC
310
99FF00FF99FF0000CCFF0033CCFF0066CCFF0099CCFF00CCCCFF00FFCCFF0000FFFF0033FFFF0066FFFF0099FFFF00CCFFFF00FFFFFF00000000000D0D0D001A1A1A00282828003535350043434300505050005D5D5D006B6B6B00787878008686860093939300A1A1A100AEAEAE00BBBBBB00C9C9C900D6D6D600E4E4E400
310
F1F1F100FFFFFF0000000000000000000000000000000000000000000000000000000000000000000000000000000000EFE2E2E2E2E2E2E2E2E2E2E2E2E2E2E2E2E2E2E2E2E2E2E2E2E2E2E2E2E2E2E2E2E2E2E2E2E2E2E2E2E2E2E2E2E2E2E2E2E2E2E2E2E2E2E2E2E2E2E2E2E2E2E2E2E2E2E2E2E2E2E2E2E2E2E2E2E2E2
310
E2E2E2E2E2E2E2E2E2E2E2E2E2E2E2E2E2E2E2E2E2E2E2E2E2E2E2E2E2E2E2E2E2E2E2E2E2E2E2E2E2E2E2E2E2E2E2E2E2E2E2E2E2E2E2E2E2E2E2E2E2E2E2E2E2E2E2E2E2E2E2E2E2E2E2E2E2E2E2E2E2E2E2E2E2E2E2E2E2E2E2E2E2E2E2E2E2E2E2E2E2EFE2F5F5F5F5F5F5F5F5F5F5F5F5F5F5F5F5F5F5F5F5F5F5F5F5
310
F5F5F5F5F5F5F5F5F5F5F5F5F5F5F5F5F5F5F5F5F5F5F5F5F5F5F5F5F5F5F5F5F5F5F5F5F5F5F5F5F5F5F5F5F5F5F5F5F5F5F5F5F5F5F5F5F5F5F5F5F5F5F5F5F5F5F5F5F5F5F5F5F5F5F5F5F5F5F5F5F5F5F5F5F5F5F5F5F5F5F5F5F5F5F5F5F5F5F5F5F5F5F5F5F5F5F5F5F5F5F5F5F5F5F5F5F5F5F5F5F5F5F5F5F5F5F5
310
F5F5F5F5F5F5F5F5F5F5F5F5F5F5F5F5F5F5F5F5F5F5F5F5F5E2E2EFE2F5E2E2E2E2E2E2E2E2F5F5F5F5F5F5F5F5F5E2E2E2E2E2E2E2E2E2E2E2E2E2E2E2E2F5F5F5F5F5F5F5F5F5E2E2E2E2E2E2E2E2E2E2E2E2E2E2E2E2F5F5F5F5F5F5F5F5F5E2E2E2E2E2E2E2E2E2E2E2E2E2E2E2E2F5F5F5F5F5F5F5F5E2E2E2E2E2E2
310
E2E2E2E2E2E2E2E2E2E2F5F5F5F5F5F5F5F5F5E2E2E2E2E2E2E2E2E2E2E2E2E2E2E2E2F5F5F5F5F5F5F5F5F5E2E2E2E2E2E2E2E2E2E2E2E2E2E2E2E2F5F5F5F5F5F5F5F5F5E2E2E2E2E2E2E2E2F5E2E2EFE2F5E2F5F5F5F5F5F5F5F5F5F5F5F5F5F5F5F5F5F5F5F5F5F5F5F5F5F5F5F5F5F5F5F5F5F5F5F5F5F5F5F5F5F5F5
310
F5F5F5F5F5F5F5F5F5F5F5F5F5F5F5F5F5F5F5F5F5F5F5F5F5F5F5F5F5F5F5F5F5F5F5F5F5F5F5F5F5F5F5F5F5F5F5F5F5F5F5F5F5F5F5F5F5F5F5F5F5F5F5F5F5F5F5F5F5F5F5F5F5F5F5F5F5F5F5F5F5F5F5F5F5F5F5F5F5F5F5F5F5F5F5F5F5F5F5F5F5F5F5F5F5F5F5F5F5F5F5F5F5F5F5F5F5F5F5F5F5F5F5F5F5F5F5
310
F5F5E2F5E2E2EFE2F5E2F5F5F5F5F5F5F5F5F5F5F5F5F5F5F5F5F5F5F5F5F5F5F5F5F5F5F5F5F5F5F5F5F5F5F5F5F5F5F5F5F5F5F5F5F5F5F5F5F5F5F5F5F5F5F5F5F5F5F5F5F5F5F5F5F5F5F5F5F5F5F5F5F5F5F5F5F5F5F5F5F5F5F5F5F5F5F5F5F5F5F5F5F5F5F5F5F5F5F5F5F5F5F5F5F5F5F5F5F5F5F5F5F5F5F5F5F5
310
F5F5F5F5F5F5F5F5F5F5F5F5F5F5F5F5F5F5F5F5F5F5F5F5F5F5F5F5F5F5F5F5F5F5F5F5F5F5F5F5F5F5F5F5F5F5F5F5F5F5F5F5F5F5F5E2F5E2E2EFE2F5E2F5F5F5F5F5F5F5F5F5F5F5F5F5F5F5F5F5F5F5F5F5F5F5F5F5F5F5F5F5F5F5F5F5F5F5F5F5F5F5F5F5F5F5F5F5F5F5F5F5F5F5F5F5F5F5F5F5F5F5F5F5F5F5F5
310
F5F5F5F5F5F5F5F5F5F5F5F5F5F5F5F5F5F5F5F5F5F5F5F5F5F5F5F5F5F5F5F5F5F5F5F5F5F5F5F5F5F5F5F5F5F5F5F5F5F5F5F5F5F5F5F5F5F5F5F5F5F5F5F5F5F5F5F5F5F5F5F5F5F5F5F5F5F5F5F5F5F5F5F5F5F5F5F5F5F5F5F5F5F5F5F5F5F5F5F5F5F5F5F5F5F5F5F5E2F5E2E2EFE2F5E2F5F5F5F5F5F5F5F5F5F5F5
310
F5F5F5F5F5F5F5F5F5F5F5F5F5F5F5F5F5F5F5F5F5F5F5F5F5F5F5F5F5F5F5F5F5F5F5F5F5F5F5F5F5F5F5F5F5F5F5F5F5F5F5F5F5F5F5F5F5F5F5F5F5F5F5F5F5F5F5F5F5F5F5F5F5F5F5F5F5F5F5F5F5F5F5F5F5F5F5F5F5F5F5F5F5F5F5F5F5F5F5F5F5F5F5F5F5F5F5F5F5F5F5F5F5F5F5F5F5F5F5F5F5F5F5F5F5F5F5
310
F5F5F5F5F5F5F5F5F5F5F5F5F5F5F5F5F5F5F5F5F5F5F5F5F5F5F5F5F5F5F5F5F5F5E2F5E2E2EFE2F5E2F5F5F5F5F5F5F5F5F5F5F5F5F5F5F5F5F5F5F5F5F5F5F5F5F5F5F5F5F5F5F5F5F5F5F5F5F5F5F5F5F5F5F5F5F5F5F5F5F5F5F5F5F5F5F5F5F5F5F5F5F5F5F5F5F5F5F5F5F5F5F5F5F5F5F5F5F5F5F5F5F5F5F5F5F5
310
F5F5F5F5F5F5F5F5F5F5F5F5F5F5F5F5F5F5F5F5F5F5F5F5F5F5F5F5F5F5F5F5F5F5F5F5F5F5F5F5F5F5F5F5F5F5F5F5F5F5F5F5F5F5F5F5F5F5F5F5F5F5F5F5F5F5F5F5F5F5F5F5F5F5F5F5F5F5F5F5F5F5F5F5F5F5F5E2F5E2E2EFE2F5E2F5F5F5F5F5F5F5F5F5F5F5F5F5F5F5F5F5F5F5F5F5F5F5F5F5F5F5F5F5F5F5F5
310
F5F5F5F5F5F5F5F5F5F5F5F5F5F5F5F5F5F5F5F5F5F5F5F5F5F5F5F5F5F5F5F5F5F5F5F5F5F5F5F5F5F5F5F5F5F5F5F5F5F5F5F5F5F5F5F5F5F5F5F5F5F5F5F5F5F5F5F5F5F5F5F5F5F5F5F5F5F5F5F5F5F5F5F5F5F5F5F5F5F5F5F5F5F5F5F5F5F5F5F5F5F5F5F5F5F5F5F5F5F5F5F5F5F5F5F5F5F5F5F5F5F5F5F5F5F5F5
310
F5F5F5F5F5F5F5F5F5F5F5F5F5E2F5E2E2EFE2F5E2F5F5F5F5F5F5F5F5F5F5F5F5F5F5F5F5F5F5F5F5F5F5F5F5F5F5F5F5F5F5F5F5F5F5F5F5F5F5F5F5F5F5F5F5F5F5F5F5F5F5F5F5F5F5F5F5F5F5F5F5F5F5F5F5F5F5F5F5F5F5F5F5F5F5F5F5F5F5F5F5F5F5F5F5F5F5F5F5F5F5F5F5F5F5F5F5F5F5F5F5F5F5F5F5F5F5
310
F5F5F5F5F5F5F5F5F5F5F5F5F5F5F5F5F5F5F5F5F5F5F5F5F5F5F5F5F5F5F5F5F5F5F5F5F5F5F5F5F5F5F5F5F5F5F5F5F5F5F5F5F5F5F5F5F5F5F5F5F5F5F5F5F5F5E2F5E2E2EFE2F5F5F5F5F5F5F5F5F5F5F5F5F5F5F5F5F5F5F5F5F5F5F5F5F5F5F5F5F5F5F5F5F5F5F5F5F5F5F5F5F5F5F5F5F5F5F5F5F5F5F5F5F5F5F5
310
F5F5F5F5F5F5F5F5F5F5F5F5F5F5F5F5F5F5F5F5F5F5F5F5F5F5F5F5F5F5F5F5F5F5F5F5F5F5F5F5F5F5F5F5F5F5F5F5F5F5F5F5F5F5F5F5F5F5F5F5F5F5F5F5F5F5F5F5F5F5F5F5F5F5F5F5F5F5F5F5F5F5F5F5F5F5F5F5F5F5F5F5F5F5F5F5F5F5F5F5F5F5F5F5F5F5F5F5F5F5F5F5F5F5F5F5F5F5F5F5F5E2E2EFE2F5F5
310
F5F5F5F5F5F5F5F5F5F5F5F5F5F5F5F5F5F5F5F5F5F5F5F5F5F5F5F5F5F5F5F5F5F5F5F5F5F5F5F5F5F5F5F5F5F5F5F5F5F5F5F5F5F5F5F5F5F5F5F5F5F5F5F5F5F5F5F5F5F5F5F5F5F5F5F5F5F5F5F5F5F5F5F5F5F5F5F5F5F5F5F5F5F5F5F5F5F5F5F5F5F5F5F5F5F5F5F5F5F5F5F5F5F5F5F5F5F5F5F5F5F5F5F5F5F5F5
310
F5F5F5F5F5F5F5F5F5F5F5F5F5F5F5F5F5F5F5F5F5F5F5F5F5F5F5F5F5F5F5F5F5F5F5F5F5F5F5F5F5F5F5F5F5F5F5E2E2EFE2F5F5F5F5F5F5F5F5F5F5F5F5F5F5F5F5F5F5F5F5F5F5F5F5F5F5F5F5F5F5F5F5F5F5F5F5F5F5F5F5F5F5F5F5F5F5F5F5F5F5F5F5F5F5F5F5F5F5F5F5F5F5F5F5F5F5F5F5F5F5F5F5F5F5F5F5
310
F5F5F5F5F5F5F5F5F5F5F5F5F5F5F5F5F5F5F5F5F5F5F5F5F5F5F5F5F5F5F5F5F5F5F5F5F5F5F5F5F5F5F5F5F5F5F5F5F5F5F5F5F5F5F5F5F5F5F5F5F5F5F5F5F5F5F5F5F5F5F5F5F5F5F5F5F5F5F5F5F5F5F5F5F5F5F5F5F5F5F5F5F5F5F5F5F5F5F5F5E2E2EFE2F5F5F5F5F5F5F5F5F5F5F5F5F5F5F5F5F5F5F5F5F5F5F5
310
F5F5F5F5F5F5F5F5F5F5F5F5F5F5F5F5F5F5F5F5F5F5F5F5F5F5F5F5F5F5F5F5F5F5F5F5F5F5F5F5F5F5F5F5F5F5F5F5F5F5F5F5F5F5F5F5F5F5F5F5F5F5F5F5F5F5F5F5F5F5F5F5F5F5F5F5F5F5F5F5F5F5F5F5F5F5F5F5F5F5F5F5F5F5F5F5F5F5F5F5F5F5F5F5F5F5F5F5F5F5F5F5F5F5F5F5F5F5F5F5F5F5F5F5F5F5F5
310
F5F5F5F5F5F5F5F5F5F5F5F5F5F5F5F5F5F5F5F5F5F5F5F5F5F5E2E2EFE2F5F5F5F5F5F5F5F5F5F5F5F5F5F5F5F5F5F5F5F5F5F5F5F5F5F5F5F5F5F5F5F5F5F5F5F5F5F5F5F5F5F5F5F5F5F5F5F5F5F5F5F5F5F5F5F5F5F5F5F5F5F5F5F5F5F5F5F5F5F5F5F5F5F5F5F5F5F5F5F5F5F5F5F5F5F5F5F5F5F5F5F5F5F5F5F5F5
310
F5F5F5F5F5F5F5F5F5F5F5F5F5F5F5F5F5F5F5F5F5F5F5F5F5F5F5F5F5F5F5F5F5F5F5F5F5F5F5F5F5F5F5F5F5F5F5F5F5F5F5F5F5F5F5F5F5F5F5F5F5F5F5F5F5F5F5F5F5F5F5F5F5F5F5F5F5F5F5E2E2EFE2F5F5F5F5F5F5F5F5F5F5F5F5F5F5F5F5F5F5F5F5F5F5F5F5F5F5F5F5F5F5F5F5F5F5F5F5F5F5F5F5F5F5F5F5
310
F5F5F5F5F5F5F5F5F5F5F5F5F5F5F5F5F5F5F5F5F5F5F5F5F5F5F5F5F5F5F5F5F5F5F5F5F5F5F5F5F5F5F5F5F5F5F5F5F5F5F5F5F5F5F5F5F5F5F5F5F5F5F5F5F5F5F5F5F5F5F5F5F5F5F5F5F5F5F5F5F5F5F5F5F5F5F5F5F5F5F5F5F5F5F5F5F5F5F5F5F5F5F5F5F5F5F5F5F5F5F5F5F5F5F5F5F5F5F5F5F5F5F5F5F5F5F5
310
F5F5F5F5F5E2E2EFE2F5F5F5F5F5F5F5F5F5F5F5F5F5F5F5F5F5F5F5F5F5F5F5F5F5F5F5F5F5F5F5F5F5F5F5F5F5F5F5F5F5F5F5F5F5F5F5F5F5F5F5F5F5F5F5F5F5F5F5F5F5F5F5F5F5F5F5F5F5F5F5F5F5F5F5F5F5F5F5F5F5F5F5F5F5F5F5F5F5F5F5F5F5F5F5F5F5F5F5F5F5F5F5F5F5F5F5F5F5F5F5F5F5F5F5F5F5F5
310
F5F5F5F5F5F5F5F5F5F5F5F5F5F5F5F5F5F5F5F5F5F5F5F5F5F5F5F5F5F5F5F5F5F5F5F5F5F5F5F5F5F5F5F5F5F5F5F5F5F5F5F5F5F5F5F5F5F5E2E2EFE2F5F5F5F5F5F5F5F5F5F5F5F5F5F5F5F5F5F5F5F5F5F5F5F5F5F5F5F5F5F5F5F5F5F5F5F5F5F5F5F5F5F5F5F5F5F5F5F5F5F5F5F5F5F5F5F5F5F5F5F5F5F5F5F5F5
310
F5F5F5F5F5F5F5F5F5F5F5F5F5F5F5F5F5F5F5F5F5F5F5F5F5F5F5F5F5F5F5F5F5F5F5F5F5F5F5F5F5F5F5F5F5F5F5F5F5F5F5F5F5F5F5F5F5F5F5F5F5F5F5F5F5F5F5F5F5F5F5F5F5F5F5F5F5F5F5F5F5F5F5F5F5F5F5F5F5F5F5F5F5F5F5F5F5F5F5F5F5F5F5F5F5F5F5F5F5F5F5E2E2EFE2F5F5F5F5F5F5F5F5F5F5F5F5
310
F5F5F5F5F5F5F5F5F5F5F5F5F5F5F5F5F5F5F5F5F5F5F5F5F5F5F5F5F5F5F5F5F5F5F5F5F5F5F5F5F5F5F5F5F5F5F5F5F5F5F5F5F5F5F5F5F5F5F5F5F5F5F5F5F5F5F5F5F5F5F5F5F5F5F5F5F5F5F5F5F5F5F5F5F5F5F5F5F5F5F5F5F5F5F5F5F5F5F5F5F5F5F5F5F5F5F5F5F5F5F5F5F5F5F5F5F5F5F5F5F5F5F5F5F5F5F5
310
F5F5F5F5F5F5F5F5F5F5F5F5F5F5F5F5F5F5F5F5F5F5F5F5F5F5F5F5F5F5F5F5F5F5F5F5F5E2E2EFE2F5E2F5F5F5F5F5F5F5F5F5F5F5F5F5F5F5F5F5F5F5F5F5F5F5F5F5F5F5F5F5F5F5F5F5F5F5F5F5F5F5F5F5F5F5F5F5F5F5F5F5F5F5F5F5F5F5F5F5F5F5F5F5F5F5F5F5F5F5F5F5F5F5F5F5F5F5F5F5F5F5F5F5F5F5F5
310
F5F5F5F5F5F5F5F5F5F5F5F5F5F5F5F5F5F5F5F5F5F5F5F5F5F5F5F5F5F5F5F5F5F5F5F5F5F5F5F5F5F5F5F5F5F5F5F5F5F5F5F5F5F5F5F5F5F5F5F5F5F5F5F5F5F5F5F5F5F5F5F5F5F5F5F5F5F5F5F5F5F5F5F5F5F5F5F5E2F5E2E2EFE2F5E2F5F5F5F5F5F5F5F5F5F5F5F5F5F5F5F5F5F5F5F5F5F5F5F5F5F5F5F5F5F5F5
310
F5F5F5F5F5F5F5F5F5F5F5F5F5F5F5F5F5F5F5F5F5F5F5F5F5F5F5F5F5F5F5F5F5F5F5F5F5F5F5F5F5F5F5F5F5F5F5F5F5F5F5F5F5F5F5F5F5F5F5F5F5F5F5F5F5F5F5F5F5F5F5F5F5F5F5F5F5F5F5F5F5F5F5F5F5F5F5F5F5F5F5F5F5F5F5F5F5F5F5F5F5F5F5F5F5F5F5F5F5F5F5F5F5F5F5F5F5F5F5F5F5F5F5F5F5F5F5
310
F5F5F5F5F5F5F5F5F5F5F5F5F5F5E2F5E2E2EFE2F5E2F5F5F5F5F5F5F5F5F5F5F5F5F5F5F5F5F5F5F5F5F5F5F5F5F5F5F5F5F5F5F5F5F5F5F5F5F5F5F5F5F5F5F5F5F5F5F5F5F5F5F5F5F5F5F5F5F5F5F5F5F5F5F5F5F5F5F5F5F5F5F5F5F5F5F5F5F5F5F5F5F5F5F5F5F5F5F5F5F5F5F5F5F5F5F5F5F5F5F5F5F5F5F5F5F5
310
F5F5F5F5F5F5F5F5F5F5F5F5F5F5F5F5F5F5F5F5F5F5F5F5F5F5F5F5F5F5F5F5F5F5F5F5F5F5F5F5F5F5F5F5F5F5F5F5F5F5F5F5F5F5F5F5F5F5F5F5F5F5F5F5F5F5F5E2F5E2E2EFE2F5E2F5F5F5F5F5F5F5F5F5F5F5F5F5F5F5F5F5F5F5F5F5F5F5F5F5F5F5F5F5F5F5F5F5F5F5F5F5F5F5F5F5F5F5F5F5F5F5F5F5F5F5F5
310
F5F5F5F5F5F5F5F5F5F5F5F5F5F5F5F5F5F5F5F5F5F5F5F5F5F5F5F5F5F5F5F5F5F5F5F5F5F5F5F5F5F5F5F5F5F5F5F5F5F5F5F5F5F5F5F5F5F5F5F5F5F5F5F5F5F5F5F5F5F5F5F5F5F5F5F5F5F5F5F5F5F5F5F5F5F5F5F5F5F5F5F5F5F5F5F5F5F5F5F5F5F5F5F5F5F5F5F5F5F5F5F5F5F5F5F5F5F5F5F5E2F5E2E2EFE2F5
310
E2F5F5F5F5F5F5F5F5F5F5F5F5F5F5F5F5F5F5F5F5F5F5F5F5F5F5F5F5F5F5F5F5F5F5F5F5F5F5F5F5F5F5F5F5F5F5F5F5F5F5F5F5F5F5F5F5F5F5F5F5F5F5F5F5F5F5F5F5F5F5F5F5F5F5F5F5F5F5F5F5F5F5F5F5F5F5F5F5F5F5F5F5F5F5F5F5F5F5F5F5F5F5F5F5F5F5F5F5F5F5F5F5F5F5F5F5F5F5F5F5F5F5F5F5F5F5
310
F5F5F5F5F5F5F5F5F5F5F5F5F5F5F5F5F5F5F5F5F5F5F5F5F5F5F5F5F5F5F5F5F5F5F5F5F5F5F5F5F5F5F5F5F5F5E2F5E2E2EFE2F5E2F5F5F5F5F5F5F5F5F5F5F5F5F5F5F5F5F5F5F5F5F5F5F5F5F5F5F5F5F5F5F5F5F5F5F5F5F5F5F5F5F5F5F5F5F5F5F5F5F5F5F5F5F5F5F5F5F5F5F5F5F5F5F5F5F5F5F5F5F5F5F5F5F5
310
F5F5F5F5F5F5F5F5F5F5F5F5F5F5F5F5F5F5F5F5F5F5F5F5F5F5F5F5F5F5F5F5F5F5F5F5F5F5F5F5F5F5F5F5F5F5F5F5F5F5F5F5F5F5F5F5F5F5F5F5F5F5F5F5F5F5F5F5F5F5F5F5F5F5F5F5F5F5F5F5F5F5F5F5F5F5F5F5F5F5F5F5F5F5F5F5F5F5F5E2F5E2E2EFE2F5E2F5F5F5F5F5F5F5F5F5F5F5F5F5F5F5F5F5F5F5F5
310
F5F5F5F5F5F5F5F5F5F5F5F5F5F5F5F5F5F5F5F5F5F5F5F5F5F5F5F5F5F5F5F5F5F5F5F5F5F5F5F5F5F5F5F5F5F5F5F5F5F5F5F5F5F5F5F5F5F5F5F5F5F5F5F5F5F5F5F5F5F5F5F5F5F5F5F5F5F5F5F5F5F5F5F5F5F5F5F5F5F5F5F5F5F5F5F5F5F5F5F5F5F5F5F5F5F5F5F5F5F5F5F5F5F5F5F5F5F5F5F5F5F5F5F5F5F5F5
310
F5F5F5F5F5F5F5F5F5F5F5F5F5F5F5F5F5F5F5F5F5F5F5F5F5E2F5E2E2EFE2F5E2F5F5F5F5F5F5F5F5F5F5F5F5F5F5F5F5F5F5F5F5F5F5F5F5F5F5F5F5F5F5F5F5F5F5F5F5F5F5F5F5F5F5F5F5F5F5F5F5F5F5F5F5F5F5F5F5F5F5F5F5F5F5F5F5F5F5F5F5F5F5F5F5F5F5F5F5F5F5F5F5F5F5F5F5F5F5F5F5F5F5F5F5F5F5
310
F5F5F5F5F5F5F5F5F5F5F5F5F5F5F5F5F5F5F5F5F5F5F5F5F5F5F5F5F5F5F5F5F5F5F5F5F5F5F5F5F5F5F5F5F5F5F5F5F5F5F5F5F5F5F5F5F5F5F5F5F5F5F5F5F5F5F5F5F5F5F5F5F5F5F5F5F5F5E2F5E2E2EFE2F5E2F5F5F5F5F5F5F5F5F5F5F5F5F5F5F5F5F5F5F5F5F5F5F5F5F5F5F5F5F5F5F5F5F5F5F5F5F5F5F5F5F5
310
F5F5F5F5F5F5F5F5F5F5F5F5F5F5F5F5F5F5F5F5F5F5F5F5F5F5F5F5F5F5F5F5F5F5F5F5F5F5F5F5F5F5F5F5F5F5F5F5F5F5F5F5F5F5F5F5F5F5F5F5F5F5F5F5F5F5F5F5F5F5F5F5F5F5F5F5F5F5F5F5F5F5F5F5F5F5F5F5F5F5F5F5F5F5F5F5F5F5F5F5F5F5F5F5F5F5F5F5F5F5F5F5F5F5F5F5F5F5F5F5F5F5F5F5F5F5F5
310
F5F5F5F5E2F5E2E2EFE2F5E2F5F5F5F5F5F5F5F5F5F5F5F5F5F5F5F5F5F5F5F5F5F5F5F5F5F5F5F5F5F5F5F5F5F5F5F5F5F5F5F5F5F5F5F5F5F5F5F5F5F5F5F5F5F5F5F5F5F5F5F5F5F5F5F5F5F5F5F5F5F5F5F5F5F5F5F5F5F5F5F5F5F5F5F5F5F5F5F5F5F5F5F5F5F5F5F5F5F5F5F5F5F5F5F5F5F5F5F5F5F5F5F5F5F5F5
310
F5F5F5F5F5F5F5F5F5F5F5F5F5F5F5F5F5F5F5F5F5F5F5F5F5F5F5F5F5F5F5F5F5F5F5F5F5F5F5F5F5F5F5F5F5F5F5F5F5F5F5F5F5F5F5F5F5E2F5E2E2EFE2F5E2F5F5F5F5F5F5F5F5F5F5F5F5F5F5F5F5F5F5F5F5F5F5F5F5F5F5F5F5F5F5F5F5F5F5F5F5F5F5F5F5F5F5F5F5F5F5F5F5F5F5F5F5F5F5F5F5F5F5F5F5F5F5
310
F5F5F5F5F5F5F5F5F5F5F5F5F5F5F5F5F5F5F5F5F5F5F5F5F5F5F5F5F5F5F5F5F5F5F5F5F5F5F5F5F5F5F5F5F5F5F5F5F5F5F5F5F5F5F5F5F5F5F5F5F5F5F5F5F5F5F5F5F5F5F5F5F5F5F5F5F5F5F5F5F5F5F5F5F5F5F5F5F5F5F5F5F5F5F5F5F5F5F5F5F5F5F5F5F5F5F5F5F5F5E2F5E2E2EFE2F5E2F5F5F5F5F5F5F5F5F5
310
F5F5F5F5F5F5F5F5F5F5F5F5F5F5F5F5F5F5F5F5F5F5F5F5F5F5F5F5F5F5F5F5F5F5F5F5F5F5F5F5F5F5F5F5F5F5F5F5F5F5F5F5F5F5F5F5F5F5F5F5F5F5F5F5F5F5F5F5F5F5F5F5F5F5F5F5F5F5F5F5F5F5F5F5F5F5F5F5F5F5F5F5F5F5F5F5F5F5F5F5F5F5F5F5F5F5F5F5F5F5F5F5F5F5F5F5F5F5F5F5F5F5F5F5F5F5F5
310
F5F5F5F5F5F5F5F5F5F5F5F5F5F5F5F5F5F5F5F5F5F5F5F5F5F5F5F5F5F5F5F5F5F5F5F5E2F5E2E2EFE2F5E2F5F5F5F5F5F5F5F5F5F5F5F5F5F5F5F5F5F5F5F5F5F5F5F5F5F5F5F5F5F5F5F5F5F5F5F5F5F5F5F5F5F5F5F5F5F5F5F5F5F5F5F5F5F5F5F5F5F5F5F5F5F5F5F5F5F5F5F5F5F5F5F5F5F5F5F5F5F5F5F5F5F5F5
310
F5F5F5F5F5F5F5F5F5F5F5F5F5F5F5F5F5F5F5F5F5F5F5F5F5F5F5F5F5F5F5F5F5F5F5F5F5F5F5F5F5F5F5F5F5F5F5F5F5F5F5F5F5F5F5F5F5F5F5F5F5F5F5F5F5F5F5F5F5F5F5F5F5F5F5F5F5F5F5F5F5F5F5F5F5F5F5F5F5E2F5E2E2EFE2F5E2F5F5F5F5F5F5F5F5F5F5F5F5F5F5F5F5F5F5F5F5F5F5F5F5F5F5F5F5F5F5
310
F5F5F5F5F5F5F5F5F5F5F5F5F5F5F5F5F5F5F5F5F5F5F5F5F5F5F5F5F5F5F5F5F5F5F5F5F5F5F5F5F5F5F5F5F5F5F5F5F5F5F5F5F5F5F5F5F5F5F5F5F5F5F5F5F5F5F5F5F5F5F5F5F5F5F5F5F5F5F5F5F5F5F5F5F5F5F5F5F5F5F5F5F5F5F5F5F5F5F5F5F5F5F5F5F5F5F5F5F5F5F5F5F5F5F5F5F5F5F5F5F5F5F5F5F5F5F5
310
F5F5F5F5F5F5F5F5F5F5F5F5F5F5F5E2F5E2E2EFE2F5E2F5F5F5F5F5F5F5F5F5F5F5F5F5F5F5F5F5F5F5F5F5F5F5F5F5F5F5F5F5F5F5F5F5F5F5F5F5F5F5F5F5F5F5F5F5F5F5F5F5F5F5F5F5F5F5F5F5F5F5F5F5F5F5F5F5F5F5F5F5F5F5F5F5F5F5F5F5F5F5F5F5F5F5F5F5F5F5F5F5F5F5F5F5F5F5F5F5F5F5F5F5F5F5F5
310
F5F5F5F5F5F5F5F5F5F5F5F5F5F5F5F5F5F5F5F5F5F5F5F5F5F5F5F5F5F5F5F5F5F5F5F5F5F5F5F5F5F5F5F5F5F5F5F5F5F5F5F5F5F5F5F5F5F5F5F5F5F5F5F5F5F5F5F5E2F5E2E2EFE2F5E2F5F5F5F5F5F5F5F5F5F5F5F5F5F5F5F5F5F5F5F5F5F5F5F5F5F5F5F5F5F5F5F5F5F5F5F5F5F5F5F5F5F5F5F5F5F5F5F5F5F5F5
310
F5F5F5F5F5F5F5F5F5F5F5F5F5F5F5F5F5F5F5F5F5F5F5F5F5F5F5F5F5F5F5F5F5F5F5F5F5F5F5F5F5F5F5F5F5F5F5F5F5F5F5F5F5F5F5F5F5F5F5F5F5F5F5F5F5F5F5F5F5F5F5F5F5F5F5F5F5F5F5F5F5F5F5F5F5F5F5F5F5F5F5F5F5F5F5F5F5F5F5F5F5F5F5F5F5F5F5F5F5F5F5F5F5F5F5F5F5F5F5F5F5E2F5E2E2EFE2
310
F5F5F5F5F5F5F5F5F5F5F5F5F5F5F5F5F5F5F5F5F5F5F5F5F5F5F5F5F5F5F5F5F5F5F5F5F5F5F5F5F5F5F5F5F5F5F5F5F5F5F5F5F5F5F5F5F5F5F5F5F5F5F5F5F5F5F5F5F5F5F5F5F5F5F5F5F5F5F5F5F5F5F5F5F5F5F5F5F5F5F5F5F5F5F5F5F5F5F5F5F5F5F5F5F5F5F5F5F5F5F5F5F5F5F5F5F5F5F5F5F5F5F5F5F5F5F5
310
F5F5F5F5F5F5F5F5F5F5F5F5F5F5F5F5F5F5F5F5F5F5F5F5F5F5F5F5F5F5F5F5F5F5F5F5F5F5F5F5F5F5F5F5F5F5F5F5F5E2E2EFE2F5F5F5F5F5F5F5F5F5F5F5F5F5F5F5F5F5F5F5F5F5F5F5F5F5F5F5F5F5F5F5F5F5F5F5F5F5F5F5F5F5F5F5F5F5F5F5F5F5F5F5F5F5F5F5F5F5F5F5F5F5F5F5F5F5F5F5F5F5F5F5F5F5F5
310
F5F5F5F5F5F5F5F5F5F5F5F5F5F5F5F5F5F5F5F5F5F5F5F5F5F5F5F5F5F5F5F5F5F5F5F5F5F5F5F5F5F5F5F5F5F5F5F5F5F5F5F5F5F5F5F5F5F5F5F5F5F5F5F5F5F5F5F5F5F5F5F5F5F5F5F5F5F5F5F5F5F5F5F5F5F5F5F5F5F5F5F5F5F5F5F5F5F5F5F5F5F5E2E2EFE2F5F5F5F5F5F5F5F5F5F5F5F5F5F5F5F5F5F5F5F5F5
310
F5F5F5F5F5F5F5F5F5F5F5F5F5F5F5F5F5F5F5F5F5F5F5F5F5F5F5F5F5F5F5F5F5F5F5F5F5F5F5F5F5F5F5F5F5F5F5F5F5F5F5F5F5F5F5F5F5F5F5F5F5F5F5F5F5F5F5F5F5F5F5F5F5F5F5F5F5F5F5F5F5F5F5F5F5F5F5F5F5F5F5F5F5F5F5F5F5F5F5F5F5F5F5F5F5F5F5F5F5F5F5F5F5F5F5F5F5F5F5F5F5F5F5F5F5F5F5
310
F5F5F5F5F5F5F5F5F5F5F5F5F5F5F5F5F5F5F5F5F5F5F5F5F5F5F5F5E2E2EFE2F5F5F5F5F5F5F5F5F5F5F5F5F5F5F5F5F5F5F5F5F5F5F5F5F5F5F5F5F5F5F5F5F5F5F5F5F5F5F5F5F5F5F5F5F5F5F5F5F5F5F5F5F5F5F5F5F5F5F5F5F5F5F5F5F5F5F5F5F5F5F5F5F5F5F5F5F5F5F5F5F5F5F5F5F5F5F5F5F5F5F5F5F5F5F5
310
F5F5F5F5F5F5F5F5F5F5F5F5F5F5F5F5F5F5F5F5F5F5F5F5F5F5F5F5F5F5F5F5F5F5F5F5F5F5F5F5F5F5F5F5F5F5F5F5F5F5F5F5F5F5F5F5F5F5F5F5F5F5F5F5F5F5F5F5F5F5F5F5F5F5F5F5F5F5F5F5F5E2E2EFE2F5F5F5F5F5F5F5F5F5F5F5F5F5F5F5F5F5F5F5F5F5F5F5F5F5F5F5F5F5F5F5F5F5F5F5F5F5F5F5F5F5F5
310
F5F5F5F5F5F5F5F5F5F5F5F5F5F5F5F5F5F5F5F5F5F5F5F5F5F5F5F5F5F5F5F5F5F5F5F5F5F5F5F5F5F5F5F5F5F5F5F5F5F5F5F5F5F5F5F5F5F5F5F5F5F5F5F5F5F5F5F5F5F5F5F5F5F5F5F5F5F5F5F5F5F5F5F5F5F5F5F5F5F5F5F5F5F5F5F5F5F5F5F5F5F5F5F5F5F5F5F5F5F5F5F5F5F5F5F5F5F5F5F5F5F5F5F5F5F5F5
310
F5F5F5F5F5F5F5E2E2EFE2F5F5F5F5F5F5F5F5F5F5F5F5F5F5F5F5F5F5F5F5F5F5F5F5F5F5F5F5F5F5F5F5F5F5F5F5F5F5F5F5F5F5F5F5F5F5F5F5F5F5F5F5F5F5F5F5F5F5F5F5F5F5F5F5F5F5F5F5F5F5F5F5F5F5F5F5F5F5F5F5F5F5F5F5F5F5F5F5F5F5F5F5F5F5F5F5F5F5F5F5F5F5F5F5F5F5F5F5F5F5F5F5F5F5F5F5
310
F5F5F5F5F5F5F5F5F5F5F5F5F5F5F5F5F5F5F5F5F5F5F5F5F5F5F5F5F5F5F5F5F5F5F5F5F5F5F5F5F5F5F5F5F5F5F5F5F5F5F5F5F5F5F5F5F5F5F5F5E2E2EFE2F5F5F5F5F5F5F5F5F5F5F5F5F5F5F5F5F5F5F5F5F5F5F5F5F5F5F5F5F5F5F5F5F5F5F5F5F5F5F5F5F5F5F5F5F5F5F5F5F5F5F5F5F5F5F5F5F5F5F5F5F5F5F5
310
F5F5F5F5F5F5F5F5F5F5F5F5F5F5F5F5F5F5F5F5F5F5F5F5F5F5F5F5F5F5F5F5F5F5F5F5F5F5F5F5F5F5F5F5F5F5F5F5F5F5F5F5F5F5F5F5F5F5F5F5F5F5F5F5F5F5F5F5F5F5F5F5F5F5F5F5F5F5F5F5F5F5F5F5F5F5F5F5F5F5F5F5F5F5F5F5F5F5F5F5F5F5F5F5F5F5F5F5F5F5F5F5F5E2E2EFE2F5F5F5F5F5F5F5F5F5F5
310
F5F5F5F5F5F5F5F5F5F5F5F5F5F5F5F5F5F5F5F5F5F5F5F5F5F5F5F5F5F5F5F5F5F5F5F5F5F5F5F5F5F5F5F5F5F5F5F5F5F5F5F5F5F5F5F5F5F5F5F5F5F5F5F5F5F5F5F5F5F5F5F5F5F5F5F5F5F5F5F5F5F5F5F5F5F5F5F5F5F5F5F5F5F5F5F5F5F5F5F5F5F5F5F5F5F5F5F5F5F5F5F5F5F5F5F5F5F5F5F5F5F5F5F5F5F5F5
310
F5F5F5F5F5F5F5F5F5F5F5F5F5F5F5F5F5F5F5F5F5F5F5F5F5F5F5F5F5F5F5F5F5F5F5F5F5F5F5E2E2EFE2F5E2F5F5F5F5F5F5F5F5F5F5F5F5F5F5F5F5F5F5F5F5F5F5F5F5F5F5F5F5F5F5F5F5F5F5F5F5F5F5F5F5F5F5F5F5F5F5F5F5F5F5F5F5F5F5F5F5F5F5F5F5F5F5F5F5F5F5F5F5F5F5F5F5F5F5F5F5F5F5F5F5F5F5
310
F5F5F5F5F5F5F5F5F5F5F5F5F5F5F5F5F5F5F5F5F5F5F5F5F5F5F5F5F5F5F5F5F5F5F5F5F5F5F5F5F5F5F5F5F5F5F5F5F5F5F5F5F5F5F5F5F5F5F5F5F5F5F5F5F5F5F5F5F5F5F5F5F5F5F5F5F5F5F5F5F5F5F5F5F5F5F5F5F5F5E2F5E2E2EFE2F5E2F5F5F5F5F5F5F5F5F5F5F5F5F5F5F5F5F5F5F5F5F5F5F5F5F5F5F5F5F5
310
F5F5F5F5F5F5F5F5F5F5F5F5F5F5F5F5F5F5F5F5F5F5F5F5F5F5F5F5F5F5F5F5F5F5F5F5F5F5F5F5F5F5F5F5F5F5F5F5F5F5F5F5F5F5F5F5F5F5F5F5F5F5F5F5F5F5F5F5F5F5F5F5F5F5F5F5F5F5F5F5F5F5F5F5F5F5F5F5F5F5F5F5F5F5F5F5F5F5F5F5F5F5F5F5F5F5F5F5F5F5F5F5F5F5F5F5F5F5F5F5F5F5F5F5F5F5F5
310
F5F5F5F5F5F5F5F5F5F5F5F5F5F5F5F5E2F5E2E2EFE2F5E2F5F5F5F5F5F5F5F5F5F5F5F5F5F5F5F5F5F5F5F5F5F5F5F5F5F5F5F5F5F5F5F5F5F5F5F5F5F5F5F5F5F5F5F5F5F5F5F5F5F5F5F5F5F5F5F5F5F5F5F5F5F5F5F5F5F5F5F5F5F5F5F5F5F5F5F5F5F5F5F5F5F5F5F5F5F5F5F5F5F5F5F5F5F5F5F5F5F5F5F5F5F5F5
310
F5F5F5F5F5F5F5F5F5F5F5F5F5F5F5F5F5F5F5F5F5F5F5F5F5F5F5F5F5F5F5F5F5F5F5F5F5F5F5F5F5F5F5F5F5F5F5F5F5F5F5F5F5F5F5F5F5F5F5F5F5F5F5F5F5F5F5F5F5E2F5E2E2EFE2F5E2F5F5F5F5F5F5F5F5F5F5F5F5F5F5F5F5F5F5F5F5F5F5F5F5F5F5F5F5F5F5F5F5F5F5F5F5F5F5F5F5F5F5F5F5F5F5F5F5F5F5
310
F5F5F5F5F5F5F5F5F5F5F5F5F5F5F5F5F5F5F5F5F5F5F5F5F5F5F5F5F5F5F5F5F5F5F5F5F5F5F5F5F5F5F5F5F5F5F5F5F5F5F5F5F5F5F5F5F5F5F5F5F5F5F5F5F5F5F5F5F5F5F5F5F5F5F5F5F5F5F5F5F5F5F5F5F5F5F5F5F5F5F5F5F5F5F5F5F5F5F5F5F5F5F5F5F5F5F5F5F5F5F5F5F5F5F5F5F5F5F5F5F5F5E2F5E2E2EF
310
E2F5E2F5F5F5F5F5F5F5F5F5F5F5F5F5F5F5F5F5F5F5F5F5F5F5F5F5F5F5F5F5F5F5F5F5F5F5F5F5F5F5F5F5F5F5F5F5F5F5F5F5F5F5F5F5F5F5F5F5F5F5F5F5F5F5F5F5F5F5F5F5F5F5F5F5F5F5F5F5F5F5F5F5F5F5F5F5F5F5F5F5F5F5F5F5F5F5F5F5F5F5F5F5F5F5F5F5F5F5F5F5F5F5F5F5F5F5F5F5F5F5F5F5F5F5F5
310
F5F5F5F5F5F5F5F5F5F5F5F5F5F5F5F5F5F5F5F5F5F5F5F5F5F5F5F5F5F5F5F5F5F5F5F5F5F5F5F5F5F5F5F5F5F5F5F5E2F5E2E2EFE2F5E2F5F5F5F5F5F5F5F5F5F5F5F5F5F5F5F5F5F5F5F5F5F5F5F5F5F5F5F5F5F5F5F5F5F5F5F5F5F5F5F5F5F5F5F5F5F5F5F5F5F5F5F5F5F5F5F5F5F5F5F5F5F5F5F5F5F5F5F5F5F5F5
310
F5F5F5F5F5F5F5F5F5F5F5F5F5F5F5F5F5F5F5F5F5F5F5F5F5F5F5F5F5F5F5F5F5F5F5F5F5F5F5F5F5F5F5F5F5F5F5F5F5F5F5F5F5F5F5F5F5F5F5F5F5F5F5F5F5F5F5F5F5F5F5F5F5F5F5F5F5F5F5F5F5F5F5F5F5F5F5F5F5F5F5F5F5F5F5F5F5F5F5F5F5E2F5E2E2EFE2F5E2F5F5F5F5F5F5F5F5F5F5F5F5F5F5F5F5F5F5
310
F5F5F5F5F5F5F5F5F5F5F5F5F5F5F5F5F5F5F5F5F5F5F5F5F5F5F5F5F5F5F5F5F5F5F5F5F5F5F5F5F5F5F5F5F5F5F5F5F5F5F5F5F5F5F5F5F5F5F5F5F5F5F5F5F5F5F5F5F5F5F5F5F5F5F5F5F5F5F5F5F5F5F5F5F5F5F5F5F5F5F5F5F5F5F5F5F5F5F5F5F5F5F5F5F5F5F5F5F5F5F5F5F5F5F5F5F5F5F5F5F5F5F5F5F5F5F5
310
F5F5F5F5F5F5F5F5F5F5F5F5F5F5F5F5F5F5F5F5F5F5F5F5F5F5F5E2F5E2E2EFE2F5E2F5F5F5F5F5F5F5F5F5F5F5F5F5F5F5F5F5F5F5F5F5F5F5F5F5F5F5F5F5F5F5F5F5F5F5F5F5F5F5F5F5F5F5F5F5F5F5F5F5F5F5F5F5F5F5F5F5F5F5F5F5F5F5F5F5F5F5F5F5F5F5F5F5F5F5F5F5F5F5F5F5F5F5F5F5F5F5F5F5F5F5F5
310
F5F5F5F5F5F5F5F5F5F5F5F5F5F5F5F5F5F5F5F5F5F5F5F5F5F5F5F5F5F5F5F5F5F5F5F5F5F5F5F5F5F5F5F5F5F5F5F5F5F5F5F5F5F5F5F5F5F5F5F5F5F5F5F5F5F5F5F5F5F5F5F5F5F5F5F5F5F5F5F5E2F5E2E2EFE2F5E2F5F5F5F5F5F5F5F5F5F5F5F5F5F5F5F5F5F5F5F5F5F5F5F5F5F5F5F5F5F5F5F5F5F5F5F5F5F5F5
310
F5F5F5F5F5F5F5F5F5F5F5F5F5F5F5F5F5F5F5F5F5F5F5F5F5F5F5F5F5F5F5F5F5F5F5F5F5F5F5F5F5F5F5F5F5F5F5F5F5F5F5F5F5F5F5F5F5F5F5F5F5F5F5F5F5F5F5F5F5F5F5F5F5F5F5F5F5F5F5F5F5F5F5F5F5F5F5F5F5F5F5F5F5F5F5F5F5F5F5F5F5F5F5F5F5F5F5F5F5F5F5F5F5F5F5F5F5F5F5F5F5F5F5F5F5F5F5
310
F5F5F5F5F5F5E2F5E2E2EFE2F5E2F5F5F5F5F5F5F5F5F5F5F5F5F5F5F5F5F5F5F5F5F5F5F5F5F5F5F5F5F5F5F5F5F5F5F5F5F5F5F5F5F5F5F5F5F5F5F5F5F5F5F5F5F5F5F5F5F5F5F5F5F5F5F5F5F5F5F5F5F5F5F5F5F5F5F5F5F5F5F5F5F5F5F5F5F5F5F5F5F5F5F5F5F5F5F5F5F5F5F5F5F5F5F5F5F5F5F5F5F5F5F5F5F5
310
F5F5F5F5F5F5F5F5F5F5F5F5F5F5F5F5F5F5F5F5F5F5F5F5F5F5F5F5F5F5F5F5F5F5F5F5F5F5F5F5F5F5F5F5F5F5F5F5F5F5F5F5F5F5F5F5F5F5F5E2F5E2E2EFE2F5E2F5F5F5F5F5F5F5F5F5F5F5F5F5F5F5F5F5F5F5F5F5F5F5F5F5F5F5F5F5F5F5F5F5F5F5F5F5F5F5F5F5F5F5F5F5F5F5F5F5F5F5F5F5F5F5F5F5F5F5F5
310
F5F5F5F5F5F5F5F5F5F5F5F5F5F5F5F5F5F5F5F5F5F5F5F5F5F5F5F5F5F5F5F5F5F5F5F5F5F5F5F5F5F5F5F5F5F5F5F5F5F5F5F5F5F5F5F5F5F5F5F5F5F5F5F5F5F5F5F5F5F5F5F5F5F5F5F5F5F5F5F5F5F5F5F5F5F5F5F5F5F5F5F5F5F5F5F5F5F5F5F5F5F5F5F5F5F5F5F5F5F5F5F5E2F5E2E2EFE2F5E2F5F5F5F5F5F5F5
310
F5F5F5F5F5F5F5F5F5F5F5F5F5F5F5F5F5F5F5F5F5F5F5F5F5F5F5F5F5F5F5F5F5F5F5F5F5F5F5F5F5F5F5F5F5F5F5F5F5F5F5F5F5F5F5F5F5F5F5F5F5F5F5F5F5F5F5F5F5F5F5F5F5F5F5F5F5F5F5F5F5F5F5F5F5F5F5F5F5F5F5F5F5F5F5F5F5F5F5F5F5F5F5F5F5F5F5F5F5F5F5F5F5F5F5F5F5F5F5F5F5F5F5F5F5F5F5
310
F5F5F5F5F5F5F5F5F5F5F5F5F5F5F5F5F5F5F5F5F5F5F5F5F5F5F5F5F5F5F5F5F5F5F5F5F5F5E2F5E2E2EFE2F5E2F5F5F5F5F5F5F5F5F5F5F5F5F5F5F5F5F5F5F5F5F5F5F5F5F5F5F5F5F5F5F5F5F5F5F5F5F5F5F5F5F5F5F5F5F5F5F5F5F5F5F5F5F5F5F5F5F5F5F5F5F5F5F5F5F5F5F5F5F5F5F5F5F5F5F5F5F5F5F5F5F5
310
F5F5F5F5F5F5F5F5F5F5F5F5F5F5F5F5F5F5F5F5F5F5F5F5F5F5F5F5F5F5F5F5F5F5F5F5F5F5F5F5F5F5F5F5F5F5F5F5F5F5F5F5F5F5F5F5F5F5F5F5F5F5F5F5F5F5F5F5F5F5F5F5F5F5F5F5F5F5F5F5F5F5F5F5F5F5F5F5F5F5F5E2F5E2E2EFE2F5E2F5F5F5F5F5F5F5F5F5F5F5F5F5F5F5F5F5F5F5F5F5F5F5F5F5F5F5F5
310
F5F5F5F5F5F5F5F5F5F5F5F5F5F5F5F5F5F5F5F5F5F5F5F5F5F5F5F5F5F5F5F5F5F5F5F5F5F5F5F5F5F5F5F5F5F5F5F5F5F5F5F5F5F5F5F5F5F5F5F5F5F5F5F5F5F5F5F5F5F5F5F5F5F5F5F5F5F5F5F5F5F5F5F5F5F5F5F5F5F5F5F5F5F5F5F5F5F5F5F5F5F5F5F5F5F5F5F5F5F5F5F5F5F5F5F5F5F5F5F5F5F5F5F5F5F5F5
310
F5F5F5F5F5F5F5F5F5F5F5F5F5F5F5F5F5E2F5E2E2EFE2F5E2F5F5F5F5F5F5F5F5F5F5F5F5F5F5F5F5F5F5F5F5F5F5F5F5F5F5F5F5F5F5F5F5F5F5F5F5F5F5F5F5F5F5F5F5F5F5F5F5F5F5F5F5F5F5F5F5F5F5F5F5F5F5F5F5F5F5F5F5F5F5F5F5F5F5F5F5F5F5F5F5F5F5F5F5F5F5F5F5F5F5F5F5F5F5F5F5F5F5F5F5F5F5
310
F5F5F5F5F5F5F5F5F5F5F5F5F5F5F5F5F5F5F5F5F5F5F5F5F5F5F5F5F5F5F5F5F5F5F5F5F5F5F5F5F5F5F5F5F5F5F5F5F5F5F5F5F5F5F5F5F5F5F5F5F5F5F5F5F5F5F5F5F5F5E2F5E2E2EFE2F5E2F5F5F5F5F5F5F5F5F5F5F5F5F5F5F5F5F5F5F5F5F5F5F5F5F5F5F5F5F5F5F5F5F5F5F5F5F5F5F5F5F5F5F5F5F5F5F5F5F5
310
F5F5F5F5F5F5F5F5F5F5F5F5F5F5F5F5F5F5F5F5F5F5F5F5F5F5F5F5F5F5F5F5F5F5F5F5F5F5F5F5F5F5F5F5F5F5F5F5F5F5F5F5F5F5F5F5F5F5F5F5F5F5F5F5F5F5F5F5F5F5F5F5F5F5F5F5F5F5F5F5F5F5F5F5F5F5F5F5F5F5F5F5F5F5F5F5F5F5F5F5F5F5F5F5F5F5F5F5F5F5F5F5F5F5F5F5F5F5F5F5F5F5F5E2F5E2E2
310
EFE2F5F5F5F5F5F5F5F5F5F5F5F5F5F5F5F5F5F5F5F5F5F5F5F5F5F5F5F5F5F5F5F5F5F5F5F5F5F5F5F5F5F5F5F5F5F5F5F5F5F5F5F5F5F5F5F5F5F5F5F5F5F5F5F5F5F5F5F5F5F5F5F5F5F5F5F5F5F5F5F5F5F5F5F5F5F5F5F5F5F5F5F5F5F5F5F5F5F5F5F5F5F5F5F5F5F5F5F5F5F5F5F5F5F5F5F5F5F5F5F5F5F5F5F5F5
310
F5F5F5F5F5F5F5F5F5F5F5F5F5F5F5F5F5F5F5F5F5F5F5F5F5F5F5F5F5F5F5F5F5F5F5F5F5F5F5F5F5F5F5F5F5F5F5F5F5F5F5E2E2EFE2F5F5F5F5F5F5F5F5F5F5F5F5F5F5F5F5F5F5F5F5F5F5F5F5F5F5F5F5F5F5F5F5F5F5F5F5F5F5F5F5F5F5F5F5F5F5F5F5F5F5F5F5F5F5F5F5F5F5F5F5F5F5F5F5F5F5F5F5F5F5F5F5
310
F5F5F5F5F5F5F5F5F5F5F5F5F5F5F5F5F5F5F5F5F5F5F5F5F5F5F5F5F5F5F5F5F5F5F5F5F5F5F5F5F5F5F5F5F5F5F5F5F5F5F5F5F5F5F5F5F5F5F5F5F5F5F5F5F5F5F5F5F5F5F5F5F5F5F5F5F5F5F5F5F5F5F5F5F5F5F5F5F5F5F5F5F5F5F5F5F5F5F5F5F5F5F5F5E2E2EFE2F5F5F5F5F5F5F5F5F5F5F5F5F5F5F5F5F5F5F5
310
F5F5F5F5F5F5F5F5F5F5F5F5F5F5F5F5F5F5F5F5F5F5F5F5F5F5F5F5F5F5F5F5F5F5F5F5F5F5F5F5F5F5F5F5F5F5F5F5F5F5F5F5F5F5F5F5F5F5F5F5F5F5F5F5F5F5F5F5F5F5F5F5F5F5F5F5F5F5F5F5F5F5F5F5F5F5F5F5F5F5F5F5F5F5F5F5F5F5F5F5F5F5F5F5F5F5F5F5F5F5F5F5F5F5F5F5F5F5F5F5F5F5F5F5F5F5F5
310
F5F5F5F5F5F5F5F5F5F5F5F5F5F5F5F5F5F5F5F5F5F5F5F5F5F5F5F5F5F5E2E2EFE2F5F5F5F5F5F5F5F5F5F5F5F5F5F5F5F5F5F5F5F5F5F5F5F5F5F5F5F5F5F5F5F5F5F5F5F5F5F5F5F5F5F5F5F5F5F5F5F5F5F5F5F5F5F5F5F5F5F5F5F5F5F5F5F5F5F5F5F5F5F5F5F5F5F5F5F5F5F5F5F5F5F5F5F5F5F5F5F5F5F5F5F5F5
310
F5F5F5F5F5F5F5F5F5F5F5F5F5F5F5F5F5F5F5F5F5F5F5F5F5F5F5F5F5F5F5F5F5F5F5F5F5F5F5F5F5F5F5F5F5F5F5F5F5F5F5F5F5F5F5F5F5F5F5F5F5F5F5F5F5F5F5F5F5F5F5F5F5F5F5F5F5F5F5F5F5F5F5E2E2EFE2F5F5F5F5F5F5F5F5F5F5F5F5F5F5F5F5F5F5F5F5F5F5F5F5F5F5F5F5F5F5F5F5F5F5F5F5F5F5F5F5
310
F5F5F5F5F5F5F5F5F5F5F5F5F5F5F5F5F5F5F5F5F5F5F5F5F5F5F5F5F5F5F5F5F5F5F5F5F5F5F5F5F5F5F5F5F5F5F5F5F5F5F5F5F5F5F5F5F5F5F5F5F5F5F5F5F5F5F5F5F5F5F5F5F5F5F5F5F5F5F5F5F5F5F5F5F5F5F5F5F5F5F5F5F5F5F5F5F5F5F5F5F5F5F5F5F5F5F5F5F5F5F5F5F5F5F5F5F5F5F5F5F5F5F5F5F5F5F5
310
F5F5F5F5F5F5F5F5F5E2E2EFE2F5F5F5F5F5F5F5F5F5F5F5F5F5F5F5F5F5F5F5F5F5F5F5F5F5F5F5F5F5F5F5F5F5F5F5F5F5F5F5F5F5F5F5F5F5F5F5F5F5F5F5F5F5F5F5F5F5F5F5F5F5F5F5F5F5F5F5F5F5F5F5F5F5F5F5F5F5F5F5F5F5F5F5F5F5F5F5F5F5F5F5F5F5F5F5F5F5F5F5F5F5F5F5F5F5F5F5F5F5F5F5F5F5F5
310
F5F5F5F5F5F5F5F5F5F5F5F5F5F5F5F5F5F5F5F5F5F5F5F5F5F5F5F5F5F5F5F5F5F5F5F5F5F5F5F5F5F5F5F5F5F5F5F5F5F5F5F5F5F5F5F5F5F5F5F5F5F5E2E2EFE2F5F5F5F5F5F5F5F5F5F5F5F5F5F5F5F5F5F5F5F5F5F5F5F5F5F5F5F5F5F5F5F5F5F5F5F5F5F5F5F5F5F5F5F5F5F5F5F5F5F5F5F5F5F5F5F5F5F5F5F5F5
310
F5F5F5F5F5F5F5F5F5F5F5F5F5F5F5F5F5F5F5F5F5F5F5F5F5F5F5F5F5F5F5F5F5F5F5F5F5F5F5F5F5F5F5F5F5F5F5F5F5F5F5F5F5F5F5F5F5F5F5F5F5F5F5F5F5F5F5F5F5F5F5F5F5F5F5F5F5F5F5F5F5F5F5F5F5F5F5F5F5F5F5F5F5F5F5F5F5F5F5F5F5F5F5F5F5F5F5F5F5F5F5F5F5F5F5E2E2EFE2F5F5F5F5F5F5F5F5
310
F5F5F5F5F5F5F5F5F5F5F5F5F5F5F5F5F5F5F5F5F5F5F5F5F5F5F5F5F5F5F5F5F5F5F5F5F5F5F5F5F5F5F5F5F5F5F5F5F5F5F5F5F5F5F5F5F5F5F5F5F5F5F5F5F5F5F5F5F5F5F5F5F5F5F5F5F5F5F5F5F5F5F5F5F5F5F5F5F5F5F5F5F5F5F5F5F5F5F5F5F5F5F5F5F5F5F5F5F5F5F5F5F5F5F5F5F5F5F5F5F5F5F5F5F5F5F5
310
F5F5F5F5F5F5F5F5F5F5F5F5F5F5F5F5F5F5F5F5F5F5F5F5F5F5F5F5F5F5F5F5F5F5F5F5F5F5F5F5F5E2E2EFE2F5F5F5F5F5F5F5F5F5F5F5F5F5F5F5F5F5F5F5F5F5F5F5F5F5F5F5F5F5F5F5F5F5F5F5F5F5F5F5F5F5F5F5F5F5F5F5F5F5F5F5F5F5F5F5F5F5F5F5F5F5F5F5F5F5F5F5F5F5F5F5F5F5F5F5F5F5F5F5F5F5F5
310
F5F5F5F5F5F5F5F5F5F5F5F5F5F5F5F5F5F5F5F5F5F5F5F5F5F5F5F5F5F5F5F5F5F5F5F5F5F5F5F5F5F5F5F5F5F5F5F5F5F5F5F5F5F5F5F5F5F5F5F5F5F5F5F5F5F5F5F5F5F5F5F5F5F5F5F5F5F5F5F5F5F5F5F5F5F5F5F5F5F5F5F5F5F5E2E2EFE2F5E2F5F5F5F5F5F5F5F5F5F5F5F5F5F5F5F5F5F5F5F5F5F5F5F5F5F5F5
310
F5F5F5F5F5F5F5F5F5F5F5F5F5F5F5F5F5F5F5F5F5F5F5F5F5F5F5F5F5F5F5F5F5F5F5F5F5F5F5F5F5F5F5F5F5F5F5F5F5F5F5F5F5F5F5F5F5F5F5F5F5F5F5F5F5F5F5F5F5F5F5F5F5F5F5F5F5F5F5F5F5F5F5F5F5F5F5F5F5F5F5F5F5F5F5F5F5F5F5F5F5F5F5F5F5F5F5F5F5F5F5F5F5F5F5F5F5F5F5F5F5F5F5F5F5F5F5
310
F5F5F5F5F5F5F5F5F5F5F5F5F5F5F5F5F5F5E2F5E2E2EFE2F5E2F5F5F5F5F5F5F5F5F5F5F5F5F5F5F5F5F5F5F5F5F5F5F5F5F5F5F5F5F5F5F5F5F5F5F5F5F5F5F5F5F5F5F5F5F5F5F5F5F5F5F5F5F5F5F5F5F5F5F5F5F5F5F5F5F5F5F5F5F5F5F5F5F5F5F5F5F5F5F5F5F5F5F5F5F5F5F5F5F5F5F5F5F5F5F5F5F5F5F5F5F5
310
F5F5F5F5F5F5F5F5F5F5F5F5F5F5F5F5F5F5F5F5F5F5F5F5F5F5F5F5F5F5F5F5F5F5F5F5F5F5F5F5F5F5F5F5F5F5F5F5F5F5F5F5F5F5F5F5F5F5F5F5F5F5F5F5F5F5F5F5F5F5F5E2F5E2E2EFE2F5E2F5F5F5F5F5F5F5F5F5F5F5F5F5F5F5F5F5F5F5F5F5F5F5F5F5F5F5F5F5F5F5F5F5F5F5F5F5F5F5F5F5F5F5F5F5F5F5F5
310
F5F5F5F5F5F5F5F5F5F5F5F5F5F5F5F5F5F5F5F5F5F5F5F5F5F5F5F5F5F5F5F5F5F5F5F5F5F5F5F5F5F5F5F5F5F5F5F5F5F5F5F5F5F5F5F5F5F5F5F5F5F5F5F5F5F5F5F5F5F5F5F5F5F5F5F5F5F5F5F5F5F5F5F5F5F5F5F5F5F5F5F5F5F5F5F5F5F5F5F5F5F5F5F5F5F5F5F5F5F5F5F5F5F5F5F5F5F5F5F5F5F5F5F5E2F5E2
310
E2EFE2F5E2F5F5F5F5F5F5F5F5F5F5F5F5F5F5F5F5F5F5F5F5F5F5F5F5F5F5F5F5F5F5F5F5F5F5F5F5F5F5F5F5F5F5F5F5F5F5F5F5F5F5F5F5F5F5F5F5F5F5F5F5F5F5F5F5F5F5F5F5F5F5F5F5F5F5F5F5F5F5F5F5F5F5F5F5F5F5F5F5F5F5F5F5F5F5F5F5F5F5F5F5F5F5F5F5F5F5F5F5F5F5F5F5F5F5F5F5F5F5F5F5F5F5
310
F5F5F5F5F5F5F5F5F5F5F5F5F5F5F5F5F5F5F5F5F5F5F5F5F5F5F5F5F5F5F5F5F5F5F5F5F5F5F5F5F5F5F5F5F5F5F5F5F5F5E2F5E2E2EFE2F5E2F5F5F5F5F5F5F5F5F5F5F5F5F5F5F5F5F5F5F5F5F5F5F5F5F5F5F5F5F5F5F5F5F5F5F5F5F5F5F5F5F5F5F5F5F5F5F5F5F5F5F5F5F5F5F5F5F5F5F5F5F5F5F5F5F5F5F5F5F5
310
F5F5F5F5F5F5F5F5F5F5F5F5F5F5F5F5F5F5F5F5F5F5F5F5F5F5F5F5F5F5F5F5F5F5F5F5F5F5F5F5F5F5F5F5F5F5F5F5F5F5F5F5F5F5F5F5F5F5F5F5F5F5F5F5F5F5F5F5F5F5F5F5F5F5F5F5F5F5F5F5F5F5F5F5F5F5F5F5F5F5F5F5F5F5F5F5F5F5F5F5F5F5F5E2F5E2E2EFE2F5E2F5F5F5F5F5F5F5F5F5F5F5F5F5F5F5F5
310
F5F5F5F5F5F5F5F5F5F5F5F5F5F5F5F5F5F5F5F5F5F5F5F5F5F5F5F5F5F5F5F5F5F5F5F5F5F5F5F5F5F5F5F5F5F5F5F5F5F5F5F5F5F5F5F5F5F5F5F5F5F5F5F5F5F5F5F5F5F5F5F5F5F5F5F5F5F5F5F5F5F5F5F5F5F5F5F5F5F5F5F5F5F5F5F5F5F5F5F5F5F5F5F5F5F5F5F5F5F5F5F5F5F5F5F5F5F5F5F5F5F5F5F5F5F5F5
310
F5F5F5F5F5F5F5F5F5F5F5F5F5F5F5F5F5F5F5F5F5F5F5F5F5F5F5F5F5E2F5E2E2EFE2F5E2F5F5F5F5F5F5F5F5F5F5F5F5F5F5F5F5F5F5F5F5F5F5F5F5F5F5F5F5F5F5F5F5F5F5F5F5F5F5F5F5F5F5F5F5F5F5F5F5F5F5F5F5F5F5F5F5F5F5F5F5F5F5F5F5F5F5F5F5F5F5F5F5F5F5F5F5F5F5F5F5F5F5F5F5F5F5F5F5F5F5
310
F5F5F5F5F5F5F5F5F5F5F5F5F5F5F5F5F5F5F5F5F5F5F5F5F5F5F5F5F5F5F5F5F5F5F5F5F5F5F5F5F5F5F5F5F5F5F5F5F5F5F5F5F5F5F5F5F5F5F5F5F5F5F5F5F5F5F5F5F5F5F5F5F5F5F5F5F5F5F5F5F5F5E2F5E2E2EFE2F5E2F5F5F5F5F5F5F5F5F5F5F5F5F5F5F5F5F5F5F5F5F5F5F5F5F5F5F5F5F5F5F5F5F5F5F5F5F5
310
F5F5F5F5F5F5F5F5F5F5F5F5F5F5F5F5F5F5F5F5F5F5F5F5F5F5F5F5F5F5F5F5F5F5F5F5F5F5F5F5F5F5F5F5F5F5F5F5F5F5F5F5F5F5F5F5F5F5F5F5F5F5F5F5F5F5F5F5F5F5F5F5F5F5F5F5F5F5F5F5F5F5F5F5F5F5F5F5F5F5F5F5F5F5F5F5F5F5F5F5F5F5F5F5F5F5F5F5F5F5F5F5F5F5F5F5F5F5F5F5F5F5F5F5F5F5F5
310
F5F5F5F5F5F5F5F5E2F5E2E2EFE2F5E2F5F5F5F5F5F5F5F5F5F5F5F5F5F5F5F5F5F5F5F5F5F5F5F5F5F5F5F5F5F5F5F5F5F5F5F5F5F5F5F5F5F5F5F5F5F5F5F5F5F5F5F5F5F5F5F5F5F5F5F5F5F5F5F5F5F5F5F5F5F5F5F5F5F5F5F5F5F5F5F5F5F5F5F5F5F5F5F5F5F5F5F5F5F5F5F5F5F5F5F5F5F5F5F5F5F5F5F5F5F5F5
310
F5F5F5F5F5F5F5F5F5F5F5F5F5F5F5F5F5F5F5F5F5F5F5F5F5F5F5F5F5F5F5F5F5F5F5F5F5F5F5F5F5F5F5F5F5F5F5F5F5F5F5F5F5F5F5F5F5F5F5F5F5E2F5E2E2EFE2F5E2F5F5F5F5F5F5F5F5F5F5F5F5F5F5F5F5F5F5F5F5F5F5F5F5F5F5F5F5F5F5F5F5F5F5F5F5F5F5F5F5F5F5F5F5F5F5F5F5F5F5F5F5F5F5F5F5F5F5
310
F5F5F5F5F5F5F5F5F5F5F5F5F5F5F5F5F5F5F5F5F5F5F5F5F5F5F5F5F5F5F5F5F5F5F5F5F5F5F5F5F5F5F5F5F5F5F5F5F5F5F5F5F5F5F5F5F5F5F5F5F5F5F5F5F5F5F5F5F5F5F5F5F5F5F5F5F5F5F5F5F5F5F5F5F5F5F5F5F5F5F5F5F5F5F5F5F5F5F5F5F5F5F5F5F5F5F5F5F5F5F5F5F5F5E2F5E2E2EFE2F5E2F5F5F5F5F5
310
F5F5F5F5F5F5F5F5F5F5F5F5F5F5F5F5F5F5F5F5F5F5F5F5F5F5F5F5F5F5F5F5F5F5F5F5F5F5F5F5F5F5F5F5F5F5F5F5F5F5F5F5F5F5F5F5F5F5F5F5F5F5F5F5F5F5F5F5F5F5F5F5F5F5F5F5F5F5F5F5F5F5F5F5F5F5F5F5F5F5F5F5F5F5F5F5F5F5F5F5F5F5F5F5F5F5F5F5F5F5F5F5F5F5F5F5F5F5F5F5F5F5F5F5F5F5F5
310
F5F5F5F5F5F5F5F5F5F5F5F5F5F5F5F5F5F5F5F5F5F5F5F5F5F5F5F5F5F5F5F5F5F5F5F5F5F5F5F5E2F5E2E2EFE2F5E2F5F5F5F5F5F5F5F5F5F5F5F5F5F5F5F5F5F5F5F5F5F5F5F5F5F5F5F5F5F5F5F5F5F5F5F5F5F5F5F5F5F5F5F5F5F5F5F5F5F5F5F5F5F5F5F5F5F5F5F5F5F5F5F5F5F5F5F5F5F5F5F5F5F5F5F5F5F5F5
310
F5F5F5F5F5F5F5F5F5F5F5F5F5F5F5F5F5F5F5F5F5F5F5F5F5F5F5F5F5F5F5F5F5F5F5F5F5F5F5F5F5F5F5F5F5F5F5F5F5F5F5F5F5F5F5F5F5F5F5F5F5F5F5F5F5F5F5F5F5F5F5F5F5F5F5F5F5F5F5F5F5F5F5F5F5F5F5F5F5F5F5F5F5E2F5E2E2EFE2F5E2F5F5F5F5F5F5F5F5F5F5F5F5F5F5F5F5F5F5F5F5F5F5F5F5F5F5
310
F5F5F5F5F5F5F5F5F5F5F5F5F5F5F5F5F5F5F5F5F5F5F5F5F5F5F5F5F5F5F5F5F5F5F5F5F5F5F5F5F5F5F5F5F5F5F5F5F5F5F5F5F5F5F5F5F5F5F5F5F5F5F5F5F5F5F5F5F5F5F5F5F5F5F5F5F5F5F5F5F5F5F5F5F5F5F5F5F5F5F5F5F5F5F5F5F5F5F5F5F5F5F5F5F5F5F5F5F5F5F5F5F5F5F5F5F5F5F5F5F5F5F5F5F5F5F5
310
F5F5F5F5F5F5F5F5F5F5F5F5F5F5F5F5F5F5F5E2F5E2E2EFE2F5E2F5F5F5F5F5F5F5F5F5F5F5F5F5F5F5F5F5F5F5F5F5F5F5F5F5F5F5F5F5F5F5F5F5F5F5F5F5F5F5F5F5F5F5F5F5F5F5F5F5F5F5F5F5F5F5F5F5F5F5F5F5F5F5F5F5F5F5F5F5F5F5F5F5F5F5F5F5F5F5F5F5F5F5F5F5F5F5F5F5F5F5F5F5F5F5F5F5F5F5F5
310
F5F5F5F5F5F5F5F5F5F5F5F5F5F5F5F5F5F5F5F5F5F5F5F5F5F5F5F5F5F5F5F5F5F5F5F5F5F5F5F5F5F5F5F5F5F5F5F5F5F5F5F5F5F5F5F5F5F5F5F5F5F5F5F5F5F5F5F5F5F5F5F5E2F5E2E2EFE2F5E2F5F5F5F5F5F5F5F5F5F5F5F5F5F5F5F5F5F5F5F5F5F5F5F5F5F5F5F5F5F5F5F5F5F5F5F5F5F5F5F5F5F5F5F5F5F5F5
310
F5F5F5F5F5F5F5F5F5F5F5F5F5F5F5F5F5F5F5F5F5F5F5F5F5F5F5F5F5F5F5F5F5F5F5F5F5F5F5F5F5F5F5F5F5F5F5F5F5F5F5F5F5F5F5F5F5F5F5F5F5F5F5F5F5F5F5F5F5F5F5F5F5F5F5F5F5F5F5F5F5F5F5F5F5F5F5F5F5F5F5F5F5F5F5F5F5F5F5F5F5F5F5F5F5F5F5F5F5F5F5F5F5F5F5F5F5F5F5F5F5F5F5F5F5E2F5
310
E2E2EFE2F5E2F5F5F5F5F5F5F5F5F5F5F5F5F5F5F5F5F5F5F5F5F5F5F5F5F5F5F5F5F5F5F5F5F5F5F5F5F5F5F5F5F5F5F5F5F5F5F5F5F5F5F5F5F5F5F5F5F5F5F5F5F5F5F5F5F5F5F5F5F5F5F5F5F5F5F5F5F5F5F5F5F5F5F5F5F5F5F5F5F5F5F5F5F5F5F5F5F5F5F5F5F5F5F5F5F5F5F5F5F5F5F5F5F5F5F5F5F5F5F5F5F5
310
F5F5F5F5F5F5F5F5F5F5F5F5F5F5F5F5F5F5F5F5F5F5F5F5F5F5F5F5F5F5F5F5F5F5F5F5F5F5F5F5F5F5F5F5F5F5F5F5F5F5F5E2F5E2E2EFE2F5F5F5F5F5F5F5F5F5F5F5F5F5F5F5F5F5F5F5F5F5F5F5F5F5F5F5F5F5F5F5F5F5F5F5F5F5F5F5F5F5F5F5F5F5F5F5F5F5F5F5F5F5F5F5F5F5F5F5F5F5F5F5F5F5F5F5F5F5F5
310
F5F5F5F5F5F5F5F5F5F5F5F5F5F5F5F5F5F5F5F5F5F5F5F5F5F5F5F5F5F5F5F5F5F5F5F5F5F5F5F5F5F5F5F5F5F5F5F5F5F5F5F5F5F5F5F5F5F5F5F5F5F5F5F5F5F5F5F5F5F5F5F5F5F5F5F5F5F5F5F5F5F5F5F5F5F5F5F5F5F5F5F5F5F5F5F5F5F5F5F5F5F5F5F5F5F5E2E2EFE2F5F5F5F5F5F5F5F5F5F5F5F5F5F5F5F5F5
310
F5F5F5F5F5F5F5F5F5F5F5F5F5F5F5F5F5F5F5F5F5F5F5F5F5F5F5F5F5F5F5F5F5F5F5F5F5F5F5F5F5F5F5F5F5F5F5F5F5F5F5F5F5F5F5F5F5F5F5F5F5F5F5F5F5F5F5F5F5F5F5F5F5F5F5F5F5F5F5F5F5F5F5F5F5F5F5F5F5F5F5F5F5F5F5F5F5F5F5F5F5F5F5F5F5F5F5F5F5F5F5F5F5F5F5F5F5F5F5F5F5F5F5F5F5F5F5
310
F5F5F5F5F5F5F5F5F5F5F5F5F5F5F5F5F5F5F5F5F5F5F5F5F5F5F5F5F5F5F5F5E2E2EFE2F5F5F5F5F5F5F5F5F5F5F5F5F5F5F5F5F5F5F5F5F5F5F5F5F5F5F5F5F5F5F5F5F5F5F5F5F5F5F5F5F5F5F5F5F5F5F5F5F5F5F5F5F5F5F5F5F5F5F5F5F5F5F5F5F5F5F5F5F5F5F5F5F5F5F5F5F5F5F5F5F5F5F5F5F5F5F5F5F5F5F5
310
F5F5F5F5F5F5F5F5F5F5F5F5F5F5F5F5F5F5F5F5F5F5F5F5F5F5F5F5F5F5F5F5F5F5F5F5F5F5F5F5F5F5F5F5F5F5F5F5F5F5F5F5F5F5F5F5F5F5F5F5F5F5F5F5F5F5F5F5F5F5F5F5F5F5F5F5F5F5F5F5F5F5F5F5F5E2E2EFE2F5F5F5F5F5F5F5F5F5F5F5F5F5F5F5F5F5F5F5F5F5F5F5F5F5F5F5F5F5F5F5F5F5F5F5F5F5F5
310
F5F5F5F5F5F5F5F5F5F5F5F5F5F5F5F5F5F5F5F5F5F5F5F5F5F5F5F5F5F5F5F5F5F5F5F5F5F5F5F5F5F5F5F5F5F5F5F5F5F5F5F5F5F5F5F5F5F5F5F5F5F5F5F5F5F5F5F5F5F5F5F5F5F5F5F5F5F5F5F5F5F5F5F5F5F5F5F5F5F5F5F5F5F5F5F5F5F5F5F5F5F5F5F5F5F5F5F5F5F5F5F5F5F5F5F5F5F5F5F5F5F5F5F5F5F5F5
310
F5F5F5F5F5F5F5F5F5F5F5E2E2EFE2F5F5F5F5F5F5F5F5F5F5F5F5F5F5F5F5F5F5F5F5F5F5F5F5F5F5F5F5F5F5F5F5F5F5F5F5F5F5F5F5F5F5F5F5F5F5F5F5F5F5F5F5F5F5F5F5F5F5F5F5F5F5F5F5F5F5F5F5F5F5F5F5F5F5F5F5F5F5F5F5F5F5F5F5F5F5F5F5F5F5F5F5F5F5F5F5F5F5F5F5F5F5F5F5F5F5F5F5F5F5F5F5
310
F5F5F5F5F5F5F5F5F5F5F5F5F5F5F5F5F5F5F5F5F5F5F5F5F5F5F5F5F5F5F5F5F5F5F5F5F5F5F5F5F5F5F5F5F5F5F5F5F5F5F5F5F5F5F5F5F5F5F5F5F5F5F5F5E2E2EFE2F5F5F5F5F5F5F5F5F5F5F5F5F5F5F5F5F5F5F5F5F5F5F5F5F5F5F5F5F5F5F5F5F5F5F5F5F5F5F5F5F5F5F5F5F5F5F5F5F5F5F5F5F5F5F5F5F5F5F5
310
F5F5F5F5F5F5F5F5F5F5F5F5F5F5F5F5F5F5F5F5F5F5F5F5F5F5F5F5F5F5F5F5F5F5F5F5F5F5F5F5F5F5F5F5F5F5F5F5F5F5F5F5F5F5F5F5F5F5F5F5F5F5F5F5F5F5F5F5F5F5F5F5F5F5F5F5F5F5F5F5F5F5F5F5F5F5F5F5F5F5F5F5F5F5F5F5F5F5F5F5F5F5F5F5F5F5F5F5F5F5F5F5F5F5F5F5F5E2E2EFE2F5F5F5F5F5F5
310
F5F5F5F5F5F5F5F5F5F5F5F5F5F5F5F5F5F5F5F5F5F5F5F5F5F5F5F5F5F5F5F5F5F5F5F5F5F5F5F5F5F5F5F5F5F5F5F5F5F5F5F5F5F5F5F5F5F5F5F5F5F5F5F5F5F5F5F5F5F5F5F5F5F5F5F5F5F5F5F5F5F5F5F5F5F5F5F5F5F5F5F5F5F5F5F5F5F5F5F5F5F5F5F5F5F5F5F5F5F5F5F5F5F5F5F5F5F5F5F5F5F5F5F5F5F5F5
310
F5F5F5F5F5F5F5F5F5F5F5F5F5F5F5F5F5F5F5F5F5F5F5F5F5F5F5F5F5F5F5F5F5F5F5F5F5F5F5F5F5F5F5E2E2EFE2F5F5F5F5F5F5F5F5F5F5F5F5F5F5F5F5F5F5F5F5F5F5F5F5F5F5F5F5F5F5F5F5F5F5F5F5F5F5F5F5F5F5F5F5F5F5F5F5F5F5F5F5F5F5F5F5F5F5F5F5F5F5F5F5F5F5F5F5F5F5F5F5F5F5F5F5F5F5F5F5
310
F5F5F5F5F5F5F5F5F5F5F5F5F5F5F5F5F5F5F5F5F5F5F5F5F5F5F5F5F5F5F5F5F5F5F5F5F5F5F5F5F5F5F5F5F5F5F5F5F5F5F5F5F5F5F5F5F5F5F5F5F5F5F5F5F5F5F5F5F5F5F5F5F5F5F5F5F5F5F5F5F5F5F5F5F5F5F5F5F5F5F5F5F5F5F5F5E2E2EFE2F5E2F5F5F5F5F5F5F5F5F5F5F5F5F5F5F5F5F5F5F5F5F5F5F5F5F5
310
F5F5F5F5F5F5F5F5F5F5F5F5F5F5F5F5F5F5F5F5F5F5F5F5F5F5F5F5F5F5F5F5F5F5F5F5F5F5F5F5F5F5F5F5F5F5F5F5F5F5F5F5F5F5F5F5F5F5F5F5F5F5F5F5F5F5F5F5F5F5F5F5F5F5F5F5F5F5F5F5F5F5F5F5F5F5F5F5F5F5F5F5F5F5F5F5F5F5F5F5F5F5F5F5F5F5F5F5F5F5F5F5F5F5F5F5F5F5F5F5F5F5F5F5F5F5F5
310
F5F5F5F5F5F5F5F5F5F5F5F5F5F5F5F5F5F5F5F5E2F5E2E2EFE2F5E2F5F5F5F5F5F5F5F5F5F5F5F5F5F5F5F5F5F5F5F5F5F5F5F5F5F5F5F5F5F5F5F5F5F5F5F5F5F5F5F5F5F5F5F5F5F5F5F5F5F5F5F5F5F5F5F5F5F5F5F5F5F5F5F5F5F5F5F5F5F5F5F5F5F5F5F5F5F5F5F5F5F5F5F5F5F5F5F5F5F5F5F5F5F5F5F5F5F5F5
310
F5F5F5F5F5F5F5F5F5F5F5F5F5F5F5F5F5F5F5F5F5F5F5F5F5F5F5F5F5F5F5F5F5F5F5F5F5F5F5F5F5F5F5F5F5F5F5F5F5F5F5F5F5F5F5F5F5F5F5F5F5F5F5F5F5F5F5F5F5F5F5F5F5E2F5E2E2EFE2F5E2F5F5F5F5F5F5F5F5F5F5F5F5F5F5F5F5F5F5F5F5F5F5F5F5F5F5F5F5F5F5F5F5F5F5F5F5F5F5F5F5F5F5F5F5F5F5
310
F5F5F5F5F5F5F5F5F5F5F5F5F5F5F5F5F5F5F5F5F5F5F5F5F5F5F5F5F5F5F5F5F5F5F5F5F5F5F5F5F5F5F5F5F5F5F5F5F5F5F5F5F5F5F5F5F5F5F5F5F5F5F5F5F5F5F5F5F5F5F5F5F5F5F5F5F5F5F5F5F5F5F5F5F5F5F5F5F5F5F5F5F5F5F5F5F5F5F5F5F5F5F5F5F5F5F5F5F5F5F5F5F5F5F5F5F5F5F5F5F5F5F5F5F5F5E2
310
F5E2E2EFE2F5E2F5F5F5F5F5F5F5F5F5F5F5F5F5F5F5F5F5F5F5F5F5F5F5F5F5F5F5F5F5F5F5F5F5F5F5F5F5F5F5F5F5F5F5F5F5F5F5F5F5F5F5F5F5F5F5F5F5F5F5F5F5F5F5F5F5F5F5F5F5F5F5F5F5F5F5F5F5F5F5F5F5F5F5F5F5F5F5F5F5F5F5F5F5F5F5F5F5F5F5F5F5F5F5F5F5F5F5F5F5F5F5F5F5F5F5F5F5F5F5F5
310
F5F5F5F5F5F5F5F5F5F5F5F5F5F5F5F5F5F5F5F5F5F5F5F5F5F5F5F5F5F5F5F5F5F5F5F5F5F5F5F5F5F5F5F5F5F5F5F5F5F5F5F5E2F5E2E2EFE2F5E2F5F5F5F5F5F5F5F5F5F5F5F5F5F5F5F5F5F5F5F5F5F5F5F5F5F5F5F5F5F5F5F5F5F5F5F5F5F5F5F5F5F5F5F5F5F5F5F5F5F5F5F5F5F5F5F5F5F5F5F5F5F5F5F5F5F5F5
310
F5F5F5F5F5F5F5F5F5F5F5F5F5F5F5F5F5F5F5F5F5F5F5F5F5F5F5F5F5F5F5F5F5F5F5F5F5F5F5F5F5F5F5F5F5F5F5F5F5F5F5F5F5F5F5F5F5F5F5F5F5F5F5F5F5F5F5F5F5F5F5F5F5F5F5F5F5F5F5F5F5F5F5F5F5F5F5F5F5F5F5F5F5F5F5F5F5F5F5F5F5F5F5F5F5E2F5E2E2EFE2F5E2F5F5F5F5F5F5F5F5F5F5F5F5F5F5
310
F5F5F5F5F5F5F5F5F5F5F5F5F5F5F5F5F5F5F5F5F5F5F5F5F5F5F5F5F5F5F5F5F5F5F5F5F5F5F5F5F5F5F5F5F5F5F5F5F5F5F5F5F5F5F5F5F5F5F5F5F5F5F5F5F5F5F5F5F5F5F5F5F5F5F5F5F5F5F5F5F5F5F5F5F5F5F5F5F5F5F5F5F5F5F5F5F5F5F5F5F5F5F5F5F5F5F5F5F5F5F5F5F5F5F5F5F5F5F5F5F5F5F5F5F5F5F5
310
F5F5F5F5F5F5F5F5F5F5F5F5F5F5F5F5F5F5F5F5F5F5F5F5F5F5F5F5F5F5F5E2F5E2E2EFE2F5E2F5F5F5F5F5F5F5F5F5F5F5F5F5F5F5F5F5F5F5F5F5F5F5F5F5F5F5F5F5F5F5F5F5F5F5F5F5F5F5F5F5F5F5F5F5F5F5F5F5F5F5F5F5F5F5F5F5F5F5F5F5F5F5F5F5F5F5F5F5F5F5F5F5F5F5F5F5F5F5F5F5F5F5F5F5F5F5F5
310
F5F5F5F5F5F5F5F5F5F5F5F5F5F5F5F5F5F5F5F5F5F5F5F5F5F5F5F5F5F5F5F5F5F5F5F5F5F5F5F5F5F5F5F5F5F5F5F5F5F5F5F5F5F5F5F5F5F5F5F5F5F5F5F5F5F5F5F5F5F5F5F5F5F5F5F5F5F5F5F5F5F5F5F5E2F5E2E2EFE2F5E2F5F5F5F5F5F5F5F5F5F5F5F5F5F5F5F5F5F5F5F5F5F5F5F5F5F5F5F5F5F5F5F5F5F5F5
310
F5F5F5F5F5F5F5F5F5F5F5F5F5F5F5F5F5F5F5F5F5F5F5F5F5F5F5F5F5F5F5F5F5F5F5F5F5F5F5F5F5F5F5F5F5F5F5F5F5F5F5F5F5F5F5F5F5F5F5F5F5F5F5F5F5F5F5F5F5F5F5F5F5F5F5F5F5F5F5F5F5F5F5F5F5F5F5F5F5F5F5F5F5F5F5F5F5F5F5F5F5F5F5F5F5F5F5F5F5F5F5F5F5F5F5F5F5F5F5F5F5F5F5F5F5F5F5
310
F5F5F5F5F5F5F5F5F5F5E2F5E2E2EFE2F5E2F5F5F5F5F5F5F5F5F5F5F5F5F5F5F5F5F5F5F5F5F5F5F5F5F5F5F5F5F5F5F5F5F5F5F5F5F5F5F5F5F5F5F5F5F5F5F5F5F5F5F5F5F5F5F5F5F5F5F5F5F5F5F5F5F5F5F5F5F5F5F5F5F5F5F5F5F5F5F5F5F5F5F5F5F5F5F5F5F5F5F5F5F5F5F5F5F5F5F5F5F5F5F5F5F5F5F5F5F5
310
F5F5F5F5F5F5F5F5F5F5F5F5F5F5F5F5F5F5F5F5F5F5F5F5F5F5F5F5F5F5F5F5F5F5F5F5F5F5F5F5F5F5F5F5F5F5F5F5F5F5F5F5F5F5F5F5F5F5F5F5F5F5F5E2F5E2E2EFE2F5E2F5F5F5F5F5F5F5F5F5F5F5F5F5F5F5F5F5F5F5F5F5F5F5F5F5F5F5F5F5F5F5F5F5F5F5F5F5F5F5F5F5F5F5F5F5F5F5F5F5F5F5F5F5F5F5F5
310
F5F5F5F5F5F5F5F5F5F5F5F5F5F5F5F5F5F5F5F5F5F5F5F5F5F5F5F5F5F5F5F5F5F5F5F5F5F5F5F5F5F5F5F5F5F5F5F5F5F5F5F5F5F5F5F5F5F5F5F5F5F5F5F5F5F5F5F5F5F5F5F5F5F5F5F5F5F5F5F5F5F5F5F5F5F5F5F5F5F5F5F5F5F5F5F5F5F5F5F5F5F5F5F5F5F5F5F5F5F5F5F5F5F5F5F5E2F5E2E2EFE2F5E2F5F5F5
310
F5F5F5F5F5F5F5F5F5F5F5F5F5F5F5F5F5F5F5F5F5F5F5F5F5F5F5F5F5F5F5F5F5F5F5F5F5F5F5F5F5F5F5F5F5F5F5F5F5F5F5F5F5F5F5F5F5F5F5F5F5F5F5F5F5F5F5F5F5F5F5F5F5F5F5F5F5F5F5F5F5F5F5F5F5F5F5F5F5F5F5F5F5F5F5F5F5F5F5F5F5F5F5F5F5F5F5F5F5F5F5F5F5F5F5F5F5F5F5F5F5F5F5F5F5F5F5
310
F5F5F5F5F5F5F5F5F5F5F5F5F5F5F5F5F5F5F5F5F5F5F5F5F5F5F5F5F5F5F5F5F5F5F5F5F5F5F5F5F5F5E2F5E2E2EFE2F5E2F5F5F5F5F5F5F5F5F5F5F5F5F5F5F5F5F5F5F5F5F5F5F5F5F5F5F5F5F5F5F5F5F5F5F5F5F5F5F5F5F5F5F5F5F5F5F5F5F5F5F5F5F5F5F5F5F5F5F5F5F5F5F5F5F5F5F5F5F5F5F5F5F5F5F5F5F5
310
F5F5F5F5F5F5F5F5F5F5F5F5F5F5F5F5F5F5F5F5F5F5F5F5F5F5F5F5F5F5F5F5F5F5F5F5F5F5F5F5F5F5F5F5F5F5F5F5F5F5F5F5F5F5F5F5F5F5F5F5F5F5F5F5F5F5F5F5F5F5F5F5F5F5F5F5F5F5F5F5F5F5F5F5F5F5F5F5F5F5F5F5F5F5F5E2F5E2E2EFE2F5E2F5F5F5F5F5F5F5F5F5F5F5F5F5F5F5F5F5F5F5F5F5F5F5F5
310
F5F5F5F5F5F5F5F5F5F5F5F5F5F5F5F5F5F5F5F5F5F5F5F5F5F5F5F5F5F5F5F5F5F5F5F5F5F5F5F5F5F5F5F5F5F5F5F5F5F5F5F5F5F5F5F5F5F5F5F5F5F5F5F5F5F5F5F5F5F5F5F5F5F5F5F5F5F5F5F5F5F5F5F5F5F5F5F5F5F5F5F5F5F5F5F5F5F5F5F5F5F5F5F5F5F5F5F5F5F5F5F5F5F5F5F5F5F5F5F5F5F5F5F5F5F5F5
310
F5F5F5F5F5F5F5F5F5F5F5F5F5F5F5F5F5F5F5F5F5E2F5E2E2EFE2F5E2F5F5F5F5F5F5F5F5F5F5F5F5F5F5F5F5F5F5F5F5F5F5F5F5F5F5F5F5F5F5F5F5F5F5F5F5F5F5F5F5F5F5F5F5F5F5F5F5F5F5F5F5F5F5F5F5F5F5F5F5F5F5F5F5F5F5F5F5F5F5F5F5F5F5F5F5F5F5F5F5F5F5F5F5F5F5F5F5F5F5F5F5F5F5F5F5F5F5
310
F5F5F5F5F5F5F5F5F5F5F5F5F5F5F5F5F5F5F5F5F5F5F5F5F5F5F5F5F5F5F5F5F5F5F5F5F5F5F5F5F5F5F5F5F5F5F5F5F5F5F5F5F5F5F5F5F5F5F5F5F5F5F5F5F5F5F5F5F5F5F5F5F5F5E2F5E2E2EFE2F5E2F5F5F5F5F5F5F5F5F5F5F5F5F5F5F5F5F5F5F5F5F5F5F5F5F5F5F5F5F5F5F5F5F5F5F5F5F5F5F5F5F5F5F5F5F5
310
F5F5F5F5F5F5F5F5F5F5F5F5F5F5F5F5F5F5F5F5F5F5F5F5F5F5F5F5F5F5F5F5F5F5F5F5F5F5F5F5F5F5F5F5F5F5F5F5F5F5F5F5F5F5F5F5F5F5F5F5F5F5F5F5F5F5F5F5F5F5F5F5F5F5F5F5F5F5F5F5F5F5F5F5F5F5F5F5F5F5F5F5F5F5F5F5F5F5F5F5F5F5F5F5F5F5F5F5F5F5F5F5F5F5F5F5F5F5F5F5F5F5F5F5F5F5F5
310
E2F5E2E2EFE2F5E2F5F5F5F5F5F5F5F5F5F5F5F5F5F5F5F5F5F5F5F5F5F5F5F5F5F5F5F5F5F5F5F5F5F5F5F5F5F5F5F5F5F5F5F5F5F5F5F5F5F5F5F5F5F5F5F5F5F5F5F5F5F5F5F5F5F5F5F5F5F5F5F5F5F5F5F5F5F5F5F5F5F5F5F5F5F5F5F5F5F5F5F5F5F5F5F5F5F5F5F5F5F5F5F5F5F5F5F5F5F5F5F5F5F5F5F5F5F5F5
310
F5F5F5F5F5F5F5F5F5F5F5F5F5F5F5F5F5F5F5F5F5F5F5F5F5F5F5F5F5F5F5F5F5F5F5F5F5F5F5F5F5F5F5F5F5F5F5F5F5F5F5F5F5E2F5E2E2EFE2F5F5F5F5F5F5F5F5F5F5F5F5F5F5F5F5F5F5F5F5F5F5F5F5F5F5F5F5F5F5F5F5F5F5F5F5F5F5F5F5F5F5F5F5F5F5F5F5F5F5F5F5F5F5F5F5F5F5F5F5F5F5F5F5F5F5F5F5
310
F5F5F5F5F5F5F5F5F5F5F5F5F5F5F5F5F5F5F5F5F5F5F5F5F5F5F5F5F5F5F5F5F5F5F5F5F5F5F5F5F5F5F5F5F5F5F5F5F5F5F5F5F5F5F5F5F5F5F5F5F5F5F5F5F5F5F5F5F5F5F5F5F5F5F5F5F5F5F5F5F5F5F5F5F5F5F5F5F5F5F5F5F5F5F5F5F5F5F5F5F5F5F5F5F5F5F5F5E2E2EFE2F5F5F5F5F5F5F5F5F5F5F5F5F5F5F5
310
F5F5F5F5F5F5F5F5F5F5F5F5F5F5F5F5F5F5F5F5F5F5F5F5F5F5F5F5F5F5F5F5F5F5F5F5F5F5F5F5F5F5F5F5F5F5F5F5F5F5F5F5F5F5F5F5F5F5F5F5F5F5F5F5F5F5F5F5F5F5F5F5F5F5F5F5F5F5F5F5F5F5F5F5F5F5F5F5F5F5F5F5F5F5F5F5F5F5F5F5F5F5F5F5F5F5F5F5F5F5F5F5F5F5F5F5F5F5F5F5F5F5F5F5F5F5F5
310
F5F5F5F5F5F5F5F5F5F5F5F5F5F5F5F5F5F5F5F5F5F5F5F5F5F5F5F5F5F5F5F5F5F5E2E2EFE2F5F5F5F5F5F5F5F5F5F5F5F5F5F5F5F5F5F5F5F5F5F5F5F5F5F5F5F5F5F5F5F5F5F5F5F5F5F5F5F5F5F5F5F5F5F5F5F5F5F5F5F5F5F5F5F5F5F5F5F5F5F5F5F5F5F5F5F5F5F5F5F5F5F5F5F5F5F5F5F5F5F5F5F5F5F5F5F5F5
310
F5F5F5F5F5F5F5F5F5F5F5F5F5F5F5F5F5F5F5F5F5F5F5F5F5F5F5F5F5F5F5F5F5F5F5F5F5F5F5F5F5F5F5F5F5F5F5F5F5F5F5F5F5F5F5F5F5F5F5F5F5F5F5F5F5F5F5F5F5F5F5F5F5F5F5F5F5F5F5F5F5F5F5F5F5F5F5E2E2EFE2F5F5F5F5F5F5F5F5F5F5F5F5F5F5F5F5F5F5F5F5F5F5F5F5F5F5F5F5F5F5F5F5F5F5F5F5
310
F5F5F5F5F5F5F5F5F5F5F5F5F5F5F5F5F5F5F5F5F5F5F5F5F5F5F5F5F5F5F5F5F5F5F5F5F5F5F5F5F5F5F5F5F5F5F5F5F5F5F5F5F5F5F5F5F5F5F5F5F5F5F5F5F5F5F5F5F5F5F5F5F5F5F5F5F5F5F5F5F5F5F5F5F5F5F5F5F5F5F5F5F5F5F5F5F5F5F5F5F5F5F5F5F5F5F5F5F5F5F5F5F5F5F5F5F5F5F5F5F5F5F5F5F5F5F5
310
F5F5F5F5F5F5F5F5F5F5F5F5F5E2E2EFE2F5F5F5F5F5F5F5F5F5F5F5F5F5F5F5F5F5F5F5F5F5F5F5F5F5F5F5F5F5F5F5F5F5F5F5F5F5F5F5F5F5F5F5F5F5F5F5F5F5F5F5F5F5F5F5F5F5F5F5F5F5F5F5F5F5F5F5F5F5F5F5F5F5F5F5F5F5F5F5F5F5F5F5F5F5F5F5F5F5F5F5F5F5F5F5F5F5F5F5F5F5F5F5F5F5F5F5F5F5F5
310
F5F5F5F5F5F5F5F5F5F5F5F5F5F5F5F5F5F5F5F5F5F5F5F5F5F5F5F5F5F5F5F5F5F5F5F5F5F5F5F5F5F5F5F5F5F5F5F5F5F5F5F5F5F5F5F5F5F5F5F5F5F5F5F5F5F5E2E2EFE2F5F5F5F5F5F5F5F5F5F5F5F5F5F5F5F5F5F5F5F5F5F5F5F5F5F5F5F5F5F5F5F5F5F5F5F5F5F5F5F5F5F5F5F5F5F5F5F5F5F5F5F5F5F5F5F5F5
310
F5F5F5F5F5F5F5F5F5F5F5F5F5F5F5F5F5F5F5F5F5F5F5F5F5F5F5F5F5F5F5F5F5F5F5F5F5F5F5F5F5F5F5F5F5F5F5F5F5F5F5F5F5F5F5F5F5F5F5F5F5F5F5F5F5F5F5F5F5F5F5F5F5F5F5F5F5F5F5F5F5F5F5F5F5F5F5F5F5F5F5F5F5F5F5F5F5F5F5F5F5F5F5F5F5F5F5F5F5F5F5F5F5F5F5F5F5F5F5E2E2EFE2F5F5F5F5
310
F5F5F5F5F5F5F5F5F5F5F5F5F5F5F5F5F5F5F5F5F5F5F5F5F5F5F5F5F5F5F5F5F5F5F5F5F5F5F5F5F5F5F5F5F5F5F5F5F5F5F5F5F5F5F5F5F5F5F5F5F5F5F5F5F5F5F5F5F5F5F5F5F5F5F5F5F5F5F5F5F5F5F5F5F5F5F5F5F5F5F5F5F5F5F5F5F5F5F5F5F5F5F5F5F5F5F5F5F5F5F5F5F5F5F5F5F5F5F5F5F5F5F5F5F5F5F5
310
F5F5F5F5F5F5F5F5F5F5F5F5F5F5F5F5F5F5F5F5F5F5F5F5F5F5F5F5F5F5F5F5F5F5F5F5F5F5F5F5F5F5F5F5F5E2E2EFE2F5F5F5F5F5F5F5F5F5F5F5F5F5F5F5F5F5F5F5F5F5F5F5F5F5F5F5F5F5F5F5F5F5F5F5F5F5F5F5F5F5F5F5F5F5F5F5F5F5F5F5F5F5F5F5F5F5F5F5F5F5F5F5F5F5F5F5F5F5F5F5F5F5F5F5F5F5F5
310
F5F5F5F5F5F5F5F5F5F5F5F5F5F5F5F5F5F5F5F5F5F5F5F5F5F5F5F5F5F5F5F5F5F5F5F5F5F5F5F5F5F5F5F5F5F5F5F5F5F5F5F5F5F5F5F5F5F5F5F5F5F5F5F5F5F5F5F5F5F5F5F5F5F5F5F5F5F5F5F5F5F5F5F5F5F5F5F5F5F5F5F5F5F5F5F5F5F5E2E2EFE2F5F5F5F5F5F5F5F5F5F5F5F5F5F5F5F5F5F5F5F5F5F5F5F5F5
310
F5F5F5F5F5F5F5F5F5F5F5F5F5F5F5F5F5F5F5F5F5F5F5F5F5F5F5F5F5F5F5F5F5F5F5F5F5F5F5F5F5F5F5F5F5F5F5F5F5F5F5F5F5F5F5F5F5F5F5F5F5F5F5F5F5F5F5F5F5F5F5F5F5F5F5F5F5F5F5F5F5F5F5F5F5F5F5F5F5F5F5F5F5F5F5F5F5F5F5F5F5F5F5F5F5F5F5F5F5F5F5F5F5F5F5F5F5F5F5F5F5F5F5F5F5F5F5
310
F5F5F5F5F5F5F5F5F5F5F5F5F5F5F5F5F5F5F5F5F5F5F5F5E2E2EFE2F5E2F5F5F5F5F5F5F5F5F5F5F5F5F5F5F5F5F5F5F5F5F5F5F5F5F5F5F5F5F5F5F5F5F5F5F5F5F5F5F5F5F5F5F5F5F5F5F5F5F5F5F5F5F5F5F5F5F5F5F5F5F5F5F5F5F5F5F5F5F5F5F5F5F5F5F5F5F5F5F5F5F5F5F5F5F5F5F5F5F5F5F5F5F5F5F5F5F5
310
F5F5F5F5F5F5F5F5F5F5F5F5F5F5F5F5F5F5F5F5F5F5F5F5F5F5F5F5F5F5F5F5F5F5F5F5F5F5F5F5F5F5F5F5F5F5F5F5F5F5F5F5F5F5F5F5F5F5F5F5F5F5F5F5F5F5F5F5F5F5F5F5F5F5F5E2F5E2E2EFE2F5E2F5F5F5F5F5F5F5F5F5F5F5F5F5F5F5F5F5F5F5F5F5F5F5F5F5F5F5F5F5F5F5F5F5F5F5F5F5F5F5F5F5F5F5F5
310
F5F5F5F5F5F5F5F5F5F5F5F5F5F5F5F5F5F5F5F5F5F5F5F5F5F5F5F5F5F5F5F5F5F5F5F5F5F5F5F5F5F5F5F5F5F5F5F5F5F5F5F5F5F5F5F5F5F5F5F5F5F5F5F5F5F5F5F5F5F5F5F5F5F5F5F5F5F5F5F5F5F5F5F5F5F5F5F5F5F5F5F5F5F5F5F5F5F5F5F5F5F5F5F5F5F5F5F5F5F5F5F5F5F5F5F5F5F5F5F5F5F5F5F5F5F5F5
310
F5E2F5E2E2EFE2F5E2F5F5F5F5F5F5F5F5F5F5F5F5F5F5F5F5F5F5F5F5F5F5F5F5F5F5F5F5F5F5F5F5F5F5F5F5F5F5F5F5F5F5F5F5F5F5F5F5F5F5F5F5F5F5F5F5F5F5F5F5F5F5F5F5F5F5F5F5F5F5F5F5F5F5F5F5F5F5F5F5F5F5F5F5F5F5F5F5F5F5F5F5F5F5F5F5F5F5F5F5F5F5F5F5F5F5F5F5F5F5F5F5F5F5F5F5F5F5
310
F5F5F5F5F5F5F5F5F5F5F5F5F5F5F5F5F5F5F5F5F5F5F5F5F5F5F5F5F5F5F5F5F5F5F5F5F5F5F5F5F5F5F5F5F5F5F5F5F5F5F5F5F5F5E2F5E2E2EFE2F5E2F5F5F5F5F5F5F5F5F5F5F5F5F5F5F5F5F5F5F5F5F5F5F5F5F5F5F5F5F5F5F5F5F5F5F5F5F5F5F5F5F5F5F5F5F5F5F5F5F5F5F5F5F5F5F5F5F5F5F5F5F5F5F5F5F5
310
F5F5F5F5F5F5F5F5F5F5F5F5F5F5F5F5F5F5F5F5F5F5F5F5F5F5F5F5F5F5F5F5F5F5F5F5F5F5F5F5F5F5F5F5F5F5F5F5F5F5F5F5F5F5F5F5F5F5F5F5F5F5F5F5F5F5F5F5F5F5F5F5F5F5F5F5F5F5F5F5F5F5F5F5F5F5F5F5F5F5F5F5F5F5F5F5F5F5F5F5F5F5F5F5F5F5F5E2F5E2E2EFE2F5E2F5F5F5F5F5F5F5F5F5F5F5F5
310
F5F5F5F5F5F5F5F5F5F5F5F5F5F5F5F5F5F5F5F5F5F5F5F5F5F5F5F5F5F5F5F5F5F5F5F5F5F5F5F5F5F5F5F5F5F5F5F5F5F5F5F5F5F5F5F5F5F5F5F5F5F5F5F5F5F5F5F5F5F5F5F5F5F5F5F5F5F5F5F5F5F5F5F5F5F5F5F5F5F5F5F5F5F5F5F5F5F5F5F5F5F5F5F5F5F5F5F5F5F5F5F5F5F5F5F5F5F5F5F5F5F5F5F5F5F5F5
310
F5F5F5F5F5F5F5F5F5F5F5F5F5F5F5F5F5F5F5F5F5F5F5F5F5F5F5F5F5F5F5F5F5E2F5E2E2EFE2F5E2F5F5F5F5F5F5F5F5F5F5F5F5F5F5F5F5F5F5F5F5F5F5F5F5F5F5F5F5F5F5F5F5F5F5F5F5F5F5F5F5F5F5F5F5F5F5F5F5F5F5F5F5F5F5F5F5F5F5F5F5F5F5F5F5F5F5F5F5F5F5F5F5F5F5F5F5F5F5F5F5F5F5F5F5F5F5
310
F5F5F5F5F5F5F5F5F5F5F5F5F5F5F5F5F5F5F5F5F5F5F5F5F5F5F5F5F5F5F5F5F5F5F5F5F5F5F5F5F5F5F5F5F5F5F5F5F5F5F5F5F5F5F5F5F5F5F5F5F5F5F5F5F5F5F5F5F5F5F5F5F5F5F5F5F5F5F5F5F5F5F5F5F5F5E2F5E2E2EFE2F5E2F5F5F5F5F5F5F5F5F5F5F5F5F5F5F5F5F5F5F5F5F5F5F5F5F5F5F5F5F5F5F5F5F5
310
F5F5F5F5F5F5F5F5F5F5F5F5F5F5F5F5F5F5F5F5F5F5F5F5F5F5F5F5F5F5F5F5F5F5F5F5F5F5F5F5F5F5F5F5F5F5F5F5F5F5F5F5F5F5F5F5F5F5F5F5F5F5F5F5F5F5F5F5F5F5F5F5F5F5F5F5F5F5F5F5F5F5F5F5F5F5F5F5F5F5F5F5F5F5F5F5F5F5F5F5F5F5F5F5F5F5F5F5F5F5F5F5F5F5F5F5F5F5F5F5F5F5F5F5F5F5F5
310
F5F5F5F5F5F5F5F5F5F5F5F5E2F5E2E2EFE2F5E2E2E2E2E2E2E2E2F5F5F5F5F5F5F5F5F5E2E2E2E2E2E2E2E2E2E2E2E2E2E2E2E2F5F5F5F5F5F5F5F5F5E2E2E2E2E2E2E2E2E2E2E2E2E2E2E2E2F5F5F5F5F5F5F5F5F5E2E2E2E2E2E2E2E2E2E2E2E2E2E2E2E2F5F5F5F5F5F5F5F5E2E2E2E2E2E2E2E2E2E2E2E2E2E2E2E2F5
310
F5F5F5F5F5F5F5F5E2E2E2E2E2E2E2E2E2E2E2E2E2E2E2E2F5F5F5F5F5F5F5F5F5E2E2E2E2E2E2E2E2E2E2E2E2E2E2E2E2F5F5F5F5F5F5F5F5F5E2E2E2E2E2E2E2E2F5E2E2EFE2F5F5F5F5F5F5F5F5F5F5F5F5F5F5F5F5F5F5F5F5F5F5F5F5F5F5F5F5F5F5F5F5F5F5F5F5F5F5F5F5F5F5F5F5F5F5F5F5F5F5F5F5F5F5F5F5
310
F5F5F5F5F5F5F5F5F5F5F5F5F5F5F5F5F5F5F5F5F5F5F5F5F5F5F5F5F5F5F5F5F5F5F5F5F5F5F5F5F5F5F5F5F5F5F5F5F5F5F5F5F5F5F5F5F5F5F5F5F5F5F5F5F5F5F5F5F5F5F5F5F5F5F5F5F5F5F5F5F5F5F5F5F5F5F5F5F5F5F5F5F5F5F5F5F5F5F5F5F5F5F5F5F5F5F5F5F5F5F5F5F5F5F5F5F5F5F5F5E2EFEFE2E2E2E2
310
E2E2E2E2E2E2E2E2E2E2E2E2E2E2E2E2E2E2E2E2E2E2E2E2E2E2E2E2E2E2E2E2E2E2E2E2E2E2E2E2E2E2E2E2E2E2E2E2E2E2E2E2E2E2E2E2E2E2E2E2E2E2E2E2E2E2E2E2E2E2E2E2E2E2E2E2E2E2E2E2E2E2E2E2E2E2E2E2E2E2E2E2E2E2E2E2E2E2E2E2E2E2E2E2E2E2E2E2E2E2E2E2E2E2E2E2E2E2E2E2E2E2E2E2E2E2E2
310
E2E2E2E2E2E2E2E2E2E2E2E2E2E2E2E2E2E2E2E2E2E2E2E2E2E2E2E2E2E2E2E2E2E2E2E2E2E2E2E2E2E2E2E2E2E2E2EF
  0
XRECORD
  5
30C5E
102
{ACAD_REACTORS
330
30C5D
102
}
330
30C5D
100
AcDbXrecord
280
     1
102
SHADEPLOT
 70
     0
102
SHADEPLOTRESLEVEL
 70
     2
102
SHADEPLOTCUSTOMDPI
 70
   300
  0
XRECORD
  5
30C7A
102
{ACAD_REACTORS
330
30C79
102
}
330
30C79
100
AcDbXrecord
280
     1
102
MATERIAL
148
0.0
149
0.0
149
0.0
 93
        0
 94
       63
282
     0
 72
     1
 77
     1
171
     1
175
     1
179
     1
273
     0
  0
XRECORD
  5
30C78
102
{ACAD_REACTORS
330
30C77
102
}
330
30C77
100
AcDbXrecord
280
     1
102
MATERIAL
148
0.0
149
0.0
149
0.0
 93
        0
 94
       63
282
     0
 72
     1
 77
     1
171
     1
175
     1
179
     1
273
     0
  0
XRECORD
  5
30C7C
102
{ACAD_REACTORS
330
30C7B
102
}
330
30C7B
100
AcDbXrecord
280
     1
102
MATERIAL
148
0.0
149
0.0
149
0.0
 93
        0
 94
       63
282
     0
 72
     1
 77
     1
171
     1
175
     1
179
     1
273
     0
  0
XRECORD
  5
30C62
102
{ACAD_REACTORS
330
30C61
102
}
330
30C61
100
AcDbXrecord
280
     1
102
SHADEPLOT
 70
     0
102
SHADEPLOTRESLEVEL
 70
     2
102
SHADEPLOTCUSTOMDPI
 70
   300
  0
XRECORD
  5
30C64
102
{ACAD_REACTORS
330
30C63
102
}
330
30C63
100
AcDbXrecord
280
     1
102
SHADEPLOT
 70
     0
102
SHADEPLOTRESLEVEL
 70
     2
102
SHADEPLOTCUSTOMDPI
 70
   300
  0
XRECORD
  5
30C66
102
{ACAD_REACTORS
330
30C65
102
}
330
30C65
100
AcDbXrecord
280
     1
102
SHADEPLOT
 70
     0
102
SHADEPLOTRESLEVEL
 70
     2
102
SHADEPLOTCUSTOMDPI
 70
   300
  0
XRECORD
  5
30C68
102
{ACAD_REACTORS
330
30C67
102
}
330
30C67
100
AcDbXrecord
280
     1
102
SHADEPLOT
 70
     0
102
SHADEPLOTRESLEVEL
 70
     2
102
SHADEPLOTCUSTOMDPI
 70
   300
  0
XRECORD
  5
30C6A
102
{ACAD_REACTORS
330
30C69
102
}
330
30C69
100
AcDbXrecord
280
     1
102
SHADEPLOT
 70
     0
102
SHADEPLOTRESLEVEL
 70
     2
102
SHADEPLOTCUSTOMDPI
 70
   300
  0
XRECORD
  5
30C6C
102
{ACAD_REACTORS
330
30C6B
102
}
330
30C6B
100
AcDbXrecord
280
     1
102
SHADEPLOT
 70
     0
102
SHADEPLOTRESLEVEL
 70
     2
102
SHADEPLOTCUSTOMDPI
 70
   300
  0
XRECORD
  5
30C6E
102
{ACAD_REACTORS
330
30C6D
102
}
330
30C6D
100
AcDbXrecord
280
     1
102
SHADEPLOT
 70
     0
102
SHADEPLOTRESLEVEL
 70
     2
102
SHADEPLOTCUSTOMDPI
 70
   300
  0
XRECORD
  5
30C70
102
{ACAD_REACTORS
330
30C6F
102
}
330
30C6F
100
AcDbXrecord
280
     1
102
SHADEPLOT
 70
     0
102
SHADEPLOTRESLEVEL
 70
     2
102
SHADEPLOTCUSTOMDPI
 70
   300
  0
XRECORD
  5
30C72
102
{ACAD_REACTORS
330
30C71
102
}
330
30C71
100
AcDbXrecord
280
     1
102
SHADEPLOT
 70
     0
102
SHADEPLOTRESLEVEL
 70
     2
102
SHADEPLOTCUSTOMDPI
 70
   300
  0
XRECORD
  5
30C74
102
{ACAD_REACTORS
330
30C73
102
}
330
30C73
100
AcDbXrecord
280
     1
102
SHADEPLOT
 70
     0
102
SHADEPLOTRESLEVEL
 70
     2
102
SHADEPLOTCUSTOMDPI
 70
   300
  0
XRECORD
  5
30C60
102
{ACAD_REACTORS
330
30C5F
102
}
330
30C5F
100
AcDbXrecord
280
     1
102
ACAD_ROUNDTRIP_PRE2007_TABLESTYLE
 90
        4
 91
        0
  1

 92
        4
 93
        0
  2

 94
        4
 95
        0
  3

  0
ENDSEC
  0
EOF
