  0
SECTION
  2
HEADER
  9
$ACADVER
  1
AC1021
  9
$ACADMAINTVER
 70
     3
  9
$DWGCODEPAGE
  3
ANSI_932
  9
$LASTSAVEDBY
  1
Administrator
  9
$CUSTOMPROPERTYTAG
  1
AmdtFileType
  9
$CUSTOMPROPERTY
  1
84
  9
$INSBASE
 10
0.0
 20
0.0
 30
0.0
  9
$EXTMIN
 10
3870.48774062485
 20
2826.717586919488
 30
-0.0000000349181948
  9
$EXTMAX
 10
4290.756844161406
 20
3123.860961618141
 30
0.0000000814935746
  9
$LIMMIN
 10
1700.85588156276
 20
1647.985052086429
  9
$LIMMAX
 10
1997.85588156276
 20
1857.985052086429
  9
$ORTHOMODE
 70
     0
  9
$REGENMODE
 70
     1
  9
$FILLMODE
 70
     1
  9
$QTEXTMODE
 70
     0
  9
$MIRRTEXT
 70
     0
  9
$LTSCALE
 40
1.0
  9
$ATTMODE
 70
     1
  9
$TEXTSIZE
 40
3.2
  9
$TRACEWID
 40
1.0
  9
$TEXTSTYLE
  7
STANDARD
  9
$CLAYER
  8
AM_0
  9
$CELTYPE
  6
ByLayer
  9
$CECOLOR
 62
   256
  9
$CELTSCALE
 40
1.0
  9
$DISPSILH
 70
     0
  9
$DIMSCALE
 40
1.0
  9
$DIMASZ
 40
1.0
  9
$DIMEXO
 40
1.0
  9
$DIMDLI
 40
10.0
  9
$DIMRND
 40
0.0
  9
$DIMDLE
 40
0.0
  9
$DIMEXE
 40
1.0
  9
$DIMTP
 40
0.1
  9
$DIMTM
 40
0.1
  9
$DIMTXT
 40
3.5
  9
$DIMCEN
 40
0.0
  9
$DIMTSZ
 40
0.0
  9
$DIMTOL
 70
     0
  9
$DIMLIM
 70
     0
  9
$DIMTIH
 70
     0
  9
$DIMTOH
 70
     0
  9
$DIMSE1
 70
     0
  9
$DIMSE2
 70
     0
  9
$DIMTAD
 70
     1
  9
$DIMZIN
 70
     8
  9
$DIMBLK
  1

  9
$DIMASO
 70
     1
  9
$DIMSHO
 70
     1
  9
$DIMPOST
  1

  9
$DIMAPOST
  1
"
  9
$DIMALT
 70
     0
  9
$DIMALTD
 70
     2
  9
$DIMALTF
 40
0.0393701
  9
$DIMLFAC
 40
1.0
  9
$DIMTOFL
 70
     1
  9
$DIMTVP
 40
0.0
  9
$DIMTIX
 70
     0
  9
$DIMSOXD
 70
     0
  9
$DIMSAH
 70
     0
  9
$DIMBLK1
  1

  9
$DIMBLK2
  1

  9
$DIMSTYLE
  2
SYS
  9
$DIMCLRD
 70
   256
  9
$DIMCLRE
 70
   256
  9
$DIMCLRT
 70
     7
  9
$DIMTFAC
 40
0.71
  9
$DIMGAP
 40
1.5
  9
$DIMJUST
 70
     0
  9
$DIMSD1
 70
     0
  9
$DIMSD2
 70
     0
  9
$DIMTOLJ
 70
     0
  9
$DIMTZIN
 70
     8
  9
$DIMALTZ
 70
     0
  9
$DIMALTTZ
 70
     0
  9
$DIMUPT
 70
     0
  9
$DIMDEC
 70
     2
  9
$DIMTDEC
 70
     2
  9
$DIMALTU
 70
     2
  9
$DIMALTTD
 70
     2
  9
$DIMTXSTY
  7
STANDARD
  9
$DIMAUNIT
 70
     0
  9
$DIMADEC
 70
     0
  9
$DIMALTRND
 40
0.0
  9
$DIMAZIN
 70
     2
  9
$DIMDSEP
 70
    46
  9
$DIMATFIT
 70
     3
  9
$DIMFRAC
 70
     0
  9
$DIMLDRBLK
  1

  9
$DIMLUNIT
 70
     2
  9
$DIMLWD
 70
    -1
  9
$DIMLWE
 70
    -1
  9
$DIMTMOVE
 70
     0
  9
$DIMFXL
 40
1.0
  9
$DIMFXLON
 70
     0
  9
$DIMJOGANG
 40
0.7853981633974483
  9
$DIMTFILL
 70
     0
  9
$DIMTFILLCLR
 70
     0
  9
$DIMARCSYM
 70
     1
  9
$DIMLTYPE
  6

  9
$DIMLTEX1
  6

  9
$DIMLTEX2
  6

  9
$LUNITS
 70
     2
  9
$LUPREC
 70
     2
  9
$SKETCHINC
 40
1.0
  9
$FILLETRAD
 40
1.0
  9
$AUNITS
 70
     0
  9
$AUPREC
 70
     0
  9
$MENU
  1
.
  9
$ELEVATION
 40
0.0
  9
$PELEVATION
 40
0.0
  9
$THICKNESS
 40
0.0
  9
$LIMCHECK
 70
     0
  9
$CHAMFERA
 40
0.0
  9
$CHAMFERB
 40
0.0
  9
$CHAMFERC
 40
20.0
  9
$CHAMFERD
 40
0.0
  9
$SKPOLY
 70
     0
  9
$TDCREATE
 40
2455540.833317593
  9
$TDUCREATE
 40
2455540.458317593
  9
$TDUPDATE
 40
2455541.741029005
  9
$TDUUPDATE
 40
2455541.366029005
  9
$TDINDWG
 40
0.6819214815
  9
$TDUSRTIMER
 40
0.6819214815
  9
$USRTIMER
 70
     1
  9
$ANGBASE
 50
0.0
  9
$ANGDIR
 70
     0
  9
$PDMODE
 70
     0
  9
$PDSIZE
 40
-3.0
  9
$PLINEWID
 40
0.0
  9
$SPLFRAME
 70
     0
  9
$SPLINETYPE
 70
     6
  9
$SPLINESEGS
 70
     8
  9
$HANDSEED
  5
F39D
  9
$SURFTAB1
 70
     6
  9
$SURFTAB2
 70
     6
  9
$SURFTYPE
 70
     6
  9
$SURFU
 70
     6
  9
$SURFV
 70
     6
  9
$UCSBASE
  2

  9
$UCSNAME
  2

  9
$UCSORG
 10
0.0
 20
0.0
 30
0.0
  9
$UCSXDIR
 10
1.0
 20
0.0
 30
0.0
  9
$UCSYDIR
 10
0.0
 20
1.0
 30
0.0
  9
$UCSORTHOREF
  2

  9
$UCSORTHOVIEW
 70
     0
  9
$UCSORGTOP
 10
0.0
 20
0.0
 30
0.0
  9
$UCSORGBOTTOM
 10
0.0
 20
0.0
 30
0.0
  9
$UCSORGLEFT
 10
0.0
 20
0.0
 30
0.0
  9
$UCSORGRIGHT
 10
0.0
 20
0.0
 30
0.0
  9
$UCSORGFRONT
 10
0.0
 20
0.0
 30
0.0
  9
$UCSORGBACK
 10
0.0
 20
0.0
 30
0.0
  9
$PUCSBASE
  2

  9
$PUCSNAME
  2

  9
$PUCSORG
 10
0.0
 20
0.0
 30
0.0
  9
$PUCSXDIR
 10
1.0
 20
0.0
 30
0.0
  9
$PUCSYDIR
 10
0.0
 20
1.0
 30
0.0
  9
$PUCSORTHOREF
  2

  9
$PUCSORTHOVIEW
 70
     0
  9
$PUCSORGTOP
 10
0.0
 20
0.0
 30
0.0
  9
$PUCSORGBOTTOM
 10
0.0
 20
0.0
 30
0.0
  9
$PUCSORGLEFT
 10
0.0
 20
0.0
 30
0.0
  9
$PUCSORGRIGHT
 10
0.0
 20
0.0
 30
0.0
  9
$PUCSORGFRONT
 10
0.0
 20
0.0
 30
0.0
  9
$PUCSORGBACK
 10
0.0
 20
0.0
 30
0.0
  9
$USERI1
 70
     0
  9
$USERI2
 70
     0
  9
$USERI3
 70
     0
  9
$USERI4
 70
     0
  9
$USERI5
 70
     0
  9
$USERR1
 40
0.0
  9
$USERR2
 40
0.0
  9
$USERR3
 40
0.0
  9
$USERR4
 40
0.0
  9
$USERR5
 40
0.0
  9
$WORLDVIEW
 70
     1
  9
$SHADEDGE
 70
     3
  9
$SHADEDIF
 70
    70
  9
$TILEMODE
 70
     1
  9
$MAXACTVP
 70
    64
  9
$PINSBASE
 10
0.0
 20
0.0
 30
0.0
  9
$PLIMCHECK
 70
     0
  9
$PEXTMIN
 10
1.000000000000000E+20
 20
1.000000000000000E+20
 30
1.000000000000000E+20
  9
$PEXTMAX
 10
-1.000000000000000E+20
 20
-1.000000000000000E+20
 30
-1.000000000000000E+20
  9
$PLIMMIN
 10
-3.17498779296875
 20
-3.174999952316284
  9
$PLIMMAX
 10
293.4970092773438
 20
206.692492723465
  9
$UNITMODE
 70
     0
  9
$VISRETAIN
 70
     1
  9
$PLINEGEN
 70
     0
  9
$PSLTSCALE
 70
     1
  9
$TREEDEPTH
 70
  3020
  9
$CMLSTYLE
  2
Standard
  9
$CMLJUST
 70
     0
  9
$CMLSCALE
 40
20.0
  9
$PROXYGRAPHICS
 70
     1
  9
$MEASUREMENT
 70
     1
  9
$CELWEIGHT
370
    -1
  9
$ENDCAPS
280
     0
  9
$JOINSTYLE
280
     0
  9
$LWDISPLAY
290
     1
  9
$INSUNITS
 70
     4
  9
$HYPERLINKBASE
  1

  9
$STYLESHEET
  1
monochrome.ctb
  9
$XEDIT
290
     1
  9
$CEPSNTYPE
380
     0
  9
$PSTYLEMODE
290
     1
  9
$FINGERPRINTGUID
  2
{5CFF355A-CF33-4148-A9A6-3ED22EC7B243}
  9
$VERSIONGUID
  2
{2E6D5782-3A42-420A-8421-C693DB2852D5}
  9
$EXTNAMES
290
     1
  9
$PSVPSCALE
 40
0.0
  9
$OLESTARTUP
290
     0
  9
$SORTENTS
280
    96
  9
$INDEXCTL
280
     0
  9
$HIDETEXT
280
     0
  9
$XCLIPFRAME
290
     0
  9
$HALOGAP
280
     0
  9
$OBSCOLOR
 70
   257
  9
$OBSLTYPE
280
     0
  9
$INTERSECTIONDISPLAY
280
     0
  9
$INTERSECTIONCOLOR
 70
   257
  9
$DIMASSOC
280
     1
  9
$PROJECTNAME
  1

  9
$CAMERADISPLAY
290
     0
  9
$LENSLENGTH
 40
50.0
  9
$CAMERAHEIGHT
 40
0.0
  9
$STEPSPERSEC
 40
2.0
  9
$STEPSIZE
 40
6.0
  9
$3DDWFPREC
 40
2.0
  9
$PSOLWIDTH
 40
0.25
  9
$PSOLHEIGHT
 40
4.0
  9
$LOFTANG1
 40
1.570796326794896
  9
$LOFTANG2
 40
1.570796326794896
  9
$LOFTMAG1
 40
0.0
  9
$LOFTMAG2
 40
0.0
  9
$LOFTPARAM
 70
     7
  9
$LOFTNORMALS
280
     1
  9
$LATITUDE
 40
37.795
  9
$LONGITUDE
 40
-122.394
  9
$NORTHDIRECTION
 40
0.0
  9
$TIMEZONE
 70
 -8000
  9
$LIGHTGLYPHDISPLAY
280
     1
  9
$TILEMODELIGHTSYNCH
280
     1
  9
$CMATERIAL
347
B0EE
  9
$SOLIDHIST
280
     1
  9
$SHOWHIST
280
     1
  9
$DWFFRAME
280
     2
  9
$DGNFRAME
280
     0
  9
$REALWORLDSCALE
290
     1
  9
$INTERFERECOLOR
 62
     1
  9
$INTERFEREOBJVS
345
B0FB
  9
$INTERFEREVPVS
346
B0F8
  9
$CSHADOW
280
     0
  9
$SHADOWPLANELOCATION
 40
0.0
  0
ENDSEC
  0
SECTION
  2
CLASSES
  0
CLASS
  1
ACDBDICTIONARYWDFLT
  2
AcDbDictionaryWithDefault
  3
ObjectDBX Classes
 90
        0
 91
        1
280
     0
281
     0
  0
CLASS
  1
ACDBPLACEHOLDER
  2
AcDbPlaceHolder
  3
ObjectDBX Classes
 90
        0
 91
        1
280
     0
281
     0
  0
CLASS
  1
LAYOUT
  2
AcDbLayout
  3
ObjectDBX Classes
 90
        0
 91
        3
280
     0
281
     0
  0
CLASS
  1
AMGSETTINGSOBJ
  2
AmgSettingsObj
  3
"AcadM|Product Description: AutoCAD Mechanical|Company: Autodesk"
 90
        0
 91
        2
280
     0
281
     0
  0
CLASS
  1
ACME_DOCUMENT
  2
AcMeDbDoc
  3
AcMeServices
 90
        0
 91
        2
280
     0
281
     0
  0
CLASS
  1
ACMESCOPE
  2
AcMeScope
  3
AcMeServices
 90
        0
 91
        1
280
     0
281
     0
  0
CLASS
  1
ACMECOMMANDHISTORY
  2
AcMeCommandHistory
  3
AcMeServices
 90
        0
 91
        1
280
     0
281
     0
  0
CLASS
  1
DICTIONARYVAR
  2
AcDbDictionaryVar
  3
ObjectDBX Classes
 90
        0
 91
        5
280
     0
281
     0
  0
CLASS
  1
ACIMSYSVARMAN
  2
AcImSysVarManager
  3
AcMeServices
 90
        0
 91
        5
280
     0
281
     0
  0
CLASS
  1
ACIMREALSYSVAR
  2
AcImRealSysVar
  3
AcMeServices
 90
        0
 91
        1
280
     0
281
     0
  0
CLASS
  1
ACIMINTSYSVAR
  2
AcImIntSysVar
  3
AcMeServices
 90
        0
 91
       27
280
     0
281
     0
  0
CLASS
  1
ACMEDRAWINGMAN
  2
AcMeDrawingMan
  3
AcMeServices
 90
        0
 91
        1
280
     0
281
     0
  0
CLASS
  1
ACMEVIEW
  2
AcMeView
  3
AcMeServices
 90
        0
 91
        1
280
     0
281
     0
  0
CLASS
  1
ACDBENTITYCACHE
  2
AcMeEntityCache
  3
AcMeServices
 90
        0
 91
        1
280
     0
281
     0
  0
CLASS
  1
GSMANAGER
  2
AcMeGSManager
  3
AcMeServices
 90
        0
 91
        1
280
     0
281
     0
  0
CLASS
  1
AMDTINTERNALREACTOR
  2
AmdtInternalReactor
  3
AcMeServices
 90
        0
 91
        2
280
     0
281
     0
  0
CLASS
  1
ACMESTATEMGR
  2
AcMeStateMgr
  3
AcMeServices
 90
        0
 91
        1
280
     0
281
     0
  0
CLASS
  1
ACGREFMASTER
  2
AcGrefMaster
  3
AcAttribServices
 90
        0
 91
        1
280
     0
281
     0
  0
CLASS
  1
ACME_DATABASE
  2
AcMeDbDatabase
  3
AcMeServices
 90
        0
 91
        1
280
     0
281
     0
  0
CLASS
  1
ACRFINSADJUSTERMGR
  2
AcRfInsAdjusterMgr
  3
AcMeServices
 90
        0
 91
        1
280
     0
281
     0
  0
CLASS
  1
ACGREFACADMASTER
  2
AcGrefacadMaster
  3
AcGrefServices
 90
        0
 91
        1
280
     0
281
     0
  0
CLASS
  1
AMIMASTER
  2
AmiMaster
  3
AmiServices
 90
        0
 91
        1
280
     0
281
     0
  0
CLASS
  1
ACMDATADICTIONARY
  2
AcmDataDictionary
  3
"AcmSymBB|Product Description: AutoCAD Mechanical|Company: Autodesk"
 90
        0
 91
        1
280
     0
281
     0
  0
CLASS
  1
ACMDATAENTRYBLOCK
  2
AcmDataEntryBlock
  3
"AcmSymBB|Product Description: AutoCAD Mechanical|Company: Autodesk"
 90
        0
 91
        0
280
     0
281
     0
  0
CLASS
  1
ACIMSTRSYSVAR
  2
AcImStrSysVar
  3
AcMeServices
 90
        0
 91
        5
280
     0
281
     0
  0
CLASS
  1
ACMSTANDARDISO
  2
AcmStandardISO
  3
"Amdt_StdImp|Product Description: AutoCAD Mechanical|Company: Autodesk"
 90
        0
 91
        1
280
     0
281
     0
  0
CLASS
  1
AMGOBJPROPCFG
  2
AmgObjPropCfg
  3
"AmgLay|Product Description: AutoCAD Mechanical|Company: Autodesk"
 90
        1
 91
        1
280
     0
281
     0
  0
CLASS
  1
AMDTEDGESTANDARDISO
  2
AmdtEdgeStdISO
  3
"Amdt_StdImp|Product Description: AutoCAD Mechanical|Company: Autodesk"
 90
        0
 91
        0
280
     0
281
     0
  0
CLASS
  1
ACMSURFSTANDARDISO
  2
AcmSurfTextStdISO
  3
"Amdt_StdImp|Product Description: AutoCAD Mechanical|Company: Autodesk"
 90
        0
 91
        1
280
     0
281
     0
  0
CLASS
  1
ACMFCFSTANDARDISO
  2
AcmFCFStdISO
  3
"Amdt_StdImp|Product Description: AutoCAD Mechanical|Company: Autodesk"
 90
        0
 91
        1
280
     0
281
     0
  0
CLASS
  1
ACMWELDSTANDARDISO
  2
AcmWeldingStdISO
  3
"Amdt_StdImp|Product Description: AutoCAD Mechanical|Company: Autodesk"
 90
        0
 91
        1
280
     0
281
     0
  0
CLASS
  1
ACMIDSTANDARDISO
  2
AcmIdStdISO
  3
"Amdt_StdImp|Product Description: AutoCAD Mechanical|Company: Autodesk"
 90
        0
 91
        1
280
     0
281
     0
  0
CLASS
  1
ACMDATUMSTANDARDISO
  2
AcmDatumStdISO
  3
"Amdt_StdImp|Product Description: AutoCAD Mechanical|Company: Autodesk"
 90
        0
 91
        1
280
     0
281
     0
  0
CLASS
  1
ACMBOMSTANDARDISO
  2
AcmBOMStdISO
  3
"Amdt_StdImp|Product Description: AutoCAD Mechanical|Company: Autodesk"
 90
        0
 91
        1
280
     0
281
     0
  0
CLASS
  1
ACMDETAILSTANDARDISO
  2
AmdtDetailSymStdISO
  3
"Amdt_StdImp|Product Description: AutoCAD Mechanical|Company: Autodesk"
 90
        0
 91
        1
280
     0
281
     0
  0
CLASS
  1
ACMSECTIONSTANDARDISO
  2
AmdtSectionSymStdISO
  3
"Amdt_StdImp|Product Description: AutoCAD Mechanical|Company: Autodesk"
 90
        0
 91
        1
280
     0
281
     0
  0
CLASS
  1
ACMCENTERLINESTANDARDISO
  2
AmdtCenterLineStdISO
  3
"Amdt_StdImp|Product Description: AutoCAD Mechanical|Company: Autodesk"
 90
        0
 91
        1
280
     0
281
     0
  0
CLASS
  1
ACAMGLAYSTD
  2
AcAmgLayStd
  3
"AmgLay|Product Description: AutoCAD Mechanical|Company: Autodesk"
 90
        0
 91
        1
280
     0
281
     0
  0
CLASS
  1
ACAMGDIMSTD
  2
AcAmgDimStd
  3
"AmgDim|Product Description: AutoCAD Mechanical|Company: Autodesk"
 90
        0
 91
        1
280
     0
281
     0
  0
CLASS
  1
ACAMGTITLESTD
  2
AcAmgTitleStd
  3
"AmgTitle|Product Description: AutoCAD Mechanical|Company: Autodesk"
 90
        0
 91
        1
280
     0
281
     0
  0
CLASS
  1
ACAMGFILTERDAT
  2
AcAmgFilterDat
  3
"AcadM|Product Description: AutoCAD Mechanical|Company: Autodesk"
 90
        0
 91
        0
280
     0
281
     0
  0
CLASS
  1
LAYER_INDEX
  2
AcDbLayerIndex
  3
ObjectDBX Classes
 90
        0
 91
        0
280
     0
281
     0
  0
CLASS
  1
IDBUFFER
  2
AcDbIdBuffer
  3
ObjectDBX Classes
 90
        0
 91
        0
280
     0
281
     0
  0
CLASS
  1
PLOTSETTINGS
  2
AcDbPlotSettings
  3
ObjectDBX Classes
 90
        0
 91
        0
280
     0
281
     0
  0
CLASS
  1
AMDTFORMULAUPDATEDISPATCHER
  2
AmdtFormulaUpdateDispatcher
  3
AcMeServices
 90
        0
 91
        0
280
     0
281
     0
  0
CLASS
  1
ACMSTANDARDANSI
  2
AcmStandardANSI
  3
"Amdt_StdImp|Product Description: AutoCAD Mechanical|Company: Autodesk"
 90
        0
 91
        0
280
     0
281
     0
  0
CLASS
  1
ACMSURFSTANDARDANSI
  2
AcmSurfTextStdANSI
  3
"Amdt_StdImp|Product Description: AutoCAD Mechanical|Company: Autodesk"
 90
        0
 91
        0
280
     0
281
     0
  0
CLASS
  1
ACMFCFSTANDARDANSI
  2
AcmFCFStdANSI
  3
"Amdt_StdImp|Product Description: AutoCAD Mechanical|Company: Autodesk"
 90
        0
 91
        0
280
     0
281
     0
  0
CLASS
  1
ACMWELDSTANDARDANSI
  2
AcmWeldingStdANSI
  3
"Amdt_StdImp|Product Description: AutoCAD Mechanical|Company: Autodesk"
 90
        0
 91
        0
280
     0
281
     0
  0
CLASS
  1
ACMIDSTANDARDANSI
  2
AcmIdStdANSI
  3
"Amdt_StdImp|Product Description: AutoCAD Mechanical|Company: Autodesk"
 90
        0
 91
        0
280
     0
281
     0
  0
CLASS
  1
ACMDATUMSTANDARDANSI
  2
AcmDatumStdANSI
  3
"Amdt_StdImp|Product Description: AutoCAD Mechanical|Company: Autodesk"
 90
        0
 91
        0
280
     0
281
     0
  0
CLASS
  1
ACMBOMSTANDARDANSI
  2
AcmBOMStdANSI
  3
"Amdt_StdImp|Product Description: AutoCAD Mechanical|Company: Autodesk"
 90
        0
 91
        0
280
     0
281
     0
  0
CLASS
  1
ACMDETAILSTANDARDANSI
  2
AmdtDetailSymStdANSI
  3
"Amdt_StdImp|Product Description: AutoCAD Mechanical|Company: Autodesk"
 90
        0
 91
        0
280
     0
281
     0
  0
CLASS
  1
ACMSECTIONSTANDARDANSI
  2
AmdtSectionSymStdANSI
  3
"Amdt_StdImp|Product Description: AutoCAD Mechanical|Company: Autodesk"
 90
        0
 91
        0
280
     0
281
     0
  0
CLASS
  1
ACMCENTERLINESTANDARDANSI
  2
AmdtCenterLineStdANSI
  3
"Amdt_StdImp|Product Description: AutoCAD Mechanical|Company: Autodesk"
 90
        0
 91
        0
280
     0
281
     0
  0
CLASS
  1
ACMBOM
  2
AcmBom
  3
"AcmSymBB|Product Description: AutoCAD Mechanical|Company: Autodesk"
 90
        0
 91
        0
280
     0
281
     0
  0
CLASS
  1
ACMDATAENTRYPART
  2
AcmDataEntryPart
  3
"AcmSymBB|Product Description: AutoCAD Mechanical|Company: Autodesk"
 90
        0
 91
        0
280
     0
281
     0
  0
CLASS
  1
ACMPARTREF
  2
AcmPartRef
  3
"AcmSymBB|Product Description: AutoCAD Mechanical|Company: Autodesk"
 90
     3071
 91
        0
280
     0
281
     1
  0
CLASS
  1
ACDBCIRCARCRES
  2
AcDbCircArcRes
  3
AcGrefServices
 90
        0
 91
        0
280
     0
281
     0
  0
CLASS
  1
ACMBOMROW
  2
AcmBomRow
  3
"AcmSymBB|Product Description: AutoCAD Mechanical|Company: Autodesk"
 90
        0
 91
        0
280
     0
281
     0
  0
CLASS
  1
ACMBALLOON
  2
AcmBalloon
  3
"AcmSymBB|Product Description: AutoCAD Mechanical|Company: Autodesk"
 90
     3071
 91
        0
280
     0
281
     1
  0
CLASS
  1
AMDTNOTE
  2
AmdtNote
  3
"AcmSymBB|Product Description: AutoCAD Mechanical|Company: Autodesk"
 90
     3071
 91
        0
280
     0
281
     1
  0
CLASS
  1
STDPART2D
  2
AmgStdPart
  3
"AmgStdPart|Product Description: AutoCAD Mechanical|Company: Autodesk"
 90
     3071
 91
        0
280
     0
281
     1
  0
CLASS
  1
ACDBSTDPARTRES_LINE
  2
AcDbStdPartRes_Line
  3
"AmgStdPart|Product Description: AutoCAD Mechanical|Company: Autodesk"
 90
        0
 91
        0
280
     0
281
     0
  0
CLASS
  1
ACMDATAENTRY
  2
AcmDataEntry
  3
"AcmSymBB|Product Description: AutoCAD Mechanical|Company: Autodesk"
 90
        0
 91
        0
280
     0
281
     0
  0
CLASS
  1
ACDBOPPOLYLINERES
  2
AcDbOpPolylineRes
  3
AcGrefServices
 90
        0
 91
        0
280
     0
281
     0
  0
CLASS
  1
ACMPARTLIST
  2
AcmPartList
  3
"AcmSymBB|Product Description: AutoCAD Mechanical|Company: Autodesk"
 90
     3071
 91
        0
280
     0
281
     1
  0
CLASS
  1
ACDBLINERES
  2
AcDbLineRes
  3
AcGrefServices
 90
        0
 91
        0
280
     0
281
     0
  0
CLASS
  1
ACRFINSADJ
  2
AcRfInsAdjuster
  3
AcMeServices
 90
        0
 91
        0
280
     0
281
     0
  0
CLASS
  1
AM_DRAWING_MGR
  2
AcDmDwgMgr
  3
AcMechDwgViewMgmt
 90
        0
 91
        1
280
     0
281
     0
  0
CLASS
  1
AM_DWG_DOCUMENT
  2
AcDmDwgDocument
  3
AcMechDwgViewMgmt
 90
        0
 91
        1
280
     0
281
     0
  0
CLASS
  1
AM_DWG_SHEET
  2
AcDmSheet
  3
AcMechDwgViewMgmt
 90
        0
 91
        2
280
     0
281
     0
  0
CLASS
  1
AM_VIEWDIMPARMAP
  2
AcDmViewDimParMap
  3
AcMechDwgViewMgmt
 90
        0
 91
        2
280
     0
281
     0
  0
CLASS
  1
AM_DWGMGR_NAME
  2
AcDmDwgMgrName
  3
AcMechDwgViewMgmt
 90
        0
 91
        1
280
     0
281
     0
  0
CLASS
  1
AMDTMENUSTATEMGR
  2
AmdtMenuStateMgr
  3
McadcomServices
 90
        0
 91
        1
280
     0
281
     0
  0
CLASS
  1
AMDTMCOMMENUSTATE
  2
AmdtMcomMenuState
  3
McadcomServices
 90
        0
 91
        1
280
     0
281
     0
  0
CLASS
  1
ASAPP
  2
AcAsAppObject
  3
AutoSurfServices
 90
        0
 91
        2
280
     0
281
     0
  0
CLASS
  1
IM_STATIC_MAN
  2
AcImStaticVarManager
  3
AcMeServices
 90
        0
 91
        1
280
     0
281
     0
  0
CLASS
  1
ACIMDBLSTATICVAR
  2
AcImDblStaticVar
  3
AcMeServices
 90
        0
 91
        0
280
     0
281
     0
  0
CLASS
  1
ACIMSTRSTATICVAR
  2
AcImStrStaticVar
  3
AcMeServices
 90
        0
 91
        0
280
     0
281
     0
  0
CLASS
  1
ACIMINTSTATICVAR
  2
AcImIntStaticVar
  3
AcMeServices
 90
        0
 91
        0
280
     0
281
     0
  0
CLASS
  1
ACASGREFMASTER
  2
AcAsGrefMaster
  3
AutoSurfResolverServices
 90
        0
 91
        2
280
     0
281
     0
  0
CLASS
  1
ACADGREFMODULE
  2
AcAdGrefModule
  3
AdGrefServices
 90
        0
 91
        2
280
     0
281
     0
  0
CLASS
  1
AMDTMAPISURFMOUDULE
  2
AmdtMApiSurfModule
  3
MApiSurfServices
 90
        0
 91
        2
280
     0
281
     0
  0
CLASS
  1
MAPIAMMOUDLE
  2
MApiAmModule
  3
MApiAmServices
 90
        0
 91
        1
280
     0
281
     0
  0
CLASS
  1
AMDTADMENUSTATE
  2
AmdtAdMenuState
  3
DesignerServices
 90
        0
 91
        1
280
     0
281
     0
  0
CLASS
  1
ADAPPL
  2
AcAdAppl
  3
DesignerServices
 90
        0
 91
        1
280
     0
281
     0
  0
CLASS
  1
DEPMGR
  2
AcAdDepMgr
  3
DesignerServices
 90
        0
 91
        1
280
     0
281
     0
  0
CLASS
  1
PARAMMGR
  2
AcAdParamMgr
  3
DesignerServices
 90
        0
 91
        1
280
     0
281
     0
  0
CLASS
  1
PARAMSCOPE
  2
AcAdParamScope
  3
DesignerServices
 90
        0
 91
        1
280
     0
281
     0
  0
CLASS
  1
NAMEDAPPL
  2
AcAdNamedAppl
  3
DesignerServices
 90
        0
 91
        1
280
     0
281
     0
  0
CLASS
  1
ADHNTMPLT
  2
AdHoleNoteTemplateMgr
  3
DesignerServices
 90
        0
 91
        0
280
     0
281
     0
  0
CLASS
  1
AM_HNTEMPLATE_MGR_NAME
  2
AdHoleNoteTemplateMgrName
  3
DesignerServices
 90
        0
 91
        0
280
     0
281
     0
  0
CLASS
  1
AMDTDMMENUSTATE
  2
AmdtDmMenuState
  3
AcMechDwgViewMgmt
 90
        0
 91
        1
280
     0
281
     0
  0
CLASS
  1
MAPIADMODULE
  2
MApiAdModule
  3
MApiAdServices
 90
        0
 91
        2
280
     0
281
     0
  0
CLASS
  1
AMDTAMMENUSTATE
  2
AmdtAmMenuState
  3
DesignerAssemblies
 90
        0
 91
        1
280
     0
281
     0
  0
CLASS
  1
ACAMPROJECT
  2
AcAmProject
  3
DesignerAssemblies
 90
        0
 91
        1
280
     0
281
     0
  0
CLASS
  1
ACAMGRCOMPDEF
  2
AcAmGrCompDef
  3
DesignerAssemblies
 90
        0
 91
        1
280
     0
281
     0
  0
CLASS
  1
ACCMCONTEXT
  2
AcCmContext
  3
DesignerAssemblies
 90
        0
 91
        1
280
     0
281
     0
  0
CLASS
  1
ACAMCOMPDEF
  2
AcAmCompDef
  3
DesignerAssemblies
 90
        0
 91
        1
280
     0
281
     0
  0
CLASS
  1
ACAMCOMPDEFMGR
  2
AcAmCompDefMgr
  3
DesignerAssemblies
 90
        0
 91
        1
280
     0
281
     0
  0
CLASS
  1
AMCONTEXTMGR
  2
AcAmContextMgr
  3
DesignerAssemblies
 90
        0
 91
        1
280
     0
281
     0
  0
CLASS
  1
ACAMCONTEXTMODELER
  2
AcAmContextModeler
  3
DesignerAssemblies
 90
        0
 91
        1
280
     0
281
     0
  0
CLASS
  1
CATALOGSTATE
  2
AcAmCatalogState
  3
DesignerAssemblies
 90
        0
 91
        1
280
     0
281
     0
  0
CLASS
  1
ACAMGRCOMPDEFSET
  2
AcAmGrCompDefSet
  3
DesignerAssemblies
 90
        0
 91
        1
280
     0
281
     0
  0
CLASS
  1
AMDTBROWSERDBTAB
  2
AmdtBrowserDbTab
  3
McadcomServices
 90
        0
 91
        1
280
     0
281
     0
  0
CLASS
  1
CBROWSERAPPOBJECT
  2
CBrowserAppObject
  3
McadcomServices
 90
        0
 91
        3
280
     0
281
     0
  0
CLASS
  1
DM_PLACEHOLDER
  2
AcDmSelsetPlaceholder
  3
AcMechDwgViewMgmt
 90
        0
 91
        1
280
     0
281
     0
  0
CLASS
  1
ACMPICKOBJ
  2
AcmPickEnt
  3
"AcmSymBB|Product Description: AutoCAD Mechanical|Company: Autodesk"
 90
        0
 91
        0
280
     0
281
     1
  0
CLASS
  1
ACMNOTESTANDARDISO
  2
AmdtNoteStdISO
  3
"Amdt_StdImp|Product Description: AutoCAD Mechanical|Company: Autodesk"
 90
        0
 91
        1
280
     0
281
     0
  0
CLASS
  1
ACMNOTESTANDARDANSI
  2
AmdtNoteStdANSI
  3
"Amdt_StdImp|Product Description: AutoCAD Mechanical|Company: Autodesk"
 90
        0
 91
        0
280
     0
281
     0
  0
CLASS
  1
ACMTHREADLINESTANDARDISO
  2
AmdtThreadLineStdISO
  3
"Amdt_StdImp|Product Description: AutoCAD Mechanical|Company: Autodesk"
 90
        0
 91
        1
280
     0
281
     0
  0
CLASS
  1
ACMTHREADLINESTANDARDANSI
  2
AmdtThreadLineStdANSI
  3
"Amdt_StdImp|Product Description: AutoCAD Mechanical|Company: Autodesk"
 90
        0
 91
        0
280
     0
281
     0
  0
CLASS
  1
TABLESTYLE
  2
AcDbTableStyle
  3
ObjectDBX Classes
 90
     4095
 91
        1
280
     0
281
     0
  0
CLASS
  1
SORTENTSTABLE
  2
AcDbSortentsTable
  3
ObjectDBX Classes
 90
        0
 91
        1
280
     0
281
     0
  0
CLASS
  1
MATERIAL
  2
AcDbMaterial
  3
ObjectDBX Classes
 90
     1153
 91
        3
280
     0
281
     0
  0
CLASS
  1
VISUALSTYLE
  2
AcDbVisualStyle
  3
ObjectDBX Classes
 90
     4095
 91
       16
280
     0
281
     0
  0
CLASS
  1
ACRFATTGENMGR
  2
AcRfAttGeneralMgr
  3
AcAttribServices
 90
        0
 91
        0
280
     0
281
     0
  0
CLASS
  1
ACRFOBJATTMGR
  2
AcRfObjAttGroupMgr
  3
AcAttribServices
 90
        0
 91
        0
280
     0
281
     0
  0
CLASS
  1
ACRFMCADAPIATTHOLDER
  2
AcRfMCADAPIAttHolder
  3
AcAttribServices
 90
        0
 91
        0
280
     0
281
     0
  0
CLASS
  1
AMDTSYSATTR
  2
AmdtSystemAttribute
  3
AcAttribServices
 90
        0
 91
        0
280
     0
281
     0
  0
CLASS
  1
ACMTAPERSTANDARDISO
  2
AcmTaperStdISO
  3
"Amdt_StdImp|Product Description: AutoCAD Mechanical|Company: Autodesk"
 90
        0
 91
        1
280
     0
281
     0
  0
CLASS
  1
CAMSSTRUCTBTNSTATE
  2
StructBtnState
  3
L"DesignerAssemblies"
 90
        0
 91
        1
280
     0
281
     0
  0
CLASS
  1
DIMASSOC
  2
AcDbDimAssoc
  3
"AcDbDimAssoc|Product Desc:     AcDim ARX App For Dimension|Company:          Autodesk, Inc.|WEB Address:      www.autodesk.com"
 90
        0
 91
        0
280
     0
281
     0
  0
CLASS
  1
AMDTNOTETEMPLATEDB
  2
AmdtNoteTemplateDB
  3
AMDT_STDIMP_MODULE_NAME
 90
        0
 91
        6
280
     0
281
     0
  0
CLASS
  1
AMDTEDGESTANDARDISO13715
  2
AmdtEdgeStdISO13715
  3
"Amdt_StdImp|Product Description: AutoCAD Mechanical|Company: Autodesk"
 90
        0
 91
        1
280
     0
281
     0
  0
CLASS
  1
ACAMGHOLECHARTSTDISO
  2
AcAmgHoleChartStdISO
  3
ACMSYMBB_MODULE_NAME
 90
        0
 91
        1
280
     0
281
     0
  0
ENDSEC
  0
SECTION
  2
TABLES
  0
TABLE
  2
VPORT
  5
8
330
0
100
AcDbSymbolTable
 70
     1
  0
VPORT
  5
B0EC
330
8
100
AcDbSymbolTableRecord
100
AcDbViewportTableRecord
  2
*Active
 70
     0
 10
0.0
 20
0.0
 11
1.0
 21
1.0
 12
4080.622292393128
 22
2975.289274268815
 13
0.0
 23
0.0
 14
2.5
 24
2.5
 15
10.0
 25
10.0
 16
0.0
 26
0.0
 36
1.0
 17
0.0
 27
0.0
 37
0.0
 40
299.1624689774663
 41
2.112244897959183
 42
50.0
 43
-1370.695619172058
 44
-1370.695619172058
 50
0.0
 51
0.0
 71
    16
 72
   100
 73
     1
 74
     3
 75
     0
 76
     0
 77
     0
 78
     0
281
     0
 65
     0
110
0.0
120
0.0
130
0.0
111
1.0
121
0.0
131
0.0
112
0.0
122
1.0
132
0.0
 79
     0
146
0.0
348
B0F7
 60
     3
 61
     5
292
     1
282
     1
141
0.0
142
0.0
 63
   250
421
  3355443
  0
ENDTAB
  0
TABLE
  2
LTYPE
  5
5
330
0
100
AcDbSymbolTable
 70
    29
  0
LTYPE
  5
14
330
5
100
AcDbSymbolTableRecord
100
AcDbLinetypeTableRecord
  2
ByBlock
 70
     0
  3

 72
    65
 73
     0
 40
0.0
  0
LTYPE
  5
15
330
5
100
AcDbSymbolTableRecord
100
AcDbLinetypeTableRecord
  2
ByLayer
 70
     0
  3

 72
    65
 73
     0
 40
0.0
  0
LTYPE
  5
16
330
5
100
AcDbSymbolTableRecord
100
AcDbLinetypeTableRecord
  2
Continuous
 70
     0
  3
Solid line
 72
    65
 73
     0
 40
0.0
  0
LTYPE
  5
4F
330
5
100
AcDbSymbolTableRecord
100
AcDbLinetypeTableRecord
  2
AM_ISO02W050
 70
     0
  3
__ __ __ __ __ __ __ __ __ __ __ __ __ __ __
 72
    65
 73
     2
 40
7.5
 49
6.0
 74
     0
 49
-1.5
 74
     0
  0
LTYPE
  5
52
330
5
100
AcDbSymbolTableRecord
100
AcDbLinetypeTableRecord
  2
Amconstr
 70
     0
  3
_______________________
 72
    65
 73
     2
 40
9999.0
 49
9999.0
 74
     0
 49
0.0
 74
     0
  0
LTYPE
  5
64
330
5
100
AcDbSymbolTableRecord
100
AcDbLinetypeTableRecord
  2
ACISOWELD
 70
     0
  3
_ _ _ _ _
 72
    65
 73
     2
 40
2.0
 49
2.0
 74
     0
 49
-1.0
 74
     0
  0
LTYPE
  5
65
330
5
100
AcDbSymbolTableRecord
100
AcDbLinetypeTableRecord
  2
ACISOTGB
 70
     0
  3
__ . . __ . .
 72
    65
 73
     6
 40
9.0
 49
4.0
 74
     0
 49
-1.0
 74
     0
 49
1.0
 74
     0
 49
-1.0
 74
     0
 49
1.0
 74
     0
 49
-1.0
 74
     0
  0
LTYPE
  5
66
330
5
100
AcDbSymbolTableRecord
100
AcDbLinetypeTableRecord
  2
ACISOTGL
 70
     0
  3
_ _ _ _ _
 72
    65
 73
     2
 40
3.0
 49
2.0
 74
     0
 49
-1.0
 74
     0
  0
LTYPE
  5
69
330
5
100
AcDbSymbolTableRecord
100
AcDbLinetypeTableRecord
  2
CENTER
 70
     0
  3
__ . __
 72
    65
 73
     4
 40
7.0
 49
4.0
 74
     0
 49
-1.0
 74
     0
 49
1.0
 74
     0
 49
-1.0
 74
     0
  0
LTYPE
  5
A6E
330
5
100
AcDbSymbolTableRecord
100
AcDbLinetypeTableRecord
  2
PHANTOM2
 70
     0
  3
Phantom (.5x) ___ _ _ ___ _ _ ___ _ _ ___ _ _
 72
    65
 73
     6
 40
31.75
 49
15.875
 74
     0
 49
-3.174999999999999
 74
     0
 49
3.174999999999999
 74
     0
 49
-3.174999999999999
 74
     0
 49
3.174999999999999
 74
     0
 49
-3.174999999999999
 74
     0
  0
LTYPE
  5
4DED
330
5
100
AcDbSymbolTableRecord
100
AcDbLinetypeTableRecord
  2
中線
 70
     0
  3
___________________
 72
    65
 73
     2
 40
2.0
 49
1.0
 74
     0
 49
1.0
 74
     0
  0
LTYPE
  5
4DF6
330
5
100
AcDbSymbolTableRecord
100
AcDbLinetypeTableRecord
  2
細線
 70
     0
  3
___________________
 72
    65
 73
     2
 40
2.0
 49
1.0
 74
     0
 49
1.0
 74
     0
  0
LTYPE
  5
4DF7
330
5
100
AcDbSymbolTableRecord
100
AcDbLinetypeTableRecord
  2
太線
 70
     0
  3
___________________
 72
    65
 73
     2
 40
2.0
 49
1.0
 74
     0
 49
1.0
 74
     0
  0
LTYPE
  5
4EA7
330
5
100
AcDbSymbolTableRecord
100
AcDbLinetypeTableRecord
  2
文字
 70
     0
  3
_________________
 72
    65
 73
     2
 40
2.0
 49
1.0
 74
     0
 49
1.0
 74
     0
  0
LTYPE
  5
4EA9
330
5
100
AcDbSymbolTableRecord
100
AcDbLinetypeTableRecord
  2
寸法線
 70
     0
  3
________________
 72
    65
 73
     2
 40
2.0
 49
1.0
 74
     0
 49
1.0
 74
     0
  0
LTYPE
  5
4F12
330
5
100
AcDbSymbolTableRecord
100
AcDbLinetypeTableRecord
  2
ハッチング
 70
     0
  3
_________________
 72
    65
 73
     2
 40
2.0
 49
1.0
 74
     0
 49
1.0
 74
     0
  0
LTYPE
  5
5180
330
5
100
AcDbSymbolTableRecord
100
AcDbLinetypeTableRecord
  2
陰線1
 70
     0
  3
__ __ __ __
 72
    65
 73
     2
 40
4.0
 49
2.2
 74
     0
 49
-1.8
 74
     0
  0
LTYPE
  5
5182
330
5
100
AcDbSymbolTableRecord
100
AcDbLinetypeTableRecord
  2
切断線
 70
     0
  3
/\/-/\/-/\/-/\/-/\/-/\/
 72
    65
 73
     2
 40
11.0001
 49
0.0001
 74
     4
 75
   135
340
56
 46
0.04
 50
0.0
 44
0.0
 45
0.0
 49
-11.0
 74
     0
  0
LTYPE
  5
5183
330
5
100
AcDbSymbolTableRecord
100
AcDbLinetypeTableRecord
  2
想像線1
 70
     0
  3
__ __ __ _____ __ __ ____
 72
    65
 73
     6
 40
14.5
 49
6.0
 74
     0
 49
-1.5
 74
     0
 49
2.0
 74
     0
 49
-1.5
 74
     0
 49
2.0
 74
     0
 49
-1.5
 74
     0
  0
LTYPE
  5
5185
330
5
100
AcDbSymbolTableRecord
100
AcDbLinetypeTableRecord
  2
中心線1
 70
     0
  3
___ _ ___ _ ___
 72
    65
 73
     4
 40
18.0
 49
12.0
 74
     0
 49
-2.0
 74
     0
 49
2.0
 74
     0
 49
-2.0
 74
     0
  0
LTYPE
  5
5188
330
5
100
AcDbSymbolTableRecord
100
AcDbLinetypeTableRecord
  2
補助線
 70
     0
  3
______________
 72
    65
 73
     2
 40
2.0
 49
1.0
 74
     0
 49
1.0
 74
     0
  0
LTYPE
  5
6427
330
5
100
AcDbSymbolTableRecord
100
AcDbLinetypeTableRecord
  2
HIDDEN
 70
     0
  3
Hidden __ __ __ __ __ __ __ __ __ __ __ __ __ _
 72
    65
 73
     2
 40
0.375
 49
0.25
 74
     0
 49
-0.125
 74
     0
  0
LTYPE
  5
AC81
330
5
100
AcDbSymbolTableRecord
100
AcDbLinetypeTableRecord
  2
破断線
 70
     0
  3
/\/-/\/-/\/-/\/-/\/-/\/
 72
    65
 73
     2
 40
0.4401
 49
0.0001
 74
     4
 75
   136
340
AC80
 46
0.0016
 50
0.0
 44
0.0
 45
0.0
 49
-0.4400000000000001
 74
     0
  0
LTYPE
  5
AC9E
330
5
100
AcDbSymbolTableRecord
100
AcDbLinetypeTableRecord
  2
Amzigzag
 70
     0
  3
/\/-/\/-/\/-/\/-/\/-/\/
 72
    65
 73
     2
 40
11.0001
 49
0.0001
 74
     4
 75
   135
340
56
 46
0.04
 50
0.0
 44
0.0
 45
0.0
 49
-11.0
 74
     0
  0
LTYPE
  5
AF0F
330
5
100
AcDbSymbolTableRecord
100
AcDbLinetypeTableRecord
  2
genzigzag
 70
     0
  3
/\/-/\/-/\/-/\/-/\/-/\/
 72
    65
 73
     2
 40
12.0001
 49
0.0001
 74
     4
 75
   135
340
AC80
 46
2.0
 50
0.0
 44
0.0
 45
0.0
 49
-12.0
 74
     0
  0
LTYPE
  5
AF95
330
5
100
AcDbSymbolTableRecord
100
AcDbLinetypeTableRecord
  2
AM_ISO08W050
 70
     0
  3
____ . ____ . ____ . ____ . ____ . ____ . ____
 72
    65
 73
     4
 40
18.0
 49
12.0
 74
     0
 49
-1.5
 74
     0
 49
3.0
 74
     0
 49
-1.5
 74
     0
  0
LTYPE
  5
AF96
330
5
100
AcDbSymbolTableRecord
100
AcDbLinetypeTableRecord
  2
AM_ISO09W050
 70
     0
  3
_____ . . _____ . . _____ . . ____ .. ____
 72
    65
 73
     6
 40
22.5
 49
12.0
 74
     0
 49
-1.5
 74
     0
 49
3.0
 74
     0
 49
-1.5
 74
     0
 49
3.0
 74
     0
 49
-1.5
 74
     0
  0
LTYPE
  5
AF97
330
5
100
AcDbSymbolTableRecord
100
AcDbLinetypeTableRecord
  2
AM_ISO08W050x2
 70
     0
  3
__ . __ . __ . __ . __ . __
 72
    65
 73
     4
 40
9.0
 49
6.0
 74
     0
 49
-0.75
 74
     0
 49
1.5
 74
     0
 49
-0.75
 74
     0
  0
LTYPE
  5
AF98
330
5
100
AcDbSymbolTableRecord
100
AcDbLinetypeTableRecord
  2
AM_ISO02W050x2
 70
     0
  3
 _ _ _ _ _ _ _ _ _ _ _ _
 72
    65
 73
     2
 40
3.75
 49
3.0
 74
     0
 49
-0.75
 74
     0
  0
LTYPE
  5
B81E
330
5
100
AcDbSymbolTableRecord
100
AcDbLinetypeTableRecord
  2
DASHED
 70
     0
  3
__ __ __ __ __ __ __ __ __ __ __ __ __ __ __
 72
    65
 73
     2
 40
3.5
 49
2.0
 74
     0
 49
-1.5
 74
     0
  0
LTYPE
  5
B81F
330
5
100
AcDbSymbolTableRecord
100
AcDbLinetypeTableRecord
  2
PHANTOM
 70
     0
  3
_____ _ _ _____ _ _ _____ _ _ _____ _ _ ____  
 72
    65
 73
     6
 40
15.5
 49
8.0
 74
     0
 49
-1.5
 74
     0
 49
1.5
 74
     0
 49
-1.5
 74
     0
 49
1.5
 74
     0
 49
-1.5
 74
     0
  0
ENDTAB
  0
TABLE
  2
LAYER
  5
2
102
{ACAD_XDICTIONARY
360
3F95
102
}
330
0
100
AcDbSymbolTable
 70
    22
  0
LAYER
  5
10
330
2
100
AcDbSymbolTableRecord
100
AcDbLayerTableRecord
  2
0
 70
     0
 62
     7
  6
Continuous
370
    -3
390
F
347
B0F0
  0
LAYER
  5
6D1
330
2
100
AcDbSymbolTableRecord
100
AcDbLayerTableRecord
  2
Defpoints
 70
     0
 62
     7
  6
Continuous
290
     0
370
    -3
390
F
347
B0F0
  0
LAYER
  5
5F85
330
2
100
AcDbSymbolTableRecord
100
AcDbLayerTableRecord
  2
AM_0
 70
     0
 62
     7
  6
中線
370
    30
390
F
347
B0F0
1001
AcAecLayerStandard
1000

1000

  0
LAYER
  5
AC9F
330
2
100
AcDbSymbolTableRecord
100
AcDbLayerTableRecord
  2
size
 70
     0
 62
     5
  6
Continuous
290
     0
370
    30
390
F
347
B0F0
  0
LAYER
  5
ACA0
330
2
100
AcDbSymbolTableRecord
100
AcDbLayerTableRecord
  2
waku
 70
     0
 62
     7
  6
Continuous
370
    40
390
F
347
B0F0
  0
LAYER
  5
ACA1
330
2
100
AcDbSymbolTableRecord
100
AcDbLayerTableRecord
  2
AM_6
 70
     0
 62
     2
  6
文字
370
    13
390
F
347
B0F0
1001
AcAecLayerStandard
1000

1000

  0
LAYER
  5
ACC8
330
2
100
AcDbSymbolTableRecord
100
AcDbLayerTableRecord
  2
hyomoji
 70
     0
 62
     2
  6
Continuous
370
    13
390
F
347
B0F0
  0
LAYER
  5
ACC9
330
2
100
AcDbSymbolTableRecord
100
AcDbLayerTableRecord
  2
hyosen1
 70
     0
 62
     1
  6
Continuous
370
    30
390
F
347
B0F0
  0
LAYER
  5
ACCA
330
2
100
AcDbSymbolTableRecord
100
AcDbLayerTableRecord
  2
hyosen2
 70
     0
 62
     1
  6
Continuous
370
    13
390
F
347
B0F0
  0
LAYER
  5
AD60
330
2
100
AcDbSymbolTableRecord
100
AcDbLayerTableRecord
  2
AM_1
 70
     0
 62
    30
  6
太線
370
    40
390
F
347
B0F0
1001
AcAecLayerStandard
1000

1000

  0
LAYER
  5
AD64
330
2
100
AcDbSymbolTableRecord
100
AcDbLayerTableRecord
  2
AM_2
 70
     0
 62
     1
  6
細線
370
    13
390
F
347
B0F0
1001
AcAecLayerStandard
1000

1000

  0
LAYER
  5
AD67
330
2
100
AcDbSymbolTableRecord
100
AcDbLayerTableRecord
  2
AM_3
 70
     0
 62
     6
  6
陰線1
370
    13
390
F
347
B0F0
1001
AcAecLayerStandard
1000

1000

  0
LAYER
  5
AD68
330
2
100
AcDbSymbolTableRecord
100
AcDbLayerTableRecord
  2
AM_5
 70
     0
 62
     3
  6
寸法線
370
    13
390
F
347
B0F0
1001
AcAecLayerStandard
1000

1000

  0
LAYER
  5
AD69
330
2
100
AcDbSymbolTableRecord
100
AcDbLayerTableRecord
  2
AM_7
 70
     0
 62
     4
  6
中心線1
370
    13
390
F
347
B0F0
1001
AcAecLayerStandard
1000

1000

  0
LAYER
  5
AD6A
330
2
100
AcDbSymbolTableRecord
100
AcDbLayerTableRecord
  2
AM_8
 70
     0
 62
     1
  6
ハッチング
370
    13
390
F
347
B0F0
1001
AcAecLayerStandard
1000

1000

  0
LAYER
  5
AD6E
330
2
100
AcDbSymbolTableRecord
100
AcDbLayerTableRecord
  2
AM_10
 70
     0
 62
     7
  6
切断線
370
    30
390
F
347
B0F0
1001
AcAecLayerStandard
1000

1000

  0
LAYER
  5
AD6F
330
2
100
AcDbSymbolTableRecord
100
AcDbLayerTableRecord
  2
AM_11
 70
     0
 62
     2
  6
想像線1
370
    13
390
F
347
B0F0
1001
AcAecLayerStandard
1000

1000

  0
LAYER
  5
B1B6
330
2
100
AcDbSymbolTableRecord
100
AcDbLayerTableRecord
  2
AM_CL
 70
     0
 62
     1
  6
Amconstr
370
     9
390
F
347
B0F0
1001
AcAecLayerStandard
1000

1000

  0
LAYER
  5
B2EB
330
2
100
AcDbSymbolTableRecord
100
AcDbLayerTableRecord
  2
AM_14
 70
     0
 62
     5
  6
細線
370
     9
390
F
347
B0F0
1001
AcAecLayerStandard
1000

1000

  0
LAYER
  5
B2EC
330
2
100
AcDbSymbolTableRecord
100
AcDbLayerTableRecord
  2
AM_15
 70
     0
 62
     6
  6
陰線1
370
     9
390
F
347
B0F0
1001
AcAecLayerStandard
1000

1000

  0
LAYER
  5
B820
330
2
100
AcDbSymbolTableRecord
100
AcDbLayerTableRecord
  2
PV0001_1
 70
     0
 62
     7
  6
Continuous
370
    -3
390
F
347
B0F0
  0
LAYER
  5
B821
330
2
100
AcDbSymbolTableRecord
100
AcDbLayerTableRecord
  2
0DFB-2020
 70
     0
 62
   140
  6
Continuous
370
    25
390
F
347
B0F0
1001
AcAecLayerStandard
1000

1000

  0
ENDTAB
  0
TABLE
  2
STYLE
  5
3
330
0
100
AcDbSymbolTable
 70
     7
  0
STYLE
  5
11
330
3
100
AcDbSymbolTableRecord
100
AcDbTextStyleTableRecord
  2
STANDARD
 70
     0
 40
0.0
 41
0.7
 50
0.0
 71
     0
 42
3.2
  3
romans.shx
  4
extfont.shx
  0
STYLE
  5
56
330
3
100
AcDbSymbolTableRecord
100
AcDbTextStyleTableRecord
  2

 70
     1
 40
0.0
 41
1.0
 50
0.0
 71
     0
 42
2.5
  3
ltypeshp.shx
  4

  0
STYLE
  5
58
330
3
100
AcDbSymbolTableRecord
100
AcDbTextStyleTableRecord
  2
ACISOTS
 70
     0
 40
1.0
 41
1.0
 50
0.0
 71
     0
 42
2.5
  3
isocp.shx
  4
extfont.shx
  0
STYLE
  5
63
330
3
100
AcDbSymbolTableRecord
100
AcDbTextStyleTableRecord
  2
ACISOGDT
 70
     0
 40
0.0
 41
1.0
 50
0.0
 71
     0
 42
2.5
  3
amgdt.shx
  4

  0
STYLE
  5
A74
330
3
100
AcDbSymbolTableRecord
100
AcDbTextStyleTableRecord
  2
DIM
 70
     0
 40
0.0
 41
1.0
 50
0.0
 71
     0
 42
2.5
  3
monotxt.shx
  4
extfont.shx
  0
STYLE
  5
AC80
330
3
100
AcDbSymbolTableRecord
100
AcDbTextStyleTableRecord
  2

 70
     1
 40
0.0
 41
1.0
 50
0.0
 71
     0
 42
3.2
  3
genltshp.shx
  4

  0
ENDTAB
  0
TABLE
  2
VIEW
  5
6
330
0
100
AcDbSymbolTable
 70
     6
  0
VIEW
  5
AE1
330
6
100
AcDbSymbolTableRecord
100
AcDbViewTableRecord
  2
AM_VIEW1
 70
     0
 40
129.7276464542651
 10
1775.10588156276
 20
1793.121228859297
 41
148.5
 11
0.0
 21
0.0
 31
1.0
 12
0.0
 22
0.0
 32
0.0
 42
50.0
 43
-1370.695619172058
 44
-1370.695619172058
 50
0.0
 71
    16
281
     0
 72
     0
 73
     0
348
B0F7
  0
VIEW
  5
AE2
330
6
100
AcDbSymbolTableRecord
100
AcDbViewTableRecord
  2
AM_VIEW2
 70
     0
 40
129.7276464542651
 10
1923.60588156276
 20
1793.121228859297
 41
148.5
 11
0.0
 21
0.0
 31
1.0
 12
0.0
 22
0.0
 32
0.0
 42
50.0
 43
-1370.695619172058
 44
-1370.695619172058
 50
0.0
 71
    16
281
     0
 72
     0
 73
     0
348
B0F7
  0
VIEW
  5
AE3
330
6
100
AcDbSymbolTableRecord
100
AcDbViewTableRecord
  2
AM_VIEW3
 70
     0
 40
129.7276464542651
 10
1775.10588156276
 20
1712.848875313562
 41
148.5
 11
0.0
 21
0.0
 31
1.0
 12
0.0
 22
0.0
 32
0.0
 42
50.0
 43
-1370.695619172058
 44
-1370.695619172058
 50
0.0
 71
    16
281
     0
 72
     0
 73
     0
348
B0F7
  0
VIEW
  5
AE4
330
6
100
AcDbSymbolTableRecord
100
AcDbViewTableRecord
  2
AM_VIEW4
 70
     0
 40
129.7276464542651
 10
1923.60588156276
 20
1712.848875313562
 41
148.5
 11
0.0
 21
0.0
 31
1.0
 12
0.0
 22
0.0
 32
0.0
 42
50.0
 43
-1370.695619172058
 44
-1370.695619172058
 50
0.0
 71
    16
281
     0
 72
     0
 73
     0
348
B0F7
  0
VIEW
  5
AE5
330
6
100
AcDbSymbolTableRecord
100
AcDbViewTableRecord
  2
AM_VIEW5
 70
     0
 40
129.7276464542651
 10
1849.35588156276
 20
1752.985052086429
 41
148.5
 11
0.0
 21
0.0
 31
1.0
 12
0.0
 22
0.0
 32
0.0
 42
50.0
 43
-1370.695619172058
 44
-1370.695619172058
 50
0.0
 71
    16
281
     0
 72
     0
 73
     0
348
B0F7
  0
VIEW
  5
AE6
330
6
100
AcDbSymbolTableRecord
100
AcDbViewTableRecord
  2
AM_VIEW6
 70
     0
 40
259.4526983556011
 10
1849.35588156276
 20
1752.985052086429
 41
296.99703
 11
0.0
 21
0.0
 31
1.0
 12
0.0
 22
0.0
 32
0.0
 42
50.0
 43
-1370.695619172058
 44
-1370.695619172058
 50
0.0
 71
    16
281
     0
 72
     0
 73
     0
348
B0F7
  0
ENDTAB
  0
TABLE
  2
UCS
  5
7
330
0
100
AcDbSymbolTable
 70
     0
  0
ENDTAB
  0
TABLE
  2
APPID
  5
9
330
0
100
AcDbSymbolTable
 70
    55
  0
APPID
  5
12
330
9
100
AcDbSymbolTableRecord
100
AcDbRegAppTableRecord
  2
ACAD
 70
     0
  0
APPID
  5
30
330
9
100
AcDbSymbolTableRecord
100
AcDbRegAppTableRecord
  2
MCAD_NO_VIS
 70
     0
  0
APPID
  5
31
330
9
100
AcDbSymbolTableRecord
100
AcDbRegAppTableRecord
  2
ACAD_TEMP_GRAPHIC
 70
     0
  0
APPID
  5
44
330
9
100
AcDbSymbolTableRecord
100
AcDbRegAppTableRecord
  2
ACATTRIBSERVICES
 70
     0
  0
APPID
  5
7A1
330
9
100
AcDbSymbolTableRecord
100
AcDbRegAppTableRecord
  2
GENIUS_GENDIMSH_14
 70
     0
  0
APPID
  5
A49
330
9
100
AcDbSymbolTableRecord
100
AcDbRegAppTableRecord
  2
GENIUS_GENREC_14
 70
     0
  0
APPID
  5
A4A
330
9
100
AcDbSymbolTableRecord
100
AcDbRegAppTableRecord
  2
GENIUS_GENOBJ-N-REC_13
 70
     0
  0
APPID
  5
A4B
330
9
100
AcDbSymbolTableRecord
100
AcDbRegAppTableRecord
  2
GENIUS_GENODEF_13
 70
     0
  0
APPID
  5
A4C
330
9
100
AcDbSymbolTableRecord
100
AcDbRegAppTableRecord
  2
DCO15
 70
     0
  0
APPID
  5
ADC
330
9
100
AcDbSymbolTableRecord
100
AcDbRegAppTableRecord
  2
GENIUS_GENOLIS_13
 70
     0
  0
APPID
  5
ADD
330
9
100
AcDbSymbolTableRecord
100
AcDbRegAppTableRecord
  2
GENIUS_GENOENT_13
 70
     0
  0
APPID
  5
ADE
330
9
100
AcDbSymbolTableRecord
100
AcDbRegAppTableRecord
  2
GENIUS_GENOBJ-N-TIT_13
 70
     0
  0
APPID
  5
ADF
330
9
100
AcDbSymbolTableRecord
100
AcDbRegAppTableRecord
  2
GENIUS_GENTITLE_13
 70
     0
  0
APPID
  5
AE0
330
9
100
AcDbSymbolTableRecord
100
AcDbRegAppTableRecord
  2
GENIUS_GENOREF_13
 70
     0
  0
APPID
  5
AE7
330
9
100
AcDbSymbolTableRecord
100
AcDbRegAppTableRecord
  2
GENIUS_GENSCREG_15
 70
     0
  0
APPID
  5
AE8
330
9
100
AcDbSymbolTableRecord
100
AcDbRegAppTableRecord
  2
GENIUS_GENOBJ-N-SDF_13
 70
     0
  0
APPID
  5
FAF
330
9
100
AcDbSymbolTableRecord
100
AcDbRegAppTableRecord
  2
GENIUS_GENBLLY_14
 70
     0
  0
APPID
  5
FB0
330
9
100
AcDbSymbolTableRecord
100
AcDbRegAppTableRecord
  2
GENIUS_GENTRA_14
 70
     0
  0
APPID
  5
1285
330
9
100
AcDbSymbolTableRecord
100
AcDbRegAppTableRecord
  2
GENIUS_GENDTOL_13
 70
     0
  0
APPID
  5
142D
330
9
100
AcDbSymbolTableRecord
100
AcDbRegAppTableRecord
  2
GENIUS_GENOBJ-N-CEN_13
 70
     0
  0
APPID
  5
1AB5
330
9
100
AcDbSymbolTableRecord
100
AcDbRegAppTableRecord
  2
GENIUS_GENOBJ-N-CRS_13
 70
     0
  0
APPID
  5
1B36
330
9
100
AcDbSymbolTableRecord
100
AcDbRegAppTableRecord
  2
GENIUS_GENOBJ-N-HTC_13
 70
     0
  0
APPID
  5
1B37
330
9
100
AcDbSymbolTableRecord
100
AcDbRegAppTableRecord
  2
GENIUS_GENHATCH_13
 70
     0
  0
APPID
  5
216D
330
9
100
AcDbSymbolTableRecord
100
AcDbRegAppTableRecord
  2
GENIUS_GENOBJ-N-FIL_13
 70
     0
  0
APPID
  5
2356
330
9
100
AcDbSymbolTableRecord
100
AcDbRegAppTableRecord
  2
GEVID990412420
 70
     0
  0
APPID
  5
2357
330
9
100
AcDbSymbolTableRecord
100
AcDbRegAppTableRecord
  2
GEVDC
 70
     0
  0
APPID
  5
2358
330
9
100
AcDbSymbolTableRecord
100
AcDbRegAppTableRecord
  2
GEVCON
 70
     0
  0
APPID
  5
235B
330
9
100
AcDbSymbolTableRecord
100
AcDbRegAppTableRecord
  2
GEVRADREF
 70
     0
  0
APPID
  5
2360
330
9
100
AcDbSymbolTableRecord
100
AcDbRegAppTableRecord
  2
GENIUS_GENBH_13
 70
     0
  0
APPID
  5
2362
330
9
100
AcDbSymbolTableRecord
100
AcDbRegAppTableRecord
  2
GENIUS_GENOBJ-NBEHI-BHF_13
 70
     0
  0
APPID
  5
2364
330
9
100
AcDbSymbolTableRecord
100
AcDbRegAppTableRecord
  2
GENIUS_GENOBJ-NBEHI-BHB_13
 70
     0
  0
APPID
  5
2379
330
9
100
AcDbSymbolTableRecord
100
AcDbRegAppTableRecord
  2
GENIUS_GENOBJ-F-SCPASSM_13
 70
     0
  0
APPID
  5
3D74
330
9
100
AcDbSymbolTableRecord
100
AcDbRegAppTableRecord
  2
GENIUS_GENDIM_13
 70
     0
  0
APPID
  5
3D76
330
9
100
AcDbSymbolTableRecord
100
AcDbRegAppTableRecord
  2
GENIUS_GE3DTOL_13
 70
     0
  0
APPID
  5
3D9C
330
9
100
AcDbSymbolTableRecord
100
AcDbRegAppTableRecord
  2
AD_DRAW
 70
     0
  0
APPID
  5
3DE8
330
9
100
AcDbSymbolTableRecord
100
AcDbRegAppTableRecord
  2
ASURF_PCURVE_APPNAME
 70
     0
  0
APPID
  5
3DED
330
9
100
AcDbSymbolTableRecord
100
AcDbRegAppTableRecord
  2
AMG_3D2D_5.0
 70
     0
  0
APPID
  5
3E1B
330
9
100
AcDbSymbolTableRecord
100
AcDbRegAppTableRecord
  2
DESIGNERASSEMBLIES
 70
     0
  0
APPID
  5
3E20
330
9
100
AcDbSymbolTableRecord
100
AcDbRegAppTableRecord
  2
ACADM_DIM_EDIT
 70
     0
  0
APPID
  5
3E21
330
9
100
AcDbSymbolTableRecord
100
AcDbRegAppTableRecord
  2
AMDT_DM_ADJ
 70
     0
  0
APPID
  5
4143
330
9
100
AcDbSymbolTableRecord
100
AcDbRegAppTableRecord
  2
GENIUS_GENFIL_13
 70
     0
  0
APPID
  5
4144
330
9
100
AcDbSymbolTableRecord
100
AcDbRegAppTableRecord
  2
GENIUS_GENOBJ-N-CHA_13
 70
     0
  0
APPID
  5
4E17
330
9
100
AcDbSymbolTableRecord
100
AcDbRegAppTableRecord
  2
GEVID1008153417
 70
     0
  0
APPID
  5
4E58
330
9
100
AcDbSymbolTableRecord
100
AcDbRegAppTableRecord
  2
GEVID1008153418
 70
     0
  0
APPID
  5
4E5E
330
9
100
AcDbSymbolTableRecord
100
AcDbRegAppTableRecord
  2
GEVID1008153419
 70
     0
  0
APPID
  5
4E64
330
9
100
AcDbSymbolTableRecord
100
AcDbRegAppTableRecord
  2
GEVID1008153420
 70
     0
  0
APPID
  5
4E75
330
9
100
AcDbSymbolTableRecord
100
AcDbRegAppTableRecord
  2
GEVID1008153421
 70
     0
  0
APPID
  5
4EB7
330
9
100
AcDbSymbolTableRecord
100
AcDbRegAppTableRecord
  2
GENIUS_AMGTXT_16
 70
     0
  0
APPID
  5
7645
330
9
100
AcDbSymbolTableRecord
100
AcDbRegAppTableRecord
  2
GENIUS_GENOBJ-N-DIM_13
 70
     0
  0
APPID
  5
AAD0
330
9
100
AcDbSymbolTableRecord
100
AcDbRegAppTableRecord
  2
ACAD_DSTYLE_DIMARC_LENGTH_SYMBOL
 70
     0
  0
APPID
  5
AAD1
330
9
100
AcDbSymbolTableRecord
100
AcDbRegAppTableRecord
  2
ACAD_DSTYLE_DIMJOGGED_JOGANGLE_SYMBOL
 70
     0
  0
APPID
  5
AAFD
330
9
100
AcDbSymbolTableRecord
100
AcDbRegAppTableRecord
  2
ACAD_PSEXT
 70
     0
  0
APPID
  5
AD61
330
9
100
AcDbSymbolTableRecord
100
AcDbRegAppTableRecord
  2
AcAecLayerStandard
 70
     0
  0
APPID
  5
AEE3
330
9
100
AcDbSymbolTableRecord
100
AcDbRegAppTableRecord
  2
ACAD_EXEMPT_FROM_CAD_STANDARDS
 70
     0
  0
APPID
  5
B1BE
330
9
100
AcDbSymbolTableRecord
100
AcDbRegAppTableRecord
  2
GENIUS_GENCEN_19
 70
     0
  0
ENDTAB
  0
TABLE
  2
DIMSTYLE
  5
A
330
0
100
AcDbSymbolTable
 70
    20
100
AcDbDimStyleTable
 71
     4
340
2515
340
A76
340
251B
340
251A
  0
DIMSTYLE
105
A76
330
A
100
AcDbSymbolTableRecord
100
AcDbDimStyleTableRecord
  2
STANDARD
 70
     0
 41
3.0
 42
1.0
 43
7.0
 44
2.0
 73
     0
 74
     0
 77
     1
140
2.799999999999999
141
0.0
143
0.0394
147
0.7
171
     4
172
     1
173
     1
176
     3
177
     3
178
     2
271
     3
272
     3
273
     8
274
     4
289
     0
340
A74
341
A66
343
A66
344
A66
  0
DIMSTYLE
105
2515
330
A
100
AcDbSymbolTableRecord
100
AcDbDimStyleTableRecord
  2
SYS
 70
     0
  4
"
 41
1.0
 42
1.0
 43
10.0
 44
1.0
 47
0.1
 48
0.1
 73
     0
 74
     0
 77
     1
 78
     8
 79
     2
 90
     1
140
3.5
141
0.0
143
0.0393701
146
0.71
147
1.5
172
     1
176
   256
177
   256
178
     7
271
     2
272
     2
283
     0
284
     8
340
11
371
    -1
372
    -1
1001
ACAD_DSTYLE_DIMJOGGED_JOGANGLE_SYMBOL
1070
   384
1040
0.7853981633974483
  0
DIMSTYLE
105
2516
102
{ACAD_REACTORS
330
E64E
102
}
330
A
100
AcDbSymbolTableRecord
100
AcDbDimStyleTableRecord
  2
SYS$3
 70
     0
  4
"
 41
2.0
 42
1.0
 43
10.0
 44
1.0
 47
0.1
 48
0.1
 73
     0
 77
     1
 78
     8
 79
     2
 90
     1
140
3.200000000000001
141
0.0
143
0.0393701
146
0.71
147
1.5
176
   256
177
   256
178
     2
271
     2
272
     2
283
     0
284
     8
288
     1
340
11
342
A66
371
    -1
372
    -1
1001
ACAD_DSTYLE_DIMJOGGED_JOGANGLE_SYMBOL
1070
   384
1040
0.7853981633974483
  0
DIMSTYLE
105
2517
330
A
100
AcDbSymbolTableRecord
100
AcDbDimStyleTableRecord
  2
SYS$4
 70
     0
  4
"
 41
2.0
 42
1.0
 43
10.0
 44
1.0
 47
0.1
 48
0.1
 73
     0
 77
     1
 78
     8
 79
     2
 90
     1
140
3.200000000000001
141
0.0
143
0.0393701
146
0.71
147
1.5
173
     1
176
   256
177
   256
178
     2
271
     2
272
     2
283
     0
284
     8
288
     1
340
11
344
A66
371
    -1
372
    -1
1001
ACAD_DSTYLE_DIMJOGGED_JOGANGLE_SYMBOL
1070
   384
1040
0.7853981633974483
  0
DIMSTYLE
105
2518
330
A
100
AcDbSymbolTableRecord
100
AcDbDimStyleTableRecord
  2
SYS$6
 70
     0
  4
"
 41
2.0
 42
1.0
 43
10.0
 44
1.0
 47
0.1
 48
0.1
 73
     0
 74
     0
 78
     8
 79
     2
 90
     1
140
3.5
141
0.0
143
0.0393701
146
0.71
147
1.5
172
     1
176
   256
177
   256
178
     2
271
     2
272
     2
283
     0
284
     8
340
11
341
A66
371
    -1
372
    -1
1001
ACAD_DSTYLE_DIMJOGGED_JOGANGLE_SYMBOL
1070
   384
1040
0.7853981633974483
  0
DIMSTYLE
105
2519
330
A
100
AcDbSymbolTableRecord
100
AcDbDimStyleTableRecord
  2
SYS$7
 70
     0
  4
"
 41
2.0
 42
1.0
 43
10.0
 44
1.0
 47
0.1
 48
0.1
 73
     0
 74
     0
 77
     1
 78
     8
 79
     2
 90
     1
140
3.200000000000006
141
0.0
143
0.0393701
146
0.71
147
1.5
172
     1
176
   256
177
   256
178
     2
271
     2
272
     2
283
     0
284
     8
340
11
341
A66
342
A66
371
    -1
372
    -1
1001
ACAD_DSTYLE_DIMJOGGED_JOGANGLE_SYMBOL
1070
   384
1040
0.7853981633974483
  0
DIMSTYLE
105
251A
330
A
100
AcDbSymbolTableRecord
100
AcDbDimStyleTableRecord
  2
SYS$SF
 70
     0
  4
"
 41
2.5
 42
1.0
 43
10.0
 44
1.0
 47
0.1
 48
0.1
 73
     0
 74
     0
 75
     1
 76
     1
 77
     1
 78
     8
 79
     2
 90
     1
140
3.200000000000001
141
0.0
143
0.0393701
146
0.71
147
1.5
172
     1
176
   256
177
   256
178
     2
271
     2
272
     2
283
     0
284
     8
340
11
341
6C4
342
6C4
371
    -1
372
    -1
1001
ACAD_DSTYLE_DIMJOGGED_JOGANGLE_SYMBOL
1070
   384
1040
0.7853981633974483
  0
DIMSTYLE
105
251B
330
A
100
AcDbSymbolTableRecord
100
AcDbDimStyleTableRecord
  2
SYS$SH
 70
     0
  4
"
 41
2.5
 42
1.0
 43
10.0
 44
1.0
 47
0.1
 48
0.1
 73
     0
 74
     0
 75
     1
 76
     1
 77
     1
 78
     8
 79
     2
 90
     1
140
3.200000000000001
141
0.0
143
0.0393701
144
2.0
146
0.71
147
1.5
172
     1
173
     1
176
   256
177
   256
178
     2
271
     2
272
     2
283
     0
284
     8
340
11
341
6C4
343
72
344
6C4
371
    -1
372
    -1
1001
ACAD_DSTYLE_DIMJOGGED_JOGANGLE_SYMBOL
1070
   384
1040
0.7853981633974483
  0
DIMSTYLE
105
2A59
330
A
100
AcDbSymbolTableRecord
100
AcDbDimStyleTableRecord
  2
SYS$2
 70
     0
  4
"
 41
1.0
 42
1.0
 43
10.0
 44
1.0
 47
0.1
 48
0.1
 73
     0
 74
     0
 77
     1
 78
     8
 79
     2
 90
     1
140
3.200000000000001
141
0.0
143
0.0393701
146
0.71
147
1.5
172
     1
176
   256
177
   256
178
     2
271
     2
272
     2
283
     0
284
     8
340
11
342
6C4
371
    -1
372
    -1
1001
ACAD_DSTYLE_DIMJOGGED_JOGANGLE_SYMBOL
1070
   384
1040
0.7853981633974483
  0
DIMSTYLE
105
2AAB
102
{ACAD_REACTORS
330
E4A5
330
E4F0
330
E508
330
E527
330
E5F9
330
E638
330
E8B3
330
E8B4
330
E8B8
330
EAA3
330
EB43
330
EB8C
330
EBCA
330
EBF2
330
EC2C
330
ED1D
330
ED4E
330
EDF2
330
EE22
102
}
330
A
100
AcDbSymbolTableRecord
100
AcDbDimStyleTableRecord
  2
SYS$0
 70
     0
  4
"
 41
1.0
 42
1.0
 43
10.0
 44
1.0
 47
0.1
 48
0.1
 73
     0
 74
     0
 77
     1
 78
     8
 79
     2
 90
     1
140
3.200000000000001
141
0.0
143
0.0393701
146
0.71
147
1.5
172
     1
176
   256
177
   256
178
     2
271
     2
272
     2
283
     0
284
     8
340
11
341
A66
342
6C4
371
    -1
372
    -1
1001
ACAD_DSTYLE_DIMJOGGED_JOGANGLE_SYMBOL
1070
   384
1040
0.7853981633974483
  0
DIMSTYLE
105
AF99
330
A
100
AcDbSymbolTableRecord
100
AcDbDimStyleTableRecord
  2
AM_ISO
 70
     0
  4
"
 41
2.5
 42
1.0
 43
10.0
 44
1.0
 47
0.1
 48
0.1
 73
     0
 74
     0
 77
     1
 78
     8
 79
     2
140
3.5
141
0.0
143
0.0393701
146
0.71
147
1.5
172
     1
176
   256
177
   256
178
     2
271
     2
272
     3
274
     4
283
     0
284
     8
340
11
371
    -1
372
    -1
  0
DIMSTYLE
105
AF9A
330
A
100
AcDbSymbolTableRecord
100
AcDbDimStyleTableRecord
  2
AM_ISO$3
 70
     0
  4
"
 41
2.5
 42
1.0
 43
10.0
 44
1.0
 47
0.1
 48
0.1
 73
     0
 77
     1
 78
     8
 79
     2
140
3.5
141
0.0
143
0.0393701
146
0.71
147
1.5
176
   256
177
   256
178
     2
271
     2
272
     3
274
     4
283
     0
284
     8
288
     1
289
     0
340
11
371
    -1
372
    -1
  0
DIMSTYLE
105
AF9B
330
A
100
AcDbSymbolTableRecord
100
AcDbDimStyleTableRecord
  2
AM_ISO$4
 70
     0
  4
"
 41
2.5
 42
1.0
 43
10.0
 44
1.0
 47
0.1
 48
0.1
 73
     0
 77
     1
 78
     8
 79
     2
140
3.5
141
0.0
143
0.0393701
146
0.71
147
1.5
176
   256
177
   256
178
     2
271
     2
272
     3
274
     4
283
     0
284
     8
288
     1
289
     0
340
11
371
    -1
372
    -1
  0
DIMSTYLE
105
AF9C
330
A
100
AcDbSymbolTableRecord
100
AcDbDimStyleTableRecord
  2
AM_ISO$6
 70
     0
  4
"
 41
2.5
 42
1.0
 43
10.0
 44
1.0
 47
0.1
 48
0.1
 73
     0
 74
     0
 78
     8
 79
     2
140
3.5
141
0.0
143
0.0393701
146
0.71
147
1.5
172
     1
176
   256
177
   256
178
     2
271
     2
272
     3
274
     4
283
     0
284
     8
340
11
371
    -1
372
    -1
  0
DIMSTYLE
105
AF9D
330
A
100
AcDbSymbolTableRecord
100
AcDbDimStyleTableRecord
  2
AM_ISO$7
 70
     0
  4
"
 41
2.5
 42
1.0
 43
10.0
 44
1.0
 47
0.1
 48
0.1
 73
     0
 74
     0
 77
     1
 78
     8
 79
     2
140
5.0
141
0.0
143
0.0393701
146
0.71
147
1.5
172
     1
176
   256
177
   256
178
     2
271
     2
272
     3
274
     4
283
     0
284
     8
340
11
371
    -1
372
    -1
  0
DIMSTYLE
105
AF9E
330
A
100
AcDbSymbolTableRecord
100
AcDbDimStyleTableRecord
  2
AM_ISO$SF
 70
     0
  4
"
 41
2.5
 42
1.0
 43
10.0
 44
1.0
 47
0.1
 48
0.1
 73
     0
 74
     0
 75
     1
 76
     1
 77
     1
 78
     8
 79
     2
140
3.5
141
0.0
143
0.0393701
146
0.71
147
1.5
172
     1
176
   256
177
   256
178
     2
271
     2
272
     3
274
     4
283
     0
284
     8
340
11
371
    -1
372
    -1
  0
DIMSTYLE
105
AF9F
330
A
100
AcDbSymbolTableRecord
100
AcDbDimStyleTableRecord
  2
AM_ISO$SH
 70
     0
  4
"
 41
2.5
 42
1.0
 43
10.0
 44
1.0
 47
0.1
 48
0.1
 73
     0
 74
     0
 75
     1
 76
     1
 77
     1
 78
     8
 79
     2
140
3.5
141
0.0
143
0.0393701
144
2.0
146
0.71
147
1.5
172
     1
173
     1
176
   256
177
   256
178
     2
271
     2
272
     3
274
     4
283
     0
284
     8
340
11
343
72
371
    -1
372
    -1
  0
DIMSTYLE
105
B822
330
A
100
AcDbSymbolTableRecord
100
AcDbDimStyleTableRecord
  2
AM_ISO$0
 70
     0
  4
"
 41
0.8
 42
1.0
 43
10.0
 44
1.0
 47
0.1
 48
0.1
 73
     0
 74
     0
 77
     1
 78
     8
 79
     2
 90
     1
140
3.2
141
0.0
143
0.0393701
146
0.71
147
0.9999999999999996
172
     1
176
   256
177
   256
178
     2
271
     2
272
     2
283
     0
284
     8
340
11
341
6C4
342
6C4
371
    -1
372
    -1
1001
ACAD_DSTYLE_DIMJOGGED_JOGANGLE_SYMBOL
1070
   384
1040
0.7853981633974483
  0
DIMSTYLE
105
B823
330
A
100
AcDbSymbolTableRecord
100
AcDbDimStyleTableRecord
  2
AM_ISO$2
 70
     0
  4
"
 41
0.8
 42
1.0
 43
10.0
 44
1.0
 47
0.1
 48
0.1
 73
     0
 74
     0
 77
     3
 78
     8
 79
     2
 90
     1
140
3.200000000000001
141
0.0
143
0.0393701
146
0.71
147
0.9999999999999996
172
     1
176
   256
177
   256
178
     2
271
     2
272
     2
283
     0
284
     8
340
11
342
6C4
371
    -1
372
    -1
1001
ACAD_DSTYLE_DIMJOGGED_JOGANGLE_SYMBOL
1070
   384
1040
0.7853981633974483
  0
ENDTAB
  0
TABLE
  2
BLOCK_RECORD
  5
1
330
0
100
AcDbSymbolTable
 70
    44
  0
BLOCK_RECORD
  5
1F
102
{ACAD_XDICTIONARY
360
8A
102
}
330
1
100
AcDbSymbolTableRecord
100
AcDbBlockTableRecord
  2
*Model_Space
340
22
 70
     0
280
     1
281
     0
  0
BLOCK_RECORD
  5
1B
330
1
100
AcDbSymbolTableRecord
100
AcDbBlockTableRecord
  2
*Paper_Space
340
1E
 70
     0
280
     1
281
     0
  0
BLOCK_RECORD
  5
23
330
1
100
AcDbSymbolTableRecord
100
AcDbBlockTableRecord
  2
*Paper_Space0
340
26
 70
     0
280
     1
281
     0
  0
BLOCK_RECORD
  5
72
330
1
100
AcDbSymbolTableRecord
100
AcDbBlockTableRecord
  2
GENAXEH
340
0
 70
     0
280
     1
281
     0
  0
BLOCK_RECORD
  5
6C4
330
1
100
AcDbSymbolTableRecord
100
AcDbBlockTableRecord
  2
_Dot
340
0
102
{BLKREFS
331
F1B6
331
F1B7
331
F1BF
331
F1C0
331
F1C8
331
F1C9
331
F1D1
331
F1D2
331
F1D9
331
F1DA
331
F1E2
331
F1E3
331
F1EB
331
F1EC
331
F1F6
331
F1F7
331
F201
331
F202
331
F20A
331
F20B
331
F213
331
F214
331
F21C
331
F21D
331
F225
331
F226
331
F22E
331
F22F
331
F237
331
F238
331
F240
331
F241
331
F249
331
F24A
331
F252
331
F253
331
F25A
331
F262
331
F276
331
F277
331
F27F
331
F280
331
F288
331
F289
331
F291
331
F292
331
F29B
331
F29C
331
F2A4
331
F2A5
331
F2AD
331
F2AE
331
F2B6
331
F2B7
331
F2C1
331
F2C2
331
F2CA
331
F2CB
331
F2D1
331
F2D2
331
F2D9
331
F2DA
331
F2E2
331
F2E3
102
}
 70
     0
280
     1
281
     0
  0
BLOCK_RECORD
  5
A66
330
1
100
AcDbSymbolTableRecord
100
AcDbBlockTableRecord
  2
_OPEN30
340
0
102
{BLKREFS
331
F25B
331
F263
102
}
 70
     0
280
     1
281
     0
  0
BLOCK_RECORD
  5
B478
330
1
100
AcDbSymbolTableRecord
100
AcDbBlockTableRecord
  2
GENDOT
340
0
102
{BLKREFS
331
F1B0
331
F26D
331
F26E
102
}
 70
     0
280
     1
281
     0
  0
BLOCK_RECORD
  5
B607
330
1
100
AcDbSymbolTableRecord
100
AcDbBlockTableRecord
  2
_Origin
340
0
 70
     0
280
     1
281
     0
  0
BLOCK_RECORD
  5
E4A6
330
1
100
AcDbSymbolTableRecord
100
AcDbBlockTableRecord
  2
*D19
340
0
 70
     0
280
     1
281
     0
  0
BLOCK_RECORD
  5
E4F1
330
1
100
AcDbSymbolTableRecord
100
AcDbBlockTableRecord
  2
*D20
340
0
 70
     0
280
     1
281
     0
  0
BLOCK_RECORD
  5
E509
330
1
100
AcDbSymbolTableRecord
100
AcDbBlockTableRecord
  2
*D21
340
0
 70
     0
280
     1
281
     0
  0
BLOCK_RECORD
  5
E528
330
1
100
AcDbSymbolTableRecord
100
AcDbBlockTableRecord
  2
*D22
340
0
 70
     0
280
     1
281
     0
  0
BLOCK_RECORD
  5
E5FA
330
1
100
AcDbSymbolTableRecord
100
AcDbBlockTableRecord
  2
*D23
340
0
 70
     0
280
     1
281
     0
  0
BLOCK_RECORD
  5
E639
330
1
100
AcDbSymbolTableRecord
100
AcDbBlockTableRecord
  2
*D24
340
0
 70
     0
280
     1
281
     0
  0
BLOCK_RECORD
  5
E64F
330
1
100
AcDbSymbolTableRecord
100
AcDbBlockTableRecord
  2
*D25
340
0
 70
     0
280
     1
281
     0
  0
BLOCK_RECORD
  5
E669
330
1
100
AcDbSymbolTableRecord
100
AcDbBlockTableRecord
  2
_DotSmall
340
0
 70
     0
280
     1
281
     0
  0
BLOCK_RECORD
  5
E90B
330
1
100
AcDbSymbolTableRecord
100
AcDbBlockTableRecord
  2
*D27
340
0
 70
     0
280
     1
281
     0
  0
BLOCK_RECORD
  5
E919
330
1
100
AcDbSymbolTableRecord
100
AcDbBlockTableRecord
  2
*D28
340
0
 70
     0
280
     1
281
     0
  0
BLOCK_RECORD
  5
E947
330
1
100
AcDbSymbolTableRecord
100
AcDbBlockTableRecord
  2
*D29
340
0
 70
     0
280
     1
281
     0
  0
BLOCK_RECORD
  5
EAA4
330
1
100
AcDbSymbolTableRecord
100
AcDbBlockTableRecord
  2
*D31
340
0
 70
     0
280
     1
281
     0
  0
BLOCK_RECORD
  5
EB44
330
1
100
AcDbSymbolTableRecord
100
AcDbBlockTableRecord
  2
*D32
340
0
 70
     0
280
     1
281
     0
  0
BLOCK_RECORD
  5
EB8D
330
1
100
AcDbSymbolTableRecord
100
AcDbBlockTableRecord
  2
*D33
340
0
 70
     0
280
     1
281
     0
  0
BLOCK_RECORD
  5
EBCB
330
1
100
AcDbSymbolTableRecord
100
AcDbBlockTableRecord
  2
*D34
340
0
 70
     0
280
     1
281
     0
  0
BLOCK_RECORD
  5
EBF3
330
1
100
AcDbSymbolTableRecord
100
AcDbBlockTableRecord
  2
*D35
340
0
 70
     0
280
     1
281
     0
  0
BLOCK_RECORD
  5
EC2D
330
1
100
AcDbSymbolTableRecord
100
AcDbBlockTableRecord
  2
*D36
340
0
 70
     0
280
     1
281
     0
  0
BLOCK_RECORD
  5
ED1E
330
1
100
AcDbSymbolTableRecord
100
AcDbBlockTableRecord
  2
*D37
340
0
 70
     0
280
     1
281
     0
  0
BLOCK_RECORD
  5
ED4F
330
1
100
AcDbSymbolTableRecord
100
AcDbBlockTableRecord
  2
*D38
340
0
 70
     0
280
     1
281
     0
  0
BLOCK_RECORD
  5
EDF3
330
1
100
AcDbSymbolTableRecord
100
AcDbBlockTableRecord
  2
*D39
340
0
 70
     0
280
     1
281
     0
  0
BLOCK_RECORD
  5
EE23
330
1
100
AcDbSymbolTableRecord
100
AcDbBlockTableRecord
  2
*D40
340
0
 70
     0
280
     1
281
     0
  0
ENDTAB
  0
ENDSEC
  0
SECTION
  2
BLOCKS
  0
BLOCK
  5
20
330
1F
100
AcDbEntity
  8
0
100
AcDbBlockBegin
  2
*Model_Space
 70
     0
 10
0.0
 20
0.0
 30
0.0
  3
*Model_Space
  1

  0
ENDBLK
  5
21
330
1F
100
AcDbEntity
  8
0
100
AcDbBlockEnd
  0
BLOCK
  5
1C
330
1B
100
AcDbEntity
 67
     1
  8
0
100
AcDbBlockBegin
  2
*Paper_Space
 70
     0
 10
0.0
 20
0.0
 30
0.0
  3
*Paper_Space
  1

  0
ENDBLK
  5
1D
330
1B
100
AcDbEntity
 67
     1
  8
0
100
AcDbBlockEnd
  0
BLOCK
  5
24
330
23
100
AcDbEntity
 67
     1
  8
0
100
AcDbBlockBegin
  2
*Paper_Space0
 70
     0
 10
0.0
 20
0.0
 30
0.0
  3
*Paper_Space0
  1

  0
ENDBLK
  5
25
330
23
100
AcDbEntity
 67
     1
  8
0
100
AcDbBlockEnd
  0
BLOCK
  5
74
330
72
100
AcDbEntity
  8
0
100
AcDbBlockBegin
  2
GENAXEH
 70
     0
 10
0.0
 20
0.0
 30
0.0
  3
GENAXEH
  1

  0
LINE
  5
73
330
72
100
AcDbEntity
  8
0
100
AcDbLine
 10
-1.0
 20
0.0
 30
0.0
 11
1.0
 21
0.0
 31
0.0
  0
ENDBLK
  5
75
330
72
100
AcDbEntity
  8
0
100
AcDbBlockEnd
  0
BLOCK
  5
6C7
330
6C4
100
AcDbEntity
  8
0
100
AcDbBlockBegin
  2
_Dot
 70
     0
 10
0.0
 20
0.0
 30
0.0
  3
_Dot
  1

  0
LWPOLYLINE
  5
6C5
330
6C4
100
AcDbEntity
  8
0
  6
ByBlock
 62
     0
100
AcDbPolyline
 90
        2
 70
     1
 43
0.5
 10
-0.25
 20
0.0
 42
1.0
 10
0.25
 20
0.0
 42
1.0
  0
LINE
  5
6C6
330
6C4
100
AcDbEntity
  8
0
  6
ByBlock
 62
     0
370
    -2
100
AcDbLine
 10
-0.5
 20
0.0
 30
0.0
 11
-1.0
 21
0.0
 31
0.0
  0
ENDBLK
  5
6C8
330
6C4
100
AcDbEntity
  8
0
100
AcDbBlockEnd
  0
BLOCK
  5
A6A
330
A66
100
AcDbEntity
  8
0
100
AcDbBlockBegin
  2
_OPEN30
 70
     0
 10
0.0
 20
0.0
 30
0.0
  3
_OPEN30
  1

  0
LINE
  5
A67
330
A66
100
AcDbEntity
  8
0
  6
ByBlock
 62
     0
100
AcDbLine
 10
-1.0
 20
0.26794919
 30
0.0
 11
0.0
 21
0.0
 31
0.0
  0
LINE
  5
A68
330
A66
100
AcDbEntity
  8
0
  6
ByBlock
 62
     0
100
AcDbLine
 10
0.0
 20
0.0
 30
0.0
 11
-1.0
 21
-0.26794919
 31
0.0
  0
LINE
  5
A69
330
A66
100
AcDbEntity
  8
0
  6
ByBlock
 62
     0
100
AcDbLine
 10
0.0
 20
0.0
 30
0.0
 11
-1.0
 21
0.0
 31
0.0
  0
ENDBLK
  5
A6B
330
A66
100
AcDbEntity
  8
0
100
AcDbBlockEnd
  0
BLOCK
  5
B479
330
B478
100
AcDbEntity
  8
0
100
AcDbBlockBegin
  2
GENDOT
 70
     0
 10
0.0
 20
0.0
 30
0.0
  3
GENDOT
  1

  0
LINE
  5
B47A
330
B478
100
AcDbEntity
  8
0
100
AcDbLine
 10
0.0
 20
0.0
 30
0.0
 11
-1.0
 21
0.0
 31
0.0
  0
LWPOLYLINE
  5
B47B
330
B478
100
AcDbEntity
  8
0
100
AcDbPolyline
 90
        2
 70
     1
 43
0.25
 10
-0.125
 20
0.0
 42
1.0
 10
0.125
 20
0.0
 42
1.0
  0
ENDBLK
  5
B47C
330
B478
100
AcDbEntity
  8
0
100
AcDbBlockEnd
  0
BLOCK
  5
B608
330
B607
100
AcDbEntity
  8
0
100
AcDbBlockBegin
  2
_Origin
 70
     0
 10
0.0
 20
0.0
 30
0.0
  3
_Origin
  1

  0
CIRCLE
  5
B609
330
B607
100
AcDbEntity
  8
0
  6
ByBlock
 62
     0
370
    -2
100
AcDbCircle
 10
0.0
 20
0.0
 30
0.0
 40
0.5
  0
LINE
  5
B60A
330
B607
100
AcDbEntity
  8
0
  6
ByBlock
 62
     0
370
    -2
100
AcDbLine
 10
0.0
 20
0.0
 30
0.0
 11
-1.0
 21
0.0
 31
0.0
  0
ENDBLK
  5
B60B
330
B607
100
AcDbEntity
  8
0
100
AcDbBlockEnd
  0
BLOCK
  5
E4B0
330
E4A6
100
AcDbEntity
  8
0
100
AcDbBlockBegin
  2
*D19
 70
     1
 10
0.0
 20
0.0
 30
0.0
  3
*D19
  1

  0
LINE
  5
F234
330
E4A6
100
AcDbEntity
  8
AM_5
100
AcDbLine
 10
4143.714868839551
 20
2966.907910171
 30
0.0
 11
4128.964868839552
 21
2966.907910171
 31
0.0
  0
LINE
  5
F235
330
E4A6
100
AcDbEntity
  8
AM_5
100
AcDbLine
 10
4143.714868839551
 20
2861.907910171
 30
0.0
 11
4128.964868839552
 21
2861.907910171
 31
0.0
  0
LINE
  5
F236
330
E4A6
100
AcDbEntity
  8
AM_5
100
AcDbLine
 10
4129.964868839552
 20
2965.907910171
 30
0.0
 11
4129.964868839552
 21
2862.907910171
 31
0.0
  0
INSERT
  5
F237
330
E4A6
100
AcDbEntity
  8
AM_5
100
AcDbBlockReference
  2
_Dot
 10
4129.964868839552
 20
2966.907910171
 30
0.0
 50
90.0
  0
INSERT
  5
F238
330
E4A6
100
AcDbEntity
  8
AM_5
100
AcDbBlockReference
  2
_Dot
 10
4129.964868839552
 20
2861.907910171
 30
0.0
 50
270.0
  0
MTEXT
  5
F239
330
E4A6
100
AcDbEntity
  8
AM_5
 62
     2
100
AcDbMText
 10
4126.86486883955
 20
2914.407910171
 30
0.0
 40
3.200000000000001
 41
0.0
 46
0.0
 71
     5
 72
     1
  1
105
 11
0.0000000000000001
 21
1.0
 31
0.0
 73
     1
 44
1.0
  0
POINT
  5
F23A
330
E4A6
100
AcDbEntity
  8
Defpoints
 62
     0
100
AcDbPoint
 10
4144.714868839552
 20
2966.907910171
 30
0.0
  0
POINT
  5
F23B
330
E4A6
100
AcDbEntity
  8
Defpoints
 62
     0
100
AcDbPoint
 10
4144.714868839552
 20
2861.907910171
 30
0.0
  0
POINT
  5
F23C
330
E4A6
100
AcDbEntity
  8
Defpoints
 62
     0
100
AcDbPoint
 10
4129.964868839552
 20
2861.907910171
 30
0.0
  0
ENDBLK
  5
E4B1
330
E4A6
100
AcDbEntity
  8
0
100
AcDbBlockEnd
  0
BLOCK
  5
E4FB
330
E4F1
100
AcDbEntity
  8
0
100
AcDbBlockBegin
  2
*D20
 70
     1
 10
0.0
 20
0.0
 30
0.0
  3
*D20
  1

  0
LINE
  5
F23D
330
E4F1
100
AcDbEntity
  8
AM_5
100
AcDbLine
 10
4139.964868839552
 20
2975.907910171
 30
0.0
 11
4118.964868839552
 21
2975.907910171
 31
0.0
  0
LINE
  5
F23E
330
E4F1
100
AcDbEntity
  8
AM_5
100
AcDbLine
 10
4139.964868839552
 20
2852.907910171
 30
0.0
 11
4118.964868839552
 21
2852.907910171
 31
0.0
  0
LINE
  5
F23F
330
E4F1
100
AcDbEntity
  8
AM_5
100
AcDbLine
 10
4119.964868839551
 20
2974.907910171
 30
0.0
 11
4119.964868839551
 21
2853.907910171
 31
0.0
  0
INSERT
  5
F240
330
E4F1
100
AcDbEntity
  8
AM_5
100
AcDbBlockReference
  2
_Dot
 10
4119.964868839551
 20
2975.907910171
 30
0.0
 50
90.0
  0
INSERT
  5
F241
330
E4F1
100
AcDbEntity
  8
AM_5
100
AcDbBlockReference
  2
_Dot
 10
4119.964868839551
 20
2852.907910171
 30
0.0
 50
270.0
  0
MTEXT
  5
F242
330
E4F1
100
AcDbEntity
  8
AM_5
 62
     2
100
AcDbMText
 10
4116.864868839551
 20
2914.407910171
 30
0.0
 40
3.200000000000001
 41
0.0
 46
0.0
 71
     5
 72
     1
  1
123
 11
0.0000000000000001
 21
1.0
 31
0.0
 73
     1
 44
1.0
  0
POINT
  5
F243
330
E4F1
100
AcDbEntity
  8
Defpoints
 62
     0
100
AcDbPoint
 10
4140.964868839552
 20
2975.907910171
 30
0.0
  0
POINT
  5
F244
330
E4F1
100
AcDbEntity
  8
Defpoints
 62
     0
100
AcDbPoint
 10
4140.964868839552
 20
2852.907910171
 30
0.0
  0
POINT
  5
F245
330
E4F1
100
AcDbEntity
  8
Defpoints
 62
     0
100
AcDbPoint
 10
4119.964868839551
 20
2852.907910171
 30
0.0
  0
ENDBLK
  5
E4FC
330
E4F1
100
AcDbEntity
  8
0
100
AcDbBlockEnd
  0
BLOCK
  5
E513
330
E509
100
AcDbEntity
  8
0
100
AcDbBlockBegin
  2
*D21
 70
     1
 10
0.0
 20
0.0
 30
0.0
  3
*D21
  1

  0
LINE
  5
F246
330
E509
100
AcDbEntity
  8
AM_5
100
AcDbLine
 10
4152.964868839552
 20
2973.157910171
 30
0.0
 11
4152.964868839552
 21
2986.898289891512
 31
0.0
  0
LINE
  5
F247
330
E509
100
AcDbEntity
  8
AM_5
100
AcDbLine
 10
4172.964868839552
 20
2973.157910171
 30
0.0
 11
4172.964868839552
 21
2986.898289891512
 31
0.0
  0
LINE
  5
F248
330
E509
100
AcDbEntity
  8
AM_5
100
AcDbLine
 10
4153.964868839551
 20
2985.898289891512
 30
0.0
 11
4171.964868839551
 21
2985.898289891512
 31
0.0
  0
INSERT
  5
F249
330
E509
100
AcDbEntity
  8
AM_5
100
AcDbBlockReference
  2
_Dot
 10
4152.964868839552
 20
2985.898289891512
 30
0.0
 50
180.0
  0
INSERT
  5
F24A
330
E509
100
AcDbEntity
  8
AM_5
100
AcDbBlockReference
  2
_Dot
 10
4172.964868839552
 20
2985.898289891512
 30
0.0
  0
MTEXT
  5
F24B
330
E509
100
AcDbEntity
  8
AM_5
 62
     2
100
AcDbMText
 10
4162.964868839551
 20
2988.998289891512
 30
0.0
 40
3.200000000000001
 41
0.0
 46
0.0
 71
     5
 72
     1
  1
20
 73
     1
 44
1.0
  0
POINT
  5
F24C
330
E509
100
AcDbEntity
  8
Defpoints
 62
     0
100
AcDbPoint
 10
4152.964868839552
 20
2972.157910171
 30
0.0
  0
POINT
  5
F24D
330
E509
100
AcDbEntity
  8
Defpoints
 62
     0
100
AcDbPoint
 10
4172.964868839552
 20
2972.157910171001
 30
0.0
  0
POINT
  5
F24E
330
E509
100
AcDbEntity
  8
Defpoints
 62
     0
100
AcDbPoint
 10
4172.964868839552
 20
2985.898289891512
 30
0.0
  0
ENDBLK
  5
E514
330
E509
100
AcDbEntity
  8
0
100
AcDbBlockEnd
  0
BLOCK
  5
E532
330
E528
100
AcDbEntity
  8
0
100
AcDbBlockBegin
  2
*D22
 70
     1
 10
0.0
 20
0.0
 30
0.0
  3
*D22
  1

  0
LINE
  5
F24F
330
E528
100
AcDbEntity
  8
AM_5
100
AcDbLine
 10
4139.964868839552
 20
2975.907910171
 30
0.0
 11
4139.964868839552
 21
2996.89828989151
 31
0.0
  0
LINE
  5
F250
330
E528
100
AcDbEntity
  8
AM_5
100
AcDbLine
 10
4185.964868839551
 20
2975.907910171
 30
0.0
 11
4185.964868839551
 21
2996.89828989151
 31
0.0
  0
LINE
  5
F251
330
E528
100
AcDbEntity
  8
AM_5
100
AcDbLine
 10
4140.964868839552
 20
2995.89828989151
 30
0.0
 11
4184.964868839552
 21
2995.89828989151
 31
0.0
  0
INSERT
  5
F252
330
E528
100
AcDbEntity
  8
AM_5
100
AcDbBlockReference
  2
_Dot
 10
4139.964868839552
 20
2995.89828989151
 30
0.0
 50
180.0
  0
INSERT
  5
F253
330
E528
100
AcDbEntity
  8
AM_5
100
AcDbBlockReference
  2
_Dot
 10
4185.964868839551
 20
2995.89828989151
 30
0.0
  0
MTEXT
  5
F254
330
E528
100
AcDbEntity
  8
AM_5
 62
     2
100
AcDbMText
 10
4162.964868839551
 20
2998.99828989151
 30
0.0
 40
3.200000000000001
 41
0.0
 46
0.0
 71
     5
 72
     1
  1
46
 73
     1
 44
1.0
  0
POINT
  5
F255
330
E528
100
AcDbEntity
  8
Defpoints
 62
     0
100
AcDbPoint
 10
4139.964868839552
 20
2974.907910171
 30
0.0
  0
POINT
  5
F256
330
E528
100
AcDbEntity
  8
Defpoints
 62
     0
100
AcDbPoint
 10
4185.964868839551
 20
2974.907910171
 30
0.0
  0
POINT
  5
F257
330
E528
100
AcDbEntity
  8
Defpoints
 62
     0
100
AcDbPoint
 10
4185.964868839551
 20
2995.89828989151
 30
0.0
  0
ENDBLK
  5
E533
330
E528
100
AcDbEntity
  8
0
100
AcDbBlockEnd
  0
BLOCK
  5
E604
330
E5FA
100
AcDbEntity
  8
0
100
AcDbBlockBegin
  2
*D23
 70
     1
 10
0.0
 20
0.0
 30
0.0
  3
*D23
  1

  0
LINE
  5
F258
330
E5FA
100
AcDbEntity
  8
AM_5
100
AcDbLine
 10
4079.711860055428
 20
3034.407910171
 30
0.0
 11
4091.711860055427
 21
3034.407910171
 31
0.0
  0
LINE
  5
F259
330
E5FA
100
AcDbEntity
  8
AM_5
100
AcDbLine
 10
4090.711860055427
 20
3033.407910171
 30
0.0
 11
4090.711860055427
 21
3025.407910489983
 31
0.0
  0
INSERT
  5
F25A
330
E5FA
100
AcDbEntity
  8
AM_5
100
AcDbBlockReference
  2
_Dot
 10
4090.711860055427
 20
3034.407910171
 30
0.0
 50
90.0
  0
INSERT
  5
F25B
330
E5FA
100
AcDbEntity
  8
AM_5
100
AcDbBlockReference
  2
_OPEN30
 10
4090.711860055427
 20
3024.407910489983
 30
0.0
 50
270.0
  0
MTEXT
  5
F25C
330
E5FA
100
AcDbEntity
  8
AM_5
 62
     2
100
AcDbMText
 10
4087.611860055427
 20
3029.407910330492
 30
0.0
 40
3.200000000000001
 41
0.0
 46
0.0
 71
     5
 72
     1
  1
3
 11
0.0000000000000001
 21
1.0
 31
0.0
 73
     1
 44
1.0
  0
POINT
  5
F25D
330
E5FA
100
AcDbEntity
  8
Defpoints
 62
     0
100
AcDbPoint
 10
4078.711860055427
 20
3034.407910171
 30
0.0
  0
POINT
  5
F25E
330
E5FA
100
AcDbEntity
  8
Defpoints
 62
     0
100
AcDbPoint
 10
4071.311866158943
 20
3024.407910489983
 30
0.0
  0
POINT
  5
F25F
330
E5FA
100
AcDbEntity
  8
Defpoints
 62
     0
100
AcDbPoint
 10
4090.711860055427
 20
3024.407910489983
 30
0.0
  0
ENDBLK
  5
E605
330
E5FA
100
AcDbEntity
  8
0
100
AcDbBlockEnd
  0
BLOCK
  5
E642
330
E639
100
AcDbEntity
  8
0
100
AcDbBlockBegin
  2
*D24
 70
     1
 10
0.0
 20
0.0
 30
0.0
  3
*D24
  1

  0
LINE
  5
F260
330
E639
100
AcDbEntity
  8
AM_5
100
AcDbLine
 10
4079.711860055428
 20
3034.407910171
 30
0.0
 11
4091.711860055427
 21
3034.407910171
 31
0.0
  0
LINE
  5
F261
330
E639
100
AcDbEntity
  8
AM_5
100
AcDbLine
 10
4090.711860055427
 20
3035.407910171
 30
0.0
 11
4090.711860055427
 21
3043.407909852018
 31
0.0
  0
INSERT
  5
F262
330
E639
100
AcDbEntity
  8
AM_5
100
AcDbBlockReference
  2
_Dot
 10
4090.711860055427
 20
3034.407910171
 30
0.0
 50
270.0
  0
INSERT
  5
F263
330
E639
100
AcDbEntity
  8
AM_5
100
AcDbBlockReference
  2
_OPEN30
 10
4090.711860055427
 20
3044.407909852017
 30
0.0
 50
90.0
  0
MTEXT
  5
F264
330
E639
100
AcDbEntity
  8
AM_5
 62
     2
100
AcDbMText
 10
4087.611860055427
 20
3039.407910011509
 30
0.0
 40
3.200000000000001
 41
0.0
 46
0.0
 71
     5
 72
     1
  1
3
 11
0.0000000000000001
 21
1.0
 31
0.0
 73
     1
 44
1.0
  0
POINT
  5
F265
330
E639
100
AcDbEntity
  8
Defpoints
 62
     0
100
AcDbPoint
 10
4078.711860055427
 20
3034.407910171
 30
0.0
  0
POINT
  5
F266
330
E639
100
AcDbEntity
  8
Defpoints
 62
     0
100
AcDbPoint
 10
4071.311866158943
 20
3044.407909852017
 30
0.0
  0
POINT
  5
F267
330
E639
100
AcDbEntity
  8
Defpoints
 62
     0
100
AcDbPoint
 10
4090.711860055427
 20
3044.407909852017
 30
0.0
  0
ENDBLK
  5
E643
330
E639
100
AcDbEntity
  8
0
100
AcDbBlockEnd
  0
BLOCK
  5
E655
330
E64F
100
AcDbEntity
  8
0
100
AcDbBlockBegin
  2
*D25
 70
     1
 10
0.0
 20
0.0
 30
0.0
  3
*D25
  1

  0
LINE
  5
F268
330
E64F
100
AcDbEntity
  8
AM_5
100
AcDbLine
 10
4122.24352713591
 20
2985.790671000179
 30
0.0
 11
4135.370193802577
 21
2985.790671000179
 31
0.0
  0
LINE
  5
F269
330
E64F
100
AcDbEntity
  8
AM_5
100
AcDbLine
 10
4135.370193802577
 20
2985.790671000179
 30
0.0
 11
4150.06759011458
 21
2970.017295317588
 31
0.0
  0
LINE
  5
F26A
330
E64F
100
AcDbEntity
  8
AM_5
100
AcDbLine
 10
4155.862147564519
 20
2963.798525024404
 30
0.0
 11
4157.225572846858
 21
2962.33528495542
 31
0.0
  0
MTEXT
  5
F26B
330
E64F
100
AcDbEntity
  8
AM_5
 62
     2
100
AcDbMText
 10
4128.056860469243
 20
2988.890671000178
 30
0.0
 40
3.200000000000001
 41
0.0
 46
0.0
 71
     5
 72
     1
  1
4-∅4.5
 73
     1
 44
1.0
  0
LINE
  5
F26C
330
E64F
100
AcDbEntity
  8
AM_5
100
AcDbLine
 10
4154.49872228218
 20
2965.261765093389
 30
0.0
 11
4151.431015396918
 21
2968.554055248604
 31
0.0
  0
INSERT
  5
F26D
330
E64F
100
AcDbEntity
  8
AM_5
100
AcDbBlockReference
  2
GENDOT
 10
4154.49872228218
 20
2965.261765093389
 30
0.0
 41
2.0
 42
2.0
 43
2.0
 50
132.977620259197
  0
INSERT
  5
F26E
330
E64F
100
AcDbEntity
  8
AM_5
100
AcDbBlockReference
  2
GENDOT
 10
4151.431015396918
 20
2968.554055248604
 30
0.0
 41
2.0
 42
2.0
 43
2.0
 50
312.9776202591971
  0
POINT
  5
F26F
330
E64F
100
AcDbEntity
  8
Defpoints
 62
     0
100
AcDbPoint
 10
4151.431015396918
 20
2968.554055248604
 30
0.0
  0
POINT
  5
F270
330
E64F
100
AcDbEntity
  8
Defpoints
 62
     0
100
AcDbPoint
 10
4154.49872228218
 20
2965.261765093389
 30
0.0
  0
ENDBLK
  5
E656
330
E64F
100
AcDbEntity
  8
0
100
AcDbBlockEnd
  0
BLOCK
  5
E66B
330
E669
100
AcDbEntity
  8
0
100
AcDbBlockBegin
  2
_DotSmall
 70
     0
 10
0.0
 20
0.0
 30
0.0
  3
_DotSmall
  1

  0
LWPOLYLINE
  5
E66A
330
E669
100
AcDbEntity
  8
0
  6
ByBlock
 62
     0
100
AcDbPolyline
 90
        2
 70
     1
 43
0.5
 10
-0.0625
 20
0.0
 42
1.0
 10
0.0625
 20
0.0
 42
1.0
  0
ENDBLK
  5
E66C
330
E669
100
AcDbEntity
  8
0
100
AcDbBlockEnd
  0
BLOCK
  5
E917
330
E90B
100
AcDbEntity
  8
0
100
AcDbBlockBegin
  2
*D27
 70
     1
 10
0.0
 20
0.0
 30
0.0
  3
*D27
  1

  0
LINE
  5
F271
330
E90B
100
AcDbEntity
  8
AM_5
100
AcDbLine
 10
4064.964868839552
 20
2975.907910171
 30
0.0
 11
4064.964868839552
 21
2986.907910171
 31
0.0
  0
LINE
  5
F272
330
E90B
100
AcDbEntity
  8
AM_5
100
AcDbLine
 10
4060.464868839551
 20
2976.907910171
 30
0.0
 11
4060.464868839551
 21
2986.907910171
 31
0.0
  0
LINE
  5
F273
330
E90B
100
AcDbEntity
  8
AM_5
100
AcDbLine
 10
4059.464868839551
 20
2985.907910171
 30
0.0
 11
4058.464868839552
 21
2985.907910171
 31
0.0
  0
LINE
  5
F274
330
E90B
100
AcDbEntity
  8
AM_5
100
AcDbLine
 10
4065.964868839552
 20
2985.907910171
 30
0.0
 11
4074.658202172884
 21
2985.907910171
 31
0.0
  0
LINE
  5
F275
330
E90B
100
AcDbEntity
  8
AM_5
100
AcDbLine
 10
4060.464868839551
 20
2985.907910171
 30
0.0
 11
4064.964868839552
 21
2985.907910171
 31
0.0
  0
INSERT
  5
F276
330
E90B
100
AcDbEntity
  8
AM_5
100
AcDbBlockReference
  2
_Dot
 10
4060.464868839551
 20
2985.907910171
 30
0.0
  0
INSERT
  5
F277
330
E90B
100
AcDbEntity
  8
AM_5
100
AcDbBlockReference
  2
_Dot
 10
4064.964868839552
 20
2985.907910171
 30
0.0
 50
180.0
  0
MTEXT
  5
F278
330
E90B
100
AcDbEntity
  8
AM_5
 62
     2
100
AcDbMText
 10
4070.811535506218
 20
2989.007910171
 30
0.0
 40
3.200000000000001
 41
0.0
 46
0.0
 71
     5
 72
     1
  1
4.5
 73
     1
 44
1.0
  0
POINT
  5
F279
330
E90B
100
AcDbEntity
  8
Defpoints
 62
     0
100
AcDbPoint
 10
4064.964868839552
 20
2974.907910171
 30
0.0
  0
POINT
  5
F27A
330
E90B
100
AcDbEntity
  8
Defpoints
 62
     0
100
AcDbPoint
 10
4060.464868839551
 20
2975.907910171
 30
0.0
  0
POINT
  5
F27B
330
E90B
100
AcDbEntity
  8
Defpoints
 62
     0
100
AcDbPoint
 10
4060.464868839551
 20
2985.907910171
 30
0.0
  0
ENDBLK
  5
E918
330
E90B
100
AcDbEntity
  8
0
100
AcDbBlockEnd
  0
BLOCK
  5
E923
330
E919
100
AcDbEntity
  8
0
100
AcDbBlockBegin
  2
*D28
 70
     1
 10
0.0
 20
0.0
 30
0.0
  3
*D28
  1

  0
LINE
  5
F27C
330
E919
100
AcDbEntity
  8
AM_5
100
AcDbLine
 10
4064.964868839552
 20
2975.907910171
 30
0.0
 11
4064.964868839552
 21
2996.907910170998
 31
0.0
  0
LINE
  5
F27D
330
E919
100
AcDbEntity
  8
AM_5
100
AcDbLine
 10
4032.964868839552
 20
2956.860288529401
 30
0.0
 11
4032.964868839552
 21
2996.907910170998
 31
0.0
  0
LINE
  5
F27E
330
E919
100
AcDbEntity
  8
AM_5
100
AcDbLine
 10
4063.964868839551
 20
2995.907910170998
 30
0.0
 11
4033.964868839552
 21
2995.907910170998
 31
0.0
  0
INSERT
  5
F27F
330
E919
100
AcDbEntity
  8
AM_5
100
AcDbBlockReference
  2
_Dot
 10
4064.964868839552
 20
2995.907910170998
 30
0.0
  0
INSERT
  5
F280
330
E919
100
AcDbEntity
  8
AM_5
100
AcDbBlockReference
  2
_Dot
 10
4032.964868839552
 20
2995.907910170998
 30
0.0
 50
180.0
  0
MTEXT
  5
F281
330
E919
100
AcDbEntity
  8
AM_5
 62
     2
100
AcDbMText
 10
4048.964868839552
 20
2999.007910170998
 30
0.0
 40
3.200000000000001
 41
0.0
 46
0.0
 71
     5
 72
     1
  1
32
 73
     1
 44
1.0
  0
POINT
  5
F282
330
E919
100
AcDbEntity
  8
Defpoints
 62
     0
100
AcDbPoint
 10
4064.964868839552
 20
2974.907910171
 30
0.0
  0
POINT
  5
F283
330
E919
100
AcDbEntity
  8
Defpoints
 62
     0
100
AcDbPoint
 10
4032.964868839552
 20
2955.860288529402
 30
0.0
  0
POINT
  5
F284
330
E919
100
AcDbEntity
  8
Defpoints
 62
     0
100
AcDbPoint
 10
4032.964868839552
 20
2995.907910170998
 30
0.0
  0
ENDBLK
  5
E924
330
E919
100
AcDbEntity
  8
0
100
AcDbBlockEnd
  0
BLOCK
  5
E952
330
E947
100
AcDbEntity
  8
0
100
AcDbBlockBegin
  2
*D29
 70
     1
 10
0.0
 20
0.0
 30
0.0
  3
*D29
  1

  0
LINE
  5
F285
330
E947
100
AcDbEntity
  8
AM_5
100
AcDbLine
 10
4058.211860055427
 20
3053.157910171
 30
0.0
 11
4020.66911255787
 21
3053.157910171
 31
0.0
  0
LINE
  5
F286
330
E947
100
AcDbEntity
  8
AM_5
100
AcDbLine
 10
4058.211860055427
 20
3015.657910171
 30
0.0
 11
4020.66911255787
 21
3015.657910171
 31
0.0
  0
LINE
  5
F287
330
E947
100
AcDbEntity
  8
AM_5
100
AcDbLine
 10
4021.669112557869
 20
3052.157910171
 30
0.0
 11
4021.669112557869
 21
3016.657910171
 31
0.0
  0
INSERT
  5
F288
330
E947
100
AcDbEntity
  8
AM_5
100
AcDbBlockReference
  2
_Dot
 10
4021.669112557869
 20
3053.157910171
 30
0.0
 50
90.0
  0
INSERT
  5
F289
330
E947
100
AcDbEntity
  8
AM_5
100
AcDbBlockReference
  2
_Dot
 10
4021.669112557869
 20
3015.657910171
 30
0.0
 50
270.0
  0
MTEXT
  5
F28A
330
E947
100
AcDbEntity
  8
AM_5
 62
     2
100
AcDbMText
 10
4018.569112557869
 20
3034.407910171001
 30
0.0
 40
3.2
 41
0.0
 46
0.0
 71
     5
 72
     1
  1
（切欠37.5ｘ88.5）
 11
0.0000000000000001
 21
1.0
 31
0.0
 73
     1
 44
1.0
  0
POINT
  5
F28B
330
E947
100
AcDbEntity
  8
Defpoints
 62
     0
100
AcDbPoint
 10
4059.211860055428
 20
3053.157910171
 30
0.0
  0
POINT
  5
F28C
330
E947
100
AcDbEntity
  8
Defpoints
 62
     0
100
AcDbPoint
 10
4059.211860055428
 20
3015.657910171
 30
0.0
  0
POINT
  5
F28D
330
E947
100
AcDbEntity
  8
Defpoints
 62
     0
100
AcDbPoint
 10
4021.669112557869
 20
3015.657910171
 30
0.0
  0
ENDBLK
  5
E953
330
E947
100
AcDbEntity
  8
0
100
AcDbBlockEnd
  0
BLOCK
  5
EAAE
330
EAA4
100
AcDbEntity
  8
0
100
AcDbBlockBegin
  2
*D31
 70
     1
 10
0.0
 20
0.0
 30
0.0
  3
*D31
  1

  0
LINE
  5
F28E
330
EAA4
100
AcDbEntity
  8
AM_5
100
AcDbLine
 10
4179.464868839551
 20
2941.907910171
 30
0.0
 11
4201.964868839552
 21
2941.907910171
 31
0.0
  0
LINE
  5
F28F
330
EAA4
100
AcDbEntity
  8
AM_5
100
AcDbLine
 10
4182.214868839552
 20
2966.907910171
 30
0.0
 11
4201.964868839552
 21
2966.907910171
 31
0.0
  0
LINE
  5
F290
330
EAA4
100
AcDbEntity
  8
AM_5
100
AcDbLine
 10
4200.964868839552
 20
2942.907910171
 30
0.0
 11
4200.964868839552
 21
2965.907910171
 31
0.0
  0
INSERT
  5
F291
330
EAA4
100
AcDbEntity
  8
AM_5
100
AcDbBlockReference
  2
_Dot
 10
4200.964868839552
 20
2941.907910171
 30
0.0
 50
270.0
  0
INSERT
  5
F292
330
EAA4
100
AcDbEntity
  8
AM_5
100
AcDbBlockReference
  2
_Dot
 10
4200.964868839552
 20
2966.907910171
 30
0.0
 50
90.0
  0
MTEXT
  5
F293
330
EAA4
100
AcDbEntity
  8
AM_5
 62
     2
100
AcDbMText
 10
4197.864868839551
 20
2954.407910171001
 30
0.0
 40
3.200000000000001
 41
0.0
 46
0.0
 71
     5
 72
     1
  1
25
 11
0.0000000000000001
 21
1.0
 31
0.0
 73
     1
 44
1.0
  0
POINT
  5
F294
330
EAA4
100
AcDbEntity
  8
Defpoints
 62
     0
100
AcDbPoint
 10
4178.464868839552
 20
2941.907910171
 30
0.0
  0
POINT
  5
F295
330
EAA4
100
AcDbEntity
  8
Defpoints
 62
     0
100
AcDbPoint
 10
4181.214868839552
 20
2966.907910171
 30
0.0
  0
POINT
  5
F296
330
EAA4
100
AcDbEntity
  8
Defpoints
 62
     0
100
AcDbPoint
 10
4200.964868839552
 20
2966.907910171
 30
0.0
  0
ENDBLK
  5
EAAF
330
EAA4
100
AcDbEntity
  8
0
100
AcDbBlockEnd
  0
BLOCK
  5
EB50
330
EB44
100
AcDbEntity
  8
0
100
AcDbBlockBegin
  2
*D32
 70
     1
 10
0.0
 20
0.0
 30
0.0
  3
*D32
  1

  0
LINE
  5
F297
330
EB44
100
AcDbEntity
  8
AM_5
100
AcDbLine
 10
4165.464868839552
 20
2927.907910171
 30
0.0
 11
4165.464868839552
 21
2921.105429612125
 31
0.0
  0
LINE
  5
F298
330
EB44
100
AcDbEntity
  8
AM_5
100
AcDbLine
 10
4166.464868839551
 20
2922.105429612125
 30
0.0
 11
4167.464868839552
 21
2922.105429612125
 31
0.0
  0
LINE
  5
F299
330
EB44
100
AcDbEntity
  8
AM_5
100
AcDbLine
 10
4161.964868839552
 20
2922.105429612125
 30
0.0
 11
4153.271535506218
 21
2922.105429612125
 31
0.0
  0
LINE
  5
F29A
330
EB44
100
AcDbEntity
  8
AM_5
100
AcDbLine
 10
4165.464868839552
 20
2922.105429612125
 30
0.0
 11
4162.964868839551
 21
2922.105429612125
 31
0.0
  0
INSERT
  5
F29B
330
EB44
100
AcDbEntity
  8
AM_5
100
AcDbBlockReference
  2
_Dot
 10
4165.464868839552
 20
2922.105429612125
 30
0.0
 50
180.0
  0
INSERT
  5
F29C
330
EB44
100
AcDbEntity
  8
AM_5
100
AcDbBlockReference
  2
_Dot
 10
4162.964868839551
 20
2922.105429612125
 30
0.0
  0
MTEXT
  5
F29D
330
EB44
100
AcDbEntity
  8
AM_5
 62
     2
100
AcDbMText
 10
4157.118202172886
 20
2925.205429612125
 30
0.0
 40
3.200000000000001
 41
0.0
 46
0.0
 71
     5
 72
     1
  1
2.5
 73
     1
 44
1.0
  0
POINT
  5
F29E
330
EB44
100
AcDbEntity
  8
Defpoints
 62
     0
100
AcDbPoint
 10
4165.464868839552
 20
2928.907910171
 30
0.0
  0
POINT
  5
F29F
330
EB44
100
AcDbEntity
  8
Defpoints
 62
     0
100
AcDbPoint
 10
4162.964868839551
 20
2928.907910171
 30
0.0
  0
POINT
  5
F2A0
330
EB44
100
AcDbEntity
  8
Defpoints
 62
     0
100
AcDbPoint
 10
4162.964868839551
 20
2922.105429612125
 30
0.0
  0
ENDBLK
  5
EB51
330
EB44
100
AcDbEntity
  8
0
100
AcDbBlockEnd
  0
BLOCK
  5
EB98
330
EB8D
100
AcDbEntity
  8
0
100
AcDbBlockBegin
  2
*D33
 70
     1
 10
0.0
 20
0.0
 30
0.0
  3
*D33
  1

  0
LINE
  5
F2A1
330
EB8D
100
AcDbEntity
  8
AM_5
100
AcDbLine
 10
4036.964868839552
 20
2958.907910171001
 30
0.0
 11
4021.964868839551
 21
2958.907910171001
 31
0.0
  0
LINE
  5
F2A2
330
EB8D
100
AcDbEntity
  8
AM_5
100
AcDbLine
 10
4056.464868839552
 20
2966.907910171
 30
0.0
 11
4021.964868839551
 21
2966.907910171
 31
0.0
  0
LINE
  5
F2A3
330
EB8D
100
AcDbEntity
  8
AM_5
100
AcDbLine
 10
4022.964868839552
 20
2959.907910171001
 30
0.0
 11
4022.964868839552
 21
2965.907910171
 31
0.0
  0
INSERT
  5
F2A4
330
EB8D
100
AcDbEntity
  8
AM_5
100
AcDbBlockReference
  2
_Dot
 10
4022.964868839552
 20
2958.907910171001
 30
0.0
 50
270.0
  0
INSERT
  5
F2A5
330
EB8D
100
AcDbEntity
  8
AM_5
100
AcDbBlockReference
  2
_Dot
 10
4022.964868839552
 20
2966.907910171
 30
0.0
 50
90.0
  0
MTEXT
  5
F2A6
330
EB8D
100
AcDbEntity
  8
AM_5
 62
     2
100
AcDbMText
 10
4019.864868839551
 20
2962.907910171001
 30
0.0
 40
3.200000000000001
 41
0.0
 46
0.0
 71
     5
 72
     1
  1
8
 11
0.0000000000000001
 21
1.0
 31
0.0
 73
     1
 44
1.0
  0
POINT
  5
F2A7
330
EB8D
100
AcDbEntity
  8
Defpoints
 62
     0
100
AcDbPoint
 10
4037.964868839552
 20
2958.907910171001
 30
0.0
  0
POINT
  5
F2A8
330
EB8D
100
AcDbEntity
  8
Defpoints
 62
     0
100
AcDbPoint
 10
4057.464868839551
 20
2966.907910171
 30
0.0
  0
POINT
  5
F2A9
330
EB8D
100
AcDbEntity
  8
Defpoints
 62
     0
100
AcDbPoint
 10
4022.964868839552
 20
2966.907910171
 30
0.0
  0
ENDBLK
  5
EB99
330
EB8D
100
AcDbEntity
  8
0
100
AcDbBlockEnd
  0
BLOCK
  5
EBD5
330
EBCB
100
AcDbEntity
  8
0
100
AcDbBlockBegin
  2
*D34
 70
     1
 10
0.0
 20
0.0
 30
0.0
  3
*D34
  1

  0
LINE
  5
F2AA
330
EBCB
100
AcDbEntity
  8
AM_5
100
AcDbLine
 10
4036.964868839552
 20
2958.907910171001
 30
0.0
 11
4021.964868839551
 21
2958.907910171001
 31
0.0
  0
LINE
  5
F2AB
330
EBCB
100
AcDbEntity
  8
AM_5
100
AcDbLine
 10
4059.664869602491
 20
2870.907910171
 30
0.0
 11
4021.964868839551
 21
2870.907910171
 31
0.0
  0
LINE
  5
F2AC
330
EBCB
100
AcDbEntity
  8
AM_5
100
AcDbLine
 10
4022.964868839552
 20
2957.907910171
 30
0.0
 11
4022.964868839552
 21
2871.907910171
 31
0.0
  0
INSERT
  5
F2AD
330
EBCB
100
AcDbEntity
  8
AM_5
100
AcDbBlockReference
  2
_Dot
 10
4022.964868839552
 20
2958.907910171001
 30
0.0
 50
90.0
  0
INSERT
  5
F2AE
330
EBCB
100
AcDbEntity
  8
AM_5
100
AcDbBlockReference
  2
_Dot
 10
4022.964868839552
 20
2870.907910171
 30
0.0
 50
270.0
  0
MTEXT
  5
F2AF
330
EBCB
100
AcDbEntity
  8
AM_5
 62
     2
100
AcDbMText
 10
4019.864868839551
 20
2914.907910171001
 30
0.0
 40
3.200000000000001
 41
0.0
 46
0.0
 71
     5
 72
     1
  1
88
 11
0.0000000000000001
 21
1.0
 31
0.0
 73
     1
 44
1.0
  0
POINT
  5
F2B0
330
EBCB
100
AcDbEntity
  8
Defpoints
 62
     0
100
AcDbPoint
 10
4037.964868839552
 20
2958.907910171001
 30
0.0
  0
POINT
  5
F2B1
330
EBCB
100
AcDbEntity
  8
Defpoints
 62
     0
100
AcDbPoint
 10
4060.66486960249
 20
2870.907910171
 30
0.0
  0
POINT
  5
F2B2
330
EBCB
100
AcDbEntity
  8
Defpoints
 62
     0
100
AcDbPoint
 10
4022.964868839552
 20
2870.907910171
 30
0.0
  0
ENDBLK
  5
EBD6
330
EBCB
100
AcDbEntity
  8
0
100
AcDbBlockEnd
  0
BLOCK
  5
EBFD
330
EBF3
100
AcDbEntity
  8
0
100
AcDbBlockBegin
  2
*D35
 70
     1
 10
0.0
 20
0.0
 30
0.0
  3
*D35
  1

  0
LINE
  5
F2B3
330
EBF3
100
AcDbEntity
  8
AM_5
100
AcDbLine
 10
4059.664869602491
 20
2870.907910171
 30
0.0
 11
4021.964868839551
 21
2870.907910171
 31
0.0
  0
LINE
  5
F2B4
330
EBF3
100
AcDbEntity
  8
AM_5
100
AcDbLine
 10
4056.464868839552
 20
2861.907910171
 30
0.0
 11
4021.964868839551
 21
2861.907910171
 31
0.0
  0
LINE
  5
F2B5
330
EBF3
100
AcDbEntity
  8
AM_5
100
AcDbLine
 10
4022.964868839552
 20
2869.907910171
 30
0.0
 11
4022.964868839552
 21
2862.907910171
 31
0.0
  0
INSERT
  5
F2B6
330
EBF3
100
AcDbEntity
  8
AM_5
100
AcDbBlockReference
  2
_Dot
 10
4022.964868839552
 20
2870.907910171
 30
0.0
 50
90.0
  0
INSERT
  5
F2B7
330
EBF3
100
AcDbEntity
  8
AM_5
100
AcDbBlockReference
  2
_Dot
 10
4022.964868839552
 20
2861.907910171
 30
0.0
 50
270.0
  0
MTEXT
  5
F2B8
330
EBF3
100
AcDbEntity
  8
AM_5
 62
     2
100
AcDbMText
 10
4019.864868839551
 20
2866.407910171
 30
0.0
 40
3.200000000000001
 41
0.0
 46
0.0
 71
     5
 72
     1
  1
9
 11
0.0000000000000001
 21
1.0
 31
0.0
 73
     1
 44
1.0
  0
POINT
  5
F2B9
330
EBF3
100
AcDbEntity
  8
Defpoints
 62
     0
100
AcDbPoint
 10
4060.66486960249
 20
2870.907910171
 30
0.0
  0
POINT
  5
F2BA
330
EBF3
100
AcDbEntity
  8
Defpoints
 62
     0
100
AcDbPoint
 10
4057.464868839551
 20
2861.907910171
 30
0.0
  0
POINT
  5
F2BB
330
EBF3
100
AcDbEntity
  8
Defpoints
 62
     0
100
AcDbPoint
 10
4022.964868839552
 20
2861.907910171
 30
0.0
  0
ENDBLK
  5
EBFE
330
EBF3
100
AcDbEntity
  8
0
100
AcDbBlockEnd
  0
BLOCK
  5
EC39
330
EC2D
100
AcDbEntity
  8
0
100
AcDbBlockBegin
  2
*D36
 70
     1
 10
0.0
 20
0.0
 30
0.0
  3
*D36
  1

  0
LINE
  5
F2BC
330
EC2D
100
AcDbEntity
  8
AM_5
100
AcDbLine
 10
4034.964868839551
 20
2956.928913245646
 30
0.0
 11
4034.964868839551
 21
2986.907910171002
 31
0.0
  0
LINE
  5
F2BD
330
EC2D
100
AcDbEntity
  8
AM_5
100
AcDbLine
 10
4032.964868839552
 20
2956.860288529401
 30
0.0
 11
4032.964868839552
 21
2986.907910171002
 31
0.0
  0
LINE
  5
F2BE
330
EC2D
100
AcDbEntity
  8
AM_5
100
AcDbLine
 10
4035.964868839552
 20
2985.907910171001
 30
0.0
 11
4036.964868839552
 21
2985.907910171001
 31
0.0
  0
LINE
  5
F2BF
330
EC2D
100
AcDbEntity
  8
AM_5
100
AcDbLine
 10
4031.964868839551
 20
2985.907910171001
 30
0.0
 11
4026.471535506218
 21
2985.907910171001
 31
0.0
  0
LINE
  5
F2C0
330
EC2D
100
AcDbEntity
  8
AM_5
100
AcDbLine
 10
4034.964868839551
 20
2985.907910171001
 30
0.0
 11
4032.964868839552
 21
2985.907910171001
 31
0.0
  0
INSERT
  5
F2C1
330
EC2D
100
AcDbEntity
  8
AM_5
100
AcDbBlockReference
  2
_Dot
 10
4034.964868839551
 20
2985.907910171001
 30
0.0
 50
180.0
  0
INSERT
  5
F2C2
330
EC2D
100
AcDbEntity
  8
AM_5
100
AcDbBlockReference
  2
_Dot
 10
4032.964868839552
 20
2985.907910171001
 30
0.0
  0
MTEXT
  5
F2C3
330
EC2D
100
AcDbEntity
  8
AM_5
 62
     2
100
AcDbMText
 10
4028.718202172885
 20
2989.007910171001
 30
0.0
 40
3.200000000000001
 41
0.0
 46
0.0
 71
     5
 72
     1
  1
2
 73
     1
 44
1.0
  0
POINT
  5
F2C4
330
EC2D
100
AcDbEntity
  8
Defpoints
 62
     0
100
AcDbPoint
 10
4034.964868839551
 20
2955.928913245646
 30
0.0
  0
POINT
  5
F2C5
330
EC2D
100
AcDbEntity
  8
Defpoints
 62
     0
100
AcDbPoint
 10
4032.964868839552
 20
2955.860288529402
 30
0.0
  0
POINT
  5
F2C6
330
EC2D
100
AcDbEntity
  8
Defpoints
 62
     0
100
AcDbPoint
 10
4032.964868839552
 20
2985.907910171001
 30
0.0
  0
ENDBLK
  5
EC3A
330
EC2D
100
AcDbEntity
  8
0
100
AcDbBlockEnd
  0
BLOCK
  5
ED28
330
ED1E
100
AcDbEntity
  8
0
100
AcDbBlockBegin
  2
*D37
 70
     1
 10
0.0
 20
0.0
 30
0.0
  3
*D37
  1

  0
LINE
  5
F2C7
330
ED1E
100
AcDbEntity
  8
AM_5
100
AcDbLine
 10
4176.464868839551
 20
2931.907910171
 30
0.0
 11
4201.964868839556
 21
2931.907910171
 31
0.0
  0
LINE
  5
F2C8
330
ED1E
100
AcDbEntity
  8
AM_5
100
AcDbLine
 10
4179.464868839551
 20
2941.907910171
 30
0.0
 11
4201.964868839556
 21
2941.907910171
 31
0.0
  0
LINE
  5
F2C9
330
ED1E
100
AcDbEntity
  8
AM_5
100
AcDbLine
 10
4200.964868839555
 20
2932.907910171
 30
0.0
 11
4200.964868839555
 21
2940.907910171
 31
0.0
  0
INSERT
  5
F2CA
330
ED1E
100
AcDbEntity
  8
AM_5
100
AcDbBlockReference
  2
_Dot
 10
4200.964868839555
 20
2931.907910171
 30
0.0
 50
270.0
  0
INSERT
  5
F2CB
330
ED1E
100
AcDbEntity
  8
AM_5
100
AcDbBlockReference
  2
_Dot
 10
4200.964868839555
 20
2941.907910171
 30
0.0
 50
90.0
  0
MTEXT
  5
F2CC
330
ED1E
100
AcDbEntity
  8
AM_5
 62
     2
100
AcDbMText
 10
4197.864868839555
 20
2936.907910171001
 30
0.0
 40
3.200000000000001
 41
0.0
 46
0.0
 71
     5
 72
     1
  1
10
 11
0.0000000000000001
 21
1.0
 31
0.0
 73
     1
 44
1.0
  0
POINT
  5
F2CD
330
ED1E
100
AcDbEntity
  8
Defpoints
 62
     0
100
AcDbPoint
 10
4175.464868839552
 20
2931.907910171
 30
0.0
  0
POINT
  5
F2CE
330
ED1E
100
AcDbEntity
  8
Defpoints
 62
     0
100
AcDbPoint
 10
4178.464868839552
 20
2941.907910171
 30
0.0
  0
POINT
  5
F2CF
330
ED1E
100
AcDbEntity
  8
Defpoints
 62
     0
100
AcDbPoint
 10
4200.964868839555
 20
2941.907910171
 30
0.0
  0
ENDBLK
  5
ED29
330
ED1E
100
AcDbEntity
  8
0
100
AcDbBlockEnd
  0
BLOCK
  5
ED59
330
ED4F
100
AcDbEntity
  8
0
100
AcDbBlockBegin
  2
*D38
 70
     1
 10
0.0
 20
0.0
 30
0.0
  3
*D38
  1

  0
LINE
  5
F2D0
330
ED4F
100
AcDbEntity
  8
AM_5
100
AcDbLine
 10
4149.964868839557
 20
2882.407910171
 30
0.0
 11
4175.964868839546
 21
2882.407910171
 31
0.0
  0
INSERT
  5
F2D1
330
ED4F
100
AcDbEntity
  8
AM_5
100
AcDbBlockReference
  2
_Dot
 10
4148.964868839557
 20
2882.407910171
 30
0.0
 50
180.0
  0
INSERT
  5
F2D2
330
ED4F
100
AcDbEntity
  8
AM_5
100
AcDbBlockReference
  2
_Dot
 10
4176.964868839546
 20
2882.407910171
 30
0.0
  0
MTEXT
  5
F2D3
330
ED4F
100
AcDbEntity
  8
AM_5
 62
     2
100
AcDbMText
 10
4169.506841869504
 20
2885.507910171
 30
0.0
 40
3.200000000000001
 41
0.0
 46
0.0
 71
     5
 72
     1
  1
28
 73
     1
 44
1.0
  0
POINT
  5
F2D4
330
ED4F
100
AcDbEntity
  8
Defpoints
 62
     0
100
AcDbPoint
 10
4148.964868839557
 20
2882.407910171
 30
0.0
  0
POINT
  5
F2D5
330
ED4F
100
AcDbEntity
  8
Defpoints
 62
     0
100
AcDbPoint
 10
4176.964868839546
 20
2882.407910171
 30
0.0
  0
POINT
  5
F2D6
330
ED4F
100
AcDbEntity
  8
Defpoints
 62
     0
100
AcDbPoint
 10
4176.964868839546
 20
2882.407910171
 30
0.0
  0
ENDBLK
  5
ED5A
330
ED4F
100
AcDbEntity
  8
0
100
AcDbBlockEnd
  0
BLOCK
  5
EDFD
330
EDF3
100
AcDbEntity
  8
0
100
AcDbBlockBegin
  2
*D39
 70
     1
 10
0.0
 20
0.0
 30
0.0
  3
*D39
  1

  0
LINE
  5
F2D7
330
EDF3
100
AcDbEntity
  8
AM_5
100
AcDbLine
 10
4069.711860055427
 20
3034.407910171
 30
0.0
 11
4081.711860055427
 21
3034.407910171
 31
0.0
  0
LINE
  5
F2D8
330
EDF3
100
AcDbEntity
  8
AM_5
100
AcDbLine
 10
4080.711860055427
 20
3035.407910171
 30
0.0
 11
4080.711860055427
 21
3080.907910171
 31
0.0
  0
INSERT
  5
F2D9
330
EDF3
100
AcDbEntity
  8
AM_5
100
AcDbBlockReference
  2
_Dot
 10
4080.711860055427
 20
3034.407910171
 30
0.0
 50
270.0
  0
INSERT
  5
F2DA
330
EDF3
100
AcDbEntity
  8
AM_5
100
AcDbBlockReference
  2
_Dot
 10
4080.711860055427
 20
3081.907910171
 30
0.0
 50
90.0
  0
MTEXT
  5
F2DB
330
EDF3
100
AcDbEntity
  8
AM_5
 62
     2
100
AcDbMText
 10
4077.611860055426
 20
3058.157910171001
 30
0.0
 40
3.200000000000001
 41
0.0
 46
0.0
 71
     5
 72
     1
  1
（47.5）
 11
0.0000000000000001
 21
1.0
 31
0.0
 73
     1
 44
1.0
  0
POINT
  5
F2DC
330
EDF3
100
AcDbEntity
  8
Defpoints
 62
     0
100
AcDbPoint
 10
4068.711860055428
 20
3034.407910171
 30
0.0
  0
POINT
  5
F2DD
330
EDF3
100
AcDbEntity
  8
Defpoints
 62
     0
100
AcDbPoint
 10
4091.211860055428
 20
3081.907910171
 30
0.0
  0
POINT
  5
F2DE
330
EDF3
100
AcDbEntity
  8
Defpoints
 62
     0
100
AcDbPoint
 10
4080.711860055427
 20
3081.907910171
 30
0.0
  0
ENDBLK
  5
EDFE
330
EDF3
100
AcDbEntity
  8
0
100
AcDbBlockEnd
  0
BLOCK
  5
EE2D
330
EE23
100
AcDbEntity
  8
0
100
AcDbBlockBegin
  2
*D40
 70
     1
 10
0.0
 20
0.0
 30
0.0
  3
*D40
  1

  0
LINE
  5
F2DF
330
EE23
100
AcDbEntity
  8
AM_5
100
AcDbLine
 10
4143.714868839551
 20
2966.907910171
 30
0.0
 11
4128.964868839552
 21
2966.907910171
 31
0.0
  0
LINE
  5
F2E0
330
EE23
100
AcDbEntity
  8
AM_5
100
AcDbLine
 10
4139.96486879584
 20
2975.907910171
 30
0.0
 11
4128.964868839552
 21
2975.907910171
 31
0.0
  0
LINE
  5
F2E1
330
EE23
100
AcDbEntity
  8
AM_5
100
AcDbLine
 10
4129.964868839552
 20
2967.907910171
 30
0.0
 11
4129.964868839552
 21
2974.907910171
 31
0.0
  0
INSERT
  5
F2E2
330
EE23
100
AcDbEntity
  8
AM_5
100
AcDbBlockReference
  2
_Dot
 10
4129.964868839552
 20
2966.907910171
 30
0.0
 50
270.0
  0
INSERT
  5
F2E3
330
EE23
100
AcDbEntity
  8
AM_5
100
AcDbBlockReference
  2
_Dot
 10
4129.964868839552
 20
2975.907910171
 30
0.0
 50
90.0
  0
MTEXT
  5
F2E4
330
EE23
100
AcDbEntity
  8
AM_5
 62
     2
100
AcDbMText
 10
4126.86486883955
 20
2971.407910171001
 30
0.0
 40
3.200000000000001
 41
0.0
 46
0.0
 71
     5
 72
     1
  1
9
 11
0.0000000000000001
 21
1.0
 31
0.0
 73
     1
 44
1.0
  0
POINT
  5
F2E5
330
EE23
100
AcDbEntity
  8
Defpoints
 62
     0
100
AcDbPoint
 10
4144.714868839552
 20
2966.907910171
 30
0.0
  0
POINT
  5
F2E6
330
EE23
100
AcDbEntity
  8
Defpoints
 62
     0
100
AcDbPoint
 10
4140.96486879584
 20
2975.907910171
 30
0.0
  0
POINT
  5
F2E7
330
EE23
100
AcDbEntity
  8
Defpoints
 62
     0
100
AcDbPoint
 10
4129.964868839552
 20
2975.907910171
 30
0.0
  0
ENDBLK
  5
EE2E
330
EE23
100
AcDbEntity
  8
0
100
AcDbBlockEnd
  0
ENDSEC
  0
SECTION
  2
ENTITIES
  0
LINE
  5
C63D
330
1F
100
AcDbEntity
  8
size
100
AcDbLine
 10
3870.607479615755
 20
2826.796813310979
 30
0.0
 11
4290.607479615753
 21
2826.796813310979
 31
0.0
1001
GENIUS_GENREC_14
1002
{
1000
PYDIR
1011
3870.607479615755
1021
3123.796813310979
1031
0.0
1002
}
1002
{
1000
PXDIR
1011
4290.607479615753
1021
2826.796813310979
1031
0.0
1002
}
1002
{
1000
PORI
1011
3870.607479615755
1021
2826.796813310979
1031
0.0
1002
}
1002
{
1000
PINS
1011
4080.607479615753
1021
2975.296813310979
1031
0.0
1002
}
1002
{
1000
HVAL
1000
297
1002
}
1002
{
1000
H
1070
     2
1002
}
1002
{
1000
WVAL
1000
420
1002
}
1002
{
1000
W
1070
     2
1002
}
1002
{
1000
C
1070
     4
1002
}
1001
GENIUS_GENOBJ-N-REC_13
1002
{
1000
OWNER
1000
GEN
1002
}
1001
GENIUS_GENODEF_13
1002
{
1000
HIER
1070
     0
1002
}
1002
{
1000
MANEDIT
1070
     0
1002
}
1002
{
1000
NOSEL
1070
     0
1002
}
1002
{
1000
BEHIND
1070
     0
1002
}
1002
{
1000
OTHER
1070
     0
1002
}
1002
{
1000
REACTOR
1002
}
  0
LINE
  5
C63E
330
1F
100
AcDbEntity
  8
size
100
AcDbLine
 10
4290.607479615753
 20
2826.796813310979
 30
0.0
 11
4290.607479615753
 21
3123.796813310979
 31
0.0
1001
GENIUS_GENREC_14
1002
{
1000
PYDIR
1011
3870.607479615755
1021
3123.796813310979
1031
0.0
1002
}
1002
{
1000
PXDIR
1011
4290.607479615753
1021
2826.796813310979
1031
0.0
1002
}
1002
{
1000
PORI
1011
3870.607479615755
1021
2826.796813310979
1031
0.0
1002
}
1002
{
1000
PINS
1011
4080.607479615753
1021
2975.296813310979
1031
0.0
1002
}
1002
{
1000
HVAL
1000
297
1002
}
1002
{
1000
H
1070
     2
1002
}
1002
{
1000
WVAL
1000
420
1002
}
1002
{
1000
W
1070
     2
1002
}
1002
{
1000
C
1070
     4
1002
}
1001
GENIUS_GENOBJ-N-REC_13
1002
{
1000
OWNER
1000
GEN
1002
}
1001
GENIUS_GENODEF_13
1002
{
1000
HIER
1070
     0
1002
}
1002
{
1000
MANEDIT
1070
     0
1002
}
1002
{
1000
NOSEL
1070
     0
1002
}
1002
{
1000
BEHIND
1070
     0
1002
}
1002
{
1000
OTHER
1070
     0
1002
}
1002
{
1000
REACTOR
1002
}
  0
LINE
  5
C63F
330
1F
100
AcDbEntity
  8
size
100
AcDbLine
 10
4290.607479615753
 20
3123.796813310979
 30
0.0
 11
3870.607479615755
 21
3123.796813310979
 31
0.0
1001
GENIUS_GENREC_14
1002
{
1000
PYDIR
1011
3870.607479615755
1021
3123.796813310979
1031
0.0
1002
}
1002
{
1000
PXDIR
1011
4290.607479615753
1021
2826.796813310979
1031
0.0
1002
}
1002
{
1000
PORI
1011
3870.607479615755
1021
2826.796813310979
1031
0.0
1002
}
1002
{
1000
PINS
1011
4080.607479615753
1021
2975.296813310979
1031
0.0
1002
}
1002
{
1000
HVAL
1000
297
1002
}
1002
{
1000
H
1070
     2
1002
}
1002
{
1000
WVAL
1000
420
1002
}
1002
{
1000
W
1070
     2
1002
}
1002
{
1000
C
1070
     4
1002
}
1001
GENIUS_GENOBJ-N-REC_13
1002
{
1000
OWNER
1000
GEN
1002
}
1001
GENIUS_GENODEF_13
1002
{
1000
HIER
1070
     0
1002
}
1002
{
1000
MANEDIT
1070
     0
1002
}
1002
{
1000
NOSEL
1070
     0
1002
}
1002
{
1000
BEHIND
1070
     0
1002
}
1002
{
1000
OTHER
1070
     0
1002
}
1002
{
1000
REACTOR
1002
}
  0
LINE
  5
C640
330
1F
100
AcDbEntity
  8
size
100
AcDbLine
 10
3870.607479615755
 20
3123.796813310979
 30
0.0
 11
3870.607479615755
 21
2826.796813310979
 31
0.0
1001
GENIUS_GENREC_14
1002
{
1000
PYDIR
1011
3870.607479615755
1021
3123.796813310979
1031
0.0
1002
}
1002
{
1000
PXDIR
1011
4290.607479615753
1021
2826.796813310979
1031
0.0
1002
}
1002
{
1000
PORI
1011
3870.607479615755
1021
2826.796813310979
1031
0.0
1002
}
1002
{
1000
PINS
1011
4080.607479615753
1021
2975.296813310979
1031
0.0
1002
}
1002
{
1000
HVAL
1000
297
1002
}
1002
{
1000
H
1070
     2
1002
}
1002
{
1000
WVAL
1000
420
1002
}
1002
{
1000
W
1070
     2
1002
}
1002
{
1000
C
1070
     4
1002
}
1001
GENIUS_GENOBJ-N-REC_13
1002
{
1000
OWNER
1000
GEN
1002
}
1001
GENIUS_GENODEF_13
1002
{
1000
HIER
1070
     0
1002
}
1002
{
1000
MANEDIT
1070
     0
1002
}
1002
{
1000
NOSEL
1070
     0
1002
}
1002
{
1000
BEHIND
1070
     0
1002
}
1002
{
1000
OTHER
1070
     0
1002
}
1002
{
1000
REACTOR
1002
}
  0
LINE
  5
C641
330
1F
100
AcDbEntity
  8
waku
100
AcDbLine
 10
4279.107479615753
 20
2835.296813310979
 30
0.0
 11
4279.107479615753
 21
3115.29681331098
 31
0.0
1001
GENIUS_GENREC_14
1002
{
1000
PYDIR
1011
3870.607479615755
1021
3123.796813310979
1031
0.0
1002
}
1002
{
1000
PXDIR
1011
4290.607479615753
1021
2826.796813310979
1031
0.0
1002
}
1002
{
1000
PORI
1011
3870.607479615755
1021
2826.796813310979
1031
0.0
1002
}
1002
{
1000
PINS
1011
4080.607479615753
1021
2975.296813310979
1031
0.0
1002
}
1002
{
1000
HVAL
1000
297
1002
}
1002
{
1000
H
1070
     2
1002
}
1002
{
1000
WVAL
1000
420
1002
}
1002
{
1000
W
1070
     2
1002
}
1002
{
1000
C
1070
     4
1002
}
1001
GENIUS_GENOBJ-N-REC_13
1002
{
1000
OWNER
1000
GEN
1002
}
1001
GENIUS_GENODEF_13
1002
{
1000
HIER
1070
     0
1002
}
1002
{
1000
MANEDIT
1070
     0
1002
}
1002
{
1000
NOSEL
1070
     0
1002
}
1002
{
1000
BEHIND
1070
     0
1002
}
1002
{
1000
OTHER
1070
     0
1002
}
1002
{
1000
REACTOR
1002
}
  0
LINE
  5
C642
330
1F
100
AcDbEntity
  8
waku
100
AcDbLine
 10
3882.107479615754
 20
3115.29681331098
 30
0.0
 11
3882.107479615754
 21
2835.296813310979
 31
0.0
1001
GENIUS_GENREC_14
1002
{
1000
PYDIR
1011
3870.607479615755
1021
3123.796813310979
1031
0.0
1002
}
1002
{
1000
PXDIR
1011
4290.607479615753
1021
2826.796813310979
1031
0.0
1002
}
1002
{
1000
PORI
1011
3870.607479615755
1021
2826.796813310979
1031
0.0
1002
}
1002
{
1000
PINS
1011
4080.607479615753
1021
2975.296813310979
1031
0.0
1002
}
1002
{
1000
HVAL
1000
297
1002
}
1002
{
1000
H
1070
     2
1002
}
1002
{
1000
WVAL
1000
420
1002
}
1002
{
1000
W
1070
     2
1002
}
1002
{
1000
C
1070
     4
1002
}
1001
GENIUS_GENOBJ-N-REC_13
1002
{
1000
OWNER
1000
GEN
1002
}
1001
GENIUS_GENODEF_13
1002
{
1000
HIER
1070
     0
1002
}
1002
{
1000
MANEDIT
1070
     0
1002
}
1002
{
1000
NOSEL
1070
     0
1002
}
1002
{
1000
BEHIND
1070
     0
1002
}
1002
{
1000
OTHER
1070
     0
1002
}
1002
{
1000
REACTOR
1002
}
  0
LINE
  5
C643
330
1F
100
AcDbEntity
  8
waku
100
AcDbLine
 10
4279.107479615753
 20
3115.29681331098
 30
0.0
 11
3882.107479615754
 21
3115.29681331098
 31
0.0
1001
GENIUS_GENREC_14
1002
{
1000
PYDIR
1011
3870.607479615755
1021
3123.796813310979
1031
0.0
1002
}
1002
{
1000
PXDIR
1011
4290.607479615753
1021
2826.796813310979
1031
0.0
1002
}
1002
{
1000
PORI
1011
3870.607479615755
1021
2826.796813310979
1031
0.0
1002
}
1002
{
1000
PINS
1011
4080.607479615753
1021
2975.296813310979
1031
0.0
1002
}
1002
{
1000
HVAL
1000
297
1002
}
1002
{
1000
H
1070
     2
1002
}
1002
{
1000
WVAL
1000
420
1002
}
1002
{
1000
W
1070
     2
1002
}
1002
{
1000
C
1070
     4
1002
}
  0
LINE
  5
C644
330
1F
100
AcDbEntity
  8
waku
100
AcDbLine
 10
3882.107479615754
 20
2835.296813310979
 30
0.0
 11
4279.107479615753
 21
2835.296813310979
 31
0.0
  0
LINE
  5
C645
330
1F
100
AcDbEntity
  8
AM_0
100
AcDbLine
 10
3882.107479615754
 20
3115.29681331098
 30
0.0
 11
3976.676991111173
 21
3115.29681331098
 31
0.0
  0
LINE
  5
C646
330
1F
100
AcDbEntity
  8
AM_2
100
AcDbLine
 10
3882.107479615754
 20
3083.296813310979
 30
0.0
 11
3976.676991111173
 21
3083.296813310979
 31
0.0
  0
LINE
  5
C647
330
1F
100
AcDbEntity
  8
AM_2
100
AcDbLine
 10
3882.107479615754
 20
3091.296813310979
 30
0.0
 11
3976.676991111173
 21
3091.296813310979
 31
0.0
  0
LINE
  5
C648
330
1F
100
AcDbEntity
  8
AM_2
100
AcDbLine
 10
3882.107479615754
 20
3099.296813310979
 30
0.0
 11
3976.676991111173
 21
3099.296813310979
 31
0.0
  0
LINE
  5
C649
330
1F
100
AcDbEntity
  8
AM_2
100
AcDbLine
 10
3882.107479615754
 20
3107.296813310979
 30
0.0
 11
3976.676991111173
 21
3107.296813310979
 31
0.0
  0
LINE
  5
C64A
330
1F
100
AcDbEntity
  8
AM_0
100
AcDbLine
 10
3882.107479615754
 20
3115.29681331098
 30
0.0
 11
3882.107479615754
 21
3075.296813310979
 31
0.0
  0
LINE
  5
C64B
330
1F
100
AcDbEntity
  8
AM_2
100
AcDbLine
 10
3905.107479615754
 20
3115.29681331098
 30
0.0
 11
3905.107479615754
 21
3067.296813310979
 31
0.0
  0
MTEXT
  5
C64C
330
1F
100
AcDbEntity
  8
AM_6
100
AcDbMText
 10
3893.607479615754
 20
3087.296813310979
 30
0.0
 40
3.2
 41
23.0
 46
0.0
 71
     5
 72
     5
  1
仕上げ
 73
     1
 44
1.0
  0
MTEXT
  5
C64D
330
1F
100
AcDbEntity
  8
AM_6
100
AcDbMText
 10
3893.607479615754
 20
3095.296813310979
 30
0.0
 40
3.2
 41
23.0
 46
0.0
 71
     5
 72
     5
  1
材質
 73
     1
 44
1.0
  0
MTEXT
  5
C64E
330
1F
100
AcDbEntity
  8
AM_6
100
AcDbMText
 10
3893.607479615754
 20
3111.296813310979
 30
0.0
 40
3.2
 41
23.0
 46
0.0
 71
     5
 72
     5
  1
品名
 73
     1
 44
1.0
  0
MTEXT
  5
C64F
330
1F
100
AcDbEntity
  8
AM_6
100
AcDbMText
 10
3893.607479615754
 20
3103.296813310979
 30
0.0
 40
3.2
 41
23.0
 46
0.0
 71
     5
 72
     5
  1
品番
 73
     1
 44
1.0
  0
MTEXT
  5
C650
330
1F
100
AcDbEntity
  8
AM_6
100
AcDbMText
 10
3905.107479615754
 20
3087.296813310979
 30
0.0
 40
3.2
 41
90.0
 46
0.0
 71
     4
 72
     5
  1
　サーチライトニッケルクロム
 73
     1
 44
1.0
  0
MTEXT
  5
C651
330
1F
100
AcDbEntity
  8
AM_6
100
AcDbMText
 10
3905.107479615754
 20
3095.296813310979
 30
0.0
 40
3.2
 41
90.0
 46
0.0
 71
     4
 72
     5
  1
　亜鉛ダイキャスト
 73
     1
 44
1.0
  0
MTEXT
  5
C652
330
1F
100
AcDbEntity
  8
AM_6
100
AcDbMText
 10
3905.107479615754
 20
3103.296813310979
 30
0.0
 40
3.2
 41
90.0
 46
0.0
 71
     4
 72
     5
  1
　DFB-28
 73
     1
 44
1.0
  0
MTEXT
  5
C653
330
1F
100
AcDbEntity
  8
AM_6
100
AcDbMText
 10
3905.107479615754
 20
3111.296813310979
 30
0.0
 40
3.2
 41
90.0
 46
0.0
 71
     4
 72
     5
  1
　ローラー付グレモンハンドル受（掘込タイプ）
 73
     1
 44
1.0
  0
MTEXT
  5
C654
330
1F
100
AcDbEntity
  8
AM_6
100
AcDbMText
 10
3893.607479615754
 20
3079.296813310979
 30
0.0
 40
3.2
 41
23.0
 46
0.0
 71
     5
 72
     5
  1
セットビス
 73
     1
 44
1.0
  0
MTEXT
  5
C655
330
1F
100
AcDbEntity
  8
AM_6
100
AcDbMText
 10
3905.107479615754
 20
3079.296813310979
 30
0.0
 40
3.2
 41
90.0
 46
0.0
 71
     4
 72
     5
  1
　M4×10　D=6 サラ小ネジ　+  SUS   2本付　
 73
     1
 44
1.0
  0
LINE
  5
C656
330
1F
100
AcDbEntity
  8
AM_0
100
AcDbLine
 10
3882.107479615754
 20
3067.296813310979
 30
0.0
 11
3976.676991111173
 21
3067.296813310979
 31
0.0
  0
LINE
  5
C657
330
1F
100
AcDbEntity
  8
AM_0
100
AcDbLine
 10
3976.676991111173
 20
3115.29681331098
 30
0.0
 11
3976.676991111173
 21
3067.296813310979
 31
0.0
  0
CIRCLE
  5
C658
330
1F
100
AcDbEntity
  8
AM_6
100
AcDbCircle
 10
3948.117834544038
 20
3079.049950326264
 30
0.0
 40
2.252271541660876
  0
LINE
  5
DFCF
330
1F
100
AcDbEntity
  8
AM_0
100
AcDbLine
 10
4140.964868839552
 20
2975.907910171
 30
0.0
 11
4184.964868839552
 21
2975.907910171
 31
0.0
  0
LINE
  5
DFD0
330
1F
100
AcDbEntity
  8
AM_7
  6
中心線1
100
AcDbLine
 10
4162.964868839551
 20
2978.907910171
 30
0.0
 11
4162.964868839551
 21
2849.907910171
 31
0.0
  0
LINE
  5
DFD1
330
1F
100
AcDbEntity
  8
AM_0
100
AcDbLine
 10
4139.964868839552
 20
2974.907910171
 30
0.0
 11
4139.964868839552
 21
2853.907910171
 31
0.0
  0
LINE
  5
DFD2
330
1F
100
AcDbEntity
  8
AM_0
100
AcDbLine
 10
4185.964868839551
 20
2974.907910171
 30
0.0
 11
4185.964868839551
 21
2853.907910171
 31
0.0
  0
LINE
  5
DFD3
330
1F
100
AcDbEntity
  8
AM_0
  6
中線
100
AcDbLine
 10
4140.964868839552
 20
2852.907910171
 30
0.0
 11
4184.964868839552
 21
2852.907910171
 31
0.0
  0
LINE
  5
DFD5
330
1F
100
AcDbEntity
  8
AM_0
  6
中線
 48
0.5
100
AcDbLine
 10
4175.464868839552
 20
2944.407910171
 30
0.0
 11
4175.464868839552
 21
2931.907910171
 31
0.0
  0
LINE
  5
DFD6
330
1F
100
AcDbEntity
  8
AM_0
  6
中線
 48
0.5
100
AcDbLine
 10
4159.464868839557
 20
2871.907910171
 30
0.0
 11
4166.464868839546
 21
2871.907910171
 31
0.0
  0
LINE
  5
DFD7
330
1F
100
AcDbEntity
  8
AM_0
  6
中線
 48
0.5
100
AcDbLine
 10
4150.464868839551
 20
2944.407910171
 30
0.0
 11
4150.464868839551
 21
2931.907910171
 31
0.0
  0
LINE
  5
DFEA
330
1F
100
AcDbEntity
  8
AM_7
  6
中心線1
 48
0.5
100
AcDbLine
 10
4144.714868839552
 20
2966.907910171
 30
0.0
 11
4181.214868839552
 21
2966.907910171
 31
0.0
  0
LINE
  5
DFEB
330
1F
100
AcDbEntity
  8
AM_7
  6
中心線1
 48
0.5
100
AcDbLine
 10
4172.964868839552
 20
2961.657910171
 30
0.0
 11
4172.964868839552
 21
2972.157910171
 31
0.0
  0
LINE
  5
DFED
330
1F
100
AcDbEntity
  8
AM_0
  6
中線
 48
0.5
100
AcDbLine
 10
4169.964868839552
 20
2964.657910171
 30
0.0
 11
4175.964868839552
 21
2964.657910171
 31
0.0
  0
LINE
  5
DFEE
330
1F
100
AcDbEntity
  8
AM_0
  6
中線
 48
0.5
100
AcDbLine
 10
4169.964868839552
 20
2969.157910171
 30
0.0
 11
4175.964868839552
 21
2969.157910171
 31
0.0
  0
LINE
  5
DFF0
330
1F
100
AcDbEntity
  8
AM_7
  6
中心線1
 48
0.5
100
AcDbLine
 10
4152.964868839552
 20
2961.657910171
 30
0.0
 11
4152.964868839552
 21
2972.157910171
 31
0.0
  0
LINE
  5
DFF3
330
1F
100
AcDbEntity
  8
AM_0
  6
中線
 48
0.5
100
AcDbLine
 10
4155.964868839552
 20
2964.657910171
 30
0.0
 11
4149.964868839552
 21
2964.657910171
 31
0.0
  0
LINE
  5
DFF4
330
1F
100
AcDbEntity
  8
AM_0
  6
中線
 48
0.5
100
AcDbLine
 10
4155.964868839552
 20
2969.157910171
 30
0.0
 11
4149.964868839552
 21
2969.157910171
 31
0.0
  0
LINE
  5
E00C
330
1F
100
AcDbEntity
  8
AM_3
100
AcDbLine
 10
4147.964868839552
 20
2971.907910171
 30
0.0
 11
4177.964868839551
 21
2971.907910171
 31
0.0
  0
LINE
  5
E00D
330
1F
100
AcDbEntity
  8
AM_3
100
AcDbLine
 10
4147.964868839552
 20
2961.907910171
 30
0.0
 11
4177.964868839551
 21
2961.907910171
 31
0.0
  0
LINE
  5
E022
330
1F
100
AcDbEntity
  8
AM_3
 48
0.5
100
AcDbLine
 10
4147.964868839552
 20
2971.907910171
 30
0.0
 11
4147.964868839552
 21
2961.907910171
 31
0.0
  0
LINE
  5
E023
330
1F
100
AcDbEntity
  8
AM_3
 48
0.5
100
AcDbLine
 10
4177.964868839551
 20
2971.907910171
 30
0.0
 11
4177.964868839551
 21
2961.907910171
 31
0.0
  0
ARC
  5
E078
330
1F
100
AcDbEntity
  8
AM_0
 48
0.5
100
AcDbCircle
 10
4140.964868839552
 20
2974.907910171
 30
0.0
 40
1.0
100
AcDbArc
 50
90.00000250446868
 51
180.0000050089634
  0
ARC
  5
E079
330
1F
100
AcDbEntity
  8
AM_0
 48
0.5
100
AcDbCircle
 10
4184.964868839552
 20
2974.907910171
 30
0.0
 40
1.0
100
AcDbArc
 50
0.0
 51
90.00000250446868
  0
ARC
  5
E07A
330
1F
100
AcDbEntity
  8
AM_0
  6
中線
 48
0.5
100
AcDbCircle
 10
4184.964868839552
 20
2853.907910171
 30
0.0
 40
1.0
100
AcDbArc
 50
269.9999974955052
 51
0.0
  0
ARC
  5
E07B
330
1F
100
AcDbEntity
  8
AM_0
  6
中線
 48
0.5
100
AcDbCircle
 10
4140.964868839552
 20
2853.907910171
 30
0.0
 40
1.0
100
AcDbArc
 50
179.999991348559
 51
270.000000683243
  0
ARC
  5
E07C
330
1F
100
AcDbEntity
  8
AM_0
  6
中線
100
AcDbCircle
 10
4162.964868839551
 20
2944.407910171
 30
0.0
 40
12.5
100
AcDbArc
 50
0.0
 51
180.0000050089634
  0
ARC
  5
E083
330
1F
100
AcDbEntity
  8
AM_0
  6
中線
 48
0.5
100
AcDbCircle
 10
4175.964868839552
 20
2966.907910171
 30
0.0
 40
2.25
100
AcDbArc
 50
269.9999974955052
 51
90.00000250446868
  0
ARC
  5
E084
330
1F
100
AcDbEntity
  8
AM_0
  6
中線
 48
0.5
100
AcDbCircle
 10
4169.964868839552
 20
2966.907910171
 30
0.0
 40
2.25
100
AcDbArc
 50
90.00000250446868
 51
270.000000683243
  0
ARC
  5
E085
330
1F
100
AcDbEntity
  8
AM_0
  6
中線
 48
0.5
100
AcDbCircle
 10
4149.964868839552
 20
2966.907910171
 30
0.0
 40
2.25
100
AcDbArc
 50
90.00000250446868
 51
270.000000683243
  0
ARC
  5
E086
330
1F
100
AcDbEntity
  8
AM_0
  6
中線
 48
0.5
100
AcDbCircle
 10
4155.964868839552
 20
2966.907910171
 30
0.0
 40
2.25
100
AcDbArc
 50
269.9999974955052
 51
90.00000250446868
  0
CIRCLE
  5
E09B
330
1F
100
AcDbEntity
  8
AM_0
  6
中線
 48
0.5
100
AcDbCircle
 10
4152.964868839552
 20
2966.907910171
 30
0.0
 40
2.25
  0
CIRCLE
  5
E09C
330
1F
100
AcDbEntity
  8
AM_0
  6
中線
 48
0.5
100
AcDbCircle
 10
4172.964868839552
 20
2966.907910171
 30
0.0
 40
2.25
  0
CIRCLE
  5
E0A1
330
1F
100
AcDbEntity
  8
AM_3
 48
0.5
100
AcDbCircle
 10
4162.964868839551
 20
2966.907910171
 30
0.0
 40
3.25
  0
CIRCLE
  5
E0A2
330
1F
100
AcDbEntity
  8
AM_3
 48
0.5
100
AcDbCircle
 10
4162.964868839551
 20
2966.907910171
 30
0.0
 40
2.25
  0
LINE
  5
E3D1
330
1F
100
AcDbEntity
  8
AM_7
100
AcDbLine
 10
4136.964868839552
 20
2914.407910171
 30
0.0
 11
4188.964868839551
 21
2914.407910171
 31
0.0
1001
GENIUS_GENOBJ-N-CEN_13
1002
{
1000
OWNER
1000
GEN
1002
}
1001
GENIUS_GENODEF_13
1002
{
1000
HIER
1070
     0
1002
}
1002
{
1000
MANEDIT
1070
     0
1002
}
1002
{
1000
NOSEL
1070
     0
1002
}
1002
{
1000
BEHIND
1070
     0
1002
}
1002
{
1000
OTHER
1070
     0
1002
}
1002
{
1000
REACTOR
1002
}
1001
GENIUS_GENCEN_19
1002
{
1040
3.0
1002
}
  0
LINE
  5
E406
330
1F
100
AcDbEntity
  8
AM_7
  6
中心線1
 48
0.5
100
AcDbLine
 10
4144.714868839552
 20
2861.907910171
 30
0.0
 11
4181.214868839552
 21
2861.907910171
 31
0.0
  0
LINE
  5
E407
330
1F
100
AcDbEntity
  8
AM_7
  6
中心線1
 48
0.5
100
AcDbLine
 10
4172.964868839552
 20
2867.157910171
 30
0.0
 11
4172.964868839552
 21
2856.657910171
 31
0.0
  0
LINE
  5
E408
330
1F
100
AcDbEntity
  8
AM_0
  6
中線
 48
0.5
100
AcDbLine
 10
4169.964868839552
 20
2864.157910171
 30
0.0
 11
4175.964868839552
 21
2864.157910171
 31
0.0
  0
LINE
  5
E409
330
1F
100
AcDbEntity
  8
AM_0
  6
中線
 48
0.5
100
AcDbLine
 10
4169.964868839552
 20
2859.657910171
 30
0.0
 11
4175.964868839552
 21
2859.657910171
 31
0.0
  0
LINE
  5
E40A
330
1F
100
AcDbEntity
  8
AM_7
  6
中心線1
 48
0.5
100
AcDbLine
 10
4152.964868839552
 20
2867.157910171
 30
0.0
 11
4152.964868839552
 21
2856.657910171
 31
0.0
  0
LINE
  5
E40C
330
1F
100
AcDbEntity
  8
AM_0
  6
中線
 48
0.5
100
AcDbLine
 10
4155.964868839552
 20
2864.157910171
 30
0.0
 11
4149.964868839552
 21
2864.157910171
 31
0.0
  0
LINE
  5
E40D
330
1F
100
AcDbEntity
  8
AM_0
  6
中線
 48
0.5
100
AcDbLine
 10
4155.964868839552
 20
2859.657910171
 30
0.0
 11
4149.964868839552
 21
2859.657910171
 31
0.0
  0
LINE
  5
E40E
330
1F
100
AcDbEntity
  8
AM_3
100
AcDbLine
 10
4147.964868839552
 20
2856.907910171
 30
0.0
 11
4177.964868839551
 21
2856.907910171
 31
0.0
  0
LINE
  5
E40F
330
1F
100
AcDbEntity
  8
AM_3
100
AcDbLine
 10
4147.964868839552
 20
2866.907910171
 30
0.0
 11
4177.964868839551
 21
2866.907910171
 31
0.0
  0
LINE
  5
E410
330
1F
100
AcDbEntity
  8
AM_3
 48
0.5
100
AcDbLine
 10
4147.964868839552
 20
2856.907910171
 30
0.0
 11
4147.964868839552
 21
2866.907910171
 31
0.0
  0
LINE
  5
E411
330
1F
100
AcDbEntity
  8
AM_3
 48
0.5
100
AcDbLine
 10
4177.964868839551
 20
2856.907910171
 30
0.0
 11
4177.964868839551
 21
2866.907910171
 31
0.0
  0
ARC
  5
E412
330
1F
100
AcDbEntity
  8
AM_0
  6
中線
 48
0.5
100
AcDbCircle
 10
4175.964868839552
 20
2861.907910171
 30
0.0
 40
2.25
100
AcDbArc
 50
269.9999974955313
 51
90.00000250449476
  0
ARC
  5
E413
330
1F
100
AcDbEntity
  8
AM_0
  6
中線
 48
0.5
100
AcDbCircle
 10
4169.964868839552
 20
2861.907910171
 30
0.0
 40
2.25
100
AcDbArc
 50
89.999999316757
 51
269.9999974955313
  0
ARC
  5
E414
330
1F
100
AcDbEntity
  8
AM_0
  6
中線
 48
0.5
100
AcDbCircle
 10
4149.964868839552
 20
2861.907910171
 30
0.0
 40
2.25
100
AcDbArc
 50
89.999999316757
 51
269.9999974955313
  0
ARC
  5
E415
330
1F
100
AcDbEntity
  8
AM_0
  6
中線
 48
0.5
100
AcDbCircle
 10
4155.964868839552
 20
2861.907910171
 30
0.0
 40
2.25
100
AcDbArc
 50
269.9999974955313
 51
90.00000250449476
  0
CIRCLE
  5
E416
330
1F
100
AcDbEntity
  8
AM_0
  6
中線
 48
0.5
100
AcDbCircle
 10
4152.964868839552
 20
2861.907910171
 30
0.0
 40
2.25
  0
CIRCLE
  5
E417
330
1F
100
AcDbEntity
  8
AM_0
  6
中線
 48
0.5
100
AcDbCircle
 10
4172.964868839552
 20
2861.907910171
 30
0.0
 40
2.25
  0
CIRCLE
  5
E418
330
1F
100
AcDbEntity
  8
AM_3
 48
0.5
100
AcDbCircle
 10
4162.964868839551
 20
2861.907910171
 30
0.0
 40
3.25
  0
CIRCLE
  5
E419
330
1F
100
AcDbEntity
  8
AM_3
 48
0.5
100
AcDbCircle
 10
4162.964868839551
 20
2861.907910171
 30
0.0
 40
2.25
  0
ARC
  5
E47D
330
1F
100
AcDbEntity
  8
AM_0
100
AcDbCircle
 10
4159.464868839557
 20
2882.407910171
 30
0.0
 40
10.5
100
AcDbArc
 50
178.2586855365248
 51
270.0
  0
LINE
  5
E47E
330
1F
100
AcDbEntity
  8
AM_0
100
AcDbLine
 10
4148.969717647973
 20
2882.726973590711
 30
0.0
 11
4150.464868839551
 21
2931.907910171
 31
0.0
  0
ARC
  5
E480
330
1F
100
AcDbEntity
  8
AM_0
100
AcDbCircle
 10
4166.464868839546
 20
2882.407910171
 30
0.0
 40
10.5
100
AcDbArc
 50
270.0
 51
1.741314463475128
  0
LINE
  5
E481
330
1F
100
AcDbEntity
  8
AM_0
100
AcDbLine
 10
4176.96002003113
 20
2882.726973590711
 30
0.0
 11
4175.464868839552
 21
2931.907910171
 31
0.0
  0
DIMENSION
  5
E4A5
330
1F
100
AcDbEntity
  8
AM_5
100
AcDbDimension
  2
*D19
 10
4129.964868839552
 20
2861.907910171
 30
0.0
 11
4126.86486883955
 21
2914.407910171
 31
0.0
 70
    32
 71
     5
 42
105.0
 73
     0
 74
     0
 75
     0
  3
SYS$0
100
AcDbAlignedDimension
 13
4144.714868839552
 23
2966.907910171
 33
0.0
 14
4144.714868839552
 24
2861.907910171
 34
0.0
 50
90.0
100
AcDbRotatedDimension
  0
LINE
  5
E4D3
330
1F
100
AcDbEntity
  8
AM_0
100
AcDbLine
 10
4139.964868839552
 20
2974.907910171
 30
0.0
 11
4139.964868839552
 21
2853.907910171
 31
0.0
  0
DIMENSION
  5
E4F0
330
1F
100
AcDbEntity
  8
AM_5
100
AcDbDimension
  2
*D20
 10
4119.964868839551
 20
2852.907910171
 30
0.0
 11
4116.864868839551
 21
2914.407910171
 31
0.0
 70
    32
 71
     5
 42
123.0
 73
     0
 74
     0
 75
     0
  3
SYS$0
100
AcDbAlignedDimension
 13
4140.964868839552
 23
2975.907910171
 33
0.0
 14
4140.964868839552
 24
2852.907910171
 34
0.0
 50
90.0
100
AcDbRotatedDimension
  0
DIMENSION
  5
E508
330
1F
100
AcDbEntity
  8
AM_5
100
AcDbDimension
  2
*D21
 10
4172.964868839552
 20
2985.898289891512
 30
0.0
 11
4162.964868839551
 21
2988.998289891512
 31
0.0
 70
    32
 71
     5
 42
20.0
 73
     0
 74
     0
 75
     0
  3
SYS$0
100
AcDbAlignedDimension
 13
4152.964868839552
 23
2972.157910171
 33
0.0
 14
4172.964868839552
 24
2972.157910171001
 34
0.0
100
AcDbRotatedDimension
  0
DIMENSION
  5
E527
330
1F
100
AcDbEntity
  8
AM_5
100
AcDbDimension
  2
*D22
 10
4185.964868839551
 20
2995.89828989151
 30
0.0
 11
4162.964868839551
 21
2998.99828989151
 31
0.0
 70
    32
 71
     5
 42
46.0
 73
     0
 74
     0
 75
     0
  3
SYS$0
100
AcDbAlignedDimension
 13
4139.964868839552
 23
2974.907910171
 33
0.0
 14
4185.964868839551
 24
2974.907910171
 34
0.0
100
AcDbRotatedDimension
  0
DIMENSION
  5
E5F9
330
1F
100
AcDbEntity
  8
AM_5
100
AcDbDimension
  2
*D23
 10
4090.711860055427
 20
3024.407910489983
 30
0.0
 11
4087.611860055427
 21
3029.407910330492
 31
0.0
 70
    32
  1
3
 71
     5
 42
9.99999968101747
 73
     0
 74
     0
 75
     0
  3
SYS$0
100
AcDbAlignedDimension
 13
4078.711860055427
 23
3034.407910171
 33
0.0
 14
4071.311866158943
 24
3024.407910489983
 34
0.0
 50
90.0
100
AcDbRotatedDimension
1001
ACAD
1000
DSTYLE
1002
{
1070
    76
1070
     1
1070
   173
1070
     1
1070
   342
1005
0
1070
   343
1005
6C4
1070
   344
1005
A66
1002
}
  0
DIMENSION
  5
E638
330
1F
100
AcDbEntity
  8
AM_5
100
AcDbDimension
  2
*D24
 10
4090.711860055427
 20
3044.407909852017
 30
0.0
 11
4087.611860055427
 21
3039.407910011509
 31
0.0
 70
    32
  1
3
 71
     5
 42
9.99999968101747
 73
     0
 74
     0
 75
     0
  3
SYS$0
100
AcDbAlignedDimension
 13
4078.711860055427
 23
3034.407910171
 33
0.0
 14
4071.311866158943
 24
3044.407909852017
 34
0.0
 50
270.0
100
AcDbRotatedDimension
1001
ACAD
1000
DSTYLE
1002
{
1070
    76
1070
     1
1070
   173
1070
     1
1070
   342
1005
0
1070
   343
1005
6C4
1070
   344
1005
A66
1002
}
  0
MTEXT
  5
E64D
330
1F
100
AcDbEntity
  8
AM_6
100
AcDbMText
 10
4092.960779585106
 20
3029.146037047712
 30
0.0
 40
3.2
 41
13.4971743837641
 46
0.0
 71
     1
 72
     5
  1
調整寸法
 11
0.0000000000000001
 21
1.0
 31
0.0
 73
     1
 44
1.0
  0
DIMENSION
  5
E64E
330
1F
100
AcDbEntity
  8
AM_5
100
AcDbDimension
  2
*D25
 10
4154.49872228218
 20
2965.261765093389
 30
0.0
 11
4128.056860469243
 21
2985.790671000178
 31
0.0
 70
   163
  1
4-<>
 71
     5
 42
4.500000000001364
 73
     0
 74
     0
 75
     0
  3
SYS$3
100
AcDbDiametricDimension
 15
4151.431015396918
 25
2968.554055248604
 35
0.0
 40
0.0
1001
ACAD
1000
DSTYLE
1002
{
1070
   172
1070
     1
1070
   342
1005
B478
1002
}
  0
LINE
  5
E894
330
1F
100
AcDbEntity
  8
AM_0
  6
中線
100
AcDbLine
 10
4064.964868839552
 20
2974.907910171
 30
0.0
 11
4064.964868839552
 21
2853.907910171
 31
0.0
  0
LINE
  5
E895
330
1F
100
AcDbEntity
  8
AM_0
  6
中線
 48
0.5
100
AcDbLine
 10
4063.964868839551
 20
2975.907910171
 30
0.0
 11
4060.66486960249
 21
2975.907910171
 31
0.0
  0
LINE
  5
E896
330
1F
100
AcDbEntity
  8
AM_0
  6
中線
 48
0.5
100
AcDbLine
 10
4063.964868839551
 20
2975.907910171
 30
0.0
 11
4060.66486960249
 21
2975.907910171
 31
0.0
  0
LINE
  5
E897
330
1F
100
AcDbEntity
  8
AM_0
  6
中線
 48
0.5
100
AcDbLine
 10
4063.964868839551
 20
2852.907910171
 30
0.0
 11
4060.66486960249
 21
2852.907910171
 31
0.0
  0
LINE
  5
E899
330
1F
100
AcDbEntity
  8
AM_0
  6
中線
100
AcDbLine
 10
4060.66486960249
 20
2975.907910171
 30
0.0
 11
4060.66486960249
 21
2852.907910171
 31
0.0
  0
LINE
  5
E89A
330
1F
100
AcDbEntity
  8
AM_3
 48
0.5
100
AcDbLine
 10
4062.964868839552
 20
2971.907910171
 30
0.0
 11
4062.964868839552
 21
2961.907910171
 31
0.0
  0
LINE
  5
E89B
330
1F
100
AcDbEntity
  8
AM_0
  6
中線
 48
0.5
100
AcDbLine
 10
4032.964868839552
 20
2954.48037416025
 30
0.0
 11
4032.964868839552
 21
2931.907910171
 31
0.0
  0
LINE
  5
E89C
330
1F
100
AcDbEntity
  8
AM_3
100
AcDbLine
 10
4064.964868839552
 20
2956.976534940729
 30
0.0
 11
4036.412519598999
 21
2955.979460400936
 31
0.0
  0
LINE
  5
E89D
330
1F
100
AcDbEntity
  8
AM_3
100
AcDbLine
 10
4034.96486883955
 20
2954.48037416025
 30
0.0
 11
4034.964868839551
 21
2931.907910171
 31
0.0
  0
LINE
  5
E89E
330
1F
100
AcDbEntity
  8
AM_0
  6
中線
 48
0.5
100
AcDbLine
 10
4060.666269596387
 20
2958.82764131113
 30
0.0
 11
4036.342720611598
 21
2957.978242055184
 31
0.0
  0
LINE
  5
E89F
330
1F
100
AcDbEntity
  8
AM_7
  6
中心線1
 48
0.5
100
AcDbLine
 10
4067.964868839552
 20
2966.907910171
 30
0.0
 11
4057.464868839551
 21
2966.907910171
 31
0.0
  0
LINE
  5
E8A0
330
1F
100
AcDbEntity
  8
AM_7
  6
中心線1
 48
0.5
100
AcDbLine
 10
4067.964868839552
 20
2861.907910171
 30
0.0
 11
4057.464868839551
 21
2861.907910171
 31
0.0
  0
LINE
  5
E8A1
330
1F
100
AcDbEntity
  8
AM_0
  6
中線
 48
0.5
100
AcDbLine
 10
4060.464868839551
 20
2866.907910171
 30
0.0
 11
4060.464868839551
 21
2856.907910171
 31
0.0
  0
LINE
  5
E8A2
330
1F
100
AcDbEntity
  8
AM_3
 48
0.5
100
AcDbLine
 10
4062.964868839552
 20
2866.907910171
 30
0.0
 11
4060.464868839551
 21
2866.907910171
 31
0.0
  0
LINE
  5
E8A3
330
1F
100
AcDbEntity
  8
AM_3
 48
0.5
100
AcDbLine
 10
4062.964868839552
 20
2856.907910171
 30
0.0
 11
4060.464868839551
 21
2856.907910171
 31
0.0
  0
LINE
  5
E8A4
330
1F
100
AcDbEntity
  8
AM_0
  6
中線
 48
0.5
100
AcDbLine
 10
4060.464868839551
 20
2971.907910171
 30
0.0
 11
4060.464868839551
 21
2961.907910171
 31
0.0
  0
LINE
  5
E8A5
330
1F
100
AcDbEntity
  8
AM_3
 48
0.5
100
AcDbLine
 10
4062.964868839552
 20
2971.907910171
 30
0.0
 11
4060.464868839551
 21
2971.907910171
 31
0.0
  0
LINE
  5
E8A6
330
1F
100
AcDbEntity
  8
AM_3
 48
0.5
100
AcDbLine
 10
4062.964868839552
 20
2961.907910171
 30
0.0
 11
4060.464868839551
 21
2961.907910171
 31
0.0
  0
ARC
  5
E8A7
330
1F
100
AcDbEntity
  8
AM_0
  6
中線
 48
0.5
100
AcDbCircle
 10
4063.964868839551
 20
2974.907910171
 30
0.0
 40
1.0
100
AcDbArc
 50
359.9999949910365
 51
89.99999749553131
  0
ARC
  5
E8A8
330
1F
100
AcDbEntity
  8
AM_0
  6
中線
 48
0.5
100
AcDbCircle
 10
4063.964868839551
 20
2853.907910171
 30
0.0
 40
1.0
100
AcDbArc
 50
269.9999993167831
 51
0.0000086514409362
  0
ARC
  5
E8AA
330
1F
100
AcDbEntity
  8
AM_0
  6
中線
100
AcDbCircle
 10
4109.964868839552
 20
2931.907910171
 30
0.0
 40
77.0
100
AcDbArc
 50
180.0
 51
230.188810587329
  0
ARC
  5
E8AB
330
1F
100
AcDbEntity
  8
AM_3
100
AcDbCircle
 10
4036.464868839551
 20
2954.48037416025
 30
0.0
 40
1.5
100
AcDbArc
 50
91.99999982793521
 51
180.0
  0
ARC
  5
E8AC
330
1F
100
AcDbEntity
  8
AM_0
  6
中線
 48
0.5
100
AcDbCircle
 10
4036.464868839551
 20
2954.48037416025
 30
0.0
 40
3.5
100
AcDbArc
 50
91.99999982793521
 51
180.0
  0
LINE
  5
E8AD
330
1F
100
AcDbEntity
  8
AM_0
100
AcDbLine
 10
4060.66486960249
 20
2971.907910171
 30
0.0
 11
4060.464868839551
 21
2971.907910171
 31
0.0
  0
LINE
  5
E8AE
330
1F
100
AcDbEntity
  8
AM_0
100
AcDbLine
 10
4060.66486960249
 20
2961.907910171
 30
0.0
 11
4060.464868839551
 21
2961.907910171
 31
0.0
  0
LINE
  5
E8AF
330
1F
100
AcDbEntity
  8
AM_3
 48
0.5
100
AcDbLine
 10
4062.964868839552
 20
2866.907910171
 30
0.0
 11
4062.964868839552
 21
2856.907910171
 31
0.0
  0
LINE
  5
E8B0
330
1F
100
AcDbEntity
  8
AM_0
100
AcDbLine
 10
4060.66486960249
 20
2866.907910171
 30
0.0
 11
4060.464868839551
 21
2866.907910171
 31
0.0
  0
LINE
  5
E8B1
330
1F
100
AcDbEntity
  8
AM_0
100
AcDbLine
 10
4060.66486960249
 20
2856.907910171
 30
0.0
 11
4060.464868839551
 21
2856.907910171
 31
0.0
  0
DIMENSION
  5
E8B3
330
1F
100
AcDbEntity
  8
AM_5
100
AcDbDimension
  2
*D27
 10
4060.464868839551
 20
2985.907910171
 30
0.0
 11
4070.811535506218
 21
2985.907910171
 31
0.0
 70
   160
 71
     5
 42
4.5
 73
     0
 74
     0
 75
     0
  3
SYS$0
100
AcDbAlignedDimension
 13
4064.964868839552
 23
2974.907910171
 33
0.0
 14
4060.464868839551
 24
2975.907910171
 34
0.0
 50
180.0
100
AcDbRotatedDimension
  0
DIMENSION
  5
E8B4
330
1F
100
AcDbEntity
  8
AM_5
100
AcDbDimension
  2
*D28
 10
4032.964868839552
 20
2995.907910170998
 30
0.0
 11
4048.964868839552
 21
2999.007910170998
 31
0.0
 70
    32
 71
     5
 42
32.0
 73
     0
 74
     0
 75
     0
  3
SYS$0
100
AcDbAlignedDimension
 13
4064.964868839552
 23
2974.907910171
 33
0.0
 14
4032.964868839552
 24
2955.860288529402
 34
0.0
 50
180.0
100
AcDbRotatedDimension
  0
DIMENSION
  5
E8B8
330
1F
100
AcDbEntity
  8
AM_5
100
AcDbDimension
  2
*D29
 10
4021.669112557869
 20
3015.657910171
 30
0.0
 11
4021.669112557869
 21
3034.407910171001
 31
0.0
 70
   160
  1
（切欠<>ｘ88.5）
 71
     5
 42
37.5
 73
     0
 74
     0
 75
     0
  3
SYS$0
100
AcDbAlignedDimension
 13
4059.211860055428
 23
3053.157910171
 33
0.0
 14
4059.211860055428
 24
3015.657910171
 34
0.0
 50
90.0
100
AcDbRotatedDimension
1001
ACAD
1000
DSTYLE
1002
{
1070
    45
1040
0.1
1070
   140
1040
3.2
1070
   173
1070
     1
1070
   343
1005
6C4
1070
   344
1005
6C4
1002
}
  0
LINE
  5
E8D0
330
1F
100
AcDbEntity
  8
AM_0
  6
中線
 48
0.5
100
AcDbLine
 10
4061.413263673286
 20
3050.061859908549
 30
0.0
 11
4037.089714402656
 21
3049.212460341899
 31
0.0
  0
LINE
  5
E8D1
330
1F
100
AcDbEntity
  8
AM_3
 48
0.5
100
AcDbLine
 10
4063.711860055428
 20
3049.407910171
 30
0.0
 11
4061.211860055427
 21
3049.407910171
 31
0.0
  0
LINE
  5
E8D3
330
1F
100
AcDbEntity
  8
AM_0
  6
中線
100
AcDbLine
 10
4061.211860055427
 20
3049.407910171
 30
0.0
 11
4061.211860055427
 21
3019.407910171
 31
0.0
  0
LINE
  5
E8D4
330
1F
100
AcDbEntity
  8
AM_3
 48
0.5
100
AcDbLine
 10
4063.711860055428
 20
3019.407910171
 30
0.0
 11
4061.211860055427
 21
3019.407910171
 31
0.0
  0
LINE
  5
E8D8
330
1F
100
AcDbEntity
  8
AM_0
  6
中線
100
AcDbLine
 10
4061.411860818367
 20
3057.407910171
 30
0.0
 11
4061.411860818367
 21
3011.407910171
 31
0.0
  0
LINE
  5
E8D9
330
1F
100
AcDbEntity
  8
AM_7
  6
中心線1
100
AcDbLine
 10
4068.711860055428
 20
3034.407910171
 30
0.0
 11
4030.711860055427
 21
3034.407910171
 31
0.0
  0
LINE
  5
E8DB
330
1F
100
AcDbEntity
  8
AM_0
  6
中線
100
AcDbLine
 10
4065.711860055428
 20
3056.407910171
 30
0.0
 11
4065.711860055428
 21
3012.407910171
 31
0.0
  0
LINE
  5
E8DC
330
1F
100
AcDbEntity
  8
AM_0
  6
中線
 48
0.5
100
AcDbLine
 10
4033.711860055428
 20
3045.714596572368
 30
0.0
 11
4033.711860055428
 21
3023.101223769633
 31
0.0
  0
LINE
  5
E8DD
330
1F
100
AcDbEntity
  8
AM_0
  6
中線
 48
0.5
100
AcDbLine
 10
4064.711860055427
 20
3011.407910171
 30
0.0
 11
4061.411860818367
 21
3011.407910171
 31
0.0
  0
LINE
  5
E8DE
330
1F
100
AcDbEntity
  8
AM_0
  6
中線
 48
0.5
100
AcDbLine
 10
4064.711860055427
 20
3057.407910171
 30
0.0
 11
4061.411860818367
 21
3057.407910171
 31
0.0
  0
LINE
  5
E8DF
330
1F
100
AcDbEntity
  8
AM_0
  6
中線
 48
0.5
100
AcDbLine
 10
4061.413263673286
 20
3018.753956618754
 30
0.0
 11
4037.08971058796
 21
3019.603352370707
 31
0.0
  0
LINE
  5
E8EB
330
1F
100
AcDbEntity
  8
AM_0
 48
0.5
100
AcDbLine
 10
4061.211860055427
 20
3046.407910171001
 30
0.0
 11
4051.711860055427
 21
3046.407910171
 31
0.0
  0
LINE
  5
E8ED
330
1F
100
AcDbEntity
  8
AM_0
 48
0.5
100
AcDbLine
 10
4061.211860055427
 20
3042.407910171001
 30
0.0
 11
4051.711860055427
 21
3042.407910171
 31
0.0
  0
LINE
  5
E8F1
330
1F
100
AcDbEntity
  8
AM_0
 48
0.5
100
AcDbLine
 10
4051.711860055427
 20
3046.407910171
 30
0.0
 11
4051.711860055427
 21
3042.407910171
 31
0.0
  0
LINE
  5
E8F3
330
1F
100
AcDbEntity
  8
AM_7
  6
中心線1
 48
0.5
100
AcDbLine
 10
4071.311866158943
 20
3044.407909852017
 30
0.0
 11
4048.711860055427
 21
3044.407910171
 31
0.0
  0
ARC
  5
E901
330
1F
100
AcDbEntity
  8
AM_0
  6
中線
 48
0.5
100
AcDbCircle
 10
4037.211860055427
 20
3045.714596572368
 30
0.0
 40
3.5
100
AcDbArc
 50
91.99999800666827
 51
179.999991348559
  0
ARC
  5
E902
330
1F
100
AcDbEntity
  8
AM_0
  6
中線
 48
0.5
100
AcDbCircle
 10
4037.211860055427
 20
3023.101223769633
 30
0.0
 40
3.5
100
AcDbArc
 50
179.999991348559
 51
268.0000120112643
  0
ARC
  5
E905
330
1F
100
AcDbEntity
  8
AM_0
  6
中線
 48
0.5
100
AcDbCircle
 10
4064.711860055427
 20
3012.407910171
 30
0.0
 40
1.0
100
AcDbArc
 50
269.9999974954792
 51
0.0000025044687019
  0
ARC
  5
E906
330
1F
100
AcDbEntity
  8
AM_0
  6
中線
 48
0.5
100
AcDbCircle
 10
4064.711860055427
 20
3056.407910171
 30
0.0
 40
1.0
100
AcDbArc
 50
0.0000025044687019
 51
90.00000250446868
  0
ARC
  5
E908
330
1F
100
AcDbEntity
  8
AM_0
 48
0.5
100
AcDbCircle
 10
4062.731101423609
 20
3044.407925429789
 30
0.0
 40
5.565509261033005
100
AcDbArc
 50
302.3830491129057
 51
57.6169508871016
  0
LINE
  5
E98B
330
1F
100
AcDbEntity
  8
AM_11
100
AcDbLine
 10
4049.211860055428
 20
3081.907910171
 30
0.0
 11
4049.211860055428
 21
3075.907910171
 31
0.0
  0
LINE
  5
E98C
330
1F
100
AcDbEntity
  8
AM_11
100
AcDbLine
 10
4047.211860055427
 20
3081.907910171
 30
0.0
 11
4047.211860055427
 21
3075.907910171
 31
0.0
  0
LINE
  5
E98D
330
1F
100
AcDbEntity
  8
AM_11
100
AcDbLine
 10
4043.212013055427
 20
3079.908010171
 30
0.0
 11
4047.212018055428
 21
3075.908010171
 31
0.0
  0
LINE
  5
E98E
330
1F
100
AcDbEntity
  8
AM_11
100
AcDbLine
 10
4042.383632055428
 20
3077.907800171
 30
0.0
 11
4045.797805055427
 21
3074.493620171001
 31
0.0
  0
LINE
  5
E98F
330
1F
100
AcDbEntity
  8
AM_11
100
AcDbLine
 10
4059.211860055428
 20
3058.907910171
 30
0.0
 11
4034.211860055427
 21
3058.907910171
 31
0.0
  0
LINE
  5
E991
330
1F
100
AcDbEntity
  8
AM_11
100
AcDbLine
 10
4033.211860055427
 20
3096.29269079252
 30
0.0
 11
4033.211860055427
 21
3059.907910171
 31
0.0
  0
LINE
  5
E992
330
1F
100
AcDbEntity
  8
AM_11
100
AcDbLine
 10
4035.211860055428
 20
3096.062799029988
 30
0.0
 11
4035.211860055428
 21
3060.907910171
 31
0.0
  0
LINE
  5
E993
330
1F
100
AcDbEntity
  8
AM_11
100
AcDbLine
 10
4057.211890555428
 20
3060.907910171
 30
0.0
 11
4035.211891055427
 21
3060.907910171
 31
0.0
  0
LINE
  5
E994
330
1F
100
AcDbEntity
  8
AM_11
100
AcDbLine
 10
4057.211860055427
 20
3073.907910171
 30
0.0
 11
4057.211860055427
 21
3060.907910171
 31
0.0
  0
LINE
  5
E995
330
1F
100
AcDbEntity
  8
AM_11
100
AcDbLine
 10
4059.211860055428
 20
3073.907910171
 30
0.0
 11
4059.211860055428
 21
3005.807910171
 31
0.0
  0
LINE
  5
E998
330
1F
100
AcDbEntity
  8
AM_11
100
AcDbLine
 10
4061.211860055427
 20
3073.907910171
 30
0.0
 11
4061.211860055427
 21
3005.807910171
 31
0.0
  0
LINE
  5
E999
330
1F
100
AcDbEntity
  8
AM_11
100
AcDbLine
 10
4041.211860055428
 20
3096.062799029988
 30
0.0
 11
4041.211860055428
 21
3080.736280171
 31
0.0
  0
LINE
  5
E99A
330
1F
100
AcDbEntity
  8
AM_11
100
AcDbLine
 10
4043.211860055428
 20
3096.062799029988
 30
0.0
 11
4043.211860055428
 21
3079.907910171
 31
0.0
  0
LINE
  5
E99B
330
1F
100
AcDbEntity
  8
AM_11
100
AcDbLine
 10
4043.211891055427
 20
3081.907910171
 30
0.0
 11
4047.211891055428
 21
3081.907910171
 31
0.0
  0
LINE
  5
E99C
330
1F
100
AcDbEntity
  8
AM_11
100
AcDbLine
 10
4057.211860055427
 20
3085.907910171
 30
0.0
 11
4057.211860055427
 21
3083.907910171
 31
0.0
  0
LINE
  5
E99D
330
1F
100
AcDbEntity
  8
AM_11
100
AcDbLine
 10
4043.211891055427
 20
3083.907910171
 30
0.0
 11
4091.211860055428
 21
3083.907910171
 31
0.0
  0
LINE
  5
E99E
330
1F
100
AcDbEntity
  8
AM_11
100
AcDbLine
 10
4049.211891055427
 20
3081.907910171
 30
0.0
 11
4091.211860055428
 21
3081.907910171
 31
0.0
  0
LINE
  5
E99F
330
1F
100
AcDbEntity
  8
AM_11
100
AcDbLine
 10
4047.211891055428
 20
3081.907910171
 30
0.0
 11
4049.211891055427
 21
3081.907910171
 31
0.0
  0
LINE
  5
E9A0
330
1F
100
AcDbEntity
  8
AM_11
100
AcDbLine
 10
4045.211891055427
 20
3085.907910171
 30
0.0
 11
4057.211890555428
 21
3085.907910171
 31
0.0
  0
LINE
  5
E9A6
330
1F
100
AcDbEntity
  8
AM_11
100
AcDbLine
 10
4045.211891055427
 20
3096.062799029988
 30
0.0
 11
4045.211891055427
 21
3085.907910171
 31
0.0
  0
ARC
  5
E9A7
330
1F
100
AcDbEntity
  8
AM_11
100
AcDbCircle
 10
4047.211860055427
 20
3075.907910171
 30
0.0
 40
2.0
100
AcDbArc
 50
224.9998199999959
 51
0.0
  0
ARC
  5
E9AA
330
1F
100
AcDbEntity
  8
AM_11
100
AcDbCircle
 10
4059.211860055428
 20
3073.907910171
 30
0.0
 40
2.0
100
AcDbArc
 50
0.0
 51
179.999959999996
  0
ARC
  5
E9AB
330
1F
100
AcDbEntity
  8
AM_11
100
AcDbCircle
 10
4045.211860055427
 20
3080.736280171
 30
0.0
 40
4.0
100
AcDbArc
 50
179.9999799999979
 51
225.0000500000085
  0
ARC
  5
E9BE
330
1F
100
AcDbEntity
  8
AM_11
100
AcDbCircle
 10
4034.211860055427
 20
3059.907910171
 30
0.0
 40
1.0
100
AcDbArc
 50
180.0
 51
270.0
  0
LINE
  5
E9EF
330
1F
100
AcDbEntity
  8
AM_7
100
AcDbLine
 10
4147.464868839551
 20
2941.907910171
 30
0.0
 11
4178.464868839552
 21
2941.907910171
 31
0.0
  0
CIRCLE
  5
E9F0
330
1F
100
AcDbEntity
  8
AM_11
100
AcDbCircle
 10
4165.464868839552
 20
2941.907910171
 30
0.0
 40
10.0
  0
LINE
  5
E9F1
330
1F
100
AcDbEntity
  8
AM_7
100
AcDbLine
 10
4165.464868839552
 20
2928.907910171
 30
0.0
 11
4165.464868839552
 21
2954.907910171
 31
0.0
1001
GENIUS_GENODEF_13
1002
{
1000
HIER
1070
     0
1002
}
1002
{
1000
MANEDIT
1070
     0
1002
}
1002
{
1000
NOSEL
1070
     0
1002
}
1002
{
1000
BEHIND
1070
     0
1002
}
1002
{
1000
OTHER
1070
     0
1002
}
1002
{
1000
REACTOR
1002
}
1001
GENIUS_GENOBJ-N-CEN_13
1002
{
1000
OWNER
1000
GEN
1002
}
1001
GENIUS_GENCEN_19
1002
{
1040
3.0
1002
}
  0
DIMENSION
  5
EAA3
330
1F
100
AcDbEntity
  8
AM_5
100
AcDbDimension
  2
*D31
 10
4200.964868839552
 20
2966.907910171
 30
0.0
 11
4197.864868839551
 21
2954.407910171001
 31
0.0
 70
    32
  1
<>
 71
     5
 42
25.0
 73
     0
 74
     0
 75
     0
  3
SYS$0
100
AcDbAlignedDimension
 13
4178.464868839552
 23
2941.907910171
 33
0.0
 14
4181.214868839552
 24
2966.907910171
 34
0.0
 50
90.0
100
AcDbRotatedDimension
  0
ARC
  5
EB41
330
1F
100
AcDbEntity
  8
AM_3
100
AcDbCircle
 10
4109.964868839552
 20
2931.907910171
 30
0.0
 40
75.0
100
AcDbArc
 50
180.0
 51
233.130102354156
  0
DIMENSION
  5
EB43
330
1F
100
AcDbEntity
  8
AM_5
100
AcDbDimension
  2
*D32
 10
4162.964868839551
 20
2922.105429612125
 30
0.0
 11
4157.118202172886
 21
2925.205429612125
 31
0.0
 70
    32
 71
     5
 42
2.5
 73
     0
 74
     0
 75
     0
  3
SYS$0
100
AcDbAlignedDimension
 13
4165.464868839552
 23
2928.907910171
 33
0.0
 14
4162.964868839551
 24
2928.907910171
 34
0.0
100
AcDbRotatedDimension
1001
ACAD
1000
DSTYLE
1002
{
1070
    76
1070
     1
1002
}
  0
DIMENSION
  5
EB8C
330
1F
100
AcDbEntity
  8
AM_5
100
AcDbDimension
  2
*D33
 10
4022.964868839552
 20
2966.907910171
 30
0.0
 11
4019.864868839551
 21
2962.907910171001
 31
0.0
 70
    32
 71
     5
 42
7.999999999999545
 73
     0
 74
     0
 75
     0
  3
SYS$0
100
AcDbAlignedDimension
 13
4037.964868839552
 23
2958.907910171001
 33
0.0
 14
4057.464868839551
 24
2966.907910171
 34
0.0
 50
90.0
100
AcDbRotatedDimension
  0
DIMENSION
  5
EBCA
330
1F
100
AcDbEntity
  8
AM_5
100
AcDbDimension
  2
*D34
 10
4022.964868839552
 20
2870.907910171
 30
0.0
 11
4019.864868839551
 21
2914.907910171001
 31
0.0
 70
    32
 71
     5
 42
88.00000000000045
 73
     0
 74
     0
 75
     0
  3
SYS$0
100
AcDbAlignedDimension
 13
4037.964868839552
 23
2958.907910171001
 33
0.0
 14
4060.66486960249
 24
2870.907910171
 34
0.0
 50
90.0
100
AcDbRotatedDimension
  0
DIMENSION
  5
EBF2
330
1F
100
AcDbEntity
  8
AM_5
100
AcDbDimension
  2
*D35
 10
4022.964868839552
 20
2861.907910171
 30
0.0
 11
4019.864868839551
 21
2866.407910171
 31
0.0
 70
    32
 71
     5
 42
9.0
 73
     0
 74
     0
 75
     0
  3
SYS$0
100
AcDbAlignedDimension
 13
4060.66486960249
 23
2870.907910171
 33
0.0
 14
4057.464868839551
 24
2861.907910171
 34
0.0
 50
90.0
100
AcDbRotatedDimension
  0
DIMENSION
  5
EC2C
330
1F
100
AcDbEntity
  8
AM_5
100
AcDbDimension
  2
*D36
 10
4032.964868839552
 20
2985.907910171001
 30
0.0
 11
4028.718202172885
 21
2989.007910171001
 31
0.0
 70
    32
 71
     5
 42
2.0
 73
     0
 74
     0
 75
     0
  3
SYS$0
100
AcDbAlignedDimension
 13
4034.964868839551
 23
2955.928913245646
 33
0.0
 14
4032.964868839552
 24
2955.860288529402
 34
0.0
100
AcDbRotatedDimension
  0
DIMENSION
  5
ED1D
330
1F
100
AcDbEntity
  8
AM_5
100
AcDbDimension
  2
*D37
 10
4200.964868839555
 20
2941.907910171
 30
0.0
 11
4197.864868839555
 21
2936.907910171001
 31
0.0
 70
    32
 71
     5
 42
10.0
 73
     0
 74
     0
 75
     0
  3
SYS$0
100
AcDbAlignedDimension
 13
4175.464868839552
 23
2931.907910171
 33
0.0
 14
4178.464868839552
 24
2941.907910171
 34
0.0
 50
90.0
100
AcDbRotatedDimension
  0
DIMENSION
  5
ED4E
330
1F
100
AcDbEntity
  8
AM_5
100
AcDbDimension
  2
*D38
 10
4176.964868839546
 20
2882.407910171
 30
0.0
 11
4169.506841869504
 21
2882.407910171
 31
0.0
 70
   160
 71
     5
 42
27.99999999998909
 73
     0
 74
     0
 75
     0
  3
SYS$0
100
AcDbAlignedDimension
 13
4148.964868839557
 23
2882.407910171
 33
0.0
 14
4176.964868839546
 24
2882.407910171
 34
0.0
100
AcDbRotatedDimension
  0
LINE
  5
EDAA
330
1F
100
AcDbEntity
  8
AM_11
100
AcDbLine
 10
4061.211860055427
 20
3015.657910171
 30
0.0
 11
4059.211860055428
 21
3015.657910171
 31
0.0
  0
LINE
  5
EDAB
330
1F
100
AcDbEntity
  8
AM_11
100
AcDbLine
 10
4059.211860055428
 20
3053.157910171
 30
0.0
 11
4061.211860055427
 21
3053.157910171
 31
0.0
  0
LINE
  5
EDAC
330
1F
100
AcDbEntity
  8
AM_3
 48
0.5
100
AcDbLine
 10
4063.711860055427
 20
3049.407910171
 30
0.0
 11
4063.711860055429
 21
3019.407910171
 31
0.0
  0
LINE
  5
EDAD
330
1F
100
AcDbEntity
  8
AM_0
100
AcDbLine
 10
4061.211860055427
 20
3019.407910171
 30
0.0
 11
4061.411860818367
 21
3019.407910171
 31
0.0
  0
LINE
  5
EDAE
330
1F
100
AcDbEntity
  8
AM_0
100
AcDbLine
 10
4061.211860055427
 20
3049.407910171
 30
0.0
 11
4061.411860818367
 21
3049.407910171
 31
0.0
  0
DIMENSION
  5
EDF2
330
1F
100
AcDbEntity
  8
AM_5
100
AcDbDimension
  2
*D39
 10
4080.711860055427
 20
3081.907910171
 30
0.0
 11
4077.611860055426
 21
3058.157910171001
 31
0.0
 70
    32
  1
（<>）
 71
     5
 42
47.5
 73
     0
 74
     0
 75
     0
  3
SYS$0
100
AcDbAlignedDimension
 13
4068.711860055428
 23
3034.407910171
 33
0.0
 14
4091.211860055428
 24
3081.907910171
 34
0.0
 50
90.0
100
AcDbRotatedDimension
1001
ACAD
1000
DSTYLE
1002
{
1070
    76
1070
     1
1002
}
  0
DIMENSION
  5
EE22
330
1F
100
AcDbEntity
  8
AM_5
100
AcDbDimension
  2
*D40
 10
4129.964868839552
 20
2975.907910171
 30
0.0
 11
4126.86486883955
 21
2971.407910171001
 31
0.0
 70
    32
 71
     5
 42
9.0
 73
     0
 74
     0
 75
     0
  3
SYS$0
100
AcDbAlignedDimension
 13
4144.714868839552
 23
2966.907910171
 33
0.0
 14
4140.96486879584
 24
2975.907910171
 34
0.0
 50
90.0
100
AcDbRotatedDimension
  0
LINE
  5
EED8
330
1F
100
AcDbEntity
  8
AM_3
 48
0.25
100
AcDbLine
 10
4053.711857655428
 20
3036.407910171
 30
0.0
 11
4062.711857655427
 21
3036.407910171
 31
0.0
  0
LINE
  5
EED9
330
1F
100
AcDbEntity
  8
AM_3
 48
0.25
100
AcDbLine
 10
4053.711857655428
 20
3032.407910171
 30
0.0
 11
4062.711857655427
 21
3032.407910171
 31
0.0
  0
LINE
  5
EEDA
330
1F
100
AcDbEntity
  8
AM_3
 48
0.25
100
AcDbLine
 10
4053.711857655428
 20
3036.007910171
 30
0.0
 11
4062.711857655427
 21
3036.007910171
 31
0.0
  0
LINE
  5
EEDB
330
1F
100
AcDbEntity
  8
AM_3
 48
0.25
100
AcDbLine
 10
4053.711857655428
 20
3032.807910171
 30
0.0
 11
4062.711857655427
 21
3032.807910171
 31
0.0
  0
LINE
  5
EEDC
330
1F
100
AcDbEntity
  8
AM_3
 48
0.25
100
AcDbLine
 10
4062.711858655427
 20
3036.407910171
 30
0.0
 11
4063.711860055428
 21
3037.407910171
 31
0.0
  0
LINE
  5
EEDD
330
1F
100
AcDbEntity
  8
AM_3
 48
0.25
100
AcDbLine
 10
4062.711861455428
 20
3032.407910171
 30
0.0
 11
4063.711862455427
 21
3031.407910171
 31
0.0
  0
LINE
  5
EEDE
330
1F
100
AcDbEntity
  8
AM_3
 48
0.25
100
AcDbLine
 10
4062.711857655427
 20
3036.407910171
 30
0.0
 11
4062.711857655427
 21
3032.407910171
 31
0.0
  0
LINE
  5
EEDF
330
1F
100
AcDbEntity
  8
AM_3
 48
0.25
100
AcDbLine
 10
4053.711857655428
 20
3036.407910171
 30
0.0
 11
4053.711857655428
 21
3032.407910171
 31
0.0
  0
LINE
  5
EF7A
330
1F
100
AcDbEntity
  8
AM_2
 48
0.5
100
AcDbLine
 10
4061.211860055427
 20
3046.007910171
 30
0.0
 11
4051.711860055427
 21
3046.007910171
 31
0.0
  0
LINE
  5
EF7B
330
1F
100
AcDbEntity
  8
AM_2
 48
0.5
100
AcDbLine
 10
4061.211860055427
 20
3042.807910171
 30
0.0
 11
4051.711860055427
 21
3042.807910171
 31
0.0
  0
LINE
  5
EF96
330
1F
100
AcDbEntity
  8
AM_3
 48
0.25
100
AcDbLine
 10
4061.211860055427
 20
3046.407910171
 30
0.0
 11
4065.711860055428
 21
3046.407910171
 31
0.0
  0
LINE
  5
EF97
330
1F
100
AcDbEntity
  8
AM_3
 48
0.25
100
AcDbLine
 10
4061.211860055427
 20
3042.407910171
 30
0.0
 11
4065.711860055428
 21
3042.407910171
 31
0.0
  0
LINE
  5
EF98
330
1F
100
AcDbEntity
  8
AM_3
 48
0.25
100
AcDbLine
 10
4061.211860055427
 20
3046.007910171
 30
0.0
 11
4065.711860055428
 21
3046.007910170999
 31
0.0
  0
LINE
  5
EF99
330
1F
100
AcDbEntity
  8
AM_3
 48
0.25
100
AcDbLine
 10
4061.211860055427
 20
3042.807910171
 30
0.0
 11
4065.711860055428
 21
3042.807910171
 31
0.0
  0
LINE
  5
EF9E
330
1F
100
AcDbEntity
  8
AM_0
 48
0.5
100
AcDbLine
 10
4061.211860055427
 20
3022.407910170999
 30
0.0
 11
4051.711860055427
 21
3022.407910171
 31
0.0
  0
LINE
  5
EF9F
330
1F
100
AcDbEntity
  8
AM_0
 48
0.5
100
AcDbLine
 10
4061.211860055427
 20
3026.407910171
 30
0.0
 11
4051.711860055427
 21
3026.407910171
 31
0.0
  0
LINE
  5
EFA3
330
1F
100
AcDbEntity
  8
AM_0
 48
0.5
100
AcDbLine
 10
4051.711860055427
 20
3022.407910171
 30
0.0
 11
4051.711860055427
 21
3026.407910171
 31
0.0
  0
LINE
  5
EFA4
330
1F
100
AcDbEntity
  8
AM_7
  6
中心線1
 48
0.5
100
AcDbLine
 10
4071.311866158943
 20
3024.407910489983
 30
0.0
 11
4048.711860055427
 21
3024.407910171
 31
0.0
  0
LINE
  5
EFA5
330
1F
100
AcDbEntity
  8
AM_2
 48
0.5
100
AcDbLine
 10
4061.211860055427
 20
3026.007910171
 30
0.0
 11
4051.711860055427
 21
3026.007910171
 31
0.0
  0
LINE
  5
EFA6
330
1F
100
AcDbEntity
  8
AM_2
 48
0.5
100
AcDbLine
 10
4061.211860055427
 20
3022.807910171
 30
0.0
 11
4051.711860055427
 21
3022.807910171
 31
0.0
  0
ARC
  5
EFA7
330
1F
100
AcDbEntity
  8
AM_0
 48
0.5
100
AcDbCircle
 10
4062.731098347932
 20
3024.407910352889
 30
0.0
 40
5.565513115241614
100
AcDbArc
 50
302.3830614430891
 51
57.61693855691813
  0
LINE
  5
F1AA
330
1F
100
AcDbEntity
  8
AM_2
100
AcDbLine
 10
3905.107479615754
 20
3075.296813310979
 30
0.0
 11
3976.676991111173
 21
3075.296813310979
 31
0.0
  0
MTEXT
  5
F1AB
330
1F
100
AcDbEntity
  8
AM_6
100
AcDbMText
 10
3905.107479615754
 20
3071.296813310979
 30
0.0
 40
3.2
 41
90.0
 46
0.0
 71
     4
 72
     5
  1
　M4×14　トラス小ネジ　+  SUS   4本付　
 73
     1
 44
1.0
  0
CIRCLE
  5
F1AC
330
1F
100
AcDbEntity
  8
AM_6
100
AcDbCircle
 10
3942.278056969023
 20
3071.049950326264
 30
0.0
 40
2.252271541660876
  0
LINE
  5
F2E8
330
1F
100
AcDbEntity
  8
AM_3
 48
0.25
100
AcDbLine
 10
4061.211860055427
 20
3026.407910529503
 30
0.0
 11
4065.711860055428
 21
3026.407910529503
 31
0.0
  0
LINE
  5
F2E9
330
1F
100
AcDbEntity
  8
AM_3
 48
0.25
100
AcDbLine
 10
4061.211860055427
 20
3022.407910529503
 30
0.0
 11
4065.711860055428
 21
3022.407910529502
 31
0.0
  0
LINE
  5
F2EA
330
1F
100
AcDbEntity
  8
AM_3
 48
0.25
100
AcDbLine
 10
4061.211860055427
 20
3026.007910529503
 30
0.0
 11
4065.711860055428
 21
3026.007910529502
 31
0.0
  0
LINE
  5
F2EB
330
1F
100
AcDbEntity
  8
AM_3
 48
0.25
100
AcDbLine
 10
4061.211860055427
 20
3022.807910529503
 30
0.0
 11
4065.711860055428
 21
3022.807910529503
 31
0.0
  0
MTEXT
  5
F393
330
1F
100
AcDbEntity
  8
AM_6
100
AcDbMText
 10
3905.107479615754
 20
3063.296813310979
 30
0.0
 40
3.2
 41
90.0
 46
0.0
 71
     4
 72
     5
  1
　※調整式のため枠内にトロカバーを取付けてください。　
 73
     1
 44
1.0
  0
ENDSEC
  0
SECTION
  2
OBJECTS
  0
DICTIONARY
  5
C
330
0
100
AcDbDictionary
281
     1
  3
ACAD_BGPLOT_KEY
350
AB06
  3
ACAD_COLOR
350
A91D
  3
ACAD_GROUP
350
D
  3
ACAD_LAYOUT
350
1A
  3
ACAD_MATERIAL
350
A91C
  3
ACAD_MLINESTYLE
350
17
  3
ACAD_PLOTSETTINGS
350
19
  3
ACAD_PLOTSTYLENAME
350
E
  3
ACAD_TABLESTYLE
350
AAB9
  3
ACAD_VISUALSTYLE
350
B0F1
  3
AcAsAppObject
350
3DA1
  3
ACASGREF_MASTER
350
3DE9
  3
AcDbVariableDictionary
350
34
  3
AcmDictionary
350
47
  3
AD_GREF_MODULE
350
3DEA
  3
AD_MAPI_MODULE
350
3E06
  3
AMG
350
2B
  3
AMGSNAPSETTINGS
350
7D
  3
ASE_INDEX_DICTIONARY
350
B331
  3
MAPISURF_MODULE
350
3DEB
  0
DICTIONARY
  5
3F95
330
2
100
AcDbDictionary
280
     1
281
     1
  3
ACAD_LAYERFILTERS
360
B3C7
  3
ACAD_LAYERSTATES
360
3F96
  3
ACLYDICTIONARY
360
B3C6
  3
AMLAYER_GROUPCOLORS
360
AAB4
  0
DICTIONARY
  5
8A
330
1F
100
AcDbDictionary
280
     1
281
     1
  3
ACAD_SORTENTS
360
B1BA
  0
DICTIONARY
  5
AB06
102
{ACAD_REACTORS
330
C
102
}
330
C
100
AcDbDictionary
280
     1
281
     1
  0
DICTIONARY
  5
A91D
102
{ACAD_REACTORS
330
C
102
}
330
C
100
AcDbDictionary
281
     1
  0
DICTIONARY
  5
D
102
{ACAD_REACTORS
330
C
102
}
330
C
100
AcDbDictionary
281
     1
  0
DICTIONARY
  5
1A
102
{ACAD_REACTORS
330
C
102
}
330
C
100
AcDbDictionary
281
     1
  3
Model
350
22
  3
ﾚｲｱｳﾄ1
350
1E
  3
ﾚｲｱｳﾄ2
350
26
  0
DICTIONARY
  5
A91C
102
{ACAD_REACTORS
330
C
102
}
330
C
100
AcDbDictionary
281
     1
  3
ByBlock
350
B0EF
  3
ByLayer
350
B0EE
  3
Global
350
B0F0
  0
DICTIONARY
  5
17
102
{ACAD_REACTORS
330
C
102
}
330
C
100
AcDbDictionary
281
     1
  3
Standard
350
18
  0
DICTIONARY
  5
19
102
{ACAD_REACTORS
330
C
102
}
330
C
100
AcDbDictionary
281
     1
  0
ACDBDICTIONARYWDFLT
  5
E
102
{ACAD_REACTORS
330
C
102
}
330
C
100
AcDbDictionary
281
     1
  3
Normal
350
F
100
AcDbDictionaryWithDefault
340
F
  0
DICTIONARY
  5
AAB9
102
{ACAD_REACTORS
330
C
102
}
330
C
100
AcDbDictionary
281
     1
  3
Standard
350
AABA
  0
DICTIONARY
  5
B0F1
102
{ACAD_REACTORS
330
C
102
}
330
C
100
AcDbDictionary
281
     1
  3
2dWireframe
350
B0F7
  3
3D Hidden
350
B0F9
  3
3dWireframe
350
B0F8
  3
Basic
350
B0F6
  3
Brighten
350
B0FD
  3
ColorChange
350
B101
  3
Conceptual
350
B0FA
  3
Dim
350
B0FC
  3
Facepattern
350
B100
  3
Flat
350
B0F2
  3
FlatWithEdges
350
B0F3
  3
Gouraud
350
B0F4
  3
GouraudWithEdges
350
B0F5
  3
Linepattern
350
B0FF
  3
Realistic
350
B0FB
  3
Thicken
350
B0FE
  0
ACAD_PROXY_OBJECT
  5
3DA1
102
{ACAD_REACTORS
330
C
102
}
330
C
100
AcDbProxyObject
 90
      499
 91
      576
 95
   917527
 70
     0
 93
       10
310
407F
 94
        0
  0
ACAD_PROXY_OBJECT
  5
3DE9
102
{ACAD_REACTORS
330
C
102
}
330
C
100
AcDbProxyObject
 90
      499
 91
      581
 95
   917527
 70
     0
 93
       34
310
010000407F
 94
        0
  0
DICTIONARY
  5
34
102
{ACAD_REACTORS
330
C
102
}
330
C
100
AcDbDictionary
281
     1
  3
CTABLESTYLE
350
AAF3
  3
DIMASSOC
350
A10C
  3
FIELDEVAL
350
AB07
  3
INDEXCTL
350
35
  3
SORTENTS
350
194C
  0
DICTIONARY
  5
47
102
{ACAD_REACTORS
330
C
102
}
330
C
100
AcDbDictionary
281
     1
  3
AcmBOM
350
7E8
  3
AcmStdDictionary
350
4C
  3
AMDTSECTSYM_ARROWCOLOR
350
A929
  0
ACAD_PROXY_OBJECT
  5
3DEA
102
{ACAD_REACTORS
330
C
102
}
330
C
100
AcDbProxyObject
 90
      499
 91
      582
 95
   917527
 70
     0
 93
      114
310
00000043800000000000000000003F
 94
        0
  0
ACAD_PROXY_OBJECT
  5
3E06
102
{ACAD_REACTORS
330
C
102
}
330
C
100
AcDbProxyObject
 90
      499
 91
      594
 95
   917527
 70
     0
 93
       34
310
05000044FF
 94
        0
  0
DICTIONARY
  5
2B
102
{ACAD_REACTORS
330
C
102
}
330
C
100
AcDbDictionary
281
     1
  0
DICTIONARY
  5
7D
102
{ACAD_REACTORS
330
C
102
}
330
C
100
AcDbDictionary
281
     1
  0
DICTIONARY
  5
B331
102
{ACAD_REACTORS
330
C
102
}
330
C
100
AcDbDictionary
281
     1
  3
ASEBlockHierarchyIndexRecord
350
B332
1001
DCO15
1040
1594111214.218
  0
ACAD_PROXY_OBJECT
  5
3DEB
102
{ACAD_REACTORS
330
C
102
}
330
C
100
AcDbProxyObject
 90
      499
 91
      583
 95
   917527
 70
     0
 93
        8
310
0478
 94
        0
  0
DICTIONARY
  5
B3C7
102
{ACAD_REACTORS
330
3F95
102
}
330
3F95
100
AcDbDictionary
281
     1
  0
DICTIONARY
  5
3F96
102
{ACAD_REACTORS
330
3F95
102
}
330
3F95
100
AcDbDictionary
281
     1
  3
20011210
350
3FB7
  0
DICTIONARY
  5
B3C6
102
{ACAD_REACTORS
330
3F95
102
}
330
3F95
100
AcDbDictionary
281
     1
1001
ACAD
1000
<All
  0
DICTIONARY
  5
AAB4
102
{ACAD_REACTORS
330
3F95
102
}
330
3F95
100
AcDbDictionary
280
     1
281
     1
  0
SORTENTSTABLE
  5
B1BA
102
{ACAD_REACTORS
330
8A
102
}
330
8A
100
AcDbSortentsTable
330
1F
331
DFEB
  5
DFFF
331
DFF3
  5
E01C
331
EB41
  5
E8B2
331
E8DE
  5
E8F1
331
E40A
  5
E41A
331
EF96
  5
EF99
331
E897
  5
E899
331
E023
  5
E03F
331
E412
  5
E4D4
331
C655
  5
C655
331
E89F
  5
E8A3
331
E07B
  5
E096
331
E638
  5
E72E
331
E906
  5
E99E
331
E98D
  5
E9AB
331
E083
  5
E098
331
E8A7
  5
E8AF
331
E995
  5
EAB9
331
E09B
  5
E0B2
331
E8AF
  5
E8B7
331
E99D
  5
EBAF
331
EEDF
  5
EF97
331
C63E
  5
C63E
331
C646
  5
C646
331
DFD2
  5
DFF3
331
C64E
  5
C64E
331
DFF4
  5
E01D
331
E8DF
  5
E8F2
331
E00C
  5
E01E
331
E5F9
  5
E72D
331
EF97
  5
EF9A
331
E413
  5
E4D5
331
C656
  5
C656
331
E07C
  5
E097
331
E8A0
  5
E8A5
331
EBCA
  5
EDF2
331
E98E
  5
E9BE
331
E084
  5
E099
331
E8A8
  5
E8B0
331
E09C
  5
E0B3
331
E8B0
  5
E8B8
331
EED8
  5
EEDF
331
E99E
  5
EBB0
331
EBF2
  5
EE08
331
E8B8
  5
E8C1
331
C63F
  5
C63F
331
E9A6
  5
EBF2
331
C647
  5
C647
331
DFD3
  5
DFFA
331
C64F
  5
C64F
331
DFED
  5
E000
331
E8D0
  5
E8D8
331
EB43
  5
EDC2
331
E8D8
  5
E8E1
331
EF98
  5
EF9C
331
E9BE
  5
E9F1
331
E4D3
  5
DFF1
331
E00D
  5
E01F
331
E40C
  5
E47D
331
E899
  5
E89B
331
E414
  5
E4F0
331
C657
  5
C657
331
E8A1
  5
E8A8
331
E085
  5
E0A0
331
E908
  5
E9A0
331
E98F
  5
E9EF
331
E8B1
  5
E8B9
331
EED9
  5
EF2F
331
E99F
  5
EBB1
331
EDAA
  5
EE8D
331
C640
  5
C640
331
E9A7
  5
EC2C
331
C648
  5
C648
331
DFEE
  5
E002
331
E8D1
  5
E8DA
331
E8D9
  5
E8E3
331
EDF2
  5
EEDC
331
EF99
  5
EF9D
331
E40D
  5
E47F
331
EE22
  5
EEDD
331
C650
  5
C650
331
E9EF
  5
ED7A
331
EB8C
  5
EDC3
331
E8F1
  5
E991
331
E89A
  5
E89C
331
E415
  5
E506
331
C658
  5
C658
331
E901
  5
E99B
331
E8A2
  5
E8A9
331
E8AA
  5
E8B1
331
E086
  5
E0A5
331
E47D
  5
E595
331
E998
  5
EB41
331
EEDA
  5
EF30
331
E9A0
  5
EBCA
331
EDAB
  5
EED8
331
C641
  5
C641
331
EF7A
  5
E99A
331
C649
  5
C649
331
DFD5
  5
DFFB
331
E4A5
  5
E64E
331
EC2C
  5
EE22
331
E406
  5
E415
331
E40E
  5
E480
331
C651
  5
C651
331
E9F0
  5
EDAB
331
E89B
  5
E89D
331
E416
  5
E507
331
E902
  5
E99C
331
E8A3
  5
E8AA
331
E991
  5
E9F0
331
E8AB
  5
E8B3
331
E47E
  5
E5F9
331
E999
  5
EB43
331
E8B3
  5
E8BC
331
EEDB
  5
EF31
331
EDAC
  5
E8EE
331
C642
  5
C642
331
EF7B
  5
E999
331
C64A
  5
C64A
331
DFD6
  5
DFFC
331
DFF0
  5
E003
331
E8D3
  5
E8DC
331
E8DB
  5
E8ED
331
E407
  5
E416
331
E894
  5
E896
331
E8EB
  5
E8FB
331
E40F
  5
E481
331
C652
  5
C652
331
ED1D
  5
EE38
331
E9F1
  5
EDAC
331
E8F3
  5
E998
331
E89C
  5
E89F
331
E417
  5
E508
331
E078
  5
E093
331
E8A4
  5
E8AC
331
E992
  5
E9F3
331
E8AC
  5
E8B4
331
E99A
  5
EB8C
331
E8B4
  5
E8BD
331
E64D
  5
E894
331
EEDC
  5
EF7A
331
EDAD
  5
EED9
331
C643
  5
C643
331
DFCF
  5
DFDA
331
C64B
  5
C64B
331
DFD7
  5
DFFD
331
E8D4
  5
E8E0
331
E9AA
  5
ED1D
331
E8DC
  5
E8EF
331
E408
  5
E417
331
E895
  5
E897
331
E410
  5
E4A5
331
C653
  5
C653
331
E89D
  5
E8A0
331
E079
  5
E094
331
E418
  5
E527
331
E98B
  5
E9A7
331
E8A5
  5
E8AD
331
ED4E
  5
EE8B
331
E993
  5
EA09
331
E8AD
  5
E8B5
331
E480
  5
E638
331
E99B
  5
EBA4
331
E0A1
  5
E411
331
E64E
  5
E895
331
EEDD
  5
EF7B
331
E527
  5
E72A
331
EDAE
  5
EEDA
331
C644
  5
C644
331
DFD0
  5
DFDB
331
C64C
  5
C64C
331
DFEA
  5
DFFE
331
E3D1
  5
E414
331
E9AB
  5
ED4E
331
E8DD
  5
E8F0
331
E409
  5
E419
331
E896
  5
E898
331
E8ED
  5
E90A
331
E4F0
  5
E728
331
E022
  5
E03E
331
E411
  5
E4D3
331
C654
  5
C654
331
E89E
  5
E8A1
331
E07A
  5
E095
331
E419
  5
E54D
331
E905
  5
E99D
331
E98C
  5
E9A8
331
E8A6
  5
E8AE
331
E508
  5
E729
331
EAA3
  5
EDAE
331
E994
  5
EAA3
331
E8AE
  5
E8B6
331
E481
  5
E64D
331
E0A2
  5
E413
331
E99C
  5
EBAE
331
EEDE
  5
EF96
331
C63D
  5
C63D
331
C645
  5
C645
331
DFD1
  5
DFF0
331
C64D
  5
C64D
  0
LAYOUT
  5
22
102
{ACAD_REACTORS
330
1A
102
}
330
1A
100
AcDbPlotSettings
  1

  2
FX DocuWide 2050/2051
  4
A3
  6
AM_VIEW1
 40
3.174999952316284
 41
3.174999952316284
 42
3.17498779296875
 43
3.17498779296875
 44
296.989501953125
 45
419.9889831542968
 46
0.0
 47
1.295841228961961
 48
214.3704939521119
 49
367.5855324241176
140
275.6727856380065
141
407.629191407817
142
1.0
143
0.7225445603030646
 70
  3764
 72
     1
 73
     1
 74
     2
  7
monochrome.ctb
 75
     0
147
1.383997686703999
 76
     0
 77
     2
 78
   200
148
-1700.85588156276
149
-1647.985052086429
100
AcDbLayout
  1
Model
 70
     1
 71
     0
 10
0.0
 20
0.0
 11
12.0
 21
9.0
 12
0.0
 22
0.0
 32
0.0
 14
0.0
 24
0.0
 34
0.0
 15
0.0
 25
0.0
 35
0.0
146
0.0
 13
0.0
 23
0.0
 33
0.0
 16
1.0
 26
0.0
 36
0.0
 17
0.0
 27
1.0
 37
0.0
 76
     0
330
1F
331
B0EC
1001
ACAD_PSEXT
1000
FX DocuWide 2050/2051
1000
FX DocuWide 2050/2051
1000
IP_192.200.15.252
1000

1070
     0
  0
LAYOUT
  5
1E
102
{ACAD_REACTORS
330
1A
102
}
330
1A
100
AcDbPlotSettings
  1

  2
\\ML370\XEROX
  4
A4
  6

 40
3.174999952316284
 41
3.174999952316284
 42
3.175003051757812
 43
3.17498779296875
 44
209.8674926757813
 45
296.6719970703125
 46
0.0
 47
0.0
 48
0.0
 49
0.0
140
0.0
141
0.0
142
1.0
143
1.0
 70
   688
 72
     1
 73
     1
 74
     5
  7
monochrome.ctb
 75
    16
147
1.0
 76
     0
 77
     2
 78
   300
148
0.0
149
0.0
100
AcDbLayout
  1
ﾚｲｱｳﾄ1
 70
     1
 71
     1
 10
-3.17498779296875
 20
-3.174999952316284
 11
293.4970092773438
 21
206.692492723465
 12
0.0
 22
0.0
 32
0.0
 14
1.000000000000000E+20
 24
1.000000000000000E+20
 34
1.000000000000000E+20
 15
-1.000000000000000E+20
 25
-1.000000000000000E+20
 35
-1.000000000000000E+20
146
0.0
 13
0.0
 23
0.0
 33
0.0
 16
1.0
 26
0.0
 36
0.0
 17
0.0
 27
1.0
 37
0.0
 76
     0
330
1B
  0
LAYOUT
  5
26
102
{ACAD_REACTORS
330
1A
102
}
330
1A
100
AcDbPlotSettings
  1

  2
\\ML370\XEROX
  4

  6

 40
0.0
 41
0.0
 42
0.0
 43
0.0
 44
0.0
 45
0.0
 46
0.0
 47
0.0
 48
0.0
 49
0.0
140
0.0
141
0.0
142
1.0
143
1.0
 70
   688
 72
     0
 73
     0
 74
     5
  7
monochrome.ctb
 75
    16
147
1.0
 76
     0
 77
     2
 78
   300
148
0.0
149
0.0
100
AcDbLayout
  1
ﾚｲｱｳﾄ2
 70
     1
 71
     2
 10
0.0
 20
0.0
 11
12.0
 21
9.0
 12
0.0
 22
0.0
 32
0.0
 14
0.0
 24
0.0
 34
0.0
 15
0.0
 25
0.0
 35
0.0
146
0.0
 13
0.0
 23
0.0
 33
0.0
 16
1.0
 26
0.0
 36
0.0
 17
0.0
 27
1.0
 37
0.0
 76
     0
330
23
  0
MATERIAL
  5
B0EF
102
{ACAD_REACTORS
330
A91C
102
}
330
A91C
100
AcDbMaterial
  1
ByBlock
  0
MATERIAL
  5
B0EE
102
{ACAD_REACTORS
330
A91C
102
}
330
A91C
100
AcDbMaterial
  1
ByLayer
  0
MATERIAL
  5
B0F0
102
{ACAD_REACTORS
330
A91C
102
}
330
A91C
100
AcDbMaterial
  1
Global
  0
MLINESTYLE
  5
18
102
{ACAD_REACTORS
330
17
102
}
330
17
100
AcDbMlineStyle
  2
STANDARD
 70
     0
  3

 62
   256
 51
90.0
 52
90.0
 71
     2
 49
0.5
 62
   256
  6
BYLAYER
 49
-0.5
 62
   256
  6
BYLAYER
  0
ACDBPLACEHOLDER
  5
F
102
{ACAD_REACTORS
330
E
102
}
330
E
  0
TABLESTYLE
  5
AABA
102
{ACAD_REACTORS
330
AAB9
102
}
330
AAB9
100
AcDbTableStyle
  3
Standard
 70
     0
 71
     0
 40
1.5
 41
1.5
280
     0
281
     0
  7
STANDARD
140
4.5
170
     2
 62
     0
 63
     7
283
     0
 90
        4
 91
        0
  1

274
    -2
284
     1
 64
     0
275
    -2
285
     1
 65
     0
276
    -2
286
     1
 66
     0
277
    -2
287
     1
 67
     0
278
    -2
288
     1
 68
     0
279
    -2
289
     1
 69
     0
  7
STANDARD
140
6.0
170
     5
 62
     0
 63
     7
283
     0
 90
        4
 91
        0
  1

274
    -2
284
     1
 64
     0
275
    -2
285
     1
 65
     0
276
    -2
286
     1
 66
     0
277
    -2
287
     1
 67
     0
278
    -2
288
     1
 68
     0
279
    -2
289
     1
 69
     0
  7
STANDARD
140
4.5
170
     5
 62
     0
 63
     7
283
     0
 90
        4
 91
        0
  1

274
    -2
284
     1
 64
     0
275
    -2
285
     1
 65
     0
276
    -2
286
     1
 66
     0
277
    -2
287
     1
 67
     0
278
    -2
288
     1
 68
     0
279
    -2
289
     1
 69
     0
  0
VISUALSTYLE
  5
B0F7
102
{ACAD_REACTORS
330
B0F1
102
}
330
B0F1
100
AcDbVisualStyle
  2
2dWireframe
 70
     4
 71
     0
 72
     2
 73
     0
 90
        0
 40
-0.6
 41
-30.0
 62
     5
 63
     7
421
 16777215
 74
     1
 91
        4
 64
     7
 65
   257
 75
     1
175
     1
 42
1.0
 92
        0
 66
   257
 43
1.0
 76
     1
 77
     6
 78
     2
 67
     7
 79
     5
170
     0
171
     0
290
     0
174
     0
 93
        1
 44
0.0
173
     0
291
     0
 45
0.0
  0
VISUALSTYLE
  5
B0F9
102
{ACAD_REACTORS
330
B0F1
102
}
330
B0F1
100
AcDbVisualStyle
  2
3D Hidden
 70
     6
 71
     1
 72
     2
 73
     2
 90
        0
 40
-0.6
 41
-30.0
 62
     5
 63
     7
421
 16777215
 74
     2
 91
        2
 64
     7
 65
   257
 75
     2
175
     1
 42
40.0
 92
        0
 66
   257
 43
1.0
 76
     1
 77
     6
 78
     2
 67
     7
 79
     3
170
     0
171
     0
290
     0
174
     0
 93
        1
 44
0.0
173
     0
291
     0
 45
0.0
  0
VISUALSTYLE
  5
B0F8
102
{ACAD_REACTORS
330
B0F1
102
}
330
B0F1
100
AcDbVisualStyle
  2
3dWireframe
 70
     5
 71
     0
 72
     2
 73
     0
 90
        0
 40
-0.6
 41
-30.0
 62
     5
 63
     7
421
 16777215
 74
     1
 91
        4
 64
     7
 65
   257
 75
     1
175
     1
 42
1.0
 92
        0
 66
   257
 43
1.0
 76
     1
 77
     6
 78
     2
 67
     7
 79
     5
170
     0
171
     0
290
     0
174
     0
 93
        1
 44
0.0
173
     0
291
     0
 45
0.0
  0
VISUALSTYLE
  5
B0F6
102
{ACAD_REACTORS
330
B0F1
102
}
330
B0F1
100
AcDbVisualStyle
  2
Basic
 70
     7
 71
     1
 72
     0
 73
     1
 90
        0
 40
-0.6
 41
-30.0
 62
     5
 63
     7
421
 16777215
 74
     0
 91
        4
 64
     7
 65
   257
 75
     1
175
     1
 42
1.0
 92
        8
 66
     7
 43
1.0
 76
     1
 77
     6
 78
     2
 67
     7
 79
     5
170
     0
171
     0
290
     0
174
     0
 93
        1
 44
0.0
173
     0
291
     1
 45
0.0
  0
VISUALSTYLE
  5
B0FD
102
{ACAD_REACTORS
330
B0F1
102
}
330
B0F1
100
AcDbVisualStyle
  2
Brighten
 70
    12
 71
     2
 72
     2
 73
     0
 90
        0
 40
-0.6
 41
-30.0
 62
     5
 63
     7
421
 16777215
 74
     1
 91
        4
 64
     7
 65
   257
 75
     1
175
     1
 42
1.0
 92
        8
 66
     7
 43
1.0
 76
     1
 77
     6
 78
     2
 67
     7
 79
     5
170
     0
171
     0
290
     0
174
     0
 93
        1
 44
50.0
173
     0
291
     1
 45
0.0
  0
VISUALSTYLE
  5
B101
102
{ACAD_REACTORS
330
B0F1
102
}
330
B0F1
100
AcDbVisualStyle
  2
ColorChange
 70
    16
 71
     2
 72
     2
 73
     3
 90
        0
 40
-0.6
 41
-30.0
 62
     5
 63
     8
421
  8421504
 74
     1
 91
        4
 64
     7
 65
   257
 75
     1
175
     1
 42
1.0
 92
        8
 66
     8
424
  8421504
 43
1.0
 76
     1
 77
     6
 78
     2
 67
     7
 79
     5
170
     0
171
     0
290
     0
174
     0
 93
        1
 44
0.0
173
     0
291
     1
 45
0.0
  0
VISUALSTYLE
  5
B0FA
102
{ACAD_REACTORS
330
B0F1
102
}
330
B0F1
100
AcDbVisualStyle
  2
Conceptual
 70
     9
 71
     3
 72
     2
 73
     0
 90
        0
 40
-0.6
 41
-30.0
 62
     5
 63
     7
421
 16777215
 74
     2
 91
        2
 64
     7
 65
   257
 75
     1
175
     1
 42
40.0
 92
        8
 66
     7
 43
1.0
 76
     1
 77
     6
 78
     2
 67
     7
 79
     3
170
     0
171
     0
290
     0
174
     0
 93
        1
 44
0.0
173
     0
291
     0
 45
0.0
  0
VISUALSTYLE
  5
B0FC
102
{ACAD_REACTORS
330
B0F1
102
}
330
B0F1
100
AcDbVisualStyle
  2
Dim
 70
    11
 71
     2
 72
     2
 73
     0
 90
        0
 40
-0.6
 41
-30.0
 62
     5
 63
     7
421
 16777215
 74
     1
 91
        4
 64
     7
 65
   257
 75
     1
175
     1
 42
1.0
 92
        8
 66
     7
 43
1.0
 76
     1
 77
     6
 78
     2
 67
     7
 79
     5
170
     0
171
     0
290
     0
174
     0
 93
        1
 44
-50.0
173
     0
291
     1
 45
0.0
  0
VISUALSTYLE
  5
B100
102
{ACAD_REACTORS
330
B0F1
102
}
330
B0F1
100
AcDbVisualStyle
  2
Facepattern
 70
    15
 71
     2
 72
     2
 73
     0
 90
        0
 40
-0.6
 41
-30.0
 62
     5
 63
     7
421
 16777215
 74
     1
 91
        4
 64
     7
 65
   257
 75
     1
175
     1
 42
1.0
 92
        8
 66
     7
 43
1.0
 76
     1
 77
     6
 78
     2
 67
     7
 79
     5
170
     0
171
     0
290
     0
174
     0
 93
        1
 44
0.0
173
     0
291
     1
 45
0.0
  0
VISUALSTYLE
  5
B0F2
102
{ACAD_REACTORS
330
B0F1
102
}
330
B0F1
100
AcDbVisualStyle
  2
Flat
 70
     0
 71
     2
 72
     1
 73
     1
 90
        2
 40
-0.6
 41
30.0
 62
     5
 63
     7
421
 16777215
 74
     0
 91
        4
 64
     7
 65
   257
 75
     1
175
     1
 42
1.0
 92
        8
 66
     7
 43
1.0
 76
     1
 77
     6
 78
     2
 67
     7
 79
     5
170
     0
171
     0
290
     0
174
     0
 93
       13
 44
0.0
173
     0
291
     1
 45
0.0
  0
VISUALSTYLE
  5
B0F3
102
{ACAD_REACTORS
330
B0F1
102
}
330
B0F1
100
AcDbVisualStyle
  2
FlatWithEdges
 70
     1
 71
     2
 72
     1
 73
     1
 90
        2
 40
-0.6
 41
30.0
 62
     5
 63
     7
421
 16777215
 74
     1
 91
        4
 64
     7
 65
   257
 75
     1
175
     1
 42
1.0
 92
        0
 66
   257
 43
1.0
 76
     1
 77
     6
 78
     2
 67
     7
 79
     5
170
     0
171
     0
290
     0
174
     0
 93
       13
 44
0.0
173
     0
291
     1
 45
0.0
  0
VISUALSTYLE
  5
B0F4
102
{ACAD_REACTORS
330
B0F1
102
}
330
B0F1
100
AcDbVisualStyle
  2
Gouraud
 70
     2
 71
     2
 72
     2
 73
     1
 90
        2
 40
-0.6
 41
30.0
 62
     5
 63
     7
421
 16777215
 74
     0
 91
        4
 64
     7
 65
   257
 75
     1
175
     1
 42
1.0
 92
        0
 66
     7
 43
1.0
 76
     1
 77
     6
 78
     2
 67
     7
 79
     5
170
     0
171
     0
290
     0
174
     0
 93
       13
 44
0.0
173
     0
291
     1
 45
0.0
  0
VISUALSTYLE
  5
B0F5
102
{ACAD_REACTORS
330
B0F1
102
}
330
B0F1
100
AcDbVisualStyle
  2
GouraudWithEdges
 70
     3
 71
     2
 72
     2
 73
     1
 90
        2
 40
-0.6
 41
30.0
 62
     5
 63
     7
421
 16777215
 74
     1
 91
        4
 64
     7
 65
   257
 75
     1
175
     1
 42
1.0
 92
        0
 66
   257
 43
1.0
 76
     1
 77
     6
 78
     2
 67
     7
 79
     5
170
     0
171
     0
290
     0
174
     0
 93
       13
 44
0.0
173
     0
291
     1
 45
0.0
  0
VISUALSTYLE
  5
B0FF
102
{ACAD_REACTORS
330
B0F1
102
}
330
B0F1
100
AcDbVisualStyle
  2
Linepattern
 70
    14
 71
     2
 72
     2
 73
     0
 90
        0
 40
-0.6
 41
-30.0
 62
     5
 63
     7
421
 16777215
 74
     1
 91
        4
 64
     7
 65
   257
 75
     7
175
     7
 42
1.0
 92
        8
 66
     7
 43
1.0
 76
     1
 77
     6
 78
     2
 67
     7
 79
     5
170
     0
171
     0
290
     0
174
     0
 93
        1
 44
0.0
173
     0
291
     1
 45
0.0
  0
VISUALSTYLE
  5
B0FB
102
{ACAD_REACTORS
330
B0F1
102
}
330
B0F1
100
AcDbVisualStyle
  2
Realistic
 70
     8
 71
     2
 72
     2
 73
     0
 90
        0
 40
-0.6
 41
-30.0
 62
     5
 63
     7
421
 16777215
 74
     1
 91
        0
 64
     7
 65
   257
 75
     1
175
     1
 42
1.0
 92
        8
 66
     8
424
  7895160
 43
1.0
 76
     1
 77
     6
 78
     2
 67
     7
 79
     5
170
     0
171
     0
290
     0
174
     0
 93
       13
 44
0.0
173
     0
291
     0
 45
0.0
  0
VISUALSTYLE
  5
B0FE
102
{ACAD_REACTORS
330
B0F1
102
}
330
B0F1
100
AcDbVisualStyle
  2
Thicken
 70
    13
 71
     2
 72
     2
 73
     0
 90
        0
 40
-0.6
 41
-30.0
 62
     5
 63
     7
421
 16777215
 74
     1
 91
        4
 64
     7
 65
   257
 75
     1
175
     1
 42
1.0
 92
       12
 66
     7
 43
1.0
 76
     1
 77
     6
 78
     2
 67
     7
 79
     5
170
     0
171
     0
290
     0
174
     0
 93
        1
 44
0.0
173
     0
291
     1
 45
0.0
  0
DICTIONARYVAR
  5
AAF3
102
{ACAD_REACTORS
330
34
102
}
330
34
100
DictionaryVariables
280
     0
  1
STANDARD
  0
DICTIONARYVAR
  5
A10C
102
{ACAD_REACTORS
330
34
102
}
330
34
100
DictionaryVariables
280
     0
  1
1
  0
DICTIONARYVAR
  5
AB07
102
{ACAD_REACTORS
330
34
102
}
330
34
100
DictionaryVariables
280
     0
  1
4
  0
DICTIONARYVAR
  5
35
102
{ACAD_REACTORS
330
34
102
}
330
34
100
DictionaryVariables
280
     0
  1
1
  0
DICTIONARYVAR
  5
194C
102
{ACAD_REACTORS
330
34
102
}
330
34
100
DictionaryVariables
280
     0
  1
96
  0
DICTIONARY
  5
7E8
102
{ACAD_REACTORS
330
47
102
}
330
47
100
AcDbDictionary
281
     1
  0
DICTIONARY
  5
4C
102
{ACAD_REACTORS
330
47
102
}
330
47
100
AcDbDictionary
281
     1
  0
XRECORD
  5
A929
102
{ACAD_REACTORS
330
47
102
}
330
47
100
AcDbXrecord
280
     1
 90
-1023410169
  0
XRECORD
  5
B332
102
{ACAD_REACTORS
330
B331
102
}
330
B331
100
AcDbXrecord
280
     1
  0
XRECORD
  5
3FB7
102
{ACAD_REACTORS
330
3F96
102
}
330
3F96
100
AcDbXrecord
280
     1
 91
        3
330
0
 90
        8
 62
     7
370
    40
331
16
  1
Color_7
330
0
 90
        0
 62
    14
370
    -3
331
16
  1
Color_14
330
0
 90
        8
 62
     7
370
    20
331
16
  1
Color_7
330
6D1
 90
        0
 62
     7
370
    -3
331
16
  1
Color_7
330
0
 90
        8
 62
     7
370
    50
331
16
  1
Color_7
330
0
 90
        8
 62
     2
370
    35
331
16
  1
Color_2
330
0
 90
        8
 62
     7
370
    -3
331
16
  1
Color_7
330
10
 90
        8
 62
     7
370
    -3
331
16
  1
Color_7
  0
ENDSEC
  0
EOF
