  0
SECTION
  2
HEADER
  9
$ACADVER
  1
AC1021
  9
$ACADMAINTVER
 70
     3
  9
$DWGCODEPAGE
  3
ANSI_932
  9
$LASTSAVEDBY
  1
Administrator
  9
$CUSTOMPROPERTYTAG
  1
AmdtFileType
  9
$CUSTOMPROPERTY
  1
84
  9
$INSBASE
 10
0.0
 20
0.0
 30
0.0
  9
$EXTMIN
 10
3870.48774062485
 20
2826.764285165471
 30
-0.0000000349181948
  9
$EXTMAX
 10
4290.756844161406
 20
3123.806830473415
 30
0.0000000814935746
  9
$LIMMIN
 10
1700.85588156276
 20
1647.985052086429
  9
$LIMMAX
 10
1997.85588156276
 20
1857.985052086429
  9
$ORTHOMODE
 70
     0
  9
$REGENMODE
 70
     1
  9
$FILLMODE
 70
     1
  9
$QTEXTMODE
 70
     0
  9
$MIRRTEXT
 70
     0
  9
$LTSCALE
 40
1.0
  9
$ATTMODE
 70
     1
  9
$TEXTSIZE
 40
3.2
  9
$TRACEWID
 40
1.0
  9
$TEXTSTYLE
  7
STANDARD
  9
$CLAYER
  8
AM_0
  9
$CELTYPE
  6
ByLayer
  9
$CECOLOR
 62
   256
  9
$CELTSCALE
 40
1.0
  9
$DISPSILH
 70
     0
  9
$DIMSCALE
 40
1.0
  9
$DIMASZ
 40
1.0
  9
$DIMEXO
 40
1.0
  9
$DIMDLI
 40
10.0
  9
$DIMRND
 40
0.0
  9
$DIMDLE
 40
0.0
  9
$DIMEXE
 40
1.0
  9
$DIMTP
 40
0.1
  9
$DIMTM
 40
0.1
  9
$DIMTXT
 40
3.5
  9
$DIMCEN
 40
0.0
  9
$DIMTSZ
 40
0.0
  9
$DIMTOL
 70
     0
  9
$DIMLIM
 70
     0
  9
$DIMTIH
 70
     0
  9
$DIMTOH
 70
     0
  9
$DIMSE1
 70
     0
  9
$DIMSE2
 70
     0
  9
$DIMTAD
 70
     1
  9
$DIMZIN
 70
     8
  9
$DIMBLK
  1

  9
$DIMASO
 70
     1
  9
$DIMSHO
 70
     1
  9
$DIMPOST
  1

  9
$DIMAPOST
  1
"
  9
$DIMALT
 70
     0
  9
$DIMALTD
 70
     2
  9
$DIMALTF
 40
0.0393701
  9
$DIMLFAC
 40
1.0
  9
$DIMTOFL
 70
     1
  9
$DIMTVP
 40
0.0
  9
$DIMTIX
 70
     0
  9
$DIMSOXD
 70
     0
  9
$DIMSAH
 70
     0
  9
$DIMBLK1
  1

  9
$DIMBLK2
  1

  9
$DIMSTYLE
  2
SYS
  9
$DIMCLRD
 70
   256
  9
$DIMCLRE
 70
   256
  9
$DIMCLRT
 70
     7
  9
$DIMTFAC
 40
0.71
  9
$DIMGAP
 40
1.5
  9
$DIMJUST
 70
     0
  9
$DIMSD1
 70
     0
  9
$DIMSD2
 70
     0
  9
$DIMTOLJ
 70
     0
  9
$DIMTZIN
 70
     8
  9
$DIMALTZ
 70
     0
  9
$DIMALTTZ
 70
     0
  9
$DIMUPT
 70
     0
  9
$DIMDEC
 70
     2
  9
$DIMTDEC
 70
     2
  9
$DIMALTU
 70
     2
  9
$DIMALTTD
 70
     2
  9
$DIMTXSTY
  7
STANDARD
  9
$DIMAUNIT
 70
     0
  9
$DIMADEC
 70
     0
  9
$DIMALTRND
 40
0.0
  9
$DIMAZIN
 70
     2
  9
$DIMDSEP
 70
    46
  9
$DIMATFIT
 70
     3
  9
$DIMFRAC
 70
     0
  9
$DIMLDRBLK
  1

  9
$DIMLUNIT
 70
     2
  9
$DIMLWD
 70
    -1
  9
$DIMLWE
 70
    -1
  9
$DIMTMOVE
 70
     0
  9
$DIMFXL
 40
1.0
  9
$DIMFXLON
 70
     0
  9
$DIMJOGANG
 40
0.7853981633974483
  9
$DIMTFILL
 70
     0
  9
$DIMTFILLCLR
 70
     0
  9
$DIMARCSYM
 70
     1
  9
$DIMLTYPE
  6

  9
$DIMLTEX1
  6

  9
$DIMLTEX2
  6

  9
$LUNITS
 70
     2
  9
$LUPREC
 70
     2
  9
$SKETCHINC
 40
1.0
  9
$FILLETRAD
 40
1.0
  9
$AUNITS
 70
     0
  9
$AUPREC
 70
     0
  9
$MENU
  1
.
  9
$ELEVATION
 40
0.0
  9
$PELEVATION
 40
0.0
  9
$THICKNESS
 40
0.0
  9
$LIMCHECK
 70
     0
  9
$CHAMFERA
 40
0.0
  9
$CHAMFERB
 40
0.0
  9
$CHAMFERC
 40
20.0
  9
$CHAMFERD
 40
0.0
  9
$SKPOLY
 70
     0
  9
$TDCREATE
 40
2455540.833317593
  9
$TDUCREATE
 40
2455540.458317593
  9
$TDUPDATE
 40
2455541.743957963
  9
$TDUUPDATE
 40
2455541.368957963
  9
$TDINDWG
 40
0.6672592940
  9
$TDUSRTIMER
 40
0.6672592940
  9
$USRTIMER
 70
     1
  9
$ANGBASE
 50
0.0
  9
$ANGDIR
 70
     0
  9
$PDMODE
 70
     0
  9
$PDSIZE
 40
-3.0
  9
$PLINEWID
 40
0.0
  9
$SPLFRAME
 70
     0
  9
$SPLINETYPE
 70
     6
  9
$SPLINESEGS
 70
     8
  9
$HANDSEED
  5
F405
  9
$SURFTAB1
 70
     6
  9
$SURFTAB2
 70
     6
  9
$SURFTYPE
 70
     6
  9
$SURFU
 70
     6
  9
$SURFV
 70
     6
  9
$UCSBASE
  2

  9
$UCSNAME
  2

  9
$UCSORG
 10
0.0
 20
0.0
 30
0.0
  9
$UCSXDIR
 10
1.0
 20
0.0
 30
0.0
  9
$UCSYDIR
 10
0.0
 20
1.0
 30
0.0
  9
$UCSORTHOREF
  2

  9
$UCSORTHOVIEW
 70
     0
  9
$UCSORGTOP
 10
0.0
 20
0.0
 30
0.0
  9
$UCSORGBOTTOM
 10
0.0
 20
0.0
 30
0.0
  9
$UCSORGLEFT
 10
0.0
 20
0.0
 30
0.0
  9
$UCSORGRIGHT
 10
0.0
 20
0.0
 30
0.0
  9
$UCSORGFRONT
 10
0.0
 20
0.0
 30
0.0
  9
$UCSORGBACK
 10
0.0
 20
0.0
 30
0.0
  9
$PUCSBASE
  2

  9
$PUCSNAME
  2

  9
$PUCSORG
 10
0.0
 20
0.0
 30
0.0
  9
$PUCSXDIR
 10
1.0
 20
0.0
 30
0.0
  9
$PUCSYDIR
 10
0.0
 20
1.0
 30
0.0
  9
$PUCSORTHOREF
  2

  9
$PUCSORTHOVIEW
 70
     0
  9
$PUCSORGTOP
 10
0.0
 20
0.0
 30
0.0
  9
$PUCSORGBOTTOM
 10
0.0
 20
0.0
 30
0.0
  9
$PUCSORGLEFT
 10
0.0
 20
0.0
 30
0.0
  9
$PUCSORGRIGHT
 10
0.0
 20
0.0
 30
0.0
  9
$PUCSORGFRONT
 10
0.0
 20
0.0
 30
0.0
  9
$PUCSORGBACK
 10
0.0
 20
0.0
 30
0.0
  9
$USERI1
 70
     0
  9
$USERI2
 70
     0
  9
$USERI3
 70
     0
  9
$USERI4
 70
     0
  9
$USERI5
 70
     0
  9
$USERR1
 40
0.0
  9
$USERR2
 40
0.0
  9
$USERR3
 40
0.0
  9
$USERR4
 40
0.0
  9
$USERR5
 40
0.0
  9
$WORLDVIEW
 70
     1
  9
$SHADEDGE
 70
     3
  9
$SHADEDIF
 70
    70
  9
$TILEMODE
 70
     1
  9
$MAXACTVP
 70
    64
  9
$PINSBASE
 10
0.0
 20
0.0
 30
0.0
  9
$PLIMCHECK
 70
     0
  9
$PEXTMIN
 10
1.000000000000000E+20
 20
1.000000000000000E+20
 30
1.000000000000000E+20
  9
$PEXTMAX
 10
-1.000000000000000E+20
 20
-1.000000000000000E+20
 30
-1.000000000000000E+20
  9
$PLIMMIN
 10
-3.17498779296875
 20
-3.174999952316284
  9
$PLIMMAX
 10
293.4970092773438
 20
206.692492723465
  9
$UNITMODE
 70
     0
  9
$VISRETAIN
 70
     1
  9
$PLINEGEN
 70
     0
  9
$PSLTSCALE
 70
     1
  9
$TREEDEPTH
 70
  3020
  9
$CMLSTYLE
  2
Standard
  9
$CMLJUST
 70
     0
  9
$CMLSCALE
 40
20.0
  9
$PROXYGRAPHICS
 70
     1
  9
$MEASUREMENT
 70
     1
  9
$CELWEIGHT
370
    -1
  9
$ENDCAPS
280
     0
  9
$JOINSTYLE
280
     0
  9
$LWDISPLAY
290
     1
  9
$INSUNITS
 70
     4
  9
$HYPERLINKBASE
  1

  9
$STYLESHEET
  1
monochrome.ctb
  9
$XEDIT
290
     1
  9
$CEPSNTYPE
380
     0
  9
$PSTYLEMODE
290
     1
  9
$FINGERPRINTGUID
  2
{5CFF355A-CF33-4148-A9A6-3ED22EC7B243}
  9
$VERSIONGUID
  2
{082DC60A-004A-4465-8B42-BC58EB818889}
  9
$EXTNAMES
290
     1
  9
$PSVPSCALE
 40
0.0
  9
$OLESTARTUP
290
     0
  9
$SORTENTS
280
    96
  9
$INDEXCTL
280
     0
  9
$HIDETEXT
280
     0
  9
$XCLIPFRAME
290
     0
  9
$HALOGAP
280
     0
  9
$OBSCOLOR
 70
   257
  9
$OBSLTYPE
280
     0
  9
$INTERSECTIONDISPLAY
280
     0
  9
$INTERSECTIONCOLOR
 70
   257
  9
$DIMASSOC
280
     1
  9
$PROJECTNAME
  1

  9
$CAMERADISPLAY
290
     0
  9
$LENSLENGTH
 40
50.0
  9
$CAMERAHEIGHT
 40
0.0
  9
$STEPSPERSEC
 40
2.0
  9
$STEPSIZE
 40
6.0
  9
$3DDWFPREC
 40
2.0
  9
$PSOLWIDTH
 40
0.25
  9
$PSOLHEIGHT
 40
4.0
  9
$LOFTANG1
 40
1.570796326794896
  9
$LOFTANG2
 40
1.570796326794896
  9
$LOFTMAG1
 40
0.0
  9
$LOFTMAG2
 40
0.0
  9
$LOFTPARAM
 70
     7
  9
$LOFTNORMALS
280
     1
  9
$LATITUDE
 40
37.795
  9
$LONGITUDE
 40
-122.394
  9
$NORTHDIRECTION
 40
0.0
  9
$TIMEZONE
 70
 -8000
  9
$LIGHTGLYPHDISPLAY
280
     1
  9
$TILEMODELIGHTSYNCH
280
     1
  9
$CMATERIAL
347
B0EE
  9
$SOLIDHIST
280
     1
  9
$SHOWHIST
280
     1
  9
$DWFFRAME
280
     2
  9
$DGNFRAME
280
     0
  9
$REALWORLDSCALE
290
     1
  9
$INTERFERECOLOR
 62
     1
  9
$INTERFEREOBJVS
345
B0FB
  9
$INTERFEREVPVS
346
B0F8
  9
$CSHADOW
280
     0
  9
$SHADOWPLANELOCATION
 40
0.0
  0
ENDSEC
  0
SECTION
  2
CLASSES
  0
CLASS
  1
ACDBDICTIONARYWDFLT
  2
AcDbDictionaryWithDefault
  3
ObjectDBX Classes
 90
        0
 91
        1
280
     0
281
     0
  0
CLASS
  1
ACDBPLACEHOLDER
  2
AcDbPlaceHolder
  3
ObjectDBX Classes
 90
        0
 91
        1
280
     0
281
     0
  0
CLASS
  1
LAYOUT
  2
AcDbLayout
  3
ObjectDBX Classes
 90
        0
 91
        3
280
     0
281
     0
  0
CLASS
  1
AMGSETTINGSOBJ
  2
AmgSettingsObj
  3
"AcadM|Product Description: AutoCAD Mechanical|Company: Autodesk"
 90
        0
 91
        2
280
     0
281
     0
  0
CLASS
  1
ACME_DOCUMENT
  2
AcMeDbDoc
  3
AcMeServices
 90
        0
 91
        2
280
     0
281
     0
  0
CLASS
  1
ACMESCOPE
  2
AcMeScope
  3
AcMeServices
 90
        0
 91
        1
280
     0
281
     0
  0
CLASS
  1
ACMECOMMANDHISTORY
  2
AcMeCommandHistory
  3
AcMeServices
 90
        0
 91
        1
280
     0
281
     0
  0
CLASS
  1
DICTIONARYVAR
  2
AcDbDictionaryVar
  3
ObjectDBX Classes
 90
        0
 91
        5
280
     0
281
     0
  0
CLASS
  1
ACIMSYSVARMAN
  2
AcImSysVarManager
  3
AcMeServices
 90
        0
 91
        5
280
     0
281
     0
  0
CLASS
  1
ACIMREALSYSVAR
  2
AcImRealSysVar
  3
AcMeServices
 90
        0
 91
        1
280
     0
281
     0
  0
CLASS
  1
ACIMINTSYSVAR
  2
AcImIntSysVar
  3
AcMeServices
 90
        0
 91
       27
280
     0
281
     0
  0
CLASS
  1
ACMEDRAWINGMAN
  2
AcMeDrawingMan
  3
AcMeServices
 90
        0
 91
        1
280
     0
281
     0
  0
CLASS
  1
ACMEVIEW
  2
AcMeView
  3
AcMeServices
 90
        0
 91
        1
280
     0
281
     0
  0
CLASS
  1
ACDBENTITYCACHE
  2
AcMeEntityCache
  3
AcMeServices
 90
        0
 91
        1
280
     0
281
     0
  0
CLASS
  1
GSMANAGER
  2
AcMeGSManager
  3
AcMeServices
 90
        0
 91
        1
280
     0
281
     0
  0
CLASS
  1
AMDTINTERNALREACTOR
  2
AmdtInternalReactor
  3
AcMeServices
 90
        0
 91
        2
280
     0
281
     0
  0
CLASS
  1
ACMESTATEMGR
  2
AcMeStateMgr
  3
AcMeServices
 90
        0
 91
        1
280
     0
281
     0
  0
CLASS
  1
ACGREFMASTER
  2
AcGrefMaster
  3
AcAttribServices
 90
        0
 91
        1
280
     0
281
     0
  0
CLASS
  1
ACME_DATABASE
  2
AcMeDbDatabase
  3
AcMeServices
 90
        0
 91
        1
280
     0
281
     0
  0
CLASS
  1
ACRFINSADJUSTERMGR
  2
AcRfInsAdjusterMgr
  3
AcMeServices
 90
        0
 91
        1
280
     0
281
     0
  0
CLASS
  1
ACGREFACADMASTER
  2
AcGrefacadMaster
  3
AcGrefServices
 90
        0
 91
        1
280
     0
281
     0
  0
CLASS
  1
AMIMASTER
  2
AmiMaster
  3
AmiServices
 90
        0
 91
        1
280
     0
281
     0
  0
CLASS
  1
ACMDATADICTIONARY
  2
AcmDataDictionary
  3
"AcmSymBB|Product Description: AutoCAD Mechanical|Company: Autodesk"
 90
        0
 91
        1
280
     0
281
     0
  0
CLASS
  1
ACMDATAENTRYBLOCK
  2
AcmDataEntryBlock
  3
"AcmSymBB|Product Description: AutoCAD Mechanical|Company: Autodesk"
 90
        0
 91
        0
280
     0
281
     0
  0
CLASS
  1
ACIMSTRSYSVAR
  2
AcImStrSysVar
  3
AcMeServices
 90
        0
 91
        5
280
     0
281
     0
  0
CLASS
  1
ACMSTANDARDISO
  2
AcmStandardISO
  3
"Amdt_StdImp|Product Description: AutoCAD Mechanical|Company: Autodesk"
 90
        0
 91
        1
280
     0
281
     0
  0
CLASS
  1
AMGOBJPROPCFG
  2
AmgObjPropCfg
  3
"AmgLay|Product Description: AutoCAD Mechanical|Company: Autodesk"
 90
        1
 91
        1
280
     0
281
     0
  0
CLASS
  1
AMDTEDGESTANDARDISO
  2
AmdtEdgeStdISO
  3
"Amdt_StdImp|Product Description: AutoCAD Mechanical|Company: Autodesk"
 90
        0
 91
        0
280
     0
281
     0
  0
CLASS
  1
ACMSURFSTANDARDISO
  2
AcmSurfTextStdISO
  3
"Amdt_StdImp|Product Description: AutoCAD Mechanical|Company: Autodesk"
 90
        0
 91
        1
280
     0
281
     0
  0
CLASS
  1
ACMFCFSTANDARDISO
  2
AcmFCFStdISO
  3
"Amdt_StdImp|Product Description: AutoCAD Mechanical|Company: Autodesk"
 90
        0
 91
        1
280
     0
281
     0
  0
CLASS
  1
ACMWELDSTANDARDISO
  2
AcmWeldingStdISO
  3
"Amdt_StdImp|Product Description: AutoCAD Mechanical|Company: Autodesk"
 90
        0
 91
        1
280
     0
281
     0
  0
CLASS
  1
ACMIDSTANDARDISO
  2
AcmIdStdISO
  3
"Amdt_StdImp|Product Description: AutoCAD Mechanical|Company: Autodesk"
 90
        0
 91
        1
280
     0
281
     0
  0
CLASS
  1
ACMDATUMSTANDARDISO
  2
AcmDatumStdISO
  3
"Amdt_StdImp|Product Description: AutoCAD Mechanical|Company: Autodesk"
 90
        0
 91
        1
280
     0
281
     0
  0
CLASS
  1
ACMBOMSTANDARDISO
  2
AcmBOMStdISO
  3
"Amdt_StdImp|Product Description: AutoCAD Mechanical|Company: Autodesk"
 90
        0
 91
        1
280
     0
281
     0
  0
CLASS
  1
ACMDETAILSTANDARDISO
  2
AmdtDetailSymStdISO
  3
"Amdt_StdImp|Product Description: AutoCAD Mechanical|Company: Autodesk"
 90
        0
 91
        1
280
     0
281
     0
  0
CLASS
  1
ACMSECTIONSTANDARDISO
  2
AmdtSectionSymStdISO
  3
"Amdt_StdImp|Product Description: AutoCAD Mechanical|Company: Autodesk"
 90
        0
 91
        1
280
     0
281
     0
  0
CLASS
  1
ACMCENTERLINESTANDARDISO
  2
AmdtCenterLineStdISO
  3
"Amdt_StdImp|Product Description: AutoCAD Mechanical|Company: Autodesk"
 90
        0
 91
        1
280
     0
281
     0
  0
CLASS
  1
ACAMGLAYSTD
  2
AcAmgLayStd
  3
"AmgLay|Product Description: AutoCAD Mechanical|Company: Autodesk"
 90
        0
 91
        1
280
     0
281
     0
  0
CLASS
  1
ACAMGDIMSTD
  2
AcAmgDimStd
  3
"AmgDim|Product Description: AutoCAD Mechanical|Company: Autodesk"
 90
        0
 91
        1
280
     0
281
     0
  0
CLASS
  1
ACAMGTITLESTD
  2
AcAmgTitleStd
  3
"AmgTitle|Product Description: AutoCAD Mechanical|Company: Autodesk"
 90
        0
 91
        1
280
     0
281
     0
  0
CLASS
  1
ACAMGFILTERDAT
  2
AcAmgFilterDat
  3
"AcadM|Product Description: AutoCAD Mechanical|Company: Autodesk"
 90
        0
 91
        0
280
     0
281
     0
  0
CLASS
  1
LAYER_INDEX
  2
AcDbLayerIndex
  3
ObjectDBX Classes
 90
        0
 91
        0
280
     0
281
     0
  0
CLASS
  1
IDBUFFER
  2
AcDbIdBuffer
  3
ObjectDBX Classes
 90
        0
 91
        0
280
     0
281
     0
  0
CLASS
  1
PLOTSETTINGS
  2
AcDbPlotSettings
  3
ObjectDBX Classes
 90
        0
 91
        0
280
     0
281
     0
  0
CLASS
  1
AMDTFORMULAUPDATEDISPATCHER
  2
AmdtFormulaUpdateDispatcher
  3
AcMeServices
 90
        0
 91
        0
280
     0
281
     0
  0
CLASS
  1
ACMSTANDARDANSI
  2
AcmStandardANSI
  3
"Amdt_StdImp|Product Description: AutoCAD Mechanical|Company: Autodesk"
 90
        0
 91
        0
280
     0
281
     0
  0
CLASS
  1
ACMSURFSTANDARDANSI
  2
AcmSurfTextStdANSI
  3
"Amdt_StdImp|Product Description: AutoCAD Mechanical|Company: Autodesk"
 90
        0
 91
        0
280
     0
281
     0
  0
CLASS
  1
ACMFCFSTANDARDANSI
  2
AcmFCFStdANSI
  3
"Amdt_StdImp|Product Description: AutoCAD Mechanical|Company: Autodesk"
 90
        0
 91
        0
280
     0
281
     0
  0
CLASS
  1
ACMWELDSTANDARDANSI
  2
AcmWeldingStdANSI
  3
"Amdt_StdImp|Product Description: AutoCAD Mechanical|Company: Autodesk"
 90
        0
 91
        0
280
     0
281
     0
  0
CLASS
  1
ACMIDSTANDARDANSI
  2
AcmIdStdANSI
  3
"Amdt_StdImp|Product Description: AutoCAD Mechanical|Company: Autodesk"
 90
        0
 91
        0
280
     0
281
     0
  0
CLASS
  1
ACMDATUMSTANDARDANSI
  2
AcmDatumStdANSI
  3
"Amdt_StdImp|Product Description: AutoCAD Mechanical|Company: Autodesk"
 90
        0
 91
        0
280
     0
281
     0
  0
CLASS
  1
ACMBOMSTANDARDANSI
  2
AcmBOMStdANSI
  3
"Amdt_StdImp|Product Description: AutoCAD Mechanical|Company: Autodesk"
 90
        0
 91
        0
280
     0
281
     0
  0
CLASS
  1
ACMDETAILSTANDARDANSI
  2
AmdtDetailSymStdANSI
  3
"Amdt_StdImp|Product Description: AutoCAD Mechanical|Company: Autodesk"
 90
        0
 91
        0
280
     0
281
     0
  0
CLASS
  1
ACMSECTIONSTANDARDANSI
  2
AmdtSectionSymStdANSI
  3
"Amdt_StdImp|Product Description: AutoCAD Mechanical|Company: Autodesk"
 90
        0
 91
        0
280
     0
281
     0
  0
CLASS
  1
ACMCENTERLINESTANDARDANSI
  2
AmdtCenterLineStdANSI
  3
"Amdt_StdImp|Product Description: AutoCAD Mechanical|Company: Autodesk"
 90
        0
 91
        0
280
     0
281
     0
  0
CLASS
  1
ACMBOM
  2
AcmBom
  3
"AcmSymBB|Product Description: AutoCAD Mechanical|Company: Autodesk"
 90
        0
 91
        0
280
     0
281
     0
  0
CLASS
  1
ACMDATAENTRYPART
  2
AcmDataEntryPart
  3
"AcmSymBB|Product Description: AutoCAD Mechanical|Company: Autodesk"
 90
        0
 91
        0
280
     0
281
     0
  0
CLASS
  1
ACMPARTREF
  2
AcmPartRef
  3
"AcmSymBB|Product Description: AutoCAD Mechanical|Company: Autodesk"
 90
     3071
 91
        0
280
     0
281
     1
  0
CLASS
  1
ACDBCIRCARCRES
  2
AcDbCircArcRes
  3
AcGrefServices
 90
        0
 91
        0
280
     0
281
     0
  0
CLASS
  1
ACMBOMROW
  2
AcmBomRow
  3
"AcmSymBB|Product Description: AutoCAD Mechanical|Company: Autodesk"
 90
        0
 91
        0
280
     0
281
     0
  0
CLASS
  1
ACMBALLOON
  2
AcmBalloon
  3
"AcmSymBB|Product Description: AutoCAD Mechanical|Company: Autodesk"
 90
     3071
 91
        0
280
     0
281
     1
  0
CLASS
  1
AMDTNOTE
  2
AmdtNote
  3
"AcmSymBB|Product Description: AutoCAD Mechanical|Company: Autodesk"
 90
     3071
 91
        0
280
     0
281
     1
  0
CLASS
  1
STDPART2D
  2
AmgStdPart
  3
"AmgStdPart|Product Description: AutoCAD Mechanical|Company: Autodesk"
 90
     3071
 91
        0
280
     0
281
     1
  0
CLASS
  1
ACDBSTDPARTRES_LINE
  2
AcDbStdPartRes_Line
  3
"AmgStdPart|Product Description: AutoCAD Mechanical|Company: Autodesk"
 90
        0
 91
        0
280
     0
281
     0
  0
CLASS
  1
ACMDATAENTRY
  2
AcmDataEntry
  3
"AcmSymBB|Product Description: AutoCAD Mechanical|Company: Autodesk"
 90
        0
 91
        0
280
     0
281
     0
  0
CLASS
  1
ACDBOPPOLYLINERES
  2
AcDbOpPolylineRes
  3
AcGrefServices
 90
        0
 91
        0
280
     0
281
     0
  0
CLASS
  1
ACMPARTLIST
  2
AcmPartList
  3
"AcmSymBB|Product Description: AutoCAD Mechanical|Company: Autodesk"
 90
     3071
 91
        0
280
     0
281
     1
  0
CLASS
  1
ACDBLINERES
  2
AcDbLineRes
  3
AcGrefServices
 90
        0
 91
        0
280
     0
281
     0
  0
CLASS
  1
ACRFINSADJ
  2
AcRfInsAdjuster
  3
AcMeServices
 90
        0
 91
        0
280
     0
281
     0
  0
CLASS
  1
AM_DRAWING_MGR
  2
AcDmDwgMgr
  3
AcMechDwgViewMgmt
 90
        0
 91
        1
280
     0
281
     0
  0
CLASS
  1
AM_DWG_DOCUMENT
  2
AcDmDwgDocument
  3
AcMechDwgViewMgmt
 90
        0
 91
        1
280
     0
281
     0
  0
CLASS
  1
AM_DWG_SHEET
  2
AcDmSheet
  3
AcMechDwgViewMgmt
 90
        0
 91
        2
280
     0
281
     0
  0
CLASS
  1
AM_VIEWDIMPARMAP
  2
AcDmViewDimParMap
  3
AcMechDwgViewMgmt
 90
        0
 91
        2
280
     0
281
     0
  0
CLASS
  1
AM_DWGMGR_NAME
  2
AcDmDwgMgrName
  3
AcMechDwgViewMgmt
 90
        0
 91
        1
280
     0
281
     0
  0
CLASS
  1
AMDTMENUSTATEMGR
  2
AmdtMenuStateMgr
  3
McadcomServices
 90
        0
 91
        1
280
     0
281
     0
  0
CLASS
  1
AMDTMCOMMENUSTATE
  2
AmdtMcomMenuState
  3
McadcomServices
 90
        0
 91
        1
280
     0
281
     0
  0
CLASS
  1
ASAPP
  2
AcAsAppObject
  3
AutoSurfServices
 90
        0
 91
        2
280
     0
281
     0
  0
CLASS
  1
IM_STATIC_MAN
  2
AcImStaticVarManager
  3
AcMeServices
 90
        0
 91
        1
280
     0
281
     0
  0
CLASS
  1
ACIMDBLSTATICVAR
  2
AcImDblStaticVar
  3
AcMeServices
 90
        0
 91
        0
280
     0
281
     0
  0
CLASS
  1
ACIMSTRSTATICVAR
  2
AcImStrStaticVar
  3
AcMeServices
 90
        0
 91
        0
280
     0
281
     0
  0
CLASS
  1
ACIMINTSTATICVAR
  2
AcImIntStaticVar
  3
AcMeServices
 90
        0
 91
        0
280
     0
281
     0
  0
CLASS
  1
ACASGREFMASTER
  2
AcAsGrefMaster
  3
AutoSurfResolverServices
 90
        0
 91
        2
280
     0
281
     0
  0
CLASS
  1
ACADGREFMODULE
  2
AcAdGrefModule
  3
AdGrefServices
 90
        0
 91
        2
280
     0
281
     0
  0
CLASS
  1
AMDTMAPISURFMOUDULE
  2
AmdtMApiSurfModule
  3
MApiSurfServices
 90
        0
 91
        2
280
     0
281
     0
  0
CLASS
  1
MAPIAMMOUDLE
  2
MApiAmModule
  3
MApiAmServices
 90
        0
 91
        1
280
     0
281
     0
  0
CLASS
  1
AMDTADMENUSTATE
  2
AmdtAdMenuState
  3
DesignerServices
 90
        0
 91
        1
280
     0
281
     0
  0
CLASS
  1
ADAPPL
  2
AcAdAppl
  3
DesignerServices
 90
        0
 91
        1
280
     0
281
     0
  0
CLASS
  1
DEPMGR
  2
AcAdDepMgr
  3
DesignerServices
 90
        0
 91
        1
280
     0
281
     0
  0
CLASS
  1
PARAMMGR
  2
AcAdParamMgr
  3
DesignerServices
 90
        0
 91
        1
280
     0
281
     0
  0
CLASS
  1
PARAMSCOPE
  2
AcAdParamScope
  3
DesignerServices
 90
        0
 91
        1
280
     0
281
     0
  0
CLASS
  1
NAMEDAPPL
  2
AcAdNamedAppl
  3
DesignerServices
 90
        0
 91
        1
280
     0
281
     0
  0
CLASS
  1
ADHNTMPLT
  2
AdHoleNoteTemplateMgr
  3
DesignerServices
 90
        0
 91
        0
280
     0
281
     0
  0
CLASS
  1
AM_HNTEMPLATE_MGR_NAME
  2
AdHoleNoteTemplateMgrName
  3
DesignerServices
 90
        0
 91
        0
280
     0
281
     0
  0
CLASS
  1
AMDTDMMENUSTATE
  2
AmdtDmMenuState
  3
AcMechDwgViewMgmt
 90
        0
 91
        1
280
     0
281
     0
  0
CLASS
  1
MAPIADMODULE
  2
MApiAdModule
  3
MApiAdServices
 90
        0
 91
        2
280
     0
281
     0
  0
CLASS
  1
AMDTAMMENUSTATE
  2
AmdtAmMenuState
  3
DesignerAssemblies
 90
        0
 91
        1
280
     0
281
     0
  0
CLASS
  1
ACAMPROJECT
  2
AcAmProject
  3
DesignerAssemblies
 90
        0
 91
        1
280
     0
281
     0
  0
CLASS
  1
ACAMGRCOMPDEF
  2
AcAmGrCompDef
  3
DesignerAssemblies
 90
        0
 91
        1
280
     0
281
     0
  0
CLASS
  1
ACCMCONTEXT
  2
AcCmContext
  3
DesignerAssemblies
 90
        0
 91
        1
280
     0
281
     0
  0
CLASS
  1
ACAMCOMPDEF
  2
AcAmCompDef
  3
DesignerAssemblies
 90
        0
 91
        1
280
     0
281
     0
  0
CLASS
  1
ACAMCOMPDEFMGR
  2
AcAmCompDefMgr
  3
DesignerAssemblies
 90
        0
 91
        1
280
     0
281
     0
  0
CLASS
  1
AMCONTEXTMGR
  2
AcAmContextMgr
  3
DesignerAssemblies
 90
        0
 91
        1
280
     0
281
     0
  0
CLASS
  1
ACAMCONTEXTMODELER
  2
AcAmContextModeler
  3
DesignerAssemblies
 90
        0
 91
        1
280
     0
281
     0
  0
CLASS
  1
CATALOGSTATE
  2
AcAmCatalogState
  3
DesignerAssemblies
 90
        0
 91
        1
280
     0
281
     0
  0
CLASS
  1
ACAMGRCOMPDEFSET
  2
AcAmGrCompDefSet
  3
DesignerAssemblies
 90
        0
 91
        1
280
     0
281
     0
  0
CLASS
  1
AMDTBROWSERDBTAB
  2
AmdtBrowserDbTab
  3
McadcomServices
 90
        0
 91
        1
280
     0
281
     0
  0
CLASS
  1
CBROWSERAPPOBJECT
  2
CBrowserAppObject
  3
McadcomServices
 90
        0
 91
        3
280
     0
281
     0
  0
CLASS
  1
DM_PLACEHOLDER
  2
AcDmSelsetPlaceholder
  3
AcMechDwgViewMgmt
 90
        0
 91
        1
280
     0
281
     0
  0
CLASS
  1
ACMPICKOBJ
  2
AcmPickEnt
  3
"AcmSymBB|Product Description: AutoCAD Mechanical|Company: Autodesk"
 90
        0
 91
        0
280
     0
281
     1
  0
CLASS
  1
ACMNOTESTANDARDISO
  2
AmdtNoteStdISO
  3
"Amdt_StdImp|Product Description: AutoCAD Mechanical|Company: Autodesk"
 90
        0
 91
        1
280
     0
281
     0
  0
CLASS
  1
ACMNOTESTANDARDANSI
  2
AmdtNoteStdANSI
  3
"Amdt_StdImp|Product Description: AutoCAD Mechanical|Company: Autodesk"
 90
        0
 91
        0
280
     0
281
     0
  0
CLASS
  1
ACMTHREADLINESTANDARDISO
  2
AmdtThreadLineStdISO
  3
"Amdt_StdImp|Product Description: AutoCAD Mechanical|Company: Autodesk"
 90
        0
 91
        1
280
     0
281
     0
  0
CLASS
  1
ACMTHREADLINESTANDARDANSI
  2
AmdtThreadLineStdANSI
  3
"Amdt_StdImp|Product Description: AutoCAD Mechanical|Company: Autodesk"
 90
        0
 91
        0
280
     0
281
     0
  0
CLASS
  1
TABLESTYLE
  2
AcDbTableStyle
  3
ObjectDBX Classes
 90
     4095
 91
        1
280
     0
281
     0
  0
CLASS
  1
SORTENTSTABLE
  2
AcDbSortentsTable
  3
ObjectDBX Classes
 90
        0
 91
        1
280
     0
281
     0
  0
CLASS
  1
MATERIAL
  2
AcDbMaterial
  3
ObjectDBX Classes
 90
     1153
 91
        3
280
     0
281
     0
  0
CLASS
  1
VISUALSTYLE
  2
AcDbVisualStyle
  3
ObjectDBX Classes
 90
     4095
 91
       16
280
     0
281
     0
  0
CLASS
  1
ACRFATTGENMGR
  2
AcRfAttGeneralMgr
  3
AcAttribServices
 90
        0
 91
        0
280
     0
281
     0
  0
CLASS
  1
ACRFOBJATTMGR
  2
AcRfObjAttGroupMgr
  3
AcAttribServices
 90
        0
 91
        0
280
     0
281
     0
  0
CLASS
  1
ACRFMCADAPIATTHOLDER
  2
AcRfMCADAPIAttHolder
  3
AcAttribServices
 90
        0
 91
        0
280
     0
281
     0
  0
CLASS
  1
AMDTSYSATTR
  2
AmdtSystemAttribute
  3
AcAttribServices
 90
        0
 91
        0
280
     0
281
     0
  0
CLASS
  1
ACMTAPERSTANDARDISO
  2
AcmTaperStdISO
  3
"Amdt_StdImp|Product Description: AutoCAD Mechanical|Company: Autodesk"
 90
        0
 91
        1
280
     0
281
     0
  0
CLASS
  1
CAMSSTRUCTBTNSTATE
  2
StructBtnState
  3
L"DesignerAssemblies"
 90
        0
 91
        0
280
     0
281
     0
  0
CLASS
  1
DIMASSOC
  2
AcDbDimAssoc
  3
"AcDbDimAssoc|Product Desc:     AcDim ARX App For Dimension|Company:          Autodesk, Inc.|WEB Address:      www.autodesk.com"
 90
        0
 91
        0
280
     0
281
     0
  0
CLASS
  1
AMDTNOTETEMPLATEDB
  2
AmdtNoteTemplateDB
  3
AMDT_STDIMP_MODULE_NAME
 90
        0
 91
        6
280
     0
281
     0
  0
CLASS
  1
AMDTEDGESTANDARDISO13715
  2
AmdtEdgeStdISO13715
  3
"Amdt_StdImp|Product Description: AutoCAD Mechanical|Company: Autodesk"
 90
        0
 91
        1
280
     0
281
     0
  0
CLASS
  1
ACAMGHOLECHARTSTDISO
  2
AcAmgHoleChartStdISO
  3
ACMSYMBB_MODULE_NAME
 90
        0
 91
        1
280
     0
281
     0
  0
ENDSEC
  0
SECTION
  2
TABLES
  0
TABLE
  2
VPORT
  5
8
330
0
100
AcDbSymbolTable
 70
     1
  0
VPORT
  5
B0EC
330
8
100
AcDbSymbolTableRecord
100
AcDbViewportTableRecord
  2
*Active
 70
     0
 10
0.0
 20
0.0
 11
1.0
 21
1.0
 12
4080.622292393128
 22
2975.285557819443
 13
0.0
 23
0.0
 14
2.5
 24
2.5
 15
10.0
 25
10.0
 16
0.0
 26
0.0
 36
1.0
 17
0.0
 27
0.0
 37
0.0
 40
299.0609544493345
 41
2.112244897959183
 42
50.0
 43
-1370.695619172058
 44
-1370.695619172058
 50
0.0
 51
0.0
 71
    16
 72
   100
 73
     1
 74
     3
 75
     0
 76
     0
 77
     0
 78
     0
281
     0
 65
     0
110
0.0
120
0.0
130
0.0
111
1.0
121
0.0
131
0.0
112
0.0
122
1.0
132
0.0
 79
     0
146
0.0
348
B0F7
 60
     3
 61
     5
292
     1
282
     1
141
0.0
142
0.0
 63
   250
421
  3355443
  0
ENDTAB
  0
TABLE
  2
LTYPE
  5
5
330
0
100
AcDbSymbolTable
 70
    29
  0
LTYPE
  5
14
330
5
100
AcDbSymbolTableRecord
100
AcDbLinetypeTableRecord
  2
ByBlock
 70
     0
  3

 72
    65
 73
     0
 40
0.0
  0
LTYPE
  5
15
330
5
100
AcDbSymbolTableRecord
100
AcDbLinetypeTableRecord
  2
ByLayer
 70
     0
  3

 72
    65
 73
     0
 40
0.0
  0
LTYPE
  5
16
330
5
100
AcDbSymbolTableRecord
100
AcDbLinetypeTableRecord
  2
Continuous
 70
     0
  3
Solid line
 72
    65
 73
     0
 40
0.0
  0
LTYPE
  5
4F
330
5
100
AcDbSymbolTableRecord
100
AcDbLinetypeTableRecord
  2
AM_ISO02W050
 70
     0
  3
__ __ __ __ __ __ __ __ __ __ __ __ __ __ __
 72
    65
 73
     2
 40
7.5
 49
6.0
 74
     0
 49
-1.5
 74
     0
  0
LTYPE
  5
52
330
5
100
AcDbSymbolTableRecord
100
AcDbLinetypeTableRecord
  2
Amconstr
 70
     0
  3
_______________________
 72
    65
 73
     2
 40
9999.0
 49
9999.0
 74
     0
 49
0.0
 74
     0
  0
LTYPE
  5
64
330
5
100
AcDbSymbolTableRecord
100
AcDbLinetypeTableRecord
  2
ACISOWELD
 70
     0
  3
_ _ _ _ _
 72
    65
 73
     2
 40
2.0
 49
2.0
 74
     0
 49
-1.0
 74
     0
  0
LTYPE
  5
65
330
5
100
AcDbSymbolTableRecord
100
AcDbLinetypeTableRecord
  2
ACISOTGB
 70
     0
  3
__ . . __ . .
 72
    65
 73
     6
 40
9.0
 49
4.0
 74
     0
 49
-1.0
 74
     0
 49
1.0
 74
     0
 49
-1.0
 74
     0
 49
1.0
 74
     0
 49
-1.0
 74
     0
  0
LTYPE
  5
66
330
5
100
AcDbSymbolTableRecord
100
AcDbLinetypeTableRecord
  2
ACISOTGL
 70
     0
  3
_ _ _ _ _
 72
    65
 73
     2
 40
3.0
 49
2.0
 74
     0
 49
-1.0
 74
     0
  0
LTYPE
  5
69
330
5
100
AcDbSymbolTableRecord
100
AcDbLinetypeTableRecord
  2
CENTER
 70
     0
  3
__ . __
 72
    65
 73
     4
 40
7.0
 49
4.0
 74
     0
 49
-1.0
 74
     0
 49
1.0
 74
     0
 49
-1.0
 74
     0
  0
LTYPE
  5
A6E
330
5
100
AcDbSymbolTableRecord
100
AcDbLinetypeTableRecord
  2
PHANTOM2
 70
     0
  3
Phantom (.5x) ___ _ _ ___ _ _ ___ _ _ ___ _ _
 72
    65
 73
     6
 40
31.75
 49
15.875
 74
     0
 49
-3.174999999999999
 74
     0
 49
3.174999999999999
 74
     0
 49
-3.174999999999999
 74
     0
 49
3.174999999999999
 74
     0
 49
-3.174999999999999
 74
     0
  0
LTYPE
  5
4DED
330
5
100
AcDbSymbolTableRecord
100
AcDbLinetypeTableRecord
  2
中線
 70
     0
  3
___________________
 72
    65
 73
     2
 40
2.0
 49
1.0
 74
     0
 49
1.0
 74
     0
  0
LTYPE
  5
4DF6
330
5
100
AcDbSymbolTableRecord
100
AcDbLinetypeTableRecord
  2
細線
 70
     0
  3
___________________
 72
    65
 73
     2
 40
2.0
 49
1.0
 74
     0
 49
1.0
 74
     0
  0
LTYPE
  5
4DF7
330
5
100
AcDbSymbolTableRecord
100
AcDbLinetypeTableRecord
  2
太線
 70
     0
  3
___________________
 72
    65
 73
     2
 40
2.0
 49
1.0
 74
     0
 49
1.0
 74
     0
  0
LTYPE
  5
4EA7
330
5
100
AcDbSymbolTableRecord
100
AcDbLinetypeTableRecord
  2
文字
 70
     0
  3
_________________
 72
    65
 73
     2
 40
2.0
 49
1.0
 74
     0
 49
1.0
 74
     0
  0
LTYPE
  5
4EA9
330
5
100
AcDbSymbolTableRecord
100
AcDbLinetypeTableRecord
  2
寸法線
 70
     0
  3
________________
 72
    65
 73
     2
 40
2.0
 49
1.0
 74
     0
 49
1.0
 74
     0
  0
LTYPE
  5
4F12
330
5
100
AcDbSymbolTableRecord
100
AcDbLinetypeTableRecord
  2
ハッチング
 70
     0
  3
_________________
 72
    65
 73
     2
 40
2.0
 49
1.0
 74
     0
 49
1.0
 74
     0
  0
LTYPE
  5
5180
330
5
100
AcDbSymbolTableRecord
100
AcDbLinetypeTableRecord
  2
陰線1
 70
     0
  3
__ __ __ __
 72
    65
 73
     2
 40
4.0
 49
2.2
 74
     0
 49
-1.8
 74
     0
  0
LTYPE
  5
5182
330
5
100
AcDbSymbolTableRecord
100
AcDbLinetypeTableRecord
  2
切断線
 70
     0
  3
/\/-/\/-/\/-/\/-/\/-/\/
 72
    65
 73
     2
 40
11.0001
 49
0.0001
 74
     4
 75
   135
340
56
 46
0.04
 50
0.0
 44
0.0
 45
0.0
 49
-11.0
 74
     0
  0
LTYPE
  5
5183
330
5
100
AcDbSymbolTableRecord
100
AcDbLinetypeTableRecord
  2
想像線1
 70
     0
  3
__ __ __ _____ __ __ ____
 72
    65
 73
     6
 40
14.5
 49
6.0
 74
     0
 49
-1.5
 74
     0
 49
2.0
 74
     0
 49
-1.5
 74
     0
 49
2.0
 74
     0
 49
-1.5
 74
     0
  0
LTYPE
  5
5185
330
5
100
AcDbSymbolTableRecord
100
AcDbLinetypeTableRecord
  2
中心線1
 70
     0
  3
___ _ ___ _ ___
 72
    65
 73
     4
 40
18.0
 49
12.0
 74
     0
 49
-2.0
 74
     0
 49
2.0
 74
     0
 49
-2.0
 74
     0
  0
LTYPE
  5
5188
330
5
100
AcDbSymbolTableRecord
100
AcDbLinetypeTableRecord
  2
補助線
 70
     0
  3
______________
 72
    65
 73
     2
 40
2.0
 49
1.0
 74
     0
 49
1.0
 74
     0
  0
LTYPE
  5
6427
330
5
100
AcDbSymbolTableRecord
100
AcDbLinetypeTableRecord
  2
HIDDEN
 70
     0
  3
Hidden __ __ __ __ __ __ __ __ __ __ __ __ __ _
 72
    65
 73
     2
 40
0.375
 49
0.25
 74
     0
 49
-0.125
 74
     0
  0
LTYPE
  5
AC81
330
5
100
AcDbSymbolTableRecord
100
AcDbLinetypeTableRecord
  2
破断線
 70
     0
  3
/\/-/\/-/\/-/\/-/\/-/\/
 72
    65
 73
     2
 40
0.4401
 49
0.0001
 74
     4
 75
   136
340
AC80
 46
0.0016
 50
0.0
 44
0.0
 45
0.0
 49
-0.4400000000000001
 74
     0
  0
LTYPE
  5
AC9E
330
5
100
AcDbSymbolTableRecord
100
AcDbLinetypeTableRecord
  2
Amzigzag
 70
     0
  3
/\/-/\/-/\/-/\/-/\/-/\/
 72
    65
 73
     2
 40
11.0001
 49
0.0001
 74
     4
 75
   135
340
56
 46
0.04
 50
0.0
 44
0.0
 45
0.0
 49
-11.0
 74
     0
  0
LTYPE
  5
AF0F
330
5
100
AcDbSymbolTableRecord
100
AcDbLinetypeTableRecord
  2
genzigzag
 70
     0
  3
/\/-/\/-/\/-/\/-/\/-/\/
 72
    65
 73
     2
 40
12.0001
 49
0.0001
 74
     4
 75
   135
340
AC80
 46
2.0
 50
0.0
 44
0.0
 45
0.0
 49
-12.0
 74
     0
  0
LTYPE
  5
AF95
330
5
100
AcDbSymbolTableRecord
100
AcDbLinetypeTableRecord
  2
AM_ISO08W050
 70
     0
  3
____ . ____ . ____ . ____ . ____ . ____ . ____
 72
    65
 73
     4
 40
18.0
 49
12.0
 74
     0
 49
-1.5
 74
     0
 49
3.0
 74
     0
 49
-1.5
 74
     0
  0
LTYPE
  5
AF96
330
5
100
AcDbSymbolTableRecord
100
AcDbLinetypeTableRecord
  2
AM_ISO09W050
 70
     0
  3
_____ . . _____ . . _____ . . ____ .. ____
 72
    65
 73
     6
 40
22.5
 49
12.0
 74
     0
 49
-1.5
 74
     0
 49
3.0
 74
     0
 49
-1.5
 74
     0
 49
3.0
 74
     0
 49
-1.5
 74
     0
  0
LTYPE
  5
AF97
330
5
100
AcDbSymbolTableRecord
100
AcDbLinetypeTableRecord
  2
AM_ISO08W050x2
 70
     0
  3
__ . __ . __ . __ . __ . __
 72
    65
 73
     4
 40
9.0
 49
6.0
 74
     0
 49
-0.75
 74
     0
 49
1.5
 74
     0
 49
-0.75
 74
     0
  0
LTYPE
  5
AF98
330
5
100
AcDbSymbolTableRecord
100
AcDbLinetypeTableRecord
  2
AM_ISO02W050x2
 70
     0
  3
 _ _ _ _ _ _ _ _ _ _ _ _
 72
    65
 73
     2
 40
3.75
 49
3.0
 74
     0
 49
-0.75
 74
     0
  0
LTYPE
  5
B81E
330
5
100
AcDbSymbolTableRecord
100
AcDbLinetypeTableRecord
  2
DASHED
 70
     0
  3
__ __ __ __ __ __ __ __ __ __ __ __ __ __ __
 72
    65
 73
     2
 40
3.5
 49
2.0
 74
     0
 49
-1.5
 74
     0
  0
LTYPE
  5
B81F
330
5
100
AcDbSymbolTableRecord
100
AcDbLinetypeTableRecord
  2
PHANTOM
 70
     0
  3
_____ _ _ _____ _ _ _____ _ _ _____ _ _ ____  
 72
    65
 73
     6
 40
15.5
 49
8.0
 74
     0
 49
-1.5
 74
     0
 49
1.5
 74
     0
 49
-1.5
 74
     0
 49
1.5
 74
     0
 49
-1.5
 74
     0
  0
ENDTAB
  0
TABLE
  2
LAYER
  5
2
102
{ACAD_XDICTIONARY
360
3F95
102
}
330
0
100
AcDbSymbolTable
 70
    22
  0
LAYER
  5
10
330
2
100
AcDbSymbolTableRecord
100
AcDbLayerTableRecord
  2
0
 70
     0
 62
     7
  6
Continuous
370
    -3
390
F
347
B0F0
  0
LAYER
  5
6D1
330
2
100
AcDbSymbolTableRecord
100
AcDbLayerTableRecord
  2
Defpoints
 70
     0
 62
     7
  6
Continuous
290
     0
370
    -3
390
F
347
B0F0
  0
LAYER
  5
5F85
330
2
100
AcDbSymbolTableRecord
100
AcDbLayerTableRecord
  2
AM_0
 70
     0
 62
     7
  6
中線
370
    30
390
F
347
B0F0
1001
AcAecLayerStandard
1000

1000

  0
LAYER
  5
AC9F
330
2
100
AcDbSymbolTableRecord
100
AcDbLayerTableRecord
  2
size
 70
     0
 62
     5
  6
Continuous
290
     0
370
    30
390
F
347
B0F0
  0
LAYER
  5
ACA0
330
2
100
AcDbSymbolTableRecord
100
AcDbLayerTableRecord
  2
waku
 70
     0
 62
     7
  6
Continuous
370
    40
390
F
347
B0F0
  0
LAYER
  5
ACA1
330
2
100
AcDbSymbolTableRecord
100
AcDbLayerTableRecord
  2
AM_6
 70
     0
 62
     2
  6
文字
370
    13
390
F
347
B0F0
1001
AcAecLayerStandard
1000

1000

  0
LAYER
  5
ACC8
330
2
100
AcDbSymbolTableRecord
100
AcDbLayerTableRecord
  2
hyomoji
 70
     0
 62
     2
  6
Continuous
370
    13
390
F
347
B0F0
  0
LAYER
  5
ACC9
330
2
100
AcDbSymbolTableRecord
100
AcDbLayerTableRecord
  2
hyosen1
 70
     0
 62
     1
  6
Continuous
370
    30
390
F
347
B0F0
  0
LAYER
  5
ACCA
330
2
100
AcDbSymbolTableRecord
100
AcDbLayerTableRecord
  2
hyosen2
 70
     0
 62
     1
  6
Continuous
370
    13
390
F
347
B0F0
  0
LAYER
  5
AD60
330
2
100
AcDbSymbolTableRecord
100
AcDbLayerTableRecord
  2
AM_1
 70
     0
 62
    30
  6
太線
370
    40
390
F
347
B0F0
1001
AcAecLayerStandard
1000

1000

  0
LAYER
  5
AD64
330
2
100
AcDbSymbolTableRecord
100
AcDbLayerTableRecord
  2
AM_2
 70
     0
 62
     1
  6
細線
370
    13
390
F
347
B0F0
1001
AcAecLayerStandard
1000

1000

  0
LAYER
  5
AD67
330
2
100
AcDbSymbolTableRecord
100
AcDbLayerTableRecord
  2
AM_3
 70
     0
 62
     6
  6
陰線1
370
    13
390
F
347
B0F0
1001
AcAecLayerStandard
1000

1000

  0
LAYER
  5
AD68
330
2
100
AcDbSymbolTableRecord
100
AcDbLayerTableRecord
  2
AM_5
 70
     0
 62
     3
  6
寸法線
370
    13
390
F
347
B0F0
1001
AcAecLayerStandard
1000

1000

  0
LAYER
  5
AD69
330
2
100
AcDbSymbolTableRecord
100
AcDbLayerTableRecord
  2
AM_7
 70
     0
 62
     4
  6
中心線1
370
    13
390
F
347
B0F0
1001
AcAecLayerStandard
1000

1000

  0
LAYER
  5
AD6A
330
2
100
AcDbSymbolTableRecord
100
AcDbLayerTableRecord
  2
AM_8
 70
     0
 62
     1
  6
ハッチング
370
    13
390
F
347
B0F0
1001
AcAecLayerStandard
1000

1000

  0
LAYER
  5
AD6E
330
2
100
AcDbSymbolTableRecord
100
AcDbLayerTableRecord
  2
AM_10
 70
     0
 62
     7
  6
切断線
370
    30
390
F
347
B0F0
1001
AcAecLayerStandard
1000

1000

  0
LAYER
  5
AD6F
330
2
100
AcDbSymbolTableRecord
100
AcDbLayerTableRecord
  2
AM_11
 70
     0
 62
     2
  6
想像線1
370
    13
390
F
347
B0F0
1001
AcAecLayerStandard
1000

1000

  0
LAYER
  5
B1B6
330
2
100
AcDbSymbolTableRecord
100
AcDbLayerTableRecord
  2
AM_CL
 70
     0
 62
     1
  6
Amconstr
370
     9
390
F
347
B0F0
1001
AcAecLayerStandard
1000

1000

  0
LAYER
  5
B2EB
330
2
100
AcDbSymbolTableRecord
100
AcDbLayerTableRecord
  2
AM_14
 70
     0
 62
     5
  6
細線
370
     9
390
F
347
B0F0
1001
AcAecLayerStandard
1000

1000

  0
LAYER
  5
B2EC
330
2
100
AcDbSymbolTableRecord
100
AcDbLayerTableRecord
  2
AM_15
 70
     0
 62
     6
  6
陰線1
370
     9
390
F
347
B0F0
1001
AcAecLayerStandard
1000

1000

  0
LAYER
  5
B820
330
2
100
AcDbSymbolTableRecord
100
AcDbLayerTableRecord
  2
PV0001_1
 70
     0
 62
     7
  6
Continuous
370
    -3
390
F
347
B0F0
  0
LAYER
  5
B821
330
2
100
AcDbSymbolTableRecord
100
AcDbLayerTableRecord
  2
0DFB-2020
 70
     0
 62
   140
  6
Continuous
370
    25
390
F
347
B0F0
1001
AcAecLayerStandard
1000

1000

  0
ENDTAB
  0
TABLE
  2
STYLE
  5
3
330
0
100
AcDbSymbolTable
 70
     7
  0
STYLE
  5
11
330
3
100
AcDbSymbolTableRecord
100
AcDbTextStyleTableRecord
  2
STANDARD
 70
     0
 40
0.0
 41
0.7
 50
0.0
 71
     0
 42
3.2
  3
romans.shx
  4
extfont.shx
  0
STYLE
  5
56
330
3
100
AcDbSymbolTableRecord
100
AcDbTextStyleTableRecord
  2

 70
     1
 40
0.0
 41
1.0
 50
0.0
 71
     0
 42
2.5
  3
ltypeshp.shx
  4

  0
STYLE
  5
58
330
3
100
AcDbSymbolTableRecord
100
AcDbTextStyleTableRecord
  2
ACISOTS
 70
     0
 40
1.0
 41
1.0
 50
0.0
 71
     0
 42
2.5
  3
isocp.shx
  4
extfont.shx
  0
STYLE
  5
63
330
3
100
AcDbSymbolTableRecord
100
AcDbTextStyleTableRecord
  2
ACISOGDT
 70
     0
 40
0.0
 41
1.0
 50
0.0
 71
     0
 42
2.5
  3
amgdt.shx
  4

  0
STYLE
  5
A74
330
3
100
AcDbSymbolTableRecord
100
AcDbTextStyleTableRecord
  2
DIM
 70
     0
 40
0.0
 41
1.0
 50
0.0
 71
     0
 42
2.5
  3
monotxt.shx
  4
extfont.shx
  0
STYLE
  5
AC80
330
3
100
AcDbSymbolTableRecord
100
AcDbTextStyleTableRecord
  2

 70
     1
 40
0.0
 41
1.0
 50
0.0
 71
     0
 42
3.2
  3
genltshp.shx
  4

  0
ENDTAB
  0
TABLE
  2
VIEW
  5
6
330
0
100
AcDbSymbolTable
 70
     6
  0
VIEW
  5
AE1
330
6
100
AcDbSymbolTableRecord
100
AcDbViewTableRecord
  2
AM_VIEW1
 70
     0
 40
129.7276464542651
 10
1775.10588156276
 20
1793.121228859297
 41
148.5
 11
0.0
 21
0.0
 31
1.0
 12
0.0
 22
0.0
 32
0.0
 42
50.0
 43
-1370.695619172058
 44
-1370.695619172058
 50
0.0
 71
    16
281
     0
 72
     0
 73
     0
348
B0F7
  0
VIEW
  5
AE2
330
6
100
AcDbSymbolTableRecord
100
AcDbViewTableRecord
  2
AM_VIEW2
 70
     0
 40
129.7276464542651
 10
1923.60588156276
 20
1793.121228859297
 41
148.5
 11
0.0
 21
0.0
 31
1.0
 12
0.0
 22
0.0
 32
0.0
 42
50.0
 43
-1370.695619172058
 44
-1370.695619172058
 50
0.0
 71
    16
281
     0
 72
     0
 73
     0
348
B0F7
  0
VIEW
  5
AE3
330
6
100
AcDbSymbolTableRecord
100
AcDbViewTableRecord
  2
AM_VIEW3
 70
     0
 40
129.7276464542651
 10
1775.10588156276
 20
1712.848875313562
 41
148.5
 11
0.0
 21
0.0
 31
1.0
 12
0.0
 22
0.0
 32
0.0
 42
50.0
 43
-1370.695619172058
 44
-1370.695619172058
 50
0.0
 71
    16
281
     0
 72
     0
 73
     0
348
B0F7
  0
VIEW
  5
AE4
330
6
100
AcDbSymbolTableRecord
100
AcDbViewTableRecord
  2
AM_VIEW4
 70
     0
 40
129.7276464542651
 10
1923.60588156276
 20
1712.848875313562
 41
148.5
 11
0.0
 21
0.0
 31
1.0
 12
0.0
 22
0.0
 32
0.0
 42
50.0
 43
-1370.695619172058
 44
-1370.695619172058
 50
0.0
 71
    16
281
     0
 72
     0
 73
     0
348
B0F7
  0
VIEW
  5
AE5
330
6
100
AcDbSymbolTableRecord
100
AcDbViewTableRecord
  2
AM_VIEW5
 70
     0
 40
129.7276464542651
 10
1849.35588156276
 20
1752.985052086429
 41
148.5
 11
0.0
 21
0.0
 31
1.0
 12
0.0
 22
0.0
 32
0.0
 42
50.0
 43
-1370.695619172058
 44
-1370.695619172058
 50
0.0
 71
    16
281
     0
 72
     0
 73
     0
348
B0F7
  0
VIEW
  5
AE6
330
6
100
AcDbSymbolTableRecord
100
AcDbViewTableRecord
  2
AM_VIEW6
 70
     0
 40
259.4526983556011
 10
1849.35588156276
 20
1752.985052086429
 41
296.99703
 11
0.0
 21
0.0
 31
1.0
 12
0.0
 22
0.0
 32
0.0
 42
50.0
 43
-1370.695619172058
 44
-1370.695619172058
 50
0.0
 71
    16
281
     0
 72
     0
 73
     0
348
B0F7
  0
ENDTAB
  0
TABLE
  2
UCS
  5
7
330
0
100
AcDbSymbolTable
 70
     0
  0
ENDTAB
  0
TABLE
  2
APPID
  5
9
330
0
100
AcDbSymbolTable
 70
    55
  0
APPID
  5
12
330
9
100
AcDbSymbolTableRecord
100
AcDbRegAppTableRecord
  2
ACAD
 70
     0
  0
APPID
  5
30
330
9
100
AcDbSymbolTableRecord
100
AcDbRegAppTableRecord
  2
MCAD_NO_VIS
 70
     0
  0
APPID
  5
31
330
9
100
AcDbSymbolTableRecord
100
AcDbRegAppTableRecord
  2
ACAD_TEMP_GRAPHIC
 70
     0
  0
APPID
  5
44
330
9
100
AcDbSymbolTableRecord
100
AcDbRegAppTableRecord
  2
ACATTRIBSERVICES
 70
     0
  0
APPID
  5
7A1
330
9
100
AcDbSymbolTableRecord
100
AcDbRegAppTableRecord
  2
GENIUS_GENDIMSH_14
 70
     0
  0
APPID
  5
A49
330
9
100
AcDbSymbolTableRecord
100
AcDbRegAppTableRecord
  2
GENIUS_GENREC_14
 70
     0
  0
APPID
  5
A4A
330
9
100
AcDbSymbolTableRecord
100
AcDbRegAppTableRecord
  2
GENIUS_GENOBJ-N-REC_13
 70
     0
  0
APPID
  5
A4B
330
9
100
AcDbSymbolTableRecord
100
AcDbRegAppTableRecord
  2
GENIUS_GENODEF_13
 70
     0
  0
APPID
  5
A4C
330
9
100
AcDbSymbolTableRecord
100
AcDbRegAppTableRecord
  2
DCO15
 70
     0
  0
APPID
  5
ADC
330
9
100
AcDbSymbolTableRecord
100
AcDbRegAppTableRecord
  2
GENIUS_GENOLIS_13
 70
     0
  0
APPID
  5
ADD
330
9
100
AcDbSymbolTableRecord
100
AcDbRegAppTableRecord
  2
GENIUS_GENOENT_13
 70
     0
  0
APPID
  5
ADE
330
9
100
AcDbSymbolTableRecord
100
AcDbRegAppTableRecord
  2
GENIUS_GENOBJ-N-TIT_13
 70
     0
  0
APPID
  5
ADF
330
9
100
AcDbSymbolTableRecord
100
AcDbRegAppTableRecord
  2
GENIUS_GENTITLE_13
 70
     0
  0
APPID
  5
AE0
330
9
100
AcDbSymbolTableRecord
100
AcDbRegAppTableRecord
  2
GENIUS_GENOREF_13
 70
     0
  0
APPID
  5
AE7
330
9
100
AcDbSymbolTableRecord
100
AcDbRegAppTableRecord
  2
GENIUS_GENSCREG_15
 70
     0
  0
APPID
  5
AE8
330
9
100
AcDbSymbolTableRecord
100
AcDbRegAppTableRecord
  2
GENIUS_GENOBJ-N-SDF_13
 70
     0
  0
APPID
  5
FAF
330
9
100
AcDbSymbolTableRecord
100
AcDbRegAppTableRecord
  2
GENIUS_GENBLLY_14
 70
     0
  0
APPID
  5
FB0
330
9
100
AcDbSymbolTableRecord
100
AcDbRegAppTableRecord
  2
GENIUS_GENTRA_14
 70
     0
  0
APPID
  5
1285
330
9
100
AcDbSymbolTableRecord
100
AcDbRegAppTableRecord
  2
GENIUS_GENDTOL_13
 70
     0
  0
APPID
  5
142D
330
9
100
AcDbSymbolTableRecord
100
AcDbRegAppTableRecord
  2
GENIUS_GENOBJ-N-CEN_13
 70
     0
  0
APPID
  5
1AB5
330
9
100
AcDbSymbolTableRecord
100
AcDbRegAppTableRecord
  2
GENIUS_GENOBJ-N-CRS_13
 70
     0
  0
APPID
  5
1B36
330
9
100
AcDbSymbolTableRecord
100
AcDbRegAppTableRecord
  2
GENIUS_GENOBJ-N-HTC_13
 70
     0
  0
APPID
  5
1B37
330
9
100
AcDbSymbolTableRecord
100
AcDbRegAppTableRecord
  2
GENIUS_GENHATCH_13
 70
     0
  0
APPID
  5
216D
330
9
100
AcDbSymbolTableRecord
100
AcDbRegAppTableRecord
  2
GENIUS_GENOBJ-N-FIL_13
 70
     0
  0
APPID
  5
2356
330
9
100
AcDbSymbolTableRecord
100
AcDbRegAppTableRecord
  2
GEVID990412420
 70
     0
  0
APPID
  5
2357
330
9
100
AcDbSymbolTableRecord
100
AcDbRegAppTableRecord
  2
GEVDC
 70
     0
  0
APPID
  5
2358
330
9
100
AcDbSymbolTableRecord
100
AcDbRegAppTableRecord
  2
GEVCON
 70
     0
  0
APPID
  5
235B
330
9
100
AcDbSymbolTableRecord
100
AcDbRegAppTableRecord
  2
GEVRADREF
 70
     0
  0
APPID
  5
2360
330
9
100
AcDbSymbolTableRecord
100
AcDbRegAppTableRecord
  2
GENIUS_GENBH_13
 70
     0
  0
APPID
  5
2362
330
9
100
AcDbSymbolTableRecord
100
AcDbRegAppTableRecord
  2
GENIUS_GENOBJ-NBEHI-BHF_13
 70
     0
  0
APPID
  5
2364
330
9
100
AcDbSymbolTableRecord
100
AcDbRegAppTableRecord
  2
GENIUS_GENOBJ-NBEHI-BHB_13
 70
     0
  0
APPID
  5
2379
330
9
100
AcDbSymbolTableRecord
100
AcDbRegAppTableRecord
  2
GENIUS_GENOBJ-F-SCPASSM_13
 70
     0
  0
APPID
  5
3D74
330
9
100
AcDbSymbolTableRecord
100
AcDbRegAppTableRecord
  2
GENIUS_GENDIM_13
 70
     0
  0
APPID
  5
3D76
330
9
100
AcDbSymbolTableRecord
100
AcDbRegAppTableRecord
  2
GENIUS_GE3DTOL_13
 70
     0
  0
APPID
  5
3D9C
330
9
100
AcDbSymbolTableRecord
100
AcDbRegAppTableRecord
  2
AD_DRAW
 70
     0
  0
APPID
  5
3DE8
330
9
100
AcDbSymbolTableRecord
100
AcDbRegAppTableRecord
  2
ASURF_PCURVE_APPNAME
 70
     0
  0
APPID
  5
3DED
330
9
100
AcDbSymbolTableRecord
100
AcDbRegAppTableRecord
  2
AMG_3D2D_5.0
 70
     0
  0
APPID
  5
3E1B
330
9
100
AcDbSymbolTableRecord
100
AcDbRegAppTableRecord
  2
DESIGNERASSEMBLIES
 70
     0
  0
APPID
  5
3E20
330
9
100
AcDbSymbolTableRecord
100
AcDbRegAppTableRecord
  2
ACADM_DIM_EDIT
 70
     0
  0
APPID
  5
3E21
330
9
100
AcDbSymbolTableRecord
100
AcDbRegAppTableRecord
  2
AMDT_DM_ADJ
 70
     0
  0
APPID
  5
4143
330
9
100
AcDbSymbolTableRecord
100
AcDbRegAppTableRecord
  2
GENIUS_GENFIL_13
 70
     0
  0
APPID
  5
4144
330
9
100
AcDbSymbolTableRecord
100
AcDbRegAppTableRecord
  2
GENIUS_GENOBJ-N-CHA_13
 70
     0
  0
APPID
  5
4E17
330
9
100
AcDbSymbolTableRecord
100
AcDbRegAppTableRecord
  2
GEVID1008153417
 70
     0
  0
APPID
  5
4E58
330
9
100
AcDbSymbolTableRecord
100
AcDbRegAppTableRecord
  2
GEVID1008153418
 70
     0
  0
APPID
  5
4E5E
330
9
100
AcDbSymbolTableRecord
100
AcDbRegAppTableRecord
  2
GEVID1008153419
 70
     0
  0
APPID
  5
4E64
330
9
100
AcDbSymbolTableRecord
100
AcDbRegAppTableRecord
  2
GEVID1008153420
 70
     0
  0
APPID
  5
4E75
330
9
100
AcDbSymbolTableRecord
100
AcDbRegAppTableRecord
  2
GEVID1008153421
 70
     0
  0
APPID
  5
4EB7
330
9
100
AcDbSymbolTableRecord
100
AcDbRegAppTableRecord
  2
GENIUS_AMGTXT_16
 70
     0
  0
APPID
  5
7645
330
9
100
AcDbSymbolTableRecord
100
AcDbRegAppTableRecord
  2
GENIUS_GENOBJ-N-DIM_13
 70
     0
  0
APPID
  5
AAD0
330
9
100
AcDbSymbolTableRecord
100
AcDbRegAppTableRecord
  2
ACAD_DSTYLE_DIMARC_LENGTH_SYMBOL
 70
     0
  0
APPID
  5
AAD1
330
9
100
AcDbSymbolTableRecord
100
AcDbRegAppTableRecord
  2
ACAD_DSTYLE_DIMJOGGED_JOGANGLE_SYMBOL
 70
     0
  0
APPID
  5
AAFD
330
9
100
AcDbSymbolTableRecord
100
AcDbRegAppTableRecord
  2
ACAD_PSEXT
 70
     0
  0
APPID
  5
AD61
330
9
100
AcDbSymbolTableRecord
100
AcDbRegAppTableRecord
  2
AcAecLayerStandard
 70
     0
  0
APPID
  5
AEE3
330
9
100
AcDbSymbolTableRecord
100
AcDbRegAppTableRecord
  2
ACAD_EXEMPT_FROM_CAD_STANDARDS
 70
     0
  0
APPID
  5
B1BE
330
9
100
AcDbSymbolTableRecord
100
AcDbRegAppTableRecord
  2
GENIUS_GENCEN_19
 70
     0
  0
ENDTAB
  0
TABLE
  2
DIMSTYLE
  5
A
330
0
100
AcDbSymbolTable
 70
    20
100
AcDbDimStyleTable
 71
     4
340
2515
340
A76
340
251B
340
251A
  0
DIMSTYLE
105
A76
330
A
100
AcDbSymbolTableRecord
100
AcDbDimStyleTableRecord
  2
STANDARD
 70
     0
 41
3.0
 42
1.0
 43
7.0
 44
2.0
 73
     0
 74
     0
 77
     1
140
2.799999999999999
141
0.0
143
0.0394
147
0.7
171
     4
172
     1
173
     1
176
     3
177
     3
178
     2
271
     3
272
     3
273
     8
274
     4
289
     0
340
A74
341
A66
343
A66
344
A66
  0
DIMSTYLE
105
2515
330
A
100
AcDbSymbolTableRecord
100
AcDbDimStyleTableRecord
  2
SYS
 70
     0
  4
"
 41
1.0
 42
1.0
 43
10.0
 44
1.0
 47
0.1
 48
0.1
 73
     0
 74
     0
 77
     1
 78
     8
 79
     2
 90
     1
140
3.5
141
0.0
143
0.0393701
146
0.71
147
1.5
172
     1
176
   256
177
   256
178
     7
271
     2
272
     2
283
     0
284
     8
340
11
371
    -1
372
    -1
1001
ACAD_DSTYLE_DIMJOGGED_JOGANGLE_SYMBOL
1070
   384
1040
0.7853981633974483
  0
DIMSTYLE
105
2516
102
{ACAD_REACTORS
330
DBF7
102
}
330
A
100
AcDbSymbolTableRecord
100
AcDbDimStyleTableRecord
  2
SYS$3
 70
     0
  4
"
 41
2.0
 42
1.0
 43
10.0
 44
1.0
 47
0.1
 48
0.1
 73
     0
 77
     1
 78
     8
 79
     2
 90
     1
140
3.200000000000001
141
0.0
143
0.0393701
146
0.71
147
1.5
176
   256
177
   256
178
     2
271
     2
272
     2
283
     0
284
     8
288
     1
340
11
342
A66
371
    -1
372
    -1
1001
ACAD_DSTYLE_DIMJOGGED_JOGANGLE_SYMBOL
1070
   384
1040
0.7853981633974483
  0
DIMSTYLE
105
2517
330
A
100
AcDbSymbolTableRecord
100
AcDbDimStyleTableRecord
  2
SYS$4
 70
     0
  4
"
 41
2.0
 42
1.0
 43
10.0
 44
1.0
 47
0.1
 48
0.1
 73
     0
 77
     1
 78
     8
 79
     2
 90
     1
140
3.200000000000001
141
0.0
143
0.0393701
146
0.71
147
1.5
173
     1
176
   256
177
   256
178
     2
271
     2
272
     2
283
     0
284
     8
288
     1
340
11
344
A66
371
    -1
372
    -1
1001
ACAD_DSTYLE_DIMJOGGED_JOGANGLE_SYMBOL
1070
   384
1040
0.7853981633974483
  0
DIMSTYLE
105
2518
330
A
100
AcDbSymbolTableRecord
100
AcDbDimStyleTableRecord
  2
SYS$6
 70
     0
  4
"
 41
2.0
 42
1.0
 43
10.0
 44
1.0
 47
0.1
 48
0.1
 73
     0
 74
     0
 78
     8
 79
     2
 90
     1
140
3.5
141
0.0
143
0.0393701
146
0.71
147
1.5
172
     1
176
   256
177
   256
178
     2
271
     2
272
     2
283
     0
284
     8
340
11
341
A66
371
    -1
372
    -1
1001
ACAD_DSTYLE_DIMJOGGED_JOGANGLE_SYMBOL
1070
   384
1040
0.7853981633974483
  0
DIMSTYLE
105
2519
330
A
100
AcDbSymbolTableRecord
100
AcDbDimStyleTableRecord
  2
SYS$7
 70
     0
  4
"
 41
2.0
 42
1.0
 43
10.0
 44
1.0
 47
0.1
 48
0.1
 73
     0
 74
     0
 77
     1
 78
     8
 79
     2
 90
     1
140
3.200000000000006
141
0.0
143
0.0393701
146
0.71
147
1.5
172
     1
176
   256
177
   256
178
     2
271
     2
272
     2
283
     0
284
     8
340
11
341
A66
342
A66
371
    -1
372
    -1
1001
ACAD_DSTYLE_DIMJOGGED_JOGANGLE_SYMBOL
1070
   384
1040
0.7853981633974483
  0
DIMSTYLE
105
251A
330
A
100
AcDbSymbolTableRecord
100
AcDbDimStyleTableRecord
  2
SYS$SF
 70
     0
  4
"
 41
2.5
 42
1.0
 43
10.0
 44
1.0
 47
0.1
 48
0.1
 73
     0
 74
     0
 75
     1
 76
     1
 77
     1
 78
     8
 79
     2
 90
     1
140
3.200000000000001
141
0.0
143
0.0393701
146
0.71
147
1.5
172
     1
176
   256
177
   256
178
     2
271
     2
272
     2
283
     0
284
     8
340
11
341
6C4
342
6C4
371
    -1
372
    -1
1001
ACAD_DSTYLE_DIMJOGGED_JOGANGLE_SYMBOL
1070
   384
1040
0.7853981633974483
  0
DIMSTYLE
105
251B
330
A
100
AcDbSymbolTableRecord
100
AcDbDimStyleTableRecord
  2
SYS$SH
 70
     0
  4
"
 41
2.5
 42
1.0
 43
10.0
 44
1.0
 47
0.1
 48
0.1
 73
     0
 74
     0
 75
     1
 76
     1
 77
     1
 78
     8
 79
     2
 90
     1
140
3.200000000000001
141
0.0
143
0.0393701
144
2.0
146
0.71
147
1.5
172
     1
173
     1
176
   256
177
   256
178
     2
271
     2
272
     2
283
     0
284
     8
340
11
341
6C4
343
72
344
6C4
371
    -1
372
    -1
1001
ACAD_DSTYLE_DIMJOGGED_JOGANGLE_SYMBOL
1070
   384
1040
0.7853981633974483
  0
DIMSTYLE
105
2A59
330
A
100
AcDbSymbolTableRecord
100
AcDbDimStyleTableRecord
  2
SYS$2
 70
     0
  4
"
 41
1.0
 42
1.0
 43
10.0
 44
1.0
 47
0.1
 48
0.1
 73
     0
 74
     0
 77
     1
 78
     8
 79
     2
 90
     1
140
3.200000000000001
141
0.0
143
0.0393701
146
0.71
147
1.5
172
     1
176
   256
177
   256
178
     2
271
     2
272
     2
283
     0
284
     8
340
11
342
6C4
371
    -1
372
    -1
1001
ACAD_DSTYLE_DIMJOGGED_JOGANGLE_SYMBOL
1070
   384
1040
0.7853981633974483
  0
DIMSTYLE
105
2AAB
102
{ACAD_REACTORS
330
DCB9
330
DCF0
330
DD06
330
DD97
330
DDB6
330
DE29
330
DE2A
330
DE8D
330
DEB4
330
DEFA
330
DF83
330
DF99
330
E9F3
330
EE38
102
}
330
A
100
AcDbSymbolTableRecord
100
AcDbDimStyleTableRecord
  2
SYS$0
 70
     0
  4
"
 41
1.0
 42
1.0
 43
10.0
 44
1.0
 47
0.1
 48
0.1
 73
     0
 74
     0
 77
     1
 78
     8
 79
     2
 90
     1
140
3.200000000000001
141
0.0
143
0.0393701
146
0.71
147
1.5
172
     1
176
   256
177
   256
178
     2
271
     2
272
     2
283
     0
284
     8
340
11
341
A66
342
6C4
371
    -1
372
    -1
1001
ACAD_DSTYLE_DIMJOGGED_JOGANGLE_SYMBOL
1070
   384
1040
0.7853981633974483
  0
DIMSTYLE
105
AF99
330
A
100
AcDbSymbolTableRecord
100
AcDbDimStyleTableRecord
  2
AM_ISO
 70
     0
  4
"
 41
2.5
 42
1.0
 43
10.0
 44
1.0
 47
0.1
 48
0.1
 73
     0
 74
     0
 77
     1
 78
     8
 79
     2
140
3.5
141
0.0
143
0.0393701
146
0.71
147
1.5
172
     1
176
   256
177
   256
178
     2
271
     2
272
     3
274
     4
283
     0
284
     8
340
11
371
    -1
372
    -1
  0
DIMSTYLE
105
AF9A
330
A
100
AcDbSymbolTableRecord
100
AcDbDimStyleTableRecord
  2
AM_ISO$3
 70
     0
  4
"
 41
2.5
 42
1.0
 43
10.0
 44
1.0
 47
0.1
 48
0.1
 73
     0
 77
     1
 78
     8
 79
     2
140
3.5
141
0.0
143
0.0393701
146
0.71
147
1.5
176
   256
177
   256
178
     2
271
     2
272
     3
274
     4
283
     0
284
     8
288
     1
289
     0
340
11
371
    -1
372
    -1
  0
DIMSTYLE
105
AF9B
330
A
100
AcDbSymbolTableRecord
100
AcDbDimStyleTableRecord
  2
AM_ISO$4
 70
     0
  4
"
 41
2.5
 42
1.0
 43
10.0
 44
1.0
 47
0.1
 48
0.1
 73
     0
 77
     1
 78
     8
 79
     2
140
3.5
141
0.0
143
0.0393701
146
0.71
147
1.5
176
   256
177
   256
178
     2
271
     2
272
     3
274
     4
283
     0
284
     8
288
     1
289
     0
340
11
371
    -1
372
    -1
  0
DIMSTYLE
105
AF9C
330
A
100
AcDbSymbolTableRecord
100
AcDbDimStyleTableRecord
  2
AM_ISO$6
 70
     0
  4
"
 41
2.5
 42
1.0
 43
10.0
 44
1.0
 47
0.1
 48
0.1
 73
     0
 74
     0
 78
     8
 79
     2
140
3.5
141
0.0
143
0.0393701
146
0.71
147
1.5
172
     1
176
   256
177
   256
178
     2
271
     2
272
     3
274
     4
283
     0
284
     8
340
11
371
    -1
372
    -1
  0
DIMSTYLE
105
AF9D
330
A
100
AcDbSymbolTableRecord
100
AcDbDimStyleTableRecord
  2
AM_ISO$7
 70
     0
  4
"
 41
2.5
 42
1.0
 43
10.0
 44
1.0
 47
0.1
 48
0.1
 73
     0
 74
     0
 77
     1
 78
     8
 79
     2
140
5.0
141
0.0
143
0.0393701
146
0.71
147
1.5
172
     1
176
   256
177
   256
178
     2
271
     2
272
     3
274
     4
283
     0
284
     8
340
11
371
    -1
372
    -1
  0
DIMSTYLE
105
AF9E
330
A
100
AcDbSymbolTableRecord
100
AcDbDimStyleTableRecord
  2
AM_ISO$SF
 70
     0
  4
"
 41
2.5
 42
1.0
 43
10.0
 44
1.0
 47
0.1
 48
0.1
 73
     0
 74
     0
 75
     1
 76
     1
 77
     1
 78
     8
 79
     2
140
3.5
141
0.0
143
0.0393701
146
0.71
147
1.5
172
     1
176
   256
177
   256
178
     2
271
     2
272
     3
274
     4
283
     0
284
     8
340
11
371
    -1
372
    -1
  0
DIMSTYLE
105
AF9F
330
A
100
AcDbSymbolTableRecord
100
AcDbDimStyleTableRecord
  2
AM_ISO$SH
 70
     0
  4
"
 41
2.5
 42
1.0
 43
10.0
 44
1.0
 47
0.1
 48
0.1
 73
     0
 74
     0
 75
     1
 76
     1
 77
     1
 78
     8
 79
     2
140
3.5
141
0.0
143
0.0393701
144
2.0
146
0.71
147
1.5
172
     1
173
     1
176
   256
177
   256
178
     2
271
     2
272
     3
274
     4
283
     0
284
     8
340
11
343
72
371
    -1
372
    -1
  0
DIMSTYLE
105
B822
330
A
100
AcDbSymbolTableRecord
100
AcDbDimStyleTableRecord
  2
AM_ISO$0
 70
     0
  4
"
 41
0.8
 42
1.0
 43
10.0
 44
1.0
 47
0.1
 48
0.1
 73
     0
 74
     0
 77
     1
 78
     8
 79
     2
 90
     1
140
3.2
141
0.0
143
0.0393701
146
0.71
147
0.9999999999999996
172
     1
176
   256
177
   256
178
     2
271
     2
272
     2
283
     0
284
     8
340
11
341
6C4
342
6C4
371
    -1
372
    -1
1001
ACAD_DSTYLE_DIMJOGGED_JOGANGLE_SYMBOL
1070
   384
1040
0.7853981633974483
  0
DIMSTYLE
105
B823
330
A
100
AcDbSymbolTableRecord
100
AcDbDimStyleTableRecord
  2
AM_ISO$2
 70
     0
  4
"
 41
0.8
 42
1.0
 43
10.0
 44
1.0
 47
0.1
 48
0.1
 73
     0
 74
     0
 77
     3
 78
     8
 79
     2
 90
     1
140
3.200000000000001
141
0.0
143
0.0393701
146
0.71
147
0.9999999999999996
172
     1
176
   256
177
   256
178
     2
271
     2
272
     2
283
     0
284
     8
340
11
342
6C4
371
    -1
372
    -1
1001
ACAD_DSTYLE_DIMJOGGED_JOGANGLE_SYMBOL
1070
   384
1040
0.7853981633974483
  0
ENDTAB
  0
TABLE
  2
BLOCK_RECORD
  5
1
330
0
100
AcDbSymbolTable
 70
   272
  0
BLOCK_RECORD
  5
1F
102
{ACAD_XDICTIONARY
360
8A
102
}
330
1
100
AcDbSymbolTableRecord
100
AcDbBlockTableRecord
  2
*Model_Space
340
22
 70
     0
280
     1
281
     0
  0
BLOCK_RECORD
  5
1B
330
1
100
AcDbSymbolTableRecord
100
AcDbBlockTableRecord
  2
*Paper_Space
340
1E
 70
     0
280
     1
281
     0
  0
BLOCK_RECORD
  5
23
330
1
100
AcDbSymbolTableRecord
100
AcDbBlockTableRecord
  2
*Paper_Space0
340
26
 70
     0
280
     1
281
     0
  0
BLOCK_RECORD
  5
72
330
1
100
AcDbSymbolTableRecord
100
AcDbBlockTableRecord
  2
GENAXEH
340
0
 70
     0
280
     1
281
     0
  0
BLOCK_RECORD
  5
6C4
330
1
100
AcDbSymbolTableRecord
100
AcDbBlockTableRecord
  2
_Dot
340
0
102
{BLKREFS
331
B6BE
331
B6BF
331
B6CA
331
B6CB
331
B6D5
331
B6D6
331
B6E0
331
B6E1
331
B6EC
331
B6ED
331
B6F8
331
B6F9
331
B703
331
B704
331
B70F
331
B710
331
B71A
331
B71B
331
B726
331
B727
331
B731
331
B732
331
B73C
331
B73D
331
B748
331
B749
331
B754
331
B755
331
B762
331
B763
331
B76D
331
B776
331
B777
331
B781
331
B782
331
B78C
331
B78D
331
B79A
331
B79B
331
B7A5
331
B7A6
331
B7B0
331
B7B1
331
B7BE
331
B7BF
331
B7CB
331
B7CC
331
B7D7
331
B7D8
331
B7E3
331
B7E4
331
B7EF
331
B7F8
331
B800
331
B801
331
B80B
331
B80C
331
B817
331
B818
331
B412
331
B413
331
B41E
331
B41F
331
B42A
331
B42B
331
B436
331
B437
331
B442
331
B443
331
B44E
331
B44F
331
B45A
331
B45B
331
B466
331
B467
331
B484
331
B485
331
B490
331
B491
331
B49E
331
B49F
331
B4AC
331
B4AD
331
B4B8
331
B4B9
331
B4C4
331
B4C5
331
B4D0
331
B4D1
331
B4DC
331
B4DD
331
B4E7
331
B4E8
331
B4F2
331
B4F3
331
B4FE
331
B4FF
331
B50A
331
B50B
331
B515
331
B516
331
B521
331
B522
331
B52C
331
B52D
331
B538
331
B539
331
B543
331
B544
331
B54E
331
B54F
331
B55A
331
B55B
331
B566
331
B567
331
B571
331
B57A
331
B57B
331
B586
331
B58F
331
B597
331
B598
331
B5A2
331
B5A3
331
B5AD
331
B5AE
331
B5B9
331
B5BA
331
B5C4
331
B5C5
331
B5CF
331
B5D0
331
B5DC
331
B5DD
331
B5E7
331
B5E8
331
B5F4
331
B5F5
331
B600
331
B601
331
D794
331
D795
331
D7A0
331
D7A1
331
D7AC
331
D7AD
331
D7B8
331
D7B9
331
D7C4
331
D7C5
331
D7D0
331
D7D1
331
D7DC
331
D7DD
331
D7E8
331
D7E9
331
D801
331
D802
331
D80D
331
D80E
331
D81B
331
D81C
331
D829
331
D82A
331
D835
331
D836
331
D840
331
D841
331
D849
331
D84A
331
D852
331
D853
331
D85A
331
D85B
331
D862
331
D863
331
D86B
331
D86C
331
D874
331
D875
331
D87C
331
D87D
331
D885
331
D886
331
D88D
331
D88E
331
D896
331
D897
331
D89E
331
D89F
331
D8A6
331
D8A7
331
D8AF
331
D8B0
331
D8B8
331
D8B9
331
D8C3
331
D8C4
331
D8CB
331
D8D1
331
D8D2
331
D8D9
331
D8DA
331
D8E1
331
D8E2
331
D8EC
331
D8ED
331
D8F4
331
D8F5
331
D8FC
331
D8FD
331
D907
331
D908
331
D911
331
D912
331
D91A
331
D91B
331
D923
331
D924
331
D92C
331
D932
331
D937
331
D938
331
D93F
331
D940
331
D948
331
D949
331
D9D4
331
D9D5
331
D9DD
331
D9DE
331
D9E5
331
D9E6
331
D9ED
331
D9EE
331
D9F6
331
D9F7
331
D9FF
331
DA00
331
DA07
331
DA08
331
DA10
331
DA11
331
DA18
331
DA19
331
DA21
331
DA22
331
DA29
331
DA2A
331
DA31
331
DA32
331
DA3A
331
DA3B
331
DA43
331
DA44
331
DA4B
331
DA51
331
DA52
331
DA5A
331
DA60
331
DA65
331
DA66
331
DA6D
331
DA6E
331
DA75
331
DA76
331
DA7E
331
DA7F
331
DA86
331
DA87
331
DA8E
331
DA8F
331
DA98
331
DA99
331
DAA0
331
DAA1
331
DAAA
331
DAAB
331
DAB3
331
DAB4
331
DD2C
331
DD2D
331
DD55
331
DD56
331
DD5E
331
DD5F
331
DD67
331
DD68
331
DD91
331
DD92
331
DE77
331
DE78
331
DF13
331
DF14
331
DF3F
331
DF40
331
DF55
331
DF56
331
DF74
331
DF75
331
E2EC
331
E2ED
331
E2F5
331
E2F6
331
E2FD
331
E2FE
331
E305
331
E306
331
E30E
331
E30F
331
E317
331
E318
331
E31F
331
E320
331
E330
331
E331
331
E349
331
E34A
331
E352
331
E353
331
E35B
331
E35C
331
E363
331
E369
331
E36A
331
E372
331
E378
331
E37D
331
E37E
331
E3B8
331
E3B9
331
E3C2
331
E3C3
331
E3EA
331
E3EB
331
E49F
331
E4A0
331
E4D8
331
E4D9
331
E4E1
331
E4E2
331
E547
331
E548
331
E577
331
E578
331
E731
331
E732
331
E73A
331
E73B
331
E764
331
E765
331
E77A
331
E77B
331
E783
331
E784
331
E78B
331
E78C
331
E793
331
E794
331
E79D
331
E79E
331
E874
331
E875
331
E87C
331
E87D
331
E884
331
E885
331
E88E
331
E88F
331
E973
331
E974
331
E97B
331
E97C
331
EACD
331
EACE
331
ED17
331
ED18
331
EDE3
331
EDE4
331
F237
331
F238
331
F240
331
F241
331
F249
331
F24A
331
F252
331
F253
331
F25A
331
F262
331
F276
331
F277
331
F27F
331
F280
331
F288
331
F289
331
F291
331
F292
331
F29B
331
F29C
331
F2A4
331
F2A5
331
F2AD
331
F2AE
331
F2B6
331
F2B7
331
F2C1
331
F2C2
331
F2CA
331
F2CB
331
F2D1
331
F2D2
331
F2D9
331
F2DA
331
F2E2
331
F2E3
331
F2F5
331
F2F6
331
F2FE
331
F2FF
331
F307
331
F308
331
F310
331
F311
331
F318
331
F319
331
F321
331
F322
331
F32A
331
F32B
331
F335
331
F336
331
F340
331
F341
331
F349
331
F34A
331
F352
331
F353
331
F35B
331
F35C
331
F364
331
F365
331
F36D
331
F36E
102
}
 70
     0
280
     1
281
     0
  0
BLOCK_RECORD
  5
A66
330
1
100
AcDbSymbolTableRecord
100
AcDbBlockTableRecord
  2
_OPEN30
340
0
102
{BLKREFS
331
B698
331
B699
331
B6A5
331
B6A6
331
B6B2
331
B6B3
331
B611
331
B612
331
B61D
331
B61E
331
B628
331
B629
331
B633
331
B634
331
B63F
331
B640
331
B64B
331
B64C
331
B657
331
B658
331
B664
331
B665
331
D951
331
D952
331
D95A
331
D95B
331
D962
331
D963
331
D96A
331
D96B
331
D973
331
D974
331
D97C
331
D97D
331
D985
331
D986
331
D98F
331
D990
331
D9B7
331
D9B8
331
D9C1
331
D9C2
331
D9CB
331
D9CC
331
DBF4
331
F25B
331
F263
102
}
 70
     0
280
     1
281
     0
  0
BLOCK_RECORD
  5
B478
330
1
100
AcDbSymbolTableRecord
100
AcDbBlockTableRecord
  2
GENDOT
340
0
102
{BLKREFS
331
B472
331
B473
331
DABC
331
DABD
331
F26D
331
F26E
331
F2EF
102
}
 70
     0
280
     1
281
     0
  0
BLOCK_RECORD
  5
B607
330
1
100
AcDbSymbolTableRecord
100
AcDbBlockTableRecord
  2
_Origin
340
0
102
{BLKREFS
331
B672
331
B673
331
B67F
331
B680
331
B68D
331
B68E
331
D99A
331
D99B
331
D9A4
331
D9A5
331
D9AF
331
D9B0
102
}
 70
     0
280
     1
281
     0
  0
BLOCK_RECORD
  5
DBF8
330
1
100
AcDbSymbolTableRecord
100
AcDbBlockTableRecord
  2
*D184
340
0
 70
     0
280
     1
281
     0
  0
BLOCK_RECORD
  5
DCBA
330
1
100
AcDbSymbolTableRecord
100
AcDbBlockTableRecord
  2
*D188
340
0
 70
     0
280
     1
281
     0
  0
BLOCK_RECORD
  5
DCF1
330
1
100
AcDbSymbolTableRecord
100
AcDbBlockTableRecord
  2
*D189
340
0
 70
     0
280
     1
281
     0
  0
BLOCK_RECORD
  5
DD07
330
1
100
AcDbSymbolTableRecord
100
AcDbBlockTableRecord
  2
*D190
340
0
 70
     0
280
     1
281
     0
  0
BLOCK_RECORD
  5
DD98
330
1
100
AcDbSymbolTableRecord
100
AcDbBlockTableRecord
  2
*D193
340
0
 70
     0
280
     1
281
     0
  0
BLOCK_RECORD
  5
DDB7
330
1
100
AcDbSymbolTableRecord
100
AcDbBlockTableRecord
  2
*D194
340
0
 70
     0
280
     1
281
     0
  0
BLOCK_RECORD
  5
DE2C
330
1
100
AcDbSymbolTableRecord
100
AcDbBlockTableRecord
  2
*D195
340
0
 70
     0
280
     1
281
     0
  0
BLOCK_RECORD
  5
DE38
330
1
100
AcDbSymbolTableRecord
100
AcDbBlockTableRecord
  2
*D196
340
0
 70
     0
280
     1
281
     0
  0
BLOCK_RECORD
  5
DE8E
330
1
100
AcDbSymbolTableRecord
100
AcDbBlockTableRecord
  2
*D198
340
0
 70
     0
280
     1
281
     0
  0
BLOCK_RECORD
  5
DEB5
330
1
100
AcDbSymbolTableRecord
100
AcDbBlockTableRecord
  2
*D199
340
0
 70
     0
280
     1
281
     0
  0
BLOCK_RECORD
  5
DEFB
330
1
100
AcDbSymbolTableRecord
100
AcDbBlockTableRecord
  2
*D200
340
0
 70
     0
280
     1
281
     0
  0
BLOCK_RECORD
  5
DF84
330
1
100
AcDbSymbolTableRecord
100
AcDbBlockTableRecord
  2
*D204
340
0
 70
     0
280
     1
281
     0
  0
BLOCK_RECORD
  5
DF9A
330
1
100
AcDbSymbolTableRecord
100
AcDbBlockTableRecord
  2
*D205
340
0
 70
     0
280
     1
281
     0
  0
BLOCK_RECORD
  5
E669
330
1
100
AcDbSymbolTableRecord
100
AcDbBlockTableRecord
  2
_DotSmall
340
0
 70
     0
280
     1
281
     0
  0
BLOCK_RECORD
  5
E9F4
330
1
100
AcDbSymbolTableRecord
100
AcDbBlockTableRecord
  2
*D257
340
0
 70
     0
280
     1
281
     0
  0
BLOCK_RECORD
  5
EE39
330
1
100
AcDbSymbolTableRecord
100
AcDbBlockTableRecord
  2
*D269
340
0
 70
     0
280
     1
281
     0
  0
ENDTAB
  0
ENDSEC
  0
SECTION
  2
BLOCKS
  0
BLOCK
  5
20
330
1F
100
AcDbEntity
  8
0
100
AcDbBlockBegin
  2
*Model_Space
 70
     0
 10
0.0
 20
0.0
 30
0.0
  3
*Model_Space
  1

  0
ENDBLK
  5
21
330
1F
100
AcDbEntity
  8
0
100
AcDbBlockEnd
  0
BLOCK
  5
1C
330
1B
100
AcDbEntity
 67
     1
  8
0
100
AcDbBlockBegin
  2
*Paper_Space
 70
     0
 10
0.0
 20
0.0
 30
0.0
  3
*Paper_Space
  1

  0
ENDBLK
  5
1D
330
1B
100
AcDbEntity
 67
     1
  8
0
100
AcDbBlockEnd
  0
BLOCK
  5
24
330
23
100
AcDbEntity
 67
     1
  8
0
100
AcDbBlockBegin
  2
*Paper_Space0
 70
     0
 10
0.0
 20
0.0
 30
0.0
  3
*Paper_Space0
  1

  0
ENDBLK
  5
25
330
23
100
AcDbEntity
 67
     1
  8
0
100
AcDbBlockEnd
  0
BLOCK
  5
74
330
72
100
AcDbEntity
  8
0
100
AcDbBlockBegin
  2
GENAXEH
 70
     0
 10
0.0
 20
0.0
 30
0.0
  3
GENAXEH
  1

  0
LINE
  5
73
330
72
100
AcDbEntity
  8
0
100
AcDbLine
 10
-1.0
 20
0.0
 30
0.0
 11
1.0
 21
0.0
 31
0.0
  0
ENDBLK
  5
75
330
72
100
AcDbEntity
  8
0
100
AcDbBlockEnd
  0
BLOCK
  5
6C7
330
6C4
100
AcDbEntity
  8
0
100
AcDbBlockBegin
  2
_Dot
 70
     0
 10
0.0
 20
0.0
 30
0.0
  3
_Dot
  1

  0
LWPOLYLINE
  5
6C5
330
6C4
100
AcDbEntity
  8
0
  6
ByBlock
 62
     0
100
AcDbPolyline
 90
        2
 70
     1
 43
0.5
 10
-0.25
 20
0.0
 42
1.0
 10
0.25
 20
0.0
 42
1.0
  0
LINE
  5
6C6
330
6C4
100
AcDbEntity
  8
0
  6
ByBlock
 62
     0
370
    -2
100
AcDbLine
 10
-0.5
 20
0.0
 30
0.0
 11
-1.0
 21
0.0
 31
0.0
  0
ENDBLK
  5
6C8
330
6C4
100
AcDbEntity
  8
0
100
AcDbBlockEnd
  0
BLOCK
  5
A6A
330
A66
100
AcDbEntity
  8
0
100
AcDbBlockBegin
  2
_OPEN30
 70
     0
 10
0.0
 20
0.0
 30
0.0
  3
_OPEN30
  1

  0
LINE
  5
A67
330
A66
100
AcDbEntity
  8
0
  6
ByBlock
 62
     0
100
AcDbLine
 10
-1.0
 20
0.26794919
 30
0.0
 11
0.0
 21
0.0
 31
0.0
  0
LINE
  5
A68
330
A66
100
AcDbEntity
  8
0
  6
ByBlock
 62
     0
100
AcDbLine
 10
0.0
 20
0.0
 30
0.0
 11
-1.0
 21
-0.26794919
 31
0.0
  0
LINE
  5
A69
330
A66
100
AcDbEntity
  8
0
  6
ByBlock
 62
     0
100
AcDbLine
 10
0.0
 20
0.0
 30
0.0
 11
-1.0
 21
0.0
 31
0.0
  0
ENDBLK
  5
A6B
330
A66
100
AcDbEntity
  8
0
100
AcDbBlockEnd
  0
BLOCK
  5
B479
330
B478
100
AcDbEntity
  8
0
100
AcDbBlockBegin
  2
GENDOT
 70
     0
 10
0.0
 20
0.0
 30
0.0
  3
GENDOT
  1

  0
LINE
  5
B47A
330
B478
100
AcDbEntity
  8
0
100
AcDbLine
 10
0.0
 20
0.0
 30
0.0
 11
-1.0
 21
0.0
 31
0.0
  0
LWPOLYLINE
  5
B47B
330
B478
100
AcDbEntity
  8
0
100
AcDbPolyline
 90
        2
 70
     1
 43
0.25
 10
-0.125
 20
0.0
 42
1.0
 10
0.125
 20
0.0
 42
1.0
  0
ENDBLK
  5
B47C
330
B478
100
AcDbEntity
  8
0
100
AcDbBlockEnd
  0
BLOCK
  5
B608
330
B607
100
AcDbEntity
  8
0
100
AcDbBlockBegin
  2
_Origin
 70
     0
 10
0.0
 20
0.0
 30
0.0
  3
_Origin
  1

  0
CIRCLE
  5
B609
330
B607
100
AcDbEntity
  8
0
  6
ByBlock
 62
     0
370
    -2
100
AcDbCircle
 10
0.0
 20
0.0
 30
0.0
 40
0.5
  0
LINE
  5
B60A
330
B607
100
AcDbEntity
  8
0
  6
ByBlock
 62
     0
370
    -2
100
AcDbLine
 10
0.0
 20
0.0
 30
0.0
 11
-1.0
 21
0.0
 31
0.0
  0
ENDBLK
  5
B60B
330
B607
100
AcDbEntity
  8
0
100
AcDbBlockEnd
  0
BLOCK
  5
DC01
330
DBF8
100
AcDbEntity
  8
0
100
AcDbBlockBegin
  2
*D184
 70
     1
 10
0.0
 20
0.0
 30
0.0
  3
*D184
  1

  0
LINE
  5
F2EC
330
DBF8
100
AcDbEntity
  8
AM_5
100
AcDbLine
 10
4096.508206046684
 20
2867.894768967106
 30
0.0
 11
4065.333539380008
 21
2867.894768967106
 31
0.0
  0
LINE
  5
F2ED
330
DBF8
100
AcDbEntity
  8
AM_5
100
AcDbLine
 10
4065.333539380008
 20
2867.894768967106
 30
0.0
 11
4052.303286234243
 21
2887.956383234412
 31
0.0
  0
MTEXT
  5
F2EE
330
DBF8
100
AcDbEntity
  8
AM_5
 62
     2
100
AcDbMText
 10
4081.670872713351
 20
2870.994768967106
 30
0.0
 40
3.200000000000001
 41
0.0
 46
0.0
 71
     5
 72
     1
  1
2-∅4.2×7.2スロット
 73
     1
 44
1.0
  0
INSERT
  5
F2EF
330
DBF8
100
AcDbEntity
  8
AM_5
100
AcDbBlockReference
  2
GENDOT
 10
4051.213885351407
 20
2889.633644608341
 30
0.0
 41
2.0
 42
2.0
 43
2.0
 50
123.0041952245787
  0
POINT
  5
F2F0
330
DBF8
100
AcDbEntity
  8
Defpoints
 62
     0
100
AcDbPoint
 10
4051.213885351407
 20
2889.633644608341
 30
0.0
  0
POINT
  5
F2F1
330
DBF8
100
AcDbEntity
  8
Defpoints
 62
     0
100
AcDbPoint
 10
4048.926143606391
 20
2893.155893325867
 30
0.0
  0
ENDBLK
  5
DC02
330
DBF8
100
AcDbEntity
  8
0
100
AcDbBlockEnd
  0
BLOCK
  5
DCC4
330
DCBA
100
AcDbEntity
  8
0
100
AcDbBlockBegin
  2
*D188
 70
     1
 10
0.0
 20
0.0
 30
0.0
  3
*D188
  1

  0
LINE
  5
F2F2
330
DCBA
100
AcDbEntity
  8
AM_5
100
AcDbLine
 10
4162.570014478898
 20
2973.894768967106
 30
0.0
 11
4162.570014478898
 21
2983.894768967106
 31
0.0
  0
LINE
  5
F2F3
330
DCBA
100
AcDbEntity
  8
AM_5
100
AcDbLine
 10
4155.570014478899
 20
2972.894768967107
 30
0.0
 11
4155.570014478899
 21
2983.894768967106
 31
0.0
  0
LINE
  5
F2F4
330
DCBA
100
AcDbEntity
  8
AM_5
100
AcDbLine
 10
4161.570014478899
 20
2982.894768967107
 30
0.0
 11
4156.5700144789
 21
2982.894768967107
 31
0.0
  0
INSERT
  5
F2F5
330
DCBA
100
AcDbEntity
  8
AM_5
100
AcDbBlockReference
  2
_Dot
 10
4162.570014478898
 20
2982.894768967107
 30
0.0
  0
INSERT
  5
F2F6
330
DCBA
100
AcDbEntity
  8
AM_5
100
AcDbBlockReference
  2
_Dot
 10
4155.570014478899
 20
2982.894768967107
 30
0.0
 50
180.0
  0
MTEXT
  5
F2F7
330
DCBA
100
AcDbEntity
  8
AM_5
 62
     2
100
AcDbMText
 10
4159.070014478898
 20
2985.994768967107
 30
0.0
 40
3.200000000000001
 41
0.0
 46
0.0
 71
     5
 72
     1
  1
7
 73
     1
 44
1.0
  0
POINT
  5
F2F8
330
DCBA
100
AcDbEntity
  8
Defpoints
 62
     0
100
AcDbPoint
 10
4162.570014478898
 20
2972.894768967107
 30
0.0
  0
POINT
  5
F2F9
330
DCBA
100
AcDbEntity
  8
Defpoints
 62
     0
100
AcDbPoint
 10
4155.570014478899
 20
2971.894768967107
 30
0.0
  0
POINT
  5
F2FA
330
DCBA
100
AcDbEntity
  8
Defpoints
 62
     0
100
AcDbPoint
 10
4155.570014478899
 20
2982.894768967107
 30
0.0
  0
ENDBLK
  5
DCC5
330
DCBA
100
AcDbEntity
  8
0
100
AcDbBlockEnd
  0
BLOCK
  5
DCFB
330
DCF1
100
AcDbEntity
  8
0
100
AcDbBlockBegin
  2
*D189
 70
     1
 10
0.0
 20
0.0
 30
0.0
  3
*D189
  1

  0
LINE
  5
F2FB
330
DCF1
100
AcDbEntity
  8
AM_5
100
AcDbLine
 10
4162.570014478898
 20
2973.894768967106
 30
0.0
 11
4162.570014478898
 21
2993.894768967105
 31
0.0
  0
LINE
  5
F2FC
330
DCF1
100
AcDbEntity
  8
AM_5
100
AcDbLine
 10
4142.570014478899
 20
2950.968738020209
 30
0.0
 11
4142.570014478899
 21
2993.894768967105
 31
0.0
  0
LINE
  5
F2FD
330
DCF1
100
AcDbEntity
  8
AM_5
100
AcDbLine
 10
4161.570014478899
 20
2992.894768967105
 30
0.0
 11
4143.570014478899
 21
2992.894768967105
 31
0.0
  0
INSERT
  5
F2FE
330
DCF1
100
AcDbEntity
  8
AM_5
100
AcDbBlockReference
  2
_Dot
 10
4162.570014478898
 20
2992.894768967105
 30
0.0
  0
INSERT
  5
F2FF
330
DCF1
100
AcDbEntity
  8
AM_5
100
AcDbBlockReference
  2
_Dot
 10
4142.570014478899
 20
2992.894768967105
 30
0.0
 50
180.0
  0
MTEXT
  5
F300
330
DCF1
100
AcDbEntity
  8
AM_5
 62
     2
100
AcDbMText
 10
4152.570014478899
 20
2995.994768967105
 30
0.0
 40
3.200000000000001
 41
0.0
 46
0.0
 71
     5
 72
     1
  1
20
 73
     1
 44
1.0
  0
POINT
  5
F301
330
DCF1
100
AcDbEntity
  8
Defpoints
 62
     0
100
AcDbPoint
 10
4162.570014478898
 20
2972.894768967107
 30
0.0
  0
POINT
  5
F302
330
DCF1
100
AcDbEntity
  8
Defpoints
 62
     0
100
AcDbPoint
 10
4142.570014478899
 20
2949.968738020209
 30
0.0
  0
POINT
  5
F303
330
DCF1
100
AcDbEntity
  8
Defpoints
 62
     0
100
AcDbPoint
 10
4142.570014478899
 20
2992.894768967105
 30
0.0
  0
ENDBLK
  5
DCFC
330
DCF1
100
AcDbEntity
  8
0
100
AcDbBlockEnd
  0
BLOCK
  5
DD11
330
DD07
100
AcDbEntity
  8
0
100
AcDbBlockBegin
  2
*D190
 70
     1
 10
0.0
 20
0.0
 30
0.0
  3
*D190
  1

  0
LINE
  5
F304
330
DD07
100
AcDbEntity
  8
AM_5
100
AcDbLine
 10
4037.570014478898
 20
2972.894768967107
 30
0.0
 11
4037.570014478898
 21
2993.894768967104
 31
0.0
  0
LINE
  5
F305
330
DD07
100
AcDbEntity
  8
AM_5
100
AcDbLine
 10
4062.570014478898
 20
2972.894768967107
 30
0.0
 11
4062.570014478898
 21
2993.894768967104
 31
0.0
  0
LINE
  5
F306
330
DD07
100
AcDbEntity
  8
AM_5
100
AcDbLine
 10
4038.570014478898
 20
2992.894768967104
 30
0.0
 11
4061.570014478898
 21
2992.894768967104
 31
0.0
  0
INSERT
  5
F307
330
DD07
100
AcDbEntity
  8
AM_5
100
AcDbBlockReference
  2
_Dot
 10
4037.570014478898
 20
2992.894768967104
 30
0.0
 50
180.0
  0
INSERT
  5
F308
330
DD07
100
AcDbEntity
  8
AM_5
100
AcDbBlockReference
  2
_Dot
 10
4062.570014478898
 20
2992.894768967104
 30
0.0
  0
MTEXT
  5
F309
330
DD07
100
AcDbEntity
  8
AM_5
 62
     2
100
AcDbMText
 10
4050.070014478898
 20
2995.994768967104
 30
0.0
 40
3.200000000000001
 41
0.0
 46
0.0
 71
     5
 72
     1
  1
25
 73
     1
 44
1.0
  0
POINT
  5
F30A
330
DD07
100
AcDbEntity
  8
Defpoints
 62
     0
100
AcDbPoint
 10
4037.570014478898
 20
2971.894768967107
 30
0.0
  0
POINT
  5
F30B
330
DD07
100
AcDbEntity
  8
Defpoints
 62
     0
100
AcDbPoint
 10
4062.570014478898
 20
2971.894768967107
 30
0.0
  0
POINT
  5
F30C
330
DD07
100
AcDbEntity
  8
Defpoints
 62
     0
100
AcDbPoint
 10
4062.570014478898
 20
2992.894768967104
 30
0.0
  0
ENDBLK
  5
DD12
330
DD07
100
AcDbEntity
  8
0
100
AcDbBlockEnd
  0
BLOCK
  5
DDA2
330
DD98
100
AcDbEntity
  8
0
100
AcDbBlockBegin
  2
*D193
 70
     1
 10
0.0
 20
0.0
 30
0.0
  3
*D193
  1

  0
LINE
  5
F30D
330
DD98
100
AcDbEntity
  8
AM_5
100
AcDbLine
 10
4064.070015177031
 20
3042.894768967106
 30
0.0
 11
4078.570014478898
 21
3042.894768967106
 31
0.0
  0
LINE
  5
F30E
330
DD98
100
AcDbEntity
  8
AM_5
100
AcDbLine
 10
4063.570014478899
 20
3031.894768967106
 30
0.0
 11
4078.570014478898
 21
3031.894768967106
 31
0.0
  0
LINE
  5
F30F
330
DD98
100
AcDbEntity
  8
AM_5
100
AcDbLine
 10
4077.570014478899
 20
3041.894768967106
 30
0.0
 11
4077.570014478899
 21
3032.894768967106
 31
0.0
  0
INSERT
  5
F310
330
DD98
100
AcDbEntity
  8
AM_5
100
AcDbBlockReference
  2
_Dot
 10
4077.570014478899
 20
3042.894768967106
 30
0.0
 50
90.0
  0
INSERT
  5
F311
330
DD98
100
AcDbEntity
  8
AM_5
100
AcDbBlockReference
  2
_Dot
 10
4077.570014478899
 20
3031.894768967106
 30
0.0
 50
270.0
  0
MTEXT
  5
F312
330
DD98
100
AcDbEntity
  8
AM_5
 62
     2
100
AcDbMText
 10
4074.470014478898
 20
3037.394768967106
 30
0.0
 40
3.200000000000001
 41
0.0
 46
0.0
 71
     5
 72
     1
  1
11
 11
0.0000000000000001
 21
1.0
 31
0.0
 73
     1
 44
1.0
  0
POINT
  5
F313
330
DD98
100
AcDbEntity
  8
Defpoints
 62
     0
100
AcDbPoint
 10
4063.07001517703
 20
3042.894768967106
 30
0.0
  0
POINT
  5
F314
330
DD98
100
AcDbEntity
  8
Defpoints
 62
     0
100
AcDbPoint
 10
4062.570014478898
 20
3031.894768967106
 30
0.0
  0
POINT
  5
F315
330
DD98
100
AcDbEntity
  8
Defpoints
 62
     0
100
AcDbPoint
 10
4077.570014478899
 20
3031.894768967106
 30
0.0
  0
ENDBLK
  5
DDA3
330
DD98
100
AcDbEntity
  8
0
100
AcDbBlockEnd
  0
BLOCK
  5
DDC1
330
DDB7
100
AcDbEntity
  8
0
100
AcDbBlockBegin
  2
*D194
 70
     1
 10
0.0
 20
0.0
 30
0.0
  3
*D194
  1

  0
LINE
  5
F316
330
DDB7
100
AcDbEntity
  8
AM_5
100
AcDbLine
 10
4062.570014478898
 20
3031.894768967107
 30
0.0
 11
4088.570014478899
 21
3031.894768967107
 31
0.0
  0
LINE
  5
F317
330
DDB7
100
AcDbEntity
  8
AM_5
100
AcDbLine
 10
4087.570014478898
 20
3032.894768967107
 30
0.0
 11
4087.570014478898
 21
3066.894768967106
 31
0.0
  0
INSERT
  5
F318
330
DDB7
100
AcDbEntity
  8
AM_5
100
AcDbBlockReference
  2
_Dot
 10
4087.570014478898
 20
3031.894768967107
 30
0.0
 50
270.0
  0
INSERT
  5
F319
330
DDB7
100
AcDbEntity
  8
AM_5
100
AcDbBlockReference
  2
_Dot
 10
4087.570014478898
 20
3067.894768967106
 30
0.0
 50
90.0
  0
MTEXT
  5
F31A
330
DDB7
100
AcDbEntity
  8
AM_5
 62
     2
100
AcDbMText
 10
4084.470014478898
 20
3049.894768967107
 30
0.0
 40
3.200000000000001
 41
0.0
 46
0.0
 71
     5
 72
     1
  1
36
 11
0.0000000000000001
 21
1.0
 31
0.0
 73
     1
 44
1.0
  0
POINT
  5
F31B
330
DDB7
100
AcDbEntity
  8
Defpoints
 62
     0
100
AcDbPoint
 10
4061.570014478898
 20
3031.894768967107
 30
0.0
  0
POINT
  5
F31C
330
DDB7
100
AcDbEntity
  8
Defpoints
 62
     0
100
AcDbPoint
 10
4095.070014478898
 20
3067.894768967106
 30
0.0
  0
POINT
  5
F31D
330
DDB7
100
AcDbEntity
  8
Defpoints
 62
     0
100
AcDbPoint
 10
4087.570014478898
 20
3067.894768967106
 30
0.0
  0
ENDBLK
  5
DDC2
330
DDB7
100
AcDbEntity
  8
0
100
AcDbBlockEnd
  0
BLOCK
  5
DE36
330
DE2C
100
AcDbEntity
  8
0
100
AcDbBlockBegin
  2
*D195
 70
     1
 10
0.0
 20
0.0
 30
0.0
  3
*D195
  1

  0
LINE
  5
F31E
330
DE2C
100
AcDbEntity
  8
AM_5
100
AcDbLine
 10
4059.170014478899
 20
2962.894768967107
 30
0.0
 11
4078.570014478898
 21
2962.894768967107
 31
0.0
  0
LINE
  5
F31F
330
DE2C
100
AcDbEntity
  8
AM_5
100
AcDbLine
 10
4059.170014478899
 20
2892.894768967106
 30
0.0
 11
4078.570014478898
 21
2892.894768967106
 31
0.0
  0
LINE
  5
F320
330
DE2C
100
AcDbEntity
  8
AM_5
100
AcDbLine
 10
4077.570014478899
 20
2961.894768967106
 30
0.0
 11
4077.570014478899
 21
2893.894768967106
 31
0.0
  0
INSERT
  5
F321
330
DE2C
100
AcDbEntity
  8
AM_5
100
AcDbBlockReference
  2
_Dot
 10
4077.570014478899
 20
2962.894768967107
 30
0.0
 50
90.0
  0
INSERT
  5
F322
330
DE2C
100
AcDbEntity
  8
AM_5
100
AcDbBlockReference
  2
_Dot
 10
4077.570014478899
 20
2892.894768967106
 30
0.0
 50
270.0
  0
MTEXT
  5
F323
330
DE2C
100
AcDbEntity
  8
AM_5
 62
     2
100
AcDbMText
 10
4074.470014478898
 20
2927.894768967107
 30
0.0
 40
3.200000000000001
 41
0.0
 46
0.0
 71
     5
 72
     1
  1
70
 11
0.0000000000000001
 21
1.0
 31
0.0
 73
     1
 44
1.0
  0
POINT
  5
F324
330
DE2C
100
AcDbEntity
  8
Defpoints
 62
     0
100
AcDbPoint
 10
4058.170014478899
 20
2962.894768967107
 30
0.0
  0
POINT
  5
F325
330
DE2C
100
AcDbEntity
  8
Defpoints
 62
     0
100
AcDbPoint
 10
4058.170014478899
 20
2892.894768967106
 30
0.0
  0
POINT
  5
F326
330
DE2C
100
AcDbEntity
  8
Defpoints
 62
     0
100
AcDbPoint
 10
4077.570014478899
 20
2892.894768967106
 30
0.0
  0
ENDBLK
  5
DE37
330
DE2C
100
AcDbEntity
  8
0
100
AcDbBlockEnd
  0
BLOCK
  5
DE42
330
DE38
100
AcDbEntity
  8
0
100
AcDbBlockBegin
  2
*D196
 70
     1
 10
0.0
 20
0.0
 30
0.0
  3
*D196
  1

  0
LINE
  5
F327
330
DE38
100
AcDbEntity
  8
AM_5
100
AcDbLine
 10
4062.570014478898
 20
2972.894768967107
 30
0.0
 11
4088.570014478899
 21
2972.894768967107
 31
0.0
  0
LINE
  5
F328
330
DE38
100
AcDbEntity
  8
AM_5
100
AcDbLine
 10
4062.570014478898
 20
2882.894768967107
 30
0.0
 11
4088.570014478899
 21
2882.894768967107
 31
0.0
  0
LINE
  5
F329
330
DE38
100
AcDbEntity
  8
AM_5
100
AcDbLine
 10
4087.570014478898
 20
2971.894768967107
 30
0.0
 11
4087.570014478898
 21
2883.894768967106
 31
0.0
  0
INSERT
  5
F32A
330
DE38
100
AcDbEntity
  8
AM_5
100
AcDbBlockReference
  2
_Dot
 10
4087.570014478898
 20
2972.894768967107
 30
0.0
 50
90.0
  0
INSERT
  5
F32B
330
DE38
100
AcDbEntity
  8
AM_5
100
AcDbBlockReference
  2
_Dot
 10
4087.570014478898
 20
2882.894768967107
 30
0.0
 50
270.0
  0
MTEXT
  5
F32C
330
DE38
100
AcDbEntity
  8
AM_5
 62
     2
100
AcDbMText
 10
4084.470014478898
 20
2927.894768967107
 30
0.0
 40
3.200000000000001
 41
0.0
 46
0.0
 71
     5
 72
     1
  1
90
 11
0.0000000000000001
 21
1.0
 31
0.0
 73
     1
 44
1.0
  0
POINT
  5
F32D
330
DE38
100
AcDbEntity
  8
Defpoints
 62
     0
100
AcDbPoint
 10
4061.570014478898
 20
2972.894768967107
 30
0.0
  0
POINT
  5
F32E
330
DE38
100
AcDbEntity
  8
Defpoints
 62
     0
100
AcDbPoint
 10
4061.570014478898
 20
2882.894768967107
 30
0.0
  0
POINT
  5
F32F
330
DE38
100
AcDbEntity
  8
Defpoints
 62
     0
100
AcDbPoint
 10
4087.570014478898
 20
2882.894768967107
 30
0.0
  0
ENDBLK
  5
DE43
330
DE38
100
AcDbEntity
  8
0
100
AcDbBlockEnd
  0
BLOCK
  5
DE9A
330
DE8E
100
AcDbEntity
  8
0
100
AcDbBlockBegin
  2
*D198
 70
     1
 10
0.0
 20
0.0
 30
0.0
  3
*D198
  1

  0
LINE
  5
F330
330
DE8E
100
AcDbEntity
  8
AM_5
100
AcDbLine
 10
4160.570014478898
 20
2885.294769067106
 30
0.0
 11
4160.570014478898
 21
2866.894768967107
 31
0.0
  0
LINE
  5
F331
330
DE8E
100
AcDbEntity
  8
AM_5
100
AcDbLine
 10
4162.570014478898
 20
2881.894768967106
 30
0.0
 11
4162.570014478898
 21
2866.894768967107
 31
0.0
  0
LINE
  5
F332
330
DE8E
100
AcDbEntity
  8
AM_5
100
AcDbLine
 10
4159.570014478899
 20
2867.894768967106
 30
0.0
 11
4158.570014478899
 21
2867.894768967106
 31
0.0
  0
LINE
  5
F333
330
DE8E
100
AcDbEntity
  8
AM_5
100
AcDbLine
 10
4163.570014478898
 20
2867.894768967106
 30
0.0
 11
4169.063347812231
 21
2867.894768967106
 31
0.0
  0
LINE
  5
F334
330
DE8E
100
AcDbEntity
  8
AM_5
100
AcDbLine
 10
4160.570014478898
 20
2867.894768967106
 30
0.0
 11
4162.570014478898
 21
2867.894768967106
 31
0.0
  0
INSERT
  5
F335
330
DE8E
100
AcDbEntity
  8
AM_5
100
AcDbBlockReference
  2
_Dot
 10
4160.570014478898
 20
2867.894768967106
 30
0.0
  0
INSERT
  5
F336
330
DE8E
100
AcDbEntity
  8
AM_5
100
AcDbBlockReference
  2
_Dot
 10
4162.570014478898
 20
2867.894768967106
 30
0.0
 50
180.0
  0
MTEXT
  5
F337
330
DE8E
100
AcDbEntity
  8
AM_5
 62
     2
100
AcDbMText
 10
4166.816681145565
 20
2870.994768967106
 30
0.0
 40
3.200000000000001
 41
0.0
 46
0.0
 71
     5
 72
     1
  1
2
 73
     1
 44
1.0
  0
POINT
  5
F338
330
DE8E
100
AcDbEntity
  8
Defpoints
 62
     0
100
AcDbPoint
 10
4160.570014478898
 20
2886.294769067106
 30
0.0
  0
POINT
  5
F339
330
DE8E
100
AcDbEntity
  8
Defpoints
 62
     0
100
AcDbPoint
 10
4162.570014478898
 20
2882.894768967107
 30
0.0
  0
POINT
  5
F33A
330
DE8E
100
AcDbEntity
  8
Defpoints
 62
     0
100
AcDbPoint
 10
4162.570014478898
 20
2867.894768967106
 30
0.0
  0
ENDBLK
  5
DE9B
330
DE8E
100
AcDbEntity
  8
0
100
AcDbBlockEnd
  0
BLOCK
  5
DEC1
330
DEB5
100
AcDbEntity
  8
0
100
AcDbBlockBegin
  2
*D199
 70
     1
 10
0.0
 20
0.0
 30
0.0
  3
*D199
  1

  0
LINE
  5
F33B
330
DEB5
100
AcDbEntity
  8
AM_5
100
AcDbLine
 10
4157.570014478899
 20
2881.894768967106
 30
0.0
 11
4157.570014478899
 21
2866.894768967103
 31
0.0
  0
LINE
  5
F33C
330
DEB5
100
AcDbEntity
  8
AM_5
100
AcDbLine
 10
4160.570014478898
 20
2885.294769067106
 30
0.0
 11
4160.570014478898
 21
2866.894768967103
 31
0.0
  0
LINE
  5
F33D
330
DEB5
100
AcDbEntity
  8
AM_5
100
AcDbLine
 10
4161.570014478899
 20
2867.894768967104
 30
0.0
 11
4162.570014478898
 21
2867.894768967104
 31
0.0
  0
LINE
  5
F33E
330
DEB5
100
AcDbEntity
  8
AM_5
100
AcDbLine
 10
4156.5700144789
 20
2867.894768967104
 30
0.0
 11
4151.076681145567
 21
2867.894768967104
 31
0.0
  0
LINE
  5
F33F
330
DEB5
100
AcDbEntity
  8
AM_5
100
AcDbLine
 10
4160.570014478898
 20
2867.894768967104
 30
0.0
 11
4157.570014478899
 21
2867.894768967104
 31
0.0
  0
INSERT
  5
F340
330
DEB5
100
AcDbEntity
  8
AM_5
100
AcDbBlockReference
  2
_Dot
 10
4160.570014478898
 20
2867.894768967104
 30
0.0
 50
180.0
  0
INSERT
  5
F341
330
DEB5
100
AcDbEntity
  8
AM_5
100
AcDbBlockReference
  2
_Dot
 10
4157.570014478899
 20
2867.894768967104
 30
0.0
  0
MTEXT
  5
F342
330
DEB5
100
AcDbEntity
  8
AM_5
 62
     2
100
AcDbMText
 10
4153.323347812232
 20
2870.994768967104
 30
0.0
 40
3.200000000000001
 41
0.0
 46
0.0
 71
     5
 72
     1
  1
3
 73
     1
 44
1.0
  0
POINT
  5
F343
330
DEB5
100
AcDbEntity
  8
Defpoints
 62
     0
100
AcDbPoint
 10
4157.570014478899
 20
2882.894768967107
 30
0.0
  0
POINT
  5
F344
330
DEB5
100
AcDbEntity
  8
Defpoints
 62
     0
100
AcDbPoint
 10
4160.570014478898
 20
2886.294769067106
 30
0.0
  0
POINT
  5
F345
330
DEB5
100
AcDbEntity
  8
Defpoints
 62
     0
100
AcDbPoint
 10
4160.570014478898
 20
2867.894768967104
 30
0.0
  0
ENDBLK
  5
DEC2
330
DEB5
100
AcDbEntity
  8
0
100
AcDbBlockEnd
  0
BLOCK
  5
DF05
330
DEFB
100
AcDbEntity
  8
0
100
AcDbBlockBegin
  2
*D200
 70
     1
 10
0.0
 20
0.0
 30
0.0
  3
*D200
  1

  0
LINE
  5
F346
330
DEFB
100
AcDbEntity
  8
AM_5
100
AcDbLine
 10
4152.570014478899
 20
2917.894768967104
 30
0.0
 11
4178.570014478901
 21
2917.894768967104
 31
0.0
  0
LINE
  5
F347
330
DEFB
100
AcDbEntity
  8
AM_5
100
AcDbLine
 10
4152.566206371944
 20
2941.894768399754
 30
0.0
 11
4178.570014478901
 21
2941.894768399754
 31
0.0
  0
LINE
  5
F348
330
DEFB
100
AcDbEntity
  8
AM_5
100
AcDbLine
 10
4177.5700144789
 20
2918.894768967104
 30
0.0
 11
4177.5700144789
 21
2940.894768399754
 31
0.0
  0
INSERT
  5
F349
330
DEFB
100
AcDbEntity
  8
AM_5
100
AcDbBlockReference
  2
_Dot
 10
4177.5700144789
 20
2917.894768967104
 30
0.0
 50
270.0
  0
INSERT
  5
F34A
330
DEFB
100
AcDbEntity
  8
AM_5
100
AcDbBlockReference
  2
_Dot
 10
4177.5700144789
 20
2941.894768399754
 30
0.0
 50
90.0
  0
MTEXT
  5
F34B
330
DEFB
100
AcDbEntity
  8
AM_5
 62
     2
100
AcDbMText
 10
4174.470014478899
 20
2929.894768683429
 30
0.0
 40
3.200000000000001
 41
0.0
 46
0.0
 71
     5
 72
     1
  1
24
 11
0.0000000000000001
 21
1.0
 31
0.0
 73
     1
 44
1.0
  0
POINT
  5
F34C
330
DEFB
100
AcDbEntity
  8
Defpoints
 62
     0
100
AcDbPoint
 10
4151.570014478898
 20
2917.894768967104
 30
0.0
  0
POINT
  5
F34D
330
DEFB
100
AcDbEntity
  8
Defpoints
 62
     0
100
AcDbPoint
 10
4151.566206371945
 20
2941.894768399754
 30
0.0
  0
POINT
  5
F34E
330
DEFB
100
AcDbEntity
  8
Defpoints
 62
     0
100
AcDbPoint
 10
4177.5700144789
 20
2941.894768399754
 30
0.0
  0
ENDBLK
  5
DF06
330
DEFB
100
AcDbEntity
  8
0
100
AcDbBlockEnd
  0
BLOCK
  5
DF8E
330
DF84
100
AcDbEntity
  8
0
100
AcDbBlockBegin
  2
*D204
 70
     1
 10
0.0
 20
0.0
 30
0.0
  3
*D204
  1

  0
LINE
  5
F34F
330
DF84
100
AcDbEntity
  8
AM_5
100
AcDbLine
 10
4152.566206371944
 20
2941.894768399754
 30
0.0
 11
4178.570014478904
 21
2941.894768399754
 31
0.0
  0
LINE
  5
F350
330
DF84
100
AcDbEntity
  8
AM_5
100
AcDbLine
 10
4156.570014478899
 20
2951.89476904024
 30
0.0
 11
4178.570014478904
 21
2951.89476904024
 31
0.0
  0
LINE
  5
F351
330
DF84
100
AcDbEntity
  8
AM_5
100
AcDbLine
 10
4177.570014478904
 20
2942.894768399753
 30
0.0
 11
4177.570014478904
 21
2950.894769040241
 31
0.0
  0
INSERT
  5
F352
330
DF84
100
AcDbEntity
  8
AM_5
100
AcDbBlockReference
  2
_Dot
 10
4177.570014478904
 20
2941.894768399754
 30
0.0
 50
270.0
  0
INSERT
  5
F353
330
DF84
100
AcDbEntity
  8
AM_5
100
AcDbBlockReference
  2
_Dot
 10
4177.570014478904
 20
2951.89476904024
 30
0.0
 50
90.0
  0
MTEXT
  5
F354
330
DF84
100
AcDbEntity
  8
AM_5
 62
     2
100
AcDbMText
 10
4174.470014478902
 20
2946.894768719998
 30
0.0
 40
3.200000000000001
 41
0.0
 46
0.0
 71
     5
 72
     1
  1
10
 11
0.0000000000000001
 21
1.0
 31
0.0
 73
     1
 44
1.0
  0
POINT
  5
F355
330
DF84
100
AcDbEntity
  8
Defpoints
 62
     0
100
AcDbPoint
 10
4151.566206371945
 20
2941.894768399754
 30
0.0
  0
POINT
  5
F356
330
DF84
100
AcDbEntity
  8
Defpoints
 62
     0
100
AcDbPoint
 10
4155.570014478899
 20
2951.89476904024
 30
0.0
  0
POINT
  5
F357
330
DF84
100
AcDbEntity
  8
Defpoints
 62
     0
100
AcDbPoint
 10
4177.570014478904
 20
2951.89476904024
 30
0.0
  0
ENDBLK
  5
DF8F
330
DF84
100
AcDbEntity
  8
0
100
AcDbBlockEnd
  0
BLOCK
  5
DFA4
330
DF9A
100
AcDbEntity
  8
0
100
AcDbBlockBegin
  2
*D205
 70
     1
 10
0.0
 20
0.0
 30
0.0
  3
*D205
  1

  0
LINE
  5
F358
330
DF9A
100
AcDbEntity
  8
AM_5
100
AcDbLine
 10
4156.570014478899
 20
2951.89476904024
 30
0.0
 11
4178.570014478906
 21
2951.89476904024
 31
0.0
  0
LINE
  5
F359
330
DF9A
100
AcDbEntity
  8
AM_5
100
AcDbLine
 10
4163.570014478898
 20
2972.894768967107
 30
0.0
 11
4178.570014478906
 21
2972.894768967107
 31
0.0
  0
LINE
  5
F35A
330
DF9A
100
AcDbEntity
  8
AM_5
100
AcDbLine
 10
4177.570014478906
 20
2952.894769040241
 30
0.0
 11
4177.570014478906
 21
2971.894768967107
 31
0.0
  0
INSERT
  5
F35B
330
DF9A
100
AcDbEntity
  8
AM_5
100
AcDbBlockReference
  2
_Dot
 10
4177.570014478906
 20
2951.89476904024
 30
0.0
 50
270.0
  0
INSERT
  5
F35C
330
DF9A
100
AcDbEntity
  8
AM_5
100
AcDbBlockReference
  2
_Dot
 10
4177.570014478906
 20
2972.894768967107
 30
0.0
 50
90.0
  0
MTEXT
  5
F35D
330
DF9A
100
AcDbEntity
  8
AM_5
 62
     2
100
AcDbMText
 10
4174.470014478905
 20
2962.394769003674
 30
0.0
 40
3.200000000000001
 41
0.0
 46
0.0
 71
     5
 72
     1
  1
21
 11
0.0000000000000001
 21
1.0
 31
0.0
 73
     1
 44
1.0
  0
POINT
  5
F35E
330
DF9A
100
AcDbEntity
  8
Defpoints
 62
     0
100
AcDbPoint
 10
4155.570014478899
 20
2951.89476904024
 30
0.0
  0
POINT
  5
F35F
330
DF9A
100
AcDbEntity
  8
Defpoints
 62
     0
100
AcDbPoint
 10
4162.570014478898
 20
2972.894768967107
 30
0.0
  0
POINT
  5
F360
330
DF9A
100
AcDbEntity
  8
Defpoints
 62
     0
100
AcDbPoint
 10
4177.570014478906
 20
2972.894768967107
 30
0.0
  0
ENDBLK
  5
DFA5
330
DF9A
100
AcDbEntity
  8
0
100
AcDbBlockEnd
  0
BLOCK
  5
E66B
330
E669
100
AcDbEntity
  8
0
100
AcDbBlockBegin
  2
_DotSmall
 70
     0
 10
0.0
 20
0.0
 30
0.0
  3
_DotSmall
  1

  0
LWPOLYLINE
  5
E66A
330
E669
100
AcDbEntity
  8
0
  6
ByBlock
 62
     0
100
AcDbPolyline
 90
        2
 70
     1
 43
0.5
 10
-0.0625
 20
0.0
 42
1.0
 10
0.0625
 20
0.0
 42
1.0
  0
ENDBLK
  5
E66C
330
E669
100
AcDbEntity
  8
0
100
AcDbBlockEnd
  0
BLOCK
  5
E9FE
330
E9F4
100
AcDbEntity
  8
0
100
AcDbBlockBegin
  2
*D257
 70
     1
 10
0.0
 20
0.0
 30
0.0
  3
*D257
  1

  0
LINE
  5
F361
330
E9F4
100
AcDbEntity
  8
AM_5
100
AcDbLine
 10
4151.570014478898
 20
2962.894768967107
 30
0.0
 11
4120.570006478899
 21
2962.894768967107
 31
0.0
  0
LINE
  5
F362
330
E9F4
100
AcDbEntity
  8
AM_5
100
AcDbLine
 10
4127.5700064789
 20
2927.894768967107
 30
0.0
 11
4120.570006478899
 21
2927.894768967107
 31
0.0
  0
LINE
  5
F363
330
E9F4
100
AcDbEntity
  8
AM_5
100
AcDbLine
 10
4121.5700064789
 20
2961.894768967106
 30
0.0
 11
4121.5700064789
 21
2928.894768967106
 31
0.0
  0
INSERT
  5
F364
330
E9F4
100
AcDbEntity
  8
AM_5
100
AcDbBlockReference
  2
_Dot
 10
4121.5700064789
 20
2962.894768967107
 30
0.0
 50
90.0
  0
INSERT
  5
F365
330
E9F4
100
AcDbEntity
  8
AM_5
100
AcDbBlockReference
  2
_Dot
 10
4121.5700064789
 20
2927.894768967107
 30
0.0
 50
270.0
  0
MTEXT
  5
F366
330
E9F4
100
AcDbEntity
  8
AM_5
 62
     2
100
AcDbMText
 10
4118.470006478898
 20
2945.394768967107
 30
0.0
 40
3.200000000000001
 41
0.0
 46
0.0
 71
     5
 72
     1
  1
（35）
 11
0.0000000000000001
 21
1.0
 31
0.0
 73
     1
 44
1.0
  0
POINT
  5
F367
330
E9F4
100
AcDbEntity
  8
Defpoints
 62
     0
100
AcDbPoint
 10
4152.570014478899
 20
2962.894768967107
 30
0.0
  0
POINT
  5
F368
330
E9F4
100
AcDbEntity
  8
Defpoints
 62
     0
100
AcDbPoint
 10
4128.570006478899
 20
2927.894768967107
 30
0.0
  0
POINT
  5
F369
330
E9F4
100
AcDbEntity
  8
Defpoints
 62
     0
100
AcDbPoint
 10
4121.5700064789
 20
2927.894768967107
 30
0.0
  0
ENDBLK
  5
E9FF
330
E9F4
100
AcDbEntity
  8
0
100
AcDbBlockEnd
  0
BLOCK
  5
EE43
330
EE39
100
AcDbEntity
  8
0
100
AcDbBlockBegin
  2
*D269
 70
     1
 10
0.0
 20
0.0
 30
0.0
  3
*D269
  1

  0
LINE
  5
F36A
330
EE39
100
AcDbEntity
  8
AM_5
100
AcDbLine
 10
4059.170014478899
 20
2962.894768967107
 30
0.0
 11
4078.570014478901
 21
2962.894768967107
 31
0.0
  0
LINE
  5
F36B
330
EE39
100
AcDbEntity
  8
AM_5
100
AcDbLine
 10
4062.570014426539
 20
2972.894768967107
 30
0.0
 11
4078.570014478901
 21
2972.894768967107
 31
0.0
  0
LINE
  5
F36C
330
EE39
100
AcDbEntity
  8
AM_5
100
AcDbLine
 10
4077.5700144789
 20
2963.894768967107
 30
0.0
 11
4077.5700144789
 21
2971.894768967107
 31
0.0
  0
INSERT
  5
F36D
330
EE39
100
AcDbEntity
  8
AM_5
100
AcDbBlockReference
  2
_Dot
 10
4077.5700144789
 20
2962.894768967107
 30
0.0
 50
270.0
  0
INSERT
  5
F36E
330
EE39
100
AcDbEntity
  8
AM_5
100
AcDbBlockReference
  2
_Dot
 10
4077.5700144789
 20
2972.894768967107
 30
0.0
 50
90.0
  0
MTEXT
  5
F36F
330
EE39
100
AcDbEntity
  8
AM_5
 62
     2
100
AcDbMText
 10
4074.4700144789
 20
2967.894768967107
 30
0.0
 40
3.200000000000001
 41
0.0
 46
0.0
 71
     5
 72
     1
  1
10
 11
0.0000000000000001
 21
1.0
 31
0.0
 73
     1
 44
1.0
  0
POINT
  5
F370
330
EE39
100
AcDbEntity
  8
Defpoints
 62
     0
100
AcDbPoint
 10
4058.170014478899
 20
2962.894768967107
 30
0.0
  0
POINT
  5
F371
330
EE39
100
AcDbEntity
  8
Defpoints
 62
     0
100
AcDbPoint
 10
4061.570014426539
 20
2972.894768967107
 30
0.0
  0
POINT
  5
F372
330
EE39
100
AcDbEntity
  8
Defpoints
 62
     0
100
AcDbPoint
 10
4077.5700144789
 20
2972.894768967107
 30
0.0
  0
ENDBLK
  5
EE44
330
EE39
100
AcDbEntity
  8
0
100
AcDbBlockEnd
  0
ENDSEC
  0
SECTION
  2
ENTITIES
  0
LINE
  5
C63D
330
1F
100
AcDbEntity
  8
size
100
AcDbLine
 10
3870.607479615755
 20
2826.796813310979
 30
0.0
 11
4290.607479615753
 21
2826.796813310979
 31
0.0
1001
GENIUS_GENREC_14
1002
{
1000
PYDIR
1011
3870.607479615755
1021
3123.796813310979
1031
0.0
1002
}
1002
{
1000
PXDIR
1011
4290.607479615753
1021
2826.796813310979
1031
0.0
1002
}
1002
{
1000
PORI
1011
3870.607479615755
1021
2826.796813310979
1031
0.0
1002
}
1002
{
1000
PINS
1011
4080.607479615753
1021
2975.296813310979
1031
0.0
1002
}
1002
{
1000
HVAL
1000
297
1002
}
1002
{
1000
H
1070
     2
1002
}
1002
{
1000
WVAL
1000
420
1002
}
1002
{
1000
W
1070
     2
1002
}
1002
{
1000
C
1070
     4
1002
}
1001
GENIUS_GENOBJ-N-REC_13
1002
{
1000
OWNER
1000
GEN
1002
}
1001
GENIUS_GENODEF_13
1002
{
1000
HIER
1070
     0
1002
}
1002
{
1000
MANEDIT
1070
     0
1002
}
1002
{
1000
NOSEL
1070
     0
1002
}
1002
{
1000
BEHIND
1070
     0
1002
}
1002
{
1000
OTHER
1070
     0
1002
}
1002
{
1000
REACTOR
1002
}
  0
LINE
  5
C63E
330
1F
100
AcDbEntity
  8
size
100
AcDbLine
 10
4290.607479615753
 20
2826.796813310979
 30
0.0
 11
4290.607479615753
 21
3123.796813310979
 31
0.0
1001
GENIUS_GENREC_14
1002
{
1000
PYDIR
1011
3870.607479615755
1021
3123.796813310979
1031
0.0
1002
}
1002
{
1000
PXDIR
1011
4290.607479615753
1021
2826.796813310979
1031
0.0
1002
}
1002
{
1000
PORI
1011
3870.607479615755
1021
2826.796813310979
1031
0.0
1002
}
1002
{
1000
PINS
1011
4080.607479615753
1021
2975.296813310979
1031
0.0
1002
}
1002
{
1000
HVAL
1000
297
1002
}
1002
{
1000
H
1070
     2
1002
}
1002
{
1000
WVAL
1000
420
1002
}
1002
{
1000
W
1070
     2
1002
}
1002
{
1000
C
1070
     4
1002
}
1001
GENIUS_GENOBJ-N-REC_13
1002
{
1000
OWNER
1000
GEN
1002
}
1001
GENIUS_GENODEF_13
1002
{
1000
HIER
1070
     0
1002
}
1002
{
1000
MANEDIT
1070
     0
1002
}
1002
{
1000
NOSEL
1070
     0
1002
}
1002
{
1000
BEHIND
1070
     0
1002
}
1002
{
1000
OTHER
1070
     0
1002
}
1002
{
1000
REACTOR
1002
}
  0
LINE
  5
C63F
330
1F
100
AcDbEntity
  8
size
100
AcDbLine
 10
4290.607479615753
 20
3123.796813310979
 30
0.0
 11
3870.607479615755
 21
3123.796813310979
 31
0.0
1001
GENIUS_GENREC_14
1002
{
1000
PYDIR
1011
3870.607479615755
1021
3123.796813310979
1031
0.0
1002
}
1002
{
1000
PXDIR
1011
4290.607479615753
1021
2826.796813310979
1031
0.0
1002
}
1002
{
1000
PORI
1011
3870.607479615755
1021
2826.796813310979
1031
0.0
1002
}
1002
{
1000
PINS
1011
4080.607479615753
1021
2975.296813310979
1031
0.0
1002
}
1002
{
1000
HVAL
1000
297
1002
}
1002
{
1000
H
1070
     2
1002
}
1002
{
1000
WVAL
1000
420
1002
}
1002
{
1000
W
1070
     2
1002
}
1002
{
1000
C
1070
     4
1002
}
1001
GENIUS_GENOBJ-N-REC_13
1002
{
1000
OWNER
1000
GEN
1002
}
1001
GENIUS_GENODEF_13
1002
{
1000
HIER
1070
     0
1002
}
1002
{
1000
MANEDIT
1070
     0
1002
}
1002
{
1000
NOSEL
1070
     0
1002
}
1002
{
1000
BEHIND
1070
     0
1002
}
1002
{
1000
OTHER
1070
     0
1002
}
1002
{
1000
REACTOR
1002
}
  0
LINE
  5
C640
330
1F
100
AcDbEntity
  8
size
100
AcDbLine
 10
3870.607479615755
 20
3123.796813310979
 30
0.0
 11
3870.607479615755
 21
2826.796813310979
 31
0.0
1001
GENIUS_GENREC_14
1002
{
1000
PYDIR
1011
3870.607479615755
1021
3123.796813310979
1031
0.0
1002
}
1002
{
1000
PXDIR
1011
4290.607479615753
1021
2826.796813310979
1031
0.0
1002
}
1002
{
1000
PORI
1011
3870.607479615755
1021
2826.796813310979
1031
0.0
1002
}
1002
{
1000
PINS
1011
4080.607479615753
1021
2975.296813310979
1031
0.0
1002
}
1002
{
1000
HVAL
1000
297
1002
}
1002
{
1000
H
1070
     2
1002
}
1002
{
1000
WVAL
1000
420
1002
}
1002
{
1000
W
1070
     2
1002
}
1002
{
1000
C
1070
     4
1002
}
1001
GENIUS_GENOBJ-N-REC_13
1002
{
1000
OWNER
1000
GEN
1002
}
1001
GENIUS_GENODEF_13
1002
{
1000
HIER
1070
     0
1002
}
1002
{
1000
MANEDIT
1070
     0
1002
}
1002
{
1000
NOSEL
1070
     0
1002
}
1002
{
1000
BEHIND
1070
     0
1002
}
1002
{
1000
OTHER
1070
     0
1002
}
1002
{
1000
REACTOR
1002
}
  0
LINE
  5
C641
330
1F
100
AcDbEntity
  8
waku
100
AcDbLine
 10
4279.107479615753
 20
2835.296813310979
 30
0.0
 11
4279.107479615753
 21
3115.29681331098
 31
0.0
1001
GENIUS_GENREC_14
1002
{
1000
PYDIR
1011
3870.607479615755
1021
3123.796813310979
1031
0.0
1002
}
1002
{
1000
PXDIR
1011
4290.607479615753
1021
2826.796813310979
1031
0.0
1002
}
1002
{
1000
PORI
1011
3870.607479615755
1021
2826.796813310979
1031
0.0
1002
}
1002
{
1000
PINS
1011
4080.607479615753
1021
2975.296813310979
1031
0.0
1002
}
1002
{
1000
HVAL
1000
297
1002
}
1002
{
1000
H
1070
     2
1002
}
1002
{
1000
WVAL
1000
420
1002
}
1002
{
1000
W
1070
     2
1002
}
1002
{
1000
C
1070
     4
1002
}
1001
GENIUS_GENOBJ-N-REC_13
1002
{
1000
OWNER
1000
GEN
1002
}
1001
GENIUS_GENODEF_13
1002
{
1000
HIER
1070
     0
1002
}
1002
{
1000
MANEDIT
1070
     0
1002
}
1002
{
1000
NOSEL
1070
     0
1002
}
1002
{
1000
BEHIND
1070
     0
1002
}
1002
{
1000
OTHER
1070
     0
1002
}
1002
{
1000
REACTOR
1002
}
  0
LINE
  5
C642
330
1F
100
AcDbEntity
  8
waku
100
AcDbLine
 10
3882.107479615754
 20
3115.29681331098
 30
0.0
 11
3882.107479615754
 21
2835.296813310979
 31
0.0
1001
GENIUS_GENREC_14
1002
{
1000
PYDIR
1011
3870.607479615755
1021
3123.796813310979
1031
0.0
1002
}
1002
{
1000
PXDIR
1011
4290.607479615753
1021
2826.796813310979
1031
0.0
1002
}
1002
{
1000
PORI
1011
3870.607479615755
1021
2826.796813310979
1031
0.0
1002
}
1002
{
1000
PINS
1011
4080.607479615753
1021
2975.296813310979
1031
0.0
1002
}
1002
{
1000
HVAL
1000
297
1002
}
1002
{
1000
H
1070
     2
1002
}
1002
{
1000
WVAL
1000
420
1002
}
1002
{
1000
W
1070
     2
1002
}
1002
{
1000
C
1070
     4
1002
}
1001
GENIUS_GENOBJ-N-REC_13
1002
{
1000
OWNER
1000
GEN
1002
}
1001
GENIUS_GENODEF_13
1002
{
1000
HIER
1070
     0
1002
}
1002
{
1000
MANEDIT
1070
     0
1002
}
1002
{
1000
NOSEL
1070
     0
1002
}
1002
{
1000
BEHIND
1070
     0
1002
}
1002
{
1000
OTHER
1070
     0
1002
}
1002
{
1000
REACTOR
1002
}
  0
LINE
  5
C643
330
1F
100
AcDbEntity
  8
waku
100
AcDbLine
 10
4279.107479615753
 20
3115.29681331098
 30
0.0
 11
3882.107479615754
 21
3115.29681331098
 31
0.0
1001
GENIUS_GENREC_14
1002
{
1000
PYDIR
1011
3870.607479615755
1021
3123.796813310979
1031
0.0
1002
}
1002
{
1000
PXDIR
1011
4290.607479615753
1021
2826.796813310979
1031
0.0
1002
}
1002
{
1000
PORI
1011
3870.607479615755
1021
2826.796813310979
1031
0.0
1002
}
1002
{
1000
PINS
1011
4080.607479615753
1021
2975.296813310979
1031
0.0
1002
}
1002
{
1000
HVAL
1000
297
1002
}
1002
{
1000
H
1070
     2
1002
}
1002
{
1000
WVAL
1000
420
1002
}
1002
{
1000
W
1070
     2
1002
}
1002
{
1000
C
1070
     4
1002
}
  0
LINE
  5
C644
330
1F
100
AcDbEntity
  8
waku
100
AcDbLine
 10
3882.107479615754
 20
2835.296813310979
 30
0.0
 11
4279.107479615753
 21
2835.296813310979
 31
0.0
  0
LINE
  5
C645
330
1F
100
AcDbEntity
  8
AM_0
100
AcDbLine
 10
3882.107479615754
 20
3115.29681331098
 30
0.0
 11
3976.676991111173
 21
3115.29681331098
 31
0.0
  0
LINE
  5
C646
330
1F
100
AcDbEntity
  8
AM_2
100
AcDbLine
 10
3882.107479615754
 20
3083.296813310979
 30
0.0
 11
3976.676991111173
 21
3083.296813310979
 31
0.0
  0
LINE
  5
C647
330
1F
100
AcDbEntity
  8
AM_2
100
AcDbLine
 10
3882.107479615754
 20
3091.296813310979
 30
0.0
 11
3976.676991111173
 21
3091.296813310979
 31
0.0
  0
LINE
  5
C648
330
1F
100
AcDbEntity
  8
AM_2
100
AcDbLine
 10
3882.107479615754
 20
3099.296813310979
 30
0.0
 11
3976.676991111173
 21
3099.296813310979
 31
0.0
  0
LINE
  5
C649
330
1F
100
AcDbEntity
  8
AM_2
100
AcDbLine
 10
3882.107479615754
 20
3107.296813310979
 30
0.0
 11
3976.676991111173
 21
3107.296813310979
 31
0.0
  0
LINE
  5
C64A
330
1F
100
AcDbEntity
  8
AM_0
100
AcDbLine
 10
3882.107479615754
 20
3115.29681331098
 30
0.0
 11
3882.107479615754
 21
3075.296813310979
 31
0.0
  0
LINE
  5
C64B
330
1F
100
AcDbEntity
  8
AM_2
100
AcDbLine
 10
3905.107479615754
 20
3115.29681331098
 30
0.0
 11
3905.107479615754
 21
3075.296813310979
 31
0.0
  0
MTEXT
  5
C64C
330
1F
100
AcDbEntity
  8
AM_6
100
AcDbMText
 10
3893.607479615754
 20
3087.296813310979
 30
0.0
 40
3.2
 41
23.0
 46
0.0
 71
     5
 72
     5
  1
仕上げ
 73
     1
 44
1.0
  0
MTEXT
  5
C64D
330
1F
100
AcDbEntity
  8
AM_6
100
AcDbMText
 10
3893.607479615754
 20
3095.296813310979
 30
0.0
 40
3.2
 41
23.0
 46
0.0
 71
     5
 72
     5
  1
材質
 73
     1
 44
1.0
  0
MTEXT
  5
C64E
330
1F
100
AcDbEntity
  8
AM_6
100
AcDbMText
 10
3893.607479615754
 20
3111.296813310979
 30
0.0
 40
3.2
 41
23.0
 46
0.0
 71
     5
 72
     5
  1
品名
 73
     1
 44
1.0
  0
MTEXT
  5
C64F
330
1F
100
AcDbEntity
  8
AM_6
100
AcDbMText
 10
3893.607479615754
 20
3103.296813310979
 30
0.0
 40
3.2
 41
23.0
 46
0.0
 71
     5
 72
     5
  1
品番
 73
     1
 44
1.0
  0
MTEXT
  5
C650
330
1F
100
AcDbEntity
  8
AM_6
100
AcDbMText
 10
3905.107479615754
 20
3087.296813310979
 30
0.0
 40
3.2
 41
90.0
 46
0.0
 71
     4
 72
     5
  1
　サーチライトニッケルクロム
 73
     1
 44
1.0
  0
MTEXT
  5
C651
330
1F
100
AcDbEntity
  8
AM_6
100
AcDbMText
 10
3905.107479615754
 20
3095.296813310979
 30
0.0
 40
3.2
 41
90.0
 46
0.0
 71
     4
 72
     5
  1
　亜鉛ダイキャスト
 73
     1
 44
1.0
  0
MTEXT
  5
C652
330
1F
100
AcDbEntity
  8
AM_6
100
AcDbMText
 10
3905.107479615754
 20
3103.296813310979
 30
0.0
 40
3.2
 41
90.0
 46
0.0
 71
     4
 72
     5
  1
　DFB-29
 73
     1
 44
1.0
  0
MTEXT
  5
C653
330
1F
100
AcDbEntity
  8
AM_6
100
AcDbMText
 10
3905.107479615754
 20
3111.296813310979
 30
0.0
 40
3.2
 41
90.0
 46
0.0
 71
     4
 72
     5
  1
　ローラー付グレモンハンドル受（面付タイプ）
 73
     1
 44
1.0
  0
MTEXT
  5
C654
330
1F
100
AcDbEntity
  8
AM_6
100
AcDbMText
 10
3893.607479615754
 20
3079.296813310979
 30
0.0
 40
3.2
 41
23.0
 46
0.0
 71
     5
 72
     5
  1
セットビス
 73
     1
 44
1.0
  0
LINE
  5
C657
330
1F
100
AcDbEntity
  8
AM_0
100
AcDbLine
 10
3976.676991111173
 20
3115.29681331098
 30
0.0
 11
3976.676991111173
 21
3075.296813310979
 31
0.0
  0
LINE
  5
C7BD
330
1F
100
AcDbEntity
  8
AM_7
100
AcDbLine
 10
4050.070014478898
 20
3045.894768967106
 30
0.0
 11
4050.070014478898
 21
3019.894768967106
 31
0.0
  0
LINE
  5
C7BE
330
1F
100
AcDbEntity
  8
AM_7
100
AcDbLine
 10
4034.570014478899
 20
2927.894768967107
 30
0.0
 11
4065.570014478899
 21
2927.894768967107
 31
0.0
  0
LINE
  5
C7BF
330
1F
100
AcDbEntity
  8
AM_0
100
AcDbLine
 10
4062.570014478898
 20
2971.894768967107
 30
0.0
 11
4062.570014478898
 21
2883.894768967106
 31
0.0
  0
LINE
  5
C7C0
330
1F
100
AcDbEntity
  8
AM_0
100
AcDbLine
 10
4037.570014478898
 20
2971.894768967107
 30
0.0
 11
4037.570014478898
 21
2883.894768967106
 31
0.0
  0
LINE
  5
C7C1
330
1F
100
AcDbEntity
  8
AM_0
100
AcDbLine
 10
4038.570014478898
 20
2972.894768967107
 30
0.0
 11
4061.570014478898
 21
2972.894768967107
 31
0.0
  0
LINE
  5
C7C2
330
1F
100
AcDbEntity
  8
AM_0
100
AcDbLine
 10
4038.570014478898
 20
2882.894768967107
 30
0.0
 11
4061.570014478898
 21
2882.894768967107
 31
0.0
  0
LINE
  5
C7C3
330
1F
100
AcDbEntity
  8
AM_7
 48
0.5
100
AcDbLine
 10
4041.970014478899
 20
2892.894768967106
 30
0.0
 11
4058.1700144789
 21
2892.894768967106
 31
0.0
  0
LINE
  5
C7C4
330
1F
100
AcDbEntity
  8
AM_7
 48
0.5
100
AcDbLine
 10
4041.970014478899
 20
2962.894768967107
 30
0.0
 11
4058.170014478899
 21
2962.894768967107
 31
0.0
  0
LINE
  5
C7C9
330
1F
100
AcDbEntity
  8
AM_0
100
AcDbLine
 10
4047.970014478899
 20
2894.394768967107
 30
0.0
 11
4047.970014478899
 21
2891.394768967106
 31
0.0
  0
LINE
  5
C7CA
330
1F
100
AcDbEntity
  8
AM_0
100
AcDbLine
 10
4052.170014478899
 20
2894.394768967107
 30
0.0
 11
4052.170014478899
 21
2891.394768967106
 31
0.0
  0
LINE
  5
C7CB
330
1F
100
AcDbEntity
  8
AM_0
100
AcDbLine
 10
4047.970014478899
 20
2964.394768967106
 30
0.0
 11
4047.970014478899
 21
2961.394768967107
 31
0.0
  0
LINE
  5
C7CC
330
1F
100
AcDbEntity
  8
AM_0
100
AcDbLine
 10
4052.170014478899
 20
2964.394768967106
 30
0.0
 11
4052.170014478899
 21
2961.394768967107
 31
0.0
  0
LINE
  5
C7CD
330
1F
100
AcDbEntity
  8
AM_0
100
AcDbLine
 10
4158.413173387732
 20
2882.894768967107
 30
0.0
 11
4162.570014478898
 21
2882.894768967107
 31
0.0
  0
LINE
  5
C7CE
330
1F
100
AcDbEntity
  8
AM_0
100
AcDbLine
 10
4156.5700144789
 20
2972.894768967107
 30
0.0
 11
4162.570014478898
 21
2972.894768967107
 31
0.0
  0
LINE
  5
C7CF
330
1F
100
AcDbEntity
  8
AM_0
100
AcDbLine
 10
4162.570014478898
 20
2972.894768967107
 30
0.0
 11
4162.570014478898
 21
2882.894768967107
 31
0.0
  0
LINE
  5
C7D0
330
1F
100
AcDbEntity
  8
AM_0
100
AcDbLine
 10
4142.570014478899
 20
2949.968738020209
 30
0.0
 11
4142.570014478899
 21
2943.789769354388
 31
0.0
  0
LINE
  5
C7D1
330
1F
100
AcDbEntity
  8
AM_0
100
AcDbLine
 10
4155.570014478899
 20
2971.894768967107
 30
0.0
 11
4155.570014478899
 21
2952.820800188618
 31
0.0
  0
LINE
  5
C7D3
330
1F
100
AcDbEntity
  8
AM_0
100
AcDbLine
 10
4143.4933179898
 20
2950.965792506464
 30
0.0
 11
4154.646710967997
 21
2951.823745702365
 31
0.0
  0
LINE
  5
C7D8
330
1F
100
AcDbEntity
  8
AM_2
100
AcDbLine
 10
4038.570014478898
 20
2951.894768967106
 30
0.0
 11
4061.570014478898
 21
2951.894768967106
 31
0.0
  0
LINE
  5
C7D9
330
1F
100
AcDbEntity
  8
AM_0
100
AcDbLine
 10
4038.570014478898
 20
2950.894768967107
 30
0.0
 11
4061.570014478898
 21
2950.894768967107
 31
0.0
  0
LINE
  5
C7DA
330
1F
100
AcDbEntity
  8
AM_0
100
AcDbLine
 10
4038.570014478898
 20
2942.894768967106
 30
0.0
 11
4061.570014478898
 21
2942.894768967106
 31
0.0
  0
LINE
  5
C7DB
330
1F
100
AcDbEntity
  8
AM_2
100
AcDbLine
 10
4038.570014478898
 20
2941.894768967106
 30
0.0
 11
4061.570014478898
 21
2941.894768967106
 31
0.0
  0
LINE
  5
C7E0
330
1F
100
AcDbEntity
  8
AM_11
100
AcDbLine
 10
4053.070014478898
 20
3067.894768967106
 30
0.0
 11
4053.070014478898
 21
3061.894768967106
 31
0.0
  0
LINE
  5
C7E1
330
1F
100
AcDbEntity
  8
AM_11
100
AcDbLine
 10
4051.070014478899
 20
3067.894768967106
 30
0.0
 11
4051.070014478899
 21
3061.894768967106
 31
0.0
  0
LINE
  5
C7E2
330
1F
100
AcDbEntity
  8
AM_11
100
AcDbLine
 10
4047.070167478899
 20
3065.894868967106
 30
0.0
 11
4051.070172478899
 21
3061.894868967107
 31
0.0
  0
LINE
  5
C7E3
330
1F
100
AcDbEntity
  8
AM_11
100
AcDbLine
 10
4046.241786478899
 20
3063.894658967106
 30
0.0
 11
4049.6559594789
 21
3060.480478967107
 31
0.0
  0
LINE
  5
C7E4
330
1F
100
AcDbEntity
  8
AM_11
100
AcDbLine
 10
4063.070014478898
 20
3044.894768967106
 30
0.0
 11
4037.070045478899
 21
3044.894768967106
 31
0.0
  0
LINE
  5
C7E5
330
1F
100
AcDbEntity
  8
AM_11
100
AcDbLine
 10
4035.070014478899
 20
3067.894768967106
 30
0.0
 11
4035.070014478899
 21
3043.894768967107
 31
0.0
  0
LINE
  5
C7E6
330
1F
100
AcDbEntity
  8
AM_11
100
AcDbLine
 10
4037.070014478898
 20
3082.279549588626
 30
0.0
 11
4037.070014478898
 21
3044.894768967106
 31
0.0
  0
LINE
  5
C7E7
330
1F
100
AcDbEntity
  8
AM_11
100
AcDbLine
 10
4039.070014478898
 20
3082.049657826094
 30
0.0
 11
4039.070014478898
 21
3046.894768967107
 31
0.0
  0
LINE
  5
C7E8
330
1F
100
AcDbEntity
  8
AM_11
100
AcDbLine
 10
4061.0700449789
 20
3046.894768967107
 30
0.0
 11
4039.070045478899
 21
3046.894768967107
 31
0.0
  0
LINE
  5
C7E9
330
1F
100
AcDbEntity
  8
AM_11
100
AcDbLine
 10
4061.070014478899
 20
3059.894768967107
 30
0.0
 11
4061.070014478899
 21
3046.894768967107
 31
0.0
  0
LINE
  5
C7EA
330
1F
100
AcDbEntity
  8
AM_11
100
AcDbLine
 10
4063.070014478898
 20
3059.894768967107
 30
0.0
 11
4063.070014478898
 21
3044.894768967106
 31
0.0
  0
LINE
  5
C7EB
330
1F
100
AcDbEntity
  8
AM_0
100
AcDbLine
 10
4037.570014478898
 20
3042.894768967106
 30
0.0
 11
4037.5700144789
 21
3023.894768967107
 31
0.0
  0
LINE
  5
C7EC
330
1F
100
AcDbEntity
  8
AM_0
100
AcDbLine
 10
4038.570014478898
 20
3035.894768967106
 30
0.0
 11
4061.570014478898
 21
3035.894768967106
 31
0.0
  0
LINE
  5
C7ED
330
1F
100
AcDbEntity
  8
AM_0
100
AcDbLine
 10
4062.570014478898
 20
3042.894768967106
 30
0.0
 11
4062.570014478898
 21
3023.894768967107
 31
0.0
  0
LINE
  5
C7EE
330
1F
100
AcDbEntity
  8
AM_0
100
AcDbLine
 10
4037.570014478898
 20
3042.894768967106
 30
0.0
 11
4062.570014478898
 21
3042.894768967106
 31
0.0
  0
LINE
  5
C7EF
330
1F
100
AcDbEntity
  8
AM_11
100
AcDbLine
 10
4036.070014478899
 20
3042.894768967106
 30
0.0
 11
4063.07001517703
 21
3042.894768967106
 31
0.0
  0
LINE
  5
C7F0
330
1F
100
AcDbEntity
  8
AM_11
100
AcDbLine
 10
4065.070014478899
 20
3059.894768967107
 30
0.0
 11
4065.070014478899
 21
3044.894768967106
 31
0.0
  0
LINE
  5
C7F1
330
1F
100
AcDbEntity
  8
AM_0
100
AcDbLine
 10
4038.570014478899
 20
3022.894768967106
 30
0.0
 11
4061.570014478898
 21
3022.894768967106
 31
0.0
  0
LINE
  5
C7F2
330
1F
100
AcDbEntity
  8
AM_11
100
AcDbLine
 10
4045.070014478898
 20
3082.049657826094
 30
0.0
 11
4045.070014478898
 21
3066.723138967107
 31
0.0
  0
LINE
  5
C7F3
330
1F
100
AcDbEntity
  8
AM_11
100
AcDbLine
 10
4047.070014478899
 20
3082.049657826094
 30
0.0
 11
4047.070014478899
 21
3065.894768967106
 31
0.0
  0
LINE
  5
C7F4
330
1F
100
AcDbEntity
  8
AM_11
100
AcDbLine
 10
4047.070045478899
 20
3067.894768967106
 30
0.0
 11
4051.070045478899
 21
3067.894768967106
 31
0.0
  0
LINE
  5
C7F5
330
1F
100
AcDbEntity
  8
AM_11
100
AcDbLine
 10
4061.070014478899
 20
3071.894768967107
 30
0.0
 11
4061.070014478899
 21
3069.894768967107
 31
0.0
  0
LINE
  5
C7F6
330
1F
100
AcDbEntity
  8
AM_11
100
AcDbLine
 10
4047.070045478899
 20
3069.894768967107
 30
0.0
 11
4095.070014478898
 21
3069.894768967107
 31
0.0
  0
LINE
  5
C7F7
330
1F
100
AcDbEntity
  8
AM_11
100
AcDbLine
 10
4053.070045478899
 20
3067.894768967106
 30
0.0
 11
4095.070014478898
 21
3067.894768967106
 31
0.0
  0
LINE
  5
C7F8
330
1F
100
AcDbEntity
  8
AM_11
100
AcDbLine
 10
4051.070045478899
 20
3067.894768967106
 30
0.0
 11
4053.070045478899
 21
3067.894768967106
 31
0.0
  0
LINE
  5
C7F9
330
1F
100
AcDbEntity
  8
AM_11
100
AcDbLine
 10
4049.070045478899
 20
3071.894768967107
 30
0.0
 11
4061.0700449789
 21
3071.894768967107
 31
0.0
  0
LINE
  5
C7FA
330
1F
100
AcDbEntity
  8
AM_11
100
AcDbLine
 10
4035.070014478899
 20
3082.049657826094
 30
0.0
 11
4035.070014478899
 21
3071.894768967107
 31
0.0
  0
LINE
  5
C7FB
330
1F
100
AcDbEntity
  8
AM_11
100
AcDbLine
 10
4035.070045478899
 20
3067.894768967106
 30
0.0
 11
4009.070045478899
 21
3067.894768967106
 31
0.0
  0
LINE
  5
C7FC
330
1F
100
AcDbEntity
  8
AM_11
100
AcDbLine
 10
4037.070014478898
 20
3069.894768967107
 30
0.0
 11
4009.070045478899
 21
3069.894768967106
 31
0.0
  0
LINE
  5
C7FE
330
1F
100
AcDbEntity
  8
AM_11
100
AcDbLine
 10
4023.070014478899
 20
3071.894768967107
 30
0.0
 11
4023.070014478899
 21
3069.894768967107
 31
0.0
  0
LINE
  5
C7FF
330
1F
100
AcDbEntity
  8
AM_11
100
AcDbLine
 10
4035.070045478899
 20
3071.894768967107
 30
0.0
 11
4023.070045478899
 21
3071.894768967107
 31
0.0
  0
LINE
  5
C800
330
1F
100
AcDbEntity
  8
AM_7
100
AcDbLine
 10
4050.070014478898
 20
2975.894768967107
 30
0.0
 11
4050.070014478898
 21
2879.894768967107
 31
0.0
  0
LINE
  5
C801
330
1F
100
AcDbEntity
  8
AM_7
100
AcDbLine
 10
4128.570006478899
 20
2927.894768967107
 30
0.0
 11
4165.570014478898
 21
2927.894768967107
 31
0.0
  0
LINE
  5
C802
330
1F
100
AcDbEntity
  8
AM_3
100
AcDbLine
 10
4038.5700144789
 20
3031.894768967106
 30
0.0
 11
4061.570014478898
 21
3031.894768967107
 31
0.0
  0
LINE
  5
C805
330
1F
100
AcDbEntity
  8
AM_11
100
AcDbLine
 10
4049.070045478899
 20
3082.049657826094
 30
0.0
 11
4049.070045478899
 21
3071.894768967107
 31
0.0
  0
ARC
  5
C806
330
1F
100
AcDbEntity
  8
AM_0
100
AcDbCircle
 10
4061.570014478898
 20
2971.894768967107
 30
0.0
 40
1.0
100
AcDbArc
 50
0.0
 51
90.00000299998466
  0
ARC
  5
C807
330
1F
100
AcDbEntity
  8
AM_0
100
AcDbCircle
 10
4061.570014478898
 20
2883.894768967106
 30
0.0
 40
1.0
100
AcDbArc
 50
270.0
 51
0.0
  0
ARC
  5
C808
330
1F
100
AcDbEntity
  8
AM_0
100
AcDbCircle
 10
4038.570014478898
 20
2883.894768967106
 30
0.0
 40
1.0
100
AcDbArc
 50
179.999989999999
 51
270.0
  0
ARC
  5
C809
330
1F
100
AcDbEntity
  8
AM_0
100
AcDbCircle
 10
4038.570014478898
 20
2971.894768967107
 30
0.0
 40
1.0
100
AcDbArc
 50
90.00000299998466
 51
180.000010000001
  0
ARC
  5
C80A
330
1F
100
AcDbEntity
  8
AM_0
100
AcDbCircle
 10
4050.070014478898
 20
2894.394768967107
 30
0.0
 40
2.099999899999998
100
AcDbArc
 50
0.0
 51
180.000010000001
  0
ARC
  5
C80B
330
1F
100
AcDbEntity
  8
AM_0
100
AcDbCircle
 10
4050.070014478898
 20
2891.394768967106
 30
0.0
 40
2.099999899999998
100
AcDbArc
 50
179.999989999999
 51
0.0000100179008628
  0
ARC
  5
C80C
330
1F
100
AcDbEntity
  8
AM_0
100
AcDbCircle
 10
4050.070014478898
 20
2961.394768967107
 30
0.0
 40
2.099999899999998
100
AcDbArc
 50
179.999989999999
 51
0.0000100179008628
  0
ARC
  5
C80D
330
1F
100
AcDbEntity
  8
AM_0
100
AcDbCircle
 10
4050.070014478898
 20
2964.394768967106
 30
0.0
 40
2.099999899999998
100
AcDbArc
 50
0.0
 51
180.000010000001
  0
ARC
  5
C81E
330
1F
100
AcDbEntity
  8
AM_0
100
AcDbCircle
 10
4038.570014478898
 20
2943.894768967107
 30
0.0
 40
1.0
100
AcDbArc
 50
179.999989999999
 51
270.0
  0
ARC
  5
C81F
330
1F
100
AcDbEntity
  8
AM_0
100
AcDbCircle
 10
4061.570014478898
 20
2943.894768967107
 30
0.0
 40
1.0
100
AcDbArc
 50
270.0
 51
0.0
  0
ARC
  5
C820
330
1F
100
AcDbEntity
  8
AM_0
100
AcDbCircle
 10
4061.570014478898
 20
2949.894768967106
 30
0.0
 40
1.0
100
AcDbArc
 50
0.0
 51
90.00000299998466
  0
ARC
  5
C821
330
1F
100
AcDbEntity
  8
AM_0
100
AcDbCircle
 10
4038.570014478898
 20
2949.894768967106
 30
0.0
 40
1.0
100
AcDbArc
 50
90.00000299998466
 51
180.000010000001
  0
ARC
  5
C824
330
1F
100
AcDbEntity
  8
AM_11
100
AcDbCircle
 10
4051.070014478899
 20
3061.894768967106
 30
0.0
 40
2.0
100
AcDbArc
 50
224.9998199999959
 51
0.0
  0
ARC
  5
C826
330
1F
100
AcDbEntity
  8
AM_11
100
AcDbCircle
 10
4036.070014478899
 20
3043.894768967107
 30
0.0
 40
1.0
100
AcDbArc
 50
179.9999799999979
 51
270.000030000003
  0
ARC
  5
C827
330
1F
100
AcDbEntity
  8
AM_11
100
AcDbCircle
 10
4063.070014478898
 20
3044.894768967106
 30
0.0
 40
2.0
100
AcDbArc
 50
270.000020000002
 51
0.0
  0
ARC
  5
C828
330
1F
100
AcDbEntity
  8
AM_11
100
AcDbCircle
 10
4063.070014478898
 20
3059.894768967107
 30
0.0
 40
2.0
100
AcDbArc
 50
0.0
 51
179.999959999996
  0
ARC
  5
C82A
330
1F
100
AcDbEntity
  8
AM_11
100
AcDbCircle
 10
4049.070014478899
 20
3066.723138967107
 30
0.0
 40
4.0
100
AcDbArc
 50
179.9999799999979
 51
225.0000500000105
  0
CIRCLE
  5
D436
330
1F
100
AcDbEntity
  8
AM_11
100
AcDbCircle
 10
4141.570006478899
 20
2927.894768967107
 30
0.0
 40
10.0
  0
LINE
  5
DADA
330
1F
100
AcDbEntity
  8
AM_0
100
AcDbLine
 10
4151.584378722274
 20
2917.810977547416
 30
0.0
 11
4157.427551132919
 21
2883.725805151995
 31
0.0
  0
ARC
  5
DADB
330
1F
100
AcDbEntity
  8
AM_0
100
AcDbCircle
 10
4158.413173387732
 20
2883.894768967106
 30
0.0
 40
1.0
100
AcDbArc
 50
189.7275785514002
 51
270.0
  0
ARC
  5
DAFB
330
1F
100
AcDbEntity
  8
AM_0
100
AcDbCircle
 10
4156.5700144789
 20
2971.894768967107
 30
0.0
 40
1.0
100
AcDbArc
 50
90.0
 51
180.0
  0
LINE
  5
DB18
330
1F
100
AcDbEntity
  8
AM_0
100
AcDbLine
 10
4151.570000989675
 20
2917.979782691402
 30
0.0
 11
4151.566348360081
 21
2940.999910331708
 31
0.0
  0
LINE
  5
DB19
330
1F
100
AcDbEntity
  8
AM_0
100
AcDbLine
 10
4150.676826074214
 20
2941.993630263562
 30
0.0
 11
4143.459536777355
 21
2942.795890751408
 31
0.0
  0
ARC
  5
DB1A
330
1F
100
AcDbEntity
  8
AM_0
100
AcDbCircle
 10
4143.570014478899
 20
2943.789769354388
 30
0.0
 40
1.0
100
AcDbArc
 50
180.0
 51
263.6571463066608
  0
ARC
  5
DB1B
330
1F
100
AcDbEntity
  8
AM_0
100
AcDbCircle
 10
4143.570014478899
 20
2949.968738020209
 30
0.0
 40
1.0
100
AcDbArc
 50
94.39870479265403
 51
180.0
  0
ARC
  5
DB1C
330
1F
100
AcDbEntity
  8
AM_0
100
AcDbCircle
 10
4150.566348372671
 20
2940.999751660583
 30
0.0
 40
1.0
100
AcDbArc
 50
0.0090911858218707
 51
83.65714630666397
  0
ARC
  5
DB1D
330
1F
100
AcDbEntity
  8
AM_0
100
AcDbCircle
 10
4154.570014478898
 20
2952.820800188618
 30
0.0
 40
1.0
100
AcDbArc
 50
274.3987047926605
 51
0.0
  0
ARC
  5
DB1E
330
1F
100
AcDbEntity
  8
AM_0
100
AcDbCircle
 10
4152.570000977088
 20
2917.979941362528
 30
0.0
 40
1.0
100
AcDbArc
 50
180.0090911858218
 51
189.7275785514002
  0
LINE
  5
DB5C
330
1F
100
AcDbEntity
  8
AM_2
100
AcDbLine
 10
4038.570014478898
 20
2917.894768967106
 30
0.0
 11
4061.570014478898
 21
2917.894768967106
 31
0.0
  0
LINE
  5
DB5F
330
1F
100
AcDbEntity
  8
AM_7
100
AcDbLine
 10
4141.570006478899
 20
2914.894768967107
 30
0.0
 11
4141.570006478899
 21
2940.894768967106
 31
0.0
1001
GENIUS_GENODEF_13
1002
{
1000
HIER
1070
     0
1002
}
1002
{
1000
MANEDIT
1070
     0
1002
}
1002
{
1000
NOSEL
1070
     0
1002
}
1002
{
1000
BEHIND
1070
     0
1002
}
1002
{
1000
OTHER
1070
     0
1002
}
1002
{
1000
REACTOR
1002
}
1001
GENIUS_GENOBJ-N-CEN_13
1002
{
1000
OWNER
1000
GEN
1002
}
1001
GENIUS_GENCEN_19
1002
{
1040
3.0
1002
}
  0
ARC
  5
DB88
330
1F
100
AcDbEntity
  8
AM_0
100
AcDbCircle
 10
4050.070014478898
 20
2964.394768967106
 30
0.0
 40
5.099999899999998
100
AcDbArc
 50
0.0
 51
180.000010000001
  0
LINE
  5
DB89
330
1F
100
AcDbEntity
  8
AM_0
100
AcDbLine
 10
4044.9700144789
 20
2964.394768967106
 30
0.0
 11
4044.9700144789
 21
2961.394768967107
 31
0.0
  0
ARC
  5
DB8A
330
1F
100
AcDbEntity
  8
AM_0
100
AcDbCircle
 10
4050.070014478898
 20
2961.394768967107
 30
0.0
 40
5.099999899999998
100
AcDbArc
 50
179.999989999999
 51
0.0000100179008628
  0
LINE
  5
DB8B
330
1F
100
AcDbEntity
  8
AM_0
100
AcDbLine
 10
4055.170014478899
 20
2964.394768967106
 30
0.0
 11
4055.170014478899
 21
2961.394768967107
 31
0.0
  0
ARC
  5
DB8C
330
1F
100
AcDbEntity
  8
AM_0
100
AcDbCircle
 10
4050.070014478898
 20
2894.394768967107
 30
0.0
 40
5.099999899999998
100
AcDbArc
 50
0.0
 51
180.000010000001
  0
LINE
  5
DB8D
330
1F
100
AcDbEntity
  8
AM_0
100
AcDbLine
 10
4044.9700144789
 20
2894.394768967107
 30
0.0
 11
4044.9700144789
 21
2891.394768967106
 31
0.0
  0
ARC
  5
DB8E
330
1F
100
AcDbEntity
  8
AM_0
100
AcDbCircle
 10
4050.070014478898
 20
2891.394768967106
 30
0.0
 40
5.099999899999998
100
AcDbArc
 50
179.999989999999
 51
0.0000100179008628
  0
LINE
  5
DB8F
330
1F
100
AcDbEntity
  8
AM_0
100
AcDbLine
 10
4055.170014478899
 20
2894.394768967107
 30
0.0
 11
4055.170014478899
 21
2891.394768967106
 31
0.0
  0
DIMENSION
  5
DBF7
330
1F
100
AcDbEntity
  8
AM_5
100
AcDbDimension
  2
*D184
 10
4048.926143606391
 20
2893.155893325867
 30
0.0
 11
4081.670872713351
 21
2867.894768967106
 31
0.0
 70
   163
  1
2-<>×7.2スロット
 71
     5
 42
4.199999799999659
 73
     0
 74
     0
 75
     0
  3
SYS$3
100
AcDbDiametricDimension
 15
4051.213885351407
 25
2889.633644608341
 35
0.0
 40
0.0
1001
ACAD
1000
DSTYLE
1002
{
1070
   173
1070
     1
1070
   342
1005
0
1070
   343
1005
A66
1070
   344
1005
B478
1002
}
  0
ARC
  5
DCB2
330
1F
100
AcDbEntity
  8
AM_0
100
AcDbCircle
 10
4038.570014478899
 20
3023.894768967107
 30
0.0
 40
1.0
100
AcDbArc
 50
180.0
 51
270.0
  0
ARC
  5
DCB3
330
1F
100
AcDbEntity
  8
AM_0
100
AcDbCircle
 10
4061.570014478898
 20
3023.894768967107
 30
0.0
 40
1.0
100
AcDbArc
 50
270.0
 51
0.0
  0
ARC
  5
DCB5
330
1F
100
AcDbEntity
  8
AM_3
100
AcDbCircle
 10
4038.5700144789
 20
3032.894768967106
 30
0.0
 40
1.0
100
AcDbArc
 50
180.0
 51
270.0
1001
GENIUS_GENOBJ-N-FIL_13
1002
{
1000
OWNER
1000
GEN
1002
}
1001
GENIUS_GENODEF_13
1002
{
1000
HIER
1070
     0
1002
}
1002
{
1000
MANEDIT
1070
     0
1002
}
1002
{
1000
NOSEL
1070
     0
1002
}
1002
{
1000
BEHIND
1070
     0
1002
}
1002
{
1000
OTHER
1070
     0
1002
}
1002
{
1000
REACTOR
1002
}
  0
ARC
  5
DCB6
330
1F
100
AcDbEntity
  8
AM_3
100
AcDbCircle
 10
4061.570014478898
 20
3032.894768967107
 30
0.0
 40
1.0
100
AcDbArc
 50
270.0
 51
0.0
1001
GENIUS_GENOBJ-N-FIL_13
1002
{
1000
OWNER
1000
GEN
1002
}
1001
GENIUS_GENODEF_13
1002
{
1000
HIER
1070
     0
1002
}
1002
{
1000
MANEDIT
1070
     0
1002
}
1002
{
1000
NOSEL
1070
     0
1002
}
1002
{
1000
BEHIND
1070
     0
1002
}
1002
{
1000
OTHER
1070
     0
1002
}
1002
{
1000
REACTOR
1002
}
  0
ARC
  5
DCB7
330
1F
100
AcDbEntity
  8
AM_0
100
AcDbCircle
 10
4061.570014478898
 20
3036.894768967106
 30
0.0
 40
1.0
100
AcDbArc
 50
270.0
 51
0.0
1001
GENIUS_GENOBJ-N-FIL_13
1002
{
1000
OWNER
1000
GEN
1002
}
1001
GENIUS_GENODEF_13
1002
{
1000
HIER
1070
     0
1002
}
1002
{
1000
MANEDIT
1070
     0
1002
}
1002
{
1000
NOSEL
1070
     0
1002
}
1002
{
1000
BEHIND
1070
     0
1002
}
1002
{
1000
OTHER
1070
     0
1002
}
1002
{
1000
REACTOR
1002
}
  0
ARC
  5
DCB8
330
1F
100
AcDbEntity
  8
AM_0
100
AcDbCircle
 10
4038.570014478898
 20
3036.894768967106
 30
0.0
 40
1.0
100
AcDbArc
 50
180.0
 51
270.0
1001
GENIUS_GENOBJ-N-FIL_13
1002
{
1000
OWNER
1000
GEN
1002
}
1001
GENIUS_GENODEF_13
1002
{
1000
HIER
1070
     0
1002
}
1002
{
1000
MANEDIT
1070
     0
1002
}
1002
{
1000
NOSEL
1070
     0
1002
}
1002
{
1000
BEHIND
1070
     0
1002
}
1002
{
1000
OTHER
1070
     0
1002
}
1002
{
1000
REACTOR
1002
}
  0
DIMENSION
  5
DCB9
330
1F
100
AcDbEntity
  8
AM_5
100
AcDbDimension
  2
*D188
 10
4155.570014478899
 20
2982.894768967107
 30
0.0
 11
4159.070014478898
 21
2985.994768967107
 31
0.0
 70
    32
 71
     5
 42
6.99999999999909
 73
     0
 74
     0
 75
     0
  3
SYS$0
100
AcDbAlignedDimension
 13
4162.570014478898
 23
2972.894768967107
 33
0.0
 14
4155.570014478899
 24
2971.894768967107
 34
0.0
100
AcDbRotatedDimension
  0
DIMENSION
  5
DCF0
330
1F
100
AcDbEntity
  8
AM_5
100
AcDbDimension
  2
*D189
 10
4142.570014478899
 20
2992.894768967105
 30
0.0
 11
4152.570014478899
 21
2995.994768967105
 31
0.0
 70
    32
 71
     5
 42
20.0
 73
     0
 74
     0
 75
     0
  3
SYS$0
100
AcDbAlignedDimension
 13
4162.570014478898
 23
2972.894768967107
 33
0.0
 14
4142.570014478899
 24
2949.968738020209
 34
0.0
100
AcDbRotatedDimension
  0
DIMENSION
  5
DD06
330
1F
100
AcDbEntity
  8
AM_5
100
AcDbDimension
  2
*D190
 10
4062.570014478898
 20
2992.894768967104
 30
0.0
 11
4050.070014478898
 21
2995.994768967104
 31
0.0
 70
    32
 71
     5
 42
25.0
 73
     0
 74
     0
 75
     0
  3
SYS$0
100
AcDbAlignedDimension
 13
4037.570014478898
 23
2971.894768967107
 33
0.0
 14
4062.570014478898
 24
2971.894768967107
 34
0.0
100
AcDbRotatedDimension
  0
LINE
  5
DD6F
330
1F
100
AcDbEntity
  8
AM_7
 48
0.5
100
AcDbLine
 10
4165.570014478898
 20
2962.894768967107
 30
0.0
 11
4152.570014478899
 21
2962.894768967107
 31
0.0
1001
GENIUS_GENODEF_13
1002
{
1000
HIER
1070
     0
1002
}
1002
{
1000
MANEDIT
1070
     0
1002
}
1002
{
1000
NOSEL
1070
     0
1002
}
1002
{
1000
BEHIND
1070
     0
1002
}
1002
{
1000
OTHER
1070
     0
1002
}
1002
{
1000
REACTOR
1002
}
1001
GENIUS_GENOBJ-N-CEN_13
1002
{
1000
OWNER
1000
GEN
1002
}
1001
GENIUS_GENCEN_19
1002
{
1040
3.0
1002
}
  0
LINE
  5
DD7A
330
1F
100
AcDbEntity
  8
AM_3
 48
0.5
100
AcDbLine
 10
4160.570014478898
 20
2969.494768867106
 30
0.0
 11
4160.570014478898
 21
2956.294769067106
 31
0.0
  0
LINE
  5
DD7B
330
1F
100
AcDbEntity
  8
AM_3
 48
0.5
100
AcDbLine
 10
4155.570014478899
 20
2969.494768867106
 30
0.0
 11
4160.570014478898
 21
2969.494768867106
 31
0.0
  0
LINE
  5
DD7C
330
1F
100
AcDbEntity
  8
AM_3
 48
0.5
100
AcDbLine
 10
4160.570014478898
 20
2966.494768867106
 30
0.0
 11
4162.570014478898
 21
2966.494768867106
 31
0.0
  0
LINE
  5
DD7D
330
1F
100
AcDbEntity
  8
AM_3
 48
0.5
100
AcDbLine
 10
4155.570014478899
 20
2956.294769067106
 30
0.0
 11
4160.570014478898
 21
2956.294769067106
 31
0.0
  0
LINE
  5
DD7E
330
1F
100
AcDbEntity
  8
AM_3
 48
0.5
100
AcDbLine
 10
4160.570014478898
 20
2959.294769067107
 30
0.0
 11
4162.570014478898
 21
2959.294769067107
 31
0.0
  0
LINE
  5
DD7F
330
1F
100
AcDbEntity
  8
AM_3
 48
0.5
100
AcDbLine
 10
4160.570014478898
 20
2899.494768867107
 30
0.0
 11
4160.570014478898
 21
2886.294769067106
 31
0.0
  0
LINE
  5
DD80
330
1F
100
AcDbEntity
  8
AM_3
 48
0.5
100
AcDbLine
 10
4155.570014478899
 20
2899.494768867107
 30
0.0
 11
4160.570014478898
 21
2899.494768867107
 31
0.0
  0
LINE
  5
DD81
330
1F
100
AcDbEntity
  8
AM_3
 48
0.5
100
AcDbLine
 10
4160.570014478898
 20
2896.494768867107
 30
0.0
 11
4162.570014478898
 21
2896.494768867107
 31
0.0
  0
LINE
  5
DD82
330
1F
100
AcDbEntity
  8
AM_3
 48
0.5
100
AcDbLine
 10
4156.987157318901
 20
2886.294769067106
 30
0.0
 11
4160.570014478898
 21
2886.294769067106
 31
0.0
  0
LINE
  5
DD83
330
1F
100
AcDbEntity
  8
AM_3
 48
0.5
100
AcDbLine
 10
4160.570014478898
 20
2889.294769067106
 30
0.0
 11
4162.570014478898
 21
2889.294769067106
 31
0.0
  0
LINE
  5
DD84
330
1F
100
AcDbEntity
  8
AM_7
 48
0.5
100
AcDbLine
 10
4165.570014478898
 20
2892.894768967106
 30
0.0
 11
4152.570014478899
 21
2892.894768967106
 31
0.0
1001
GENIUS_GENODEF_13
1002
{
1000
HIER
1070
     0
1002
}
1002
{
1000
MANEDIT
1070
     0
1002
}
1002
{
1000
NOSEL
1070
     0
1002
}
1002
{
1000
BEHIND
1070
     0
1002
}
1002
{
1000
OTHER
1070
     0
1002
}
1002
{
1000
REACTOR
1002
}
1001
GENIUS_GENOBJ-N-CEN_13
1002
{
1000
OWNER
1000
GEN
1002
}
1001
GENIUS_GENCEN_19
1002
{
1040
3.0
1002
}
  0
DIMENSION
  5
DD97
330
1F
100
AcDbEntity
  8
AM_5
100
AcDbDimension
  2
*D193
 10
4077.570014478899
 20
3031.894768967106
 30
0.0
 11
4074.470014478898
 21
3037.394768967106
 31
0.0
 70
    32
 71
     5
 42
11.00000000000091
 73
     0
 74
     0
 75
     0
  3
SYS$0
100
AcDbAlignedDimension
 13
4063.07001517703
 23
3042.894768967106
 33
0.0
 14
4062.570014478898
 24
3031.894768967106
 34
0.0
 50
90.0
100
AcDbRotatedDimension
  0
DIMENSION
  5
DDB6
330
1F
100
AcDbEntity
  8
AM_5
100
AcDbDimension
  2
*D194
 10
4087.570014478898
 20
3067.894768967106
 30
0.0
 11
4084.470014478898
 21
3049.894768967107
 31
0.0
 70
    32
  1
<>
 71
     5
 42
35.99999999999955
 73
     0
 74
     0
 75
     0
  3
SYS$0
100
AcDbAlignedDimension
 13
4061.570014478898
 23
3031.894768967107
 33
0.0
 14
4095.070014478898
 24
3067.894768967106
 34
0.0
 50
90.0
100
AcDbRotatedDimension
1001
ACAD
1000
DSTYLE
1002
{
1070
    76
1070
     1
1002
}
  0
DIMENSION
  5
DE29
330
1F
100
AcDbEntity
  8
AM_5
100
AcDbDimension
  2
*D195
 10
4077.570014478899
 20
2892.894768967106
 30
0.0
 11
4074.470014478898
 21
2927.894768967107
 31
0.0
 70
    32
 71
     5
 42
70.0
 73
     0
 74
     0
 75
     0
  3
SYS$0
100
AcDbAlignedDimension
 13
4058.170014478899
 23
2962.894768967107
 33
0.0
 14
4058.170014478899
 24
2892.894768967106
 34
0.0
 50
90.0
100
AcDbRotatedDimension
  0
DIMENSION
  5
DE2A
330
1F
100
AcDbEntity
  8
AM_5
100
AcDbDimension
  2
*D196
 10
4087.570014478898
 20
2882.894768967107
 30
0.0
 11
4084.470014478898
 21
2927.894768967107
 31
0.0
 70
    32
 71
     5
 42
90.0
 73
     0
 74
     0
 75
     0
  3
SYS$0
100
AcDbAlignedDimension
 13
4061.570014478898
 23
2972.894768967107
 33
0.0
 14
4061.570014478898
 24
2882.894768967107
 34
0.0
 50
90.0
100
AcDbRotatedDimension
  0
LINE
  5
DE86
330
1F
100
AcDbEntity
  8
AM_3
 48
0.5
100
AcDbLine
 10
4044.9700144789
 20
3040.894768967106
 30
0.0
 11
4055.170014478899
 21
3040.894768967106
 31
0.0
  0
LINE
  5
DE87
330
1F
100
AcDbEntity
  8
AM_3
 48
0.5
100
AcDbLine
 10
4044.9700144789
 20
3035.894768967106
 30
0.0
 11
4044.9700144789
 21
3040.894768967106
 31
0.0
  0
LINE
  5
DE88
330
1F
100
AcDbEntity
  8
AM_3
 48
0.5
100
AcDbLine
 10
4046.4700145789
 20
3040.894768967106
 30
0.0
 11
4046.4700145789
 21
3042.894768967106
 31
0.0
  0
LINE
  5
DE89
330
1F
100
AcDbEntity
  8
AM_3
 48
0.5
100
AcDbLine
 10
4055.170014478899
 20
3035.894768967106
 30
0.0
 11
4055.170014478899
 21
3040.894768967106
 31
0.0
  0
LINE
  5
DE8A
330
1F
100
AcDbEntity
  8
AM_3
 48
0.5
100
AcDbLine
 10
4053.670014378901
 20
3040.894768967106
 30
0.0
 11
4053.670014378901
 21
3042.894768967106
 31
0.0
  0
DIMENSION
  5
DE8D
330
1F
100
AcDbEntity
  8
AM_5
100
AcDbDimension
  2
*D198
 10
4162.570014478898
 20
2867.894768967106
 30
0.0
 11
4166.816681145565
 21
2870.994768967106
 31
0.0
 70
    32
 71
     5
 42
2.0
 73
     0
 74
     0
 75
     0
  3
SYS$0
100
AcDbAlignedDimension
 13
4160.570014478898
 23
2886.294769067106
 33
0.0
 14
4162.570014478898
 24
2882.894768967107
 34
0.0
100
AcDbRotatedDimension
  0
DIMENSION
  5
DEB4
330
1F
100
AcDbEntity
  8
AM_5
100
AcDbDimension
  2
*D199
 10
4160.570014478898
 20
2867.894768967104
 30
0.0
 11
4153.323347812232
 21
2867.894768967104
 31
0.0
 70
   160
 71
     5
 42
2.99999999999909
 73
     0
 74
     0
 75
     0
  3
SYS$0
100
AcDbAlignedDimension
 13
4157.570014478899
 23
2882.894768967107
 33
0.0
 14
4160.570014478898
 24
2886.294769067106
 34
0.0
100
AcDbRotatedDimension
  0
DIMENSION
  5
DEFA
330
1F
100
AcDbEntity
  8
AM_5
100
AcDbDimension
  2
*D200
 10
4177.5700144789
 20
2941.894768399754
 30
0.0
 11
4174.470014478899
 21
2929.894768683429
 31
0.0
 70
    32
 71
     5
 42
23.99999943264993
 73
     0
 74
     0
 75
     0
  3
SYS$0
100
AcDbAlignedDimension
 13
4151.570014478898
 23
2917.894768967104
 33
0.0
 14
4151.566206371945
 24
2941.894768399754
 34
0.0
 50
90.0
100
AcDbRotatedDimension
  0
DIMENSION
  5
DF83
330
1F
100
AcDbEntity
  8
AM_5
100
AcDbDimension
  2
*D204
 10
4177.570014478904
 20
2951.89476904024
 30
0.0
 11
4174.470014478902
 21
2946.894768719998
 31
0.0
 70
    32
 71
     5
 42
10.00000064048709
 73
     0
 74
     0
 75
     0
  3
SYS$0
100
AcDbAlignedDimension
 13
4151.566206371945
 23
2941.894768399754
 33
0.0
 14
4155.570014478899
 24
2951.89476904024
 34
0.0
 50
90.0
100
AcDbRotatedDimension
  0
DIMENSION
  5
DF99
330
1F
100
AcDbEntity
  8
AM_5
100
AcDbDimension
  2
*D205
 10
4177.570014478906
 20
2972.894768967107
 30
0.0
 11
4174.470014478905
 21
2962.394769003674
 31
0.0
 70
    32
 71
     5
 42
20.99999992686571
 73
     0
 74
     0
 75
     0
  3
SYS$0
100
AcDbAlignedDimension
 13
4155.570014478899
 23
2951.89476904024
 33
0.0
 14
4162.570014478898
 24
2972.894768967107
 34
0.0
 50
90.0
100
AcDbRotatedDimension
  0
DIMENSION
  5
E9F3
330
1F
100
AcDbEntity
  8
AM_5
100
AcDbDimension
  2
*D257
 10
4121.5700064789
 20
2927.894768967107
 30
0.0
 11
4118.470006478898
 21
2945.394768967107
 31
0.0
 70
    32
  1
（<>）
 71
     5
 42
35.0
 73
     0
 74
     0
 75
     0
  3
SYS$0
100
AcDbAlignedDimension
 13
4152.570014478899
 23
2962.894768967107
 33
0.0
 14
4128.570006478899
 24
2927.894768967107
 34
0.0
 50
89.99999999999674
100
AcDbRotatedDimension
  0
DIMENSION
  5
EE38
330
1F
100
AcDbEntity
  8
AM_5
100
AcDbDimension
  2
*D269
 10
4077.5700144789
 20
2972.894768967107
 30
0.0
 11
4074.4700144789
 21
2967.894768967107
 31
0.0
 70
    32
 71
     5
 42
10.0
 73
     0
 74
     0
 75
     0
  3
SYS$0
100
AcDbAlignedDimension
 13
4058.170014478899
 23
2962.894768967107
 33
0.0
 14
4061.570014426539
 24
2972.894768967107
 34
0.0
 50
90.0
100
AcDbRotatedDimension
  0
LINE
  5
F1AA
330
1F
100
AcDbEntity
  8
AM_0
100
AcDbLine
 10
3882.107479615754
 20
3075.296813310979
 30
0.0
 11
3976.676991111173
 21
3075.296813310979
 31
0.0
  0
MTEXT
  5
F1AB
330
1F
100
AcDbEntity
  8
AM_6
100
AcDbMText
 10
3905.107479615754
 20
3079.296813310979
 30
0.0
 40
3.2
 41
90.0
 46
0.0
 71
     4
 72
     5
  1
　M4×14　トラス小ネジ　+  SUS   2本付　
 73
     1
 44
1.0
  0
CIRCLE
  5
F1AC
330
1F
100
AcDbEntity
  8
AM_6
100
AcDbCircle
 10
3942.278056969023
 20
3079.049950326264
 30
0.0
 40
2.252271541660876
  0
ENDSEC
  0
SECTION
  2
OBJECTS
  0
DICTIONARY
  5
C
330
0
100
AcDbDictionary
281
     1
  3
ACAD_BGPLOT_KEY
350
AB06
  3
ACAD_COLOR
350
A91D
  3
ACAD_GROUP
350
D
  3
ACAD_LAYOUT
350
1A
  3
ACAD_MATERIAL
350
A91C
  3
ACAD_MLINESTYLE
350
17
  3
ACAD_PLOTSETTINGS
350
19
  3
ACAD_PLOTSTYLENAME
350
E
  3
ACAD_TABLESTYLE
350
AAB9
  3
ACAD_VISUALSTYLE
350
B0F1
  3
AcAsAppObject
350
3DA1
  3
ACASGREF_MASTER
350
3DE9
  3
AcDbVariableDictionary
350
34
  3
AcmDictionary
350
47
  3
AD_GREF_MODULE
350
3DEA
  3
AD_MAPI_MODULE
350
3E06
  3
AMG
350
2B
  3
AMGSNAPSETTINGS
350
7D
  3
ASE_INDEX_DICTIONARY
350
B331
  3
MAPISURF_MODULE
350
3DEB
  0
DICTIONARY
  5
3F95
330
2
100
AcDbDictionary
280
     1
281
     1
  3
ACAD_LAYERFILTERS
360
B3C7
  3
ACAD_LAYERSTATES
360
3F96
  3
ACLYDICTIONARY
360
B3C6
  3
AMLAYER_GROUPCOLORS
360
AAB4
  0
DICTIONARY
  5
8A
330
1F
100
AcDbDictionary
280
     1
281
     1
  3
ACAD_SORTENTS
360
B1BA
  0
DICTIONARY
  5
AB06
102
{ACAD_REACTORS
330
C
102
}
330
C
100
AcDbDictionary
280
     1
281
     1
  0
DICTIONARY
  5
A91D
102
{ACAD_REACTORS
330
C
102
}
330
C
100
AcDbDictionary
281
     1
  0
DICTIONARY
  5
D
102
{ACAD_REACTORS
330
C
102
}
330
C
100
AcDbDictionary
281
     1
  0
DICTIONARY
  5
1A
102
{ACAD_REACTORS
330
C
102
}
330
C
100
AcDbDictionary
281
     1
  3
Model
350
22
  3
ﾚｲｱｳﾄ1
350
1E
  3
ﾚｲｱｳﾄ2
350
26
  0
DICTIONARY
  5
A91C
102
{ACAD_REACTORS
330
C
102
}
330
C
100
AcDbDictionary
281
     1
  3
ByBlock
350
B0EF
  3
ByLayer
350
B0EE
  3
Global
350
B0F0
  0
DICTIONARY
  5
17
102
{ACAD_REACTORS
330
C
102
}
330
C
100
AcDbDictionary
281
     1
  3
Standard
350
18
  0
DICTIONARY
  5
19
102
{ACAD_REACTORS
330
C
102
}
330
C
100
AcDbDictionary
281
     1
  0
ACDBDICTIONARYWDFLT
  5
E
102
{ACAD_REACTORS
330
C
102
}
330
C
100
AcDbDictionary
281
     1
  3
Normal
350
F
100
AcDbDictionaryWithDefault
340
F
  0
DICTIONARY
  5
AAB9
102
{ACAD_REACTORS
330
C
102
}
330
C
100
AcDbDictionary
281
     1
  3
Standard
350
AABA
  0
DICTIONARY
  5
B0F1
102
{ACAD_REACTORS
330
C
102
}
330
C
100
AcDbDictionary
281
     1
  3
2dWireframe
350
B0F7
  3
3D Hidden
350
B0F9
  3
3dWireframe
350
B0F8
  3
Basic
350
B0F6
  3
Brighten
350
B0FD
  3
ColorChange
350
B101
  3
Conceptual
350
B0FA
  3
Dim
350
B0FC
  3
Facepattern
350
B100
  3
Flat
350
B0F2
  3
FlatWithEdges
350
B0F3
  3
Gouraud
350
B0F4
  3
GouraudWithEdges
350
B0F5
  3
Linepattern
350
B0FF
  3
Realistic
350
B0FB
  3
Thicken
350
B0FE
  0
ACAD_PROXY_OBJECT
  5
3DA1
102
{ACAD_REACTORS
330
C
102
}
330
C
100
AcDbProxyObject
 90
      499
 91
      576
 95
   917527
 70
     0
 93
       10
310
407F
 94
        0
  0
ACAD_PROXY_OBJECT
  5
3DE9
102
{ACAD_REACTORS
330
C
102
}
330
C
100
AcDbProxyObject
 90
      499
 91
      581
 95
   917527
 70
     0
 93
       34
310
010000407F
 94
        0
  0
DICTIONARY
  5
34
102
{ACAD_REACTORS
330
C
102
}
330
C
100
AcDbDictionary
281
     1
  3
CTABLESTYLE
350
AAF3
  3
DIMASSOC
350
A10C
  3
FIELDEVAL
350
AB07
  3
INDEXCTL
350
35
  3
SORTENTS
350
194C
  0
DICTIONARY
  5
47
102
{ACAD_REACTORS
330
C
102
}
330
C
100
AcDbDictionary
281
     1
  3
AcmBOM
350
7E8
  3
AcmStdDictionary
350
4C
  3
AMDTSECTSYM_ARROWCOLOR
350
A929
  0
ACAD_PROXY_OBJECT
  5
3DEA
102
{ACAD_REACTORS
330
C
102
}
330
C
100
AcDbProxyObject
 90
      499
 91
      582
 95
   917527
 70
     0
 93
      114
310
00000043800000000000000000003F
 94
        0
  0
ACAD_PROXY_OBJECT
  5
3E06
102
{ACAD_REACTORS
330
C
102
}
330
C
100
AcDbProxyObject
 90
      499
 91
      594
 95
   917527
 70
     0
 93
       34
310
05000044FF
 94
        0
  0
DICTIONARY
  5
2B
102
{ACAD_REACTORS
330
C
102
}
330
C
100
AcDbDictionary
281
     1
  0
DICTIONARY
  5
7D
102
{ACAD_REACTORS
330
C
102
}
330
C
100
AcDbDictionary
281
     1
  0
DICTIONARY
  5
B331
102
{ACAD_REACTORS
330
C
102
}
330
C
100
AcDbDictionary
281
     1
  3
ASEBlockHierarchyIndexRecord
350
B332
1001
DCO15
1040
1594111214.218
  0
ACAD_PROXY_OBJECT
  5
3DEB
102
{ACAD_REACTORS
330
C
102
}
330
C
100
AcDbProxyObject
 90
      499
 91
      583
 95
   917527
 70
     0
 93
        8
310
047C
 94
        0
  0
DICTIONARY
  5
B3C7
102
{ACAD_REACTORS
330
3F95
102
}
330
3F95
100
AcDbDictionary
281
     1
  0
DICTIONARY
  5
3F96
102
{ACAD_REACTORS
330
3F95
102
}
330
3F95
100
AcDbDictionary
281
     1
  3
20011210
350
3FB7
  0
DICTIONARY
  5
B3C6
102
{ACAD_REACTORS
330
3F95
102
}
330
3F95
100
AcDbDictionary
281
     1
1001
ACAD
1000
<All
  0
DICTIONARY
  5
AAB4
102
{ACAD_REACTORS
330
3F95
102
}
330
3F95
100
AcDbDictionary
280
     1
281
     1
  0
SORTENTSTABLE
  5
B1BA
102
{ACAD_REACTORS
330
8A
102
}
330
8A
100
AcDbSortentsTable
330
1F
331
C7D8
  5
C7F3
331
C63D
  5
C63D
331
C7D9
  5
C7F4
331
C7DA
  5
C7F5
331
C7F0
  5
C81C
331
C63E
  5
C63E
331
C7F1
  5
C823
331
C7DB
  5
C7F6
331
C63F
  5
C63F
331
C7BD
  5
C7BD
331
C640
  5
C640
331
C7BE
  5
C7BE
331
C7F2
  5
C824
331
C7F3
  5
C825
331
C641
  5
C641
331
C7BF
  5
C7BF
331
C642
  5
C642
331
C7C0
  5
C7C1
331
C7F4
  5
C826
331
C7F5
  5
C829
331
C643
  5
C643
331
C7C1
  5
C7CB
331
C7E0
  5
C7F7
331
C644
  5
C644
331
C7C2
  5
C7CE
331
C7F6
  5
C82A
331
C7F7
  5
C82B
331
C7E1
  5
C7F8
331
C645
  5
C645
331
C7C3
  5
C7CF
331
C7F8
  5
C82C
331
C81E
  5
C89C
331
C7E2
  5
C7F9
331
C646
  5
C646
331
C7C4
  5
C7D0
331
C7F9
  5
C84D
331
C81F
  5
C89E
331
C647
  5
C647
331
C7E3
  5
C7FA
331
C7FA
  5
C854
331
C820
  5
C89F
331
C648
  5
C648
331
C7E4
  5
C7FB
331
C7FB
  5
C856
331
C821
  5
C8A0
331
C649
  5
C649
331
C7E5
  5
C7FC
331
C7FC
  5
C857
331
C64A
  5
C64A
331
C7E6
  5
C7FD
331
C7E7
  5
C7FE
331
C7C9
  5
C7D1
331
C64B
  5
C64B
331
C7FE
  5
C858
331
C824
  5
C8A2
331
C7E8
  5
C7FF
331
C64C
  5
C64C
331
C7CA
  5
C7DA
331
C7E9
  5
C800
331
C7CB
  5
C7DC
331
C64D
  5
C64D
331
C7FF
  5
C85B
331
C800
  5
C85C
331
C826
  5
C8B2
331
C7EA
  5
C802
331
C64E
  5
C64E
331
C7CC
  5
C7DE
331
C801
  5
C85D
331
C827
  5
C8B3
331
C7EB
  5
C803
331
C7CD
  5
C7E5
331
C64F
  5
C64F
331
C802
  5
C85E
331
C828
  5
C8B4
331
C7EC
  5
C80B
331
C650
  5
C650
331
C7CE
  5
C7EA
331
C7ED
  5
C80C
331
C651
  5
C651
331
C7CF
  5
C7EC
331
C82A
  5
C8B5
331
C7EE
  5
C81A
331
C652
  5
C652
331
C7D0
  5
C7ED
331
C805
  5
C85F
331
C7EF
  5
C81B
331
C653
  5
C653
331
C7D1
  5
C7EF
331
C654
  5
C654
331
C806
  5
C860
331
DF99
  5
DFB6
331
C807
  5
C861
331
C7D3
  5
C7F1
331
C808
  5
C862
331
C657
  5
C657
331
C809
  5
C863
331
C80A
  5
C864
331
C80B
  5
C896
331
C80C
  5
C898
331
C80D
  5
C89A
331
D436
  5
DCB1
331
EE38
  5
EEDE
331
E9F3
  5
EDAD
331
DF83
  5
DF99
331
DB18
  5
DCB6
331
DB19
  5
DCB8
331
DB88
  5
C89B
331
DB1A
  5
C7EE
331
DB1B
  5
C7F2
331
DB89
  5
C7DD
331
DB8A
  5
C899
331
DB1C
  5
DCB7
331
DB8B
  5
C7E0
331
DB1D
  5
C7F0
331
DB8C
  5
C895
331
DB1E
  5
DCB5
331
DB8D
  5
C7D4
331
DB8E
  5
C897
331
DB8F
  5
C7DB
331
DCB2
  5
C806
331
DCB3
  5
C810
331
DB5C
  5
DCB9
331
DCB5
  5
C805
331
DCB6
  5
C80E
331
DCB7
  5
C80D
331
DB5F
  5
DD6F
331
DCB8
  5
C804
331
DADA
  5
DCB3
331
DADB
  5
C7E9
331
DCB9
  5
DD7B
331
DD6F
  5
DD7E
331
DD06
  5
DD7D
331
DD97
  5
DE2A
331
DAFB
  5
C7EB
331
DBF7
  5
DD7A
331
DDB6
  5
DE2B
331
DD7A
  5
DD7F
331
DD7B
  5
DD80
331
DD7C
  5
DD81
331
DD7D
  5
DD82
331
DEB4
  5
DEFA
331
DD7E
  5
DD83
331
DD7F
  5
DD84
331
DD80
  5
DD97
331
DCF0
  5
DD7C
331
DD81
  5
DDB6
331
DD82
  5
DE00
331
DD83
  5
DE01
331
DD84
  5
DE29
331
DE29
  5
DE86
331
DE86
  5
DE89
331
DE2A
  5
DE88
331
DE87
  5
DE8A
331
DE88
  5
DE8D
331
DE89
  5
DEA7
331
DE8A
  5
DEA8
331
DEFA
  5
DF83
331
DE8D
  5
DEB4
  0
LAYOUT
  5
22
102
{ACAD_REACTORS
330
1A
102
}
330
1A
100
AcDbPlotSettings
  1

  2
FX DocuWide 2050/2051
  4
A3
  6
AM_VIEW1
 40
3.174999952316284
 41
3.174999952316284
 42
3.17498779296875
 43
3.17498779296875
 44
296.989501953125
 45
419.9889831542968
 46
0.0
 47
1.295841228961961
 48
214.3704939521119
 49
367.5855324241176
140
275.6727856380065
141
407.629191407817
142
1.0
143
0.7225445603030646
 70
  3764
 72
     1
 73
     1
 74
     2
  7
monochrome.ctb
 75
     0
147
1.383997686703999
 76
     0
 77
     2
 78
   200
148
-1700.85588156276
149
-1647.985052086429
100
AcDbLayout
  1
Model
 70
     1
 71
     0
 10
0.0
 20
0.0
 11
12.0
 21
9.0
 12
0.0
 22
0.0
 32
0.0
 14
0.0
 24
0.0
 34
0.0
 15
0.0
 25
0.0
 35
0.0
146
0.0
 13
0.0
 23
0.0
 33
0.0
 16
1.0
 26
0.0
 36
0.0
 17
0.0
 27
1.0
 37
0.0
 76
     0
330
1F
331
B0EC
1001
ACAD_PSEXT
1000
FX DocuWide 2050/2051
1000
FX DocuWide 2050/2051
1000
IP_192.200.15.252
1000

1070
     0
  0
LAYOUT
  5
1E
102
{ACAD_REACTORS
330
1A
102
}
330
1A
100
AcDbPlotSettings
  1

  2
\\ML370\XEROX
  4
A4
  6

 40
3.174999952316284
 41
3.174999952316284
 42
3.175003051757812
 43
3.17498779296875
 44
209.8674926757813
 45
296.6719970703125
 46
0.0
 47
0.0
 48
0.0
 49
0.0
140
0.0
141
0.0
142
1.0
143
1.0
 70
   688
 72
     1
 73
     1
 74
     5
  7
monochrome.ctb
 75
    16
147
1.0
 76
     0
 77
     2
 78
   300
148
0.0
149
0.0
100
AcDbLayout
  1
ﾚｲｱｳﾄ1
 70
     1
 71
     1
 10
-3.17498779296875
 20
-3.174999952316284
 11
293.4970092773438
 21
206.692492723465
 12
0.0
 22
0.0
 32
0.0
 14
1.000000000000000E+20
 24
1.000000000000000E+20
 34
1.000000000000000E+20
 15
-1.000000000000000E+20
 25
-1.000000000000000E+20
 35
-1.000000000000000E+20
146
0.0
 13
0.0
 23
0.0
 33
0.0
 16
1.0
 26
0.0
 36
0.0
 17
0.0
 27
1.0
 37
0.0
 76
     0
330
1B
  0
LAYOUT
  5
26
102
{ACAD_REACTORS
330
1A
102
}
330
1A
100
AcDbPlotSettings
  1

  2
\\ML370\XEROX
  4

  6

 40
0.0
 41
0.0
 42
0.0
 43
0.0
 44
0.0
 45
0.0
 46
0.0
 47
0.0
 48
0.0
 49
0.0
140
0.0
141
0.0
142
1.0
143
1.0
 70
   688
 72
     0
 73
     0
 74
     5
  7
monochrome.ctb
 75
    16
147
1.0
 76
     0
 77
     2
 78
   300
148
0.0
149
0.0
100
AcDbLayout
  1
ﾚｲｱｳﾄ2
 70
     1
 71
     2
 10
0.0
 20
0.0
 11
12.0
 21
9.0
 12
0.0
 22
0.0
 32
0.0
 14
0.0
 24
0.0
 34
0.0
 15
0.0
 25
0.0
 35
0.0
146
0.0
 13
0.0
 23
0.0
 33
0.0
 16
1.0
 26
0.0
 36
0.0
 17
0.0
 27
1.0
 37
0.0
 76
     0
330
23
  0
MATERIAL
  5
B0EF
102
{ACAD_REACTORS
330
A91C
102
}
330
A91C
100
AcDbMaterial
  1
ByBlock
  0
MATERIAL
  5
B0EE
102
{ACAD_REACTORS
330
A91C
102
}
330
A91C
100
AcDbMaterial
  1
ByLayer
  0
MATERIAL
  5
B0F0
102
{ACAD_REACTORS
330
A91C
102
}
330
A91C
100
AcDbMaterial
  1
Global
  0
MLINESTYLE
  5
18
102
{ACAD_REACTORS
330
17
102
}
330
17
100
AcDbMlineStyle
  2
STANDARD
 70
     0
  3

 62
   256
 51
90.0
 52
90.0
 71
     2
 49
0.5
 62
   256
  6
BYLAYER
 49
-0.5
 62
   256
  6
BYLAYER
  0
ACDBPLACEHOLDER
  5
F
102
{ACAD_REACTORS
330
E
102
}
330
E
  0
TABLESTYLE
  5
AABA
102
{ACAD_REACTORS
330
AAB9
102
}
330
AAB9
100
AcDbTableStyle
  3
Standard
 70
     0
 71
     0
 40
1.5
 41
1.5
280
     0
281
     0
  7
STANDARD
140
4.5
170
     2
 62
     0
 63
     7
283
     0
 90
        4
 91
        0
  1

274
    -2
284
     1
 64
     0
275
    -2
285
     1
 65
     0
276
    -2
286
     1
 66
     0
277
    -2
287
     1
 67
     0
278
    -2
288
     1
 68
     0
279
    -2
289
     1
 69
     0
  7
STANDARD
140
6.0
170
     5
 62
     0
 63
     7
283
     0
 90
        4
 91
        0
  1

274
    -2
284
     1
 64
     0
275
    -2
285
     1
 65
     0
276
    -2
286
     1
 66
     0
277
    -2
287
     1
 67
     0
278
    -2
288
     1
 68
     0
279
    -2
289
     1
 69
     0
  7
STANDARD
140
4.5
170
     5
 62
     0
 63
     7
283
     0
 90
        4
 91
        0
  1

274
    -2
284
     1
 64
     0
275
    -2
285
     1
 65
     0
276
    -2
286
     1
 66
     0
277
    -2
287
     1
 67
     0
278
    -2
288
     1
 68
     0
279
    -2
289
     1
 69
     0
  0
VISUALSTYLE
  5
B0F7
102
{ACAD_REACTORS
330
B0F1
102
}
330
B0F1
100
AcDbVisualStyle
  2
2dWireframe
 70
     4
 71
     0
 72
     2
 73
     0
 90
        0
 40
-0.6
 41
-30.0
 62
     5
 63
     7
421
 16777215
 74
     1
 91
        4
 64
     7
 65
   257
 75
     1
175
     1
 42
1.0
 92
        0
 66
   257
 43
1.0
 76
     1
 77
     6
 78
     2
 67
     7
 79
     5
170
     0
171
     0
290
     0
174
     0
 93
        1
 44
0.0
173
     0
291
     0
 45
0.0
  0
VISUALSTYLE
  5
B0F9
102
{ACAD_REACTORS
330
B0F1
102
}
330
B0F1
100
AcDbVisualStyle
  2
3D Hidden
 70
     6
 71
     1
 72
     2
 73
     2
 90
        0
 40
-0.6
 41
-30.0
 62
     5
 63
     7
421
 16777215
 74
     2
 91
        2
 64
     7
 65
   257
 75
     2
175
     1
 42
40.0
 92
        0
 66
   257
 43
1.0
 76
     1
 77
     6
 78
     2
 67
     7
 79
     3
170
     0
171
     0
290
     0
174
     0
 93
        1
 44
0.0
173
     0
291
     0
 45
0.0
  0
VISUALSTYLE
  5
B0F8
102
{ACAD_REACTORS
330
B0F1
102
}
330
B0F1
100
AcDbVisualStyle
  2
3dWireframe
 70
     5
 71
     0
 72
     2
 73
     0
 90
        0
 40
-0.6
 41
-30.0
 62
     5
 63
     7
421
 16777215
 74
     1
 91
        4
 64
     7
 65
   257
 75
     1
175
     1
 42
1.0
 92
        0
 66
   257
 43
1.0
 76
     1
 77
     6
 78
     2
 67
     7
 79
     5
170
     0
171
     0
290
     0
174
     0
 93
        1
 44
0.0
173
     0
291
     0
 45
0.0
  0
VISUALSTYLE
  5
B0F6
102
{ACAD_REACTORS
330
B0F1
102
}
330
B0F1
100
AcDbVisualStyle
  2
Basic
 70
     7
 71
     1
 72
     0
 73
     1
 90
        0
 40
-0.6
 41
-30.0
 62
     5
 63
     7
421
 16777215
 74
     0
 91
        4
 64
     7
 65
   257
 75
     1
175
     1
 42
1.0
 92
        8
 66
     7
 43
1.0
 76
     1
 77
     6
 78
     2
 67
     7
 79
     5
170
     0
171
     0
290
     0
174
     0
 93
        1
 44
0.0
173
     0
291
     1
 45
0.0
  0
VISUALSTYLE
  5
B0FD
102
{ACAD_REACTORS
330
B0F1
102
}
330
B0F1
100
AcDbVisualStyle
  2
Brighten
 70
    12
 71
     2
 72
     2
 73
     0
 90
        0
 40
-0.6
 41
-30.0
 62
     5
 63
     7
421
 16777215
 74
     1
 91
        4
 64
     7
 65
   257
 75
     1
175
     1
 42
1.0
 92
        8
 66
     7
 43
1.0
 76
     1
 77
     6
 78
     2
 67
     7
 79
     5
170
     0
171
     0
290
     0
174
     0
 93
        1
 44
50.0
173
     0
291
     1
 45
0.0
  0
VISUALSTYLE
  5
B101
102
{ACAD_REACTORS
330
B0F1
102
}
330
B0F1
100
AcDbVisualStyle
  2
ColorChange
 70
    16
 71
     2
 72
     2
 73
     3
 90
        0
 40
-0.6
 41
-30.0
 62
     5
 63
     8
421
  8421504
 74
     1
 91
        4
 64
     7
 65
   257
 75
     1
175
     1
 42
1.0
 92
        8
 66
     8
424
  8421504
 43
1.0
 76
     1
 77
     6
 78
     2
 67
     7
 79
     5
170
     0
171
     0
290
     0
174
     0
 93
        1
 44
0.0
173
     0
291
     1
 45
0.0
  0
VISUALSTYLE
  5
B0FA
102
{ACAD_REACTORS
330
B0F1
102
}
330
B0F1
100
AcDbVisualStyle
  2
Conceptual
 70
     9
 71
     3
 72
     2
 73
     0
 90
        0
 40
-0.6
 41
-30.0
 62
     5
 63
     7
421
 16777215
 74
     2
 91
        2
 64
     7
 65
   257
 75
     1
175
     1
 42
40.0
 92
        8
 66
     7
 43
1.0
 76
     1
 77
     6
 78
     2
 67
     7
 79
     3
170
     0
171
     0
290
     0
174
     0
 93
        1
 44
0.0
173
     0
291
     0
 45
0.0
  0
VISUALSTYLE
  5
B0FC
102
{ACAD_REACTORS
330
B0F1
102
}
330
B0F1
100
AcDbVisualStyle
  2
Dim
 70
    11
 71
     2
 72
     2
 73
     0
 90
        0
 40
-0.6
 41
-30.0
 62
     5
 63
     7
421
 16777215
 74
     1
 91
        4
 64
     7
 65
   257
 75
     1
175
     1
 42
1.0
 92
        8
 66
     7
 43
1.0
 76
     1
 77
     6
 78
     2
 67
     7
 79
     5
170
     0
171
     0
290
     0
174
     0
 93
        1
 44
-50.0
173
     0
291
     1
 45
0.0
  0
VISUALSTYLE
  5
B100
102
{ACAD_REACTORS
330
B0F1
102
}
330
B0F1
100
AcDbVisualStyle
  2
Facepattern
 70
    15
 71
     2
 72
     2
 73
     0
 90
        0
 40
-0.6
 41
-30.0
 62
     5
 63
     7
421
 16777215
 74
     1
 91
        4
 64
     7
 65
   257
 75
     1
175
     1
 42
1.0
 92
        8
 66
     7
 43
1.0
 76
     1
 77
     6
 78
     2
 67
     7
 79
     5
170
     0
171
     0
290
     0
174
     0
 93
        1
 44
0.0
173
     0
291
     1
 45
0.0
  0
VISUALSTYLE
  5
B0F2
102
{ACAD_REACTORS
330
B0F1
102
}
330
B0F1
100
AcDbVisualStyle
  2
Flat
 70
     0
 71
     2
 72
     1
 73
     1
 90
        2
 40
-0.6
 41
30.0
 62
     5
 63
     7
421
 16777215
 74
     0
 91
        4
 64
     7
 65
   257
 75
     1
175
     1
 42
1.0
 92
        8
 66
     7
 43
1.0
 76
     1
 77
     6
 78
     2
 67
     7
 79
     5
170
     0
171
     0
290
     0
174
     0
 93
       13
 44
0.0
173
     0
291
     1
 45
0.0
  0
VISUALSTYLE
  5
B0F3
102
{ACAD_REACTORS
330
B0F1
102
}
330
B0F1
100
AcDbVisualStyle
  2
FlatWithEdges
 70
     1
 71
     2
 72
     1
 73
     1
 90
        2
 40
-0.6
 41
30.0
 62
     5
 63
     7
421
 16777215
 74
     1
 91
        4
 64
     7
 65
   257
 75
     1
175
     1
 42
1.0
 92
        0
 66
   257
 43
1.0
 76
     1
 77
     6
 78
     2
 67
     7
 79
     5
170
     0
171
     0
290
     0
174
     0
 93
       13
 44
0.0
173
     0
291
     1
 45
0.0
  0
VISUALSTYLE
  5
B0F4
102
{ACAD_REACTORS
330
B0F1
102
}
330
B0F1
100
AcDbVisualStyle
  2
Gouraud
 70
     2
 71
     2
 72
     2
 73
     1
 90
        2
 40
-0.6
 41
30.0
 62
     5
 63
     7
421
 16777215
 74
     0
 91
        4
 64
     7
 65
   257
 75
     1
175
     1
 42
1.0
 92
        0
 66
     7
 43
1.0
 76
     1
 77
     6
 78
     2
 67
     7
 79
     5
170
     0
171
     0
290
     0
174
     0
 93
       13
 44
0.0
173
     0
291
     1
 45
0.0
  0
VISUALSTYLE
  5
B0F5
102
{ACAD_REACTORS
330
B0F1
102
}
330
B0F1
100
AcDbVisualStyle
  2
GouraudWithEdges
 70
     3
 71
     2
 72
     2
 73
     1
 90
        2
 40
-0.6
 41
30.0
 62
     5
 63
     7
421
 16777215
 74
     1
 91
        4
 64
     7
 65
   257
 75
     1
175
     1
 42
1.0
 92
        0
 66
   257
 43
1.0
 76
     1
 77
     6
 78
     2
 67
     7
 79
     5
170
     0
171
     0
290
     0
174
     0
 93
       13
 44
0.0
173
     0
291
     1
 45
0.0
  0
VISUALSTYLE
  5
B0FF
102
{ACAD_REACTORS
330
B0F1
102
}
330
B0F1
100
AcDbVisualStyle
  2
Linepattern
 70
    14
 71
     2
 72
     2
 73
     0
 90
        0
 40
-0.6
 41
-30.0
 62
     5
 63
     7
421
 16777215
 74
     1
 91
        4
 64
     7
 65
   257
 75
     7
175
     7
 42
1.0
 92
        8
 66
     7
 43
1.0
 76
     1
 77
     6
 78
     2
 67
     7
 79
     5
170
     0
171
     0
290
     0
174
     0
 93
        1
 44
0.0
173
     0
291
     1
 45
0.0
  0
VISUALSTYLE
  5
B0FB
102
{ACAD_REACTORS
330
B0F1
102
}
330
B0F1
100
AcDbVisualStyle
  2
Realistic
 70
     8
 71
     2
 72
     2
 73
     0
 90
        0
 40
-0.6
 41
-30.0
 62
     5
 63
     7
421
 16777215
 74
     1
 91
        0
 64
     7
 65
   257
 75
     1
175
     1
 42
1.0
 92
        8
 66
     8
424
  7895160
 43
1.0
 76
     1
 77
     6
 78
     2
 67
     7
 79
     5
170
     0
171
     0
290
     0
174
     0
 93
       13
 44
0.0
173
     0
291
     0
 45
0.0
  0
VISUALSTYLE
  5
B0FE
102
{ACAD_REACTORS
330
B0F1
102
}
330
B0F1
100
AcDbVisualStyle
  2
Thicken
 70
    13
 71
     2
 72
     2
 73
     0
 90
        0
 40
-0.6
 41
-30.0
 62
     5
 63
     7
421
 16777215
 74
     1
 91
        4
 64
     7
 65
   257
 75
     1
175
     1
 42
1.0
 92
       12
 66
     7
 43
1.0
 76
     1
 77
     6
 78
     2
 67
     7
 79
     5
170
     0
171
     0
290
     0
174
     0
 93
        1
 44
0.0
173
     0
291
     1
 45
0.0
  0
DICTIONARYVAR
  5
AAF3
102
{ACAD_REACTORS
330
34
102
}
330
34
100
DictionaryVariables
280
     0
  1
STANDARD
  0
DICTIONARYVAR
  5
A10C
102
{ACAD_REACTORS
330
34
102
}
330
34
100
DictionaryVariables
280
     0
  1
1
  0
DICTIONARYVAR
  5
AB07
102
{ACAD_REACTORS
330
34
102
}
330
34
100
DictionaryVariables
280
     0
  1
4
  0
DICTIONARYVAR
  5
35
102
{ACAD_REACTORS
330
34
102
}
330
34
100
DictionaryVariables
280
     0
  1
1
  0
DICTIONARYVAR
  5
194C
102
{ACAD_REACTORS
330
34
102
}
330
34
100
DictionaryVariables
280
     0
  1
96
  0
DICTIONARY
  5
7E8
102
{ACAD_REACTORS
330
47
102
}
330
47
100
AcDbDictionary
281
     1
  0
DICTIONARY
  5
4C
102
{ACAD_REACTORS
330
47
102
}
330
47
100
AcDbDictionary
281
     1
  0
XRECORD
  5
A929
102
{ACAD_REACTORS
330
47
102
}
330
47
100
AcDbXrecord
280
     1
 90
-1023410169
  0
XRECORD
  5
B332
102
{ACAD_REACTORS
330
B331
102
}
330
B331
100
AcDbXrecord
280
     1
  0
XRECORD
  5
3FB7
102
{ACAD_REACTORS
330
3F96
102
}
330
3F96
100
AcDbXrecord
280
     1
 91
        3
330
0
 90
        8
 62
     7
370
    40
331
16
  1
Color_7
330
0
 90
        0
 62
    14
370
    -3
331
16
  1
Color_14
330
0
 90
        8
 62
     7
370
    20
331
16
  1
Color_7
330
6D1
 90
        0
 62
     7
370
    -3
331
16
  1
Color_7
330
0
 90
        8
 62
     7
370
    50
331
16
  1
Color_7
330
0
 90
        8
 62
     2
370
    35
331
16
  1
Color_2
330
0
 90
        8
 62
     7
370
    -3
331
16
  1
Color_7
330
10
 90
        8
 62
     7
370
    -3
331
16
  1
Color_7
  0
ENDSEC
  0
EOF
