  0
SECTION
  2
HEADER
  9
$ACADVER
  1
AC1015
  9
$ACADMAINTVER
 70
    20
  9
$DWGCODEPAGE
  3
ANSI_932
  9
$INSBASE
 10
0.0
 20
0.0
 30
0.0
  9
$EXTMIN
 10
-211.0232533300024
 20
-100.0166618348837
 30
-0.0000000349181948
  9
$EXTMAX
 10
170.0232568784497
 20
173.0166643774718
 30
0.0000000814935747
  9
$LIMMIN
 10
-211.0
 20
-100.0
  9
$LIMMAX
 10
170.0
 20
173.0
  9
$ORTHOMODE
 70
     0
  9
$REGENMODE
 70
     1
  9
$FILLMODE
 70
     1
  9
$QTEXTMODE
 70
     0
  9
$MIRRTEXT
 70
     1
  9
$LTSCALE
 40
1.0
  9
$ATTMODE
 70
     1
  9
$TEXTSIZE
 40
0.2
  9
$TRACEWID
 40
0.05
  9
$TEXTSTYLE
  7
STANDARD
  9
$CLAYER
  8
0
  9
$CELTYPE
  6
CONTINUOUS
  9
$CECOLOR
 62
   256
  9
$CELTSCALE
 40
1.0
  9
$DISPSILH
 70
     0
  9
$DIMSCALE
 40
1.0
  9
$DIMASZ
 40
1.0
  9
$DIMEXO
 40
2.54
  9
$DIMDLI
 40
0.38
  9
$DIMRND
 40
0.0
  9
$DIMDLE
 40
0.0
  9
$DIMEXE
 40
2.54
  9
$DIMTP
 40
0.0
  9
$DIMTM
 40
0.0
  9
$DIMTXT
 40
3.2
  9
$DIMCEN
 40
0.09
  9
$DIMTSZ
 40
0.0
  9
$DIMTOL
 70
     0
  9
$DIMLIM
 70
     0
  9
$DIMTIH
 70
     0
  9
$DIMTOH
 70
     0
  9
$DIMSE1
 70
     0
  9
$DIMSE2
 70
     0
  9
$DIMTAD
 70
     1
  9
$DIMZIN
 70
     0
  9
$DIMBLK
  1

  9
$DIMASO
 70
     1
  9
$DIMSHO
 70
     0
  9
$DIMPOST
  1

  9
$DIMAPOST
  1

  9
$DIMALT
 70
     0
  9
$DIMALTD
 70
     2
  9
$DIMALTF
 40
25.4
  9
$DIMLFAC
 40
1.0
  9
$DIMTOFL
 70
     0
  9
$DIMTVP
 40
1.0
  9
$DIMTIX
 70
     0
  9
$DIMSOXD
 70
     0
  9
$DIMSAH
 70
     1
  9
$DIMBLK1
  1

  9
$DIMBLK2
  1

  9
$DIMSTYLE
  2
DIMSTYLE
  9
$DIMCLRD
 70
     0
  9
$DIMCLRE
 70
     0
  9
$DIMCLRT
 70
     0
  9
$DIMTFAC
 40
1.0
  9
$DIMGAP
 40
1.6
  9
$DIMJUST
 70
     0
  9
$DIMSD1
 70
     0
  9
$DIMSD2
 70
     0
  9
$DIMTOLJ
 70
     1
  9
$DIMTZIN
 70
     0
  9
$DIMALTZ
 70
     0
  9
$DIMALTTZ
 70
     0
  9
$DIMUPT
 70
     0
  9
$DIMDEC
 70
     4
  9
$DIMTDEC
 70
     4
  9
$DIMALTU
 70
     2
  9
$DIMALTTD
 70
     2
  9
$DIMTXSTY
  7
STANDARD
  9
$DIMAUNIT
 70
     0
  9
$DIMADEC
 70
     0
  9
$DIMALTRND
 40
0.0
  9
$DIMAZIN
 70
     0
  9
$DIMDSEP
 70
    46
  9
$DIMATFIT
 70
     3
  9
$DIMFRAC
 70
     0
  9
$DIMLDRBLK
  1

  9
$DIMLUNIT
 70
     2
  9
$DIMLWD
 70
    -2
  9
$DIMLWE
 70
    -2
  9
$DIMTMOVE
 70
     0
  9
$LUNITS
 70
     2
  9
$LUPREC
 70
     4
  9
$SKETCHINC
 40
0.1
  9
$FILLETRAD
 40
0.0
  9
$AUNITS
 70
     0
  9
$AUPREC
 70
     0
  9
$MENU
  1
.
  9
$ELEVATION
 40
0.0
  9
$PELEVATION
 40
0.0
  9
$THICKNESS
 40
0.0
  9
$LIMCHECK
 70
     0
  9
$CHAMFERA
 40
0.0
  9
$CHAMFERB
 40
0.0
  9
$CHAMFERC
 40
0.0
  9
$CHAMFERD
 40
0.0
  9
$SKPOLY
 70
     0
  9
$TDCREATE
 40
2452815.812088194
  9
$TDUCREATE
 40
2452815.437088194
  9
$TDUPDATE
 40
2455075.705388900
  9
$TDUUPDATE
 40
2455075.330388901
  9
$TDINDWG
 40
0.0439784722
  9
$TDUSRTIMER
 40
0.0439754051
  9
$USRTIMER
 70
     1
  9
$ANGBASE
 50
0.0
  9
$ANGDIR
 70
     0
  9
$PDMODE
 70
     0
  9
$PDSIZE
 40
0.0
  9
$PLINEWID
 40
0.0
  9
$SPLFRAME
 70
     0
  9
$SPLINETYPE
 70
     6
  9
$SPLINESEGS
 70
     8
  9
$HANDSEED
  5
2E4
  9
$SURFTAB1
 70
     6
  9
$SURFTAB2
 70
     6
  9
$SURFTYPE
 70
     6
  9
$SURFU
 70
     6
  9
$SURFV
 70
     6
  9
$UCSBASE
  2

  9
$UCSNAME
  2

  9
$UCSORG
 10
0.0
 20
0.0
 30
0.0
  9
$UCSXDIR
 10
1.0
 20
0.0
 30
0.0
  9
$UCSYDIR
 10
0.0
 20
1.0
 30
0.0
  9
$UCSORTHOREF
  2

  9
$UCSORTHOVIEW
 70
     0
  9
$UCSORGTOP
 10
0.0
 20
0.0
 30
0.0
  9
$UCSORGBOTTOM
 10
0.0
 20
0.0
 30
0.0
  9
$UCSORGLEFT
 10
0.0
 20
0.0
 30
0.0
  9
$UCSORGRIGHT
 10
0.0
 20
0.0
 30
0.0
  9
$UCSORGFRONT
 10
0.0
 20
0.0
 30
0.0
  9
$UCSORGBACK
 10
0.0
 20
0.0
 30
0.0
  9
$PUCSBASE
  2

  9
$PUCSNAME
  2

  9
$PUCSORG
 10
0.0
 20
0.0
 30
0.0
  9
$PUCSXDIR
 10
1.0
 20
0.0
 30
0.0
  9
$PUCSYDIR
 10
0.0
 20
1.0
 30
0.0
  9
$PUCSORTHOREF
  2

  9
$PUCSORTHOVIEW
 70
     0
  9
$PUCSORGTOP
 10
0.0
 20
0.0
 30
0.0
  9
$PUCSORGBOTTOM
 10
0.0
 20
0.0
 30
0.0
  9
$PUCSORGLEFT
 10
0.0
 20
0.0
 30
0.0
  9
$PUCSORGRIGHT
 10
0.0
 20
0.0
 30
0.0
  9
$PUCSORGFRONT
 10
0.0
 20
0.0
 30
0.0
  9
$PUCSORGBACK
 10
0.0
 20
0.0
 30
0.0
  9
$USERI1
 70
     0
  9
$USERI2
 70
     0
  9
$USERI3
 70
     0
  9
$USERI4
 70
     0
  9
$USERI5
 70
     0
  9
$USERR1
 40
0.0
  9
$USERR2
 40
0.0
  9
$USERR3
 40
0.0
  9
$USERR4
 40
0.0
  9
$USERR5
 40
0.0
  9
$WORLDVIEW
 70
     1
  9
$SHADEDGE
 70
     3
  9
$SHADEDIF
 70
    70
  9
$TILEMODE
 70
     1
  9
$MAXACTVP
 70
    64
  9
$PINSBASE
 10
0.0
 20
0.0
 30
0.0
  9
$PLIMCHECK
 70
     0
  9
$PEXTMIN
 10
1.000000000000000E+20
 20
1.000000000000000E+20
 30
1.000000000000000E+20
  9
$PEXTMAX
 10
-1.000000000000000E+20
 20
-1.000000000000000E+20
 30
-1.000000000000000E+20
  9
$PLIMMIN
 10
-211.0
 20
-100.0
  9
$PLIMMAX
 10
170.0
 20
173.0
  9
$UNITMODE
 70
     0
  9
$VISRETAIN
 70
     1
  9
$PLINEGEN
 70
     0
  9
$PSLTSCALE
 70
     1
  9
$TREEDEPTH
 70
  3020
  9
$CMLSTYLE
  2
Standard
  9
$CMLJUST
 70
     0
  9
$CMLSCALE
 40
1.0
  9
$PROXYGRAPHICS
 70
     1
  9
$MEASUREMENT
 70
     0
  9
$CELWEIGHT
370
    -1
  9
$ENDCAPS
280
     0
  9
$JOINSTYLE
280
     0
  9
$LWDISPLAY
290
     0
  9
$INSUNITS
 70
     0
  9
$HYPERLINKBASE
  1

  9
$STYLESHEET
  1

  9
$XEDIT
290
     1
  9
$CEPSNTYPE
380
     0
  9
$PSTYLEMODE
290
     1
  9
$FINGERPRINTGUID
  2
{9E404DFF-9570-4D87-A399-1A2C6BE67701}
  9
$VERSIONGUID
  2
{E1EBB292-89B7-42D7-805B-CC26D7ACA865}
  9
$EXTNAMES
290
     1
  9
$PSVPSCALE
 40
0.0
  9
$OLESTARTUP
290
     0
  0
ENDSEC
  0
SECTION
  2
CLASSES
  0
CLASS
  1
ACDBDICTIONARYWDFLT
  2
AcDbDictionaryWithDefault
  3
ObjectDBX Classes
 90
        0
280
     0
281
     0
  0
CLASS
  1
MATERIAL
  2
AcDbMaterial
  3
ObjectDBX Classes
 90
     1024
280
     0
281
     0
  0
CLASS
  1
VISUALSTYLE
  2
AcDbVisualStyle
  3
ObjectDBX Classes
 90
     4095
280
     0
281
     0
  0
CLASS
  1
TABLESTYLE
  2
AcDbTableStyle
  3
ObjectDBX Classes
 90
     4095
280
     0
281
     0
  0
CLASS
  1
AMGSETTINGSOBJ
  2
AmgSettingsObj
  3
"AcadM|Product Description: AutoCAD Mechanical|Company: Autodesk"
 90
        0
280
     0
281
     0
  0
CLASS
  1
ACME_DOCUMENT
  2
AcMeDbDoc
  3
AcMeServices
 90
        0
280
     0
281
     0
  0
CLASS
  1
ACMESCOPE
  2
AcMeScope
  3
AcMeServices
 90
        0
280
     0
281
     0
  0
CLASS
  1
ACMECOMMANDHISTORY
  2
AcMeCommandHistory
  3
AcMeServices
 90
        0
280
     0
281
     0
  0
CLASS
  1
ACIMSYSVARMAN
  2
AcImSysVarManager
  3
AcMeServices
 90
        0
280
     0
281
     0
  0
CLASS
  1
ACIMINTSYSVAR
  2
AcImIntSysVar
  3
AcMeServices
 90
        0
280
     0
281
     0
  0
CLASS
  1
ACMEDRAWINGMAN
  2
AcMeDrawingMan
  3
AcMeServices
 90
        0
280
     0
281
     0
  0
CLASS
  1
ACMEVIEW
  2
AcMeView
  3
AcMeServices
 90
        0
280
     0
281
     0
  0
CLASS
  1
ACDBENTITYCACHE
  2
AcMeEntityCache
  3
AcMeServices
 90
        0
280
     0
281
     0
  0
CLASS
  1
GSMANAGER
  2
AcMeGSManager
  3
AcMeServices
 90
        0
280
     0
281
     0
  0
CLASS
  1
AMDTINTERNALREACTOR
  2
AmdtInternalReactor
  3
AcMeServices
 90
        0
280
     0
281
     0
  0
CLASS
  1
ACMESTATEMGR
  2
AcMeStateMgr
  3
AcMeServices
 90
        0
280
     0
281
     0
  0
CLASS
  1
ACGREFMASTER
  2
AcGrefMaster
  3
AcAttribServices
 90
        0
280
     0
281
     0
  0
CLASS
  1
AM_DRAWING_MGR
  2
AcDmDwgMgr
  3
AcMechDwgViewMgmt
 90
        0
280
     0
281
     0
  0
CLASS
  1
AM_DWG_DOCUMENT
  2
AcDmDwgDocument
  3
AcMechDwgViewMgmt
 90
        0
280
     0
281
     0
  0
CLASS
  1
AM_DWG_SHEET
  2
AcDmSheet
  3
AcMechDwgViewMgmt
 90
        0
280
     0
281
     0
  0
CLASS
  1
AM_VIEWDIMPARMAP
  2
AcDmViewDimParMap
  3
AcMechDwgViewMgmt
 90
        0
280
     0
281
     0
  0
CLASS
  1
ACIMREALSYSVAR
  2
AcImRealSysVar
  3
AcMeServices
 90
        0
280
     0
281
     0
  0
CLASS
  1
AM_DWGMGR_NAME
  2
AcDmDwgMgrName
  3
AcMechDwgViewMgmt
 90
        0
280
     0
281
     0
  0
CLASS
  1
ACME_DATABASE
  2
AcMeDbDatabase
  3
AcMeServices
 90
        0
280
     0
281
     0
  0
CLASS
  1
ACRFINSADJUSTERMGR
  2
AcRfInsAdjusterMgr
  3
AcMeServices
 90
        0
280
     0
281
     0
  0
CLASS
  1
ACGREFACADMASTER
  2
AcGrefacadMaster
  3
AcGrefServices
 90
        0
280
     0
281
     0
  0
CLASS
  1
AMDTMENUSTATEMGR
  2
AmdtMenuStateMgr
  3
McadcomServices
 90
        0
280
     0
281
     0
  0
CLASS
  1
AMDTMCOMMENUSTATE
  2
AmdtMcomMenuState
  3
McadcomServices
 90
        0
280
     0
281
     0
  0
CLASS
  1
AMIMASTER
  2
AmiMaster
  3
AmiServices
 90
        0
280
     0
281
     0
  0
CLASS
  1
MAPIAMMOUDLE
  2
MApiAmModule
  3
MApiAmServices
 90
        0
280
     0
281
     0
  0
CLASS
  1
ACIMSTRSYSVAR
  2
AcImStrSysVar
  3
AcMeServices
 90
        0
280
     0
281
     0
  0
CLASS
  1
AMDTADMENUSTATE
  2
AmdtAdMenuState
  3
DesignerServices
 90
        0
280
     0
281
     0
  0
CLASS
  1
ADAPPL
  2
AcAdAppl
  3
DesignerServices
 90
        0
280
     0
281
     0
  0
CLASS
  1
DEPMGR
  2
AcAdDepMgr
  3
DesignerServices
 90
        0
280
     0
281
     0
  0
CLASS
  1
PARAMMGR
  2
AcAdParamMgr
  3
DesignerServices
 90
        0
280
     0
281
     0
  0
CLASS
  1
PARAMSCOPE
  2
AcAdParamScope
  3
DesignerServices
 90
        0
280
     0
281
     0
  0
CLASS
  1
NAMEDAPPL
  2
AcAdNamedAppl
  3
DesignerServices
 90
        0
280
     0
281
     0
  0
CLASS
  1
AMDTDMMENUSTATE
  2
AmdtDmMenuState
  3
AcMechDwgViewMgmt
 90
        0
280
     0
281
     0
  0
CLASS
  1
AMDTAMMENUSTATE
  2
AmdtAmMenuState
  3
DesignerAssemblies
 90
        0
280
     0
281
     0
  0
CLASS
  1
ACAMPROJECT
  2
AcAmProject
  3
DesignerAssemblies
 90
        0
280
     0
281
     0
  0
CLASS
  1
ACAMGRCOMPDEF
  2
AcAmGrCompDef
  3
DesignerAssemblies
 90
        0
280
     0
281
     0
  0
CLASS
  1
ACCMCONTEXT
  2
AcCmContext
  3
DesignerAssemblies
 90
        0
280
     0
281
     0
  0
CLASS
  1
ACAMCOMPDEF
  2
AcAmCompDef
  3
DesignerAssemblies
 90
        0
280
     0
281
     0
  0
CLASS
  1
ACAMCOMPDEFMGR
  2
AcAmCompDefMgr
  3
DesignerAssemblies
 90
        0
280
     0
281
     0
  0
CLASS
  1
AMCONTEXTMGR
  2
AcAmContextMgr
  3
DesignerAssemblies
 90
        0
280
     0
281
     0
  0
CLASS
  1
ACAMCONTEXTMODELER
  2
AcAmContextModeler
  3
DesignerAssemblies
 90
        0
280
     0
281
     0
  0
CLASS
  1
ACMDATADICTIONARY
  2
AcmDataDictionary
  3
"AcmSymBB|Product Description: AutoCAD Mechanical|Company: Autodesk"
 90
        0
280
     0
281
     0
  0
CLASS
  1
CATALOGSTATE
  2
AcAmCatalogState
  3
DesignerAssemblies
 90
        0
280
     0
281
     0
  0
CLASS
  1
ACAMGRCOMPDEFSET
  2
AcAmGrCompDefSet
  3
DesignerAssemblies
 90
        0
280
     0
281
     0
  0
CLASS
  1
AMDTBROWSERDBTAB
  2
AmdtBrowserDbTab
  3
McadcomServices
 90
        0
280
     0
281
     0
  0
CLASS
  1
CBROWSERAPPOBJECT
  2
CBrowserAppObject
  3
McadcomServices
 90
        0
280
     0
281
     0
  0
CLASS
  1
DM_PLACEHOLDER
  2
AcDmSelsetPlaceholder
  3
AcMechDwgViewMgmt
 90
        0
280
     0
281
     0
  0
CLASS
  1
ACMSTANDARDANSI
  2
AcmStandardANSI
  3
"Amdt_StdImp|Product Description: AutoCAD Mechanical|Company: Autodesk"
 90
        0
280
     0
281
     0
  0
CLASS
  1
AMGOBJPROPCFG
  2
AmgObjPropCfg
  3
"AmgLay|Product Description: AutoCAD Mechanical|Company: Autodesk"
 90
        1
280
     0
281
     0
  0
CLASS
  1
ACMSURFSTANDARDANSI
  2
AcmSurfTextStdANSI
  3
"Amdt_StdImp|Product Description: AutoCAD Mechanical|Company: Autodesk"
 90
        0
280
     0
281
     0
  0
CLASS
  1
ACMFCFSTANDARDANSI
  2
AcmFCFStdANSI
  3
"Amdt_StdImp|Product Description: AutoCAD Mechanical|Company: Autodesk"
 90
        0
280
     0
281
     0
  0
CLASS
  1
ACMWELDSTANDARDANSI
  2
AcmWeldingStdANSI
  3
"Amdt_StdImp|Product Description: AutoCAD Mechanical|Company: Autodesk"
 90
        0
280
     0
281
     0
  0
CLASS
  1
ACMIDSTANDARDANSI
  2
AcmIdStdANSI
  3
"Amdt_StdImp|Product Description: AutoCAD Mechanical|Company: Autodesk"
 90
        0
280
     0
281
     0
  0
CLASS
  1
ACMDATUMSTANDARDANSI
  2
AcmDatumStdANSI
  3
"Amdt_StdImp|Product Description: AutoCAD Mechanical|Company: Autodesk"
 90
        0
280
     0
281
     0
  0
CLASS
  1
ACMBOMSTANDARDANSI
  2
AcmBOMStdANSI
  3
"Amdt_StdImp|Product Description: AutoCAD Mechanical|Company: Autodesk"
 90
        0
280
     0
281
     0
  0
CLASS
  1
ACMDETAILSTANDARDANSI
  2
AmdtDetailSymStdANSI
  3
"Amdt_StdImp|Product Description: AutoCAD Mechanical|Company: Autodesk"
 90
        0
280
     0
281
     0
  0
CLASS
  1
ACMSECTIONSTANDARDANSI
  2
AmdtSectionSymStdANSI
  3
"Amdt_StdImp|Product Description: AutoCAD Mechanical|Company: Autodesk"
 90
        0
280
     0
281
     0
  0
CLASS
  1
ACMCENTERLINESTANDARDANSI
  2
AmdtCenterLineStdANSI
  3
"Amdt_StdImp|Product Description: AutoCAD Mechanical|Company: Autodesk"
 90
        0
280
     0
281
     0
  0
CLASS
  1
ACMTHREADLINESTANDARDANSI
  2
AmdtThreadLineStdANSI
  3
"Amdt_StdImp|Product Description: AutoCAD Mechanical|Company: Autodesk"
 90
        0
280
     0
281
     0
  0
CLASS
  1
ACMNOTESTANDARDANSI
  2
AmdtNoteStdANSI
  3
"Amdt_StdImp|Product Description: AutoCAD Mechanical|Company: Autodesk"
 90
        0
280
     0
281
     0
  0
CLASS
  1
ACMTAPERSTANDARDANSI
  2
AcmTaperStdANSI
  3
"Amdt_StdImp|Product Description: AutoCAD Mechanical|Company: Autodesk"
 90
        0
280
     0
281
     0
  0
CLASS
  1
AMDTNOTETEMPLATEDB
  2
AmdtNoteTemplateDB
  3
AMDT_STDIMP_MODULE_NAME
 90
        0
280
     0
281
     0
  0
CLASS
  1
ACAMGLAYSTD
  2
AcAmgLayStd
  3
"AmgLay|Product Description: AutoCAD Mechanical|Company: Autodesk"
 90
        0
280
     0
281
     0
  0
CLASS
  1
ACAMGDIMSTD
  2
AcAmgDimStd
  3
"AmgDim|Product Description: AutoCAD Mechanical|Company: Autodesk"
 90
        0
280
     0
281
     0
  0
CLASS
  1
ACAMGHOLECHARTSTDANSI
  2
AcAmgHoleChartStdANSI
  3
ACMSYMBB_MODULE_NAME
 90
        0
280
     0
281
     0
  0
CLASS
  1
ACAMGTITLESTD
  2
AcAmgTitleStd
  3
"AmgTitle|Product Description: AutoCAD Mechanical|Company: Autodesk"
 90
        0
280
     0
281
     0
  0
CLASS
  1
ACAMGFILTERDAT
  2
AcAmgFilterDat
  3
"AcadM|Product Description: AutoCAD Mechanical|Company: Autodesk"
 90
        0
280
     0
281
     0
  0
CLASS
  1
DICTIONARYVAR
  2
AcDbDictionaryVar
  3
ObjectDBX Classes
 90
        0
280
     0
281
     0
  0
CLASS
  1
ACDBPLACEHOLDER
  2
AcDbPlaceHolder
  3
ObjectDBX Classes
 90
        0
280
     0
281
     0
  0
CLASS
  1
LAYOUT
  2
AcDbLayout
  3
ObjectDBX Classes
 90
        0
280
     0
281
     0
  0
ENDSEC
  0
SECTION
  2
TABLES
  0
TABLE
  2
VPORT
  5
1C5
330
0
100
AcDbSymbolTable
 70
     1
  0
VPORT
  5
1F7
330
1C5
100
AcDbSymbolTableRecord
100
AcDbViewportTableRecord
  2
*ACTIVE
 70
     0
 10
0.0
 20
0.0
 11
1.0
 21
1.0
 12
-20.49999822577632
 22
36.50000127129402
 13
0.0
 23
0.0
 14
1.0
 24
1.0
 15
0.0
 25
0.0
 16
0.0
 26
0.0
 36
1.0
 17
0.0
 27
0.0
 37
0.0
 40
459.0833512839162
 41
0.8387096774193548
 42
50.0
 43
0.0
 44
0.0
 50
0.0
 51
0.0
 71
     0
 72
   100
 73
     1
 74
     1
 75
     0
 76
     0
 77
     0
 78
     0
281
     0
 65
     0
110
0.0
120
0.0
130
0.0
111
1.0
121
0.0
131
0.0
112
0.0
122
1.0
132
0.0
 79
     0
146
0.0
  0
ENDTAB
  0
TABLE
  2
LTYPE
  5
1C2
330
0
100
AcDbSymbolTable
 70
    19
  0
LTYPE
  5
1E5
330
1C2
100
AcDbSymbolTableRecord
100
AcDbLinetypeTableRecord
  2
ByBlock
 70
     0
  3

 72
    65
 73
     0
 40
0.0
  0
LTYPE
  5
1E6
330
1C2
100
AcDbSymbolTableRecord
100
AcDbLinetypeTableRecord
  2
ByLayer
 70
     0
  3

 72
    65
 73
     0
 40
0.0
  0
LTYPE
  5
1E7
330
1C2
100
AcDbSymbolTableRecord
100
AcDbLinetypeTableRecord
  2
CONTINUOUS
 70
     0
  3
Solid line
 72
    65
 73
     0
 40
0.0
  0
LTYPE
  5
1F8
330
1C2
100
AcDbSymbolTableRecord
100
AcDbLinetypeTableRecord
  2
DASHED
 70
     0
  3
__ __ __ __ __ __ __ __ __ __ __ __ __ __ __
 72
    65
 73
     2
 40
3.5
 49
2.0
 74
     0
 49
-1.5
 74
     0
  0
LTYPE
  5
1F9
330
1C2
100
AcDbSymbolTableRecord
100
AcDbLinetypeTableRecord
  2
CENTER
 70
     0
  3
____ _ ____ _ ____ _ ____ _ ____ _ ____ _ ____
 72
    65
 73
     4
 40
17.5
 49
13.0
 74
     0
 49
-1.5
 74
     0
 49
1.5
 74
     0
 49
-1.5
 74
     0
  0
LTYPE
  5
1FA
330
1C2
100
AcDbSymbolTableRecord
100
AcDbLinetypeTableRecord
  2
PHANTOM
 70
     0
  3
_____ _ _ _____ _ _ _____ _ _ _____ _ _ ____  
 72
    65
 73
     6
 40
15.5
 49
8.0
 74
     0
 49
-1.5
 74
     0
 49
1.5
 74
     0
 49
-1.5
 74
     0
 49
1.5
 74
     0
 49
-1.5
 74
     0
  0
LTYPE
  5
1FB
330
1C2
100
AcDbSymbolTableRecord
100
AcDbLinetypeTableRecord
  2
DOT
 70
     0
  3
. . . . . . . . . . . . . . . . . . . . . . . .
 72
    65
 73
     2
 40
0.25
 49
0.0
 74
     0
 49
-0.25
 74
     0
  0
LTYPE
  5
1FC
330
1C2
100
AcDbSymbolTableRecord
100
AcDbLinetypeTableRecord
  2
HIDDEN
 70
     0
  3
__ __ __ __ __ __ __ __ __ __ __ __ __ __ __
 72
    65
 73
     2
 40
3.5
 49
2.0
 74
     0
 49
-1.5
 74
     0
  0
LTYPE
  5
262
330
1C2
100
AcDbSymbolTableRecord
100
AcDbLinetypeTableRecord
  2
PHANTOM2
 70
     0
  3
Phantom (.5x) ___ _ _ ___ _ _ ___ _ _ ___ _ _
 72
    65
 73
     6
 40
1.25
 49
0.625
 74
     0
 49
-0.125
 74
     0
 49
0.125
 74
     0
 49
-0.125
 74
     0
 49
0.125
 74
     0
 49
-0.125
 74
     0
  0
LTYPE
  5
297
330
1C2
100
AcDbSymbolTableRecord
100
AcDbLinetypeTableRecord
  2
AM_ISO02W050
 70
     0
  3
__ __ __ __ __ __ __ __ __ __ __ __ __ __ __
 72
    65
 73
     2
 40
7.5
 49
6.0
 74
     0
 49
-1.5
 74
     0
  0
LTYPE
  5
298
330
1C2
100
AcDbSymbolTableRecord
100
AcDbLinetypeTableRecord
  2
AM_ISO08W050
 70
     0
  3
____ . ____ . ____ . ____ . ____ . ____ . ____
 72
    65
 73
     4
 40
18.0
 49
12.0
 74
     0
 49
-1.5
 74
     0
 49
3.0
 74
     0
 49
-1.5
 74
     0
  0
LTYPE
  5
299
330
1C2
100
AcDbSymbolTableRecord
100
AcDbLinetypeTableRecord
  2
AM_ISO09W050
 70
     0
  3
_____ . . _____ . . _____ . . ____ .. ____
 72
    65
 73
     6
 40
22.5
 49
12.0
 74
     0
 49
-1.5
 74
     0
 49
3.0
 74
     0
 49
-1.5
 74
     0
 49
3.0
 74
     0
 49
-1.5
 74
     0
  0
LTYPE
  5
29A
330
1C2
100
AcDbSymbolTableRecord
100
AcDbLinetypeTableRecord
  2
Amconstr
 70
     0
  3
_______________________
 72
    65
 73
     2
 40
9999.0
 49
9999.0
 74
     0
 49
0.0
 74
     0
  0
LTYPE
  5
29B
330
1C2
100
AcDbSymbolTableRecord
100
AcDbLinetypeTableRecord
  2
AM_ISO08W050x2
 70
     0
  3
__ . __ . __ . __ . __ . __
 72
    65
 73
     4
 40
9.0
 49
6.0
 74
     0
 49
-0.75
 74
     0
 49
1.5
 74
     0
 49
-0.75
 74
     0
  0
LTYPE
  5
29C
330
1C2
100
AcDbSymbolTableRecord
100
AcDbLinetypeTableRecord
  2
AM_ISO02W050x2
 70
     0
  3
 _ _ _ _ _ _ _ _ _ _ _ _
 72
    65
 73
     2
 40
3.75
 49
3.0
 74
     0
 49
-0.75
 74
     0
  0
LTYPE
  5
29F
330
1C2
100
AcDbSymbolTableRecord
100
AcDbLinetypeTableRecord
  2
Amzigzag
 70
     0
  3
/\/-/\/-/\/-/\/-/\/-/\/
 72
    65
 73
     2
 40
11.0001
 49
0.0001
 74
     4
 75
   136
340
29E
 46
0.04
 50
0.0
 44
0.0
 45
0.0
 49
-11.0
 74
     0
  0
LTYPE
  5
2A0
330
1C2
100
AcDbSymbolTableRecord
100
AcDbLinetypeTableRecord
  2
CENTER2
 70
     0
  3
Center (.5x) ___ _ ___ _ ___ _ ___ _ ___ _ ___
 72
    65
 73
     4
 40
1.125
 49
0.75
 74
     0
 49
-0.125
 74
     0
 49
0.125
 74
     0
 49
-0.125
 74
     0
  0
LTYPE
  5
2A1
330
1C2
100
AcDbSymbolTableRecord
100
AcDbLinetypeTableRecord
  2
HIDDEN2
 70
     0
  3
Hidden (.5x) _ _ _ _ _ _ _ _ _ _ _ _ _ _ _ _ _
 72
    65
 73
     2
 40
0.1875
 49
0.125
 74
     0
 49
-0.0625
 74
     0
  0
LTYPE
  5
2A2
330
1C2
100
AcDbSymbolTableRecord
100
AcDbLinetypeTableRecord
  2
Amzigzag2
 70
     0
  3
/\/-/\/-/\/-/\/-/\/-/\/
 72
    65
 73
     2
 40
0.4401
 49
0.0001
 74
     4
 75
   136
340
29E
 46
0.0016
 50
0.0
 44
0.0
 45
0.0
 49
-0.4400000000000001
 74
     0
  0
LTYPE
  5
2B1
330
1C2
100
AcDbSymbolTableRecord
100
AcDbLinetypeTableRecord
  2
ACANSTGB
 70
     0
  3
__ . . __ . .
 72
    65
 73
     6
 40
0.35433070866
 49
0.15748031496
 74
     0
 49
-0.03937007874
 74
     0
 49
0.03937007874
 74
     0
 49
-0.03937007874
 74
     0
 49
0.03937007874
 74
     0
 49
-0.03937007874
 74
     0
  0
LTYPE
  5
2B2
330
1C2
100
AcDbSymbolTableRecord
100
AcDbLinetypeTableRecord
  2
ACANSTGL
 70
     0
  3
_ _ _ _ _
 72
    65
 73
     2
 40
0.11811023622
 49
0.07874015748
 74
     0
 49
-0.03937007874
 74
     0
  0
ENDTAB
  0
TABLE
  2
LAYER
  5
1BF
330
0
100
AcDbSymbolTable
 70
     4
  0
LAYER
  5
1E2
330
1BF
100
AcDbSymbolTableRecord
100
AcDbLayerTableRecord
  2
0
 70
     0
 62
     7
  6
CONTINUOUS
370
    -3
390
1CC
  0
LAYER
  5
1FD
330
1BF
100
AcDbSymbolTableRecord
100
AcDbLayerTableRecord
  2
1
 70
     0
 62
     7
  6
CONTINUOUS
370
    -3
390
1CC
  0
LAYER
  5
1FE
330
1BF
100
AcDbSymbolTableRecord
100
AcDbLayerTableRecord
  2
2
 70
     0
 62
     7
  6
CONTINUOUS
370
    -3
390
1CC
  0
LAYER
  5
1FF
330
1BF
100
AcDbSymbolTableRecord
100
AcDbLayerTableRecord
  2
DEFPOINTS
 70
     0
 62
     7
  6
CONTINUOUS
290
     0
370
    -3
390
1CC
  0
ENDTAB
  0
TABLE
  2
STYLE
  5
1C0
330
0
100
AcDbSymbolTable
 70
     4
  0
STYLE
  5
1E3
330
1C0
100
AcDbSymbolTableRecord
100
AcDbTextStyleTableRecord
  2
STANDARD
 70
     0
 40
0.0
 41
1.0
 50
0.0
 71
     0
 42
0.2
  3
txt
  4
BIGFONT
  0
STYLE
  5
29E
330
1C0
100
AcDbSymbolTableRecord
100
AcDbTextStyleTableRecord
  2

 70
     1
 40
0.0
 41
1.0
 50
0.0
 71
     0
 42
0.2
  3
genltshp.shx
  4

  0
STYLE
  5
2A3
330
1C0
100
AcDbSymbolTableRecord
100
AcDbTextStyleTableRecord
  2
ACANSTS
 70
     0
 40
1.0
 41
1.0
 50
0.0
 71
     0
 42
0.2
  3
romans.shx
  4
extfont.shx
  0
STYLE
  5
2B0
330
1C0
100
AcDbSymbolTableRecord
100
AcDbTextStyleTableRecord
  2
ACANSGDT
 70
     0
 40
0.0
 41
1.0
 50
0.0
 71
     0
 42
0.2
  3
amgdt.shx
  4

  0
ENDTAB
  0
TABLE
  2
VIEW
  5
1C3
330
0
100
AcDbSymbolTable
 70
     0
  0
ENDTAB
  0
TABLE
  2
UCS
  5
1C4
330
0
100
AcDbSymbolTable
 70
     0
  0
ENDTAB
  0
TABLE
  2
APPID
  5
1C6
330
0
100
AcDbSymbolTable
 70
     9
  0
APPID
  5
1E4
330
1C6
100
AcDbSymbolTableRecord
100
AcDbRegAppTableRecord
  2
ACAD
 70
     0
  0
APPID
  5
235
330
1C6
100
AcDbSymbolTableRecord
100
AcDbRegAppTableRecord
  2
MCAD_NO_VIS
 70
     0
  0
APPID
  5
236
330
1C6
100
AcDbSymbolTableRecord
100
AcDbRegAppTableRecord
  2
ACAD_TEMP_GRAPHIC
 70
     0
  0
APPID
  5
264
330
1C6
100
AcDbSymbolTableRecord
100
AcDbRegAppTableRecord
  2
AD_DRAW
 70
     0
  0
APPID
  5
267
330
1C6
100
AcDbSymbolTableRecord
100
AcDbRegAppTableRecord
  2
ACATTRIBSERVICES
 70
     0
  0
APPID
  5
288
330
1C6
100
AcDbSymbolTableRecord
100
AcDbRegAppTableRecord
  2
DESIGNERASSEMBLIES
 70
     0
  0
APPID
  5
28E
330
1C6
100
AcDbSymbolTableRecord
100
AcDbRegAppTableRecord
  2
ACADM_DIM_EDIT
 70
     0
  0
APPID
  5
28F
330
1C6
100
AcDbSymbolTableRecord
100
AcDbRegAppTableRecord
  2
AMDT_DM_ADJ
 70
     0
  0
APPID
  5
2E3
330
1C6
100
AcDbSymbolTableRecord
100
AcDbRegAppTableRecord
  2
ACAD_DSTYLE_DIMARC_LENGTH_SYMBOL
 70
     0
  0
ENDTAB
  0
TABLE
  2
DIMSTYLE
  5
1C7
330
0
100
AcDbSymbolTable
 70
     7
100
AcDbDimStyleTable
 71
     0
  0
DIMSTYLE
105
200
102
{ACAD_REACTORS
330
15D
330
15E
330
15F
330
160
330
161
330
162
330
16B
330
16C
330
16D
330
16E
330
16F
330
170
330
177
330
17E
330
17F
330
188
330
189
330
18A
102
}
330
1C7
100
AcDbSymbolTableRecord
100
AcDbDimStyleTableRecord
  2
DIMSTYLE
 70
     0
 41
1.0
 42
2.54
 44
2.54
 73
     0
 74
     0
140
3.2
147
1.6
173
     1
279
     2
340
1E3
  0
DIMSTYLE
105
2BE
330
1C7
100
AcDbSymbolTableRecord
100
AcDbDimStyleTableRecord
  2
AM_ANSI
 70
     0
  4
mm
 41
0.1
 42
0.05
 43
0.5
 44
0.1
 47
0.1
 48
0.1
 78
     7
 79
     2
140
0.12
141
0.0
146
0.71
147
0.06
176
   256
177
   256
178
     2
274
     4
284
     7
340
1E3
371
    -1
372
    -1
1001
ACAD_DSTYLE_DIMARC_LENGTH_SYMBOL
1070
   379
1070
     1
  0
DIMSTYLE
105
2BF
330
1C7
100
AcDbSymbolTableRecord
100
AcDbDimStyleTableRecord
  2
AM_ANSI$3
 70
     0
  4
mm
 41
0.1
 42
0.05
 43
0.5
 44
0.1
 47
0.1
 48
0.1
 78
     7
 79
     2
140
0.12
141
0.0
146
0.71
147
0.06
176
   256
177
   256
178
     2
274
     4
284
     7
288
     1
289
     0
340
1E3
371
    -1
372
    -1
1001
ACAD_DSTYLE_DIMARC_LENGTH_SYMBOL
1070
   379
1070
     1
  0
DIMSTYLE
105
2C0
330
1C7
100
AcDbSymbolTableRecord
100
AcDbDimStyleTableRecord
  2
AM_ANSI$4
 70
     0
  4
mm
 41
0.1
 42
0.05
 43
0.5
 44
0.1
 47
0.1
 48
0.1
 78
     7
 79
     2
140
0.12
141
0.0
146
0.71
147
0.06
176
   256
177
   256
178
     2
274
     4
284
     7
288
     1
289
     0
340
1E3
371
    -1
372
    -1
1001
ACAD_DSTYLE_DIMARC_LENGTH_SYMBOL
1070
   379
1070
     1
  0
DIMSTYLE
105
2C1
330
1C7
100
AcDbSymbolTableRecord
100
AcDbDimStyleTableRecord
  2
AM_ANSI$7
 70
     0
  4
mm
 41
0.1
 42
0.05
 43
0.5
 44
0.1
 47
0.1
 48
0.1
 78
     7
 79
     2
140
0.24
141
0.0
146
0.71
147
0.06
176
   256
177
   256
178
     2
274
     4
284
     7
340
1E3
371
    -1
372
    -1
1001
ACAD_DSTYLE_DIMARC_LENGTH_SYMBOL
1070
   379
1070
     1
  0
DIMSTYLE
105
2C2
330
1C7
100
AcDbSymbolTableRecord
100
AcDbDimStyleTableRecord
  2
AM_ANSI$SF
 70
     0
  4
mm
 41
0.1
 42
0.05
 43
0.5
 44
0.1
 47
0.1
 48
0.1
 75
     1
 76
     1
 78
     7
 79
     2
140
0.12
141
0.0
146
0.71
147
0.06
176
   256
177
   256
178
     2
274
     4
284
     7
340
1E3
371
    -1
372
    -1
1001
ACAD_DSTYLE_DIMARC_LENGTH_SYMBOL
1070
   379
1070
     1
  0
DIMSTYLE
105
2C7
330
1C7
100
AcDbSymbolTableRecord
100
AcDbDimStyleTableRecord
  2
AM_ANSI$SH
 70
     0
  4
mm
 41
0.1
 42
0.05
 43
0.5
 44
0.1
 47
0.1
 48
0.1
 75
     1
 76
     1
 78
     7
 79
     2
140
0.12
141
0.0
146
0.71
147
0.06
173
     1
176
   256
177
   256
178
     2
274
     4
284
     7
340
1E3
343
2C3
371
    -1
372
    -1
1001
ACAD_DSTYLE_DIMARC_LENGTH_SYMBOL
1070
   379
1070
     1
  0
ENDTAB
  0
TABLE
  2
BLOCK_RECORD
  5
1BE
330
0
100
AcDbSymbolTable
 70
    24
  0
BLOCK_RECORD
  5
1F3
330
1BE
100
AcDbSymbolTableRecord
100
AcDbBlockTableRecord
  2
*Model_Space
340
1F6
  0
BLOCK_RECORD
  5
1EF
330
1BE
100
AcDbSymbolTableRecord
100
AcDbBlockTableRecord
  2
*Paper_Space
340
1F2
  0
BLOCK_RECORD
  5
203
330
1BE
100
AcDbSymbolTableRecord
100
AcDbBlockTableRecord
  2
$MODEL_SPACE
340
0
  0
BLOCK_RECORD
  5
205
330
1BE
100
AcDbSymbolTableRecord
100
AcDbBlockTableRecord
  2
$PAPER_SPACE
340
0
  0
BLOCK_RECORD
  5
207
330
1BE
100
AcDbSymbolTableRecord
100
AcDbBlockTableRecord
  2
_DOT
340
0
102
{BLKREFS
331
3D
331
3E
331
48
331
51
331
52
331
5D
331
67
331
68
331
73
331
7D
331
87
331
88
331
93
331
94
331
9F
331
A8
331
B2
331
BC
331
BD
331
C5
331
C6
331
CF
331
D0
331
DA
331
E5
331
EE
331
EF
102
}
  0
BLOCK_RECORD
  5
209
330
1BE
100
AcDbSymbolTableRecord
100
AcDbBlockTableRecord
  2
_NONE
340
0
  0
BLOCK_RECORD
  5
20B
330
1BE
100
AcDbSymbolTableRecord
100
AcDbBlockTableRecord
  2
*D4
340
0
  0
BLOCK_RECORD
  5
20D
330
1BE
100
AcDbSymbolTableRecord
100
AcDbBlockTableRecord
  2
*D5
340
0
  0
BLOCK_RECORD
  5
20F
330
1BE
100
AcDbSymbolTableRecord
100
AcDbBlockTableRecord
  2
*D6
340
0
  0
BLOCK_RECORD
  5
211
330
1BE
100
AcDbSymbolTableRecord
100
AcDbBlockTableRecord
  2
*D7
340
0
  0
BLOCK_RECORD
  5
213
330
1BE
100
AcDbSymbolTableRecord
100
AcDbBlockTableRecord
  2
*D8
340
0
  0
BLOCK_RECORD
  5
215
330
1BE
100
AcDbSymbolTableRecord
100
AcDbBlockTableRecord
  2
*D9
340
0
  0
BLOCK_RECORD
  5
217
330
1BE
100
AcDbSymbolTableRecord
100
AcDbBlockTableRecord
  2
*D10
340
0
  0
BLOCK_RECORD
  5
219
330
1BE
100
AcDbSymbolTableRecord
100
AcDbBlockTableRecord
  2
*D11
340
0
  0
BLOCK_RECORD
  5
21B
330
1BE
100
AcDbSymbolTableRecord
100
AcDbBlockTableRecord
  2
*D12
340
0
  0
BLOCK_RECORD
  5
21D
330
1BE
100
AcDbSymbolTableRecord
100
AcDbBlockTableRecord
  2
*D13
340
0
  0
BLOCK_RECORD
  5
21F
330
1BE
100
AcDbSymbolTableRecord
100
AcDbBlockTableRecord
  2
*D14
340
0
  0
BLOCK_RECORD
  5
221
330
1BE
100
AcDbSymbolTableRecord
100
AcDbBlockTableRecord
  2
*D15
340
0
  0
BLOCK_RECORD
  5
223
330
1BE
100
AcDbSymbolTableRecord
100
AcDbBlockTableRecord
  2
*D16
340
0
  0
BLOCK_RECORD
  5
225
330
1BE
100
AcDbSymbolTableRecord
100
AcDbBlockTableRecord
  2
*D17
340
0
  0
BLOCK_RECORD
  5
227
330
1BE
100
AcDbSymbolTableRecord
100
AcDbBlockTableRecord
  2
*D18
340
0
  0
BLOCK_RECORD
  5
229
330
1BE
100
AcDbSymbolTableRecord
100
AcDbBlockTableRecord
  2
*D19
340
0
  0
BLOCK_RECORD
  5
22B
330
1BE
100
AcDbSymbolTableRecord
100
AcDbBlockTableRecord
  2
*D20
340
0
  0
BLOCK_RECORD
  5
22D
330
1BE
100
AcDbSymbolTableRecord
100
AcDbBlockTableRecord
  2
*D21
340
0
  0
BLOCK_RECORD
  5
2C3
330
1BE
100
AcDbSymbolTableRecord
100
AcDbBlockTableRecord
  2
GENAXEH
340
0
  0
ENDTAB
  0
ENDSEC
  0
SECTION
  2
BLOCKS
  0
BLOCK
  5
1F4
330
1F3
100
AcDbEntity
  8
0
100
AcDbBlockBegin
  2
*Model_Space
 70
     0
 10
0.0
 20
0.0
 30
0.0
  3
*Model_Space
  1

  0
ENDBLK
  5
1F5
330
1F3
100
AcDbEntity
  8
0
100
AcDbBlockEnd
  0
BLOCK
  5
1F0
330
1EF
100
AcDbEntity
 67
     1
  8
0
100
AcDbBlockBegin
  2
*Paper_Space
 70
     0
 10
0.0
 20
0.0
 30
0.0
  3
*Paper_Space
  1

  0
ENDBLK
  5
1F1
330
1EF
100
AcDbEntity
 67
     1
  8
0
100
AcDbBlockEnd
  0
BLOCK
  5
204
330
203
100
AcDbEntity
  8
0
100
AcDbBlockBegin
  2
$MODEL_SPACE
 70
     0
 10
0.0
 20
0.0
 30
0.0
  3
$MODEL_SPACE
  1

  0
ENDBLK
  5
20
330
203
100
AcDbEntity
  8
0
100
AcDbBlockEnd
  0
BLOCK
  5
206
330
205
100
AcDbEntity
  8
0
100
AcDbBlockBegin
  2
$PAPER_SPACE
 70
     0
 10
0.0
 20
0.0
 30
0.0
  3
$PAPER_SPACE
  1

  0
ENDBLK
  5
1C
330
205
100
AcDbEntity
  8
0
100
AcDbBlockEnd
  0
BLOCK
  5
208
330
207
100
AcDbEntity
  8
0
100
AcDbBlockBegin
  2
_DOT
 70
     0
 10
0.0
 20
0.0
 30
0.0
  3
_DOT
  1

  0
POLYLINE
  5
30
330
207
100
AcDbEntity
  8
0
  6
ByBlock
 62
     0
100
AcDb2dPolyline
 66
     1
 10
0.0
 20
0.0
 30
0.0
 70
     1
 40
0.4000000100000002
 41
0.4000000100000002
  0
VERTEX
  5
1AB
330
30
100
AcDbEntity
  8
0
  6
ByBlock
 62
     0
100
AcDbVertex
100
AcDb2dVertex
 10
-0.2
 20
0.0
 30
0.0
 42
1.0
  0
VERTEX
  5
1AC
330
30
100
AcDbEntity
  8
0
  6
ByBlock
 62
     0
100
AcDbVertex
100
AcDb2dVertex
 10
0.2
 20
0.0
 30
0.0
 42
1.0
  0
SEQEND
  5
1AD
330
30
100
AcDbEntity
  8
0
  6
ByBlock
 62
     0
  0
LINE
  5
34
330
207
100
AcDbEntity
  8
0
  6
ByBlock
 62
     0
100
AcDbLine
 10
-0.4000000100000002
 20
0.0
 30
0.0
 11
-3.0
 21
0.0
 31
0.0
  0
ENDBLK
  5
35
330
207
100
AcDbEntity
  8
0
100
AcDbBlockEnd
  0
BLOCK
  5
20A
330
209
100
AcDbEntity
  8
0
100
AcDbBlockBegin
  2
_NONE
 70
     0
 10
0.0
 20
0.0
 30
0.0
  3
_NONE
  1

  0
CIRCLE
  5
38
330
209
100
AcDbEntity
  8
0
  6
ByBlock
 62
     0
100
AcDbCircle
 10
0.0
 20
0.0
 30
0.0
 40
0.001
  0
ENDBLK
  5
39
330
209
100
AcDbEntity
  8
0
100
AcDbBlockEnd
  0
BLOCK
  5
20C
330
20B
100
AcDbEntity
  8
0
100
AcDbBlockBegin
  2
*D4
 70
     1
 10
0.0
 20
0.0
 30
0.0
  3
*D4
  1

  0
LINE
  5
3C
330
20B
100
AcDbEntity
  8
0
  6
Continuous
 62
     7
100
AcDbLine
 10
-6.400834999999998
 20
85.44005600000001
 30
0.0
 11
25.099165
 21
85.44005600000001
 31
0.0
  0
INSERT
  5
3D
330
20B
100
AcDbEntity
  8
0
  6
Continuous
 62
     7
100
AcDbBlockReference
  2
_DOT
 10
-6.400834999999998
 20
85.44005600000001
 30
0.0
 50
180.0
  0
INSERT
  5
3E
330
20B
100
AcDbEntity
  8
0
  6
Continuous
 62
     7
100
AcDbBlockReference
  2
_DOT
 10
25.099165
 20
85.44005600000001
 30
0.0
  0
LINE
  5
3F
330
20B
100
AcDbEntity
  8
0
  6
Continuous
 62
     7
100
AcDbLine
 10
25.099165
 20
80.980056
 30
0.0
 11
25.099165
 21
86.64005300000003
 31
0.0
  0
TEXT
  5
40
330
20B
100
AcDbEntity
  8
0
  6
Continuous
 62
     7
100
AcDbText
 10
3.406165
 20
86.24005600000002
 30
0.0
 40
3.2
  1
31.5
 41
1.3928906
100
AcDbText
  0
POINT
  5
41
330
20B
100
AcDbEntity
  8
DEFPOINTS
  6
Continuous
 62
     7
100
AcDbPoint
 10
-6.400834999999998
 20
73.94005600000001
 30
0.0
  0
POINT
  5
42
330
20B
100
AcDbEntity
  8
DEFPOINTS
  6
Continuous
 62
     7
100
AcDbPoint
 10
25.099165
 20
78.44005600000001
 30
0.0
  0
POINT
  5
43
330
20B
100
AcDbEntity
  8
DEFPOINTS
  6
Continuous
 62
     7
100
AcDbPoint
 10
25.099165
 20
85.44005600000001
 30
0.0
  0
ENDBLK
  5
44
330
20B
100
AcDbEntity
  8
0
100
AcDbBlockEnd
  0
BLOCK
  5
20E
330
20D
100
AcDbEntity
  8
0
100
AcDbBlockBegin
  2
*D5
 70
     1
 10
0.0
 20
0.0
 30
0.0
  3
*D5
  1

  0
LINE
  5
47
330
20D
100
AcDbEntity
  8
0
  6
Continuous
 62
     7
100
AcDbLine
 10
25.099165
 20
85.44005600000001
 30
0.0
 11
56.599167
 21
85.44005600000001
 31
0.0
  0
INSERT
  5
48
330
20D
100
AcDbEntity
  8
0
  6
Continuous
 62
     7
100
AcDbBlockReference
  2
_DOT
 10
56.599167
 20
85.44005600000001
 30
0.0
  0
TEXT
  5
49
330
20D
100
AcDbEntity
  8
0
  6
Continuous
 62
     7
100
AcDbText
 10
34.90616699999999
 20
86.24005600000002
 30
0.0
 40
3.2
  1
31.5
 41
1.3928906
100
AcDbText
  0
POINT
  5
4A
330
20D
100
AcDbEntity
  8
DEFPOINTS
  6
Continuous
 62
     7
100
AcDbPoint
 10
25.099165
 20
78.44005600000001
 30
0.0
  0
POINT
  5
4B
330
20D
100
AcDbEntity
  8
DEFPOINTS
  6
Continuous
 62
     7
100
AcDbPoint
 10
56.599167
 20
73.94005600000001
 30
0.0
  0
POINT
  5
4C
330
20D
100
AcDbEntity
  8
DEFPOINTS
  6
Continuous
 62
     7
100
AcDbPoint
 10
56.599167
 20
85.44005600000001
 30
0.0
  0
ENDBLK
  5
4D
330
20D
100
AcDbEntity
  8
0
100
AcDbBlockEnd
  0
BLOCK
  5
210
330
20F
100
AcDbEntity
  8
0
100
AcDbBlockBegin
  2
*D6
 70
     1
 10
0.0
 20
0.0
 30
0.0
  3
*D6
  1

  0
LINE
  5
50
330
20F
100
AcDbEntity
  8
0
  6
Continuous
 62
     7
100
AcDbLine
 10
56.599167
 20
95.440056
 30
0.0
 11
-6.400834999999998
 21
95.440056
 31
0.0
  0
INSERT
  5
51
330
20F
100
AcDbEntity
  8
0
  6
Continuous
 62
     7
100
AcDbBlockReference
  2
_DOT
 10
56.599167
 20
95.440056
 30
0.0
  0
INSERT
  5
52
330
20F
100
AcDbEntity
  8
0
  6
Continuous
 62
     7
100
AcDbBlockReference
  2
_DOT
 10
-6.400834999999998
 20
95.440056
 30
0.0
 50
180.0
  0
LINE
  5
53
330
20F
100
AcDbEntity
  8
0
  6
Continuous
 62
     7
100
AcDbLine
 10
56.599167
 20
76.48005600000001
 30
0.0
 11
56.599167
 21
96.64005300000003
 31
0.0
  0
LINE
  5
54
330
20F
100
AcDbEntity
  8
0
  6
Continuous
 62
     7
100
AcDbLine
 10
-6.400834999999998
 20
76.48005600000001
 30
0.0
 11
-6.400834999999998
 21
96.64005300000003
 31
0.0
  0
TEXT
  5
55
330
20F
100
AcDbEntity
  8
0
  6
Continuous
 62
     7
100
AcDbText
 10
22.356165
 20
96.24005600000003
 30
0.0
 40
3.2
  1
63
 41
1.028624999999999
100
AcDbText
  0
POINT
  5
56
330
20F
100
AcDbEntity
  8
DEFPOINTS
  6
Continuous
 62
     7
100
AcDbPoint
 10
56.599167
 20
73.94005600000001
 30
0.0
  0
POINT
  5
57
330
20F
100
AcDbEntity
  8
DEFPOINTS
  6
Continuous
 62
     7
100
AcDbPoint
 10
-6.400834999999998
 20
73.94005600000001
 30
0.0
  0
POINT
  5
58
330
20F
100
AcDbEntity
  8
DEFPOINTS
  6
Continuous
 62
     7
100
AcDbPoint
 10
-6.400834999999998
 20
95.440056
 30
0.0
  0
ENDBLK
  5
59
330
20F
100
AcDbEntity
  8
0
100
AcDbBlockEnd
  0
BLOCK
  5
212
330
211
100
AcDbEntity
  8
0
100
AcDbBlockBegin
  2
*D7
 70
     1
 10
0.0
 20
0.0
 30
0.0
  3
*D7
  1

  0
LINE
  5
5C
330
211
100
AcDbEntity
  8
0
  6
Continuous
 62
     7
100
AcDbLine
 10
71.59916700000002
 20
60.44005600000001
 30
0.0
 11
71.59916700000002
 21
35.440056
 31
0.0
  0
INSERT
  5
5D
330
211
100
AcDbEntity
  8
0
  6
Continuous
 62
     7
100
AcDbBlockReference
  2
_DOT
 10
71.59916700000002
 20
35.440056
 30
0.0
 50
270.0
  0
LINE
  5
5E
330
211
100
AcDbEntity
  8
0
  6
Continuous
 62
     7
100
AcDbLine
 10
56.339164
 20
35.440056
 30
0.0
 11
72.79916400000001
 21
35.440056
 31
0.0
  0
TEXT
  5
5F
330
211
100
AcDbEntity
  8
0
  6
Continuous
 62
     7
100
AcDbText
 10
70.79916700000002
 20
45.19705599999999
 30
0.0
 40
3.2
  1
25
 50
90.00000300000001
 41
1.028624999999999
100
AcDbText
  0
POINT
  5
60
330
211
100
AcDbEntity
  8
DEFPOINTS
  6
Continuous
 62
     7
100
AcDbPoint
 10
49.399166
 20
60.44005600000001
 30
0.0
  0
POINT
  5
61
330
211
100
AcDbEntity
  8
DEFPOINTS
  6
Continuous
 62
     7
100
AcDbPoint
 10
53.79916399999999
 20
35.440056
 30
0.0
  0
POINT
  5
62
330
211
100
AcDbEntity
  8
DEFPOINTS
  6
Continuous
 62
     7
100
AcDbPoint
 10
71.59916700000002
 20
35.440056
 30
0.0
  0
ENDBLK
  5
63
330
211
100
AcDbEntity
  8
0
100
AcDbBlockEnd
  0
BLOCK
  5
214
330
213
100
AcDbEntity
  8
0
100
AcDbBlockBegin
  2
*D8
 70
     1
 10
0.0
 20
0.0
 30
0.0
  3
*D8
  1

  0
LINE
  5
66
330
213
100
AcDbEntity
  8
0
  6
Continuous
 62
     7
100
AcDbLine
 10
71.59916700000002
 20
73.94005600000001
 30
0.0
 11
71.59916700000002
 21
60.44005600000001
 31
0.0
  0
INSERT
  5
67
330
213
100
AcDbEntity
  8
0
  6
Continuous
 62
     7
100
AcDbBlockReference
  2
_DOT
 10
71.59916700000002
 20
73.94005600000001
 30
0.0
 50
90.0
  0
INSERT
  5
68
330
213
100
AcDbEntity
  8
0
  6
Continuous
 62
     7
100
AcDbBlockReference
  2
_DOT
 10
71.59916700000002
 20
60.44005600000001
 30
0.0
 50
270.0
  0
LINE
  5
69
330
213
100
AcDbEntity
  8
0
  6
Continuous
 62
     7
100
AcDbLine
 10
51.939166
 20
60.44005600000001
 30
0.0
 11
72.79916400000001
 21
60.44005600000001
 31
0.0
  0
TEXT
  5
6A
330
213
100
AcDbEntity
  8
0
  6
Continuous
 62
     7
100
AcDbText
 10
70.79916700000002
 20
61.24705600000001
 30
0.0
 40
3.2
  1
13.5
 50
90.00000300000001
 41
1.3928906
100
AcDbText
  0
POINT
  5
6B
330
213
100
AcDbEntity
  8
DEFPOINTS
  6
Continuous
 62
     7
100
AcDbPoint
 10
56.599167
 20
73.94005600000001
 30
0.0
  0
POINT
  5
6C
330
213
100
AcDbEntity
  8
DEFPOINTS
  6
Continuous
 62
     7
100
AcDbPoint
 10
49.399166
 20
60.44005600000001
 30
0.0
  0
POINT
  5
6D
330
213
100
AcDbEntity
  8
DEFPOINTS
  6
Continuous
 62
     7
100
AcDbPoint
 10
71.59916700000002
 20
60.44005600000001
 30
0.0
  0
ENDBLK
  5
6E
330
213
100
AcDbEntity
  8
0
100
AcDbBlockEnd
  0
BLOCK
  5
216
330
215
100
AcDbEntity
  8
0
100
AcDbBlockBegin
  2
*D9
 70
     1
 10
0.0
 20
0.0
 30
0.0
  3
*D9
  1

  0
LINE
  5
71
330
215
100
AcDbEntity
  8
0
  6
Continuous
 62
     7
100
AcDbLine
 10
56.599167
 20
-44.55993699999999
 30
0.0
 11
68.266586
 21
-44.55993699999999
 31
0.0
  0
LINE
  5
72
330
215
100
AcDbEntity
  8
0
  6
Continuous
 62
     7
100
AcDbLine
 10
46.79916399999999
 20
-44.55993699999999
 30
0.0
 11
56.599167
 21
-44.55993699999999
 31
0.0
  0
INSERT
  5
73
330
215
100
AcDbEntity
  8
0
  6
Continuous
 62
     7
100
AcDbBlockReference
  2
_DOT
 10
56.599167
 20
-44.55993699999999
 30
0.0
  0
LINE
  5
74
330
215
100
AcDbEntity
  8
0
  6
Continuous
 62
     7
100
AcDbLine
 10
56.599167
 20
-30.599944
 30
0.0
 11
56.599167
 21
-45.759937
 31
0.0
  0
TEXT
  5
75
330
215
100
AcDbEntity
  8
0
  6
Continuous
 62
     7
100
AcDbText
 10
59.58058799999999
 20
-43.759937
 30
0.0
 40
3.2
  1
9.8
 41
1.357187499999999
100
AcDbText
  0
POINT
  5
76
330
215
100
AcDbEntity
  8
DEFPOINTS
  6
Continuous
 62
     7
100
AcDbPoint
 10
46.79916399999999
 20
3.440055799999999
 30
0.0
  0
POINT
  5
77
330
215
100
AcDbEntity
  8
DEFPOINTS
  6
Continuous
 62
     7
100
AcDbPoint
 10
56.599167
 20
-28.059944
 30
0.0
  0
POINT
  5
78
330
215
100
AcDbEntity
  8
DEFPOINTS
  6
Continuous
 62
     7
100
AcDbPoint
 10
56.599167
 20
-44.55993699999999
 30
0.0
  0
ENDBLK
  5
79
330
215
100
AcDbEntity
  8
0
100
AcDbBlockEnd
  0
BLOCK
  5
218
330
217
100
AcDbEntity
  8
0
100
AcDbBlockBegin
  2
*D10
 70
     1
 10
0.0
 20
0.0
 30
0.0
  3
*D10
  1

  0
LINE
  5
7C
330
217
100
AcDbEntity
  8
0
  6
Continuous
 62
     7
100
AcDbLine
 10
41.39916599999999
 20
-44.55993699999999
 30
0.0
 11
46.79916399999999
 21
-44.55993699999999
 31
0.0
  0
INSERT
  5
7D
330
217
100
AcDbEntity
  8
0
  6
Continuous
 62
     7
100
AcDbBlockReference
  2
_DOT
 10
46.79916399999999
 20
-44.55993699999999
 30
0.0
  0
LINE
  5
7E
330
217
100
AcDbEntity
  8
0
  6
Continuous
 62
     7
100
AcDbLine
 10
46.79916399999999
 20
0.9000559199999999
 30
0.0
 11
46.79916399999999
 21
-45.759937
 31
0.0
  0
TEXT
  5
7F
330
217
100
AcDbEntity
  8
0
  6
Continuous
 62
     7
100
AcDbText
 10
59.777087
 20
-50.96992
 30
0.0
 40
3.2
  1
  
 41
3.085875
100
AcDbText
  0
POINT
  5
80
330
217
100
AcDbEntity
  8
DEFPOINTS
  6
Continuous
 62
     7
100
AcDbPoint
 10
41.39916599999999
 20
-21.259945
 30
0.0
  0
POINT
  5
81
330
217
100
AcDbEntity
  8
DEFPOINTS
  6
Continuous
 62
     7
100
AcDbPoint
 10
46.79916399999999
 20
3.440055799999999
 30
0.0
  0
POINT
  5
82
330
217
100
AcDbEntity
  8
DEFPOINTS
  6
Continuous
 62
     7
100
AcDbPoint
 10
46.79916399999999
 20
-44.55993699999999
 30
0.0
  0
ENDBLK
  5
83
330
217
100
AcDbEntity
  8
0
100
AcDbBlockEnd
  0
BLOCK
  5
21A
330
219
100
AcDbEntity
  8
0
100
AcDbBlockBegin
  2
*D11
 70
     1
 10
0.0
 20
0.0
 30
0.0
  3
*D11
  1

  0
LINE
  5
86
330
219
100
AcDbEntity
  8
0
  6
Continuous
 62
     7
100
AcDbLine
 10
25.099165
 20
-44.55993699999999
 30
0.0
 11
41.39916599999999
 21
-44.55993699999999
 31
0.0
  0
INSERT
  5
87
330
219
100
AcDbEntity
  8
0
  6
Continuous
 62
     7
100
AcDbBlockReference
  2
_DOT
 10
25.099165
 20
-44.55993699999999
 30
0.0
 50
180.0
  0
INSERT
  5
88
330
219
100
AcDbEntity
  8
0
  6
Continuous
 62
     7
100
AcDbBlockReference
  2
_DOT
 10
41.39916599999999
 20
-44.55993699999999
 30
0.0
  0
LINE
  5
89
330
219
100
AcDbEntity
  8
0
  6
Continuous
 62
     7
100
AcDbLine
 10
25.099165
 20
-35.099936
 30
0.0
 11
25.099165
 21
-45.759937
 31
0.0
  0
LINE
  5
8A
330
219
100
AcDbEntity
  8
0
  6
Continuous
 62
     7
100
AcDbLine
 10
41.39916599999999
 20
-23.799945
 30
0.0
 11
41.39916599999999
 21
-45.759937
 31
0.0
  0
TEXT
  5
8B
330
219
100
AcDbEntity
  8
0
  6
Continuous
 62
     7
100
AcDbText
 10
27.306165
 20
-43.759937
 30
0.0
 40
3.2
  1
16.3
 41
1.3928906
100
AcDbText
  0
POINT
  5
8C
330
219
100
AcDbEntity
  8
DEFPOINTS
  6
Continuous
 62
     7
100
AcDbPoint
 10
25.099165
 20
-32.55993699999999
 30
0.0
  0
POINT
  5
8D
330
219
100
AcDbEntity
  8
DEFPOINTS
  6
Continuous
 62
     7
100
AcDbPoint
 10
41.39916599999999
 20
-21.259945
 30
0.0
  0
POINT
  5
8E
330
219
100
AcDbEntity
  8
DEFPOINTS
  6
Continuous
 62
     7
100
AcDbPoint
 10
41.39916599999999
 20
-44.55993699999999
 30
0.0
  0
ENDBLK
  5
8F
330
219
100
AcDbEntity
  8
0
100
AcDbBlockEnd
  0
BLOCK
  5
21C
330
21B
100
AcDbEntity
  8
0
100
AcDbBlockBegin
  2
*D12
 70
     1
 10
0.0
 20
0.0
 30
0.0
  3
*D12
  1

  0
LINE
  5
92
330
21B
100
AcDbEntity
  8
0
  6
Continuous
 62
     7
100
AcDbLine
 10
81.599167
 20
-28.059937
 30
0.0
 11
81.599167
 21
73.94005600000001
 31
0.0
  0
INSERT
  5
93
330
21B
100
AcDbEntity
  8
0
  6
Continuous
 62
     7
100
AcDbBlockReference
  2
_DOT
 10
81.599167
 20
-28.059937
 30
0.0
 50
270.0
  0
INSERT
  5
94
330
21B
100
AcDbEntity
  8
0
  6
Continuous
 62
     7
100
AcDbBlockReference
  2
_DOT
 10
81.599167
 20
73.94005600000001
 30
0.0
 50
90.0
  0
LINE
  5
95
330
21B
100
AcDbEntity
  8
0
  6
Continuous
 62
     7
100
AcDbLine
 10
59.13916700000001
 20
-28.059937
 30
0.0
 11
82.79916400000001
 21
-28.059937
 31
0.0
  0
LINE
  5
96
330
21B
100
AcDbEntity
  8
0
  6
Continuous
 62
     7
100
AcDbLine
 10
59.13916700000001
 20
73.94005600000001
 30
0.0
 11
82.79916400000001
 21
73.94005600000001
 31
0.0
  0
TEXT
  5
97
330
21B
100
AcDbEntity
  8
0
  6
Continuous
 62
     7
100
AcDbText
 10
80.79916700000003
 20
18.59706
 30
0.0
 40
3.2
  1
102
 50
90.00000300000001
 41
1.2527885
100
AcDbText
  0
POINT
  5
98
330
21B
100
AcDbEntity
  8
DEFPOINTS
  6
Continuous
 62
     7
100
AcDbPoint
 10
56.599167
 20
-28.059937
 30
0.0
  0
POINT
  5
99
330
21B
100
AcDbEntity
  8
DEFPOINTS
  6
Continuous
 62
     7
100
AcDbPoint
 10
56.599167
 20
73.94005600000001
 30
0.0
  0
POINT
  5
9A
330
21B
100
AcDbEntity
  8
DEFPOINTS
  6
Continuous
 62
     7
100
AcDbPoint
 10
81.599167
 20
73.94005600000001
 30
0.0
  0
ENDBLK
  5
9B
330
21B
100
AcDbEntity
  8
0
100
AcDbBlockEnd
  0
BLOCK
  5
21E
330
21D
100
AcDbEntity
  8
0
100
AcDbBlockBegin
  2
*D13
 70
     1
 10
0.0
 20
0.0
 30
0.0
  3
*D13
  1

  0
LINE
  5
9E
330
21D
100
AcDbEntity
  8
0
  6
Continuous
 62
     7
100
AcDbLine
 10
71.59916700000002
 20
-14.55994399999999
 30
0.0
 11
71.59916700000002
 21
-28.059937
 31
0.0
  0
INSERT
  5
9F
330
21D
100
AcDbEntity
  8
0
  6
Continuous
 62
     7
100
AcDbBlockReference
  2
_DOT
 10
71.59916700000002
 20
-28.059937
 30
0.0
 50
270.0
  0
TEXT
  5
A0
330
21D
100
AcDbEntity
  8
0
  6
Continuous
 62
     7
100
AcDbText
 10
70.79916700000002
 20
-27.25294
 30
0.0
 40
3.2
  1
13.5
 50
90.00000300000001
 41
1.3928906
100
AcDbText
  0
POINT
  5
A1
330
21D
100
AcDbEntity
  8
DEFPOINTS
  6
Continuous
 62
     7
100
AcDbPoint
 10
48.099167
 20
-14.55994399999999
 30
0.0
  0
POINT
  5
A2
330
21D
100
AcDbEntity
  8
DEFPOINTS
  6
Continuous
 62
     7
100
AcDbPoint
 10
56.599167
 20
-28.059937
 30
0.0
  0
POINT
  5
A3
330
21D
100
AcDbEntity
  8
DEFPOINTS
  6
Continuous
 62
     7
100
AcDbPoint
 10
71.59916700000002
 20
-28.059937
 30
0.0
  0
ENDBLK
  5
A4
330
21D
100
AcDbEntity
  8
0
100
AcDbBlockEnd
  0
BLOCK
  5
220
330
21F
100
AcDbEntity
  8
0
100
AcDbBlockBegin
  2
*D14
 70
     1
 10
0.0
 20
0.0
 30
0.0
  3
*D14
  1

  0
LINE
  5
A7
330
21F
100
AcDbEntity
  8
0
  6
Continuous
 62
     7
100
AcDbLine
 10
71.59916700000002
 20
10.44005599999999
 30
0.0
 11
71.59916700000002
 21
-14.55994399999999
 31
0.0
  0
INSERT
  5
A8
330
21F
100
AcDbEntity
  8
0
  6
Continuous
 62
     7
100
AcDbBlockReference
  2
_DOT
 10
71.59916700000002
 20
-14.55994399999999
 30
0.0
 50
270.0
  0
LINE
  5
A9
330
21F
100
AcDbEntity
  8
0
  6
Continuous
 62
     7
100
AcDbLine
 10
50.639167
 20
-14.55994399999999
 30
0.0
 11
72.79916400000001
 21
-14.55994399999999
 31
0.0
  0
TEXT
  5
AA
330
21F
100
AcDbEntity
  8
0
  6
Continuous
 62
     7
100
AcDbText
 10
70.79916700000002
 20
-4.802944199999999
 30
0.0
 40
3.2
  1
25
 50
90.00000300000001
 41
1.028624999999999
100
AcDbText
  0
POINT
  5
AB
330
21F
100
AcDbEntity
  8
DEFPOINTS
  6
Continuous
 62
     7
100
AcDbPoint
 10
53.79916399999999
 20
10.44005599999999
 30
0.0
  0
POINT
  5
AC
330
21F
100
AcDbEntity
  8
DEFPOINTS
  6
Continuous
 62
     7
100
AcDbPoint
 10
48.099167
 20
-14.55994399999999
 30
0.0
  0
POINT
  5
AD
330
21F
100
AcDbEntity
  8
DEFPOINTS
  6
Continuous
 62
     7
100
AcDbPoint
 10
71.59916700000002
 20
-14.55994399999999
 30
0.0
  0
ENDBLK
  5
AE
330
21F
100
AcDbEntity
  8
0
100
AcDbBlockEnd
  0
BLOCK
  5
222
330
221
100
AcDbEntity
  8
0
100
AcDbBlockBegin
  2
*D15
 70
     1
 10
0.0
 20
0.0
 30
0.0
  3
*D15
  1

  0
LINE
  5
B1
330
221
100
AcDbEntity
  8
0
  6
Continuous
 62
     7
100
AcDbLine
 10
71.59916700000002
 20
35.440056
 30
0.0
 11
71.59916700000002
 21
10.44005599999999
 31
0.0
  0
INSERT
  5
B2
330
221
100
AcDbEntity
  8
0
  6
Continuous
 62
     7
100
AcDbBlockReference
  2
_DOT
 10
71.59916700000002
 20
10.44005599999999
 30
0.0
 50
270.0
  0
LINE
  5
B3
330
221
100
AcDbEntity
  8
0
  6
Continuous
 62
     7
100
AcDbLine
 10
56.339164
 20
10.44005599999999
 30
0.0
 11
72.79916400000001
 21
10.44005599999999
 31
0.0
  0
TEXT
  5
B4
330
221
100
AcDbEntity
  8
0
  6
Continuous
 62
     7
100
AcDbText
 10
70.79916700000002
 20
20.19705599999999
 30
0.0
 40
3.2
  1
25
 50
90.00000300000001
 41
1.028624999999999
100
AcDbText
  0
POINT
  5
B5
330
221
100
AcDbEntity
  8
DEFPOINTS
  6
Continuous
 62
     7
100
AcDbPoint
 10
53.79916399999999
 20
35.440056
 30
0.0
  0
POINT
  5
B6
330
221
100
AcDbEntity
  8
DEFPOINTS
  6
Continuous
 62
     7
100
AcDbPoint
 10
53.79916399999999
 20
10.44005599999999
 30
0.0
  0
POINT
  5
B7
330
221
100
AcDbEntity
  8
DEFPOINTS
  6
Continuous
 62
     7
100
AcDbPoint
 10
71.59916700000002
 20
10.44005599999999
 30
0.0
  0
ENDBLK
  5
B8
330
221
100
AcDbEntity
  8
0
100
AcDbBlockEnd
  0
BLOCK
  5
224
330
223
100
AcDbEntity
  8
0
100
AcDbBlockBegin
  2
*D16
 70
     1
 10
0.0
 20
0.0
 30
0.0
  3
*D16
  1

  0
LINE
  5
BB
330
223
100
AcDbEntity
  8
0
  6
Continuous
 62
     7
100
AcDbLine
 10
27.927595
 20
142.9576999999999
 30
0.0
 11
22.270741
 21
137.30084
 31
0.0
  0
INSERT
  5
BC
330
223
100
AcDbEntity
  8
0
  6
Continuous
 62
     7
100
AcDbBlockReference
  2
_DOT
 10
27.927595
 20
142.9576999999999
 30
0.0
 50
45.000029
  0
INSERT
  5
BD
330
223
100
AcDbEntity
  8
0
  6
Continuous
 62
     7
100
AcDbBlockReference
  2
_DOT
 10
22.270741
 20
137.30084
 30
0.0
 50
225.0000299999999
  0
TEXT
  5
BE
330
223
100
AcDbEntity
  8
0
  6
Continuous
 62
     7
100
AcDbText
 10
-1.720501499999999
 20
121.92927
 30
0.0
 40
3.2
  1
  
 41
3.085875
100
AcDbText
  0
POINT
  5
BF
330
223
100
AcDbEntity
  8
DEFPOINTS
  6
Continuous
 62
     7
100
AcDbPoint
 10
27.927595
 20
142.9576999999999
 30
0.0
  0
POINT
  5
C0
330
223
100
AcDbEntity
  8
DEFPOINTS
  6
Continuous
 62
     7
100
AcDbPoint
 10
22.270741
 20
137.30084
 30
0.0
  0
ENDBLK
  5
C1
330
223
100
AcDbEntity
  8
0
100
AcDbBlockEnd
  0
BLOCK
  5
226
330
225
100
AcDbEntity
  8
0
100
AcDbBlockBegin
  2
*D17
 70
     1
 10
0.0
 20
0.0
 30
0.0
  3
*D17
  1

  0
LINE
  5
C4
330
225
100
AcDbEntity
  8
0
  6
Continuous
 62
     7
100
AcDbLine
 10
39.57073599999999
 20
57.611626
 30
0.0
 11
45.227589
 21
63.26848199999999
 31
0.0
  0
INSERT
  5
C5
330
225
100
AcDbEntity
  8
0
  6
Continuous
 62
     7
100
AcDbBlockReference
  2
_DOT
 10
39.57073599999999
 20
57.611626
 30
0.0
 50
225.0000200000001
  0
INSERT
  5
C6
330
225
100
AcDbEntity
  8
0
  6
Continuous
 62
     7
100
AcDbBlockReference
  2
_DOT
 10
45.227589
 20
63.26848199999999
 30
0.0
 50
45.00001899999999
  0
TEXT
  5
C7
330
225
100
AcDbEntity
  8
0
  6
Continuous
 62
     7
100
AcDbText
 10
71.829176
 20
86.24005600000002
 30
0.0
 40
3.2
  1
  
 41
3.085875
100
AcDbText
  0
POINT
  5
C8
330
225
100
AcDbEntity
  8
DEFPOINTS
  6
Continuous
 62
     7
100
AcDbPoint
 10
39.57073599999999
 20
57.611626
 30
0.0
  0
POINT
  5
C9
330
225
100
AcDbEntity
  8
DEFPOINTS
  6
Continuous
 62
     7
100
AcDbPoint
 10
45.227589
 20
63.26848199999999
 30
0.0
  0
ENDBLK
  5
CA
330
225
100
AcDbEntity
  8
0
100
AcDbBlockEnd
  0
BLOCK
  5
228
330
227
100
AcDbEntity
  8
0
100
AcDbBlockBegin
  2
*D18
 70
     1
 10
0.0
 20
0.0
 30
0.0
  3
*D18
  1

  0
LINE
  5
CD
330
227
100
AcDbEntity
  8
0
  6
Continuous
 62
     7
100
AcDbLine
 10
71.59916700000002
 20
142.6292899999999
 30
0.0
 11
71.59916700000002
 21
152.77829
 31
0.0
  0
LINE
  5
CE
330
227
100
AcDbEntity
  8
0
  6
Continuous
 62
     7
100
AcDbLine
 10
71.59916700000002
 20
142.6292899999999
 30
0.0
 11
71.59916700000002
 21
141.22928
 31
0.0
  0
INSERT
  5
CF
330
227
100
AcDbEntity
  8
0
  6
Continuous
 62
     7
100
AcDbBlockReference
  2
_DOT
 10
71.59916700000002
 20
142.6292899999999
 30
0.0
 50
90.0
  0
INSERT
  5
D0
330
227
100
AcDbEntity
  8
0
  6
Continuous
 62
     7
100
AcDbBlockReference
  2
_DOT
 10
71.59916700000002
 20
141.22928
 30
0.0
 50
270.0
  0
LINE
  5
D1
330
227
100
AcDbEntity
  8
0
  6
Continuous
 62
     7
100
AcDbLine
 10
59.13916700000001
 20
141.22928
 30
0.0
 11
72.79916400000001
 21
141.22928
 31
0.0
  0
TEXT
  5
D2
330
227
100
AcDbEntity
  8
0
  6
Continuous
 62
     7
100
AcDbText
 10
70.79916700000002
 20
144.0922899999999
 30
0.0
 40
3.2
  1
1.4
 50
90.00000300000001
 41
1.628624999999999
100
AcDbText
  0
POINT
  5
D3
330
227
100
AcDbEntity
  8
DEFPOINTS
  6
Continuous
 62
     7
100
AcDbPoint
 10
56.599167
 20
142.6292899999999
 30
0.0
  0
POINT
  5
D4
330
227
100
AcDbEntity
  8
DEFPOINTS
  6
Continuous
 62
     7
100
AcDbPoint
 10
56.599167
 20
141.22928
 30
0.0
  0
POINT
  5
D5
330
227
100
AcDbEntity
  8
DEFPOINTS
  6
Continuous
 62
     7
100
AcDbPoint
 10
71.59916700000002
 20
141.22928
 30
0.0
  0
ENDBLK
  5
D6
330
227
100
AcDbEntity
  8
0
100
AcDbBlockEnd
  0
BLOCK
  5
22A
330
229
100
AcDbEntity
  8
0
100
AcDbBlockBegin
  2
*D19
 70
     1
 10
0.0
 20
0.0
 30
0.0
  3
*D19
  1

  0
LINE
  5
D9
330
229
100
AcDbEntity
  8
0
  6
Continuous
 62
     7
100
AcDbLine
 10
71.59916700000002
 20
141.22928
 30
0.0
 11
71.59916700000002
 21
139.02927
 31
0.0
  0
INSERT
  5
DA
330
229
100
AcDbEntity
  8
0
  6
Continuous
 62
     7
100
AcDbBlockReference
  2
_DOT
 10
71.59916700000002
 20
139.02927
 30
0.0
 50
270.0
  0
LINE
  5
DB
330
229
100
AcDbEntity
  8
0
  6
Continuous
 62
     7
100
AcDbLine
 10
59.13916700000001
 20
139.02927
 30
0.0
 11
72.79916400000001
 21
139.02927
 31
0.0
  0
TEXT
  5
DC
330
229
100
AcDbEntity
  8
0
  6
Continuous
 62
     7
100
AcDbText
 10
64.72974
 20
144.4326799999998
 30
0.0
 40
3.2
  1
  
 50
90.00000300000001
 41
3.085875
100
AcDbText
  0
POINT
  5
DD
330
229
100
AcDbEntity
  8
DEFPOINTS
  6
Continuous
 62
     7
100
AcDbPoint
 10
56.599167
 20
141.22928
 30
0.0
  0
POINT
  5
DE
330
229
100
AcDbEntity
  8
DEFPOINTS
  6
Continuous
 62
     7
100
AcDbPoint
 10
56.599167
 20
139.02927
 30
0.0
  0
POINT
  5
DF
330
229
100
AcDbEntity
  8
DEFPOINTS
  6
Continuous
 62
     7
100
AcDbPoint
 10
71.59916700000002
 20
139.02927
 30
0.0
  0
ENDBLK
  5
E0
330
229
100
AcDbEntity
  8
0
100
AcDbBlockEnd
  0
BLOCK
  5
22C
330
22B
100
AcDbEntity
  8
0
100
AcDbBlockBegin
  2
*D20
 70
     1
 10
0.0
 20
0.0
 30
0.0
  3
*D20
  1

  0
LINE
  5
E3
330
22B
100
AcDbEntity
  8
0
  6
Continuous
 62
     7
100
AcDbLine
 10
71.59916700000002
 20
137.62926
 30
0.0
 11
71.59916700000002
 21
127.82188
 31
0.0
  0
LINE
  5
E4
330
22B
100
AcDbEntity
  8
0
  6
Continuous
 62
     7
100
AcDbLine
 10
71.59916700000002
 20
139.02927
 30
0.0
 11
71.59916700000002
 21
137.62926
 31
0.0
  0
INSERT
  5
E5
330
22B
100
AcDbEntity
  8
0
  6
Continuous
 62
     7
100
AcDbBlockReference
  2
_DOT
 10
71.59916700000002
 20
137.62926
 30
0.0
 50
270.0
  0
TEXT
  5
E6
330
22B
100
AcDbEntity
  8
0
  6
Continuous
 62
     7
100
AcDbText
 10
70.79916700000002
 20
127.8218899999999
 30
0.0
 40
3.2
  1
1.4
 50
90.00000300000001
 41
1.628624999999999
100
AcDbText
  0
POINT
  5
E7
330
22B
100
AcDbEntity
  8
DEFPOINTS
  6
Continuous
 62
     7
100
AcDbPoint
 10
56.599167
 20
139.02927
 30
0.0
  0
POINT
  5
E8
330
22B
100
AcDbEntity
  8
DEFPOINTS
  6
Continuous
 62
     7
100
AcDbPoint
 10
56.599167
 20
137.62926
 30
0.0
  0
POINT
  5
E9
330
22B
100
AcDbEntity
  8
DEFPOINTS
  6
Continuous
 62
     7
100
AcDbPoint
 10
71.59916700000002
 20
137.62926
 30
0.0
  0
ENDBLK
  5
EA
330
22B
100
AcDbEntity
  8
0
100
AcDbBlockEnd
  0
BLOCK
  5
22E
330
22D
100
AcDbEntity
  8
0
100
AcDbBlockBegin
  2
*D21
 70
     1
 10
0.0
 20
0.0
 30
0.0
  3
*D21
  1

  0
LINE
  5
ED
330
22D
100
AcDbEntity
  8
0
  6
Continuous
 62
     7
100
AcDbLine
 10
81.599167
 20
137.62926
 30
0.0
 11
81.599167
 21
142.6292899999999
 31
0.0
  0
INSERT
  5
EE
330
22D
100
AcDbEntity
  8
0
  6
Continuous
 62
     7
100
AcDbBlockReference
  2
_DOT
 10
81.599167
 20
137.62926
 30
0.0
 50
270.0
  0
INSERT
  5
EF
330
22D
100
AcDbEntity
  8
0
  6
Continuous
 62
     7
100
AcDbBlockReference
  2
_DOT
 10
81.599167
 20
142.6292899999999
 30
0.0
 50
90.0
  0
LINE
  5
F0
330
22D
100
AcDbEntity
  8
0
  6
Continuous
 62
     7
100
AcDbLine
 10
59.13916700000001
 20
137.62926
 30
0.0
 11
82.79916400000001
 21
137.62926
 31
0.0
  0
LINE
  5
F1
330
22D
100
AcDbEntity
  8
0
  6
Continuous
 62
     7
100
AcDbLine
 10
59.13916700000001
 20
142.6292899999999
 30
0.0
 11
82.79916400000001
 21
142.6292899999999
 31
0.0
  0
TEXT
  5
F2
330
22D
100
AcDbEntity
  8
0
  6
Continuous
 62
     7
100
AcDbText
 10
80.79916700000003
 20
138.9862699999999
 30
0.0
 40
3.2
  1
5
 50
90.00000300000001
100
AcDbText
  0
POINT
  5
F3
330
22D
100
AcDbEntity
  8
DEFPOINTS
  6
Continuous
 62
     7
100
AcDbPoint
 10
56.599167
 20
137.62926
 30
0.0
  0
POINT
  5
F4
330
22D
100
AcDbEntity
  8
DEFPOINTS
  6
Continuous
 62
     7
100
AcDbPoint
 10
56.599167
 20
142.6292899999999
 30
0.0
  0
POINT
  5
F5
330
22D
100
AcDbEntity
  8
DEFPOINTS
  6
Continuous
 62
     7
100
AcDbPoint
 10
81.599167
 20
142.6292899999999
 30
0.0
  0
ENDBLK
  5
F6
330
22D
100
AcDbEntity
  8
0
100
AcDbBlockEnd
  0
BLOCK
  5
2C5
330
2C3
100
AcDbEntity
  8
0
100
AcDbBlockBegin
  2
GENAXEH
 70
     0
 10
0.0
 20
0.0
 30
0.0
  3
GENAXEH
  1

  0
LINE
  5
2C4
330
2C3
100
AcDbEntity
  8
0
100
AcDbLine
 10
-1.0
 20
0.0
 30
0.0
 11
1.0
 21
0.0
 31
0.0
  0
ENDBLK
  5
2C6
330
2C3
100
AcDbEntity
  8
0
100
AcDbBlockEnd
  0
ENDSEC
  0
SECTION
  2
ENTITIES
  0
LINE
  5
F7
330
1F3
100
AcDbEntity
  8
0
  6
Continuous
 62
     7
100
AcDbLine
 10
170.0
 20
173.0
 30
0.0
 11
170.0
 21
-100.0
 31
0.0
  0
LINE
  5
F8
330
1F3
100
AcDbEntity
  8
0
  6
Continuous
 62
     7
100
AcDbLine
 10
-211.0
 20
-100.0
 30
0.0
 11
170.0
 21
-100.0
 31
0.0
  0
LINE
  5
F9
330
1F3
100
AcDbEntity
  8
0
  6
Continuous
 62
     7
100
AcDbLine
 10
-211.0
 20
173.0
 30
0.0
 11
170.0
 21
173.0
 31
0.0
  0
LINE
  5
FA
330
1F3
100
AcDbEntity
  8
0
  6
Continuous
 62
     7
100
AcDbLine
 10
-211.0
 20
173.0
 30
0.0
 11
-211.0
 21
-100.0
 31
0.0
  0
LINE
  5
FB
330
1F3
100
AcDbEntity
  8
0
  6
Continuous
 62
     7
100
AcDbLine
 10
-191.0
 20
173.0
 30
0.0
 11
-191.0
 21
85.0
 31
0.0
  0
LINE
  5
FC
330
1F3
100
AcDbEntity
  8
0
  6
Continuous
 62
     7
100
AcDbLine
 10
-211.0
 20
165.0
 30
0.0
 11
-101.0
 21
165.0
 31
0.0
  0
LINE
  5
FD
330
1F3
100
AcDbEntity
  8
0
  6
Continuous
 62
     7
100
AcDbLine
 10
-211.0
 20
149.0
 30
0.0
 11
-101.0
 21
149.0
 31
0.0
  0
LINE
  5
FE
330
1F3
100
AcDbEntity
  8
0
  6
Continuous
 62
     7
100
AcDbLine
 10
-191.0
 20
125.0
 30
0.0
 11
-101.0
 21
125.0
 31
0.0
  0
LINE
  5
FF
330
1F3
100
AcDbEntity
  8
0
  6
Continuous
 62
     7
100
AcDbLine
 10
-191.0
 20
117.0
 30
0.0
 11
-101.0
 21
117.0
 31
0.0
  0
LINE
  5
100
330
1F3
100
AcDbEntity
  8
0
  6
Continuous
 62
     7
100
AcDbLine
 10
-211.0
 20
109.0
 30
0.0
 11
-101.0
 21
109.0
 31
0.0
  0
LINE
  5
101
330
1F3
100
AcDbEntity
  8
0
  6
Continuous
 62
     7
100
AcDbLine
 10
-191.0
 20
101.0
 30
0.0
 11
-101.0
 21
101.0
 31
0.0
  0
LINE
  5
102
330
1F3
100
AcDbEntity
  8
0
  6
Continuous
 62
     7
100
AcDbLine
 10
-191.0
 20
93.0
 30
0.0
 11
-101.0
 21
93.0
 31
0.0
  0
LINE
  5
103
330
1F3
100
AcDbEntity
  8
0
  6
Continuous
 62
     7
100
AcDbLine
 10
-211.0
 20
85.0
 30
0.0
 11
-101.0
 21
85.0
 31
0.0
  0
LINE
  5
104
330
1F3
100
AcDbEntity
  8
0
  6
Continuous
 62
     7
100
AcDbLine
 10
-211.0
 20
173.0
 30
0.0
 11
-211.0
 21
85.0
 31
0.0
  0
LINE
  5
105
330
1F3
100
AcDbEntity
  8
0
  6
Continuous
 62
     7
100
AcDbLine
 10
-211.0
 20
173.0
 30
0.0
 11
-101.0
 21
173.0
 31
0.0
  0
LINE
  5
106
330
1F3
100
AcDbEntity
  8
0
  6
Continuous
 62
     7
100
AcDbLine
 10
-101.0
 20
173.0
 30
0.0
 11
-101.0
 21
85.0
 31
0.0
  0
LINE
  5
107
330
1F3
100
AcDbEntity
  8
0
  6
Continuous
 62
     7
100
AcDbLine
 10
-211.0
 20
133.0
 30
0.0
 11
-101.0
 21
133.0
 31
0.0
  0
LINE
  5
108
330
1F3
100
AcDbEntity
  8
0
  6
Continuous
 62
     7
100
AcDbLine
 10
-191.0
 20
125.0
 30
0.0
 11
-101.0
 21
125.0
 31
0.0
  0
LINE
  5
109
330
1F3
100
AcDbEntity
  8
0
  6
Continuous
 62
     7
100
AcDbLine
 10
-211.0
 20
157.0
 30
0.0
 11
-101.0
 21
157.0
 31
0.0
  0
LINE
  5
10A
330
1F3
100
AcDbEntity
  8
0
  6
Continuous
 62
     7
100
AcDbLine
 10
-211.0
 20
141.0
 30
0.0
 11
-101.0
 21
141.0
 31
0.0
  0
LINE
  5
10B
330
1F3
100
AcDbEntity
  8
0
  6
Continuous
 62
     3
100
AcDbLine
 10
-6.400834999999998
 20
73.94005600000001
 30
0.0
 11
-6.400834999999998
 21
-28.059944
 31
0.0
  0
LINE
  5
10C
330
1F3
100
AcDbEntity
  8
0
  6
Continuous
 62
     3
100
AcDbLine
 10
56.599167
 20
73.94005600000001
 30
0.0
 11
56.599167
 21
-28.059944
 31
0.0
  0
LINE
  5
10D
330
1F3
100
AcDbEntity
  8
0
  6
Continuous
 62
     3
100
AcDbLine
 10
-6.400834999999998
 20
73.94005600000001
 30
0.0
 11
19.899164
 21
73.94005600000001
 31
0.0
  0
LINE
  5
10E
330
1F3
100
AcDbEntity
  8
0
  6
Continuous
 62
     3
100
AcDbLine
 10
-6.400834999999998
 20
-28.059937
 30
0.0
 11
19.899164
 21
-28.059937
 31
0.0
  0
LINE
  5
10F
330
1F3
100
AcDbEntity
  8
0
  6
CENTER
 62
     7
100
AcDbLine
 10
18.559164
 20
140.1292699999999
 30
0.0
 11
31.63916599999999
 21
140.1292699999999
 31
0.0
  0
LINE
  5
110
330
1F3
100
AcDbEntity
  8
0
  6
Continuous
 62
     3
100
AcDbLine
 10
21.099165
 20
73.94005600000001
 30
0.0
 11
21.099165
 21
-28.059944
 31
0.0
  0
LINE
  5
111
330
1F3
100
AcDbEntity
  8
0
  6
CENTER
 62
     7
100
AcDbLine
 10
25.099165
 20
146.6692699999999
 30
0.0
 11
25.099165
 21
133.5892599999999
 31
0.0
  0
LINE
  5
112
330
1F3
100
AcDbEntity
  8
0
  6
Continuous
 62
     3
100
AcDbLine
 10
29.099165
 20
73.94005600000001
 30
0.0
 11
29.099165
 21
-28.059944
 31
0.0
  0
LINE
  5
113
330
1F3
100
AcDbEntity
  8
0
  6
PHANTOM
 62
     7
100
AcDbLine
 10
56.599167
 20
137.62926
 30
0.0
 11
56.599167
 21
139.02927
 31
0.0
  0
LINE
  5
114
330
1F3
100
AcDbEntity
  8
0
  6
Continuous
 62
     3
100
AcDbLine
 10
28.94494099999999
 20
141.22928
 30
0.0
 11
56.599167
 21
141.22928
 31
0.0
  0
LINE
  5
115
330
1F3
100
AcDbEntity
  8
0
  6
Continuous
 62
     3
100
AcDbLine
 10
28.221657
 20
142.6292899999999
 30
0.0
 11
56.599167
 21
142.6292899999999
 31
0.0
  0
LINE
  5
116
330
1F3
100
AcDbEntity
  8
0
  6
Continuous
 62
     3
100
AcDbLine
 10
56.599167
 20
142.6292899999999
 30
0.0
 11
56.599167
 21
141.22928
 31
0.0
  0
LINE
  5
117
330
1F3
100
AcDbEntity
  8
0
  6
PHANTOM
 62
     7
100
AcDbLine
 10
28.299158
 20
137.62926
 30
0.0
 11
56.599167
 21
137.62926
 31
0.0
  0
LINE
  5
118
330
1F3
100
AcDbEntity
  8
0
  6
PHANTOM
 62
     7
100
AcDbLine
 10
28.97214699999999
 20
139.02927
 30
0.0
 11
56.599167
 21
139.02927
 31
0.0
  0
LINE
  5
119
330
1F3
100
AcDbEntity
  8
0
  6
Continuous
 62
     3
100
AcDbLine
 10
21.976673
 20
142.6292899999999
 30
0.0
 11
-6.400834999999998
 21
142.6292899999999
 31
0.0
  0
LINE
  5
11A
330
1F3
100
AcDbEntity
  8
0
  6
Continuous
 62
     3
100
AcDbLine
 10
21.253389
 20
141.22928
 30
0.0
 11
-6.400834999999998
 21
141.22928
 31
0.0
  0
LINE
  5
11B
330
1F3
100
AcDbEntity
  8
0
  6
Continuous
 62
     3
100
AcDbLine
 10
-6.400834999999998
 20
142.6292899999999
 30
0.0
 11
-6.400834999999998
 21
141.22928
 31
0.0
  0
LINE
  5
11C
330
1F3
100
AcDbEntity
  8
0
  6
Continuous
 62
     3
100
AcDbLine
 10
21.099165
 20
73.94005600000001
 30
0.0
 11
56.599167
 21
73.94005600000001
 31
0.0
  0
LINE
  5
11D
330
1F3
100
AcDbEntity
  8
0
  6
Continuous
 62
     3
100
AcDbLine
 10
21.099165
 20
-28.059937
 30
0.0
 11
56.599167
 21
-28.059937
 31
0.0
  0
LINE
  5
11E
330
1F3
100
AcDbEntity
  8
0
  6
Continuous
 62
     3
100
AcDbLine
 10
19.899164
 20
-9.0599442
 30
0.0
 11
30.29916599999999
 21
-9.0599442
 31
0.0
  0
LINE
  5
11F
330
1F3
100
AcDbEntity
  8
0
  6
Continuous
 62
     3
100
AcDbLine
 10
19.899164
 20
13.440056
 30
0.0
 11
30.29916599999999
 21
13.440056
 31
0.0
  0
LINE
  5
120
330
1F3
100
AcDbEntity
  8
0
  6
Continuous
 62
     3
100
AcDbLine
 10
19.899164
 20
32.44005599999999
 30
0.0
 11
30.29916599999999
 21
32.44005599999999
 31
0.0
  0
LINE
  5
121
330
1F3
100
AcDbEntity
  8
0
  6
Continuous
 62
     3
100
AcDbLine
 10
19.899164
 20
54.94005600000001
 30
0.0
 11
30.29916599999999
 21
54.94005600000001
 31
0.0
  0
LINE
  5
122
330
1F3
100
AcDbEntity
  8
0
  6
Continuous
 62
     3
100
AcDbLine
 10
30.29916599999999
 20
54.94005600000001
 30
0.0
 11
30.29916599999999
 21
32.44005599999999
 31
0.0
  0
LINE
  5
123
330
1F3
100
AcDbEntity
  8
0
  6
Continuous
 62
     3
100
AcDbLine
 10
19.899164
 20
73.94005600000001
 30
0.0
 11
19.899164
 21
54.94005600000001
 31
0.0
  0
LINE
  5
124
330
1F3
100
AcDbEntity
  8
0
  6
Continuous
 62
     3
100
AcDbLine
 10
19.899164
 20
32.44005599999999
 30
0.0
 11
19.899164
 21
13.440056
 31
0.0
  0
LINE
  5
125
330
1F3
100
AcDbEntity
  8
0
  6
Continuous
 62
     3
100
AcDbLine
 10
19.899164
 20
-9.0599442
 30
0.0
 11
19.899164
 21
-28.059944
 31
0.0
  0
LINE
  5
126
330
1F3
100
AcDbEntity
  8
0
  6
Continuous
 62
     3
100
AcDbLine
 10
30.29916599999999
 20
13.440056
 30
0.0
 11
30.29916599999999
 21
-9.0599442
 31
0.0
  0
LINE
  5
127
330
1F3
100
AcDbEntity
  8
0
  6
CENTER
 62
     7
100
AcDbLine
 10
10.399163
 20
35.440056
 30
0.0
 11
-3.600836499999998
 21
35.440056
 31
0.0
  0
LINE
  5
128
330
1F3
100
AcDbEntity
  8
0
  6
CENTER
 62
     7
100
AcDbLine
 10
3.399163499999999
 20
42.440056
 30
0.0
 11
3.399163499999999
 21
28.440056
 31
0.0
  0
LINE
  5
129
330
1F3
100
AcDbEntity
  8
0
  6
CENTER
 62
     7
100
AcDbLine
 10
10.399163
 20
10.44005599999999
 30
0.0
 11
-3.600836499999998
 21
10.44005599999999
 31
0.0
  0
LINE
  5
12A
330
1F3
100
AcDbEntity
  8
0
  6
CENTER
 62
     7
100
AcDbLine
 10
3.399163499999999
 20
17.44005599999999
 30
0.0
 11
3.399163499999999
 21
3.440055799999999
 31
0.0
  0
LINE
  5
12B
330
1F3
100
AcDbEntity
  8
0
  6
CENTER
 62
     7
100
AcDbLine
 10
15.79916499999999
 20
-14.55994399999999
 30
0.0
 11
1.799164899999999
 21
-14.55994399999999
 31
0.0
  0
LINE
  5
12C
330
1F3
100
AcDbEntity
  8
0
  6
CENTER
 62
     7
100
AcDbLine
 10
8.799164799999999
 20
-7.559944199999998
 30
0.0
 11
8.799164799999999
 21
-21.559944
 31
0.0
  0
LINE
  5
12D
330
1F3
100
AcDbEntity
  8
0
  6
CENTER
 62
     7
100
AcDbLine
 10
48.099167
 20
-14.55994399999999
 30
0.0
 11
34.699165
 21
-14.55994399999999
 31
0.0
  0
LINE
  5
12E
330
1F3
100
AcDbEntity
  8
0
  6
CENTER
 62
     7
100
AcDbLine
 10
41.39916599999999
 20
-7.859944299999998
 30
0.0
 11
41.39916599999999
 21
-21.259945
 31
0.0
  0
LINE
  5
12F
330
1F3
100
AcDbEntity
  8
0
  6
CENTER
 62
     7
100
AcDbLine
 10
53.79916399999999
 20
10.44005599999999
 30
0.0
 11
39.799164
 21
10.44005599999999
 31
0.0
  0
LINE
  5
130
330
1F3
100
AcDbEntity
  8
0
  6
CENTER
 62
     7
100
AcDbLine
 10
46.79916399999999
 20
17.44005599999999
 30
0.0
 11
46.79916399999999
 21
3.440055799999999
 31
0.0
  0
LINE
  5
131
330
1F3
100
AcDbEntity
  8
0
  6
CENTER
 62
     7
100
AcDbLine
 10
53.79916399999999
 20
35.440056
 30
0.0
 11
39.799164
 21
35.440056
 31
0.0
  0
LINE
  5
132
330
1F3
100
AcDbEntity
  8
0
  6
CENTER
 62
     7
100
AcDbLine
 10
46.79916399999999
 20
42.440056
 30
0.0
 11
46.79916399999999
 21
28.440056
 31
0.0
  0
LINE
  5
133
330
1F3
100
AcDbEntity
  8
0
  6
CENTER
 62
     7
100
AcDbLine
 10
49.399166
 20
60.44005600000001
 30
0.0
 11
35.399166
 21
60.44005600000001
 31
0.0
  0
LINE
  5
134
330
1F3
100
AcDbEntity
  8
0
  6
CENTER
 62
     7
100
AcDbLine
 10
42.39916599999999
 20
67.44005600000001
 30
0.0
 11
42.39916599999999
 21
53.440056
 31
0.0
  0
LINE
  5
135
330
1F3
100
AcDbEntity
  8
0
  6
CENTER
 62
     7
100
AcDbLine
 10
14.79916499999999
 20
60.44005600000001
 30
0.0
 11
0.7991648900000002
 21
60.44005600000001
 31
0.0
  0
LINE
  5
136
330
1F3
100
AcDbEntity
  8
0
  6
CENTER
 62
     7
100
AcDbLine
 10
7.799164799999999
 20
67.44005600000001
 30
0.0
 11
7.799164799999999
 21
53.440056
 31
0.0
  0
LINE
  5
137
330
1F3
100
AcDbEntity
  8
0
  6
CENTER
 62
     7
100
AcDbLine
 10
25.099165
 20
78.44005600000001
 30
0.0
 11
25.099165
 21
-32.55993699999999
 31
0.0
  0
LINE
  5
138
330
1F3
100
AcDbEntity
  8
0
  6
CENTER
 62
     7
100
AcDbLine
 10
3.399163499999999
 20
145.62929
 30
0.0
 11
3.399163499999999
 21
138.22928
 31
0.0
  0
LINE
  5
139
330
1F3
100
AcDbEntity
  8
0
  6
CENTER
 62
     7
100
AcDbLine
 10
7.799164799999999
 20
145.62929
 30
0.0
 11
7.799164799999999
 21
138.22928
 31
0.0
  0
LINE
  5
13A
330
1F3
100
AcDbEntity
  8
0
  6
CENTER
 62
     7
100
AcDbLine
 10
42.39916599999999
 20
145.62929
 30
0.0
 11
42.39916599999999
 21
138.22928
 31
0.0
  0
LINE
  5
13B
330
1F3
100
AcDbEntity
  8
0
  6
CENTER
 62
     7
100
AcDbLine
 10
46.79916399999999
 20
145.62929
 30
0.0
 11
46.79916399999999
 21
138.22928
 31
0.0
  0
CIRCLE
  5
13C
330
1F3
100
AcDbEntity
  8
0
  6
Continuous
 62
     3
100
AcDbCircle
 10
41.39916599999999
 20
-14.55994399999999
 30
0.0
 40
3.7
  0
CIRCLE
  5
13D
330
1F3
100
AcDbEntity
  8
0
  6
Continuous
 62
     3
100
AcDbCircle
 10
25.099165
 20
140.1292699999999
 30
0.0
 40
4.0
  0
ARC
  5
13E
330
1F3
100
AcDbEntity
  8
0
  6
Continuous
 62
     7
100
AcDbCircle
 10
25.099165
 20
69.35672
 30
0.0
 40
6.0833335
100
AcDbArc
 50
48.887925
 51
131.1120699999999
  0
ARC
  5
13F
330
1F3
100
AcDbEntity
  8
0
  6
Continuous
 62
     7
100
AcDbCircle
 10
25.099165
 20
-23.476603
 30
0.0
 40
6.0833335
100
AcDbArc
 50
228.8879099999999
 51
311.1120899999999
  0
CIRCLE
  5
140
330
1F3
100
AcDbEntity
  8
0
  6
Continuous
 62
     3
100
AcDbCircle
 10
7.799164799999999
 20
60.44005600000001
 30
0.0
 40
4.0
  0
CIRCLE
  5
141
330
1F3
100
AcDbEntity
  8
0
  6
Continuous
 62
     3
100
AcDbCircle
 10
3.399163499999999
 20
35.440056
 30
0.0
 40
4.0
  0
CIRCLE
  5
142
330
1F3
100
AcDbEntity
  8
0
  6
Continuous
 62
     3
100
AcDbCircle
 10
42.39916599999999
 20
60.44005600000001
 30
0.0
 40
4.0
  0
CIRCLE
  5
143
330
1F3
100
AcDbEntity
  8
0
  6
Continuous
 62
     3
100
AcDbCircle
 10
46.79916399999999
 20
35.440056
 30
0.0
 40
4.0
  0
CIRCLE
  5
144
330
1F3
100
AcDbEntity
  8
0
  6
Continuous
 62
     3
100
AcDbCircle
 10
3.399163499999999
 20
10.44005599999999
 30
0.0
 40
4.0
  0
CIRCLE
  5
145
330
1F3
100
AcDbEntity
  8
0
  6
Continuous
 62
     3
100
AcDbCircle
 10
8.799164799999999
 20
-14.55994399999999
 30
0.0
 40
4.0
  0
CIRCLE
  5
146
330
1F3
100
AcDbEntity
  8
0
  6
Continuous
 62
     3
100
AcDbCircle
 10
46.79916399999999
 20
10.44005599999999
 30
0.0
 40
4.0
  0
CIRCLE
  5
147
330
1F3
100
AcDbEntity
  8
0
  6
Continuous
 62
     3
100
AcDbCircle
 10
7.799164799999999
 20
60.44005600000001
 30
0.0
 40
2.75
  0
CIRCLE
  5
148
330
1F3
100
AcDbEntity
  8
0
  6
Continuous
 62
     3
100
AcDbCircle
 10
3.399163499999999
 20
35.440056
 30
0.0
 40
2.75
  0
CIRCLE
  5
149
330
1F3
100
AcDbEntity
  8
0
  6
Continuous
 62
     3
100
AcDbCircle
 10
3.399163499999999
 20
10.44005599999999
 30
0.0
 40
2.75
  0
CIRCLE
  5
14A
330
1F3
100
AcDbEntity
  8
0
  6
Continuous
 62
     3
100
AcDbCircle
 10
42.39916599999999
 20
60.44005600000001
 30
0.0
 40
2.75
  0
CIRCLE
  5
14B
330
1F3
100
AcDbEntity
  8
0
  6
Continuous
 62
     3
100
AcDbCircle
 10
46.79916399999999
 20
35.440056
 30
0.0
 40
2.75
  0
CIRCLE
  5
14C
330
1F3
100
AcDbEntity
  8
0
  6
Continuous
 62
     3
100
AcDbCircle
 10
46.79916399999999
 20
10.44005599999999
 30
0.0
 40
2.75
  0
CIRCLE
  5
14D
330
1F3
100
AcDbEntity
  8
0
  6
Continuous
 62
     3
100
AcDbCircle
 10
41.39916599999999
 20
-14.55994399999999
 30
0.0
 40
2.45
  0
CIRCLE
  5
14E
330
1F3
100
AcDbEntity
  8
0
  6
Continuous
 62
     3
100
AcDbCircle
 10
8.799164799999999
 20
-14.55994399999999
 30
0.0
 40
2.75
  0
TEXT
  5
14F
330
1F3
100
AcDbEntity
  8
0
  6
Continuous
 62
     7
100
AcDbText
 10
-188.1429999999999
 20
103.4
 30
0.0
 40
3.2
  1
丁番係数：　８．５
 41
0.84496202
100
AcDbText
  0
TEXT
  5
150
330
1F3
100
AcDbEntity
  8
0
  6
Continuous
 62
     7
100
AcDbText
 10
-205.343
 20
167.4
 30
0.0
 40
3.2
  1
品　名
 41
0.85537027
100
AcDbText
  0
TEXT
  5
151
330
1F3
100
AcDbEntity
  8
0
  6
Continuous
 62
     7
100
AcDbText
 10
-205.343
 20
159.4
 30
0.0
 40
3.2
  1
品　番
 41
0.85537027
100
AcDbText
  0
TEXT
  5
152
330
1F3
100
AcDbEntity
  8
0
  6
Continuous
 62
     7
100
AcDbText
 10
-205.343
 20
151.4
 30
0.0
 40
3.2
  1
材　質
 41
0.85537027
100
AcDbText
  0
TEXT
  5
153
330
1F3
100
AcDbEntity
  8
0
  6
Continuous
 62
     7
100
AcDbText
 10
-205.343
 20
143.4
 30
0.0
 40
3.2
  1
仕上げ
 41
0.85537027
100
AcDbText
  0
TEXT
  5
154
330
1F3
100
AcDbEntity
  8
0
  6
Continuous
 62
     7
100
AcDbText
 10
-188.1429999999999
 20
111.4
 30
0.0
 40
3.2
  1
＊
 41
0.90047268
100
AcDbText
  0
TEXT
  5
155
330
1F3
100
AcDbEntity
  8
0
  6
Continuous
 62
     7
100
AcDbText
 10
-188.1429999999999
 20
119.4
 30
0.0
 40
3.2
  1
＊
 41
0.90047268
100
AcDbText
  0
TEXT
  5
156
330
1F3
100
AcDbEntity
  8
0
  6
Continuous
 62
     7
100
AcDbText
 10
-208.543
 20
127.4
 30
0.0
 40
3.2
  1
セットビス
 41
0.84892707
100
AcDbText
  0
TEXT
  5
157
330
1F3
100
AcDbEntity
  8
0
  6
Continuous
 62
     7
100
AcDbText
 10
-203.743
 20
103.4
 30
0.0
 40
3.2
  1
備考
 41
0.8643907499999999
100
AcDbText
  0
TEXT
  5
158
330
1F3
100
AcDbEntity
  8
0
  6
Continuous
 62
     7
100
AcDbText
 10
-206.9429999999999
 20
135.4
 30
0.0
 40
3.2
  1
左右勝手
 41
0.8512700499999999
100
AcDbText
  0
TEXT
  5
159
330
1F3
100
AcDbEntity
  8
0
  6
Continuous
 62
     7
100
AcDbText
 10
-188.1429999999999
 20
167.4
 30
0.0
 40
3.2
  1
中厚丁番
 41
0.8512700499999999
100
AcDbText
  0
TEXT
  5
15A
330
1F3
100
AcDbEntity
  8
0
  6
Continuous
 62
     7
100
AcDbText
 10
-188.1429999999999
 20
159.4
 30
0.0
 40
3.2
  1
ＤＨ－２５５Ｓ－１０２
 41
0.8440946700000001
100
AcDbText
  0
TEXT
  5
15B
330
1F3
100
AcDbEntity
  8
0
  6
Continuous
 62
     7
100
AcDbText
 10
-188.1429999999999
 20
151.4
 30
0.0
 40
3.2
  1
羽根：ステンレス／軸：ステンレス
 41
0.8428951399999997
100
AcDbText
  0
TEXT
  5
15C
330
1F3
100
AcDbEntity
  8
0
  6
Continuous
 62
     7
100
AcDbText
 10
-188.0573399999999
 20
143.4
 30
0.0
 40
3.2
  1
羽根：HL／軸：生地
 41
0.7811973000000001
100
AcDbText
  0
DIMENSION
  5
15D
330
1F3
100
AcDbEntity
  8
0
  6
Continuous
 62
     7
100
AcDbDimension
  2
*D4
 10
25.099165
 20
85.44005600000001
 30
0.0
 11
9.349164999999999
 21
85.44005600000001
 31
0.0
 71
     5
 42
-1.0
  3
DIMSTYLE
100
AcDbAlignedDimension
 13
-6.400834999999998
 23
73.94005600000001
 33
0.0
 14
25.099165
 24
78.44005600000001
 34
0.0
100
AcDbRotatedDimension
1001
ACAD
1000
DSTYLE
1002
{
1070
    77
1070
     1
1070
   172
1070
     1
1070
    75
1070
     1
1002
}
  0
DIMENSION
  5
15E
330
1F3
100
AcDbEntity
  8
0
  6
Continuous
 62
     7
100
AcDbDimension
  2
*D5
 10
56.599167
 20
85.44005600000001
 30
0.0
 11
40.84916699999999
 21
85.44005600000001
 31
0.0
 71
     5
 42
-1.0
  3
DIMSTYLE
100
AcDbAlignedDimension
 13
25.099165
 23
78.44005600000001
 33
0.0
 14
56.599167
 24
73.94005600000001
 34
0.0
100
AcDbRotatedDimension
1001
ACAD
1000
DSTYLE
1002
{
1070
     6
1000
_NONE
1070
    77
1070
     1
1070
   172
1070
     1
1070
    75
1070
     1
1070
    76
1070
     1
1002
}
  0
DIMENSION
  5
15F
330
1F3
100
AcDbEntity
  8
0
  6
Continuous
 62
     7
100
AcDbDimension
  2
*D6
 10
-6.400834999999998
 20
95.440056
 30
0.0
 11
25.099165
 21
95.440056
 31
0.0
 71
     5
 42
-1.0
  3
DIMSTYLE
100
AcDbAlignedDimension
 13
56.599167
 23
73.94005600000001
 33
0.0
 14
-6.400834999999998
 24
73.94005600000001
 34
0.0
100
AcDbRotatedDimension
1001
ACAD
1000
DSTYLE
1002
{
1070
    77
1070
     1
1070
   172
1070
     1
1002
}
  0
DIMENSION
  5
160
330
1F3
100
AcDbEntity
  8
0
  6
Continuous
 62
     7
100
AcDbDimension
  2
*D7
 10
71.59916700000002
 20
35.440056
 30
0.0
 11
71.59916700000002
 21
47.940056
 31
0.0
 71
     5
 42
-1.0
  3
DIMSTYLE
100
AcDbAlignedDimension
 13
49.399166
 23
60.44005600000001
 33
0.0
 14
53.79916399999999
 24
35.440056
 34
0.0
 50
90.0
100
AcDbRotatedDimension
1001
ACAD
1000
DSTYLE
1002
{
1070
     6
1000
_NONE
1070
    77
1070
     1
1070
   172
1070
     1
1070
    75
1070
     1
1002
}
  0
DIMENSION
  5
161
330
1F3
100
AcDbEntity
  8
0
  6
Continuous
 62
     7
100
AcDbDimension
  2
*D8
 10
71.59916700000002
 20
60.44005600000001
 30
0.0
 11
71.59916700000002
 21
67.19005600000001
 31
0.0
 71
     5
 42
-1.0
  3
DIMSTYLE
100
AcDbAlignedDimension
 13
56.599167
 23
73.94005600000001
 33
0.0
 14
49.399166
 24
60.44005600000001
 34
0.0
 50
90.0
100
AcDbRotatedDimension
1001
ACAD
1000
DSTYLE
1002
{
1070
    77
1070
     1
1070
   172
1070
     1
1070
    75
1070
     1
1002
}
  0
DIMENSION
  5
162
330
1F3
100
AcDbEntity
  8
0
  6
Continuous
 62
     7
100
AcDbDimension
  2
*D9
 10
56.599167
 20
-44.55993699999999
 30
0.0
 11
63.923588
 21
-44.55993699999999
 31
0.0
 71
     5
 42
-1.0
  3
DIMSTYLE
100
AcDbAlignedDimension
 13
46.79916399999999
 23
3.440055799999999
 33
0.0
 14
56.599167
 24
-28.059944
 34
0.0
100
AcDbRotatedDimension
1001
ACAD
1000
DSTYLE
1002
{
1070
     6
1000
_NONE
1070
    77
1070
     1
1070
   172
1070
     1
1070
    75
1070
     1
1002
}
  0
POLYLINE
  5
163
330
1F3
100
AcDbEntity
  8
0
  6
Continuous
 62
     7
100
AcDb2dPolyline
 66
     1
 10
0.0
 20
0.0
 30
0.0
  0
VERTEX
  5
1AE
330
163
100
AcDbEntity
  8
0
  6
Continuous
 62
     7
100
AcDbVertex
100
AcDb2dVertex
 10
44.09916299999999
 20
-44.55993699999999
 30
0.0
  0
VERTEX
  5
1AF
330
163
100
AcDbEntity
  8
0
  6
Continuous
 62
     7
100
AcDbVertex
100
AcDb2dVertex
 10
48.261848
 20
-51.769917
 30
0.0
  0
VERTEX
  5
1B0
330
163
100
AcDbEntity
  8
0
  6
Continuous
 62
     7
100
AcDbVertex
100
AcDb2dVertex
 10
68.463081
 20
-51.76992
 30
0.0
  0
SEQEND
  5
1B1
330
163
100
AcDbEntity
  8
0
  6
Continuous
 62
     7
  0
LINE
  5
168
330
1F3
100
AcDbEntity
  8
0
  6
Continuous
 62
     7
100
AcDbLine
 10
44.09916299999999
 20
-44.55993699999999
 30
0.0
 11
46.14987
 21
-46.987864
 31
0.0
  0
LINE
  5
169
330
1F3
100
AcDbEntity
  8
0
  6
Continuous
 62
     7
100
AcDbLine
 10
44.09916299999999
 20
-44.55993699999999
 30
0.0
 11
45.176457
 21
-47.54986399999999
 31
0.0
  0
TEXT
  5
16A
330
1F3
100
AcDbEntity
  8
0
  6
Continuous
 62
     7
100
AcDbText
 10
59.777087
 20
-50.96992
 30
0.0
 40
3.2
  1
5.4
 41
1.357187499999999
100
AcDbText
  0
DIMENSION
  5
16B
330
1F3
100
AcDbEntity
  8
0
  6
Continuous
 62
     7
100
AcDbDimension
  2
*D10
 10
46.79916399999999
 20
-44.55993699999999
 30
0.0
 11
64.120087
 21
-51.76992
 31
0.0
 71
     5
 42
-1.0
  3
DIMSTYLE
100
AcDbAlignedDimension
 13
41.39916599999999
 23
-21.259945
 33
0.0
 14
46.79916399999999
 24
3.440055799999999
 34
0.0
100
AcDbRotatedDimension
1001
ACAD
1000
DSTYLE
1002
{
1070
     6
1000
_NONE
1070
    77
1070
     1
1070
   172
1070
     1
1070
    75
1070
     1
1002
}
  0
DIMENSION
  5
16C
330
1F3
100
AcDbEntity
  8
0
  6
Continuous
 62
     7
100
AcDbDimension
  2
*D11
 10
41.39916599999999
 20
-44.55993699999999
 30
0.0
 11
33.249165
 21
-44.55993699999999
 31
0.0
 71
     5
 42
-1.0
  3
DIMSTYLE
100
AcDbAlignedDimension
 13
25.099165
 23
-32.55993699999999
 33
0.0
 14
41.39916599999999
 24
-21.259945
 34
0.0
100
AcDbRotatedDimension
1001
ACAD
1000
DSTYLE
1002
{
1070
    77
1070
     1
1070
   172
1070
     1
1002
}
  0
DIMENSION
  5
16D
330
1F3
100
AcDbEntity
  8
0
  6
Continuous
 62
     7
100
AcDbDimension
  2
*D12
 10
81.599167
 20
73.94005600000001
 30
0.0
 11
81.599167
 21
22.94005999999999
 31
0.0
 71
     5
 42
-1.0
  3
DIMSTYLE
100
AcDbAlignedDimension
 13
56.599167
 23
-28.059937
 33
0.0
 14
56.599167
 24
73.94005600000001
 34
0.0
 50
90.0
100
AcDbRotatedDimension
1001
ACAD
1000
DSTYLE
1002
{
1070
    77
1070
     1
1070
   172
1070
     1
1002
}
  0
DIMENSION
  5
16E
330
1F3
100
AcDbEntity
  8
0
  6
Continuous
 62
     7
100
AcDbDimension
  2
*D13
 10
71.59916700000002
 20
-28.059937
 30
0.0
 11
71.59916700000002
 21
-21.30994
 31
0.0
 71
     5
 42
-1.0
  3
DIMSTYLE
100
AcDbAlignedDimension
 13
48.099167
 23
-14.55994399999999
 33
0.0
 14
56.599167
 24
-28.059937
 34
0.0
 50
90.0
100
AcDbRotatedDimension
1001
ACAD
1000
DSTYLE
1002
{
1070
     6
1000
_NONE
1070
    77
1070
     1
1070
   172
1070
     1
1070
    75
1070
     1
1070
    76
1070
     1
1002
}
  0
DIMENSION
  5
16F
330
1F3
100
AcDbEntity
  8
0
  6
Continuous
 62
     7
100
AcDbDimension
  2
*D14
 10
71.59916700000002
 20
-14.55994399999999
 30
0.0
 11
71.59916700000002
 21
-2.059944199999999
 31
0.0
 71
     5
 42
-1.0
  3
DIMSTYLE
100
AcDbAlignedDimension
 13
53.79916399999999
 23
10.44005599999999
 33
0.0
 14
48.099167
 24
-14.55994399999999
 34
0.0
 50
90.0
100
AcDbRotatedDimension
1001
ACAD
1000
DSTYLE
1002
{
1070
     6
1000
_NONE
1070
    77
1070
     1
1070
   172
1070
     1
1070
    75
1070
     1
1002
}
  0
DIMENSION
  5
170
330
1F3
100
AcDbEntity
  8
0
  6
Continuous
 62
     7
100
AcDbDimension
  2
*D15
 10
71.59916700000002
 20
10.44005599999999
 30
0.0
 11
71.59916700000002
 21
22.94005599999999
 31
0.0
 71
     5
 42
-1.0
  3
DIMSTYLE
100
AcDbAlignedDimension
 13
53.79916399999999
 23
35.440056
 33
0.0
 14
53.79916399999999
 24
10.44005599999999
 34
0.0
 50
90.0
100
AcDbRotatedDimension
1001
ACAD
1000
DSTYLE
1002
{
1070
     6
1000
_NONE
1070
    77
1070
     1
1070
   172
1070
     1
1070
    75
1070
     1
1002
}
  0
POLYLINE
  5
171
330
1F3
100
AcDbEntity
  8
0
  6
Continuous
 62
     7
100
AcDb2dPolyline
 66
     1
 10
0.0
 20
0.0
 30
0.0
  0
VERTEX
  5
1B2
330
171
100
AcDbEntity
  8
0
  6
Continuous
 62
     7
100
AcDbVertex
100
AcDb2dVertex
 10
22.270741
 20
137.30084
 30
0.0
  0
VERTEX
  5
1B3
330
171
100
AcDbEntity
  8
0
  6
Continuous
 62
     7
100
AcDbVertex
100
AcDb2dVertex
 10
6.099163099999999
 20
121.1292699999999
 30
0.0
  0
VERTEX
  5
1B4
330
171
100
AcDbEntity
  8
0
  6
Continuous
 62
     7
100
AcDbVertex
100
AcDb2dVertex
 10
-1.720501399999999
 20
121.1292699999999
 30
0.0
  0
SEQEND
  5
1B5
330
171
100
AcDbEntity
  8
0
  6
Continuous
 62
     7
  0
TEXT
  5
176
330
1F3
100
AcDbEntity
  8
0
  6
Continuous
 62
     7
100
AcDbText
 10
-1.720501499999999
 20
121.92927
 30
0.0
 40
3.2
  1
%%C8
 41
0.92336176
100
AcDbText
  0
DIMENSION
  5
177
330
1F3
100
AcDbEntity
  8
0
  6
Continuous
 62
     7
100
AcDbDimension
  2
*D16
 10
27.927594
 20
142.9576999999999
 30
0.0
 11
1.022498499999999
 21
121.1292699999999
 31
0.0
 70
     3
 71
     5
 42
-1.0
  3
DIMSTYLE
100
AcDbDiametricDimension
 15
22.27073999999999
 25
137.30085
 35
0.0
 40
0.0
1001
ACAD
1000
DSTYLE
1002
{
1070
    77
1070
     1
1070
   172
1070
     1
1002
}
  0
POLYLINE
  5
178
330
1F3
100
AcDbEntity
  8
0
  6
Continuous
 62
     7
100
AcDb2dPolyline
 66
     1
 10
0.0
 20
0.0
 30
0.0
  0
VERTEX
  5
1B6
330
178
100
AcDbEntity
  8
0
  6
Continuous
 62
     7
100
AcDbVertex
100
AcDb2dVertex
 10
45.227589
 20
63.26848199999999
 30
0.0
  0
VERTEX
  5
1B7
330
178
100
AcDbEntity
  8
0
  6
Continuous
 62
     7
100
AcDbVertex
100
AcDb2dVertex
 10
67.399162
 20
85.44005600000001
 30
0.0
  0
VERTEX
  5
1B8
330
178
100
AcDbEntity
  8
0
  6
Continuous
 62
     7
100
AcDbVertex
100
AcDb2dVertex
 10
106.1151699999999
 20
85.44005600000001
 30
0.0
  0
SEQEND
  5
1B9
330
178
100
AcDbEntity
  8
0
  6
Continuous
 62
     7
  0
TEXT
  5
17D
330
1F3
100
AcDbEntity
  8
0
  6
Continuous
 62
     7
100
AcDbText
 10
71.829176
 20
86.24005600000002
 30
0.0
 40
3.2
  1
８－%%C５．５×%%C８サラ
 41
0.8440946700000001
100
AcDbText
  0
DIMENSION
  5
17E
330
1F3
100
AcDbEntity
  8
0
  6
Continuous
 62
     7
100
AcDbDimension
  2
*D17
 10
39.57073499999999
 20
57.611625
 30
0.0
 11
88.97217600000001
 21
85.44005600000001
 31
0.0
 70
     3
 71
     5
 42
-1.0
  3
DIMSTYLE
100
AcDbDiametricDimension
 15
45.227589
 25
63.268479
 35
0.0
 40
0.0
1001
ACAD
1000
DSTYLE
1002
{
1070
    77
1070
     1
1070
   172
1070
     1
1002
}
  0
DIMENSION
  5
17F
330
1F3
100
AcDbEntity
  8
0
  6
Continuous
 62
     7
100
AcDbDimension
  2
*D18
 10
71.59916700000002
 20
141.22928
 30
0.0
 11
71.59916700000002
 21
148.4352899999999
 31
0.0
 71
     5
 42
-1.0
  3
DIMSTYLE
100
AcDbAlignedDimension
 13
56.599167
 23
142.6292899999999
 33
0.0
 14
56.599167
 24
141.22928
 34
0.0
 50
90.0
100
AcDbRotatedDimension
1001
ACAD
1000
DSTYLE
1002
{
1070
    77
1070
     1
1070
   172
1070
     1
1070
    75
1070
     1
1002
}
  0
POLYLINE
  5
180
330
1F3
100
AcDbEntity
  8
0
  6
Continuous
 62
     7
100
AcDb2dPolyline
 66
     1
 10
0.0
 20
0.0
 30
0.0
  0
VERTEX
  5
1BA
330
180
100
AcDbEntity
  8
0
  6
Continuous
 62
     7
100
AcDbVertex
100
AcDb2dVertex
 10
71.59916700000002
 20
140.1292699999999
 30
0.0
  0
VERTEX
  5
1BB
330
180
100
AcDbEntity
  8
0
  6
Continuous
 62
     7
100
AcDbVertex
100
AcDb2dVertex
 10
65.52973900000001
 20
143.63345
 30
0.0
  0
VERTEX
  5
1BC
330
180
100
AcDbEntity
  8
0
  6
Continuous
 62
     7
100
AcDbVertex
100
AcDb2dVertex
 10
65.52973900000001
 20
153.11867
 30
0.0
  0
SEQEND
  5
1BD
330
180
100
AcDbEntity
  8
0
  6
Continuous
 62
     7
  0
LINE
  5
185
330
1F3
100
AcDbEntity
  8
0
  6
Continuous
 62
     7
100
AcDbLine
 10
71.59916700000002
 20
140.1292699999999
 30
0.0
 11
68.609239
 21
141.20656
 31
0.0
  0
LINE
  5
186
330
1F3
100
AcDbEntity
  8
0
  6
Continuous
 62
     7
100
AcDbLine
 10
71.59916700000002
 20
140.1292699999999
 30
0.0
 11
69.171238
 21
142.17998
 31
0.0
  0
TEXT
  5
187
330
1F3
100
AcDbEntity
  8
0
  6
Continuous
 62
     7
100
AcDbText
 10
64.72974
 20
144.4326799999998
 30
0.0
 40
3.2
  1
2.2
 50
90.00000300000001
 41
1.357187499999999
100
AcDbText
  0
DIMENSION
  5
188
330
1F3
100
AcDbEntity
  8
0
  6
Continuous
 62
     7
100
AcDbDimension
  2
*D19
 10
71.59916700000002
 20
139.02927
 30
0.0
 11
65.52973900000001
 21
148.7756799999999
 31
0.0
 71
     5
 42
-1.0
  3
DIMSTYLE
100
AcDbAlignedDimension
 13
56.599167
 23
141.22928
 33
0.0
 14
56.599167
 24
139.02927
 34
0.0
 50
90.0
100
AcDbRotatedDimension
1001
ACAD
1000
DSTYLE
1002
{
1070
     6
1000
_NONE
1070
    77
1070
     1
1070
   172
1070
     1
1070
    75
1070
     1
1002
}
  0
DIMENSION
  5
189
330
1F3
100
AcDbEntity
  8
0
  6
Continuous
 62
     7
100
AcDbDimension
  2
*D20
 10
71.59916700000002
 20
137.62926
 30
0.0
 11
71.59916700000002
 21
132.1648899999999
 31
0.0
 71
     5
 42
-1.0
  3
DIMSTYLE
100
AcDbAlignedDimension
 13
56.599167
 23
139.02927
 33
0.0
 14
56.599167
 24
137.62926
 34
0.0
 50
90.0
100
AcDbRotatedDimension
1001
ACAD
1000
DSTYLE
1002
{
1070
     6
1000
_NONE
1070
    77
1070
     1
1070
   172
1070
     1
1070
    75
1070
     1
1070
    76
1070
     1
1002
}
  0
DIMENSION
  5
18A
330
1F3
100
AcDbEntity
  8
0
  6
Continuous
 62
     7
100
AcDbDimension
  2
*D21
 10
81.599167
 20
142.6292899999999
 30
0.0
 11
81.599167
 21
140.1292699999999
 31
0.0
 71
     5
 42
-1.0
  3
DIMSTYLE
100
AcDbAlignedDimension
 13
56.599167
 23
137.62926
 33
0.0
 14
56.599167
 24
142.6292899999999
 34
0.0
 50
90.0
100
AcDbRotatedDimension
1001
ACAD
1000
DSTYLE
1002
{
1070
    77
1070
     1
1070
   172
1070
     1
1002
}
  0
ENDSEC
  0
SECTION
  2
OBJECTS
  0
DICTIONARY
  5
1C9
330
0
100
AcDbDictionary
281
     1
  3
ACAD_COLOR
350
1EC
  3
ACAD_GROUP
350
1CA
  3
ACAD_LAYOUT
350
1EB
  3
ACAD_MATERIAL
350
1CD
  3
ACAD_MLINESTYLE
350
1E8
  3
ACAD_PLOTSETTINGS
350
1EA
  3
ACAD_PLOTSTYLENAME
350
1CB
  3
ACAD_TABLESTYLE
350
1ED
  3
ACAD_VISUALSTYLE
350
1D1
  3
AcDbVariableDictionary
350
2D1
  3
AcmDictionary
350
289
  3
AMG
350
230
  3
AMGSNAPSETTINGS
350
2CA
  3
DWGPROPS
350
2D6
  0
DICTIONARY
  5
1EC
102
{ACAD_REACTORS
330
1C9
102
}
330
1C9
100
AcDbDictionary
281
     1
  0
DICTIONARY
  5
1CA
102
{ACAD_REACTORS
330
1C9
102
}
330
1C9
100
AcDbDictionary
281
     1
  0
DICTIONARY
  5
1EB
102
{ACAD_REACTORS
330
1C9
102
}
330
1C9
100
AcDbDictionary
281
     1
  3
Model
350
1F6
  3
レイアウト1
350
1F2
  0
DICTIONARY
  5
1CD
102
{ACAD_REACTORS
330
1C9
102
}
330
1C9
100
AcDbDictionary
281
     1
  3
ByBlock
350
1CF
  3
ByLayer
350
1CE
  3
Global
350
1D0
  0
DICTIONARY
  5
1E8
102
{ACAD_REACTORS
330
1C9
102
}
330
1C9
100
AcDbDictionary
281
     1
  3
Standard
350
1E9
  0
DICTIONARY
  5
1EA
102
{ACAD_REACTORS
330
1C9
102
}
330
1C9
100
AcDbDictionary
281
     1
  0
ACDBDICTIONARYWDFLT
  5
1CB
102
{ACAD_REACTORS
330
1C9
102
}
330
1C9
100
AcDbDictionary
281
     1
  3
Normal
350
1CC
100
AcDbDictionaryWithDefault
340
1CC
  0
DICTIONARY
  5
1ED
102
{ACAD_REACTORS
330
1C9
102
}
330
1C9
100
AcDbDictionary
281
     1
  3
Standard
350
1EE
  0
DICTIONARY
  5
1D1
102
{ACAD_REACTORS
330
1C9
102
}
330
1C9
100
AcDbDictionary
281
     1
  3
2dWireframe
350
1D7
  3
3D Hidden
350
1D9
  3
3dWireframe
350
1D8
  3
Basic
350
1D6
  3
Brighten
350
1DD
  3
ColorChange
350
1E1
  3
Conceptual
350
1DA
  3
Dim
350
1DC
  3
Facepattern
350
1E0
  3
Flat
350
1D2
  3
FlatWithEdges
350
1D3
  3
Gouraud
350
1D4
  3
GouraudWithEdges
350
1D5
  3
Linepattern
350
1DF
  3
Realistic
350
1DB
  3
Thicken
350
1DE
  0
DICTIONARY
  5
2D1
102
{ACAD_REACTORS
330
1C9
102
}
330
1C9
100
AcDbDictionary
281
     1
  3
CTABLESTYLE
350
2D2
  3
DIMASSOC
350
2D5
  3
INDEXCTL
350
2D4
  3
SORTENTS
350
2D3
  0
DICTIONARY
  5
289
102
{ACAD_REACTORS
330
1C9
102
}
330
1C9
100
AcDbDictionary
281
     1
  3
AcmStdDictionary
350
294
  3
AMDTSECTSYM_ARROWCOLOR
350
2B5
  0
DICTIONARY
  5
230
102
{ACAD_REACTORS
330
1C9
102
}
330
1C9
100
AcDbDictionary
281
     1
  0
DICTIONARY
  5
2CA
102
{ACAD_REACTORS
330
1C9
102
}
330
1C9
100
AcDbDictionary
281
     1
  0
XRECORD
  5
2D6
102
{ACAD_REACTORS
330
1C9
102
}
330
1C9
100
AcDbXrecord
280
     1
  1
DWGPROPS COOKIE
  2

  3

  4

  6

  7

  8
Administrator
  9

300
=
301
=
302
=
303
=
304
=
305
=
306
=
307
=
308
=
309
=
 40
0.0439784722222222
 41
2452815.812088194
 42
2455075.7053889
  1

 90
        0
  0
LAYOUT
  5
1F6
102
{ACAD_XDICTIONARY
360
2E1
102
}
102
{ACAD_REACTORS
330
1EB
102
}
330
1EB
100
AcDbPlotSettings
  1

  2
DocuCentre-II C5400
  4

  6

 40
0.0
 41
0.0
 42
0.0
 43
0.0
 44
0.0
 45
0.0
 46
0.0
 47
0.0
 48
0.0
 49
0.0
140
0.0
141
0.0
142
1.0
143
1.0
 70
  1712
 72
     0
 73
     0
 74
     0
  7

 75
     0
147
1.0
148
0.0
149
0.0
100
AcDbLayout
  1
Model
 70
     1
 71
     0
 10
0.0
 20
0.0
 11
12.0
 21
9.0
 12
0.0
 22
0.0
 32
0.0
 14
0.0
 24
0.0
 34
0.0
 15
0.0
 25
0.0
 35
0.0
146
0.0
 13
0.0
 23
0.0
 33
0.0
 16
1.0
 26
0.0
 36
0.0
 17
0.0
 27
1.0
 37
0.0
 76
     0
330
1F3
331
1F7
  0
LAYOUT
  5
1F2
102
{ACAD_XDICTIONARY
360
2DF
102
}
102
{ACAD_REACTORS
330
1EB
102
}
330
1EB
100
AcDbPlotSettings
  1

  2
DocuCentre-II C5400
  4

  6

 40
0.0
 41
0.0
 42
0.0
 43
0.0
 44
0.0
 45
0.0
 46
0.0
 47
0.0
 48
0.0
 49
0.0
140
0.0
141
0.0
142
1.0
143
1.0
 70
   688
 72
     0
 73
     0
 74
     5
  7

 75
    16
147
1.0
148
0.0
149
0.0
100
AcDbLayout
  1
レイアウト1
 70
     1
 71
     1
 10
-211.0
 20
-100.0
 11
170.0
 21
173.0
 12
0.0
 22
0.0
 32
0.0
 14
1.000000000000000E+20
 24
1.000000000000000E+20
 34
1.000000000000000E+20
 15
-1.000000000000000E+20
 25
-1.000000000000000E+20
 35
-1.000000000000000E+20
146
0.0
 13
0.0
 23
0.0
 33
0.0
 16
1.0
 26
0.0
 36
0.0
 17
0.0
 27
1.0
 37
0.0
 76
     0
330
1EF
  0
MATERIAL
  5
1CF
102
{ACAD_XDICTIONARY
360
2D9
102
}
102
{ACAD_REACTORS
330
1CD
102
}
330
1CD
100
AcDbMaterial
  1
ByBlock
  0
MATERIAL
  5
1CE
102
{ACAD_XDICTIONARY
360
2D7
102
}
102
{ACAD_REACTORS
330
1CD
102
}
330
1CD
100
AcDbMaterial
  1
ByLayer
  0
MATERIAL
  5
1D0
102
{ACAD_XDICTIONARY
360
2DB
102
}
102
{ACAD_REACTORS
330
1CD
102
}
330
1CD
100
AcDbMaterial
  1
Global
  0
MLINESTYLE
  5
1E9
102
{ACAD_REACTORS
330
1E8
102
}
330
1E8
100
AcDbMlineStyle
  2
STANDARD
 70
     0
  3

 62
   256
 51
90.0
 52
90.0
 71
     2
 49
0.5
 62
   256
  6
BYLAYER
 49
-0.5
 62
   256
  6
BYLAYER
  0
ACDBPLACEHOLDER
  5
1CC
102
{ACAD_REACTORS
330
1CB
102
}
330
1CB
  0
TABLESTYLE
  5
1EE
102
{ACAD_XDICTIONARY
360
2DD
102
}
102
{ACAD_REACTORS
330
1ED
102
}
330
1ED
100
AcDbTableStyle
  3
Standard
 70
     0
 71
     0
 40
0.06
 41
0.06
280
     0
281
     0
  7
STANDARD
140
0.18
170
     2
 62
     0
 63
     7
283
     0
274
    -2
284
     1
 64
     0
275
    -2
285
     1
 65
     0
276
    -2
286
     1
 66
     0
277
    -2
287
     1
 67
     0
278
    -2
288
     1
 68
     0
279
    -2
289
     1
 69
     0
  7
STANDARD
140
0.25
170
     5
 62
     0
 63
     7
283
     0
274
    -2
284
     1
 64
     0
275
    -2
285
     1
 65
     0
276
    -2
286
     1
 66
     0
277
    -2
287
     1
 67
     0
278
    -2
288
     1
 68
     0
279
    -2
289
     1
 69
     0
  7
STANDARD
140
0.18
170
     5
 62
     0
 63
     7
283
     0
274
    -2
284
     1
 64
     0
275
    -2
285
     1
 65
     0
276
    -2
286
     1
 66
     0
277
    -2
287
     1
 67
     0
278
    -2
288
     1
 68
     0
279
    -2
289
     1
 69
     0
  0
VISUALSTYLE
  5
1D7
102
{ACAD_REACTORS
330
1D1
102
}
330
1D1
100
AcDbVisualStyle
  2
2dWireframe
 70
     4
 71
     0
 72
     2
 73
     0
 90
        0
 40
-0.6
 41
-30.0
 62
     5
 63
     7
 74
     1
 91
        4
 64
     7
 65
   257
 75
     1
175
     1
 42
1.0
 92
        0
 66
   257
 43
1.0
 76
     1
 77
     6
 78
     2
 67
     7
 79
     5
170
     0
171
     0
290
     0
174
     0
 93
        1
 44
0.0
173
     0
291
     0
 45
0.0
1001
ACAD
1000
AcDbSavedByObjectVersion
1070
     0
  0
VISUALSTYLE
  5
1D9
102
{ACAD_REACTORS
330
1D1
102
}
330
1D1
100
AcDbVisualStyle
  2
3D Hidden
 70
     6
 71
     1
 72
     2
 73
     2
 90
        0
 40
-0.6
 41
-30.0
 62
     5
 63
     7
 74
     2
 91
        2
 64
     7
 65
   257
 75
     2
175
     1
 42
40.0
 92
        0
 66
   257
 43
1.0
 76
     1
 77
     6
 78
     2
 67
     7
 79
     3
170
     0
171
     0
290
     0
174
     0
 93
        1
 44
0.0
173
     0
291
     0
 45
0.0
1001
ACAD
1000
AcDbSavedByObjectVersion
1070
     0
  0
VISUALSTYLE
  5
1D8
102
{ACAD_REACTORS
330
1D1
102
}
330
1D1
100
AcDbVisualStyle
  2
3dWireframe
 70
     5
 71
     0
 72
     2
 73
     0
 90
        0
 40
-0.6
 41
-30.0
 62
     5
 63
     7
 74
     1
 91
        4
 64
     7
 65
   257
 75
     1
175
     1
 42
1.0
 92
        0
 66
   257
 43
1.0
 76
     1
 77
     6
 78
     2
 67
     7
 79
     5
170
     0
171
     0
290
     0
174
     0
 93
        1
 44
0.0
173
     0
291
     0
 45
0.0
1001
ACAD
1000
AcDbSavedByObjectVersion
1070
     0
  0
VISUALSTYLE
  5
1D6
102
{ACAD_REACTORS
330
1D1
102
}
330
1D1
100
AcDbVisualStyle
  2
Basic
 70
     7
 71
     1
 72
     0
 73
     1
 90
        0
 40
-0.6
 41
-30.0
 62
     5
 63
     7
 74
     0
 91
        4
 64
     7
 65
   257
 75
     1
175
     1
 42
1.0
 92
        8
 66
     7
 43
1.0
 76
     1
 77
     6
 78
     2
 67
     7
 79
     5
170
     0
171
     0
290
     0
174
     0
 93
        1
 44
0.0
173
     0
291
     1
 45
0.0
1001
ACAD
1000
AcDbSavedByObjectVersion
1070
     0
  0
VISUALSTYLE
  5
1DD
102
{ACAD_REACTORS
330
1D1
102
}
330
1D1
100
AcDbVisualStyle
  2
Brighten
 70
    12
 71
     2
 72
     2
 73
     0
 90
        0
 40
-0.6
 41
-30.0
 62
     5
 63
     7
 74
     1
 91
        4
 64
     7
 65
   257
 75
     1
175
     1
 42
1.0
 92
        8
 66
     7
 43
1.0
 76
     1
 77
     6
 78
     2
 67
     7
 79
     5
170
     0
171
     0
290
     0
174
     0
 93
        1
 44
50.0
173
     0
291
     1
 45
0.0
1001
ACAD
1000
AcDbSavedByObjectVersion
1070
     0
  0
VISUALSTYLE
  5
1E1
102
{ACAD_REACTORS
330
1D1
102
}
330
1D1
100
AcDbVisualStyle
  2
ColorChange
 70
    16
 71
     2
 72
     2
 73
     3
 90
        0
 40
-0.6
 41
-30.0
 62
     5
 63
     8
 74
     1
 91
        4
 64
     7
 65
   257
 75
     1
175
     1
 42
1.0
 92
        8
 66
     8
 43
1.0
 76
     1
 77
     6
 78
     2
 67
     7
 79
     5
170
     0
171
     0
290
     0
174
     0
 93
        1
 44
0.0
173
     0
291
     1
 45
0.0
1001
ACAD
1000
AcDbSavedByObjectVersion
1070
     0
  0
VISUALSTYLE
  5
1DA
102
{ACAD_REACTORS
330
1D1
102
}
330
1D1
100
AcDbVisualStyle
  2
Conceptual
 70
     9
 71
     3
 72
     2
 73
     0
 90
        0
 40
-0.6
 41
-30.0
 62
     5
 63
     7
 74
     2
 91
        2
 64
     7
 65
   257
 75
     1
175
     1
 42
40.0
 92
        8
 66
     7
 43
1.0
 76
     1
 77
     6
 78
     2
 67
     7
 79
     3
170
     0
171
     0
290
     0
174
     0
 93
        1
 44
0.0
173
     0
291
     0
 45
0.0
1001
ACAD
1000
AcDbSavedByObjectVersion
1070
     0
  0
VISUALSTYLE
  5
1DC
102
{ACAD_REACTORS
330
1D1
102
}
330
1D1
100
AcDbVisualStyle
  2
Dim
 70
    11
 71
     2
 72
     2
 73
     0
 90
        0
 40
-0.6
 41
-30.0
 62
     5
 63
     7
 74
     1
 91
        4
 64
     7
 65
   257
 75
     1
175
     1
 42
1.0
 92
        8
 66
     7
 43
1.0
 76
     1
 77
     6
 78
     2
 67
     7
 79
     5
170
     0
171
     0
290
     0
174
     0
 93
        1
 44
-50.0
173
     0
291
     1
 45
0.0
1001
ACAD
1000
AcDbSavedByObjectVersion
1070
     0
  0
VISUALSTYLE
  5
1E0
102
{ACAD_REACTORS
330
1D1
102
}
330
1D1
100
AcDbVisualStyle
  2
Facepattern
 70
    15
 71
     2
 72
     2
 73
     0
 90
        0
 40
-0.6
 41
-30.0
 62
     5
 63
     7
 74
     1
 91
        4
 64
     7
 65
   257
 75
     1
175
     1
 42
1.0
 92
        8
 66
     7
 43
1.0
 76
     1
 77
     6
 78
     2
 67
     7
 79
     5
170
     0
171
     0
290
     0
174
     0
 93
        1
 44
0.0
173
     0
291
     1
 45
0.0
1001
ACAD
1000
AcDbSavedByObjectVersion
1070
     0
  0
VISUALSTYLE
  5
1D2
102
{ACAD_REACTORS
330
1D1
102
}
330
1D1
100
AcDbVisualStyle
  2
Flat
 70
     0
 71
     2
 72
     1
 73
     1
 90
        2
 40
-0.6
 41
30.0
 62
     5
 63
     7
 74
     0
 91
        4
 64
     7
 65
   257
 75
     1
175
     1
 42
1.0
 92
        8
 66
     7
 43
1.0
 76
     1
 77
     6
 78
     2
 67
     7
 79
     5
170
     0
171
     0
290
     0
174
     0
 93
       13
 44
0.0
173
     0
291
     1
 45
0.0
1001
ACAD
1000
AcDbSavedByObjectVersion
1070
     0
  0
VISUALSTYLE
  5
1D3
102
{ACAD_REACTORS
330
1D1
102
}
330
1D1
100
AcDbVisualStyle
  2
FlatWithEdges
 70
     1
 71
     2
 72
     1
 73
     1
 90
        2
 40
-0.6
 41
30.0
 62
     5
 63
     7
 74
     1
 91
        4
 64
     7
 65
   257
 75
     1
175
     1
 42
1.0
 92
        0
 66
   257
 43
1.0
 76
     1
 77
     6
 78
     2
 67
     7
 79
     5
170
     0
171
     0
290
     0
174
     0
 93
       13
 44
0.0
173
     0
291
     1
 45
0.0
1001
ACAD
1000
AcDbSavedByObjectVersion
1070
     0
  0
VISUALSTYLE
  5
1D4
102
{ACAD_REACTORS
330
1D1
102
}
330
1D1
100
AcDbVisualStyle
  2
Gouraud
 70
     2
 71
     2
 72
     2
 73
     1
 90
        2
 40
-0.6
 41
30.0
 62
     5
 63
     7
 74
     0
 91
        4
 64
     7
 65
   257
 75
     1
175
     1
 42
1.0
 92
        0
 66
     7
 43
1.0
 76
     1
 77
     6
 78
     2
 67
     7
 79
     5
170
     0
171
     0
290
     0
174
     0
 93
       13
 44
0.0
173
     0
291
     1
 45
0.0
1001
ACAD
1000
AcDbSavedByObjectVersion
1070
     0
  0
VISUALSTYLE
  5
1D5
102
{ACAD_REACTORS
330
1D1
102
}
330
1D1
100
AcDbVisualStyle
  2
GouraudWithEdges
 70
     3
 71
     2
 72
     2
 73
     1
 90
        2
 40
-0.6
 41
30.0
 62
     5
 63
     7
 74
     1
 91
        4
 64
     7
 65
   257
 75
     1
175
     1
 42
1.0
 92
        0
 66
   257
 43
1.0
 76
     1
 77
     6
 78
     2
 67
     7
 79
     5
170
     0
171
     0
290
     0
174
     0
 93
       13
 44
0.0
173
     0
291
     1
 45
0.0
1001
ACAD
1000
AcDbSavedByObjectVersion
1070
     0
  0
VISUALSTYLE
  5
1DF
102
{ACAD_REACTORS
330
1D1
102
}
330
1D1
100
AcDbVisualStyle
  2
Linepattern
 70
    14
 71
     2
 72
     2
 73
     0
 90
        0
 40
-0.6
 41
-30.0
 62
     5
 63
     7
 74
     1
 91
        4
 64
     7
 65
   257
 75
     7
175
     7
 42
1.0
 92
        8
 66
     7
 43
1.0
 76
     1
 77
     6
 78
     2
 67
     7
 79
     5
170
     0
171
     0
290
     0
174
     0
 93
        1
 44
0.0
173
     0
291
     1
 45
0.0
1001
ACAD
1000
AcDbSavedByObjectVersion
1070
     0
  0
VISUALSTYLE
  5
1DB
102
{ACAD_REACTORS
330
1D1
102
}
330
1D1
100
AcDbVisualStyle
  2
Realistic
 70
     8
 71
     2
 72
     2
 73
     0
 90
        0
 40
-0.6
 41
-30.0
 62
     5
 63
     7
 74
     1
 91
        0
 64
     7
 65
   257
 75
     1
175
     1
 42
1.0
 92
        8
 66
     8
 43
1.0
 76
     1
 77
     6
 78
     2
 67
     7
 79
     5
170
     0
171
     0
290
     0
174
     0
 93
       13
 44
0.0
173
     0
291
     0
 45
0.0
1001
ACAD
1000
AcDbSavedByObjectVersion
1070
     0
  0
VISUALSTYLE
  5
1DE
102
{ACAD_REACTORS
330
1D1
102
}
330
1D1
100
AcDbVisualStyle
  2
Thicken
 70
    13
 71
     2
 72
     2
 73
     0
 90
        0
 40
-0.6
 41
-30.0
 62
     5
 63
     7
 74
     1
 91
        4
 64
     7
 65
   257
 75
     1
175
     1
 42
1.0
 92
       12
 66
     7
 43
1.0
 76
     1
 77
     6
 78
     2
 67
     7
 79
     5
170
     0
171
     0
290
     0
174
     0
 93
        1
 44
0.0
173
     0
291
     1
 45
0.0
1001
ACAD
1000
AcDbSavedByObjectVersion
1070
     0
  0
DICTIONARYVAR
  5
2D2
102
{ACAD_REACTORS
330
2D1
102
}
330
2D1
100
DictionaryVariables
280
     0
  1
STANDARD
  0
DICTIONARYVAR
  5
2D5
102
{ACAD_REACTORS
330
2D1
102
}
330
2D1
100
DictionaryVariables
280
     0
  1
1
  0
DICTIONARYVAR
  5
2D4
102
{ACAD_REACTORS
330
2D1
102
}
330
2D1
100
DictionaryVariables
280
     0
  1
0
  0
DICTIONARYVAR
  5
2D3
102
{ACAD_REACTORS
330
2D1
102
}
330
2D1
100
DictionaryVariables
280
     0
  1
127
  0
DICTIONARY
  5
294
102
{ACAD_REACTORS
330
289
102
}
330
289
100
AcDbDictionary
281
     1
  0
XRECORD
  5
2B5
102
{ACAD_REACTORS
330
289
102
}
330
289
100
AcDbXrecord
280
     1
 90
-1023410169
  0
DICTIONARY
  5
2E1
330
1F6
100
AcDbDictionary
280
     1
281
     1
  3
ACAD_XREC_ROUNDTRIP
360
2E2
  0
DICTIONARY
  5
2DF
330
1F2
100
AcDbDictionary
280
     1
281
     1
  3
ACAD_XREC_ROUNDTRIP
360
2E0
  0
DICTIONARY
  5
2D9
330
1CF
100
AcDbDictionary
280
     1
281
     1
  3
ACAD_XREC_ROUNDTRIP
360
2DA
  0
DICTIONARY
  5
2D7
330
1CE
100
AcDbDictionary
280
     1
281
     1
  3
ACAD_XREC_ROUNDTRIP
360
2D8
  0
DICTIONARY
  5
2DB
330
1D0
100
AcDbDictionary
280
     1
281
     1
  3
ACAD_XREC_ROUNDTRIP
360
2DC
  0
DICTIONARY
  5
2DD
330
1EE
100
AcDbDictionary
280
     1
281
     1
  3
ACAD_XREC_ROUNDTRIP
360
2DE
  0
XRECORD
  5
2E2
102
{ACAD_REACTORS
330
2E1
102
}
330
2E1
100
AcDbXrecord
280
     1
102
SHADEPLOT
 70
     0
102
SHADEPLOTRESLEVEL
 70
     2
102
SHADEPLOTCUSTOMDPI
 70
   300
  0
XRECORD
  5
2E0
102
{ACAD_REACTORS
330
2DF
102
}
330
2DF
100
AcDbXrecord
280
     1
102
SHADEPLOT
 70
     0
102
SHADEPLOTRESLEVEL
 70
     2
102
SHADEPLOTCUSTOMDPI
 70
   300
  0
XRECORD
  5
2DA
102
{ACAD_REACTORS
330
2D9
102
}
330
2D9
100
AcDbXrecord
280
     1
102
MATERIAL
148
0.0
149
0.0
149
0.0
 93
        0
 94
       63
282
     0
 72
     1
 77
     1
171
     1
175
     1
179
     1
273
     0
  0
XRECORD
  5
2D8
102
{ACAD_REACTORS
330
2D7
102
}
330
2D7
100
AcDbXrecord
280
     1
102
MATERIAL
148
0.0
149
0.0
149
0.0
 93
        0
 94
       63
282
     0
 72
     1
 77
     1
171
     1
175
     1
179
     1
273
     0
  0
XRECORD
  5
2DC
102
{ACAD_REACTORS
330
2DB
102
}
330
2DB
100
AcDbXrecord
280
     1
102
MATERIAL
148
0.0
149
0.0
149
0.0
 93
        0
 94
       63
282
     0
 72
     1
 77
     1
171
     1
175
     1
179
     1
273
     0
  0
XRECORD
  5
2DE
102
{ACAD_REACTORS
330
2DD
102
}
330
2DD
100
AcDbXrecord
280
     1
102
ACAD_ROUNDTRIP_PRE2007_TABLESTYLE
 90
      512
 91
        0
  1

 92
      512
 93
        0
  2

 94
      512
 95
        0
  3

  0
ENDSEC
  0
EOF
