  0
SECTION
  2
HEADER
  9
$ACADVER
  1
AC1009
  9
$INSBASE
 10
0.0
 20
0.0
 30
0.0
  9
$EXTMIN
 10
-211.01162631019429
 20
-100.0083306632102
 30
-0.0015258207003583
  9
$EXTMAX
 10
170.01162808436399
 20
173.00833193446539
 30
0.0000000349246037
  9
$LIMMIN
 10
-211.0
 20
-100.0
  9
$LIMMAX
 10
170.0
 20
173.0
  9
$ORTHOMODE
 70
     0
  9
$REGENMODE
 70
     1
  9
$FILLMODE
 70
     1
  9
$QTEXTMODE
 70
     0
  9
$MIRRTEXT
 70
     1
  9
$DRAGMODE
 70
     2
  9
$LTSCALE
 40
1.0
  9
$OSMODE
 70
    37
  9
$ATTMODE
 70
     1
  9
$TEXTSIZE
 40
0.2
  9
$TRACEWID
 40
0.05
  9
$TEXTSTYLE
  7
STANDARD
  9
$CLAYER
  8
0
  9
$CELTYPE
  6
CONTINUOUS
  9
$CECOLOR
 62
   256
  9
$DIMSCALE
 40
1.0
  9
$DIMASZ
 40
1.0
  9
$DIMEXO
 40
2.54
  9
$DIMDLI
 40
0.38
  9
$DIMRND
 40
0.0
  9
$DIMDLE
 40
0.0
  9
$DIMEXE
 40
2.54
  9
$DIMTP
 40
0.0
  9
$DIMTM
 40
0.0
  9
$DIMTXT
 40
3.2000000000000002
  9
$DIMCEN
 40
0.09
  9
$DIMTSZ
 40
0.0
  9
$DIMTOL
 70
     0
  9
$DIMLIM
 70
     0
  9
$DIMTIH
 70
     0
  9
$DIMTOH
 70
     0
  9
$DIMSE1
 70
     0
  9
$DIMSE2
 70
     0
  9
$DIMTAD
 70
     1
  9
$DIMZIN
 70
     0
  9
$DIMBLK
  1

  9
$DIMASO
 70
     1
  9
$DIMSHO
 70
     0
  9
$DIMPOST
  1

  9
$DIMAPOST
  1

  9
$DIMALT
 70
     0
  9
$DIMALTD
 70
     2
  9
$DIMALTF
 40
25.399999999999999
  9
$DIMLFAC
 40
1.0
  9
$DIMTOFL
 70
     0
  9
$DIMTVP
 40
1.0
  9
$DIMTIX
 70
     0
  9
$DIMSOXD
 70
     0
  9
$DIMSAH
 70
     1
  9
$DIMBLK1
  1

  9
$DIMBLK2
  1

  9
$DIMSTYLE
  2
DIMSTYLE
  9
$DIMCLRD
 70
     0
  9
$DIMCLRE
 70
     0
  9
$DIMCLRT
 70
     0
  9
$DIMTFAC
 40
1.0
  9
$DIMGAP
 40
1.6000000000000001
  9
$LUNITS
 70
     2
  9
$LUPREC
 70
     4
  9
$SKETCHINC
 40
0.1
  9
$FILLETRAD
 40
0.0
  9
$AUNITS
 70
     0
  9
$AUPREC
 70
     0
  9
$MENU
  1
.
  9
$ELEVATION
 40
0.0
  9
$PELEVATION
 40
0.0
  9
$THICKNESS
 40
0.0
  9
$LIMCHECK
 70
     0
  9
$BLIPMODE
 70
     0
  9
$CHAMFERA
 40
0.0
  9
$CHAMFERB
 40
0.0
  9
$SKPOLY
 70
     0
  9
$TDCREATE
 40
2452815.811532882
  9
$TDUPDATE
 40
2452815.8555175341
  9
$TDINDWG
 40
0.0439851157
  9
$TDUSRTIMER
 40
0.0439851157
  9
$USRTIMER
 70
     1
  9
$ANGBASE
 50
0.0
  9
$ANGDIR
 70
     0
  9
$PDMODE
 70
     0
  9
$PDSIZE
 40
0.0
  9
$PLINEWID
 40
0.0
  9
$COORDS
 70
     1
  9
$SPLFRAME
 70
     0
  9
$SPLINETYPE
 70
     6
  9
$SPLINESEGS
 70
     8
  9
$ATTDIA
 70
     0
  9
$ATTREQ
 70
     1
  9
$HANDLING
 70
 22529
  9
$HANDSEED
  5
18B
  9
$SURFTAB1
 70
     6
  9
$SURFTAB2
 70
     6
  9
$SURFTYPE
 70
     6
  9
$SURFU
 70
     6
  9
$SURFV
 70
     6
  9
$UCSNAME
  2

  9
$UCSORG
 10
0.0
 20
0.0
 30
0.0
  9
$UCSXDIR
 10
1.0
 20
0.0
 30
0.0
  9
$UCSYDIR
 10
0.0
 20
1.0
 30
0.0
  9
$PUCSNAME
  2

  9
$PUCSORG
 10
0.0
 20
0.0
 30
0.0
  9
$PUCSXDIR
 10
1.0
 20
0.0
 30
0.0
  9
$PUCSYDIR
 10
0.0
 20
1.0
 30
0.0
  9
$USERI1
 70
     0
  9
$USERI2
 70
     0
  9
$USERI3
 70
     0
  9
$USERI4
 70
     0
  9
$USERI5
 70
     0
  9
$USERR1
 40
0.0
  9
$USERR2
 40
0.0
  9
$USERR3
 40
0.0
  9
$USERR4
 40
0.0
  9
$USERR5
 40
0.0
  9
$WORLDVIEW
 70
     1
  9
$SHADEDGE
 70
     3
  9
$SHADEDIF
 70
    70
  9
$TILEMODE
 70
     1
  9
$MAXACTVP
 70
    64
  9
$PLIMCHECK
 70
     0
  9
$PEXTMIN
 10
1.0000000000000000E+020
 20
1.0000000000000000E+020
 30
1.0000000000000000E+020
  9
$PEXTMAX
 10
-1.0000000000000000E+020
 20
-1.0000000000000000E+020
 30
-1.0000000000000000E+020
  9
$PLIMMIN
 10
-211.0
 20
-100.0
  9
$PLIMMAX
 10
170.0
 20
173.0
  9
$UNITMODE
 70
     0
  9
$VISRETAIN
 70
     1
  9
$PLINEGEN
 70
     0
  9
$PSLTSCALE
 70
     1
  0
ENDSEC
  0
SECTION
  2
TABLES
  0
TABLE
  2
VPORT
 70
     3
  0
VPORT
  2
*ACTIVE
 70
     0
 10
0.0
 20
0.0
 11
1.0
 21
1.0
 12
-20.49999911291517
 22
36.5000006356276
 13
0.0
 23
0.0
 14
1.0
 24
1.0
 15
0.0
 25
0.0
 16
0.0
 26
0.0
 36
1.0
 17
0.0
 27
0.0
 37
0.0
 40
275.52751964847192
 41
1.5100250626566409
 42
50.0
 43
0.0
 44
0.0
 50
0.0
 51
0.0
 71
     0
 72
   100
 73
     1
 74
     1
 75
     0
 76
     0
 77
     0
 78
     0
  0
ENDTAB
  0
TABLE
  2
LTYPE
 70
     6
  0
LTYPE
  2
CONTINUOUS
 70
     0
  3
Solid line
 72
    65
 73
     0
 40
0.0
  0
LTYPE
  2
DASHED
 70
     0
  3
__ __ __ __ __ __ __ __ __ __ __ __ __ __ __
 72
    65
 73
     2
 40
3.5
 49
2.0
 49
-1.5
  0
LTYPE
  2
CENTER
 70
     0
  3
____ _ ____ _ ____ _ ____ _ ____ _ ____ _ ____
 72
    65
 73
     4
 40
17.5
 49
13.0
 49
-1.5
 49
1.5
 49
-1.5
  0
LTYPE
  2
PHANTOM
 70
     0
  3
_____ _ _ _____ _ _ _____ _ _ _____ _ _ ____  
 72
    65
 73
     6
 40
15.5
 49
8.0
 49
-1.5
 49
1.5
 49
-1.5
 49
1.5
 49
-1.5
  0
LTYPE
  2
DOT
 70
     0
  3
. . . . . . . . . . . . . . . . . . . . . . . .
 72
    65
 73
     2
 40
0.25
 49
0.0
 49
-0.25
  0
LTYPE
  2
HIDDEN
 70
     0
  3
__ __ __ __ __ __ __ __ __ __ __ __ __ __ __
 72
    65
 73
     2
 40
3.5
 49
2.0
 49
-1.5
  0
ENDTAB
  0
TABLE
  2
LAYER
 70
     4
  0
LAYER
  2
0
 70
     0
 62
     7
  6
CONTINUOUS
  0
LAYER
  2
1
 70
     0
 62
     7
  6
CONTINUOUS
  0
LAYER
  2
2
 70
     0
 62
     7
  6
CONTINUOUS
  0
LAYER
  2
DEFPOINTS
 70
     0
 62
     7
  6
CONTINUOUS
  0
ENDTAB
  0
TABLE
  2
STYLE
 70
     1
  0
STYLE
  2
STANDARD
 70
     0
 40
0.0
 41
1.0
 50
0.0
 71
     0
 42
0.2
  3
txt
  4
BIGFONT
  0
ENDTAB
  0
TABLE
  2
VIEW
 70
     0
  0
ENDTAB
  0
TABLE
  2
UCS
 70
     0
  0
ENDTAB
  0
TABLE
  2
APPID
 70
     1
  0
APPID
  2
ACAD
 70
     0
  0
ENDTAB
  0
TABLE
  2
DIMSTYLE
 70
     1
  0
DIMSTYLE
  2
DIMSTYLE
 70
     0
  3

  4

  5

  6

  7

 40
1.0
 41
1.0
 42
2.54
 43
0.38
 44
2.54
 45
0.0
 46
0.0
 47
0.0
 48
0.0
140
3.2000000000000002
141
0.09
142
0.0
143
25.399999999999999
144
1.0
145
0.0
146
1.0
147
1.6000000000000001
 71
     0
 72
     0
 73
     0
 74
     0
 75
     0
 76
     0
 77
     0
 78
     0
170
     0
171
     2
172
     0
173
     1
174
     0
175
     0
176
     0
177
     0
178
     0
  0
ENDTAB
  0
ENDSEC
  0
SECTION
  2
BLOCKS
  0
BLOCK
  8
0
  2
$MODEL_SPACE
 70
     0
 10
0.0
 20
0.0
 30
0.0
  3
$MODEL_SPACE
  1

  0
ENDBLK
  5
20
  8
0
  0
BLOCK
 67
     1
  8
0
  2
$PAPER_SPACE
 70
     0
 10
0.0
 20
0.0
 30
0.0
  3
$PAPER_SPACE
  1

  0
ENDBLK
  5
1C
 67
     1
  8
0
  0
BLOCK
  8
0
  2
_DOT
 70
     0
 10
0.0
 20
0.0
 30
0.0
  3
_DOT
  1

  0
POLYLINE
  5
30
  8
0
  6
BYBLOCK
 62
     0
 66
     1
 10
0.0
 20
0.0
 30
0.0
 70
     1
 40
0.4000000100000001
 41
0.4000000100000001
  0
VERTEX
  5
180
  8
0
  6
BYBLOCK
 62
     0
 10
-0.2
 20
0.0
 30
0.0
 42
1.0
  0
VERTEX
  5
181
  8
0
  6
BYBLOCK
 62
     0
 10
0.2
 20
0.0
 30
0.0
 42
1.0
  0
SEQEND
  5
182
  8
0
  6
BYBLOCK
 62
     0
  0
LINE
  5
34
  8
0
  6
BYBLOCK
 62
     0
 10
-0.4000000100000001
 20
0.0
 30
0.0
 11
-3.0
 21
0.0
 31
0.0
  0
ENDBLK
  5
35
  8
0
  0
BLOCK
  8
0
  2
_NONE
 70
     0
 10
0.0
 20
0.0
 30
0.0
  3
_NONE
  1

  0
CIRCLE
  5
38
  8
0
  6
BYBLOCK
 62
     0
 10
0.0
 20
0.0
 30
0.0
 40
0.001
  0
ENDBLK
  5
39
  8
0
  0
BLOCK
  8
0
  2
*D2
 70
     1
 10
0.0
 20
0.0
 30
0.0
  3
*D2
  1

  0
LINE
  5
3C
  8
0
  6
CONTINUOUS
 62
     7
 10
-2.4008349999999989
 20
85.440056000000013
 30
0.0
 11
25.099164999999999
 21
85.440056000000013
 31
0.0
  0
INSERT
  5
3D
  8
0
  6
CONTINUOUS
 62
     7
  2
_DOT
 10
-2.4008349999999989
 20
85.440056000000013
 30
0.0
 50
180.0
  0
INSERT
  5
3E
  8
0
  6
CONTINUOUS
 62
     7
  2
_DOT
 10
25.099164999999999
 20
85.440056000000013
 30
0.0
  0
LINE
  5
3F
  8
0
  6
CONTINUOUS
 62
     7
 10
25.099164999999999
 20
80.980056000000005
 30
0.0
 11
25.099164999999999
 21
86.640053000000009
 31
0.0
  0
TEXT
  5
40
  8
0
  6
CONTINUOUS
 62
     7
 10
5.4061649999999997
 20
86.240056000000024
 30
0.0
 40
3.2000000000000002
  1
27.5
 41
1.238124999999999
  0
POINT
  5
41
  8
DEFPOINTS
  6
CONTINUOUS
 62
     7
 10
-2.4008349999999989
 20
73.940056000000013
 30
0.0
  0
POINT
  5
42
  8
DEFPOINTS
  6
CONTINUOUS
 62
     7
 10
25.099164999999999
 20
78.440056000000013
 30
0.0
  0
POINT
  5
43
  8
DEFPOINTS
  6
CONTINUOUS
 62
     7
 10
25.099164999999999
 20
85.440056000000013
 30
0.0
  0
ENDBLK
  5
44
  8
0
  0
BLOCK
  8
0
  2
*D3
 70
     1
 10
0.0
 20
0.0
 30
0.0
  3
*D3
  1

  0
LINE
  5
47
  8
0
  6
CONTINUOUS
 62
     7
 10
25.099164999999999
 20
85.440056000000013
 30
0.0
 11
52.599162999999997
 21
85.440056000000013
 31
0.0
  0
INSERT
  5
48
  8
0
  6
CONTINUOUS
 62
     7
  2
_DOT
 10
52.599162999999997
 20
85.440056000000013
 30
0.0
  0
TEXT
  5
49
  8
0
  6
CONTINUOUS
 62
     7
 10
32.906166999999989
 20
86.240056000000024
 30
0.0
 40
3.2000000000000002
  1
27.5
 41
1.238124999999999
  0
POINT
  5
4A
  8
DEFPOINTS
  6
CONTINUOUS
 62
     7
 10
25.099164999999999
 20
78.440056000000013
 30
0.0
  0
POINT
  5
4B
  8
DEFPOINTS
  6
CONTINUOUS
 62
     7
 10
52.599162999999997
 20
73.940056000000013
 30
0.0
  0
POINT
  5
4C
  8
DEFPOINTS
  6
CONTINUOUS
 62
     7
 10
52.599162999999997
 20
85.440056000000013
 30
0.0
  0
ENDBLK
  5
4D
  8
0
  0
BLOCK
  8
0
  2
*D4
 70
     1
 10
0.0
 20
0.0
 30
0.0
  3
*D4
  1

  0
LINE
  5
50
  8
0
  6
CONTINUOUS
 62
     7
 10
52.599162999999997
 20
95.440056000000013
 30
0.0
 11
-2.4008349999999989
 21
95.440056000000013
 31
0.0
  0
INSERT
  5
51
  8
0
  6
CONTINUOUS
 62
     7
  2
_DOT
 10
52.599162999999997
 20
95.440056000000013
 30
0.0
  0
INSERT
  5
52
  8
0
  6
CONTINUOUS
 62
     7
  2
_DOT
 10
-2.4008349999999989
 20
95.440056000000013
 30
0.0
 50
180.0
  0
LINE
  5
53
  8
0
  6
CONTINUOUS
 62
     7
 10
52.599162999999997
 20
76.480056000000005
 30
0.0
 11
52.599162999999997
 21
96.640053000000009
 31
0.0
  0
LINE
  5
54
  8
0
  6
CONTINUOUS
 62
     7
 10
-2.4008349999999989
 20
76.480056000000005
 30
0.0
 11
-2.4008349999999989
 21
96.640053000000009
 31
0.0
  0
TEXT
  5
55
  8
0
  6
CONTINUOUS
 62
     7
 10
22.356165000000001
 20
96.240056000000024
 30
0.0
 40
3.2000000000000002
  1
55
 41
1.028624999999999
  0
POINT
  5
56
  8
DEFPOINTS
  6
CONTINUOUS
 62
     7
 10
52.599162999999997
 20
73.940056000000013
 30
0.0
  0
POINT
  5
57
  8
DEFPOINTS
  6
CONTINUOUS
 62
     7
 10
-2.4008349999999989
 20
73.940056000000013
 30
0.0
  0
POINT
  5
58
  8
DEFPOINTS
  6
CONTINUOUS
 62
     7
 10
-2.4008349999999989
 20
95.440056000000013
 30
0.0
  0
ENDBLK
  5
59
  8
0
  0
BLOCK
  8
0
  2
*D5
 70
     1
 10
0.0
 20
0.0
 30
0.0
  3
*D5
  1

  0
LINE
  5
5C
  8
0
  6
CONTINUOUS
 62
     7
 10
67.599167000000008
 20
73.940056000000013
 30
0.0
 11
67.599167000000008
 21
62.940056000000013
 31
0.0
  0
INSERT
  5
5D
  8
0
  6
CONTINUOUS
 62
     7
  2
_DOT
 10
67.599167000000008
 20
73.940056000000013
 30
0.0
 50
90.0
  0
INSERT
  5
5E
  8
0
  6
CONTINUOUS
 62
     7
  2
_DOT
 10
67.599167000000008
 20
62.940056000000013
 30
0.0
 50
270.0
  0
LINE
  5
5F
  8
0
  6
CONTINUOUS
 62
     7
 10
47.639167
 20
62.940056000000013
 30
0.0
 11
68.799164000000005
 21
62.940056000000013
 31
0.0
  0
TEXT
  5
60
  8
0
  6
CONTINUOUS
 62
     7
 10
66.799167000000011
 20
65.697056000000003
 30
0.0
 40
3.2000000000000002
  1
11
 50
90.000003000000007
 41
1.5429375000000001
  0
POINT
  5
61
  8
DEFPOINTS
  6
CONTINUOUS
 62
     7
 10
52.599162999999997
 20
73.940056000000013
 30
0.0
  0
POINT
  5
62
  8
DEFPOINTS
  6
CONTINUOUS
 62
     7
 10
45.099167000000001
 20
62.940056000000013
 30
0.0
  0
POINT
  5
63
  8
DEFPOINTS
  6
CONTINUOUS
 62
     7
 10
67.599167000000008
 20
62.940056000000013
 30
0.0
  0
ENDBLK
  5
64
  8
0
  0
BLOCK
  8
0
  2
*D6
 70
     1
 10
0.0
 20
0.0
 30
0.0
  3
*D6
  1

  0
LINE
  5
67
  8
0
  6
CONTINUOUS
 62
     7
 10
67.599167000000008
 20
62.940056000000013
 30
0.0
 11
67.599167000000008
 21
29.440055999999998
 31
0.0
  0
INSERT
  5
68
  8
0
  6
CONTINUOUS
 62
     7
  2
_DOT
 10
67.599167000000008
 20
29.440055999999998
 30
0.0
 50
270.0
  0
LINE
  5
69
  8
0
  6
CONTINUOUS
 62
     7
 10
52.639163000000003
 20
29.440055999999998
 30
0.0
 11
68.799164000000005
 21
29.440055999999998
 31
0.0
  0
TEXT
  5
6A
  8
0
  6
CONTINUOUS
 62
     7
 10
66.799167000000011
 20
40.247055999999994
 30
0.0
 40
3.2000000000000002
  1
33.5
 50
90.000003000000007
 41
1.238124999999999
  0
POINT
  5
6B
  8
DEFPOINTS
  6
CONTINUOUS
 62
     7
 10
45.099167000000001
 20
62.940056000000013
 30
0.0
  0
POINT
  5
6C
  8
DEFPOINTS
  6
CONTINUOUS
 62
     7
 10
50.099162999999997
 20
29.440055999999998
 30
0.0
  0
POINT
  5
6D
  8
DEFPOINTS
  6
CONTINUOUS
 62
     7
 10
67.599167000000008
 20
29.440055999999998
 30
0.0
  0
ENDBLK
  5
6E
  8
0
  0
BLOCK
  8
0
  2
*D7
 70
     1
 10
0.0
 20
0.0
 30
0.0
  3
*D7
  1

  0
LINE
  5
71
  8
0
  6
CONTINUOUS
 62
     7
 10
67.599167000000008
 20
29.440055999999998
 30
0.0
 11
67.599167000000008
 21
-4.0599365000000001
 31
0.0
  0
INSERT
  5
72
  8
0
  6
CONTINUOUS
 62
     7
  2
_DOT
 10
67.599167000000008
 20
-4.0599365000000001
 30
0.0
 50
270.0
  0
LINE
  5
73
  8
0
  6
CONTINUOUS
 62
     7
 10
47.639167
 20
-4.0599365000000001
 30
0.0
 11
68.799164000000005
 21
-4.0599365000000001
 31
0.0
  0
TEXT
  5
74
  8
0
  6
CONTINUOUS
 62
     7
 10
66.799167000000011
 20
6.7470558
 30
0.0
 40
3.2000000000000002
  1
33.5
 50
90.000003000000007
 41
1.238124999999999
  0
POINT
  5
75
  8
DEFPOINTS
  6
CONTINUOUS
 62
     7
 10
50.099162999999997
 20
29.440055999999998
 30
0.0
  0
POINT
  5
76
  8
DEFPOINTS
  6
CONTINUOUS
 62
     7
 10
45.099167000000001
 20
-4.0599365000000001
 30
0.0
  0
POINT
  5
77
  8
DEFPOINTS
  6
CONTINUOUS
 62
     7
 10
67.599167000000008
 20
-4.0599365000000001
 30
0.0
  0
ENDBLK
  5
78
  8
0
  0
BLOCK
  8
0
  2
*D8
 70
     1
 10
0.0
 20
0.0
 30
0.0
  3
*D8
  1

  0
LINE
  5
7B
  8
0
  6
CONTINUOUS
 62
     7
 10
67.599167000000008
 20
-4.0599365000000001
 30
0.0
 11
67.599167000000008
 21
-15.059937
 31
0.0
  0
INSERT
  5
7C
  8
0
  6
CONTINUOUS
 62
     7
  2
_DOT
 10
67.599167000000008
 20
-15.059937
 30
0.0
 50
270.0
  0
TEXT
  5
7D
  8
0
  6
CONTINUOUS
 62
     7
 10
66.799167000000011
 20
-12.302937
 30
0.0
 40
3.2000000000000002
  1
11
 50
90.000003000000007
 41
1.5429375000000001
  0
POINT
  5
7E
  8
DEFPOINTS
  6
CONTINUOUS
 62
     7
 10
45.099167000000001
 20
-4.0599365000000001
 30
0.0
  0
POINT
  5
7F
  8
DEFPOINTS
  6
CONTINUOUS
 62
     7
 10
52.599162999999997
 20
-15.059937
 30
0.0
  0
POINT
  5
80
  8
DEFPOINTS
  6
CONTINUOUS
 62
     7
 10
67.599167000000008
 20
-15.059937
 30
0.0
  0
ENDBLK
  5
81
  8
0
  0
BLOCK
  8
0
  2
*D9
 70
     1
 10
0.0
 20
0.0
 30
0.0
  3
*D9
  1

  0
LINE
  5
84
  8
0
  6
CONTINUOUS
 62
     7
 10
77.599167000000008
 20
-15.059937
 30
0.0
 11
77.599167000000008
 21
73.940056000000013
 31
0.0
  0
INSERT
  5
85
  8
0
  6
CONTINUOUS
 62
     7
  2
_DOT
 10
77.599167000000008
 20
-15.059937
 30
0.0
 50
270.0
  0
INSERT
  5
86
  8
0
  6
CONTINUOUS
 62
     7
  2
_DOT
 10
77.599167000000008
 20
73.940056000000013
 30
0.0
 50
90.0
  0
LINE
  5
87
  8
0
  6
CONTINUOUS
 62
     7
 10
55.139163000000003
 20
-15.059937
 30
0.0
 11
78.799164000000005
 21
-15.059937
 31
0.0
  0
LINE
  5
88
  8
0
  6
CONTINUOUS
 62
     7
 10
55.139163000000003
 20
73.940056000000013
 30
0.0
 11
78.799164000000005
 21
73.940056000000013
 31
0.0
  0
TEXT
  5
89
  8
0
  6
CONTINUOUS
 62
     7
 10
76.799167000000011
 20
26.697056
 30
0.0
 40
3.2000000000000002
  1
89
 50
90.000003000000007
 41
1.028624999999999
  0
POINT
  5
8A
  8
DEFPOINTS
  6
CONTINUOUS
 62
     7
 10
52.599162999999997
 20
-15.059937
 30
0.0
  0
POINT
  5
8B
  8
DEFPOINTS
  6
CONTINUOUS
 62
     7
 10
52.599162999999997
 20
73.940056000000013
 30
0.0
  0
POINT
  5
8C
  8
DEFPOINTS
  6
CONTINUOUS
 62
     7
 10
77.599167000000008
 20
73.940056000000013
 30
0.0
  0
ENDBLK
  5
8D
  8
0
  0
BLOCK
  8
0
  2
*D10
 70
     1
 10
0.0
 20
0.0
 30
0.0
  3
*D10
  1

  0
LINE
  5
90
  8
0
  6
CONTINUOUS
 62
     7
 10
25.099164999999999
 20
-31.559936999999991
 30
0.0
 11
38.599167000000001
 21
-31.559936999999991
 31
0.0
  0
INSERT
  5
91
  8
0
  6
CONTINUOUS
 62
     7
  2
_DOT
 10
25.099164999999999
 20
-31.559936999999991
 30
0.0
 50
180.0
  0
INSERT
  5
92
  8
0
  6
CONTINUOUS
 62
     7
  2
_DOT
 10
38.599167000000001
 20
-31.559936999999991
 30
0.0
  0
LINE
  5
93
  8
0
  6
CONTINUOUS
 62
     7
 10
25.099164999999999
 20
-22.099936
 30
0.0
 11
25.099164999999999
 21
-32.759937000000001
 31
0.0
  0
LINE
  5
94
  8
0
  6
CONTINUOUS
 62
     7
 10
38.599167000000001
 20
-13.099936
 30
0.0
 11
38.599167000000001
 21
-32.759937000000001
 31
0.0
  0
TEXT
  5
95
  8
0
  6
CONTINUOUS
 62
     7
 10
25.906164999999991
 20
-30.759937000000001
 30
0.0
 40
3.2000000000000002
  1
13.5
 41
1.3928906000000001
  0
POINT
  5
96
  8
DEFPOINTS
  6
CONTINUOUS
 62
     7
 10
25.099164999999999
 20
-19.559936999999991
 30
0.0
  0
POINT
  5
97
  8
DEFPOINTS
  6
CONTINUOUS
 62
     7
 10
38.599167000000001
 20
-10.559936999999991
 30
0.0
  0
POINT
  5
98
  8
DEFPOINTS
  6
CONTINUOUS
 62
     7
 10
38.599167000000001
 20
-31.559936999999991
 30
0.0
  0
ENDBLK
  5
99
  8
0
  0
BLOCK
  8
0
  2
*D11
 70
     1
 10
0.0
 20
0.0
 30
0.0
  3
*D11
  1

  0
LINE
  5
9C
  8
0
  6
CONTINUOUS
 62
     7
 10
38.599167000000001
 20
-31.559936999999991
 30
0.0
 11
43.599167000000001
 21
-31.559936999999991
 31
0.0
  0
INSERT
  5
9D
  8
0
  6
CONTINUOUS
 62
     7
  2
_DOT
 10
43.599167000000001
 20
-31.559936999999991
 30
0.0
  0
LINE
  5
9E
  8
0
  6
CONTINUOUS
 62
     7
 10
43.599167000000001
 20
20.400055999999999
 30
0.0
 11
43.599167000000001
 21
-32.759937000000001
 31
0.0
  0
TEXT
  5
9F
  8
0
  6
CONTINUOUS
 62
     7
 10
39.956167000000001
 20
-30.759937000000001
 30
0.0
 40
3.2000000000000002
  1
5
  0
POINT
  5
A0
  8
DEFPOINTS
  6
CONTINUOUS
 62
     7
 10
38.599167000000001
 20
-10.559936999999991
 30
0.0
  0
POINT
  5
A1
  8
DEFPOINTS
  6
CONTINUOUS
 62
     7
 10
43.599167000000001
 20
22.940055999999991
 30
0.0
  0
POINT
  5
A2
  8
DEFPOINTS
  6
CONTINUOUS
 62
     7
 10
43.599167000000001
 20
-31.559936999999991
 30
0.0
  0
ENDBLK
  5
A3
  8
0
  0
BLOCK
  8
0
  2
*D12
 70
     1
 10
0.0
 20
0.0
 30
0.0
  3
*D12
  1

  0
LINE
  5
A6
  8
0
  6
CONTINUOUS
 62
     7
 10
43.599167000000001
 20
-31.559936999999991
 30
0.0
 11
52.599162999999997
 21
-31.559936999999991
 31
0.0
  0
INSERT
  5
A7
  8
0
  6
CONTINUOUS
 62
     7
  2
_DOT
 10
52.599162999999997
 20
-31.559936999999991
 30
0.0
  0
LINE
  5
A8
  8
0
  6
CONTINUOUS
 62
     7
 10
52.599162999999997
 20
-17.599944000000001
 30
0.0
 11
52.599162999999997
 21
-32.759937000000001
 31
0.0
  0
TEXT
  5
A9
  8
0
  6
CONTINUOUS
 62
     7
 10
46.956167000000001
 20
-30.759937000000001
 30
0.0
 40
3.2000000000000002
  1
9
  0
POINT
  5
AA
  8
DEFPOINTS
  6
CONTINUOUS
 62
     7
 10
43.599167000000001
 20
22.940055999999991
 30
0.0
  0
POINT
  5
AB
  8
DEFPOINTS
  6
CONTINUOUS
 62
     7
 10
52.599162999999997
 20
-15.059944
 30
0.0
  0
POINT
  5
AC
  8
DEFPOINTS
  6
CONTINUOUS
 62
     7
 10
52.599162999999997
 20
-31.559936999999991
 30
0.0
  0
ENDBLK
  5
AD
  8
0
  0
BLOCK
  8
0
  2
*D13
 70
     1
 10
0.0
 20
0.0
 30
0.0
  3
*D13
  1

  0
LINE
  5
B0
  8
0
  6
CONTINUOUS
 62
     7
 10
27.574041000000001
 20
142.60416000000001
 30
0.0
 11
22.624293999999988
 21
137.65440000000001
 31
0.0
  0
INSERT
  5
B1
  8
0
  6
CONTINUOUS
 62
     7
  2
_DOT
 10
27.574041000000001
 20
142.60416000000001
 30
0.0
 50
45.000033000000002
  0
INSERT
  5
B2
  8
0
  6
CONTINUOUS
 62
     7
  2
_DOT
 10
22.624293999999988
 20
137.65440000000001
 30
0.0
 50
225.0000299999999
  0
TEXT
  5
B3
  8
0
  6
CONTINUOUS
 62
     7
 10
-0.72751424
 20
122.4292699999999
 30
0.0
 40
3.2000000000000002
  1
  
 41
3.0858750000000001
  0
POINT
  5
B4
  8
DEFPOINTS
  6
CONTINUOUS
 62
     7
 10
27.574041000000001
 20
142.60416000000001
 30
0.0
  0
POINT
  5
B5
  8
DEFPOINTS
  6
CONTINUOUS
 62
     7
 10
22.624293999999988
 20
137.65440000000001
 30
0.0
  0
ENDBLK
  5
B6
  8
0
  0
BLOCK
  8
0
  2
*D14
 70
     1
 10
0.0
 20
0.0
 30
0.0
  3
*D14
  1

  0
LINE
  5
B9
  8
0
  6
CONTINUOUS
 62
     7
 10
41.074038999999999
 20
65.414931999999993
 30
0.0
 11
36.124290000000002
 21
60.465182999999989
 31
0.0
  0
INSERT
  5
BA
  8
0
  6
CONTINUOUS
 62
     7
  2
_DOT
 10
41.074038999999999
 20
65.414931999999993
 30
0.0
 50
45.0
  0
INSERT
  5
BB
  8
0
  6
CONTINUOUS
 62
     7
  2
_DOT
 10
36.124290000000002
 20
60.465182999999989
 30
0.0
 50
225.0
  0
TEXT
  5
BC
  8
0
  6
CONTINUOUS
 62
     7
 10
65.731741
 20
86.240056000000024
 30
0.0
 40
3.2000000000000002
  1
  
 41
3.0858750000000001
  0
POINT
  5
BD
  8
DEFPOINTS
  6
CONTINUOUS
 62
     7
 10
41.074038999999999
 20
65.414931999999993
 30
0.0
  0
POINT
  5
BE
  8
DEFPOINTS
  6
CONTINUOUS
 62
     7
 10
36.124290000000002
 20
60.465182999999989
 30
0.0
  0
ENDBLK
  5
BF
  8
0
  0
BLOCK
  8
0
  2
*D15
 70
     1
 10
0.0
 20
0.0
 30
0.0
  3
*D15
  1

  0
LINE
  5
C2
  8
0
  6
CONTINUOUS
 62
     7
 10
67.599167000000008
 20
142.32928000000001
 30
0.0
 11
67.599167000000008
 21
152.22382999999991
 31
0.0
  0
LINE
  5
C3
  8
0
  6
CONTINUOUS
 62
     7
 10
67.599167000000008
 20
142.32928000000001
 30
0.0
 11
67.599167000000008
 21
141.12926999999991
 31
0.0
  0
INSERT
  5
C4
  8
0
  6
CONTINUOUS
 62
     7
  2
_DOT
 10
67.599167000000008
 20
142.32928000000001
 30
0.0
 50
90.0
  0
INSERT
  5
C5
  8
0
  6
CONTINUOUS
 62
     7
  2
_DOT
 10
67.599167000000008
 20
141.12926999999991
 30
0.0
 50
270.0
  0
LINE
  5
C6
  8
0
  6
CONTINUOUS
 62
     7
 10
55.139163000000003
 20
141.12926999999991
 30
0.0
 11
68.799164000000005
 21
141.12926999999991
 31
0.0
  0
TEXT
  5
C7
  8
0
  6
CONTINUOUS
 62
     7
 10
66.799167000000011
 20
143.53783000000001
 30
0.0
 40
3.2000000000000002
  1
1.2
 50
90.000003000000007
 41
1.6286249999999991
  0
POINT
  5
C8
  8
DEFPOINTS
  6
CONTINUOUS
 62
     7
 10
52.599162999999997
 20
142.32928000000001
 30
0.0
  0
POINT
  5
C9
  8
DEFPOINTS
  6
CONTINUOUS
 62
     7
 10
52.599162999999997
 20
141.12926999999991
 30
0.0
  0
POINT
  5
CA
  8
DEFPOINTS
  6
CONTINUOUS
 62
     7
 10
67.599167000000008
 20
141.12926999999991
 30
0.0
  0
ENDBLK
  5
CB
  8
0
  0
BLOCK
  8
0
  2
*D16
 70
     1
 10
0.0
 20
0.0
 30
0.0
  3
*D16
  1

  0
LINE
  5
CE
  8
0
  6
CONTINUOUS
 62
     7
 10
67.599167000000008
 20
141.12926999999991
 30
0.0
 11
67.599167000000008
 21
139.12926999999991
 31
0.0
  0
INSERT
  5
CF
  8
0
  6
CONTINUOUS
 62
     7
  2
_DOT
 10
67.599167000000008
 20
139.12926999999991
 30
0.0
 50
270.0
  0
LINE
  5
D0
  8
0
  6
CONTINUOUS
 62
     7
 10
55.139163000000003
 20
139.12926999999991
 30
0.0
 11
68.799164000000005
 21
139.12926999999991
 31
0.0
  0
TEXT
  5
D1
  8
0
  6
CONTINUOUS
 62
     7
 10
66.799167000000011
 20
138.98626999999991
 30
0.0
 40
3.2000000000000002
  1
2
 50
90.000003000000007
  0
POINT
  5
D2
  8
DEFPOINTS
  6
CONTINUOUS
 62
     7
 10
52.599162999999997
 20
141.12926999999991
 30
0.0
  0
POINT
  5
D3
  8
DEFPOINTS
  6
CONTINUOUS
 62
     7
 10
52.599162999999997
 20
139.12926999999991
 30
0.0
  0
POINT
  5
D4
  8
DEFPOINTS
  6
CONTINUOUS
 62
     7
 10
67.599167000000008
 20
139.12926999999991
 30
0.0
  0
ENDBLK
  5
D5
  8
0
  0
BLOCK
  8
0
  2
*D17
 70
     1
 10
0.0
 20
0.0
 30
0.0
  3
*D17
  1

  0
LINE
  5
D8
  8
0
  6
CONTINUOUS
 62
     7
 10
67.599167000000008
 20
137.92926
 30
0.0
 11
67.599167000000008
 21
127.90112000000001
 31
0.0
  0
LINE
  5
D9
  8
0
  6
CONTINUOUS
 62
     7
 10
67.599167000000008
 20
139.12926999999991
 30
0.0
 11
67.599167000000008
 21
137.92926
 31
0.0
  0
INSERT
  5
DA
  8
0
  6
CONTINUOUS
 62
     7
  2
_DOT
 10
67.599167000000008
 20
137.92926
 30
0.0
 50
270.0
  0
TEXT
  5
DB
  8
0
  6
CONTINUOUS
 62
     7
 10
66.799167000000011
 20
127.90112999999999
 30
0.0
 40
3.2000000000000002
  1
1.2
 50
90.000003000000007
 41
1.6286249999999991
  0
POINT
  5
DC
  8
DEFPOINTS
  6
CONTINUOUS
 62
     7
 10
52.599162999999997
 20
139.12926999999991
 30
0.0
  0
POINT
  5
DD
  8
DEFPOINTS
  6
CONTINUOUS
 62
     7
 10
52.599162999999997
 20
137.92926
 30
0.0
  0
POINT
  5
DE
  8
DEFPOINTS
  6
CONTINUOUS
 62
     7
 10
67.599167000000008
 20
137.92926
 30
0.0
  0
ENDBLK
  5
DF
  8
0
  0
BLOCK
  8
0
  2
*D18
 70
     1
 10
0.0
 20
0.0
 30
0.0
  3
*D18
  1

  0
LINE
  5
E2
  8
0
  6
CONTINUOUS
 62
     7
 10
77.599167000000008
 20
137.92926
 30
0.0
 11
77.599167000000008
 21
127.42932
 31
0.0
  0
LINE
  5
E3
  8
0
  6
CONTINUOUS
 62
     7
 10
77.599167000000008
 20
137.92926
 30
0.0
 11
77.599167000000008
 21
142.32928000000001
 31
0.0
  0
INSERT
  5
E4
  8
0
  6
CONTINUOUS
 62
     7
  2
_DOT
 10
77.599167000000008
 20
137.92926
 30
0.0
 50
270.0
  0
INSERT
  5
E5
  8
0
  6
CONTINUOUS
 62
     7
  2
_DOT
 10
77.599167000000008
 20
142.32928000000001
 30
0.0
 50
90.0
  0
LINE
  5
E6
  8
0
  6
CONTINUOUS
 62
     7
 10
55.139163000000003
 20
137.92926
 30
0.0
 11
78.799164000000005
 21
137.92926
 31
0.0
  0
LINE
  5
E7
  8
0
  6
CONTINUOUS
 62
     7
 10
55.139163000000003
 20
142.32928000000001
 30
0.0
 11
78.799164000000005
 21
142.32928000000001
 31
0.0
  0
TEXT
  5
E8
  8
0
  6
CONTINUOUS
 62
     7
 10
76.799167000000011
 20
127.42932
 30
0.0
 40
3.2000000000000002
  1
4.4
 50
90.000003000000007
 41
1.3571874999999991
  0
POINT
  5
E9
  8
DEFPOINTS
  6
CONTINUOUS
 62
     7
 10
52.599162999999997
 20
137.92926
 30
0.0
  0
POINT
  5
EA
  8
DEFPOINTS
  6
CONTINUOUS
 62
     7
 10
52.599162999999997
 20
142.32928000000001
 30
0.0
  0
POINT
  5
EB
  8
DEFPOINTS
  6
CONTINUOUS
 62
     7
 10
77.599167000000008
 20
142.32928000000001
 30
0.0
  0
ENDBLK
  5
EC
  8
0
  0
ENDSEC
  0
SECTION
  2
ENTITIES
  0
LINE
  5
ED
  8
0
  6
CONTINUOUS
 62
     7
 10
170.0
 20
173.0
 30
0.0
 11
170.0
 21
-100.0
 31
0.0
  0
LINE
  5
EE
  8
0
  6
CONTINUOUS
 62
     7
 10
-211.0
 20
-100.0
 30
0.0
 11
170.0
 21
-100.0
 31
0.0
  0
LINE
  5
EF
  8
0
  6
CONTINUOUS
 62
     7
 10
-211.0
 20
173.0
 30
0.0
 11
170.0
 21
173.0
 31
0.0
  0
LINE
  5
F0
  8
0
  6
CONTINUOUS
 62
     7
 10
-211.0
 20
173.0
 30
0.0
 11
-211.0
 21
-100.0
 31
0.0
  0
LINE
  5
F1
  8
0
  6
CONTINUOUS
 62
     7
 10
-191.0
 20
173.0
 30
0.0
 11
-191.0
 21
85.0
 31
0.0
  0
LINE
  5
F2
  8
0
  6
CONTINUOUS
 62
     7
 10
-211.0
 20
165.0
 30
0.0
 11
-101.0
 21
165.0
 31
0.0
  0
LINE
  5
F3
  8
0
  6
CONTINUOUS
 62
     7
 10
-211.0
 20
149.0
 30
0.0
 11
-101.0
 21
149.0
 31
0.0
  0
LINE
  5
F4
  8
0
  6
CONTINUOUS
 62
     7
 10
-191.0
 20
125.0
 30
0.0
 11
-101.0
 21
125.0
 31
0.0
  0
LINE
  5
F5
  8
0
  6
CONTINUOUS
 62
     7
 10
-191.0
 20
117.0
 30
0.0
 11
-101.0
 21
117.0
 31
0.0
  0
LINE
  5
F6
  8
0
  6
CONTINUOUS
 62
     7
 10
-211.0
 20
109.0
 30
0.0
 11
-101.0
 21
109.0
 31
0.0
  0
LINE
  5
F7
  8
0
  6
CONTINUOUS
 62
     7
 10
-191.0
 20
101.0
 30
0.0
 11
-101.0
 21
101.0
 31
0.0
  0
LINE
  5
F8
  8
0
  6
CONTINUOUS
 62
     7
 10
-191.0
 20
93.0
 30
0.0
 11
-101.0
 21
93.0
 31
0.0
  0
LINE
  5
F9
  8
0
  6
CONTINUOUS
 62
     7
 10
-211.0
 20
85.0
 30
0.0
 11
-101.0
 21
85.0
 31
0.0
  0
LINE
  5
FA
  8
0
  6
CONTINUOUS
 62
     7
 10
-211.0
 20
173.0
 30
0.0
 11
-211.0
 21
85.0
 31
0.0
  0
LINE
  5
FB
  8
0
  6
CONTINUOUS
 62
     7
 10
-211.0
 20
173.0
 30
0.0
 11
-101.0
 21
173.0
 31
0.0
  0
LINE
  5
FC
  8
0
  6
CONTINUOUS
 62
     7
 10
-101.0
 20
173.0
 30
0.0
 11
-101.0
 21
85.0
 31
0.0
  0
LINE
  5
FD
  8
0
  6
CONTINUOUS
 62
     7
 10
-211.0
 20
133.0
 30
0.0
 11
-101.0
 21
133.0
 31
0.0
  0
LINE
  5
FE
  8
0
  6
CONTINUOUS
 62
     7
 10
-191.0
 20
125.0
 30
0.0
 11
-101.0
 21
125.0
 31
0.0
  0
LINE
  5
FF
  8
0
  6
CONTINUOUS
 62
     7
 10
-211.0
 20
157.0
 30
0.0
 11
-101.0
 21
157.0
 31
0.0
  0
LINE
  5
100
  8
0
  6
CONTINUOUS
 62
     7
 10
-211.0
 20
141.0
 30
0.0
 11
-101.0
 21
141.0
 31
0.0
  0
LINE
  5
101
  8
0
  6
CONTINUOUS
 62
     3
 10
-2.4008349999999989
 20
73.940056000000013
 30
0.0
 11
-2.4008349999999989
 21
-15.059944
 31
0.0
  0
LINE
  5
102
  8
0
  6
CONTINUOUS
 62
     3
 10
52.599162999999997
 20
73.940056000000013
 30
0.0
 11
52.599162999999997
 21
-15.059944
 31
0.0
  0
LINE
  5
103
  8
0
  6
CONTINUOUS
 62
     3
 10
-2.4008349999999989
 20
73.940056000000013
 30
0.0
 11
20.399167999999989
 21
73.940056000000013
 31
0.0
  0
LINE
  5
104
  8
0
  6
CONTINUOUS
 62
     3
 10
-2.4008349999999989
 20
-15.059937
 30
0.0
 11
20.399167999999989
 21
-15.059937
 31
0.0
  0
LINE
  5
105
  8
0
  6
CENTER
 62
     7
 10
25.099164999999999
 20
146.1692699999999
 30
0.0
 11
25.099164999999999
 21
134.08925999999991
 31
0.0
  0
LINE
  5
106
  8
0
  6
CONTINUOUS
 62
     3
 10
21.599164999999999
 20
73.940056000000013
 30
0.0
 11
21.599164999999999
 21
-15.059944
 31
0.0
  0
LINE
  5
107
  8
0
  6
CENTER
 62
     7
 10
31.139174000000001
 20
140.12926999999991
 30
0.0
 11
19.059156000000002
 21
140.12926999999991
 31
0.0
  0
LINE
  5
108
  8
0
  6
CONTINUOUS
 62
     3
 10
28.599164999999999
 20
73.940056000000013
 30
0.0
 11
28.599164999999999
 21
-15.059944
 31
0.0
  0
LINE
  5
109
  8
0
  6
PHANTOM
 62
     7
 10
52.599162999999997
 20
137.92926
 30
0.0
 11
52.599162999999997
 21
139.12926999999991
 31
0.0
  0
LINE
  5
10A
  8
0
  6
CONTINUOUS
 62
     3
 10
28.45326
 20
141.12926999999991
 30
0.0
 11
52.599162999999997
 21
141.12926999999991
 31
0.0
  0
LINE
  5
10B
  8
0
  6
CONTINUOUS
 62
     3
 10
27.821286999999991
 20
142.32928000000001
 30
0.0
 11
52.599162999999997
 21
142.32928000000001
 31
0.0
  0
LINE
  5
10C
  8
0
  6
CONTINUOUS
 62
     3
 10
52.599162999999997
 20
142.32928000000001
 30
0.0
 11
52.599162999999997
 21
141.12926999999991
 31
0.0
  0
LINE
  5
10D
  8
0
  6
PHANTOM
 62
     7
 10
27.821286999999991
 20
137.92926
 30
0.0
 11
52.599162999999997
 21
137.92926
 31
0.0
  0
LINE
  5
10E
  8
0
  6
PHANTOM
 62
     7
 10
28.45326
 20
139.12926999999991
 30
0.0
 11
52.599162999999997
 21
139.12926999999991
 31
0.0
  0
LINE
  5
10F
  8
0
  6
CONTINUOUS
 62
     3
 10
22.377043
 20
142.32928000000001
 30
0.0
 11
-2.4008349999999989
 21
142.32928000000001
 31
0.0
  0
LINE
  5
110
  8
0
  6
CONTINUOUS
 62
     3
 10
21.745069999999998
 20
141.12926999999991
 30
0.0
 11
-2.4008349999999989
 21
141.12926999999991
 31
0.0
  0
LINE
  5
111
  8
0
  6
CONTINUOUS
 62
     3
 10
-2.4008349999999989
 20
142.32928000000001
 30
0.0
 11
-2.4008349999999989
 21
141.12926999999991
 31
0.0
  0
LINE
  5
112
  8
0
  6
CONTINUOUS
 62
     3
 10
21.599164999999999
 20
73.940056000000013
 30
0.0
 11
52.599162999999997
 21
73.940056000000013
 31
0.0
  0
LINE
  5
113
  8
0
  6
CONTINUOUS
 62
     3
 10
21.599164999999999
 20
-15.059937
 30
0.0
 11
52.599162999999997
 21
-15.059937
 31
0.0
  0
LINE
  5
114
  8
0
  6
CONTINUOUS
 62
     3
 10
20.399167999999989
 20
58.140053000000002
 30
0.0
 11
29.799161999999988
 21
58.140053000000002
 31
0.0
  0
LINE
  5
115
  8
0
  6
CONTINUOUS
 62
     3
 10
20.399167999999989
 20
37.340057000000002
 30
0.0
 11
29.799161999999988
 21
37.340057000000002
 31
0.0
  0
LINE
  5
116
  8
0
  6
CONTINUOUS
 62
     3
 10
20.399167999999989
 20
21.540054000000001
 30
0.0
 11
29.799161999999988
 21
21.540054000000001
 31
0.0
  0
LINE
  5
117
  8
0
  6
CONTINUOUS
 62
     3
 10
20.399167999999989
 20
0.74006653
 30
0.0
 11
29.799161999999988
 21
0.74006653
 31
0.0
  0
LINE
  5
118
  8
0
  6
CONTINUOUS
 62
     3
 10
29.799161999999988
 20
58.140053000000002
 30
0.0
 11
29.799161999999988
 21
37.340057000000002
 31
0.0
  0
LINE
  5
119
  8
0
  6
CONTINUOUS
 62
     3
 10
20.399167999999989
 20
73.940056000000013
 30
0.0
 11
20.399167999999989
 21
58.140053000000002
 31
0.0
  0
LINE
  5
11A
  8
0
  6
CONTINUOUS
 62
     3
 10
20.399167999999989
 20
37.340057000000002
 30
0.0
 11
20.399167999999989
 21
21.540054000000001
 31
0.0
  0
LINE
  5
11B
  8
0
  6
CONTINUOUS
 62
     3
 10
20.399167999999989
 20
0.74006653
 30
0.0
 11
20.399167999999989
 21
-15.059944
 31
0.0
  0
LINE
  5
11C
  8
0
  6
CONTINUOUS
 62
     3
 10
29.799161999999988
 20
21.540054000000001
 30
0.0
 11
29.799161999999988
 21
0.74006653
 31
0.0
  0
LINE
  5
11D
  8
0
  6
CENTER
 62
     7
 10
18.099164999999989
 20
62.940056000000013
 30
0.0
 11
5.0991650000000002
 21
62.940056000000013
 31
0.0
  0
LINE
  5
11E
  8
0
  6
CENTER
 62
     7
 10
11.599164999999999
 20
69.440056000000013
 30
0.0
 11
11.599164999999999
 21
56.440055999999998
 31
0.0
  0
LINE
  5
11F
  8
0
  6
CENTER
 62
     7
 10
13.09916499999999
 20
29.440055999999998
 30
0.0
 11
0.099164963
 21
29.440055999999998
 31
0.0
  0
LINE
  5
120
  8
0
  6
CENTER
 62
     7
 10
6.5991649999999993
 20
35.940055999999998
 30
0.0
 11
6.5991649999999993
 21
22.940055999999991
 31
0.0
  0
LINE
  5
121
  8
0
  6
CENTER
 62
     7
 10
18.099164999999989
 20
-4.0599365000000001
 30
0.0
 11
5.0991650000000002
 21
-4.0599365000000001
 31
0.0
  0
LINE
  5
122
  8
0
  6
CENTER
 62
     7
 10
11.599164999999999
 20
2.4400634999999991
 30
0.0
 11
11.599164999999999
 21
-10.559936999999991
 31
0.0
  0
LINE
  5
123
  8
0
  6
CENTER
 62
     7
 10
45.099167000000001
 20
62.940056000000013
 30
0.0
 11
32.099167000000001
 21
62.940056000000013
 31
0.0
  0
LINE
  5
124
  8
0
  6
CENTER
 62
     7
 10
38.599167000000001
 20
69.440056000000013
 30
0.0
 11
38.599167000000001
 21
56.440055999999998
 31
0.0
  0
LINE
  5
125
  8
0
  6
CENTER
 62
     7
 10
50.099162999999997
 20
29.440055999999998
 30
0.0
 11
37.099167000000001
 21
29.440055999999998
 31
0.0
  0
LINE
  5
126
  8
0
  6
CENTER
 62
     7
 10
43.599167000000001
 20
35.940055999999998
 30
0.0
 11
43.599167000000001
 21
22.940055999999991
 31
0.0
  0
LINE
  5
127
  8
0
  6
CENTER
 62
     7
 10
45.099167000000001
 20
-4.0599365000000001
 30
0.0
 11
32.099167000000001
 21
-4.0599365000000001
 31
0.0
  0
LINE
  5
128
  8
0
  6
CENTER
 62
     7
 10
38.599167000000001
 20
2.4400634999999991
 30
0.0
 11
38.599167000000001
 21
-10.559936999999991
 31
0.0
  0
LINE
  5
129
  8
0
  6
CENTER
 62
     7
 10
25.099164999999999
 20
78.440056000000013
 30
0.0
 11
25.099164999999999
 21
-19.559936999999991
 31
0.0
  0
LINE
  5
12A
  8
0
  6
CENTER
 62
     7
 10
6.5991649999999993
 20
145.32928000000001
 30
0.0
 11
6.5991649999999993
 21
138.12926999999991
 31
0.0
  0
LINE
  5
12B
  8
0
  6
CENTER
 62
     7
 10
11.599164999999999
 20
145.32928000000001
 30
0.0
 11
11.599164999999999
 21
138.12926999999991
 31
0.0
  0
LINE
  5
12C
  8
0
  6
CENTER
 62
     7
 10
38.599167000000001
 20
145.32928000000001
 30
0.0
 11
38.599167000000001
 21
138.12926999999991
 31
0.0
  0
LINE
  5
12D
  8
0
  6
CENTER
 62
     7
 10
43.599167000000001
 20
145.32928000000001
 30
0.0
 11
43.599167000000001
 21
138.12926999999991
 31
0.0
  0
CIRCLE
  5
12E
  8
0
  6
CONTINUOUS
 62
     3
 10
38.599167000000001
 20
-4.0599365000000001
 30
0.0
 40
2.4500000000000002
  0
CIRCLE
  5
12F
  8
0
  6
CONTINUOUS
 62
     3
 10
38.599167000000001
 20
62.940056000000013
 30
0.0
 40
2.4500000000000002
  0
CIRCLE
  5
130
  8
0
  6
CONTINUOUS
 62
     3
 10
43.599167000000001
 20
29.440055999999998
 30
0.0
 40
2.4500000000000002
  0
CIRCLE
  5
131
  8
0
  6
CONTINUOUS
 62
     3
 10
11.599164999999999
 20
-4.0599365000000001
 30
0.0
 40
2.4500000000000002
  0
CIRCLE
  5
132
  8
0
  6
CONTINUOUS
 62
     3
 10
11.599164999999999
 20
62.940056000000013
 30
0.0
 40
2.4500000000000002
  0
CIRCLE
  5
133
  8
0
  6
CONTINUOUS
 62
     3
 10
6.5991649999999993
 20
29.440055999999998
 30
0.0
 40
2.4500000000000002
  0
CIRCLE
  5
134
  8
0
  6
CONTINUOUS
 62
     3
 10
25.099164999999999
 20
140.12926999999991
 30
0.0
 40
3.5
  0
CIRCLE
  5
135
  8
0
  6
CONTINUOUS
 62
     3
 10
11.599164999999999
 20
62.940056000000013
 30
0.0
 40
3.5
  0
CIRCLE
  5
136
  8
0
  6
CONTINUOUS
 62
     3
 10
6.5991649999999993
 20
29.440055999999998
 30
0.0
 40
3.5
  0
CIRCLE
  5
137
  8
0
  6
CONTINUOUS
 62
     3
 10
11.599164999999999
 20
-4.0599365000000001
 30
0.0
 40
3.5
  0
CIRCLE
  5
138
  8
0
  6
CONTINUOUS
 62
     3
 10
38.599167000000001
 20
-4.0599365000000001
 30
0.0
 40
3.5
  0
CIRCLE
  5
139
  8
0
  6
CONTINUOUS
 62
     3
 10
43.599167000000001
 20
29.440055999999998
 30
0.0
 40
3.5
  0
CIRCLE
  5
13A
  8
0
  6
CONTINUOUS
 62
     3
 10
38.599167000000001
 20
62.940056000000013
 30
0.0
 40
3.5
  0
ARC
  5
13B
  8
0
  6
CONTINUOUS
 62
     7
 10
25.099164999999999
 20
70.606728000000004
 30
0.0
 40
4.8333335000000002
 50
43.602840999999998
 51
136.39716000000001
  0
ARC
  5
13C
  8
0
  6
CONTINUOUS
 62
     7
 10
25.099164999999999
 20
-11.726604
 30
0.0
 40
4.8333335000000002
 50
223.60282000000001
 51
316.39717999999999
  0
TEXT
  5
13D
  8
0
  6
CONTINUOUS
 62
     7
 10
-188.14299999999989
 20
103.40000000000001
 30
0.0
 40
3.2000000000000002
  1
丁番係数：　６．６
 41
0.84496202
  0
TEXT
  5
13E
  8
0
  6
CONTINUOUS
 62
     7
 10
-205.34299999999999
 20
167.40000000000001
 30
0.0
 40
3.2000000000000002
  1
品　名
 41
0.85537027
  0
TEXT
  5
13F
  8
0
  6
CONTINUOUS
 62
     7
 10
-205.34299999999999
 20
159.40000000000001
 30
0.0
 40
3.2000000000000002
  1
品　番
 41
0.85537027
  0
TEXT
  5
140
  8
0
  6
CONTINUOUS
 62
     7
 10
-205.34299999999999
 20
151.40000000000001
 30
0.0
 40
3.2000000000000002
  1
材　質
 41
0.85537027
  0
TEXT
  5
141
  8
0
  6
CONTINUOUS
 62
     7
 10
-205.34299999999999
 20
143.40000000000001
 30
0.0
 40
3.2000000000000002
  1
仕上げ
 41
0.85537027
  0
TEXT
  5
142
  8
0
  6
CONTINUOUS
 62
     7
 10
-188.14299999999989
 20
111.40000000000001
 30
0.0
 40
3.2000000000000002
  1
＊
 41
0.90047268
  0
TEXT
  5
143
  8
0
  6
CONTINUOUS
 62
     7
 10
-188.14299999999989
 20
119.40000000000001
 30
0.0
 40
3.2000000000000002
  1
＊
 41
0.90047268
  0
TEXT
  5
144
  8
0
  6
CONTINUOUS
 62
     7
 10
-208.54300000000001
 20
127.40000000000001
 30
0.0
 40
3.2000000000000002
  1
セットビス
 41
0.84892707
  0
TEXT
  5
145
  8
0
  6
CONTINUOUS
 62
     7
 10
-203.74299999999999
 20
103.40000000000001
 30
0.0
 40
3.2000000000000002
  1
備考
 41
0.8643907499999999
  0
TEXT
  5
146
  8
0
  6
CONTINUOUS
 62
     7
 10
-206.9429999999999
 20
135.40000000000001
 30
0.0
 40
3.2000000000000002
  1
左右勝手
 41
0.8512700499999999
  0
TEXT
  5
147
  8
0
  6
CONTINUOUS
 62
     7
 10
-188.14299999999989
 20
167.40000000000001
 30
0.0
 40
3.2000000000000002
  1
中厚丁番
 41
0.8512700499999999
  0
TEXT
  5
148
  8
0
  6
CONTINUOUS
 62
     7
 10
-188.14299999999989
 20
159.40000000000001
 30
0.0
 40
3.2000000000000002
  1
ＤＨ－２５５Ｓ－８９
 41
0.8444834799999998
  0
TEXT
  5
149
  8
0
  6
CONTINUOUS
 62
     7
 10
-188.14299999999989
 20
151.40000000000001
 30
0.0
 40
3.2000000000000002
  1
羽根：ステンレス／軸：ステンレス
 41
0.8428951399999998
  0
TEXT
  5
14A
  8
0
  6
CONTINUOUS
 62
     7
 10
-188.0573399999999
 20
143.40000000000001
 30
0.0
 40
3.2000000000000002
  1
羽根：HL／軸：生地
 41
0.7811973000000001
  0
DIMENSION
  5
14B
  8
0
  6
CONTINUOUS
 62
     7
  2
*D2
 10
25.099164999999999
 20
85.440056000000013
 30
0.0
 11
11.34916499999999
 21
85.440056000000013
 31
0.0
 13
-2.4008349999999989
 23
73.940056000000013
 33
0.0
 14
25.099164999999999
 24
78.440056000000013
 34
0.0
1001
ACAD
1000
DSTYLE
1002
{
1070
    77
1070
     1
1070
   172
1070
     1
1070
    75
1070
     1
1002
}
  0
DIMENSION
  5
14C
  8
0
  6
CONTINUOUS
 62
     7
  2
*D3
 10
52.599162999999997
 20
85.440056000000013
 30
0.0
 11
38.849167000000001
 21
85.440056000000013
 31
0.0
 13
25.099164999999999
 23
78.440056000000013
 33
0.0
 14
52.599162999999997
 24
73.940056000000013
 34
0.0
1001
ACAD
1000
DSTYLE
1002
{
1070
     6
1000
_NONE
1070
    77
1070
     1
1070
   172
1070
     1
1070
    75
1070
     1
1070
    76
1070
     1
1002
}
  0
DIMENSION
  5
14D
  8
0
  6
CONTINUOUS
 62
     7
  2
*D4
 10
-2.4008349999999989
 20
95.440056000000013
 30
0.0
 11
25.099164999999999
 21
95.440056000000013
 31
0.0
 13
52.599162999999997
 23
73.940056000000013
 33
0.0
 14
-2.4008349999999989
 24
73.940056000000013
 34
0.0
1001
ACAD
1000
DSTYLE
1002
{
1070
    77
1070
     1
1070
   172
1070
     1
1002
}
  0
DIMENSION
  5
14E
  8
0
  6
CONTINUOUS
 62
     7
  2
*D5
 10
67.599167000000008
 20
62.940056000000013
 30
0.0
 11
67.599167000000008
 21
68.440056000000013
 31
0.0
 13
52.599162999999997
 23
73.940056000000013
 33
0.0
 14
45.099167000000001
 24
62.940056000000013
 34
0.0
 50
90.0
1001
ACAD
1000
DSTYLE
1002
{
1070
    77
1070
     1
1070
   172
1070
     1
1070
    75
1070
     1
1002
}
  0
DIMENSION
  5
14F
  8
0
  6
CONTINUOUS
 62
     7
  2
*D6
 10
67.599167000000008
 20
29.440055999999998
 30
0.0
 11
67.599167000000008
 21
46.190055999999998
 31
0.0
 13
45.099167000000001
 23
62.940056000000013
 33
0.0
 14
50.099162999999997
 24
29.440055999999998
 34
0.0
 50
90.0
1001
ACAD
1000
DSTYLE
1002
{
1070
     6
1000
_NONE
1070
    77
1070
     1
1070
   172
1070
     1
1070
    75
1070
     1
1002
}
  0
DIMENSION
  5
150
  8
0
  6
CONTINUOUS
 62
     7
  2
*D7
 10
67.599167000000008
 20
-4.0599365000000001
 30
0.0
 11
67.599167000000008
 21
12.690056
 31
0.0
 13
50.099162999999997
 23
29.440055999999998
 33
0.0
 14
45.099167000000001
 24
-4.0599365000000001
 34
0.0
 50
90.0
1001
ACAD
1000
DSTYLE
1002
{
1070
     6
1000
_NONE
1070
    77
1070
     1
1070
   172
1070
     1
1070
    75
1070
     1
1002
}
  0
DIMENSION
  5
151
  8
0
  6
CONTINUOUS
 62
     7
  2
*D8
 10
67.599167000000008
 20
-15.059937
 30
0.0
 11
67.599167000000008
 21
-9.5599364999999992
 31
0.0
 13
45.099167000000001
 23
-4.0599365000000001
 33
0.0
 14
52.599162999999997
 24
-15.059937
 34
0.0
 50
90.0
1001
ACAD
1000
DSTYLE
1002
{
1070
     6
1000
_NONE
1070
    77
1070
     1
1070
   172
1070
     1
1070
    75
1070
     1
1070
    76
1070
     1
1002
}
  0
DIMENSION
  5
152
  8
0
  6
CONTINUOUS
 62
     7
  2
*D9
 10
77.599167000000008
 20
73.940056000000013
 30
0.0
 11
77.599167000000008
 21
29.440055999999998
 31
0.0
 13
52.599162999999997
 23
-15.059937
 33
0.0
 14
52.599162999999997
 24
73.940056000000013
 34
0.0
 50
90.0
1001
ACAD
1000
DSTYLE
1002
{
1070
    77
1070
     1
1070
   172
1070
     1
1002
}
  0
DIMENSION
  5
153
  8
0
  6
CONTINUOUS
 62
     7
  2
*D10
 10
38.599167000000001
 20
-31.559936999999991
 30
0.0
 11
31.849164999999999
 21
-31.559936999999991
 31
0.0
 13
25.099164999999999
 23
-19.559936999999991
 33
0.0
 14
38.599167000000001
 24
-10.559936999999991
 34
0.0
1001
ACAD
1000
DSTYLE
1002
{
1070
    77
1070
     1
1070
   172
1070
     1
1002
}
  0
DIMENSION
  5
154
  8
0
  6
CONTINUOUS
 62
     7
  2
*D11
 10
43.599167000000001
 20
-31.559936999999991
 30
0.0
 11
41.099167000000001
 21
-31.559936999999991
 31
0.0
 13
38.599167000000001
 23
-10.559936999999991
 33
0.0
 14
43.599167000000001
 24
22.940055999999991
 34
0.0
1001
ACAD
1000
DSTYLE
1002
{
1070
     6
1000
_NONE
1070
    77
1070
     1
1070
   172
1070
     1
1070
    75
1070
     1
1002
}
  0
DIMENSION
  5
155
  8
0
  6
CONTINUOUS
 62
     7
  2
*D12
 10
52.599162999999997
 20
-31.559936999999991
 30
0.0
 11
48.099167000000001
 21
-31.559936999999991
 31
0.0
 13
43.599167000000001
 23
22.940055999999991
 33
0.0
 14
52.599162999999997
 24
-15.059944
 34
0.0
1001
ACAD
1000
DSTYLE
1002
{
1070
     6
1000
_NONE
1070
    77
1070
     1
1070
   172
1070
     1
1070
    75
1070
     1
1002
}
  0
POLYLINE
  5
156
  8
0
  6
CONTINUOUS
 62
     7
 66
     1
 10
0.0
 20
0.0
 30
0.0
  0
VERTEX
  5
183
  8
0
  6
CONTINUOUS
 62
     7
 10
22.624293999999988
 20
137.65440000000001
 30
0.0
  0
VERTEX
  5
184
  8
0
  6
CONTINUOUS
 62
     7
 10
6.5991634999999986
 20
121.62926999999991
 30
0.0
  0
VERTEX
  5
185
  8
0
  6
CONTINUOUS
 62
     7
 10
-0.7275257100000001
 20
121.62926999999991
 30
0.0
  0
SEQEND
  5
186
  8
0
  6
CONTINUOUS
 62
     7
  0
TEXT
  5
15B
  8
0
  6
CONTINUOUS
 62
     7
 10
-0.72751424
 20
122.4292699999999
 30
0.0
 40
3.2000000000000002
  1
%%C7
 41
0.92336176
  0
DIMENSION
  5
15C
  8
0
  6
CONTINUOUS
 62
     7
  2
*D13
 10
27.574041000000001
 20
142.60415
 30
0.0
 11
2.0154857999999991
 21
121.62926999999991
 31
0.0
 70
     3
 15
22.624292999999991
 25
137.65440000000001
 35
0.0
 40
0.0
1001
ACAD
1000
DSTYLE
1002
{
1070
    77
1070
     1
1070
   172
1070
     1
1002
}
  0
POLYLINE
  5
15D
  8
0
  6
CONTINUOUS
 62
     7
 66
     1
 10
0.0
 20
0.0
 30
0.0
  0
VERTEX
  5
187
  8
0
  6
CONTINUOUS
 62
     7
 10
41.074038999999999
 20
65.414931999999993
 30
0.0
  0
VERTEX
  5
188
  8
0
  6
CONTINUOUS
 62
     7
 10
61.099162999999997
 20
85.440056000000013
 30
0.0
  0
VERTEX
  5
189
  8
0
  6
CONTINUOUS
 62
     7
 10
100.01775000000001
 20
85.440056000000013
 30
0.0
  0
SEQEND
  5
18A
  8
0
  6
CONTINUOUS
 62
     7
  0
TEXT
  5
162
  8
0
  6
CONTINUOUS
 62
     7
 10
65.731741
 20
86.240056000000024
 30
0.0
 40
3.2000000000000002
  1
６－%%C４．９×%%C７サラ
 41
0.8440946700000001
  0
DIMENSION
  5
163
  8
0
  6
CONTINUOUS
 62
     7
  2
*D14
 10
41.074040999999987
 20
65.414929999999998
 30
0.0
 11
82.874741
 21
85.440056000000013
 31
0.0
 70
     3
 15
36.124293000000002
 25
60.465181999999992
 35
0.0
 40
0.0
1001
ACAD
1000
DSTYLE
1002
{
1070
    77
1070
     1
1070
   172
1070
     1
1002
}
  0
DIMENSION
  5
164
  8
0
  6
CONTINUOUS
 62
     7
  2
*D15
 10
67.599167000000008
 20
141.12926999999991
 30
0.0
 11
67.599167000000008
 21
147.88083
 31
0.0
 13
52.599162999999997
 23
142.32928000000001
 33
0.0
 14
52.599162999999997
 24
141.12926999999991
 34
0.0
 50
90.0
1001
ACAD
1000
DSTYLE
1002
{
1070
    77
1070
     1
1070
   172
1070
     1
1070
    75
1070
     1
1002
}
  0
DIMENSION
  5
165
  8
0
  6
CONTINUOUS
 62
     7
  2
*D16
 10
67.599167000000008
 20
139.12926999999991
 30
0.0
 11
67.599167000000008
 21
140.12926999999991
 31
0.0
 13
52.599162999999997
 23
141.12926999999991
 33
0.0
 14
52.599162999999997
 24
139.12926999999991
 34
0.0
 50
90.0
1001
ACAD
1000
DSTYLE
1002
{
1070
     6
1000
_NONE
1070
    77
1070
     1
1070
   172
1070
     1
1070
    75
1070
     1
1002
}
  0
DIMENSION
  5
166
  8
0
  6
CONTINUOUS
 62
     7
  2
*D17
 10
67.599167000000008
 20
137.92926
 30
0.0
 11
67.599167000000008
 21
132.24413000000001
 31
0.0
 13
52.599162999999997
 23
139.12926999999991
 33
0.0
 14
52.599162999999997
 24
137.92926
 34
0.0
 50
90.0
1001
ACAD
1000
DSTYLE
1002
{
1070
     6
1000
_NONE
1070
    77
1070
     1
1070
   172
1070
     1
1070
    75
1070
     1
1070
    76
1070
     1
1002
}
  0
DIMENSION
  5
167
  8
0
  6
CONTINUOUS
 62
     7
  2
*D18
 10
77.599167000000008
 20
142.32928000000001
 30
0.0
 11
77.599167000000008
 21
131.77232000000001
 31
0.0
 13
52.599162999999997
 23
137.92926
 33
0.0
 14
52.599162999999997
 24
142.32928000000001
 34
0.0
 50
90.0
1001
ACAD
1000
DSTYLE
1002
{
1070
    77
1070
     1
1070
   172
1070
     1
1002
}
  0
ENDSEC
  0
EOF
