  0
SECTION
  2
HEADER
  9
$ACADVER
  1
AC1015
  9
$ACADMAINTVER
 70
    20
  9
$DWGCODEPAGE
  3
ANSI_932
  9
$INSBASE
 10
0.0
 20
0.0
 30
0.0
  9
$EXTMIN
 10
-11.61542234462922
 20
-15.62211727907106
 30
-0.0000000000112498
  9
$EXTMAX
 10
408.5958163706045
 20
281.5512241507418
 30
0.0000000000002956
  9
$LIMMIN
 10
1700.85588156276
 20
1647.985052086429
  9
$LIMMAX
 10
1997.85588156276
 20
1857.985052086429
  9
$ORTHOMODE
 70
     0
  9
$REGENMODE
 70
     1
  9
$FILLMODE
 70
     1
  9
$QTEXTMODE
 70
     0
  9
$MIRRTEXT
 70
     0
  9
$LTSCALE
 40
1.0
  9
$ATTMODE
 70
     1
  9
$TEXTSIZE
 40
3.2
  9
$TRACEWID
 40
1.0
  9
$TEXTSTYLE
  7
STANDARD
  9
$CLAYER
  8
AM_11
  9
$CELTYPE
  6
ByLayer
  9
$CECOLOR
 62
   256
  9
$CELTSCALE
 40
1.0
  9
$DISPSILH
 70
     0
  9
$DIMSCALE
 40
1.0
  9
$DIMASZ
 40
1.0
  9
$DIMEXO
 40
1.0
  9
$DIMDLI
 40
10.0
  9
$DIMRND
 40
0.0
  9
$DIMDLE
 40
0.0
  9
$DIMEXE
 40
1.0
  9
$DIMTP
 40
0.1
  9
$DIMTM
 40
0.1
  9
$DIMTXT
 40
3.5
  9
$DIMCEN
 40
0.0
  9
$DIMTSZ
 40
0.0
  9
$DIMTOL
 70
     0
  9
$DIMLIM
 70
     0
  9
$DIMTIH
 70
     0
  9
$DIMTOH
 70
     0
  9
$DIMSE1
 70
     0
  9
$DIMSE2
 70
     0
  9
$DIMTAD
 70
     1
  9
$DIMZIN
 70
     8
  9
$DIMBLK
  1

  9
$DIMASO
 70
     1
  9
$DIMSHO
 70
     1
  9
$DIMPOST
  1

  9
$DIMAPOST
  1
"
  9
$DIMALT
 70
     0
  9
$DIMALTD
 70
     2
  9
$DIMALTF
 40
0.0393701
  9
$DIMLFAC
 40
1.0
  9
$DIMTOFL
 70
     1
  9
$DIMTVP
 40
0.0
  9
$DIMTIX
 70
     0
  9
$DIMSOXD
 70
     0
  9
$DIMSAH
 70
     0
  9
$DIMBLK1
  1

  9
$DIMBLK2
  1

  9
$DIMSTYLE
  2
SYS
  9
$DIMCLRD
 70
   256
  9
$DIMCLRE
 70
   256
  9
$DIMCLRT
 70
     7
  9
$DIMTFAC
 40
0.71
  9
$DIMGAP
 40
1.5
  9
$DIMJUST
 70
     0
  9
$DIMSD1
 70
     0
  9
$DIMSD2
 70
     0
  9
$DIMTOLJ
 70
     0
  9
$DIMTZIN
 70
     8
  9
$DIMALTZ
 70
     0
  9
$DIMALTTZ
 70
     0
  9
$DIMUPT
 70
     0
  9
$DIMDEC
 70
     2
  9
$DIMTDEC
 70
     2
  9
$DIMALTU
 70
     2
  9
$DIMALTTD
 70
     2
  9
$DIMTXSTY
  7
STANDARD
  9
$DIMAUNIT
 70
     0
  9
$DIMADEC
 70
     0
  9
$DIMALTRND
 40
0.0
  9
$DIMAZIN
 70
     2
  9
$DIMDSEP
 70
    46
  9
$DIMATFIT
 70
     3
  9
$DIMFRAC
 70
     0
  9
$DIMLDRBLK
  1

  9
$DIMLUNIT
 70
     2
  9
$DIMLWD
 70
    -1
  9
$DIMLWE
 70
    -1
  9
$DIMTMOVE
 70
     0
  9
$LUNITS
 70
     2
  9
$LUPREC
 70
     2
  9
$SKETCHINC
 40
1.0
  9
$FILLETRAD
 40
2.5
  9
$AUNITS
 70
     0
  9
$AUPREC
 70
     0
  9
$MENU
  1
.
  9
$ELEVATION
 40
0.0
  9
$PELEVATION
 40
0.0
  9
$THICKNESS
 40
0.0
  9
$LIMCHECK
 70
     0
  9
$CHAMFERA
 40
0.0
  9
$CHAMFERB
 40
0.0
  9
$CHAMFERC
 40
20.0
  9
$CHAMFERD
 40
0.0
  9
$SKPOLY
 70
     0
  9
$TDCREATE
 40
2455832.476484190
  9
$TDUCREATE
 40
2455832.101484190
  9
$TDUPDATE
 40
2455846.743797199
  9
$TDUUPDATE
 40
2455846.368797199
  9
$TDINDWG
 40
0.3792035648
  9
$TDUSRTIMER
 40
0.3792033796
  9
$USRTIMER
 70
     1
  9
$ANGBASE
 50
0.0
  9
$ANGDIR
 70
     0
  9
$PDMODE
 70
     0
  9
$PDSIZE
 40
-3.0
  9
$PLINEWID
 40
0.0
  9
$SPLFRAME
 70
     0
  9
$SPLINETYPE
 70
     6
  9
$SPLINESEGS
 70
     8
  9
$HANDSEED
  5
C09D
  9
$SURFTAB1
 70
     6
  9
$SURFTAB2
 70
     6
  9
$SURFTYPE
 70
     6
  9
$SURFU
 70
     6
  9
$SURFV
 70
     6
  9
$UCSBASE
  2

  9
$UCSNAME
  2

  9
$UCSORG
 10
0.0
 20
0.0
 30
0.0
  9
$UCSXDIR
 10
1.0
 20
0.0
 30
0.0
  9
$UCSYDIR
 10
0.0
 20
1.0
 30
0.0
  9
$UCSORTHOREF
  2

  9
$UCSORTHOVIEW
 70
     0
  9
$UCSORGTOP
 10
0.0
 20
0.0
 30
0.0
  9
$UCSORGBOTTOM
 10
0.0
 20
0.0
 30
0.0
  9
$UCSORGLEFT
 10
0.0
 20
0.0
 30
0.0
  9
$UCSORGRIGHT
 10
0.0
 20
0.0
 30
0.0
  9
$UCSORGFRONT
 10
0.0
 20
0.0
 30
0.0
  9
$UCSORGBACK
 10
0.0
 20
0.0
 30
0.0
  9
$PUCSBASE
  2

  9
$PUCSNAME
  2

  9
$PUCSORG
 10
0.0
 20
0.0
 30
0.0
  9
$PUCSXDIR
 10
1.0
 20
0.0
 30
0.0
  9
$PUCSYDIR
 10
0.0
 20
1.0
 30
0.0
  9
$PUCSORTHOREF
  2

  9
$PUCSORTHOVIEW
 70
     0
  9
$PUCSORGTOP
 10
0.0
 20
0.0
 30
0.0
  9
$PUCSORGBOTTOM
 10
0.0
 20
0.0
 30
0.0
  9
$PUCSORGLEFT
 10
0.0
 20
0.0
 30
0.0
  9
$PUCSORGRIGHT
 10
0.0
 20
0.0
 30
0.0
  9
$PUCSORGFRONT
 10
0.0
 20
0.0
 30
0.0
  9
$PUCSORGBACK
 10
0.0
 20
0.0
 30
0.0
  9
$USERI1
 70
     0
  9
$USERI2
 70
     0
  9
$USERI3
 70
     0
  9
$USERI4
 70
     0
  9
$USERI5
 70
     0
  9
$USERR1
 40
0.0
  9
$USERR2
 40
0.0
  9
$USERR3
 40
0.0
  9
$USERR4
 40
0.0
  9
$USERR5
 40
0.0
  9
$WORLDVIEW
 70
     1
  9
$SHADEDGE
 70
     3
  9
$SHADEDIF
 70
    70
  9
$TILEMODE
 70
     1
  9
$MAXACTVP
 70
    64
  9
$PINSBASE
 10
0.0
 20
0.0
 30
0.0
  9
$PLIMCHECK
 70
     0
  9
$PEXTMIN
 10
1.000000000000000E+20
 20
1.000000000000000E+20
 30
1.000000000000000E+20
  9
$PEXTMAX
 10
-1.000000000000000E+20
 20
-1.000000000000000E+20
 30
-1.000000000000000E+20
  9
$PLIMMIN
 10
-3.17498779296875
 20
-3.174999952316284
  9
$PLIMMAX
 10
293.4970092773438
 20
206.692492723465
  9
$UNITMODE
 70
     0
  9
$VISRETAIN
 70
     1
  9
$PLINEGEN
 70
     0
  9
$PSLTSCALE
 70
     1
  9
$TREEDEPTH
 70
  3020
  9
$CMLSTYLE
  2
Standard
  9
$CMLJUST
 70
     0
  9
$CMLSCALE
 40
20.0
  9
$PROXYGRAPHICS
 70
     1
  9
$MEASUREMENT
 70
     1
  9
$CELWEIGHT
370
    -1
  9
$ENDCAPS
280
     0
  9
$JOINSTYLE
280
     0
  9
$LWDISPLAY
290
     0
  9
$INSUNITS
 70
     4
  9
$HYPERLINKBASE
  1

  9
$STYLESHEET
  1
monochrome.ctb
  9
$XEDIT
290
     1
  9
$CEPSNTYPE
380
     0
  9
$PSTYLEMODE
290
     1
  9
$FINGERPRINTGUID
  2
{665F5FF5-B52B-4A43-9A76-4F7D021E2D70}
  9
$VERSIONGUID
  2
{788F57D5-15A0-46B3-930E-D053DF22476A}
  9
$EXTNAMES
290
     1
  9
$PSVPSCALE
 40
0.0
  9
$OLESTARTUP
290
     0
  0
ENDSEC
  0
SECTION
  2
CLASSES
  0
CLASS
  1
ACDBDICTIONARYWDFLT
  2
AcDbDictionaryWithDefault
  3
ObjectDBX Classes
 90
        0
280
     0
281
     0
  0
CLASS
  1
ACDBPLACEHOLDER
  2
AcDbPlaceHolder
  3
ObjectDBX Classes
 90
        0
280
     0
281
     0
  0
CLASS
  1
LAYOUT
  2
AcDbLayout
  3
ObjectDBX Classes
 90
        0
280
     0
281
     0
  0
CLASS
  1
AMGSETTINGSOBJ
  2
AmgSettingsObj
  3
"AcadM|Product Description: AutoCAD Mechanical|Company: Autodesk"
 90
        0
280
     0
281
     0
  0
CLASS
  1
ACME_DOCUMENT
  2
AcMeDbDoc
  3
AcMeServices
 90
        0
280
     0
281
     0
  0
CLASS
  1
ACMESCOPE
  2
AcMeScope
  3
AcMeServices
 90
        0
280
     0
281
     0
  0
CLASS
  1
ACMECOMMANDHISTORY
  2
AcMeCommandHistory
  3
AcMeServices
 90
        0
280
     0
281
     0
  0
CLASS
  1
DICTIONARYVAR
  2
AcDbDictionaryVar
  3
ObjectDBX Classes
 90
        0
280
     0
281
     0
  0
CLASS
  1
ACIMSYSVARMAN
  2
AcImSysVarManager
  3
AcMeServices
 90
        0
280
     0
281
     0
  0
CLASS
  1
ACIMREALSYSVAR
  2
AcImRealSysVar
  3
AcMeServices
 90
        0
280
     0
281
     0
  0
CLASS
  1
ACIMINTSYSVAR
  2
AcImIntSysVar
  3
AcMeServices
 90
        0
280
     0
281
     0
  0
CLASS
  1
ACMEDRAWINGMAN
  2
AcMeDrawingMan
  3
AcMeServices
 90
        0
280
     0
281
     0
  0
CLASS
  1
ACMEVIEW
  2
AcMeView
  3
AcMeServices
 90
        0
280
     0
281
     0
  0
CLASS
  1
ACDBENTITYCACHE
  2
AcMeEntityCache
  3
AcMeServices
 90
        0
280
     0
281
     0
  0
CLASS
  1
GSMANAGER
  2
AcMeGSManager
  3
AcMeServices
 90
        0
280
     0
281
     0
  0
CLASS
  1
AMDTINTERNALREACTOR
  2
AmdtInternalReactor
  3
AcMeServices
 90
        0
280
     0
281
     0
  0
CLASS
  1
ACMESTATEMGR
  2
AcMeStateMgr
  3
AcMeServices
 90
        0
280
     0
281
     0
  0
CLASS
  1
ACGREFMASTER
  2
AcGrefMaster
  3
AcAttribServices
 90
        0
280
     0
281
     0
  0
CLASS
  1
ACME_DATABASE
  2
AcMeDbDatabase
  3
AcMeServices
 90
        0
280
     0
281
     0
  0
CLASS
  1
ACRFINSADJUSTERMGR
  2
AcRfInsAdjusterMgr
  3
AcMeServices
 90
        0
280
     0
281
     0
  0
CLASS
  1
ACGREFACADMASTER
  2
AcGrefacadMaster
  3
AcGrefServices
 90
        0
280
     0
281
     0
  0
CLASS
  1
AMIMASTER
  2
AmiMaster
  3
AmiServices
 90
        0
280
     0
281
     0
  0
CLASS
  1
ACMDATADICTIONARY
  2
AcmDataDictionary
  3
"AcmSymBB|Product Description: AutoCAD Mechanical|Company: Autodesk"
 90
        0
280
     0
281
     0
  0
CLASS
  1
ACMDATAENTRYBLOCK
  2
AcmDataEntryBlock
  3
"AcmSymBB|Product Description: AutoCAD Mechanical|Company: Autodesk"
 90
        0
280
     0
281
     0
  0
CLASS
  1
ACIMSTRSYSVAR
  2
AcImStrSysVar
  3
AcMeServices
 90
        0
280
     0
281
     0
  0
CLASS
  1
ACMSTANDARDISO
  2
AcmStandardISO
  3
"Amdt_StdImp|Product Description: AutoCAD Mechanical|Company: Autodesk"
 90
        0
280
     0
281
     0
  0
CLASS
  1
AMGOBJPROPCFG
  2
AmgObjPropCfg
  3
"AmgLay|Product Description: AutoCAD Mechanical|Company: Autodesk"
 90
        1
280
     0
281
     0
  0
CLASS
  1
AMDTEDGESTANDARDISO
  2
AmdtEdgeStdISO
  3
"Amdt_StdImp|Product Description: AutoCAD Mechanical|Company: Autodesk"
 90
        0
280
     0
281
     0
  0
CLASS
  1
ACMSURFSTANDARDISO
  2
AcmSurfTextStdISO
  3
"Amdt_StdImp|Product Description: AutoCAD Mechanical|Company: Autodesk"
 90
        0
280
     0
281
     0
  0
CLASS
  1
ACMFCFSTANDARDISO
  2
AcmFCFStdISO
  3
"Amdt_StdImp|Product Description: AutoCAD Mechanical|Company: Autodesk"
 90
        0
280
     0
281
     0
  0
CLASS
  1
ACMWELDSTANDARDISO
  2
AcmWeldingStdISO
  3
"Amdt_StdImp|Product Description: AutoCAD Mechanical|Company: Autodesk"
 90
        0
280
     0
281
     0
  0
CLASS
  1
ACMIDSTANDARDISO
  2
AcmIdStdISO
  3
"Amdt_StdImp|Product Description: AutoCAD Mechanical|Company: Autodesk"
 90
        0
280
     0
281
     0
  0
CLASS
  1
ACMDATUMSTANDARDISO
  2
AcmDatumStdISO
  3
"Amdt_StdImp|Product Description: AutoCAD Mechanical|Company: Autodesk"
 90
        0
280
     0
281
     0
  0
CLASS
  1
ACMBOMSTANDARDISO
  2
AcmBOMStdISO
  3
"Amdt_StdImp|Product Description: AutoCAD Mechanical|Company: Autodesk"
 90
        0
280
     0
281
     0
  0
CLASS
  1
ACMDETAILSTANDARDISO
  2
AmdtDetailSymStdISO
  3
"Amdt_StdImp|Product Description: AutoCAD Mechanical|Company: Autodesk"
 90
        0
280
     0
281
     0
  0
CLASS
  1
ACMSECTIONSTANDARDISO
  2
AmdtSectionSymStdISO
  3
"Amdt_StdImp|Product Description: AutoCAD Mechanical|Company: Autodesk"
 90
        0
280
     0
281
     0
  0
CLASS
  1
ACMCENTERLINESTANDARDISO
  2
AmdtCenterLineStdISO
  3
"Amdt_StdImp|Product Description: AutoCAD Mechanical|Company: Autodesk"
 90
        0
280
     0
281
     0
  0
CLASS
  1
ACAMGLAYSTD
  2
AcAmgLayStd
  3
"AmgLay|Product Description: AutoCAD Mechanical|Company: Autodesk"
 90
        0
280
     0
281
     0
  0
CLASS
  1
ACAMGDIMSTD
  2
AcAmgDimStd
  3
"AmgDim|Product Description: AutoCAD Mechanical|Company: Autodesk"
 90
        0
280
     0
281
     0
  0
CLASS
  1
ACAMGTITLESTD
  2
AcAmgTitleStd
  3
"AmgTitle|Product Description: AutoCAD Mechanical|Company: Autodesk"
 90
        0
280
     0
281
     0
  0
CLASS
  1
ACAMGFILTERDAT
  2
AcAmgFilterDat
  3
"AcadM|Product Description: AutoCAD Mechanical|Company: Autodesk"
 90
        0
280
     0
281
     0
  0
CLASS
  1
LAYER_INDEX
  2
AcDbLayerIndex
  3
ObjectDBX Classes
 90
    32768
280
     0
281
     0
  0
CLASS
  1
IDBUFFER
  2
AcDbIdBuffer
  3
ObjectDBX Classes
 90
    32768
280
     0
281
     0
  0
CLASS
  1
PLOTSETTINGS
  2
AcDbPlotSettings
  3
ObjectDBX Classes
 90
    32768
280
     0
281
     0
  0
CLASS
  1
AMDTFORMULAUPDATEDISPATCHER
  2
AmdtFormulaUpdateDispatcher
  3
AcMeServices
 90
        0
280
     0
281
     0
  0
CLASS
  1
ACMSTANDARDANSI
  2
AcmStandardANSI
  3
"Amdt_StdImp|Product Description: AutoCAD Mechanical|Company: Autodesk"
 90
        0
280
     0
281
     0
  0
CLASS
  1
ACMSURFSTANDARDANSI
  2
AcmSurfTextStdANSI
  3
"Amdt_StdImp|Product Description: AutoCAD Mechanical|Company: Autodesk"
 90
        0
280
     0
281
     0
  0
CLASS
  1
ACMFCFSTANDARDANSI
  2
AcmFCFStdANSI
  3
"Amdt_StdImp|Product Description: AutoCAD Mechanical|Company: Autodesk"
 90
        0
280
     0
281
     0
  0
CLASS
  1
ACMWELDSTANDARDANSI
  2
AcmWeldingStdANSI
  3
"Amdt_StdImp|Product Description: AutoCAD Mechanical|Company: Autodesk"
 90
        0
280
     0
281
     0
  0
CLASS
  1
ACMIDSTANDARDANSI
  2
AcmIdStdANSI
  3
"Amdt_StdImp|Product Description: AutoCAD Mechanical|Company: Autodesk"
 90
        0
280
     0
281
     0
  0
CLASS
  1
ACMDATUMSTANDARDANSI
  2
AcmDatumStdANSI
  3
"Amdt_StdImp|Product Description: AutoCAD Mechanical|Company: Autodesk"
 90
        0
280
     0
281
     0
  0
CLASS
  1
ACMBOMSTANDARDANSI
  2
AcmBOMStdANSI
  3
"Amdt_StdImp|Product Description: AutoCAD Mechanical|Company: Autodesk"
 90
        0
280
     0
281
     0
  0
CLASS
  1
ACMDETAILSTANDARDANSI
  2
AmdtDetailSymStdANSI
  3
"Amdt_StdImp|Product Description: AutoCAD Mechanical|Company: Autodesk"
 90
        0
280
     0
281
     0
  0
CLASS
  1
ACMSECTIONSTANDARDANSI
  2
AmdtSectionSymStdANSI
  3
"Amdt_StdImp|Product Description: AutoCAD Mechanical|Company: Autodesk"
 90
        0
280
     0
281
     0
  0
CLASS
  1
ACMCENTERLINESTANDARDANSI
  2
AmdtCenterLineStdANSI
  3
"Amdt_StdImp|Product Description: AutoCAD Mechanical|Company: Autodesk"
 90
        0
280
     0
281
     0
  0
CLASS
  1
ACMBOM
  2
AcmBom
  3
"AcmSymBB|Product Description: AutoCAD Mechanical|Company: Autodesk"
 90
        0
280
     0
281
     0
  0
CLASS
  1
ACMDATAENTRYPART
  2
AcmDataEntryPart
  3
"AcmSymBB|Product Description: AutoCAD Mechanical|Company: Autodesk"
 90
    32768
280
     0
281
     0
  0
CLASS
  1
ACMPARTREF
  2
AcmPartRef
  3
"AcmSymBB|Product Description: AutoCAD Mechanical|Company: Autodesk"
 90
    35839
280
     0
281
     1
  0
CLASS
  1
ACDBCIRCARCRES
  2
AcDbCircArcRes
  3
AcGrefServices
 90
    32768
280
     0
281
     0
  0
CLASS
  1
ACMBOMROW
  2
AcmBomRow
  3
"AcmSymBB|Product Description: AutoCAD Mechanical|Company: Autodesk"
 90
    32768
280
     0
281
     0
  0
CLASS
  1
ACMBALLOON
  2
AcmBalloon
  3
"AcmSymBB|Product Description: AutoCAD Mechanical|Company: Autodesk"
 90
    35839
280
     0
281
     1
  0
CLASS
  1
AMDTNOTE
  2
AmdtNote
  3
"AcmSymBB|Product Description: AutoCAD Mechanical|Company: Autodesk"
 90
    35839
280
     0
281
     1
  0
CLASS
  1
STDPART2D
  2
AmgStdPart
  3
"g3vace|Class: AmgStdPart|Product Description: AutoCAD Mechanical|Company: Autodesk"
 90
    35839
280
     0
281
     1
  0
CLASS
  1
ACDBSTDPARTRES_LINE
  2
AcDbStdPartRes_Line
  3
"g3vace|Class: AcDbStdPartRes_Line|Product Description: AutoCAD Mechanical|Company: Autodesk"
 90
    32768
280
     0
281
     0
  0
CLASS
  1
ACMDATAENTRY
  2
AcmDataEntry
  3
"AcmSymBB|Product Description: AutoCAD Mechanical|Company: Autodesk"
 90
        0
280
     0
281
     0
  0
CLASS
  1
ACDBOPPOLYLINERES
  2
AcDbOpPolylineRes
  3
AcGrefServices
 90
    32768
280
     0
281
     0
  0
CLASS
  1
ACMPARTLIST
  2
AcmPartList
  3
"AcmSymBB|Product Description: AutoCAD Mechanical|Company: Autodesk"
 90
    35839
280
     0
281
     1
  0
CLASS
  1
ACDBLINERES
  2
AcDbLineRes
  3
AcGrefServices
 90
    32768
280
     0
281
     0
  0
CLASS
  1
ACRFINSADJ
  2
AcRfInsAdjuster
  3
AcMeServices
 90
    32768
280
     0
281
     0
  0
CLASS
  1
AM_DRAWING_MGR
  2
AcDmDwgMgr
  3
AcMechDwgViewMgmt
 90
        0
280
     0
281
     0
  0
CLASS
  1
AM_DWG_DOCUMENT
  2
AcDmDwgDocument
  3
AcMechDwgViewMgmt
 90
        0
280
     0
281
     0
  0
CLASS
  1
AM_DWG_SHEET
  2
AcDmSheet
  3
AcMechDwgViewMgmt
 90
        0
280
     0
281
     0
  0
CLASS
  1
AM_VIEWDIMPARMAP
  2
AcDmViewDimParMap
  3
AcMechDwgViewMgmt
 90
        0
280
     0
281
     0
  0
CLASS
  1
AM_DWGMGR_NAME
  2
AcDmDwgMgrName
  3
AcMechDwgViewMgmt
 90
        0
280
     0
281
     0
  0
CLASS
  1
AMDTMENUSTATEMGR
  2
AmdtMenuStateMgr
  3
McadcomServices
 90
        0
280
     0
281
     0
  0
CLASS
  1
AMDTMCOMMENUSTATE
  2
AmdtMcomMenuState
  3
McadcomServices
 90
        0
280
     0
281
     0
  0
CLASS
  1
ASAPP
  2
AcAsAppObject
  3
AutoSurfServices
 90
        0
280
     0
281
     0
  0
CLASS
  1
IM_STATIC_MAN
  2
AcImStaticVarManager
  3
AcMeServices
 90
        0
280
     0
281
     0
  0
CLASS
  1
ACIMDBLSTATICVAR
  2
AcImDblStaticVar
  3
AcMeServices
 90
        0
280
     0
281
     0
  0
CLASS
  1
ACIMSTRSTATICVAR
  2
AcImStrStaticVar
  3
AcMeServices
 90
        0
280
     0
281
     0
  0
CLASS
  1
ACIMINTSTATICVAR
  2
AcImIntStaticVar
  3
AcMeServices
 90
        0
280
     0
281
     0
  0
CLASS
  1
ACASGREFMASTER
  2
AcAsGrefMaster
  3
AutoSurfResolverServices
 90
        0
280
     0
281
     0
  0
CLASS
  1
ACADGREFMODULE
  2
AcAdGrefModule
  3
AdGrefServices
 90
        0
280
     0
281
     0
  0
CLASS
  1
AMDTMAPISURFMOUDULE
  2
AmdtMApiSurfModule
  3
MApiSurfServices
 90
        0
280
     0
281
     0
  0
CLASS
  1
MAPIAMMOUDLE
  2
MApiAmModule
  3
MApiAmServices
 90
        0
280
     0
281
     0
  0
CLASS
  1
AMDTADMENUSTATE
  2
AmdtAdMenuState
  3
DesignerServices
 90
        0
280
     0
281
     0
  0
CLASS
  1
ADAPPL
  2
AcAdAppl
  3
DesignerServices
 90
        0
280
     0
281
     0
  0
CLASS
  1
DEPMGR
  2
AcAdDepMgr
  3
DesignerServices
 90
        0
280
     0
281
     0
  0
CLASS
  1
PARAMMGR
  2
AcAdParamMgr
  3
DesignerServices
 90
        0
280
     0
281
     0
  0
CLASS
  1
PARAMSCOPE
  2
AcAdParamScope
  3
DesignerServices
 90
        0
280
     0
281
     0
  0
CLASS
  1
NAMEDAPPL
  2
AcAdNamedAppl
  3
DesignerServices
 90
        0
280
     0
281
     0
  0
CLASS
  1
ADHNTMPLT
  2
AdHoleNoteTemplateMgr
  3
DesignerServices
 90
    32768
280
     0
281
     0
  0
CLASS
  1
AM_HNTEMPLATE_MGR_NAME
  2
AdHoleNoteTemplateMgrName
  3
DesignerServices
 90
    32768
280
     0
281
     0
  0
CLASS
  1
AMDTDMMENUSTATE
  2
AmdtDmMenuState
  3
AcMechDwgViewMgmt
 90
        0
280
     0
281
     0
  0
CLASS
  1
MAPIADMODULE
  2
MApiAdModule
  3
MApiAdServices
 90
        0
280
     0
281
     0
  0
CLASS
  1
AMDTAMMENUSTATE
  2
AmdtAmMenuState
  3
DesignerAssemblies
 90
        0
280
     0
281
     0
  0
CLASS
  1
ACAMPROJECT
  2
AcAmProject
  3
DesignerAssemblies
 90
        0
280
     0
281
     0
  0
CLASS
  1
ACAMGRCOMPDEF
  2
AcAmGrCompDef
  3
DesignerAssemblies
 90
        0
280
     0
281
     0
  0
CLASS
  1
ACCMCONTEXT
  2
AcCmContext
  3
DesignerAssemblies
 90
        0
280
     0
281
     0
  0
CLASS
  1
ACAMCOMPDEF
  2
AcAmCompDef
  3
DesignerAssemblies
 90
        0
280
     0
281
     0
  0
CLASS
  1
ACAMCOMPDEFMGR
  2
AcAmCompDefMgr
  3
DesignerAssemblies
 90
        0
280
     0
281
     0
  0
CLASS
  1
AMCONTEXTMGR
  2
AcAmContextMgr
  3
DesignerAssemblies
 90
        0
280
     0
281
     0
  0
CLASS
  1
ACAMCONTEXTMODELER
  2
AcAmContextModeler
  3
DesignerAssemblies
 90
        0
280
     0
281
     0
  0
CLASS
  1
CATALOGSTATE
  2
AcAmCatalogState
  3
DesignerAssemblies
 90
        0
280
     0
281
     0
  0
CLASS
  1
ACAMGRCOMPDEFSET
  2
AcAmGrCompDefSet
  3
DesignerAssemblies
 90
        0
280
     0
281
     0
  0
CLASS
  1
AMDTBROWSERDBTAB
  2
AmdtBrowserDbTab
  3
McadcomServices
 90
        0
280
     0
281
     0
  0
CLASS
  1
CBROWSERAPPOBJECT
  2
CBrowserAppObject
  3
McadcomServices
 90
        0
280
     0
281
     0
  0
CLASS
  1
DM_PLACEHOLDER
  2
AcDmSelsetPlaceholder
  3
AcMechDwgViewMgmt
 90
        0
280
     0
281
     0
  0
CLASS
  1
ACMPICKOBJ
  2
AcmPickEnt
  3
"AcmSymBB|Product Description: AutoCAD Mechanical|Company: Autodesk"
 90
    32768
280
     0
281
     1
  0
CLASS
  1
ACMNOTESTANDARDISO
  2
AmdtNoteStdISO
  3
"Amdt_StdImp|Product Description: AutoCAD Mechanical|Company: Autodesk"
 90
        0
280
     0
281
     0
  0
CLASS
  1
ACMNOTESTANDARDANSI
  2
AmdtNoteStdANSI
  3
"Amdt_StdImp|Product Description: AutoCAD Mechanical|Company: Autodesk"
 90
        0
280
     0
281
     0
  0
CLASS
  1
ACMTHREADLINESTANDARDISO
  2
AmdtThreadLineStdISO
  3
"Amdt_StdImp|Product Description: AutoCAD Mechanical|Company: Autodesk"
 90
        0
280
     0
281
     0
  0
CLASS
  1
ACMTHREADLINESTANDARDANSI
  2
AmdtThreadLineStdANSI
  3
"Amdt_StdImp|Product Description: AutoCAD Mechanical|Company: Autodesk"
 90
        0
280
     0
281
     0
  0
CLASS
  1
TABLESTYLE
  2
AcDbTableStyle
  3
ObjectDBX Classes
 90
     4095
280
     0
281
     0
  0
CLASS
  1
SORTENTSTABLE
  2
AcDbSortentsTable
  3
ObjectDBX Classes
 90
        0
280
     0
281
     0
  0
CLASS
  1
MATERIAL
  2
AcDbMaterial
  3
ObjectDBX Classes
 90
     1024
280
     0
281
     0
  0
CLASS
  1
VISUALSTYLE
  2
AcDbVisualStyle
  3
ObjectDBX Classes
 90
     4095
280
     0
281
     0
  0
CLASS
  1
ACRFATTGENMGR
  2
AcRfAttGeneralMgr
  3
AcAttribServices
 90
        0
280
     0
281
     0
  0
CLASS
  1
ACRFOBJATTMGR
  2
AcRfObjAttGroupMgr
  3
AcAttribServices
 90
        0
280
     0
281
     0
  0
CLASS
  1
ACRFMCADAPIATTHOLDER
  2
AcRfMCADAPIAttHolder
  3
AcAttribServices
 90
        0
280
     0
281
     0
  0
CLASS
  1
AMDTSYSATTR
  2
AmdtSystemAttribute
  3
AcAttribServices
 90
        0
280
     0
281
     0
  0
CLASS
  1
ACMTAPERSTANDARDISO
  2
AcmTaperStdISO
  3
"Amdt_StdImp|Product Description: AutoCAD Mechanical|Company: Autodesk"
 90
        0
280
     0
281
     0
  0
CLASS
  1
CAMSSTRUCTBTNSTATE
  2
StructBtnState
  3
L"DesignerAssemblies"
 90
        0
280
     0
281
     0
  0
CLASS
  1
DIMASSOC
  2
AcDbDimAssoc
  3
"AcDbDimAssoc|Product Desc:     AcDim ARX App For Dimension|Company:          Autodesk, Inc.|WEB Address:      www.autodesk.com"
 90
    32768
280
     0
281
     0
  0
CLASS
  1
AMDTNOTETEMPLATEDB
  2
AmdtNoteTemplateDB
  3
AMDT_STDIMP_MODULE_NAME
 90
        0
280
     0
281
     0
  0
CLASS
  1
ACMTAPERSTANDARDANSI
  2
AcmTaperStdANSI
  3
"Amdt_StdImp|Product Description: AutoCAD Mechanical|Company: Autodesk"
 90
        0
280
     0
281
     0
  0
CLASS
  1
ACAMGHOLECHARTSTDANSI
  2
AcAmgHoleChartStdANSI
  3
ACMSYMBB_MODULE_NAME
 90
        0
280
     0
281
     0
  0
ENDSEC
  0
SECTION
  2
TABLES
  0
TABLE
  2
VPORT
  5
8
330
0
100
AcDbSymbolTable
 70
     1
  0
VPORT
  5
B0EC
330
8
100
AcDbSymbolTableRecord
100
AcDbViewportTableRecord
  2
*Active
 70
     0
 10
0.0
 20
0.0
 11
1.0
 21
1.0
 12
198.9450237610159
 22
132.9967413782505
 13
0.0
 23
0.0
 14
2.5
 24
2.5
 15
10.0
 25
10.0
 16
0.0
 26
0.0
 36
1.0
 17
0.0
 27
0.0
 37
0.0
 40
329.0345432174677
 41
1.285867237687366
 42
50.0
 43
-1370.695619172058
 44
-1370.695619172058
 50
0.0
 51
0.0
 71
    16
 72
   100
 73
     1
 74
     3
 75
     0
 76
     0
 77
     0
 78
     0
281
     0
 65
     0
110
0.0
120
0.0
130
0.0
111
1.0
121
0.0
131
0.0
112
0.0
122
1.0
132
0.0
 79
     0
146
0.0
  0
ENDTAB
  0
TABLE
  2
LTYPE
  5
5
330
0
100
AcDbSymbolTable
 70
    35
  0
LTYPE
  5
14
330
5
100
AcDbSymbolTableRecord
100
AcDbLinetypeTableRecord
  2
ByBlock
 70
     0
  3

 72
    65
 73
     0
 40
0.0
  0
LTYPE
  5
15
330
5
100
AcDbSymbolTableRecord
100
AcDbLinetypeTableRecord
  2
ByLayer
 70
     0
  3

 72
    65
 73
     0
 40
0.0
  0
LTYPE
  5
16
330
5
100
AcDbSymbolTableRecord
100
AcDbLinetypeTableRecord
  2
Continuous
 70
     0
  3
Solid line
 72
    65
 73
     0
 40
0.0
  0
LTYPE
  5
4F
330
5
100
AcDbSymbolTableRecord
100
AcDbLinetypeTableRecord
  2
AM_ISO02W050
 70
     0
  3
__ __ __ __ __ __ __ __ __ __ __ __ __ __ __
 72
    65
 73
     2
 40
7.5
 49
6.0
 74
     0
 49
-1.5
 74
     0
  0
LTYPE
  5
52
330
5
100
AcDbSymbolTableRecord
100
AcDbLinetypeTableRecord
  2
Amconstr
 70
     0
  3
_______________________
 72
    65
 73
     2
 40
9999.0
 49
9999.0
 74
     0
 49
0.0
 74
     0
  0
LTYPE
  5
64
330
5
100
AcDbSymbolTableRecord
100
AcDbLinetypeTableRecord
  2
ACISOWELD
 70
     0
  3
_ _ _ _ _
 72
    65
 73
     2
 40
2.0
 49
2.0
 74
     0
 49
-1.0
 74
     0
  0
LTYPE
  5
65
330
5
100
AcDbSymbolTableRecord
100
AcDbLinetypeTableRecord
  2
ACISOTGB
 70
     0
  3
__ . . __ . .
 72
    65
 73
     6
 40
9.0
 49
4.0
 74
     0
 49
-1.0
 74
     0
 49
1.0
 74
     0
 49
-1.0
 74
     0
 49
1.0
 74
     0
 49
-1.0
 74
     0
  0
LTYPE
  5
66
330
5
100
AcDbSymbolTableRecord
100
AcDbLinetypeTableRecord
  2
ACISOTGL
 70
     0
  3
_ _ _ _ _
 72
    65
 73
     2
 40
3.0
 49
2.0
 74
     0
 49
-1.0
 74
     0
  0
LTYPE
  5
69
330
5
100
AcDbSymbolTableRecord
100
AcDbLinetypeTableRecord
  2
CENTER
 70
     0
  3
__ . __
 72
    65
 73
     4
 40
7.0
 49
4.0
 74
     0
 49
-1.0
 74
     0
 49
1.0
 74
     0
 49
-1.0
 74
     0
  0
LTYPE
  5
A6E
330
5
100
AcDbSymbolTableRecord
100
AcDbLinetypeTableRecord
  2
PHANTOM2
 70
     0
  3
Phantom (.5x) ___ _ _ ___ _ _ ___ _ _ ___ _ _
 72
    65
 73
     6
 40
31.75
 49
15.875
 74
     0
 49
-3.174999999999999
 74
     0
 49
3.174999999999999
 74
     0
 49
-3.174999999999999
 74
     0
 49
3.174999999999999
 74
     0
 49
-3.174999999999999
 74
     0
  0
LTYPE
  5
4DED
330
5
100
AcDbSymbolTableRecord
100
AcDbLinetypeTableRecord
  2
中線
 70
     0
  3
___________________
 72
    65
 73
     2
 40
2.0
 49
1.0
 74
     0
 49
1.0
 74
     0
  0
LTYPE
  5
4DF6
330
5
100
AcDbSymbolTableRecord
100
AcDbLinetypeTableRecord
  2
細線
 70
     0
  3
___________________
 72
    65
 73
     2
 40
2.0
 49
1.0
 74
     0
 49
1.0
 74
     0
  0
LTYPE
  5
4DF7
330
5
100
AcDbSymbolTableRecord
100
AcDbLinetypeTableRecord
  2
太線
 70
     0
  3
___________________
 72
    65
 73
     2
 40
2.0
 49
1.0
 74
     0
 49
1.0
 74
     0
  0
LTYPE
  5
4EA7
330
5
100
AcDbSymbolTableRecord
100
AcDbLinetypeTableRecord
  2
文字
 70
     0
  3
_________________
 72
    65
 73
     2
 40
2.0
 49
1.0
 74
     0
 49
1.0
 74
     0
  0
LTYPE
  5
4EA9
330
5
100
AcDbSymbolTableRecord
100
AcDbLinetypeTableRecord
  2
寸法線
 70
     0
  3
________________
 72
    65
 73
     2
 40
2.0
 49
1.0
 74
     0
 49
1.0
 74
     0
  0
LTYPE
  5
4F12
330
5
100
AcDbSymbolTableRecord
100
AcDbLinetypeTableRecord
  2
ハッチング
 70
     0
  3
_________________
 72
    65
 73
     2
 40
2.0
 49
1.0
 74
     0
 49
1.0
 74
     0
  0
LTYPE
  5
5180
330
5
100
AcDbSymbolTableRecord
100
AcDbLinetypeTableRecord
  2
陰線1
 70
     0
  3
__ __ __ __
 72
    65
 73
     2
 40
4.0
 49
2.2
 74
     0
 49
-1.8
 74
     0
  0
LTYPE
  5
5182
330
5
100
AcDbSymbolTableRecord
100
AcDbLinetypeTableRecord
  2
切断線
 70
     0
  3
/\/-/\/-/\/-/\/-/\/-/\/
 72
    65
 73
     2
 40
11.0001
 49
0.0001
 74
     4
 75
   135
340
56
 46
0.04
 50
0.0
 44
0.0
 45
0.0
 49
-11.0
 74
     0
  0
LTYPE
  5
5183
330
5
100
AcDbSymbolTableRecord
100
AcDbLinetypeTableRecord
  2
想像線1
 70
     0
  3
__ __ __ _____ __ __ ____
 72
    65
 73
     6
 40
14.5
 49
6.0
 74
     0
 49
-1.5
 74
     0
 49
2.0
 74
     0
 49
-1.5
 74
     0
 49
2.0
 74
     0
 49
-1.5
 74
     0
  0
LTYPE
  5
5185
330
5
100
AcDbSymbolTableRecord
100
AcDbLinetypeTableRecord
  2
中心線1
 70
     0
  3
___ _ ___ _ ___
 72
    65
 73
     4
 40
18.0
 49
12.0
 74
     0
 49
-2.0
 74
     0
 49
2.0
 74
     0
 49
-2.0
 74
     0
  0
LTYPE
  5
5188
330
5
100
AcDbSymbolTableRecord
100
AcDbLinetypeTableRecord
  2
補助線
 70
     0
  3
______________
 72
    65
 73
     2
 40
2.0
 49
1.0
 74
     0
 49
1.0
 74
     0
  0
LTYPE
  5
6427
330
5
100
AcDbSymbolTableRecord
100
AcDbLinetypeTableRecord
  2
HIDDEN
 70
     0
  3
Hidden __ __ __ __ __ __ __ __ __ __ __ __ __ _
 72
    65
 73
     2
 40
0.375
 49
0.25
 74
     0
 49
-0.125
 74
     0
  0
LTYPE
  5
AC81
330
5
100
AcDbSymbolTableRecord
100
AcDbLinetypeTableRecord
  2
破断線
 70
     0
  3
/\/-/\/-/\/-/\/-/\/-/\/
 72
    65
 73
     2
 40
0.4401
 49
0.0001
 74
     4
 75
   136
340
AC80
 46
0.0016
 50
0.0
 44
0.0
 45
0.0
 49
-0.4400000000000001
 74
     0
  0
LTYPE
  5
AC9E
330
5
100
AcDbSymbolTableRecord
100
AcDbLinetypeTableRecord
  2
Amzigzag
 70
     0
  3
/\/-/\/-/\/-/\/-/\/-/\/
 72
    65
 73
     2
 40
11.0001
 49
0.0001
 74
     4
 75
   135
340
56
 46
0.04
 50
0.0
 44
0.0
 45
0.0
 49
-11.0
 74
     0
  0
LTYPE
  5
AF0F
330
5
100
AcDbSymbolTableRecord
100
AcDbLinetypeTableRecord
  2
genzigzag
 70
     0
  3
/\/-/\/-/\/-/\/-/\/-/\/
 72
    65
 73
     2
 40
12.0001
 49
0.0001
 74
     4
 75
   135
340
AC80
 46
2.0
 50
0.0
 44
0.0
 45
0.0
 49
-12.0
 74
     0
  0
LTYPE
  5
AF95
330
5
100
AcDbSymbolTableRecord
100
AcDbLinetypeTableRecord
  2
AM_ISO08W050
 70
     0
  3
____ . ____ . ____ . ____ . ____ . ____ . ____
 72
    65
 73
     4
 40
18.0
 49
12.0
 74
     0
 49
-1.5
 74
     0
 49
3.0
 74
     0
 49
-1.5
 74
     0
  0
LTYPE
  5
AF96
330
5
100
AcDbSymbolTableRecord
100
AcDbLinetypeTableRecord
  2
AM_ISO09W050
 70
     0
  3
_____ . . _____ . . _____ . . ____ .. ____
 72
    65
 73
     6
 40
22.5
 49
12.0
 74
     0
 49
-1.5
 74
     0
 49
3.0
 74
     0
 49
-1.5
 74
     0
 49
3.0
 74
     0
 49
-1.5
 74
     0
  0
LTYPE
  5
AF97
330
5
100
AcDbSymbolTableRecord
100
AcDbLinetypeTableRecord
  2
AM_ISO08W050x2
 70
     0
  3
__ . __ . __ . __ . __ . __
 72
    65
 73
     4
 40
9.0
 49
6.0
 74
     0
 49
-0.75
 74
     0
 49
1.5
 74
     0
 49
-0.75
 74
     0
  0
LTYPE
  5
AF98
330
5
100
AcDbSymbolTableRecord
100
AcDbLinetypeTableRecord
  2
AM_ISO02W050x2
 70
     0
  3
 _ _ _ _ _ _ _ _ _ _ _ _
 72
    65
 73
     2
 40
3.75
 49
3.0
 74
     0
 49
-0.75
 74
     0
  0
LTYPE
  5
B61A
330
5
100
AcDbSymbolTableRecord
100
AcDbLinetypeTableRecord
  2
DASHED
 70
     0
  3
__ __ __ __ __ __ __ __ __ __ __ __ __ __ __
 72
    65
 73
     2
 40
3.5
 49
2.0
 74
     0
 49
-1.5
 74
     0
  0
LTYPE
  5
B61B
330
5
100
AcDbSymbolTableRecord
100
AcDbLinetypeTableRecord
  2
CENTER2
 70
     0
  3
Center (.5x) ___ _ ___ _ ___ _ ___ _ ___ _ ___
 72
    65
 73
     4
 40
1.125
 49
0.75
 74
     0
 49
-0.125
 74
     0
 49
0.125
 74
     0
 49
-0.125
 74
     0
  0
LTYPE
  5
B61C
330
5
100
AcDbSymbolTableRecord
100
AcDbLinetypeTableRecord
  2
HIDDEN2
 70
     0
  3
Hidden (.5x) _ _ _ _ _ _ _ _ _ _ _ _ _ _ _ _ _
 72
    65
 73
     2
 40
0.1875
 49
0.125
 74
     0
 49
-0.0625
 74
     0
  0
LTYPE
  5
B61D
330
5
100
AcDbSymbolTableRecord
100
AcDbLinetypeTableRecord
  2
Amzigzag2
 70
     0
  3
/\/-/\/-/\/-/\/-/\/-/\/
 72
    65
 73
     2
 40
0.4401
 49
0.0001
 74
     4
 75
   136
340
AC80
 46
0.0016
 50
0.0
 44
0.0
 45
0.0
 49
-0.4400000000000001
 74
     0
  0
LTYPE
  5
B61E
330
5
100
AcDbSymbolTableRecord
100
AcDbLinetypeTableRecord
  2
ACANSTGB
 70
     0
  3
__ . . __ . .
 72
    65
 73
     6
 40
0.35433070866
 49
0.15748031496
 74
     0
 49
-0.03937007874
 74
     0
 49
0.03937007874
 74
     0
 49
-0.03937007874
 74
     0
 49
0.03937007874
 74
     0
 49
-0.03937007874
 74
     0
  0
LTYPE
  5
B61F
330
5
100
AcDbSymbolTableRecord
100
AcDbLinetypeTableRecord
  2
ACANSTGL
 70
     0
  3
_ _ _ _ _
 72
    65
 73
     2
 40
0.11811023622
 49
0.07874015748
 74
     0
 49
-0.03937007874
 74
     0
  0
LTYPE
  5
BE03
330
5
100
AcDbSymbolTableRecord
100
AcDbLinetypeTableRecord
  2
CENTER1
 70
     0
  3
----- - ----- - ----- - ----- - 
 72
    65
 73
     4
 40
10.0
 49
6.25
 74
     0
 49
-1.25
 74
     0
 49
1.25
 74
     0
 49
-1.25
 74
     0
  0
LTYPE
  5
BE04
330
5
100
AcDbSymbolTableRecord
100
AcDbLinetypeTableRecord
  2
DASHDOT
 70
     0
  3
--------        -        -------
 72
    65
 73
     4
 40
25.41
 49
12.7
 74
     0
 49
-6.349999999999998
 74
     0
 49
0.01
 74
     0
 49
-6.349999999999998
 74
     0
  0
ENDTAB
  0
TABLE
  2
LAYER
  5
2
102
{ACAD_XDICTIONARY
360
3F95
102
}
330
0
100
AcDbSymbolTable
 70
    25
  0
LAYER
  5
10
330
2
100
AcDbSymbolTableRecord
100
AcDbLayerTableRecord
  2
0
 70
     0
 62
     7
  6
Continuous
370
    -3
390
F
  0
LAYER
  5
6D1
330
2
100
AcDbSymbolTableRecord
100
AcDbLayerTableRecord
  2
Defpoints
 70
     0
 62
     7
  6
Continuous
290
     0
370
    -3
390
F
  0
LAYER
  5
5F85
330
2
100
AcDbSymbolTableRecord
100
AcDbLayerTableRecord
  2
AM_0
 70
     0
 62
     7
  6
中線
370
    30
390
F
1001
AcAecLayerStandard
1000

1000

  0
LAYER
  5
AC9F
330
2
100
AcDbSymbolTableRecord
100
AcDbLayerTableRecord
  2
size
 70
     0
 62
     5
  6
Continuous
290
     0
370
    25
390
F
  0
LAYER
  5
ACA0
330
2
100
AcDbSymbolTableRecord
100
AcDbLayerTableRecord
  2
waku
 70
     0
 62
     7
  6
Continuous
370
    35
390
F
  0
LAYER
  5
ACA1
330
2
100
AcDbSymbolTableRecord
100
AcDbLayerTableRecord
  2
AM_6
 70
     0
 62
     2
  6
文字
370
    13
390
F
1001
AcAecLayerStandard
1000

1000

  0
LAYER
  5
ACC8
330
2
100
AcDbSymbolTableRecord
100
AcDbLayerTableRecord
  2
hyomoji
 70
     0
 62
     2
  6
Continuous
370
    13
390
F
  0
LAYER
  5
ACC9
330
2
100
AcDbSymbolTableRecord
100
AcDbLayerTableRecord
  2
hyosen1
 70
     0
 62
     1
  6
Continuous
370
    25
390
F
  0
LAYER
  5
ACCA
330
2
100
AcDbSymbolTableRecord
100
AcDbLayerTableRecord
  2
hyosen2
 70
     0
 62
     1
  6
Continuous
370
    13
390
F
  0
LAYER
  5
AD60
330
2
100
AcDbSymbolTableRecord
100
AcDbLayerTableRecord
  2
AM_1
 70
     0
 62
    30
  6
太線
370
    40
390
F
1001
AcAecLayerStandard
1000

1000

  0
LAYER
  5
AD64
330
2
100
AcDbSymbolTableRecord
100
AcDbLayerTableRecord
  2
AM_2
 70
     0
 62
     1
  6
細線
370
    13
390
F
1001
AcAecLayerStandard
1000

1000

  0
LAYER
  5
AD67
330
2
100
AcDbSymbolTableRecord
100
AcDbLayerTableRecord
  2
AM_3
 70
     0
 62
     6
  6
陰線1
370
    13
390
F
1001
AcAecLayerStandard
1000

1000

  0
LAYER
  5
AD68
330
2
100
AcDbSymbolTableRecord
100
AcDbLayerTableRecord
  2
AM_5
 70
     0
 62
     3
  6
寸法線
370
    13
390
F
1001
AcAecLayerStandard
1000

1000

  0
LAYER
  5
AD69
330
2
100
AcDbSymbolTableRecord
100
AcDbLayerTableRecord
  2
AM_7
 70
     0
 62
     4
  6
中心線1
370
    13
390
F
1001
AcAecLayerStandard
1000

1000

  0
LAYER
  5
AD6A
330
2
100
AcDbSymbolTableRecord
100
AcDbLayerTableRecord
  2
AM_8
 70
     0
 62
     1
  6
ハッチング
370
    13
390
F
1001
AcAecLayerStandard
1000

1000

  0
LAYER
  5
AD6E
330
2
100
AcDbSymbolTableRecord
100
AcDbLayerTableRecord
  2
AM_10
 70
     0
 62
     7
  6
切断線
370
    13
390
F
1001
AcAecLayerStandard
1000

1000

  0
LAYER
  5
AD6F
330
2
100
AcDbSymbolTableRecord
100
AcDbLayerTableRecord
  2
AM_11
 70
     0
 62
     2
  6
想像線1
370
    13
390
F
1001
AcAecLayerStandard
1000

1000

  0
LAYER
  5
B1B6
330
2
100
AcDbSymbolTableRecord
100
AcDbLayerTableRecord
  2
AM_CL
 70
     0
 62
     1
  6
Amconstr
370
    15
390
F
1001
AcAecLayerStandard
1000

1000

  0
LAYER
  5
B2EB
330
2
100
AcDbSymbolTableRecord
100
AcDbLayerTableRecord
  2
AM_14
 70
     0
 62
     5
  6
細線
370
     9
390
F
1001
AcAecLayerStandard
1000

1000

  0
LAYER
  5
B2EC
330
2
100
AcDbSymbolTableRecord
100
AcDbLayerTableRecord
  2
AM_15
 70
     0
 62
     6
  6
陰線1
370
     9
390
F
1001
AcAecLayerStandard
1000

1000

  0
LAYER
  5
BE05
330
2
100
AcDbSymbolTableRecord
100
AcDbLayerTableRecord
  2
_0-0_0
 70
     0
 62
     7
  6
Continuous
370
    -3
390
F
  0
LAYER
  5
BE06
330
2
100
AcDbSymbolTableRecord
100
AcDbLayerTableRecord
  2
_0-6_006部品
 70
     0
 62
     7
  6
Continuous
370
    -3
390
F
  0
LAYER
  5
BE07
330
2
100
AcDbSymbolTableRecord
100
AcDbLayerTableRecord
  2
_0-7_007その他
 70
     0
 62
     7
  6
Continuous
370
    -3
390
F
  0
LAYER
  5
BE08
330
2
100
AcDbSymbolTableRecord
100
AcDbLayerTableRecord
  2
_0-9_OTHERS_USER
 70
     0
 62
     7
  6
Continuous
370
    -3
390
F
  0
LAYER
  5
BE09
330
2
100
AcDbSymbolTableRecord
100
AcDbLayerTableRecord
  2
_0-A_010扉
 70
     0
 62
     7
  6
Continuous
370
    -3
390
F
  0
ENDTAB
  0
TABLE
  2
STYLE
  5
3
330
0
100
AcDbSymbolTable
 70
     9
  0
STYLE
  5
11
330
3
100
AcDbSymbolTableRecord
100
AcDbTextStyleTableRecord
  2
STANDARD
 70
     0
 40
0.0
 41
0.7
 50
0.0
 71
     0
 42
3.2
  3
romans.shx
  4
extfont.shx
  0
STYLE
  5
56
330
3
100
AcDbSymbolTableRecord
100
AcDbTextStyleTableRecord
  2

 70
     1
 40
0.0
 41
1.0
 50
0.0
 71
     0
 42
2.5
  3
ltypeshp.shx
  4

  0
STYLE
  5
58
330
3
100
AcDbSymbolTableRecord
100
AcDbTextStyleTableRecord
  2
ACISOTS
 70
     0
 40
1.0
 41
1.0
 50
0.0
 71
     0
 42
2.5
  3
isocp.shx
  4
extfont.shx
  0
STYLE
  5
63
330
3
100
AcDbSymbolTableRecord
100
AcDbTextStyleTableRecord
  2
ACISOGDT
 70
     0
 40
0.0
 41
1.0
 50
0.0
 71
     0
 42
2.5
  3
amgdt.shx
  4

  0
STYLE
  5
A74
330
3
100
AcDbSymbolTableRecord
100
AcDbTextStyleTableRecord
  2
DIM
 70
     0
 40
0.0
 41
1.0
 50
0.0
 71
     0
 42
2.5
  3
monotxt.shx
  4
extfont.shx
  0
STYLE
  5
AC80
330
3
100
AcDbSymbolTableRecord
100
AcDbTextStyleTableRecord
  2

 70
     1
 40
0.0
 41
1.0
 50
0.0
 71
     0
 42
3.2
  3
genltshp.shx
  4

  0
STYLE
  5
B620
330
3
100
AcDbSymbolTableRecord
100
AcDbTextStyleTableRecord
  2
ACANSTS
 70
     0
 40
1.0
 41
1.0
 50
0.0
 71
     0
 42
3.2
  3
romans.shx
  4
extfont.shx
  0
STYLE
  5
B621
330
3
100
AcDbSymbolTableRecord
100
AcDbTextStyleTableRecord
  2
ACANSGDT
 70
     0
 40
0.0
 41
1.0
 50
0.0
 71
     0
 42
3.2
  3
amgdt.shx
  4

  0
ENDTAB
  0
TABLE
  2
VIEW
  5
6
330
0
100
AcDbSymbolTable
 70
     6
  0
VIEW
  5
AE1
330
6
100
AcDbSymbolTableRecord
100
AcDbViewTableRecord
  2
AM_VIEW1
 70
     0
 40
129.7276464542651
 10
1775.10588156276
 20
1793.121228859297
 41
148.5
 11
0.0
 21
0.0
 31
1.0
 12
0.0
 22
0.0
 32
0.0
 42
50.0
 43
-1370.695619172058
 44
-1370.695619172058
 50
0.0
 71
    16
281
     0
 72
     0
  0
VIEW
  5
AE2
330
6
100
AcDbSymbolTableRecord
100
AcDbViewTableRecord
  2
AM_VIEW2
 70
     0
 40
129.7276464542651
 10
1923.60588156276
 20
1793.121228859297
 41
148.5
 11
0.0
 21
0.0
 31
1.0
 12
0.0
 22
0.0
 32
0.0
 42
50.0
 43
-1370.695619172058
 44
-1370.695619172058
 50
0.0
 71
    16
281
     0
 72
     0
  0
VIEW
  5
AE3
330
6
100
AcDbSymbolTableRecord
100
AcDbViewTableRecord
  2
AM_VIEW3
 70
     0
 40
129.7276464542651
 10
1775.10588156276
 20
1712.848875313562
 41
148.5
 11
0.0
 21
0.0
 31
1.0
 12
0.0
 22
0.0
 32
0.0
 42
50.0
 43
-1370.695619172058
 44
-1370.695619172058
 50
0.0
 71
    16
281
     0
 72
     0
  0
VIEW
  5
AE4
330
6
100
AcDbSymbolTableRecord
100
AcDbViewTableRecord
  2
AM_VIEW4
 70
     0
 40
129.7276464542651
 10
1923.60588156276
 20
1712.848875313562
 41
148.5
 11
0.0
 21
0.0
 31
1.0
 12
0.0
 22
0.0
 32
0.0
 42
50.0
 43
-1370.695619172058
 44
-1370.695619172058
 50
0.0
 71
    16
281
     0
 72
     0
  0
VIEW
  5
AE5
330
6
100
AcDbSymbolTableRecord
100
AcDbViewTableRecord
  2
AM_VIEW5
 70
     0
 40
129.7276464542651
 10
1849.35588156276
 20
1752.985052086429
 41
148.5
 11
0.0
 21
0.0
 31
1.0
 12
0.0
 22
0.0
 32
0.0
 42
50.0
 43
-1370.695619172058
 44
-1370.695619172058
 50
0.0
 71
    16
281
     0
 72
     0
  0
VIEW
  5
AE6
330
6
100
AcDbSymbolTableRecord
100
AcDbViewTableRecord
  2
AM_VIEW6
 70
     0
 40
259.4526983556011
 10
1849.35588156276
 20
1752.985052086429
 41
296.99703
 11
0.0
 21
0.0
 31
1.0
 12
0.0
 22
0.0
 32
0.0
 42
50.0
 43
-1370.695619172058
 44
-1370.695619172058
 50
0.0
 71
    16
281
     0
 72
     0
  0
ENDTAB
  0
TABLE
  2
UCS
  5
7
330
0
100
AcDbSymbolTable
 70
     0
  0
ENDTAB
  0
TABLE
  2
APPID
  5
9
330
0
100
AcDbSymbolTable
 70
    55
  0
APPID
  5
12
330
9
100
AcDbSymbolTableRecord
100
AcDbRegAppTableRecord
  2
ACAD
 70
     0
  0
APPID
  5
30
330
9
100
AcDbSymbolTableRecord
100
AcDbRegAppTableRecord
  2
MCAD_NO_VIS
 70
     0
  0
APPID
  5
31
330
9
100
AcDbSymbolTableRecord
100
AcDbRegAppTableRecord
  2
ACAD_TEMP_GRAPHIC
 70
     0
  0
APPID
  5
44
330
9
100
AcDbSymbolTableRecord
100
AcDbRegAppTableRecord
  2
ACATTRIBSERVICES
 70
     0
  0
APPID
  5
7A1
330
9
100
AcDbSymbolTableRecord
100
AcDbRegAppTableRecord
  2
GENIUS_GENDIMSH_14
 70
     0
  0
APPID
  5
A49
330
9
100
AcDbSymbolTableRecord
100
AcDbRegAppTableRecord
  2
GENIUS_GENREC_14
 70
     0
  0
APPID
  5
A4A
330
9
100
AcDbSymbolTableRecord
100
AcDbRegAppTableRecord
  2
GENIUS_GENOBJ-N-REC_13
 70
     0
  0
APPID
  5
A4B
330
9
100
AcDbSymbolTableRecord
100
AcDbRegAppTableRecord
  2
GENIUS_GENODEF_13
 70
     0
  0
APPID
  5
A4C
330
9
100
AcDbSymbolTableRecord
100
AcDbRegAppTableRecord
  2
DCO15
 70
     0
  0
APPID
  5
ADC
330
9
100
AcDbSymbolTableRecord
100
AcDbRegAppTableRecord
  2
GENIUS_GENOLIS_13
 70
     0
  0
APPID
  5
ADD
330
9
100
AcDbSymbolTableRecord
100
AcDbRegAppTableRecord
  2
GENIUS_GENOENT_13
 70
     0
  0
APPID
  5
ADE
330
9
100
AcDbSymbolTableRecord
100
AcDbRegAppTableRecord
  2
GENIUS_GENOBJ-N-TIT_13
 70
     0
  0
APPID
  5
ADF
330
9
100
AcDbSymbolTableRecord
100
AcDbRegAppTableRecord
  2
GENIUS_GENTITLE_13
 70
     0
  0
APPID
  5
AE0
330
9
100
AcDbSymbolTableRecord
100
AcDbRegAppTableRecord
  2
GENIUS_GENOREF_13
 70
     0
  0
APPID
  5
AE7
330
9
100
AcDbSymbolTableRecord
100
AcDbRegAppTableRecord
  2
GENIUS_GENSCREG_15
 70
     0
  0
APPID
  5
AE8
330
9
100
AcDbSymbolTableRecord
100
AcDbRegAppTableRecord
  2
GENIUS_GENOBJ-N-SDF_13
 70
     0
  0
APPID
  5
FAF
330
9
100
AcDbSymbolTableRecord
100
AcDbRegAppTableRecord
  2
GENIUS_GENBLLY_14
 70
     0
  0
APPID
  5
FB0
330
9
100
AcDbSymbolTableRecord
100
AcDbRegAppTableRecord
  2
GENIUS_GENTRA_14
 70
     0
  0
APPID
  5
1285
330
9
100
AcDbSymbolTableRecord
100
AcDbRegAppTableRecord
  2
GENIUS_GENDTOL_13
 70
     0
  0
APPID
  5
142D
330
9
100
AcDbSymbolTableRecord
100
AcDbRegAppTableRecord
  2
GENIUS_GENOBJ-N-CEN_13
 70
     0
  0
APPID
  5
1AB5
330
9
100
AcDbSymbolTableRecord
100
AcDbRegAppTableRecord
  2
GENIUS_GENOBJ-N-CRS_13
 70
     0
  0
APPID
  5
1B36
330
9
100
AcDbSymbolTableRecord
100
AcDbRegAppTableRecord
  2
GENIUS_GENOBJ-N-HTC_13
 70
     0
  0
APPID
  5
1B37
330
9
100
AcDbSymbolTableRecord
100
AcDbRegAppTableRecord
  2
GENIUS_GENHATCH_13
 70
     0
  0
APPID
  5
216D
330
9
100
AcDbSymbolTableRecord
100
AcDbRegAppTableRecord
  2
GENIUS_GENOBJ-N-FIL_13
 70
     0
  0
APPID
  5
2356
330
9
100
AcDbSymbolTableRecord
100
AcDbRegAppTableRecord
  2
GEVID990412420
 70
     0
  0
APPID
  5
2357
330
9
100
AcDbSymbolTableRecord
100
AcDbRegAppTableRecord
  2
GEVDC
 70
     0
  0
APPID
  5
2358
330
9
100
AcDbSymbolTableRecord
100
AcDbRegAppTableRecord
  2
GEVCON
 70
     0
  0
APPID
  5
235B
330
9
100
AcDbSymbolTableRecord
100
AcDbRegAppTableRecord
  2
GEVRADREF
 70
     0
  0
APPID
  5
2360
330
9
100
AcDbSymbolTableRecord
100
AcDbRegAppTableRecord
  2
GENIUS_GENBH_13
 70
     0
  0
APPID
  5
2362
330
9
100
AcDbSymbolTableRecord
100
AcDbRegAppTableRecord
  2
GENIUS_GENOBJ-NBEHI-BHF_13
 70
     0
  0
APPID
  5
2364
330
9
100
AcDbSymbolTableRecord
100
AcDbRegAppTableRecord
  2
GENIUS_GENOBJ-NBEHI-BHB_13
 70
     0
  0
APPID
  5
2379
330
9
100
AcDbSymbolTableRecord
100
AcDbRegAppTableRecord
  2
GENIUS_GENOBJ-F-SCPASSM_13
 70
     0
  0
APPID
  5
3D74
330
9
100
AcDbSymbolTableRecord
100
AcDbRegAppTableRecord
  2
GENIUS_GENDIM_13
 70
     0
  0
APPID
  5
3D76
330
9
100
AcDbSymbolTableRecord
100
AcDbRegAppTableRecord
  2
GENIUS_GE3DTOL_13
 70
     0
  0
APPID
  5
3D9C
330
9
100
AcDbSymbolTableRecord
100
AcDbRegAppTableRecord
  2
AD_DRAW
 70
     0
  0
APPID
  5
3DE8
330
9
100
AcDbSymbolTableRecord
100
AcDbRegAppTableRecord
  2
ASURF_PCURVE_APPNAME
 70
     0
  0
APPID
  5
3DED
330
9
100
AcDbSymbolTableRecord
100
AcDbRegAppTableRecord
  2
AMG_3D2D_5.0
 70
     0
  0
APPID
  5
3E1B
330
9
100
AcDbSymbolTableRecord
100
AcDbRegAppTableRecord
  2
DESIGNERASSEMBLIES
 70
     0
  0
APPID
  5
3E20
330
9
100
AcDbSymbolTableRecord
100
AcDbRegAppTableRecord
  2
ACADM_DIM_EDIT
 70
     0
  0
APPID
  5
3E21
330
9
100
AcDbSymbolTableRecord
100
AcDbRegAppTableRecord
  2
AMDT_DM_ADJ
 70
     0
  0
APPID
  5
4143
330
9
100
AcDbSymbolTableRecord
100
AcDbRegAppTableRecord
  2
GENIUS_GENFIL_13
 70
     0
  0
APPID
  5
4144
330
9
100
AcDbSymbolTableRecord
100
AcDbRegAppTableRecord
  2
GENIUS_GENOBJ-N-CHA_13
 70
     0
  0
APPID
  5
4E17
330
9
100
AcDbSymbolTableRecord
100
AcDbRegAppTableRecord
  2
GEVID1008153417
 70
     0
  0
APPID
  5
4E58
330
9
100
AcDbSymbolTableRecord
100
AcDbRegAppTableRecord
  2
GEVID1008153418
 70
     0
  0
APPID
  5
4E5E
330
9
100
AcDbSymbolTableRecord
100
AcDbRegAppTableRecord
  2
GEVID1008153419
 70
     0
  0
APPID
  5
4E64
330
9
100
AcDbSymbolTableRecord
100
AcDbRegAppTableRecord
  2
GEVID1008153420
 70
     0
  0
APPID
  5
4E75
330
9
100
AcDbSymbolTableRecord
100
AcDbRegAppTableRecord
  2
GEVID1008153421
 70
     0
  0
APPID
  5
4EB7
330
9
100
AcDbSymbolTableRecord
100
AcDbRegAppTableRecord
  2
GENIUS_AMGTXT_16
 70
     0
  0
APPID
  5
7645
330
9
100
AcDbSymbolTableRecord
100
AcDbRegAppTableRecord
  2
GENIUS_GENOBJ-N-DIM_13
 70
     0
  0
APPID
  5
AAD0
330
9
100
AcDbSymbolTableRecord
100
AcDbRegAppTableRecord
  2
ACAD_DSTYLE_DIMARC_LENGTH_SYMBOL
 70
     0
  0
APPID
  5
AAD1
330
9
100
AcDbSymbolTableRecord
100
AcDbRegAppTableRecord
  2
ACAD_DSTYLE_DIMJOGGED_JOGANGLE_SYMBOL
 70
     0
  0
APPID
  5
AAFD
330
9
100
AcDbSymbolTableRecord
100
AcDbRegAppTableRecord
  2
ACAD_PSEXT
 70
     0
  0
APPID
  5
AD61
330
9
100
AcDbSymbolTableRecord
100
AcDbRegAppTableRecord
  2
AcAecLayerStandard
 70
     0
  0
APPID
  5
AEE3
330
9
100
AcDbSymbolTableRecord
100
AcDbRegAppTableRecord
  2
ACAD_EXEMPT_FROM_CAD_STANDARDS
 70
     0
  0
APPID
  5
B1BE
330
9
100
AcDbSymbolTableRecord
100
AcDbRegAppTableRecord
  2
GENIUS_GENCEN_19
 70
     0
  0
ENDTAB
  0
TABLE
  2
DIMSTYLE
  5
A
330
0
100
AcDbSymbolTable
 70
    25
100
AcDbDimStyleTable
 71
     1
340
2515
  0
DIMSTYLE
105
A76
330
A
100
AcDbSymbolTableRecord
100
AcDbDimStyleTableRecord
  2
STANDARD
 70
     0
 41
3.0
 42
1.0
 43
7.0
 44
2.0
 73
     0
 74
     0
 77
     1
140
2.799999999999999
141
0.0
143
0.0394
147
0.7
171
     4
172
     1
173
     1
176
     3
177
     3
178
     2
271
     3
272
     3
273
     8
274
     4
289
     0
340
A74
341
A66
343
A66
344
A66
  0
DIMSTYLE
105
2515
330
A
100
AcDbSymbolTableRecord
100
AcDbDimStyleTableRecord
  2
SYS
 70
     0
  4
"
 41
1.0
 42
1.0
 43
10.0
 44
1.0
 47
0.1
 48
0.1
 73
     0
 74
     0
 77
     1
 78
     8
 79
     2
140
3.5
141
0.0
143
0.0393701
146
0.71
147
1.5
172
     1
176
   256
177
   256
178
     7
271
     2
272
     2
283
     0
284
     8
340
11
371
    -1
372
    -1
1001
ACAD_DSTYLE_DIMJOGGED_JOGANGLE_SYMBOL
1070
   384
1040
0.7853981633974483
1001
ACAD_DSTYLE_DIMARC_LENGTH_SYMBOL
1070
   379
1070
     1
  0
DIMSTYLE
105
2516
102
{ACAD_REACTORS
330
BCF1
102
}
330
A
100
AcDbSymbolTableRecord
100
AcDbDimStyleTableRecord
  2
SYS$3
 70
     0
  4
"
 41
2.0
 42
1.0
 43
10.0
 44
1.0
 47
0.1
 48
0.1
 73
     0
 77
     1
 78
     8
 79
     2
140
3.5
141
0.0
143
0.0393701
146
0.71
147
1.5
176
   256
177
   256
178
     2
271
     2
272
     2
283
     0
284
     8
288
     1
340
11
342
A66
371
    -1
372
    -1
1001
ACAD_DSTYLE_DIMJOGGED_JOGANGLE_SYMBOL
1070
   384
1040
0.7853981633974483
1001
ACAD_DSTYLE_DIMARC_LENGTH_SYMBOL
1070
   379
1070
     1
  0
DIMSTYLE
105
2517
330
A
100
AcDbSymbolTableRecord
100
AcDbDimStyleTableRecord
  2
SYS$4
 70
     0
  4
"
 41
2.0
 42
1.0
 43
10.0
 44
1.0
 47
0.1
 48
0.1
 73
     0
 77
     1
 78
     8
 79
     2
140
3.5
141
0.0
143
0.0393701
146
0.71
147
1.5
173
     1
176
   256
177
   256
178
     2
271
     2
272
     2
283
     0
284
     8
288
     1
340
11
344
A66
371
    -1
372
    -1
1001
ACAD_DSTYLE_DIMJOGGED_JOGANGLE_SYMBOL
1070
   384
1040
0.7853981633974483
1001
ACAD_DSTYLE_DIMARC_LENGTH_SYMBOL
1070
   379
1070
     1
  0
DIMSTYLE
105
2518
330
A
100
AcDbSymbolTableRecord
100
AcDbDimStyleTableRecord
  2
SYS$6
 70
     0
  4
"
 41
2.0
 42
1.0
 43
10.0
 44
1.0
 47
0.1
 48
0.1
 73
     0
 74
     0
 78
     8
 79
     2
140
3.5
141
0.0
143
0.0393701
146
0.71
147
1.5
172
     1
176
   256
177
   256
178
     2
271
     2
272
     2
283
     0
284
     8
340
11
341
A66
371
    -1
372
    -1
1001
ACAD_DSTYLE_DIMJOGGED_JOGANGLE_SYMBOL
1070
   384
1040
0.7853981633974483
1001
ACAD_DSTYLE_DIMARC_LENGTH_SYMBOL
1070
   379
1070
     1
  0
DIMSTYLE
105
2519
330
A
100
AcDbSymbolTableRecord
100
AcDbDimStyleTableRecord
  2
SYS$7
 70
     0
  4
"
 41
2.0
 42
1.0
 43
10.0
 44
1.0
 47
0.1
 48
0.1
 73
     0
 74
     0
 77
     1
 78
     8
 79
     2
140
5.0
141
0.0
143
0.0393701
146
0.71
147
1.5
172
     1
176
   256
177
   256
178
     2
271
     2
272
     2
283
     0
284
     8
340
11
341
A66
342
A66
371
    -1
372
    -1
1001
ACAD_DSTYLE_DIMJOGGED_JOGANGLE_SYMBOL
1070
   384
1040
0.7853981633974483
1001
ACAD_DSTYLE_DIMARC_LENGTH_SYMBOL
1070
   379
1070
     1
  0
DIMSTYLE
105
251A
330
A
100
AcDbSymbolTableRecord
100
AcDbDimStyleTableRecord
  2
SYS$SF
 70
     0
  4
"
 41
2.5
 42
1.0
 43
10.0
 44
1.0
 47
0.1
 48
0.1
 73
     0
 74
     0
 75
     1
 76
     1
 77
     1
 78
     8
 79
     2
140
3.5
141
0.0
143
0.0393701
146
0.71
147
1.5
172
     1
176
   256
177
   256
178
     2
271
     2
272
     3
283
     0
284
     8
340
11
341
6C4
342
6C4
371
    -1
372
    -1
1001
ACAD_DSTYLE_DIMJOGGED_JOGANGLE_SYMBOL
1070
   384
1040
0.7853981633974483
1001
ACAD_DSTYLE_DIMARC_LENGTH_SYMBOL
1070
   379
1070
     1
  0
DIMSTYLE
105
251B
330
A
100
AcDbSymbolTableRecord
100
AcDbDimStyleTableRecord
  2
SYS$SH
 70
     0
  4
"
 41
2.5
 42
1.0
 43
10.0
 44
1.0
 47
0.1
 48
0.1
 73
     0
 74
     0
 75
     1
 76
     1
 77
     1
 78
     8
 79
     2
140
3.5
141
0.0
143
0.0393701
144
2.0
146
0.71
147
1.5
172
     1
173
     1
176
   256
177
   256
178
     2
271
     2
272
     3
283
     0
284
     8
340
11
341
6C4
343
72
344
6C4
371
    -1
372
    -1
1001
ACAD_DSTYLE_DIMJOGGED_JOGANGLE_SYMBOL
1070
   384
1040
0.7853981633974483
1001
ACAD_DSTYLE_DIMARC_LENGTH_SYMBOL
1070
   379
1070
     1
  0
DIMSTYLE
105
2A59
330
A
100
AcDbSymbolTableRecord
100
AcDbDimStyleTableRecord
  2
SYS$2
 70
     0
  4
"
 41
1.0
 42
1.0
 43
10.0
 44
1.0
 47
0.1
 48
0.1
 73
     0
 74
     0
 77
     1
 78
     8
 79
     2
140
3.5
141
0.0
143
0.0393701
146
0.71
147
1.5
172
     1
176
   256
177
   256
178
     2
271
     2
272
     2
283
     0
284
     8
340
11
342
6C4
371
    -1
372
    -1
1001
ACAD_DSTYLE_DIMJOGGED_JOGANGLE_SYMBOL
1070
   384
1040
0.7853981633974483
1001
ACAD_DSTYLE_DIMARC_LENGTH_SYMBOL
1070
   379
1070
     1
  0
DIMSTYLE
105
2AAB
102
{ACAD_REACTORS
330
BB63
330
BB79
330
BB8F
330
BBA5
330
BCA8
330
BCBE
330
BD1D
330
BD35
330
BD4B
330
BD61
330
BFA7
102
}
330
A
100
AcDbSymbolTableRecord
100
AcDbDimStyleTableRecord
  2
SYS$0
 70
     0
  4
"
 41
1.0
 42
1.0
 43
10.0
 44
1.0
 47
0.1
 48
0.1
 73
     0
 74
     0
 77
     1
 78
     8
 79
     2
140
3.200000000000001
141
0.0
143
0.0393701
146
0.71
147
1.5
172
     1
176
   256
177
   256
178
     2
271
     2
272
     2
283
     0
284
     8
340
11
341
A66
342
6C4
371
    -1
372
    -1
1001
ACAD_DSTYLE_DIMJOGGED_JOGANGLE_SYMBOL
1070
   384
1040
0.7853981633974483
1001
ACAD_DSTYLE_DIMARC_LENGTH_SYMBOL
1070
   379
1070
     1
  0
DIMSTYLE
105
AF99
330
A
100
AcDbSymbolTableRecord
100
AcDbDimStyleTableRecord
  2
AM_ISO
 70
     0
  4
"
 41
2.5
 42
1.0
 43
10.0
 44
1.0
 47
0.1
 48
0.1
 73
     0
 74
     0
 77
     1
 78
     8
 79
     2
140
3.5
141
0.0
143
0.0393701
146
0.71
147
1.5
172
     1
176
   256
177
   256
178
     2
271
     2
272
     3
274
     4
283
     0
284
     8
340
11
371
    -1
372
    -1
  0
DIMSTYLE
105
AF9A
330
A
100
AcDbSymbolTableRecord
100
AcDbDimStyleTableRecord
  2
AM_ISO$3
 70
     0
  4
"
 41
2.5
 42
1.0
 43
10.0
 44
1.0
 47
0.1
 48
0.1
 73
     0
 77
     1
 78
     8
 79
     2
140
3.5
141
0.0
143
0.0393701
146
0.71
147
1.5
176
   256
177
   256
178
     2
271
     2
272
     3
274
     4
283
     0
284
     8
288
     1
289
     0
340
11
371
    -1
372
    -1
  0
DIMSTYLE
105
AF9B
330
A
100
AcDbSymbolTableRecord
100
AcDbDimStyleTableRecord
  2
AM_ISO$4
 70
     0
  4
"
 41
2.5
 42
1.0
 43
10.0
 44
1.0
 47
0.1
 48
0.1
 73
     0
 77
     1
 78
     8
 79
     2
140
3.5
141
0.0
143
0.0393701
146
0.71
147
1.5
176
   256
177
   256
178
     2
271
     2
272
     3
274
     4
283
     0
284
     8
288
     1
289
     0
340
11
371
    -1
372
    -1
  0
DIMSTYLE
105
AF9C
330
A
100
AcDbSymbolTableRecord
100
AcDbDimStyleTableRecord
  2
AM_ISO$6
 70
     0
  4
"
 41
2.5
 42
1.0
 43
10.0
 44
1.0
 47
0.1
 48
0.1
 73
     0
 74
     0
 78
     8
 79
     2
140
3.5
141
0.0
143
0.0393701
146
0.71
147
1.5
172
     1
176
   256
177
   256
178
     2
271
     2
272
     3
274
     4
283
     0
284
     8
340
11
371
    -1
372
    -1
  0
DIMSTYLE
105
AF9D
330
A
100
AcDbSymbolTableRecord
100
AcDbDimStyleTableRecord
  2
AM_ISO$7
 70
     0
  4
"
 41
2.5
 42
1.0
 43
10.0
 44
1.0
 47
0.1
 48
0.1
 73
     0
 74
     0
 77
     1
 78
     8
 79
     2
140
5.0
141
0.0
143
0.0393701
146
0.71
147
1.5
172
     1
176
   256
177
   256
178
     2
271
     2
272
     3
274
     4
283
     0
284
     8
340
11
371
    -1
372
    -1
  0
DIMSTYLE
105
AF9E
330
A
100
AcDbSymbolTableRecord
100
AcDbDimStyleTableRecord
  2
AM_ISO$SF
 70
     0
  4
"
 41
2.5
 42
1.0
 43
10.0
 44
1.0
 47
0.1
 48
0.1
 73
     0
 74
     0
 75
     1
 76
     1
 77
     1
 78
     8
 79
     2
140
3.5
141
0.0
143
0.0393701
146
0.71
147
1.5
172
     1
176
   256
177
   256
178
     2
271
     2
272
     3
274
     4
283
     0
284
     8
340
11
371
    -1
372
    -1
  0
DIMSTYLE
105
AF9F
330
A
100
AcDbSymbolTableRecord
100
AcDbDimStyleTableRecord
  2
AM_ISO$SH
 70
     0
  4
"
 41
2.5
 42
1.0
 43
10.0
 44
1.0
 47
0.1
 48
0.1
 73
     0
 74
     0
 75
     1
 76
     1
 77
     1
 78
     8
 79
     2
140
3.5
141
0.0
143
0.0393701
144
2.0
146
0.71
147
1.5
172
     1
173
     1
176
   256
177
   256
178
     2
271
     2
272
     3
274
     4
283
     0
284
     8
340
11
343
72
371
    -1
372
    -1
  0
DIMSTYLE
105
B622
330
A
100
AcDbSymbolTableRecord
100
AcDbDimStyleTableRecord
  2
DIMSTYLE
 70
     0
 41
1.0
 42
2.54
 44
2.54
 73
     0
 74
     0
140
3.2
147
1.6
173
     1
279
     2
340
11
  0
DIMSTYLE
105
B623
330
A
100
AcDbSymbolTableRecord
100
AcDbDimStyleTableRecord
  2
AM_ANSI
 70
     0
  4
mm
 41
0.1
 42
0.05
 43
0.5
 44
0.1
 47
0.1
 48
0.1
 78
     7
 79
     2
140
0.12
141
0.0
146
0.71
147
0.06
176
   256
177
   256
178
     2
274
     4
284
     7
340
11
371
    -1
372
    -1
1001
ACAD_DSTYLE_DIMARC_LENGTH_SYMBOL
1070
   379
1070
     1
  0
DIMSTYLE
105
B624
330
A
100
AcDbSymbolTableRecord
100
AcDbDimStyleTableRecord
  2
AM_ANSI$3
 70
     0
  4
mm
 41
0.1
 42
0.05
 43
0.5
 44
0.1
 47
0.1
 48
0.1
 78
     7
 79
     2
140
0.12
141
0.0
146
0.71
147
0.06
176
   256
177
   256
178
     2
274
     4
284
     7
288
     1
289
     0
340
11
371
    -1
372
    -1
1001
ACAD_DSTYLE_DIMARC_LENGTH_SYMBOL
1070
   379
1070
     1
  0
DIMSTYLE
105
B625
330
A
100
AcDbSymbolTableRecord
100
AcDbDimStyleTableRecord
  2
AM_ANSI$4
 70
     0
  4
mm
 41
0.1
 42
0.05
 43
0.5
 44
0.1
 47
0.1
 48
0.1
 78
     7
 79
     2
140
0.12
141
0.0
146
0.71
147
0.06
176
   256
177
   256
178
     2
274
     4
284
     7
288
     1
289
     0
340
11
371
    -1
372
    -1
1001
ACAD_DSTYLE_DIMARC_LENGTH_SYMBOL
1070
   379
1070
     1
  0
DIMSTYLE
105
B626
330
A
100
AcDbSymbolTableRecord
100
AcDbDimStyleTableRecord
  2
AM_ANSI$7
 70
     0
  4
mm
 41
0.1
 42
0.05
 43
0.5
 44
0.1
 47
0.1
 48
0.1
 78
     7
 79
     2
140
0.24
141
0.0
146
0.71
147
0.06
176
   256
177
   256
178
     2
274
     4
284
     7
340
11
371
    -1
372
    -1
1001
ACAD_DSTYLE_DIMARC_LENGTH_SYMBOL
1070
   379
1070
     1
  0
DIMSTYLE
105
B627
330
A
100
AcDbSymbolTableRecord
100
AcDbDimStyleTableRecord
  2
AM_ANSI$SF
 70
     0
  4
mm
 41
0.1
 42
0.05
 43
0.5
 44
0.1
 47
0.1
 48
0.1
 75
     1
 76
     1
 78
     7
 79
     2
140
0.12
141
0.0
146
0.71
147
0.06
176
   256
177
   256
178
     2
274
     4
284
     7
340
11
371
    -1
372
    -1
1001
ACAD_DSTYLE_DIMARC_LENGTH_SYMBOL
1070
   379
1070
     1
  0
DIMSTYLE
105
B628
330
A
100
AcDbSymbolTableRecord
100
AcDbDimStyleTableRecord
  2
AM_ANSI$SH
 70
     0
  4
mm
 41
0.1
 42
0.05
 43
0.5
 44
0.1
 47
0.1
 48
0.1
 75
     1
 76
     1
 78
     7
 79
     2
140
0.12
141
0.0
146
0.71
147
0.06
173
     1
176
   256
177
   256
178
     2
274
     4
284
     7
340
11
343
72
371
    -1
372
    -1
1001
ACAD_DSTYLE_DIMARC_LENGTH_SYMBOL
1070
   379
1070
     1
  0
ENDTAB
  0
TABLE
  2
BLOCK_RECORD
  5
1
330
0
100
AcDbSymbolTable
 70
    19
  0
BLOCK_RECORD
  5
1F
102
{ACAD_XDICTIONARY
360
8A
102
}
330
1
100
AcDbSymbolTableRecord
100
AcDbBlockTableRecord
  2
*Model_Space
340
22
  0
BLOCK_RECORD
  5
1B
330
1
100
AcDbSymbolTableRecord
100
AcDbBlockTableRecord
  2
*Paper_Space
340
1E
  0
BLOCK_RECORD
  5
23
330
1
100
AcDbSymbolTableRecord
100
AcDbBlockTableRecord
  2
*Paper_Space0
340
26
  0
BLOCK_RECORD
  5
72
330
1
100
AcDbSymbolTableRecord
100
AcDbBlockTableRecord
  2
GENAXEH
340
0
  0
BLOCK_RECORD
  5
6C4
330
1
100
AcDbSymbolTableRecord
100
AcDbBlockTableRecord
  2
_Dot
340
0
102
{BLKREFS
331
BF3D
331
BF3E
331
BF46
331
BF47
331
BF4F
331
BF50
331
BF58
331
BF59
331
C016
331
C017
331
C01F
331
C020
331
C031
331
C032
331
C03A
331
C03B
331
C043
331
C044
331
C04C
331
C04D
331
C057
331
C058
102
}
  0
BLOCK_RECORD
  5
A66
330
1
100
AcDbSymbolTableRecord
100
AcDbBlockTableRecord
  2
_OPEN30
340
0
  0
BLOCK_RECORD
  5
B912
330
1
100
AcDbSymbolTableRecord
100
AcDbBlockTableRecord
  2
GENDOT
340
0
102
{BLKREFS
331
BCA2
331
C028
331
C029
102
}
  0
BLOCK_RECORD
  5
BB64
330
1
100
AcDbSymbolTableRecord
100
AcDbBlockTableRecord
  2
*D6
340
0
  0
BLOCK_RECORD
  5
BB7A
330
1
100
AcDbSymbolTableRecord
100
AcDbBlockTableRecord
  2
*D7
340
0
  0
BLOCK_RECORD
  5
BB90
330
1
100
AcDbSymbolTableRecord
100
AcDbBlockTableRecord
  2
*D8
340
0
  0
BLOCK_RECORD
  5
BBA6
330
1
100
AcDbSymbolTableRecord
100
AcDbBlockTableRecord
  2
*D9
340
0
  0
BLOCK_RECORD
  5
BCA9
330
1
100
AcDbSymbolTableRecord
100
AcDbBlockTableRecord
  2
*D10
340
0
  0
BLOCK_RECORD
  5
BCBF
330
1
100
AcDbSymbolTableRecord
100
AcDbBlockTableRecord
  2
*D11
340
0
  0
BLOCK_RECORD
  5
BCF2
330
1
100
AcDbSymbolTableRecord
100
AcDbBlockTableRecord
  2
*D12
340
0
  0
BLOCK_RECORD
  5
BD1E
330
1
100
AcDbSymbolTableRecord
100
AcDbBlockTableRecord
  2
*D13
340
0
  0
BLOCK_RECORD
  5
BD36
330
1
100
AcDbSymbolTableRecord
100
AcDbBlockTableRecord
  2
*D14
340
0
  0
BLOCK_RECORD
  5
BD4C
330
1
100
AcDbSymbolTableRecord
100
AcDbBlockTableRecord
  2
*D15
340
0
  0
BLOCK_RECORD
  5
BD62
330
1
100
AcDbSymbolTableRecord
100
AcDbBlockTableRecord
  2
*D16
340
0
  0
BLOCK_RECORD
  5
BFA8
330
1
100
AcDbSymbolTableRecord
100
AcDbBlockTableRecord
  2
*D17
340
0
  0
ENDTAB
  0
ENDSEC
  0
SECTION
  2
BLOCKS
  0
BLOCK
  5
20
330
1F
100
AcDbEntity
  8
0
100
AcDbBlockBegin
  2
*Model_Space
 70
     0
 10
0.0
 20
0.0
 30
0.0
  3
*Model_Space
  1

  0
ENDBLK
  5
21
330
1F
100
AcDbEntity
  8
0
100
AcDbBlockEnd
  0
BLOCK
  5
1C
330
1B
100
AcDbEntity
 67
     1
  8
0
100
AcDbBlockBegin
  2
*Paper_Space
 70
     0
 10
0.0
 20
0.0
 30
0.0
  3
*Paper_Space
  1

  0
ENDBLK
  5
1D
330
1B
100
AcDbEntity
 67
     1
  8
0
100
AcDbBlockEnd
  0
BLOCK
  5
24
330
23
100
AcDbEntity
 67
     1
  8
0
100
AcDbBlockBegin
  2
*Paper_Space0
 70
     0
 10
0.0
 20
0.0
 30
0.0
  3
*Paper_Space0
  1

  0
ENDBLK
  5
25
330
23
100
AcDbEntity
 67
     1
  8
0
100
AcDbBlockEnd
  0
BLOCK
  5
74
330
72
100
AcDbEntity
  8
0
100
AcDbBlockBegin
  2
GENAXEH
 70
     0
 10
0.0
 20
0.0
 30
0.0
  3
GENAXEH
  1

  0
LINE
  5
73
330
72
100
AcDbEntity
  8
0
100
AcDbLine
 10
-1.0
 20
0.0
 30
0.0
 11
1.0
 21
0.0
 31
0.0
  0
ENDBLK
  5
75
330
72
100
AcDbEntity
  8
0
100
AcDbBlockEnd
  0
BLOCK
  5
6C7
330
6C4
100
AcDbEntity
  8
0
100
AcDbBlockBegin
  2
_Dot
 70
     0
 10
0.0
 20
0.0
 30
0.0
  3
_Dot
  1

  0
LWPOLYLINE
  5
6C5
330
6C4
100
AcDbEntity
  8
0
  6
ByBlock
 62
     0
100
AcDbPolyline
 90
        2
 70
     1
 43
0.5
 10
-0.25
 20
0.0
 42
1.0
 10
0.25
 20
0.0
 42
1.0
  0
LINE
  5
6C6
330
6C4
100
AcDbEntity
  8
0
  6
ByBlock
 62
     0
370
    -2
100
AcDbLine
 10
-0.5
 20
0.0
 30
0.0
 11
-1.0
 21
0.0
 31
0.0
  0
ENDBLK
  5
6C8
330
6C4
100
AcDbEntity
  8
0
100
AcDbBlockEnd
  0
BLOCK
  5
A6A
330
A66
100
AcDbEntity
  8
0
100
AcDbBlockBegin
  2
_OPEN30
 70
     0
 10
0.0
 20
0.0
 30
0.0
  3
_OPEN30
  1

  0
LINE
  5
A67
330
A66
100
AcDbEntity
  8
0
  6
ByBlock
 62
     0
100
AcDbLine
 10
-1.0
 20
0.26794919
 30
0.0
 11
0.0
 21
0.0
 31
0.0
  0
LINE
  5
A68
330
A66
100
AcDbEntity
  8
0
  6
ByBlock
 62
     0
100
AcDbLine
 10
0.0
 20
0.0
 30
0.0
 11
-1.0
 21
-0.26794919
 31
0.0
  0
LINE
  5
A69
330
A66
100
AcDbEntity
  8
0
  6
ByBlock
 62
     0
100
AcDbLine
 10
0.0
 20
0.0
 30
0.0
 11
-1.0
 21
0.0
 31
0.0
  0
ENDBLK
  5
A6B
330
A66
100
AcDbEntity
  8
0
100
AcDbBlockEnd
  0
BLOCK
  5
B913
330
B912
100
AcDbEntity
  8
0
100
AcDbBlockBegin
  2
GENDOT
 70
     0
 10
0.0
 20
0.0
 30
0.0
  3
GENDOT
  1

  0
LINE
  5
B914
330
B912
100
AcDbEntity
  8
0
100
AcDbLine
 10
0.0
 20
0.0
 30
0.0
 11
-1.0
 21
0.0
 31
0.0
  0
LWPOLYLINE
  5
B915
330
B912
100
AcDbEntity
  8
0
100
AcDbPolyline
 90
        2
 70
     1
 43
0.25
 10
-0.125
 20
0.0
 42
1.0
 10
0.125
 20
0.0
 42
1.0
  0
ENDBLK
  5
B916
330
B912
100
AcDbEntity
  8
0
100
AcDbBlockEnd
  0
BLOCK
  5
BB6E
330
BB64
100
AcDbEntity
  8
0
100
AcDbBlockBegin
  2
*D6
 70
     1
 10
0.0
 20
0.0
 30
0.0
  3
*D6
  1

  0
LINE
  5
BF3A
330
BB64
100
AcDbEntity
  8
AM_5
100
AcDbLine
 10
161.5764147303745
 20
71.28641465304937
 30
0.0
 11
174.3264157703745
 21
71.28641465304937
 31
0.0
  0
LINE
  5
BF3B
330
BB64
100
AcDbEntity
  8
AM_5
100
AcDbLine
 10
161.5764147303745
 20
91.28641765304937
 30
0.0
 11
174.3264157703745
 21
91.28641765304937
 31
0.0
  0
LINE
  5
BF3C
330
BB64
100
AcDbEntity
  8
AM_5
100
AcDbLine
 10
173.3264157703745
 20
72.28641465304938
 30
0.0
 11
173.3264157703745
 21
90.28641765304938
 31
0.0
  0
INSERT
  5
BF3D
330
BB64
100
AcDbEntity
  8
AM_5
100
AcDbBlockReference
  2
_Dot
 10
173.3264157703745
 20
71.28641465304937
 30
0.0
 50
270.0
  0
INSERT
  5
BF3E
330
BB64
100
AcDbEntity
  8
AM_5
100
AcDbBlockReference
  2
_Dot
 10
173.3264157703745
 20
91.28641765304937
 30
0.0
 50
90.0
  0
MTEXT
  5
BF3F
330
BB64
100
AcDbEntity
  8
AM_5
 62
     2
100
AcDbMText
 10
170.2264157703745
 20
81.28641615304941
 30
0.0
 40
3.200000000000001
 41
0.0
 71
     5
 72
     1
  1
20
 11
0.0000000000000001
 21
1.0
 31
0.0
 73
     1
 44
1.0
1001
ACAD
1000
MTEXTBEGIN
1070
    73
1070
     1
1070
    44
1040
1.0
1070
    74
1070
     0
1000
MTEXTEND
  0
POINT
  5
BF40
330
BB64
100
AcDbEntity
  8
Defpoints
 62
     0
100
AcDbPoint
 10
160.5764147303745
 20
71.28641465304937
 30
0.0
  0
POINT
  5
BF41
330
BB64
100
AcDbEntity
  8
Defpoints
 62
     0
100
AcDbPoint
 10
160.5764147303745
 20
91.28641765304937
 30
0.0
  0
POINT
  5
BF42
330
BB64
100
AcDbEntity
  8
Defpoints
 62
     0
100
AcDbPoint
 10
173.3264157703745
 20
91.28641765304937
 30
0.0
  0
ENDBLK
  5
BB6F
330
BB64
100
AcDbEntity
  8
0
100
AcDbBlockEnd
  0
BLOCK
  5
BB84
330
BB7A
100
AcDbEntity
  8
0
100
AcDbBlockBegin
  2
*D7
 70
     1
 10
0.0
 20
0.0
 30
0.0
  3
*D7
  1

  0
LINE
  5
BF43
330
BB7A
100
AcDbEntity
  8
AM_5
100
AcDbLine
 10
161.5764147303745
 20
71.28641465304937
 30
0.0
 11
174.3264157703746
 21
71.28641465304937
 31
0.0
  0
LINE
  5
BF44
330
BB7A
100
AcDbEntity
  8
AM_5
100
AcDbLine
 10
161.5764147303745
 20
51.28641865304937
 30
0.0
 11
174.3264157703745
 21
51.28641865304937
 31
0.0
  0
LINE
  5
BF45
330
BB7A
100
AcDbEntity
  8
AM_5
100
AcDbLine
 10
173.3264157703746
 20
70.28641465304938
 30
0.0
 11
173.3264157703746
 21
52.28641865304937
 31
0.0
  0
INSERT
  5
BF46
330
BB7A
100
AcDbEntity
  8
AM_5
100
AcDbBlockReference
  2
_Dot
 10
173.3264157703746
 20
71.28641465304937
 30
0.0
 50
90.0
  0
INSERT
  5
BF47
330
BB7A
100
AcDbEntity
  8
AM_5
100
AcDbBlockReference
  2
_Dot
 10
173.3264157703746
 20
51.28641865304937
 30
0.0
 50
270.0
  0
MTEXT
  5
BF48
330
BB7A
100
AcDbEntity
  8
AM_5
 62
     2
100
AcDbMText
 10
170.2264157703746
 20
61.2864166530494
 30
0.0
 40
3.200000000000001
 41
0.0
 71
     5
 72
     1
  1
20
 11
0.0000000000000001
 21
1.0
 31
0.0
 73
     1
 44
1.0
1001
ACAD
1000
MTEXTBEGIN
1070
    73
1070
     1
1070
    44
1040
1.0
1070
    74
1070
     0
1000
MTEXTEND
  0
POINT
  5
BF49
330
BB7A
100
AcDbEntity
  8
Defpoints
 62
     0
100
AcDbPoint
 10
160.5764147303745
 20
71.28641465304937
 30
0.0
  0
POINT
  5
BF4A
330
BB7A
100
AcDbEntity
  8
Defpoints
 62
     0
100
AcDbPoint
 10
160.5764147303745
 20
51.28641865304937
 30
0.0
  0
POINT
  5
BF4B
330
BB7A
100
AcDbEntity
  8
Defpoints
 62
     0
100
AcDbPoint
 10
173.3264157703746
 20
51.28641865304937
 30
0.0
  0
ENDBLK
  5
BB85
330
BB7A
100
AcDbEntity
  8
0
100
AcDbBlockEnd
  0
BLOCK
  5
BB9A
330
BB90
100
AcDbEntity
  8
0
100
AcDbBlockBegin
  2
*D8
 70
     1
 10
0.0
 20
0.0
 30
0.0
  3
*D8
  1

  0
LINE
  5
BF4C
330
BB90
100
AcDbEntity
  8
AM_5
100
AcDbLine
 10
161.5764147303745
 20
91.28641765304937
 30
0.0
 11
174.3264157703745
 21
91.28641765304937
 31
0.0
  0
LINE
  5
BF4D
330
BB90
100
AcDbEntity
  8
AM_5
100
AcDbLine
 10
161.5764147303745
 20
111.2864166530493
 30
0.0
 11
174.3264157703745
 21
111.2864166530493
 31
0.0
  0
LINE
  5
BF4E
330
BB90
100
AcDbEntity
  8
AM_5
100
AcDbLine
 10
173.3264157703746
 20
92.28641765304937
 30
0.0
 11
173.3264157703746
 21
110.2864166530493
 31
0.0
  0
INSERT
  5
BF4F
330
BB90
100
AcDbEntity
  8
AM_5
100
AcDbBlockReference
  2
_Dot
 10
173.3264157703746
 20
91.28641765304937
 30
0.0
 50
270.0
  0
INSERT
  5
BF50
330
BB90
100
AcDbEntity
  8
AM_5
100
AcDbBlockReference
  2
_Dot
 10
173.3264157703746
 20
111.2864166530493
 30
0.0
 50
90.0
  0
MTEXT
  5
BF51
330
BB90
100
AcDbEntity
  8
AM_5
 62
     2
100
AcDbMText
 10
170.2264157703745
 20
101.2864171530494
 30
0.0
 40
3.200000000000001
 41
0.0
 71
     5
 72
     1
  1
20
 11
0.0000000000000001
 21
1.0
 31
0.0
 73
     1
 44
1.0
1001
ACAD
1000
MTEXTBEGIN
1070
    73
1070
     1
1070
    44
1040
1.0
1070
    74
1070
     0
1000
MTEXTEND
  0
POINT
  5
BF52
330
BB90
100
AcDbEntity
  8
Defpoints
 62
     0
100
AcDbPoint
 10
160.5764147303745
 20
91.28641765304937
 30
0.0
  0
POINT
  5
BF53
330
BB90
100
AcDbEntity
  8
Defpoints
 62
     0
100
AcDbPoint
 10
160.5764147303745
 20
111.2864166530493
 30
0.0
  0
POINT
  5
BF54
330
BB90
100
AcDbEntity
  8
Defpoints
 62
     0
100
AcDbPoint
 10
173.3264157703746
 20
111.2864166530493
 30
0.0
  0
ENDBLK
  5
BB9B
330
BB90
100
AcDbEntity
  8
0
100
AcDbBlockEnd
  0
BLOCK
  5
BBB0
330
BBA6
100
AcDbEntity
  8
0
100
AcDbBlockBegin
  2
*D9
 70
     1
 10
0.0
 20
0.0
 30
0.0
  3
*D9
  1

  0
LINE
  5
BF55
330
BBA6
100
AcDbEntity
  8
AM_5
100
AcDbLine
 10
162.3264147703745
 20
41.28641865304937
 30
0.0
 11
184.3264157703746
 21
41.28641865304936
 31
0.0
  0
LINE
  5
BF56
330
BBA6
100
AcDbEntity
  8
AM_5
100
AcDbLine
 10
162.3264147703745
 20
121.2864166530494
 30
0.0
 11
184.3264157703746
 21
121.2864166530494
 31
0.0
  0
LINE
  5
BF57
330
BBA6
100
AcDbEntity
  8
AM_5
100
AcDbLine
 10
183.3264157703746
 20
42.28641865304935
 30
0.0
 11
183.3264157703746
 21
120.2864166530493
 31
0.0
  0
INSERT
  5
BF58
330
BBA6
100
AcDbEntity
  8
AM_5
100
AcDbBlockReference
  2
_Dot
 10
183.3264157703746
 20
41.28641865304936
 30
0.0
 50
270.0
  0
INSERT
  5
BF59
330
BBA6
100
AcDbEntity
  8
AM_5
100
AcDbBlockReference
  2
_Dot
 10
183.3264157703746
 20
121.2864166530494
 30
0.0
 50
90.0
  0
MTEXT
  5
BF5A
330
BBA6
100
AcDbEntity
  8
AM_5
 62
     2
100
AcDbMText
 10
180.2264157703746
 20
81.28641765304939
 30
0.0
 40
3.200000000000001
 41
0.0
 71
     5
 72
     1
  1
80
 11
0.0000000000000001
 21
1.0
 31
0.0
 73
     1
 44
1.0
1001
ACAD
1000
MTEXTBEGIN
1070
    73
1070
     1
1070
    44
1040
1.0
1070
    74
1070
     0
1000
MTEXTEND
  0
POINT
  5
BF5B
330
BBA6
100
AcDbEntity
  8
Defpoints
 62
     0
100
AcDbPoint
 10
161.3264147703745
 20
41.28641865304937
 30
0.0
  0
POINT
  5
BF5C
330
BBA6
100
AcDbEntity
  8
Defpoints
 62
     0
100
AcDbPoint
 10
161.3264147703745
 20
121.2864166530494
 30
0.0
  0
POINT
  5
BF5D
330
BBA6
100
AcDbEntity
  8
Defpoints
 62
     0
100
AcDbPoint
 10
183.3264157703746
 20
121.2864166530494
 30
0.0
  0
ENDBLK
  5
BBB1
330
BBA6
100
AcDbEntity
  8
0
100
AcDbBlockEnd
  0
BLOCK
  5
BCB3
330
BCA9
100
AcDbEntity
  8
0
100
AcDbBlockBegin
  2
*D10
 70
     1
 10
0.0
 20
0.0
 30
0.0
  3
*D10
  1

  0
LINE
  5
C013
330
BCA9
100
AcDbEntity
  8
AM_5
100
AcDbLine
 10
137.3264143703745
 20
184.4502876762885
 30
0.0
 11
137.3264143703745
 21
175.4502866662885
 31
0.0
  0
LINE
  5
C014
330
BCA9
100
AcDbEntity
  8
AM_5
100
AcDbLine
 10
155.3264147303745
 20
184.4502916762884
 30
0.0
 11
155.3264147303745
 21
175.4502866662885
 31
0.0
  0
LINE
  5
C015
330
BCA9
100
AcDbEntity
  8
AM_5
100
AcDbLine
 10
138.3264143703745
 20
176.4502866662885
 30
0.0
 11
154.3264147303745
 21
176.4502866662885
 31
0.0
  0
INSERT
  5
C016
330
BCA9
100
AcDbEntity
  8
AM_5
100
AcDbBlockReference
  2
_Dot
 10
137.3264143703745
 20
176.4502866662885
 30
0.0
 50
180.0
  0
INSERT
  5
C017
330
BCA9
100
AcDbEntity
  8
AM_5
100
AcDbBlockReference
  2
_Dot
 10
155.3264147303745
 20
176.4502866662885
 30
0.0
  0
MTEXT
  5
C018
330
BCA9
100
AcDbEntity
  8
AM_5
 62
     2
100
AcDbMText
 10
146.3264145503745
 20
179.5502866662885
 30
0.0
 40
3.200000000000001
 41
0.0
 71
     5
 72
     1
  1
18
 73
     1
 44
1.0
1001
ACAD
1000
MTEXTBEGIN
1070
    73
1070
     1
1070
    44
1040
1.0
1070
    74
1070
     0
1000
MTEXTEND
  0
POINT
  5
C019
330
BCA9
100
AcDbEntity
  8
Defpoints
 62
     0
100
AcDbPoint
 10
137.3264143703745
 20
185.4502876762885
 30
0.0
  0
POINT
  5
C01A
330
BCA9
100
AcDbEntity
  8
Defpoints
 62
     0
100
AcDbPoint
 10
155.3264147303745
 20
185.4502916762885
 30
0.0
  0
POINT
  5
C01B
330
BCA9
100
AcDbEntity
  8
Defpoints
 62
     0
100
AcDbPoint
 10
155.3264147303745
 20
176.4502866662885
 30
0.0
  0
ENDBLK
  5
BCB4
330
BCA9
100
AcDbEntity
  8
0
100
AcDbBlockEnd
  0
BLOCK
  5
BCC9
330
BCBF
100
AcDbEntity
  8
0
100
AcDbBlockBegin
  2
*D11
 70
     1
 10
0.0
 20
0.0
 30
0.0
  3
*D11
  1

  0
LINE
  5
C01C
330
BCBF
100
AcDbEntity
  8
AM_5
100
AcDbLine
 10
137.3264143703745
 20
184.4502876762885
 30
0.0
 11
137.3264143703745
 21
165.4502866662884
 31
0.0
  0
LINE
  5
C01D
330
BCBF
100
AcDbEntity
  8
AM_5
100
AcDbLine
 10
161.3264147703745
 20
187.4502916762885
 30
0.0
 11
161.3264147703745
 21
165.4502866662884
 31
0.0
  0
LINE
  5
C01E
330
BCBF
100
AcDbEntity
  8
AM_5
100
AcDbLine
 10
138.3264143703745
 20
166.4502866662884
 30
0.0
 11
160.3264147703745
 21
166.4502866662884
 31
0.0
  0
INSERT
  5
C01F
330
BCBF
100
AcDbEntity
  8
AM_5
100
AcDbBlockReference
  2
_Dot
 10
137.3264143703745
 20
166.4502866662884
 30
0.0
 50
180.0
  0
INSERT
  5
C020
330
BCBF
100
AcDbEntity
  8
AM_5
100
AcDbBlockReference
  2
_Dot
 10
161.3264147703745
 20
166.4502866662884
 30
0.0
  0
MTEXT
  5
C021
330
BCBF
100
AcDbEntity
  8
AM_5
 62
     2
100
AcDbMText
 10
149.3264145703745
 20
169.5502866662884
 30
0.0
 40
3.200000000000001
 41
0.0
 71
     5
 72
     1
  1
24
 73
     1
 44
1.0
1001
ACAD
1000
MTEXTBEGIN
1070
    73
1070
     1
1070
    44
1040
1.0
1070
    74
1070
     0
1000
MTEXTEND
  0
POINT
  5
C022
330
BCBF
100
AcDbEntity
  8
Defpoints
 62
     0
100
AcDbPoint
 10
137.3264143703745
 20
185.4502876762885
 30
0.0
  0
POINT
  5
C023
330
BCBF
100
AcDbEntity
  8
Defpoints
 62
     0
100
AcDbPoint
 10
161.3264147703745
 20
188.4502916762885
 30
0.0
  0
POINT
  5
C024
330
BCBF
100
AcDbEntity
  8
Defpoints
 62
     0
100
AcDbPoint
 10
161.3264147703745
 20
166.4502866662884
 30
0.0
  0
ENDBLK
  5
BCCA
330
BCBF
100
AcDbEntity
  8
0
100
AcDbBlockEnd
  0
BLOCK
  5
BCF8
330
BCF2
100
AcDbEntity
  8
0
100
AcDbBlockBegin
  2
*D12
 70
     1
 10
0.0
 20
0.0
 30
0.0
  3
*D12
  1

  0
LINE
  5
C025
330
BCF2
100
AcDbEntity
  8
AM_5
100
AcDbLine
 10
138.680541853753
 20
197.1777229984535
 30
0.0
 11
135.9722868869959
 21
190.7228523541233
 31
0.0
  0
LINE
  5
C026
330
BCF2
100
AcDbEntity
  8
AM_5
100
AcDbLine
 10
135.1984997536367
 20
188.8786035986003
 30
0.0
 11
129.7907301151635
 21
175.9896939799911
 31
0.0
  0
LINE
  5
C027
330
BCF2
100
AcDbEntity
  8
AM_5
100
AcDbLine
 10
129.7907301151635
 20
175.9896939799911
 30
0.0
 11
122.8073967818302
 21
175.9896939799911
 31
0.0
  0
INSERT
  5
C028
330
BCF2
100
AcDbEntity
  8
AM_5
100
AcDbBlockReference
  2
GENDOT
 10
139.4543289871121
 20
199.0219717539765
 30
0.0
 41
2.0
 42
2.0
 43
2.0
 50
67.23865438981606
  0
INSERT
  5
C029
330
BCF2
100
AcDbEntity
  8
AM_5
100
AcDbBlockReference
  2
GENDOT
 10
135.1984997536367
 20
188.8786035986003
 30
0.0
 41
2.0
 42
2.0
 43
2.0
 50
247.2386543898161
  0
MTEXT
  5
C02A
330
BCF2
100
AcDbEntity
  8
AM_5
 62
     2
100
AcDbMText
 10
125.5490634484968
 20
179.2396939799911
 30
0.0
 40
3.5
 41
0.0
 71
     5
 72
     1
  1
\U+220511
 73
     1
 44
1.0
1001
ACAD
1000
MTEXTBEGIN
1070
    73
1070
     1
1070
    44
1040
1.0
1070
    74
1070
     0
1000
MTEXTEND
  0
POINT
  5
C02B
330
BCF2
100
AcDbEntity
  8
Defpoints
 62
     0
100
AcDbPoint
 10
135.1984997536367
 20
188.8786035986003
 30
0.0
  0
POINT
  5
C02C
330
BCF2
100
AcDbEntity
  8
Defpoints
 62
     0
100
AcDbPoint
 10
139.4543289871121
 20
199.0219717539765
 30
0.0
  0
ENDBLK
  5
BCF9
330
BCF2
100
AcDbEntity
  8
0
100
AcDbBlockEnd
  0
BLOCK
  5
BD29
330
BD1E
100
AcDbEntity
  8
0
100
AcDbBlockBegin
  2
*D13
 70
     1
 10
0.0
 20
0.0
 30
0.0
  3
*D13
  1

  0
LINE
  5
C02D
330
BD1E
100
AcDbEntity
  8
AM_5
100
AcDbLine
 10
146.8264143703745
 20
193.9502876762885
 30
0.0
 11
184.3264147703745
 21
193.9502876762885
 31
0.0
  0
LINE
  5
C02E
330
BD1E
100
AcDbEntity
  8
AM_5
100
AcDbLine
 10
162.3264147703745
 20
188.4502916762885
 30
0.0
 11
184.3264147703745
 21
188.4502916762885
 31
0.0
  0
LINE
  5
C02F
330
BD1E
100
AcDbEntity
  8
AM_5
100
AcDbLine
 10
183.3264147703745
 20
192.9502876762885
 30
0.0
 11
183.3264147703745
 21
189.4502916762885
 31
0.0
  0
LINE
  5
C030
330
BD1E
100
AcDbEntity
  8
AM_5
100
AcDbLine
 10
183.3264147703745
 20
188.4502916762885
 30
0.0
 11
183.3264147703745
 21
179.7569583429551
 31
0.0
  0
INSERT
  5
C031
330
BD1E
100
AcDbEntity
  8
AM_5
100
AcDbBlockReference
  2
_Dot
 10
183.3264147703745
 20
193.9502876762885
 30
0.0
 50
90.0
  0
INSERT
  5
C032
330
BD1E
100
AcDbEntity
  8
AM_5
100
AcDbBlockReference
  2
_Dot
 10
183.3264147703745
 20
188.4502916762885
 30
0.0
 50
270.0
  0
MTEXT
  5
C033
330
BD1E
100
AcDbEntity
  8
AM_5
 62
     2
100
AcDbMText
 10
180.2264147703745
 20
183.6036250096218
 30
0.0
 40
3.200000000000001
 41
0.0
 71
     5
 72
     1
  1
5.5
 11
0.0000000000000001
 21
1.0
 31
0.0
 73
     1
 44
1.0
1001
ACAD
1000
MTEXTBEGIN
1070
    73
1070
     1
1070
    44
1040
1.0
1070
    74
1070
     0
1000
MTEXTEND
  0
POINT
  5
C034
330
BD1E
100
AcDbEntity
  8
Defpoints
 62
     0
100
AcDbPoint
 10
145.8264143703745
 20
193.9502876762885
 30
0.0
  0
POINT
  5
C035
330
BD1E
100
AcDbEntity
  8
Defpoints
 62
     0
100
AcDbPoint
 10
161.3264147703745
 20
188.4502916762885
 30
0.0
  0
POINT
  5
C036
330
BD1E
100
AcDbEntity
  8
Defpoints
 62
     0
100
AcDbPoint
 10
183.3264147703745
 20
188.4502916762885
 30
0.0
  0
ENDBLK
  5
BD2A
330
BD1E
100
AcDbEntity
  8
0
100
AcDbBlockEnd
  0
BLOCK
  5
BD40
330
BD36
100
AcDbEntity
  8
0
100
AcDbBlockBegin
  2
*D14
 70
     1
 10
0.0
 20
0.0
 30
0.0
  3
*D14
  1

  0
LINE
  5
C037
330
BD36
100
AcDbEntity
  8
AM_5
100
AcDbLine
 10
146.8264143703745
 20
193.9502876762885
 30
0.0
 11
184.3264147703746
 21
193.9502876762885
 31
0.0
  0
LINE
  5
C038
330
BD36
100
AcDbEntity
  8
AM_5
100
AcDbLine
 10
162.3264147703745
 20
211.4502876762885
 30
0.0
 11
184.3264147703746
 21
211.4502876762885
 31
0.0
  0
LINE
  5
C039
330
BD36
100
AcDbEntity
  8
AM_5
100
AcDbLine
 10
183.3264147703746
 20
194.9502876762885
 30
0.0
 11
183.3264147703746
 21
210.4502876762885
 31
0.0
  0
INSERT
  5
C03A
330
BD36
100
AcDbEntity
  8
AM_5
100
AcDbBlockReference
  2
_Dot
 10
183.3264147703746
 20
193.9502876762885
 30
0.0
 50
270.0
  0
INSERT
  5
C03B
330
BD36
100
AcDbEntity
  8
AM_5
100
AcDbBlockReference
  2
_Dot
 10
183.3264147703746
 20
211.4502876762885
 30
0.0
 50
90.0
  0
MTEXT
  5
C03C
330
BD36
100
AcDbEntity
  8
AM_5
 62
     2
100
AcDbMText
 10
180.2264147703746
 20
202.7002876762885
 30
0.0
 40
3.200000000000001
 41
0.0
 71
     5
 72
     1
  1
17.5
 11
0.0000000000000001
 21
1.0
 31
0.0
 73
     1
 44
1.0
1001
ACAD
1000
MTEXTBEGIN
1070
    73
1070
     1
1070
    44
1040
1.0
1070
    74
1070
     0
1000
MTEXTEND
  0
POINT
  5
C03D
330
BD36
100
AcDbEntity
  8
Defpoints
 62
     0
100
AcDbPoint
 10
145.8264143703745
 20
193.9502876762885
 30
0.0
  0
POINT
  5
C03E
330
BD36
100
AcDbEntity
  8
Defpoints
 62
     0
100
AcDbPoint
 10
161.3264147703745
 20
211.4502876762885
 30
0.0
  0
POINT
  5
C03F
330
BD36
100
AcDbEntity
  8
Defpoints
 62
     0
100
AcDbPoint
 10
183.3264147703746
 20
211.4502876762885
 30
0.0
  0
ENDBLK
  5
BD41
330
BD36
100
AcDbEntity
  8
0
100
AcDbBlockEnd
  0
BLOCK
  5
BD56
330
BD4C
100
AcDbEntity
  8
0
100
AcDbBlockBegin
  2
*D15
 70
     1
 10
0.0
 20
0.0
 30
0.0
  3
*D15
  1

  0
LINE
  5
C040
330
BD4C
100
AcDbEntity
  8
AM_5
100
AcDbLine
 10
155.3264147303745
 20
215.4502876762885
 30
0.0
 11
155.3264147303745
 21
234.4502886862885
 31
0.0
  0
LINE
  5
C041
330
BD4C
100
AcDbEntity
  8
AM_5
100
AcDbLine
 10
137.3264143703745
 20
203.4502876762885
 30
0.0
 11
137.3264143703745
 21
234.4502886862885
 31
0.0
  0
LINE
  5
C042
330
BD4C
100
AcDbEntity
  8
AM_5
100
AcDbLine
 10
154.3264147303745
 20
233.4502886862885
 30
0.0
 11
138.3264143703745
 21
233.4502886862885
 31
0.0
  0
INSERT
  5
C043
330
BD4C
100
AcDbEntity
  8
AM_5
100
AcDbBlockReference
  2
_Dot
 10
155.3264147303745
 20
233.4502886862885
 30
0.0
  0
INSERT
  5
C044
330
BD4C
100
AcDbEntity
  8
AM_5
100
AcDbBlockReference
  2
_Dot
 10
137.3264143703745
 20
233.4502886862885
 30
0.0
 50
180.0
  0
MTEXT
  5
C045
330
BD4C
100
AcDbEntity
  8
AM_5
 62
     2
100
AcDbMText
 10
146.3264145503745
 20
236.5502886862885
 30
0.0
 40
3.200000000000001
 41
0.0
 71
     5
 72
     1
  1
18
 73
     1
 44
1.0
1001
ACAD
1000
MTEXTBEGIN
1070
    73
1070
     1
1070
    44
1040
1.0
1070
    74
1070
     0
1000
MTEXTEND
  0
POINT
  5
C046
330
BD4C
100
AcDbEntity
  8
Defpoints
 62
     0
100
AcDbPoint
 10
155.3264147303745
 20
214.4502876762885
 30
0.0
  0
POINT
  5
C047
330
BD4C
100
AcDbEntity
  8
Defpoints
 62
     0
100
AcDbPoint
 10
137.3264143703745
 20
202.4502876762885
 30
0.0
  0
POINT
  5
C048
330
BD4C
100
AcDbEntity
  8
Defpoints
 62
     0
100
AcDbPoint
 10
137.3264143703745
 20
233.4502886862885
 30
0.0
  0
ENDBLK
  5
BD57
330
BD4C
100
AcDbEntity
  8
0
100
AcDbBlockEnd
  0
BLOCK
  5
BD6C
330
BD62
100
AcDbEntity
  8
0
100
AcDbBlockBegin
  2
*D16
 70
     1
 10
0.0
 20
0.0
 30
0.0
  3
*D16
  1

  0
LINE
  5
C049
330
BD62
100
AcDbEntity
  8
AM_5
100
AcDbLine
 10
137.3264143703745
 20
203.4502876762885
 30
0.0
 11
137.3264143703745
 21
224.4502886862884
 31
0.0
  0
LINE
  5
C04A
330
BD62
100
AcDbEntity
  8
AM_5
100
AcDbLine
 10
146.3264152703745
 20
210.4502876762885
 30
0.0
 11
146.3264152703745
 21
224.4502886862884
 31
0.0
  0
LINE
  5
C04B
330
BD62
100
AcDbEntity
  8
AM_5
100
AcDbLine
 10
138.3264143703745
 20
223.4502886862884
 30
0.0
 11
145.3264152703745
 21
223.4502886862884
 31
0.0
  0
INSERT
  5
C04C
330
BD62
100
AcDbEntity
  8
AM_5
100
AcDbBlockReference
  2
_Dot
 10
137.3264143703745
 20
223.4502886862884
 30
0.0
 50
180.0
  0
INSERT
  5
C04D
330
BD62
100
AcDbEntity
  8
AM_5
100
AcDbBlockReference
  2
_Dot
 10
146.3264152703745
 20
223.4502886862884
 30
0.0
  0
MTEXT
  5
C04E
330
BD62
100
AcDbEntity
  8
AM_5
 62
     2
100
AcDbMText
 10
141.8264148203745
 20
226.5502886862884
 30
0.0
 40
3.200000000000001
 41
0.0
 71
     5
 72
     1
  1
9
 73
     1
 44
1.0
1001
ACAD
1000
MTEXTBEGIN
1070
    73
1070
     1
1070
    44
1040
1.0
1070
    74
1070
     0
1000
MTEXTEND
  0
POINT
  5
C04F
330
BD62
100
AcDbEntity
  8
Defpoints
 62
     0
100
AcDbPoint
 10
137.3264143703745
 20
202.4502876762885
 30
0.0
  0
POINT
  5
C050
330
BD62
100
AcDbEntity
  8
Defpoints
 62
     0
100
AcDbPoint
 10
146.3264152703745
 20
209.4502876762885
 30
0.0
  0
POINT
  5
C051
330
BD62
100
AcDbEntity
  8
Defpoints
 62
     0
100
AcDbPoint
 10
146.3264152703745
 20
223.4502886862884
 30
0.0
  0
ENDBLK
  5
BD6D
330
BD62
100
AcDbEntity
  8
0
100
AcDbBlockEnd
  0
BLOCK
  5
BFB4
330
BFA8
100
AcDbEntity
  8
0
100
AcDbBlockBegin
  2
*D17
 70
     1
 10
0.0
 20
0.0
 30
0.0
  3
*D17
  1

  0
LINE
  5
C052
330
BFA8
100
AcDbEntity
  8
AM_5
100
AcDbLine
 10
162.3264147703745
 20
208.9502876762885
 30
0.0
 11
174.3264147703747
 21
208.9502876762885
 31
0.0
  0
LINE
  5
C053
330
BFA8
100
AcDbEntity
  8
AM_5
100
AcDbLine
 10
162.3264147703745
 20
211.4502876762885
 30
0.0
 11
174.3264147703747
 21
211.4502876762885
 31
0.0
  0
LINE
  5
C054
330
BFA8
100
AcDbEntity
  8
AM_5
100
AcDbLine
 10
173.3264147703747
 20
207.9502876762885
 30
0.0
 11
173.3264147703747
 21
206.9502876762885
 31
0.0
  0
LINE
  5
C055
330
BFA8
100
AcDbEntity
  8
AM_5
100
AcDbLine
 10
173.3264147703747
 20
212.4502876762885
 30
0.0
 11
173.3264147703747
 21
221.1436210096218
 31
0.0
  0
LINE
  5
C056
330
BFA8
100
AcDbEntity
  8
AM_5
100
AcDbLine
 10
173.3264147703747
 20
208.9502876762885
 30
0.0
 11
173.3264147703747
 21
211.4502876762885
 31
0.0
  0
INSERT
  5
C057
330
BFA8
100
AcDbEntity
  8
AM_5
100
AcDbBlockReference
  2
_Dot
 10
173.3264147703747
 20
208.9502876762885
 30
0.0
 50
90.0
  0
INSERT
  5
C058
330
BFA8
100
AcDbEntity
  8
AM_5
100
AcDbBlockReference
  2
_Dot
 10
173.3264147703747
 20
211.4502876762885
 30
0.0
 50
270.0
  0
MTEXT
  5
C059
330
BFA8
100
AcDbEntity
  8
AM_5
 62
     2
100
AcDbMText
 10
170.2264147703746
 20
217.2969543429552
 30
0.0
 40
3.200000000000001
 41
0.0
 71
     5
 72
     1
  1
2.5
 11
0.0000000000000001
 21
1.0
 31
0.0
 73
     1
 44
1.0
1001
ACAD
1000
MTEXTBEGIN
1070
    73
1070
     1
1070
    44
1040
1.0
1070
    74
1070
     0
1000
MTEXTEND
  0
POINT
  5
C05A
330
BFA8
100
AcDbEntity
  8
Defpoints
 62
     0
100
AcDbPoint
 10
161.3264147703745
 20
208.9502876762885
 30
0.0
  0
POINT
  5
C05B
330
BFA8
100
AcDbEntity
  8
Defpoints
 62
     0
100
AcDbPoint
 10
161.3264147703745
 20
211.4502876762885
 30
0.0
  0
POINT
  5
C05C
330
BFA8
100
AcDbEntity
  8
Defpoints
 62
     0
100
AcDbPoint
 10
173.3264147703747
 20
211.4502876762885
 30
0.0
  0
ENDBLK
  5
BFB5
330
BFA8
100
AcDbEntity
  8
0
100
AcDbBlockEnd
  0
ENDSEC
  0
SECTION
  2
ENTITIES
  0
LINE
  5
B6B9
330
1F
100
AcDbEntity
  8
AM_2
100
AcDbLine
 10
19.99999922183315
 20
272.9999996530494
 30
0.0
 11
19.99999922183315
 21
232.9999996530494
 31
0.0
  0
LINE
  5
B6BA
330
1F
100
AcDbEntity
  8
AM_2
100
AcDbLine
 10
-0.0000007781668501
 20
264.9999996530494
 30
0.0
 11
109.9999992218331
 21
264.9999996530494
 31
0.0
  0
LINE
  5
B6BB
330
1F
100
AcDbEntity
  8
AM_2
100
AcDbLine
 10
-0.0000007781668501
 20
256.9999996530494
 30
0.0
 11
109.9999992218331
 21
256.9999996530494
 31
0.0
  0
LINE
  5
B6C2
330
1F
100
AcDbEntity
  8
AM_0
100
AcDbLine
 10
-0.0000007781668501
 20
272.9999996530494
 30
0.0
 11
109.9999992218331
 21
272.9999996530494
 31
0.0
  0
LINE
  5
B6C3
330
1F
100
AcDbEntity
  8
AM_0
100
AcDbLine
 10
109.9999992218331
 20
272.9999996530494
 30
0.0
 11
109.9999992218331
 21
232.9999996530494
 31
0.0
  0
LINE
  5
B6C4
330
1F
100
AcDbEntity
  8
AM_0
100
AcDbLine
 10
-0.0000007781668501
 20
232.9999996530494
 30
0.0
 11
109.9999992218331
 21
232.9999996530494
 31
0.0
  0
LINE
  5
B6C6
330
1F
100
AcDbEntity
  8
AM_2
100
AcDbLine
 10
-0.0000007781668501
 20
240.9999996530494
 30
0.0
 11
109.9999992218331
 21
240.9999996530494
 31
0.0
  0
LINE
  5
B6C7
330
1F
100
AcDbEntity
  8
AM_2
100
AcDbLine
 10
-0.0000007781668501
 20
248.9999996530494
 30
0.0
 11
109.9999992218331
 21
248.9999996530494
 31
0.0
  0
LINE
  5
B6C9
330
1F
100
AcDbEntity
  8
AM_0
100
AcDbLine
 10
131.8264143703745
 20
121.2864166530494
 30
0.0
 11
161.3264147703745
 21
121.2864166530494
 31
0.0
  0
LINE
  5
B6CA
330
1F
100
AcDbEntity
  8
AM_0
100
AcDbLine
 10
131.8264143703745
 20
121.2864166530494
 30
0.0
 11
131.8264143703745
 21
41.28641865304937
 31
0.0
  0
LINE
  5
B6CC
330
1F
100
AcDbEntity
  8
AM_0
100
AcDbLine
 10
137.3264143703745
 20
188.4502916762885
 30
0.0
 11
161.3264147703745
 21
188.4502916762885
 31
0.0
  0
LINE
  5
B6CD
330
1F
100
AcDbEntity
  8
AM_0
100
AcDbLine
 10
143.3264133703745
 20
188.4502916762885
 30
0.0
 11
143.3264133703745
 21
190.9502916762885
 31
0.0
  0
LINE
  5
B6CF
330
1F
100
AcDbEntity
  8
AM_0
100
AcDbLine
 10
131.8264143703745
 20
41.28641865304937
 30
0.0
 11
161.3264147703745
 21
41.28641865304937
 31
0.0
  0
LINE
  5
B6D1
330
1F
100
AcDbEntity
  8
AM_0
100
AcDbLine
 10
131.8264143703745
 20
63.28641465304937
 30
0.0
 11
143.3264133703745
 21
63.28641465304937
 31
0.0
  0
LINE
  5
B6D2
330
1F
100
AcDbEntity
  8
AM_0
100
AcDbLine
 10
143.3264133703745
 20
63.28641465304937
 30
0.0
 11
143.3264133703745
 21
41.28641865304937
 31
0.0
  0
LINE
  5
B6D3
330
1F
100
AcDbEntity
  8
AM_0
100
AcDbLine
 10
140.4886913703745
 20
198.4502876762885
 30
0.0
 11
146.3264138703745
 21
198.4502876762885
 31
0.0
  0
LINE
  5
B6D5
330
1F
100
AcDbEntity
  8
AM_0
100
AcDbLine
 10
161.3264147703745
 20
208.9502876762885
 30
0.0
 11
161.3264147703745
 21
211.4502876762885
 31
0.0
  0
LINE
  5
B6D6
330
1F
100
AcDbEntity
  8
AM_0
100
AcDbLine
 10
148.8264152703745
 20
197.9502876762885
 30
0.0
 11
148.8264152703745
 21
208.9502876762885
 31
0.0
  0
LINE
  5
B6D8
330
1F
100
AcDbEntity
  8
AM_0
100
AcDbLine
 10
146.3264138703745
 20
198.4502876762885
 30
0.0
 11
146.3264138703745
 21
209.4502876762885
 31
0.0
  0
LINE
  5
B6D9
330
1F
100
AcDbEntity
  8
AM_0
100
AcDbLine
 10
148.8264152703745
 20
208.9502876762885
 30
0.0
 11
161.3264147703745
 21
208.9502876762885
 31
0.0
  0
LINE
  5
B6DA
330
1F
100
AcDbEntity
  8
AM_0
100
AcDbLine
 10
148.3264152703745
 20
211.4502876762885
 30
0.0
 11
161.3264147703745
 21
211.4502876762885
 31
0.0
  0
LINE
  5
B6DB
330
1F
100
AcDbEntity
  8
AM_0
100
AcDbLine
 10
143.3264133703745
 20
121.2864166530494
 30
0.0
 11
143.3264133703745
 21
99.28641713304937
 31
0.0
  0
LINE
  5
B6DC
330
1F
100
AcDbEntity
  8
AM_0
100
AcDbLine
 10
131.8264143703745
 20
99.28641713304937
 30
0.0
 11
143.3264133703745
 21
99.28641713304937
 31
0.0
  0
LINE
  5
B6DD
330
1F
100
AcDbEntity
  8
AM_0
100
AcDbLine
 10
161.3264147703745
 20
188.4502916762885
 30
0.0
 11
161.3264147703745
 21
190.9502916762885
 31
0.0
  0
LINE
  5
B6DF
330
1F
100
AcDbEntity
  8
AM_0
100
AcDbLine
 10
141.9361853703745
 20
190.9502916762885
 30
0.0
 11
161.3264147703745
 21
190.9502916762885
 31
0.0
  0
LINE
  5
B6E6
330
1F
100
AcDbEntity
  8
AM_0
100
AcDbLine
 10
161.3264147703745
 20
121.2864166530494
 30
0.0
 11
161.3264147703745
 21
41.28641865304937
 31
0.0
  0
LINE
  5
B6E7
330
1F
100
AcDbEntity
  8
AM_0
100
AcDbLine
 10
148.8264252703745
 20
206.9502976762885
 30
0.0
 11
150.8264114703745
 21
208.9502876762885
 31
0.0
  0
LINE
  5
B6E8
330
1F
100
AcDbEntity
  8
AM_0
100
AcDbLine
 10
145.3264383703745
 20
198.4502876762885
 30
0.0
 11
146.3264405703745
 21
199.4502876762885
 31
0.0
  0
LINE
  5
B6EB
330
1F
100
AcDbEntity
  8
AM_0
100
AcDbLine
 10
140.4886920305429
 20
195.9502876762885
 30
0.0
 11
146.8264138703745
 21
195.9502876762885
 31
0.0
  0
LINE
  5
B6F0
330
1F
100
AcDbEntity
  8
AM_0
100
AcDbLine
 10
142.6072693703745
 20
195.4872676762885
 30
0.0
 11
140.3263793703745
 21
193.9503476762885
 31
0.0
  0
CIRCLE
  5
B6F1
330
1F
100
AcDbEntity
  8
AM_0
100
AcDbCircle
 10
155.3264147303745
 20
111.2864166530493
 30
0.0
 40
2.25
  0
CIRCLE
  5
B6F2
330
1F
100
AcDbEntity
  8
AM_0
100
AcDbCircle
 10
155.3264147303745
 20
91.28641765304937
 30
0.0
 40
2.25
  0
ARC
  5
B6F3
330
1F
100
AcDbEntity
  8
AM_0
100
AcDbCircle
 10
137.3264143703745
 20
193.9502876762885
 30
0.0
 40
3.0
100
AcDbArc
 50
54.90319877241541
 51
0.0
  0
ARC
  5
B6F4
330
1F
100
AcDbEntity
  8
AM_0
100
AcDbCircle
 10
137.3264143703745
 20
193.9502876762885
 30
0.0
 40
5.5
100
AcDbArc
 50
54.90320299999957
 51
21.323687
  0
ARC
  5
B6F5
330
1F
100
AcDbEntity
  8
AM_0
100
AcDbCircle
 10
137.3264143703745
 20
47.84891865304937
 30
0.0
 40
8.5625
100
AcDbArc
 50
230.0337199999999
 51
309.9661699999992
  0
ARC
  5
B6F6
330
1F
100
AcDbEntity
  8
AM_0
100
AcDbCircle
 10
137.3264143703745
 20
114.7239166530493
 30
0.0
 40
8.5625
100
AcDbArc
 50
50.03378699999989
 51
129.9662299999993
  0
ARC
  5
B6F7
330
1F
100
AcDbEntity
  8
AM_0
100
AcDbCircle
 10
146.8264138703745
 20
197.9502876762885
 30
0.0
 40
2.0
100
AcDbArc
 50
270.0000299999997
 51
0.0
  0
ARC
  5
B6F8
330
1F
100
AcDbEntity
  8
AM_0
100
AcDbCircle
 10
148.3264152703745
 20
209.4502876762885
 30
0.0
 40
2.0
100
AcDbArc
 50
89.99997299999956
 51
180.0
  0
CIRCLE
  5
B6F9
330
1F
100
AcDbEntity
  8
AM_0
100
AcDbCircle
 10
155.3264147303745
 20
51.28641865304937
 30
0.0
 40
2.25
  0
CIRCLE
  5
B6FA
330
1F
100
AcDbEntity
  8
AM_0
100
AcDbCircle
 10
155.3264147303745
 20
71.28641465304937
 30
0.0
 40
2.25
  0
ARC
  5
B6FD
330
1F
100
AcDbEntity
  8
0
  6
DASHED
 62
     7
100
AcDbCircle
 10
137.3264143703745
 20
193.9502876762885
 30
0.0
 40
3.0
100
AcDbArc
 50
0.0001457107001225
 51
53.13013099999952
  0
MTEXT
  5
BB21
330
1F
100
AcDbEntity
  8
AM_6
100
AcDbMText
 10
9.999999221833149
 20
268.9999996530494
 30
0.0
 40
3.2
 41
20.0
 71
     5
 72
     5
  1
品　名
 73
     1
 44
1.0
1001
ACAD
1000
MTEXTBEGIN
1070
    73
1070
     1
1070
    44
1040
1.0
1070
    74
1070
     0
1000
MTEXTEND
  0
MTEXT
  5
BB22
330
1F
100
AcDbEntity
  8
AM_6
100
AcDbMText
 10
9.999999221833149
 20
260.9999996530494
 30
0.0
 40
3.2
 41
20.0
 71
     5
 72
     5
  1
品　番
 73
     1
 44
1.0
1001
ACAD
1000
MTEXTBEGIN
1070
    73
1070
     1
1070
    44
1040
1.0
1070
    74
1070
     0
1000
MTEXTEND
  0
MTEXT
  5
BB23
330
1F
100
AcDbEntity
  8
AM_6
100
AcDbMText
 10
9.999999221833149
 20
252.9999996530494
 30
0.0
 40
3.2
 41
20.0
 71
     5
 72
     5
  1
材　質
 73
     1
 44
1.0
1001
ACAD
1000
MTEXTBEGIN
1070
    73
1070
     1
1070
    44
1040
1.0
1070
    74
1070
     0
1000
MTEXTEND
  0
MTEXT
  5
BB24
330
1F
100
AcDbEntity
  8
AM_6
100
AcDbMText
 10
9.999999221833149
 20
244.9999996530494
 30
0.0
 40
3.2
 41
20.0
 71
     5
 72
     5
  1
仕上げ
 73
     1
 44
1.0
1001
ACAD
1000
MTEXTBEGIN
1070
    73
1070
     1
1070
    44
1040
1.0
1070
    74
1070
     0
1000
MTEXTEND
  0
MTEXT
  5
BB25
330
1F
100
AcDbEntity
  8
AM_6
100
AcDbMText
 10
9.999999221833149
 20
236.9999996530494
 30
0.0
 40
3.2
 41
20.0
 71
     5
 72
     5
  1
左右勝手
 73
     1
 44
1.0
1001
ACAD
1000
MTEXTBEGIN
1070
    73
1070
     1
1070
    44
1040
1.0
1070
    74
1070
     0
1000
MTEXTEND
  0
MTEXT
  5
BB26
330
1F
100
AcDbEntity
  8
AM_6
100
AcDbMText
 10
19.99999922183315
 20
268.9999996530494
 30
0.0
 40
3.2
 41
90.0
 71
     4
 72
     5
  1
  隠し丁番
 73
     1
 44
1.0
1001
ACAD
1000
MTEXTBEGIN
1070
    73
1070
     1
1070
    44
1040
1.0
1070
    74
1070
     0
1000
MTEXTEND
  0
MTEXT
  5
BB27
330
1F
100
AcDbEntity
  8
AM_6
100
AcDbMText
 10
19.99999922183315
 20
260.9999996530494
 30
0.0
 40
3.2
 41
90.0
 71
     4
 72
     5
  1
  DH-69T
 73
     1
 44
1.0
1001
ACAD
1000
MTEXTBEGIN
1070
    73
1070
     1
1070
    44
1040
1.0
1070
    74
1070
     0
1000
MTEXTEND
  0
MTEXT
  5
BB28
330
1F
100
AcDbEntity
  8
AM_6
100
AcDbMText
 10
19.99999922183315
 20
252.9999996530494
 30
0.0
 40
3.2
 41
90.0
 71
     4
 72
     5
  1
  羽根・軸：ステンレス
 73
     1
 44
1.0
1001
ACAD
1000
MTEXTBEGIN
1070
    73
1070
     1
1070
    44
1040
1.0
1070
    74
1070
     0
1000
MTEXTEND
  0
MTEXT
  5
BB29
330
1F
100
AcDbEntity
  8
AM_6
100
AcDbMText
 10
19.99999922183315
 20
244.9999996530494
 30
0.0
 40
3.2
 41
90.0
 71
     4
 72
     5
  1
  羽根：バレル研磨／軸：生地
 73
     1
 44
1.0
1001
ACAD
1000
MTEXTBEGIN
1070
    73
1070
     1
1070
    44
1040
1.0
1070
    74
1070
     0
1000
MTEXTEND
  0
MTEXT
  5
BB2A
330
1F
100
AcDbEntity
  8
AM_6
100
AcDbMText
 10
19.99999922183315
 20
236.9999996530494
 30
0.0
 40
3.2
 41
90.0
 71
     4
 72
     5
  1
  無し
 73
     1
 44
1.0
1001
ACAD
1000
MTEXTBEGIN
1070
    73
1070
     1
1070
    44
1040
1.0
1070
    74
1070
     0
1000
MTEXTEND
  0
ARC
  5
BB57
330
1F
100
AcDbEntity
  8
AM_0
100
AcDbCircle
 10
140.4886920305429
 20
198.4502876762885
 30
0.0
 40
2.5
100
AcDbArc
 50
234.9031987724154
 51
270.0
1001
GENIUS_GENODEF_13
1002
{
1000
HIER
1070
     0
1002
}
1002
{
1000
MANEDIT
1070
     0
1002
}
1002
{
1000
NOSEL
1070
     0
1002
}
1002
{
1000
BEHIND
1070
     0
1002
}
1002
{
1000
OTHER
1070
     0
1002
}
1002
{
1000
REACTOR
1002
}
1001
GENIUS_GENOBJ-N-FIL_13
1002
{
1000
OWNER
1000
GEN
1002
}
  0
LINE
  5
BB58
330
1F
100
AcDbEntity
  8
AM_7
 48
0.5
100
AcDbLine
 10
128.8264143703745
 20
193.9502876762885
 30
0.0
 11
145.8264143703745
 21
193.9502876762885
 31
0.0
1001
GENIUS_GENODEF_13
1002
{
1000
HIER
1070
     0
1002
}
1002
{
1000
MANEDIT
1070
     0
1002
}
1002
{
1000
NOSEL
1070
     0
1002
}
1002
{
1000
BEHIND
1070
     0
1002
}
1002
{
1000
OTHER
1070
     0
1002
}
1002
{
1000
REACTOR
1002
}
1001
GENIUS_GENOBJ-N-CEN_13
1002
{
1000
OWNER
1000
GEN
1002
}
1001
GENIUS_GENCEN_19
1002
{
1040
3.0
1002
}
  0
LINE
  5
BB59
330
1F
100
AcDbEntity
  8
AM_7
 48
0.5
100
AcDbLine
 10
137.3264143703745
 20
202.4502876762885
 30
0.0
 11
137.3264143703745
 21
185.4502876762885
 31
0.0
1001
GENIUS_GENODEF_13
1002
{
1000
HIER
1070
     0
1002
}
1002
{
1000
MANEDIT
1070
     0
1002
}
1002
{
1000
NOSEL
1070
     0
1002
}
1002
{
1000
BEHIND
1070
     0
1002
}
1002
{
1000
OTHER
1070
     0
1002
}
1002
{
1000
REACTOR
1002
}
1001
GENIUS_GENOBJ-N-CEN_13
1002
{
1000
OWNER
1000
GEN
1002
}
1001
GENIUS_GENCEN_19
1002
{
1040
3.0
1002
}
  0
LINE
  5
BB5A
330
1F
100
AcDbEntity
  8
AM_7
 48
0.4
100
AcDbLine
 10
155.3264147303745
 20
205.9502876762885
 30
0.0
 11
155.3264147303745
 21
214.4502876762885
 31
0.0
1001
GENIUS_GENODEF_13
1002
{
1000
HIER
1070
     0
1002
}
1002
{
1000
MANEDIT
1070
     0
1002
}
1002
{
1000
NOSEL
1070
     0
1002
}
1002
{
1000
BEHIND
1070
     0
1002
}
1002
{
1000
OTHER
1070
     0
1002
}
1002
{
1000
REACTOR
1002
}
1001
GENIUS_GENOBJ-N-CEN_13
1002
{
1000
OWNER
1000
GEN
1002
}
1001
GENIUS_GENCEN_19
1002
{
1040
3.0
1002
}
  0
LINE
  5
BB5B
330
1F
100
AcDbEntity
  8
AM_7
 48
0.4
100
AcDbLine
 10
155.3264147303745
 20
193.9502916762885
 30
0.0
 11
155.3264147303745
 21
185.4502916762885
 31
0.0
1001
GENIUS_GENODEF_13
1002
{
1000
HIER
1070
     0
1002
}
1002
{
1000
MANEDIT
1070
     0
1002
}
1002
{
1000
NOSEL
1070
     0
1002
}
1002
{
1000
BEHIND
1070
     0
1002
}
1002
{
1000
OTHER
1070
     0
1002
}
1002
{
1000
REACTOR
1002
}
1001
GENIUS_GENOBJ-N-CEN_13
1002
{
1000
OWNER
1000
GEN
1002
}
1001
GENIUS_GENCEN_19
1002
{
1040
3.0
1002
}
  0
LINE
  5
BB5D
330
1F
100
AcDbEntity
  8
AM_7
100
AcDbLine
 10
137.3264143703745
 20
36.28641865304937
 30
0.0
 11
137.3264143703745
 21
126.2864166530494
 31
0.0
1001
GENIUS_GENODEF_13
1002
{
1000
HIER
1070
     0
1002
}
1002
{
1000
MANEDIT
1070
     0
1002
}
1002
{
1000
NOSEL
1070
     0
1002
}
1002
{
1000
BEHIND
1070
     0
1002
}
1002
{
1000
OTHER
1070
     0
1002
}
1002
{
1000
REACTOR
1002
}
1001
GENIUS_GENOBJ-N-CEN_13
1002
{
1000
OWNER
1000
GEN
1002
}
1001
GENIUS_GENCEN_19
1002
{
1040
3.0
1002
}
  0
LINE
  5
BB5E
330
1F
100
AcDbEntity
  8
AM_7
100
AcDbLine
 10
155.3264147303745
 20
46.03641865304937
 30
0.0
 11
155.3264147303745
 21
116.5364166530493
 31
0.0
1001
GENIUS_GENOBJ-N-CEN_13
1002
{
1000
OWNER
1000
GEN
1002
}
1001
GENIUS_GENODEF_13
1002
{
1000
HIER
1070
     0
1002
}
1002
{
1000
MANEDIT
1070
     0
1002
}
1002
{
1000
NOSEL
1070
     0
1002
}
1002
{
1000
BEHIND
1070
     0
1002
}
1002
{
1000
OTHER
1070
     0
1002
}
1002
{
1000
REACTOR
1002
}
1001
GENIUS_GENCEN_19
1002
{
1040
3.0
1002
}
  0
LINE
  5
BB5F
330
1F
100
AcDbEntity
  8
AM_7
 48
0.5
100
AcDbLine
 10
150.0764147303745
 20
111.2864166530493
 30
0.0
 11
160.5764147303745
 21
111.2864166530493
 31
0.0
1001
GENIUS_GENOBJ-N-CEN_13
1002
{
1000
OWNER
1000
GEN
1002
}
1001
GENIUS_GENODEF_13
1002
{
1000
HIER
1070
     0
1002
}
1002
{
1000
MANEDIT
1070
     0
1002
}
1002
{
1000
NOSEL
1070
     0
1002
}
1002
{
1000
BEHIND
1070
     0
1002
}
1002
{
1000
OTHER
1070
     0
1002
}
1002
{
1000
REACTOR
1002
}
1001
GENIUS_GENCEN_19
1002
{
1040
3.0
1002
}
  0
LINE
  5
BB60
330
1F
100
AcDbEntity
  8
AM_7
 48
0.5
100
AcDbLine
 10
150.0764147303745
 20
91.28641765304937
 30
0.0
 11
160.5764147303745
 21
91.28641765304937
 31
0.0
1001
GENIUS_GENOBJ-N-CEN_13
1002
{
1000
OWNER
1000
GEN
1002
}
1001
GENIUS_GENODEF_13
1002
{
1000
HIER
1070
     0
1002
}
1002
{
1000
MANEDIT
1070
     0
1002
}
1002
{
1000
NOSEL
1070
     0
1002
}
1002
{
1000
BEHIND
1070
     0
1002
}
1002
{
1000
OTHER
1070
     0
1002
}
1002
{
1000
REACTOR
1002
}
1001
GENIUS_GENCEN_19
1002
{
1040
3.0
1002
}
  0
LINE
  5
BB61
330
1F
100
AcDbEntity
  8
AM_7
 48
0.5
100
AcDbLine
 10
150.0764147303745
 20
71.28641465304937
 30
0.0
 11
160.5764147303745
 21
71.28641465304937
 31
0.0
1001
GENIUS_GENOBJ-N-CEN_13
1002
{
1000
OWNER
1000
GEN
1002
}
1001
GENIUS_GENODEF_13
1002
{
1000
HIER
1070
     0
1002
}
1002
{
1000
MANEDIT
1070
     0
1002
}
1002
{
1000
NOSEL
1070
     0
1002
}
1002
{
1000
BEHIND
1070
     0
1002
}
1002
{
1000
OTHER
1070
     0
1002
}
1002
{
1000
REACTOR
1002
}
1001
GENIUS_GENCEN_19
1002
{
1040
3.0
1002
}
  0
LINE
  5
BB62
330
1F
100
AcDbEntity
  8
AM_7
 48
0.5
100
AcDbLine
 10
150.0764147303745
 20
51.28641865304937
 30
0.0
 11
160.5764147303745
 21
51.28641865304937
 31
0.0
1001
GENIUS_GENOBJ-N-CEN_13
1002
{
1000
OWNER
1000
GEN
1002
}
1001
GENIUS_GENODEF_13
1002
{
1000
HIER
1070
     0
1002
}
1002
{
1000
MANEDIT
1070
     0
1002
}
1002
{
1000
NOSEL
1070
     0
1002
}
1002
{
1000
BEHIND
1070
     0
1002
}
1002
{
1000
OTHER
1070
     0
1002
}
1002
{
1000
REACTOR
1002
}
1001
GENIUS_GENCEN_19
1002
{
1040
3.0
1002
}
  0
DIMENSION
  5
BB63
330
1F
100
AcDbEntity
  8
AM_5
100
AcDbDimension
  2
*D6
 10
173.3264157703745
 20
91.28641765304937
 30
0.0
 11
170.2264157703745
 21
81.28641615304941
 31
0.0
 70
    32
 71
     5
 42
20.00000299999999
  3
SYS$0
100
AcDbAlignedDimension
 13
160.5764147303745
 23
71.28641465304937
 33
0.0
 14
160.5764147303745
 24
91.28641765304937
 34
0.0
 50
90.0
100
AcDbRotatedDimension
  0
DIMENSION
  5
BB79
330
1F
100
AcDbEntity
  8
AM_5
100
AcDbDimension
  2
*D7
 10
173.3264157703746
 20
51.28641865304937
 30
0.0
 11
170.2264157703746
 21
61.2864166530494
 31
0.0
 70
    32
 71
     5
 42
19.99999600000001
  3
SYS$0
100
AcDbAlignedDimension
 13
160.5764147303745
 23
71.28641465304937
 33
0.0
 14
160.5764147303745
 24
51.28641865304937
 34
0.0
 50
90.0
100
AcDbRotatedDimension
  0
DIMENSION
  5
BB8F
330
1F
100
AcDbEntity
  8
AM_5
100
AcDbDimension
  2
*D8
 10
173.3264157703746
 20
111.2864166530493
 30
0.0
 11
170.2264157703745
 21
101.2864171530494
 31
0.0
 70
    32
 71
     5
 42
19.999999
  3
SYS$0
100
AcDbAlignedDimension
 13
160.5764147303745
 23
91.28641765304937
 33
0.0
 14
160.5764147303745
 24
111.2864166530493
 34
0.0
 50
90.0
100
AcDbRotatedDimension
  0
DIMENSION
  5
BBA5
330
1F
100
AcDbEntity
  8
AM_5
100
AcDbDimension
  2
*D9
 10
183.3264157703746
 20
121.2864166530494
 30
0.0
 11
180.2264157703746
 21
81.28641765304939
 31
0.0
 70
    32
 71
     5
 42
79.99999800000001
  3
SYS$0
100
AcDbAlignedDimension
 13
161.3264147703745
 23
41.28641865304937
 33
0.0
 14
161.3264147703745
 24
121.2864166530494
 34
0.0
 50
90.0
100
AcDbRotatedDimension
  0
LINE
  5
BBBB
330
1F
100
AcDbEntity
  8
AM_7
100
AcDbLine
 10
128.8264143703745
 20
81.28641765304937
 30
0.0
 11
164.3264147703745
 21
81.28641765304937
 31
0.0
1001
GENIUS_GENOBJ-N-CEN_13
1002
{
1000
OWNER
1000
GEN
1002
}
1001
GENIUS_GENODEF_13
1002
{
1000
HIER
1070
     0
1002
}
1002
{
1000
MANEDIT
1070
     0
1002
}
1002
{
1000
NOSEL
1070
     0
1002
}
1002
{
1000
BEHIND
1070
     0
1002
}
1002
{
1000
OTHER
1070
     0
1002
}
1002
{
1000
REACTOR
1002
}
1001
GENIUS_GENCEN_19
1002
{
1040
3.0
1002
}
  0
LINE
  5
BC9E
330
1F
100
AcDbEntity
  8
AM_5
100
AcDbLine
 10
158.0932337162234
 20
114.512437840138
 30
0.0
 11
169.211084237563
 21
127.4754909058311
 31
0.0
  0
LINE
  5
BC9F
330
1F
100
AcDbEntity
  8
AM_5
100
AcDbLine
 10
169.211084237563
 20
127.4754909058311
 30
0.0
 11
183.4277509042296
 21
127.4754909058312
 31
0.0
  0
LINE
  5
BCA0
330
1F
100
AcDbEntity
  8
AM_5
100
AcDbLine
 10
153.8616282084544
 20
109.5785230834141
 30
0.0
 11
156.7912012522944
 21
112.9943102226845
 31
0.0
  0
INSERT
  5
BCA2
330
1F
100
AcDbEntity
  8
AM_5
100
AcDbBlockReference
  2
GENDOT
 10
156.7912012522944
 20
112.9943102226845
 30
0.0
 41
2.000000000000001
 42
2.0
 43
2.0
 50
229.3817347032989
  0
MTEXT
  5
BCA3
330
1F
100
AcDbEntity
  8
AM_5
 62
     2
100
AcDbMText
 10
177.0694175708962
 20
130.7254909058312
 30
0.0
 40
3.5
 41
0.0
 71
     5
 72
     1
  1
8-\U+22054.5
 73
     1
 44
1.0
1001
ACAD
1000
MTEXTBEGIN
1070
    73
1070
     1
1070
    44
1040
1.0
1070
    74
1070
     0
1000
MTEXTEND
  0
LWPOLYLINE
  5
BCA5
330
1F
100
AcDbEntity
  8
AM_5
100
AcDbPolyline
 90
        2
 70
     1
 43
0.5
 10
153.6988741504633
 20
109.3887571312324
 42
1.0
 10
154.0243822664455
 20
109.7682890355957
 42
1.0
  0
DIMENSION
  5
BCA8
330
1F
100
AcDbEntity
  8
AM_5
100
AcDbDimension
  2
*D10
 10
155.3264147303745
 20
176.4502866662885
 30
0.0
 11
146.3264145503745
 21
179.5502866662885
 31
0.0
 70
    32
 71
     5
 42
18.00000036
  3
SYS$0
100
AcDbAlignedDimension
 13
137.3264143703745
 23
185.4502876762885
 33
0.0
 14
155.3264147303745
 24
185.4502916762885
 34
0.0
 50
0.0000000000001018
100
AcDbRotatedDimension
  0
DIMENSION
  5
BCBE
330
1F
100
AcDbEntity
  8
AM_5
100
AcDbDimension
  2
*D11
 10
161.3264147703745
 20
166.4502866662884
 30
0.0
 11
149.3264145703745
 21
169.5502866662884
 31
0.0
 70
    32
 71
     5
 42
24.00000040000001
  3
SYS$0
100
AcDbAlignedDimension
 13
137.3264143703745
 23
185.4502876762885
 33
0.0
 14
161.3264147703745
 24
188.4502916762885
 34
0.0
 50
0.0000000000001018
100
AcDbRotatedDimension
  0
DIMENSION
  5
BCF1
330
1F
100
AcDbEntity
  8
AM_5
100
AcDbDimension
  2
*D12
 10
139.4543289871121
 20
199.0219717539765
 30
0.0
 11
125.5490634484968
 21
175.9896939799911
 31
0.0
 70
   163
 71
     5
 42
11.00000000000008
  3
SYS$3
100
AcDbDiametricDimension
 15
135.1984997536367
 25
188.8786035986003
 35
0.0
 40
0.0
1001
ACAD
1000
DSTYLE
1002
{
1070
   172
1070
     1
1070
   289
1070
     2
1070
   342
1005
B912
1002
}
  0
DIMENSION
  5
BD1D
330
1F
100
AcDbEntity
  8
AM_5
100
AcDbDimension
  2
*D13
 10
183.3264147703745
 20
188.4502916762885
 30
0.0
 11
180.2264147703745
 21
183.6036250096218
 31
0.0
 70
    32
 71
     5
 42
5.49999600000001
  3
SYS$0
100
AcDbAlignedDimension
 13
145.8264143703745
 23
193.9502876762885
 33
0.0
 14
161.3264147703745
 24
188.4502916762885
 34
0.0
 50
90.0
100
AcDbRotatedDimension
  0
DIMENSION
  5
BD35
330
1F
100
AcDbEntity
  8
AM_5
100
AcDbDimension
  2
*D14
 10
183.3264147703746
 20
211.4502876762885
 30
0.0
 11
180.2264147703746
 21
202.7002876762885
 31
0.0
 70
    32
 71
     5
 42
17.5
  3
SYS$0
100
AcDbAlignedDimension
 13
145.8264143703745
 23
193.9502876762885
 33
0.0
 14
161.3264147703745
 24
211.4502876762885
 34
0.0
 50
90.0
100
AcDbRotatedDimension
  0
DIMENSION
  5
BD4B
330
1F
100
AcDbEntity
  8
AM_5
100
AcDbDimension
  2
*D15
 10
137.3264143703745
 20
233.4502886862885
 30
0.0
 11
146.3264145503745
 21
236.5502886862885
 31
0.0
 70
    32
 71
     5
 42
18.00000036
  3
SYS$0
100
AcDbAlignedDimension
 13
155.3264147303745
 23
214.4502876762885
 33
0.0
 14
137.3264143703745
 24
202.4502876762885
 34
0.0
100
AcDbRotatedDimension
  0
DIMENSION
  5
BD61
330
1F
100
AcDbEntity
  8
AM_5
100
AcDbDimension
  2
*D16
 10
146.3264152703745
 20
223.4502886862884
 30
0.0
 11
141.8264148203745
 21
226.5502886862884
 31
0.0
 70
    32
 71
     5
 42
9.000000900000003
  3
SYS$0
100
AcDbAlignedDimension
 13
137.3264143703745
 23
202.4502876762885
 33
0.0
 14
146.3264152703745
 24
209.4502876762885
 34
0.0
100
AcDbRotatedDimension
  0
LINE
  5
BE51
330
1F
100
AcDbEntity
  8
AM_11
100
AcDbLine
 10
343.1846682290019
 20
96.06716305109607
 30
0.0
 11
343.1846682290019
 21
70.56716305109607
 31
0.0
  0
LINE
  5
BE52
330
1F
100
AcDbEntity
  8
AM_11
100
AcDbLine
 10
341.1846682290019
 20
96.06716305109607
 30
0.0
 11
341.1846682290019
 21
70.56716305109607
 31
0.0
  0
LINE
  5
BE53
330
1F
100
AcDbEntity
  8
AM_11
100
AcDbLine
 10
245.1846682290019
 20
70.56716305109607
 30
0.0
 11
245.1846682290019
 21
81.06716305109619
 31
0.0
  0
LINE
  5
BE54
330
1F
100
AcDbEntity
  8
AM_11
100
AcDbLine
 10
247.1846682290023
 20
70.56716305109607
 30
0.0
 11
247.1846682290023
 21
81.06716305109619
 31
0.0
  0
LINE
  5
BE61
330
1F
100
AcDbEntity
  8
AM_11
100
AcDbLine
 10
341.1846682290019
 20
98.06716305109608
 30
0.0
 11
290.1846682290019
 21
98.06716305109608
 31
0.0
  0
LINE
  5
BE62
330
1F
100
AcDbEntity
  8
AM_11
100
AcDbLine
 10
290.1846682290019
 20
96.06716305109607
 30
0.0
 11
341.1846682290019
 21
96.06716305109607
 31
0.0
  0
LINE
  5
BE63
330
1F
100
AcDbEntity
  8
AM_11
100
AcDbLine
 10
290.1846682290019
 20
81.06716305109619
 30
0.0
 11
247.1846682290023
 21
81.06716305109619
 31
0.0
  0
LINE
  5
BE64
330
1F
100
AcDbEntity
  8
AM_11
100
AcDbLine
 10
290.1846682290019
 20
83.06716305109596
 30
0.0
 11
247.1846682290023
 21
83.06716305109596
 31
0.0
  0
ARC
  5
BE65
330
1F
100
AcDbEntity
  8
AM_11
100
AcDbCircle
 10
247.1846682290023
 20
81.06716305109619
 30
0.0
 40
2.0
100
AcDbArc
 50
90.0
 51
180.0
  0
ARC
  5
BE66
330
1F
100
AcDbEntity
  8
AM_11
100
AcDbCircle
 10
341.1846682290019
 20
96.06716305109607
 30
0.0
 40
2.0
100
AcDbArc
 50
0.0
 51
90.0
  0
LINE
  5
BE67
330
1F
100
AcDbEntity
  8
AM_11
100
AcDbLine
 10
292.1846682290022
 20
83.06716305109596
 30
0.0
 11
292.1846682290022
 21
96.06716305109607
 31
0.0
  0
LINE
  5
BE68
330
1F
100
AcDbEntity
  8
AM_11
100
AcDbLine
 10
290.1846682290019
 20
83.06716305079582
 30
0.0
 11
290.1846682290019
 21
96.06716305109607
 31
0.0
  0
LINE
  5
BE69
330
1F
100
AcDbEntity
  8
AM_11
100
AcDbLine
 10
288.1846682290019
 20
96.06716305109607
 30
0.0
 11
288.1846682290019
 21
83.06716305109596
 31
0.0
  0
ARC
  5
BE6A
330
1F
100
AcDbEntity
  8
AM_11
100
AcDbCircle
 10
290.1846682290019
 20
83.06716305109596
 30
0.0
 40
2.0
100
AcDbArc
 50
270.0
 51
0.0
  0
ARC
  5
BE6B
330
1F
100
AcDbEntity
  8
AM_11
100
AcDbCircle
 10
290.1846682290019
 20
96.06716305109607
 30
0.0
 40
2.0
100
AcDbArc
 50
90.0
 51
180.0
  0
LINE
  5
BE77
330
1F
100
AcDbEntity
  8
AM_11
100
AcDbLine
 10
286.7197886374022
 20
78.76716305230279
 30
0.0
 11
266.7197886374022
 21
81.06716305230298
 31
0.0
  0
LINE
  5
BE78
330
1F
100
AcDbEntity
  8
AM_11
100
AcDbLine
 10
266.7197886374022
 20
81.06716305230298
 30
0.0
 11
266.7197886374022
 21
78.76716305230279
 31
0.0
  0
LINE
  5
BE79
330
1F
100
AcDbEntity
  8
AM_11
100
AcDbLine
 10
266.7197886374022
 20
78.76716305230279
 30
0.0
 11
286.7197886374022
 21
78.76716305230279
 31
0.0
  0
LINE
  5
BE7A
330
1F
100
AcDbEntity
  8
AM_11
100
AcDbLine
 10
286.7197886374022
 20
78.76716305230279
 30
0.0
 11
286.7197886374022
 21
81.06716305230298
 31
0.0
  0
LINE
  5
BE7B
330
1F
100
AcDbEntity
  8
AM_11
100
AcDbLine
 10
286.7197886374022
 20
81.06716305230298
 30
0.0
 11
266.7197886374022
 21
81.06716305230298
 31
0.0
  0
LINE
  5
BE95
330
1F
100
AcDbEntity
  8
AM_11
100
AcDbLine
 10
272.1846682290022
 20
141.9671630510962
 30
0.0
 11
272.1846682290022
 21
128.5671630510961
 31
0.0
  0
LINE
  5
BE96
330
1F
100
AcDbEntity
  8
AM_11
100
AcDbLine
 10
272.1846682290022
 20
128.5671630510961
 30
0.0
 11
273.7846682290019
 21
128.5671630510961
 31
0.0
  0
LINE
  5
BE97
330
1F
100
AcDbEntity
  8
AM_11
100
AcDbLine
 10
273.7846682290019
 20
128.5671630510961
 30
0.0
 11
273.7846682290019
 21
141.9671630510962
 31
0.0
  0
LINE
  5
BE98
330
1F
100
AcDbEntity
  8
AM_11
100
AcDbLine
 10
273.7846682290019
 20
141.9671630510962
 30
0.0
 11
281.5846682290022
 21
141.9671630510962
 31
0.0
  0
LINE
  5
BE99
330
1F
100
AcDbEntity
  8
AM_11
100
AcDbLine
 10
281.5846682290022
 20
141.9671630510962
 30
0.0
 11
281.5846682290022
 21
128.5671630510961
 31
0.0
  0
LINE
  5
BE9A
330
1F
100
AcDbEntity
  8
AM_11
100
AcDbLine
 10
281.5846682290022
 20
128.5671630510961
 30
0.0
 11
283.1846682290019
 21
128.5671630510961
 31
0.0
  0
LINE
  5
BE9B
330
1F
100
AcDbEntity
  8
AM_11
100
AcDbLine
 10
283.1846682290019
 20
128.5671630510961
 30
0.0
 11
283.1846682290019
 21
141.9671630510962
 31
0.0
  0
ARC
  5
BE9C
330
1F
100
AcDbEntity
  8
AM_11
100
AcDbCircle
 10
281.5846682290022
 20
141.9671630510962
 30
0.0
 40
1.599999999999994
100
AcDbArc
 50
0.0
 51
90.0
  0
LINE
  5
BE9D
330
1F
100
AcDbEntity
  8
AM_11
100
AcDbLine
 10
281.5846682290022
 20
143.5671630510962
 30
0.0
 11
273.7846682290019
 21
143.5671630510962
 31
0.0
  0
LINE
  5
BE9E
330
1F
100
AcDbEntity
  8
AM_11
100
AcDbLine
 10
273.7846682290019
 20
143.5671630510962
 30
0.0
 11
272.1846682290022
 21
141.9671630510962
 31
0.0
  0
LINE
  5
BE9F
330
1F
100
AcDbEntity
  8
AM_11
100
AcDbLine
 10
285.1846682290023
 20
126.9671630510961
 30
0.0
 11
285.1846682290023
 21
185.0671630510961
 31
0.0
  0
LINE
  5
BEA0
330
1F
100
AcDbEntity
  8
AM_11
100
AcDbLine
 10
245.1846682290018
 20
141.9671630510962
 30
0.0
 11
245.1846682290018
 21
185.0671630510961
 31
0.0
  0
LINE
  5
BEA1
330
1F
100
AcDbEntity
  8
AM_11
100
AcDbLine
 10
285.1846682290023
 20
93.0671630510961
 30
0.0
 11
283.5846682290021
 21
93.0671630510961
 31
0.0
  0
LINE
  5
BEA2
330
1F
100
AcDbEntity
  8
AM_11
100
AcDbLine
 10
283.5846682290021
 20
93.0671630510961
 30
0.0
 11
283.5846682290021
 21
126.9671630510961
 31
0.0
  0
LINE
  5
BEA3
330
1F
100
AcDbEntity
  8
AM_11
100
AcDbLine
 10
283.5846682290021
 20
126.9671630510961
 30
0.0
 11
258.1846682290022
 21
126.9671630510961
 31
0.0
  0
ARC
  5
BEA4
330
1F
100
AcDbEntity
  8
AM_11
100
AcDbCircle
 10
258.1846682290022
 20
128.5671630510961
 30
0.0
 40
1.600000000000006
100
AcDbArc
 50
180.0000000000008
 51
270.0
  0
LINE
  5
BEA5
330
1F
100
AcDbEntity
  8
AM_11
100
AcDbLine
 10
256.5846682290022
 20
128.5671630510961
 30
0.0
 11
256.5846682290022
 21
141.9671630510962
 31
0.0
  0
LINE
  5
BEA6
330
1F
100
AcDbEntity
  8
AM_11
100
AcDbLine
 10
256.5846682290022
 20
141.9671630510962
 30
0.0
 11
246.784668229002
 21
141.9671630510962
 31
0.0
  0
LINE
  5
BEA7
330
1F
100
AcDbEntity
  8
AM_11
100
AcDbLine
 10
246.784668229002
 20
141.9671630510962
 30
0.0
 11
246.784668229002
 21
95.16716305109618
 31
0.0
  0
LINE
  5
BEA8
330
1F
100
AcDbEntity
  8
AM_11
100
AcDbLine
 10
246.784668229002
 20
95.16716305109618
 30
0.0
 11
246.784668229002
 21
103.5671630510962
 31
0.0
  0
LINE
  5
BEA9
330
1F
100
AcDbEntity
  8
AM_11
100
AcDbLine
 10
246.784668229002
 20
103.5671630510962
 30
0.0
 11
248.3846682290023
 21
103.5671630510962
 31
0.0
  0
LINE
  5
BEAA
330
1F
100
AcDbEntity
  8
AM_11
100
AcDbLine
 10
248.3846682290023
 20
103.5671630510962
 30
0.0
 11
248.3846682290023
 21
95.16716305109618
 31
0.0
  0
ARC
  5
BEAB
330
1F
100
AcDbEntity
  8
AM_11
100
AcDbCircle
 10
246.784668229002
 20
95.16716305109618
 30
0.0
 40
1.599999999999994
100
AcDbArc
 50
180.0000000000008
 51
359.9999999999992
  0
LINE
  5
BEAC
330
1F
100
AcDbEntity
  8
AM_11
100
AcDbLine
 10
245.1846682290021
 20
95.16716305109618
 30
0.0
 11
245.1846682290021
 21
141.9671630510962
 31
0.0
  0
ARC
  5
BEAD
330
1F
100
AcDbEntity
  8
AM_11
100
AcDbCircle
 10
246.784668229002
 20
141.9671630510962
 30
0.0
 40
1.599999999999994
100
AcDbArc
 50
90.0
 51
180.0
  0
LINE
  5
BEAE
330
1F
100
AcDbEntity
  8
AM_11
100
AcDbLine
 10
246.784668229002
 20
143.5671630510962
 30
0.0
 11
256.5846682290022
 21
143.5671630510962
 31
0.0
  0
ARC
  5
BEAF
330
1F
100
AcDbEntity
  8
AM_11
100
AcDbCircle
 10
256.5846682290022
 20
141.9671630510962
 30
0.0
 40
1.600000000000006
100
AcDbArc
 50
0.0000000000008142
 51
90.0
  0
LINE
  5
BEB0
330
1F
100
AcDbEntity
  8
AM_11
100
AcDbLine
 10
258.1846682290022
 20
141.9671630510962
 30
0.0
 11
258.1846682290022
 21
128.5671630510961
 31
0.0
  0
LINE
  5
BEB1
330
1F
100
AcDbEntity
  8
AM_11
100
AcDbLine
 10
258.1846682290022
 20
128.5671630510961
 30
0.0
 11
283.5846682290021
 21
128.5671630510961
 31
0.0
  0
ARC
  5
BEB2
330
1F
100
AcDbEntity
  8
AM_11
100
AcDbCircle
 10
283.5846682290021
 20
126.9671630510961
 30
0.0
 40
1.599999999999994
100
AcDbArc
 50
0.0
 51
90.0
  0
LINE
  5
BEB3
330
1F
100
AcDbEntity
  8
AM_11
100
AcDbLine
 10
285.1846682290023
 20
126.9671630510961
 30
0.0
 11
285.1846682290023
 21
93.0671630510961
 31
0.0
  0
LINE
  5
BEBE
330
1F
100
AcDbEntity
  8
AM_11
100
AcDbLine
 10
283.5846682290021
 20
120.067163051503
 30
0.0
 11
281.2846682290019
 21
120.067163051503
 31
0.0
  0
LINE
  5
BEBF
330
1F
100
AcDbEntity
  8
AM_11
100
AcDbLine
 10
281.2846682290019
 20
120.067163051503
 30
0.0
 11
281.2846682290019
 21
108.3671630523029
 31
0.0
  0
LINE
  5
BEC0
330
1F
100
AcDbEntity
  8
AM_11
100
AcDbLine
 10
281.2846682290019
 20
108.3671630523029
 30
0.0
 11
249.0846682290022
 21
108.3671630523029
 31
0.0
  0
LINE
  5
BEC1
330
1F
100
AcDbEntity
  8
AM_11
100
AcDbLine
 10
249.0846682290022
 20
108.3671630523029
 30
0.0
 11
249.0846682290022
 21
120.067163051503
 31
0.0
  0
LINE
  5
BEC2
330
1F
100
AcDbEntity
  8
AM_11
100
AcDbLine
 10
249.0846682290022
 20
120.067163051503
 30
0.0
 11
246.784668229002
 21
120.067163051503
 31
0.0
  0
LINE
  5
BEC3
330
1F
100
AcDbEntity
  8
AM_11
100
AcDbLine
 10
246.784668229002
 20
120.067163051503
 30
0.0
 11
246.784668229002
 21
108.3671630523029
 31
0.0
  0
ARC
  5
BEC4
330
1F
100
AcDbEntity
  8
AM_11
100
AcDbCircle
 10
249.0846682290022
 20
108.3671630523029
 30
0.0
 40
2.299999999999929
100
AcDbArc
 50
179.9999999999992
 51
270.0
  0
LINE
  5
BEC5
330
1F
100
AcDbEntity
  8
AM_11
100
AcDbLine
 10
249.0846682290022
 20
106.0671630523028
 30
0.0
 11
281.2846682290019
 21
106.0671630523028
 31
0.0
  0
ARC
  5
BEC6
330
1F
100
AcDbEntity
  8
AM_11
100
AcDbCircle
 10
281.2846682290019
 20
108.3671630523029
 30
0.0
 40
2.299999999999978
100
AcDbArc
 50
270.0
 51
359.9999999999992
  0
LINE
  5
BEC7
330
1F
100
AcDbEntity
  8
AM_11
100
AcDbLine
 10
283.5846682290021
 20
108.3671630523029
 30
0.0
 11
283.5846682290021
 21
120.067163052303
 31
0.0
  0
LINE
  5
BF09
330
1F
100
AcDbEntity
  8
AM_0
100
AcDbLine
 10
258.1846678690021
 20
106.0671630523028
 30
0.0
 11
282.184668269002
 21
106.0671630523028
 31
0.0
  0
LINE
  5
BF0A
330
1F
100
AcDbEntity
  8
AM_0
100
AcDbLine
 10
264.1846668690021
 20
106.0671630523028
 30
0.0
 11
264.1846668690021
 21
103.5671630523028
 31
0.0
  0
LINE
  5
BF0B
330
1F
100
AcDbEntity
  8
AM_0
100
AcDbLine
 10
261.3469448690021
 20
96.06716705230285
 30
0.0
 11
267.184667369002
 21
96.06716705230285
 31
0.0
  0
LINE
  5
BF0C
330
1F
100
AcDbEntity
  8
AM_0
100
AcDbLine
 10
282.184668269002
 20
85.56716705230284
 30
0.0
 11
282.184668269002
 21
83.06716705230284
 31
0.0
  0
LINE
  5
BF0D
330
1F
100
AcDbEntity
  8
AM_0
100
AcDbLine
 10
269.684668769002
 20
96.56716705230286
 30
0.0
 11
269.684668769002
 21
85.56716705230284
 31
0.0
  0
LINE
  5
BF0E
330
1F
100
AcDbEntity
  8
AM_0
100
AcDbLine
 10
267.184667369002
 20
96.06716705230285
 30
0.0
 11
267.184667369002
 21
85.06716705230285
 31
0.0
  0
LINE
  5
BF0F
330
1F
100
AcDbEntity
  8
AM_0
100
AcDbLine
 10
269.684668769002
 20
85.56716705230284
 30
0.0
 11
282.184668269002
 21
85.56716705230284
 31
0.0
  0
LINE
  5
BF10
330
1F
100
AcDbEntity
  8
AM_0
100
AcDbLine
 10
269.184668769002
 20
83.06716705230284
 30
0.0
 11
282.184668269002
 21
83.06716705230284
 31
0.0
  0
LINE
  5
BF11
330
1F
100
AcDbEntity
  8
AM_0
100
AcDbLine
 10
282.184668269002
 20
106.0671630523028
 30
0.0
 11
282.184668269002
 21
103.5671630523028
 31
0.0
  0
LINE
  5
BF12
330
1F
100
AcDbEntity
  8
AM_0
100
AcDbLine
 10
262.7944388690021
 20
103.5671630523028
 30
0.0
 11
282.184668269002
 21
103.5671630523028
 31
0.0
  0
LINE
  5
BF13
330
1F
100
AcDbEntity
  8
AM_0
100
AcDbLine
 10
269.684678769002
 20
87.56715705230284
 30
0.0
 11
271.684664969002
 21
85.56716705230284
 31
0.0
  0
LINE
  5
BF14
330
1F
100
AcDbEntity
  8
AM_0
100
AcDbLine
 10
266.184691869002
 20
96.06716705230285
 30
0.0
 11
267.184694069002
 21
95.06716705230285
 31
0.0
  0
LINE
  5
BF15
330
1F
100
AcDbEntity
  8
AM_0
100
AcDbLine
 10
261.3469455291704
 20
98.56716705230285
 30
0.0
 11
267.684667369002
 21
98.56716705230285
 31
0.0
  0
LINE
  5
BF16
330
1F
100
AcDbEntity
  8
AM_0
100
AcDbLine
 10
263.465522869002
 20
99.03018705230282
 30
0.0
 11
261.184632869002
 21
100.5671070523028
 31
0.0
  0
ARC
  5
BF17
330
1F
100
AcDbEntity
  8
AM_0
100
AcDbCircle
 10
258.1846678690021
 20
100.5671670523028
 30
0.0
 40
3.0
100
AcDbArc
 50
0.0
 51
305.0968012275827
  0
ARC
  5
BF18
330
1F
100
AcDbEntity
  8
AM_0
100
AcDbCircle
 10
261.3469455291704
 20
96.06716705230285
 30
0.0
 40
2.5
100
AcDbArc
 50
90.0
 51
125.0968012275827
1001
GENIUS_GENODEF_13
1002
{
1000
HIER
1070
     0
1002
}
1002
{
1000
MANEDIT
1070
     0
1002
}
1002
{
1000
NOSEL
1070
     0
1002
}
1002
{
1000
BEHIND
1070
     0
1002
}
1002
{
1000
OTHER
1070
     0
1002
}
1002
{
1000
REACTOR
1002
}
1001
GENIUS_GENOBJ-N-FIL_13
1002
{
1000
OWNER
1000
GEN
1002
}
  0
ARC
  5
BF19
330
1F
100
AcDbEntity
  8
AM_0
100
AcDbCircle
 10
258.1846678690021
 20
100.5671670523028
 30
0.0
 40
5.5
100
AcDbArc
 50
338.6763129999993
 51
305.0967969999992
  0
ARC
  5
BF1A
330
1F
100
AcDbEntity
  8
AM_0
100
AcDbCircle
 10
267.684667369002
 20
96.56716705230286
 30
0.0
 40
2.0
100
AcDbArc
 50
0.0
 51
89.99997000000023
  0
ARC
  5
BF1B
330
1F
100
AcDbEntity
  8
AM_0
100
AcDbCircle
 10
269.184668769002
 20
85.06716705230285
 30
0.0
 40
2.0
100
AcDbArc
 50
180.0
 51
270.0000270000021
  0
ARC
  5
BF1C
330
1F
100
AcDbEntity
  8
0
  6
DASHED
 62
     7
100
AcDbCircle
 10
258.1846678690021
 20
100.5671670523028
 30
0.0
 40
3.0
100
AcDbArc
 50
306.8698689999989
 51
359.9998542892999
  0
LINE
  5
BF1D
330
1F
100
AcDbEntity
  8
AM_7
 48
0.5
100
AcDbLine
 10
249.6846678690021
 20
100.5671670523028
 30
0.0
 11
266.6846678690021
 21
100.5671670523028
 31
0.0
1001
GENIUS_GENODEF_13
1002
{
1000
HIER
1070
     0
1002
}
1002
{
1000
MANEDIT
1070
     0
1002
}
1002
{
1000
NOSEL
1070
     0
1002
}
1002
{
1000
BEHIND
1070
     0
1002
}
1002
{
1000
OTHER
1070
     0
1002
}
1002
{
1000
REACTOR
1002
}
1001
GENIUS_GENOBJ-N-CEN_13
1002
{
1000
OWNER
1000
GEN
1002
}
1001
GENIUS_GENCEN_19
1002
{
1040
3.0
1002
}
  0
LINE
  5
BF1E
330
1F
100
AcDbEntity
  8
AM_7
 48
0.5
100
AcDbLine
 10
258.1846678690021
 20
92.06716705230284
 30
0.0
 11
258.1846678690021
 21
109.0671670523028
 31
0.0
1001
GENIUS_GENODEF_13
1002
{
1000
HIER
1070
     0
1002
}
1002
{
1000
MANEDIT
1070
     0
1002
}
1002
{
1000
NOSEL
1070
     0
1002
}
1002
{
1000
BEHIND
1070
     0
1002
}
1002
{
1000
OTHER
1070
     0
1002
}
1002
{
1000
REACTOR
1002
}
1001
GENIUS_GENOBJ-N-CEN_13
1002
{
1000
OWNER
1000
GEN
1002
}
1001
GENIUS_GENCEN_19
1002
{
1040
3.0
1002
}
  0
LINE
  5
BF1F
330
1F
100
AcDbEntity
  8
AM_7
 48
0.4
100
AcDbLine
 10
276.184668229002
 20
88.56716705230285
 30
0.0
 11
276.184668229002
 21
80.06716705230285
 31
0.0
1001
GENIUS_GENODEF_13
1002
{
1000
HIER
1070
     0
1002
}
1002
{
1000
MANEDIT
1070
     0
1002
}
1002
{
1000
NOSEL
1070
     0
1002
}
1002
{
1000
BEHIND
1070
     0
1002
}
1002
{
1000
OTHER
1070
     0
1002
}
1002
{
1000
REACTOR
1002
}
1001
GENIUS_GENOBJ-N-CEN_13
1002
{
1000
OWNER
1000
GEN
1002
}
1001
GENIUS_GENCEN_19
1002
{
1040
3.0
1002
}
  0
LINE
  5
BF20
330
1F
100
AcDbEntity
  8
AM_7
 48
0.4
100
AcDbLine
 10
276.184668229002
 20
100.5671630523028
 30
0.0
 11
276.184668229002
 21
109.0671630523028
 31
0.0
1001
GENIUS_GENODEF_13
1002
{
1000
HIER
1070
     0
1002
}
1002
{
1000
MANEDIT
1070
     0
1002
}
1002
{
1000
NOSEL
1070
     0
1002
}
1002
{
1000
BEHIND
1070
     0
1002
}
1002
{
1000
OTHER
1070
     0
1002
}
1002
{
1000
REACTOR
1002
}
1001
GENIUS_GENOBJ-N-CEN_13
1002
{
1000
OWNER
1000
GEN
1002
}
1001
GENIUS_GENCEN_19
1002
{
1040
3.0
1002
}
  0
MTEXT
  5
BFA6
330
1F
100
AcDbEntity
  8
AM_6
100
AcDbMText
 10
277.0051256616834
 20
52.66553297279756
 30
0.0
 40
3.2
 41
90.0
 71
     4
 72
     5
  1
  {\L参考納まり図}
 73
     1
 44
1.0
1001
ACAD
1000
MTEXTBEGIN
1070
    73
1070
     1
1070
    44
1040
1.0
1070
    74
1070
     0
1000
MTEXTEND
  0
DIMENSION
  5
BFA7
330
1F
100
AcDbEntity
  8
AM_5
100
AcDbDimension
  2
*D17
 10
173.3264147703747
 20
211.4502876762885
 30
0.0
 11
170.2264147703746
 21
217.2969543429552
 31
0.0
 70
    32
 71
     5
 42
2.5
  3
SYS$0
100
AcDbAlignedDimension
 13
161.3264147703745
 23
208.9502876762885
 33
0.0
 14
161.3264147703745
 24
211.4502876762885
 34
0.0
 50
90.00000000000003
100
AcDbRotatedDimension
  0
LINE
  5
C00A
330
1F
100
AcDbEntity
  8
size
100
AcDbLine
 10
-11.50000077816685
 20
-15.50000034695063
 30
0.0
 11
408.4999992218329
 21
-15.50000034695063
 31
0.0
1001
GENIUS_GENREC_14
1002
{
1000
PYDIR
1011
-11.50000077816685
1021
281.4999996530494
1031
0.0
1002
}
1002
{
1000
PXDIR
1011
408.4999992218329
1021
-15.50000034695063
1031
0.0
1002
}
1002
{
1000
PORI
1011
-11.50000077816685
1021
-15.50000034695063
1031
0.0
1002
}
1002
{
1000
PINS
1011
198.4999992218331
1021
132.9999996530494
1031
0.0
1002
}
1002
{
1000
HVAL
1000
297
1002
}
1002
{
1000
H
1070
     2
1002
}
1002
{
1000
WVAL
1000
420
1002
}
1002
{
1000
W
1070
     2
1002
}
1002
{
1000
C
1070
     4
1002
}
1001
GENIUS_GENOBJ-N-REC_13
1002
{
1000
OWNER
1000
GEN
1002
}
1001
GENIUS_GENODEF_13
1002
{
1000
HIER
1070
     0
1002
}
1002
{
1000
MANEDIT
1070
     0
1002
}
1002
{
1000
NOSEL
1070
     0
1002
}
1002
{
1000
BEHIND
1070
     0
1002
}
1002
{
1000
OTHER
1070
     0
1002
}
1002
{
1000
REACTOR
1002
}
  0
LINE
  5
C00B
330
1F
100
AcDbEntity
  8
size
100
AcDbLine
 10
408.4999992218329
 20
-15.50000034695063
 30
0.0
 11
408.4999992218329
 21
281.4999996530494
 31
0.0
1001
GENIUS_GENREC_14
1002
{
1000
PYDIR
1011
-11.50000077816685
1021
281.4999996530494
1031
0.0
1002
}
1002
{
1000
PXDIR
1011
408.4999992218329
1021
-15.50000034695063
1031
0.0
1002
}
1002
{
1000
PORI
1011
-11.50000077816685
1021
-15.50000034695063
1031
0.0
1002
}
1002
{
1000
PINS
1011
198.4999992218331
1021
132.9999996530494
1031
0.0
1002
}
1002
{
1000
HVAL
1000
297
1002
}
1002
{
1000
H
1070
     2
1002
}
1002
{
1000
WVAL
1000
420
1002
}
1002
{
1000
W
1070
     2
1002
}
1002
{
1000
C
1070
     4
1002
}
1001
GENIUS_GENOBJ-N-REC_13
1002
{
1000
OWNER
1000
GEN
1002
}
1001
GENIUS_GENODEF_13
1002
{
1000
HIER
1070
     0
1002
}
1002
{
1000
MANEDIT
1070
     0
1002
}
1002
{
1000
NOSEL
1070
     0
1002
}
1002
{
1000
BEHIND
1070
     0
1002
}
1002
{
1000
OTHER
1070
     0
1002
}
1002
{
1000
REACTOR
1002
}
  0
LINE
  5
C00C
330
1F
100
AcDbEntity
  8
size
100
AcDbLine
 10
408.4999992218329
 20
281.4999996530494
 30
0.0
 11
-11.50000077816685
 21
281.4999996530494
 31
0.0
1001
GENIUS_GENREC_14
1002
{
1000
PYDIR
1011
-11.50000077816685
1021
281.4999996530494
1031
0.0
1002
}
1002
{
1000
PXDIR
1011
408.4999992218329
1021
-15.50000034695063
1031
0.0
1002
}
1002
{
1000
PORI
1011
-11.50000077816685
1021
-15.50000034695063
1031
0.0
1002
}
1002
{
1000
PINS
1011
198.4999992218331
1021
132.9999996530494
1031
0.0
1002
}
1002
{
1000
HVAL
1000
297
1002
}
1002
{
1000
H
1070
     2
1002
}
1002
{
1000
WVAL
1000
420
1002
}
1002
{
1000
W
1070
     2
1002
}
1002
{
1000
C
1070
     4
1002
}
1001
GENIUS_GENOBJ-N-REC_13
1002
{
1000
OWNER
1000
GEN
1002
}
1001
GENIUS_GENODEF_13
1002
{
1000
HIER
1070
     0
1002
}
1002
{
1000
MANEDIT
1070
     0
1002
}
1002
{
1000
NOSEL
1070
     0
1002
}
1002
{
1000
BEHIND
1070
     0
1002
}
1002
{
1000
OTHER
1070
     0
1002
}
1002
{
1000
REACTOR
1002
}
  0
LINE
  5
C00D
330
1F
100
AcDbEntity
  8
size
100
AcDbLine
 10
-11.50000077816685
 20
281.4999996530494
 30
0.0
 11
-11.50000077816685
 21
-15.50000034695063
 31
0.0
1001
GENIUS_GENREC_14
1002
{
1000
PYDIR
1011
-11.50000077816685
1021
281.4999996530494
1031
0.0
1002
}
1002
{
1000
PXDIR
1011
408.4999992218329
1021
-15.50000034695063
1031
0.0
1002
}
1002
{
1000
PORI
1011
-11.50000077816685
1021
-15.50000034695063
1031
0.0
1002
}
1002
{
1000
PINS
1011
198.4999992218331
1021
132.9999996530494
1031
0.0
1002
}
1002
{
1000
HVAL
1000
297
1002
}
1002
{
1000
H
1070
     2
1002
}
1002
{
1000
WVAL
1000
420
1002
}
1002
{
1000
W
1070
     2
1002
}
1002
{
1000
C
1070
     4
1002
}
1001
GENIUS_GENOBJ-N-REC_13
1002
{
1000
OWNER
1000
GEN
1002
}
1001
GENIUS_GENODEF_13
1002
{
1000
HIER
1070
     0
1002
}
1002
{
1000
MANEDIT
1070
     0
1002
}
1002
{
1000
NOSEL
1070
     0
1002
}
1002
{
1000
BEHIND
1070
     0
1002
}
1002
{
1000
OTHER
1070
     0
1002
}
1002
{
1000
REACTOR
1002
}
  0
LINE
  5
C00E
330
1F
100
AcDbEntity
  8
waku
100
AcDbLine
 10
396.9999992218329
 20
-7.000000346950628
 30
0.0
 11
396.9999992218329
 21
272.9999996530494
 31
0.0
1001
GENIUS_GENREC_14
1002
{
1000
PYDIR
1011
-11.50000077816685
1021
281.4999996530494
1031
0.0
1002
}
1002
{
1000
PXDIR
1011
408.4999992218329
1021
-15.50000034695063
1031
0.0
1002
}
1002
{
1000
PORI
1011
-11.50000077816685
1021
-15.50000034695063
1031
0.0
1002
}
1002
{
1000
PINS
1011
198.4999992218331
1021
132.9999996530494
1031
0.0
1002
}
1002
{
1000
HVAL
1000
297
1002
}
1002
{
1000
H
1070
     2
1002
}
1002
{
1000
WVAL
1000
420
1002
}
1002
{
1000
W
1070
     2
1002
}
1002
{
1000
C
1070
     4
1002
}
1001
GENIUS_GENOBJ-N-REC_13
1002
{
1000
OWNER
1000
GEN
1002
}
1001
GENIUS_GENODEF_13
1002
{
1000
HIER
1070
     0
1002
}
1002
{
1000
MANEDIT
1070
     0
1002
}
1002
{
1000
NOSEL
1070
     0
1002
}
1002
{
1000
BEHIND
1070
     0
1002
}
1002
{
1000
OTHER
1070
     0
1002
}
1002
{
1000
REACTOR
1002
}
  0
LINE
  5
C00F
330
1F
100
AcDbEntity
  8
waku
100
AcDbLine
 10
-0.0000007781668501
 20
272.9999996530494
 30
0.0
 11
-0.0000007781668501
 21
-7.000000346950628
 31
0.0
1001
GENIUS_GENREC_14
1002
{
1000
PYDIR
1011
-11.50000077816685
1021
281.4999996530494
1031
0.0
1002
}
1002
{
1000
PXDIR
1011
408.4999992218329
1021
-15.50000034695063
1031
0.0
1002
}
1002
{
1000
PORI
1011
-11.50000077816685
1021
-15.50000034695063
1031
0.0
1002
}
1002
{
1000
PINS
1011
198.4999992218331
1021
132.9999996530494
1031
0.0
1002
}
1002
{
1000
HVAL
1000
297
1002
}
1002
{
1000
H
1070
     2
1002
}
1002
{
1000
WVAL
1000
420
1002
}
1002
{
1000
W
1070
     2
1002
}
1002
{
1000
C
1070
     4
1002
}
1001
GENIUS_GENOBJ-N-REC_13
1002
{
1000
OWNER
1000
GEN
1002
}
1001
GENIUS_GENODEF_13
1002
{
1000
HIER
1070
     0
1002
}
1002
{
1000
MANEDIT
1070
     0
1002
}
1002
{
1000
NOSEL
1070
     0
1002
}
1002
{
1000
BEHIND
1070
     0
1002
}
1002
{
1000
OTHER
1070
     0
1002
}
1002
{
1000
REACTOR
1002
}
  0
LINE
  5
C010
330
1F
100
AcDbEntity
  8
waku
100
AcDbLine
 10
396.9999992218329
 20
272.9999996530494
 30
0.0
 11
-0.0000007781668501
 21
272.9999996530494
 31
0.0
1001
GENIUS_GENREC_14
1002
{
1000
PYDIR
1011
-11.50000077816685
1021
281.4999996530494
1031
0.0
1002
}
1002
{
1000
PXDIR
1011
408.4999992218329
1021
-15.50000034695063
1031
0.0
1002
}
1002
{
1000
PORI
1011
-11.50000077816685
1021
-15.50000034695063
1031
0.0
1002
}
1002
{
1000
PINS
1011
198.4999992218331
1021
132.9999996530494
1031
0.0
1002
}
1002
{
1000
HVAL
1000
297
1002
}
1002
{
1000
H
1070
     2
1002
}
1002
{
1000
WVAL
1000
420
1002
}
1002
{
1000
W
1070
     2
1002
}
1002
{
1000
C
1070
     4
1002
}
1001
GENIUS_GENOBJ-N-REC_13
1002
{
1000
OWNER
1000
GEN
1002
}
1001
GENIUS_GENODEF_13
1002
{
1000
HIER
1070
     0
1002
}
1002
{
1000
MANEDIT
1070
     0
1002
}
1002
{
1000
NOSEL
1070
     0
1002
}
1002
{
1000
BEHIND
1070
     0
1002
}
1002
{
1000
OTHER
1070
     0
1002
}
1002
{
1000
REACTOR
1002
}
  0
LINE
  5
C011
330
1F
100
AcDbEntity
  8
waku
100
AcDbLine
 10
-0.0000007781668501
 20
-7.000000346950628
 30
0.0
 11
396.9999992218329
 21
-7.000000346950628
 31
0.0
  0
ENDSEC
  0
SECTION
  2
OBJECTS
  0
DICTIONARY
  5
C
330
0
100
AcDbDictionary
281
     1
  3
ACAD_2007HEADERVARS_RT
350
C08D
  3
ACAD_BGPLOT_KEY
350
AB06
  3
ACAD_COLOR
350
A91D
  3
ACAD_GROUP
350
D
  3
ACAD_LAYOUT
350
1A
  3
ACAD_MATERIAL
350
A91C
  3
ACAD_MLINESTYLE
350
17
  3
ACAD_PLOTSETTINGS
350
19
  3
ACAD_PLOTSTYLENAME
350
E
  3
ACAD_TABLESTYLE
350
AAB9
  3
ACAD_VISUALSTYLE
350
B0F1
  3
AcAsAppObject
350
3DA1
  3
ACASGREF_MASTER
350
3DE9
  3
AcDbVariableDictionary
350
34
  3
AcmDictionary
350
47
  3
AD_GREF_MODULE
350
3DEA
  3
AD_MAPI_MODULE
350
3E06
  3
AMG
350
2B
  3
AMGSNAPSETTINGS
350
7D
  3
ASE_INDEX_DICTIONARY
350
B331
  3
DWGPROPS
350
C08C
  3
MAPISURF_MODULE
350
3DEB
  0
DICTIONARY
  5
3F95
330
2
100
AcDbDictionary
280
     1
281
     1
  3
ACAD_LAYERFILTERS
360
B466
  3
ACAD_LAYERSTATES
360
3F96
  3
ACLYDICTIONARY
360
B465
  3
AMLAYER_GROUPCOLORS
360
AAB4
  0
DICTIONARY
  5
8A
330
1F
100
AcDbDictionary
280
     1
281
     1
  3
ACAD_SORTENTS
360
B1BA
  0
DICTIONARY
  5
C08D
102
{ACAD_REACTORS
330
C
102
}
330
C
100
AcDbDictionary
281
     1
  3
DIMARCSYM
350
C08E
  0
DICTIONARY
  5
AB06
102
{ACAD_REACTORS
330
C
102
}
330
C
100
AcDbDictionary
280
     1
281
     1
  0
DICTIONARY
  5
A91D
102
{ACAD_REACTORS
330
C
102
}
330
C
100
AcDbDictionary
281
     1
  0
DICTIONARY
  5
D
102
{ACAD_REACTORS
330
C
102
}
330
C
100
AcDbDictionary
281
     1
  0
DICTIONARY
  5
1A
102
{ACAD_REACTORS
330
C
102
}
330
C
100
AcDbDictionary
281
     1
  3
Model
350
22
  3
ﾚｲｱｳﾄ1
350
1E
  3
ﾚｲｱｳﾄ2
350
26
  0
DICTIONARY
  5
A91C
102
{ACAD_REACTORS
330
C
102
}
330
C
100
AcDbDictionary
281
     1
  3
ByBlock
350
B0EF
  3
ByLayer
350
B0EE
  3
Global
350
B0F0
  0
DICTIONARY
  5
17
102
{ACAD_REACTORS
330
C
102
}
330
C
100
AcDbDictionary
281
     1
  3
Standard
350
18
  0
DICTIONARY
  5
19
102
{ACAD_REACTORS
330
C
102
}
330
C
100
AcDbDictionary
281
     1
  0
ACDBDICTIONARYWDFLT
  5
E
102
{ACAD_REACTORS
330
C
102
}
330
C
100
AcDbDictionary
281
     1
  3
Normal
350
F
100
AcDbDictionaryWithDefault
340
F
  0
DICTIONARY
  5
AAB9
102
{ACAD_REACTORS
330
C
102
}
330
C
100
AcDbDictionary
281
     1
  3
Standard
350
AABA
  0
DICTIONARY
  5
B0F1
102
{ACAD_REACTORS
330
C
102
}
330
C
100
AcDbDictionary
281
     1
  3
2dWireframe
350
B0F7
  3
3D Hidden
350
B0F9
  3
3dWireframe
350
B0F8
  3
Basic
350
B0F6
  3
Brighten
350
B0FD
  3
ColorChange
350
B101
  3
Conceptual
350
B0FA
  3
Dim
350
B0FC
  3
Facepattern
350
B100
  3
Flat
350
B0F2
  3
FlatWithEdges
350
B0F3
  3
Gouraud
350
B0F4
  3
GouraudWithEdges
350
B0F5
  3
Linepattern
350
B0FF
  3
Realistic
350
B0FB
  3
Thicken
350
B0FE
  0
ACAD_PROXY_OBJECT
  5
3DA1
102
{ACAD_REACTORS
330
C
102
}
330
C
100
AcDbProxyObject
 90
      499
 91
      576
 95
   917527
 70
     0
 93
       10
310
407F
 94
        0
1001
ACAD
1000
AcRTDxfName
1000
ASAPP
  0
ACAD_PROXY_OBJECT
  5
3DE9
102
{ACAD_REACTORS
330
C
102
}
330
C
100
AcDbProxyObject
 90
      499
 91
      581
 95
   917527
 70
     0
 93
       34
310
010000407F
 94
        0
1001
ACAD
1000
AcRTDxfName
1000
ACASGREFMASTER
  0
DICTIONARY
  5
34
102
{ACAD_REACTORS
330
C
102
}
330
C
100
AcDbDictionary
281
     1
  3
CTABLESTYLE
350
AAF3
  3
DIMASSOC
350
A10C
  3
FIELDEVAL
350
AB07
  3
INDEXCTL
350
35
  3
SORTENTS
350
194C
  0
DICTIONARY
  5
47
102
{ACAD_REACTORS
330
C
102
}
330
C
100
AcDbDictionary
281
     1
  3
AcmBOM
350
7E8
  3
AcmStdDictionary
350
4C
  3
AMDTSECTSYM_ARROWCOLOR
350
A929
  0
ACAD_PROXY_OBJECT
  5
3DEA
102
{ACAD_REACTORS
330
C
102
}
330
C
100
AcDbProxyObject
 90
      499
 91
      582
 95
   917527
 70
     0
 93
      114
310
00000043800000000000000000003F
 94
        0
1001
ACAD
1000
AcRTDxfName
1000
ACADGREFMODULE
  0
ACAD_PROXY_OBJECT
  5
3E06
102
{ACAD_REACTORS
330
C
102
}
330
C
100
AcDbProxyObject
 90
      499
 91
      594
 95
   917527
 70
     0
 93
       34
310
05000044FF
 94
        0
1001
ACAD
1000
AcRTDxfName
1000
MAPIADMODULE
  0
DICTIONARY
  5
2B
102
{ACAD_REACTORS
330
C
102
}
330
C
100
AcDbDictionary
281
     1
  0
DICTIONARY
  5
7D
102
{ACAD_REACTORS
330
C
102
}
330
C
100
AcDbDictionary
281
     1
  0
DICTIONARY
  5
B331
102
{ACAD_REACTORS
330
C
102
}
330
C
100
AcDbDictionary
281
     1
  3
ASEBlockHierarchyIndexRecord
350
B332
1001
DCO15
1040
1594111214.218
  0
XRECORD
  5
C08C
102
{ACAD_REACTORS
330
C
102
}
330
C
100
AcDbXrecord
280
     1
  1
DWGPROPS COOKIE
  2

  3

  4

  6

  7

  8
Administrator
  9

300
AmdtFileType=84
301
=
302
=
303
=
304
=
305
=
306
=
307
=
308
=
309
=
 40
0.3792033912037037
 41
2455832.47648419
 42
2455846.743797199
  1

 90
        1
  0
ACAD_PROXY_OBJECT
  5
3DEB
102
{ACAD_REACTORS
330
C
102
}
330
C
100
AcDbProxyObject
 90
      499
 91
      583
 95
   917527
 70
     0
 93
        8
310
047E
 94
        0
1001
ACAD
1000
AcRTDxfName
1000
AMDTMAPISURFMOUDULE
  0
DICTIONARY
  5
B466
102
{ACAD_REACTORS
330
3F95
102
}
330
3F95
100
AcDbDictionary
281
     1
  0
DICTIONARY
  5
3F96
102
{ACAD_REACTORS
330
3F95
102
}
330
3F95
100
AcDbDictionary
281
     1
  3
20011210
350
3FB7
  0
DICTIONARY
  5
B465
102
{ACAD_REACTORS
330
3F95
102
}
330
3F95
100
AcDbDictionary
281
     1
1001
ACAD
1000
<All
  0
DICTIONARY
  5
AAB4
102
{ACAD_REACTORS
330
3F95
102
}
330
3F95
100
AcDbDictionary
280
     1
281
     1
  0
SORTENTSTABLE
  5
B1BA
102
{ACAD_REACTORS
330
8A
102
}
330
8A
100
AcDbSortentsTable
330
1F
331
BB26
  5
BB27
331
BE99
  5
BE8F
331
B6DF
  5
B6DF
331
BEA1
  5
BE97
331
BE52
  5
BE52
331
B6E7
  5
B6E7
331
BEA9
  5
BE9F
331
BB5E
  5
BB5E
331
BE62
  5
BE62
331
BEB1
  5
BEA7
331
BEC1
  5
BEB7
331
BE6A
  5
BE6A
331
BD4B
  5
BD4B
331
BBA5
  5
BBA5
331
B6F7
  5
B6F8
331
BE7A
  5
BE7A
331
BE9A
  5
BE90
331
BB27
  5
BB28
331
B6D8
  5
B6D8
331
BCA5
  5
BCA3
331
BEA2
  5
BE98
331
BEAA
  5
BEA0
331
BB57
  5
B6F4
331
BE53
  5
BE53
331
BE63
  5
BE63
331
BB5F
  5
BB5F
331
BEB2
  5
BEA8
331
BEC2
  5
BEB8
331
B6E8
  5
B6E8
331
B6F0
  5
B6F0
331
B6B9
  5
B6B9
331
BE6B
  5
BE6B
331
B6F8
  5
B6F9
331
BE7B
  5
BE7B
331
B6C9
  5
B6C9
331
BD1D
  5
BD1D
331
BC9E
  5
BC9E
331
B6D1
  5
B6D1
331
BB8F
  5
BB8F
331
B6D9
  5
B6D9
331
BB28
  5
BB29
331
BE9B
  5
BE91
331
BEA3
  5
BE99
331
BD35
  5
BD35
331
BE54
  5
BE54
331
BB58
  5
BB58
331
BEAB
  5
BEA1
331
BE64
  5
BE64
331
BCBE
  5
BCBE
331
BEB3
  5
BEA9
331
BEC3
  5
BEB9
331
BB60
  5
BB60
331
B6F1
  5
B6F1
331
B6BA
  5
B6BA
331
B6F9
  5
B6FA
331
B6C2
  5
B6C2
331
B6CA
  5
B6CA
331
BC9F
  5
BC9F
331
BB21
  5
BB22
331
B6D2
  5
B6D2
331
BB29
  5
BB2A
331
B6DA
  5
B6DA
331
BE9C
  5
BE92
331
BEA4
  5
BE9A
331
BB59
  5
BB59
331
BEAC
  5
BEA2
331
BE65
  5
BE65
331
BEC4
  5
BEBA
331
BB61
  5
BB61
331
B6BB
  5
B6BB
331
B6F2
  5
B6F2
331
B6FA
  5
B6FD
331
B6C3
  5
B6C3
331
BB79
  5
BB79
331
BE95
  5
BE8B
331
BB22
  5
BB23
331
B6D3
  5
B6D3
331
BCA0
  5
BCA0
331
BCA8
  5
BCA8
331
B6DB
  5
B6DB
331
BB2A
  5
BB57
331
BE9D
  5
BE93
331
BEA5
  5
BE9B
331
BB5A
  5
BB5A
331
BEAD
  5
BEA3
331
BE66
  5
BE66
331
BEC5
  5
BEBB
331
BB62
  5
BB62
331
B6EB
  5
B6EB
331
B6F3
  5
B6F3
331
B6C4
  5
B6C4
331
B6CC
  5
B6CC
331
BE96
  5
BE8C
331
BB23
  5
BB24
331
B6DC
  5
B6DC
331
BE9E
  5
BE94
331
BEA6
  5
BE9C
331
BEAE
  5
BEA4
331
BB5B
  5
BB5B
331
BE67
  5
BE67
331
BEBE
  5
BEB4
331
BEC6
  5
BEBC
331
BB63
  5
BB63
331
BCF1
  5
BCF1
331
B6F4
  5
B6F5
331
BE77
  5
BE77
331
B6CD
  5
B6CD
331
BE97
  5
BE8D
331
BB24
  5
BB25
331
B6D5
  5
B6D5
331
BCA2
  5
BCA4
331
B6DD
  5
B6DD
331
BE9F
  5
BE95
331
BEA7
  5
BE9D
331
BEAF
  5
BEA5
331
BEBF
  5
BEB5
331
BEC7
  5
BEBD
331
BE68
  5
BE68
331
B6F5
  5
B6F6
331
BE78
  5
BE78
331
BD61
  5
BD61
331
B6FD
  5
B71C
331
B6C6
  5
B6C6
331
BBBB
  5
BBBB
331
BE98
  5
BE8E
331
BB25
  5
BB26
331
B6D6
  5
B6D6
331
BCA3
  5
BCA5
331
BEA0
  5
BE96
331
BEA8
  5
BE9E
331
B6E6
  5
B6E6
331
BE51
  5
BE51
331
BE61
  5
BE61
331
BB5D
  5
BB5D
331
BEB0
  5
BEA6
331
BEC0
  5
BEB6
331
BE69
  5
BE69
331
B6F6
  5
B6F7
331
BE79
  5
BE79
331
B6C7
  5
B6C7
331
B6CF
  5
B6CF
  0
XRECORD
  5
C08E
102
{ACAD_REACTORS
330
C08D
102
}
330
C08D
100
AcDbXrecord
280
     1
 70
     1
  0
LAYOUT
  5
22
102
{ACAD_XDICTIONARY
360
C091
102
}
102
{ACAD_REACTORS
330
1A
102
}
330
1A
100
AcDbPlotSettings
  1

  2
Adobe PDF
  4
A3
  6
AM_VIEW1
 40
3.174999952316284
 41
3.174999952316284
 42
3.17498779296875
 43
3.17498779296875
 44
297.0318298339844
 45
420.1583251953125
 46
-3.220765766683143
 47
-3.142935438834228
 48
-0.0000007781668501
 49
-0.0000003469506282
140
380.9999992218331
141
272.9999996530494
142
1.0
143
1.0
 70
  3748
 72
     1
 73
     1
 74
     1
  7
monochrome.ctb
 75
     0
147
1.064768652339558
148
11.5541046968392
149
15.56494543278222
100
AcDbLayout
  1
Model
 70
     1
 71
     0
 10
0.0
 20
0.0
 11
12.0
 21
9.0
 12
0.0
 22
0.0
 32
0.0
 14
0.0
 24
0.0
 34
0.0
 15
0.0
 25
0.0
 35
0.0
146
0.0
 13
0.0
 23
0.0
 33
0.0
 16
1.0
 26
0.0
 36
0.0
 17
0.0
 27
1.0
 37
0.0
 76
     0
330
1F
331
B0EC
1001
ACAD_PSEXT
1000
Adobe PDF
1000
Adobe PDF Converter
1000
My Documents\*.pdf
1000

1070
     0
  0
LAYOUT
  5
1E
102
{ACAD_XDICTIONARY
360
C08F
102
}
102
{ACAD_REACTORS
330
1A
102
}
330
1A
100
AcDbPlotSettings
  1

  2
\\ML370\XEROX
  4
A4
  6

 40
3.174999952316284
 41
3.174999952316284
 42
3.175003051757812
 43
3.17498779296875
 44
209.8674926757813
 45
296.6719970703125
 46
0.0
 47
0.0
 48
0.0
 49
0.0
140
0.0
141
0.0
142
1.0
143
1.0
 70
   688
 72
     1
 73
     1
 74
     5
  7
monochrome.ctb
 75
    16
147
1.0
148
0.0
149
0.0
100
AcDbLayout
  1
ﾚｲｱｳﾄ1
 70
     1
 71
     1
 10
-3.17498779296875
 20
-3.174999952316284
 11
293.4970092773438
 21
206.692492723465
 12
0.0
 22
0.0
 32
0.0
 14
1.000000000000000E+20
 24
1.000000000000000E+20
 34
1.000000000000000E+20
 15
-1.000000000000000E+20
 25
-1.000000000000000E+20
 35
-1.000000000000000E+20
146
0.0
 13
0.0
 23
0.0
 33
0.0
 16
1.0
 26
0.0
 36
0.0
 17
0.0
 27
1.0
 37
0.0
 76
     0
330
1B
  0
LAYOUT
  5
26
102
{ACAD_XDICTIONARY
360
C093
102
}
102
{ACAD_REACTORS
330
1A
102
}
330
1A
100
AcDbPlotSettings
  1

  2
\\ML370\XEROX
  4

  6

 40
0.0
 41
0.0
 42
0.0
 43
0.0
 44
0.0
 45
0.0
 46
0.0
 47
0.0
 48
0.0
 49
0.0
140
0.0
141
0.0
142
1.0
143
1.0
 70
   688
 72
     0
 73
     0
 74
     5
  7
monochrome.ctb
 75
    16
147
1.0
148
0.0
149
0.0
100
AcDbLayout
  1
ﾚｲｱｳﾄ2
 70
     1
 71
     2
 10
0.0
 20
0.0
 11
12.0
 21
9.0
 12
0.0
 22
0.0
 32
0.0
 14
0.0
 24
0.0
 34
0.0
 15
0.0
 25
0.0
 35
0.0
146
0.0
 13
0.0
 23
0.0
 33
0.0
 16
1.0
 26
0.0
 36
0.0
 17
0.0
 27
1.0
 37
0.0
 76
     0
330
23
  0
MATERIAL
  5
B0EF
102
{ACAD_XDICTIONARY
360
C099
102
}
102
{ACAD_REACTORS
330
A91C
102
}
330
A91C
100
AcDbMaterial
  1
ByBlock
  0
MATERIAL
  5
B0EE
102
{ACAD_XDICTIONARY
360
C097
102
}
102
{ACAD_REACTORS
330
A91C
102
}
330
A91C
100
AcDbMaterial
  1
ByLayer
  0
MATERIAL
  5
B0F0
102
{ACAD_XDICTIONARY
360
C09B
102
}
102
{ACAD_REACTORS
330
A91C
102
}
330
A91C
100
AcDbMaterial
  1
Global
  0
MLINESTYLE
  5
18
102
{ACAD_REACTORS
330
17
102
}
330
17
100
AcDbMlineStyle
  2
STANDARD
 70
     0
  3

 62
   256
 51
90.0
 52
90.0
 71
     2
 49
0.5
 62
   256
  6
BYLAYER
 49
-0.5
 62
   256
  6
BYLAYER
  0
ACDBPLACEHOLDER
  5
F
102
{ACAD_REACTORS
330
E
102
}
330
E
  0
TABLESTYLE
  5
AABA
102
{ACAD_XDICTIONARY
360
C095
102
}
102
{ACAD_REACTORS
330
AAB9
102
}
330
AAB9
100
AcDbTableStyle
  3
Standard
 70
     0
 71
     0
 40
1.5
 41
1.5
280
     0
281
     0
  7
STANDARD
140
4.5
170
     2
 62
     0
 63
     7
283
     0
274
    -2
284
     1
 64
     0
275
    -2
285
     1
 65
     0
276
    -2
286
     1
 66
     0
277
    -2
287
     1
 67
     0
278
    -2
288
     1
 68
     0
279
    -2
289
     1
 69
     0
  7
STANDARD
140
6.0
170
     5
 62
     0
 63
     7
283
     0
274
    -2
284
     1
 64
     0
275
    -2
285
     1
 65
     0
276
    -2
286
     1
 66
     0
277
    -2
287
     1
 67
     0
278
    -2
288
     1
 68
     0
279
    -2
289
     1
 69
     0
  7
STANDARD
140
4.5
170
     5
 62
     0
 63
     7
283
     0
274
    -2
284
     1
 64
     0
275
    -2
285
     1
 65
     0
276
    -2
286
     1
 66
     0
277
    -2
287
     1
 67
     0
278
    -2
288
     1
 68
     0
279
    -2
289
     1
 69
     0
  0
VISUALSTYLE
  5
B0F7
102
{ACAD_REACTORS
330
B0F1
102
}
330
B0F1
100
AcDbVisualStyle
  2
2dWireframe
 70
     4
 71
     0
 72
     2
 73
     0
 90
        0
 40
-0.6
 41
-30.0
 62
     5
 63
     7
 74
     1
 91
        4
 64
     7
 65
   257
 75
     1
175
     1
 42
1.0
 92
        0
 66
   257
 43
1.0
 76
     1
 77
     6
 78
     2
 67
     7
 79
     5
170
     0
171
     0
290
     0
174
     0
 93
        1
 44
0.0
173
     0
291
     0
 45
0.0
1001
ACAD
1000
AcDbSavedByObjectVersion
1070
     0
  0
VISUALSTYLE
  5
B0F9
102
{ACAD_REACTORS
330
B0F1
102
}
330
B0F1
100
AcDbVisualStyle
  2
3D Hidden
 70
     6
 71
     1
 72
     2
 73
     2
 90
        0
 40
-0.6
 41
-30.0
 62
     5
 63
     7
 74
     2
 91
        2
 64
     7
 65
   257
 75
     2
175
     1
 42
40.0
 92
        0
 66
   257
 43
1.0
 76
     1
 77
     6
 78
     2
 67
     7
 79
     3
170
     0
171
     0
290
     0
174
     0
 93
        1
 44
0.0
173
     0
291
     0
 45
0.0
1001
ACAD
1000
AcDbSavedByObjectVersion
1070
     0
  0
VISUALSTYLE
  5
B0F8
102
{ACAD_REACTORS
330
B0F1
102
}
330
B0F1
100
AcDbVisualStyle
  2
3dWireframe
 70
     5
 71
     0
 72
     2
 73
     0
 90
        0
 40
-0.6
 41
-30.0
 62
     5
 63
     7
 74
     1
 91
        4
 64
     7
 65
   257
 75
     1
175
     1
 42
1.0
 92
        0
 66
   257
 43
1.0
 76
     1
 77
     6
 78
     2
 67
     7
 79
     5
170
     0
171
     0
290
     0
174
     0
 93
        1
 44
0.0
173
     0
291
     0
 45
0.0
1001
ACAD
1000
AcDbSavedByObjectVersion
1070
     0
  0
VISUALSTYLE
  5
B0F6
102
{ACAD_REACTORS
330
B0F1
102
}
330
B0F1
100
AcDbVisualStyle
  2
Basic
 70
     7
 71
     1
 72
     0
 73
     1
 90
        0
 40
-0.6
 41
-30.0
 62
     5
 63
     7
 74
     0
 91
        4
 64
     7
 65
   257
 75
     1
175
     1
 42
1.0
 92
        8
 66
     7
 43
1.0
 76
     1
 77
     6
 78
     2
 67
     7
 79
     5
170
     0
171
     0
290
     0
174
     0
 93
        1
 44
0.0
173
     0
291
     1
 45
0.0
1001
ACAD
1000
AcDbSavedByObjectVersion
1070
     0
  0
VISUALSTYLE
  5
B0FD
102
{ACAD_REACTORS
330
B0F1
102
}
330
B0F1
100
AcDbVisualStyle
  2
Brighten
 70
    12
 71
     2
 72
     2
 73
     0
 90
        0
 40
-0.6
 41
-30.0
 62
     5
 63
     7
 74
     1
 91
        4
 64
     7
 65
   257
 75
     1
175
     1
 42
1.0
 92
        8
 66
     7
 43
1.0
 76
     1
 77
     6
 78
     2
 67
     7
 79
     5
170
     0
171
     0
290
     0
174
     0
 93
        1
 44
50.0
173
     0
291
     1
 45
0.0
1001
ACAD
1000
AcDbSavedByObjectVersion
1070
     0
  0
VISUALSTYLE
  5
B101
102
{ACAD_REACTORS
330
B0F1
102
}
330
B0F1
100
AcDbVisualStyle
  2
ColorChange
 70
    16
 71
     2
 72
     2
 73
     3
 90
        0
 40
-0.6
 41
-30.0
 62
     5
 63
     8
 74
     1
 91
        4
 64
     7
 65
   257
 75
     1
175
     1
 42
1.0
 92
        8
 66
     8
 43
1.0
 76
     1
 77
     6
 78
     2
 67
     7
 79
     5
170
     0
171
     0
290
     0
174
     0
 93
        1
 44
0.0
173
     0
291
     1
 45
0.0
1001
ACAD
1000
AcDbSavedByObjectVersion
1070
     0
  0
VISUALSTYLE
  5
B0FA
102
{ACAD_REACTORS
330
B0F1
102
}
330
B0F1
100
AcDbVisualStyle
  2
Conceptual
 70
     9
 71
     3
 72
     2
 73
     0
 90
        0
 40
-0.6
 41
-30.0
 62
     5
 63
     7
 74
     2
 91
        2
 64
     7
 65
   257
 75
     1
175
     1
 42
40.0
 92
        8
 66
     7
 43
1.0
 76
     1
 77
     6
 78
     2
 67
     7
 79
     3
170
     0
171
     0
290
     0
174
     0
 93
        1
 44
0.0
173
     0
291
     0
 45
0.0
1001
ACAD
1000
AcDbSavedByObjectVersion
1070
     0
  0
VISUALSTYLE
  5
B0FC
102
{ACAD_REACTORS
330
B0F1
102
}
330
B0F1
100
AcDbVisualStyle
  2
Dim
 70
    11
 71
     2
 72
     2
 73
     0
 90
        0
 40
-0.6
 41
-30.0
 62
     5
 63
     7
 74
     1
 91
        4
 64
     7
 65
   257
 75
     1
175
     1
 42
1.0
 92
        8
 66
     7
 43
1.0
 76
     1
 77
     6
 78
     2
 67
     7
 79
     5
170
     0
171
     0
290
     0
174
     0
 93
        1
 44
-50.0
173
     0
291
     1
 45
0.0
1001
ACAD
1000
AcDbSavedByObjectVersion
1070
     0
  0
VISUALSTYLE
  5
B100
102
{ACAD_REACTORS
330
B0F1
102
}
330
B0F1
100
AcDbVisualStyle
  2
Facepattern
 70
    15
 71
     2
 72
     2
 73
     0
 90
        0
 40
-0.6
 41
-30.0
 62
     5
 63
     7
 74
     1
 91
        4
 64
     7
 65
   257
 75
     1
175
     1
 42
1.0
 92
        8
 66
     7
 43
1.0
 76
     1
 77
     6
 78
     2
 67
     7
 79
     5
170
     0
171
     0
290
     0
174
     0
 93
        1
 44
0.0
173
     0
291
     1
 45
0.0
1001
ACAD
1000
AcDbSavedByObjectVersion
1070
     0
  0
VISUALSTYLE
  5
B0F2
102
{ACAD_REACTORS
330
B0F1
102
}
330
B0F1
100
AcDbVisualStyle
  2
Flat
 70
     0
 71
     2
 72
     1
 73
     1
 90
        2
 40
-0.6
 41
30.0
 62
     5
 63
     7
 74
     0
 91
        4
 64
     7
 65
   257
 75
     1
175
     1
 42
1.0
 92
        8
 66
     7
 43
1.0
 76
     1
 77
     6
 78
     2
 67
     7
 79
     5
170
     0
171
     0
290
     0
174
     0
 93
       13
 44
0.0
173
     0
291
     1
 45
0.0
1001
ACAD
1000
AcDbSavedByObjectVersion
1070
     0
  0
VISUALSTYLE
  5
B0F3
102
{ACAD_REACTORS
330
B0F1
102
}
330
B0F1
100
AcDbVisualStyle
  2
FlatWithEdges
 70
     1
 71
     2
 72
     1
 73
     1
 90
        2
 40
-0.6
 41
30.0
 62
     5
 63
     7
 74
     1
 91
        4
 64
     7
 65
   257
 75
     1
175
     1
 42
1.0
 92
        0
 66
   257
 43
1.0
 76
     1
 77
     6
 78
     2
 67
     7
 79
     5
170
     0
171
     0
290
     0
174
     0
 93
       13
 44
0.0
173
     0
291
     1
 45
0.0
1001
ACAD
1000
AcDbSavedByObjectVersion
1070
     0
  0
VISUALSTYLE
  5
B0F4
102
{ACAD_REACTORS
330
B0F1
102
}
330
B0F1
100
AcDbVisualStyle
  2
Gouraud
 70
     2
 71
     2
 72
     2
 73
     1
 90
        2
 40
-0.6
 41
30.0
 62
     5
 63
     7
 74
     0
 91
        4
 64
     7
 65
   257
 75
     1
175
     1
 42
1.0
 92
        0
 66
     7
 43
1.0
 76
     1
 77
     6
 78
     2
 67
     7
 79
     5
170
     0
171
     0
290
     0
174
     0
 93
       13
 44
0.0
173
     0
291
     1
 45
0.0
1001
ACAD
1000
AcDbSavedByObjectVersion
1070
     0
  0
VISUALSTYLE
  5
B0F5
102
{ACAD_REACTORS
330
B0F1
102
}
330
B0F1
100
AcDbVisualStyle
  2
GouraudWithEdges
 70
     3
 71
     2
 72
     2
 73
     1
 90
        2
 40
-0.6
 41
30.0
 62
     5
 63
     7
 74
     1
 91
        4
 64
     7
 65
   257
 75
     1
175
     1
 42
1.0
 92
        0
 66
   257
 43
1.0
 76
     1
 77
     6
 78
     2
 67
     7
 79
     5
170
     0
171
     0
290
     0
174
     0
 93
       13
 44
0.0
173
     0
291
     1
 45
0.0
1001
ACAD
1000
AcDbSavedByObjectVersion
1070
     0
  0
VISUALSTYLE
  5
B0FF
102
{ACAD_REACTORS
330
B0F1
102
}
330
B0F1
100
AcDbVisualStyle
  2
Linepattern
 70
    14
 71
     2
 72
     2
 73
     0
 90
        0
 40
-0.6
 41
-30.0
 62
     5
 63
     7
 74
     1
 91
        4
 64
     7
 65
   257
 75
     7
175
     7
 42
1.0
 92
        8
 66
     7
 43
1.0
 76
     1
 77
     6
 78
     2
 67
     7
 79
     5
170
     0
171
     0
290
     0
174
     0
 93
        1
 44
0.0
173
     0
291
     1
 45
0.0
1001
ACAD
1000
AcDbSavedByObjectVersion
1070
     0
  0
VISUALSTYLE
  5
B0FB
102
{ACAD_REACTORS
330
B0F1
102
}
330
B0F1
100
AcDbVisualStyle
  2
Realistic
 70
     8
 71
     2
 72
     2
 73
     0
 90
        0
 40
-0.6
 41
-30.0
 62
     5
 63
     7
 74
     1
 91
        0
 64
     7
 65
   257
 75
     1
175
     1
 42
1.0
 92
        8
 66
     8
 43
1.0
 76
     1
 77
     6
 78
     2
 67
     7
 79
     5
170
     0
171
     0
290
     0
174
     0
 93
       13
 44
0.0
173
     0
291
     0
 45
0.0
1001
ACAD
1000
AcDbSavedByObjectVersion
1070
     0
  0
VISUALSTYLE
  5
B0FE
102
{ACAD_REACTORS
330
B0F1
102
}
330
B0F1
100
AcDbVisualStyle
  2
Thicken
 70
    13
 71
     2
 72
     2
 73
     0
 90
        0
 40
-0.6
 41
-30.0
 62
     5
 63
     7
 74
     1
 91
        4
 64
     7
 65
   257
 75
     1
175
     1
 42
1.0
 92
       12
 66
     7
 43
1.0
 76
     1
 77
     6
 78
     2
 67
     7
 79
     5
170
     0
171
     0
290
     0
174
     0
 93
        1
 44
0.0
173
     0
291
     1
 45
0.0
1001
ACAD
1000
AcDbSavedByObjectVersion
1070
     0
  0
DICTIONARYVAR
  5
AAF3
102
{ACAD_REACTORS
330
34
102
}
330
34
100
DictionaryVariables
280
     0
  1
STANDARD
  0
DICTIONARYVAR
  5
A10C
102
{ACAD_REACTORS
330
34
102
}
330
34
100
DictionaryVariables
280
     0
  1
1
  0
DICTIONARYVAR
  5
AB07
102
{ACAD_REACTORS
330
34
102
}
330
34
100
DictionaryVariables
280
     0
  1
4
  0
DICTIONARYVAR
  5
35
102
{ACAD_REACTORS
330
34
102
}
330
34
100
DictionaryVariables
280
     0
  1
0
  0
DICTIONARYVAR
  5
194C
102
{ACAD_REACTORS
330
34
102
}
330
34
100
DictionaryVariables
280
     0
  1
96
  0
DICTIONARY
  5
7E8
102
{ACAD_REACTORS
330
47
102
}
330
47
100
AcDbDictionary
281
     1
  0
DICTIONARY
  5
4C
102
{ACAD_REACTORS
330
47
102
}
330
47
100
AcDbDictionary
281
     1
  0
XRECORD
  5
A929
102
{ACAD_REACTORS
330
47
102
}
330
47
100
AcDbXrecord
280
     1
 90
-1023410169
  0
XRECORD
  5
B332
102
{ACAD_REACTORS
330
B331
102
}
330
B331
100
AcDbXrecord
280
     1
  0
XRECORD
  5
3FB7
102
{ACAD_REACTORS
330
3F96
102
}
330
3F96
100
AcDbXrecord
280
     1
 91
        3
330
0
 90
        8
 62
     7
370
    40
331
16
  1
Color_7
330
0
 90
        0
 62
    14
370
    -3
331
16
  1
Color_14
330
0
 90
        8
 62
     7
370
    20
331
16
  1
Color_7
330
6D1
 90
        0
 62
     7
370
    -3
331
16
  1
Color_7
330
0
 90
        8
 62
     7
370
    50
331
16
  1
Color_7
330
0
 90
        8
 62
     2
370
    35
331
16
  1
Color_2
330
0
 90
        8
 62
     7
370
    -3
331
16
  1
Color_7
330
10
 90
        8
 62
     7
370
    -3
331
16
  1
Color_7
  0
DICTIONARY
  5
C091
330
22
100
AcDbDictionary
280
     1
281
     1
  3
ACAD_XREC_ROUNDTRIP
360
C092
  0
DICTIONARY
  5
C08F
330
1E
100
AcDbDictionary
280
     1
281
     1
  3
ACAD_XREC_ROUNDTRIP
360
C090
  0
DICTIONARY
  5
C093
330
26
100
AcDbDictionary
280
     1
281
     1
  3
ACAD_XREC_ROUNDTRIP
360
C094
  0
DICTIONARY
  5
C099
330
B0EF
100
AcDbDictionary
280
     1
281
     1
  3
ACAD_XREC_ROUNDTRIP
360
C09A
  0
DICTIONARY
  5
C097
330
B0EE
100
AcDbDictionary
280
     1
281
     1
  3
ACAD_XREC_ROUNDTRIP
360
C098
  0
DICTIONARY
  5
C09B
330
B0F0
100
AcDbDictionary
280
     1
281
     1
  3
ACAD_XREC_ROUNDTRIP
360
C09C
  0
DICTIONARY
  5
C095
330
AABA
100
AcDbDictionary
280
     1
281
     1
  3
ACAD_XREC_ROUNDTRIP
360
C096
  0
XRECORD
  5
C092
102
{ACAD_REACTORS
330
C091
102
}
330
C091
100
AcDbXrecord
280
     1
102
SHADEPLOT
 70
     0
102
SHADEPLOTRESLEVEL
 70
     2
102
SHADEPLOTCUSTOMDPI
 70
   200
  0
XRECORD
  5
C090
102
{ACAD_REACTORS
330
C08F
102
}
330
C08F
100
AcDbXrecord
280
     1
102
SHADEPLOT
 70
     0
102
SHADEPLOTRESLEVEL
 70
     2
102
SHADEPLOTCUSTOMDPI
 70
   300
  0
XRECORD
  5
C094
102
{ACAD_REACTORS
330
C093
102
}
330
C093
100
AcDbXrecord
280
     1
102
SHADEPLOT
 70
     0
102
SHADEPLOTRESLEVEL
 70
     2
102
SHADEPLOTCUSTOMDPI
 70
   300
  0
XRECORD
  5
C09A
102
{ACAD_REACTORS
330
C099
102
}
330
C099
100
AcDbXrecord
280
     1
102
MATERIAL
148
0.0
149
0.0
149
0.0
 93
        0
 94
       63
282
     0
 72
     1
 77
     1
171
     1
175
     1
179
     1
273
     0
  0
XRECORD
  5
C098
102
{ACAD_REACTORS
330
C097
102
}
330
C097
100
AcDbXrecord
280
     1
102
MATERIAL
148
0.0
149
0.0
149
0.0
 93
        0
 94
       63
282
     0
 72
     1
 77
     1
171
     1
175
     1
179
     1
273
     0
  0
XRECORD
  5
C09C
102
{ACAD_REACTORS
330
C09B
102
}
330
C09B
100
AcDbXrecord
280
     1
102
MATERIAL
148
0.0
149
0.0
149
0.0
 93
        0
 94
       63
282
     0
 72
     1
 77
     1
171
     1
175
     1
179
     1
273
     0
  0
XRECORD
  5
C096
102
{ACAD_REACTORS
330
C095
102
}
330
C095
100
AcDbXrecord
280
     1
102
ACAD_ROUNDTRIP_PRE2007_TABLESTYLE
 90
        4
 91
        0
  1

 92
        4
 93
        0
  2

 94
        4
 95
        0
  3

  0
ENDSEC
  0
EOF
