  0
SECTION
  2
HEADER
  9
$ACADVER
  1
AC1015
  9
$ACADMAINTVER
 70
    20
  9
$DWGCODEPAGE
  3
ANSI_932
  9
$INSBASE
 10
0.0
 20
0.0
 30
0.0
  9
$EXTMIN
 10
-0.0115967541825057
 20
-0.0222708651341463
 30
-0.0000000000000053
  9
$EXTMAX
 10
381.013069935904
 20
273.0117971275045
 30
0.0000000000000099
  9
$LIMMIN
 10
0.0
 20
0.0
  9
$LIMMAX
 10
420.0
 20
297.0
  9
$ORTHOMODE
 70
     0
  9
$REGENMODE
 70
     1
  9
$FILLMODE
 70
     1
  9
$QTEXTMODE
 70
     0
  9
$MIRRTEXT
 70
     0
  9
$LTSCALE
 40
1.0
  9
$ATTMODE
 70
     1
  9
$TEXTSIZE
 40
3.2
  9
$TRACEWID
 40
1.0
  9
$TEXTSTYLE
  7
STANDARD
  9
$CLAYER
  8
AM_0
  9
$CELTYPE
  6
ByLayer
  9
$CECOLOR
 62
   256
  9
$CELTSCALE
 40
1.0
  9
$DISPSILH
 70
     0
  9
$DIMSCALE
 40
1.0
  9
$DIMASZ
 40
1.0
  9
$DIMEXO
 40
1.0
  9
$DIMDLI
 40
10.0
  9
$DIMRND
 40
0.0
  9
$DIMDLE
 40
0.0
  9
$DIMEXE
 40
1.0
  9
$DIMTP
 40
0.1
  9
$DIMTM
 40
0.1
  9
$DIMTXT
 40
3.5
  9
$DIMCEN
 40
0.0
  9
$DIMTSZ
 40
0.0
  9
$DIMTOL
 70
     0
  9
$DIMLIM
 70
     0
  9
$DIMTIH
 70
     0
  9
$DIMTOH
 70
     0
  9
$DIMSE1
 70
     0
  9
$DIMSE2
 70
     0
  9
$DIMTAD
 70
     1
  9
$DIMZIN
 70
     8
  9
$DIMBLK
  1

  9
$DIMASO
 70
     1
  9
$DIMSHO
 70
     1
  9
$DIMPOST
  1

  9
$DIMAPOST
  1
"
  9
$DIMALT
 70
     0
  9
$DIMALTD
 70
     2
  9
$DIMALTF
 40
0.0393701
  9
$DIMLFAC
 40
1.0
  9
$DIMTOFL
 70
     1
  9
$DIMTVP
 40
0.0
  9
$DIMTIX
 70
     0
  9
$DIMSOXD
 70
     0
  9
$DIMSAH
 70
     0
  9
$DIMBLK1
  1

  9
$DIMBLK2
  1

  9
$DIMSTYLE
  2
SYS
  9
$DIMCLRD
 70
   256
  9
$DIMCLRE
 70
   256
  9
$DIMCLRT
 70
     7
  9
$DIMTFAC
 40
0.71
  9
$DIMGAP
 40
1.5
  9
$DIMJUST
 70
     0
  9
$DIMSD1
 70
     0
  9
$DIMSD2
 70
     0
  9
$DIMTOLJ
 70
     0
  9
$DIMTZIN
 70
     8
  9
$DIMALTZ
 70
     0
  9
$DIMALTTZ
 70
     0
  9
$DIMUPT
 70
     0
  9
$DIMDEC
 70
     2
  9
$DIMTDEC
 70
     2
  9
$DIMALTU
 70
     2
  9
$DIMALTTD
 70
     2
  9
$DIMTXSTY
  7
STANDARD
  9
$DIMAUNIT
 70
     0
  9
$DIMADEC
 70
     0
  9
$DIMALTRND
 40
0.0
  9
$DIMAZIN
 70
     2
  9
$DIMDSEP
 70
    46
  9
$DIMATFIT
 70
     3
  9
$DIMFRAC
 70
     0
  9
$DIMLDRBLK
  1

  9
$DIMLUNIT
 70
     2
  9
$DIMLWD
 70
    -1
  9
$DIMLWE
 70
    -1
  9
$DIMTMOVE
 70
     0
  9
$LUNITS
 70
     2
  9
$LUPREC
 70
     2
  9
$SKETCHINC
 40
1.0
  9
$FILLETRAD
 40
0.0
  9
$AUNITS
 70
     0
  9
$AUPREC
 70
     0
  9
$MENU
  1
.
  9
$ELEVATION
 40
0.0
  9
$PELEVATION
 40
0.0
  9
$THICKNESS
 40
0.0
  9
$LIMCHECK
 70
     0
  9
$CHAMFERA
 40
0.0
  9
$CHAMFERB
 40
0.0
  9
$CHAMFERC
 40
20.0
  9
$CHAMFERD
 40
0.0
  9
$SKPOLY
 70
     0
  9
$TDCREATE
 40
2454623.672555150
  9
$TDUCREATE
 40
2454623.297555151
  9
$TDUPDATE
 40
2456267.607745220
  9
$TDUUPDATE
 40
2456267.232745220
  9
$TDINDWG
 40
0.0909320486
  9
$TDUSRTIMER
 40
0.0909318750
  9
$USRTIMER
 70
     1
  9
$ANGBASE
 50
0.0
  9
$ANGDIR
 70
     0
  9
$PDMODE
 70
     0
  9
$PDSIZE
 40
-3.0
  9
$PLINEWID
 40
0.0
  9
$SPLFRAME
 70
     0
  9
$SPLINETYPE
 70
     6
  9
$SPLINESEGS
 70
     8
  9
$HANDSEED
  5
DE18
  9
$SURFTAB1
 70
     6
  9
$SURFTAB2
 70
     6
  9
$SURFTYPE
 70
     6
  9
$SURFU
 70
     6
  9
$SURFV
 70
     6
  9
$UCSBASE
  2

  9
$UCSNAME
  2

  9
$UCSORG
 10
0.0
 20
0.0
 30
0.0
  9
$UCSXDIR
 10
1.0
 20
0.0
 30
0.0
  9
$UCSYDIR
 10
0.0
 20
1.0
 30
0.0
  9
$UCSORTHOREF
  2

  9
$UCSORTHOVIEW
 70
     0
  9
$UCSORGTOP
 10
0.0
 20
0.0
 30
0.0
  9
$UCSORGBOTTOM
 10
0.0
 20
0.0
 30
0.0
  9
$UCSORGLEFT
 10
0.0
 20
0.0
 30
0.0
  9
$UCSORGRIGHT
 10
0.0
 20
0.0
 30
0.0
  9
$UCSORGFRONT
 10
0.0
 20
0.0
 30
0.0
  9
$UCSORGBACK
 10
0.0
 20
0.0
 30
0.0
  9
$PUCSBASE
  2

  9
$PUCSNAME
  2

  9
$PUCSORG
 10
0.0
 20
0.0
 30
0.0
  9
$PUCSXDIR
 10
1.0
 20
0.0
 30
0.0
  9
$PUCSYDIR
 10
0.0
 20
1.0
 30
0.0
  9
$PUCSORTHOREF
  2

  9
$PUCSORTHOVIEW
 70
     0
  9
$PUCSORGTOP
 10
0.0
 20
0.0
 30
0.0
  9
$PUCSORGBOTTOM
 10
0.0
 20
0.0
 30
0.0
  9
$PUCSORGLEFT
 10
0.0
 20
0.0
 30
0.0
  9
$PUCSORGRIGHT
 10
0.0
 20
0.0
 30
0.0
  9
$PUCSORGFRONT
 10
0.0
 20
0.0
 30
0.0
  9
$PUCSORGBACK
 10
0.0
 20
0.0
 30
0.0
  9
$USERI1
 70
     0
  9
$USERI2
 70
     0
  9
$USERI3
 70
     0
  9
$USERI4
 70
     0
  9
$USERI5
 70
     0
  9
$USERR1
 40
0.0
  9
$USERR2
 40
0.0
  9
$USERR3
 40
0.0
  9
$USERR4
 40
0.0
  9
$USERR5
 40
0.0
  9
$WORLDVIEW
 70
     1
  9
$SHADEDGE
 70
     3
  9
$SHADEDIF
 70
    70
  9
$TILEMODE
 70
     1
  9
$MAXACTVP
 70
    64
  9
$PINSBASE
 10
0.0
 20
0.0
 30
0.0
  9
$PLIMCHECK
 70
     0
  9
$PEXTMIN
 10
1.000000000000000E+20
 20
1.000000000000000E+20
 30
1.000000000000000E+20
  9
$PEXTMAX
 10
-1.000000000000000E+20
 20
-1.000000000000000E+20
 30
-1.000000000000000E+20
  9
$PLIMMIN
 10
-3.17498779296875
 20
-3.174999952316284
  9
$PLIMMAX
 10
293.4970092773438
 20
206.692492723465
  9
$UNITMODE
 70
     0
  9
$VISRETAIN
 70
     1
  9
$PLINEGEN
 70
     0
  9
$PSLTSCALE
 70
     1
  9
$TREEDEPTH
 70
  3020
  9
$CMLSTYLE
  2
Standard
  9
$CMLJUST
 70
     0
  9
$CMLSCALE
 40
20.0
  9
$PROXYGRAPHICS
 70
     1
  9
$MEASUREMENT
 70
     1
  9
$CELWEIGHT
370
    -1
  9
$ENDCAPS
280
     0
  9
$JOINSTYLE
280
     0
  9
$LWDISPLAY
290
     1
  9
$INSUNITS
 70
     4
  9
$HYPERLINKBASE
  1

  9
$STYLESHEET
  1
monochrome.ctb
  9
$XEDIT
290
     1
  9
$CEPSNTYPE
380
     0
  9
$PSTYLEMODE
290
     1
  9
$FINGERPRINTGUID
  2
{9C241B9A-E748-4606-A568-EE0CF04FE078}
  9
$VERSIONGUID
  2
{8636B77B-06FC-4006-A288-F5F57D5D4616}
  9
$EXTNAMES
290
     1
  9
$PSVPSCALE
 40
0.0
  9
$OLESTARTUP
290
     0
  0
ENDSEC
  0
SECTION
  2
CLASSES
  0
CLASS
  1
ACDBDICTIONARYWDFLT
  2
AcDbDictionaryWithDefault
  3
ObjectDBX Classes
 90
        0
280
     0
281
     0
  0
CLASS
  1
ACDBPLACEHOLDER
  2
AcDbPlaceHolder
  3
ObjectDBX Classes
 90
        0
280
     0
281
     0
  0
CLASS
  1
LAYOUT
  2
AcDbLayout
  3
ObjectDBX Classes
 90
        0
280
     0
281
     0
  0
CLASS
  1
AMGSETTINGSOBJ
  2
AmgSettingsObj
  3
"AcadM|Product Description: AutoCAD Mechanical|Company: Autodesk"
 90
        0
280
     0
281
     0
  0
CLASS
  1
ACME_DOCUMENT
  2
AcMeDbDoc
  3
AcMeServices
 90
        0
280
     0
281
     0
  0
CLASS
  1
ACMESCOPE
  2
AcMeScope
  3
AcMeServices
 90
        0
280
     0
281
     0
  0
CLASS
  1
ACMECOMMANDHISTORY
  2
AcMeCommandHistory
  3
AcMeServices
 90
        0
280
     0
281
     0
  0
CLASS
  1
DICTIONARYVAR
  2
AcDbDictionaryVar
  3
ObjectDBX Classes
 90
        0
280
     0
281
     0
  0
CLASS
  1
ACIMSYSVARMAN
  2
AcImSysVarManager
  3
AcMeServices
 90
        0
280
     0
281
     0
  0
CLASS
  1
ACIMREALSYSVAR
  2
AcImRealSysVar
  3
AcMeServices
 90
        0
280
     0
281
     0
  0
CLASS
  1
ACIMINTSYSVAR
  2
AcImIntSysVar
  3
AcMeServices
 90
        0
280
     0
281
     0
  0
CLASS
  1
ACMEDRAWINGMAN
  2
AcMeDrawingMan
  3
AcMeServices
 90
        0
280
     0
281
     0
  0
CLASS
  1
ACMEVIEW
  2
AcMeView
  3
AcMeServices
 90
        0
280
     0
281
     0
  0
CLASS
  1
ACDBENTITYCACHE
  2
AcMeEntityCache
  3
AcMeServices
 90
        0
280
     0
281
     0
  0
CLASS
  1
GSMANAGER
  2
AcMeGSManager
  3
AcMeServices
 90
        0
280
     0
281
     0
  0
CLASS
  1
AMDTINTERNALREACTOR
  2
AmdtInternalReactor
  3
AcMeServices
 90
        0
280
     0
281
     0
  0
CLASS
  1
ACMESTATEMGR
  2
AcMeStateMgr
  3
AcMeServices
 90
        0
280
     0
281
     0
  0
CLASS
  1
ACGREFMASTER
  2
AcGrefMaster
  3
AcAttribServices
 90
        0
280
     0
281
     0
  0
CLASS
  1
ACME_DATABASE
  2
AcMeDbDatabase
  3
AcMeServices
 90
        0
280
     0
281
     0
  0
CLASS
  1
ACRFINSADJUSTERMGR
  2
AcRfInsAdjusterMgr
  3
AcMeServices
 90
        0
280
     0
281
     0
  0
CLASS
  1
ACGREFACADMASTER
  2
AcGrefacadMaster
  3
AcGrefServices
 90
        0
280
     0
281
     0
  0
CLASS
  1
AMIMASTER
  2
AmiMaster
  3
AmiServices
 90
        0
280
     0
281
     0
  0
CLASS
  1
ACMDATADICTIONARY
  2
AcmDataDictionary
  3
"AcmSymBB|Product Description: AutoCAD Mechanical|Company: Autodesk"
 90
        0
280
     0
281
     0
  0
CLASS
  1
ACMDATAENTRYBLOCK
  2
AcmDataEntryBlock
  3
"AcmSymBB|Product Description: AutoCAD Mechanical|Company: Autodesk"
 90
        0
280
     0
281
     0
  0
CLASS
  1
ACIMSTRSYSVAR
  2
AcImStrSysVar
  3
AcMeServices
 90
        0
280
     0
281
     0
  0
CLASS
  1
ACMSTANDARDISO
  2
AcmStandardISO
  3
"Amdt_StdImp|Product Description: AutoCAD Mechanical|Company: Autodesk"
 90
        0
280
     0
281
     0
  0
CLASS
  1
AMGOBJPROPCFG
  2
AmgObjPropCfg
  3
"AmgLay|Product Description: AutoCAD Mechanical|Company: Autodesk"
 90
        1
280
     0
281
     0
  0
CLASS
  1
AMDTEDGESTANDARDISO
  2
AmdtEdgeStdISO
  3
"Amdt_StdImp|Product Description: AutoCAD Mechanical|Company: Autodesk"
 90
        0
280
     0
281
     0
  0
CLASS
  1
ACMSURFSTANDARDISO
  2
AcmSurfTextStdISO
  3
"Amdt_StdImp|Product Description: AutoCAD Mechanical|Company: Autodesk"
 90
        0
280
     0
281
     0
  0
CLASS
  1
ACMFCFSTANDARDISO
  2
AcmFCFStdISO
  3
"Amdt_StdImp|Product Description: AutoCAD Mechanical|Company: Autodesk"
 90
        0
280
     0
281
     0
  0
CLASS
  1
ACMWELDSTANDARDISO
  2
AcmWeldingStdISO
  3
"Amdt_StdImp|Product Description: AutoCAD Mechanical|Company: Autodesk"
 90
        0
280
     0
281
     0
  0
CLASS
  1
ACMIDSTANDARDISO
  2
AcmIdStdISO
  3
"Amdt_StdImp|Product Description: AutoCAD Mechanical|Company: Autodesk"
 90
        0
280
     0
281
     0
  0
CLASS
  1
ACMDATUMSTANDARDISO
  2
AcmDatumStdISO
  3
"Amdt_StdImp|Product Description: AutoCAD Mechanical|Company: Autodesk"
 90
        0
280
     0
281
     0
  0
CLASS
  1
ACMBOMSTANDARDISO
  2
AcmBOMStdISO
  3
"Amdt_StdImp|Product Description: AutoCAD Mechanical|Company: Autodesk"
 90
        0
280
     0
281
     0
  0
CLASS
  1
ACMDETAILSTANDARDISO
  2
AmdtDetailSymStdISO
  3
"Amdt_StdImp|Product Description: AutoCAD Mechanical|Company: Autodesk"
 90
        0
280
     0
281
     0
  0
CLASS
  1
ACMSECTIONSTANDARDISO
  2
AmdtSectionSymStdISO
  3
"Amdt_StdImp|Product Description: AutoCAD Mechanical|Company: Autodesk"
 90
        0
280
     0
281
     0
  0
CLASS
  1
ACMCENTERLINESTANDARDISO
  2
AmdtCenterLineStdISO
  3
"Amdt_StdImp|Product Description: AutoCAD Mechanical|Company: Autodesk"
 90
        0
280
     0
281
     0
  0
CLASS
  1
ACAMGLAYSTD
  2
AcAmgLayStd
  3
"AmgLay|Product Description: AutoCAD Mechanical|Company: Autodesk"
 90
        0
280
     0
281
     0
  0
CLASS
  1
ACAMGDIMSTD
  2
AcAmgDimStd
  3
"AmgDim|Product Description: AutoCAD Mechanical|Company: Autodesk"
 90
        0
280
     0
281
     0
  0
CLASS
  1
ACAMGTITLESTD
  2
AcAmgTitleStd
  3
"AmgTitle|Product Description: AutoCAD Mechanical|Company: Autodesk"
 90
        0
280
     0
281
     0
  0
CLASS
  1
ACAMGFILTERDAT
  2
AcAmgFilterDat
  3
"AcadM|Product Description: AutoCAD Mechanical|Company: Autodesk"
 90
        0
280
     0
281
     0
  0
CLASS
  1
LAYER_INDEX
  2
AcDbLayerIndex
  3
ObjectDBX Classes
 90
    32768
280
     0
281
     0
  0
CLASS
  1
IDBUFFER
  2
AcDbIdBuffer
  3
ObjectDBX Classes
 90
    32768
280
     0
281
     0
  0
CLASS
  1
PLOTSETTINGS
  2
AcDbPlotSettings
  3
ObjectDBX Classes
 90
        0
280
     0
281
     0
  0
CLASS
  1
AMDTFORMULAUPDATEDISPATCHER
  2
AmdtFormulaUpdateDispatcher
  3
AcMeServices
 90
        0
280
     0
281
     0
  0
CLASS
  1
ACMSTANDARDANSI
  2
AcmStandardANSI
  3
"Amdt_StdImp|Product Description: AutoCAD Mechanical|Company: Autodesk"
 90
        0
280
     0
281
     0
  0
CLASS
  1
ACMSURFSTANDARDANSI
  2
AcmSurfTextStdANSI
  3
"Amdt_StdImp|Product Description: AutoCAD Mechanical|Company: Autodesk"
 90
        0
280
     0
281
     0
  0
CLASS
  1
ACMFCFSTANDARDANSI
  2
AcmFCFStdANSI
  3
"Amdt_StdImp|Product Description: AutoCAD Mechanical|Company: Autodesk"
 90
        0
280
     0
281
     0
  0
CLASS
  1
ACMWELDSTANDARDANSI
  2
AcmWeldingStdANSI
  3
"Amdt_StdImp|Product Description: AutoCAD Mechanical|Company: Autodesk"
 90
        0
280
     0
281
     0
  0
CLASS
  1
ACMIDSTANDARDANSI
  2
AcmIdStdANSI
  3
"Amdt_StdImp|Product Description: AutoCAD Mechanical|Company: Autodesk"
 90
        0
280
     0
281
     0
  0
CLASS
  1
ACMDATUMSTANDARDANSI
  2
AcmDatumStdANSI
  3
"Amdt_StdImp|Product Description: AutoCAD Mechanical|Company: Autodesk"
 90
        0
280
     0
281
     0
  0
CLASS
  1
ACMBOMSTANDARDANSI
  2
AcmBOMStdANSI
  3
"Amdt_StdImp|Product Description: AutoCAD Mechanical|Company: Autodesk"
 90
        0
280
     0
281
     0
  0
CLASS
  1
ACMDETAILSTANDARDANSI
  2
AmdtDetailSymStdANSI
  3
"Amdt_StdImp|Product Description: AutoCAD Mechanical|Company: Autodesk"
 90
        0
280
     0
281
     0
  0
CLASS
  1
ACMSECTIONSTANDARDANSI
  2
AmdtSectionSymStdANSI
  3
"Amdt_StdImp|Product Description: AutoCAD Mechanical|Company: Autodesk"
 90
        0
280
     0
281
     0
  0
CLASS
  1
ACMCENTERLINESTANDARDANSI
  2
AmdtCenterLineStdANSI
  3
"Amdt_StdImp|Product Description: AutoCAD Mechanical|Company: Autodesk"
 90
        0
280
     0
281
     0
  0
CLASS
  1
ACMBOM
  2
AcmBom
  3
"AcmSymBB|Product Description: AutoCAD Mechanical|Company: Autodesk"
 90
        0
280
     0
281
     0
  0
CLASS
  1
ACMDATAENTRYPART
  2
AcmDataEntryPart
  3
"AcmSymBB|Product Description: AutoCAD Mechanical|Company: Autodesk"
 90
    32768
280
     0
281
     0
  0
CLASS
  1
ACMPARTREF
  2
AcmPartRef
  3
"AcmSymBB|Product Description: AutoCAD Mechanical|Company: Autodesk"
 90
    35839
280
     0
281
     1
  0
CLASS
  1
ACDBCIRCARCRES
  2
AcDbCircArcRes
  3
AcGrefServices
 90
    32768
280
     0
281
     0
  0
CLASS
  1
ACMBOMROW
  2
AcmBomRow
  3
"AcmSymBB|Product Description: AutoCAD Mechanical|Company: Autodesk"
 90
    32768
280
     0
281
     0
  0
CLASS
  1
ACMBALLOON
  2
AcmBalloon
  3
"AcmSymBB|Product Description: AutoCAD Mechanical|Company: Autodesk"
 90
    35839
280
     0
281
     1
  0
CLASS
  1
AMDTNOTE
  2
AmdtNote
  3
"AcmSymBB|Product Description: AutoCAD Mechanical|Company: Autodesk"
 90
    35839
280
     0
281
     1
  0
CLASS
  1
STDPART2D
  2
AmgStdPart
  3
"g3vace|Class: AmgStdPart|Product Description: AutoCAD Mechanical|Company: Autodesk"
 90
    35839
280
     0
281
     1
  0
CLASS
  1
ACDBSTDPARTRES_LINE
  2
AcDbStdPartRes_Line
  3
"g3vace|Class: AcDbStdPartRes_Line|Product Description: AutoCAD Mechanical|Company: Autodesk"
 90
    32768
280
     0
281
     0
  0
CLASS
  1
ACMDATAENTRY
  2
AcmDataEntry
  3
"AcmSymBB|Product Description: AutoCAD Mechanical|Company: Autodesk"
 90
        0
280
     0
281
     0
  0
CLASS
  1
ACDBOPPOLYLINERES
  2
AcDbOpPolylineRes
  3
AcGrefServices
 90
    32768
280
     0
281
     0
  0
CLASS
  1
ACMPARTLIST
  2
AcmPartList
  3
"AcmSymBB|Product Description: AutoCAD Mechanical|Company: Autodesk"
 90
    35839
280
     0
281
     1
  0
CLASS
  1
ACDBLINERES
  2
AcDbLineRes
  3
AcGrefServices
 90
    32768
280
     0
281
     0
  0
CLASS
  1
ACRFINSADJ
  2
AcRfInsAdjuster
  3
AcMeServices
 90
    32768
280
     0
281
     0
  0
CLASS
  1
AM_DRAWING_MGR
  2
AcDmDwgMgr
  3
AcMechDwgViewMgmt
 90
        0
280
     0
281
     0
  0
CLASS
  1
AM_DWG_DOCUMENT
  2
AcDmDwgDocument
  3
AcMechDwgViewMgmt
 90
        0
280
     0
281
     0
  0
CLASS
  1
AM_DWG_SHEET
  2
AcDmSheet
  3
AcMechDwgViewMgmt
 90
        0
280
     0
281
     0
  0
CLASS
  1
AM_VIEWDIMPARMAP
  2
AcDmViewDimParMap
  3
AcMechDwgViewMgmt
 90
        0
280
     0
281
     0
  0
CLASS
  1
AM_DWGMGR_NAME
  2
AcDmDwgMgrName
  3
AcMechDwgViewMgmt
 90
        0
280
     0
281
     0
  0
CLASS
  1
AMDTMENUSTATEMGR
  2
AmdtMenuStateMgr
  3
McadcomServices
 90
        0
280
     0
281
     0
  0
CLASS
  1
AMDTMCOMMENUSTATE
  2
AmdtMcomMenuState
  3
McadcomServices
 90
        0
280
     0
281
     0
  0
CLASS
  1
ASAPP
  2
AcAsAppObject
  3
AutoSurfServices
 90
        0
280
     0
281
     0
  0
CLASS
  1
IM_STATIC_MAN
  2
AcImStaticVarManager
  3
AcMeServices
 90
        0
280
     0
281
     0
  0
CLASS
  1
ACIMDBLSTATICVAR
  2
AcImDblStaticVar
  3
AcMeServices
 90
        0
280
     0
281
     0
  0
CLASS
  1
ACIMSTRSTATICVAR
  2
AcImStrStaticVar
  3
AcMeServices
 90
        0
280
     0
281
     0
  0
CLASS
  1
ACIMINTSTATICVAR
  2
AcImIntStaticVar
  3
AcMeServices
 90
        0
280
     0
281
     0
  0
CLASS
  1
ACASGREFMASTER
  2
AcAsGrefMaster
  3
AutoSurfResolverServices
 90
        0
280
     0
281
     0
  0
CLASS
  1
ACADGREFMODULE
  2
AcAdGrefModule
  3
AdGrefServices
 90
        0
280
     0
281
     0
  0
CLASS
  1
AMDTMAPISURFMOUDULE
  2
AmdtMApiSurfModule
  3
MApiSurfServices
 90
        0
280
     0
281
     0
  0
CLASS
  1
MAPIAMMOUDLE
  2
MApiAmModule
  3
MApiAmServices
 90
        0
280
     0
281
     0
  0
CLASS
  1
AMDTADMENUSTATE
  2
AmdtAdMenuState
  3
DesignerServices
 90
        0
280
     0
281
     0
  0
CLASS
  1
ADAPPL
  2
AcAdAppl
  3
DesignerServices
 90
        0
280
     0
281
     0
  0
CLASS
  1
DEPMGR
  2
AcAdDepMgr
  3
DesignerServices
 90
        0
280
     0
281
     0
  0
CLASS
  1
PARAMMGR
  2
AcAdParamMgr
  3
DesignerServices
 90
        0
280
     0
281
     0
  0
CLASS
  1
PARAMSCOPE
  2
AcAdParamScope
  3
DesignerServices
 90
        0
280
     0
281
     0
  0
CLASS
  1
NAMEDAPPL
  2
AcAdNamedAppl
  3
DesignerServices
 90
        0
280
     0
281
     0
  0
CLASS
  1
ADHNTMPLT
  2
AdHoleNoteTemplateMgr
  3
DesignerServices
 90
    32768
280
     0
281
     0
  0
CLASS
  1
AM_HNTEMPLATE_MGR_NAME
  2
AdHoleNoteTemplateMgrName
  3
DesignerServices
 90
    32768
280
     0
281
     0
  0
CLASS
  1
AMDTDMMENUSTATE
  2
AmdtDmMenuState
  3
AcMechDwgViewMgmt
 90
        0
280
     0
281
     0
  0
CLASS
  1
MAPIADMODULE
  2
MApiAdModule
  3
MApiAdServices
 90
        0
280
     0
281
     0
  0
CLASS
  1
AMDTAMMENUSTATE
  2
AmdtAmMenuState
  3
DesignerAssemblies
 90
        0
280
     0
281
     0
  0
CLASS
  1
ACAMPROJECT
  2
AcAmProject
  3
DesignerAssemblies
 90
        0
280
     0
281
     0
  0
CLASS
  1
ACAMGRCOMPDEF
  2
AcAmGrCompDef
  3
DesignerAssemblies
 90
        0
280
     0
281
     0
  0
CLASS
  1
ACCMCONTEXT
  2
AcCmContext
  3
DesignerAssemblies
 90
        0
280
     0
281
     0
  0
CLASS
  1
ACAMCOMPDEF
  2
AcAmCompDef
  3
DesignerAssemblies
 90
        0
280
     0
281
     0
  0
CLASS
  1
ACAMCOMPDEFMGR
  2
AcAmCompDefMgr
  3
DesignerAssemblies
 90
        0
280
     0
281
     0
  0
CLASS
  1
AMCONTEXTMGR
  2
AcAmContextMgr
  3
DesignerAssemblies
 90
        0
280
     0
281
     0
  0
CLASS
  1
ACAMCONTEXTMODELER
  2
AcAmContextModeler
  3
DesignerAssemblies
 90
        0
280
     0
281
     0
  0
CLASS
  1
CATALOGSTATE
  2
AcAmCatalogState
  3
DesignerAssemblies
 90
        0
280
     0
281
     0
  0
CLASS
  1
ACAMGRCOMPDEFSET
  2
AcAmGrCompDefSet
  3
DesignerAssemblies
 90
        0
280
     0
281
     0
  0
CLASS
  1
AMDTBROWSERDBTAB
  2
AmdtBrowserDbTab
  3
McadcomServices
 90
        0
280
     0
281
     0
  0
CLASS
  1
CBROWSERAPPOBJECT
  2
CBrowserAppObject
  3
McadcomServices
 90
        0
280
     0
281
     0
  0
CLASS
  1
DM_PLACEHOLDER
  2
AcDmSelsetPlaceholder
  3
AcMechDwgViewMgmt
 90
        0
280
     0
281
     0
  0
CLASS
  1
ACMPICKOBJ
  2
AcmPickEnt
  3
"AcmSymBB|Product Description: AutoCAD Mechanical|Company: Autodesk"
 90
    32768
280
     0
281
     1
  0
CLASS
  1
ACMNOTESTANDARDISO
  2
AmdtNoteStdISO
  3
"Amdt_StdImp|Product Description: AutoCAD Mechanical|Company: Autodesk"
 90
        0
280
     0
281
     0
  0
CLASS
  1
ACMNOTESTANDARDANSI
  2
AmdtNoteStdANSI
  3
"Amdt_StdImp|Product Description: AutoCAD Mechanical|Company: Autodesk"
 90
        0
280
     0
281
     0
  0
CLASS
  1
ACMTHREADLINESTANDARDISO
  2
AmdtThreadLineStdISO
  3
"Amdt_StdImp|Product Description: AutoCAD Mechanical|Company: Autodesk"
 90
        0
280
     0
281
     0
  0
CLASS
  1
ACMTHREADLINESTANDARDANSI
  2
AmdtThreadLineStdANSI
  3
"Amdt_StdImp|Product Description: AutoCAD Mechanical|Company: Autodesk"
 90
        0
280
     0
281
     0
  0
CLASS
  1
TABLESTYLE
  2
AcDbTableStyle
  3
ObjectDBX Classes
 90
     4095
280
     0
281
     0
  0
CLASS
  1
SORTENTSTABLE
  2
AcDbSortentsTable
  3
ObjectDBX Classes
 90
        0
280
     0
281
     0
  0
CLASS
  1
MATERIAL
  2
AcDbMaterial
  3
ObjectDBX Classes
 90
     1024
280
     0
281
     0
  0
CLASS
  1
VISUALSTYLE
  2
AcDbVisualStyle
  3
ObjectDBX Classes
 90
     4095
280
     0
281
     0
  0
CLASS
  1
ACRFATTGENMGR
  2
AcRfAttGeneralMgr
  3
AcAttribServices
 90
        0
280
     0
281
     0
  0
CLASS
  1
ACRFOBJATTMGR
  2
AcRfObjAttGroupMgr
  3
AcAttribServices
 90
        0
280
     0
281
     0
  0
CLASS
  1
ACRFMCADAPIATTHOLDER
  2
AcRfMCADAPIAttHolder
  3
AcAttribServices
 90
        0
280
     0
281
     0
  0
CLASS
  1
AMDTSYSATTR
  2
AmdtSystemAttribute
  3
AcAttribServices
 90
        0
280
     0
281
     0
  0
CLASS
  1
ACMTAPERSTANDARDISO
  2
AcmTaperStdISO
  3
"Amdt_StdImp|Product Description: AutoCAD Mechanical|Company: Autodesk"
 90
        0
280
     0
281
     0
  0
CLASS
  1
CAMSSTRUCTBTNSTATE
  2
StructBtnState
  3
L"DesignerAssemblies"
 90
        0
280
     0
281
     0
  0
CLASS
  1
DIMASSOC
  2
AcDbDimAssoc
  3
"AcDbDimAssoc|Product Desc:     AcDim ARX App For Dimension|Company:          Autodesk, Inc.|WEB Address:      www.autodesk.com"
 90
    32768
280
     0
281
     0
  0
CLASS
  1
AMDTNOTETEMPLATEDB
  2
AmdtNoteTemplateDB
  3
AMDT_STDIMP_MODULE_NAME
 90
        0
280
     0
281
     0
  0
CLASS
  1
ACMTAPERSTANDARDANSI
  2
AcmTaperStdANSI
  3
"Amdt_StdImp|Product Description: AutoCAD Mechanical|Company: Autodesk"
 90
        0
280
     0
281
     0
  0
CLASS
  1
ACAMGHOLECHARTSTDANSI
  2
AcAmgHoleChartStdANSI
  3
ACMSYMBB_MODULE_NAME
 90
        0
280
     0
281
     0
  0
CLASS
  1
AMDTEDGESTANDARDISO13715
  2
AmdtEdgeStdISO13715
  3
"Amdt_StdImp|Product Description: AutoCAD Mechanical|Company: Autodesk"
 90
        0
280
     0
281
     0
  0
CLASS
  1
ACAMGHOLECHARTSTDISO
  2
AcAmgHoleChartStdISO
  3
ACMSYMBB_MODULE_NAME
 90
        0
280
     0
281
     0
  0
CLASS
  1
SCALE
  2
AcDbScale
  3
ObjectDBX Classes
 90
     1153
280
     0
281
     0
  0
CLASS
  1
MLEADERSTYLE
  2
AcDbMLeaderStyle
  3
ACDB_MLEADERSTYLE_CLASS
 90
     4095
280
     0
281
     0
  0
CLASS
  1
ACMANOOTATIONVIEWSTANDARDISO
  2
AmdtAnViewStdISO
  3
"Amdt_StdImp|Product Description: AutoCAD Mechanical|Company: Autodesk, Inc."
 90
    33792
280
     0
281
     0
  0
CLASS
  1
ACMANOOTATIONVIEWSTANDARDANSI
  2
AmdtAnViewStdANSI
  3
"Amdt_StdImp|Product Description: AutoCAD Mechanical|Company: Autodesk, Inc."
 90
    33792
280
     0
281
     0
  0
CLASS
  1
CELLSTYLEMAP
  2
AcDbCellStyleMap
  3
ObjectDBX Classes
 90
     1152
280
     0
281
     0
  0
ENDSEC
  0
SECTION
  2
TABLES
  0
TABLE
  2
VPORT
  5
8
330
0
100
AcDbSymbolTable
 70
     1
  0
VPORT
  5
B0EC
330
8
100
AcDbSymbolTableRecord
100
AcDbViewportTableRecord
  2
*Active
 70
     0
 10
0.0
 20
0.0
 11
1.0
 21
1.0
 12
190.5007365908607
 22
136.4947631311852
 13
0.0
 23
0.0
 14
2.5
 24
2.5
 15
10.0
 25
10.0
 16
0.0
 26
0.0
 36
1.0
 17
0.0
 27
0.0
 37
0.0
 40
275.0441347508667
 41
1.648648648648648
 42
50.0
 43
-1370.695619172058
 44
-1370.695619172058
 50
0.0
 51
0.0
 71
     0
 72
   100
 73
     1
 74
     3
 75
     0
 76
     0
 77
     0
 78
     0
281
     0
 65
     0
110
0.0
120
0.0
130
0.0
111
1.0
121
0.0
131
0.0
112
0.0
122
1.0
132
0.0
 79
     0
146
0.0
  0
ENDTAB
  0
TABLE
  2
LTYPE
  5
5
330
0
100
AcDbSymbolTable
 70
    33
  0
LTYPE
  5
14
330
5
100
AcDbSymbolTableRecord
100
AcDbLinetypeTableRecord
  2
ByBlock
 70
     0
  3

 72
    65
 73
     0
 40
0.0
  0
LTYPE
  5
15
330
5
100
AcDbSymbolTableRecord
100
AcDbLinetypeTableRecord
  2
ByLayer
 70
     0
  3

 72
    65
 73
     0
 40
0.0
  0
LTYPE
  5
16
330
5
100
AcDbSymbolTableRecord
100
AcDbLinetypeTableRecord
  2
Continuous
 70
     0
  3
Solid line
 72
    65
 73
     0
 40
0.0
  0
LTYPE
  5
4F
330
5
100
AcDbSymbolTableRecord
100
AcDbLinetypeTableRecord
  2
AM_ISO02W050
 70
     0
  3
__ __ __ __ __ __ __ __ __ __ __ __ __ __ __
 72
    65
 73
     2
 40
7.5
 49
6.0
 74
     0
 49
-1.5
 74
     0
  0
LTYPE
  5
52
330
5
100
AcDbSymbolTableRecord
100
AcDbLinetypeTableRecord
  2
Amconstr
 70
     0
  3
_______________________
 72
    65
 73
     2
 40
9999.0
 49
9999.0
 74
     0
 49
0.0
 74
     0
  0
LTYPE
  5
64
330
5
100
AcDbSymbolTableRecord
100
AcDbLinetypeTableRecord
  2
ACISOWELD
 70
     0
  3
_ _ _ _ _
 72
    65
 73
     2
 40
2.0
 49
2.0
 74
     0
 49
-1.0
 74
     0
  0
LTYPE
  5
65
330
5
100
AcDbSymbolTableRecord
100
AcDbLinetypeTableRecord
  2
ACISOTGB
 70
     0
  3
__ . . __ . .
 72
    65
 73
     6
 40
9.0
 49
4.0
 74
     0
 49
-1.0
 74
     0
 49
1.0
 74
     0
 49
-1.0
 74
     0
 49
1.0
 74
     0
 49
-1.0
 74
     0
  0
LTYPE
  5
66
330
5
100
AcDbSymbolTableRecord
100
AcDbLinetypeTableRecord
  2
ACISOTGL
 70
     0
  3
_ _ _ _ _
 72
    65
 73
     2
 40
3.0
 49
2.0
 74
     0
 49
-1.0
 74
     0
  0
LTYPE
  5
69
330
5
100
AcDbSymbolTableRecord
100
AcDbLinetypeTableRecord
  2
CENTER
 70
     0
  3
__ . __
 72
    65
 73
     4
 40
7.0
 49
4.0
 74
     0
 49
-1.0
 74
     0
 49
1.0
 74
     0
 49
-1.0
 74
     0
  0
LTYPE
  5
A6E
330
5
100
AcDbSymbolTableRecord
100
AcDbLinetypeTableRecord
  2
PHANTOM2
 70
     0
  3
Phantom (.5x) ___ _ _ ___ _ _ ___ _ _ ___ _ _
 72
    65
 73
     6
 40
31.75
 49
15.875
 74
     0
 49
-3.174999999999999
 74
     0
 49
3.174999999999999
 74
     0
 49
-3.174999999999999
 74
     0
 49
3.174999999999999
 74
     0
 49
-3.174999999999999
 74
     0
  0
LTYPE
  5
4DED
330
5
100
AcDbSymbolTableRecord
100
AcDbLinetypeTableRecord
  2
中線
 70
     0
  3
___________________
 72
    65
 73
     2
 40
2.0
 49
1.0
 74
     0
 49
1.0
 74
     0
  0
LTYPE
  5
4DF6
330
5
100
AcDbSymbolTableRecord
100
AcDbLinetypeTableRecord
  2
細線
 70
     0
  3
___________________
 72
    65
 73
     2
 40
2.0
 49
1.0
 74
     0
 49
1.0
 74
     0
  0
LTYPE
  5
4DF7
330
5
100
AcDbSymbolTableRecord
100
AcDbLinetypeTableRecord
  2
太線
 70
     0
  3
___________________
 72
    65
 73
     2
 40
2.0
 49
1.0
 74
     0
 49
1.0
 74
     0
  0
LTYPE
  5
4EA7
330
5
100
AcDbSymbolTableRecord
100
AcDbLinetypeTableRecord
  2
文字
 70
     0
  3
_________________
 72
    65
 73
     2
 40
2.0
 49
1.0
 74
     0
 49
1.0
 74
     0
  0
LTYPE
  5
4EA9
330
5
100
AcDbSymbolTableRecord
100
AcDbLinetypeTableRecord
  2
寸法線
 70
     0
  3
________________
 72
    65
 73
     2
 40
2.0
 49
1.0
 74
     0
 49
1.0
 74
     0
  0
LTYPE
  5
4F12
330
5
100
AcDbSymbolTableRecord
100
AcDbLinetypeTableRecord
  2
ハッチング
 70
     0
  3
_________________
 72
    65
 73
     2
 40
2.0
 49
1.0
 74
     0
 49
1.0
 74
     0
  0
LTYPE
  5
5180
330
5
100
AcDbSymbolTableRecord
100
AcDbLinetypeTableRecord
  2
陰線1
 70
     0
  3
__ __ __ __
 72
    65
 73
     2
 40
4.0
 49
2.2
 74
     0
 49
-1.8
 74
     0
  0
LTYPE
  5
5182
330
5
100
AcDbSymbolTableRecord
100
AcDbLinetypeTableRecord
  2
切断線
 70
     0
  3
/\/-/\/-/\/-/\/-/\/-/\/
 72
    65
 73
     2
 40
11.0001
 49
0.0001
 74
     4
 75
   135
340
56
 46
0.04
 50
0.0
 44
0.0
 45
0.0
 49
-11.0
 74
     0
  0
LTYPE
  5
5183
330
5
100
AcDbSymbolTableRecord
100
AcDbLinetypeTableRecord
  2
想像線1
 70
     0
  3
__ __ __ _____ __ __ ____
 72
    65
 73
     6
 40
14.5
 49
6.0
 74
     0
 49
-1.5
 74
     0
 49
2.0
 74
     0
 49
-1.5
 74
     0
 49
2.0
 74
     0
 49
-1.5
 74
     0
  0
LTYPE
  5
5185
330
5
100
AcDbSymbolTableRecord
100
AcDbLinetypeTableRecord
  2
中心線1
 70
     0
  3
___ _ ___ _ ___
 72
    65
 73
     4
 40
18.0
 49
12.0
 74
     0
 49
-2.0
 74
     0
 49
2.0
 74
     0
 49
-2.0
 74
     0
  0
LTYPE
  5
5188
330
5
100
AcDbSymbolTableRecord
100
AcDbLinetypeTableRecord
  2
補助線
 70
     0
  3
______________
 72
    65
 73
     2
 40
2.0
 49
1.0
 74
     0
 49
1.0
 74
     0
  0
LTYPE
  5
6427
330
5
100
AcDbSymbolTableRecord
100
AcDbLinetypeTableRecord
  2
HIDDEN
 70
     0
  3
Hidden __ __ __ __ __ __ __ __ __ __ __ __ __ _
 72
    65
 73
     2
 40
0.375
 49
0.25
 74
     0
 49
-0.125
 74
     0
  0
LTYPE
  5
AC81
330
5
100
AcDbSymbolTableRecord
100
AcDbLinetypeTableRecord
  2
破断線
 70
     0
  3
/\/-/\/-/\/-/\/-/\/-/\/
 72
    65
 73
     2
 40
0.4401
 49
0.0001
 74
     4
 75
   136
340
AC80
 46
0.0016
 50
0.0
 44
0.0
 45
0.0
 49
-0.4400000000000001
 74
     0
  0
LTYPE
  5
AC9E
330
5
100
AcDbSymbolTableRecord
100
AcDbLinetypeTableRecord
  2
Amzigzag
 70
     0
  3
/\/-/\/-/\/-/\/-/\/-/\/
 72
    65
 73
     2
 40
11.0001
 49
0.0001
 74
     4
 75
   135
340
56
 46
0.04
 50
0.0
 44
0.0
 45
0.0
 49
-11.0
 74
     0
  0
LTYPE
  5
AF0F
330
5
100
AcDbSymbolTableRecord
100
AcDbLinetypeTableRecord
  2
genzigzag
 70
     0
  3
/\/-/\/-/\/-/\/-/\/-/\/
 72
    65
 73
     2
 40
12.0001
 49
0.0001
 74
     4
 75
   135
340
AC80
 46
2.0
 50
0.0
 44
0.0
 45
0.0
 49
-12.0
 74
     0
  0
LTYPE
  5
AF95
330
5
100
AcDbSymbolTableRecord
100
AcDbLinetypeTableRecord
  2
AM_ISO08W050
 70
     0
  3
____ . ____ . ____ . ____ . ____ . ____ . ____
 72
    65
 73
     4
 40
18.0
 49
12.0
 74
     0
 49
-1.5
 74
     0
 49
3.0
 74
     0
 49
-1.5
 74
     0
  0
LTYPE
  5
AF96
330
5
100
AcDbSymbolTableRecord
100
AcDbLinetypeTableRecord
  2
AM_ISO09W050
 70
     0
  3
_____ . . _____ . . _____ . . ____ .. ____
 72
    65
 73
     6
 40
22.5
 49
12.0
 74
     0
 49
-1.5
 74
     0
 49
3.0
 74
     0
 49
-1.5
 74
     0
 49
3.0
 74
     0
 49
-1.5
 74
     0
  0
LTYPE
  5
AF97
330
5
100
AcDbSymbolTableRecord
100
AcDbLinetypeTableRecord
  2
AM_ISO08W050x2
 70
     0
  3
__ . __ . __ . __ . __ . __
 72
    65
 73
     4
 40
9.0
 49
6.0
 74
     0
 49
-0.75
 74
     0
 49
1.5
 74
     0
 49
-0.75
 74
     0
  0
LTYPE
  5
AF98
330
5
100
AcDbSymbolTableRecord
100
AcDbLinetypeTableRecord
  2
AM_ISO02W050x2
 70
     0
  3
 _ _ _ _ _ _ _ _ _ _ _ _
 72
    65
 73
     2
 40
3.75
 49
3.0
 74
     0
 49
-0.75
 74
     0
  0
LTYPE
  5
BBFD
330
5
100
AcDbSymbolTableRecord
100
AcDbLinetypeTableRecord
  2
PHANTOM
 70
     0
  3
_____ _ _ _____ _ _ _____ _ _ _____ _ _ ____  
 72
    65
 73
     6
 40
15.5
 49
8.0
 74
     0
 49
-1.5
 74
     0
 49
1.5
 74
     0
 49
-1.5
 74
     0
 49
1.5
 74
     0
 49
-1.5
 74
     0
  0
LTYPE
  5
BBFE
330
5
100
AcDbSymbolTableRecord
100
AcDbLinetypeTableRecord
  2
CENTER2
 70
     0
  3
Center (.5x) ___ _ ___ _ ___ _ ___ _ ___ _ ___
 72
    65
 73
     4
 40
1.125
 49
0.75
 74
     0
 49
-0.125
 74
     0
 49
0.125
 74
     0
 49
-0.125
 74
     0
  0
LTYPE
  5
BBFF
330
5
100
AcDbSymbolTableRecord
100
AcDbLinetypeTableRecord
  2
HIDDEN2
 70
     0
  3
Hidden (.5x) _ _ _ _ _ _ _ _ _ _ _ _ _ _ _ _ _
 72
    65
 73
     2
 40
0.1875
 49
0.125
 74
     0
 49
-0.0625
 74
     0
  0
LTYPE
  5
BC00
330
5
100
AcDbSymbolTableRecord
100
AcDbLinetypeTableRecord
  2
Amzigzag2
 70
     0
  3
/\/-/\/-/\/-/\/-/\/-/\/
 72
    65
 73
     2
 40
0.4401
 49
0.0001
 74
     4
 75
   136
340
AC80
 46
0.0016
 50
0.0
 44
0.0
 45
0.0
 49
-0.4400000000000001
 74
     0
  0
LTYPE
  5
BC01
330
5
100
AcDbSymbolTableRecord
100
AcDbLinetypeTableRecord
  2
ACANSTGB
 70
     0
  3
__ . . __ . .
 72
    65
 73
     6
 40
0.35433070866
 49
0.15748031496
 74
     0
 49
-0.03937007874
 74
     0
 49
0.03937007874
 74
     0
 49
-0.03937007874
 74
     0
 49
0.03937007874
 74
     0
 49
-0.03937007874
 74
     0
  0
LTYPE
  5
BC02
330
5
100
AcDbSymbolTableRecord
100
AcDbLinetypeTableRecord
  2
ACANSTGL
 70
     0
  3
_ _ _ _ _
 72
    65
 73
     2
 40
0.11811023622
 49
0.07874015748
 74
     0
 49
-0.03937007874
 74
     0
  0
ENDTAB
  0
TABLE
  2
LAYER
  5
2
102
{ACAD_XDICTIONARY
360
3F95
102
}
330
0
100
AcDbSymbolTable
 70
    23
  0
LAYER
  5
10
102
{ACAD_XDICTIONARY
360
DD7A
102
}
330
2
100
AcDbSymbolTableRecord
100
AcDbLayerTableRecord
  2
0
 70
     0
 62
     7
  6
Continuous
370
    -3
390
F
  0
LAYER
  5
6D1
330
2
100
AcDbSymbolTableRecord
100
AcDbLayerTableRecord
  2
Defpoints
 70
     0
 62
     7
  6
Continuous
290
     0
370
    -3
390
F
  0
LAYER
  5
5F85
102
{ACAD_XDICTIONARY
360
DD7C
102
}
330
2
100
AcDbSymbolTableRecord
100
AcDbLayerTableRecord
  2
AM_0
 70
     0
 62
     7
  6
中線
370
    25
390
F
1001
AcAecLayerStandard
1000

1000

  0
LAYER
  5
AC9F
102
{ACAD_XDICTIONARY
360
DD7E
102
}
330
2
100
AcDbSymbolTableRecord
100
AcDbLayerTableRecord
  2
size
 70
     0
 62
     5
  6
Continuous
290
     0
370
    25
390
F
  0
LAYER
  5
ACA0
102
{ACAD_XDICTIONARY
360
DD80
102
}
330
2
100
AcDbSymbolTableRecord
100
AcDbLayerTableRecord
  2
waku
 70
     0
 62
     7
  6
Continuous
370
    35
390
F
  0
LAYER
  5
ACA1
102
{ACAD_XDICTIONARY
360
DD82
102
}
330
2
100
AcDbSymbolTableRecord
100
AcDbLayerTableRecord
  2
AM_6
 70
     0
 62
     2
  6
文字
370
    15
390
F
1001
AcAecLayerStandard
1000

1000

  0
LAYER
  5
ACC8
102
{ACAD_XDICTIONARY
360
DD84
102
}
330
2
100
AcDbSymbolTableRecord
100
AcDbLayerTableRecord
  2
hyomoji
 70
     0
 62
     2
  6
Continuous
370
    15
390
F
  0
LAYER
  5
ACC9
102
{ACAD_XDICTIONARY
360
DD86
102
}
330
2
100
AcDbSymbolTableRecord
100
AcDbLayerTableRecord
  2
hyosen1
 70
     0
 62
     1
  6
Continuous
370
    25
390
F
  0
LAYER
  5
ACCA
102
{ACAD_XDICTIONARY
360
DD88
102
}
330
2
100
AcDbSymbolTableRecord
100
AcDbLayerTableRecord
  2
hyosen2
 70
     0
 62
     1
  6
Continuous
370
    15
390
F
  0
LAYER
  5
AD60
102
{ACAD_XDICTIONARY
360
DD8A
102
}
330
2
100
AcDbSymbolTableRecord
100
AcDbLayerTableRecord
  2
AM_1
 70
     0
 62
    30
  6
太線
370
    35
390
F
1001
AcAecLayerStandard
1000

1000

  0
LAYER
  5
AD64
102
{ACAD_XDICTIONARY
360
DD8C
102
}
330
2
100
AcDbSymbolTableRecord
100
AcDbLayerTableRecord
  2
AM_2
 70
     0
 62
     1
  6
細線
370
    15
390
F
1001
AcAecLayerStandard
1000

1000

  0
LAYER
  5
AD67
102
{ACAD_XDICTIONARY
360
DD8E
102
}
330
2
100
AcDbSymbolTableRecord
100
AcDbLayerTableRecord
  2
AM_3
 70
     0
 62
     6
  6
陰線1
370
    15
390
F
1001
AcAecLayerStandard
1000

1000

  0
LAYER
  5
AD68
102
{ACAD_XDICTIONARY
360
DD90
102
}
330
2
100
AcDbSymbolTableRecord
100
AcDbLayerTableRecord
  2
AM_5
 70
     0
 62
     3
  6
寸法線
370
    15
390
F
1001
AcAecLayerStandard
1000

1000

  0
LAYER
  5
AD69
102
{ACAD_XDICTIONARY
360
DD92
102
}
330
2
100
AcDbSymbolTableRecord
100
AcDbLayerTableRecord
  2
AM_7
 70
     0
 62
     4
  6
中心線1
370
    15
390
F
1001
AcAecLayerStandard
1000

1000

  0
LAYER
  5
AD6A
102
{ACAD_XDICTIONARY
360
DD94
102
}
330
2
100
AcDbSymbolTableRecord
100
AcDbLayerTableRecord
  2
AM_8
 70
     0
 62
     1
  6
ハッチング
370
    15
390
F
1001
AcAecLayerStandard
1000

1000

  0
LAYER
  5
AD6E
102
{ACAD_XDICTIONARY
360
DD96
102
}
330
2
100
AcDbSymbolTableRecord
100
AcDbLayerTableRecord
  2
AM_10
 70
     0
 62
     7
  6
切断線
370
    25
390
F
1001
AcAecLayerStandard
1000

1000

  0
LAYER
  5
AD6F
102
{ACAD_XDICTIONARY
360
DD98
102
}
330
2
100
AcDbSymbolTableRecord
100
AcDbLayerTableRecord
  2
AM_11
 70
     0
 62
     2
  6
想像線1
370
    15
390
F
1001
AcAecLayerStandard
1000

1000

  0
LAYER
  5
B1B6
102
{ACAD_XDICTIONARY
360
DD9A
102
}
330
2
100
AcDbSymbolTableRecord
100
AcDbLayerTableRecord
  2
AM_CL
 70
     0
 62
     1
  6
Amconstr
370
    15
390
F
1001
AcAecLayerStandard
1000

1000

  0
LAYER
  5
B2EB
102
{ACAD_XDICTIONARY
360
DD9C
102
}
330
2
100
AcDbSymbolTableRecord
100
AcDbLayerTableRecord
  2
AM_14
 70
     0
 62
     5
  6
細線
370
     9
390
F
1001
AcAecLayerStandard
1000

1000

  0
LAYER
  5
B2EC
102
{ACAD_XDICTIONARY
360
DD9E
102
}
330
2
100
AcDbSymbolTableRecord
100
AcDbLayerTableRecord
  2
AM_15
 70
     0
 62
     6
  6
陰線1
370
     9
390
F
1001
AcAecLayerStandard
1000

1000

  0
LAYER
  5
C385
102
{ACAD_XDICTIONARY
360
DDA0
102
}
330
2
100
AcDbSymbolTableRecord
100
AcDbLayerTableRecord
  2
001
 70
     0
 62
     7
  6
Continuous
370
    -3
390
F
  0
LAYER
  5
D110
102
{ACAD_XDICTIONARY
360
DDA2
102
}
330
2
100
AcDbSymbolTableRecord
100
AcDbLayerTableRecord
  2
002
 70
     0
 62
     7
  6
Continuous
370
    -3
390
F
  0
LAYER
  5
D111
102
{ACAD_XDICTIONARY
360
DDA4
102
}
330
2
100
AcDbSymbolTableRecord
100
AcDbLayerTableRecord
  2
255
 70
     0
 62
     7
  6
Continuous
370
    -3
390
F
  0
ENDTAB
  0
TABLE
  2
STYLE
  5
3
330
0
100
AcDbSymbolTable
 70
     9
  0
STYLE
  5
11
330
3
100
AcDbSymbolTableRecord
100
AcDbTextStyleTableRecord
  2
STANDARD
 70
     0
 40
0.0
 41
0.7
 50
0.0
 71
     0
 42
3.2
  3
romans.shx
  4
extfont.shx
  0
STYLE
  5
56
330
3
100
AcDbSymbolTableRecord
100
AcDbTextStyleTableRecord
  2

 70
     1
 40
0.0
 41
1.0
 50
0.0
 71
     0
 42
2.5
  3
ltypeshp.shx
  4

  0
STYLE
  5
58
330
3
100
AcDbSymbolTableRecord
100
AcDbTextStyleTableRecord
  2
ACISOTS
 70
     0
 40
1.0
 41
1.0
 50
0.0
 71
     0
 42
2.5
  3
isocp.shx
  4
extfont.shx
  0
STYLE
  5
63
330
3
100
AcDbSymbolTableRecord
100
AcDbTextStyleTableRecord
  2
ACISOGDT
 70
     0
 40
0.0
 41
1.0
 50
0.0
 71
     0
 42
2.5
  3
amgdt.shx
  4

  0
STYLE
  5
A74
330
3
100
AcDbSymbolTableRecord
100
AcDbTextStyleTableRecord
  2
DIM
 70
     0
 40
0.0
 41
1.0
 50
0.0
 71
     0
 42
2.5
  3
monotxt.shx
  4
extfont.shx
  0
STYLE
  5
AC80
330
3
100
AcDbSymbolTableRecord
100
AcDbTextStyleTableRecord
  2

 70
     1
 40
0.0
 41
1.0
 50
0.0
 71
     0
 42
3.2
  3
genltshp.shx
  4

  0
STYLE
  5
BC03
330
3
100
AcDbSymbolTableRecord
100
AcDbTextStyleTableRecord
  2
ACANSTS
 70
     0
 40
1.0
 41
1.0
 50
0.0
 71
     0
 42
3.2
  3
romans.shx
  4
extfont.shx
  0
STYLE
  5
BC04
330
3
100
AcDbSymbolTableRecord
100
AcDbTextStyleTableRecord
  2
ACANSGDT
 70
     0
 40
0.0
 41
1.0
 50
0.0
 71
     0
 42
3.2
  3
amgdt.shx
  4

  0
STYLE
  5
D112
330
3
100
AcDbSymbolTableRecord
100
AcDbTextStyleTableRecord
  2
TATEGAKI
 70
     4
 40
1.0
 41
1.0
 50
0.0
 71
     0
 42
0.2
  3
TXT
  4
BIGFONT
  0
ENDTAB
  0
TABLE
  2
VIEW
  5
6
330
0
100
AcDbSymbolTable
 70
     6
  0
VIEW
  5
AE1
330
6
100
AcDbSymbolTableRecord
100
AcDbViewTableRecord
  2
AM_VIEW1
 70
     0
 40
157.2617246596067
 10
105.0
 20
218.3691376701967
 41
210.0
 11
0.0
 21
0.0
 31
1.0
 12
0.0
 22
0.0
 32
0.0
 42
50.0
 43
-1370.695619172058
 44
-1370.695619172058
 50
0.0
 71
     0
281
     0
 72
     0
  0
VIEW
  5
AE2
330
6
100
AcDbSymbolTableRecord
100
AcDbViewTableRecord
  2
AM_VIEW2
 70
     0
 40
157.2617246596067
 10
315.0
 20
218.3691376701967
 41
210.0
 11
0.0
 21
0.0
 31
1.0
 12
0.0
 22
0.0
 32
0.0
 42
50.0
 43
-1370.695619172058
 44
-1370.695619172058
 50
0.0
 71
     0
281
     0
 72
     0
  0
VIEW
  5
AE3
330
6
100
AcDbSymbolTableRecord
100
AcDbViewTableRecord
  2
AM_VIEW3
 70
     0
 40
157.2617246596067
 10
105.0
 20
78.63086232980333
 41
210.0
 11
0.0
 21
0.0
 31
1.0
 12
0.0
 22
0.0
 32
0.0
 42
50.0
 43
-1370.695619172058
 44
-1370.695619172058
 50
0.0
 71
     0
281
     0
 72
     0
  0
VIEW
  5
AE4
330
6
100
AcDbSymbolTableRecord
100
AcDbViewTableRecord
  2
AM_VIEW4
 70
     0
 40
157.2617246596067
 10
315.0
 20
78.63086232980333
 41
210.0
 11
0.0
 21
0.0
 31
1.0
 12
0.0
 22
0.0
 32
0.0
 42
50.0
 43
-1370.695619172058
 44
-1370.695619172058
 50
0.0
 71
     0
281
     0
 72
     0
  0
VIEW
  5
AE5
330
6
100
AcDbSymbolTableRecord
100
AcDbViewTableRecord
  2
AM_VIEW5
 70
     0
 40
157.2617246596067
 10
210.0
 20
148.5
 41
210.0
 11
0.0
 21
0.0
 31
1.0
 12
0.0
 22
0.0
 32
0.0
 42
50.0
 43
-1370.695619172058
 44
-1370.695619172058
 50
0.0
 71
     0
281
     0
 72
     0
  0
VIEW
  5
AE6
330
6
100
AcDbSymbolTableRecord
100
AcDbViewTableRecord
  2
AM_VIEW6
 70
     0
 40
314.5203040847202
 10
210.0
 20
148.5
 41
419.9958
 11
0.0
 21
0.0
 31
1.0
 12
0.0
 22
0.0
 32
0.0
 42
50.0
 43
-1370.695619172058
 44
-1370.695619172058
 50
0.0
 71
     0
281
     0
 72
     0
  0
ENDTAB
  0
TABLE
  2
UCS
  5
7
330
0
100
AcDbSymbolTable
 70
     0
  0
ENDTAB
  0
TABLE
  2
APPID
  5
9
330
0
100
AcDbSymbolTable
 70
    58
  0
APPID
  5
12
330
9
100
AcDbSymbolTableRecord
100
AcDbRegAppTableRecord
  2
ACAD
 70
     0
  0
APPID
  5
30
330
9
100
AcDbSymbolTableRecord
100
AcDbRegAppTableRecord
  2
MCAD_NO_VIS
 70
     0
  0
APPID
  5
31
330
9
100
AcDbSymbolTableRecord
100
AcDbRegAppTableRecord
  2
ACAD_TEMP_GRAPHIC
 70
     0
  0
APPID
  5
44
330
9
100
AcDbSymbolTableRecord
100
AcDbRegAppTableRecord
  2
ACATTRIBSERVICES
 70
     0
  0
APPID
  5
7A1
330
9
100
AcDbSymbolTableRecord
100
AcDbRegAppTableRecord
  2
GENIUS_GENDIMSH_14
 70
     0
  0
APPID
  5
A49
330
9
100
AcDbSymbolTableRecord
100
AcDbRegAppTableRecord
  2
GENIUS_GENREC_14
 70
     0
  0
APPID
  5
A4A
330
9
100
AcDbSymbolTableRecord
100
AcDbRegAppTableRecord
  2
GENIUS_GENOBJ-N-REC_13
 70
     0
  0
APPID
  5
A4B
330
9
100
AcDbSymbolTableRecord
100
AcDbRegAppTableRecord
  2
GENIUS_GENODEF_13
 70
     0
  0
APPID
  5
A4C
330
9
100
AcDbSymbolTableRecord
100
AcDbRegAppTableRecord
  2
DCO15
 70
     0
  0
APPID
  5
ADC
330
9
100
AcDbSymbolTableRecord
100
AcDbRegAppTableRecord
  2
GENIUS_GENOLIS_13
 70
     0
  0
APPID
  5
ADD
330
9
100
AcDbSymbolTableRecord
100
AcDbRegAppTableRecord
  2
GENIUS_GENOENT_13
 70
     0
  0
APPID
  5
ADE
330
9
100
AcDbSymbolTableRecord
100
AcDbRegAppTableRecord
  2
GENIUS_GENOBJ-N-TIT_13
 70
     0
  0
APPID
  5
ADF
330
9
100
AcDbSymbolTableRecord
100
AcDbRegAppTableRecord
  2
GENIUS_GENTITLE_13
 70
     0
  0
APPID
  5
AE0
330
9
100
AcDbSymbolTableRecord
100
AcDbRegAppTableRecord
  2
GENIUS_GENOREF_13
 70
     0
  0
APPID
  5
AE7
330
9
100
AcDbSymbolTableRecord
100
AcDbRegAppTableRecord
  2
GENIUS_GENSCREG_15
 70
     0
  0
APPID
  5
AE8
330
9
100
AcDbSymbolTableRecord
100
AcDbRegAppTableRecord
  2
GENIUS_GENOBJ-N-SDF_13
 70
     0
  0
APPID
  5
FAF
330
9
100
AcDbSymbolTableRecord
100
AcDbRegAppTableRecord
  2
GENIUS_GENBLLY_14
 70
     0
  0
APPID
  5
FB0
330
9
100
AcDbSymbolTableRecord
100
AcDbRegAppTableRecord
  2
GENIUS_GENTRA_14
 70
     0
  0
APPID
  5
1285
330
9
100
AcDbSymbolTableRecord
100
AcDbRegAppTableRecord
  2
GENIUS_GENDTOL_13
 70
     0
  0
APPID
  5
142D
330
9
100
AcDbSymbolTableRecord
100
AcDbRegAppTableRecord
  2
GENIUS_GENOBJ-N-CEN_13
 70
     0
  0
APPID
  5
1AB5
330
9
100
AcDbSymbolTableRecord
100
AcDbRegAppTableRecord
  2
GENIUS_GENOBJ-N-CRS_13
 70
     0
  0
APPID
  5
1B36
330
9
100
AcDbSymbolTableRecord
100
AcDbRegAppTableRecord
  2
GENIUS_GENOBJ-N-HTC_13
 70
     0
  0
APPID
  5
1B37
330
9
100
AcDbSymbolTableRecord
100
AcDbRegAppTableRecord
  2
GENIUS_GENHATCH_13
 70
     0
  0
APPID
  5
216D
330
9
100
AcDbSymbolTableRecord
100
AcDbRegAppTableRecord
  2
GENIUS_GENOBJ-N-FIL_13
 70
     0
  0
APPID
  5
2356
330
9
100
AcDbSymbolTableRecord
100
AcDbRegAppTableRecord
  2
GEVID990412420
 70
     0
  0
APPID
  5
2357
330
9
100
AcDbSymbolTableRecord
100
AcDbRegAppTableRecord
  2
GEVDC
 70
     0
  0
APPID
  5
2358
330
9
100
AcDbSymbolTableRecord
100
AcDbRegAppTableRecord
  2
GEVCON
 70
     0
  0
APPID
  5
235B
330
9
100
AcDbSymbolTableRecord
100
AcDbRegAppTableRecord
  2
GEVRADREF
 70
     0
  0
APPID
  5
2360
330
9
100
AcDbSymbolTableRecord
100
AcDbRegAppTableRecord
  2
GENIUS_GENBH_13
 70
     0
  0
APPID
  5
2362
330
9
100
AcDbSymbolTableRecord
100
AcDbRegAppTableRecord
  2
GENIUS_GENOBJ-NBEHI-BHF_13
 70
     0
  0
APPID
  5
2364
330
9
100
AcDbSymbolTableRecord
100
AcDbRegAppTableRecord
  2
GENIUS_GENOBJ-NBEHI-BHB_13
 70
     0
  0
APPID
  5
2379
330
9
100
AcDbSymbolTableRecord
100
AcDbRegAppTableRecord
  2
GENIUS_GENOBJ-F-SCPASSM_13
 70
     0
  0
APPID
  5
3D74
330
9
100
AcDbSymbolTableRecord
100
AcDbRegAppTableRecord
  2
GENIUS_GENDIM_13
 70
     0
  0
APPID
  5
3D76
330
9
100
AcDbSymbolTableRecord
100
AcDbRegAppTableRecord
  2
GENIUS_GE3DTOL_13
 70
     0
  0
APPID
  5
3D9C
330
9
100
AcDbSymbolTableRecord
100
AcDbRegAppTableRecord
  2
AD_DRAW
 70
     0
  0
APPID
  5
3DE8
330
9
100
AcDbSymbolTableRecord
100
AcDbRegAppTableRecord
  2
ASURF_PCURVE_APPNAME
 70
     0
  0
APPID
  5
3DED
330
9
100
AcDbSymbolTableRecord
100
AcDbRegAppTableRecord
  2
AMG_3D2D_5.0
 70
     0
  0
APPID
  5
3E1B
330
9
100
AcDbSymbolTableRecord
100
AcDbRegAppTableRecord
  2
DESIGNERASSEMBLIES
 70
     0
  0
APPID
  5
3E20
330
9
100
AcDbSymbolTableRecord
100
AcDbRegAppTableRecord
  2
ACADM_DIM_EDIT
 70
     0
  0
APPID
  5
3E21
330
9
100
AcDbSymbolTableRecord
100
AcDbRegAppTableRecord
  2
AMDT_DM_ADJ
 70
     0
  0
APPID
  5
4143
330
9
100
AcDbSymbolTableRecord
100
AcDbRegAppTableRecord
  2
GENIUS_GENFIL_13
 70
     0
  0
APPID
  5
4144
330
9
100
AcDbSymbolTableRecord
100
AcDbRegAppTableRecord
  2
GENIUS_GENOBJ-N-CHA_13
 70
     0
  0
APPID
  5
4E17
330
9
100
AcDbSymbolTableRecord
100
AcDbRegAppTableRecord
  2
GEVID1008153417
 70
     0
  0
APPID
  5
4E58
330
9
100
AcDbSymbolTableRecord
100
AcDbRegAppTableRecord
  2
GEVID1008153418
 70
     0
  0
APPID
  5
4E5E
330
9
100
AcDbSymbolTableRecord
100
AcDbRegAppTableRecord
  2
GEVID1008153419
 70
     0
  0
APPID
  5
4E64
330
9
100
AcDbSymbolTableRecord
100
AcDbRegAppTableRecord
  2
GEVID1008153420
 70
     0
  0
APPID
  5
4E75
330
9
100
AcDbSymbolTableRecord
100
AcDbRegAppTableRecord
  2
GEVID1008153421
 70
     0
  0
APPID
  5
4EB7
330
9
100
AcDbSymbolTableRecord
100
AcDbRegAppTableRecord
  2
GENIUS_AMGTXT_16
 70
     0
  0
APPID
  5
7645
330
9
100
AcDbSymbolTableRecord
100
AcDbRegAppTableRecord
  2
GENIUS_GENOBJ-N-DIM_13
 70
     0
  0
APPID
  5
AAD0
330
9
100
AcDbSymbolTableRecord
100
AcDbRegAppTableRecord
  2
ACAD_DSTYLE_DIMARC_LENGTH_SYMBOL
 70
     0
  0
APPID
  5
AAD1
330
9
100
AcDbSymbolTableRecord
100
AcDbRegAppTableRecord
  2
ACAD_DSTYLE_DIMJOGGED_JOGANGLE_SYMBOL
 70
     0
  0
APPID
  5
AAFD
330
9
100
AcDbSymbolTableRecord
100
AcDbRegAppTableRecord
  2
ACAD_PSEXT
 70
     0
  0
APPID
  5
AD61
330
9
100
AcDbSymbolTableRecord
100
AcDbRegAppTableRecord
  2
AcAecLayerStandard
 70
     0
  0
APPID
  5
AEE3
330
9
100
AcDbSymbolTableRecord
100
AcDbRegAppTableRecord
  2
ACAD_EXEMPT_FROM_CAD_STANDARDS
 70
     0
  0
APPID
  5
B1BE
330
9
100
AcDbSymbolTableRecord
100
AcDbRegAppTableRecord
  2
GENIUS_GENCEN_19
 70
     0
  0
APPID
  5
CECA
330
9
100
AcDbSymbolTableRecord
100
AcDbRegAppTableRecord
  2
ACAD_MLEADERVER
 70
     0
  0
APPID
  5
DC98
330
9
100
AcDbSymbolTableRecord
100
AcDbRegAppTableRecord
  2
ACAD_DSTYLE_DIMINSPECT
 70
     0
  0
APPID
  5
DC9F
330
9
100
AcDbSymbolTableRecord
100
AcDbRegAppTableRecord
  2
ACAD_DSTYLE_DIMRADIAL_EXTENSION
 70
     0
  0
ENDTAB
  0
TABLE
  2
DIMSTYLE
  5
A
330
0
100
AcDbSymbolTable
 70
    26
100
AcDbDimStyleTable
 71
     1
340
2515
  0
DIMSTYLE
105
A76
330
A
100
AcDbSymbolTableRecord
100
AcDbDimStyleTableRecord
  2
STANDARD
 70
     0
 41
3.0
 42
1.0
 43
7.0
 44
2.0
 73
     0
 74
     0
 77
     1
140
2.799999999999999
141
0.0
143
0.0394
147
0.7
171
     4
172
     1
173
     1
176
     3
177
     3
178
     2
271
     3
272
     3
273
     8
274
     4
289
     0
340
A74
341
A66
343
A66
344
A66
  0
DIMSTYLE
105
2515
330
A
100
AcDbSymbolTableRecord
100
AcDbDimStyleTableRecord
  2
SYS
 70
     0
  4
"
 41
1.0
 42
1.0
 43
10.0
 44
1.0
 47
0.1
 48
0.1
 73
     0
 74
     0
 77
     1
 78
     8
 79
     2
140
3.5
141
0.0
143
0.0393701
146
0.71
147
1.5
172
     1
176
   256
177
   256
178
     7
271
     2
272
     2
283
     0
284
     8
340
11
371
    -1
372
    -1
1001
ACAD_DSTYLE_DIMJOGGED_JOGANGLE_SYMBOL
1070
   384
1040
0.7853981633974483
1001
ACAD_DSTYLE_DIMARC_LENGTH_SYMBOL
1070
   379
1070
     1
  0
DIMSTYLE
105
2516
102
{ACAD_REACTORS
330
CDBF
330
DCB8
102
}
330
A
100
AcDbSymbolTableRecord
100
AcDbDimStyleTableRecord
  2
SYS$3
 70
     0
  4
"
 41
2.0
 42
1.0
 43
10.0
 44
1.0
 47
0.1
 48
0.1
 73
     0
 77
     1
 78
     8
 79
     2
140
3.5
141
0.0
143
0.0393701
146
0.71
147
1.5
176
   256
177
   256
178
     2
271
     2
272
     2
283
     0
284
     8
288
     1
340
11
342
A66
371
    -1
372
    -1
1001
ACAD_DSTYLE_DIMJOGGED_JOGANGLE_SYMBOL
1070
   384
1040
0.7853981633974483
1001
ACAD_DSTYLE_DIMARC_LENGTH_SYMBOL
1070
   379
1070
     1
  0
DIMSTYLE
105
2517
330
A
100
AcDbSymbolTableRecord
100
AcDbDimStyleTableRecord
  2
SYS$4
 70
     0
  4
"
 41
2.0
 42
1.0
 43
10.0
 44
1.0
 47
0.1
 48
0.1
 73
     0
 77
     1
 78
     8
 79
     2
140
3.5
141
0.0
143
0.0393701
146
0.71
147
1.5
173
     1
176
   256
177
   256
178
     2
271
     2
272
     2
283
     0
284
     8
288
     1
340
11
344
A66
371
    -1
372
    -1
1001
ACAD_DSTYLE_DIMJOGGED_JOGANGLE_SYMBOL
1070
   384
1040
0.7853981633974483
1001
ACAD_DSTYLE_DIMARC_LENGTH_SYMBOL
1070
   379
1070
     1
  0
DIMSTYLE
105
2518
330
A
100
AcDbSymbolTableRecord
100
AcDbDimStyleTableRecord
  2
SYS$6
 70
     0
  4
"
 41
2.0
 42
1.0
 43
10.0
 44
1.0
 47
0.1
 48
0.1
 73
     0
 74
     0
 78
     8
 79
     2
140
3.5
141
0.0
143
0.0393701
146
0.71
147
1.5
172
     1
176
   256
177
   256
178
     2
271
     2
272
     2
283
     0
284
     8
340
11
341
A66
371
    -1
372
    -1
1001
ACAD_DSTYLE_DIMJOGGED_JOGANGLE_SYMBOL
1070
   384
1040
0.7853981633974483
1001
ACAD_DSTYLE_DIMARC_LENGTH_SYMBOL
1070
   379
1070
     1
  0
DIMSTYLE
105
2519
330
A
100
AcDbSymbolTableRecord
100
AcDbDimStyleTableRecord
  2
SYS$7
 70
     0
  4
"
 41
2.0
 42
1.0
 43
10.0
 44
1.0
 47
0.1
 48
0.1
 73
     0
 74
     0
 77
     1
 78
     8
 79
     2
140
5.0
141
0.0
143
0.0393701
146
0.71
147
1.5
172
     1
176
   256
177
   256
178
     2
271
     2
272
     2
283
     0
284
     8
340
11
341
A66
342
A66
371
    -1
372
    -1
1001
ACAD_DSTYLE_DIMJOGGED_JOGANGLE_SYMBOL
1070
   384
1040
0.7853981633974483
1001
ACAD_DSTYLE_DIMARC_LENGTH_SYMBOL
1070
   379
1070
     1
  0
DIMSTYLE
105
251A
330
A
100
AcDbSymbolTableRecord
100
AcDbDimStyleTableRecord
  2
SYS$SF
 70
     0
  4
"
 41
2.5
 42
1.0
 43
10.0
 44
1.0
 47
0.1
 48
0.1
 73
     0
 74
     0
 75
     1
 76
     1
 77
     1
 78
     8
 79
     2
140
3.5
141
0.0
143
0.0393701
146
0.71
147
1.5
172
     1
176
   256
177
   256
178
     2
271
     2
272
     3
283
     0
284
     8
340
11
341
6C4
342
6C4
371
    -1
372
    -1
1001
ACAD_DSTYLE_DIMJOGGED_JOGANGLE_SYMBOL
1070
   384
1040
0.7853981633974483
1001
ACAD_DSTYLE_DIMARC_LENGTH_SYMBOL
1070
   379
1070
     1
  0
DIMSTYLE
105
251B
330
A
100
AcDbSymbolTableRecord
100
AcDbDimStyleTableRecord
  2
SYS$SH
 70
     0
  4
"
 41
2.5
 42
1.0
 43
10.0
 44
1.0
 47
0.1
 48
0.1
 73
     0
 74
     0
 75
     1
 76
     1
 77
     1
 78
     8
 79
     2
140
3.5
141
0.0
143
0.0393701
144
2.0
146
0.71
147
1.5
172
     1
173
     1
176
   256
177
   256
178
     2
271
     2
272
     3
283
     0
284
     8
340
11
341
6C4
343
72
344
6C4
371
    -1
372
    -1
1001
ACAD_DSTYLE_DIMJOGGED_JOGANGLE_SYMBOL
1070
   384
1040
0.7853981633974483
1001
ACAD_DSTYLE_DIMARC_LENGTH_SYMBOL
1070
   379
1070
     1
  0
DIMSTYLE
105
2A59
330
A
100
AcDbSymbolTableRecord
100
AcDbDimStyleTableRecord
  2
SYS$2
 70
     0
  4
"
 41
1.0
 42
1.0
 43
10.0
 44
1.0
 47
0.1
 48
0.1
 73
     0
 74
     0
 77
     1
 78
     8
 79
     2
140
3.5
141
0.0
143
0.0393701
146
0.71
147
1.5
172
     1
176
   256
177
   256
178
     2
271
     2
272
     2
283
     0
284
     8
340
11
342
6C4
371
    -1
372
    -1
1001
ACAD_DSTYLE_DIMJOGGED_JOGANGLE_SYMBOL
1070
   384
1040
0.7853981633974483
1001
ACAD_DSTYLE_DIMARC_LENGTH_SYMBOL
1070
   379
1070
     1
  0
DIMSTYLE
105
2AAB
102
{ACAD_REACTORS
330
C03D
330
C022
330
C023
330
C024
330
C025
330
C026
330
C027
330
C028
330
C029
330
C02A
330
C02B
330
C02D
330
C030
330
C031
330
C032
330
C033
330
C034
330
C036
330
C037
330
C038
330
C039
330
C8E8
330
CB44
330
C035
102
}
330
A
100
AcDbSymbolTableRecord
100
AcDbDimStyleTableRecord
  2
SYS$0
 70
     0
  4
"
 41
1.0
 42
1.0
 43
10.0
 44
1.0
 47
0.1
 48
0.1
 73
     0
 74
     0
 77
     1
 78
     8
 79
     2
140
3.200000000000001
141
0.0
143
0.0393701
146
0.71
147
1.5
172
     1
176
   256
177
   256
178
     2
271
     2
272
     2
283
     0
284
     8
340
11
341
A66
342
6C4
371
    -1
372
    -1
1001
ACAD_DSTYLE_DIMJOGGED_JOGANGLE_SYMBOL
1070
   384
1040
0.7853981633974483
1001
ACAD_DSTYLE_DIMARC_LENGTH_SYMBOL
1070
   379
1070
     1
  0
DIMSTYLE
105
AF99
330
A
100
AcDbSymbolTableRecord
100
AcDbDimStyleTableRecord
  2
AM_ISO
 70
     0
  4
"
 41
2.5
 42
1.0
 43
10.0
 44
1.0
 47
0.1
 48
0.1
 73
     0
 74
     0
 77
     1
 78
     8
 79
     2
140
3.5
141
0.0
143
0.0393701
146
0.71
147
1.5
172
     1
176
   256
177
   256
178
     2
271
     2
272
     3
274
     4
283
     0
284
     8
340
11
371
    -1
372
    -1
  0
DIMSTYLE
105
AF9A
330
A
100
AcDbSymbolTableRecord
100
AcDbDimStyleTableRecord
  2
AM_ISO$3
 70
     0
  4
"
 41
2.5
 42
1.0
 43
10.0
 44
1.0
 47
0.1
 48
0.1
 73
     0
 77
     1
 78
     8
 79
     2
140
3.5
141
0.0
143
0.0393701
146
0.71
147
1.5
176
   256
177
   256
178
     2
271
     2
272
     3
274
     4
283
     0
284
     8
288
     1
289
     0
340
11
371
    -1
372
    -1
  0
DIMSTYLE
105
AF9B
330
A
100
AcDbSymbolTableRecord
100
AcDbDimStyleTableRecord
  2
AM_ISO$4
 70
     0
  4
"
 41
2.5
 42
1.0
 43
10.0
 44
1.0
 47
0.1
 48
0.1
 73
     0
 77
     1
 78
     8
 79
     2
140
3.5
141
0.0
143
0.0393701
146
0.71
147
1.5
176
   256
177
   256
178
     2
271
     2
272
     3
274
     4
283
     0
284
     8
288
     1
289
     0
340
11
371
    -1
372
    -1
  0
DIMSTYLE
105
AF9C
330
A
100
AcDbSymbolTableRecord
100
AcDbDimStyleTableRecord
  2
AM_ISO$6
 70
     0
  4
"
 41
2.5
 42
1.0
 43
10.0
 44
1.0
 47
0.1
 48
0.1
 73
     0
 74
     0
 78
     8
 79
     2
140
3.5
141
0.0
143
0.0393701
146
0.71
147
1.5
172
     1
176
   256
177
   256
178
     2
271
     2
272
     3
274
     4
283
     0
284
     8
340
11
371
    -1
372
    -1
  0
DIMSTYLE
105
AF9D
330
A
100
AcDbSymbolTableRecord
100
AcDbDimStyleTableRecord
  2
AM_ISO$7
 70
     0
  4
"
 41
2.5
 42
1.0
 43
10.0
 44
1.0
 47
0.1
 48
0.1
 73
     0
 74
     0
 77
     1
 78
     8
 79
     2
140
5.0
141
0.0
143
0.0393701
146
0.71
147
1.5
172
     1
176
   256
177
   256
178
     2
271
     2
272
     3
274
     4
283
     0
284
     8
340
11
371
    -1
372
    -1
  0
DIMSTYLE
105
AF9E
330
A
100
AcDbSymbolTableRecord
100
AcDbDimStyleTableRecord
  2
AM_ISO$SF
 70
     0
  4
"
 41
2.5
 42
1.0
 43
10.0
 44
1.0
 47
0.1
 48
0.1
 73
     0
 74
     0
 75
     1
 76
     1
 77
     1
 78
     8
 79
     2
140
3.5
141
0.0
143
0.0393701
146
0.71
147
1.5
172
     1
176
   256
177
   256
178
     2
271
     2
272
     3
274
     4
283
     0
284
     8
340
11
371
    -1
372
    -1
  0
DIMSTYLE
105
AF9F
330
A
100
AcDbSymbolTableRecord
100
AcDbDimStyleTableRecord
  2
AM_ISO$SH
 70
     0
  4
"
 41
2.5
 42
1.0
 43
10.0
 44
1.0
 47
0.1
 48
0.1
 73
     0
 74
     0
 75
     1
 76
     1
 77
     1
 78
     8
 79
     2
140
3.5
141
0.0
143
0.0393701
144
2.0
146
0.71
147
1.5
172
     1
173
     1
176
   256
177
   256
178
     2
271
     2
272
     3
274
     4
283
     0
284
     8
340
11
343
72
371
    -1
372
    -1
  0
DIMSTYLE
105
BC05
330
A
100
AcDbSymbolTableRecord
100
AcDbDimStyleTableRecord
  2
DIMSTYLE
 70
     0
 41
1.0
 42
2.54
 44
2.54
 73
     0
 74
     0
140
3.2
147
1.6
173
     1
279
     2
340
11
  0
DIMSTYLE
105
BC06
330
A
100
AcDbSymbolTableRecord
100
AcDbDimStyleTableRecord
  2
AM_ANSI
 70
     0
  4
mm
 41
0.1
 42
0.05
 43
0.5
 44
0.1
 47
0.1
 48
0.1
 78
     7
 79
     2
140
0.12
141
0.0
146
0.71
147
0.06
176
   256
177
   256
178
     2
274
     4
284
     7
340
11
371
    -1
372
    -1
1001
ACAD_DSTYLE_DIMARC_LENGTH_SYMBOL
1070
   379
1070
     1
  0
DIMSTYLE
105
BC07
330
A
100
AcDbSymbolTableRecord
100
AcDbDimStyleTableRecord
  2
AM_ANSI$3
 70
     0
  4
mm
 41
0.1
 42
0.05
 43
0.5
 44
0.1
 47
0.1
 48
0.1
 78
     7
 79
     2
140
0.12
141
0.0
146
0.71
147
0.06
176
   256
177
   256
178
     2
274
     4
284
     7
288
     1
289
     0
340
11
371
    -1
372
    -1
1001
ACAD_DSTYLE_DIMARC_LENGTH_SYMBOL
1070
   379
1070
     1
  0
DIMSTYLE
105
BC08
330
A
100
AcDbSymbolTableRecord
100
AcDbDimStyleTableRecord
  2
AM_ANSI$4
 70
     0
  4
mm
 41
0.1
 42
0.05
 43
0.5
 44
0.1
 47
0.1
 48
0.1
 78
     7
 79
     2
140
0.12
141
0.0
146
0.71
147
0.06
176
   256
177
   256
178
     2
274
     4
284
     7
288
     1
289
     0
340
11
371
    -1
372
    -1
1001
ACAD_DSTYLE_DIMARC_LENGTH_SYMBOL
1070
   379
1070
     1
  0
DIMSTYLE
105
BC09
330
A
100
AcDbSymbolTableRecord
100
AcDbDimStyleTableRecord
  2
AM_ANSI$7
 70
     0
  4
mm
 41
0.1
 42
0.05
 43
0.5
 44
0.1
 47
0.1
 48
0.1
 78
     7
 79
     2
140
0.24
141
0.0
146
0.71
147
0.06
176
   256
177
   256
178
     2
274
     4
284
     7
340
11
371
    -1
372
    -1
1001
ACAD_DSTYLE_DIMARC_LENGTH_SYMBOL
1070
   379
1070
     1
  0
DIMSTYLE
105
BC0A
330
A
100
AcDbSymbolTableRecord
100
AcDbDimStyleTableRecord
  2
AM_ANSI$SF
 70
     0
  4
mm
 41
0.1
 42
0.05
 43
0.5
 44
0.1
 47
0.1
 48
0.1
 75
     1
 76
     1
 78
     7
 79
     2
140
0.12
141
0.0
146
0.71
147
0.06
176
   256
177
   256
178
     2
274
     4
284
     7
340
11
371
    -1
372
    -1
1001
ACAD_DSTYLE_DIMARC_LENGTH_SYMBOL
1070
   379
1070
     1
  0
DIMSTYLE
105
BC0B
330
A
100
AcDbSymbolTableRecord
100
AcDbDimStyleTableRecord
  2
AM_ANSI$SH
 70
     0
  4
mm
 41
0.1
 42
0.05
 43
0.5
 44
0.1
 47
0.1
 48
0.1
 75
     1
 76
     1
 78
     7
 79
     2
140
0.12
141
0.0
146
0.71
147
0.06
173
     1
176
   256
177
   256
178
     2
274
     4
284
     7
340
11
343
72
371
    -1
372
    -1
1001
ACAD_DSTYLE_DIMARC_LENGTH_SYMBOL
1070
   379
1070
     1
  0
DIMSTYLE
105
C386
330
A
100
AcDbSymbolTableRecord
100
AcDbDimStyleTableRecord
  2
AM_ISO$0
 70
     0
  4
"
 41
0.8
 42
1.0
 43
10.0
 44
1.0
 47
0.1
 48
0.1
 73
     0
 74
     0
 77
     1
 78
     8
 79
     2
140
3.2
141
0.0
143
0.0393701
146
0.71
147
0.9999999999999996
172
     1
176
   256
177
   256
178
     2
271
     2
272
     2
283
     0
284
     8
340
11
341
6C4
342
6C4
371
    -1
372
    -1
  0
DIMSTYLE
105
C387
330
A
100
AcDbSymbolTableRecord
100
AcDbDimStyleTableRecord
  2
AM_ISO$2
 70
     0
  4
"
 41
0.8
 42
1.0
 43
10.0
 44
1.0
 47
0.1
 48
0.1
 73
     0
 74
     0
 77
     3
 78
     8
 79
     2
140
3.200000000000001
141
0.0
143
0.0393701
146
0.71
147
0.9999999999999996
172
     1
176
   256
177
   256
178
     2
271
     2
272
     2
283
     0
284
     8
340
11
342
6C4
371
    -1
372
    -1
  0
ENDTAB
  0
TABLE
  2
BLOCK_RECORD
  5
1
330
0
100
AcDbSymbolTable
 70
    82
  0
BLOCK_RECORD
  5
1F
102
{ACAD_XDICTIONARY
360
8A
102
}
330
1
100
AcDbSymbolTableRecord
100
AcDbBlockTableRecord
  2
*Model_Space
340
22
  0
BLOCK_RECORD
  5
1B
330
1
100
AcDbSymbolTableRecord
100
AcDbBlockTableRecord
  2
*Paper_Space
340
1E
  0
BLOCK_RECORD
  5
23
330
1
100
AcDbSymbolTableRecord
100
AcDbBlockTableRecord
  2
*Paper_Space0
340
26
  0
BLOCK_RECORD
  5
72
330
1
100
AcDbSymbolTableRecord
100
AcDbBlockTableRecord
  2
GENAXEH
340
0
  0
BLOCK_RECORD
  5
6C4
330
1
100
AcDbSymbolTableRecord
100
AcDbBlockTableRecord
  2
_Dot
340
0
102
{BLKREFS
331
CCF3
331
CCF4
331
CD0E
331
CD0F
331
CD20
331
CD21
331
CD3B
331
CD3C
331
CD4D
331
CD4E
331
CD56
331
CD57
331
CD79
331
CD7A
331
DBAB
331
DBAC
331
DBBD
331
DBBE
331
DBCF
331
DBD0
331
DBD8
331
DBD9
331
DBE1
331
DBE2
331
DBF3
331
DBF4
331
DC07
331
DC08
331
DC10
331
DC11
331
DC19
331
DC1A
331
DC24
331
DC25
331
DC2D
331
DC2E
331
DC3F
331
DC40
331
DC48
331
DC49
331
DC51
331
DC52
331
DC6C
331
DC6D
331
DC75
331
DC76
331
DC7E
331
DC7F
102
}
  0
BLOCK_RECORD
  5
A66
330
1
100
AcDbSymbolTableRecord
100
AcDbBlockTableRecord
  2
_OPEN30
340
0
102
{BLKREFS
331
DACD
331
DACE
331
DADB
331
DADC
331
DAE7
331
DAE8
331
DAF5
331
DAF6
331
DB03
331
DB04
331
DB0F
331
DB10
331
DB1B
331
DB1C
331
DB27
331
DB28
331
DB33
331
DB34
331
DB3E
331
DB48
331
DB49
331
DB54
331
DB55
331
DB62
331
DB63
331
DC9C
331
DCB5
102
}
  0
BLOCK_RECORD
  5
C04A
330
1
100
AcDbSymbolTableRecord
100
AcDbBlockTableRecord
  2
*D5
340
0
  0
BLOCK_RECORD
  5
C058
330
1
100
AcDbSymbolTableRecord
100
AcDbBlockTableRecord
  2
*D6
340
0
  0
BLOCK_RECORD
  5
C064
330
1
100
AcDbSymbolTableRecord
100
AcDbBlockTableRecord
  2
*D7
340
0
  0
BLOCK_RECORD
  5
C070
330
1
100
AcDbSymbolTableRecord
100
AcDbBlockTableRecord
  2
*D8
340
0
  0
BLOCK_RECORD
  5
C07C
330
1
100
AcDbSymbolTableRecord
100
AcDbBlockTableRecord
  2
*D9
340
0
  0
BLOCK_RECORD
  5
C088
330
1
100
AcDbSymbolTableRecord
100
AcDbBlockTableRecord
  2
*D10
340
0
  0
BLOCK_RECORD
  5
C094
330
1
100
AcDbSymbolTableRecord
100
AcDbBlockTableRecord
  2
*D11
340
0
  0
BLOCK_RECORD
  5
C0A0
330
1
100
AcDbSymbolTableRecord
100
AcDbBlockTableRecord
  2
*D12
340
0
  0
BLOCK_RECORD
  5
C0AC
330
1
100
AcDbSymbolTableRecord
100
AcDbBlockTableRecord
  2
*D13
340
0
  0
BLOCK_RECORD
  5
C0B8
330
1
100
AcDbSymbolTableRecord
100
AcDbBlockTableRecord
  2
*D14
340
0
  0
BLOCK_RECORD
  5
C0C4
330
1
100
AcDbSymbolTableRecord
100
AcDbBlockTableRecord
  2
*D15
340
0
  0
BLOCK_RECORD
  5
C0E1
330
1
100
AcDbSymbolTableRecord
100
AcDbBlockTableRecord
  2
*D16
340
0
  0
BLOCK_RECORD
  5
C0ED
330
1
100
AcDbSymbolTableRecord
100
AcDbBlockTableRecord
  2
*D17
340
0
  0
BLOCK_RECORD
  5
C0F9
330
1
100
AcDbSymbolTableRecord
100
AcDbBlockTableRecord
  2
*D18
340
0
  0
BLOCK_RECORD
  5
C105
330
1
100
AcDbSymbolTableRecord
100
AcDbBlockTableRecord
  2
*D19
340
0
  0
BLOCK_RECORD
  5
C111
330
1
100
AcDbSymbolTableRecord
100
AcDbBlockTableRecord
  2
*D20
340
0
  0
BLOCK_RECORD
  5
C11D
330
1
100
AcDbSymbolTableRecord
100
AcDbBlockTableRecord
  2
*D21
340
0
  0
BLOCK_RECORD
  5
C129
330
1
100
AcDbSymbolTableRecord
100
AcDbBlockTableRecord
  2
*D22
340
0
  0
BLOCK_RECORD
  5
C135
330
1
100
AcDbSymbolTableRecord
100
AcDbBlockTableRecord
  2
*D23
340
0
  0
BLOCK_RECORD
  5
C141
330
1
100
AcDbSymbolTableRecord
100
AcDbBlockTableRecord
  2
*D24
340
0
  0
BLOCK_RECORD
  5
C14D
330
1
100
AcDbSymbolTableRecord
100
AcDbBlockTableRecord
  2
*D25
340
0
  0
BLOCK_RECORD
  5
C159
330
1
100
AcDbSymbolTableRecord
100
AcDbBlockTableRecord
  2
*D26
340
0
  0
BLOCK_RECORD
  5
C8E9
330
1
100
AcDbSymbolTableRecord
100
AcDbBlockTableRecord
  2
*D27
340
0
  0
BLOCK_RECORD
  5
CB45
330
1
100
AcDbSymbolTableRecord
100
AcDbBlockTableRecord
  2
*D28
340
0
  0
BLOCK_RECORD
  5
CDC0
330
1
100
AcDbSymbolTableRecord
100
AcDbBlockTableRecord
  2
*D29
340
0
  0
BLOCK_RECORD
  5
CDF8
330
1
100
AcDbSymbolTableRecord
100
AcDbBlockTableRecord
  2
GENDOT
340
0
102
{BLKREFS
331
CE1D
331
CE1E
331
CEA1
331
CEA2
331
DCF1
331
DCF2
102
}
  0
BLOCK_RECORD
  5
CEEB
330
1
100
AcDbSymbolTableRecord
100
AcDbBlockTableRecord
  2
JZB-1
340
0
  0
BLOCK_RECORD
  5
CEF3
330
1
100
AcDbSymbolTableRecord
100
AcDbBlockTableRecord
  2
JZB-2
340
0
  0
BLOCK_RECORD
  5
CEFB
330
1
100
AcDbSymbolTableRecord
100
AcDbBlockTableRecord
  2
JZB-3
340
0
  0
BLOCK_RECORD
  5
CF03
330
1
100
AcDbSymbolTableRecord
100
AcDbBlockTableRecord
  2
JZB-4
340
0
  0
BLOCK_RECORD
  5
CF0B
330
1
100
AcDbSymbolTableRecord
100
AcDbBlockTableRecord
  2
DIM-5
340
0
  0
BLOCK_RECORD
  5
CF15
330
1
100
AcDbSymbolTableRecord
100
AcDbBlockTableRecord
  2
DIM-6
340
0
  0
BLOCK_RECORD
  5
CF1F
330
1
100
AcDbSymbolTableRecord
100
AcDbBlockTableRecord
  2
DIM-7
340
0
  0
BLOCK_RECORD
  5
CF3C
330
1
100
AcDbSymbolTableRecord
100
AcDbBlockTableRecord
  2
DIM-8
340
0
  0
BLOCK_RECORD
  5
CF59
330
1
100
AcDbSymbolTableRecord
100
AcDbBlockTableRecord
  2
DIM-9
340
0
  0
BLOCK_RECORD
  5
CF67
330
1
100
AcDbSymbolTableRecord
100
AcDbBlockTableRecord
  2
DIM-10
340
0
  0
BLOCK_RECORD
  5
D023
330
1
100
AcDbSymbolTableRecord
100
AcDbBlockTableRecord
  2
DIM-11
340
0
  0
BLOCK_RECORD
  5
D059
330
1
100
AcDbSymbolTableRecord
100
AcDbBlockTableRecord
  2
DIM-12
340
0
  0
BLOCK_RECORD
  5
D067
330
1
100
AcDbSymbolTableRecord
100
AcDbBlockTableRecord
  2
DIM-13
340
0
  0
BLOCK_RECORD
  5
D075
330
1
100
AcDbSymbolTableRecord
100
AcDbBlockTableRecord
  2
DIM-14
340
0
  0
BLOCK_RECORD
  5
D083
330
1
100
AcDbSymbolTableRecord
100
AcDbBlockTableRecord
  2
DIM-15
340
0
  0
BLOCK_RECORD
  5
D091
330
1
100
AcDbSymbolTableRecord
100
AcDbBlockTableRecord
  2
DIM-16
340
0
  0
BLOCK_RECORD
  5
D09F
330
1
100
AcDbSymbolTableRecord
100
AcDbBlockTableRecord
  2
DIM-17
340
0
  0
BLOCK_RECORD
  5
D0AD
330
1
100
AcDbSymbolTableRecord
100
AcDbBlockTableRecord
  2
DIM-18
340
0
  0
BLOCK_RECORD
  5
D0CE
330
1
100
AcDbSymbolTableRecord
100
AcDbBlockTableRecord
  2
DIM-19
340
0
  0
BLOCK_RECORD
  5
D0DC
330
1
100
AcDbSymbolTableRecord
100
AcDbBlockTableRecord
  2
DIM-20
340
0
  0
BLOCK_RECORD
  5
D0EA
330
1
100
AcDbSymbolTableRecord
100
AcDbBlockTableRecord
  2
DIM-21
340
0
  0
BLOCK_RECORD
  5
DCB9
330
1
100
AcDbSymbolTableRecord
100
AcDbBlockTableRecord
  2
*D81
340
0
  0
ENDTAB
  0
ENDSEC
  0
SECTION
  2
BLOCKS
  0
BLOCK
  5
20
330
1F
100
AcDbEntity
  8
0
100
AcDbBlockBegin
  2
*Model_Space
 70
     0
 10
0.0
 20
0.0
 30
0.0
  3
*Model_Space
  1

  0
ENDBLK
  5
21
330
1F
100
AcDbEntity
  8
0
100
AcDbBlockEnd
  0
BLOCK
  5
1C
330
1B
100
AcDbEntity
 67
     1
  8
0
100
AcDbBlockBegin
  2
*Paper_Space
 70
     0
 10
0.0
 20
0.0
 30
0.0
  3
*Paper_Space
  1

  0
ENDBLK
  5
1D
330
1B
100
AcDbEntity
 67
     1
  8
0
100
AcDbBlockEnd
  0
BLOCK
  5
24
330
23
100
AcDbEntity
 67
     1
  8
0
100
AcDbBlockBegin
  2
*Paper_Space0
 70
     0
 10
0.0
 20
0.0
 30
0.0
  3
*Paper_Space0
  1

  0
ENDBLK
  5
25
330
23
100
AcDbEntity
 67
     1
  8
0
100
AcDbBlockEnd
  0
BLOCK
  5
74
330
72
100
AcDbEntity
  8
0
100
AcDbBlockBegin
  2
GENAXEH
 70
     0
 10
0.0
 20
0.0
 30
0.0
  3
GENAXEH
  1

  0
LINE
  5
73
330
72
100
AcDbEntity
  8
0
100
AcDbLine
 10
-1.0
 20
0.0
 30
0.0
 11
1.0
 21
0.0
 31
0.0
  0
ENDBLK
  5
75
330
72
100
AcDbEntity
  8
0
100
AcDbBlockEnd
  0
BLOCK
  5
6C7
330
6C4
100
AcDbEntity
  8
0
100
AcDbBlockBegin
  2
_Dot
 70
     0
 10
0.0
 20
0.0
 30
0.0
  3
_Dot
  1

  0
LWPOLYLINE
  5
6C5
330
6C4
100
AcDbEntity
  8
0
  6
ByBlock
 62
     0
100
AcDbPolyline
 90
        2
 70
     1
 43
0.5
 10
-0.25
 20
0.0
 42
1.0
 10
0.25
 20
0.0
 42
1.0
  0
LINE
  5
6C6
330
6C4
100
AcDbEntity
  8
0
  6
ByBlock
 62
     0
370
    -2
100
AcDbLine
 10
-0.5
 20
0.0
 30
0.0
 11
-1.0
 21
0.0
 31
0.0
  0
ENDBLK
  5
6C8
330
6C4
100
AcDbEntity
  8
0
100
AcDbBlockEnd
  0
BLOCK
  5
A6A
330
A66
100
AcDbEntity
  8
0
100
AcDbBlockBegin
  2
_OPEN30
 70
     0
 10
0.0
 20
0.0
 30
0.0
  3
_OPEN30
  1

  0
LINE
  5
A67
330
A66
100
AcDbEntity
  8
0
  6
ByBlock
 62
     0
100
AcDbLine
 10
-1.0
 20
0.26794919
 30
0.0
 11
0.0
 21
0.0
 31
0.0
  0
LINE
  5
A68
330
A66
100
AcDbEntity
  8
0
  6
ByBlock
 62
     0
100
AcDbLine
 10
0.0
 20
0.0
 30
0.0
 11
-1.0
 21
-0.26794919
 31
0.0
  0
LINE
  5
A69
330
A66
100
AcDbEntity
  8
0
  6
ByBlock
 62
     0
100
AcDbLine
 10
0.0
 20
0.0
 30
0.0
 11
-1.0
 21
0.0
 31
0.0
  0
ENDBLK
  5
A6B
330
A66
100
AcDbEntity
  8
0
100
AcDbBlockEnd
  0
BLOCK
  5
C056
330
C04A
100
AcDbEntity
  8
0
100
AcDbBlockBegin
  2
*D5
 70
     1
 10
0.0
 20
0.0
 30
0.0
  3
*D5
  1

  0
LINE
  5
CD74
330
C04A
100
AcDbEntity
  8
AM_5
  6
Continuous
100
AcDbLine
 10
192.3351871150038
 20
240.5989379988537
 30
0.0
 11
179.9179140007676
 21
240.5989379988537
 31
0.0
  0
LINE
  5
CD75
330
C04A
100
AcDbEntity
  8
AM_5
  6
Continuous
100
AcDbLine
 10
192.3351871150038
 20
237.5989379988537
 30
0.0
 11
179.9179140007676
 21
237.5989379988537
 31
0.0
  0
LINE
  5
CD76
330
C04A
100
AcDbEntity
  8
AM_5
  6
Continuous
100
AcDbLine
 10
180.9179140007676
 20
241.5989379988537
 30
0.0
 11
180.9179140007676
 21
242.5989379988537
 31
0.0
  0
LINE
  5
CD77
330
C04A
100
AcDbEntity
  8
AM_5
  6
Continuous
100
AcDbLine
 10
180.9179140007676
 20
236.5989379988537
 30
0.0
 11
180.9179140007676
 21
231.1056046655203
 31
0.0
  0
LINE
  5
CD78
330
C04A
100
AcDbEntity
  8
AM_5
  6
Continuous
100
AcDbLine
 10
180.9179140007676
 20
240.5989379988537
 30
0.0
 11
180.9179140007676
 21
237.5989379988537
 31
0.0
  0
INSERT
  5
CD79
330
C04A
100
AcDbEntity
  8
AM_5
  6
Continuous
100
AcDbBlockReference
  2
_Dot
 10
180.9179140007676
 20
240.5989379988537
 30
0.0
 50
270.0
  0
INSERT
  5
CD7A
330
C04A
100
AcDbEntity
  8
AM_5
  6
Continuous
100
AcDbBlockReference
  2
_Dot
 10
180.9179140007676
 20
237.5989379988537
 30
0.0
 50
90.0
  0
MTEXT
  5
CD7B
330
C04A
100
AcDbEntity
  8
AM_5
  6
Continuous
 62
     2
100
AcDbMText
 10
177.8179140007676
 20
233.3522713321871
 30
0.0
 40
3.200000000000001
 41
0.0
 71
     5
 72
     1
  1
3
 11
0.0000000000000001
 21
1.0
 31
0.0
 73
     1
 44
1.0
1001
ACAD
1000
MTEXTBEGIN
1070
    73
1070
     1
1070
    44
1040
1.0
1070
    74
1070
     0
1000
MTEXTEND
  0
POINT
  5
CD7C
330
C04A
100
AcDbEntity
  8
Defpoints
  6
Continuous
 62
     0
100
AcDbPoint
 10
193.3351871150038
 20
240.5989379988537
 30
0.0
  0
POINT
  5
CD7D
330
C04A
100
AcDbEntity
  8
Defpoints
  6
Continuous
 62
     0
100
AcDbPoint
 10
193.3351871150038
 20
237.5989379988537
 30
0.0
  0
POINT
  5
CD7E
330
C04A
100
AcDbEntity
  8
Defpoints
  6
Continuous
 62
     0
100
AcDbPoint
 10
180.9179140007676
 20
237.5989379988537
 30
0.0
  0
ENDBLK
  5
C057
330
C04A
100
AcDbEntity
  8
0
100
AcDbBlockEnd
  0
BLOCK
  5
C062
330
C058
100
AcDbEntity
  8
0
100
AcDbBlockBegin
  2
*D6
 70
     1
 10
0.0
 20
0.0
 30
0.0
  3
*D6
  1

  0
LINE
  5
CCF0
330
C058
100
AcDbEntity
  8
AM_5
  6
Continuous
100
AcDbLine
 10
201.2351871150038
 20
131.7615256689782
 30
0.0
 11
180.2351871150038
 21
131.7615256689783
 31
0.0
  0
LINE
  5
CCF1
330
C058
100
AcDbEntity
  8
AM_5
  6
Continuous
100
AcDbLine
 10
192.2351871150038
 20
150.2615256689782
 30
0.0
 11
180.2351871150038
 21
150.2615256689783
 31
0.0
  0
LINE
  5
CCF2
330
C058
100
AcDbEntity
  8
AM_5
  6
Continuous
100
AcDbLine
 10
181.2351871150038
 20
132.7615256689783
 30
0.0
 11
181.2351871150038
 21
149.2615256689783
 31
0.0
  0
INSERT
  5
CCF3
330
C058
100
AcDbEntity
  8
AM_5
  6
Continuous
100
AcDbBlockReference
  2
_Dot
 10
181.2351871150038
 20
131.7615256689783
 30
0.0
 50
270.0
  0
INSERT
  5
CCF4
330
C058
100
AcDbEntity
  8
AM_5
  6
Continuous
100
AcDbBlockReference
  2
_Dot
 10
181.2351871150038
 20
150.2615256689783
 30
0.0
 50
90.0
  0
MTEXT
  5
CCF5
330
C058
100
AcDbEntity
  8
AM_5
  6
Continuous
 62
     2
100
AcDbMText
 10
178.1351871150037
 20
141.0115256689783
 30
0.0
 40
3.200000000000001
 41
0.0
 71
     5
 72
     1
  1
18.5
 11
0.0000000000000001
 21
1.0
 31
0.0
 73
     1
 44
1.0
1001
ACAD
1000
MTEXTBEGIN
1070
    73
1070
     1
1070
    44
1040
1.0
1070
    74
1070
     0
1000
MTEXTEND
  0
POINT
  5
CCF6
330
C058
100
AcDbEntity
  8
Defpoints
  6
Continuous
 62
     0
100
AcDbPoint
 10
202.2351871150038
 20
131.7615256689782
 30
0.0
  0
POINT
  5
CCF7
330
C058
100
AcDbEntity
  8
Defpoints
  6
Continuous
 62
     0
100
AcDbPoint
 10
193.2351871150038
 20
150.2615256689782
 30
0.0
  0
POINT
  5
CCF8
330
C058
100
AcDbEntity
  8
Defpoints
  6
Continuous
 62
     0
100
AcDbPoint
 10
181.2351871150038
 20
150.2615256689783
 30
0.0
  0
ENDBLK
  5
C063
330
C058
100
AcDbEntity
  8
0
100
AcDbBlockEnd
  0
BLOCK
  5
C06E
330
C064
100
AcDbEntity
  8
0
100
AcDbBlockBegin
  2
*D7
 70
     1
 10
0.0
 20
0.0
 30
0.0
  3
*D7
  1

  0
LINE
  5
CD0B
330
C064
100
AcDbEntity
  8
AM_5
  6
Continuous
100
AcDbLine
 10
201.2351871150038
 20
131.7615256689782
 30
0.0
 11
180.2351871150038
 21
131.7615256689783
 31
0.0
  0
LINE
  5
CD0C
330
C064
100
AcDbEntity
  8
AM_5
  6
Continuous
100
AcDbLine
 10
192.2351871150038
 20
113.2615256689782
 30
0.0
 11
180.2351871150038
 21
113.2615256689782
 31
0.0
  0
LINE
  5
CD0D
330
C064
100
AcDbEntity
  8
AM_5
  6
Continuous
100
AcDbLine
 10
181.2351871150038
 20
130.7615256689783
 30
0.0
 11
181.2351871150038
 21
114.2615256689782
 31
0.0
  0
INSERT
  5
CD0E
330
C064
100
AcDbEntity
  8
AM_5
  6
Continuous
100
AcDbBlockReference
  2
_Dot
 10
181.2351871150038
 20
131.7615256689783
 30
0.0
 50
90.0
  0
INSERT
  5
CD0F
330
C064
100
AcDbEntity
  8
AM_5
  6
Continuous
100
AcDbBlockReference
  2
_Dot
 10
181.2351871150038
 20
113.2615256689782
 30
0.0
 50
270.0
  0
MTEXT
  5
CD10
330
C064
100
AcDbEntity
  8
AM_5
  6
Continuous
 62
     2
100
AcDbMText
 10
178.1351871150037
 20
122.5115256689783
 30
0.0
 40
3.200000000000001
 41
0.0
 71
     5
 72
     1
  1
18.5
 11
0.0000000000000001
 21
1.0
 31
0.0
 73
     1
 44
1.0
1001
ACAD
1000
MTEXTBEGIN
1070
    73
1070
     1
1070
    44
1040
1.0
1070
    74
1070
     0
1000
MTEXTEND
  0
POINT
  5
CD11
330
C064
100
AcDbEntity
  8
Defpoints
  6
Continuous
 62
     0
100
AcDbPoint
 10
202.2351871150038
 20
131.7615256689782
 30
0.0
  0
POINT
  5
CD12
330
C064
100
AcDbEntity
  8
Defpoints
  6
Continuous
 62
     0
100
AcDbPoint
 10
193.2351871150038
 20
113.2615256689782
 30
0.0
  0
POINT
  5
CD13
330
C064
100
AcDbEntity
  8
Defpoints
  6
Continuous
 62
     0
100
AcDbPoint
 10
181.2351871150038
 20
113.2615256689782
 30
0.0
  0
ENDBLK
  5
C06F
330
C064
100
AcDbEntity
  8
0
100
AcDbBlockEnd
  0
BLOCK
  5
C07A
330
C070
100
AcDbEntity
  8
0
100
AcDbBlockBegin
  2
*D8
 70
     1
 10
0.0
 20
0.0
 30
0.0
  3
*D8
  1

  0
LINE
  5
DBD5
330
C070
100
AcDbEntity
  8
AM_5
  6
Continuous
100
AcDbLine
 10
192.3351871150038
 20
150.2615256689782
 30
0.0
 11
180.2351871150037
 21
150.2615256689783
 31
0.0
  0
LINE
  5
DBD6
330
C070
100
AcDbEntity
  8
AM_5
  6
Continuous
100
AcDbLine
 10
197.3351871150038
 20
162.2615256689782
 30
0.0
 11
180.2351871150037
 21
162.2615256689783
 31
0.0
  0
LINE
  5
DBD7
330
C070
100
AcDbEntity
  8
AM_5
  6
Continuous
100
AcDbLine
 10
181.2351871150037
 20
151.2615256689783
 30
0.0
 11
181.2351871150037
 21
161.2615256689783
 31
0.0
  0
INSERT
  5
DBD8
330
C070
100
AcDbEntity
  8
AM_5
  6
Continuous
100
AcDbBlockReference
  2
_Dot
 10
181.2351871150037
 20
150.2615256689783
 30
0.0
 50
270.0
  0
INSERT
  5
DBD9
330
C070
100
AcDbEntity
  8
AM_5
  6
Continuous
100
AcDbBlockReference
  2
_Dot
 10
181.2351871150037
 20
162.2615256689783
 30
0.0
 50
90.0
  0
MTEXT
  5
DBDA
330
C070
100
AcDbEntity
  8
AM_5
  6
Continuous
 62
     2
100
AcDbMText
 10
178.1351871150036
 20
156.2615256689783
 30
0.0
 40
3.200000000000001
 41
0.0
 71
     5
 72
     1
  1
12
 11
0.0000000000000001
 21
1.0
 31
0.0
 73
     1
 44
1.0
1001
ACAD
1000
MTEXTBEGIN
1070
    73
1070
     1
1070
    44
1040
1.0
1070
    74
1070
     0
1000
MTEXTEND
  0
POINT
  5
DBDB
330
C070
100
AcDbEntity
  8
Defpoints
  6
Continuous
 62
     0
100
AcDbPoint
 10
193.3351871150038
 20
150.2615256689782
 30
0.0
  0
POINT
  5
DBDC
330
C070
100
AcDbEntity
  8
Defpoints
  6
Continuous
 62
     0
100
AcDbPoint
 10
198.3351871150038
 20
162.2615256689782
 30
0.0
  0
POINT
  5
DBDD
330
C070
100
AcDbEntity
  8
Defpoints
  6
Continuous
 62
     0
100
AcDbPoint
 10
181.2351871150037
 20
162.2615256689783
 30
0.0
  0
ENDBLK
  5
C07B
330
C070
100
AcDbEntity
  8
0
100
AcDbBlockEnd
  0
BLOCK
  5
C086
330
C07C
100
AcDbEntity
  8
0
100
AcDbBlockBegin
  2
*D9
 70
     1
 10
0.0
 20
0.0
 30
0.0
  3
*D9
  1

  0
LINE
  5
DC0D
330
C07C
100
AcDbEntity
  8
AM_5
  6
Continuous
100
AcDbLine
 10
197.3351871150038
 20
101.2615256689782
 30
0.0
 11
180.2351871150035
 21
101.2615256689782
 31
0.0
  0
LINE
  5
DC0E
330
C07C
100
AcDbEntity
  8
AM_5
  6
Continuous
100
AcDbLine
 10
192.3351871150038
 20
113.2615256689782
 30
0.0
 11
180.2351871150035
 21
113.2615256689782
 31
0.0
  0
LINE
  5
DC0F
330
C07C
100
AcDbEntity
  8
AM_5
  6
Continuous
100
AcDbLine
 10
181.2351871150035
 20
102.2615256689782
 30
0.0
 11
181.2351871150035
 21
112.2615256689782
 31
0.0
  0
INSERT
  5
DC10
330
C07C
100
AcDbEntity
  8
AM_5
  6
Continuous
100
AcDbBlockReference
  2
_Dot
 10
181.2351871150035
 20
101.2615256689782
 30
0.0
 50
270.0
  0
INSERT
  5
DC11
330
C07C
100
AcDbEntity
  8
AM_5
  6
Continuous
100
AcDbBlockReference
  2
_Dot
 10
181.2351871150035
 20
113.2615256689782
 30
0.0
 50
90.0
  0
MTEXT
  5
DC12
330
C07C
100
AcDbEntity
  8
AM_5
  6
Continuous
 62
     2
100
AcDbMText
 10
178.1351871150035
 20
107.2615256689783
 30
0.0
 40
3.200000000000001
 41
0.0
 71
     5
 72
     1
  1
12
 11
0.0000000000000001
 21
1.0
 31
0.0
 73
     1
 44
1.0
1001
ACAD
1000
MTEXTBEGIN
1070
    73
1070
     1
1070
    44
1040
1.0
1070
    74
1070
     0
1000
MTEXTEND
  0
POINT
  5
DC13
330
C07C
100
AcDbEntity
  8
Defpoints
  6
Continuous
 62
     0
100
AcDbPoint
 10
198.3351871150038
 20
101.2615256689782
 30
0.0
  0
POINT
  5
DC14
330
C07C
100
AcDbEntity
  8
Defpoints
  6
Continuous
 62
     0
100
AcDbPoint
 10
193.3351871150038
 20
113.2615256689782
 30
0.0
  0
POINT
  5
DC15
330
C07C
100
AcDbEntity
  8
Defpoints
  6
Continuous
 62
     0
100
AcDbPoint
 10
181.2351871150035
 20
113.2615256689782
 30
0.0
  0
ENDBLK
  5
C087
330
C07C
100
AcDbEntity
  8
0
100
AcDbBlockEnd
  0
BLOCK
  5
C092
330
C088
100
AcDbEntity
  8
0
100
AcDbBlockBegin
  2
*D10
 70
     1
 10
0.0
 20
0.0
 30
0.0
  3
*D10
  1

  0
LINE
  5
DC04
330
C088
100
AcDbEntity
  8
AM_5
  6
Continuous
100
AcDbLine
 10
197.3351871150038
 20
162.2615256689782
 30
0.0
 11
170.2351871150035
 21
162.2615256689783
 31
0.0
  0
LINE
  5
DC05
330
C088
100
AcDbEntity
  8
AM_5
  6
Continuous
100
AcDbLine
 10
197.3351871150038
 20
101.2615256689782
 30
0.0
 11
170.2351871150035
 21
101.2615256689782
 31
0.0
  0
LINE
  5
DC06
330
C088
100
AcDbEntity
  8
AM_5
  6
Continuous
100
AcDbLine
 10
171.2351871150035
 20
161.2615256689783
 30
0.0
 11
171.2351871150035
 21
102.2615256689782
 31
0.0
  0
INSERT
  5
DC07
330
C088
100
AcDbEntity
  8
AM_5
  6
Continuous
100
AcDbBlockReference
  2
_Dot
 10
171.2351871150035
 20
162.2615256689783
 30
0.0
 50
90.0
  0
INSERT
  5
DC08
330
C088
100
AcDbEntity
  8
AM_5
  6
Continuous
100
AcDbBlockReference
  2
_Dot
 10
171.2351871150035
 20
101.2615256689782
 30
0.0
 50
270.0
  0
MTEXT
  5
DC09
330
C088
100
AcDbEntity
  8
AM_5
  6
Continuous
 62
     2
100
AcDbMText
 10
168.1351871150035
 20
131.7615256689783
 30
0.0
 40
3.200000000000001
 41
0.0
 71
     5
 72
     1
  1
61
 11
0.0000000000000001
 21
1.0
 31
0.0
 73
     1
 44
1.0
1001
ACAD
1000
MTEXTBEGIN
1070
    73
1070
     1
1070
    44
1040
1.0
1070
    74
1070
     0
1000
MTEXTEND
  0
POINT
  5
DC0A
330
C088
100
AcDbEntity
  8
Defpoints
  6
Continuous
 62
     0
100
AcDbPoint
 10
198.3351871150038
 20
162.2615256689782
 30
0.0
  0
POINT
  5
DC0B
330
C088
100
AcDbEntity
  8
Defpoints
  6
Continuous
 62
     0
100
AcDbPoint
 10
198.3351871150038
 20
101.2615256689782
 30
0.0
  0
POINT
  5
DC0C
330
C088
100
AcDbEntity
  8
Defpoints
  6
Continuous
 62
     0
100
AcDbPoint
 10
171.2351871150035
 20
101.2615256689782
 30
0.0
  0
ENDBLK
  5
C093
330
C088
100
AcDbEntity
  8
0
100
AcDbBlockEnd
  0
BLOCK
  5
C09E
330
C094
100
AcDbEntity
  8
0
100
AcDbBlockBegin
  2
*D11
 70
     1
 10
0.0
 20
0.0
 30
0.0
  3
*D11
  1

  0
LINE
  5
CD38
330
C094
100
AcDbEntity
  8
AM_5
  6
Continuous
100
AcDbLine
 10
285.435187115004
 20
67.76152566897803
 30
0.0
 11
306.4351871150038
 21
67.76152566897803
 31
0.0
  0
LINE
  5
CD39
330
C094
100
AcDbEntity
  8
AM_5
  6
Continuous
100
AcDbLine
 10
294.4351871150038
 20
86.26152566897827
 30
0.0
 11
306.4351871150038
 21
86.26152566897827
 31
0.0
  0
LINE
  5
CD3A
330
C094
100
AcDbEntity
  8
AM_5
  6
Continuous
100
AcDbLine
 10
305.4351871150038
 20
68.76152566897802
 30
0.0
 11
305.4351871150038
 21
85.26152566897826
 31
0.0
  0
INSERT
  5
CD3B
330
C094
100
AcDbEntity
  8
AM_5
  6
Continuous
100
AcDbBlockReference
  2
_Dot
 10
305.4351871150038
 20
67.76152566897803
 30
0.0
 50
270.0
  0
INSERT
  5
CD3C
330
C094
100
AcDbEntity
  8
AM_5
  6
Continuous
100
AcDbBlockReference
  2
_Dot
 10
305.4351871150038
 20
86.26152566897827
 30
0.0
 50
90.0
  0
MTEXT
  5
CD3D
330
C094
100
AcDbEntity
  8
AM_5
  6
Continuous
 62
     2
100
AcDbMText
 10
302.3351871150038
 20
77.01152566897819
 30
0.0
 40
3.200000000000001
 41
0.0
 71
     5
 72
     1
  1
18.5
 11
0.0000000000000001
 21
1.0
 31
0.0
 73
     1
 44
1.0
1001
ACAD
1000
MTEXTBEGIN
1070
    73
1070
     1
1070
    44
1040
1.0
1070
    74
1070
     0
1000
MTEXTEND
  0
POINT
  5
CD3E
330
C094
100
AcDbEntity
  8
Defpoints
  6
Continuous
 62
     0
100
AcDbPoint
 10
284.435187115004
 20
67.76152566897803
 30
0.0
  0
POINT
  5
CD3F
330
C094
100
AcDbEntity
  8
Defpoints
  6
Continuous
 62
     0
100
AcDbPoint
 10
293.4351871150038
 20
86.26152566897827
 30
0.0
  0
POINT
  5
CD40
330
C094
100
AcDbEntity
  8
Defpoints
  6
Continuous
 62
     0
100
AcDbPoint
 10
305.4351871150038
 20
86.26152566897827
 30
0.0
  0
ENDBLK
  5
C09F
330
C094
100
AcDbEntity
  8
0
100
AcDbBlockEnd
  0
BLOCK
  5
C0AA
330
C0A0
100
AcDbEntity
  8
0
100
AcDbBlockBegin
  2
*D12
 70
     1
 10
0.0
 20
0.0
 30
0.0
  3
*D12
  1

  0
LINE
  5
CD1D
330
C0A0
100
AcDbEntity
  8
AM_5
  6
Continuous
100
AcDbLine
 10
285.435187115004
 20
67.76152566897803
 30
0.0
 11
306.4351871150038
 21
67.76152566897803
 31
0.0
  0
LINE
  5
CD1E
330
C0A0
100
AcDbEntity
  8
AM_5
  6
Continuous
100
AcDbLine
 10
294.4351871150038
 20
49.26152566897821
 30
0.0
 11
306.4351871150038
 21
49.2615256689782
 31
0.0
  0
LINE
  5
CD1F
330
C0A0
100
AcDbEntity
  8
AM_5
  6
Continuous
100
AcDbLine
 10
305.4351871150038
 20
66.76152566897802
 30
0.0
 11
305.4351871150038
 21
50.2615256689782
 31
0.0
  0
INSERT
  5
CD20
330
C0A0
100
AcDbEntity
  8
AM_5
  6
Continuous
100
AcDbBlockReference
  2
_Dot
 10
305.4351871150038
 20
67.76152566897803
 30
0.0
 50
90.0
  0
INSERT
  5
CD21
330
C0A0
100
AcDbEntity
  8
AM_5
  6
Continuous
100
AcDbBlockReference
  2
_Dot
 10
305.4351871150038
 20
49.2615256689782
 30
0.0
 50
270.0
  0
MTEXT
  5
CD22
330
C0A0
100
AcDbEntity
  8
AM_5
  6
Continuous
 62
     2
100
AcDbMText
 10
302.3351871150038
 20
58.51152566897816
 30
0.0
 40
3.200000000000001
 41
0.0
 71
     5
 72
     1
  1
18.5
 11
0.0000000000000001
 21
1.0
 31
0.0
 73
     1
 44
1.0
1001
ACAD
1000
MTEXTBEGIN
1070
    73
1070
     1
1070
    44
1040
1.0
1070
    74
1070
     0
1000
MTEXTEND
  0
POINT
  5
CD23
330
C0A0
100
AcDbEntity
  8
Defpoints
  6
Continuous
 62
     0
100
AcDbPoint
 10
284.435187115004
 20
67.76152566897803
 30
0.0
  0
POINT
  5
CD24
330
C0A0
100
AcDbEntity
  8
Defpoints
  6
Continuous
 62
     0
100
AcDbPoint
 10
293.4351871150038
 20
49.26152566897821
 30
0.0
  0
POINT
  5
CD25
330
C0A0
100
AcDbEntity
  8
Defpoints
  6
Continuous
 62
     0
100
AcDbPoint
 10
305.4351871150038
 20
49.2615256689782
 30
0.0
  0
ENDBLK
  5
C0AB
330
C0A0
100
AcDbEntity
  8
0
100
AcDbBlockEnd
  0
BLOCK
  5
C0B6
330
C0AC
100
AcDbEntity
  8
0
100
AcDbBlockBegin
  2
*D13
 70
     1
 10
0.0
 20
0.0
 30
0.0
  3
*D13
  1

  0
LINE
  5
DC3C
330
C0AC
100
AcDbEntity
  8
AM_5
  6
Continuous
100
AcDbLine
 10
294.3351871150038
 20
86.26152566897827
 30
0.0
 11
306.4351871150041
 21
86.26152566897827
 31
0.0
  0
LINE
  5
DC3D
330
C0AC
100
AcDbEntity
  8
AM_5
  6
Continuous
100
AcDbLine
 10
289.3351871150038
 20
98.26152566897826
 30
0.0
 11
306.4351871150041
 21
98.26152566897826
 31
0.0
  0
LINE
  5
DC3E
330
C0AC
100
AcDbEntity
  8
AM_5
  6
Continuous
100
AcDbLine
 10
305.4351871150041
 20
87.26152566897827
 30
0.0
 11
305.4351871150041
 21
97.26152566897827
 31
0.0
  0
INSERT
  5
DC3F
330
C0AC
100
AcDbEntity
  8
AM_5
  6
Continuous
100
AcDbBlockReference
  2
_Dot
 10
305.4351871150041
 20
86.26152566897827
 30
0.0
 50
270.0
  0
INSERT
  5
DC40
330
C0AC
100
AcDbEntity
  8
AM_5
  6
Continuous
100
AcDbBlockReference
  2
_Dot
 10
305.4351871150041
 20
98.26152566897826
 30
0.0
 50
90.0
  0
MTEXT
  5
DC41
330
C0AC
100
AcDbEntity
  8
AM_5
  6
Continuous
 62
     2
100
AcDbMText
 10
302.335187115004
 20
92.26152566897832
 30
0.0
 40
3.200000000000001
 41
0.0
 71
     5
 72
     1
  1
12
 11
0.0000000000000001
 21
1.0
 31
0.0
 73
     1
 44
1.0
1001
ACAD
1000
MTEXTBEGIN
1070
    73
1070
     1
1070
    44
1040
1.0
1070
    74
1070
     0
1000
MTEXTEND
  0
POINT
  5
DC42
330
C0AC
100
AcDbEntity
  8
Defpoints
  6
Continuous
 62
     0
100
AcDbPoint
 10
293.3351871150038
 20
86.26152566897827
 30
0.0
  0
POINT
  5
DC43
330
C0AC
100
AcDbEntity
  8
Defpoints
  6
Continuous
 62
     0
100
AcDbPoint
 10
288.3351871150038
 20
98.26152566897826
 30
0.0
  0
POINT
  5
DC44
330
C0AC
100
AcDbEntity
  8
Defpoints
  6
Continuous
 62
     0
100
AcDbPoint
 10
305.4351871150041
 20
98.26152566897826
 30
0.0
  0
ENDBLK
  5
C0B7
330
C0AC
100
AcDbEntity
  8
0
100
AcDbBlockEnd
  0
BLOCK
  5
C0C2
330
C0B8
100
AcDbEntity
  8
0
100
AcDbBlockBegin
  2
*D14
 70
     1
 10
0.0
 20
0.0
 30
0.0
  3
*D14
  1

  0
LINE
  5
DC69
330
C0B8
100
AcDbEntity
  8
AM_5
  6
Continuous
100
AcDbLine
 10
289.3351871150038
 20
37.26152566897821
 30
0.0
 11
306.4351871150041
 21
37.2615256689782
 31
0.0
  0
LINE
  5
DC6A
330
C0B8
100
AcDbEntity
  8
AM_5
  6
Continuous
100
AcDbLine
 10
294.3351871150038
 20
49.26152566897821
 30
0.0
 11
306.4351871150041
 21
49.2615256689782
 31
0.0
  0
LINE
  5
DC6B
330
C0B8
100
AcDbEntity
  8
AM_5
  6
Continuous
100
AcDbLine
 10
305.4351871150041
 20
38.2615256689782
 30
0.0
 11
305.4351871150041
 21
48.2615256689782
 31
0.0
  0
INSERT
  5
DC6C
330
C0B8
100
AcDbEntity
  8
AM_5
  6
Continuous
100
AcDbBlockReference
  2
_Dot
 10
305.4351871150041
 20
37.2615256689782
 30
0.0
 50
270.0
  0
INSERT
  5
DC6D
330
C0B8
100
AcDbEntity
  8
AM_5
  6
Continuous
100
AcDbBlockReference
  2
_Dot
 10
305.4351871150041
 20
49.2615256689782
 30
0.0
 50
90.0
  0
MTEXT
  5
DC6E
330
C0B8
100
AcDbEntity
  8
AM_5
  6
Continuous
 62
     2
100
AcDbMText
 10
302.335187115004
 20
43.26152566897825
 30
0.0
 40
3.200000000000001
 41
0.0
 71
     5
 72
     1
  1
12
 11
0.0000000000000001
 21
1.0
 31
0.0
 73
     1
 44
1.0
1001
ACAD
1000
MTEXTBEGIN
1070
    73
1070
     1
1070
    44
1040
1.0
1070
    74
1070
     0
1000
MTEXTEND
  0
POINT
  5
DC6F
330
C0B8
100
AcDbEntity
  8
Defpoints
  6
Continuous
 62
     0
100
AcDbPoint
 10
288.3351871150038
 20
37.26152566897821
 30
0.0
  0
POINT
  5
DC70
330
C0B8
100
AcDbEntity
  8
Defpoints
  6
Continuous
 62
     0
100
AcDbPoint
 10
293.3351871150038
 20
49.26152566897821
 30
0.0
  0
POINT
  5
DC71
330
C0B8
100
AcDbEntity
  8
Defpoints
  6
Continuous
 62
     0
100
AcDbPoint
 10
305.4351871150041
 20
49.2615256689782
 30
0.0
  0
ENDBLK
  5
C0C3
330
C0B8
100
AcDbEntity
  8
0
100
AcDbBlockEnd
  0
BLOCK
  5
C0CE
330
C0C4
100
AcDbEntity
  8
0
100
AcDbBlockBegin
  2
*D15
 70
     1
 10
0.0
 20
0.0
 30
0.0
  3
*D15
  1

  0
LINE
  5
DC4E
330
C0C4
100
AcDbEntity
  8
AM_5
  6
Continuous
100
AcDbLine
 10
289.3351871150038
 20
98.26152566897826
 30
0.0
 11
316.435187115004
 21
98.26152566897826
 31
0.0
  0
LINE
  5
DC4F
330
C0C4
100
AcDbEntity
  8
AM_5
  6
Continuous
100
AcDbLine
 10
289.3351871150038
 20
37.26152566897821
 30
0.0
 11
316.435187115004
 21
37.2615256689782
 31
0.0
  0
LINE
  5
DC50
330
C0C4
100
AcDbEntity
  8
AM_5
  6
Continuous
100
AcDbLine
 10
315.4351871150041
 20
97.26152566897827
 30
0.0
 11
315.4351871150041
 21
38.2615256689782
 31
0.0
  0
INSERT
  5
DC51
330
C0C4
100
AcDbEntity
  8
AM_5
  6
Continuous
100
AcDbBlockReference
  2
_Dot
 10
315.4351871150041
 20
98.26152566897826
 30
0.0
 50
90.0
  0
INSERT
  5
DC52
330
C0C4
100
AcDbEntity
  8
AM_5
  6
Continuous
100
AcDbBlockReference
  2
_Dot
 10
315.4351871150041
 20
37.2615256689782
 30
0.0
 50
270.0
  0
MTEXT
  5
DC53
330
C0C4
100
AcDbEntity
  8
AM_5
  6
Continuous
 62
     2
100
AcDbMText
 10
312.335187115004
 20
67.76152566897829
 30
0.0
 40
3.200000000000001
 41
0.0
 71
     5
 72
     1
  1
61
 11
0.0000000000000001
 21
1.0
 31
0.0
 73
     1
 44
1.0
1001
ACAD
1000
MTEXTBEGIN
1070
    73
1070
     1
1070
    44
1040
1.0
1070
    74
1070
     0
1000
MTEXTEND
  0
POINT
  5
DC54
330
C0C4
100
AcDbEntity
  8
Defpoints
  6
Continuous
 62
     0
100
AcDbPoint
 10
288.3351871150038
 20
98.26152566897826
 30
0.0
  0
POINT
  5
DC55
330
C0C4
100
AcDbEntity
  8
Defpoints
  6
Continuous
 62
     0
100
AcDbPoint
 10
288.3351871150038
 20
37.26152566897821
 30
0.0
  0
POINT
  5
DC56
330
C0C4
100
AcDbEntity
  8
Defpoints
  6
Continuous
 62
     0
100
AcDbPoint
 10
315.4351871150041
 20
37.2615256689782
 30
0.0
  0
ENDBLK
  5
C0CF
330
C0C4
100
AcDbEntity
  8
0
100
AcDbBlockEnd
  0
BLOCK
  5
C0EB
330
C0E1
100
AcDbEntity
  8
0
100
AcDbBlockBegin
  2
*D16
 70
     1
 10
0.0
 20
0.0
 30
0.0
  3
*D16
  1

  0
LINE
  5
DC45
330
C0E1
100
AcDbEntity
  8
AM_5
  6
Continuous
100
AcDbLine
 10
233.3351871150038
 20
37.26152566897798
 30
0.0
 11
160.2351871150033
 21
37.26152566897801
 31
0.0
  0
LINE
  5
DC46
330
C0E1
100
AcDbEntity
  8
AM_5
  6
Continuous
100
AcDbLine
 10
197.3351871150038
 20
162.2615256689782
 30
0.0
 11
160.2351871150033
 21
162.2615256689783
 31
0.0
  0
LINE
  5
DC47
330
C0E1
100
AcDbEntity
  8
AM_5
  6
Continuous
100
AcDbLine
 10
161.2351871150033
 20
38.261525668978
 30
0.0
 11
161.2351871150033
 21
161.2615256689783
 31
0.0
  0
INSERT
  5
DC48
330
C0E1
100
AcDbEntity
  8
AM_5
  6
Continuous
100
AcDbBlockReference
  2
_Dot
 10
161.2351871150033
 20
37.26152566897801
 30
0.0
 50
270.0
  0
INSERT
  5
DC49
330
C0E1
100
AcDbEntity
  8
AM_5
  6
Continuous
100
AcDbBlockReference
  2
_Dot
 10
161.2351871150033
 20
162.2615256689783
 30
0.0
 50
90.0
  0
MTEXT
  5
DC4A
330
C0E1
100
AcDbEntity
  8
AM_5
  6
Continuous
 62
     2
100
AcDbMText
 10
158.1351871150033
 20
99.76152566897816
 30
0.0
 40
3.200000000000001
 41
0.0
 71
     5
 72
     1
  1
125
 11
0.0000000000000001
 21
1.0
 31
0.0
 73
     1
 44
1.0
1001
ACAD
1000
MTEXTBEGIN
1070
    73
1070
     1
1070
    44
1040
1.0
1070
    74
1070
     0
1000
MTEXTEND
  0
POINT
  5
DC4B
330
C0E1
100
AcDbEntity
  8
Defpoints
  6
Continuous
 62
     0
100
AcDbPoint
 10
234.3351871150038
 20
37.26152566897798
 30
0.0
  0
POINT
  5
DC4C
330
C0E1
100
AcDbEntity
  8
Defpoints
  6
Continuous
 62
     0
100
AcDbPoint
 10
198.3351871150038
 20
162.2615256689782
 30
0.0
  0
POINT
  5
DC4D
330
C0E1
100
AcDbEntity
  8
Defpoints
  6
Continuous
 62
     0
100
AcDbPoint
 10
161.2351871150033
 20
162.2615256689783
 30
0.0
  0
ENDBLK
  5
C0EC
330
C0E1
100
AcDbEntity
  8
0
100
AcDbBlockEnd
  0
BLOCK
  5
C0F7
330
C0ED
100
AcDbEntity
  8
0
100
AcDbBlockBegin
  2
*D17
 70
     1
 10
0.0
 20
0.0
 30
0.0
  3
*D17
  1

  0
LINE
  5
DBF0
330
C0ED
100
AcDbEntity
  8
AM_5
  6
Continuous
100
AcDbLine
 10
243.3351871150038
 20
169.2615256689783
 30
0.0
 11
243.3351871150038
 21
176.2615266689781
 31
0.0
  0
LINE
  5
DBF1
330
C0ED
100
AcDbEntity
  8
AM_5
  6
Continuous
100
AcDbLine
 10
217.3351871150038
 20
157.3615256689782
 30
0.0
 11
217.3351871150038
 21
176.2615266689781
 31
0.0
  0
LINE
  5
DBF2
330
C0ED
100
AcDbEntity
  8
AM_5
  6
Continuous
100
AcDbLine
 10
242.3351871150038
 20
175.2615266689781
 30
0.0
 11
218.3351871150038
 21
175.2615266689781
 31
0.0
  0
INSERT
  5
DBF3
330
C0ED
100
AcDbEntity
  8
AM_5
  6
Continuous
100
AcDbBlockReference
  2
_Dot
 10
243.3351871150038
 20
175.2615266689781
 30
0.0
  0
INSERT
  5
DBF4
330
C0ED
100
AcDbEntity
  8
AM_5
  6
Continuous
100
AcDbBlockReference
  2
_Dot
 10
217.3351871150038
 20
175.2615266689781
 30
0.0
 50
180.0
  0
MTEXT
  5
DBF5
330
C0ED
100
AcDbEntity
  8
AM_5
  6
Continuous
 62
     2
100
AcDbMText
 10
230.3351871150038
 20
178.3615266689781
 30
0.0
 40
3.200000000000001
 41
0.0
 71
     5
 72
     1
  1
26
 73
     1
 44
1.0
1001
ACAD
1000
MTEXTBEGIN
1070
    73
1070
     1
1070
    44
1040
1.0
1070
    74
1070
     0
1000
MTEXTEND
  0
POINT
  5
DBF6
330
C0ED
100
AcDbEntity
  8
Defpoints
  6
Continuous
 62
     0
100
AcDbPoint
 10
243.3351871150038
 20
168.2615256689782
 30
0.0
  0
POINT
  5
DBF7
330
C0ED
100
AcDbEntity
  8
Defpoints
  6
Continuous
 62
     0
100
AcDbPoint
 10
217.3351871150038
 20
156.3615256689782
 30
0.0
  0
POINT
  5
DBF8
330
C0ED
100
AcDbEntity
  8
Defpoints
  6
Continuous
 62
     0
100
AcDbPoint
 10
217.3351871150038
 20
175.2615266689781
 30
0.0
  0
ENDBLK
  5
C0F8
330
C0ED
100
AcDbEntity
  8
0
100
AcDbBlockEnd
  0
BLOCK
  5
C103
330
C0F9
100
AcDbEntity
  8
0
100
AcDbBlockBegin
  2
*D18
 70
     1
 10
0.0
 20
0.0
 30
0.0
  3
*D18
  1

  0
LINE
  5
DBA8
330
C0F9
100
AcDbEntity
  8
AM_5
  6
Continuous
100
AcDbLine
 10
217.3351871150038
 20
157.3615256689782
 30
0.0
 11
217.3351871150038
 21
176.2615266689781
 31
0.0
  0
LINE
  5
DBA9
330
C0F9
100
AcDbEntity
  8
AM_5
  6
Continuous
100
AcDbLine
 10
209.3351871150038
 20
139.8615256689782
 30
0.0
 11
209.3351871150038
 21
176.2615266689781
 31
0.0
  0
LINE
  5
DBAA
330
C0F9
100
AcDbEntity
  8
AM_5
  6
Continuous
100
AcDbLine
 10
216.3351871150038
 20
175.2615266689781
 30
0.0
 11
210.3351871150038
 21
175.2615266689781
 31
0.0
  0
INSERT
  5
DBAB
330
C0F9
100
AcDbEntity
  8
AM_5
  6
Continuous
100
AcDbBlockReference
  2
_Dot
 10
217.3351871150038
 20
175.2615266689781
 30
0.0
  0
INSERT
  5
DBAC
330
C0F9
100
AcDbEntity
  8
AM_5
  6
Continuous
100
AcDbBlockReference
  2
_Dot
 10
209.3351871150038
 20
175.2615266689781
 30
0.0
 50
180.0
  0
MTEXT
  5
DBAD
330
C0F9
100
AcDbEntity
  8
AM_5
  6
Continuous
 62
     2
100
AcDbMText
 10
213.3351871150038
 20
178.3615266689781
 30
0.0
 40
3.200000000000001
 41
0.0
 71
     5
 72
     1
  1
8
 73
     1
 44
1.0
1001
ACAD
1000
MTEXTBEGIN
1070
    73
1070
     1
1070
    44
1040
1.0
1070
    74
1070
     0
1000
MTEXTEND
  0
POINT
  5
DBAE
330
C0F9
100
AcDbEntity
  8
Defpoints
  6
Continuous
 62
     0
100
AcDbPoint
 10
217.3351871150038
 20
156.3615256689782
 30
0.0
  0
POINT
  5
DBAF
330
C0F9
100
AcDbEntity
  8
Defpoints
  6
Continuous
 62
     0
100
AcDbPoint
 10
209.3351871150038
 20
138.8615256689782
 30
0.0
  0
POINT
  5
DBB0
330
C0F9
100
AcDbEntity
  8
Defpoints
  6
Continuous
 62
     0
100
AcDbPoint
 10
209.3351871150038
 20
175.2615266689781
 30
0.0
  0
ENDBLK
  5
C104
330
C0F9
100
AcDbEntity
  8
0
100
AcDbBlockEnd
  0
BLOCK
  5
C10F
330
C105
100
AcDbEntity
  8
0
100
AcDbBlockBegin
  2
*D19
 70
     1
 10
0.0
 20
0.0
 30
0.0
  3
*D19
  1

  0
LINE
  5
DBCC
330
C105
100
AcDbEntity
  8
AM_5
  6
Continuous
100
AcDbLine
 10
209.3351871150038
 20
139.8615256689782
 30
0.0
 11
209.3351871150038
 21
176.2615266689781
 31
0.0
  0
LINE
  5
DBCD
330
C105
100
AcDbEntity
  8
AM_5
  6
Continuous
100
AcDbLine
 10
201.3351871150038
 20
157.3615256689782
 30
0.0
 11
201.3351871150038
 21
176.2615266689781
 31
0.0
  0
LINE
  5
DBCE
330
C105
100
AcDbEntity
  8
AM_5
  6
Continuous
100
AcDbLine
 10
208.3351871150038
 20
175.2615266689781
 30
0.0
 11
202.3351871150038
 21
175.2615266689781
 31
0.0
  0
INSERT
  5
DBCF
330
C105
100
AcDbEntity
  8
AM_5
  6
Continuous
100
AcDbBlockReference
  2
_Dot
 10
209.3351871150038
 20
175.2615266689781
 30
0.0
  0
INSERT
  5
DBD0
330
C105
100
AcDbEntity
  8
AM_5
  6
Continuous
100
AcDbBlockReference
  2
_Dot
 10
201.3351871150038
 20
175.2615266689781
 30
0.0
 50
180.0
  0
MTEXT
  5
DBD1
330
C105
100
AcDbEntity
  8
AM_5
  6
Continuous
 62
     2
100
AcDbMText
 10
205.3351871150038
 20
178.3615266689781
 30
0.0
 40
3.200000000000001
 41
0.0
 71
     5
 72
     1
  1
8
 73
     1
 44
1.0
1001
ACAD
1000
MTEXTBEGIN
1070
    73
1070
     1
1070
    44
1040
1.0
1070
    74
1070
     0
1000
MTEXTEND
  0
POINT
  5
DBD2
330
C105
100
AcDbEntity
  8
Defpoints
  6
Continuous
 62
     0
100
AcDbPoint
 10
209.3351871150038
 20
138.8615256689782
 30
0.0
  0
POINT
  5
DBD3
330
C105
100
AcDbEntity
  8
Defpoints
  6
Continuous
 62
     0
100
AcDbPoint
 10
201.3351871150038
 20
156.3615256689782
 30
0.0
  0
POINT
  5
DBD4
330
C105
100
AcDbEntity
  8
Defpoints
  6
Continuous
 62
     0
100
AcDbPoint
 10
201.3351871150038
 20
175.2615266689781
 30
0.0
  0
ENDBLK
  5
C110
330
C105
100
AcDbEntity
  8
0
100
AcDbBlockEnd
  0
BLOCK
  5
C11B
330
C111
100
AcDbEntity
  8
0
100
AcDbBlockBegin
  2
*D20
 70
     1
 10
0.0
 20
0.0
 30
0.0
  3
*D20
  1

  0
LINE
  5
DBDE
330
C111
100
AcDbEntity
  8
AM_5
  6
Continuous
100
AcDbLine
 10
201.3351871150038
 20
157.3615256689782
 30
0.0
 11
201.3351871150038
 21
176.2615266689781
 31
0.0
  0
LINE
  5
DBDF
330
C111
100
AcDbEntity
  8
AM_5
  6
Continuous
100
AcDbLine
 10
193.3351871150038
 20
158.2615256689782
 30
0.0
 11
193.3351871150038
 21
176.2615266689781
 31
0.0
  0
LINE
  5
DBE0
330
C111
100
AcDbEntity
  8
AM_5
  6
Continuous
100
AcDbLine
 10
200.3351871150038
 20
175.2615266689781
 30
0.0
 11
194.3351871150038
 21
175.2615266689781
 31
0.0
  0
INSERT
  5
DBE1
330
C111
100
AcDbEntity
  8
AM_5
  6
Continuous
100
AcDbBlockReference
  2
_Dot
 10
201.3351871150038
 20
175.2615266689781
 30
0.0
  0
INSERT
  5
DBE2
330
C111
100
AcDbEntity
  8
AM_5
  6
Continuous
100
AcDbBlockReference
  2
_Dot
 10
193.3351871150038
 20
175.2615266689781
 30
0.0
 50
180.0
  0
MTEXT
  5
DBE3
330
C111
100
AcDbEntity
  8
AM_5
  6
Continuous
 62
     2
100
AcDbMText
 10
197.3351871150038
 20
178.3615266689781
 30
0.0
 40
3.200000000000001
 41
0.0
 71
     5
 72
     1
  1
8
 73
     1
 44
1.0
1001
ACAD
1000
MTEXTBEGIN
1070
    73
1070
     1
1070
    44
1040
1.0
1070
    74
1070
     0
1000
MTEXTEND
  0
POINT
  5
DBE4
330
C111
100
AcDbEntity
  8
Defpoints
  6
Continuous
 62
     0
100
AcDbPoint
 10
201.3351871150038
 20
156.3615256689782
 30
0.0
  0
POINT
  5
DBE5
330
C111
100
AcDbEntity
  8
Defpoints
  6
Continuous
 62
     0
100
AcDbPoint
 10
193.3351871150038
 20
157.2615256689782
 30
0.0
  0
POINT
  5
DBE6
330
C111
100
AcDbEntity
  8
Defpoints
  6
Continuous
 62
     0
100
AcDbPoint
 10
193.3351871150038
 20
175.2615266689781
 30
0.0
  0
ENDBLK
  5
C11C
330
C111
100
AcDbEntity
  8
0
100
AcDbBlockEnd
  0
BLOCK
  5
C127
330
C11D
100
AcDbEntity
  8
0
100
AcDbBlockBegin
  2
*D21
 70
     1
 10
0.0
 20
0.0
 30
0.0
  3
*D21
  1

  0
LINE
  5
DBBA
330
C11D
100
AcDbEntity
  8
AM_5
  6
Continuous
100
AcDbLine
 10
193.3351871150038
 20
158.2615256689782
 30
0.0
 11
193.3351871150038
 21
186.2615266689781
 31
0.0
  0
LINE
  5
DBBB
330
C11D
100
AcDbEntity
  8
AM_5
  6
Continuous
100
AcDbLine
 10
243.3351871150038
 20
169.2615256689783
 30
0.0
 11
243.3351871150038
 21
186.2615266689781
 31
0.0
  0
LINE
  5
DBBC
330
C11D
100
AcDbEntity
  8
AM_5
  6
Continuous
100
AcDbLine
 10
194.3351871150038
 20
185.2615266689781
 30
0.0
 11
242.3351871150038
 21
185.2615266689781
 31
0.0
  0
INSERT
  5
DBBD
330
C11D
100
AcDbEntity
  8
AM_5
  6
Continuous
100
AcDbBlockReference
  2
_Dot
 10
193.3351871150038
 20
185.2615266689781
 30
0.0
 50
180.0
  0
INSERT
  5
DBBE
330
C11D
100
AcDbEntity
  8
AM_5
  6
Continuous
100
AcDbBlockReference
  2
_Dot
 10
243.3351871150038
 20
185.2615266689781
 30
0.0
  0
MTEXT
  5
DBBF
330
C11D
100
AcDbEntity
  8
AM_5
  6
Continuous
 62
     2
100
AcDbMText
 10
218.3351871150038
 20
188.3615266689781
 30
0.0
 40
3.200000000000001
 41
0.0
 71
     5
 72
     1
  1
50
 73
     1
 44
1.0
1001
ACAD
1000
MTEXTBEGIN
1070
    73
1070
     1
1070
    44
1040
1.0
1070
    74
1070
     0
1000
MTEXTEND
  0
POINT
  5
DBC0
330
C11D
100
AcDbEntity
  8
Defpoints
  6
Continuous
 62
     0
100
AcDbPoint
 10
193.3351871150038
 20
157.2615256689782
 30
0.0
  0
POINT
  5
DBC1
330
C11D
100
AcDbEntity
  8
Defpoints
  6
Continuous
 62
     0
100
AcDbPoint
 10
243.3351871150038
 20
168.2615256689782
 30
0.0
  0
POINT
  5
DBC2
330
C11D
100
AcDbEntity
  8
Defpoints
  6
Continuous
 62
     0
100
AcDbPoint
 10
243.3351871150038
 20
185.2615266689781
 30
0.0
  0
ENDBLK
  5
C128
330
C11D
100
AcDbEntity
  8
0
100
AcDbBlockEnd
  0
BLOCK
  5
C133
330
C129
100
AcDbEntity
  8
0
100
AcDbBlockBegin
  2
*D22
 70
     1
 10
0.0
 20
0.0
 30
0.0
  3
*D22
  1

  0
LINE
  5
DC16
330
C129
100
AcDbEntity
  8
AM_5
  6
Continuous
100
AcDbLine
 10
293.3351871150041
 20
94.26152566897803
 30
0.0
 11
293.3351871150041
 21
196.2615266689781
 31
0.0
  0
LINE
  5
DC17
330
C129
100
AcDbEntity
  8
AM_5
  6
Continuous
100
AcDbLine
 10
193.3351871150038
 20
158.2615256689782
 30
0.0
 11
193.3351871150038
 21
196.2615266689781
 31
0.0
  0
LINE
  5
DC18
330
C129
100
AcDbEntity
  8
AM_5
  6
Continuous
100
AcDbLine
 10
292.335187115004
 20
195.2615266689781
 30
0.0
 11
194.3351871150038
 21
195.2615266689781
 31
0.0
  0
INSERT
  5
DC19
330
C129
100
AcDbEntity
  8
AM_5
  6
Continuous
100
AcDbBlockReference
  2
_Dot
 10
293.3351871150041
 20
195.2615266689781
 30
0.0
  0
INSERT
  5
DC1A
330
C129
100
AcDbEntity
  8
AM_5
  6
Continuous
100
AcDbBlockReference
  2
_Dot
 10
193.3351871150038
 20
195.2615266689781
 30
0.0
 50
180.0
  0
MTEXT
  5
DC1B
330
C129
100
AcDbEntity
  8
AM_5
  6
Continuous
 62
     2
100
AcDbMText
 10
243.3351871150039
 20
198.3615266689781
 30
0.0
 40
3.200000000000001
 41
0.0
 71
     5
 72
     1
  1
100
 73
     1
 44
1.0
1001
ACAD
1000
MTEXTBEGIN
1070
    73
1070
     1
1070
    44
1040
1.0
1070
    74
1070
     0
1000
MTEXTEND
  0
POINT
  5
DC1C
330
C129
100
AcDbEntity
  8
Defpoints
  6
Continuous
 62
     0
100
AcDbPoint
 10
293.3351871150041
 20
93.26152566897803
 30
0.0
  0
POINT
  5
DC1D
330
C129
100
AcDbEntity
  8
Defpoints
  6
Continuous
 62
     0
100
AcDbPoint
 10
193.3351871150038
 20
157.2615256689782
 30
0.0
  0
POINT
  5
DC1E
330
C129
100
AcDbEntity
  8
Defpoints
  6
Continuous
 62
     0
100
AcDbPoint
 10
193.3351871150038
 20
195.2615266689781
 30
0.0
  0
ENDBLK
  5
C134
330
C129
100
AcDbEntity
  8
0
100
AcDbBlockEnd
  0
BLOCK
  5
C13F
330
C135
100
AcDbEntity
  8
0
100
AcDbBlockBegin
  2
*D23
 70
     1
 10
0.0
 20
0.0
 30
0.0
  3
*D23
  1

  0
LINE
  5
DC7B
330
C135
100
AcDbEntity
  8
AM_5
  6
Continuous
100
AcDbLine
 10
285.335187115004
 20
41.16152566897795
 30
0.0
 11
285.335187115004
 21
23.26152465897798
 31
0.0
  0
LINE
  5
DC7C
330
C135
100
AcDbEntity
  8
AM_5
  6
Continuous
100
AcDbLine
 10
293.3351871150038
 20
41.26152566897798
 30
0.0
 11
293.3351871150038
 21
23.26152465897798
 31
0.0
  0
LINE
  5
DC7D
330
C135
100
AcDbEntity
  8
AM_5
  6
Continuous
100
AcDbLine
 10
286.335187115004
 20
24.26152465897798
 30
0.0
 11
292.3351871150038
 21
24.26152465897798
 31
0.0
  0
INSERT
  5
DC7E
330
C135
100
AcDbEntity
  8
AM_5
  6
Continuous
100
AcDbBlockReference
  2
_Dot
 10
285.335187115004
 20
24.26152465897798
 30
0.0
 50
180.0
  0
INSERT
  5
DC7F
330
C135
100
AcDbEntity
  8
AM_5
  6
Continuous
100
AcDbBlockReference
  2
_Dot
 10
293.3351871150038
 20
24.26152465897798
 30
0.0
  0
MTEXT
  5
DC80
330
C135
100
AcDbEntity
  8
AM_5
  6
Continuous
 62
     2
100
AcDbMText
 10
289.3351871150039
 20
27.36152465897798
 30
0.0
 40
3.200000000000001
 41
0.0
 71
     5
 72
     1
  1
8
 73
     1
 44
1.0
1001
ACAD
1000
MTEXTBEGIN
1070
    73
1070
     1
1070
    44
1040
1.0
1070
    74
1070
     0
1000
MTEXTEND
  0
POINT
  5
DC81
330
C135
100
AcDbEntity
  8
Defpoints
  6
Continuous
 62
     0
100
AcDbPoint
 10
285.335187115004
 20
42.16152566897796
 30
0.0
  0
POINT
  5
DC82
330
C135
100
AcDbEntity
  8
Defpoints
  6
Continuous
 62
     0
100
AcDbPoint
 10
293.3351871150038
 20
42.26152566897797
 30
0.0
  0
POINT
  5
DC83
330
C135
100
AcDbEntity
  8
Defpoints
  6
Continuous
 62
     0
100
AcDbPoint
 10
293.3351871150038
 20
24.26152465897798
 30
0.0
  0
ENDBLK
  5
C140
330
C135
100
AcDbEntity
  8
0
100
AcDbBlockEnd
  0
BLOCK
  5
C14B
330
C141
100
AcDbEntity
  8
0
100
AcDbBlockBegin
  2
*D24
 70
     1
 10
0.0
 20
0.0
 30
0.0
  3
*D24
  1

  0
LINE
  5
CD4A
330
C141
100
AcDbEntity
  8
AM_5
  6
Continuous
100
AcDbLine
 10
277.3351871150038
 20
59.6615256689779
 30
0.0
 11
277.3351871150038
 21
23.26152465897798
 31
0.0
  0
LINE
  5
CD4B
330
C141
100
AcDbEntity
  8
AM_5
  6
Continuous
100
AcDbLine
 10
285.3351871150038
 20
41.16152566897795
 30
0.0
 11
285.3351871150038
 21
23.26152465897798
 31
0.0
  0
LINE
  5
CD4C
330
C141
100
AcDbEntity
  8
AM_5
  6
Continuous
100
AcDbLine
 10
278.3351871150038
 20
24.26152465897798
 30
0.0
 11
284.3351871150038
 21
24.26152465897798
 31
0.0
  0
INSERT
  5
CD4D
330
C141
100
AcDbEntity
  8
AM_5
  6
Continuous
100
AcDbBlockReference
  2
_Dot
 10
277.3351871150038
 20
24.26152465897798
 30
0.0
 50
180.0
  0
INSERT
  5
CD4E
330
C141
100
AcDbEntity
  8
AM_5
  6
Continuous
100
AcDbBlockReference
  2
_Dot
 10
285.3351871150038
 20
24.26152465897798
 30
0.0
  0
MTEXT
  5
CD4F
330
C141
100
AcDbEntity
  8
AM_5
  6
Continuous
 62
     2
100
AcDbMText
 10
281.3351871150038
 20
27.36152465897798
 30
0.0
 40
3.200000000000001
 41
0.0
 71
     5
 72
     1
  1
8
 73
     1
 44
1.0
1001
ACAD
1000
MTEXTBEGIN
1070
    73
1070
     1
1070
    44
1040
1.0
1070
    74
1070
     0
1000
MTEXTEND
  0
POINT
  5
CD50
330
C141
100
AcDbEntity
  8
Defpoints
  6
Continuous
 62
     0
100
AcDbPoint
 10
277.3351871150038
 20
60.6615256689779
 30
0.0
  0
POINT
  5
CD51
330
C141
100
AcDbEntity
  8
Defpoints
  6
Continuous
 62
     0
100
AcDbPoint
 10
285.3351871150038
 20
42.16152566897796
 30
0.0
  0
POINT
  5
CD52
330
C141
100
AcDbEntity
  8
Defpoints
  6
Continuous
 62
     0
100
AcDbPoint
 10
285.3351871150038
 20
24.26152465897798
 30
0.0
  0
ENDBLK
  5
C14C
330
C141
100
AcDbEntity
  8
0
100
AcDbBlockEnd
  0
BLOCK
  5
C157
330
C14D
100
AcDbEntity
  8
0
100
AcDbBlockBegin
  2
*D25
 70
     1
 10
0.0
 20
0.0
 30
0.0
  3
*D25
  1

  0
LINE
  5
CD53
330
C14D
100
AcDbEntity
  8
AM_5
  6
Continuous
100
AcDbLine
 10
277.3351871150038
 20
59.6615256689779
 30
0.0
 11
277.3351871150038
 21
23.26152465897786
 31
0.0
  0
LINE
  5
CD54
330
C14D
100
AcDbEntity
  8
AM_5
  6
Continuous
100
AcDbLine
 10
269.3351871150038
 20
41.16152566897795
 30
0.0
 11
269.3351871150038
 21
23.26152465897786
 31
0.0
  0
LINE
  5
CD55
330
C14D
100
AcDbEntity
  8
AM_5
  6
Continuous
100
AcDbLine
 10
276.3351871150038
 20
24.26152465897786
 30
0.0
 11
270.3351871150038
 21
24.26152465897786
 31
0.0
  0
INSERT
  5
CD56
330
C14D
100
AcDbEntity
  8
AM_5
  6
Continuous
100
AcDbBlockReference
  2
_Dot
 10
277.3351871150038
 20
24.26152465897786
 30
0.0
  0
INSERT
  5
CD57
330
C14D
100
AcDbEntity
  8
AM_5
  6
Continuous
100
AcDbBlockReference
  2
_Dot
 10
269.3351871150038
 20
24.26152465897786
 30
0.0
 50
180.0
  0
MTEXT
  5
CD58
330
C14D
100
AcDbEntity
  8
AM_5
  6
Continuous
 62
     2
100
AcDbMText
 10
273.3351871150038
 20
27.36152465897787
 30
0.0
 40
3.200000000000001
 41
0.0
 71
     5
 72
     1
  1
8
 73
     1
 44
1.0
1001
ACAD
1000
MTEXTBEGIN
1070
    73
1070
     1
1070
    44
1040
1.0
1070
    74
1070
     0
1000
MTEXTEND
  0
POINT
  5
CD59
330
C14D
100
AcDbEntity
  8
Defpoints
  6
Continuous
 62
     0
100
AcDbPoint
 10
277.3351871150038
 20
60.6615256689779
 30
0.0
  0
POINT
  5
CD5A
330
C14D
100
AcDbEntity
  8
Defpoints
  6
Continuous
 62
     0
100
AcDbPoint
 10
269.3351871150038
 20
42.16152566897796
 30
0.0
  0
POINT
  5
CD5B
330
C14D
100
AcDbEntity
  8
Defpoints
  6
Continuous
 62
     0
100
AcDbPoint
 10
269.3351871150038
 20
24.26152465897786
 30
0.0
  0
ENDBLK
  5
C158
330
C14D
100
AcDbEntity
  8
0
100
AcDbBlockEnd
  0
BLOCK
  5
C163
330
C159
100
AcDbEntity
  8
0
100
AcDbBlockBegin
  2
*D26
 70
     1
 10
0.0
 20
0.0
 30
0.0
  3
*D26
  1

  0
LINE
  5
DC72
330
C159
100
AcDbEntity
  8
AM_5
  6
Continuous
100
AcDbLine
 10
243.3351871150038
 20
30.26152566897798
 30
0.0
 11
243.3351871150038
 21
23.26152465897786
 31
0.0
  0
LINE
  5
DC73
330
C159
100
AcDbEntity
  8
AM_5
  6
Continuous
100
AcDbLine
 10
269.335187115004
 20
41.16152566897795
 30
0.0
 11
269.335187115004
 21
23.26152465897786
 31
0.0
  0
LINE
  5
DC74
330
C159
100
AcDbEntity
  8
AM_5
  6
Continuous
100
AcDbLine
 10
244.3351871150038
 20
24.26152465897786
 30
0.0
 11
268.3351871150041
 21
24.26152465897786
 31
0.0
  0
INSERT
  5
DC75
330
C159
100
AcDbEntity
  8
AM_5
  6
Continuous
100
AcDbBlockReference
  2
_Dot
 10
243.3351871150038
 20
24.26152465897786
 30
0.0
 50
180.0
  0
INSERT
  5
DC76
330
C159
100
AcDbEntity
  8
AM_5
  6
Continuous
100
AcDbBlockReference
  2
_Dot
 10
269.335187115004
 20
24.26152465897786
 30
0.0
  0
MTEXT
  5
DC77
330
C159
100
AcDbEntity
  8
AM_5
  6
Continuous
 62
     2
100
AcDbMText
 10
256.3351871150039
 20
27.36152465897787
 30
0.0
 40
3.200000000000001
 41
0.0
 71
     5
 72
     1
  1
26
 73
     1
 44
1.0
1001
ACAD
1000
MTEXTBEGIN
1070
    73
1070
     1
1070
    44
1040
1.0
1070
    74
1070
     0
1000
MTEXTEND
  0
POINT
  5
DC78
330
C159
100
AcDbEntity
  8
Defpoints
  6
Continuous
 62
     0
100
AcDbPoint
 10
243.3351871150038
 20
31.26152566897798
 30
0.0
  0
POINT
  5
DC79
330
C159
100
AcDbEntity
  8
Defpoints
  6
Continuous
 62
     0
100
AcDbPoint
 10
269.335187115004
 20
42.16152566897796
 30
0.0
  0
POINT
  5
DC7A
330
C159
100
AcDbEntity
  8
Defpoints
  6
Continuous
 62
     0
100
AcDbPoint
 10
269.335187115004
 20
24.26152465897786
 30
0.0
  0
ENDBLK
  5
C164
330
C159
100
AcDbEntity
  8
0
100
AcDbBlockEnd
  0
BLOCK
  5
C8F5
330
C8E9
100
AcDbEntity
  8
0
100
AcDbBlockBegin
  2
*D27
 70
     1
 10
0.0
 20
0.0
 30
0.0
  3
*D27
  1

  0
LINE
  5
DC1F
330
C8E9
100
AcDbEntity
  8
AM_5
  6
Continuous
100
AcDbLine
 10
197.3351871150038
 20
101.2615256689782
 30
0.0
 11
170.2351871150028
 21
101.2615256689782
 31
0.0
  0
LINE
  5
DC20
330
C8E9
100
AcDbEntity
  8
AM_5
  6
Continuous
100
AcDbLine
 10
232.3351871150038
 20
98.26152566897826
 30
0.0
 11
170.2351871150028
 21
98.26152566897828
 31
0.0
  0
LINE
  5
DC21
330
C8E9
100
AcDbEntity
  8
AM_5
  6
Continuous
100
AcDbLine
 10
171.2351871150028
 20
102.2615256689782
 30
0.0
 11
171.2351871150028
 21
103.2615256689782
 31
0.0
  0
LINE
  5
DC22
330
C8E9
100
AcDbEntity
  8
AM_5
  6
Continuous
100
AcDbLine
 10
171.2351871150028
 20
97.26152566897829
 30
0.0
 11
171.2351871150028
 21
91.76819233564494
 31
0.0
  0
LINE
  5
DC23
330
C8E9
100
AcDbEntity
  8
AM_5
  6
Continuous
100
AcDbLine
 10
171.2351871150028
 20
101.2615256689782
 30
0.0
 11
171.2351871150028
 21
98.26152566897828
 31
0.0
  0
INSERT
  5
DC24
330
C8E9
100
AcDbEntity
  8
AM_5
  6
Continuous
100
AcDbBlockReference
  2
_Dot
 10
171.2351871150028
 20
101.2615256689782
 30
0.0
 50
270.0
  0
INSERT
  5
DC25
330
C8E9
100
AcDbEntity
  8
AM_5
  6
Continuous
100
AcDbBlockReference
  2
_Dot
 10
171.2351871150028
 20
98.26152566897828
 30
0.0
 50
90.0
  0
MTEXT
  5
DC26
330
C8E9
100
AcDbEntity
  8
AM_5
  6
Continuous
 62
     2
100
AcDbMText
 10
168.1351871150028
 20
94.01485900231163
 30
0.0
 40
3.200000000000001
 41
0.0
 71
     5
 72
     1
  1
3
 11
0.0000000000000001
 21
1.0
 31
0.0
 73
     1
 44
1.0
1001
ACAD
1000
MTEXTBEGIN
1070
    73
1070
     1
1070
    44
1040
1.0
1070
    74
1070
     0
1000
MTEXTEND
  0
POINT
  5
DC27
330
C8E9
100
AcDbEntity
  8
Defpoints
  6
Continuous
 62
     0
100
AcDbPoint
 10
198.3351871150038
 20
101.2615256689782
 30
0.0
  0
POINT
  5
DC28
330
C8E9
100
AcDbEntity
  8
Defpoints
  6
Continuous
 62
     0
100
AcDbPoint
 10
233.3351871150038
 20
98.26152566897826
 30
0.0
  0
POINT
  5
DC29
330
C8E9
100
AcDbEntity
  8
Defpoints
  6
Continuous
 62
     0
100
AcDbPoint
 10
171.2351871150028
 20
98.26152566897828
 30
0.0
  0
ENDBLK
  5
C8F6
330
C8E9
100
AcDbEntity
  8
0
100
AcDbBlockEnd
  0
BLOCK
  5
CB4F
330
CB45
100
AcDbEntity
  8
0
100
AcDbBlockBegin
  2
*D28
 70
     1
 10
0.0
 20
0.0
 30
0.0
  3
*D28
  1

  0
LINE
  5
DC2A
330
CB45
100
AcDbEntity
  8
AM_5
  6
Continuous
100
AcDbLine
 10
243.3351871150038
 20
169.2615256689783
 30
0.0
 11
243.3351871150038
 21
186.261526668978
 31
0.0
  0
LINE
  5
DC2B
330
CB45
100
AcDbEntity
  8
AM_5
  6
Continuous
100
AcDbLine
 10
293.3351871150041
 20
94.26152566897803
 30
0.0
 11
293.3351871150041
 21
186.261526668978
 31
0.0
  0
LINE
  5
DC2C
330
CB45
100
AcDbEntity
  8
AM_5
  6
Continuous
100
AcDbLine
 10
244.3351871150038
 20
185.261526668978
 30
0.0
 11
292.335187115004
 21
185.261526668978
 31
0.0
  0
INSERT
  5
DC2D
330
CB45
100
AcDbEntity
  8
AM_5
  6
Continuous
100
AcDbBlockReference
  2
_Dot
 10
243.3351871150038
 20
185.261526668978
 30
0.0
 50
180.0
  0
INSERT
  5
DC2E
330
CB45
100
AcDbEntity
  8
AM_5
  6
Continuous
100
AcDbBlockReference
  2
_Dot
 10
293.3351871150041
 20
185.261526668978
 30
0.0
  0
MTEXT
  5
DC2F
330
CB45
100
AcDbEntity
  8
AM_5
  6
Continuous
 62
     2
100
AcDbMText
 10
268.3351871150039
 20
188.361526668978
 30
0.0
 40
3.200000000000001
 41
0.0
 71
     5
 72
     1
  1
50
 73
     1
 44
1.0
1001
ACAD
1000
MTEXTBEGIN
1070
    73
1070
     1
1070
    44
1040
1.0
1070
    74
1070
     0
1000
MTEXTEND
  0
POINT
  5
DC30
330
CB45
100
AcDbEntity
  8
Defpoints
  6
Continuous
 62
     0
100
AcDbPoint
 10
243.3351871150038
 20
168.2615256689782
 30
0.0
  0
POINT
  5
DC31
330
CB45
100
AcDbEntity
  8
Defpoints
  6
Continuous
 62
     0
100
AcDbPoint
 10
293.3351871150041
 20
93.26152566897803
 30
0.0
  0
POINT
  5
DC32
330
CB45
100
AcDbEntity
  8
Defpoints
  6
Continuous
 62
     0
100
AcDbPoint
 10
293.3351871150041
 20
185.261526668978
 30
0.0
  0
ENDBLK
  5
CB50
330
CB45
100
AcDbEntity
  8
0
100
AcDbBlockEnd
  0
BLOCK
  5
CDC6
330
CDC0
100
AcDbEntity
  8
0
100
AcDbBlockBegin
  2
*D29
 70
     1
 10
0.0
 20
0.0
 30
0.0
  3
*D29
  1

  0
LINE
  5
CE18
330
CDC0
100
AcDbEntity
  8
AM_5
100
AcDbLine
 10
149.819321647758
 20
175.2537197671723
 30
0.0
 11
182.2593216477582
 21
175.2537197671724
 31
0.0
  0
LINE
  5
CE19
330
CDC0
100
AcDbEntity
  8
AM_5
100
AcDbLine
 10
182.2593216477582
 20
175.2537197671724
 30
0.0
 11
197.634127346736
 21
155.1104592209781
 31
0.0
  0
LINE
  5
CE1A
330
CDC0
100
AcDbEntity
  8
AM_5
100
AcDbLine
 10
205.0362468832714
 20
145.4125921169784
 30
0.0
 11
206.2497091023756
 21
143.8227778376341
 31
0.0
  0
MTEXT
  5
CE1B
330
CDC0
100
AcDbEntity
  8
AM_5
 62
     2
100
AcDbMText
 10
165.289321647758
 20
178.5037197671724
 30
0.0
 40
3.5
 41
0.0
 71
     5
 72
     1
  1
10-%%c5.5×%%c8.2サラ
 73
     1
 44
1.0
1001
ACAD
1000
MTEXTBEGIN
1070
    73
1070
     1
1070
    44
1040
1.0
1070
    74
1070
     0
1000
MTEXTEND
  0
LINE
  5
CE1C
330
CDC0
100
AcDbEntity
  8
AM_5
100
AcDbLine
 10
203.8227846641673
 20
147.0024063963226
 30
0.0
 11
198.8475895658402
 21
153.5206449416339
 31
0.0
  0
INSERT
  5
CE1D
330
CDC0
100
AcDbEntity
  8
AM_5
100
AcDbBlockReference
  2
GENDOT
 10
203.8227846641673
 20
147.0024063963226
 30
0.0
 41
2.0
 42
2.0
 43
2.0
 50
127.35351436489
  0
INSERT
  5
CE1E
330
CDC0
100
AcDbEntity
  8
AM_5
100
AcDbBlockReference
  2
GENDOT
 10
198.8475895658402
 20
153.5206449416339
 30
0.0
 41
2.0
 42
2.0
 43
2.0
 50
307.35351436489
  0
POINT
  5
CE1F
330
CDC0
100
AcDbEntity
  8
Defpoints
 62
     0
100
AcDbPoint
 10
198.8475895658402
 20
153.5206449416339
 30
0.0
  0
POINT
  5
CE20
330
CDC0
100
AcDbEntity
  8
Defpoints
 62
     0
100
AcDbPoint
 10
203.8227846641673
 20
147.0024063963226
 30
0.0
  0
ENDBLK
  5
CDC7
330
CDC0
100
AcDbEntity
  8
0
100
AcDbBlockEnd
  0
BLOCK
  5
CDFB
330
CDF8
100
AcDbEntity
  8
0
100
AcDbBlockBegin
  2
GENDOT
 70
     0
 10
0.0
 20
0.0
 30
0.0
  3
GENDOT
  1

  0
LINE
  5
CDF9
330
CDF8
100
AcDbEntity
  8
0
100
AcDbLine
 10
0.0
 20
0.0
 30
0.0
 11
-1.0
 21
0.0
 31
0.0
  0
LWPOLYLINE
  5
CDFA
330
CDF8
100
AcDbEntity
  8
0
100
AcDbPolyline
 90
        2
 70
     1
 43
0.25
 10
-0.125
 20
0.0
 42
1.0
 10
0.125
 20
0.0
 42
1.0
  0
ENDBLK
  5
CDFC
330
CDF8
100
AcDbEntity
  8
0
100
AcDbBlockEnd
  0
BLOCK
  5
CEEC
330
CEEB
100
AcDbEntity
  8
0
100
AcDbBlockBegin
  2
JZB-1
 70
     0
 10
0.0
 20
0.0
 30
0.0
  3
JZB-1
  1

  0
LINE
  5
CEED
330
CEEB
100
AcDbEntity
  8
002
370
     9
100
AcDbLine
 10
98.263612
 20
108.34827
 30
0.0
 11
98.003309
 21
108.608573
 31
0.0
  0
LINE
  5
CEEE
330
CEEB
100
AcDbEntity
  8
002
370
     9
100
AcDbLine
 10
98.687876
 20
108.34827
 30
0.0
 11
98.003309
 21
109.032837
 31
0.0
  0
LINE
  5
CEEF
330
CEEB
100
AcDbEntity
  8
002
370
     9
100
AcDbLine
 10
98.903309
 20
108.557101
 30
0.0
 11
98.003309
 21
109.457101
 31
0.0
  0
LINE
  5
CEF0
330
CEEB
100
AcDbEntity
  8
002
370
     9
100
AcDbLine
 10
98.903309
 20
108.981365
 30
0.0
 11
98.23640400000002
 21
109.64827
 31
0.0
  0
LINE
  5
CEF1
330
CEEB
100
AcDbEntity
  8
002
370
     9
100
AcDbLine
 10
98.903309
 20
109.405629
 30
0.0
 11
98.660668
 21
109.64827
 31
0.0
  0
ENDBLK
  5
CEF2
330
CEEB
100
AcDbEntity
  8
0
100
AcDbBlockEnd
  0
BLOCK
  5
CEF4
330
CEF3
100
AcDbEntity
  8
0
100
AcDbBlockBegin
  2
JZB-2
 70
     0
 10
0.0
 20
0.0
 30
0.0
  3
JZB-2
  1

  0
LINE
  5
CEF5
330
CEF3
100
AcDbEntity
  8
002
370
     9
100
AcDbLine
 10
98.44300600000002
 20
120.04827
 30
0.0
 11
98.003309
 21
120.487967
 31
0.0
  0
LINE
  5
CEF6
330
CEF3
100
AcDbEntity
  8
002
370
     9
100
AcDbLine
 10
98.86727
 20
120.04827
 30
0.0
 11
98.003309
 21
120.912231
 31
0.0
  0
LINE
  5
CEF7
330
CEF3
100
AcDbEntity
  8
002
370
     9
100
AcDbLine
 10
98.903309
 20
120.436495
 30
0.0
 11
98.003309
 21
121.336495
 31
0.0
  0
LINE
  5
CEF8
330
CEF3
100
AcDbEntity
  8
002
370
     9
100
AcDbLine
 10
98.903309
 20
120.860759
 30
0.0
 11
98.41579799999999
 21
121.34827
 31
0.0
  0
LINE
  5
CEF9
330
CEF3
100
AcDbEntity
  8
002
370
    30
100
AcDbLine
 10
98.903309
 20
121.285023
 30
0.0
 11
98.84006200000001
 21
121.34827
 31
0.0
  0
ENDBLK
  5
CEFA
330
CEF3
100
AcDbEntity
  8
0
100
AcDbBlockEnd
  0
BLOCK
  5
CEFC
330
CEFB
100
AcDbEntity
  8
0
100
AcDbBlockBegin
  2
JZB-3
 70
     0
 10
0.0
 20
0.0
 30
0.0
  3
JZB-3
  1

  0
LINE
  5
CEFD
330
CEFB
100
AcDbEntity
  8
002
370
     9
100
AcDbLine
 10
109.718742
 20
108.34827
 30
0.0
 11
109.503309
 21
108.563703
 31
0.0
  0
LINE
  5
CEFE
330
CEFB
100
AcDbEntity
  8
002
370
     9
100
AcDbLine
 10
110.143006
 20
108.34827
 30
0.0
 11
109.503309
 21
108.987967
 31
0.0
  0
LINE
  5
CEFF
330
CEFB
100
AcDbEntity
  8
002
370
     9
100
AcDbLine
 10
110.403309
 20
108.512231
 30
0.0
 11
109.503309
 21
109.412231
 31
0.0
  0
LINE
  5
CF00
330
CEFB
100
AcDbEntity
  8
002
370
     9
100
AcDbLine
 10
110.403309
 20
108.936495
 30
0.0
 11
109.691534
 21
109.64827
 31
0.0
  0
LINE
  5
CF01
330
CEFB
100
AcDbEntity
  8
002
370
     9
100
AcDbLine
 10
110.403309
 20
109.360759
 30
0.0
 11
110.115798
 21
109.64827
 31
0.0
  0
ENDBLK
  5
CF02
330
CEFB
100
AcDbEntity
  8
0
100
AcDbBlockEnd
  0
BLOCK
  5
CF04
330
CF03
100
AcDbEntity
  8
0
100
AcDbBlockBegin
  2
JZB-4
 70
     0
 10
0.0
 20
0.0
 30
0.0
  3
JZB-4
  1

  0
LINE
  5
CF05
330
CF03
100
AcDbEntity
  8
002
370
     9
100
AcDbLine
 10
109.898136
 20
120.04827
 30
0.0
 11
109.503309
 21
120.443097
 31
0.0
  0
LINE
  5
CF06
330
CF03
100
AcDbEntity
  8
002
370
     9
100
AcDbLine
 10
110.3224
 20
120.04827
 30
0.0
 11
109.503309
 21
120.867361
 31
0.0
  0
LINE
  5
CF07
330
CF03
100
AcDbEntity
  8
002
370
     9
100
AcDbLine
 10
110.403309
 20
120.391625
 30
0.0
 11
109.503309
 21
121.291625
 31
0.0
  0
LINE
  5
CF08
330
CF03
100
AcDbEntity
  8
002
370
     9
100
AcDbLine
 10
110.403309
 20
120.8158889999999
 30
0.0
 11
109.870928
 21
121.34827
 31
0.0
  0
LINE
  5
CF09
330
CF03
100
AcDbEntity
  8
002
370
    30
100
AcDbLine
 10
110.403309
 20
121.240153
 30
0.0
 11
110.295192
 21
121.34827
 31
0.0
  0
ENDBLK
  5
CF0A
330
CF03
100
AcDbEntity
  8
0
100
AcDbBlockEnd
  0
BLOCK
  5
CF0C
330
CF0B
100
AcDbEntity
  8
0
100
AcDbBlockBegin
  2
DIM-5
 70
     0
 10
0.0
 20
0.0
 30
0.0
  3
DIM-5
  1

  0
TEXT
  5
CF0D
330
CF0B
100
AcDbEntity
  8
255
370
     9
100
AcDbText
 10
136.653309
 20
273.861344
 30
0.0
 40
1.861817999999999
  1
１
 41
0.716146
100
AcDbText
  0
POLYLINE
  5
CF0E
330
CF0B
100
AcDbEntity
  8
255
370
     9
100
AcDb2dPolyline
 66
     1
 10
0.0
 20
0.0
 30
0.0
  0
VERTEX
  5
CF0F
330
CF0E
100
AcDbEntity
  8
255
370
     9
100
AcDbVertex
100
AcDb2dVertex
 10
135.453309
 20
273.637553
 30
0.0
  0
VERTEX
  5
CF10
330
CF0E
100
AcDbEntity
  8
255
370
     9
100
AcDbVertex
100
AcDb2dVertex
 10
139.453309
 20
273.637553
 30
0.0
  0
VERTEX
  5
CF11
330
CF0E
100
AcDbEntity
  8
255
370
     9
100
AcDbVertex
100
AcDb2dVertex
 10
137.453309
 20
277.101655
 30
0.0
  0
VERTEX
  5
CF12
330
CF0E
100
AcDbEntity
  8
255
370
     9
100
AcDbVertex
100
AcDb2dVertex
 10
135.453309
 20
273.637553
 30
0.0
  0
SEQEND
  5
CF13
330
CF0E
100
AcDbEntity
  8
255
370
     9
  0
ENDBLK
  5
CF14
330
CF0B
100
AcDbEntity
  8
0
100
AcDbBlockEnd
  0
BLOCK
  5
CF16
330
CF15
100
AcDbEntity
  8
0
100
AcDbBlockBegin
  2
DIM-6
 70
     0
 10
0.0
 20
0.0
 30
0.0
  3
DIM-6
  1

  0
TEXT
  5
CF17
330
CF15
100
AcDbEntity
  8
255
370
     9
100
AcDbText
 10
136.653309
 20
268.861344
 30
0.0
 40
1.861817999999999
  1
２
 41
0.716146
100
AcDbText
  0
POLYLINE
  5
CF18
330
CF15
100
AcDbEntity
  8
255
370
     9
100
AcDb2dPolyline
 66
     1
 10
0.0
 20
0.0
 30
0.0
  0
VERTEX
  5
CF19
330
CF18
100
AcDbEntity
  8
255
370
     9
100
AcDbVertex
100
AcDb2dVertex
 10
135.453309
 20
268.637553
 30
0.0
  0
VERTEX
  5
CF1A
330
CF18
100
AcDbEntity
  8
255
370
     9
100
AcDbVertex
100
AcDb2dVertex
 10
139.453309
 20
268.637553
 30
0.0
  0
VERTEX
  5
CF1B
330
CF18
100
AcDbEntity
  8
255
370
     9
100
AcDbVertex
100
AcDb2dVertex
 10
137.453309
 20
272.101655
 30
0.0
  0
VERTEX
  5
CF1C
330
CF18
100
AcDbEntity
  8
255
370
     9
100
AcDbVertex
100
AcDb2dVertex
 10
135.453309
 20
268.637553
 30
0.0
  0
SEQEND
  5
CF1D
330
CF18
100
AcDbEntity
  8
255
370
     9
  0
ENDBLK
  5
CF1E
330
CF15
100
AcDbEntity
  8
0
100
AcDbBlockEnd
  0
BLOCK
  5
CF20
330
CF1F
100
AcDbEntity
  8
0
100
AcDbBlockBegin
  2
DIM-7
 70
     0
 10
0.0
 20
0.0
 30
0.0
  3
DIM-7
  1

  0
LINE
  5
CF21
330
CF1F
100
AcDbEntity
  8
001
370
     9
100
AcDbLine
 10
129.991412
 20
171.481713
 30
0.0
 11
129.985426
 21
165.494944
 31
0.0
  0
LINE
  5
CF22
330
CF1F
100
AcDbEntity
  8
001
370
     9
100
AcDbLine
 10
129.985426
 20
165.494944
 30
0.0
 11
128.724199
 21
168.489592
 31
0.0
  0
LINE
  5
CF23
330
CF1F
100
AcDbEntity
  8
001
370
     9
100
AcDbLine
 10
131.252639
 20
168.487065
 30
0.0
 11
129.985426
 21
165.494944
 31
0.0
  0
LINE
  5
CF24
330
CF1F
100
AcDbEntity
  8
001
370
     9
100
AcDbLine
 10
127.651483
 20
165.497278
 30
0.0
 11
132.222123
 21
165.492708
 31
0.0
  0
LINE
  5
CF25
330
CF1F
100
AcDbEntity
  8
001
370
     9
100
AcDbLine
 10
132.222123
 20
165.492708
 30
0.0
 11
132.221125
 21
164.494913
 31
0.0
  0
LINE
  5
CF26
330
CF1F
100
AcDbEntity
  8
001
370
     9
100
AcDbLine
 10
132.221125
 20
164.494913
 30
0.0
 11
127.650485
 21
164.499483
 31
0.0
  0
LINE
  5
CF27
330
CF1F
100
AcDbEntity
  8
001
370
     9
100
AcDbLine
 10
127.650485
 20
164.499483
 30
0.0
 11
127.651483
 21
165.497278
 31
0.0
  0
LINE
  5
CF28
330
CF1F
100
AcDbEntity
  8
001
370
     9
100
AcDbLine
 10
127.651316
 20
165.330978
 30
0.0
 11
132.221956
 21
165.326409
 31
0.0
  0
LINE
  5
CF29
330
CF1F
100
AcDbEntity
  8
001
370
     9
100
AcDbLine
 10
127.65115
 20
165.164679
 30
0.0
 11
132.22179
 21
165.16011
 31
0.0
  0
LINE
  5
CF2A
330
CF1F
100
AcDbEntity
  8
001
370
     9
100
AcDbLine
 10
127.650984
 20
164.99838
 30
0.0
 11
132.221624
 21
164.993811
 31
0.0
  0
LINE
  5
CF2B
330
CF1F
100
AcDbEntity
  8
001
370
     9
100
AcDbLine
 10
127.650818
 20
164.832081
 30
0.0
 11
132.221458
 21
164.827512
 31
0.0
  0
LINE
  5
CF2C
330
CF1F
100
AcDbEntity
  8
001
370
     9
100
AcDbLine
 10
127.650651
 20
164.665782
 30
0.0
 11
132.2212909999999
 21
164.661212
 31
0.0
  0
TEXT
  5
CF2D
330
CF1F
100
AcDbEntity
  8
001
370
     9
100
AcDbText
 10
126.0
 20
174.5
 30
0.0
 40
8.0
  1
Ａ
 41
0.833333
100
AcDbText
  0
LINE
  5
CF2E
330
CF1F
100
AcDbEntity
  8
001
370
     9
100
AcDbLine
 10
19.991412
 20
171.481713
 30
0.0
 11
19.985426
 21
165.494944
 31
0.0
  0
LINE
  5
CF2F
330
CF1F
100
AcDbEntity
  8
001
370
     9
100
AcDbLine
 10
19.985426
 20
165.494944
 30
0.0
 11
18.724199
 21
168.489592
 31
0.0
  0
LINE
  5
CF30
330
CF1F
100
AcDbEntity
  8
001
370
     9
100
AcDbLine
 10
21.252639
 20
168.487065
 30
0.0
 11
19.985426
 21
165.494944
 31
0.0
  0
LINE
  5
CF31
330
CF1F
100
AcDbEntity
  8
001
370
     9
100
AcDbLine
 10
17.651483
 20
165.497278
 30
0.0
 11
22.222123
 21
165.492708
 31
0.0
  0
LINE
  5
CF32
330
CF1F
100
AcDbEntity
  8
001
370
     9
100
AcDbLine
 10
22.222123
 20
165.492708
 30
0.0
 11
22.221125
 21
164.494913
 31
0.0
  0
LINE
  5
CF33
330
CF1F
100
AcDbEntity
  8
001
370
     9
100
AcDbLine
 10
22.221125
 20
164.494913
 30
0.0
 11
17.650485
 21
164.499483
 31
0.0
  0
LINE
  5
CF34
330
CF1F
100
AcDbEntity
  8
001
370
     9
100
AcDbLine
 10
17.650485
 20
164.499483
 30
0.0
 11
17.651483
 21
165.497278
 31
0.0
  0
LINE
  5
CF35
330
CF1F
100
AcDbEntity
  8
001
370
     9
100
AcDbLine
 10
17.651316
 20
165.330978
 30
0.0
 11
22.221956
 21
165.326409
 31
0.0
  0
LINE
  5
CF36
330
CF1F
100
AcDbEntity
  8
001
370
     9
100
AcDbLine
 10
17.65115
 20
165.164679
 30
0.0
 11
22.22179
 21
165.16011
 31
0.0
  0
LINE
  5
CF37
330
CF1F
100
AcDbEntity
  8
001
370
     9
100
AcDbLine
 10
17.650984
 20
164.99838
 30
0.0
 11
22.221624
 21
164.993811
 31
0.0
  0
LINE
  5
CF38
330
CF1F
100
AcDbEntity
  8
001
370
     9
100
AcDbLine
 10
17.650818
 20
164.832081
 30
0.0
 11
22.221458
 21
164.827512
 31
0.0
  0
LINE
  5
CF39
330
CF1F
100
AcDbEntity
  8
001
370
     9
100
AcDbLine
 10
17.650651
 20
164.665782
 30
0.0
 11
22.221291
 21
164.661212
 31
0.0
  0
TEXT
  5
CF3A
330
CF1F
100
AcDbEntity
  8
001
370
     9
100
AcDbText
 10
16.0
 20
174.5
 30
0.0
 40
8.0
  1
Ａ
 41
0.833333
100
AcDbText
  0
ENDBLK
  5
CF3B
330
CF1F
100
AcDbEntity
  8
0
100
AcDbBlockEnd
  0
BLOCK
  5
CF3D
330
CF3C
100
AcDbEntity
  8
0
100
AcDbBlockBegin
  2
DIM-8
 70
     0
 10
0.0
 20
0.0
 30
0.0
  3
DIM-8
  1

  0
LINE
  5
CF3E
330
CF3C
100
AcDbEntity
  8
001
370
     9
100
AcDbLine
 10
129.984932
 20
104.981711
 30
0.0
 11
129.984932
 21
98.99493900000001
 31
0.0
  0
LINE
  5
CF3F
330
CF3C
100
AcDbEntity
  8
001
370
     9
100
AcDbLine
 10
129.984932
 20
98.99493900000001
 30
0.0
 11
128.720712
 21
101.988325
 31
0.0
  0
LINE
  5
CF40
330
CF3C
100
AcDbEntity
  8
001
370
     9
100
AcDbLine
 10
131.249152
 20
101.988325
 30
0.0
 11
129.984932
 21
98.99493900000001
 31
0.0
  0
LINE
  5
CF41
330
CF3C
100
AcDbEntity
  8
001
370
     9
100
AcDbLine
 10
127.650987
 20
98.99493900000001
 30
0.0
 11
132.221629
 21
98.99493900000001
 31
0.0
  0
LINE
  5
CF42
330
CF3C
100
AcDbEntity
  8
001
370
     9
100
AcDbLine
 10
132.221629
 20
98.99493900000001
 30
0.0
 11
132.221629
 21
97.99714399999999
 31
0.0
  0
LINE
  5
CF43
330
CF3C
100
AcDbEntity
  8
001
370
     9
100
AcDbLine
 10
132.221629
 20
97.99714399999999
 30
0.0
 11
127.650987
 21
97.99714399999999
 31
0.0
  0
LINE
  5
CF44
330
CF3C
100
AcDbEntity
  8
001
370
     9
100
AcDbLine
 10
127.650987
 20
97.99714399999999
 30
0.0
 11
127.650987
 21
98.99493900000001
 31
0.0
  0
LINE
  5
CF45
330
CF3C
100
AcDbEntity
  8
001
370
     9
100
AcDbLine
 10
127.650987
 20
98.82864000000001
 30
0.0
 11
132.221629
 21
98.82864000000001
 31
0.0
  0
LINE
  5
CF46
330
CF3C
100
AcDbEntity
  8
001
370
     9
100
AcDbLine
 10
127.650987
 20
98.66234099999999
 30
0.0
 11
132.221629
 21
98.66234099999999
 31
0.0
  0
LINE
  5
CF47
330
CF3C
100
AcDbEntity
  8
001
370
     9
100
AcDbLine
 10
127.650987
 20
98.49604200000001
 30
0.0
 11
132.221629
 21
98.49604200000001
 31
0.0
  0
LINE
  5
CF48
330
CF3C
100
AcDbEntity
  8
001
370
     9
100
AcDbLine
 10
127.650987
 20
98.32974300000001
 30
0.0
 11
132.221629
 21
98.32974300000001
 31
0.0
  0
LINE
  5
CF49
330
CF3C
100
AcDbEntity
  8
001
370
     9
100
AcDbLine
 10
127.650987
 20
98.163443
 30
0.0
 11
132.221629
 21
98.163443
 31
0.0
  0
TEXT
  5
CF4A
330
CF3C
100
AcDbEntity
  8
001
370
     9
100
AcDbText
 10
126.0
 20
108.0
 30
0.0
 40
8.0
  1
Ｂ
 41
0.833333
100
AcDbText
  0
LINE
  5
CF4B
330
CF3C
100
AcDbEntity
  8
001
370
     9
100
AcDbLine
 10
19.984932
 20
104.981711
 30
0.0
 11
19.984932
 21
98.99493900000001
 31
0.0
  0
LINE
  5
CF4C
330
CF3C
100
AcDbEntity
  8
001
370
     9
100
AcDbLine
 10
19.984932
 20
98.99493900000001
 30
0.0
 11
18.720712
 21
101.988325
 31
0.0
  0
LINE
  5
CF4D
330
CF3C
100
AcDbEntity
  8
001
370
     9
100
AcDbLine
 10
21.249152
 20
101.988325
 30
0.0
 11
19.984932
 21
98.99493900000001
 31
0.0
  0
LINE
  5
CF4E
330
CF3C
100
AcDbEntity
  8
001
370
     9
100
AcDbLine
 10
17.650987
 20
98.99493900000001
 30
0.0
 11
22.221629
 21
98.99493900000001
 31
0.0
  0
LINE
  5
CF4F
330
CF3C
100
AcDbEntity
  8
001
370
     9
100
AcDbLine
 10
22.221629
 20
98.99493900000001
 30
0.0
 11
22.221629
 21
97.99714399999999
 31
0.0
  0
LINE
  5
CF50
330
CF3C
100
AcDbEntity
  8
001
370
     9
100
AcDbLine
 10
22.221629
 20
97.99714399999999
 30
0.0
 11
17.650987
 21
97.99714399999999
 31
0.0
  0
LINE
  5
CF51
330
CF3C
100
AcDbEntity
  8
001
370
     9
100
AcDbLine
 10
17.650987
 20
97.99714399999999
 30
0.0
 11
17.650987
 21
98.99493900000001
 31
0.0
  0
LINE
  5
CF52
330
CF3C
100
AcDbEntity
  8
001
370
     9
100
AcDbLine
 10
17.650987
 20
98.82864000000001
 30
0.0
 11
22.221629
 21
98.82864000000001
 31
0.0
  0
LINE
  5
CF53
330
CF3C
100
AcDbEntity
  8
001
370
     9
100
AcDbLine
 10
17.650987
 20
98.66234099999999
 30
0.0
 11
22.221629
 21
98.66234099999999
 31
0.0
  0
LINE
  5
CF54
330
CF3C
100
AcDbEntity
  8
001
370
     9
100
AcDbLine
 10
17.650987
 20
98.49604200000001
 30
0.0
 11
22.221629
 21
98.49604200000001
 31
0.0
  0
LINE
  5
CF55
330
CF3C
100
AcDbEntity
  8
001
370
     9
100
AcDbLine
 10
17.650987
 20
98.32974300000001
 30
0.0
 11
22.221629
 21
98.32974300000001
 31
0.0
  0
LINE
  5
CF56
330
CF3C
100
AcDbEntity
  8
001
370
     9
100
AcDbLine
 10
17.650987
 20
98.163443
 30
0.0
 11
22.221629
 21
98.163443
 31
0.0
  0
TEXT
  5
CF57
330
CF3C
100
AcDbEntity
  8
001
370
     9
100
AcDbText
 10
16.0
 20
108.0
 30
0.0
 40
8.0
  1
Ｂ
 41
0.833333
100
AcDbText
  0
ENDBLK
  5
CF58
330
CF3C
100
AcDbEntity
  8
0
100
AcDbBlockEnd
  0
BLOCK
  5
CF5A
330
CF59
100
AcDbEntity
  8
0
100
AcDbBlockBegin
  2
DIM-9
 70
     0
 10
0.0
 20
0.0
 30
0.0
  3
DIM-9
  1

  0
TEXT
  5
CF5B
330
CF59
100
AcDbEntity
  8
001
370
     9
100
AcDbText
 10
145.08
 20
156.0
 30
0.0
 40
3.2
  1
口開き防止溶接
 41
0.666667
100
AcDbText
  0
POLYLINE
  5
CF5C
330
CF59
100
AcDbEntity
  8
001
370
     9
100
AcDb2dPolyline
 66
     1
 10
0.0
 20
0.0
 30
0.0
  0
VERTEX
  5
CF5D
330
CF5C
100
AcDbEntity
  8
001
370
     9
100
AcDbVertex
100
AcDb2dVertex
 10
168.997769
 20
149.042633
 30
0.0
  0
VERTEX
  5
CF5E
330
CF5C
100
AcDbEntity
  8
001
370
     9
100
AcDbVertex
100
AcDb2dVertex
 10
169.519005
 20
147.038762
 30
0.0
  0
VERTEX
  5
CF5F
330
CF5C
100
AcDbEntity
  8
001
370
     9
100
AcDbVertex
100
AcDb2dVertex
 10
168.065665
 20
148.513547
 30
0.0
  0
SEQEND
  5
CF60
330
CF5C
100
AcDbEntity
  8
001
370
     9
  0
POLYLINE
  5
CF61
330
CF59
100
AcDbEntity
  8
001
370
     9
100
AcDb2dPolyline
 66
     1
 10
0.0
 20
0.0
 30
0.0
  0
VERTEX
  5
CF62
330
CF61
100
AcDbEntity
  8
001
370
     9
100
AcDbVertex
100
AcDb2dVertex
 10
169.519005
 20
147.038762
 30
0.0
  0
VERTEX
  5
CF63
330
CF61
100
AcDbEntity
  8
001
370
     9
100
AcDbVertex
100
AcDb2dVertex
 10
165.0
 20
155.0
 30
0.0
  0
VERTEX
  5
CF64
330
CF61
100
AcDbEntity
  8
001
370
     9
100
AcDbVertex
100
AcDb2dVertex
 10
143.08
 20
155.0
 30
0.0
  0
SEQEND
  5
CF65
330
CF61
100
AcDbEntity
  8
001
370
     9
  0
ENDBLK
  5
CF66
330
CF59
100
AcDbEntity
  8
0
100
AcDbBlockEnd
  0
BLOCK
  5
CF68
330
CF67
100
AcDbEntity
  8
0
100
AcDbBlockBegin
  2
DIM-10
 70
     0
 10
0.0
 20
0.0
 30
0.0
  3
DIM-10
  1

  0
TEXT
  5
CF69
330
CF67
100
AcDbEntity
  8
001
370
     9
100
AcDbText
 10
145.08
 20
191.0
 30
0.0
 40
3.2
  1
口開き防止溶接
 41
0.666667
100
AcDbText
  0
POLYLINE
  5
CF6A
330
CF67
100
AcDbEntity
  8
001
370
     9
100
AcDb2dPolyline
 66
     1
 10
0.0
 20
0.0
 30
0.0
  0
VERTEX
  5
CF6B
330
CF6A
100
AcDbEntity
  8
001
370
     9
100
AcDbVertex
100
AcDb2dVertex
 10
168.065665
 20
196.486453
 30
0.0
  0
VERTEX
  5
CF6C
330
CF6A
100
AcDbEntity
  8
001
370
     9
100
AcDbVertex
100
AcDb2dVertex
 10
169.519005
 20
197.961238
 30
0.0
  0
VERTEX
  5
CF6D
330
CF6A
100
AcDbEntity
  8
001
370
     9
100
AcDbVertex
100
AcDb2dVertex
 10
168.997769
 20
195.957367
 30
0.0
  0
SEQEND
  5
CF6E
330
CF6A
100
AcDbEntity
  8
001
370
     9
  0
POLYLINE
  5
CF6F
330
CF67
100
AcDbEntity
  8
001
370
     9
100
AcDb2dPolyline
 66
     1
 10
0.0
 20
0.0
 30
0.0
  0
VERTEX
  5
CF70
330
CF6F
100
AcDbEntity
  8
001
370
     9
100
AcDbVertex
100
AcDb2dVertex
 10
169.519005
 20
197.961238
 30
0.0
  0
VERTEX
  5
CF71
330
CF6F
100
AcDbEntity
  8
001
370
     9
100
AcDbVertex
100
AcDb2dVertex
 10
165.0
 20
190.0
 30
0.0
  0
VERTEX
  5
CF72
330
CF6F
100
AcDbEntity
  8
001
370
     9
100
AcDbVertex
100
AcDb2dVertex
 10
143.08
 20
190.0
 30
0.0
  0
SEQEND
  5
CF73
330
CF6F
100
AcDbEntity
  8
001
370
     9
  0
ENDBLK
  5
CF74
330
CF67
100
AcDbEntity
  8
0
100
AcDbBlockEnd
  0
BLOCK
  5
D024
330
D023
100
AcDbEntity
  8
0
100
AcDbBlockBegin
  2
DIM-11
 70
     0
 10
0.0
 20
0.0
 30
0.0
  3
DIM-11
  1

  0
TEXT
  5
D025
330
D023
100
AcDbEntity
  8
001
370
     9
100
AcDbText
 10
83.21200000000001
 20
207.212
 30
0.0
 40
3.576
  1
１
 41
0.833333
100
AcDbText
  0
POLYLINE
  5
D026
330
D023
100
AcDbEntity
  8
001
370
     9
100
AcDb2dPolyline
 66
     1
 10
0.0
 20
0.0
 30
0.0
  0
VERTEX
  5
D027
330
D026
100
AcDbEntity
  8
001
370
     9
100
AcDbVertex
100
AcDb2dVertex
 10
86.56413
 20
197.887783
 30
0.0
  0
VERTEX
  5
D028
330
D026
100
AcDbEntity
  8
001
370
     9
100
AcDbVertex
100
AcDb2dVertex
 10
86.214373
 20
195.846985
 30
0.0
  0
VERTEX
  5
D029
330
D026
100
AcDbEntity
  8
001
370
     9
100
AcDbVertex
100
AcDb2dVertex
 10
85.496873
 20
197.7892459999999
 30
0.0
  0
SEQEND
  5
D02A
330
D026
100
AcDbEntity
  8
001
370
     9
  0
POLYLINE
  5
D02B
330
D023
100
AcDbEntity
  8
001
370
     9
100
AcDb2dPolyline
 66
     1
 10
0.0
 20
0.0
 30
0.0
  0
VERTEX
  5
D02C
330
D02B
100
AcDbEntity
  8
001
370
     9
100
AcDbVertex
100
AcDb2dVertex
 10
86.214373
 20
195.846985
 30
0.0
  0
VERTEX
  5
D02D
330
D02B
100
AcDbEntity
  8
001
370
     9
100
AcDbVertex
100
AcDb2dVertex
 10
85.36774200000001
 20
205.01694
 30
0.0
  0
SEQEND
  5
D02E
330
D02B
100
AcDbEntity
  8
001
370
     9
  0
CIRCLE
  5
D02F
330
D023
100
AcDbEntity
  8
001
370
     9
100
AcDbCircle
 10
85.0
 20
209.0
 30
0.0
 40
4.0
  0
ENDBLK
  5
D030
330
D023
100
AcDbEntity
  8
0
100
AcDbBlockEnd
  0
BLOCK
  5
D05A
330
D059
100
AcDbEntity
  8
0
100
AcDbBlockBegin
  2
DIM-12
 70
     0
 10
0.0
 20
0.0
 30
0.0
  3
DIM-12
  1

  0
TEXT
  5
D05B
330
D059
100
AcDbEntity
  8
001
370
     9
100
AcDbText
 10
133.212
 20
150.712
 30
0.0
 40
3.576
  1
３
 41
0.833333
100
AcDbText
  0
POLYLINE
  5
D05C
330
D059
100
AcDbEntity
  8
001
370
     9
100
AcDb2dPolyline
 66
     1
 10
0.0
 20
0.0
 30
0.0
  0
VERTEX
  5
D05D
330
D05C
100
AcDbEntity
  8
001
370
     9
100
AcDbVertex
100
AcDb2dVertex
 10
110.943861
 20
125.17751
 30
0.0
  0
VERTEX
  5
D05E
330
D05C
100
AcDbEntity
  8
001
370
     9
100
AcDbVertex
100
AcDb2dVertex
 10
109.203309
 20
124.056053
 30
0.0
  0
VERTEX
  5
D05F
330
D05C
100
AcDbEntity
  8
001
370
     9
100
AcDbVertex
100
AcDb2dVertex
 10
110.149942
 20
125.897539
 30
0.0
  0
SEQEND
  5
D060
330
D05C
100
AcDbEntity
  8
001
370
     9
  0
POLYLINE
  5
D061
330
D059
100
AcDbEntity
  8
001
370
     9
100
AcDb2dPolyline
 66
     1
 10
0.0
 20
0.0
 30
0.0
  0
VERTEX
  5
D062
330
D061
100
AcDbEntity
  8
001
370
     9
100
AcDbVertex
100
AcDb2dVertex
 10
109.203309
 20
124.056053
 30
0.0
  0
VERTEX
  5
D063
330
D061
100
AcDbEntity
  8
001
370
     9
100
AcDbVertex
100
AcDb2dVertex
 10
132.312815
 20
149.537056
 30
0.0
  0
SEQEND
  5
D064
330
D061
100
AcDbEntity
  8
001
370
     9
  0
CIRCLE
  5
D065
330
D059
100
AcDbEntity
  8
001
370
     9
100
AcDbCircle
 10
135.0
 20
152.5
 30
0.0
 40
4.0
  0
ENDBLK
  5
D066
330
D059
100
AcDbEntity
  8
0
100
AcDbBlockEnd
  0
BLOCK
  5
D068
330
D067
100
AcDbEntity
  8
0
100
AcDbBlockBegin
  2
DIM-13
 70
     0
 10
0.0
 20
0.0
 30
0.0
  3
DIM-13
  1

  0
TEXT
  5
D069
330
D067
100
AcDbEntity
  8
001
370
     9
100
AcDbText
 10
73.21200000000001
 20
53.212
 30
0.0
 40
3.576
  1
２
 41
0.833333
100
AcDbText
  0
POLYLINE
  5
D06A
330
D067
100
AcDbEntity
  8
001
370
     9
100
AcDb2dPolyline
 66
     1
 10
0.0
 20
0.0
 30
0.0
  0
VERTEX
  5
D06B
330
D06A
100
AcDbEntity
  8
001
370
     9
100
AcDbVertex
100
AcDb2dVertex
 10
79.065343
 20
69.113624
 30
0.0
  0
VERTEX
  5
D06C
330
D06A
100
AcDbEntity
  8
001
370
     9
100
AcDbVertex
100
AcDb2dVertex
 10
80.197883
 20
70.846985
 30
0.0
  0
VERTEX
  5
D06D
330
D06A
100
AcDbEntity
  8
001
370
     9
100
AcDbVertex
100
AcDb2dVertex
 10
80.08375500000001
 20
68.77958000000001
 30
0.0
  0
SEQEND
  5
D06E
330
D06A
100
AcDbEntity
  8
001
370
     9
  0
POLYLINE
  5
D06F
330
D067
100
AcDbEntity
  8
001
370
     9
100
AcDb2dPolyline
 66
     1
 10
0.0
 20
0.0
 30
0.0
  0
VERTEX
  5
D070
330
D06F
100
AcDbEntity
  8
001
370
     9
100
AcDbVertex
100
AcDb2dVertex
 10
80.197883
 20
70.846985
 30
0.0
  0
VERTEX
  5
D071
330
D06F
100
AcDbEntity
  8
001
370
     9
100
AcDbVertex
100
AcDb2dVertex
 10
76.24666799999999
 20
58.80076500000001
 30
0.0
  0
SEQEND
  5
D072
330
D06F
100
AcDbEntity
  8
001
370
     9
  0
CIRCLE
  5
D073
330
D067
100
AcDbEntity
  8
001
370
     9
100
AcDbCircle
 10
75.0
 20
55.0
 30
0.0
 40
4.0
  0
ENDBLK
  5
D074
330
D067
100
AcDbEntity
  8
0
100
AcDbBlockEnd
  0
BLOCK
  5
D076
330
D075
100
AcDbEntity
  8
0
100
AcDbBlockBegin
  2
DIM-14
 70
     0
 10
0.0
 20
0.0
 30
0.0
  3
DIM-14
  1

  0
TEXT
  5
D077
330
D075
100
AcDbEntity
  8
001
370
     9
100
AcDbText
 10
133.212
 20
75.71200000000001
 30
0.0
 40
3.576
  1
４
 41
0.833333
100
AcDbText
  0
POLYLINE
  5
D078
330
D075
100
AcDbEntity
  8
001
370
     9
100
AcDb2dPolyline
 66
     1
 10
0.0
 20
0.0
 30
0.0
  0
VERTEX
  5
D079
330
D078
100
AcDbEntity
  8
001
370
     9
100
AcDbVertex
100
AcDb2dVertex
 10
107.81932
 20
98.677115
 30
0.0
  0
VERTEX
  5
D07A
330
D078
100
AcDbEntity
  8
001
370
     9
100
AcDbVertex
100
AcDb2dVertex
 10
106.596853
 20
100.34827
 30
0.0
  0
VERTEX
  5
D07B
330
D078
100
AcDbEntity
  8
001
370
     9
100
AcDbVertex
100
AcDb2dVertex
 10
108.491119
 20
99.51224100000001
 30
0.0
  0
SEQEND
  5
D07C
330
D078
100
AcDbEntity
  8
001
370
     9
  0
POLYLINE
  5
D07D
330
D075
100
AcDbEntity
  8
001
370
     9
100
AcDb2dPolyline
 66
     1
 10
0.0
 20
0.0
 30
0.0
  0
VERTEX
  5
D07E
330
D07D
100
AcDbEntity
  8
001
370
     9
100
AcDbVertex
100
AcDb2dVertex
 10
106.596853
 20
100.34827
 30
0.0
  0
VERTEX
  5
D07F
330
D07D
100
AcDbEntity
  8
001
370
     9
100
AcDbVertex
100
AcDb2dVertex
 10
131.883267
 20
80.00718499999999
 30
0.0
  0
SEQEND
  5
D080
330
D07D
100
AcDbEntity
  8
001
370
     9
  0
CIRCLE
  5
D081
330
D075
100
AcDbEntity
  8
001
370
     9
100
AcDbCircle
 10
135.0
 20
77.5
 30
0.0
 40
4.0
  0
ENDBLK
  5
D082
330
D075
100
AcDbEntity
  8
0
100
AcDbBlockEnd
  0
BLOCK
  5
D084
330
D083
100
AcDbEntity
  8
0
100
AcDbBlockBegin
  2
DIM-15
 70
     0
 10
0.0
 20
0.0
 30
0.0
  3
DIM-15
  1

  0
TEXT
  5
D085
330
D083
100
AcDbEntity
  8
001
370
     9
100
AcDbText
 10
129.196714
 20
188.854739
 30
0.0
 40
3.2
  1
芯棒溶接
 41
0.666667
100
AcDbText
  0
POLYLINE
  5
D086
330
D083
100
AcDbEntity
  8
001
370
     9
100
AcDb2dPolyline
 66
     1
 10
0.0
 20
0.0
 30
0.0
  0
VERTEX
  5
D087
330
D086
100
AcDbEntity
  8
001
370
     9
100
AcDbVertex
100
AcDb2dVertex
 10
112.732373
 20
177.17723
 30
0.0
  0
VERTEX
  5
D088
330
D086
100
AcDbEntity
  8
001
370
     9
100
AcDbVertex
100
AcDb2dVertex
 10
110.783331
 20
176.478356
 30
0.0
  0
VERTEX
  5
D089
330
D086
100
AcDbEntity
  8
001
370
     9
100
AcDbVertex
100
AcDb2dVertex
 10
112.121814
 20
178.058119
 30
0.0
  0
SEQEND
  5
D08A
330
D086
100
AcDbEntity
  8
001
370
     9
  0
POLYLINE
  5
D08B
330
D083
100
AcDbEntity
  8
001
370
     9
100
AcDb2dPolyline
 66
     1
 10
0.0
 20
0.0
 30
0.0
  0
VERTEX
  5
D08C
330
D08B
100
AcDbEntity
  8
001
370
     9
100
AcDbVertex
100
AcDb2dVertex
 10
110.783331
 20
176.478356
 30
0.0
  0
VERTEX
  5
D08D
330
D08B
100
AcDbEntity
  8
001
370
     9
100
AcDbVertex
100
AcDb2dVertex
 10
127.196714
 20
187.854739
 30
0.0
  0
VERTEX
  5
D08E
330
D08B
100
AcDbEntity
  8
001
370
     9
100
AcDbVertex
100
AcDb2dVertex
 10
141.436714
 20
187.854739
 30
0.0
  0
SEQEND
  5
D08F
330
D08B
100
AcDbEntity
  8
001
370
     9
  0
ENDBLK
  5
D090
330
D083
100
AcDbEntity
  8
0
100
AcDbBlockEnd
  0
BLOCK
  5
D092
330
D091
100
AcDbEntity
  8
0
100
AcDbBlockBegin
  2
DIM-16
 70
     0
 10
0.0
 20
0.0
 30
0.0
  3
DIM-16
  1

  0
TEXT
  5
D093
330
D091
100
AcDbEntity
  8
001
370
     9
100
AcDbText
 10
122.0
 20
205.0
 30
0.0
 40
3.2
  1
プロジェクション溶接
 41
0.666667
100
AcDbText
  0
POLYLINE
  5
D094
330
D091
100
AcDbEntity
  8
001
370
     9
100
AcDb2dPolyline
 66
     1
 10
0.0
 20
0.0
 30
0.0
  0
VERTEX
  5
D095
330
D094
100
AcDbEntity
  8
001
370
     9
100
AcDbVertex
100
AcDb2dVertex
 10
114.895583
 20
197.040046
 30
0.0
  0
VERTEX
  5
D096
330
D094
100
AcDbEntity
  8
001
370
     9
100
AcDbVertex
100
AcDb2dVertex
 10
113.203309
 20
195.846985
 30
0.0
  0
VERTEX
  5
D097
330
D094
100
AcDbEntity
  8
001
370
     9
100
AcDbVertex
100
AcDb2dVertex
 10
114.072331
 20
197.7263429999999
 30
0.0
  0
SEQEND
  5
D098
330
D094
100
AcDbEntity
  8
001
370
     9
  0
POLYLINE
  5
D099
330
D091
100
AcDbEntity
  8
001
370
     9
100
AcDb2dPolyline
 66
     1
 10
0.0
 20
0.0
 30
0.0
  0
VERTEX
  5
D09A
330
D099
100
AcDbEntity
  8
001
370
     9
100
AcDbVertex
100
AcDb2dVertex
 10
113.203309
 20
195.846985
 30
0.0
  0
VERTEX
  5
D09B
330
D099
100
AcDbEntity
  8
001
370
     9
100
AcDbVertex
100
AcDb2dVertex
 10
120.0
 20
204.0
 30
0.0
  0
VERTEX
  5
D09C
330
D099
100
AcDbEntity
  8
001
370
     9
100
AcDbVertex
100
AcDb2dVertex
 10
149.599999
 20
204.0
 30
0.0
  0
SEQEND
  5
D09D
330
D099
100
AcDbEntity
  8
001
370
     9
  0
ENDBLK
  5
D09E
330
D091
100
AcDbEntity
  8
0
100
AcDbBlockEnd
  0
BLOCK
  5
D0A0
330
D09F
100
AcDbEntity
  8
0
100
AcDbBlockBegin
  2
DIM-17
 70
     0
 10
0.0
 20
0.0
 30
0.0
  3
DIM-17
  1

  0
TEXT
  5
D0A1
330
D09F
100
AcDbEntity
  8
001
370
     9
100
AcDbText
 10
74.460052
 20
94.31472099999998
 30
0.0
 40
3.2
  1
ゴイシ溶接
 41
0.666667
100
AcDbText
  0
POLYLINE
  5
D0A2
330
D09F
100
AcDbEntity
  8
001
370
     9
100
AcDb2dPolyline
 66
     1
 10
0.0
 20
0.0
 30
0.0
  0
VERTEX
  5
D0A3
330
D0A2
100
AcDbEntity
  8
001
370
     9
100
AcDbVertex
100
AcDb2dVertex
 10
95.95922299999999
 20
98.64316700000001
 30
0.0
  0
VERTEX
  5
D0A4
330
D0A2
100
AcDbEntity
  8
001
370
     9
100
AcDbVertex
100
AcDb2dVertex
 10
97.90602900000001
 20
99.34824499999999
 30
0.0
  0
VERTEX
  5
D0A5
330
D0A2
100
AcDbEntity
  8
001
370
     9
100
AcDbVertex
100
AcDb2dVertex
 10
96.57258500000001
 20
97.76422700000001
 30
0.0
  0
SEQEND
  5
D0A6
330
D0A2
100
AcDbEntity
  8
001
370
     9
  0
POLYLINE
  5
D0A7
330
D09F
100
AcDbEntity
  8
001
370
     9
100
AcDb2dPolyline
 66
     1
 10
0.0
 20
0.0
 30
0.0
  0
VERTEX
  5
D0A8
330
D0A7
100
AcDbEntity
  8
001
370
     9
100
AcDbVertex
100
AcDb2dVertex
 10
97.90602900000001
 20
99.34824499999999
 30
0.0
  0
VERTEX
  5
D0A9
330
D0A7
100
AcDbEntity
  8
001
370
     9
100
AcDbVertex
100
AcDb2dVertex
 10
89.260052
 20
93.31472099999999
 30
0.0
  0
VERTEX
  5
D0AA
330
D0A7
100
AcDbEntity
  8
001
370
     9
100
AcDbVertex
100
AcDb2dVertex
 10
72.460052
 20
93.31472099999999
 30
0.0
  0
SEQEND
  5
D0AB
330
D0A7
100
AcDbEntity
  8
001
370
     9
  0
ENDBLK
  5
D0AC
330
D09F
100
AcDbEntity
  8
0
100
AcDbBlockEnd
  0
BLOCK
  5
D0AE
330
D0AD
100
AcDbEntity
  8
0
100
AcDbBlockBegin
  2
DIM-18
 70
     0
 10
0.0
 20
0.0
 30
0.0
  3
DIM-18
  1

  0
TEXT
  5
D0AF
330
D0AD
100
AcDbEntity
  8
001
370
     9
100
AcDbText
 10
120.432454
 20
62.35877399999999
 30
0.0
 40
3.2
  1
プロジェクション溶接
 41
0.666667
100
AcDbText
  0
POLYLINE
  5
D0B0
330
D0AD
100
AcDbEntity
  8
001
370
     9
100
AcDb2dPolyline
 66
     1
 10
0.0
 20
0.0
 30
0.0
  0
VERTEX
  5
D0B1
330
D0B0
100
AcDbEntity
  8
001
370
     9
100
AcDbVertex
100
AcDb2dVertex
 10
113.699312
 20
68.83671899999999
 30
0.0
  0
VERTEX
  5
D0B2
330
D0B0
100
AcDbEntity
  8
001
370
     9
100
AcDbVertex
100
AcDb2dVertex
 10
113.203309
 20
70.846985
 30
0.0
  0
VERTEX
  5
D0B3
330
D0B0
100
AcDbEntity
  8
001
370
     9
100
AcDbVertex
100
AcDb2dVertex
 10
114.637993
 20
69.354045
 30
0.0
  0
SEQEND
  5
D0B4
330
D0B0
100
AcDbEntity
  8
001
370
     9
  0
POLYLINE
  5
D0B5
330
D0AD
100
AcDbEntity
  8
001
370
     9
100
AcDb2dPolyline
 66
     1
 10
0.0
 20
0.0
 30
0.0
  0
VERTEX
  5
D0B6
330
D0B5
100
AcDbEntity
  8
001
370
     9
100
AcDbVertex
100
AcDb2dVertex
 10
113.203309
 20
70.846985
 30
0.0
  0
VERTEX
  5
D0B7
330
D0B5
100
AcDbEntity
  8
001
370
     9
100
AcDbVertex
100
AcDb2dVertex
 10
118.432454
 20
61.358774
 30
0.0
  0
VERTEX
  5
D0B8
330
D0B5
100
AcDbEntity
  8
001
370
     9
100
AcDbVertex
100
AcDb2dVertex
 10
148.032453
 20
61.358774
 30
0.0
  0
SEQEND
  5
D0B9
330
D0B5
100
AcDbEntity
  8
001
370
     9
  0
ENDBLK
  5
D0BA
330
D0AD
100
AcDbEntity
  8
0
100
AcDbBlockEnd
  0
BLOCK
  5
D0CF
330
D0CE
100
AcDbEntity
  8
0
100
AcDbBlockBegin
  2
DIM-19
 70
     0
 10
0.0
 20
0.0
 30
0.0
  3
DIM-19
  1

  0
TEXT
  5
D0D0
330
D0CE
100
AcDbEntity
  8
001
370
     9
100
AcDbText
 10
88.21200000000001
 20
53.212
 30
0.0
 40
3.576
  1
７
 41
0.833333
100
AcDbText
  0
POLYLINE
  5
D0D1
330
D0CE
100
AcDbEntity
  8
001
370
     9
100
AcDb2dPolyline
 66
     1
 10
0.0
 20
0.0
 30
0.0
  0
VERTEX
  5
D0D2
330
D0D1
100
AcDbEntity
  8
001
370
     9
100
AcDbVertex
100
AcDb2dVertex
 10
96.54563900000001
 20
66.43783899999999
 30
0.0
  0
VERTEX
  5
D0D3
330
D0D1
100
AcDbEntity
  8
001
370
     9
100
AcDbVertex
100
AcDb2dVertex
 10
98.06270699999998
 20
67.84698500000001
 30
0.0
  0
VERTEX
  5
D0D4
330
D0D1
100
AcDbEntity
  8
001
370
     9
100
AcDbVertex
100
AcDb2dVertex
 10
97.45345999999999
 20
65.868095
 30
0.0
  0
SEQEND
  5
D0D5
330
D0D1
100
AcDbEntity
  8
001
370
     9
  0
POLYLINE
  5
D0D6
330
D0CE
100
AcDbEntity
  8
001
370
     9
100
AcDb2dPolyline
 66
     1
 10
0.0
 20
0.0
 30
0.0
  0
VERTEX
  5
D0D7
330
D0D6
100
AcDbEntity
  8
001
370
     9
100
AcDbVertex
100
AcDb2dVertex
 10
98.06270699999998
 20
67.84698500000001
 30
0.0
  0
VERTEX
  5
D0D8
330
D0D6
100
AcDbEntity
  8
001
370
     9
100
AcDbVertex
100
AcDb2dVertex
 10
92.126315
 20
58.388035
 30
0.0
  0
SEQEND
  5
D0D9
330
D0D6
100
AcDbEntity
  8
001
370
     9
  0
CIRCLE
  5
D0DA
330
D0CE
100
AcDbEntity
  8
001
370
     9
100
AcDbCircle
 10
90.0
 20
55.0
 30
0.0
 40
4.0
  0
ENDBLK
  5
D0DB
330
D0CE
100
AcDbEntity
  8
0
100
AcDbBlockEnd
  0
BLOCK
  5
D0DD
330
D0DC
100
AcDbEntity
  8
0
100
AcDbBlockBegin
  2
DIM-20
 70
     0
 10
0.0
 20
0.0
 30
0.0
  3
DIM-20
  1

  0
TEXT
  5
D0DE
330
D0DC
100
AcDbEntity
  8
001
370
     9
100
AcDbText
 10
133.212
 20
159.712
 30
0.0
 40
3.576
  1
６
 41
0.833333
100
AcDbText
  0
POLYLINE
  5
D0DF
330
D0DC
100
AcDbEntity
  8
001
370
     9
100
AcDb2dPolyline
 66
     1
 10
0.0
 20
0.0
 30
0.0
  0
VERTEX
  5
D0E0
330
D0DF
100
AcDbEntity
  8
001
370
     9
100
AcDbVertex
100
AcDb2dVertex
 10
112.873035
 20
133.071403
 30
0.0
  0
VERTEX
  5
D0E1
330
D0DF
100
AcDbEntity
  8
001
370
     9
100
AcDbVertex
100
AcDb2dVertex
 10
111.203309
 20
131.846985
 30
0.0
  0
VERTEX
  5
D0E2
330
D0DF
100
AcDbEntity
  8
001
370
     9
100
AcDbVertex
100
AcDb2dVertex
 10
112.037125
 20
133.742225
 30
0.0
  0
SEQEND
  5
D0E3
330
D0DF
100
AcDbEntity
  8
001
370
     9
  0
POLYLINE
  5
D0E4
330
D0DC
100
AcDbEntity
  8
001
370
     9
100
AcDb2dPolyline
 66
     1
 10
0.0
 20
0.0
 30
0.0
  0
VERTEX
  5
D0E5
330
D0E4
100
AcDbEntity
  8
001
370
     9
100
AcDbVertex
100
AcDb2dVertex
 10
111.203309
 20
131.846985
 30
0.0
  0
VERTEX
  5
D0E6
330
D0E4
100
AcDbEntity
  8
001
370
     9
100
AcDbVertex
100
AcDb2dVertex
 10
132.496458
 20
158.38034
 30
0.0
  0
SEQEND
  5
D0E7
330
D0E4
100
AcDbEntity
  8
001
370
     9
  0
CIRCLE
  5
D0E8
330
D0DC
100
AcDbEntity
  8
001
370
     9
100
AcDbCircle
 10
135.0
 20
161.5
 30
0.0
 40
4.0
  0
ENDBLK
  5
D0E9
330
D0DC
100
AcDbEntity
  8
0
100
AcDbBlockEnd
  0
BLOCK
  5
D0EB
330
D0EA
100
AcDbEntity
  8
0
100
AcDbBlockBegin
  2
DIM-21
 70
     0
 10
0.0
 20
0.0
 30
0.0
  3
DIM-21
  1

  0
TEXT
  5
D0EC
330
D0EA
100
AcDbEntity
  8
001
370
     9
100
AcDbText
 10
133.212
 20
128.212
 30
0.0
 40
3.576
  1
５
 41
0.833333
100
AcDbText
  0
POLYLINE
  5
D0ED
330
D0EA
100
AcDbEntity
  8
001
370
     9
100
AcDb2dPolyline
 66
     1
 10
0.0
 20
0.0
 30
0.0
  0
VERTEX
  5
D0EE
330
D0ED
100
AcDbEntity
  8
001
370
     9
100
AcDbVertex
100
AcDb2dVertex
 10
113.163626
 20
114.747988
 30
0.0
  0
VERTEX
  5
D0EF
330
D0ED
100
AcDbEntity
  8
001
370
     9
100
AcDbVertex
100
AcDb2dVertex
 10
111.203309
 20
114.081397
 30
0.0
  0
VERTEX
  5
D0F0
330
D0ED
100
AcDbEntity
  8
001
370
     9
100
AcDbVertex
100
AcDb2dVertex
 10
112.567698
 20
115.63884
 30
0.0
  0
SEQEND
  5
D0F1
330
D0ED
100
AcDbEntity
  8
001
370
     9
  0
POLYLINE
  5
D0F2
330
D0EA
100
AcDbEntity
  8
001
370
     9
100
AcDb2dPolyline
 66
     1
 10
0.0
 20
0.0
 30
0.0
  0
VERTEX
  5
D0F3
330
D0F2
100
AcDbEntity
  8
001
370
     9
100
AcDbVertex
100
AcDb2dVertex
 10
111.203309
 20
114.081397
 30
0.0
  0
VERTEX
  5
D0F4
330
D0F2
100
AcDbEntity
  8
001
370
     9
100
AcDbVertex
100
AcDb2dVertex
 10
131.675294
 20
127.775965
 30
0.0
  0
SEQEND
  5
D0F5
330
D0F2
100
AcDbEntity
  8
001
370
     9
  0
CIRCLE
  5
D0F6
330
D0EA
100
AcDbEntity
  8
001
370
     9
100
AcDbCircle
 10
135.0
 20
130.0
 30
0.0
 40
4.0
  0
ENDBLK
  5
D0F7
330
D0EA
100
AcDbEntity
  8
0
100
AcDbBlockEnd
  0
BLOCK
  5
DCBA
330
DCB9
100
AcDbEntity
  8
0
100
AcDbBlockBegin
  2
*D81
 70
     1
 10
0.0
 20
0.0
 30
0.0
  3
*D81
  1

  0
LINE
  5
DCEE
330
DCB9
100
AcDbEntity
  8
AM_5
100
AcDbLine
 10
237.5059876990997
 20
244.5780286323096
 30
0.0
 11
249.1643865309077
 21
233.6198473653979
 31
0.0
  0
LINE
  5
DCEF
330
DCB9
100
AcDbEntity
  8
AM_5
100
AcDbLine
 10
250.6216863848838
 20
232.2500747070339
 30
0.0
 11
258.3168042679527
 21
225.0171349312168
 31
0.0
  0
LINE
  5
DCF0
330
DCB9
100
AcDbEntity
  8
AM_5
100
AcDbLine
 10
258.3168042679527
 20
225.0171349312168
 30
0.0
 11
266.000137601286
 21
225.0171349312168
 31
0.0
  0
INSERT
  5
DCF1
330
DCB9
100
AcDbEntity
  8
AM_5
100
AcDbBlockReference
  2
GENDOT
 10
236.0486878451237
 20
245.9478012906736
 30
0.0
 41
2.0
 42
2.0
 43
2.0
 50
136.7733317604705
  0
INSERT
  5
DCF2
330
DCB9
100
AcDbEntity
  8
AM_5
100
AcDbBlockReference
  2
GENDOT
 10
250.6216863848838
 20
232.2500747070339
 30
0.0
 41
2.0
 42
2.0
 43
2.0
 50
316.7733317604705
  0
MTEXT
  5
DCF3
330
DCB9
100
AcDbEntity
  8
AM_5
 62
     2
100
AcDbMText
 10
262.9084709346193
 20
228.2671349312168
 30
0.0
 40
3.5
 41
0.0
 71
     5
 72
     1
  1
\U+220520
 73
     1
 44
1.0
1001
ACAD
1000
MTEXTBEGIN
1070
    73
1070
     1
1070
    44
1040
1.0
1070
    74
1070
     0
1000
MTEXTEND
  0
POINT
  5
DCF4
330
DCB9
100
AcDbEntity
  8
Defpoints
 62
     0
100
AcDbPoint
 10
250.6216863848838
 20
232.2500747070339
 30
0.0
  0
POINT
  5
DCF5
330
DCB9
100
AcDbEntity
  8
Defpoints
 62
     0
100
AcDbPoint
 10
236.0486878451237
 20
245.9478012906736
 30
0.0
  0
ENDBLK
  5
DCBB
330
DCB9
100
AcDbEntity
  8
0
100
AcDbBlockEnd
  0
ENDSEC
  0
SECTION
  2
ENTITIES
  0
LINE
  5
BEC2
330
1F
100
AcDbEntity
  8
AM_0
100
AcDbLine
 10
0.0
 20
273.0
 30
0.0
 11
110.0
 21
273.0
 31
0.0
  0
LINE
  5
BEC3
330
1F
100
AcDbEntity
  8
AM_0
100
AcDbLine
 10
0.0
 20
225.0
 30
0.0
 11
110.0
 21
225.0
 31
0.0
  0
LINE
  5
BEC6
330
1F
100
AcDbEntity
  8
AM_2
100
AcDbLine
 10
0.0
 20
233.0
 30
0.0
 11
110.0
 21
233.0
 31
0.0
  0
LINE
  5
BEC9
330
1F
100
AcDbEntity
  8
AM_2
100
AcDbLine
 10
0.0
 20
241.0
 30
0.0
 11
110.0
 21
241.0
 31
0.0
  0
LINE
  5
BECA
330
1F
100
AcDbEntity
  8
AM_2
100
AcDbLine
 10
0.0
 20
249.0
 30
0.0
 11
110.0
 21
249.0
 31
0.0
  0
LINE
  5
BECB
330
1F
100
AcDbEntity
  8
AM_2
100
AcDbLine
 10
0.0
 20
257.0
 30
0.0
 11
110.0
 21
257.0
 31
0.0
  0
LINE
  5
BECC
330
1F
100
AcDbEntity
  8
AM_2
100
AcDbLine
 10
0.0
 20
265.0
 30
0.0
 11
110.0
 21
265.0
 31
0.0
  0
LINE
  5
BECD
330
1F
100
AcDbEntity
  8
AM_0
100
AcDbLine
 10
0.0
 20
273.0
 30
0.0
 11
0.0
 21
225.0
 31
0.0
  0
LINE
  5
BECE
330
1F
100
AcDbEntity
  8
AM_2
100
AcDbLine
 10
20.0
 20
273.0
 30
0.0
 11
20.0
 21
225.0
 31
0.0
  0
MTEXT
  5
BECF
330
1F
100
AcDbEntity
  8
AM_6
100
AcDbMText
 10
10.0
 20
229.0
 30
0.0
 40
3.2
 41
20.0
 71
     5
 72
     5
  1
備　考
 73
     1
 44
1.0
1001
ACAD
1000
MTEXTBEGIN
1070
    73
1070
     1
1070
    44
1040
1.0
1070
    74
1070
     0
1000
MTEXTEND
  0
MTEXT
  5
BED3
330
1F
100
AcDbEntity
  8
AM_6
100
AcDbMText
 10
22.33857567105815
 20
229.0
 30
0.0
 40
3.2
 41
90.0
 71
     4
 72
     5
  1
丁番係数：46.5（但し、最大重量100kgとする）
 73
     1
 44
1.0
1001
ACAD
1000
MTEXTBEGIN
1070
    73
1070
     1
1070
    44
1040
1.0
1070
    74
1070
     0
1000
MTEXTEND
  0
MTEXT
  5
BED5
330
1F
100
AcDbEntity
  8
AM_6
100
AcDbMText
 10
10.0
 20
245.0
 30
0.0
 40
3.2
 41
20.0
 71
     5
 72
     5
  1
仕上げ
 73
     1
 44
1.0
1001
ACAD
1000
MTEXTBEGIN
1070
    73
1070
     1
1070
    44
1040
1.0
1070
    74
1070
     0
1000
MTEXTEND
  0
MTEXT
  5
BED7
330
1F
100
AcDbEntity
  8
AM_6
100
AcDbMText
 10
10.0
 20
253.0
 30
0.0
 40
3.2
 41
20.0
 71
     5
 72
     5
  1
材　質
 73
     1
 44
1.0
1001
ACAD
1000
MTEXTBEGIN
1070
    73
1070
     1
1070
    44
1040
1.0
1070
    74
1070
     0
1000
MTEXTEND
  0
MTEXT
  5
BED8
330
1F
100
AcDbEntity
  8
AM_6
100
AcDbMText
 10
10.0
 20
269.0
 30
0.0
 40
3.2
 41
20.0
 71
     5
 72
     5
  1
品　名
 73
     1
 44
1.0
1001
ACAD
1000
MTEXTBEGIN
1070
    73
1070
     1
1070
    44
1040
1.0
1070
    74
1070
     0
1000
MTEXTEND
  0
MTEXT
  5
BED9
330
1F
100
AcDbEntity
  8
AM_6
100
AcDbMText
 10
10.0
 20
261.0
 30
0.0
 40
3.2
 41
20.0
 71
     5
 72
     5
  1
品　番
 73
     1
 44
1.0
1001
ACAD
1000
MTEXTBEGIN
1070
    73
1070
     1
1070
    44
1040
1.0
1070
    74
1070
     0
1000
MTEXTEND
  0
MTEXT
  5
BEDA
330
1F
100
AcDbEntity
  8
AM_6
100
AcDbMText
 10
22.33857567105815
 20
245.0
 30
0.0
 40
3.2
 41
90.0
 71
     4
 72
     5
  1
ヘアーライン
 73
     1
 44
1.0
1001
ACAD
1000
MTEXTBEGIN
1070
    73
1070
     1
1070
    44
1040
1.0
1070
    74
1070
     0
1000
MTEXTEND
  0
MTEXT
  5
BEDB
330
1F
100
AcDbEntity
  8
AM_6
100
AcDbMText
 10
22.33857567105815
 20
237.0
 30
0.0
 40
3.2
 41
90.0
 71
     4
 72
     5
  1
左勝手
 73
     1
 44
1.0
1001
ACAD
1000
MTEXTBEGIN
1070
    73
1070
     1
1070
    44
1040
1.0
1070
    74
1070
     0
1000
MTEXTEND
  0
MTEXT
  5
BEDC
330
1F
100
AcDbEntity
  8
AM_6
100
AcDbMText
 10
22.33857567105815
 20
253.0
 30
0.0
 40
3.2
 41
90.0
 71
     4
 72
     5
  1
ステンレス
 73
     1
 44
1.0
1001
ACAD
1000
MTEXTBEGIN
1070
    73
1070
     1
1070
    44
1040
1.0
1070
    74
1070
     0
1000
MTEXTEND
  0
MTEXT
  5
BEDD
330
1F
100
AcDbEntity
  8
AM_6
100
AcDbMText
 10
22.33857567105815
 20
261.0
 30
0.0
 40
3.2
 41
90.0
 71
     4
 72
     5
  1
DHC-537S
 73
     1
 44
1.0
1001
ACAD
1000
MTEXTBEGIN
1070
    73
1070
     1
1070
    44
1040
1.0
1070
    74
1070
     0
1000
MTEXTEND
  0
MTEXT
  5
BEDE
330
1F
100
AcDbEntity
  8
AM_6
100
AcDbMText
 10
22.33857567105815
 20
269.0
 30
0.0
 40
3.2
 41
90.0
 71
     4
 72
     5
  1
低発塵丁番
 73
     1
 44
1.0
1001
ACAD
1000
MTEXTBEGIN
1070
    73
1070
     1
1070
    44
1040
1.0
1070
    74
1070
     0
1000
MTEXTEND
  0
LINE
  5
BEDF
330
1F
100
AcDbEntity
  8
AM_0
100
AcDbLine
 10
110.0
 20
273.0
 30
0.0
 11
110.0
 21
225.0
 31
0.0
  0
LINE
  5
BF8E
330
1F
100
AcDbEntity
  8
AM_0
100
AcDbLine
 10
381.0
 20
273.0
 30
0.0
 11
381.0
 21
0.0
 31
0.0
  0
LINE
  5
BF8F
330
1F
100
AcDbEntity
  8
AM_0
100
AcDbLine
 10
0.0
 20
0.0
 30
0.0
 11
381.0
 21
0.0
 31
0.0
  0
LINE
  5
BF90
330
1F
100
AcDbEntity
  8
AM_0
100
AcDbLine
 10
0.0
 20
273.0
 30
0.0
 11
381.0
 21
273.0
 31
0.0
  0
LINE
  5
BF91
330
1F
100
AcDbEntity
  8
AM_0
100
AcDbLine
 10
0.0
 20
273.0
 30
0.0
 11
0.0
 21
0.0
 31
0.0
  0
MTEXT
  5
BF96
330
1F
100
AcDbEntity
  8
AM_6
100
AcDbMText
 10
10.0
 20
237.0
 30
0.0
 40
3.2
 41
20.0
 71
     5
 72
     5
  1
左右勝手
 73
     1
 44
1.0
1001
ACAD
1000
MTEXTBEGIN
1070
    73
1070
     1
1070
    44
1040
1.0
1070
    74
1070
     0
1000
MTEXTEND
  0
LINE
  5
BF97
330
1F
100
AcDbEntity
  8
AM_0
  6
中線
100
AcDbLine
 10
293.3351871150038
 20
237.5989379988537
 30
0.0
 11
293.3351871150038
 21
240.5989379988537
 31
0.0
  0
LINE
  5
BF98
330
1F
100
AcDbEntity
  8
AM_0
  6
中線
100
AcDbLine
 10
193.3351871150038
 20
237.5989379988537
 30
0.0
 11
193.3351871150038
 21
240.5989379988537
 31
0.0
  0
CIRCLE
  5
BF99
330
1F
100
AcDbEntity
  8
AM_0
  6
中線
100
AcDbCircle
 10
285.335187115004
 20
86.26152566897804
 30
0.0
 40
2.75
  0
CIRCLE
  5
BF9A
330
1F
100
AcDbEntity
  8
AM_0
  6
中線
100
AcDbCircle
 10
269.335187115004
 20
86.26152566897804
 30
0.0
 40
2.75
  0
CIRCLE
  5
BF9B
330
1F
100
AcDbEntity
  8
AM_0
  6
中線
100
AcDbCircle
 10
277.335187115004
 20
67.76152566897803
 30
0.0
 40
2.75
  0
CIRCLE
  5
BF9C
330
1F
100
AcDbEntity
  8
AM_0
  6
中線
100
AcDbCircle
 10
269.335187115004
 20
49.26152566897798
 30
0.0
 40
2.75
  0
CIRCLE
  5
BF9D
330
1F
100
AcDbEntity
  8
AM_0
  6
中線
100
AcDbCircle
 10
285.335187115004
 20
49.26152566897798
 30
0.0
 40
2.75
  0
CIRCLE
  5
BF9E
330
1F
100
AcDbEntity
  8
AM_0
100
AcDbCircle
 10
285.335187115004
 20
86.26152566897804
 30
0.0
 40
4.099999999999999
  0
CIRCLE
  5
BF9F
330
1F
100
AcDbEntity
  8
AM_0
100
AcDbCircle
 10
269.335187115004
 20
86.26152566897804
 30
0.0
 40
4.099999999999999
  0
CIRCLE
  5
BFA0
330
1F
100
AcDbEntity
  8
AM_0
100
AcDbCircle
 10
277.335187115004
 20
67.76152566897803
 30
0.0
 40
4.099999999999999
  0
CIRCLE
  5
BFA1
330
1F
100
AcDbEntity
  8
AM_0
100
AcDbCircle
 10
269.335187115004
 20
49.26152566897798
 30
0.0
 40
4.099999999999999
  0
CIRCLE
  5
BFA2
330
1F
100
AcDbEntity
  8
AM_0
100
AcDbCircle
 10
285.335187115004
 20
49.26152566897798
 30
0.0
 40
4.099999999999999
  0
CIRCLE
  5
BFA3
330
1F
100
AcDbEntity
  8
AM_0
  6
中線
100
AcDbCircle
 10
201.3351871150038
 20
150.2615256689782
 30
0.0
 40
2.75
  0
CIRCLE
  5
BFA4
330
1F
100
AcDbEntity
  8
AM_0
  6
中線
100
AcDbCircle
 10
217.3351871150038
 20
150.2615256689782
 30
0.0
 40
2.75
  0
CIRCLE
  5
BFA5
330
1F
100
AcDbEntity
  8
AM_0
  6
中線
100
AcDbCircle
 10
209.3351871150038
 20
131.7615256689782
 30
0.0
 40
2.75
  0
CIRCLE
  5
BFA6
330
1F
100
AcDbEntity
  8
AM_0
  6
中線
100
AcDbCircle
 10
217.3351871150038
 20
113.2615256689782
 30
0.0
 40
2.75
  0
CIRCLE
  5
BFA7
330
1F
100
AcDbEntity
  8
AM_0
  6
中線
100
AcDbCircle
 10
201.3351871150038
 20
113.2615256689782
 30
0.0
 40
2.75
  0
CIRCLE
  5
BFA8
330
1F
100
AcDbEntity
  8
AM_0
  6
中線
100
AcDbCircle
 10
201.3351871150038
 20
150.2615256689782
 30
0.0
 40
4.099999999999999
  0
CIRCLE
  5
BFA9
330
1F
100
AcDbEntity
  8
AM_0
  6
中線
100
AcDbCircle
 10
217.3351871150038
 20
150.2615256689782
 30
0.0
 40
4.099999999999999
  0
CIRCLE
  5
BFAA
330
1F
100
AcDbEntity
  8
AM_0
  6
中線
100
AcDbCircle
 10
209.3351871150038
 20
131.7615256689782
 30
0.0
 40
4.099999999999999
  0
CIRCLE
  5
BFAB
330
1F
100
AcDbEntity
  8
AM_0
  6
中線
100
AcDbCircle
 10
217.3351871150038
 20
113.2615256689782
 30
0.0
 40
4.099999999999999
  0
CIRCLE
  5
BFAC
330
1F
100
AcDbEntity
  8
AM_0
  6
中線
100
AcDbCircle
 10
201.3351871150038
 20
113.2615256689782
 30
0.0
 40
4.099999999999999
  0
ARC
  5
BFAD
330
1F
100
AcDbEntity
  8
AM_0
  6
中線
100
AcDbCircle
 10
255.5314981150039
 20
234.5989379988537
 30
0.0
 40
3.0
100
AcDbArc
 50
90.0
 51
159.747752999993
  0
LINE
  5
BFAF
330
1F
100
AcDbEntity
  8
AM_0
  6
中線
100
AcDbLine
 10
293.3351871150038
 20
237.5989379988537
 30
0.0
 11
255.5314981150039
 21
237.5989379988537
 31
0.0
  0
LINE
  5
BFB0
330
1F
100
AcDbEntity
  8
AM_0
  6
中線
100
AcDbLine
 10
293.3351871150038
 20
240.5989379988537
 30
0.0
 11
255.5314981150039
 21
240.5989379988537
 31
0.0
  0
ARC
  5
BFB1
330
1F
100
AcDbEntity
  8
AM_0
  6
中線
100
AcDbCircle
 10
231.1388761150037
 20
234.5989379988537
 30
0.0
 40
3.0
100
AcDbArc
 50
20.25224661654432
 51
90.0
  0
LINE
  5
BFB2
330
1F
100
AcDbEntity
  8
AM_0
  6
中線
100
AcDbLine
 10
231.1388761150037
 20
240.5989379988537
 30
0.0
 11
193.3351871150038
 21
240.5989379988537
 31
0.0
  0
LINE
  5
BFB3
330
1F
100
AcDbEntity
  8
AM_0
  6
中線
100
AcDbLine
 10
231.1388761150037
 20
237.5989379988537
 30
0.0
 11
193.3351871150038
 21
237.5989379988537
 31
0.0
  0
ARC
  5
BFB9
330
1F
100
AcDbEntity
  8
AM_0
  6
中線
100
AcDbCircle
 10
231.1388761150037
 20
243.5989379988537
 30
0.0
 40
3.0
100
AcDbArc
 50
270.0
 51
339.747752999993
  0
ARC
  5
BFBE
330
1F
100
AcDbEntity
  8
AM_0
  6
中線
100
AcDbCircle
 10
243.3351871150038
 20
239.0989379988537
 30
0.0
 40
10.0
100
AcDbArc
 50
200.2522466165443
 51
159.747752999993
  0
LINE
  5
BFBF
330
1F
100
AcDbEntity
  8
AM_0
  6
中線
100
AcDbLine
 10
252.3351871150038
 20
162.2615256689782
 30
0.0
 11
198.3351871150038
 21
162.2615256689782
 31
0.0
  0
ARC
  5
BFC0
330
1F
100
AcDbEntity
  8
AM_0
  6
中線
100
AcDbCircle
 10
198.3351871150038
 20
157.2615256689782
 30
0.0
 40
5.0
100
AcDbArc
 50
90.0
 51
180.0
  0
LINE
  5
BFC1
330
1F
100
AcDbEntity
  8
AM_0
  6
中線
100
AcDbLine
 10
253.3351871150038
 20
101.2615256689782
 30
0.0
 11
198.3351871150038
 21
101.2615256689782
 31
0.0
  0
ARC
  5
BFC2
330
1F
100
AcDbEntity
  8
AM_0
  6
中線
100
AcDbCircle
 10
198.3351871150038
 20
106.2615256689782
 30
0.0
 40
5.0
100
AcDbArc
 50
180.0
 51
270.0
  0
LINE
  5
BFC3
330
1F
100
AcDbEntity
  8
AM_0
  6
中線
100
AcDbLine
 10
193.3351871150038
 20
157.2615256689782
 30
0.0
 11
193.3351871150038
 21
106.2615256689782
 31
0.0
  0
LINE
  5
BFC4
330
1F
100
AcDbEntity
  8
AM_0
  6
中線
100
AcDbLine
 10
253.3351871150038
 20
161.2615256689782
 30
0.0
 11
253.3351871150038
 21
101.2615256689782
 31
0.0
  0
LINE
  5
BFC5
330
1F
100
AcDbEntity
  8
AM_0
  6
中線
100
AcDbLine
 10
233.3351871150038
 20
101.2615256689782
 30
0.0
 11
233.3351871150038
 21
162.2615256689782
 31
0.0
  0
LINE
  5
BFC7
330
1F
100
AcDbEntity
  8
AM_0
  6
中線
100
AcDbLine
 10
288.335187115004
 20
98.26152566897826
 30
0.0
 11
233.3351871150038
 21
98.26152566897826
 31
0.0
  0
ARC
  5
BFC8
330
1F
100
AcDbEntity
  8
AM_0
  6
中線
100
AcDbCircle
 10
288.335187115004
 20
93.26152566897803
 30
0.0
 40
5.0
100
AcDbArc
 50
0.0
 51
90.0
  0
LINE
  5
BFCC
330
1F
100
AcDbEntity
  8
AM_0
  6
中線
100
AcDbLine
 10
234.3351871150038
 20
37.26152566897798
 30
0.0
 11
288.335187115004
 21
37.26152566897798
 31
0.0
  0
ARC
  5
BFCD
330
1F
100
AcDbEntity
  8
AM_0
  6
中線
100
AcDbCircle
 10
288.335187115004
 20
42.26152566897797
 30
0.0
 40
5.0
100
AcDbArc
 50
270.0
 51
0.0
  0
LINE
  5
BFCE
330
1F
100
AcDbEntity
  8
AM_0
  6
中線
100
AcDbLine
 10
293.3351871150041
 20
42.26152566897797
 30
0.0
 11
293.3351871150041
 21
93.26152566897803
 31
0.0
  0
LINE
  5
BFCF
330
1F
100
AcDbEntity
  8
AM_0
  6
中線
100
AcDbLine
 10
253.3351871150038
 20
38.26152566897798
 30
0.0
 11
253.3351871150038
 21
98.26152566897826
 31
0.0
  0
LINE
  5
BFD0
330
1F
100
AcDbEntity
  8
AM_0
  6
中線
100
AcDbLine
 10
233.3351871150038
 20
38.26152566897798
 30
0.0
 11
233.3351871150038
 21
98.26152566897826
 31
0.0
  0
LINE
  5
BFD1
330
1F
100
AcDbEntity
  8
AM_0
100
AcDbLine
 10
243.2803781150036
 20
101.2615256689782
 30
0.0
 11
243.3351871150038
 21
101.316334668978
 31
0.0
  0
ARC
  5
BFD2
330
1F
100
AcDbEntity
  8
AM_0
  6
中線
100
AcDbCircle
 10
252.3351871150038
 20
38.26152566897798
 30
0.0
 40
1.0
100
AcDbArc
 50
270.0
 51
0.0
  0
ARC
  5
BFD3
330
1F
100
AcDbEntity
  8
AM_0
  6
中線
100
AcDbCircle
 10
252.3351871150038
 20
161.2615256689782
 30
0.0
 40
1.0
100
AcDbArc
 50
0.0
 51
90.0
  0
LINE
  5
BFD5
330
1F
100
AcDbEntity
  8
AM_7
  6
CENTER
100
AcDbLine
 10
201.3351871150042
 20
234.5989379988537
 30
0.0
 11
201.3351871150042
 21
243.5989379988537
 31
0.0
1001
GENIUS_GENODEF_13
1002
{
1000
HIER
1070
     0
1002
}
1002
{
1000
MANEDIT
1070
     0
1002
}
1002
{
1000
NOSEL
1070
     0
1002
}
1002
{
1000
BEHIND
1070
     0
1002
}
1002
{
1000
OTHER
1070
     0
1002
}
1002
{
1000
REACTOR
1002
}
1001
GENIUS_GENOBJ-N-CEN_13
1002
{
1000
OWNER
1000
GEN
1002
}
1001
GENIUS_GENCEN_19
1002
{
1040
3.0
1002
}
  0
LINE
  5
BFE5
330
1F
100
AcDbEntity
  8
AM_7
  6
CENTER
100
AcDbLine
 10
243.3351871150038
 20
31.26152566897798
 30
0.0
 11
243.3351871150038
 21
168.2615256689782
 31
0.0
1001
GENIUS_GENOBJ-N-CEN_13
1002
{
1000
OWNER
1000
GEN
1002
}
1001
GENIUS_GENODEF_13
1002
{
1000
HIER
1070
     0
1002
}
1002
{
1000
MANEDIT
1070
     0
1002
}
1002
{
1000
NOSEL
1070
     0
1002
}
1002
{
1000
BEHIND
1070
     0
1002
}
1002
{
1000
OTHER
1070
     0
1002
}
1002
{
1000
REACTOR
1002
}
1001
GENIUS_GENCEN_19
1002
{
1040
3.0
1002
}
  0
LINE
  5
BFE6
330
1F
100
AcDbEntity
  8
AM_7
  6
CENTER
100
AcDbLine
 10
285.3351871150043
 20
243.5989379988537
 30
0.0
 11
285.3351871150043
 21
234.5989379988537
 31
0.0
1001
GENIUS_GENODEF_13
1002
{
1000
HIER
1070
     0
1002
}
1002
{
1000
MANEDIT
1070
     0
1002
}
1002
{
1000
NOSEL
1070
     0
1002
}
1002
{
1000
BEHIND
1070
     0
1002
}
1002
{
1000
OTHER
1070
     0
1002
}
1002
{
1000
REACTOR
1002
}
1001
GENIUS_GENOBJ-N-CEN_13
1002
{
1000
OWNER
1000
GEN
1002
}
1001
GENIUS_GENCEN_19
1002
{
1040
3.0
1002
}
  0
LINE
  5
BFEC
330
1F
100
AcDbEntity
  8
AM_7
  6
CENTER
100
AcDbLine
 10
277.3351871150038
 20
243.5989379988537
 30
0.0
 11
277.3351871150038
 21
234.5989379988537
 31
0.0
1001
GENIUS_GENODEF_13
1002
{
1000
HIER
1070
     0
1002
}
1002
{
1000
MANEDIT
1070
     0
1002
}
1002
{
1000
NOSEL
1070
     0
1002
}
1002
{
1000
BEHIND
1070
     0
1002
}
1002
{
1000
OTHER
1070
     0
1002
}
1002
{
1000
REACTOR
1002
}
1001
GENIUS_GENOBJ-N-CEN_13
1002
{
1000
OWNER
1000
GEN
1002
}
1001
GENIUS_GENCEN_19
1002
{
1040
3.0
1002
}
  0
LINE
  5
BFF2
330
1F
100
AcDbEntity
  8
AM_7
  6
CENTER
100
AcDbLine
 10
269.3351871150038
 20
243.5989379988537
 30
0.0
 11
269.3351871150038
 21
234.5989379988537
 31
0.0
1001
GENIUS_GENODEF_13
1002
{
1000
HIER
1070
     0
1002
}
1002
{
1000
MANEDIT
1070
     0
1002
}
1002
{
1000
NOSEL
1070
     0
1002
}
1002
{
1000
BEHIND
1070
     0
1002
}
1002
{
1000
OTHER
1070
     0
1002
}
1002
{
1000
REACTOR
1002
}
1001
GENIUS_GENOBJ-N-CEN_13
1002
{
1000
OWNER
1000
GEN
1002
}
1001
GENIUS_GENCEN_19
1002
{
1040
3.0
1002
}
  0
LINE
  5
BFF8
330
1F
100
AcDbEntity
  8
AM_7
  6
CENTER
100
AcDbLine
 10
209.3351871150042
 20
234.5989379988537
 30
0.0
 11
209.3351871150042
 21
243.5989379988537
 31
0.0
1001
GENIUS_GENODEF_13
1002
{
1000
HIER
1070
     0
1002
}
1002
{
1000
MANEDIT
1070
     0
1002
}
1002
{
1000
NOSEL
1070
     0
1002
}
1002
{
1000
BEHIND
1070
     0
1002
}
1002
{
1000
OTHER
1070
     0
1002
}
1002
{
1000
REACTOR
1002
}
1001
GENIUS_GENOBJ-N-CEN_13
1002
{
1000
OWNER
1000
GEN
1002
}
1001
GENIUS_GENCEN_19
1002
{
1040
3.0
1002
}
  0
LINE
  5
BFFE
330
1F
100
AcDbEntity
  8
AM_7
  6
CENTER
100
AcDbLine
 10
217.3351871150043
 20
234.5989379988537
 30
0.0
 11
217.3351871150043
 21
243.5989379988537
 31
0.0
1001
GENIUS_GENODEF_13
1002
{
1000
HIER
1070
     0
1002
}
1002
{
1000
MANEDIT
1070
     0
1002
}
1002
{
1000
NOSEL
1070
     0
1002
}
1002
{
1000
BEHIND
1070
     0
1002
}
1002
{
1000
OTHER
1070
     0
1002
}
1002
{
1000
REACTOR
1002
}
1001
GENIUS_GENOBJ-N-CEN_13
1002
{
1000
OWNER
1000
GEN
1002
}
1001
GENIUS_GENCEN_19
1002
{
1040
3.0
1002
}
  0
LINE
  5
C00E
330
1F
100
AcDbEntity
  8
AM_7
  6
CENTER
100
AcDbLine
 10
217.3351871150038
 20
156.3615256689782
 30
0.0
 11
217.3351871150038
 21
143.1615256689781
 31
0.0
1001
GENIUS_GENOBJ-N-CEN_13
1002
{
1000
OWNER
1000
GEN
1002
}
1001
GENIUS_GENODEF_13
1002
{
1000
HIER
1070
     0
1002
}
1002
{
1000
MANEDIT
1070
     0
1002
}
1002
{
1000
NOSEL
1070
     0
1002
}
1002
{
1000
BEHIND
1070
     0
1002
}
1002
{
1000
OTHER
1070
     0
1002
}
1002
{
1000
REACTOR
1002
}
1001
GENIUS_GENCEN_19
1002
{
1040
3.0
1002
}
  0
LINE
  5
C00F
330
1F
100
AcDbEntity
  8
AM_7
  6
CENTER
100
AcDbLine
 10
224.4351871150038
 20
150.2615256689782
 30
0.0
 11
210.2351871150038
 21
150.2615256689782
 31
0.0
1001
GENIUS_GENOBJ-N-CEN_13
1002
{
1000
OWNER
1000
GEN
1002
}
1001
GENIUS_GENODEF_13
1002
{
1000
HIER
1070
     0
1002
}
1002
{
1000
MANEDIT
1070
     0
1002
}
1002
{
1000
NOSEL
1070
     0
1002
}
1002
{
1000
BEHIND
1070
     0
1002
}
1002
{
1000
OTHER
1070
     0
1002
}
1002
{
1000
REACTOR
1002
}
1001
GENIUS_GENCEN_19
1002
{
1040
3.0
1002
}
  0
LINE
  5
C010
330
1F
100
AcDbEntity
  8
AM_7
  6
CENTER
100
AcDbLine
 10
201.3351871150038
 20
156.3615256689782
 30
0.0
 11
201.3351871150038
 21
143.1615256689781
 31
0.0
1001
GENIUS_GENOBJ-N-CEN_13
1002
{
1000
OWNER
1000
GEN
1002
}
1001
GENIUS_GENODEF_13
1002
{
1000
HIER
1070
     0
1002
}
1002
{
1000
MANEDIT
1070
     0
1002
}
1002
{
1000
NOSEL
1070
     0
1002
}
1002
{
1000
BEHIND
1070
     0
1002
}
1002
{
1000
OTHER
1070
     0
1002
}
1002
{
1000
REACTOR
1002
}
1001
GENIUS_GENCEN_19
1002
{
1040
3.0
1002
}
  0
LINE
  5
C011
330
1F
100
AcDbEntity
  8
AM_7
  6
CENTER
100
AcDbLine
 10
208.4351871150038
 20
150.2615256689782
 30
0.0
 11
194.2351871150038
 21
150.2615256689782
 31
0.0
1001
GENIUS_GENOBJ-N-CEN_13
1002
{
1000
OWNER
1000
GEN
1002
}
1001
GENIUS_GENODEF_13
1002
{
1000
HIER
1070
     0
1002
}
1002
{
1000
MANEDIT
1070
     0
1002
}
1002
{
1000
NOSEL
1070
     0
1002
}
1002
{
1000
BEHIND
1070
     0
1002
}
1002
{
1000
OTHER
1070
     0
1002
}
1002
{
1000
REACTOR
1002
}
1001
GENIUS_GENCEN_19
1002
{
1040
3.0
1002
}
  0
LINE
  5
C012
330
1F
100
AcDbEntity
  8
AM_7
  6
CENTER
100
AcDbLine
 10
209.3351871150038
 20
138.8615256689782
 30
0.0
 11
209.3351871150038
 21
124.6615256689781
 31
0.0
1001
GENIUS_GENOBJ-N-CEN_13
1002
{
1000
OWNER
1000
GEN
1002
}
1001
GENIUS_GENODEF_13
1002
{
1000
HIER
1070
     0
1002
}
1002
{
1000
MANEDIT
1070
     0
1002
}
1002
{
1000
NOSEL
1070
     0
1002
}
1002
{
1000
BEHIND
1070
     0
1002
}
1002
{
1000
OTHER
1070
     0
1002
}
1002
{
1000
REACTOR
1002
}
1001
GENIUS_GENCEN_19
1002
{
1040
3.0
1002
}
  0
LINE
  5
C013
330
1F
100
AcDbEntity
  8
AM_7
  6
CENTER
100
AcDbLine
 10
216.4351871150038
 20
131.7615256689782
 30
0.0
 11
202.2351871150038
 21
131.7615256689782
 31
0.0
1001
GENIUS_GENOBJ-N-CEN_13
1002
{
1000
OWNER
1000
GEN
1002
}
1001
GENIUS_GENODEF_13
1002
{
1000
HIER
1070
     0
1002
}
1002
{
1000
MANEDIT
1070
     0
1002
}
1002
{
1000
NOSEL
1070
     0
1002
}
1002
{
1000
BEHIND
1070
     0
1002
}
1002
{
1000
OTHER
1070
     0
1002
}
1002
{
1000
REACTOR
1002
}
1001
GENIUS_GENCEN_19
1002
{
1040
3.0
1002
}
  0
LINE
  5
C014
330
1F
100
AcDbEntity
  8
AM_7
  6
CENTER
100
AcDbLine
 10
217.3351871150038
 20
120.3615256689781
 30
0.0
 11
217.3351871150038
 21
106.1615256689781
 31
0.0
1001
GENIUS_GENOBJ-N-CEN_13
1002
{
1000
OWNER
1000
GEN
1002
}
1001
GENIUS_GENODEF_13
1002
{
1000
HIER
1070
     0
1002
}
1002
{
1000
MANEDIT
1070
     0
1002
}
1002
{
1000
NOSEL
1070
     0
1002
}
1002
{
1000
BEHIND
1070
     0
1002
}
1002
{
1000
OTHER
1070
     0
1002
}
1002
{
1000
REACTOR
1002
}
1001
GENIUS_GENCEN_19
1002
{
1040
3.0
1002
}
  0
LINE
  5
C015
330
1F
100
AcDbEntity
  8
AM_7
  6
CENTER
100
AcDbLine
 10
224.4351871150038
 20
113.2615256689782
 30
0.0
 11
210.2351871150038
 21
113.2615256689782
 31
0.0
1001
GENIUS_GENOBJ-N-CEN_13
1002
{
1000
OWNER
1000
GEN
1002
}
1001
GENIUS_GENODEF_13
1002
{
1000
HIER
1070
     0
1002
}
1002
{
1000
MANEDIT
1070
     0
1002
}
1002
{
1000
NOSEL
1070
     0
1002
}
1002
{
1000
BEHIND
1070
     0
1002
}
1002
{
1000
OTHER
1070
     0
1002
}
1002
{
1000
REACTOR
1002
}
1001
GENIUS_GENCEN_19
1002
{
1040
3.0
1002
}
  0
LINE
  5
C016
330
1F
100
AcDbEntity
  8
AM_7
  6
CENTER
100
AcDbLine
 10
201.3351871150038
 20
120.3615256689781
 30
0.0
 11
201.3351871150038
 21
106.1615256689781
 31
0.0
1001
GENIUS_GENOBJ-N-CEN_13
1002
{
1000
OWNER
1000
GEN
1002
}
1001
GENIUS_GENODEF_13
1002
{
1000
HIER
1070
     0
1002
}
1002
{
1000
MANEDIT
1070
     0
1002
}
1002
{
1000
NOSEL
1070
     0
1002
}
1002
{
1000
BEHIND
1070
     0
1002
}
1002
{
1000
OTHER
1070
     0
1002
}
1002
{
1000
REACTOR
1002
}
1001
GENIUS_GENCEN_19
1002
{
1040
3.0
1002
}
  0
LINE
  5
C017
330
1F
100
AcDbEntity
  8
AM_7
  6
CENTER
100
AcDbLine
 10
208.4351871150038
 20
113.2615256689782
 30
0.0
 11
194.2351871150038
 21
113.2615256689782
 31
0.0
1001
GENIUS_GENOBJ-N-CEN_13
1002
{
1000
OWNER
1000
GEN
1002
}
1001
GENIUS_GENODEF_13
1002
{
1000
HIER
1070
     0
1002
}
1002
{
1000
MANEDIT
1070
     0
1002
}
1002
{
1000
NOSEL
1070
     0
1002
}
1002
{
1000
BEHIND
1070
     0
1002
}
1002
{
1000
OTHER
1070
     0
1002
}
1002
{
1000
REACTOR
1002
}
1001
GENIUS_GENCEN_19
1002
{
1040
3.0
1002
}
  0
LINE
  5
C018
330
1F
100
AcDbEntity
  8
AM_7
  6
CENTER
100
AcDbLine
 10
269.335187115004
 20
92.36152566897795
 30
0.0
 11
269.335187115004
 21
79.1615256689779
 31
0.0
1001
GENIUS_GENOBJ-N-CEN_13
1002
{
1000
OWNER
1000
GEN
1002
}
1001
GENIUS_GENODEF_13
1002
{
1000
HIER
1070
     0
1002
}
1002
{
1000
MANEDIT
1070
     0
1002
}
1002
{
1000
NOSEL
1070
     0
1002
}
1002
{
1000
BEHIND
1070
     0
1002
}
1002
{
1000
OTHER
1070
     0
1002
}
1002
{
1000
REACTOR
1002
}
1001
GENIUS_GENCEN_19
1002
{
1040
3.0
1002
}
  0
LINE
  5
C019
330
1F
100
AcDbEntity
  8
AM_7
  6
CENTER
100
AcDbLine
 10
262.235187115004
 20
86.26152566897804
 30
0.0
 11
276.435187115004
 21
86.26152566897804
 31
0.0
1001
GENIUS_GENOBJ-N-CEN_13
1002
{
1000
OWNER
1000
GEN
1002
}
1001
GENIUS_GENODEF_13
1002
{
1000
HIER
1070
     0
1002
}
1002
{
1000
MANEDIT
1070
     0
1002
}
1002
{
1000
NOSEL
1070
     0
1002
}
1002
{
1000
BEHIND
1070
     0
1002
}
1002
{
1000
OTHER
1070
     0
1002
}
1002
{
1000
REACTOR
1002
}
1001
GENIUS_GENCEN_19
1002
{
1040
3.0
1002
}
  0
LINE
  5
C01A
330
1F
100
AcDbEntity
  8
AM_7
  6
CENTER
100
AcDbLine
 10
285.335187115004
 20
92.36152566897795
 30
0.0
 11
285.335187115004
 21
79.1615256689779
 31
0.0
1001
GENIUS_GENOBJ-N-CEN_13
1002
{
1000
OWNER
1000
GEN
1002
}
1001
GENIUS_GENODEF_13
1002
{
1000
HIER
1070
     0
1002
}
1002
{
1000
MANEDIT
1070
     0
1002
}
1002
{
1000
NOSEL
1070
     0
1002
}
1002
{
1000
BEHIND
1070
     0
1002
}
1002
{
1000
OTHER
1070
     0
1002
}
1002
{
1000
REACTOR
1002
}
1001
GENIUS_GENCEN_19
1002
{
1040
3.0
1002
}
  0
LINE
  5
C01B
330
1F
100
AcDbEntity
  8
AM_7
  6
CENTER
100
AcDbLine
 10
278.235187115004
 20
86.26152566897804
 30
0.0
 11
292.4351871150041
 21
86.26152566897804
 31
0.0
1001
GENIUS_GENOBJ-N-CEN_13
1002
{
1000
OWNER
1000
GEN
1002
}
1001
GENIUS_GENODEF_13
1002
{
1000
HIER
1070
     0
1002
}
1002
{
1000
MANEDIT
1070
     0
1002
}
1002
{
1000
NOSEL
1070
     0
1002
}
1002
{
1000
BEHIND
1070
     0
1002
}
1002
{
1000
OTHER
1070
     0
1002
}
1002
{
1000
REACTOR
1002
}
1001
GENIUS_GENCEN_19
1002
{
1040
3.0
1002
}
  0
LINE
  5
C01C
330
1F
100
AcDbEntity
  8
AM_7
  6
CENTER
100
AcDbLine
 10
277.335187115004
 20
74.86152566897795
 30
0.0
 11
277.335187115004
 21
60.6615256689779
 31
0.0
1001
GENIUS_GENOBJ-N-CEN_13
1002
{
1000
OWNER
1000
GEN
1002
}
1001
GENIUS_GENODEF_13
1002
{
1000
HIER
1070
     0
1002
}
1002
{
1000
MANEDIT
1070
     0
1002
}
1002
{
1000
NOSEL
1070
     0
1002
}
1002
{
1000
BEHIND
1070
     0
1002
}
1002
{
1000
OTHER
1070
     0
1002
}
1002
{
1000
REACTOR
1002
}
1001
GENIUS_GENCEN_19
1002
{
1040
3.0
1002
}
  0
LINE
  5
C01D
330
1F
100
AcDbEntity
  8
AM_7
  6
CENTER
100
AcDbLine
 10
270.235187115004
 20
67.76152566897803
 30
0.0
 11
284.435187115004
 21
67.76152566897803
 31
0.0
1001
GENIUS_GENOBJ-N-CEN_13
1002
{
1000
OWNER
1000
GEN
1002
}
1001
GENIUS_GENODEF_13
1002
{
1000
HIER
1070
     0
1002
}
1002
{
1000
MANEDIT
1070
     0
1002
}
1002
{
1000
NOSEL
1070
     0
1002
}
1002
{
1000
BEHIND
1070
     0
1002
}
1002
{
1000
OTHER
1070
     0
1002
}
1002
{
1000
REACTOR
1002
}
1001
GENIUS_GENCEN_19
1002
{
1040
3.0
1002
}
  0
LINE
  5
C01E
330
1F
100
AcDbEntity
  8
AM_7
  6
CENTER
100
AcDbLine
 10
269.335187115004
 20
56.361525668978
 30
0.0
 11
269.335187115004
 21
42.16152566897796
 31
0.0
1001
GENIUS_GENOBJ-N-CEN_13
1002
{
1000
OWNER
1000
GEN
1002
}
1001
GENIUS_GENODEF_13
1002
{
1000
HIER
1070
     0
1002
}
1002
{
1000
MANEDIT
1070
     0
1002
}
1002
{
1000
NOSEL
1070
     0
1002
}
1002
{
1000
BEHIND
1070
     0
1002
}
1002
{
1000
OTHER
1070
     0
1002
}
1002
{
1000
REACTOR
1002
}
1001
GENIUS_GENCEN_19
1002
{
1040
3.0
1002
}
  0
LINE
  5
C01F
330
1F
100
AcDbEntity
  8
AM_7
  6
CENTER
100
AcDbLine
 10
262.235187115004
 20
49.26152566897798
 30
0.0
 11
276.435187115004
 21
49.26152566897798
 31
0.0
1001
GENIUS_GENOBJ-N-CEN_13
1002
{
1000
OWNER
1000
GEN
1002
}
1001
GENIUS_GENODEF_13
1002
{
1000
HIER
1070
     0
1002
}
1002
{
1000
MANEDIT
1070
     0
1002
}
1002
{
1000
NOSEL
1070
     0
1002
}
1002
{
1000
BEHIND
1070
     0
1002
}
1002
{
1000
OTHER
1070
     0
1002
}
1002
{
1000
REACTOR
1002
}
1001
GENIUS_GENCEN_19
1002
{
1040
3.0
1002
}
  0
LINE
  5
C020
330
1F
100
AcDbEntity
  8
AM_7
  6
CENTER
100
AcDbLine
 10
285.335187115004
 20
56.361525668978
 30
0.0
 11
285.335187115004
 21
42.16152566897796
 31
0.0
1001
GENIUS_GENOBJ-N-CEN_13
1002
{
1000
OWNER
1000
GEN
1002
}
1001
GENIUS_GENODEF_13
1002
{
1000
HIER
1070
     0
1002
}
1002
{
1000
MANEDIT
1070
     0
1002
}
1002
{
1000
NOSEL
1070
     0
1002
}
1002
{
1000
BEHIND
1070
     0
1002
}
1002
{
1000
OTHER
1070
     0
1002
}
1002
{
1000
REACTOR
1002
}
1001
GENIUS_GENCEN_19
1002
{
1040
3.0
1002
}
  0
LINE
  5
C021
330
1F
100
AcDbEntity
  8
AM_7
  6
CENTER
100
AcDbLine
 10
278.235187115004
 20
49.26152566897798
 30
0.0
 11
292.4351871150041
 21
49.26152566897798
 31
0.0
1001
GENIUS_GENOBJ-N-CEN_13
1002
{
1000
OWNER
1000
GEN
1002
}
1001
GENIUS_GENODEF_13
1002
{
1000
HIER
1070
     0
1002
}
1002
{
1000
MANEDIT
1070
     0
1002
}
1002
{
1000
NOSEL
1070
     0
1002
}
1002
{
1000
BEHIND
1070
     0
1002
}
1002
{
1000
OTHER
1070
     0
1002
}
1002
{
1000
REACTOR
1002
}
1001
GENIUS_GENCEN_19
1002
{
1040
3.0
1002
}
  0
DIMENSION
  5
C022
330
1F
100
AcDbEntity
  8
AM_5
  6
Continuous
100
AcDbDimension
  2
*D6
 10
181.2351871150038
 20
150.2615256689783
 30
0.0
 11
178.1351871150037
 21
141.0115256689783
 31
0.0
 70
    32
 71
     5
 42
18.5
  3
SYS$0
100
AcDbAlignedDimension
 13
202.2351871150038
 23
131.7615256689782
 33
0.0
 14
193.2351871150038
 24
150.2615256689782
 34
0.0
 50
270.0
100
AcDbRotatedDimension
  0
DIMENSION
  5
C023
330
1F
100
AcDbEntity
  8
AM_5
  6
Continuous
100
AcDbDimension
  2
*D7
 10
181.2351871150038
 20
113.2615256689782
 30
0.0
 11
178.1351871150037
 21
122.5115256689783
 31
0.0
 70
    32
 71
     5
 42
18.50000000000001
  3
SYS$0
100
AcDbAlignedDimension
 13
202.2351871150038
 23
131.7615256689782
 33
0.0
 14
193.2351871150038
 24
113.2615256689782
 34
0.0
 50
270.0
100
AcDbRotatedDimension
  0
DIMENSION
  5
C024
330
1F
100
AcDbEntity
  8
AM_5
  6
Continuous
100
AcDbDimension
  2
*D8
 10
181.2351871150037
 20
162.2615256689783
 30
0.0
 11
178.1351871150036
 21
156.2615256689783
 31
0.0
 70
    32
 71
     5
 42
12.0
  3
SYS$0
100
AcDbAlignedDimension
 13
193.3351871150038
 23
150.2615256689782
 33
0.0
 14
198.3351871150038
 24
162.2615256689782
 34
0.0
 50
270.0
100
AcDbRotatedDimension
  0
DIMENSION
  5
C025
330
1F
100
AcDbEntity
  8
AM_5
  6
Continuous
100
AcDbDimension
  2
*D9
 10
181.2351871150035
 20
113.2615256689782
 30
0.0
 11
178.1351871150035
 21
107.2615256689783
 31
0.0
 70
    32
 71
     5
 42
12.0
  3
SYS$0
100
AcDbAlignedDimension
 13
198.3351871150038
 23
101.2615256689782
 33
0.0
 14
193.3351871150038
 24
113.2615256689782
 34
0.0
 50
270.0
100
AcDbRotatedDimension
  0
DIMENSION
  5
C026
330
1F
100
AcDbEntity
  8
AM_5
  6
Continuous
100
AcDbDimension
  2
*D10
 10
171.2351871150035
 20
101.2615256689782
 30
0.0
 11
168.1351871150035
 21
131.7615256689783
 31
0.0
 70
    32
 71
     5
 42
61.00000000000001
  3
SYS$0
100
AcDbAlignedDimension
 13
198.3351871150038
 23
162.2615256689782
 33
0.0
 14
198.3351871150038
 24
101.2615256689782
 34
0.0
 50
270.0
100
AcDbRotatedDimension
  0
DIMENSION
  5
C027
330
1F
100
AcDbEntity
  8
AM_5
  6
Continuous
100
AcDbDimension
  2
*D11
 10
305.4351871150038
 20
86.26152566897827
 30
0.0
 11
302.3351871150038
 21
77.01152566897819
 31
0.0
 70
    32
 71
     5
 42
18.50000000000024
  3
SYS$0
100
AcDbAlignedDimension
 13
284.435187115004
 23
67.76152566897803
 33
0.0
 14
293.4351871150038
 24
86.26152566897827
 34
0.0
 50
270.0
100
AcDbRotatedDimension
  0
DIMENSION
  5
C028
330
1F
100
AcDbEntity
  8
AM_5
  6
Continuous
100
AcDbDimension
  2
*D12
 10
305.4351871150038
 20
49.2615256689782
 30
0.0
 11
302.3351871150038
 21
58.51152566897816
 31
0.0
 70
    32
 71
     5
 42
18.49999999999982
  3
SYS$0
100
AcDbAlignedDimension
 13
284.435187115004
 23
67.76152566897803
 33
0.0
 14
293.4351871150038
 24
49.26152566897821
 34
0.0
 50
270.0
100
AcDbRotatedDimension
  0
DIMENSION
  5
C029
330
1F
100
AcDbEntity
  8
AM_5
  6
Continuous
100
AcDbDimension
  2
*D13
 10
305.4351871150041
 20
98.26152566897826
 30
0.0
 11
302.335187115004
 21
92.26152566897832
 31
0.0
 70
    32
 71
     5
 42
12.0
  3
SYS$0
100
AcDbAlignedDimension
 13
293.3351871150038
 23
86.26152566897827
 33
0.0
 14
288.3351871150038
 24
98.26152566897826
 34
0.0
 50
270.0
100
AcDbRotatedDimension
  0
DIMENSION
  5
C02A
330
1F
100
AcDbEntity
  8
AM_5
  6
Continuous
100
AcDbDimension
  2
*D14
 10
305.4351871150041
 20
49.2615256689782
 30
0.0
 11
302.335187115004
 21
43.26152566897825
 31
0.0
 70
    32
 71
     5
 42
12.0
  3
SYS$0
100
AcDbAlignedDimension
 13
288.3351871150038
 23
37.26152566897821
 33
0.0
 14
293.3351871150038
 24
49.26152566897821
 34
0.0
 50
270.0
100
AcDbRotatedDimension
  0
DIMENSION
  5
C02B
330
1F
100
AcDbEntity
  8
AM_5
  6
Continuous
100
AcDbDimension
  2
*D15
 10
315.4351871150041
 20
37.2615256689782
 30
0.0
 11
312.335187115004
 21
67.76152566897829
 31
0.0
 70
    32
 71
     5
 42
61.00000000000006
  3
SYS$0
100
AcDbAlignedDimension
 13
288.3351871150038
 23
98.26152566897826
 33
0.0
 14
288.3351871150038
 24
37.26152566897821
 34
0.0
 50
270.0
100
AcDbRotatedDimension
  0
DIMENSION
  5
C02D
330
1F
100
AcDbEntity
  8
AM_5
  6
Continuous
100
AcDbDimension
  2
*D16
 10
161.2351871150033
 20
162.2615256689783
 30
0.0
 11
158.1351871150033
 21
99.76152566897816
 31
0.0
 70
    32
 71
     5
 42
125.0000000000003
  3
SYS$0
100
AcDbAlignedDimension
 13
234.3351871150038
 23
37.26152566897798
 33
0.0
 14
198.3351871150038
 24
162.2615256689782
 34
0.0
 50
270.0
100
AcDbRotatedDimension
  0
LINE
  5
C02E
330
1F
100
AcDbEntity
  8
AM_7
  6
CENTER
100
AcDbLine
 10
230.3351871150038
 20
239.0989379988537
 30
0.0
 11
256.3351871150038
 21
239.0989379988537
 31
0.0
1001
GENIUS_GENOBJ-N-CEN_13
1002
{
1000
OWNER
1000
GEN
1002
}
1001
GENIUS_GENODEF_13
1002
{
1000
HIER
1070
     0
1002
}
1002
{
1000
MANEDIT
1070
     0
1002
}
1002
{
1000
NOSEL
1070
     0
1002
}
1002
{
1000
BEHIND
1070
     0
1002
}
1002
{
1000
OTHER
1070
     0
1002
}
1002
{
1000
REACTOR
1002
}
1001
GENIUS_GENCEN_19
1002
{
1040
3.0
1002
}
  0
LINE
  5
C02F
330
1F
100
AcDbEntity
  8
AM_7
  6
CENTER
100
AcDbLine
 10
243.3351871150038
 20
252.0989379988537
 30
0.0
 11
243.3351871150038
 21
226.0989379988536
 31
0.0
1001
GENIUS_GENOBJ-N-CEN_13
1002
{
1000
OWNER
1000
GEN
1002
}
1001
GENIUS_GENODEF_13
1002
{
1000
HIER
1070
     0
1002
}
1002
{
1000
MANEDIT
1070
     0
1002
}
1002
{
1000
NOSEL
1070
     0
1002
}
1002
{
1000
BEHIND
1070
     0
1002
}
1002
{
1000
OTHER
1070
     0
1002
}
1002
{
1000
REACTOR
1002
}
1001
GENIUS_GENCEN_19
1002
{
1040
3.0
1002
}
  0
DIMENSION
  5
C030
330
1F
100
AcDbEntity
  8
AM_5
  6
Continuous
100
AcDbDimension
  2
*D17
 10
217.3351871150038
 20
175.2615266689781
 30
0.0
 11
230.3351871150038
 21
178.3615266689781
 31
0.0
 70
    32
 71
     5
 42
26.0
  3
SYS$0
100
AcDbAlignedDimension
 13
243.3351871150038
 23
168.2615256689782
 33
0.0
 14
217.3351871150038
 24
156.3615256689782
 34
0.0
100
AcDbRotatedDimension
  0
DIMENSION
  5
C031
330
1F
100
AcDbEntity
  8
AM_5
  6
Continuous
100
AcDbDimension
  2
*D18
 10
209.3351871150038
 20
175.2615266689781
 30
0.0
 11
213.3351871150038
 21
178.3615266689781
 31
0.0
 70
    32
 71
     5
 42
8.0
  3
SYS$0
100
AcDbAlignedDimension
 13
217.3351871150038
 23
156.3615256689782
 33
0.0
 14
209.3351871150038
 24
138.8615256689782
 34
0.0
100
AcDbRotatedDimension
  0
DIMENSION
  5
C032
330
1F
100
AcDbEntity
  8
AM_5
  6
Continuous
100
AcDbDimension
  2
*D19
 10
201.3351871150038
 20
175.2615266689781
 30
0.0
 11
205.3351871150038
 21
178.3615266689781
 31
0.0
 70
    32
 71
     5
 42
8.0
  3
SYS$0
100
AcDbAlignedDimension
 13
209.3351871150038
 23
138.8615256689782
 33
0.0
 14
201.3351871150038
 24
156.3615256689782
 34
0.0
100
AcDbRotatedDimension
  0
DIMENSION
  5
C033
330
1F
100
AcDbEntity
  8
AM_5
  6
Continuous
100
AcDbDimension
  2
*D20
 10
193.3351871150038
 20
175.2615266689781
 30
0.0
 11
197.3351871150038
 21
178.3615266689781
 31
0.0
 70
    32
 71
     5
 42
8.0
  3
SYS$0
100
AcDbAlignedDimension
 13
201.3351871150038
 23
156.3615256689782
 33
0.0
 14
193.3351871150038
 24
157.2615256689782
 34
0.0
100
AcDbRotatedDimension
  0
DIMENSION
  5
C034
330
1F
100
AcDbEntity
  8
AM_5
  6
Continuous
100
AcDbDimension
  2
*D21
 10
243.3351871150038
 20
185.2615266689781
 30
0.0
 11
218.3351871150038
 21
188.3615266689781
 31
0.0
 70
    32
 71
     5
 42
50.0
  3
SYS$0
100
AcDbAlignedDimension
 13
193.3351871150038
 23
157.2615256689782
 33
0.0
 14
243.3351871150038
 24
168.2615256689782
 34
0.0
100
AcDbRotatedDimension
  0
DIMENSION
  5
C035
330
1F
100
AcDbEntity
  8
AM_5
  6
Continuous
100
AcDbDimension
  2
*D22
 10
193.3351871150038
 20
195.2615266689781
 30
0.0
 11
243.3351871150039
 21
198.3615266689781
 31
0.0
 70
    32
 71
     5
 42
100.0000000000002
  3
SYS$0
100
AcDbAlignedDimension
 13
293.3351871150041
 23
93.26152566897803
 33
0.0
 14
193.3351871150038
 24
157.2615256689782
 34
0.0
100
AcDbRotatedDimension
  0
DIMENSION
  5
C036
330
1F
100
AcDbEntity
  8
AM_5
  6
Continuous
100
AcDbDimension
  2
*D23
 10
293.3351871150038
 20
24.26152465897798
 30
0.0
 11
289.3351871150039
 21
27.36152465897798
 31
0.0
 70
    32
 71
     5
 42
7.999999999999772
  3
SYS$0
100
AcDbAlignedDimension
 13
285.335187115004
 23
42.16152566897796
 33
0.0
 14
293.3351871150038
 24
42.26152566897797
 34
0.0
 50
180.0
100
AcDbRotatedDimension
  0
DIMENSION
  5
C037
330
1F
100
AcDbEntity
  8
AM_5
  6
Continuous
100
AcDbDimension
  2
*D24
 10
285.3351871150038
 20
24.26152465897798
 30
0.0
 11
281.3351871150038
 21
27.36152465897798
 31
0.0
 70
    32
 71
     5
 42
8.0
  3
SYS$0
100
AcDbAlignedDimension
 13
277.3351871150038
 23
60.6615256689779
 33
0.0
 14
285.3351871150038
 24
42.16152566897796
 34
0.0
 50
180.0
100
AcDbRotatedDimension
  0
DIMENSION
  5
C038
330
1F
100
AcDbEntity
  8
AM_5
  6
Continuous
100
AcDbDimension
  2
*D25
 10
269.3351871150038
 20
24.26152465897786
 30
0.0
 11
273.3351871150038
 21
27.36152465897787
 31
0.0
 70
    32
 71
     5
 42
8.0
  3
SYS$0
100
AcDbAlignedDimension
 13
277.3351871150038
 23
60.6615256689779
 33
0.0
 14
269.3351871150038
 24
42.16152566897796
 34
0.0
 50
180.0
100
AcDbRotatedDimension
  0
DIMENSION
  5
C039
330
1F
100
AcDbEntity
  8
AM_5
  6
Continuous
100
AcDbDimension
  2
*D26
 10
269.335187115004
 20
24.26152465897786
 30
0.0
 11
256.3351871150039
 21
27.36152465897787
 31
0.0
 70
    32
 71
     5
 42
26.00000000000023
  3
SYS$0
100
AcDbAlignedDimension
 13
243.3351871150038
 23
31.26152566897798
 33
0.0
 14
269.335187115004
 24
42.16152566897796
 34
0.0
 50
180.0
100
AcDbRotatedDimension
  0
DIMENSION
  5
C03D
330
1F
100
AcDbEntity
  8
AM_5
  6
Continuous
100
AcDbDimension
  2
*D5
 10
180.9179140007676
 20
237.5989379988537
 30
0.0
 11
180.9179140007676
 21
233.3522713321871
 31
0.0
 70
   160
  1
<>
 71
     5
 42
3.0
  3
SYS$0
100
AcDbAlignedDimension
 13
193.3351871150038
 23
240.5989379988537
 33
0.0
 14
193.3351871150038
 24
237.5989379988537
 34
0.0
 50
270.0
100
AcDbRotatedDimension
1001
ACAD
1000
DSTYLE
1002
{
1070
   286
1070
     0
1070
   284
1070
     8
1070
   274
1070
     2
1070
   272
1070
     2
1070
    47
1040
0.5
1070
    48
1040
0.0000000001
1002
}
  0
ARC
  5
C8DE
330
1F
100
AcDbEntity
  8
AM_0
  6
中線
100
AcDbCircle
 10
234.3351871150038
 20
38.26152566897798
 30
0.0
 40
1.0
100
AcDbArc
 50
180.0
 51
270.0
  0
DIMENSION
  5
C8E8
330
1F
100
AcDbEntity
  8
AM_5
  6
Continuous
100
AcDbDimension
  2
*D27
 10
171.2351871150028
 20
98.26152566897828
 30
0.0
 11
168.1351871150028
 21
94.01485900231163
 31
0.0
 70
    32
 71
     5
 42
2.999999999999985
  3
SYS$0
100
AcDbAlignedDimension
 13
198.3351871150038
 23
101.2615256689782
 33
0.0
 14
233.3351871150038
 24
98.26152566897826
 34
0.0
 50
90.0
100
AcDbRotatedDimension
  0
DIMENSION
  5
CB44
330
1F
100
AcDbEntity
  8
AM_5
  6
Continuous
100
AcDbDimension
  2
*D28
 10
293.3351871150041
 20
185.261526668978
 30
0.0
 11
268.3351871150039
 21
188.361526668978
 31
0.0
 70
    32
 71
     5
 42
50.00000000000023
  3
SYS$0
100
AcDbAlignedDimension
 13
243.3351871150038
 23
168.2615256689782
 33
0.0
 14
293.3351871150041
 24
93.26152566897803
 34
0.0
100
AcDbRotatedDimension
  0
ARC
  5
CD7F
330
1F
100
AcDbEntity
  8
AM_0
  6
中線
100
AcDbCircle
 10
255.5314981150039
 20
243.5989379988537
 30
0.0
 40
3.0
100
AcDbArc
 50
200.2522470000072
 51
270.0
  0
DIMENSION
  5
CDBF
330
1F
100
AcDbEntity
  8
AM_5
100
AcDbDimension
  2
*D29
 10
203.8227846641673
 20
147.0024063963226
 30
0.0
 11
165.289321647758
 21
175.2537197671724
 31
0.0
 70
   163
  1
10-%%c5.5×%%c8.2サラ
 71
     5
 42
8.199999999999988
  3
SYS$3
100
AcDbDiametricDimension
 15
198.8475895658402
 25
153.5206449416339
 35
0.0
 40
0.0
1001
ACAD
1000
DSTYLE
1002
{
1070
   172
1070
     1
1070
   342
1005
CDF8
1002
}
  0
LINE
  5
DB68
330
1F
100
AcDbEntity
  8
AM_0
100
AcDbLine
 10
252.3351871150039
 20
164.7615256689782
 30
0.0
 11
252.3351871150039
 21
162.2615256689782
 31
0.0
  0
LINE
  5
DB69
330
1F
100
AcDbEntity
  8
AM_0
100
AcDbLine
 10
251.8351871150039
 20
165.2615256689782
 30
0.0
 11
234.8351871150038
 21
165.2615256689782
 31
0.0
  0
LINE
  5
DB6A
330
1F
100
AcDbEntity
  8
AM_0
100
AcDbLine
 10
234.3351871150038
 20
164.7615256689782
 30
0.0
 11
234.3351871150038
 21
162.2615256689782
 31
0.0
  0
LINE
  5
DB6B
330
1F
100
AcDbEntity
  8
AM_0
100
AcDbLine
 10
234.3351871150038
 20
164.7615256689782
 30
0.0
 11
234.8351871150038
 21
165.2615256689782
 31
0.0
  0
LINE
  5
DB6C
330
1F
100
AcDbEntity
  8
AM_0
100
AcDbLine
 10
252.3351871150039
 20
164.7615256689782
 30
0.0
 11
251.8351871150039
 21
165.2615256689782
 31
0.0
  0
LINE
  5
DB6E
330
1F
100
AcDbEntity
  8
AM_2
100
AcDbLine
 10
234.3351871150038
 20
164.7615256689782
 30
0.0
 11
252.335187115004
 21
164.7615256689783
 31
0.0
  0
LINE
  5
DB6F
330
1F
100
AcDbEntity
  8
AM_0
100
AcDbLine
 10
252.3351871150039
 20
34.76152566897798
 30
0.0
 11
252.3351871150039
 21
37.26152566897798
 31
0.0
  0
LINE
  5
DB70
330
1F
100
AcDbEntity
  8
AM_0
100
AcDbLine
 10
251.8351871150039
 20
34.26152566897798
 30
0.0
 11
234.8351871150038
 21
34.26152566897798
 31
0.0
  0
LINE
  5
DB71
330
1F
100
AcDbEntity
  8
AM_0
100
AcDbLine
 10
234.3351871150038
 20
34.76152566897798
 30
0.0
 11
234.3351871150038
 21
37.26152566897798
 31
0.0
  0
LINE
  5
DB72
330
1F
100
AcDbEntity
  8
AM_0
100
AcDbLine
 10
234.3351871150038
 20
34.76152566897798
 30
0.0
 11
234.8351871150038
 21
34.26152566897798
 31
0.0
  0
LINE
  5
DB73
330
1F
100
AcDbEntity
  8
AM_0
100
AcDbLine
 10
252.3351871150039
 20
34.76152566897798
 30
0.0
 11
251.8351871150039
 21
34.26152566897798
 31
0.0
  0
LINE
  5
DB74
330
1F
100
AcDbEntity
  8
AM_2
100
AcDbLine
 10
234.3351871150038
 20
34.76152566897798
 30
0.0
 11
252.335187115004
 21
34.76152566897795
 31
0.0
  0
ARC
  5
DC84
330
1F
100
AcDbEntity
  8
AM_0
100
AcDbCircle
 10
236.3351871150038
 20
99.31633466897801
 30
0.0
 40
2.0
100
AcDbArc
 50
0.0
 51
90.0
  0
ARC
  5
DC85
330
1F
100
AcDbEntity
  8
AM_0
100
AcDbCircle
 10
250.3351871150039
 20
99.31633466897801
 30
0.0
 40
2.0
100
AcDbArc
 50
90.0
 51
180.0
  0
LINE
  5
DC86
330
1F
100
AcDbEntity
  8
AM_0
100
AcDbLine
 10
238.3351871150038
 20
99.31633466897801
 30
0.0
 11
238.3351871150038
 21
98.26152566897826
 31
0.0
  0
LINE
  5
DC87
330
1F
100
AcDbEntity
  8
AM_0
100
AcDbLine
 10
248.3351871150039
 20
99.31633466897801
 30
0.0
 11
248.3351871150039
 21
98.26152566897826
 31
0.0
  0
DIMENSION
  5
DCB8
330
1F
100
AcDbEntity
  8
AM_5
100
AcDbDimension
  2
*D81
 10
236.0486878451237
 20
245.9478012906736
 30
0.0
 11
262.9084709346193
 21
225.0171349312168
 31
0.0
 70
   163
 71
     5
 42
20.00000000000003
  3
SYS$3
100
AcDbDiametricDimension
 15
250.6216863848838
 25
232.2500747070339
 35
0.0
 40
0.0
1001
ACAD_DSTYLE_DIMRADIAL_EXTENSION
1070
   387
1070
     1
1070
   388
1040
3.495061037974372
1070
   390
1040
2.788124262512528
1001
ACAD_DSTYLE_DIMINSPECT
1070
   396
1000
100%
1070
   395
1000

1070
   394
1070
    33
1070
   393
1070
     0
1001
ACAD
1000
DSTYLE
1002
{
1070
   172
1070
     1
1070
   289
1070
     2
1070
   342
1005
CDF8
1002
}
  0
ENDSEC
  0
SECTION
  2
OBJECTS
  0
DICTIONARY
  5
C
330
0
100
AcDbDictionary
281
     1
  3
ACAD_2007HEADERVARS_RT
350
DDF9
  3
ACAD_BGPLOT_KEY
350
AB06
  3
ACAD_COLOR
350
A91D
  3
ACAD_GROUP
350
D
  3
ACAD_LAYOUT
350
1A
  3
ACAD_MATERIAL
350
A91C
  3
ACAD_MLEADERSTYLE
350
CEC8
  3
ACAD_MLINESTYLE
350
17
  3
ACAD_PLOTSETTINGS
350
19
  3
ACAD_PLOTSTYLENAME
350
E
  3
ACAD_SCALELIST
350
CEA6
  3
ACAD_TABLESTYLE
350
AAB9
  3
ACAD_VISUALSTYLE
350
B0F1
  3
AcAsAppObject
350
3DA1
  3
ACASGREF_MASTER
350
3DE9
  3
ACDB_RECOMPOSE_DATA
350
DDB0
  3
AcDbVariableDictionary
350
34
  3
AcmDictionary
350
47
  3
AD_GREF_MODULE
350
3DEA
  3
AD_MAPI_MODULE
350
3E06
  3
AMG
350
2B
  3
AMGSNAPSETTINGS
350
7D
  3
ASE_INDEX_DICTIONARY
350
B331
  3
DWGPROPS
350
DDF8
  3
MAPISURF_MODULE
350
3DEB
  0
DICTIONARY
  5
3F95
330
2
100
AcDbDictionary
280
     1
281
     1
  3
ACAD_LAYERFILTERS
360
B3A8
  3
ACAD_LAYERSTATES
360
3F96
  3
ACLYDICTIONARY
360
B3A7
  3
AMLAYER_GROUPCOLORS
360
AAB4
  0
DICTIONARY
  5
DD7A
330
10
100
AcDbDictionary
280
     1
281
     1
  3
ADSK_XREC_LAYER_RECONCILED
360
DD7B
  0
DICTIONARY
  5
DD7C
330
5F85
100
AcDbDictionary
280
     1
281
     1
  3
ADSK_XREC_LAYER_RECONCILED
360
DD7D
  0
DICTIONARY
  5
DD7E
330
AC9F
100
AcDbDictionary
280
     1
281
     1
  3
ADSK_XREC_LAYER_RECONCILED
360
DD7F
  0
DICTIONARY
  5
DD80
330
ACA0
100
AcDbDictionary
280
     1
281
     1
  3
ADSK_XREC_LAYER_RECONCILED
360
DD81
  0
DICTIONARY
  5
DD82
330
ACA1
100
AcDbDictionary
280
     1
281
     1
  3
ADSK_XREC_LAYER_RECONCILED
360
DD83
  0
DICTIONARY
  5
DD84
330
ACC8
100
AcDbDictionary
280
     1
281
     1
  3
ADSK_XREC_LAYER_RECONCILED
360
DD85
  0
DICTIONARY
  5
DD86
330
ACC9
100
AcDbDictionary
280
     1
281
     1
  3
ADSK_XREC_LAYER_RECONCILED
360
DD87
  0
DICTIONARY
  5
DD88
330
ACCA
100
AcDbDictionary
280
     1
281
     1
  3
ADSK_XREC_LAYER_RECONCILED
360
DD89
  0
DICTIONARY
  5
DD8A
330
AD60
100
AcDbDictionary
280
     1
281
     1
  3
ADSK_XREC_LAYER_RECONCILED
360
DD8B
  0
DICTIONARY
  5
DD8C
330
AD64
100
AcDbDictionary
280
     1
281
     1
  3
ADSK_XREC_LAYER_RECONCILED
360
DD8D
  0
DICTIONARY
  5
DD8E
330
AD67
100
AcDbDictionary
280
     1
281
     1
  3
ADSK_XREC_LAYER_RECONCILED
360
DD8F
  0
DICTIONARY
  5
DD90
330
AD68
100
AcDbDictionary
280
     1
281
     1
  3
ADSK_XREC_LAYER_RECONCILED
360
DD91
  0
DICTIONARY
  5
DD92
330
AD69
100
AcDbDictionary
280
     1
281
     1
  3
ADSK_XREC_LAYER_RECONCILED
360
DD93
  0
DICTIONARY
  5
DD94
330
AD6A
100
AcDbDictionary
280
     1
281
     1
  3
ADSK_XREC_LAYER_RECONCILED
360
DD95
  0
DICTIONARY
  5
DD96
330
AD6E
100
AcDbDictionary
280
     1
281
     1
  3
ADSK_XREC_LAYER_RECONCILED
360
DD97
  0
DICTIONARY
  5
DD98
330
AD6F
100
AcDbDictionary
280
     1
281
     1
  3
ADSK_XREC_LAYER_RECONCILED
360
DD99
  0
DICTIONARY
  5
DD9A
330
B1B6
100
AcDbDictionary
280
     1
281
     1
  3
ADSK_XREC_LAYER_RECONCILED
360
DD9B
  0
DICTIONARY
  5
DD9C
330
B2EB
100
AcDbDictionary
280
     1
281
     1
  3
ADSK_XREC_LAYER_RECONCILED
360
DD9D
  0
DICTIONARY
  5
DD9E
330
B2EC
100
AcDbDictionary
280
     1
281
     1
  3
ADSK_XREC_LAYER_RECONCILED
360
DD9F
  0
DICTIONARY
  5
DDA0
330
C385
100
AcDbDictionary
280
     1
281
     1
  3
ADSK_XREC_LAYER_RECONCILED
360
DDA1
  0
DICTIONARY
  5
DDA2
330
D110
100
AcDbDictionary
280
     1
281
     1
  3
ADSK_XREC_LAYER_RECONCILED
360
DDA3
  0
DICTIONARY
  5
DDA4
330
D111
100
AcDbDictionary
280
     1
281
     1
  3
ADSK_XREC_LAYER_RECONCILED
360
DDA5
  0
DICTIONARY
  5
8A
330
1F
100
AcDbDictionary
280
     1
281
     1
  3
ACAD_SORTENTS
360
B1BA
  0
DICTIONARY
  5
DDF9
102
{ACAD_REACTORS
330
C
102
}
330
C
100
AcDbDictionary
281
     1
  3
DIMARCSYM
350
DDFA
  0
DICTIONARY
  5
AB06
102
{ACAD_REACTORS
330
C
102
}
330
C
100
AcDbDictionary
280
     1
281
     1
  0
DICTIONARY
  5
A91D
102
{ACAD_REACTORS
330
C
102
}
330
C
100
AcDbDictionary
281
     1
  0
DICTIONARY
  5
D
102
{ACAD_REACTORS
330
C
102
}
330
C
100
AcDbDictionary
281
     1
  0
DICTIONARY
  5
1A
102
{ACAD_REACTORS
330
C
102
}
330
C
100
AcDbDictionary
281
     1
  3
Model
350
22
  3
ﾚｲｱｳﾄ1
350
1E
  3
ﾚｲｱｳﾄ2
350
26
  0
DICTIONARY
  5
A91C
102
{ACAD_REACTORS
330
C
102
}
330
C
100
AcDbDictionary
281
     1
  3
ByBlock
350
B0EF
  3
ByLayer
350
B0EE
  3
Global
350
B0F0
  0
DICTIONARY
  5
CEC8
102
{ACAD_REACTORS
330
C
102
}
330
C
100
AcDbDictionary
281
     1
  3
Standard
350
CEC9
  0
DICTIONARY
  5
17
102
{ACAD_REACTORS
330
C
102
}
330
C
100
AcDbDictionary
281
     1
  3
Standard
350
18
  0
DICTIONARY
  5
19
102
{ACAD_REACTORS
330
C
102
}
330
C
100
AcDbDictionary
281
     1
  3
01 A3フィット
350
B3F5
  3
02 A3
350
B3F6
  3
03 A2フィット
350
B3F7
  3
04 A2
350
B3F8
  3
05 A1フィット
350
B3F9
  3
06 A1
350
B3FA
  3
06 A4フィット
350
B3FB
  3
07 A4
350
B3FC
  0
ACDBDICTIONARYWDFLT
  5
E
102
{ACAD_REACTORS
330
C
102
}
330
C
100
AcDbDictionary
281
     1
  3
Normal
350
F
100
AcDbDictionaryWithDefault
340
F
  0
DICTIONARY
  5
CEA6
102
{ACAD_REACTORS
330
C
102
}
330
C
100
AcDbDictionary
281
     1
  3
A0
350
CEA7
  3
A1
350
CEA8
  3
A2
350
CEA9
  3
A3
350
CEAA
  3
A4
350
CEAB
  3
A5
350
CEAC
  3
A6
350
CEAD
  3
A7
350
CEAE
  3
A8
350
CEAF
  3
A9
350
CEB0
  3
B0
350
CEB1
  3
B1
350
CEB2
  3
B2
350
CEB3
  3
B3
350
CEB4
  3
B4
350
CEB5
  3
B5
350
CEB6
  3
B6
350
CEB7
  3
B7
350
CEB8
  3
B8
350
CEB9
  3
B9
350
CEBA
  3
C0
350
CEBB
  3
C1
350
CEBC
  3
C2
350
CEBD
  3
C3
350
CEBE
  3
C4
350
CEBF
  3
C5
350
CEC0
  3
C6
350
CEC1
  3
C7
350
CEC2
  3
C8
350
CEC3
  3
C9
350
CEC4
  3
D0
350
CEC5
  3
D1
350
CEC6
  3
D2
350
CEC7
  0
DICTIONARY
  5
AAB9
102
{ACAD_REACTORS
330
C
102
}
330
C
100
AcDbDictionary
281
     1
  3
Standard
350
AABA
  0
DICTIONARY
  5
B0F1
102
{ACAD_REACTORS
330
C
102
}
330
C
100
AcDbDictionary
281
     1
  3
2dWireframe
350
B0F7
  3
3D Hidden
350
B0F9
  3
3dWireframe
350
B0F8
  3
Basic
350
B0F6
  3
Brighten
350
B0FD
  3
ColorChange
350
B101
  3
Conceptual
350
B0FA
  3
Dim
350
B0FC
  3
Facepattern
350
B100
  3
Flat
350
B0F2
  3
FlatWithEdges
350
B0F3
  3
Gouraud
350
B0F4
  3
GouraudWithEdges
350
B0F5
  3
Linepattern
350
B0FF
  3
Realistic
350
B0FB
  3
Thicken
350
B0FE
  0
ACAD_PROXY_OBJECT
  5
3DA1
102
{ACAD_REACTORS
330
C
102
}
330
C
100
AcDbProxyObject
 90
      499
 91
      576
 95
   917527
 70
     0
 93
       10
310
407F
 94
        0
1001
ACAD
1000
AcRTDxfName
1000
ASAPP
  0
ACAD_PROXY_OBJECT
  5
3DE9
102
{ACAD_REACTORS
330
C
102
}
330
C
100
AcDbProxyObject
 90
      499
 91
      581
 95
   917527
 70
     0
 93
       34
310
010000407F
 94
        0
1001
ACAD
1000
AcRTDxfName
1000
ACASGREFMASTER
  0
XRECORD
  5
DDB0
102
{ACAD_REACTORS
330
C
102
}
330
C
100
AcDbXrecord
280
     1
 90
        1
330
AABA
  0
DICTIONARY
  5
34
102
{ACAD_REACTORS
330
C
102
}
330
C
100
AcDbDictionary
281
     1
  3
CANNOSCALE
350
DDB3
  3
CMLEADERSTYLE
350
DDB1
  3
CTABLESTYLE
350
AAF3
  3
DIMASSOC
350
A10C
  3
FIELDEVAL
350
AB07
  3
INDEXCTL
350
35
  3
LIGHTINGUNITS
350
DDB4
  3
MSLTSCALE
350
DDB2
  3
SORTENTS
350
194C
  0
DICTIONARY
  5
47
102
{ACAD_REACTORS
330
C
102
}
330
C
100
AcDbDictionary
281
     1
  3
AcmBOM
350
7E8
  3
AcmStdDictionary
350
4C
  3
AMDTSECTSYM_ARROWCOLOR
350
A929
  0
ACAD_PROXY_OBJECT
  5
3DEA
102
{ACAD_REACTORS
330
C
102
}
330
C
100
AcDbProxyObject
 90
      499
 91
      582
 95
   917527
 70
     0
 93
      114
310
00000043800000000000000000003F
 94
        0
1001
ACAD
1000
AcRTDxfName
1000
ACADGREFMODULE
  0
ACAD_PROXY_OBJECT
  5
3E06
102
{ACAD_REACTORS
330
C
102
}
330
C
100
AcDbProxyObject
 90
      499
 91
      594
 95
   917527
 70
     0
 93
       34
310
05000044FF
 94
        0
1001
ACAD
1000
AcRTDxfName
1000
MAPIADMODULE
  0
DICTIONARY
  5
2B
102
{ACAD_REACTORS
330
C
102
}
330
C
100
AcDbDictionary
281
     1
  0
DICTIONARY
  5
7D
102
{ACAD_REACTORS
330
C
102
}
330
C
100
AcDbDictionary
281
     1
  0
DICTIONARY
  5
B331
102
{ACAD_REACTORS
330
C
102
}
330
C
100
AcDbDictionary
281
     1
  3
ASEBlockHierarchyIndexRecord
350
B332
1001
DCO15
1040
1594111214.218
  0
XRECORD
  5
DDF8
102
{ACAD_REACTORS
330
C
102
}
330
C
100
AcDbXrecord
280
     1
  1
DWGPROPS COOKIE
  2

  3

  4

  6

  7

  8
Administrator
  9

300
AmdtFileType=84
301
=
302
=
303
=
304
=
305
=
306
=
307
=
308
=
309
=
 40
0.090931875
 41
2454623.67255515
 42
2456267.60774522
  1

 90
        1
  0
ACAD_PROXY_OBJECT
  5
3DEB
102
{ACAD_REACTORS
330
C
102
}
330
C
100
AcDbProxyObject
 90
      499
 91
      583
 95
   917527
 70
     0
 93
        8
310
047E
 94
        0
1001
ACAD
1000
AcRTDxfName
1000
AMDTMAPISURFMOUDULE
  0
DICTIONARY
  5
B3A8
102
{ACAD_REACTORS
330
3F95
102
}
330
3F95
100
AcDbDictionary
281
     1
  0
DICTIONARY
  5
3F96
102
{ACAD_REACTORS
330
3F95
102
}
330
3F95
100
AcDbDictionary
281
     1
  3
20011210
350
3FB7
  0
DICTIONARY
  5
B3A7
102
{ACAD_REACTORS
330
3F95
102
}
330
3F95
100
AcDbDictionary
281
     1
1001
ACAD
1000
<All
  0
DICTIONARY
  5
AAB4
102
{ACAD_REACTORS
330
3F95
102
}
330
3F95
100
AcDbDictionary
280
     1
281
     1
  0
XRECORD
  5
DD7B
102
{ACAD_REACTORS
330
DD7A
102
}
330
DD7A
100
AcDbXrecord
280
     1
290
     1
  0
XRECORD
  5
DD7D
102
{ACAD_REACTORS
330
DD7C
102
}
330
DD7C
100
AcDbXrecord
280
     1
290
     1
  0
XRECORD
  5
DD7F
102
{ACAD_REACTORS
330
DD7E
102
}
330
DD7E
100
AcDbXrecord
280
     1
290
     1
  0
XRECORD
  5
DD81
102
{ACAD_REACTORS
330
DD80
102
}
330
DD80
100
AcDbXrecord
280
     1
290
     1
  0
XRECORD
  5
DD83
102
{ACAD_REACTORS
330
DD82
102
}
330
DD82
100
AcDbXrecord
280
     1
290
     1
  0
XRECORD
  5
DD85
102
{ACAD_REACTORS
330
DD84
102
}
330
DD84
100
AcDbXrecord
280
     1
290
     1
  0
XRECORD
  5
DD87
102
{ACAD_REACTORS
330
DD86
102
}
330
DD86
100
AcDbXrecord
280
     1
290
     1
  0
XRECORD
  5
DD89
102
{ACAD_REACTORS
330
DD88
102
}
330
DD88
100
AcDbXrecord
280
     1
290
     1
  0
XRECORD
  5
DD8B
102
{ACAD_REACTORS
330
DD8A
102
}
330
DD8A
100
AcDbXrecord
280
     1
290
     1
  0
XRECORD
  5
DD8D
102
{ACAD_REACTORS
330
DD8C
102
}
330
DD8C
100
AcDbXrecord
280
     1
290
     1
  0
XRECORD
  5
DD8F
102
{ACAD_REACTORS
330
DD8E
102
}
330
DD8E
100
AcDbXrecord
280
     1
290
     1
  0
XRECORD
  5
DD91
102
{ACAD_REACTORS
330
DD90
102
}
330
DD90
100
AcDbXrecord
280
     1
290
     1
  0
XRECORD
  5
DD93
102
{ACAD_REACTORS
330
DD92
102
}
330
DD92
100
AcDbXrecord
280
     1
290
     1
  0
XRECORD
  5
DD95
102
{ACAD_REACTORS
330
DD94
102
}
330
DD94
100
AcDbXrecord
280
     1
290
     1
  0
XRECORD
  5
DD97
102
{ACAD_REACTORS
330
DD96
102
}
330
DD96
100
AcDbXrecord
280
     1
290
     1
  0
XRECORD
  5
DD99
102
{ACAD_REACTORS
330
DD98
102
}
330
DD98
100
AcDbXrecord
280
     1
290
     1
  0
XRECORD
  5
DD9B
102
{ACAD_REACTORS
330
DD9A
102
}
330
DD9A
100
AcDbXrecord
280
     1
290
     1
  0
XRECORD
  5
DD9D
102
{ACAD_REACTORS
330
DD9C
102
}
330
DD9C
100
AcDbXrecord
280
     1
290
     1
  0
XRECORD
  5
DD9F
102
{ACAD_REACTORS
330
DD9E
102
}
330
DD9E
100
AcDbXrecord
280
     1
290
     1
  0
XRECORD
  5
DDA1
102
{ACAD_REACTORS
330
DDA0
102
}
330
DDA0
100
AcDbXrecord
280
     1
290
     1
  0
XRECORD
  5
DDA3
102
{ACAD_REACTORS
330
DDA2
102
}
330
DDA2
100
AcDbXrecord
280
     1
290
     1
  0
XRECORD
  5
DDA5
102
{ACAD_REACTORS
330
DDA4
102
}
330
DDA4
100
AcDbXrecord
280
     1
290
     1
  0
SORTENTSTABLE
  5
B1BA
102
{ACAD_REACTORS
330
8A
102
}
330
8A
100
AcDbSortentsTable
330
1F
  0
XRECORD
  5
DDFA
102
{ACAD_REACTORS
330
DDF9
102
}
330
DDF9
100
AcDbXrecord
280
     1
 70
     1
  0
LAYOUT
  5
22
102
{ACAD_XDICTIONARY
360
DDFD
102
}
102
{ACAD_REACTORS
330
1A
102
}
330
1A
100
AcDbPlotSettings
  1

  2
Adobe PDF
  4
A3
  6
AM_VIEW1
 40
3.174999952316284
 41
3.174999952316284
 42
3.17498779296875
 43
3.17498779296875
 44
297.0318298339844
 45
420.1583251953125
 46
8.84092104434967
 47
16.40416872501373
 48
0.0
 49
0.0
140
381.0
141
273.0
142
1.0
143
1.0
 70
  3748
 72
     1
 73
     1
 74
     4
  7
monochrome.ctb
 75
     0
147
0.7332350343138307
148
0.0
149
0.0
100
AcDbLayout
  1
Model
 70
     1
 71
     0
 10
0.0
 20
0.0
 11
12.0
 21
9.0
 12
0.0
 22
0.0
 32
0.0
 14
0.0
 24
0.0
 34
0.0
 15
0.0
 25
0.0
 35
0.0
146
0.0
 13
0.0
 23
0.0
 33
0.0
 16
1.0
 26
0.0
 36
0.0
 17
0.0
 27
1.0
 37
0.0
 76
     0
330
1F
331
B0EC
1001
ACAD_PSEXT
1000
Adobe PDF
1000
Adobe PDF Converter
1000
My Documents\*.pdf
1000

1070
     0
  0
LAYOUT
  5
1E
102
{ACAD_XDICTIONARY
360
DDFB
102
}
102
{ACAD_REACTORS
330
1A
102
}
330
1A
100
AcDbPlotSettings
  1

  2
\\ML370\XEROX
  4
A4
  6

 40
3.174999952316284
 41
3.174999952316284
 42
3.175003051757812
 43
3.17498779296875
 44
209.8674926757813
 45
296.6719970703125
 46
0.0
 47
0.0
 48
0.0
 49
0.0
140
0.0
141
0.0
142
1.0
143
1.0
 70
   688
 72
     1
 73
     1
 74
     5
  7
monochrome.ctb
 75
    16
147
1.0
148
0.0
149
0.0
100
AcDbLayout
  1
ﾚｲｱｳﾄ1
 70
     1
 71
     1
 10
-3.17498779296875
 20
-3.174999952316284
 11
293.4970092773438
 21
206.692492723465
 12
0.0
 22
0.0
 32
0.0
 14
1.000000000000000E+20
 24
1.000000000000000E+20
 34
1.000000000000000E+20
 15
-1.000000000000000E+20
 25
-1.000000000000000E+20
 35
-1.000000000000000E+20
146
0.0
 13
0.0
 23
0.0
 33
0.0
 16
1.0
 26
0.0
 36
0.0
 17
0.0
 27
1.0
 37
0.0
 76
     0
330
1B
  0
LAYOUT
  5
26
102
{ACAD_XDICTIONARY
360
DDFF
102
}
102
{ACAD_REACTORS
330
1A
102
}
330
1A
100
AcDbPlotSettings
  1

  2
\\ML370\XEROX
  4

  6

 40
0.0
 41
0.0
 42
0.0
 43
0.0
 44
0.0
 45
0.0
 46
0.0
 47
0.0
 48
0.0
 49
0.0
140
0.0
141
0.0
142
1.0
143
1.0
 70
   688
 72
     0
 73
     0
 74
     5
  7
monochrome.ctb
 75
    16
147
1.0
148
0.0
149
0.0
100
AcDbLayout
  1
ﾚｲｱｳﾄ2
 70
     1
 71
     2
 10
0.0
 20
0.0
 11
12.0
 21
9.0
 12
0.0
 22
0.0
 32
0.0
 14
0.0
 24
0.0
 34
0.0
 15
0.0
 25
0.0
 35
0.0
146
0.0
 13
0.0
 23
0.0
 33
0.0
 16
1.0
 26
0.0
 36
0.0
 17
0.0
 27
1.0
 37
0.0
 76
     0
330
23
  0
MATERIAL
  5
B0EF
102
{ACAD_XDICTIONARY
360
DE04
102
}
102
{ACAD_REACTORS
330
A91C
102
}
330
A91C
100
AcDbMaterial
  1
ByBlock
  0
MATERIAL
  5
B0EE
102
{ACAD_XDICTIONARY
360
DE02
102
}
102
{ACAD_REACTORS
330
A91C
102
}
330
A91C
100
AcDbMaterial
  1
ByLayer
  0
MATERIAL
  5
B0F0
102
{ACAD_XDICTIONARY
360
DE06
102
}
102
{ACAD_REACTORS
330
A91C
102
}
330
A91C
100
AcDbMaterial
  1
Global
  0
ACAD_PROXY_OBJECT
  5
CEC9
102
{ACAD_REACTORS
330
CEC8
102
}
330
CEC8
100
AcDbProxyObject
 90
      499
 91
      630
 95
  1703963
 70
     0
 93
      817
310
40901902A40600000030400FEFFFFFF8000000000000008102B5E8DC0F42B5CFC0000000000001040405064068000000C1000000000000000410000000000000004102000000304015D94000000000000C03F4214C01D0018401B80190018401C80190028C00CC
340
14
340
0
340
11
340
0
 94
        0
1001
ACAD_MLEADERVER
1070
     2
1001
ACAD
1000
AcRTDxfName
1000
MLEADERSTYLE
  0
MLINESTYLE
  5
18
102
{ACAD_REACTORS
330
17
102
}
330
17
100
AcDbMlineStyle
  2
STANDARD
 70
     0
  3

 62
   256
 51
90.0
 52
90.0
 71
     2
 49
0.5
 62
   256
  6
BYLAYER
 49
-0.5
 62
   256
  6
BYLAYER
  0
PLOTSETTINGS
  5
B3F5
102
{ACAD_XDICTIONARY
360
DE08
102
}
102
{ACAD_REACTORS
330
19
102
}
330
19
100
AcDbPlotSettings
  1
01 A3フィット
  2
FX DocuWide 2050/2051
  4
A3
  6

 40
3.174999952316284
 41
3.174999952316284
 42
3.17498779296875
 43
3.17498779296875
 44
296.989501953125
 45
419.9889831542968
 46
0.0
 47
1.295841228961961
 48
214.3704939521119
 49
367.5855324241176
140
275.6727856380065
141
407.629191407817
142
1.0
143
1.445089120606129
 70
  3764
 72
     1
 73
     1
 74
     2
  7
monochrome.ctb
 75
     0
147
0.6919988433519999
148
0.0
149
0.0
1001
ACAD_PSEXT
1000
FX DocuWide 2050/2051
1000
FX DocuWide 2050/2051
1000
IP_192.200.15.252
1000

1070
     0
  0
PLOTSETTINGS
  5
B3F6
102
{ACAD_XDICTIONARY
360
DE0A
102
}
102
{ACAD_REACTORS
330
19
102
}
330
19
100
AcDbPlotSettings
  1
02 A3
  2
FX DocuWide 2050/2051
  4
A3
  6

 40
3.174999952316284
 41
3.174999952316284
 42
3.17498779296875
 43
3.17498779296875
 44
296.989501953125
 45
419.9889831542968
 46
-64.68024289608002
 47
-90.18050229549407
 48
214.3704939521119
 49
367.5855324241176
140
275.6727856380065
141
407.629191407817
142
1.0
143
1.0
 70
  3764
 72
     1
 73
     1
 74
     2
  7
monochrome.ctb
 75
    16
147
1.0
148
0.0
149
0.0
1001
ACAD_PSEXT
1000
FX DocuWide 2050/2051
1000
FX DocuWide 2050/2051
1000
IP_192.200.15.252
1000

1070
     0
  0
PLOTSETTINGS
  5
B3F7
102
{ACAD_XDICTIONARY
360
DE0C
102
}
102
{ACAD_REACTORS
330
19
102
}
330
19
100
AcDbPlotSettings
  1
03 A2フィット
  2
FX DocuWide 2050/2051
  4
User66
  6

 40
3.174999952316284
 41
3.174999952316284
 42
3.17498779296875
 43
3.17498779296875
 44
419.9889831542968
 45
593.97900390625
 46
0.0
 47
1.312647041252716
 48
214.3704939521119
 49
367.5855324241176
140
275.6727856380065
141
407.629191407817
142
1.0
143
1.015378155013403
 70
  3764
 72
     1
 73
     1
 74
     2
  7
monochrome.ctb
 75
     0
147
0.9848547509738377
148
0.0
149
0.0
1001
ACAD_PSEXT
1000
FX DocuWide 2050/2051
1000
FX DocuWide 2050/2051
1000
IP_192.200.15.252
1000

1070
     0
  0
PLOTSETTINGS
  5
B3F8
102
{ACAD_XDICTIONARY
360
DE0E
102
}
102
{ACAD_REACTORS
330
19
102
}
330
19
100
AcDbPlotSettings
  1
04 A2
  2
FX DocuWide 2050/2051
  4
User66
  6

 40
3.174999952316284
 41
3.174999952316284
 42
3.17498779296875
 43
3.17498779296875
 44
419.9889831542968
 45
593.97900390625
 46
-3.180502295494079
 47
-3.185491919517517
 48
214.3704939521119
 49
367.5855324241176
140
275.6727856380065
141
407.629191407817
142
1.0
143
1.0
 70
  3764
 72
     1
 73
     1
 74
     2
  7
monochrome.ctb
 75
    16
147
1.0
148
0.0
149
0.0
1001
ACAD_PSEXT
1000
FX DocuWide 2050/2051
1000
FX DocuWide 2050/2051
1000
IP_192.200.15.252
1000

1070
     0
  0
PLOTSETTINGS
  5
B3F9
102
{ACAD_XDICTIONARY
360
DE10
102
}
102
{ACAD_REACTORS
330
19
102
}
330
19
100
AcDbPlotSettings
  1
05 A1フィット
  2
FX DocuWide 2050/2051
  4
User139
  6

 40
3.174999952316284
 41
3.174999952316284
 42
3.17498779296875
 43
3.17498779296875
 44
593.97900390625
 45
840.9939575195313
 46
0.0
 47
1.784323459012171
 48
214.3704939521119
 49
367.5855324241176
140
275.6727856380065
141
407.629191407817
142
1.0
143
0.7147366594384652
 70
  3764
 72
     1
 73
     1
 74
     2
  7
monochrome.ctb
 75
     0
147
1.399116705145154
148
0.0
149
0.0
1001
ACAD_PSEXT
1000
FX DocuWide 2050/2051
1000
FX DocuWide 2050/2051
1000
IP_192.200.15.252
1000

1070
     0
  0
PLOTSETTINGS
  5
B3FA
102
{ACAD_XDICTIONARY
360
DE12
102
}
102
{ACAD_REACTORS
330
19
102
}
330
19
100
AcDbPlotSettings
  1
06 A1
  2
FX DocuWide 2050/2051
  4
User139
  6

 40
3.174999952316284
 41
3.174999952316284
 42
3.17498779296875
 43
3.17498779296875
 44
593.97900390625
 45
840.9939575195313
 46
83.81450808048247
 47
120.3219848871231
 48
214.3704939521119
 49
367.5855324241176
140
275.6727856380065
141
407.629191407817
142
1.0
143
1.0
 70
  3764
 72
     1
 73
     1
 74
     2
  7
monochrome.ctb
 75
    16
147
1.0
148
0.0
149
0.0
1001
ACAD_PSEXT
1000
FX DocuWide 2050/2051
1000
FX DocuWide 2050/2051
1000
IP_192.200.15.252
1000

1070
     0
  0
PLOTSETTINGS
  5
B3FB
102
{ACAD_XDICTIONARY
360
DE14
102
}
102
{ACAD_REACTORS
330
19
102
}
330
19
100
AcDbPlotSettings
  1
06 A4フィット
  2
FX DocuWide 2050/2051
  4
A4
  6

 40
3.174999952316284
 41
3.174999952316284
 42
3.175003051757812
 43
3.17498779296875
 44
209.9944915771484
 45
296.989501953125
 46
0.0
 47
1.314011612960285
 48
214.3704939521119
 49
367.5855324241176
140
275.6727856380065
141
407.629191407817
142
1.0
143
2.06241771109504
 70
  3764
 72
     1
 73
     1
 74
     2
  7
monochrome.ctb
 75
     0
147
0.4848678299358913
148
0.0
149
0.0
1001
ACAD_PSEXT
1000
FX DocuWide 2050/2051
1000
FX DocuWide 2050/2051
1000
IP_192.200.15.252
1000

1070
     0
  0
PLOTSETTINGS
  5
B3FC
102
{ACAD_XDICTIONARY
360
DE16
102
}
102
{ACAD_REACTORS
330
19
102
}
330
19
100
AcDbPlotSettings
  1
07 A4
  2
FX DocuWide 2050/2051
  4
A4
  6

 40
3.174999952316284
 41
3.174999952316284
 42
3.175003051757812
 43
3.17498779296875
 44
209.9944915771484
 45
296.989501953125
 46
-108.1777557134628
 47
-151.68024289608
 48
214.3704939521119
 49
367.5855324241176
140
275.6727856380065
141
407.629191407817
142
1.0
143
1.0
 70
  3764
 72
     1
 73
     1
 74
     2
  7
monochrome.ctb
 75
    16
147
1.0
148
0.0
149
0.0
1001
ACAD_PSEXT
1000
FX DocuWide 2050/2051
1000
FX DocuWide 2050/2051
1000
IP_192.200.15.252
1000

1070
     0
  0
ACDBPLACEHOLDER
  5
F
102
{ACAD_REACTORS
330
E
102
}
330
E
  0
ACAD_PROXY_OBJECT
  5
CEA7
102
{ACAD_REACTORS
330
CEA6
102
}
330
CEA6
100
AcDbProxyObject
 90
      499
 91
      629
 95
  1703963
 70
     0
 93
       82
310
968198801D0018801D004C
 94
        0
1001
ACAD
1000
AcRTDxfName
1000
SCALE
  0
ACAD_PROXY_OBJECT
  5
CEA8
102
{ACAD_REACTORS
330
CEA6
102
}
330
CEA6
100
AcDbProxyObject
 90
      499
 91
      629
 95
  1703963
 70
     0
 93
      146
310
9000000000000001008198801D0019001D004C
 94
        0
1001
ACAD
1000
AcRTDxfName
1000
SCALE
  0
ACAD_PROXY_OBJECT
  5
CEA9
102
{ACAD_REACTORS
330
CEA6
102
}
330
CEA6
100
AcDbProxyObject
 90
      499
 91
      629
 95
  1703963
 70
     0
 93
      146
310
9000000000000041008198801D001A001D004C
 94
        0
1001
ACAD
1000
AcRTDxfName
1000
SCALE
  0
ACAD_PROXY_OBJECT
  5
CEAA
102
{ACAD_REACTORS
330
CEA6
102
}
330
CEA6
100
AcDbProxyObject
 90
      499
 91
      629
 95
  1703963
 70
     0
 93
      146
310
9000000000000051008198801D001A801D004C
 94
        0
1001
ACAD
1000
AcRTDxfName
1000
SCALE
  0
ACAD_PROXY_OBJECT
  5
CEAB
102
{ACAD_REACTORS
330
CEA6
102
}
330
CEA6
100
AcDbProxyObject
 90
      499
 91
      629
 95
  1703963
 70
     0
 93
      146
310
9000000000000081008198801D001C001D004C
 94
        0
1001
ACAD
1000
AcRTDxfName
1000
SCALE
  0
ACAD_PROXY_OBJECT
  5
CEAC
102
{ACAD_REACTORS
330
CEA6
102
}
330
CEA6
100
AcDbProxyObject
 90
      499
 91
      629
 95
  1703963
 70
     0
 93
      162
310
9000000000000091008218801D001880180025004C
 94
        0
1001
ACAD
1000
AcRTDxfName
1000
SCALE
  0
ACAD_PROXY_OBJECT
  5
CEAD
102
{ACAD_REACTORS
330
CEA6
102
}
330
CEA6
100
AcDbProxyObject
 90
      499
 91
      629
 95
  1703963
 70
     0
 93
      162
310
90000000000000C1008218801D0018801B0025004C
 94
        0
1001
ACAD
1000
AcRTDxfName
1000
SCALE
  0
ACAD_PROXY_OBJECT
  5
CEAE
102
{ACAD_REACTORS
330
CEA6
102
}
330
CEA6
100
AcDbProxyObject
 90
      499
 91
      629
 95
  1703963
 70
     0
 93
      162
310
90000000000000D1008218801D001900180025004C
 94
        0
1001
ACAD
1000
AcRTDxfName
1000
SCALE
  0
ACAD_PROXY_OBJECT
  5
CEAF
102
{ACAD_REACTORS
330
CEA6
102
}
330
CEA6
100
AcDbProxyObject
 90
      499
 91
      629
 95
  1703963
 70
     0
 93
      162
310
90000000000000F9008218801D001980180025004C
 94
        0
1001
ACAD
1000
AcRTDxfName
1000
SCALE
  0
ACAD_PROXY_OBJECT
  5
CEB0
102
{ACAD_REACTORS
330
CEA6
102
}
330
CEA6
100
AcDbProxyObject
 90
      499
 91
      629
 95
  1703963
 70
     0
 93
      162
310
9000000000000111008218801D001A00180025004C
 94
        0
1001
ACAD
1000
AcRTDxfName
1000
SCALE
  0
ACAD_PROXY_OBJECT
  5
CEB1
102
{ACAD_REACTORS
330
CEA6
102
}
330
CEA6
100
AcDbProxyObject
 90
      499
 91
      629
 95
  1703963
 70
     0
 93
      162
310
9000000000000125008218801D001A80180025004C
 94
        0
1001
ACAD
1000
AcRTDxfName
1000
SCALE
  0
ACAD_PROXY_OBJECT
  5
CEB2
102
{ACAD_REACTORS
330
CEA6
102
}
330
CEA6
100
AcDbProxyObject
 90
      499
 91
      629
 95
  1703963
 70
     0
 93
      178
310
9000000000000165008298801D001880180018002D004C
 94
        0
1001
ACAD
1000
AcRTDxfName
1000
SCALE
  0
ACAD_PROXY_OBJECT
  5
CEB3
102
{ACAD_REACTORS
330
CEA6
102
}
330
CEA6
100
AcDbProxyObject
 90
      499
 91
      629
 95
  1703963
 70
     0
 93
      146
310
8000000000000004048199001D0018801D004C
 94
        0
1001
ACAD
1000
AcRTDxfName
1000
SCALE
  0
ACAD_PROXY_OBJECT
  5
CEB4
102
{ACAD_REACTORS
330
CEA6
102
}
330
CEA6
100
AcDbProxyObject
 90
      499
 91
      629
 95
  1703963
 70
     0
 93
      146
310
800000000000010404819A001D0018801D004C
 94
        0
1001
ACAD
1000
AcRTDxfName
1000
SCALE
  0
ACAD_PROXY_OBJECT
  5
CEB5
102
{ACAD_REACTORS
330
CEA6
102
}
330
CEA6
100
AcDbProxyObject
 90
      499
 91
      629
 95
  1703963
 70
     0
 93
      146
310
800000000000020404819C001D0018801D004C
 94
        0
1001
ACAD
1000
AcRTDxfName
1000
SCALE
  0
ACAD_PROXY_OBJECT
  5
CEB6
102
{ACAD_REACTORS
330
CEA6
102
}
330
CEA6
100
AcDbProxyObject
 90
      499
 91
      629
 95
  1703963
 70
     0
 93
      162
310
80000000000002440482188018001D00188025004C
 94
        0
1001
ACAD
1000
AcRTDxfName
1000
SCALE
  0
ACAD_PROXY_OBJECT
  5
CEB7
102
{ACAD_REACTORS
330
CEA6
102
}
330
CEA6
100
AcDbProxyObject
 90
      499
 91
      629
 95
  1703963
 70
     0
 93
      178
310
800000000000059404829880180018001D0018802D004C
 94
        0
1001
ACAD
1000
AcRTDxfName
1000
SCALE
  0
ACAD_PROXY_OBJECT
  5
CEB8
102
{ACAD_REACTORS
330
CEA6
102
}
330
CEA6
100
AcDbProxyObject
 90
      499
 91
      629
 95
  1703963
 70
     0
 93
      386
310
8000000000000803F0000000000000A1008718801780188019001C00110010001E8010001880138016801800110075004C
 94
        0
1001
ACAD
1000
AcRTDxfName
1000
SCALE
  0
ACAD_PROXY_OBJECT
  5
CEB9
102
{ACAD_REACTORS
330
CEA6
102
}
330
CEA6
100
AcDbProxyObject
 90
      499
 91
      629
 95
  1703963
 70
     0
 93
      370
310
8000000000000903F0000000000000A10086988017801B001A00110010001E801000188013801680180011006D004C
 94
        0
1001
ACAD
1000
AcRTDxfName
1000
SCALE
  0
ACAD_PROXY_OBJECT
  5
CEBA
102
{ACAD_REACTORS
330
CEA6
102
}
330
CEA6
100
AcDbProxyObject
 90
      499
 91
      629
 95
  1703963
 70
     0
 93
      370
310
8000000000000A03F0000000000000A100869880178019801900110010001E801000188013801680180011006D004C
 94
        0
1001
ACAD
1000
AcRTDxfName
1000
SCALE
  0
ACAD_PROXY_OBJECT
  5
CEBB
102
{ACAD_REACTORS
330
CEA6
102
}
330
CEA6
100
AcDbProxyObject
 90
      499
 91
      629
 95
  1703963
 70
     0
 93
      370
310
8000000000000B03F0000000000000A100869880178018801B00110010001E801000188013801680180011006D004C
 94
        0
1001
ACAD
1000
AcRTDxfName
1000
SCALE
  0
ACAD_PROXY_OBJECT
  5
CEBC
102
{ACAD_REACTORS
330
CEA6
102
}
330
CEA6
100
AcDbProxyObject
 90
      499
 91
      629
 95
  1703963
 70
     0
 93
      370
310
8000000000000B83F0000000000000A100869980178019801900110010001E801000188013801680180011006D004C
 94
        0
1001
ACAD
1000
AcRTDxfName
1000
SCALE
  0
ACAD_PROXY_OBJECT
  5
CEBD
102
{ACAD_REACTORS
330
CEA6
102
}
330
CEA6
100
AcDbProxyObject
 90
      499
 91
      629
 95
  1703963
 70
     0
 93
      354
310
8000000000000C03F0000000000000A10086188017801C00110010001E8010001880138016801800110065004C
 94
        0
1001
ACAD
1000
AcRTDxfName
1000
SCALE
  0
ACAD_PROXY_OBJECT
  5
CEBE
102
{ACAD_REACTORS
330
CEA6
102
}
330
CEA6
100
AcDbProxyObject
 90
      499
 91
      629
 95
  1703963
 70
     0
 93
      370
310
8000000000000C83F0000000000000A100869980178018801B00110010001E801000188013801680180011006D004C
 94
        0
1001
ACAD
1000
AcRTDxfName
1000
SCALE
  0
ACAD_PROXY_OBJECT
  5
CEBF
102
{ACAD_REACTORS
330
CEA6
102
}
330
CEA6
100
AcDbProxyObject
 90
      499
 91
      629
 95
  1703963
 70
     0
 93
      354
310
8000000000000D03F0000000000000A10086188017801A00110010001E8010001880138016801800110065004C
 94
        0
1001
ACAD
1000
AcRTDxfName
1000
SCALE
  0
ACAD_PROXY_OBJECT
  5
CEC0
102
{ACAD_REACTORS
330
CEA6
102
}
330
CEA6
100
AcDbProxyObject
 90
      499
 91
      629
 95
  1703963
 70
     0
 93
      354
310
8000000000000D83F0000000000000A10086198017801C00110010001E8010001880138016801800110065004C
 94
        0
1001
ACAD
1000
AcRTDxfName
1000
SCALE
  0
ACAD_PROXY_OBJECT
  5
CEC1
102
{ACAD_REACTORS
330
CEA6
102
}
330
CEA6
100
AcDbProxyObject
 90
      499
 91
      629
 95
  1703963
 70
     0
 93
      354
310
8000000000000E03F0000000000000A10086188017801900110010001E8010001880138016801800110065004C
 94
        0
1001
ACAD
1000
AcRTDxfName
1000
SCALE
  0
ACAD_PROXY_OBJECT
  5
CEC2
102
{ACAD_REACTORS
330
CEA6
102
}
330
CEA6
100
AcDbProxyObject
 90
      499
 91
      629
 95
  1703963
 70
     0
 93
      354
310
8000000000000E83F0000000000000A10086198017801A00110010001E8010001880138016801800110065004C
 94
        0
1001
ACAD
1000
AcRTDxfName
1000
SCALE
  0
ACAD_PROXY_OBJECT
  5
CEC3
102
{ACAD_REACTORS
330
CEA6
102
}
330
CEA6
100
AcDbProxyObject
 90
      499
 91
      629
 95
  1703963
 70
     0
 93
      258
310
90000000000000A100851880110010001E8010001880138016801800110055004C
 94
        0
1001
ACAD
1000
AcRTDxfName
1000
SCALE
  0
ACAD_PROXY_OBJECT
  5
CEC4
102
{ACAD_REACTORS
330
CEA6
102
}
330
CEA6
100
AcDbProxyObject
 90
      499
 91
      629
 95
  1703963
 70
     0
 93
      386
310
8000000000000F83F0000000000000A1008718801680188017801900110010001E8010001880138016801800110075004C
 94
        0
1001
ACAD
1000
AcRTDxfName
1000
SCALE
  0
ACAD_PROXY_OBJECT
  5
CEC5
102
{ACAD_REACTORS
330
CEA6
102
}
330
CEA6
100
AcDbProxyObject
 90
      499
 91
      629
 95
  1703963
 70
     0
 93
      322
310
800000000000008400000000000000A100851980110010001E8010001880138016801800110055004C
 94
        0
1001
ACAD
1000
AcRTDxfName
1000
SCALE
  0
ACAD_PROXY_OBJECT
  5
CEC6
102
{ACAD_REACTORS
330
CEA6
102
}
330
CEA6
100
AcDbProxyObject
 90
      499
 91
      629
 95
  1703963
 70
     0
 93
      322
310
800000000000018400000000000000A100851B00110010001E8010001880138016801800110055004C
 94
        0
1001
ACAD
1000
AcRTDxfName
1000
SCALE
  0
ACAD_PROXY_OBJECT
  5
CEC7
102
{ACAD_REACTORS
330
CEA6
102
}
330
CEA6
100
AcDbProxyObject
 90
      499
 91
      629
 95
  1703963
 70
     0
 93
      370
310
800000000000028400000000000000A100869880138016801800110010001E801000188013801680180011006D004C
 94
        0
1001
ACAD
1000
AcRTDxfName
1000
SCALE
  0
TABLESTYLE
  5
AABA
102
{ACAD_XDICTIONARY
360
DDAE
102
}
102
{ACAD_REACTORS
330
AAB9
102
}
330
AAB9
100
AcDbTableStyle
  3
Standard
 70
     0
 71
     0
 40
1.5
 41
1.5
280
     0
281
     0
  7
STANDARD
140
4.5
170
     2
 62
     0
 63
     7
283
     0
274
    -2
284
     1
 64
     0
275
    -2
285
     1
 65
     0
276
    -2
286
     1
 66
     0
277
    -2
287
     1
 67
     0
278
    -2
288
     1
 68
     0
279
    -2
289
     1
 69
     0
  7
STANDARD
140
6.0
170
     5
 62
     0
 63
     7
283
     0
274
    -2
284
     1
 64
     0
275
    -2
285
     1
 65
     0
276
    -2
286
     1
 66
     0
277
    -2
287
     1
 67
     0
278
    -2
288
     1
 68
     0
279
    -2
289
     1
 69
     0
  7
STANDARD
140
4.5
170
     5
 62
     0
 63
     7
283
     0
274
    -2
284
     1
 64
     0
275
    -2
285
     1
 65
     0
276
    -2
286
     1
 66
     0
277
    -2
287
     1
 67
     0
278
    -2
288
     1
 68
     0
279
    -2
289
     1
 69
     0
  0
VISUALSTYLE
  5
B0F7
102
{ACAD_REACTORS
330
B0F1
102
}
330
B0F1
100
AcDbVisualStyle
  2
2dWireframe
 70
     4
 71
     0
 72
     2
 73
     0
 90
        0
 40
-0.6
 41
-30.0
 62
     5
 63
     7
 74
     1
 91
        4
 64
     7
 65
   257
 75
     1
175
     1
 42
1.0
 92
        0
 66
   257
 43
1.0
 76
     1
 77
     6
 78
     2
 67
     7
 79
     5
170
     0
171
     0
290
     0
174
     0
 93
        1
 44
0.0
173
     0
291
     0
 45
0.0
1001
ACAD
1000
AcDbSavedByObjectVersion
1070
     0
  0
VISUALSTYLE
  5
B0F9
102
{ACAD_REACTORS
330
B0F1
102
}
330
B0F1
100
AcDbVisualStyle
  2
3D Hidden
 70
     6
 71
     1
 72
     2
 73
     2
 90
        0
 40
-0.6
 41
-30.0
 62
     5
 63
     7
 74
     2
 91
        2
 64
     7
 65
   257
 75
     2
175
     1
 42
40.0
 92
        0
 66
   257
 43
1.0
 76
     1
 77
     6
 78
     2
 67
     7
 79
     3
170
     0
171
     0
290
     0
174
     0
 93
        1
 44
0.0
173
     0
291
     0
 45
0.0
1001
ACAD
1000
AcDbSavedByObjectVersion
1070
     0
  0
VISUALSTYLE
  5
B0F8
102
{ACAD_REACTORS
330
B0F1
102
}
330
B0F1
100
AcDbVisualStyle
  2
3dWireframe
 70
     5
 71
     0
 72
     2
 73
     0
 90
        0
 40
-0.6
 41
-30.0
 62
     5
 63
     7
 74
     1
 91
        4
 64
     7
 65
   257
 75
     1
175
     1
 42
1.0
 92
        0
 66
   257
 43
1.0
 76
     1
 77
     6
 78
     2
 67
     7
 79
     5
170
     0
171
     0
290
     0
174
     0
 93
        1
 44
0.0
173
     0
291
     0
 45
0.0
1001
ACAD
1000
AcDbSavedByObjectVersion
1070
     0
  0
VISUALSTYLE
  5
B0F6
102
{ACAD_REACTORS
330
B0F1
102
}
330
B0F1
100
AcDbVisualStyle
  2
Basic
 70
     7
 71
     1
 72
     0
 73
     1
 90
        0
 40
-0.6
 41
-30.0
 62
     5
 63
     7
 74
     0
 91
        4
 64
     7
 65
   257
 75
     1
175
     1
 42
1.0
 92
        8
 66
     7
 43
1.0
 76
     1
 77
     6
 78
     2
 67
     7
 79
     5
170
     0
171
     0
290
     0
174
     0
 93
        1
 44
0.0
173
     0
291
     1
 45
0.0
1001
ACAD
1000
AcDbSavedByObjectVersion
1070
     0
  0
VISUALSTYLE
  5
B0FD
102
{ACAD_REACTORS
330
B0F1
102
}
330
B0F1
100
AcDbVisualStyle
  2
Brighten
 70
    12
 71
     2
 72
     2
 73
     0
 90
        0
 40
-0.6
 41
-30.0
 62
     5
 63
     7
 74
     1
 91
        4
 64
     7
 65
   257
 75
     1
175
     1
 42
1.0
 92
        8
 66
     7
 43
1.0
 76
     1
 77
     6
 78
     2
 67
     7
 79
     5
170
     0
171
     0
290
     0
174
     0
 93
        1
 44
50.0
173
     0
291
     1
 45
0.0
1001
ACAD
1000
AcDbSavedByObjectVersion
1070
     0
  0
VISUALSTYLE
  5
B101
102
{ACAD_REACTORS
330
B0F1
102
}
330
B0F1
100
AcDbVisualStyle
  2
ColorChange
 70
    16
 71
     2
 72
     2
 73
     3
 90
        0
 40
-0.6
 41
-30.0
 62
     5
 63
     8
 74
     1
 91
        4
 64
     7
 65
   257
 75
     1
175
     1
 42
1.0
 92
        8
 66
     8
 43
1.0
 76
     1
 77
     6
 78
     2
 67
     7
 79
     5
170
     0
171
     0
290
     0
174
     0
 93
        1
 44
0.0
173
     0
291
     1
 45
0.0
1001
ACAD
1000
AcDbSavedByObjectVersion
1070
     0
  0
VISUALSTYLE
  5
B0FA
102
{ACAD_REACTORS
330
B0F1
102
}
330
B0F1
100
AcDbVisualStyle
  2
Conceptual
 70
     9
 71
     3
 72
     2
 73
     0
 90
        0
 40
-0.6
 41
-30.0
 62
     5
 63
     7
 74
     2
 91
        2
 64
     7
 65
   257
 75
     1
175
     1
 42
40.0
 92
        8
 66
     7
 43
1.0
 76
     1
 77
     6
 78
     2
 67
     7
 79
     3
170
     0
171
     0
290
     0
174
     0
 93
        1
 44
0.0
173
     0
291
     0
 45
0.0
1001
ACAD
1000
AcDbSavedByObjectVersion
1070
     0
  0
VISUALSTYLE
  5
B0FC
102
{ACAD_REACTORS
330
B0F1
102
}
330
B0F1
100
AcDbVisualStyle
  2
Dim
 70
    11
 71
     2
 72
     2
 73
     0
 90
        0
 40
-0.6
 41
-30.0
 62
     5
 63
     7
 74
     1
 91
        4
 64
     7
 65
   257
 75
     1
175
     1
 42
1.0
 92
        8
 66
     7
 43
1.0
 76
     1
 77
     6
 78
     2
 67
     7
 79
     5
170
     0
171
     0
290
     0
174
     0
 93
        1
 44
-50.0
173
     0
291
     1
 45
0.0
1001
ACAD
1000
AcDbSavedByObjectVersion
1070
     0
  0
VISUALSTYLE
  5
B100
102
{ACAD_REACTORS
330
B0F1
102
}
330
B0F1
100
AcDbVisualStyle
  2
Facepattern
 70
    15
 71
     2
 72
     2
 73
     0
 90
        0
 40
-0.6
 41
-30.0
 62
     5
 63
     7
 74
     1
 91
        4
 64
     7
 65
   257
 75
     1
175
     1
 42
1.0
 92
        8
 66
     7
 43
1.0
 76
     1
 77
     6
 78
     2
 67
     7
 79
     5
170
     0
171
     0
290
     0
174
     0
 93
        1
 44
0.0
173
     0
291
     1
 45
0.0
1001
ACAD
1000
AcDbSavedByObjectVersion
1070
     0
  0
VISUALSTYLE
  5
B0F2
102
{ACAD_REACTORS
330
B0F1
102
}
330
B0F1
100
AcDbVisualStyle
  2
Flat
 70
     0
 71
     2
 72
     1
 73
     1
 90
        2
 40
-0.6
 41
30.0
 62
     5
 63
     7
 74
     0
 91
        4
 64
     7
 65
   257
 75
     1
175
     1
 42
1.0
 92
        8
 66
     7
 43
1.0
 76
     1
 77
     6
 78
     2
 67
     7
 79
     5
170
     0
171
     0
290
     0
174
     0
 93
       13
 44
0.0
173
     0
291
     1
 45
0.0
1001
ACAD
1000
AcDbSavedByObjectVersion
1070
     0
  0
VISUALSTYLE
  5
B0F3
102
{ACAD_REACTORS
330
B0F1
102
}
330
B0F1
100
AcDbVisualStyle
  2
FlatWithEdges
 70
     1
 71
     2
 72
     1
 73
     1
 90
        2
 40
-0.6
 41
30.0
 62
     5
 63
     7
 74
     1
 91
        4
 64
     7
 65
   257
 75
     1
175
     1
 42
1.0
 92
        0
 66
   257
 43
1.0
 76
     1
 77
     6
 78
     2
 67
     7
 79
     5
170
     0
171
     0
290
     0
174
     0
 93
       13
 44
0.0
173
     0
291
     1
 45
0.0
1001
ACAD
1000
AcDbSavedByObjectVersion
1070
     0
  0
VISUALSTYLE
  5
B0F4
102
{ACAD_REACTORS
330
B0F1
102
}
330
B0F1
100
AcDbVisualStyle
  2
Gouraud
 70
     2
 71
     2
 72
     2
 73
     1
 90
        2
 40
-0.6
 41
30.0
 62
     5
 63
     7
 74
     0
 91
        4
 64
     7
 65
   257
 75
     1
175
     1
 42
1.0
 92
        0
 66
     7
 43
1.0
 76
     1
 77
     6
 78
     2
 67
     7
 79
     5
170
     0
171
     0
290
     0
174
     0
 93
       13
 44
0.0
173
     0
291
     1
 45
0.0
1001
ACAD
1000
AcDbSavedByObjectVersion
1070
     0
  0
VISUALSTYLE
  5
B0F5
102
{ACAD_REACTORS
330
B0F1
102
}
330
B0F1
100
AcDbVisualStyle
  2
GouraudWithEdges
 70
     3
 71
     2
 72
     2
 73
     1
 90
        2
 40
-0.6
 41
30.0
 62
     5
 63
     7
 74
     1
 91
        4
 64
     7
 65
   257
 75
     1
175
     1
 42
1.0
 92
        0
 66
   257
 43
1.0
 76
     1
 77
     6
 78
     2
 67
     7
 79
     5
170
     0
171
     0
290
     0
174
     0
 93
       13
 44
0.0
173
     0
291
     1
 45
0.0
1001
ACAD
1000
AcDbSavedByObjectVersion
1070
     0
  0
VISUALSTYLE
  5
B0FF
102
{ACAD_REACTORS
330
B0F1
102
}
330
B0F1
100
AcDbVisualStyle
  2
Linepattern
 70
    14
 71
     2
 72
     2
 73
     0
 90
        0
 40
-0.6
 41
-30.0
 62
     5
 63
     7
 74
     1
 91
        4
 64
     7
 65
   257
 75
     7
175
     7
 42
1.0
 92
        8
 66
     7
 43
1.0
 76
     1
 77
     6
 78
     2
 67
     7
 79
     5
170
     0
171
     0
290
     0
174
     0
 93
        1
 44
0.0
173
     0
291
     1
 45
0.0
1001
ACAD
1000
AcDbSavedByObjectVersion
1070
     0
  0
VISUALSTYLE
  5
B0FB
102
{ACAD_REACTORS
330
B0F1
102
}
330
B0F1
100
AcDbVisualStyle
  2
Realistic
 70
     8
 71
     2
 72
     2
 73
     0
 90
        0
 40
-0.6
 41
-30.0
 62
     5
 63
     7
 74
     1
 91
        0
 64
     7
 65
   257
 75
     1
175
     1
 42
1.0
 92
        8
 66
     8
 43
1.0
 76
     1
 77
     6
 78
     2
 67
     7
 79
     5
170
     0
171
     0
290
     0
174
     0
 93
       13
 44
0.0
173
     0
291
     0
 45
0.0
1001
ACAD
1000
AcDbSavedByObjectVersion
1070
     0
  0
VISUALSTYLE
  5
B0FE
102
{ACAD_REACTORS
330
B0F1
102
}
330
B0F1
100
AcDbVisualStyle
  2
Thicken
 70
    13
 71
     2
 72
     2
 73
     0
 90
        0
 40
-0.6
 41
-30.0
 62
     5
 63
     7
 74
     1
 91
        4
 64
     7
 65
   257
 75
     1
175
     1
 42
1.0
 92
       12
 66
     7
 43
1.0
 76
     1
 77
     6
 78
     2
 67
     7
 79
     5
170
     0
171
     0
290
     0
174
     0
 93
        1
 44
0.0
173
     0
291
     1
 45
0.0
1001
ACAD
1000
AcDbSavedByObjectVersion
1070
     0
  0
DICTIONARYVAR
  5
DDB3
102
{ACAD_REACTORS
330
34
102
}
330
34
100
DictionaryVariables
280
     0
  1
1:1
  0
DICTIONARYVAR
  5
DDB1
102
{ACAD_REACTORS
330
34
102
}
330
34
100
DictionaryVariables
280
     0
  1
STANDARD
  0
DICTIONARYVAR
  5
AAF3
102
{ACAD_REACTORS
330
34
102
}
330
34
100
DictionaryVariables
280
     0
  1
STANDARD
  0
DICTIONARYVAR
  5
A10C
102
{ACAD_REACTORS
330
34
102
}
330
34
100
DictionaryVariables
280
     0
  1
1
  0
DICTIONARYVAR
  5
AB07
102
{ACAD_REACTORS
330
34
102
}
330
34
100
DictionaryVariables
280
     0
  1
4
  0
DICTIONARYVAR
  5
35
102
{ACAD_REACTORS
330
34
102
}
330
34
100
DictionaryVariables
280
     0
  1
0
  0
DICTIONARYVAR
  5
DDB4
102
{ACAD_REACTORS
330
34
102
}
330
34
100
DictionaryVariables
280
     0
  1
0
  0
DICTIONARYVAR
  5
DDB2
102
{ACAD_REACTORS
330
34
102
}
330
34
100
DictionaryVariables
280
     0
  1
0
  0
DICTIONARYVAR
  5
194C
102
{ACAD_REACTORS
330
34
102
}
330
34
100
DictionaryVariables
280
     0
  1
96
  0
DICTIONARY
  5
7E8
102
{ACAD_REACTORS
330
47
102
}
330
47
100
AcDbDictionary
281
     1
  0
DICTIONARY
  5
4C
102
{ACAD_REACTORS
330
47
102
}
330
47
100
AcDbDictionary
281
     1
  0
XRECORD
  5
A929
102
{ACAD_REACTORS
330
47
102
}
330
47
100
AcDbXrecord
280
     1
 90
-1023410169
  0
XRECORD
  5
B332
102
{ACAD_REACTORS
330
B331
102
}
330
B331
100
AcDbXrecord
280
     1
  0
XRECORD
  5
3FB7
102
{ACAD_REACTORS
330
3F96
102
}
330
3F96
100
AcDbXrecord
280
     1
 91
        3
330
0
 90
        8
 62
     7
370
    40
331
16
  1
Color_7
330
0
 90
        0
 62
    14
370
    -3
331
16
  1
Color_14
330
0
 90
        8
 62
     7
370
    20
331
16
  1
Color_7
330
6D1
 90
        0
 62
     7
370
    -3
331
16
  1
Color_7
330
0
 90
        8
 62
     7
370
    50
331
16
  1
Color_7
330
0
 90
        8
 62
     2
370
    35
331
16
  1
Color_2
330
0
 90
        8
 62
     7
370
    -3
331
16
  1
Color_7
330
10
 90
        8
 62
     7
370
    -3
331
16
  1
Color_7
  0
DICTIONARY
  5
DDFD
330
22
100
AcDbDictionary
280
     1
281
     1
  3
ACAD_XREC_ROUNDTRIP
360
DDFE
  0
DICTIONARY
  5
DDFB
330
1E
100
AcDbDictionary
280
     1
281
     1
  3
ACAD_XREC_ROUNDTRIP
360
DDFC
  0
DICTIONARY
  5
DDFF
330
26
100
AcDbDictionary
280
     1
281
     1
  3
ACAD_XREC_ROUNDTRIP
360
DE00
  0
DICTIONARY
  5
DE04
330
B0EF
100
AcDbDictionary
280
     1
281
     1
  3
ACAD_XREC_ROUNDTRIP
360
DE05
  0
DICTIONARY
  5
DE02
330
B0EE
100
AcDbDictionary
280
     1
281
     1
  3
ACAD_XREC_ROUNDTRIP
360
DE03
  0
DICTIONARY
  5
DE06
330
B0F0
100
AcDbDictionary
280
     1
281
     1
  3
ACAD_XREC_ROUNDTRIP
360
DE07
  0
DICTIONARY
  5
DE08
330
B3F5
100
AcDbDictionary
280
     1
281
     1
  3
ACAD_XREC_ROUNDTRIP
360
DE09
  0
DICTIONARY
  5
DE0A
330
B3F6
100
AcDbDictionary
280
     1
281
     1
  3
ACAD_XREC_ROUNDTRIP
360
DE0B
  0
DICTIONARY
  5
DE0C
330
B3F7
100
AcDbDictionary
280
     1
281
     1
  3
ACAD_XREC_ROUNDTRIP
360
DE0D
  0
DICTIONARY
  5
DE0E
330
B3F8
100
AcDbDictionary
280
     1
281
     1
  3
ACAD_XREC_ROUNDTRIP
360
DE0F
  0
DICTIONARY
  5
DE10
330
B3F9
100
AcDbDictionary
280
     1
281
     1
  3
ACAD_XREC_ROUNDTRIP
360
DE11
  0
DICTIONARY
  5
DE12
330
B3FA
100
AcDbDictionary
280
     1
281
     1
  3
ACAD_XREC_ROUNDTRIP
360
DE13
  0
DICTIONARY
  5
DE14
330
B3FB
100
AcDbDictionary
280
     1
281
     1
  3
ACAD_XREC_ROUNDTRIP
360
DE15
  0
DICTIONARY
  5
DE16
330
B3FC
100
AcDbDictionary
280
     1
281
     1
  3
ACAD_XREC_ROUNDTRIP
360
DE17
  0
DICTIONARY
  5
DDAE
330
AABA
100
AcDbDictionary
280
     1
281
     1
  3
ACAD_ROUNDTRIP_2008_TABLESTYLE_CELLSTYLEMAP
360
DDAF
  3
ACAD_XREC_ROUNDTRIP
360
DE01
  0
XRECORD
  5
DDFE
102
{ACAD_REACTORS
330
DDFD
102
}
330
DDFD
100
AcDbXrecord
280
     1
102
SHADEPLOT
 70
     0
102
SHADEPLOTRESLEVEL
 70
     2
102
SHADEPLOTCUSTOMDPI
 70
   200
  0
XRECORD
  5
DDFC
102
{ACAD_REACTORS
330
DDFB
102
}
330
DDFB
100
AcDbXrecord
280
     1
102
SHADEPLOT
 70
     0
102
SHADEPLOTRESLEVEL
 70
     2
102
SHADEPLOTCUSTOMDPI
 70
   300
  0
XRECORD
  5
DE00
102
{ACAD_REACTORS
330
DDFF
102
}
330
DDFF
100
AcDbXrecord
280
     1
102
SHADEPLOT
 70
     0
102
SHADEPLOTRESLEVEL
 70
     2
102
SHADEPLOTCUSTOMDPI
 70
   300
  0
XRECORD
  5
DE05
102
{ACAD_REACTORS
330
DE04
102
}
330
DE04
100
AcDbXrecord
280
     1
102
MATERIAL
148
0.0
149
0.0
149
0.0
 93
        0
 94
       63
282
     0
 72
     1
 77
     1
171
     1
175
     1
179
     1
273
     0
  0
XRECORD
  5
DE03
102
{ACAD_REACTORS
330
DE02
102
}
330
DE02
100
AcDbXrecord
280
     1
102
MATERIAL
148
0.0
149
0.0
149
0.0
 93
        0
 94
       63
282
     0
 72
     1
 77
     1
171
     1
175
     1
179
     1
273
     0
  0
XRECORD
  5
DE07
102
{ACAD_REACTORS
330
DE06
102
}
330
DE06
100
AcDbXrecord
280
     1
102
MATERIAL
148
0.0
149
0.0
149
0.0
 93
        0
 94
       63
282
     0
 72
     1
 77
     1
171
     1
175
     1
179
     1
273
     0
  0
XRECORD
  5
DE09
102
{ACAD_REACTORS
330
DE08
102
}
330
DE08
100
AcDbXrecord
280
     1
102
SHADEPLOT
 70
     0
102
SHADEPLOTRESLEVEL
 70
     2
102
SHADEPLOTCUSTOMDPI
 70
   200
  0
XRECORD
  5
DE0B
102
{ACAD_REACTORS
330
DE0A
102
}
330
DE0A
100
AcDbXrecord
280
     1
102
SHADEPLOT
 70
     0
102
SHADEPLOTRESLEVEL
 70
     2
102
SHADEPLOTCUSTOMDPI
 70
   200
  0
XRECORD
  5
DE0D
102
{ACAD_REACTORS
330
DE0C
102
}
330
DE0C
100
AcDbXrecord
280
     1
102
SHADEPLOT
 70
     0
102
SHADEPLOTRESLEVEL
 70
     2
102
SHADEPLOTCUSTOMDPI
 70
   200
  0
XRECORD
  5
DE0F
102
{ACAD_REACTORS
330
DE0E
102
}
330
DE0E
100
AcDbXrecord
280
     1
102
SHADEPLOT
 70
     0
102
SHADEPLOTRESLEVEL
 70
     2
102
SHADEPLOTCUSTOMDPI
 70
   200
  0
XRECORD
  5
DE11
102
{ACAD_REACTORS
330
DE10
102
}
330
DE10
100
AcDbXrecord
280
     1
102
SHADEPLOT
 70
     0
102
SHADEPLOTRESLEVEL
 70
     2
102
SHADEPLOTCUSTOMDPI
 70
   200
  0
XRECORD
  5
DE13
102
{ACAD_REACTORS
330
DE12
102
}
330
DE12
100
AcDbXrecord
280
     1
102
SHADEPLOT
 70
     0
102
SHADEPLOTRESLEVEL
 70
     2
102
SHADEPLOTCUSTOMDPI
 70
   200
  0
XRECORD
  5
DE15
102
{ACAD_REACTORS
330
DE14
102
}
330
DE14
100
AcDbXrecord
280
     1
102
SHADEPLOT
 70
     0
102
SHADEPLOTRESLEVEL
 70
     2
102
SHADEPLOTCUSTOMDPI
 70
   200
  0
XRECORD
  5
DE17
102
{ACAD_REACTORS
330
DE16
102
}
330
DE16
100
AcDbXrecord
280
     1
102
SHADEPLOT
 70
     0
102
SHADEPLOTRESLEVEL
 70
     2
102
SHADEPLOTCUSTOMDPI
 70
   200
  0
ACAD_PROXY_OBJECT
  5
DDAF
102
{ACAD_REACTORS
330
DDAE
102
}
330
DDAE
100
AcDbProxyObject
 90
      499
 91
      633
 95
  1703963
 70
     0
 93
     5369
310
40D054060020000020000003200101A4129416000000304000000000000001840404000000000000F83F0000000000003E0FC000000000000F83F0000000000003E0FC0AD7A3703D0AC73F02B5E8DC0F42B1CFD0640640600000030400FEFFFFFF80AD7A3703D0AA73F40A40600000030400FEFFFFFF80AD7A3703D0AA73F4
310
1240600000030400FEFFFFFF80AD7A3703D0AA73F42240600000030400FEFFFFFF80AD7A3703D0AA73F44240600000030400FEFFFFFF80AD7A3703D0AA73F48240600000030400FEFFFFFF80AD7A3703D0AA73F4050141501A8000000C800406904A5058000000C10000000000000004901010000000000003E0FC00000000
310
0000F83F0000000000003E0FC000000000000F83F02B5E8DC0F42B1CFC0AD7A3703D0AC73F419019018000000C1003FBFFFFFE02B5E8DC0F42A9CFD029018000000C1003FBFFFFFE02B5E8DC0F42A9CFD049018000000C1003FBFFFFFE02B5E8DC0F42A9CFD089018000000C1003FBFFFFFE02B5E8DC0F42A9CFD109018000
310
000C1003FBFFFFFE02B5E8DC0F42A9CFD209018000000C1003FBFFFFFE02B5E8DC0F42A9CFD0240505406A0000003200101A412940A000000304000000000000001240404000000000000F83F0000000000003E0FC000000000000F83F0000000000003E0FC0AD7A3703D0AC73F02B5E8DC0F42B1CFD064064060000003040
310
0FEFFFFFF80AD7A3703D0AA73F40A40600000030400FEFFFFFF80AD7A3703D0AA73F41240600000030400FEFFFFFF80AD7A3703D0AA73F42240600000030400FEFFFFFF80AD7A3703D0AA73F44240600000030400FEFFFFFF80AD7A3703D0AA73F48240600000030400FEFFFFFF80AD7A3703D0AA73F40D029065F00540049
310
0054004C0045009075F004800450041004400450052009055F0044004100540041004401CC
340
11
340
0
340
0
340
0
340
0
340
0
340
0
340
11
340
0
340
0
340
0
340
0
340
0
340
0
340
11
340
0
340
0
340
0
340
0
340
0
340
0
 94
        0
1001
ACAD
1000
AcRTDxfName
1000
CELLSTYLEMAP
  0
XRECORD
  5
DE01
102
{ACAD_REACTORS
330
DDAE
102
}
330
DDAE
100
AcDbXrecord
280
     1
102
ACAD_ROUNDTRIP_PRE2007_TABLESTYLE
 90
        4
 91
        0
  1

 92
        4
 93
        0
  2

 94
        4
 95
        0
  3

  0
ENDSEC
  0
EOF
