  0
SECTION
  2
HEADER
  9
$ACADVER
  1
AC1015
  9
$ACADMAINTVER
 70
    20
  9
$DWGCODEPAGE
  3
ANSI_932
  9
$INSBASE
 10
0.0
 20
0.0
 30
0.0
  9
$EXTMIN
 10
-1114.048185045472
 20
-6140.319196234053
 30
-0.0000000000112498
  9
$EXTMAX
 10
-273.9360585947775
 20
-5545.622986397692
 30
0.0000000000002956
  9
$LIMMIN
 10
-1206.906806347062
 20
-12202.36094600418
  9
$LIMMAX
 10
-366.9068063470622
 20
-11608.36094600418
  9
$ORTHOMODE
 70
     0
  9
$REGENMODE
 70
     1
  9
$FILLMODE
 70
     1
  9
$QTEXTMODE
 70
     0
  9
$MIRRTEXT
 70
     0
  9
$LTSCALE
 40
1.0
  9
$ATTMODE
 70
     1
  9
$TEXTSIZE
 40
3.2
  9
$TRACEWID
 40
1.0
  9
$TEXTSTYLE
  7
STANDARD
  9
$CLAYER
  8
AM_6
  9
$CELTYPE
  6
ByLayer
  9
$CECOLOR
 62
   256
  9
$CELTSCALE
 40
1.0
  9
$DISPSILH
 70
     0
  9
$DIMSCALE
 40
1.0
  9
$DIMASZ
 40
1.0
  9
$DIMEXO
 40
1.0
  9
$DIMDLI
 40
10.0
  9
$DIMRND
 40
0.0
  9
$DIMDLE
 40
0.0
  9
$DIMEXE
 40
1.0
  9
$DIMTP
 40
0.1
  9
$DIMTM
 40
0.1
  9
$DIMTXT
 40
3.5
  9
$DIMCEN
 40
0.0
  9
$DIMTSZ
 40
0.0
  9
$DIMTOL
 70
     0
  9
$DIMLIM
 70
     0
  9
$DIMTIH
 70
     0
  9
$DIMTOH
 70
     0
  9
$DIMSE1
 70
     0
  9
$DIMSE2
 70
     0
  9
$DIMTAD
 70
     1
  9
$DIMZIN
 70
     8
  9
$DIMBLK
  1

  9
$DIMASO
 70
     1
  9
$DIMSHO
 70
     1
  9
$DIMPOST
  1

  9
$DIMAPOST
  1
"
  9
$DIMALT
 70
     0
  9
$DIMALTD
 70
     2
  9
$DIMALTF
 40
0.0393701
  9
$DIMLFAC
 40
1.0
  9
$DIMTOFL
 70
     1
  9
$DIMTVP
 40
0.0
  9
$DIMTIX
 70
     0
  9
$DIMSOXD
 70
     0
  9
$DIMSAH
 70
     0
  9
$DIMBLK1
  1

  9
$DIMBLK2
  1

  9
$DIMSTYLE
  2
SYS
  9
$DIMCLRD
 70
   256
  9
$DIMCLRE
 70
   256
  9
$DIMCLRT
 70
     7
  9
$DIMTFAC
 40
0.71
  9
$DIMGAP
 40
1.5
  9
$DIMJUST
 70
     0
  9
$DIMSD1
 70
     0
  9
$DIMSD2
 70
     0
  9
$DIMTOLJ
 70
     0
  9
$DIMTZIN
 70
     8
  9
$DIMALTZ
 70
     0
  9
$DIMALTTZ
 70
     0
  9
$DIMUPT
 70
     0
  9
$DIMDEC
 70
     1
  9
$DIMTDEC
 70
     2
  9
$DIMALTU
 70
     2
  9
$DIMALTTD
 70
     2
  9
$DIMTXSTY
  7
STANDARD
  9
$DIMAUNIT
 70
     0
  9
$DIMADEC
 70
     0
  9
$DIMALTRND
 40
0.0
  9
$DIMAZIN
 70
     2
  9
$DIMDSEP
 70
    46
  9
$DIMATFIT
 70
     3
  9
$DIMFRAC
 70
     0
  9
$DIMLDRBLK
  1

  9
$DIMLUNIT
 70
     2
  9
$DIMLWD
 70
    -1
  9
$DIMLWE
 70
    -1
  9
$DIMTMOVE
 70
     0
  9
$LUNITS
 70
     2
  9
$LUPREC
 70
     2
  9
$SKETCHINC
 40
1.0
  9
$FILLETRAD
 40
0.0
  9
$AUNITS
 70
     0
  9
$AUPREC
 70
     0
  9
$MENU
  1
.
  9
$ELEVATION
 40
0.0
  9
$PELEVATION
 40
0.0
  9
$THICKNESS
 40
0.0
  9
$LIMCHECK
 70
     0
  9
$CHAMFERA
 40
0.0
  9
$CHAMFERB
 40
0.0
  9
$CHAMFERC
 40
20.0
  9
$CHAMFERD
 40
0.0
  9
$SKPOLY
 70
     0
  9
$TDCREATE
 40
2455567.561054317
  9
$TDUCREATE
 40
2455567.186054318
  9
$TDUPDATE
 40
2456267.575867871
  9
$TDUUPDATE
 40
2456267.200867871
  9
$TDINDWG
 40
3.1636977315
  9
$TDUSRTIMER
 40
3.1636957407
  9
$USRTIMER
 70
     1
  9
$ANGBASE
 50
0.0
  9
$ANGDIR
 70
     0
  9
$PDMODE
 70
     0
  9
$PDSIZE
 40
-3.0
  9
$PLINEWID
 40
0.0
  9
$SPLFRAME
 70
     0
  9
$SPLINETYPE
 70
     6
  9
$SPLINESEGS
 70
     8
  9
$HANDSEED
  5
AB126
  9
$SURFTAB1
 70
     6
  9
$SURFTAB2
 70
     6
  9
$SURFTYPE
 70
     6
  9
$SURFU
 70
     6
  9
$SURFV
 70
     6
  9
$UCSBASE
  2

  9
$UCSNAME
  2

  9
$UCSORG
 10
0.0
 20
0.0
 30
0.0
  9
$UCSXDIR
 10
1.0
 20
0.0
 30
0.0
  9
$UCSYDIR
 10
0.0
 20
1.0
 30
0.0
  9
$UCSORTHOREF
  2

  9
$UCSORTHOVIEW
 70
     0
  9
$UCSORGTOP
 10
0.0
 20
0.0
 30
0.0
  9
$UCSORGBOTTOM
 10
0.0
 20
0.0
 30
0.0
  9
$UCSORGLEFT
 10
0.0
 20
0.0
 30
0.0
  9
$UCSORGRIGHT
 10
0.0
 20
0.0
 30
0.0
  9
$UCSORGFRONT
 10
0.0
 20
0.0
 30
0.0
  9
$UCSORGBACK
 10
0.0
 20
0.0
 30
0.0
  9
$PUCSBASE
  2

  9
$PUCSNAME
  2

  9
$PUCSORG
 10
0.0
 20
0.0
 30
0.0
  9
$PUCSXDIR
 10
1.0
 20
0.0
 30
0.0
  9
$PUCSYDIR
 10
0.0
 20
1.0
 30
0.0
  9
$PUCSORTHOREF
  2

  9
$PUCSORTHOVIEW
 70
     0
  9
$PUCSORGTOP
 10
0.0
 20
0.0
 30
0.0
  9
$PUCSORGBOTTOM
 10
0.0
 20
0.0
 30
0.0
  9
$PUCSORGLEFT
 10
0.0
 20
0.0
 30
0.0
  9
$PUCSORGRIGHT
 10
0.0
 20
0.0
 30
0.0
  9
$PUCSORGFRONT
 10
0.0
 20
0.0
 30
0.0
  9
$PUCSORGBACK
 10
0.0
 20
0.0
 30
0.0
  9
$USERI1
 70
     0
  9
$USERI2
 70
     0
  9
$USERI3
 70
     0
  9
$USERI4
 70
     0
  9
$USERI5
 70
     0
  9
$USERR1
 40
0.0
  9
$USERR2
 40
0.0
  9
$USERR3
 40
0.0
  9
$USERR4
 40
0.0
  9
$USERR5
 40
0.0
  9
$WORLDVIEW
 70
     1
  9
$SHADEDGE
 70
     3
  9
$SHADEDIF
 70
    70
  9
$TILEMODE
 70
     1
  9
$MAXACTVP
 70
    64
  9
$PINSBASE
 10
0.0
 20
0.0
 30
0.0
  9
$PLIMCHECK
 70
     0
  9
$PEXTMIN
 10
1.000000000000000E+20
 20
1.000000000000000E+20
 30
1.000000000000000E+20
  9
$PEXTMAX
 10
-1.000000000000000E+20
 20
-1.000000000000000E+20
 30
-1.000000000000000E+20
  9
$PLIMMIN
 10
-3.17498779296875
 20
-3.174999952316284
  9
$PLIMMAX
 10
293.4970092773438
 20
206.692492723465
  9
$UNITMODE
 70
     0
  9
$VISRETAIN
 70
     1
  9
$PLINEGEN
 70
     0
  9
$PSLTSCALE
 70
     1
  9
$TREEDEPTH
 70
  3020
  9
$CMLSTYLE
  2
Standard
  9
$CMLJUST
 70
     0
  9
$CMLSCALE
 40
20.0
  9
$PROXYGRAPHICS
 70
     1
  9
$MEASUREMENT
 70
     1
  9
$CELWEIGHT
370
    -1
  9
$ENDCAPS
280
     0
  9
$JOINSTYLE
280
     0
  9
$LWDISPLAY
290
     1
  9
$INSUNITS
 70
     4
  9
$HYPERLINKBASE
  1

  9
$STYLESHEET
  1
monochrome.ctb
  9
$XEDIT
290
     1
  9
$CEPSNTYPE
380
     0
  9
$PSTYLEMODE
290
     1
  9
$FINGERPRINTGUID
  2
{E0FB5660-30B4-4D8A-8C1D-9D7E99D72F0A}
  9
$VERSIONGUID
  2
{ABEBF7C4-BB1E-4931-85D0-9C077A59CE0A}
  9
$EXTNAMES
290
     1
  9
$PSVPSCALE
 40
0.0
  9
$OLESTARTUP
290
     0
  0
ENDSEC
  0
SECTION
  2
CLASSES
  0
CLASS
  1
ACDBDICTIONARYWDFLT
  2
AcDbDictionaryWithDefault
  3
ObjectDBX Classes
 90
        0
280
     0
281
     0
  0
CLASS
  1
ACDBPLACEHOLDER
  2
AcDbPlaceHolder
  3
ObjectDBX Classes
 90
        0
280
     0
281
     0
  0
CLASS
  1
LAYOUT
  2
AcDbLayout
  3
ObjectDBX Classes
 90
        0
280
     0
281
     0
  0
CLASS
  1
AMGSETTINGSOBJ
  2
AmgSettingsObj
  3
"AcadM|Product Description: AutoCAD Mechanical|Company: Autodesk"
 90
        0
280
     0
281
     0
  0
CLASS
  1
ACME_DOCUMENT
  2
AcMeDbDoc
  3
AcMeServices
 90
        0
280
     0
281
     0
  0
CLASS
  1
ACMESCOPE
  2
AcMeScope
  3
AcMeServices
 90
        0
280
     0
281
     0
  0
CLASS
  1
ACMECOMMANDHISTORY
  2
AcMeCommandHistory
  3
AcMeServices
 90
        0
280
     0
281
     0
  0
CLASS
  1
DICTIONARYVAR
  2
AcDbDictionaryVar
  3
ObjectDBX Classes
 90
        0
280
     0
281
     0
  0
CLASS
  1
ACIMSYSVARMAN
  2
AcImSysVarManager
  3
AcMeServices
 90
        0
280
     0
281
     0
  0
CLASS
  1
ACIMREALSYSVAR
  2
AcImRealSysVar
  3
AcMeServices
 90
        0
280
     0
281
     0
  0
CLASS
  1
ACIMINTSYSVAR
  2
AcImIntSysVar
  3
AcMeServices
 90
        0
280
     0
281
     0
  0
CLASS
  1
ACMEDRAWINGMAN
  2
AcMeDrawingMan
  3
AcMeServices
 90
        0
280
     0
281
     0
  0
CLASS
  1
ACMEVIEW
  2
AcMeView
  3
AcMeServices
 90
        0
280
     0
281
     0
  0
CLASS
  1
ACDBENTITYCACHE
  2
AcMeEntityCache
  3
AcMeServices
 90
        0
280
     0
281
     0
  0
CLASS
  1
GSMANAGER
  2
AcMeGSManager
  3
AcMeServices
 90
        0
280
     0
281
     0
  0
CLASS
  1
AMDTINTERNALREACTOR
  2
AmdtInternalReactor
  3
AcMeServices
 90
        0
280
     0
281
     0
  0
CLASS
  1
ACMESTATEMGR
  2
AcMeStateMgr
  3
AcMeServices
 90
        0
280
     0
281
     0
  0
CLASS
  1
ACGREFMASTER
  2
AcGrefMaster
  3
AcAttribServices
 90
        0
280
     0
281
     0
  0
CLASS
  1
ACME_DATABASE
  2
AcMeDbDatabase
  3
AcMeServices
 90
        0
280
     0
281
     0
  0
CLASS
  1
ACRFINSADJUSTERMGR
  2
AcRfInsAdjusterMgr
  3
AcMeServices
 90
        0
280
     0
281
     0
  0
CLASS
  1
ACGREFACADMASTER
  2
AcGrefacadMaster
  3
AcGrefServices
 90
        0
280
     0
281
     0
  0
CLASS
  1
AMIMASTER
  2
AmiMaster
  3
AmiServices
 90
        0
280
     0
281
     0
  0
CLASS
  1
ACMDATADICTIONARY
  2
AcmDataDictionary
  3
"AcmSymBB|Product Description: AutoCAD Mechanical|Company: Autodesk"
 90
        0
280
     0
281
     0
  0
CLASS
  1
ACMDATAENTRYBLOCK
  2
AcmDataEntryBlock
  3
"AcmSymBB|Product Description: AutoCAD Mechanical|Company: Autodesk"
 90
    32768
280
     0
281
     0
  0
CLASS
  1
ACIMSTRSYSVAR
  2
AcImStrSysVar
  3
AcMeServices
 90
        0
280
     0
281
     0
  0
CLASS
  1
ACMSTANDARDISO
  2
AcmStandardISO
  3
"Amdt_StdImp|Product Description: AutoCAD Mechanical|Company: Autodesk"
 90
        0
280
     0
281
     0
  0
CLASS
  1
AMGOBJPROPCFG
  2
AmgObjPropCfg
  3
"AmgLay|Product Description: AutoCAD Mechanical|Company: Autodesk"
 90
        1
280
     0
281
     0
  0
CLASS
  1
AMDTEDGESTANDARDISO
  2
AmdtEdgeStdISO
  3
"Amdt_StdImp|Product Description: AutoCAD Mechanical|Company: Autodesk"
 90
    32768
280
     0
281
     0
  0
CLASS
  1
ACMSURFSTANDARDISO
  2
AcmSurfTextStdISO
  3
"Amdt_StdImp|Product Description: AutoCAD Mechanical|Company: Autodesk"
 90
        0
280
     0
281
     0
  0
CLASS
  1
ACMFCFSTANDARDISO
  2
AcmFCFStdISO
  3
"Amdt_StdImp|Product Description: AutoCAD Mechanical|Company: Autodesk"
 90
        0
280
     0
281
     0
  0
CLASS
  1
ACMWELDSTANDARDISO
  2
AcmWeldingStdISO
  3
"Amdt_StdImp|Product Description: AutoCAD Mechanical|Company: Autodesk"
 90
        0
280
     0
281
     0
  0
CLASS
  1
ACMIDSTANDARDISO
  2
AcmIdStdISO
  3
"Amdt_StdImp|Product Description: AutoCAD Mechanical|Company: Autodesk"
 90
        0
280
     0
281
     0
  0
CLASS
  1
ACMDATUMSTANDARDISO
  2
AcmDatumStdISO
  3
"Amdt_StdImp|Product Description: AutoCAD Mechanical|Company: Autodesk"
 90
        0
280
     0
281
     0
  0
CLASS
  1
ACMBOMSTANDARDISO
  2
AcmBOMStdISO
  3
"Amdt_StdImp|Product Description: AutoCAD Mechanical|Company: Autodesk"
 90
        0
280
     0
281
     0
  0
CLASS
  1
ACMDETAILSTANDARDISO
  2
AmdtDetailSymStdISO
  3
"Amdt_StdImp|Product Description: AutoCAD Mechanical|Company: Autodesk"
 90
        0
280
     0
281
     0
  0
CLASS
  1
ACMSECTIONSTANDARDISO
  2
AmdtSectionSymStdISO
  3
"Amdt_StdImp|Product Description: AutoCAD Mechanical|Company: Autodesk"
 90
        0
280
     0
281
     0
  0
CLASS
  1
ACMCENTERLINESTANDARDISO
  2
AmdtCenterLineStdISO
  3
"Amdt_StdImp|Product Description: AutoCAD Mechanical|Company: Autodesk"
 90
        0
280
     0
281
     0
  0
CLASS
  1
ACAMGLAYSTD
  2
AcAmgLayStd
  3
"AmgLay|Product Description: AutoCAD Mechanical|Company: Autodesk"
 90
        0
280
     0
281
     0
  0
CLASS
  1
ACAMGDIMSTD
  2
AcAmgDimStd
  3
"AmgDim|Product Description: AutoCAD Mechanical|Company: Autodesk"
 90
        0
280
     0
281
     0
  0
CLASS
  1
ACAMGTITLESTD
  2
AcAmgTitleStd
  3
"AmgTitle|Product Description: AutoCAD Mechanical|Company: Autodesk"
 90
        0
280
     0
281
     0
  0
CLASS
  1
ACAMGFILTERDAT
  2
AcAmgFilterDat
  3
"AcadM|Product Description: AutoCAD Mechanical|Company: Autodesk"
 90
    32768
280
     0
281
     0
  0
CLASS
  1
LAYER_INDEX
  2
AcDbLayerIndex
  3
ObjectDBX Classes
 90
    32768
280
     0
281
     0
  0
CLASS
  1
IDBUFFER
  2
AcDbIdBuffer
  3
ObjectDBX Classes
 90
    32768
280
     0
281
     0
  0
CLASS
  1
PLOTSETTINGS
  2
AcDbPlotSettings
  3
ObjectDBX Classes
 90
    32768
280
     0
281
     0
  0
CLASS
  1
AMDTFORMULAUPDATEDISPATCHER
  2
AmdtFormulaUpdateDispatcher
  3
AcMeServices
 90
    32768
280
     0
281
     0
  0
CLASS
  1
ACMSTANDARDANSI
  2
AcmStandardANSI
  3
"Amdt_StdImp|Product Description: AutoCAD Mechanical|Company: Autodesk"
 90
    32768
280
     0
281
     0
  0
CLASS
  1
ACMSURFSTANDARDANSI
  2
AcmSurfTextStdANSI
  3
"Amdt_StdImp|Product Description: AutoCAD Mechanical|Company: Autodesk"
 90
    32768
280
     0
281
     0
  0
CLASS
  1
ACMFCFSTANDARDANSI
  2
AcmFCFStdANSI
  3
"Amdt_StdImp|Product Description: AutoCAD Mechanical|Company: Autodesk"
 90
    32768
280
     0
281
     0
  0
CLASS
  1
ACMWELDSTANDARDANSI
  2
AcmWeldingStdANSI
  3
"Amdt_StdImp|Product Description: AutoCAD Mechanical|Company: Autodesk"
 90
    32768
280
     0
281
     0
  0
CLASS
  1
ACMIDSTANDARDANSI
  2
AcmIdStdANSI
  3
"Amdt_StdImp|Product Description: AutoCAD Mechanical|Company: Autodesk"
 90
    32768
280
     0
281
     0
  0
CLASS
  1
ACMDATUMSTANDARDANSI
  2
AcmDatumStdANSI
  3
"Amdt_StdImp|Product Description: AutoCAD Mechanical|Company: Autodesk"
 90
    32768
280
     0
281
     0
  0
CLASS
  1
ACMBOMSTANDARDANSI
  2
AcmBOMStdANSI
  3
"Amdt_StdImp|Product Description: AutoCAD Mechanical|Company: Autodesk"
 90
    32768
280
     0
281
     0
  0
CLASS
  1
ACMDETAILSTANDARDANSI
  2
AmdtDetailSymStdANSI
  3
"Amdt_StdImp|Product Description: AutoCAD Mechanical|Company: Autodesk"
 90
    32768
280
     0
281
     0
  0
CLASS
  1
ACMSECTIONSTANDARDANSI
  2
AmdtSectionSymStdANSI
  3
"Amdt_StdImp|Product Description: AutoCAD Mechanical|Company: Autodesk"
 90
    32768
280
     0
281
     0
  0
CLASS
  1
ACMCENTERLINESTANDARDANSI
  2
AmdtCenterLineStdANSI
  3
"Amdt_StdImp|Product Description: AutoCAD Mechanical|Company: Autodesk"
 90
    32768
280
     0
281
     0
  0
CLASS
  1
ACMBOM
  2
AcmBom
  3
"AcmSymBB|Product Description: AutoCAD Mechanical|Company: Autodesk"
 90
    32768
280
     0
281
     0
  0
CLASS
  1
ACMDATAENTRYPART
  2
AcmDataEntryPart
  3
"AcmSymBB|Product Description: AutoCAD Mechanical|Company: Autodesk"
 90
    32768
280
     0
281
     0
  0
CLASS
  1
ACMPARTREF
  2
AcmPartRef
  3
"AcmSymBB|Product Description: AutoCAD Mechanical|Company: Autodesk"
 90
    35839
280
     0
281
     1
  0
CLASS
  1
ACDBCIRCARCRES
  2
AcDbCircArcRes
  3
AcGrefServices
 90
    32768
280
     0
281
     0
  0
CLASS
  1
ACMBOMROW
  2
AcmBomRow
  3
"AcmSymBB|Product Description: AutoCAD Mechanical|Company: Autodesk"
 90
    32768
280
     0
281
     0
  0
CLASS
  1
ACMBALLOON
  2
AcmBalloon
  3
"AcmSymBB|Product Description: AutoCAD Mechanical|Company: Autodesk"
 90
    35839
280
     0
281
     1
  0
CLASS
  1
AMDTNOTE
  2
AmdtNote
  3
"AcmSymBB|Product Description: AutoCAD Mechanical|Company: Autodesk"
 90
    35839
280
     0
281
     1
  0
CLASS
  1
STDPART2D
  2
AmgStdPart
  3
"g3vace|Class: AmgStdPart|Product Description: AutoCAD Mechanical|Company: Autodesk"
 90
    35839
280
     0
281
     1
  0
CLASS
  1
ACDBSTDPARTRES_LINE
  2
AcDbStdPartRes_Line
  3
"g3vace|Class: AcDbStdPartRes_Line|Product Description: AutoCAD Mechanical|Company: Autodesk"
 90
    32768
280
     0
281
     0
  0
CLASS
  1
ACMDATAENTRY
  2
AcmDataEntry
  3
"AcmSymBB|Product Description: AutoCAD Mechanical|Company: Autodesk"
 90
    32768
280
     0
281
     0
  0
CLASS
  1
ACDBOPPOLYLINERES
  2
AcDbOpPolylineRes
  3
AcGrefServices
 90
    32768
280
     0
281
     0
  0
CLASS
  1
ACMPARTLIST
  2
AcmPartList
  3
"AcmSymBB|Product Description: AutoCAD Mechanical|Company: Autodesk"
 90
    35839
280
     0
281
     1
  0
CLASS
  1
ACDBLINERES
  2
AcDbLineRes
  3
AcGrefServices
 90
    32768
280
     0
281
     0
  0
CLASS
  1
ACRFINSADJ
  2
AcRfInsAdjuster
  3
AcMeServices
 90
    32768
280
     0
281
     0
  0
CLASS
  1
AM_DRAWING_MGR
  2
AcDmDwgMgr
  3
AcMechDwgViewMgmt
 90
        0
280
     0
281
     0
  0
CLASS
  1
AM_DWG_DOCUMENT
  2
AcDmDwgDocument
  3
AcMechDwgViewMgmt
 90
        0
280
     0
281
     0
  0
CLASS
  1
AM_DWG_SHEET
  2
AcDmSheet
  3
AcMechDwgViewMgmt
 90
        0
280
     0
281
     0
  0
CLASS
  1
AM_VIEWDIMPARMAP
  2
AcDmViewDimParMap
  3
AcMechDwgViewMgmt
 90
        0
280
     0
281
     0
  0
CLASS
  1
AM_DWGMGR_NAME
  2
AcDmDwgMgrName
  3
AcMechDwgViewMgmt
 90
        0
280
     0
281
     0
  0
CLASS
  1
AMDTMENUSTATEMGR
  2
AmdtMenuStateMgr
  3
McadcomServices
 90
        0
280
     0
281
     0
  0
CLASS
  1
AMDTMCOMMENUSTATE
  2
AmdtMcomMenuState
  3
McadcomServices
 90
        0
280
     0
281
     0
  0
CLASS
  1
ASAPP
  2
AcAsAppObject
  3
AutoSurfServices
 90
        0
280
     0
281
     0
  0
CLASS
  1
IM_STATIC_MAN
  2
AcImStaticVarManager
  3
AcMeServices
 90
        0
280
     0
281
     0
  0
CLASS
  1
ACIMDBLSTATICVAR
  2
AcImDblStaticVar
  3
AcMeServices
 90
    32768
280
     0
281
     0
  0
CLASS
  1
ACIMSTRSTATICVAR
  2
AcImStrStaticVar
  3
AcMeServices
 90
    32768
280
     0
281
     0
  0
CLASS
  1
ACIMINTSTATICVAR
  2
AcImIntStaticVar
  3
AcMeServices
 90
    32768
280
     0
281
     0
  0
CLASS
  1
ACASGREFMASTER
  2
AcAsGrefMaster
  3
AutoSurfResolverServices
 90
        0
280
     0
281
     0
  0
CLASS
  1
ACADGREFMODULE
  2
AcAdGrefModule
  3
AdGrefServices
 90
        0
280
     0
281
     0
  0
CLASS
  1
AMDTMAPISURFMOUDULE
  2
AmdtMApiSurfModule
  3
MApiSurfServices
 90
        0
280
     0
281
     0
  0
CLASS
  1
MAPIAMMOUDLE
  2
MApiAmModule
  3
MApiAmServices
 90
        0
280
     0
281
     0
  0
CLASS
  1
AMDTADMENUSTATE
  2
AmdtAdMenuState
  3
DesignerServices
 90
        0
280
     0
281
     0
  0
CLASS
  1
ADAPPL
  2
AcAdAppl
  3
DesignerServices
 90
        0
280
     0
281
     0
  0
CLASS
  1
DEPMGR
  2
AcAdDepMgr
  3
DesignerServices
 90
        0
280
     0
281
     0
  0
CLASS
  1
PARAMMGR
  2
AcAdParamMgr
  3
DesignerServices
 90
        0
280
     0
281
     0
  0
CLASS
  1
PARAMSCOPE
  2
AcAdParamScope
  3
DesignerServices
 90
        0
280
     0
281
     0
  0
CLASS
  1
NAMEDAPPL
  2
AcAdNamedAppl
  3
DesignerServices
 90
        0
280
     0
281
     0
  0
CLASS
  1
ADHNTMPLT
  2
AdHoleNoteTemplateMgr
  3
DesignerServices
 90
    32768
280
     0
281
     0
  0
CLASS
  1
AM_HNTEMPLATE_MGR_NAME
  2
AdHoleNoteTemplateMgrName
  3
DesignerServices
 90
    32768
280
     0
281
     0
  0
CLASS
  1
AMDTDMMENUSTATE
  2
AmdtDmMenuState
  3
AcMechDwgViewMgmt
 90
        0
280
     0
281
     0
  0
CLASS
  1
MAPIADMODULE
  2
MApiAdModule
  3
MApiAdServices
 90
        0
280
     0
281
     0
  0
CLASS
  1
AMDTAMMENUSTATE
  2
AmdtAmMenuState
  3
DesignerAssemblies
 90
        0
280
     0
281
     0
  0
CLASS
  1
ACAMPROJECT
  2
AcAmProject
  3
DesignerAssemblies
 90
        0
280
     0
281
     0
  0
CLASS
  1
ACAMGRCOMPDEF
  2
AcAmGrCompDef
  3
DesignerAssemblies
 90
        0
280
     0
281
     0
  0
CLASS
  1
ACCMCONTEXT
  2
AcCmContext
  3
DesignerAssemblies
 90
        0
280
     0
281
     0
  0
CLASS
  1
ACAMCOMPDEF
  2
AcAmCompDef
  3
DesignerAssemblies
 90
        0
280
     0
281
     0
  0
CLASS
  1
ACAMCOMPDEFMGR
  2
AcAmCompDefMgr
  3
DesignerAssemblies
 90
        0
280
     0
281
     0
  0
CLASS
  1
AMCONTEXTMGR
  2
AcAmContextMgr
  3
DesignerAssemblies
 90
        0
280
     0
281
     0
  0
CLASS
  1
ACAMCONTEXTMODELER
  2
AcAmContextModeler
  3
DesignerAssemblies
 90
        0
280
     0
281
     0
  0
CLASS
  1
CATALOGSTATE
  2
AcAmCatalogState
  3
DesignerAssemblies
 90
        0
280
     0
281
     0
  0
CLASS
  1
ACAMGRCOMPDEFSET
  2
AcAmGrCompDefSet
  3
DesignerAssemblies
 90
        0
280
     0
281
     0
  0
CLASS
  1
AMDTBROWSERDBTAB
  2
AmdtBrowserDbTab
  3
McadcomServices
 90
        0
280
     0
281
     0
  0
CLASS
  1
CBROWSERAPPOBJECT
  2
CBrowserAppObject
  3
McadcomServices
 90
        0
280
     0
281
     0
  0
CLASS
  1
DM_PLACEHOLDER
  2
AcDmSelsetPlaceholder
  3
AcMechDwgViewMgmt
 90
        0
280
     0
281
     0
  0
CLASS
  1
ACMPICKOBJ
  2
AcmPickEnt
  3
"AcmSymBB|Product Description: AutoCAD Mechanical|Company: Autodesk"
 90
    32768
280
     0
281
     1
  0
CLASS
  1
ACMNOTESTANDARDISO
  2
AmdtNoteStdISO
  3
"Amdt_StdImp|Product Description: AutoCAD Mechanical|Company: Autodesk"
 90
        0
280
     0
281
     0
  0
CLASS
  1
ACMNOTESTANDARDANSI
  2
AmdtNoteStdANSI
  3
"Amdt_StdImp|Product Description: AutoCAD Mechanical|Company: Autodesk"
 90
    32768
280
     0
281
     0
  0
CLASS
  1
ACMTHREADLINESTANDARDISO
  2
AmdtThreadLineStdISO
  3
"Amdt_StdImp|Product Description: AutoCAD Mechanical|Company: Autodesk"
 90
        0
280
     0
281
     0
  0
CLASS
  1
ACMTHREADLINESTANDARDANSI
  2
AmdtThreadLineStdANSI
  3
"Amdt_StdImp|Product Description: AutoCAD Mechanical|Company: Autodesk"
 90
    32768
280
     0
281
     0
  0
CLASS
  1
TABLESTYLE
  2
AcDbTableStyle
  3
ObjectDBX Classes
 90
     4095
280
     0
281
     0
  0
CLASS
  1
SORTENTSTABLE
  2
AcDbSortentsTable
  3
ObjectDBX Classes
 90
        0
280
     0
281
     0
  0
CLASS
  1
MATERIAL
  2
AcDbMaterial
  3
ObjectDBX Classes
 90
     1024
280
     0
281
     0
  0
CLASS
  1
VISUALSTYLE
  2
AcDbVisualStyle
  3
ObjectDBX Classes
 90
     4095
280
     0
281
     0
  0
CLASS
  1
ACRFATTGENMGR
  2
AcRfAttGeneralMgr
  3
AcAttribServices
 90
    32768
280
     0
281
     0
  0
CLASS
  1
ACRFOBJATTMGR
  2
AcRfObjAttGroupMgr
  3
AcAttribServices
 90
    32768
280
     0
281
     0
  0
CLASS
  1
ACRFMCADAPIATTHOLDER
  2
AcRfMCADAPIAttHolder
  3
AcAttribServices
 90
    32768
280
     0
281
     0
  0
CLASS
  1
AMDTSYSATTR
  2
AmdtSystemAttribute
  3
AcAttribServices
 90
    32768
280
     0
281
     0
  0
CLASS
  1
ACMTAPERSTANDARDISO
  2
AcmTaperStdISO
  3
"Amdt_StdImp|Product Description: AutoCAD Mechanical|Company: Autodesk"
 90
        0
280
     0
281
     0
  0
CLASS
  1
CAMSSTRUCTBTNSTATE
  2
StructBtnState
  3
L"DesignerAssemblies"
 90
        0
280
     0
281
     0
  0
CLASS
  1
DIMASSOC
  2
AcDbDimAssoc
  3
"AcDbDimAssoc|Product Desc:     AcDim ARX App For Dimension|Company:          Autodesk, Inc.|WEB Address:      www.autodesk.com"
 90
    32768
280
     0
281
     0
  0
CLASS
  1
AMDTNOTETEMPLATEDB
  2
AmdtNoteTemplateDB
  3
AMDT_STDIMP_MODULE_NAME
 90
        0
280
     0
281
     0
  0
CLASS
  1
ACMTAPERSTANDARDANSI
  2
AcmTaperStdANSI
  3
"Amdt_StdImp|Product Description: AutoCAD Mechanical|Company: Autodesk"
 90
    32768
280
     0
281
     0
  0
CLASS
  1
ACAMGHOLECHARTSTDANSI
  2
AcAmgHoleChartStdANSI
  3
ACMSYMBB_MODULE_NAME
 90
    32768
280
     0
281
     0
  0
CLASS
  1
AMDTEDGESTANDARDISO13715
  2
AmdtEdgeStdISO13715
  3
"Amdt_StdImp|Product Description: AutoCAD Mechanical|Company: Autodesk"
 90
        0
280
     0
281
     0
  0
CLASS
  1
ACAMGHOLECHARTSTDISO
  2
AcAmgHoleChartStdISO
  3
ACMSYMBB_MODULE_NAME
 90
        0
280
     0
281
     0
  0
CLASS
  1
ACDBDIMENSIONRES
  2
AcDbDimensionRes
  3
L"AcDbDimensionRes|Product Description: AutoCAD Mechanical 2000|Company: Autodesk"
 90
    32768
280
     0
281
     0
  0
ENDSEC
  0
SECTION
  2
TABLES
  0
TABLE
  2
VPORT
  5
8
330
0
100
AcDbSymbolTable
 70
     1
  0
VPORT
  5
B0EC
330
8
100
AcDbSymbolTableRecord
100
AcDbViewportTableRecord
  2
*Active
 70
     0
 10
0.0
 20
0.0
 11
1.0
 21
1.0
 12
-693.9921218201245
 22
-5842.971091315872
 13
0.0
 23
0.0
 14
2.5
 24
2.5
 15
10.0
 25
10.0
 16
0.0
 26
0.0
 36
1.0
 17
0.0
 27
0.0
 37
0.0
 40
599.0743414425196
 41
1.648648648648648
 42
50.0
 43
-1370.695619172058
 44
-1370.695619172058
 50
0.0
 51
0.0
 71
     0
 72
   100
 73
     1
 74
     3
 75
     0
 76
     0
 77
     0
 78
     0
281
     0
 65
     0
110
0.0
120
0.0
130
0.0
111
1.0
121
0.0
131
0.0
112
0.0
122
1.0
132
0.0
 79
     0
146
0.0
  0
ENDTAB
  0
TABLE
  2
LTYPE
  5
5
330
0
100
AcDbSymbolTable
 70
    36
  0
LTYPE
  5
14
330
5
100
AcDbSymbolTableRecord
100
AcDbLinetypeTableRecord
  2
ByBlock
 70
     0
  3

 72
    65
 73
     0
 40
0.0
  0
LTYPE
  5
15
330
5
100
AcDbSymbolTableRecord
100
AcDbLinetypeTableRecord
  2
ByLayer
 70
     0
  3

 72
    65
 73
     0
 40
0.0
  0
LTYPE
  5
16
330
5
100
AcDbSymbolTableRecord
100
AcDbLinetypeTableRecord
  2
Continuous
 70
     0
  3
Solid line
 72
    65
 73
     0
 40
0.0
  0
LTYPE
  5
4F
330
5
100
AcDbSymbolTableRecord
100
AcDbLinetypeTableRecord
  2
AM_ISO02W050
 70
     0
  3
__ __ __ __ __ __ __ __ __ __ __ __ __ __ __
 72
    65
 73
     2
 40
7.5
 49
6.0
 74
     0
 49
-1.5
 74
     0
  0
LTYPE
  5
52
330
5
100
AcDbSymbolTableRecord
100
AcDbLinetypeTableRecord
  2
Amconstr
 70
     0
  3
_______________________
 72
    65
 73
     2
 40
9999.0
 49
9999.0
 74
     0
 49
0.0
 74
     0
  0
LTYPE
  5
64
330
5
100
AcDbSymbolTableRecord
100
AcDbLinetypeTableRecord
  2
ACISOWELD
 70
     0
  3
_ _ _ _ _
 72
    65
 73
     2
 40
2.0
 49
2.0
 74
     0
 49
-1.0
 74
     0
  0
LTYPE
  5
65
330
5
100
AcDbSymbolTableRecord
100
AcDbLinetypeTableRecord
  2
ACISOTGB
 70
     0
  3
__ . . __ . .
 72
    65
 73
     6
 40
9.0
 49
4.0
 74
     0
 49
-1.0
 74
     0
 49
1.0
 74
     0
 49
-1.0
 74
     0
 49
1.0
 74
     0
 49
-1.0
 74
     0
  0
LTYPE
  5
66
330
5
100
AcDbSymbolTableRecord
100
AcDbLinetypeTableRecord
  2
ACISOTGL
 70
     0
  3
_ _ _ _ _
 72
    65
 73
     2
 40
3.0
 49
2.0
 74
     0
 49
-1.0
 74
     0
  0
LTYPE
  5
69
330
5
100
AcDbSymbolTableRecord
100
AcDbLinetypeTableRecord
  2
CENTER
 70
     0
  3
__ . __
 72
    65
 73
     4
 40
7.0
 49
4.0
 74
     0
 49
-1.0
 74
     0
 49
1.0
 74
     0
 49
-1.0
 74
     0
  0
LTYPE
  5
A6E
330
5
100
AcDbSymbolTableRecord
100
AcDbLinetypeTableRecord
  2
PHANTOM2
 70
     0
  3
Phantom (.5x) ___ _ _ ___ _ _ ___ _ _ ___ _ _
 72
    65
 73
     6
 40
31.75
 49
15.875
 74
     0
 49
-3.174999999999999
 74
     0
 49
3.174999999999999
 74
     0
 49
-3.174999999999999
 74
     0
 49
3.174999999999999
 74
     0
 49
-3.174999999999999
 74
     0
  0
LTYPE
  5
4DED
330
5
100
AcDbSymbolTableRecord
100
AcDbLinetypeTableRecord
  2
中線
 70
     0
  3
___________________
 72
    65
 73
     2
 40
2.0
 49
1.0
 74
     0
 49
1.0
 74
     0
  0
LTYPE
  5
4DF6
330
5
100
AcDbSymbolTableRecord
100
AcDbLinetypeTableRecord
  2
細線
 70
     0
  3
___________________
 72
    65
 73
     2
 40
2.0
 49
1.0
 74
     0
 49
1.0
 74
     0
  0
LTYPE
  5
4DF7
330
5
100
AcDbSymbolTableRecord
100
AcDbLinetypeTableRecord
  2
太線
 70
     0
  3
___________________
 72
    65
 73
     2
 40
2.0
 49
1.0
 74
     0
 49
1.0
 74
     0
  0
LTYPE
  5
4EA7
330
5
100
AcDbSymbolTableRecord
100
AcDbLinetypeTableRecord
  2
文字
 70
     0
  3
_________________
 72
    65
 73
     2
 40
2.0
 49
1.0
 74
     0
 49
1.0
 74
     0
  0
LTYPE
  5
4EA9
330
5
100
AcDbSymbolTableRecord
100
AcDbLinetypeTableRecord
  2
寸法線
 70
     0
  3
________________
 72
    65
 73
     2
 40
2.0
 49
1.0
 74
     0
 49
1.0
 74
     0
  0
LTYPE
  5
4F12
330
5
100
AcDbSymbolTableRecord
100
AcDbLinetypeTableRecord
  2
ハッチング
 70
     0
  3
_________________
 72
    65
 73
     2
 40
2.0
 49
1.0
 74
     0
 49
1.0
 74
     0
  0
LTYPE
  5
5180
330
5
100
AcDbSymbolTableRecord
100
AcDbLinetypeTableRecord
  2
陰線1
 70
     0
  3
__ __ __ __
 72
    65
 73
     2
 40
4.0
 49
2.2
 74
     0
 49
-1.8
 74
     0
  0
LTYPE
  5
5182
330
5
100
AcDbSymbolTableRecord
100
AcDbLinetypeTableRecord
  2
切断線
 70
     0
  3
/\/-/\/-/\/-/\/-/\/-/\/
 72
    65
 73
     2
 40
11.0001
 49
0.0001
 74
     4
 75
   135
340
56
 46
0.04
 50
0.0
 44
0.0
 45
0.0
 49
-11.0
 74
     0
  0
LTYPE
  5
5183
330
5
100
AcDbSymbolTableRecord
100
AcDbLinetypeTableRecord
  2
想像線1
 70
     0
  3
__ __ __ _____ __ __ ____
 72
    65
 73
     6
 40
14.5
 49
6.0
 74
     0
 49
-1.5
 74
     0
 49
2.0
 74
     0
 49
-1.5
 74
     0
 49
2.0
 74
     0
 49
-1.5
 74
     0
  0
LTYPE
  5
5185
330
5
100
AcDbSymbolTableRecord
100
AcDbLinetypeTableRecord
  2
中心線1
 70
     0
  3
___ _ ___ _ ___
 72
    65
 73
     4
 40
18.0
 49
12.0
 74
     0
 49
-2.0
 74
     0
 49
2.0
 74
     0
 49
-2.0
 74
     0
  0
LTYPE
  5
5188
330
5
100
AcDbSymbolTableRecord
100
AcDbLinetypeTableRecord
  2
補助線
 70
     0
  3
______________
 72
    65
 73
     2
 40
2.0
 49
1.0
 74
     0
 49
1.0
 74
     0
  0
LTYPE
  5
6427
330
5
100
AcDbSymbolTableRecord
100
AcDbLinetypeTableRecord
  2
HIDDEN
 70
     0
  3
Hidden __ __ __ __ __ __ __ __ __ __ __ __ __ _
 72
    65
 73
     2
 40
0.375
 49
0.25
 74
     0
 49
-0.125
 74
     0
  0
LTYPE
  5
AC81
330
5
100
AcDbSymbolTableRecord
100
AcDbLinetypeTableRecord
  2
破断線
 70
     0
  3
/\/-/\/-/\/-/\/-/\/-/\/
 72
    65
 73
     2
 40
0.4401
 49
0.0001
 74
     4
 75
   136
340
AC80
 46
0.0016
 50
0.0
 44
0.0
 45
0.0
 49
-0.4400000000000001
 74
     0
  0
LTYPE
  5
AC9E
330
5
100
AcDbSymbolTableRecord
100
AcDbLinetypeTableRecord
  2
Amzigzag
 70
     0
  3
/\/-/\/-/\/-/\/-/\/-/\/
 72
    65
 73
     2
 40
11.0001
 49
0.0001
 74
     4
 75
   135
340
56
 46
0.04
 50
0.0
 44
0.0
 45
0.0
 49
-11.0
 74
     0
  0
LTYPE
  5
AF0F
330
5
100
AcDbSymbolTableRecord
100
AcDbLinetypeTableRecord
  2
genzigzag
 70
     0
  3
/\/-/\/-/\/-/\/-/\/-/\/
 72
    65
 73
     2
 40
12.0001
 49
0.0001
 74
     4
 75
   135
340
AC80
 46
2.0
 50
0.0
 44
0.0
 45
0.0
 49
-12.0
 74
     0
  0
LTYPE
  5
AF95
330
5
100
AcDbSymbolTableRecord
100
AcDbLinetypeTableRecord
  2
AM_ISO08W050
 70
     0
  3
____ . ____ . ____ . ____ . ____ . ____ . ____
 72
    65
 73
     4
 40
18.0
 49
12.0
 74
     0
 49
-1.5
 74
     0
 49
3.0
 74
     0
 49
-1.5
 74
     0
  0
LTYPE
  5
AF96
330
5
100
AcDbSymbolTableRecord
100
AcDbLinetypeTableRecord
  2
AM_ISO09W050
 70
     0
  3
_____ . . _____ . . _____ . . ____ .. ____
 72
    65
 73
     6
 40
22.5
 49
12.0
 74
     0
 49
-1.5
 74
     0
 49
3.0
 74
     0
 49
-1.5
 74
     0
 49
3.0
 74
     0
 49
-1.5
 74
     0
  0
LTYPE
  5
AF97
330
5
100
AcDbSymbolTableRecord
100
AcDbLinetypeTableRecord
  2
AM_ISO08W050x2
 70
     0
  3
__ . __ . __ . __ . __ . __
 72
    65
 73
     4
 40
9.0
 49
6.0
 74
     0
 49
-0.75
 74
     0
 49
1.5
 74
     0
 49
-0.75
 74
     0
  0
LTYPE
  5
AF98
330
5
100
AcDbSymbolTableRecord
100
AcDbLinetypeTableRecord
  2
AM_ISO02W050x2
 70
     0
  3
 _ _ _ _ _ _ _ _ _ _ _ _
 72
    65
 73
     2
 40
3.75
 49
3.0
 74
     0
 49
-0.75
 74
     0
  0
LTYPE
  5
D8F5
330
5
100
AcDbSymbolTableRecord
100
AcDbLinetypeTableRecord
  2
DOT
 70
     0
  3
・・・・・・・・・・・・・・・
 72
    65
 73
     2
 40
6.5
 49
0.1
 74
     0
 49
-6.4
 74
     0
  0
LTYPE
  5
D8F6
330
5
100
AcDbSymbolTableRecord
100
AcDbLinetypeTableRecord
  2
CENTER2
 70
     0
  3
Center (.5x) ___ _ ___ _ ___ _ ___ _ ___ _ ___
 72
    65
 73
     4
 40
1.125
 49
0.75
 74
     0
 49
-0.125
 74
     0
 49
0.125
 74
     0
 49
-0.125
 74
     0
  0
LTYPE
  5
D8F7
330
5
100
AcDbSymbolTableRecord
100
AcDbLinetypeTableRecord
  2
HIDDEN2
 70
     0
  3
Hidden (.5x) _ _ _ _ _ _ _ _ _ _ _ _ _ _ _ _ _
 72
    65
 73
     2
 40
0.1875
 49
0.125
 74
     0
 49
-0.0625
 74
     0
  0
LTYPE
  5
D8F8
330
5
100
AcDbSymbolTableRecord
100
AcDbLinetypeTableRecord
  2
Amzigzag2
 70
     0
  3
/\/-/\/-/\/-/\/-/\/-/\/
 72
    65
 73
     2
 40
0.4401
 49
0.0001
 74
     4
 75
   136
340
AC80
 46
0.0016
 50
0.0
 44
0.0
 45
0.0
 49
-0.4400000000000001
 74
     0
  0
LTYPE
  5
D8F9
330
5
100
AcDbSymbolTableRecord
100
AcDbLinetypeTableRecord
  2
ACANSTGB
 70
     0
  3
__ . . __ . .
 72
    65
 73
     6
 40
0.35433070866
 49
0.15748031496
 74
     0
 49
-0.03937007874
 74
     0
 49
0.03937007874
 74
     0
 49
-0.03937007874
 74
     0
 49
0.03937007874
 74
     0
 49
-0.03937007874
 74
     0
  0
LTYPE
  5
D8FA
330
5
100
AcDbSymbolTableRecord
100
AcDbLinetypeTableRecord
  2
ACANSTGL
 70
     0
  3
_ _ _ _ _
 72
    65
 73
     2
 40
0.11811023622
 49
0.07874015748
 74
     0
 49
-0.03937007874
 74
     0
  0
LTYPE
  5
DC14
330
5
100
AcDbSymbolTableRecord
100
AcDbLinetypeTableRecord
  2
DASHED
 70
     0
  3
- - - - - - - - - - -
 72
    65
 73
     2
 40
19.1
 49
12.7
 74
     0
 49
-6.4
 74
     0
  0
LTYPE
  5
186CB
330
5
100
AcDbSymbolTableRecord
100
AcDbLinetypeTableRecord
  2
PHANTOM
 70
     0
  3
- ･ ･ - ･ ･ - ･ ･ - ･ ･ - ･ ･ - ･ ･ - ･ ･ - 
 72
    65
 73
     6
 40
63.79999999999999
 49
31.8
 74
     0
 49
-6.4
 74
     0
 49
6.4
 74
     0
 49
-6.4
 74
     0
 49
6.4
 74
     0
 49
-6.4
 74
     0
  0
LTYPE
  5
93D29
330
5
100
AcDbSymbolTableRecord
100
AcDbLinetypeTableRecord
  2
BORDER
 70
     0
  3
__ __ . __ __ . __ __ . __ __ . __ __ . __ __ .
 72
    65
 73
     6
 40
8.75
 49
2.5
 74
     0
 49
-1.25
 74
     0
 49
2.5
 74
     0
 49
-1.25
 74
     0
 49
0.0
 74
     0
 49
-1.25
 74
     0
  0
ENDTAB
  0
TABLE
  2
LAYER
  5
2
102
{ACAD_XDICTIONARY
360
3F95
102
}
330
0
100
AcDbSymbolTable
 70
    41
  0
LAYER
  5
10
330
2
100
AcDbSymbolTableRecord
100
AcDbLayerTableRecord
  2
0
 70
     0
 62
     7
  6
Continuous
370
    -3
390
F
  0
LAYER
  5
6D1
330
2
100
AcDbSymbolTableRecord
100
AcDbLayerTableRecord
  2
Defpoints
 70
     0
 62
     7
  6
Continuous
290
     0
370
    -3
390
F
  0
LAYER
  5
5F85
330
2
100
AcDbSymbolTableRecord
100
AcDbLayerTableRecord
  2
AM_0
 70
     0
 62
     7
  6
中線
370
    30
390
F
1001
AcAecLayerStandard
1000

1000

  0
LAYER
  5
AC9F
330
2
100
AcDbSymbolTableRecord
100
AcDbLayerTableRecord
  2
size
 70
     0
 62
     5
  6
Continuous
290
     0
370
    25
390
F
  0
LAYER
  5
ACA0
330
2
100
AcDbSymbolTableRecord
100
AcDbLayerTableRecord
  2
waku
 70
     0
 62
     7
  6
Continuous
370
    35
390
F
  0
LAYER
  5
ACA1
330
2
100
AcDbSymbolTableRecord
100
AcDbLayerTableRecord
  2
AM_6
 70
     0
 62
     2
  6
文字
370
    13
390
F
1001
AcAecLayerStandard
1000

1000

  0
LAYER
  5
ACC8
330
2
100
AcDbSymbolTableRecord
100
AcDbLayerTableRecord
  2
hyomoji
 70
     0
 62
     2
  6
Continuous
370
    13
390
F
  0
LAYER
  5
ACC9
330
2
100
AcDbSymbolTableRecord
100
AcDbLayerTableRecord
  2
hyosen1
 70
     0
 62
     1
  6
Continuous
370
    25
390
F
  0
LAYER
  5
ACCA
330
2
100
AcDbSymbolTableRecord
100
AcDbLayerTableRecord
  2
hyosen2
 70
     0
 62
     1
  6
Continuous
370
    13
390
F
  0
LAYER
  5
AD60
330
2
100
AcDbSymbolTableRecord
100
AcDbLayerTableRecord
  2
AM_1
 70
     0
 62
    30
  6
太線
370
    40
390
F
1001
AcAecLayerStandard
1000

1000

  0
LAYER
  5
AD64
330
2
100
AcDbSymbolTableRecord
100
AcDbLayerTableRecord
  2
AM_2
 70
     0
 62
     1
  6
細線
370
    13
390
F
1001
AcAecLayerStandard
1000

1000

  0
LAYER
  5
AD67
330
2
100
AcDbSymbolTableRecord
100
AcDbLayerTableRecord
  2
AM_3
 70
     0
 62
     6
  6
陰線1
370
    13
390
F
1001
AcAecLayerStandard
1000

1000

  0
LAYER
  5
AD68
330
2
100
AcDbSymbolTableRecord
100
AcDbLayerTableRecord
  2
AM_5
 70
     0
 62
     3
  6
寸法線
370
    13
390
F
1001
AcAecLayerStandard
1000

1000

  0
LAYER
  5
AD69
330
2
100
AcDbSymbolTableRecord
100
AcDbLayerTableRecord
  2
AM_7
 70
     0
 62
     4
  6
中心線1
370
    13
390
F
1001
AcAecLayerStandard
1000

1000

  0
LAYER
  5
AD6A
330
2
100
AcDbSymbolTableRecord
100
AcDbLayerTableRecord
  2
AM_8
 70
     0
 62
     1
  6
ハッチング
370
    13
390
F
1001
AcAecLayerStandard
1000

1000

  0
LAYER
  5
AD6E
330
2
100
AcDbSymbolTableRecord
100
AcDbLayerTableRecord
  2
AM_10
 70
     0
 62
     7
  6
切断線
370
    13
390
F
1001
AcAecLayerStandard
1000

1000

  0
LAYER
  5
AD6F
330
2
100
AcDbSymbolTableRecord
100
AcDbLayerTableRecord
  2
AM_11
 70
     0
 62
     2
  6
想像線1
370
    13
390
F
1001
AcAecLayerStandard
1000

1000

  0
LAYER
  5
B1B6
330
2
100
AcDbSymbolTableRecord
100
AcDbLayerTableRecord
  2
AM_CL
 70
     0
 62
     1
  6
Amconstr
370
    15
390
F
1001
AcAecLayerStandard
1000

1000

  0
LAYER
  5
B2EB
330
2
100
AcDbSymbolTableRecord
100
AcDbLayerTableRecord
  2
AM_14
 70
     0
 62
     5
  6
細線
370
     9
390
F
1001
AcAecLayerStandard
1000

1000

  0
LAYER
  5
B2EC
330
2
100
AcDbSymbolTableRecord
100
AcDbLayerTableRecord
  2
AM_15
 70
     0
 62
     6
  6
陰線1
370
     9
390
F
1001
AcAecLayerStandard
1000

1000

  0
LAYER
  5
B657
330
2
100
AcDbSymbolTableRecord
100
AcDbLayerTableRecord
  2
カバー取付ブラケット
 70
     0
 62
     1
  6
中線
370
    30
390
F
1001
AcAecLayerStandard
1000

1000

  0
LAYER
  5
C364
330
2
100
AcDbSymbolTableRecord
100
AcDbLayerTableRecord
  2
調整板
 70
     0
 62
   191
  6
中線
370
    30
390
F
1001
AcAecLayerStandard
1000

1000

  0
LAYER
  5
C365
330
2
100
AcDbSymbolTableRecord
100
AcDbLayerTableRecord
  2
本体（枠）
 70
     0
 62
    11
  6
中線
370
    30
390
F
1001
AcAecLayerStandard
1000

1000

  0
LAYER
  5
C366
330
2
100
AcDbSymbolTableRecord
100
AcDbLayerTableRecord
  2
本体（扉）
 70
     0
 62
   151
  6
中線
370
    30
390
F
1001
AcAecLayerStandard
1000

1000

  0
LAYER
  5
C367
330
2
100
AcDbSymbolTableRecord
100
AcDbLayerTableRecord
  2
カバー
 70
     0
 62
    41
  6
中線
370
    30
390
F
1001
AcAecLayerStandard
1000

1000

  0
LAYER
  5
C368
330
2
100
AcDbSymbolTableRecord
100
AcDbLayerTableRecord
  2
軸
 70
     0
 62
    91
  6
中線
370
    30
390
F
1001
AcAecLayerStandard
1000

1000

  0
LAYER
  5
C369
330
2
100
AcDbSymbolTableRecord
100
AcDbLayerTableRecord
  2
樹脂ワッシャA
 70
     0
 62
    40
  6
中線
370
    30
390
F
1001
AcAecLayerStandard
1000

1000

  0
LAYER
  5
C36A
330
2
100
AcDbSymbolTableRecord
100
AcDbLayerTableRecord
  2
樹脂ワッシャB
 70
     0
 62
   200
  6
中線
370
    30
390
F
1001
AcAecLayerStandard
1000

1000

  0
LAYER
  5
DC15
330
2
100
AcDbSymbolTableRecord
100
AcDbLayerTableRecord
  2
CSLAYER2
 70
     0
 62
     3
  6
Continuous
370
    -3
390
F
  0
LAYER
  5
DC16
330
2
100
AcDbSymbolTableRecord
100
AcDbLayerTableRecord
  2
CSLAYER4
 70
     0
 62
     3
  6
Continuous
370
    -3
390
F
  0
LAYER
  5
E707
330
2
100
AcDbSymbolTableRecord
100
AcDbLayerTableRecord
  2
CSLAYER3
 70
     0
 62
     3
  6
Continuous
370
    -3
390
F
  0
LAYER
  5
161BF
330
2
100
AcDbSymbolTableRecord
100
AcDbLayerTableRecord
  2
CSLAYER8
 70
     0
 62
     3
  6
Continuous
370
    -3
390
F
  0
LAYER
  5
19481
330
2
100
AcDbSymbolTableRecord
100
AcDbLayerTableRecord
  2
CSLAYER7
 70
     0
 62
     3
  6
Continuous
370
    -3
390
F
  0
LAYER
  5
19482
330
2
100
AcDbSymbolTableRecord
100
AcDbLayerTableRecord
  2
CSLAYER11
 70
     0
 62
     3
  6
Continuous
370
    -3
390
F
  0
LAYER
  5
19483
330
2
100
AcDbSymbolTableRecord
100
AcDbLayerTableRecord
  2
CSLAYER12
 70
     0
 62
     3
  6
Continuous
370
    -3
390
F
  0
LAYER
  5
1F5A4
330
2
100
AcDbSymbolTableRecord
100
AcDbLayerTableRecord
  2
CSLAYER5
 70
     0
 62
     3
  6
Continuous
370
    -3
390
F
  0
LAYER
  5
5AFB5
330
2
100
AcDbSymbolTableRecord
100
AcDbLayerTableRecord
  2
取手
 70
     0
 62
   120
  6
中線
370
    30
390
F
1001
AcAecLayerStandard
1000

1000

  0
LAYER
  5
5AFB6
330
2
100
AcDbSymbolTableRecord
100
AcDbLayerTableRecord
  2
台座
 70
     0
 62
   211
  6
中線
370
    30
390
F
1001
AcAecLayerStandard
1000

1000

  0
LAYER
  5
5AFB7
330
2
100
AcDbSymbolTableRecord
100
AcDbLayerTableRecord
  2
スプリングピン
 70
     0
 62
   230
  6
中線
370
    30
390
F
1001
AcAecLayerStandard
1000

1000

  0
LAYER
  5
9211F
330
2
100
AcDbSymbolTableRecord
100
AcDbLayerTableRecord
  2
0文字
 70
     0
 62
     2
  6
Continuous
370
    13
390
F
1001
AcAecLayerStandard
1000

1000

  0
LAYER
  5
92120
330
2
100
AcDbSymbolTableRecord
100
AcDbLayerTableRecord
  2
1
 70
     0
 62
     7
  6
Continuous
370
    30
390
F
  0
ENDTAB
  0
TABLE
  2
STYLE
  5
3
330
0
100
AcDbSymbolTable
 70
     9
  0
STYLE
  5
11
330
3
100
AcDbSymbolTableRecord
100
AcDbTextStyleTableRecord
  2
STANDARD
 70
     0
 40
0.0
 41
0.7
 50
0.0
 71
     0
 42
3.2
  3
romans.shx
  4
extfont.shx
  0
STYLE
  5
56
330
3
100
AcDbSymbolTableRecord
100
AcDbTextStyleTableRecord
  2

 70
     1
 40
0.0
 41
1.0
 50
0.0
 71
     0
 42
2.5
  3
ltypeshp.shx
  4

  0
STYLE
  5
58
330
3
100
AcDbSymbolTableRecord
100
AcDbTextStyleTableRecord
  2
ACISOTS
 70
     0
 40
1.0
 41
1.0
 50
0.0
 71
     0
 42
2.5
  3
isocp.shx
  4
extfont.shx
  0
STYLE
  5
63
330
3
100
AcDbSymbolTableRecord
100
AcDbTextStyleTableRecord
  2
ACISOGDT
 70
     0
 40
0.0
 41
1.0
 50
0.0
 71
     0
 42
2.5
  3
amgdt.shx
  4

  0
STYLE
  5
A74
330
3
100
AcDbSymbolTableRecord
100
AcDbTextStyleTableRecord
  2
DIM
 70
     0
 40
0.0
 41
1.0
 50
0.0
 71
     0
 42
2.5
  3
monotxt.shx
  4
extfont.shx
  0
STYLE
  5
AC80
330
3
100
AcDbSymbolTableRecord
100
AcDbTextStyleTableRecord
  2

 70
     1
 40
0.0
 41
1.0
 50
0.0
 71
     0
 42
3.2
  3
genltshp.shx
  4

  0
STYLE
  5
D8FB
330
3
100
AcDbSymbolTableRecord
100
AcDbTextStyleTableRecord
  2
ED_VECTOR
 70
     0
 40
0.0
 41
1.0
 50
0.0
 71
     0
 42
0.0
  3
MONOTXT.SHX
  4
BIGFONT.SHX
  0
STYLE
  5
D8FC
330
3
100
AcDbSymbolTableRecord
100
AcDbTextStyleTableRecord
  2
ACANSTS
 70
     0
 40
1.0
 41
1.0
 50
0.0
 71
     0
 42
2.5
  3
romans.shx
  4
extfont.shx
  0
STYLE
  5
D8FD
330
3
100
AcDbSymbolTableRecord
100
AcDbTextStyleTableRecord
  2
ACANSGDT
 70
     0
 40
0.0
 41
1.0
 50
0.0
 71
     0
 42
2.5
  3
amgdt.shx
  4

  0
ENDTAB
  0
TABLE
  2
VIEW
  5
6
330
0
100
AcDbSymbolTable
 70
     6
  0
VIEW
  5
AE1
330
6
100
AcDbSymbolTableRecord
100
AcDbViewTableRecord
  2
AM_VIEW1
 70
     0
 40
297.0
 10
-970.0097649269439
 20
-11756.86094600418
 41
473.7940828402367
 11
0.0
 21
0.0
 31
1.0
 12
0.0
 22
0.0
 32
0.0
 42
50.0
 43
-1370.695619172058
 44
-1370.695619172058
 50
0.0
 71
     0
281
     0
 72
     0
  0
VIEW
  5
AE2
330
6
100
AcDbSymbolTableRecord
100
AcDbViewTableRecord
  2
AM_VIEW2
 70
     0
 40
297.0
 10
-603.8038477671805
 20
-11756.86094600418
 41
473.7940828402367
 11
0.0
 21
0.0
 31
1.0
 12
0.0
 22
0.0
 32
0.0
 42
50.0
 43
-1370.695619172058
 44
-1370.695619172058
 50
0.0
 71
     0
281
     0
 72
     0
  0
VIEW
  5
AE3
330
6
100
AcDbSymbolTableRecord
100
AcDbViewTableRecord
  2
AM_VIEW3
 70
     0
 40
297.0
 10
-970.0097649269439
 20
-12053.86094600418
 41
473.7940828402367
 11
0.0
 21
0.0
 31
1.0
 12
0.0
 22
0.0
 32
0.0
 42
50.0
 43
-1370.695619172058
 44
-1370.695619172058
 50
0.0
 71
     0
281
     0
 72
     0
  0
VIEW
  5
AE4
330
6
100
AcDbSymbolTableRecord
100
AcDbViewTableRecord
  2
AM_VIEW4
 70
     0
 40
297.0
 10
-603.8038477671805
 20
-12053.86094600418
 41
473.7940828402367
 11
0.0
 21
0.0
 31
1.0
 12
0.0
 22
0.0
 32
0.0
 42
50.0
 43
-1370.695619172058
 44
-1370.695619172058
 50
0.0
 71
     0
281
     0
 72
     0
  0
VIEW
  5
AE5
330
6
100
AcDbSymbolTableRecord
100
AcDbViewTableRecord
  2
AM_VIEW5
 70
     0
 40
297.0
 10
-786.9068063470622
 20
-11905.36094600418
 41
473.7940828402365
 11
0.0
 21
0.0
 31
1.0
 12
0.0
 22
0.0
 32
0.0
 42
50.0
 43
-1370.695619172058
 44
-1370.695619172058
 50
0.0
 71
     0
281
     0
 72
     0
  0
VIEW
  5
AE6
330
6
100
AcDbSymbolTableRecord
100
AcDbViewTableRecord
  2
AM_VIEW6
 70
     0
 40
593.9940600000008
 10
-786.9068063470622
 20
-11905.36094600418
 41
947.5786897988164
 11
0.0
 21
0.0
 31
1.0
 12
0.0
 22
0.0
 32
0.0
 42
50.0
 43
-1370.695619172058
 44
-1370.695619172058
 50
0.0
 71
     0
281
     0
 72
     0
  0
ENDTAB
  0
TABLE
  2
UCS
  5
7
330
0
100
AcDbSymbolTable
 70
     0
  0
ENDTAB
  0
TABLE
  2
APPID
  5
9
330
0
100
AcDbSymbolTable
 70
    56
  0
APPID
  5
12
330
9
100
AcDbSymbolTableRecord
100
AcDbRegAppTableRecord
  2
ACAD
 70
     0
  0
APPID
  5
30
330
9
100
AcDbSymbolTableRecord
100
AcDbRegAppTableRecord
  2
MCAD_NO_VIS
 70
     0
  0
APPID
  5
31
330
9
100
AcDbSymbolTableRecord
100
AcDbRegAppTableRecord
  2
ACAD_TEMP_GRAPHIC
 70
     0
  0
APPID
  5
44
330
9
100
AcDbSymbolTableRecord
100
AcDbRegAppTableRecord
  2
ACATTRIBSERVICES
 70
     0
  0
APPID
  5
7A1
330
9
100
AcDbSymbolTableRecord
100
AcDbRegAppTableRecord
  2
GENIUS_GENDIMSH_14
 70
     0
  0
APPID
  5
A49
330
9
100
AcDbSymbolTableRecord
100
AcDbRegAppTableRecord
  2
GENIUS_GENREC_14
 70
     0
  0
APPID
  5
A4A
330
9
100
AcDbSymbolTableRecord
100
AcDbRegAppTableRecord
  2
GENIUS_GENOBJ-N-REC_13
 70
     0
  0
APPID
  5
A4B
330
9
100
AcDbSymbolTableRecord
100
AcDbRegAppTableRecord
  2
GENIUS_GENODEF_13
 70
     0
  0
APPID
  5
A4C
330
9
100
AcDbSymbolTableRecord
100
AcDbRegAppTableRecord
  2
DCO15
 70
     0
  0
APPID
  5
ADC
330
9
100
AcDbSymbolTableRecord
100
AcDbRegAppTableRecord
  2
GENIUS_GENOLIS_13
 70
     0
  0
APPID
  5
ADD
330
9
100
AcDbSymbolTableRecord
100
AcDbRegAppTableRecord
  2
GENIUS_GENOENT_13
 70
     0
  0
APPID
  5
ADE
330
9
100
AcDbSymbolTableRecord
100
AcDbRegAppTableRecord
  2
GENIUS_GENOBJ-N-TIT_13
 70
     0
  0
APPID
  5
ADF
330
9
100
AcDbSymbolTableRecord
100
AcDbRegAppTableRecord
  2
GENIUS_GENTITLE_13
 70
     0
  0
APPID
  5
AE0
330
9
100
AcDbSymbolTableRecord
100
AcDbRegAppTableRecord
  2
GENIUS_GENOREF_13
 70
     0
  0
APPID
  5
AE7
330
9
100
AcDbSymbolTableRecord
100
AcDbRegAppTableRecord
  2
GENIUS_GENSCREG_15
 70
     0
  0
APPID
  5
AE8
330
9
100
AcDbSymbolTableRecord
100
AcDbRegAppTableRecord
  2
GENIUS_GENOBJ-N-SDF_13
 70
     0
  0
APPID
  5
FAF
330
9
100
AcDbSymbolTableRecord
100
AcDbRegAppTableRecord
  2
GENIUS_GENBLLY_14
 70
     0
  0
APPID
  5
FB0
330
9
100
AcDbSymbolTableRecord
100
AcDbRegAppTableRecord
  2
GENIUS_GENTRA_14
 70
     0
  0
APPID
  5
1285
330
9
100
AcDbSymbolTableRecord
100
AcDbRegAppTableRecord
  2
GENIUS_GENDTOL_13
 70
     0
  0
APPID
  5
142D
330
9
100
AcDbSymbolTableRecord
100
AcDbRegAppTableRecord
  2
GENIUS_GENOBJ-N-CEN_13
 70
     0
  0
APPID
  5
1AB5
330
9
100
AcDbSymbolTableRecord
100
AcDbRegAppTableRecord
  2
GENIUS_GENOBJ-N-CRS_13
 70
     0
  0
APPID
  5
1B36
330
9
100
AcDbSymbolTableRecord
100
AcDbRegAppTableRecord
  2
GENIUS_GENOBJ-N-HTC_13
 70
     0
  0
APPID
  5
1B37
330
9
100
AcDbSymbolTableRecord
100
AcDbRegAppTableRecord
  2
GENIUS_GENHATCH_13
 70
     0
  0
APPID
  5
216D
330
9
100
AcDbSymbolTableRecord
100
AcDbRegAppTableRecord
  2
GENIUS_GENOBJ-N-FIL_13
 70
     0
  0
APPID
  5
2356
330
9
100
AcDbSymbolTableRecord
100
AcDbRegAppTableRecord
  2
GEVID990412420
 70
     0
  0
APPID
  5
2357
330
9
100
AcDbSymbolTableRecord
100
AcDbRegAppTableRecord
  2
GEVDC
 70
     0
  0
APPID
  5
2358
330
9
100
AcDbSymbolTableRecord
100
AcDbRegAppTableRecord
  2
GEVCON
 70
     0
  0
APPID
  5
235B
330
9
100
AcDbSymbolTableRecord
100
AcDbRegAppTableRecord
  2
GEVRADREF
 70
     0
  0
APPID
  5
2360
330
9
100
AcDbSymbolTableRecord
100
AcDbRegAppTableRecord
  2
GENIUS_GENBH_13
 70
     0
  0
APPID
  5
2362
330
9
100
AcDbSymbolTableRecord
100
AcDbRegAppTableRecord
  2
GENIUS_GENOBJ-NBEHI-BHF_13
 70
     0
  0
APPID
  5
2364
330
9
100
AcDbSymbolTableRecord
100
AcDbRegAppTableRecord
  2
GENIUS_GENOBJ-NBEHI-BHB_13
 70
     0
  0
APPID
  5
2379
330
9
100
AcDbSymbolTableRecord
100
AcDbRegAppTableRecord
  2
GENIUS_GENOBJ-F-SCPASSM_13
 70
     0
  0
APPID
  5
3D74
330
9
100
AcDbSymbolTableRecord
100
AcDbRegAppTableRecord
  2
GENIUS_GENDIM_13
 70
     0
  0
APPID
  5
3D76
330
9
100
AcDbSymbolTableRecord
100
AcDbRegAppTableRecord
  2
GENIUS_GE3DTOL_13
 70
     0
  0
APPID
  5
3D9C
330
9
100
AcDbSymbolTableRecord
100
AcDbRegAppTableRecord
  2
AD_DRAW
 70
     0
  0
APPID
  5
3DE8
330
9
100
AcDbSymbolTableRecord
100
AcDbRegAppTableRecord
  2
ASURF_PCURVE_APPNAME
 70
     0
  0
APPID
  5
3DED
330
9
100
AcDbSymbolTableRecord
100
AcDbRegAppTableRecord
  2
AMG_3D2D_5.0
 70
     0
  0
APPID
  5
3E1B
330
9
100
AcDbSymbolTableRecord
100
AcDbRegAppTableRecord
  2
DESIGNERASSEMBLIES
 70
     0
  0
APPID
  5
3E20
330
9
100
AcDbSymbolTableRecord
100
AcDbRegAppTableRecord
  2
ACADM_DIM_EDIT
 70
     0
  0
APPID
  5
3E21
330
9
100
AcDbSymbolTableRecord
100
AcDbRegAppTableRecord
  2
AMDT_DM_ADJ
 70
     0
  0
APPID
  5
4143
330
9
100
AcDbSymbolTableRecord
100
AcDbRegAppTableRecord
  2
GENIUS_GENFIL_13
 70
     0
  0
APPID
  5
4144
330
9
100
AcDbSymbolTableRecord
100
AcDbRegAppTableRecord
  2
GENIUS_GENOBJ-N-CHA_13
 70
     0
  0
APPID
  5
4E17
330
9
100
AcDbSymbolTableRecord
100
AcDbRegAppTableRecord
  2
GEVID1008153417
 70
     0
  0
APPID
  5
4E58
330
9
100
AcDbSymbolTableRecord
100
AcDbRegAppTableRecord
  2
GEVID1008153418
 70
     0
  0
APPID
  5
4E5E
330
9
100
AcDbSymbolTableRecord
100
AcDbRegAppTableRecord
  2
GEVID1008153419
 70
     0
  0
APPID
  5
4E64
330
9
100
AcDbSymbolTableRecord
100
AcDbRegAppTableRecord
  2
GEVID1008153420
 70
     0
  0
APPID
  5
4E75
330
9
100
AcDbSymbolTableRecord
100
AcDbRegAppTableRecord
  2
GEVID1008153421
 70
     0
  0
APPID
  5
4EB7
330
9
100
AcDbSymbolTableRecord
100
AcDbRegAppTableRecord
  2
GENIUS_AMGTXT_16
 70
     0
  0
APPID
  5
7645
330
9
100
AcDbSymbolTableRecord
100
AcDbRegAppTableRecord
  2
GENIUS_GENOBJ-N-DIM_13
 70
     0
  0
APPID
  5
AAD0
330
9
100
AcDbSymbolTableRecord
100
AcDbRegAppTableRecord
  2
ACAD_DSTYLE_DIMARC_LENGTH_SYMBOL
 70
     0
  0
APPID
  5
AAD1
330
9
100
AcDbSymbolTableRecord
100
AcDbRegAppTableRecord
  2
ACAD_DSTYLE_DIMJOGGED_JOGANGLE_SYMBOL
 70
     0
  0
APPID
  5
AAFD
330
9
100
AcDbSymbolTableRecord
100
AcDbRegAppTableRecord
  2
ACAD_PSEXT
 70
     0
  0
APPID
  5
AD61
330
9
100
AcDbSymbolTableRecord
100
AcDbRegAppTableRecord
  2
AcAecLayerStandard
 70
     0
  0
APPID
  5
AEE3
330
9
100
AcDbSymbolTableRecord
100
AcDbRegAppTableRecord
  2
ACAD_EXEMPT_FROM_CAD_STANDARDS
 70
     0
  0
APPID
  5
B1BE
330
9
100
AcDbSymbolTableRecord
100
AcDbRegAppTableRecord
  2
GENIUS_GENCEN_19
 70
     0
  0
APPID
  5
B4DF
330
9
100
AcDbSymbolTableRecord
100
AcDbRegAppTableRecord
  2
ACAD_MLEADERVER
 70
     0
  0
ENDTAB
  0
TABLE
  2
DIMSTYLE
  5
A
330
0
100
AcDbSymbolTable
 70
    26
100
AcDbDimStyleTable
 71
     1
340
2515
  0
DIMSTYLE
105
A76
330
A
100
AcDbSymbolTableRecord
100
AcDbDimStyleTableRecord
  2
STANDARD
 70
     0
 41
3.0
 42
1.0
 43
7.0
 44
2.0
 73
     0
 74
     0
 77
     1
140
2.799999999999999
141
0.0
143
0.0394
147
0.7
171
     4
172
     1
173
     1
176
     3
177
     3
178
     2
271
     3
272
     3
273
     8
274
     4
289
     0
340
A74
341
A66
343
A66
344
A66
  0
DIMSTYLE
105
2515
330
A
100
AcDbSymbolTableRecord
100
AcDbDimStyleTableRecord
  2
SYS
 70
     0
  4
"
 41
1.0
 42
1.0
 43
10.0
 44
1.0
 47
0.1
 48
0.1
 73
     0
 74
     0
 77
     1
 78
     8
 79
     2
140
3.5
141
0.0
143
0.0393701
146
0.71
147
1.5
172
     1
176
   256
177
   256
178
     7
271
     2
272
     2
283
     0
284
     8
340
11
371
    -1
372
    -1
1001
ACAD_DSTYLE_DIMJOGGED_JOGANGLE_SYMBOL
1070
   384
1040
0.7853981633974483
1001
ACAD_DSTYLE_DIMARC_LENGTH_SYMBOL
1070
   379
1070
     1
  0
DIMSTYLE
105
2516
102
{ACAD_REACTORS
330
A7D61
330
A7D62
330
A7DB3
330
A7DB4
330
A7CEB
330
A7CEC
102
}
330
A
100
AcDbSymbolTableRecord
100
AcDbDimStyleTableRecord
  2
SYS$3
 70
     0
  4
"
 41
2.0
 42
1.0
 43
10.0
 44
1.0
 47
0.1
 48
0.1
 73
     0
 77
     1
 78
     8
 79
     2
140
3.5
141
0.0
143
0.0393701
146
0.71
147
1.5
176
   256
177
   256
178
     2
271
     2
272
     2
283
     0
284
     8
288
     1
340
11
342
A66
371
    -1
372
    -1
1001
ACAD_DSTYLE_DIMJOGGED_JOGANGLE_SYMBOL
1070
   384
1040
0.7853981633974483
1001
ACAD_DSTYLE_DIMARC_LENGTH_SYMBOL
1070
   379
1070
     1
  0
DIMSTYLE
105
2517
330
A
100
AcDbSymbolTableRecord
100
AcDbDimStyleTableRecord
  2
SYS$4
 70
     0
  4
"
 41
2.0
 42
1.0
 43
10.0
 44
1.0
 47
0.1
 48
0.1
 73
     0
 77
     1
 78
     8
 79
     2
140
3.5
141
0.0
143
0.0393701
146
0.71
147
1.5
173
     1
176
   256
177
   256
178
     2
271
     2
272
     2
283
     0
284
     8
288
     1
340
11
344
A66
371
    -1
372
    -1
1001
ACAD_DSTYLE_DIMJOGGED_JOGANGLE_SYMBOL
1070
   384
1040
0.7853981633974483
1001
ACAD_DSTYLE_DIMARC_LENGTH_SYMBOL
1070
   379
1070
     1
  0
DIMSTYLE
105
2518
330
A
100
AcDbSymbolTableRecord
100
AcDbDimStyleTableRecord
  2
SYS$6
 70
     0
  4
"
 41
2.0
 42
1.0
 43
10.0
 44
1.0
 47
0.1
 48
0.1
 73
     0
 74
     0
 78
     8
 79
     2
140
3.5
141
0.0
143
0.0393701
146
0.71
147
1.5
172
     1
176
   256
177
   256
178
     2
271
     2
272
     2
283
     0
284
     8
340
11
341
A66
371
    -1
372
    -1
1001
ACAD_DSTYLE_DIMJOGGED_JOGANGLE_SYMBOL
1070
   384
1040
0.7853981633974483
1001
ACAD_DSTYLE_DIMARC_LENGTH_SYMBOL
1070
   379
1070
     1
  0
DIMSTYLE
105
2519
330
A
100
AcDbSymbolTableRecord
100
AcDbDimStyleTableRecord
  2
SYS$7
 70
     0
  4
"
 41
2.0
 42
1.0
 43
10.0
 44
1.0
 47
0.1
 48
0.1
 73
     0
 74
     0
 77
     1
 78
     8
 79
     2
140
5.0
141
0.0
143
0.0393701
146
0.71
147
1.5
172
     1
176
   256
177
   256
178
     2
271
     2
272
     2
283
     0
284
     8
340
11
341
A66
342
A66
371
    -1
372
    -1
1001
ACAD_DSTYLE_DIMJOGGED_JOGANGLE_SYMBOL
1070
   384
1040
0.7853981633974483
1001
ACAD_DSTYLE_DIMARC_LENGTH_SYMBOL
1070
   379
1070
     1
  0
DIMSTYLE
105
251A
330
A
100
AcDbSymbolTableRecord
100
AcDbDimStyleTableRecord
  2
SYS$SF
 70
     0
  4
"
 41
2.5
 42
1.0
 43
10.0
 44
1.0
 47
0.1
 48
0.1
 73
     0
 74
     0
 75
     1
 76
     1
 77
     1
 78
     8
 79
     2
140
3.5
141
0.0
143
0.0393701
146
0.71
147
1.5
172
     1
176
   256
177
   256
178
     2
271
     2
272
     3
283
     0
284
     8
340
11
341
6C4
342
6C4
371
    -1
372
    -1
1001
ACAD_DSTYLE_DIMJOGGED_JOGANGLE_SYMBOL
1070
   384
1040
0.7853981633974483
1001
ACAD_DSTYLE_DIMARC_LENGTH_SYMBOL
1070
   379
1070
     1
  0
DIMSTYLE
105
251B
330
A
100
AcDbSymbolTableRecord
100
AcDbDimStyleTableRecord
  2
SYS$SH
 70
     0
  4
"
 41
2.5
 42
1.0
 43
10.0
 44
1.0
 47
0.1
 48
0.1
 73
     0
 74
     0
 75
     1
 76
     1
 77
     1
 78
     8
 79
     2
140
3.5
141
0.0
143
0.0393701
144
2.0
146
0.71
147
1.5
172
     1
173
     1
176
   256
177
   256
178
     2
271
     2
272
     3
283
     0
284
     8
340
11
341
6C4
343
72
344
6C4
371
    -1
372
    -1
1001
ACAD_DSTYLE_DIMJOGGED_JOGANGLE_SYMBOL
1070
   384
1040
0.7853981633974483
1001
ACAD_DSTYLE_DIMARC_LENGTH_SYMBOL
1070
   379
1070
     1
  0
DIMSTYLE
105
2A59
330
A
100
AcDbSymbolTableRecord
100
AcDbDimStyleTableRecord
  2
SYS$2
 70
     0
  4
"
 41
1.0
 42
1.0
 43
10.0
 44
1.0
 47
0.1
 48
0.1
 73
     0
 74
     0
 77
     1
 78
     8
 79
     2
140
3.5
141
0.0
143
0.0393701
146
0.71
147
1.5
172
     1
176
   256
177
   256
178
     2
271
     2
272
     2
283
     0
284
     8
340
11
342
6C4
371
    -1
372
    -1
1001
ACAD_DSTYLE_DIMJOGGED_JOGANGLE_SYMBOL
1070
   384
1040
0.7853981633974483
1001
ACAD_DSTYLE_DIMARC_LENGTH_SYMBOL
1070
   379
1070
     1
  0
DIMSTYLE
105
2AAB
102
{ACAD_REACTORS
330
A7D5B
330
A7D5C
330
A7D5D
330
A7D5E
330
A7D5F
330
A7D60
330
A7DAE
330
A7DAF
330
A7DB0
330
A7DB1
330
A7DB2
330
A7CE5
330
A7CE6
330
A7CE7
330
A7CE8
330
A7CE9
330
A7CEA
102
}
330
A
100
AcDbSymbolTableRecord
100
AcDbDimStyleTableRecord
  2
SYS$0
 70
     0
  4
"
 41
1.0
 42
1.0
 43
10.0
 44
1.0
 47
0.1
 48
0.1
 73
     0
 74
     0
 77
     1
 78
     8
 79
     2
140
3.200000000000001
141
0.0
143
0.0393701
146
0.71
147
1.5
172
     1
176
   256
177
   256
178
     2
271
     2
272
     2
283
     0
284
     8
340
11
341
A66
342
6C4
371
    -1
372
    -1
1001
ACAD_DSTYLE_DIMJOGGED_JOGANGLE_SYMBOL
1070
   384
1040
0.7853981633974483
1001
ACAD_DSTYLE_DIMARC_LENGTH_SYMBOL
1070
   379
1070
     1
  0
DIMSTYLE
105
AF99
330
A
100
AcDbSymbolTableRecord
100
AcDbDimStyleTableRecord
  2
AM_ISO
 70
     0
  4
"
 41
2.5
 42
1.0
 43
10.0
 44
1.0
 47
0.1
 48
0.1
 73
     0
 74
     0
 77
     1
 78
     8
 79
     2
140
3.5
141
0.0
143
0.0393701
146
0.71
147
1.5
172
     1
176
   256
177
   256
178
     2
271
     2
272
     3
274
     4
283
     0
284
     8
340
11
371
    -1
372
    -1
  0
DIMSTYLE
105
AF9A
330
A
100
AcDbSymbolTableRecord
100
AcDbDimStyleTableRecord
  2
AM_ISO$3
 70
     0
  4
"
 41
2.5
 42
1.0
 43
10.0
 44
1.0
 47
0.1
 48
0.1
 73
     0
 77
     1
 78
     8
 79
     2
140
3.5
141
0.0
143
0.0393701
146
0.71
147
1.5
176
   256
177
   256
178
     2
271
     2
272
     3
274
     4
283
     0
284
     8
288
     1
289
     0
340
11
371
    -1
372
    -1
  0
DIMSTYLE
105
AF9B
330
A
100
AcDbSymbolTableRecord
100
AcDbDimStyleTableRecord
  2
AM_ISO$4
 70
     0
  4
"
 41
2.5
 42
1.0
 43
10.0
 44
1.0
 47
0.1
 48
0.1
 73
     0
 77
     1
 78
     8
 79
     2
140
3.5
141
0.0
143
0.0393701
146
0.71
147
1.5
176
   256
177
   256
178
     2
271
     2
272
     3
274
     4
283
     0
284
     8
288
     1
289
     0
340
11
371
    -1
372
    -1
  0
DIMSTYLE
105
AF9C
330
A
100
AcDbSymbolTableRecord
100
AcDbDimStyleTableRecord
  2
AM_ISO$6
 70
     0
  4
"
 41
2.5
 42
1.0
 43
10.0
 44
1.0
 47
0.1
 48
0.1
 73
     0
 74
     0
 78
     8
 79
     2
140
3.5
141
0.0
143
0.0393701
146
0.71
147
1.5
172
     1
176
   256
177
   256
178
     2
271
     2
272
     3
274
     4
283
     0
284
     8
340
11
371
    -1
372
    -1
  0
DIMSTYLE
105
AF9D
330
A
100
AcDbSymbolTableRecord
100
AcDbDimStyleTableRecord
  2
AM_ISO$7
 70
     0
  4
"
 41
2.5
 42
1.0
 43
10.0
 44
1.0
 47
0.1
 48
0.1
 73
     0
 74
     0
 77
     1
 78
     8
 79
     2
140
5.0
141
0.0
143
0.0393701
146
0.71
147
1.5
172
     1
176
   256
177
   256
178
     2
271
     2
272
     3
274
     4
283
     0
284
     8
340
11
371
    -1
372
    -1
  0
DIMSTYLE
105
AF9E
330
A
100
AcDbSymbolTableRecord
100
AcDbDimStyleTableRecord
  2
AM_ISO$SF
 70
     0
  4
"
 41
2.5
 42
1.0
 43
10.0
 44
1.0
 47
0.1
 48
0.1
 73
     0
 74
     0
 75
     1
 76
     1
 77
     1
 78
     8
 79
     2
140
3.5
141
0.0
143
0.0393701
146
0.71
147
1.5
172
     1
176
   256
177
   256
178
     2
271
     2
272
     3
274
     4
283
     0
284
     8
340
11
371
    -1
372
    -1
  0
DIMSTYLE
105
AF9F
330
A
100
AcDbSymbolTableRecord
100
AcDbDimStyleTableRecord
  2
AM_ISO$SH
 70
     0
  4
"
 41
2.5
 42
1.0
 43
10.0
 44
1.0
 47
0.1
 48
0.1
 73
     0
 74
     0
 75
     1
 76
     1
 77
     1
 78
     8
 79
     2
140
3.5
141
0.0
143
0.0393701
144
2.0
146
0.71
147
1.5
172
     1
173
     1
176
   256
177
   256
178
     2
271
     2
272
     3
274
     4
283
     0
284
     8
340
11
343
72
371
    -1
372
    -1
  0
DIMSTYLE
105
B658
330
A
100
AcDbSymbolTableRecord
100
AcDbDimStyleTableRecord
  2
AM_ANSI
 70
     0
  4
mm
 41
0.1
 42
0.05
 43
0.5
 44
0.1
 47
0.1
 48
0.1
 78
     7
 79
     2
140
0.12
141
0.0
146
0.71
147
0.06
176
   256
177
   256
178
     2
274
     4
284
     7
340
11
371
    -1
372
    -1
  0
DIMSTYLE
105
D8FE
330
A
100
AcDbSymbolTableRecord
100
AcDbDimStyleTableRecord
  2
EDDIMINFO
 70
     0
 41
5.0
 42
2.0
 43
0.0
 44
2.0
 46
10.0
 73
     0
 74
     0
 77
     1
 78
     8
140
4.0
141
2.5
143
0.03937
147
1.0
171
     3
172
     1
173
     1
176
     6
177
     6
178
     6
271
     2
272
     2
274
     3
283
     0
340
D8FB
341
D855
343
D855
344
D85B
  0
DIMSTYLE
105
D8FF
330
A
100
AcDbSymbolTableRecord
100
AcDbDimStyleTableRecord
  2
AM_ANSI$3
 70
     0
  4
mm
 41
0.1
 42
0.05
 43
0.5
 44
0.1
 47
0.1
 48
0.1
 78
     7
 79
     2
140
0.12
141
0.0
146
0.71
147
0.06
176
   256
177
   256
178
     2
274
     4
284
     7
288
     1
289
     0
340
11
371
    -1
372
    -1
1001
ACAD_DSTYLE_DIMARC_LENGTH_SYMBOL
1070
   379
1070
     1
  0
DIMSTYLE
105
D900
330
A
100
AcDbSymbolTableRecord
100
AcDbDimStyleTableRecord
  2
AM_ANSI$4
 70
     0
  4
mm
 41
0.1
 42
0.05
 43
0.5
 44
0.1
 47
0.1
 48
0.1
 78
     7
 79
     2
140
0.12
141
0.0
146
0.71
147
0.06
176
   256
177
   256
178
     2
274
     4
284
     7
288
     1
289
     0
340
11
371
    -1
372
    -1
1001
ACAD_DSTYLE_DIMARC_LENGTH_SYMBOL
1070
   379
1070
     1
  0
DIMSTYLE
105
D901
330
A
100
AcDbSymbolTableRecord
100
AcDbDimStyleTableRecord
  2
AM_ANSI$7
 70
     0
  4
mm
 41
0.1
 42
0.05
 43
0.5
 44
0.1
 47
0.1
 48
0.1
 78
     7
 79
     2
140
0.24
141
0.0
146
0.71
147
0.06
176
   256
177
   256
178
     2
274
     4
284
     7
340
11
371
    -1
372
    -1
1001
ACAD_DSTYLE_DIMARC_LENGTH_SYMBOL
1070
   379
1070
     1
  0
DIMSTYLE
105
D902
330
A
100
AcDbSymbolTableRecord
100
AcDbDimStyleTableRecord
  2
AM_ANSI$SF
 70
     0
  4
mm
 41
0.1
 42
0.05
 43
0.5
 44
0.1
 47
0.1
 48
0.1
 75
     1
 76
     1
 78
     7
 79
     2
140
0.12
141
0.0
146
0.71
147
0.06
176
   256
177
   256
178
     2
274
     4
284
     7
340
11
371
    -1
372
    -1
1001
ACAD_DSTYLE_DIMARC_LENGTH_SYMBOL
1070
   379
1070
     1
  0
DIMSTYLE
105
D903
330
A
100
AcDbSymbolTableRecord
100
AcDbDimStyleTableRecord
  2
AM_ANSI$SH
 70
     0
  4
mm
 41
0.1
 42
0.05
 43
0.5
 44
0.1
 47
0.1
 48
0.1
 75
     1
 76
     1
 78
     7
 79
     2
140
0.12
141
0.0
146
0.71
147
0.06
173
     1
176
   256
177
   256
178
     2
274
     4
284
     7
340
11
343
72
371
    -1
372
    -1
1001
ACAD_DSTYLE_DIMARC_LENGTH_SYMBOL
1070
   379
1070
     1
  0
DIMSTYLE
105
5AFB8
330
A
100
AcDbSymbolTableRecord
100
AcDbDimStyleTableRecord
  2
AM_ISO$0
 70
     0
  4
"
 41
0.8
 42
1.0
 43
10.0
 44
1.0
 47
0.1
 48
0.1
 73
     0
 74
     0
 77
     1
 78
     8
 79
     2
140
3.2
141
0.0
143
0.0393701
146
0.71
147
0.9999999999999996
172
     1
176
   256
177
   256
178
     2
271
     2
272
     2
283
     0
284
     8
340
11
341
6C4
342
6C4
371
    -1
372
    -1
  0
DIMSTYLE
105
5AFB9
330
A
100
AcDbSymbolTableRecord
100
AcDbDimStyleTableRecord
  2
AM_ISO$2
 70
     0
  4
"
 41
0.8
 42
1.0
 43
10.0
 44
1.0
 47
0.1
 48
0.1
 73
     0
 74
     0
 77
     3
 78
     8
 79
     2
140
3.200000000000001
141
0.0
143
0.0393701
146
0.71
147
0.9999999999999996
172
     1
176
   256
177
   256
178
     2
271
     2
272
     2
283
     0
284
     8
340
11
342
6C4
371
    -1
372
    -1
  0
ENDTAB
  0
TABLE
  2
BLOCK_RECORD
  5
1
330
0
100
AcDbSymbolTable
 70
    30
  0
BLOCK_RECORD
  5
1F
102
{ACAD_XDICTIONARY
360
8A
102
}
330
1
100
AcDbSymbolTableRecord
100
AcDbBlockTableRecord
  2
*Model_Space
340
22
  0
BLOCK_RECORD
  5
1B
330
1
100
AcDbSymbolTableRecord
100
AcDbBlockTableRecord
  2
*Paper_Space
340
1E
  0
BLOCK_RECORD
  5
23
330
1
100
AcDbSymbolTableRecord
100
AcDbBlockTableRecord
  2
*Paper_Space0
340
26
  0
BLOCK_RECORD
  5
72
330
1
100
AcDbSymbolTableRecord
100
AcDbBlockTableRecord
  2
GENAXEH
340
0
  0
BLOCK_RECORD
  5
6C4
330
1
100
AcDbSymbolTableRecord
100
AcDbBlockTableRecord
  2
_Dot
340
0
102
{BLKREFS
331
A9BB7
331
A9BB8
331
A9BC0
331
A9BC1
331
A9BC9
331
A9BCA
331
A9BD2
331
A9BD3
331
A9BDB
331
A9BDC
331
A9BE4
331
A9BE5
331
A9BEF
331
A9BF0
331
A9BF8
331
A9BF9
331
A9BFF
331
A9C00
331
A9C08
331
A9C09
331
A9C11
331
A9C12
331
A9C1A
331
A9C1B
331
A9C23
331
A9C24
331
A9C2C
331
A9C2D
331
A9C37
331
A9C38
331
A9C40
331
A9C41
331
A9C47
331
A9C48
331
A9C50
331
A9C51
331
A9C59
331
A9C5A
331
A9C62
331
A9C63
331
A9C6B
331
A9C6C
331
A9C76
331
A9C77
331
A9C7F
331
A9C80
102
}
  0
BLOCK_RECORD
  5
A66
330
1
100
AcDbSymbolTableRecord
100
AcDbBlockTableRecord
  2
_OPEN30
340
0
  0
BLOCK_RECORD
  5
D855
330
1
100
AcDbSymbolTableRecord
100
AcDbBlockTableRecord
  2
EDTIP_ARROW_S
340
0
  0
BLOCK_RECORD
  5
D85B
330
1
100
AcDbSymbolTableRecord
100
AcDbBlockTableRecord
  2
EDTIP_ARROW_E
340
0
  0
BLOCK_RECORD
  5
A7DB8
330
1
100
AcDbSymbolTableRecord
100
AcDbBlockTableRecord
  2
*D6
340
0
  0
BLOCK_RECORD
  5
A7DC4
330
1
100
AcDbSymbolTableRecord
100
AcDbBlockTableRecord
  2
*D7
340
0
  0
BLOCK_RECORD
  5
A7DD0
330
1
100
AcDbSymbolTableRecord
100
AcDbBlockTableRecord
  2
*D8
340
0
  0
BLOCK_RECORD
  5
A7DDC
330
1
100
AcDbSymbolTableRecord
100
AcDbBlockTableRecord
  2
*D9
340
0
  0
BLOCK_RECORD
  5
A7DE8
330
1
100
AcDbSymbolTableRecord
100
AcDbBlockTableRecord
  2
*D10
340
0
  0
BLOCK_RECORD
  5
A7DF4
330
1
100
AcDbSymbolTableRecord
100
AcDbBlockTableRecord
  2
*D11
340
0
  0
BLOCK_RECORD
  5
A7E00
330
1
100
AcDbSymbolTableRecord
100
AcDbBlockTableRecord
  2
*D12
340
0
  0
BLOCK_RECORD
  5
A7E0C
330
1
100
AcDbSymbolTableRecord
100
AcDbBlockTableRecord
  2
*D13
340
0
  0
BLOCK_RECORD
  5
A7E18
330
1
100
AcDbSymbolTableRecord
100
AcDbBlockTableRecord
  2
*D14
340
0
  0
BLOCK_RECORD
  5
A7E24
330
1
100
AcDbSymbolTableRecord
100
AcDbBlockTableRecord
  2
*D15
340
0
  0
BLOCK_RECORD
  5
A7E30
330
1
100
AcDbSymbolTableRecord
100
AcDbBlockTableRecord
  2
*D16
340
0
  0
BLOCK_RECORD
  5
A7E3C
330
1
100
AcDbSymbolTableRecord
100
AcDbBlockTableRecord
  2
*D17
340
0
  0
BLOCK_RECORD
  5
A7E48
330
1
100
AcDbSymbolTableRecord
100
AcDbBlockTableRecord
  2
*D18
340
0
  0
BLOCK_RECORD
  5
A7E54
330
1
100
AcDbSymbolTableRecord
100
AcDbBlockTableRecord
  2
*D19
340
0
  0
BLOCK_RECORD
  5
A7E60
330
1
100
AcDbSymbolTableRecord
100
AcDbBlockTableRecord
  2
*D20
340
0
  0
BLOCK_RECORD
  5
A7E6C
330
1
100
AcDbSymbolTableRecord
100
AcDbBlockTableRecord
  2
*D21
340
0
  0
BLOCK_RECORD
  5
A7E78
330
1
100
AcDbSymbolTableRecord
100
AcDbBlockTableRecord
  2
*D22
340
0
  0
BLOCK_RECORD
  5
A7E84
330
1
100
AcDbSymbolTableRecord
100
AcDbBlockTableRecord
  2
*D23
340
0
  0
BLOCK_RECORD
  5
A7E90
330
1
100
AcDbSymbolTableRecord
100
AcDbBlockTableRecord
  2
*D24
340
0
  0
BLOCK_RECORD
  5
A7E9C
330
1
100
AcDbSymbolTableRecord
100
AcDbBlockTableRecord
  2
*D25
340
0
  0
BLOCK_RECORD
  5
A7EA8
330
1
100
AcDbSymbolTableRecord
100
AcDbBlockTableRecord
  2
*D26
340
0
  0
BLOCK_RECORD
  5
A7EB4
330
1
100
AcDbSymbolTableRecord
100
AcDbBlockTableRecord
  2
*D27
340
0
  0
BLOCK_RECORD
  5
A7EC0
330
1
100
AcDbSymbolTableRecord
100
AcDbBlockTableRecord
  2
*D28
340
0
  0
ENDTAB
  0
ENDSEC
  0
SECTION
  2
BLOCKS
  0
BLOCK
  5
20
330
1F
100
AcDbEntity
  8
0
100
AcDbBlockBegin
  2
*Model_Space
 70
     0
 10
0.0
 20
0.0
 30
0.0
  3
*Model_Space
  1

  0
ENDBLK
  5
21
330
1F
100
AcDbEntity
  8
0
100
AcDbBlockEnd
  0
BLOCK
  5
1C
330
1B
100
AcDbEntity
 67
     1
  8
0
100
AcDbBlockBegin
  2
*Paper_Space
 70
     0
 10
0.0
 20
0.0
 30
0.0
  3
*Paper_Space
  1

  0
ENDBLK
  5
1D
330
1B
100
AcDbEntity
 67
     1
  8
0
100
AcDbBlockEnd
  0
BLOCK
  5
24
330
23
100
AcDbEntity
 67
     1
  8
0
100
AcDbBlockBegin
  2
*Paper_Space0
 70
     0
 10
0.0
 20
0.0
 30
0.0
  3
*Paper_Space0
  1

  0
ENDBLK
  5
25
330
23
100
AcDbEntity
 67
     1
  8
0
100
AcDbBlockEnd
  0
BLOCK
  5
74
330
72
100
AcDbEntity
  8
0
100
AcDbBlockBegin
  2
GENAXEH
 70
     0
 10
0.0
 20
0.0
 30
0.0
  3
GENAXEH
  1

  0
LINE
  5
73
330
72
100
AcDbEntity
  8
0
100
AcDbLine
 10
-1.0
 20
0.0
 30
0.0
 11
1.0
 21
0.0
 31
0.0
  0
ENDBLK
  5
75
330
72
100
AcDbEntity
  8
0
100
AcDbBlockEnd
  0
BLOCK
  5
6C7
330
6C4
100
AcDbEntity
  8
0
100
AcDbBlockBegin
  2
_Dot
 70
     0
 10
0.0
 20
0.0
 30
0.0
  3
_Dot
  1

  0
LWPOLYLINE
  5
6C5
330
6C4
100
AcDbEntity
  8
0
  6
ByBlock
 62
     0
100
AcDbPolyline
 90
        2
 70
     1
 43
0.5
 10
-0.25
 20
0.0
 42
1.0
 10
0.25
 20
0.0
 42
1.0
  0
LINE
  5
6C6
330
6C4
100
AcDbEntity
  8
0
  6
ByBlock
 62
     0
370
    -2
100
AcDbLine
 10
-0.5
 20
0.0
 30
0.0
 11
-1.0
 21
0.0
 31
0.0
  0
ENDBLK
  5
6C8
330
6C4
100
AcDbEntity
  8
0
100
AcDbBlockEnd
  0
BLOCK
  5
A6A
330
A66
100
AcDbEntity
  8
0
100
AcDbBlockBegin
  2
_OPEN30
 70
     0
 10
0.0
 20
0.0
 30
0.0
  3
_OPEN30
  1

  0
LINE
  5
A67
330
A66
100
AcDbEntity
  8
0
  6
ByBlock
 62
     0
100
AcDbLine
 10
-1.0
 20
0.26794919
 30
0.0
 11
0.0
 21
0.0
 31
0.0
  0
LINE
  5
A68
330
A66
100
AcDbEntity
  8
0
  6
ByBlock
 62
     0
100
AcDbLine
 10
0.0
 20
0.0
 30
0.0
 11
-1.0
 21
-0.26794919
 31
0.0
  0
LINE
  5
A69
330
A66
100
AcDbEntity
  8
0
  6
ByBlock
 62
     0
100
AcDbLine
 10
0.0
 20
0.0
 30
0.0
 11
-1.0
 21
0.0
 31
0.0
  0
ENDBLK
  5
A6B
330
A66
100
AcDbEntity
  8
0
100
AcDbBlockEnd
  0
BLOCK
  5
D856
330
D855
100
AcDbEntity
  8
0
  6
ByBlock
 62
     0
100
AcDbBlockBegin
  2
EDTIP_ARROW_S
 70
     0
 10
0.0
 20
0.0
 30
0.0
  3
EDTIP_ARROW_S
  1

  0
LINE
  5
D857
330
D855
100
AcDbEntity
  8
0
  6
Continuous
 62
     0
100
AcDbLine
 10
0.0
 20
0.0
 30
0.0
 11
-1.0
 21
0.0
 31
0.0
  0
LINE
  5
D858
330
D855
100
AcDbEntity
  8
0
  6
Continuous
 62
     0
100
AcDbLine
 10
0.0
 20
0.0
 30
0.0
 11
-0.9659259999999999
 21
0.258819
 31
0.0
  0
LINE
  5
D859
330
D855
100
AcDbEntity
  8
0
  6
Continuous
 62
     0
100
AcDbLine
 10
0.0
 20
0.0
 30
0.0
 11
-0.9659259999999999
 21
-0.258819
 31
0.0
  0
ENDBLK
  5
D85A
330
D855
100
AcDbEntity
  8
0
  6
ByBlock
 62
     0
100
AcDbBlockEnd
  0
BLOCK
  5
D85C
330
D85B
100
AcDbEntity
  8
0
  6
ByBlock
 62
     0
100
AcDbBlockBegin
  2
EDTIP_ARROW_E
 70
     0
 10
0.0
 20
0.0
 30
0.0
  3
EDTIP_ARROW_E
  1

  0
LINE
  5
D85D
330
D85B
100
AcDbEntity
  8
0
  6
Continuous
 62
     0
100
AcDbLine
 10
0.0
 20
0.0
 30
0.0
 11
-1.0
 21
0.0
 31
0.0
  0
LINE
  5
D85E
330
D85B
100
AcDbEntity
  8
0
  6
Continuous
 62
     0
100
AcDbLine
 10
0.0
 20
0.0
 30
0.0
 11
-0.9659259999999999
 21
-0.258819
 31
0.0
  0
LINE
  5
D85F
330
D85B
100
AcDbEntity
  8
0
  6
Continuous
 62
     0
100
AcDbLine
 10
0.0
 20
0.0
 30
0.0
 11
-0.9659259999999999
 21
0.258819
 31
0.0
  0
ENDBLK
  5
D860
330
D85B
100
AcDbEntity
  8
0
  6
ByBlock
 62
     0
100
AcDbBlockEnd
  0
BLOCK
  5
A7DC2
330
A7DB8
100
AcDbEntity
  8
0
100
AcDbBlockBegin
  2
*D6
 70
     1
 10
0.0
 20
0.0
 30
0.0
  3
*D6
  1

  0
LINE
  5
A9BFC
330
A7DB8
100
AcDbEntity
  8
AM_5
100
AcDbLine
 10
-638.0000000000011
 20
-5853.5
 30
0.0
 11
-616.0000000000011
 21
-5853.5
 31
0.0
  0
LINE
  5
A9BFD
330
A7DB8
100
AcDbEntity
  8
AM_5
100
AcDbLine
 10
-638.0000000000011
 20
-5768.5
 30
0.0
 11
-616.0000000000011
 21
-5768.5
 31
0.0
  0
LINE
  5
A9BFE
330
A7DB8
100
AcDbEntity
  8
AM_5
100
AcDbLine
 10
-618.0000000000011
 20
-5851.5
 30
0.0
 11
-618.0000000000011
 21
-5770.5
 31
0.0
  0
INSERT
  5
A9BFF
330
A7DB8
100
AcDbEntity
  8
AM_5
100
AcDbBlockReference
  2
_Dot
 10
-618.0000000000011
 20
-5853.5
 30
0.0
 41
2.0
 42
2.0
 43
2.0
 50
270.0
  0
INSERT
  5
A9C00
330
A7DB8
100
AcDbEntity
  8
AM_5
100
AcDbBlockReference
  2
_Dot
 10
-618.0000000000011
 20
-5768.5
 30
0.0
 41
2.0
 42
2.0
 43
2.0
 50
90.0
  0
MTEXT
  5
A9C01
330
A7DB8
100
AcDbEntity
  8
AM_5
 62
     2
100
AcDbMText
 10
-624.2000000000002
 20
-5811.0
 30
0.0
 40
6.400000000000002
 41
0.0
 71
     5
 72
     1
  1
Y
 11
0.0000000000000001
 21
1.0
 31
0.0
 73
     1
 44
1.0
1001
ACAD
1000
MTEXTBEGIN
1070
    73
1070
     1
1070
    44
1040
1.0
1070
    74
1070
     0
1000
MTEXTEND
  0
POINT
  5
A9C02
330
A7DB8
100
AcDbEntity
  8
Defpoints
 62
     0
100
AcDbPoint
 10
-640.0000000000011
 20
-5853.5
 30
0.0
  0
POINT
  5
A9C03
330
A7DB8
100
AcDbEntity
  8
Defpoints
 62
     0
100
AcDbPoint
 10
-640.0000000000011
 20
-5768.5
 30
0.0
  0
POINT
  5
A9C04
330
A7DB8
100
AcDbEntity
  8
Defpoints
 62
     0
100
AcDbPoint
 10
-618.0000000000011
 20
-5768.5
 30
0.0
  0
ENDBLK
  5
A7DC3
330
A7DB8
100
AcDbEntity
  8
0
100
AcDbBlockEnd
  0
BLOCK
  5
A7DCE
330
A7DC4
100
AcDbEntity
  8
0
100
AcDbBlockBegin
  2
*D7
 70
     1
 10
0.0
 20
0.0
 30
0.0
  3
*D7
  1

  0
LINE
  5
A9C05
330
A7DC4
100
AcDbEntity
  8
AM_5
100
AcDbLine
 10
-649.5000000000011
 20
-5867.0
 30
0.0
 11
-600.0000000000011
 21
-5867.0
 31
0.0
  0
LINE
  5
A9C06
330
A7DC4
100
AcDbEntity
  8
AM_5
100
AcDbLine
 10
-649.5000000000011
 20
-5755.0
 30
0.0
 11
-600.0000000000011
 21
-5755.0
 31
0.0
  0
LINE
  5
A9C07
330
A7DC4
100
AcDbEntity
  8
AM_5
100
AcDbLine
 10
-602.0000000000011
 20
-5865.0
 30
0.0
 11
-602.0000000000011
 21
-5757.0
 31
0.0
  0
INSERT
  5
A9C08
330
A7DC4
100
AcDbEntity
  8
AM_5
100
AcDbBlockReference
  2
_Dot
 10
-602.0000000000011
 20
-5867.0
 30
0.0
 41
2.0
 42
2.0
 43
2.0
 50
270.0
  0
INSERT
  5
A9C09
330
A7DC4
100
AcDbEntity
  8
AM_5
100
AcDbBlockReference
  2
_Dot
 10
-602.0000000000011
 20
-5755.0
 30
0.0
 41
2.0
 42
2.0
 43
2.0
 50
90.0
  0
MTEXT
  5
A9C0A
330
A7DC4
100
AcDbEntity
  8
AM_5
 62
     2
100
AcDbMText
 10
-608.2000000000002
 20
-5811.0
 30
0.0
 40
6.400000000000002
 41
0.0
 71
     5
 72
     1
  1
B
 11
0.0000000000000001
 21
1.0
 31
0.0
 73
     1
 44
1.0
1001
ACAD
1000
MTEXTBEGIN
1070
    73
1070
     1
1070
    44
1040
1.0
1070
    74
1070
     0
1000
MTEXTEND
  0
POINT
  5
A9C0B
330
A7DC4
100
AcDbEntity
  8
Defpoints
 62
     0
100
AcDbPoint
 10
-651.5000000000011
 20
-5867.0
 30
0.0
  0
POINT
  5
A9C0C
330
A7DC4
100
AcDbEntity
  8
Defpoints
 62
     0
100
AcDbPoint
 10
-651.5000000000011
 20
-5755.0
 30
0.0
  0
POINT
  5
A9C0D
330
A7DC4
100
AcDbEntity
  8
Defpoints
 62
     0
100
AcDbPoint
 10
-602.0000000000011
 20
-5755.0
 30
0.0
  0
ENDBLK
  5
A7DCF
330
A7DC4
100
AcDbEntity
  8
0
100
AcDbBlockEnd
  0
BLOCK
  5
A7DDA
330
A7DD0
100
AcDbEntity
  8
0
100
AcDbBlockBegin
  2
*D8
 70
     1
 10
0.0
 20
0.0
 30
0.0
  3
*D8
  1

  0
LINE
  5
A9C0E
330
A7DD0
100
AcDbEntity
  8
AM_5
100
AcDbLine
 10
-736.5000000000011
 20
-5755.0
 30
0.0
 11
-736.5000000000011
 21
-5737.0
 31
0.0
  0
LINE
  5
A9C0F
330
A7DD0
100
AcDbEntity
  8
AM_5
100
AcDbLine
 10
-651.5000000000011
 20
-5755.0
 30
0.0
 11
-651.5000000000011
 21
-5737.0
 31
0.0
  0
LINE
  5
A9C10
330
A7DD0
100
AcDbEntity
  8
AM_5
100
AcDbLine
 10
-734.5000000000011
 20
-5739.0
 30
0.0
 11
-653.5000000000011
 21
-5739.0
 31
0.0
  0
INSERT
  5
A9C11
330
A7DD0
100
AcDbEntity
  8
AM_5
100
AcDbBlockReference
  2
_Dot
 10
-736.5000000000011
 20
-5739.0
 30
0.0
 41
2.0
 42
2.0
 43
2.0
 50
180.0
  0
INSERT
  5
A9C12
330
A7DD0
100
AcDbEntity
  8
AM_5
100
AcDbBlockReference
  2
_Dot
 10
-651.5000000000011
 20
-5739.0
 30
0.0
 41
2.0
 42
2.0
 43
2.0
  0
MTEXT
  5
A9C13
330
A7DD0
100
AcDbEntity
  8
AM_5
 62
     2
100
AcDbMText
 10
-694.0000000000011
 20
-5732.800000000001
 30
0.0
 40
6.400000000000002
 41
0.0
 71
     5
 72
     1
  1
X
 73
     1
 44
1.0
1001
ACAD
1000
MTEXTBEGIN
1070
    73
1070
     1
1070
    44
1040
1.0
1070
    74
1070
     0
1000
MTEXTEND
  0
POINT
  5
A9C14
330
A7DD0
100
AcDbEntity
  8
Defpoints
 62
     0
100
AcDbPoint
 10
-736.5000000000011
 20
-5757.0
 30
0.0
  0
POINT
  5
A9C15
330
A7DD0
100
AcDbEntity
  8
Defpoints
 62
     0
100
AcDbPoint
 10
-651.5000000000011
 20
-5757.0
 30
0.0
  0
POINT
  5
A9C16
330
A7DD0
100
AcDbEntity
  8
Defpoints
 62
     0
100
AcDbPoint
 10
-651.5000000000011
 20
-5739.0
 30
0.0
  0
ENDBLK
  5
A7DDB
330
A7DD0
100
AcDbEntity
  8
0
100
AcDbBlockEnd
  0
BLOCK
  5
A7DE6
330
A7DDC
100
AcDbEntity
  8
0
100
AcDbBlockBegin
  2
*D9
 70
     1
 10
0.0
 20
0.0
 30
0.0
  3
*D9
  1

  0
LINE
  5
A9C17
330
A7DDC
100
AcDbEntity
  8
AM_5
100
AcDbLine
 10
-638.0000000000011
 20
-5766.5
 30
0.0
 11
-638.0000000000011
 21
-5721.0
 31
0.0
  0
LINE
  5
A9C18
330
A7DDC
100
AcDbEntity
  8
AM_5
100
AcDbLine
 10
-750.0000000000011
 20
-5766.5
 30
0.0
 11
-750.0000000000011
 21
-5721.0
 31
0.0
  0
LINE
  5
A9C19
330
A7DDC
100
AcDbEntity
  8
AM_5
100
AcDbLine
 10
-640.0000000000011
 20
-5723.0
 30
0.0
 11
-748.0000000000011
 21
-5723.0
 31
0.0
  0
INSERT
  5
A9C1A
330
A7DDC
100
AcDbEntity
  8
AM_5
100
AcDbBlockReference
  2
_Dot
 10
-638.0000000000011
 20
-5723.0
 30
0.0
 41
2.0
 42
2.0
 43
2.0
  0
INSERT
  5
A9C1B
330
A7DDC
100
AcDbEntity
  8
AM_5
100
AcDbBlockReference
  2
_Dot
 10
-750.0000000000011
 20
-5723.0
 30
0.0
 41
2.0
 42
2.0
 43
2.0
 50
180.0
  0
MTEXT
  5
A9C1C
330
A7DDC
100
AcDbEntity
  8
AM_5
 62
     2
100
AcDbMText
 10
-694.0000000000011
 20
-5716.8
 30
0.0
 40
6.400000000000002
 41
0.0
 71
     5
 72
     1
  1
A
 73
     1
 44
1.0
1001
ACAD
1000
MTEXTBEGIN
1070
    73
1070
     1
1070
    44
1040
1.0
1070
    74
1070
     0
1000
MTEXTEND
  0
POINT
  5
A9C1D
330
A7DDC
100
AcDbEntity
  8
Defpoints
 62
     0
100
AcDbPoint
 10
-638.0000000000011
 20
-5768.5
 30
0.0
  0
POINT
  5
A9C1E
330
A7DDC
100
AcDbEntity
  8
Defpoints
 62
     0
100
AcDbPoint
 10
-750.0000000000011
 20
-5768.5
 30
0.0
  0
POINT
  5
A9C1F
330
A7DDC
100
AcDbEntity
  8
Defpoints
 62
     0
100
AcDbPoint
 10
-750.0000000000011
 20
-5723.0
 30
0.0
  0
ENDBLK
  5
A7DE7
330
A7DDC
100
AcDbEntity
  8
0
100
AcDbBlockEnd
  0
BLOCK
  5
A7DF2
330
A7DE8
100
AcDbEntity
  8
0
100
AcDbBlockBegin
  2
*D10
 70
     1
 10
0.0
 20
0.0
 30
0.0
  3
*D10
  1

  0
LINE
  5
A9C20
330
A7DE8
100
AcDbEntity
  8
AM_5
100
AcDbLine
 10
-636.0000000000011
 20
-5915.0
 30
0.0
 11
-616.0000000000011
 21
-5915.0
 31
0.0
  0
LINE
  5
A9C21
330
A7DE8
100
AcDbEntity
  8
AM_5
100
AcDbLine
 10
-724.0000000000011
 20
-6055.0
 30
0.0
 11
-616.0000000000011
 21
-6055.0
 31
0.0
  0
LINE
  5
A9C22
330
A7DE8
100
AcDbEntity
  8
AM_5
100
AcDbLine
 10
-618.0000000000011
 20
-5917.0
 30
0.0
 11
-618.0000000000011
 21
-6053.0
 31
0.0
  0
INSERT
  5
A9C23
330
A7DE8
100
AcDbEntity
  8
AM_5
100
AcDbBlockReference
  2
_Dot
 10
-618.0000000000011
 20
-5915.0
 30
0.0
 41
2.0
 42
2.0
 43
2.0
 50
90.0
  0
INSERT
  5
A9C24
330
A7DE8
100
AcDbEntity
  8
AM_5
100
AcDbBlockReference
  2
_Dot
 10
-618.0000000000011
 20
-6055.0
 30
0.0
 41
2.0
 42
2.0
 43
2.0
 50
270.0
  0
MTEXT
  5
A9C25
330
A7DE8
100
AcDbEntity
  8
AM_5
 62
     2
100
AcDbMText
 10
-624.2000000000001
 20
-5985.0
 30
0.0
 40
6.400000000000002
 41
0.0
 71
     5
 72
     1
  1
H
 11
0.0000000000000001
 21
1.0
 31
0.0
 73
     1
 44
1.0
1001
ACAD
1000
MTEXTBEGIN
1070
    73
1070
     1
1070
    44
1040
1.0
1070
    74
1070
     0
1000
MTEXTEND
  0
POINT
  5
A9C26
330
A7DE8
100
AcDbEntity
  8
Defpoints
 62
     0
100
AcDbPoint
 10
-638.0000000000011
 20
-5915.0
 30
0.0
  0
POINT
  5
A9C27
330
A7DE8
100
AcDbEntity
  8
Defpoints
 62
     0
100
AcDbPoint
 10
-726.0000000000011
 20
-6055.0
 30
0.0
  0
POINT
  5
A9C28
330
A7DE8
100
AcDbEntity
  8
Defpoints
 62
     0
100
AcDbPoint
 10
-618.0000000000011
 20
-6055.0
 30
0.0
  0
ENDBLK
  5
A7DF3
330
A7DE8
100
AcDbEntity
  8
0
100
AcDbBlockEnd
  0
BLOCK
  5
A7DFE
330
A7DF4
100
AcDbEntity
  8
0
100
AcDbBlockBegin
  2
*D11
 70
     1
 10
0.0
 20
0.0
 30
0.0
  3
*D11
  1

  0
LINE
  5
A9C29
330
A7DF4
100
AcDbEntity
  8
AM_5
100
AcDbLine
 10
-726.0000000000011
 20
-6063.0
 30
0.0
 11
-726.0000000000011
 21
-6077.0
 31
0.0
  0
LINE
  5
A9C2A
330
A7DF4
100
AcDbEntity
  8
AM_5
100
AcDbLine
 10
-694.0000000000011
 20
-6017.0
 30
0.0
 11
-694.0000000000011
 21
-6077.0
 31
0.0
  0
LINE
  5
A9C2B
330
A7DF4
100
AcDbEntity
  8
AM_5
100
AcDbLine
 10
-724.0000000000011
 20
-6075.0
 30
0.0
 11
-696.0000000000011
 21
-6075.0
 31
0.0
  0
INSERT
  5
A9C2C
330
A7DF4
100
AcDbEntity
  8
AM_5
100
AcDbBlockReference
  2
_Dot
 10
-726.0000000000011
 20
-6075.0
 30
0.0
 41
2.0
 42
2.0
 43
2.0
 50
180.0
  0
INSERT
  5
A9C2D
330
A7DF4
100
AcDbEntity
  8
AM_5
100
AcDbBlockReference
  2
_Dot
 10
-694.0000000000011
 20
-6075.0
 30
0.0
 41
2.0
 42
2.0
 43
2.0
  0
MTEXT
  5
A9C2E
330
A7DF4
100
AcDbEntity
  8
AM_5
 62
     2
100
AcDbMText
 10
-710.0000000000011
 20
-6068.8
 30
0.0
 40
6.400000000000002
 41
0.0
 71
     5
 72
     1
  1
E
 73
     1
 44
1.0
1001
ACAD
1000
MTEXTBEGIN
1070
    73
1070
     1
1070
    44
1040
1.0
1070
    74
1070
     0
1000
MTEXTEND
  0
POINT
  5
A9C2F
330
A7DF4
100
AcDbEntity
  8
Defpoints
 62
     0
100
AcDbPoint
 10
-726.0000000000011
 20
-6061.0
 30
0.0
  0
POINT
  5
A9C30
330
A7DF4
100
AcDbEntity
  8
Defpoints
 62
     0
100
AcDbPoint
 10
-694.0000000000011
 20
-6015.0
 30
0.0
  0
POINT
  5
A9C31
330
A7DF4
100
AcDbEntity
  8
Defpoints
 62
     0
100
AcDbPoint
 10
-694.0000000000011
 20
-6075.0
 30
0.0
  0
ENDBLK
  5
A7DFF
330
A7DF4
100
AcDbEntity
  8
0
100
AcDbBlockEnd
  0
BLOCK
  5
A7E0A
330
A7E00
100
AcDbEntity
  8
0
100
AcDbBlockBegin
  2
*D12
 70
     1
 10
0.0
 20
0.0
 30
0.0
  3
*D12
  1

  0
LINE
  5
A9C32
330
A7E00
100
AcDbEntity
  8
AM_5
100
AcDbLine
 10
-772.2666666666687
 20
-6055.000000000002
 30
0.0
 11
-765.999999999995
 21
-6055.000000000002
 31
0.0
  0
LINE
  5
A9C33
330
A7E00
100
AcDbEntity
  8
AM_5
100
AcDbLine
 10
-765.999999999995
 20
-6055.000000000002
 30
0.0
 11
-755.6984848098381
 21
-6044.698484809845
 31
0.0
  0
LINE
  5
A9C34
330
A7E00
100
AcDbEntity
  8
AM_5
100
AcDbLine
 10
-696.3015151901654
 20
-5985.301515190171
 30
0.0
 11
-694.8873016277921
 21
-5983.887301627798
 31
0.0
  0
MTEXT
  5
A9C35
330
A7E00
100
AcDbEntity
  8
AM_5
 62
     2
100
AcDbMText
 10
-770.6333333333355
 20
-6048.500000000002
 30
0.0
 40
7.0
 41
0.0
 71
     5
 72
     1
  1
D
 73
     1
 44
1.0
1001
ACAD
1000
MTEXTBEGIN
1070
    73
1070
     1
1070
    44
1040
1.0
1070
    74
1070
     0
1000
MTEXTEND
  0
LINE
  5
A9C36
330
A7E00
100
AcDbEntity
  8
AM_5
100
AcDbLine
 10
-697.7157287525383
 20
-5986.715728752544
 30
0.0
 11
-754.2842712474648
 21
-6043.284271247472
 31
0.0
  0
INSERT
  5
A9C37
330
A7E00
100
AcDbEntity
  8
AM_5
100
AcDbBlockReference
  2
_Dot
 10
-697.7157287525383
 20
-5986.715728752544
 30
0.0
 41
2.0
 42
2.0
 43
2.0
 50
225.0000000000009
  0
INSERT
  5
A9C38
330
A7E00
100
AcDbEntity
  8
AM_5
100
AcDbBlockReference
  2
_Dot
 10
-754.2842712474648
 20
-6043.284271247472
 30
0.0
 41
2.0
 42
2.0
 43
2.0
 50
45.00000000000087
  0
POINT
  5
A9C39
330
A7E00
100
AcDbEntity
  8
Defpoints
 62
     0
100
AcDbPoint
 10
-754.2842712474648
 20
-6043.284271247472
 30
0.0
  0
POINT
  5
A9C3A
330
A7E00
100
AcDbEntity
  8
Defpoints
 62
     0
100
AcDbPoint
 10
-697.7157287525383
 20
-5986.715728752544
 30
0.0
  0
ENDBLK
  5
A7E0B
330
A7E00
100
AcDbEntity
  8
0
100
AcDbBlockEnd
  0
BLOCK
  5
A7E16
330
A7E0C
100
AcDbEntity
  8
0
100
AcDbBlockBegin
  2
*D13
 70
     1
 10
0.0
 20
0.0
 30
0.0
  3
*D13
  1

  0
LINE
  5
A9C3B
330
A7E0C
100
AcDbEntity
  8
AM_5
100
AcDbLine
 10
-623.7333333333144
 20
-5746.999999999999
 30
0.0
 11
-629.9999999999831
 21
-5746.999999999999
 31
0.0
  0
LINE
  5
A9C3C
330
A7E0C
100
AcDbEntity
  8
AM_5
100
AcDbLine
 10
-629.9999999999831
 20
-5746.999999999999
 30
0.0
 11
-646.1966991410945
 21
-5763.196699141104
 31
0.0
  0
LINE
  5
A9C3D
330
A7E0C
100
AcDbEntity
  8
AM_5
100
AcDbLine
 10
-656.8033008588945
 20
-5773.803300858899
 30
0.0
 11
-658.2175144212678
 21
-5775.217514421273
 31
0.0
  0
MTEXT
  5
A9C3E
330
A7E0C
100
AcDbEntity
  8
AM_5
 62
     2
100
AcDbMText
 10
-625.3666666666476
 20
-5740.499999999998
 30
0.0
 40
7.0
 41
0.0
 71
     5
 72
     1
  1
P
 73
     1
 44
1.0
1001
ACAD
1000
MTEXTBEGIN
1070
    73
1070
     1
1070
    44
1040
1.0
1070
    74
1070
     0
1000
MTEXTEND
  0
LINE
  5
A9C3F
330
A7E0C
100
AcDbEntity
  8
AM_5
100
AcDbLine
 10
-655.3890872965207
 20
-5772.389087296527
 30
0.0
 11
-647.6109127034678
 21
-5764.610912703476
 31
0.0
  0
INSERT
  5
A9C40
330
A7E0C
100
AcDbEntity
  8
AM_5
100
AcDbBlockReference
  2
_Dot
 10
-655.3890872965207
 20
-5772.389087296527
 30
0.0
 41
2.0
 42
2.0
 43
2.0
 50
44.99999999998832
  0
INSERT
  5
A9C41
330
A7E0C
100
AcDbEntity
  8
AM_5
100
AcDbBlockReference
  2
_Dot
 10
-647.6109127034678
 20
-5764.610912703476
 30
0.0
 41
2.0
 42
2.0
 43
2.0
 50
224.9999999999883
  0
POINT
  5
A9C42
330
A7E0C
100
AcDbEntity
  8
Defpoints
 62
     0
100
AcDbPoint
 10
-647.6109127034678
 20
-5764.610912703476
 30
0.0
  0
POINT
  5
A9C43
330
A7E0C
100
AcDbEntity
  8
Defpoints
 62
     0
100
AcDbPoint
 10
-655.3890872965207
 20
-5772.389087296527
 30
0.0
  0
ENDBLK
  5
A7E17
330
A7E0C
100
AcDbEntity
  8
0
100
AcDbBlockEnd
  0
BLOCK
  5
A7E22
330
A7E18
100
AcDbEntity
  8
0
100
AcDbBlockBegin
  2
*D14
 70
     1
 10
0.0
 20
0.0
 30
0.0
  3
*D14
  1

  0
LINE
  5
A9C44
330
A7E18
100
AcDbEntity
  8
AM_5
100
AcDbLine
 10
-382.0000000000011
 20
-5853.5
 30
0.0
 11
-360.0000000000012
 21
-5853.5
 31
0.0
  0
LINE
  5
A9C45
330
A7E18
100
AcDbEntity
  8
AM_5
100
AcDbLine
 10
-382.0000000000011
 20
-5768.5
 30
0.0
 11
-360.0000000000012
 21
-5768.5
 31
0.0
  0
LINE
  5
A9C46
330
A7E18
100
AcDbEntity
  8
AM_5
100
AcDbLine
 10
-362.0000000000012
 20
-5851.5
 30
0.0
 11
-362.0000000000012
 21
-5770.5
 31
0.0
  0
INSERT
  5
A9C47
330
A7E18
100
AcDbEntity
  8
AM_5
100
AcDbBlockReference
  2
_Dot
 10
-362.0000000000012
 20
-5853.5
 30
0.0
 41
2.0
 42
2.0
 43
2.0
 50
270.0
  0
INSERT
  5
A9C48
330
A7E18
100
AcDbEntity
  8
AM_5
100
AcDbBlockReference
  2
_Dot
 10
-362.0000000000012
 20
-5768.5
 30
0.0
 41
2.0
 42
2.0
 43
2.0
 50
90.0
  0
MTEXT
  5
A9C49
330
A7E18
100
AcDbEntity
  8
AM_5
 62
     2
100
AcDbMText
 10
-368.2000000000002
 20
-5811.0
 30
0.0
 40
6.400000000000002
 41
0.0
 71
     5
 72
     1
  1
X
 11
0.0000000000000001
 21
1.0
 31
0.0
 73
     1
 44
1.0
1001
ACAD
1000
MTEXTBEGIN
1070
    73
1070
     1
1070
    44
1040
1.0
1070
    74
1070
     0
1000
MTEXTEND
  0
POINT
  5
A9C4A
330
A7E18
100
AcDbEntity
  8
Defpoints
 62
     0
100
AcDbPoint
 10
-384.0000000000011
 20
-5853.5
 30
0.0
  0
POINT
  5
A9C4B
330
A7E18
100
AcDbEntity
  8
Defpoints
 62
     0
100
AcDbPoint
 10
-384.0000000000011
 20
-5768.5
 30
0.0
  0
POINT
  5
A9C4C
330
A7E18
100
AcDbEntity
  8
Defpoints
 62
     0
100
AcDbPoint
 10
-362.0000000000012
 20
-5768.5
 30
0.0
  0
ENDBLK
  5
A7E23
330
A7E18
100
AcDbEntity
  8
0
100
AcDbBlockEnd
  0
BLOCK
  5
A7E2E
330
A7E24
100
AcDbEntity
  8
0
100
AcDbBlockBegin
  2
*D15
 70
     1
 10
0.0
 20
0.0
 30
0.0
  3
*D15
  1

  0
LINE
  5
A9C4D
330
A7E24
100
AcDbEntity
  8
AM_5
100
AcDbLine
 10
-395.5000000000012
 20
-5755.0
 30
0.0
 11
-395.5000000000012
 21
-5737.0
 31
0.0
  0
LINE
  5
A9C4E
330
A7E24
100
AcDbEntity
  8
AM_5
100
AcDbLine
 10
-480.5000000000011
 20
-5755.0
 30
0.0
 11
-480.5000000000011
 21
-5737.0
 31
0.0
  0
LINE
  5
A9C4F
330
A7E24
100
AcDbEntity
  8
AM_5
100
AcDbLine
 10
-397.5000000000012
 20
-5739.0
 30
0.0
 11
-478.5000000000011
 21
-5739.0
 31
0.0
  0
INSERT
  5
A9C50
330
A7E24
100
AcDbEntity
  8
AM_5
100
AcDbBlockReference
  2
_Dot
 10
-395.5000000000012
 20
-5739.0
 30
0.0
 41
2.0
 42
2.0
 43
2.0
  0
INSERT
  5
A9C51
330
A7E24
100
AcDbEntity
  8
AM_5
100
AcDbBlockReference
  2
_Dot
 10
-480.5000000000011
 20
-5739.0
 30
0.0
 41
2.0
 42
2.0
 43
2.0
 50
180.0
  0
MTEXT
  5
A9C52
330
A7E24
100
AcDbEntity
  8
AM_5
 62
     2
100
AcDbMText
 10
-438.0000000000011
 20
-5732.800000000001
 30
0.0
 40
6.400000000000002
 41
0.0
 71
     5
 72
     1
  1
X
 73
     1
 44
1.0
1001
ACAD
1000
MTEXTBEGIN
1070
    73
1070
     1
1070
    44
1040
1.0
1070
    74
1070
     0
1000
MTEXTEND
  0
POINT
  5
A9C53
330
A7E24
100
AcDbEntity
  8
Defpoints
 62
     0
100
AcDbPoint
 10
-395.5000000000012
 20
-5757.0
 30
0.0
  0
POINT
  5
A9C54
330
A7E24
100
AcDbEntity
  8
Defpoints
 62
     0
100
AcDbPoint
 10
-480.5000000000011
 20
-5757.0
 30
0.0
  0
POINT
  5
A9C55
330
A7E24
100
AcDbEntity
  8
Defpoints
 62
     0
100
AcDbPoint
 10
-480.5000000000011
 20
-5739.0
 30
0.0
  0
ENDBLK
  5
A7E2F
330
A7E24
100
AcDbEntity
  8
0
100
AcDbBlockEnd
  0
BLOCK
  5
A7E3A
330
A7E30
100
AcDbEntity
  8
0
100
AcDbBlockBegin
  2
*D16
 70
     1
 10
0.0
 20
0.0
 30
0.0
  3
*D16
  1

  0
LINE
  5
A9C56
330
A7E30
100
AcDbEntity
  8
AM_5
100
AcDbLine
 10
-494.0000000000011
 20
-5766.5
 30
0.0
 11
-494.0000000000011
 21
-5721.0
 31
0.0
  0
LINE
  5
A9C57
330
A7E30
100
AcDbEntity
  8
AM_5
100
AcDbLine
 10
-382.0000000000011
 20
-5766.5
 30
0.0
 11
-382.0000000000011
 21
-5721.0
 31
0.0
  0
LINE
  5
A9C58
330
A7E30
100
AcDbEntity
  8
AM_5
100
AcDbLine
 10
-492.0000000000011
 20
-5723.0
 30
0.0
 11
-384.0000000000011
 21
-5723.0
 31
0.0
  0
INSERT
  5
A9C59
330
A7E30
100
AcDbEntity
  8
AM_5
100
AcDbBlockReference
  2
_Dot
 10
-494.0000000000011
 20
-5723.0
 30
0.0
 41
2.0
 42
2.0
 43
2.0
 50
180.0
  0
INSERT
  5
A9C5A
330
A7E30
100
AcDbEntity
  8
AM_5
100
AcDbBlockReference
  2
_Dot
 10
-382.0000000000011
 20
-5723.0
 30
0.0
 41
2.0
 42
2.0
 43
2.0
  0
MTEXT
  5
A9C5B
330
A7E30
100
AcDbEntity
  8
AM_5
 62
     2
100
AcDbMText
 10
-438.0000000000011
 20
-5716.8
 30
0.0
 40
6.400000000000002
 41
0.0
 71
     5
 72
     1
  1
A
 73
     1
 44
1.0
1001
ACAD
1000
MTEXTBEGIN
1070
    73
1070
     1
1070
    44
1040
1.0
1070
    74
1070
     0
1000
MTEXTEND
  0
POINT
  5
A9C5C
330
A7E30
100
AcDbEntity
  8
Defpoints
 62
     0
100
AcDbPoint
 10
-494.0000000000011
 20
-5768.5
 30
0.0
  0
POINT
  5
A9C5D
330
A7E30
100
AcDbEntity
  8
Defpoints
 62
     0
100
AcDbPoint
 10
-382.0000000000011
 20
-5768.5
 30
0.0
  0
POINT
  5
A9C5E
330
A7E30
100
AcDbEntity
  8
Defpoints
 62
     0
100
AcDbPoint
 10
-382.0000000000011
 20
-5723.0
 30
0.0
  0
ENDBLK
  5
A7E3B
330
A7E30
100
AcDbEntity
  8
0
100
AcDbBlockEnd
  0
BLOCK
  5
A7E46
330
A7E3C
100
AcDbEntity
  8
0
100
AcDbBlockBegin
  2
*D17
 70
     1
 10
0.0
 20
0.0
 30
0.0
  3
*D17
  1

  0
LINE
  5
A9C5F
330
A7E3C
100
AcDbEntity
  8
AM_5
100
AcDbLine
 10
-393.5000000000012
 20
-5755.0
 30
0.0
 11
-344.0000000000011
 21
-5755.0
 31
0.0
  0
LINE
  5
A9C60
330
A7E3C
100
AcDbEntity
  8
AM_5
100
AcDbLine
 10
-393.5000000000012
 20
-5867.0
 30
0.0
 11
-344.0000000000011
 21
-5867.0
 31
0.0
  0
LINE
  5
A9C61
330
A7E3C
100
AcDbEntity
  8
AM_5
100
AcDbLine
 10
-346.0000000000011
 20
-5757.0
 30
0.0
 11
-346.0000000000011
 21
-5865.0
 31
0.0
  0
INSERT
  5
A9C62
330
A7E3C
100
AcDbEntity
  8
AM_5
100
AcDbBlockReference
  2
_Dot
 10
-346.0000000000011
 20
-5755.0
 30
0.0
 41
2.0
 42
2.0
 43
2.0
 50
90.0
  0
INSERT
  5
A9C63
330
A7E3C
100
AcDbEntity
  8
AM_5
100
AcDbBlockReference
  2
_Dot
 10
-346.0000000000011
 20
-5867.0
 30
0.0
 41
2.0
 42
2.0
 43
2.0
 50
270.0
  0
MTEXT
  5
A9C64
330
A7E3C
100
AcDbEntity
  8
AM_5
 62
     2
100
AcDbMText
 10
-352.2000000000002
 20
-5811.0
 30
0.0
 40
6.400000000000002
 41
0.0
 71
     5
 72
     1
  1
B
 11
0.0000000000000001
 21
1.0
 31
0.0
 73
     1
 44
1.0
1001
ACAD
1000
MTEXTBEGIN
1070
    73
1070
     1
1070
    44
1040
1.0
1070
    74
1070
     0
1000
MTEXTEND
  0
POINT
  5
A9C65
330
A7E3C
100
AcDbEntity
  8
Defpoints
 62
     0
100
AcDbPoint
 10
-395.5000000000012
 20
-5755.0
 30
0.0
  0
POINT
  5
A9C66
330
A7E3C
100
AcDbEntity
  8
Defpoints
 62
     0
100
AcDbPoint
 10
-395.5000000000012
 20
-5867.0
 30
0.0
  0
POINT
  5
A9C67
330
A7E3C
100
AcDbEntity
  8
Defpoints
 62
     0
100
AcDbPoint
 10
-346.0000000000011
 20
-5867.0
 30
0.0
  0
ENDBLK
  5
A7E47
330
A7E3C
100
AcDbEntity
  8
0
100
AcDbBlockEnd
  0
BLOCK
  5
A7E52
330
A7E48
100
AcDbEntity
  8
0
100
AcDbBlockBegin
  2
*D18
 70
     1
 10
0.0
 20
0.0
 30
0.0
  3
*D18
  1

  0
LINE
  5
A9C68
330
A7E48
100
AcDbEntity
  8
AM_5
100
AcDbLine
 10
-380.0000000000011
 20
-5915.0
 30
0.0
 11
-360.0000000000011
 21
-5915.0
 31
0.0
  0
LINE
  5
A9C69
330
A7E48
100
AcDbEntity
  8
AM_5
100
AcDbLine
 10
-436.0000000000016
 20
-6055.100000000003
 30
0.0
 11
-360.0000000000012
 21
-6055.100000000003
 31
0.0
  0
LINE
  5
A9C6A
330
A7E48
100
AcDbEntity
  8
AM_5
100
AcDbLine
 10
-362.0000000000011
 20
-5917.0
 30
0.0
 11
-362.0000000000012
 21
-6053.100000000002
 31
0.0
  0
INSERT
  5
A9C6B
330
A7E48
100
AcDbEntity
  8
AM_5
100
AcDbBlockReference
  2
_Dot
 10
-362.0000000000011
 20
-5915.0
 30
0.0
 41
2.0
 42
2.0
 43
2.0
 50
90.0
  0
INSERT
  5
A9C6C
330
A7E48
100
AcDbEntity
  8
AM_5
100
AcDbBlockReference
  2
_Dot
 10
-362.0000000000012
 20
-6055.100000000003
 30
0.0
 41
2.0
 42
2.0
 43
2.0
 50
270.0
  0
MTEXT
  5
A9C6D
330
A7E48
100
AcDbEntity
  8
AM_5
 62
     2
100
AcDbMText
 10
-368.2000000000001
 20
-5985.050000000001
 30
0.0
 40
6.400000000000002
 41
0.0
 71
     5
 72
     1
  1
H
 11
0.0000000000000001
 21
1.0
 31
0.0
 73
     1
 44
1.0
1001
ACAD
1000
MTEXTBEGIN
1070
    73
1070
     1
1070
    44
1040
1.0
1070
    74
1070
     0
1000
MTEXTEND
  0
POINT
  5
A9C6E
330
A7E48
100
AcDbEntity
  8
Defpoints
 62
     0
100
AcDbPoint
 10
-382.0000000000011
 20
-5915.0
 30
0.0
  0
POINT
  5
A9C6F
330
A7E48
100
AcDbEntity
  8
Defpoints
 62
     0
100
AcDbPoint
 10
-438.0000000000015
 20
-6055.100000000003
 30
0.0
  0
POINT
  5
A9C70
330
A7E48
100
AcDbEntity
  8
Defpoints
 62
     0
100
AcDbPoint
 10
-362.0000000000012
 20
-6055.100000000003
 30
0.0
  0
ENDBLK
  5
A7E53
330
A7E48
100
AcDbEntity
  8
0
100
AcDbBlockEnd
  0
BLOCK
  5
A7E5E
330
A7E54
100
AcDbEntity
  8
0
100
AcDbBlockBegin
  2
*D19
 70
     1
 10
0.0
 20
0.0
 30
0.0
  3
*D19
  1

  0
LINE
  5
A9C71
330
A7E54
100
AcDbEntity
  8
AM_5
100
AcDbLine
 10
-484.2666666666651
 20
-6055.1
 30
0.0
 11
-477.9999999999963
 21
-6055.1
 31
0.0
  0
LINE
  5
A9C72
330
A7E54
100
AcDbEntity
  8
AM_5
100
AcDbLine
 10
-477.9999999999963
 20
-6055.1
 30
0.0
 11
-467.6984848098364
 21
-6044.798484809841
 31
0.0
  0
LINE
  5
A9C73
330
A7E54
100
AcDbEntity
  8
AM_5
100
AcDbLine
 10
-408.3015151901663
 20
-5985.401515190168
 30
0.0
 11
-406.8873016277934
 21
-5983.987301627794
 31
0.0
  0
MTEXT
  5
A9C74
330
A7E54
100
AcDbEntity
  8
AM_5
 62
     2
100
AcDbMText
 10
-482.6333333333304
 20
-6048.6
 30
0.0
 40
7.0
 41
0.0
 71
     5
 72
     1
  1
D
 73
     1
 44
1.0
1001
ACAD
1000
MTEXTBEGIN
1070
    73
1070
     1
1070
    44
1040
1.0
1070
    74
1070
     0
1000
MTEXTEND
  0
LINE
  5
A9C75
330
A7E54
100
AcDbEntity
  8
AM_5
100
AcDbLine
 10
-409.7157287525392
 20
-5986.815728752541
 30
0.0
 11
-466.284271247463
 21
-6043.384271247467
 31
0.0
  0
INSERT
  5
A9C76
330
A7E54
100
AcDbEntity
  8
AM_5
100
AcDbBlockReference
  2
_Dot
 10
-409.7157287525392
 20
-5986.815728752541
 30
0.0
 41
2.0
 42
2.0
 43
2.0
 50
225.0000000000013
  0
INSERT
  5
A9C77
330
A7E54
100
AcDbEntity
  8
AM_5
100
AcDbBlockReference
  2
_Dot
 10
-466.284271247463
 20
-6043.384271247467
 30
0.0
 41
2.0
 42
2.0
 43
2.0
 50
45.00000000000136
  0
POINT
  5
A9C78
330
A7E54
100
AcDbEntity
  8
Defpoints
 62
     0
100
AcDbPoint
 10
-466.284271247463
 20
-6043.384271247467
 30
0.0
  0
POINT
  5
A9C79
330
A7E54
100
AcDbEntity
  8
Defpoints
 62
     0
100
AcDbPoint
 10
-409.7157287525392
 20
-5986.815728752541
 30
0.0
  0
ENDBLK
  5
A7E5F
330
A7E54
100
AcDbEntity
  8
0
100
AcDbBlockEnd
  0
BLOCK
  5
A7E6A
330
A7E60
100
AcDbEntity
  8
0
100
AcDbBlockBegin
  2
*D20
 70
     1
 10
0.0
 20
0.0
 30
0.0
  3
*D20
  1

  0
LINE
  5
A9C7A
330
A7E60
100
AcDbEntity
  8
AM_5
100
AcDbLine
 10
-367.7333333333308
 20
-5746.999999999998
 30
0.0
 11
-374.0000000000086
 21
-5746.999999999998
 31
0.0
  0
LINE
  5
A9C7B
330
A7E60
100
AcDbEntity
  8
AM_5
100
AcDbLine
 10
-374.0000000000086
 20
-5746.999999999998
 30
0.0
 11
-390.1966991411018
 21
-5763.1966991411
 31
0.0
  0
LINE
  5
A9C7C
330
A7E60
100
AcDbEntity
  8
AM_5
100
AcDbLine
 10
-400.8033008588995
 20
-5773.803300858904
 30
0.0
 11
-402.2175144212719
 21
-5775.217514421277
 31
0.0
  0
MTEXT
  5
A9C7D
330
A7E60
100
AcDbEntity
  8
AM_5
 62
     2
100
AcDbMText
 10
-369.366666666664
 20
-5740.499999999998
 30
0.0
 40
7.0
 41
0.0
 71
     5
 72
     1
  1
P
 73
     1
 44
1.0
1001
ACAD
1000
MTEXTBEGIN
1070
    73
1070
     1
1070
    44
1040
1.0
1070
    74
1070
     0
1000
MTEXTEND
  0
LINE
  5
A9C7E
330
A7E60
100
AcDbEntity
  8
AM_5
100
AcDbLine
 10
-399.3890872965267
 20
-5772.389087296529
 30
0.0
 11
-391.6109127034747
 21
-5764.610912703473
 31
0.0
  0
INSERT
  5
A9C7F
330
A7E60
100
AcDbEntity
  8
AM_5
100
AcDbBlockReference
  2
_Dot
 10
-399.3890872965267
 20
-5772.389087296529
 30
0.0
 41
2.0
 42
2.0
 43
2.0
 50
45.00000000001502
  0
INSERT
  5
A9C80
330
A7E60
100
AcDbEntity
  8
AM_5
100
AcDbBlockReference
  2
_Dot
 10
-391.6109127034747
 20
-5764.610912703473
 30
0.0
 41
2.0
 42
2.0
 43
2.0
 50
225.000000000015
  0
POINT
  5
A9C81
330
A7E60
100
AcDbEntity
  8
Defpoints
 62
     0
100
AcDbPoint
 10
-391.6109127034747
 20
-5764.610912703473
 30
0.0
  0
POINT
  5
A9C82
330
A7E60
100
AcDbEntity
  8
Defpoints
 62
     0
100
AcDbPoint
 10
-399.3890872965267
 20
-5772.389087296529
 30
0.0
  0
ENDBLK
  5
A7E6B
330
A7E60
100
AcDbEntity
  8
0
100
AcDbBlockEnd
  0
BLOCK
  5
A7E76
330
A7E6C
100
AcDbEntity
  8
0
100
AcDbBlockBegin
  2
*D21
 70
     1
 10
0.0
 20
0.0
 30
0.0
  3
*D21
  1

  0
LINE
  5
A9BB4
330
A7E6C
100
AcDbEntity
  8
AM_5
100
AcDbLine
 10
-894.0000000000011
 20
-5853.5
 30
0.0
 11
-872.0000000000011
 21
-5853.5
 31
0.0
  0
LINE
  5
A9BB5
330
A7E6C
100
AcDbEntity
  8
AM_5
100
AcDbLine
 10
-894.0000000000011
 20
-5768.5
 30
0.0
 11
-872.0000000000011
 21
-5768.5
 31
0.0
  0
LINE
  5
A9BB6
330
A7E6C
100
AcDbEntity
  8
AM_5
100
AcDbLine
 10
-874.000000000001
 20
-5851.5
 30
0.0
 11
-874.000000000001
 21
-5770.5
 31
0.0
  0
INSERT
  5
A9BB7
330
A7E6C
100
AcDbEntity
  8
AM_5
100
AcDbBlockReference
  2
_Dot
 10
-874.000000000001
 20
-5853.5
 30
0.0
 41
2.0
 42
2.0
 43
2.0
 50
270.0
  0
INSERT
  5
A9BB8
330
A7E6C
100
AcDbEntity
  8
AM_5
100
AcDbBlockReference
  2
_Dot
 10
-874.000000000001
 20
-5768.5
 30
0.0
 41
2.0
 42
2.0
 43
2.0
 50
90.0
  0
MTEXT
  5
A9BB9
330
A7E6C
100
AcDbEntity
  8
AM_5
 62
     2
100
AcDbMText
 10
-880.2000000000003
 20
-5811.0
 30
0.0
 40
6.400000000000002
 41
0.0
 71
     5
 72
     1
  1
Y
 11
0.0000000000000001
 21
1.0
 31
0.0
 73
     1
 44
1.0
1001
ACAD
1000
MTEXTBEGIN
1070
    73
1070
     1
1070
    44
1040
1.0
1070
    74
1070
     0
1000
MTEXTEND
  0
POINT
  5
A9BBA
330
A7E6C
100
AcDbEntity
  8
Defpoints
 62
     0
100
AcDbPoint
 10
-896.0000000000011
 20
-5853.5
 30
0.0
  0
POINT
  5
A9BBB
330
A7E6C
100
AcDbEntity
  8
Defpoints
 62
     0
100
AcDbPoint
 10
-896.0000000000011
 20
-5768.5
 30
0.0
  0
POINT
  5
A9BBC
330
A7E6C
100
AcDbEntity
  8
Defpoints
 62
     0
100
AcDbPoint
 10
-874.000000000001
 20
-5768.5
 30
0.0
  0
ENDBLK
  5
A7E77
330
A7E6C
100
AcDbEntity
  8
0
100
AcDbBlockEnd
  0
BLOCK
  5
A7E82
330
A7E78
100
AcDbEntity
  8
0
100
AcDbBlockBegin
  2
*D22
 70
     1
 10
0.0
 20
0.0
 30
0.0
  3
*D22
  1

  0
LINE
  5
A9BBD
330
A7E78
100
AcDbEntity
  8
AM_5
100
AcDbLine
 10
-905.5000000000012
 20
-5867.0
 30
0.0
 11
-856.0000000000011
 21
-5867.0
 31
0.0
  0
LINE
  5
A9BBE
330
A7E78
100
AcDbEntity
  8
AM_5
100
AcDbLine
 10
-905.5000000000012
 20
-5755.0
 30
0.0
 11
-856.0000000000011
 21
-5755.0
 31
0.0
  0
LINE
  5
A9BBF
330
A7E78
100
AcDbEntity
  8
AM_5
100
AcDbLine
 10
-858.000000000001
 20
-5865.0
 30
0.0
 11
-858.000000000001
 21
-5757.0
 31
0.0
  0
INSERT
  5
A9BC0
330
A7E78
100
AcDbEntity
  8
AM_5
100
AcDbBlockReference
  2
_Dot
 10
-858.000000000001
 20
-5867.0
 30
0.0
 41
2.0
 42
2.0
 43
2.0
 50
270.0
  0
INSERT
  5
A9BC1
330
A7E78
100
AcDbEntity
  8
AM_5
100
AcDbBlockReference
  2
_Dot
 10
-858.000000000001
 20
-5755.0
 30
0.0
 41
2.0
 42
2.0
 43
2.0
 50
90.0
  0
MTEXT
  5
A9BC2
330
A7E78
100
AcDbEntity
  8
AM_5
 62
     2
100
AcDbMText
 10
-864.2000000000003
 20
-5811.0
 30
0.0
 40
6.400000000000002
 41
0.0
 71
     5
 72
     1
  1
B
 11
0.0000000000000001
 21
1.0
 31
0.0
 73
     1
 44
1.0
1001
ACAD
1000
MTEXTBEGIN
1070
    73
1070
     1
1070
    44
1040
1.0
1070
    74
1070
     0
1000
MTEXTEND
  0
POINT
  5
A9BC3
330
A7E78
100
AcDbEntity
  8
Defpoints
 62
     0
100
AcDbPoint
 10
-907.5000000000011
 20
-5867.0
 30
0.0
  0
POINT
  5
A9BC4
330
A7E78
100
AcDbEntity
  8
Defpoints
 62
     0
100
AcDbPoint
 10
-907.5000000000011
 20
-5755.0
 30
0.0
  0
POINT
  5
A9BC5
330
A7E78
100
AcDbEntity
  8
Defpoints
 62
     0
100
AcDbPoint
 10
-858.000000000001
 20
-5755.0
 30
0.0
  0
ENDBLK
  5
A7E83
330
A7E78
100
AcDbEntity
  8
0
100
AcDbBlockEnd
  0
BLOCK
  5
A7E8E
330
A7E84
100
AcDbEntity
  8
0
100
AcDbBlockBegin
  2
*D23
 70
     1
 10
0.0
 20
0.0
 30
0.0
  3
*D23
  1

  0
LINE
  5
A9BC6
330
A7E84
100
AcDbEntity
  8
AM_5
100
AcDbLine
 10
-992.5000000000011
 20
-5755.0
 30
0.0
 11
-992.5000000000011
 21
-5737.0
 31
0.0
  0
LINE
  5
A9BC7
330
A7E84
100
AcDbEntity
  8
AM_5
100
AcDbLine
 10
-907.5000000000011
 20
-5755.0
 30
0.0
 11
-907.5000000000011
 21
-5737.0
 31
0.0
  0
LINE
  5
A9BC8
330
A7E84
100
AcDbEntity
  8
AM_5
100
AcDbLine
 10
-990.5000000000011
 20
-5739.0
 30
0.0
 11
-909.5000000000011
 21
-5739.0
 31
0.0
  0
INSERT
  5
A9BC9
330
A7E84
100
AcDbEntity
  8
AM_5
100
AcDbBlockReference
  2
_Dot
 10
-992.5000000000011
 20
-5739.0
 30
0.0
 41
2.0
 42
2.0
 43
2.0
 50
180.0
  0
INSERT
  5
A9BCA
330
A7E84
100
AcDbEntity
  8
AM_5
100
AcDbBlockReference
  2
_Dot
 10
-907.5000000000011
 20
-5739.0
 30
0.0
 41
2.0
 42
2.0
 43
2.0
  0
MTEXT
  5
A9BCB
330
A7E84
100
AcDbEntity
  8
AM_5
 62
     2
100
AcDbMText
 10
-950.0000000000012
 20
-5732.800000000001
 30
0.0
 40
6.400000000000002
 41
0.0
 71
     5
 72
     1
  1
X
 73
     1
 44
1.0
1001
ACAD
1000
MTEXTBEGIN
1070
    73
1070
     1
1070
    44
1040
1.0
1070
    74
1070
     0
1000
MTEXTEND
  0
POINT
  5
A9BCC
330
A7E84
100
AcDbEntity
  8
Defpoints
 62
     0
100
AcDbPoint
 10
-992.5000000000011
 20
-5757.0
 30
0.0
  0
POINT
  5
A9BCD
330
A7E84
100
AcDbEntity
  8
Defpoints
 62
     0
100
AcDbPoint
 10
-907.5000000000011
 20
-5757.0
 30
0.0
  0
POINT
  5
A9BCE
330
A7E84
100
AcDbEntity
  8
Defpoints
 62
     0
100
AcDbPoint
 10
-907.5000000000011
 20
-5739.0
 30
0.0
  0
ENDBLK
  5
A7E8F
330
A7E84
100
AcDbEntity
  8
0
100
AcDbBlockEnd
  0
BLOCK
  5
A7E9A
330
A7E90
100
AcDbEntity
  8
0
100
AcDbBlockBegin
  2
*D24
 70
     1
 10
0.0
 20
0.0
 30
0.0
  3
*D24
  1

  0
LINE
  5
A9BCF
330
A7E90
100
AcDbEntity
  8
AM_5
100
AcDbLine
 10
-894.0000000000011
 20
-5766.5
 30
0.0
 11
-894.0000000000011
 21
-5721.0
 31
0.0
  0
LINE
  5
A9BD0
330
A7E90
100
AcDbEntity
  8
AM_5
100
AcDbLine
 10
-1006.000000000001
 20
-5766.5
 30
0.0
 11
-1006.000000000001
 21
-5721.0
 31
0.0
  0
LINE
  5
A9BD1
330
A7E90
100
AcDbEntity
  8
AM_5
100
AcDbLine
 10
-896.0000000000011
 20
-5723.0
 30
0.0
 11
-1004.000000000001
 21
-5723.0
 31
0.0
  0
INSERT
  5
A9BD2
330
A7E90
100
AcDbEntity
  8
AM_5
100
AcDbBlockReference
  2
_Dot
 10
-894.0000000000011
 20
-5723.0
 30
0.0
 41
2.0
 42
2.0
 43
2.0
  0
INSERT
  5
A9BD3
330
A7E90
100
AcDbEntity
  8
AM_5
100
AcDbBlockReference
  2
_Dot
 10
-1006.000000000001
 20
-5723.0
 30
0.0
 41
2.0
 42
2.0
 43
2.0
 50
180.0
  0
MTEXT
  5
A9BD4
330
A7E90
100
AcDbEntity
  8
AM_5
 62
     2
100
AcDbMText
 10
-950.0000000000012
 20
-5716.8
 30
0.0
 40
6.400000000000002
 41
0.0
 71
     5
 72
     1
  1
A
 73
     1
 44
1.0
1001
ACAD
1000
MTEXTBEGIN
1070
    73
1070
     1
1070
    44
1040
1.0
1070
    74
1070
     0
1000
MTEXTEND
  0
POINT
  5
A9BD5
330
A7E90
100
AcDbEntity
  8
Defpoints
 62
     0
100
AcDbPoint
 10
-894.0000000000011
 20
-5768.5
 30
0.0
  0
POINT
  5
A9BD6
330
A7E90
100
AcDbEntity
  8
Defpoints
 62
     0
100
AcDbPoint
 10
-1006.000000000001
 20
-5768.5
 30
0.0
  0
POINT
  5
A9BD7
330
A7E90
100
AcDbEntity
  8
Defpoints
 62
     0
100
AcDbPoint
 10
-1006.000000000001
 20
-5723.0
 30
0.0
  0
ENDBLK
  5
A7E9B
330
A7E90
100
AcDbEntity
  8
0
100
AcDbBlockEnd
  0
BLOCK
  5
A7EA6
330
A7E9C
100
AcDbEntity
  8
0
100
AcDbBlockBegin
  2
*D25
 70
     1
 10
0.0
 20
0.0
 30
0.0
  3
*D25
  1

  0
LINE
  5
A9BD8
330
A7E9C
100
AcDbEntity
  8
AM_5
100
AcDbLine
 10
-892.0000000000012
 20
-5915.0
 30
0.0
 11
-872.0000000000011
 21
-5915.0
 31
0.0
  0
LINE
  5
A9BD9
330
A7E9C
100
AcDbEntity
  8
AM_5
100
AcDbLine
 10
-980.0000000000011
 20
-6055.0
 30
0.0
 11
-872.0000000000011
 21
-6055.0
 31
0.0
  0
LINE
  5
A9BDA
330
A7E9C
100
AcDbEntity
  8
AM_5
100
AcDbLine
 10
-874.000000000001
 20
-5917.0
 30
0.0
 11
-874.000000000001
 21
-6053.0
 31
0.0
  0
INSERT
  5
A9BDB
330
A7E9C
100
AcDbEntity
  8
AM_5
100
AcDbBlockReference
  2
_Dot
 10
-874.000000000001
 20
-5915.0
 30
0.0
 41
2.0
 42
2.0
 43
2.0
 50
90.0
  0
INSERT
  5
A9BDC
330
A7E9C
100
AcDbEntity
  8
AM_5
100
AcDbBlockReference
  2
_Dot
 10
-874.000000000001
 20
-6055.0
 30
0.0
 41
2.0
 42
2.0
 43
2.0
 50
270.0
  0
MTEXT
  5
A9BDD
330
A7E9C
100
AcDbEntity
  8
AM_5
 62
     2
100
AcDbMText
 10
-880.2000000000001
 20
-5985.0
 30
0.0
 40
6.400000000000002
 41
0.0
 71
     5
 72
     1
  1
H
 11
0.0000000000000001
 21
1.0
 31
0.0
 73
     1
 44
1.0
1001
ACAD
1000
MTEXTBEGIN
1070
    73
1070
     1
1070
    44
1040
1.0
1070
    74
1070
     0
1000
MTEXTEND
  0
POINT
  5
A9BDE
330
A7E9C
100
AcDbEntity
  8
Defpoints
 62
     0
100
AcDbPoint
 10
-894.0000000000011
 20
-5915.0
 30
0.0
  0
POINT
  5
A9BDF
330
A7E9C
100
AcDbEntity
  8
Defpoints
 62
     0
100
AcDbPoint
 10
-982.000000000001
 20
-6055.0
 30
0.0
  0
POINT
  5
A9BE0
330
A7E9C
100
AcDbEntity
  8
Defpoints
 62
     0
100
AcDbPoint
 10
-874.000000000001
 20
-6055.0
 30
0.0
  0
ENDBLK
  5
A7EA7
330
A7E9C
100
AcDbEntity
  8
0
100
AcDbBlockEnd
  0
BLOCK
  5
A7EB2
330
A7EA8
100
AcDbEntity
  8
0
100
AcDbBlockBegin
  2
*D26
 70
     1
 10
0.0
 20
0.0
 30
0.0
  3
*D26
  1

  0
LINE
  5
A9BE1
330
A7EA8
100
AcDbEntity
  8
AM_5
100
AcDbLine
 10
-982.000000000001
 20
-6063.0
 30
0.0
 11
-982.000000000001
 21
-6077.0
 31
0.0
  0
LINE
  5
A9BE2
330
A7EA8
100
AcDbEntity
  8
AM_5
100
AcDbLine
 10
-950.0000000000012
 20
-6017.0
 30
0.0
 11
-950.0000000000012
 21
-6077.0
 31
0.0
  0
LINE
  5
A9BE3
330
A7EA8
100
AcDbEntity
  8
AM_5
100
AcDbLine
 10
-980.0000000000011
 20
-6075.0
 30
0.0
 11
-952.0000000000012
 21
-6075.0
 31
0.0
  0
INSERT
  5
A9BE4
330
A7EA8
100
AcDbEntity
  8
AM_5
100
AcDbBlockReference
  2
_Dot
 10
-982.000000000001
 20
-6075.0
 30
0.0
 41
2.0
 42
2.0
 43
2.0
 50
180.0
  0
INSERT
  5
A9BE5
330
A7EA8
100
AcDbEntity
  8
AM_5
100
AcDbBlockReference
  2
_Dot
 10
-950.0000000000012
 20
-6075.0
 30
0.0
 41
2.0
 42
2.0
 43
2.0
  0
MTEXT
  5
A9BE6
330
A7EA8
100
AcDbEntity
  8
AM_5
 62
     2
100
AcDbMText
 10
-966.000000000001
 20
-6068.8
 30
0.0
 40
6.400000000000002
 41
0.0
 71
     5
 72
     1
  1
E
 73
     1
 44
1.0
1001
ACAD
1000
MTEXTBEGIN
1070
    73
1070
     1
1070
    44
1040
1.0
1070
    74
1070
     0
1000
MTEXTEND
  0
POINT
  5
A9BE7
330
A7EA8
100
AcDbEntity
  8
Defpoints
 62
     0
100
AcDbPoint
 10
-982.000000000001
 20
-6061.0
 30
0.0
  0
POINT
  5
A9BE8
330
A7EA8
100
AcDbEntity
  8
Defpoints
 62
     0
100
AcDbPoint
 10
-950.0000000000012
 20
-6015.0
 30
0.0
  0
POINT
  5
A9BE9
330
A7EA8
100
AcDbEntity
  8
Defpoints
 62
     0
100
AcDbPoint
 10
-950.0000000000012
 20
-6075.0
 30
0.0
  0
ENDBLK
  5
A7EB3
330
A7EA8
100
AcDbEntity
  8
0
100
AcDbBlockEnd
  0
BLOCK
  5
A7EBE
330
A7EB4
100
AcDbEntity
  8
0
100
AcDbBlockBegin
  2
*D27
 70
     1
 10
0.0
 20
0.0
 30
0.0
  3
*D27
  1

  0
LINE
  5
A9BEA
330
A7EB4
100
AcDbEntity
  8
AM_5
100
AcDbLine
 10
-1028.26666666667
 20
-6054.999999999998
 30
0.0
 11
-1021.999999999997
 21
-6054.999999999998
 31
0.0
  0
LINE
  5
A9BEB
330
A7EB4
100
AcDbEntity
  8
AM_5
100
AcDbLine
 10
-1021.999999999997
 20
-6054.999999999998
 30
0.0
 11
-1011.698484809838
 21
-6044.69848480984
 31
0.0
  0
LINE
  5
A9BEC
330
A7EB4
100
AcDbEntity
  8
AM_5
100
AcDbLine
 10
-952.301515190164
 20
-5985.301515190168
 30
0.0
 11
-950.8873016277908
 21
-5983.887301627795
 31
0.0
  0
MTEXT
  5
A9BED
330
A7EB4
100
AcDbEntity
  8
AM_5
 62
     2
100
AcDbMText
 10
-1026.633333333337
 20
-6048.499999999998
 30
0.0
 40
7.0
 41
0.0
 71
     5
 72
     1
  1
D
 73
     1
 44
1.0
1001
ACAD
1000
MTEXTBEGIN
1070
    73
1070
     1
1070
    44
1040
1.0
1070
    74
1070
     0
1000
MTEXTEND
  0
LINE
  5
A9BEE
330
A7EB4
100
AcDbEntity
  8
AM_5
100
AcDbLine
 10
-953.7157287525369
 20
-5986.715728752542
 30
0.0
 11
-1010.284271247466
 21
-6043.284271247467
 31
0.0
  0
INSERT
  5
A9BEF
330
A7EB4
100
AcDbEntity
  8
AM_5
100
AcDbBlockReference
  2
_Dot
 10
-953.7157287525369
 20
-5986.715728752542
 30
0.0
 41
2.0
 42
2.0
 43
2.0
 50
224.9999999999984
  0
INSERT
  5
A9BF0
330
A7EB4
100
AcDbEntity
  8
AM_5
100
AcDbBlockReference
  2
_Dot
 10
-1010.284271247466
 20
-6043.284271247467
 30
0.0
 41
2.0
 42
2.0
 43
2.0
 50
44.9999999999984
  0
POINT
  5
A9BF1
330
A7EB4
100
AcDbEntity
  8
Defpoints
 62
     0
100
AcDbPoint
 10
-1010.284271247466
 20
-6043.284271247467
 30
0.0
  0
POINT
  5
A9BF2
330
A7EB4
100
AcDbEntity
  8
Defpoints
 62
     0
100
AcDbPoint
 10
-953.7157287525369
 20
-5986.715728752542
 30
0.0
  0
ENDBLK
  5
A7EBF
330
A7EB4
100
AcDbEntity
  8
0
100
AcDbBlockEnd
  0
BLOCK
  5
A7ECA
330
A7EC0
100
AcDbEntity
  8
0
100
AcDbBlockBegin
  2
*D28
 70
     1
 10
0.0
 20
0.0
 30
0.0
  3
*D28
  1

  0
LINE
  5
A9BF3
330
A7EC0
100
AcDbEntity
  8
AM_5
100
AcDbLine
 10
-879.7333333333272
 20
-5747.0
 30
0.0
 11
-885.9999999999978
 21
-5747.0
 31
0.0
  0
LINE
  5
A9BF4
330
A7EC0
100
AcDbEntity
  8
AM_5
100
AcDbLine
 10
-885.9999999999978
 20
-5747.0
 30
0.0
 11
-902.1966991410982
 21
-5763.196699141101
 31
0.0
  0
LINE
  5
A9BF5
330
A7EC0
100
AcDbEntity
  8
AM_5
100
AcDbLine
 10
-912.8033008588976
 20
-5773.803300858901
 30
0.0
 11
-914.2175144212705
 21
-5775.217514421274
 31
0.0
  0
MTEXT
  5
A9BF6
330
A7EC0
100
AcDbEntity
  8
AM_5
 62
     2
100
AcDbMText
 10
-881.3666666666613
 20
-5740.5
 30
0.0
 40
7.0
 41
0.0
 71
     5
 72
     1
  1
P
 73
     1
 44
1.0
1001
ACAD
1000
MTEXTBEGIN
1070
    73
1070
     1
1070
    44
1040
1.0
1070
    74
1070
     0
1000
MTEXTEND
  0
LINE
  5
A9BF7
330
A7EC0
100
AcDbEntity
  8
AM_5
100
AcDbLine
 10
-911.3890872965244
 20
-5772.389087296527
 30
0.0
 11
-903.6109127034714
 21
-5764.610912703474
 31
0.0
  0
INSERT
  5
A9BF8
330
A7EC0
100
AcDbEntity
  8
AM_5
100
AcDbBlockReference
  2
_Dot
 10
-911.3890872965244
 20
-5772.389087296527
 30
0.0
 41
2.0
 42
2.0
 43
2.0
 50
45.0
  0
INSERT
  5
A9BF9
330
A7EC0
100
AcDbEntity
  8
AM_5
100
AcDbBlockReference
  2
_Dot
 10
-903.6109127034714
 20
-5764.610912703474
 30
0.0
 41
2.0
 42
2.0
 43
2.0
 50
225.0
  0
POINT
  5
A9BFA
330
A7EC0
100
AcDbEntity
  8
Defpoints
 62
     0
100
AcDbPoint
 10
-903.6109127034714
 20
-5764.610912703474
 30
0.0
  0
POINT
  5
A9BFB
330
A7EC0
100
AcDbEntity
  8
Defpoints
 62
     0
100
AcDbPoint
 10
-911.3890872965244
 20
-5772.389087296527
 30
0.0
  0
ENDBLK
  5
A7ECB
330
A7EC0
100
AcDbEntity
  8
0
100
AcDbBlockEnd
  0
ENDSEC
  0
SECTION
  2
ENTITIES
  0
MTEXT
  5
7AC05
330
1F
100
AcDbEntity
  8
AM_6
100
AcDbMText
 10
-1051.000000000001
 20
-5888.0
 30
0.0
 40
6.4
 41
180.0
 71
     4
 72
     5
  1
　
 73
     1
 44
1.0
1001
ACAD
1000
MTEXTBEGIN
1070
    73
1070
     1
1070
    44
1040
1.0
1070
    74
1070
     0
1000
MTEXTEND
  0
MTEXT
  5
7AC06
330
1F
100
AcDbEntity
  8
AM_6
100
AcDbMText
 10
-1051.000000000001
 20
-5920.0
 30
0.0
 40
6.4
 41
180.0
 71
     4
 72
     5
  1
　
 73
     1
 44
1.0
1001
ACAD
1000
MTEXTBEGIN
1070
    73
1070
     1
1070
    44
1040
1.0
1070
    74
1070
     0
1000
MTEXTEND
  0
LWPOLYLINE
  5
A7C86
330
1F
100
AcDbEntity
  8
waku
100
AcDbPolyline
 90
        4
 70
     1
 43
0.0
 10
-1091.000000000001
 20
-5563.0
 10
-297.000000000001
 20
-5563.0
 10
-297.000000000001
 20
-6123.0
 10
-1091.000000000001
 20
-6123.0
1001
GENIUS_GENREC_14
1002
{
1000
PYDIR
1011
-1091.000000000001
1021
-6123.0
1031
0.0
1002
}
1002
{
1000
PXDIR
1011
-297.000000000001
1021
-5563.0
1031
0.0
1002
}
1002
{
1000
PORI
1011
-1091.000000000001
1021
-5563.0
1031
0.0
1002
}
1002
{
1000
PINS
1011
-1091.000000000001
1021
-5563.0
1031
0.0
1002
}
1002
{
1000
PINS2
1011
-297.000000000001
1021
-6123.0
1031
0.0
1002
}
1002
{
1000
C
1070
     1
1002
}
1001
GENIUS_GENODEF_13
1002
{
1000
HIER
1070
     0
1002
}
1002
{
1000
MANEDIT
1070
     0
1002
}
1002
{
1000
NOSEL
1070
     0
1002
}
1002
{
1000
BEHIND
1070
     0
1002
}
1002
{
1000
OTHER
1070
     0
1002
}
1002
{
1000
REACTOR
1002
}
1001
GENIUS_GENOBJ-N-REC_13
1002
{
1000
OWNER
1000
GEN
1002
}
  0
LWPOLYLINE
  5
A7C87
330
1F
100
AcDbEntity
  8
size
100
AcDbPolyline
 90
        4
 70
     1
 43
0.0
 10
-1114.000000000001
 20
-5546.0
 10
-274.000000000001
 20
-5546.0
 10
-274.000000000001
 20
-6140.0
 10
-1114.000000000001
 20
-6140.0
1001
GENIUS_GENREC_14
1002
{
1000
PYDIR
1011
-1114.000000000001
1021
-6140.0
1031
0.0
1002
}
1002
{
1000
PXDIR
1011
-274.000000000001
1021
-5546.0
1031
0.0
1002
}
1002
{
1000
PORI
1011
-1114.000000000001
1021
-5546.0
1031
0.0
1002
}
1002
{
1000
PINS
1011
-1114.000000000001
1021
-5546.0
1031
0.0
1002
}
1002
{
1000
PINS2
1011
-274.000000000001
1021
-6140.0
1031
0.0
1002
}
1002
{
1000
C
1070
     1
1002
}
1001
GENIUS_GENOBJ-N-REC_13
1002
{
1000
OWNER
1000
GEN
1002
}
1001
GENIUS_GENODEF_13
1002
{
1000
HIER
1070
     0
1002
}
1002
{
1000
MANEDIT
1070
     0
1002
}
1002
{
1000
NOSEL
1070
     0
1002
}
1002
{
1000
BEHIND
1070
     0
1002
}
1002
{
1000
OTHER
1070
     0
1002
}
1002
{
1000
REACTOR
1002
}
  0
LINE
  5
A7C89
330
1F
100
AcDbEntity
  8
AM_0
100
AcDbLine
 10
-1006.000000000001
 20
-5915.0
 30
0.0
 11
-894.0000000000011
 21
-5915.0
 31
0.0
  0
LINE
  5
A7C8A
330
1F
100
AcDbEntity
  8
AM_0
100
AcDbLine
 10
-992.5000000000011
 20
-5755.0
 30
0.0
 11
-907.5000000000011
 21
-5755.0
 31
0.0
  0
LINE
  5
A7C8B
330
1F
100
AcDbEntity
  8
AM_0
100
AcDbLine
 10
-992.5000000000011
 20
-5867.0
 30
0.0
 11
-907.5000000000011
 21
-5867.0
 31
0.0
  0
LINE
  5
A7C8C
330
1F
100
AcDbEntity
  8
AM_0
100
AcDbLine
 10
-1006.000000000001
 20
-5921.0
 30
0.0
 11
-1006.000000000001
 21
-5915.0
 31
0.0
  0
LINE
  5
A7C8D
330
1F
100
AcDbEntity
  8
AM_0
100
AcDbLine
 10
-894.0000000000011
 20
-5921.0
 30
0.0
 11
-894.0000000000011
 21
-5915.0
 31
0.0
  0
LINE
  5
A7C8E
330
1F
100
AcDbEntity
  8
AM_0
100
AcDbLine
 10
-1006.000000000001
 20
-5853.5
 30
0.0
 11
-1006.000000000001
 21
-5768.5
 31
0.0
  0
LINE
  5
A7C8F
330
1F
100
AcDbEntity
  8
AM_0
100
AcDbLine
 10
-894.0000000000011
 20
-5853.5
 30
0.0
 11
-894.0000000000011
 21
-5768.5
 31
0.0
  0
ARC
  5
A7C90
330
1F
100
AcDbEntity
  8
AM_0
100
AcDbCircle
 10
-992.5000000000011
 20
-5768.5
 30
0.0
 40
13.5
100
AcDbArc
 50
90.0
 51
180.0
  0
ARC
  5
A7C91
330
1F
100
AcDbEntity
  8
AM_0
100
AcDbCircle
 10
-907.5000000000011
 20
-5768.5
 30
0.0
 40
13.5
100
AcDbArc
 50
0.0
 51
90.0
  0
ARC
  5
A7C92
330
1F
100
AcDbEntity
  8
AM_0
100
AcDbCircle
 10
-992.5000000000011
 20
-5853.5
 30
0.0
 40
13.5
100
AcDbArc
 50
180.0
 51
270.0
  0
ARC
  5
A7C93
330
1F
100
AcDbEntity
  8
AM_0
100
AcDbCircle
 10
-907.5000000000011
 20
-5853.5
 30
0.0
 40
13.5
100
AcDbArc
 50
270.0
 51
0.0
  0
CIRCLE
  5
A7C94
330
1F
100
AcDbEntity
  8
AM_0
100
AcDbCircle
 10
-992.5000000000011
 20
-5768.5
 30
0.0
 40
5.5
  0
CIRCLE
  5
A7C95
330
1F
100
AcDbEntity
  8
AM_0
100
AcDbCircle
 10
-907.5000000000011
 20
-5768.5
 30
0.0
 40
5.5
  0
CIRCLE
  5
A7C96
330
1F
100
AcDbEntity
  8
AM_0
100
AcDbCircle
 10
-992.5000000000011
 20
-5853.5
 30
0.0
 40
5.5
  0
CIRCLE
  5
A7C97
330
1F
100
AcDbEntity
  8
AM_0
100
AcDbCircle
 10
-907.5000000000011
 20
-5853.5
 30
0.0
 40
5.5
  0
CIRCLE
  5
A7C98
330
1F
100
AcDbEntity
  8
AM_0
100
AcDbCircle
 10
-950.0000000000012
 20
-5811.0
 30
0.0
 40
41.29999999999999
  0
CIRCLE
  5
A7C99
330
1F
100
AcDbEntity
  8
AM_0
100
AcDbCircle
 10
-950.0000000000012
 20
-5811.0
 30
0.0
 40
24.5
  0
ARC
  5
A7C9A
330
1F
100
AcDbEntity
  8
AM_0
100
AcDbCircle
 10
-992.5000000000011
 20
-5768.5
 30
0.0
 40
11.0
100
AcDbArc
 50
59.99999999999903
 51
210.0000000000074
  0
LINE
  5
A7C9B
330
1F
100
AcDbEntity
  8
AM_0
100
AcDbLine
 10
-1002.000000000001
 20
-5774.0
 30
0.0
 11
-991.8000000000013
 21
-5791.700000000001
 31
0.0
  0
LINE
  5
A7C9C
330
1F
100
AcDbEntity
  8
AM_0
100
AcDbLine
 10
-987.0000000000011
 20
-5759.0
 30
0.0
 11
-969.3000000000013
 21
-5769.200000000001
 31
0.0
  0
ARC
  5
A7C9D
330
1F
100
AcDbEntity
  8
AM_0
100
AcDbCircle
 10
-907.5000000000011
 20
-5768.5
 30
0.0
 40
11.0
100
AcDbArc
 50
329.9999999999926
 51
120.0000000000009
  0
LINE
  5
A7C9E
330
1F
100
AcDbEntity
  8
AM_0
100
AcDbLine
 10
-898.0000000000011
 20
-5774.0
 30
0.0
 11
-908.2000000000009
 21
-5791.700000000001
 31
0.0
  0
LINE
  5
A7C9F
330
1F
100
AcDbEntity
  8
AM_0
100
AcDbLine
 10
-913.0000000000011
 20
-5759.0
 30
0.0
 11
-930.7000000000009
 21
-5769.200000000001
 31
0.0
  0
ARC
  5
A7CA0
330
1F
100
AcDbEntity
  8
AM_0
100
AcDbCircle
 10
-992.5000000000011
 20
-5853.5
 30
0.0
 40
11.0
100
AcDbArc
 50
149.9999999999926
 51
300.0000000000008
  0
LINE
  5
A7CA1
330
1F
100
AcDbEntity
  8
AM_0
100
AcDbLine
 10
-987.0000000000011
 20
-5863.0
 30
0.0
 11
-969.3000000000013
 21
-5852.799999999999
 31
0.0
  0
ARC
  5
A7CA2
330
1F
100
AcDbEntity
  8
AM_0
100
AcDbCircle
 10
-907.5000000000011
 20
-5853.5
 30
0.0
 40
11.0
100
AcDbArc
 50
239.999999999999
 51
30.00000000000741
  0
LINE
  5
A7CA3
330
1F
100
AcDbEntity
  8
AM_0
100
AcDbLine
 10
-898.0000000000011
 20
-5848.0
 30
0.0
 11
-908.2000000000009
 21
-5830.3
 31
0.0
  0
LINE
  5
A7CA4
330
1F
100
AcDbEntity
  8
AM_0
100
AcDbLine
 10
-913.0000000000011
 20
-5863.0
 30
0.0
 11
-930.7000000000009
 21
-5852.799999999999
 31
0.0
  0
LINE
  5
A7CA5
330
1F
100
AcDbEntity
  8
AM_0
100
AcDbLine
 10
-1006.000000000001
 20
-5921.0
 30
0.0
 11
-950.0000000000012
 21
-5921.0
 31
0.0
  0
LINE
  5
A7CA6
330
1F
100
AcDbEntity
  8
AM_0
100
AcDbLine
 10
-992.0000000000012
 20
-5924.0
 30
0.0
 11
-982.000000000001
 21
-5924.0
 31
0.0
  0
ARC
  5
A7CA7
330
1F
100
AcDbEntity
  8
AM_0
100
AcDbCircle
 10
-982.000000000001
 20
-6015.0
 30
0.0
 40
16.0
100
AcDbArc
 50
144.3000000000265
 51
295.9999999999877
  0
CIRCLE
  5
A7CA8
330
1F
100
AcDbEntity
  8
AM_0
100
AcDbCircle
 10
-982.000000000001
 20
-6015.0
 30
0.0
 40
12.0
  0
LINE
  5
A7CA9
330
1F
100
AcDbEntity
  8
AM_0
100
AcDbLine
 10
-980.0000000000011
 20
-5948.0
 30
0.0
 11
-980.0000000000011
 21
-5959.0
 31
0.0
  0
ARC
  5
A7CAA
330
1F
100
AcDbEntity
  8
AM_0
100
AcDbCircle
 10
-1060.000000000001
 20
-5959.0
 30
0.0
 40
80.0
100
AcDbArc
 50
324.3000000000265
 51
355.6762099999524
  0
LINE
  5
A7CAB
330
1F
100
AcDbEntity
  8
AM_0
100
AcDbLine
 10
-913.0000000000011
 20
-5959.0
 30
0.0
 11
-913.0000000000011
 21
-5948.0
 31
0.0
  0
ARC
  5
A7CAC
330
1F
100
AcDbEntity
  8
AM_0
100
AcDbCircle
 10
-1018.900000000001
 20
-5939.5
 30
0.0
 40
100.0
100
AcDbArc
 50
295.9999999999877
 51
336.1983750000447
  0
ARC
  5
A7CAD
330
1F
100
AcDbEntity
  8
AM_0
100
AcDbCircle
 10
-962.7000000000009
 20
-5953.8
 30
0.0
 40
50.0
100
AcDbArc
 50
336.1989160000018
 51
354.0000000000179
  0
LINE
  5
A7CAE
330
1F
100
AcDbEntity
  8
AM_0
100
AcDbLine
 10
-992.0000000000012
 20
-5941.5
 30
0.0
 11
-992.0000000000012
 21
-5936.0
 31
0.0
  0
ARC
  5
A7CAF
330
1F
100
AcDbEntity
  8
AM_0
100
AcDbCircle
 10
-985.5000000000011
 20
-5941.5
 30
0.0
 40
6.5
100
AcDbArc
 50
180.0
 51
270.0
  0
ARC
  5
A7CB0
330
1F
100
AcDbEntity
  8
AM_0
100
AcDbCircle
 10
-995.500000000001
 20
-5921.5
 30
0.0
 40
0.5
100
AcDbArc
 50
8.199999999973554
 51
90.0
  0
ARC
  5
A7CB1
330
1F
100
AcDbEntity
  8
AM_0
100
AcDbCircle
 10
-992.0000000000012
 20
-5921.0
 30
0.0
 40
3.0
100
AcDbArc
 50
188.1999999999735
 51
270.0
  0
LINE
  5
A7CB2
330
1F
100
AcDbEntity
  8
AM_0
100
AcDbLine
 10
-985.5000000000011
 20
-5948.0
 30
0.0
 11
-950.0000000000012
 21
-5948.0
 31
0.0
  0
LINE
  5
A7CB3
330
1F
100
AcDbEntity
  8
AM_0
100
AcDbLine
 10
-894.0000000000011
 20
-5921.0
 30
0.0
 11
-950.0000000000012
 21
-5921.0
 31
0.0
  0
LINE
  5
A7CB4
330
1F
100
AcDbEntity
  8
AM_0
100
AcDbLine
 10
-908.000000000001
 20
-5924.0
 30
0.0
 11
-918.0000000000012
 21
-5924.0
 31
0.0
  0
LINE
  5
A7CB5
330
1F
100
AcDbEntity
  8
AM_0
100
AcDbLine
 10
-908.000000000001
 20
-5941.5
 30
0.0
 11
-908.000000000001
 21
-5936.0
 31
0.0
  0
ARC
  5
A7CB6
330
1F
100
AcDbEntity
  8
AM_0
100
AcDbCircle
 10
-914.5000000000012
 20
-5941.5
 30
0.0
 40
6.5
100
AcDbArc
 50
270.0
 51
0.0
  0
ARC
  5
A7CB7
330
1F
100
AcDbEntity
  8
AM_0
100
AcDbCircle
 10
-904.5000000000012
 20
-5921.5
 30
0.0
 40
0.5
100
AcDbArc
 50
90.0
 51
171.8000000000264
  0
ARC
  5
A7CB8
330
1F
100
AcDbEntity
  8
AM_0
100
AcDbCircle
 10
-908.000000000001
 20
-5921.0
 30
0.0
 40
3.0
100
AcDbArc
 50
270.0
 51
351.8000000000264
  0
ARC
  5
A7CB9
330
1F
100
AcDbEntity
  8
AM_0
100
AcDbCircle
 10
-1060.000000000001
 20
-5959.0
 30
0.0
 40
88.0
100
AcDbArc
 50
331.3999999999639
 51
7.180755999950437
  0
ARC
  5
A7CBA
330
1F
100
AcDbEntity
  8
AM_0
100
AcDbCircle
 10
-1018.900000000001
 20
-5939.5
 30
0.0
 40
92.0
100
AcDbArc
 50
303.2999999999812
 51
354.6988079999532
  0
LINE
  5
A7CBB
330
1F
100
AcDbEntity
  8
AM_0
100
AcDbLine
 10
-950.0000000000012
 20
-5948.0
 30
0.0
 11
-913.0000000000011
 21
-5948.0
 31
0.0
  0
LINE
  5
A7CBC
330
1F
100
AcDbEntity
  8
AM_0
100
AcDbLine
 10
-993.2000000000009
 20
-5924.0
 30
0.0
 11
-950.0000000000012
 21
-5924.0
 31
0.0
  0
LINE
  5
A7CBD
330
1F
100
AcDbEntity
  8
AM_0
100
AcDbLine
 10
-997.8000000000013
 20
-5936.0
 30
0.0
 11
-950.0000000000012
 21
-5936.0
 31
0.0
  0
LINE
  5
A7CBE
330
1F
100
AcDbEntity
  8
AM_0
100
AcDbLine
 10
-902.3000000000013
 20
-5936.0
 30
0.0
 11
-902.3000000000013
 21
-5928.5
 31
0.0
  0
ARC
  5
A7CBF
330
1F
100
AcDbEntity
  8
AM_0
100
AcDbCircle
 10
-906.8000000000013
 20
-5928.5
 30
0.0
 40
4.5
100
AcDbArc
 50
0.0
 51
90.0
  0
LINE
  5
A7CC0
330
1F
100
AcDbEntity
  8
AM_0
100
AcDbLine
 10
-997.8000000000013
 20
-5936.0
 30
0.0
 11
-997.8000000000013
 21
-5928.5
 31
0.0
  0
ARC
  5
A7CC1
330
1F
100
AcDbEntity
  8
AM_0
100
AcDbCircle
 10
-993.3000000000014
 20
-5928.5
 30
0.0
 40
4.5
100
AcDbArc
 50
90.0
 51
180.0
  0
LINE
  5
A7CC2
330
1F
100
AcDbEntity
  8
AM_0
100
AcDbLine
 10
-950.0000000000012
 20
-5924.0
 30
0.0
 11
-906.8000000000013
 21
-5924.0
 31
0.0
  0
LINE
  5
A7CC3
330
1F
100
AcDbEntity
  8
AM_0
100
AcDbLine
 10
-950.0000000000012
 20
-5936.0
 30
0.0
 11
-902.3000000000013
 21
-5936.0
 31
0.0
  0
ARC
  5
A7CC4
330
1F
100
AcDbEntity
  8
AM_0
100
AcDbCircle
 10
-982.000000000001
 20
-6015.0
 30
0.0
 40
25.2
100
AcDbArc
 50
99.87936399999767
 51
353.1054019999792
  0
ARC
  5
A7CC5
330
1F
100
AcDbEntity
  8
AM_0
100
AcDbCircle
 10
-982.000000000001
 20
-6015.0
 30
0.0
 40
25.0
100
AcDbArc
 50
100.1763809999898
 51
352.6440589999631
  0
ARC
  5
A7CC6
330
1F
100
AcDbEntity
  8
AM_0
100
AcDbCircle
 10
-982.000000000001
 20
-6015.0
 30
0.0
 40
18.4
100
AcDbArc
 50
117.6876359999982
 51
328.8418399999514
  0
ARC
  5
A7CC7
330
1F
100
AcDbEntity
  8
AM_0
100
AcDbCircle
 10
-982.000000000001
 20
-6015.0
 30
0.0
 40
19.0
100
AcDbArc
 50
114.9915529999944
 51
332.2389939999734
  0
ARC
  5
A7CC8
330
1F
100
AcDbEntity
  8
AM_0
100
AcDbCircle
 10
-982.000000000001
 20
-6015.0
 30
0.0
 40
19.7
100
AcDbArc
 50
112.3160719999829
 51
335.6765249999844
  0
ARC
  5
A7CC9
330
1F
100
AcDbEntity
  8
AM_0
100
AcDbCircle
 10
-982.000000000001
 20
-6015.0
 30
0.0
 40
23.5
100
AcDbArc
 50
102.6749079999679
 51
348.8841660000413
  0
ARC
  5
A7CCA
330
1F
100
AcDbEntity
  8
AM_0
100
AcDbCircle
 10
-1060.000000000001
 20
-5959.0
 30
0.0
 40
80.0
100
AcDbArc
 50
355.699999999968
 51
0.0
  0
LINE
  5
A7CCB
330
1F
100
AcDbEntity
  8
AM_0
100
AcDbLine
 10
-971.0000000000011
 20
-6015.0
 30
0.0
 11
-976.5000000000011
 21
-6005.5
 31
0.0
  0
LINE
  5
A7CCC
330
1F
100
AcDbEntity
  8
AM_0
100
AcDbLine
 10
-976.5000000000011
 20
-6005.5
 30
0.0
 11
-987.5000000000012
 21
-6005.5
 31
0.0
  0
LINE
  5
A7CCD
330
1F
100
AcDbEntity
  8
AM_0
100
AcDbLine
 10
-987.5000000000012
 20
-6005.5
 30
0.0
 11
-993.0000000000012
 21
-6015.0
 31
0.0
  0
LINE
  5
A7CCE
330
1F
100
AcDbEntity
  8
AM_0
100
AcDbLine
 10
-993.0000000000012
 20
-6015.0
 30
0.0
 11
-987.5000000000012
 21
-6024.5
 31
0.0
  0
LINE
  5
A7CCF
330
1F
100
AcDbEntity
  8
AM_0
100
AcDbLine
 10
-987.5000000000012
 20
-6024.5
 30
0.0
 11
-976.5000000000011
 21
-6024.5
 31
0.0
  0
LINE
  5
A7CD0
330
1F
100
AcDbEntity
  8
AM_0
100
AcDbLine
 10
-976.5000000000011
 20
-6024.5
 30
0.0
 11
-971.0000000000011
 21
-6015.0
 31
0.0
  0
CIRCLE
  5
A7CD1
330
1F
100
AcDbEntity
  8
AM_0
100
AcDbCircle
 10
-982.000000000001
 20
-6015.0
 30
0.0
 40
9.5
  0
CIRCLE
  5
A7CD2
330
1F
100
AcDbEntity
  8
AM_0
100
AcDbCircle
 10
-950.0000000000012
 20
-5811.0
 30
0.0
 40
15.0
  0
CIRCLE
  5
A7CD3
330
1F
100
AcDbEntity
  8
AM_0
100
AcDbCircle
 10
-950.0000000000012
 20
-5811.0
 30
0.0
 40
14.0
  0
LINE
  5
A7CD4
330
1F
100
AcDbEntity
  8
AM_0
100
AcDbLine
 10
-1002.000000000001
 20
-5848.0
 30
0.0
 11
-991.8000000000013
 21
-5830.3
 31
0.0
  0
ARC
  5
A7CD5
330
1F
100
AcDbEntity
  8
AM_0
100
AcDbCircle
 10
-918.2556960000013
 20
-5983.892838
 30
0.0
 40
10.0
100
AcDbArc
 50
82.5113529999896
 51
156.1983750000447
  0
ARC
  5
A7CD6
330
1F
100
AcDbEntity
  8
AM_0
100
AcDbCircle
 10
-982.000000000001
 20
-6015.0
 30
0.0
 40
40.0
100
AcDbArc
 50
89.39999999996734
 51
14.56555099996611
  0
ARC
  5
A7CD7
330
1F
100
AcDbEntity
  8
AM_3
370
     9
100
AcDbCircle
 10
-982.000000000001
 20
-6015.0
 30
0.0
 40
40.0
100
AcDbArc
 50
14.56555078823789
 51
89.45095926928287
  0
LINE
  5
A7CD8
330
1F
100
AcDbEntity
  8
AM_7
370
     9
100
AcDbLine
 10
-1012.000000000001
 20
-5811.0
 30
0.0
 11
-888.0000000000011
 21
-5811.0
 31
0.0
1001
GENIUS_GENOBJ-N-CEN_13
1002
{
1000
OWNER
1000
GEN
1002
}
1001
GENIUS_GENODEF_13
1002
{
1000
HIER
1070
     0
1002
}
1002
{
1000
MANEDIT
1070
     0
1002
}
1002
{
1000
NOSEL
1070
     0
1002
}
1002
{
1000
BEHIND
1070
     0
1002
}
1002
{
1000
OTHER
1070
     0
1002
}
1002
{
1000
REACTOR
1002
}
1001
GENIUS_GENCEN_19
1002
{
1040
6.0
1002
}
  0
LINE
  5
A7CD9
330
1F
100
AcDbEntity
  8
AM_7
370
     9
100
AcDbLine
 10
-950.0000000000012
 20
-5873.0
 30
0.0
 11
-950.0000000000012
 21
-5749.0
 31
0.0
1001
GENIUS_GENOBJ-N-CEN_13
1002
{
1000
OWNER
1000
GEN
1002
}
1001
GENIUS_GENODEF_13
1002
{
1000
HIER
1070
     0
1002
}
1002
{
1000
MANEDIT
1070
     0
1002
}
1002
{
1000
NOSEL
1070
     0
1002
}
1002
{
1000
BEHIND
1070
     0
1002
}
1002
{
1000
OTHER
1070
     0
1002
}
1002
{
1000
REACTOR
1002
}
1001
GENIUS_GENCEN_19
1002
{
1040
6.0
1002
}
  0
LINE
  5
A7CDA
330
1F
100
AcDbEntity
  8
AM_7
370
     9
100
AcDbLine
 10
-1028.000000000001
 20
-6015.0
 30
0.0
 11
-936.0000000000011
 21
-6015.0
 31
0.0
1001
GENIUS_GENOBJ-N-CEN_13
1002
{
1000
OWNER
1000
GEN
1002
}
1001
GENIUS_GENODEF_13
1002
{
1000
HIER
1070
     0
1002
}
1002
{
1000
MANEDIT
1070
     0
1002
}
1002
{
1000
NOSEL
1070
     0
1002
}
1002
{
1000
BEHIND
1070
     0
1002
}
1002
{
1000
OTHER
1070
     0
1002
}
1002
{
1000
REACTOR
1002
}
1001
GENIUS_GENCEN_19
1002
{
1040
6.0
1002
}
  0
LINE
  5
A7CDB
330
1F
100
AcDbEntity
  8
AM_7
370
     9
100
AcDbLine
 10
-982.000000000001
 20
-6061.0
 30
0.0
 11
-982.000000000001
 21
-5969.0
 31
0.0
1001
GENIUS_GENODEF_13
1002
{
1000
HIER
1070
     0
1002
}
1002
{
1000
MANEDIT
1070
     0
1002
}
1002
{
1000
NOSEL
1070
     0
1002
}
1002
{
1000
BEHIND
1070
     0
1002
}
1002
{
1000
OTHER
1070
     0
1002
}
1002
{
1000
REACTOR
1002
}
1001
GENIUS_GENOBJ-N-CEN_13
1002
{
1000
OWNER
1000
GEN
1002
}
1001
GENIUS_GENCEN_19
1002
{
1040
6.0
1002
}
  0
LINE
  5
A7CDC
330
1F
100
AcDbEntity
  8
AM_7
370
     9
100
AcDbLine
 10
-950.0000000000012
 20
-5909.0
 30
0.0
 11
-950.0000000000012
 21
-6015.0
 31
0.0
1001
GENIUS_GENOBJ-N-CEN_13
1002
{
1000
OWNER
1000
GEN
1002
}
1001
GENIUS_GENODEF_13
1002
{
1000
HIER
1070
     0
1002
}
1002
{
1000
MANEDIT
1070
     0
1002
}
1002
{
1000
NOSEL
1070
     0
1002
}
1002
{
1000
BEHIND
1070
     0
1002
}
1002
{
1000
OTHER
1070
     0
1002
}
1002
{
1000
REACTOR
1002
}
1001
GENIUS_GENCEN_19
1002
{
1040
6.0
1002
}
  0
LINE
  5
A7CDD
330
1F
100
AcDbEntity
  8
AM_7
370
     9
100
AcDbLine
 10
-919.0000000000011
 20
-5768.5
 30
0.0
 11
-896.0000000000011
 21
-5768.5
 31
0.0
1001
GENIUS_GENODEF_13
1002
{
1000
HIER
1070
     0
1002
}
1002
{
1000
MANEDIT
1070
     0
1002
}
1002
{
1000
NOSEL
1070
     0
1002
}
1002
{
1000
BEHIND
1070
     0
1002
}
1002
{
1000
OTHER
1070
     0
1002
}
1002
{
1000
REACTOR
1002
}
1001
GENIUS_GENOBJ-N-CEN_13
1002
{
1000
OWNER
1000
GEN
1002
}
1001
GENIUS_GENCEN_19
1002
{
1040
6.0
1002
}
  0
LINE
  5
A7CDE
330
1F
100
AcDbEntity
  8
AM_7
370
     9
100
AcDbLine
 10
-907.5000000000011
 20
-5757.0
 30
0.0
 11
-907.5000000000011
 21
-5780.0
 31
0.0
1001
GENIUS_GENOBJ-N-CEN_13
1002
{
1000
OWNER
1000
GEN
1002
}
1001
GENIUS_GENODEF_13
1002
{
1000
HIER
1070
     0
1002
}
1002
{
1000
MANEDIT
1070
     0
1002
}
1002
{
1000
NOSEL
1070
     0
1002
}
1002
{
1000
BEHIND
1070
     0
1002
}
1002
{
1000
OTHER
1070
     0
1002
}
1002
{
1000
REACTOR
1002
}
1001
GENIUS_GENCEN_19
1002
{
1040
6.0
1002
}
  0
LINE
  5
A7CDF
330
1F
100
AcDbEntity
  8
AM_7
370
     9
100
AcDbLine
 10
-919.0000000000011
 20
-5853.5
 30
0.0
 11
-896.0000000000011
 21
-5853.5
 31
0.0
1001
GENIUS_GENODEF_13
1002
{
1000
HIER
1070
     0
1002
}
1002
{
1000
MANEDIT
1070
     0
1002
}
1002
{
1000
NOSEL
1070
     0
1002
}
1002
{
1000
BEHIND
1070
     0
1002
}
1002
{
1000
OTHER
1070
     0
1002
}
1002
{
1000
REACTOR
1002
}
1001
GENIUS_GENOBJ-N-CEN_13
1002
{
1000
OWNER
1000
GEN
1002
}
1001
GENIUS_GENCEN_19
1002
{
1040
6.0
1002
}
  0
LINE
  5
A7CE0
330
1F
100
AcDbEntity
  8
AM_7
370
     9
100
AcDbLine
 10
-907.5000000000011
 20
-5842.0
 30
0.0
 11
-907.5000000000011
 21
-5865.0
 31
0.0
1001
GENIUS_GENOBJ-N-CEN_13
1002
{
1000
OWNER
1000
GEN
1002
}
1001
GENIUS_GENODEF_13
1002
{
1000
HIER
1070
     0
1002
}
1002
{
1000
MANEDIT
1070
     0
1002
}
1002
{
1000
NOSEL
1070
     0
1002
}
1002
{
1000
BEHIND
1070
     0
1002
}
1002
{
1000
OTHER
1070
     0
1002
}
1002
{
1000
REACTOR
1002
}
1001
GENIUS_GENCEN_19
1002
{
1040
6.0
1002
}
  0
LINE
  5
A7CE1
330
1F
100
AcDbEntity
  8
AM_7
370
     9
100
AcDbLine
 10
-1004.000000000001
 20
-5853.5
 30
0.0
 11
-981.0000000000011
 21
-5853.5
 31
0.0
1001
GENIUS_GENODEF_13
1002
{
1000
HIER
1070
     0
1002
}
1002
{
1000
MANEDIT
1070
     0
1002
}
1002
{
1000
NOSEL
1070
     0
1002
}
1002
{
1000
BEHIND
1070
     0
1002
}
1002
{
1000
OTHER
1070
     0
1002
}
1002
{
1000
REACTOR
1002
}
1001
GENIUS_GENOBJ-N-CEN_13
1002
{
1000
OWNER
1000
GEN
1002
}
1001
GENIUS_GENCEN_19
1002
{
1040
6.0
1002
}
  0
LINE
  5
A7CE2
330
1F
100
AcDbEntity
  8
AM_7
370
     9
100
AcDbLine
 10
-992.5000000000011
 20
-5842.0
 30
0.0
 11
-992.5000000000011
 21
-5865.0
 31
0.0
1001
GENIUS_GENOBJ-N-CEN_13
1002
{
1000
OWNER
1000
GEN
1002
}
1001
GENIUS_GENODEF_13
1002
{
1000
HIER
1070
     0
1002
}
1002
{
1000
MANEDIT
1070
     0
1002
}
1002
{
1000
NOSEL
1070
     0
1002
}
1002
{
1000
BEHIND
1070
     0
1002
}
1002
{
1000
OTHER
1070
     0
1002
}
1002
{
1000
REACTOR
1002
}
1001
GENIUS_GENCEN_19
1002
{
1040
6.0
1002
}
  0
LINE
  5
A7CE3
330
1F
100
AcDbEntity
  8
AM_7
370
     9
100
AcDbLine
 10
-1004.000000000001
 20
-5768.5
 30
0.0
 11
-981.0000000000011
 21
-5768.5
 31
0.0
1001
GENIUS_GENODEF_13
1002
{
1000
HIER
1070
     0
1002
}
1002
{
1000
MANEDIT
1070
     0
1002
}
1002
{
1000
NOSEL
1070
     0
1002
}
1002
{
1000
BEHIND
1070
     0
1002
}
1002
{
1000
OTHER
1070
     0
1002
}
1002
{
1000
REACTOR
1002
}
1001
GENIUS_GENOBJ-N-CEN_13
1002
{
1000
OWNER
1000
GEN
1002
}
1001
GENIUS_GENCEN_19
1002
{
1040
6.0
1002
}
  0
LINE
  5
A7CE4
330
1F
100
AcDbEntity
  8
AM_7
370
     9
100
AcDbLine
 10
-992.5000000000011
 20
-5757.0
 30
0.0
 11
-992.5000000000011
 21
-5780.0
 31
0.0
1001
GENIUS_GENOBJ-N-CEN_13
1002
{
1000
OWNER
1000
GEN
1002
}
1001
GENIUS_GENODEF_13
1002
{
1000
HIER
1070
     0
1002
}
1002
{
1000
MANEDIT
1070
     0
1002
}
1002
{
1000
NOSEL
1070
     0
1002
}
1002
{
1000
BEHIND
1070
     0
1002
}
1002
{
1000
OTHER
1070
     0
1002
}
1002
{
1000
REACTOR
1002
}
1001
GENIUS_GENCEN_19
1002
{
1040
6.0
1002
}
  0
DIMENSION
  5
A7CE5
330
1F
100
AcDbEntity
  8
AM_5
100
AcDbDimension
  2
*D21
 10
-874.000000000001
 20
-5768.5
 30
0.0
 11
-880.2000000000003
 21
-5811.0
 31
0.0
 70
    32
  1
Y
 71
     5
 42
85.0
  3
SYS$0
100
AcDbAlignedDimension
 13
-896.0000000000011
 23
-5853.5
 33
0.0
 14
-896.0000000000011
 24
-5768.5
 34
0.0
 50
90.0
100
AcDbRotatedDimension
1001
ACAD
1000
DSTYLE
1002
{
1070
    40
1040
2.0
1002
}
  0
DIMENSION
  5
A7CE6
330
1F
100
AcDbEntity
  8
AM_5
100
AcDbDimension
  2
*D22
 10
-858.000000000001
 20
-5755.0
 30
0.0
 11
-864.2000000000003
 21
-5811.0
 31
0.0
 70
    32
  1
B
 71
     5
 42
112.0
  3
SYS$0
100
AcDbAlignedDimension
 13
-907.5000000000011
 23
-5867.0
 33
0.0
 14
-907.5000000000011
 24
-5755.0
 34
0.0
 50
90.0
100
AcDbRotatedDimension
1001
ACAD
1000
DSTYLE
1002
{
1070
    40
1040
2.0
1002
}
  0
DIMENSION
  5
A7CE7
330
1F
100
AcDbEntity
  8
AM_5
100
AcDbDimension
  2
*D23
 10
-907.5000000000011
 20
-5739.0
 30
0.0
 11
-950.0000000000012
 21
-5732.800000000001
 31
0.0
 70
    32
  1
X
 71
     5
 42
85.0
  3
SYS$0
100
AcDbAlignedDimension
 13
-992.5000000000011
 23
-5757.0
 33
0.0
 14
-907.5000000000011
 24
-5757.0
 34
0.0
100
AcDbRotatedDimension
1001
ACAD
1000
DSTYLE
1002
{
1070
    40
1040
2.0
1002
}
  0
DIMENSION
  5
A7CE8
330
1F
100
AcDbEntity
  8
AM_5
100
AcDbDimension
  2
*D24
 10
-1006.000000000001
 20
-5723.0
 30
0.0
 11
-950.0000000000012
 21
-5716.8
 31
0.0
 70
    32
  1
A
 71
     5
 42
112.0
  3
SYS$0
100
AcDbAlignedDimension
 13
-894.0000000000011
 23
-5768.5
 33
0.0
 14
-1006.000000000001
 24
-5768.5
 34
0.0
100
AcDbRotatedDimension
1001
ACAD
1000
DSTYLE
1002
{
1070
    40
1040
2.0
1002
}
  0
DIMENSION
  5
A7CE9
330
1F
100
AcDbEntity
  8
AM_5
100
AcDbDimension
  2
*D25
 10
-874.000000000001
 20
-6055.0
 30
0.0
 11
-880.2000000000001
 21
-5985.0
 31
0.0
 70
    32
  1
H
 71
     5
 42
140.0
  3
SYS$0
100
AcDbAlignedDimension
 13
-894.0000000000011
 23
-5915.0
 33
0.0
 14
-982.000000000001
 24
-6055.0
 34
0.0
 50
90.0
100
AcDbRotatedDimension
1001
ACAD
1000
DSTYLE
1002
{
1070
    40
1040
2.0
1002
}
  0
DIMENSION
  5
A7CEA
330
1F
100
AcDbEntity
  8
AM_5
100
AcDbDimension
  2
*D26
 10
-950.0000000000012
 20
-6075.0
 30
0.0
 11
-966.000000000001
 21
-6068.8
 31
0.0
 70
    32
  1
E
 71
     5
 42
32.0
  3
SYS$0
100
AcDbAlignedDimension
 13
-982.000000000001
 23
-6061.0
 33
0.0
 14
-950.0000000000012
 24
-6015.0
 34
0.0
100
AcDbRotatedDimension
1001
ACAD
1000
DSTYLE
1002
{
1070
    40
1040
2.0
1002
}
  0
DIMENSION
  5
A7CEB
330
1F
100
AcDbEntity
  8
AM_5
100
AcDbDimension
  2
*D27
 10
-953.7157287525369
 20
-5986.715728752542
 30
0.0
 11
-1026.633333333337
 21
-6054.999999999998
 31
0.0
 70
   163
  1
D
 71
     5
 42
80.00000000000454
  3
SYS$3
100
AcDbDiametricDimension
 15
-1010.284271247466
 25
-6043.284271247467
 35
0.0
 40
0.0
1001
ACAD
1000
DSTYLE
1002
{
1070
    40
1040
2.0
1070
    41
1040
1.0
1070
   172
1070
     1
1070
   173
1070
     1
1070
   342
1005
0
1070
   343
1005
6C4
1070
   344
1005
6C4
1002
}
  0
DIMENSION
  5
A7CEC
330
1F
100
AcDbEntity
  8
AM_5
100
AcDbDimension
  2
*D28
 10
-911.3890872965244
 20
-5772.389087296527
 30
0.0
 11
-881.3666666666613
 21
-5747.0
 31
0.0
 70
   163
  1
P
 71
     5
 42
11.00000000000182
  3
SYS$3
100
AcDbDiametricDimension
 15
-903.6109127034714
 25
-5764.610912703474
 35
0.0
 40
0.0
1001
ACAD
1000
DSTYLE
1002
{
1070
    40
1040
2.0
1070
    41
1040
1.0
1070
   172
1070
     1
1070
   173
1070
     1
1070
   342
1005
0
1070
   343
1005
6C4
1070
   344
1005
6C4
1002
}
  0
LINE
  5
A7CED
330
1F
100
AcDbEntity
  8
AM_0
100
AcDbLine
 10
-750.0000000000011
 20
-5915.0
 30
0.0
 11
-638.0000000000011
 21
-5915.0
 31
0.0
  0
LINE
  5
A7CEE
330
1F
100
AcDbEntity
  8
AM_0
100
AcDbLine
 10
-736.5000000000011
 20
-5755.0
 30
0.0
 11
-651.5000000000011
 21
-5755.0
 31
0.0
  0
LINE
  5
A7CEF
330
1F
100
AcDbEntity
  8
AM_0
100
AcDbLine
 10
-736.5000000000011
 20
-5867.0
 30
0.0
 11
-651.5000000000011
 21
-5867.0
 31
0.0
  0
LINE
  5
A7CF0
330
1F
100
AcDbEntity
  8
AM_0
100
AcDbLine
 10
-750.0000000000011
 20
-5921.0
 30
0.0
 11
-750.0000000000011
 21
-5915.0
 31
0.0
  0
LINE
  5
A7CF1
330
1F
100
AcDbEntity
  8
AM_0
100
AcDbLine
 10
-638.0000000000011
 20
-5921.0
 30
0.0
 11
-638.0000000000011
 21
-5915.0
 31
0.0
  0
LINE
  5
A7CF2
330
1F
100
AcDbEntity
  8
AM_0
100
AcDbLine
 10
-750.0000000000011
 20
-5853.5
 30
0.0
 11
-750.0000000000011
 21
-5768.5
 31
0.0
  0
LINE
  5
A7CF3
330
1F
100
AcDbEntity
  8
AM_0
100
AcDbLine
 10
-638.0000000000011
 20
-5853.5
 30
0.0
 11
-638.0000000000011
 21
-5768.5
 31
0.0
  0
ARC
  5
A7CF4
330
1F
100
AcDbEntity
  8
AM_0
100
AcDbCircle
 10
-736.5000000000011
 20
-5768.5
 30
0.0
 40
13.5
100
AcDbArc
 50
90.0
 51
180.0
  0
ARC
  5
A7CF5
330
1F
100
AcDbEntity
  8
AM_0
100
AcDbCircle
 10
-651.5000000000011
 20
-5768.5
 30
0.0
 40
13.5
100
AcDbArc
 50
0.0
 51
90.0
  0
ARC
  5
A7CF6
330
1F
100
AcDbEntity
  8
AM_0
100
AcDbCircle
 10
-736.5000000000011
 20
-5853.5
 30
0.0
 40
13.5
100
AcDbArc
 50
180.0
 51
270.0
  0
ARC
  5
A7CF7
330
1F
100
AcDbEntity
  8
AM_0
100
AcDbCircle
 10
-651.5000000000011
 20
-5853.5
 30
0.0
 40
13.5
100
AcDbArc
 50
270.0
 51
0.0
  0
CIRCLE
  5
A7CF8
330
1F
100
AcDbEntity
  8
AM_0
100
AcDbCircle
 10
-736.5000000000011
 20
-5768.5
 30
0.0
 40
5.5
  0
CIRCLE
  5
A7CF9
330
1F
100
AcDbEntity
  8
AM_0
100
AcDbCircle
 10
-651.5000000000011
 20
-5768.5
 30
0.0
 40
5.5
  0
CIRCLE
  5
A7CFA
330
1F
100
AcDbEntity
  8
AM_0
100
AcDbCircle
 10
-736.5000000000011
 20
-5853.5
 30
0.0
 40
5.5
  0
CIRCLE
  5
A7CFB
330
1F
100
AcDbEntity
  8
AM_0
100
AcDbCircle
 10
-651.5000000000011
 20
-5853.5
 30
0.0
 40
5.5
  0
CIRCLE
  5
A7CFC
330
1F
100
AcDbEntity
  8
AM_0
100
AcDbCircle
 10
-694.0000000000011
 20
-5811.0
 30
0.0
 40
41.29999999999999
  0
CIRCLE
  5
A7CFD
330
1F
100
AcDbEntity
  8
AM_0
100
AcDbCircle
 10
-694.0000000000011
 20
-5811.0
 30
0.0
 40
24.5
  0
ARC
  5
A7CFE
330
1F
100
AcDbEntity
  8
AM_0
100
AcDbCircle
 10
-736.5000000000011
 20
-5768.5
 30
0.0
 40
11.0
100
AcDbArc
 50
59.99999999999903
 51
210.0000000000076
  0
LINE
  5
A7CFF
330
1F
100
AcDbEntity
  8
AM_0
100
AcDbLine
 10
-746.0000000000011
 20
-5774.0
 30
0.0
 11
-735.8000000000012
 21
-5791.700000000001
 31
0.0
  0
LINE
  5
A7D00
330
1F
100
AcDbEntity
  8
AM_0
100
AcDbLine
 10
-731.0000000000011
 20
-5759.0
 30
0.0
 11
-713.3000000000013
 21
-5769.200000000001
 31
0.0
  0
ARC
  5
A7D01
330
1F
100
AcDbEntity
  8
AM_0
100
AcDbCircle
 10
-651.5000000000011
 20
-5768.5
 30
0.0
 40
11.0
100
AcDbArc
 50
329.9999999999923
 51
120.0000000000009
  0
LINE
  5
A7D02
330
1F
100
AcDbEntity
  8
AM_0
100
AcDbLine
 10
-642.0000000000011
 20
-5774.0
 30
0.0
 11
-652.200000000001
 21
-5791.700000000001
 31
0.0
  0
LINE
  5
A7D03
330
1F
100
AcDbEntity
  8
AM_0
100
AcDbLine
 10
-657.0000000000011
 20
-5759.0
 30
0.0
 11
-674.7000000000009
 21
-5769.200000000001
 31
0.0
  0
ARC
  5
A7D04
330
1F
100
AcDbEntity
  8
AM_0
100
AcDbCircle
 10
-736.5000000000011
 20
-5853.5
 30
0.0
 40
11.0
100
AcDbArc
 50
149.9999999999924
 51
300.0000000000008
  0
LINE
  5
A7D05
330
1F
100
AcDbEntity
  8
AM_0
100
AcDbLine
 10
-731.0000000000011
 20
-5863.0
 30
0.0
 11
-713.3000000000013
 21
-5852.799999999999
 31
0.0
  0
ARC
  5
A7D06
330
1F
100
AcDbEntity
  8
AM_0
100
AcDbCircle
 10
-651.5000000000011
 20
-5853.5
 30
0.0
 40
11.0
100
AcDbArc
 50
239.999999999999
 51
30.00000000000763
  0
LINE
  5
A7D07
330
1F
100
AcDbEntity
  8
AM_0
100
AcDbLine
 10
-642.0000000000011
 20
-5848.0
 30
0.0
 11
-652.200000000001
 21
-5830.3
 31
0.0
  0
LINE
  5
A7D08
330
1F
100
AcDbEntity
  8
AM_0
100
AcDbLine
 10
-657.0000000000011
 20
-5863.0
 30
0.0
 11
-674.7000000000009
 21
-5852.799999999999
 31
0.0
  0
LINE
  5
A7D09
330
1F
100
AcDbEntity
  8
AM_0
100
AcDbLine
 10
-750.0000000000011
 20
-5921.0
 30
0.0
 11
-638.0000000000011
 21
-5920.999999999999
 31
0.0
  0
ARC
  5
A7D0A
330
1F
100
AcDbEntity
  8
AM_0
100
AcDbCircle
 10
-726.0000000000011
 20
-6015.0
 30
0.0
 40
16.0
100
AcDbArc
 50
144.3000000000272
 51
295.9999999999924
  0
CIRCLE
  5
A7D0B
330
1F
100
AcDbEntity
  8
AM_0
100
AcDbCircle
 10
-726.0000000000011
 20
-6015.0
 30
0.0
 40
12.0
  0
LINE
  5
A7D0C
330
1F
100
AcDbEntity
  8
AM_0
100
AcDbLine
 10
-724.0000000000011
 20
-5948.0
 30
0.0
 11
-724.0000000000011
 21
-5959.0
 31
0.0
  0
ARC
  5
A7D0D
330
1F
100
AcDbEntity
  8
AM_0
100
AcDbCircle
 10
-804.0000000000011
 20
-5959.0
 30
0.0
 40
80.0
100
AcDbArc
 50
324.3000000000272
 51
355.6762099999524
  0
LINE
  5
A7D0E
330
1F
100
AcDbEntity
  8
AM_0
100
AcDbLine
 10
-657.0000000000011
 20
-5959.0
 30
0.0
 11
-657.0000000000011
 21
-5948.0
 31
0.0
  0
ARC
  5
A7D0F
330
1F
100
AcDbEntity
  8
AM_0
100
AcDbCircle
 10
-762.9000000000011
 20
-5939.5
 30
0.0
 40
100.0
100
AcDbArc
 50
295.9999999999924
 51
336.1983750000447
  0
ARC
  5
A7D10
330
1F
100
AcDbEntity
  8
AM_0
100
AcDbCircle
 10
-706.7000000000009
 20
-5953.8
 30
0.0
 40
50.0
100
AcDbArc
 50
336.1989160000018
 51
354.0000000000179
  0
LINE
  5
A7D11
330
1F
100
AcDbEntity
  8
AM_0
100
AcDbLine
 10
-736.0000000000011
 20
-5941.5
 30
0.0
 11
-736.0000000000011
 21
-5936.0
 31
0.0
  0
ARC
  5
A7D12
330
1F
100
AcDbEntity
  8
AM_0
100
AcDbCircle
 10
-729.5000000000011
 20
-5941.5
 30
0.0
 40
6.5
100
AcDbArc
 50
180.0
 51
270.0
  0
ARC
  5
A7D13
330
1F
100
AcDbEntity
  8
AM_0
100
AcDbCircle
 10
-739.5000000000011
 20
-5921.5
 30
0.0
 40
0.5
100
AcDbArc
 50
8.199999999980134
 51
90.0
  0
ARC
  5
A7D14
330
1F
100
AcDbEntity
  8
AM_0
100
AcDbCircle
 10
-736.0000000000011
 20
-5921.0
 30
0.0
 40
3.0
100
AcDbArc
 50
188.1999999999801
 51
270.0
  0
LINE
  5
A7D15
330
1F
100
AcDbEntity
  8
AM_0
100
AcDbLine
 10
-729.5000000000011
 20
-5948.0
 30
0.0
 11
-658.5000000000011
 21
-5948.0
 31
0.0
  0
LINE
  5
A7D16
330
1F
100
AcDbEntity
  8
AM_0
100
AcDbLine
 10
-652.0000000000011
 20
-5941.5
 30
0.0
 11
-652.0000000000011
 21
-5936.0
 31
0.0
  0
ARC
  5
A7D17
330
1F
100
AcDbEntity
  8
AM_0
100
AcDbCircle
 10
-658.5000000000011
 20
-5941.5
 30
0.0
 40
6.5
100
AcDbArc
 50
270.0
 51
0.0
  0
ARC
  5
A7D18
330
1F
100
AcDbEntity
  8
AM_0
100
AcDbCircle
 10
-648.5000000000011
 20
-5921.5
 30
0.0
 40
0.5
100
AcDbArc
 50
90.0
 51
171.8000000000199
  0
ARC
  5
A7D19
330
1F
100
AcDbEntity
  8
AM_0
100
AcDbCircle
 10
-652.0000000000011
 20
-5921.0
 30
0.0
 40
3.0
100
AcDbArc
 50
270.0
 51
351.8000000000198
  0
ARC
  5
A7D1A
330
1F
100
AcDbEntity
  8
AM_0
100
AcDbCircle
 10
-804.0000000000011
 20
-5959.0
 30
0.0
 40
88.0
100
AcDbArc
 50
331.3999999999638
 51
7.180755999950437
  0
ARC
  5
A7D1B
330
1F
100
AcDbEntity
  8
AM_0
100
AcDbCircle
 10
-762.9000000000011
 20
-5939.5
 30
0.0
 40
92.0
100
AcDbArc
 50
303.2999999999812
 51
354.6988079999532
  0
LINE
  5
A7D1C
330
1F
100
AcDbEntity
  8
AM_0
100
AcDbLine
 10
-737.2000000000009
 20
-5924.0
 30
0.0
 11
-650.8000000000013
 21
-5923.999999999999
 31
0.0
  0
LINE
  5
A7D1D
330
1F
100
AcDbEntity
  8
AM_0
100
AcDbLine
 10
-741.8000000000013
 20
-5936.0
 30
0.0
 11
-646.3000000000013
 21
-5936.0
 31
0.0
  0
LINE
  5
A7D1E
330
1F
100
AcDbEntity
  8
AM_0
100
AcDbLine
 10
-646.3000000000013
 20
-5936.0
 30
0.0
 11
-646.3000000000013
 21
-5928.5
 31
0.0
  0
ARC
  5
A7D1F
330
1F
100
AcDbEntity
  8
AM_0
100
AcDbCircle
 10
-650.8000000000013
 20
-5928.5
 30
0.0
 40
4.5
100
AcDbArc
 50
0.0
 51
90.0
  0
LINE
  5
A7D20
330
1F
100
AcDbEntity
  8
AM_0
100
AcDbLine
 10
-741.8000000000013
 20
-5936.0
 30
0.0
 11
-741.8000000000013
 21
-5928.5
 31
0.0
  0
ARC
  5
A7D21
330
1F
100
AcDbEntity
  8
AM_0
100
AcDbCircle
 10
-737.3000000000013
 20
-5928.5
 30
0.0
 40
4.5
100
AcDbArc
 50
90.0
 51
180.0
  0
ARC
  5
A7D22
330
1F
100
AcDbEntity
  8
AM_0
100
AcDbCircle
 10
-726.0000000000011
 20
-6015.0
 30
0.0
 40
25.2
100
AcDbArc
 50
99.87936399999767
 51
353.1054019999858
  0
ARC
  5
A7D23
330
1F
100
AcDbEntity
  8
AM_0
100
AcDbCircle
 10
-726.0000000000011
 20
-6015.0
 30
0.0
 40
25.0
100
AcDbArc
 50
100.1763809999898
 51
352.6440589999631
  0
ARC
  5
A7D24
330
1F
100
AcDbEntity
  8
AM_0
100
AcDbCircle
 10
-726.0000000000011
 20
-6015.0
 30
0.0
 40
18.4
100
AcDbArc
 50
117.6876360000027
 51
328.8418399999516
  0
ARC
  5
A7D25
330
1F
100
AcDbEntity
  8
AM_0
100
AcDbCircle
 10
-726.0000000000011
 20
-6015.0
 30
0.0
 40
19.0
100
AcDbArc
 50
114.9915529999944
 51
332.2389939999662
  0
ARC
  5
A7D26
330
1F
100
AcDbEntity
  8
AM_0
100
AcDbCircle
 10
-726.0000000000011
 20
-6015.0
 30
0.0
 40
19.7
100
AcDbArc
 50
112.3160719999914
 51
335.6765249999844
  0
ARC
  5
A7D27
330
1F
100
AcDbEntity
  8
AM_0
100
AcDbCircle
 10
-726.0000000000011
 20
-6015.0
 30
0.0
 40
23.5
100
AcDbArc
 50
102.6749079999679
 51
348.8841660000413
  0
ARC
  5
A7D28
330
1F
100
AcDbEntity
  8
AM_0
100
AcDbCircle
 10
-804.0000000000011
 20
-5959.0
 30
0.0
 40
80.0
100
AcDbArc
 50
355.699999999968
 51
0.0
  0
LINE
  5
A7D29
330
1F
100
AcDbEntity
  8
AM_0
100
AcDbLine
 10
-715.0000000000011
 20
-6015.0
 30
0.0
 11
-720.5000000000011
 21
-6005.5
 31
0.0
  0
LINE
  5
A7D2A
330
1F
100
AcDbEntity
  8
AM_0
100
AcDbLine
 10
-720.5000000000011
 20
-6005.5
 30
0.0
 11
-731.5000000000011
 21
-6005.5
 31
0.0
  0
LINE
  5
A7D2B
330
1F
100
AcDbEntity
  8
AM_0
100
AcDbLine
 10
-731.5000000000011
 20
-6005.5
 30
0.0
 11
-737.0000000000011
 21
-6015.0
 31
0.0
  0
LINE
  5
A7D2C
330
1F
100
AcDbEntity
  8
AM_0
100
AcDbLine
 10
-737.0000000000011
 20
-6015.0
 30
0.0
 11
-731.5000000000011
 21
-6024.5
 31
0.0
  0
LINE
  5
A7D2D
330
1F
100
AcDbEntity
  8
AM_0
100
AcDbLine
 10
-731.5000000000011
 20
-6024.5
 30
0.0
 11
-720.5000000000011
 21
-6024.5
 31
0.0
  0
LINE
  5
A7D2E
330
1F
100
AcDbEntity
  8
AM_0
100
AcDbLine
 10
-720.5000000000011
 20
-6024.5
 30
0.0
 11
-715.0000000000011
 21
-6015.0
 31
0.0
  0
CIRCLE
  5
A7D2F
330
1F
100
AcDbEntity
  8
AM_0
100
AcDbCircle
 10
-726.0000000000011
 20
-6015.0
 30
0.0
 40
9.5
  0
CIRCLE
  5
A7D30
330
1F
100
AcDbEntity
  8
AM_0
100
AcDbCircle
 10
-694.0000000000011
 20
-5811.0
 30
0.0
 40
15.0
  0
CIRCLE
  5
A7D31
330
1F
100
AcDbEntity
  8
AM_0
100
AcDbCircle
 10
-694.0000000000011
 20
-5811.0
 30
0.0
 40
14.0
  0
LINE
  5
A7D32
330
1F
100
AcDbEntity
  8
AM_0
100
AcDbLine
 10
-746.0000000000011
 20
-5848.0
 30
0.0
 11
-735.8000000000012
 21
-5830.3
 31
0.0
  0
ARC
  5
A7D33
330
1F
100
AcDbEntity
  8
AM_0
100
AcDbCircle
 10
-662.2556960000013
 20
-5983.892838
 30
0.0
 40
10.0
100
AcDbArc
 50
82.5113529999896
 51
156.1983750000447
  0
ARC
  5
A7D34
330
1F
100
AcDbEntity
  8
AM_0
100
AcDbCircle
 10
-726.0000000000011
 20
-6015.0
 30
0.0
 40
40.0
100
AcDbArc
 50
89.39999999996734
 51
14.56555099996611
  0
LINE
  5
A7D35
330
1F
100
AcDbEntity
  8
AM_0
100
AcDbLine
 10
-667.2646680000009
 20
-5977.782345
 30
0.0
 11
-656.4690980000011
 21
-6004.922832
 31
0.0
  0
LINE
  5
A7D36
330
1F
100
AcDbEntity
  8
AM_0
100
AcDbLine
 10
-658.8478260000012
 20
-6005.869010000001
 30
0.0
 11
-679.5000160000011
 21
-6007.51323
 31
0.0
  0
ARC
  5
A7D37
330
1F
100
AcDbEntity
  8
AM_0
100
AcDbCircle
 10
-680.1349260000013
 20
-5999.538464
 30
0.0
 40
8.0
100
AcDbArc
 50
215.5583000000137
 51
274.551990000008
  0
LINE
  5
A7D38
330
1F
100
AcDbEntity
  8
AM_0
100
AcDbLine
 10
-656.4690980000011
 20
-6004.922832
 30
0.0
 11
-658.8478260000012
 21
-6005.869010000001
 31
0.0
  0
CIRCLE
  5
A7D39
330
1F
100
AcDbEntity
  8
AM_0
100
AcDbCircle
 10
-669.8245360000012
 20
-5997.32071
 30
0.0
 40
2.399999999999999
  0
CIRCLE
  5
A7D3A
330
1F
100
AcDbEntity
  8
AM_0
100
AcDbCircle
 10
-671.5105200000009
 20
-5987.087820999999
 30
0.0
 40
2.399999999999999
  0
LINE
  5
A7D3B
330
1F
100
AcDbEntity
  8
AM_0
100
AcDbLine
 10
-655.5075630000012
 20
-6000.352924000001
 30
0.0
 11
-655.7822980000012
 21
-6004.744339000001
 31
0.0
  0
LINE
  5
A7D3C
330
1F
100
AcDbEntity
  8
AM_0
100
AcDbLine
 10
-656.4656900000011
 20
-6000.292982000001
 30
0.0
 11
-656.7404240000012
 21
-6004.684397000001
 31
0.0
  0
ARC
  5
A7D3D
330
1F
100
AcDbEntity
  8
AM_0
100
AcDbCircle
 10
-658.1776140000012
 20
-6004.594483000001
 30
0.0
 40
2.399999999999999
100
AcDbArc
 50
215.030499000031
 51
356.4201429999579
  0
ARC
  5
A7D3E
330
1F
100
AcDbEntity
  8
AM_0
100
AcDbCircle
 10
-658.1776140000012
 20
-6004.594483000001
 30
0.0
 40
1.439999999999999
100
AcDbArc
 50
242.262365000017
 51
356.4201429999579
  0
LINE
  5
A7D3F
330
1F
100
AcDbEntity
  8
AM_0
100
AcDbLine
 10
-656.4656900000011
 20
-6000.292982000001
 30
0.0
 11
-655.5075630000012
 21
-6000.352924000001
 31
0.0
  0
LINE
  5
A7D40
330
1F
100
AcDbEntity
  8
AM_0
100
AcDbLine
 10
-667.2646680000009
 20
-5977.782345
 30
0.0
 11
-671.7127370000009
 21
-5980.547328
 31
0.0
  0
LINE
  5
A7D41
330
1F
100
AcDbEntity
  8
AM_0
100
AcDbLine
 10
-667.2646680000009
 20
-5977.782345
 30
0.0
 11
-668.1838450000011
 21
-5975.887909999999
 31
0.0
  0
LINE
  5
A7D42
330
1F
100
AcDbEntity
  8
AM_0
100
AcDbLine
 10
-669.4735840000009
 20
-5979.155438
 30
0.0
 11
-670.1284450000009
 21
-5977.805760999999
 31
0.0
  0
CIRCLE
  5
A7D43
330
1F
100
AcDbEntity
  8
AM_0
100
AcDbCircle
 10
-669.8245360000012
 20
-5997.32071
 30
0.0
 40
2.399999999999999
  0
LINE
  5
A7D44
330
1F
100
AcDbEntity
  8
AM_0
100
AcDbLine
 10
-655.1367160000011
 20
-6009.962162
 30
0.0
 11
-635.012030000001
 21
-6014.000484
 31
0.0
  0
LINE
  5
A7D45
330
1F
100
AcDbEntity
  8
AM_0
100
AcDbLine
 10
-635.5156920000011
 20
-6016.510449
 30
0.0
 11
-635.012030000001
 21
-6014.000484
 31
0.0
  0
LINE
  5
A7D46
330
1F
100
AcDbEntity
  8
AM_0
100
AcDbLine
 10
-655.6403780000011
 20
-6012.472127999999
 30
0.0
 11
-635.5156920000011
 21
-6016.510449
 31
0.0
  0
ARC
  5
A7D47
330
1F
100
AcDbEntity
  8
AM_0
100
AcDbCircle
 10
-654.8219270000011
 20
-6008.393434
 30
0.0
 40
1.6
100
AcDbArc
 50
218.6534309999832
 51
258.653430999964
  0
ARC
  5
A7D48
330
1F
100
AcDbEntity
  8
AM_0
100
AcDbCircle
 10
-654.8219270000011
 20
-6008.393434
 30
0.0
 40
4.16
100
AcDbArc
 50
218.6534309999832
 51
258.653430999964
  0
LINE
  5
A7D49
330
1F
100
AcDbEntity
  8
AM_0
100
AcDbLine
 10
-661.0710850000011
 20
-6013.391621000001
 30
0.0
 11
-656.0714280000013
 21
-6009.392807000001
 31
0.0
  0
LINE
  5
A7D4A
330
1F
100
AcDbEntity
  8
AM_0
100
AcDbLine
 10
-663.318637000001
 20
-6013.143142999999
 30
0.0
 11
-668.5339460000011
 21
-6006.640168
 31
0.0
  0
ARC
  5
A7D4B
330
1F
100
AcDbEntity
  8
AM_0
100
AcDbCircle
 10
-662.0704580000013
 20
-6012.14212
 30
0.0
 40
1.6
100
AcDbArc
 50
218.7291950000156
 51
308.6534309999828
  0
LINE
  5
A7D4C
330
1F
100
AcDbEntity
  8
AM_0
100
AcDbLine
 10
-658.8873080000009
 20
-6005.872153000001
 30
0.0
 11
-656.0714280000013
 21
-6009.392807000001
 31
0.0
  0
ARC
  5
A7D4D
330
1F
100
AcDbEntity
  8
AM_3
370
     9
100
AcDbCircle
 10
-726.0000000000011
 20
-6015.0
 30
0.0
 40
40.0
100
AcDbArc
 50
14.56555078823116
 51
89.45095926927637
  0
LINE
  5
A7D4E
330
1F
100
AcDbEntity
  8
AM_7
370
     9
100
AcDbLine
 10
-756.0000000000011
 20
-5811.0
 30
0.0
 11
-632.0000000000011
 21
-5811.0
 31
0.0
1001
GENIUS_GENOBJ-N-CEN_13
1002
{
1000
OWNER
1000
GEN
1002
}
1001
GENIUS_GENODEF_13
1002
{
1000
HIER
1070
     0
1002
}
1002
{
1000
MANEDIT
1070
     0
1002
}
1002
{
1000
NOSEL
1070
     0
1002
}
1002
{
1000
BEHIND
1070
     0
1002
}
1002
{
1000
OTHER
1070
     0
1002
}
1002
{
1000
REACTOR
1002
}
1001
GENIUS_GENCEN_19
1002
{
1040
6.0
1002
}
  0
LINE
  5
A7D4F
330
1F
100
AcDbEntity
  8
AM_7
370
     9
100
AcDbLine
 10
-694.0000000000011
 20
-5873.0
 30
0.0
 11
-694.0000000000011
 21
-5749.0
 31
0.0
1001
GENIUS_GENOBJ-N-CEN_13
1002
{
1000
OWNER
1000
GEN
1002
}
1001
GENIUS_GENODEF_13
1002
{
1000
HIER
1070
     0
1002
}
1002
{
1000
MANEDIT
1070
     0
1002
}
1002
{
1000
NOSEL
1070
     0
1002
}
1002
{
1000
BEHIND
1070
     0
1002
}
1002
{
1000
OTHER
1070
     0
1002
}
1002
{
1000
REACTOR
1002
}
1001
GENIUS_GENCEN_19
1002
{
1040
6.0
1002
}
  0
LINE
  5
A7D50
330
1F
100
AcDbEntity
  8
AM_7
370
     9
100
AcDbLine
 10
-772.0000000000011
 20
-6015.0
 30
0.0
 11
-680.0000000000011
 21
-6015.0
 31
0.0
1001
GENIUS_GENOBJ-N-CEN_13
1002
{
1000
OWNER
1000
GEN
1002
}
1001
GENIUS_GENODEF_13
1002
{
1000
HIER
1070
     0
1002
}
1002
{
1000
MANEDIT
1070
     0
1002
}
1002
{
1000
NOSEL
1070
     0
1002
}
1002
{
1000
BEHIND
1070
     0
1002
}
1002
{
1000
OTHER
1070
     0
1002
}
1002
{
1000
REACTOR
1002
}
1001
GENIUS_GENCEN_19
1002
{
1040
6.0
1002
}
  0
LINE
  5
A7D51
330
1F
100
AcDbEntity
  8
AM_7
370
     9
100
AcDbLine
 10
-726.0000000000011
 20
-6061.0
 30
0.0
 11
-726.0000000000011
 21
-5969.0
 31
0.0
1001
GENIUS_GENODEF_13
1002
{
1000
HIER
1070
     0
1002
}
1002
{
1000
MANEDIT
1070
     0
1002
}
1002
{
1000
NOSEL
1070
     0
1002
}
1002
{
1000
BEHIND
1070
     0
1002
}
1002
{
1000
OTHER
1070
     0
1002
}
1002
{
1000
REACTOR
1002
}
1001
GENIUS_GENOBJ-N-CEN_13
1002
{
1000
OWNER
1000
GEN
1002
}
1001
GENIUS_GENCEN_19
1002
{
1040
6.0
1002
}
  0
LINE
  5
A7D52
330
1F
100
AcDbEntity
  8
AM_7
370
     9
100
AcDbLine
 10
-694.0000000000011
 20
-5909.0
 30
0.0
 11
-694.0000000000011
 21
-6015.0
 31
0.0
1001
GENIUS_GENOBJ-N-CEN_13
1002
{
1000
OWNER
1000
GEN
1002
}
1001
GENIUS_GENODEF_13
1002
{
1000
HIER
1070
     0
1002
}
1002
{
1000
MANEDIT
1070
     0
1002
}
1002
{
1000
NOSEL
1070
     0
1002
}
1002
{
1000
BEHIND
1070
     0
1002
}
1002
{
1000
OTHER
1070
     0
1002
}
1002
{
1000
REACTOR
1002
}
1001
GENIUS_GENCEN_19
1002
{
1040
6.0
1002
}
  0
LINE
  5
A7D53
330
1F
100
AcDbEntity
  8
AM_7
370
     9
100
AcDbLine
 10
-663.0000000000011
 20
-5768.5
 30
0.0
 11
-640.0000000000011
 21
-5768.5
 31
0.0
1001
GENIUS_GENODEF_13
1002
{
1000
HIER
1070
     0
1002
}
1002
{
1000
MANEDIT
1070
     0
1002
}
1002
{
1000
NOSEL
1070
     0
1002
}
1002
{
1000
BEHIND
1070
     0
1002
}
1002
{
1000
OTHER
1070
     0
1002
}
1002
{
1000
REACTOR
1002
}
1001
GENIUS_GENOBJ-N-CEN_13
1002
{
1000
OWNER
1000
GEN
1002
}
1001
GENIUS_GENCEN_19
1002
{
1040
6.0
1002
}
  0
LINE
  5
A7D54
330
1F
100
AcDbEntity
  8
AM_7
370
     9
100
AcDbLine
 10
-651.5000000000011
 20
-5757.0
 30
0.0
 11
-651.5000000000011
 21
-5780.0
 31
0.0
1001
GENIUS_GENOBJ-N-CEN_13
1002
{
1000
OWNER
1000
GEN
1002
}
1001
GENIUS_GENODEF_13
1002
{
1000
HIER
1070
     0
1002
}
1002
{
1000
MANEDIT
1070
     0
1002
}
1002
{
1000
NOSEL
1070
     0
1002
}
1002
{
1000
BEHIND
1070
     0
1002
}
1002
{
1000
OTHER
1070
     0
1002
}
1002
{
1000
REACTOR
1002
}
1001
GENIUS_GENCEN_19
1002
{
1040
6.0
1002
}
  0
LINE
  5
A7D55
330
1F
100
AcDbEntity
  8
AM_7
370
     9
100
AcDbLine
 10
-663.0000000000011
 20
-5853.5
 30
0.0
 11
-640.0000000000011
 21
-5853.5
 31
0.0
1001
GENIUS_GENODEF_13
1002
{
1000
HIER
1070
     0
1002
}
1002
{
1000
MANEDIT
1070
     0
1002
}
1002
{
1000
NOSEL
1070
     0
1002
}
1002
{
1000
BEHIND
1070
     0
1002
}
1002
{
1000
OTHER
1070
     0
1002
}
1002
{
1000
REACTOR
1002
}
1001
GENIUS_GENOBJ-N-CEN_13
1002
{
1000
OWNER
1000
GEN
1002
}
1001
GENIUS_GENCEN_19
1002
{
1040
6.0
1002
}
  0
LINE
  5
A7D56
330
1F
100
AcDbEntity
  8
AM_7
370
     9
100
AcDbLine
 10
-651.5000000000011
 20
-5842.0
 30
0.0
 11
-651.5000000000011
 21
-5865.0
 31
0.0
1001
GENIUS_GENOBJ-N-CEN_13
1002
{
1000
OWNER
1000
GEN
1002
}
1001
GENIUS_GENODEF_13
1002
{
1000
HIER
1070
     0
1002
}
1002
{
1000
MANEDIT
1070
     0
1002
}
1002
{
1000
NOSEL
1070
     0
1002
}
1002
{
1000
BEHIND
1070
     0
1002
}
1002
{
1000
OTHER
1070
     0
1002
}
1002
{
1000
REACTOR
1002
}
1001
GENIUS_GENCEN_19
1002
{
1040
6.0
1002
}
  0
LINE
  5
A7D57
330
1F
100
AcDbEntity
  8
AM_7
370
     9
100
AcDbLine
 10
-748.0000000000011
 20
-5853.5
 30
0.0
 11
-725.0000000000011
 21
-5853.5
 31
0.0
1001
GENIUS_GENODEF_13
1002
{
1000
HIER
1070
     0
1002
}
1002
{
1000
MANEDIT
1070
     0
1002
}
1002
{
1000
NOSEL
1070
     0
1002
}
1002
{
1000
BEHIND
1070
     0
1002
}
1002
{
1000
OTHER
1070
     0
1002
}
1002
{
1000
REACTOR
1002
}
1001
GENIUS_GENOBJ-N-CEN_13
1002
{
1000
OWNER
1000
GEN
1002
}
1001
GENIUS_GENCEN_19
1002
{
1040
6.0
1002
}
  0
LINE
  5
A7D58
330
1F
100
AcDbEntity
  8
AM_7
370
     9
100
AcDbLine
 10
-736.5000000000011
 20
-5842.0
 30
0.0
 11
-736.5000000000011
 21
-5865.0
 31
0.0
1001
GENIUS_GENOBJ-N-CEN_13
1002
{
1000
OWNER
1000
GEN
1002
}
1001
GENIUS_GENODEF_13
1002
{
1000
HIER
1070
     0
1002
}
1002
{
1000
MANEDIT
1070
     0
1002
}
1002
{
1000
NOSEL
1070
     0
1002
}
1002
{
1000
BEHIND
1070
     0
1002
}
1002
{
1000
OTHER
1070
     0
1002
}
1002
{
1000
REACTOR
1002
}
1001
GENIUS_GENCEN_19
1002
{
1040
6.0
1002
}
  0
LINE
  5
A7D59
330
1F
100
AcDbEntity
  8
AM_7
370
     9
100
AcDbLine
 10
-748.0000000000011
 20
-5768.5
 30
0.0
 11
-725.0000000000011
 21
-5768.5
 31
0.0
1001
GENIUS_GENODEF_13
1002
{
1000
HIER
1070
     0
1002
}
1002
{
1000
MANEDIT
1070
     0
1002
}
1002
{
1000
NOSEL
1070
     0
1002
}
1002
{
1000
BEHIND
1070
     0
1002
}
1002
{
1000
OTHER
1070
     0
1002
}
1002
{
1000
REACTOR
1002
}
1001
GENIUS_GENOBJ-N-CEN_13
1002
{
1000
OWNER
1000
GEN
1002
}
1001
GENIUS_GENCEN_19
1002
{
1040
6.0
1002
}
  0
LINE
  5
A7D5A
330
1F
100
AcDbEntity
  8
AM_7
370
     9
100
AcDbLine
 10
-736.5000000000011
 20
-5757.0
 30
0.0
 11
-736.5000000000011
 21
-5780.0
 31
0.0
1001
GENIUS_GENOBJ-N-CEN_13
1002
{
1000
OWNER
1000
GEN
1002
}
1001
GENIUS_GENODEF_13
1002
{
1000
HIER
1070
     0
1002
}
1002
{
1000
MANEDIT
1070
     0
1002
}
1002
{
1000
NOSEL
1070
     0
1002
}
1002
{
1000
BEHIND
1070
     0
1002
}
1002
{
1000
OTHER
1070
     0
1002
}
1002
{
1000
REACTOR
1002
}
1001
GENIUS_GENCEN_19
1002
{
1040
6.0
1002
}
  0
DIMENSION
  5
A7D5B
330
1F
100
AcDbEntity
  8
AM_5
100
AcDbDimension
  2
*D6
 10
-618.0000000000011
 20
-5768.5
 30
0.0
 11
-624.2000000000002
 21
-5811.0
 31
0.0
 70
    32
  1
Y
 71
     5
 42
85.0
  3
SYS$0
100
AcDbAlignedDimension
 13
-640.0000000000011
 23
-5853.5
 33
0.0
 14
-640.0000000000011
 24
-5768.5
 34
0.0
 50
90.0
100
AcDbRotatedDimension
1001
ACAD
1000
DSTYLE
1002
{
1070
    40
1040
2.0
1002
}
  0
DIMENSION
  5
A7D5C
330
1F
100
AcDbEntity
  8
AM_5
100
AcDbDimension
  2
*D7
 10
-602.0000000000011
 20
-5755.0
 30
0.0
 11
-608.2000000000002
 21
-5811.0
 31
0.0
 70
    32
  1
B
 71
     5
 42
112.0
  3
SYS$0
100
AcDbAlignedDimension
 13
-651.5000000000011
 23
-5867.0
 33
0.0
 14
-651.5000000000011
 24
-5755.0
 34
0.0
 50
90.0
100
AcDbRotatedDimension
1001
ACAD
1000
DSTYLE
1002
{
1070
    40
1040
2.0
1002
}
  0
DIMENSION
  5
A7D5D
330
1F
100
AcDbEntity
  8
AM_5
100
AcDbDimension
  2
*D8
 10
-651.5000000000011
 20
-5739.0
 30
0.0
 11
-694.0000000000011
 21
-5732.800000000001
 31
0.0
 70
    32
  1
X
 71
     5
 42
85.0
  3
SYS$0
100
AcDbAlignedDimension
 13
-736.5000000000011
 23
-5757.0
 33
0.0
 14
-651.5000000000011
 24
-5757.0
 34
0.0
100
AcDbRotatedDimension
1001
ACAD
1000
DSTYLE
1002
{
1070
    40
1040
2.0
1002
}
  0
DIMENSION
  5
A7D5E
330
1F
100
AcDbEntity
  8
AM_5
100
AcDbDimension
  2
*D9
 10
-750.0000000000011
 20
-5723.0
 30
0.0
 11
-694.0000000000011
 21
-5716.8
 31
0.0
 70
    32
  1
A
 71
     5
 42
112.0
  3
SYS$0
100
AcDbAlignedDimension
 13
-638.0000000000011
 23
-5768.5
 33
0.0
 14
-750.0000000000011
 24
-5768.5
 34
0.0
100
AcDbRotatedDimension
1001
ACAD
1000
DSTYLE
1002
{
1070
    40
1040
2.0
1002
}
  0
DIMENSION
  5
A7D5F
330
1F
100
AcDbEntity
  8
AM_5
100
AcDbDimension
  2
*D10
 10
-618.0000000000011
 20
-6055.0
 30
0.0
 11
-624.2000000000001
 21
-5985.0
 31
0.0
 70
    32
  1
H
 71
     5
 42
140.0
  3
SYS$0
100
AcDbAlignedDimension
 13
-638.0000000000011
 23
-5915.0
 33
0.0
 14
-726.0000000000011
 24
-6055.0
 34
0.0
 50
90.0
100
AcDbRotatedDimension
1001
ACAD
1000
DSTYLE
1002
{
1070
    40
1040
2.0
1002
}
  0
DIMENSION
  5
A7D60
330
1F
100
AcDbEntity
  8
AM_5
100
AcDbDimension
  2
*D11
 10
-694.0000000000011
 20
-6075.0
 30
0.0
 11
-710.0000000000011
 21
-6068.8
 31
0.0
 70
    32
  1
E
 71
     5
 42
32.0
  3
SYS$0
100
AcDbAlignedDimension
 13
-726.0000000000011
 23
-6061.0
 33
0.0
 14
-694.0000000000011
 24
-6015.0
 34
0.0
100
AcDbRotatedDimension
1001
ACAD
1000
DSTYLE
1002
{
1070
    40
1040
2.0
1002
}
  0
DIMENSION
  5
A7D61
330
1F
100
AcDbEntity
  8
AM_5
100
AcDbDimension
  2
*D12
 10
-697.7157287525383
 20
-5986.715728752544
 30
0.0
 11
-770.6333333333355
 21
-6055.000000000002
 31
0.0
 70
   163
  1
D
 71
     5
 42
80.00000000000454
  3
SYS$3
100
AcDbDiametricDimension
 15
-754.2842712474648
 25
-6043.284271247472
 35
0.0
 40
0.0
1001
ACAD
1000
DSTYLE
1002
{
1070
    40
1040
2.0
1070
    41
1040
1.0
1070
   172
1070
     1
1070
   173
1070
     1
1070
   342
1005
0
1070
   343
1005
6C4
1070
   344
1005
6C4
1002
}
  0
DIMENSION
  5
A7D62
330
1F
100
AcDbEntity
  8
AM_5
100
AcDbDimension
  2
*D13
 10
-655.3890872965207
 20
-5772.389087296527
 30
0.0
 11
-625.3666666666476
 21
-5746.999999999998
 31
0.0
 70
   163
  1
P
 71
     5
 42
11.0
  3
SYS$3
100
AcDbDiametricDimension
 15
-647.6109127034678
 25
-5764.610912703476
 35
0.0
 40
0.0
1001
ACAD
1000
DSTYLE
1002
{
1070
    40
1040
2.0
1070
    41
1040
1.0
1070
   172
1070
     1
1070
   173
1070
     1
1070
   342
1005
0
1070
   343
1005
6C4
1070
   344
1005
6C4
1002
}
  0
LWPOLYLINE
  5
A7D63
330
1F
100
AcDbEntity
  8
AM_0
100
AcDbPolyline
 90
        4
 70
     1
 43
0.0
 10
-970.0000000000011
 20
-6091.0
 10
-930.0000000000011
 20
-6091.0
 10
-930.0000000000011
 20
-6103.0
 10
-970.0000000000011
 20
-6103.0
1001
GENIUS_GENREC_14
1002
{
1000
PYDIR
1011
-970.0000000000011
1021
-6103.0
1031
0.0
1002
}
1002
{
1000
PXDIR
1011
-930.0000000000011
1021
-6091.0
1031
0.0
1002
}
1002
{
1000
PORI
1011
-970.0000000000011
1021
-6091.0
1031
0.0
1002
}
1002
{
1000
PINS
1011
-970.0000000000011
1021
-6091.0
1031
0.0
1002
}
1002
{
1000
PINS2
1011
-930.0000000000011
1021
-6103.0
1031
0.0
1002
}
1002
{
1000
C
1070
     1
1002
}
1001
GENIUS_GENODEF_13
1002
{
1000
HIER
1070
     0
1002
}
1002
{
1000
MANEDIT
1070
     0
1002
}
1002
{
1000
NOSEL
1070
     0
1002
}
1002
{
1000
BEHIND
1070
     0
1002
}
1002
{
1000
OTHER
1070
     0
1002
}
1002
{
1000
REACTOR
1002
}
1001
GENIUS_GENOBJ-N-REC_13
1002
{
1000
OWNER
1000
GEN
1002
}
  0
MTEXT
  5
A7D64
330
1F
100
AcDbEntity
  8
AM_6
100
AcDbMText
 10
-950.0000000000012
 20
-6097.0
 30
0.0
 40
6.4
 41
40.0
 71
     5
 72
     5
  1
DHJ
 73
     1
 44
1.0
1001
ACAD
1000
MTEXTBEGIN
1070
    73
1070
     1
1070
    44
1040
1.0
1070
    74
1070
     0
1000
MTEXTEND
  0
LWPOLYLINE
  5
A7D65
330
1F
100
AcDbEntity
  8
AM_0
100
AcDbPolyline
 90
        4
 70
     1
 43
0.0
 10
-714.0000000000011
 20
-6091.0
 10
-674.0000000000011
 20
-6091.0
 10
-674.0000000000011
 20
-6103.0
 10
-714.0000000000011
 20
-6103.0
1001
GENIUS_GENREC_14
1002
{
1000
PYDIR
1011
-714.0000000000011
1021
-6103.0
1031
0.0
1002
}
1002
{
1000
PXDIR
1011
-674.0000000000011
1021
-6091.0
1031
0.0
1002
}
1002
{
1000
PORI
1011
-714.0000000000011
1021
-6091.0
1031
0.0
1002
}
1002
{
1000
PINS
1011
-714.0000000000011
1021
-6091.0
1031
0.0
1002
}
1002
{
1000
PINS2
1011
-674.0000000000011
1021
-6103.0
1031
0.0
1002
}
1002
{
1000
C
1070
     1
1002
}
1001
GENIUS_GENODEF_13
1002
{
1000
HIER
1070
     0
1002
}
1002
{
1000
MANEDIT
1070
     0
1002
}
1002
{
1000
NOSEL
1070
     0
1002
}
1002
{
1000
BEHIND
1070
     0
1002
}
1002
{
1000
OTHER
1070
     0
1002
}
1002
{
1000
REACTOR
1002
}
1001
GENIUS_GENOBJ-N-REC_13
1002
{
1000
OWNER
1000
GEN
1002
}
  0
MTEXT
  5
A7D66
330
1F
100
AcDbEntity
  8
AM_6
100
AcDbMText
 10
-694.0000000000011
 20
-6097.0
 30
0.0
 40
6.4
 41
40.0
 71
     5
 72
     5
  1
DHJB
 73
     1
 44
1.0
1001
ACAD
1000
MTEXTBEGIN
1070
    73
1070
     1
1070
    44
1040
1.0
1070
    74
1070
     0
1000
MTEXTEND
  0
ARC
  5
A7D67
330
1F
100
AcDbEntity
  8
AM_0
100
AcDbCircle
 10
-393.0000000000011
 20
-5811.0
 30
0.0
 40
10.0
100
AcDbArc
 50
281.6775610000022
 51
78.32243899999774
  0
LINE
  5
A7D68
330
1F
100
AcDbEntity
  8
AM_0
100
AcDbLine
 10
-405.104770000001
 20
-5823.713186999999
 30
0.0
 11
-390.9759620000011
 21
-5820.793022
 31
0.0
  0
LINE
  5
A7D69
330
1F
100
AcDbEntity
  8
AM_0
100
AcDbLine
 10
-405.104770000001
 20
-5798.286813999999
 30
0.0
 11
-390.9759620000011
 21
-5801.206979
 31
0.0
  0
LINE
  5
A7D6A
330
1F
100
AcDbEntity
  8
AM_0
100
AcDbLine
 10
-428.0000000000011
 20
-5829.0
 30
0.0
 11
-428.0000000000011
 21
-5793.0
 31
0.0
  0
LINE
  5
A7D6B
330
1F
100
AcDbEntity
  8
AM_0
100
AcDbLine
 10
-425.0000000000011
 20
-5832.0
 30
0.0
 11
-403.3920370000012
 21
-5832.0
 31
0.0
  0
LINE
  5
A7D6C
330
1F
100
AcDbEntity
  8
AM_0
100
AcDbLine
 10
-417.5000000000011
 20
-5832.0
 30
0.0
 11
-417.5000000000011
 21
-5790.0
 31
0.0
  0
LINE
  5
A7D6D
330
1F
100
AcDbEntity
  8
AM_0
100
AcDbLine
 10
-425.0000000000011
 20
-5790.0
 30
0.0
 11
-403.3920370000012
 21
-5790.0
 31
0.0
  0
ARC
  5
A7D6E
330
1F
100
AcDbEntity
  8
AM_0
100
AcDbCircle
 10
-425.0000000000011
 20
-5829.0
 30
0.0
 40
3.0
100
AcDbArc
 50
180.0
 51
270.0
  0
ARC
  5
A7D6F
330
1F
100
AcDbEntity
  8
AM_0
100
AcDbCircle
 10
-425.0000000000011
 20
-5793.0
 30
0.0
 40
3.0
100
AcDbArc
 50
90.0
 51
180.0
  0
LINE
  5
A7D70
330
1F
100
AcDbEntity
  8
AM_0
100
AcDbLine
 10
-494.0000000000011
 20
-5915.0
 30
0.0
 11
-382.0000000000011
 21
-5915.0
 31
0.0
  0
LINE
  5
A7D71
330
1F
100
AcDbEntity
  8
AM_0
100
AcDbLine
 10
-494.0000000000011
 20
-5921.0
 30
0.0
 11
-382.0000000000011
 21
-5921.0
 31
0.0
  0
LINE
  5
A7D72
330
1F
100
AcDbEntity
  8
AM_0
100
AcDbLine
 10
-402.9593440000009
 20
-5921.299999999999
 30
0.0
 11
-383.0000000000012
 21
-5921.299999999999
 31
0.0
  0
LINE
  5
A7D73
330
1F
100
AcDbEntity
  8
AM_0
100
AcDbLine
 10
-383.0000000000012
 20
-5921.299999999999
 30
0.0
 11
-383.0000000000012
 21
-5921.0
 31
0.0
  0
LINE
  5
A7D74
330
1F
100
AcDbEntity
  8
AM_0
100
AcDbLine
 10
-473.0406550000009
 20
-5921.299999999999
 30
0.0
 11
-493.0000000000011
 21
-5921.299999999999
 31
0.0
  0
LINE
  5
A7D75
330
1F
100
AcDbEntity
  8
AM_0
100
AcDbLine
 10
-493.0000000000011
 20
-5921.299999999999
 30
0.0
 11
-493.0000000000011
 21
-5921.0
 31
0.0
  0
ARC
  5
A7D76
330
1F
100
AcDbEntity
  8
AM_0
100
AcDbCircle
 10
-438.0000000000011
 20
-6015.0
 30
0.0
 40
15.0
100
AcDbArc
 50
191.8804579999655
 51
348.1195420000345
  0
CIRCLE
  5
A7D77
330
1F
100
AcDbEntity
  8
AM_0
100
AcDbCircle
 10
-438.0000000000011
 20
-6015.0
 30
0.0
 40
12.0
  0
LINE
  5
A7D78
330
1F
100
AcDbEntity
  8
AM_0
100
AcDbLine
 10
-402.8962310000013
 20
-5921.0
 30
0.0
 11
-423.3213110000012
 21
-6018.088057
 31
0.0
  0
LINE
  5
A7D79
330
1F
100
AcDbEntity
  8
AM_0
100
AcDbLine
 10
-429.0000000000011
 20
-6003.0
 30
0.0
 11
-416.472222000001
 21
-5921.0
 31
0.0
  0
LINE
  5
A7D7A
330
1F
100
AcDbEntity
  8
AM_0
100
AcDbLine
 10
-473.103768000001
 20
-5921.0
 30
0.0
 11
-452.678689000001
 21
-6018.088057
 31
0.0
  0
LINE
  5
A7D7B
330
1F
100
AcDbEntity
  8
AM_0
100
AcDbLine
 10
-447.0000000000011
 20
-6003.0
 30
0.0
 11
-459.5277780000012
 21
-5921.0
 31
0.0
  0
LINE
  5
A7D7C
330
1F
100
AcDbEntity
  8
AM_0
100
AcDbLine
 10
-473.103768000001
 20
-5921.0
 30
0.0
 11
-402.8962310000013
 21
-5921.0
 31
0.0
  0
LINE
  5
A7D7D
330
1F
100
AcDbEntity
  8
AM_0
100
AcDbLine
 10
-480.5000000000011
 20
-5867.0
 30
0.0
 11
-395.5000000000012
 21
-5867.0
 31
0.0
  0
ARC
  5
A7D7E
330
1F
100
AcDbEntity
  8
AM_0
100
AcDbCircle
 10
-395.5000000000012
 20
-5853.5
 30
0.0
 40
13.5
100
AcDbArc
 50
270.0
 51
0.0
  0
ARC
  5
A7D7F
330
1F
100
AcDbEntity
  8
AM_0
100
AcDbCircle
 10
-480.5000000000011
 20
-5853.5
 30
0.0
 40
13.5
100
AcDbArc
 50
180.0
 51
270.0
  0
CIRCLE
  5
A7D80
330
1F
100
AcDbEntity
  8
AM_0
100
AcDbCircle
 10
-480.5000000000011
 20
-5853.5
 30
0.0
 40
5.5
  0
CIRCLE
  5
A7D81
330
1F
100
AcDbEntity
  8
AM_0
100
AcDbCircle
 10
-395.5000000000012
 20
-5853.5
 30
0.0
 40
5.5
  0
LINE
  5
A7D82
330
1F
100
AcDbEntity
  8
AM_0
100
AcDbLine
 10
-382.0000000000011
 20
-5853.5
 30
0.0
 11
-382.0000000000011
 21
-5768.5
 31
0.0
  0
ARC
  5
A7D83
330
1F
100
AcDbEntity
  8
AM_0
100
AcDbCircle
 10
-395.5000000000012
 20
-5768.5
 30
0.0
 40
13.5
100
AcDbArc
 50
0.0
 51
90.0
  0
CIRCLE
  5
A7D84
330
1F
100
AcDbEntity
  8
AM_0
100
AcDbCircle
 10
-395.5000000000012
 20
-5768.5
 30
0.0
 40
5.5
  0
LINE
  5
A7D85
330
1F
100
AcDbEntity
  8
AM_0
100
AcDbLine
 10
-480.5000000000011
 20
-5755.0
 30
0.0
 11
-395.5000000000012
 21
-5755.0
 31
0.0
  0
CIRCLE
  5
A7D86
330
1F
100
AcDbEntity
  8
AM_0
100
AcDbCircle
 10
-480.5000000000011
 20
-5768.5
 30
0.0
 40
5.5
  0
ARC
  5
A7D87
330
1F
100
AcDbEntity
  8
AM_0
100
AcDbCircle
 10
-480.5000000000011
 20
-5768.5
 30
0.0
 40
13.5
100
AcDbArc
 50
90.0
 51
180.0
  0
LINE
  5
A7D88
330
1F
100
AcDbEntity
  8
AM_0
100
AcDbLine
 10
-494.0000000000011
 20
-5853.5
 30
0.0
 11
-494.0000000000011
 21
-5768.5
 31
0.0
  0
LINE
  5
A7D89
330
1F
100
AcDbEntity
  8
AM_0
100
AcDbLine
 10
-494.0000000000011
 20
-5921.0
 30
0.0
 11
-494.0000000000011
 21
-5915.0
 31
0.0
  0
LINE
  5
A7D8A
330
1F
100
AcDbEntity
  8
AM_0
100
AcDbLine
 10
-382.0000000000011
 20
-5921.0
 30
0.0
 11
-382.0000000000011
 21
-5915.0
 31
0.0
  0
ARC
  5
A7D8B
330
1F
100
AcDbEntity
  8
AM_0
100
AcDbCircle
 10
-483.0000000000011
 20
-5811.0
 30
0.0
 40
10.0
100
AcDbArc
 50
101.6775610000022
 51
258.3224389999977
  0
LINE
  5
A7D8C
330
1F
100
AcDbEntity
  8
AM_0
100
AcDbLine
 10
-470.8952300000012
 20
-5823.713186999999
 30
0.0
 11
-485.0240380000011
 21
-5820.793022
 31
0.0
  0
LINE
  5
A7D8D
330
1F
100
AcDbEntity
  8
AM_0
100
AcDbLine
 10
-470.8952300000012
 20
-5798.286813999999
 30
0.0
 11
-485.0240380000011
 21
-5801.206979
 31
0.0
  0
LINE
  5
A7D8E
330
1F
100
AcDbEntity
  8
AM_0
100
AcDbLine
 10
-448.0000000000011
 20
-5829.0
 30
0.0
 11
-448.0000000000011
 21
-5793.0
 31
0.0
  0
LINE
  5
A7D8F
330
1F
100
AcDbEntity
  8
AM_0
100
AcDbLine
 10
-451.0000000000011
 20
-5832.0
 30
0.0
 11
-472.6079620000011
 21
-5832.0
 31
0.0
  0
LINE
  5
A7D90
330
1F
100
AcDbEntity
  8
AM_0
100
AcDbLine
 10
-458.5000000000011
 20
-5832.0
 30
0.0
 11
-458.5000000000011
 21
-5790.0
 31
0.0
  0
LINE
  5
A7D91
330
1F
100
AcDbEntity
  8
AM_0
100
AcDbLine
 10
-451.0000000000011
 20
-5790.0
 30
0.0
 11
-472.6079620000011
 21
-5790.0
 31
0.0
  0
ARC
  5
A7D92
330
1F
100
AcDbEntity
  8
AM_0
100
AcDbCircle
 10
-451.0000000000011
 20
-5829.0
 30
0.0
 40
3.0
100
AcDbArc
 50
270.0
 51
0.0
  0
ARC
  5
A7D93
330
1F
100
AcDbEntity
  8
AM_0
100
AcDbCircle
 10
-451.0000000000011
 20
-5793.0
 30
0.0
 40
3.0
100
AcDbArc
 50
0.0
 51
90.0
  0
LINE
  5
A7D94
330
1F
100
AcDbEntity
  8
AM_0
100
AcDbLine
 10
-427.0000000000011
 20
-6015.1
 30
0.0
 11
-432.5000000000011
 21
-6005.600000000001
 31
0.0
  0
LINE
  5
A7D95
330
1F
100
AcDbEntity
  8
AM_0
100
AcDbLine
 10
-432.5000000000011
 20
-6005.600000000001
 30
0.0
 11
-443.5000000000011
 21
-6005.600000000001
 31
0.0
  0
LINE
  5
A7D96
330
1F
100
AcDbEntity
  8
AM_0
100
AcDbLine
 10
-443.5000000000011
 20
-6005.600000000001
 30
0.0
 11
-449.0000000000011
 21
-6015.1
 31
0.0
  0
LINE
  5
A7D97
330
1F
100
AcDbEntity
  8
AM_0
100
AcDbLine
 10
-449.0000000000011
 20
-6015.1
 30
0.0
 11
-443.5000000000011
 21
-6024.6
 31
0.0
  0
LINE
  5
A7D98
330
1F
100
AcDbEntity
  8
AM_0
100
AcDbLine
 10
-443.5000000000011
 20
-6024.6
 30
0.0
 11
-432.5000000000011
 21
-6024.6
 31
0.0
  0
LINE
  5
A7D99
330
1F
100
AcDbEntity
  8
AM_0
100
AcDbLine
 10
-432.5000000000011
 20
-6024.6
 30
0.0
 11
-427.0000000000011
 21
-6015.1
 31
0.0
  0
CIRCLE
  5
A7D9A
330
1F
100
AcDbEntity
  8
AM_0
100
AcDbCircle
 10
-438.0000000000011
 20
-6015.1
 30
0.0
 40
9.5
  0
ARC
  5
A7D9B
330
1F
100
AcDbEntity
  8
AM_0
100
AcDbCircle
 10
-438.0000000000011
 20
-6015.1
 30
0.0
 40
18.4
100
AcDbArc
 50
156.3787810000173
 51
23.62121899998271
  0
ARC
  5
A7D9C
330
1F
100
AcDbEntity
  8
AM_0
100
AcDbCircle
 10
-438.0000000000011
 20
-6015.1
 30
0.0
 40
19.0
100
AcDbArc
 50
153.9157800000324
 51
26.08421999996755
  0
ARC
  5
A7D9D
330
1F
100
AcDbEntity
  8
AM_0
100
AcDbCircle
 10
-438.0000000000011
 20
-6015.1
 30
0.0
 40
19.7
100
AcDbArc
 50
151.3778399999831
 51
28.62216000001674
  0
ARC
  5
A7D9E
330
1F
100
AcDbEntity
  8
AM_0
100
AcDbCircle
 10
-438.0000000000011
 20
-6015.1
 30
0.0
 40
23.5
100
AcDbArc
 50
141.4802969999974
 51
38.51970300000253
  0
ARC
  5
A7D9F
330
1F
100
AcDbEntity
  8
AM_0
100
AcDbCircle
 10
-438.0000000000011
 20
-6015.1
 30
0.0
 40
25.0
100
AcDbArc
 50
138.691400000019
 51
41.30859999998096
  0
ARC
  5
A7DA0
330
1F
100
AcDbEntity
  8
AM_0
100
AcDbCircle
 10
-438.0000000000011
 20
-6015.1
 30
0.0
 40
25.2
100
AcDbArc
 50
138.3518360000086
 51
41.64816399999138
  0
ARC
  5
A7DA1
330
1F
100
AcDbEntity
  8
AM_0
100
AcDbCircle
 10
-438.0000000000011
 20
-6015.1
 30
0.0
 40
40.0
100
AcDbArc
 50
123.8729639999978
 51
56.12703600000218
  0
LINE
  5
A7DA2
330
1F
100
AcDbEntity
  8
AM_7
370
     9
100
AcDbLine
 10
-376.0000000000011
 20
-5811.0
 30
0.0
 11
-500.0000000000011
 21
-5811.0
 31
0.0
1001
GENIUS_GENODEF_13
1002
{
1000
HIER
1070
     0
1002
}
1002
{
1000
MANEDIT
1070
     0
1002
}
1002
{
1000
NOSEL
1070
     0
1002
}
1002
{
1000
BEHIND
1070
     0
1002
}
1002
{
1000
OTHER
1070
     0
1002
}
1002
{
1000
REACTOR
1002
}
1001
GENIUS_GENOBJ-N-CEN_13
1002
{
1000
OWNER
1000
GEN
1002
}
1001
GENIUS_GENCEN_19
1002
{
1040
6.0
1002
}
  0
LINE
  5
A7DA3
330
1F
100
AcDbEntity
  8
AM_7
370
     9
100
AcDbLine
 10
-438.0000000000011
 20
-5749.0
 30
0.0
 11
-438.0000000000011
 21
-5873.0
 31
0.0
1001
GENIUS_GENODEF_13
1002
{
1000
HIER
1070
     0
1002
}
1002
{
1000
MANEDIT
1070
     0
1002
}
1002
{
1000
NOSEL
1070
     0
1002
}
1002
{
1000
BEHIND
1070
     0
1002
}
1002
{
1000
OTHER
1070
     0
1002
}
1002
{
1000
REACTOR
1002
}
1001
GENIUS_GENOBJ-N-CEN_13
1002
{
1000
OWNER
1000
GEN
1002
}
1001
GENIUS_GENCEN_19
1002
{
1040
6.0
1002
}
  0
LINE
  5
A7DA4
330
1F
100
AcDbEntity
  8
AM_7
370
     9
100
AcDbLine
 10
-384.0000000000011
 20
-5768.5
 30
0.0
 11
-407.0000000000011
 21
-5768.5
 31
0.0
1001
GENIUS_GENODEF_13
1002
{
1000
HIER
1070
     0
1002
}
1002
{
1000
MANEDIT
1070
     0
1002
}
1002
{
1000
NOSEL
1070
     0
1002
}
1002
{
1000
BEHIND
1070
     0
1002
}
1002
{
1000
OTHER
1070
     0
1002
}
1002
{
1000
REACTOR
1002
}
1001
GENIUS_GENOBJ-N-CEN_13
1002
{
1000
OWNER
1000
GEN
1002
}
1001
GENIUS_GENCEN_19
1002
{
1040
6.0
1002
}
  0
LINE
  5
A7DA5
330
1F
100
AcDbEntity
  8
AM_7
370
     9
100
AcDbLine
 10
-395.5000000000012
 20
-5757.0
 30
0.0
 11
-395.5000000000012
 21
-5780.0
 31
0.0
1001
GENIUS_GENODEF_13
1002
{
1000
HIER
1070
     0
1002
}
1002
{
1000
MANEDIT
1070
     0
1002
}
1002
{
1000
NOSEL
1070
     0
1002
}
1002
{
1000
BEHIND
1070
     0
1002
}
1002
{
1000
OTHER
1070
     0
1002
}
1002
{
1000
REACTOR
1002
}
1001
GENIUS_GENOBJ-N-CEN_13
1002
{
1000
OWNER
1000
GEN
1002
}
1001
GENIUS_GENCEN_19
1002
{
1040
6.0
1002
}
  0
LINE
  5
A7DA6
330
1F
100
AcDbEntity
  8
AM_7
370
     9
100
AcDbLine
 10
-469.0000000000011
 20
-5768.5
 30
0.0
 11
-492.0000000000011
 21
-5768.5
 31
0.0
1001
GENIUS_GENODEF_13
1002
{
1000
HIER
1070
     0
1002
}
1002
{
1000
MANEDIT
1070
     0
1002
}
1002
{
1000
NOSEL
1070
     0
1002
}
1002
{
1000
BEHIND
1070
     0
1002
}
1002
{
1000
OTHER
1070
     0
1002
}
1002
{
1000
REACTOR
1002
}
1001
GENIUS_GENOBJ-N-CEN_13
1002
{
1000
OWNER
1000
GEN
1002
}
1001
GENIUS_GENCEN_19
1002
{
1040
6.0
1002
}
  0
LINE
  5
A7DA7
330
1F
100
AcDbEntity
  8
AM_7
370
     9
100
AcDbLine
 10
-480.5000000000011
 20
-5757.0
 30
0.0
 11
-480.5000000000011
 21
-5780.0
 31
0.0
1001
GENIUS_GENODEF_13
1002
{
1000
HIER
1070
     0
1002
}
1002
{
1000
MANEDIT
1070
     0
1002
}
1002
{
1000
NOSEL
1070
     0
1002
}
1002
{
1000
BEHIND
1070
     0
1002
}
1002
{
1000
OTHER
1070
     0
1002
}
1002
{
1000
REACTOR
1002
}
1001
GENIUS_GENOBJ-N-CEN_13
1002
{
1000
OWNER
1000
GEN
1002
}
1001
GENIUS_GENCEN_19
1002
{
1040
6.0
1002
}
  0
LINE
  5
A7DA8
330
1F
100
AcDbEntity
  8
AM_7
370
     9
100
AcDbLine
 10
-469.0000000000011
 20
-5853.5
 30
0.0
 11
-492.0000000000011
 21
-5853.5
 31
0.0
1001
GENIUS_GENODEF_13
1002
{
1000
HIER
1070
     0
1002
}
1002
{
1000
MANEDIT
1070
     0
1002
}
1002
{
1000
NOSEL
1070
     0
1002
}
1002
{
1000
BEHIND
1070
     0
1002
}
1002
{
1000
OTHER
1070
     0
1002
}
1002
{
1000
REACTOR
1002
}
1001
GENIUS_GENOBJ-N-CEN_13
1002
{
1000
OWNER
1000
GEN
1002
}
1001
GENIUS_GENCEN_19
1002
{
1040
6.0
1002
}
  0
LINE
  5
A7DA9
330
1F
100
AcDbEntity
  8
AM_7
370
     9
100
AcDbLine
 10
-480.5000000000011
 20
-5842.0
 30
0.0
 11
-480.5000000000011
 21
-5865.0
 31
0.0
1001
GENIUS_GENODEF_13
1002
{
1000
HIER
1070
     0
1002
}
1002
{
1000
MANEDIT
1070
     0
1002
}
1002
{
1000
NOSEL
1070
     0
1002
}
1002
{
1000
BEHIND
1070
     0
1002
}
1002
{
1000
OTHER
1070
     0
1002
}
1002
{
1000
REACTOR
1002
}
1001
GENIUS_GENOBJ-N-CEN_13
1002
{
1000
OWNER
1000
GEN
1002
}
1001
GENIUS_GENCEN_19
1002
{
1040
6.0
1002
}
  0
LINE
  5
A7DAA
330
1F
100
AcDbEntity
  8
AM_7
370
     9
100
AcDbLine
 10
-384.0000000000011
 20
-5853.5
 30
0.0
 11
-407.0000000000011
 21
-5853.5
 31
0.0
1001
GENIUS_GENODEF_13
1002
{
1000
HIER
1070
     0
1002
}
1002
{
1000
MANEDIT
1070
     0
1002
}
1002
{
1000
NOSEL
1070
     0
1002
}
1002
{
1000
BEHIND
1070
     0
1002
}
1002
{
1000
OTHER
1070
     0
1002
}
1002
{
1000
REACTOR
1002
}
1001
GENIUS_GENOBJ-N-CEN_13
1002
{
1000
OWNER
1000
GEN
1002
}
1001
GENIUS_GENCEN_19
1002
{
1040
6.0
1002
}
  0
LINE
  5
A7DAB
330
1F
100
AcDbEntity
  8
AM_7
370
     9
100
AcDbLine
 10
-395.5000000000012
 20
-5842.0
 30
0.0
 11
-395.5000000000012
 21
-5865.0
 31
0.0
1001
GENIUS_GENODEF_13
1002
{
1000
HIER
1070
     0
1002
}
1002
{
1000
MANEDIT
1070
     0
1002
}
1002
{
1000
NOSEL
1070
     0
1002
}
1002
{
1000
BEHIND
1070
     0
1002
}
1002
{
1000
OTHER
1070
     0
1002
}
1002
{
1000
REACTOR
1002
}
1001
GENIUS_GENOBJ-N-CEN_13
1002
{
1000
OWNER
1000
GEN
1002
}
1001
GENIUS_GENCEN_19
1002
{
1040
6.0
1002
}
  0
LINE
  5
A7DAC
330
1F
100
AcDbEntity
  8
AM_7
100
AcDbLine
 10
-438.0000000000011
 20
-5909.0
 30
0.0
 11
-438.0000000000011
 21
-6061.1
 31
0.0
1001
GENIUS_GENOBJ-N-CEN_13
1002
{
1000
OWNER
1000
GEN
1002
}
1001
GENIUS_GENODEF_13
1002
{
1000
HIER
1070
     0
1002
}
1002
{
1000
MANEDIT
1070
     0
1002
}
1002
{
1000
NOSEL
1070
     0
1002
}
1002
{
1000
BEHIND
1070
     0
1002
}
1002
{
1000
OTHER
1070
     0
1002
}
1002
{
1000
REACTOR
1002
}
1001
GENIUS_GENCEN_19
1002
{
1040
6.0
1002
}
  0
ARC
  5
A7DAD
330
1F
100
AcDbEntity
  8
AM_3
370
     9
100
AcDbCircle
 10
-438.0000000000011
 20
-6015.0
 30
0.0
 40
40.0
100
AcDbArc
 50
56.09522910706544
 51
123.9047703277994
  0
DIMENSION
  5
A7DAE
330
1F
100
AcDbEntity
  8
AM_5
100
AcDbDimension
  2
*D14
 10
-362.0000000000012
 20
-5768.5
 30
0.0
 11
-368.2000000000002
 21
-5811.0
 31
0.0
 70
    32
  1
X
 71
     5
 42
85.0
  3
SYS$0
100
AcDbAlignedDimension
 13
-384.0000000000011
 23
-5853.5
 33
0.0
 14
-384.0000000000011
 24
-5768.5
 34
0.0
 50
90.0
100
AcDbRotatedDimension
1001
ACAD
1000
DSTYLE
1002
{
1070
    40
1040
2.0
1002
}
  0
DIMENSION
  5
A7DAF
330
1F
100
AcDbEntity
  8
AM_5
100
AcDbDimension
  2
*D15
 10
-480.5000000000011
 20
-5739.0
 30
0.0
 11
-438.0000000000011
 21
-5732.800000000001
 31
0.0
 70
    32
  1
X
 71
     5
 42
85.0
  3
SYS$0
100
AcDbAlignedDimension
 13
-395.5000000000012
 23
-5757.0
 33
0.0
 14
-480.5000000000011
 24
-5757.0
 34
0.0
100
AcDbRotatedDimension
1001
ACAD
1000
DSTYLE
1002
{
1070
    40
1040
2.0
1002
}
  0
DIMENSION
  5
A7DB0
330
1F
100
AcDbEntity
  8
AM_5
100
AcDbDimension
  2
*D16
 10
-382.0000000000011
 20
-5723.0
 30
0.0
 11
-438.0000000000011
 21
-5716.8
 31
0.0
 70
    32
  1
A
 71
     5
 42
112.0
  3
SYS$0
100
AcDbAlignedDimension
 13
-494.0000000000011
 23
-5768.5
 33
0.0
 14
-382.0000000000011
 24
-5768.5
 34
0.0
100
AcDbRotatedDimension
1001
ACAD
1000
DSTYLE
1002
{
1070
    40
1040
2.0
1002
}
  0
DIMENSION
  5
A7DB1
330
1F
100
AcDbEntity
  8
AM_5
100
AcDbDimension
  2
*D17
 10
-346.0000000000011
 20
-5867.0
 30
0.0
 11
-352.2000000000002
 21
-5811.0
 31
0.0
 70
    32
  1
B
 71
     5
 42
112.0
  3
SYS$0
100
AcDbAlignedDimension
 13
-395.5000000000012
 23
-5755.0
 33
0.0
 14
-395.5000000000012
 24
-5867.0
 34
0.0
 50
90.0
100
AcDbRotatedDimension
1001
ACAD
1000
DSTYLE
1002
{
1070
    40
1040
2.0
1002
}
  0
DIMENSION
  5
A7DB2
330
1F
100
AcDbEntity
  8
AM_5
100
AcDbDimension
  2
*D18
 10
-362.0000000000012
 20
-6055.100000000003
 30
0.0
 11
-368.2000000000001
 21
-5985.050000000001
 31
0.0
 70
    32
  1
H
 71
     5
 42
140.1000000000022
  3
SYS$0
100
AcDbAlignedDimension
 13
-382.0000000000011
 23
-5915.0
 33
0.0
 14
-438.0000000000015
 24
-6055.100000000003
 34
0.0
 50
90.0
100
AcDbRotatedDimension
1001
ACAD
1000
DSTYLE
1002
{
1070
    40
1040
2.0
1002
}
  0
DIMENSION
  5
A7DB3
330
1F
100
AcDbEntity
  8
AM_5
100
AcDbDimension
  2
*D19
 10
-409.7157287525392
 20
-5986.815728752541
 30
0.0
 11
-482.6333333333304
 21
-6055.1
 31
0.0
 70
   163
  1
D
 71
     5
 42
80.00000000000182
  3
SYS$3
100
AcDbDiametricDimension
 15
-466.284271247463
 25
-6043.384271247467
 35
0.0
 40
0.0
1001
ACAD
1000
DSTYLE
1002
{
1070
    40
1040
2.0
1070
    41
1040
1.0
1070
   172
1070
     1
1070
   173
1070
     1
1070
   342
1005
0
1070
   343
1005
6C4
1070
   344
1005
6C4
1002
}
  0
DIMENSION
  5
A7DB4
330
1F
100
AcDbEntity
  8
AM_5
100
AcDbDimension
  2
*D20
 10
-399.3890872965267
 20
-5772.389087296529
 30
0.0
 11
-369.366666666664
 21
-5746.999999999998
 31
0.0
 70
   163
  1
P
 71
     5
 42
11.00000000000364
  3
SYS$3
100
AcDbDiametricDimension
 15
-391.6109127034747
 25
-5764.610912703473
 35
0.0
 40
0.0
1001
ACAD
1000
DSTYLE
1002
{
1070
    40
1040
2.0
1070
    41
1040
1.0
1070
   172
1070
     1
1070
   173
1070
     1
1070
   342
1005
0
1070
   343
1005
6C4
1070
   344
1005
6C4
1002
}
  0
LWPOLYLINE
  5
A7DB5
330
1F
100
AcDbEntity
  8
AM_0
100
AcDbPolyline
 90
        4
 70
     1
 43
0.0
 10
-458.0000000000011
 20
-6091.0
 10
-418.0000000000011
 20
-6091.0
 10
-418.0000000000011
 20
-6103.0
 10
-458.0000000000011
 20
-6103.0
1001
GENIUS_GENREC_14
1002
{
1000
PYDIR
1011
-458.0000000000011
1021
-6103.0
1031
0.0
1002
}
1002
{
1000
PXDIR
1011
-418.0000000000011
1021
-6091.0
1031
0.0
1002
}
1002
{
1000
PORI
1011
-458.0000000000011
1021
-6091.0
1031
0.0
1002
}
1002
{
1000
PINS
1011
-458.0000000000011
1021
-6091.0
1031
0.0
1002
}
1002
{
1000
PINS2
1011
-418.0000000000011
1021
-6103.0
1031
0.0
1002
}
1002
{
1000
C
1070
     1
1002
}
1001
GENIUS_GENODEF_13
1002
{
1000
HIER
1070
     0
1002
}
1002
{
1000
MANEDIT
1070
     0
1002
}
1002
{
1000
NOSEL
1070
     0
1002
}
1002
{
1000
BEHIND
1070
     0
1002
}
1002
{
1000
OTHER
1070
     0
1002
}
1002
{
1000
REACTOR
1002
}
1001
GENIUS_GENOBJ-N-REC_13
1002
{
1000
OWNER
1000
GEN
1002
}
  0
MTEXT
  5
A7DB6
330
1F
100
AcDbEntity
  8
AM_6
100
AcDbMText
 10
-438.0000000000011
 20
-6097.0
 30
0.0
 40
6.4
 41
40.0
 71
     5
 72
     5
  1
DHK
 73
     1
 44
1.0
1001
ACAD
1000
MTEXTBEGIN
1070
    73
1070
     1
1070
    44
1040
1.0
1070
    74
1070
     0
1000
MTEXTEND
  0
MTEXT
  5
A7DB7
330
1F
100
AcDbEntity
  8
AM_6
100
AcDbMText
 10
-694.0000000000011
 20
-6109.0
 30
0.0
 40
6.4
 41
40.0
 71
     5
 72
     5
  1
（ストッパー付）
 73
     1
 44
1.0
1001
ACAD
1000
MTEXTBEGIN
1070
    73
1070
     1
1070
    44
1040
1.0
1070
    74
1070
     0
1000
MTEXTEND
  0
LINE
  5
A7F9B
330
1F
100
AcDbEntity
  8
AM_0
100
AcDbLine
 10
-1091.000000000001
 20
-5563.0
 30
0.0
 11
-1090.999999999992
 21
-5659.0
 31
0.0
  0
LINE
  5
A7F9C
330
1F
100
AcDbEntity
  8
AM_0
100
AcDbLine
 10
-1091.000000000001
 20
-5563.0
 30
0.0
 11
-895.0000000000011
 21
-5563.0
 31
0.0
  0
LINE
  5
A7F9D
330
1F
100
AcDbEntity
  8
AM_0
100
AcDbLine
 10
-895.0000000000011
 20
-5563.0
 30
0.0
 11
-895.0000000000022
 21
-5659.0
 31
0.0
  0
LINE
  5
A7F9E
330
1F
100
AcDbEntity
  8
AM_0
100
AcDbLine
 10
-1051.000000000003
 20
-5659.0
 30
0.0
 11
-1051.000000000001
 21
-5563.0
 31
0.0
  0
LINE
  5
A7F9F
330
1F
100
AcDbEntity
  8
AM_5
100
AcDbLine
 10
-1091.000000000001
 20
-5579.0
 30
0.0
 11
-895.0000000000011
 21
-5579.0
 31
0.0
  0
LINE
  5
A7FA0
330
1F
100
AcDbEntity
  8
AM_5
100
AcDbLine
 10
-1091.000000000001
 20
-5595.0
 30
0.0
 11
-895.0000000000011
 21
-5595.0
 31
0.0
  0
MTEXT
  5
A7FA1
330
1F
100
AcDbEntity
  8
AM_6
100
AcDbMText
 10
-1071.000000000001
 20
-5571.0
 30
0.0
 40
6.4
 41
40.0
 71
     5
 72
     5
  1
品　名
 73
     1
 44
1.0
1001
ACAD
1000
MTEXTBEGIN
1070
    73
1070
     1
1070
    44
1040
1.0
1070
    74
1070
     0
1000
MTEXTEND
  0
MTEXT
  5
A7FA2
330
1F
100
AcDbEntity
  8
AM_6
100
AcDbMText
 10
-1051.000000000001
 20
-5571.0
 30
0.0
 40
6.4
 41
156.0
 71
     4
 72
     5
  1
　低床用キャスター
 73
     1
 44
1.0
1001
ACAD
1000
MTEXTBEGIN
1070
    73
1070
     1
1070
    44
1040
1.0
1070
    74
1070
     0
1000
MTEXTEND
  0
MTEXT
  5
A7FA3
330
1F
100
AcDbEntity
  8
AM_6
100
AcDbMText
 10
-1071.000000000001
 20
-5587.0
 30
0.0
 40
6.4
 41
40.0
 71
     5
 72
     5
  1
品　番
 73
     1
 44
1.0
1001
ACAD
1000
MTEXTBEGIN
1070
    73
1070
     1
1070
    44
1040
1.0
1070
    74
1070
     0
1000
MTEXTEND
  0
MTEXT
  5
A7FA4
330
1F
100
AcDbEntity
  8
AM_6
100
AcDbMText
 10
-1051.000000000001
 20
-5587.0
 30
0.0
 40
6.4
 41
156.0
 71
     4
 72
     5
  1
　DHJ / DHJB / DHK
 73
     1
 44
1.0
1001
ACAD
1000
MTEXTBEGIN
1070
    73
1070
     1
1070
    44
1040
1.0
1070
    74
1070
     0
1000
MTEXTEND
  0
MTEXT
  5
A7FA5
330
1F
100
AcDbEntity
  8
AM_6
100
AcDbMText
 10
-1071.000000000001
 20
-5603.0
 30
0.0
 40
6.4
 41
40.0
 71
     5
 72
     5
  1
材　質
 73
     1
 44
1.0
1001
ACAD
1000
MTEXTBEGIN
1070
    73
1070
     1
1070
    44
1040
1.0
1070
    74
1070
     0
1000
MTEXTEND
  0
MTEXT
  5
A7FA6
330
1F
100
AcDbEntity
  8
AM_6
100
AcDbMText
 10
-1051.000000000001
 20
-5603.0
 30
0.0
 40
6.4
 41
156.0
 71
     4
 72
     5
  1
　本体 ： スチール
 73
     1
 44
1.0
1001
ACAD
1000
MTEXTBEGIN
1070
    73
1070
     1
1070
    44
1040
1.0
1070
    74
1070
     0
1000
MTEXTEND
  0
LINE
  5
A7FA7
330
1F
100
AcDbEntity
  8
AM_5
100
AcDbLine
 10
-1091.000000000001
 20
-5627.0
 30
0.0
 11
-895.0000000000015
 21
-5627.0
 31
0.0
  0
MTEXT
  5
A7FA8
330
1F
100
AcDbEntity
  8
AM_6
100
AcDbMText
 10
-1071.000000000001
 20
-5635.0
 30
0.0
 40
6.4
 41
40.0
 71
     5
 72
     5
  1
仕上げ
 73
     1
 44
1.0
1001
ACAD
1000
MTEXTBEGIN
1070
    73
1070
     1
1070
    44
1040
1.0
1070
    74
1070
     0
1000
MTEXTEND
  0
MTEXT
  5
A7FA9
330
1F
100
AcDbEntity
  8
AM_6
100
AcDbMText
 10
-1051.000000000002
 20
-5635.0
 30
0.0
 40
6.4
 41
156.0
 71
     4
 72
     5
  1
　本体 ： 光沢クロメート
 73
     1
 44
1.0
1001
ACAD
1000
MTEXTBEGIN
1070
    73
1070
     1
1070
    44
1040
1.0
1070
    74
1070
     0
1000
MTEXTEND
  0
LINE
  5
A7FAA
330
1F
100
AcDbEntity
  8
AM_5
100
AcDbLine
 10
-1090.999999999993
 20
-5643.0
 30
0.0
 11
-894.9999999999988
 21
-5643.0
 31
0.0
  0
LINE
  5
A7FAB
330
1F
100
AcDbEntity
  8
AM_5
100
AcDbLine
 10
-1051.000000000002
 20
-5611.0
 30
0.0
 11
-895.0000000000011
 21
-5611.0
 31
0.0
  0
MTEXT
  5
A7FAC
330
1F
100
AcDbEntity
  8
AM_6
100
AcDbMText
 10
-1051.000000000001
 20
-5619.0
 30
0.0
 40
6.4
 41
156.0
 71
     4
 72
     5
  1
　キャスター ： モノマーキャスティングナイロン（ブルー）
 73
     1
 44
1.0
1001
ACAD
1000
MTEXTBEGIN
1070
    73
1070
     1
1070
    44
1040
1.0
1070
    74
1070
     0
1000
MTEXTEND
  0
MTEXT
  5
A7FAD
330
1F
100
AcDbEntity
  8
AM_6
100
AcDbMText
 10
-601.000000000001
 20
-5587.000000000135
 30
0.0
 40
6.4
 41
32.0
 71
     5
 72
     5
  1
D
 73
     1
 44
1.0
1001
ACAD
1000
MTEXTBEGIN
1070
    73
1070
     1
1070
    44
1040
1.0
1070
    74
1070
     0
1000
MTEXTEND
  0
MTEXT
  5
A7FAE
330
1F
100
AcDbEntity
  8
AM_6
100
AcDbMText
 10
-569.000000000001
 20
-5587.000000000239
 30
0.0
 40
6.4
 41
32.0
 71
     5
 72
     5
  1
W
 73
     1
 44
1.0
1001
ACAD
1000
MTEXTBEGIN
1070
    73
1070
     1
1070
    44
1040
1.0
1070
    74
1070
     0
1000
MTEXTEND
  0
MTEXT
  5
A7FAF
330
1F
100
AcDbEntity
  8
AM_6
100
AcDbMText
 10
-473.000000000001
 20
-5587.000000000207
 30
0.0
 40
6.4
 41
32.0
 71
     5
 72
     5
  1
H
 73
     1
 44
1.0
1001
ACAD
1000
MTEXTBEGIN
1070
    73
1070
     1
1070
    44
1040
1.0
1070
    74
1070
     0
1000
MTEXTEND
  0
LINE
  5
A7FB0
330
1F
100
AcDbEntity
  8
AM_5
100
AcDbLine
 10
-457.000000000001
 20
-5563.0
 30
0.0
 11
-457.0000000000012
 21
-5691.000000000133
 31
0.0
  0
LINE
  5
A7FB1
330
1F
100
AcDbEntity
  8
AM_0
100
AcDbLine
 10
-296.9999999999819
 20
-5691.000000000134
 30
0.0
 11
-713.0000000000165
 21
-5691.000000000133
 31
0.0
  0
LINE
  5
A7FB2
330
1F
100
AcDbEntity
  8
AM_0
100
AcDbLine
 10
-713.0000000000356
 20
-5595.000000000135
 30
0.0
 11
-297.0000000000008
 21
-5595.000000000134
 31
0.0
  0
LINE
  5
A7FB3
330
1F
100
AcDbEntity
  8
AM_0
100
AcDbLine
 10
-713.0000000000165
 20
-5659.000000000133
 30
0.0
 11
-296.9999999999819
 21
-5659.000000000134
 31
0.0
  0
LINE
  5
A7FB4
330
1F
100
AcDbEntity
  8
AM_5
100
AcDbLine
 10
-617.000000000001
 20
-5691.000000000133
 30
0.0
 11
-617.000000000001
 21
-5563.000000000073
 31
0.0
  0
LINE
  5
A7FB5
330
1F
100
AcDbEntity
  8
AM_5
100
AcDbLine
 10
-585.000000000001
 20
-5563.000000000059
 30
0.0
 11
-585.000000000001
 21
-5691.000000000133
 31
0.0
  0
LINE
  5
A7FB6
330
1F
100
AcDbEntity
  8
AM_5
100
AcDbLine
 10
-553.000000000001
 20
-5563.000000000045
 30
0.0
 11
-553.000000000001
 21
-5691.000000000134
 31
0.0
  0
LINE
  5
A7FB7
330
1F
100
AcDbEntity
  8
AM_5
100
AcDbLine
 10
-681.0000000000447
 20
-5627.000000000137
 30
0.0
 11
-617.000000000001
 21
-5627.000000000137
 31
0.0
  0
LINE
  5
A7FB8
330
1F
100
AcDbEntity
  8
AM_5
100
AcDbLine
 10
-617.000000000001
 20
-5627.000000000137
 30
0.0
 11
-585.000000000001
 21
-5627.000000000137
 31
0.0
  0
LINE
  5
A7FB9
330
1F
100
AcDbEntity
  8
AM_5
100
AcDbLine
 10
-489.000000000001
 20
-5627.000000000137
 30
0.0
 11
-457.000000000001
 21
-5627.000000000137
 31
0.0
  0
LINE
  5
A7FBA
330
1F
100
AcDbEntity
  8
AM_5
100
AcDbLine
 10
-680.9999999999647
 20
-5675.000000000131
 30
0.0
 11
-584.9999999999819
 21
-5675.000000000135
 31
0.0
  0
LINE
  5
A7FBB
330
1F
100
AcDbEntity
  8
AM_5
100
AcDbLine
 10
-488.9999999999819
 20
-5675.000000000136
 30
0.0
 11
-456.9999999999819
 21
-5675.000000000135
 31
0.0
  0
MTEXT
  5
A7FBC
330
1F
100
AcDbEntity
  8
AM_6
100
AcDbMText
 10
-601.000000000001
 20
-5611.000000000135
 30
0.0
 40
6.4
 41
32.0
 71
     5
 72
     5
  1
80
 73
     1
 44
1.0
1001
ACAD
1000
MTEXTBEGIN
1070
    73
1070
     1
1070
    44
1040
1.0
1070
    74
1070
     0
1000
MTEXTEND
  0
MTEXT
  5
A7FBD
330
1F
100
AcDbEntity
  8
AM_6
100
AcDbMText
 10
-601.000000000001
 20
-5643.000000000137
 30
0.0
 40
6.4
 41
32.0
 71
     5
 72
     5
  1
100
 73
     1
 44
1.0
1001
ACAD
1000
MTEXTBEGIN
1070
    73
1070
     1
1070
    44
1040
1.0
1070
    74
1070
     0
1000
MTEXTEND
  0
MTEXT
  5
A7FBE
330
1F
100
AcDbEntity
  8
AM_6
100
AcDbMText
 10
-472.999999999975
 20
-5611.000000000103
 30
0.0
 40
6.4
 41
32.0
 71
     5
 72
     5
  1
140
 73
     1
 44
1.0
1001
ACAD
1000
MTEXTBEGIN
1070
    73
1070
     1
1070
    44
1040
1.0
1070
    74
1070
     0
1000
MTEXTEND
  0
MTEXT
  5
A7FBF
330
1F
100
AcDbEntity
  8
AM_6
100
AcDbMText
 10
-472.999999999975
 20
-5643.000000000106
 30
0.0
 40
6.4
 41
32.0
 71
     5
 72
     5
  1
150
 73
     1
 44
1.0
1001
ACAD
1000
MTEXTBEGIN
1070
    73
1070
     1
1070
    44
1040
1.0
1070
    74
1070
     0
1000
MTEXTEND
  0
LINE
  5
A7FC0
330
1F
100
AcDbEntity
  8
AM_0
100
AcDbLine
 10
-713.0000000000356
 20
-5563.00000000015
 30
0.0
 11
-297.000000000001
 21
-5562.999999999917
 31
0.0
  0
MTEXT
  5
A7FC1
330
1F
100
AcDbEntity
  8
AM_6
100
AcDbMText
 10
-649.0000000000009
 20
-5603.000000000136
 30
0.0
 40
6.4
 41
64.0
 71
     5
 72
     5
  1
DHJ-80U-MC
 73
     1
 44
1.0
1001
ACAD
1000
MTEXTBEGIN
1070
    73
1070
     1
1070
    44
1040
1.0
1070
    74
1070
     0
1000
MTEXTEND
  0
LINE
  5
A7FC2
330
1F
100
AcDbEntity
  8
AM_5
100
AcDbLine
 10
-680.9999999999314
 20
-5691.000000000133
 30
0.0
 11
-681.0000000000705
 21
-5563.000000000136
 31
0.0
  0
MTEXT
  5
A7FC3
330
1F
100
AcDbEntity
  8
AM_6
100
AcDbMText
 10
-649.0000000000287
 20
-5579.000000000135
 30
0.0
 40
6.4
 41
64.00000000005547
 71
     5
 72
     5
  1
品　番
 73
     1
 44
1.0
1001
ACAD
1000
MTEXTBEGIN
1070
    73
1070
     1
1070
    44
1040
1.0
1070
    74
1070
     0
1000
MTEXTEND
  0
MTEXT
  5
A7FC4
330
1F
100
AcDbEntity
  8
AM_6
100
AcDbMText
 10
-601.000000000001
 20
-5571.000000000066
 30
0.0
 40
6.4
 41
32.0
 71
     5
 72
     5
  1
車輪サイズ
 73
     1
 44
1.0
1001
ACAD
1000
MTEXTBEGIN
1070
    73
1070
     1
1070
    44
1040
1.0
1070
    74
1070
     0
1000
MTEXTEND
  0
MTEXT
  5
A7FC5
330
1F
100
AcDbEntity
  8
AM_6
100
AcDbMText
 10
-569.000000000001
 20
-5571.00000000017
 30
0.0
 40
6.4
 41
32.0
 71
     5
 72
     5
  1
タイヤ幅
 73
     1
 44
1.0
1001
ACAD
1000
MTEXTBEGIN
1070
    73
1070
     1
1070
    44
1040
1.0
1070
    74
1070
     0
1000
MTEXTEND
  0
MTEXT
  5
A7FC6
330
1F
100
AcDbEntity
  8
AM_6
100
AcDbMText
 10
-473.000000000001
 20
-5571.000000000139
 30
0.0
 40
6.4
 41
32.0
 71
     5
 72
     5
  1
高さ
 73
     1
 44
1.0
1001
ACAD
1000
MTEXTBEGIN
1070
    73
1070
     1
1070
    44
1040
1.0
1070
    74
1070
     0
1000
MTEXTEND
  0
MTEXT
  5
A7FC7
330
1F
100
AcDbEntity
  8
AM_6
100
AcDbMText
 10
-569.000000000001
 20
-5627.000000000135
 30
0.0
 40
6.4
 41
32.0
 71
     5
 72
     5
  1
40
 73
     1
 44
1.0
1001
ACAD
1000
MTEXTBEGIN
1070
    73
1070
     1
1070
    44
1040
1.0
1070
    74
1070
     0
1000
MTEXTEND
  0
MTEXT
  5
A7FC8
330
1F
100
AcDbEntity
  8
AM_6
100
AcDbMText
 10
-433.000000000001
 20
-5587.00000000018
 30
0.0
 40
6.4
 41
48.0
 71
     5
 72
     5
  1
X  × Y
 73
     1
 44
1.0
1001
ACAD
1000
MTEXTBEGIN
1070
    73
1070
     1
1070
    44
1040
1.0
1070
    74
1070
     0
1000
MTEXTEND
  0
LINE
  5
A7FC9
330
1F
100
AcDbEntity
  8
AM_5
100
AcDbLine
 10
-409.000000000001
 20
-5562.999999999973
 30
0.0
 11
-409.000000000001
 21
-5691.000000000133
 31
0.0
  0
MTEXT
  5
A7FCA
330
1F
100
AcDbEntity
  8
AM_6
100
AcDbMText
 10
-432.9999999999882
 20
-5627.000000000135
 30
0.0
 40
6.4
 41
47.99999999997408
 71
     5
 72
     5
  1
85 ×85
 73
     1
 44
1.0
1001
ACAD
1000
MTEXTBEGIN
1070
    73
1070
     1
1070
    44
1040
1.0
1070
    74
1070
     0
1000
MTEXTEND
  0
MTEXT
  5
A7FCB
330
1F
100
AcDbEntity
  8
AM_6
100
AcDbMText
 10
-433.000000000001
 20
-5571.000000000111
 30
0.0
 40
6.4
 41
48.0
 71
     5
 72
     5
  1
取付孔ピッチ
 73
     1
 44
1.0
1001
ACAD
1000
MTEXTBEGIN
1070
    73
1070
     1
1070
    44
1040
1.0
1070
    74
1070
     0
1000
MTEXTEND
  0
MTEXT
  5
A7FCC
330
1F
100
AcDbEntity
  8
AM_6
100
AcDbMText
 10
-385.000000000001
 20
-5587.000000000156
 30
0.0
 40
6.4
 41
48.0
 71
     5
 72
     5
  1
A  × B
 73
     1
 44
1.0
1001
ACAD
1000
MTEXTBEGIN
1070
    73
1070
     1
1070
    44
1040
1.0
1070
    74
1070
     0
1000
MTEXTEND
  0
LINE
  5
A7FCD
330
1F
100
AcDbEntity
  8
AM_5
100
AcDbLine
 10
-361.000000000001
 20
-5562.999999999949
 30
0.0
 11
-361.0000000000013
 21
-5691.000000000133
 31
0.0
  0
MTEXT
  5
A7FCE
330
1F
100
AcDbEntity
  8
AM_6
100
AcDbMText
 10
-384.999999999988
 20
-5627.000000000134
 30
0.0
 40
6.4
 41
47.99999999997408
 71
     5
 72
     5
  1
112 ×112
 73
     1
 44
1.0
1001
ACAD
1000
MTEXTBEGIN
1070
    73
1070
     1
1070
    44
1040
1.0
1070
    74
1070
     0
1000
MTEXTEND
  0
MTEXT
  5
A7FCF
330
1F
100
AcDbEntity
  8
AM_6
100
AcDbMText
 10
-385.000000000001
 20
-5571.000000000087
 30
0.0
 40
6.4
 41
48.0
 71
     5
 72
     5
  1
取付座寸法
 73
     1
 44
1.0
1001
ACAD
1000
MTEXTBEGIN
1070
    73
1070
     1
1070
    44
1040
1.0
1070
    74
1070
     0
1000
MTEXTEND
  0
MTEXT
  5
A7FD0
330
1F
100
AcDbEntity
  8
AM_6
100
AcDbMText
 10
-345.000000000001
 20
-5587.000000000141
 30
0.0
 40
6.4
 41
32.0
 71
     5
 72
     5
  1
P
 73
     1
 44
1.0
1001
ACAD
1000
MTEXTBEGIN
1070
    73
1070
     1
1070
    44
1040
1.0
1070
    74
1070
     0
1000
MTEXTEND
  0
LINE
  5
A7FD1
330
1F
100
AcDbEntity
  8
AM_5
100
AcDbLine
 10
-329.000000000001
 20
-5562.999999999933
 30
0.0
 11
-329.000000000001
 21
-5691.000000000134
 31
0.0
  0
MTEXT
  5
A7FD2
330
1F
100
AcDbEntity
  8
AM_6
100
AcDbMText
 10
-344.9999999999751
 20
-5627.000000000135
 30
0.0
 40
6.4
 41
32.0
 71
     5
 72
     5
  1
11
 73
     1
 44
1.0
1001
ACAD
1000
MTEXTBEGIN
1070
    73
1070
     1
1070
    44
1040
1.0
1070
    74
1070
     0
1000
MTEXTEND
  0
MTEXT
  5
A7FD3
330
1F
100
AcDbEntity
  8
AM_6
100
AcDbMText
 10
-345.000000000001
 20
-5571.000000000072
 30
0.0
 40
6.4
 41
32.0
 71
     5
 72
     5
  1
取付孔径
 73
     1
 44
1.0
1001
ACAD
1000
MTEXTBEGIN
1070
    73
1070
     1
1070
    44
1040
1.0
1070
    74
1070
     0
1000
MTEXTEND
  0
MTEXT
  5
A7FD4
330
1F
100
AcDbEntity
  8
AM_6
100
AcDbMText
 10
-313.000000000001
 20
-5587.000000000207
 30
0.0
 40
6.4
 41
32.0
 71
     5
 72
     5
  1
E
 73
     1
 44
1.0
1001
ACAD
1000
MTEXTBEGIN
1070
    73
1070
     1
1070
    44
1040
1.0
1070
    74
1070
     0
1000
MTEXTEND
  0
LINE
  5
A7FD5
330
1F
100
AcDbEntity
  8
AM_0
100
AcDbLine
 10
-297.000000000001
 20
-5563.0
 30
0.0
 11
-297.000000000001
 21
-5691.000000000135
 31
0.0
  0
MTEXT
  5
A7FD6
330
1F
100
AcDbEntity
  8
AM_6
100
AcDbMText
 10
-312.9999999999751
 20
-5627.000000000135
 30
0.0
 40
6.4
 41
32.0
 71
     5
 72
     5
  1
32
 73
     1
 44
1.0
1001
ACAD
1000
MTEXTBEGIN
1070
    73
1070
     1
1070
    44
1040
1.0
1070
    74
1070
     0
1000
MTEXTEND
  0
MTEXT
  5
A7FD7
330
1F
100
AcDbEntity
  8
AM_6
100
AcDbMText
 10
-313.000000000001
 20
-5571.000000000139
 30
0.0
 40
6.4
 41
32.0
 71
     5
 72
     5
  1
偏芯
 73
     1
 44
1.0
1001
ACAD
1000
MTEXTBEGIN
1070
    73
1070
     1
1070
    44
1040
1.0
1070
    74
1070
     0
1000
MTEXTEND
  0
MTEXT
  5
A7FD8
330
1F
100
AcDbEntity
  8
AM_6
100
AcDbMText
 10
-537.000000000001
 20
-5587.000000000135
 30
0.0
 40
6.4
 41
32.0
 71
     5
 72
     5
  1
N
 73
     1
 44
1.0
1001
ACAD
1000
MTEXTBEGIN
1070
    73
1070
     1
1070
    44
1040
1.0
1070
    74
1070
     0
1000
MTEXTEND
  0
MTEXT
  5
A7FD9
330
1F
100
AcDbEntity
  8
AM_6
100
AcDbMText
 10
-505.000000000001
 20
-5587.000000000239
 30
0.0
 40
6.4
 41
32.0
 71
     5
 72
     5
  1
kgf
 73
     1
 44
1.0
1001
ACAD
1000
MTEXTBEGIN
1070
    73
1070
     1
1070
    44
1040
1.0
1070
    74
1070
     0
1000
MTEXTEND
  0
LINE
  5
A7FDA
330
1F
100
AcDbEntity
  8
AM_5
100
AcDbLine
 10
-521.000000000001
 20
-5579.000000000135
 30
0.0
 11
-521.0000000000015
 21
-5691.000000000134
 31
0.0
  0
LINE
  5
A7FDB
330
1F
100
AcDbEntity
  8
AM_5
100
AcDbLine
 10
-489.000000000001
 20
-5563.000000000045
 30
0.0
 11
-489.000000000001
 21
-5691.000000000134
 31
0.0
  0
MTEXT
  5
A7FDC
330
1F
100
AcDbEntity
  8
AM_6
100
AcDbMText
 10
-537.000000000001
 20
-5627.000000000135
 30
0.0
 40
6.4
 41
32.0
 71
     5
 72
     5
  1
9800
 73
     1
 44
1.0
1001
ACAD
1000
MTEXTBEGIN
1070
    73
1070
     1
1070
    44
1040
1.0
1070
    74
1070
     0
1000
MTEXTEND
  0
MTEXT
  5
A7FDD
330
1F
100
AcDbEntity
  8
AM_6
100
AcDbMText
 10
-521.000000000001
 20
-5571.000000000066
 30
0.0
 40
6.4
 41
64.0
 71
     5
 72
     5
  1
最大荷重（1ヶ）
 73
     1
 44
1.0
1001
ACAD
1000
MTEXTBEGIN
1070
    73
1070
     1
1070
    44
1040
1.0
1070
    74
1070
     0
1000
MTEXTEND
  0
MTEXT
  5
A7FDE
330
1F
100
AcDbEntity
  8
AM_6
100
AcDbMText
 10
-505.000000000001
 20
-5627.000000000134
 30
0.0
 40
6.4
 41
32.0
 71
     5
 72
     5
  1
1000
 73
     1
 44
1.0
1001
ACAD
1000
MTEXTBEGIN
1070
    73
1070
     1
1070
    44
1040
1.0
1070
    74
1070
     0
1000
MTEXTEND
  0
LINE
  5
A7FDF
330
1F
100
AcDbEntity
  8
AM_5
100
AcDbLine
 10
-553.000000000001
 20
-5579.000000000135
 30
0.0
 11
-489.000000000001
 21
-5579.000000000135
 31
0.0
  0
LINE
  5
A7FE0
330
1F
100
AcDbEntity
  8
AM_0
100
AcDbLine
 10
-713.0000000000351
 20
-5691.000000000133
 30
0.0
 11
-713.0000000000356
 21
-5563.000000000245
 31
0.0
  0
MTEXT
  5
A7FE1
330
1F
100
AcDbEntity
  8
AM_6
100
AcDbMText
 10
-697.0000000000355
 20
-5627.000000000135
 30
0.0
 40
6.4
 41
32.0
 71
     5
 72
     5
  1
自在
 73
     1
 44
1.0
1001
ACAD
1000
MTEXTBEGIN
1070
    73
1070
     1
1070
    44
1040
1.0
1070
    74
1070
     0
1000
MTEXTEND
  0
MTEXT
  5
A7FE2
330
1F
100
AcDbEntity
  8
AM_6
100
AcDbMText
 10
-697.0000000000164
 20
-5675.000000000135
 30
0.0
 40
6.4
 41
32.0
 71
     5
 72
     5
  1
固定
 73
     1
 44
1.0
1001
ACAD
1000
MTEXTBEGIN
1070
    73
1070
     1
1070
    44
1040
1.0
1070
    74
1070
     0
1000
MTEXTEND
  0
MTEXT
  5
A7FE3
330
1F
100
AcDbEntity
  8
AM_6
100
AcDbMText
 10
-648.9999999999837
 20
-5635.000000000137
 30
0.0
 40
6.4
 41
64.0
 71
     5
 72
     5
  1
DHJ-100U-MC
 73
     1
 44
1.0
1001
ACAD
1000
MTEXTBEGIN
1070
    73
1070
     1
1070
    44
1040
1.0
1070
    74
1070
     0
1000
MTEXTEND
  0
MTEXT
  5
A7FE4
330
1F
100
AcDbEntity
  8
AM_6
100
AcDbMText
 10
-649.0000000000128
 20
-5619.000000000136
 30
0.0
 40
6.4
 41
64.0
 71
     5
 72
     5
  1
DHJB-80U-MC
 73
     1
 44
1.0
1001
ACAD
1000
MTEXTBEGIN
1070
    73
1070
     1
1070
    44
1040
1.0
1070
    74
1070
     0
1000
MTEXTEND
  0
MTEXT
  5
A7FE5
330
1F
100
AcDbEntity
  8
AM_6
100
AcDbMText
 10
-648.9999999999646
 20
-5651.000000000138
 30
0.0
 40
6.4
 41
64.0
 71
     5
 72
     5
  1
DHJB-100U-MC
 73
     1
 44
1.0
1001
ACAD
1000
MTEXTBEGIN
1070
    73
1070
     1
1070
    44
1040
1.0
1070
    74
1070
     0
1000
MTEXTEND
  0
MTEXT
  5
A7FE6
330
1F
100
AcDbEntity
  8
AM_6
100
AcDbMText
 10
-648.9999999999473
 20
-5667.000000000133
 30
0.0
 40
6.4
 41
64.0
 71
     5
 72
     5
  1
DHK-80U-MC
 73
     1
 44
1.0
1001
ACAD
1000
MTEXTBEGIN
1070
    73
1070
     1
1070
    44
1040
1.0
1070
    74
1070
     0
1000
MTEXTEND
  0
MTEXT
  5
A7FE7
330
1F
100
AcDbEntity
  8
AM_6
100
AcDbMText
 10
-648.9999999999301
 20
-5683.000000000134
 30
0.0
 40
6.4
 41
64.0
 71
     5
 72
     5
  1
DHK-100U-MC
 73
     1
 44
1.0
1001
ACAD
1000
MTEXTBEGIN
1070
    73
1070
     1
1070
    44
1040
1.0
1070
    74
1070
     0
1000
MTEXTEND
  0
MTEXT
  5
A7FE8
330
1F
100
AcDbEntity
  8
AM_6
100
AcDbMText
 10
-600.9999999999819
 20
-5667.000000000104
 30
0.0
 40
6.4
 41
32.0
 71
     5
 72
     5
  1
80
 73
     1
 44
1.0
1001
ACAD
1000
MTEXTBEGIN
1070
    73
1070
     1
1070
    44
1040
1.0
1070
    74
1070
     0
1000
MTEXTEND
  0
MTEXT
  5
A7FE9
330
1F
100
AcDbEntity
  8
AM_6
100
AcDbMText
 10
-600.9999999999819
 20
-5683.000000000105
 30
0.0
 40
6.4
 41
32.0
 71
     5
 72
     5
  1
100
 73
     1
 44
1.0
1001
ACAD
1000
MTEXTBEGIN
1070
    73
1070
     1
1070
    44
1040
1.0
1070
    74
1070
     0
1000
MTEXTEND
  0
MTEXT
  5
A7FEA
330
1F
100
AcDbEntity
  8
AM_6
100
AcDbMText
 10
-472.9999999999559
 20
-5667.000000000072
 30
0.0
 40
6.4
 41
32.0
 71
     5
 72
     5
  1
140
 73
     1
 44
1.0
1001
ACAD
1000
MTEXTBEGIN
1070
    73
1070
     1
1070
    44
1040
1.0
1070
    74
1070
     0
1000
MTEXTEND
  0
MTEXT
  5
A7FEB
330
1F
100
AcDbEntity
  8
AM_6
100
AcDbMText
 10
-472.9999999999559
 20
-5683.000000000073
 30
0.0
 40
6.4
 41
32.0
 71
     5
 72
     5
  1
150
 73
     1
 44
1.0
1001
ACAD
1000
MTEXTBEGIN
1070
    73
1070
     1
1070
    44
1040
1.0
1070
    74
1070
     0
1000
MTEXTEND
  0
MTEXT
  5
A7FEC
330
1F
100
AcDbEntity
  8
AM_6
100
AcDbMText
 10
-568.9999999999819
 20
-5675.000000000104
 30
0.0
 40
6.4
 41
32.0
 71
     5
 72
     5
  1
40
 73
     1
 44
1.0
1001
ACAD
1000
MTEXTBEGIN
1070
    73
1070
     1
1070
    44
1040
1.0
1070
    74
1070
     0
1000
MTEXTEND
  0
MTEXT
  5
A7FED
330
1F
100
AcDbEntity
  8
AM_6
100
AcDbMText
 10
-432.9999999999691
 20
-5675.000000000104
 30
0.0
 40
6.4
 41
47.99999999997408
 71
     5
 72
     5
  1
85 ×85
 73
     1
 44
1.0
1001
ACAD
1000
MTEXTBEGIN
1070
    73
1070
     1
1070
    44
1040
1.0
1070
    74
1070
     0
1000
MTEXTEND
  0
MTEXT
  5
A7FEE
330
1F
100
AcDbEntity
  8
AM_6
100
AcDbMText
 10
-384.999999999969
 20
-5675.000000000103
 30
0.0
 40
6.4
 41
47.99999999997408
 71
     5
 72
     5
  1
112 ×112
 73
     1
 44
1.0
1001
ACAD
1000
MTEXTBEGIN
1070
    73
1070
     1
1070
    44
1040
1.0
1070
    74
1070
     0
1000
MTEXTEND
  0
MTEXT
  5
A7FEF
330
1F
100
AcDbEntity
  8
AM_6
100
AcDbMText
 10
-344.999999999956
 20
-5675.000000000104
 30
0.0
 40
6.4
 41
32.0
 71
     5
 72
     5
  1
11
 73
     1
 44
1.0
1001
ACAD
1000
MTEXTBEGIN
1070
    73
1070
     1
1070
    44
1040
1.0
1070
    74
1070
     0
1000
MTEXTEND
  0
MTEXT
  5
A7FF0
330
1F
100
AcDbEntity
  8
AM_6
100
AcDbMText
 10
-312.999999999956
 20
-5675.000000000104
 30
0.0
 40
6.4
 41
32.0
 71
     5
 72
     5
  1
-
 73
     1
 44
1.0
1001
ACAD
1000
MTEXTBEGIN
1070
    73
1070
     1
1070
    44
1040
1.0
1070
    74
1070
     0
1000
MTEXTEND
  0
MTEXT
  5
A7FF1
330
1F
100
AcDbEntity
  8
AM_6
100
AcDbMText
 10
-536.9999999999818
 20
-5675.000000000104
 30
0.0
 40
6.4
 41
32.0
 71
     5
 72
     5
  1
9800
 73
     1
 44
1.0
1001
ACAD
1000
MTEXTBEGIN
1070
    73
1070
     1
1070
    44
1040
1.0
1070
    74
1070
     0
1000
MTEXTEND
  0
MTEXT
  5
A7FF2
330
1F
100
AcDbEntity
  8
AM_6
100
AcDbMText
 10
-504.9999999999819
 20
-5675.000000000103
 30
0.0
 40
6.4
 41
32.0
 71
     5
 72
     5
  1
1000
 73
     1
 44
1.0
1001
ACAD
1000
MTEXTBEGIN
1070
    73
1070
     1
1070
    44
1040
1.0
1070
    74
1070
     0
1000
MTEXTEND
  0
LINE
  5
A9C83
330
1F
100
AcDbEntity
  8
AM_0
100
AcDbLine
 10
-1090.999999999994
 20
-5659.0
 30
0.0
 11
-895.0000000000017
 21
-5659.0
 31
0.0
  0
MTEXT
  5
A9C84
330
1F
100
AcDbEntity
  8
AM_6
100
AcDbMText
 10
-1071.000000000003
 20
-5651.0
 30
0.0
 40
6.4
 41
40.0
 71
     5
 72
     5
  1
備　考
 73
     1
 44
1.0
1001
ACAD
1000
MTEXTBEGIN
1070
    73
1070
     1
1070
    44
1040
1.0
1070
    74
1070
     0
1000
MTEXTEND
  0
ENDSEC
  0
SECTION
  2
OBJECTS
  0
DICTIONARY
  5
C
330
0
100
AcDbDictionary
281
     1
  3
ACAD_2007HEADERVARS_RT
350
AB116
  3
ACAD_BGPLOT_KEY
350
AB06
  3
ACAD_COLOR
350
A91D
  3
ACAD_GROUP
350
D
  3
ACAD_LAYOUT
350
1A
  3
ACAD_MATERIAL
350
A91C
  3
ACAD_MLINESTYLE
350
17
  3
ACAD_PLOTSETTINGS
350
19
  3
ACAD_PLOTSTYLENAME
350
E
  3
ACAD_TABLESTYLE
350
AAB9
  3
ACAD_VISUALSTYLE
350
B0F1
  3
AcAsAppObject
350
3DA1
  3
ACASGREF_MASTER
350
3DE9
  3
AcDbVariableDictionary
350
34
  3
AcmDictionary
350
47
  3
AD_GREF_MODULE
350
3DEA
  3
AD_MAPI_MODULE
350
3E06
  3
AMG
350
2B
  3
AMGSNAPSETTINGS
350
7D
  3
ASE_INDEX_DICTIONARY
350
AA8D8
  3
DWGPROPS
350
AB115
  3
MAPISURF_MODULE
350
3DEB
  0
DICTIONARY
  5
3F95
330
2
100
AcDbDictionary
280
     1
281
     1
  3
ACAD_LAYERFILTERS
360
B466
  3
ACAD_LAYERSTATES
360
3F96
  3
ACLYDICTIONARY
360
B465
  3
AMLAYER_GROUPCOLORS
360
AAB4
  0
DICTIONARY
  5
8A
330
1F
100
AcDbDictionary
280
     1
281
     1
  3
ACAD_SORTENTS
360
B1BA
  0
DICTIONARY
  5
AB116
102
{ACAD_REACTORS
330
C
102
}
330
C
100
AcDbDictionary
281
     1
  3
DIMARCSYM
350
AB117
  0
DICTIONARY
  5
AB06
102
{ACAD_REACTORS
330
C
102
}
330
C
100
AcDbDictionary
280
     1
281
     1
  0
DICTIONARY
  5
A91D
102
{ACAD_REACTORS
330
C
102
}
330
C
100
AcDbDictionary
281
     1
  0
DICTIONARY
  5
D
102
{ACAD_REACTORS
330
C
102
}
330
C
100
AcDbDictionary
281
     1
  0
DICTIONARY
  5
1A
102
{ACAD_REACTORS
330
C
102
}
330
C
100
AcDbDictionary
281
     1
  3
Model
350
22
  3
ﾚｲｱｳﾄ1
350
1E
  3
ﾚｲｱｳﾄ2
350
26
  0
DICTIONARY
  5
A91C
102
{ACAD_REACTORS
330
C
102
}
330
C
100
AcDbDictionary
281
     1
  3
ByBlock
350
B0EF
  3
ByLayer
350
B0EE
  3
Global
350
B0F0
  0
DICTIONARY
  5
17
102
{ACAD_REACTORS
330
C
102
}
330
C
100
AcDbDictionary
281
     1
  3
Standard
350
18
  0
DICTIONARY
  5
19
102
{ACAD_REACTORS
330
C
102
}
330
C
100
AcDbDictionary
281
     1
  0
ACDBDICTIONARYWDFLT
  5
E
102
{ACAD_REACTORS
330
C
102
}
330
C
100
AcDbDictionary
281
     1
  3
Normal
350
F
100
AcDbDictionaryWithDefault
340
F
  0
DICTIONARY
  5
AAB9
102
{ACAD_REACTORS
330
C
102
}
330
C
100
AcDbDictionary
281
     1
  3
Standard
350
AABA
  0
DICTIONARY
  5
B0F1
102
{ACAD_REACTORS
330
C
102
}
330
C
100
AcDbDictionary
281
     1
  3
2dWireframe
350
B0F7
  3
3D Hidden
350
B0F9
  3
3dWireframe
350
B0F8
  3
Basic
350
B0F6
  3
Brighten
350
B0FD
  3
ColorChange
350
B101
  3
Conceptual
350
B0FA
  3
Dim
350
B0FC
  3
Facepattern
350
B100
  3
Flat
350
B0F2
  3
FlatWithEdges
350
B0F3
  3
Gouraud
350
B0F4
  3
GouraudWithEdges
350
B0F5
  3
Linepattern
350
B0FF
  3
Realistic
350
B0FB
  3
Thicken
350
B0FE
  0
ACAD_PROXY_OBJECT
  5
3DA1
102
{ACAD_REACTORS
330
C
102
}
330
C
100
AcDbProxyObject
 90
      499
 91
      576
 95
   917527
 70
     0
 93
       10
310
407F
 94
        0
1001
ACAD
1000
AcRTDxfName
1000
ASAPP
  0
ACAD_PROXY_OBJECT
  5
3DE9
102
{ACAD_REACTORS
330
C
102
}
330
C
100
AcDbProxyObject
 90
      499
 91
      581
 95
   917527
 70
     0
 93
       34
310
010000407F
 94
        0
1001
ACAD
1000
AcRTDxfName
1000
ACASGREFMASTER
  0
DICTIONARY
  5
34
102
{ACAD_REACTORS
330
C
102
}
330
C
100
AcDbDictionary
281
     1
  3
CTABLESTYLE
350
AAF3
  3
DIMASSOC
350
A10C
  3
FIELDEVAL
350
AB07
  3
INDEXCTL
350
35
  3
SORTENTS
350
194C
  0
DICTIONARY
  5
47
102
{ACAD_REACTORS
330
C
102
}
330
C
100
AcDbDictionary
281
     1
  3
AcmBOM
350
7E8
  3
AcmStdDictionary
350
4C
  3
AMDTSECTSYM_ARROWCOLOR
350
A929
  0
ACAD_PROXY_OBJECT
  5
3DEA
102
{ACAD_REACTORS
330
C
102
}
330
C
100
AcDbProxyObject
 90
      499
 91
      582
 95
   917527
 70
     0
 93
      114
310
00000043800000000000000000003F
 94
        0
1001
ACAD
1000
AcRTDxfName
1000
ACADGREFMODULE
  0
ACAD_PROXY_OBJECT
  5
3E06
102
{ACAD_REACTORS
330
C
102
}
330
C
100
AcDbProxyObject
 90
      499
 91
      594
 95
   917527
 70
     0
 93
       34
310
05000044FF
 94
        0
1001
ACAD
1000
AcRTDxfName
1000
MAPIADMODULE
  0
DICTIONARY
  5
2B
102
{ACAD_REACTORS
330
C
102
}
330
C
100
AcDbDictionary
281
     1
  0
DICTIONARY
  5
7D
102
{ACAD_REACTORS
330
C
102
}
330
C
100
AcDbDictionary
281
     1
  0
DICTIONARY
  5
AA8D8
102
{ACAD_REACTORS
330
C
102
}
330
C
100
AcDbDictionary
281
     1
  3
ASEBlockHierarchyIndexRecord
350
AA8D9
1001
DCO15
1040
1749812023.093
  0
XRECORD
  5
AB115
102
{ACAD_REACTORS
330
C
102
}
330
C
100
AcDbXrecord
280
     1
  1
DWGPROPS COOKIE
  2

  3

  4

  6

  7

  8
Administrator
  9

300
AmdtFileType=84
301
=
302
=
303
=
304
=
305
=
306
=
307
=
308
=
309
=
 40
3.16369755787037
 41
2455567.561054317
 42
2456267.575867871
  1

 90
        1
  0
ACAD_PROXY_OBJECT
  5
3DEB
102
{ACAD_REACTORS
330
C
102
}
330
C
100
AcDbProxyObject
 90
      499
 91
      583
 95
   917527
 70
     0
 93
        8
310
047E
 94
        0
1001
ACAD
1000
AcRTDxfName
1000
AMDTMAPISURFMOUDULE
  0
DICTIONARY
  5
B466
102
{ACAD_REACTORS
330
3F95
102
}
330
3F95
100
AcDbDictionary
281
     1
  0
DICTIONARY
  5
3F96
102
{ACAD_REACTORS
330
3F95
102
}
330
3F95
100
AcDbDictionary
281
     1
  3
20011210
350
3FB7
  0
DICTIONARY
  5
B465
102
{ACAD_REACTORS
330
3F95
102
}
330
3F95
100
AcDbDictionary
281
     1
1001
ACAD
1000
<All
  0
DICTIONARY
  5
AAB4
102
{ACAD_REACTORS
330
3F95
102
}
330
3F95
100
AcDbDictionary
280
     1
281
     1
  0
SORTENTSTABLE
  5
B1BA
102
{ACAD_REACTORS
330
8A
102
}
330
8A
100
AcDbSortentsTable
330
1F
331
A7D94
  5
A7D94
331
A7D1E
  5
A7D1E
331
A7CE7
  5
A7CE7
331
A7D5D
  5
A7D5D
331
A7CA8
  5
A7CA8
331
A7CB0
  5
A7CB0
331
A7CEF
  5
A7CEF
331
A7D26
  5
A7D26
331
A7D65
  5
A7D65
331
A7D9C
  5
A7D9C
331
A7DA4
  5
A7DA4
331
A7CB8
  5
A7CB8
331
A7CF7
  5
A7CF7
331
A7D2E
  5
A7D2E
331
A7D6D
  5
A7D6D
331
A7D36
  5
A7D36
331
A7DAC
  5
A7DAC
331
A7FE2
  5
A7FE2
331
A7FA3
  5
A7FA3
331
A7FEA
  5
A7FEA
331
A7FAB
  5
A7FAB
331
A7FF2
  5
A7FF2
331
A7FB3
  5
A7FB3
331
A7FBB
  5
A7FBB
331
A7CC0
  5
A7CC0
331
A7D75
  5
A7D75
331
A7CC8
  5
A7CC8
331
A7C89
  5
A7C89
331
A7CFF
  5
A7CFF
331
A7D3E
  5
A7D3E
331
A7DB4
  5
A7DB4
331
A7D46
  5
A7D46
331
A7C91
  5
A7C91
331
A7CD0
  5
A7CD0
331
A7D07
  5
A7D07
331
A7D7D
  5
A7D7D
331
A7D4E
  5
A7D4E
331
A7D0F
  5
A7D0F
331
A7D85
  5
A7D85
331
A7C99
  5
A7C99
331
A7CD8
  5
A7CD8
331
A7D8D
  5
A7D8D
331
A7D17
  5
A7D17
331
A7D56
  5
A7D56
331
A7FC3
  5
A7FC3
331
A7FCB
  5
A7FCB
331
A7F9C
  5
A7F9C
331
A7FD3
  5
A7FD3
331
A7FDB
  5
A7FDB
331
A7CE0
  5
A7CE0
331
A7CA1
  5
A7CA1
331
A7D5E
  5
A7D5E
331
A7CA9
  5
A7CA9
331
A7CE8
  5
A7CE8
331
A7D1F
  5
A7D1F
331
A7D95
  5
A7D95
331
A7CB1
  5
A7CB1
331
A7CF0
  5
A7CF0
331
A7D27
  5
A7D27
331
A7D66
  5
A7D66
331
A7D9D
  5
A7D9D
331
A7CB9
  5
A7CB9
331
A7D2F
  5
A7D2F
331
A7D6E
  5
A7D6E
331
A7DA5
  5
A7DA5
331
A7D37
  5
A7D37
331
A7DAD
  5
A7DAD
331
A7FE3
  5
A7FE3
331
A7FA4
  5
A7FA4
331
A7FEB
  5
A7FEB
331
A7FAC
  5
A7FAC
331
A7FB4
  5
A7FB4
331
A7FBC
  5
A7FBC
331
A7CF8
  5
A7CF8
331
A7CC1
  5
A7CC1
331
A7DB5
  5
A7DB5
331
A7D3F
  5
A7D3F
331
A7CC9
  5
A7CC9
331
A7C8A
  5
A7C8A
331
A7D00
  5
A7D00
331
A7D76
  5
A7D76
331
A7D7E
  5
A7D7E
331
A7D08
  5
A7D08
331
A7C92
  5
A7C92
331
A7CD1
  5
A7CD1
331
A7D47
  5
A7D47
331
A7D86
  5
A7D86
331
A7D4F
  5
A7D4F
331
A7CD9
  5
A7CD9
331
A7C9A
  5
A7C9A
331
A7D10
  5
A7D10
331
A7D8E
  5
A7D8E
331
A7D57
  5
A7D57
331
A7FC4
  5
A7FC4
331
A7FCC
  5
A7FCC
331
A7F9D
  5
A7F9D
331
A7FD4
  5
A7FD4
331
A7FDC
  5
A7FDC
331
A7D18
  5
A7D18
331
A7CA2
  5
A7CA2
331
A7CE1
  5
A7CE1
331
A7D5F
  5
A7D5F
331
A7CAA
  5
A7CAA
331
A7CE9
  5
A7CE9
331
A7D20
  5
A7D20
331
A7D96
  5
A7D96
331
A7CF1
  5
A7CF1
331
A7D28
  5
A7D28
331
A7D67
  5
A7D67
331
A7D9E
  5
A7D9E
331
A7CB2
  5
A7CB2
331
A7CBA
  5
A7CBA
331
A7D30
  5
A7D30
331
A7D6F
  5
A7D6F
331
A7DA6
  5
A7DA6
331
A7DAE
  5
A7DAE
331
A7FA5
  5
A7FA5
331
A7FE4
  5
A7FE4
331
A7FEC
  5
A7FEC
331
A7FAD
  5
A7FAD
331
A7FB5
  5
A7FB5
331
A7FBD
  5
A7FBD
331
A7CF9
  5
A7CF9
331
A7CC2
  5
A7CC2
331
A7D38
  5
A7D38
331
A7D77
  5
A7D77
331
A7DB6
  5
A7DB6
331
A7D40
  5
A7D40
331
A7CCA
  5
A7CCA
331
A7C8B
  5
A7C8B
331
A7D01
  5
A7D01
331
A7D48
  5
A7D48
331
A7D7F
  5
A7D7F
331
A7CD2
  5
A7CD2
331
A7C93
  5
A7C93
331
A7D09
  5
A7D09
331
A7D87
  5
A7D87
331
A7D11
  5
A7D11
331
A7C9B
  5
A7C9B
331
A7CDA
  5
A7CDA
331
A7D50
  5
A7D50
331
A7D8F
  5
A7D8F
331
A7FC5
  5
A7FC5
331
A7FCD
  5
A7FCD
331
A7F9E
  5
A7F9E
331
A7FD5
  5
A7FD5
331
A7FDD
  5
A7FDD
331
A7D58
  5
A7D58
331
A7CE2
  5
A7CE2
331
A7CA3
  5
A7CA3
331
A7D19
  5
A7D19
331
A7D60
  5
A7D60
331
A7D97
  5
A7D97
331
A7CAB
  5
A7CAB
331
A7CEA
  5
A7CEA
331
A7D21
  5
A7D21
331
A7CB3
  5
A7CB3
331
A7CF2
  5
A7CF2
331
A7D29
  5
A7D29
331
A7D68
  5
A7D68
331
A7D9F
  5
A7D9F
331
A7CBB
  5
A7CBB
331
A7D31
  5
A7D31
331
A7DA7
  5
A7DA7
331
A7DAF
  5
A7DAF
331
A7FA6
  5
A7FA6
331
A7FE5
  5
A7FE5
331
A7FED
  5
A7FED
331
A7FAE
  5
A7FAE
331
A7FB6
  5
A7FB6
331
A7FBE
  5
A7FBE
331
A7D39
  5
A7D39
331
A7CC3
  5
A7CC3
331
A7CFA
  5
A7CFA
331
A7D70
  5
A7D70
331
A7D41
  5
A7D41
331
A7CCB
  5
A7CCB
331
A7C8C
  5
A7C8C
331
A7D02
  5
A7D02
331
A7D78
  5
A7D78
331
A7DB7
  5
A7DB7
331
A7D80
  5
A7D80
331
A7D0A
  5
A7D0A
331
A7CD3
  5
A7CD3
331
A7D49
  5
A7D49
331
A7C94
  5
A7C94
331
A7D51
  5
A7D51
331
A7D12
  5
A7D12
331
A7D88
  5
A7D88
331
A7C9C
  5
A7C9C
331
A7CDB
  5
A7CDB
331
A7FC6
  5
A7FC6
331
A7FCE
  5
A7FCE
331
A7F9F
  5
A7F9F
331
A7FD6
  5
A7FD6
331
A7FDE
  5
A7FDE
331
A7D90
  5
A7D90
331
A7D59
  5
A7D59
331
A7CE3
  5
A7CE3
331
A7CA4
  5
A7CA4
331
A7D1A
  5
A7D1A
331
A7CAC
  5
A7CAC
331
A7CEB
  5
A7CEB
331
A7D22
  5
A7D22
331
A7D61
  5
A7D61
331
A7D98
  5
A7D98
331
A7CB4
  5
A7CB4
331
A7CF3
  5
A7CF3
331
A7D2A
  5
A7D2A
331
A7D69
  5
A7D69
331
A7DA0
  5
A7DA0
331
A7CBC
  5
A7CBC
331
A7D32
  5
A7D32
331
A7DA8
  5
A7DA8
331
A7FE6
  5
A7FE6
331
A7FA7
  5
A7FA7
331
A7FEE
  5
A7FEE
331
A7FAF
  5
A7FAF
331
A7FB7
  5
A7FB7
331
A7FBF
  5
A7FBF
331
A7D71
  5
A7D71
331
A7CFB
  5
A7CFB
331
A7CC4
  5
A7CC4
331
A7D3A
  5
A7D3A
331
A7DB0
  5
A7DB0
331
A7D42
  5
A7D42
331
A7CCC
  5
A7CCC
331
A7C8D
  5
A7C8D
331
A7D03
  5
A7D03
331
A7D79
  5
A7D79
331
A7D81
  5
A7D81
331
A7D0B
  5
A7D0B
331
A7C95
  5
A7C95
331
A7CD4
  5
A7CD4
331
A7D4A
  5
A7D4A
331
A7D52
  5
A7D52
331
A7CDC
  5
A7CDC
331
A7C9D
  5
A7C9D
331
A7D13
  5
A7D13
331
A7D89
  5
A7D89
331
7AC05
  5
7BAAD
331
A7FC7
  5
A7FC7
331
A7FCF
  5
A7FCF
331
A7FD7
  5
A7FD7
331
A7FDF
  5
A7FDF
331
A7D91
  5
A7D91
331
A7D1B
  5
A7D1B
331
A7CA5
  5
A7CA5
331
A7CE4
  5
A7CE4
331
A7D5A
  5
A7D5A
331
A7CAD
  5
A7CAD
331
A7CEC
  5
A7CEC
331
A7D23
  5
A7D23
331
A7D62
  5
A7D62
331
A7D99
  5
A7D99
331
A7D2B
  5
A7D2B
331
A7D6A
  5
A7D6A
331
A7DA1
  5
A7DA1
331
A7CB5
  5
A7CB5
331
A7CF4
  5
A7CF4
331
A7CBD
  5
A7CBD
331
A7D33
  5
A7D33
331
A7DA9
  5
A7DA9
331
A7FA0
  5
A7FA0
331
A7FA8
  5
A7FA8
331
A7FE7
  5
A7FE7
331
A7FEF
  5
A7FEF
331
A7FB0
  5
A7FB0
331
A7FB8
  5
A7FB8
331
A7DB1
  5
A7DB1
331
A7D72
  5
A7D72
331
A7CFC
  5
A7CFC
331
A7C86
  5
A7C86
331
A7CC5
  5
A7CC5
331
A7D3B
  5
A7D3B
331
A7D43
  5
A7D43
331
A7CCD
  5
A7CCD
331
A7C8E
  5
A7C8E
331
A7D04
  5
A7D04
331
A7D7A
  5
A7D7A
331
A7D4B
  5
A7D4B
331
A7CD5
  5
A7CD5
331
A7C96
  5
A7C96
331
A7D0C
  5
A7D0C
331
A7D82
  5
A7D82
331
A7D8A
  5
A7D8A
331
A7D14
  5
A7D14
331
A7CDD
  5
A7CDD
331
A7D53
  5
A7D53
331
A7C9E
  5
A7C9E
331
7AC06
  5
7BAAE
331
A7FC0
  5
A7FC0
331
A7FC8
  5
A7FC8
331
A7FD0
  5
A7FD0
331
A7FD8
  5
A7FD8
331
A7D5B
  5
A7D5B
331
A7D1C
  5
A7D1C
331
A7D92
  5
A7D92
331
A7CA6
  5
A7CA6
331
A7CE5
  5
A7CE5
331
A7CAE
  5
A7CAE
331
A7CED
  5
A7CED
331
A7D24
  5
A7D24
331
A7D63
  5
A7D63
331
A7D9A
  5
A7D9A
331
A7CB6
  5
A7CB6
331
A7CF5
  5
A7CF5
331
A7D2C
  5
A7D2C
331
A7D6B
  5
A7D6B
331
A7DA2
  5
A7DA2
331
A7CBE
  5
A7CBE
331
A7D34
  5
A7D34
331
A7DAA
  5
A7DAA
331
A7FE0
  5
A7FE0
331
A7FA1
  5
A7FA1
331
A7FE8
  5
A7FE8
331
A7FA9
  5
A7FA9
331
A7FB1
  5
A7FB1
331
A7FF0
  5
A7FF0
331
A7FB9
  5
A7FB9
331
A7DB2
  5
A7DB2
331
A7D3C
  5
A7D3C
331
A7CC6
  5
A7CC6
331
A7C87
  5
A7C87
331
A7CFD
  5
A7CFD
331
A7D73
  5
A7D73
331
A7D44
  5
A7D44
331
A7D05
  5
A7D05
331
A7D7B
  5
A7D7B
331
A7C8F
  5
A7C8F
331
A7CCE
  5
A7CCE
331
A7D83
  5
A7D83
331
A7D4C
  5
A7D4C
331
A7CD6
  5
A7CD6
331
A7C97
  5
A7C97
331
A7D0D
  5
A7D0D
331
A7D8B
  5
A7D8B
331
A7D15
  5
A7D15
331
A7C9F
  5
A7C9F
331
A7CDE
  5
A7CDE
331
A7D54
  5
A7D54
331
A7FC1
  5
A7FC1
331
A7FC9
  5
A7FC9
331
A7FD1
  5
A7FD1
331
A7FD9
  5
A7FD9
331
A7D93
  5
A7D93
331
A7D5C
  5
A7D5C
331
A7CE6
  5
A7CE6
331
A7CA7
  5
A7CA7
331
A7D1D
  5
A7D1D
331
A7CAF
  5
A7CAF
331
A7CEE
  5
A7CEE
331
A7D25
  5
A7D25
331
A7D64
  5
A7D64
331
A7D9B
  5
A7D9B
331
A7CB7
  5
A7CB7
331
A7CF6
  5
A7CF6
331
A7D2D
  5
A7D2D
331
A7D6C
  5
A7D6C
331
A7DA3
  5
A7DA3
331
A7D35
  5
A7D35
331
A7DAB
  5
A7DAB
331
A7CBF
  5
A7CBF
331
A7FA2
  5
A7FA2
331
A7FE1
  5
A7FE1
331
A7FE9
  5
A7FE9
331
A7FAA
  5
A7FAA
331
A7FF1
  5
A7FF1
331
A7FB2
  5
A7FB2
331
A7FBA
  5
A7FBA
331
A7D74
  5
A7D74
331
A7CFE
  5
A7CFE
331
A7CC7
  5
A7CC7
331
A7D3D
  5
A7D3D
331
A7DB3
  5
A7DB3
331
A7D45
  5
A7D45
331
A7CCF
  5
A7CCF
331
A7D06
  5
A7D06
331
A7D7C
  5
A7D7C
331
A7C90
  5
A7C90
331
A7D84
  5
A7D84
331
A7D0E
  5
A7D0E
331
A7C98
  5
A7C98
331
A7CD7
  5
A7CD7
331
A7D4D
  5
A7D4D
331
A7D55
  5
A7D55
331
A7CDF
  5
A7CDF
331
A7D16
  5
A7D16
331
A7D8C
  5
A7D8C
331
A7FC2
  5
A7FC2
331
A7FCA
  5
A7FCA
331
A7F9B
  5
A7F9B
331
A7FD2
  5
A7FD2
331
A7FDA
  5
A7FDA
331
A7CA0
  5
A7CA0
  0
XRECORD
  5
AB117
102
{ACAD_REACTORS
330
AB116
102
}
330
AB116
100
AcDbXrecord
280
     1
 70
     1
  0
LAYOUT
  5
22
102
{ACAD_XDICTIONARY
360
AB11A
102
}
102
{ACAD_REACTORS
330
1A
102
}
330
1A
100
AcDbPlotSettings
  1

  2
Adobe PDF
  4
A3
  6

 40
3.174999952316284
 41
3.174999952316284
 42
3.17498779296875
 43
3.17498779296875
 44
297.0318298339844
 45
420.1583251953125
 46
-3.159078955650329
 47
-3.095831274986295
 48
-1114.000000000001
 49
-6140.0
140
-274.000000000001
141
-5546.0
142
1.0
143
2.0
 70
  3748
 72
     1
 73
     1
 74
     4
  7
monochrome.ctb
 75
     0
147
0.4848174396015349
148
1114.000000000001
149
6140.0
100
AcDbLayout
  1
Model
 70
     1
 71
     0
 10
0.0
 20
0.0
 11
12.0
 21
9.0
 12
0.0
 22
0.0
 32
0.0
 14
0.0
 24
0.0
 34
0.0
 15
0.0
 25
0.0
 35
0.0
146
0.0
 13
0.0
 23
0.0
 33
0.0
 16
1.0
 26
0.0
 36
0.0
 17
0.0
 27
1.0
 37
0.0
 76
     0
330
1F
331
B0EC
1001
ACAD_PSEXT
1000
Adobe PDF
1000
Adobe PDF Converter
1000
My Documents\*.pdf
1000

1070
     0
  0
LAYOUT
  5
1E
102
{ACAD_XDICTIONARY
360
AB118
102
}
102
{ACAD_REACTORS
330
1A
102
}
330
1A
100
AcDbPlotSettings
  1

  2
\\ML370\XEROX
  4
A4
  6

 40
3.174999952316284
 41
3.174999952316284
 42
3.175003051757812
 43
3.17498779296875
 44
209.8674926757813
 45
296.6719970703125
 46
0.0
 47
0.0
 48
0.0
 49
0.0
140
0.0
141
0.0
142
1.0
143
1.0
 70
   688
 72
     1
 73
     1
 74
     5
  7
monochrome.ctb
 75
    16
147
1.0
148
0.0
149
0.0
100
AcDbLayout
  1
ﾚｲｱｳﾄ1
 70
     1
 71
     1
 10
-3.17498779296875
 20
-3.174999952316284
 11
293.4970092773438
 21
206.692492723465
 12
0.0
 22
0.0
 32
0.0
 14
1.000000000000000E+20
 24
1.000000000000000E+20
 34
1.000000000000000E+20
 15
-1.000000000000000E+20
 25
-1.000000000000000E+20
 35
-1.000000000000000E+20
146
0.0
 13
0.0
 23
0.0
 33
0.0
 16
1.0
 26
0.0
 36
0.0
 17
0.0
 27
1.0
 37
0.0
 76
     0
330
1B
  0
LAYOUT
  5
26
102
{ACAD_XDICTIONARY
360
AB11C
102
}
102
{ACAD_REACTORS
330
1A
102
}
330
1A
100
AcDbPlotSettings
  1

  2
\\ML370\XEROX
  4

  6

 40
0.0
 41
0.0
 42
0.0
 43
0.0
 44
0.0
 45
0.0
 46
0.0
 47
0.0
 48
0.0
 49
0.0
140
0.0
141
0.0
142
1.0
143
1.0
 70
   688
 72
     0
 73
     0
 74
     5
  7
monochrome.ctb
 75
    16
147
1.0
148
0.0
149
0.0
100
AcDbLayout
  1
ﾚｲｱｳﾄ2
 70
     1
 71
     2
 10
0.0
 20
0.0
 11
12.0
 21
9.0
 12
0.0
 22
0.0
 32
0.0
 14
0.0
 24
0.0
 34
0.0
 15
0.0
 25
0.0
 35
0.0
146
0.0
 13
0.0
 23
0.0
 33
0.0
 16
1.0
 26
0.0
 36
0.0
 17
0.0
 27
1.0
 37
0.0
 76
     0
330
23
  0
MATERIAL
  5
B0EF
102
{ACAD_XDICTIONARY
360
AB122
102
}
102
{ACAD_REACTORS
330
A91C
102
}
330
A91C
100
AcDbMaterial
  1
ByBlock
  0
MATERIAL
  5
B0EE
102
{ACAD_XDICTIONARY
360
AB120
102
}
102
{ACAD_REACTORS
330
A91C
102
}
330
A91C
100
AcDbMaterial
  1
ByLayer
  0
MATERIAL
  5
B0F0
102
{ACAD_XDICTIONARY
360
AB124
102
}
102
{ACAD_REACTORS
330
A91C
102
}
330
A91C
100
AcDbMaterial
  1
Global
  0
MLINESTYLE
  5
18
102
{ACAD_REACTORS
330
17
102
}
330
17
100
AcDbMlineStyle
  2
STANDARD
 70
     0
  3

 62
   256
 51
90.0
 52
90.0
 71
     2
 49
0.5
 62
   256
  6
BYLAYER
 49
-0.5
 62
   256
  6
BYLAYER
  0
ACDBPLACEHOLDER
  5
F
102
{ACAD_REACTORS
330
E
102
}
330
E
  0
TABLESTYLE
  5
AABA
102
{ACAD_XDICTIONARY
360
AB11E
102
}
102
{ACAD_REACTORS
330
AAB9
102
}
330
AAB9
100
AcDbTableStyle
  3
Standard
 70
     0
 71
     0
 40
1.5
 41
1.5
280
     0
281
     0
  7
STANDARD
140
4.5
170
     2
 62
     0
 63
     7
283
     0
274
    -2
284
     1
 64
     0
275
    -2
285
     1
 65
     0
276
    -2
286
     1
 66
     0
277
    -2
287
     1
 67
     0
278
    -2
288
     1
 68
     0
279
    -2
289
     1
 69
     0
  7
STANDARD
140
6.0
170
     5
 62
     0
 63
     7
283
     0
274
    -2
284
     1
 64
     0
275
    -2
285
     1
 65
     0
276
    -2
286
     1
 66
     0
277
    -2
287
     1
 67
     0
278
    -2
288
     1
 68
     0
279
    -2
289
     1
 69
     0
  7
STANDARD
140
4.5
170
     5
 62
     0
 63
     7
283
     0
274
    -2
284
     1
 64
     0
275
    -2
285
     1
 65
     0
276
    -2
286
     1
 66
     0
277
    -2
287
     1
 67
     0
278
    -2
288
     1
 68
     0
279
    -2
289
     1
 69
     0
  0
VISUALSTYLE
  5
B0F7
102
{ACAD_REACTORS
330
B0F1
102
}
330
B0F1
100
AcDbVisualStyle
  2
2dWireframe
 70
     4
 71
     0
 72
     2
 73
     0
 90
        0
 40
-0.6
 41
-30.0
 62
     5
 63
     7
 74
     1
 91
        4
 64
     7
 65
   257
 75
     1
175
     1
 42
1.0
 92
        0
 66
   257
 43
1.0
 76
     1
 77
     6
 78
     2
 67
     7
 79
     5
170
     0
171
     0
290
     0
174
     0
 93
        1
 44
0.0
173
     0
291
     0
 45
0.0
1001
ACAD
1000
AcDbSavedByObjectVersion
1070
     0
  0
VISUALSTYLE
  5
B0F9
102
{ACAD_REACTORS
330
B0F1
102
}
330
B0F1
100
AcDbVisualStyle
  2
3D Hidden
 70
     6
 71
     1
 72
     2
 73
     2
 90
        0
 40
-0.6
 41
-30.0
 62
     5
 63
     7
 74
     2
 91
        2
 64
     7
 65
   257
 75
     2
175
     1
 42
40.0
 92
        0
 66
   257
 43
1.0
 76
     1
 77
     6
 78
     2
 67
     7
 79
     3
170
     0
171
     0
290
     0
174
     0
 93
        1
 44
0.0
173
     0
291
     0
 45
0.0
1001
ACAD
1000
AcDbSavedByObjectVersion
1070
     0
  0
VISUALSTYLE
  5
B0F8
102
{ACAD_REACTORS
330
B0F1
102
}
330
B0F1
100
AcDbVisualStyle
  2
3dWireframe
 70
     5
 71
     0
 72
     2
 73
     0
 90
        0
 40
-0.6
 41
-30.0
 62
     5
 63
     7
 74
     1
 91
        4
 64
     7
 65
   257
 75
     1
175
     1
 42
1.0
 92
        0
 66
   257
 43
1.0
 76
     1
 77
     6
 78
     2
 67
     7
 79
     5
170
     0
171
     0
290
     0
174
     0
 93
        1
 44
0.0
173
     0
291
     0
 45
0.0
1001
ACAD
1000
AcDbSavedByObjectVersion
1070
     0
  0
VISUALSTYLE
  5
B0F6
102
{ACAD_REACTORS
330
B0F1
102
}
330
B0F1
100
AcDbVisualStyle
  2
Basic
 70
     7
 71
     1
 72
     0
 73
     1
 90
        0
 40
-0.6
 41
-30.0
 62
     5
 63
     7
 74
     0
 91
        4
 64
     7
 65
   257
 75
     1
175
     1
 42
1.0
 92
        8
 66
     7
 43
1.0
 76
     1
 77
     6
 78
     2
 67
     7
 79
     5
170
     0
171
     0
290
     0
174
     0
 93
        1
 44
0.0
173
     0
291
     1
 45
0.0
1001
ACAD
1000
AcDbSavedByObjectVersion
1070
     0
  0
VISUALSTYLE
  5
B0FD
102
{ACAD_REACTORS
330
B0F1
102
}
330
B0F1
100
AcDbVisualStyle
  2
Brighten
 70
    12
 71
     2
 72
     2
 73
     0
 90
        0
 40
-0.6
 41
-30.0
 62
     5
 63
     7
 74
     1
 91
        4
 64
     7
 65
   257
 75
     1
175
     1
 42
1.0
 92
        8
 66
     7
 43
1.0
 76
     1
 77
     6
 78
     2
 67
     7
 79
     5
170
     0
171
     0
290
     0
174
     0
 93
        1
 44
50.0
173
     0
291
     1
 45
0.0
1001
ACAD
1000
AcDbSavedByObjectVersion
1070
     0
  0
VISUALSTYLE
  5
B101
102
{ACAD_REACTORS
330
B0F1
102
}
330
B0F1
100
AcDbVisualStyle
  2
ColorChange
 70
    16
 71
     2
 72
     2
 73
     3
 90
        0
 40
-0.6
 41
-30.0
 62
     5
 63
     8
 74
     1
 91
        4
 64
     7
 65
   257
 75
     1
175
     1
 42
1.0
 92
        8
 66
     8
 43
1.0
 76
     1
 77
     6
 78
     2
 67
     7
 79
     5
170
     0
171
     0
290
     0
174
     0
 93
        1
 44
0.0
173
     0
291
     1
 45
0.0
1001
ACAD
1000
AcDbSavedByObjectVersion
1070
     0
  0
VISUALSTYLE
  5
B0FA
102
{ACAD_REACTORS
330
B0F1
102
}
330
B0F1
100
AcDbVisualStyle
  2
Conceptual
 70
     9
 71
     3
 72
     2
 73
     0
 90
        0
 40
-0.6
 41
-30.0
 62
     5
 63
     7
 74
     2
 91
        2
 64
     7
 65
   257
 75
     1
175
     1
 42
40.0
 92
        8
 66
     7
 43
1.0
 76
     1
 77
     6
 78
     2
 67
     7
 79
     3
170
     0
171
     0
290
     0
174
     0
 93
        1
 44
0.0
173
     0
291
     0
 45
0.0
1001
ACAD
1000
AcDbSavedByObjectVersion
1070
     0
  0
VISUALSTYLE
  5
B0FC
102
{ACAD_REACTORS
330
B0F1
102
}
330
B0F1
100
AcDbVisualStyle
  2
Dim
 70
    11
 71
     2
 72
     2
 73
     0
 90
        0
 40
-0.6
 41
-30.0
 62
     5
 63
     7
 74
     1
 91
        4
 64
     7
 65
   257
 75
     1
175
     1
 42
1.0
 92
        8
 66
     7
 43
1.0
 76
     1
 77
     6
 78
     2
 67
     7
 79
     5
170
     0
171
     0
290
     0
174
     0
 93
        1
 44
-50.0
173
     0
291
     1
 45
0.0
1001
ACAD
1000
AcDbSavedByObjectVersion
1070
     0
  0
VISUALSTYLE
  5
B100
102
{ACAD_REACTORS
330
B0F1
102
}
330
B0F1
100
AcDbVisualStyle
  2
Facepattern
 70
    15
 71
     2
 72
     2
 73
     0
 90
        0
 40
-0.6
 41
-30.0
 62
     5
 63
     7
 74
     1
 91
        4
 64
     7
 65
   257
 75
     1
175
     1
 42
1.0
 92
        8
 66
     7
 43
1.0
 76
     1
 77
     6
 78
     2
 67
     7
 79
     5
170
     0
171
     0
290
     0
174
     0
 93
        1
 44
0.0
173
     0
291
     1
 45
0.0
1001
ACAD
1000
AcDbSavedByObjectVersion
1070
     0
  0
VISUALSTYLE
  5
B0F2
102
{ACAD_REACTORS
330
B0F1
102
}
330
B0F1
100
AcDbVisualStyle
  2
Flat
 70
     0
 71
     2
 72
     1
 73
     1
 90
        2
 40
-0.6
 41
30.0
 62
     5
 63
     7
 74
     0
 91
        4
 64
     7
 65
   257
 75
     1
175
     1
 42
1.0
 92
        8
 66
     7
 43
1.0
 76
     1
 77
     6
 78
     2
 67
     7
 79
     5
170
     0
171
     0
290
     0
174
     0
 93
       13
 44
0.0
173
     0
291
     1
 45
0.0
1001
ACAD
1000
AcDbSavedByObjectVersion
1070
     0
  0
VISUALSTYLE
  5
B0F3
102
{ACAD_REACTORS
330
B0F1
102
}
330
B0F1
100
AcDbVisualStyle
  2
FlatWithEdges
 70
     1
 71
     2
 72
     1
 73
     1
 90
        2
 40
-0.6
 41
30.0
 62
     5
 63
     7
 74
     1
 91
        4
 64
     7
 65
   257
 75
     1
175
     1
 42
1.0
 92
        0
 66
   257
 43
1.0
 76
     1
 77
     6
 78
     2
 67
     7
 79
     5
170
     0
171
     0
290
     0
174
     0
 93
       13
 44
0.0
173
     0
291
     1
 45
0.0
1001
ACAD
1000
AcDbSavedByObjectVersion
1070
     0
  0
VISUALSTYLE
  5
B0F4
102
{ACAD_REACTORS
330
B0F1
102
}
330
B0F1
100
AcDbVisualStyle
  2
Gouraud
 70
     2
 71
     2
 72
     2
 73
     1
 90
        2
 40
-0.6
 41
30.0
 62
     5
 63
     7
 74
     0
 91
        4
 64
     7
 65
   257
 75
     1
175
     1
 42
1.0
 92
        0
 66
     7
 43
1.0
 76
     1
 77
     6
 78
     2
 67
     7
 79
     5
170
     0
171
     0
290
     0
174
     0
 93
       13
 44
0.0
173
     0
291
     1
 45
0.0
1001
ACAD
1000
AcDbSavedByObjectVersion
1070
     0
  0
VISUALSTYLE
  5
B0F5
102
{ACAD_REACTORS
330
B0F1
102
}
330
B0F1
100
AcDbVisualStyle
  2
GouraudWithEdges
 70
     3
 71
     2
 72
     2
 73
     1
 90
        2
 40
-0.6
 41
30.0
 62
     5
 63
     7
 74
     1
 91
        4
 64
     7
 65
   257
 75
     1
175
     1
 42
1.0
 92
        0
 66
   257
 43
1.0
 76
     1
 77
     6
 78
     2
 67
     7
 79
     5
170
     0
171
     0
290
     0
174
     0
 93
       13
 44
0.0
173
     0
291
     1
 45
0.0
1001
ACAD
1000
AcDbSavedByObjectVersion
1070
     0
  0
VISUALSTYLE
  5
B0FF
102
{ACAD_REACTORS
330
B0F1
102
}
330
B0F1
100
AcDbVisualStyle
  2
Linepattern
 70
    14
 71
     2
 72
     2
 73
     0
 90
        0
 40
-0.6
 41
-30.0
 62
     5
 63
     7
 74
     1
 91
        4
 64
     7
 65
   257
 75
     7
175
     7
 42
1.0
 92
        8
 66
     7
 43
1.0
 76
     1
 77
     6
 78
     2
 67
     7
 79
     5
170
     0
171
     0
290
     0
174
     0
 93
        1
 44
0.0
173
     0
291
     1
 45
0.0
1001
ACAD
1000
AcDbSavedByObjectVersion
1070
     0
  0
VISUALSTYLE
  5
B0FB
102
{ACAD_REACTORS
330
B0F1
102
}
330
B0F1
100
AcDbVisualStyle
  2
Realistic
 70
     8
 71
     2
 72
     2
 73
     0
 90
        0
 40
-0.6
 41
-30.0
 62
     5
 63
     7
 74
     1
 91
        0
 64
     7
 65
   257
 75
     1
175
     1
 42
1.0
 92
        8
 66
     8
 43
1.0
 76
     1
 77
     6
 78
     2
 67
     7
 79
     5
170
     0
171
     0
290
     0
174
     0
 93
       13
 44
0.0
173
     0
291
     0
 45
0.0
1001
ACAD
1000
AcDbSavedByObjectVersion
1070
     0
  0
VISUALSTYLE
  5
B0FE
102
{ACAD_REACTORS
330
B0F1
102
}
330
B0F1
100
AcDbVisualStyle
  2
Thicken
 70
    13
 71
     2
 72
     2
 73
     0
 90
        0
 40
-0.6
 41
-30.0
 62
     5
 63
     7
 74
     1
 91
        4
 64
     7
 65
   257
 75
     1
175
     1
 42
1.0
 92
       12
 66
     7
 43
1.0
 76
     1
 77
     6
 78
     2
 67
     7
 79
     5
170
     0
171
     0
290
     0
174
     0
 93
        1
 44
0.0
173
     0
291
     1
 45
0.0
1001
ACAD
1000
AcDbSavedByObjectVersion
1070
     0
  0
DICTIONARYVAR
  5
AAF3
102
{ACAD_REACTORS
330
34
102
}
330
34
100
DictionaryVariables
280
     0
  1
STANDARD
  0
DICTIONARYVAR
  5
A10C
102
{ACAD_REACTORS
330
34
102
}
330
34
100
DictionaryVariables
280
     0
  1
1
  0
DICTIONARYVAR
  5
AB07
102
{ACAD_REACTORS
330
34
102
}
330
34
100
DictionaryVariables
280
     0
  1
4
  0
DICTIONARYVAR
  5
35
102
{ACAD_REACTORS
330
34
102
}
330
34
100
DictionaryVariables
280
     0
  1
0
  0
DICTIONARYVAR
  5
194C
102
{ACAD_REACTORS
330
34
102
}
330
34
100
DictionaryVariables
280
     0
  1
96
  0
DICTIONARY
  5
7E8
102
{ACAD_REACTORS
330
47
102
}
330
47
100
AcDbDictionary
281
     1
  0
DICTIONARY
  5
4C
102
{ACAD_REACTORS
330
47
102
}
330
47
100
AcDbDictionary
281
     1
  0
XRECORD
  5
A929
102
{ACAD_REACTORS
330
47
102
}
330
47
100
AcDbXrecord
280
     1
 90
-1023410169
  0
XRECORD
  5
AA8D9
102
{ACAD_REACTORS
330
AA8D8
102
}
330
AA8D8
100
AcDbXrecord
280
     1
330
0
330
0
330
0
330
0
330
0
330
0
330
0
330
0
330
0
330
0
330
0
330
0
330
0
330
0
330
0
330
0
330
0
330
0
330
0
330
0
330
0
330
0
330
0
330
0
330
0
330
0
330
0
330
0
330
0
330
0
330
0
330
0
330
0
330
0
330
0
330
0
330
0
330
0
330
0
330
0
330
0
330
0
330
0
330
0
330
0
330
0
330
0
330
0
330
0
330
0
330
0
330
0
330
0
330
0
330
0
330
0
330
0
330
0
330
0
330
0
330
0
330
0
330
0
330
0
330
0
330
0
330
0
330
0
330
0
330
0
330
0
330
0
330
0
330
0
330
0
330
0
330
0
330
0
330
0
330
0
330
0
330
0
330
0
330
0
330
0
330
0
330
0
330
0
330
0
330
0
330
0
330
0
330
0
330
0
330
0
330
0
330
0
330
0
330
0
330
0
330
0
330
0
330
0
330
0
330
0
330
0
330
0
330
0
330
0
330
0
330
0
330
0
330
0
330
0
330
0
330
0
330
0
330
0
330
0
330
0
330
0
330
0
330
0
330
0
330
0
330
0
330
0
330
0
330
0
330
0
330
0
330
0
330
0
330
0
330
0
330
0
330
0
330
0
330
0
330
0
330
0
330
0
330
0
330
0
330
0
330
0
330
0
330
0
330
0
330
0
330
0
330
0
330
0
330
0
330
0
330
0
330
0
330
0
330
0
330
0
330
0
330
0
330
0
330
0
330
0
330
0
330
0
330
0
330
0
330
0
330
0
330
0
330
0
330
0
330
0
330
0
330
0
330
0
330
0
330
0
330
0
330
0
330
0
330
0
330
0
330
0
330
0
330
0
330
0
330
0
330
0
330
0
330
0
330
0
330
0
330
0
330
0
330
0
330
0
330
0
330
0
330
0
330
0
330
0
330
0
330
0
330
0
330
0
330
0
330
0
330
0
330
0
330
0
330
0
330
0
330
0
330
0
330
0
330
0
330
0
330
0
330
0
330
0
330
0
330
0
330
0
330
0
330
0
330
0
330
0
330
0
330
0
330
0
330
0
330
0
330
0
330
0
330
0
330
0
330
0
330
0
330
0
330
0
330
0
330
0
330
0
330
0
330
0
330
0
330
0
330
0
330
0
330
0
330
0
330
0
330
0
330
0
330
0
330
0
330
0
330
0
330
0
330
0
330
0
330
0
330
0
330
0
330
0
330
0
330
0
330
0
330
0
330
0
330
0
330
0
330
0
330
0
330
0
330
0
330
0
330
0
330
0
330
0
330
0
330
0
330
0
330
0
330
0
330
0
330
0
330
0
330
0
330
0
330
0
330
0
330
0
330
A9BFF
330
A9C00
330
A9C08
330
A9C09
330
A9C11
330
A9C12
330
A9C1A
330
A9C1B
330
A9C23
330
A9C24
330
A9C2C
330
A9C2D
330
A9C37
330
A9C38
330
A9C40
330
A9C41
330
A9C47
330
A9C48
330
A9C50
330
A9C51
330
A9C59
330
A9C5A
330
A9C62
330
A9C63
330
A9C6B
330
A9C6C
330
A9C76
330
A9C77
330
A9C7F
330
A9C80
330
A9BB7
330
A9BB8
330
A9BC0
330
A9BC1
330
A9BC9
330
A9BCA
330
A9BD2
330
A9BD3
330
A9BDB
330
A9BDC
330
A9BE4
330
A9BE5
330
A9BEF
330
A9BF0
330
A9BF8
330
A9BF9
330
0
330
0
330
0
330
0
330
0
330
0
330
0
330
0
330
0
330
0
330
0
330
0
330
0
330
0
330
0
330
0
330
0
330
0
330
0
330
0
330
0
330
0
330
0
330
0
330
0
330
0
330
0
330
0
330
0
330
0
330
0
330
0
330
0
330
0
330
0
330
0
330
0
330
0
330
0
330
0
330
0
330
0
330
0
330
0
330
0
330
0
330
0
330
0
330
0
330
0
330
0
330
0
330
0
330
0
330
0
330
0
330
0
330
0
330
0
330
0
330
0
330
0
330
0
330
0
330
0
330
0
330
0
330
0
330
0
330
0
330
0
330
0
330
0
330
0
330
0
330
0
330
0
330
0
330
0
330
0
330
0
330
0
330
0
330
0
330
0
330
0
330
0
330
0
330
0
330
0
330
0
330
0
330
0
330
0
330
0
330
0
330
0
330
0
330
0
330
0
330
0
330
0
330
0
330
0
330
0
330
0
330
0
330
0
330
0
330
0
330
0
330
0
330
0
330
0
330
0
330
0
330
0
330
0
330
0
330
0
330
0
330
0
330
0
330
0
330
0
330
0
330
0
330
0
330
0
330
0
330
0
330
0
330
0
330
0
330
0
330
0
330
0
330
0
330
0
330
0
330
0
330
0
330
0
330
0
330
0
330
0
330
0
330
0
330
0
330
0
330
0
330
0
330
0
330
0
  0
XRECORD
  5
3FB7
102
{ACAD_REACTORS
330
3F96
102
}
330
3F96
100
AcDbXrecord
280
     1
 91
        3
330
0
 90
        8
 62
     7
370
    40
331
16
  1
Color_7
330
0
 90
        0
 62
    14
370
    -3
331
16
  1
Color_14
330
0
 90
        8
 62
     7
370
    20
331
16
  1
Color_7
330
6D1
 90
        0
 62
     7
370
    -3
331
16
  1
Color_7
330
0
 90
        8
 62
     7
370
    50
331
16
  1
Color_7
330
0
 90
        8
 62
     2
370
    35
331
16
  1
Color_2
330
0
 90
        8
 62
     7
370
    -3
331
16
  1
Color_7
330
10
 90
        8
 62
     7
370
    -3
331
16
  1
Color_7
  0
DICTIONARY
  5
AB11A
330
22
100
AcDbDictionary
280
     1
281
     1
  3
ACAD_XREC_ROUNDTRIP
360
AB11B
  0
DICTIONARY
  5
AB118
330
1E
100
AcDbDictionary
280
     1
281
     1
  3
ACAD_XREC_ROUNDTRIP
360
AB119
  0
DICTIONARY
  5
AB11C
330
26
100
AcDbDictionary
280
     1
281
     1
  3
ACAD_XREC_ROUNDTRIP
360
AB11D
  0
DICTIONARY
  5
AB122
330
B0EF
100
AcDbDictionary
280
     1
281
     1
  3
ACAD_XREC_ROUNDTRIP
360
AB123
  0
DICTIONARY
  5
AB120
330
B0EE
100
AcDbDictionary
280
     1
281
     1
  3
ACAD_XREC_ROUNDTRIP
360
AB121
  0
DICTIONARY
  5
AB124
330
B0F0
100
AcDbDictionary
280
     1
281
     1
  3
ACAD_XREC_ROUNDTRIP
360
AB125
  0
DICTIONARY
  5
AB11E
330
AABA
100
AcDbDictionary
280
     1
281
     1
  3
ACAD_XREC_ROUNDTRIP
360
AB11F
  0
XRECORD
  5
AB11B
102
{ACAD_REACTORS
330
AB11A
102
}
330
AB11A
100
AcDbXrecord
280
     1
102
SHADEPLOT
 70
     1
102
SHADEPLOTRESLEVEL
 70
     2
102
SHADEPLOTCUSTOMDPI
 70
   300
  0
XRECORD
  5
AB119
102
{ACAD_REACTORS
330
AB118
102
}
330
AB118
100
AcDbXrecord
280
     1
102
SHADEPLOT
 70
     0
102
SHADEPLOTRESLEVEL
 70
     2
102
SHADEPLOTCUSTOMDPI
 70
   300
  0
XRECORD
  5
AB11D
102
{ACAD_REACTORS
330
AB11C
102
}
330
AB11C
100
AcDbXrecord
280
     1
102
SHADEPLOT
 70
     0
102
SHADEPLOTRESLEVEL
 70
     2
102
SHADEPLOTCUSTOMDPI
 70
   300
  0
XRECORD
  5
AB123
102
{ACAD_REACTORS
330
AB122
102
}
330
AB122
100
AcDbXrecord
280
     1
102
MATERIAL
148
0.0
149
0.0
149
0.0
 93
        0
 94
       63
282
     0
 72
     1
 77
     1
171
     1
175
     1
179
     1
273
     0
  0
XRECORD
  5
AB121
102
{ACAD_REACTORS
330
AB120
102
}
330
AB120
100
AcDbXrecord
280
     1
102
MATERIAL
148
0.0
149
0.0
149
0.0
 93
        0
 94
       63
282
     0
 72
     1
 77
     1
171
     1
175
     1
179
     1
273
     0
  0
XRECORD
  5
AB125
102
{ACAD_REACTORS
330
AB124
102
}
330
AB124
100
AcDbXrecord
280
     1
102
MATERIAL
148
0.0
149
0.0
149
0.0
 93
        0
 94
       63
282
     0
 72
     1
 77
     1
171
     1
175
     1
179
     1
273
     0
  0
XRECORD
  5
AB11F
102
{ACAD_REACTORS
330
AB11E
102
}
330
AB11E
100
AcDbXrecord
280
     1
102
ACAD_ROUNDTRIP_PRE2007_TABLESTYLE
 90
        4
 91
        0
  1

 92
        4
 93
        0
  2

 94
        4
 95
        0
  3

  0
ENDSEC
  0
EOF
