  0
SECTION
  2
HEADER
  9
$ACADVER
  1
AC1015
  9
$ACADMAINTVER
 70
    20
  9
$DWGCODEPAGE
  3
ANSI_932
  9
$INSBASE
 10
0.0
 20
0.0
 30
0.0
  9
$EXTMIN
 10
-0.0198496686446106
 20
-0.0031116570224867
 30
-0.0000000000000053
  9
$EXTMAX
 10
420.0171108421761
 20
297.0186967005771
 30
0.0000000000000099
  9
$LIMMIN
 10
-0.0000000000000406
 20
0.000000051149982
  9
$LIMMAX
 10
419.9999999999999
 20
297.00000005115
  9
$ORTHOMODE
 70
     0
  9
$REGENMODE
 70
     1
  9
$FILLMODE
 70
     1
  9
$QTEXTMODE
 70
     0
  9
$MIRRTEXT
 70
     0
  9
$LTSCALE
 40
1.0
  9
$ATTMODE
 70
     1
  9
$TEXTSIZE
 40
3.2
  9
$TRACEWID
 40
1.0
  9
$TEXTSTYLE
  7
STANDARD
  9
$CLAYER
  8
AM_2
  9
$CELTYPE
  6
ByLayer
  9
$CECOLOR
 62
   256
  9
$CELTSCALE
 40
1.0
  9
$DISPSILH
 70
     0
  9
$DIMSCALE
 40
1.0
  9
$DIMASZ
 40
1.0
  9
$DIMEXO
 40
1.0
  9
$DIMDLI
 40
10.0
  9
$DIMRND
 40
0.0
  9
$DIMDLE
 40
0.0
  9
$DIMEXE
 40
1.0
  9
$DIMTP
 40
0.1
  9
$DIMTM
 40
0.1
  9
$DIMTXT
 40
3.5
  9
$DIMCEN
 40
0.0
  9
$DIMTSZ
 40
0.0
  9
$DIMTOL
 70
     0
  9
$DIMLIM
 70
     0
  9
$DIMTIH
 70
     0
  9
$DIMTOH
 70
     0
  9
$DIMSE1
 70
     0
  9
$DIMSE2
 70
     0
  9
$DIMTAD
 70
     1
  9
$DIMZIN
 70
     8
  9
$DIMBLK
  1

  9
$DIMASO
 70
     1
  9
$DIMSHO
 70
     1
  9
$DIMPOST
  1

  9
$DIMAPOST
  1
"
  9
$DIMALT
 70
     0
  9
$DIMALTD
 70
     2
  9
$DIMALTF
 40
0.0393701
  9
$DIMLFAC
 40
1.0
  9
$DIMTOFL
 70
     1
  9
$DIMTVP
 40
0.0
  9
$DIMTIX
 70
     0
  9
$DIMSOXD
 70
     0
  9
$DIMSAH
 70
     0
  9
$DIMBLK1
  1

  9
$DIMBLK2
  1

  9
$DIMSTYLE
  2
SYS
  9
$DIMCLRD
 70
   256
  9
$DIMCLRE
 70
   256
  9
$DIMCLRT
 70
     7
  9
$DIMTFAC
 40
0.71
  9
$DIMGAP
 40
1.5
  9
$DIMJUST
 70
     0
  9
$DIMSD1
 70
     0
  9
$DIMSD2
 70
     0
  9
$DIMTOLJ
 70
     0
  9
$DIMTZIN
 70
     8
  9
$DIMALTZ
 70
     0
  9
$DIMALTTZ
 70
     0
  9
$DIMUPT
 70
     0
  9
$DIMDEC
 70
     2
  9
$DIMTDEC
 70
     2
  9
$DIMALTU
 70
     2
  9
$DIMALTTD
 70
     2
  9
$DIMTXSTY
  7
STANDARD
  9
$DIMAUNIT
 70
     0
  9
$DIMADEC
 70
     0
  9
$DIMALTRND
 40
0.0
  9
$DIMAZIN
 70
     2
  9
$DIMDSEP
 70
    46
  9
$DIMATFIT
 70
     3
  9
$DIMFRAC
 70
     0
  9
$DIMLDRBLK
  1

  9
$DIMLUNIT
 70
     2
  9
$DIMLWD
 70
    -1
  9
$DIMLWE
 70
    -1
  9
$DIMTMOVE
 70
     0
  9
$LUNITS
 70
     2
  9
$LUPREC
 70
     2
  9
$SKETCHINC
 40
1.0
  9
$FILLETRAD
 40
3.0
  9
$AUNITS
 70
     0
  9
$AUPREC
 70
     0
  9
$MENU
  1
.
  9
$ELEVATION
 40
0.0
  9
$PELEVATION
 40
0.0
  9
$THICKNESS
 40
0.0
  9
$LIMCHECK
 70
     0
  9
$CHAMFERA
 40
0.0
  9
$CHAMFERB
 40
0.0
  9
$CHAMFERC
 40
20.0
  9
$CHAMFERD
 40
0.0
  9
$SKPOLY
 70
     0
  9
$TDCREATE
 40
2456027.598682176
  9
$TDUCREATE
 40
2456027.223682176
  9
$TDUPDATE
 40
2456267.729928195
  9
$TDUUPDATE
 40
2456267.354928195
  9
$TDINDWG
 40
0.9391827778
  9
$TDUSRTIMER
 40
0.9391827778
  9
$USRTIMER
 70
     1
  9
$ANGBASE
 50
0.0
  9
$ANGDIR
 70
     0
  9
$PDMODE
 70
     0
  9
$PDSIZE
 40
-3.0
  9
$PLINEWID
 40
0.0
  9
$SPLFRAME
 70
     0
  9
$SPLINETYPE
 70
     6
  9
$SPLINESEGS
 70
     8
  9
$HANDSEED
  5
3A210
  9
$SURFTAB1
 70
     6
  9
$SURFTAB2
 70
     6
  9
$SURFTYPE
 70
     6
  9
$SURFU
 70
     6
  9
$SURFV
 70
     6
  9
$UCSBASE
  2

  9
$UCSNAME
  2

  9
$UCSORG
 10
0.0
 20
0.0
 30
0.0
  9
$UCSXDIR
 10
1.0
 20
0.0
 30
0.0
  9
$UCSYDIR
 10
0.0
 20
1.0
 30
0.0
  9
$UCSORTHOREF
  2

  9
$UCSORTHOVIEW
 70
     0
  9
$UCSORGTOP
 10
0.0
 20
0.0
 30
0.0
  9
$UCSORGBOTTOM
 10
0.0
 20
0.0
 30
0.0
  9
$UCSORGLEFT
 10
0.0
 20
0.0
 30
0.0
  9
$UCSORGRIGHT
 10
0.0
 20
0.0
 30
0.0
  9
$UCSORGFRONT
 10
0.0
 20
0.0
 30
0.0
  9
$UCSORGBACK
 10
0.0
 20
0.0
 30
0.0
  9
$PUCSBASE
  2

  9
$PUCSNAME
  2

  9
$PUCSORG
 10
0.0
 20
0.0
 30
0.0
  9
$PUCSXDIR
 10
1.0
 20
0.0
 30
0.0
  9
$PUCSYDIR
 10
0.0
 20
1.0
 30
0.0
  9
$PUCSORTHOREF
  2

  9
$PUCSORTHOVIEW
 70
     0
  9
$PUCSORGTOP
 10
0.0
 20
0.0
 30
0.0
  9
$PUCSORGBOTTOM
 10
0.0
 20
0.0
 30
0.0
  9
$PUCSORGLEFT
 10
0.0
 20
0.0
 30
0.0
  9
$PUCSORGRIGHT
 10
0.0
 20
0.0
 30
0.0
  9
$PUCSORGFRONT
 10
0.0
 20
0.0
 30
0.0
  9
$PUCSORGBACK
 10
0.0
 20
0.0
 30
0.0
  9
$USERI1
 70
     0
  9
$USERI2
 70
     0
  9
$USERI3
 70
     0
  9
$USERI4
 70
     0
  9
$USERI5
 70
     0
  9
$USERR1
 40
0.0
  9
$USERR2
 40
0.0
  9
$USERR3
 40
0.0
  9
$USERR4
 40
0.0
  9
$USERR5
 40
0.0
  9
$WORLDVIEW
 70
     1
  9
$SHADEDGE
 70
     3
  9
$SHADEDIF
 70
    70
  9
$TILEMODE
 70
     1
  9
$MAXACTVP
 70
    64
  9
$PINSBASE
 10
0.0
 20
0.0
 30
0.0
  9
$PLIMCHECK
 70
     0
  9
$PEXTMIN
 10
1.000000000000000E+20
 20
1.000000000000000E+20
 30
1.000000000000000E+20
  9
$PEXTMAX
 10
-1.000000000000000E+20
 20
-1.000000000000000E+20
 30
-1.000000000000000E+20
  9
$PLIMMIN
 10
-3.17498779296875
 20
-3.174999952316284
  9
$PLIMMAX
 10
293.4970092773438
 20
206.692492723465
  9
$UNITMODE
 70
     0
  9
$VISRETAIN
 70
     1
  9
$PLINEGEN
 70
     0
  9
$PSLTSCALE
 70
     1
  9
$TREEDEPTH
 70
  3020
  9
$CMLSTYLE
  2
Standard
  9
$CMLJUST
 70
     0
  9
$CMLSCALE
 40
20.0
  9
$PROXYGRAPHICS
 70
     1
  9
$MEASUREMENT
 70
     1
  9
$CELWEIGHT
370
    -1
  9
$ENDCAPS
280
     0
  9
$JOINSTYLE
280
     0
  9
$LWDISPLAY
290
     1
  9
$INSUNITS
 70
     4
  9
$HYPERLINKBASE
  1

  9
$STYLESHEET
  1
monochrome.ctb
  9
$XEDIT
290
     1
  9
$CEPSNTYPE
380
     0
  9
$PSTYLEMODE
290
     1
  9
$FINGERPRINTGUID
  2
{3DA35836-3EEC-46EC-9CDA-58E873CBD009}
  9
$VERSIONGUID
  2
{FF366D21-E672-4C32-A681-D3ED095CD782}
  9
$EXTNAMES
290
     1
  9
$PSVPSCALE
 40
0.0
  9
$OLESTARTUP
290
     0
  0
ENDSEC
  0
SECTION
  2
CLASSES
  0
CLASS
  1
ACDBDICTIONARYWDFLT
  2
AcDbDictionaryWithDefault
  3
ObjectDBX Classes
 90
        0
280
     0
281
     0
  0
CLASS
  1
ACDBPLACEHOLDER
  2
AcDbPlaceHolder
  3
ObjectDBX Classes
 90
        0
280
     0
281
     0
  0
CLASS
  1
LAYOUT
  2
AcDbLayout
  3
ObjectDBX Classes
 90
        0
280
     0
281
     0
  0
CLASS
  1
AMGSETTINGSOBJ
  2
AmgSettingsObj
  3
"AcadM|Product Description: AutoCAD Mechanical|Company: Autodesk"
 90
        0
280
     0
281
     0
  0
CLASS
  1
ACME_DOCUMENT
  2
AcMeDbDoc
  3
AcMeServices
 90
        0
280
     0
281
     0
  0
CLASS
  1
ACMESCOPE
  2
AcMeScope
  3
AcMeServices
 90
        0
280
     0
281
     0
  0
CLASS
  1
ACMECOMMANDHISTORY
  2
AcMeCommandHistory
  3
AcMeServices
 90
        0
280
     0
281
     0
  0
CLASS
  1
DICTIONARYVAR
  2
AcDbDictionaryVar
  3
ObjectDBX Classes
 90
        0
280
     0
281
     0
  0
CLASS
  1
ACIMSYSVARMAN
  2
AcImSysVarManager
  3
AcMeServices
 90
        0
280
     0
281
     0
  0
CLASS
  1
ACIMREALSYSVAR
  2
AcImRealSysVar
  3
AcMeServices
 90
        0
280
     0
281
     0
  0
CLASS
  1
ACIMINTSYSVAR
  2
AcImIntSysVar
  3
AcMeServices
 90
        0
280
     0
281
     0
  0
CLASS
  1
ACMEDRAWINGMAN
  2
AcMeDrawingMan
  3
AcMeServices
 90
        0
280
     0
281
     0
  0
CLASS
  1
ACMEVIEW
  2
AcMeView
  3
AcMeServices
 90
        0
280
     0
281
     0
  0
CLASS
  1
ACDBENTITYCACHE
  2
AcMeEntityCache
  3
AcMeServices
 90
        0
280
     0
281
     0
  0
CLASS
  1
GSMANAGER
  2
AcMeGSManager
  3
AcMeServices
 90
        0
280
     0
281
     0
  0
CLASS
  1
AMDTINTERNALREACTOR
  2
AmdtInternalReactor
  3
AcMeServices
 90
        0
280
     0
281
     0
  0
CLASS
  1
ACMESTATEMGR
  2
AcMeStateMgr
  3
AcMeServices
 90
        0
280
     0
281
     0
  0
CLASS
  1
ACGREFMASTER
  2
AcGrefMaster
  3
AcAttribServices
 90
        0
280
     0
281
     0
  0
CLASS
  1
ACME_DATABASE
  2
AcMeDbDatabase
  3
AcMeServices
 90
        0
280
     0
281
     0
  0
CLASS
  1
ACRFINSADJUSTERMGR
  2
AcRfInsAdjusterMgr
  3
AcMeServices
 90
        0
280
     0
281
     0
  0
CLASS
  1
ACGREFACADMASTER
  2
AcGrefacadMaster
  3
AcGrefServices
 90
        0
280
     0
281
     0
  0
CLASS
  1
AMIMASTER
  2
AmiMaster
  3
AmiServices
 90
        0
280
     0
281
     0
  0
CLASS
  1
ACMDATADICTIONARY
  2
AcmDataDictionary
  3
"AcmSymBB|Product Description: AutoCAD Mechanical|Company: Autodesk"
 90
        0
280
     0
281
     0
  0
CLASS
  1
ACMDATAENTRYBLOCK
  2
AcmDataEntryBlock
  3
"AcmSymBB|Product Description: AutoCAD Mechanical|Company: Autodesk"
 90
        0
280
     0
281
     0
  0
CLASS
  1
ACIMSTRSYSVAR
  2
AcImStrSysVar
  3
AcMeServices
 90
        0
280
     0
281
     0
  0
CLASS
  1
ACMSTANDARDISO
  2
AcmStandardISO
  3
"Amdt_StdImp|Product Description: AutoCAD Mechanical|Company: Autodesk"
 90
        0
280
     0
281
     0
  0
CLASS
  1
AMGOBJPROPCFG
  2
AmgObjPropCfg
  3
"AmgLay|Product Description: AutoCAD Mechanical|Company: Autodesk"
 90
        1
280
     0
281
     0
  0
CLASS
  1
AMDTEDGESTANDARDISO
  2
AmdtEdgeStdISO
  3
"Amdt_StdImp|Product Description: AutoCAD Mechanical|Company: Autodesk"
 90
        0
280
     0
281
     0
  0
CLASS
  1
ACMSURFSTANDARDISO
  2
AcmSurfTextStdISO
  3
"Amdt_StdImp|Product Description: AutoCAD Mechanical|Company: Autodesk"
 90
        0
280
     0
281
     0
  0
CLASS
  1
ACMFCFSTANDARDISO
  2
AcmFCFStdISO
  3
"Amdt_StdImp|Product Description: AutoCAD Mechanical|Company: Autodesk"
 90
        0
280
     0
281
     0
  0
CLASS
  1
ACMWELDSTANDARDISO
  2
AcmWeldingStdISO
  3
"Amdt_StdImp|Product Description: AutoCAD Mechanical|Company: Autodesk"
 90
        0
280
     0
281
     0
  0
CLASS
  1
ACMIDSTANDARDISO
  2
AcmIdStdISO
  3
"Amdt_StdImp|Product Description: AutoCAD Mechanical|Company: Autodesk"
 90
        0
280
     0
281
     0
  0
CLASS
  1
ACMDATUMSTANDARDISO
  2
AcmDatumStdISO
  3
"Amdt_StdImp|Product Description: AutoCAD Mechanical|Company: Autodesk"
 90
        0
280
     0
281
     0
  0
CLASS
  1
ACMBOMSTANDARDISO
  2
AcmBOMStdISO
  3
"Amdt_StdImp|Product Description: AutoCAD Mechanical|Company: Autodesk"
 90
        0
280
     0
281
     0
  0
CLASS
  1
ACMDETAILSTANDARDISO
  2
AmdtDetailSymStdISO
  3
"Amdt_StdImp|Product Description: AutoCAD Mechanical|Company: Autodesk"
 90
        0
280
     0
281
     0
  0
CLASS
  1
ACMSECTIONSTANDARDISO
  2
AmdtSectionSymStdISO
  3
"Amdt_StdImp|Product Description: AutoCAD Mechanical|Company: Autodesk"
 90
        0
280
     0
281
     0
  0
CLASS
  1
ACMCENTERLINESTANDARDISO
  2
AmdtCenterLineStdISO
  3
"Amdt_StdImp|Product Description: AutoCAD Mechanical|Company: Autodesk"
 90
        0
280
     0
281
     0
  0
CLASS
  1
ACAMGLAYSTD
  2
AcAmgLayStd
  3
"AmgLay|Product Description: AutoCAD Mechanical|Company: Autodesk"
 90
        0
280
     0
281
     0
  0
CLASS
  1
ACAMGDIMSTD
  2
AcAmgDimStd
  3
"AmgDim|Product Description: AutoCAD Mechanical|Company: Autodesk"
 90
        0
280
     0
281
     0
  0
CLASS
  1
ACAMGTITLESTD
  2
AcAmgTitleStd
  3
"AmgTitle|Product Description: AutoCAD Mechanical|Company: Autodesk"
 90
        0
280
     0
281
     0
  0
CLASS
  1
ACAMGFILTERDAT
  2
AcAmgFilterDat
  3
"AcadM|Product Description: AutoCAD Mechanical|Company: Autodesk"
 90
        0
280
     0
281
     0
  0
CLASS
  1
LAYER_INDEX
  2
AcDbLayerIndex
  3
ObjectDBX Classes
 90
    32768
280
     0
281
     0
  0
CLASS
  1
IDBUFFER
  2
AcDbIdBuffer
  3
ObjectDBX Classes
 90
    32768
280
     0
281
     0
  0
CLASS
  1
PLOTSETTINGS
  2
AcDbPlotSettings
  3
ObjectDBX Classes
 90
    32768
280
     0
281
     0
  0
CLASS
  1
AMDTFORMULAUPDATEDISPATCHER
  2
AmdtFormulaUpdateDispatcher
  3
AcMeServices
 90
        0
280
     0
281
     0
  0
CLASS
  1
ACMSTANDARDANSI
  2
AcmStandardANSI
  3
"Amdt_StdImp|Product Description: AutoCAD Mechanical|Company: Autodesk"
 90
        0
280
     0
281
     0
  0
CLASS
  1
ACMSURFSTANDARDANSI
  2
AcmSurfTextStdANSI
  3
"Amdt_StdImp|Product Description: AutoCAD Mechanical|Company: Autodesk"
 90
        0
280
     0
281
     0
  0
CLASS
  1
ACMFCFSTANDARDANSI
  2
AcmFCFStdANSI
  3
"Amdt_StdImp|Product Description: AutoCAD Mechanical|Company: Autodesk"
 90
        0
280
     0
281
     0
  0
CLASS
  1
ACMWELDSTANDARDANSI
  2
AcmWeldingStdANSI
  3
"Amdt_StdImp|Product Description: AutoCAD Mechanical|Company: Autodesk"
 90
        0
280
     0
281
     0
  0
CLASS
  1
ACMIDSTANDARDANSI
  2
AcmIdStdANSI
  3
"Amdt_StdImp|Product Description: AutoCAD Mechanical|Company: Autodesk"
 90
        0
280
     0
281
     0
  0
CLASS
  1
ACMDATUMSTANDARDANSI
  2
AcmDatumStdANSI
  3
"Amdt_StdImp|Product Description: AutoCAD Mechanical|Company: Autodesk"
 90
        0
280
     0
281
     0
  0
CLASS
  1
ACMBOMSTANDARDANSI
  2
AcmBOMStdANSI
  3
"Amdt_StdImp|Product Description: AutoCAD Mechanical|Company: Autodesk"
 90
        0
280
     0
281
     0
  0
CLASS
  1
ACMDETAILSTANDARDANSI
  2
AmdtDetailSymStdANSI
  3
"Amdt_StdImp|Product Description: AutoCAD Mechanical|Company: Autodesk"
 90
        0
280
     0
281
     0
  0
CLASS
  1
ACMSECTIONSTANDARDANSI
  2
AmdtSectionSymStdANSI
  3
"Amdt_StdImp|Product Description: AutoCAD Mechanical|Company: Autodesk"
 90
        0
280
     0
281
     0
  0
CLASS
  1
ACMCENTERLINESTANDARDANSI
  2
AmdtCenterLineStdANSI
  3
"Amdt_StdImp|Product Description: AutoCAD Mechanical|Company: Autodesk"
 90
        0
280
     0
281
     0
  0
CLASS
  1
ACMBOM
  2
AcmBom
  3
"AcmSymBB|Product Description: AutoCAD Mechanical|Company: Autodesk"
 90
        0
280
     0
281
     0
  0
CLASS
  1
ACMDATAENTRYPART
  2
AcmDataEntryPart
  3
"AcmSymBB|Product Description: AutoCAD Mechanical|Company: Autodesk"
 90
    32768
280
     0
281
     0
  0
CLASS
  1
ACMPARTREF
  2
AcmPartRef
  3
"AcmSymBB|Product Description: AutoCAD Mechanical|Company: Autodesk"
 90
    35839
280
     0
281
     1
  0
CLASS
  1
ACDBCIRCARCRES
  2
AcDbCircArcRes
  3
AcGrefServices
 90
    32768
280
     0
281
     0
  0
CLASS
  1
ACMBOMROW
  2
AcmBomRow
  3
"AcmSymBB|Product Description: AutoCAD Mechanical|Company: Autodesk"
 90
    32768
280
     0
281
     0
  0
CLASS
  1
ACMBALLOON
  2
AcmBalloon
  3
"AcmSymBB|Product Description: AutoCAD Mechanical|Company: Autodesk"
 90
    35839
280
     0
281
     1
  0
CLASS
  1
AMDTNOTE
  2
AmdtNote
  3
"AcmSymBB|Product Description: AutoCAD Mechanical|Company: Autodesk"
 90
    35839
280
     0
281
     1
  0
CLASS
  1
STDPART2D
  2
AmgStdPart
  3
"g3vace|Class: AmgStdPart|Product Description: AutoCAD Mechanical|Company: Autodesk"
 90
    35839
280
     0
281
     1
  0
CLASS
  1
ACDBSTDPARTRES_LINE
  2
AcDbStdPartRes_Line
  3
"g3vace|Class: AcDbStdPartRes_Line|Product Description: AutoCAD Mechanical|Company: Autodesk"
 90
    32768
280
     0
281
     0
  0
CLASS
  1
ACMDATAENTRY
  2
AcmDataEntry
  3
"AcmSymBB|Product Description: AutoCAD Mechanical|Company: Autodesk"
 90
        0
280
     0
281
     0
  0
CLASS
  1
ACDBOPPOLYLINERES
  2
AcDbOpPolylineRes
  3
AcGrefServices
 90
    32768
280
     0
281
     0
  0
CLASS
  1
ACMPARTLIST
  2
AcmPartList
  3
"AcmSymBB|Product Description: AutoCAD Mechanical|Company: Autodesk"
 90
    35839
280
     0
281
     1
  0
CLASS
  1
ACDBLINERES
  2
AcDbLineRes
  3
AcGrefServices
 90
    32768
280
     0
281
     0
  0
CLASS
  1
ACRFINSADJ
  2
AcRfInsAdjuster
  3
AcMeServices
 90
    32768
280
     0
281
     0
  0
CLASS
  1
AM_DRAWING_MGR
  2
AcDmDwgMgr
  3
AcMechDwgViewMgmt
 90
        0
280
     0
281
     0
  0
CLASS
  1
AM_DWG_DOCUMENT
  2
AcDmDwgDocument
  3
AcMechDwgViewMgmt
 90
        0
280
     0
281
     0
  0
CLASS
  1
AM_DWG_SHEET
  2
AcDmSheet
  3
AcMechDwgViewMgmt
 90
        0
280
     0
281
     0
  0
CLASS
  1
AM_VIEWDIMPARMAP
  2
AcDmViewDimParMap
  3
AcMechDwgViewMgmt
 90
        0
280
     0
281
     0
  0
CLASS
  1
AM_DWGMGR_NAME
  2
AcDmDwgMgrName
  3
AcMechDwgViewMgmt
 90
        0
280
     0
281
     0
  0
CLASS
  1
AMDTMENUSTATEMGR
  2
AmdtMenuStateMgr
  3
McadcomServices
 90
        0
280
     0
281
     0
  0
CLASS
  1
AMDTMCOMMENUSTATE
  2
AmdtMcomMenuState
  3
McadcomServices
 90
        0
280
     0
281
     0
  0
CLASS
  1
ASAPP
  2
AcAsAppObject
  3
AutoSurfServices
 90
        0
280
     0
281
     0
  0
CLASS
  1
IM_STATIC_MAN
  2
AcImStaticVarManager
  3
AcMeServices
 90
        0
280
     0
281
     0
  0
CLASS
  1
ACIMDBLSTATICVAR
  2
AcImDblStaticVar
  3
AcMeServices
 90
        0
280
     0
281
     0
  0
CLASS
  1
ACIMSTRSTATICVAR
  2
AcImStrStaticVar
  3
AcMeServices
 90
        0
280
     0
281
     0
  0
CLASS
  1
ACIMINTSTATICVAR
  2
AcImIntStaticVar
  3
AcMeServices
 90
        0
280
     0
281
     0
  0
CLASS
  1
ACASGREFMASTER
  2
AcAsGrefMaster
  3
AutoSurfResolverServices
 90
        0
280
     0
281
     0
  0
CLASS
  1
ACADGREFMODULE
  2
AcAdGrefModule
  3
AdGrefServices
 90
        0
280
     0
281
     0
  0
CLASS
  1
AMDTMAPISURFMOUDULE
  2
AmdtMApiSurfModule
  3
MApiSurfServices
 90
        0
280
     0
281
     0
  0
CLASS
  1
MAPIAMMOUDLE
  2
MApiAmModule
  3
MApiAmServices
 90
        0
280
     0
281
     0
  0
CLASS
  1
AMDTADMENUSTATE
  2
AmdtAdMenuState
  3
DesignerServices
 90
        0
280
     0
281
     0
  0
CLASS
  1
ADAPPL
  2
AcAdAppl
  3
DesignerServices
 90
        0
280
     0
281
     0
  0
CLASS
  1
DEPMGR
  2
AcAdDepMgr
  3
DesignerServices
 90
        0
280
     0
281
     0
  0
CLASS
  1
PARAMMGR
  2
AcAdParamMgr
  3
DesignerServices
 90
        0
280
     0
281
     0
  0
CLASS
  1
PARAMSCOPE
  2
AcAdParamScope
  3
DesignerServices
 90
        0
280
     0
281
     0
  0
CLASS
  1
NAMEDAPPL
  2
AcAdNamedAppl
  3
DesignerServices
 90
        0
280
     0
281
     0
  0
CLASS
  1
ADHNTMPLT
  2
AdHoleNoteTemplateMgr
  3
DesignerServices
 90
    32768
280
     0
281
     0
  0
CLASS
  1
AM_HNTEMPLATE_MGR_NAME
  2
AdHoleNoteTemplateMgrName
  3
DesignerServices
 90
    32768
280
     0
281
     0
  0
CLASS
  1
AMDTDMMENUSTATE
  2
AmdtDmMenuState
  3
AcMechDwgViewMgmt
 90
        0
280
     0
281
     0
  0
CLASS
  1
MAPIADMODULE
  2
MApiAdModule
  3
MApiAdServices
 90
        0
280
     0
281
     0
  0
CLASS
  1
AMDTAMMENUSTATE
  2
AmdtAmMenuState
  3
DesignerAssemblies
 90
        0
280
     0
281
     0
  0
CLASS
  1
ACAMPROJECT
  2
AcAmProject
  3
DesignerAssemblies
 90
        0
280
     0
281
     0
  0
CLASS
  1
ACAMGRCOMPDEF
  2
AcAmGrCompDef
  3
DesignerAssemblies
 90
        0
280
     0
281
     0
  0
CLASS
  1
ACCMCONTEXT
  2
AcCmContext
  3
DesignerAssemblies
 90
        0
280
     0
281
     0
  0
CLASS
  1
ACAMCOMPDEF
  2
AcAmCompDef
  3
DesignerAssemblies
 90
        0
280
     0
281
     0
  0
CLASS
  1
ACAMCOMPDEFMGR
  2
AcAmCompDefMgr
  3
DesignerAssemblies
 90
        0
280
     0
281
     0
  0
CLASS
  1
AMCONTEXTMGR
  2
AcAmContextMgr
  3
DesignerAssemblies
 90
        0
280
     0
281
     0
  0
CLASS
  1
ACAMCONTEXTMODELER
  2
AcAmContextModeler
  3
DesignerAssemblies
 90
        0
280
     0
281
     0
  0
CLASS
  1
CATALOGSTATE
  2
AcAmCatalogState
  3
DesignerAssemblies
 90
        0
280
     0
281
     0
  0
CLASS
  1
ACAMGRCOMPDEFSET
  2
AcAmGrCompDefSet
  3
DesignerAssemblies
 90
        0
280
     0
281
     0
  0
CLASS
  1
AMDTBROWSERDBTAB
  2
AmdtBrowserDbTab
  3
McadcomServices
 90
        0
280
     0
281
     0
  0
CLASS
  1
CBROWSERAPPOBJECT
  2
CBrowserAppObject
  3
McadcomServices
 90
        0
280
     0
281
     0
  0
CLASS
  1
DM_PLACEHOLDER
  2
AcDmSelsetPlaceholder
  3
AcMechDwgViewMgmt
 90
        0
280
     0
281
     0
  0
CLASS
  1
ACMPICKOBJ
  2
AcmPickEnt
  3
"AcmSymBB|Product Description: AutoCAD Mechanical|Company: Autodesk"
 90
    32768
280
     0
281
     1
  0
CLASS
  1
ACMNOTESTANDARDISO
  2
AmdtNoteStdISO
  3
"Amdt_StdImp|Product Description: AutoCAD Mechanical|Company: Autodesk"
 90
        0
280
     0
281
     0
  0
CLASS
  1
ACMNOTESTANDARDANSI
  2
AmdtNoteStdANSI
  3
"Amdt_StdImp|Product Description: AutoCAD Mechanical|Company: Autodesk"
 90
        0
280
     0
281
     0
  0
CLASS
  1
ACMTHREADLINESTANDARDISO
  2
AmdtThreadLineStdISO
  3
"Amdt_StdImp|Product Description: AutoCAD Mechanical|Company: Autodesk"
 90
        0
280
     0
281
     0
  0
CLASS
  1
ACMTHREADLINESTANDARDANSI
  2
AmdtThreadLineStdANSI
  3
"Amdt_StdImp|Product Description: AutoCAD Mechanical|Company: Autodesk"
 90
        0
280
     0
281
     0
  0
CLASS
  1
TABLESTYLE
  2
AcDbTableStyle
  3
ObjectDBX Classes
 90
     4095
280
     0
281
     0
  0
CLASS
  1
SORTENTSTABLE
  2
AcDbSortentsTable
  3
ObjectDBX Classes
 90
        0
280
     0
281
     0
  0
CLASS
  1
MATERIAL
  2
AcDbMaterial
  3
ObjectDBX Classes
 90
     1024
280
     0
281
     0
  0
CLASS
  1
VISUALSTYLE
  2
AcDbVisualStyle
  3
ObjectDBX Classes
 90
     4095
280
     0
281
     0
  0
CLASS
  1
ACRFATTGENMGR
  2
AcRfAttGeneralMgr
  3
AcAttribServices
 90
        0
280
     0
281
     0
  0
CLASS
  1
ACRFOBJATTMGR
  2
AcRfObjAttGroupMgr
  3
AcAttribServices
 90
        0
280
     0
281
     0
  0
CLASS
  1
ACRFMCADAPIATTHOLDER
  2
AcRfMCADAPIAttHolder
  3
AcAttribServices
 90
        0
280
     0
281
     0
  0
CLASS
  1
AMDTSYSATTR
  2
AmdtSystemAttribute
  3
AcAttribServices
 90
        0
280
     0
281
     0
  0
CLASS
  1
ACMTAPERSTANDARDISO
  2
AcmTaperStdISO
  3
"Amdt_StdImp|Product Description: AutoCAD Mechanical|Company: Autodesk"
 90
        0
280
     0
281
     0
  0
CLASS
  1
CAMSSTRUCTBTNSTATE
  2
StructBtnState
  3
L"DesignerAssemblies"
 90
        0
280
     0
281
     0
  0
CLASS
  1
DIMASSOC
  2
AcDbDimAssoc
  3
"AcDbDimAssoc|Product Desc:     AcDim ARX App For Dimension|Company:          Autodesk, Inc.|WEB Address:      www.autodesk.com"
 90
    32768
280
     0
281
     0
  0
CLASS
  1
AMDTNOTETEMPLATEDB
  2
AmdtNoteTemplateDB
  3
AMDT_STDIMP_MODULE_NAME
 90
        0
280
     0
281
     0
  0
CLASS
  1
ACMTAPERSTANDARDANSI
  2
AcmTaperStdANSI
  3
"Amdt_StdImp|Product Description: AutoCAD Mechanical|Company: Autodesk"
 90
        0
280
     0
281
     0
  0
CLASS
  1
ACAMGHOLECHARTSTDANSI
  2
AcAmgHoleChartStdANSI
  3
ACMSYMBB_MODULE_NAME
 90
        0
280
     0
281
     0
  0
CLASS
  1
AMDTEDGESTANDARDISO13715
  2
AmdtEdgeStdISO13715
  3
"Amdt_StdImp|Product Description: AutoCAD Mechanical|Company: Autodesk"
 90
        0
280
     0
281
     0
  0
CLASS
  1
ACAMGHOLECHARTSTDISO
  2
AcAmgHoleChartStdISO
  3
ACMSYMBB_MODULE_NAME
 90
        0
280
     0
281
     0
  0
CLASS
  1
AMDTACMWBLOCKBOMENTITY
  2
AmdtAcmWblockBomEntity
  3
"AcmSymBB|Product Description: AutoCAD Mechanical|Company: Autodesk"
 90
    35839
280
     0
281
     1
  0
ENDSEC
  0
SECTION
  2
TABLES
  0
TABLE
  2
VPORT
  5
8
330
0
100
AcDbSymbolTable
 70
     1
  0
VPORT
  5
B0EC
330
8
100
AcDbSymbolTableRecord
100
AcDbViewportTableRecord
  2
*Active
 70
     0
 10
0.0
 20
0.0
 11
1.0
 21
1.0
 12
209.9986305867659
 22
148.5077925217773
 13
0.0
 23
0.0
 14
2.5
 24
2.5
 15
10.0
 25
10.0
 16
0.0
 26
0.0
 36
1.0
 17
0.0
 27
0.0
 37
0.0
 40
299.2084719774102
 41
1.648648648648648
 42
50.0
 43
-1370.695619172058
 44
-1370.695619172058
 50
0.0
 51
0.0
 71
     0
 72
   100
 73
     1
 74
     3
 75
     0
 76
     0
 77
     0
 78
     0
281
     0
 65
     0
110
0.0
120
0.0
130
0.0
111
1.0
121
0.0
131
0.0
112
0.0
122
1.0
132
0.0
 79
     0
146
0.0
  0
ENDTAB
  0
TABLE
  2
LTYPE
  5
5
330
0
100
AcDbSymbolTable
 70
    35
  0
LTYPE
  5
14
330
5
100
AcDbSymbolTableRecord
100
AcDbLinetypeTableRecord
  2
ByBlock
 70
     0
  3

 72
    65
 73
     0
 40
0.0
  0
LTYPE
  5
15
330
5
100
AcDbSymbolTableRecord
100
AcDbLinetypeTableRecord
  2
ByLayer
 70
     0
  3

 72
    65
 73
     0
 40
0.0
  0
LTYPE
  5
16
330
5
100
AcDbSymbolTableRecord
100
AcDbLinetypeTableRecord
  2
Continuous
 70
     0
  3
Solid line
 72
    65
 73
     0
 40
0.0
  0
LTYPE
  5
4F
330
5
100
AcDbSymbolTableRecord
100
AcDbLinetypeTableRecord
  2
AM_ISO02W050
 70
     0
  3
__ __ __ __ __ __ __ __ __ __ __ __ __ __ __
 72
    65
 73
     2
 40
7.5
 49
6.0
 74
     0
 49
-1.5
 74
     0
  0
LTYPE
  5
52
330
5
100
AcDbSymbolTableRecord
100
AcDbLinetypeTableRecord
  2
Amconstr
 70
     0
  3
_______________________
 72
    65
 73
     2
 40
9999.0
 49
9999.0
 74
     0
 49
0.0
 74
     0
  0
LTYPE
  5
64
330
5
100
AcDbSymbolTableRecord
100
AcDbLinetypeTableRecord
  2
ACISOWELD
 70
     0
  3
_ _ _ _ _
 72
    65
 73
     2
 40
2.0
 49
2.0
 74
     0
 49
-1.0
 74
     0
  0
LTYPE
  5
65
330
5
100
AcDbSymbolTableRecord
100
AcDbLinetypeTableRecord
  2
ACISOTGB
 70
     0
  3
__ . . __ . .
 72
    65
 73
     6
 40
9.0
 49
4.0
 74
     0
 49
-1.0
 74
     0
 49
1.0
 74
     0
 49
-1.0
 74
     0
 49
1.0
 74
     0
 49
-1.0
 74
     0
  0
LTYPE
  5
66
330
5
100
AcDbSymbolTableRecord
100
AcDbLinetypeTableRecord
  2
ACISOTGL
 70
     0
  3
_ _ _ _ _
 72
    65
 73
     2
 40
3.0
 49
2.0
 74
     0
 49
-1.0
 74
     0
  0
LTYPE
  5
69
330
5
100
AcDbSymbolTableRecord
100
AcDbLinetypeTableRecord
  2
CENTER
 70
     0
  3
__ . __
 72
    65
 73
     4
 40
7.0
 49
4.0
 74
     0
 49
-1.0
 74
     0
 49
1.0
 74
     0
 49
-1.0
 74
     0
  0
LTYPE
  5
A6E
330
5
100
AcDbSymbolTableRecord
100
AcDbLinetypeTableRecord
  2
PHANTOM2
 70
     0
  3
Phantom (.5x) ___ _ _ ___ _ _ ___ _ _ ___ _ _
 72
    65
 73
     6
 40
31.75
 49
15.875
 74
     0
 49
-3.174999999999999
 74
     0
 49
3.174999999999999
 74
     0
 49
-3.174999999999999
 74
     0
 49
3.174999999999999
 74
     0
 49
-3.174999999999999
 74
     0
  0
LTYPE
  5
4DED
330
5
100
AcDbSymbolTableRecord
100
AcDbLinetypeTableRecord
  2
中線
 70
     0
  3
___________________
 72
    65
 73
     2
 40
2.0
 49
1.0
 74
     0
 49
1.0
 74
     0
  0
LTYPE
  5
4DF6
330
5
100
AcDbSymbolTableRecord
100
AcDbLinetypeTableRecord
  2
細線
 70
     0
  3
___________________
 72
    65
 73
     2
 40
2.0
 49
1.0
 74
     0
 49
1.0
 74
     0
  0
LTYPE
  5
4DF7
330
5
100
AcDbSymbolTableRecord
100
AcDbLinetypeTableRecord
  2
太線
 70
     0
  3
___________________
 72
    65
 73
     2
 40
2.0
 49
1.0
 74
     0
 49
1.0
 74
     0
  0
LTYPE
  5
4EA7
330
5
100
AcDbSymbolTableRecord
100
AcDbLinetypeTableRecord
  2
文字
 70
     0
  3
_________________
 72
    65
 73
     2
 40
2.0
 49
1.0
 74
     0
 49
1.0
 74
     0
  0
LTYPE
  5
4EA9
330
5
100
AcDbSymbolTableRecord
100
AcDbLinetypeTableRecord
  2
寸法線
 70
     0
  3
________________
 72
    65
 73
     2
 40
2.0
 49
1.0
 74
     0
 49
1.0
 74
     0
  0
LTYPE
  5
4F12
330
5
100
AcDbSymbolTableRecord
100
AcDbLinetypeTableRecord
  2
ハッチング
 70
     0
  3
_________________
 72
    65
 73
     2
 40
2.0
 49
1.0
 74
     0
 49
1.0
 74
     0
  0
LTYPE
  5
5180
330
5
100
AcDbSymbolTableRecord
100
AcDbLinetypeTableRecord
  2
陰線1
 70
     0
  3
__ __ __ __
 72
    65
 73
     2
 40
4.0
 49
2.2
 74
     0
 49
-1.8
 74
     0
  0
LTYPE
  5
5182
330
5
100
AcDbSymbolTableRecord
100
AcDbLinetypeTableRecord
  2
切断線
 70
     0
  3
/\/-/\/-/\/-/\/-/\/-/\/
 72
    65
 73
     2
 40
11.0001
 49
0.0001
 74
     4
 75
   135
340
56
 46
0.04
 50
0.0
 44
0.0
 45
0.0
 49
-11.0
 74
     0
  0
LTYPE
  5
5183
330
5
100
AcDbSymbolTableRecord
100
AcDbLinetypeTableRecord
  2
想像線1
 70
     0
  3
__ __ __ _____ __ __ ____
 72
    65
 73
     6
 40
14.5
 49
6.0
 74
     0
 49
-1.5
 74
     0
 49
2.0
 74
     0
 49
-1.5
 74
     0
 49
2.0
 74
     0
 49
-1.5
 74
     0
  0
LTYPE
  5
5185
330
5
100
AcDbSymbolTableRecord
100
AcDbLinetypeTableRecord
  2
中心線1
 70
     0
  3
___ _ ___ _ ___
 72
    65
 73
     4
 40
18.0
 49
12.0
 74
     0
 49
-2.0
 74
     0
 49
2.0
 74
     0
 49
-2.0
 74
     0
  0
LTYPE
  5
5188
330
5
100
AcDbSymbolTableRecord
100
AcDbLinetypeTableRecord
  2
補助線
 70
     0
  3
______________
 72
    65
 73
     2
 40
2.0
 49
1.0
 74
     0
 49
1.0
 74
     0
  0
LTYPE
  5
6427
330
5
100
AcDbSymbolTableRecord
100
AcDbLinetypeTableRecord
  2
HIDDEN
 70
     0
  3
Hidden __ __ __ __ __ __ __ __ __ __ __ __ __ _
 72
    65
 73
     2
 40
0.375
 49
0.25
 74
     0
 49
-0.125
 74
     0
  0
LTYPE
  5
AC81
330
5
100
AcDbSymbolTableRecord
100
AcDbLinetypeTableRecord
  2
破断線
 70
     0
  3
/\/-/\/-/\/-/\/-/\/-/\/
 72
    65
 73
     2
 40
0.4401
 49
0.0001
 74
     4
 75
   136
340
AC80
 46
0.0016
 50
0.0
 44
0.0
 45
0.0
 49
-0.4400000000000001
 74
     0
  0
LTYPE
  5
AC9E
330
5
100
AcDbSymbolTableRecord
100
AcDbLinetypeTableRecord
  2
Amzigzag
 70
     0
  3
/\/-/\/-/\/-/\/-/\/-/\/
 72
    65
 73
     2
 40
11.0001
 49
0.0001
 74
     4
 75
   135
340
56
 46
0.04
 50
0.0
 44
0.0
 45
0.0
 49
-11.0
 74
     0
  0
LTYPE
  5
AF0F
330
5
100
AcDbSymbolTableRecord
100
AcDbLinetypeTableRecord
  2
genzigzag
 70
     0
  3
/\/-/\/-/\/-/\/-/\/-/\/
 72
    65
 73
     2
 40
12.0001
 49
0.0001
 74
     4
 75
   135
340
AC80
 46
2.0
 50
0.0
 44
0.0
 45
0.0
 49
-12.0
 74
     0
  0
LTYPE
  5
AF95
330
5
100
AcDbSymbolTableRecord
100
AcDbLinetypeTableRecord
  2
AM_ISO08W050
 70
     0
  3
____ . ____ . ____ . ____ . ____ . ____ . ____
 72
    65
 73
     4
 40
18.0
 49
12.0
 74
     0
 49
-1.5
 74
     0
 49
3.0
 74
     0
 49
-1.5
 74
     0
  0
LTYPE
  5
AF96
330
5
100
AcDbSymbolTableRecord
100
AcDbLinetypeTableRecord
  2
AM_ISO09W050
 70
     0
  3
_____ . . _____ . . _____ . . ____ .. ____
 72
    65
 73
     6
 40
22.5
 49
12.0
 74
     0
 49
-1.5
 74
     0
 49
3.0
 74
     0
 49
-1.5
 74
     0
 49
3.0
 74
     0
 49
-1.5
 74
     0
  0
LTYPE
  5
AF97
330
5
100
AcDbSymbolTableRecord
100
AcDbLinetypeTableRecord
  2
AM_ISO08W050x2
 70
     0
  3
__ . __ . __ . __ . __ . __
 72
    65
 73
     4
 40
9.0
 49
6.0
 74
     0
 49
-0.75
 74
     0
 49
1.5
 74
     0
 49
-0.75
 74
     0
  0
LTYPE
  5
AF98
330
5
100
AcDbSymbolTableRecord
100
AcDbLinetypeTableRecord
  2
AM_ISO02W050x2
 70
     0
  3
 _ _ _ _ _ _ _ _ _ _ _ _
 72
    65
 73
     2
 40
3.75
 49
3.0
 74
     0
 49
-0.75
 74
     0
  0
LTYPE
  5
B7B7
330
5
100
AcDbSymbolTableRecord
100
AcDbLinetypeTableRecord
  2
CENTER2
 70
     0
  3
Center (.5x) ___ _ ___ _ ___ _ ___ _ ___ _ ___
 72
    65
 73
     4
 40
1.125
 49
0.75
 74
     0
 49
-0.125
 74
     0
 49
0.125
 74
     0
 49
-0.125
 74
     0
  0
LTYPE
  5
B7B8
330
5
100
AcDbSymbolTableRecord
100
AcDbLinetypeTableRecord
  2
HIDDEN2
 70
     0
  3
Hidden (.5x) _ _ _ _ _ _ _ _ _ _ _ _ _ _ _ _ _
 72
    65
 73
     2
 40
0.1875
 49
0.125
 74
     0
 49
-0.0625
 74
     0
  0
LTYPE
  5
B7B9
330
5
100
AcDbSymbolTableRecord
100
AcDbLinetypeTableRecord
  2
Amzigzag2
 70
     0
  3
/\/-/\/-/\/-/\/-/\/-/\/
 72
    65
 73
     2
 40
0.4401
 49
0.0001
 74
     4
 75
   136
340
AC80
 46
0.0016
 50
0.0
 44
0.0
 45
0.0
 49
-0.4400000000000001
 74
     0
  0
LTYPE
  5
B7BA
330
5
100
AcDbSymbolTableRecord
100
AcDbLinetypeTableRecord
  2
ACANSTGB
 70
     0
  3
__ . . __ . .
 72
    65
 73
     6
 40
0.35433070866
 49
0.15748031496
 74
     0
 49
-0.03937007874
 74
     0
 49
0.03937007874
 74
     0
 49
-0.03937007874
 74
     0
 49
0.03937007874
 74
     0
 49
-0.03937007874
 74
     0
  0
LTYPE
  5
B7BB
330
5
100
AcDbSymbolTableRecord
100
AcDbLinetypeTableRecord
  2
ACANSTGL
 70
     0
  3
_ _ _ _ _
 72
    65
 73
     2
 40
0.11811023622
 49
0.07874015748
 74
     0
 49
-0.03937007874
 74
     0
  0
LTYPE
  5
37791
330
5
100
AcDbSymbolTableRecord
100
AcDbLinetypeTableRecord
  2
GEN7
 70
     0
  3
____ . ____ . ____ . ____ . ____ . ____ . ____
 72
    65
 73
     4
 40
13.75
 49
10.0
 74
     0
 49
-1.25
 74
     0
 49
1.25
 74
     0
 49
-1.25
 74
     0
  0
LTYPE
  5
37792
330
5
100
AcDbSymbolTableRecord
100
AcDbLinetypeTableRecord
  2
GEN7A
 70
     0
  3
__ . __ . __
 72
    65
 73
     4
 40
6.875
 49
5.0
 74
     0
 49
-0.625
 74
     0
 49
0.625
 74
     0
 49
-0.625
 74
     0
  0
LTYPE
  5
387FF
330
5
100
AcDbSymbolTableRecord
100
AcDbLinetypeTableRecord
  2
GEN4A
 70
     0
  3
_____ . . _____ . . _____ . . ____ .. ____
 72
    65
 73
     6
 40
16.25
 49
9.75
 74
     0
 49
-1.5
 74
     0
 49
1.0
 74
     0
 49
-1.5
 74
     0
 49
1.0
 74
     0
 49
-1.5
 74
     0
  0
ENDTAB
  0
TABLE
  2
LAYER
  5
2
102
{ACAD_XDICTIONARY
360
3F95
102
}
330
0
100
AcDbSymbolTable
 70
    31
  0
LAYER
  5
10
330
2
100
AcDbSymbolTableRecord
100
AcDbLayerTableRecord
  2
0
 70
     0
 62
     7
  6
Continuous
370
    -3
390
F
  0
LAYER
  5
6D1
330
2
100
AcDbSymbolTableRecord
100
AcDbLayerTableRecord
  2
Defpoints
 70
     0
 62
     7
  6
Continuous
290
     0
370
    -3
390
F
  0
LAYER
  5
5F85
330
2
100
AcDbSymbolTableRecord
100
AcDbLayerTableRecord
  2
AM_0
 70
     0
 62
     7
  6
中線
370
    30
390
F
1001
AcAecLayerStandard
1000

1000

  0
LAYER
  5
AC9F
330
2
100
AcDbSymbolTableRecord
100
AcDbLayerTableRecord
  2
size
 70
     0
 62
     5
  6
Continuous
290
     0
370
    25
390
F
  0
LAYER
  5
ACA0
330
2
100
AcDbSymbolTableRecord
100
AcDbLayerTableRecord
  2
waku
 70
     0
 62
     7
  6
Continuous
370
    35
390
F
  0
LAYER
  5
ACA1
330
2
100
AcDbSymbolTableRecord
100
AcDbLayerTableRecord
  2
AM_6
 70
     0
 62
     2
  6
文字
370
    13
390
F
1001
AcAecLayerStandard
1000

1000

  0
LAYER
  5
ACC8
330
2
100
AcDbSymbolTableRecord
100
AcDbLayerTableRecord
  2
hyomoji
 70
     0
 62
     2
  6
Continuous
370
    13
390
F
  0
LAYER
  5
ACC9
330
2
100
AcDbSymbolTableRecord
100
AcDbLayerTableRecord
  2
hyosen1
 70
     0
 62
     1
  6
Continuous
370
    25
390
F
  0
LAYER
  5
ACCA
330
2
100
AcDbSymbolTableRecord
100
AcDbLayerTableRecord
  2
hyosen2
 70
     0
 62
     1
  6
Continuous
370
    13
390
F
  0
LAYER
  5
AD60
330
2
100
AcDbSymbolTableRecord
100
AcDbLayerTableRecord
  2
AM_1
 70
     0
 62
    30
  6
太線
370
    40
390
F
1001
AcAecLayerStandard
1000

1000

  0
LAYER
  5
AD64
330
2
100
AcDbSymbolTableRecord
100
AcDbLayerTableRecord
  2
AM_2
 70
     0
 62
     1
  6
細線
370
    13
390
F
1001
AcAecLayerStandard
1000

1000

  0
LAYER
  5
AD67
330
2
100
AcDbSymbolTableRecord
100
AcDbLayerTableRecord
  2
AM_3
 70
     0
 62
     6
  6
陰線1
370
    13
390
F
1001
AcAecLayerStandard
1000

1000

  0
LAYER
  5
AD68
330
2
100
AcDbSymbolTableRecord
100
AcDbLayerTableRecord
  2
AM_5
 70
     0
 62
     3
  6
寸法線
370
    13
390
F
1001
AcAecLayerStandard
1000

1000

  0
LAYER
  5
AD69
330
2
100
AcDbSymbolTableRecord
100
AcDbLayerTableRecord
  2
AM_7
 70
     0
 62
     4
  6
中心線1
370
    13
390
F
1001
AcAecLayerStandard
1000

1000

  0
LAYER
  5
AD6A
330
2
100
AcDbSymbolTableRecord
100
AcDbLayerTableRecord
  2
AM_8
 70
     0
 62
     1
  6
ハッチング
370
    13
390
F
1001
AcAecLayerStandard
1000

1000

  0
LAYER
  5
AD6E
330
2
100
AcDbSymbolTableRecord
100
AcDbLayerTableRecord
  2
AM_10
 70
     0
 62
     7
  6
切断線
370
    13
390
F
1001
AcAecLayerStandard
1000

1000

  0
LAYER
  5
AD6F
330
2
100
AcDbSymbolTableRecord
100
AcDbLayerTableRecord
  2
AM_11
 70
     0
 62
     2
  6
想像線1
370
    13
390
F
1001
AcAecLayerStandard
1000

1000

  0
LAYER
  5
B1B6
330
2
100
AcDbSymbolTableRecord
100
AcDbLayerTableRecord
  2
AM_CL
 70
     0
 62
     1
  6
Amconstr
370
    15
390
F
1001
AcAecLayerStandard
1000

1000

  0
LAYER
  5
B2EB
330
2
100
AcDbSymbolTableRecord
100
AcDbLayerTableRecord
  2
AM_14
 70
     0
 62
     5
  6
細線
370
     9
390
F
1001
AcAecLayerStandard
1000

1000

  0
LAYER
  5
B2EC
330
2
100
AcDbSymbolTableRecord
100
AcDbLayerTableRecord
  2
AM_15
 70
     0
 62
     6
  6
陰線1
370
     9
390
F
1001
AcAecLayerStandard
1000

1000

  0
LAYER
  5
B502
330
2
100
AcDbSymbolTableRecord
100
AcDbLayerTableRecord
  2
AM_4
 70
     0
 62
     3
  6
補助線
370
    15
390
F
1001
AcAecLayerStandard
1000

1000

  0
LAYER
  5
B7BC
330
2
100
AcDbSymbolTableRecord
100
AcDbLayerTableRecord
  2
レイヤー 1
 70
     0
 62
     7
  6
Continuous
370
    -3
390
F
  0
LAYER
  5
37793
330
2
100
AcDbSymbolTableRecord
100
AcDbLayerTableRecord
  2
1
 70
     0
 62
     3
  6
Continuous
370
    -3
390
F
  0
LAYER
  5
37794
330
2
100
AcDbSymbolTableRecord
100
AcDbLayerTableRecord
  2
6
 70
     0
 62
     2
  6
Continuous
370
    -3
390
F
  0
LAYER
  5
37795
330
2
100
AcDbSymbolTableRecord
100
AcDbLayerTableRecord
  2
7
 70
     0
 62
     1
  6
GEN7
370
    -3
390
F
  0
LAYER
  5
37796
330
2
100
AcDbSymbolTableRecord
100
AcDbLayerTableRecord
  2
7A
 70
     0
 62
     1
  6
GEN7A
370
    -3
390
F
  0
LAYER
  5
37797
330
2
100
AcDbSymbolTableRecord
100
AcDbLayerTableRecord
  2
5
 70
     0
 62
     2
  6
Continuous
370
    -3
390
F
  0
LAYER
  5
37798
330
2
100
AcDbSymbolTableRecord
100
AcDbLayerTableRecord
  2
WAKU2
 70
     0
 62
     8
  6
Continuous
370
    -3
390
F
  0
LAYER
  5
37799
330
2
100
AcDbSymbolTableRecord
100
AcDbLayerTableRecord
  2
WAKU1
 70
     0
 62
     9
  6
Continuous
370
    -3
390
F
  0
LAYER
  5
38800
102
{ACAD_XDICTIONARY
360
38801
102
}
330
2
100
AcDbSymbolTableRecord
100
AcDbLayerTableRecord
  2
4A
 70
     0
 62
     2
  6
GEN4A
370
    35
390
F
  0
LAYER
  5
38803
102
{ACAD_XDICTIONARY
360
38804
102
}
330
2
100
AcDbSymbolTableRecord
100
AcDbLayerTableRecord
  2
CENTER
 70
     0
 62
     1
  6
CENTER
370
    -3
390
F
  0
ENDTAB
  0
TABLE
  2
STYLE
  5
3
330
0
100
AcDbSymbolTable
 70
    10
  0
STYLE
  5
11
330
3
100
AcDbSymbolTableRecord
100
AcDbTextStyleTableRecord
  2
STANDARD
 70
     0
 40
0.0
 41
0.7
 50
0.0
 71
     0
 42
3.2
  3
romans.shx
  4
extfont.shx
  0
STYLE
  5
56
330
3
100
AcDbSymbolTableRecord
100
AcDbTextStyleTableRecord
  2

 70
     1
 40
0.0
 41
1.0
 50
0.0
 71
     0
 42
2.5
  3
ltypeshp.shx
  4

  0
STYLE
  5
58
330
3
100
AcDbSymbolTableRecord
100
AcDbTextStyleTableRecord
  2
ACISOTS
 70
     0
 40
1.0
 41
1.0
 50
0.0
 71
     0
 42
2.5
  3
isocp.shx
  4
extfont.shx
  0
STYLE
  5
63
330
3
100
AcDbSymbolTableRecord
100
AcDbTextStyleTableRecord
  2
ACISOGDT
 70
     0
 40
0.0
 41
1.0
 50
0.0
 71
     0
 42
2.5
  3
amgdt.shx
  4

  0
STYLE
  5
A74
330
3
100
AcDbSymbolTableRecord
100
AcDbTextStyleTableRecord
  2
DIM
 70
     0
 40
0.0
 41
1.0
 50
0.0
 71
     0
 42
2.5
  3
monotxt.shx
  4
extfont.shx
  0
STYLE
  5
AC80
330
3
100
AcDbSymbolTableRecord
100
AcDbTextStyleTableRecord
  2

 70
     1
 40
0.0
 41
1.0
 50
0.0
 71
     0
 42
3.2
  3
genltshp.shx
  4

  0
STYLE
  5
B7BD
330
3
100
AcDbSymbolTableRecord
100
AcDbTextStyleTableRecord
  2
ACANSTS
 70
     0
 40
1.0
 41
1.0
 50
0.0
 71
     0
 42
0.2
  3
romans.shx
  4
extfont.shx
  0
STYLE
  5
B7BE
330
3
100
AcDbSymbolTableRecord
100
AcDbTextStyleTableRecord
  2
ACANSGDT
 70
     0
 40
0.0
 41
1.0
 50
0.0
 71
     0
 42
0.2
  3
amgdt.shx
  4

  0
STYLE
  5
3779A
330
3
100
AcDbSymbolTableRecord
100
AcDbTextStyleTableRecord
  2
KANJI
 70
     0
 40
0.0
 41
1.0
 50
0.0
 71
     0
 42
10.0
  3
TXT
  4
EXTFONT
  0
STYLE
  5
3779B
330
3
100
AcDbSymbolTableRecord
100
AcDbTextStyleTableRecord
  2
MINCHOU
 70
     0
 40
0.0
 41
1.0
 50
0.0
 71
     0
 42
4.0
  3
\MSMINCH1.TTF
  4

  0
ENDTAB
  0
TABLE
  2
VIEW
  5
6
330
0
100
AcDbSymbolTable
 70
     6
  0
VIEW
  5
AE1
330
6
100
AcDbSymbolTableRecord
100
AcDbViewTableRecord
  2
AM_VIEW1
 70
     0
 40
168.8677685950413
 10
105.0
 20
212.5661157536293
 41
210.0
 11
0.0
 21
0.0
 31
1.0
 12
0.0
 22
0.0
 32
0.0
 42
50.0
 43
-1370.695619172058
 44
-1370.695619172058
 50
0.0
 71
     0
281
     0
 72
     0
  0
VIEW
  5
AE2
330
6
100
AcDbSymbolTableRecord
100
AcDbViewTableRecord
  2
AM_VIEW2
 70
     0
 40
168.8677685950413
 10
314.9999999999999
 20
212.5661157536293
 41
210.0
 11
0.0
 21
0.0
 31
1.0
 12
0.0
 22
0.0
 32
0.0
 42
50.0
 43
-1370.695619172058
 44
-1370.695619172058
 50
0.0
 71
     0
281
     0
 72
     0
  0
VIEW
  5
AE3
330
6
100
AcDbSymbolTableRecord
100
AcDbViewTableRecord
  2
AM_VIEW3
 70
     0
 40
168.8677685950413
 10
105.0
 20
84.43388434867065
 41
210.0
 11
0.0
 21
0.0
 31
1.0
 12
0.0
 22
0.0
 32
0.0
 42
50.0
 43
-1370.695619172058
 44
-1370.695619172058
 50
0.0
 71
     0
281
     0
 72
     0
  0
VIEW
  5
AE4
330
6
100
AcDbSymbolTableRecord
100
AcDbViewTableRecord
  2
AM_VIEW4
 70
     0
 40
168.8677685950413
 10
314.9999999999999
 20
84.43388434867065
 41
210.0
 11
0.0
 21
0.0
 31
1.0
 12
0.0
 22
0.0
 32
0.0
 42
50.0
 43
-1370.695619172058
 44
-1370.695619172058
 50
0.0
 71
     0
281
     0
 72
     0
  0
VIEW
  5
AE5
330
6
100
AcDbSymbolTableRecord
100
AcDbViewTableRecord
  2
AM_VIEW5
 70
     0
 40
168.8677685950413
 10
210.0
 20
148.50000005115
 41
210.0
 11
0.0
 21
0.0
 31
1.0
 12
0.0
 22
0.0
 32
0.0
 42
50.0
 43
-1370.695619172058
 44
-1370.695619172058
 50
0.0
 71
     0
281
     0
 72
     0
  0
VIEW
  5
AE6
330
6
100
AcDbSymbolTableRecord
100
AcDbViewTableRecord
  2
AM_VIEW6
 70
     0
 40
337.7321598347107
 10
210.0
 20
148.50000005115
 41
419.9958
 11
0.0
 21
0.0
 31
1.0
 12
0.0
 22
0.0
 32
0.0
 42
50.0
 43
-1370.695619172058
 44
-1370.695619172058
 50
0.0
 71
     0
281
     0
 72
     0
  0
ENDTAB
  0
TABLE
  2
UCS
  5
7
330
0
100
AcDbSymbolTable
 70
     0
  0
ENDTAB
  0
TABLE
  2
APPID
  5
9
330
0
100
AcDbSymbolTable
 70
    65
  0
APPID
  5
12
330
9
100
AcDbSymbolTableRecord
100
AcDbRegAppTableRecord
  2
ACAD
 70
     0
  0
APPID
  5
30
330
9
100
AcDbSymbolTableRecord
100
AcDbRegAppTableRecord
  2
MCAD_NO_VIS
 70
     0
  0
APPID
  5
31
330
9
100
AcDbSymbolTableRecord
100
AcDbRegAppTableRecord
  2
ACAD_TEMP_GRAPHIC
 70
     0
  0
APPID
  5
44
330
9
100
AcDbSymbolTableRecord
100
AcDbRegAppTableRecord
  2
ACATTRIBSERVICES
 70
     0
  0
APPID
  5
7A1
330
9
100
AcDbSymbolTableRecord
100
AcDbRegAppTableRecord
  2
GENIUS_GENDIMSH_14
 70
     0
  0
APPID
  5
A49
330
9
100
AcDbSymbolTableRecord
100
AcDbRegAppTableRecord
  2
GENIUS_GENREC_14
 70
     0
  0
APPID
  5
A4A
330
9
100
AcDbSymbolTableRecord
100
AcDbRegAppTableRecord
  2
GENIUS_GENOBJ-N-REC_13
 70
     0
  0
APPID
  5
A4B
330
9
100
AcDbSymbolTableRecord
100
AcDbRegAppTableRecord
  2
GENIUS_GENODEF_13
 70
     0
  0
APPID
  5
A4C
330
9
100
AcDbSymbolTableRecord
100
AcDbRegAppTableRecord
  2
DCO15
 70
     0
  0
APPID
  5
ADC
330
9
100
AcDbSymbolTableRecord
100
AcDbRegAppTableRecord
  2
GENIUS_GENOLIS_13
 70
     0
  0
APPID
  5
ADD
330
9
100
AcDbSymbolTableRecord
100
AcDbRegAppTableRecord
  2
GENIUS_GENOENT_13
 70
     0
  0
APPID
  5
ADE
330
9
100
AcDbSymbolTableRecord
100
AcDbRegAppTableRecord
  2
GENIUS_GENOBJ-N-TIT_13
 70
     0
  0
APPID
  5
ADF
330
9
100
AcDbSymbolTableRecord
100
AcDbRegAppTableRecord
  2
GENIUS_GENTITLE_13
 70
     0
  0
APPID
  5
AE0
330
9
100
AcDbSymbolTableRecord
100
AcDbRegAppTableRecord
  2
GENIUS_GENOREF_13
 70
     0
  0
APPID
  5
AE7
330
9
100
AcDbSymbolTableRecord
100
AcDbRegAppTableRecord
  2
GENIUS_GENSCREG_15
 70
     0
  0
APPID
  5
AE8
330
9
100
AcDbSymbolTableRecord
100
AcDbRegAppTableRecord
  2
GENIUS_GENOBJ-N-SDF_13
 70
     0
  0
APPID
  5
FAF
330
9
100
AcDbSymbolTableRecord
100
AcDbRegAppTableRecord
  2
GENIUS_GENBLLY_14
 70
     0
  0
APPID
  5
FB0
330
9
100
AcDbSymbolTableRecord
100
AcDbRegAppTableRecord
  2
GENIUS_GENTRA_14
 70
     0
  0
APPID
  5
1285
330
9
100
AcDbSymbolTableRecord
100
AcDbRegAppTableRecord
  2
GENIUS_GENDTOL_13
 70
     0
  0
APPID
  5
142D
330
9
100
AcDbSymbolTableRecord
100
AcDbRegAppTableRecord
  2
GENIUS_GENOBJ-N-CEN_13
 70
     0
  0
APPID
  5
1AB5
330
9
100
AcDbSymbolTableRecord
100
AcDbRegAppTableRecord
  2
GENIUS_GENOBJ-N-CRS_13
 70
     0
  0
APPID
  5
1B36
330
9
100
AcDbSymbolTableRecord
100
AcDbRegAppTableRecord
  2
GENIUS_GENOBJ-N-HTC_13
 70
     0
  0
APPID
  5
1B37
330
9
100
AcDbSymbolTableRecord
100
AcDbRegAppTableRecord
  2
GENIUS_GENHATCH_13
 70
     0
  0
APPID
  5
216D
330
9
100
AcDbSymbolTableRecord
100
AcDbRegAppTableRecord
  2
GENIUS_GENOBJ-N-FIL_13
 70
     0
  0
APPID
  5
2356
330
9
100
AcDbSymbolTableRecord
100
AcDbRegAppTableRecord
  2
GEVID990412420
 70
     0
  0
APPID
  5
2357
330
9
100
AcDbSymbolTableRecord
100
AcDbRegAppTableRecord
  2
GEVDC
 70
     0
  0
APPID
  5
2358
330
9
100
AcDbSymbolTableRecord
100
AcDbRegAppTableRecord
  2
GEVCON
 70
     0
  0
APPID
  5
235B
330
9
100
AcDbSymbolTableRecord
100
AcDbRegAppTableRecord
  2
GEVRADREF
 70
     0
  0
APPID
  5
2360
330
9
100
AcDbSymbolTableRecord
100
AcDbRegAppTableRecord
  2
GENIUS_GENBH_13
 70
     0
  0
APPID
  5
2362
330
9
100
AcDbSymbolTableRecord
100
AcDbRegAppTableRecord
  2
GENIUS_GENOBJ-NBEHI-BHF_13
 70
     0
  0
APPID
  5
2364
330
9
100
AcDbSymbolTableRecord
100
AcDbRegAppTableRecord
  2
GENIUS_GENOBJ-NBEHI-BHB_13
 70
     0
  0
APPID
  5
2379
330
9
100
AcDbSymbolTableRecord
100
AcDbRegAppTableRecord
  2
GENIUS_GENOBJ-F-SCPASSM_13
 70
     0
  0
APPID
  5
3D74
330
9
100
AcDbSymbolTableRecord
100
AcDbRegAppTableRecord
  2
GENIUS_GENDIM_13
 70
     0
  0
APPID
  5
3D76
330
9
100
AcDbSymbolTableRecord
100
AcDbRegAppTableRecord
  2
GENIUS_GE3DTOL_13
 70
     0
  0
APPID
  5
3D9C
330
9
100
AcDbSymbolTableRecord
100
AcDbRegAppTableRecord
  2
AD_DRAW
 70
     0
  0
APPID
  5
3DE8
330
9
100
AcDbSymbolTableRecord
100
AcDbRegAppTableRecord
  2
ASURF_PCURVE_APPNAME
 70
     0
  0
APPID
  5
3DED
330
9
100
AcDbSymbolTableRecord
100
AcDbRegAppTableRecord
  2
AMG_3D2D_5.0
 70
     0
  0
APPID
  5
3E1B
330
9
100
AcDbSymbolTableRecord
100
AcDbRegAppTableRecord
  2
DESIGNERASSEMBLIES
 70
     0
  0
APPID
  5
3E20
330
9
100
AcDbSymbolTableRecord
100
AcDbRegAppTableRecord
  2
ACADM_DIM_EDIT
 70
     0
  0
APPID
  5
3E21
330
9
100
AcDbSymbolTableRecord
100
AcDbRegAppTableRecord
  2
AMDT_DM_ADJ
 70
     0
  0
APPID
  5
4143
330
9
100
AcDbSymbolTableRecord
100
AcDbRegAppTableRecord
  2
GENIUS_GENFIL_13
 70
     0
  0
APPID
  5
4144
330
9
100
AcDbSymbolTableRecord
100
AcDbRegAppTableRecord
  2
GENIUS_GENOBJ-N-CHA_13
 70
     0
  0
APPID
  5
4E17
330
9
100
AcDbSymbolTableRecord
100
AcDbRegAppTableRecord
  2
GEVID1008153417
 70
     0
  0
APPID
  5
4E58
330
9
100
AcDbSymbolTableRecord
100
AcDbRegAppTableRecord
  2
GEVID1008153418
 70
     0
  0
APPID
  5
4E5E
330
9
100
AcDbSymbolTableRecord
100
AcDbRegAppTableRecord
  2
GEVID1008153419
 70
     0
  0
APPID
  5
4E64
330
9
100
AcDbSymbolTableRecord
100
AcDbRegAppTableRecord
  2
GEVID1008153420
 70
     0
  0
APPID
  5
4E75
330
9
100
AcDbSymbolTableRecord
100
AcDbRegAppTableRecord
  2
GEVID1008153421
 70
     0
  0
APPID
  5
4EB7
330
9
100
AcDbSymbolTableRecord
100
AcDbRegAppTableRecord
  2
GENIUS_AMGTXT_16
 70
     0
  0
APPID
  5
7645
330
9
100
AcDbSymbolTableRecord
100
AcDbRegAppTableRecord
  2
GENIUS_GENOBJ-N-DIM_13
 70
     0
  0
APPID
  5
AAD0
330
9
100
AcDbSymbolTableRecord
100
AcDbRegAppTableRecord
  2
ACAD_DSTYLE_DIMARC_LENGTH_SYMBOL
 70
     0
  0
APPID
  5
AAD1
330
9
100
AcDbSymbolTableRecord
100
AcDbRegAppTableRecord
  2
ACAD_DSTYLE_DIMJOGGED_JOGANGLE_SYMBOL
 70
     0
  0
APPID
  5
AAFD
330
9
100
AcDbSymbolTableRecord
100
AcDbRegAppTableRecord
  2
ACAD_PSEXT
 70
     0
  0
APPID
  5
AD61
330
9
100
AcDbSymbolTableRecord
100
AcDbRegAppTableRecord
  2
AcAecLayerStandard
 70
     0
  0
APPID
  5
AEE3
330
9
100
AcDbSymbolTableRecord
100
AcDbRegAppTableRecord
  2
ACAD_EXEMPT_FROM_CAD_STANDARDS
 70
     0
  0
APPID
  5
B1BE
330
9
100
AcDbSymbolTableRecord
100
AcDbRegAppTableRecord
  2
GENIUS_GENCEN_19
 70
     0
  0
APPID
  5
16AE2
330
9
100
AcDbSymbolTableRecord
100
AcDbRegAppTableRecord
  2
ACAD_MLEADERVER
 70
     0
  0
APPID
  5
16B08
330
9
100
AcDbSymbolTableRecord
100
AcDbRegAppTableRecord
  2
ACAUTHENVIRON
 70
     0
  0
APPID
  5
16B09
330
9
100
AcDbSymbolTableRecord
100
AcDbRegAppTableRecord
  2
AcDbDynamicBlockTrueName
 70
     0
  0
APPID
  5
16B0A
330
9
100
AcDbSymbolTableRecord
100
AcDbRegAppTableRecord
  2
AcDbDynamicBlockGUID
 70
     0
  0
APPID
  5
16B0B
330
9
100
AcDbSymbolTableRecord
100
AcDbRegAppTableRecord
  2
ACDBBLOCKREPETAG
 70
     0
  0
APPID
  5
3779F
330
9
100
AcDbSymbolTableRecord
100
AcDbRegAppTableRecord
  2
GENIUS_GENDREL_13
 70
     0
  0
APPID
  5
377A0
330
9
100
AcDbSymbolTableRecord
100
AcDbRegAppTableRecord
  2
GENIUS_GENHINW_13
 70
     0
  0
APPID
  5
377A1
330
9
100
AcDbSymbolTableRecord
100
AcDbRegAppTableRecord
  2
GENIUS_GENOBJ-N-HINW_13
 70
     0
  0
APPID
  5
377A2
330
9
100
AcDbSymbolTableRecord
100
AcDbRegAppTableRecord
  2
GENIUS_GENOBJ-N-LEADER_13
 70
     0
  0
APPID
  5
3A20F
330
9
100
AcDbSymbolTableRecord
100
AcDbRegAppTableRecord
  2
ACAD_DSTYLE_DIMEXT_LENGTH
 70
     0
  0
ENDTAB
  0
TABLE
  2
DIMSTYLE
  5
A
330
0
100
AcDbSymbolTable
 70
    27
100
AcDbDimStyleTable
 71
     1
340
2515
  0
DIMSTYLE
105
A76
330
A
100
AcDbSymbolTableRecord
100
AcDbDimStyleTableRecord
  2
STANDARD
 70
     0
 41
3.0
 42
1.0
 43
7.0
 44
2.0
 73
     0
 74
     0
 77
     1
140
2.799999999999999
141
0.0
143
0.0394
147
0.7
171
     4
172
     1
173
     1
176
     3
177
     3
178
     2
271
     3
272
     3
273
     8
274
     4
289
     0
340
A74
341
A66
343
A66
344
A66
  0
DIMSTYLE
105
2515
330
A
100
AcDbSymbolTableRecord
100
AcDbDimStyleTableRecord
  2
SYS
 70
     0
  4
"
 41
1.0
 42
1.0
 43
10.0
 44
1.0
 47
0.1
 48
0.1
 73
     0
 74
     0
 77
     1
 78
     8
 79
     2
140
3.5
141
0.0
143
0.0393701
146
0.71
147
1.5
172
     1
176
   256
177
   256
178
     7
271
     2
272
     2
283
     0
284
     8
340
11
371
    -1
372
    -1
1001
ACAD_DSTYLE_DIMJOGGED_JOGANGLE_SYMBOL
1070
   384
1040
0.7853981633974483
1001
ACAD_DSTYLE_DIMARC_LENGTH_SYMBOL
1070
   379
1070
     1
  0
DIMSTYLE
105
2516
102
{ACAD_REACTORS
330
398D7
102
}
330
A
100
AcDbSymbolTableRecord
100
AcDbDimStyleTableRecord
  2
SYS$3
 70
     0
  4
"
 41
2.0
 42
1.0
 43
10.0
 44
1.0
 47
0.1
 48
0.1
 73
     0
 77
     1
 78
     8
 79
     2
140
3.5
141
0.0
143
0.0393701
146
0.71
147
1.5
176
   256
177
   256
178
     2
271
     2
272
     2
283
     0
284
     8
288
     1
340
11
342
A66
371
    -1
372
    -1
1001
ACAD_DSTYLE_DIMJOGGED_JOGANGLE_SYMBOL
1070
   384
1040
0.7853981633974483
1001
ACAD_DSTYLE_DIMARC_LENGTH_SYMBOL
1070
   379
1070
     1
  0
DIMSTYLE
105
2517
330
A
100
AcDbSymbolTableRecord
100
AcDbDimStyleTableRecord
  2
SYS$4
 70
     0
  4
"
 41
2.0
 42
1.0
 43
10.0
 44
1.0
 47
0.1
 48
0.1
 73
     0
 77
     1
 78
     8
 79
     2
140
3.5
141
0.0
143
0.0393701
146
0.71
147
1.5
173
     1
176
   256
177
   256
178
     2
271
     2
272
     2
283
     0
284
     8
288
     1
340
11
344
A66
371
    -1
372
    -1
1001
ACAD_DSTYLE_DIMJOGGED_JOGANGLE_SYMBOL
1070
   384
1040
0.7853981633974483
1001
ACAD_DSTYLE_DIMARC_LENGTH_SYMBOL
1070
   379
1070
     1
  0
DIMSTYLE
105
2518
330
A
100
AcDbSymbolTableRecord
100
AcDbDimStyleTableRecord
  2
SYS$6
 70
     0
  4
"
 41
2.0
 42
1.0
 43
10.0
 44
1.0
 47
0.1
 48
0.1
 73
     0
 74
     0
 78
     8
 79
     2
140
3.5
141
0.0
143
0.0393701
146
0.71
147
1.5
172
     1
176
   256
177
   256
178
     2
271
     2
272
     2
283
     0
284
     8
340
11
341
A66
371
    -1
372
    -1
1001
ACAD_DSTYLE_DIMJOGGED_JOGANGLE_SYMBOL
1070
   384
1040
0.7853981633974483
1001
ACAD_DSTYLE_DIMARC_LENGTH_SYMBOL
1070
   379
1070
     1
  0
DIMSTYLE
105
2519
330
A
100
AcDbSymbolTableRecord
100
AcDbDimStyleTableRecord
  2
SYS$7
 70
     0
  4
"
 41
2.0
 42
1.0
 43
10.0
 44
1.0
 47
0.1
 48
0.1
 73
     0
 74
     0
 77
     1
 78
     8
 79
     2
140
5.0
141
0.0
143
0.0393701
146
0.71
147
1.5
172
     1
176
   256
177
   256
178
     2
271
     2
272
     2
283
     0
284
     8
340
11
341
A66
342
A66
371
    -1
372
    -1
1001
ACAD_DSTYLE_DIMJOGGED_JOGANGLE_SYMBOL
1070
   384
1040
0.7853981633974483
1001
ACAD_DSTYLE_DIMARC_LENGTH_SYMBOL
1070
   379
1070
     1
  0
DIMSTYLE
105
251A
330
A
100
AcDbSymbolTableRecord
100
AcDbDimStyleTableRecord
  2
SYS$SF
 70
     0
  4
"
 41
2.5
 42
1.0
 43
10.0
 44
1.0
 47
0.1
 48
0.1
 73
     0
 74
     0
 75
     1
 76
     1
 77
     1
 78
     8
 79
     2
140
3.5
141
0.0
143
0.0393701
146
0.71
147
1.5
172
     1
176
   256
177
   256
178
     2
271
     2
272
     3
283
     0
284
     8
340
11
341
6C4
342
6C4
371
    -1
372
    -1
1001
ACAD_DSTYLE_DIMJOGGED_JOGANGLE_SYMBOL
1070
   384
1040
0.7853981633974483
1001
ACAD_DSTYLE_DIMARC_LENGTH_SYMBOL
1070
   379
1070
     1
  0
DIMSTYLE
105
251B
330
A
100
AcDbSymbolTableRecord
100
AcDbDimStyleTableRecord
  2
SYS$SH
 70
     0
  4
"
 41
2.5
 42
1.0
 43
10.0
 44
1.0
 47
0.1
 48
0.1
 73
     0
 74
     0
 75
     1
 76
     1
 77
     1
 78
     8
 79
     2
140
3.5
141
0.0
143
0.0393701
144
2.0
146
0.71
147
1.5
172
     1
173
     1
176
   256
177
   256
178
     2
271
     2
272
     3
283
     0
284
     8
340
11
341
6C4
343
72
344
6C4
371
    -1
372
    -1
1001
ACAD_DSTYLE_DIMJOGGED_JOGANGLE_SYMBOL
1070
   384
1040
0.7853981633974483
1001
ACAD_DSTYLE_DIMARC_LENGTH_SYMBOL
1070
   379
1070
     1
  0
DIMSTYLE
105
2A59
330
A
100
AcDbSymbolTableRecord
100
AcDbDimStyleTableRecord
  2
SYS$2
 70
     0
  4
"
 41
1.0
 42
1.0
 43
10.0
 44
1.0
 47
0.1
 48
0.1
 73
     0
 74
     0
 77
     1
 78
     8
 79
     2
140
3.5
141
0.0
143
0.0393701
146
0.71
147
1.5
172
     1
176
   256
177
   256
178
     2
271
     2
272
     2
283
     0
284
     8
340
11
342
6C4
371
    -1
372
    -1
1001
ACAD_DSTYLE_DIMJOGGED_JOGANGLE_SYMBOL
1070
   384
1040
0.7853981633974483
1001
ACAD_DSTYLE_DIMARC_LENGTH_SYMBOL
1070
   379
1070
     1
  0
DIMSTYLE
105
2AAB
102
{ACAD_REACTORS
330
39539
330
3954F
330
3957B
330
395A0
330
397C7
330
39857
330
3986D
330
39883
330
39CA3
330
39CB9
330
39D15
330
39DF6
330
39F15
330
39F4B
330
39FDE
102
}
330
A
100
AcDbSymbolTableRecord
100
AcDbDimStyleTableRecord
  2
SYS$0
 70
     0
  4
"
 41
1.0
 42
1.0
 43
10.0
 44
1.0
 47
0.1
 48
0.1
 73
     0
 74
     0
 77
     1
 78
     8
 79
     2
140
3.200000000000001
141
0.0
143
0.0393701
146
0.71
147
1.5
172
     1
176
   256
177
   256
178
     2
271
     2
272
     2
283
     0
284
     8
340
11
341
A66
342
6C4
371
    -1
372
    -1
1001
ACAD_DSTYLE_DIMJOGGED_JOGANGLE_SYMBOL
1070
   384
1040
0.7853981633974483
1001
ACAD_DSTYLE_DIMARC_LENGTH_SYMBOL
1070
   379
1070
     1
  0
DIMSTYLE
105
AF99
330
A
100
AcDbSymbolTableRecord
100
AcDbDimStyleTableRecord
  2
AM_ISO
 70
     0
  4
"
 41
2.5
 42
1.0
 43
10.0
 44
1.0
 47
0.1
 48
0.1
 73
     0
 74
     0
 77
     1
 78
     8
 79
     2
140
3.5
141
0.0
143
0.0393701
146
0.71
147
1.5
172
     1
176
   256
177
   256
178
     2
271
     2
272
     3
274
     4
283
     0
284
     8
340
11
371
    -1
372
    -1
  0
DIMSTYLE
105
AF9A
330
A
100
AcDbSymbolTableRecord
100
AcDbDimStyleTableRecord
  2
AM_ISO$3
 70
     0
  4
"
 41
2.5
 42
1.0
 43
10.0
 44
1.0
 47
0.1
 48
0.1
 73
     0
 77
     1
 78
     8
 79
     2
140
3.5
141
0.0
143
0.0393701
146
0.71
147
1.5
176
   256
177
   256
178
     2
271
     2
272
     3
274
     4
283
     0
284
     8
288
     1
289
     0
340
11
371
    -1
372
    -1
  0
DIMSTYLE
105
AF9B
330
A
100
AcDbSymbolTableRecord
100
AcDbDimStyleTableRecord
  2
AM_ISO$4
 70
     0
  4
"
 41
2.5
 42
1.0
 43
10.0
 44
1.0
 47
0.1
 48
0.1
 73
     0
 77
     1
 78
     8
 79
     2
140
3.5
141
0.0
143
0.0393701
146
0.71
147
1.5
176
   256
177
   256
178
     2
271
     2
272
     3
274
     4
283
     0
284
     8
288
     1
289
     0
340
11
371
    -1
372
    -1
  0
DIMSTYLE
105
AF9C
330
A
100
AcDbSymbolTableRecord
100
AcDbDimStyleTableRecord
  2
AM_ISO$6
 70
     0
  4
"
 41
2.5
 42
1.0
 43
10.0
 44
1.0
 47
0.1
 48
0.1
 73
     0
 74
     0
 78
     8
 79
     2
140
3.5
141
0.0
143
0.0393701
146
0.71
147
1.5
172
     1
176
   256
177
   256
178
     2
271
     2
272
     3
274
     4
283
     0
284
     8
340
11
371
    -1
372
    -1
  0
DIMSTYLE
105
AF9D
330
A
100
AcDbSymbolTableRecord
100
AcDbDimStyleTableRecord
  2
AM_ISO$7
 70
     0
  4
"
 41
2.5
 42
1.0
 43
10.0
 44
1.0
 47
0.1
 48
0.1
 73
     0
 74
     0
 77
     1
 78
     8
 79
     2
140
5.0
141
0.0
143
0.0393701
146
0.71
147
1.5
172
     1
176
   256
177
   256
178
     2
271
     2
272
     3
274
     4
283
     0
284
     8
340
11
371
    -1
372
    -1
  0
DIMSTYLE
105
AF9E
330
A
100
AcDbSymbolTableRecord
100
AcDbDimStyleTableRecord
  2
AM_ISO$SF
 70
     0
  4
"
 41
2.5
 42
1.0
 43
10.0
 44
1.0
 47
0.1
 48
0.1
 73
     0
 74
     0
 75
     1
 76
     1
 77
     1
 78
     8
 79
     2
140
3.5
141
0.0
143
0.0393701
146
0.71
147
1.5
172
     1
176
   256
177
   256
178
     2
271
     2
272
     3
274
     4
283
     0
284
     8
340
11
371
    -1
372
    -1
  0
DIMSTYLE
105
AF9F
330
A
100
AcDbSymbolTableRecord
100
AcDbDimStyleTableRecord
  2
AM_ISO$SH
 70
     0
  4
"
 41
2.5
 42
1.0
 43
10.0
 44
1.0
 47
0.1
 48
0.1
 73
     0
 74
     0
 75
     1
 76
     1
 77
     1
 78
     8
 79
     2
140
3.5
141
0.0
143
0.0393701
144
2.0
146
0.71
147
1.5
172
     1
173
     1
176
   256
177
   256
178
     2
271
     2
272
     3
274
     4
283
     0
284
     8
340
11
343
72
371
    -1
372
    -1
  0
DIMSTYLE
105
B7BF
330
A
100
AcDbSymbolTableRecord
100
AcDbDimStyleTableRecord
  2
AM_ANSI
 70
     0
  4
mm
 41
0.1
 42
0.05
 43
0.5
 44
0.1
 47
0.1
 48
0.1
 78
     7
 79
     2
140
0.12
141
0.0
146
0.71
147
0.06
176
   256
177
   256
178
     2
274
     4
284
     7
340
11
371
    -1
372
    -1
1001
ACAD_DSTYLE_DIMARC_LENGTH_SYMBOL
1070
   379
1070
     1
  0
DIMSTYLE
105
B7C0
330
A
100
AcDbSymbolTableRecord
100
AcDbDimStyleTableRecord
  2
AM_ANSI$3
 70
     0
  4
mm
 41
0.1
 42
0.05
 43
0.5
 44
0.1
 47
0.1
 48
0.1
 78
     7
 79
     2
140
0.12
141
0.0
146
0.71
147
0.06
176
   256
177
   256
178
     2
274
     4
284
     7
288
     1
289
     0
340
11
371
    -1
372
    -1
1001
ACAD_DSTYLE_DIMARC_LENGTH_SYMBOL
1070
   379
1070
     1
  0
DIMSTYLE
105
B7C1
330
A
100
AcDbSymbolTableRecord
100
AcDbDimStyleTableRecord
  2
AM_ANSI$4
 70
     0
  4
mm
 41
0.1
 42
0.05
 43
0.5
 44
0.1
 47
0.1
 48
0.1
 78
     7
 79
     2
140
0.12
141
0.0
146
0.71
147
0.06
176
   256
177
   256
178
     2
274
     4
284
     7
288
     1
289
     0
340
11
371
    -1
372
    -1
1001
ACAD_DSTYLE_DIMARC_LENGTH_SYMBOL
1070
   379
1070
     1
  0
DIMSTYLE
105
B7C2
330
A
100
AcDbSymbolTableRecord
100
AcDbDimStyleTableRecord
  2
AM_ANSI$7
 70
     0
  4
mm
 41
0.1
 42
0.05
 43
0.5
 44
0.1
 47
0.1
 48
0.1
 78
     7
 79
     2
140
0.24
141
0.0
146
0.71
147
0.06
176
   256
177
   256
178
     2
274
     4
284
     7
340
11
371
    -1
372
    -1
1001
ACAD_DSTYLE_DIMARC_LENGTH_SYMBOL
1070
   379
1070
     1
  0
DIMSTYLE
105
B7C3
330
A
100
AcDbSymbolTableRecord
100
AcDbDimStyleTableRecord
  2
AM_ANSI$SF
 70
     0
  4
mm
 41
0.1
 42
0.05
 43
0.5
 44
0.1
 47
0.1
 48
0.1
 75
     1
 76
     1
 78
     7
 79
     2
140
0.12
141
0.0
146
0.71
147
0.06
176
   256
177
   256
178
     2
274
     4
284
     7
340
11
371
    -1
372
    -1
1001
ACAD_DSTYLE_DIMARC_LENGTH_SYMBOL
1070
   379
1070
     1
  0
DIMSTYLE
105
B7C4
330
A
100
AcDbSymbolTableRecord
100
AcDbDimStyleTableRecord
  2
AM_ANSI$SH
 70
     0
  4
mm
 41
0.1
 42
0.05
 43
0.5
 44
0.1
 47
0.1
 48
0.1
 75
     1
 76
     1
 78
     7
 79
     2
140
0.12
141
0.0
146
0.71
147
0.06
173
     1
176
   256
177
   256
178
     2
274
     4
284
     7
340
11
343
72
371
    -1
372
    -1
1001
ACAD_DSTYLE_DIMARC_LENGTH_SYMBOL
1070
   379
1070
     1
  0
DIMSTYLE
105
3779C
330
A
100
AcDbSymbolTableRecord
100
AcDbDimStyleTableRecord
  2
GEN-ISO$3
 70
     0
 40
0.5
 41
3.0
 42
1.0
 43
10.0
 44
1.0
 47
0.1
 48
0.1
 73
     0
 77
     1
 78
     8
140
3.0
141
0.0
143
0.0393701
146
0.71
147
1.0
173
     1
176
   256
177
   256
178
     2
271
     8
272
     8
274
     4
283
     0
284
     8
288
     1
289
     0
340
11
341
376B5
343
376B5
344
376B5
  0
DIMSTYLE
105
3779D
330
A
100
AcDbSymbolTableRecord
100
AcDbDimStyleTableRecord
  2
GEN-ISO
 70
     0
 40
0.5
 41
3.0
 42
1.0
 43
10.0
 44
1.0
 47
0.1
 48
0.1
 73
     0
 74
     0
 77
     1
 78
     8
140
3.0
141
0.0
143
0.0393701
146
0.71
147
1.0
172
     1
173
     1
176
   256
177
   256
178
     2
271
     8
272
     8
274
     4
283
     0
284
     8
340
11
341
376B5
343
376B5
344
376B5
  0
DIMSTYLE
105
3779E
330
A
100
AcDbSymbolTableRecord
100
AcDbDimStyleTableRecord
  2
GEN-ISO$0
 70
     0
 40
0.5
 41
3.0
 42
1.0
 43
10.0
 44
1.0
 47
0.1
 48
0.1
 73
     0
 74
     0
 77
     1
 78
     8
140
3.0
141
0.0
143
0.0393701
146
0.71
147
1.0
172
     1
173
     1
176
     2
177
     2
178
     2
271
     8
272
     3
274
     4
283
     0
340
11
341
376B5
343
376B5
344
376B5
371
    -1
372
    -1
  0
DIMSTYLE
105
38806
330
A
100
AcDbSymbolTableRecord
100
AcDbDimStyleTableRecord
  2
GEN-ISO$4
 70
     0
  3
<>
  4
<>
 41
3.0
 42
1.0
 43
10.0
 44
1.0
 47
0.1
 48
0.1
 73
     0
 77
     1
 78
     8
140
3.0
141
0.0
143
0.0393701
146
0.71
147
1.0
173
     1
176
     2
177
     2
178
     2
271
     8
272
     8
283
     0
284
     8
288
     1
289
     0
340
11
341
376B5
343
376B5
344
376B5
1001
ACAD_DSTYLE_DIMEXT_LENGTH
1070
   378
1040
0.0
1001
ACAD_DSTYLE_DIMJOGGED_JOGANGLE_SYMBOL
1070
   384
1040
1.570796326794896
  0
ENDTAB
  0
TABLE
  2
BLOCK_RECORD
  5
1
330
0
100
AcDbSymbolTable
 70
    23
  0
BLOCK_RECORD
  5
1F
102
{ACAD_XDICTIONARY
360
8A
102
}
330
1
100
AcDbSymbolTableRecord
100
AcDbBlockTableRecord
  2
*Model_Space
340
22
  0
BLOCK_RECORD
  5
1B
330
1
100
AcDbSymbolTableRecord
100
AcDbBlockTableRecord
  2
*Paper_Space
340
1E
  0
BLOCK_RECORD
  5
23
330
1
100
AcDbSymbolTableRecord
100
AcDbBlockTableRecord
  2
*Paper_Space0
340
26
  0
BLOCK_RECORD
  5
72
330
1
100
AcDbSymbolTableRecord
100
AcDbBlockTableRecord
  2
GENAXEH
340
0
  0
BLOCK_RECORD
  5
6C4
330
1
100
AcDbSymbolTableRecord
100
AcDbBlockTableRecord
  2
_Dot
340
0
102
{BLKREFS
331
3A0E5
331
3A0E6
331
3A0EE
331
3A0EF
331
3A0F7
331
3A0F8
331
3A0FF
331
3A100
331
3A108
331
3A109
331
3A111
331
3A112
331
3A11A
331
3A11B
331
3A128
331
3A129
331
3A131
331
3A132
331
3A13A
331
3A13B
331
3A143
331
3A144
331
3A154
331
3A155
331
3A15D
331
3A15E
331
3A16C
331
3A16D
331
3A191
331
3A192
102
}
  0
BLOCK_RECORD
  5
A66
330
1
100
AcDbSymbolTableRecord
100
AcDbBlockTableRecord
  2
_OPEN30
340
0
  0
BLOCK_RECORD
  5
376B5
330
1
100
AcDbSymbolTableRecord
100
AcDbBlockTableRecord
  2
_OPEN
340
0
  0
BLOCK_RECORD
  5
3858E
330
1
100
AcDbSymbolTableRecord
100
AcDbBlockTableRecord
  2
GENDOT
340
0
102
{BLKREFS
331
39988
331
39989
331
3998F
331
39990
331
3A123
102
}
  0
BLOCK_RECORD
  5
3953A
330
1
100
AcDbSymbolTableRecord
100
AcDbBlockTableRecord
  2
*D7
340
0
  0
BLOCK_RECORD
  5
39550
330
1
100
AcDbSymbolTableRecord
100
AcDbBlockTableRecord
  2
*D8
340
0
  0
BLOCK_RECORD
  5
3957C
330
1
100
AcDbSymbolTableRecord
100
AcDbBlockTableRecord
  2
*D9
340
0
  0
BLOCK_RECORD
  5
395A1
330
1
100
AcDbSymbolTableRecord
100
AcDbBlockTableRecord
  2
*D10
340
0
  0
BLOCK_RECORD
  5
397C8
330
1
100
AcDbSymbolTableRecord
100
AcDbBlockTableRecord
  2
*D11
340
0
  0
BLOCK_RECORD
  5
39858
330
1
100
AcDbSymbolTableRecord
100
AcDbBlockTableRecord
  2
*D12
340
0
  0
BLOCK_RECORD
  5
3986E
330
1
100
AcDbSymbolTableRecord
100
AcDbBlockTableRecord
  2
*D13
340
0
  0
BLOCK_RECORD
  5
39884
330
1
100
AcDbSymbolTableRecord
100
AcDbBlockTableRecord
  2
*D14
340
0
  0
BLOCK_RECORD
  5
398D8
330
1
100
AcDbSymbolTableRecord
100
AcDbBlockTableRecord
  2
*D15
340
0
  0
BLOCK_RECORD
  5
39CA4
330
1
100
AcDbSymbolTableRecord
100
AcDbBlockTableRecord
  2
*D16
340
0
  0
BLOCK_RECORD
  5
39CBA
330
1
100
AcDbSymbolTableRecord
100
AcDbBlockTableRecord
  2
*D17
340
0
  0
BLOCK_RECORD
  5
39D16
330
1
100
AcDbSymbolTableRecord
100
AcDbBlockTableRecord
  2
*D18
340
0
  0
BLOCK_RECORD
  5
39DF7
330
1
100
AcDbSymbolTableRecord
100
AcDbBlockTableRecord
  2
*D19
340
0
  0
BLOCK_RECORD
  5
39F16
330
1
100
AcDbSymbolTableRecord
100
AcDbBlockTableRecord
  2
*D20
340
0
  0
BLOCK_RECORD
  5
39F4C
330
1
100
AcDbSymbolTableRecord
100
AcDbBlockTableRecord
  2
*D21
340
0
  0
BLOCK_RECORD
  5
39FDF
330
1
100
AcDbSymbolTableRecord
100
AcDbBlockTableRecord
  2
*D22
340
0
  0
ENDTAB
  0
ENDSEC
  0
SECTION
  2
BLOCKS
  0
BLOCK
  5
20
330
1F
100
AcDbEntity
  8
0
100
AcDbBlockBegin
  2
*Model_Space
 70
     0
 10
0.0
 20
0.0
 30
0.0
  3
*Model_Space
  1

  0
ENDBLK
  5
21
330
1F
100
AcDbEntity
  8
0
100
AcDbBlockEnd
  0
BLOCK
  5
1C
330
1B
100
AcDbEntity
 67
     1
  8
0
100
AcDbBlockBegin
  2
*Paper_Space
 70
     0
 10
0.0
 20
0.0
 30
0.0
  3
*Paper_Space
  1

  0
ENDBLK
  5
1D
330
1B
100
AcDbEntity
 67
     1
  8
0
100
AcDbBlockEnd
  0
BLOCK
  5
24
330
23
100
AcDbEntity
 67
     1
  8
0
100
AcDbBlockBegin
  2
*Paper_Space0
 70
     0
 10
0.0
 20
0.0
 30
0.0
  3
*Paper_Space0
  1

  0
ENDBLK
  5
25
330
23
100
AcDbEntity
 67
     1
  8
0
100
AcDbBlockEnd
  0
BLOCK
  5
74
330
72
100
AcDbEntity
  8
0
100
AcDbBlockBegin
  2
GENAXEH
 70
     0
 10
0.0
 20
0.0
 30
0.0
  3
GENAXEH
  1

  0
LINE
  5
73
330
72
100
AcDbEntity
  8
0
100
AcDbLine
 10
-1.0
 20
0.0
 30
0.0
 11
1.0
 21
0.0
 31
0.0
  0
ENDBLK
  5
75
330
72
100
AcDbEntity
  8
0
100
AcDbBlockEnd
  0
BLOCK
  5
6C7
330
6C4
100
AcDbEntity
  8
0
100
AcDbBlockBegin
  2
_Dot
 70
     0
 10
0.0
 20
0.0
 30
0.0
  3
_Dot
  1

  0
LWPOLYLINE
  5
6C5
330
6C4
100
AcDbEntity
  8
0
  6
ByBlock
 62
     0
100
AcDbPolyline
 90
        2
 70
     1
 43
0.5
 10
-0.25
 20
0.0
 42
1.0
 10
0.25
 20
0.0
 42
1.0
  0
LINE
  5
6C6
330
6C4
100
AcDbEntity
  8
0
  6
ByBlock
 62
     0
370
    -2
100
AcDbLine
 10
-0.5
 20
0.0
 30
0.0
 11
-1.0
 21
0.0
 31
0.0
  0
ENDBLK
  5
6C8
330
6C4
100
AcDbEntity
  8
0
100
AcDbBlockEnd
  0
BLOCK
  5
A6A
330
A66
100
AcDbEntity
  8
0
100
AcDbBlockBegin
  2
_OPEN30
 70
     0
 10
0.0
 20
0.0
 30
0.0
  3
_OPEN30
  1

  0
LINE
  5
A67
330
A66
100
AcDbEntity
  8
0
  6
ByBlock
 62
     0
100
AcDbLine
 10
-1.0
 20
0.26794919
 30
0.0
 11
0.0
 21
0.0
 31
0.0
  0
LINE
  5
A68
330
A66
100
AcDbEntity
  8
0
  6
ByBlock
 62
     0
100
AcDbLine
 10
0.0
 20
0.0
 30
0.0
 11
-1.0
 21
-0.26794919
 31
0.0
  0
LINE
  5
A69
330
A66
100
AcDbEntity
  8
0
  6
ByBlock
 62
     0
100
AcDbLine
 10
0.0
 20
0.0
 30
0.0
 11
-1.0
 21
0.0
 31
0.0
  0
ENDBLK
  5
A6B
330
A66
100
AcDbEntity
  8
0
100
AcDbBlockEnd
  0
BLOCK
  5
376B6
330
376B5
100
AcDbEntity
  8
0
100
AcDbBlockBegin
  2
_OPEN
 70
     0
 10
0.0
 20
0.0
 30
0.0
  3
_OPEN
  1

  0
LINE
  5
376B7
330
376B5
100
AcDbEntity
  8
0
  6
ByBlock
 62
     0
100
AcDbLine
 10
-1.0
 20
0.1666666666666666
 30
0.0
 11
0.0
 21
0.0
 31
0.0
  0
LINE
  5
376B8
330
376B5
100
AcDbEntity
  8
0
  6
ByBlock
 62
     0
100
AcDbLine
 10
0.0
 20
0.0
 30
0.0
 11
-1.0
 21
-0.1666666666666666
 31
0.0
  0
LINE
  5
376B9
330
376B5
100
AcDbEntity
  8
0
  6
ByBlock
 62
     0
100
AcDbLine
 10
0.0
 20
0.0
 30
0.0
 11
-1.0
 21
0.0
 31
0.0
  0
ENDBLK
  5
376BA
330
376B5
100
AcDbEntity
  8
0
100
AcDbBlockEnd
  0
BLOCK
  5
38591
330
3858E
100
AcDbEntity
  8
0
100
AcDbBlockBegin
  2
GENDOT
 70
     0
 10
0.0
 20
0.0
 30
0.0
  3
GENDOT
  1

  0
LINE
  5
3858F
330
3858E
100
AcDbEntity
  8
0
100
AcDbLine
 10
0.0
 20
0.0
 30
0.0
 11
-1.0
 21
0.0
 31
0.0
  0
LWPOLYLINE
  5
38590
330
3858E
100
AcDbEntity
  8
0
100
AcDbPolyline
 90
        2
 70
     1
 43
0.25
 10
-0.125
 20
0.0
 42
1.0
 10
0.125
 20
0.0
 42
1.0
  0
ENDBLK
  5
38592
330
3858E
100
AcDbEntity
  8
0
100
AcDbBlockEnd
  0
BLOCK
  5
39544
330
3953A
100
AcDbEntity
  8
0
100
AcDbBlockBegin
  2
*D7
 70
     1
 10
0.0
 20
0.0
 30
0.0
  3
*D7
  1

  0
LINE
  5
3A0E2
330
3953A
100
AcDbEntity
  8
AM_5
100
AcDbLine
 10
247.8349297604459
 20
233.9232263699003
 30
0.0
 11
247.8349297604459
 21
245.9232263699003
 31
0.0
  0
LINE
  5
3A0E3
330
3953A
100
AcDbEntity
  8
AM_5
100
AcDbLine
 10
265.8349297604472
 20
233.9232263698999
 30
0.0
 11
265.8349297604472
 21
245.9232263699003
 31
0.0
  0
LINE
  5
3A0E4
330
3953A
100
AcDbEntity
  8
AM_5
100
AcDbLine
 10
248.8349297604459
 20
244.9232263699003
 30
0.0
 11
264.8349297604472
 21
244.9232263699003
 31
0.0
  0
INSERT
  5
3A0E5
330
3953A
100
AcDbEntity
  8
AM_5
100
AcDbBlockReference
  2
_Dot
 10
247.8349297604459
 20
244.9232263699003
 30
0.0
 50
180.0
  0
INSERT
  5
3A0E6
330
3953A
100
AcDbEntity
  8
AM_5
100
AcDbBlockReference
  2
_Dot
 10
265.8349297604472
 20
244.9232263699003
 30
0.0
  0
MTEXT
  5
3A0E7
330
3953A
100
AcDbEntity
  8
AM_5
 62
     2
100
AcDbMText
 10
256.8349297604465
 20
248.0232263699003
 30
0.0
 40
3.200000000000001
 41
0.0
 71
     5
 72
     1
  1
18
 73
     1
 44
1.0
1001
ACAD
1000
MTEXTBEGIN
1070
    73
1070
     1
1070
    44
1040
1.0
1070
    74
1070
     0
1000
MTEXTEND
  0
POINT
  5
3A0E8
330
3953A
100
AcDbEntity
  8
Defpoints
 62
     0
100
AcDbPoint
 10
247.8349297604459
 20
232.9232263699003
 30
0.0
  0
POINT
  5
3A0E9
330
3953A
100
AcDbEntity
  8
Defpoints
 62
     0
100
AcDbPoint
 10
265.8349297604472
 20
232.9232263699
 30
0.0
  0
POINT
  5
3A0EA
330
3953A
100
AcDbEntity
  8
Defpoints
 62
     0
100
AcDbPoint
 10
265.8349297604472
 20
244.9232263699003
 30
0.0
  0
ENDBLK
  5
39545
330
3953A
100
AcDbEntity
  8
0
100
AcDbBlockEnd
  0
BLOCK
  5
3955A
330
39550
100
AcDbEntity
  8
0
100
AcDbBlockBegin
  2
*D8
 70
     1
 10
0.0
 20
0.0
 30
0.0
  3
*D8
  1

  0
LINE
  5
3A0EB
330
39550
100
AcDbEntity
  8
AM_5
100
AcDbLine
 10
238.8349297604459
 20
189.5232263699002
 30
0.0
 11
238.8349297604459
 21
255.9232263699002
 31
0.0
  0
LINE
  5
3A0EC
330
39550
100
AcDbEntity
  8
AM_5
100
AcDbLine
 10
274.8349297604458
 20
189.5232263699002
 30
0.0
 11
274.8349297604458
 21
255.9232263699002
 31
0.0
  0
LINE
  5
3A0ED
330
39550
100
AcDbEntity
  8
AM_5
100
AcDbLine
 10
239.8349297604459
 20
254.9232263699002
 30
0.0
 11
273.8349297604458
 21
254.9232263699002
 31
0.0
  0
INSERT
  5
3A0EE
330
39550
100
AcDbEntity
  8
AM_5
100
AcDbBlockReference
  2
_Dot
 10
238.8349297604459
 20
254.9232263699002
 30
0.0
 50
180.0
  0
INSERT
  5
3A0EF
330
39550
100
AcDbEntity
  8
AM_5
100
AcDbBlockReference
  2
_Dot
 10
274.8349297604458
 20
254.9232263699002
 30
0.0
  0
MTEXT
  5
3A0F0
330
39550
100
AcDbEntity
  8
AM_5
 62
     2
100
AcDbMText
 10
256.8349297604458
 20
258.0232263699002
 30
0.0
 40
3.200000000000001
 41
0.0
 71
     5
 72
     1
  1
36
 73
     1
 44
1.0
1001
ACAD
1000
MTEXTBEGIN
1070
    73
1070
     1
1070
    44
1040
1.0
1070
    74
1070
     0
1000
MTEXTEND
  0
POINT
  5
3A0F1
330
39550
100
AcDbEntity
  8
Defpoints
 62
     0
100
AcDbPoint
 10
238.8349297604459
 20
188.5232263699002
 30
0.0
  0
POINT
  5
3A0F2
330
39550
100
AcDbEntity
  8
Defpoints
 62
     0
100
AcDbPoint
 10
274.8349297604458
 20
188.5232263699002
 30
0.0
  0
POINT
  5
3A0F3
330
39550
100
AcDbEntity
  8
Defpoints
 62
     0
100
AcDbPoint
 10
274.8349297604458
 20
254.9232263699002
 30
0.0
  0
ENDBLK
  5
3955B
330
39550
100
AcDbEntity
  8
0
100
AcDbBlockEnd
  0
BLOCK
  5
39586
330
3957C
100
AcDbEntity
  8
0
100
AcDbBlockBegin
  2
*D9
 70
     1
 10
0.0
 20
0.0
 30
0.0
  3
*D9
  1

  0
LINE
  5
3A0F4
330
3957C
100
AcDbEntity
  8
AM_5
100
AcDbLine
 10
232.3349297604459
 20
187.5232263699002
 30
0.0
 11
232.3349297604459
 21
265.9232263699001
 31
0.0
  0
LINE
  5
3A0F5
330
3957C
100
AcDbEntity
  8
AM_5
100
AcDbLine
 10
281.3349297604458
 20
187.5232263699002
 30
0.0
 11
281.3349297604458
 21
265.9232263699001
 31
0.0
  0
LINE
  5
3A0F6
330
3957C
100
AcDbEntity
  8
AM_5
100
AcDbLine
 10
233.3349297604459
 20
264.9232263699001
 30
0.0
 11
280.3349297604458
 21
264.9232263699001
 31
0.0
  0
INSERT
  5
3A0F7
330
3957C
100
AcDbEntity
  8
AM_5
100
AcDbBlockReference
  2
_Dot
 10
232.3349297604459
 20
264.9232263699001
 30
0.0
 50
180.0
  0
INSERT
  5
3A0F8
330
3957C
100
AcDbEntity
  8
AM_5
100
AcDbBlockReference
  2
_Dot
 10
281.3349297604458
 20
264.9232263699001
 30
0.0
  0
MTEXT
  5
3A0F9
330
3957C
100
AcDbEntity
  8
AM_5
 62
     2
100
AcDbMText
 10
256.8349297604458
 20
268.0232263699001
 30
0.0
 40
3.200000000000001
 41
0.0
 71
     5
 72
     1
  1
49
 73
     1
 44
1.0
1001
ACAD
1000
MTEXTBEGIN
1070
    73
1070
     1
1070
    44
1040
1.0
1070
    74
1070
     0
1000
MTEXTEND
  0
POINT
  5
3A0FA
330
3957C
100
AcDbEntity
  8
Defpoints
 62
     0
100
AcDbPoint
 10
232.3349297604459
 20
186.5232263699002
 30
0.0
  0
POINT
  5
3A0FB
330
3957C
100
AcDbEntity
  8
Defpoints
 62
     0
100
AcDbPoint
 10
281.3349297604458
 20
186.5232263699002
 30
0.0
  0
POINT
  5
3A0FC
330
3957C
100
AcDbEntity
  8
Defpoints
 62
     0
100
AcDbPoint
 10
281.3349297604458
 20
264.9232263699001
 30
0.0
  0
ENDBLK
  5
39587
330
3957C
100
AcDbEntity
  8
0
100
AcDbBlockEnd
  0
BLOCK
  5
395AB
330
395A1
100
AcDbEntity
  8
0
100
AcDbBlockBegin
  2
*D10
 70
     1
 10
0.0
 20
0.0
 30
0.0
  3
*D10
  1

  0
LINE
  5
3A18F
330
395A1
100
AcDbEntity
  8
AM_5
100
AcDbLine
 10
124.386924965841
 20
216.0232263699003
 30
0.0
 11
124.386924965841
 21
245.9232273799003
 31
0.0
  0
LINE
  5
3A190
330
395A1
100
AcDbEntity
  8
AM_5
100
AcDbLine
 10
66.88692496584099
 20
244.9232273799003
 30
0.0
 11
123.386924965841
 21
244.9232273799003
 31
0.0
  0
INSERT
  5
3A191
330
395A1
100
AcDbEntity
  8
AM_5
100
AcDbBlockReference
  2
_Dot
 10
65.88692496584099
 20
244.9232273799003
 30
0.0
 50
180.0
  0
INSERT
  5
3A192
330
395A1
100
AcDbEntity
  8
AM_5
100
AcDbBlockReference
  2
_Dot
 10
124.386924965841
 20
244.9232273799003
 30
0.0
  0
MTEXT
  5
3A193
330
395A1
100
AcDbEntity
  8
AM_5
 62
     2
100
AcDbMText
 10
95.13692496584098
 20
248.0232273799003
 30
0.0
 40
3.200000000000001
 41
0.0
 71
     5
 72
     1
  1
60
 73
     1
 44
1.0
1001
ACAD
1000
MTEXTBEGIN
1070
    73
1070
     1
1070
    44
1040
1.0
1070
    74
1070
     0
1000
MTEXTEND
  0
POINT
  5
3A194
330
395A1
100
AcDbEntity
  8
Defpoints
 62
     0
100
AcDbPoint
 10
65.88692496584099
 20
189.5232263699002
 30
0.0
  0
POINT
  5
3A195
330
395A1
100
AcDbEntity
  8
Defpoints
 62
     0
100
AcDbPoint
 10
124.386924965841
 20
215.0232263699003
 30
0.0
  0
POINT
  5
3A196
330
395A1
100
AcDbEntity
  8
Defpoints
 62
     0
100
AcDbPoint
 10
124.386924965841
 20
244.9232273799003
 30
0.0
  0
ENDBLK
  5
395AC
330
395A1
100
AcDbEntity
  8
0
100
AcDbBlockEnd
  0
BLOCK
  5
397D2
330
397C8
100
AcDbEntity
  8
0
100
AcDbBlockBegin
  2
*D11
 70
     1
 10
0.0
 20
0.0
 30
0.0
  3
*D11
  1

  0
LINE
  5
3A0FD
330
397C8
100
AcDbEntity
  8
AM_5
100
AcDbLine
 10
228.3349297604516
 20
137.1232263699009
 30
0.0
 11
211.8586812721695
 21
137.1232263699009
 31
0.0
  0
LINE
  5
3A0FE
330
397C8
100
AcDbEntity
  8
AM_5
100
AcDbLine
 10
212.8586812721695
 20
138.1232263699009
 30
0.0
 11
212.8586812721695
 21
158.5232263711669
 31
0.0
  0
INSERT
  5
3A0FF
330
397C8
100
AcDbEntity
  8
AM_5
100
AcDbBlockReference
  2
_Dot
 10
212.8586812721695
 20
137.1232263699009
 30
0.0
 50
270.0
  0
INSERT
  5
3A100
330
397C8
100
AcDbEntity
  8
AM_5
100
AcDbBlockReference
  2
_Dot
 10
212.8586812721695
 20
159.523226371167
 30
0.0
 50
90.0
  0
MTEXT
  5
3A101
330
397C8
100
AcDbEntity
  8
AM_5
 62
     2
100
AcDbMText
 10
209.7586812721695
 20
148.323226370534
 30
0.0
 40
3.200000000000001
 41
0.0
 71
     5
 72
     1
  1
22.4
 11
0.0000000000000001
 21
1.0
 31
0.0
 73
     1
 44
1.0
1001
ACAD
1000
MTEXTBEGIN
1070
    73
1070
     1
1070
    44
1040
1.0
1070
    74
1070
     0
1000
MTEXTEND
  0
POINT
  5
3A102
330
397C8
100
AcDbEntity
  8
Defpoints
 62
     0
100
AcDbPoint
 10
229.3349297604516
 20
137.1232263699009
 30
0.0
  0
POINT
  5
3A103
330
397C8
100
AcDbEntity
  8
Defpoints
 62
     0
100
AcDbPoint
 10
234.8349297604516
 20
159.523226371167
 30
0.0
  0
POINT
  5
3A104
330
397C8
100
AcDbEntity
  8
Defpoints
 62
     0
100
AcDbPoint
 10
212.8586812721695
 20
159.523226371167
 30
0.0
  0
ENDBLK
  5
397D3
330
397C8
100
AcDbEntity
  8
0
100
AcDbBlockEnd
  0
BLOCK
  5
39862
330
39858
100
AcDbEntity
  8
0
100
AcDbBlockBegin
  2
*D12
 70
     1
 10
0.0
 20
0.0
 30
0.0
  3
*D12
  1

  0
LINE
  5
3A105
330
39858
100
AcDbEntity
  8
AM_5
100
AcDbLine
 10
241.2349297604517
 20
52.12322636990086
 30
0.0
 11
241.2349297604517
 21
40.12322536990086
 31
0.0
  0
LINE
  5
3A106
330
39858
100
AcDbEntity
  8
AM_5
100
AcDbLine
 10
272.4349297604517
 20
52.12322636990086
 30
0.0
 11
272.4349297604517
 21
40.12322536990086
 31
0.0
  0
LINE
  5
3A107
330
39858
100
AcDbEntity
  8
AM_5
100
AcDbLine
 10
242.2349297604517
 20
41.12322536990086
 30
0.0
 11
271.4349297604517
 21
41.12322536990086
 31
0.0
  0
INSERT
  5
3A108
330
39858
100
AcDbEntity
  8
AM_5
100
AcDbBlockReference
  2
_Dot
 10
241.2349297604517
 20
41.12322536990086
 30
0.0
 50
180.0
  0
INSERT
  5
3A109
330
39858
100
AcDbEntity
  8
AM_5
100
AcDbBlockReference
  2
_Dot
 10
272.4349297604517
 20
41.12322536990086
 30
0.0
  0
MTEXT
  5
3A10A
330
39858
100
AcDbEntity
  8
AM_5
 62
     2
100
AcDbMText
 10
256.8349297604517
 20
44.22322536990086
 30
0.0
 40
3.200000000000001
 41
0.0
 71
     5
 72
     1
  1
31.2
 73
     1
 44
1.0
1001
ACAD
1000
MTEXTBEGIN
1070
    73
1070
     1
1070
    44
1040
1.0
1070
    74
1070
     0
1000
MTEXTEND
  0
POINT
  5
3A10B
330
39858
100
AcDbEntity
  8
Defpoints
 62
     0
100
AcDbPoint
 10
241.2349297604517
 20
53.12322636990086
 30
0.0
  0
POINT
  5
3A10C
330
39858
100
AcDbEntity
  8
Defpoints
 62
     0
100
AcDbPoint
 10
272.4349297604517
 20
53.12322636990086
 30
0.0
  0
POINT
  5
3A10D
330
39858
100
AcDbEntity
  8
Defpoints
 62
     0
100
AcDbPoint
 10
272.4349297604517
 20
41.12322536990086
 30
0.0
  0
ENDBLK
  5
39863
330
39858
100
AcDbEntity
  8
0
100
AcDbBlockEnd
  0
BLOCK
  5
39878
330
3986E
100
AcDbEntity
  8
0
100
AcDbBlockBegin
  2
*D13
 70
     1
 10
0.0
 20
0.0
 30
0.0
  3
*D13
  1

  0
LINE
  5
3A10E
330
3986E
100
AcDbEntity
  8
AM_5
100
AcDbLine
 10
234.8349297604516
 20
107.6232263699009
 30
0.0
 11
234.8349297604516
 21
30.12322536990058
 31
0.0
  0
LINE
  5
3A10F
330
3986E
100
AcDbEntity
  8
AM_5
100
AcDbLine
 10
278.834929760452
 20
107.6232263699009
 30
0.0
 11
278.834929760452
 21
30.12322536990058
 31
0.0
  0
LINE
  5
3A110
330
3986E
100
AcDbEntity
  8
AM_5
100
AcDbLine
 10
235.8349297604516
 20
31.12322536990058
 30
0.0
 11
277.834929760452
 21
31.12322536990058
 31
0.0
  0
INSERT
  5
3A111
330
3986E
100
AcDbEntity
  8
AM_5
100
AcDbBlockReference
  2
_Dot
 10
234.8349297604516
 20
31.12322536990058
 30
0.0
 50
180.0
  0
INSERT
  5
3A112
330
3986E
100
AcDbEntity
  8
AM_5
100
AcDbBlockReference
  2
_Dot
 10
278.834929760452
 20
31.12322536990058
 30
0.0
  0
MTEXT
  5
3A113
330
3986E
100
AcDbEntity
  8
AM_5
 62
     2
100
AcDbMText
 10
256.8349297604518
 20
34.22322536990058
 30
0.0
 40
3.200000000000001
 41
0.0
 71
     5
 72
     1
  1
44
 73
     1
 44
1.0
1001
ACAD
1000
MTEXTBEGIN
1070
    73
1070
     1
1070
    44
1040
1.0
1070
    74
1070
     0
1000
MTEXTEND
  0
POINT
  5
3A114
330
3986E
100
AcDbEntity
  8
Defpoints
 62
     0
100
AcDbPoint
 10
234.8349297604516
 20
108.6232263699009
 30
0.0
  0
POINT
  5
3A115
330
3986E
100
AcDbEntity
  8
Defpoints
 62
     0
100
AcDbPoint
 10
278.834929760452
 20
108.6232263699009
 30
0.0
  0
POINT
  5
3A116
330
3986E
100
AcDbEntity
  8
Defpoints
 62
     0
100
AcDbPoint
 10
278.834929760452
 20
31.12322536990058
 30
0.0
  0
ENDBLK
  5
39879
330
3986E
100
AcDbEntity
  8
0
100
AcDbBlockEnd
  0
BLOCK
  5
3988E
330
39884
100
AcDbEntity
  8
0
100
AcDbBlockBegin
  2
*D14
 70
     1
 10
0.0
 20
0.0
 30
0.0
  3
*D14
  1

  0
LINE
  5
3A117
330
39884
100
AcDbEntity
  8
AM_5
100
AcDbLine
 10
228.8349297604516
 20
112.9210723188308
 30
0.0
 11
228.8349297604516
 21
20.1232253699003
 31
0.0
  0
LINE
  5
3A118
330
39884
100
AcDbEntity
  8
AM_5
100
AcDbLine
 10
284.8349297604518
 20
112.9210723188308
 30
0.0
 11
284.8349297604518
 21
20.1232253699003
 31
0.0
  0
LINE
  5
3A119
330
39884
100
AcDbEntity
  8
AM_5
100
AcDbLine
 10
229.8349297604516
 20
21.1232253699003
 30
0.0
 11
283.8349297604518
 21
21.1232253699003
 31
0.0
  0
INSERT
  5
3A11A
330
39884
100
AcDbEntity
  8
AM_5
100
AcDbBlockReference
  2
_Dot
 10
228.8349297604516
 20
21.1232253699003
 30
0.0
 50
180.0
  0
INSERT
  5
3A11B
330
39884
100
AcDbEntity
  8
AM_5
100
AcDbBlockReference
  2
_Dot
 10
284.8349297604518
 20
21.1232253699003
 30
0.0
  0
MTEXT
  5
3A11C
330
39884
100
AcDbEntity
  8
AM_5
 62
     2
100
AcDbMText
 10
256.8349297604517
 20
24.2232253699003
 30
0.0
 40
3.200000000000001
 41
0.0
 71
     5
 72
     1
  1
56
 73
     1
 44
1.0
1001
ACAD
1000
MTEXTBEGIN
1070
    73
1070
     1
1070
    44
1040
1.0
1070
    74
1070
     0
1000
MTEXTEND
  0
POINT
  5
3A11D
330
39884
100
AcDbEntity
  8
Defpoints
 62
     0
100
AcDbPoint
 10
228.8349297604516
 20
113.9210723188308
 30
0.0
  0
POINT
  5
3A11E
330
39884
100
AcDbEntity
  8
Defpoints
 62
     0
100
AcDbPoint
 10
284.8349297604518
 20
113.9210723188308
 30
0.0
  0
POINT
  5
3A11F
330
39884
100
AcDbEntity
  8
Defpoints
 62
     0
100
AcDbPoint
 10
284.8349297604518
 20
21.1232253699003
 30
0.0
  0
ENDBLK
  5
3988F
330
39884
100
AcDbEntity
  8
0
100
AcDbBlockEnd
  0
BLOCK
  5
398E1
330
398D8
100
AcDbEntity
  8
0
100
AcDbBlockBegin
  2
*D15
 70
     1
 10
0.0
 20
0.0
 30
0.0
  3
*D15
  1

  0
LINE
  5
3A120
330
398D8
100
AcDbEntity
  8
AM_5
100
AcDbLine
 10
322.7915964271131
 20
175.0698511236142
 30
0.0
 11
292.3349297604465
 21
175.0698511236142
 31
0.0
  0
LINE
  5
3A121
330
398D8
100
AcDbEntity
  8
AM_5
100
AcDbLine
 10
292.3349297604465
 20
175.0698511236142
 30
0.0
 11
279.1311628722136
 21
179.1844280096723
 31
0.0
  0
MTEXT
  5
3A122
330
398D8
100
AcDbEntity
  8
AM_5
 62
     2
100
AcDbMText
 10
308.3132630937797
 20
178.3198511236142
 30
0.0
 40
3.5
 41
0.0
 71
     5
 72
     1
  1
2-\U+22055×7.5スロット
 73
     1
 44
1.0
1001
ACAD
1000
MTEXTBEGIN
1070
    73
1070
     1
1070
    44
1040
1.0
1070
    74
1070
     0
1000
MTEXTEND
  0
INSERT
  5
3A123
330
398D8
100
AcDbEntity
  8
AM_5
100
AcDbBlockReference
  2
GENDOT
 10
277.2217259336501
 20
179.779449503107
 30
0.0
 41
2.0
 42
2.0
 43
2.0
 50
162.6918460190579
  0
POINT
  5
3A124
330
398D8
100
AcDbEntity
  8
Defpoints
 62
     0
100
AcDbPoint
 10
277.2217259336501
 20
179.779449503107
 30
0.0
  0
POINT
  5
3A125
330
398D8
100
AcDbEntity
  8
Defpoints
 62
     0
100
AcDbPoint
 10
272.4481335872415
 20
181.2670032366936
 30
0.0
  0
ENDBLK
  5
398E2
330
398D8
100
AcDbEntity
  8
0
100
AcDbBlockEnd
  0
BLOCK
  5
39CAE
330
39CA4
100
AcDbEntity
  8
0
100
AcDbBlockBegin
  2
*D16
 70
     1
 10
0.0
 20
0.0
 30
0.0
  3
*D16
  1

  0
LINE
  5
3A126
330
39CA4
100
AcDbEntity
  8
AM_5
100
AcDbLine
 10
234.3349297604459
 20
189.5232263699002
 30
0.0
 11
211.8586812721697
 21
189.5232263699002
 31
0.0
  0
LINE
  5
3A127
330
39CA4
100
AcDbEntity
  8
AM_5
100
AcDbLine
 10
212.8586812721696
 20
164.5232263699002
 30
0.0
 11
212.8586812721696
 21
188.5232263699002
 31
0.0
  0
INSERT
  5
3A128
330
39CA4
100
AcDbEntity
  8
AM_5
100
AcDbBlockReference
  2
_Dot
 10
212.8586812721696
 20
163.5232263699002
 30
0.0
 50
270.0
  0
INSERT
  5
3A129
330
39CA4
100
AcDbEntity
  8
AM_5
100
AcDbBlockReference
  2
_Dot
 10
212.8586812721696
 20
189.5232263699002
 30
0.0
 50
90.0
  0
MTEXT
  5
3A12A
330
39CA4
100
AcDbEntity
  8
AM_5
 62
     2
100
AcDbMText
 10
209.7586812721696
 20
176.5232263699003
 30
0.0
 40
3.200000000000001
 41
0.0
 71
     5
 72
     1
  1
26
 11
0.0000000000000001
 21
1.0
 31
0.0
 73
     1
 44
1.0
1001
ACAD
1000
MTEXTBEGIN
1070
    73
1070
     1
1070
    44
1040
1.0
1070
    74
1070
     0
1000
MTEXTEND
  0
POINT
  5
3A12B
330
39CA4
100
AcDbEntity
  8
Defpoints
 62
     0
100
AcDbPoint
 10
235.3349297604459
 20
163.5232263699002
 30
0.0
  0
POINT
  5
3A12C
330
39CA4
100
AcDbEntity
  8
Defpoints
 62
     0
100
AcDbPoint
 10
235.3349297604459
 20
189.5232263699002
 30
0.0
  0
POINT
  5
3A12D
330
39CA4
100
AcDbEntity
  8
Defpoints
 62
     0
100
AcDbPoint
 10
212.8586812721696
 20
189.5232263699002
 30
0.0
  0
ENDBLK
  5
39CAF
330
39CA4
100
AcDbEntity
  8
0
100
AcDbBlockEnd
  0
BLOCK
  5
39CC4
330
39CBA
100
AcDbEntity
  8
0
100
AcDbBlockBegin
  2
*D17
 70
     1
 10
0.0
 20
0.0
 30
0.0
  3
*D17
  1

  0
LINE
  5
3A12E
330
39CBA
100
AcDbEntity
  8
AM_5
100
AcDbLine
 10
232.3349297604458
 20
170.0232263699002
 30
0.0
 11
221.8586812721696
 21
170.0232263699002
 31
0.0
  0
LINE
  5
3A12F
330
39CBA
100
AcDbEntity
  8
AM_5
100
AcDbLine
 10
232.3349297604458
 20
183.0232263699003
 30
0.0
 11
221.8586812721696
 21
183.0232263699003
 31
0.0
  0
LINE
  5
3A130
330
39CBA
100
AcDbEntity
  8
AM_5
100
AcDbLine
 10
222.8586812721697
 20
171.0232263699002
 30
0.0
 11
222.8586812721697
 21
182.0232263699003
 31
0.0
  0
INSERT
  5
3A131
330
39CBA
100
AcDbEntity
  8
AM_5
100
AcDbBlockReference
  2
_Dot
 10
222.8586812721697
 20
170.0232263699002
 30
0.0
 50
270.0
  0
INSERT
  5
3A132
330
39CBA
100
AcDbEntity
  8
AM_5
100
AcDbBlockReference
  2
_Dot
 10
222.8586812721697
 20
183.0232263699003
 30
0.0
 50
90.0
  0
MTEXT
  5
3A133
330
39CBA
100
AcDbEntity
  8
AM_5
 62
     2
100
AcDbMText
 10
219.7586812721696
 20
176.5232263699003
 30
0.0
 40
3.200000000000001
 41
0.0
 71
     5
 72
     1
  1
13
 11
0.0000000000000001
 21
1.0
 31
0.0
 73
     1
 44
1.0
1001
ACAD
1000
MTEXTBEGIN
1070
    73
1070
     1
1070
    44
1040
1.0
1070
    74
1070
     0
1000
MTEXTEND
  0
POINT
  5
3A134
330
39CBA
100
AcDbEntity
  8
Defpoints
 62
     0
100
AcDbPoint
 10
233.3349297604458
 20
170.0232263699002
 30
0.0
  0
POINT
  5
3A135
330
39CBA
100
AcDbEntity
  8
Defpoints
 62
     0
100
AcDbPoint
 10
233.3349297604458
 20
183.0232263699003
 30
0.0
  0
POINT
  5
3A136
330
39CBA
100
AcDbEntity
  8
Defpoints
 62
     0
100
AcDbPoint
 10
222.8586812721697
 20
183.0232263699003
 30
0.0
  0
ENDBLK
  5
39CC5
330
39CBA
100
AcDbEntity
  8
0
100
AcDbBlockEnd
  0
BLOCK
  5
39D21
330
39D16
100
AcDbEntity
  8
0
100
AcDbBlockBegin
  2
*D18
 70
     1
 10
0.0
 20
0.0
 30
0.0
  3
*D18
  1

  0
LINE
  5
3A137
330
39D16
100
AcDbEntity
  8
AM_5
100
AcDbLine
 10
232.3349297604458
 20
170.0232263699002
 30
0.0
 11
221.8586812721697
 21
170.0232263699002
 31
0.0
  0
LINE
  5
3A138
330
39D16
100
AcDbEntity
  8
AM_5
100
AcDbLine
 10
222.8586812721697
 20
169.0232263699002
 30
0.0
 11
222.8586812721697
 21
164.5232263699002
 31
0.0
  0
LINE
  5
3A139
330
39D16
100
AcDbEntity
  8
AM_5
100
AcDbLine
 10
222.8586812721697
 20
163.5232263699002
 30
0.0
 11
222.8586812721697
 21
150.597325606907
 31
0.0
  0
INSERT
  5
3A13A
330
39D16
100
AcDbEntity
  8
AM_5
100
AcDbBlockReference
  2
_Dot
 10
222.8586812721697
 20
170.0232263699002
 30
0.0
 50
90.0
  0
INSERT
  5
3A13B
330
39D16
100
AcDbEntity
  8
AM_5
100
AcDbBlockReference
  2
_Dot
 10
222.8586812721697
 20
163.5232263699002
 30
0.0
 50
270.0
  0
MTEXT
  5
3A13C
330
39D16
100
AcDbEntity
  8
AM_5
 62
     2
100
AcDbMText
 10
219.7586812721696
 20
154.3906589402404
 30
0.0
 40
3.200000000000001
 41
0.0
 71
     5
 72
     1
  1
6.5
 11
0.0000000000000001
 21
1.0
 31
0.0
 73
     1
 44
1.0
1001
ACAD
1000
MTEXTBEGIN
1070
    73
1070
     1
1070
    44
1040
1.0
1070
    74
1070
     0
1000
MTEXTEND
  0
POINT
  5
3A13D
330
39D16
100
AcDbEntity
  8
Defpoints
 62
     0
100
AcDbPoint
 10
235.3349297604459
 20
163.5232263699002
 30
0.0
  0
POINT
  5
3A13E
330
39D16
100
AcDbEntity
  8
Defpoints
 62
     0
100
AcDbPoint
 10
233.3349297604458
 20
170.0232263699002
 30
0.0
  0
POINT
  5
3A13F
330
39D16
100
AcDbEntity
  8
Defpoints
 62
     0
100
AcDbPoint
 10
222.8586812721697
 20
170.0232263699002
 30
0.0
  0
ENDBLK
  5
39D22
330
39D16
100
AcDbEntity
  8
0
100
AcDbBlockEnd
  0
BLOCK
  5
39E01
330
39DF7
100
AcDbEntity
  8
0
100
AcDbBlockBegin
  2
*D19
 70
     1
 10
0.0
 20
0.0
 30
0.0
  3
*D19
  1

  0
LINE
  5
3A140
330
39DF7
100
AcDbEntity
  8
AM_5
100
AcDbLine
 10
228.3349297604516
 20
137.1232263699009
 30
0.0
 11
211.8586812943175
 21
137.1232263699009
 31
0.0
  0
LINE
  5
3A141
330
39DF7
100
AcDbEntity
  8
AM_5
100
AcDbLine
 10
228.3349297604516
 20
114.1232263699009
 30
0.0
 11
211.8586812943175
 21
114.1232263699009
 31
0.0
  0
LINE
  5
3A142
330
39DF7
100
AcDbEntity
  8
AM_5
100
AcDbLine
 10
212.8586812943174
 20
136.1232263699009
 30
0.0
 11
212.8586812943174
 21
115.1232263699009
 31
0.0
  0
INSERT
  5
3A143
330
39DF7
100
AcDbEntity
  8
AM_5
100
AcDbBlockReference
  2
_Dot
 10
212.8586812943174
 20
137.1232263699009
 30
0.0
 50
90.0
  0
INSERT
  5
3A144
330
39DF7
100
AcDbEntity
  8
AM_5
100
AcDbBlockReference
  2
_Dot
 10
212.8586812943174
 20
114.1232263699009
 30
0.0
 50
270.0
  0
MTEXT
  5
3A145
330
39DF7
100
AcDbEntity
  8
AM_5
 62
     2
100
AcDbMText
 10
209.7586812943174
 20
125.6232263699009
 30
0.0
 40
3.200000000000001
 41
0.0
 71
     5
 72
     1
  1
23
 11
0.0000000000000001
 21
1.0
 31
0.0
 73
     1
 44
1.0
1001
ACAD
1000
MTEXTBEGIN
1070
    73
1070
     1
1070
    44
1040
1.0
1070
    74
1070
     0
1000
MTEXTEND
  0
POINT
  5
3A146
330
39DF7
100
AcDbEntity
  8
Defpoints
 62
     0
100
AcDbPoint
 10
229.3349297604516
 20
137.1232263699009
 30
0.0
  0
POINT
  5
3A147
330
39DF7
100
AcDbEntity
  8
Defpoints
 62
     0
100
AcDbPoint
 10
229.3349297604516
 20
114.1232263699009
 30
0.0
  0
POINT
  5
3A148
330
39DF7
100
AcDbEntity
  8
Defpoints
 62
     0
100
AcDbPoint
 10
212.8586812943174
 20
114.1232263699009
 30
0.0
  0
ENDBLK
  5
39E02
330
39DF7
100
AcDbEntity
  8
0
100
AcDbBlockEnd
  0
BLOCK
  5
39F20
330
39F16
100
AcDbEntity
  8
0
100
AcDbBlockBegin
  2
*D20
 70
     1
 10
0.0
 20
0.0
 30
0.0
  3
*D20
  1

  0
LINE
  5
3A151
330
39F16
100
AcDbEntity
  8
AM_5
100
AcDbLine
 10
44.88692496584099
 20
163.5232263699002
 30
0.0
 11
36.1277874208466
 21
163.5232263699002
 31
0.0
  0
LINE
  5
3A152
330
39F16
100
AcDbEntity
  8
AM_5
100
AcDbLine
 10
104.886924965841
 20
233.5232263699003
 30
0.0
 11
36.12778742084663
 21
233.5232263699003
 31
0.0
  0
LINE
  5
3A153
330
39F16
100
AcDbEntity
  8
AM_5
100
AcDbLine
 10
37.1277874208466
 20
164.5232263699002
 30
0.0
 11
37.12778742084662
 21
232.5232263699004
 31
0.0
  0
INSERT
  5
3A154
330
39F16
100
AcDbEntity
  8
AM_5
100
AcDbBlockReference
  2
_Dot
 10
37.1277874208466
 20
163.5232263699002
 30
0.0
 50
270.0
  0
INSERT
  5
3A155
330
39F16
100
AcDbEntity
  8
AM_5
100
AcDbBlockReference
  2
_Dot
 10
37.12778742084662
 20
233.5232263699003
 30
0.0
 50
90.0
  0
MTEXT
  5
3A156
330
39F16
100
AcDbEntity
  8
AM_5
 62
     2
100
AcDbMText
 10
34.02778742084658
 20
198.5232263699002
 30
0.0
 40
3.200000000000001
 41
0.0
 71
     5
 72
     1
  1
71
 11
0.0000000000000001
 21
1.0
 31
0.0
 73
     1
 44
1.0
1001
ACAD
1000
MTEXTBEGIN
1070
    73
1070
     1
1070
    44
1040
1.0
1070
    74
1070
     0
1000
MTEXTEND
  0
POINT
  5
3A157
330
39F16
100
AcDbEntity
  8
Defpoints
 62
     0
100
AcDbPoint
 10
45.88692496584099
 20
163.5232263699002
 30
0.0
  0
POINT
  5
3A158
330
39F16
100
AcDbEntity
  8
Defpoints
 62
     0
100
AcDbPoint
 10
105.886924965841
 20
233.5232263699003
 30
0.0
  0
POINT
  5
3A159
330
39F16
100
AcDbEntity
  8
Defpoints
 62
     0
100
AcDbPoint
 10
37.12778742084662
 20
233.5232263699003
 30
0.0
  0
ENDBLK
  5
39F21
330
39F16
100
AcDbEntity
  8
0
100
AcDbBlockEnd
  0
BLOCK
  5
39F56
330
39F4C
100
AcDbEntity
  8
0
100
AcDbBlockBegin
  2
*D21
 70
     1
 10
0.0
 20
0.0
 30
0.0
  3
*D21
  1

  0
LINE
  5
3A15A
330
39F4C
100
AcDbEntity
  8
AM_5
100
AcDbLine
 10
44.88692496584099
 20
159.5232263699002
 30
0.0
 11
36.12778753280018
 21
159.5232263699002
 31
0.0
  0
LINE
  5
3A15B
330
39F4C
100
AcDbEntity
  8
AM_5
100
AcDbLine
 10
64.88692496584087
 20
53.12322636990092
 30
0.0
 11
36.12778753280017
 21
53.12322636990092
 31
0.0
  0
LINE
  5
3A15C
330
39F4C
100
AcDbEntity
  8
AM_5
100
AcDbLine
 10
37.12778753280018
 20
158.5232263699002
 30
0.0
 11
37.12778753280016
 21
54.12322636990093
 31
0.0
  0
INSERT
  5
3A15D
330
39F4C
100
AcDbEntity
  8
AM_5
100
AcDbBlockReference
  2
_Dot
 10
37.12778753280018
 20
159.5232263699002
 30
0.0
 50
90.0
  0
INSERT
  5
3A15E
330
39F4C
100
AcDbEntity
  8
AM_5
100
AcDbBlockReference
  2
_Dot
 10
37.12778753280016
 20
53.12322636990092
 30
0.0
 50
270.0
  0
MTEXT
  5
3A15F
330
39F4C
100
AcDbEntity
  8
AM_5
 62
     2
100
AcDbMText
 10
34.02778753280016
 20
106.3232263699005
 30
0.0
 40
3.200000000000001
 41
0.0
 71
     5
 72
     1
  1
106.4
 11
0.0000000000000001
 21
1.0
 31
0.0
 73
     1
 44
1.0
1001
ACAD
1000
MTEXTBEGIN
1070
    73
1070
     1
1070
    44
1040
1.0
1070
    74
1070
     0
1000
MTEXTEND
  0
POINT
  5
3A160
330
39F4C
100
AcDbEntity
  8
Defpoints
 62
     0
100
AcDbPoint
 10
45.88692496584099
 20
159.5232263699002
 30
0.0
  0
POINT
  5
3A161
330
39F4C
100
AcDbEntity
  8
Defpoints
 62
     0
100
AcDbPoint
 10
65.88692496584087
 20
53.12322636990092
 30
0.0
  0
POINT
  5
3A162
330
39F4C
100
AcDbEntity
  8
Defpoints
 62
     0
100
AcDbPoint
 10
37.12778753280016
 20
53.12322636990092
 30
0.0
  0
ENDBLK
  5
39F57
330
39F4C
100
AcDbEntity
  8
0
100
AcDbBlockEnd
  0
BLOCK
  5
39FEB
330
39FDF
100
AcDbEntity
  8
0
100
AcDbBlockBegin
  2
*D22
 70
     1
 10
0.0
 20
0.0
 30
0.0
  3
*D22
  1

  0
LINE
  5
3A163
330
39FDF
100
AcDbEntity
  8
AM_5
100
AcDbLine
 10
44.88692496584099
 20
163.5232263699002
 30
0.0
 11
36.12778742084657
 21
163.5232263699002
 31
0.0
  0
LINE
  5
3A164
330
39FDF
100
AcDbEntity
  8
AM_5
100
AcDbLine
 10
44.88692496584099
 20
159.5232263699002
 30
0.0
 11
36.12778742084657
 21
159.5232263699002
 31
0.0
  0
LINE
  5
3A165
330
39FDF
100
AcDbEntity
  8
AM_5
100
AcDbLine
 10
37.12778742084657
 20
164.5232263699002
 30
0.0
 11
37.12778742084657
 21
165.5232263699002
 31
0.0
  0
LINE
  5
3A166
330
39FDF
100
AcDbEntity
  8
AM_5
100
AcDbLine
 10
37.12778742084657
 20
158.5232263699002
 30
0.0
 11
37.12778742084657
 21
157.5232263699002
 31
0.0
  0
LINE
  5
3A167
330
39FDF
100
AcDbEntity
  8
AM_5
100
AcDbLine
 10
37.12778742084657
 20
161.5232263699002
 30
0.0
 11
30.16627328549671
 21
163.7840365347156
 31
0.0
  0
LINE
  5
3A168
330
39FDF
100
AcDbEntity
  8
AM_5
100
AcDbLine
 10
30.16627328549671
 20
163.7840365347156
 30
0.0
 11
30.16627328549672
 21
173.0987032013822
 31
0.0
  0
MTEXT
  5
3A169
330
39FDF
100
AcDbEntity
  8
AM_5
 62
     2
100
AcDbMText
 10
27.06627328549668
 20
168.4413698680489
 30
0.0
 40
3.200000000000001
 41
0.0
 71
     5
 72
     1
  1
4～5
 11
0.0000000000000001
 21
1.0
 31
0.0
 73
     1
 44
1.0
1001
ACAD
1000
MTEXTBEGIN
1070
    73
1070
     1
1070
    44
1040
1.0
1070
    74
1070
     0
1000
MTEXTEND
  0
LINE
  5
3A16A
330
39FDF
100
AcDbEntity
  8
AM_5
100
AcDbLine
 10
37.12778742084657
 20
163.5232263699002
 30
0.0
 11
37.12778742084657
 21
159.5232263699002
 31
0.0
  0
LINE
  5
3A16B
330
39FDF
100
AcDbEntity
  8
AM_5
100
AcDbLine
 10
37.12778742084657
 20
163.5232263699002
 30
0.0
 11
37.12778742084657
 21
159.5232263699002
 31
0.0
  0
INSERT
  5
3A16C
330
39FDF
100
AcDbEntity
  8
AM_5
100
AcDbBlockReference
  2
_Dot
 10
37.12778742084657
 20
163.5232263699002
 30
0.0
 50
270.0
  0
INSERT
  5
3A16D
330
39FDF
100
AcDbEntity
  8
AM_5
100
AcDbBlockReference
  2
_Dot
 10
37.12778742084657
 20
159.5232263699002
 30
0.0
 50
90.0
  0
POINT
  5
3A16E
330
39FDF
100
AcDbEntity
  8
Defpoints
 62
     0
100
AcDbPoint
 10
45.88692496584099
 20
163.5232263699002
 30
0.0
  0
POINT
  5
3A16F
330
39FDF
100
AcDbEntity
  8
Defpoints
 62
     0
100
AcDbPoint
 10
45.88692496584099
 20
159.5232263699002
 30
0.0
  0
POINT
  5
3A170
330
39FDF
100
AcDbEntity
  8
Defpoints
 62
     0
100
AcDbPoint
 10
37.12778742084657
 20
159.5232263699002
 30
0.0
  0
ENDBLK
  5
39FEC
330
39FDF
100
AcDbEntity
  8
0
100
AcDbBlockEnd
  0
ENDSEC
  0
SECTION
  2
ENTITIES
  0
TEXT
  5
16B8B
330
1F
100
AcDbEntity
  8
AM_6
 60
     1
100
AcDbText
 10
582.4999999999999
 20
-485.0192301375773
 30
0.0
 40
2.5
  1
!GENTITLE-INSERT
100
AcDbText
  0
TEXT
  5
16B8C
330
1F
100
AcDbEntity
  8
AM_6
 60
     1
100
AcDbText
 10
593.9999999999998
 20
-73.51923013757732
 30
0.0
 40
2.5
  1
!GENTITLE-MAX
100
AcDbText
  0
TEXT
  5
16B8D
330
1F
100
AcDbEntity
  8
AM_6
 60
     1
100
AcDbText
 10
593.9999999999998
 20
-73.51923013757732
 30
0.0
 40
2.5
  1
!GENTITLE-RU
100
AcDbText
  0
TEXT
  5
16B8E
330
1F
100
AcDbEntity
  8
AM_6
 60
     1
100
AcDbText
 10
-0.0000000000000907
 20
-493.5192301375773
 30
0.0
 40
2.5
  1
!GENTITLE-LL
100
AcDbText
  0
LINE
  5
25141
330
1F
100
AcDbEntity
  8
AM_0
100
AcDbLine
 10
330.4999999999999
 20
288.5000000511493
 30
0.0
 11
330.5000000000003
 21
209.7062944517858
 31
0.0
  0
LINE
  5
25142
330
1F
100
AcDbEntity
  8
AM_4
100
AcDbLine
 10
310.5
 20
280.5000000511493
 30
0.0
 11
408.4999999999999
 21
280.5000000511493
 31
0.0
  0
LINE
  5
25143
330
1F
100
AcDbEntity
  8
AM_4
100
AcDbLine
 10
310.5
 20
272.5000000511493
 30
0.0
 11
408.4999999999999
 21
272.5000000511493
 31
0.0
  0
LINE
  5
25144
330
1F
100
AcDbEntity
  8
AM_0
100
AcDbLine
 10
310.4999999999995
 20
209.7062944517859
 30
0.0
 11
408.4999999999994
 21
209.7062944517857
 31
0.0
  0
LINE
  5
25145
330
1F
100
AcDbEntity
  8
AM_0
100
AcDbLine
 10
310.5
 20
288.5000000511493
 30
0.0
 11
408.4999999999999
 21
288.5000000511493
 31
0.0
  0
LINE
  5
25146
330
1F
100
AcDbEntity
  8
AM_0
100
AcDbLine
 10
310.4999999999998
 20
288.5000000511493
 30
0.0
 11
310.5000000000002
 21
209.7062944517858
 31
0.0
  0
TEXT
  5
25147
330
1F
100
AcDbEntity
  8
AM_6
100
AcDbText
 10
316.1570000000001
 20
282.9000000511489
 30
0.0
 40
3.2
  1
品　名
 41
0.85537027
100
AcDbText
  0
TEXT
  5
25148
330
1F
100
AcDbEntity
  8
AM_6
100
AcDbText
 10
316.1570000000001
 20
274.900000051149
 30
0.0
 40
3.2
  1
品　番
 41
0.85537027
100
AcDbText
  0
TEXT
  5
25149
330
1F
100
AcDbEntity
  8
AM_6
100
AcDbText
 10
333.357
 20
282.9000000511489
 30
0.0
 40
3.2
  1
ドアセルファー
 41
0.84306961
100
AcDbText
  0
TEXT
  5
2514A
330
1F
100
AcDbEntity
  8
AM_6
100
AcDbText
 10
316.1570000000001
 20
266.900000051149
 30
0.0
 40
3.2
  1
材　質
 41
0.85537027
100
AcDbText
  0
TEXT
  5
2514B
330
1F
100
AcDbEntity
  8
AM_6
100
AcDbText
 10
333.357
 20
266.900000051149
 30
0.0
 40
3.2
  1
シリンダー：アルミニウム
 41
0.84741102
100
AcDbText
  0
LINE
  5
2514C
330
1F
100
AcDbEntity
  8
AM_4
100
AcDbLine
 10
310.5
 20
248.5000000511493
 30
0.0
 11
408.5
 21
248.5000000511493
 31
0.0
  0
TEXT
  5
2514D
330
1F
100
AcDbEntity
  8
AM_6
100
AcDbText
 10
316.1570000000002
 20
242.9000000511489
 30
0.0
 40
3.2
  1
仕上げ
 41
0.85537027
100
AcDbText
  0
LINE
  5
25152
330
1F
100
AcDbEntity
  8
AM_4
100
AcDbLine
 10
310.4999999999999
 20
217.1031472514676
 30
0.0
 11
408.4999999999999
 21
217.1031472514676
 31
0.0
  0
TEXT
  5
25153
330
1F
100
AcDbEntity
  8
AM_6
100
AcDbText
 10
316.1570000000001
 20
211.8047208516264
 30
0.0
 40
3.2
  1
備　考
 41
0.85537027
100
AcDbText
  0
TEXT
  5
37551
330
1F
100
AcDbEntity
  8
AM_6
100
AcDbText
 10
333.3570000000001
 20
258.9000000511489
 30
0.0
 40
3.2
  1
フレーム、アーム、フック：スチール
 41
0.84741102
100
AcDbText
  0
TEXT
  5
375E2
330
1F
100
AcDbEntity
  8
AM_6
100
AcDbText
 10
333.357
 20
274.900000051149
 30
0.0
 40
3.2
  1
DIC-8000
 41
0.84306961
100
AcDbText
  0
TEXT
  5
37F2D
330
1F
100
AcDbEntity
  8
AM_6
 60
     1
100
AcDbText
 10
285.4999999999999
 20
8.500000051149982
 30
0.0
 40
2.5
  1
!GENTITLE-INSERT
100
AcDbText
  0
TEXT
  5
37F2E
330
1F
100
AcDbEntity
  8
AM_6
 60
     1
100
AcDbText
 10
296.9999999999999
 20
210.00000005115
 30
0.0
 40
2.5
  1
!GENTITLE-MAX
100
AcDbText
  0
TEXT
  5
37F2F
330
1F
100
AcDbEntity
  8
AM_6
 60
     1
100
AcDbText
 10
296.9999999999999
 20
210.00000005115
 30
0.0
 40
2.5
  1
!GENTITLE-RU
100
AcDbText
  0
TEXT
  5
37F31
330
1F
100
AcDbEntity
  8
AM_6
 60
     1
100
AcDbText
 10
-0.0000000000000406
 20
0.000000051149982
 30
0.0
 40
2.5
  1
!GENTITLE-LL
100
AcDbText
  0
TEXT
  5
3917E
330
1F
100
AcDbEntity
  8
AM_6
 60
     1
100
AcDbText
 10
408.4999999999999
 20
8.500000051149982
 30
0.0
 40
2.5
  1
!GENTITLE-INSERT
100
AcDbText
  0
TEXT
  5
3917F
330
1F
100
AcDbEntity
  8
AM_6
 60
     1
100
AcDbText
 10
-0.0000000000000406
 20
0.000000051149982
 30
0.0
 40
2.5
  1
!GENTITLE-LL
100
AcDbText
  0
TEXT
  5
39180
330
1F
100
AcDbEntity
  8
AM_6
 60
     1
100
AcDbText
 10
419.9999999999999
 20
297.00000005115
 30
0.0
 40
2.5
  1
!GENTITLE-RU
100
AcDbText
  0
TEXT
  5
39181
330
1F
100
AcDbEntity
  8
AM_6
 60
     1
100
AcDbText
 10
419.9999999999999
 20
297.00000005115
 30
0.0
 40
2.5
  1
!GENTITLE-MAX
100
AcDbText
  0
LINE
  5
39182
330
1F
100
AcDbEntity
  8
size
100
AcDbLine
 10
-0.0000000000000406
 20
0.000000051149982
 30
0.0
 11
419.9999999999999
 21
0.000000051149982
 31
0.0
1001
GENIUS_GENREC_14
1002
{
1000
PYDIR
1011
-0.0000000000000228
1021
297.00000005115
1031
0.0
1002
}
1002
{
1000
PXDIR
1011
419.9999999999999
1021
0.000000051149982
1031
0.0
1002
}
1002
{
1000
PORI
1011
-0.0000000000000406
1021
0.000000051149982
1031
0.0
1002
}
1002
{
1000
PINS
1011
210.0
1021
148.5000000511499
1031
0.0
1002
}
1002
{
1000
HVAL
1000
297
1002
}
1002
{
1000
H
1070
     2
1002
}
1002
{
1000
WVAL
1000
420
1002
}
1002
{
1000
W
1070
     2
1002
}
1002
{
1000
C
1070
     4
1002
}
1001
GENIUS_GENOBJ-N-REC_13
1002
{
1000
OWNER
1000
GEN
1002
}
1001
GENIUS_GENODEF_13
1002
{
1000
HIER
1070
     0
1002
}
1002
{
1000
MANEDIT
1070
     0
1002
}
1002
{
1000
NOSEL
1070
     0
1002
}
1002
{
1000
BEHIND
1070
     0
1002
}
1002
{
1000
OTHER
1070
     0
1002
}
1002
{
1000
REACTOR
1002
}
  0
LINE
  5
39183
330
1F
100
AcDbEntity
  8
size
100
AcDbLine
 10
419.9999999999999
 20
0.000000051149982
 30
0.0
 11
419.9999999999999
 21
297.00000005115
 31
0.0
1001
GENIUS_GENREC_14
1002
{
1000
PYDIR
1011
-0.0000000000000228
1021
297.00000005115
1031
0.0
1002
}
1002
{
1000
PXDIR
1011
419.9999999999999
1021
0.000000051149982
1031
0.0
1002
}
1002
{
1000
PORI
1011
-0.0000000000000406
1021
0.000000051149982
1031
0.0
1002
}
1002
{
1000
PINS
1011
210.0
1021
148.5000000511499
1031
0.0
1002
}
1002
{
1000
HVAL
1000
297
1002
}
1002
{
1000
H
1070
     2
1002
}
1002
{
1000
WVAL
1000
420
1002
}
1002
{
1000
W
1070
     2
1002
}
1002
{
1000
C
1070
     4
1002
}
1001
GENIUS_GENOBJ-N-REC_13
1002
{
1000
OWNER
1000
GEN
1002
}
1001
GENIUS_GENODEF_13
1002
{
1000
HIER
1070
     0
1002
}
1002
{
1000
MANEDIT
1070
     0
1002
}
1002
{
1000
NOSEL
1070
     0
1002
}
1002
{
1000
BEHIND
1070
     0
1002
}
1002
{
1000
OTHER
1070
     0
1002
}
1002
{
1000
REACTOR
1002
}
  0
LINE
  5
39184
330
1F
100
AcDbEntity
  8
size
100
AcDbLine
 10
419.9999999999999
 20
297.00000005115
 30
0.0
 11
-0.000000000000013
 21
297.00000005115
 31
0.0
1001
GENIUS_GENREC_14
1002
{
1000
PYDIR
1011
-0.0000000000000228
1021
297.00000005115
1031
0.0
1002
}
1002
{
1000
PXDIR
1011
419.9999999999999
1021
0.000000051149982
1031
0.0
1002
}
1002
{
1000
PORI
1011
-0.0000000000000406
1021
0.000000051149982
1031
0.0
1002
}
1002
{
1000
PINS
1011
210.0
1021
148.5000000511499
1031
0.0
1002
}
1002
{
1000
HVAL
1000
297
1002
}
1002
{
1000
H
1070
     2
1002
}
1002
{
1000
WVAL
1000
420
1002
}
1002
{
1000
W
1070
     2
1002
}
1002
{
1000
C
1070
     4
1002
}
1001
GENIUS_GENOBJ-N-REC_13
1002
{
1000
OWNER
1000
GEN
1002
}
1001
GENIUS_GENODEF_13
1002
{
1000
HIER
1070
     0
1002
}
1002
{
1000
MANEDIT
1070
     0
1002
}
1002
{
1000
NOSEL
1070
     0
1002
}
1002
{
1000
BEHIND
1070
     0
1002
}
1002
{
1000
OTHER
1070
     0
1002
}
1002
{
1000
REACTOR
1002
}
  0
LINE
  5
39185
330
1F
100
AcDbEntity
  8
size
100
AcDbLine
 10
-0.000000000000013
 20
297.00000005115
 30
0.0
 11
-0.0000000000000406
 21
0.000000051149982
 31
0.0
1001
GENIUS_GENREC_14
1002
{
1000
PYDIR
1011
-0.0000000000000228
1021
297.00000005115
1031
0.0
1002
}
1002
{
1000
PXDIR
1011
419.9999999999999
1021
0.000000051149982
1031
0.0
1002
}
1002
{
1000
PORI
1011
-0.0000000000000406
1021
0.000000051149982
1031
0.0
1002
}
1002
{
1000
PINS
1011
210.0
1021
148.5000000511499
1031
0.0
1002
}
1002
{
1000
HVAL
1000
297
1002
}
1002
{
1000
H
1070
     2
1002
}
1002
{
1000
WVAL
1000
420
1002
}
1002
{
1000
W
1070
     2
1002
}
1002
{
1000
C
1070
     4
1002
}
1001
GENIUS_GENOBJ-N-REC_13
1002
{
1000
OWNER
1000
GEN
1002
}
1001
GENIUS_GENODEF_13
1002
{
1000
HIER
1070
     0
1002
}
1002
{
1000
MANEDIT
1070
     0
1002
}
1002
{
1000
NOSEL
1070
     0
1002
}
1002
{
1000
BEHIND
1070
     0
1002
}
1002
{
1000
OTHER
1070
     0
1002
}
1002
{
1000
REACTOR
1002
}
  0
LINE
  5
39186
330
1F
100
AcDbEntity
  8
waku
100
AcDbLine
 10
408.4999999999999
 20
8.500000051149982
 30
0.0
 11
408.4999999999999
 21
288.50000005115
 31
0.0
1001
GENIUS_GENREC_14
1002
{
1000
PYDIR
1011
-0.0000000000000228
1021
297.00000005115
1031
0.0
1002
}
1002
{
1000
PXDIR
1011
419.9999999999999
1021
0.000000051149982
1031
0.0
1002
}
1002
{
1000
PORI
1011
-0.0000000000000406
1021
0.000000051149982
1031
0.0
1002
}
1002
{
1000
PINS
1011
210.0
1021
148.5000000511499
1031
0.0
1002
}
1002
{
1000
HVAL
1000
297
1002
}
1002
{
1000
H
1070
     2
1002
}
1002
{
1000
WVAL
1000
420
1002
}
1002
{
1000
W
1070
     2
1002
}
1002
{
1000
C
1070
     4
1002
}
1001
GENIUS_GENOBJ-N-REC_13
1002
{
1000
OWNER
1000
GEN
1002
}
1001
GENIUS_GENODEF_13
1002
{
1000
HIER
1070
     0
1002
}
1002
{
1000
MANEDIT
1070
     0
1002
}
1002
{
1000
NOSEL
1070
     0
1002
}
1002
{
1000
BEHIND
1070
     0
1002
}
1002
{
1000
OTHER
1070
     0
1002
}
1002
{
1000
REACTOR
1002
}
  0
LINE
  5
39187
330
1F
100
AcDbEntity
  8
waku
100
AcDbLine
 10
11.49999999999998
 20
288.50000005115
 30
0.0
 11
11.49999999999996
 21
8.500000051149982
 31
0.0
1001
GENIUS_GENREC_14
1002
{
1000
PYDIR
1011
-0.0000000000000228
1021
297.00000005115
1031
0.0
1002
}
1002
{
1000
PXDIR
1011
419.9999999999999
1021
0.000000051149982
1031
0.0
1002
}
1002
{
1000
PORI
1011
-0.0000000000000406
1021
0.000000051149982
1031
0.0
1002
}
1002
{
1000
PINS
1011
210.0
1021
148.5000000511499
1031
0.0
1002
}
1002
{
1000
HVAL
1000
297
1002
}
1002
{
1000
H
1070
     2
1002
}
1002
{
1000
WVAL
1000
420
1002
}
1002
{
1000
W
1070
     2
1002
}
1002
{
1000
C
1070
     4
1002
}
1001
GENIUS_GENOBJ-N-REC_13
1002
{
1000
OWNER
1000
GEN
1002
}
1001
GENIUS_GENODEF_13
1002
{
1000
HIER
1070
     0
1002
}
1002
{
1000
MANEDIT
1070
     0
1002
}
1002
{
1000
NOSEL
1070
     0
1002
}
1002
{
1000
BEHIND
1070
     0
1002
}
1002
{
1000
OTHER
1070
     0
1002
}
1002
{
1000
REACTOR
1002
}
  0
LINE
  5
39188
330
1F
100
AcDbEntity
  8
waku
100
AcDbLine
 10
408.4999999999999
 20
288.50000005115
 30
0.0
 11
11.49999999999998
 21
288.50000005115
 31
0.0
1001
GENIUS_GENREC_14
1002
{
1000
PYDIR
1011
-0.0000000000000228
1021
297.00000005115
1031
0.0
1002
}
1002
{
1000
PXDIR
1011
419.9999999999999
1021
0.000000051149982
1031
0.0
1002
}
1002
{
1000
PORI
1011
-0.0000000000000406
1021
0.000000051149982
1031
0.0
1002
}
1002
{
1000
PINS
1011
210.0
1021
148.5000000511499
1031
0.0
1002
}
1002
{
1000
HVAL
1000
297
1002
}
1002
{
1000
H
1070
     2
1002
}
1002
{
1000
WVAL
1000
420
1002
}
1002
{
1000
W
1070
     2
1002
}
1002
{
1000
C
1070
     4
1002
}
1001
GENIUS_GENOBJ-N-REC_13
1002
{
1000
OWNER
1000
GEN
1002
}
1001
GENIUS_GENODEF_13
1002
{
1000
HIER
1070
     0
1002
}
1002
{
1000
MANEDIT
1070
     0
1002
}
1002
{
1000
NOSEL
1070
     0
1002
}
1002
{
1000
BEHIND
1070
     0
1002
}
1002
{
1000
OTHER
1070
     0
1002
}
1002
{
1000
REACTOR
1002
}
  0
TEXT
  5
39189
330
1F
100
AcDbEntity
  8
AM_6
 60
     1
100
AcDbText
 10
-0.0000000000000406
 20
0.000000051149982
 30
0.0
 40
2.5
  1
!GENTITLE-LL
100
AcDbText
  0
TEXT
  5
3918A
330
1F
100
AcDbEntity
  8
AM_6
 60
     1
100
AcDbText
 10
408.4999999999999
 20
288.50000005115
 30
0.0
 40
2.5
  1
!GENTITLE-RU
100
AcDbText
  0
TEXT
  5
3918B
330
1F
100
AcDbEntity
  8
AM_6
 60
     1
100
AcDbText
 10
419.9999999999999
 20
297.00000005115
 30
0.0
 40
2.5
  1
!GENTITLE-MAX
100
AcDbText
  0
TEXT
  5
3918C
330
1F
100
AcDbEntity
  8
AM_6
 60
     1
100
AcDbText
 10
408.4999999999999
 20
8.500000051149982
 30
0.0
 40
2.5
  1
!GENTITLE-INSERT
100
AcDbText
  0
LINE
  5
3918D
330
1F
100
AcDbEntity
  8
waku
100
AcDbLine
 10
11.49999999999996
 20
8.500000051149982
 30
0.0
 11
408.4999999999999
 21
8.500000051149982
 31
0.0
  0
TEXT
  5
39191
330
1F
100
AcDbEntity
  8
AM_6
100
AcDbText
 10
333.3570000000001
 20
250.9000000511489
 30
0.0
 40
3.2
  1
ローラー：ゴム
 41
0.84741102
100
AcDbText
  0
TEXT
  5
39193
330
1F
100
AcDbEntity
  8
AM_6
100
AcDbText
 10
333.357
 20
242.9000000511489
 30
0.0
 40
3.2
  1
シリンダー：アルマイト
 41
0.84741102
100
AcDbText
  0
TEXT
  5
39194
330
1F
100
AcDbEntity
  8
AM_6
100
AcDbText
 10
333.3570000000001
 20
234.9000000511489
 30
0.0
 40
3.2
  1
フレーム、アーム、フック：クロムメッキ
 41
0.84741102
100
AcDbText
  0
TEXT
  5
39195
330
1F
100
AcDbEntity
  8
AM_6
100
AcDbText
 10
333.3570000000001
 20
226.9000000511489
 30
0.0
 40
3.2
  1
ローラー：生地（ブラック）
 41
0.84741102
100
AcDbText
  0
LINE
  5
39196
330
1F
100
AcDbEntity
  8
AM_0
 48
2.0
100
AcDbLine
 10
90.74514195988696
 20
54.76730569396721
 30
0.0
 11
97.20199461594052
 21
53.72446303988943
 31
0.0
  0
LINE
  5
39197
330
1F
100
AcDbEntity
  8
AM_0
100
AcDbLine
 10
91.69919143054187
 20
55.62617638438024
 30
0.0
 11
98.3486449738648
 21
54.55222686893262
 31
0.0
  0
LINE
  5
39198
330
1F
100
AcDbEntity
  8
AM_0
 48
2.0
100
AcDbLine
 10
79.64875363877832
 20
106.2278787413194
 30
0.0
 11
84.69784375376411
 21
137.4897673801467
 31
0.0
  0
LINE
  5
39199
330
1F
100
AcDbEntity
  8
AM_0
100
AcDbLine
 10
84.88692496584098
 20
137.4592289795553
 30
0.0
 11
84.69784375376571
 21
137.4897673801571
 31
0.0
  0
LINE
  5
3919A
330
1F
100
AcDbEntity
  8
AM_0
100
AcDbLine
 10
93.88692496584098
 20
136.5121233660152
 30
0.0
 11
111.3827965553715
 21
133.6863749502255
 31
0.0
  0
LINE
  5
3919B
330
1F
100
AcDbEntity
  8
AM_0
100
AcDbLine
 10
93.88692496584098
 20
141.3743250577205
 30
0.0
 11
112.1481242246866
 21
138.4249689989471
 31
0.0
  0
LINE
  5
3919C
330
1F
100
AcDbEntity
  8
AM_0
 48
2.0
100
AcDbLine
 10
96.74771064277582
 20
145.7625954454078
 30
0.0
 11
105.9024104096684
 21
144.2840250163289
 31
0.0
  0
LINE
  5
3919D
330
1F
100
AcDbEntity
  8
AM_0
 48
2.0
100
AcDbLine
 10
95.99471061336453
 20
145.6578584093578
 30
0.0
 11
95.34660455830044
 21
141.6450523676286
 31
0.0
  0
ARC
  5
3919E
330
1F
100
AcDbEntity
  8
AM_0
100
AcDbCircle
 10
82.88692496584099
 20
153.1232263699007
 30
0.0
 40
9.199999999999992
100
AcDbArc
 50
225.0767050343855
 51
237.5233045625014
  0
ARC
  5
3919F
330
1F
100
AcDbEntity
  8
AM_0
100
AcDbCircle
 10
82.88692496584099
 20
153.1232263699007
 30
0.0
 40
9.199999999999992
100
AcDbArc
 50
57.52330456250131
 51
119.5918457939489
  0
ARC
  5
391A0
330
1F
100
AcDbEntity
  8
AM_0
100
AcDbCircle
 10
82.88692496584099
 20
153.1232263699007
 30
0.0
 40
9.199999999999992
100
AcDbArc
 50
237.5233045625014
 51
266.3141964337415
  0
ARC
  5
391A1
330
1F
100
AcDbEntity
  8
AM_0
 48
2.0
100
AcDbCircle
 10
256.8349297604457
 20
165.7232263699031
 30
0.0
 40
67.79999999999721
100
AcDbArc
 50
82.37185033141754
 51
97.62814966858245
  0
LINE
  5
391A2
330
1F
100
AcDbEntity
  8
AM_0
 48
2.0
100
AcDbLine
 10
268.4349297607957
 20
216.7772680849759
 30
0.0
 11
270.4349297607976
 21
216.7772680849732
 31
0.0
  0
LINE
  5
391A3
330
1F
100
AcDbEntity
  8
AM_0
 48
2.0
100
AcDbLine
 10
271.0144434198832
 20
214.5501902311284
 30
0.0
 11
270.4349297600376
 21
214.5501902311297
 31
0.0
1001
GENIUS_GENODEF_13
1002
{
1000
HIER
1070
     0
1002
}
1002
{
1000
MANEDIT
1070
     0
1002
}
1002
{
1000
NOSEL
1070
     0
1002
}
1002
{
1000
BEHIND
1070
     0
1002
}
1002
{
1000
REACTOR
1002
}
1001
GENIUS_GENOBJ-N-CEN_13
1002
{
1000
OWNER
1000
GEN
1002
}
  0
ARC
  5
391A4
330
1F
100
AcDbEntity
  8
AM_0
 48
2.0
100
AcDbCircle
 10
271.0144434198819
 20
214.2501902311283
 30
0.0
 40
0.3
100
AcDbArc
 50
31.29741222020103
 51
89.99999999986973
1001
GENIUS_GENODEF_13
1002
{
1000
HIER
1070
     0
1002
}
1002
{
1000
MANEDIT
1070
     0
1002
}
1002
{
1000
NOSEL
1070
     0
1002
}
1002
{
1000
BEHIND
1070
     0
1002
}
1002
{
1000
REACTOR
1002
}
1001
GENIUS_GENOBJ-N-FIL_13
1002
{
1000
OWNER
1000
GEN
1002
}
  0
LINE
  5
391A5
330
1F
100
AcDbEntity
  8
AM_0
 48
2.0
100
AcDbLine
 10
265.8349297608186
 20
213.2772680849568
 30
0.0
 11
268.4349297608035
 21
213.2772680849568
 31
0.0
  0
LINE
  5
391A6
330
1F
100
AcDbEntity
  8
AM_0
 48
2.0
100
AcDbLine
 10
245.2349297608662
 20
213.2772680849568
 30
0.0
 11
247.8349297608188
 21
213.2772680849568
 31
0.0
  0
LINE
  5
391A7
330
1F
100
AcDbEntity
  8
AM_0
 48
2.0
100
AcDbLine
 10
271.0144434198689
 20
205.9501902311283
 30
0.0
 11
270.4349297600381
 21
205.9501902311296
 31
0.0
1001
GENIUS_GENODEF_13
1002
{
1000
HIER
1070
     0
1002
}
1002
{
1000
MANEDIT
1070
     0
1002
}
1002
{
1000
NOSEL
1070
     0
1002
}
1002
{
1000
BEHIND
1070
     0
1002
}
1002
{
1000
REACTOR
1002
}
1001
GENIUS_GENOBJ-N-CEN_13
1002
{
1000
OWNER
1000
GEN
1002
}
  0
ARC
  5
391A8
330
1F
100
AcDbEntity
  8
AM_0
 48
2.0
100
AcDbCircle
 10
271.0144434198698
 20
206.2501902311283
 30
0.0
 40
0.3
100
AcDbArc
 50
269.9999999998762
 51
328.7025877796202
1001
GENIUS_GENODEF_13
1002
{
1000
HIER
1070
     0
1002
}
1002
{
1000
MANEDIT
1070
     0
1002
}
1002
{
1000
NOSEL
1070
     0
1002
}
1002
{
1000
BEHIND
1070
     0
1002
}
1002
{
1000
REACTOR
1002
}
1001
GENIUS_GENOBJ-N-FIL_13
1002
{
1000
OWNER
1000
GEN
1002
}
  0
LINE
  5
391A9
330
1F
100
AcDbEntity
  8
AM_0
 48
2.0
100
AcDbLine
 10
265.8349297608602
 20
206.2772680849568
 30
0.0
 11
268.434929760818
 21
206.2772680849568
 31
0.0
  0
ARC
  5
391AA
330
1F
100
AcDbEntity
  8
AM_0
 48
2.0
100
AcDbCircle
 10
273.084929760447
 20
208.8514333998761
 30
0.0
 40
7.25
100
AcDbArc
 50
200.796955274458
 51
208.8528340448015
  0
ARC
  5
391AB
330
1F
100
AcDbEntity
  8
AM_0
 48
2.0
100
AcDbCircle
 10
256.8349297608513
 20
207.7772680849585
 30
0.0
 40
13.00000000000181
100
AcDbArc
 50
299.7423144497387
 51
313.8130614607401
  0
LINE
  5
391AC
330
1F
100
AcDbEntity
  8
AM_0
 48
2.0
100
AcDbLine
 10
245.2349297608655
 20
206.2772680849568
 30
0.0
 11
247.8349297608604
 21
206.2772680849568
 31
0.0
  0
ARC
  5
391AD
330
1F
100
AcDbEntity
  8
AM_0
 48
2.0
100
AcDbCircle
 10
240.5849297604472
 20
208.8514333998761
 30
0.0
 40
7.25
100
AcDbArc
 50
331.1471659551984
 51
339.2030447255416
  0
ARC
  5
391AE
330
1F
100
AcDbEntity
  8
AM_0
 48
2.0
100
AcDbCircle
 10
256.8349297608513
 20
207.7772680849585
 30
0.0
 40
13.00000000000181
100
AcDbArc
 50
226.1869385399457
 51
240.2576855456178
  0
LINE
  5
391AF
330
1F
100
AcDbEntity
  8
AM_0
 48
2.0
100
AcDbLine
 10
247.8349297604473
 20
207.5604393020389
 30
0.0
 11
247.8349297604473
 21
203.0686463320153
 31
0.0
  0
ARC
  5
391B0
330
1F
100
AcDbEntity
  8
AM_0
 48
2.0
100
AcDbCircle
 10
264.434929760038
 20
210.2501902311384
 30
0.0
 40
7.999999999999772
100
AcDbArc
 50
328.7025877796202
 51
31.29741222020468
  0
LINE
  5
391B1
330
1F
100
AcDbEntity
  8
AM_0
 48
2.0
100
AcDbLine
 10
242.6554161010206
 20
214.5501902311284
 30
0.0
 11
243.2349297608662
 21
214.5501902311297
 31
0.0
1001
GENIUS_GENODEF_13
1002
{
1000
HIER
1070
     0
1002
}
1002
{
1000
MANEDIT
1070
     0
1002
}
1002
{
1000
NOSEL
1070
     0
1002
}
1002
{
1000
BEHIND
1070
     0
1002
}
1002
{
1000
REACTOR
1002
}
1001
GENIUS_GENOBJ-N-CEN_13
1002
{
1000
OWNER
1000
GEN
1002
}
  0
ARC
  5
391B2
330
1F
100
AcDbEntity
  8
AM_0
 48
2.0
100
AcDbCircle
 10
242.6554161010213
 20
214.2501902311283
 30
0.0
 40
0.3
100
AcDbArc
 50
90.00000000013027
 51
148.7025877797953
1001
GENIUS_GENODEF_13
1002
{
1000
HIER
1070
     0
1002
}
1002
{
1000
MANEDIT
1070
     0
1002
}
1002
{
1000
NOSEL
1070
     0
1002
}
1002
{
1000
BEHIND
1070
     0
1002
}
1002
{
1000
REACTOR
1002
}
1001
GENIUS_GENOBJ-N-FIL_13
1002
{
1000
OWNER
1000
GEN
1002
}
  0
LINE
  5
391B3
330
1F
100
AcDbEntity
  8
AM_0
 48
2.0
100
AcDbLine
 10
242.6554161010344
 20
205.9501902311283
 30
0.0
 11
243.2349297608655
 21
205.9501902311296
 31
0.0
1001
GENIUS_GENODEF_13
1002
{
1000
HIER
1070
     0
1002
}
1002
{
1000
MANEDIT
1070
     0
1002
}
1002
{
1000
NOSEL
1070
     0
1002
}
1002
{
1000
BEHIND
1070
     0
1002
}
1002
{
1000
REACTOR
1002
}
1001
GENIUS_GENOBJ-N-CEN_13
1002
{
1000
OWNER
1000
GEN
1002
}
  0
ARC
  5
391B4
330
1F
100
AcDbEntity
  8
AM_0
 48
2.0
100
AcDbCircle
 10
242.6554161010338
 20
206.2501902311283
 30
0.0
 40
0.3
100
AcDbArc
 50
211.2974122203798
 51
270.0000000001237
1001
GENIUS_GENODEF_13
1002
{
1000
HIER
1070
     0
1002
}
1002
{
1000
MANEDIT
1070
     0
1002
}
1002
{
1000
NOSEL
1070
     0
1002
}
1002
{
1000
BEHIND
1070
     0
1002
}
1002
{
1000
REACTOR
1002
}
1001
GENIUS_GENOBJ-N-FIL_13
1002
{
1000
OWNER
1000
GEN
1002
}
  0
ARC
  5
391B5
330
1F
100
AcDbEntity
  8
AM_0
 48
2.0
100
AcDbCircle
 10
249.2349297608655
 20
210.2501902311384
 30
0.0
 40
7.999999999999772
100
AcDbArc
 50
148.7025877797953
 51
211.2974122203798
  0
LINE
  5
391B6
330
1F
100
AcDbEntity
  8
AM_0
 48
2.0
100
AcDbLine
 10
245.2349297608678
 20
216.7772680849513
 30
0.0
 11
243.2349297608662
 21
216.7772680849441
 31
0.0
  0
LINE
  5
391B7
330
1F
100
AcDbEntity
  8
AM_0
 48
2.0
100
AcDbLine
 10
247.8349297607715
 20
227.2449729386585
 30
0.0
 11
247.8349297609073
 21
198.3964365652555
 31
0.0
1001
GENIUS_GENODEF_13
1002
{
1000
HIER
1070
     0
1002
}
1002
{
1000
MANEDIT
1070
     0
1002
}
1002
{
1000
NOSEL
1070
     0
1002
}
1002
{
1000
BEHIND
1070
     0
1002
}
1002
{
1000
REACTOR
1002
}
1001
GENIUS_GENOBJ-N-CEN_13
1002
{
1000
OWNER
1000
GEN
1002
}
  0
LINE
  5
391B8
330
1F
100
AcDbEntity
  8
AM_0
 48
2.0
100
AcDbLine
 10
265.8349297607715
 20
227.2449729388035
 30
0.0
 11
265.8349297609072
 21
198.3964365653629
 31
0.0
1001
GENIUS_GENODEF_13
1002
{
1000
HIER
1070
     0
1002
}
1002
{
1000
MANEDIT
1070
     0
1002
}
1002
{
1000
NOSEL
1070
     0
1002
}
1002
{
1000
BEHIND
1070
     0
1002
}
1002
{
1000
REACTOR
1002
}
1001
GENIUS_GENOBJ-N-CEN_13
1002
{
1000
OWNER
1000
GEN
1002
}
  0
LINE
  5
391B9
330
1F
100
AcDbEntity
  8
AM_0
 48
2.0
100
AcDbLine
 10
265.8349297604472
 20
232.9232263699
 30
0.0
 11
265.8349297604472
 21
202.7645600657509
 31
0.0
  0
LINE
  5
391BA
330
1F
100
AcDbEntity
  8
AM_0
 48
2.0
100
AcDbLine
 10
247.8349297604459
 20
232.9232263699004
 30
0.0
 11
247.8349297604459
 21
208.936353035775
 31
0.0
  0
ARC
  5
391BC
330
1F
100
AcDbEntity
  8
AM_0
 48
2.0
100
AcDbCircle
 10
278.3349297604458
 20
186.5232263699002
 30
0.0
 40
3.0
100
AcDbArc
 50
0.0
 51
90.0
  0
LINE
  5
391BD
330
1F
100
AcDbEntity
  8
AM_0
 48
2.0
100
AcDbLine
 10
281.3349297604458
 20
186.5232263699002
 30
0.0
 11
281.3349297604458
 21
166.5232263699003
 31
0.0
  0
LINE
  5
391BE
330
1F
100
AcDbEntity
  8
AM_0
 48
2.0
100
AcDbLine
 10
277.3349297604458
 20
183.0232263699003
 30
0.0
 11
277.3349297604458
 21
180.5232263699004
 31
0.0
  0
CIRCLE
  5
391BF
330
1F
100
AcDbEntity
  8
AM_0
100
AcDbCircle
 10
278.8349297604518
 20
137.1232263699009
 30
0.0
 40
2.5
  0
ARC
  5
391C0
330
1F
100
AcDbEntity
  8
AM_0
100
AcDbCircle
 10
278.8349297604518
 20
137.1232263699009
 30
0.0
 40
6.0
100
AcDbArc
 50
0.0
 51
90.0
1001
GENIUS_GENOBJ-N-CEN_13
1002
{
1000
OWNER
1000
GEN
1002
}
1001
GENIUS_GENODEF_13
1002
{
1000
HIER
1070
     0
1002
}
1002
{
1000
MANEDIT
1070
     0
1002
}
1002
{
1000
NOSEL
1070
     0
1002
}
1002
{
1000
BEHIND
1070
     0
1002
}
1002
{
1000
REACTOR
1002
}
1001
GENIUS_GENOBJ-N-FIL_13
1002
{
1000
OWNER
1000
GEN
1002
}
  0
LINE
  5
391C1
330
1F
100
AcDbEntity
  8
AM_0
 48
2.0
100
AcDbLine
 10
274.2349297604519
 20
149.470800311683
 30
0.0
 11
274.2349297604568
 21
155.470800311683
 31
0.0
  0
LINE
  5
391C2
330
1F
100
AcDbEntity
  8
AM_7
100
AcDbLine
 10
274.8349297604458
 20
188.5232263699002
 30
0.0
 11
274.8349297604458
 21
164.5232263699002
 31
0.0
  0
ARC
  5
391C3
330
1F
100
AcDbEntity
  8
AM_0
 48
2.0
100
AcDbCircle
 10
278.3349297604458
 20
166.5232263699003
 30
0.0
 40
3.0
100
AcDbArc
 50
270.0
 51
0.0
  0
CIRCLE
  5
391C4
330
1F
100
AcDbEntity
  8
AM_0
100
AcDbCircle
 10
278.8349297604518
 20
114.1232263699009
 30
0.0
 40
2.5
  0
ARC
  5
391C5
330
1F
100
AcDbEntity
  8
AM_0
100
AcDbCircle
 10
278.8349297604518
 20
113.9210723188308
 30
0.0
 40
6.0
100
AcDbArc
 50
309.9999999999955
 51
0.0
1001
GENIUS_GENOBJ-N-CEN_13
1002
{
1000
OWNER
1000
GEN
1002
}
1001
GENIUS_GENODEF_13
1002
{
1000
HIER
1070
     0
1002
}
1002
{
1000
MANEDIT
1070
     0
1002
}
1002
{
1000
NOSEL
1070
     0
1002
}
1002
{
1000
BEHIND
1070
     0
1002
}
1002
{
1000
REACTOR
1002
}
1001
GENIUS_GENOBJ-N-FIL_13
1002
{
1000
OWNER
1000
GEN
1002
}
  0
LINE
  5
391C6
330
1F
100
AcDbEntity
  8
AM_7
 48
0.5
100
AcDbLine
 10
278.8349297604509
 20
119.6232263699009
 30
0.0
 11
278.834929760452
 21
108.6232263699009
 31
0.0
1001
GENIUS_GENODEF_13
1002
{
1000
HIER
1070
     0
1002
}
1002
{
1000
MANEDIT
1070
     0
1002
}
1002
{
1000
NOSEL
1070
     0
1002
}
1002
{
1000
BEHIND
1070
     0
1002
}
1002
{
1000
REACTOR
1002
}
1001
GENIUS_GENOBJ-N-CEN_13
1002
{
1000
OWNER
1000
GEN
1002
}
  0
LINE
  5
391C7
330
1F
100
AcDbEntity
  8
AM_0
100
AcDbLine
 10
284.8349297604516
 20
113.9210723188308
 30
0.0
 11
284.8349297604516
 21
137.1232263699009
 31
0.0
1001
GENIUS_GENODEF_13
1002
{
1000
HIER
1070
     0
1002
}
1002
{
1000
MANEDIT
1070
     0
1002
}
1002
{
1000
NOSEL
1070
     0
1002
}
1002
{
1000
BEHIND
1070
     0
1002
}
1002
{
1000
REACTOR
1002
}
1001
GENIUS_GENOBJ-N-CEN_13
1002
{
1000
OWNER
1000
GEN
1002
}
  0
LINE
  5
391C8
330
1F
100
AcDbEntity
  8
AM_7
 48
0.5
100
AcDbLine
 10
278.8349297604518
 20
142.6232263699009
 30
0.0
 11
278.8349297604518
 21
131.6232263699009
 31
0.0
1001
GENIUS_GENODEF_13
1002
{
1000
HIER
1070
     0
1002
}
1002
{
1000
MANEDIT
1070
     0
1002
}
1002
{
1000
NOSEL
1070
     0
1002
}
1002
{
1000
BEHIND
1070
     0
1002
}
1002
{
1000
REACTOR
1002
}
1001
GENIUS_GENOBJ-N-CEN_13
1002
{
1000
OWNER
1000
GEN
1002
}
  0
LINE
  5
391C9
330
1F
100
AcDbEntity
  8
AM_0
 48
2.0
100
AcDbLine
 10
266.7349297604459
 20
189.5232263699002
 30
0.0
 11
268.4349297608727
 21
189.5232263699002
 31
0.0
  0
ARC
  5
391CA
330
1F
100
AcDbEntity
  8
AM_0
 48
2.0
100
AcDbCircle
 10
260.1141609629731
 20
190.5232263699002
 30
0.0
 40
2.0
100
AcDbArc
 50
270.0
 51
351.4163785198868
  0
LINE
  5
391CB
330
1F
100
AcDbEntity
  8
AM_0
 48
2.0
100
AcDbLine
 10
245.2349297608666
 20
189.5232263699002
 30
0.0
 11
246.9349297604458
 21
189.5232263699002
 31
0.0
  0
ARC
  5
391CC
330
1F
100
AcDbEntity
  8
AM_0
 48
2.0
100
AcDbCircle
 10
253.5556985579187
 20
190.5232263699002
 30
0.0
 40
2.0
100
AcDbArc
 50
188.5836214801132
 51
270.0
  0
LINE
  5
391CD
330
1F
100
AcDbEntity
  8
AM_0
 48
2.0
100
AcDbLine
 10
253.5556985579187
 20
188.5232263699002
 30
0.0
 11
260.1141609629731
 21
188.5232263699002
 31
0.0
  0
ELLIPSE
  5
391CE
330
1F
100
AcDbEntity
  8
AM_0
100
AcDbEllipse
 10
268.434926384874
 20
173.9993356577972
 30
0.0
 11
2.000003375963046
 21
0.0000000008141089
 31
0.0
210
0.0
220
0.0
230
-1.0
 40
0.0399398791797498
 41
0.0000000000003264
 42
1.570796326794897
  0
LINE
  5
391CF
330
1F
100
AcDbEntity
  8
AM_0
 48
2.0
100
AcDbLine
 10
268.4349263849065
 20
173.9194557598796
 30
0.0
 11
245.2349331368257
 21
173.9194557598796
 31
0.0
  0
LINE
  5
391D0
330
1F
100
AcDbEntity
  8
AM_0
100
AcDbLine
 10
245.2349297608678
 20
173.9993356530743
 30
0.0
 11
268.4349297609058
 21
173.9993356530743
 31
0.0
  0
LINE
  5
391D1
330
1F
100
AcDbEntity
  8
AM_0
 48
2.0
100
AcDbLine
 10
272.3349297604459
 20
183.0232263699003
 30
0.0
 11
272.3349297604459
 21
180.5232263699004
 31
0.0
  0
LINE
  5
391D2
330
1F
100
AcDbEntity
  8
AM_0
 48
2.0
100
AcDbLine
 10
235.3349297604459
 20
189.5232263699002
 30
0.0
 11
243.2349297608622
 21
189.5232263699002
 31
0.0
  0
LINE
  5
391D3
330
1F
100
AcDbEntity
  8
AM_7
 48
0.5
100
AcDbLine
 10
233.3349297604458
 20
183.0232263699003
 30
0.0
 11
244.3349297604459
 21
183.0232263699003
 31
0.0
  0
ARC
  5
391D4
330
1F
100
AcDbEntity
  8
AM_0
 48
2.0
100
AcDbCircle
 10
235.3349297604459
 20
186.5232263699002
 30
0.0
 40
3.0
100
AcDbArc
 50
90.0
 51
180.0
  0
LINE
  5
391D5
330
1F
100
AcDbEntity
  8
AM_0
 48
2.0
100
AcDbLine
 10
241.3349297604458
 20
172.5232263699003
 30
0.0
 11
241.3349297604458
 21
170.0232263699002
 31
0.0
  0
LINE
  5
391D6
330
1F
100
AcDbEntity
  8
AM_0
 48
2.0
100
AcDbLine
 10
236.3349297604459
 20
172.5232263699003
 30
0.0
 11
236.3349297604459
 21
170.0232263699002
 31
0.0
  0
LINE
  5
391D7
330
1F
100
AcDbEntity
  8
AM_7
 48
0.5
100
AcDbLine
 10
233.3349297604458
 20
172.5232263699003
 30
0.0
 11
244.3349297604459
 21
172.5232263699003
 31
0.0
  0
LINE
  5
391D8
330
1F
100
AcDbEntity
  8
AM_7
 48
0.5
100
AcDbLine
 10
233.3349297604458
 20
170.0232263699002
 30
0.0
 11
244.3349297604459
 21
170.0232263699002
 31
0.0
  0
ARC
  5
391D9
330
1F
100
AcDbEntity
  8
AM_0
 48
2.0
100
AcDbCircle
 10
238.8349297604459
 20
170.0232263699002
 30
0.0
 40
2.5
100
AcDbArc
 50
180.0
 51
0.0
  0
ARC
  5
391DA
330
1F
100
AcDbEntity
  8
AM_0
 48
2.0
100
AcDbCircle
 10
238.8349297604459
 20
172.5232263699003
 30
0.0
 40
2.5
100
AcDbArc
 50
0.0
 51
180.0
  0
LINE
  5
391DB
330
1F
100
AcDbEntity
  8
AM_0
 48
2.0
100
AcDbLine
 10
232.3349297604459
 20
186.5232263699002
 30
0.0
 11
232.3349297604459
 21
166.5232263699003
 31
0.0
  0
CIRCLE
  5
391DC
330
1F
100
AcDbEntity
  8
AM_0
 48
2.0
100
AcDbCircle
 10
238.8349297604459
 20
183.0232263699003
 30
0.0
 40
2.5
  0
ELLIPSE
  5
391DD
330
1F
100
AcDbEntity
  8
AM_0
100
AcDbEllipse
 10
245.2349331368257
 20
173.9993356530746
 30
0.0
 11
2.000003375963046
 21
0.0000000000001667
 31
0.0
210
0.0
220
0.0
230
1.0
 40
0.0399398791797498
 41
3.141592653589476
 42
4.712388980384687
  0
LINE
  5
391DE
330
1F
100
AcDbEntity
  8
AM_0
 48
2.0
100
AcDbLine
 10
272.4349297609281
 20
164.1143759422113
 30
0.0
 11
272.4349297609354
 21
157.9143759422114
 31
0.0
  0
LINE
  5
391DF
330
1F
100
AcDbEntity
  8
AM_0
 48
5.0
100
AcDbLine
 10
272.4349297609344
 20
158.7208003116844
 30
0.0
 11
273.3349297604516
 21
158.7208003116844
 31
0.0
1001
GENIUS_GENODEF_13
1002
{
1000
HIER
1070
     0
1002
}
1002
{
1000
MANEDIT
1070
     0
1002
}
1002
{
1000
NOSEL
1070
     0
1002
}
1002
{
1000
BEHIND
1070
     0
1002
}
1002
{
1000
REACTOR
1002
}
1001
GENIUS_GENOBJ-N-CEN_13
1002
{
1000
OWNER
1000
GEN
1002
}
  0
ARC
  5
391E0
330
1F
100
AcDbEntity
  8
AM_0
 48
2.0
100
AcDbCircle
 10
271.6314769666253
 20
162.0489038852403
 30
0.0
 40
2.216238076290836
100
AcDbArc
 50
68.74434636125774
 51
122.6768399137375
  0
ELLIPSE
  5
391E1
330
1F
100
AcDbEntity
  8
AM_0
100
AcDbEllipse
 10
268.434926384874
 20
154.0152940178634
 30
0.0
 11
2.000003375963046
 21
0.0000000008141089
 31
0.0
210
0.0
220
0.0
230
-1.0
 40
0.0399398791797498
 41
0.0000000000003264
 42
1.570796326794897
  0
ARC
  5
391E2
330
1F
100
AcDbEntity
  8
AM_0
 48
2.0
100
AcDbCircle
 10
271.6314769666435
 20
153.7798479991789
 30
0.0
 40
2.216238076290836
100
AcDbArc
 50
237.3231600865175
 51
291.2556536389939
  0
LINE
  5
391E3
330
1F
100
AcDbEntity
  8
AM_0
 48
2.0
100
AcDbLine
 10
273.3349297604516
 20
157.3732263698888
 30
0.0
 11
273.3349297604444
 21
157.3732263698888
 31
0.0
  0
LINE
  5
391E4
330
1F
100
AcDbEntity
  8
AM_0
 48
2.0
100
AcDbLine
 10
272.4349297609556
 20
151.7143759422113
 30
0.0
 11
272.4349297609354
 21
157.9143759422114
 31
0.0
  0
LINE
  5
391E5
330
1F
100
AcDbEntity
  8
AM_0
 48
2.0
100
AcDbLine
 10
268.4349263849065
 20
153.9354141199456
 30
0.0
 11
245.2349331368257
 21
153.9354141199456
 31
0.0
  0
LINE
  5
391E6
330
1F
100
AcDbEntity
  8
AM_0
 48
5.0
100
AcDbLine
 10
272.3349297604516
 20
146.2208003116844
 30
0.0
 11
273.3349297604516
 21
146.2208003116844
 31
0.0
1001
GENIUS_GENODEF_13
1002
{
1000
HIER
1070
     0
1002
}
1002
{
1000
MANEDIT
1070
     0
1002
}
1002
{
1000
NOSEL
1070
     0
1002
}
1002
{
1000
BEHIND
1070
     0
1002
}
1002
{
1000
REACTOR
1002
}
1001
GENIUS_GENOBJ-N-CEN_13
1002
{
1000
OWNER
1000
GEN
1002
}
  0
LINE
  5
391E7
330
1F
100
AcDbEntity
  8
AM_0
 48
2.0
100
AcDbLine
 10
267.0349297609653
 20
147.1465362026117
 30
0.0
 11
267.0349297609643
 21
147.9708003116977
 31
0.0
  0
LINE
  5
391E8
330
1F
100
AcDbEntity
  8
AM_0
 48
2.0
100
AcDbLine
 10
273.334929760458
 20
148.8732263698908
 30
0.0
 11
273.3349297604529
 21
148.8732263698908
 31
0.0
  0
LINE
  5
391E9
330
1F
100
AcDbEntity
  8
AM_0
 48
2.0
100
AcDbLine
 10
269.0349297600564
 20
143.923226369102
 30
0.0
 11
267.0349297600505
 21
143.9232263690944
 31
0.0
  0
LINE
  5
391EA
330
1F
100
AcDbEntity
  8
AM_0
 48
2.0
100
AcDbLine
 10
269.0349297600564
 20
143.923226369102
 30
0.0
 11
269.0349297600537
 21
144.010951077246
 31
0.0
  0
ELLIPSE
  5
391EB
330
1F
100
AcDbEntity
  8
AM_0
100
AcDbEllipse
 10
269.0349297600527
 20
145.2438317436943
 30
0.0
 11
1.399999999990085
 21
0.000000000081483
 31
0.0
210
0.0
220
0.0
230
-1.0
 40
0.8806290474692829
 41
-0.0000000000000941
 42
1.570796326794829
  0
LINE
  5
391EC
330
1F
100
AcDbEntity
  8
AM_0
 48
2.0
100
AcDbLine
 10
270.5349297600428
 20
145.1232263698391
 30
0.0
 11
270.428214976417
 21
145.1232263698391
 31
0.0
  0
LINE
  5
391ED
330
1F
100
AcDbEntity
  8
AM_0
 48
2.0
100
AcDbLine
 10
270.8349297604518
 20
145.4232263702482
 30
0.0
 11
270.5349297600428
 21
145.1232263698391
 31
0.0
1001
GENIUS_GENODEF_13
1002
{
1000
HIER
1070
     0
1002
}
1002
{
1000
MANEDIT
1070
     0
1002
}
1002
{
1000
NOSEL
1070
     0
1002
}
1002
{
1000
BEHIND
1070
     0
1002
}
1002
{
1000
REACTOR
1002
}
1001
GENIUS_GENOBJ-N-CHA_13
1002
{
1000
OWNER
1000
GEN
1002
}
1001
GENIUS_GENFIL_13
1070
     0
1040
0.5
1040
0.5
1040
0.0
1040
0.0
1002
{
1002
}
  0
ELLIPSE
  5
391EE
330
1F
100
AcDbEntity
  8
AM_0
100
AcDbEllipse
 10
268.4349297599292
 20
145.2438317436943
 30
0.0
 11
1.399999999990085
 21
0.000000000081483
 31
0.0
210
0.0
220
0.0
230
-1.0
 40
0.8806290474692829
 41
3.141592653589698
 42
4.712388980384623
  0
LINE
  5
391EF
330
1F
100
AcDbEntity
  8
AM_0
 48
2.0
100
AcDbLine
 10
266.4349297601796
 20
147.9708003116974
 30
0.0
 11
266.4349297601827
 21
145.7685958586201
 31
0.0
  0
ARC
  5
391F0
330
1F
100
AcDbEntity
  8
AM_0
 48
2.0
100
AcDbCircle
 10
265.3849297601718
 20
147.4708003116682
 30
0.0
 40
2.0
100
AcDbArc
 50
238.3317567470637
 51
301.6682432539144
  0
LINE
  5
391F1
330
1F
100
AcDbEntity
  8
AM_0
100
AcDbLine
 10
260.3349297584218
 20
140.8126843769543
 30
0.0
 11
260.3349297584218
 21
144.4511147370431
 31
0.0
  0
LINE
  5
391F2
330
1F
100
AcDbEntity
  8
AM_0
 48
2.0
100
AcDbLine
 10
267.0349297609602
 20
147.9708003116977
 30
0.0
 11
266.4349297601796
 21
147.9708003116974
 31
0.0
  0
LINE
  5
391F3
330
1F
100
AcDbEntity
  8
AM_0
100
AcDbLine
 10
270.4349297604519
 20
135.854803346618
 30
0.0
 11
270.4349297604519
 21
140.5933973953383
 31
0.0
  0
LINE
  5
391F4
330
1F
100
AcDbEntity
  8
AM_0
100
AcDbLine
 10
269.7648760414484
 20
141.4224571846535
 30
0.0
 11
270.2563736638901
 21
140.9436229184288
 31
0.0
  0
LINE
  5
391F5
330
1F
100
AcDbEntity
  8
AM_0
100
AcDbLine
 10
269.7648760414484
 20
135.0257435573027
 30
0.0
 11
270.2563736638901
 21
135.5045778235275
 31
0.0
  0
LINE
  5
391F6
330
1F
100
AcDbEntity
  8
AM_0
100
AcDbLine
 10
253.3349297604484
 20
140.8126843776137
 30
0.0
 11
253.3349297604484
 21
144.4511147370431
 31
0.0
  0
LINE
  5
391F7
330
1F
100
AcDbEntity
  8
AM_0
 48
2.0
100
AcDbLine
 10
247.2349297607266
 20
147.9708003116931
 30
0.0
 11
247.2349297607244
 21
145.7685958586158
 31
0.0
  0
LINE
  5
391F8
330
1F
100
AcDbEntity
  8
AM_0
 48
2.0
100
AcDbLine
 10
246.6349297608509
 20
147.9708003116885
 30
0.0
 11
246.6349297608474
 21
143.9232263690944
 31
0.0
  0
ARC
  5
391F9
330
1F
100
AcDbEntity
  8
AM_0
 48
2.0
100
AcDbCircle
 10
248.2849297607345
 20
147.4708003116645
 30
0.0
 40
2.0
100
AcDbArc
 50
238.3317567461077
 51
301.6682432529653
  0
LINE
  5
391FA
330
1F
100
AcDbEntity
  8
AM_0
100
AcDbLine
 10
249.9543385918512
 20
145.6087384108941
 30
0.0
 11
250.5197818228591
 21
145.1269029764125
 31
0.0
  0
LINE
  5
391FB
330
1F
100
AcDbEntity
  8
AM_0
 48
2.0
100
AcDbLine
 10
246.6349297608599
 20
147.9708003116931
 30
0.0
 11
247.2349297607266
 21
147.9708003116931
 31
0.0
  0
ELLIPSE
  5
391FC
330
1F
100
AcDbEntity
  8
AM_0
100
AcDbEllipse
 10
245.2349297609742
 20
145.2438317436943
 30
0.0
 11
-1.399999999990085
 21
0.0000000000811681
 31
0.0
210
0.0
220
0.0
230
1.0
 40
0.8806290474692829
 41
3.141592653589443
 42
4.712388980384424
  0
ELLIPSE
  5
391FD
330
1F
100
AcDbEntity
  8
AM_0
100
AcDbEllipse
 10
256.8349297604525
 20
145.8140097819312
 30
0.0
 11
7.000000000000567
 21
0.0
 31
0.0
210
0.0
220
0.0
230
1.0
 40
0.1594432644410591
 41
3.141592653589792
 42
6.283185307179584
  0
ELLIPSE
  5
391FE
330
1F
100
AcDbEntity
  8
AM_0
100
AcDbEllipse
 10
256.8349297604521
 20
145.3204062351894
 30
0.0
 11
-6.428187764012537
 21
0.0000000000000232
 31
0.0
210
0.0
220
0.0
230
1.0
 40
0.1612244783300492
 41
0.1861668201726834
 42
2.95542583215652
  0
LINE
  5
391FF
330
1F
100
AcDbEntity
  8
AM_0
 48
2.0
100
AcDbLine
 10
273.3349297604516
 20
146.2208003116844
 30
0.0
 11
273.3349297604516
 21
158.7208003116844
 31
0.0
1001
ACAD
1000
ASC_BOUNDS
1002
{
1070
    19
1002
}
  0
LINE
  5
39200
330
1F
100
AcDbEntity
  8
AM_0
 48
2.0
100
AcDbLine
 10
272.3349297604516
 20
146.2208003116844
 30
0.0
 11
272.3349297604516
 21
151.6782140211312
 31
0.0
1001
ACAD
1000
ASC_BOUNDS
1002
{
1070
    19
1002
}
  0
LINE
  5
39201
330
1F
100
AcDbEntity
  8
AM_0
 48
2.0
100
AcDbLine
 10
264.3349297601787
 20
145.7685958586091
 30
0.0
 11
264.3349297601817
 21
153.9354141199456
 31
0.0
  0
LINE
  5
39202
330
1F
100
AcDbEntity
  8
AM_0
 48
2.0
100
AcDbLine
 10
267.0349297609247
 20
153.9354141199456
 30
0.0
 11
267.0349297609845
 21
143.9232263699062
 31
0.0
  0
LINE
  5
39203
330
1F
100
AcDbEntity
  8
AM_0
 48
2.0
100
AcDbLine
 10
249.3349297607283
 20
145.7685958586058
 30
0.0
 11
249.3349297607216
 21
153.9354141199456
 31
0.0
  0
LINE
  5
39204
330
1F
100
AcDbEntity
  8
AM_0
 48
2.0
100
AcDbLine
 10
249.8349297604516
 20
145.8140097819311
 30
0.0
 11
249.8349297604516
 21
153.9354141199456
 31
0.0
  0
LINE
  5
39205
330
1F
100
AcDbEntity
  8
AM_0
 48
2.0
100
AcDbLine
 10
263.8349297604516
 20
145.8140097819311
 30
0.0
 11
263.8349297604541
 21
153.9354141199456
 31
0.0
  0
LINE
  5
39206
330
1F
100
AcDbEntity
  8
AM_0
 48
2.0
100
AcDbLine
 10
246.6349297608606
 20
147.146536202592
 30
0.0
 11
246.6349297608539
 21
153.9354141199456
 31
0.0
  0
LINE
  5
39207
330
1F
100
AcDbEntity
  8
AM_0
 48
2.0
100
AcDbLine
 10
247.2349297607266
 20
147.9708003116931
 30
0.0
 11
247.2349297607216
 21
153.9354141199456
 31
0.0
  0
LINE
  5
39208
330
1F
100
AcDbEntity
  8
AM_0
 48
2.0
100
AcDbLine
 10
266.4349297601796
 20
147.9708003116974
 30
0.0
 11
266.4349297601821
 21
153.9354141199456
 31
0.0
  0
LINE
  5
39209
330
1F
100
AcDbEntity
  8
AM_0
 48
2.0
100
AcDbLine
 10
268.43492976095
 20
153.9354141246683
 30
0.0
 11
268.4349297609667
 21
146.4767124101448
 31
0.0
  0
LINE
  5
3920A
330
1F
100
AcDbEntity
  8
AM_0
 48
2.0
100
AcDbLine
 10
245.2349297608614
 20
153.9354141199456
 30
0.0
 11
245.2349297608607
 21
146.4767124101425
 31
0.0
  0
LINE
  5
3920B
330
1F
100
AcDbEntity
  8
AM_0
 48
2.0
100
AcDbLine
 10
239.4349297608619
 20
161.9143759422113
 30
0.0
 11
242.3349297608618
 21
161.9143759422113
 31
0.0
  0
LINE
  5
3920C
330
1F
100
AcDbEntity
  8
AM_0
 48
2.0
100
AcDbLine
 10
242.3349297608618
 20
161.4143759422113
 30
0.0
 11
242.5349297608616
 21
161.4143759422114
 31
0.0
  0
LINE
  5
3920D
330
1F
100
AcDbEntity
  8
AM_0
 48
2.0
100
AcDbLine
 10
242.5349297608621
 20
164.9143759422126
 30
0.0
 11
243.2349297608621
 21
164.9143759422125
 31
0.0
  0
LINE
  5
3920E
330
1F
100
AcDbEntity
  8
AM_0
 48
2.0
100
AcDbLine
 10
235.3349297604459
 20
163.5232263699002
 30
0.0
 11
242.5349297608621
 21
163.5232263699002
 31
0.0
  0
LINE
  5
3920F
330
1F
100
AcDbEntity
  8
AM_0
 48
2.0
100
AcDbLine
 10
239.434929760861
 20
153.9143759422114
 30
0.0
 11
242.3349297608613
 21
153.9143759422114
 31
0.0
  0
ARC
  5
39210
330
1F
100
AcDbEntity
  8
AM_0
 48
2.0
100
AcDbCircle
 10
241.0842153288985
 20
155.5052843132958
 30
0.0
 40
1.749285568466149
100
AcDbArc
 50
160.5330362805114
 51
179.9999999999511
  0
LINE
  5
39211
330
1F
100
AcDbEntity
  8
AM_0
 48
2.0
100
AcDbLine
 10
242.3349297608613
 20
154.4143759422114
 30
0.0
 11
242.5349297608616
 21
154.4143759422114
 31
0.0
  0
LINE
  5
39212
330
1F
100
AcDbEntity
  8
AM_0
 48
2.0
100
AcDbLine
 10
242.5349297608613
 20
153.1857241463108
 30
0.0
 11
243.2349297608613
 21
153.185724146327
 31
0.0
  0
LINE
  5
39213
330
1F
100
AcDbEntity
  8
AM_0
 48
2.0
100
AcDbLine
 10
242.5349297608621
 20
164.9143759422126
 30
0.0
 11
242.5349297608613
 21
153.1857241463108
 31
0.0
  0
LINE
  5
39214
330
1F
100
AcDbEntity
  8
AM_0
 48
2.0
100
AcDbLine
 10
239.4349297608619
 20
161.9143759422113
 30
0.0
 11
239.434929760861
 21
153.9143759422114
 31
0.0
  0
LINE
  5
39215
330
1F
100
AcDbEntity
  8
AM_0
 48
2.0
100
AcDbLine
 10
242.3349297608618
 20
161.9143759422113
 30
0.0
 11
242.3349297608613
 21
153.9143759422114
 31
0.0
  0
LINE
  5
39216
330
1F
100
AcDbEntity
  8
AM_0
 48
5.0
100
AcDbLine
 10
240.2349297604517
 20
146.2208003116844
 30
0.0
 11
241.2349297604517
 21
146.2208003116844
 31
0.0
1001
GENIUS_GENODEF_13
1002
{
1000
HIER
1070
     0
1002
}
1002
{
1000
MANEDIT
1070
     0
1002
}
1002
{
1000
NOSEL
1070
     0
1002
}
1002
{
1000
BEHIND
1070
     0
1002
}
1002
{
1000
REACTOR
1002
}
1001
GENIUS_GENOBJ-N-CEN_13
1002
{
1000
OWNER
1000
GEN
1002
}
  0
LINE
  5
39217
330
1F
100
AcDbEntity
  8
AM_0
 48
2.0
100
AcDbLine
 10
242.8349297604516
 20
145.4232263702482
 30
0.0
 11
243.1349297608606
 21
145.1232263698391
 31
0.0
1001
GENIUS_GENODEF_13
1002
{
1000
HIER
1070
     0
1002
}
1002
{
1000
MANEDIT
1070
     0
1002
}
1002
{
1000
NOSEL
1070
     0
1002
}
1002
{
1000
BEHIND
1070
     0
1002
}
1002
{
1000
REACTOR
1002
}
1001
GENIUS_GENOBJ-N-CHA_13
1002
{
1000
OWNER
1000
GEN
1002
}
1001
GENIUS_GENFIL_13
1070
     0
1040
0.5
1040
0.5
1040
0.0
1040
0.0
1002
{
1002
}
  0
ARC
  5
39218
330
1F
100
AcDbEntity
  8
AM_0
 48
2.0
100
AcDbCircle
 10
241.0842153288985
 20
149.436316310073
 30
0.0
 40
1.749285568466149
100
AcDbArc
 50
180.0000000000456
 51
240.9544855774112
  0
LINE
  5
39219
330
1F
100
AcDbEntity
  8
AM_0
 48
2.0
100
AcDbLine
 10
243.1349297608606
 20
145.1232263698391
 30
0.0
 11
243.2416445444867
 21
145.1232263698391
 31
0.0
  0
ELLIPSE
  5
3921A
330
1F
100
AcDbEntity
  8
AM_0
100
AcDbEllipse
 10
244.6349297608508
 20
145.2438317436943
 30
0.0
 11
-1.399999999990085
 21
0.0000000000811681
 31
0.0
210
0.0
220
0.0
230
1.0
 40
0.8806290474692829
 41
-0.0000000000003495
 42
1.570796326794629
  0
LINE
  5
3921B
330
1F
100
AcDbEntity
  8
AM_0
 48
2.0
100
AcDbLine
 10
244.6349297608469
 20
143.923226369102
 30
0.0
 11
244.6349297608497
 21
144.010951077246
 31
0.0
  0
LINE
  5
3921C
330
1F
100
AcDbEntity
  8
AM_0
100
AcDbLine
 10
241.2349297604517
 20
143.1232263699009
 30
0.0
 11
234.8349297604516
 21
143.1232263699009
 31
0.0
  0
LINE
  5
3921D
330
1F
100
AcDbEntity
  8
AM_0
100
AcDbLine
 10
243.2349297604517
 20
135.854803346618
 30
0.0
 11
243.2349297604517
 21
140.5933973953383
 31
0.0
  0
LINE
  5
3921E
330
1F
100
AcDbEntity
  8
AM_0
100
AcDbLine
 10
243.9049834796921
 20
141.422457186765
 30
0.0
 11
243.4134858571724
 21
140.9436229206205
 31
0.0
  0
LINE
  5
3921F
330
1F
100
AcDbEntity
  8
AM_0
100
AcDbLine
 10
243.9049834796921
 20
135.0257435551912
 30
0.0
 11
243.4134858571724
 21
135.5045778213358
 31
0.0
  0
LINE
  5
39220
330
1F
100
AcDbEntity
  8
AM_0
100
AcDbLine
 10
243.9049834796921
 20
135.0257435551912
 30
0.0
 11
243.4134858571724
 21
135.5045778213358
 31
0.0
  0
CIRCLE
  5
39221
330
1F
100
AcDbEntity
  8
AM_0
100
AcDbCircle
 10
234.8349297604516
 20
137.1232263699009
 30
0.0
 40
2.5
  0
ARC
  5
39222
330
1F
100
AcDbEntity
  8
AM_0
100
AcDbCircle
 10
234.8349297604516
 20
137.1232263699009
 30
0.0
 40
6.0
100
AcDbArc
 50
90.0
 51
180.0
1001
GENIUS_GENOBJ-N-CEN_13
1002
{
1000
OWNER
1000
GEN
1002
}
1001
GENIUS_GENODEF_13
1002
{
1000
HIER
1070
     0
1002
}
1002
{
1000
MANEDIT
1070
     0
1002
}
1002
{
1000
NOSEL
1070
     0
1002
}
1002
{
1000
BEHIND
1070
     0
1002
}
1002
{
1000
REACTOR
1002
}
1001
GENIUS_GENOBJ-N-FIL_13
1002
{
1000
OWNER
1000
GEN
1002
}
  0
LINE
  5
39223
330
1F
100
AcDbEntity
  8
AM_7
 48
0.5
100
AcDbLine
 10
240.3349297604516
 20
137.1232263699009
 30
0.0
 11
229.3349297604516
 21
137.1232263699009
 31
0.0
1001
GENIUS_GENODEF_13
1002
{
1000
HIER
1070
     0
1002
}
1002
{
1000
MANEDIT
1070
     0
1002
}
1002
{
1000
NOSEL
1070
     0
1002
}
1002
{
1000
BEHIND
1070
     0
1002
}
1002
{
1000
REACTOR
1002
}
1001
GENIUS_GENOBJ-N-CEN_13
1002
{
1000
OWNER
1000
GEN
1002
}
  0
LINE
  5
39224
330
1F
100
AcDbEntity
  8
AM_0
 48
2.0
100
AcDbLine
 10
240.2349297604517
 20
153.9143759422113
 30
0.0
 11
240.2349297604517
 21
146.2208003116844
 31
0.0
1001
ACAD
1000
ASC_BOUNDS
1002
{
1070
    19
1002
}
  0
LINE
  5
39225
330
1F
100
AcDbEntity
  8
AM_0
 48
2.0
100
AcDbLine
 10
239.334929760432
 20
149.4363163100716
 30
0.0
 11
239.3349297610137
 21
155.5053294234798
 31
0.0
  0
ELLIPSE
  5
39226
330
1F
100
AcDbEntity
  8
AM_0
100
AcDbEllipse
 10
256.8349297604516
 20
141.087000942111
 30
0.0
 11
13.09999999999708
 21
0.0000000000000095
 31
0.0
210
0.0
220
0.0
230
1.0
 40
0.1594432644429158
 41
1.841257187538734
 42
7.58352077339172
  0
LINE
  5
39227
330
1F
100
AcDbEntity
  8
AM_0
 48
2.0
100
AcDbLine
 10
244.6349297608469
 20
143.923226369102
 30
0.0
 11
246.6349297608527
 21
143.9232263690944
 31
0.0
  0
ELLIPSE
  5
39229
330
1F
100
AcDbEntity
  8
AM_0
100
AcDbEllipse
 10
245.2349331368257
 20
154.0152940131407
 30
0.0
 11
2.000003375963046
 21
0.0000000000001667
 31
0.0
210
0.0
220
0.0
230
1.0
 40
0.0399398791797498
 41
3.141592653589476
 42
4.712388980384687
  0
ELLIPSE
  5
3922A
330
1F
100
AcDbEntity
  8
AM_0
100
AcDbEllipse
 10
256.8349297604516
 20
140.5933973953383
 30
0.0
 11
-13.60000000000006
 21
0.000000000000028
 31
0.0
210
0.0
220
0.0
230
1.0
 40
0.1594432644406218
 41
-0.1622217911042196
 42
3.303831864086642
  0
LINE
  5
3922B
330
1F
100
AcDbEntity
  8
AM_7
100
AcDbLine
 10
238.8349297604459
 20
188.5232263699002
 30
0.0
 11
238.8349297604459
 21
164.5232263699002
 31
0.0
  0
ARC
  5
3922C
330
1F
100
AcDbEntity
  8
AM_0
 48
2.0
100
AcDbCircle
 10
235.3349297604459
 20
166.5232263699003
 30
0.0
 40
3.0
100
AcDbArc
 50
180.0
 51
270.0
  0
CIRCLE
  5
3922D
330
1F
100
AcDbEntity
  8
AM_0
100
AcDbCircle
 10
234.8349297604516
 20
114.1232263699009
 30
0.0
 40
2.5
  0
ARC
  5
3922E
330
1F
100
AcDbEntity
  8
AM_0
100
AcDbCircle
 10
234.8349297604516
 20
113.9210723188308
 30
0.0
 40
6.0
100
AcDbArc
 50
180.0
 51
230.0000000000045
1001
GENIUS_GENOBJ-N-CEN_13
1002
{
1000
OWNER
1000
GEN
1002
}
1001
GENIUS_GENODEF_13
1002
{
1000
HIER
1070
     0
1002
}
1002
{
1000
MANEDIT
1070
     0
1002
}
1002
{
1000
NOSEL
1070
     0
1002
}
1002
{
1000
BEHIND
1070
     0
1002
}
1002
{
1000
REACTOR
1002
}
1001
GENIUS_GENOBJ-N-FIL_13
1002
{
1000
OWNER
1000
GEN
1002
}
  0
LINE
  5
3922F
330
1F
100
AcDbEntity
  8
AM_7
 48
0.5
100
AcDbLine
 10
240.3349297604516
 20
114.1232263699009
 30
0.0
 11
229.3349297604516
 21
114.1232263699009
 31
0.0
1001
GENIUS_GENODEF_13
1002
{
1000
HIER
1070
     0
1002
}
1002
{
1000
MANEDIT
1070
     0
1002
}
1002
{
1000
NOSEL
1070
     0
1002
}
1002
{
1000
BEHIND
1070
     0
1002
}
1002
{
1000
REACTOR
1002
}
1001
GENIUS_GENOBJ-N-CEN_13
1002
{
1000
OWNER
1000
GEN
1002
}
  0
LINE
  5
39230
330
1F
100
AcDbEntity
  8
AM_7
 48
0.5
100
AcDbLine
 10
234.8349297604525
 20
119.6232263699009
 30
0.0
 11
234.8349297604516
 21
108.6232263699009
 31
0.0
1001
GENIUS_GENODEF_13
1002
{
1000
HIER
1070
     0
1002
}
1002
{
1000
MANEDIT
1070
     0
1002
}
1002
{
1000
NOSEL
1070
     0
1002
}
1002
{
1000
BEHIND
1070
     0
1002
}
1002
{
1000
REACTOR
1002
}
1001
GENIUS_GENOBJ-N-CEN_13
1002
{
1000
OWNER
1000
GEN
1002
}
  0
LINE
  5
39231
330
1F
100
AcDbEntity
  8
AM_0
100
AcDbLine
 10
270.1849297604517
 20
91.09766457408857
 30
0.0
 11
270.8349297604518
 21
90.79953971229304
 31
0.0
  0
LINE
  5
39232
330
1F
100
AcDbEntity
  8
AM_0
100
AcDbLine
 10
270.1849297604517
 20
95.14878816571354
 30
0.0
 11
270.8349297604518
 21
95.44691302750914
 31
0.0
  0
LINE
  5
39233
330
1F
100
AcDbEntity
  8
AM_0
100
AcDbLine
 10
243.4849297604517
 20
91.09766457408847
 30
0.0
 11
242.8349297604516
 21
90.79953971229304
 31
0.0
  0
LINE
  5
39234
330
1F
100
AcDbEntity
  8
AM_0
100
AcDbLine
 10
243.4849297604519
 20
95.14878816571354
 30
0.0
 11
242.8349297604516
 21
95.44691302750914
 31
0.0
  0
LINE
  5
39235
330
1F
100
AcDbEntity
  8
AM_0
100
AcDbLine
 10
241.2349297604517
 20
100.7183909433026
 30
0.0
 11
230.9782041023325
 21
109.3248056601171
 31
0.0
  0
ELLIPSE
  5
39236
330
1F
100
AcDbEntity
  8
AM_0
100
AcDbEllipse
 10
256.8349297604516
 20
135.8548033466181
 30
0.0
 11
13.60000000000002
 21
0.0
 31
0.0
210
0.0
220
0.0
230
1.0
 40
0.1594432644406226
 41
3.141592653589792
 42
6.283185307179584
  0
LINE
  5
39237
330
1F
100
AcDbEntity
  8
AM_0
100
AcDbLine
 10
228.8349297604516
 20
113.9210723188308
 30
0.0
 11
228.8349297604516
 21
137.1232263699009
 31
0.0
1001
GENIUS_GENODEF_13
1002
{
1000
HIER
1070
     0
1002
}
1002
{
1000
MANEDIT
1070
     0
1002
}
1002
{
1000
NOSEL
1070
     0
1002
}
1002
{
1000
BEHIND
1070
     0
1002
}
1002
{
1000
REACTOR
1002
}
1001
GENIUS_GENOBJ-N-CEN_13
1002
{
1000
OWNER
1000
GEN
1002
}
  0
LINE
  5
39238
330
1F
100
AcDbEntity
  8
AM_7
 48
0.5
100
AcDbLine
 10
234.8349297604516
 20
142.6232263699009
 30
0.0
 11
234.8349297604516
 21
131.6232263699009
 31
0.0
1001
GENIUS_GENODEF_13
1002
{
1000
HIER
1070
     0
1002
}
1002
{
1000
MANEDIT
1070
     0
1002
}
1002
{
1000
NOSEL
1070
     0
1002
}
1002
{
1000
BEHIND
1070
     0
1002
}
1002
{
1000
REACTOR
1002
}
1001
GENIUS_GENOBJ-N-CEN_13
1002
{
1000
OWNER
1000
GEN
1002
}
  0
ELLIPSE
  5
39239
330
1F
100
AcDbEntity
  8
AM_0
100
AcDbEllipse
 10
256.8349297604516
 20
135.3611997999048
 30
0.0
 11
-13.09999999999716
 21
0.0000000000000444
 31
0.0
210
0.0
220
0.0
230
1.0
 40
0.1594432644429153
 41
0.1613033393296037
 42
2.980289472567243
  0
ELLIPSE
  5
3923A
330
1F
100
AcDbEntity
  8
AM_0
100
AcDbEllipse
 10
256.8349297604516
 20
135.361199799875
 30
0.0
 11
-13.35000000005943
 21
0.0000000000000156
 31
0.0
210
0.0
220
0.0
230
1.0
 40
0.1594432644391216
 41
-0.0344433112109184
 42
3.176035964800711
  0
LINE
  5
3923B
330
1F
100
AcDbEntity
  8
AM_0
 48
2.0
100
AcDbLine
 10
270.1849297604517
 20
58.87322636990063
 30
0.0
 11
270.8349297604518
 21
58.87322636990063
 31
0.0
  0
LINE
  5
3923C
330
1F
100
AcDbEntity
  8
AM_0
 48
2.0
100
AcDbLine
 10
270.1849297604517
 20
63.37322636990063
 30
0.0
 11
270.8349297604518
 21
63.37322636990063
 31
0.0
  0
ARC
  5
3923D
330
1F
100
AcDbEntity
  8
AM_0
 48
2.0
100
AcDbCircle
 10
265.0349297604516
 20
61.12322636990217
 30
0.0
 40
8.500000000010601
100
AcDbArc
 50
337.0303234276746
 51
22.96967657230088
  0
LINE
  5
3923E
330
1F
100
AcDbEntity
  8
AM_0
 48
2.0
100
AcDbLine
 10
272.4349297604517
 20
57.62322636990063
 30
0.0
 11
272.584764195733
 21
57.62322636990063
 31
0.0
  0
ARC
  5
3923F
330
1F
100
AcDbEntity
  8
AM_0
 48
2.0
100
AcDbCircle
 10
272.584764195733
 20
57.92322636990054
 30
0.0
 40
0.3
100
AcDbArc
 50
270.0
 51
337.0303234276921
1001
GENIUS_GENODEF_13
1002
{
1000
HIER
1070
     0
1002
}
1002
{
1000
MANEDIT
1070
     0
1002
}
1002
{
1000
NOSEL
1070
     0
1002
}
1002
{
1000
BEHIND
1070
     0
1002
}
1002
{
1000
REACTOR
1002
}
1001
GENIUS_GENOBJ-N-FIL_13
1002
{
1000
OWNER
1000
GEN
1002
}
  0
LINE
  5
39240
330
1F
100
AcDbEntity
  8
AM_0
 48
2.0
100
AcDbLine
 10
272.4349297604517
 20
64.62322636990063
 30
0.0
 11
272.5847641957344
 21
64.62322636990063
 31
0.0
  0
ARC
  5
39241
330
1F
100
AcDbEntity
  8
AM_0
 48
2.0
100
AcDbCircle
 10
272.5847641957344
 20
64.32322636990062
 30
0.0
 40
0.3
100
AcDbArc
 50
22.96967657228997
 51
90.0
1001
GENIUS_GENODEF_13
1002
{
1000
HIER
1070
     0
1002
}
1002
{
1000
MANEDIT
1070
     0
1002
}
1002
{
1000
NOSEL
1070
     0
1002
}
1002
{
1000
BEHIND
1070
     0
1002
}
1002
{
1000
REACTOR
1002
}
1001
GENIUS_GENOBJ-N-FIL_13
1002
{
1000
OWNER
1000
GEN
1002
}
  0
LINE
  5
39242
330
1F
100
AcDbEntity
  8
AM_0
100
AcDbLine
 10
269.0448675861064
 20
55.39786766630243
 30
0.0
 11
270.0093661364523
 21
56.33672467045511
 31
0.0
  0
LINE
  5
39243
330
1F
100
AcDbEntity
  8
AM_0
100
AcDbLine
 10
241.2349297604517
 20
64.62322636991785
 30
0.0
 11
241.2349297604517
 21
58.75890047196055
 31
0.0
  0
LINE
  5
39244
330
1F
100
AcDbEntity
  8
AM_0
 48
2.0
100
AcDbLine
 10
240.6349297604517
 20
64.62322636991785
 30
0.0
 11
240.6349297604517
 21
58.75890047196055
 31
0.0
1001
ACAD
1000
ASC_BOUNDS
1002
{
1070
    19
1002
}
  0
LINE
  5
39245
330
1F
100
AcDbEntity
  8
AM_0
 48
2.0
100
AcDbLine
 10
239.534929760452
 20
63.37322636990217
 30
0.0
 11
239.5349297604596
 21
58.87322636990063
 31
0.0
  0
LINE
  5
39246
330
1F
100
AcDbEntity
  8
AM_0
 48
2.0
100
AcDbLine
 10
240.534929760452
 20
58.87322636990063
 30
0.0
 11
240.5349297604522
 21
63.37322636990217
 31
0.0
  0
LINE
  5
39247
330
1F
100
AcDbEntity
  8
AM_0
 48
2.0
100
AcDbLine
 10
240.5349297604522
 20
62.62322636990063
 30
0.0
 11
240.6349297604517
 21
62.62322636990063
 31
0.0
  0
LINE
  5
39248
330
1F
100
AcDbEntity
  8
AM_0
 48
2.0
100
AcDbLine
 10
239.5349297604596
 20
58.87322636990063
 30
0.0
 11
240.534929760452
 21
58.87322636990063
 31
0.0
  0
LINE
  5
39249
330
1F
100
AcDbEntity
  8
AM_0
 48
2.0
100
AcDbLine
 10
240.534929760452
 20
59.62322636990063
 30
0.0
 11
240.6349297604517
 21
59.62322636990063
 31
0.0
  0
LINE
  5
3924A
330
1F
100
AcDbEntity
  8
AM_0
 48
2.0
100
AcDbLine
 10
240.534929760452
 20
63.37322636990217
 30
0.0
 11
239.534929760452
 21
63.37322636990217
 31
0.0
  0
LINE
  5
3924B
330
1F
100
AcDbEntity
  8
AM_0
 48
2.0
100
AcDbLine
 10
240.6349297604517
 20
58.75890047196055
 30
0.0
 11
241.2349297604517
 21
58.75890047196055
 31
0.0
  0
LINE
  5
3924C
330
1F
100
AcDbEntity
  8
AM_0
 48
2.0
100
AcDbLine
 10
242.8349297604516
 20
58.87322636990063
 30
0.0
 11
243.4849297604519
 21
58.87322636990063
 31
0.0
  0
LINE
  5
3924D
330
1F
100
AcDbEntity
  8
AM_0
 48
2.0
100
AcDbLine
 10
242.8349297604516
 20
63.37322636990063
 30
0.0
 11
243.4849297604519
 21
63.37322636990063
 31
0.0
  0
LINE
  5
3924E
330
1F
100
AcDbEntity
  8
AM_0
 48
2.0
100
AcDbLine
 10
240.6349297604517
 20
64.62322636991785
 30
0.0
 11
241.2349297604517
 21
64.62322636991785
 31
0.0
  0
LINE
  5
3924F
330
1F
100
AcDbEntity
  8
AM_0
100
AcDbLine
 10
244.624991934797
 20
55.39786766630243
 30
0.0
 11
243.660493384451
 21
56.33672467045511
 31
0.0
  0
LINE
  5
39250
330
1F
100
AcDbEntity
  8
AM_0
100
AcDbLine
 10
241.2349297604517
 20
53.12322636990086
 30
0.0
 11
272.4349297604517
 21
53.12322636990086
 31
0.0
  0
ELLIPSE
  5
39251
330
1F
100
AcDbEntity
  8
AM_0
100
AcDbEllipse
 10
256.8349297604516
 20
56.68079444918141
 30
0.0
 11
13.34999999999991
 21
0.0
 31
0.0
210
0.0
220
0.0
230
1.0
 40
0.1594432644430302
 41
3.141592653589792
 42
6.283185307179584
  0
ELLIPSE
  5
39252
330
1F
100
AcDbEntity
  8
AM_0
100
AcDbEllipse
 10
256.8349297604516
 20
55.69358735573053
 30
0.0
 11
-12.3500000002078
 21
0.0000000000000008
 31
0.0
210
0.0
220
0.0
230
1.0
 40
0.1594432644378898
 41
0.1507485884879549
 42
2.990844065101836
  0
LINE
  5
39253
330
1F
100
AcDbEntity
  8
AM_0
100
AcDbLine
 10
272.4349297604517
 20
146.2208003116844
 30
0.0
 11
272.4349297604517
 21
53.12322636990086
 31
0.0
  0
LINE
  5
39254
330
1F
100
AcDbEntity
  8
AM_0
100
AcDbLine
 10
270.8349297604518
 20
151.7117029948067
 30
0.0
 11
270.8349297604518
 21
53.12322636990086
 31
0.0
  0
LINE
  5
39255
330
1F
100
AcDbEntity
  8
AM_0
100
AcDbLine
 10
242.8349297604516
 20
153.1857241463178
 30
0.0
 11
242.8349297604516
 21
53.12322636990086
 31
0.0
  0
LINE
  5
39256
330
1F
100
AcDbEntity
  8
AM_0
100
AcDbLine
 10
241.2349297604517
 20
153.9143759422114
 30
0.0
 11
241.2349297604517
 21
53.12322636990086
 31
0.0
  0
LINE
  5
39257
330
1F
100
AcDbEntity
  8
AM_0
100
AcDbLine
 10
243.4849297604519
 20
56.68079444918141
 30
0.0
 11
243.4849297603922
 21
135.361199799875
 31
0.0
  0
LINE
  5
39258
330
1F
100
AcDbEntity
  8
AM_0
100
AcDbLine
 10
270.1849297604517
 20
56.68079444918141
 30
0.0
 11
270.1849297605112
 21
135.361199799875
 31
0.0
  0
ARC
  5
39259
330
1F
100
AcDbEntity
  8
AM_0
 48
2.0
100
AcDbCircle
 10
274.8349297604458
 20
180.5232263699004
 30
0.0
 40
2.5
100
AcDbArc
 50
180.0
 51
0.0
  0
LINE
  5
3925A
330
1F
100
AcDbEntity
  8
AM_0
100
AcDbLine
 10
272.4349297604517
 20
100.7183909433026
 30
0.0
 11
282.6916554185711
 21
109.3248056601171
 31
0.0
  0
LINE
  5
3925B
330
1F
100
AcDbEntity
  8
AM_7
 48
0.5
100
AcDbLine
 10
273.3349297604516
 20
114.1232263699009
 30
0.0
 11
284.3349297604516
 21
114.1232263699009
 31
0.0
1001
GENIUS_GENODEF_13
1002
{
1000
HIER
1070
     0
1002
}
1002
{
1000
MANEDIT
1070
     0
1002
}
1002
{
1000
NOSEL
1070
     0
1002
}
1002
{
1000
BEHIND
1070
     0
1002
}
1002
{
1000
REACTOR
1002
}
1001
GENIUS_GENOBJ-N-CEN_13
1002
{
1000
OWNER
1000
GEN
1002
}
  0
LINE
  5
3925C
330
1F
100
AcDbEntity
  8
AM_7
 48
0.5
100
AcDbLine
 10
273.3349297604516
 20
137.1232263699009
 30
0.0
 11
284.3349297604516
 21
137.1232263699009
 31
0.0
1001
GENIUS_GENODEF_13
1002
{
1000
HIER
1070
     0
1002
}
1002
{
1000
MANEDIT
1070
     0
1002
}
1002
{
1000
NOSEL
1070
     0
1002
}
1002
{
1000
BEHIND
1070
     0
1002
}
1002
{
1000
REACTOR
1002
}
1001
GENIUS_GENOBJ-N-CEN_13
1002
{
1000
OWNER
1000
GEN
1002
}
  0
LINE
  5
3925D
330
1F
100
AcDbEntity
  8
AM_0
100
AcDbLine
 10
272.4349297604517
 20
143.1232263699009
 30
0.0
 11
278.8349297604518
 21
143.1232263699009
 31
0.0
  0
LINE
  5
39260
330
1F
100
AcDbEntity
  8
AM_7
 48
0.5
100
AcDbLine
 10
269.3349297604457
 20
170.0232263699002
 30
0.0
 11
280.334929760446
 21
170.0232263699002
 31
0.0
  0
ARC
  5
39261
330
1F
100
AcDbEntity
  8
AM_0
 48
2.0
100
AcDbCircle
 10
272.4856441919858
 20
149.4708003116844
 30
0.0
 40
1.749285568466149
100
AcDbArc
 50
299.0455144225887
 51
359.9999999999512
  0
ARC
  5
39262
330
1F
100
AcDbEntity
  8
AM_0
 48
2.0
100
AcDbCircle
 10
272.4856441920002
 20
155.4708003116844
 30
0.0
 40
1.749285568452563
100
AcDbArc
 50
359.9999999999512
 51
60.95448557770862
  0
CIRCLE
  5
39263
330
1F
100
AcDbEntity
  8
AM_0
 48
2.0
100
AcDbCircle
 10
274.8349297604458
 20
170.0232263699002
 30
0.0
 40
2.5
  0
LINE
  5
39264
330
1F
100
AcDbEntity
  8
AM_0
 48
2.0
100
AcDbLine
 10
272.434929760929
 20
163.5232263699003
 30
0.0
 11
278.3349297604458
 21
163.5232263699003
 31
0.0
  0
LINE
  5
39265
330
1F
100
AcDbEntity
  8
AM_7
 48
0.5
100
AcDbLine
 10
269.3349297604457
 20
180.5232263699002
 30
0.0
 11
280.334929760446
 21
180.5232263699004
 31
0.0
  0
LINE
  5
39266
330
1F
100
AcDbEntity
  8
AM_7
 48
0.5
100
AcDbLine
 10
269.3349297604457
 20
183.0232263699003
 30
0.0
 11
280.334929760446
 21
183.0232263699003
 31
0.0
  0
ARC
  5
39267
330
1F
100
AcDbEntity
  8
AM_0
 48
2.0
100
AcDbCircle
 10
274.8349297604458
 20
183.0232263699003
 30
0.0
 40
2.5
100
AcDbArc
 50
0.0
 51
179.9999999999967
  0
LINE
  5
39268
330
1F
100
AcDbEntity
  8
AM_0
 48
2.0
100
AcDbLine
 10
270.4349297608731
 20
189.5232263699002
 30
0.0
 11
278.3349297604458
 21
189.5232263699002
 31
0.0
  0
LINE
  5
3926A
330
1F
100
AcDbEntity
  8
AM_0
 48
2.0
100
AcDbLine
 10
266.7349297594689
 20
205.3528622635498
 30
0.0
 11
266.7349297613086
 21
173.9993356530744
 31
0.0
  0
LINE
  5
3926B
330
1F
100
AcDbEntity
  8
AM_0
 48
2.0
100
AcDbLine
 10
246.9349297604472
 20
205.3528622629689
 30
0.0
 11
246.9349297604472
 21
173.9993356530744
 31
0.0
  0
LINE
  5
3926C
330
1F
100
AcDbEntity
  8
AM_0
 48
2.0
100
AcDbLine
 10
268.4349297609005
 20
173.9993356530743
 30
0.0
 11
268.4349297607957
 21
216.7772680849759
 31
0.0
  0
LINE
  5
3926D
330
1F
100
AcDbEntity
  8
AM_0
 48
2.0
100
AcDbLine
 10
245.2349297608662
 20
216.777268084944
 30
0.0
 11
245.2349297608626
 21
173.9993356530743
 31
0.0
  0
LINE
  5
3926E
330
1F
100
AcDbEntity
  8
AM_0
 48
2.0
100
AcDbLine
 10
245.2349297608678
 20
181.9129506755905
 30
0.0
 11
245.2349297608678
 21
216.7772680849513
 31
0.0
  0
LINE
  5
3926F
330
1F
100
AcDbEntity
  8
AM_0
 48
2.0
100
AcDbLine
 10
268.4349297607976
 20
216.7772680849688
 30
0.0
 11
268.4349297608883
 21
181.9129506756152
 31
0.0
  0
LINE
  5
39270
330
1F
100
AcDbEntity
  8
AM_0
 48
2.0
100
AcDbLine
 10
247.8349297604459
 20
208.9363530357752
 30
0.0
 11
251.5781003845457
 21
190.2247209852402
 31
0.0
  0
LINE
  5
39271
330
1F
100
AcDbEntity
  8
AM_0
 48
2.0
100
AcDbLine
 10
265.8349297604458
 20
208.9363530357752
 30
0.0
 11
262.0917591363459
 21
190.22472098524
 31
0.0
  0
LINE
  5
39272
330
1F
100
AcDbEntity
  8
AM_0
 48
2.0
100
AcDbLine
 10
243.2349297608662
 20
216.7772680849441
 30
0.0
 11
243.2349297608606
 21
145.2438317437127
 31
0.0
  0
LINE
  5
39273
330
1F
100
AcDbEntity
  8
AM_0
 48
2.0
100
AcDbLine
 10
270.4349297694439
 20
216.7772680830875
 30
0.0
 11
270.434929759685
 21
145.2438317418564
 31
0.0
  0
ARC
  5
39274
330
1F
100
AcDbEntity
  8
AM_0
 48
2.0
100
AcDbCircle
 10
103.8226665582426
 20
158.3740856789851
 30
0.0
 40
0.5
100
AcDbArc
 50
54.14329809012574
 51
150.0000000001279
1001
GENIUS_GENODEF_13
1002
{
1000
HIER
1070
     0
1002
}
1002
{
1000
MANEDIT
1070
     0
1002
}
1002
{
1000
NOSEL
1070
     0
1002
}
1002
{
1000
BEHIND
1070
     0
1002
}
1002
{
1000
REACTOR
1002
}
1001
GENIUS_GENOBJ-N-FIL_13
1002
{
1000
OWNER
1000
GEN
1002
}
  0
LINE
  5
39275
330
1F
100
AcDbEntity
  8
AM_0
 48
2.0
100
AcDbLine
 10
102.9524423349551
 20
157.8668131102698
 30
0.0
 11
103.3896538563497
 21
158.624085678984
 31
0.0
  0
LINE
  5
39276
330
1F
100
AcDbEntity
  8
AM_0
 48
2.0
100
AcDbLine
 10
105.8268653777447
 20
154.4027114951408
 30
0.0
 11
104.9524423349553
 21
154.4027114951408
 31
0.0
  0
ARC
  5
39277
330
1F
100
AcDbEntity
  8
AM_0
 48
2.0
100
AcDbCircle
 10
105.8268653777447
 20
154.9027114951407
 30
0.0
 40
0.5
100
AcDbArc
 50
270.0
 51
5.856701909920216
1001
GENIUS_GENODEF_13
1002
{
1000
HIER
1070
     0
1002
}
1002
{
1000
MANEDIT
1070
     0
1002
}
1002
{
1000
NOSEL
1070
     0
1002
}
1002
{
1000
BEHIND
1070
     0
1002
}
1002
{
1000
REACTOR
1002
}
1001
GENIUS_GENOBJ-N-FIL_13
1002
{
1000
OWNER
1000
GEN
1002
}
  0
ARC
  5
39278
330
1F
100
AcDbEntity
  8
AM_0
 48
2.0
100
AcDbCircle
 10
100.9524423349621
 20
154.4027114951408
 30
0.0
 40
5.400000000000001
100
AcDbArc
 50
5.856701909916934
 51
54.14329809012574
  0
LINE
  5
39279
330
1F
100
AcDbEntity
  8
AM_0
 48
2.0
100
AcDbLine
 10
103.780869459709
 20
151.5742843703941
 30
0.0
 11
105.5350180299181
 21
149.820135800185
 31
0.0
  0
ARC
  5
3927A
330
1F
100
AcDbEntity
  8
AM_0
 48
2.0
100
AcDbCircle
 10
105.8885714205114
 20
150.1736891907781
 30
0.0
 40
0.5
100
AcDbArc
 50
225.0000000000003
 51
319.4117257857701
1001
GENIUS_GENODEF_13
1002
{
1000
HIER
1070
     0
1002
}
1002
{
1000
MANEDIT
1070
     0
1002
}
1002
{
1000
NOSEL
1070
     0
1002
}
1002
{
1000
BEHIND
1070
     0
1002
}
1002
{
1000
REACTOR
1002
}
1001
GENIUS_GENOBJ-N-FIL_13
1002
{
1000
OWNER
1000
GEN
1002
}
  0
LINE
  5
3927B
330
1F
100
AcDbEntity
  8
AM_0
 48
2.0
100
AcDbLine
 10
96.07801929217954
 20
154.4027114951408
 30
0.0
 11
96.95244233495532
 21
154.4027114951408
 31
0.0
  0
ARC
  5
3927C
330
1F
100
AcDbEntity
  8
AM_0
 48
2.0
100
AcDbCircle
 10
100.9524423349621
 20
154.4027114951408
 30
0.0
 40
5.400000000000001
100
AcDbArc
 50
125.8567019101632
 51
174.1432980900798
  0
ARC
  5
3927D
330
1F
100
AcDbEntity
  8
AM_0
 48
2.0
100
AcDbCircle
 10
96.07801929217954
 20
154.9027114951407
 30
0.0
 40
0.5
100
AcDbArc
 50
174.1432980900798
 51
270.0
1001
GENIUS_GENODEF_13
1002
{
1000
HIER
1070
     0
1002
}
1002
{
1000
MANEDIT
1070
     0
1002
}
1002
{
1000
NOSEL
1070
     0
1002
}
1002
{
1000
BEHIND
1070
     0
1002
}
1002
{
1000
REACTOR
1002
}
1001
GENIUS_GENOBJ-N-FIL_13
1002
{
1000
OWNER
1000
GEN
1002
}
  0
LINE
  5
3927E
330
1F
100
AcDbEntity
  8
AM_0
 48
2.0
100
AcDbLine
 10
98.95244233494771
 20
157.8668131102698
 30
0.0
 11
98.51523081355299
 21
158.6240856789724
 31
0.0
  0
ARC
  5
3927F
330
1F
100
AcDbEntity
  8
AM_0
 48
2.0
100
AcDbCircle
 10
98.08221811166209
 20
158.3740856789705
 30
0.0
 40
0.5
100
AcDbArc
 50
30.00000000024844
 51
125.8567019101632
1001
GENIUS_GENODEF_13
1002
{
1000
HIER
1070
     0
1002
}
1002
{
1000
MANEDIT
1070
     0
1002
}
1002
{
1000
NOSEL
1070
     0
1002
}
1002
{
1000
BEHIND
1070
     0
1002
}
1002
{
1000
REACTOR
1002
}
1001
GENIUS_GENOBJ-N-FIL_13
1002
{
1000
OWNER
1000
GEN
1002
}
  0
LINE
  5
39280
330
1F
100
AcDbEntity
  8
AM_0
 48
2.0
100
AcDbLine
 10
98.12401521020843
 20
151.5742843703941
 30
0.0
 11
96.36986664000051
 21
149.8201358001908
 31
0.0
  0
ARC
  5
39281
330
1F
100
AcDbEntity
  8
AM_0
 48
2.0
100
AcDbCircle
 10
96.01631324940763
 20
150.1736891907845
 30
0.0
 40
0.5
100
AcDbArc
 50
220.5882742141607
 51
314.999999999926
1001
GENIUS_GENODEF_13
1002
{
1000
HIER
1070
     0
1002
}
1002
{
1000
MANEDIT
1070
     0
1002
}
1002
{
1000
NOSEL
1070
     0
1002
}
1002
{
1000
BEHIND
1070
     0
1002
}
1002
{
1000
REACTOR
1002
}
1001
GENIUS_GENOBJ-N-FIL_13
1002
{
1000
OWNER
1000
GEN
1002
}
  0
ARC
  5
39282
330
1F
100
AcDbEntity
  8
AM_0
 48
2.0
100
AcDbCircle
 10
100.9524423349621
 20
154.4027114951408
 30
0.0
 40
7.0
100
AcDbArc
 50
319.4117257857701
 51
220.5882742141607
  0
CIRCLE
  5
39283
330
1F
100
AcDbEntity
  8
AM_0
 48
2.0
100
AcDbCircle
 10
100.9524423349553
 20
154.4027114951408
 30
0.0
 40
4.0
  0
LINE
  5
39284
330
1F
100
AcDbEntity
  8
AM_0
100
AcDbLine
 10
84.53076361261503
 20
138.023231743009
 30
0.0
 11
84.88036587407249
 21
137.9667676776772
 31
0.0
  0
LINE
  5
39285
330
1F
100
AcDbEntity
  8
AM_0
 48
2.0
100
AcDbLine
 10
112.1481242246866
 20
138.4249689989471
 30
0.0
 11
111.3827965553715
 21
133.6863749502254
 31
0.0
  0
LINE
  5
39286
330
1F
100
AcDbEntity
  8
AM_0
 48
2.0
100
AcDbLine
 10
112.1481242246866
 20
138.4249689989471
 30
0.0
 11
111.3827965553715
 21
133.6863749502254
 31
0.0
  0
LINE
  5
39287
330
1F
100
AcDbEntity
  8
AM_0
 48
2.0
100
AcDbLine
 10
106.4757355886305
 20
144.6979069308506
 30
0.0
 11
106.9991829637445
 21
147.9388777149802
 31
0.0
  0
LINE
  5
39288
330
1F
100
AcDbEntity
  8
AM_0
 48
2.0
100
AcDbLine
 10
106.4757355886281
 20
144.6979069308437
 30
0.0
 11
98.432591633549
 21
145.9969506036785
 31
0.0
  0
LINE
  5
39289
330
1F
100
AcDbEntity
  8
AM_0
 48
2.0
100
AcDbLine
 10
111.7342423101648
 20
138.9982941779093
 30
0.0
 11
93.88692496584098
 21
141.8808044006065
 31
0.0
  0
LINE
  5
3928A
330
1F
100
AcDbEntity
  8
AM_0
 48
2.0
100
AcDbLine
 10
111.0562731497803
 20
133.232632219593
 30
0.0
 11
93.88692496584098
 21
136.0056440231287
 31
0.0
  0
LINE
  5
3928B
330
1F
100
AcDbEntity
  8
AM_0
100
AcDbLine
 10
84.53076361261503
 20
138.023231743009
 30
0.0
 11
84.73345301550864
 21
139.2782011329842
 31
0.0
  0
LINE
  5
3928C
330
1F
100
AcDbEntity
  8
AM_0
100
AcDbLine
 10
84.88692496584098
 20
137.529863310098
 30
0.0
 11
84.53076361261503
 21
138.023231743009
 31
0.0
1001
GENIUS_GENODEF_13
1002
{
1000
HIER
1070
     0
1002
}
1002
{
1000
MANEDIT
1070
     0
1002
}
1002
{
1000
NOSEL
1070
     0
1002
}
1002
{
1000
BEHIND
1070
     0
1002
}
1002
{
1000
REACTOR
1002
}
1001
GENIUS_GENOBJ-N-CHA_13
1002
{
1000
OWNER
1000
GEN
1002
}
1001
GENIUS_GENFIL_13
1070
     0
1040
0.5
1040
0.5
1040
0.0
1040
0.0
1002
{
1002
}
  0
LINE
  5
3928D
330
1F
100
AcDbEntity
  8
AM_0
100
AcDbLine
 10
84.88692496584098
 20
137.529863310098
 30
0.0
 11
84.53076361261503
 21
138.023231743009
 31
0.0
1001
GENIUS_GENODEF_13
1002
{
1000
HIER
1070
     0
1002
}
1002
{
1000
MANEDIT
1070
     0
1002
}
1002
{
1000
NOSEL
1070
     0
1002
}
1002
{
1000
BEHIND
1070
     0
1002
}
1002
{
1000
REACTOR
1002
}
1001
GENIUS_GENOBJ-N-CHA_13
1002
{
1000
OWNER
1000
GEN
1002
}
1001
GENIUS_GENFIL_13
1070
     0
1040
0.5
1040
0.5
1040
0.0
1040
0.0
1002
{
1002
}
  0
LINE
  5
3928E
330
1F
100
AcDbEntity
  8
AM_0
 48
2.0
100
AcDbLine
 10
106.4757355886305
 20
144.6979069308506
 30
0.0
 11
105.9024104096684
 21
144.2840250163289
 31
0.0
1001
GENIUS_GENODEF_13
1002
{
1000
HIER
1070
     0
1002
}
1002
{
1000
MANEDIT
1070
     0
1002
}
1002
{
1000
NOSEL
1070
     0
1002
}
1002
{
1000
BEHIND
1070
     0
1002
}
1002
{
1000
REACTOR
1002
}
1001
GENIUS_GENOBJ-N-CHA_13
1002
{
1000
OWNER
1000
GEN
1002
}
1001
GENIUS_GENFIL_13
1070
     0
1040
0.5
1040
0.5
1040
0.0
1040
0.0
1002
{
1002
}
  0
LINE
  5
3928F
330
1F
100
AcDbEntity
  8
AM_0
 48
2.0
100
AcDbLine
 10
111.3827965553715
 20
133.6863749502254
 30
0.0
 11
110.8094713764093
 21
133.2724930357039
 31
0.0
1001
GENIUS_GENODEF_13
1002
{
1000
HIER
1070
     0
1002
}
1002
{
1000
MANEDIT
1070
     0
1002
}
1002
{
1000
NOSEL
1070
     0
1002
}
1002
{
1000
BEHIND
1070
     0
1002
}
1002
{
1000
REACTOR
1002
}
1001
GENIUS_GENOBJ-N-CHA_13
1002
{
1000
OWNER
1000
GEN
1002
}
1001
GENIUS_GENFIL_13
1070
     0
1040
0.5
1040
0.5
1040
0.0
1040
0.0
1002
{
1002
}
  0
LINE
  5
39290
330
1F
100
AcDbEntity
  8
AM_0
 48
2.0
100
AcDbLine
 10
111.7342423101648
 20
138.9982941779093
 30
0.0
 11
112.1481242246866
 21
138.4249689989471
 31
0.0
1001
GENIUS_GENODEF_13
1002
{
1000
HIER
1070
     0
1002
}
1002
{
1000
MANEDIT
1070
     0
1002
}
1002
{
1000
NOSEL
1070
     0
1002
}
1002
{
1000
BEHIND
1070
     0
1002
}
1002
{
1000
REACTOR
1002
}
1001
GENIUS_GENOBJ-N-CHA_13
1002
{
1000
OWNER
1000
GEN
1002
}
1001
GENIUS_GENFIL_13
1070
     0
1040
0.5
1040
0.5
1040
0.0
1040
0.0
1002
{
1002
}
  0
LINE
  5
39291
330
1F
100
AcDbEntity
  8
AM_0
 48
2.0
100
AcDbLine
 10
111.3827965553715
 20
133.6863749502254
 30
0.0
 11
110.8094713764095
 21
133.2724930357038
 31
0.0
1001
GENIUS_GENODEF_13
1002
{
1000
HIER
1070
     0
1002
}
1002
{
1000
MANEDIT
1070
     0
1002
}
1002
{
1000
NOSEL
1070
     0
1002
}
1002
{
1000
BEHIND
1070
     0
1002
}
1002
{
1000
REACTOR
1002
}
1001
GENIUS_GENOBJ-N-CHA_13
1002
{
1000
OWNER
1000
GEN
1002
}
1001
GENIUS_GENFIL_13
1070
     0
1040
0.5
1040
0.5
1040
0.0
1040
0.0
1002
{
1002
}
  0
LINE
  5
39292
330
1F
100
AcDbEntity
  8
AM_0
 48
2.0
100
AcDbLine
 10
111.7342423101648
 20
138.9982941779093
 30
0.0
 11
112.1481242246866
 21
138.4249689989471
 31
0.0
1001
GENIUS_GENODEF_13
1002
{
1000
HIER
1070
     0
1002
}
1002
{
1000
MANEDIT
1070
     0
1002
}
1002
{
1000
NOSEL
1070
     0
1002
}
1002
{
1000
BEHIND
1070
     0
1002
}
1002
{
1000
REACTOR
1002
}
1001
GENIUS_GENOBJ-N-CHA_13
1002
{
1000
OWNER
1000
GEN
1002
}
1001
GENIUS_GENFIL_13
1070
     0
1040
0.5
1040
0.5
1040
0.0
1040
0.0
1002
{
1002
}
  0
LINE
  5
39293
330
1F
100
AcDbEntity
  8
AM_0
 48
2.0
100
AcDbLine
 10
97.20199461594052
 20
53.72446303988943
 30
0.0
 11
98.3486449738648
 21
54.55222686893262
 31
0.0
1001
GENIUS_GENODEF_13
1002
{
1000
HIER
1070
     0
1002
}
1002
{
1000
MANEDIT
1070
     0
1002
}
1002
{
1000
NOSEL
1070
     0
1002
}
1002
{
1000
BEHIND
1070
     0
1002
}
1002
{
1000
REACTOR
1002
}
1001
GENIUS_GENOBJ-N-CHA_13
1002
{
1000
OWNER
1000
GEN
1002
}
1001
GENIUS_GENFIL_13
1070
     0
1040
1.0
1040
1.0
1040
0.0
1040
0.0
1002
{
1002
}
  0
LINE
  5
39294
330
1F
100
AcDbEntity
  8
AM_0
 48
2.0
100
AcDbLine
 10
102.9407891292156
 20
144.7623548096492
 30
0.0
 11
102.2570542127307
 21
140.5289495165373
 31
0.0
  0
LINE
  5
39295
330
1F
100
AcDbEntity
  8
AM_0
 48
2.0
100
AcDbLine
 10
98.3486449738648
 20
54.55222686893262
 30
0.0
 11
111.0562731497787
 21
133.2326322195834
 31
0.0
  0
ARC
  5
39296
330
1F
100
AcDbEntity
  8
AM_0
 48
2.0
100
AcDbCircle
 10
105.8869249658102
 20
210.2501902311221
 30
0.0
 40
7.0
100
AcDbArc
 50
357.7110007823724
 51
177.7110007823724
  0
ARC
  5
39297
330
1F
100
AcDbEntity
  8
AM_0
 48
2.0
100
AcDbCircle
 10
105.8869249658105
 20
210.2501902311256
 30
0.0
 40
11.38083151965943
100
AcDbArc
 50
305.6679562186071
 51
229.7540453461399
  0
LINE
  5
39298
330
1F
100
AcDbEntity
  8
AM_0
 48
2.0
100
AcDbLine
 10
87.986924965841
 20
215.0232263699003
 30
0.0
 11
87.986924965841
 21
207.032862262969
 31
0.0
  0
CIRCLE
  5
39299
330
1F
100
AcDbEntity
  8
AM_0
 48
2.0
100
AcDbCircle
 10
105.8869249658415
 20
210.2501902311262
 30
0.0
 40
4.299999999999998
  0
ARC
  5
3929A
330
1F
100
AcDbEntity
  8
AM_0
 48
2.0
100
AcDbCircle
 10
83.77774103825322
 20
198.3163334682442
 30
0.0
 40
2.9
100
AcDbArc
 50
82.10215653591712
 51
129.9999999999955
  0
ARC
  5
3929B
330
1F
100
AcDbEntity
  8
AM_0
 48
2.0
100
AcDbCircle
 10
84.98692496584101
 20
207.032862262969
 30
0.0
 40
5.899999999999987
100
AcDbArc
 50
262.1021565359171
 51
0.0
  0
ARC
  5
3929C
330
1F
100
AcDbEntity
  8
AM_0
 48
2.0
100
AcDbCircle
 10
84.98692496584101
 20
207.032862262969
 30
0.0
 40
3.000000000000006
100
AcDbArc
 50
309.9999999999955
 51
0.0
  0
ARC
  5
3929D
330
1F
100
AcDbEntity
  8
AM_0
 48
2.0
100
AcDbCircle
 10
105.8869249658102
 20
210.2501902311232
 30
0.0
 40
15.0000000000154
100
AcDbArc
 50
295.5291400669964
 51
239.892861497753
  0
ARC
  5
3929E
330
1F
100
AcDbEntity
  8
AM_0
 48
2.0
100
AcDbCircle
 10
105.886924965841
 20
215.0232263699003
 30
0.0
 40
18.5
100
AcDbArc
 50
0.0
 51
194.6321519441928
  0
ARC
  5
3929F
330
1F
100
AcDbEntity
  8
AM_0
 48
2.0
100
AcDbCircle
 10
105.886924965841
 20
215.0232263699003
 30
0.0
 40
15.0
100
AcDbArc
 50
0.0
 51
180.0
  0
ARC
  5
392A0
330
1F
100
AcDbEntity
  8
AM_0
 48
2.0
100
AcDbCircle
 10
105.886924965841
 20
215.0232263699003
 30
0.0
 40
17.9
100
AcDbArc
 50
0.0
 51
180.0
  0
LINE
  5
392A1
330
1F
100
AcDbEntity
  8
AM_0
 48
2.0
100
AcDbLine
 10
120.886924965841
 20
188.5232263699002
 30
0.0
 11
124.386924965841
 21
188.5232263699002
 31
0.0
  0
ARC
  5
392A2
330
1F
100
AcDbEntity
  8
AM_0
 48
2.0
100
AcDbCircle
 10
94.7898477326421
 20
183.0037172594495
 30
0.0
 40
3.0
100
AcDbArc
 50
297.7110007823928
 51
357.7110007823724
1001
GENIUS_GENODEF_13
1002
{
1000
HIER
1070
     0
1002
}
1002
{
1000
MANEDIT
1070
     0
1002
}
1002
{
1000
NOSEL
1070
     0
1002
}
1002
{
1000
BEHIND
1070
     0
1002
}
1002
{
1000
REACTOR
1002
}
1001
GENIUS_GENOBJ-N-FIL_13
1002
{
1000
OWNER
1000
GEN
1002
}
  0
LINE
  5
392A3
330
1F
100
AcDbEntity
  8
AM_0
 48
2.0
100
AcDbLine
 10
111.943102503277
 20
173.9793656797743
 30
0.0
 11
113.4419056262711
 21
173.9194557598796
 31
0.0
  0
ARC
  5
392A4
330
1F
100
AcDbEntity
  8
AM_0
 48
2.0
100
AcDbCircle
 10
111.9630724765757
 20
174.4789667207726
 30
0.0
 40
0.5
100
AcDbArc
 50
177.7110007823724
 51
267.7110007824213
1001
GENIUS_GENODEF_13
1002
{
1000
HIER
1070
     0
1002
}
1002
{
1000
MANEDIT
1070
     0
1002
}
1002
{
1000
NOSEL
1070
     0
1002
}
1002
{
1000
BEHIND
1070
     0
1002
}
1002
{
1000
REACTOR
1002
}
1001
GENIUS_GENOBJ-N-FIL_13
1002
{
1000
OWNER
1000
GEN
1002
}
  0
ARC
  5
392A5
330
1F
100
AcDbEntity
  8
AM_0
 48
2.0
100
AcDbCircle
 10
99.88692496584077
 20
180.4347691017803
 30
0.0
 40
9.0
100
AcDbArc
 50
180.0
 51
197.8939786089924
  0
ARC
  5
392A6
330
1F
100
AcDbEntity
  8
AM_0
 48
2.0
100
AcDbCircle
 10
93.95588627731241
 20
174.6587881630228
 30
0.0
 40
4.0
100
AcDbArc
 50
117.7110007823927
 51
177.7110007823724
1001
GENIUS_GENODEF_13
1002
{
1000
HIER
1070
     0
1002
}
1002
{
1000
MANEDIT
1070
     0
1002
}
1002
{
1000
NOSEL
1070
     0
1002
}
1002
{
1000
BEHIND
1070
     0
1002
}
1002
{
1000
REACTOR
1002
}
1001
GENIUS_GENOBJ-N-FIL_13
1002
{
1000
OWNER
1000
GEN
1002
}
  0
LINE
  5
392A7
330
1F
100
AcDbEntity
  8
AM_0
 48
2.0
100
AcDbLine
 10
89.95907794932703
 20
174.8185479494124
 30
0.0
 11
89.61679079621104
 21
166.2553408054035
 31
0.0
  0
LINE
  5
392A8
330
1F
100
AcDbEntity
  8
AM_0
 48
2.0
100
AcDbLine
 10
96.1848838305001
 20
180.3478041799845
 30
0.0
 11
92.09583814683492
 21
178.2000056023094
 31
0.0
  0
LINE
  5
392AA
330
1F
100
AcDbEntity
  8
AM_0
 48
2.0
100
AcDbLine
 10
65.88692496584099
 20
189.5232263699002
 30
0.0
 11
68.78692496584085
 21
189.5232263699002
 31
0.0
  0
ARC
  5
392AC
330
1F
100
AcDbEntity
  8
AM_0
 48
2.0
100
AcDbCircle
 10
86.24780319323951
 20
174.258420982545
 30
0.0
 40
3.0
100
AcDbArc
 50
30.00000000000337
 51
129.9999999999955
  0
ARC
  5
392AD
330
1F
100
AcDbEntity
  8
AM_0
 48
2.0
100
AcDbCircle
 10
88.53061760293575
 20
176.3044704407004
 30
0.0
 40
2.9
100
AcDbArc
 50
30.00000000000337
 51
129.9999999999955
  0
LINE
  5
392AE
330
1F
100
AcDbEntity
  8
AM_0
 48
2.0
100
AcDbLine
 10
112.6431066943233
 20
153.9354141199456
 30
0.0
 11
111.1039111646719
 21
153.9969385986922
 31
0.0
  0
ARC
  5
392AF
330
1F
100
AcDbEntity
  8
AM_0
 48
2.0
100
AcDbCircle
 10
111.0839411913732
 20
153.497337557694
 30
0.0
 40
0.5
100
AcDbArc
 50
87.71100078237569
 51
172.1208485197174
1001
GENIUS_GENODEF_13
1002
{
1000
HIER
1070
     0
1002
}
1002
{
1000
MANEDIT
1070
     0
1002
}
1002
{
1000
NOSEL
1070
     0
1002
}
1002
{
1000
BEHIND
1070
     0
1002
}
1002
{
1000
REACTOR
1002
}
1001
GENIUS_GENOBJ-N-FIL_13
1002
{
1000
OWNER
1000
GEN
1002
}
  0
ARC
  5
392B0
330
1F
100
AcDbEntity
  8
AM_0
 48
2.0
100
AcDbCircle
 10
102.6641862034822
 20
154.6625525352341
 30
0.0
 40
8.0
100
AcDbArc
 50
277.9186359868504
 51
352.1208485197142
1001
GENIUS_GENODEF_13
1002
{
1000
HIER
1070
     0
1002
}
1002
{
1000
MANEDIT
1070
     0
1002
}
1002
{
1000
NOSEL
1070
     0
1002
}
1002
{
1000
BEHIND
1070
     0
1002
}
1002
{
1000
REACTOR
1002
}
1001
GENIUS_GENOBJ-N-FIL_13
1002
{
1000
OWNER
1000
GEN
1002
}
  0
LINE
  5
392B1
330
1F
100
AcDbEntity
  8
AM_0
 48
2.0
100
AcDbLine
 10
86.60176699844271
 20
162.9285041484626
 30
0.0
 11
81.6194712227516
 21
162.2355016625558
 31
0.0
  0
CIRCLE
  5
392B2
330
1F
100
AcDbEntity
  8
AM_0
 48
2.0
100
AcDbCircle
 10
82.88692496584099
 20
153.1232263699009
 30
0.0
 40
2.0
  0
ARC
  5
392B3
330
1F
100
AcDbEntity
  8
AM_0
100
AcDbCircle
 10
85.886924965841
 20
153.1232263699009
 30
0.0
 40
8.0
100
AcDbArc
 50
0.0
 51
90.0
1001
GENIUS_GENODEF_13
1002
{
1000
HIER
1070
     0
1002
}
1002
{
1000
MANEDIT
1070
     0
1002
}
1002
{
1000
NOSEL
1070
     0
1002
}
1002
{
1000
BEHIND
1070
     0
1002
}
1002
{
1000
REACTOR
1002
}
1001
GENIUS_GENOBJ-N-FIL_13
1002
{
1000
OWNER
1000
GEN
1002
}
  0
ARC
  5
392B4
330
1F
100
AcDbEntity
  8
AM_0
100
AcDbCircle
 10
75.88692496584099
 20
137.6232263699009
 30
0.0
 40
9.0
100
AcDbArc
 50
0.0
 51
90.0
1001
GENIUS_GENODEF_13
1002
{
1000
HIER
1070
     0
1002
}
1002
{
1000
MANEDIT
1070
     0
1002
}
1002
{
1000
NOSEL
1070
     0
1002
}
1002
{
1000
BEHIND
1070
     0
1002
}
1002
{
1000
REACTOR
1002
}
1001
GENIUS_GENOBJ-N-FIL_13
1002
{
1000
OWNER
1000
GEN
1002
}
  0
LINE
  5
392B5
330
1F
100
AcDbEntity
  8
AM_0
 48
2.0
100
AcDbLine
 10
103.766319893125
 20
146.7388348894472
 30
0.0
 11
93.88692496584098
 21
145.364680172004
 31
0.0
  0
CIRCLE
  5
392B6
330
1F
100
AcDbEntity
  8
AM_0
 48
2.0
100
AcDbCircle
 10
82.88692496584179
 20
153.1232263699009
 30
0.0
 40
4.150000000000001
  0
CIRCLE
  5
392B7
330
1F
100
AcDbEntity
  8
AM_0
 48
2.0
100
AcDbCircle
 10
82.88692496584099
 20
153.1232263699009
 30
0.0
 40
6.5
  0
LINE
  5
392B9
330
1F
100
AcDbEntity
  8
AM_0
100
AcDbLine
 10
67.48692496584101
 20
159.1232263699003
 30
0.0
 11
67.48692496584101
 21
158.1232263699003
 31
0.0
  0
LINE
  5
392BA
330
1F
100
AcDbEntity
  8
AM_0
100
AcDbLine
 10
69.88692496584099
 20
158.1232263699003
 30
0.0
 11
65.88692496584099
 21
158.1232263699003
 31
0.0
  0
LINE
  5
392BB
330
1F
100
AcDbEntity
  8
AM_0
100
AcDbLine
 10
60.88692496584099
 20
161.1232263699009
 30
0.0
 11
60.88692496584099
 21
159.5232263699002
 31
0.0
  0
LINE
  5
392BC
330
1F
100
AcDbEntity
  8
AM_0
100
AcDbLine
 10
60.88692496584099
 20
159.5232263699002
 30
0.0
 11
65.4869249658409
 21
159.5232263699002
 31
0.0
  0
LINE
  5
392BD
330
1F
100
AcDbEntity
  8
AM_0
100
AcDbLine
 10
65.48692496584101
 20
161.1232263699002
 30
0.0
 11
60.88692496584099
 21
161.1232263699002
 31
0.0
  0
ARC
  5
392BE
330
1F
100
AcDbEntity
  8
AM_0
100
AcDbCircle
 10
65.48692496584101
 20
159.1232263699003
 30
0.0
 40
2.0
100
AcDbArc
 50
0.0
 51
90.0
1001
GENIUS_GENODEF_13
1002
{
1000
HIER
1070
     0
1002
}
1002
{
1000
MANEDIT
1070
     0
1002
}
1002
{
1000
NOSEL
1070
     0
1002
}
1002
{
1000
BEHIND
1070
     0
1002
}
1002
{
1000
REACTOR
1002
}
1001
GENIUS_GENOBJ-N-FIL_13
1002
{
1000
OWNER
1000
GEN
1002
}
  0
ARC
  5
392BF
330
1F
100
AcDbEntity
  8
AM_0
100
AcDbCircle
 10
65.4869249658409
 20
159.1232263699003
 30
0.0
 40
0.4
100
AcDbArc
 50
0.0
 51
90.0
1001
GENIUS_GENODEF_13
1002
{
1000
HIER
1070
     0
1002
}
1002
{
1000
MANEDIT
1070
     0
1002
}
1002
{
1000
NOSEL
1070
     0
1002
}
1002
{
1000
BEHIND
1070
     0
1002
}
1002
{
1000
REACTOR
1002
}
1001
GENIUS_GENOBJ-N-FIL_13
1002
{
1000
OWNER
1000
GEN
1002
}
  0
LINE
  5
392C0
330
1F
100
AcDbEntity
  8
AM_0
100
AcDbLine
 10
65.88692496584099
 20
154.657880345859
 30
0.0
 11
69.6526103907903
 21
153.1232263699012
 31
0.0
  0
LINE
  5
392C1
330
1F
100
AcDbEntity
  8
AM_0
100
AcDbLine
 10
69.6526103907903
 20
153.1232263699012
 30
0.0
 11
65.88692496584099
 21
153.1232263699012
 31
0.0
  0
LINE
  5
392C2
330
1F
100
AcDbEntity
  8
AM_0
100
AcDbLine
 10
69.6526103907903
 20
153.1232263699012
 30
0.0
 11
65.88692496584099
 21
151.5885723939433
 31
0.0
  0
ARC
  5
392C3
330
1F
100
AcDbEntity
  8
AM_0
100
AcDbCircle
 10
69.88692496584099
 20
161.1232263699004
 30
0.0
 40
3.0
100
AcDbArc
 50
270.0
 51
359.9999999999968
1001
GENIUS_GENODEF_13
1002
{
1000
HIER
1070
     0
1002
}
1002
{
1000
MANEDIT
1070
     0
1002
}
1002
{
1000
NOSEL
1070
     0
1002
}
1002
{
1000
BEHIND
1070
     0
1002
}
1002
{
1000
REACTOR
1002
}
1001
GENIUS_GENOBJ-N-FIL_13
1002
{
1000
OWNER
1000
GEN
1002
}
  0
LINE
  5
392C4
330
1F
100
AcDbEntity
  8
AM_0
 48
2.0
100
AcDbLine
 10
68.78692496584085
 20
163.5232263699002
 30
0.0
 11
65.88692496584099
 21
163.5232263699002
 31
0.0
  0
LINE
  5
392C6
330
1F
100
AcDbEntity
  8
AM_0
100
AcDbLine
 10
65.88692496584099
 20
146.6232263699009
 30
0.0
 11
75.88692496584099
 21
146.6232263699009
 31
0.0
  0
LINE
  5
392C7
330
1F
100
AcDbEntity
  8
AM_0
100
AcDbLine
 10
72.88692496584099
 20
161.1232263699009
 30
0.0
 11
85.886924965841
 21
161.1232263699009
 31
0.0
  0
ARC
  5
392C9
330
1F
100
AcDbEntity
  8
AM_0
 48
2.0
100
AcDbCircle
 10
86.11958350922373
 20
166.3951306184943
 30
0.0
 40
3.5
100
AcDbArc
 50
277.9186359868504
 51
357.7110007823724
1001
GENIUS_GENODEF_13
1002
{
1000
HIER
1070
     0
1002
}
1002
{
1000
MANEDIT
1070
     0
1002
}
1002
{
1000
NOSEL
1070
     0
1002
}
1002
{
1000
BEHIND
1070
     0
1002
}
1002
{
1000
REACTOR
1002
}
1001
GENIUS_GENOBJ-N-FIL_13
1002
{
1000
OWNER
1000
GEN
1002
}
  0
LINE
  5
392CA
330
1F
100
AcDbEntity
  8
AM_0
 48
2.0
100
AcDbLine
 10
91.04209127391072
 20
177.7544704407006
 30
0.0
 11
91.17140640270065
 21
177.5304900674486
 31
0.0
  0
LINE
  5
392CB
330
1F
100
AcDbEntity
  8
AM_0
 48
2.0
100
AcDbLine
 10
88.84587940459255
 20
175.758420982545
 30
0.0
 11
89.92213380475005
 21
173.8942936796027
 31
0.0
  0
LINE
  5
392CC
330
1F
100
AcDbEntity
  8
AM_0
 48
2.0
100
AcDbLine
 10
68.78692496584085
 20
163.5232263699002
 30
0.0
 11
86.66653353484491
 21
178.5259993257456
 31
0.0
  0
LINE
  5
392CD
330
1F
100
AcDbEntity
  8
AM_0
 48
2.0
100
AcDbLine
 10
65.88692496584099
 20
163.5232263699002
 30
0.0
 11
65.88692496584099
 21
189.5232263699002
 31
0.0
  0
LINE
  5
392CE
330
1F
100
AcDbEntity
  8
AM_0
 48
2.0
100
AcDbLine
 10
68.78692496584085
 20
189.5232263699002
 30
0.0
 11
68.78692496584085
 21
163.5232263699002
 31
0.0
  0
LINE
  5
392CF
330
1F
100
AcDbEntity
  8
AM_0
 48
2.0
100
AcDbLine
 10
113.4419056262711
 20
173.9194557598796
 30
0.0
 11
112.6431066943233
 21
153.9354141199456
 31
0.0
  0
ARC
  5
392D0
330
1F
100
AcDbEntity
  8
AM_0
100
AcDbCircle
 10
76.88692496584099
 20
114.353687635141
 30
0.0
 40
8.0
100
AcDbArc
 50
310.0000000000043
 51
0.0
1001
GENIUS_GENODEF_13
1002
{
1000
HIER
1070
     0
1002
}
1002
{
1000
MANEDIT
1070
     0
1002
}
1002
{
1000
NOSEL
1070
     0
1002
}
1002
{
1000
BEHIND
1070
     0
1002
}
1002
{
1000
REACTOR
1002
}
1001
GENIUS_GENOBJ-N-FIL_13
1002
{
1000
OWNER
1000
GEN
1002
}
  0
LINE
  5
392D2
330
1F
100
AcDbEntity
  8
AM_0
100
AcDbLine
 10
69.6526103907903
 20
93.12322636990126
 30
0.0
 11
65.88692496584099
 21
93.12322636990126
 31
0.0
  0
LINE
  5
392D3
330
1F
100
AcDbEntity
  8
AM_0
100
AcDbLine
 10
69.6526103907903
 20
93.12322636990126
 30
0.0
 11
65.88692496584099
 21
91.58857239394331
 31
0.0
  0
LINE
  5
392D4
330
1F
100
AcDbEntity
  8
AM_0
100
AcDbLine
 10
65.88692496584099
 20
94.65788034585916
 30
0.0
 11
69.6526103907903
 21
93.12322636990126
 31
0.0
  0
ARC
  5
392D5
330
1F
100
AcDbEntity
  8
AM_0
100
AcDbCircle
 10
66.68692496584094
 20
96.39593891394031
 30
0.0
 40
0.8
100
AcDbArc
 50
180.0
 51
309.9999999999955
1001
GENIUS_GENODEF_13
1002
{
1000
HIER
1070
     0
1002
}
1002
{
1000
MANEDIT
1070
     0
1002
}
1002
{
1000
NOSEL
1070
     0
1002
}
1002
{
1000
BEHIND
1070
     0
1002
}
1002
{
1000
REACTOR
1002
}
1001
GENIUS_GENOBJ-N-FIL_13
1002
{
1000
OWNER
1000
GEN
1002
}
  0
LINE
  5
392D6
330
1F
100
AcDbEntity
  8
AM_0
100
AcDbLine
 10
82.02922584333327
 20
108.2253320901892
 30
0.0
 11
67.20115505359013
 21
95.78310335944513
 31
0.0
  0
LINE
  5
392D7
330
1F
100
AcDbEntity
  8
AM_0
100
AcDbLine
 10
67.48692496584101
 20
146.6232263699009
 30
0.0
 11
67.48692496584101
 21
96.02289278741631
 31
0.0
  0
LINE
  5
392D8
330
1F
100
AcDbEntity
  8
AM_0
100
AcDbLine
 10
84.88692496584098
 20
137.6232263699009
 30
0.0
 11
84.88692496584098
 21
114.353687635141
 31
0.0
  0
ARC
  5
392D9
330
1F
100
AcDbEntity
  8
AM_0
 48
2.0
100
AcDbCircle
 10
87.27176346129807
 20
63.02183700401037
 30
0.0
 40
0.25
100
AcDbArc
 50
53.89314831336412
 51
149.9999999262185
1001
GENIUS_GENODEF_13
1002
{
1000
HIER
1070
     0
1002
}
1002
{
1000
MANEDIT
1070
     0
1002
}
1002
{
1000
NOSEL
1070
     0
1002
}
1002
{
1000
BEHIND
1070
     0
1002
}
1002
{
1000
REACTOR
1002
}
1001
GENIUS_GENOBJ-N-FIL_13
1002
{
1000
OWNER
1000
GEN
1002
}
  0
LINE
  5
392DA
330
1F
100
AcDbEntity
  8
AM_0
 48
2.0
100
AcDbLine
 10
87.51327056256844
 20
59.49688077315966
 30
0.0
 11
88.17821281331305
 21
58.83193852241522
 31
0.0
  0
ARC
  5
392DB
330
1F
100
AcDbEntity
  8
AM_0
 48
2.0
100
AcDbCircle
 10
88.35498950860971
 20
59.00871521771193
 30
0.0
 40
0.25
100
AcDbArc
 50
225.0000000000095
 51
319.4117257855991
1001
GENIUS_GENODEF_13
1002
{
1000
HIER
1070
     0
1002
}
1002
{
1000
MANEDIT
1070
     0
1002
}
1002
{
1000
NOSEL
1070
     0
1002
}
1002
{
1000
BEHIND
1070
     0
1002
}
1002
{
1000
REACTOR
1002
}
1001
GENIUS_GENOBJ-N-FIL_13
1002
{
1000
OWNER
1000
GEN
1002
}
  0
ARC
  5
392DC
330
1F
100
AcDbEntity
  8
AM_0
 48
2.0
100
AcDbCircle
 10
88.22358925502511
 20
61.37322636990091
 30
0.0
 40
0.25
100
AcDbArc
 50
270.0
 51
6.106851732157864
1001
GENIUS_GENODEF_13
1002
{
1000
HIER
1070
     0
1002
}
1002
{
1000
MANEDIT
1070
     0
1002
}
1002
{
1000
NOSEL
1070
     0
1002
}
1002
{
1000
BEHIND
1070
     0
1002
}
1002
{
1000
REACTOR
1002
}
1001
GENIUS_GENOBJ-N-FIL_13
1002
{
1000
OWNER
1000
GEN
1002
}
  0
ARC
  5
392DD
330
1F
100
AcDbEntity
  8
AM_0
 48
2.0
100
AcDbCircle
 10
85.88692496592102
 20
61.12322636980701
 30
0.0
 40
2.6
100
AcDbArc
 50
6.106851732157864
 51
53.89314827284292
  0
ARC
  5
392DE
330
1F
100
AcDbEntity
  8
AM_0
 48
2.0
100
AcDbCircle
 10
84.5020864704486
 20
63.02183700418305
 30
0.0
 40
0.25
100
AcDbArc
 50
30.00000002547134
 51
126.1068517243997
1001
GENIUS_GENODEF_13
1002
{
1000
HIER
1070
     0
1002
}
1002
{
1000
MANEDIT
1070
     0
1002
}
1002
{
1000
NOSEL
1070
     0
1002
}
1002
{
1000
BEHIND
1070
     0
1002
}
1002
{
1000
REACTOR
1002
}
1001
GENIUS_GENOBJ-N-FIL_13
1002
{
1000
OWNER
1000
GEN
1002
}
  0
LINE
  5
392DF
330
1F
100
AcDbEntity
  8
AM_0
 48
2.0
100
AcDbLine
 10
84.26057936911366
 20
59.49688077316705
 30
0.0
 11
83.59563711836802
 21
58.83193852241885
 31
0.0
  0
ARC
  5
392E0
330
1F
100
AcDbEntity
  8
AM_0
 48
2.0
100
AcDbCircle
 10
83.41886042307113
 20
59.00871521771524
 30
0.0
 40
0.25
100
AcDbArc
 50
220.5882742143295
 51
315.0000000000917
1001
GENIUS_GENODEF_13
1002
{
1000
HIER
1070
     0
1002
}
1002
{
1000
MANEDIT
1070
     0
1002
}
1002
{
1000
NOSEL
1070
     0
1002
}
1002
{
1000
BEHIND
1070
     0
1002
}
1002
{
1000
REACTOR
1002
}
1001
GENIUS_GENOBJ-N-FIL_13
1002
{
1000
OWNER
1000
GEN
1002
}
  0
ARC
  5
392E1
330
1F
100
AcDbEntity
  8
AM_0
 48
2.0
100
AcDbCircle
 10
83.55026067681718
 20
61.37322636990091
 30
0.0
 40
0.25
100
AcDbArc
 50
173.8931482678421
 51
270.0
1001
GENIUS_GENODEF_13
1002
{
1000
HIER
1070
     0
1002
}
1002
{
1000
MANEDIT
1070
     0
1002
}
1002
{
1000
NOSEL
1070
     0
1002
}
1002
{
1000
BEHIND
1070
     0
1002
}
1002
{
1000
REACTOR
1002
}
1001
GENIUS_GENOBJ-N-FIL_13
1002
{
1000
OWNER
1000
GEN
1002
}
  0
ARC
  5
392E2
330
1F
100
AcDbEntity
  8
AM_0
 48
2.0
100
AcDbCircle
 10
85.88692496592102
 20
61.12322636980701
 30
0.0
 40
2.6
100
AcDbArc
 50
126.1068517302459
 51
173.8931482678421
  0
CIRCLE
  5
392E5
330
1F
100
AcDbEntity
  8
AM_0
100
AcDbCircle
 10
85.886924965841
 20
61.12322636990092
 30
0.0
 40
2.299999999999998
  0
CIRCLE
  5
392E6
330
1F
100
AcDbEntity
  8
AM_0
 48
2.0
100
AcDbCircle
 10
85.88692496584178
 20
61.12322636990092
 30
0.0
 40
2.299999999999998
1001
ACAD
1000
ASC_BOUNDS
1002
{
1070
    19
1002
}
  0
ARC
  5
392E7
330
1F
100
AcDbEntity
  8
AM_0
 48
2.0
100
AcDbCircle
 10
85.88692496584178
 20
61.12322636990092
 30
0.0
 40
3.5
100
AcDbArc
 50
319.4117257855899
 51
220.5882742143331
  0
ARC
  5
392E8
330
1F
100
AcDbEntity
  8
AM_0
100
AcDbCircle
 10
85.886924965841
 20
61.12322636990092
 30
0.0
 40
8.0
100
AcDbArc
 50
270.0
 51
0.0
1001
GENIUS_GENODEF_13
1002
{
1000
HIER
1070
     0
1002
}
1002
{
1000
MANEDIT
1070
     0
1002
}
1002
{
1000
NOSEL
1070
     0
1002
}
1002
{
1000
BEHIND
1070
     0
1002
}
1002
{
1000
REACTOR
1002
}
1001
GENIUS_GENOBJ-N-FIL_13
1002
{
1000
OWNER
1000
GEN
1002
}
  0
LINE
  5
392EB
330
1F
100
AcDbEntity
  8
AM_0
100
AcDbLine
 10
65.88692496584099
 20
53.12322636990092
 30
0.0
 11
85.886924965841
 21
53.12322636990092
 31
0.0
  0
LINE
  5
392EC
330
1F
100
AcDbEntity
  8
AM_0
100
AcDbLine
 10
65.88692496584099
 20
159.1232263699003
 30
0.0
 11
65.88692496584099
 21
53.12322636990092
 31
0.0
  0
LINE
  5
392ED
330
1F
100
AcDbEntity
  8
AM_0
100
AcDbLine
 10
93.88692496584098
 20
153.1232263699009
 30
0.0
 11
93.88692496584098
 21
61.12322636990092
 31
0.0
  0
LINE
  5
392EE
330
1F
100
AcDbEntity
  8
AM_0
 48
2.0
100
AcDbLine
 10
120.886924965841
 20
215.0232263699003
 30
0.0
 11
120.886924965841
 21
188.5232263699002
 31
0.0
  0
LINE
  5
392EF
330
1F
100
AcDbEntity
  8
AM_0
 48
2.0
100
AcDbLine
 10
123.7869249658411
 20
215.0232263699003
 30
0.0
 11
123.7869249658411
 21
188.5232263699002
 31
0.0
  0
LINE
  5
392F0
330
1F
100
AcDbEntity
  8
AM_0
 48
2.0
100
AcDbLine
 10
124.386924965841
 20
215.0232263699003
 30
0.0
 11
124.386924965841
 21
188.5232263699002
 31
0.0
  0
LINE
  5
392F1
330
1F
100
AcDbEntity
  8
AM_0
 48
2.0
100
AcDbLine
 10
68.78692496584085
 20
189.5232263699002
 30
0.0
 11
86.91528779490068
 21
204.7347289336121
 31
0.0
  0
LINE
  5
392F2
330
1F
100
AcDbEntity
  8
AM_0
 48
2.0
100
AcDbLine
 10
112.8813395397846
 20
209.9706106049421
 30
0.0
 11
111.4634714355775
 21
174.4989366940711
 31
0.0
  0
LINE
  5
392F3
330
1F
100
AcDbEntity
  8
AM_0
 48
2.0
100
AcDbLine
 10
90.886924965841
 20
215.0232263699003
 30
0.0
 11
90.886924965841
 21
180.4347691017803
 31
0.0
  0
LINE
  5
392F4
330
1F
100
AcDbEntity
  8
AM_0
 48
2.0
100
AcDbLine
 10
98.89251039183591
 20
210.5297698573039
 30
0.0
 11
97.78745397863112
 21
182.8838974196573
 31
0.0
  0
LINE
  5
392FE
330
1F
100
AcDbEntity
  8
AM_7
100
AcDbLine
 10
256.8349297604516
 20
50.12322636990086
 30
0.0
 11
256.8349297604516
 21
240.949095632888
 31
0.0
1001
GENIUS_GENODEF_13
1002
{
1000
HIER
1070
     0
1002
}
1002
{
1000
MANEDIT
1070
     0
1002
}
1002
{
1000
NOSEL
1070
     0
1002
}
1002
{
1000
BEHIND
1070
     0
1002
}
1002
{
1000
REACTOR
1002
}
1001
GENIUS_GENOBJ-N-CEN_13
1002
{
1000
OWNER
1000
GEN
1002
}
  0
ARC
  5
392FF
330
1F
100
AcDbEntity
  8
AM_11
100
AcDbCircle
 10
177.6682484264503
 20
153.1232263699011
 30
0.0
 40
8.0
100
AcDbArc
 50
0.0
 51
90.0
  0
ARC
  5
39300
330
1F
100
AcDbEntity
  8
AM_11
100
AcDbCircle
 10
157.2682484264502
 20
159.1232263699003
 30
0.0
 40
0.4
100
AcDbArc
 50
0.0
 51
90.0
1001
GENIUS_GENODEF_13
1002
{
1000
HIER
1070
     0
1002
}
1002
{
1000
MANEDIT
1070
     0
1002
}
1002
{
1000
NOSEL
1070
     0
1002
}
1002
{
1000
BEHIND
1070
     0
1002
}
1002
{
1000
REACTOR
1002
}
1001
GENIUS_GENOBJ-N-FIL_13
1002
{
1000
OWNER
1000
GEN
1002
}
  0
ARC
  5
39301
330
1F
100
AcDbEntity
  8
AM_11
100
AcDbCircle
 10
157.2682484264502
 20
159.1232263699003
 30
0.0
 40
2.0
100
AcDbArc
 50
0.0
 51
90.0
1001
GENIUS_GENODEF_13
1002
{
1000
HIER
1070
     0
1002
}
1002
{
1000
MANEDIT
1070
     0
1002
}
1002
{
1000
NOSEL
1070
     0
1002
}
1002
{
1000
BEHIND
1070
     0
1002
}
1002
{
1000
REACTOR
1002
}
1001
GENIUS_GENOBJ-N-FIL_13
1002
{
1000
OWNER
1000
GEN
1002
}
  0
LINE
  5
39302
330
1F
100
AcDbEntity
  8
AM_11
100
AcDbLine
 10
161.4339338513995
 20
93.12322636990126
 30
0.0
 11
157.6682484264503
 21
93.12322636990126
 31
0.0
  0
LINE
  5
39303
330
1F
100
AcDbEntity
  8
AM_11
100
AcDbLine
 10
161.4339338513995
 20
93.12322636990126
 30
0.0
 11
157.6682484264503
 21
91.58857239394331
 31
0.0
  0
LINE
  5
39304
330
1F
100
AcDbEntity
  8
AM_11
100
AcDbLine
 10
157.6682484264503
 20
94.65788034585916
 30
0.0
 11
161.4339338513995
 21
93.12322636990126
 31
0.0
  0
LINE
  5
39305
330
1F
100
AcDbEntity
  8
AM_11
100
AcDbLine
 10
161.4339338513995
 20
153.1232263699012
 30
0.0
 11
157.6682484264503
 21
153.1232263699012
 31
0.0
  0
LINE
  5
39306
330
1F
100
AcDbEntity
  8
AM_11
100
AcDbLine
 10
161.4339338513995
 20
153.1232263699012
 30
0.0
 11
157.6682484264503
 21
151.5885723939433
 31
0.0
  0
LINE
  5
39307
330
1F
100
AcDbEntity
  8
AM_11
100
AcDbLine
 10
157.6682484264503
 20
154.657880345859
 30
0.0
 11
161.4339338513995
 21
153.1232263699012
 31
0.0
  0
CIRCLE
  5
39308
330
1F
100
AcDbEntity
  8
AM_11
100
AcDbCircle
 10
177.6682484264503
 20
61.12322636990092
 30
0.0
 40
2.299999999999998
  0
ARC
  5
39309
330
1F
100
AcDbEntity
  8
AM_11
100
AcDbCircle
 10
158.4682484264502
 20
96.39593891394031
 30
0.0
 40
0.8
100
AcDbArc
 50
180.0
 51
309.9999999999955
1001
GENIUS_GENODEF_13
1002
{
1000
HIER
1070
     0
1002
}
1002
{
1000
MANEDIT
1070
     0
1002
}
1002
{
1000
NOSEL
1070
     0
1002
}
1002
{
1000
BEHIND
1070
     0
1002
}
1002
{
1000
REACTOR
1002
}
1001
GENIUS_GENOBJ-N-FIL_13
1002
{
1000
OWNER
1000
GEN
1002
}
  0
LINE
  5
3930A
330
1F
100
AcDbEntity
  8
AM_11
100
AcDbLine
 10
173.8105493039426
 20
108.2253320901892
 30
0.0
 11
158.9824785141994
 21
95.78310335944513
 31
0.0
  0
LINE
  5
3930B
330
1F
100
AcDbEntity
  8
AM_11
100
AcDbLine
 10
157.6682484264503
 20
159.1232263699003
 30
0.0
 11
157.6682484264503
 21
53.12322636990092
 31
0.0
  0
LINE
  5
3930C
330
1F
100
AcDbEntity
  8
AM_11
100
AcDbLine
 10
159.2682484264502
 20
146.6232263699009
 30
0.0
 11
159.2682484264502
 21
96.02289278741631
 31
0.0
  0
ARC
  5
3930D
330
1F
100
AcDbEntity
  8
AM_11
100
AcDbCircle
 10
168.6682484264503
 20
114.353687635141
 30
0.0
 40
8.0
100
AcDbArc
 50
310.0000000000043
 51
0.0
1001
GENIUS_GENODEF_13
1002
{
1000
HIER
1070
     0
1002
}
1002
{
1000
MANEDIT
1070
     0
1002
}
1002
{
1000
NOSEL
1070
     0
1002
}
1002
{
1000
BEHIND
1070
     0
1002
}
1002
{
1000
REACTOR
1002
}
1001
GENIUS_GENOBJ-N-FIL_13
1002
{
1000
OWNER
1000
GEN
1002
}
  0
LINE
  5
3930E
330
1F
100
AcDbEntity
  8
AM_11
100
AcDbLine
 10
176.6682484264503
 20
137.6232263699009
 30
0.0
 11
176.6682484264503
 21
114.353687635141
 31
0.0
  0
ARC
  5
3930F
330
1F
100
AcDbEntity
  8
AM_11
100
AcDbCircle
 10
167.6682484264503
 20
137.6232263699009
 30
0.0
 40
9.0
100
AcDbArc
 50
0.0
 51
90.0
1001
GENIUS_GENODEF_13
1002
{
1000
HIER
1070
     0
1002
}
1002
{
1000
MANEDIT
1070
     0
1002
}
1002
{
1000
NOSEL
1070
     0
1002
}
1002
{
1000
BEHIND
1070
     0
1002
}
1002
{
1000
REACTOR
1002
}
1001
GENIUS_GENOBJ-N-FIL_13
1002
{
1000
OWNER
1000
GEN
1002
}
  0
LINE
  5
39310
330
1F
100
AcDbEntity
  8
AM_11
100
AcDbLine
 10
157.6682484264503
 20
146.6232263699009
 30
0.0
 11
167.6682484264503
 21
146.6232263699009
 31
0.0
  0
ARC
  5
39311
330
1F
100
AcDbEntity
  8
AM_11
100
AcDbCircle
 10
177.6682484264503
 20
61.12322636990092
 30
0.0
 40
8.0
100
AcDbArc
 50
270.0
 51
0.0
1001
GENIUS_GENODEF_13
1002
{
1000
HIER
1070
     0
1002
}
1002
{
1000
MANEDIT
1070
     0
1002
}
1002
{
1000
NOSEL
1070
     0
1002
}
1002
{
1000
BEHIND
1070
     0
1002
}
1002
{
1000
REACTOR
1002
}
1001
GENIUS_GENOBJ-N-FIL_13
1002
{
1000
OWNER
1000
GEN
1002
}
  0
LINE
  5
39312
330
1F
100
AcDbEntity
  8
AM_11
100
AcDbLine
 10
157.6682484264503
 20
53.12322636990092
 30
0.0
 11
177.6682484264503
 21
53.12322636990092
 31
0.0
  0
LINE
  5
39313
330
1F
100
AcDbEntity
  8
AM_11
100
AcDbLine
 10
185.6682484264503
 20
153.1232263699011
 30
0.0
 11
185.6682484264503
 21
61.12322636990092
 31
0.0
  0
LINE
  5
39314
330
1F
100
AcDbEntity
  8
AM_11
100
AcDbLine
 10
164.6682484264503
 20
161.1232263699009
 30
0.0
 11
177.6682484264503
 21
161.123226369901
 31
0.0
  0
LINE
  5
39315
330
1F
100
AcDbEntity
  8
AM_11
100
AcDbLine
 10
152.6682484264503
 20
161.1232263699009
 30
0.0
 11
152.6682484264503
 21
159.5232263699002
 31
0.0
  0
LINE
  5
39316
330
1F
100
AcDbEntity
  8
AM_11
100
AcDbLine
 10
159.2682484264502
 20
159.1232263699003
 30
0.0
 11
159.2682484264502
 21
158.1232263699003
 31
0.0
  0
LINE
  5
39317
330
1F
100
AcDbEntity
  8
AM_11
100
AcDbLine
 10
157.2682484264502
 20
161.1232263699002
 30
0.0
 11
152.6682484264503
 21
161.1232263699002
 31
0.0
  0
LINE
  5
39318
330
1F
100
AcDbEntity
  8
AM_11
100
AcDbLine
 10
152.6682484264503
 20
159.5232263699002
 30
0.0
 11
157.2682484264502
 21
159.5232263699002
 31
0.0
  0
ARC
  5
39319
330
1F
100
AcDbEntity
  8
AM_11
100
AcDbCircle
 10
161.6682484264503
 20
161.1232263699004
 30
0.0
 40
3.0
100
AcDbArc
 50
270.0
 51
359.9999999999968
1001
GENIUS_GENODEF_13
1002
{
1000
HIER
1070
     0
1002
}
1002
{
1000
MANEDIT
1070
     0
1002
}
1002
{
1000
NOSEL
1070
     0
1002
}
1002
{
1000
BEHIND
1070
     0
1002
}
1002
{
1000
REACTOR
1002
}
1001
GENIUS_GENOBJ-N-FIL_13
1002
{
1000
OWNER
1000
GEN
1002
}
  0
LINE
  5
3931A
330
1F
100
AcDbEntity
  8
AM_11
100
AcDbLine
 10
161.6682484264503
 20
158.1232263699003
 30
0.0
 11
157.6682484264503
 21
158.1232263699003
 31
0.0
  0
ARC
  5
3931B
330
1F
100
AcDbEntity
  8
AM_11
 48
2.0
100
AcDbCircle
 10
179.0530869219072
 20
63.02183700401037
 30
0.0
 40
0.25
100
AcDbArc
 50
53.89314831336412
 51
149.9999999262186
1001
GENIUS_GENODEF_13
1002
{
1000
HIER
1070
     0
1002
}
1002
{
1000
MANEDIT
1070
     0
1002
}
1002
{
1000
NOSEL
1070
     0
1002
}
1002
{
1000
BEHIND
1070
     0
1002
}
1002
{
1000
REACTOR
1002
}
1001
GENIUS_GENOBJ-N-FIL_13
1002
{
1000
OWNER
1000
GEN
1002
}
  0
LINE
  5
3931C
330
1F
100
AcDbEntity
  8
AM_11
 48
2.0
100
AcDbLine
 10
179.2945940231776
 20
59.49688077315966
 30
0.0
 11
179.9595362739222
 21
58.83193852241522
 31
0.0
  0
ARC
  5
3931D
330
1F
100
AcDbEntity
  8
AM_11
 48
2.0
100
AcDbCircle
 10
180.1363129692189
 20
59.00871521771193
 30
0.0
 40
0.25
100
AcDbArc
 50
225.0000000000094
 51
319.4117257855991
1001
GENIUS_GENODEF_13
1002
{
1000
HIER
1070
     0
1002
}
1002
{
1000
MANEDIT
1070
     0
1002
}
1002
{
1000
NOSEL
1070
     0
1002
}
1002
{
1000
BEHIND
1070
     0
1002
}
1002
{
1000
REACTOR
1002
}
1001
GENIUS_GENOBJ-N-FIL_13
1002
{
1000
OWNER
1000
GEN
1002
}
  0
ARC
  5
3931E
330
1F
100
AcDbEntity
  8
AM_11
 48
2.0
100
AcDbCircle
 10
180.0049127156343
 20
61.37322636990091
 30
0.0
 40
0.25
100
AcDbArc
 50
270.0
 51
6.106851732157858
1001
GENIUS_GENODEF_13
1002
{
1000
HIER
1070
     0
1002
}
1002
{
1000
MANEDIT
1070
     0
1002
}
1002
{
1000
NOSEL
1070
     0
1002
}
1002
{
1000
BEHIND
1070
     0
1002
}
1002
{
1000
REACTOR
1002
}
1001
GENIUS_GENOBJ-N-FIL_13
1002
{
1000
OWNER
1000
GEN
1002
}
  0
ARC
  5
3931F
330
1F
100
AcDbEntity
  8
AM_11
 48
2.0
100
AcDbCircle
 10
177.6682484265303
 20
61.12322636980701
 30
0.0
 40
2.6
100
AcDbArc
 50
6.106851732157858
 51
53.89314827284297
  0
ARC
  5
39320
330
1F
100
AcDbEntity
  8
AM_11
 48
2.0
100
AcDbCircle
 10
176.2834099310578
 20
63.02183700418305
 30
0.0
 40
0.25
100
AcDbArc
 50
30.00000002547137
 51
126.1068517243997
1001
GENIUS_GENODEF_13
1002
{
1000
HIER
1070
     0
1002
}
1002
{
1000
MANEDIT
1070
     0
1002
}
1002
{
1000
NOSEL
1070
     0
1002
}
1002
{
1000
BEHIND
1070
     0
1002
}
1002
{
1000
REACTOR
1002
}
1001
GENIUS_GENOBJ-N-FIL_13
1002
{
1000
OWNER
1000
GEN
1002
}
  0
LINE
  5
39321
330
1F
100
AcDbEntity
  8
AM_11
 48
2.0
100
AcDbLine
 10
176.041902829723
 20
59.49688077316705
 30
0.0
 11
175.3769605789773
 21
58.83193852241885
 31
0.0
  0
ARC
  5
39322
330
1F
100
AcDbEntity
  8
AM_11
 48
2.0
100
AcDbCircle
 10
175.2001838836804
 20
59.00871521771524
 30
0.0
 40
0.25
100
AcDbArc
 50
220.5882742143294
 51
315.0000000000917
1001
GENIUS_GENODEF_13
1002
{
1000
HIER
1070
     0
1002
}
1002
{
1000
MANEDIT
1070
     0
1002
}
1002
{
1000
NOSEL
1070
     0
1002
}
1002
{
1000
BEHIND
1070
     0
1002
}
1002
{
1000
REACTOR
1002
}
1001
GENIUS_GENOBJ-N-FIL_13
1002
{
1000
OWNER
1000
GEN
1002
}
  0
ARC
  5
39323
330
1F
100
AcDbEntity
  8
AM_11
 48
2.0
100
AcDbCircle
 10
175.3315841374264
 20
61.37322636990091
 30
0.0
 40
0.25
100
AcDbArc
 50
173.8931482678421
 51
270.0
1001
GENIUS_GENODEF_13
1002
{
1000
HIER
1070
     0
1002
}
1002
{
1000
MANEDIT
1070
     0
1002
}
1002
{
1000
NOSEL
1070
     0
1002
}
1002
{
1000
BEHIND
1070
     0
1002
}
1002
{
1000
REACTOR
1002
}
1001
GENIUS_GENOBJ-N-FIL_13
1002
{
1000
OWNER
1000
GEN
1002
}
  0
ARC
  5
39324
330
1F
100
AcDbEntity
  8
AM_11
 48
2.0
100
AcDbCircle
 10
177.6682484265303
 20
61.12322636980701
 30
0.0
 40
2.6
100
AcDbArc
 50
126.1068517302459
 51
173.8931482678421
  0
CIRCLE
  5
39325
330
1F
100
AcDbEntity
  8
AM_11
 48
2.0
100
AcDbCircle
 10
177.668248426451
 20
61.12322636990092
 30
0.0
 40
2.299999999999998
1001
ACAD
1000
ASC_BOUNDS
1002
{
1070
    19
1002
}
  0
ARC
  5
39326
330
1F
100
AcDbEntity
  8
AM_11
 48
2.0
100
AcDbCircle
 10
177.668248426451
 20
61.12322636990092
 30
0.0
 40
3.5
100
AcDbArc
 50
319.4117257855899
 51
220.5882742143331
  0
LINE
  5
39327
330
1F
100
AcDbEntity
  8
AM_11
100
AcDbLine
 10
172.5317834576682
 20
182.8137217756171
 30
0.0
 11
172.5388624655854
 21
181.2733133792392
 31
0.0
  0
ARC
  5
39328
330
1F
100
AcDbEntity
  8
AM_11
100
AcDbCircle
 10
173.0388571859228
 20
181.275611124819
 30
0.0
 40
0.5
100
AcDbArc
 50
180.2633031749996
 51
264.673150912349
1001
GENIUS_GENODEF_13
1002
{
1000
HIER
1070
     0
1002
}
1002
{
1000
MANEDIT
1070
     0
1002
}
1002
{
1000
NOSEL
1070
     0
1002
}
1002
{
1000
BEHIND
1070
     0
1002
}
1002
{
1000
REACTOR
1002
}
1001
GENIUS_GENOBJ-N-FIL_13
1002
{
1000
OWNER
1000
GEN
1002
}
  0
ARC
  5
39329
330
1F
100
AcDbEntity
  8
AM_11
100
AcDbCircle
 10
173.0388571859228
 20
181.275611124819
 30
0.0
 40
0.5
100
AcDbArc
 50
180.2633031749996
 51
264.673150912349
1001
GENIUS_GENODEF_13
1002
{
1000
HIER
1070
     0
1002
}
1002
{
1000
MANEDIT
1070
     0
1002
}
1002
{
1000
NOSEL
1070
     0
1002
}
1002
{
1000
BEHIND
1070
     0
1002
}
1002
{
1000
REACTOR
1002
}
1001
GENIUS_GENOBJ-N-FIL_13
1002
{
1000
OWNER
1000
GEN
1002
}
  0
LINE
  5
3932A
330
1F
100
AcDbEntity
  8
AM_11
100
AcDbLine
 10
152.5388878809066
 20
181.2218277914148
 30
0.0
 11
152.5319946441659
 21
182.7218119524265
 31
0.0
  0
ARC
  5
3932B
330
1F
100
AcDbEntity
  8
AM_11
100
AcDbCircle
 10
152.0388931605692
 20
181.2195300458346
 30
0.0
 40
0.5
100
AcDbArc
 50
270.2633031749996
 51
0.2633031750484684
1001
GENIUS_GENODEF_13
1002
{
1000
HIER
1070
     0
1002
}
1002
{
1000
MANEDIT
1070
     0
1002
}
1002
{
1000
NOSEL
1070
     0
1002
}
1002
{
1000
BEHIND
1070
     0
1002
}
1002
{
1000
REACTOR
1002
}
1001
GENIUS_GENOBJ-N-FIL_13
1002
{
1000
OWNER
1000
GEN
1002
}
  0
LINE
  5
3932C
330
1F
100
AcDbEntity
  8
AM_11
100
AcDbLine
 10
116.5415657621939
 20
180.556395389334
 30
0.0
 11
152.0411909061489
 21
180.7195353254972
 31
0.0
  0
LINE
  5
3932D
330
1F
100
AcDbEntity
  8
AM_11
100
AcDbLine
 10
152.5319946441659
 20
182.7218119524265
 30
0.0
 11
172.5317834576682
 21
182.8137217756171
 31
0.0
  0
CIRCLE
  5
3932E
330
1F
100
AcDbEntity
  8
AM_11
100
AcDbCircle
 10
172.5855507042294
 20
171.113845319718
 30
0.0
 40
4.0
  0
ARC
  5
3932F
330
1F
100
AcDbEntity
  8
AM_11
100
AcDbCircle
 10
161.2655554273477
 20
155.7616622728076
 30
0.0
 40
3.5
100
AcDbArc
 50
54.40342922718173
 51
90.2633031749996
1001
GENIUS_GENODEF_13
1002
{
1000
HIER
1070
     0
1002
}
1002
{
1000
MANEDIT
1070
     0
1002
}
1002
{
1000
NOSEL
1070
     0
1002
}
1002
{
1000
BEHIND
1070
     0
1002
}
1002
{
1000
REACTOR
1002
}
1001
GENIUS_GENOBJ-N-FIL_13
1002
{
1000
OWNER
1000
GEN
1002
}
  0
LINE
  5
39330
330
1F
100
AcDbEntity
  8
AM_11
100
AcDbLine
 10
180.1165188838286
 20
174.2662142412582
 30
0.0
 11
182.9065707885582
 21
159.1697112024828
 31
0.0
  0
ARC
  5
39331
330
1F
100
AcDbEntity
  8
AM_11
100
AcDbCircle
 10
174.6682484264503
 20
153.1232263698989
 30
0.0
 40
9.199999999999999
100
AcDbArc
 50
224.9526145274576
 51
266.3141964337549
  0
CIRCLE
  5
39332
330
1F
100
AcDbEntity
  8
AM_11
100
AcDbCircle
 10
177.6682484264503
 20
61.12322636989887
 30
0.0
 40
2.299999999999998
1001
ACAD
1000
ASC_BOUNDS
1002
{
1070
    19
1002
}
  0
ARC
  5
39333
330
1F
100
AcDbEntity
  8
AM_11
100
AcDbCircle
 10
144.2873461494649
 20
163.6837227137793
 30
0.0
 40
3.0
100
AcDbArc
 50
30.26330317501999
 51
90.2633031749996
1001
GENIUS_GENODEF_13
1002
{
1000
HIER
1070
     0
1002
}
1002
{
1000
MANEDIT
1070
     0
1002
}
1002
{
1000
NOSEL
1070
     0
1002
}
1002
{
1000
BEHIND
1070
     0
1002
}
1002
{
1000
REACTOR
1002
}
1001
GENIUS_GENOBJ-N-FIL_13
1002
{
1000
OWNER
1000
GEN
1002
}
  0
ARC
  5
39334
330
1F
100
AcDbEntity
  8
AM_11
100
AcDbCircle
 10
152.6611344000718
 20
163.2221995102831
 30
0.0
 40
4.0
100
AcDbArc
 50
210.26330317502
 51
270.2633031749996
1001
GENIUS_GENODEF_13
1002
{
1000
HIER
1070
     0
1002
}
1002
{
1000
MANEDIT
1070
     0
1002
}
1002
{
1000
NOSEL
1070
     0
1002
}
1002
{
1000
BEHIND
1070
     0
1002
}
1002
{
1000
REACTOR
1002
}
1001
GENIUS_GENOBJ-N-FIL_13
1002
{
1000
OWNER
1000
GEN
1002
}
  0
LINE
  5
39335
330
1F
100
AcDbEntity
  8
AM_11
100
AcDbLine
 10
146.8785016901469
 20
165.1956463110534
 30
0.0
 11
149.2062603458292
 21
161.2063013805844
 31
0.0
  0
LINE
  5
39336
330
1F
100
AcDbEntity
  8
AM_11
100
AcDbLine
 10
116.6059026384289
 20
166.5565432198875
 30
0.0
 11
144.2735596759863
 21
166.6836910358035
 31
0.0
  0
LINE
  5
39337
330
1F
100
AcDbEntity
  8
AM_11
100
AcDbLine
 10
152.6795163647099
 20
159.2222417475842
 30
0.0
 11
161.2494712082895
 21
159.2616253151693
 31
0.0
  0
ARC
  5
39338
330
1F
100
AcDbEntity
  8
AM_11
100
AcDbCircle
 10
116.5737342003115
 20
173.5564693046106
 30
0.0
 40
15.0000000000154
100
AcDbArc
 50
28.08144245962143
 51
332.4451638903769
  0
ARC
  5
39339
330
1F
100
AcDbEntity
  8
AM_11
100
AcDbCircle
 10
116.5737342003123
 20
173.5564693046107
 30
0.0
 40
7.0
100
AcDbArc
 50
90.2633031749996
 51
270.2633031749996
  0
ARC
  5
3933A
330
1F
100
AcDbEntity
  8
AM_11
100
AcDbCircle
 10
172.2497411657773
 20
172.8123200447043
 30
0.0
 40
8.0
100
AcDbArc
 50
10.47093837948086
 51
84.67315091234251
1001
GENIUS_GENODEF_13
1002
{
1000
HIER
1070
     0
1002
}
1002
{
1000
MANEDIT
1070
     0
1002
}
1002
{
1000
NOSEL
1070
     0
1002
}
1002
{
1000
BEHIND
1070
     0
1002
}
1002
{
1000
REACTOR
1002
}
1001
GENIUS_GENOBJ-N-FIL_13
1002
{
1000
OWNER
1000
GEN
1002
}
  0
LINE
  5
3933B
330
1F
100
AcDbEntity
  8
AM_7
100
AcDbLine
 10
236.6349297604554
 20
61.12322636990143
 30
0.0
 11
276.4349297604623
 21
61.12322636990035
 31
0.0
1001
GENIUS_GENODEF_13
1002
{
1000
HIER
1070
     0
1002
}
1002
{
1000
MANEDIT
1070
     0
1002
}
1002
{
1000
NOSEL
1070
     0
1002
}
1002
{
1000
BEHIND
1070
     0
1002
}
1002
{
1000
REACTOR
1002
}
1001
GENIUS_GENOBJ-N-CEN_13
1002
{
1000
OWNER
1000
GEN
1002
}
  0
LINE
  5
39349
330
1F
100
AcDbEntity
  8
AM_11
 48
0.5
100
AcDbLine
 10
187.0152410180566
 20
142.6415907394019
 30
0.0
 11
187.5377885360486
 21
142.1652042456381
 31
0.0
1001
GENIUS_GENODEF_13
1002
{
1000
HIER
1070
     0
1002
}
1002
{
1000
MANEDIT
1070
     0
1002
}
1002
{
1000
NOSEL
1070
     0
1002
}
1002
{
1000
BEHIND
1070
     0
1002
}
1002
{
1000
REACTOR
1002
}
1001
GENIUS_GENOBJ-N-CHA_13
1002
{
1000
OWNER
1000
GEN
1002
}
1001
GENIUS_GENFIL_13
1070
     0
1040
0.5
1040
0.5
1040
0.0
1040
0.0
1002
{
1002
}
  0
LINE
  5
3934A
330
1F
100
AcDbEntity
  8
AM_11
 48
0.5
100
AcDbLine
 10
160.3667834162946
 20
140.9096243866347
 30
0.0
 11
160.8431699100584
 21
141.4321719046265
 31
0.0
1001
GENIUS_GENODEF_13
1002
{
1000
HIER
1070
     0
1002
}
1002
{
1000
MANEDIT
1070
     0
1002
}
1002
{
1000
NOSEL
1070
     0
1002
}
1002
{
1000
BEHIND
1070
     0
1002
}
1002
{
1000
REACTOR
1002
}
1001
GENIUS_GENOBJ-N-CHA_13
1002
{
1000
OWNER
1000
GEN
1002
}
1001
GENIUS_GENFIL_13
1070
     0
1040
0.5
1040
0.5
1040
0.0
1040
0.0
1002
{
1002
}
  0
LINE
  5
3934B
330
1F
100
AcDbEntity
  8
AM_11
 48
0.5
100
AcDbLine
 10
187.0152410180566
 20
142.6415907394017
 30
0.0
 11
185.6682484264503
 21
142.5793458294033
 31
0.0
  0
LINE
  5
3934C
330
1F
100
AcDbEntity
  8
AM_11
 48
0.5
100
AcDbLine
 10
175.4711700659767
 20
142.1081359439516
 30
0.0
 11
160.8431699100584
 21
141.4321719046265
 31
0.0
  0
LINE
  5
3934D
330
1F
100
AcDbEntity
  8
AM_11
 48
0.5
100
AcDbLine
 10
187.7593614523429
 20
137.370320989211
 30
0.0
 11
187.2829749585791
 21
136.847773471219
 31
0.0
1001
GENIUS_GENODEF_13
1002
{
1000
HIER
1070
     0
1002
}
1002
{
1000
MANEDIT
1070
     0
1002
}
1002
{
1000
NOSEL
1070
     0
1002
}
1002
{
1000
BEHIND
1070
     0
1002
}
1002
{
1000
REACTOR
1002
}
1001
GENIUS_GENOBJ-N-CHA_13
1002
{
1000
OWNER
1000
GEN
1002
}
1001
GENIUS_GENFIL_13
1070
     0
1040
0.5
1040
0.5
1040
0.0
1040
0.0
1002
{
1002
}
  0
LINE
  5
3934E
330
1F
100
AcDbEntity
  8
AM_11
 48
0.5
100
AcDbLine
 10
187.5327084615178
 20
136.8593137272751
 30
0.0
 11
185.6682484264503
 21
136.7731564998326
 31
0.0
  0
LINE
  5
3934F
330
1F
100
AcDbEntity
  8
AM_11
 48
0.5
100
AcDbLine
 10
176.6682484264503
 20
136.3572639452061
 30
0.0
 11
160.8611703476423
 21
135.6268143803869
 31
0.0
  0
LINE
  5
39350
330
1F
100
AcDbEntity
  8
AM_11
 48
0.5
100
AcDbLine
 10
161.1109038505813
 20
135.6383546364437
 30
0.0
 11
160.5883563325894
 21
136.1147411302076
 31
0.0
1001
GENIUS_GENODEF_13
1002
{
1000
HIER
1070
     0
1002
}
1002
{
1000
MANEDIT
1070
     0
1002
}
1002
{
1000
NOSEL
1070
     0
1002
}
1002
{
1000
BEHIND
1070
     0
1002
}
1002
{
1000
REACTOR
1002
}
1001
GENIUS_GENOBJ-N-CHA_13
1002
{
1000
OWNER
1000
GEN
1002
}
1001
GENIUS_GENFIL_13
1070
     0
1040
0.5
1040
0.5
1040
0.0
1040
0.0
1002
{
1002
}
  0
LINE
  5
39351
330
1F
100
AcDbEntity
  8
AM_11
 48
0.5
100
AcDbLine
 10
160.5883563325894
 20
136.1147411302076
 30
0.0
 11
160.3667834162946
 21
140.9096243866347
 31
0.0
  0
LINE
  5
39352
330
1F
100
AcDbEntity
  8
AM_11
 48
0.5
100
AcDbLine
 10
187.5377885360486
 20
142.1652042456381
 30
0.0
 11
187.7593614523429
 21
137.370320989211
 31
0.0
  0
LINE
  5
39353
330
1F
100
AcDbEntity
  8
AM_11
 48
0.5
100
AcDbLine
 10
179.1003314511752
 20
176.9438346267445
 30
0.0
 11
179.3334353581781
 21
176.7313227515251
 31
0.0
1001
GENIUS_GENODEF_13
1002
{
1000
HIER
1070
     0
1002
}
1002
{
1000
MANEDIT
1070
     0
1002
}
1002
{
1000
NOSEL
1070
     0
1002
}
1002
{
1000
BEHIND
1070
     0
1002
}
1002
{
1000
REACTOR
1002
}
1001
GENIUS_GENOBJ-N-CHA_13
1002
{
1000
OWNER
1000
GEN
1002
}
1001
GENIUS_GENFIL_13
1070
     0
1040
0.5
1040
0.5
1040
0.0
1040
0.0
1002
{
1002
}
  0
LINE
  5
39354
330
1F
100
AcDbEntity
  8
AM_11
 48
0.5
100
AcDbLine
 10
179.2268465548447
 20
176.7263972526607
 30
0.0
 11
179.3334353581666
 21
176.7313227515171
 31
0.0
  0
LINE
  5
39355
330
1F
100
AcDbEntity
  8
AM_11
 48
0.5
100
AcDbLine
 10
187.0152410180566
 20
142.6415907394019
 30
0.0
 11
187.5377885360486
 21
142.1652042456381
 31
0.0
1001
GENIUS_GENODEF_13
1002
{
1000
HIER
1070
     0
1002
}
1002
{
1000
MANEDIT
1070
     0
1002
}
1002
{
1000
NOSEL
1070
     0
1002
}
1002
{
1000
BEHIND
1070
     0
1002
}
1002
{
1000
REACTOR
1002
}
1001
GENIUS_GENOBJ-N-CHA_13
1002
{
1000
OWNER
1000
GEN
1002
}
1001
GENIUS_GENFIL_13
1070
     0
1040
0.5
1040
0.5
1040
0.0
1040
0.0
1002
{
1002
}
  0
LINE
  5
39356
330
1F
100
AcDbEntity
  8
AM_11
 48
0.5
100
AcDbLine
 10
160.3667834162946
 20
140.9096243866347
 30
0.0
 11
160.8431699100584
 21
141.4321719046265
 31
0.0
1001
GENIUS_GENODEF_13
1002
{
1000
HIER
1070
     0
1002
}
1002
{
1000
MANEDIT
1070
     0
1002
}
1002
{
1000
NOSEL
1070
     0
1002
}
1002
{
1000
BEHIND
1070
     0
1002
}
1002
{
1000
REACTOR
1002
}
1001
GENIUS_GENOBJ-N-CHA_13
1002
{
1000
OWNER
1000
GEN
1002
}
1001
GENIUS_GENFIL_13
1070
     0
1040
0.5
1040
0.5
1040
0.0
1040
0.0
1002
{
1002
}
  0
LINE
  5
39357
330
1F
100
AcDbEntity
  8
AM_11
 48
0.5
100
AcDbLine
 10
187.7593614523426
 20
137.370320989211
 30
0.0
 11
187.2829749585788
 21
136.847773471219
 31
0.0
1001
GENIUS_GENODEF_13
1002
{
1000
HIER
1070
     0
1002
}
1002
{
1000
MANEDIT
1070
     0
1002
}
1002
{
1000
NOSEL
1070
     0
1002
}
1002
{
1000
BEHIND
1070
     0
1002
}
1002
{
1000
REACTOR
1002
}
1001
GENIUS_GENOBJ-N-CHA_13
1002
{
1000
OWNER
1000
GEN
1002
}
1001
GENIUS_GENFIL_13
1070
     0
1040
0.5
1040
0.5
1040
0.0
1040
0.0
1002
{
1002
}
  0
LINE
  5
39358
330
1F
100
AcDbEntity
  8
AM_11
 48
0.5
100
AcDbLine
 10
161.1109038505813
 20
135.6383546364437
 30
0.0
 11
160.5883563325894
 21
136.1147411302076
 31
0.0
1001
GENIUS_GENODEF_13
1002
{
1000
HIER
1070
     0
1002
}
1002
{
1000
MANEDIT
1070
     0
1002
}
1002
{
1000
NOSEL
1070
     0
1002
}
1002
{
1000
BEHIND
1070
     0
1002
}
1002
{
1000
REACTOR
1002
}
1001
GENIUS_GENOBJ-N-CHA_13
1002
{
1000
OWNER
1000
GEN
1002
}
1001
GENIUS_GENFIL_13
1070
     0
1040
0.5
1040
0.5
1040
0.0
1040
0.0
1002
{
1002
}
  0
LINE
  5
39359
330
1F
100
AcDbEntity
  8
AM_11
 48
0.5
100
AcDbLine
 10
190.2589691049671
 20
56.19917795435736
 30
0.0
 11
191.2117420924948
 21
57.24427299034113
 31
0.0
1001
GENIUS_GENODEF_13
1002
{
1000
HIER
1070
     0
1002
}
1002
{
1000
MANEDIT
1070
     0
1002
}
1002
{
1000
NOSEL
1070
     0
1002
}
1002
{
1000
BEHIND
1070
     0
1002
}
1002
{
1000
REACTOR
1002
}
1001
GENIUS_GENOBJ-N-CHA_13
1002
{
1000
OWNER
1000
GEN
1002
}
1001
GENIUS_GENFIL_13
1070
     0
1040
1.0
1040
1.0
1040
0.0
1040
0.0
1002
{
1002
}
  0
LINE
  5
3935A
330
1F
100
AcDbEntity
  8
AM_11
 48
0.5
100
AcDbLine
 10
183.7254162468424
 20
55.89726062225145
 30
0.0
 11
190.2589691049671
 21
56.19917795435736
 31
0.0
  0
LINE
  5
3935B
330
1F
100
AcDbEntity
  8
AM_11
 48
0.5
100
AcDbLine
 10
162.5635051216802
 20
98.78794146501832
 30
0.0
 11
160.8611703476428
 21
135.6268143803764
 31
0.0
  0
LINE
  5
3935C
330
1F
100
AcDbEntity
  8
AM_11
 48
0.5
100
AcDbLine
 10
191.2117420924948
 20
57.24427299034113
 30
0.0
 11
187.5327084615181
 21
136.8593137272656
 31
0.0
  0
LINE
  5
3935D
330
1F
100
AcDbEntity
  8
AM_11
 48
0.5
100
AcDbLine
 10
170.2869987180742
 20
145.0334395375494
 30
0.0
 11
170.4329364228898
 21
141.875317737215
 31
0.0
  0
LINE
  5
3935E
330
1F
100
AcDbEntity
  8
AM_11
 48
0.5
100
AcDbLine
 10
160.5883563325894
 20
136.1147411302076
 30
0.0
 11
160.3667834162946
 21
140.9096243866347
 31
0.0
  0
LINE
  5
3935F
330
1F
100
AcDbEntity
  8
AM_11
 48
0.5
100
AcDbLine
 10
187.5377885360486
 20
142.1652042456381
 30
0.0
 11
187.7593614523426
 21
137.370320989211
 31
0.0
  0
LINE
  5
39360
330
1F
100
AcDbEntity
  8
AM_11
 48
0.5
100
AcDbLine
 10
160.3667834162946
 20
140.9096243866347
 30
0.0
 11
175.7322706845167
 21
141.6196679147516
 31
0.0
  0
LINE
  5
39361
330
1F
100
AcDbEntity
  8
AM_11
 48
0.5
100
AcDbLine
 10
185.6682484264503
 20
142.078812266507
 30
0.0
 11
187.5377885360486
 21
142.1652042456354
 31
0.0
  0
LINE
  5
39362
330
1F
100
AcDbEntity
  8
AM_11
 48
0.5
100
AcDbLine
 10
187.7593614523426
 20
137.3703209892107
 30
0.0
 11
185.6682484264503
 21
137.2736900627271
 31
0.0
  0
LINE
  5
39363
330
1F
100
AcDbEntity
  8
AM_11
 48
0.5
100
AcDbLine
 10
176.6682484264503
 20
136.8577975081006
 30
0.0
 11
160.5883563325894
 21
136.1147411302076
 31
0.0
  0
LINE
  5
39364
330
1F
100
AcDbEntity
  8
AM_11
 48
0.5
100
AcDbLine
 10
184.4833004635821
 20
56.93334979281832
 30
0.0
 11
191.2117420924948
 21
57.24427299034113
 31
0.0
  0
ELLIPSE
  5
39367
330
1F
100
AcDbEntity
  8
AM_0
100
AcDbEllipse
 10
256.8349297604516
 20
141.087000942085
 30
0.0
 11
-3.899999999999975
 21
0.0
 31
0.0
210
0.0
220
0.0
230
1.0
 40
0.1594432644410978
 41
5.826311303648918
 42
9.881651965481452
  0
ELLIPSE
  5
39368
330
1F
100
AcDbEntity
  8
AM_0
100
AcDbEllipse
 10
256.8349297604516
 20
140.7908388140361
 30
0.0
 11
-3.600000000000021
 21
0.0
 31
0.0
210
0.0
220
0.0
230
1.0
 40
0.159443264440086
 41
6.046934001198842
 42
6.193320545434339
  0
ELLIPSE
  5
39369
330
1F
100
AcDbEntity
  8
AM_0
100
AcDbEllipse
 10
256.8349297604516
 20
140.7908388140361
 30
0.0
 11
-3.600000000000021
 21
0.0
 31
0.0
210
0.0
220
0.0
230
1.0
 40
0.159443264440086
 41
9.514642722499397
 42
9.661029269163334
  0
CIRCLE
  5
3936A
330
1F
100
AcDbEntity
  8
AM_11
 48
0.58
100
AcDbCircle
 10
116.5737342003115
 20
173.5564693046106
 30
0.0
 40
4.299999999999998
  0
CIRCLE
  5
3936B
330
1F
100
AcDbEntity
  8
AM_11
 48
0.5
100
AcDbCircle
 10
174.6682484264503
 20
153.1232263698989
 30
0.0
 40
4.0
  0
DIMENSION
  5
39539
330
1F
100
AcDbEntity
  8
AM_5
100
AcDbDimension
  2
*D7
 10
265.8349297604472
 20
244.9232263699003
 30
0.0
 11
256.8349297604465
 21
248.0232263699003
 31
0.0
 70
    32
 71
     5
 42
18.00000000000125
  3
SYS$0
100
AcDbAlignedDimension
 13
247.8349297604459
 23
232.9232263699003
 33
0.0
 14
265.8349297604472
 24
232.9232263699
 34
0.0
100
AcDbRotatedDimension
  0
DIMENSION
  5
3954F
330
1F
100
AcDbEntity
  8
AM_5
100
AcDbDimension
  2
*D8
 10
274.8349297604458
 20
254.9232263699002
 30
0.0
 11
256.8349297604458
 21
258.0232263699002
 31
0.0
 70
    32
 71
     5
 42
35.99999999999989
  3
SYS$0
100
AcDbAlignedDimension
 13
238.8349297604459
 23
188.5232263699002
 33
0.0
 14
274.8349297604458
 24
188.5232263699002
 34
0.0
100
AcDbRotatedDimension
  0
DIMENSION
  5
3957B
330
1F
100
AcDbEntity
  8
AM_5
100
AcDbDimension
  2
*D9
 10
281.3349297604458
 20
264.9232263699001
 30
0.0
 11
256.8349297604458
 21
268.0232263699001
 31
0.0
 70
    32
 71
     5
 42
48.99999999999988
  3
SYS$0
100
AcDbAlignedDimension
 13
232.3349297604459
 23
186.5232263699002
 33
0.0
 14
281.3349297604458
 24
186.5232263699002
 34
0.0
100
AcDbRotatedDimension
  0
DIMENSION
  5
395A0
330
1F
100
AcDbEntity
  8
AM_5
100
AcDbDimension
  2
*D10
 10
124.386924965841
 20
244.9232273799003
 30
0.0
 11
95.13692496584098
 21
248.0232273799003
 31
0.0
 70
    32
  1
60
 71
     5
 42
58.5
  3
SYS$0
100
AcDbAlignedDimension
 13
65.88692496584099
 23
189.5232263699002
 33
0.0
 14
124.386924965841
 24
215.0232263699003
 34
0.0
100
AcDbRotatedDimension
1001
ACAD
1000
DSTYLE
1002
{
1070
    75
1070
     1
1002
}
  0
DIMENSION
  5
397C7
330
1F
100
AcDbEntity
  8
AM_5
100
AcDbDimension
  2
*D11
 10
212.8586812721695
 20
159.523226371167
 30
0.0
 11
209.7586812721695
 21
148.323226370534
 31
0.0
 70
    32
 71
     5
 42
22.40000000126605
  3
SYS$0
100
AcDbAlignedDimension
 13
229.3349297604516
 23
137.1232263699009
 33
0.0
 14
234.8349297604516
 24
159.523226371167
 34
0.0
 50
90.0
100
AcDbRotatedDimension
1001
ACAD
1000
DSTYLE
1002
{
1070
    76
1070
     1
1002
}
  0
DIMENSION
  5
39857
330
1F
100
AcDbEntity
  8
AM_5
100
AcDbDimension
  2
*D12
 10
272.4349297604517
 20
41.12322536990086
 30
0.0
 11
256.8349297604517
 21
44.22322536990086
 31
0.0
 70
    32
 71
     5
 42
31.20000000000004
  3
SYS$0
100
AcDbAlignedDimension
 13
241.2349297604517
 23
53.12322636990086
 33
0.0
 14
272.4349297604517
 24
53.12322636990086
 34
0.0
100
AcDbRotatedDimension
  0
DIMENSION
  5
3986D
330
1F
100
AcDbEntity
  8
AM_5
100
AcDbDimension
  2
*D13
 10
278.834929760452
 20
31.12322536990058
 30
0.0
 11
256.8349297604518
 21
34.22322536990058
 31
0.0
 70
    32
 71
     5
 42
44.00000000000045
  3
SYS$0
100
AcDbAlignedDimension
 13
234.8349297604516
 23
108.6232263699009
 33
0.0
 14
278.834929760452
 24
108.6232263699009
 34
0.0
100
AcDbRotatedDimension
  0
DIMENSION
  5
39883
330
1F
100
AcDbEntity
  8
AM_5
100
AcDbDimension
  2
*D14
 10
284.8349297604518
 20
21.1232253699003
 30
0.0
 11
256.8349297604517
 21
24.2232253699003
 31
0.0
 70
    32
 71
     5
 42
56.00000000000022
  3
SYS$0
100
AcDbAlignedDimension
 13
228.8349297604516
 23
113.9210723188308
 33
0.0
 14
284.8349297604518
 24
113.9210723188308
 34
0.0
100
AcDbRotatedDimension
  0
DIMENSION
  5
398D7
330
1F
100
AcDbEntity
  8
AM_5
100
AcDbDimension
  2
*D15
 10
272.4481335872415
 20
181.2670032366936
 30
0.0
 11
308.3132630937797
 21
175.0698511236142
 31
0.0
 70
   163
  1
2-<>×7.5スロット
 71
     5
 42
4.999999999999801
  3
SYS$3
100
AcDbDiametricDimension
 15
277.2217259336501
 25
179.779449503107
 35
0.0
 40
0.0
1001
ACAD
1000
DSTYLE
1002
{
1070
   173
1070
     1
1070
   342
1005
0
1070
   343
1005
A66
1070
   344
1005
3858E
1002
}
  0
LINE
  5
39983
330
1F
100
AcDbEntity
  8
AM_5
100
AcDbLine
 10
303.0515964271125
 20
164.894020286386
 30
0.0
 11
292.3349297604459
 21
164.8940202863861
 31
0.0
  0
LINE
  5
39984
330
1F
100
AcDbEntity
  8
AM_5
100
AcDbLine
 10
292.3349297604455
 20
164.8940202863861
 30
0.0
 11
279.1532651521687
 21
168.757533103507
 31
0.0
  0
MTEXT
  5
39986
330
1F
100
AcDbEntity
  8
AM_5
 62
     2
100
AcDbMText
 10
298.4432630937792
 20
168.144020286386
 30
0.0
 40
3.5
 41
0.0
 71
     5
 72
     1
  1
2-\U+22055
 73
     1
 44
1.0
1001
ACAD
1000
MTEXTBEGIN
1070
    73
1070
     1
1070
    44
1040
1.0
1070
    74
1070
     0
1000
MTEXTEND
  0
LINE
  5
39987
330
1F
100
AcDbEntity
  8
AM_5
100
AcDbLine
 10
272.4358545428219
 20
170.7263892956741
 30
0.0
 11
277.2340049780696
 21
169.3200634441262
 31
0.0
  0
INSERT
  5
39988
330
1F
100
AcDbEntity
  8
AM_5
100
AcDbBlockReference
  2
GENDOT
 10
272.4358545428219
 20
170.7263892956741
 30
0.0
 41
1.999999999999975
 42
2.000000000000009
 43
2.0
 50
343.6642714612402
  0
INSERT
  5
39989
330
1F
100
AcDbEntity
  8
AM_5
100
AcDbBlockReference
  2
GENDOT
 10
277.2340049780696
 20
169.3200634441262
 30
0.0
 41
1.999999999999975
 42
2.000000000000009
 43
2.0
 50
163.6642714612402
  0
LINE
  5
3998A
330
1F
100
AcDbEntity
  8
AM_5
100
AcDbLine
 10
303.0515964271125
 20
127.5576313016655
 30
0.0
 11
292.3349297604458
 21
127.5576313016655
 31
0.0
  0
LINE
  5
3998B
330
1F
100
AcDbEntity
  8
AM_5
100
AcDbLine
 10
292.3349297604462
 20
127.5576313016655
 30
0.0
 11
282.5066428289223
 21
134.5215878202897
 31
0.0
  0
MTEXT
  5
3998D
330
1F
100
AcDbEntity
  8
AM_5
 62
     2
100
AcDbMText
 10
298.4432630937791
 20
130.8076313016655
 30
0.0
 40
3.5
 41
0.0
 71
     5
 72
     1
  1
4-\U+22055
 73
     1
 44
1.0
1001
ACAD
1000
MTEXTBEGIN
1070
    73
1070
     1
1070
    44
1040
1.0
1070
    74
1070
     0
1000
MTEXTEND
  0
LINE
  5
3998E
330
1F
100
AcDbEntity
  8
AM_5
100
AcDbLine
 10
276.795089166857
 20
138.5685811196849
 30
0.0
 11
280.8747703540465
 21
135.6778716201169
 31
0.0
  0
INSERT
  5
3998F
330
1F
100
AcDbEntity
  8
AM_5
100
AcDbBlockReference
  2
GENDOT
 10
276.795089166857
 20
138.5685811196849
 30
0.0
 41
2.00000000000002
 42
2.0
 43
2.0
 50
324.6800403784993
  0
INSERT
  5
39990
330
1F
100
AcDbEntity
  8
AM_5
100
AcDbBlockReference
  2
GENDOT
 10
280.8747703540465
 20
135.6778716201169
 30
0.0
 41
2.000000000000016
 42
2.0
 43
2.0
 50
144.6800403784994
  0
DIMENSION
  5
39CA3
330
1F
100
AcDbEntity
  8
AM_5
100
AcDbDimension
  2
*D16
 10
212.8586812721696
 20
189.5232263699002
 30
0.0
 11
209.7586812721696
 21
176.5232263699003
 31
0.0
 70
    32
 71
     5
 42
26.0
  3
SYS$0
100
AcDbAlignedDimension
 13
235.3349297604459
 23
163.5232263699002
 33
0.0
 14
235.3349297604459
 24
189.5232263699002
 34
0.0
 50
90.0
100
AcDbRotatedDimension
1001
ACAD
1000
DSTYLE
1002
{
1070
    75
1070
     1
1002
}
  0
DIMENSION
  5
39CB9
330
1F
100
AcDbEntity
  8
AM_5
100
AcDbDimension
  2
*D17
 10
222.8586812721697
 20
183.0232263699003
 30
0.0
 11
219.7586812721696
 21
176.5232263699003
 31
0.0
 70
    32
 71
     5
 42
13.00000000000011
  3
SYS$0
100
AcDbAlignedDimension
 13
233.3349297604458
 23
170.0232263699002
 33
0.0
 14
233.3349297604458
 24
183.0232263699003
 34
0.0
 50
90.0
100
AcDbRotatedDimension
  0
DIMENSION
  5
39D15
330
1F
100
AcDbEntity
  8
AM_5
100
AcDbDimension
  2
*D18
 10
222.8586812721697
 20
170.0232263699002
 30
0.0
 11
222.8586812721697
 21
154.3906589402404
 31
0.0
 70
   160
 71
     5
 42
6.5
  3
SYS$0
100
AcDbAlignedDimension
 13
235.3349297604459
 23
163.5232263699002
 33
0.0
 14
233.3349297604458
 24
170.0232263699002
 34
0.0
 50
90.0
100
AcDbRotatedDimension
1001
ACAD
1000
DSTYLE
1002
{
1070
    75
1070
     1
1002
}
  0
TEXT
  5
39D7F
330
1F
100
AcDbEntity
  8
AM_6
100
AcDbText
 10
333.3569999999998
 20
211.5031472514672
 30
0.0
 40
3.2
  1
化粧カバーが別途設置出来ます。
 41
0.84741102
100
AcDbText
  0
DIMENSION
  5
39DF6
330
1F
100
AcDbEntity
  8
AM_5
100
AcDbDimension
  2
*D19
 10
212.8586812943174
 20
114.1232263699009
 30
0.0
 11
209.7586812943174
 21
125.6232263699009
 31
0.0
 70
    32
 71
     5
 42
23.0
  3
SYS$0
100
AcDbAlignedDimension
 13
229.3349297604516
 23
137.1232263699009
 33
0.0
 14
229.3349297604516
 24
114.1232263699009
 34
0.0
 50
90.0
100
AcDbRotatedDimension
  0
LINE
  5
39E36
330
1F
100
AcDbEntity
  8
AM_11
100
AcDbLine
 10
65.88692496584099
 20
163.5232263699002
 30
0.0
 11
65.88692496584099
 21
250.5602196946452
 31
0.0
  0
LINE
  5
39E3F
330
1F
100
AcDbEntity
  8
AM_11
100
AcDbLine
 10
65.88692496584087
 20
53.12322636990092
 30
0.0
 11
65.88692496584087
 21
29.12322636990038
 31
0.0
  0
LINE
  5
39E5E
330
1F
100
AcDbEntity
  8
AM_7
100
AcDbLine
 10
277.2349297604537
 20
152.4707983728498
 30
0.0
 11
236.3349297607235
 21
152.4708248056089
 31
0.0
1001
GENIUS_GENOBJ-N-CEN_13
1002
{
1000
OWNER
1000
GEN
1002
}
1001
GENIUS_GENODEF_13
1002
{
1000
HIER
1070
     0
1002
}
1002
{
1000
MANEDIT
1070
     0
1002
}
1002
{
1000
NOSEL
1070
     0
1002
}
1002
{
1000
BEHIND
1070
     0
1002
}
1002
{
1000
OTHER
1070
     0
1002
}
1002
{
1000
REACTOR
1002
}
1001
GENIUS_GENCEN_19
1002
{
1040
3.0
1002
}
  0
LINE
  5
39E5F
330
1F
100
AcDbEntity
  8
AM_7
100
AcDbLine
 10
238.2349297608657
 20
210.2501902311262
 30
0.0
 11
275.4349297600378
 21
210.2501902311262
 31
0.0
1001
GENIUS_GENODEF_13
1002
{
1000
HIER
1070
     0
1002
}
1002
{
1000
MANEDIT
1070
     0
1002
}
1002
{
1000
NOSEL
1070
     0
1002
}
1002
{
1000
BEHIND
1070
     0
1002
}
1002
{
1000
OTHER
1070
     0
1002
}
1002
{
1000
REACTOR
1002
}
1001
GENIUS_GENOBJ-N-CEN_13
1002
{
1000
OWNER
1000
GEN
1002
}
1001
GENIUS_GENCEN_19
1002
{
1040
3.0
1002
}
  0
LINE
  5
39E80
330
1F
100
AcDbEntity
  8
AM_11
100
AcDbLine
 10
201.8349297604515
 20
159.5232263751293
 30
0.0
 11
239.4349297608616
 21
159.5232263721007
 31
0.0
  0
LINE
  5
39E87
330
1F
100
AcDbEntity
  8
AM_11
100
AcDbLine
 10
140.9091108814559
 20
159.5232263848593
 30
0.0
 11
157.2682484264312
 21
159.5232263699003
 31
0.0
  0
LINE
  5
39E88
330
1F
100
AcDbEntity
  8
AM_11
100
AcDbLine
 10
157.6682484264503
 20
53.12322636990092
 30
0.0
 11
157.6682484264503
 21
29.12322636990038
 31
0.0
  0
LINE
  5
39EA9
330
1F
100
AcDbEntity
  8
AM_11
100
AcDbLine
 10
272.4349297609335
 20
159.5232263702006
 30
0.0
 11
306.8349297604515
 21
159.52322636822
 31
0.0
  0
LINE
  5
39EAA
330
1F
100
AcDbEntity
  8
AM_11
100
AcDbLine
 10
201.8349297604515
 20
163.5232263739777
 30
0.0
 11
239.4349297608616
 21
163.5232263721007
 31
0.0
  0
LINE
  5
39EAB
330
1F
100
AcDbEntity
  8
AM_11
100
AcDbLine
 10
272.4349297609335
 20
163.5232263702006
 30
0.0
 11
306.8349297604515
 21
163.52322636822
 31
0.0
  0
DIMENSION
  5
39F15
330
1F
100
AcDbEntity
  8
AM_5
100
AcDbDimension
  2
*D20
 10
37.12778742084662
 20
233.5232263699003
 30
0.0
 11
34.02778742084658
 21
198.5232263699002
 31
0.0
 70
    32
  1
71
 71
     5
 42
70.00000000000014
  3
SYS$0
100
AcDbAlignedDimension
 13
45.88692496584099
 23
163.5232263699002
 33
0.0
 14
105.886924965841
 24
233.5232263699003
 34
0.0
 50
90.0
100
AcDbRotatedDimension
  0
DIMENSION
  5
39F4B
330
1F
100
AcDbEntity
  8
AM_5
100
AcDbDimension
  2
*D21
 10
37.12778753280016
 20
53.12322636990092
 30
0.0
 11
34.02778753280016
 21
106.3232263699005
 31
0.0
 70
    32
 71
     5
 42
106.3999999999992
  3
SYS$0
100
AcDbAlignedDimension
 13
45.88692496584099
 23
159.5232263699002
 33
0.0
 14
65.88692496584087
 24
53.12322636990092
 34
0.0
 50
89.99999994760822
100
AcDbRotatedDimension
  0
LINE
  5
39FDC
330
1F
100
AcDbEntity
  8
AM_11
100
AcDbLine
 10
60.88692496584099
 20
159.5232263699002
 30
0.0
 11
45.88692496584099
 21
159.5232263699002
 31
0.0
  0
LINE
  5
39FDD
330
1F
100
AcDbEntity
  8
AM_11
100
AcDbLine
 10
65.88692496584099
 20
163.5232263699002
 30
0.0
 11
45.88692496584099
 21
163.5232263699002
 31
0.0
  0
DIMENSION
  5
39FDE
330
1F
100
AcDbEntity
  8
AM_5
100
AcDbDimension
  2
*D22
 10
37.12778742084657
 20
159.5232263699002
 30
0.0
 11
30.16627328549669
 21
165.2840365347156
 31
0.0
 70
   160
  1
<>～5
 71
     5
 42
4.0
  3
SYS$0
100
AcDbAlignedDimension
 13
45.88692496584099
 23
163.5232263699002
 33
0.0
 14
45.88692496584099
 24
159.5232263699002
 34
0.0
 50
90.0
100
AcDbRotatedDimension
1001
ACAD
1000
DSTYLE
1002
{
1070
   279
1070
     1
1002
}
  0
LINE
  5
3A09B
330
1F
100
AcDbEntity
  8
AM_7
 48
0.3
100
AcDbLine
 10
62.68692496584101
 20
114.1232263699009
 30
0.0
 11
70.68692496584102
 21
114.1232263699009
 31
0.0
1001
GENIUS_GENODEF_13
1002
{
1000
HIER
1070
     0
1002
}
1002
{
1000
MANEDIT
1070
     0
1002
}
1002
{
1000
NOSEL
1070
     0
1002
}
1002
{
1000
BEHIND
1070
     0
1002
}
1002
{
1000
REACTOR
1002
}
1001
GENIUS_GENOBJ-N-CEN_13
1002
{
1000
OWNER
1000
GEN
1002
}
  0
LINE
  5
3A09C
330
1F
100
AcDbEntity
  8
AM_7
100
AcDbLine
 10
73.38692496584099
 20
153.1232263699009
 30
0.0
 11
92.38692496584098
 21
153.1232263699009
 31
0.0
1001
GENIUS_GENODEF_13
1002
{
1000
HIER
1070
     0
1002
}
1002
{
1000
MANEDIT
1070
     0
1002
}
1002
{
1000
NOSEL
1070
     0
1002
}
1002
{
1000
BEHIND
1070
     0
1002
}
1002
{
1000
OTHER
1070
     0
1002
}
1002
{
1000
REACTOR
1002
}
1001
GENIUS_GENOBJ-N-CEN_13
1002
{
1000
OWNER
1000
GEN
1002
}
  0
LINE
  5
3A09D
330
1F
100
AcDbEntity
  8
AM_7
100
AcDbLine
 10
82.88692496584099
 20
162.6232263699009
 30
0.0
 11
82.88692496584099
 21
143.6232263699009
 31
0.0
1001
GENIUS_GENODEF_13
1002
{
1000
HIER
1070
     0
1002
}
1002
{
1000
MANEDIT
1070
     0
1002
}
1002
{
1000
NOSEL
1070
     0
1002
}
1002
{
1000
BEHIND
1070
     0
1002
}
1002
{
1000
OTHER
1070
     0
1002
}
1002
{
1000
REACTOR
1002
}
1001
GENIUS_GENOBJ-N-CEN_13
1002
{
1000
OWNER
1000
GEN
1002
}
  0
LINE
  5
3A09E
330
1F
100
AcDbEntity
  8
AM_7
100
AcDbLine
 10
82.88692496584156
 20
210.2501902311262
 30
0.0
 11
128.8869249658415
 21
210.2501902311262
 31
0.0
1001
GENIUS_GENODEF_13
1002
{
1000
HIER
1070
     0
1002
}
1002
{
1000
MANEDIT
1070
     0
1002
}
1002
{
1000
NOSEL
1070
     0
1002
}
1002
{
1000
BEHIND
1070
     0
1002
}
1002
{
1000
OTHER
1070
     0
1002
}
1002
{
1000
REACTOR
1002
}
1001
GENIUS_GENOBJ-N-CEN_13
1002
{
1000
OWNER
1000
GEN
1002
}
  0
LINE
  5
3A09F
330
1F
100
AcDbEntity
  8
AM_7
100
AcDbLine
 10
105.8869249658415
 20
233.2501902311262
 30
0.0
 11
105.8869249658415
 21
187.2501902311261
 31
0.0
1001
GENIUS_GENOBJ-N-CEN_13
1002
{
1000
OWNER
1000
GEN
1002
}
1001
GENIUS_GENODEF_13
1002
{
1000
HIER
1070
     0
1002
}
1002
{
1000
MANEDIT
1070
     0
1002
}
1002
{
1000
NOSEL
1070
     0
1002
}
1002
{
1000
BEHIND
1070
     0
1002
}
1002
{
1000
OTHER
1070
     0
1002
}
1002
{
1000
REACTOR
1002
}
  0
LINE
  5
3A0A0
330
1F
100
AcDbEntity
  8
AM_7
 48
0.3
100
AcDbLine
 10
62.88692496584156
 20
183.0232263699003
 30
0.0
 11
71.78692496584165
 21
183.0232263699003
 31
0.0
  0
LINE
  5
3A0A1
330
1F
100
AcDbEntity
  8
AM_7
 48
0.3
100
AcDbLine
 10
62.88692496584156
 20
170.0232263699225
 30
0.0
 11
71.78692496584165
 21
170.0232263698779
 31
0.0
1001
GENIUS_GENODEF_13
1002
{
1000
HIER
1070
     0
1002
}
1002
{
1000
MANEDIT
1070
     0
1002
}
1002
{
1000
NOSEL
1070
     0
1002
}
1002
{
1000
BEHIND
1070
     0
1002
}
1002
{
1000
REACTOR
1002
}
1001
GENIUS_GENOBJ-N-CEN_13
1002
{
1000
OWNER
1000
GEN
1002
}
  0
LINE
  5
3A0A3
330
1F
100
AcDbEntity
  8
AM_7
100
AcDbLine
 10
91.45244233496214
 20
154.4027114951408
 30
0.0
 11
110.4524423349621
 21
154.4027114951408
 31
0.0
1001
GENIUS_GENODEF_13
1002
{
1000
HIER
1070
     0
1002
}
1002
{
1000
MANEDIT
1070
     0
1002
}
1002
{
1000
NOSEL
1070
     0
1002
}
1002
{
1000
BEHIND
1070
     0
1002
}
1002
{
1000
OTHER
1070
     0
1002
}
1002
{
1000
REACTOR
1002
}
1001
GENIUS_GENOBJ-N-CEN_13
1002
{
1000
OWNER
1000
GEN
1002
}
  0
LINE
  5
3A0A4
330
1F
100
AcDbEntity
  8
AM_7
100
AcDbLine
 10
100.9524423349621
 20
163.9027114951408
 30
0.0
 11
100.9524423349621
 21
144.9027114951408
 31
0.0
1001
GENIUS_GENODEF_13
1002
{
1000
HIER
1070
     0
1002
}
1002
{
1000
MANEDIT
1070
     0
1002
}
1002
{
1000
NOSEL
1070
     0
1002
}
1002
{
1000
BEHIND
1070
     0
1002
}
1002
{
1000
OTHER
1070
     0
1002
}
1002
{
1000
REACTOR
1002
}
1001
GENIUS_GENOBJ-N-CEN_13
1002
{
1000
OWNER
1000
GEN
1002
}
  0
LINE
  5
3A0A5
330
1F
100
AcDbEntity
  8
AM_7
100
AcDbLine
 10
76.38692496584178
 20
61.12322636990092
 30
0.0
 11
95.38692496584179
 21
61.12322636990092
 31
0.0
1001
GENIUS_GENODEF_13
1002
{
1000
HIER
1070
     0
1002
}
1002
{
1000
MANEDIT
1070
     0
1002
}
1002
{
1000
NOSEL
1070
     0
1002
}
1002
{
1000
BEHIND
1070
     0
1002
}
1002
{
1000
OTHER
1070
     0
1002
}
1002
{
1000
REACTOR
1002
}
1001
GENIUS_GENOBJ-N-CEN_13
1002
{
1000
OWNER
1000
GEN
1002
}
  0
LINE
  5
3A0A6
330
1F
100
AcDbEntity
  8
AM_7
100
AcDbLine
 10
85.88692496584178
 20
70.62322636990092
 30
0.0
 11
85.88692496584178
 21
51.62322636990092
 31
0.0
1001
GENIUS_GENODEF_13
1002
{
1000
HIER
1070
     0
1002
}
1002
{
1000
MANEDIT
1070
     0
1002
}
1002
{
1000
NOSEL
1070
     0
1002
}
1002
{
1000
BEHIND
1070
     0
1002
}
1002
{
1000
OTHER
1070
     0
1002
}
1002
{
1000
REACTOR
1002
}
1001
GENIUS_GENOBJ-N-CEN_13
1002
{
1000
OWNER
1000
GEN
1002
}
  0
LINE
  5
3A0A9
330
1F
100
AcDbEntity
  8
AM_7
 48
0.3
100
AcDbLine
 10
62.68692496584101
 20
137.1232263699009
 30
0.0
 11
70.68692496584102
 21
137.1232263699009
 31
0.0
1001
GENIUS_GENODEF_13
1002
{
1000
HIER
1070
     0
1002
}
1002
{
1000
MANEDIT
1070
     0
1002
}
1002
{
1000
NOSEL
1070
     0
1002
}
1002
{
1000
BEHIND
1070
     0
1002
}
1002
{
1000
REACTOR
1002
}
1001
GENIUS_GENOBJ-N-CEN_13
1002
{
1000
OWNER
1000
GEN
1002
}
  0
LINE
  5
3A0E1
330
1F
100
AcDbEntity
  8
AM_7
 48
1.5
100
AcDbLine
 10
102.2279884504945
 20
162.3003682430092
 30
0.0
 11
84.61137885030941
 21
53.22556962203258
 31
0.0
1001
GENIUS_GENOBJ-N-CEN_13
1002
{
1000
OWNER
1000
GEN
1002
}
1001
GENIUS_GENODEF_13
1002
{
1000
HIER
1070
     0
1002
}
1002
{
1000
MANEDIT
1070
     0
1002
}
1002
{
1000
NOSEL
1070
     0
1002
}
1002
{
1000
BEHIND
1070
     0
1002
}
1002
{
1000
OTHER
1070
     0
1002
}
1002
{
1000
REACTOR
1002
}
1001
GENIUS_GENCEN_19
1002
{
1040
3.0
1002
}
  0
LINE
  5
3A1D4
330
1F
100
AcDbEntity
  8
AM_4
100
AcDbLine
 10
310.5
 20
225.1031472514676
 30
0.0
 11
408.4999999999999
 21
225.1031472514676
 31
0.0
  0
TEXT
  5
3A1D5
330
1F
100
AcDbEntity
  8
AM_6
100
AcDbText
 10
313.0707629498272
 20
219.8047208516264
 30
0.0
 40
3.2
  1
セットビス
 41
0.85537027
100
AcDbText
  0
TEXT
  5
3A1D6
330
1F
100
AcDbEntity
  8
AM_6
100
AcDbText
 10
333.3569999999999
 20
219.5031472514672
 30
0.0
 40
3.2
  1
M4×20　ナベ子ネジ　＋　：8本
 41
0.84741102
100
AcDbText
  0
CIRCLE
  5
3A1D7
330
1F
100
AcDbEntity
  8
AM_2
100
AcDbCircle
 10
371.5049157791366
 20
221.1208659655906
 30
0.0
 40
2.5
  0
ENDSEC
  0
SECTION
  2
OBJECTS
  0
DICTIONARY
  5
C
330
0
100
AcDbDictionary
281
     1
  3
ACAD_2007HEADERVARS_RT
350
3A1FF
  3
ACAD_BGPLOT_KEY
350
AB06
  3
ACAD_COLOR
350
A91D
  3
ACAD_GROUP
350
D
  3
ACAD_LAYOUT
350
1A
  3
ACAD_MATERIAL
350
A91C
  3
ACAD_MLINESTYLE
350
17
  3
ACAD_PLOTSETTINGS
350
19
  3
ACAD_PLOTSTYLENAME
350
E
  3
ACAD_TABLESTYLE
350
AAB9
  3
ACAD_VISUALSTYLE
350
B0F1
  3
AcAsAppObject
350
3DA1
  3
ACASGREF_MASTER
350
3DE9
  3
AcDbVariableDictionary
350
34
  3
AcmDictionary
350
47
  3
AD_GREF_MODULE
350
3DEA
  3
AD_MAPI_MODULE
350
3E06
  3
AMG
350
2B
  3
AMGSNAPSETTINGS
350
7D
  3
ASE_INDEX_DICTIONARY
350
B331
  3
DWGPROPS
350
3A1FE
  3
MAPISURF_MODULE
350
3DEB
  0
DICTIONARY
  5
3F95
330
2
100
AcDbDictionary
280
     1
281
     1
  3
ACAD_LAYERFILTERS
360
B466
  3
ACAD_LAYERSTATES
360
3F96
  3
ACLYDICTIONARY
360
B465
  3
AMLAYER_GROUPCOLORS
360
AAB4
  0
DICTIONARY
  5
38801
330
38800
100
AcDbDictionary
280
     1
281
     1
  3
ADSK_XREC_LAYER_RECONCILED
360
38802
  0
DICTIONARY
  5
38804
330
38803
100
AcDbDictionary
280
     1
281
     1
  3
ADSK_XREC_LAYER_RECONCILED
360
38805
  0
DICTIONARY
  5
8A
330
1F
100
AcDbDictionary
280
     1
281
     1
  3
ACAD_SORTENTS
360
B1BA
  0
DICTIONARY
  5
3A1FF
102
{ACAD_REACTORS
330
C
102
}
330
C
100
AcDbDictionary
281
     1
  3
DIMARCSYM
350
3A200
  0
DICTIONARY
  5
AB06
102
{ACAD_REACTORS
330
C
102
}
330
C
100
AcDbDictionary
280
     1
281
     1
  0
DICTIONARY
  5
A91D
102
{ACAD_REACTORS
330
C
102
}
330
C
100
AcDbDictionary
281
     1
  0
DICTIONARY
  5
D
102
{ACAD_REACTORS
330
C
102
}
330
C
100
AcDbDictionary
281
     1
  0
DICTIONARY
  5
1A
102
{ACAD_REACTORS
330
C
102
}
330
C
100
AcDbDictionary
281
     1
  3
Model
350
22
  3
ﾚｲｱｳﾄ1
350
1E
  3
ﾚｲｱｳﾄ2
350
26
  0
DICTIONARY
  5
A91C
102
{ACAD_REACTORS
330
C
102
}
330
C
100
AcDbDictionary
281
     1
  3
ByBlock
350
B0EF
  3
ByLayer
350
B0EE
  3
Global
350
B0F0
  0
DICTIONARY
  5
17
102
{ACAD_REACTORS
330
C
102
}
330
C
100
AcDbDictionary
281
     1
  3
Standard
350
18
  0
DICTIONARY
  5
19
102
{ACAD_REACTORS
330
C
102
}
330
C
100
AcDbDictionary
281
     1
  0
ACDBDICTIONARYWDFLT
  5
E
102
{ACAD_REACTORS
330
C
102
}
330
C
100
AcDbDictionary
281
     1
  3
Normal
350
F
100
AcDbDictionaryWithDefault
340
F
  0
DICTIONARY
  5
AAB9
102
{ACAD_REACTORS
330
C
102
}
330
C
100
AcDbDictionary
281
     1
  3
Standard
350
AABA
  0
DICTIONARY
  5
B0F1
102
{ACAD_REACTORS
330
C
102
}
330
C
100
AcDbDictionary
281
     1
  3
2dWireframe
350
B0F7
  3
3D Hidden
350
B0F9
  3
3dWireframe
350
B0F8
  3
Basic
350
B0F6
  3
Brighten
350
B0FD
  3
ColorChange
350
B101
  3
Conceptual
350
B0FA
  3
Dim
350
B0FC
  3
Facepattern
350
B100
  3
Flat
350
B0F2
  3
FlatWithEdges
350
B0F3
  3
Gouraud
350
B0F4
  3
GouraudWithEdges
350
B0F5
  3
Linepattern
350
B0FF
  3
Realistic
350
B0FB
  3
Thicken
350
B0FE
  0
ACAD_PROXY_OBJECT
  5
3DA1
102
{ACAD_REACTORS
330
C
102
}
330
C
100
AcDbProxyObject
 90
      499
 91
      576
 95
   917527
 70
     0
 93
       10
310
407F
 94
        0
1001
ACAD
1000
AcRTDxfName
1000
ASAPP
  0
ACAD_PROXY_OBJECT
  5
3DE9
102
{ACAD_REACTORS
330
C
102
}
330
C
100
AcDbProxyObject
 90
      499
 91
      581
 95
   917527
 70
     0
 93
       34
310
010000407F
 94
        0
1001
ACAD
1000
AcRTDxfName
1000
ACASGREFMASTER
  0
DICTIONARY
  5
34
102
{ACAD_REACTORS
330
C
102
}
330
C
100
AcDbDictionary
281
     1
  3
CTABLESTYLE
350
AAF3
  3
DIMASSOC
350
A10C
  3
FIELDEVAL
350
AB07
  3
INDEXCTL
350
35
  3
SORTENTS
350
194C
  0
DICTIONARY
  5
47
102
{ACAD_REACTORS
330
C
102
}
330
C
100
AcDbDictionary
281
     1
  3
AcmBOM
350
7E8
  3
AcmStdDictionary
350
4C
  3
AMDTSECTSYM_ARROWCOLOR
350
A929
  0
ACAD_PROXY_OBJECT
  5
3DEA
102
{ACAD_REACTORS
330
C
102
}
330
C
100
AcDbProxyObject
 90
      499
 91
      582
 95
   917527
 70
     0
 93
      114
310
00000043800000000000000000003F
 94
        0
1001
ACAD
1000
AcRTDxfName
1000
ACADGREFMODULE
  0
ACAD_PROXY_OBJECT
  5
3E06
102
{ACAD_REACTORS
330
C
102
}
330
C
100
AcDbProxyObject
 90
      499
 91
      594
 95
   917527
 70
     0
 93
       34
310
05000044FF
 94
        0
1001
ACAD
1000
AcRTDxfName
1000
MAPIADMODULE
  0
DICTIONARY
  5
2B
102
{ACAD_REACTORS
330
C
102
}
330
C
100
AcDbDictionary
281
     1
  0
DICTIONARY
  5
7D
102
{ACAD_REACTORS
330
C
102
}
330
C
100
AcDbDictionary
281
     1
  0
DICTIONARY
  5
B331
102
{ACAD_REACTORS
330
C
102
}
330
C
100
AcDbDictionary
281
     1
  3
ASEBlockHierarchyIndexRecord
350
B332
1001
DCO15
1040
1594111214.218
  0
XRECORD
  5
3A1FE
102
{ACAD_REACTORS
330
C
102
}
330
C
100
AcDbXrecord
280
     1
  1
DWGPROPS COOKIE
  2

  3

  4

  6

  7

  8
Administrator
  9

300
AmdtFileType=84
301
=
302
=
303
=
304
=
305
=
306
=
307
=
308
=
309
=
 40
0.9391826041666666
 41
2456027.598682176
 42
2456267.729928195
  1

 90
        1
  0
ACAD_PROXY_OBJECT
  5
3DEB
102
{ACAD_REACTORS
330
C
102
}
330
C
100
AcDbProxyObject
 90
      499
 91
      583
 95
   917527
 70
     0
 93
        8
310
047E
 94
        0
1001
ACAD
1000
AcRTDxfName
1000
AMDTMAPISURFMOUDULE
  0
DICTIONARY
  5
B466
102
{ACAD_REACTORS
330
3F95
102
}
330
3F95
100
AcDbDictionary
281
     1
  0
DICTIONARY
  5
3F96
102
{ACAD_REACTORS
330
3F95
102
}
330
3F95
100
AcDbDictionary
281
     1
  3
20011210
350
3FB7
  0
DICTIONARY
  5
B465
102
{ACAD_REACTORS
330
3F95
102
}
330
3F95
100
AcDbDictionary
281
     1
1001
ACAD
1000
<All
  0
DICTIONARY
  5
AAB4
102
{ACAD_REACTORS
330
3F95
102
}
330
3F95
100
AcDbDictionary
280
     1
281
     1
  0
XRECORD
  5
38802
102
{ACAD_REACTORS
330
38801
102
}
330
38801
100
AcDbXrecord
280
     1
290
     1
  0
XRECORD
  5
38805
102
{ACAD_REACTORS
330
38804
102
}
330
38804
100
AcDbXrecord
280
     1
290
     1
  0
SORTENTSTABLE
  5
B1BA
102
{ACAD_REACTORS
330
8A
102
}
330
8A
100
AcDbSortentsTable
330
1F
331
37F2D
  5
37F1D
331
3930D
  5
39310
331
3934C
  5
3934F
331
39315
  5
39318
331
39354
  5
39357
331
3931D
  5
39320
331
3935C
  5
3935F
331
3957B
  5
39766
331
39364
  5
39369
331
3998D
  5
39988
331
25143
  5
25143
331
39325
  5
39328
331
3932D
  5
39330
331
392FE
  5
39301
331
39335
  5
39338
331
39306
  5
39309
331
37F2E
  5
37F2D
331
3930E
  5
39311
331
3934D
  5
39350
331
39316
  5
39319
331
39355
  5
39358
331
3931E
  5
39321
331
3935D
  5
39360
331
39D15
  5
39DF6
331
39986
  5
3998F
331
3998E
  5
39989
331
25144
  5
25144
331
39326
  5
39329
331
3932E
  5
39331
331
392FF
  5
39302
331
39336
  5
39339
331
39307
  5
3930A
331
39883
  5
39985
331
37F2F
  5
37F2E
331
3930F
  5
39312
331
3934E
  5
39351
331
39317
  5
3931A
331
39356
  5
39359
331
3931F
  5
39322
331
3935E
  5
39361
331
39987
  5
39990
331
3998F
  5
3998A
331
39DF6
  5
39E3F
331
25145
  5
25145
331
39327
  5
3932A
331
3932F
  5
39332
331
39300
  5
39303
331
39337
  5
3933A
331
39E36
  5
39E5F
331
39308
  5
3930B
331
39310
  5
39313
331
3934F
  5
39352
331
39318
  5
3931B
331
39357
  5
3935A
331
3935F
  5
39362
331
39367
  5
3936A
331
39E5E
  5
39E87
331
39988
  5
39CA3
331
39990
  5
3998C
331
39D7F
  5
39E35
331
25146
  5
25146
331
39320
  5
39323
331
39328
  5
3932B
331
39330
  5
39333
331
3986D
  5
39983
331
39301
  5
39304
331
39338
  5
3933B
331
3954F
  5
3973E
331
39E3F
  5
39E7F
331
16B8B
  5
16B7B
331
39309
  5
3930C
331
39311
  5
39314
331
39350
  5
39353
331
39319
  5
3931C
331
39358
  5
3935B
331
39360
  5
39363
331
39E5F
  5
39E88
331
39E87
  5
39EA7
331
39989
  5
39CB9
331
37F31
  5
37F30
331
39321
  5
39324
331
39368
  5
3936B
331
39329
  5
3932C
331
39331
  5
39334
331
39302
  5
39305
331
39339
  5
39349
331
397C7
  5
3986D
331
39CB9
  5
39DA4
331
16B8C
  5
16B8B
331
3930A
  5
3930D
331
39349
  5
3934C
331
39312
  5
39315
331
39351
  5
39354
331
3931A
  5
3931D
331
39359
  5
3935C
331
39361
  5
39364
331
39857
  5
398D7
331
39E80
  5
392FE
331
39E88
  5
39EA8
331
3998A
  5
39986
331
39322
  5
39325
331
39369
  5
39539
331
3932A
  5
3932D
331
39539
  5
395A0
331
395A0
  5
397C7
331
39332
  5
39335
331
39303
  5
39306
331
3933A
  5
3934A
331
16B8D
  5
16B8C
331
3930B
  5
3930E
331
3934A
  5
3934D
331
39313
  5
39316
331
39352
  5
39355
331
3931B
  5
3931E
331
3935A
  5
3935D
331
398D7
  5
39D15
331
39362
  5
39367
331
39983
  5
3998D
331
3998B
  5
39987
331
39EA9
  5
39300
331
25141
  5
25141
331
39323
  5
39326
331
3936A
  5
3954F
331
3932B
  5
3932E
331
39333
  5
39336
331
39304
  5
39307
331
3933B
  5
3934B
331
39CA3
  5
39D7F
331
16B8E
  5
16B8D
331
3930C
  5
3930F
331
3934B
  5
3934E
331
39314
  5
39317
331
39353
  5
39356
331
3931C
  5
3931F
331
3935B
  5
3935E
331
39363
  5
39368
331
39984
  5
3998E
331
25142
  5
25142
331
39324
  5
39327
331
3936B
  5
3957B
331
3932C
  5
3932F
331
39334
  5
39337
331
39305
  5
39308
  0
XRECORD
  5
3A200
102
{ACAD_REACTORS
330
3A1FF
102
}
330
3A1FF
100
AcDbXrecord
280
     1
 70
     1
  0
LAYOUT
  5
22
102
{ACAD_XDICTIONARY
360
3A203
102
}
102
{ACAD_REACTORS
330
1A
102
}
330
1A
100
AcDbPlotSettings
  1

  2
Adobe PDF
  4
A3
  6
AM_VIEW1
 40
3.174999952316284
 41
3.174999952316284
 42
3.17498779296875
 43
3.17498779296875
 44
297.0318298339844
 45
420.1583251953125
 46
-3.172249265591574
 47
-3.101493801955996
 48
214.3704939521119
 49
367.5855324241176
140
275.6727856380065
141
407.629191407817
142
1.0
143
1.0
 70
  3748
 72
     1
 73
     1
 74
     1
  7
monochrome.ctb
 75
     0
147
0.9786399464844011
148
0.0070329181189663
149
0.0167091354392142
100
AcDbLayout
  1
Model
 70
     1
 71
     0
 10
0.0
 20
0.0
 11
12.0
 21
9.0
 12
0.0
 22
0.0
 32
0.0
 14
0.0
 24
0.0
 34
0.0
 15
0.0
 25
0.0
 35
0.0
146
0.0
 13
0.0
 23
0.0
 33
0.0
 16
1.0
 26
0.0
 36
0.0
 17
0.0
 27
1.0
 37
0.0
 76
     0
330
1F
331
B0EC
1001
ACAD_PSEXT
1000
Adobe PDF
1000
Adobe PDF Converter
1000
My Documents\*.pdf
1000

1070
     0
  0
LAYOUT
  5
1E
102
{ACAD_XDICTIONARY
360
3A201
102
}
102
{ACAD_REACTORS
330
1A
102
}
330
1A
100
AcDbPlotSettings
  1

  2
\\ML370\XEROX
  4
A4
  6

 40
3.174999952316284
 41
3.174999952316284
 42
3.175003051757812
 43
3.17498779296875
 44
209.8674926757813
 45
296.6719970703125
 46
0.0
 47
0.0
 48
0.0
 49
0.0
140
0.0
141
0.0
142
1.0
143
1.0
 70
   688
 72
     1
 73
     1
 74
     5
  7
monochrome.ctb
 75
    16
147
1.0
148
0.0
149
0.0
100
AcDbLayout
  1
ﾚｲｱｳﾄ1
 70
     1
 71
     1
 10
-3.17498779296875
 20
-3.174999952316284
 11
293.4970092773438
 21
206.692492723465
 12
0.0
 22
0.0
 32
0.0
 14
1.000000000000000E+20
 24
1.000000000000000E+20
 34
1.000000000000000E+20
 15
-1.000000000000000E+20
 25
-1.000000000000000E+20
 35
-1.000000000000000E+20
146
0.0
 13
0.0
 23
0.0
 33
0.0
 16
1.0
 26
0.0
 36
0.0
 17
0.0
 27
1.0
 37
0.0
 76
     0
330
1B
  0
LAYOUT
  5
26
102
{ACAD_XDICTIONARY
360
3A205
102
}
102
{ACAD_REACTORS
330
1A
102
}
330
1A
100
AcDbPlotSettings
  1

  2
\\ML370\XEROX
  4

  6

 40
0.0
 41
0.0
 42
0.0
 43
0.0
 44
0.0
 45
0.0
 46
0.0
 47
0.0
 48
0.0
 49
0.0
140
0.0
141
0.0
142
1.0
143
1.0
 70
   688
 72
     0
 73
     0
 74
     5
  7
monochrome.ctb
 75
    16
147
1.0
148
0.0
149
0.0
100
AcDbLayout
  1
ﾚｲｱｳﾄ2
 70
     1
 71
     2
 10
0.0
 20
0.0
 11
12.0
 21
9.0
 12
0.0
 22
0.0
 32
0.0
 14
0.0
 24
0.0
 34
0.0
 15
0.0
 25
0.0
 35
0.0
146
0.0
 13
0.0
 23
0.0
 33
0.0
 16
1.0
 26
0.0
 36
0.0
 17
0.0
 27
1.0
 37
0.0
 76
     0
330
23
  0
MATERIAL
  5
B0EF
102
{ACAD_XDICTIONARY
360
3A20B
102
}
102
{ACAD_REACTORS
330
A91C
102
}
330
A91C
100
AcDbMaterial
  1
ByBlock
  0
MATERIAL
  5
B0EE
102
{ACAD_XDICTIONARY
360
3A209
102
}
102
{ACAD_REACTORS
330
A91C
102
}
330
A91C
100
AcDbMaterial
  1
ByLayer
  0
MATERIAL
  5
B0F0
102
{ACAD_XDICTIONARY
360
3A20D
102
}
102
{ACAD_REACTORS
330
A91C
102
}
330
A91C
100
AcDbMaterial
  1
Global
  0
MLINESTYLE
  5
18
102
{ACAD_REACTORS
330
17
102
}
330
17
100
AcDbMlineStyle
  2
STANDARD
 70
     0
  3

 62
   256
 51
90.0
 52
90.0
 71
     2
 49
0.5
 62
   256
  6
BYLAYER
 49
-0.5
 62
   256
  6
BYLAYER
  0
ACDBPLACEHOLDER
  5
F
102
{ACAD_REACTORS
330
E
102
}
330
E
  0
TABLESTYLE
  5
AABA
102
{ACAD_XDICTIONARY
360
3A207
102
}
102
{ACAD_REACTORS
330
AAB9
102
}
330
AAB9
100
AcDbTableStyle
  3
Standard
 70
     0
 71
     0
 40
1.5
 41
1.5
280
     0
281
     0
  7
STANDARD
140
4.5
170
     2
 62
     0
 63
     7
283
     0
274
    -2
284
     1
 64
     0
275
    -2
285
     1
 65
     0
276
    -2
286
     1
 66
     0
277
    -2
287
     1
 67
     0
278
    -2
288
     1
 68
     0
279
    -2
289
     1
 69
     0
  7
STANDARD
140
6.0
170
     5
 62
     0
 63
     7
283
     0
274
    -2
284
     1
 64
     0
275
    -2
285
     1
 65
     0
276
    -2
286
     1
 66
     0
277
    -2
287
     1
 67
     0
278
    -2
288
     1
 68
     0
279
    -2
289
     1
 69
     0
  7
STANDARD
140
4.5
170
     5
 62
     0
 63
     7
283
     0
274
    -2
284
     1
 64
     0
275
    -2
285
     1
 65
     0
276
    -2
286
     1
 66
     0
277
    -2
287
     1
 67
     0
278
    -2
288
     1
 68
     0
279
    -2
289
     1
 69
     0
  0
VISUALSTYLE
  5
B0F7
102
{ACAD_REACTORS
330
B0F1
102
}
330
B0F1
100
AcDbVisualStyle
  2
2dWireframe
 70
     4
 71
     0
 72
     2
 73
     0
 90
        0
 40
-0.6
 41
-30.0
 62
     5
 63
     7
 74
     1
 91
        4
 64
     7
 65
   257
 75
     1
175
     1
 42
1.0
 92
        0
 66
   257
 43
1.0
 76
     1
 77
     6
 78
     2
 67
     7
 79
     5
170
     0
171
     0
290
     0
174
     0
 93
        1
 44
0.0
173
     0
291
     0
 45
0.0
1001
ACAD
1000
AcDbSavedByObjectVersion
1070
     0
  0
VISUALSTYLE
  5
B0F9
102
{ACAD_REACTORS
330
B0F1
102
}
330
B0F1
100
AcDbVisualStyle
  2
3D Hidden
 70
     6
 71
     1
 72
     2
 73
     2
 90
        0
 40
-0.6
 41
-30.0
 62
     5
 63
     7
 74
     2
 91
        2
 64
     7
 65
   257
 75
     2
175
     1
 42
40.0
 92
        0
 66
   257
 43
1.0
 76
     1
 77
     6
 78
     2
 67
     7
 79
     3
170
     0
171
     0
290
     0
174
     0
 93
        1
 44
0.0
173
     0
291
     0
 45
0.0
1001
ACAD
1000
AcDbSavedByObjectVersion
1070
     0
  0
VISUALSTYLE
  5
B0F8
102
{ACAD_REACTORS
330
B0F1
102
}
330
B0F1
100
AcDbVisualStyle
  2
3dWireframe
 70
     5
 71
     0
 72
     2
 73
     0
 90
        0
 40
-0.6
 41
-30.0
 62
     5
 63
     7
 74
     1
 91
        4
 64
     7
 65
   257
 75
     1
175
     1
 42
1.0
 92
        0
 66
   257
 43
1.0
 76
     1
 77
     6
 78
     2
 67
     7
 79
     5
170
     0
171
     0
290
     0
174
     0
 93
        1
 44
0.0
173
     0
291
     0
 45
0.0
1001
ACAD
1000
AcDbSavedByObjectVersion
1070
     0
  0
VISUALSTYLE
  5
B0F6
102
{ACAD_REACTORS
330
B0F1
102
}
330
B0F1
100
AcDbVisualStyle
  2
Basic
 70
     7
 71
     1
 72
     0
 73
     1
 90
        0
 40
-0.6
 41
-30.0
 62
     5
 63
     7
 74
     0
 91
        4
 64
     7
 65
   257
 75
     1
175
     1
 42
1.0
 92
        8
 66
     7
 43
1.0
 76
     1
 77
     6
 78
     2
 67
     7
 79
     5
170
     0
171
     0
290
     0
174
     0
 93
        1
 44
0.0
173
     0
291
     1
 45
0.0
1001
ACAD
1000
AcDbSavedByObjectVersion
1070
     0
  0
VISUALSTYLE
  5
B0FD
102
{ACAD_REACTORS
330
B0F1
102
}
330
B0F1
100
AcDbVisualStyle
  2
Brighten
 70
    12
 71
     2
 72
     2
 73
     0
 90
        0
 40
-0.6
 41
-30.0
 62
     5
 63
     7
 74
     1
 91
        4
 64
     7
 65
   257
 75
     1
175
     1
 42
1.0
 92
        8
 66
     7
 43
1.0
 76
     1
 77
     6
 78
     2
 67
     7
 79
     5
170
     0
171
     0
290
     0
174
     0
 93
        1
 44
50.0
173
     0
291
     1
 45
0.0
1001
ACAD
1000
AcDbSavedByObjectVersion
1070
     0
  0
VISUALSTYLE
  5
B101
102
{ACAD_REACTORS
330
B0F1
102
}
330
B0F1
100
AcDbVisualStyle
  2
ColorChange
 70
    16
 71
     2
 72
     2
 73
     3
 90
        0
 40
-0.6
 41
-30.0
 62
     5
 63
     8
 74
     1
 91
        4
 64
     7
 65
   257
 75
     1
175
     1
 42
1.0
 92
        8
 66
     8
 43
1.0
 76
     1
 77
     6
 78
     2
 67
     7
 79
     5
170
     0
171
     0
290
     0
174
     0
 93
        1
 44
0.0
173
     0
291
     1
 45
0.0
1001
ACAD
1000
AcDbSavedByObjectVersion
1070
     0
  0
VISUALSTYLE
  5
B0FA
102
{ACAD_REACTORS
330
B0F1
102
}
330
B0F1
100
AcDbVisualStyle
  2
Conceptual
 70
     9
 71
     3
 72
     2
 73
     0
 90
        0
 40
-0.6
 41
-30.0
 62
     5
 63
     7
 74
     2
 91
        2
 64
     7
 65
   257
 75
     1
175
     1
 42
40.0
 92
        8
 66
     7
 43
1.0
 76
     1
 77
     6
 78
     2
 67
     7
 79
     3
170
     0
171
     0
290
     0
174
     0
 93
        1
 44
0.0
173
     0
291
     0
 45
0.0
1001
ACAD
1000
AcDbSavedByObjectVersion
1070
     0
  0
VISUALSTYLE
  5
B0FC
102
{ACAD_REACTORS
330
B0F1
102
}
330
B0F1
100
AcDbVisualStyle
  2
Dim
 70
    11
 71
     2
 72
     2
 73
     0
 90
        0
 40
-0.6
 41
-30.0
 62
     5
 63
     7
 74
     1
 91
        4
 64
     7
 65
   257
 75
     1
175
     1
 42
1.0
 92
        8
 66
     7
 43
1.0
 76
     1
 77
     6
 78
     2
 67
     7
 79
     5
170
     0
171
     0
290
     0
174
     0
 93
        1
 44
-50.0
173
     0
291
     1
 45
0.0
1001
ACAD
1000
AcDbSavedByObjectVersion
1070
     0
  0
VISUALSTYLE
  5
B100
102
{ACAD_REACTORS
330
B0F1
102
}
330
B0F1
100
AcDbVisualStyle
  2
Facepattern
 70
    15
 71
     2
 72
     2
 73
     0
 90
        0
 40
-0.6
 41
-30.0
 62
     5
 63
     7
 74
     1
 91
        4
 64
     7
 65
   257
 75
     1
175
     1
 42
1.0
 92
        8
 66
     7
 43
1.0
 76
     1
 77
     6
 78
     2
 67
     7
 79
     5
170
     0
171
     0
290
     0
174
     0
 93
        1
 44
0.0
173
     0
291
     1
 45
0.0
1001
ACAD
1000
AcDbSavedByObjectVersion
1070
     0
  0
VISUALSTYLE
  5
B0F2
102
{ACAD_REACTORS
330
B0F1
102
}
330
B0F1
100
AcDbVisualStyle
  2
Flat
 70
     0
 71
     2
 72
     1
 73
     1
 90
        2
 40
-0.6
 41
30.0
 62
     5
 63
     7
 74
     0
 91
        4
 64
     7
 65
   257
 75
     1
175
     1
 42
1.0
 92
        8
 66
     7
 43
1.0
 76
     1
 77
     6
 78
     2
 67
     7
 79
     5
170
     0
171
     0
290
     0
174
     0
 93
       13
 44
0.0
173
     0
291
     1
 45
0.0
1001
ACAD
1000
AcDbSavedByObjectVersion
1070
     0
  0
VISUALSTYLE
  5
B0F3
102
{ACAD_REACTORS
330
B0F1
102
}
330
B0F1
100
AcDbVisualStyle
  2
FlatWithEdges
 70
     1
 71
     2
 72
     1
 73
     1
 90
        2
 40
-0.6
 41
30.0
 62
     5
 63
     7
 74
     1
 91
        4
 64
     7
 65
   257
 75
     1
175
     1
 42
1.0
 92
        0
 66
   257
 43
1.0
 76
     1
 77
     6
 78
     2
 67
     7
 79
     5
170
     0
171
     0
290
     0
174
     0
 93
       13
 44
0.0
173
     0
291
     1
 45
0.0
1001
ACAD
1000
AcDbSavedByObjectVersion
1070
     0
  0
VISUALSTYLE
  5
B0F4
102
{ACAD_REACTORS
330
B0F1
102
}
330
B0F1
100
AcDbVisualStyle
  2
Gouraud
 70
     2
 71
     2
 72
     2
 73
     1
 90
        2
 40
-0.6
 41
30.0
 62
     5
 63
     7
 74
     0
 91
        4
 64
     7
 65
   257
 75
     1
175
     1
 42
1.0
 92
        0
 66
     7
 43
1.0
 76
     1
 77
     6
 78
     2
 67
     7
 79
     5
170
     0
171
     0
290
     0
174
     0
 93
       13
 44
0.0
173
     0
291
     1
 45
0.0
1001
ACAD
1000
AcDbSavedByObjectVersion
1070
     0
  0
VISUALSTYLE
  5
B0F5
102
{ACAD_REACTORS
330
B0F1
102
}
330
B0F1
100
AcDbVisualStyle
  2
GouraudWithEdges
 70
     3
 71
     2
 72
     2
 73
     1
 90
        2
 40
-0.6
 41
30.0
 62
     5
 63
     7
 74
     1
 91
        4
 64
     7
 65
   257
 75
     1
175
     1
 42
1.0
 92
        0
 66
   257
 43
1.0
 76
     1
 77
     6
 78
     2
 67
     7
 79
     5
170
     0
171
     0
290
     0
174
     0
 93
       13
 44
0.0
173
     0
291
     1
 45
0.0
1001
ACAD
1000
AcDbSavedByObjectVersion
1070
     0
  0
VISUALSTYLE
  5
B0FF
102
{ACAD_REACTORS
330
B0F1
102
}
330
B0F1
100
AcDbVisualStyle
  2
Linepattern
 70
    14
 71
     2
 72
     2
 73
     0
 90
        0
 40
-0.6
 41
-30.0
 62
     5
 63
     7
 74
     1
 91
        4
 64
     7
 65
   257
 75
     7
175
     7
 42
1.0
 92
        8
 66
     7
 43
1.0
 76
     1
 77
     6
 78
     2
 67
     7
 79
     5
170
     0
171
     0
290
     0
174
     0
 93
        1
 44
0.0
173
     0
291
     1
 45
0.0
1001
ACAD
1000
AcDbSavedByObjectVersion
1070
     0
  0
VISUALSTYLE
  5
B0FB
102
{ACAD_REACTORS
330
B0F1
102
}
330
B0F1
100
AcDbVisualStyle
  2
Realistic
 70
     8
 71
     2
 72
     2
 73
     0
 90
        0
 40
-0.6
 41
-30.0
 62
     5
 63
     7
 74
     1
 91
        0
 64
     7
 65
   257
 75
     1
175
     1
 42
1.0
 92
        8
 66
     8
 43
1.0
 76
     1
 77
     6
 78
     2
 67
     7
 79
     5
170
     0
171
     0
290
     0
174
     0
 93
       13
 44
0.0
173
     0
291
     0
 45
0.0
1001
ACAD
1000
AcDbSavedByObjectVersion
1070
     0
  0
VISUALSTYLE
  5
B0FE
102
{ACAD_REACTORS
330
B0F1
102
}
330
B0F1
100
AcDbVisualStyle
  2
Thicken
 70
    13
 71
     2
 72
     2
 73
     0
 90
        0
 40
-0.6
 41
-30.0
 62
     5
 63
     7
 74
     1
 91
        4
 64
     7
 65
   257
 75
     1
175
     1
 42
1.0
 92
       12
 66
     7
 43
1.0
 76
     1
 77
     6
 78
     2
 67
     7
 79
     5
170
     0
171
     0
290
     0
174
     0
 93
        1
 44
0.0
173
     0
291
     1
 45
0.0
1001
ACAD
1000
AcDbSavedByObjectVersion
1070
     0
  0
DICTIONARYVAR
  5
AAF3
102
{ACAD_REACTORS
330
34
102
}
330
34
100
DictionaryVariables
280
     0
  1
STANDARD
  0
DICTIONARYVAR
  5
A10C
102
{ACAD_REACTORS
330
34
102
}
330
34
100
DictionaryVariables
280
     0
  1
1
  0
DICTIONARYVAR
  5
AB07
102
{ACAD_REACTORS
330
34
102
}
330
34
100
DictionaryVariables
280
     0
  1
4
  0
DICTIONARYVAR
  5
35
102
{ACAD_REACTORS
330
34
102
}
330
34
100
DictionaryVariables
280
     0
  1
0
  0
DICTIONARYVAR
  5
194C
102
{ACAD_REACTORS
330
34
102
}
330
34
100
DictionaryVariables
280
     0
  1
96
  0
DICTIONARY
  5
7E8
102
{ACAD_REACTORS
330
47
102
}
330
47
100
AcDbDictionary
281
     1
  0
DICTIONARY
  5
4C
102
{ACAD_REACTORS
330
47
102
}
330
47
100
AcDbDictionary
281
     1
  0
XRECORD
  5
A929
102
{ACAD_REACTORS
330
47
102
}
330
47
100
AcDbXrecord
280
     1
 90
-1023410169
  0
XRECORD
  5
B332
102
{ACAD_REACTORS
330
B331
102
}
330
B331
100
AcDbXrecord
280
     1
  0
XRECORD
  5
3FB7
102
{ACAD_REACTORS
330
3F96
102
}
330
3F96
100
AcDbXrecord
280
     1
 91
        3
330
0
 90
        8
 62
     7
370
    40
331
16
  1
Color_7
330
0
 90
        0
 62
    14
370
    -3
331
16
  1
Color_14
330
0
 90
        8
 62
     7
370
    20
331
16
  1
Color_7
330
6D1
 90
        0
 62
     7
370
    -3
331
16
  1
Color_7
330
0
 90
        8
 62
     7
370
    50
331
16
  1
Color_7
330
0
 90
        8
 62
     2
370
    35
331
16
  1
Color_2
330
0
 90
        8
 62
     7
370
    -3
331
16
  1
Color_7
330
10
 90
        8
 62
     7
370
    -3
331
16
  1
Color_7
  0
DICTIONARY
  5
3A203
330
22
100
AcDbDictionary
280
     1
281
     1
  3
ACAD_XREC_ROUNDTRIP
360
3A204
  0
DICTIONARY
  5
3A201
330
1E
100
AcDbDictionary
280
     1
281
     1
  3
ACAD_XREC_ROUNDTRIP
360
3A202
  0
DICTIONARY
  5
3A205
330
26
100
AcDbDictionary
280
     1
281
     1
  3
ACAD_XREC_ROUNDTRIP
360
3A206
  0
DICTIONARY
  5
3A20B
330
B0EF
100
AcDbDictionary
280
     1
281
     1
  3
ACAD_XREC_ROUNDTRIP
360
3A20C
  0
DICTIONARY
  5
3A209
330
B0EE
100
AcDbDictionary
280
     1
281
     1
  3
ACAD_XREC_ROUNDTRIP
360
3A20A
  0
DICTIONARY
  5
3A20D
330
B0F0
100
AcDbDictionary
280
     1
281
     1
  3
ACAD_XREC_ROUNDTRIP
360
3A20E
  0
DICTIONARY
  5
3A207
330
AABA
100
AcDbDictionary
280
     1
281
     1
  3
ACAD_XREC_ROUNDTRIP
360
3A208
  0
XRECORD
  5
3A204
102
{ACAD_REACTORS
330
3A203
102
}
330
3A203
100
AcDbXrecord
280
     1
102
SHADEPLOT
 70
     0
102
SHADEPLOTRESLEVEL
 70
     2
102
SHADEPLOTCUSTOMDPI
 70
   200
  0
XRECORD
  5
3A202
102
{ACAD_REACTORS
330
3A201
102
}
330
3A201
100
AcDbXrecord
280
     1
102
SHADEPLOT
 70
     0
102
SHADEPLOTRESLEVEL
 70
     2
102
SHADEPLOTCUSTOMDPI
 70
   300
  0
XRECORD
  5
3A206
102
{ACAD_REACTORS
330
3A205
102
}
330
3A205
100
AcDbXrecord
280
     1
102
SHADEPLOT
 70
     0
102
SHADEPLOTRESLEVEL
 70
     2
102
SHADEPLOTCUSTOMDPI
 70
   300
  0
XRECORD
  5
3A20C
102
{ACAD_REACTORS
330
3A20B
102
}
330
3A20B
100
AcDbXrecord
280
     1
102
MATERIAL
148
0.0
149
0.0
149
0.0
 93
        0
 94
       63
282
     0
 72
     1
 77
     1
171
     1
175
     1
179
     1
273
     0
  0
XRECORD
  5
3A20A
102
{ACAD_REACTORS
330
3A209
102
}
330
3A209
100
AcDbXrecord
280
     1
102
MATERIAL
148
0.0
149
0.0
149
0.0
 93
        0
 94
       63
282
     0
 72
     1
 77
     1
171
     1
175
     1
179
     1
273
     0
  0
XRECORD
  5
3A20E
102
{ACAD_REACTORS
330
3A20D
102
}
330
3A20D
100
AcDbXrecord
280
     1
102
MATERIAL
148
0.0
149
0.0
149
0.0
 93
        0
 94
       63
282
     0
 72
     1
 77
     1
171
     1
175
     1
179
     1
273
     0
  0
XRECORD
  5
3A208
102
{ACAD_REACTORS
330
3A207
102
}
330
3A207
100
AcDbXrecord
280
     1
102
ACAD_ROUNDTRIP_PRE2007_TABLESTYLE
 90
        4
 91
        0
  1

 92
        4
 93
        0
  2

 94
        4
 95
        0
  3

  0
ENDSEC
  0
EOF
