  0
SECTION
  2
HEADER
  9
$ACADVER
  1
AC1015
  9
$ACADMAINTVER
 70
    20
  9
$DWGCODEPAGE
  3
ANSI_932
  9
$INSBASE
 10
0.0
 20
0.0
 30
0.0
  9
$EXTMIN
 10
-0.0259773979062175
 20
-0.0066564130248707
 30
-0.000000000000013
  9
$EXTMAX
 10
420.0211663223118
 20
297.0012860727601
 30
0.0000000000000023
  9
$LIMMIN
 10
-0.0000000000000406
 20
0.000000051149982
  9
$LIMMAX
 10
419.9999999999999
 20
297.00000005115
  9
$ORTHOMODE
 70
     0
  9
$REGENMODE
 70
     1
  9
$FILLMODE
 70
     1
  9
$QTEXTMODE
 70
     0
  9
$MIRRTEXT
 70
     0
  9
$LTSCALE
 40
1.0
  9
$ATTMODE
 70
     1
  9
$TEXTSIZE
 40
3.2
  9
$TRACEWID
 40
1.0
  9
$TEXTSTYLE
  7
STANDARD
  9
$CLAYER
  8
AM_11
  9
$CELTYPE
  6
ByLayer
  9
$CECOLOR
 62
   256
  9
$CELTSCALE
 40
1.0
  9
$DISPSILH
 70
     0
  9
$DIMSCALE
 40
1.0
  9
$DIMASZ
 40
1.0
  9
$DIMEXO
 40
1.0
  9
$DIMDLI
 40
10.0
  9
$DIMRND
 40
0.0
  9
$DIMDLE
 40
0.0
  9
$DIMEXE
 40
1.0
  9
$DIMTP
 40
0.1
  9
$DIMTM
 40
0.1
  9
$DIMTXT
 40
3.5
  9
$DIMCEN
 40
0.0
  9
$DIMTSZ
 40
0.0
  9
$DIMTOL
 70
     0
  9
$DIMLIM
 70
     0
  9
$DIMTIH
 70
     0
  9
$DIMTOH
 70
     0
  9
$DIMSE1
 70
     0
  9
$DIMSE2
 70
     0
  9
$DIMTAD
 70
     1
  9
$DIMZIN
 70
     8
  9
$DIMBLK
  1

  9
$DIMASO
 70
     1
  9
$DIMSHO
 70
     1
  9
$DIMPOST
  1

  9
$DIMAPOST
  1
"
  9
$DIMALT
 70
     0
  9
$DIMALTD
 70
     2
  9
$DIMALTF
 40
0.0393701
  9
$DIMLFAC
 40
1.0
  9
$DIMTOFL
 70
     1
  9
$DIMTVP
 40
0.0
  9
$DIMTIX
 70
     0
  9
$DIMSOXD
 70
     0
  9
$DIMSAH
 70
     0
  9
$DIMBLK1
  1

  9
$DIMBLK2
  1

  9
$DIMSTYLE
  2
SYS
  9
$DIMCLRD
 70
   256
  9
$DIMCLRE
 70
   256
  9
$DIMCLRT
 70
     7
  9
$DIMTFAC
 40
0.71
  9
$DIMGAP
 40
1.5
  9
$DIMJUST
 70
     0
  9
$DIMSD1
 70
     0
  9
$DIMSD2
 70
     0
  9
$DIMTOLJ
 70
     0
  9
$DIMTZIN
 70
     8
  9
$DIMALTZ
 70
     0
  9
$DIMALTTZ
 70
     0
  9
$DIMUPT
 70
     0
  9
$DIMDEC
 70
     2
  9
$DIMTDEC
 70
     2
  9
$DIMALTU
 70
     2
  9
$DIMALTTD
 70
     2
  9
$DIMTXSTY
  7
STANDARD
  9
$DIMAUNIT
 70
     0
  9
$DIMADEC
 70
     0
  9
$DIMALTRND
 40
0.0
  9
$DIMAZIN
 70
     2
  9
$DIMDSEP
 70
    46
  9
$DIMATFIT
 70
     3
  9
$DIMFRAC
 70
     0
  9
$DIMLDRBLK
  1

  9
$DIMLUNIT
 70
     2
  9
$DIMLWD
 70
    -1
  9
$DIMLWE
 70
    -1
  9
$DIMTMOVE
 70
     0
  9
$LUNITS
 70
     2
  9
$LUPREC
 70
     2
  9
$SKETCHINC
 40
1.0
  9
$FILLETRAD
 40
3.0
  9
$AUNITS
 70
     0
  9
$AUPREC
 70
     0
  9
$MENU
  1
.
  9
$ELEVATION
 40
0.0
  9
$PELEVATION
 40
0.0
  9
$THICKNESS
 40
0.0
  9
$LIMCHECK
 70
     0
  9
$CHAMFERA
 40
0.0
  9
$CHAMFERB
 40
0.0
  9
$CHAMFERC
 40
20.0
  9
$CHAMFERD
 40
0.0
  9
$SKPOLY
 70
     0
  9
$TDCREATE
 40
2456027.598682176
  9
$TDUCREATE
 40
2456027.223682176
  9
$TDUPDATE
 40
2456267.730106146
  9
$TDUUPDATE
 40
2456267.355106146
  9
$TDINDWG
 40
0.9431409028
  9
$TDUSRTIMER
 40
0.9431409028
  9
$USRTIMER
 70
     1
  9
$ANGBASE
 50
0.0
  9
$ANGDIR
 70
     0
  9
$PDMODE
 70
     0
  9
$PDSIZE
 40
-3.0
  9
$PLINEWID
 40
0.0
  9
$SPLFRAME
 70
     0
  9
$SPLINETYPE
 70
     6
  9
$SPLINESEGS
 70
     8
  9
$HANDSEED
  5
3B285
  9
$SURFTAB1
 70
     6
  9
$SURFTAB2
 70
     6
  9
$SURFTYPE
 70
     6
  9
$SURFU
 70
     6
  9
$SURFV
 70
     6
  9
$UCSBASE
  2

  9
$UCSNAME
  2

  9
$UCSORG
 10
0.0
 20
0.0
 30
0.0
  9
$UCSXDIR
 10
1.0
 20
0.0
 30
0.0
  9
$UCSYDIR
 10
0.0
 20
1.0
 30
0.0
  9
$UCSORTHOREF
  2

  9
$UCSORTHOVIEW
 70
     0
  9
$UCSORGTOP
 10
0.0
 20
0.0
 30
0.0
  9
$UCSORGBOTTOM
 10
0.0
 20
0.0
 30
0.0
  9
$UCSORGLEFT
 10
0.0
 20
0.0
 30
0.0
  9
$UCSORGRIGHT
 10
0.0
 20
0.0
 30
0.0
  9
$UCSORGFRONT
 10
0.0
 20
0.0
 30
0.0
  9
$UCSORGBACK
 10
0.0
 20
0.0
 30
0.0
  9
$PUCSBASE
  2

  9
$PUCSNAME
  2

  9
$PUCSORG
 10
0.0
 20
0.0
 30
0.0
  9
$PUCSXDIR
 10
1.0
 20
0.0
 30
0.0
  9
$PUCSYDIR
 10
0.0
 20
1.0
 30
0.0
  9
$PUCSORTHOREF
  2

  9
$PUCSORTHOVIEW
 70
     0
  9
$PUCSORGTOP
 10
0.0
 20
0.0
 30
0.0
  9
$PUCSORGBOTTOM
 10
0.0
 20
0.0
 30
0.0
  9
$PUCSORGLEFT
 10
0.0
 20
0.0
 30
0.0
  9
$PUCSORGRIGHT
 10
0.0
 20
0.0
 30
0.0
  9
$PUCSORGFRONT
 10
0.0
 20
0.0
 30
0.0
  9
$PUCSORGBACK
 10
0.0
 20
0.0
 30
0.0
  9
$USERI1
 70
     0
  9
$USERI2
 70
     0
  9
$USERI3
 70
     0
  9
$USERI4
 70
     0
  9
$USERI5
 70
     0
  9
$USERR1
 40
0.0
  9
$USERR2
 40
0.0
  9
$USERR3
 40
0.0
  9
$USERR4
 40
0.0
  9
$USERR5
 40
0.0
  9
$WORLDVIEW
 70
     1
  9
$SHADEDGE
 70
     3
  9
$SHADEDIF
 70
    70
  9
$TILEMODE
 70
     1
  9
$MAXACTVP
 70
    64
  9
$PINSBASE
 10
0.0
 20
0.0
 30
0.0
  9
$PLIMCHECK
 70
     0
  9
$PEXTMIN
 10
1.000000000000000E+20
 20
1.000000000000000E+20
 30
1.000000000000000E+20
  9
$PEXTMAX
 10
-1.000000000000000E+20
 20
-1.000000000000000E+20
 30
-1.000000000000000E+20
  9
$PLIMMIN
 10
-3.17498779296875
 20
-3.174999952316284
  9
$PLIMMAX
 10
293.4970092773438
 20
206.692492723465
  9
$UNITMODE
 70
     0
  9
$VISRETAIN
 70
     1
  9
$PLINEGEN
 70
     0
  9
$PSLTSCALE
 70
     1
  9
$TREEDEPTH
 70
  3020
  9
$CMLSTYLE
  2
Standard
  9
$CMLJUST
 70
     0
  9
$CMLSCALE
 40
20.0
  9
$PROXYGRAPHICS
 70
     1
  9
$MEASUREMENT
 70
     1
  9
$CELWEIGHT
370
    -1
  9
$ENDCAPS
280
     0
  9
$JOINSTYLE
280
     0
  9
$LWDISPLAY
290
     1
  9
$INSUNITS
 70
     4
  9
$HYPERLINKBASE
  1

  9
$STYLESHEET
  1
monochrome.ctb
  9
$XEDIT
290
     1
  9
$CEPSNTYPE
380
     0
  9
$PSTYLEMODE
290
     1
  9
$FINGERPRINTGUID
  2
{3DA35836-3EEC-46EC-9CDA-58E873CBD009}
  9
$VERSIONGUID
  2
{07620AFD-A3C0-4600-9578-D4023C0B5614}
  9
$EXTNAMES
290
     1
  9
$PSVPSCALE
 40
0.0
  9
$OLESTARTUP
290
     0
  0
ENDSEC
  0
SECTION
  2
CLASSES
  0
CLASS
  1
ACDBDICTIONARYWDFLT
  2
AcDbDictionaryWithDefault
  3
ObjectDBX Classes
 90
        0
280
     0
281
     0
  0
CLASS
  1
ACDBPLACEHOLDER
  2
AcDbPlaceHolder
  3
ObjectDBX Classes
 90
        0
280
     0
281
     0
  0
CLASS
  1
LAYOUT
  2
AcDbLayout
  3
ObjectDBX Classes
 90
        0
280
     0
281
     0
  0
CLASS
  1
AMGSETTINGSOBJ
  2
AmgSettingsObj
  3
"AcadM|Product Description: AutoCAD Mechanical|Company: Autodesk"
 90
        0
280
     0
281
     0
  0
CLASS
  1
ACME_DOCUMENT
  2
AcMeDbDoc
  3
AcMeServices
 90
        0
280
     0
281
     0
  0
CLASS
  1
ACMESCOPE
  2
AcMeScope
  3
AcMeServices
 90
        0
280
     0
281
     0
  0
CLASS
  1
ACMECOMMANDHISTORY
  2
AcMeCommandHistory
  3
AcMeServices
 90
        0
280
     0
281
     0
  0
CLASS
  1
DICTIONARYVAR
  2
AcDbDictionaryVar
  3
ObjectDBX Classes
 90
        0
280
     0
281
     0
  0
CLASS
  1
ACIMSYSVARMAN
  2
AcImSysVarManager
  3
AcMeServices
 90
        0
280
     0
281
     0
  0
CLASS
  1
ACIMREALSYSVAR
  2
AcImRealSysVar
  3
AcMeServices
 90
        0
280
     0
281
     0
  0
CLASS
  1
ACIMINTSYSVAR
  2
AcImIntSysVar
  3
AcMeServices
 90
        0
280
     0
281
     0
  0
CLASS
  1
ACMEDRAWINGMAN
  2
AcMeDrawingMan
  3
AcMeServices
 90
        0
280
     0
281
     0
  0
CLASS
  1
ACMEVIEW
  2
AcMeView
  3
AcMeServices
 90
        0
280
     0
281
     0
  0
CLASS
  1
ACDBENTITYCACHE
  2
AcMeEntityCache
  3
AcMeServices
 90
        0
280
     0
281
     0
  0
CLASS
  1
GSMANAGER
  2
AcMeGSManager
  3
AcMeServices
 90
        0
280
     0
281
     0
  0
CLASS
  1
AMDTINTERNALREACTOR
  2
AmdtInternalReactor
  3
AcMeServices
 90
        0
280
     0
281
     0
  0
CLASS
  1
ACMESTATEMGR
  2
AcMeStateMgr
  3
AcMeServices
 90
        0
280
     0
281
     0
  0
CLASS
  1
ACGREFMASTER
  2
AcGrefMaster
  3
AcAttribServices
 90
        0
280
     0
281
     0
  0
CLASS
  1
ACME_DATABASE
  2
AcMeDbDatabase
  3
AcMeServices
 90
        0
280
     0
281
     0
  0
CLASS
  1
ACRFINSADJUSTERMGR
  2
AcRfInsAdjusterMgr
  3
AcMeServices
 90
        0
280
     0
281
     0
  0
CLASS
  1
ACGREFACADMASTER
  2
AcGrefacadMaster
  3
AcGrefServices
 90
        0
280
     0
281
     0
  0
CLASS
  1
AMIMASTER
  2
AmiMaster
  3
AmiServices
 90
        0
280
     0
281
     0
  0
CLASS
  1
ACMDATADICTIONARY
  2
AcmDataDictionary
  3
"AcmSymBB|Product Description: AutoCAD Mechanical|Company: Autodesk"
 90
        0
280
     0
281
     0
  0
CLASS
  1
ACMDATAENTRYBLOCK
  2
AcmDataEntryBlock
  3
"AcmSymBB|Product Description: AutoCAD Mechanical|Company: Autodesk"
 90
        0
280
     0
281
     0
  0
CLASS
  1
ACIMSTRSYSVAR
  2
AcImStrSysVar
  3
AcMeServices
 90
        0
280
     0
281
     0
  0
CLASS
  1
ACMSTANDARDISO
  2
AcmStandardISO
  3
"Amdt_StdImp|Product Description: AutoCAD Mechanical|Company: Autodesk"
 90
        0
280
     0
281
     0
  0
CLASS
  1
AMGOBJPROPCFG
  2
AmgObjPropCfg
  3
"AmgLay|Product Description: AutoCAD Mechanical|Company: Autodesk"
 90
        1
280
     0
281
     0
  0
CLASS
  1
AMDTEDGESTANDARDISO
  2
AmdtEdgeStdISO
  3
"Amdt_StdImp|Product Description: AutoCAD Mechanical|Company: Autodesk"
 90
        0
280
     0
281
     0
  0
CLASS
  1
ACMSURFSTANDARDISO
  2
AcmSurfTextStdISO
  3
"Amdt_StdImp|Product Description: AutoCAD Mechanical|Company: Autodesk"
 90
        0
280
     0
281
     0
  0
CLASS
  1
ACMFCFSTANDARDISO
  2
AcmFCFStdISO
  3
"Amdt_StdImp|Product Description: AutoCAD Mechanical|Company: Autodesk"
 90
        0
280
     0
281
     0
  0
CLASS
  1
ACMWELDSTANDARDISO
  2
AcmWeldingStdISO
  3
"Amdt_StdImp|Product Description: AutoCAD Mechanical|Company: Autodesk"
 90
        0
280
     0
281
     0
  0
CLASS
  1
ACMIDSTANDARDISO
  2
AcmIdStdISO
  3
"Amdt_StdImp|Product Description: AutoCAD Mechanical|Company: Autodesk"
 90
        0
280
     0
281
     0
  0
CLASS
  1
ACMDATUMSTANDARDISO
  2
AcmDatumStdISO
  3
"Amdt_StdImp|Product Description: AutoCAD Mechanical|Company: Autodesk"
 90
        0
280
     0
281
     0
  0
CLASS
  1
ACMBOMSTANDARDISO
  2
AcmBOMStdISO
  3
"Amdt_StdImp|Product Description: AutoCAD Mechanical|Company: Autodesk"
 90
        0
280
     0
281
     0
  0
CLASS
  1
ACMDETAILSTANDARDISO
  2
AmdtDetailSymStdISO
  3
"Amdt_StdImp|Product Description: AutoCAD Mechanical|Company: Autodesk"
 90
        0
280
     0
281
     0
  0
CLASS
  1
ACMSECTIONSTANDARDISO
  2
AmdtSectionSymStdISO
  3
"Amdt_StdImp|Product Description: AutoCAD Mechanical|Company: Autodesk"
 90
        0
280
     0
281
     0
  0
CLASS
  1
ACMCENTERLINESTANDARDISO
  2
AmdtCenterLineStdISO
  3
"Amdt_StdImp|Product Description: AutoCAD Mechanical|Company: Autodesk"
 90
        0
280
     0
281
     0
  0
CLASS
  1
ACAMGLAYSTD
  2
AcAmgLayStd
  3
"AmgLay|Product Description: AutoCAD Mechanical|Company: Autodesk"
 90
        0
280
     0
281
     0
  0
CLASS
  1
ACAMGDIMSTD
  2
AcAmgDimStd
  3
"AmgDim|Product Description: AutoCAD Mechanical|Company: Autodesk"
 90
        0
280
     0
281
     0
  0
CLASS
  1
ACAMGTITLESTD
  2
AcAmgTitleStd
  3
"AmgTitle|Product Description: AutoCAD Mechanical|Company: Autodesk"
 90
        0
280
     0
281
     0
  0
CLASS
  1
ACAMGFILTERDAT
  2
AcAmgFilterDat
  3
"AcadM|Product Description: AutoCAD Mechanical|Company: Autodesk"
 90
        0
280
     0
281
     0
  0
CLASS
  1
LAYER_INDEX
  2
AcDbLayerIndex
  3
ObjectDBX Classes
 90
    32768
280
     0
281
     0
  0
CLASS
  1
IDBUFFER
  2
AcDbIdBuffer
  3
ObjectDBX Classes
 90
    32768
280
     0
281
     0
  0
CLASS
  1
PLOTSETTINGS
  2
AcDbPlotSettings
  3
ObjectDBX Classes
 90
    32768
280
     0
281
     0
  0
CLASS
  1
AMDTFORMULAUPDATEDISPATCHER
  2
AmdtFormulaUpdateDispatcher
  3
AcMeServices
 90
        0
280
     0
281
     0
  0
CLASS
  1
ACMSTANDARDANSI
  2
AcmStandardANSI
  3
"Amdt_StdImp|Product Description: AutoCAD Mechanical|Company: Autodesk"
 90
        0
280
     0
281
     0
  0
CLASS
  1
ACMSURFSTANDARDANSI
  2
AcmSurfTextStdANSI
  3
"Amdt_StdImp|Product Description: AutoCAD Mechanical|Company: Autodesk"
 90
        0
280
     0
281
     0
  0
CLASS
  1
ACMFCFSTANDARDANSI
  2
AcmFCFStdANSI
  3
"Amdt_StdImp|Product Description: AutoCAD Mechanical|Company: Autodesk"
 90
        0
280
     0
281
     0
  0
CLASS
  1
ACMWELDSTANDARDANSI
  2
AcmWeldingStdANSI
  3
"Amdt_StdImp|Product Description: AutoCAD Mechanical|Company: Autodesk"
 90
        0
280
     0
281
     0
  0
CLASS
  1
ACMIDSTANDARDANSI
  2
AcmIdStdANSI
  3
"Amdt_StdImp|Product Description: AutoCAD Mechanical|Company: Autodesk"
 90
        0
280
     0
281
     0
  0
CLASS
  1
ACMDATUMSTANDARDANSI
  2
AcmDatumStdANSI
  3
"Amdt_StdImp|Product Description: AutoCAD Mechanical|Company: Autodesk"
 90
        0
280
     0
281
     0
  0
CLASS
  1
ACMBOMSTANDARDANSI
  2
AcmBOMStdANSI
  3
"Amdt_StdImp|Product Description: AutoCAD Mechanical|Company: Autodesk"
 90
        0
280
     0
281
     0
  0
CLASS
  1
ACMDETAILSTANDARDANSI
  2
AmdtDetailSymStdANSI
  3
"Amdt_StdImp|Product Description: AutoCAD Mechanical|Company: Autodesk"
 90
        0
280
     0
281
     0
  0
CLASS
  1
ACMSECTIONSTANDARDANSI
  2
AmdtSectionSymStdANSI
  3
"Amdt_StdImp|Product Description: AutoCAD Mechanical|Company: Autodesk"
 90
        0
280
     0
281
     0
  0
CLASS
  1
ACMCENTERLINESTANDARDANSI
  2
AmdtCenterLineStdANSI
  3
"Amdt_StdImp|Product Description: AutoCAD Mechanical|Company: Autodesk"
 90
        0
280
     0
281
     0
  0
CLASS
  1
ACMBOM
  2
AcmBom
  3
"AcmSymBB|Product Description: AutoCAD Mechanical|Company: Autodesk"
 90
        0
280
     0
281
     0
  0
CLASS
  1
ACMDATAENTRYPART
  2
AcmDataEntryPart
  3
"AcmSymBB|Product Description: AutoCAD Mechanical|Company: Autodesk"
 90
    32768
280
     0
281
     0
  0
CLASS
  1
ACMPARTREF
  2
AcmPartRef
  3
"AcmSymBB|Product Description: AutoCAD Mechanical|Company: Autodesk"
 90
    35839
280
     0
281
     1
  0
CLASS
  1
ACDBCIRCARCRES
  2
AcDbCircArcRes
  3
AcGrefServices
 90
    32768
280
     0
281
     0
  0
CLASS
  1
ACMBOMROW
  2
AcmBomRow
  3
"AcmSymBB|Product Description: AutoCAD Mechanical|Company: Autodesk"
 90
    32768
280
     0
281
     0
  0
CLASS
  1
ACMBALLOON
  2
AcmBalloon
  3
"AcmSymBB|Product Description: AutoCAD Mechanical|Company: Autodesk"
 90
    35839
280
     0
281
     1
  0
CLASS
  1
AMDTNOTE
  2
AmdtNote
  3
"AcmSymBB|Product Description: AutoCAD Mechanical|Company: Autodesk"
 90
    35839
280
     0
281
     1
  0
CLASS
  1
STDPART2D
  2
AmgStdPart
  3
"g3vace|Class: AmgStdPart|Product Description: AutoCAD Mechanical|Company: Autodesk"
 90
    35839
280
     0
281
     1
  0
CLASS
  1
ACDBSTDPARTRES_LINE
  2
AcDbStdPartRes_Line
  3
"g3vace|Class: AcDbStdPartRes_Line|Product Description: AutoCAD Mechanical|Company: Autodesk"
 90
    32768
280
     0
281
     0
  0
CLASS
  1
ACMDATAENTRY
  2
AcmDataEntry
  3
"AcmSymBB|Product Description: AutoCAD Mechanical|Company: Autodesk"
 90
        0
280
     0
281
     0
  0
CLASS
  1
ACDBOPPOLYLINERES
  2
AcDbOpPolylineRes
  3
AcGrefServices
 90
    32768
280
     0
281
     0
  0
CLASS
  1
ACMPARTLIST
  2
AcmPartList
  3
"AcmSymBB|Product Description: AutoCAD Mechanical|Company: Autodesk"
 90
    35839
280
     0
281
     1
  0
CLASS
  1
ACDBLINERES
  2
AcDbLineRes
  3
AcGrefServices
 90
    32768
280
     0
281
     0
  0
CLASS
  1
ACRFINSADJ
  2
AcRfInsAdjuster
  3
AcMeServices
 90
    32768
280
     0
281
     0
  0
CLASS
  1
AM_DRAWING_MGR
  2
AcDmDwgMgr
  3
AcMechDwgViewMgmt
 90
        0
280
     0
281
     0
  0
CLASS
  1
AM_DWG_DOCUMENT
  2
AcDmDwgDocument
  3
AcMechDwgViewMgmt
 90
        0
280
     0
281
     0
  0
CLASS
  1
AM_DWG_SHEET
  2
AcDmSheet
  3
AcMechDwgViewMgmt
 90
        0
280
     0
281
     0
  0
CLASS
  1
AM_VIEWDIMPARMAP
  2
AcDmViewDimParMap
  3
AcMechDwgViewMgmt
 90
        0
280
     0
281
     0
  0
CLASS
  1
AM_DWGMGR_NAME
  2
AcDmDwgMgrName
  3
AcMechDwgViewMgmt
 90
        0
280
     0
281
     0
  0
CLASS
  1
AMDTMENUSTATEMGR
  2
AmdtMenuStateMgr
  3
McadcomServices
 90
        0
280
     0
281
     0
  0
CLASS
  1
AMDTMCOMMENUSTATE
  2
AmdtMcomMenuState
  3
McadcomServices
 90
        0
280
     0
281
     0
  0
CLASS
  1
ASAPP
  2
AcAsAppObject
  3
AutoSurfServices
 90
        0
280
     0
281
     0
  0
CLASS
  1
IM_STATIC_MAN
  2
AcImStaticVarManager
  3
AcMeServices
 90
        0
280
     0
281
     0
  0
CLASS
  1
ACIMDBLSTATICVAR
  2
AcImDblStaticVar
  3
AcMeServices
 90
        0
280
     0
281
     0
  0
CLASS
  1
ACIMSTRSTATICVAR
  2
AcImStrStaticVar
  3
AcMeServices
 90
        0
280
     0
281
     0
  0
CLASS
  1
ACIMINTSTATICVAR
  2
AcImIntStaticVar
  3
AcMeServices
 90
        0
280
     0
281
     0
  0
CLASS
  1
ACASGREFMASTER
  2
AcAsGrefMaster
  3
AutoSurfResolverServices
 90
        0
280
     0
281
     0
  0
CLASS
  1
ACADGREFMODULE
  2
AcAdGrefModule
  3
AdGrefServices
 90
        0
280
     0
281
     0
  0
CLASS
  1
AMDTMAPISURFMOUDULE
  2
AmdtMApiSurfModule
  3
MApiSurfServices
 90
        0
280
     0
281
     0
  0
CLASS
  1
MAPIAMMOUDLE
  2
MApiAmModule
  3
MApiAmServices
 90
        0
280
     0
281
     0
  0
CLASS
  1
AMDTADMENUSTATE
  2
AmdtAdMenuState
  3
DesignerServices
 90
        0
280
     0
281
     0
  0
CLASS
  1
ADAPPL
  2
AcAdAppl
  3
DesignerServices
 90
        0
280
     0
281
     0
  0
CLASS
  1
DEPMGR
  2
AcAdDepMgr
  3
DesignerServices
 90
        0
280
     0
281
     0
  0
CLASS
  1
PARAMMGR
  2
AcAdParamMgr
  3
DesignerServices
 90
        0
280
     0
281
     0
  0
CLASS
  1
PARAMSCOPE
  2
AcAdParamScope
  3
DesignerServices
 90
        0
280
     0
281
     0
  0
CLASS
  1
NAMEDAPPL
  2
AcAdNamedAppl
  3
DesignerServices
 90
        0
280
     0
281
     0
  0
CLASS
  1
ADHNTMPLT
  2
AdHoleNoteTemplateMgr
  3
DesignerServices
 90
    32768
280
     0
281
     0
  0
CLASS
  1
AM_HNTEMPLATE_MGR_NAME
  2
AdHoleNoteTemplateMgrName
  3
DesignerServices
 90
    32768
280
     0
281
     0
  0
CLASS
  1
AMDTDMMENUSTATE
  2
AmdtDmMenuState
  3
AcMechDwgViewMgmt
 90
        0
280
     0
281
     0
  0
CLASS
  1
MAPIADMODULE
  2
MApiAdModule
  3
MApiAdServices
 90
        0
280
     0
281
     0
  0
CLASS
  1
AMDTAMMENUSTATE
  2
AmdtAmMenuState
  3
DesignerAssemblies
 90
        0
280
     0
281
     0
  0
CLASS
  1
ACAMPROJECT
  2
AcAmProject
  3
DesignerAssemblies
 90
        0
280
     0
281
     0
  0
CLASS
  1
ACAMGRCOMPDEF
  2
AcAmGrCompDef
  3
DesignerAssemblies
 90
        0
280
     0
281
     0
  0
CLASS
  1
ACCMCONTEXT
  2
AcCmContext
  3
DesignerAssemblies
 90
        0
280
     0
281
     0
  0
CLASS
  1
ACAMCOMPDEF
  2
AcAmCompDef
  3
DesignerAssemblies
 90
        0
280
     0
281
     0
  0
CLASS
  1
ACAMCOMPDEFMGR
  2
AcAmCompDefMgr
  3
DesignerAssemblies
 90
        0
280
     0
281
     0
  0
CLASS
  1
AMCONTEXTMGR
  2
AcAmContextMgr
  3
DesignerAssemblies
 90
        0
280
     0
281
     0
  0
CLASS
  1
ACAMCONTEXTMODELER
  2
AcAmContextModeler
  3
DesignerAssemblies
 90
        0
280
     0
281
     0
  0
CLASS
  1
CATALOGSTATE
  2
AcAmCatalogState
  3
DesignerAssemblies
 90
        0
280
     0
281
     0
  0
CLASS
  1
ACAMGRCOMPDEFSET
  2
AcAmGrCompDefSet
  3
DesignerAssemblies
 90
        0
280
     0
281
     0
  0
CLASS
  1
AMDTBROWSERDBTAB
  2
AmdtBrowserDbTab
  3
McadcomServices
 90
        0
280
     0
281
     0
  0
CLASS
  1
CBROWSERAPPOBJECT
  2
CBrowserAppObject
  3
McadcomServices
 90
        0
280
     0
281
     0
  0
CLASS
  1
DM_PLACEHOLDER
  2
AcDmSelsetPlaceholder
  3
AcMechDwgViewMgmt
 90
        0
280
     0
281
     0
  0
CLASS
  1
ACMPICKOBJ
  2
AcmPickEnt
  3
"AcmSymBB|Product Description: AutoCAD Mechanical|Company: Autodesk"
 90
    32768
280
     0
281
     1
  0
CLASS
  1
ACMNOTESTANDARDISO
  2
AmdtNoteStdISO
  3
"Amdt_StdImp|Product Description: AutoCAD Mechanical|Company: Autodesk"
 90
        0
280
     0
281
     0
  0
CLASS
  1
ACMNOTESTANDARDANSI
  2
AmdtNoteStdANSI
  3
"Amdt_StdImp|Product Description: AutoCAD Mechanical|Company: Autodesk"
 90
        0
280
     0
281
     0
  0
CLASS
  1
ACMTHREADLINESTANDARDISO
  2
AmdtThreadLineStdISO
  3
"Amdt_StdImp|Product Description: AutoCAD Mechanical|Company: Autodesk"
 90
        0
280
     0
281
     0
  0
CLASS
  1
ACMTHREADLINESTANDARDANSI
  2
AmdtThreadLineStdANSI
  3
"Amdt_StdImp|Product Description: AutoCAD Mechanical|Company: Autodesk"
 90
        0
280
     0
281
     0
  0
CLASS
  1
TABLESTYLE
  2
AcDbTableStyle
  3
ObjectDBX Classes
 90
     4095
280
     0
281
     0
  0
CLASS
  1
SORTENTSTABLE
  2
AcDbSortentsTable
  3
ObjectDBX Classes
 90
        0
280
     0
281
     0
  0
CLASS
  1
MATERIAL
  2
AcDbMaterial
  3
ObjectDBX Classes
 90
     1024
280
     0
281
     0
  0
CLASS
  1
VISUALSTYLE
  2
AcDbVisualStyle
  3
ObjectDBX Classes
 90
     4095
280
     0
281
     0
  0
CLASS
  1
ACRFATTGENMGR
  2
AcRfAttGeneralMgr
  3
AcAttribServices
 90
        0
280
     0
281
     0
  0
CLASS
  1
ACRFOBJATTMGR
  2
AcRfObjAttGroupMgr
  3
AcAttribServices
 90
        0
280
     0
281
     0
  0
CLASS
  1
ACRFMCADAPIATTHOLDER
  2
AcRfMCADAPIAttHolder
  3
AcAttribServices
 90
        0
280
     0
281
     0
  0
CLASS
  1
AMDTSYSATTR
  2
AmdtSystemAttribute
  3
AcAttribServices
 90
        0
280
     0
281
     0
  0
CLASS
  1
ACMTAPERSTANDARDISO
  2
AcmTaperStdISO
  3
"Amdt_StdImp|Product Description: AutoCAD Mechanical|Company: Autodesk"
 90
        0
280
     0
281
     0
  0
CLASS
  1
CAMSSTRUCTBTNSTATE
  2
StructBtnState
  3
L"DesignerAssemblies"
 90
        0
280
     0
281
     0
  0
CLASS
  1
DIMASSOC
  2
AcDbDimAssoc
  3
"AcDbDimAssoc|Product Desc:     AcDim ARX App For Dimension|Company:          Autodesk, Inc.|WEB Address:      www.autodesk.com"
 90
    32768
280
     0
281
     0
  0
CLASS
  1
AMDTNOTETEMPLATEDB
  2
AmdtNoteTemplateDB
  3
AMDT_STDIMP_MODULE_NAME
 90
        0
280
     0
281
     0
  0
CLASS
  1
ACMTAPERSTANDARDANSI
  2
AcmTaperStdANSI
  3
"Amdt_StdImp|Product Description: AutoCAD Mechanical|Company: Autodesk"
 90
        0
280
     0
281
     0
  0
CLASS
  1
ACAMGHOLECHARTSTDANSI
  2
AcAmgHoleChartStdANSI
  3
ACMSYMBB_MODULE_NAME
 90
        0
280
     0
281
     0
  0
CLASS
  1
AMDTEDGESTANDARDISO13715
  2
AmdtEdgeStdISO13715
  3
"Amdt_StdImp|Product Description: AutoCAD Mechanical|Company: Autodesk"
 90
        0
280
     0
281
     0
  0
CLASS
  1
ACAMGHOLECHARTSTDISO
  2
AcAmgHoleChartStdISO
  3
ACMSYMBB_MODULE_NAME
 90
        0
280
     0
281
     0
  0
CLASS
  1
AMDTACMWBLOCKBOMENTITY
  2
AmdtAcmWblockBomEntity
  3
"AcmSymBB|Product Description: AutoCAD Mechanical|Company: Autodesk"
 90
    35839
280
     0
281
     1
  0
ENDSEC
  0
SECTION
  2
TABLES
  0
TABLE
  2
VPORT
  5
8
330
0
100
AcDbSymbolTable
 70
     1
  0
VPORT
  5
B0EC
330
8
100
AcDbSymbolTableRecord
100
AcDbViewportTableRecord
  2
*Active
 70
     0
 10
0.0
 20
0.0
 11
1.0
 21
1.0
 12
209.9975944622029
 22
148.4973148298676
 13
0.0
 23
0.0
 14
2.5
 24
2.5
 15
10.0
 25
10.0
 16
0.0
 26
0.0
 36
1.0
 17
0.0
 27
0.0
 37
0.0
 40
299.1945040255576
 41
1.648648648648648
 42
50.0
 43
-1370.695619172058
 44
-1370.695619172058
 50
0.0
 51
0.0
 71
     0
 72
   100
 73
     1
 74
     3
 75
     0
 76
     0
 77
     0
 78
     0
281
     0
 65
     0
110
0.0
120
0.0
130
0.0
111
1.0
121
0.0
131
0.0
112
0.0
122
1.0
132
0.0
 79
     0
146
0.0
  0
ENDTAB
  0
TABLE
  2
LTYPE
  5
5
330
0
100
AcDbSymbolTable
 70
    36
  0
LTYPE
  5
14
330
5
100
AcDbSymbolTableRecord
100
AcDbLinetypeTableRecord
  2
ByBlock
 70
     0
  3

 72
    65
 73
     0
 40
0.0
  0
LTYPE
  5
15
330
5
100
AcDbSymbolTableRecord
100
AcDbLinetypeTableRecord
  2
ByLayer
 70
     0
  3

 72
    65
 73
     0
 40
0.0
  0
LTYPE
  5
16
330
5
100
AcDbSymbolTableRecord
100
AcDbLinetypeTableRecord
  2
Continuous
 70
     0
  3
Solid line
 72
    65
 73
     0
 40
0.0
  0
LTYPE
  5
4F
330
5
100
AcDbSymbolTableRecord
100
AcDbLinetypeTableRecord
  2
AM_ISO02W050
 70
     0
  3
__ __ __ __ __ __ __ __ __ __ __ __ __ __ __
 72
    65
 73
     2
 40
7.5
 49
6.0
 74
     0
 49
-1.5
 74
     0
  0
LTYPE
  5
52
330
5
100
AcDbSymbolTableRecord
100
AcDbLinetypeTableRecord
  2
Amconstr
 70
     0
  3
_______________________
 72
    65
 73
     2
 40
9999.0
 49
9999.0
 74
     0
 49
0.0
 74
     0
  0
LTYPE
  5
64
330
5
100
AcDbSymbolTableRecord
100
AcDbLinetypeTableRecord
  2
ACISOWELD
 70
     0
  3
_ _ _ _ _
 72
    65
 73
     2
 40
2.0
 49
2.0
 74
     0
 49
-1.0
 74
     0
  0
LTYPE
  5
65
330
5
100
AcDbSymbolTableRecord
100
AcDbLinetypeTableRecord
  2
ACISOTGB
 70
     0
  3
__ . . __ . .
 72
    65
 73
     6
 40
9.0
 49
4.0
 74
     0
 49
-1.0
 74
     0
 49
1.0
 74
     0
 49
-1.0
 74
     0
 49
1.0
 74
     0
 49
-1.0
 74
     0
  0
LTYPE
  5
66
330
5
100
AcDbSymbolTableRecord
100
AcDbLinetypeTableRecord
  2
ACISOTGL
 70
     0
  3
_ _ _ _ _
 72
    65
 73
     2
 40
3.0
 49
2.0
 74
     0
 49
-1.0
 74
     0
  0
LTYPE
  5
69
330
5
100
AcDbSymbolTableRecord
100
AcDbLinetypeTableRecord
  2
CENTER
 70
     0
  3
__ . __
 72
    65
 73
     4
 40
7.0
 49
4.0
 74
     0
 49
-1.0
 74
     0
 49
1.0
 74
     0
 49
-1.0
 74
     0
  0
LTYPE
  5
A6E
330
5
100
AcDbSymbolTableRecord
100
AcDbLinetypeTableRecord
  2
PHANTOM2
 70
     0
  3
Phantom (.5x) ___ _ _ ___ _ _ ___ _ _ ___ _ _
 72
    65
 73
     6
 40
31.75
 49
15.875
 74
     0
 49
-3.174999999999999
 74
     0
 49
3.174999999999999
 74
     0
 49
-3.174999999999999
 74
     0
 49
3.174999999999999
 74
     0
 49
-3.174999999999999
 74
     0
  0
LTYPE
  5
4DED
330
5
100
AcDbSymbolTableRecord
100
AcDbLinetypeTableRecord
  2
中線
 70
     0
  3
___________________
 72
    65
 73
     2
 40
2.0
 49
1.0
 74
     0
 49
1.0
 74
     0
  0
LTYPE
  5
4DF6
330
5
100
AcDbSymbolTableRecord
100
AcDbLinetypeTableRecord
  2
細線
 70
     0
  3
___________________
 72
    65
 73
     2
 40
2.0
 49
1.0
 74
     0
 49
1.0
 74
     0
  0
LTYPE
  5
4DF7
330
5
100
AcDbSymbolTableRecord
100
AcDbLinetypeTableRecord
  2
太線
 70
     0
  3
___________________
 72
    65
 73
     2
 40
2.0
 49
1.0
 74
     0
 49
1.0
 74
     0
  0
LTYPE
  5
4EA7
330
5
100
AcDbSymbolTableRecord
100
AcDbLinetypeTableRecord
  2
文字
 70
     0
  3
_________________
 72
    65
 73
     2
 40
2.0
 49
1.0
 74
     0
 49
1.0
 74
     0
  0
LTYPE
  5
4EA9
330
5
100
AcDbSymbolTableRecord
100
AcDbLinetypeTableRecord
  2
寸法線
 70
     0
  3
________________
 72
    65
 73
     2
 40
2.0
 49
1.0
 74
     0
 49
1.0
 74
     0
  0
LTYPE
  5
4F12
330
5
100
AcDbSymbolTableRecord
100
AcDbLinetypeTableRecord
  2
ハッチング
 70
     0
  3
_________________
 72
    65
 73
     2
 40
2.0
 49
1.0
 74
     0
 49
1.0
 74
     0
  0
LTYPE
  5
5180
330
5
100
AcDbSymbolTableRecord
100
AcDbLinetypeTableRecord
  2
陰線1
 70
     0
  3
__ __ __ __
 72
    65
 73
     2
 40
4.0
 49
2.2
 74
     0
 49
-1.8
 74
     0
  0
LTYPE
  5
5182
330
5
100
AcDbSymbolTableRecord
100
AcDbLinetypeTableRecord
  2
切断線
 70
     0
  3
/\/-/\/-/\/-/\/-/\/-/\/
 72
    65
 73
     2
 40
11.0001
 49
0.0001
 74
     4
 75
   135
340
56
 46
0.04
 50
0.0
 44
0.0
 45
0.0
 49
-11.0
 74
     0
  0
LTYPE
  5
5183
330
5
100
AcDbSymbolTableRecord
100
AcDbLinetypeTableRecord
  2
想像線1
 70
     0
  3
__ __ __ _____ __ __ ____
 72
    65
 73
     6
 40
14.5
 49
6.0
 74
     0
 49
-1.5
 74
     0
 49
2.0
 74
     0
 49
-1.5
 74
     0
 49
2.0
 74
     0
 49
-1.5
 74
     0
  0
LTYPE
  5
5185
330
5
100
AcDbSymbolTableRecord
100
AcDbLinetypeTableRecord
  2
中心線1
 70
     0
  3
___ _ ___ _ ___
 72
    65
 73
     4
 40
18.0
 49
12.0
 74
     0
 49
-2.0
 74
     0
 49
2.0
 74
     0
 49
-2.0
 74
     0
  0
LTYPE
  5
5188
330
5
100
AcDbSymbolTableRecord
100
AcDbLinetypeTableRecord
  2
補助線
 70
     0
  3
______________
 72
    65
 73
     2
 40
2.0
 49
1.0
 74
     0
 49
1.0
 74
     0
  0
LTYPE
  5
6427
330
5
100
AcDbSymbolTableRecord
100
AcDbLinetypeTableRecord
  2
HIDDEN
 70
     0
  3
Hidden __ __ __ __ __ __ __ __ __ __ __ __ __ _
 72
    65
 73
     2
 40
0.375
 49
0.25
 74
     0
 49
-0.125
 74
     0
  0
LTYPE
  5
AC81
330
5
100
AcDbSymbolTableRecord
100
AcDbLinetypeTableRecord
  2
破断線
 70
     0
  3
/\/-/\/-/\/-/\/-/\/-/\/
 72
    65
 73
     2
 40
0.4401
 49
0.0001
 74
     4
 75
   136
340
AC80
 46
0.0016
 50
0.0
 44
0.0
 45
0.0
 49
-0.4400000000000001
 74
     0
  0
LTYPE
  5
AC9E
330
5
100
AcDbSymbolTableRecord
100
AcDbLinetypeTableRecord
  2
Amzigzag
 70
     0
  3
/\/-/\/-/\/-/\/-/\/-/\/
 72
    65
 73
     2
 40
11.0001
 49
0.0001
 74
     4
 75
   135
340
56
 46
0.04
 50
0.0
 44
0.0
 45
0.0
 49
-11.0
 74
     0
  0
LTYPE
  5
AF0F
330
5
100
AcDbSymbolTableRecord
100
AcDbLinetypeTableRecord
  2
genzigzag
 70
     0
  3
/\/-/\/-/\/-/\/-/\/-/\/
 72
    65
 73
     2
 40
12.0001
 49
0.0001
 74
     4
 75
   135
340
AC80
 46
2.0
 50
0.0
 44
0.0
 45
0.0
 49
-12.0
 74
     0
  0
LTYPE
  5
AF95
330
5
100
AcDbSymbolTableRecord
100
AcDbLinetypeTableRecord
  2
AM_ISO08W050
 70
     0
  3
____ . ____ . ____ . ____ . ____ . ____ . ____
 72
    65
 73
     4
 40
18.0
 49
12.0
 74
     0
 49
-1.5
 74
     0
 49
3.0
 74
     0
 49
-1.5
 74
     0
  0
LTYPE
  5
AF96
330
5
100
AcDbSymbolTableRecord
100
AcDbLinetypeTableRecord
  2
AM_ISO09W050
 70
     0
  3
_____ . . _____ . . _____ . . ____ .. ____
 72
    65
 73
     6
 40
22.5
 49
12.0
 74
     0
 49
-1.5
 74
     0
 49
3.0
 74
     0
 49
-1.5
 74
     0
 49
3.0
 74
     0
 49
-1.5
 74
     0
  0
LTYPE
  5
AF97
330
5
100
AcDbSymbolTableRecord
100
AcDbLinetypeTableRecord
  2
AM_ISO08W050x2
 70
     0
  3
__ . __ . __ . __ . __ . __
 72
    65
 73
     4
 40
9.0
 49
6.0
 74
     0
 49
-0.75
 74
     0
 49
1.5
 74
     0
 49
-0.75
 74
     0
  0
LTYPE
  5
AF98
330
5
100
AcDbSymbolTableRecord
100
AcDbLinetypeTableRecord
  2
AM_ISO02W050x2
 70
     0
  3
 _ _ _ _ _ _ _ _ _ _ _ _
 72
    65
 73
     2
 40
3.75
 49
3.0
 74
     0
 49
-0.75
 74
     0
  0
LTYPE
  5
B7B7
330
5
100
AcDbSymbolTableRecord
100
AcDbLinetypeTableRecord
  2
CENTER2
 70
     0
  3
Center (.5x) ___ _ ___ _ ___ _ ___ _ ___ _ ___
 72
    65
 73
     4
 40
1.125
 49
0.75
 74
     0
 49
-0.125
 74
     0
 49
0.125
 74
     0
 49
-0.125
 74
     0
  0
LTYPE
  5
B7B8
330
5
100
AcDbSymbolTableRecord
100
AcDbLinetypeTableRecord
  2
HIDDEN2
 70
     0
  3
Hidden (.5x) _ _ _ _ _ _ _ _ _ _ _ _ _ _ _ _ _
 72
    65
 73
     2
 40
0.1875
 49
0.125
 74
     0
 49
-0.0625
 74
     0
  0
LTYPE
  5
B7B9
330
5
100
AcDbSymbolTableRecord
100
AcDbLinetypeTableRecord
  2
Amzigzag2
 70
     0
  3
/\/-/\/-/\/-/\/-/\/-/\/
 72
    65
 73
     2
 40
0.4401
 49
0.0001
 74
     4
 75
   136
340
AC80
 46
0.0016
 50
0.0
 44
0.0
 45
0.0
 49
-0.4400000000000001
 74
     0
  0
LTYPE
  5
B7BA
330
5
100
AcDbSymbolTableRecord
100
AcDbLinetypeTableRecord
  2
ACANSTGB
 70
     0
  3
__ . . __ . .
 72
    65
 73
     6
 40
0.35433070866
 49
0.15748031496
 74
     0
 49
-0.03937007874
 74
     0
 49
0.03937007874
 74
     0
 49
-0.03937007874
 74
     0
 49
0.03937007874
 74
     0
 49
-0.03937007874
 74
     0
  0
LTYPE
  5
B7BB
330
5
100
AcDbSymbolTableRecord
100
AcDbLinetypeTableRecord
  2
ACANSTGL
 70
     0
  3
_ _ _ _ _
 72
    65
 73
     2
 40
0.11811023622
 49
0.07874015748
 74
     0
 49
-0.03937007874
 74
     0
  0
LTYPE
  5
37791
330
5
100
AcDbSymbolTableRecord
100
AcDbLinetypeTableRecord
  2
GEN7
 70
     0
  3
____ . ____ . ____ . ____ . ____ . ____ . ____
 72
    65
 73
     4
 40
13.75
 49
10.0
 74
     0
 49
-1.25
 74
     0
 49
1.25
 74
     0
 49
-1.25
 74
     0
  0
LTYPE
  5
37792
330
5
100
AcDbSymbolTableRecord
100
AcDbLinetypeTableRecord
  2
GEN7A
 70
     0
  3
__ . __ . __
 72
    65
 73
     4
 40
6.875
 49
5.0
 74
     0
 49
-0.625
 74
     0
 49
0.625
 74
     0
 49
-0.625
 74
     0
  0
LTYPE
  5
387FF
330
5
100
AcDbSymbolTableRecord
100
AcDbLinetypeTableRecord
  2
GEN4A
 70
     0
  3
_____ . . _____ . . _____ . . ____ .. ____
 72
    65
 73
     6
 40
16.25
 49
9.75
 74
     0
 49
-1.5
 74
     0
 49
1.0
 74
     0
 49
-1.5
 74
     0
 49
1.0
 74
     0
 49
-1.5
 74
     0
  0
LTYPE
  5
39F92
330
5
100
AcDbSymbolTableRecord
100
AcDbLinetypeTableRecord
  2
GEN3A
 70
     0
  3
 - - - - -
 72
    65
 73
     2
 40
3.125
 49
2.25
 74
     0
 49
-0.875
 74
     0
  0
ENDTAB
  0
TABLE
  2
LAYER
  5
2
102
{ACAD_XDICTIONARY
360
3F95
102
}
330
0
100
AcDbSymbolTable
 70
    33
  0
LAYER
  5
10
330
2
100
AcDbSymbolTableRecord
100
AcDbLayerTableRecord
  2
0
 70
     0
 62
     7
  6
Continuous
370
    -3
390
F
  0
LAYER
  5
6D1
330
2
100
AcDbSymbolTableRecord
100
AcDbLayerTableRecord
  2
Defpoints
 70
     0
 62
     7
  6
Continuous
290
     0
370
    -3
390
F
  0
LAYER
  5
5F85
330
2
100
AcDbSymbolTableRecord
100
AcDbLayerTableRecord
  2
AM_0
 70
     0
 62
     7
  6
中線
370
    30
390
F
1001
AcAecLayerStandard
1000

1000

  0
LAYER
  5
AC9F
330
2
100
AcDbSymbolTableRecord
100
AcDbLayerTableRecord
  2
size
 70
     0
 62
     5
  6
Continuous
290
     0
370
    25
390
F
  0
LAYER
  5
ACA0
330
2
100
AcDbSymbolTableRecord
100
AcDbLayerTableRecord
  2
waku
 70
     0
 62
     7
  6
Continuous
370
    35
390
F
  0
LAYER
  5
ACA1
330
2
100
AcDbSymbolTableRecord
100
AcDbLayerTableRecord
  2
AM_6
 70
     0
 62
     2
  6
文字
370
    13
390
F
1001
AcAecLayerStandard
1000

1000

  0
LAYER
  5
ACC8
330
2
100
AcDbSymbolTableRecord
100
AcDbLayerTableRecord
  2
hyomoji
 70
     0
 62
     2
  6
Continuous
370
    13
390
F
  0
LAYER
  5
ACC9
330
2
100
AcDbSymbolTableRecord
100
AcDbLayerTableRecord
  2
hyosen1
 70
     0
 62
     1
  6
Continuous
370
    25
390
F
  0
LAYER
  5
ACCA
330
2
100
AcDbSymbolTableRecord
100
AcDbLayerTableRecord
  2
hyosen2
 70
     0
 62
     1
  6
Continuous
370
    13
390
F
  0
LAYER
  5
AD60
330
2
100
AcDbSymbolTableRecord
100
AcDbLayerTableRecord
  2
AM_1
 70
     0
 62
    30
  6
太線
370
    40
390
F
1001
AcAecLayerStandard
1000

1000

  0
LAYER
  5
AD64
330
2
100
AcDbSymbolTableRecord
100
AcDbLayerTableRecord
  2
AM_2
 70
     0
 62
     1
  6
細線
370
    13
390
F
1001
AcAecLayerStandard
1000

1000

  0
LAYER
  5
AD67
330
2
100
AcDbSymbolTableRecord
100
AcDbLayerTableRecord
  2
AM_3
 70
     0
 62
     6
  6
陰線1
370
    13
390
F
1001
AcAecLayerStandard
1000

1000

  0
LAYER
  5
AD68
330
2
100
AcDbSymbolTableRecord
100
AcDbLayerTableRecord
  2
AM_5
 70
     0
 62
     3
  6
寸法線
370
    13
390
F
1001
AcAecLayerStandard
1000

1000

  0
LAYER
  5
AD69
330
2
100
AcDbSymbolTableRecord
100
AcDbLayerTableRecord
  2
AM_7
 70
     0
 62
     4
  6
中心線1
370
    13
390
F
1001
AcAecLayerStandard
1000

1000

  0
LAYER
  5
AD6A
330
2
100
AcDbSymbolTableRecord
100
AcDbLayerTableRecord
  2
AM_8
 70
     0
 62
     1
  6
ハッチング
370
    13
390
F
1001
AcAecLayerStandard
1000

1000

  0
LAYER
  5
AD6E
330
2
100
AcDbSymbolTableRecord
100
AcDbLayerTableRecord
  2
AM_10
 70
     0
 62
     7
  6
切断線
370
    13
390
F
1001
AcAecLayerStandard
1000

1000

  0
LAYER
  5
AD6F
330
2
100
AcDbSymbolTableRecord
100
AcDbLayerTableRecord
  2
AM_11
 70
     0
 62
     2
  6
想像線1
370
    13
390
F
1001
AcAecLayerStandard
1000

1000

  0
LAYER
  5
B1B6
330
2
100
AcDbSymbolTableRecord
100
AcDbLayerTableRecord
  2
AM_CL
 70
     0
 62
     1
  6
Amconstr
370
    15
390
F
1001
AcAecLayerStandard
1000

1000

  0
LAYER
  5
B2EB
330
2
100
AcDbSymbolTableRecord
100
AcDbLayerTableRecord
  2
AM_14
 70
     0
 62
     5
  6
細線
370
     9
390
F
1001
AcAecLayerStandard
1000

1000

  0
LAYER
  5
B2EC
330
2
100
AcDbSymbolTableRecord
100
AcDbLayerTableRecord
  2
AM_15
 70
     0
 62
     6
  6
陰線1
370
     9
390
F
1001
AcAecLayerStandard
1000

1000

  0
LAYER
  5
B502
330
2
100
AcDbSymbolTableRecord
100
AcDbLayerTableRecord
  2
AM_4
 70
     0
 62
     3
  6
補助線
370
    15
390
F
1001
AcAecLayerStandard
1000

1000

  0
LAYER
  5
B7BC
330
2
100
AcDbSymbolTableRecord
100
AcDbLayerTableRecord
  2
レイヤー 1
 70
     0
 62
     7
  6
Continuous
370
    -3
390
F
  0
LAYER
  5
37793
330
2
100
AcDbSymbolTableRecord
100
AcDbLayerTableRecord
  2
1
 70
     0
 62
     3
  6
Continuous
370
    -3
390
F
  0
LAYER
  5
37794
330
2
100
AcDbSymbolTableRecord
100
AcDbLayerTableRecord
  2
6
 70
     0
 62
     2
  6
Continuous
370
    -3
390
F
  0
LAYER
  5
37795
330
2
100
AcDbSymbolTableRecord
100
AcDbLayerTableRecord
  2
7
 70
     0
 62
     1
  6
GEN7
370
    -3
390
F
  0
LAYER
  5
37796
330
2
100
AcDbSymbolTableRecord
100
AcDbLayerTableRecord
  2
7A
 70
     0
 62
     1
  6
GEN7A
370
    -3
390
F
  0
LAYER
  5
37797
330
2
100
AcDbSymbolTableRecord
100
AcDbLayerTableRecord
  2
5
 70
     0
 62
     2
  6
Continuous
370
    -3
390
F
  0
LAYER
  5
37798
330
2
100
AcDbSymbolTableRecord
100
AcDbLayerTableRecord
  2
WAKU2
 70
     0
 62
     8
  6
Continuous
370
    -3
390
F
  0
LAYER
  5
37799
330
2
100
AcDbSymbolTableRecord
100
AcDbLayerTableRecord
  2
WAKU1
 70
     0
 62
     9
  6
Continuous
370
    -3
390
F
  0
LAYER
  5
38800
102
{ACAD_XDICTIONARY
360
38801
102
}
330
2
100
AcDbSymbolTableRecord
100
AcDbLayerTableRecord
  2
4A
 70
     0
 62
     2
  6
GEN4A
370
    35
390
F
  0
LAYER
  5
38803
102
{ACAD_XDICTIONARY
360
38804
102
}
330
2
100
AcDbSymbolTableRecord
100
AcDbLayerTableRecord
  2
CENTER
 70
     0
 62
     1
  6
CENTER
370
    -3
390
F
  0
LAYER
  5
39F93
330
2
100
AcDbSymbolTableRecord
100
AcDbLayerTableRecord
  2
3A
 70
     0
 62
     6
  6
GEN3A
370
    -3
390
F
1001
AcAecLayerStandard
1000

1000

  0
LAYER
  5
39F94
330
2
100
AcDbSymbolTableRecord
100
AcDbLayerTableRecord
  2
GAIKEI
 70
     0
 62
     3
  6
Continuous
370
    -3
390
F
  0
ENDTAB
  0
TABLE
  2
STYLE
  5
3
330
0
100
AcDbSymbolTable
 70
    10
  0
STYLE
  5
11
330
3
100
AcDbSymbolTableRecord
100
AcDbTextStyleTableRecord
  2
STANDARD
 70
     0
 40
0.0
 41
0.7
 50
0.0
 71
     0
 42
3.2
  3
romans.shx
  4
extfont.shx
  0
STYLE
  5
56
330
3
100
AcDbSymbolTableRecord
100
AcDbTextStyleTableRecord
  2

 70
     1
 40
0.0
 41
1.0
 50
0.0
 71
     0
 42
2.5
  3
ltypeshp.shx
  4

  0
STYLE
  5
58
330
3
100
AcDbSymbolTableRecord
100
AcDbTextStyleTableRecord
  2
ACISOTS
 70
     0
 40
1.0
 41
1.0
 50
0.0
 71
     0
 42
2.5
  3
isocp.shx
  4
extfont.shx
  0
STYLE
  5
63
330
3
100
AcDbSymbolTableRecord
100
AcDbTextStyleTableRecord
  2
ACISOGDT
 70
     0
 40
0.0
 41
1.0
 50
0.0
 71
     0
 42
2.5
  3
amgdt.shx
  4

  0
STYLE
  5
A74
330
3
100
AcDbSymbolTableRecord
100
AcDbTextStyleTableRecord
  2
DIM
 70
     0
 40
0.0
 41
1.0
 50
0.0
 71
     0
 42
2.5
  3
monotxt.shx
  4
extfont.shx
  0
STYLE
  5
AC80
330
3
100
AcDbSymbolTableRecord
100
AcDbTextStyleTableRecord
  2

 70
     1
 40
0.0
 41
1.0
 50
0.0
 71
     0
 42
3.2
  3
genltshp.shx
  4

  0
STYLE
  5
B7BD
330
3
100
AcDbSymbolTableRecord
100
AcDbTextStyleTableRecord
  2
ACANSTS
 70
     0
 40
1.0
 41
1.0
 50
0.0
 71
     0
 42
0.2
  3
romans.shx
  4
extfont.shx
  0
STYLE
  5
B7BE
330
3
100
AcDbSymbolTableRecord
100
AcDbTextStyleTableRecord
  2
ACANSGDT
 70
     0
 40
0.0
 41
1.0
 50
0.0
 71
     0
 42
0.2
  3
amgdt.shx
  4

  0
STYLE
  5
3779A
330
3
100
AcDbSymbolTableRecord
100
AcDbTextStyleTableRecord
  2
KANJI
 70
     0
 40
0.0
 41
1.0
 50
0.0
 71
     0
 42
10.0
  3
TXT
  4
EXTFONT
  0
STYLE
  5
3779B
330
3
100
AcDbSymbolTableRecord
100
AcDbTextStyleTableRecord
  2
MINCHOU
 70
     0
 40
0.0
 41
1.0
 50
0.0
 71
     0
 42
4.0
  3
\MSMINCH1.TTF
  4

  0
ENDTAB
  0
TABLE
  2
VIEW
  5
6
330
0
100
AcDbSymbolTable
 70
     6
  0
VIEW
  5
AE1
330
6
100
AcDbSymbolTableRecord
100
AcDbViewTableRecord
  2
AM_VIEW1
 70
     0
 40
168.8677685950413
 10
105.0
 20
212.5661157536293
 41
210.0
 11
0.0
 21
0.0
 31
1.0
 12
0.0
 22
0.0
 32
0.0
 42
50.0
 43
-1370.695619172058
 44
-1370.695619172058
 50
0.0
 71
     0
281
     0
 72
     0
  0
VIEW
  5
AE2
330
6
100
AcDbSymbolTableRecord
100
AcDbViewTableRecord
  2
AM_VIEW2
 70
     0
 40
168.8677685950413
 10
314.9999999999999
 20
212.5661157536293
 41
210.0
 11
0.0
 21
0.0
 31
1.0
 12
0.0
 22
0.0
 32
0.0
 42
50.0
 43
-1370.695619172058
 44
-1370.695619172058
 50
0.0
 71
     0
281
     0
 72
     0
  0
VIEW
  5
AE3
330
6
100
AcDbSymbolTableRecord
100
AcDbViewTableRecord
  2
AM_VIEW3
 70
     0
 40
168.8677685950413
 10
105.0
 20
84.43388434867065
 41
210.0
 11
0.0
 21
0.0
 31
1.0
 12
0.0
 22
0.0
 32
0.0
 42
50.0
 43
-1370.695619172058
 44
-1370.695619172058
 50
0.0
 71
     0
281
     0
 72
     0
  0
VIEW
  5
AE4
330
6
100
AcDbSymbolTableRecord
100
AcDbViewTableRecord
  2
AM_VIEW4
 70
     0
 40
168.8677685950413
 10
314.9999999999999
 20
84.43388434867065
 41
210.0
 11
0.0
 21
0.0
 31
1.0
 12
0.0
 22
0.0
 32
0.0
 42
50.0
 43
-1370.695619172058
 44
-1370.695619172058
 50
0.0
 71
     0
281
     0
 72
     0
  0
VIEW
  5
AE5
330
6
100
AcDbSymbolTableRecord
100
AcDbViewTableRecord
  2
AM_VIEW5
 70
     0
 40
168.8677685950413
 10
210.0
 20
148.50000005115
 41
210.0
 11
0.0
 21
0.0
 31
1.0
 12
0.0
 22
0.0
 32
0.0
 42
50.0
 43
-1370.695619172058
 44
-1370.695619172058
 50
0.0
 71
     0
281
     0
 72
     0
  0
VIEW
  5
AE6
330
6
100
AcDbSymbolTableRecord
100
AcDbViewTableRecord
  2
AM_VIEW6
 70
     0
 40
337.7321598347107
 10
210.0
 20
148.50000005115
 41
419.9958
 11
0.0
 21
0.0
 31
1.0
 12
0.0
 22
0.0
 32
0.0
 42
50.0
 43
-1370.695619172058
 44
-1370.695619172058
 50
0.0
 71
     0
281
     0
 72
     0
  0
ENDTAB
  0
TABLE
  2
UCS
  5
7
330
0
100
AcDbSymbolTable
 70
     0
  0
ENDTAB
  0
TABLE
  2
APPID
  5
9
330
0
100
AcDbSymbolTable
 70
    65
  0
APPID
  5
12
330
9
100
AcDbSymbolTableRecord
100
AcDbRegAppTableRecord
  2
ACAD
 70
     0
  0
APPID
  5
30
330
9
100
AcDbSymbolTableRecord
100
AcDbRegAppTableRecord
  2
MCAD_NO_VIS
 70
     0
  0
APPID
  5
31
330
9
100
AcDbSymbolTableRecord
100
AcDbRegAppTableRecord
  2
ACAD_TEMP_GRAPHIC
 70
     0
  0
APPID
  5
44
330
9
100
AcDbSymbolTableRecord
100
AcDbRegAppTableRecord
  2
ACATTRIBSERVICES
 70
     0
  0
APPID
  5
7A1
330
9
100
AcDbSymbolTableRecord
100
AcDbRegAppTableRecord
  2
GENIUS_GENDIMSH_14
 70
     0
  0
APPID
  5
A49
330
9
100
AcDbSymbolTableRecord
100
AcDbRegAppTableRecord
  2
GENIUS_GENREC_14
 70
     0
  0
APPID
  5
A4A
330
9
100
AcDbSymbolTableRecord
100
AcDbRegAppTableRecord
  2
GENIUS_GENOBJ-N-REC_13
 70
     0
  0
APPID
  5
A4B
330
9
100
AcDbSymbolTableRecord
100
AcDbRegAppTableRecord
  2
GENIUS_GENODEF_13
 70
     0
  0
APPID
  5
A4C
330
9
100
AcDbSymbolTableRecord
100
AcDbRegAppTableRecord
  2
DCO15
 70
     0
  0
APPID
  5
ADC
330
9
100
AcDbSymbolTableRecord
100
AcDbRegAppTableRecord
  2
GENIUS_GENOLIS_13
 70
     0
  0
APPID
  5
ADD
330
9
100
AcDbSymbolTableRecord
100
AcDbRegAppTableRecord
  2
GENIUS_GENOENT_13
 70
     0
  0
APPID
  5
ADE
330
9
100
AcDbSymbolTableRecord
100
AcDbRegAppTableRecord
  2
GENIUS_GENOBJ-N-TIT_13
 70
     0
  0
APPID
  5
ADF
330
9
100
AcDbSymbolTableRecord
100
AcDbRegAppTableRecord
  2
GENIUS_GENTITLE_13
 70
     0
  0
APPID
  5
AE0
330
9
100
AcDbSymbolTableRecord
100
AcDbRegAppTableRecord
  2
GENIUS_GENOREF_13
 70
     0
  0
APPID
  5
AE7
330
9
100
AcDbSymbolTableRecord
100
AcDbRegAppTableRecord
  2
GENIUS_GENSCREG_15
 70
     0
  0
APPID
  5
AE8
330
9
100
AcDbSymbolTableRecord
100
AcDbRegAppTableRecord
  2
GENIUS_GENOBJ-N-SDF_13
 70
     0
  0
APPID
  5
FAF
330
9
100
AcDbSymbolTableRecord
100
AcDbRegAppTableRecord
  2
GENIUS_GENBLLY_14
 70
     0
  0
APPID
  5
FB0
330
9
100
AcDbSymbolTableRecord
100
AcDbRegAppTableRecord
  2
GENIUS_GENTRA_14
 70
     0
  0
APPID
  5
1285
330
9
100
AcDbSymbolTableRecord
100
AcDbRegAppTableRecord
  2
GENIUS_GENDTOL_13
 70
     0
  0
APPID
  5
142D
330
9
100
AcDbSymbolTableRecord
100
AcDbRegAppTableRecord
  2
GENIUS_GENOBJ-N-CEN_13
 70
     0
  0
APPID
  5
1AB5
330
9
100
AcDbSymbolTableRecord
100
AcDbRegAppTableRecord
  2
GENIUS_GENOBJ-N-CRS_13
 70
     0
  0
APPID
  5
1B36
330
9
100
AcDbSymbolTableRecord
100
AcDbRegAppTableRecord
  2
GENIUS_GENOBJ-N-HTC_13
 70
     0
  0
APPID
  5
1B37
330
9
100
AcDbSymbolTableRecord
100
AcDbRegAppTableRecord
  2
GENIUS_GENHATCH_13
 70
     0
  0
APPID
  5
216D
330
9
100
AcDbSymbolTableRecord
100
AcDbRegAppTableRecord
  2
GENIUS_GENOBJ-N-FIL_13
 70
     0
  0
APPID
  5
2356
330
9
100
AcDbSymbolTableRecord
100
AcDbRegAppTableRecord
  2
GEVID990412420
 70
     0
  0
APPID
  5
2357
330
9
100
AcDbSymbolTableRecord
100
AcDbRegAppTableRecord
  2
GEVDC
 70
     0
  0
APPID
  5
2358
330
9
100
AcDbSymbolTableRecord
100
AcDbRegAppTableRecord
  2
GEVCON
 70
     0
  0
APPID
  5
235B
330
9
100
AcDbSymbolTableRecord
100
AcDbRegAppTableRecord
  2
GEVRADREF
 70
     0
  0
APPID
  5
2360
330
9
100
AcDbSymbolTableRecord
100
AcDbRegAppTableRecord
  2
GENIUS_GENBH_13
 70
     0
  0
APPID
  5
2362
330
9
100
AcDbSymbolTableRecord
100
AcDbRegAppTableRecord
  2
GENIUS_GENOBJ-NBEHI-BHF_13
 70
     0
  0
APPID
  5
2364
330
9
100
AcDbSymbolTableRecord
100
AcDbRegAppTableRecord
  2
GENIUS_GENOBJ-NBEHI-BHB_13
 70
     0
  0
APPID
  5
2379
330
9
100
AcDbSymbolTableRecord
100
AcDbRegAppTableRecord
  2
GENIUS_GENOBJ-F-SCPASSM_13
 70
     0
  0
APPID
  5
3D74
330
9
100
AcDbSymbolTableRecord
100
AcDbRegAppTableRecord
  2
GENIUS_GENDIM_13
 70
     0
  0
APPID
  5
3D76
330
9
100
AcDbSymbolTableRecord
100
AcDbRegAppTableRecord
  2
GENIUS_GE3DTOL_13
 70
     0
  0
APPID
  5
3D9C
330
9
100
AcDbSymbolTableRecord
100
AcDbRegAppTableRecord
  2
AD_DRAW
 70
     0
  0
APPID
  5
3DE8
330
9
100
AcDbSymbolTableRecord
100
AcDbRegAppTableRecord
  2
ASURF_PCURVE_APPNAME
 70
     0
  0
APPID
  5
3DED
330
9
100
AcDbSymbolTableRecord
100
AcDbRegAppTableRecord
  2
AMG_3D2D_5.0
 70
     0
  0
APPID
  5
3E1B
330
9
100
AcDbSymbolTableRecord
100
AcDbRegAppTableRecord
  2
DESIGNERASSEMBLIES
 70
     0
  0
APPID
  5
3E20
330
9
100
AcDbSymbolTableRecord
100
AcDbRegAppTableRecord
  2
ACADM_DIM_EDIT
 70
     0
  0
APPID
  5
3E21
330
9
100
AcDbSymbolTableRecord
100
AcDbRegAppTableRecord
  2
AMDT_DM_ADJ
 70
     0
  0
APPID
  5
4143
330
9
100
AcDbSymbolTableRecord
100
AcDbRegAppTableRecord
  2
GENIUS_GENFIL_13
 70
     0
  0
APPID
  5
4144
330
9
100
AcDbSymbolTableRecord
100
AcDbRegAppTableRecord
  2
GENIUS_GENOBJ-N-CHA_13
 70
     0
  0
APPID
  5
4E17
330
9
100
AcDbSymbolTableRecord
100
AcDbRegAppTableRecord
  2
GEVID1008153417
 70
     0
  0
APPID
  5
4E58
330
9
100
AcDbSymbolTableRecord
100
AcDbRegAppTableRecord
  2
GEVID1008153418
 70
     0
  0
APPID
  5
4E5E
330
9
100
AcDbSymbolTableRecord
100
AcDbRegAppTableRecord
  2
GEVID1008153419
 70
     0
  0
APPID
  5
4E64
330
9
100
AcDbSymbolTableRecord
100
AcDbRegAppTableRecord
  2
GEVID1008153420
 70
     0
  0
APPID
  5
4E75
330
9
100
AcDbSymbolTableRecord
100
AcDbRegAppTableRecord
  2
GEVID1008153421
 70
     0
  0
APPID
  5
4EB7
330
9
100
AcDbSymbolTableRecord
100
AcDbRegAppTableRecord
  2
GENIUS_AMGTXT_16
 70
     0
  0
APPID
  5
7645
330
9
100
AcDbSymbolTableRecord
100
AcDbRegAppTableRecord
  2
GENIUS_GENOBJ-N-DIM_13
 70
     0
  0
APPID
  5
AAD0
330
9
100
AcDbSymbolTableRecord
100
AcDbRegAppTableRecord
  2
ACAD_DSTYLE_DIMARC_LENGTH_SYMBOL
 70
     0
  0
APPID
  5
AAD1
330
9
100
AcDbSymbolTableRecord
100
AcDbRegAppTableRecord
  2
ACAD_DSTYLE_DIMJOGGED_JOGANGLE_SYMBOL
 70
     0
  0
APPID
  5
AAFD
330
9
100
AcDbSymbolTableRecord
100
AcDbRegAppTableRecord
  2
ACAD_PSEXT
 70
     0
  0
APPID
  5
AD61
330
9
100
AcDbSymbolTableRecord
100
AcDbRegAppTableRecord
  2
AcAecLayerStandard
 70
     0
  0
APPID
  5
AEE3
330
9
100
AcDbSymbolTableRecord
100
AcDbRegAppTableRecord
  2
ACAD_EXEMPT_FROM_CAD_STANDARDS
 70
     0
  0
APPID
  5
B1BE
330
9
100
AcDbSymbolTableRecord
100
AcDbRegAppTableRecord
  2
GENIUS_GENCEN_19
 70
     0
  0
APPID
  5
16AE2
330
9
100
AcDbSymbolTableRecord
100
AcDbRegAppTableRecord
  2
ACAD_MLEADERVER
 70
     0
  0
APPID
  5
16B08
330
9
100
AcDbSymbolTableRecord
100
AcDbRegAppTableRecord
  2
ACAUTHENVIRON
 70
     0
  0
APPID
  5
16B09
330
9
100
AcDbSymbolTableRecord
100
AcDbRegAppTableRecord
  2
AcDbDynamicBlockTrueName
 70
     0
  0
APPID
  5
16B0A
330
9
100
AcDbSymbolTableRecord
100
AcDbRegAppTableRecord
  2
AcDbDynamicBlockGUID
 70
     0
  0
APPID
  5
16B0B
330
9
100
AcDbSymbolTableRecord
100
AcDbRegAppTableRecord
  2
ACDBBLOCKREPETAG
 70
     0
  0
APPID
  5
3779F
330
9
100
AcDbSymbolTableRecord
100
AcDbRegAppTableRecord
  2
GENIUS_GENDREL_13
 70
     0
  0
APPID
  5
377A0
330
9
100
AcDbSymbolTableRecord
100
AcDbRegAppTableRecord
  2
GENIUS_GENHINW_13
 70
     0
  0
APPID
  5
377A1
330
9
100
AcDbSymbolTableRecord
100
AcDbRegAppTableRecord
  2
GENIUS_GENOBJ-N-HINW_13
 70
     0
  0
APPID
  5
377A2
330
9
100
AcDbSymbolTableRecord
100
AcDbRegAppTableRecord
  2
GENIUS_GENOBJ-N-LEADER_13
 70
     0
  0
APPID
  5
3B284
330
9
100
AcDbSymbolTableRecord
100
AcDbRegAppTableRecord
  2
ACAD_DSTYLE_DIMEXT_LENGTH
 70
     0
  0
ENDTAB
  0
TABLE
  2
DIMSTYLE
  5
A
330
0
100
AcDbSymbolTable
 70
    27
100
AcDbDimStyleTable
 71
     1
340
2515
  0
DIMSTYLE
105
A76
330
A
100
AcDbSymbolTableRecord
100
AcDbDimStyleTableRecord
  2
STANDARD
 70
     0
 41
3.0
 42
1.0
 43
7.0
 44
2.0
 73
     0
 74
     0
 77
     1
140
2.799999999999999
141
0.0
143
0.0394
147
0.7
171
     4
172
     1
173
     1
176
     3
177
     3
178
     2
271
     3
272
     3
273
     8
274
     4
289
     0
340
A74
341
A66
343
A66
344
A66
  0
DIMSTYLE
105
2515
330
A
100
AcDbSymbolTableRecord
100
AcDbDimStyleTableRecord
  2
SYS
 70
     0
  4
"
 41
1.0
 42
1.0
 43
10.0
 44
1.0
 47
0.1
 48
0.1
 73
     0
 74
     0
 77
     1
 78
     8
 79
     2
140
3.5
141
0.0
143
0.0393701
146
0.71
147
1.5
172
     1
176
   256
177
   256
178
     7
271
     2
272
     2
283
     0
284
     8
340
11
371
    -1
372
    -1
1001
ACAD_DSTYLE_DIMJOGGED_JOGANGLE_SYMBOL
1070
   384
1040
0.7853981633974483
1001
ACAD_DSTYLE_DIMARC_LENGTH_SYMBOL
1070
   379
1070
     1
  0
DIMSTYLE
105
2516
102
{ACAD_REACTORS
330
3AA6F
102
}
330
A
100
AcDbSymbolTableRecord
100
AcDbDimStyleTableRecord
  2
SYS$3
 70
     0
  4
"
 41
2.0
 42
1.0
 43
10.0
 44
1.0
 47
0.1
 48
0.1
 73
     0
 77
     1
 78
     8
 79
     2
140
3.5
141
0.0
143
0.0393701
146
0.71
147
1.5
176
   256
177
   256
178
     2
271
     2
272
     2
283
     0
284
     8
288
     1
340
11
342
A66
371
    -1
372
    -1
1001
ACAD_DSTYLE_DIMJOGGED_JOGANGLE_SYMBOL
1070
   384
1040
0.7853981633974483
1001
ACAD_DSTYLE_DIMARC_LENGTH_SYMBOL
1070
   379
1070
     1
  0
DIMSTYLE
105
2517
330
A
100
AcDbSymbolTableRecord
100
AcDbDimStyleTableRecord
  2
SYS$4
 70
     0
  4
"
 41
2.0
 42
1.0
 43
10.0
 44
1.0
 47
0.1
 48
0.1
 73
     0
 77
     1
 78
     8
 79
     2
140
3.5
141
0.0
143
0.0393701
146
0.71
147
1.5
173
     1
176
   256
177
   256
178
     2
271
     2
272
     2
283
     0
284
     8
288
     1
340
11
344
A66
371
    -1
372
    -1
1001
ACAD_DSTYLE_DIMJOGGED_JOGANGLE_SYMBOL
1070
   384
1040
0.7853981633974483
1001
ACAD_DSTYLE_DIMARC_LENGTH_SYMBOL
1070
   379
1070
     1
  0
DIMSTYLE
105
2518
330
A
100
AcDbSymbolTableRecord
100
AcDbDimStyleTableRecord
  2
SYS$6
 70
     0
  4
"
 41
2.0
 42
1.0
 43
10.0
 44
1.0
 47
0.1
 48
0.1
 73
     0
 74
     0
 78
     8
 79
     2
140
3.5
141
0.0
143
0.0393701
146
0.71
147
1.5
172
     1
176
   256
177
   256
178
     2
271
     2
272
     2
283
     0
284
     8
340
11
341
A66
371
    -1
372
    -1
1001
ACAD_DSTYLE_DIMJOGGED_JOGANGLE_SYMBOL
1070
   384
1040
0.7853981633974483
1001
ACAD_DSTYLE_DIMARC_LENGTH_SYMBOL
1070
   379
1070
     1
  0
DIMSTYLE
105
2519
330
A
100
AcDbSymbolTableRecord
100
AcDbDimStyleTableRecord
  2
SYS$7
 70
     0
  4
"
 41
2.0
 42
1.0
 43
10.0
 44
1.0
 47
0.1
 48
0.1
 73
     0
 74
     0
 77
     1
 78
     8
 79
     2
140
5.0
141
0.0
143
0.0393701
146
0.71
147
1.5
172
     1
176
   256
177
   256
178
     2
271
     2
272
     2
283
     0
284
     8
340
11
341
A66
342
A66
371
    -1
372
    -1
1001
ACAD_DSTYLE_DIMJOGGED_JOGANGLE_SYMBOL
1070
   384
1040
0.7853981633974483
1001
ACAD_DSTYLE_DIMARC_LENGTH_SYMBOL
1070
   379
1070
     1
  0
DIMSTYLE
105
251A
330
A
100
AcDbSymbolTableRecord
100
AcDbDimStyleTableRecord
  2
SYS$SF
 70
     0
  4
"
 41
2.5
 42
1.0
 43
10.0
 44
1.0
 47
0.1
 48
0.1
 73
     0
 74
     0
 75
     1
 76
     1
 77
     1
 78
     8
 79
     2
140
3.5
141
0.0
143
0.0393701
146
0.71
147
1.5
172
     1
176
   256
177
   256
178
     2
271
     2
272
     3
283
     0
284
     8
340
11
341
6C4
342
6C4
371
    -1
372
    -1
1001
ACAD_DSTYLE_DIMJOGGED_JOGANGLE_SYMBOL
1070
   384
1040
0.7853981633974483
1001
ACAD_DSTYLE_DIMARC_LENGTH_SYMBOL
1070
   379
1070
     1
  0
DIMSTYLE
105
251B
330
A
100
AcDbSymbolTableRecord
100
AcDbDimStyleTableRecord
  2
SYS$SH
 70
     0
  4
"
 41
2.5
 42
1.0
 43
10.0
 44
1.0
 47
0.1
 48
0.1
 73
     0
 74
     0
 75
     1
 76
     1
 77
     1
 78
     8
 79
     2
140
3.5
141
0.0
143
0.0393701
144
2.0
146
0.71
147
1.5
172
     1
173
     1
176
   256
177
   256
178
     2
271
     2
272
     3
283
     0
284
     8
340
11
341
6C4
343
72
344
6C4
371
    -1
372
    -1
1001
ACAD_DSTYLE_DIMJOGGED_JOGANGLE_SYMBOL
1070
   384
1040
0.7853981633974483
1001
ACAD_DSTYLE_DIMARC_LENGTH_SYMBOL
1070
   379
1070
     1
  0
DIMSTYLE
105
2A59
330
A
100
AcDbSymbolTableRecord
100
AcDbDimStyleTableRecord
  2
SYS$2
 70
     0
  4
"
 41
1.0
 42
1.0
 43
10.0
 44
1.0
 47
0.1
 48
0.1
 73
     0
 74
     0
 77
     1
 78
     8
 79
     2
140
3.5
141
0.0
143
0.0393701
146
0.71
147
1.5
172
     1
176
   256
177
   256
178
     2
271
     2
272
     2
283
     0
284
     8
340
11
342
6C4
371
    -1
372
    -1
1001
ACAD_DSTYLE_DIMJOGGED_JOGANGLE_SYMBOL
1070
   384
1040
0.7853981633974483
1001
ACAD_DSTYLE_DIMARC_LENGTH_SYMBOL
1070
   379
1070
     1
  0
DIMSTYLE
105
2AAB
102
{ACAD_REACTORS
330
3AA64
330
3AA65
330
3AA66
330
3AB68
330
3AB69
330
3AB6A
330
3AC0B
330
3AC3A
330
3ACA1
330
3ACA2
330
3ACA3
330
3B09C
330
3B0B2
330
3B0C8
330
3B1E1
102
}
330
A
100
AcDbSymbolTableRecord
100
AcDbDimStyleTableRecord
  2
SYS$0
 70
     0
  4
"
 41
1.0
 42
1.0
 43
10.0
 44
1.0
 47
0.1
 48
0.1
 73
     0
 74
     0
 77
     1
 78
     8
 79
     2
140
3.200000000000001
141
0.0
143
0.0393701
146
0.71
147
1.5
172
     1
176
   256
177
   256
178
     2
271
     2
272
     2
283
     0
284
     8
340
11
341
A66
342
6C4
371
    -1
372
    -1
1001
ACAD_DSTYLE_DIMJOGGED_JOGANGLE_SYMBOL
1070
   384
1040
0.7853981633974483
1001
ACAD_DSTYLE_DIMARC_LENGTH_SYMBOL
1070
   379
1070
     1
  0
DIMSTYLE
105
AF99
330
A
100
AcDbSymbolTableRecord
100
AcDbDimStyleTableRecord
  2
AM_ISO
 70
     0
  4
"
 41
2.5
 42
1.0
 43
10.0
 44
1.0
 47
0.1
 48
0.1
 73
     0
 74
     0
 77
     1
 78
     8
 79
     2
140
3.5
141
0.0
143
0.0393701
146
0.71
147
1.5
172
     1
176
   256
177
   256
178
     2
271
     2
272
     3
274
     4
283
     0
284
     8
340
11
371
    -1
372
    -1
  0
DIMSTYLE
105
AF9A
330
A
100
AcDbSymbolTableRecord
100
AcDbDimStyleTableRecord
  2
AM_ISO$3
 70
     0
  4
"
 41
2.5
 42
1.0
 43
10.0
 44
1.0
 47
0.1
 48
0.1
 73
     0
 77
     1
 78
     8
 79
     2
140
3.5
141
0.0
143
0.0393701
146
0.71
147
1.5
176
   256
177
   256
178
     2
271
     2
272
     3
274
     4
283
     0
284
     8
288
     1
289
     0
340
11
371
    -1
372
    -1
  0
DIMSTYLE
105
AF9B
330
A
100
AcDbSymbolTableRecord
100
AcDbDimStyleTableRecord
  2
AM_ISO$4
 70
     0
  4
"
 41
2.5
 42
1.0
 43
10.0
 44
1.0
 47
0.1
 48
0.1
 73
     0
 77
     1
 78
     8
 79
     2
140
3.5
141
0.0
143
0.0393701
146
0.71
147
1.5
176
   256
177
   256
178
     2
271
     2
272
     3
274
     4
283
     0
284
     8
288
     1
289
     0
340
11
371
    -1
372
    -1
  0
DIMSTYLE
105
AF9C
330
A
100
AcDbSymbolTableRecord
100
AcDbDimStyleTableRecord
  2
AM_ISO$6
 70
     0
  4
"
 41
2.5
 42
1.0
 43
10.0
 44
1.0
 47
0.1
 48
0.1
 73
     0
 74
     0
 78
     8
 79
     2
140
3.5
141
0.0
143
0.0393701
146
0.71
147
1.5
172
     1
176
   256
177
   256
178
     2
271
     2
272
     3
274
     4
283
     0
284
     8
340
11
371
    -1
372
    -1
  0
DIMSTYLE
105
AF9D
330
A
100
AcDbSymbolTableRecord
100
AcDbDimStyleTableRecord
  2
AM_ISO$7
 70
     0
  4
"
 41
2.5
 42
1.0
 43
10.0
 44
1.0
 47
0.1
 48
0.1
 73
     0
 74
     0
 77
     1
 78
     8
 79
     2
140
5.0
141
0.0
143
0.0393701
146
0.71
147
1.5
172
     1
176
   256
177
   256
178
     2
271
     2
272
     3
274
     4
283
     0
284
     8
340
11
371
    -1
372
    -1
  0
DIMSTYLE
105
AF9E
330
A
100
AcDbSymbolTableRecord
100
AcDbDimStyleTableRecord
  2
AM_ISO$SF
 70
     0
  4
"
 41
2.5
 42
1.0
 43
10.0
 44
1.0
 47
0.1
 48
0.1
 73
     0
 74
     0
 75
     1
 76
     1
 77
     1
 78
     8
 79
     2
140
3.5
141
0.0
143
0.0393701
146
0.71
147
1.5
172
     1
176
   256
177
   256
178
     2
271
     2
272
     3
274
     4
283
     0
284
     8
340
11
371
    -1
372
    -1
  0
DIMSTYLE
105
AF9F
330
A
100
AcDbSymbolTableRecord
100
AcDbDimStyleTableRecord
  2
AM_ISO$SH
 70
     0
  4
"
 41
2.5
 42
1.0
 43
10.0
 44
1.0
 47
0.1
 48
0.1
 73
     0
 74
     0
 75
     1
 76
     1
 77
     1
 78
     8
 79
     2
140
3.5
141
0.0
143
0.0393701
144
2.0
146
0.71
147
1.5
172
     1
173
     1
176
   256
177
   256
178
     2
271
     2
272
     3
274
     4
283
     0
284
     8
340
11
343
72
371
    -1
372
    -1
  0
DIMSTYLE
105
B7BF
330
A
100
AcDbSymbolTableRecord
100
AcDbDimStyleTableRecord
  2
AM_ANSI
 70
     0
  4
mm
 41
0.1
 42
0.05
 43
0.5
 44
0.1
 47
0.1
 48
0.1
 78
     7
 79
     2
140
0.12
141
0.0
146
0.71
147
0.06
176
   256
177
   256
178
     2
274
     4
284
     7
340
11
371
    -1
372
    -1
1001
ACAD_DSTYLE_DIMARC_LENGTH_SYMBOL
1070
   379
1070
     1
  0
DIMSTYLE
105
B7C0
330
A
100
AcDbSymbolTableRecord
100
AcDbDimStyleTableRecord
  2
AM_ANSI$3
 70
     0
  4
mm
 41
0.1
 42
0.05
 43
0.5
 44
0.1
 47
0.1
 48
0.1
 78
     7
 79
     2
140
0.12
141
0.0
146
0.71
147
0.06
176
   256
177
   256
178
     2
274
     4
284
     7
288
     1
289
     0
340
11
371
    -1
372
    -1
1001
ACAD_DSTYLE_DIMARC_LENGTH_SYMBOL
1070
   379
1070
     1
  0
DIMSTYLE
105
B7C1
330
A
100
AcDbSymbolTableRecord
100
AcDbDimStyleTableRecord
  2
AM_ANSI$4
 70
     0
  4
mm
 41
0.1
 42
0.05
 43
0.5
 44
0.1
 47
0.1
 48
0.1
 78
     7
 79
     2
140
0.12
141
0.0
146
0.71
147
0.06
176
   256
177
   256
178
     2
274
     4
284
     7
288
     1
289
     0
340
11
371
    -1
372
    -1
1001
ACAD_DSTYLE_DIMARC_LENGTH_SYMBOL
1070
   379
1070
     1
  0
DIMSTYLE
105
B7C2
330
A
100
AcDbSymbolTableRecord
100
AcDbDimStyleTableRecord
  2
AM_ANSI$7
 70
     0
  4
mm
 41
0.1
 42
0.05
 43
0.5
 44
0.1
 47
0.1
 48
0.1
 78
     7
 79
     2
140
0.24
141
0.0
146
0.71
147
0.06
176
   256
177
   256
178
     2
274
     4
284
     7
340
11
371
    -1
372
    -1
1001
ACAD_DSTYLE_DIMARC_LENGTH_SYMBOL
1070
   379
1070
     1
  0
DIMSTYLE
105
B7C3
330
A
100
AcDbSymbolTableRecord
100
AcDbDimStyleTableRecord
  2
AM_ANSI$SF
 70
     0
  4
mm
 41
0.1
 42
0.05
 43
0.5
 44
0.1
 47
0.1
 48
0.1
 75
     1
 76
     1
 78
     7
 79
     2
140
0.12
141
0.0
146
0.71
147
0.06
176
   256
177
   256
178
     2
274
     4
284
     7
340
11
371
    -1
372
    -1
1001
ACAD_DSTYLE_DIMARC_LENGTH_SYMBOL
1070
   379
1070
     1
  0
DIMSTYLE
105
B7C4
330
A
100
AcDbSymbolTableRecord
100
AcDbDimStyleTableRecord
  2
AM_ANSI$SH
 70
     0
  4
mm
 41
0.1
 42
0.05
 43
0.5
 44
0.1
 47
0.1
 48
0.1
 75
     1
 76
     1
 78
     7
 79
     2
140
0.12
141
0.0
146
0.71
147
0.06
173
     1
176
   256
177
   256
178
     2
274
     4
284
     7
340
11
343
72
371
    -1
372
    -1
1001
ACAD_DSTYLE_DIMARC_LENGTH_SYMBOL
1070
   379
1070
     1
  0
DIMSTYLE
105
3779C
330
A
100
AcDbSymbolTableRecord
100
AcDbDimStyleTableRecord
  2
GEN-ISO$3
 70
     0
 40
0.5
 41
3.0
 42
1.0
 43
10.0
 44
1.0
 47
0.1
 48
0.1
 73
     0
 77
     1
 78
     8
140
3.0
141
0.0
143
0.0393701
146
0.71
147
1.0
173
     1
176
   256
177
   256
178
     2
271
     8
272
     8
274
     4
283
     0
284
     8
288
     1
289
     0
340
11
341
376B5
343
376B5
344
376B5
  0
DIMSTYLE
105
3779D
330
A
100
AcDbSymbolTableRecord
100
AcDbDimStyleTableRecord
  2
GEN-ISO
 70
     0
 40
0.5
 41
3.0
 42
1.0
 43
10.0
 44
1.0
 47
0.1
 48
0.1
 73
     0
 74
     0
 77
     1
 78
     8
140
3.0
141
0.0
143
0.0393701
146
0.71
147
1.0
172
     1
173
     1
176
   256
177
   256
178
     2
271
     8
272
     8
274
     4
283
     0
284
     8
340
11
341
376B5
343
376B5
344
376B5
  0
DIMSTYLE
105
3779E
330
A
100
AcDbSymbolTableRecord
100
AcDbDimStyleTableRecord
  2
GEN-ISO$0
 70
     0
 40
0.5
 41
3.0
 42
1.0
 43
10.0
 44
1.0
 47
0.1
 48
0.1
 73
     0
 74
     0
 77
     1
 78
     8
140
3.0
141
0.0
143
0.0393701
146
0.71
147
1.0
172
     1
173
     1
176
     2
177
     2
178
     2
271
     8
272
     3
274
     4
283
     0
340
11
341
376B5
343
376B5
344
376B5
371
    -1
372
    -1
  0
DIMSTYLE
105
38806
330
A
100
AcDbSymbolTableRecord
100
AcDbDimStyleTableRecord
  2
GEN-ISO$4
 70
     0
  3
<>
  4
<>
 41
3.0
 42
1.0
 43
10.0
 44
1.0
 47
0.1
 48
0.1
 73
     0
 77
     1
 78
     8
140
3.0
141
0.0
143
0.0393701
146
0.71
147
1.0
173
     1
176
     2
177
     2
178
     2
271
     8
272
     8
283
     0
284
     8
288
     1
289
     0
340
11
341
376B5
343
376B5
344
376B5
1001
ACAD_DSTYLE_DIMEXT_LENGTH
1070
   378
1040
0.0
1001
ACAD_DSTYLE_DIMJOGGED_JOGANGLE_SYMBOL
1070
   384
1040
1.570796326794896
  0
ENDTAB
  0
TABLE
  2
BLOCK_RECORD
  5
1
330
0
100
AcDbSymbolTable
 70
    23
  0
BLOCK_RECORD
  5
1F
102
{ACAD_XDICTIONARY
360
8A
102
}
330
1
100
AcDbSymbolTableRecord
100
AcDbBlockTableRecord
  2
*Model_Space
340
22
  0
BLOCK_RECORD
  5
1B
330
1
100
AcDbSymbolTableRecord
100
AcDbBlockTableRecord
  2
*Paper_Space
340
1E
  0
BLOCK_RECORD
  5
23
330
1
100
AcDbSymbolTableRecord
100
AcDbBlockTableRecord
  2
*Paper_Space0
340
26
  0
BLOCK_RECORD
  5
72
330
1
100
AcDbSymbolTableRecord
100
AcDbBlockTableRecord
  2
GENAXEH
340
0
  0
BLOCK_RECORD
  5
6C4
330
1
100
AcDbSymbolTableRecord
100
AcDbBlockTableRecord
  2
_Dot
340
0
102
{BLKREFS
331
3B10D
331
3B10E
331
3B116
331
3B117
331
3B11F
331
3B120
331
3B12D
331
3B12E
331
3B136
331
3B137
331
3B13F
331
3B140
331
3B147
331
3B148
331
3B150
331
3B151
331
3B159
331
3B15A
331
3B162
331
3B163
331
3B16B
331
3B16C
331
3B173
331
3B174
331
3B17F
331
3B180
331
3B186
331
3B187
331
3B209
331
3B20A
102
}
  0
BLOCK_RECORD
  5
A66
330
1
100
AcDbSymbolTableRecord
100
AcDbBlockTableRecord
  2
_OPEN30
340
0
  0
BLOCK_RECORD
  5
376B5
330
1
100
AcDbSymbolTableRecord
100
AcDbBlockTableRecord
  2
_OPEN
340
0
  0
BLOCK_RECORD
  5
3858E
330
1
100
AcDbSymbolTableRecord
100
AcDbBlockTableRecord
  2
GENDOT
340
0
102
{BLKREFS
331
3AA6D
331
3AA6E
331
3AF8F
331
3AF90
331
3B128
102
}
  0
BLOCK_RECORD
  5
3AA73
330
1
100
AcDbSymbolTableRecord
100
AcDbBlockTableRecord
  2
*D7
340
0
  0
BLOCK_RECORD
  5
3AA7F
330
1
100
AcDbSymbolTableRecord
100
AcDbBlockTableRecord
  2
*D8
340
0
  0
BLOCK_RECORD
  5
3AA8B
330
1
100
AcDbSymbolTableRecord
100
AcDbBlockTableRecord
  2
*D9
340
0
  0
BLOCK_RECORD
  5
3AAB3
330
1
100
AcDbSymbolTableRecord
100
AcDbBlockTableRecord
  2
*D10
340
0
  0
BLOCK_RECORD
  5
3AB6D
330
1
100
AcDbSymbolTableRecord
100
AcDbBlockTableRecord
  2
*D11
340
0
  0
BLOCK_RECORD
  5
3AB78
330
1
100
AcDbSymbolTableRecord
100
AcDbBlockTableRecord
  2
*D12
340
0
  0
BLOCK_RECORD
  5
3AB84
330
1
100
AcDbSymbolTableRecord
100
AcDbBlockTableRecord
  2
*D13
340
0
  0
BLOCK_RECORD
  5
3AC0C
330
1
100
AcDbSymbolTableRecord
100
AcDbBlockTableRecord
  2
*D14
340
0
  0
BLOCK_RECORD
  5
3AC3B
330
1
100
AcDbSymbolTableRecord
100
AcDbBlockTableRecord
  2
*D15
340
0
  0
BLOCK_RECORD
  5
3ACA4
330
1
100
AcDbSymbolTableRecord
100
AcDbBlockTableRecord
  2
*D16
340
0
  0
BLOCK_RECORD
  5
3ACAF
330
1
100
AcDbSymbolTableRecord
100
AcDbBlockTableRecord
  2
*D17
340
0
  0
BLOCK_RECORD
  5
3ACBB
330
1
100
AcDbSymbolTableRecord
100
AcDbBlockTableRecord
  2
*D18
340
0
  0
BLOCK_RECORD
  5
3B09D
330
1
100
AcDbSymbolTableRecord
100
AcDbBlockTableRecord
  2
*D19
340
0
  0
BLOCK_RECORD
  5
3B0B3
330
1
100
AcDbSymbolTableRecord
100
AcDbBlockTableRecord
  2
*D20
340
0
  0
BLOCK_RECORD
  5
3B0C9
330
1
100
AcDbSymbolTableRecord
100
AcDbBlockTableRecord
  2
*D21
340
0
  0
BLOCK_RECORD
  5
3B1E2
330
1
100
AcDbSymbolTableRecord
100
AcDbBlockTableRecord
  2
*D22
340
0
  0
ENDTAB
  0
ENDSEC
  0
SECTION
  2
BLOCKS
  0
BLOCK
  5
20
330
1F
100
AcDbEntity
  8
0
100
AcDbBlockBegin
  2
*Model_Space
 70
     0
 10
0.0
 20
0.0
 30
0.0
  3
*Model_Space
  1

  0
ENDBLK
  5
21
330
1F
100
AcDbEntity
  8
0
100
AcDbBlockEnd
  0
BLOCK
  5
1C
330
1B
100
AcDbEntity
 67
     1
  8
0
100
AcDbBlockBegin
  2
*Paper_Space
 70
     0
 10
0.0
 20
0.0
 30
0.0
  3
*Paper_Space
  1

  0
ENDBLK
  5
1D
330
1B
100
AcDbEntity
 67
     1
  8
0
100
AcDbBlockEnd
  0
BLOCK
  5
24
330
23
100
AcDbEntity
 67
     1
  8
0
100
AcDbBlockBegin
  2
*Paper_Space0
 70
     0
 10
0.0
 20
0.0
 30
0.0
  3
*Paper_Space0
  1

  0
ENDBLK
  5
25
330
23
100
AcDbEntity
 67
     1
  8
0
100
AcDbBlockEnd
  0
BLOCK
  5
74
330
72
100
AcDbEntity
  8
0
100
AcDbBlockBegin
  2
GENAXEH
 70
     0
 10
0.0
 20
0.0
 30
0.0
  3
GENAXEH
  1

  0
LINE
  5
73
330
72
100
AcDbEntity
  8
0
100
AcDbLine
 10
-1.0
 20
0.0
 30
0.0
 11
1.0
 21
0.0
 31
0.0
  0
ENDBLK
  5
75
330
72
100
AcDbEntity
  8
0
100
AcDbBlockEnd
  0
BLOCK
  5
6C7
330
6C4
100
AcDbEntity
  8
0
100
AcDbBlockBegin
  2
_Dot
 70
     0
 10
0.0
 20
0.0
 30
0.0
  3
_Dot
  1

  0
LWPOLYLINE
  5
6C5
330
6C4
100
AcDbEntity
  8
0
  6
ByBlock
 62
     0
100
AcDbPolyline
 90
        2
 70
     1
 43
0.5
 10
-0.25
 20
0.0
 42
1.0
 10
0.25
 20
0.0
 42
1.0
  0
LINE
  5
6C6
330
6C4
100
AcDbEntity
  8
0
  6
ByBlock
 62
     0
370
    -2
100
AcDbLine
 10
-0.5
 20
0.0
 30
0.0
 11
-1.0
 21
0.0
 31
0.0
  0
ENDBLK
  5
6C8
330
6C4
100
AcDbEntity
  8
0
100
AcDbBlockEnd
  0
BLOCK
  5
A6A
330
A66
100
AcDbEntity
  8
0
100
AcDbBlockBegin
  2
_OPEN30
 70
     0
 10
0.0
 20
0.0
 30
0.0
  3
_OPEN30
  1

  0
LINE
  5
A67
330
A66
100
AcDbEntity
  8
0
  6
ByBlock
 62
     0
100
AcDbLine
 10
-1.0
 20
0.26794919
 30
0.0
 11
0.0
 21
0.0
 31
0.0
  0
LINE
  5
A68
330
A66
100
AcDbEntity
  8
0
  6
ByBlock
 62
     0
100
AcDbLine
 10
0.0
 20
0.0
 30
0.0
 11
-1.0
 21
-0.26794919
 31
0.0
  0
LINE
  5
A69
330
A66
100
AcDbEntity
  8
0
  6
ByBlock
 62
     0
100
AcDbLine
 10
0.0
 20
0.0
 30
0.0
 11
-1.0
 21
0.0
 31
0.0
  0
ENDBLK
  5
A6B
330
A66
100
AcDbEntity
  8
0
100
AcDbBlockEnd
  0
BLOCK
  5
376B6
330
376B5
100
AcDbEntity
  8
0
100
AcDbBlockBegin
  2
_OPEN
 70
     0
 10
0.0
 20
0.0
 30
0.0
  3
_OPEN
  1

  0
LINE
  5
376B7
330
376B5
100
AcDbEntity
  8
0
  6
ByBlock
 62
     0
100
AcDbLine
 10
-1.0
 20
0.1666666666666666
 30
0.0
 11
0.0
 21
0.0
 31
0.0
  0
LINE
  5
376B8
330
376B5
100
AcDbEntity
  8
0
  6
ByBlock
 62
     0
100
AcDbLine
 10
0.0
 20
0.0
 30
0.0
 11
-1.0
 21
-0.1666666666666666
 31
0.0
  0
LINE
  5
376B9
330
376B5
100
AcDbEntity
  8
0
  6
ByBlock
 62
     0
100
AcDbLine
 10
0.0
 20
0.0
 30
0.0
 11
-1.0
 21
0.0
 31
0.0
  0
ENDBLK
  5
376BA
330
376B5
100
AcDbEntity
  8
0
100
AcDbBlockEnd
  0
BLOCK
  5
38591
330
3858E
100
AcDbEntity
  8
0
100
AcDbBlockBegin
  2
GENDOT
 70
     0
 10
0.0
 20
0.0
 30
0.0
  3
GENDOT
  1

  0
LINE
  5
3858F
330
3858E
100
AcDbEntity
  8
0
100
AcDbLine
 10
0.0
 20
0.0
 30
0.0
 11
-1.0
 21
0.0
 31
0.0
  0
LWPOLYLINE
  5
38590
330
3858E
100
AcDbEntity
  8
0
100
AcDbPolyline
 90
        2
 70
     1
 43
0.25
 10
-0.125
 20
0.0
 42
1.0
 10
0.125
 20
0.0
 42
1.0
  0
ENDBLK
  5
38592
330
3858E
100
AcDbEntity
  8
0
100
AcDbBlockEnd
  0
BLOCK
  5
3AA7D
330
3AA73
100
AcDbEntity
  8
0
100
AcDbBlockBegin
  2
*D7
 70
     1
 10
0.0
 20
0.0
 30
0.0
  3
*D7
  1

  0
LINE
  5
3B10A
330
3AA73
100
AcDbEntity
  8
AM_5
100
AcDbLine
 10
251.9997514945094
 20
242.3535458329519
 30
0.0
 11
251.9997514945094
 21
254.3535458329519
 31
0.0
  0
LINE
  5
3B10B
330
3AA73
100
AcDbEntity
  8
AM_5
100
AcDbLine
 10
269.9997514945106
 20
242.3535458329517
 30
0.0
 11
269.9997514945106
 21
254.3535458329519
 31
0.0
  0
LINE
  5
3B10C
330
3AA73
100
AcDbEntity
  8
AM_5
100
AcDbLine
 10
252.9997514945094
 20
253.3535458329519
 30
0.0
 11
268.9997514945106
 21
253.3535458329519
 31
0.0
  0
INSERT
  5
3B10D
330
3AA73
100
AcDbEntity
  8
AM_5
100
AcDbBlockReference
  2
_Dot
 10
251.9997514945094
 20
253.3535458329519
 30
0.0
 50
180.0
  0
INSERT
  5
3B10E
330
3AA73
100
AcDbEntity
  8
AM_5
100
AcDbBlockReference
  2
_Dot
 10
269.9997514945106
 20
253.3535458329519
 30
0.0
  0
MTEXT
  5
3B10F
330
3AA73
100
AcDbEntity
  8
AM_5
 62
     2
100
AcDbMText
 10
260.99975149451
 20
256.4535458329519
 30
0.0
 40
3.200000000000001
 41
0.0
 71
     5
 72
     1
  1
18
 73
     1
 44
1.0
1001
ACAD
1000
MTEXTBEGIN
1070
    73
1070
     1
1070
    44
1040
1.0
1070
    74
1070
     0
1000
MTEXTEND
  0
POINT
  5
3B110
330
3AA73
100
AcDbEntity
  8
Defpoints
 62
     0
100
AcDbPoint
 10
251.9997514945094
 20
241.3535458329519
 30
0.0
  0
POINT
  5
3B111
330
3AA73
100
AcDbEntity
  8
Defpoints
 62
     0
100
AcDbPoint
 10
269.9997514945106
 20
241.3535458329517
 30
0.0
  0
POINT
  5
3B112
330
3AA73
100
AcDbEntity
  8
Defpoints
 62
     0
100
AcDbPoint
 10
269.9997514945106
 20
253.3535458329519
 30
0.0
  0
ENDBLK
  5
3AA7E
330
3AA73
100
AcDbEntity
  8
0
100
AcDbBlockEnd
  0
BLOCK
  5
3AA89
330
3AA7F
100
AcDbEntity
  8
0
100
AcDbBlockBegin
  2
*D8
 70
     1
 10
0.0
 20
0.0
 30
0.0
  3
*D8
  1

  0
LINE
  5
3B113
330
3AA7F
100
AcDbEntity
  8
AM_5
100
AcDbLine
 10
242.9997514945094
 20
197.9535458329519
 30
0.0
 11
242.9997514945094
 21
264.3535458329519
 31
0.0
  0
LINE
  5
3B114
330
3AA7F
100
AcDbEntity
  8
AM_5
100
AcDbLine
 10
278.9997514945093
 20
197.9535458329519
 30
0.0
 11
278.9997514945093
 21
264.3535458329519
 31
0.0
  0
LINE
  5
3B115
330
3AA7F
100
AcDbEntity
  8
AM_5
100
AcDbLine
 10
243.9997514945094
 20
263.3535458329519
 30
0.0
 11
277.9997514945093
 21
263.3535458329519
 31
0.0
  0
INSERT
  5
3B116
330
3AA7F
100
AcDbEntity
  8
AM_5
100
AcDbBlockReference
  2
_Dot
 10
242.9997514945094
 20
263.3535458329519
 30
0.0
 50
180.0
  0
INSERT
  5
3B117
330
3AA7F
100
AcDbEntity
  8
AM_5
100
AcDbBlockReference
  2
_Dot
 10
278.9997514945093
 20
263.3535458329519
 30
0.0
  0
MTEXT
  5
3B118
330
3AA7F
100
AcDbEntity
  8
AM_5
 62
     2
100
AcDbMText
 10
260.9997514945093
 20
266.4535458329519
 30
0.0
 40
3.200000000000001
 41
0.0
 71
     5
 72
     1
  1
36
 73
     1
 44
1.0
1001
ACAD
1000
MTEXTBEGIN
1070
    73
1070
     1
1070
    44
1040
1.0
1070
    74
1070
     0
1000
MTEXTEND
  0
POINT
  5
3B119
330
3AA7F
100
AcDbEntity
  8
Defpoints
 62
     0
100
AcDbPoint
 10
242.9997514945094
 20
196.9535458329519
 30
0.0
  0
POINT
  5
3B11A
330
3AA7F
100
AcDbEntity
  8
Defpoints
 62
     0
100
AcDbPoint
 10
278.9997514945093
 20
196.9535458329519
 30
0.0
  0
POINT
  5
3B11B
330
3AA7F
100
AcDbEntity
  8
Defpoints
 62
     0
100
AcDbPoint
 10
278.9997514945093
 20
263.3535458329519
 30
0.0
  0
ENDBLK
  5
3AA8A
330
3AA7F
100
AcDbEntity
  8
0
100
AcDbBlockEnd
  0
BLOCK
  5
3AA95
330
3AA8B
100
AcDbEntity
  8
0
100
AcDbBlockBegin
  2
*D9
 70
     1
 10
0.0
 20
0.0
 30
0.0
  3
*D9
  1

  0
LINE
  5
3B11C
330
3AA8B
100
AcDbEntity
  8
AM_5
100
AcDbLine
 10
236.4997514945094
 20
195.9535458329519
 30
0.0
 11
236.4997514945094
 21
274.3535458329517
 31
0.0
  0
LINE
  5
3B11D
330
3AA8B
100
AcDbEntity
  8
AM_5
100
AcDbLine
 10
285.4997514945093
 20
195.9535458329519
 30
0.0
 11
285.4997514945093
 21
274.3535458329517
 31
0.0
  0
LINE
  5
3B11E
330
3AA8B
100
AcDbEntity
  8
AM_5
100
AcDbLine
 10
237.4997514945094
 20
273.3535458329517
 30
0.0
 11
284.4997514945093
 21
273.3535458329517
 31
0.0
  0
INSERT
  5
3B11F
330
3AA8B
100
AcDbEntity
  8
AM_5
100
AcDbBlockReference
  2
_Dot
 10
236.4997514945094
 20
273.3535458329517
 30
0.0
 50
180.0
  0
INSERT
  5
3B120
330
3AA8B
100
AcDbEntity
  8
AM_5
100
AcDbBlockReference
  2
_Dot
 10
285.4997514945093
 20
273.3535458329517
 30
0.0
  0
MTEXT
  5
3B121
330
3AA8B
100
AcDbEntity
  8
AM_5
 62
     2
100
AcDbMText
 10
260.9997514945093
 20
276.4535458329517
 30
0.0
 40
3.200000000000001
 41
0.0
 71
     5
 72
     1
  1
49
 73
     1
 44
1.0
1001
ACAD
1000
MTEXTBEGIN
1070
    73
1070
     1
1070
    44
1040
1.0
1070
    74
1070
     0
1000
MTEXTEND
  0
POINT
  5
3B122
330
3AA8B
100
AcDbEntity
  8
Defpoints
 62
     0
100
AcDbPoint
 10
236.4997514945094
 20
194.9535458329519
 30
0.0
  0
POINT
  5
3B123
330
3AA8B
100
AcDbEntity
  8
Defpoints
 62
     0
100
AcDbPoint
 10
285.4997514945093
 20
194.9535458329519
 30
0.0
  0
POINT
  5
3B124
330
3AA8B
100
AcDbEntity
  8
Defpoints
 62
     0
100
AcDbPoint
 10
285.4997514945093
 20
273.3535458329517
 30
0.0
  0
ENDBLK
  5
3AA96
330
3AA8B
100
AcDbEntity
  8
0
100
AcDbBlockEnd
  0
BLOCK
  5
3AABA
330
3AAB3
100
AcDbEntity
  8
0
100
AcDbBlockBegin
  2
*D10
 70
     1
 10
0.0
 20
0.0
 30
0.0
  3
*D10
  1

  0
LINE
  5
3B125
330
3AAB3
100
AcDbEntity
  8
AM_5
100
AcDbLine
 10
326.9564181611771
 20
183.5001705866659
 30
0.0
 11
296.4997514945103
 21
183.5001705866659
 31
0.0
  0
LINE
  5
3B126
330
3AAB3
100
AcDbEntity
  8
AM_5
100
AcDbLine
 10
296.4997514945103
 20
183.5001705866659
 30
0.0
 11
283.295984606277
 21
187.6147474727241
 31
0.0
  0
MTEXT
  5
3B127
330
3AAB3
100
AcDbEntity
  8
AM_5
 62
     2
100
AcDbMText
 10
312.4780848278438
 20
186.7501705866659
 30
0.0
 40
3.5
 41
0.0
 71
     5
 72
     1
  1
2-\U+22055×7.5スロット
 73
     1
 44
1.0
1001
ACAD
1000
MTEXTBEGIN
1070
    73
1070
     1
1070
    44
1040
1.0
1070
    74
1070
     0
1000
MTEXTEND
  0
INSERT
  5
3B128
330
3AAB3
100
AcDbEntity
  8
AM_5
100
AcDbBlockReference
  2
GENDOT
 10
281.3865476677136
 20
188.2097689661588
 30
0.0
 41
2.0
 42
2.0
 43
2.0
 50
162.6918460190583
  0
POINT
  5
3B129
330
3AAB3
100
AcDbEntity
  8
Defpoints
 62
     0
100
AcDbPoint
 10
281.3865476677136
 20
188.2097689661588
 30
0.0
  0
POINT
  5
3B12A
330
3AAB3
100
AcDbEntity
  8
Defpoints
 62
     0
100
AcDbPoint
 10
276.6129553213048
 20
189.6973226997453
 30
0.0
  0
ENDBLK
  5
3AABB
330
3AAB3
100
AcDbEntity
  8
0
100
AcDbBlockEnd
  0
BLOCK
  5
3AB76
330
3AB6D
100
AcDbEntity
  8
0
100
AcDbBlockBegin
  2
*D11
 70
     1
 10
0.0
 20
0.0
 30
0.0
  3
*D11
  1

  0
LINE
  5
3B12B
330
3AB6D
100
AcDbEntity
  8
AM_5
100
AcDbLine
 10
238.4997514945095
 20
197.9535458329519
 30
0.0
 11
216.0235030062332
 21
197.9535458329519
 31
0.0
  0
LINE
  5
3B12C
330
3AB6D
100
AcDbEntity
  8
AM_5
100
AcDbLine
 10
217.0235030062332
 20
172.9535458329519
 30
0.0
 11
217.0235030062332
 21
196.9535458329519
 31
0.0
  0
INSERT
  5
3B12D
330
3AB6D
100
AcDbEntity
  8
AM_5
100
AcDbBlockReference
  2
_Dot
 10
217.0235030062332
 20
171.9535458329519
 30
0.0
 50
270.0
  0
INSERT
  5
3B12E
330
3AB6D
100
AcDbEntity
  8
AM_5
100
AcDbBlockReference
  2
_Dot
 10
217.0235030062332
 20
197.9535458329519
 30
0.0
 50
90.0
  0
MTEXT
  5
3B12F
330
3AB6D
100
AcDbEntity
  8
AM_5
 62
     2
100
AcDbMText
 10
213.9235030062331
 20
184.9535458329519
 30
0.0
 40
3.200000000000001
 41
0.0
 71
     5
 72
     1
  1
26
 11
0.0000000000000001
 21
1.0
 31
0.0
 73
     1
 44
1.0
1001
ACAD
1000
MTEXTBEGIN
1070
    73
1070
     1
1070
    44
1040
1.0
1070
    74
1070
     0
1000
MTEXTEND
  0
POINT
  5
3B130
330
3AB6D
100
AcDbEntity
  8
Defpoints
 62
     0
100
AcDbPoint
 10
239.4997514945095
 20
171.9535458329519
 30
0.0
  0
POINT
  5
3B131
330
3AB6D
100
AcDbEntity
  8
Defpoints
 62
     0
100
AcDbPoint
 10
239.4997514945095
 20
197.9535458329519
 30
0.0
  0
POINT
  5
3B132
330
3AB6D
100
AcDbEntity
  8
Defpoints
 62
     0
100
AcDbPoint
 10
217.0235030062332
 20
197.9535458329519
 30
0.0
  0
ENDBLK
  5
3AB77
330
3AB6D
100
AcDbEntity
  8
0
100
AcDbBlockEnd
  0
BLOCK
  5
3AB82
330
3AB78
100
AcDbEntity
  8
0
100
AcDbBlockBegin
  2
*D12
 70
     1
 10
0.0
 20
0.0
 30
0.0
  3
*D12
  1

  0
LINE
  5
3B133
330
3AB78
100
AcDbEntity
  8
AM_5
100
AcDbLine
 10
236.4997514945094
 20
178.4535458329519
 30
0.0
 11
226.0235030062332
 21
178.4535458329519
 31
0.0
  0
LINE
  5
3B134
330
3AB78
100
AcDbEntity
  8
AM_5
100
AcDbLine
 10
236.4997514945094
 20
191.453545832952
 30
0.0
 11
226.0235030062332
 21
191.453545832952
 31
0.0
  0
LINE
  5
3B135
330
3AB78
100
AcDbEntity
  8
AM_5
100
AcDbLine
 10
227.0235030062332
 20
179.4535458329519
 30
0.0
 11
227.0235030062332
 21
190.453545832952
 31
0.0
  0
INSERT
  5
3B136
330
3AB78
100
AcDbEntity
  8
AM_5
100
AcDbBlockReference
  2
_Dot
 10
227.0235030062332
 20
178.4535458329519
 30
0.0
 50
270.0
  0
INSERT
  5
3B137
330
3AB78
100
AcDbEntity
  8
AM_5
100
AcDbBlockReference
  2
_Dot
 10
227.0235030062332
 20
191.453545832952
 30
0.0
 50
90.0
  0
MTEXT
  5
3B138
330
3AB78
100
AcDbEntity
  8
AM_5
 62
     2
100
AcDbMText
 10
223.9235030062332
 20
184.953545832952
 30
0.0
 40
3.200000000000001
 41
0.0
 71
     5
 72
     1
  1
13
 11
0.0000000000000001
 21
1.0
 31
0.0
 73
     1
 44
1.0
1001
ACAD
1000
MTEXTBEGIN
1070
    73
1070
     1
1070
    44
1040
1.0
1070
    74
1070
     0
1000
MTEXTEND
  0
POINT
  5
3B139
330
3AB78
100
AcDbEntity
  8
Defpoints
 62
     0
100
AcDbPoint
 10
237.4997514945094
 20
178.4535458329519
 30
0.0
  0
POINT
  5
3B13A
330
3AB78
100
AcDbEntity
  8
Defpoints
 62
     0
100
AcDbPoint
 10
237.4997514945094
 20
191.453545832952
 30
0.0
  0
POINT
  5
3B13B
330
3AB78
100
AcDbEntity
  8
Defpoints
 62
     0
100
AcDbPoint
 10
227.0235030062332
 20
191.453545832952
 30
0.0
  0
ENDBLK
  5
3AB83
330
3AB78
100
AcDbEntity
  8
0
100
AcDbBlockEnd
  0
BLOCK
  5
3AB8E
330
3AB84
100
AcDbEntity
  8
0
100
AcDbBlockBegin
  2
*D13
 70
     1
 10
0.0
 20
0.0
 30
0.0
  3
*D13
  1

  0
LINE
  5
3B13C
330
3AB84
100
AcDbEntity
  8
AM_5
100
AcDbLine
 10
236.4997514945094
 20
178.4535458329519
 30
0.0
 11
226.0235030062332
 21
178.4535458329519
 31
0.0
  0
LINE
  5
3B13D
330
3AB84
100
AcDbEntity
  8
AM_5
100
AcDbLine
 10
227.0235030062332
 20
177.4535458329519
 30
0.0
 11
227.0235030062332
 21
172.9535458329519
 31
0.0
  0
LINE
  5
3B13E
330
3AB84
100
AcDbEntity
  8
AM_5
100
AcDbLine
 10
227.0235030062332
 20
171.9535458329519
 30
0.0
 11
227.0235030062332
 21
157.4463648763317
 31
0.0
  0
INSERT
  5
3B13F
330
3AB84
100
AcDbEntity
  8
AM_5
100
AcDbBlockReference
  2
_Dot
 10
227.0235030062332
 20
178.4535458329519
 30
0.0
 50
90.0
  0
INSERT
  5
3B140
330
3AB84
100
AcDbEntity
  8
AM_5
100
AcDbBlockReference
  2
_Dot
 10
227.0235030062332
 20
171.9535458329519
 30
0.0
 50
270.0
  0
MTEXT
  5
3B141
330
3AB84
100
AcDbEntity
  8
AM_5
 62
     2
100
AcDbMText
 10
223.9235030062332
 20
161.2396982096651
 30
0.0
 40
3.200000000000001
 41
0.0
 71
     5
 72
     1
  1
6.5
 11
0.0000000000000001
 21
1.0
 31
0.0
 73
     1
 44
1.0
1001
ACAD
1000
MTEXTBEGIN
1070
    73
1070
     1
1070
    44
1040
1.0
1070
    74
1070
     0
1000
MTEXTEND
  0
POINT
  5
3B142
330
3AB84
100
AcDbEntity
  8
Defpoints
 62
     0
100
AcDbPoint
 10
239.4997514945095
 20
171.9535458329519
 30
0.0
  0
POINT
  5
3B143
330
3AB84
100
AcDbEntity
  8
Defpoints
 62
     0
100
AcDbPoint
 10
237.4997514945094
 20
178.4535458329519
 30
0.0
  0
POINT
  5
3B144
330
3AB84
100
AcDbEntity
  8
Defpoints
 62
     0
100
AcDbPoint
 10
227.0235030062332
 20
178.4535458329519
 30
0.0
  0
ENDBLK
  5
3AB8F
330
3AB84
100
AcDbEntity
  8
0
100
AcDbBlockEnd
  0
BLOCK
  5
3AC16
330
3AC0C
100
AcDbEntity
  8
0
100
AcDbBlockBegin
  2
*D14
 70
     1
 10
0.0
 20
0.0
 30
0.0
  3
*D14
  1

  0
LINE
  5
3B145
330
3AC0C
100
AcDbEntity
  8
AM_5
100
AcDbLine
 10
230.4997514945077
 20
141.9535458329522
 30
0.0
 11
216.023503006233
 21
141.9535458329522
 31
0.0
  0
LINE
  5
3B146
330
3AC0C
100
AcDbEntity
  8
AM_5
100
AcDbLine
 10
217.023503006233
 20
164.9535458329601
 30
0.0
 11
217.023503006233
 21
142.9535458329523
 31
0.0
  0
INSERT
  5
3B147
330
3AC0C
100
AcDbEntity
  8
AM_5
100
AcDbBlockReference
  2
_Dot
 10
217.023503006233
 20
165.9535458329601
 30
0.0
 50
90.0
  0
INSERT
  5
3B148
330
3AC0C
100
AcDbEntity
  8
AM_5
100
AcDbBlockReference
  2
_Dot
 10
217.023503006233
 20
141.9535458329522
 30
0.0
 50
270.0
  0
MTEXT
  5
3B149
330
3AC0C
100
AcDbEntity
  8
AM_5
 62
     2
100
AcDbMText
 10
213.923503006233
 20
153.9535458329562
 30
0.0
 40
3.200000000000001
 41
0.0
 71
     5
 72
     1
  1
24
 11
0.0000000000000001
 21
1.0
 31
0.0
 73
     1
 44
1.0
1001
ACAD
1000
MTEXTBEGIN
1070
    73
1070
     1
1070
    44
1040
1.0
1070
    74
1070
     0
1000
MTEXTEND
  0
POINT
  5
3B14A
330
3AC0C
100
AcDbEntity
  8
Defpoints
 62
     0
100
AcDbPoint
 10
243.4997514945077
 20
165.9535458329601
 30
0.0
  0
POINT
  5
3B14B
330
3AC0C
100
AcDbEntity
  8
Defpoints
 62
     0
100
AcDbPoint
 10
231.4997514945077
 20
141.9535458329522
 30
0.0
  0
POINT
  5
3B14C
330
3AC0C
100
AcDbEntity
  8
Defpoints
 62
     0
100
AcDbPoint
 10
217.023503006233
 20
141.9535458329522
 30
0.0
  0
ENDBLK
  5
3AC17
330
3AC0C
100
AcDbEntity
  8
0
100
AcDbBlockEnd
  0
BLOCK
  5
3AC45
330
3AC3B
100
AcDbEntity
  8
0
100
AcDbBlockBegin
  2
*D15
 70
     1
 10
0.0
 20
0.0
 30
0.0
  3
*D15
  1

  0
LINE
  5
3B14D
330
3AC3B
100
AcDbEntity
  8
AM_5
100
AcDbLine
 10
230.4997514945077
 20
141.9535458329522
 30
0.0
 11
216.0235030062327
 21
141.9535458329522
 31
0.0
  0
LINE
  5
3B14E
330
3AC3B
100
AcDbEntity
  8
AM_5
100
AcDbLine
 10
230.4997514945077
 20
118.9535458329523
 30
0.0
 11
216.0235030062327
 21
118.9535458329523
 31
0.0
  0
LINE
  5
3B14F
330
3AC3B
100
AcDbEntity
  8
AM_5
100
AcDbLine
 10
217.0235030062328
 20
140.9535458329522
 30
0.0
 11
217.0235030062328
 21
119.9535458329523
 31
0.0
  0
INSERT
  5
3B150
330
3AC3B
100
AcDbEntity
  8
AM_5
100
AcDbBlockReference
  2
_Dot
 10
217.0235030062328
 20
141.9535458329522
 30
0.0
 50
90.0
  0
INSERT
  5
3B151
330
3AC3B
100
AcDbEntity
  8
AM_5
100
AcDbBlockReference
  2
_Dot
 10
217.0235030062328
 20
118.9535458329523
 30
0.0
 50
270.0
  0
MTEXT
  5
3B152
330
3AC3B
100
AcDbEntity
  8
AM_5
 62
     2
100
AcDbMText
 10
213.9235030062327
 20
130.4535458329523
 30
0.0
 40
3.200000000000001
 41
0.0
 71
     5
 72
     1
  1
23
 11
0.0000000000000001
 21
1.0
 31
0.0
 73
     1
 44
1.0
1001
ACAD
1000
MTEXTBEGIN
1070
    73
1070
     1
1070
    44
1040
1.0
1070
    74
1070
     0
1000
MTEXTEND
  0
POINT
  5
3B153
330
3AC3B
100
AcDbEntity
  8
Defpoints
 62
     0
100
AcDbPoint
 10
231.4997514945077
 20
141.9535458329522
 30
0.0
  0
POINT
  5
3B154
330
3AC3B
100
AcDbEntity
  8
Defpoints
 62
     0
100
AcDbPoint
 10
231.4997514945077
 20
118.9535458329523
 30
0.0
  0
POINT
  5
3B155
330
3AC3B
100
AcDbEntity
  8
Defpoints
 62
     0
100
AcDbPoint
 10
217.0235030062328
 20
118.9535458329523
 30
0.0
  0
ENDBLK
  5
3AC46
330
3AC3B
100
AcDbEntity
  8
0
100
AcDbBlockEnd
  0
BLOCK
  5
3ACAD
330
3ACA4
100
AcDbEntity
  8
0
100
AcDbBlockBegin
  2
*D16
 70
     1
 10
0.0
 20
0.0
 30
0.0
  3
*D16
  1

  0
LINE
  5
3B171
330
3ACA4
100
AcDbEntity
  8
AM_5
100
AcDbLine
 10
110.3206564051615
 20
241.9535458329443
 30
0.0
 11
40.32065640516154
 21
241.9535458329443
 31
0.0
  0
LINE
  5
3B172
330
3ACA4
100
AcDbEntity
  8
AM_5
100
AcDbLine
 10
41.32065640516151
 20
172.953545832952
 30
0.0
 11
41.32065640516154
 21
240.9535458329443
 31
0.0
  0
INSERT
  5
3B173
330
3ACA4
100
AcDbEntity
  8
AM_5
100
AcDbBlockReference
  2
_Dot
 10
41.32065640516151
 20
171.953545832952
 30
0.0
 50
270.0
  0
INSERT
  5
3B174
330
3ACA4
100
AcDbEntity
  8
AM_5
100
AcDbBlockReference
  2
_Dot
 10
41.32065640516154
 20
241.9535458329443
 30
0.0
 50
90.0
  0
MTEXT
  5
3B175
330
3ACA4
100
AcDbEntity
  8
AM_5
 62
     2
100
AcDbMText
 10
38.2206564051615
 20
206.9535458329482
 30
0.0
 40
3.200000000000001
 41
0.0
 71
     5
 72
     1
  1
71
 11
0.0000000000000001
 21
1.0
 31
0.0
 73
     1
 44
1.0
1001
ACAD
1000
MTEXTBEGIN
1070
    73
1070
     1
1070
    44
1040
1.0
1070
    74
1070
     0
1000
MTEXTEND
  0
POINT
  5
3B176
330
3ACA4
100
AcDbEntity
  8
Defpoints
 62
     0
100
AcDbPoint
 10
51.32065640516154
 20
171.953545832952
 30
0.0
  0
POINT
  5
3B177
330
3ACA4
100
AcDbEntity
  8
Defpoints
 62
     0
100
AcDbPoint
 10
111.3206564051615
 20
241.9535458329443
 30
0.0
  0
POINT
  5
3B178
330
3ACA4
100
AcDbEntity
  8
Defpoints
 62
     0
100
AcDbPoint
 10
41.32065640516154
 20
241.9535458329443
 30
0.0
  0
ENDBLK
  5
3ACAE
330
3ACA4
100
AcDbEntity
  8
0
100
AcDbBlockEnd
  0
BLOCK
  5
3ACB9
330
3ACAF
100
AcDbEntity
  8
0
100
AcDbBlockBegin
  2
*D17
 70
     1
 10
0.0
 20
0.0
 30
0.0
  3
*D17
  1

  0
LINE
  5
3B179
330
3ACAF
100
AcDbEntity
  8
AM_5
100
AcDbLine
 10
50.32065640516155
 20
171.9535458329521
 30
0.0
 11
40.32065640516131
 21
171.9535458329521
 31
0.0
  0
LINE
  5
3B17A
330
3ACAF
100
AcDbEntity
  8
AM_5
100
AcDbLine
 10
50.32065640516155
 20
165.953545832952
 30
0.0
 11
40.32065640516131
 21
165.953545832952
 31
0.0
  0
LINE
  5
3B17B
330
3ACAF
100
AcDbEntity
  8
AM_5
100
AcDbLine
 10
41.32065640516131
 20
170.9535458329521
 30
0.0
 11
41.32065640516131
 21
166.953545832952
 31
0.0
  0
LINE
  5
3B17C
330
3ACAF
100
AcDbEntity
  8
AM_5
100
AcDbLine
 10
41.32065640516131
 20
168.9535458329521
 30
0.0
 11
34.39710832356308
 21
174.2270069743556
 31
0.0
  0
LINE
  5
3B17D
330
3ACAF
100
AcDbEntity
  8
AM_5
100
AcDbLine
 10
34.39710832356308
 20
174.2270069743556
 30
0.0
 11
34.39710832356309
 21
183.5416736410222
 31
0.0
  0
MTEXT
  5
3B17E
330
3ACAF
100
AcDbEntity
  8
AM_5
 62
     2
100
AcDbMText
 10
31.29710832356306
 20
178.8843403076889
 30
0.0
 40
3.200000000000001
 41
0.0
 71
     5
 72
     1
  1
5～6
 11
0.0000000000000001
 21
1.0
 31
0.0
 73
     1
 44
1.0
1001
ACAD
1000
MTEXTBEGIN
1070
    73
1070
     1
1070
    44
1040
1.0
1070
    74
1070
     0
1000
MTEXTEND
  0
INSERT
  5
3B17F
330
3ACAF
100
AcDbEntity
  8
AM_5
100
AcDbBlockReference
  2
_Dot
 10
41.32065640516131
 20
171.9535458329521
 30
0.0
 50
90.0
  0
INSERT
  5
3B180
330
3ACAF
100
AcDbEntity
  8
AM_5
100
AcDbBlockReference
  2
_Dot
 10
41.32065640516131
 20
165.953545832952
 30
0.0
 50
270.0
  0
POINT
  5
3B181
330
3ACAF
100
AcDbEntity
  8
Defpoints
 62
     0
100
AcDbPoint
 10
51.32065640516154
 20
171.9535458329521
 30
0.0
  0
POINT
  5
3B182
330
3ACAF
100
AcDbEntity
  8
Defpoints
 62
     0
100
AcDbPoint
 10
51.32065640516154
 20
165.953545832952
 30
0.0
  0
POINT
  5
3B183
330
3ACAF
100
AcDbEntity
  8
Defpoints
 62
     0
100
AcDbPoint
 10
41.32065640516131
 20
165.953545832952
 30
0.0
  0
ENDBLK
  5
3ACBA
330
3ACAF
100
AcDbEntity
  8
0
100
AcDbBlockEnd
  0
BLOCK
  5
3ACC4
330
3ACBB
100
AcDbEntity
  8
0
100
AcDbBlockBegin
  2
*D18
 70
     1
 10
0.0
 20
0.0
 30
0.0
  3
*D18
  1

  0
LINE
  5
3B184
330
3ACBB
100
AcDbEntity
  8
AM_5
100
AcDbLine
 10
70.32065640516155
 20
50.95354583294391
 30
0.0
 11
40.32065640516154
 21
50.95354583294392
 31
0.0
  0
LINE
  5
3B185
330
3ACBB
100
AcDbEntity
  8
AM_5
100
AcDbLine
 10
41.32065640516156
 20
164.953545832952
 30
0.0
 11
41.32065640516154
 21
51.95354583294392
 31
0.0
  0
INSERT
  5
3B186
330
3ACBB
100
AcDbEntity
  8
AM_5
100
AcDbBlockReference
  2
_Dot
 10
41.32065640516156
 20
165.953545832952
 30
0.0
 50
90.0
  0
INSERT
  5
3B187
330
3ACBB
100
AcDbEntity
  8
AM_5
100
AcDbBlockReference
  2
_Dot
 10
41.32065640516154
 20
50.95354583294392
 30
0.0
 50
270.0
  0
MTEXT
  5
3B188
330
3ACBB
100
AcDbEntity
  8
AM_5
 62
     2
100
AcDbMText
 10
38.22065640516154
 20
108.4535458329479
 30
0.0
 40
3.200000000000001
 41
0.0
 71
     5
 72
     1
  1
115
 11
0.0000000000000001
 21
1.0
 31
0.0
 73
     1
 44
1.0
1001
ACAD
1000
MTEXTBEGIN
1070
    73
1070
     1
1070
    44
1040
1.0
1070
    74
1070
     0
1000
MTEXTEND
  0
POINT
  5
3B189
330
3ACBB
100
AcDbEntity
  8
Defpoints
 62
     0
100
AcDbPoint
 10
51.32065640516154
 20
165.953545832952
 30
0.0
  0
POINT
  5
3B18A
330
3ACBB
100
AcDbEntity
  8
Defpoints
 62
     0
100
AcDbPoint
 10
71.32065640516154
 20
50.95354583294391
 30
0.0
  0
POINT
  5
3B18B
330
3ACBB
100
AcDbEntity
  8
Defpoints
 62
     0
100
AcDbPoint
 10
41.32065640516154
 20
50.95354583294392
 30
0.0
  0
ENDBLK
  5
3ACC5
330
3ACBB
100
AcDbEntity
  8
0
100
AcDbBlockEnd
  0
BLOCK
  5
3B0A7
330
3B09D
100
AcDbEntity
  8
0
100
AcDbBlockBegin
  2
*D19
 70
     1
 10
0.0
 20
0.0
 30
0.0
  3
*D19
  1

  0
LINE
  5
3B156
330
3B09D
100
AcDbEntity
  8
AM_5
100
AcDbLine
 10
243.4997514945072
 20
49.95354583295199
 30
0.0
 11
243.4997514945072
 21
37.95354583295197
 31
0.0
  0
LINE
  5
3B157
330
3B09D
100
AcDbEntity
  8
AM_5
100
AcDbLine
 10
278.4997514945073
 20
49.95354583295199
 30
0.0
 11
278.4997514945073
 21
37.95354583295197
 31
0.0
  0
LINE
  5
3B158
330
3B09D
100
AcDbEntity
  8
AM_5
100
AcDbLine
 10
244.4997514945072
 20
38.95354583295197
 30
0.0
 11
277.4997514945074
 21
38.95354583295197
 31
0.0
  0
INSERT
  5
3B159
330
3B09D
100
AcDbEntity
  8
AM_5
100
AcDbBlockReference
  2
_Dot
 10
243.4997514945072
 20
38.95354583295197
 30
0.0
 50
180.0
  0
INSERT
  5
3B15A
330
3B09D
100
AcDbEntity
  8
AM_5
100
AcDbBlockReference
  2
_Dot
 10
278.4997514945073
 20
38.95354583295197
 30
0.0
  0
MTEXT
  5
3B15B
330
3B09D
100
AcDbEntity
  8
AM_5
 62
     2
100
AcDbMText
 10
260.9997514945073
 20
42.05354583295196
 30
0.0
 40
3.200000000000001
 41
0.0
 71
     5
 72
     1
  1
35
 73
     1
 44
1.0
1001
ACAD
1000
MTEXTBEGIN
1070
    73
1070
     1
1070
    44
1040
1.0
1070
    74
1070
     0
1000
MTEXTEND
  0
POINT
  5
3B15C
330
3B09D
100
AcDbEntity
  8
Defpoints
 62
     0
100
AcDbPoint
 10
243.4997514945072
 20
50.95354583295199
 30
0.0
  0
POINT
  5
3B15D
330
3B09D
100
AcDbEntity
  8
Defpoints
 62
     0
100
AcDbPoint
 10
278.4997514945073
 20
50.95354583295199
 30
0.0
  0
POINT
  5
3B15E
330
3B09D
100
AcDbEntity
  8
Defpoints
 62
     0
100
AcDbPoint
 10
278.4997514945073
 20
38.95354583295197
 30
0.0
  0
ENDBLK
  5
3B0A8
330
3B09D
100
AcDbEntity
  8
0
100
AcDbBlockEnd
  0
BLOCK
  5
3B0BD
330
3B0B3
100
AcDbEntity
  8
0
100
AcDbBlockBegin
  2
*D20
 70
     1
 10
0.0
 20
0.0
 30
0.0
  3
*D20
  1

  0
LINE
  5
3B15F
330
3B0B3
100
AcDbEntity
  8
AM_5
100
AcDbLine
 10
236.9997514945076
 20
112.4535458329524
 30
0.0
 11
236.9997514945076
 21
27.95354583295174
 31
0.0
  0
LINE
  5
3B160
330
3B0B3
100
AcDbEntity
  8
AM_5
100
AcDbLine
 10
284.9997514945077
 20
112.4535458329524
 30
0.0
 11
284.9997514945077
 21
27.95354583295174
 31
0.0
  0
LINE
  5
3B161
330
3B0B3
100
AcDbEntity
  8
AM_5
100
AcDbLine
 10
237.9997514945076
 20
28.95354583295174
 30
0.0
 11
283.9997514945077
 21
28.95354583295174
 31
0.0
  0
INSERT
  5
3B162
330
3B0B3
100
AcDbEntity
  8
AM_5
100
AcDbBlockReference
  2
_Dot
 10
236.9997514945076
 20
28.95354583295174
 30
0.0
 50
180.0
  0
INSERT
  5
3B163
330
3B0B3
100
AcDbEntity
  8
AM_5
100
AcDbBlockReference
  2
_Dot
 10
284.9997514945077
 20
28.95354583295174
 30
0.0
  0
MTEXT
  5
3B164
330
3B0B3
100
AcDbEntity
  8
AM_5
 62
     2
100
AcDbMText
 10
260.9997514945076
 20
32.05354583295174
 30
0.0
 40
3.200000000000001
 41
0.0
 71
     5
 72
     1
  1
48
 73
     1
 44
1.0
1001
ACAD
1000
MTEXTBEGIN
1070
    73
1070
     1
1070
    44
1040
1.0
1070
    74
1070
     0
1000
MTEXTEND
  0
POINT
  5
3B165
330
3B0B3
100
AcDbEntity
  8
Defpoints
 62
     0
100
AcDbPoint
 10
236.9997514945076
 20
113.4535458329524
 30
0.0
  0
POINT
  5
3B166
330
3B0B3
100
AcDbEntity
  8
Defpoints
 62
     0
100
AcDbPoint
 10
284.9997514945077
 20
113.4535458329524
 30
0.0
  0
POINT
  5
3B167
330
3B0B3
100
AcDbEntity
  8
Defpoints
 62
     0
100
AcDbPoint
 10
284.9997514945077
 20
28.95354583295174
 30
0.0
  0
ENDBLK
  5
3B0BE
330
3B0B3
100
AcDbEntity
  8
0
100
AcDbBlockEnd
  0
BLOCK
  5
3B0D3
330
3B0C9
100
AcDbEntity
  8
0
100
AcDbBlockBegin
  2
*D21
 70
     1
 10
0.0
 20
0.0
 30
0.0
  3
*D21
  1

  0
LINE
  5
3B168
330
3B0C9
100
AcDbEntity
  8
AM_5
100
AcDbLine
 10
230.9997514945072
 20
117.7513917818822
 30
0.0
 11
230.9997514945072
 21
17.95354583295149
 31
0.0
  0
LINE
  5
3B169
330
3B0C9
100
AcDbEntity
  8
AM_5
100
AcDbLine
 10
290.9997514945077
 20
117.7513917818822
 30
0.0
 11
290.9997514945077
 21
17.95354583295149
 31
0.0
  0
LINE
  5
3B16A
330
3B0C9
100
AcDbEntity
  8
AM_5
100
AcDbLine
 10
231.9997514945072
 20
18.95354583295149
 30
0.0
 11
289.9997514945077
 21
18.95354583295149
 31
0.0
  0
INSERT
  5
3B16B
330
3B0C9
100
AcDbEntity
  8
AM_5
100
AcDbBlockReference
  2
_Dot
 10
230.9997514945072
 20
18.95354583295149
 30
0.0
 50
180.0
  0
INSERT
  5
3B16C
330
3B0C9
100
AcDbEntity
  8
AM_5
100
AcDbBlockReference
  2
_Dot
 10
290.9997514945077
 20
18.95354583295149
 30
0.0
  0
MTEXT
  5
3B16D
330
3B0C9
100
AcDbEntity
  8
AM_5
 62
     2
100
AcDbMText
 10
260.9997514945074
 20
22.05354583295149
 30
0.0
 40
3.200000000000001
 41
0.0
 71
     5
 72
     1
  1
60
 73
     1
 44
1.0
1001
ACAD
1000
MTEXTBEGIN
1070
    73
1070
     1
1070
    44
1040
1.0
1070
    74
1070
     0
1000
MTEXTEND
  0
POINT
  5
3B16E
330
3B0C9
100
AcDbEntity
  8
Defpoints
 62
     0
100
AcDbPoint
 10
230.9997514945072
 20
118.7513917818822
 30
0.0
  0
POINT
  5
3B16F
330
3B0C9
100
AcDbEntity
  8
Defpoints
 62
     0
100
AcDbPoint
 10
290.9997514945077
 20
118.7513917818822
 30
0.0
  0
POINT
  5
3B170
330
3B0C9
100
AcDbEntity
  8
Defpoints
 62
     0
100
AcDbPoint
 10
290.9997514945077
 20
18.95354583295149
 30
0.0
  0
ENDBLK
  5
3B0D4
330
3B0C9
100
AcDbEntity
  8
0
100
AcDbBlockEnd
  0
BLOCK
  5
3B1EC
330
3B1E2
100
AcDbEntity
  8
0
100
AcDbBlockBegin
  2
*D22
 70
     1
 10
0.0
 20
0.0
 30
0.0
  3
*D22
  1

  0
LINE
  5
3B206
330
3B1E2
100
AcDbEntity
  8
AM_5
100
AcDbLine
 10
71.32065640516154
 20
249.990539157697
 30
0.0
 11
71.32065640516154
 21
264.3535458329516
 31
0.0
  0
LINE
  5
3B207
330
3B1E2
100
AcDbEntity
  8
AM_5
100
AcDbLine
 10
129.8206564051615
 20
224.4535458329522
 30
0.0
 11
129.8206564051615
 21
264.3535458329516
 31
0.0
  0
LINE
  5
3B208
330
3B1E2
100
AcDbEntity
  8
AM_5
100
AcDbLine
 10
72.32065640516154
 20
263.3535458329516
 30
0.0
 11
128.8206564051615
 21
263.3535458329516
 31
0.0
  0
INSERT
  5
3B209
330
3B1E2
100
AcDbEntity
  8
AM_5
100
AcDbBlockReference
  2
_Dot
 10
71.32065640516154
 20
263.3535458329516
 30
0.0
 50
180.0
  0
INSERT
  5
3B20A
330
3B1E2
100
AcDbEntity
  8
AM_5
100
AcDbBlockReference
  2
_Dot
 10
129.8206564051615
 20
263.3535458329516
 30
0.0
  0
MTEXT
  5
3B20B
330
3B1E2
100
AcDbEntity
  8
AM_5
 62
     2
100
AcDbMText
 10
100.5706564051615
 20
266.4535458329516
 30
0.0
 40
3.200000000000001
 41
0.0
 71
     5
 72
     1
  1
60
 73
     1
 44
1.0
1001
ACAD
1000
MTEXTBEGIN
1070
    73
1070
     1
1070
    44
1040
1.0
1070
    74
1070
     0
1000
MTEXTEND
  0
POINT
  5
3B20C
330
3B1E2
100
AcDbEntity
  8
Defpoints
 62
     0
100
AcDbPoint
 10
71.32065640516154
 20
248.990539157697
 30
0.0
  0
POINT
  5
3B20D
330
3B1E2
100
AcDbEntity
  8
Defpoints
 62
     0
100
AcDbPoint
 10
129.8206564051615
 20
223.4535458329522
 30
0.0
  0
POINT
  5
3B20E
330
3B1E2
100
AcDbEntity
  8
Defpoints
 62
     0
100
AcDbPoint
 10
129.8206564051615
 20
263.3535458329516
 30
0.0
  0
ENDBLK
  5
3B1ED
330
3B1E2
100
AcDbEntity
  8
0
100
AcDbBlockEnd
  0
ENDSEC
  0
SECTION
  2
ENTITIES
  0
TEXT
  5
16B8B
330
1F
100
AcDbEntity
  8
AM_6
 60
     1
100
AcDbText
 10
582.4999999999999
 20
-485.0192301375773
 30
0.0
 40
2.5
  1
!GENTITLE-INSERT
100
AcDbText
  0
TEXT
  5
16B8C
330
1F
100
AcDbEntity
  8
AM_6
 60
     1
100
AcDbText
 10
593.9999999999998
 20
-73.51923013757732
 30
0.0
 40
2.5
  1
!GENTITLE-MAX
100
AcDbText
  0
TEXT
  5
16B8D
330
1F
100
AcDbEntity
  8
AM_6
 60
     1
100
AcDbText
 10
593.9999999999998
 20
-73.51923013757732
 30
0.0
 40
2.5
  1
!GENTITLE-RU
100
AcDbText
  0
TEXT
  5
16B8E
330
1F
100
AcDbEntity
  8
AM_6
 60
     1
100
AcDbText
 10
-0.0000000000000907
 20
-493.5192301375773
 30
0.0
 40
2.5
  1
!GENTITLE-LL
100
AcDbText
  0
LINE
  5
25141
330
1F
100
AcDbEntity
  8
AM_0
100
AcDbLine
 10
330.4999999999999
 20
288.5000000511493
 30
0.0
 11
330.5000000000003
 21
209.7062944517858
 31
0.0
  0
LINE
  5
25142
330
1F
100
AcDbEntity
  8
AM_4
100
AcDbLine
 10
310.5
 20
280.5000000511493
 30
0.0
 11
408.4999999999999
 21
280.5000000511493
 31
0.0
  0
LINE
  5
25143
330
1F
100
AcDbEntity
  8
AM_4
100
AcDbLine
 10
310.5
 20
272.5000000511493
 30
0.0
 11
408.4999999999999
 21
272.5000000511493
 31
0.0
  0
LINE
  5
25145
330
1F
100
AcDbEntity
  8
AM_0
100
AcDbLine
 10
310.5
 20
288.5000000511493
 30
0.0
 11
408.4999999999999
 21
288.5000000511493
 31
0.0
  0
LINE
  5
25146
330
1F
100
AcDbEntity
  8
AM_0
100
AcDbLine
 10
310.4999999999998
 20
288.5000000511493
 30
0.0
 11
310.5000000000002
 21
209.7062944517858
 31
0.0
  0
TEXT
  5
25147
330
1F
100
AcDbEntity
  8
AM_6
100
AcDbText
 10
316.1570000000001
 20
282.9000000511489
 30
0.0
 40
3.2
  1
品　名
 41
0.85537027
100
AcDbText
  0
TEXT
  5
25148
330
1F
100
AcDbEntity
  8
AM_6
100
AcDbText
 10
316.1570000000001
 20
274.900000051149
 30
0.0
 40
3.2
  1
品　番
 41
0.85537027
100
AcDbText
  0
TEXT
  5
25149
330
1F
100
AcDbEntity
  8
AM_6
100
AcDbText
 10
333.357
 20
282.9000000511489
 30
0.0
 40
3.2
  1
ドアセルファー
 41
0.84306961
100
AcDbText
  0
TEXT
  5
2514A
330
1F
100
AcDbEntity
  8
AM_6
100
AcDbText
 10
316.1570000000001
 20
266.900000051149
 30
0.0
 40
3.2
  1
材　質
 41
0.85537027
100
AcDbText
  0
TEXT
  5
2514B
330
1F
100
AcDbEntity
  8
AM_6
100
AcDbText
 10
333.357
 20
266.900000051149
 30
0.0
 40
3.2
  1
シリンダー：スチール
 41
0.84741102
100
AcDbText
  0
LINE
  5
2514C
330
1F
100
AcDbEntity
  8
AM_4
100
AcDbLine
 10
310.5
 20
248.5000000511493
 30
0.0
 11
408.5
 21
248.5000000511493
 31
0.0
  0
TEXT
  5
2514D
330
1F
100
AcDbEntity
  8
AM_6
100
AcDbText
 10
316.1570000000002
 20
242.9000000511489
 30
0.0
 40
3.2
  1
仕上げ
 41
0.85537027
100
AcDbText
  0
TEXT
  5
37551
330
1F
100
AcDbEntity
  8
AM_6
100
AcDbText
 10
333.3570000000001
 20
258.9000000511489
 30
0.0
 40
3.2
  1
フレーム、アーム、フック：スチール
 41
0.84741102
100
AcDbText
  0
TEXT
  5
375E2
330
1F
100
AcDbEntity
  8
AM_6
100
AcDbText
 10
333.357
 20
274.900000051149
 30
0.0
 40
3.2
  1
DIC-9000
 41
0.84306961
100
AcDbText
  0
TEXT
  5
37F2D
330
1F
100
AcDbEntity
  8
AM_6
 60
     1
100
AcDbText
 10
285.4999999999999
 20
8.500000051149982
 30
0.0
 40
2.5
  1
!GENTITLE-INSERT
100
AcDbText
  0
TEXT
  5
37F2E
330
1F
100
AcDbEntity
  8
AM_6
 60
     1
100
AcDbText
 10
296.9999999999999
 20
210.00000005115
 30
0.0
 40
2.5
  1
!GENTITLE-MAX
100
AcDbText
  0
TEXT
  5
37F2F
330
1F
100
AcDbEntity
  8
AM_6
 60
     1
100
AcDbText
 10
296.9999999999999
 20
210.00000005115
 30
0.0
 40
2.5
  1
!GENTITLE-RU
100
AcDbText
  0
TEXT
  5
37F31
330
1F
100
AcDbEntity
  8
AM_6
 60
     1
100
AcDbText
 10
-0.0000000000000406
 20
0.000000051149982
 30
0.0
 40
2.5
  1
!GENTITLE-LL
100
AcDbText
  0
TEXT
  5
3917E
330
1F
100
AcDbEntity
  8
AM_6
 60
     1
100
AcDbText
 10
408.4999999999999
 20
8.500000051149982
 30
0.0
 40
2.5
  1
!GENTITLE-INSERT
100
AcDbText
  0
TEXT
  5
3917F
330
1F
100
AcDbEntity
  8
AM_6
 60
     1
100
AcDbText
 10
-0.0000000000000406
 20
0.000000051149982
 30
0.0
 40
2.5
  1
!GENTITLE-LL
100
AcDbText
  0
TEXT
  5
39180
330
1F
100
AcDbEntity
  8
AM_6
 60
     1
100
AcDbText
 10
419.9999999999999
 20
297.00000005115
 30
0.0
 40
2.5
  1
!GENTITLE-RU
100
AcDbText
  0
TEXT
  5
39181
330
1F
100
AcDbEntity
  8
AM_6
 60
     1
100
AcDbText
 10
419.9999999999999
 20
297.00000005115
 30
0.0
 40
2.5
  1
!GENTITLE-MAX
100
AcDbText
  0
LINE
  5
39182
330
1F
100
AcDbEntity
  8
size
100
AcDbLine
 10
-0.0000000000000406
 20
0.000000051149982
 30
0.0
 11
419.9999999999999
 21
0.000000051149982
 31
0.0
1001
GENIUS_GENREC_14
1002
{
1000
PYDIR
1011
-0.0000000000000228
1021
297.00000005115
1031
0.0
1002
}
1002
{
1000
PXDIR
1011
419.9999999999999
1021
0.000000051149982
1031
0.0
1002
}
1002
{
1000
PORI
1011
-0.0000000000000406
1021
0.000000051149982
1031
0.0
1002
}
1002
{
1000
PINS
1011
210.0
1021
148.5000000511499
1031
0.0
1002
}
1002
{
1000
HVAL
1000
297
1002
}
1002
{
1000
H
1070
     2
1002
}
1002
{
1000
WVAL
1000
420
1002
}
1002
{
1000
W
1070
     2
1002
}
1002
{
1000
C
1070
     4
1002
}
1001
GENIUS_GENOBJ-N-REC_13
1002
{
1000
OWNER
1000
GEN
1002
}
1001
GENIUS_GENODEF_13
1002
{
1000
HIER
1070
     0
1002
}
1002
{
1000
MANEDIT
1070
     0
1002
}
1002
{
1000
NOSEL
1070
     0
1002
}
1002
{
1000
BEHIND
1070
     0
1002
}
1002
{
1000
OTHER
1070
     0
1002
}
1002
{
1000
REACTOR
1002
}
  0
LINE
  5
39183
330
1F
100
AcDbEntity
  8
size
100
AcDbLine
 10
419.9999999999999
 20
0.000000051149982
 30
0.0
 11
419.9999999999999
 21
297.00000005115
 31
0.0
1001
GENIUS_GENREC_14
1002
{
1000
PYDIR
1011
-0.0000000000000228
1021
297.00000005115
1031
0.0
1002
}
1002
{
1000
PXDIR
1011
419.9999999999999
1021
0.000000051149982
1031
0.0
1002
}
1002
{
1000
PORI
1011
-0.0000000000000406
1021
0.000000051149982
1031
0.0
1002
}
1002
{
1000
PINS
1011
210.0
1021
148.5000000511499
1031
0.0
1002
}
1002
{
1000
HVAL
1000
297
1002
}
1002
{
1000
H
1070
     2
1002
}
1002
{
1000
WVAL
1000
420
1002
}
1002
{
1000
W
1070
     2
1002
}
1002
{
1000
C
1070
     4
1002
}
1001
GENIUS_GENOBJ-N-REC_13
1002
{
1000
OWNER
1000
GEN
1002
}
1001
GENIUS_GENODEF_13
1002
{
1000
HIER
1070
     0
1002
}
1002
{
1000
MANEDIT
1070
     0
1002
}
1002
{
1000
NOSEL
1070
     0
1002
}
1002
{
1000
BEHIND
1070
     0
1002
}
1002
{
1000
OTHER
1070
     0
1002
}
1002
{
1000
REACTOR
1002
}
  0
LINE
  5
39184
330
1F
100
AcDbEntity
  8
size
100
AcDbLine
 10
419.9999999999999
 20
297.00000005115
 30
0.0
 11
-0.000000000000013
 21
297.00000005115
 31
0.0
1001
GENIUS_GENREC_14
1002
{
1000
PYDIR
1011
-0.0000000000000228
1021
297.00000005115
1031
0.0
1002
}
1002
{
1000
PXDIR
1011
419.9999999999999
1021
0.000000051149982
1031
0.0
1002
}
1002
{
1000
PORI
1011
-0.0000000000000406
1021
0.000000051149982
1031
0.0
1002
}
1002
{
1000
PINS
1011
210.0
1021
148.5000000511499
1031
0.0
1002
}
1002
{
1000
HVAL
1000
297
1002
}
1002
{
1000
H
1070
     2
1002
}
1002
{
1000
WVAL
1000
420
1002
}
1002
{
1000
W
1070
     2
1002
}
1002
{
1000
C
1070
     4
1002
}
1001
GENIUS_GENOBJ-N-REC_13
1002
{
1000
OWNER
1000
GEN
1002
}
1001
GENIUS_GENODEF_13
1002
{
1000
HIER
1070
     0
1002
}
1002
{
1000
MANEDIT
1070
     0
1002
}
1002
{
1000
NOSEL
1070
     0
1002
}
1002
{
1000
BEHIND
1070
     0
1002
}
1002
{
1000
OTHER
1070
     0
1002
}
1002
{
1000
REACTOR
1002
}
  0
LINE
  5
39185
330
1F
100
AcDbEntity
  8
size
100
AcDbLine
 10
-0.000000000000013
 20
297.00000005115
 30
0.0
 11
-0.0000000000000406
 21
0.000000051149982
 31
0.0
1001
GENIUS_GENREC_14
1002
{
1000
PYDIR
1011
-0.0000000000000228
1021
297.00000005115
1031
0.0
1002
}
1002
{
1000
PXDIR
1011
419.9999999999999
1021
0.000000051149982
1031
0.0
1002
}
1002
{
1000
PORI
1011
-0.0000000000000406
1021
0.000000051149982
1031
0.0
1002
}
1002
{
1000
PINS
1011
210.0
1021
148.5000000511499
1031
0.0
1002
}
1002
{
1000
HVAL
1000
297
1002
}
1002
{
1000
H
1070
     2
1002
}
1002
{
1000
WVAL
1000
420
1002
}
1002
{
1000
W
1070
     2
1002
}
1002
{
1000
C
1070
     4
1002
}
1001
GENIUS_GENOBJ-N-REC_13
1002
{
1000
OWNER
1000
GEN
1002
}
1001
GENIUS_GENODEF_13
1002
{
1000
HIER
1070
     0
1002
}
1002
{
1000
MANEDIT
1070
     0
1002
}
1002
{
1000
NOSEL
1070
     0
1002
}
1002
{
1000
BEHIND
1070
     0
1002
}
1002
{
1000
OTHER
1070
     0
1002
}
1002
{
1000
REACTOR
1002
}
  0
LINE
  5
39186
330
1F
100
AcDbEntity
  8
waku
100
AcDbLine
 10
408.4999999999999
 20
8.500000051149982
 30
0.0
 11
408.4999999999999
 21
288.50000005115
 31
0.0
1001
GENIUS_GENREC_14
1002
{
1000
PYDIR
1011
-0.0000000000000228
1021
297.00000005115
1031
0.0
1002
}
1002
{
1000
PXDIR
1011
419.9999999999999
1021
0.000000051149982
1031
0.0
1002
}
1002
{
1000
PORI
1011
-0.0000000000000406
1021
0.000000051149982
1031
0.0
1002
}
1002
{
1000
PINS
1011
210.0
1021
148.5000000511499
1031
0.0
1002
}
1002
{
1000
HVAL
1000
297
1002
}
1002
{
1000
H
1070
     2
1002
}
1002
{
1000
WVAL
1000
420
1002
}
1002
{
1000
W
1070
     2
1002
}
1002
{
1000
C
1070
     4
1002
}
1001
GENIUS_GENOBJ-N-REC_13
1002
{
1000
OWNER
1000
GEN
1002
}
1001
GENIUS_GENODEF_13
1002
{
1000
HIER
1070
     0
1002
}
1002
{
1000
MANEDIT
1070
     0
1002
}
1002
{
1000
NOSEL
1070
     0
1002
}
1002
{
1000
BEHIND
1070
     0
1002
}
1002
{
1000
OTHER
1070
     0
1002
}
1002
{
1000
REACTOR
1002
}
  0
LINE
  5
39187
330
1F
100
AcDbEntity
  8
waku
100
AcDbLine
 10
11.49999999999998
 20
288.50000005115
 30
0.0
 11
11.49999999999996
 21
8.500000051149982
 31
0.0
1001
GENIUS_GENREC_14
1002
{
1000
PYDIR
1011
-0.0000000000000228
1021
297.00000005115
1031
0.0
1002
}
1002
{
1000
PXDIR
1011
419.9999999999999
1021
0.000000051149982
1031
0.0
1002
}
1002
{
1000
PORI
1011
-0.0000000000000406
1021
0.000000051149982
1031
0.0
1002
}
1002
{
1000
PINS
1011
210.0
1021
148.5000000511499
1031
0.0
1002
}
1002
{
1000
HVAL
1000
297
1002
}
1002
{
1000
H
1070
     2
1002
}
1002
{
1000
WVAL
1000
420
1002
}
1002
{
1000
W
1070
     2
1002
}
1002
{
1000
C
1070
     4
1002
}
1001
GENIUS_GENOBJ-N-REC_13
1002
{
1000
OWNER
1000
GEN
1002
}
1001
GENIUS_GENODEF_13
1002
{
1000
HIER
1070
     0
1002
}
1002
{
1000
MANEDIT
1070
     0
1002
}
1002
{
1000
NOSEL
1070
     0
1002
}
1002
{
1000
BEHIND
1070
     0
1002
}
1002
{
1000
OTHER
1070
     0
1002
}
1002
{
1000
REACTOR
1002
}
  0
LINE
  5
39188
330
1F
100
AcDbEntity
  8
waku
100
AcDbLine
 10
408.4999999999999
 20
288.50000005115
 30
0.0
 11
11.49999999999998
 21
288.50000005115
 31
0.0
1001
GENIUS_GENREC_14
1002
{
1000
PYDIR
1011
-0.0000000000000228
1021
297.00000005115
1031
0.0
1002
}
1002
{
1000
PXDIR
1011
419.9999999999999
1021
0.000000051149982
1031
0.0
1002
}
1002
{
1000
PORI
1011
-0.0000000000000406
1021
0.000000051149982
1031
0.0
1002
}
1002
{
1000
PINS
1011
210.0
1021
148.5000000511499
1031
0.0
1002
}
1002
{
1000
HVAL
1000
297
1002
}
1002
{
1000
H
1070
     2
1002
}
1002
{
1000
WVAL
1000
420
1002
}
1002
{
1000
W
1070
     2
1002
}
1002
{
1000
C
1070
     4
1002
}
1001
GENIUS_GENOBJ-N-REC_13
1002
{
1000
OWNER
1000
GEN
1002
}
1001
GENIUS_GENODEF_13
1002
{
1000
HIER
1070
     0
1002
}
1002
{
1000
MANEDIT
1070
     0
1002
}
1002
{
1000
NOSEL
1070
     0
1002
}
1002
{
1000
BEHIND
1070
     0
1002
}
1002
{
1000
OTHER
1070
     0
1002
}
1002
{
1000
REACTOR
1002
}
  0
TEXT
  5
39189
330
1F
100
AcDbEntity
  8
AM_6
 60
     1
100
AcDbText
 10
-0.0000000000000406
 20
0.000000051149982
 30
0.0
 40
2.5
  1
!GENTITLE-LL
100
AcDbText
  0
TEXT
  5
3918A
330
1F
100
AcDbEntity
  8
AM_6
 60
     1
100
AcDbText
 10
408.4999999999999
 20
288.50000005115
 30
0.0
 40
2.5
  1
!GENTITLE-RU
100
AcDbText
  0
TEXT
  5
3918B
330
1F
100
AcDbEntity
  8
AM_6
 60
     1
100
AcDbText
 10
419.9999999999999
 20
297.00000005115
 30
0.0
 40
2.5
  1
!GENTITLE-MAX
100
AcDbText
  0
TEXT
  5
3918C
330
1F
100
AcDbEntity
  8
AM_6
 60
     1
100
AcDbText
 10
408.4999999999999
 20
8.500000051149982
 30
0.0
 40
2.5
  1
!GENTITLE-INSERT
100
AcDbText
  0
LINE
  5
3918D
330
1F
100
AcDbEntity
  8
waku
100
AcDbLine
 10
11.49999999999996
 20
8.500000051149982
 30
0.0
 11
408.4999999999999
 21
8.500000051149982
 31
0.0
  0
TEXT
  5
39191
330
1F
100
AcDbEntity
  8
AM_6
100
AcDbText
 10
333.3570000000001
 20
250.9000000511489
 30
0.0
 40
3.2
  1
ローラー：ゴム
 41
0.84741102
100
AcDbText
  0
TEXT
  5
39193
330
1F
100
AcDbEntity
  8
AM_6
100
AcDbText
 10
333.357
 20
242.9000000511489
 30
0.0
 40
3.2
  1
シリンダー：クロムメッキ
 41
0.84741102
100
AcDbText
  0
TEXT
  5
39194
330
1F
100
AcDbEntity
  8
AM_6
100
AcDbText
 10
333.3570000000001
 20
234.9000000511489
 30
0.0
 40
3.2
  1
フレーム、アーム、フック：クロムメッキ
 41
0.84741102
100
AcDbText
  0
TEXT
  5
39195
330
1F
100
AcDbEntity
  8
AM_6
100
AcDbText
 10
333.3570000000001
 20
226.9000000511489
 30
0.0
 40
3.2
  1
ローラー：生地（ブラック）
 41
0.84741102
100
AcDbText
  0
LINE
  5
3A768
330
1F
100
AcDbEntity
  8
AM_0
100
AcDbLine
 10
106.3206564051615
 20
157.753545832952
 30
0.0
 11
106.3206564051615
 21
58.95354583295205
 31
0.0
  0
LINE
  5
3A769
330
1F
100
AcDbEntity
  8
AM_0
100
AcDbLine
 10
98.32065640516155
 20
50.95354583295199
 30
0.0
 11
71.32065640516154
 21
50.95354583295199
 31
0.0
  0
LINE
  5
3A76A
330
1F
100
AcDbEntity
  8
AM_0
100
AcDbLine
 10
71.32065640516154
 20
50.95354583295199
 30
0.0
 11
71.32065640516154
 21
165.953545832952
 31
0.0
  0
LINE
  5
3A76B
330
1F
100
AcDbEntity
  8
AM_0
100
AcDbLine
 10
98.1206564051615
 20
165.953545832952
 30
0.0
 11
71.32065640516154
 21
165.953545832952
 31
0.0
  0
LINE
  5
3A76C
330
1F
100
AcDbEntity
  8
AM_0
100
AcDbLine
 10
73.32065640516154
 20
101.3497524717609
 30
0.0
 11
73.32065640516154
 21
152.453545832952
 31
0.0
  0
LINE
  5
3A76D
330
1F
100
AcDbEntity
  8
AM_0
100
AcDbLine
 10
82.32065640516154
 20
152.453545832952
 30
0.0
 11
71.82065640516154
 21
152.4535458329518
 31
0.0
  0
ARC
  5
3A76E
330
1F
100
AcDbEntity
  8
AM_0
100
AcDbCircle
 10
82.32065640516154
 20
143.453545832952
 30
0.0
 40
9.0
100
AcDbArc
 50
0.0
 51
90.0
1001
GENIUS_GENODEF_13
1002
{
1000
HIER
1070
     0
1002
}
1002
{
1000
MANEDIT
1070
     0
1002
}
1002
{
1000
NOSEL
1070
     0
1002
}
1002
{
1000
BEHIND
1070
     0
1002
}
1002
{
1000
REACTOR
1002
}
1001
GENIUS_GENOBJ-N-FIL_13
1002
{
1000
OWNER
1000
GEN
1002
}
  0
ARC
  5
3A76F
330
1F
100
AcDbEntity
  8
AM_0
100
AcDbCircle
 10
83.32065640516132
 20
120.1840070981919
 30
0.0
 40
8.0
100
AcDbArc
 50
310.0000000000047
 51
0.0
1001
GENIUS_GENODEF_13
1002
{
1000
HIER
1070
     0
1002
}
1002
{
1000
MANEDIT
1070
     0
1002
}
1002
{
1000
NOSEL
1070
     0
1002
}
1002
{
1000
BEHIND
1070
     0
1002
}
1002
{
1000
REACTOR
1002
}
1001
GENIUS_GENOBJ-N-FIL_13
1002
{
1000
OWNER
1000
GEN
1002
}
  0
ARC
  5
3A770
330
1F
100
AcDbEntity
  8
AM_0
100
AcDbCircle
 10
71.82065640516132
 20
100.743806669661
 30
0.0
 40
0.5
100
AcDbArc
 50
180.0
 51
310.0000000000047
1001
GENIUS_GENODEF_13
1002
{
1000
HIER
1070
     0
1002
}
1002
{
1000
MANEDIT
1070
     0
1002
}
1002
{
1000
NOSEL
1070
     0
1002
}
1002
{
1000
BEHIND
1070
     0
1002
}
1002
{
1000
REACTOR
1002
}
1001
GENIUS_GENOBJ-N-FIL_13
1002
{
1000
OWNER
1000
GEN
1002
}
  0
LINE
  5
3A771
330
1F
100
AcDbEntity
  8
AM_0
100
AcDbLine
 10
91.32065640516154
 20
120.1840070981936
 30
0.0
 11
91.32065640516154
 21
143.453545832952
 31
0.0
  0
LINE
  5
3A772
330
1F
100
AcDbEntity
  8
AM_0
100
AcDbLine
 10
88.46295728265383
 20
114.0556515532402
 30
0.0
 11
72.14205021000473
 21
100.3607844481015
 31
0.0
  0
ARC
  5
3A773
330
1F
100
AcDbEntity
  8
AM_0
100
AcDbCircle
 10
98.1206564051615
 20
157.753545832952
 30
0.0
 40
8.199999999999999
100
AcDbArc
 50
0.0
 51
90.0
1001
GENIUS_GENODEF_13
1002
{
1000
HIER
1070
     0
1002
}
1002
{
1000
MANEDIT
1070
     0
1002
}
1002
{
1000
NOSEL
1070
     0
1002
}
1002
{
1000
BEHIND
1070
     0
1002
}
1002
{
1000
REACTOR
1002
}
1001
GENIUS_GENOBJ-N-FIL_13
1002
{
1000
OWNER
1000
GEN
1002
}
  0
ARC
  5
3A774
330
1F
100
AcDbEntity
  8
AM_0
100
AcDbCircle
 10
98.32065640516155
 20
58.95354583295205
 30
0.0
 40
8.0
100
AcDbArc
 50
270.0
 51
0.0
1001
GENIUS_GENODEF_13
1002
{
1000
HIER
1070
     0
1002
}
1002
{
1000
MANEDIT
1070
     0
1002
}
1002
{
1000
NOSEL
1070
     0
1002
}
1002
{
1000
BEHIND
1070
     0
1002
}
1002
{
1000
REACTOR
1002
}
1001
GENIUS_GENOBJ-N-FIL_13
1002
{
1000
OWNER
1000
GEN
1002
}
  0
LINE
  5
3A777
330
1F
100
AcDbEntity
  8
AM_7
 48
0.3
100
AcDbLine
 10
68.32065640516154
 20
118.9535458329523
 30
0.0
 11
76.32065640516154
 21
118.9535458329523
 31
0.0
1001
GENIUS_GENODEF_13
1002
{
1000
HIER
1070
     0
1002
}
1002
{
1000
MANEDIT
1070
     0
1002
}
1002
{
1000
NOSEL
1070
     0
1002
}
1002
{
1000
BEHIND
1070
     0
1002
}
1002
{
1000
REACTOR
1002
}
1001
GENIUS_GENOBJ-N-CEN_13
1002
{
1000
OWNER
1000
GEN
1002
}
  0
LINE
  5
3A778
330
1F
100
AcDbEntity
  8
AM_0
100
AcDbLine
 10
73.32065640516154
 20
103.7866011808812
 30
0.0
 11
71.32065640516154
 21
103.7866011808812
 31
0.0
  0
LINE
  5
3A779
330
1F
100
AcDbEntity
  8
AM_0
100
AcDbLine
 10
71.32065640516154
 20
147.953545832952
 30
0.0
 11
73.32065640516154
 21
147.953545832952
 31
0.0
  0
LINE
  5
3A77A
330
1F
100
AcDbEntity
  8
AM_0
100
AcDbLine
 10
71.82065640516154
 20
115.953545832952
 30
0.0
 11
72.82065640516155
 21
115.953545832952
 31
0.0
  0
ARC
  5
3A77B
330
1F
100
AcDbEntity
  8
AM_0
100
AcDbCircle
 10
71.82065640516154
 20
151.953545832952
 30
0.0
 40
0.5
100
AcDbArc
 50
90.0
 51
180.0
1001
GENIUS_GENODEF_13
1002
{
1000
HIER
1070
     0
1002
}
1002
{
1000
MANEDIT
1070
     0
1002
}
1002
{
1000
NOSEL
1070
     0
1002
}
1002
{
1000
BEHIND
1070
     0
1002
}
1002
{
1000
REACTOR
1002
}
1001
GENIUS_GENOBJ-N-FIL_13
1002
{
1000
OWNER
1000
GEN
1002
}
  0
CIRCLE
  5
3A77C
330
1F
100
AcDbEntity
  8
AM_0
100
AcDbCircle
 10
96.3206564051611
 20
157.953545832952
 30
0.0
 40
6.5
  0
CIRCLE
  5
3A77D
330
1F
100
AcDbEntity
  8
AM_0
100
AcDbCircle
 10
96.3206564051611
 20
157.953545832952
 30
0.0
 40
2.1
  0
CIRCLE
  5
3A77E
330
1F
100
AcDbEntity
  8
AM_0
100
AcDbCircle
 10
96.3206564051611
 20
157.953545832952
 30
0.0
 40
4.25
  0
LINE
  5
3A77F
330
1F
100
AcDbEntity
  8
AM_7
100
AcDbLine
 10
86.82065640516109
 20
157.953545832952
 30
0.0
 11
105.8206564051611
 21
157.953545832952
 31
0.0
1001
GENIUS_GENODEF_13
1002
{
1000
HIER
1070
     0
1002
}
1002
{
1000
MANEDIT
1070
     0
1002
}
1002
{
1000
NOSEL
1070
     0
1002
}
1002
{
1000
BEHIND
1070
     0
1002
}
1002
{
1000
OTHER
1070
     0
1002
}
1002
{
1000
REACTOR
1002
}
1001
GENIUS_GENOBJ-N-CEN_13
1002
{
1000
OWNER
1000
GEN
1002
}
  0
LINE
  5
3A780
330
1F
100
AcDbEntity
  8
AM_7
100
AcDbLine
 10
96.3206564051611
 20
167.453545832952
 30
0.0
 11
96.3206564051611
 21
148.453545832952
 31
0.0
1001
GENIUS_GENODEF_13
1002
{
1000
HIER
1070
     0
1002
}
1002
{
1000
MANEDIT
1070
     0
1002
}
1002
{
1000
NOSEL
1070
     0
1002
}
1002
{
1000
BEHIND
1070
     0
1002
}
1002
{
1000
OTHER
1070
     0
1002
}
1002
{
1000
REACTOR
1002
}
1001
GENIUS_GENOBJ-N-CEN_13
1002
{
1000
OWNER
1000
GEN
1002
}
  0
CIRCLE
  5
3A781
330
1F
100
AcDbEntity
  8
AM_0
100
AcDbCircle
 10
92.32065640516154
 20
57.9535458329517
 30
0.0
 40
3.0
  0
ARC
  5
3A782
330
1F
100
AcDbEntity
  8
AM_0
100
AcDbCircle
 10
92.32065640516154
 20
57.9535458329517
 30
0.0
 40
5.5
100
AcDbArc
 50
227.5458497956035
 51
132.4541502043965
  0
LINE
  5
3A783
330
1F
100
AcDbEntity
  8
AM_0
100
AcDbLine
 10
90.69298602849162
 20
60.47360320232065
 30
0.0
 11
88.77443738680673
 21
61.1728642664026
 31
0.0
  0
LINE
  5
3A784
330
1F
100
AcDbEntity
  8
AM_0
100
AcDbLine
 10
90.69298602849162
 20
55.43348846358276
 30
0.0
 11
88.77443738680673
 21
54.7342273995008
 31
0.0
  0
ARC
  5
3A785
330
1F
100
AcDbEntity
  8
AM_0
100
AcDbCircle
 10
88.94565640516153
 20
61.64263447379517
 30
0.0
 40
0.5
100
AcDbArc
 50
132.4541502043965
 51
249.9745177672606
  0
ARC
  5
3A786
330
1F
100
AcDbEntity
  8
AM_0
100
AcDbCircle
 10
88.94565640516153
 20
54.26445719210818
 30
0.0
 40
0.5
100
AcDbArc
 50
110.0254822327394
 51
227.5458497956035
  0
ARC
  5
3A787
330
1F
100
AcDbEntity
  8
AM_0
100
AcDbCircle
 10
92.32065640516154
 20
57.9535458329517
 30
0.0
 40
4.0
100
AcDbArc
 50
14.4775121859294
 51
66.6055603774145
  0
ARC
  5
3A788
330
1F
100
AcDbEntity
  8
AM_0
100
AcDbCircle
 10
93.67065640516145
 20
61.07404258827762
 30
0.0
 40
0.6
100
AcDbArc
 50
66.6055603774145
 51
180.0
  0
LINE
  5
3A789
330
1F
100
AcDbEntity
  8
AM_0
100
AcDbLine
 10
93.07065640516155
 20
61.07404258827762
 30
0.0
 11
93.07065640516155
 21
60.85828334260725
 31
0.0
  0
ARC
  5
3A78A
330
1F
100
AcDbEntity
  8
AM_0
100
AcDbCircle
 10
92.32065640516154
 20
57.9535458329517
 30
0.0
 40
4.0
100
AcDbArc
 50
293.3944396225854
 51
345.5224878140705
  0
ARC
  5
3A78B
330
1F
100
AcDbEntity
  8
AM_0
100
AcDbCircle
 10
95.80634141674815
 20
58.85354583295168
 30
0.0
 40
0.4
100
AcDbArc
 50
270.0
 51
14.4775121859294
  0
ARC
  5
3A78C
330
1F
100
AcDbEntity
  8
AM_0
100
AcDbCircle
 10
95.80634141674815
 20
57.05354583295167
 30
0.0
 40
0.4
100
AcDbArc
 50
345.5224878140705
 51
90.0
  0
LINE
  5
3A78D
330
1F
100
AcDbEntity
  8
AM_0
100
AcDbLine
 10
95.32065640516155
 20
58.4535458329517
 30
0.0
 11
95.80634141674815
 21
58.4535458329517
 31
0.0
  0
LINE
  5
3A78E
330
1F
100
AcDbEntity
  8
AM_0
100
AcDbLine
 10
95.32065640516155
 20
57.45354583295176
 30
0.0
 11
95.80634141674815
 21
57.45354583295176
 31
0.0
  0
ARC
  5
3A78F
330
1F
100
AcDbEntity
  8
AM_0
100
AcDbCircle
 10
92.32065640516154
 20
57.9535458329517
 30
0.0
 40
3.100000000000008
100
AcDbArc
 50
124.2439746973771
 51
235.7560253026228
  0
ARC
  5
3A790
330
1F
100
AcDbEntity
  8
AM_0
100
AcDbCircle
 10
92.32065640516154
 20
57.9535458329517
 30
0.0
 40
3.100000000000008
100
AcDbArc
 50
9.281799086675201
 51
75.99919761374285
  0
ARC
  5
3A791
330
1F
100
AcDbEntity
  8
AM_0
100
AcDbCircle
 10
92.32065640516154
 20
57.9535458329517
 30
0.0
 40
3.100000000000008
100
AcDbArc
 50
284.0008023862571
 51
350.7182009133248
  0
ARC
  5
3A792
330
1F
100
AcDbEntity
  8
AM_0
100
AcDbCircle
 10
93.67065640516328
 20
54.83304907762477
 30
0.0
 40
0.6
100
AcDbArc
 50
180.0000000000325
 51
293.3944396226278
  0
LINE
  5
3A793
330
1F
100
AcDbEntity
  8
AM_0
100
AcDbLine
 10
93.07065640516336
 20
54.83304907762437
 30
0.0
 11
93.07065640516313
 21
55.0488083232948
 31
0.0
  0
ARC
  5
3A794
330
1F
100
AcDbEntity
  8
AM_0
100
AcDbCircle
 10
111.3206564051615
 20
221.1990990363204
 30
0.0
 40
5.5
100
AcDbArc
 50
340.8642849715564
 51
160.6180743179671
  0
ARC
  5
3A795
330
1F
100
AcDbEntity
  8
AM_0
100
AcDbCircle
 10
113.098281083844
 20
160.6942227824039
 30
0.0
 40
8.5
100
AcDbArc
 50
282.6497878343882
 51
9.27750115095449
  0
ARC
  5
3A796
330
1F
100
AcDbEntity
  8
AM_0
100
AcDbCircle
 10
96.3206564051611
 20
157.9535458329529
 30
0.0
 40
9.5
100
AcDbArc
 50
99.27750115095443
 51
122.636897503557
  0
ARC
  5
3A797
330
1F
100
AcDbEntity
  8
AM_0
100
AcDbCircle
 10
119.2987400787503
 20
197.1709867322458
 30
0.0
 40
10.0
100
AcDbArc
 50
153.3373053760303
 51
273.538330673691
  0
LINE
  5
3A798
330
1F
100
AcDbEntity
  8
AM_0
100
AcDbLine
 10
122.9870934231855
 20
168.3891165774659
 30
0.0
 11
119.915902823458
 21
187.1900493941724
 31
0.0
  0
LINE
  5
3A799
330
1F
100
AcDbEntity
  8
AM_0
100
AcDbLine
 10
120.6004038218923
 20
167.4926163002325
 30
0.0
 11
121.4870934231853
 21
162.0645612571292
 31
0.0
  0
LINE
  5
3A79A
330
1F
100
AcDbEntity
  8
AM_0
100
AcDbLine
 10
121.0132552256934
 20
168.0666839951776
 30
0.0
 11
122.9870934231855
 21
168.3891165774659
 31
0.0
  0
ARC
  5
3A79B
330
1F
100
AcDbEntity
  8
AM_0
100
AcDbCircle
 10
121.0938633712655
 20
167.5732244458048
 30
0.0
 40
0.5
100
AcDbArc
 50
99.27750115095443
 51
189.2775011509544
1001
GENIUS_GENODEF_13
1002
{
1000
HIER
1070
     0
1002
}
1002
{
1000
MANEDIT
1070
     0
1002
}
1002
{
1000
NOSEL
1070
     0
1002
}
1002
{
1000
BEHIND
1070
     0
1002
}
1002
{
1000
REACTOR
1002
}
1001
GENIUS_GENOBJ-N-FIL_13
1002
{
1000
OWNER
1000
GEN
1002
}
  0
LINE
  5
3A79C
330
1F
100
AcDbEntity
  8
AM_0
100
AcDbLine
 10
110.3621025659583
 20
201.6583590106461
 30
0.0
 11
116.5167525796518
 21
219.3961612821398
 31
0.0
  0
LINE
  5
3A79D
330
1F
100
AcDbEntity
  8
AM_0
100
AcDbLine
 10
99.48886481828115
 20
204.1401216975515
 30
0.0
 11
106.1323557417049
 21
223.0243486700896
 31
0.0
  0
LINE
  5
3A79E
330
1F
100
AcDbEntity
  8
AM_0
100
AcDbLine
 10
94.78910163928933
 20
167.3292772710398
 30
0.0
 11
104.1648330773789
 21
168.8608320369098
 31
0.0
  0
LINE
  5
3A79F
330
1F
100
AcDbEntity
  8
AM_0
100
AcDbLine
 10
98.97672800696476
 20
202.4639844985596
 30
0.0
 11
100.1835716902687
 21
188.4755662432761
 31
0.0
  0
LINE
  5
3A7A0
330
1F
100
AcDbEntity
  8
AM_0
100
AcDbLine
 10
104.5776844811798
 20
169.4348997318549
 30
0.0
 11
104.0940356077473
 21
172.3956570280931
 31
0.0
  0
ARC
  5
3A7A1
330
1F
100
AcDbEntity
  8
AM_0
100
AcDbCircle
 10
104.0842249318069
 20
169.3542915862832
 30
0.0
 40
0.5
100
AcDbArc
 50
279.2775011509544
 51
9.27750115095449
1001
GENIUS_GENODEF_13
1002
{
1000
HIER
1070
     0
1002
}
1002
{
1000
MANEDIT
1070
     0
1002
}
1002
{
1000
NOSEL
1070
     0
1002
}
1002
{
1000
BEHIND
1070
     0
1002
}
1002
{
1000
REACTOR
1002
}
1001
GENIUS_GENOBJ-N-FIL_13
1002
{
1000
OWNER
1000
GEN
1002
}
  0
LINE
  5
3A7A2
330
1F
100
AcDbEntity
  8
AM_0
100
AcDbLine
 10
100.1835716902687
 20
188.4755662432761
 30
0.0
 11
104.0940356077473
 21
172.3956570280931
 31
0.0
  0
ARC
  5
3A7A3
330
1F
100
AcDbEntity
  8
AM_0
100
AcDbCircle
 10
119.2987400787503
 20
197.1709867322458
 30
0.0
 40
21.0
100
AcDbArc
 50
160.6180743179671
 51
165.4012934204242
  0
ARC
  5
3A7A4
330
1F
100
AcDbEntity
  8
AM_0
100
AcDbCircle
 10
113.098281083844
 20
160.6942227824035
 30
0.0
 40
4.15
100
AcDbArc
 50
9.593314179213711
 51
75.34417845760815
  0
ARC
  5
3A7A5
330
1F
100
AcDbEntity
  8
AM_0
100
AcDbCircle
 10
117.2982810838442
 20
160.6942227824035
 30
0.0
 40
0.7000000000000063
100
AcDbArc
 50
90.0
 51
111.2381270533854
  0
ARC
  5
3A7A6
330
1F
100
AcDbEntity
  8
AM_0
100
AcDbCircle
 10
117.2982810838442
 20
160.6942227824035
 30
0.0
 40
0.700000000000003
100
AcDbArc
 50
248.7618729466002
 51
270.0
  0
LINE
  5
3A7A7
330
1F
100
AcDbEntity
  8
AM_0
100
AcDbLine
 10
114.148281083844
 20
156.8344948127145
 30
0.0
 11
114.148281083844
 21
156.3255273249471
 31
0.0
  0
LINE
  5
3A7A8
330
1F
100
AcDbEntity
  8
AM_0
100
AcDbLine
 10
114.148281083844
 20
165.0629182398598
 30
0.0
 11
114.148281083844
 21
164.5539507520926
 31
0.0
  0
LINE
  5
3A7A9
330
1F
100
AcDbEntity
  8
AM_0
100
AcDbLine
 10
110.9915512304792
 20
164.0944712034666
 30
0.0
 11
108.7143649427014
 21
164.7145583594234
 31
0.0
  0
LINE
  5
3A7AA
330
1F
100
AcDbEntity
  8
AM_0
100
AcDbLine
 10
110.9915512304792
 20
157.2939743613404
 30
0.0
 11
108.7143649427014
 21
156.6738872053837
 31
0.0
  0
ARC
  5
3A7AB
330
1F
100
AcDbEntity
  8
AM_0
100
AcDbCircle
 10
113.098281083844
 20
160.6942227824035
 30
0.0
 40
7.0
100
AcDbArc
 50
228.1896851042319
 51
131.810314895768
  0
ARC
  5
3A7AC
330
1F
100
AcDbEntity
  8
AM_0
100
AcDbCircle
 10
108.898281083844
 20
165.389965535153
 30
0.0
 40
0.7
100
AcDbArc
 50
131.810314895768
 51
254.7674513177214
  0
ARC
  5
3A7AD
330
1F
100
AcDbEntity
  8
AM_0
100
AcDbCircle
 10
113.098281083844
 20
160.6942227824035
 30
0.0
 40
5.599999999999997
100
AcDbArc
 50
14.4775121859294
 51
66.6055603774145
  0
ARC
  5
3A7AE
330
1F
100
AcDbEntity
  8
AM_0
100
AcDbCircle
 10
114.9882810838439
 20
165.0629182398598
 30
0.0
 40
0.84
100
AcDbArc
 50
66.6055603774145
 51
180.0
  0
ARC
  5
3A7AF
330
1F
100
AcDbEntity
  8
AM_0
100
AcDbCircle
 10
108.898281083844
 20
155.9984800296539
 30
0.0
 40
0.7
100
AcDbArc
 50
105.2325486822785
 51
228.1896851042319
  0
ARC
  5
3A7B0
330
1F
100
AcDbEntity
  8
AM_0
100
AcDbCircle
 10
117.9782401000654
 20
161.9542227824036
 30
0.0
 40
0.5600000000000001
100
AcDbArc
 50
270.0
 51
14.4775121859294
  0
ARC
  5
3A7B1
330
1F
100
AcDbEntity
  8
AM_0
100
AcDbCircle
 10
117.9782401000654
 20
159.4342227824035
 30
0.0
 40
0.5600000000000001
100
AcDbArc
 50
345.5224878140705
 51
90.0
  0
ARC
  5
3A7B2
330
1F
100
AcDbEntity
  8
AM_0
100
AcDbCircle
 10
114.9882810838439
 20
156.3255273249471
 30
0.0
 40
0.84
100
AcDbArc
 50
180.0
 51
293.3944396225854
  0
ARC
  5
3A7B3
330
1F
100
AcDbEntity
  8
AM_0
100
AcDbCircle
 10
113.098281083844
 20
160.6942227824035
 30
0.0
 40
5.599999999999997
100
AcDbArc
 50
293.3944396225854
 51
345.5224878140705
  0
LINE
  5
3A7B4
330
1F
100
AcDbEntity
  8
AM_0
100
AcDbLine
 10
117.2982810838442
 20
161.3942227824035
 30
0.0
 11
117.9782401000654
 21
161.3942227824035
 31
0.0
  0
LINE
  5
3A7B5
330
1F
100
AcDbEntity
  8
AM_0
100
AcDbLine
 10
117.2982810838442
 20
159.9942227824036
 30
0.0
 11
117.9782401000654
 21
159.9942227824036
 31
0.0
  0
CIRCLE
  5
3A7B6
330
1F
100
AcDbEntity
  8
AM_0
100
AcDbCircle
 10
113.098281083844
 20
160.6942227824035
 30
0.0
 40
4.0
  0
ARC
  5
3A7B7
330
1F
100
AcDbEntity
  8
AM_0
100
AcDbCircle
 10
113.098281083844
 20
160.6942227824035
 30
0.0
 40
4.15
100
AcDbArc
 50
123.6827485853555
 51
236.3172514146445
  0
ARC
  5
3A7B8
330
1F
100
AcDbEntity
  8
AM_0
100
AcDbCircle
 10
113.098281083844
 20
160.6942227824035
 30
0.0
 40
4.15
100
AcDbArc
 50
284.6558215423918
 51
350.4066858207863
  0
ARC
  5
3A7BB
330
1F
100
AcDbEntity
  8
AM_0
100
AcDbCircle
 10
111.3206564051615
 20
221.1990990363198
 30
0.0
 40
15.0
100
AcDbArc
 50
272.3744732384406
 51
229.107886051085
  0
ARC
  5
3A7BC
330
1F
100
AcDbEntity
  8
AM_0
100
AcDbCircle
 10
111.3206564051615
 20
221.1990990363198
 30
0.0
 40
11.38083151964596
100
AcDbArc
 50
279.7633914521284
 51
221.7189678373874
  0
CIRCLE
  5
3A7BD
330
1F
100
AcDbEntity
  8
AM_0
100
AcDbCircle
 10
111.3206564051615
 20
221.1990990363198
 30
0.0
 40
3.5
  0
LINE
  5
3A7BE
330
1F
100
AcDbEntity
  8
AM_7
100
AcDbLine
 10
88.32065640516153
 20
221.1990990363198
 30
0.0
 11
134.3206564051615
 21
221.1990990363198
 31
0.0
1001
GENIUS_GENODEF_13
1002
{
1000
HIER
1070
     0
1002
}
1002
{
1000
MANEDIT
1070
     0
1002
}
1002
{
1000
NOSEL
1070
     0
1002
}
1002
{
1000
BEHIND
1070
     0
1002
}
1002
{
1000
OTHER
1070
     0
1002
}
1002
{
1000
REACTOR
1002
}
1001
GENIUS_GENOBJ-N-CEN_13
1002
{
1000
OWNER
1000
GEN
1002
}
  0
LINE
  5
3A7BF
330
1F
100
AcDbEntity
  8
AM_7
100
AcDbLine
 10
111.3206564051615
 20
244.1990990363198
 30
0.0
 11
111.3206564051615
 21
198.1990990363198
 31
0.0
1001
GENIUS_GENOBJ-N-CEN_13
1002
{
1000
OWNER
1000
GEN
1002
}
1001
GENIUS_GENODEF_13
1002
{
1000
HIER
1070
     0
1002
}
1002
{
1000
MANEDIT
1070
     0
1002
}
1002
{
1000
NOSEL
1070
     0
1002
}
1002
{
1000
BEHIND
1070
     0
1002
}
1002
{
1000
OTHER
1070
     0
1002
}
1002
{
1000
REACTOR
1002
}
  0
LINE
  5
3A7C0
330
1F
100
AcDbEntity
  8
AM_0
100
AcDbLine
 10
106.3206564051615
 20
150.4616046428498
 30
0.0
 11
114.9597062256866
 21
152.4005446815057
 31
0.0
  0
LINE
  5
3A7C1
330
1F
100
AcDbEntity
  8
AM_0
100
AcDbLine
 10
105.4126963920323
 20
52.05113200620349
 30
0.0
 11
122.3017926401405
 21
135.8664553541579
 31
0.0
  0
ARC
  5
3A7C2
330
1F
100
AcDbEntity
  8
AM_0
100
AcDbCircle
 10
119.8510521913699
 20
136.3602885777867
 30
0.0
 40
2.5
100
AcDbArc
 50
348.6072505487436
 51
78.60725054874933
1001
GENIUS_GENODEF_13
1002
{
1000
HIER
1070
     0
1002
}
1002
{
1000
MANEDIT
1070
     0
1002
}
1002
{
1000
NOSEL
1070
     0
1002
}
1002
{
1000
BEHIND
1070
     0
1002
}
1002
{
1000
REACTOR
1002
}
1001
GENIUS_GENOBJ-N-FIL_13
1002
{
1000
OWNER
1000
GEN
1002
}
  0
LINE
  5
3A7C3
330
1F
100
AcDbEntity
  8
AM_0
100
AcDbLine
 10
115.8384710963605
 20
141.7592878328316
 30
0.0
 11
115.4434045174577
 21
139.7986954738151
 31
0.0
  0
LINE
  5
3A7C4
330
1F
100
AcDbEntity
  8
AM_0
100
AcDbLine
 10
103.0570374541127
 20
50.48560622609016
 30
0.0
 11
105.4126963920323
 21
52.05113200620349
 31
0.0
1001
GENIUS_GENFIL_13
1070
     0
1040
2.0
1040
2.0
1040
0.0
1040
0.0
1002
{
1002
}
1001
GENIUS_GENODEF_13
1002
{
1000
HIER
1070
     0
1002
}
1002
{
1000
MANEDIT
1070
     0
1002
}
1002
{
1000
NOSEL
1070
     0
1002
}
1002
{
1000
BEHIND
1070
     0
1002
}
1002
{
1000
REACTOR
1002
}
1001
GENIUS_GENOBJ-N-CHA_13
1002
{
1000
OWNER
1000
GEN
1002
}
  0
LINE
  5
3A7C5
330
1F
100
AcDbEntity
  8
AM_0
100
AcDbLine
 10
105.4126963920323
 20
52.05113200620349
 30
0.0
 11
103.0777953355975
 21
52.5216231657763
 31
0.0
  0
LINE
  5
3A7C6
330
1F
100
AcDbEntity
  8
AM_0
100
AcDbLine
 10
114.2368423210825
 20
150.2638261578332
 30
0.0
 11
112.6525085129587
 21
142.4012710235491
 31
0.0
1001
GENIUS_GENODEF_13
1002
{
1000
HIER
1070
     0
1002
}
1002
{
1000
MANEDIT
1070
     0
1002
}
1002
{
1000
NOSEL
1070
     0
1002
}
1002
{
1000
BEHIND
1070
     0
1002
}
1002
{
1000
REACTOR
1002
}
1001
GENIUS_GENOBJ-N-CEN_13
1002
{
1000
OWNER
1000
GEN
1002
}
  0
LINE
  5
3A7C7
330
1F
100
AcDbEntity
  8
AM_0
100
AcDbLine
 10
117.2757604775581
 20
149.6514729605334
 30
0.0
 11
109.6012902911202
 21
151.1979069591697
 31
0.0
  0
LINE
  5
3A7C8
330
1F
100
AcDbEntity
  8
AM_11
100
AcDbLine
 10
193.6886982340822
 20
157.753545832952
 30
0.0
 11
193.688698234082
 21
58.95354583295205
 31
0.0
  0
LINE
  5
3A7C9
330
1F
100
AcDbEntity
  8
AM_11
100
AcDbLine
 10
185.688698234082
 20
50.95354583295199
 30
0.0
 11
158.688698234082
 21
50.95354583295199
 31
0.0
  0
LINE
  5
3A7CA
330
1F
100
AcDbEntity
  8
AM_11
100
AcDbLine
 10
158.688698234082
 20
50.95354583295199
 30
0.0
 11
158.6886982340822
 21
165.953545832952
 31
0.0
  0
LINE
  5
3A7CB
330
1F
100
AcDbEntity
  8
AM_11
100
AcDbLine
 10
185.4886982340823
 20
165.953545832952
 30
0.0
 11
158.6886982340822
 21
165.953545832952
 31
0.0
  0
LINE
  5
3A7CC
330
1F
100
AcDbEntity
  8
AM_11
100
AcDbLine
 10
160.6886982340822
 20
101.3497524717609
 30
0.0
 11
160.6886982340822
 21
152.453545832952
 31
0.0
  0
LINE
  5
3A7CD
330
1F
100
AcDbEntity
  8
AM_11
100
AcDbLine
 10
169.6886982340822
 20
152.453545832952
 30
0.0
 11
159.1886982340822
 21
152.453545832952
 31
0.0
  0
ARC
  5
3A7CE
330
1F
100
AcDbEntity
  8
AM_11
100
AcDbCircle
 10
169.6886982340822
 20
143.453545832952
 30
0.0
 40
9.0
100
AcDbArc
 50
0.0
 51
90.0
1001
GENIUS_GENODEF_13
1002
{
1000
HIER
1070
     0
1002
}
1002
{
1000
MANEDIT
1070
     0
1002
}
1002
{
1000
NOSEL
1070
     0
1002
}
1002
{
1000
BEHIND
1070
     0
1002
}
1002
{
1000
REACTOR
1002
}
1001
GENIUS_GENOBJ-N-FIL_13
1002
{
1000
OWNER
1000
GEN
1002
}
  0
ARC
  5
3A7CF
330
1F
100
AcDbEntity
  8
AM_11
100
AcDbCircle
 10
170.6886982340818
 20
120.1840070981922
 30
0.0
 40
8.0
100
AcDbArc
 50
310.0000000000045
 51
0.0
1001
GENIUS_GENODEF_13
1002
{
1000
HIER
1070
     0
1002
}
1002
{
1000
MANEDIT
1070
     0
1002
}
1002
{
1000
NOSEL
1070
     0
1002
}
1002
{
1000
BEHIND
1070
     0
1002
}
1002
{
1000
REACTOR
1002
}
1001
GENIUS_GENOBJ-N-FIL_13
1002
{
1000
OWNER
1000
GEN
1002
}
  0
ARC
  5
3A7D0
330
1F
100
AcDbEntity
  8
AM_11
100
AcDbCircle
 10
159.188698234082
 20
100.743806669661
 30
0.0
 40
0.5
100
AcDbArc
 50
180.0
 51
310.0000000000045
1001
GENIUS_GENODEF_13
1002
{
1000
HIER
1070
     0
1002
}
1002
{
1000
MANEDIT
1070
     0
1002
}
1002
{
1000
NOSEL
1070
     0
1002
}
1002
{
1000
BEHIND
1070
     0
1002
}
1002
{
1000
REACTOR
1002
}
1001
GENIUS_GENOBJ-N-FIL_13
1002
{
1000
OWNER
1000
GEN
1002
}
  0
LINE
  5
3A7D1
330
1F
100
AcDbEntity
  8
AM_11
100
AcDbLine
 10
178.6886982340822
 20
120.1840070981935
 30
0.0
 11
178.6886982340822
 21
143.453545832952
 31
0.0
  0
LINE
  5
3A7D2
330
1F
100
AcDbEntity
  8
AM_11
100
AcDbLine
 10
175.8309991115743
 20
114.0556515532402
 30
0.0
 11
159.5100920389254
 21
100.3607844481015
 31
0.0
  0
ARC
  5
3A7D3
330
1F
100
AcDbEntity
  8
AM_11
100
AcDbCircle
 10
185.4886982340819
 20
157.7535458329522
 30
0.0
 40
8.199999999999999
100
AcDbArc
 50
0.0
 51
90.0
1001
GENIUS_GENODEF_13
1002
{
1000
HIER
1070
     0
1002
}
1002
{
1000
MANEDIT
1070
     0
1002
}
1002
{
1000
NOSEL
1070
     0
1002
}
1002
{
1000
BEHIND
1070
     0
1002
}
1002
{
1000
REACTOR
1002
}
1001
GENIUS_GENOBJ-N-FIL_13
1002
{
1000
OWNER
1000
GEN
1002
}
  0
ARC
  5
3A7D4
330
1F
100
AcDbEntity
  8
AM_11
100
AcDbCircle
 10
185.6886982340822
 20
58.95354583295205
 30
0.0
 40
8.0
100
AcDbArc
 50
270.0
 51
0.0
1001
GENIUS_GENODEF_13
1002
{
1000
HIER
1070
     0
1002
}
1002
{
1000
MANEDIT
1070
     0
1002
}
1002
{
1000
NOSEL
1070
     0
1002
}
1002
{
1000
BEHIND
1070
     0
1002
}
1002
{
1000
REACTOR
1002
}
1001
GENIUS_GENOBJ-N-FIL_13
1002
{
1000
OWNER
1000
GEN
1002
}
  0
LINE
  5
3A7D5
330
1F
100
AcDbEntity
  8
AM_11
100
AcDbLine
 10
160.6886982340822
 20
103.7866011808812
 30
0.0
 11
158.6886982340822
 21
103.7866011808812
 31
0.0
  0
LINE
  5
3A7D6
330
1F
100
AcDbEntity
  8
AM_11
100
AcDbLine
 10
158.6886982340822
 20
147.953545832952
 30
0.0
 11
160.6886982340822
 21
147.953545832952
 31
0.0
  0
LINE
  5
3A7D7
330
1F
100
AcDbEntity
  8
AM_11
100
AcDbLine
 10
159.1886982340822
 20
115.953545832952
 30
0.0
 11
160.1886982340822
 21
115.953545832952
 31
0.0
  0
ARC
  5
3A7D8
330
1F
100
AcDbEntity
  8
AM_11
100
AcDbCircle
 10
159.1886982340822
 20
151.953545832952
 30
0.0
 40
0.5
100
AcDbArc
 50
90.0
 51
180.0
1001
GENIUS_GENODEF_13
1002
{
1000
HIER
1070
     0
1002
}
1002
{
1000
MANEDIT
1070
     0
1002
}
1002
{
1000
NOSEL
1070
     0
1002
}
1002
{
1000
BEHIND
1070
     0
1002
}
1002
{
1000
REACTOR
1002
}
1001
GENIUS_GENOBJ-N-FIL_13
1002
{
1000
OWNER
1000
GEN
1002
}
  0
CIRCLE
  5
3A7D9
330
1F
100
AcDbEntity
  8
AM_11
100
AcDbCircle
 10
183.6886982340818
 20
157.9535458329679
 30
0.0
 40
6.5
  0
CIRCLE
  5
3A7DA
330
1F
100
AcDbEntity
  8
AM_11
100
AcDbCircle
 10
183.6886982340818
 20
157.9535458329679
 30
0.0
 40
2.1
  0
CIRCLE
  5
3A7DB
330
1F
100
AcDbEntity
  8
AM_11
100
AcDbCircle
 10
183.6886982340818
 20
157.9535458329679
 30
0.0
 40
4.25
  0
ARC
  5
3A7DC
330
1F
100
AcDbEntity
  8
AM_11
100
AcDbCircle
 10
123.0881446390326
 20
181.4604151262981
 30
0.0
 40
5.5
100
AcDbArc
 50
63.00544591543022
 51
242.7592352618312
  0
ARC
  5
3A7DD
330
1F
100
AcDbEntity
  8
AM_11
100
AcDbCircle
 10
183.2678157255129
 20
174.948334972995
 30
0.0
 40
8.5
100
AcDbArc
 50
4.79094877825657
 51
91.41866209483325
  0
ARC
  5
3A7DE
330
1F
100
AcDbEntity
  8
AM_11
100
AcDbCircle
 10
147.9814504311741
 20
186.0781339071392
 30
0.0
 40
10.0
100
AcDbArc
 50
235.4784663199044
 51
355.6794916175557
  0
LINE
  5
3A7DF
330
1F
100
AcDbEntity
  8
AM_11
100
AcDbLine
 10
176.9973191117244
 20
185.7964164723413
 30
0.0
 11
157.9530327496801
 21
185.3247773745041
 31
0.0
  0
LINE
  5
3A7E0
330
1F
100
AcDbEntity
  8
AM_11
100
AcDbLine
 10
177.5590603376908
 20
183.3095616725894
 30
0.0
 11
183.0573744712293
 21
183.4457295430082
 31
0.0
  0
LINE
  5
3A7E1
330
1F
100
AcDbEntity
  8
AM_11
100
AcDbLine
 10
177.0468347009675
 20
183.7970295146912
 30
0.0
 11
176.9973191117244
 21
185.7964164723413
 31
0.0
  0
ARC
  5
3A7E2
330
1F
100
AcDbEntity
  8
AM_11
100
AcDbCircle
 10
177.5466814403802
 20
183.8094084120019
 30
0.0
 40
0.5
100
AcDbArc
 50
181.4186620948268
 51
271.4186620948203
1001
GENIUS_GENODEF_13
1002
{
1000
HIER
1070
     0
1002
}
1002
{
1000
MANEDIT
1070
     0
1002
}
1002
{
1000
NOSEL
1070
     0
1002
}
1002
{
1000
BEHIND
1070
     0
1002
}
1002
{
1000
REACTOR
1002
}
1001
GENIUS_GENOBJ-N-FIL_13
1002
{
1000
OWNER
1000
GEN
1002
}
  0
LINE
  5
3A7E3
330
1F
100
AcDbEntity
  8
AM_11
100
AcDbLine
 10
142.3142911187546
 20
177.8390013479644
 30
0.0
 11
125.584626584526
 21
186.3611883199711
 31
0.0
  0
LINE
  5
3A7E4
330
1F
100
AcDbEntity
  8
AM_11
100
AcDbLine
 10
138.3691075729609
 20
167.4072243209365
 30
0.0
 11
120.5706262714063
 21
176.5704149965776
 31
0.0
  0
LINE
  5
3A7E5
330
1F
100
AcDbEntity
  8
AM_11
100
AcDbLine
 10
173.987662304177
 20
165.953545832952
 30
0.0
 11
173.9564111363365
 21
167.215434832901
 31
0.0
  0
LINE
  5
3A7E6
330
1F
100
AcDbEntity
  8
AM_11
100
AcDbLine
 10
192.9545279007286
 20
161.1449153776378
 30
0.0
 11
191.7381172840247
 21
175.6582585659774
 31
0.0
  0
LINE
  5
3A7E7
330
1F
100
AcDbEntity
  8
AM_11
100
AcDbLine
 10
139.9594764333761
 20
166.6707143677298
 30
0.0
 11
153.9815300010029
 21
165.953545832952
 31
0.0
  0
LINE
  5
3A7E8
330
1F
100
AcDbEntity
  8
AM_11
100
AcDbLine
 10
173.4441854996132
 20
167.7029026750027
 30
0.0
 11
170.4451050631379
 21
167.6286292911378
 31
0.0
  0
ARC
  5
3A7E9
330
1F
100
AcDbEntity
  8
AM_11
100
AcDbCircle
 10
173.456564396924
 20
167.2030559355902
 30
0.0
 40
0.5
100
AcDbArc
 50
1.418662094826855
 51
91.41866209483325
1001
GENIUS_GENODEF_13
1002
{
1000
HIER
1070
     0
1002
}
1002
{
1000
MANEDIT
1070
     0
1002
}
1002
{
1000
NOSEL
1070
     0
1002
}
1002
{
1000
BEHIND
1070
     0
1002
}
1002
{
1000
REACTOR
1002
}
1001
GENIUS_GENOBJ-N-FIL_13
1002
{
1000
OWNER
1000
GEN
1002
}
  0
LINE
  5
3A7EA
330
1F
100
AcDbEntity
  8
AM_11
100
AcDbLine
 10
153.9815300010029
 20
165.953545832952
 30
0.0
 11
170.4451050631379
 21
167.6286292911378
 31
0.0
  0
ARC
  5
3A7EB
330
1F
100
AcDbEntity
  8
AM_11
100
AcDbCircle
 10
147.9814504311741
 20
186.0781339071392
 30
0.0
 40
21.0
100
AcDbArc
 50
242.7592352618312
 51
247.5424543643017
  0
ARC
  5
3A7EC
330
1F
100
AcDbEntity
  8
AM_11
100
AcDbCircle
 10
183.2780706956068
 20
175.0226305690175
 30
0.0
 40
4.15
100
AcDbArc
 50
91.73447512308994
 51
157.4853394014865
  0
ARC
  5
3A7ED
330
1F
100
AcDbEntity
  8
AM_11
100
AcDbCircle
 10
183.8523490208526
 20
179.1831839462924
 30
0.0
 40
0.7000000000000063
100
AcDbArc
 50
172.1411609438674
 51
193.3792879972678
  0
ARC
  5
3A7EE
330
1F
100
AcDbEntity
  8
AM_11
100
AcDbCircle
 10
183.8523490208526
 20
179.1831839462924
 30
0.0
 40
0.700000000000003
100
AcDbArc
 50
330.9030338904766
 51
352.1411609438674
  0
LINE
  5
3A7EF
330
1F
100
AcDbEntity
  8
AM_11
100
AcDbLine
 10
187.245117476835
 20
175.5350169813513
 30
0.0
 11
187.7493047149666
 21
175.4654243631422
 31
0.0
  0
LINE
  5
3A7F0
330
1F
100
AcDbEntity
  8
AM_11
100
AcDbLine
 10
179.0939758388692
 20
176.660113463531
 30
0.0
 11
179.598163077001
 21
176.5905208453213
 31
0.0
  0
LINE
  5
3A7F1
330
1F
100
AcDbEntity
  8
AM_11
100
AcDbLine
 10
179.6216982328061
 20
173.400613179076
 30
0.0
 11
178.6960686045822
 21
171.2296006822026
 31
0.0
  0
LINE
  5
3A7F2
330
1F
100
AcDbEntity
  8
AM_11
100
AcDbLine
 10
186.3583244479616
 20
172.4707612892345
 30
0.0
 11
186.6612213487482
 21
170.1301761192993
 31
0.0
  0
ARC
  5
3A7F3
330
1F
100
AcDbEntity
  8
AM_11
100
AcDbCircle
 10
183.2780706956068
 20
175.0226305690175
 30
0.0
 40
7.0
100
AcDbArc
 50
310.3308460480886
 51
213.9514758396351
  0
ARC
  5
3A7F4
330
1F
100
AcDbEntity
  8
AM_11
100
AcDbCircle
 10
178.0521522825595
 20
171.50413987837
 30
0.0
 40
0.7
100
AcDbArc
 50
213.9514758396351
 51
336.9086122615938
  0
ARC
  5
3A7F5
330
1F
100
AcDbEntity
  8
AM_11
100
AcDbCircle
 10
183.2780706956068
 20
175.0226305690175
 30
0.0
 40
5.599999999999997
100
AcDbArc
 50
96.61867312979502
 51
148.7467213212728
  0
ARC
  5
3A7F6
330
1F
100
AcDbEntity
  8
AM_11
100
AcDbCircle
 10
179.2088315039185
 20
177.4922241389856
 30
0.0
 40
0.84
100
AcDbArc
 50
148.7467213212728
 51
262.1411609438679
  0
ARC
  5
3A7F7
330
1F
100
AcDbEntity
  8
AM_11
100
AcDbCircle
 10
187.3554324581625
 20
170.2200145051156
 30
0.0
 40
0.7
100
AcDbArc
 50
187.3737096261487
 51
310.3308460480886
  0
ARC
  5
3A7F8
330
1F
100
AcDbEntity
  8
AM_11
100
AcDbCircle
 10
182.6971557993538
 20
180.0290402489491
 30
0.0
 40
0.5600000000000001
100
AcDbArc
 50
352.1411609438674
 51
96.61867312979502
  0
ARC
  5
3A7F9
330
1F
100
AcDbEntity
  8
AM_11
100
AcDbCircle
 10
185.1934878257186
 20
179.6844732538015
 30
0.0
 40
0.5600000000000001
100
AcDbArc
 50
67.66364875793573
 51
172.1411609438674
  0
ARC
  5
3A7FA
330
1F
100
AcDbEntity
  8
AM_11
100
AcDbCircle
 10
187.8641603800161
 20
176.2975350385965
 30
0.0
 40
0.84
100
AcDbArc
 50
262.1411609438679
 51
15.53560056646441
  0
ARC
  5
3A7FB
330
1F
100
AcDbEntity
  8
AM_11
100
AcDbCircle
 10
183.2780706956068
 20
175.0226305690175
 30
0.0
 40
5.599999999999997
100
AcDbArc
 50
15.53560056646441
 51
67.66364875793573
  0
LINE
  5
3A7FC
330
1F
100
AcDbEntity
  8
AM_11
100
AcDbLine
 10
183.1589234579734
 20
179.2788970005002
 30
0.0
 11
183.2518962496569
 21
179.9524698055829
 31
0.0
  0
LINE
  5
3A7FD
330
1F
100
AcDbEntity
  8
AM_11
100
AcDbLine
 10
184.5457745837317
 20
179.0874708920848
 30
0.0
 11
184.6387473754152
 21
179.7610436971677
 31
0.0
  0
CIRCLE
  5
3A7FE
330
1F
100
AcDbEntity
  8
AM_11
100
AcDbCircle
 10
183.2780706956068
 20
175.0226305690175
 30
0.0
 40
4.0
  0
ARC
  5
3A7FF
330
1F
100
AcDbEntity
  8
AM_11
100
AcDbCircle
 10
183.2780706956068
 20
175.0226305690175
 30
0.0
 40
4.15
100
AcDbArc
 50
205.8239095292246
 51
318.4584123585008
  0
ARC
  5
3A800
330
1F
100
AcDbEntity
  8
AM_11
100
AcDbCircle
 10
183.2780706956068
 20
175.0226305690175
 30
0.0
 40
4.15
100
AcDbArc
 50
6.796982486256288
 51
72.54784676465277
  0
ARC
  5
3A801
330
1F
100
AcDbEntity
  8
AM_11
100
AcDbCircle
 10
123.0881446390328
 20
181.4604151262981
 30
0.0
 40
15.0
100
AcDbArc
 50
354.5156341823094
 51
311.2490469949638
  0
ARC
  5
3A802
330
1F
100
AcDbEntity
  8
AM_11
100
AcDbCircle
 10
123.0881446390328
 20
181.4604151262981
 30
0.0
 40
11.38083151964596
100
AcDbArc
 50
1.904552396003749
 51
303.8601287812522
  0
CIRCLE
  5
3A803
330
1F
100
AcDbEntity
  8
AM_11
100
AcDbCircle
 10
123.0881446390328
 20
181.4604151262981
 30
0.0
 40
3.5
  0
CIRCLE
  5
3A804
330
1F
100
AcDbEntity
  8
AM_11
100
AcDbCircle
 10
179.688698234082
 20
57.9535458329517
 30
0.0
 40
3.0
  0
ARC
  5
3A805
330
1F
100
AcDbEntity
  8
AM_11
100
AcDbCircle
 10
179.688698234082
 20
57.9535458329517
 30
0.0
 40
5.5
100
AcDbArc
 50
227.5458497956034
 51
132.4541502043965
  0
LINE
  5
3A806
330
1F
100
AcDbEntity
  8
AM_11
100
AcDbLine
 10
178.0610278574121
 20
60.47360320232065
 30
0.0
 11
176.1424792157272
 21
61.1728642664026
 31
0.0
  0
LINE
  5
3A807
330
1F
100
AcDbEntity
  8
AM_11
100
AcDbLine
 10
178.0610278574121
 20
55.43348846358276
 30
0.0
 11
176.1424792157272
 21
54.7342273995008
 31
0.0
  0
ARC
  5
3A808
330
1F
100
AcDbEntity
  8
AM_11
100
AcDbCircle
 10
176.313698234082
 20
61.64263447379517
 30
0.0
 40
0.5
100
AcDbArc
 50
132.4541502043965
 51
249.9745177672606
  0
ARC
  5
3A809
330
1F
100
AcDbEntity
  8
AM_11
100
AcDbCircle
 10
176.313698234082
 20
54.26445719210818
 30
0.0
 40
0.5
100
AcDbArc
 50
110.0254822327394
 51
227.5458497956034
  0
ARC
  5
3A80A
330
1F
100
AcDbEntity
  8
AM_11
100
AcDbCircle
 10
179.688698234082
 20
57.9535458329517
 30
0.0
 40
4.0
100
AcDbArc
 50
14.47751218592939
 51
66.60556037741461
  0
ARC
  5
3A80B
330
1F
100
AcDbEntity
  8
AM_11
100
AcDbCircle
 10
181.0386982340819
 20
61.07404258827762
 30
0.0
 40
0.6
100
AcDbArc
 50
66.60556037741461
 51
180.0
  0
LINE
  5
3A80C
330
1F
100
AcDbEntity
  8
AM_11
100
AcDbLine
 10
180.438698234082
 20
61.07404258827762
 30
0.0
 11
180.438698234082
 21
60.85828334260725
 31
0.0
  0
ARC
  5
3A80D
330
1F
100
AcDbEntity
  8
AM_11
100
AcDbCircle
 10
179.688698234082
 20
57.9535458329517
 30
0.0
 40
4.0
100
AcDbArc
 50
293.3944396225854
 51
345.5224878140705
  0
ARC
  5
3A80E
330
1F
100
AcDbEntity
  8
AM_11
100
AcDbCircle
 10
183.1743832456686
 20
58.85354583295168
 30
0.0
 40
0.4
100
AcDbArc
 50
270.0
 51
14.47751218592939
  0
ARC
  5
3A80F
330
1F
100
AcDbEntity
  8
AM_11
100
AcDbCircle
 10
183.1743832456686
 20
57.05354583295167
 30
0.0
 40
0.4
100
AcDbArc
 50
345.5224878140705
 51
90.0
  0
LINE
  5
3A810
330
1F
100
AcDbEntity
  8
AM_11
100
AcDbLine
 10
182.688698234082
 20
58.4535458329517
 30
0.0
 11
183.1743832456686
 21
58.4535458329517
 31
0.0
  0
LINE
  5
3A811
330
1F
100
AcDbEntity
  8
AM_11
100
AcDbLine
 10
182.688698234082
 20
57.45354583295176
 30
0.0
 11
183.1743832456686
 21
57.45354583295176
 31
0.0
  0
ARC
  5
3A812
330
1F
100
AcDbEntity
  8
AM_11
100
AcDbCircle
 10
179.688698234082
 20
57.9535458329517
 30
0.0
 40
3.100000000000008
100
AcDbArc
 50
124.243974697377
 51
235.7560253026227
  0
ARC
  5
3A813
330
1F
100
AcDbEntity
  8
AM_11
100
AcDbCircle
 10
179.688698234082
 20
57.9535458329517
 30
0.0
 40
3.100000000000008
100
AcDbArc
 50
9.281799086675199
 51
75.99919761374296
  0
ARC
  5
3A814
330
1F
100
AcDbEntity
  8
AM_11
100
AcDbCircle
 10
179.688698234082
 20
57.9535458329517
 30
0.0
 40
3.100000000000008
100
AcDbArc
 50
284.0008023862571
 51
350.7182009133248
  0
ARC
  5
3A815
330
1F
100
AcDbEntity
  8
AM_11
100
AcDbCircle
 10
181.0386982340837
 20
54.83304907762477
 30
0.0
 40
0.6
100
AcDbArc
 50
180.0000000000325
 51
293.3944396226277
  0
LINE
  5
3A816
330
1F
100
AcDbEntity
  8
AM_11
100
AcDbLine
 10
180.4386982340838
 20
54.83304907762437
 30
0.0
 11
180.4386982340837
 21
55.0488083232948
 31
0.0
  0
LINE
  5
3A817
330
1F
100
AcDbEntity
  8
AM_11
100
AcDbLine
 10
193.5840556398427
 20
54.32600636849611
 30
0.0
 11
196.2042794215401
 21
139.7858473894916
 31
0.0
  0
LINE
  5
3A818
330
1F
100
AcDbEntity
  8
AM_11
100
AcDbLine
 10
168.2174309000446
 20
140.6439323706321
 30
0.0
 11
167.1796528780307
 21
106.7963101194867
 31
0.0
  0
ARC
  5
3A819
330
1F
100
AcDbEntity
  8
AM_11
100
AcDbCircle
 10
170.7162566608925
 20
140.5673176401732
 30
0.0
 40
2.5
100
AcDbArc
 50
88.2438447570335
 51
178.2438447570269
1001
GENIUS_GENODEF_13
1002
{
1000
HIER
1070
     0
1002
}
1002
{
1000
MANEDIT
1070
     0
1002
}
1002
{
1000
NOSEL
1070
     0
1002
}
1002
{
1000
BEHIND
1070
     0
1002
}
1002
{
1000
REACTOR
1002
}
1001
GENIUS_GENOBJ-N-FIL_13
1002
{
1000
OWNER
1000
GEN
1002
}
  0
ARC
  5
3A81A
330
1F
100
AcDbEntity
  8
AM_11
100
AcDbCircle
 10
193.7054536606922
 20
139.8624621199507
 30
0.0
 40
2.5
100
AcDbArc
 50
358.243844757027
 51
88.2438447570335
1001
GENIUS_GENODEF_13
1002
{
1000
HIER
1070
     0
1002
}
1002
{
1000
MANEDIT
1070
     0
1002
}
1002
{
1000
NOSEL
1070
     0
1002
}
1002
{
1000
BEHIND
1070
     0
1002
}
1002
{
1000
REACTOR
1002
}
1001
GENIUS_GENOBJ-N-FIL_13
1002
{
1000
OWNER
1000
GEN
1002
}
  0
LINE
  5
3A81B
330
1F
100
AcDbEntity
  8
AM_11
100
AcDbLine
 10
175.851814697414
 20
144.9119745487815
 30
0.0
 11
175.7905229130473
 21
142.912913940103
 31
0.0
  0
LINE
  5
3A81C
330
1F
100
AcDbEntity
  8
AM_11
100
AcDbLine
 10
191.5237032467973
 20
52.38823754418496
 30
0.0
 11
193.5840556398427
 21
54.32600636849611
 31
0.0
1001
GENIUS_GENFIL_13
1070
     0
1040
2.0
1040
2.0
1040
0.0
1040
0.0
1002
{
1002
}
1001
GENIUS_GENODEF_13
1002
{
1000
HIER
1070
     0
1002
}
1002
{
1000
MANEDIT
1070
     0
1002
}
1002
{
1000
NOSEL
1070
     0
1002
}
1002
{
1000
BEHIND
1070
     0
1002
}
1002
{
1000
REACTOR
1002
}
1001
GENIUS_GENOBJ-N-CHA_13
1002
{
1000
OWNER
1000
GEN
1002
}
  0
LINE
  5
3A81D
330
1F
100
AcDbEntity
  8
AM_11
100
AcDbLine
 10
193.5840556398427
 20
54.32600636849611
 30
0.0
 11
192.2434375410123
 21
54.36711011246228
 31
0.0
  0
LINE
  5
3A81E
330
1F
100
AcDbEntity
  8
AM_11
100
AcDbLine
 10
189.3551671673676
 20
182.3398293822868
 30
0.0
 11
187.3550514355699
 21
182.4011535170381
 31
0.0
  0
LINE
  5
3A81F
330
1F
100
AcDbEntity
  8
AM_11
100
AcDbLine
 10
189.3551671673676
 20
182.3398293822868
 30
0.0
 11
189.8396093734454
 21
181.8247412840254
 31
0.0
1001
GENIUS_GENFIL_13
1070
     0
1040
0.5
1040
0.5
1040
20.0
1040
0.0
1002
{
1002
}
1001
GENIUS_GENODEF_13
1002
{
1000
HIER
1070
     0
1002
}
1002
{
1000
MANEDIT
1070
     0
1002
}
1002
{
1000
NOSEL
1070
     0
1002
}
1002
{
1000
BEHIND
1070
     0
1002
}
1002
{
1000
REACTOR
1002
}
1001
GENIUS_GENOBJ-N-CHA_13
1002
{
1000
OWNER
1000
GEN
1002
}
  0
LINE
  5
3A820
330
1F
100
AcDbEntity
  8
AM_11
100
AcDbLine
 10
170.7928713913515
 20
143.0661434010212
 30
0.0
 11
178.6886982340822
 21
142.8240550350434
 31
0.0
  0
LINE
  5
3A821
330
1F
100
AcDbEntity
  8
AM_11
100
AcDbLine
 10
193.6886982340822
 20
142.3641506371895
 30
0.0
 11
193.7820683911511
 21
142.3612878807984
 31
0.0
  0
LINE
  5
3A822
330
1F
100
AcDbEntity
  8
AM_11
100
AcDbLine
 10
190.3128546538031
 20
52.4253625170553
 30
0.0
 11
191.5237032467973
 21
52.38823754418496
 31
0.0
  0
LINE
  5
3A823
330
1F
100
AcDbEntity
  8
AM_11
100
AcDbLine
 10
189.8396093734454
 20
181.8247412840254
 30
0.0
 11
189.7956905706303
 21
180.3923087060767
 31
0.0
  0
LINE
  5
3A824
330
1F
100
AcDbEntity
  8
AM_11
100
AcDbLine
 10
189.8396093734454
 20
181.8247412840254
 30
0.0
 11
188.1941381803837
 21
181.8751919132409
 31
0.0
  0
LINE
  5
3A825
330
1F
100
AcDbEntity
  8
3A
100
AcDbLine
 10
106.3206564051615
 20
143.8841075131773
 30
0.0
 11
106.2805833461554
 21
143.6852374049842
 31
0.0
1001
GENIUS_GENODEF_13
1002
{
1000
HIER
1070
     0
1002
}
1002
{
1000
MANEDIT
1070
     0
1002
}
1002
{
1000
NOSEL
1070
     0
1002
}
1002
{
1000
BEHIND
1070
     0
1002
}
1002
{
1000
REACTOR
1002
}
1001
GENIUS_GENOBJ-N-CEN_13
1002
{
1000
OWNER
1000
GEN
1002
}
  0
LINE
  5
3A826
330
1F
100
AcDbEntity
  8
AM_0
100
AcDbLine
 10
106.3206564051615
 20
143.6771625360525
 30
0.0
 11
115.8384710963605
 21
141.7592878328316
 31
0.0
  0
LINE
  5
3A827
330
1F
100
AcDbEntity
  8
AM_0
100
AcDbLine
 10
106.3206564051615
 20
141.6369628068202
 30
0.0
 11
120.3448854149987
 21
138.8110290265573
 31
0.0
  0
LINE
  5
3A828
330
1F
100
AcDbEntity
  8
AM_0
100
AcDbLine
 10
99.92661639657862
 20
51.11639759485115
 30
0.0
 11
103.0570374541127
 21
50.48560622609016
 31
0.0
  0
LINE
  5
3A829
330
1F
100
AcDbEntity
  8
AM_0
100
AcDbLine
 10
91.32065640516154
 20
123.8649871734982
 30
0.0
 11
89.5733457612774
 21
115.1936287742658
 31
0.0
  0
ARC
  5
3A82A
330
1F
100
AcDbEntity
  8
AM_0
 48
2.0
100
AcDbCircle
 10
278.9997514945095
 20
188.9535458329523
 30
0.0
 40
2.5
100
AcDbArc
 50
180.0
 51
0.0
  0
ARC
  5
3A82B
330
1F
100
AcDbEntity
  8
AM_0
 48
2.0
100
AcDbCircle
 10
278.9997514945095
 20
191.453545832952
 30
0.0
 40
2.5
100
AcDbArc
 50
0.0
 51
180.0
  0
CIRCLE
  5
3A82C
330
1F
100
AcDbEntity
  8
AM_0
 48
2.0
100
AcDbCircle
 10
278.9997514945095
 20
178.453545832952
 30
0.0
 40
2.5
  0
LINE
  5
3A82D
330
1F
100
AcDbEntity
  8
AM_0
 48
2.0
100
AcDbLine
 10
270.8997514945094
 20
197.953545832952
 30
0.0
 11
271.9997514945071
 21
197.953545832952
 31
0.0
  0
LINE
  5
3A82E
330
1F
100
AcDbEntity
  8
AM_0
 48
2.0
100
AcDbLine
 10
270.8997514945094
 20
215.4631817260209
 30
0.0
 11
270.8997514945094
 21
189.930726343623
 31
0.0
  0
LINE
  5
3A82F
330
1F
100
AcDbEntity
  8
AM_0
 48
2.0
100
AcDbLine
 10
251.0997514945095
 20
215.4631817260209
 30
0.0
 11
251.0997514945095
 21
189.930726343623
 31
0.0
  0
LINE
  5
3A830
330
1F
100
AcDbEntity
  8
AM_0
 48
2.0
100
AcDbLine
 10
269.9997514945092
 20
223.4535458329521
 30
0.0
 11
266.2565808704096
 21
198.6550404482919
 31
0.0
  0
LINE
  5
3A831
330
1F
100
AcDbEntity
  8
AM_0
 48
2.0
100
AcDbLine
 10
251.9997514945093
 20
223.4535458329521
 30
0.0
 11
255.742922118609
 21
198.6550404482921
 31
0.0
  0
LINE
  5
3A832
330
1F
100
AcDbEntity
  8
AM_0
 48
2.0
100
AcDbLine
 10
245.4997514945095
 20
180.953545832952
 30
0.0
 11
245.4997514945095
 21
178.453545832952
 31
0.0
  0
LINE
  5
3A833
330
1F
100
AcDbEntity
  8
AM_0
 48
2.0
100
AcDbLine
 10
240.4997514945093
 20
180.953545832952
 30
0.0
 11
240.4997514945093
 21
178.453545832952
 31
0.0
  0
LINE
  5
3A834
330
1F
100
AcDbEntity
  8
AM_0
 48
2.0
100
AcDbLine
 10
236.4997514945093
 20
194.9535458329522
 30
0.0
 11
236.4997514945093
 21
174.953545832952
 31
0.0
  0
ARC
  5
3A835
330
1F
100
AcDbEntity
  8
AM_0
 48
2.0
100
AcDbCircle
 10
242.9997514945095
 20
178.453545832952
 30
0.0
 40
2.5
100
AcDbArc
 50
180.0
 51
0.0
  0
ARC
  5
3A836
330
1F
100
AcDbEntity
  8
AM_0
 48
2.0
100
AcDbCircle
 10
239.4997514945093
 20
174.953545832952
 30
0.0
 40
3.0
100
AcDbArc
 50
180.0
 51
270.0
  0
ARC
  5
3A837
330
1F
100
AcDbEntity
  8
AM_0
 48
2.0
100
AcDbCircle
 10
242.9997514945095
 20
180.953545832952
 30
0.0
 40
2.5
100
AcDbArc
 50
0.0
 51
180.0
  0
CIRCLE
  5
3A838
330
1F
100
AcDbEntity
  8
AM_0
 48
2.0
100
AcDbCircle
 10
242.9997514945095
 20
191.453545832952
 30
0.0
 40
2.5
  0
LINE
  5
3A839
330
1F
100
AcDbEntity
  8
AM_0
 48
2.0
100
AcDbLine
 10
239.4997514945093
 20
197.953545832952
 30
0.0
 11
247.3997514945072
 21
197.953545832952
 31
0.0
  0
ARC
  5
3A83A
330
1F
100
AcDbEntity
  8
AM_0
 48
2.0
100
AcDbCircle
 10
239.4997514945093
 20
194.9535458329522
 30
0.0
 40
3.0
100
AcDbArc
 50
90.0
 51
180.0
  0
LINE
  5
3A83B
330
1F
100
AcDbEntity
  8
AM_0
 48
2.0
100
AcDbLine
 10
276.4997514945094
 20
191.4535458329522
 30
0.0
 11
276.4997514945094
 21
188.9535458329523
 31
0.0
  0
LINE
  5
3A83C
330
1F
100
AcDbEntity
  8
AM_0
 48
2.0
100
AcDbLine
 10
257.7205202919822
 20
196.953545832952
 30
0.0
 11
264.2789826970366
 21
196.953545832952
 31
0.0
  0
ARC
  5
3A83D
330
1F
100
AcDbEntity
  8
AM_0
 48
2.0
100
AcDbCircle
 10
257.7205202919822
 20
198.953545832952
 30
0.0
 40
2.0
100
AcDbArc
 50
188.5836214801126
 51
270.0
  0
ARC
  5
3A83E
330
1F
100
AcDbEntity
  8
AM_0
 48
2.0
100
AcDbCircle
 10
264.2789826970366
 20
198.953545832952
 30
0.0
 40
2.0
100
AcDbArc
 50
270.0
 51
351.4163785198872
  0
LINE
  5
3A83F
330
1F
100
AcDbEntity
  8
AM_0
 48
2.0
100
AcDbLine
 10
269.9997514945092
 20
241.3535458329521
 30
0.0
 11
269.9997514945092
 21
218.9617528629282
 31
0.0
  0
LINE
  5
3A840
330
1F
100
AcDbEntity
  8
AM_0
 48
2.0
100
AcDbLine
 10
251.9997514945093
 20
241.3535458329521
 30
0.0
 11
251.9997514945093
 21
223.4535458329521
 31
0.0
  0
ARC
  5
3A841
330
1F
100
AcDbEntity
  8
AM_0
 48
2.0
100
AcDbCircle
 10
244.7497514945095
 20
218.9617528629282
 30
0.0
 40
7.25
100
AcDbArc
 50
331.1471659551982
 51
0.0
  0
LINE
  5
3A842
330
1F
100
AcDbEntity
  8
AM_0
 48
2.0
100
AcDbLine
 10
251.9997514945093
 20
223.4535458329521
 30
0.0
 11
251.9997514945093
 21
218.9617528629282
 31
0.0
  0
ARC
  5
3A843
330
1F
100
AcDbEntity
  8
AM_0
 48
2.0
100
AcDbCircle
 10
277.2497514945095
 20
218.9617528629282
 30
0.0
 40
7.25
100
AcDbArc
 50
180.0
 51
208.8528340448017
  0
ARC
  5
3A844
330
1F
100
AcDbEntity
  8
AM_0
 48
2.0
100
AcDbCircle
 10
260.9997514945093
 20
174.1535458329551
 30
0.0
 40
67.79999999999721
100
AcDbArc
 50
82.37185033141754
 51
97.62814966858245
  0
LINE
  5
3A845
330
1F
100
AcDbEntity
  8
AM_0
 48
2.0
100
AcDbLine
 10
285.4997514945093
 20
194.9535458329522
 30
0.0
 11
285.4997514945093
 21
174.9535458329523
 31
0.0
  0
ARC
  5
3A846
330
1F
100
AcDbEntity
  8
AM_0
 48
2.0
100
AcDbCircle
 10
282.4997514945092
 20
174.9535458329523
 30
0.0
 40
3.0
100
AcDbArc
 50
270.0
 51
0.0
  0
ARC
  5
3A847
330
1F
100
AcDbEntity
  8
AM_0
 48
2.0
100
AcDbCircle
 10
282.4997514945092
 20
194.9535458329522
 30
0.0
 40
3.0
100
AcDbArc
 50
0.0
 51
90.0
  0
LINE
  5
3A848
330
1F
100
AcDbEntity
  8
AM_0
 48
2.0
100
AcDbLine
 10
281.4997514945093
 20
191.4535458329522
 30
0.0
 11
281.4997514945093
 21
188.9535458329523
 31
0.0
  0
LINE
  5
3A849
330
1F
100
AcDbEntity
  8
AM_0
100
AcDbLine
 10
239.4997514945099
 20
171.953545832952
 30
0.0
 11
247.3997514945072
 21
171.953545832952
 31
0.0
  0
LINE
  5
3A84A
330
1F
100
AcDbEntity
  8
AM_0
100
AcDbLine
 10
274.599751494507
 20
171.953545832952
 30
0.0
 11
282.4997514945092
 21
171.9535458329523
 31
0.0
  0
LINE
  5
3A84B
330
1F
100
AcDbEntity
  8
AM_0
100
AcDbLine
 10
274.599751494507
 20
229.4397759857708
 30
0.0
 11
274.599751494507
 21
148.4535458329529
 31
0.0
  0
LINE
  5
3A84C
330
1F
100
AcDbEntity
  8
AM_0
100
AcDbLine
 10
274.599751494507
 20
148.4535458329529
 30
0.0
 11
271.9997514945071
 21
148.4535458329529
 31
0.0
  0
LINE
  5
3A84D
330
1F
100
AcDbEntity
  8
AM_0
100
AcDbLine
 10
271.9997514945071
 20
148.4535458329529
 30
0.0
 11
271.9997514945071
 21
170.5655365079118
 31
0.0
  0
LINE
  5
3A84E
330
1F
100
AcDbEntity
  8
AM_0
100
AcDbLine
 10
271.9997514945071
 20
229.4397759857708
 30
0.0
 11
274.599751494507
 21
229.4397759857708
 31
0.0
  0
LINE
  5
3A84F
330
1F
100
AcDbEntity
  8
AM_0
100
AcDbLine
 10
247.3997514945072
 20
229.4397759857708
 30
0.0
 11
247.3997514945072
 21
148.4535458329529
 31
0.0
  0
LINE
  5
3A850
330
1F
100
AcDbEntity
  8
AM_0
100
AcDbLine
 10
247.3997514945072
 20
148.4535458329529
 30
0.0
 11
249.9997514945072
 21
148.4535458329529
 31
0.0
  0
LINE
  5
3A851
330
1F
100
AcDbEntity
  8
AM_0
100
AcDbLine
 10
249.9997514945072
 20
148.4535458329529
 30
0.0
 11
249.9997514945072
 21
170.5655365079118
 31
0.0
  0
LINE
  5
3A852
330
1F
100
AcDbEntity
  8
AM_0
100
AcDbLine
 10
249.9997514945072
 20
229.4397759857708
 30
0.0
 11
247.3997514945072
 21
229.4397759857708
 31
0.0
  0
LINE
  5
3A853
330
1F
100
AcDbEntity
  8
AM_0
100
AcDbLine
 10
250.8997514945072
 20
171.1297935269164
 30
0.0
 11
271.099751494507
 21
171.1297935269164
 31
0.0
  0
LINE
  5
3A854
330
1F
100
AcDbEntity
  8
AM_0
100
AcDbLine
 10
249.9997514945072
 20
189.911752299363
 30
0.0
 11
249.9997514945072
 21
229.4397759857708
 31
0.0
  0
LINE
  5
3A855
330
1F
100
AcDbEntity
  8
AM_0
100
AcDbLine
 10
271.9997514945071
 20
189.911752299363
 30
0.0
 11
271.9997514945071
 21
229.4397759857708
 31
0.0
  0
LINE
  5
3A856
330
1F
100
AcDbEntity
  8
AM_0
100
AcDbLine
 10
250.8997514945072
 20
170.7106311699416
 30
0.0
 11
271.099751494507
 21
170.7106311699416
 31
0.0
  0
ELLIPSE
  5
3A857
330
1F
100
AcDbEntity
  8
AM_0
100
AcDbEllipse
 10
250.8997514945072
 20
170.5655365079118
 30
0.0
 11
-0.9000000000000905
 21
0.0000000000000166
 31
0.0
210
0.0
220
0.0
230
1.0
 40
0.161216291144212
 41
-1.570796326794893
 42
0.0000000000001139
  0
ELLIPSE
  5
3A858
330
1F
100
AcDbEntity
  8
AM_0
100
AcDbEllipse
 10
250.8997514945072
 20
170.5655365079118
 30
0.0
 11
3.499999999999998
 21
0.0000000000000266
 31
0.0
210
0.0
220
0.0
230
1.0
 40
0.1612162911441633
 41
1.570796326794894
 42
3.141592653589746
  0
ELLIPSE
  5
3A859
330
1F
100
AcDbEntity
  8
AM_0
100
AcDbEllipse
 10
271.099751494507
 20
170.5655365079118
 30
0.0
 11
0.9000000000000905
 21
0.0000000000000166
 31
0.0
210
0.0
220
0.0
230
-1.0
 40
0.161216291144212
 41
-1.570796326794893
 42
0.0000000000001139
  0
ELLIPSE
  5
3A85A
330
1F
100
AcDbEntity
  8
AM_0
100
AcDbEllipse
 10
271.099751494507
 20
170.5655365079118
 30
0.0
 11
-3.499999999999998
 21
0.0000000000000266
 31
0.0
210
0.0
220
0.0
230
-1.0
 40
0.1612162911441633
 41
1.570796326794894
 42
3.141592653589643
  0
ELLIPSE
  5
3A85B
330
1F
100
AcDbEntity
  8
AM_0
100
AcDbEllipse
 10
250.8997514945074
 20
189.3664693246184
 30
0.0
 11
3.499999999999998
 21
0.0000000000000266
 31
0.0
210
0.0
220
0.0
230
1.0
 40
0.1612162911441633
 41
1.570796326794894
 42
3.141592653589746
  0
ELLIPSE
  5
3A85C
330
1F
100
AcDbEntity
  8
AM_0
100
AcDbEllipse
 10
271.0997514945073
 20
189.3664693246184
 30
0.0
 11
-3.499999999999998
 21
0.0000000000000266
 31
0.0
210
0.0
220
0.0
230
-1.0
 40
0.1612162911441633
 41
1.570796326794894
 42
3.141592653589643
  0
LINE
  5
3A85D
330
1F
100
AcDbEntity
  8
AM_0
100
AcDbLine
 10
250.8997514945074
 20
189.9307263436229
 30
0.0
 11
271.0997514945073
 21
189.9307263436229
 31
0.0
  0
ARC
  5
3A85E
330
1F
100
AcDbEntity
  8
AM_0
100
AcDbCircle
 10
260.9997514945077
 20
221.939775985771
 30
0.0
 40
13.0
100
AcDbArc
 50
226.1869385396028
 51
236.7343221097933
  0
LINE
  5
3A85F
330
1F
100
AcDbEntity
  8
AM_0
100
AcDbLine
 10
249.9997514945087
 20
220.4397759857705
 30
0.0
 11
249.9997514945083
 21
227.4397759857706
 31
0.0
1001
GENIUS_GENODEF_13
1002
{
1000
HIER
1070
     0
1002
}
1002
{
1000
MANEDIT
1070
     0
1002
}
1002
{
1000
NOSEL
1070
     0
1002
}
1002
{
1000
BEHIND
1070
     0
1002
}
1002
{
1000
REACTOR
1002
}
1001
GENIUS_GENOBJ-N-CEN_13
1002
{
1000
OWNER
1000
GEN
1002
}
  0
LINE
  5
3A860
330
1F
100
AcDbEntity
  8
AM_0
100
AcDbLine
 10
271.9997514945086
 20
220.4397759857715
 30
0.0
 11
271.9997514945082
 21
227.4397759857714
 31
0.0
1001
GENIUS_GENODEF_13
1002
{
1000
HIER
1070
     0
1002
}
1002
{
1000
MANEDIT
1070
     0
1002
}
1002
{
1000
NOSEL
1070
     0
1002
}
1002
{
1000
BEHIND
1070
     0
1002
}
1002
{
1000
REACTOR
1002
}
1001
GENIUS_GENOBJ-N-CEN_13
1002
{
1000
OWNER
1000
GEN
1002
}
  0
LINE
  5
3A861
330
1F
100
AcDbEntity
  8
AM_0
100
AcDbLine
 10
249.9997514945087
 20
220.4397759857705
 30
0.0
 11
251.9997514945078
 21
220.4397759857705
 31
0.0
1001
GENIUS_GENODEF_13
1002
{
1000
HIER
1070
     0
1002
}
1002
{
1000
MANEDIT
1070
     0
1002
}
1002
{
1000
NOSEL
1070
     0
1002
}
1002
{
1000
BEHIND
1070
     0
1002
}
1002
{
1000
REACTOR
1002
}
1001
GENIUS_GENOBJ-N-CEN_13
1002
{
1000
OWNER
1000
GEN
1002
}
  0
LINE
  5
3A862
330
1F
100
AcDbEntity
  8
AM_0
100
AcDbLine
 10
269.9997514945079
 20
220.4397759857712
 30
0.0
 11
271.9997514945086
 21
220.4397759857715
 31
0.0
1001
GENIUS_GENODEF_13
1002
{
1000
HIER
1070
     0
1002
}
1002
{
1000
MANEDIT
1070
     0
1002
}
1002
{
1000
NOSEL
1070
     0
1002
}
1002
{
1000
BEHIND
1070
     0
1002
}
1002
{
1000
REACTOR
1002
}
1001
GENIUS_GENOBJ-N-CEN_13
1002
{
1000
OWNER
1000
GEN
1002
}
  0
LINE
  5
3A863
330
1F
100
AcDbEntity
  8
AM_0
100
AcDbLine
 10
251.999751494508
 20
235.3206075054189
 30
0.0
 11
251.9997514945078
 21
212.558944466124
 31
0.0
  0
LINE
  5
3A864
330
1F
100
AcDbEntity
  8
AM_0
100
AcDbLine
 10
269.9997514945079
 20
235.3206075054189
 30
0.0
 11
269.9997514945079
 21
212.558944466124
 31
0.0
  0
LINE
  5
3A865
330
1F
100
AcDbEntity
  8
AM_0
100
AcDbLine
 10
249.9997514945087
 20
227.4397759857724
 30
0.0
 11
251.9997514945078
 21
227.4397759857724
 31
0.0
1001
GENIUS_GENODEF_13
1002
{
1000
HIER
1070
     0
1002
}
1002
{
1000
MANEDIT
1070
     0
1002
}
1002
{
1000
NOSEL
1070
     0
1002
}
1002
{
1000
BEHIND
1070
     0
1002
}
1002
{
1000
REACTOR
1002
}
1001
GENIUS_GENOBJ-N-CEN_13
1002
{
1000
OWNER
1000
GEN
1002
}
  0
LINE
  5
3A866
330
1F
100
AcDbEntity
  8
AM_0
100
AcDbLine
 10
269.9997514945079
 20
227.4397759857717
 30
0.0
 11
271.9997514945086
 21
227.4397759857714
 31
0.0
1001
GENIUS_GENODEF_13
1002
{
1000
HIER
1070
     0
1002
}
1002
{
1000
MANEDIT
1070
     0
1002
}
1002
{
1000
NOSEL
1070
     0
1002
}
1002
{
1000
BEHIND
1070
     0
1002
}
1002
{
1000
REACTOR
1002
}
1001
GENIUS_GENOBJ-N-CEN_13
1002
{
1000
OWNER
1000
GEN
1002
}
  0
LINE
  5
3A867
330
1F
100
AcDbEntity
  8
AM_0
100
AcDbLine
 10
246.5679906281792
 20
220.4397759857715
 30
0.0
 11
247.3997514945072
 21
220.4397759857715
 31
0.0
  0
LINE
  5
3A868
330
1F
100
AcDbEntity
  8
AM_0
100
AcDbLine
 10
247.3997514945072
 20
227.4397759857714
 30
0.0
 11
246.5679906281797
 21
227.4397759857714
 31
0.0
  0
ARC
  5
3A869
330
1F
100
AcDbEntity
  8
AM_0
100
AcDbCircle
 10
255.3997514945072
 20
223.9397759857713
 30
0.0
 40
9.5
100
AcDbArc
 50
158.381727577844
 51
201.6182724221559
  0
LINE
  5
3A86A
330
1F
100
AcDbEntity
  8
AM_0
100
AcDbLine
 10
275.4315123608374
 20
220.4397759857701
 30
0.0
 11
274.5997514945095
 21
220.4397759857701
 31
0.0
  0
LINE
  5
3A86B
330
1F
100
AcDbEntity
  8
AM_0
100
AcDbLine
 10
274.5997514945102
 20
227.4397759857701
 30
0.0
 11
275.4315123608378
 21
227.4397759857701
 31
0.0
  0
ARC
  5
3A86C
330
1F
100
AcDbEntity
  8
AM_0
100
AcDbCircle
 10
266.5997514945096
 20
223.9397759857708
 30
0.0
 40
9.5
100
AcDbArc
 50
338.3817275778387
 51
21.61827242214982
  0
LINE
  5
3A86D
330
1F
100
AcDbEntity
  8
AM_0
100
AcDbLine
 10
243.4997514945072
 20
50.95354583295199
 30
0.0
 11
253.7433444709072
 21
50.95354583295199
 31
0.0
  0
LINE
  5
3A86E
330
1F
100
AcDbEntity
  8
AM_0
100
AcDbLine
 10
243.4997514945077
 20
165.953545832952
 30
0.0
 11
246.4997514945072
 21
165.953545832952
 31
0.0
  0
LINE
  5
3A86F
330
1F
100
AcDbEntity
  8
AM_0
100
AcDbLine
 10
230.9997514945072
 20
141.953545832952
 30
0.0
 11
230.9997514945072
 21
118.7513917818794
 31
0.0
1001
GENIUS_GENODEF_13
1002
{
1000
HIER
1070
     0
1002
}
1002
{
1000
MANEDIT
1070
     0
1002
}
1002
{
1000
NOSEL
1070
     0
1002
}
1002
{
1000
BEHIND
1070
     0
1002
}
1002
{
1000
REACTOR
1002
}
1001
GENIUS_GENOBJ-N-CEN_13
1002
{
1000
OWNER
1000
GEN
1002
}
  0
LINE
  5
3A870
330
1F
100
AcDbEntity
  8
AM_0
100
AcDbLine
 10
243.4997514945077
 20
165.953545832952
 30
0.0
 11
243.4997514945072
 21
50.95354583295199
 31
0.0
1001
GENIUS_GENODEF_13
1002
{
1000
HIER
1070
     0
1002
}
1002
{
1000
MANEDIT
1070
     0
1002
}
1002
{
1000
NOSEL
1070
     0
1002
}
1002
{
1000
BEHIND
1070
     0
1002
}
1002
{
1000
REACTOR
1002
}
1001
GENIUS_GENOBJ-N-CEN_13
1002
{
1000
OWNER
1000
GEN
1002
}
  0
LINE
  5
3A871
330
1F
100
AcDbEntity
  8
AM_0
100
AcDbLine
 10
245.3997514945077
 20
165.953545832952
 30
0.0
 11
245.3997514945077
 21
164.6942227824036
 31
0.0
1001
GENIUS_GENODEF_13
1002
{
1000
HIER
1070
     0
1002
}
1002
{
1000
MANEDIT
1070
     0
1002
}
1002
{
1000
NOSEL
1070
     0
1002
}
1002
{
1000
BEHIND
1070
     0
1002
}
1002
{
1000
REACTOR
1002
}
1001
GENIUS_GENOBJ-N-CEN_13
1002
{
1000
OWNER
1000
GEN
1002
}
  0
LINE
  5
3A872
330
1F
100
AcDbEntity
  8
AM_0
100
AcDbLine
 10
243.4997514945072
 20
147.953545832952
 30
0.0
 11
236.9997514945073
 21
147.953545832952
 31
0.0
  0
ARC
  5
3A873
330
1F
100
AcDbEntity
  8
AM_0
100
AcDbCircle
 10
236.9997514945076
 20
141.9535458329522
 30
0.0
 40
6.0
100
AcDbArc
 50
90.0
 51
180.0
1001
GENIUS_GENODEF_13
1002
{
1000
HIER
1070
     0
1002
}
1002
{
1000
MANEDIT
1070
     0
1002
}
1002
{
1000
NOSEL
1070
     0
1002
}
1002
{
1000
BEHIND
1070
     0
1002
}
1002
{
1000
REACTOR
1002
}
1001
GENIUS_GENOBJ-N-FIL_13
1002
{
1000
OWNER
1000
GEN
1002
}
  0
ARC
  5
3A874
330
1F
100
AcDbEntity
  8
AM_0
100
AcDbCircle
 10
236.9997514945076
 20
118.7513917818822
 30
0.0
 40
6.0
100
AcDbArc
 50
180.0
 51
180.000000000026
1001
GENIUS_GENODEF_13
1002
{
1000
HIER
1070
     0
1002
}
1002
{
1000
MANEDIT
1070
     0
1002
}
1002
{
1000
NOSEL
1070
     0
1002
}
1002
{
1000
BEHIND
1070
     0
1002
}
1002
{
1000
REACTOR
1002
}
1001
GENIUS_GENOBJ-N-FIL_13
1002
{
1000
OWNER
1000
GEN
1002
}
  0
ARC
  5
3A875
330
1F
100
AcDbEntity
  8
AM_0
100
AcDbCircle
 10
236.9997514945076
 20
118.7513917818822
 30
0.0
 40
6.0
100
AcDbArc
 50
180.000000000026
 51
229.9999999999953
1001
GENIUS_GENODEF_13
1002
{
1000
HIER
1070
     0
1002
}
1002
{
1000
MANEDIT
1070
     0
1002
}
1002
{
1000
NOSEL
1070
     0
1002
}
1002
{
1000
BEHIND
1070
     0
1002
}
1002
{
1000
REACTOR
1002
}
1001
GENIUS_GENOBJ-N-FIL_13
1002
{
1000
OWNER
1000
GEN
1002
}
  0
LINE
  5
3A876
330
1F
100
AcDbEntity
  8
AM_0
100
AcDbLine
 10
233.1430258363891
 20
114.1551251231673
 30
0.0
 11
243.4997514945072
 21
105.4648004432359
 31
0.0
  0
CIRCLE
  5
3A877
330
1F
100
AcDbEntity
  8
AM_0
100
AcDbCircle
 10
236.9997514945076
 20
141.9535458329522
 30
0.0
 40
2.5
  0
CIRCLE
  5
3A878
330
1F
100
AcDbEntity
  8
AM_0
100
AcDbCircle
 10
236.9997514945076
 20
118.9535458329523
 30
0.0
 40
2.5
  0
LINE
  5
3A879
330
1F
100
AcDbEntity
  8
AM_0
100
AcDbLine
 10
290.9997514945073
 20
141.953545832952
 30
0.0
 11
290.9997514945073
 21
118.7513917818794
 31
0.0
1001
GENIUS_GENODEF_13
1002
{
1000
HIER
1070
     0
1002
}
1002
{
1000
MANEDIT
1070
     0
1002
}
1002
{
1000
NOSEL
1070
     0
1002
}
1002
{
1000
BEHIND
1070
     0
1002
}
1002
{
1000
REACTOR
1002
}
1001
GENIUS_GENOBJ-N-CEN_13
1002
{
1000
OWNER
1000
GEN
1002
}
  0
LINE
  5
3A87A
330
1F
100
AcDbEntity
  8
AM_0
100
AcDbLine
 10
278.4997514945076
 20
165.953545832952
 30
0.0
 11
278.4997514945073
 21
50.95354583295199
 31
0.0
1001
GENIUS_GENODEF_13
1002
{
1000
HIER
1070
     0
1002
}
1002
{
1000
MANEDIT
1070
     0
1002
}
1002
{
1000
NOSEL
1070
     0
1002
}
1002
{
1000
BEHIND
1070
     0
1002
}
1002
{
1000
REACTOR
1002
}
1001
GENIUS_GENOBJ-N-CEN_13
1002
{
1000
OWNER
1000
GEN
1002
}
  0
LINE
  5
3A87B
330
1F
100
AcDbEntity
  8
AM_0
100
AcDbLine
 10
276.5997514945077
 20
165.953545832952
 30
0.0
 11
276.5997514945075
 21
50.95354583295199
 31
0.0
1001
GENIUS_GENODEF_13
1002
{
1000
HIER
1070
     0
1002
}
1002
{
1000
MANEDIT
1070
     0
1002
}
1002
{
1000
NOSEL
1070
     0
1002
}
1002
{
1000
BEHIND
1070
     0
1002
}
1002
{
1000
REACTOR
1002
}
1001
GENIUS_GENOBJ-N-CEN_13
1002
{
1000
OWNER
1000
GEN
1002
}
  0
LINE
  5
3A87C
330
1F
100
AcDbEntity
  8
AM_0
100
AcDbLine
 10
278.4997514945073
 20
147.953545832952
 30
0.0
 11
284.9997514945073
 21
147.953545832952
 31
0.0
  0
ARC
  5
3A87D
330
1F
100
AcDbEntity
  8
AM_0
100
AcDbCircle
 10
284.9997514945077
 20
141.953545832952
 30
0.0
 40
6.0
100
AcDbArc
 50
0.0
 51
90.0
1001
GENIUS_GENODEF_13
1002
{
1000
HIER
1070
     0
1002
}
1002
{
1000
MANEDIT
1070
     0
1002
}
1002
{
1000
NOSEL
1070
     0
1002
}
1002
{
1000
BEHIND
1070
     0
1002
}
1002
{
1000
REACTOR
1002
}
1001
GENIUS_GENOBJ-N-FIL_13
1002
{
1000
OWNER
1000
GEN
1002
}
  0
ARC
  5
3A87E
330
1F
100
AcDbEntity
  8
AM_0
100
AcDbCircle
 10
284.9997514945077
 20
118.7513917818819
 30
0.0
 40
6.0
100
AcDbArc
 50
310.0000000000047
 51
359.999999999974
1001
GENIUS_GENODEF_13
1002
{
1000
HIER
1070
     0
1002
}
1002
{
1000
MANEDIT
1070
     0
1002
}
1002
{
1000
NOSEL
1070
     0
1002
}
1002
{
1000
BEHIND
1070
     0
1002
}
1002
{
1000
REACTOR
1002
}
1001
GENIUS_GENOBJ-N-FIL_13
1002
{
1000
OWNER
1000
GEN
1002
}
  0
LINE
  5
3A87F
330
1F
100
AcDbEntity
  8
AM_0
100
AcDbLine
 10
288.8564771526255
 20
114.1551251231673
 30
0.0
 11
278.4997514945073
 21
105.4648004432359
 31
0.0
  0
CIRCLE
  5
3A880
330
1F
100
AcDbEntity
  8
AM_0
100
AcDbCircle
 10
284.9997514945077
 20
141.953545832952
 30
0.0
 40
2.5
  0
CIRCLE
  5
3A881
330
1F
100
AcDbEntity
  8
AM_0
100
AcDbCircle
 10
284.9997514945077
 20
118.9535458329519
 30
0.0
 40
2.5
  0
LINE
  5
3A883
330
1F
100
AcDbEntity
  8
AM_7
100
AcDbLine
 10
240.4997514945073
 20
157.953545832952
 30
0.0
 11
281.4997514945073
 21
157.953545832952
 31
0.0
1001
GENIUS_GENODEF_13
1002
{
1000
HIER
1070
     0
1002
}
1002
{
1000
MANEDIT
1070
     0
1002
}
1002
{
1000
NOSEL
1070
     0
1002
}
1002
{
1000
BEHIND
1070
     0
1002
}
1002
{
1000
REACTOR
1002
}
1001
GENIUS_GENOBJ-N-CEN_13
1002
{
1000
OWNER
1000
GEN
1002
}
  0
LINE
  5
3A884
330
1F
100
AcDbEntity
  8
AM_0
100
AcDbLine
 10
271.9997514945071
 20
156.6942227824035
 30
0.0
 11
267.349751494507
 21
156.6942227824035
 31
0.0
1001
GENIUS_GENODEF_13
1002
{
1000
HIER
1070
     0
1002
}
1002
{
1000
MANEDIT
1070
     0
1002
}
1002
{
1000
NOSEL
1070
     0
1002
}
1002
{
1000
BEHIND
1070
     0
1002
}
1002
{
1000
REACTOR
1002
}
1001
GENIUS_GENOBJ-N-CEN_13
1002
{
1000
OWNER
1000
GEN
1002
}
  0
LINE
  5
3A885
330
1F
100
AcDbEntity
  8
AM_0
100
AcDbLine
 10
271.9997514945071
 20
164.6942227824034
 30
0.0
 11
267.349751494507
 21
164.6942227824034
 31
0.0
1001
GENIUS_GENODEF_13
1002
{
1000
HIER
1070
     0
1002
}
1002
{
1000
MANEDIT
1070
     0
1002
}
1002
{
1000
NOSEL
1070
     0
1002
}
1002
{
1000
BEHIND
1070
     0
1002
}
1002
{
1000
REACTOR
1002
}
1001
GENIUS_GENOBJ-N-CEN_13
1002
{
1000
OWNER
1000
GEN
1002
}
  0
LINE
  5
3A886
330
1F
100
AcDbEntity
  8
AM_0
100
AcDbLine
 10
276.5997514945074
 20
166.9262735899724
 30
0.0
 11
276.5997514945074
 21
154.4621719748346
 31
0.0
  0
ARC
  5
3A887
330
1F
100
AcDbEntity
  8
AM_0
100
AcDbCircle
 10
275.5997514945073
 20
156.1942227824034
 30
0.0
 40
2.0
100
AcDbArc
 50
239.9999999999995
 51
300.0000000000004
  0
ARC
  5
3A888
330
1F
100
AcDbEntity
  8
AM_0
100
AcDbCircle
 10
275.5997514945073
 20
165.1942227824035
 30
0.0
 40
2.0
100
AcDbArc
 50
59.99999999999941
 51
120.0000000000004
  0
LINE
  5
3A889
330
1F
100
AcDbEntity
  8
AM_0
100
AcDbLine
 10
246.3997514945072
 20
164.6942227824034
 30
0.0
 11
243.8997514945072
 21
164.6942227824034
 31
0.0
1001
GENIUS_GENODEF_13
1002
{
1000
HIER
1070
     0
1002
}
1002
{
1000
MANEDIT
1070
     0
1002
}
1002
{
1000
NOSEL
1070
     0
1002
}
1002
{
1000
BEHIND
1070
     0
1002
}
1002
{
1000
REACTOR
1002
}
1001
GENIUS_GENOBJ-N-CEN_13
1002
{
1000
OWNER
1000
GEN
1002
}
  0
LINE
  5
3A88A
330
1F
100
AcDbEntity
  8
AM_0
100
AcDbLine
 10
246.3997514945072
 20
156.6942227824035
 30
0.0
 11
243.8997514945072
 21
156.6942227824035
 31
0.0
1001
GENIUS_GENODEF_13
1002
{
1000
HIER
1070
     0
1002
}
1002
{
1000
MANEDIT
1070
     0
1002
}
1002
{
1000
NOSEL
1070
     0
1002
}
1002
{
1000
BEHIND
1070
     0
1002
}
1002
{
1000
REACTOR
1002
}
1001
GENIUS_GENOBJ-N-CEN_13
1002
{
1000
OWNER
1000
GEN
1002
}
  0
LINE
  5
3A88B
330
1F
100
AcDbEntity
  8
AM_0
100
AcDbLine
 10
246.3997514945072
 20
164.6942227824034
 30
0.0
 11
246.3997514945072
 21
156.6942227824035
 31
0.0
  0
LINE
  5
3A88C
330
1F
100
AcDbEntity
  8
AM_0
100
AcDbLine
 10
247.3997514945072
 20
157.1942227824034
 30
0.0
 11
247.2997514945072
 21
157.1942227824034
 31
0.0
1001
GENIUS_GENODEF_13
1002
{
1000
HIER
1070
     0
1002
}
1002
{
1000
MANEDIT
1070
     0
1002
}
1002
{
1000
NOSEL
1070
     0
1002
}
1002
{
1000
BEHIND
1070
     0
1002
}
1002
{
1000
REACTOR
1002
}
1001
GENIUS_GENOBJ-N-CEN_13
1002
{
1000
OWNER
1000
GEN
1002
}
  0
LINE
  5
3A88D
330
1F
100
AcDbEntity
  8
AM_0
100
AcDbLine
 10
247.3997514945072
 20
164.1942227824034
 30
0.0
 11
247.2997514945072
 21
164.1942227824034
 31
0.0
1001
GENIUS_GENODEF_13
1002
{
1000
HIER
1070
     0
1002
}
1002
{
1000
MANEDIT
1070
     0
1002
}
1002
{
1000
NOSEL
1070
     0
1002
}
1002
{
1000
BEHIND
1070
     0
1002
}
1002
{
1000
REACTOR
1002
}
1001
GENIUS_GENOBJ-N-CEN_13
1002
{
1000
OWNER
1000
GEN
1002
}
  0
LINE
  5
3A88E
330
1F
100
AcDbEntity
  8
AM_0
100
AcDbLine
 10
243.8997514945072
 20
164.6942227824034
 30
0.0
 11
243.8997514945072
 21
156.6942227824035
 31
0.0
  0
LINE
  5
3A88F
330
1F
100
AcDbEntity
  8
AM_0
100
AcDbLine
 10
246.4997514945072
 20
167.6942227824034
 30
0.0
 11
246.4997514945072
 21
153.6942227824035
 31
0.0
1001
GENIUS_GENODEF_13
1002
{
1000
HIER
1070
     0
1002
}
1002
{
1000
MANEDIT
1070
     0
1002
}
1002
{
1000
NOSEL
1070
     0
1002
}
1002
{
1000
BEHIND
1070
     0
1002
}
1002
{
1000
REACTOR
1002
}
1001
GENIUS_GENOBJ-N-CEN_13
1002
{
1000
OWNER
1000
GEN
1002
}
  0
LINE
  5
3A890
330
1F
100
AcDbEntity
  8
AM_0
100
AcDbLine
 10
247.2997514945072
 20
167.6942227824034
 30
0.0
 11
247.2997514945072
 21
153.6942227824035
 31
0.0
1001
GENIUS_GENODEF_13
1002
{
1000
HIER
1070
     0
1002
}
1002
{
1000
MANEDIT
1070
     0
1002
}
1002
{
1000
NOSEL
1070
     0
1002
}
1002
{
1000
BEHIND
1070
     0
1002
}
1002
{
1000
REACTOR
1002
}
1001
GENIUS_GENOBJ-N-CEN_13
1002
{
1000
OWNER
1000
GEN
1002
}
  0
LINE
  5
3A891
330
1F
100
AcDbEntity
  8
AM_0
100
AcDbLine
 10
247.2997514945072
 20
167.6942227824034
 30
0.0
 11
246.4997514945072
 21
167.6942227824034
 31
0.0
  0
LINE
  5
3A892
330
1F
100
AcDbEntity
  8
AM_0
100
AcDbLine
 10
246.4997514945072
 20
153.6942227824035
 30
0.0
 11
247.2997514945072
 21
153.6942227824035
 31
0.0
  0
LINE
  5
3A893
330
1F
100
AcDbEntity
  8
AM_0
100
AcDbLine
 10
246.4997514945072
 20
157.1942227824034
 30
0.0
 11
246.3997514945072
 21
157.1942227824034
 31
0.0
1001
GENIUS_GENODEF_13
1002
{
1000
HIER
1070
     0
1002
}
1002
{
1000
MANEDIT
1070
     0
1002
}
1002
{
1000
NOSEL
1070
     0
1002
}
1002
{
1000
BEHIND
1070
     0
1002
}
1002
{
1000
REACTOR
1002
}
1001
GENIUS_GENOBJ-N-CEN_13
1002
{
1000
OWNER
1000
GEN
1002
}
  0
LINE
  5
3A894
330
1F
100
AcDbEntity
  8
AM_0
100
AcDbLine
 10
246.4997514945072
 20
164.1942227824034
 30
0.0
 11
246.3997514945072
 21
164.1942227824034
 31
0.0
1001
GENIUS_GENODEF_13
1002
{
1000
HIER
1070
     0
1002
}
1002
{
1000
MANEDIT
1070
     0
1002
}
1002
{
1000
NOSEL
1070
     0
1002
}
1002
{
1000
BEHIND
1070
     0
1002
}
1002
{
1000
REACTOR
1002
}
1001
GENIUS_GENOBJ-N-CEN_13
1002
{
1000
OWNER
1000
GEN
1002
}
  0
LINE
  5
3A895
330
1F
100
AcDbEntity
  8
AM_0
100
AcDbLine
 10
254.6497514945072
 20
164.6942227824034
 30
0.0
 11
249.9997514945072
 21
164.6942227824034
 31
0.0
1001
GENIUS_GENODEF_13
1002
{
1000
HIER
1070
     0
1002
}
1002
{
1000
MANEDIT
1070
     0
1002
}
1002
{
1000
NOSEL
1070
     0
1002
}
1002
{
1000
BEHIND
1070
     0
1002
}
1002
{
1000
REACTOR
1002
}
1001
GENIUS_GENOBJ-N-CEN_13
1002
{
1000
OWNER
1000
GEN
1002
}
  0
LINE
  5
3A896
330
1F
100
AcDbEntity
  8
AM_0
100
AcDbLine
 10
254.6497514945072
 20
156.6942227824035
 30
0.0
 11
249.9997514945072
 21
156.6942227824035
 31
0.0
1001
GENIUS_GENODEF_13
1002
{
1000
HIER
1070
     0
1002
}
1002
{
1000
MANEDIT
1070
     0
1002
}
1002
{
1000
NOSEL
1070
     0
1002
}
1002
{
1000
BEHIND
1070
     0
1002
}
1002
{
1000
REACTOR
1002
}
1001
GENIUS_GENOBJ-N-CEN_13
1002
{
1000
OWNER
1000
GEN
1002
}
  0
ELLIPSE
  5
3A898
330
1F
100
AcDbEntity
  8
AM_0
100
AcDbEllipse
 10
260.9997514945068
 20
54.80204969729584
 30
0.0
 11
14.0
 21
0.0
 31
0.0
210
0.0
220
0.0
230
1.0
 40
0.197533289451558
 41
3.141592653589792
 42
6.283185307179584
  0
ELLIPSE
  5
3A899
330
1F
100
AcDbEntity
  8
AM_0
100
AcDbEllipse
 10
260.9997514945074
 20
141.0681134940208
 30
0.0
 11
-11.50000000000047
 21
0.0000000000000007
 31
0.0
210
0.0
220
0.0
230
1.0
 40
0.1975332894515461
 41
0.3339435899052263
 42
2.807649063688485
  0
LINE
  5
3A89A
330
1F
100
AcDbEntity
  8
AM_0
100
AcDbLine
 10
246.9997514945072
 20
54.80204969729584
 30
0.0
 11
246.9997514945072
 21
138.6173730452505
 31
0.0
  0
LINE
  5
3A89B
330
1F
100
AcDbEntity
  8
AM_0
100
AcDbLine
 10
274.9997514945072
 20
54.80204969729584
 30
0.0
 11
274.9997514945072
 21
138.6173730452505
 31
0.0
  0
ELLIPSE
  5
3A89C
330
1F
100
AcDbEntity
  8
AM_0
100
AcDbEllipse
 10
260.9997514945074
 20
138.6173730452505
 30
0.0
 11
14.00000000000012
 21
0.0000000000000257
 31
0.0
210
0.0
220
0.0
230
1.0
 40
0.1975332894515645
 41
3.748477564235903
 42
5.67630039650285
  0
ELLIPSE
  5
3A89D
330
1F
100
AcDbEntity
  8
AM_0
100
AcDbEllipse
 10
260.9997514945076
 20
52.84145733827926
 30
0.0
 11
-11.99999999999977
 21
0.0000000000000114
 31
0.0
210
0.0
220
0.0
230
1.0
 40
0.1975332894515548
 41
0.140942382130758
 42
3.000650271475187
  0
LINE
  5
3A89E
330
1F
100
AcDbEntity
  8
AM_0
100
AcDbLine
 10
249.1187428513451
 20
52.50847259362922
 30
0.0
 11
247.2942151864154
 21
54.23784142021759
 31
0.0
  0
LINE
  5
3A89F
330
1F
100
AcDbEntity
  8
AM_0
100
AcDbLine
 10
272.8807601376685
 20
52.50847259363968
 30
0.0
 11
274.7052878025966
 21
54.23784142022936
 31
0.0
  0
ELLIPSE
  5
3A8A0
330
1F
100
AcDbEntity
  8
AM_0
100
AcDbEllipse
 10
260.9997514945068
 20
168.0464441287153
 30
0.0
 11
-5.849999999999909
 21
0.0
 31
0.0
210
0.0
220
0.0
230
1.0
 40
0.1975332894515599
 41
0.0
 42
6.283185307179584
  0
LINE
  5
3A8A1
330
1F
100
AcDbEntity
  8
AM_0
100
AcDbLine
 10
254.6497514945067
 20
167.6839832444652
 30
0.0
 11
254.6497514945067
 21
164.6942227824034
 31
0.0
  0
LINE
  5
3A8A2
330
1F
100
AcDbEntity
  8
AM_0
100
AcDbLine
 10
267.349751494507
 20
167.6839832444661
 30
0.0
 11
267.349751494507
 21
164.6942227824034
 31
0.0
  0
ELLIPSE
  5
3A8A3
330
1F
100
AcDbEntity
  8
AM_0
100
AcDbEllipse
 10
260.9997514945068
 20
167.5562960389614
 30
0.0
 11
6.350000000000106
 21
0.0000000000000004
 31
0.0
210
0.0
220
0.0
230
1.0
 40
0.1975332894516015
 41
2.938698320369102
 42
6.486079640400276
  0
LINE
  5
3A8A4
330
1F
100
AcDbEntity
  8
AM_0
100
AcDbLine
 10
254.7800061342175
 20
167.8090512608434
 30
0.0
 11
255.2710617421907
 21
168.2805534734094
 31
0.0
  0
LINE
  5
3A8A5
330
1F
100
AcDbEntity
  8
AM_0
100
AcDbLine
 10
267.2194968547972
 20
167.8090512608434
 30
0.0
 11
266.7284412468241
 21
168.2805534734094
 31
0.0
  0
ELLIPSE
  5
3A8A6
330
1F
100
AcDbEntity
  8
AM_0
100
AcDbEllipse
 10
260.9997514945068
 20
150.8912609873215
 30
0.0
 11
6.350000000000131
 21
0.0
 31
0.0
210
0.0
220
0.0
230
1.0
 40
0.1975332894516007
 41
3.141592653589792
 42
6.283185307179584
  0
LINE
  5
3A8A7
330
1F
100
AcDbEntity
  8
AM_0
100
AcDbLine
 10
254.6497514945067
 20
156.6942227824035
 30
0.0
 11
254.6497514945067
 21
150.8912609873215
 31
0.0
  0
LINE
  5
3A8A8
330
1F
100
AcDbEntity
  8
AM_0
100
AcDbLine
 10
267.349751494507
 20
156.6942227824035
 30
0.0
 11
267.349751494507
 21
150.8912609873215
 31
0.0
  0
ELLIPSE
  5
3A8A9
330
1F
100
AcDbEntity
  8
AM_0
100
AcDbEllipse
 10
249.4997514945068
 20
138.6173730452505
 30
0.0
 11
-2.499999999999658
 21
0.0000000000029583
 31
0.0
210
0.0
220
0.0
230
1.0
 40
0.9802961795082596
 41
-1.063644836267693
 42
0.000000000001207
  0
LINE
  5
3A8AA
330
1F
100
AcDbEntity
  8
AM_0
100
AcDbLine
 10
248.2855283727295
 20
140.7596425741314
 30
0.0
 11
250.1350448714634
 21
141.8126895439954
 31
0.0
  0
ELLIPSE
  5
3A8AB
330
1F
100
AcDbEntity
  8
AM_0
100
AcDbEllipse
 10
272.4997514945078
 20
138.6173730452505
 30
0.0
 11
2.499999999999658
 21
0.0000000000029583
 31
0.0
210
0.0
220
0.0
230
-1.0
 40
0.9802961795082596
 41
-1.063644836267693
 42
0.000000000001207
  0
LINE
  5
3A8AC
330
1F
100
AcDbEntity
  8
AM_0
100
AcDbLine
 10
273.7139746162855
 20
140.7596425741314
 30
0.0
 11
271.8644581175513
 21
141.8126895439954
 31
0.0
  0
ELLIPSE
  5
3A8AD
330
1F
100
AcDbEntity
  8
AM_0
100
AcDbEllipse
 10
260.9997514945074
 20
141.0681134940208
 30
0.0
 11
-11.5000000000006
 21
0.0000000000000901
 31
0.0
210
0.0
220
0.0
230
1.0
 40
0.1975332894515462
 41
3.475536243493096
 42
4.111692227448868
  0
ELLIPSE
  5
3A8AE
330
1F
100
AcDbEntity
  8
AM_0
100
AcDbEllipse
 10
260.9997514945068
 20
141.0873251854122
 30
0.0
 11
6.499999999999888
 21
0.0
 31
0.0
210
0.0
220
0.0
230
1.0
 40
0.194577644622142
 41
3.141592653589792
 42
6.283185307179584
  0
ELLIPSE
  5
3A8AF
330
1F
100
AcDbEntity
  8
AM_0
100
AcDbEllipse
 10
260.9997514945068
 20
143.009494161646
 30
0.0
 11
6.499999999999965
 21
0.0000000000000134
 31
0.0
210
0.0
220
0.0
230
1.0
 40
0.1945776446221396
 41
2.094395102393177
 42
7.33038285837618
  0
LINE
  5
3A8B0
330
1F
100
AcDbEntity
  8
AM_0
100
AcDbLine
 10
254.499751494507
 20
141.0873251854122
 30
0.0
 11
254.499751494507
 21
143.009494161646
 31
0.0
  0
LINE
  5
3A8B1
330
1F
100
AcDbEntity
  8
AM_0
100
AcDbLine
 10
267.4997514945064
 20
141.0873251854122
 30
0.0
 11
267.4997514945064
 21
143.009494161646
 31
0.0
  0
ELLIPSE
  5
3A8B2
330
1F
100
AcDbEntity
  8
AM_0
100
AcDbEllipse
 10
260.9997514945074
 20
141.0681134940208
 30
0.0
 11
11.50000000000053
 21
0.000000000000062
 31
0.0
210
0.0
220
0.0
230
1.0
 40
0.1975332894515507
 41
2.17149307973084
 42
2.807649063684547
  0
LINE
  5
3A8B3
330
1F
100
AcDbEntity
  8
AM_0
100
AcDbLine
 10
257.749751494507
 20
149.8136630302239
 30
0.0
 11
257.749751494507
 21
143.0287058530372
 31
0.0
  0
LINE
  5
3A8B4
330
1F
100
AcDbEntity
  8
AM_0
100
AcDbLine
 10
264.2497514945068
 20
149.8136630302239
 30
0.0
 11
264.2497514945068
 21
143.0287058530372
 31
0.0
  0
ELLIPSE
  5
3A8B5
330
1F
100
AcDbEntity
  8
AM_0
100
AcDbEllipse
 10
260.9997514945068
 20
143.0287058530372
 30
0.0
 11
3.25
 21
0.0
 31
0.0
210
0.0
220
0.0
230
1.0
 40
0.1975332894515724
 41
3.141592653589792
 42
6.283185307179584
  0
ARC
  5
3A8B6
330
1F
100
AcDbEntity
  8
AM_0
100
AcDbCircle
 10
249.7179668276767
 20
160.6942227824035
 30
0.0
 40
6.349999999998406
100
AcDbArc
 50
320.9556865308721
 51
39.04431346912789
  0
ARC
  5
3A8B7
330
1F
100
AcDbEntity
  8
AM_0
100
AcDbCircle
 10
272.2815361613379
 20
160.6942227938115
 30
0.0
 40
6.349999999998406
100
AcDbArc
 50
140.9556865888004
 51
219.0443135270744
  0
LINE
  5
3A8B8
330
1F
100
AcDbEntity
  8
AM_0
 48
2.0
100
AcDbLine
 10
242.4997514945276
 20
164.4535458329545
 30
0.0
 11
242.4997514945276
 21
151.4535458329545
 31
0.0
  0
LINE
  5
3A8B9
330
1F
100
AcDbEntity
  8
AM_0
 48
2.0
100
AcDbLine
 10
241.5997514945286
 20
154.9535458329532
 30
0.0
 11
241.5997514945235
 21
160.9535458329531
 31
0.0
  0
LINE
  5
3A8BA
330
1F
100
AcDbEntity
  8
AM_0
 48
2.0
100
AcDbLine
 10
242.4997514945276
 20
151.4535458329545
 30
0.0
 11
243.4997514945276
 21
151.4535458329545
 31
0.0
  0
ARC
  5
3A8BB
330
1F
100
AcDbEntity
  8
AM_0
 48
2.0
100
AcDbCircle
 10
243.3490370629947
 20
154.9535458329545
 30
0.0
 40
1.749285568466149
100
AcDbArc
 50
180.0000000000456
 51
240.9544855774113
  0
ARC
  5
3A8BC
330
1F
100
AcDbEntity
  8
AM_0
 48
2.0
100
AcDbCircle
 10
242.4997514945276
 20
154.9535458329545
 30
0.0
 40
0.0000000000034106
100
AcDbArc
 50
270.0
 51
180.0
  0
ARC
  5
3A8BD
330
1F
100
AcDbEntity
  8
AM_0
 48
2.0
100
AcDbCircle
 10
243.3490370629804
 20
160.9535458329546
 30
0.0
 40
1.749285568452563
100
AcDbArc
 50
119.0455144222913
 51
180.0000000000456
  0
LINE
  5
3A8BE
330
1F
100
AcDbEntity
  8
AM_0
 48
2.0
100
AcDbLine
 10
242.4997514945276
 20
164.4535458329545
 30
0.0
 11
243.4997514945276
 21
164.4535458329545
 31
0.0
  0
LINE
  5
3A8BF
330
1F
100
AcDbEntity
  8
AM_0
 48
2.0
100
AcDbLine
 10
279.4997514944876
 20
164.4535458329545
 30
0.0
 11
279.4997514944876
 21
151.4535458329545
 31
0.0
  0
LINE
  5
3A8C0
330
1F
100
AcDbEntity
  8
AM_0
 48
2.0
100
AcDbLine
 10
280.3997514944867
 20
154.9535458329532
 30
0.0
 11
280.3997514944915
 21
160.9535458329531
 31
0.0
  0
LINE
  5
3A8C1
330
1F
100
AcDbEntity
  8
AM_0
 48
2.0
100
AcDbLine
 10
279.4997514944876
 20
151.4535458329545
 30
0.0
 11
278.4997514944876
 21
151.4535458329545
 31
0.0
  0
ARC
  5
3A8C2
330
1F
100
AcDbEntity
  8
AM_0
 48
2.0
100
AcDbCircle
 10
278.6504659260206
 20
154.9535458329545
 30
0.0
 40
1.749285568466149
100
AcDbArc
 50
299.0455144225886
 51
359.9999999999544
  0
ARC
  5
3A8C3
330
1F
100
AcDbEntity
  8
AM_0
 48
2.0
100
AcDbCircle
 10
279.4997514944876
 20
154.9535458329545
 30
0.0
 40
0.0000000000034106
100
AcDbArc
 50
0.0
 51
270.0
  0
ARC
  5
3A8C4
330
1F
100
AcDbEntity
  8
AM_0
 48
2.0
100
AcDbCircle
 10
278.6504659260349
 20
160.9535458329546
 30
0.0
 40
1.749285568452563
100
AcDbArc
 50
359.9999999999544
 51
60.95448557770864
  0
LINE
  5
3A8C5
330
1F
100
AcDbEntity
  8
AM_0
 48
2.0
100
AcDbLine
 10
279.4997514944876
 20
164.4535458329545
 30
0.0
 11
278.4997514944876
 21
164.4535458329545
 31
0.0
  0
LINE
  5
3A8C6
330
1F
100
AcDbEntity
  8
AM_0
100
AcDbLine
 10
245.8997514945076
 20
149.953545832952
 30
0.0
 11
245.8997514945076
 21
156.6942227824035
 31
0.0
  0
LINE
  5
3A8C7
330
1F
100
AcDbEntity
  8
AM_0
100
AcDbLine
 10
247.3997514945074
 20
149.953545832952
 30
0.0
 11
247.3997514945074
 21
165.953545832952
 31
0.0
  0
LINE
  5
3A8C8
330
1F
100
AcDbEntity
  8
AM_0
100
AcDbLine
 10
247.3997514945074
 20
149.953545832952
 30
0.0
 11
245.8997514945076
 21
149.953545832952
 31
0.0
  0
LINE
  5
3A8C9
330
1F
100
AcDbEntity
  8
AM_0
100
AcDbLine
 10
245.3997514945077
 20
150.453545832952
 30
0.0
 11
245.8997514945076
 21
149.953545832952
 31
0.0
1001
GENIUS_GENFIL_13
1070
     0
1040
0.5
1040
0.5
1040
0.0
1040
0.0
1002
{
1002
}
1001
GENIUS_GENODEF_13
1002
{
1000
HIER
1070
     0
1002
}
1002
{
1000
MANEDIT
1070
     0
1002
}
1002
{
1000
NOSEL
1070
     0
1002
}
1002
{
1000
BEHIND
1070
     0
1002
}
1002
{
1000
REACTOR
1002
}
1001
GENIUS_GENOBJ-N-CHA_13
1002
{
1000
OWNER
1000
GEN
1002
}
  0
LINE
  5
3A8CA
330
1F
100
AcDbEntity
  8
AM_0
100
AcDbLine
 10
247.3997514945074
 20
165.953545832952
 30
0.0
 11
247.2997514945072
 21
165.953545832952
 31
0.0
  0
LINE
  5
3A8CB
330
1F
100
AcDbEntity
  8
AM_0
100
AcDbLine
 10
245.3997514945077
 20
165.453545832952
 30
0.0
 11
245.8997514945076
 21
165.953545832952
 31
0.0
1001
GENIUS_GENFIL_13
1070
     0
1040
0.5
1040
0.5
1040
0.0
1040
0.0
1002
{
1002
}
1001
GENIUS_GENODEF_13
1002
{
1000
HIER
1070
     0
1002
}
1002
{
1000
MANEDIT
1070
     0
1002
}
1002
{
1000
NOSEL
1070
     0
1002
}
1002
{
1000
BEHIND
1070
     0
1002
}
1002
{
1000
REACTOR
1002
}
1001
GENIUS_GENOBJ-N-CHA_13
1002
{
1000
OWNER
1000
GEN
1002
}
  0
LINE
  5
3A8CC
330
1F
100
AcDbEntity
  8
AM_0
100
AcDbLine
 10
276.0997514945077
 20
149.953545832952
 30
0.0
 11
276.0997514945077
 21
154.2577311092998
 31
0.0
  0
LINE
  5
3A8CD
330
1F
100
AcDbEntity
  8
AM_0
100
AcDbLine
 10
274.5997514945077
 20
149.953545832952
 30
0.0
 11
274.5997514945077
 21
165.953545832952
 31
0.0
  0
LINE
  5
3A8CE
330
1F
100
AcDbEntity
  8
AM_0
100
AcDbLine
 10
274.5997514945077
 20
149.953545832952
 30
0.0
 11
276.0997514945077
 21
149.953545832952
 31
0.0
  0
LINE
  5
3A8CF
330
1F
100
AcDbEntity
  8
AM_0
100
AcDbLine
 10
276.5997514945077
 20
150.453545832952
 30
0.0
 11
276.0997514945077
 21
149.953545832952
 31
0.0
1001
GENIUS_GENFIL_13
1070
     0
1040
0.5
1040
0.5
1040
0.0
1040
0.0
1002
{
1002
}
1001
GENIUS_GENODEF_13
1002
{
1000
HIER
1070
     0
1002
}
1002
{
1000
MANEDIT
1070
     0
1002
}
1002
{
1000
NOSEL
1070
     0
1002
}
1002
{
1000
BEHIND
1070
     0
1002
}
1002
{
1000
REACTOR
1002
}
1001
GENIUS_GENOBJ-N-CHA_13
1002
{
1000
OWNER
1000
GEN
1002
}
  0
LINE
  5
3A8D0
330
1F
100
AcDbEntity
  8
AM_0
100
AcDbLine
 10
245.3997514945077
 20
156.6942227824035
 30
0.0
 11
245.3997514945074
 21
50.95354583295199
 31
0.0
1001
GENIUS_GENODEF_13
1002
{
1000
HIER
1070
     0
1002
}
1002
{
1000
MANEDIT
1070
     0
1002
}
1002
{
1000
NOSEL
1070
     0
1002
}
1002
{
1000
BEHIND
1070
     0
1002
}
1002
{
1000
REACTOR
1002
}
1001
GENIUS_GENOBJ-N-CEN_13
1002
{
1000
OWNER
1000
GEN
1002
}
  0
LINE
  5
3A8D1
330
1F
100
AcDbEntity
  8
AM_0
100
AcDbLine
 10
245.8997514945076
 20
164.6942227824034
 30
0.0
 11
245.8997514945076
 21
165.953545832952
 31
0.0
  0
LINE
  5
3A8D2
330
1F
100
AcDbEntity
  8
AM_0
100
AcDbLine
 10
247.2997514945072
 20
165.953545832952
 30
0.0
 11
247.3997514945072
 21
165.9535458329518
 31
0.0
  0
LINE
  5
3A8D3
330
1F
100
AcDbEntity
  8
AM_0
100
AcDbLine
 10
276.5997514945074
 20
165.953545832952
 30
0.0
 11
278.4997514945076
 21
165.953545832952
 31
0.0
  0
LINE
  5
3A8D4
330
1F
100
AcDbEntity
  8
AM_0
100
AcDbLine
 10
249.9997514945072
 20
165.953545832952
 30
0.0
 11
254.6497514945067
 21
165.953545832952
 31
0.0
  0
LINE
  5
3A8D5
330
1F
100
AcDbEntity
  8
AM_0
100
AcDbLine
 10
267.349751494507
 20
165.9535458329518
 30
0.0
 11
271.9997514945071
 21
165.953545832952
 31
0.0
  0
LINE
  5
3A8D6
330
1F
100
AcDbEntity
  8
AM_0
100
AcDbLine
 10
278.8747514945074
 20
54.95354583295108
 30
0.0
 11
278.4997514945076
 21
54.95354583295108
 31
0.0
1001
GENIUS_GENODEF_13
1002
{
1000
HIER
1070
     0
1002
}
1002
{
1000
MANEDIT
1070
     0
1002
}
1002
{
1000
NOSEL
1070
     0
1002
}
1002
{
1000
BEHIND
1070
     0
1002
}
1002
{
1000
REACTOR
1002
}
1001
GENIUS_GENOBJ-N-CEN_13
1002
{
1000
OWNER
1000
GEN
1002
}
  0
LINE
  5
3A8D7
330
1F
100
AcDbEntity
  8
AM_0
100
AcDbLine
 10
278.8747514945074
 20
60.95354583295108
 30
0.0
 11
278.4997514945076
 21
60.95354583295108
 31
0.0
1001
GENIUS_GENODEF_13
1002
{
1000
HIER
1070
     0
1002
}
1002
{
1000
MANEDIT
1070
     0
1002
}
1002
{
1000
NOSEL
1070
     0
1002
}
1002
{
1000
BEHIND
1070
     0
1002
}
1002
{
1000
REACTOR
1002
}
1001
GENIUS_GENOBJ-N-CEN_13
1002
{
1000
OWNER
1000
GEN
1002
}
  0
LINE
  5
3A8D8
330
1F
100
AcDbEntity
  8
AM_0
100
AcDbLine
 10
239.8747514945076
 20
54.95354583295227
 30
0.0
 11
239.8747514945072
 21
60.95354583295227
 31
0.0
  0
LINE
  5
3A8D9
330
1F
100
AcDbEntity
  8
AM_0
100
AcDbLine
 10
242.4747514945075
 20
54.95354583295227
 30
0.0
 11
242.4747514945075
 21
60.95354583295227
 31
0.0
  0
LINE
  5
3A8DA
330
1F
100
AcDbEntity
  8
AM_0
100
AcDbLine
 10
243.1747514945075
 20
54.95354583295227
 30
0.0
 11
243.1747514945075
 21
60.95354583295227
 31
0.0
  0
LINE
  5
3A8DB
330
1F
100
AcDbEntity
  8
AM_0
100
AcDbLine
 10
243.1747514945075
 20
55.45354583295068
 30
0.0
 11
243.1247514945074
 21
55.45354583295068
 31
0.0
1001
GENIUS_GENODEF_13
1002
{
1000
HIER
1070
     0
1002
}
1002
{
1000
MANEDIT
1070
     0
1002
}
1002
{
1000
NOSEL
1070
     0
1002
}
1002
{
1000
BEHIND
1070
     0
1002
}
1002
{
1000
REACTOR
1002
}
1001
GENIUS_GENOBJ-N-CEN_13
1002
{
1000
OWNER
1000
GEN
1002
}
  0
LINE
  5
3A8DC
330
1F
100
AcDbEntity
  8
AM_0
100
AcDbLine
 10
243.1747514945075
 20
60.45354583295068
 30
0.0
 11
243.1247514945074
 21
60.45354583295068
 31
0.0
1001
GENIUS_GENODEF_13
1002
{
1000
HIER
1070
     0
1002
}
1002
{
1000
MANEDIT
1070
     0
1002
}
1002
{
1000
NOSEL
1070
     0
1002
}
1002
{
1000
BEHIND
1070
     0
1002
}
1002
{
1000
REACTOR
1002
}
1001
GENIUS_GENOBJ-N-CEN_13
1002
{
1000
OWNER
1000
GEN
1002
}
  0
LINE
  5
3A8DD
330
1F
100
AcDbEntity
  8
AM_0
100
AcDbLine
 10
242.4747514945075
 20
60.95354583295216
 30
0.0
 11
239.8747514945072
 21
60.95354583295227
 31
0.0
1001
GENIUS_GENODEF_13
1002
{
1000
HIER
1070
     0
1002
}
1002
{
1000
MANEDIT
1070
     0
1002
}
1002
{
1000
NOSEL
1070
     0
1002
}
1002
{
1000
BEHIND
1070
     0
1002
}
1002
{
1000
REACTOR
1002
}
1001
GENIUS_GENOBJ-N-CEN_13
1002
{
1000
OWNER
1000
GEN
1002
}
  0
LINE
  5
3A8DE
330
1F
100
AcDbEntity
  8
AM_0
100
AcDbLine
 10
242.4747514945075
 20
54.95354583295216
 30
0.0
 11
239.8747514945072
 21
54.95354583295227
 31
0.0
1001
GENIUS_GENODEF_13
1002
{
1000
HIER
1070
     0
1002
}
1002
{
1000
MANEDIT
1070
     0
1002
}
1002
{
1000
NOSEL
1070
     0
1002
}
1002
{
1000
BEHIND
1070
     0
1002
}
1002
{
1000
REACTOR
1002
}
1001
GENIUS_GENOBJ-N-CEN_13
1002
{
1000
OWNER
1000
GEN
1002
}
  0
ARC
  5
3A8DF
330
1F
100
AcDbEntity
  8
AM_0
100
AcDbCircle
 10
271.2914181611741
 20
57.95354583295079
 30
0.0
 40
9.083333333333355
100
AcDbArc
 50
326.6015115320219
 51
33.39848846797804
  0
LINE
  5
3A8E0
330
1F
100
AcDbEntity
  8
AM_0
100
AcDbLine
 10
278.8747514945076
 20
62.95354583295079
 30
0.0
 11
278.8747514945074
 21
52.95354583295079
 31
0.0
  0
ARC
  5
3A8E1
330
1F
100
AcDbEntity
  8
AM_0
100
AcDbCircle
 10
271.2914181611734
 20
57.95354583295085
 30
0.0
 40
9.083333333333923
100
AcDbArc
 50
326.6015115320219
 51
33.39848846797804
  0
LINE
  5
3A8E2
330
1F
100
AcDbEntity
  8
AM_0
100
AcDbLine
 10
243.1247514945074
 20
63.45354583295068
 30
0.0
 11
242.5247514945074
 21
63.45354583295068
 31
0.0
1001
GENIUS_GENODEF_13
1002
{
1000
HIER
1070
     0
1002
}
1002
{
1000
MANEDIT
1070
     0
1002
}
1002
{
1000
NOSEL
1070
     0
1002
}
1002
{
1000
BEHIND
1070
     0
1002
}
1002
{
1000
REACTOR
1002
}
1001
GENIUS_GENOBJ-N-CEN_13
1002
{
1000
OWNER
1000
GEN
1002
}
  0
LINE
  5
3A8E3
330
1F
100
AcDbEntity
  8
AM_0
100
AcDbLine
 10
243.1247514945074
 20
52.45354583295068
 30
0.0
 11
242.5247514945074
 21
52.45354583295068
 31
0.0
1001
GENIUS_GENODEF_13
1002
{
1000
HIER
1070
     0
1002
}
1002
{
1000
MANEDIT
1070
     0
1002
}
1002
{
1000
NOSEL
1070
     0
1002
}
1002
{
1000
BEHIND
1070
     0
1002
}
1002
{
1000
REACTOR
1002
}
1001
GENIUS_GENOBJ-N-CEN_13
1002
{
1000
OWNER
1000
GEN
1002
}
  0
LINE
  5
3A8E4
330
1F
100
AcDbEntity
  8
AM_0
100
AcDbLine
 10
243.1247514945074
 20
63.45354583295068
 30
0.0
 11
243.1247514945074
 21
52.45354583295068
 31
0.0
  0
LINE
  5
3A8E5
330
1F
100
AcDbEntity
  8
AM_0
100
AcDbLine
 10
242.5247514945074
 20
63.45354583295068
 30
0.0
 11
242.5247514945074
 21
52.45354583295068
 31
0.0
  0
LINE
  5
3A8E6
330
1F
100
AcDbEntity
  8
AM_0
100
AcDbLine
 10
242.5247514945074
 20
55.45354583295068
 30
0.0
 11
242.4747514945075
 21
55.45354583295068
 31
0.0
1001
GENIUS_GENODEF_13
1002
{
1000
HIER
1070
     0
1002
}
1002
{
1000
MANEDIT
1070
     0
1002
}
1002
{
1000
NOSEL
1070
     0
1002
}
1002
{
1000
BEHIND
1070
     0
1002
}
1002
{
1000
REACTOR
1002
}
1001
GENIUS_GENOBJ-N-CEN_13
1002
{
1000
OWNER
1000
GEN
1002
}
  0
LINE
  5
3A8E7
330
1F
100
AcDbEntity
  8
AM_0
100
AcDbLine
 10
242.5247514945074
 20
60.45354583295068
 30
0.0
 11
242.4747514945075
 21
60.45354583295068
 31
0.0
1001
GENIUS_GENODEF_13
1002
{
1000
HIER
1070
     0
1002
}
1002
{
1000
MANEDIT
1070
     0
1002
}
1002
{
1000
NOSEL
1070
     0
1002
}
1002
{
1000
BEHIND
1070
     0
1002
}
1002
{
1000
REACTOR
1002
}
1001
GENIUS_GENOBJ-N-CEN_13
1002
{
1000
OWNER
1000
GEN
1002
}
  0
LINE
  5
3A8E8
330
1F
100
AcDbEntity
  8
AM_0
100
AcDbLine
 10
246.9997514945072
 20
60.95354583295204
 30
0.0
 11
245.3997514945074
 21
60.95354583295204
 31
0.0
1001
GENIUS_GENODEF_13
1002
{
1000
HIER
1070
     0
1002
}
1002
{
1000
MANEDIT
1070
     0
1002
}
1002
{
1000
NOSEL
1070
     0
1002
}
1002
{
1000
BEHIND
1070
     0
1002
}
1002
{
1000
REACTOR
1002
}
1001
GENIUS_GENOBJ-N-CEN_13
1002
{
1000
OWNER
1000
GEN
1002
}
  0
LINE
  5
3A8E9
330
1F
100
AcDbEntity
  8
AM_0
100
AcDbLine
 10
246.9997514945072
 20
54.95354583295199
 30
0.0
 11
245.3997514945074
 21
54.95354583295199
 31
0.0
1001
GENIUS_GENODEF_13
1002
{
1000
HIER
1070
     0
1002
}
1002
{
1000
MANEDIT
1070
     0
1002
}
1002
{
1000
NOSEL
1070
     0
1002
}
1002
{
1000
BEHIND
1070
     0
1002
}
1002
{
1000
REACTOR
1002
}
1001
GENIUS_GENOBJ-N-CEN_13
1002
{
1000
OWNER
1000
GEN
1002
}
  0
LINE
  5
3A8EA
330
1F
100
AcDbEntity
  8
AM_0
100
AcDbLine
 10
243.4997514945072
 20
60.95354583295216
 30
0.0
 11
243.1747514945075
 21
60.95354583295216
 31
0.0
1001
GENIUS_GENODEF_13
1002
{
1000
HIER
1070
     0
1002
}
1002
{
1000
MANEDIT
1070
     0
1002
}
1002
{
1000
NOSEL
1070
     0
1002
}
1002
{
1000
BEHIND
1070
     0
1002
}
1002
{
1000
REACTOR
1002
}
1001
GENIUS_GENOBJ-N-CEN_13
1002
{
1000
OWNER
1000
GEN
1002
}
  0
LINE
  5
3A8EB
330
1F
100
AcDbEntity
  8
AM_0
100
AcDbLine
 10
243.4997514945072
 20
54.95354583295176
 30
0.0
 11
243.1747514945075
 21
54.95354583295216
 31
0.0
1001
GENIUS_GENODEF_13
1002
{
1000
HIER
1070
     0
1002
}
1002
{
1000
MANEDIT
1070
     0
1002
}
1002
{
1000
NOSEL
1070
     0
1002
}
1002
{
1000
BEHIND
1070
     0
1002
}
1002
{
1000
REACTOR
1002
}
1001
GENIUS_GENOBJ-N-CEN_13
1002
{
1000
OWNER
1000
GEN
1002
}
  0
LINE
  5
3A8EC
330
1F
100
AcDbEntity
  8
AM_0
100
AcDbLine
 10
276.5997514945075
 20
60.95354583295125
 30
0.0
 11
274.9997514945072
 21
60.95354583295137
 31
0.0
1001
GENIUS_GENODEF_13
1002
{
1000
HIER
1070
     0
1002
}
1002
{
1000
MANEDIT
1070
     0
1002
}
1002
{
1000
NOSEL
1070
     0
1002
}
1002
{
1000
BEHIND
1070
     0
1002
}
1002
{
1000
REACTOR
1002
}
1001
GENIUS_GENOBJ-N-CEN_13
1002
{
1000
OWNER
1000
GEN
1002
}
  0
LINE
  5
3A8ED
330
1F
100
AcDbEntity
  8
AM_0
100
AcDbLine
 10
276.5997514945075
 20
54.95354583295119
 30
0.0
 11
274.9997514945072
 21
54.95354583295119
 31
0.0
1001
GENIUS_GENODEF_13
1002
{
1000
HIER
1070
     0
1002
}
1002
{
1000
MANEDIT
1070
     0
1002
}
1002
{
1000
NOSEL
1070
     0
1002
}
1002
{
1000
BEHIND
1070
     0
1002
}
1002
{
1000
REACTOR
1002
}
1001
GENIUS_GENOBJ-N-CEN_13
1002
{
1000
OWNER
1000
GEN
1002
}
  0
LINE
  5
3A8EE
330
1F
100
AcDbEntity
  8
AM_0
100
AcDbLine
 10
268.2561585181079
 20
50.95354583295199
 30
0.0
 11
278.4997514945073
 21
50.95354583295199
 31
0.0
  0
LINE
  5
3A8EF
330
1F
100
AcDbEntity
  8
AM_7
100
AcDbLine
 10
236.8747514945074
 20
57.95354583295239
 30
0.0
 11
283.3747514945073
 21
57.95354583295068
 31
0.0
1001
GENIUS_GENODEF_13
1002
{
1000
HIER
1070
     0
1002
}
1002
{
1000
MANEDIT
1070
     0
1002
}
1002
{
1000
NOSEL
1070
     0
1002
}
1002
{
1000
BEHIND
1070
     0
1002
}
1002
{
1000
OTHER
1070
     0
1002
}
1002
{
1000
REACTOR
1002
}
1001
GENIUS_GENOBJ-N-CEN_13
1002
{
1000
OWNER
1000
GEN
1002
}
  0
ARC
  5
3A8F5
330
1F
100
AcDbEntity
  8
AM_0
100
AcDbCircle
 10
260.9997514945077
 20
221.939775985771
 30
0.0
 40
13.0
100
AcDbArc
 50
303.265677890223
 51
313.8130614604155
  0
LINE
  5
3A8F6
330
1F
100
AcDbEntity
  8
AM_0
 48
2.0
100
AcDbLine
 10
249.9997514945072
 20
197.953545832952
 30
0.0
 11
251.0997514945095
 21
197.953545832952
 31
0.0
  0
LINE
  5
3A8F7
330
1F
100
AcDbEntity
  8
AM_0
 48
2.0
100
AcDbLine
 10
274.599751494507
 20
197.9535458329523
 30
0.0
 11
282.4997514945092
 21
197.953545832952
 31
0.0
  0
LINE
  5
3A8F8
330
1F
100
AcDbEntity
  8
AM_7
100
AcDbLine
 10
260.9997514941684
 20
244.9535458329523
 30
0.0
 11
260.9997515166035
 21
47.47105786486065
 31
0.0
1001
GENIUS_GENODEF_13
1002
{
1000
HIER
1070
     0
1002
}
1002
{
1000
MANEDIT
1070
     0
1002
}
1002
{
1000
NOSEL
1070
     0
1002
}
1002
{
1000
BEHIND
1070
     0
1002
}
1002
{
1000
OTHER
1070
     0
1002
}
1002
{
1000
REACTOR
1002
}
1001
GENIUS_GENOBJ-N-CEN_13
1002
{
1000
OWNER
1000
GEN
1002
}
  0
LINE
  5
3A8F9
330
1F
100
AcDbEntity
  8
AM_7
100
AcDbLine
 10
242.8997514945072
 20
223.9397759857713
 30
0.0
 11
279.0997514945096
 21
223.9397759857708
 31
0.0
1001
GENIUS_GENOBJ-N-CEN_13
1002
{
1000
OWNER
1000
GEN
1002
}
1001
GENIUS_GENODEF_13
1002
{
1000
HIER
1070
     0
1002
}
1002
{
1000
MANEDIT
1070
     0
1002
}
1002
{
1000
NOSEL
1070
     0
1002
}
1002
{
1000
BEHIND
1070
     0
1002
}
1002
{
1000
OTHER
1070
     0
1002
}
1002
{
1000
REACTOR
1002
}
  0
LINE
  5
3A8FA
330
1F
100
AcDbEntity
  8
AM_7
 48
0.8
100
AcDbLine
 10
242.9997514945095
 20
196.953545832952
 30
0.0
 11
242.9997514945095
 21
172.953545832952
 31
0.0
1001
GENIUS_GENOBJ-N-CEN_13
1002
{
1000
OWNER
1000
GEN
1002
}
1001
GENIUS_GENODEF_13
1002
{
1000
HIER
1070
     0
1002
}
1002
{
1000
MANEDIT
1070
     0
1002
}
1002
{
1000
NOSEL
1070
     0
1002
}
1002
{
1000
BEHIND
1070
     0
1002
}
1002
{
1000
OTHER
1070
     0
1002
}
1002
{
1000
REACTOR
1002
}
  0
LINE
  5
3A8FB
330
1F
100
AcDbEntity
  8
AM_7
 48
0.8
100
AcDbLine
 10
278.9997514945095
 20
196.953545832952
 30
0.0
 11
278.9997514945095
 21
172.953545832952
 31
0.0
1001
GENIUS_GENODEF_13
1002
{
1000
HIER
1070
     0
1002
}
1002
{
1000
MANEDIT
1070
     0
1002
}
1002
{
1000
NOSEL
1070
     0
1002
}
1002
{
1000
BEHIND
1070
     0
1002
}
1002
{
1000
OTHER
1070
     0
1002
}
1002
{
1000
REACTOR
1002
}
1001
GENIUS_GENOBJ-N-CEN_13
1002
{
1000
OWNER
1000
GEN
1002
}
  0
LINE
  5
3A8FC
330
1F
100
AcDbEntity
  8
AM_7
 48
0.5
100
AcDbLine
 10
284.4997514945095
 20
188.9535458329523
 30
0.0
 11
273.4997514945093
 21
188.9535458329523
 31
0.0
1001
GENIUS_GENOBJ-N-CEN_13
1002
{
1000
OWNER
1000
GEN
1002
}
1001
GENIUS_GENODEF_13
1002
{
1000
HIER
1070
     0
1002
}
1002
{
1000
MANEDIT
1070
     0
1002
}
1002
{
1000
NOSEL
1070
     0
1002
}
1002
{
1000
BEHIND
1070
     0
1002
}
1002
{
1000
OTHER
1070
     0
1002
}
1002
{
1000
REACTOR
1002
}
  0
LINE
  5
3A8FE
330
1F
100
AcDbEntity
  8
AM_7
 48
0.5
100
AcDbLine
 10
237.4997514945095
 20
180.953545832952
 30
0.0
 11
248.4997514945093
 21
180.953545832952
 31
0.0
1001
GENIUS_GENOBJ-N-CEN_13
1002
{
1000
OWNER
1000
GEN
1002
}
1001
GENIUS_GENODEF_13
1002
{
1000
HIER
1070
     0
1002
}
1002
{
1000
MANEDIT
1070
     0
1002
}
1002
{
1000
NOSEL
1070
     0
1002
}
1002
{
1000
BEHIND
1070
     0
1002
}
1002
{
1000
OTHER
1070
     0
1002
}
1002
{
1000
REACTOR
1002
}
  0
LINE
  5
3A90A
330
1F
100
AcDbEntity
  8
AM_0
100
AcDbLine
 10
107.7088267019607
 20
150.7731642500814
 30
0.0
 11
106.3206564051615
 21
143.8841075131773
 31
0.0
1001
GENIUS_GENODEF_13
1002
{
1000
HIER
1070
     0
1002
}
1002
{
1000
MANEDIT
1070
     0
1002
}
1002
{
1000
NOSEL
1070
     0
1002
}
1002
{
1000
BEHIND
1070
     0
1002
}
1002
{
1000
REACTOR
1002
}
1001
GENIUS_GENOBJ-N-CEN_13
1002
{
1000
OWNER
1000
GEN
1002
}
  0
LINE
  5
3A90B
330
1F
100
AcDbEntity
  8
AM_0
100
AcDbLine
 10
118.1188274189025
 20
153.8353515562086
 30
0.0
 11
117.2757604775581
 21
149.6514729605333
 31
0.0
  0
LINE
  5
3A90C
330
1F
100
AcDbEntity
  8
AM_11
100
AcDbLine
 10
175.851814697414
 20
144.9119745487815
 30
0.0
 11
178.5830917355583
 21
144.8282327940081
 31
0.0
  0
ARC
  5
3A90D
330
1F
100
AcDbEntity
  8
AM_0
 48
2.0
100
AcDbCircle
 10
89.21147247757378
 20
206.7466529312961
 30
0.0
 40
2.9
100
AcDbArc
 50
82.10215653591065
 51
130.0000000000047
  0
ARC
  5
3A90E
330
1F
100
AcDbEntity
  8
AM_0
 48
2.0
100
AcDbCircle
 10
90.42065640516169
 20
215.4631817260209
 30
0.0
 40
5.899999999999987
100
AcDbArc
 50
262.1021565359106
 51
0.0
  0
ARC
  5
3A90F
330
1F
100
AcDbEntity
  8
AM_0
 48
2.0
100
AcDbCircle
 10
90.42065640516169
 20
215.4631817260209
 30
0.0
 40
3.000000000000006
100
AcDbArc
 50
309.9999999999863
 51
0.0
  0
ARC
  5
3A910
330
1F
100
AcDbEntity
  8
AM_0
 48
2.0
100
AcDbCircle
 10
111.3206564051615
 20
223.4535458329522
 30
0.0
 40
18.5
100
AcDbArc
 50
0.0
 51
194.6321519441895
  0
ARC
  5
3A911
330
1F
100
AcDbEntity
  8
AM_0
 48
2.0
100
AcDbCircle
 10
111.3206564051615
 20
223.4535458329522
 30
0.0
 40
15.0
100
AcDbArc
 50
0.0
 51
180.0
  0
ARC
  5
3A912
330
1F
100
AcDbEntity
  8
AM_0
 48
2.0
100
AcDbCircle
 10
111.3206564051615
 20
223.4535458329522
 30
0.0
 40
17.9
100
AcDbArc
 50
0.0
 51
180.0
  0
LINE
  5
3A913
330
1F
100
AcDbEntity
  8
AM_0
 48
2.0
100
AcDbLine
 10
126.3206564051615
 20
196.953545832952
 30
0.0
 11
129.8206564051615
 21
196.953545832952
 31
0.0
  0
ARC
  5
3A914
330
1F
100
AcDbEntity
  8
AM_0
 48
2.0
100
AcDbCircle
 10
105.3206564051615
 20
188.8650885648322
 30
0.0
 40
9.0
100
AcDbArc
 50
180.0
 51
197.8939786089988
  0
LINE
  5
3A915
330
1F
100
AcDbEntity
  8
AM_7
 48
0.3
100
AcDbLine
 10
68.32065640516154
 20
191.453545832952
 30
0.0
 11
77.22065640516163
 21
191.453545832952
 31
0.0
  0
LINE
  5
3A916
330
1F
100
AcDbEntity
  8
AM_0
 48
2.0
100
AcDbLine
 10
71.32065640516154
 20
197.953545832952
 30
0.0
 11
74.22065640516163
 21
197.953545832952
 31
0.0
  0
LINE
  5
3A917
330
1F
100
AcDbEntity
  8
AM_7
 48
0.3
100
AcDbLine
 10
68.32065640516154
 20
178.4535458329584
 30
0.0
 11
77.22065640516163
 21
178.4535458329138
 31
0.0
1001
GENIUS_GENODEF_13
1002
{
1000
HIER
1070
     0
1002
}
1002
{
1000
MANEDIT
1070
     0
1002
}
1002
{
1000
NOSEL
1070
     0
1002
}
1002
{
1000
BEHIND
1070
     0
1002
}
1002
{
1000
REACTOR
1002
}
1001
GENIUS_GENOBJ-N-CEN_13
1002
{
1000
OWNER
1000
GEN
1002
}
  0
ARC
  5
3A918
330
1F
100
AcDbEntity
  8
AM_0
 48
2.0
100
AcDbCircle
 10
91.68153463256018
 20
182.6887404455968
 30
0.0
 40
3.0
100
AcDbArc
 50
29.99999999999777
 51
130.0000000000047
  0
ARC
  5
3A919
330
1F
100
AcDbEntity
  8
AM_0
 48
2.0
100
AcDbCircle
 10
93.96434904225632
 20
184.7347899037523
 30
0.0
 40
2.9
100
AcDbArc
 50
29.99999999999777
 51
130.0000000000047
  0
LINE
  5
3A91A
330
1F
100
AcDbEntity
  8
AM_0
 48
2.0
100
AcDbLine
 10
74.22065640516163
 20
171.953545832952
 30
0.0
 11
71.32065640516154
 21
171.953545832952
 31
0.0
  0
LINE
  5
3A91B
330
1F
100
AcDbEntity
  8
AM_0
 48
2.0
100
AcDbLine
 10
96.47582271323129
 20
186.1847899037524
 30
0.0
 11
96.60513784202132
 21
185.9608095305004
 31
0.0
  0
LINE
  5
3A91C
330
1F
100
AcDbEntity
  8
AM_0
 48
2.0
100
AcDbLine
 10
94.27961084391332
 20
184.1887404455968
 30
0.0
 11
95.35586524407083
 21
182.3246131426546
 31
0.0
  0
LINE
  5
3A91D
330
1F
100
AcDbEntity
  8
AM_0
 48
2.0
100
AcDbLine
 10
74.22065640516163
 20
171.953545832952
 30
0.0
 11
92.10026497416558
 21
186.9563187887973
 31
0.0
  0
LINE
  5
3A91E
330
1F
100
AcDbEntity
  8
AM_0
 48
2.0
100
AcDbLine
 10
71.32065640516154
 20
171.953545832952
 30
0.0
 11
71.32065640516154
 21
197.953545832952
 31
0.0
  0
LINE
  5
3A91F
330
1F
100
AcDbEntity
  8
AM_0
 48
2.0
100
AcDbLine
 10
74.22065640516163
 20
197.953545832952
 30
0.0
 11
74.22065640516163
 21
171.953545832952
 31
0.0
  0
LINE
  5
3A920
330
1F
100
AcDbEntity
  8
AM_0
 48
2.0
100
AcDbLine
 10
126.3206564051615
 20
223.4535458329522
 30
0.0
 11
126.3206564051615
 21
196.953545832952
 31
0.0
  0
LINE
  5
3A921
330
1F
100
AcDbEntity
  8
AM_0
 48
2.0
100
AcDbLine
 10
129.2206564051616
 20
223.4535458329522
 30
0.0
 11
129.2206564051616
 21
196.953545832952
 31
0.0
  0
LINE
  5
3A922
330
1F
100
AcDbEntity
  8
AM_0
 48
2.0
100
AcDbLine
 10
129.8206564051615
 20
223.4535458329522
 30
0.0
 11
129.8206564051615
 21
196.953545832952
 31
0.0
  0
LINE
  5
3A923
330
1F
100
AcDbEntity
  8
AM_0
 48
2.0
100
AcDbLine
 10
74.22065640516163
 20
197.953545832952
 30
0.0
 11
92.34901923422123
 21
213.165048396664
 31
0.0
  0
LINE
  5
3A924
330
1F
100
AcDbEntity
  8
AM_0
 48
2.0
100
AcDbLine
 10
96.32065640516154
 20
223.4535458329522
 30
0.0
 11
96.32065640516154
 21
188.8650885648322
 31
0.0
  0
LINE
  5
3A925
330
1F
100
AcDbEntity
  8
AM_0
100
AcDbLine
 10
93.42065640516144
 20
223.4535458329522
 30
0.0
 11
93.42065640516167
 21
215.4631817260209
 31
0.0
  0
LINE
  5
3A936
330
1F
100
AcDbEntity
  8
AM_0
 48
2.0
100
AcDbLine
 10
101.3091827341864
 20
172.0131647761856
 30
0.0
 11
103.8206564051616
 21
173.4631647761856
 31
0.0
  0
LINE
  5
3A937
330
1F
100
AcDbEntity
  8
AM_0
 48
2.0
100
AcDbLine
 10
96.47582271323129
 20
186.1847899037524
 30
0.0
 11
103.8206564051616
 21
173.4631647761856
 31
0.0
  0
LINE
  5
3A938
330
1F
100
AcDbEntity
  8
AM_0
 48
2.0
100
AcDbLine
 10
94.27961084391345
 20
184.1887404455968
 30
0.0
 11
101.3091827341864
 21
172.0131647761856
 31
0.0
  0
LINE
  5
3AA56
330
1F
100
AcDbEntity
  8
AM_7
 48
0.5
100
AcDbLine
 10
237.4997514945095
 20
178.453545832952
 30
0.0
 11
248.4997514945093
 21
178.453545832952
 31
0.0
1001
GENIUS_GENOBJ-N-CEN_13
1002
{
1000
OWNER
1000
GEN
1002
}
1001
GENIUS_GENODEF_13
1002
{
1000
HIER
1070
     0
1002
}
1002
{
1000
MANEDIT
1070
     0
1002
}
1002
{
1000
NOSEL
1070
     0
1002
}
1002
{
1000
BEHIND
1070
     0
1002
}
1002
{
1000
OTHER
1070
     0
1002
}
1002
{
1000
REACTOR
1002
}
  0
LINE
  5
3AA57
330
1F
100
AcDbEntity
  8
AM_7
 48
0.5
100
AcDbLine
 10
237.4997514945095
 20
191.453545832952
 30
0.0
 11
248.4997514945093
 21
191.453545832952
 31
0.0
1001
GENIUS_GENOBJ-N-CEN_13
1002
{
1000
OWNER
1000
GEN
1002
}
1001
GENIUS_GENODEF_13
1002
{
1000
HIER
1070
     0
1002
}
1002
{
1000
MANEDIT
1070
     0
1002
}
1002
{
1000
NOSEL
1070
     0
1002
}
1002
{
1000
BEHIND
1070
     0
1002
}
1002
{
1000
OTHER
1070
     0
1002
}
1002
{
1000
REACTOR
1002
}
  0
LINE
  5
3AA58
330
1F
100
AcDbEntity
  8
AM_7
 48
0.5
100
AcDbLine
 10
273.4997514945095
 20
191.453545832952
 30
0.0
 11
284.4997514945093
 21
191.453545832952
 31
0.0
1001
GENIUS_GENOBJ-N-CEN_13
1002
{
1000
OWNER
1000
GEN
1002
}
1001
GENIUS_GENODEF_13
1002
{
1000
HIER
1070
     0
1002
}
1002
{
1000
MANEDIT
1070
     0
1002
}
1002
{
1000
NOSEL
1070
     0
1002
}
1002
{
1000
BEHIND
1070
     0
1002
}
1002
{
1000
OTHER
1070
     0
1002
}
1002
{
1000
REACTOR
1002
}
  0
LINE
  5
3AA59
330
1F
100
AcDbEntity
  8
AM_7
 48
0.5
100
AcDbLine
 10
273.4997514945095
 20
178.453545832952
 30
0.0
 11
284.4997514945093
 21
178.453545832952
 31
0.0
1001
GENIUS_GENOBJ-N-CEN_13
1002
{
1000
OWNER
1000
GEN
1002
}
1001
GENIUS_GENODEF_13
1002
{
1000
HIER
1070
     0
1002
}
1002
{
1000
MANEDIT
1070
     0
1002
}
1002
{
1000
NOSEL
1070
     0
1002
}
1002
{
1000
BEHIND
1070
     0
1002
}
1002
{
1000
OTHER
1070
     0
1002
}
1002
{
1000
REACTOR
1002
}
  0
LINE
  5
3AA5A
330
1F
100
AcDbEntity
  8
AM_7
 48
0.5
100
AcDbLine
 10
231.4997514945077
 20
141.9535458329522
 30
0.0
 11
242.4997514945074
 21
141.9535458329522
 31
0.0
1001
GENIUS_GENOBJ-N-CEN_13
1002
{
1000
OWNER
1000
GEN
1002
}
1001
GENIUS_GENODEF_13
1002
{
1000
HIER
1070
     0
1002
}
1002
{
1000
MANEDIT
1070
     0
1002
}
1002
{
1000
NOSEL
1070
     0
1002
}
1002
{
1000
BEHIND
1070
     0
1002
}
1002
{
1000
OTHER
1070
     0
1002
}
1002
{
1000
REACTOR
1002
}
  0
LINE
  5
3AA5B
330
1F
100
AcDbEntity
  8
AM_7
 48
0.5
100
AcDbLine
 10
236.9997514945076
 20
136.4535458329524
 30
0.0
 11
236.9997514945076
 21
147.4535458329521
 31
0.0
1001
GENIUS_GENOBJ-N-CEN_13
1002
{
1000
OWNER
1000
GEN
1002
}
1001
GENIUS_GENODEF_13
1002
{
1000
HIER
1070
     0
1002
}
1002
{
1000
MANEDIT
1070
     0
1002
}
1002
{
1000
NOSEL
1070
     0
1002
}
1002
{
1000
BEHIND
1070
     0
1002
}
1002
{
1000
OTHER
1070
     0
1002
}
1002
{
1000
REACTOR
1002
}
  0
LINE
  5
3AA5C
330
1F
100
AcDbEntity
  8
AM_7
 48
0.5
100
AcDbLine
 10
231.4997514945077
 20
118.9535458329523
 30
0.0
 11
242.4997514945074
 21
118.9535458329523
 31
0.0
1001
GENIUS_GENOBJ-N-CEN_13
1002
{
1000
OWNER
1000
GEN
1002
}
1001
GENIUS_GENODEF_13
1002
{
1000
HIER
1070
     0
1002
}
1002
{
1000
MANEDIT
1070
     0
1002
}
1002
{
1000
NOSEL
1070
     0
1002
}
1002
{
1000
BEHIND
1070
     0
1002
}
1002
{
1000
OTHER
1070
     0
1002
}
1002
{
1000
REACTOR
1002
}
  0
LINE
  5
3AA5D
330
1F
100
AcDbEntity
  8
AM_7
 48
0.5
100
AcDbLine
 10
236.9997514945076
 20
113.4535458329524
 30
0.0
 11
236.9997514945076
 21
124.4535458329521
 31
0.0
1001
GENIUS_GENOBJ-N-CEN_13
1002
{
1000
OWNER
1000
GEN
1002
}
1001
GENIUS_GENODEF_13
1002
{
1000
HIER
1070
     0
1002
}
1002
{
1000
MANEDIT
1070
     0
1002
}
1002
{
1000
NOSEL
1070
     0
1002
}
1002
{
1000
BEHIND
1070
     0
1002
}
1002
{
1000
OTHER
1070
     0
1002
}
1002
{
1000
REACTOR
1002
}
  0
LINE
  5
3AA5E
330
1F
100
AcDbEntity
  8
AM_7
 48
0.5
100
AcDbLine
 10
279.4997514945078
 20
118.9535458329519
 30
0.0
 11
290.4997514945076
 21
118.9535458329519
 31
0.0
1001
GENIUS_GENOBJ-N-CEN_13
1002
{
1000
OWNER
1000
GEN
1002
}
1001
GENIUS_GENODEF_13
1002
{
1000
HIER
1070
     0
1002
}
1002
{
1000
MANEDIT
1070
     0
1002
}
1002
{
1000
NOSEL
1070
     0
1002
}
1002
{
1000
BEHIND
1070
     0
1002
}
1002
{
1000
OTHER
1070
     0
1002
}
1002
{
1000
REACTOR
1002
}
  0
LINE
  5
3AA5F
330
1F
100
AcDbEntity
  8
AM_7
 48
0.5
100
AcDbLine
 10
284.9997514945077
 20
113.453545832952
 30
0.0
 11
284.9997514945077
 21
124.4535458329518
 31
0.0
1001
GENIUS_GENOBJ-N-CEN_13
1002
{
1000
OWNER
1000
GEN
1002
}
1001
GENIUS_GENODEF_13
1002
{
1000
HIER
1070
     0
1002
}
1002
{
1000
MANEDIT
1070
     0
1002
}
1002
{
1000
NOSEL
1070
     0
1002
}
1002
{
1000
BEHIND
1070
     0
1002
}
1002
{
1000
OTHER
1070
     0
1002
}
1002
{
1000
REACTOR
1002
}
  0
LINE
  5
3AA60
330
1F
100
AcDbEntity
  8
AM_7
 48
0.5
100
AcDbLine
 10
279.4997514945078
 20
141.953545832952
 30
0.0
 11
290.4997514945076
 21
141.953545832952
 31
0.0
1001
GENIUS_GENOBJ-N-CEN_13
1002
{
1000
OWNER
1000
GEN
1002
}
1001
GENIUS_GENODEF_13
1002
{
1000
HIER
1070
     0
1002
}
1002
{
1000
MANEDIT
1070
     0
1002
}
1002
{
1000
NOSEL
1070
     0
1002
}
1002
{
1000
BEHIND
1070
     0
1002
}
1002
{
1000
OTHER
1070
     0
1002
}
1002
{
1000
REACTOR
1002
}
  0
LINE
  5
3AA61
330
1F
100
AcDbEntity
  8
AM_7
 48
0.5
100
AcDbLine
 10
284.9997514945077
 20
136.4535458329521
 30
0.0
 11
284.9997514945077
 21
147.4535458329519
 31
0.0
1001
GENIUS_GENOBJ-N-CEN_13
1002
{
1000
OWNER
1000
GEN
1002
}
1001
GENIUS_GENODEF_13
1002
{
1000
HIER
1070
     0
1002
}
1002
{
1000
MANEDIT
1070
     0
1002
}
1002
{
1000
NOSEL
1070
     0
1002
}
1002
{
1000
BEHIND
1070
     0
1002
}
1002
{
1000
OTHER
1070
     0
1002
}
1002
{
1000
REACTOR
1002
}
  0
LINE
  5
3AA62
330
1F
100
AcDbEntity
  8
AM_11
100
AcDbLine
 10
71.32065640516154
 20
165.953545832952
 30
0.0
 11
51.32065640516154
 21
165.953545832952
 31
0.0
  0
LINE
  5
3AA63
330
1F
100
AcDbEntity
  8
AM_11
100
AcDbLine
 10
71.32065640516154
 20
171.953545832952
 30
0.0
 11
51.32065640516154
 21
171.953545832952
 31
0.0
  0
DIMENSION
  5
3AA64
330
1F
100
AcDbEntity
  8
AM_5
100
AcDbDimension
  2
*D7
 10
269.9997514945106
 20
253.3535458329519
 30
0.0
 11
260.99975149451
 21
256.4535458329519
 31
0.0
 70
    32
 71
     5
 42
18.00000000000125
  3
SYS$0
100
AcDbAlignedDimension
 13
251.9997514945094
 23
241.3535458329519
 33
0.0
 14
269.9997514945106
 24
241.3535458329517
 34
0.0
100
AcDbRotatedDimension
  0
DIMENSION
  5
3AA65
330
1F
100
AcDbEntity
  8
AM_5
100
AcDbDimension
  2
*D8
 10
278.9997514945093
 20
263.3535458329519
 30
0.0
 11
260.9997514945093
 21
266.4535458329519
 31
0.0
 70
    32
 71
     5
 42
35.99999999999989
  3
SYS$0
100
AcDbAlignedDimension
 13
242.9997514945094
 23
196.9535458329519
 33
0.0
 14
278.9997514945093
 24
196.9535458329519
 34
0.0
100
AcDbRotatedDimension
  0
DIMENSION
  5
3AA66
330
1F
100
AcDbEntity
  8
AM_5
100
AcDbDimension
  2
*D9
 10
285.4997514945093
 20
273.3535458329517
 30
0.0
 11
260.9997514945093
 21
276.4535458329517
 31
0.0
 70
    32
 71
     5
 42
48.99999999999988
  3
SYS$0
100
AcDbAlignedDimension
 13
236.4997514945094
 23
194.9535458329519
 33
0.0
 14
285.4997514945093
 24
194.9535458329519
 34
0.0
100
AcDbRotatedDimension
  0
LINE
  5
3AA69
330
1F
100
AcDbEntity
  8
AM_5
100
AcDbLine
 10
307.2164181611763
 20
173.3974708621343
 30
0.0
 11
296.4997514945098
 21
173.3974708621346
 31
0.0
  0
LINE
  5
3AA6A
330
1F
100
AcDbEntity
  8
AM_5
100
AcDbLine
 10
296.4997514945102
 20
173.3974708621344
 30
0.0
 11
283.3229311020403
 21
177.2044989639242
 31
0.0
  0
MTEXT
  5
3AA6B
330
1F
100
AcDbEntity
  8
AM_5
 62
     2
100
AcDbMText
 10
302.6080848278431
 20
176.6474708621346
 30
0.0
 40
3.5
 41
0.0
 71
     5
 72
     1
  1
2-\U+22055
 73
     1
 44
1.0
1001
ACAD
1000
MTEXTBEGIN
1070
    73
1070
     1
1070
    44
1040
1.0
1070
    74
1070
     0
1000
MTEXTEND
  0
LINE
  5
3AA6C
330
1F
100
AcDbEntity
  8
AM_5
100
AcDbLine
 10
276.5979850458809
 20
179.1474607601894
 30
0.0
 11
281.4015179431376
 21
177.7596309057143
 31
0.0
  0
INSERT
  5
3AA6D
330
1F
100
AcDbEntity
  8
AM_5
100
AcDbBlockReference
  2
GENDOT
 10
276.5979850458809
 20
179.1474607601894
 30
0.0
 41
2.000000000000039
 42
2.0
 43
2.0
 50
343.8850121840188
  0
INSERT
  5
3AA6E
330
1F
100
AcDbEntity
  8
AM_5
100
AcDbBlockReference
  2
GENDOT
 10
281.4015179431376
 20
177.7596309057143
 30
0.0
 41
2.000000000000055
 42
2.0
 43
2.0
 50
163.8850121840173
  0
DIMENSION
  5
3AA6F
330
1F
100
AcDbEntity
  8
AM_5
100
AcDbDimension
  2
*D10
 10
276.6129553213048
 20
189.6973226997453
 30
0.0
 11
312.4780848278438
 21
183.5001705866659
 31
0.0
 70
   163
  1
2-<>×7.5スロット
 71
     5
 42
4.999999999999857
  3
SYS$3
100
AcDbDiametricDimension
 15
281.3865476677136
 25
188.2097689661588
 35
0.0
 40
0.0
1001
ACAD
1000
DSTYLE
1002
{
1070
   173
1070
     1
1070
   342
1005
0
1070
   343
1005
A66
1070
   344
1005
3858E
1002
}
  0
LINE
  5
3AB66
330
1F
100
AcDbEntity
  8
AM_11
100
AcDbLine
 10
205.9997514945151
 20
165.9535458359805
 30
0.0
 11
243.5997514949252
 21
165.953545832952
 31
0.0
  0
LINE
  5
3AB67
330
1F
100
AcDbEntity
  8
AM_11
100
AcDbLine
 10
276.599751494997
 20
165.953545831052
 30
0.0
 11
310.9997514945151
 21
165.9535458290713
 31
0.0
  0
DIMENSION
  5
3AB68
330
1F
100
AcDbEntity
  8
AM_5
100
AcDbDimension
  2
*D11
 10
217.0235030062332
 20
197.9535458329519
 30
0.0
 11
213.9235030062331
 21
184.9535458329519
 31
0.0
 70
    32
 71
     5
 42
26.0
  3
SYS$0
100
AcDbAlignedDimension
 13
239.4997514945095
 23
171.9535458329519
 33
0.0
 14
239.4997514945095
 24
197.9535458329519
 34
0.0
 50
90.0
100
AcDbRotatedDimension
1001
ACAD
1000
DSTYLE
1002
{
1070
    75
1070
     1
1002
}
  0
DIMENSION
  5
3AB69
330
1F
100
AcDbEntity
  8
AM_5
100
AcDbDimension
  2
*D12
 10
227.0235030062332
 20
191.453545832952
 30
0.0
 11
223.9235030062332
 21
184.953545832952
 31
0.0
 70
    32
 71
     5
 42
13.00000000000011
  3
SYS$0
100
AcDbAlignedDimension
 13
237.4997514945094
 23
178.4535458329519
 33
0.0
 14
237.4997514945094
 24
191.453545832952
 34
0.0
 50
90.0
100
AcDbRotatedDimension
  0
DIMENSION
  5
3AB6A
330
1F
100
AcDbEntity
  8
AM_5
100
AcDbDimension
  2
*D13
 10
227.0235030062332
 20
178.4535458329519
 30
0.0
 11
227.0235030062332
 21
161.2396982096651
 31
0.0
 70
   160
 71
     5
 42
6.5
  3
SYS$0
100
AcDbAlignedDimension
 13
239.4997514945095
 23
171.9535458329519
 33
0.0
 14
237.4997514945094
 24
178.4535458329519
 34
0.0
 50
90.0
100
AcDbRotatedDimension
1001
ACAD
1000
DSTYLE
1002
{
1070
    75
1070
     1
1002
}
  0
LINE
  5
3AB6B
330
1F
100
AcDbEntity
  8
AM_11
100
AcDbLine
 10
205.9997514945151
 20
171.9535458370294
 30
0.0
 11
243.5997514949252
 21
171.9535458351524
 31
0.0
  0
LINE
  5
3AB6C
330
1F
100
AcDbEntity
  8
AM_11
100
AcDbLine
 10
276.599751494997
 20
171.9535458332524
 30
0.0
 11
310.9997514945151
 21
171.9535458312717
 31
0.0
  0
DIMENSION
  5
3AC0B
330
1F
100
AcDbEntity
  8
AM_5
100
AcDbDimension
  2
*D14
 10
217.023503006233
 20
141.9535458329522
 30
0.0
 11
213.923503006233
 21
153.9535458329562
 31
0.0
 70
    32
 71
     5
 42
24.00000000000785
  3
SYS$0
100
AcDbAlignedDimension
 13
243.4997514945077
 23
165.9535458329601
 33
0.0
 14
231.4997514945077
 24
141.9535458329522
 34
0.0
 50
90.0
100
AcDbRotatedDimension
1001
ACAD
1000
DSTYLE
1002
{
1070
    75
1070
     1
1002
}
  0
DIMENSION
  5
3AC3A
330
1F
100
AcDbEntity
  8
AM_5
100
AcDbDimension
  2
*D15
 10
217.0235030062328
 20
118.9535458329523
 30
0.0
 11
213.9235030062327
 21
130.4535458329523
 31
0.0
 70
    32
 71
     5
 42
23.0
  3
SYS$0
100
AcDbAlignedDimension
 13
231.4997514945077
 23
141.9535458329522
 33
0.0
 14
231.4997514945077
 24
118.9535458329523
 34
0.0
 50
90.0
100
AcDbRotatedDimension
  0
DIMENSION
  5
3ACA1
330
1F
100
AcDbEntity
  8
AM_5
100
AcDbDimension
  2
*D16
 10
41.32065640516154
 20
241.9535458329443
 30
0.0
 11
38.2206564051615
 21
206.9535458329482
 31
0.0
 70
    32
  1
71
 71
     5
 42
69.99999999999229
  3
SYS$0
100
AcDbAlignedDimension
 13
51.32065640516154
 23
171.953545832952
 33
0.0
 14
111.3206564051615
 24
241.9535458329443
 34
0.0
 50
90.0
100
AcDbRotatedDimension
1001
ACAD
1000
DSTYLE
1002
{
1070
    75
1070
     1
1002
}
  0
DIMENSION
  5
3ACA2
330
1F
100
AcDbEntity
  8
AM_5
100
AcDbDimension
  2
*D17
 10
41.32065640516131
 20
165.953545832952
 30
0.0
 11
34.39710832356306
 21
175.7270069743556
 31
0.0
 70
   160
  1
5～<>
 71
     5
 42
6.000000000000113
  3
SYS$0
100
AcDbAlignedDimension
 13
51.32065640516154
 23
171.9535458329521
 33
0.0
 14
51.32065640516154
 24
165.953545832952
 34
0.0
 50
90.0
100
AcDbRotatedDimension
1001
ACAD
1000
DSTYLE
1002
{
1070
   279
1070
     1
1002
}
  0
DIMENSION
  5
3ACA3
330
1F
100
AcDbEntity
  8
AM_5
100
AcDbDimension
  2
*D18
 10
41.32065640516154
 20
50.95354583294392
 30
0.0
 11
38.22065640516154
 21
108.4535458329479
 31
0.0
 70
    32
 71
     5
 42
115.0000000000081
  3
SYS$0
100
AcDbAlignedDimension
 13
51.32065640516154
 23
165.953545832952
 33
0.0
 14
71.32065640516154
 24
50.95354583294391
 34
0.0
 50
90.0
100
AcDbRotatedDimension
1001
ACAD
1000
DSTYLE
1002
{
1070
    75
1070
     1
1002
}
  0
LINE
  5
3AF8B
330
1F
100
AcDbEntity
  8
AM_5
100
AcDbLine
 10
309.2164181611685
 20
132.3879507647166
 30
0.0
 11
298.4997514945017
 21
132.3879507647166
 31
0.0
  0
LINE
  5
3AF8C
330
1F
100
AcDbEntity
  8
AM_5
100
AcDbLine
 10
298.4997514945021
 20
132.3879507647166
 30
0.0
 11
288.6714645629782
 21
139.3519072833408
 31
0.0
  0
MTEXT
  5
3AF8D
330
1F
100
AcDbEntity
  8
AM_5
 62
     2
100
AcDbMText
 10
304.608084827835
 20
135.6379507647166
 30
0.0
 40
3.5
 41
0.0
 71
     5
 72
     1
  1
4-\U+22055
 73
     1
 44
1.0
1001
ACAD
1000
MTEXTBEGIN
1070
    73
1070
     1
1070
    44
1040
1.0
1070
    74
1070
     0
1000
MTEXTEND
  0
LINE
  5
3AF8E
330
1F
100
AcDbEntity
  8
AM_5
100
AcDbLine
 10
282.9599109009129
 20
143.3989005827361
 30
0.0
 11
287.0395920881025
 21
140.508191083168
 31
0.0
  0
INSERT
  5
3AF8F
330
1F
100
AcDbEntity
  8
AM_5
100
AcDbBlockReference
  2
GENDOT
 10
282.9599109009129
 20
143.3989005827361
 30
0.0
 41
2.000000000000014
 42
2.0
 43
2.0
 50
324.6800403784991
  0
INSERT
  5
3AF90
330
1F
100
AcDbEntity
  8
AM_5
100
AcDbBlockReference
  2
GENDOT
 10
287.0395920881025
 20
140.508191083168
 30
0.0
 41
2.000000000000014
 42
2.0
 43
2.0
 50
144.6800403784991
  0
DIMENSION
  5
3B09C
330
1F
100
AcDbEntity
  8
AM_5
100
AcDbDimension
  2
*D19
 10
278.4997514945073
 20
38.95354583295197
 30
0.0
 11
260.9997514945073
 21
42.05354583295196
 31
0.0
 70
    32
 71
     5
 42
35.00000000000011
  3
SYS$0
100
AcDbAlignedDimension
 13
243.4997514945072
 23
50.95354583295199
 33
0.0
 14
278.4997514945073
 24
50.95354583295199
 34
0.0
 50
0.0000000000001132
100
AcDbRotatedDimension
  0
DIMENSION
  5
3B0B2
330
1F
100
AcDbEntity
  8
AM_5
100
AcDbDimension
  2
*D20
 10
284.9997514945077
 20
28.95354583295174
 30
0.0
 11
260.9997514945076
 21
32.05354583295174
 31
0.0
 70
    32
 71
     5
 42
48.00000000000011
  3
SYS$0
100
AcDbAlignedDimension
 13
236.9997514945076
 23
113.4535458329524
 33
0.0
 14
284.9997514945077
 24
113.4535458329524
 34
0.0
 50
0.0000000000001132
100
AcDbRotatedDimension
  0
DIMENSION
  5
3B0C8
330
1F
100
AcDbEntity
  8
AM_5
100
AcDbDimension
  2
*D21
 10
290.9997514945077
 20
18.95354583295149
 30
0.0
 11
260.9997514945074
 21
22.05354583295149
 31
0.0
 70
    32
 71
     5
 42
60.00000000000046
  3
SYS$0
100
AcDbAlignedDimension
 13
230.9997514945072
 23
118.7513917818822
 33
0.0
 14
290.9997514945077
 24
118.7513917818822
 34
0.0
 50
0.0000000000001132
100
AcDbRotatedDimension
  0
LINE
  5
3B0DE
330
1F
100
AcDbEntity
  8
AM_11
100
AcDbLine
 10
71.32065640516154
 20
50.95354583295199
 30
0.0
 11
71.32065640516154
 21
30.95354583295199
 31
0.0
  0
LINE
  5
3B0DF
330
1F
100
AcDbEntity
  8
AM_11
100
AcDbLine
 10
158.688698234082
 20
50.95354583295199
 30
0.0
 11
158.688698234082
 21
30.95354583295199
 31
0.0
  0
LINE
  5
3B0E0
330
1F
100
AcDbEntity
  8
AM_11
100
AcDbLine
 10
158.6886982340822
 20
165.953545832952
 30
0.0
 11
138.6886982340822
 21
165.953545832952
 31
0.0
  0
LINE
  5
3B105
330
1F
100
AcDbEntity
  8
AM_7
100
AcDbLine
 10
90.73488976174774
 20
50.11228674064795
 30
0.0
 11
114.6840477272582
 21
168.5354818747072
 31
0.0
1001
GENIUS_GENOBJ-N-CEN_13
1002
{
1000
OWNER
1000
GEN
1002
}
1001
GENIUS_GENODEF_13
1002
{
1000
HIER
1070
     0
1002
}
1002
{
1000
MANEDIT
1070
     0
1002
}
1002
{
1000
NOSEL
1070
     0
1002
}
1002
{
1000
BEHIND
1070
     0
1002
}
1002
{
1000
OTHER
1070
     0
1002
}
1002
{
1000
REACTOR
1002
}
1001
GENIUS_GENCEN_19
1002
{
1040
3.0
1002
}
  0
LINE
  5
3B106
330
1F
100
AcDbEntity
  8
AM_7
100
AcDbLine
 10
103.598281083844
 20
160.6942227824035
 30
0.0
 11
122.598281083844
 21
160.6942227824035
 31
0.0
1001
GENIUS_GENODEF_13
1002
{
1000
HIER
1070
     0
1002
}
1002
{
1000
MANEDIT
1070
     0
1002
}
1002
{
1000
NOSEL
1070
     0
1002
}
1002
{
1000
BEHIND
1070
     0
1002
}
1002
{
1000
OTHER
1070
     0
1002
}
1002
{
1000
REACTOR
1002
}
1001
GENIUS_GENOBJ-N-CEN_13
1002
{
1000
OWNER
1000
GEN
1002
}
  0
LINE
  5
3B107
330
1F
100
AcDbEntity
  8
AM_7
100
AcDbLine
 10
113.098281083844
 20
170.1942227824035
 30
0.0
 11
113.098281083844
 21
151.1942227824034
 31
0.0
1001
GENIUS_GENODEF_13
1002
{
1000
HIER
1070
     0
1002
}
1002
{
1000
MANEDIT
1070
     0
1002
}
1002
{
1000
NOSEL
1070
     0
1002
}
1002
{
1000
BEHIND
1070
     0
1002
}
1002
{
1000
OTHER
1070
     0
1002
}
1002
{
1000
REACTOR
1002
}
1001
GENIUS_GENOBJ-N-CEN_13
1002
{
1000
OWNER
1000
GEN
1002
}
  0
LINE
  5
3B108
330
1F
100
AcDbEntity
  8
AM_7
100
AcDbLine
 10
82.82065640516142
 20
57.9535458329517
 30
0.0
 11
101.8206564051614
 21
57.9535458329517
 31
0.0
1001
GENIUS_GENODEF_13
1002
{
1000
HIER
1070
     0
1002
}
1002
{
1000
MANEDIT
1070
     0
1002
}
1002
{
1000
NOSEL
1070
     0
1002
}
1002
{
1000
BEHIND
1070
     0
1002
}
1002
{
1000
OTHER
1070
     0
1002
}
1002
{
1000
REACTOR
1002
}
1001
GENIUS_GENOBJ-N-CEN_13
1002
{
1000
OWNER
1000
GEN
1002
}
  0
LINE
  5
3B109
330
1F
100
AcDbEntity
  8
AM_7
100
AcDbLine
 10
92.32065640516143
 20
67.45354583295171
 30
0.0
 11
92.32065640516143
 21
48.4535458329517
 31
0.0
1001
GENIUS_GENODEF_13
1002
{
1000
HIER
1070
     0
1002
}
1002
{
1000
MANEDIT
1070
     0
1002
}
1002
{
1000
NOSEL
1070
     0
1002
}
1002
{
1000
BEHIND
1070
     0
1002
}
1002
{
1000
OTHER
1070
     0
1002
}
1002
{
1000
REACTOR
1002
}
1001
GENIUS_GENOBJ-N-CEN_13
1002
{
1000
OWNER
1000
GEN
1002
}
  0
LINE
  5
3B190
330
1F
100
AcDbEntity
  8
AM_7
 48
0.3
100
AcDbLine
 10
68.32065640516154
 20
141.9535458329522
 30
0.0
 11
76.32065640516154
 21
141.9535458329522
 31
0.0
1001
GENIUS_GENODEF_13
1002
{
1000
HIER
1070
     0
1002
}
1002
{
1000
MANEDIT
1070
     0
1002
}
1002
{
1000
NOSEL
1070
     0
1002
}
1002
{
1000
BEHIND
1070
     0
1002
}
1002
{
1000
REACTOR
1002
}
1001
GENIUS_GENOBJ-N-CEN_13
1002
{
1000
OWNER
1000
GEN
1002
}
  0
LINE
  5
3B1B8
330
1F
100
AcDbEntity
  8
AM_11
100
AcDbLine
 10
71.32065640516154
 20
171.953545832952
 30
0.0
 11
71.32065640516154
 21
248.990539157697
 31
0.0
  0
DIMENSION
  5
3B1E1
330
1F
100
AcDbEntity
  8
AM_5
100
AcDbDimension
  2
*D22
 10
129.8206564051615
 20
263.3535458329516
 30
0.0
 11
100.5706564051615
 21
266.4535458329516
 31
0.0
 70
    32
  1
60
 71
     5
 42
58.5
  3
SYS$0
100
AcDbAlignedDimension
 13
71.32065640516154
 23
248.990539157697
 33
0.0
 14
129.8206564051615
 24
223.4535458329522
 34
0.0
100
AcDbRotatedDimension
  0
LINE
  5
3B23D
330
1F
100
AcDbEntity
  8
AM_0
100
AcDbLine
 10
310.4999999999995
 20
209.7062944517859
 30
0.0
 11
408.4999999999994
 21
209.7062944517857
 31
0.0
  0
LINE
  5
3B23E
330
1F
100
AcDbEntity
  8
AM_4
100
AcDbLine
 10
310.4999999999998
 20
217.1031472514676
 30
0.0
 11
408.4999999999998
 21
217.1031472514676
 31
0.0
  0
TEXT
  5
3B23F
330
1F
100
AcDbEntity
  8
AM_6
100
AcDbText
 10
316.157
 20
211.8047208516264
 30
0.0
 40
3.2
  1
備　考
 41
0.85537027
100
AcDbText
  0
LINE
  5
3B241
330
1F
100
AcDbEntity
  8
AM_4
100
AcDbLine
 10
310.4999999999999
 20
225.1031472514676
 30
0.0
 11
408.4999999999999
 21
225.1031472514676
 31
0.0
  0
TEXT
  5
3B242
330
1F
100
AcDbEntity
  8
AM_6
100
AcDbText
 10
313.0707629498271
 20
219.8047208516264
 30
0.0
 40
3.2
  1
セットビス
 41
0.85537027
100
AcDbText
  0
TEXT
  5
3B243
330
1F
100
AcDbEntity
  8
AM_6
100
AcDbText
 10
333.3569999999999
 20
219.5031472514672
 30
0.0
 40
3.2
  1
M4×20　ナベ子ネジ　＋　：8本
 41
0.84741102
100
AcDbText
  0
CIRCLE
  5
3B244
330
1F
100
AcDbEntity
  8
AM_2
100
AcDbCircle
 10
371.5049157791365
 20
221.1208659655906
 30
0.0
 40
2.5
  0
ENDSEC
  0
SECTION
  2
OBJECTS
  0
DICTIONARY
  5
C
330
0
100
AcDbDictionary
281
     1
  3
ACAD_2007HEADERVARS_RT
350
3B274
  3
ACAD_BGPLOT_KEY
350
AB06
  3
ACAD_COLOR
350
A91D
  3
ACAD_GROUP
350
D
  3
ACAD_LAYOUT
350
1A
  3
ACAD_MATERIAL
350
A91C
  3
ACAD_MLINESTYLE
350
17
  3
ACAD_PLOTSETTINGS
350
19
  3
ACAD_PLOTSTYLENAME
350
E
  3
ACAD_TABLESTYLE
350
AAB9
  3
ACAD_VISUALSTYLE
350
B0F1
  3
AcAsAppObject
350
3DA1
  3
ACASGREF_MASTER
350
3DE9
  3
AcDbVariableDictionary
350
34
  3
AcmDictionary
350
47
  3
AD_GREF_MODULE
350
3DEA
  3
AD_MAPI_MODULE
350
3E06
  3
AMG
350
2B
  3
AMGSNAPSETTINGS
350
7D
  3
ASE_INDEX_DICTIONARY
350
B331
  3
DWGPROPS
350
3B273
  3
MAPISURF_MODULE
350
3DEB
  0
DICTIONARY
  5
3F95
330
2
100
AcDbDictionary
280
     1
281
     1
  3
ACAD_LAYERFILTERS
360
B466
  3
ACAD_LAYERSTATES
360
3F96
  3
ACLYDICTIONARY
360
B465
  3
AMLAYER_GROUPCOLORS
360
AAB4
  0
DICTIONARY
  5
38801
330
38800
100
AcDbDictionary
280
     1
281
     1
  3
ADSK_XREC_LAYER_RECONCILED
360
38802
  0
DICTIONARY
  5
38804
330
38803
100
AcDbDictionary
280
     1
281
     1
  3
ADSK_XREC_LAYER_RECONCILED
360
38805
  0
DICTIONARY
  5
8A
330
1F
100
AcDbDictionary
280
     1
281
     1
  3
ACAD_SORTENTS
360
B1BA
  0
DICTIONARY
  5
3B274
102
{ACAD_REACTORS
330
C
102
}
330
C
100
AcDbDictionary
281
     1
  3
DIMARCSYM
350
3B275
  0
DICTIONARY
  5
AB06
102
{ACAD_REACTORS
330
C
102
}
330
C
100
AcDbDictionary
280
     1
281
     1
  0
DICTIONARY
  5
A91D
102
{ACAD_REACTORS
330
C
102
}
330
C
100
AcDbDictionary
281
     1
  0
DICTIONARY
  5
D
102
{ACAD_REACTORS
330
C
102
}
330
C
100
AcDbDictionary
281
     1
  0
DICTIONARY
  5
1A
102
{ACAD_REACTORS
330
C
102
}
330
C
100
AcDbDictionary
281
     1
  3
Model
350
22
  3
ﾚｲｱｳﾄ1
350
1E
  3
ﾚｲｱｳﾄ2
350
26
  0
DICTIONARY
  5
A91C
102
{ACAD_REACTORS
330
C
102
}
330
C
100
AcDbDictionary
281
     1
  3
ByBlock
350
B0EF
  3
ByLayer
350
B0EE
  3
Global
350
B0F0
  0
DICTIONARY
  5
17
102
{ACAD_REACTORS
330
C
102
}
330
C
100
AcDbDictionary
281
     1
  3
Standard
350
18
  0
DICTIONARY
  5
19
102
{ACAD_REACTORS
330
C
102
}
330
C
100
AcDbDictionary
281
     1
  0
ACDBDICTIONARYWDFLT
  5
E
102
{ACAD_REACTORS
330
C
102
}
330
C
100
AcDbDictionary
281
     1
  3
Normal
350
F
100
AcDbDictionaryWithDefault
340
F
  0
DICTIONARY
  5
AAB9
102
{ACAD_REACTORS
330
C
102
}
330
C
100
AcDbDictionary
281
     1
  3
Standard
350
AABA
  0
DICTIONARY
  5
B0F1
102
{ACAD_REACTORS
330
C
102
}
330
C
100
AcDbDictionary
281
     1
  3
2dWireframe
350
B0F7
  3
3D Hidden
350
B0F9
  3
3dWireframe
350
B0F8
  3
Basic
350
B0F6
  3
Brighten
350
B0FD
  3
ColorChange
350
B101
  3
Conceptual
350
B0FA
  3
Dim
350
B0FC
  3
Facepattern
350
B100
  3
Flat
350
B0F2
  3
FlatWithEdges
350
B0F3
  3
Gouraud
350
B0F4
  3
GouraudWithEdges
350
B0F5
  3
Linepattern
350
B0FF
  3
Realistic
350
B0FB
  3
Thicken
350
B0FE
  0
ACAD_PROXY_OBJECT
  5
3DA1
102
{ACAD_REACTORS
330
C
102
}
330
C
100
AcDbProxyObject
 90
      499
 91
      576
 95
   917527
 70
     0
 93
       10
310
407F
 94
        0
1001
ACAD
1000
AcRTDxfName
1000
ASAPP
  0
ACAD_PROXY_OBJECT
  5
3DE9
102
{ACAD_REACTORS
330
C
102
}
330
C
100
AcDbProxyObject
 90
      499
 91
      581
 95
   917527
 70
     0
 93
       34
310
010000407F
 94
        0
1001
ACAD
1000
AcRTDxfName
1000
ACASGREFMASTER
  0
DICTIONARY
  5
34
102
{ACAD_REACTORS
330
C
102
}
330
C
100
AcDbDictionary
281
     1
  3
CTABLESTYLE
350
AAF3
  3
DIMASSOC
350
A10C
  3
FIELDEVAL
350
AB07
  3
INDEXCTL
350
35
  3
SORTENTS
350
194C
  0
DICTIONARY
  5
47
102
{ACAD_REACTORS
330
C
102
}
330
C
100
AcDbDictionary
281
     1
  3
AcmBOM
350
7E8
  3
AcmStdDictionary
350
4C
  3
AMDTSECTSYM_ARROWCOLOR
350
A929
  0
ACAD_PROXY_OBJECT
  5
3DEA
102
{ACAD_REACTORS
330
C
102
}
330
C
100
AcDbProxyObject
 90
      499
 91
      582
 95
   917527
 70
     0
 93
      114
310
00000043800000000000000000003F
 94
        0
1001
ACAD
1000
AcRTDxfName
1000
ACADGREFMODULE
  0
ACAD_PROXY_OBJECT
  5
3E06
102
{ACAD_REACTORS
330
C
102
}
330
C
100
AcDbProxyObject
 90
      499
 91
      594
 95
   917527
 70
     0
 93
       34
310
05000044FF
 94
        0
1001
ACAD
1000
AcRTDxfName
1000
MAPIADMODULE
  0
DICTIONARY
  5
2B
102
{ACAD_REACTORS
330
C
102
}
330
C
100
AcDbDictionary
281
     1
  0
DICTIONARY
  5
7D
102
{ACAD_REACTORS
330
C
102
}
330
C
100
AcDbDictionary
281
     1
  0
DICTIONARY
  5
B331
102
{ACAD_REACTORS
330
C
102
}
330
C
100
AcDbDictionary
281
     1
  3
ASEBlockHierarchyIndexRecord
350
B332
1001
DCO15
1040
1594111214.218
  0
XRECORD
  5
3B273
102
{ACAD_REACTORS
330
C
102
}
330
C
100
AcDbXrecord
280
     1
  1
DWGPROPS COOKIE
  2

  3

  4

  6

  7

  8
Administrator
  9

300
AmdtFileType=84
301
=
302
=
303
=
304
=
305
=
306
=
307
=
308
=
309
=
 40
0.9431409027777776
 41
2456027.598682176
 42
2456267.730106146
  1

 90
        1
  0
ACAD_PROXY_OBJECT
  5
3DEB
102
{ACAD_REACTORS
330
C
102
}
330
C
100
AcDbProxyObject
 90
      499
 91
      583
 95
   917527
 70
     0
 93
        8
310
047E
 94
        0
1001
ACAD
1000
AcRTDxfName
1000
AMDTMAPISURFMOUDULE
  0
DICTIONARY
  5
B466
102
{ACAD_REACTORS
330
3F95
102
}
330
3F95
100
AcDbDictionary
281
     1
  0
DICTIONARY
  5
3F96
102
{ACAD_REACTORS
330
3F95
102
}
330
3F95
100
AcDbDictionary
281
     1
  3
20011210
350
3FB7
  0
DICTIONARY
  5
B465
102
{ACAD_REACTORS
330
3F95
102
}
330
3F95
100
AcDbDictionary
281
     1
1001
ACAD
1000
<All
  0
DICTIONARY
  5
AAB4
102
{ACAD_REACTORS
330
3F95
102
}
330
3F95
100
AcDbDictionary
280
     1
281
     1
  0
XRECORD
  5
38802
102
{ACAD_REACTORS
330
38801
102
}
330
38801
100
AcDbXrecord
280
     1
290
     1
  0
XRECORD
  5
38805
102
{ACAD_REACTORS
330
38804
102
}
330
38804
100
AcDbXrecord
280
     1
290
     1
  0
SORTENTSTABLE
  5
B1BA
102
{ACAD_REACTORS
330
8A
102
}
330
8A
100
AcDbSortentsTable
330
1F
331
37F2D
  5
37F1D
331
25143
  5
25143
331
16B8D
  5
16B8C
331
39184
  5
39184
331
39195
  5
39195
331
25149
  5
25149
331
3918A
  5
3918A
331
37F2E
  5
37F2D
331
16B8E
  5
16B8D
331
39185
  5
39185
331
2514A
  5
2514A
331
3918B
  5
3918B
331
3917E
  5
3917E
331
39180
  5
39180
331
37F2F
  5
37F2E
331
39191
  5
39191
331
25145
  5
25145
331
37551
  5
37551
331
39186
  5
39186
331
2514B
  5
2514B
331
3918C
  5
3918C
331
3917F
  5
3917F
331
39181
  5
39181
331
25146
  5
25146
331
39187
  5
39187
331
2514C
  5
2514C
331
3918D
  5
3918D
331
16B8B
  5
16B7B
331
25141
  5
25141
331
39182
  5
39182
331
39193
  5
39193
331
25147
  5
25147
331
39188
  5
39188
331
2514D
  5
2514D
331
37F31
  5
37F30
331
16B8C
  5
16B8B
331
25142
  5
25142
331
39183
  5
39183
331
39194
  5
39194
331
25148
  5
25148
331
39189
  5
39189
331
375E2
  5
375E2
  0
XRECORD
  5
3B275
102
{ACAD_REACTORS
330
3B274
102
}
330
3B274
100
AcDbXrecord
280
     1
 70
     1
  0
LAYOUT
  5
22
102
{ACAD_XDICTIONARY
360
3B278
102
}
102
{ACAD_REACTORS
330
1A
102
}
330
1A
100
AcDbPlotSettings
  1

  2
Adobe PDF
  4
A3
  6
AM_VIEW1
 40
3.174999952316284
 41
3.174999952316284
 42
3.17498779296875
 43
3.17498779296875
 44
297.0318298339844
 45
420.1583251953125
 46
-3.176647388051378
 47
-3.106585095906723
 48
214.3704939521119
 49
367.5855324241176
140
275.6727856380065
141
407.629191407817
142
1.0
143
1.0
 70
  3748
 72
     1
 73
     1
 74
     1
  7
monochrome.ctb
 75
     0
147
0.9786109655471685
148
0.0131603366563695
149
0.0202542941223101
100
AcDbLayout
  1
Model
 70
     1
 71
     0
 10
0.0
 20
0.0
 11
12.0
 21
9.0
 12
0.0
 22
0.0
 32
0.0
 14
0.0
 24
0.0
 34
0.0
 15
0.0
 25
0.0
 35
0.0
146
0.0
 13
0.0
 23
0.0
 33
0.0
 16
1.0
 26
0.0
 36
0.0
 17
0.0
 27
1.0
 37
0.0
 76
     0
330
1F
331
B0EC
1001
ACAD_PSEXT
1000
Adobe PDF
1000
Adobe PDF Converter
1000
My Documents\*.pdf
1000

1070
     0
  0
LAYOUT
  5
1E
102
{ACAD_XDICTIONARY
360
3B276
102
}
102
{ACAD_REACTORS
330
1A
102
}
330
1A
100
AcDbPlotSettings
  1

  2
\\ML370\XEROX
  4
A4
  6

 40
3.174999952316284
 41
3.174999952316284
 42
3.175003051757812
 43
3.17498779296875
 44
209.8674926757813
 45
296.6719970703125
 46
0.0
 47
0.0
 48
0.0
 49
0.0
140
0.0
141
0.0
142
1.0
143
1.0
 70
   688
 72
     1
 73
     1
 74
     5
  7
monochrome.ctb
 75
    16
147
1.0
148
0.0
149
0.0
100
AcDbLayout
  1
ﾚｲｱｳﾄ1
 70
     1
 71
     1
 10
-3.17498779296875
 20
-3.174999952316284
 11
293.4970092773438
 21
206.692492723465
 12
0.0
 22
0.0
 32
0.0
 14
1.000000000000000E+20
 24
1.000000000000000E+20
 34
1.000000000000000E+20
 15
-1.000000000000000E+20
 25
-1.000000000000000E+20
 35
-1.000000000000000E+20
146
0.0
 13
0.0
 23
0.0
 33
0.0
 16
1.0
 26
0.0
 36
0.0
 17
0.0
 27
1.0
 37
0.0
 76
     0
330
1B
  0
LAYOUT
  5
26
102
{ACAD_XDICTIONARY
360
3B27A
102
}
102
{ACAD_REACTORS
330
1A
102
}
330
1A
100
AcDbPlotSettings
  1

  2
\\ML370\XEROX
  4

  6

 40
0.0
 41
0.0
 42
0.0
 43
0.0
 44
0.0
 45
0.0
 46
0.0
 47
0.0
 48
0.0
 49
0.0
140
0.0
141
0.0
142
1.0
143
1.0
 70
   688
 72
     0
 73
     0
 74
     5
  7
monochrome.ctb
 75
    16
147
1.0
148
0.0
149
0.0
100
AcDbLayout
  1
ﾚｲｱｳﾄ2
 70
     1
 71
     2
 10
0.0
 20
0.0
 11
12.0
 21
9.0
 12
0.0
 22
0.0
 32
0.0
 14
0.0
 24
0.0
 34
0.0
 15
0.0
 25
0.0
 35
0.0
146
0.0
 13
0.0
 23
0.0
 33
0.0
 16
1.0
 26
0.0
 36
0.0
 17
0.0
 27
1.0
 37
0.0
 76
     0
330
23
  0
MATERIAL
  5
B0EF
102
{ACAD_XDICTIONARY
360
3B280
102
}
102
{ACAD_REACTORS
330
A91C
102
}
330
A91C
100
AcDbMaterial
  1
ByBlock
  0
MATERIAL
  5
B0EE
102
{ACAD_XDICTIONARY
360
3B27E
102
}
102
{ACAD_REACTORS
330
A91C
102
}
330
A91C
100
AcDbMaterial
  1
ByLayer
  0
MATERIAL
  5
B0F0
102
{ACAD_XDICTIONARY
360
3B282
102
}
102
{ACAD_REACTORS
330
A91C
102
}
330
A91C
100
AcDbMaterial
  1
Global
  0
MLINESTYLE
  5
18
102
{ACAD_REACTORS
330
17
102
}
330
17
100
AcDbMlineStyle
  2
STANDARD
 70
     0
  3

 62
   256
 51
90.0
 52
90.0
 71
     2
 49
0.5
 62
   256
  6
BYLAYER
 49
-0.5
 62
   256
  6
BYLAYER
  0
ACDBPLACEHOLDER
  5
F
102
{ACAD_REACTORS
330
E
102
}
330
E
  0
TABLESTYLE
  5
AABA
102
{ACAD_XDICTIONARY
360
3B27C
102
}
102
{ACAD_REACTORS
330
AAB9
102
}
330
AAB9
100
AcDbTableStyle
  3
Standard
 70
     0
 71
     0
 40
1.5
 41
1.5
280
     0
281
     0
  7
STANDARD
140
4.5
170
     2
 62
     0
 63
     7
283
     0
274
    -2
284
     1
 64
     0
275
    -2
285
     1
 65
     0
276
    -2
286
     1
 66
     0
277
    -2
287
     1
 67
     0
278
    -2
288
     1
 68
     0
279
    -2
289
     1
 69
     0
  7
STANDARD
140
6.0
170
     5
 62
     0
 63
     7
283
     0
274
    -2
284
     1
 64
     0
275
    -2
285
     1
 65
     0
276
    -2
286
     1
 66
     0
277
    -2
287
     1
 67
     0
278
    -2
288
     1
 68
     0
279
    -2
289
     1
 69
     0
  7
STANDARD
140
4.5
170
     5
 62
     0
 63
     7
283
     0
274
    -2
284
     1
 64
     0
275
    -2
285
     1
 65
     0
276
    -2
286
     1
 66
     0
277
    -2
287
     1
 67
     0
278
    -2
288
     1
 68
     0
279
    -2
289
     1
 69
     0
  0
VISUALSTYLE
  5
B0F7
102
{ACAD_REACTORS
330
B0F1
102
}
330
B0F1
100
AcDbVisualStyle
  2
2dWireframe
 70
     4
 71
     0
 72
     2
 73
     0
 90
        0
 40
-0.6
 41
-30.0
 62
     5
 63
     7
 74
     1
 91
        4
 64
     7
 65
   257
 75
     1
175
     1
 42
1.0
 92
        0
 66
   257
 43
1.0
 76
     1
 77
     6
 78
     2
 67
     7
 79
     5
170
     0
171
     0
290
     0
174
     0
 93
        1
 44
0.0
173
     0
291
     0
 45
0.0
1001
ACAD
1000
AcDbSavedByObjectVersion
1070
     0
  0
VISUALSTYLE
  5
B0F9
102
{ACAD_REACTORS
330
B0F1
102
}
330
B0F1
100
AcDbVisualStyle
  2
3D Hidden
 70
     6
 71
     1
 72
     2
 73
     2
 90
        0
 40
-0.6
 41
-30.0
 62
     5
 63
     7
 74
     2
 91
        2
 64
     7
 65
   257
 75
     2
175
     1
 42
40.0
 92
        0
 66
   257
 43
1.0
 76
     1
 77
     6
 78
     2
 67
     7
 79
     3
170
     0
171
     0
290
     0
174
     0
 93
        1
 44
0.0
173
     0
291
     0
 45
0.0
1001
ACAD
1000
AcDbSavedByObjectVersion
1070
     0
  0
VISUALSTYLE
  5
B0F8
102
{ACAD_REACTORS
330
B0F1
102
}
330
B0F1
100
AcDbVisualStyle
  2
3dWireframe
 70
     5
 71
     0
 72
     2
 73
     0
 90
        0
 40
-0.6
 41
-30.0
 62
     5
 63
     7
 74
     1
 91
        4
 64
     7
 65
   257
 75
     1
175
     1
 42
1.0
 92
        0
 66
   257
 43
1.0
 76
     1
 77
     6
 78
     2
 67
     7
 79
     5
170
     0
171
     0
290
     0
174
     0
 93
        1
 44
0.0
173
     0
291
     0
 45
0.0
1001
ACAD
1000
AcDbSavedByObjectVersion
1070
     0
  0
VISUALSTYLE
  5
B0F6
102
{ACAD_REACTORS
330
B0F1
102
}
330
B0F1
100
AcDbVisualStyle
  2
Basic
 70
     7
 71
     1
 72
     0
 73
     1
 90
        0
 40
-0.6
 41
-30.0
 62
     5
 63
     7
 74
     0
 91
        4
 64
     7
 65
   257
 75
     1
175
     1
 42
1.0
 92
        8
 66
     7
 43
1.0
 76
     1
 77
     6
 78
     2
 67
     7
 79
     5
170
     0
171
     0
290
     0
174
     0
 93
        1
 44
0.0
173
     0
291
     1
 45
0.0
1001
ACAD
1000
AcDbSavedByObjectVersion
1070
     0
  0
VISUALSTYLE
  5
B0FD
102
{ACAD_REACTORS
330
B0F1
102
}
330
B0F1
100
AcDbVisualStyle
  2
Brighten
 70
    12
 71
     2
 72
     2
 73
     0
 90
        0
 40
-0.6
 41
-30.0
 62
     5
 63
     7
 74
     1
 91
        4
 64
     7
 65
   257
 75
     1
175
     1
 42
1.0
 92
        8
 66
     7
 43
1.0
 76
     1
 77
     6
 78
     2
 67
     7
 79
     5
170
     0
171
     0
290
     0
174
     0
 93
        1
 44
50.0
173
     0
291
     1
 45
0.0
1001
ACAD
1000
AcDbSavedByObjectVersion
1070
     0
  0
VISUALSTYLE
  5
B101
102
{ACAD_REACTORS
330
B0F1
102
}
330
B0F1
100
AcDbVisualStyle
  2
ColorChange
 70
    16
 71
     2
 72
     2
 73
     3
 90
        0
 40
-0.6
 41
-30.0
 62
     5
 63
     8
 74
     1
 91
        4
 64
     7
 65
   257
 75
     1
175
     1
 42
1.0
 92
        8
 66
     8
 43
1.0
 76
     1
 77
     6
 78
     2
 67
     7
 79
     5
170
     0
171
     0
290
     0
174
     0
 93
        1
 44
0.0
173
     0
291
     1
 45
0.0
1001
ACAD
1000
AcDbSavedByObjectVersion
1070
     0
  0
VISUALSTYLE
  5
B0FA
102
{ACAD_REACTORS
330
B0F1
102
}
330
B0F1
100
AcDbVisualStyle
  2
Conceptual
 70
     9
 71
     3
 72
     2
 73
     0
 90
        0
 40
-0.6
 41
-30.0
 62
     5
 63
     7
 74
     2
 91
        2
 64
     7
 65
   257
 75
     1
175
     1
 42
40.0
 92
        8
 66
     7
 43
1.0
 76
     1
 77
     6
 78
     2
 67
     7
 79
     3
170
     0
171
     0
290
     0
174
     0
 93
        1
 44
0.0
173
     0
291
     0
 45
0.0
1001
ACAD
1000
AcDbSavedByObjectVersion
1070
     0
  0
VISUALSTYLE
  5
B0FC
102
{ACAD_REACTORS
330
B0F1
102
}
330
B0F1
100
AcDbVisualStyle
  2
Dim
 70
    11
 71
     2
 72
     2
 73
     0
 90
        0
 40
-0.6
 41
-30.0
 62
     5
 63
     7
 74
     1
 91
        4
 64
     7
 65
   257
 75
     1
175
     1
 42
1.0
 92
        8
 66
     7
 43
1.0
 76
     1
 77
     6
 78
     2
 67
     7
 79
     5
170
     0
171
     0
290
     0
174
     0
 93
        1
 44
-50.0
173
     0
291
     1
 45
0.0
1001
ACAD
1000
AcDbSavedByObjectVersion
1070
     0
  0
VISUALSTYLE
  5
B100
102
{ACAD_REACTORS
330
B0F1
102
}
330
B0F1
100
AcDbVisualStyle
  2
Facepattern
 70
    15
 71
     2
 72
     2
 73
     0
 90
        0
 40
-0.6
 41
-30.0
 62
     5
 63
     7
 74
     1
 91
        4
 64
     7
 65
   257
 75
     1
175
     1
 42
1.0
 92
        8
 66
     7
 43
1.0
 76
     1
 77
     6
 78
     2
 67
     7
 79
     5
170
     0
171
     0
290
     0
174
     0
 93
        1
 44
0.0
173
     0
291
     1
 45
0.0
1001
ACAD
1000
AcDbSavedByObjectVersion
1070
     0
  0
VISUALSTYLE
  5
B0F2
102
{ACAD_REACTORS
330
B0F1
102
}
330
B0F1
100
AcDbVisualStyle
  2
Flat
 70
     0
 71
     2
 72
     1
 73
     1
 90
        2
 40
-0.6
 41
30.0
 62
     5
 63
     7
 74
     0
 91
        4
 64
     7
 65
   257
 75
     1
175
     1
 42
1.0
 92
        8
 66
     7
 43
1.0
 76
     1
 77
     6
 78
     2
 67
     7
 79
     5
170
     0
171
     0
290
     0
174
     0
 93
       13
 44
0.0
173
     0
291
     1
 45
0.0
1001
ACAD
1000
AcDbSavedByObjectVersion
1070
     0
  0
VISUALSTYLE
  5
B0F3
102
{ACAD_REACTORS
330
B0F1
102
}
330
B0F1
100
AcDbVisualStyle
  2
FlatWithEdges
 70
     1
 71
     2
 72
     1
 73
     1
 90
        2
 40
-0.6
 41
30.0
 62
     5
 63
     7
 74
     1
 91
        4
 64
     7
 65
   257
 75
     1
175
     1
 42
1.0
 92
        0
 66
   257
 43
1.0
 76
     1
 77
     6
 78
     2
 67
     7
 79
     5
170
     0
171
     0
290
     0
174
     0
 93
       13
 44
0.0
173
     0
291
     1
 45
0.0
1001
ACAD
1000
AcDbSavedByObjectVersion
1070
     0
  0
VISUALSTYLE
  5
B0F4
102
{ACAD_REACTORS
330
B0F1
102
}
330
B0F1
100
AcDbVisualStyle
  2
Gouraud
 70
     2
 71
     2
 72
     2
 73
     1
 90
        2
 40
-0.6
 41
30.0
 62
     5
 63
     7
 74
     0
 91
        4
 64
     7
 65
   257
 75
     1
175
     1
 42
1.0
 92
        0
 66
     7
 43
1.0
 76
     1
 77
     6
 78
     2
 67
     7
 79
     5
170
     0
171
     0
290
     0
174
     0
 93
       13
 44
0.0
173
     0
291
     1
 45
0.0
1001
ACAD
1000
AcDbSavedByObjectVersion
1070
     0
  0
VISUALSTYLE
  5
B0F5
102
{ACAD_REACTORS
330
B0F1
102
}
330
B0F1
100
AcDbVisualStyle
  2
GouraudWithEdges
 70
     3
 71
     2
 72
     2
 73
     1
 90
        2
 40
-0.6
 41
30.0
 62
     5
 63
     7
 74
     1
 91
        4
 64
     7
 65
   257
 75
     1
175
     1
 42
1.0
 92
        0
 66
   257
 43
1.0
 76
     1
 77
     6
 78
     2
 67
     7
 79
     5
170
     0
171
     0
290
     0
174
     0
 93
       13
 44
0.0
173
     0
291
     1
 45
0.0
1001
ACAD
1000
AcDbSavedByObjectVersion
1070
     0
  0
VISUALSTYLE
  5
B0FF
102
{ACAD_REACTORS
330
B0F1
102
}
330
B0F1
100
AcDbVisualStyle
  2
Linepattern
 70
    14
 71
     2
 72
     2
 73
     0
 90
        0
 40
-0.6
 41
-30.0
 62
     5
 63
     7
 74
     1
 91
        4
 64
     7
 65
   257
 75
     7
175
     7
 42
1.0
 92
        8
 66
     7
 43
1.0
 76
     1
 77
     6
 78
     2
 67
     7
 79
     5
170
     0
171
     0
290
     0
174
     0
 93
        1
 44
0.0
173
     0
291
     1
 45
0.0
1001
ACAD
1000
AcDbSavedByObjectVersion
1070
     0
  0
VISUALSTYLE
  5
B0FB
102
{ACAD_REACTORS
330
B0F1
102
}
330
B0F1
100
AcDbVisualStyle
  2
Realistic
 70
     8
 71
     2
 72
     2
 73
     0
 90
        0
 40
-0.6
 41
-30.0
 62
     5
 63
     7
 74
     1
 91
        0
 64
     7
 65
   257
 75
     1
175
     1
 42
1.0
 92
        8
 66
     8
 43
1.0
 76
     1
 77
     6
 78
     2
 67
     7
 79
     5
170
     0
171
     0
290
     0
174
     0
 93
       13
 44
0.0
173
     0
291
     0
 45
0.0
1001
ACAD
1000
AcDbSavedByObjectVersion
1070
     0
  0
VISUALSTYLE
  5
B0FE
102
{ACAD_REACTORS
330
B0F1
102
}
330
B0F1
100
AcDbVisualStyle
  2
Thicken
 70
    13
 71
     2
 72
     2
 73
     0
 90
        0
 40
-0.6
 41
-30.0
 62
     5
 63
     7
 74
     1
 91
        4
 64
     7
 65
   257
 75
     1
175
     1
 42
1.0
 92
       12
 66
     7
 43
1.0
 76
     1
 77
     6
 78
     2
 67
     7
 79
     5
170
     0
171
     0
290
     0
174
     0
 93
        1
 44
0.0
173
     0
291
     1
 45
0.0
1001
ACAD
1000
AcDbSavedByObjectVersion
1070
     0
  0
DICTIONARYVAR
  5
AAF3
102
{ACAD_REACTORS
330
34
102
}
330
34
100
DictionaryVariables
280
     0
  1
STANDARD
  0
DICTIONARYVAR
  5
A10C
102
{ACAD_REACTORS
330
34
102
}
330
34
100
DictionaryVariables
280
     0
  1
1
  0
DICTIONARYVAR
  5
AB07
102
{ACAD_REACTORS
330
34
102
}
330
34
100
DictionaryVariables
280
     0
  1
4
  0
DICTIONARYVAR
  5
35
102
{ACAD_REACTORS
330
34
102
}
330
34
100
DictionaryVariables
280
     0
  1
0
  0
DICTIONARYVAR
  5
194C
102
{ACAD_REACTORS
330
34
102
}
330
34
100
DictionaryVariables
280
     0
  1
96
  0
DICTIONARY
  5
7E8
102
{ACAD_REACTORS
330
47
102
}
330
47
100
AcDbDictionary
281
     1
  0
DICTIONARY
  5
4C
102
{ACAD_REACTORS
330
47
102
}
330
47
100
AcDbDictionary
281
     1
  0
XRECORD
  5
A929
102
{ACAD_REACTORS
330
47
102
}
330
47
100
AcDbXrecord
280
     1
 90
-1023410169
  0
XRECORD
  5
B332
102
{ACAD_REACTORS
330
B331
102
}
330
B331
100
AcDbXrecord
280
     1
  0
XRECORD
  5
3FB7
102
{ACAD_REACTORS
330
3F96
102
}
330
3F96
100
AcDbXrecord
280
     1
 91
        3
330
0
 90
        8
 62
     7
370
    40
331
16
  1
Color_7
330
0
 90
        0
 62
    14
370
    -3
331
16
  1
Color_14
330
0
 90
        8
 62
     7
370
    20
331
16
  1
Color_7
330
6D1
 90
        0
 62
     7
370
    -3
331
16
  1
Color_7
330
0
 90
        8
 62
     7
370
    50
331
16
  1
Color_7
330
0
 90
        8
 62
     2
370
    35
331
16
  1
Color_2
330
0
 90
        8
 62
     7
370
    -3
331
16
  1
Color_7
330
10
 90
        8
 62
     7
370
    -3
331
16
  1
Color_7
  0
DICTIONARY
  5
3B278
330
22
100
AcDbDictionary
280
     1
281
     1
  3
ACAD_XREC_ROUNDTRIP
360
3B279
  0
DICTIONARY
  5
3B276
330
1E
100
AcDbDictionary
280
     1
281
     1
  3
ACAD_XREC_ROUNDTRIP
360
3B277
  0
DICTIONARY
  5
3B27A
330
26
100
AcDbDictionary
280
     1
281
     1
  3
ACAD_XREC_ROUNDTRIP
360
3B27B
  0
DICTIONARY
  5
3B280
330
B0EF
100
AcDbDictionary
280
     1
281
     1
  3
ACAD_XREC_ROUNDTRIP
360
3B281
  0
DICTIONARY
  5
3B27E
330
B0EE
100
AcDbDictionary
280
     1
281
     1
  3
ACAD_XREC_ROUNDTRIP
360
3B27F
  0
DICTIONARY
  5
3B282
330
B0F0
100
AcDbDictionary
280
     1
281
     1
  3
ACAD_XREC_ROUNDTRIP
360
3B283
  0
DICTIONARY
  5
3B27C
330
AABA
100
AcDbDictionary
280
     1
281
     1
  3
ACAD_XREC_ROUNDTRIP
360
3B27D
  0
XRECORD
  5
3B279
102
{ACAD_REACTORS
330
3B278
102
}
330
3B278
100
AcDbXrecord
280
     1
102
SHADEPLOT
 70
     0
102
SHADEPLOTRESLEVEL
 70
     2
102
SHADEPLOTCUSTOMDPI
 70
   200
  0
XRECORD
  5
3B277
102
{ACAD_REACTORS
330
3B276
102
}
330
3B276
100
AcDbXrecord
280
     1
102
SHADEPLOT
 70
     0
102
SHADEPLOTRESLEVEL
 70
     2
102
SHADEPLOTCUSTOMDPI
 70
   300
  0
XRECORD
  5
3B27B
102
{ACAD_REACTORS
330
3B27A
102
}
330
3B27A
100
AcDbXrecord
280
     1
102
SHADEPLOT
 70
     0
102
SHADEPLOTRESLEVEL
 70
     2
102
SHADEPLOTCUSTOMDPI
 70
   300
  0
XRECORD
  5
3B281
102
{ACAD_REACTORS
330
3B280
102
}
330
3B280
100
AcDbXrecord
280
     1
102
MATERIAL
148
0.0
149
0.0
149
0.0
 93
        0
 94
       63
282
     0
 72
     1
 77
     1
171
     1
175
     1
179
     1
273
     0
  0
XRECORD
  5
3B27F
102
{ACAD_REACTORS
330
3B27E
102
}
330
3B27E
100
AcDbXrecord
280
     1
102
MATERIAL
148
0.0
149
0.0
149
0.0
 93
        0
 94
       63
282
     0
 72
     1
 77
     1
171
     1
175
     1
179
     1
273
     0
  0
XRECORD
  5
3B283
102
{ACAD_REACTORS
330
3B282
102
}
330
3B282
100
AcDbXrecord
280
     1
102
MATERIAL
148
0.0
149
0.0
149
0.0
 93
        0
 94
       63
282
     0
 72
     1
 77
     1
171
     1
175
     1
179
     1
273
     0
  0
XRECORD
  5
3B27D
102
{ACAD_REACTORS
330
3B27C
102
}
330
3B27C
100
AcDbXrecord
280
     1
102
ACAD_ROUNDTRIP_PRE2007_TABLESTYLE
 90
        4
 91
        0
  1

 92
        4
 93
        0
  2

 94
        4
 95
        0
  3

  0
ENDSEC
  0
EOF
