  0
SECTION
  2
HEADER
  9
$ACADVER
  1
AC1015
  9
$ACADMAINTVER
 70
    20
  9
$DWGCODEPAGE
  3
ANSI_932
  9
$INSBASE
 10
0.0
 20
0.0
 30
0.0
  9
$EXTMIN
 10
-385.0338729610273
 20
-100.0241684466318
 30
-0.0000000349181948
  9
$EXTMAX
 10
170.0338781300254
 20
294.501420035868
 30
0.0000000814935747
  9
$LIMMIN
 10
-385.0
 20
-100.0
  9
$LIMMAX
 10
170.0
 20
296.0
  9
$ORTHOMODE
 70
     0
  9
$REGENMODE
 70
     1
  9
$FILLMODE
 70
     1
  9
$QTEXTMODE
 70
     0
  9
$MIRRTEXT
 70
     0
  9
$LTSCALE
 40
1.0
  9
$ATTMODE
 70
     1
  9
$TEXTSIZE
 40
0.2
  9
$TRACEWID
 40
0.05
  9
$TEXTSTYLE
  7
STANDARD
  9
$CLAYER
  8
0
  9
$CELTYPE
  6
CONTINUOUS
  9
$CECOLOR
 62
   256
  9
$CELTSCALE
 40
1.0
  9
$DISPSILH
 70
     0
  9
$DIMSCALE
 40
1.0
  9
$DIMASZ
 40
1.0
  9
$DIMEXO
 40
2.54
  9
$DIMDLI
 40
0.38
  9
$DIMRND
 40
0.0
  9
$DIMDLE
 40
0.0
  9
$DIMEXE
 40
2.54
  9
$DIMTP
 40
0.0
  9
$DIMTM
 40
0.0
  9
$DIMTXT
 40
3.2
  9
$DIMCEN
 40
0.09
  9
$DIMTSZ
 40
0.0
  9
$DIMTOL
 70
     0
  9
$DIMLIM
 70
     0
  9
$DIMTIH
 70
     0
  9
$DIMTOH
 70
     0
  9
$DIMSE1
 70
     0
  9
$DIMSE2
 70
     0
  9
$DIMTAD
 70
     1
  9
$DIMZIN
 70
     0
  9
$DIMBLK
  1

  9
$DIMASO
 70
     1
  9
$DIMSHO
 70
     0
  9
$DIMPOST
  1

  9
$DIMAPOST
  1

  9
$DIMALT
 70
     0
  9
$DIMALTD
 70
     2
  9
$DIMALTF
 40
25.4
  9
$DIMLFAC
 40
1.0
  9
$DIMTOFL
 70
     0
  9
$DIMTVP
 40
1.0
  9
$DIMTIX
 70
     0
  9
$DIMSOXD
 70
     0
  9
$DIMSAH
 70
     1
  9
$DIMBLK1
  1

  9
$DIMBLK2
  1

  9
$DIMSTYLE
  2
DIMSTYLE
  9
$DIMCLRD
 70
     0
  9
$DIMCLRE
 70
     0
  9
$DIMCLRT
 70
     0
  9
$DIMTFAC
 40
1.0
  9
$DIMGAP
 40
1.6
  9
$DIMJUST
 70
     0
  9
$DIMSD1
 70
     0
  9
$DIMSD2
 70
     0
  9
$DIMTOLJ
 70
     1
  9
$DIMTZIN
 70
     0
  9
$DIMALTZ
 70
     0
  9
$DIMALTTZ
 70
     0
  9
$DIMUPT
 70
     0
  9
$DIMDEC
 70
     4
  9
$DIMTDEC
 70
     4
  9
$DIMALTU
 70
     2
  9
$DIMALTTD
 70
     2
  9
$DIMTXSTY
  7
STANDARD
  9
$DIMAUNIT
 70
     0
  9
$DIMADEC
 70
     0
  9
$DIMALTRND
 40
0.0
  9
$DIMAZIN
 70
     0
  9
$DIMDSEP
 70
    46
  9
$DIMATFIT
 70
     3
  9
$DIMFRAC
 70
     0
  9
$DIMLDRBLK
  1

  9
$DIMLUNIT
 70
     2
  9
$DIMLWD
 70
    -2
  9
$DIMLWE
 70
    -2
  9
$DIMTMOVE
 70
     0
  9
$LUNITS
 70
     2
  9
$LUPREC
 70
     4
  9
$SKETCHINC
 40
0.1
  9
$FILLETRAD
 40
0.0
  9
$AUNITS
 70
     0
  9
$AUPREC
 70
     0
  9
$MENU
  1
.
  9
$ELEVATION
 40
0.0
  9
$PELEVATION
 40
0.0
  9
$THICKNESS
 40
0.0
  9
$LIMCHECK
 70
     0
  9
$CHAMFERA
 40
0.0
  9
$CHAMFERB
 40
0.0
  9
$CHAMFERC
 40
0.0
  9
$CHAMFERD
 40
0.0
  9
$SKPOLY
 70
     0
  9
$TDCREATE
 40
2454217.685128935
  9
$TDUCREATE
 40
2454217.310128935
  9
$TDUPDATE
 40
2454237.482633276
  9
$TDUUPDATE
 40
2454237.107633276
  9
$TDINDWG
 40
0.0917764352
  9
$TDUSRTIMER
 40
0.0917762616
  9
$USRTIMER
 70
     1
  9
$ANGBASE
 50
0.0
  9
$ANGDIR
 70
     0
  9
$PDMODE
 70
     0
  9
$PDSIZE
 40
0.0
  9
$PLINEWID
 40
0.0
  9
$SPLFRAME
 70
     0
  9
$SPLINETYPE
 70
     6
  9
$SPLINESEGS
 70
     8
  9
$HANDSEED
  5
537
  9
$SURFTAB1
 70
     6
  9
$SURFTAB2
 70
     6
  9
$SURFTYPE
 70
     6
  9
$SURFU
 70
     6
  9
$SURFV
 70
     6
  9
$UCSBASE
  2

  9
$UCSNAME
  2

  9
$UCSORG
 10
0.0
 20
0.0
 30
0.0
  9
$UCSXDIR
 10
1.0
 20
0.0
 30
0.0
  9
$UCSYDIR
 10
0.0
 20
1.0
 30
0.0
  9
$UCSORTHOREF
  2

  9
$UCSORTHOVIEW
 70
     0
  9
$UCSORGTOP
 10
0.0
 20
0.0
 30
0.0
  9
$UCSORGBOTTOM
 10
0.0
 20
0.0
 30
0.0
  9
$UCSORGLEFT
 10
0.0
 20
0.0
 30
0.0
  9
$UCSORGRIGHT
 10
0.0
 20
0.0
 30
0.0
  9
$UCSORGFRONT
 10
0.0
 20
0.0
 30
0.0
  9
$UCSORGBACK
 10
0.0
 20
0.0
 30
0.0
  9
$PUCSBASE
  2

  9
$PUCSNAME
  2

  9
$PUCSORG
 10
0.0
 20
0.0
 30
0.0
  9
$PUCSXDIR
 10
1.0
 20
0.0
 30
0.0
  9
$PUCSYDIR
 10
0.0
 20
1.0
 30
0.0
  9
$PUCSORTHOREF
  2

  9
$PUCSORTHOVIEW
 70
     0
  9
$PUCSORGTOP
 10
0.0
 20
0.0
 30
0.0
  9
$PUCSORGBOTTOM
 10
0.0
 20
0.0
 30
0.0
  9
$PUCSORGLEFT
 10
0.0
 20
0.0
 30
0.0
  9
$PUCSORGRIGHT
 10
0.0
 20
0.0
 30
0.0
  9
$PUCSORGFRONT
 10
0.0
 20
0.0
 30
0.0
  9
$PUCSORGBACK
 10
0.0
 20
0.0
 30
0.0
  9
$USERI1
 70
     0
  9
$USERI2
 70
     0
  9
$USERI3
 70
     0
  9
$USERI4
 70
     0
  9
$USERI5
 70
     0
  9
$USERR1
 40
0.0
  9
$USERR2
 40
0.0
  9
$USERR3
 40
0.0
  9
$USERR4
 40
0.0
  9
$USERR5
 40
0.0
  9
$WORLDVIEW
 70
     1
  9
$SHADEDGE
 70
     3
  9
$SHADEDIF
 70
    70
  9
$TILEMODE
 70
     1
  9
$MAXACTVP
 70
    64
  9
$PINSBASE
 10
0.0
 20
0.0
 30
0.0
  9
$PLIMCHECK
 70
     0
  9
$PEXTMIN
 10
1.000000000000000E+20
 20
1.000000000000000E+20
 30
1.000000000000000E+20
  9
$PEXTMAX
 10
-1.000000000000000E+20
 20
-1.000000000000000E+20
 30
-1.000000000000000E+20
  9
$PLIMMIN
 10
-385.0
 20
-100.0
  9
$PLIMMAX
 10
170.0
 20
296.0
  9
$UNITMODE
 70
     0
  9
$VISRETAIN
 70
     1
  9
$PLINEGEN
 70
     0
  9
$PSLTSCALE
 70
     1
  9
$TREEDEPTH
 70
  3020
  9
$CMLSTYLE
  2
Standard
  9
$CMLJUST
 70
     0
  9
$CMLSCALE
 40
1.0
  9
$PROXYGRAPHICS
 70
     1
  9
$MEASUREMENT
 70
     0
  9
$CELWEIGHT
370
    -1
  9
$ENDCAPS
280
     0
  9
$JOINSTYLE
280
     0
  9
$LWDISPLAY
290
     0
  9
$INSUNITS
 70
     0
  9
$HYPERLINKBASE
  1

  9
$STYLESHEET
  1

  9
$XEDIT
290
     1
  9
$CEPSNTYPE
380
     0
  9
$PSTYLEMODE
290
     1
  9
$FINGERPRINTGUID
  2
{DECF8350-B780-4314-B753-3FCE6A144B6B}
  9
$VERSIONGUID
  2
{4C6A1D8B-3156-4999-8B6B-37B817EC1BD7}
  9
$EXTNAMES
290
     1
  9
$PSVPSCALE
 40
0.0
  9
$OLESTARTUP
290
     0
  0
ENDSEC
  0
SECTION
  2
CLASSES
  0
CLASS
  1
ACDBDICTIONARYWDFLT
  2
AcDbDictionaryWithDefault
  3
ObjectDBX Classes
 90
        0
280
     0
281
     0
  0
CLASS
  1
MATERIAL
  2
AcDbMaterial
  3
ObjectDBX Classes
 90
     1153
280
     0
281
     0
  0
CLASS
  1
VISUALSTYLE
  2
AcDbVisualStyle
  3
ObjectDBX Classes
 90
     4095
280
     0
281
     0
  0
CLASS
  1
TABLESTYLE
  2
AcDbTableStyle
  3
ObjectDBX Classes
 90
     4095
280
     0
281
     0
  0
CLASS
  1
AMGSETTINGSOBJ
  2
AmgSettingsObj
  3
"AcadM|Product Description: AutoCAD Mechanical|Company: Autodesk"
 90
        0
280
     0
281
     0
  0
CLASS
  1
ACME_DOCUMENT
  2
AcMeDbDoc
  3
AcMeServices
 90
        0
280
     0
281
     0
  0
CLASS
  1
ACMESCOPE
  2
AcMeScope
  3
AcMeServices
 90
        0
280
     0
281
     0
  0
CLASS
  1
ACMECOMMANDHISTORY
  2
AcMeCommandHistory
  3
AcMeServices
 90
        0
280
     0
281
     0
  0
CLASS
  1
ACIMSYSVARMAN
  2
AcImSysVarManager
  3
AcMeServices
 90
        0
280
     0
281
     0
  0
CLASS
  1
ACIMINTSYSVAR
  2
AcImIntSysVar
  3
AcMeServices
 90
        0
280
     0
281
     0
  0
CLASS
  1
ACMEDRAWINGMAN
  2
AcMeDrawingMan
  3
AcMeServices
 90
        0
280
     0
281
     0
  0
CLASS
  1
ACMEVIEW
  2
AcMeView
  3
AcMeServices
 90
        0
280
     0
281
     0
  0
CLASS
  1
ACDBENTITYCACHE
  2
AcMeEntityCache
  3
AcMeServices
 90
        0
280
     0
281
     0
  0
CLASS
  1
GSMANAGER
  2
AcMeGSManager
  3
AcMeServices
 90
        0
280
     0
281
     0
  0
CLASS
  1
AMDTINTERNALREACTOR
  2
AmdtInternalReactor
  3
AcMeServices
 90
        0
280
     0
281
     0
  0
CLASS
  1
ACMESTATEMGR
  2
AcMeStateMgr
  3
AcMeServices
 90
        0
280
     0
281
     0
  0
CLASS
  1
ACGREFMASTER
  2
AcGrefMaster
  3
AcAttribServices
 90
        0
280
     0
281
     0
  0
CLASS
  1
AM_DRAWING_MGR
  2
AcDmDwgMgr
  3
AcMechDwgViewMgmt
 90
        0
280
     0
281
     0
  0
CLASS
  1
AM_DWG_DOCUMENT
  2
AcDmDwgDocument
  3
AcMechDwgViewMgmt
 90
        0
280
     0
281
     0
  0
CLASS
  1
AM_DWG_SHEET
  2
AcDmSheet
  3
AcMechDwgViewMgmt
 90
        0
280
     0
281
     0
  0
CLASS
  1
AM_VIEWDIMPARMAP
  2
AcDmViewDimParMap
  3
AcMechDwgViewMgmt
 90
        0
280
     0
281
     0
  0
CLASS
  1
ACIMREALSYSVAR
  2
AcImRealSysVar
  3
AcMeServices
 90
        0
280
     0
281
     0
  0
CLASS
  1
AM_DWGMGR_NAME
  2
AcDmDwgMgrName
  3
AcMechDwgViewMgmt
 90
        0
280
     0
281
     0
  0
CLASS
  1
ACME_DATABASE
  2
AcMeDbDatabase
  3
AcMeServices
 90
        0
280
     0
281
     0
  0
CLASS
  1
ACRFINSADJUSTERMGR
  2
AcRfInsAdjusterMgr
  3
AcMeServices
 90
        0
280
     0
281
     0
  0
CLASS
  1
ACGREFACADMASTER
  2
AcGrefacadMaster
  3
AcGrefServices
 90
        0
280
     0
281
     0
  0
CLASS
  1
AMDTMENUSTATEMGR
  2
AmdtMenuStateMgr
  3
McadcomServices
 90
        0
280
     0
281
     0
  0
CLASS
  1
AMDTMCOMMENUSTATE
  2
AmdtMcomMenuState
  3
McadcomServices
 90
        0
280
     0
281
     0
  0
CLASS
  1
AMIMASTER
  2
AmiMaster
  3
AmiServices
 90
        0
280
     0
281
     0
  0
CLASS
  1
MAPIAMMOUDLE
  2
MApiAmModule
  3
MApiAmServices
 90
        0
280
     0
281
     0
  0
CLASS
  1
ACIMSTRSYSVAR
  2
AcImStrSysVar
  3
AcMeServices
 90
        0
280
     0
281
     0
  0
CLASS
  1
AMDTADMENUSTATE
  2
AmdtAdMenuState
  3
DesignerServices
 90
        0
280
     0
281
     0
  0
CLASS
  1
ADAPPL
  2
AcAdAppl
  3
DesignerServices
 90
        0
280
     0
281
     0
  0
CLASS
  1
DEPMGR
  2
AcAdDepMgr
  3
DesignerServices
 90
        0
280
     0
281
     0
  0
CLASS
  1
PARAMMGR
  2
AcAdParamMgr
  3
DesignerServices
 90
        0
280
     0
281
     0
  0
CLASS
  1
PARAMSCOPE
  2
AcAdParamScope
  3
DesignerServices
 90
        0
280
     0
281
     0
  0
CLASS
  1
NAMEDAPPL
  2
AcAdNamedAppl
  3
DesignerServices
 90
        0
280
     0
281
     0
  0
CLASS
  1
AMDTDMMENUSTATE
  2
AmdtDmMenuState
  3
AcMechDwgViewMgmt
 90
        0
280
     0
281
     0
  0
CLASS
  1
AMDTAMMENUSTATE
  2
AmdtAmMenuState
  3
DesignerAssemblies
 90
        0
280
     0
281
     0
  0
CLASS
  1
ACAMPROJECT
  2
AcAmProject
  3
DesignerAssemblies
 90
        0
280
     0
281
     0
  0
CLASS
  1
ACAMGRCOMPDEF
  2
AcAmGrCompDef
  3
DesignerAssemblies
 90
        0
280
     0
281
     0
  0
CLASS
  1
ACCMCONTEXT
  2
AcCmContext
  3
DesignerAssemblies
 90
        0
280
     0
281
     0
  0
CLASS
  1
ACAMCOMPDEF
  2
AcAmCompDef
  3
DesignerAssemblies
 90
        0
280
     0
281
     0
  0
CLASS
  1
ACAMCOMPDEFMGR
  2
AcAmCompDefMgr
  3
DesignerAssemblies
 90
        0
280
     0
281
     0
  0
CLASS
  1
AMCONTEXTMGR
  2
AcAmContextMgr
  3
DesignerAssemblies
 90
        0
280
     0
281
     0
  0
CLASS
  1
ACAMCONTEXTMODELER
  2
AcAmContextModeler
  3
DesignerAssemblies
 90
        0
280
     0
281
     0
  0
CLASS
  1
ACMDATADICTIONARY
  2
AcmDataDictionary
  3
"AcmSymBB|Product Description: AutoCAD Mechanical|Company: Autodesk"
 90
        0
280
     0
281
     0
  0
CLASS
  1
CATALOGSTATE
  2
AcAmCatalogState
  3
DesignerAssemblies
 90
        0
280
     0
281
     0
  0
CLASS
  1
ACAMGRCOMPDEFSET
  2
AcAmGrCompDefSet
  3
DesignerAssemblies
 90
        0
280
     0
281
     0
  0
CLASS
  1
AMDTBROWSERDBTAB
  2
AmdtBrowserDbTab
  3
McadcomServices
 90
        0
280
     0
281
     0
  0
CLASS
  1
CBROWSERAPPOBJECT
  2
CBrowserAppObject
  3
McadcomServices
 90
        0
280
     0
281
     0
  0
CLASS
  1
DM_PLACEHOLDER
  2
AcDmSelsetPlaceholder
  3
AcMechDwgViewMgmt
 90
        0
280
     0
281
     0
  0
CLASS
  1
ACMSTANDARDANSI
  2
AcmStandardANSI
  3
"Amdt_StdImp|Product Description: AutoCAD Mechanical|Company: Autodesk"
 90
        0
280
     0
281
     0
  0
CLASS
  1
AMGOBJPROPCFG
  2
AmgObjPropCfg
  3
"AmgLay|Product Description: AutoCAD Mechanical|Company: Autodesk"
 90
        1
280
     0
281
     0
  0
CLASS
  1
ACMSURFSTANDARDANSI
  2
AcmSurfTextStdANSI
  3
"Amdt_StdImp|Product Description: AutoCAD Mechanical|Company: Autodesk"
 90
        0
280
     0
281
     0
  0
CLASS
  1
ACMFCFSTANDARDANSI
  2
AcmFCFStdANSI
  3
"Amdt_StdImp|Product Description: AutoCAD Mechanical|Company: Autodesk"
 90
        0
280
     0
281
     0
  0
CLASS
  1
ACMWELDSTANDARDANSI
  2
AcmWeldingStdANSI
  3
"Amdt_StdImp|Product Description: AutoCAD Mechanical|Company: Autodesk"
 90
        0
280
     0
281
     0
  0
CLASS
  1
ACMIDSTANDARDANSI
  2
AcmIdStdANSI
  3
"Amdt_StdImp|Product Description: AutoCAD Mechanical|Company: Autodesk"
 90
        0
280
     0
281
     0
  0
CLASS
  1
ACMDATUMSTANDARDANSI
  2
AcmDatumStdANSI
  3
"Amdt_StdImp|Product Description: AutoCAD Mechanical|Company: Autodesk"
 90
        0
280
     0
281
     0
  0
CLASS
  1
ACMBOMSTANDARDANSI
  2
AcmBOMStdANSI
  3
"Amdt_StdImp|Product Description: AutoCAD Mechanical|Company: Autodesk"
 90
        0
280
     0
281
     0
  0
CLASS
  1
ACMDETAILSTANDARDANSI
  2
AmdtDetailSymStdANSI
  3
"Amdt_StdImp|Product Description: AutoCAD Mechanical|Company: Autodesk"
 90
        0
280
     0
281
     0
  0
CLASS
  1
ACMSECTIONSTANDARDANSI
  2
AmdtSectionSymStdANSI
  3
"Amdt_StdImp|Product Description: AutoCAD Mechanical|Company: Autodesk"
 90
        0
280
     0
281
     0
  0
CLASS
  1
ACMCENTERLINESTANDARDANSI
  2
AmdtCenterLineStdANSI
  3
"Amdt_StdImp|Product Description: AutoCAD Mechanical|Company: Autodesk"
 90
        0
280
     0
281
     0
  0
CLASS
  1
ACMTHREADLINESTANDARDANSI
  2
AmdtThreadLineStdANSI
  3
"Amdt_StdImp|Product Description: AutoCAD Mechanical|Company: Autodesk"
 90
        0
280
     0
281
     0
  0
CLASS
  1
ACMNOTESTANDARDANSI
  2
AmdtNoteStdANSI
  3
"Amdt_StdImp|Product Description: AutoCAD Mechanical|Company: Autodesk"
 90
        0
280
     0
281
     0
  0
CLASS
  1
ACMTAPERSTANDARDANSI
  2
AcmTaperStdANSI
  3
"Amdt_StdImp|Product Description: AutoCAD Mechanical|Company: Autodesk"
 90
        0
280
     0
281
     0
  0
CLASS
  1
AMDTNOTETEMPLATEDB
  2
AmdtNoteTemplateDB
  3
AMDT_STDIMP_MODULE_NAME
 90
        0
280
     0
281
     0
  0
CLASS
  1
ACAMGLAYSTD
  2
AcAmgLayStd
  3
"AmgLay|Product Description: AutoCAD Mechanical|Company: Autodesk"
 90
        0
280
     0
281
     0
  0
CLASS
  1
ACAMGDIMSTD
  2
AcAmgDimStd
  3
"AmgDim|Product Description: AutoCAD Mechanical|Company: Autodesk"
 90
        0
280
     0
281
     0
  0
CLASS
  1
ACAMGHOLECHARTSTDANSI
  2
AcAmgHoleChartStdANSI
  3
ACMSYMBB_MODULE_NAME
 90
        0
280
     0
281
     0
  0
CLASS
  1
ACAMGTITLESTD
  2
AcAmgTitleStd
  3
"AmgTitle|Product Description: AutoCAD Mechanical|Company: Autodesk"
 90
        0
280
     0
281
     0
  0
CLASS
  1
ACAMGFILTERDAT
  2
AcAmgFilterDat
  3
"AcadM|Product Description: AutoCAD Mechanical|Company: Autodesk"
 90
    32768
280
     0
281
     0
  0
CLASS
  1
DICTIONARYVAR
  2
AcDbDictionaryVar
  3
ObjectDBX Classes
 90
        0
280
     0
281
     0
  0
CLASS
  1
ACDBPLACEHOLDER
  2
AcDbPlaceHolder
  3
ObjectDBX Classes
 90
        0
280
     0
281
     0
  0
CLASS
  1
LAYOUT
  2
AcDbLayout
  3
ObjectDBX Classes
 90
        0
280
     0
281
     0
  0
CLASS
  1
SORTENTSTABLE
  2
AcDbSortentsTable
  3
ObjectDBX Classes
 90
        0
280
     0
281
     0
  0
ENDSEC
  0
SECTION
  2
TABLES
  0
TABLE
  2
VPORT
  5
8
330
0
100
AcDbSymbolTable
 70
     1
  0
VPORT
  5
43
330
8
100
AcDbSymbolTableRecord
100
AcDbViewportTableRecord
  2
*Active
 70
     0
 10
0.0
 20
0.0
 11
1.0
 21
1.0
 12
-107.4999974155009
 22
97.2386257946181
 13
0.0
 23
0.0
 14
1.0
 24
1.0
 15
0.0
 25
0.0
 16
0.0
 26
0.0
 36
1.0
 17
0.0
 27
0.0
 37
0.0
 40
425.234809059367
 41
1.313157894736842
 42
50.0
 43
0.0
 44
0.0
 50
0.0
 51
0.0
 71
     0
 72
   100
 73
     1
 74
     1
 75
     0
 76
     0
 77
     0
 78
     0
281
     0
 65
     0
110
0.0
120
0.0
130
0.0
111
1.0
121
0.0
131
0.0
112
0.0
122
1.0
132
0.0
 79
     0
146
0.0
  0
ENDTAB
  0
TABLE
  2
LTYPE
  5
5
330
0
100
AcDbSymbolTable
 70
    20
  0
LTYPE
  5
28
330
5
100
AcDbSymbolTableRecord
100
AcDbLinetypeTableRecord
  2
ByBlock
 70
     0
  3

 72
    65
 73
     0
 40
0.0
  0
LTYPE
  5
29
330
5
100
AcDbSymbolTableRecord
100
AcDbLinetypeTableRecord
  2
ByLayer
 70
     0
  3

 72
    65
 73
     0
 40
0.0
  0
LTYPE
  5
2A
330
5
100
AcDbSymbolTableRecord
100
AcDbLinetypeTableRecord
  2
CONTINUOUS
 70
     0
  3
Solid line
 72
    65
 73
     0
 40
0.0
  0
LTYPE
  5
3A
330
5
100
AcDbSymbolTableRecord
100
AcDbLinetypeTableRecord
  2
DASHED
 70
     0
  3
__ __ __ __ __ __ __ __ __ __ __ __ __ __ __
 72
    65
 73
     2
 40
3.5
 49
2.0
 74
     0
 49
-1.5
 74
     0
  0
LTYPE
  5
3B
330
5
100
AcDbSymbolTableRecord
100
AcDbLinetypeTableRecord
  2
CENTER
 70
     0
  3
____ _ ____ _ ____ _ ____ _ ____ _ ____ _ ____
 72
    65
 73
     4
 40
17.5
 49
13.0
 74
     0
 49
-1.5
 74
     0
 49
1.5
 74
     0
 49
-1.5
 74
     0
  0
LTYPE
  5
3C
330
5
100
AcDbSymbolTableRecord
100
AcDbLinetypeTableRecord
  2
PHANTOM
 70
     0
  3
_____ _ _ _____ _ _ _____ _ _ _____ _ _ ____  
 72
    65
 73
     6
 40
15.5
 49
8.0
 74
     0
 49
-1.5
 74
     0
 49
1.5
 74
     0
 49
-1.5
 74
     0
 49
1.5
 74
     0
 49
-1.5
 74
     0
  0
LTYPE
  5
3D
330
5
100
AcDbSymbolTableRecord
100
AcDbLinetypeTableRecord
  2
DOT
 70
     0
  3
. . . . . . . . . . . . . . . . . . . . . . . .
 72
    65
 73
     2
 40
0.25
 49
0.0
 74
     0
 49
-0.25
 74
     0
  0
LTYPE
  5
3E
330
5
100
AcDbSymbolTableRecord
100
AcDbLinetypeTableRecord
  2
HIDDEN
 70
     0
  3
__ __ __ __ __ __ __ __ __ __ __ __ __ __ __
 72
    65
 73
     2
 40
3.5
 49
2.0
 74
     0
 49
-1.5
 74
     0
  0
LTYPE
  5
3C0
330
5
100
AcDbSymbolTableRecord
100
AcDbLinetypeTableRecord
  2
PHANTOM2
 70
     0
  3
Phantom (.5x) ___ _ _ ___ _ _ ___ _ _ ___ _ _
 72
    65
 73
     6
 40
1.25
 49
0.625
 74
     0
 49
-0.125
 74
     0
 49
0.125
 74
     0
 49
-0.125
 74
     0
 49
0.125
 74
     0
 49
-0.125
 74
     0
  0
LTYPE
  5
3F5
330
5
100
AcDbSymbolTableRecord
100
AcDbLinetypeTableRecord
  2
AM_ISO02W050
 70
     0
  3
__ __ __ __ __ __ __ __ __ __ __ __ __ __ __
 72
    65
 73
     2
 40
7.5
 49
6.0
 74
     0
 49
-1.5
 74
     0
  0
LTYPE
  5
3F6
330
5
100
AcDbSymbolTableRecord
100
AcDbLinetypeTableRecord
  2
AM_ISO08W050
 70
     0
  3
____ . ____ . ____ . ____ . ____ . ____ . ____
 72
    65
 73
     4
 40
18.0
 49
12.0
 74
     0
 49
-1.5
 74
     0
 49
3.0
 74
     0
 49
-1.5
 74
     0
  0
LTYPE
  5
3F7
330
5
100
AcDbSymbolTableRecord
100
AcDbLinetypeTableRecord
  2
AM_ISO09W050
 70
     0
  3
_____ . . _____ . . _____ . . ____ .. ____
 72
    65
 73
     6
 40
22.5
 49
12.0
 74
     0
 49
-1.5
 74
     0
 49
3.0
 74
     0
 49
-1.5
 74
     0
 49
3.0
 74
     0
 49
-1.5
 74
     0
  0
LTYPE
  5
3F8
330
5
100
AcDbSymbolTableRecord
100
AcDbLinetypeTableRecord
  2
Amconstr
 70
     0
  3
_______________________
 72
    65
 73
     2
 40
9999.0
 49
9999.0
 74
     0
 49
0.0
 74
     0
  0
LTYPE
  5
3F9
330
5
100
AcDbSymbolTableRecord
100
AcDbLinetypeTableRecord
  2
AM_ISO08W050x2
 70
     0
  3
__ . __ . __ . __ . __ . __
 72
    65
 73
     4
 40
9.0
 49
6.0
 74
     0
 49
-0.75
 74
     0
 49
1.5
 74
     0
 49
-0.75
 74
     0
  0
LTYPE
  5
3FA
330
5
100
AcDbSymbolTableRecord
100
AcDbLinetypeTableRecord
  2
AM_ISO02W050x2
 70
     0
  3
 _ _ _ _ _ _ _ _ _ _ _ _
 72
    65
 73
     2
 40
3.75
 49
3.0
 74
     0
 49
-0.75
 74
     0
  0
LTYPE
  5
3FD
330
5
100
AcDbSymbolTableRecord
100
AcDbLinetypeTableRecord
  2
Amzigzag
 70
     0
  3
/\/-/\/-/\/-/\/-/\/-/\/
 72
    65
 73
     2
 40
11.0001
 49
0.0001
 74
     4
 75
   136
340
3FC
 46
0.04
 50
0.0
 44
0.0
 45
0.0
 49
-11.0
 74
     0
  0
LTYPE
  5
3FE
330
5
100
AcDbSymbolTableRecord
100
AcDbLinetypeTableRecord
  2
CENTER2
 70
     0
  3
Center (.5x) ___ _ ___ _ ___ _ ___ _ ___ _ ___
 72
    65
 73
     4
 40
1.125
 49
0.75
 74
     0
 49
-0.125
 74
     0
 49
0.125
 74
     0
 49
-0.125
 74
     0
  0
LTYPE
  5
3FF
330
5
100
AcDbSymbolTableRecord
100
AcDbLinetypeTableRecord
  2
HIDDEN2
 70
     0
  3
Hidden (.5x) _ _ _ _ _ _ _ _ _ _ _ _ _ _ _ _ _
 72
    65
 73
     2
 40
0.1875
 49
0.125
 74
     0
 49
-0.0625
 74
     0
  0
LTYPE
  5
400
330
5
100
AcDbSymbolTableRecord
100
AcDbLinetypeTableRecord
  2
Amzigzag2
 70
     0
  3
/\/-/\/-/\/-/\/-/\/-/\/
 72
    65
 73
     2
 40
0.4401
 49
0.0001
 74
     4
 75
   136
340
3FC
 46
0.0016
 50
0.0
 44
0.0
 45
0.0
 49
-0.4400000000000002
 74
     0
  0
LTYPE
  5
40F
330
5
100
AcDbSymbolTableRecord
100
AcDbLinetypeTableRecord
  2
ACANSTGB
 70
     0
  3
__ . . __ . .
 72
    65
 73
     6
 40
0.35433070866
 49
0.15748031496
 74
     0
 49
-0.03937007874
 74
     0
 49
0.03937007874
 74
     0
 49
-0.03937007874
 74
     0
 49
0.03937007874
 74
     0
 49
-0.03937007874
 74
     0
  0
LTYPE
  5
410
330
5
100
AcDbSymbolTableRecord
100
AcDbLinetypeTableRecord
  2
ACANSTGL
 70
     0
  3
_ _ _ _ _
 72
    65
 73
     2
 40
0.11811023622
 49
0.07874015748
 74
     0
 49
-0.03937007874
 74
     0
  0
ENDTAB
  0
TABLE
  2
LAYER
  5
2
330
0
100
AcDbSymbolTable
 70
     3
  0
LAYER
  5
25
330
2
100
AcDbSymbolTableRecord
100
AcDbLayerTableRecord
  2
0
 70
     0
 62
     7
  6
CONTINUOUS
370
    -3
390
F
  0
LAYER
  5
3F
330
2
100
AcDbSymbolTableRecord
100
AcDbLayerTableRecord
  2
DEFPOINTS
 70
     0
 62
     7
  6
CONTINUOUS
290
     0
370
    -3
390
F
  0
LAYER
  5
4F0
330
2
100
AcDbSymbolTableRecord
100
AcDbLayerTableRecord
  2
AM_CL
 70
     0
 62
     1
  6
Amconstr
370
    15
390
F
1001
AcAecLayerStandard
1000

1000

  0
ENDTAB
  0
TABLE
  2
STYLE
  5
3
330
0
100
AcDbSymbolTable
 70
     8
  0
STYLE
  5
26
330
3
100
AcDbSymbolTableRecord
100
AcDbTextStyleTableRecord
  2
STANDARD
 70
     0
 40
0.0
 41
1.0
 50
0.0
 71
     0
 42
0.2
  3
txt
  4
BIGFONT
  0
STYLE
  5
3FC
330
3
100
AcDbSymbolTableRecord
100
AcDbTextStyleTableRecord
  2

 70
     1
 40
0.0
 41
1.0
 50
0.0
 71
     0
 42
3.2
  3
genltshp.shx
  4

  0
STYLE
  5
401
330
3
100
AcDbSymbolTableRecord
100
AcDbTextStyleTableRecord
  2
ACANSTS
 70
     0
 40
1.0
 41
1.0
 50
0.0
 71
     0
 42
3.2
  3
romans.shx
  4
extfont.shx
  0
STYLE
  5
40E
330
3
100
AcDbSymbolTableRecord
100
AcDbTextStyleTableRecord
  2
ACANSGDT
 70
     0
 40
0.0
 41
1.0
 50
0.0
 71
     0
 42
3.2
  3
amgdt.shx
  4

  0
ENDTAB
  0
TABLE
  2
VIEW
  5
6
330
0
100
AcDbSymbolTable
 70
     0
  0
ENDTAB
  0
TABLE
  2
UCS
  5
7
330
0
100
AcDbSymbolTable
 70
     0
  0
ENDTAB
  0
TABLE
  2
APPID
  5
9
330
0
100
AcDbSymbolTable
 70
    12
  0
APPID
  5
27
330
9
100
AcDbSymbolTableRecord
100
AcDbRegAppTableRecord
  2
ACAD
 70
     0
  0
APPID
  5
393
330
9
100
AcDbSymbolTableRecord
100
AcDbRegAppTableRecord
  2
MCAD_NO_VIS
 70
     0
  0
APPID
  5
394
330
9
100
AcDbSymbolTableRecord
100
AcDbRegAppTableRecord
  2
ACAD_TEMP_GRAPHIC
 70
     0
  0
APPID
  5
3C2
330
9
100
AcDbSymbolTableRecord
100
AcDbRegAppTableRecord
  2
AD_DRAW
 70
     0
  0
APPID
  5
3C5
330
9
100
AcDbSymbolTableRecord
100
AcDbRegAppTableRecord
  2
ACATTRIBSERVICES
 70
     0
  0
APPID
  5
3E6
330
9
100
AcDbSymbolTableRecord
100
AcDbRegAppTableRecord
  2
DESIGNERASSEMBLIES
 70
     0
  0
APPID
  5
3EC
330
9
100
AcDbSymbolTableRecord
100
AcDbRegAppTableRecord
  2
ACADM_DIM_EDIT
 70
     0
  0
APPID
  5
3ED
330
9
100
AcDbSymbolTableRecord
100
AcDbRegAppTableRecord
  2
AMDT_DM_ADJ
 70
     0
  0
APPID
  5
443
330
9
100
AcDbSymbolTableRecord
100
AcDbRegAppTableRecord
  2
ACAD_EXEMPT_FROM_CAD_STANDARDS
 70
     0
  0
APPID
  5
46E
330
9
100
AcDbSymbolTableRecord
100
AcDbRegAppTableRecord
  2
ACAD_DSTYLE_DIMARC_LENGTH_SYMBOL
 70
     0
  0
APPID
  5
4F1
330
9
100
AcDbSymbolTableRecord
100
AcDbRegAppTableRecord
  2
AcAecLayerStandard
 70
     0
  0
APPID
  5
504
330
9
100
AcDbSymbolTableRecord
100
AcDbRegAppTableRecord
  2
ACAD_PSEXT
 70
     0
  0
ENDTAB
  0
TABLE
  2
DIMSTYLE
  5
A
330
0
100
AcDbSymbolTable
 70
    12
100
AcDbDimStyleTable
 71
     1
340
40
  0
DIMSTYLE
105
40
102
{ACAD_REACTORS
330
375
330
376
330
377
330
378
330
379
330
37A
330
37B
330
37C
330
37D
330
37E
330
37F
330
380
330
381
330
382
330
383
330
384
330
385
330
386
330
387
330
388
330
389
330
38A
330
38B
330
38C
102
}
330
A
100
AcDbSymbolTableRecord
100
AcDbDimStyleTableRecord
  2
DIMSTYLE
 70
     0
 41
1.0
 42
2.54
 44
2.54
 73
     0
 74
     0
140
3.2
147
1.6
173
     1
279
     2
340
26
  0
DIMSTYLE
105
41C
330
A
100
AcDbSymbolTableRecord
100
AcDbDimStyleTableRecord
  2
AM_ANSI
 70
     0
  4
mm
 41
0.1
 42
0.05
 43
0.5
 44
0.1
 47
0.1
 48
0.1
 78
     7
 79
     2
140
0.12
141
0.0
146
0.71
147
0.06
176
   256
177
   256
178
     2
274
     4
284
     7
340
26
371
    -1
372
    -1
1001
ACAD_DSTYLE_DIMARC_LENGTH_SYMBOL
1070
   379
1070
     1
  0
DIMSTYLE
105
41D
330
A
100
AcDbSymbolTableRecord
100
AcDbDimStyleTableRecord
  2
AM_ANSI$3
 70
     0
  4
mm
 41
0.1
 42
0.05
 43
0.5
 44
0.1
 47
0.1
 48
0.1
 78
     7
 79
     2
140
0.12
141
0.0
146
0.71
147
0.06
176
   256
177
   256
178
     2
274
     4
284
     7
288
     1
289
     0
340
26
371
    -1
372
    -1
1001
ACAD_DSTYLE_DIMARC_LENGTH_SYMBOL
1070
   379
1070
     1
  0
DIMSTYLE
105
41E
330
A
100
AcDbSymbolTableRecord
100
AcDbDimStyleTableRecord
  2
AM_ANSI$4
 70
     0
  4
mm
 41
0.1
 42
0.05
 43
0.5
 44
0.1
 47
0.1
 48
0.1
 78
     7
 79
     2
140
0.12
141
0.0
146
0.71
147
0.06
176
   256
177
   256
178
     2
274
     4
284
     7
288
     1
289
     0
340
26
371
    -1
372
    -1
1001
ACAD_DSTYLE_DIMARC_LENGTH_SYMBOL
1070
   379
1070
     1
  0
DIMSTYLE
105
41F
330
A
100
AcDbSymbolTableRecord
100
AcDbDimStyleTableRecord
  2
AM_ANSI$7
 70
     0
  4
mm
 41
0.1
 42
0.05
 43
0.5
 44
0.1
 47
0.1
 48
0.1
 78
     7
 79
     2
140
0.24
141
0.0
146
0.71
147
0.06
176
   256
177
   256
178
     2
274
     4
284
     7
340
26
371
    -1
372
    -1
1001
ACAD_DSTYLE_DIMARC_LENGTH_SYMBOL
1070
   379
1070
     1
  0
DIMSTYLE
105
420
330
A
100
AcDbSymbolTableRecord
100
AcDbDimStyleTableRecord
  2
AM_ANSI$SF
 70
     0
  4
mm
 41
0.1
 42
0.05
 43
0.5
 44
0.1
 47
0.1
 48
0.1
 75
     1
 76
     1
 78
     7
 79
     2
140
0.12
141
0.0
146
0.71
147
0.06
176
   256
177
   256
178
     2
274
     4
284
     7
340
26
371
    -1
372
    -1
1001
ACAD_DSTYLE_DIMARC_LENGTH_SYMBOL
1070
   379
1070
     1
  0
DIMSTYLE
105
425
330
A
100
AcDbSymbolTableRecord
100
AcDbDimStyleTableRecord
  2
AM_ANSI$SH
 70
     0
  4
mm
 41
0.1
 42
0.05
 43
0.5
 44
0.1
 47
0.1
 48
0.1
 75
     1
 76
     1
 78
     7
 79
     2
140
0.12
141
0.0
146
0.71
147
0.06
173
     1
176
   256
177
   256
178
     2
274
     4
284
     7
340
26
343
421
371
    -1
372
    -1
1001
ACAD_DSTYLE_DIMARC_LENGTH_SYMBOL
1070
   379
1070
     1
  0
ENDTAB
  0
TABLE
  2
BLOCK_RECORD
  5
1
330
0
100
AcDbSymbolTable
 70
    32
  0
BLOCK_RECORD
  5
36
102
{ACAD_XDICTIONARY
360
4F9
102
}
330
1
100
AcDbSymbolTableRecord
100
AcDbBlockTableRecord
  2
*Model_Space
340
39
  0
BLOCK_RECORD
  5
32
330
1
100
AcDbSymbolTableRecord
100
AcDbBlockTableRecord
  2
*Paper_Space
340
35
  0
BLOCK_RECORD
  5
44
330
1
100
AcDbSymbolTableRecord
100
AcDbBlockTableRecord
  2
_DOT
340
0
102
{BLKREFS
331
4F
331
50
331
5B
331
5C
331
63
331
64
331
6F
331
70
331
7B
331
7C
331
87
331
88
331
92
331
93
331
9E
331
9F
331
AA
331
AB
331
B6
331
B7
331
C2
331
C3
331
CE
331
CF
331
D9
331
DA
331
E5
331
E6
331
F2
331
F3
331
FD
331
FE
331
109
331
10A
331
114
331
115
331
120
331
121
331
12C
331
12D
331
137
331
138
331
142
331
143
331
14E
331
14F
331
15A
331
15B
102
}
  0
BLOCK_RECORD
  5
4C
330
1
100
AcDbSymbolTableRecord
100
AcDbBlockTableRecord
  2
*D1
340
0
  0
BLOCK_RECORD
  5
57
330
1
100
AcDbSymbolTableRecord
100
AcDbBlockTableRecord
  2
*D2
340
0
  0
BLOCK_RECORD
  5
60
330
1
100
AcDbSymbolTableRecord
100
AcDbBlockTableRecord
  2
*D3
340
0
  0
BLOCK_RECORD
  5
6C
330
1
100
AcDbSymbolTableRecord
100
AcDbBlockTableRecord
  2
*D4
340
0
  0
BLOCK_RECORD
  5
78
330
1
100
AcDbSymbolTableRecord
100
AcDbBlockTableRecord
  2
*D5
340
0
  0
BLOCK_RECORD
  5
84
330
1
100
AcDbSymbolTableRecord
100
AcDbBlockTableRecord
  2
*D6
340
0
  0
BLOCK_RECORD
  5
8F
330
1
100
AcDbSymbolTableRecord
100
AcDbBlockTableRecord
  2
*D7
340
0
  0
BLOCK_RECORD
  5
9B
330
1
100
AcDbSymbolTableRecord
100
AcDbBlockTableRecord
  2
*D8
340
0
  0
BLOCK_RECORD
  5
A7
330
1
100
AcDbSymbolTableRecord
100
AcDbBlockTableRecord
  2
*D9
340
0
  0
BLOCK_RECORD
  5
B3
330
1
100
AcDbSymbolTableRecord
100
AcDbBlockTableRecord
  2
*D10
340
0
  0
BLOCK_RECORD
  5
BF
330
1
100
AcDbSymbolTableRecord
100
AcDbBlockTableRecord
  2
*D11
340
0
  0
BLOCK_RECORD
  5
CB
330
1
100
AcDbSymbolTableRecord
100
AcDbBlockTableRecord
  2
*D12
340
0
  0
BLOCK_RECORD
  5
D6
330
1
100
AcDbSymbolTableRecord
100
AcDbBlockTableRecord
  2
*D13
340
0
  0
BLOCK_RECORD
  5
E2
330
1
100
AcDbSymbolTableRecord
100
AcDbBlockTableRecord
  2
*D14
340
0
  0
BLOCK_RECORD
  5
EE
330
1
100
AcDbSymbolTableRecord
100
AcDbBlockTableRecord
  2
*D15
340
0
  0
BLOCK_RECORD
  5
FA
330
1
100
AcDbSymbolTableRecord
100
AcDbBlockTableRecord
  2
*D16
340
0
  0
BLOCK_RECORD
  5
105
330
1
100
AcDbSymbolTableRecord
100
AcDbBlockTableRecord
  2
*D17
340
0
  0
BLOCK_RECORD
  5
111
330
1
100
AcDbSymbolTableRecord
100
AcDbBlockTableRecord
  2
*D18
340
0
  0
BLOCK_RECORD
  5
11D
330
1
100
AcDbSymbolTableRecord
100
AcDbBlockTableRecord
  2
*D19
340
0
  0
BLOCK_RECORD
  5
129
330
1
100
AcDbSymbolTableRecord
100
AcDbBlockTableRecord
  2
*D20
340
0
  0
BLOCK_RECORD
  5
134
330
1
100
AcDbSymbolTableRecord
100
AcDbBlockTableRecord
  2
*D21
340
0
  0
BLOCK_RECORD
  5
13F
330
1
100
AcDbSymbolTableRecord
100
AcDbBlockTableRecord
  2
*D22
340
0
  0
BLOCK_RECORD
  5
14A
330
1
100
AcDbSymbolTableRecord
100
AcDbBlockTableRecord
  2
*D23
340
0
  0
BLOCK_RECORD
  5
156
330
1
100
AcDbSymbolTableRecord
100
AcDbBlockTableRecord
  2
*D24
340
0
  0
BLOCK_RECORD
  5
421
330
1
100
AcDbSymbolTableRecord
100
AcDbBlockTableRecord
  2
GENAXEH
340
0
  0
ENDTAB
  0
ENDSEC
  0
SECTION
  2
BLOCKS
  0
BLOCK
  5
37
330
36
100
AcDbEntity
  8
0
100
AcDbBlockBegin
  2
*Model_Space
 70
     0
 10
0.0
 20
0.0
 30
0.0
  3
*Model_Space
  1

  0
ENDBLK
  5
38
330
36
100
AcDbEntity
  8
0
100
AcDbBlockEnd
  0
BLOCK
  5
33
330
32
100
AcDbEntity
 67
     1
  8
0
100
AcDbBlockBegin
  2
*Paper_Space
 70
     0
 10
0.0
 20
0.0
 30
0.0
  3
*Paper_Space
  1

  0
ENDBLK
  5
34
330
32
100
AcDbEntity
 67
     1
  8
0
100
AcDbBlockEnd
  0
BLOCK
  5
45
330
44
100
AcDbEntity
  8
0
100
AcDbBlockBegin
  2
_DOT
 70
     0
 10
0.0
 20
0.0
 30
0.0
  3
_DOT
  1

  0
POLYLINE
  5
46
330
44
100
AcDbEntity
  8
0
  6
ByBlock
 62
     0
100
AcDb2dPolyline
 66
     1
 10
0.0
 20
0.0
 30
0.0
 70
     1
 40
0.4000000100000002
 41
0.4000000100000002
  0
VERTEX
  5
47
330
46
100
AcDbEntity
  8
0
  6
ByBlock
 62
     0
100
AcDbVertex
100
AcDb2dVertex
 10
-0.2
 20
0.0
 30
0.0
 42
1.0
  0
VERTEX
  5
48
330
46
100
AcDbEntity
  8
0
  6
ByBlock
 62
     0
100
AcDbVertex
100
AcDb2dVertex
 10
0.2
 20
0.0
 30
0.0
 42
1.0
  0
SEQEND
  5
49
330
46
100
AcDbEntity
  8
0
  6
ByBlock
 62
     0
  0
LINE
  5
4A
330
44
100
AcDbEntity
  8
0
  6
ByBlock
 62
     0
100
AcDbLine
 10
-0.4000000100000002
 20
0.0
 30
0.0
 11
-3.0
 21
0.0
 31
0.0
  0
ENDBLK
  5
4B
330
44
100
AcDbEntity
  8
0
100
AcDbBlockEnd
  0
BLOCK
  5
4D
330
4C
100
AcDbEntity
  8
0
100
AcDbBlockBegin
  2
*D1
 70
     1
 10
0.0
 20
0.0
 30
0.0
  3
*D1
  1

  0
LINE
  5
4E
330
4C
100
AcDbEntity
  8
0
  6
Continuous
 62
     7
100
AcDbLine
 10
-105.7394
 20
51.42764299999999
 30
0.0
 11
-105.7394
 21
45.42764299999999
 31
0.0
  0
INSERT
  5
4F
330
4C
100
AcDbEntity
  8
0
  6
Continuous
 62
     7
100
AcDbBlockReference
  2
_DOT
 10
-105.7394
 20
51.42764299999999
 30
0.0
 50
90.0
  0
INSERT
  5
50
330
4C
100
AcDbEntity
  8
0
  6
Continuous
 62
     7
100
AcDbBlockReference
  2
_DOT
 10
-105.7394
 20
45.42764299999999
 30
0.0
 50
270.0
  0
LINE
  5
51
330
4C
100
AcDbEntity
  8
0
  6
Continuous
 62
     7
100
AcDbLine
 10
-138.44941
 20
45.42764299999999
 30
0.0
 11
-105.73928
 21
45.42764299999999
 31
0.0
  0
TEXT
  5
52
330
4C
100
AcDbEntity
  8
0
  6
Continuous
 62
     7
100
AcDbText
 10
-106.4894
 20
47.35614299999999
 30
0.0
 40
3.0
  1
6
 50
90.00000300000001
100
AcDbText
  0
POINT
  5
53
330
4C
100
AcDbEntity
  8
DEFPOINTS
  6
Continuous
 62
     7
100
AcDbPoint
 10
-134.98943
 20
51.427639
 30
0.0
  0
POINT
  5
54
330
4C
100
AcDbEntity
  8
DEFPOINTS
  6
Continuous
 62
     7
100
AcDbPoint
 10
-140.98941
 20
45.42764299999999
 30
0.0
  0
POINT
  5
55
330
4C
100
AcDbEntity
  8
DEFPOINTS
  6
Continuous
 62
     7
100
AcDbPoint
 10
-105.7394
 20
45.42764299999999
 30
0.0
  0
ENDBLK
  5
56
330
4C
100
AcDbEntity
  8
0
100
AcDbBlockEnd
  0
BLOCK
  5
58
330
57
100
AcDbEntity
  8
0
100
AcDbBlockBegin
  2
*D2
 70
     1
 10
0.0
 20
0.0
 30
0.0
  3
*D2
  1

  0
LINE
  5
59
330
57
100
AcDbEntity
  8
0
  6
Continuous
 62
     7
100
AcDbLine
 10
-240.72121
 20
95.14504999999999
 30
0.0
 11
-252.58939
 21
66.76323700000001
 31
0.0
  0
LINE
  5
5A
330
57
100
AcDbEntity
  8
0
  6
Continuous
 62
     7
100
AcDbLine
 10
-237.55766
 20
102.71024
 30
0.0
 11
-240.72116
 21
95.14502699999999
 31
0.0
  0
INSERT
  5
5B
330
57
100
AcDbEntity
  8
0
  6
Continuous
 62
     7
100
AcDbBlockReference
  2
_DOT
 10
-237.55766
 20
102.71024
 30
0.0
 50
67.307073
  0
INSERT
  5
5C
330
57
100
AcDbEntity
  8
0
  6
Continuous
 62
     7
100
AcDbBlockReference
  2
_DOT
 10
-240.72116
 20
95.14502699999999
 30
0.0
 50
247.30707
  0
POINT
  5
5D
330
57
100
AcDbEntity
  8
DEFPOINTS
  6
Continuous
 62
     7
100
AcDbPoint
 10
-237.55766
 20
102.71024
 30
0.0
  0
POINT
  5
5E
330
57
100
AcDbEntity
  8
DEFPOINTS
  6
Continuous
 62
     7
100
AcDbPoint
 10
-240.72116
 20
95.14502699999999
 30
0.0
  0
ENDBLK
  5
5F
330
57
100
AcDbEntity
  8
0
100
AcDbBlockEnd
  0
BLOCK
  5
61
330
60
100
AcDbEntity
  8
0
100
AcDbBlockBegin
  2
*D3
 70
     1
 10
0.0
 20
0.0
 30
0.0
  3
*D3
  1

  0
LINE
  5
62
330
60
100
AcDbEntity
  8
0
  6
Continuous
 62
     7
100
AcDbLine
 10
-105.7394
 20
147.42764
 30
0.0
 11
-105.7394
 21
141.42764
 31
0.0
  0
INSERT
  5
63
330
60
100
AcDbEntity
  8
0
  6
Continuous
 62
     7
100
AcDbBlockReference
  2
_DOT
 10
-105.7394
 20
147.42764
 30
0.0
 50
90.0
  0
INSERT
  5
64
330
60
100
AcDbEntity
  8
0
  6
Continuous
 62
     7
100
AcDbBlockReference
  2
_DOT
 10
-105.7394
 20
141.42764
 30
0.0
 50
270.0
  0
LINE
  5
65
330
60
100
AcDbEntity
  8
0
  6
Continuous
 62
     7
100
AcDbLine
 10
-138.44941
 20
147.42766
 30
0.0
 11
-105.73928
 21
147.42766
 31
0.0
  0
LINE
  5
66
330
60
100
AcDbEntity
  8
0
  6
Continuous
 62
     7
100
AcDbLine
 10
-132.44943
 20
141.42764
 30
0.0
 11
-105.73928
 21
141.42764
 31
0.0
  0
TEXT
  5
67
330
60
100
AcDbEntity
  8
0
  6
Continuous
 62
     7
100
AcDbText
 10
-106.4894
 20
143.35614
 30
0.0
 40
3.0
  1
6
 50
90.00000300000001
100
AcDbText
  0
POINT
  5
68
330
60
100
AcDbEntity
  8
DEFPOINTS
  6
Continuous
 62
     7
100
AcDbPoint
 10
-140.98941
 20
147.42766
 30
0.0
  0
POINT
  5
69
330
60
100
AcDbEntity
  8
DEFPOINTS
  6
Continuous
 62
     7
100
AcDbPoint
 10
-134.98943
 20
141.42764
 30
0.0
  0
POINT
  5
6A
330
60
100
AcDbEntity
  8
DEFPOINTS
  6
Continuous
 62
     7
100
AcDbPoint
 10
-105.7394
 20
141.42764
 30
0.0
  0
ENDBLK
  5
6B
330
60
100
AcDbEntity
  8
0
100
AcDbBlockEnd
  0
BLOCK
  5
6D
330
6C
100
AcDbEntity
  8
0
100
AcDbBlockBegin
  2
*D4
 70
     1
 10
0.0
 20
0.0
 30
0.0
  3
*D4
  1

  0
LINE
  5
6E
330
6C
100
AcDbEntity
  8
0
  6
Continuous
 62
     7
100
AcDbLine
 10
103.50048
 20
168.75764
 30
0.0
 11
122.00049
 21
168.75764
 31
0.0
  0
INSERT
  5
6F
330
6C
100
AcDbEntity
  8
0
  6
Continuous
 62
     7
100
AcDbBlockReference
  2
_DOT
 10
103.50048
 20
168.75764
 30
0.0
 50
180.0
  0
INSERT
  5
70
330
6C
100
AcDbEntity
  8
0
  6
Continuous
 62
     7
100
AcDbBlockReference
  2
_DOT
 10
122.00049
 20
168.75764
 30
0.0
  0
LINE
  5
71
330
6C
100
AcDbEntity
  8
0
  6
Continuous
 62
     7
100
AcDbLine
 10
103.50048
 20
131.80106
 30
0.0
 11
103.50048
 21
168.75777
 31
0.0
  0
LINE
  5
72
330
6C
100
AcDbEntity
  8
0
  6
Continuous
 62
     7
100
AcDbLine
 10
122.00049
 20
152.54764
 30
0.0
 11
122.00049
 21
168.75777
 31
0.0
  0
TEXT
  5
73
330
6C
100
AcDbEntity
  8
0
  6
Continuous
 62
     7
100
AcDbText
 10
107.17897
 20
169.50764
 30
0.0
 40
3.0
  1
18.5
 41
1.392875
100
AcDbText
  0
POINT
  5
74
330
6C
100
AcDbEntity
  8
DEFPOINTS
  6
Continuous
 62
     7
100
AcDbPoint
 10
103.50048
 20
129.26106
 30
0.0
  0
POINT
  5
75
330
6C
100
AcDbEntity
  8
DEFPOINTS
  6
Continuous
 62
     7
100
AcDbPoint
 10
122.00049
 20
150.00764
 30
0.0
  0
POINT
  5
76
330
6C
100
AcDbEntity
  8
DEFPOINTS
  6
Continuous
 62
     7
100
AcDbPoint
 10
122.00049
 20
168.75764
 30
0.0
  0
ENDBLK
  5
77
330
6C
100
AcDbEntity
  8
0
100
AcDbBlockEnd
  0
BLOCK
  5
79
330
78
100
AcDbEntity
  8
0
100
AcDbBlockBegin
  2
*D5
 70
     1
 10
0.0
 20
0.0
 30
0.0
  3
*D5
  1

  0
LINE
  5
7A
330
78
100
AcDbEntity
  8
0
  6
Continuous
 62
     7
100
AcDbLine
 10
-176.23941
 20
147.42764
 30
0.0
 11
-176.23941
 21
45.42764299999999
 31
0.0
  0
INSERT
  5
7B
330
78
100
AcDbEntity
  8
0
  6
Continuous
 62
     7
100
AcDbBlockReference
  2
_DOT
 10
-176.23941
 20
147.42764
 30
0.0
 50
90.0
  0
INSERT
  5
7C
330
78
100
AcDbEntity
  8
0
  6
Continuous
 62
     7
100
AcDbBlockReference
  2
_DOT
 10
-176.23941
 20
45.42764299999999
 30
0.0
 50
270.0
  0
LINE
  5
7D
330
78
100
AcDbEntity
  8
0
  6
Continuous
 62
     7
100
AcDbLine
 10
-143.52941
 20
147.42766
 30
0.0
 11
-176.23953
 21
147.42766
 31
0.0
  0
LINE
  5
7E
330
78
100
AcDbEntity
  8
0
  6
Continuous
 62
     7
100
AcDbLine
 10
-143.52941
 20
45.42764299999999
 30
0.0
 11
-176.23953
 21
45.42764299999999
 31
0.0
  0
TEXT
  5
7F
330
78
100
AcDbEntity
  8
0
  6
Continuous
 62
     7
100
AcDbText
 10
-176.98941
 20
92.35614299999999
 30
0.0
 40
3.0
  1
102
 50
90.00000300000001
 41
1.2527693
100
AcDbText
  0
POINT
  5
80
330
78
100
AcDbEntity
  8
DEFPOINTS
  6
Continuous
 62
     7
100
AcDbPoint
 10
-140.98941
 20
147.42766
 30
0.0
  0
POINT
  5
81
330
78
100
AcDbEntity
  8
DEFPOINTS
  6
Continuous
 62
     7
100
AcDbPoint
 10
-140.98941
 20
45.42764299999999
 30
0.0
  0
POINT
  5
82
330
78
100
AcDbEntity
  8
DEFPOINTS
  6
Continuous
 62
     7
100
AcDbPoint
 10
-176.23941
 20
45.42764299999999
 30
0.0
  0
ENDBLK
  5
83
330
78
100
AcDbEntity
  8
0
100
AcDbBlockEnd
  0
BLOCK
  5
85
330
84
100
AcDbEntity
  8
0
100
AcDbBlockBegin
  2
*D6
 70
     1
 10
0.0
 20
0.0
 30
0.0
  3
*D6
  1

  0
LINE
  5
86
330
84
100
AcDbEntity
  8
0
  6
Continuous
 62
     7
100
AcDbLine
 10
-49.199383
 20
69.677635
 30
0.0
 11
-41.699383
 21
69.677635
 31
0.0
  0
INSERT
  5
87
330
84
100
AcDbEntity
  8
0
  6
Continuous
 62
     7
100
AcDbBlockReference
  2
_DOT
 10
-49.199383
 20
69.677635
 30
0.0
 50
180.0
  0
INSERT
  5
88
330
84
100
AcDbEntity
  8
0
  6
Continuous
 62
     7
100
AcDbBlockReference
  2
_DOT
 10
-41.699383
 20
69.677635
 30
0.0
  0
LINE
  5
89
330
84
100
AcDbEntity
  8
0
  6
Continuous
 62
     7
100
AcDbLine
 10
-41.699383
 20
102.88764
 30
0.0
 11
-41.699383
 21
69.67750500000001
 31
0.0
  0
TEXT
  5
8A
330
84
100
AcDbEntity
  8
0
  6
Continuous
 62
     7
100
AcDbText
 10
-49.520883
 20
65.16263499999999
 30
0.0
 40
3.0
  1
7.5
 41
1.357166699999999
100
AcDbText
  0
POINT
  5
8B
330
84
100
AcDbEntity
  8
DEFPOINTS
  6
Continuous
 62
     7
100
AcDbPoint
 10
-49.199383
 20
92.92763499999999
 30
0.0
  0
POINT
  5
8C
330
84
100
AcDbEntity
  8
DEFPOINTS
  6
Continuous
 62
     7
100
AcDbPoint
 10
-41.699383
 20
105.42764
 30
0.0
  0
POINT
  5
8D
330
84
100
AcDbEntity
  8
DEFPOINTS
  6
Continuous
 62
     7
100
AcDbPoint
 10
-41.699383
 20
69.677635
 30
0.0
  0
ENDBLK
  5
8E
330
84
100
AcDbEntity
  8
0
100
AcDbBlockEnd
  0
BLOCK
  5
90
330
8F
100
AcDbEntity
  8
0
100
AcDbBlockBegin
  2
*D7
 70
     1
 10
0.0
 20
0.0
 30
0.0
  3
*D7
  1

  0
LINE
  5
91
330
8F
100
AcDbEntity
  8
0
  6
Continuous
 62
     7
100
AcDbLine
 10
-105.7394
 20
141.42764
 30
0.0
 11
-105.7394
 21
96.42764300000001
 31
0.0
  0
INSERT
  5
92
330
8F
100
AcDbEntity
  8
0
  6
Continuous
 62
     7
100
AcDbBlockReference
  2
_DOT
 10
-105.7394
 20
141.42764
 30
0.0
 50
90.0
  0
INSERT
  5
93
330
8F
100
AcDbEntity
  8
0
  6
Continuous
 62
     7
100
AcDbBlockReference
  2
_DOT
 10
-105.7394
 20
96.42764300000001
 30
0.0
 50
270.0
  0
LINE
  5
94
330
8F
100
AcDbEntity
  8
0
  6
Continuous
 62
     7
100
AcDbLine
 10
-132.44943
 20
141.42764
 30
0.0
 11
-105.73928
 21
141.42764
 31
0.0
  0
LINE
  5
95
330
8F
100
AcDbEntity
  8
0
  6
Continuous
 62
     7
100
AcDbLine
 10
-123.12541
 20
96.42764300000001
 30
0.0
 11
-105.73928
 21
96.42764300000001
 31
0.0
  0
TEXT
  5
96
330
8F
100
AcDbEntity
  8
0
  6
Continuous
 62
     7
100
AcDbText
 10
-106.4894
 20
100.45881
 30
0.0
 40
3.0
  1
45
 50
90.00000300000001
 41
1.028599999999998
100
AcDbText
  0
POINT
  5
97
330
8F
100
AcDbEntity
  8
DEFPOINTS
  6
Continuous
 62
     7
100
AcDbPoint
 10
-134.98943
 20
141.42764
 30
0.0
  0
POINT
  5
98
330
8F
100
AcDbEntity
  8
DEFPOINTS
  6
Continuous
 62
     7
100
AcDbPoint
 10
-125.66541
 20
96.42764300000001
 30
0.0
  0
POINT
  5
99
330
8F
100
AcDbEntity
  8
DEFPOINTS
  6
Continuous
 62
     7
100
AcDbPoint
 10
-105.7394
 20
96.42764300000001
 30
0.0
  0
ENDBLK
  5
9A
330
8F
100
AcDbEntity
  8
0
100
AcDbBlockEnd
  0
BLOCK
  5
9C
330
9B
100
AcDbEntity
  8
0
100
AcDbBlockBegin
  2
*D8
 70
     1
 10
0.0
 20
0.0
 30
0.0
  3
*D8
  1

  0
LINE
  5
9D
330
9B
100
AcDbEntity
  8
0
  6
Continuous
 62
     7
100
AcDbLine
 10
-280.9213899999999
 20
195.23849
 30
0.0
 11
44.880623
 21
195.23849
 31
0.0
  0
INSERT
  5
9E
330
9B
100
AcDbEntity
  8
0
  6
Continuous
 62
     7
100
AcDbBlockReference
  2
_DOT
 10
-280.9213899999999
 20
195.23849
 30
0.0
 50
180.0
  0
INSERT
  5
9F
330
9B
100
AcDbEntity
  8
0
  6
Continuous
 62
     7
100
AcDbBlockReference
  2
_DOT
 10
44.880623
 20
195.23849
 30
0.0
  0
LINE
  5
A0
330
9B
100
AcDbEntity
  8
0
  6
Continuous
 62
     7
100
AcDbLine
 10
-280.9213899999999
 20
125.02764
 30
0.0
 11
-280.9213899999999
 21
197.11349
 31
0.0
  0
LINE
  5
A1
330
9B
100
AcDbEntity
  8
0
  6
Continuous
 62
     7
100
AcDbLine
 10
44.880623
 20
134.78763
 30
0.0
 11
44.880623
 21
197.11349
 31
0.0
  0
TEXT
  5
A2
330
9B
100
AcDbEntity
  8
0
  6
Continuous
 62
     7
100
AcDbText
 10
-119.09189
 20
195.98849
 30
0.0
 40
3.0
  1
L
100
AcDbText
  0
POINT
  5
A3
330
9B
100
AcDbEntity
  8
DEFPOINTS
  6
Continuous
 62
     7
100
AcDbPoint
 10
-280.9213899999999
 20
122.48764
 30
0.0
  0
POINT
  5
A4
330
9B
100
AcDbEntity
  8
DEFPOINTS
  6
Continuous
 62
     7
100
AcDbPoint
 10
44.880623
 20
132.24763
 30
0.0
  0
POINT
  5
A5
330
9B
100
AcDbEntity
  8
DEFPOINTS
  6
Continuous
 62
     7
100
AcDbPoint
 10
44.880623
 20
195.23849
 30
0.0
  0
ENDBLK
  5
A6
330
9B
100
AcDbEntity
  8
0
100
AcDbBlockEnd
  0
BLOCK
  5
A8
330
A7
100
AcDbEntity
  8
0
100
AcDbBlockBegin
  2
*D9
 70
     1
 10
0.0
 20
0.0
 30
0.0
  3
*D9
  1

  0
LINE
  5
A9
330
A7
100
AcDbEntity
  8
0
  6
Continuous
 62
     7
100
AcDbLine
 10
-124.4894
 20
166.17766
 30
0.0
 11
-157.48941
 21
166.17766
 31
0.0
  0
INSERT
  5
AA
330
A7
100
AcDbEntity
  8
0
  6
Continuous
 62
     7
100
AcDbBlockReference
  2
_DOT
 10
-124.4894
 20
166.17766
 30
0.0
  0
INSERT
  5
AB
330
A7
100
AcDbEntity
  8
0
  6
Continuous
 62
     7
100
AcDbBlockReference
  2
_DOT
 10
-157.48941
 20
166.17766
 30
0.0
 50
180.0
  0
LINE
  5
AC
330
A7
100
AcDbEntity
  8
0
  6
Continuous
 62
     7
100
AcDbLine
 10
-124.4894
 20
133.46764
 30
0.0
 11
-124.4894
 21
168.05266
 31
0.0
  0
LINE
  5
AD
330
A7
100
AcDbEntity
  8
0
  6
Continuous
 62
     7
100
AcDbLine
 10
-157.48941
 20
133.46764
 30
0.0
 11
-157.48941
 21
168.05266
 31
0.0
  0
TEXT
  5
AE
330
A7
100
AcDbEntity
  8
0
  6
Continuous
 62
     7
100
AcDbText
 10
-134.70016
 20
166.92766
 30
0.0
 40
3.0
  1
33
 41
1.028599999999998
100
AcDbText
  0
POINT
  5
AF
330
A7
100
AcDbEntity
  8
DEFPOINTS
  6
Continuous
 62
     7
100
AcDbPoint
 10
-124.4894
 20
130.92764
 30
0.0
  0
POINT
  5
B0
330
A7
100
AcDbEntity
  8
DEFPOINTS
  6
Continuous
 62
     7
100
AcDbPoint
 10
-157.48941
 20
130.92764
 30
0.0
  0
POINT
  5
B1
330
A7
100
AcDbEntity
  8
DEFPOINTS
  6
Continuous
 62
     7
100
AcDbPoint
 10
-157.48941
 20
166.17766
 30
0.0
  0
ENDBLK
  5
B2
330
A7
100
AcDbEntity
  8
0
100
AcDbBlockEnd
  0
BLOCK
  5
B4
330
B3
100
AcDbEntity
  8
0
100
AcDbBlockBegin
  2
*D10
 70
     1
 10
0.0
 20
0.0
 30
0.0
  3
*D10
  1

  0
LINE
  5
B5
330
B3
100
AcDbEntity
  8
0
  6
Continuous
 62
     7
100
AcDbLine
 10
-49.199383
 20
69.677635
 30
0.0
 11
-68.19937900000001
 21
69.677635
 31
0.0
  0
INSERT
  5
B6
330
B3
100
AcDbEntity
  8
0
  6
Continuous
 62
     7
100
AcDbBlockReference
  2
_DOT
 10
-49.199383
 20
69.677635
 30
0.0
  0
INSERT
  5
B7
330
B3
100
AcDbEntity
  8
0
  6
Continuous
 62
     7
100
AcDbBlockReference
  2
_DOT
 10
-68.19937900000001
 20
69.677635
 30
0.0
 50
180.0
  0
LINE
  5
B8
330
B3
100
AcDbEntity
  8
0
  6
Continuous
 62
     7
100
AcDbLine
 10
-49.199383
 20
90.38763499999999
 30
0.0
 11
-49.199383
 21
69.67750500000001
 31
0.0
  0
LINE
  5
B9
330
B3
100
AcDbEntity
  8
0
  6
Continuous
 62
     7
100
AcDbLine
 10
-68.19937900000001
 20
90.38763499999999
 30
0.0
 11
-68.19937900000001
 21
69.67750500000001
 31
0.0
  0
TEXT
  5
BA
330
B3
100
AcDbEntity
  8
0
  6
Continuous
 62
     7
100
AcDbText
 10
-61.270879
 20
70.42763499999998
 30
0.0
 40
3.0
  1
19
 41
1.285749999999999
100
AcDbText
  0
POINT
  5
BB
330
B3
100
AcDbEntity
  8
DEFPOINTS
  6
Continuous
 62
     7
100
AcDbPoint
 10
-49.199383
 20
92.92763499999999
 30
0.0
  0
POINT
  5
BC
330
B3
100
AcDbEntity
  8
DEFPOINTS
  6
Continuous
 62
     7
100
AcDbPoint
 10
-68.19937900000001
 20
92.92763499999999
 30
0.0
  0
POINT
  5
BD
330
B3
100
AcDbEntity
  8
DEFPOINTS
  6
Continuous
 62
     7
100
AcDbPoint
 10
-68.19937900000001
 20
69.677635
 30
0.0
  0
ENDBLK
  5
BE
330
B3
100
AcDbEntity
  8
0
100
AcDbBlockEnd
  0
BLOCK
  5
C0
330
BF
100
AcDbEntity
  8
0
100
AcDbBlockBegin
  2
*D11
 70
     1
 10
0.0
 20
0.0
 30
0.0
  3
*D11
  1

  0
LINE
  5
C1
330
BF
100
AcDbEntity
  8
0
  6
Continuous
 62
     7
100
AcDbLine
 10
-75.69937900000002
 20
168.75764
 30
0.0
 11
-41.699383
 21
168.75764
 31
0.0
  0
INSERT
  5
C2
330
BF
100
AcDbEntity
  8
0
  6
Continuous
 62
     7
100
AcDbBlockReference
  2
_DOT
 10
-75.69937900000002
 20
168.75764
 30
0.0
 50
180.0
  0
INSERT
  5
C3
330
BF
100
AcDbEntity
  8
0
  6
Continuous
 62
     7
100
AcDbBlockReference
  2
_DOT
 10
-41.699383
 20
168.75764
 30
0.0
  0
LINE
  5
C4
330
BF
100
AcDbEntity
  8
0
  6
Continuous
 62
     7
100
AcDbLine
 10
-75.69937900000002
 20
134.96764
 30
0.0
 11
-75.69937900000002
 21
168.75777
 31
0.0
  0
LINE
  5
C5
330
BF
100
AcDbEntity
  8
0
  6
Continuous
 62
     7
100
AcDbLine
 10
-41.699383
 20
134.96764
 30
0.0
 11
-41.699383
 21
168.75777
 31
0.0
  0
TEXT
  5
C6
330
BF
100
AcDbEntity
  8
0
  6
Continuous
 62
     7
100
AcDbText
 10
-61.270879
 20
169.50764
 30
0.0
 40
3.0
  1
34
 41
1.028599999999998
100
AcDbText
  0
POINT
  5
C7
330
BF
100
AcDbEntity
  8
DEFPOINTS
  6
Continuous
 62
     7
100
AcDbPoint
 10
-75.69937900000002
 20
132.42764
 30
0.0
  0
POINT
  5
C8
330
BF
100
AcDbEntity
  8
DEFPOINTS
  6
Continuous
 62
     7
100
AcDbPoint
 10
-41.699383
 20
132.42764
 30
0.0
  0
POINT
  5
C9
330
BF
100
AcDbEntity
  8
DEFPOINTS
  6
Continuous
 62
     7
100
AcDbPoint
 10
-41.699383
 20
168.75764
 30
0.0
  0
ENDBLK
  5
CA
330
BF
100
AcDbEntity
  8
0
100
AcDbBlockEnd
  0
BLOCK
  5
CC
330
CB
100
AcDbEntity
  8
0
100
AcDbBlockBegin
  2
*D12
 70
     1
 10
0.0
 20
0.0
 30
0.0
  3
*D12
  1

  0
LINE
  5
CD
330
CB
100
AcDbEntity
  8
0
  6
Continuous
 62
     7
100
AcDbLine
 10
-68.19937900000001
 20
69.677635
 30
0.0
 11
-75.69937900000002
 21
69.677635
 31
0.0
  0
INSERT
  5
CE
330
CB
100
AcDbEntity
  8
0
  6
Continuous
 62
     7
100
AcDbBlockReference
  2
_DOT
 10
-68.19937900000001
 20
69.677635
 30
0.0
  0
INSERT
  5
CF
330
CB
100
AcDbEntity
  8
0
  6
Continuous
 62
     7
100
AcDbBlockReference
  2
_DOT
 10
-75.69937900000002
 20
69.677635
 30
0.0
 50
180.0
  0
LINE
  5
D0
330
CB
100
AcDbEntity
  8
0
  6
Continuous
 62
     7
100
AcDbLine
 10
-75.69937900000002
 20
102.88764
 30
0.0
 11
-75.69937900000002
 21
69.67750500000001
 31
0.0
  0
TEXT
  5
D1
330
CB
100
AcDbEntity
  8
0
  6
Continuous
 62
     7
100
AcDbText
 10
-76.020879
 20
65.16263499999999
 30
0.0
 40
3.0
  1
7.5
 41
1.357166699999999
100
AcDbText
  0
POINT
  5
D2
330
CB
100
AcDbEntity
  8
DEFPOINTS
  6
Continuous
 62
     7
100
AcDbPoint
 10
-68.19937900000001
 20
92.92763499999999
 30
0.0
  0
POINT
  5
D3
330
CB
100
AcDbEntity
  8
DEFPOINTS
  6
Continuous
 62
     7
100
AcDbPoint
 10
-75.69937900000002
 20
105.42764
 30
0.0
  0
POINT
  5
D4
330
CB
100
AcDbEntity
  8
DEFPOINTS
  6
Continuous
 62
     7
100
AcDbPoint
 10
-75.69937900000002
 20
69.677635
 30
0.0
  0
ENDBLK
  5
D5
330
CB
100
AcDbEntity
  8
0
100
AcDbBlockEnd
  0
BLOCK
  5
D7
330
D6
100
AcDbEntity
  8
0
100
AcDbBlockBegin
  2
*D13
 70
     1
 10
0.0
 20
0.0
 30
0.0
  3
*D13
  1

  0
LINE
  5
D8
330
D6
100
AcDbEntity
  8
0
  6
Continuous
 62
     7
100
AcDbLine
 10
-299.6713899999999
 20
126.92764
 30
0.0
 11
-299.6713899999999
 21
110.92764
 31
0.0
  0
INSERT
  5
D9
330
D6
100
AcDbEntity
  8
0
  6
Continuous
 62
     7
100
AcDbBlockReference
  2
_DOT
 10
-299.6713899999999
 20
126.92764
 30
0.0
 50
90.0
  0
INSERT
  5
DA
330
D6
100
AcDbEntity
  8
0
  6
Continuous
 62
     7
100
AcDbBlockReference
  2
_DOT
 10
-299.6713899999999
 20
110.92764
 30
0.0
 50
270.0
  0
LINE
  5
DB
330
D6
100
AcDbEntity
  8
0
  6
Continuous
 62
     7
100
AcDbLine
 10
-279.02145
 20
126.92764
 30
0.0
 11
-299.67154
 21
126.92764
 31
0.0
  0
LINE
  5
DC
330
D6
100
AcDbEntity
  8
0
  6
Continuous
 62
     7
100
AcDbLine
 10
-279.02145
 20
110.92764
 30
0.0
 11
-299.67154
 21
110.92764
 31
0.0
  0
TEXT
  5
DD
330
D6
100
AcDbEntity
  8
0
  6
Continuous
 62
     7
100
AcDbText
 10
-300.42139
 20
114.85614
 30
0.0
 40
3.0
  1
%%C16
 50
90.00000300000001
 41
1.075693499999998
100
AcDbText
  0
POINT
  5
DE
330
D6
100
AcDbEntity
  8
DEFPOINTS
  6
Continuous
 62
     7
100
AcDbPoint
 10
-276.48145
 20
126.92764
 30
0.0
  0
POINT
  5
DF
330
D6
100
AcDbEntity
  8
DEFPOINTS
  6
Continuous
 62
     7
100
AcDbPoint
 10
-276.48145
 20
110.92764
 30
0.0
  0
POINT
  5
E0
330
D6
100
AcDbEntity
  8
DEFPOINTS
  6
Continuous
 62
     7
100
AcDbPoint
 10
-299.6713899999999
 20
110.92764
 30
0.0
  0
ENDBLK
  5
E1
330
D6
100
AcDbEntity
  8
0
100
AcDbBlockEnd
  0
BLOCK
  5
E3
330
E2
100
AcDbEntity
  8
0
100
AcDbBlockBegin
  2
*D14
 70
     1
 10
0.0
 20
0.0
 30
0.0
  3
*D14
  1

  0
LINE
  5
E4
330
E2
100
AcDbEntity
  8
0
  6
Continuous
 62
     7
100
AcDbLine
 10
-22.949377
 20
138.92764
 30
0.0
 11
-22.949377
 21
98.92764300000001
 31
0.0
  0
INSERT
  5
E5
330
E2
100
AcDbEntity
  8
0
  6
Continuous
 62
     7
100
AcDbBlockReference
  2
_DOT
 10
-22.949377
 20
138.92764
 30
0.0
 50
90.0
  0
INSERT
  5
E6
330
E2
100
AcDbEntity
  8
0
  6
Continuous
 62
     7
100
AcDbBlockReference
  2
_DOT
 10
-22.949377
 20
98.92764300000001
 30
0.0
 50
270.0
  0
LINE
  5
E7
330
E2
100
AcDbEntity
  8
0
  6
Continuous
 62
     7
100
AcDbLine
 10
-40.659406
 20
138.92764
 30
0.0
 11
-22.949253
 21
138.92764
 31
0.0
  0
LINE
  5
E8
330
E2
100
AcDbEntity
  8
0
  6
Continuous
 62
     7
100
AcDbLine
 10
-40.659406
 20
98.927635
 30
0.0
 11
-22.949253
 21
98.927635
 31
0.0
  0
TEXT
  5
E9
330
E2
100
AcDbEntity
  8
0
  6
Continuous
 62
     7
100
AcDbText
 10
-18.434377
 20
101.58483
 30
0.0
 40
3.0
  1
40
 50
90.00000300000001
 41
1.1020715
100
AcDbText
  0
POINT
  5
EA
330
E2
100
AcDbEntity
  8
DEFPOINTS
  6
Continuous
 62
     7
100
AcDbPoint
 10
-43.199406
 20
138.92764
 30
0.0
  0
POINT
  5
EB
330
E2
100
AcDbEntity
  8
DEFPOINTS
  6
Continuous
 62
     7
100
AcDbPoint
 10
-43.199406
 20
98.927635
 30
0.0
  0
POINT
  5
EC
330
E2
100
AcDbEntity
  8
DEFPOINTS
  6
Continuous
 62
     7
100
AcDbPoint
 10
-22.949377
 20
98.92764300000001
 30
0.0
  0
ENDBLK
  5
ED
330
E2
100
AcDbEntity
  8
0
100
AcDbBlockEnd
  0
BLOCK
  5
EF
330
EE
100
AcDbEntity
  8
0
100
AcDbBlockBegin
  2
*D15
 70
     1
 10
0.0
 20
0.0
 30
0.0
  3
*D15
  1

  0
LINE
  5
F0
330
EE
100
AcDbEntity
  8
0
  6
Continuous
 62
     7
100
AcDbLine
 10
-22.949377
 20
88.427635
 30
0.0
 11
-22.949377
 21
71.57531699999998
 31
0.0
  0
LINE
  5
F1
330
EE
100
AcDbEntity
  8
0
  6
Continuous
 62
     7
100
AcDbLine
 10
-22.949377
 20
98.92764300000001
 30
0.0
 11
-22.949377
 21
88.427635
 31
0.0
  0
INSERT
  5
F2
330
EE
100
AcDbEntity
  8
0
  6
Continuous
 62
     7
100
AcDbBlockReference
  2
_DOT
 10
-22.949377
 20
98.92764300000001
 30
0.0
 50
90.0
  0
INSERT
  5
F3
330
EE
100
AcDbEntity
  8
0
  6
Continuous
 62
     7
100
AcDbBlockReference
  2
_DOT
 10
-22.949377
 20
88.427635
 30
0.0
 50
270.0
  0
LINE
  5
F4
330
EE
100
AcDbEntity
  8
0
  6
Continuous
 62
     7
100
AcDbLine
 10
-56.159379
 20
88.427635
 30
0.0
 11
-22.949253
 21
88.427635
 31
0.0
  0
TEXT
  5
F5
330
EE
100
AcDbEntity
  8
0
  6
Continuous
 62
     7
100
AcDbText
 10
-23.699377
 20
72.968188
 30
0.0
 40
3.0
  1
10.5
 50
90.00000300000001
 41
1.485733399999999
100
AcDbText
  0
POINT
  5
F6
330
EE
100
AcDbEntity
  8
DEFPOINTS
  6
Continuous
 62
     7
100
AcDbPoint
 10
-43.199406
 20
98.927635
 30
0.0
  0
POINT
  5
F7
330
EE
100
AcDbEntity
  8
DEFPOINTS
  6
Continuous
 62
     7
100
AcDbPoint
 10
-58.699379
 20
88.427635
 30
0.0
  0
POINT
  5
F8
330
EE
100
AcDbEntity
  8
DEFPOINTS
  6
Continuous
 62
     7
100
AcDbPoint
 10
-22.949377
 20
88.427635
 30
0.0
  0
ENDBLK
  5
F9
330
EE
100
AcDbEntity
  8
0
100
AcDbBlockEnd
  0
BLOCK
  5
FB
330
FA
100
AcDbEntity
  8
0
100
AcDbBlockBegin
  2
*D16
 70
     1
 10
0.0
 20
0.0
 30
0.0
  3
*D16
  1

  0
LINE
  5
FC
330
FA
100
AcDbEntity
  8
0
  6
Continuous
 62
     7
100
AcDbLine
 10
-105.7394
 20
96.42764300000001
 30
0.0
 11
-105.7394
 21
51.42764299999999
 31
0.0
  0
INSERT
  5
FD
330
FA
100
AcDbEntity
  8
0
  6
Continuous
 62
     7
100
AcDbBlockReference
  2
_DOT
 10
-105.7394
 20
96.42764300000001
 30
0.0
 50
90.0
  0
INSERT
  5
FE
330
FA
100
AcDbEntity
  8
0
  6
Continuous
 62
     7
100
AcDbBlockReference
  2
_DOT
 10
-105.7394
 20
51.42764299999999
 30
0.0
 50
270.0
  0
LINE
  5
FF
330
FA
100
AcDbEntity
  8
0
  6
Continuous
 62
     7
100
AcDbLine
 10
-132.44943
 20
51.427639
 30
0.0
 11
-105.73928
 21
51.427639
 31
0.0
  0
TEXT
  5
100
330
FA
100
AcDbEntity
  8
0
  6
Continuous
 62
     7
100
AcDbText
 10
-106.4894
 20
71.356143
 30
0.0
 40
3.0
  1
45
 50
90.00000300000001
 41
1.028599999999998
100
AcDbText
  0
POINT
  5
101
330
FA
100
AcDbEntity
  8
DEFPOINTS
  6
Continuous
 62
     7
100
AcDbPoint
 10
-125.66541
 20
96.42764300000001
 30
0.0
  0
POINT
  5
102
330
FA
100
AcDbEntity
  8
DEFPOINTS
  6
Continuous
 62
     7
100
AcDbPoint
 10
-134.98943
 20
51.427639
 30
0.0
  0
POINT
  5
103
330
FA
100
AcDbEntity
  8
DEFPOINTS
  6
Continuous
 62
     7
100
AcDbPoint
 10
-105.7394
 20
51.42764299999999
 30
0.0
  0
ENDBLK
  5
104
330
FA
100
AcDbEntity
  8
0
100
AcDbBlockEnd
  0
BLOCK
  5
106
330
105
100
AcDbEntity
  8
0
100
AcDbBlockBegin
  2
*D17
 70
     1
 10
0.0
 20
0.0
 30
0.0
  3
*D17
  1

  0
LINE
  5
107
330
105
100
AcDbEntity
  8
0
  6
Continuous
 62
     7
100
AcDbLine
 10
-22.949377
 20
149.42763
 30
0.0
 11
-22.949377
 21
166.41194
 31
0.0
  0
LINE
  5
108
330
105
100
AcDbEntity
  8
0
  6
Continuous
 62
     7
100
AcDbLine
 10
-22.949377
 20
149.42763
 30
0.0
 11
-22.949377
 21
138.92764
 31
0.0
  0
INSERT
  5
109
330
105
100
AcDbEntity
  8
0
  6
Continuous
 62
     7
100
AcDbBlockReference
  2
_DOT
 10
-22.949377
 20
149.42763
 30
0.0
 50
90.0
  0
INSERT
  5
10A
330
105
100
AcDbEntity
  8
0
  6
Continuous
 62
     7
100
AcDbBlockReference
  2
_DOT
 10
-22.949377
 20
138.92764
 30
0.0
 50
270.0
  0
LINE
  5
10B
330
105
100
AcDbEntity
  8
0
  6
Continuous
 62
     7
100
AcDbLine
 10
-56.159379
 20
149.42763
 30
0.0
 11
-22.949253
 21
149.42763
 31
0.0
  0
TEXT
  5
10C
330
105
100
AcDbEntity
  8
0
  6
Continuous
 62
     7
100
AcDbText
 10
-23.699377
 20
153.87607
 30
0.0
 40
3.0
  1
10.5
 50
90.00000300000001
 41
1.485733399999999
100
AcDbText
  0
POINT
  5
10D
330
105
100
AcDbEntity
  8
DEFPOINTS
  6
Continuous
 62
     7
100
AcDbPoint
 10
-58.699379
 20
149.42763
 30
0.0
  0
POINT
  5
10E
330
105
100
AcDbEntity
  8
DEFPOINTS
  6
Continuous
 62
     7
100
AcDbPoint
 10
-43.199406
 20
138.92764
 30
0.0
  0
POINT
  5
10F
330
105
100
AcDbEntity
  8
DEFPOINTS
  6
Continuous
 62
     7
100
AcDbPoint
 10
-22.949377
 20
138.92764
 30
0.0
  0
ENDBLK
  5
110
330
105
100
AcDbEntity
  8
0
100
AcDbBlockEnd
  0
BLOCK
  5
112
330
111
100
AcDbEntity
  8
0
100
AcDbBlockBegin
  2
*D18
 70
     1
 10
0.0
 20
0.0
 30
0.0
  3
*D18
  1

  0
LINE
  5
113
330
111
100
AcDbEntity
  8
0
  6
Continuous
 62
     7
100
AcDbLine
 10
-150.98941
 20
25.745085
 30
0.0
 11
-130.98941
 21
25.745085
 31
0.0
  0
INSERT
  5
114
330
111
100
AcDbEntity
  8
0
  6
Continuous
 62
     7
100
AcDbBlockReference
  2
_DOT
 10
-150.98941
 20
25.745085
 30
0.0
 50
180.0
  0
INSERT
  5
115
330
111
100
AcDbEntity
  8
0
  6
Continuous
 62
     7
100
AcDbBlockReference
  2
_DOT
 10
-130.98941
 20
25.745085
 30
0.0
  0
LINE
  5
116
330
111
100
AcDbEntity
  8
0
  6
Continuous
 62
     7
100
AcDbLine
 10
-150.98941
 20
87.88764300000002
 30
0.0
 11
-150.98941
 21
24.245087
 31
0.0
  0
LINE
  5
117
330
111
100
AcDbEntity
  8
0
  6
Continuous
 62
     7
100
AcDbLine
 10
-130.98941
 20
87.88764300000002
 30
0.0
 11
-130.98941
 21
24.245087
 31
0.0
  0
TEXT
  5
118
330
111
100
AcDbEntity
  8
0
  6
Continuous
 62
     7
100
AcDbText
 10
-143.73227
 20
26.545085
 30
0.0
 40
3.2
  1
20
 41
1.102041
100
AcDbText
  0
POINT
  5
119
330
111
100
AcDbEntity
  8
DEFPOINTS
  6
Continuous
 62
     7
100
AcDbPoint
 10
-150.98941
 20
90.42764299999999
 30
0.0
  0
POINT
  5
11A
330
111
100
AcDbEntity
  8
DEFPOINTS
  6
Continuous
 62
     7
100
AcDbPoint
 10
-130.98941
 20
90.42764299999999
 30
0.0
  0
POINT
  5
11B
330
111
100
AcDbEntity
  8
DEFPOINTS
  6
Continuous
 62
     7
100
AcDbPoint
 10
-130.98941
 20
25.745085
 30
0.0
  0
ENDBLK
  5
11C
330
111
100
AcDbEntity
  8
0
100
AcDbBlockEnd
  0
BLOCK
  5
11E
330
11D
100
AcDbEntity
  8
0
100
AcDbBlockBegin
  2
*D19
 70
     1
 10
0.0
 20
0.0
 30
0.0
  3
*D19
  1

  0
LINE
  5
11F
330
11D
100
AcDbEntity
  8
0
  6
Continuous
 62
     7
100
AcDbLine
 10
-280.9213899999999
 20
181.95752
 30
0.0
 11
-140.98941
 21
181.95752
 31
0.0
  0
INSERT
  5
120
330
11D
100
AcDbEntity
  8
0
  6
Continuous
 62
     7
100
AcDbBlockReference
  2
_DOT
 10
-280.9213899999999
 20
181.95752
 30
0.0
 50
180.0
  0
INSERT
  5
121
330
11D
100
AcDbEntity
  8
0
  6
Continuous
 62
     7
100
AcDbBlockReference
  2
_DOT
 10
-140.98941
 20
181.95752
 30
0.0
  0
LINE
  5
122
330
11D
100
AcDbEntity
  8
0
  6
Continuous
 62
     7
100
AcDbLine
 10
-280.9213899999999
 20
125.02764
 30
0.0
 11
-280.9213899999999
 21
183.83252
 31
0.0
  0
LINE
  5
123
330
11D
100
AcDbEntity
  8
0
  6
Continuous
 62
     7
100
AcDbLine
 10
-140.98941
 20
152.54764
 30
0.0
 11
-140.98941
 21
183.83252
 31
0.0
  0
TEXT
  5
124
330
11D
100
AcDbEntity
  8
0
  6
Continuous
 62
     7
100
AcDbText
 10
-212.09826
 20
182.75752
 30
0.0
 40
3.2
  1
A
100
AcDbText
  0
POINT
  5
125
330
11D
100
AcDbEntity
  8
DEFPOINTS
  6
Continuous
 62
     7
100
AcDbPoint
 10
-280.9213899999999
 20
122.48764
 30
0.0
  0
POINT
  5
126
330
11D
100
AcDbEntity
  8
DEFPOINTS
  6
Continuous
 62
     7
100
AcDbPoint
 10
-140.98941
 20
150.00764
 30
0.0
  0
POINT
  5
127
330
11D
100
AcDbEntity
  8
DEFPOINTS
  6
Continuous
 62
     7
100
AcDbPoint
 10
-140.98941
 20
181.95752
 30
0.0
  0
ENDBLK
  5
128
330
11D
100
AcDbEntity
  8
0
100
AcDbBlockEnd
  0
BLOCK
  5
12A
330
129
100
AcDbEntity
  8
0
100
AcDbBlockBegin
  2
*D20
 70
     1
 10
0.0
 20
0.0
 30
0.0
  3
*D20
  1

  0
LINE
  5
12B
330
129
100
AcDbEntity
  8
0
  6
Continuous
 62
     7
100
AcDbLine
 10
-140.98941
 20
181.95752
 30
0.0
 11
44.880623
 21
181.95752
 31
0.0
  0
INSERT
  5
12C
330
129
100
AcDbEntity
  8
0
  6
Continuous
 62
     7
100
AcDbBlockReference
  2
_DOT
 10
-140.98941
 20
181.95752
 30
0.0
 50
180.0
  0
INSERT
  5
12D
330
129
100
AcDbEntity
  8
0
  6
Continuous
 62
     7
100
AcDbBlockReference
  2
_DOT
 10
44.880623
 20
181.95752
 30
0.0
  0
LINE
  5
12E
330
129
100
AcDbEntity
  8
0
  6
Continuous
 62
     7
100
AcDbLine
 10
44.880623
 20
134.78763
 30
0.0
 11
44.880623
 21
183.83252
 31
0.0
  0
TEXT
  5
12F
330
129
100
AcDbEntity
  8
0
  6
Continuous
 62
     7
100
AcDbText
 10
-49.197248
 20
182.75752
 30
0.0
 40
3.2
  1
B
100
AcDbText
  0
POINT
  5
130
330
129
100
AcDbEntity
  8
DEFPOINTS
  6
Continuous
 62
     7
100
AcDbPoint
 10
-140.98941
 20
150.00764
 30
0.0
  0
POINT
  5
131
330
129
100
AcDbEntity
  8
DEFPOINTS
  6
Continuous
 62
     7
100
AcDbPoint
 10
44.880623
 20
132.24763
 30
0.0
  0
POINT
  5
132
330
129
100
AcDbEntity
  8
DEFPOINTS
  6
Continuous
 62
     7
100
AcDbPoint
 10
44.880623
 20
181.95752
 30
0.0
  0
ENDBLK
  5
133
330
129
100
AcDbEntity
  8
0
100
AcDbBlockEnd
  0
BLOCK
  5
135
330
134
100
AcDbEntity
  8
0
100
AcDbBlockBegin
  2
*D21
 70
     1
 10
0.0
 20
0.0
 30
0.0
  3
*D21
  1

  0
LINE
  5
136
330
134
100
AcDbEntity
  8
0
  6
Continuous
 62
     7
100
AcDbLine
 10
-29.67931
 20
138.92764
 30
0.0
 11
-29.67931
 21
118.92764
 31
0.0
  0
INSERT
  5
137
330
134
100
AcDbEntity
  8
0
  6
Continuous
 62
     7
100
AcDbBlockReference
  2
_DOT
 10
-29.67931
 20
138.92764
 30
0.0
 50
90.0
  0
INSERT
  5
138
330
134
100
AcDbEntity
  8
0
  6
Continuous
 62
     7
100
AcDbBlockReference
  2
_DOT
 10
-29.67931
 20
118.92764
 30
0.0
 50
270.0
  0
LINE
  5
139
330
134
100
AcDbEntity
  8
0
  6
Continuous
 62
     7
100
AcDbLine
 10
-40.659406
 20
138.92764
 30
0.0
 11
-28.179308
 21
138.92764
 31
0.0
  0
TEXT
  5
13A
330
134
100
AcDbEntity
  8
0
  6
Continuous
 62
     7
100
AcDbText
 10
-30.47931
 20
130.58764
 30
0.0
 40
3.2
  1
20
 50
90.00000300000001
 41
1.102098199999999
100
AcDbText
  0
POINT
  5
13B
330
134
100
AcDbEntity
  8
DEFPOINTS
  6
Continuous
 62
     7
100
AcDbPoint
 10
-43.199406
 20
138.92764
 30
0.0
  0
POINT
  5
13C
330
134
100
AcDbEntity
  8
DEFPOINTS
  6
Continuous
 62
     7
100
AcDbPoint
 10
53.6908
 20
118.92764
 30
0.0
  0
POINT
  5
13D
330
134
100
AcDbEntity
  8
DEFPOINTS
  6
Continuous
 62
     7
100
AcDbPoint
 10
-29.67931
 20
118.92764
 30
0.0
  0
ENDBLK
  5
13E
330
134
100
AcDbEntity
  8
0
100
AcDbBlockEnd
  0
BLOCK
  5
140
330
13F
100
AcDbEntity
  8
0
100
AcDbBlockBegin
  2
*D22
 70
     1
 10
0.0
 20
0.0
 30
0.0
  3
*D22
  1

  0
LINE
  5
141
330
13F
100
AcDbEntity
  8
0
  6
Continuous
 62
     7
100
AcDbLine
 10
-29.67931
 20
118.92764
 30
0.0
 11
-29.67931
 21
98.927635
 31
0.0
  0
INSERT
  5
142
330
13F
100
AcDbEntity
  8
0
  6
Continuous
 62
     7
100
AcDbBlockReference
  2
_DOT
 10
-29.67931
 20
118.92764
 30
0.0
 50
90.0
  0
INSERT
  5
143
330
13F
100
AcDbEntity
  8
0
  6
Continuous
 62
     7
100
AcDbBlockReference
  2
_DOT
 10
-29.67931
 20
98.927635
 30
0.0
 50
270.0
  0
LINE
  5
144
330
13F
100
AcDbEntity
  8
0
  6
Continuous
 62
     7
100
AcDbLine
 10
-40.659406
 20
98.927635
 30
0.0
 11
-28.179308
 21
98.927635
 31
0.0
  0
TEXT
  5
145
330
13F
100
AcDbEntity
  8
0
  6
Continuous
 62
     7
100
AcDbText
 10
-30.47931
 20
100.52089
 30
0.0
 40
3.2
  1
20
 50
90.00000300000001
 41
1.102098199999999
100
AcDbText
  0
POINT
  5
146
330
13F
100
AcDbEntity
  8
DEFPOINTS
  6
Continuous
 62
     7
100
AcDbPoint
 10
53.6908
 20
118.92764
 30
0.0
  0
POINT
  5
147
330
13F
100
AcDbEntity
  8
DEFPOINTS
  6
Continuous
 62
     7
100
AcDbPoint
 10
-43.199406
 20
98.927635
 30
0.0
  0
POINT
  5
148
330
13F
100
AcDbEntity
  8
DEFPOINTS
  6
Continuous
 62
     7
100
AcDbPoint
 10
-29.67931
 20
98.927635
 30
0.0
  0
ENDBLK
  5
149
330
13F
100
AcDbEntity
  8
0
100
AcDbBlockEnd
  0
BLOCK
  5
14B
330
14A
100
AcDbEntity
  8
0
100
AcDbBlockBegin
  2
*D23
 70
     1
 10
0.0
 20
0.0
 30
0.0
  3
*D23
  1

  0
LINE
  5
14C
330
14A
100
AcDbEntity
  8
0
  6
Continuous
 62
     7
100
AcDbLine
 10
-114.4577
 20
141.42764
 30
0.0
 11
-114.4577
 21
165.49716
 31
0.0
  0
LINE
  5
14D
330
14A
100
AcDbEntity
  8
0
  6
Continuous
 62
     7
100
AcDbLine
 10
-114.4577
 20
141.42764
 30
0.0
 11
-114.4577
 21
118.92764
 31
0.0
  0
INSERT
  5
14E
330
14A
100
AcDbEntity
  8
0
  6
Continuous
 62
     7
100
AcDbBlockReference
  2
_DOT
 10
-114.4577
 20
141.42764
 30
0.0
 50
90.0
  0
INSERT
  5
14F
330
14A
100
AcDbEntity
  8
0
  6
Continuous
 62
     7
100
AcDbBlockReference
  2
_DOT
 10
-114.4577
 20
118.92764
 30
0.0
 50
270.0
  0
LINE
  5
150
330
14A
100
AcDbEntity
  8
0
  6
Continuous
 62
     7
100
AcDbLine
 10
-132.44943
 20
141.42764
 30
0.0
 11
-112.9577
 21
141.42764
 31
0.0
  0
TEXT
  5
151
330
14A
100
AcDbEntity
  8
0
  6
Continuous
 62
     7
100
AcDbText
 10
-115.25769
 20
152.52541
 30
0.0
 40
3.2
  1
22.5
 50
90.00000300000001
 41
1.238124999999999
100
AcDbText
  0
POINT
  5
152
330
14A
100
AcDbEntity
  8
DEFPOINTS
  6
Continuous
 62
     7
100
AcDbPoint
 10
-134.98943
 20
141.42764
 30
0.0
  0
POINT
  5
153
330
14A
100
AcDbEntity
  8
DEFPOINTS
  6
Continuous
 62
     7
100
AcDbPoint
 10
53.6908
 20
118.92764
 30
0.0
  0
POINT
  5
154
330
14A
100
AcDbEntity
  8
DEFPOINTS
  6
Continuous
 62
     7
100
AcDbPoint
 10
-114.4577
 20
118.92764
 30
0.0
  0
ENDBLK
  5
155
330
14A
100
AcDbEntity
  8
0
100
AcDbBlockEnd
  0
BLOCK
  5
157
330
156
100
AcDbEntity
  8
0
100
AcDbBlockBegin
  2
*D24
 70
     1
 10
0.0
 20
0.0
 30
0.0
  3
*D24
  1

  0
LINE
  5
158
330
156
100
AcDbEntity
  8
0
  6
Continuous
 62
     7
100
AcDbLine
 10
-114.4577
 20
96.42764300000001
 30
0.0
 11
-114.4577
 21
79.72306800000001
 31
0.0
  0
LINE
  5
159
330
156
100
AcDbEntity
  8
0
  6
Continuous
 62
     7
100
AcDbLine
 10
-114.4577
 20
118.92764
 30
0.0
 11
-114.4577
 21
96.42764300000001
 31
0.0
  0
INSERT
  5
15A
330
156
100
AcDbEntity
  8
0
  6
Continuous
 62
     7
100
AcDbBlockReference
  2
_DOT
 10
-114.4577
 20
118.92764
 30
0.0
 50
90.0
  0
INSERT
  5
15B
330
156
100
AcDbEntity
  8
0
  6
Continuous
 62
     7
100
AcDbBlockReference
  2
_DOT
 10
-114.4577
 20
96.42764300000001
 30
0.0
 50
270.0
  0
LINE
  5
15C
330
156
100
AcDbEntity
  8
0
  6
Continuous
 62
     7
100
AcDbLine
 10
-122.44942
 20
96.42764300000001
 30
0.0
 11
-112.9577
 21
96.42764300000001
 31
0.0
  0
TEXT
  5
15D
330
156
100
AcDbEntity
  8
0
  6
Continuous
 62
     7
100
AcDbText
 10
-115.25769
 20
80.80881600000003
 30
0.0
 40
3.2
  1
22.5
 50
90.00000300000001
 41
1.238124999999999
100
AcDbText
  0
POINT
  5
15E
330
156
100
AcDbEntity
  8
DEFPOINTS
  6
Continuous
 62
     7
100
AcDbPoint
 10
53.6908
 20
118.92764
 30
0.0
  0
POINT
  5
15F
330
156
100
AcDbEntity
  8
DEFPOINTS
  6
Continuous
 62
     7
100
AcDbPoint
 10
-124.98942
 20
96.42764300000001
 30
0.0
  0
POINT
  5
160
330
156
100
AcDbEntity
  8
DEFPOINTS
  6
Continuous
 62
     7
100
AcDbPoint
 10
-114.4577
 20
96.42764300000001
 30
0.0
  0
ENDBLK
  5
161
330
156
100
AcDbEntity
  8
0
100
AcDbBlockEnd
  0
BLOCK
  5
423
330
421
100
AcDbEntity
  8
0
100
AcDbBlockBegin
  2
GENAXEH
 70
     0
 10
0.0
 20
0.0
 30
0.0
  3
GENAXEH
  1

  0
LINE
  5
422
330
421
100
AcDbEntity
  8
0
100
AcDbLine
 10
-1.0
 20
0.0
 30
0.0
 11
1.0
 21
0.0
 31
0.0
  0
ENDBLK
  5
424
330
421
100
AcDbEntity
  8
0
100
AcDbBlockEnd
  0
ENDSEC
  0
SECTION
  2
ENTITIES
  0
POINT
  5
162
330
36
100
AcDbEntity
  8
0
  6
Continuous
 62
     7
100
AcDbPoint
 10
-361.0
 20
290.5
 30
0.0
  0
POINT
  5
163
330
36
100
AcDbEntity
  8
0
  6
Continuous
 62
     7
100
AcDbPoint
 10
-361.0
 20
282.5
 30
0.0
  0
POINT
  5
164
330
36
100
AcDbEntity
  8
0
  6
Continuous
 62
     7
100
AcDbPoint
 10
-361.0
 20
274.5
 30
0.0
  0
POINT
  5
165
330
36
100
AcDbEntity
  8
0
  6
Continuous
 62
     7
100
AcDbPoint
 10
-361.0
 20
266.5
 30
0.0
  0
POINT
  5
166
330
36
100
AcDbEntity
  8
0
  6
Continuous
 62
     7
100
AcDbPoint
 10
-361.0
 20
258.5
 30
0.0
  0
POINT
  5
167
330
36
100
AcDbEntity
  8
0
  6
Continuous
 62
     7
100
AcDbPoint
 10
-361.0
 20
250.5
 30
0.0
  0
POINT
  5
168
330
36
100
AcDbEntity
  8
0
  6
Continuous
 62
     7
100
AcDbPoint
 10
-361.0
 20
242.5
 30
0.0
  0
POINT
  5
169
330
36
100
AcDbEntity
  8
0
  6
Continuous
 62
     7
100
AcDbPoint
 10
-361.0
 20
234.5
 30
0.0
  0
POINT
  5
16A
330
36
100
AcDbEntity
  8
0
  6
Continuous
 62
     7
100
AcDbPoint
 10
-361.0
 20
226.5
 30
0.0
  0
POINT
  5
16B
330
36
100
AcDbEntity
  8
0
  6
Continuous
 62
     7
100
AcDbPoint
 10
-361.0
 20
218.5
 30
0.0
  0
POINT
  5
16C
330
36
100
AcDbEntity
  8
0
  6
Continuous
 62
     7
100
AcDbPoint
 10
-130.98941
 20
96.42764300000001
 30
0.0
  0
POINT
  5
16D
330
36
100
AcDbEntity
  8
0
  6
Continuous
 62
     7
100
AcDbPoint
 10
-130.98941
 20
118.92764
 30
0.0
  0
POINT
  5
16E
330
36
100
AcDbEntity
  8
0
  6
Continuous
 62
     7
100
AcDbPoint
 10
-130.98941
 20
93.847649
 30
0.0
  0
POINT
  5
16F
330
36
100
AcDbEntity
  8
0
  6
Continuous
 62
     7
100
AcDbPoint
 10
-130.98941
 20
118.92764
 30
0.0
  0
POINT
  5
170
330
36
100
AcDbEntity
  8
0
  6
Continuous
 62
     7
100
AcDbPoint
 10
101.79768
 20
31.927645
 30
0.0
  0
POINT
  5
171
330
36
100
AcDbEntity
  8
0
  6
Continuous
 62
     7
100
AcDbPoint
 10
-140.98941
 20
31.927645
 30
0.0
  0
POINT
  5
172
330
36
100
AcDbEntity
  8
0
  6
Continuous
 62
     7
100
AcDbPoint
 10
-140.98941
 20
31.927645
 30
0.0
  0
POINT
  5
173
330
36
100
AcDbEntity
  8
0
  6
Continuous
 62
     7
100
AcDbPoint
 10
101.79768
 20
31.927645
 30
0.0
  0
LINE
  5
174
330
36
100
AcDbEntity
  8
0
  6
Continuous
 62
     7
100
AcDbLine
 10
170.0
 20
294.5
 30
0.0
 11
170.0
 21
-100.0
 31
0.0
  0
LINE
  5
175
330
36
100
AcDbEntity
  8
0
  6
Continuous
 62
     7
100
AcDbLine
 10
-385.0
 20
-100.0
 30
0.0
 11
170.0
 21
-100.0
 31
0.0
  0
LINE
  5
176
330
36
100
AcDbEntity
  8
0
  6
Continuous
 62
     7
100
AcDbLine
 10
-385.0
 20
294.5
 30
0.0
 11
170.0
 21
294.5
 31
0.0
  0
LINE
  5
177
330
36
100
AcDbEntity
  8
0
  6
Continuous
 62
     7
100
AcDbLine
 10
-385.0
 20
294.5
 30
0.0
 11
-385.0
 21
-100.0
 31
0.0
  0
LINE
  5
178
330
36
100
AcDbEntity
  8
0
  6
Continuous
 62
     7
100
AcDbLine
 10
-365.0
 20
294.5
 30
0.0
 11
-365.0
 21
214.5
 31
0.0
  0
LINE
  5
179
330
36
100
AcDbEntity
  8
0
  6
Continuous
 62
     7
100
AcDbLine
 10
-385.0
 20
286.5
 30
0.0
 11
-275.0
 21
286.5
 31
0.0
  0
LINE
  5
17A
330
36
100
AcDbEntity
  8
0
  6
Continuous
 62
     7
100
AcDbLine
 10
-385.0
 20
278.5
 30
0.0
 11
-275.0
 21
278.5
 31
0.0
  0
LINE
  5
17B
330
36
100
AcDbEntity
  8
0
  6
Continuous
 62
     7
100
AcDbLine
 10
-385.0
 20
270.5
 30
0.0
 11
-275.0
 21
270.5
 31
0.0
  0
LINE
  5
17C
330
36
100
AcDbEntity
  8
0
  6
Continuous
 62
     7
100
AcDbLine
 10
-385.0
 20
262.5
 30
0.0
 11
-275.0
 21
262.5
 31
0.0
  0
LINE
  5
17D
330
36
100
AcDbEntity
  8
0
  6
Continuous
 62
     7
100
AcDbLine
 10
-365.0
 20
254.5
 30
0.0
 11
-275.0
 21
254.5
 31
0.0
  0
LINE
  5
17E
330
36
100
AcDbEntity
  8
0
  6
Continuous
 62
     7
100
AcDbLine
 10
-365.0
 20
246.5
 30
0.0
 11
-275.0
 21
246.5
 31
0.0
  0
LINE
  5
17F
330
36
100
AcDbEntity
  8
0
  6
Continuous
 62
     7
100
AcDbLine
 10
-385.0
 20
238.5
 30
0.0
 11
-275.0
 21
238.5
 31
0.0
  0
LINE
  5
180
330
36
100
AcDbEntity
  8
0
  6
Continuous
 62
     7
100
AcDbLine
 10
-365.0
 20
230.5
 30
0.0
 11
-275.0
 21
230.5
 31
0.0
  0
LINE
  5
181
330
36
100
AcDbEntity
  8
0
  6
Continuous
 62
     7
100
AcDbLine
 10
-365.0
 20
222.5
 30
0.0
 11
-275.0
 21
222.5
 31
0.0
  0
LINE
  5
182
330
36
100
AcDbEntity
  8
0
  6
Continuous
 62
     7
100
AcDbLine
 10
-385.0
 20
214.5
 30
0.0
 11
-275.0
 21
214.5
 31
0.0
  0
LINE
  5
183
330
36
100
AcDbEntity
  8
0
  6
Continuous
 62
     7
100
AcDbLine
 10
-385.0
 20
294.5
 30
0.0
 11
-385.0
 21
214.5
 31
0.0
  0
LINE
  5
184
330
36
100
AcDbEntity
  8
0
  6
Continuous
 62
     7
100
AcDbLine
 10
-385.0
 20
294.5
 30
0.0
 11
-275.0
 21
294.5
 31
0.0
  0
LINE
  5
185
330
36
100
AcDbEntity
  8
0
  6
Continuous
 62
     7
100
AcDbLine
 10
-275.0
 20
294.5
 30
0.0
 11
-275.0
 21
214.5
 31
0.0
  0
LINE
  5
186
330
36
100
AcDbEntity
  8
0
  6
Continuous
 62
     7
100
AcDbLine
 10
-385.0
 20
-100.0
 30
0.0
 11
-275.0
 21
-100.0
 31
0.0
  0
LINE
  5
187
330
36
100
AcDbEntity
  8
0
  6
Continuous
 62
     7
100
AcDbLine
 10
-385.0
 20
-20.0
 30
0.0
 11
-385.0
 21
-100.0
 31
0.0
  0
LINE
  5
189
330
36
100
AcDbEntity
  8
0
  6
Continuous
 62
     3
100
AcDbLine
 10
105.72048
 20
86.137642
 30
0.0
 11
114.89649
 21
86.137642
 31
0.0
  0
LINE
  5
18A
330
36
100
AcDbEntity
  8
0
  6
Continuous
 62
     3
100
AcDbLine
 10
114.89649
 20
134.46764
 30
0.0
 11
114.89649
 21
103.38763
 31
0.0
  0
LINE
  5
18C
330
36
100
AcDbEntity
  8
0
  6
Continuous
 62
     3
100
AcDbLine
 10
118.44849
 20
147.42766
 30
0.0
 11
122.00049
 21
147.42766
 31
0.0
  0
LINE
  5
18D
330
36
100
AcDbEntity
  8
0
  6
Continuous
 62
     3
100
AcDbLine
 10
114.8965
 20
103.38765
 30
0.0
 11
118.4485
 21
99.835655
 31
0.0
  0
LINE
  5
18F
330
36
100
AcDbEntity
  8
0
  6
Continuous
 62
     3
100
AcDbLine
 10
118.44849
 20
45.42764299999999
 30
0.0
 11
122.00049
 21
45.42764299999999
 31
0.0
  0
LINE
  5
190
330
36
100
AcDbEntity
  8
0
  6
Continuous
 62
     3
100
AcDbLine
 10
118.44849
 20
147.42764
 30
0.0
 11
118.44849
 21
45.42764299999999
 31
0.0
  0
LINE
  5
191
330
36
100
AcDbEntity
  8
0
  6
CENTER
 62
     7
100
AcDbLine
 10
89.365494
 20
118.92764
 30
0.0
 11
126.38569
 21
118.92764
 31
0.0
  0
LINE
  5
192
330
36
100
AcDbEntity
  8
0
  6
Continuous
 62
     7
100
AcDbLine
 10
-252.58936
 20
66.76323700000001
 30
0.0
 11
-202.68454
 21
66.76323700000001
 31
0.0
  0
LINE
  5
193
330
36
100
AcDbEntity
  8
0
  6
DASHED
 62
     7
100
AcDbLine
 10
-146.53943
 20
85.993645
 30
0.0
 11
-146.53943
 21
61.861645
 31
0.0
  0
LINE
  5
194
330
36
100
AcDbEntity
  8
0
  6
Continuous
 62
     3
100
AcDbLine
 10
98.91249100000001
 20
77.92364499999997
 30
0.0
 11
101.28048
 21
77.92364499999997
 31
0.0
  0
LINE
  5
195
330
36
100
AcDbEntity
  8
0
  6
Continuous
 62
     3
100
AcDbLine
 10
98.91249100000001
 20
69.93164799999999
 30
0.0
 11
101.28048
 21
69.93164799999999
 31
0.0
  0
LINE
  5
198
330
36
100
AcDbEntity
  8
0
  6
Continuous
 62
     3
100
AcDbLine
 10
96.840477
 20
31.927645
 30
0.0
 11
101.79768
 21
31.927645
 31
0.0
  0
LINE
  5
19C
330
36
100
AcDbEntity
  8
0
  6
CENTER
 62
     7
100
AcDbLine
 10
103.50048
 20
129.26106
 30
0.0
 11
103.50048
 21
108.65785
 31
0.0
  0
LINE
  5
19D
330
36
100
AcDbEntity
  8
0
  6
Continuous
 62
     3
100
AcDbLine
 10
122.00049
 20
147.42764
 30
0.0
 11
122.00049
 21
45.42764299999999
 31
0.0
  0
LINE
  5
19E
330
36
100
AcDbEntity
  8
0
  6
Continuous
 62
     3
100
AcDbLine
 10
96.840439
 20
31.927645
 30
0.0
 11
101.28044
 21
40.869644
 31
0.0
  0
LINE
  5
19F
330
36
100
AcDbEntity
  8
0
  6
Continuous
 62
     3
100
AcDbLine
 10
101.79768
 20
31.927649
 30
0.0
 11
105.72047
 21
39.82801400000001
 31
0.0
  0
LINE
  5
1A0
330
36
100
AcDbEntity
  8
0
  6
Continuous
 62
     3
100
AcDbLine
 10
105.72048
 20
77.92364499999997
 30
0.0
 11
108.6805
 21
77.92364499999997
 31
0.0
  0
LINE
  5
1A1
330
36
100
AcDbEntity
  8
0
  6
Continuous
 62
     3
100
AcDbLine
 10
101.28048
 20
111.24184
 30
0.0
 11
101.28048
 21
40.86964
 31
0.0
  0
LINE
  5
1A2
330
36
100
AcDbEntity
  8
0
  6
Continuous
 62
     3
100
AcDbLine
 10
114.89649
 20
87.99166099999998
 30
0.0
 11
114.89649
 21
59.86364
 31
0.0
  0
LINE
  5
1A3
330
36
100
AcDbEntity
  8
0
  6
Continuous
 62
     3
100
AcDbLine
 10
105.72048
 20
111.24184
 30
0.0
 11
105.72048
 21
39.828007
 31
0.0
  0
LINE
  5
1A4
330
36
100
AcDbEntity
  8
0
  6
Continuous
 62
     3
100
AcDbLine
 10
118.44849
 20
56.311638
 30
0.0
 11
114.8965
 21
59.863636
 31
0.0
  0
LINE
  5
1A5
330
36
100
AcDbEntity
  8
0
  6
Continuous
 62
     3
100
AcDbLine
 10
118.44849
 20
91.543655
 30
0.0
 11
114.89648
 21
87.99166099999998
 31
0.0
  0
LINE
  5
1A6
330
36
100
AcDbEntity
  8
0
  6
DASHED
 62
     7
100
AcDbLine
 10
-75.69937900000002
 20
126.92764
 30
0.0
 11
-75.69937900000002
 21
110.92764
 31
0.0
  0
LINE
  5
1A7
330
36
100
AcDbEntity
  8
0
  6
DASHED
 62
     7
100
AcDbLine
 10
-41.699383
 20
126.92764
 30
0.0
 11
-41.699383
 21
110.92764
 31
0.0
  0
LINE
  5
1A8
330
36
100
AcDbEntity
  8
0
  6
Continuous
 62
     3
100
AcDbLine
 10
-41.699383
 20
110.92764
 30
0.0
 11
-41.699383
 21
105.42764
 31
0.0
  0
LINE
  5
1A9
330
36
100
AcDbEntity
  8
0
  6
Continuous
 62
     3
100
AcDbLine
 10
-41.699383
 20
132.42764
 30
0.0
 11
-41.699383
 21
126.92764
 31
0.0
  0
LINE
  5
1AA
330
36
100
AcDbEntity
  8
0
  6
Continuous
 62
     3
100
AcDbLine
 10
-75.69937900000002
 20
132.42764
 30
0.0
 11
-75.69937900000002
 21
126.92764
 31
0.0
  0
LINE
  5
1AB
330
36
100
AcDbEntity
  8
0
  6
CENTER
 62
     7
100
AcDbLine
 10
-43.199406
 20
98.927635
 30
0.0
 11
-55.199402
 21
98.927635
 31
0.0
  0
LINE
  5
1AC
330
36
100
AcDbEntity
  8
0
  6
CENTER
 62
     7
100
AcDbLine
 10
-49.199383
 20
104.92764
 30
0.0
 11
-49.199383
 21
92.92763499999999
 31
0.0
  0
LINE
  5
1AD
330
36
100
AcDbEntity
  8
0
  6
Continuous
 62
     3
100
AcDbLine
 10
-63.583385
 20
110.92764
 30
0.0
 11
-63.583385
 21
108.27164
 31
0.0
  0
LINE
  5
1AE
330
36
100
AcDbEntity
  8
0
  6
Continuous
 62
     3
100
AcDbLine
 10
-60.91938000000002
 20
115.59764
 30
0.0
 11
-60.91938
 21
103.92134
 31
0.0
  0
LINE
  5
1AF
330
36
100
AcDbEntity
  8
0
  6
Continuous
 62
     3
100
AcDbLine
 10
-56.47937800000002
 20
115.59764
 30
0.0
 11
-56.47937800000001
 21
103.92134
 31
0.0
  0
LINE
  5
1B0
330
36
100
AcDbEntity
  8
0
  6
Continuous
 62
     3
100
AcDbLine
 10
-53.81540699999999
 20
110.92764
 30
0.0
 11
-53.81540699999999
 21
108.27164
 31
0.0
  0
LINE
  5
1B1
330
36
100
AcDbEntity
  8
0
  6
DASHED
 62
     7
100
AcDbLine
 10
-53.81540699999999
 20
126.92764
 30
0.0
 11
-53.81540699999999
 21
110.92764
 31
0.0
  0
LINE
  5
1B2
330
36
100
AcDbEntity
  8
0
  6
DASHED
 62
     7
100
AcDbLine
 10
-63.583385
 20
126.92764
 30
0.0
 11
-63.583385
 21
110.92764
 31
0.0
  0
LINE
  5
1B3
330
36
100
AcDbEntity
  8
0
  6
Continuous
 62
     3
100
AcDbLine
 10
114.8965
 20
134.46765
 30
0.0
 11
118.4485
 21
138.01965
 31
0.0
  0
LINE
  5
1B4
330
36
100
AcDbEntity
  8
0
  6
Continuous
 62
     3
100
AcDbLine
 10
-63.583385
 20
129.58363
 30
0.0
 11
-63.583385
 21
126.92764
 31
0.0
  0
LINE
  5
1B5
330
36
100
AcDbEntity
  8
0
  6
Continuous
 62
     3
100
AcDbLine
 10
-53.81540699999999
 20
129.58363
 30
0.0
 11
-53.81540699999999
 21
126.92764
 31
0.0
  0
LINE
  5
1B6
330
36
100
AcDbEntity
  8
0
  6
Continuous
 62
     3
100
AcDbLine
 10
-56.47937800000001
 20
122.25764
 30
0.0
 11
-56.47937800000001
 21
133.93393
 31
0.0
  0
LINE
  5
1B7
330
36
100
AcDbEntity
  8
0
  6
Continuous
 62
     3
100
AcDbLine
 10
-60.91938
 20
122.25764
 30
0.0
 11
-60.91938
 21
133.93393
 31
0.0
  0
LINE
  5
1B8
330
36
100
AcDbEntity
  8
0
  6
CENTER
 62
     7
100
AcDbLine
 10
-74.199402
 20
138.92764
 30
0.0
 11
-62.19940199999999
 21
138.92764
 31
0.0
  0
LINE
  5
1B9
330
36
100
AcDbEntity
  8
0
  6
CENTER
 62
     7
100
AcDbLine
 10
-68.19937900000001
 20
132.92764
 30
0.0
 11
-68.19937900000001
 21
144.92764
 31
0.0
  0
LINE
  5
1BA
330
36
100
AcDbEntity
  8
0
  6
CENTER
 62
     7
100
AcDbLine
 10
-74.199402
 20
98.927635
 30
0.0
 11
-62.19940199999999
 21
98.927635
 31
0.0
  0
LINE
  5
1BB
330
36
100
AcDbEntity
  8
0
  6
CENTER
 62
     7
100
AcDbLine
 10
-68.19937900000001
 20
104.92764
 30
0.0
 11
-68.19937900000001
 21
92.92763499999999
 31
0.0
  0
LINE
  5
1BC
330
36
100
AcDbEntity
  8
0
  6
CENTER
 62
     7
100
AcDbLine
 10
-43.199406
 20
138.92764
 30
0.0
 11
-55.199402
 21
138.92764
 31
0.0
  0
LINE
  5
1BD
330
36
100
AcDbEntity
  8
0
  6
CENTER
 62
     7
100
AcDbLine
 10
-49.199383
 20
132.92764
 30
0.0
 11
-49.199383
 21
144.92764
 31
0.0
  0
LINE
  5
1BE
330
36
100
AcDbEntity
  8
0
  6
Continuous
 62
     3
100
AcDbLine
 10
-246.63942
 20
110.92764
 30
0.0
 11
-246.63942
 21
105.42764
 31
0.0
  0
LINE
  5
1BF
330
36
100
AcDbEntity
  8
0
  6
DASHED
 62
     7
100
AcDbLine
 10
-246.63942
 20
126.92764
 30
0.0
 11
-246.63942
 21
110.92764
 31
0.0
  0
LINE
  5
1C0
330
36
100
AcDbEntity
  8
0
  6
DASHED
 62
     7
100
AcDbLine
 10
-212.6394
 20
126.92764
 30
0.0
 11
-212.6394
 21
110.92764
 31
0.0
  0
LINE
  5
1C1
330
36
100
AcDbEntity
  8
0
  6
Continuous
 62
     3
100
AcDbLine
 10
-212.6394
 20
110.92764
 30
0.0
 11
-212.6394
 21
105.42764
 31
0.0
  0
LINE
  5
1C2
330
36
100
AcDbEntity
  8
0
  6
Continuous
 62
     3
100
AcDbLine
 10
-212.6394
 20
132.42764
 30
0.0
 11
-212.6394
 21
126.92764
 31
0.0
  0
LINE
  5
1C3
330
36
100
AcDbEntity
  8
0
  6
Continuous
 62
     3
100
AcDbLine
 10
-246.63942
 20
132.42764
 30
0.0
 11
-246.63942
 21
126.92764
 31
0.0
  0
LINE
  5
1C4
330
36
100
AcDbEntity
  8
0
  6
CENTER
 62
     7
100
AcDbLine
 10
-214.13943
 20
98.927635
 30
0.0
 11
-226.13942
 21
98.927635
 31
0.0
  0
LINE
  5
1C5
330
36
100
AcDbEntity
  8
0
  6
CENTER
 62
     7
100
AcDbLine
 10
-220.1394
 20
104.92764
 30
0.0
 11
-220.1394
 21
92.92763499999999
 31
0.0
  0
LINE
  5
1C6
330
36
100
AcDbEntity
  8
0
  6
Continuous
 62
     3
100
AcDbLine
 10
-234.52339
 20
110.92764
 30
0.0
 11
-234.52339
 21
108.27164
 31
0.0
  0
LINE
  5
1C7
330
36
100
AcDbEntity
  8
0
  6
Continuous
 62
     3
100
AcDbLine
 10
-231.85939
 20
115.59764
 30
0.0
 11
-231.85939
 21
103.92134
 31
0.0
  0
LINE
  5
1C8
330
36
100
AcDbEntity
  8
0
  6
Continuous
 62
     3
100
AcDbLine
 10
-227.41939
 20
115.59764
 30
0.0
 11
-227.41939
 21
103.92134
 31
0.0
  0
LINE
  5
1C9
330
36
100
AcDbEntity
  8
0
  6
Continuous
 62
     3
100
AcDbLine
 10
-224.75542
 20
110.92764
 30
0.0
 11
-224.75542
 21
108.27164
 31
0.0
  0
LINE
  5
1CA
330
36
100
AcDbEntity
  8
0
  6
DASHED
 62
     7
100
AcDbLine
 10
-224.75542
 20
126.92764
 30
0.0
 11
-224.75542
 21
110.92764
 31
0.0
  0
LINE
  5
1CB
330
36
100
AcDbEntity
  8
0
  6
DASHED
 62
     7
100
AcDbLine
 10
-234.52339
 20
126.92764
 30
0.0
 11
-234.52339
 21
110.92764
 31
0.0
  0
LINE
  5
1CC
330
36
100
AcDbEntity
  8
0
  6
Continuous
 62
     3
100
AcDbLine
 10
105.72048
 20
103.38763
 30
0.0
 11
114.89649
 21
103.38763
 31
0.0
  0
LINE
  5
1CD
330
36
100
AcDbEntity
  8
0
  6
Continuous
 62
     3
100
AcDbLine
 10
-234.52339
 20
129.58363
 30
0.0
 11
-234.52339
 21
126.92764
 31
0.0
  0
LINE
  5
1CE
330
36
100
AcDbEntity
  8
0
  6
Continuous
 62
     3
100
AcDbLine
 10
-224.75542
 20
129.58363
 30
0.0
 11
-224.75542
 21
126.92764
 31
0.0
  0
LINE
  5
1CF
330
36
100
AcDbEntity
  8
0
  6
Continuous
 62
     3
100
AcDbLine
 10
-227.41939
 20
115.59764
 30
0.0
 11
-227.41939
 21
133.93393
 31
0.0
  0
LINE
  5
1D0
330
36
100
AcDbEntity
  8
0
  6
Continuous
 62
     3
100
AcDbLine
 10
-231.85939
 20
115.59764
 30
0.0
 11
-231.85939
 21
133.93393
 31
0.0
  0
LINE
  5
1D1
330
36
100
AcDbEntity
  8
0
  6
CENTER
 62
     7
100
AcDbLine
 10
-245.13942
 20
138.92764
 30
0.0
 11
-233.13943
 21
138.92764
 31
0.0
  0
LINE
  5
1D2
330
36
100
AcDbEntity
  8
0
  6
CENTER
 62
     7
100
AcDbLine
 10
-239.13942
 20
132.92764
 30
0.0
 11
-239.13942
 21
144.92764
 31
0.0
  0
LINE
  5
1D3
330
36
100
AcDbEntity
  8
0
  6
CENTER
 62
     7
100
AcDbLine
 10
-245.13942
 20
98.927635
 30
0.0
 11
-233.13943
 21
98.927635
 31
0.0
  0
LINE
  5
1D4
330
36
100
AcDbEntity
  8
0
  6
CENTER
 62
     7
100
AcDbLine
 10
-239.13942
 20
104.92764
 30
0.0
 11
-239.13942
 21
92.92763499999999
 31
0.0
  0
LINE
  5
1D5
330
36
100
AcDbEntity
  8
0
  6
CENTER
 62
     7
100
AcDbLine
 10
-214.13943
 20
138.92764
 30
0.0
 11
-226.13942
 21
138.92764
 31
0.0
  0
LINE
  5
1D6
330
36
100
AcDbEntity
  8
0
  6
CENTER
 62
     7
100
AcDbLine
 10
-220.1394
 20
132.92764
 30
0.0
 11
-220.1394
 21
144.92764
 31
0.0
  0
LINE
  5
1D7
330
36
100
AcDbEntity
  8
0
  6
Continuous
 62
     3
100
AcDbLine
 10
15.32059
 20
110.92764
 30
0.0
 11
15.32059
 21
105.42764
 31
0.0
  0
LINE
  5
1D8
330
36
100
AcDbEntity
  8
0
  6
DASHED
 62
     7
100
AcDbLine
 10
15.32059
 20
126.92764
 30
0.0
 11
15.32059
 21
110.92764
 31
0.0
  0
LINE
  5
1D9
330
36
100
AcDbEntity
  8
0
  6
Continuous
 62
     3
100
AcDbLine
 10
49.32060599999999
 20
132.42764
 30
0.0
 11
49.32060599999999
 21
105.42764
 31
0.0
  0
LINE
  5
1DA
330
36
100
AcDbEntity
  8
0
  6
Continuous
 62
     3
100
AcDbLine
 10
15.32059
 20
132.42764
 30
0.0
 11
15.32059
 21
126.92764
 31
0.0
  0
LINE
  5
1DB
330
36
100
AcDbEntity
  8
0
  6
Continuous
 62
     3
100
AcDbLine
 10
-181.65425
 20
126.92764
 30
0.0
 11
-143.20943
 21
126.92764
 31
0.0
  0
LINE
  5
1DC
330
36
100
AcDbEntity
  8
0
  6
Continuous
 62
     3
100
AcDbLine
 10
-181.65425
 20
110.92764
 30
0.0
 11
-143.20943
 21
110.92764
 31
0.0
  0
LINE
  5
1DD
330
36
100
AcDbEntity
  8
0
  6
Continuous
 62
     3
100
AcDbLine
 10
-127.64376
 20
46.377644
 30
0.0
 11
-154.33508
 21
46.377644
 31
0.0
  0
LINE
  5
1DE
330
36
100
AcDbEntity
  8
0
  6
Continuous
 62
     3
100
AcDbLine
 10
-142.32143
 20
83.25164
 30
0.0
 11
-139.65741
 21
83.25164
 31
0.0
  0
LINE
  5
1DF
330
36
100
AcDbEntity
  8
0
  6
Continuous
 62
     3
100
AcDbLine
 10
-142.32143
 20
64.603645
 30
0.0
 11
-139.65741
 21
64.603645
 31
0.0
  0
LINE
  5
1E0
330
36
100
AcDbEntity
  8
0
  6
Continuous
 62
     3
100
AcDbLine
 10
-142.32141
 20
83.25164
 30
0.0
 11
-142.32141
 21
64.603645
 31
0.0
  0
LINE
  5
1E1
330
36
100
AcDbEntity
  8
0
  6
Continuous
 62
     3
100
AcDbLine
 10
-139.65741
 20
83.25164
 30
0.0
 11
-139.65741
 21
64.603645
 31
0.0
  0
LINE
  5
1E2
330
36
100
AcDbEntity
  8
0
  6
Continuous
 62
     3
100
AcDbLine
 10
-137.65941
 20
82.80764000000003
 30
0.0
 11
-137.65941
 21
65.047646
 31
0.0
  0
LINE
  5
1E3
330
36
100
AcDbEntity
  8
0
  6
Continuous
 62
     3
100
AcDbLine
 10
-144.31941
 20
82.80764000000003
 30
0.0
 11
-144.31941
 21
65.047646
 31
0.0
  0
LINE
  5
1E4
330
36
100
AcDbEntity
  8
0
  6
DASHED
 62
     7
100
AcDbLine
 10
-135.43941
 20
85.993645
 30
0.0
 11
-135.43941
 21
61.861645
 31
0.0
  0
LINE
  5
1E5
330
36
100
AcDbEntity
  8
0
  6
Continuous
 62
     3
100
AcDbLine
 10
105.72048
 20
69.93164799999999
 30
0.0
 11
108.6805
 21
69.93164799999999
 31
0.0
  0
LINE
  5
1E6
330
36
100
AcDbEntity
  8
0
  6
CENTER
 62
     7
100
AcDbLine
 10
-124.98942
 20
96.42764300000001
 30
0.0
 11
-136.98941
 21
96.42764300000001
 31
0.0
  0
LINE
  5
1E7
330
36
100
AcDbEntity
  8
0
  6
CENTER
 62
     7
100
AcDbLine
 10
-130.98941
 20
102.42764
 30
0.0
 11
-130.98941
 21
90.42764299999999
 31
0.0
  0
LINE
  5
1E8
330
36
100
AcDbEntity
  8
0
  6
CENTER
 62
     7
100
AcDbLine
 10
-144.98941
 20
96.42764300000001
 30
0.0
 11
-156.98941
 21
96.42764300000001
 31
0.0
  0
LINE
  5
1E9
330
36
100
AcDbEntity
  8
0
  6
CENTER
 62
     7
100
AcDbLine
 10
-150.98941
 20
102.42765
 30
0.0
 11
-150.98941
 21
90.42764299999999
 31
0.0
  0
LINE
  5
1EA
330
36
100
AcDbEntity
  8
0
  6
CENTER
 62
     7
100
AcDbLine
 10
-134.98943
 20
51.427639
 30
0.0
 11
-146.98941
 21
51.427639
 31
0.0
  0
LINE
  5
1EB
330
36
100
AcDbEntity
  8
0
  6
CENTER
 62
     7
100
AcDbLine
 10
-140.98941
 20
57.42764300000001
 30
0.0
 11
-140.98941
 21
45.427647
 31
0.0
  0
LINE
  5
1EC
330
36
100
AcDbEntity
  8
0
  6
CENTER
 62
     7
100
AcDbLine
 10
47.82058
 20
98.927635
 30
0.0
 11
35.820583
 21
98.927635
 31
0.0
  0
LINE
  5
1ED
330
36
100
AcDbEntity
  8
0
  6
CENTER
 62
     7
100
AcDbLine
 10
41.82062499999999
 20
104.92764
 30
0.0
 11
41.82062499999999
 21
92.92763499999999
 31
0.0
  0
LINE
  5
1EE
330
36
100
AcDbEntity
  8
0
  6
Continuous
 62
     3
100
AcDbLine
 10
-138.76941
 20
126.92764
 30
0.0
 11
-60.91940699999999
 21
126.92764
 31
0.0
  0
LINE
  5
1EF
330
36
100
AcDbEntity
  8
0
  6
Continuous
 62
     3
100
AcDbLine
 10
-138.76941
 20
110.92764
 30
0.0
 11
-60.91940699999999
 21
110.92764
 31
0.0
  0
LINE
  5
1F0
330
36
100
AcDbEntity
  8
0
  6
Continuous
 62
     3
100
AcDbLine
 10
27.436592
 20
110.92764
 30
0.0
 11
27.436592
 21
108.27164
 31
0.0
  0
LINE
  5
1F2
330
36
100
AcDbEntity
  8
0
  6
Continuous
 62
     3
100
AcDbLine
 10
30.100586
 20
115.59764
 30
0.0
 11
30.100586
 21
103.92134
 31
0.0
  0
LINE
  5
1F3
330
36
100
AcDbEntity
  8
0
  6
Continuous
 62
     3
100
AcDbLine
 10
34.540588
 20
115.59764
 30
0.0
 11
34.540588
 21
103.92134
 31
0.0
  0
LINE
  5
1F4
330
36
100
AcDbEntity
  8
0
  6
Continuous
 62
     3
100
AcDbLine
 10
37.204594
 20
110.92764
 30
0.0
 11
37.204594
 21
108.27164
 31
0.0
  0
LINE
  5
1F5
330
36
100
AcDbEntity
  8
0
  6
DASHED
 62
     7
100
AcDbLine
 10
37.204594
 20
126.92764
 30
0.0
 11
37.204594
 21
110.92764
 31
0.0
  0
LINE
  5
1F6
330
36
100
AcDbEntity
  8
0
  6
DASHED
 62
     7
100
AcDbLine
 10
27.436592
 20
126.92764
 30
0.0
 11
27.436592
 21
110.92764
 31
0.0
  0
LINE
  5
1F8
330
36
100
AcDbEntity
  8
0
  6
Continuous
 62
     3
100
AcDbLine
 10
27.436592
 20
129.58363
 30
0.0
 11
27.436592
 21
126.92764
 31
0.0
  0
LINE
  5
1F9
330
36
100
AcDbEntity
  8
0
  6
Continuous
 62
     3
100
AcDbLine
 10
37.204594
 20
129.58363
 30
0.0
 11
37.204594
 21
126.92764
 31
0.0
  0
LINE
  5
1FA
330
36
100
AcDbEntity
  8
0
  6
Continuous
 62
     3
100
AcDbLine
 10
34.540588
 20
115.59764
 30
0.0
 11
34.540588
 21
133.93393
 31
0.0
  0
LINE
  5
1FB
330
36
100
AcDbEntity
  8
0
  6
Continuous
 62
     3
100
AcDbLine
 10
30.100595
 20
115.59764
 30
0.0
 11
30.100586
 21
133.93393
 31
0.0
  0
LINE
  5
1FC
330
36
100
AcDbEntity
  8
0
  6
DASHED
 62
     7
100
AcDbLine
 10
-124.4894
 20
124.34764
 30
0.0
 11
-124.4894
 21
108.34764
 31
0.0
  0
LINE
  5
1FD
330
36
100
AcDbEntity
  8
0
  6
Continuous
 62
     3
100
AcDbLine
 10
-124.4894
 20
108.34764
 30
0.0
 11
-124.4894
 21
61.927643
 31
0.0
  0
LINE
  5
1FE
330
36
100
AcDbEntity
  8
0
  6
Continuous
 62
     3
100
AcDbLine
 10
-157.48941
 20
108.34764
 30
0.0
 11
-157.48941
 21
61.927643
 31
0.0
  0
LINE
  5
1FF
330
36
100
AcDbEntity
  8
0
  6
DASHED
 62
     7
100
AcDbLine
 10
-157.48941
 20
124.34764
 30
0.0
 11
-157.48941
 21
108.34764
 31
0.0
  0
LINE
  5
200
330
36
100
AcDbEntity
  8
0
  6
Continuous
 62
     3
100
AcDbLine
 10
-126.55942
 20
110.92764
 30
0.0
 11
-126.55942
 21
46.357651
 31
0.0
  0
LINE
  5
201
330
36
100
AcDbEntity
  8
0
  6
Continuous
 62
     3
100
AcDbLine
 10
-155.4194
 20
110.92764
 30
0.0
 11
-155.4194
 21
46.357651
 31
0.0
  0
LINE
  5
202
330
36
100
AcDbEntity
  8
0
  6
Continuous
 62
     3
100
AcDbLine
 10
-124.4894
 20
130.92764
 30
0.0
 11
-124.4894
 21
124.34764
 31
0.0
  0
LINE
  5
203
330
36
100
AcDbEntity
  8
0
  6
Continuous
 62
     3
100
AcDbLine
 10
-157.48941
 20
130.92764
 30
0.0
 11
-157.48941
 21
124.34764
 31
0.0
  0
LINE
  5
204
330
36
100
AcDbEntity
  8
0
  6
CENTER
 62
     7
100
AcDbLine
 10
16.820587
 20
138.92764
 30
0.0
 11
28.820593
 21
138.92764
 31
0.0
  0
LINE
  5
205
330
36
100
AcDbEntity
  8
0
  6
CENTER
 62
     7
100
AcDbLine
 10
22.820591
 20
132.92764
 30
0.0
 11
22.820591
 21
144.92764
 31
0.0
  0
LINE
  5
206
330
36
100
AcDbEntity
  8
0
  6
CENTER
 62
     7
100
AcDbLine
 10
16.820587
 20
98.927635
 30
0.0
 11
28.820593
 21
98.927635
 31
0.0
  0
LINE
  5
207
330
36
100
AcDbEntity
  8
0
  6
CENTER
 62
     7
100
AcDbLine
 10
22.820591
 20
104.92764
 30
0.0
 11
22.820591
 21
92.92763499999999
 31
0.0
  0
LINE
  5
208
330
36
100
AcDbEntity
  8
0
  6
CENTER
 62
     7
100
AcDbLine
 10
47.82058
 20
138.92764
 30
0.0
 11
35.820583
 21
138.92764
 31
0.0
  0
LINE
  5
209
330
36
100
AcDbEntity
  8
0
  6
CENTER
 62
     7
100
AcDbLine
 10
41.82062499999999
 20
132.92764
 30
0.0
 11
41.82062499999999
 21
144.92764
 31
0.0
  0
LINE
  5
20A
330
36
100
AcDbEntity
  8
0
  6
CENTER
 62
     7
100
AcDbLine
 10
-140.98941
 20
147.42766
 30
0.0
 11
-140.98941
 21
135.42764
 31
0.0
  0
LINE
  5
20B
330
36
100
AcDbEntity
  8
0
  6
CENTER
 62
     7
100
AcDbLine
 10
-134.98943
 20
141.42764
 30
0.0
 11
-146.98941
 21
141.42764
 31
0.0
  0
LINE
  5
20C
330
36
100
AcDbEntity
  8
0
  6
Continuous
 62
     3
100
AcDbLine
 10
-227.4194
 20
126.92764
 30
0.0
 11
-188.82458
 21
126.92764
 31
0.0
  0
LINE
  5
20D
330
36
100
AcDbEntity
  8
0
  6
Continuous
 62
     3
100
AcDbLine
 10
-227.4194
 20
110.92764
 30
0.0
 11
-188.82458
 21
110.92764
 31
0.0
  0
LINE
  5
20E
330
36
100
AcDbEntity
  8
0
  6
Continuous
 62
     3
100
AcDbLine
 10
-136.10539
 20
110.92764
 30
0.0
 11
-136.10539
 21
108.27164
 31
0.0
  0
LINE
  5
20F
330
36
100
AcDbEntity
  8
0
  6
DASHED
 62
     7
100
AcDbLine
 10
-136.10539
 20
126.92764
 30
0.0
 11
-136.10539
 21
110.92764
 31
0.0
  0
LINE
  5
210
330
36
100
AcDbEntity
  8
0
  6
DASHED
 62
     7
100
AcDbLine
 10
-145.87338
 20
126.92764
 30
0.0
 11
-145.87338
 21
110.92764
 31
0.0
  0
LINE
  5
211
330
36
100
AcDbEntity
  8
0
  6
Continuous
 62
     3
100
AcDbLine
 10
-145.87338
 20
110.92764
 30
0.0
 11
-145.87338
 21
108.27164
 31
0.0
  0
LINE
  5
212
330
36
100
AcDbEntity
  8
0
  6
Continuous
 62
     3
100
AcDbLine
 10
-143.20941
 20
103.9213331855737
 30
0.0
 11
-143.20941
 21
115.5976399999999
 31
0.0
  0
LINE
  5
213
330
36
100
AcDbEntity
  8
0
  6
Continuous
 62
     3
100
AcDbLine
 10
-138.76941
 20
122.25764
 30
0.0
 11
-138.76941
 21
133.93393
 31
0.0
  0
LINE
  5
214
330
36
100
AcDbEntity
  8
0
  6
Continuous
 62
     3
100
AcDbLine
 10
103.50048
 20
134.46764
 30
0.0
 11
114.89649
 21
134.46764
 31
0.0
  0
LINE
  5
215
330
36
100
AcDbEntity
  8
0
  6
Continuous
 62
     3
100
AcDbLine
 10
105.72048
 20
61.717651
 30
0.0
 11
114.89649
 21
61.717651
 31
0.0
  0
LINE
  5
216
330
36
100
AcDbEntity
  8
0
  6
Continuous
 62
     3
100
AcDbLine
 10
-138.76941
 20
115.59764
 30
0.0
 11
-138.76941
 21
103.92134
 31
0.0
  0
LINE
  5
218
330
36
100
AcDbEntity
  8
0
  6
Continuous
 62
     3
100
AcDbLine
 10
-145.87338
 20
129.58363
 30
0.0
 11
-145.87338
 21
126.92764
 31
0.0
  0
LINE
  5
219
330
36
100
AcDbEntity
  8
0
  6
Continuous
 62
     3
100
AcDbLine
 10
-136.10539
 20
129.58363
 30
0.0
 11
-136.10539
 21
126.92764
 31
0.0
  0
LINE
  5
21A
330
36
100
AcDbEntity
  8
0
  6
Continuous
 62
     3
100
AcDbLine
 10
-253.77109
 20
126.92764
 30
0.0
 11
-231.85939
 21
126.92764
 31
0.0
  0
LINE
  5
21B
330
36
100
AcDbEntity
  8
0
  6
Continuous
 62
     3
100
AcDbLine
 10
-253.77109
 20
110.92764
 30
0.0
 11
-231.85939
 21
110.92764
 31
0.0
  0
LINE
  5
21C
330
36
100
AcDbEntity
  8
0
  6
Continuous
 62
     3
100
AcDbLine
 10
-276.48138
 20
126.92764
 30
0.0
 11
-276.48138
 21
110.92764
 31
0.0
  0
LINE
  5
21D
330
36
100
AcDbEntity
  8
0
  6
Continuous
 62
     3
100
AcDbLine
 10
-280.9213899999999
 20
115.36767
 30
0.0
 11
-276.48135
 21
110.92767
 31
0.0
  0
LINE
  5
21E
330
36
100
AcDbEntity
  8
0
  6
Continuous
 62
     3
100
AcDbLine
 10
-280.9213899999999
 20
122.4876
 30
0.0
 11
-276.48135
 21
126.9276
 31
0.0
  0
LINE
  5
21F
330
36
100
AcDbEntity
  8
0
  6
Continuous
 62
     3
100
AcDbLine
 10
-280.9213899999999
 20
122.48764
 30
0.0
 11
-280.9213899999999
 21
115.36764
 31
0.0
  0
LINE
  5
220
330
36
100
AcDbEntity
  8
0
  6
Continuous
 62
     3
100
AcDbLine
 10
-276.48145
 20
110.92764
 30
0.0
 11
-260.94144
 21
110.92764
 31
0.0
  0
LINE
  5
221
330
36
100
AcDbEntity
  8
0
  6
Continuous
 62
     3
100
AcDbLine
 10
-276.48145
 20
126.92764
 30
0.0
 11
-260.94144
 21
126.92764
 31
0.0
  0
LINE
  5
222
330
36
100
AcDbEntity
  8
0
  6
DASHED
 62
     7
100
AcDbLine
 10
-288.21225
 20
118.92764
 30
0.0
 11
53.6908
 21
118.92764
 31
0.0
  0
LINE
  5
223
330
36
100
AcDbEntity
  8
0
  6
Continuous
 62
     3
100
AcDbLine
 10
-56.479404
 20
126.92764
 30
0.0
 11
1.058591199999999
 21
126.92764
 31
0.0
  0
LINE
  5
224
330
36
100
AcDbEntity
  8
0
  6
Continuous
 62
     3
100
AcDbLine
 10
34.54058100000001
 20
126.92764
 30
0.0
 11
42.66059099999998
 21
126.92764
 31
0.0
  0
LINE
  5
225
330
36
100
AcDbEntity
  8
0
  6
Continuous
 62
     3
100
AcDbLine
 10
34.54058100000001
 20
110.92764
 30
0.0
 11
42.66059099999998
 21
110.92764
 31
0.0
  0
LINE
  5
226
330
36
100
AcDbEntity
  8
0
  6
Continuous
 62
     3
100
AcDbLine
 10
-56.479404
 20
110.92764
 30
0.0
 11
1.058591199999999
 21
110.92764
 31
0.0
  0
LINE
  5
227
330
36
100
AcDbEntity
  8
0
  6
Continuous
 62
     3
100
AcDbLine
 10
8.2289104
 20
110.92764
 30
0.0
 11
30.100595
 21
110.92764
 31
0.0
  0
LINE
  5
228
330
36
100
AcDbEntity
  8
0
  6
Continuous
 62
     3
100
AcDbLine
 10
8.2289104
 20
126.92764
 30
0.0
 11
30.100595
 21
126.92764
 31
0.0
  0
LINE
  5
229
330
36
100
AcDbEntity
  8
0
  6
Continuous
 62
     3
100
AcDbLine
 10
42.66059099999998
 20
105.60764
 30
0.0
 11
44.880573
 21
105.60764
 31
0.0
  0
LINE
  5
22A
330
36
100
AcDbEntity
  8
0
  6
Continuous
 62
     3
100
AcDbLine
 10
42.66059099999998
 20
132.24763
 30
0.0
 11
44.880573
 21
132.24763
 31
0.0
  0
LINE
  5
22B
330
36
100
AcDbEntity
  8
0
  6
Continuous
 62
     3
100
AcDbLine
 10
42.66062199999999
 20
132.24763
 30
0.0
 11
42.66062199999999
 21
105.60764
 31
0.0
  0
LINE
  5
22C
330
36
100
AcDbEntity
  8
0
  6
Continuous
 62
     3
100
AcDbLine
 10
44.880623
 20
132.24763
 30
0.0
 11
44.880623
 21
105.60764
 31
0.0
  0
LINE
  5
22D
330
36
100
AcDbEntity
  8
0
  6
Continuous
 62
     3
100
AcDbLine
 10
-75.69937900000002
 20
110.92764
 30
0.0
 11
-75.69937900000002
 21
105.42764
 31
0.0
  0
LINE
  5
22E
330
36
100
AcDbEntity
  8
0
  6
Continuous
 62
     7
100
AcDbLine
 10
61.555561
 20
-63.297215
 30
0.0
 11
139.55557
 21
-63.297215
 31
0.0
  0
LINE
  5
22F
330
36
100
AcDbEntity
  8
0
  6
Continuous
 62
     7
100
AcDbLine
 10
61.555561
 20
-53.297215
 30
0.0
 11
139.55557
 21
-53.297215
 31
0.0
  0
LINE
  5
230
330
36
100
AcDbEntity
  8
0
  6
Continuous
 62
     7
100
AcDbLine
 10
61.555561
 20
-43.297215
 30
0.0
 11
139.55557
 21
-43.297215
 31
0.0
  0
LINE
  5
231
330
36
100
AcDbEntity
  8
0
  6
Continuous
 62
     7
100
AcDbLine
 10
61.555561
 20
-33.297215
 30
0.0
 11
139.55557
 21
-33.297215
 31
0.0
  0
LINE
  5
232
330
36
100
AcDbEntity
  8
0
  6
Continuous
 62
     7
100
AcDbLine
 10
61.555561
 20
-23.297215
 30
0.0
 11
139.55557
 21
-23.297215
 31
0.0
  0
LINE
  5
233
330
36
100
AcDbEntity
  8
0
  6
Continuous
 62
     7
100
AcDbLine
 10
107.55556
 20
-23.297215
 30
0.0
 11
107.55556
 21
-63.297215
 31
0.0
  0
LINE
  5
234
330
36
100
AcDbEntity
  8
0
  6
Continuous
 62
     7
100
AcDbLine
 10
91.55555699999998
 20
-23.297215
 30
0.0
 11
91.55555699999998
 21
-63.297215
 31
0.0
  0
LINE
  5
235
330
36
100
AcDbEntity
  8
0
  6
Continuous
 62
     7
100
AcDbLine
 10
61.555561
 20
-23.297215
 30
0.0
 11
61.555561
 21
-63.297215
 31
0.0
  0
LINE
  5
236
330
36
100
AcDbEntity
  8
0
  6
Continuous
 62
     7
100
AcDbLine
 10
123.55556
 20
-23.297215
 30
0.0
 11
123.55556
 21
-63.297215
 31
0.0
  0
LINE
  5
237
330
36
100
AcDbEntity
  8
0
  6
Continuous
 62
     7
100
AcDbLine
 10
139.55557
 20
-23.297215
 30
0.0
 11
139.55557
 21
-63.297215
 31
0.0
  0
CIRCLE
  5
238
330
36
100
AcDbEntity
  8
0
  6
Continuous
 62
     3
100
AcDbCircle
 10
103.50048
 20
118.92764
 30
0.0
 40
6.659999799999998
  0
ARC
  5
239
330
36
100
AcDbEntity
  8
0
  6
Continuous
 62
     3
100
AcDbCircle
 10
103.50048
 20
118.92764
 30
0.0
 40
15.539989
100
AcDbArc
 50
89.99997200000001
 51
261.7867499999999
  0
ARC
  5
23A
330
36
100
AcDbEntity
  8
0
  6
Continuous
 62
     3
100
AcDbCircle
 10
103.50048
 20
73.927643
 30
0.0
 40
12.209997
100
AcDbArc
 50
100.47572
 51
259.52427
  0
CIRCLE
  5
23B
330
36
100
AcDbEntity
  8
0
  6
Continuous
 62
     3
100
AcDbCircle
 10
103.50048
 20
118.92764
 30
0.0
 40
7.999997099999997
  0
ARC
  5
23C
330
36
100
AcDbEntity
  8
0
  6
Continuous
 62
     3
100
AcDbCircle
 10
98.91249100000001
 20
73.927643
 30
0.0
 40
3.996000299999998
100
AcDbArc
 50
90.0
 51
270.0
  0
ARC
  5
23D
330
36
100
AcDbEntity
  8
0
  6
Continuous
 62
     3
100
AcDbCircle
 10
108.6805
 20
73.927643
 30
0.0
 40
3.996000299999998
100
AcDbArc
 50
270.0
 51
90.0
  0
ARC
  5
23F
330
36
100
AcDbEntity
  8
0
  6
Continuous
 62
     3
100
AcDbCircle
 10
-58.699379
 20
132.42763
 30
0.0
 40
17.000002
100
AcDbArc
 50
0.0
 51
179.99995
  0
CIRCLE
  5
240
330
36
100
AcDbEntity
  8
0
  6
Continuous
 62
     3
100
AcDbCircle
 10
41.82062499999999
 20
138.92764
 30
0.0
 40
4.099999899999998
  0
CIRCLE
  5
241
330
36
100
AcDbEntity
  8
0
  6
Continuous
 62
     3
100
AcDbCircle
 10
-140.98941
 20
141.42764
 30
0.0
 40
4.099999899999998
  0
CIRCLE
  5
242
330
36
100
AcDbEntity
  8
0
  6
Continuous
 62
     3
100
AcDbCircle
 10
-140.98941
 20
141.42764
 30
0.0
 40
2.099999899999998
  0
CIRCLE
  5
243
330
36
100
AcDbEntity
  8
0
  6
Continuous
 62
     3
100
AcDbCircle
 10
-68.19937900000001
 20
138.92764
 30
0.0
 40
2.099999899999998
  0
CIRCLE
  5
244
330
36
100
AcDbEntity
  8
0
  6
Continuous
 62
     3
100
AcDbCircle
 10
-68.19937900000001
 20
138.92764
 30
0.0
 40
4.099999899999998
  0
CIRCLE
  5
245
330
36
100
AcDbEntity
  8
0
  6
Continuous
 62
     3
100
AcDbCircle
 10
-68.19937900000001
 20
98.927635
 30
0.0
 40
2.099999899999998
  0
CIRCLE
  5
246
330
36
100
AcDbEntity
  8
0
  6
Continuous
 62
     3
100
AcDbCircle
 10
-68.19937900000001
 20
98.927635
 30
0.0
 40
4.099999899999998
  0
CIRCLE
  5
247
330
36
100
AcDbEntity
  8
0
  6
Continuous
 62
     3
100
AcDbCircle
 10
-49.199383
 20
138.92764
 30
0.0
 40
2.099999899999998
  0
CIRCLE
  5
248
330
36
100
AcDbEntity
  8
0
  6
Continuous
 62
     3
100
AcDbCircle
 10
-49.199383
 20
138.92764
 30
0.0
 40
4.099999899999998
  0
ARC
  5
249
330
36
100
AcDbEntity
  8
0
  6
Continuous
 62
     3
100
AcDbCircle
 10
-58.699379
 20
108.27163
 30
0.0
 40
4.883998899999999
100
AcDbArc
 50
180.0
 51
0.0
  0
ARC
  5
24A
330
36
100
AcDbEntity
  8
0
  6
Continuous
 62
     3
100
AcDbCircle
 10
-58.699379
 20
105.42764
 30
0.0
 40
17.000002
100
AcDbArc
 50
179.99997
 51
0.0
  0
CIRCLE
  5
24B
330
36
100
AcDbEntity
  8
0
  6
Continuous
 62
     3
100
AcDbCircle
 10
-49.199383
 20
98.927635
 30
0.0
 40
4.099999899999998
  0
ARC
  5
24C
330
36
100
AcDbEntity
  8
0
  6
Continuous
 62
     3
100
AcDbCircle
 10
-58.699379
 20
129.58363
 30
0.0
 40
4.883998899999999
100
AcDbArc
 50
0.0
 51
180.0
  0
CIRCLE
  5
24D
330
36
100
AcDbEntity
  8
0
  6
Continuous
 62
     3
100
AcDbCircle
 10
-49.199383
 20
98.927635
 30
0.0
 40
2.099999899999998
  0
CIRCLE
  5
24E
330
36
100
AcDbEntity
  8
0
  6
Continuous
 62
     3
100
AcDbCircle
 10
-220.1394
 20
98.927635
 30
0.0
 40
2.099999899999998
  0
CIRCLE
  5
24F
330
36
100
AcDbEntity
  8
0
  6
Continuous
 62
     3
100
AcDbCircle
 10
-239.13942
 20
138.92764
 30
0.0
 40
2.099999899999998
  0
CIRCLE
  5
250
330
36
100
AcDbEntity
  8
0
  6
Continuous
 62
     3
100
AcDbCircle
 10
-239.13942
 20
138.92764
 30
0.0
 40
4.099999899999998
  0
CIRCLE
  5
251
330
36
100
AcDbEntity
  8
0
  6
Continuous
 62
     3
100
AcDbCircle
 10
-239.13942
 20
98.927635
 30
0.0
 40
2.099999899999998
  0
CIRCLE
  5
252
330
36
100
AcDbEntity
  8
0
  6
Continuous
 62
     3
100
AcDbCircle
 10
-239.13942
 20
98.927635
 30
0.0
 40
4.099999899999998
  0
CIRCLE
  5
253
330
36
100
AcDbEntity
  8
0
  6
Continuous
 62
     3
100
AcDbCircle
 10
-220.1394
 20
138.92764
 30
0.0
 40
2.099999899999998
  0
CIRCLE
  5
254
330
36
100
AcDbEntity
  8
0
  6
Continuous
 62
     3
100
AcDbCircle
 10
-220.1394
 20
138.92764
 30
0.0
 40
4.099999899999998
  0
ARC
  5
255
330
36
100
AcDbEntity
  8
0
  6
Continuous
 62
     3
100
AcDbCircle
 10
-229.63939
 20
108.27163
 30
0.0
 40
4.883998899999999
100
AcDbArc
 50
180.0
 51
0.0
  0
ARC
  5
256
330
36
100
AcDbEntity
  8
0
  6
Continuous
 62
     3
100
AcDbCircle
 10
-229.63939
 20
105.42764
 30
0.0
 40
17.000002
100
AcDbArc
 50
179.99997
 51
0.0
  0
CIRCLE
  5
257
330
36
100
AcDbEntity
  8
0
  6
Continuous
 62
     3
100
AcDbCircle
 10
-220.1394
 20
98.927635
 30
0.0
 40
4.099999899999998
  0
ARC
  5
258
330
36
100
AcDbEntity
  8
0
  6
Continuous
 62
     3
100
AcDbCircle
 10
-229.63939
 20
129.58363
 30
0.0
 40
4.883998899999999
100
AcDbArc
 50
0.0
 51
180.0
  0
ARC
  5
259
330
36
100
AcDbEntity
  8
0
  6
Continuous
 62
     3
100
AcDbCircle
 10
-229.63939
 20
132.42763
 30
0.0
 40
17.000002
100
AcDbArc
 50
0.0
 51
179.99995
  0
ARC
  5
25A
330
36
100
AcDbEntity
  8
0
  6
Continuous
 62
     3
100
AcDbCircle
 10
32.320587
 20
105.42764
 30
0.0
 40
17.000002
100
AcDbArc
 50
179.99997
 51
0.0
  0
ARC
  5
25B
330
36
100
AcDbEntity
  8
0
  6
Continuous
 62
     3
100
AcDbCircle
 10
32.320587
 20
132.42763
 30
0.0
 40
17.000002
100
AcDbArc
 50
0.0
 51
179.99995
  0
ARC
  5
25C
330
36
100
AcDbEntity
  8
0
  6
Continuous
 62
     3
100
AcDbCircle
 10
-140.98941
 20
46.357647
 30
0.0
 40
14.430002
100
AcDbArc
 50
179.99998
 51
0.0
  0
ARC
  5
25D
330
36
100
AcDbEntity
  8
0
  6
Continuous
 62
     3
100
AcDbCircle
 10
-140.98941
 20
65.04765299999999
 30
0.0
 40
3.330001799999998
100
AcDbArc
 50
180.0
 51
0.0
  0
ARC
  5
25E
330
36
100
AcDbEntity
  8
0
  6
Continuous
 62
     3
100
AcDbCircle
 10
-140.98941
 20
82.80764000000003
 30
0.0
 40
3.330001799999998
100
AcDbArc
 50
0.0
 51
180.0
  0
ARC
  5
25F
330
36
100
AcDbEntity
  8
0
  6
DASHED
 62
     7
100
AcDbCircle
 10
-140.98941
 20
61.861637
 30
0.0
 40
5.5500035
100
AcDbArc
 50
179.99996
 51
0.0
  0
ARC
  5
260
330
36
100
AcDbEntity
  8
0
  6
DASHED
 62
     7
100
AcDbCircle
 10
-140.98941
 20
85.99363699999997
 30
0.0
 40
5.5500035
100
AcDbArc
 50
0.0
 51
180.0
  0
ARC
  5
261
330
36
100
AcDbEntity
  8
0
  6
Continuous
 62
     3
100
AcDbCircle
 10
-140.98941
 20
108.27163
 30
0.0
 40
4.884002699999999
100
AcDbArc
 50
180.0
 51
0.0
  0
ARC
  5
262
330
36
100
AcDbEntity
  8
0
  6
Continuous
 62
     3
100
AcDbCircle
 10
-140.98941
 20
129.58363
 30
0.0
 40
4.884002699999999
100
AcDbArc
 50
0.0
 51
180.0
  0
ARC
  5
263
330
36
100
AcDbEntity
  8
0
  6
Continuous
 62
     3
100
AcDbCircle
 10
32.320587
 20
108.27163
 30
0.0
 40
4.883998899999999
100
AcDbArc
 50
180.0
 51
0.0
  0
ARC
  5
264
330
36
100
AcDbEntity
  8
0
  6
Continuous
 62
     3
100
AcDbCircle
 10
32.320587
 20
129.58363
 30
0.0
 40
4.883998899999999
100
AcDbArc
 50
0.0
 51
180.0
  0
CIRCLE
  5
265
330
36
100
AcDbEntity
  8
0
  6
DASHED
 62
     7
100
AcDbCircle
 10
-130.98941
 20
96.42764300000001
 30
0.0
 40
4.099999899999998
  0
CIRCLE
  5
266
330
36
100
AcDbEntity
  8
0
  6
DASHED
 62
     3
100
AcDbCircle
 10
-130.98941
 20
96.42764300000001
 30
0.0
 40
2.099999899999998
  0
CIRCLE
  5
267
330
36
100
AcDbEntity
  8
0
  6
DASHED
 62
     7
100
AcDbCircle
 10
-150.98941
 20
96.42764300000001
 30
0.0
 40
4.099999899999998
  0
CIRCLE
  5
268
330
36
100
AcDbEntity
  8
0
  6
DASHED
 62
     3
100
AcDbCircle
 10
-150.98941
 20
96.42764300000001
 30
0.0
 40
2.099999899999998
  0
CIRCLE
  5
269
330
36
100
AcDbEntity
  8
0
  6
DASHED
 62
     7
100
AcDbCircle
 10
-140.98941
 20
51.427639
 30
0.0
 40
4.099999899999998
  0
CIRCLE
  5
26A
330
36
100
AcDbEntity
  8
0
  6
DASHED
 62
     3
100
AcDbCircle
 10
-140.98941
 20
51.427639
 30
0.0
 40
2.099999899999998
  0
CIRCLE
  5
26B
330
36
100
AcDbEntity
  8
0
  6
Continuous
 62
     3
100
AcDbCircle
 10
41.82062499999999
 20
98.927635
 30
0.0
 40
4.099999899999998
  0
CIRCLE
  5
26C
330
36
100
AcDbEntity
  8
0
  6
Continuous
 62
     3
100
AcDbCircle
 10
41.82062499999999
 20
98.927635
 30
0.0
 40
2.099999899999998
  0
ARC
  5
26D
330
36
100
AcDbEntity
  8
0
  6
Continuous
 62
     3
100
AcDbCircle
 10
-140.98941
 20
61.927643
 30
0.0
 40
16.5
100
AcDbArc
 50
330.99117
 51
0.0
  0
ARC
  5
26E
330
36
100
AcDbEntity
  8
0
  6
DASHED
 62
     7
100
AcDbCircle
 10
-140.98941
 20
61.927643
 30
0.0
 40
16.5
100
AcDbArc
 50
209.00875
 51
330.99117
  0
ARC
  5
26F
330
36
100
AcDbEntity
  8
0
  6
Continuous
 62
     3
100
AcDbCircle
 10
-140.98941
 20
61.927643
 30
0.0
 40
16.5
100
AcDbArc
 50
179.99997
 51
209.00874
  0
ARC
  5
270
330
36
100
AcDbEntity
  8
0
  6
Continuous
 62
     3
100
AcDbCircle
 10
-140.98941
 20
130.92766
 30
0.0
 40
16.5
100
AcDbArc
 50
0.0
 51
179.99995
  0
CIRCLE
  5
271
330
36
100
AcDbEntity
  8
0
  6
Continuous
 62
     3
100
AcDbCircle
 10
22.820591
 20
138.92764
 30
0.0
 40
2.099999899999998
  0
CIRCLE
  5
272
330
36
100
AcDbEntity
  8
0
  6
Continuous
 62
     3
100
AcDbCircle
 10
22.820591
 20
138.92764
 30
0.0
 40
4.099999899999998
  0
CIRCLE
  5
273
330
36
100
AcDbEntity
  8
0
  6
Continuous
 62
     3
100
AcDbCircle
 10
22.820591
 20
98.927635
 30
0.0
 40
2.099999899999998
  0
CIRCLE
  5
274
330
36
100
AcDbEntity
  8
0
  6
Continuous
 62
     3
100
AcDbCircle
 10
22.820591
 20
98.927635
 30
0.0
 40
4.099999899999998
  0
CIRCLE
  5
275
330
36
100
AcDbEntity
  8
0
  6
Continuous
 62
     3
100
AcDbCircle
 10
41.82062499999999
 20
138.92764
 30
0.0
 40
2.099999899999998
  0
POLYLINE
  5
276
330
36
100
AcDbEntity
  8
0
  6
Continuous
 62
     3
100
AcDb2dPolyline
 66
     1
 10
0.0
 20
0.0
 30
0.0
 70
     1
  0
VERTEX
  5
277
330
276
100
AcDbEntity
  8
0
  6
Continuous
 62
     3
100
AcDbVertex
100
AcDb2dVertex
 10
-188.82458
 20
126.92764
 30
0.0
 42
0.098491403
  0
VERTEX
  5
278
330
276
100
AcDbEntity
  8
0
  6
Continuous
 62
     3
100
AcDbVertex
100
AcDb2dVertex
 10
-189.67414
 20
126.62316
 30
0.0
 42
0.098491403
  0
VERTEX
  5
279
330
276
100
AcDbEntity
  8
0
  6
Continuous
 62
     3
100
AcDbVertex
100
AcDb2dVertex
 10
-190.39436
 20
125.75607
 30
0.0
 42
0.098491403
  0
VERTEX
  5
27A
330
276
100
AcDbEntity
  8
0
  6
Continuous
 62
     3
100
AcDbVertex
100
AcDb2dVertex
 10
-190.8756
 20
124.45838
 30
0.0
 42
0.098491403
  0
VERTEX
  5
27B
330
276
100
AcDbEntity
  8
0
  6
Continuous
 62
     3
100
AcDbVertex
100
AcDb2dVertex
 10
-191.04458
 20
122.92764
 30
0.0
 42
0.098491403
  0
VERTEX
  5
27C
330
276
100
AcDbEntity
  8
0
  6
Continuous
 62
     3
100
AcDbVertex
100
AcDb2dVertex
 10
-190.8756
 20
121.39691
 30
0.0
 42
0.098491403
  0
VERTEX
  5
27D
330
276
100
AcDbEntity
  8
0
  6
Continuous
 62
     3
100
AcDbVertex
100
AcDb2dVertex
 10
-190.39436
 20
120.09922
 30
0.0
 42
0.098491403
  0
VERTEX
  5
27E
330
276
100
AcDbEntity
  8
0
  6
Continuous
 62
     3
100
AcDbVertex
100
AcDb2dVertex
 10
-189.67414
 20
119.23212
 30
0.0
 42
0.098491403
  0
VERTEX
  5
27F
330
276
100
AcDbEntity
  8
0
  6
Continuous
 62
     3
100
AcDbVertex
100
AcDb2dVertex
 10
-188.82458
 20
118.92764
 30
0.0
 42
0.098491403
  0
VERTEX
  5
280
330
276
100
AcDbEntity
  8
0
  6
Continuous
 62
     3
100
AcDbVertex
100
AcDb2dVertex
 10
-187.97503
 20
119.23212
 30
0.0
 42
0.098491403
  0
VERTEX
  5
281
330
276
100
AcDbEntity
  8
0
  6
Continuous
 62
     3
100
AcDbVertex
100
AcDb2dVertex
 10
-187.25481
 20
120.09922
 30
0.0
 42
0.098491403
  0
VERTEX
  5
282
330
276
100
AcDbEntity
  8
0
  6
Continuous
 62
     3
100
AcDbVertex
100
AcDb2dVertex
 10
-186.77357
 20
121.39691
 30
0.0
 42
0.098491403
  0
VERTEX
  5
283
330
276
100
AcDbEntity
  8
0
  6
Continuous
 62
     3
100
AcDbVertex
100
AcDb2dVertex
 10
-186.60459
 20
122.92764
 30
0.0
 42
0.098491403
  0
VERTEX
  5
284
330
276
100
AcDbEntity
  8
0
  6
Continuous
 62
     3
100
AcDbVertex
100
AcDb2dVertex
 10
-186.77357
 20
124.45838
 30
0.0
 42
0.098491403
  0
VERTEX
  5
285
330
276
100
AcDbEntity
  8
0
  6
Continuous
 62
     3
100
AcDbVertex
100
AcDb2dVertex
 10
-187.25481
 20
125.75607
 30
0.0
 42
0.098491403
  0
VERTEX
  5
286
330
276
100
AcDbEntity
  8
0
  6
Continuous
 62
     3
100
AcDbVertex
100
AcDb2dVertex
 10
-187.97503
 20
126.62316
 30
0.0
 42
0.098491403
  0
SEQEND
  5
287
330
276
100
AcDbEntity
  8
0
  6
Continuous
 62
     3
  0
POLYLINE
  5
288
330
36
100
AcDbEntity
  8
0
  6
Continuous
 62
     3
100
AcDb2dPolyline
 66
     1
 10
0.0
 20
0.0
 30
0.0
 70
     1
  0
VERTEX
  5
289
330
288
100
AcDbEntity
  8
0
  6
Continuous
 62
     3
100
AcDbVertex
100
AcDb2dVertex
 10
-260.94141
 20
126.92764
 30
0.0
 42
0.098491403
  0
VERTEX
  5
28A
330
288
100
AcDbEntity
  8
0
  6
Continuous
 62
     3
100
AcDbVertex
100
AcDb2dVertex
 10
-261.79096
 20
126.62316
 30
0.0
 42
0.098491403
  0
VERTEX
  5
28B
330
288
100
AcDbEntity
  8
0
  6
Continuous
 62
     3
100
AcDbVertex
100
AcDb2dVertex
 10
-262.5111799999999
 20
125.75607
 30
0.0
 42
0.098491403
  0
VERTEX
  5
28C
330
288
100
AcDbEntity
  8
0
  6
Continuous
 62
     3
100
AcDbVertex
100
AcDb2dVertex
 10
-262.99242
 20
124.45838
 30
0.0
 42
0.098491403
  0
VERTEX
  5
28D
330
288
100
AcDbEntity
  8
0
  6
Continuous
 62
     3
100
AcDbVertex
100
AcDb2dVertex
 10
-263.16141
 20
122.92764
 30
0.0
 42
0.098491403
  0
VERTEX
  5
28E
330
288
100
AcDbEntity
  8
0
  6
Continuous
 62
     3
100
AcDbVertex
100
AcDb2dVertex
 10
-262.99242
 20
121.39691
 30
0.0
 42
0.098491403
  0
VERTEX
  5
28F
330
288
100
AcDbEntity
  8
0
  6
Continuous
 62
     3
100
AcDbVertex
100
AcDb2dVertex
 10
-262.5111799999999
 20
120.09922
 30
0.0
 42
0.098491403
  0
VERTEX
  5
290
330
288
100
AcDbEntity
  8
0
  6
Continuous
 62
     3
100
AcDbVertex
100
AcDb2dVertex
 10
-261.79096
 20
119.23212
 30
0.0
 42
0.098491403
  0
VERTEX
  5
291
330
288
100
AcDbEntity
  8
0
  6
Continuous
 62
     3
100
AcDbVertex
100
AcDb2dVertex
 10
-260.94141
 20
118.92764
 30
0.0
 42
0.098491403
  0
VERTEX
  5
292
330
288
100
AcDbEntity
  8
0
  6
Continuous
 62
     3
100
AcDbVertex
100
AcDb2dVertex
 10
-260.09185
 20
119.23212
 30
0.0
 42
0.098491403
  0
VERTEX
  5
293
330
288
100
AcDbEntity
  8
0
  6
Continuous
 62
     3
100
AcDbVertex
100
AcDb2dVertex
 10
-259.37163
 20
120.09922
 30
0.0
 42
0.098491403
  0
VERTEX
  5
294
330
288
100
AcDbEntity
  8
0
  6
Continuous
 62
     3
100
AcDbVertex
100
AcDb2dVertex
 10
-258.89039
 20
121.39691
 30
0.0
 42
0.098491403
  0
VERTEX
  5
295
330
288
100
AcDbEntity
  8
0
  6
Continuous
 62
     3
100
AcDbVertex
100
AcDb2dVertex
 10
-258.72141
 20
122.92764
 30
0.0
 42
0.098491403
  0
VERTEX
  5
296
330
288
100
AcDbEntity
  8
0
  6
Continuous
 62
     3
100
AcDbVertex
100
AcDb2dVertex
 10
-258.89039
 20
124.45838
 30
0.0
 42
0.098491403
  0
VERTEX
  5
297
330
288
100
AcDbEntity
  8
0
  6
Continuous
 62
     3
100
AcDbVertex
100
AcDb2dVertex
 10
-259.37163
 20
125.75607
 30
0.0
 42
0.098491403
  0
VERTEX
  5
298
330
288
100
AcDbEntity
  8
0
  6
Continuous
 62
     3
100
AcDbVertex
100
AcDb2dVertex
 10
-260.09185
 20
126.62316
 30
0.0
 42
0.098491403
  0
SEQEND
  5
299
330
288
100
AcDbEntity
  8
0
  6
Continuous
 62
     3
  0
POLYLINE
  5
29A
330
36
100
AcDbEntity
  8
0
  6
Continuous
 62
     3
100
AcDb2dPolyline
 66
     1
 10
0.0
 20
0.0
 30
0.0
  0
VERTEX
  5
29B
330
29A
100
AcDbEntity
  8
0
  6
Continuous
 62
     3
100
AcDbVertex
100
AcDb2dVertex
 10
-260.94141
 20
110.92764
 30
0.0
 42
0.04912685
  0
VERTEX
  5
29C
330
29A
100
AcDbEntity
  8
0
  6
Continuous
 62
     3
100
AcDbVertex
100
AcDb2dVertex
 10
-260.50831
 20
111.0045
 30
0.0
 42
0.04912685
  0
VERTEX
  5
29D
330
29A
100
AcDbEntity
  8
0
  6
Continuous
 62
     3
100
AcDbVertex
100
AcDb2dVertex
 10
-260.09185
 20
111.23212
 30
0.0
 42
0.04912685
  0
VERTEX
  5
29E
330
29A
100
AcDbEntity
  8
0
  6
Continuous
 62
     3
100
AcDbVertex
100
AcDb2dVertex
 10
-259.70804
 20
111.60176
 30
0.0
 42
0.04912685
  0
VERTEX
  5
29F
330
29A
100
AcDbEntity
  8
0
  6
Continuous
 62
     3
100
AcDbVertex
100
AcDb2dVertex
 10
-259.37163
 20
112.09922
 30
0.0
 42
0.04912685
  0
VERTEX
  5
2A0
330
29A
100
AcDbEntity
  8
0
  6
Continuous
 62
     3
100
AcDbVertex
100
AcDb2dVertex
 10
-259.09554
 20
112.70536
 30
0.0
 42
0.04912685
  0
VERTEX
  5
2A1
330
29A
100
AcDbEntity
  8
0
  6
Continuous
 62
     3
100
AcDbVertex
100
AcDb2dVertex
 10
-258.89039
 20
113.39691
 30
0.0
 42
0.04912685
  0
VERTEX
  5
2A2
330
29A
100
AcDbEntity
  8
0
  6
Continuous
 62
     3
100
AcDbVertex
100
AcDb2dVertex
 10
-258.76406
 20
114.14728
 30
0.0
 42
0.04912685
  0
VERTEX
  5
2A3
330
29A
100
AcDbEntity
  8
0
  6
Continuous
 62
     3
100
AcDbVertex
100
AcDb2dVertex
 10
-258.72141
 20
114.92764
 30
0.0
 42
0.04912685
  0
VERTEX
  5
2A4
330
29A
100
AcDbEntity
  8
0
  6
Continuous
 62
     3
100
AcDbVertex
100
AcDb2dVertex
 10
-258.76406
 20
115.708
 30
0.0
 42
0.04912685
  0
VERTEX
  5
2A5
330
29A
100
AcDbEntity
  8
0
  6
Continuous
 62
     3
100
AcDbVertex
100
AcDb2dVertex
 10
-258.89039
 20
116.45838
 30
0.0
 42
0.04912685
  0
VERTEX
  5
2A6
330
29A
100
AcDbEntity
  8
0
  6
Continuous
 62
     3
100
AcDbVertex
100
AcDb2dVertex
 10
-259.09554
 20
117.14992
 30
0.0
 42
0.04912685
  0
VERTEX
  5
2A7
330
29A
100
AcDbEntity
  8
0
  6
Continuous
 62
     3
100
AcDbVertex
100
AcDb2dVertex
 10
-259.37163
 20
117.75607
 30
0.0
 42
0.04912685
  0
VERTEX
  5
2A8
330
29A
100
AcDbEntity
  8
0
  6
Continuous
 62
     3
100
AcDbVertex
100
AcDb2dVertex
 10
-259.70804
 20
118.25352
 30
0.0
 42
0.04912685
  0
VERTEX
  5
2A9
330
29A
100
AcDbEntity
  8
0
  6
Continuous
 62
     3
100
AcDbVertex
100
AcDb2dVertex
 10
-260.09185
 20
118.62316
 30
0.0
 42
0.04912685
  0
VERTEX
  5
2AA
330
29A
100
AcDbEntity
  8
0
  6
Continuous
 62
     3
100
AcDbVertex
100
AcDb2dVertex
 10
-260.50831
 20
118.85078
 30
0.0
 42
0.04912685
  0
VERTEX
  5
2AB
330
29A
100
AcDbEntity
  8
0
  6
Continuous
 62
     3
100
AcDbVertex
100
AcDb2dVertex
 10
-260.94141
 20
118.92764
 30
0.0
 42
-1.0
  0
SEQEND
  5
2AC
330
29A
100
AcDbEntity
  8
0
  6
Continuous
 62
     3
  0
POLYLINE
  5
2AD
330
36
100
AcDbEntity
  8
0
  6
Continuous
 62
     3
100
AcDb2dPolyline
 66
     1
 10
0.0
 20
0.0
 30
0.0
 70
     1
  0
VERTEX
  5
2AE
330
2AD
100
AcDbEntity
  8
0
  6
Continuous
 62
     3
100
AcDbVertex
100
AcDb2dVertex
 10
-253.77107
 20
110.92764
 30
0.0
 42
0.098491403
  0
VERTEX
  5
2AF
330
2AD
100
AcDbEntity
  8
0
  6
Continuous
 62
     3
100
AcDbVertex
100
AcDb2dVertex
 10
-252.92152
 20
111.23212
 30
0.0
 42
0.098491403
  0
VERTEX
  5
2B0
330
2AD
100
AcDbEntity
  8
0
  6
Continuous
 62
     3
100
AcDbVertex
100
AcDb2dVertex
 10
-252.2013
 20
112.09922
 30
0.0
 42
0.098491403
  0
VERTEX
  5
2B1
330
2AD
100
AcDbEntity
  8
0
  6
Continuous
 62
     3
100
AcDbVertex
100
AcDb2dVertex
 10
-251.72006
 20
113.39691
 30
0.0
 42
0.098491403
  0
VERTEX
  5
2B2
330
2AD
100
AcDbEntity
  8
0
  6
Continuous
 62
     3
100
AcDbVertex
100
AcDb2dVertex
 10
-251.55107
 20
114.92764
 30
0.0
 42
0.098491403
  0
VERTEX
  5
2B3
330
2AD
100
AcDbEntity
  8
0
  6
Continuous
 62
     3
100
AcDbVertex
100
AcDb2dVertex
 10
-251.72006
 20
116.45838
 30
0.0
 42
0.098491403
  0
VERTEX
  5
2B4
330
2AD
100
AcDbEntity
  8
0
  6
Continuous
 62
     3
100
AcDbVertex
100
AcDb2dVertex
 10
-252.2013
 20
117.75607
 30
0.0
 42
0.098491403
  0
VERTEX
  5
2B5
330
2AD
100
AcDbEntity
  8
0
  6
Continuous
 62
     3
100
AcDbVertex
100
AcDb2dVertex
 10
-252.92152
 20
118.62316
 30
0.0
 42
0.098491403
  0
VERTEX
  5
2B6
330
2AD
100
AcDbEntity
  8
0
  6
Continuous
 62
     3
100
AcDbVertex
100
AcDb2dVertex
 10
-253.77107
 20
118.92764
 30
0.0
 42
0.098491403
  0
VERTEX
  5
2B7
330
2AD
100
AcDbEntity
  8
0
  6
Continuous
 62
     3
100
AcDbVertex
100
AcDb2dVertex
 10
-254.62063
 20
118.62316
 30
0.0
 42
0.098491403
  0
VERTEX
  5
2B8
330
2AD
100
AcDbEntity
  8
0
  6
Continuous
 62
     3
100
AcDbVertex
100
AcDb2dVertex
 10
-255.34085
 20
117.75607
 30
0.0
 42
0.098491403
  0
VERTEX
  5
2B9
330
2AD
100
AcDbEntity
  8
0
  6
Continuous
 62
     3
100
AcDbVertex
100
AcDb2dVertex
 10
-255.82208
 20
116.45838
 30
0.0
 42
0.098491403
  0
VERTEX
  5
2BA
330
2AD
100
AcDbEntity
  8
0
  6
Continuous
 62
     3
100
AcDbVertex
100
AcDb2dVertex
 10
-255.99107
 20
114.92764
 30
0.0
 42
0.098491403
  0
VERTEX
  5
2BB
330
2AD
100
AcDbEntity
  8
0
  6
Continuous
 62
     3
100
AcDbVertex
100
AcDb2dVertex
 10
-255.82208
 20
113.39691
 30
0.0
 42
0.098491403
  0
VERTEX
  5
2BC
330
2AD
100
AcDbEntity
  8
0
  6
Continuous
 62
     3
100
AcDbVertex
100
AcDb2dVertex
 10
-255.34085
 20
112.09922
 30
0.0
 42
0.098491403
  0
VERTEX
  5
2BD
330
2AD
100
AcDbEntity
  8
0
  6
Continuous
 62
     3
100
AcDbVertex
100
AcDb2dVertex
 10
-254.62063
 20
111.23212
 30
0.0
 42
0.098491403
  0
SEQEND
  5
2BE
330
2AD
100
AcDbEntity
  8
0
  6
Continuous
 62
     3
  0
POLYLINE
  5
2BF
330
36
100
AcDbEntity
  8
0
  6
Continuous
 62
     3
100
AcDb2dPolyline
 66
     1
 10
0.0
 20
0.0
 30
0.0
  0
VERTEX
  5
2C0
330
2BF
100
AcDbEntity
  8
0
  6
Continuous
 62
     3
100
AcDbVertex
100
AcDb2dVertex
 10
-253.77107
 20
126.92764
 30
0.0
 42
0.04912685
  0
VERTEX
  5
2C1
330
2BF
100
AcDbEntity
  8
0
  6
Continuous
 62
     3
100
AcDbVertex
100
AcDb2dVertex
 10
-254.20417
 20
126.85078
 30
0.0
 42
0.04912685
  0
VERTEX
  5
2C2
330
2BF
100
AcDbEntity
  8
0
  6
Continuous
 62
     3
100
AcDbVertex
100
AcDb2dVertex
 10
-254.62063
 20
126.62316
 30
0.0
 42
0.04912685
  0
VERTEX
  5
2C3
330
2BF
100
AcDbEntity
  8
0
  6
Continuous
 62
     3
100
AcDbVertex
100
AcDb2dVertex
 10
-255.00444
 20
126.25352
 30
0.0
 42
0.04912685
  0
VERTEX
  5
2C4
330
2BF
100
AcDbEntity
  8
0
  6
Continuous
 62
     3
100
AcDbVertex
100
AcDb2dVertex
 10
-255.34085
 20
125.75607
 30
0.0
 42
0.04912685
  0
VERTEX
  5
2C5
330
2BF
100
AcDbEntity
  8
0
  6
Continuous
 62
     3
100
AcDbVertex
100
AcDb2dVertex
 10
-255.61693
 20
125.14992
 30
0.0
 42
0.04912685
  0
VERTEX
  5
2C6
330
2BF
100
AcDbEntity
  8
0
  6
Continuous
 62
     3
100
AcDbVertex
100
AcDb2dVertex
 10
-255.82208
 20
124.45838
 30
0.0
 42
0.04912685
  0
VERTEX
  5
2C7
330
2BF
100
AcDbEntity
  8
0
  6
Continuous
 62
     3
100
AcDbVertex
100
AcDb2dVertex
 10
-255.94842
 20
123.708
 30
0.0
 42
0.04912685
  0
VERTEX
  5
2C8
330
2BF
100
AcDbEntity
  8
0
  6
Continuous
 62
     3
100
AcDbVertex
100
AcDb2dVertex
 10
-255.99107
 20
122.92764
 30
0.0
 42
0.04912685
  0
VERTEX
  5
2C9
330
2BF
100
AcDbEntity
  8
0
  6
Continuous
 62
     3
100
AcDbVertex
100
AcDb2dVertex
 10
-255.94842
 20
122.14728
 30
0.0
 42
0.04912685
  0
VERTEX
  5
2CA
330
2BF
100
AcDbEntity
  8
0
  6
Continuous
 62
     3
100
AcDbVertex
100
AcDb2dVertex
 10
-255.82208
 20
121.39691
 30
0.0
 42
0.04912685
  0
VERTEX
  5
2CB
330
2BF
100
AcDbEntity
  8
0
  6
Continuous
 62
     3
100
AcDbVertex
100
AcDb2dVertex
 10
-255.61693
 20
120.70536
 30
0.0
 42
0.04912685
  0
VERTEX
  5
2CC
330
2BF
100
AcDbEntity
  8
0
  6
Continuous
 62
     3
100
AcDbVertex
100
AcDb2dVertex
 10
-255.34085
 20
120.09922
 30
0.0
 42
0.04912685
  0
VERTEX
  5
2CD
330
2BF
100
AcDbEntity
  8
0
  6
Continuous
 62
     3
100
AcDbVertex
100
AcDb2dVertex
 10
-255.00444
 20
119.60176
 30
0.0
 42
0.04912685
  0
VERTEX
  5
2CE
330
2BF
100
AcDbEntity
  8
0
  6
Continuous
 62
     3
100
AcDbVertex
100
AcDb2dVertex
 10
-254.62063
 20
119.23212
 30
0.0
 42
0.04912685
  0
VERTEX
  5
2CF
330
2BF
100
AcDbEntity
  8
0
  6
Continuous
 62
     3
100
AcDbVertex
100
AcDb2dVertex
 10
-254.20417
 20
119.0045
 30
0.0
 42
0.04912685
  0
VERTEX
  5
2D0
330
2BF
100
AcDbEntity
  8
0
  6
Continuous
 62
     3
100
AcDbVertex
100
AcDb2dVertex
 10
-253.77107
 20
118.92764
 30
0.0
 42
-1.0
  0
SEQEND
  5
2D1
330
2BF
100
AcDbEntity
  8
0
  6
Continuous
 62
     3
  0
POLYLINE
  5
2D2
330
36
100
AcDbEntity
  8
0
  6
Continuous
 62
     3
100
AcDb2dPolyline
 66
     1
 10
0.0
 20
0.0
 30
0.0
  0
VERTEX
  5
2D3
330
2D2
100
AcDbEntity
  8
0
  6
Continuous
 62
     3
100
AcDbVertex
100
AcDb2dVertex
 10
1.0586294
 20
110.92764
 30
0.0
 42
0.04912685
  0
VERTEX
  5
2D4
330
2D2
100
AcDbEntity
  8
0
  6
Continuous
 62
     3
100
AcDbVertex
100
AcDb2dVertex
 10
1.491729
 20
111.00451
 30
0.0
 42
0.04912685
  0
VERTEX
  5
2D5
330
2D2
100
AcDbEntity
  8
0
  6
Continuous
 62
     3
100
AcDbVertex
100
AcDb2dVertex
 10
1.9081831
 20
111.23213
 30
0.0
 42
0.04912685
  0
VERTEX
  5
2D6
330
2D2
100
AcDbEntity
  8
0
  6
Continuous
 62
     3
100
AcDbVertex
100
AcDb2dVertex
 10
2.291987799999998
 20
111.60178
 30
0.0
 42
0.04912685
  0
VERTEX
  5
2D7
330
2D2
100
AcDbEntity
  8
0
  6
Continuous
 62
     3
100
AcDbVertex
100
AcDb2dVertex
 10
2.6283935
 20
112.09923
 30
0.0
 42
0.04912685
  0
VERTEX
  5
2D8
330
2D2
100
AcDbEntity
  8
0
  6
Continuous
 62
     3
100
AcDbVertex
100
AcDb2dVertex
 10
2.904472399999998
 20
112.70538
 30
0.0
 42
0.04912685
  0
VERTEX
  5
2D9
330
2D2
100
AcDbEntity
  8
0
  6
Continuous
 62
     3
100
AcDbVertex
100
AcDb2dVertex
 10
3.109614899999998
 20
113.39693
 30
0.0
 42
0.04912685
  0
VERTEX
  5
2DA
330
2D2
100
AcDbEntity
  8
0
  6
Continuous
 62
     3
100
AcDbVertex
100
AcDb2dVertex
 10
3.2359376
 20
114.1473
 30
0.0
 42
0.04912685
  0
VERTEX
  5
2DB
330
2D2
100
AcDbEntity
  8
0
  6
Continuous
 62
     3
100
AcDbVertex
100
AcDb2dVertex
 10
3.278585899999998
 20
114.92767
 30
0.0
 42
0.04912685
  0
VERTEX
  5
2DC
330
2D2
100
AcDbEntity
  8
0
  6
Continuous
 62
     3
100
AcDbVertex
100
AcDb2dVertex
 10
3.235920899999998
 20
115.70803
 30
0.0
 42
0.04912685
  0
VERTEX
  5
2DD
330
2D2
100
AcDbEntity
  8
0
  6
Continuous
 62
     3
100
AcDbVertex
100
AcDb2dVertex
 10
3.109582099999999
 20
116.4584
 30
0.0
 42
0.04912685
  0
VERTEX
  5
2DE
330
2D2
100
AcDbEntity
  8
0
  6
Continuous
 62
     3
100
AcDbVertex
100
AcDb2dVertex
 10
2.9044247
 20
117.14994
 30
0.0
 42
0.04912685
  0
VERTEX
  5
2DF
330
2D2
100
AcDbEntity
  8
0
  6
Continuous
 62
     3
100
AcDbVertex
100
AcDb2dVertex
 10
2.628332799999999
 20
117.75609
 30
0.0
 42
0.04912685
  0
VERTEX
  5
2E0
330
2D2
100
AcDbEntity
  8
0
  6
Continuous
 62
     3
100
AcDbVertex
100
AcDb2dVertex
 10
2.291916399999998
 20
118.25353
 30
0.0
 42
0.04912685
  0
VERTEX
  5
2E1
330
2D2
100
AcDbEntity
  8
0
  6
Continuous
 62
     3
100
AcDbVertex
100
AcDb2dVertex
 10
1.9081038
 20
118.62317
 30
0.0
 42
0.04912685
  0
VERTEX
  5
2E2
330
2D2
100
AcDbEntity
  8
0
  6
Continuous
 62
     3
100
AcDbVertex
100
AcDb2dVertex
 10
1.491644799999999
 20
118.85079
 30
0.0
 42
0.04912685
  0
VERTEX
  5
2E3
330
2D2
100
AcDbEntity
  8
0
  6
Continuous
 62
     3
100
AcDbVertex
100
AcDb2dVertex
 10
1.0585436
 20
118.92764
 30
0.0
 42
-1.0
  0
SEQEND
  5
2E4
330
2D2
100
AcDbEntity
  8
0
  6
Continuous
 62
     3
  0
POLYLINE
  5
2E5
330
36
100
AcDbEntity
  8
0
  6
Continuous
 62
     3
100
AcDb2dPolyline
 66
     1
 10
0.0
 20
0.0
 30
0.0
 70
     1
  0
VERTEX
  5
2E6
330
2E5
100
AcDbEntity
  8
0
  6
Continuous
 62
     3
100
AcDbVertex
100
AcDb2dVertex
 10
1.0586294
 20
126.92764
 30
0.0
 42
0.098491403
  0
VERTEX
  5
2E7
330
2E5
100
AcDbEntity
  8
0
  6
Continuous
 62
     3
100
AcDbVertex
100
AcDb2dVertex
 10
0.20906912
 20
126.62317
 30
0.0
 42
0.098491403
  0
VERTEX
  5
2E8
330
2E5
100
AcDbEntity
  8
0
  6
Continuous
 62
     3
100
AcDbVertex
100
AcDb2dVertex
 10
-0.51115983
 20
125.75609
 30
0.0
 42
0.098491403
  0
VERTEX
  5
2E9
330
2E5
100
AcDbEntity
  8
0
  6
Continuous
 62
     3
100
AcDbVertex
100
AcDb2dVertex
 10
-0.99240914
 20
124.4584
 30
0.0
 42
0.098491403
  0
VERTEX
  5
2EA
330
2E5
100
AcDbEntity
  8
0
  6
Continuous
 62
     3
100
AcDbVertex
100
AcDb2dVertex
 10
-1.161413
 20
122.92767
 30
0.0
 42
0.098491403
  0
VERTEX
  5
2EB
330
2E5
100
AcDbEntity
  8
0
  6
Continuous
 62
     3
100
AcDbVertex
100
AcDb2dVertex
 10
-0.9924419799999999
 20
121.39693
 30
0.0
 42
0.098491403
  0
VERTEX
  5
2EC
330
2E5
100
AcDbEntity
  8
0
  6
Continuous
 62
     3
100
AcDbVertex
100
AcDb2dVertex
 10
-0.51122052
 20
120.09923
 30
0.0
 42
0.098491403
  0
VERTEX
  5
2ED
330
2E5
100
AcDbEntity
  8
0
  6
Continuous
 62
     3
100
AcDbVertex
100
AcDb2dVertex
 10
0.20898983
 20
119.23213
 30
0.0
 42
0.098491403
  0
VERTEX
  5
2EE
330
2E5
100
AcDbEntity
  8
0
  6
Continuous
 62
     3
100
AcDbVertex
100
AcDb2dVertex
 10
1.0585436
 20
118.92764
 30
0.0
 42
0.098491403
  0
VERTEX
  5
2EF
330
2E5
100
AcDbEntity
  8
0
  6
Continuous
 62
     3
100
AcDbVertex
100
AcDb2dVertex
 10
1.9081038
 20
119.23212
 30
0.0
 42
0.098491403
  0
VERTEX
  5
2F0
330
2E5
100
AcDbEntity
  8
0
  6
Continuous
 62
     3
100
AcDbVertex
100
AcDb2dVertex
 10
2.628332799999999
 20
120.0992
 30
0.0
 42
0.098491403
  0
VERTEX
  5
2F1
330
2E5
100
AcDbEntity
  8
0
  6
Continuous
 62
     3
100
AcDbVertex
100
AcDb2dVertex
 10
3.109582099999999
 20
121.39689
 30
0.0
 42
0.098491403
  0
VERTEX
  5
2F2
330
2E5
100
AcDbEntity
  8
0
  6
Continuous
 62
     3
100
AcDbVertex
100
AcDb2dVertex
 10
3.278585899999998
 20
122.92762
 30
0.0
 42
0.098491403
  0
VERTEX
  5
2F3
330
2E5
100
AcDbEntity
  8
0
  6
Continuous
 62
     3
100
AcDbVertex
100
AcDb2dVertex
 10
3.109614899999998
 20
124.45835
 30
0.0
 42
0.098491403
  0
VERTEX
  5
2F4
330
2E5
100
AcDbEntity
  8
0
  6
Continuous
 62
     3
100
AcDbVertex
100
AcDb2dVertex
 10
2.6283935
 20
125.75605
 30
0.0
 42
0.098491403
  0
VERTEX
  5
2F5
330
2E5
100
AcDbEntity
  8
0
  6
Continuous
 62
     3
100
AcDbVertex
100
AcDb2dVertex
 10
1.9081831
 20
126.62315
 30
0.0
 42
0.098491403
  0
SEQEND
  5
2F6
330
2E5
100
AcDbEntity
  8
0
  6
Continuous
 62
     3
  0
POLYLINE
  5
2F7
330
36
100
AcDbEntity
  8
0
  6
Continuous
 62
     3
100
AcDb2dPolyline
 66
     1
 10
0.0
 20
0.0
 30
0.0
  0
VERTEX
  5
2F8
330
2F7
100
AcDbEntity
  8
0
  6
Continuous
 62
     3
100
AcDbVertex
100
AcDb2dVertex
 10
8.228915199999999
 20
126.92764
 30
0.0
 42
0.04912685
  0
VERTEX
  5
2F9
330
2F7
100
AcDbEntity
  8
0
  6
Continuous
 62
     3
100
AcDbVertex
100
AcDb2dVertex
 10
7.7958148
 20
126.85078
 30
0.0
 42
0.04912685
  0
VERTEX
  5
2FA
330
2F7
100
AcDbEntity
  8
0
  6
Continuous
 62
     3
100
AcDbVertex
100
AcDb2dVertex
 10
7.379358199999998
 20
126.62316
 30
0.0
 42
0.04912685
  0
VERTEX
  5
2FB
330
2F7
100
AcDbEntity
  8
0
  6
Continuous
 62
     3
100
AcDbVertex
100
AcDb2dVertex
 10
6.995549599999998
 20
126.25352
 30
0.0
 42
0.04912685
  0
VERTEX
  5
2FC
330
2F7
100
AcDbEntity
  8
0
  6
Continuous
 62
     3
100
AcDbVertex
100
AcDb2dVertex
 10
6.659138599999998
 20
125.75607
 30
0.0
 42
0.04912685
  0
VERTEX
  5
2FD
330
2F7
100
AcDbEntity
  8
0
  6
Continuous
 62
     3
100
AcDbVertex
100
AcDb2dVertex
 10
6.383053099999998
 20
125.14992
 30
0.0
 42
0.04912685
  0
VERTEX
  5
2FE
330
2F7
100
AcDbEntity
  8
0
  6
Continuous
 62
     3
100
AcDbVertex
100
AcDb2dVertex
 10
6.1779032
 20
124.45838
 30
0.0
 42
0.04912685
  0
VERTEX
  5
2FF
330
2F7
100
AcDbEntity
  8
0
  6
Continuous
 62
     3
100
AcDbVertex
100
AcDb2dVertex
 10
6.0515724
 20
123.708
 30
0.0
 42
0.04912685
  0
VERTEX
  5
300
330
2F7
100
AcDbEntity
  8
0
  6
Continuous
 62
     3
100
AcDbVertex
100
AcDb2dVertex
 10
6.008915799999998
 20
122.92764
 30
0.0
 42
0.04912685
  0
VERTEX
  5
301
330
2F7
100
AcDbEntity
  8
0
  6
Continuous
 62
     3
100
AcDbVertex
100
AcDb2dVertex
 10
6.0515724
 20
122.14728
 30
0.0
 42
0.04912685
  0
VERTEX
  5
302
330
2F7
100
AcDbEntity
  8
0
  6
Continuous
 62
     3
100
AcDbVertex
100
AcDb2dVertex
 10
6.1779032
 20
121.39691
 30
0.0
 42
0.04912685
  0
VERTEX
  5
303
330
2F7
100
AcDbEntity
  8
0
  6
Continuous
 62
     3
100
AcDbVertex
100
AcDb2dVertex
 10
6.383053099999998
 20
120.70536
 30
0.0
 42
0.04912685
  0
VERTEX
  5
304
330
2F7
100
AcDbEntity
  8
0
  6
Continuous
 62
     3
100
AcDbVertex
100
AcDb2dVertex
 10
6.659138599999998
 20
120.09922
 30
0.0
 42
0.04912685
  0
VERTEX
  5
305
330
2F7
100
AcDbEntity
  8
0
  6
Continuous
 62
     3
100
AcDbVertex
100
AcDb2dVertex
 10
6.995549599999998
 20
119.60176
 30
0.0
 42
0.04912685
  0
VERTEX
  5
306
330
2F7
100
AcDbEntity
  8
0
  6
Continuous
 62
     3
100
AcDbVertex
100
AcDb2dVertex
 10
7.379358199999998
 20
119.23212
 30
0.0
 42
0.04912685
  0
VERTEX
  5
307
330
2F7
100
AcDbEntity
  8
0
  6
Continuous
 62
     3
100
AcDbVertex
100
AcDb2dVertex
 10
7.7958148
 20
119.0045
 30
0.0
 42
0.04912685
  0
VERTEX
  5
308
330
2F7
100
AcDbEntity
  8
0
  6
Continuous
 62
     3
100
AcDbVertex
100
AcDb2dVertex
 10
8.228915199999999
 20
118.92764
 30
0.0
 42
-1.0
  0
SEQEND
  5
309
330
2F7
100
AcDbEntity
  8
0
  6
Continuous
 62
     3
  0
POLYLINE
  5
30A
330
36
100
AcDbEntity
  8
0
  6
Continuous
 62
     3
100
AcDb2dPolyline
 66
     1
 10
0.0
 20
0.0
 30
0.0
 70
     1
  0
VERTEX
  5
30B
330
30A
100
AcDbEntity
  8
0
  6
Continuous
 62
     3
100
AcDbVertex
100
AcDb2dVertex
 10
8.228915199999999
 20
110.92764
 30
0.0
 42
0.098491403
  0
VERTEX
  5
30C
330
30A
100
AcDbEntity
  8
0
  6
Continuous
 62
     3
100
AcDbVertex
100
AcDb2dVertex
 10
9.0784722
 20
111.23212
 30
0.0
 42
0.098491403
  0
VERTEX
  5
30D
330
30A
100
AcDbEntity
  8
0
  6
Continuous
 62
     3
100
AcDbVertex
100
AcDb2dVertex
 10
9.798691899999999
 20
112.09922
 30
0.0
 42
0.098491403
  0
VERTEX
  5
30E
330
30A
100
AcDbEntity
  8
0
  6
Continuous
 62
     3
100
AcDbVertex
100
AcDb2dVertex
 10
10.279927
 20
113.39691
 30
0.0
 42
0.098491403
  0
VERTEX
  5
30F
330
30A
100
AcDbEntity
  8
0
  6
Continuous
 62
     3
100
AcDbVertex
100
AcDb2dVertex
 10
10.448915
 20
114.92764
 30
0.0
 42
0.098491403
  0
VERTEX
  5
310
330
30A
100
AcDbEntity
  8
0
  6
Continuous
 62
     3
100
AcDbVertex
100
AcDb2dVertex
 10
10.279927
 20
116.45838
 30
0.0
 42
0.098491403
  0
VERTEX
  5
311
330
30A
100
AcDbEntity
  8
0
  6
Continuous
 62
     3
100
AcDbVertex
100
AcDb2dVertex
 10
9.798691899999999
 20
117.75607
 30
0.0
 42
0.098491403
  0
VERTEX
  5
312
330
30A
100
AcDbEntity
  8
0
  6
Continuous
 62
     3
100
AcDbVertex
100
AcDb2dVertex
 10
9.0784722
 20
118.62316
 30
0.0
 42
0.098491403
  0
VERTEX
  5
313
330
30A
100
AcDbEntity
  8
0
  6
Continuous
 62
     3
100
AcDbVertex
100
AcDb2dVertex
 10
8.228915199999999
 20
118.92764
 30
0.0
 42
0.098491403
  0
VERTEX
  5
314
330
30A
100
AcDbEntity
  8
0
  6
Continuous
 62
     3
100
AcDbVertex
100
AcDb2dVertex
 10
7.379358199999998
 20
118.62316
 30
0.0
 42
0.098491403
  0
VERTEX
  5
315
330
30A
100
AcDbEntity
  8
0
  6
Continuous
 62
     3
100
AcDbVertex
100
AcDb2dVertex
 10
6.659138599999998
 20
117.75607
 30
0.0
 42
0.098491403
  0
VERTEX
  5
316
330
30A
100
AcDbEntity
  8
0
  6
Continuous
 62
     3
100
AcDbVertex
100
AcDb2dVertex
 10
6.1779032
 20
116.45838
 30
0.0
 42
0.098491403
  0
VERTEX
  5
317
330
30A
100
AcDbEntity
  8
0
  6
Continuous
 62
     3
100
AcDbVertex
100
AcDb2dVertex
 10
6.008915799999998
 20
114.92764
 30
0.0
 42
0.098491403
  0
VERTEX
  5
318
330
30A
100
AcDbEntity
  8
0
  6
Continuous
 62
     3
100
AcDbVertex
100
AcDb2dVertex
 10
6.1779032
 20
113.39691
 30
0.0
 42
0.098491403
  0
VERTEX
  5
319
330
30A
100
AcDbEntity
  8
0
  6
Continuous
 62
     3
100
AcDbVertex
100
AcDb2dVertex
 10
6.659138599999998
 20
112.09922
 30
0.0
 42
0.098491403
  0
VERTEX
  5
31A
330
30A
100
AcDbEntity
  8
0
  6
Continuous
 62
     3
100
AcDbVertex
100
AcDb2dVertex
 10
7.379358199999998
 20
111.23212
 30
0.0
 42
0.098491403
  0
SEQEND
  5
31B
330
30A
100
AcDbEntity
  8
0
  6
Continuous
 62
     3
  0
POLYLINE
  5
31C
330
36
100
AcDbEntity
  8
0
  6
Continuous
 62
     3
100
AcDb2dPolyline
 66
     1
 10
0.0
 20
0.0
 30
0.0
  0
VERTEX
  5
31D
330
31C
100
AcDbEntity
  8
0
  6
Continuous
 62
     3
100
AcDbVertex
100
AcDb2dVertex
 10
-181.65424
 20
126.92764
 30
0.0
 42
0.04912685
  0
VERTEX
  5
31E
330
31C
100
AcDbEntity
  8
0
  6
Continuous
 62
     3
100
AcDbVertex
100
AcDb2dVertex
 10
-182.08734
 20
126.85078
 30
0.0
 42
0.04912685
  0
VERTEX
  5
31F
330
31C
100
AcDbEntity
  8
0
  6
Continuous
 62
     3
100
AcDbVertex
100
AcDb2dVertex
 10
-182.50379
 20
126.62316
 30
0.0
 42
0.04912685
  0
VERTEX
  5
320
330
31C
100
AcDbEntity
  8
0
  6
Continuous
 62
     3
100
AcDbVertex
100
AcDb2dVertex
 10
-182.8876
 20
126.25352
 30
0.0
 42
0.04912685
  0
VERTEX
  5
321
330
31C
100
AcDbEntity
  8
0
  6
Continuous
 62
     3
100
AcDbVertex
100
AcDb2dVertex
 10
-183.22401
 20
125.75607
 30
0.0
 42
0.04912685
  0
VERTEX
  5
322
330
31C
100
AcDbEntity
  8
0
  6
Continuous
 62
     3
100
AcDbVertex
100
AcDb2dVertex
 10
-183.5001
 20
125.14992
 30
0.0
 42
0.04912685
  0
VERTEX
  5
323
330
31C
100
AcDbEntity
  8
0
  6
Continuous
 62
     3
100
AcDbVertex
100
AcDb2dVertex
 10
-183.70525
 20
124.45838
 30
0.0
 42
0.04912685
  0
VERTEX
  5
324
330
31C
100
AcDbEntity
  8
0
  6
Continuous
 62
     3
100
AcDbVertex
100
AcDb2dVertex
 10
-183.83158
 20
123.708
 30
0.0
 42
0.04912685
  0
VERTEX
  5
325
330
31C
100
AcDbEntity
  8
0
  6
Continuous
 62
     3
100
AcDbVertex
100
AcDb2dVertex
 10
-183.87424
 20
122.92764
 30
0.0
 42
0.04912685
  0
VERTEX
  5
326
330
31C
100
AcDbEntity
  8
0
  6
Continuous
 62
     3
100
AcDbVertex
100
AcDb2dVertex
 10
-183.83158
 20
122.14728
 30
0.0
 42
0.04912685
  0
VERTEX
  5
327
330
31C
100
AcDbEntity
  8
0
  6
Continuous
 62
     3
100
AcDbVertex
100
AcDb2dVertex
 10
-183.70525
 20
121.39691
 30
0.0
 42
0.04912685
  0
VERTEX
  5
328
330
31C
100
AcDbEntity
  8
0
  6
Continuous
 62
     3
100
AcDbVertex
100
AcDb2dVertex
 10
-183.5001
 20
120.70536
 30
0.0
 42
0.04912685
  0
VERTEX
  5
329
330
31C
100
AcDbEntity
  8
0
  6
Continuous
 62
     3
100
AcDbVertex
100
AcDb2dVertex
 10
-183.22401
 20
120.09922
 30
0.0
 42
0.04912685
  0
VERTEX
  5
32A
330
31C
100
AcDbEntity
  8
0
  6
Continuous
 62
     3
100
AcDbVertex
100
AcDb2dVertex
 10
-182.8876
 20
119.60176
 30
0.0
 42
0.04912685
  0
VERTEX
  5
32B
330
31C
100
AcDbEntity
  8
0
  6
Continuous
 62
     3
100
AcDbVertex
100
AcDb2dVertex
 10
-182.50379
 20
119.23212
 30
0.0
 42
0.04912685
  0
VERTEX
  5
32C
330
31C
100
AcDbEntity
  8
0
  6
Continuous
 62
     3
100
AcDbVertex
100
AcDb2dVertex
 10
-182.08734
 20
119.0045
 30
0.0
 42
0.04912685
  0
VERTEX
  5
32D
330
31C
100
AcDbEntity
  8
0
  6
Continuous
 62
     3
100
AcDbVertex
100
AcDb2dVertex
 10
-181.65424
 20
118.92764
 30
0.0
 42
-1.0
  0
SEQEND
  5
32E
330
31C
100
AcDbEntity
  8
0
  6
Continuous
 62
     3
  0
POLYLINE
  5
32F
330
36
100
AcDbEntity
  8
0
  6
Continuous
 62
     3
100
AcDb2dPolyline
 66
     1
 10
0.0
 20
0.0
 30
0.0
 70
     1
  0
VERTEX
  5
330
330
32F
100
AcDbEntity
  8
0
  6
Continuous
 62
     3
100
AcDbVertex
100
AcDb2dVertex
 10
-181.65424
 20
110.92764
 30
0.0
 42
0.098491403
  0
VERTEX
  5
331
330
32F
100
AcDbEntity
  8
0
  6
Continuous
 62
     3
100
AcDbVertex
100
AcDb2dVertex
 10
-180.8046799999999
 20
111.23212
 30
0.0
 42
0.098491403
  0
VERTEX
  5
332
330
32F
100
AcDbEntity
  8
0
  6
Continuous
 62
     3
100
AcDbVertex
100
AcDb2dVertex
 10
-180.08446
 20
112.09922
 30
0.0
 42
0.098491403
  0
VERTEX
  5
333
330
32F
100
AcDbEntity
  8
0
  6
Continuous
 62
     3
100
AcDbVertex
100
AcDb2dVertex
 10
-179.60322
 20
113.39691
 30
0.0
 42
0.098491403
  0
VERTEX
  5
334
330
32F
100
AcDbEntity
  8
0
  6
Continuous
 62
     3
100
AcDbVertex
100
AcDb2dVertex
 10
-179.43424
 20
114.92764
 30
0.0
 42
0.098491403
  0
VERTEX
  5
335
330
32F
100
AcDbEntity
  8
0
  6
Continuous
 62
     3
100
AcDbVertex
100
AcDb2dVertex
 10
-179.60322
 20
116.45838
 30
0.0
 42
0.098491403
  0
VERTEX
  5
336
330
32F
100
AcDbEntity
  8
0
  6
Continuous
 62
     3
100
AcDbVertex
100
AcDb2dVertex
 10
-180.08446
 20
117.75607
 30
0.0
 42
0.098491403
  0
VERTEX
  5
337
330
32F
100
AcDbEntity
  8
0
  6
Continuous
 62
     3
100
AcDbVertex
100
AcDb2dVertex
 10
-180.8046799999999
 20
118.62316
 30
0.0
 42
0.098491403
  0
VERTEX
  5
338
330
32F
100
AcDbEntity
  8
0
  6
Continuous
 62
     3
100
AcDbVertex
100
AcDb2dVertex
 10
-181.65424
 20
118.92764
 30
0.0
 42
0.098491403
  0
VERTEX
  5
339
330
32F
100
AcDbEntity
  8
0
  6
Continuous
 62
     3
100
AcDbVertex
100
AcDb2dVertex
 10
-182.50379
 20
118.62316
 30
0.0
 42
0.098491403
  0
VERTEX
  5
33A
330
32F
100
AcDbEntity
  8
0
  6
Continuous
 62
     3
100
AcDbVertex
100
AcDb2dVertex
 10
-183.22401
 20
117.75607
 30
0.0
 42
0.098491403
  0
VERTEX
  5
33B
330
32F
100
AcDbEntity
  8
0
  6
Continuous
 62
     3
100
AcDbVertex
100
AcDb2dVertex
 10
-183.70525
 20
116.45838
 30
0.0
 42
0.098491403
  0
VERTEX
  5
33C
330
32F
100
AcDbEntity
  8
0
  6
Continuous
 62
     3
100
AcDbVertex
100
AcDb2dVertex
 10
-183.87424
 20
114.92764
 30
0.0
 42
0.098491403
  0
VERTEX
  5
33D
330
32F
100
AcDbEntity
  8
0
  6
Continuous
 62
     3
100
AcDbVertex
100
AcDb2dVertex
 10
-183.70525
 20
113.39691
 30
0.0
 42
0.098491403
  0
VERTEX
  5
33E
330
32F
100
AcDbEntity
  8
0
  6
Continuous
 62
     3
100
AcDbVertex
100
AcDb2dVertex
 10
-183.22401
 20
112.09922
 30
0.0
 42
0.098491403
  0
VERTEX
  5
33F
330
32F
100
AcDbEntity
  8
0
  6
Continuous
 62
     3
100
AcDbVertex
100
AcDb2dVertex
 10
-182.50379
 20
111.23212
 30
0.0
 42
0.098491403
  0
SEQEND
  5
340
330
32F
100
AcDbEntity
  8
0
  6
Continuous
 62
     3
  0
POLYLINE
  5
341
330
36
100
AcDbEntity
  8
0
  6
Continuous
 62
     3
100
AcDb2dPolyline
 66
     1
 10
0.0
 20
0.0
 30
0.0
  0
VERTEX
  5
342
330
341
100
AcDbEntity
  8
0
  6
Continuous
 62
     3
100
AcDbVertex
100
AcDb2dVertex
 10
-188.82458
 20
110.92764
 30
0.0
 42
0.04912685
  0
VERTEX
  5
343
330
341
100
AcDbEntity
  8
0
  6
Continuous
 62
     3
100
AcDbVertex
100
AcDb2dVertex
 10
-188.39148
 20
111.0045
 30
0.0
 42
0.04912685
  0
VERTEX
  5
344
330
341
100
AcDbEntity
  8
0
  6
Continuous
 62
     3
100
AcDbVertex
100
AcDb2dVertex
 10
-187.97503
 20
111.23212
 30
0.0
 42
0.04912685
  0
VERTEX
  5
345
330
341
100
AcDbEntity
  8
0
  6
Continuous
 62
     3
100
AcDbVertex
100
AcDb2dVertex
 10
-187.59122
 20
111.60176
 30
0.0
 42
0.04912685
  0
VERTEX
  5
346
330
341
100
AcDbEntity
  8
0
  6
Continuous
 62
     3
100
AcDbVertex
100
AcDb2dVertex
 10
-187.25481
 20
112.09922
 30
0.0
 42
0.04912685
  0
VERTEX
  5
347
330
341
100
AcDbEntity
  8
0
  6
Continuous
 62
     3
100
AcDbVertex
100
AcDb2dVertex
 10
-186.97872
 20
112.70536
 30
0.0
 42
0.04912685
  0
VERTEX
  5
348
330
341
100
AcDbEntity
  8
0
  6
Continuous
 62
     3
100
AcDbVertex
100
AcDb2dVertex
 10
-186.77357
 20
113.39691
 30
0.0
 42
0.04912685
  0
VERTEX
  5
349
330
341
100
AcDbEntity
  8
0
  6
Continuous
 62
     3
100
AcDbVertex
100
AcDb2dVertex
 10
-186.64724
 20
114.14728
 30
0.0
 42
0.04912685
  0
VERTEX
  5
34A
330
341
100
AcDbEntity
  8
0
  6
Continuous
 62
     3
100
AcDbVertex
100
AcDb2dVertex
 10
-186.60459
 20
114.92764
 30
0.0
 42
0.04912685
  0
VERTEX
  5
34B
330
341
100
AcDbEntity
  8
0
  6
Continuous
 62
     3
100
AcDbVertex
100
AcDb2dVertex
 10
-186.64724
 20
115.708
 30
0.0
 42
0.04912685
  0
VERTEX
  5
34C
330
341
100
AcDbEntity
  8
0
  6
Continuous
 62
     3
100
AcDbVertex
100
AcDb2dVertex
 10
-186.77357
 20
116.45838
 30
0.0
 42
0.04912685
  0
VERTEX
  5
34D
330
341
100
AcDbEntity
  8
0
  6
Continuous
 62
     3
100
AcDbVertex
100
AcDb2dVertex
 10
-186.97872
 20
117.14992
 30
0.0
 42
0.04912685
  0
VERTEX
  5
34E
330
341
100
AcDbEntity
  8
0
  6
Continuous
 62
     3
100
AcDbVertex
100
AcDb2dVertex
 10
-187.25481
 20
117.75607
 30
0.0
 42
0.04912685
  0
VERTEX
  5
34F
330
341
100
AcDbEntity
  8
0
  6
Continuous
 62
     3
100
AcDbVertex
100
AcDb2dVertex
 10
-187.59122
 20
118.25352
 30
0.0
 42
0.04912685
  0
VERTEX
  5
350
330
341
100
AcDbEntity
  8
0
  6
Continuous
 62
     3
100
AcDbVertex
100
AcDb2dVertex
 10
-187.97503
 20
118.62316
 30
0.0
 42
0.04912685
  0
VERTEX
  5
351
330
341
100
AcDbEntity
  8
0
  6
Continuous
 62
     3
100
AcDbVertex
100
AcDb2dVertex
 10
-188.39148
 20
118.85078
 30
0.0
 42
0.04912685
  0
VERTEX
  5
352
330
341
100
AcDbEntity
  8
0
  6
Continuous
 62
     3
100
AcDbVertex
100
AcDb2dVertex
 10
-188.82458
 20
118.92764
 30
0.0
 42
-1.0
  0
SEQEND
  5
353
330
341
100
AcDbEntity
  8
0
  6
Continuous
 62
     3
  0
TEXT
  5
354
330
36
100
AcDbEntity
  8
0
  6
Continuous
 62
     7
100
AcDbText
 10
-379.343
 20
288.9
 30
0.0
 40
3.2
  1
品　名
 41
0.85537027
100
AcDbText
  0
TEXT
  5
355
330
36
100
AcDbEntity
  8
0
  6
Continuous
 62
     7
100
AcDbText
 10
-379.343
 20
280.9
 30
0.0
 40
3.2
  1
品　番
 41
0.85537027
100
AcDbText
  0
TEXT
  5
356
330
36
100
AcDbEntity
  8
0
  6
Continuous
 62
     7
100
AcDbText
 10
-379.343
 20
272.9
 30
0.0
 40
3.2
  1
材　質
 41
0.85537027
100
AcDbText
  0
TEXT
  5
357
330
36
100
AcDbEntity
  8
0
  6
Continuous
 62
     7
100
AcDbText
 10
-379.343
 20
264.9
 30
0.0
 40
3.2
  1
仕上げ
 41
0.85537027
100
AcDbText
  0
TEXT
  5
358
330
36
100
AcDbEntity
  8
0
  6
Continuous
 62
     7
100
AcDbText
 10
-382.543
 20
256.9
 30
0.0
 40
3.2
  1
セットビス
 41
0.84892707
100
AcDbText
  0
TEXT
  5
359
330
36
100
AcDbEntity
  8
0
  6
Continuous
 62
     7
100
AcDbText
 10
-377.7430000000002
 20
232.9
 30
0.0
 40
3.2
  1
備考
 41
0.8643907499999999
100
AcDbText
  0
TEXT
  5
35A
330
36
100
AcDbEntity
  8
0
  6
Continuous
 62
     7
100
AcDbText
 10
-362.143
 20
288.9
 30
0.0
 40
3.2
  1
丸棒貫抜
 41
0.8512700499999999
100
AcDbText
  0
TEXT
  5
35B
330
36
100
AcDbEntity
  8
0
  6
Continuous
 62
     7
100
AcDbText
 10
-362.143
 20
280.9
 30
0.0
 40
3.2
  1
DL-136S
 41
1.060164499999999
100
AcDbText
  0
TEXT
  5
35C
330
36
100
AcDbEntity
  8
0
  6
Continuous
 62
     7
100
AcDbText
 10
-362.143
 20
272.9
 30
0.0
 40
3.2
  1
ステンレス
 41
0.84892707
100
AcDbText
  0
TEXT
  5
35D
330
36
100
AcDbEntity
  8
0
  6
Continuous
 62
     7
100
AcDbText
 10
-362.143
 20
264.9
 30
0.0
 40
3.2
  1
電解メッキ
 41
0.84892707
100
AcDbText
  0
TEXT
  5
35E
330
36
100
AcDbEntity
  8
0
  6
Continuous
 62
     7
100
AcDbText
 10
-362.143
 20
256.9
 30
0.0
 40
3.2
  1
*
100
AcDbText
  0
TEXT
  5
35F
330
36
100
AcDbEntity
  8
0
  6
Continuous
 62
     7
100
AcDbText
 10
-362.143
 20
248.9
 30
0.0
 40
3.2
  1
*
100
AcDbText
  0
TEXT
  5
360
330
36
100
AcDbEntity
  8
0
  6
Continuous
 62
     7
100
AcDbText
 10
-362.143
 20
240.9
 30
0.0
 40
3.2
  1
*
100
AcDbText
  0
TEXT
  5
361
330
36
100
AcDbEntity
  8
0
  6
Continuous
 62
     7
100
AcDbText
 10
-362.143
 20
232.9
 30
0.0
 40
3.2
  1
*
100
AcDbText
  0
TEXT
  5
362
330
36
100
AcDbEntity
  8
0
  6
Continuous
 62
     7
100
AcDbText
 10
-362.143
 20
224.9
 30
0.0
 40
3.2
  1
*
100
AcDbText
  0
TEXT
  5
363
330
36
100
AcDbEntity
  8
0
  6
Continuous
 62
     7
100
AcDbText
 10
-362.143
 20
216.9
 30
0.0
 40
3.2
  1
*
100
AcDbText
  0
TEXT
  5
364
330
36
100
AcDbEntity
  8
0
  6
Continuous
 62
     7
100
AcDbText
 10
-247.98236
 20
67.513237
 30
0.0
 40
3.0
  1
１６－%%C４．２×%%C８．２
 41
0.8437695099999999
100
AcDbText
  0
TEXT
  5
365
330
36
100
AcDbEntity
  8
0
  6
Continuous
 62
     7
100
AcDbText
 10
64.55555699999999
 20
-39.897215
 30
0.0
 40
3.2
  1
ＤＬ－１３６Ｓ－１
 41
0.72721399
100
AcDbText
  0
TEXT
  5
366
330
36
100
AcDbEntity
  8
0
  6
Continuous
 62
     7
100
AcDbText
 10
98.41270000000001
 20
-29.897213
 30
0.0
 40
3.2
  1
Ｌ
 41
0.90036055
100
AcDbText
  0
TEXT
  5
367
330
36
100
AcDbEntity
  8
0
  6
Continuous
 62
     7
100
AcDbText
 10
73.8127
 20
-29.897213
 30
0.0
 40
3.2
  1
品番
 41
0.8643459000000001
100
AcDbText
  0
TEXT
  5
368
330
36
100
AcDbEntity
  8
0
  6
Continuous
 62
     7
100
AcDbText
 10
64.55555699999999
 20
-49.897215
 30
0.0
 40
3.2
  1
ＤＬ－１３６Ｓ－２
 41
0.72721399
100
AcDbText
  0
TEXT
  5
369
330
36
100
AcDbEntity
  8
0
  6
Continuous
 62
     7
100
AcDbText
 10
64.55555699999999
 20
-59.897215
 30
0.0
 40
3.2
  1
ＤＬ－１３６Ｓ－３
 41
0.72721399
100
AcDbText
  0
TEXT
  5
36A
330
36
100
AcDbEntity
  8
0
  6
Continuous
 62
     7
100
AcDbText
 10
95.21269999999999
 20
-39.897215
 30
0.0
 40
3.2
  1
３００
 41
0.85534224
100
AcDbText
  0
TEXT
  5
36B
330
36
100
AcDbEntity
  8
0
  6
Continuous
 62
     7
100
AcDbText
 10
95.21269999999999
 20
-49.897215
 30
0.0
 40
3.2
  1
４５０
 41
0.85534224
100
AcDbText
  0
TEXT
  5
36C
330
36
100
AcDbEntity
  8
0
  6
Continuous
 62
     7
100
AcDbText
 10
95.21269999999999
 20
-59.897215
 30
0.0
 40
3.2
  1
６００
 41
0.85534224
100
AcDbText
  0
TEXT
  5
36D
330
36
100
AcDbEntity
  8
0
  6
Continuous
 62
     7
100
AcDbText
 10
114.4127
 20
-29.897213
 30
0.0
 40
3.2
  1
A
100
AcDbText
  0
TEXT
  5
36E
330
36
100
AcDbEntity
  8
0
  6
Continuous
 62
     7
100
AcDbText
 10
130.4127
 20
-29.897213
 30
0.0
 40
3.2
  1
B
100
AcDbText
  0
TEXT
  5
36F
330
36
100
AcDbEntity
  8
0
  6
Continuous
 62
     7
100
AcDbText
 10
111.2127
 20
-39.897215
 30
0.0
 40
3.2
  1
125
 41
1.163265399999998
100
AcDbText
  0
TEXT
  5
370
330
36
100
AcDbEntity
  8
0
  6
Continuous
 62
     7
100
AcDbText
 10
127.2127
 20
-39.897215
 30
0.0
 40
3.2
  1
175
 41
1.163265399999998
100
AcDbText
  0
TEXT
  5
371
330
36
100
AcDbEntity
  8
0
  6
Continuous
 62
     7
100
AcDbText
 10
111.2127
 20
-49.897215
 30
0.0
 40
3.2
  1
190
 41
1.221428699999999
100
AcDbText
  0
TEXT
  5
372
330
36
100
AcDbEntity
  8
0
  6
Continuous
 62
     7
100
AcDbText
 10
127.2127
 20
-49.897215
 30
0.0
 40
3.2
  1
260
 41
1.062111899999998
100
AcDbText
  0
TEXT
  5
373
330
36
100
AcDbEntity
  8
0
  6
Continuous
 62
     7
100
AcDbText
 10
111.2127
 20
-59.897215
 30
0.0
 40
3.2
  1
255
 41
1.017857299999998
100
AcDbText
  0
TEXT
  5
374
330
36
100
AcDbEntity
  8
0
  6
Continuous
 62
     7
100
AcDbText
 10
127.2127
 20
-59.897215
 30
0.0
 40
3.2
  1
345
 41
1.017857299999998
100
AcDbText
  0
DIMENSION
  5
375
330
36
100
AcDbEntity
  8
0
  6
Continuous
 62
     7
100
AcDbDimension
  2
*D1
 10
-105.7394
 20
45.42764299999999
 30
0.0
 11
-105.7394
 21
48.42764299999998
 31
0.0
 71
     5
 42
-1.0
  3
DIMSTYLE
100
AcDbAlignedDimension
 13
-134.98943
 23
51.427639
 33
0.0
 14
-140.98941
 24
45.42764299999999
 34
0.0
 50
90.0
100
AcDbRotatedDimension
1001
ACAD
1000
DSTYLE
1002
{
1070
    77
1070
     1
1070
   172
1070
     1
1070
    75
1070
     1
1002
}
  0
DIMENSION
  5
376
330
36
100
AcDbEntity
  8
0
  6
Continuous
 62
     7
100
AcDbDimension
  2
*D2
 10
-237.55768
 20
102.71024
 30
0.0
 11
-252.58936
 21
66.76323700000001
 31
0.0
 70
     3
 71
     5
 42
-1.0
  3
DIMSTYLE
100
AcDbDiametricDimension
 15
-240.72116
 25
95.145034
 35
0.0
 40
0.0
1001
ACAD
1000
DSTYLE
1002
{
1070
    77
1070
     1
1070
   172
1070
     1
1002
}
  0
DIMENSION
  5
377
330
36
100
AcDbEntity
  8
0
  6
Continuous
 62
     7
100
AcDbDimension
  2
*D3
 10
-105.7394
 20
141.42764
 30
0.0
 11
-105.7394
 21
144.42764
 31
0.0
 71
     5
 42
-1.0
  3
DIMSTYLE
100
AcDbAlignedDimension
 13
-140.98941
 23
147.42766
 33
0.0
 14
-134.98943
 24
141.42764
 34
0.0
 50
90.0
100
AcDbRotatedDimension
1001
ACAD
1000
DSTYLE
1002
{
1070
    77
1070
     1
1070
   172
1070
     1
1002
}
  0
DIMENSION
  5
378
330
36
100
AcDbEntity
  8
0
  6
Continuous
 62
     7
100
AcDbDimension
  2
*D4
 10
122.00049
 20
168.75764
 30
0.0
 11
112.75047
 21
168.75764
 31
0.0
 71
     5
 42
-1.0
  3
DIMSTYLE
100
AcDbAlignedDimension
 13
103.50048
 23
129.26106
 33
0.0
 14
122.00049
 24
150.00764
 34
0.0
100
AcDbRotatedDimension
1001
ACAD
1000
DSTYLE
1002
{
1070
    77
1070
     1
1070
   172
1070
     1
1002
}
  0
DIMENSION
  5
379
330
36
100
AcDbEntity
  8
0
  6
Continuous
 62
     7
100
AcDbDimension
  2
*D5
 10
-176.23941
 20
45.42764299999999
 30
0.0
 11
-176.23941
 21
96.42764300000001
 31
0.0
 71
     5
 42
-1.0
  3
DIMSTYLE
100
AcDbAlignedDimension
 13
-140.98941
 23
147.42766
 33
0.0
 14
-140.98941
 24
45.42764299999999
 34
0.0
 50
90.0
100
AcDbRotatedDimension
1001
ACAD
1000
DSTYLE
1002
{
1070
    77
1070
     1
1070
   172
1070
     1
1002
}
  0
DIMENSION
  5
37A
330
36
100
AcDbEntity
  8
0
  6
Continuous
 62
     7
100
AcDbDimension
  2
*D6
 10
-41.699383
 20
69.677635
 30
0.0
 11
-45.449383
 21
69.677635
 31
0.0
 71
     5
 42
-1.0
  3
DIMSTYLE
100
AcDbAlignedDimension
 13
-49.199383
 23
92.92763499999999
 33
0.0
 14
-41.699383
 24
105.42764
 34
0.0
100
AcDbRotatedDimension
1001
ACAD
1000
DSTYLE
1002
{
1070
    77
1070
     1
1070
   172
1070
     1
1070
    75
1070
     1
1002
}
  0
DIMENSION
  5
37B
330
36
100
AcDbEntity
  8
0
  6
Continuous
 62
     7
100
AcDbDimension
  2
*D7
 10
-105.7394
 20
96.42764300000001
 30
0.0
 11
-105.7394
 21
103.03031
 31
0.0
 71
     5
 42
-1.0
  3
DIMSTYLE
100
AcDbAlignedDimension
 13
-134.98943
 23
141.42764
 33
0.0
 14
-125.66541
 24
96.42764300000001
 34
0.0
 50
90.0
100
AcDbRotatedDimension
1001
ACAD
1000
DSTYLE
1002
{
1070
    77
1070
     1
1070
   172
1070
     1
1002
}
  0
DIMENSION
  5
37C
330
36
100
AcDbEntity
  8
0
  6
Continuous
 62
     7
100
AcDbDimension
  2
*D8
 10
44.880623
 20
195.23849
 30
0.0
 11
-118.02039
 21
195.23849
 31
0.0
 71
     5
 42
-1.0
  3
DIMSTYLE
100
AcDbAlignedDimension
 13
-280.9213899999999
 23
122.48764
 33
0.0
 14
44.880623
 24
132.24763
 34
0.0
100
AcDbRotatedDimension
1001
ACAD
1000
DSTYLE
1002
{
1070
    77
1070
     1
1070
   172
1070
     1
1002
}
  0
DIMENSION
  5
37D
330
36
100
AcDbEntity
  8
0
  6
Continuous
 62
     7
100
AcDbDimension
  2
*D9
 10
-157.48941
 20
166.17766
 30
0.0
 11
-132.12866
 21
166.17766
 31
0.0
 71
     5
 42
-1.0
  3
DIMSTYLE
100
AcDbAlignedDimension
 13
-124.4894
 23
130.92764
 33
0.0
 14
-157.48941
 24
130.92764
 34
0.0
100
AcDbRotatedDimension
1001
ACAD
1000
DSTYLE
1002
{
1070
    77
1070
     1
1070
   172
1070
     1
1002
}
  0
DIMENSION
  5
37E
330
36
100
AcDbEntity
  8
0
  6
Continuous
 62
     7
100
AcDbDimension
  2
*D10
 10
-68.19937900000001
 20
69.677635
 30
0.0
 11
-58.699379
 21
69.677635
 31
0.0
 71
     5
 42
-1.0
  3
DIMSTYLE
100
AcDbAlignedDimension
 13
-49.199383
 23
92.92763499999999
 33
0.0
 14
-68.19937900000001
 24
92.92763499999999
 34
0.0
100
AcDbRotatedDimension
1001
ACAD
1000
DSTYLE
1002
{
1070
    77
1070
     1
1070
   172
1070
     1
1002
}
  0
DIMENSION
  5
37F
330
36
100
AcDbEntity
  8
0
  6
Continuous
 62
     7
100
AcDbDimension
  2
*D11
 10
-41.699383
 20
168.75764
 30
0.0
 11
-58.699379
 21
168.75764
 31
0.0
 71
     5
 42
-1.0
  3
DIMSTYLE
100
AcDbAlignedDimension
 13
-75.69937900000002
 23
132.42764
 33
0.0
 14
-41.699383
 24
132.42764
 34
0.0
100
AcDbRotatedDimension
1001
ACAD
1000
DSTYLE
1002
{
1070
    77
1070
     1
1070
   172
1070
     1
1002
}
  0
DIMENSION
  5
380
330
36
100
AcDbEntity
  8
0
  6
Continuous
 62
     7
100
AcDbDimension
  2
*D12
 10
-75.69937900000002
 20
69.677635
 30
0.0
 11
-71.94937900000002
 21
69.677635
 31
0.0
 71
     5
 42
-1.0
  3
DIMSTYLE
100
AcDbAlignedDimension
 13
-68.19937900000001
 23
92.92763499999999
 33
0.0
 14
-75.69937900000002
 24
105.42764
 34
0.0
100
AcDbRotatedDimension
1001
ACAD
1000
DSTYLE
1002
{
1070
    77
1070
     1
1070
   172
1070
     1
1070
    75
1070
     1
1002
}
  0
DIMENSION
  5
381
330
36
100
AcDbEntity
  8
0
  6
Continuous
 62
     7
100
AcDbDimension
  2
*D13
 10
-299.6713899999999
 20
110.92764
 30
0.0
 11
-299.6713899999999
 21
118.92764
 31
0.0
 71
     5
 42
-1.0
  3
DIMSTYLE
100
AcDbAlignedDimension
 13
-276.48145
 23
126.92764
 33
0.0
 14
-276.48145
 24
110.92764
 34
0.0
 50
90.0
100
AcDbRotatedDimension
1001
ACAD
1000
DSTYLE
1002
{
1070
    77
1070
     1
1070
   172
1070
     1
1002
}
  0
DIMENSION
  5
382
330
36
100
AcDbEntity
  8
0
  6
Continuous
 62
     7
100
AcDbDimension
  2
*D14
 10
-22.949377
 20
98.927635
 30
0.0
 11
-22.949377
 21
104.15633
 31
0.0
 71
     5
 42
-1.0
  3
DIMSTYLE
100
AcDbAlignedDimension
 13
-43.199406
 23
138.92764
 33
0.0
 14
-43.199406
 24
98.927635
 34
0.0
 50
90.0
100
AcDbRotatedDimension
1001
ACAD
1000
DSTYLE
1002
{
1070
    77
1070
     1
1070
   172
1070
     1
1002
}
  0
DIMENSION
  5
383
330
36
100
AcDbEntity
  8
0
  6
Continuous
 62
     7
100
AcDbDimension
  2
*D15
 10
-22.949377
 20
88.427635
 30
0.0
 11
-22.949377
 21
78.539688
 31
0.0
 71
     5
 42
-1.0
  3
DIMSTYLE
100
AcDbAlignedDimension
 13
-43.199406
 23
98.927635
 33
0.0
 14
-58.699379
 24
88.427635
 34
0.0
 50
90.0
100
AcDbRotatedDimension
1001
ACAD
1000
DSTYLE
1002
{
1070
    77
1070
     1
1070
   172
1070
     1
1070
    75
1070
     1
1002
}
  0
DIMENSION
  5
384
330
36
100
AcDbEntity
  8
0
  6
Continuous
 62
     7
100
AcDbDimension
  2
*D16
 10
-105.7394
 20
51.427639
 30
0.0
 11
-105.7394
 21
73.927643
 31
0.0
 71
     5
 42
-1.0
  3
DIMSTYLE
100
AcDbAlignedDimension
 13
-125.66541
 23
96.42764300000001
 33
0.0
 14
-134.98943
 24
51.427639
 34
0.0
 50
90.0
100
AcDbRotatedDimension
1001
ACAD
1000
DSTYLE
1002
{
1070
    77
1070
     1
1070
   172
1070
     1
1070
    75
1070
     1
1002
}
  0
DIMENSION
  5
385
330
36
100
AcDbEntity
  8
0
  6
Continuous
 62
     7
100
AcDbDimension
  2
*D17
 10
-22.949377
 20
138.92764
 30
0.0
 11
-22.949377
 21
159.44757
 31
0.0
 71
     5
 42
-1.0
  3
DIMSTYLE
100
AcDbAlignedDimension
 13
-58.699379
 23
149.42763
 33
0.0
 14
-43.199406
 24
138.92764
 34
0.0
 50
90.0
100
AcDbRotatedDimension
1001
ACAD
1000
DSTYLE
1002
{
1070
    77
1070
     1
1070
   172
1070
     1
1070
    76
1070
     1
1002
}
  0
DIMENSION
  5
386
330
36
100
AcDbEntity
  8
0
  6
Continuous
 62
     7
100
AcDbDimension
  2
*D18
 10
-130.98941
 20
25.745085
 30
0.0
 11
-140.98941
 21
25.745085
 31
0.0
 71
     5
 42
-1.0
  3
DIMSTYLE
100
AcDbAlignedDimension
 13
-150.98941
 23
90.42764299999999
 33
0.0
 14
-130.98941
 24
90.42764299999999
 34
0.0
100
AcDbRotatedDimension
1001
ACAD
1000
DSTYLE
1002
{
1070
    77
1070
     1
1070
   172
1070
     1
1002
}
  0
DIMENSION
  5
387
330
36
100
AcDbEntity
  8
0
  6
Continuous
 62
     7
100
AcDbDimension
  2
*D19
 10
-140.98941
 20
181.95752
 30
0.0
 11
-210.9554
 21
181.95752
 31
0.0
 71
     5
 42
-1.0
  3
DIMSTYLE
100
AcDbAlignedDimension
 13
-280.9213899999999
 23
122.48764
 33
0.0
 14
-140.98941
 24
150.00764
 34
0.0
100
AcDbRotatedDimension
1001
ACAD
1000
DSTYLE
1002
{
1070
    77
1070
     1
1070
   172
1070
     1
1002
}
  0
DIMENSION
  5
388
330
36
100
AcDbEntity
  8
0
  6
Continuous
 62
     7
100
AcDbDimension
  2
*D20
 10
44.880623
 20
181.95752
 30
0.0
 11
-48.05439
 21
181.95752
 31
0.0
 71
     5
 42
-1.0
  3
DIMSTYLE
100
AcDbAlignedDimension
 13
-140.98941
 23
150.00764
 33
0.0
 14
44.880623
 24
132.24763
 34
0.0
100
AcDbRotatedDimension
1001
ACAD
1000
DSTYLE
1002
{
1070
    77
1070
     1
1070
   172
1070
     1
1070
    75
1070
     1
1002
}
  0
DIMENSION
  5
389
330
36
100
AcDbEntity
  8
0
  6
Continuous
 62
     7
100
AcDbDimension
  2
*D21
 10
-29.67931
 20
118.92764
 30
0.0
 11
-29.67931
 21
133.33064
 31
0.0
 71
     5
 42
-1.0
  3
DIMSTYLE
100
AcDbAlignedDimension
 13
-43.199406
 23
138.92764
 33
0.0
 14
53.6908
 24
118.92764
 34
0.0
 50
90.0
100
AcDbRotatedDimension
1001
ACAD
1000
DSTYLE
1002
{
1070
    77
1070
     1
1070
   172
1070
     1
1070
    76
1070
     1
1002
}
  0
DIMENSION
  5
38A
330
36
100
AcDbEntity
  8
0
  6
Continuous
 62
     7
100
AcDbDimension
  2
*D22
 10
-29.67931
 20
98.927635
 30
0.0
 11
-29.67931
 21
103.26389
 31
0.0
 71
     5
 42
-1.0
  3
DIMSTYLE
100
AcDbAlignedDimension
 13
53.6908
 23
118.92764
 33
0.0
 14
-43.199406
 24
98.927635
 34
0.0
 50
90.0
100
AcDbRotatedDimension
1001
ACAD
1000
DSTYLE
1002
{
1070
    77
1070
     1
1070
   172
1070
     1
1070
    75
1070
     1
1002
}
  0
DIMENSION
  5
38B
330
36
100
AcDbEntity
  8
0
  6
Continuous
 62
     7
100
AcDbDimension
  2
*D23
 10
-114.4577
 20
118.92764
 30
0.0
 11
-114.4577
 21
158.46841
 31
0.0
 71
     5
 42
-1.0
  3
DIMSTYLE
100
AcDbAlignedDimension
 13
-134.98943
 23
141.42764
 33
0.0
 14
53.6908
 24
118.92764
 34
0.0
 50
90.0
100
AcDbRotatedDimension
1001
ACAD
1000
DSTYLE
1002
{
1070
    77
1070
     1
1070
   172
1070
     1
1070
    76
1070
     1
1002
}
  0
DIMENSION
  5
38C
330
36
100
AcDbEntity
  8
0
  6
Continuous
 62
     7
100
AcDbDimension
  2
*D24
 10
-114.4577
 20
96.42764300000001
 30
0.0
 11
-114.4577
 21
86.751816
 31
0.0
 71
     5
 42
-1.0
  3
DIMSTYLE
100
AcDbAlignedDimension
 13
53.6908
 23
118.92764
 33
0.0
 14
-124.98942
 24
96.42764300000001
 34
0.0
 50
90.0
100
AcDbRotatedDimension
1001
ACAD
1000
DSTYLE
1002
{
1070
    77
1070
     1
1070
   172
1070
     1
1070
    75
1070
     1
1002
}
  0
LINE
  5
4F4
330
36
100
AcDbEntity
  8
0
  6
Continuous
 62
     3
100
AcDbLine
 10
-60.91938000000002
 20
122.25764
 30
0.0
 11
-56.47937800000001
 21
122.25764
 31
0.0
  0
LINE
  5
4F5
330
36
100
AcDbEntity
  8
0
  6
Continuous
 62
     3
100
AcDbLine
 10
-60.91938000000002
 20
115.59764
 30
0.0
 11
-56.47937800000002
 21
115.59764
 31
0.0
  0
LINE
  5
4F6
330
36
100
AcDbEntity
  8
0
  6
Continuous
 62
     3
100
AcDbLine
 10
-138.76941
 20
122.25764
 30
0.0
 11
-143.20941
 21
122.25764
 31
0.0
  0
LINE
  5
4F7
330
36
100
AcDbEntity
  8
0
  6
Continuous
 62
     3
100
AcDbLine
 10
-143.20941
 20
115.59764
 30
0.0
 11
-138.76941
 21
115.59764
 31
0.0
  0
LINE
  5
4F8
330
36
100
AcDbEntity
  8
0
  6
Continuous
 62
     3
100
AcDbLine
 10
-143.20941
 20
122.25764
 30
0.0
 11
-143.20941
 21
133.93393
 31
0.0
  0
ENDSEC
  0
SECTION
  2
OBJECTS
  0
DICTIONARY
  5
C
330
0
100
AcDbDictionary
281
     1
  3
ACAD_2007HEADERVARS_RT
350
52F
  3
ACAD_COLOR
350
2F
  3
ACAD_GROUP
350
D
  3
ACAD_LAYOUT
350
2E
  3
ACAD_MATERIAL
350
10
  3
ACAD_MLINESTYLE
350
2B
  3
ACAD_PLOTSETTINGS
350
2D
  3
ACAD_PLOTSTYLENAME
350
E
  3
ACAD_TABLESTYLE
350
30
  3
ACAD_VISUALSTYLE
350
14
  3
AcDbVariableDictionary
350
45C
  3
AcmDictionary
350
3E7
  3
AMG
350
38E
  3
AMGSNAPSETTINGS
350
428
  3
DWGPROPS
350
52E
  0
DICTIONARY
  5
4F9
330
36
100
AcDbDictionary
280
     1
281
     1
  3
ACAD_SORTENTS
360
4FA
  0
DICTIONARY
  5
52F
102
{ACAD_REACTORS
330
C
102
}
330
C
100
AcDbDictionary
281
     1
  3
DIMARCSYM
350
530
  0
DICTIONARY
  5
2F
102
{ACAD_REACTORS
330
C
102
}
330
C
100
AcDbDictionary
281
     1
  0
DICTIONARY
  5
D
102
{ACAD_REACTORS
330
C
102
}
330
C
100
AcDbDictionary
281
     1
  0
DICTIONARY
  5
2E
102
{ACAD_REACTORS
330
C
102
}
330
C
100
AcDbDictionary
281
     1
  3
Model
350
39
  3
レイアウト1
350
35
  0
DICTIONARY
  5
10
102
{ACAD_REACTORS
330
C
102
}
330
C
100
AcDbDictionary
281
     1
  3
ByBlock
350
12
  3
ByLayer
350
11
  3
Global
350
13
  0
DICTIONARY
  5
2B
102
{ACAD_REACTORS
330
C
102
}
330
C
100
AcDbDictionary
281
     1
  3
Standard
350
2C
  0
DICTIONARY
  5
2D
102
{ACAD_REACTORS
330
C
102
}
330
C
100
AcDbDictionary
281
     1
  0
ACDBDICTIONARYWDFLT
  5
E
102
{ACAD_REACTORS
330
C
102
}
330
C
100
AcDbDictionary
281
     1
  3
Normal
350
F
100
AcDbDictionaryWithDefault
340
F
  0
DICTIONARY
  5
30
102
{ACAD_REACTORS
330
C
102
}
330
C
100
AcDbDictionary
281
     1
  3
Standard
350
31
  0
DICTIONARY
  5
14
102
{ACAD_REACTORS
330
C
102
}
330
C
100
AcDbDictionary
281
     1
  3
2dWireframe
350
1A
  3
3D Hidden
350
1C
  3
3dWireframe
350
1B
  3
Basic
350
19
  3
Brighten
350
20
  3
ColorChange
350
24
  3
Conceptual
350
1D
  3
Dim
350
1F
  3
Facepattern
350
23
  3
Flat
350
15
  3
FlatWithEdges
350
16
  3
Gouraud
350
17
  3
GouraudWithEdges
350
18
  3
Linepattern
350
22
  3
Realistic
350
1E
  3
Thicken
350
21
  0
DICTIONARY
  5
45C
102
{ACAD_REACTORS
330
C
102
}
330
C
100
AcDbDictionary
281
     1
  3
CTABLESTYLE
350
45D
  3
DIMASSOC
350
460
  3
INDEXCTL
350
45F
  3
SORTENTS
350
45E
  0
DICTIONARY
  5
3E7
102
{ACAD_REACTORS
330
C
102
}
330
C
100
AcDbDictionary
281
     1
  3
AcmStdDictionary
350
3F2
  3
AMDTSECTSYM_ARROWCOLOR
350
413
  0
DICTIONARY
  5
38E
102
{ACAD_REACTORS
330
C
102
}
330
C
100
AcDbDictionary
281
     1
  0
DICTIONARY
  5
428
102
{ACAD_REACTORS
330
C
102
}
330
C
100
AcDbDictionary
281
     1
  0
XRECORD
  5
52E
102
{ACAD_REACTORS
330
C
102
}
330
C
100
AcDbXrecord
280
     1
  1
DWGPROPS COOKIE
  2

  3

  4

  6

  7

  8
Administrator
  9

300
=
301
=
302
=
303
=
304
=
305
=
306
=
307
=
308
=
309
=
 40
0.0917762615740741
 41
2454217.685128935
 42
2454237.482633276
  1

 90
        0
  0
SORTENTSTABLE
  5
4FA
102
{ACAD_REACTORS
330
4F9
102
}
330
4F9
100
AcDbSortentsTable
330
36
331
354
  5
355
331
1F0
  5
1F0
331
212
  5
212
331
376
  5
377
331
256
  5
257
331
234
  5
235
331
365
  5
366
331
270
  5
271
331
1DA
  5
1DA
331
1B8
  5
1B8
331
201
  5
201
331
387
  5
388
331
245
  5
246
331
223
  5
224
331
1C9
  5
1C9
331
1A7
  5
1A7
331
19F
  5
19F
331
17D
  5
17D
331
16C
  5
16C
331
1EE
  5
1EE
331
210
  5
210
331
374
  5
375
331
254
  5
255
331
232
  5
233
331
363
  5
364
331
26E
  5
26F
331
1D8
  5
1D8
331
1B6
  5
1B6
331
18C
  5
18C
331
1FF
  5
1FF
331
385
  5
386
331
243
  5
244
331
221
  5
222
331
1C7
  5
1C7
331
1A5
  5
1A5
331
19D
  5
19D
331
17B
  5
17B
331
16A
  5
16A
331
1EC
  5
1EC
331
20E
  5
20E
331
341
  5
354
331
230
  5
231
331
372
  5
373
331
252
  5
253
331
361
  5
362
331
26C
  5
26D
331
1D6
  5
1D6
331
1B4
  5
1B4
331
18A
  5
18A
331
2D2
  5
2E5
331
1FD
  5
1FD
331
21F
  5
220
331
383
  5
384
331
241
  5
242
331
1E7
  5
1E7
331
1C5
  5
1C5
331
1A3
  5
1A3
331
179
  5
179
331
168
  5
168
331
1EA
  5
1EA
331
20C
  5
20C
331
370
  5
371
331
250
  5
251
331
22E
  5
22F
331
35F
  5
360
331
26A
  5
26B
331
1D4
  5
1D4
331
1B2
  5
1B2
331
1FB
  5
1FB
331
21D
  5
21E
331
381
  5
382
331
23F
  5
240
331
1E5
  5
1E5
331
1C3
  5
1C3
331
1A1
  5
1A1
331
177
  5
177
331
2BF
  5
2D2
331
166
  5
166
331
1E8
  5
1E8
331
20A
  5
20A
331
35D
  5
35E
331
268
  5
269
331
24E
  5
24F
331
22C
  5
22D
331
1D2
  5
1D2
331
1B0
  5
1B0
331
1F9
  5
1F9
331
30A
  5
31C
331
21B
  5
21C
331
37F
  5
380
331
25F
  5
260
331
23D
  5
23E
331
1E3
  5
1E3
331
1C1
  5
1C1
331
175
  5
175
331
36E
  5
36F
331
186
  5
186
331
164
  5
164
331
208
  5
208
331
35B
  5
35C
331
288
  5
29A
331
266
  5
267
331
24C
  5
24D
331
22A
  5
22B
331
1D0
  5
1D0
331
4F7
  5
4F8
331
219
  5
21A
331
37D
  5
37E
331
25D
  5
25E
331
23B
  5
23C
331
1E1
  5
1E1
331
1BF
  5
1BF
331
195
  5
195
331
173
  5
173
331
36C
  5
36D
331
2F7
  5
30A
331
1AE
  5
1AE
331
184
  5
184
331
162
  5
162
331
38C
  5
4F4
331
264
  5
265
331
24A
  5
24B
331
228
  5
229
331
359
  5
35A
331
4F5
  5
4F6
331
1F5
  5
1F5
331
37B
  5
37C
331
25B
  5
25C
331
239
  5
23A
331
36A
  5
36B
331
275
  5
276
331
1DF
  5
1DF
331
1BD
  5
1BD
331
193
  5
193
331
206
  5
206
331
1CE
  5
1CE
331
1AC
  5
1AC
331
182
  5
182
331
171
  5
171
331
38A
  5
38B
331
262
  5
263
331
248
  5
249
331
357
  5
358
331
1F3
  5
1F3
331
215
  5
216
331
379
  5
37A
331
259
  5
25A
331
237
  5
238
331
368
  5
369
331
273
  5
274
331
1DD
  5
1DD
331
1BB
  5
1BB
331
191
  5
191
331
204
  5
204
331
226
  5
227
331
1CC
  5
1CC
331
1AA
  5
1AA
331
180
  5
180
331
16F
  5
16F
331
388
  5
389
331
260
  5
261
331
355
  5
356
331
213
  5
214
331
377
  5
378
331
257
  5
258
331
235
  5
236
331
366
  5
367
331
271
  5
272
331
1DB
  5
1DB
331
1B9
  5
1B9
331
18F
  5
18F
331
202
  5
202
331
246
  5
247
331
224
  5
225
331
1CA
  5
1CA
331
1A8
  5
1A8
331
17E
  5
17E
331
16D
  5
16D
331
1EF
  5
1EF
331
211
  5
211
331
375
  5
376
331
255
  5
256
331
233
  5
234
331
364
  5
365
331
26F
  5
270
331
1D9
  5
1D9
331
1B7
  5
1B7
331
18D
  5
18D
331
200
  5
200
331
386
  5
387
331
244
  5
245
331
222
  5
223
331
1C8
  5
1C8
331
1A6
  5
1A6
331
19E
  5
19E
331
17C
  5
17C
331
16B
  5
16B
331
1ED
  5
1ED
331
20F
  5
20F
331
373
  5
374
331
253
  5
254
331
231
  5
232
331
362
  5
363
331
26D
  5
26E
331
1D7
  5
1D7
331
1B5
  5
1B5
331
1FE
  5
1FE
331
384
  5
385
331
242
  5
243
331
220
  5
221
331
1C6
  5
1C6
331
1A4
  5
1A4
331
19C
  5
19C
331
17A
  5
17A
331
169
  5
169
331
1EB
  5
1EB
331
20D
  5
20D
331
371
  5
372
331
251
  5
252
331
22F
  5
230
331
360
  5
361
331
26B
  5
26C
331
1D5
  5
1D5
331
1B3
  5
1B3
331
189
  5
189
331
1FC
  5
1FC
331
21E
  5
21F
331
32F
  5
341
331
382
  5
383
331
240
  5
241
331
1E6
  5
1E6
331
1C4
  5
1C4
331
1A2
  5
1A2
331
178
  5
178
331
167
  5
167
331
1E9
  5
1E9
331
20B
  5
20B
331
31C
  5
32F
331
35E
  5
35F
331
2AD
  5
2BF
331
269
  5
26A
331
24F
  5
250
331
22D
  5
22E
331
1D3
  5
1D3
331
1B1
  5
1B1
331
1FA
  5
1FA
331
21C
  5
21D
331
380
  5
381
331
1E4
  5
1E4
331
1C2
  5
1C2
331
1A0
  5
1A0
331
198
  5
198
331
176
  5
176
331
36F
  5
370
331
187
  5
187
331
165
  5
165
331
209
  5
209
331
35C
  5
35D
331
267
  5
268
331
24D
  5
24E
331
22B
  5
22C
331
1D1
  5
1D1
331
4F8
  5
213
331
1F8
  5
1F8
331
21A
  5
21B
331
37E
  5
37F
331
25E
  5
25F
331
23C
  5
23D
331
29A
  5
2AD
331
1E2
  5
1E2
331
1C0
  5
1C0
331
174
  5
174
331
36D
  5
36E
331
1AF
  5
1AF
331
185
  5
185
331
163
  5
163
331
35A
  5
35B
331
265
  5
266
331
24B
  5
24C
331
229
  5
22A
331
4F6
  5
4F7
331
2E5
  5
2F7
331
1F6
  5
1F6
331
218
  5
219
331
37C
  5
37D
331
25C
  5
25D
331
23A
  5
23B
331
36B
  5
36C
331
276
  5
288
331
1E0
  5
1E0
331
1BE
  5
1BE
331
194
  5
194
331
207
  5
207
331
1CF
  5
1CF
331
1AD
  5
1AD
331
183
  5
183
331
172
  5
172
331
38B
  5
38C
331
263
  5
264
331
249
  5
24A
331
358
  5
359
331
4F4
  5
4F5
331
1F4
  5
1F4
331
216
  5
218
331
37A
  5
37B
331
25A
  5
25B
331
238
  5
239
331
369
  5
36A
331
274
  5
275
331
1DE
  5
1DE
331
1BC
  5
1BC
331
192
  5
192
331
205
  5
205
331
227
  5
228
331
1CD
  5
1CD
331
1AB
  5
1AB
331
181
  5
181
331
170
  5
170
331
389
  5
38A
331
261
  5
262
331
356
  5
357
331
1F2
  5
1F2
331
214
  5
215
331
378
  5
379
331
258
  5
259
331
236
  5
237
331
367
  5
368
331
272
  5
273
331
1DC
  5
1DC
331
1BA
  5
1BA
331
190
  5
190
331
203
  5
203
331
247
  5
248
331
225
  5
226
331
1CB
  5
1CB
331
1A9
  5
1A9
331
17F
  5
17F
331
16E
  5
16E
  0
XRECORD
  5
530
102
{ACAD_REACTORS
330
52F
102
}
330
52F
100
AcDbXrecord
280
     1
 70
     1
  0
LAYOUT
  5
39
102
{ACAD_XDICTIONARY
360
535
102
}
102
{ACAD_REACTORS
330
2E
102
}
330
2E
100
AcDbPlotSettings
  1

  2
\\CAD-SRV01\FX DocuColor 1250 PLW
  4
A4
  6

 40
4.773083209991455
 41
4.815417766571044
 42
4.815399169921875
 43
4.7730712890625
 44
209.9733276367187
 45
296.9683227539062
 46
0.0
 47
0.0
 48
0.0
 49
0.0
140
0.0
141
0.0
142
1.0
143
32.90744523418034
 70
 11952
 72
     0
 73
     1
 74
     0
  7

 75
     0
147
0.0303882599479743
148
7738.080055214209
149
23.13823427210757
100
AcDbLayout
  1
Model
 70
     1
 71
     0
 10
0.0
 20
0.0
 11
12.0
 21
9.0
 12
0.0
 22
0.0
 32
0.0
 14
0.0
 24
0.0
 34
0.0
 15
0.0
 25
0.0
 35
0.0
146
0.0
 13
0.0
 23
0.0
 33
0.0
 16
1.0
 26
0.0
 36
0.0
 17
0.0
 27
1.0
 37
0.0
 76
     0
330
36
331
43
1001
ACAD_PSEXT
1000
\\CAD-SRV01\FX DocuColor 1250 PLW
1000
FX DocuColor 1250 PLW
1000
\\CAD-SRV01
1000

1070
     0
  0
LAYOUT
  5
35
102
{ACAD_XDICTIONARY
360
533
102
}
102
{ACAD_REACTORS
330
2E
102
}
330
2E
100
AcDbPlotSettings
  1

  2
\\CAD-SRV01\FX DocuColor 1250 PLW
  4

  6

 40
0.0
 41
0.0
 42
0.0
 43
0.0
 44
0.0
 45
0.0
 46
0.0
 47
0.0
 48
0.0
 49
0.0
140
0.0
141
0.0
142
1.0
143
1.0
 70
   688
 72
     0
 73
     0
 74
     5
  7

 75
    16
147
1.0
148
0.0
149
0.0
100
AcDbLayout
  1
レイアウト1
 70
     1
 71
     1
 10
-385.0
 20
-100.0
 11
170.0
 21
296.0
 12
0.0
 22
0.0
 32
0.0
 14
1.000000000000000E+20
 24
1.000000000000000E+20
 34
1.000000000000000E+20
 15
-1.000000000000000E+20
 25
-1.000000000000000E+20
 35
-1.000000000000000E+20
146
0.0
 13
0.0
 23
0.0
 33
0.0
 16
1.0
 26
0.0
 36
0.0
 17
0.0
 27
1.0
 37
0.0
 76
     0
330
32
  0
MATERIAL
  5
12
102
{ACAD_XDICTIONARY
360
464
102
}
102
{ACAD_REACTORS
330
10
102
}
330
10
100
AcDbMaterial
  1
ByBlock
  0
MATERIAL
  5
11
102
{ACAD_XDICTIONARY
360
462
102
}
102
{ACAD_REACTORS
330
10
102
}
330
10
100
AcDbMaterial
  1
ByLayer
  0
MATERIAL
  5
13
102
{ACAD_XDICTIONARY
360
466
102
}
102
{ACAD_REACTORS
330
10
102
}
330
10
100
AcDbMaterial
  1
Global
  0
MLINESTYLE
  5
2C
102
{ACAD_REACTORS
330
2B
102
}
330
2B
100
AcDbMlineStyle
  2
STANDARD
 70
     0
  3

 62
   256
 51
90.0
 52
90.0
 71
     2
 49
0.5
 62
   256
  6
BYLAYER
 49
-0.5
 62
   256
  6
BYLAYER
  0
ACDBPLACEHOLDER
  5
F
102
{ACAD_REACTORS
330
E
102
}
330
E
  0
TABLESTYLE
  5
31
102
{ACAD_XDICTIONARY
360
531
102
}
102
{ACAD_REACTORS
330
30
102
}
330
30
100
AcDbTableStyle
  3
Standard
 70
     0
 71
     0
 40
0.06
 41
0.06
280
     0
281
     0
  7
STANDARD
140
0.18
170
     2
 62
     0
 63
     7
283
     0
274
    -2
284
     1
 64
     0
275
    -2
285
     1
 65
     0
276
    -2
286
     1
 66
     0
277
    -2
287
     1
 67
     0
278
    -2
288
     1
 68
     0
279
    -2
289
     1
 69
     0
  7
STANDARD
140
0.25
170
     5
 62
     0
 63
     7
283
     0
274
    -2
284
     1
 64
     0
275
    -2
285
     1
 65
     0
276
    -2
286
     1
 66
     0
277
    -2
287
     1
 67
     0
278
    -2
288
     1
 68
     0
279
    -2
289
     1
 69
     0
  7
STANDARD
140
0.18
170
     5
 62
     0
 63
     7
283
     0
274
    -2
284
     1
 64
     0
275
    -2
285
     1
 65
     0
276
    -2
286
     1
 66
     0
277
    -2
287
     1
 67
     0
278
    -2
288
     1
 68
     0
279
    -2
289
     1
 69
     0
  0
VISUALSTYLE
  5
1A
102
{ACAD_REACTORS
330
14
102
}
330
14
100
AcDbVisualStyle
  2
2dWireframe
 70
     4
 71
     0
 72
     2
 73
     0
 90
        0
 40
-0.6
 41
-30.0
 62
     5
 63
     7
 74
     1
 91
        4
 64
     7
 65
   257
 75
     1
175
     1
 42
1.0
 92
        0
 66
   257
 43
1.0
 76
     1
 77
     6
 78
     2
 67
     7
 79
     5
170
     0
171
     0
290
     0
174
     0
 93
        1
 44
0.0
173
     0
291
     0
 45
0.0
1001
ACAD
1000
AcDbSavedByObjectVersion
1070
     0
1000
AcDbSavedByObjectVersion
1070
     0
  0
VISUALSTYLE
  5
1C
102
{ACAD_REACTORS
330
14
102
}
330
14
100
AcDbVisualStyle
  2
3D Hidden
 70
     6
 71
     1
 72
     2
 73
     2
 90
        0
 40
-0.6
 41
-30.0
 62
     5
 63
     7
 74
     2
 91
        2
 64
     7
 65
   257
 75
     2
175
     1
 42
40.0
 92
        0
 66
   257
 43
1.0
 76
     1
 77
     6
 78
     2
 67
     7
 79
     3
170
     0
171
     0
290
     0
174
     0
 93
        1
 44
0.0
173
     0
291
     0
 45
0.0
1001
ACAD
1000
AcDbSavedByObjectVersion
1070
     0
1000
AcDbSavedByObjectVersion
1070
     0
  0
VISUALSTYLE
  5
1B
102
{ACAD_REACTORS
330
14
102
}
330
14
100
AcDbVisualStyle
  2
3dWireframe
 70
     5
 71
     0
 72
     2
 73
     0
 90
        0
 40
-0.6
 41
-30.0
 62
     5
 63
     7
 74
     1
 91
        4
 64
     7
 65
   257
 75
     1
175
     1
 42
1.0
 92
        0
 66
   257
 43
1.0
 76
     1
 77
     6
 78
     2
 67
     7
 79
     5
170
     0
171
     0
290
     0
174
     0
 93
        1
 44
0.0
173
     0
291
     0
 45
0.0
1001
ACAD
1000
AcDbSavedByObjectVersion
1070
     0
1000
AcDbSavedByObjectVersion
1070
     0
  0
VISUALSTYLE
  5
19
102
{ACAD_REACTORS
330
14
102
}
330
14
100
AcDbVisualStyle
  2
Basic
 70
     7
 71
     1
 72
     0
 73
     1
 90
        0
 40
-0.6
 41
-30.0
 62
     5
 63
     7
 74
     0
 91
        4
 64
     7
 65
   257
 75
     1
175
     1
 42
1.0
 92
        8
 66
     7
 43
1.0
 76
     1
 77
     6
 78
     2
 67
     7
 79
     5
170
     0
171
     0
290
     0
174
     0
 93
        1
 44
0.0
173
     0
291
     1
 45
0.0
1001
ACAD
1000
AcDbSavedByObjectVersion
1070
     0
1000
AcDbSavedByObjectVersion
1070
     0
  0
VISUALSTYLE
  5
20
102
{ACAD_REACTORS
330
14
102
}
330
14
100
AcDbVisualStyle
  2
Brighten
 70
    12
 71
     2
 72
     2
 73
     0
 90
        0
 40
-0.6
 41
-30.0
 62
     5
 63
     7
 74
     1
 91
        4
 64
     7
 65
   257
 75
     1
175
     1
 42
1.0
 92
        8
 66
     7
 43
1.0
 76
     1
 77
     6
 78
     2
 67
     7
 79
     5
170
     0
171
     0
290
     0
174
     0
 93
        1
 44
50.0
173
     0
291
     1
 45
0.0
1001
ACAD
1000
AcDbSavedByObjectVersion
1070
     0
1000
AcDbSavedByObjectVersion
1070
     0
  0
VISUALSTYLE
  5
24
102
{ACAD_REACTORS
330
14
102
}
330
14
100
AcDbVisualStyle
  2
ColorChange
 70
    16
 71
     2
 72
     2
 73
     3
 90
        0
 40
-0.6
 41
-30.0
 62
     5
 63
     8
 74
     1
 91
        4
 64
     7
 65
   257
 75
     1
175
     1
 42
1.0
 92
        8
 66
     8
 43
1.0
 76
     1
 77
     6
 78
     2
 67
     7
 79
     5
170
     0
171
     0
290
     0
174
     0
 93
        1
 44
0.0
173
     0
291
     1
 45
0.0
1001
ACAD
1000
AcDbSavedByObjectVersion
1070
     0
1000
AcDbSavedByObjectVersion
1070
     0
  0
VISUALSTYLE
  5
1D
102
{ACAD_REACTORS
330
14
102
}
330
14
100
AcDbVisualStyle
  2
Conceptual
 70
     9
 71
     3
 72
     2
 73
     0
 90
        0
 40
-0.6
 41
-30.0
 62
     5
 63
     7
 74
     2
 91
        2
 64
     7
 65
   257
 75
     1
175
     1
 42
40.0
 92
        8
 66
     7
 43
1.0
 76
     1
 77
     6
 78
     2
 67
     7
 79
     3
170
     0
171
     0
290
     0
174
     0
 93
        1
 44
0.0
173
     0
291
     0
 45
0.0
1001
ACAD
1000
AcDbSavedByObjectVersion
1070
     0
1000
AcDbSavedByObjectVersion
1070
     0
  0
VISUALSTYLE
  5
1F
102
{ACAD_REACTORS
330
14
102
}
330
14
100
AcDbVisualStyle
  2
Dim
 70
    11
 71
     2
 72
     2
 73
     0
 90
        0
 40
-0.6
 41
-30.0
 62
     5
 63
     7
 74
     1
 91
        4
 64
     7
 65
   257
 75
     1
175
     1
 42
1.0
 92
        8
 66
     7
 43
1.0
 76
     1
 77
     6
 78
     2
 67
     7
 79
     5
170
     0
171
     0
290
     0
174
     0
 93
        1
 44
-50.0
173
     0
291
     1
 45
0.0
1001
ACAD
1000
AcDbSavedByObjectVersion
1070
     0
1000
AcDbSavedByObjectVersion
1070
     0
  0
VISUALSTYLE
  5
23
102
{ACAD_REACTORS
330
14
102
}
330
14
100
AcDbVisualStyle
  2
Facepattern
 70
    15
 71
     2
 72
     2
 73
     0
 90
        0
 40
-0.6
 41
-30.0
 62
     5
 63
     7
 74
     1
 91
        4
 64
     7
 65
   257
 75
     1
175
     1
 42
1.0
 92
        8
 66
     7
 43
1.0
 76
     1
 77
     6
 78
     2
 67
     7
 79
     5
170
     0
171
     0
290
     0
174
     0
 93
        1
 44
0.0
173
     0
291
     1
 45
0.0
1001
ACAD
1000
AcDbSavedByObjectVersion
1070
     0
1000
AcDbSavedByObjectVersion
1070
     0
  0
VISUALSTYLE
  5
15
102
{ACAD_REACTORS
330
14
102
}
330
14
100
AcDbVisualStyle
  2
Flat
 70
     0
 71
     2
 72
     1
 73
     1
 90
        2
 40
-0.6
 41
30.0
 62
     5
 63
     7
 74
     0
 91
        4
 64
     7
 65
   257
 75
     1
175
     1
 42
1.0
 92
        8
 66
     7
 43
1.0
 76
     1
 77
     6
 78
     2
 67
     7
 79
     5
170
     0
171
     0
290
     0
174
     0
 93
       13
 44
0.0
173
     0
291
     1
 45
0.0
1001
ACAD
1000
AcDbSavedByObjectVersion
1070
     0
1000
AcDbSavedByObjectVersion
1070
     0
  0
VISUALSTYLE
  5
16
102
{ACAD_REACTORS
330
14
102
}
330
14
100
AcDbVisualStyle
  2
FlatWithEdges
 70
     1
 71
     2
 72
     1
 73
     1
 90
        2
 40
-0.6
 41
30.0
 62
     5
 63
     7
 74
     1
 91
        4
 64
     7
 65
   257
 75
     1
175
     1
 42
1.0
 92
        0
 66
   257
 43
1.0
 76
     1
 77
     6
 78
     2
 67
     7
 79
     5
170
     0
171
     0
290
     0
174
     0
 93
       13
 44
0.0
173
     0
291
     1
 45
0.0
1001
ACAD
1000
AcDbSavedByObjectVersion
1070
     0
1000
AcDbSavedByObjectVersion
1070
     0
  0
VISUALSTYLE
  5
17
102
{ACAD_REACTORS
330
14
102
}
330
14
100
AcDbVisualStyle
  2
Gouraud
 70
     2
 71
     2
 72
     2
 73
     1
 90
        2
 40
-0.6
 41
30.0
 62
     5
 63
     7
 74
     0
 91
        4
 64
     7
 65
   257
 75
     1
175
     1
 42
1.0
 92
        0
 66
     7
 43
1.0
 76
     1
 77
     6
 78
     2
 67
     7
 79
     5
170
     0
171
     0
290
     0
174
     0
 93
       13
 44
0.0
173
     0
291
     1
 45
0.0
1001
ACAD
1000
AcDbSavedByObjectVersion
1070
     0
1000
AcDbSavedByObjectVersion
1070
     0
  0
VISUALSTYLE
  5
18
102
{ACAD_REACTORS
330
14
102
}
330
14
100
AcDbVisualStyle
  2
GouraudWithEdges
 70
     3
 71
     2
 72
     2
 73
     1
 90
        2
 40
-0.6
 41
30.0
 62
     5
 63
     7
 74
     1
 91
        4
 64
     7
 65
   257
 75
     1
175
     1
 42
1.0
 92
        0
 66
   257
 43
1.0
 76
     1
 77
     6
 78
     2
 67
     7
 79
     5
170
     0
171
     0
290
     0
174
     0
 93
       13
 44
0.0
173
     0
291
     1
 45
0.0
1001
ACAD
1000
AcDbSavedByObjectVersion
1070
     0
1000
AcDbSavedByObjectVersion
1070
     0
  0
VISUALSTYLE
  5
22
102
{ACAD_REACTORS
330
14
102
}
330
14
100
AcDbVisualStyle
  2
Linepattern
 70
    14
 71
     2
 72
     2
 73
     0
 90
        0
 40
-0.6
 41
-30.0
 62
     5
 63
     7
 74
     1
 91
        4
 64
     7
 65
   257
 75
     7
175
     7
 42
1.0
 92
        8
 66
     7
 43
1.0
 76
     1
 77
     6
 78
     2
 67
     7
 79
     5
170
     0
171
     0
290
     0
174
     0
 93
        1
 44
0.0
173
     0
291
     1
 45
0.0
1001
ACAD
1000
AcDbSavedByObjectVersion
1070
     0
1000
AcDbSavedByObjectVersion
1070
     0
  0
VISUALSTYLE
  5
1E
102
{ACAD_REACTORS
330
14
102
}
330
14
100
AcDbVisualStyle
  2
Realistic
 70
     8
 71
     2
 72
     2
 73
     0
 90
        0
 40
-0.6
 41
-30.0
 62
     5
 63
     7
 74
     1
 91
        0
 64
     7
 65
   257
 75
     1
175
     1
 42
1.0
 92
        8
 66
     8
 43
1.0
 76
     1
 77
     6
 78
     2
 67
     7
 79
     5
170
     0
171
     0
290
     0
174
     0
 93
       13
 44
0.0
173
     0
291
     0
 45
0.0
1001
ACAD
1000
AcDbSavedByObjectVersion
1070
     0
1000
AcDbSavedByObjectVersion
1070
     0
  0
VISUALSTYLE
  5
21
102
{ACAD_REACTORS
330
14
102
}
330
14
100
AcDbVisualStyle
  2
Thicken
 70
    13
 71
     2
 72
     2
 73
     0
 90
        0
 40
-0.6
 41
-30.0
 62
     5
 63
     7
 74
     1
 91
        4
 64
     7
 65
   257
 75
     1
175
     1
 42
1.0
 92
       12
 66
     7
 43
1.0
 76
     1
 77
     6
 78
     2
 67
     7
 79
     5
170
     0
171
     0
290
     0
174
     0
 93
        1
 44
0.0
173
     0
291
     1
 45
0.0
1001
ACAD
1000
AcDbSavedByObjectVersion
1070
     0
1000
AcDbSavedByObjectVersion
1070
     0
  0
DICTIONARYVAR
  5
45D
102
{ACAD_REACTORS
330
45C
102
}
330
45C
100
DictionaryVariables
280
     0
  1
STANDARD
  0
DICTIONARYVAR
  5
460
102
{ACAD_REACTORS
330
45C
102
}
330
45C
100
DictionaryVariables
280
     0
  1
1
  0
DICTIONARYVAR
  5
45F
102
{ACAD_REACTORS
330
45C
102
}
330
45C
100
DictionaryVariables
280
     0
  1
0
  0
DICTIONARYVAR
  5
45E
102
{ACAD_REACTORS
330
45C
102
}
330
45C
100
DictionaryVariables
280
     0
  1
127
  0
DICTIONARY
  5
3F2
102
{ACAD_REACTORS
330
3E7
102
}
330
3E7
100
AcDbDictionary
281
     1
  0
XRECORD
  5
413
102
{ACAD_REACTORS
330
3E7
102
}
330
3E7
100
AcDbXrecord
280
     1
 90
-1023410169
  0
DICTIONARY
  5
535
330
39
100
AcDbDictionary
280
     1
281
     1
  3
ACAD_XREC_ROUNDTRIP
360
536
  0
DICTIONARY
  5
533
330
35
100
AcDbDictionary
280
     1
281
     1
  3
ACAD_XREC_ROUNDTRIP
360
534
  0
DICTIONARY
  5
464
330
12
100
AcDbDictionary
280
     1
281
     1
  3
ACAD_XREC_ROUNDTRIP
360
465
  0
DICTIONARY
  5
462
330
11
100
AcDbDictionary
280
     1
281
     1
  3
ACAD_XREC_ROUNDTRIP
360
463
  0
DICTIONARY
  5
466
330
13
100
AcDbDictionary
280
     1
281
     1
  3
ACAD_XREC_ROUNDTRIP
360
467
  0
DICTIONARY
  5
531
330
31
100
AcDbDictionary
280
     1
281
     1
  3
ACAD_XREC_ROUNDTRIP
360
532
  0
XRECORD
  5
536
102
{ACAD_REACTORS
330
535
102
}
330
535
100
AcDbXrecord
280
     1
102
SHADEPLOT
 70
     0
102
SHADEPLOTRESLEVEL
 70
     2
102
SHADEPLOTCUSTOMDPI
 70
   300
  0
XRECORD
  5
534
102
{ACAD_REACTORS
330
533
102
}
330
533
100
AcDbXrecord
280
     1
102
SHADEPLOT
 70
     0
102
SHADEPLOTRESLEVEL
 70
     2
102
SHADEPLOTCUSTOMDPI
 70
   300
  0
XRECORD
  5
465
102
{ACAD_REACTORS
330
464
102
}
330
464
100
AcDbXrecord
280
     1
102
MATERIAL
148
0.0
149
0.0
149
0.0
 93
        0
 94
       63
282
     0
 72
     1
 77
     1
171
     1
175
     1
179
     1
273
     0
  0
XRECORD
  5
463
102
{ACAD_REACTORS
330
462
102
}
330
462
100
AcDbXrecord
280
     1
102
MATERIAL
148
0.0
149
0.0
149
0.0
 93
        0
 94
       63
282
     0
 72
     1
 77
     1
171
     1
175
     1
179
     1
273
     0
  0
XRECORD
  5
467
102
{ACAD_REACTORS
330
466
102
}
330
466
100
AcDbXrecord
280
     1
102
MATERIAL
148
0.0
149
0.0
149
0.0
 93
        0
 94
       63
282
     0
 72
     1
 77
     1
171
     1
175
     1
179
     1
273
     0
  0
XRECORD
  5
532
102
{ACAD_REACTORS
330
531
102
}
330
531
100
AcDbXrecord
280
     1
102
ACAD_ROUNDTRIP_PRE2007_TABLESTYLE
 90
      512
 91
        0
  1

 92
      512
 93
        0
  2

 94
      512
 95
        0
  3

  0
ENDSEC
  0
EOF
