  0
SECTION
  2
HEADER
  9
$ACADVER
  1
AC1015
  9
$ACADMAINTVER
 70
    20
  9
$DWGCODEPAGE
  3
ANSI_932
  9
$INSBASE
 10
0.0
 20
0.0
 30
0.0
  9
$EXTMIN
 10
50.40955835195905
 20
1485.973815890615
 30
-0.0000000349181948
  9
$EXTMAX
 10
644.4650720631138
 20
1906.019064476971
 30
0.0000000814935747
  9
$LIMMIN
 10
50.456909
 20
1485.9956
  9
$LIMMAX
 10
644.4569099999998
 20
1905.9956
  9
$ORTHOMODE
 70
     0
  9
$REGENMODE
 70
     1
  9
$FILLMODE
 70
     1
  9
$QTEXTMODE
 70
     0
  9
$MIRRTEXT
 70
     0
  9
$LTSCALE
 40
1.0
  9
$ATTMODE
 70
     1
  9
$TEXTSIZE
 40
0.2
  9
$TRACEWID
 40
0.05
  9
$TEXTSTYLE
  7
STANDARD
  9
$CLAYER
  8
0
  9
$CELTYPE
  6
CONTINUOUS
  9
$CECOLOR
 62
   256
  9
$CELTSCALE
 40
1.0
  9
$DISPSILH
 70
     0
  9
$DIMSCALE
 40
1.0
  9
$DIMASZ
 40
1.0
  9
$DIMEXO
 40
2.54
  9
$DIMDLI
 40
0.38
  9
$DIMRND
 40
0.0
  9
$DIMDLE
 40
0.0
  9
$DIMEXE
 40
2.54
  9
$DIMTP
 40
0.0
  9
$DIMTM
 40
0.0
  9
$DIMTXT
 40
3.2
  9
$DIMCEN
 40
0.09
  9
$DIMTSZ
 40
0.0
  9
$DIMTOL
 70
     0
  9
$DIMLIM
 70
     0
  9
$DIMTIH
 70
     0
  9
$DIMTOH
 70
     0
  9
$DIMSE1
 70
     0
  9
$DIMSE2
 70
     0
  9
$DIMTAD
 70
     1
  9
$DIMZIN
 70
     0
  9
$DIMBLK
  1

  9
$DIMASO
 70
     1
  9
$DIMSHO
 70
     0
  9
$DIMPOST
  1

  9
$DIMAPOST
  1

  9
$DIMALT
 70
     0
  9
$DIMALTD
 70
     2
  9
$DIMALTF
 40
25.4
  9
$DIMLFAC
 40
1.0
  9
$DIMTOFL
 70
     0
  9
$DIMTVP
 40
1.0
  9
$DIMTIX
 70
     0
  9
$DIMSOXD
 70
     0
  9
$DIMSAH
 70
     1
  9
$DIMBLK1
  1

  9
$DIMBLK2
  1

  9
$DIMSTYLE
  2
DIMSTYLE
  9
$DIMCLRD
 70
     0
  9
$DIMCLRE
 70
     0
  9
$DIMCLRT
 70
     0
  9
$DIMTFAC
 40
1.0
  9
$DIMGAP
 40
1.6
  9
$DIMJUST
 70
     0
  9
$DIMSD1
 70
     0
  9
$DIMSD2
 70
     0
  9
$DIMTOLJ
 70
     1
  9
$DIMTZIN
 70
     0
  9
$DIMALTZ
 70
     0
  9
$DIMALTTZ
 70
     0
  9
$DIMUPT
 70
     0
  9
$DIMDEC
 70
     4
  9
$DIMTDEC
 70
     4
  9
$DIMALTU
 70
     2
  9
$DIMALTTD
 70
     2
  9
$DIMTXSTY
  7
STANDARD
  9
$DIMAUNIT
 70
     0
  9
$DIMADEC
 70
     0
  9
$DIMALTRND
 40
0.0
  9
$DIMAZIN
 70
     0
  9
$DIMDSEP
 70
    46
  9
$DIMATFIT
 70
     3
  9
$DIMFRAC
 70
     0
  9
$DIMLDRBLK
  1

  9
$DIMLUNIT
 70
     2
  9
$DIMLWD
 70
    -2
  9
$DIMLWE
 70
    -2
  9
$DIMTMOVE
 70
     0
  9
$LUNITS
 70
     2
  9
$LUPREC
 70
     4
  9
$SKETCHINC
 40
0.1
  9
$FILLETRAD
 40
0.0
  9
$AUNITS
 70
     0
  9
$AUPREC
 70
     0
  9
$MENU
  1
.
  9
$ELEVATION
 40
0.0
  9
$PELEVATION
 40
0.0
  9
$THICKNESS
 40
0.0
  9
$LIMCHECK
 70
     0
  9
$CHAMFERA
 40
0.0
  9
$CHAMFERB
 40
0.0
  9
$CHAMFERC
 40
0.0
  9
$CHAMFERD
 40
0.0
  9
$SKPOLY
 70
     0
  9
$TDCREATE
 40
2454475.546737373
  9
$TDUCREATE
 40
2454475.171737373
  9
$TDUPDATE
 40
2455077.576242940
  9
$TDUUPDATE
 40
2455077.201242940
  9
$TDINDWG
 40
0.0020250926
  9
$TDUSRTIMER
 40
0.0020218403
  9
$USRTIMER
 70
     1
  9
$ANGBASE
 50
0.0
  9
$ANGDIR
 70
     0
  9
$PDMODE
 70
     0
  9
$PDSIZE
 40
0.0
  9
$PLINEWID
 40
0.0
  9
$SPLFRAME
 70
     0
  9
$SPLINETYPE
 70
     6
  9
$SPLINESEGS
 70
     8
  9
$HANDSEED
  5
755
  9
$SURFTAB1
 70
     6
  9
$SURFTAB2
 70
     6
  9
$SURFTYPE
 70
     6
  9
$SURFU
 70
     6
  9
$SURFV
 70
     6
  9
$UCSBASE
  2

  9
$UCSNAME
  2

  9
$UCSORG
 10
0.0
 20
0.0
 30
0.0
  9
$UCSXDIR
 10
1.0
 20
0.0
 30
0.0
  9
$UCSYDIR
 10
0.0
 20
1.0
 30
0.0
  9
$UCSORTHOREF
  2

  9
$UCSORTHOVIEW
 70
     0
  9
$UCSORGTOP
 10
0.0
 20
0.0
 30
0.0
  9
$UCSORGBOTTOM
 10
0.0
 20
0.0
 30
0.0
  9
$UCSORGLEFT
 10
0.0
 20
0.0
 30
0.0
  9
$UCSORGRIGHT
 10
0.0
 20
0.0
 30
0.0
  9
$UCSORGFRONT
 10
0.0
 20
0.0
 30
0.0
  9
$UCSORGBACK
 10
0.0
 20
0.0
 30
0.0
  9
$PUCSBASE
  2

  9
$PUCSNAME
  2

  9
$PUCSORG
 10
0.0
 20
0.0
 30
0.0
  9
$PUCSXDIR
 10
1.0
 20
0.0
 30
0.0
  9
$PUCSYDIR
 10
0.0
 20
1.0
 30
0.0
  9
$PUCSORTHOREF
  2

  9
$PUCSORTHOVIEW
 70
     0
  9
$PUCSORGTOP
 10
0.0
 20
0.0
 30
0.0
  9
$PUCSORGBOTTOM
 10
0.0
 20
0.0
 30
0.0
  9
$PUCSORGLEFT
 10
0.0
 20
0.0
 30
0.0
  9
$PUCSORGRIGHT
 10
0.0
 20
0.0
 30
0.0
  9
$PUCSORGFRONT
 10
0.0
 20
0.0
 30
0.0
  9
$PUCSORGBACK
 10
0.0
 20
0.0
 30
0.0
  9
$USERI1
 70
     0
  9
$USERI2
 70
     0
  9
$USERI3
 70
     0
  9
$USERI4
 70
     0
  9
$USERI5
 70
     0
  9
$USERR1
 40
0.0
  9
$USERR2
 40
0.0
  9
$USERR3
 40
0.0
  9
$USERR4
 40
0.0
  9
$USERR5
 40
0.0
  9
$WORLDVIEW
 70
     1
  9
$SHADEDGE
 70
     3
  9
$SHADEDIF
 70
    70
  9
$TILEMODE
 70
     1
  9
$MAXACTVP
 70
    64
  9
$PINSBASE
 10
0.0
 20
0.0
 30
0.0
  9
$PLIMCHECK
 70
     0
  9
$PEXTMIN
 10
1.000000000000000E+20
 20
1.000000000000000E+20
 30
1.000000000000000E+20
  9
$PEXTMAX
 10
-1.000000000000000E+20
 20
-1.000000000000000E+20
 30
-1.000000000000000E+20
  9
$PLIMMIN
 10
50.456909
 20
1485.9956
  9
$PLIMMAX
 10
644.4569099999998
 20
1905.9956
  9
$UNITMODE
 70
     0
  9
$VISRETAIN
 70
     1
  9
$PLINEGEN
 70
     0
  9
$PSLTSCALE
 70
     1
  9
$TREEDEPTH
 70
  3020
  9
$CMLSTYLE
  2
Standard
  9
$CMLJUST
 70
     0
  9
$CMLSCALE
 40
1.0
  9
$PROXYGRAPHICS
 70
     1
  9
$MEASUREMENT
 70
     0
  9
$CELWEIGHT
370
    -1
  9
$ENDCAPS
280
     0
  9
$JOINSTYLE
280
     0
  9
$LWDISPLAY
290
     0
  9
$INSUNITS
 70
     0
  9
$HYPERLINKBASE
  1

  9
$STYLESHEET
  1

  9
$XEDIT
290
     1
  9
$CEPSNTYPE
380
     0
  9
$PSTYLEMODE
290
     1
  9
$FINGERPRINTGUID
  2
{7F63DC52-883B-4056-8E46-FF33FC2BFE25}
  9
$VERSIONGUID
  2
{E5D4F49F-0195-4230-AC1A-C8D238550E5A}
  9
$EXTNAMES
290
     1
  9
$PSVPSCALE
 40
0.0
  9
$OLESTARTUP
290
     0
  0
ENDSEC
  0
SECTION
  2
CLASSES
  0
CLASS
  1
ACDBDICTIONARYWDFLT
  2
AcDbDictionaryWithDefault
  3
ObjectDBX Classes
 90
        0
280
     0
281
     0
  0
CLASS
  1
MATERIAL
  2
AcDbMaterial
  3
ObjectDBX Classes
 90
     1024
280
     0
281
     0
  0
CLASS
  1
VISUALSTYLE
  2
AcDbVisualStyle
  3
ObjectDBX Classes
 90
     4095
280
     0
281
     0
  0
CLASS
  1
TABLESTYLE
  2
AcDbTableStyle
  3
ObjectDBX Classes
 90
     4095
280
     0
281
     0
  0
CLASS
  1
AMGSETTINGSOBJ
  2
AmgSettingsObj
  3
"AcadM|Product Description: AutoCAD Mechanical|Company: Autodesk"
 90
        0
280
     0
281
     0
  0
CLASS
  1
ACME_DOCUMENT
  2
AcMeDbDoc
  3
AcMeServices
 90
        0
280
     0
281
     0
  0
CLASS
  1
ACMESCOPE
  2
AcMeScope
  3
AcMeServices
 90
        0
280
     0
281
     0
  0
CLASS
  1
ACMECOMMANDHISTORY
  2
AcMeCommandHistory
  3
AcMeServices
 90
        0
280
     0
281
     0
  0
CLASS
  1
ACIMSYSVARMAN
  2
AcImSysVarManager
  3
AcMeServices
 90
        0
280
     0
281
     0
  0
CLASS
  1
ACIMINTSYSVAR
  2
AcImIntSysVar
  3
AcMeServices
 90
        0
280
     0
281
     0
  0
CLASS
  1
ACMEDRAWINGMAN
  2
AcMeDrawingMan
  3
AcMeServices
 90
        0
280
     0
281
     0
  0
CLASS
  1
ACMEVIEW
  2
AcMeView
  3
AcMeServices
 90
        0
280
     0
281
     0
  0
CLASS
  1
ACDBENTITYCACHE
  2
AcMeEntityCache
  3
AcMeServices
 90
        0
280
     0
281
     0
  0
CLASS
  1
GSMANAGER
  2
AcMeGSManager
  3
AcMeServices
 90
        0
280
     0
281
     0
  0
CLASS
  1
AMDTINTERNALREACTOR
  2
AmdtInternalReactor
  3
AcMeServices
 90
        0
280
     0
281
     0
  0
CLASS
  1
ACMESTATEMGR
  2
AcMeStateMgr
  3
AcMeServices
 90
        0
280
     0
281
     0
  0
CLASS
  1
ACGREFMASTER
  2
AcGrefMaster
  3
AcAttribServices
 90
        0
280
     0
281
     0
  0
CLASS
  1
AM_DRAWING_MGR
  2
AcDmDwgMgr
  3
AcMechDwgViewMgmt
 90
        0
280
     0
281
     0
  0
CLASS
  1
AM_DWG_DOCUMENT
  2
AcDmDwgDocument
  3
AcMechDwgViewMgmt
 90
        0
280
     0
281
     0
  0
CLASS
  1
AM_DWG_SHEET
  2
AcDmSheet
  3
AcMechDwgViewMgmt
 90
        0
280
     0
281
     0
  0
CLASS
  1
AM_VIEWDIMPARMAP
  2
AcDmViewDimParMap
  3
AcMechDwgViewMgmt
 90
        0
280
     0
281
     0
  0
CLASS
  1
ACIMREALSYSVAR
  2
AcImRealSysVar
  3
AcMeServices
 90
        0
280
     0
281
     0
  0
CLASS
  1
AM_DWGMGR_NAME
  2
AcDmDwgMgrName
  3
AcMechDwgViewMgmt
 90
        0
280
     0
281
     0
  0
CLASS
  1
ACME_DATABASE
  2
AcMeDbDatabase
  3
AcMeServices
 90
        0
280
     0
281
     0
  0
CLASS
  1
ACRFINSADJUSTERMGR
  2
AcRfInsAdjusterMgr
  3
AcMeServices
 90
        0
280
     0
281
     0
  0
CLASS
  1
ACGREFACADMASTER
  2
AcGrefacadMaster
  3
AcGrefServices
 90
        0
280
     0
281
     0
  0
CLASS
  1
AMDTMENUSTATEMGR
  2
AmdtMenuStateMgr
  3
McadcomServices
 90
        0
280
     0
281
     0
  0
CLASS
  1
AMDTMCOMMENUSTATE
  2
AmdtMcomMenuState
  3
McadcomServices
 90
        0
280
     0
281
     0
  0
CLASS
  1
AMIMASTER
  2
AmiMaster
  3
AmiServices
 90
        0
280
     0
281
     0
  0
CLASS
  1
MAPIAMMOUDLE
  2
MApiAmModule
  3
MApiAmServices
 90
        0
280
     0
281
     0
  0
CLASS
  1
ACIMSTRSYSVAR
  2
AcImStrSysVar
  3
AcMeServices
 90
        0
280
     0
281
     0
  0
CLASS
  1
AMDTADMENUSTATE
  2
AmdtAdMenuState
  3
DesignerServices
 90
        0
280
     0
281
     0
  0
CLASS
  1
ADAPPL
  2
AcAdAppl
  3
DesignerServices
 90
        0
280
     0
281
     0
  0
CLASS
  1
DEPMGR
  2
AcAdDepMgr
  3
DesignerServices
 90
        0
280
     0
281
     0
  0
CLASS
  1
PARAMMGR
  2
AcAdParamMgr
  3
DesignerServices
 90
        0
280
     0
281
     0
  0
CLASS
  1
PARAMSCOPE
  2
AcAdParamScope
  3
DesignerServices
 90
        0
280
     0
281
     0
  0
CLASS
  1
NAMEDAPPL
  2
AcAdNamedAppl
  3
DesignerServices
 90
        0
280
     0
281
     0
  0
CLASS
  1
AMDTDMMENUSTATE
  2
AmdtDmMenuState
  3
AcMechDwgViewMgmt
 90
        0
280
     0
281
     0
  0
CLASS
  1
AMDTAMMENUSTATE
  2
AmdtAmMenuState
  3
DesignerAssemblies
 90
        0
280
     0
281
     0
  0
CLASS
  1
ACAMPROJECT
  2
AcAmProject
  3
DesignerAssemblies
 90
        0
280
     0
281
     0
  0
CLASS
  1
ACAMGRCOMPDEF
  2
AcAmGrCompDef
  3
DesignerAssemblies
 90
        0
280
     0
281
     0
  0
CLASS
  1
ACCMCONTEXT
  2
AcCmContext
  3
DesignerAssemblies
 90
        0
280
     0
281
     0
  0
CLASS
  1
ACAMCOMPDEF
  2
AcAmCompDef
  3
DesignerAssemblies
 90
        0
280
     0
281
     0
  0
CLASS
  1
ACAMCOMPDEFMGR
  2
AcAmCompDefMgr
  3
DesignerAssemblies
 90
        0
280
     0
281
     0
  0
CLASS
  1
AMCONTEXTMGR
  2
AcAmContextMgr
  3
DesignerAssemblies
 90
        0
280
     0
281
     0
  0
CLASS
  1
ACAMCONTEXTMODELER
  2
AcAmContextModeler
  3
DesignerAssemblies
 90
        0
280
     0
281
     0
  0
CLASS
  1
ACMDATADICTIONARY
  2
AcmDataDictionary
  3
"AcmSymBB|Product Description: AutoCAD Mechanical|Company: Autodesk"
 90
        0
280
     0
281
     0
  0
CLASS
  1
CATALOGSTATE
  2
AcAmCatalogState
  3
DesignerAssemblies
 90
        0
280
     0
281
     0
  0
CLASS
  1
ACAMGRCOMPDEFSET
  2
AcAmGrCompDefSet
  3
DesignerAssemblies
 90
        0
280
     0
281
     0
  0
CLASS
  1
AMDTBROWSERDBTAB
  2
AmdtBrowserDbTab
  3
McadcomServices
 90
        0
280
     0
281
     0
  0
CLASS
  1
CBROWSERAPPOBJECT
  2
CBrowserAppObject
  3
McadcomServices
 90
        0
280
     0
281
     0
  0
CLASS
  1
DM_PLACEHOLDER
  2
AcDmSelsetPlaceholder
  3
AcMechDwgViewMgmt
 90
        0
280
     0
281
     0
  0
CLASS
  1
ACMSTANDARDANSI
  2
AcmStandardANSI
  3
"Amdt_StdImp|Product Description: AutoCAD Mechanical|Company: Autodesk"
 90
        0
280
     0
281
     0
  0
CLASS
  1
AMGOBJPROPCFG
  2
AmgObjPropCfg
  3
"AmgLay|Product Description: AutoCAD Mechanical|Company: Autodesk"
 90
        1
280
     0
281
     0
  0
CLASS
  1
ACMSURFSTANDARDANSI
  2
AcmSurfTextStdANSI
  3
"Amdt_StdImp|Product Description: AutoCAD Mechanical|Company: Autodesk"
 90
        0
280
     0
281
     0
  0
CLASS
  1
ACMFCFSTANDARDANSI
  2
AcmFCFStdANSI
  3
"Amdt_StdImp|Product Description: AutoCAD Mechanical|Company: Autodesk"
 90
        0
280
     0
281
     0
  0
CLASS
  1
ACMWELDSTANDARDANSI
  2
AcmWeldingStdANSI
  3
"Amdt_StdImp|Product Description: AutoCAD Mechanical|Company: Autodesk"
 90
        0
280
     0
281
     0
  0
CLASS
  1
ACMIDSTANDARDANSI
  2
AcmIdStdANSI
  3
"Amdt_StdImp|Product Description: AutoCAD Mechanical|Company: Autodesk"
 90
        0
280
     0
281
     0
  0
CLASS
  1
ACMDATUMSTANDARDANSI
  2
AcmDatumStdANSI
  3
"Amdt_StdImp|Product Description: AutoCAD Mechanical|Company: Autodesk"
 90
        0
280
     0
281
     0
  0
CLASS
  1
ACMBOMSTANDARDANSI
  2
AcmBOMStdANSI
  3
"Amdt_StdImp|Product Description: AutoCAD Mechanical|Company: Autodesk"
 90
        0
280
     0
281
     0
  0
CLASS
  1
ACMDETAILSTANDARDANSI
  2
AmdtDetailSymStdANSI
  3
"Amdt_StdImp|Product Description: AutoCAD Mechanical|Company: Autodesk"
 90
        0
280
     0
281
     0
  0
CLASS
  1
ACMSECTIONSTANDARDANSI
  2
AmdtSectionSymStdANSI
  3
"Amdt_StdImp|Product Description: AutoCAD Mechanical|Company: Autodesk"
 90
        0
280
     0
281
     0
  0
CLASS
  1
ACMCENTERLINESTANDARDANSI
  2
AmdtCenterLineStdANSI
  3
"Amdt_StdImp|Product Description: AutoCAD Mechanical|Company: Autodesk"
 90
        0
280
     0
281
     0
  0
CLASS
  1
ACMTHREADLINESTANDARDANSI
  2
AmdtThreadLineStdANSI
  3
"Amdt_StdImp|Product Description: AutoCAD Mechanical|Company: Autodesk"
 90
        0
280
     0
281
     0
  0
CLASS
  1
ACMNOTESTANDARDANSI
  2
AmdtNoteStdANSI
  3
"Amdt_StdImp|Product Description: AutoCAD Mechanical|Company: Autodesk"
 90
        0
280
     0
281
     0
  0
CLASS
  1
ACMTAPERSTANDARDANSI
  2
AcmTaperStdANSI
  3
"Amdt_StdImp|Product Description: AutoCAD Mechanical|Company: Autodesk"
 90
        0
280
     0
281
     0
  0
CLASS
  1
AMDTNOTETEMPLATEDB
  2
AmdtNoteTemplateDB
  3
AMDT_STDIMP_MODULE_NAME
 90
        0
280
     0
281
     0
  0
CLASS
  1
ACAMGLAYSTD
  2
AcAmgLayStd
  3
"AmgLay|Product Description: AutoCAD Mechanical|Company: Autodesk"
 90
        0
280
     0
281
     0
  0
CLASS
  1
ACAMGDIMSTD
  2
AcAmgDimStd
  3
"AmgDim|Product Description: AutoCAD Mechanical|Company: Autodesk"
 90
        0
280
     0
281
     0
  0
CLASS
  1
ACAMGHOLECHARTSTDANSI
  2
AcAmgHoleChartStdANSI
  3
ACMSYMBB_MODULE_NAME
 90
        0
280
     0
281
     0
  0
CLASS
  1
ACAMGTITLESTD
  2
AcAmgTitleStd
  3
"AmgTitle|Product Description: AutoCAD Mechanical|Company: Autodesk"
 90
        0
280
     0
281
     0
  0
CLASS
  1
ACAMGFILTERDAT
  2
AcAmgFilterDat
  3
"AcadM|Product Description: AutoCAD Mechanical|Company: Autodesk"
 90
    32768
280
     0
281
     0
  0
CLASS
  1
CAMSSTRUCTBTNSTATE
  2
StructBtnState
  3
L"DesignerAssemblies"
 90
    32768
280
     0
281
     0
  0
CLASS
  1
DICTIONARYVAR
  2
AcDbDictionaryVar
  3
ObjectDBX Classes
 90
        0
280
     0
281
     0
  0
CLASS
  1
ACDBPLACEHOLDER
  2
AcDbPlaceHolder
  3
ObjectDBX Classes
 90
        0
280
     0
281
     0
  0
CLASS
  1
LAYOUT
  2
AcDbLayout
  3
ObjectDBX Classes
 90
        0
280
     0
281
     0
  0
ENDSEC
  0
SECTION
  2
TABLES
  0
TABLE
  2
VPORT
  5
8
330
0
100
AcDbSymbolTable
 70
     1
  0
VPORT
  5
43
330
8
100
AcDbSymbolTableRecord
100
AcDbViewportTableRecord
  2
*Active
 70
     0
 10
0.0
 20
0.0
 11
1.0
 21
1.0
 12
347.4373152075366
 22
1695.996440183793
 13
0.0
 23
0.0
 14
1.0
 24
1.0
 15
0.0
 25
0.0
 16
0.0
 26
0.0
 36
1.0
 17
0.0
 27
0.0
 37
0.0
 40
425.2373727358065
 41
1.404580152671755
 42
50.0
 43
0.0
 44
0.0
 50
0.0
 51
0.0
 71
     0
 72
   100
 73
     1
 74
     1
 75
     0
 76
     0
 77
     0
 78
     0
281
     0
 65
     0
110
0.0
120
0.0
130
0.0
111
1.0
121
0.0
131
0.0
112
0.0
122
1.0
132
0.0
 79
     0
146
0.0
  0
ENDTAB
  0
TABLE
  2
LTYPE
  5
5
330
0
100
AcDbSymbolTable
 70
    19
  0
LTYPE
  5
28
330
5
100
AcDbSymbolTableRecord
100
AcDbLinetypeTableRecord
  2
ByBlock
 70
     0
  3

 72
    65
 73
     0
 40
0.0
  0
LTYPE
  5
29
330
5
100
AcDbSymbolTableRecord
100
AcDbLinetypeTableRecord
  2
ByLayer
 70
     0
  3

 72
    65
 73
     0
 40
0.0
  0
LTYPE
  5
2A
330
5
100
AcDbSymbolTableRecord
100
AcDbLinetypeTableRecord
  2
CONTINUOUS
 70
     0
  3
Solid line
 72
    65
 73
     0
 40
0.0
  0
LTYPE
  5
3A
330
5
100
AcDbSymbolTableRecord
100
AcDbLinetypeTableRecord
  2
DASHED
 70
     0
  3
__ __ __ __ __ __ __ __ __ __ __ __ __ __ __
 72
    65
 73
     2
 40
3.5
 49
2.0
 74
     0
 49
-1.5
 74
     0
  0
LTYPE
  5
3B
330
5
100
AcDbSymbolTableRecord
100
AcDbLinetypeTableRecord
  2
CENTER
 70
     0
  3
____ _ ____ _ ____ _ ____ _ ____ _ ____ _ ____
 72
    65
 73
     4
 40
17.5
 49
13.0
 74
     0
 49
-1.5
 74
     0
 49
1.5
 74
     0
 49
-1.5
 74
     0
  0
LTYPE
  5
3C
330
5
100
AcDbSymbolTableRecord
100
AcDbLinetypeTableRecord
  2
PHANTOM
 70
     0
  3
_____ _ _ _____ _ _ _____ _ _ _____ _ _ ____  
 72
    65
 73
     6
 40
15.5
 49
8.0
 74
     0
 49
-1.5
 74
     0
 49
1.5
 74
     0
 49
-1.5
 74
     0
 49
1.5
 74
     0
 49
-1.5
 74
     0
  0
LTYPE
  5
3D
330
5
100
AcDbSymbolTableRecord
100
AcDbLinetypeTableRecord
  2
DOT
 70
     0
  3
. . . . . . . . . . . . . . . . . . . . . . . .
 72
    65
 73
     2
 40
0.25
 49
0.0
 74
     0
 49
-0.25
 74
     0
  0
LTYPE
  5
3E
330
5
100
AcDbSymbolTableRecord
100
AcDbLinetypeTableRecord
  2
HIDDEN
 70
     0
  3
__ __ __ __ __ __ __ __ __ __ __ __ __ __ __
 72
    65
 73
     2
 40
3.5
 49
2.0
 74
     0
 49
-1.5
 74
     0
  0
LTYPE
  5
655
330
5
100
AcDbSymbolTableRecord
100
AcDbLinetypeTableRecord
  2
PHANTOM2
 70
     0
  3
Phantom (.5x) ___ _ _ ___ _ _ ___ _ _ ___ _ _
 72
    65
 73
     6
 40
1.25
 49
0.625
 74
     0
 49
-0.125
 74
     0
 49
0.125
 74
     0
 49
-0.125
 74
     0
 49
0.125
 74
     0
 49
-0.125
 74
     0
  0
LTYPE
  5
68A
330
5
100
AcDbSymbolTableRecord
100
AcDbLinetypeTableRecord
  2
AM_ISO02W050
 70
     0
  3
__ __ __ __ __ __ __ __ __ __ __ __ __ __ __
 72
    65
 73
     2
 40
7.5
 49
6.0
 74
     0
 49
-1.5
 74
     0
  0
LTYPE
  5
68B
330
5
100
AcDbSymbolTableRecord
100
AcDbLinetypeTableRecord
  2
AM_ISO08W050
 70
     0
  3
____ . ____ . ____ . ____ . ____ . ____ . ____
 72
    65
 73
     4
 40
18.0
 49
12.0
 74
     0
 49
-1.5
 74
     0
 49
3.0
 74
     0
 49
-1.5
 74
     0
  0
LTYPE
  5
68C
330
5
100
AcDbSymbolTableRecord
100
AcDbLinetypeTableRecord
  2
AM_ISO09W050
 70
     0
  3
_____ . . _____ . . _____ . . ____ .. ____
 72
    65
 73
     6
 40
22.5
 49
12.0
 74
     0
 49
-1.5
 74
     0
 49
3.0
 74
     0
 49
-1.5
 74
     0
 49
3.0
 74
     0
 49
-1.5
 74
     0
  0
LTYPE
  5
68D
330
5
100
AcDbSymbolTableRecord
100
AcDbLinetypeTableRecord
  2
Amconstr
 70
     0
  3
_______________________
 72
    65
 73
     2
 40
9999.0
 49
9999.0
 74
     0
 49
0.0
 74
     0
  0
LTYPE
  5
68E
330
5
100
AcDbSymbolTableRecord
100
AcDbLinetypeTableRecord
  2
AM_ISO08W050x2
 70
     0
  3
__ . __ . __ . __ . __ . __
 72
    65
 73
     4
 40
9.0
 49
6.0
 74
     0
 49
-0.75
 74
     0
 49
1.5
 74
     0
 49
-0.75
 74
     0
  0
LTYPE
  5
68F
330
5
100
AcDbSymbolTableRecord
100
AcDbLinetypeTableRecord
  2
AM_ISO02W050x2
 70
     0
  3
 _ _ _ _ _ _ _ _ _ _ _ _
 72
    65
 73
     2
 40
3.75
 49
3.0
 74
     0
 49
-0.75
 74
     0
  0
LTYPE
  5
692
330
5
100
AcDbSymbolTableRecord
100
AcDbLinetypeTableRecord
  2
Amzigzag
 70
     0
  3
/\/-/\/-/\/-/\/-/\/-/\/
 72
    65
 73
     2
 40
11.0001
 49
0.0001
 74
     4
 75
   136
340
691
 46
0.04
 50
0.0
 44
0.0
 45
0.0
 49
-11.0
 74
     0
  0
LTYPE
  5
693
330
5
100
AcDbSymbolTableRecord
100
AcDbLinetypeTableRecord
  2
CENTER2
 70
     0
  3
Center (.5x) ___ _ ___ _ ___ _ ___ _ ___ _ ___
 72
    65
 73
     4
 40
1.125
 49
0.75
 74
     0
 49
-0.125
 74
     0
 49
0.125
 74
     0
 49
-0.125
 74
     0
  0
LTYPE
  5
694
330
5
100
AcDbSymbolTableRecord
100
AcDbLinetypeTableRecord
  2
HIDDEN2
 70
     0
  3
Hidden (.5x) _ _ _ _ _ _ _ _ _ _ _ _ _ _ _ _ _
 72
    65
 73
     2
 40
0.1875
 49
0.125
 74
     0
 49
-0.0625
 74
     0
  0
LTYPE
  5
695
330
5
100
AcDbSymbolTableRecord
100
AcDbLinetypeTableRecord
  2
Amzigzag2
 70
     0
  3
/\/-/\/-/\/-/\/-/\/-/\/
 72
    65
 73
     2
 40
0.4401
 49
0.0001
 74
     4
 75
   136
340
691
 46
0.0016
 50
0.0
 44
0.0
 45
0.0
 49
-0.4400000000000002
 74
     0
  0
LTYPE
  5
6A4
330
5
100
AcDbSymbolTableRecord
100
AcDbLinetypeTableRecord
  2
ACANSTGB
 70
     0
  3
__ . . __ . .
 72
    65
 73
     6
 40
0.35433070866
 49
0.15748031496
 74
     0
 49
-0.03937007874
 74
     0
 49
0.03937007874
 74
     0
 49
-0.03937007874
 74
     0
 49
0.03937007874
 74
     0
 49
-0.03937007874
 74
     0
  0
LTYPE
  5
6A5
330
5
100
AcDbSymbolTableRecord
100
AcDbLinetypeTableRecord
  2
ACANSTGL
 70
     0
  3
_ _ _ _ _
 72
    65
 73
     2
 40
0.11811023622
 49
0.07874015748
 74
     0
 49
-0.03937007874
 74
     0
  0
ENDTAB
  0
TABLE
  2
LAYER
  5
2
330
0
100
AcDbSymbolTable
 70
     2
  0
LAYER
  5
25
330
2
100
AcDbSymbolTableRecord
100
AcDbLayerTableRecord
  2
0
 70
     0
 62
     7
  6
CONTINUOUS
370
    -3
390
F
  0
LAYER
  5
3F
330
2
100
AcDbSymbolTableRecord
100
AcDbLayerTableRecord
  2
DEFPOINTS
 70
     0
 62
     7
  6
CONTINUOUS
290
     0
370
    -3
390
F
  0
ENDTAB
  0
TABLE
  2
STYLE
  5
3
330
0
100
AcDbSymbolTable
 70
     4
  0
STYLE
  5
26
330
3
100
AcDbSymbolTableRecord
100
AcDbTextStyleTableRecord
  2
STANDARD
 70
     0
 40
0.0
 41
1.0
 50
0.0
 71
     0
 42
0.2
  3
txt
  4
BIGFONT
  0
STYLE
  5
691
330
3
100
AcDbSymbolTableRecord
100
AcDbTextStyleTableRecord
  2

 70
     1
 40
0.0
 41
1.0
 50
0.0
 71
     0
 42
3.2
  3
genltshp.shx
  4

  0
STYLE
  5
696
330
3
100
AcDbSymbolTableRecord
100
AcDbTextStyleTableRecord
  2
ACANSTS
 70
     0
 40
1.0
 41
1.0
 50
0.0
 71
     0
 42
3.2
  3
romans.shx
  4
extfont.shx
  0
STYLE
  5
6A3
330
3
100
AcDbSymbolTableRecord
100
AcDbTextStyleTableRecord
  2
ACANSGDT
 70
     0
 40
0.0
 41
1.0
 50
0.0
 71
     0
 42
3.2
  3
amgdt.shx
  4

  0
ENDTAB
  0
TABLE
  2
VIEW
  5
6
330
0
100
AcDbSymbolTable
 70
     0
  0
ENDTAB
  0
TABLE
  2
UCS
  5
7
330
0
100
AcDbSymbolTable
 70
     0
  0
ENDTAB
  0
TABLE
  2
APPID
  5
9
330
0
100
AcDbSymbolTable
 70
     9
  0
APPID
  5
27
330
9
100
AcDbSymbolTableRecord
100
AcDbRegAppTableRecord
  2
ACAD
 70
     0
  0
APPID
  5
628
330
9
100
AcDbSymbolTableRecord
100
AcDbRegAppTableRecord
  2
MCAD_NO_VIS
 70
     0
  0
APPID
  5
629
330
9
100
AcDbSymbolTableRecord
100
AcDbRegAppTableRecord
  2
ACAD_TEMP_GRAPHIC
 70
     0
  0
APPID
  5
657
330
9
100
AcDbSymbolTableRecord
100
AcDbRegAppTableRecord
  2
AD_DRAW
 70
     0
  0
APPID
  5
65A
330
9
100
AcDbSymbolTableRecord
100
AcDbRegAppTableRecord
  2
ACATTRIBSERVICES
 70
     0
  0
APPID
  5
67B
330
9
100
AcDbSymbolTableRecord
100
AcDbRegAppTableRecord
  2
DESIGNERASSEMBLIES
 70
     0
  0
APPID
  5
681
330
9
100
AcDbSymbolTableRecord
100
AcDbRegAppTableRecord
  2
ACADM_DIM_EDIT
 70
     0
  0
APPID
  5
682
330
9
100
AcDbSymbolTableRecord
100
AcDbRegAppTableRecord
  2
AMDT_DM_ADJ
 70
     0
  0
APPID
  5
754
330
9
100
AcDbSymbolTableRecord
100
AcDbRegAppTableRecord
  2
ACAD_DSTYLE_DIMARC_LENGTH_SYMBOL
 70
     0
  0
ENDTAB
  0
TABLE
  2
DIMSTYLE
  5
A
330
0
100
AcDbSymbolTable
 70
     7
100
AcDbDimStyleTable
 71
     0
  0
DIMSTYLE
105
40
102
{ACAD_REACTORS
330
620
330
621
102
}
330
A
100
AcDbSymbolTableRecord
100
AcDbDimStyleTableRecord
  2
DIMSTYLE
 70
     0
 41
1.0
 42
2.54
 44
2.54
 73
     0
 74
     0
140
3.2
147
1.6
173
     1
279
     2
340
26
  0
DIMSTYLE
105
6B1
330
A
100
AcDbSymbolTableRecord
100
AcDbDimStyleTableRecord
  2
AM_ANSI
 70
     0
  4
mm
 41
0.1
 42
0.05
 43
0.5
 44
0.1
 47
0.1
 48
0.1
 78
     7
 79
     2
140
0.12
141
0.0
146
0.71
147
0.06
176
   256
177
   256
178
     2
274
     4
284
     7
340
26
371
    -1
372
    -1
1001
ACAD_DSTYLE_DIMARC_LENGTH_SYMBOL
1070
   379
1070
     1
  0
DIMSTYLE
105
6B2
330
A
100
AcDbSymbolTableRecord
100
AcDbDimStyleTableRecord
  2
AM_ANSI$3
 70
     0
  4
mm
 41
0.1
 42
0.05
 43
0.5
 44
0.1
 47
0.1
 48
0.1
 78
     7
 79
     2
140
0.12
141
0.0
146
0.71
147
0.06
176
   256
177
   256
178
     2
274
     4
284
     7
288
     1
289
     0
340
26
371
    -1
372
    -1
1001
ACAD_DSTYLE_DIMARC_LENGTH_SYMBOL
1070
   379
1070
     1
  0
DIMSTYLE
105
6B3
330
A
100
AcDbSymbolTableRecord
100
AcDbDimStyleTableRecord
  2
AM_ANSI$4
 70
     0
  4
mm
 41
0.1
 42
0.05
 43
0.5
 44
0.1
 47
0.1
 48
0.1
 78
     7
 79
     2
140
0.12
141
0.0
146
0.71
147
0.06
176
   256
177
   256
178
     2
274
     4
284
     7
288
     1
289
     0
340
26
371
    -1
372
    -1
1001
ACAD_DSTYLE_DIMARC_LENGTH_SYMBOL
1070
   379
1070
     1
  0
DIMSTYLE
105
6B4
330
A
100
AcDbSymbolTableRecord
100
AcDbDimStyleTableRecord
  2
AM_ANSI$7
 70
     0
  4
mm
 41
0.1
 42
0.05
 43
0.5
 44
0.1
 47
0.1
 48
0.1
 78
     7
 79
     2
140
0.24
141
0.0
146
0.71
147
0.06
176
   256
177
   256
178
     2
274
     4
284
     7
340
26
371
    -1
372
    -1
1001
ACAD_DSTYLE_DIMARC_LENGTH_SYMBOL
1070
   379
1070
     1
  0
DIMSTYLE
105
6B5
330
A
100
AcDbSymbolTableRecord
100
AcDbDimStyleTableRecord
  2
AM_ANSI$SF
 70
     0
  4
mm
 41
0.1
 42
0.05
 43
0.5
 44
0.1
 47
0.1
 48
0.1
 75
     1
 76
     1
 78
     7
 79
     2
140
0.12
141
0.0
146
0.71
147
0.06
176
   256
177
   256
178
     2
274
     4
284
     7
340
26
371
    -1
372
    -1
1001
ACAD_DSTYLE_DIMARC_LENGTH_SYMBOL
1070
   379
1070
     1
  0
DIMSTYLE
105
6BA
330
A
100
AcDbSymbolTableRecord
100
AcDbDimStyleTableRecord
  2
AM_ANSI$SH
 70
     0
  4
mm
 41
0.1
 42
0.05
 43
0.5
 44
0.1
 47
0.1
 48
0.1
 75
     1
 76
     1
 78
     7
 79
     2
140
0.12
141
0.0
146
0.71
147
0.06
173
     1
176
   256
177
   256
178
     2
274
     4
284
     7
340
26
343
6B6
371
    -1
372
    -1
1001
ACAD_DSTYLE_DIMARC_LENGTH_SYMBOL
1070
   379
1070
     1
  0
ENDTAB
  0
TABLE
  2
BLOCK_RECORD
  5
1
330
0
100
AcDbSymbolTable
 70
    95
  0
BLOCK_RECORD
  5
36
330
1
100
AcDbSymbolTableRecord
100
AcDbBlockTableRecord
  2
*Model_Space
340
39
  0
BLOCK_RECORD
  5
32
330
1
100
AcDbSymbolTableRecord
100
AcDbBlockTableRecord
  2
*Paper_Space
340
35
  0
BLOCK_RECORD
  5
44
330
1
100
AcDbSymbolTableRecord
100
AcDbBlockTableRecord
  2
_DOT
340
0
102
{BLKREFS
331
4F
331
50
331
5A
331
5B
102
}
  0
BLOCK_RECORD
  5
4C
330
1
100
AcDbSymbolTableRecord
100
AcDbBlockTableRecord
  2
*D1
340
0
  0
BLOCK_RECORD
  5
57
330
1
100
AcDbSymbolTableRecord
100
AcDbBlockTableRecord
  2
*D2
340
0
  0
BLOCK_RECORD
  5
62
330
1
100
AcDbSymbolTableRecord
100
AcDbBlockTableRecord
  2
KOZU0001
340
0
102
{BLKREFS
331
5C6
102
}
  0
BLOCK_RECORD
  5
69
330
1
100
AcDbSymbolTableRecord
100
AcDbBlockTableRecord
  2
KOZU0002
340
0
102
{BLKREFS
331
5C7
102
}
  0
BLOCK_RECORD
  5
70
330
1
100
AcDbSymbolTableRecord
100
AcDbBlockTableRecord
  2
KOZU0003
340
0
102
{BLKREFS
331
5C8
102
}
  0
BLOCK_RECORD
  5
77
330
1
100
AcDbSymbolTableRecord
100
AcDbBlockTableRecord
  2
KOZU0004
340
0
102
{BLKREFS
331
5C9
102
}
  0
BLOCK_RECORD
  5
7E
330
1
100
AcDbSymbolTableRecord
100
AcDbBlockTableRecord
  2
KOZU0005
340
0
102
{BLKREFS
331
5CA
102
}
  0
BLOCK_RECORD
  5
85
330
1
100
AcDbSymbolTableRecord
100
AcDbBlockTableRecord
  2
KOZU0006
340
0
102
{BLKREFS
331
5CB
102
}
  0
BLOCK_RECORD
  5
8C
330
1
100
AcDbSymbolTableRecord
100
AcDbBlockTableRecord
  2
KOZU0007
340
0
102
{BLKREFS
331
5CC
102
}
  0
BLOCK_RECORD
  5
93
330
1
100
AcDbSymbolTableRecord
100
AcDbBlockTableRecord
  2
KOZU0008
340
0
102
{BLKREFS
331
5CD
102
}
  0
BLOCK_RECORD
  5
9A
330
1
100
AcDbSymbolTableRecord
100
AcDbBlockTableRecord
  2
KOZU0009
340
0
102
{BLKREFS
331
5CE
102
}
  0
BLOCK_RECORD
  5
A1
330
1
100
AcDbSymbolTableRecord
100
AcDbBlockTableRecord
  2
KOZU0010
340
0
102
{BLKREFS
331
5CF
102
}
  0
BLOCK_RECORD
  5
A8
330
1
100
AcDbSymbolTableRecord
100
AcDbBlockTableRecord
  2
KOZU0011
340
0
102
{BLKREFS
331
5D0
102
}
  0
BLOCK_RECORD
  5
AF
330
1
100
AcDbSymbolTableRecord
100
AcDbBlockTableRecord
  2
KOZU0012
340
0
102
{BLKREFS
331
5D1
102
}
  0
BLOCK_RECORD
  5
B6
330
1
100
AcDbSymbolTableRecord
100
AcDbBlockTableRecord
  2
KOZU0013
340
0
102
{BLKREFS
331
5D2
102
}
  0
BLOCK_RECORD
  5
BD
330
1
100
AcDbSymbolTableRecord
100
AcDbBlockTableRecord
  2
KOZU0014
340
0
102
{BLKREFS
331
5D3
102
}
  0
BLOCK_RECORD
  5
C4
330
1
100
AcDbSymbolTableRecord
100
AcDbBlockTableRecord
  2
KOZU0015
340
0
102
{BLKREFS
331
5D4
102
}
  0
BLOCK_RECORD
  5
CB
330
1
100
AcDbSymbolTableRecord
100
AcDbBlockTableRecord
  2
KOZU0016
340
0
102
{BLKREFS
331
5D5
102
}
  0
BLOCK_RECORD
  5
D2
330
1
100
AcDbSymbolTableRecord
100
AcDbBlockTableRecord
  2
KOZU0017
340
0
102
{BLKREFS
331
5D6
102
}
  0
BLOCK_RECORD
  5
D9
330
1
100
AcDbSymbolTableRecord
100
AcDbBlockTableRecord
  2
KOZU0018
340
0
102
{BLKREFS
331
5D7
102
}
  0
BLOCK_RECORD
  5
E0
330
1
100
AcDbSymbolTableRecord
100
AcDbBlockTableRecord
  2
KOZU0019
340
0
102
{BLKREFS
331
5D8
102
}
  0
BLOCK_RECORD
  5
E7
330
1
100
AcDbSymbolTableRecord
100
AcDbBlockTableRecord
  2
KOZU0020
340
0
102
{BLKREFS
331
5D9
102
}
  0
BLOCK_RECORD
  5
EE
330
1
100
AcDbSymbolTableRecord
100
AcDbBlockTableRecord
  2
KOZU0021
340
0
102
{BLKREFS
331
5DA
102
}
  0
BLOCK_RECORD
  5
F5
330
1
100
AcDbSymbolTableRecord
100
AcDbBlockTableRecord
  2
KOZU0022
340
0
102
{BLKREFS
331
5DB
102
}
  0
BLOCK_RECORD
  5
FC
330
1
100
AcDbSymbolTableRecord
100
AcDbBlockTableRecord
  2
KOZU0023
340
0
102
{BLKREFS
331
5DC
102
}
  0
BLOCK_RECORD
  5
103
330
1
100
AcDbSymbolTableRecord
100
AcDbBlockTableRecord
  2
KOZU0024
340
0
102
{BLKREFS
331
5DD
102
}
  0
BLOCK_RECORD
  5
10A
330
1
100
AcDbSymbolTableRecord
100
AcDbBlockTableRecord
  2
KOZU0025
340
0
102
{BLKREFS
331
5DE
102
}
  0
BLOCK_RECORD
  5
111
330
1
100
AcDbSymbolTableRecord
100
AcDbBlockTableRecord
  2
KOZU0026
340
0
102
{BLKREFS
331
5DF
102
}
  0
BLOCK_RECORD
  5
118
330
1
100
AcDbSymbolTableRecord
100
AcDbBlockTableRecord
  2
KOZU0027
340
0
102
{BLKREFS
331
5E0
102
}
  0
BLOCK_RECORD
  5
11F
330
1
100
AcDbSymbolTableRecord
100
AcDbBlockTableRecord
  2
KOZU0028
340
0
102
{BLKREFS
331
5E1
102
}
  0
BLOCK_RECORD
  5
126
330
1
100
AcDbSymbolTableRecord
100
AcDbBlockTableRecord
  2
KOZU0029
340
0
102
{BLKREFS
331
5E2
102
}
  0
BLOCK_RECORD
  5
12D
330
1
100
AcDbSymbolTableRecord
100
AcDbBlockTableRecord
  2
KOZU0030
340
0
102
{BLKREFS
331
5E3
102
}
  0
BLOCK_RECORD
  5
134
330
1
100
AcDbSymbolTableRecord
100
AcDbBlockTableRecord
  2
KOZU0031
340
0
102
{BLKREFS
331
5E4
102
}
  0
BLOCK_RECORD
  5
13B
330
1
100
AcDbSymbolTableRecord
100
AcDbBlockTableRecord
  2
KOZU0032
340
0
102
{BLKREFS
331
5E5
102
}
  0
BLOCK_RECORD
  5
142
330
1
100
AcDbSymbolTableRecord
100
AcDbBlockTableRecord
  2
KOZU0033
340
0
102
{BLKREFS
331
5E6
102
}
  0
BLOCK_RECORD
  5
149
330
1
100
AcDbSymbolTableRecord
100
AcDbBlockTableRecord
  2
KOZU0034
340
0
102
{BLKREFS
331
5E7
102
}
  0
BLOCK_RECORD
  5
150
330
1
100
AcDbSymbolTableRecord
100
AcDbBlockTableRecord
  2
KOZU0035
340
0
102
{BLKREFS
331
5E8
102
}
  0
BLOCK_RECORD
  5
157
330
1
100
AcDbSymbolTableRecord
100
AcDbBlockTableRecord
  2
KOZU0036
340
0
102
{BLKREFS
331
5E9
102
}
  0
BLOCK_RECORD
  5
15E
330
1
100
AcDbSymbolTableRecord
100
AcDbBlockTableRecord
  2
KOZU0037
340
0
102
{BLKREFS
331
5EA
102
}
  0
BLOCK_RECORD
  5
165
330
1
100
AcDbSymbolTableRecord
100
AcDbBlockTableRecord
  2
KOZU0038
340
0
102
{BLKREFS
331
5EB
102
}
  0
BLOCK_RECORD
  5
16C
330
1
100
AcDbSymbolTableRecord
100
AcDbBlockTableRecord
  2
KOZU0039
340
0
102
{BLKREFS
331
5EC
102
}
  0
BLOCK_RECORD
  5
173
330
1
100
AcDbSymbolTableRecord
100
AcDbBlockTableRecord
  2
KOZU0040
340
0
102
{BLKREFS
331
5ED
102
}
  0
BLOCK_RECORD
  5
17A
330
1
100
AcDbSymbolTableRecord
100
AcDbBlockTableRecord
  2
KOZU0041
340
0
102
{BLKREFS
331
5EE
102
}
  0
BLOCK_RECORD
  5
181
330
1
100
AcDbSymbolTableRecord
100
AcDbBlockTableRecord
  2
KOZU0042
340
0
102
{BLKREFS
331
5EF
102
}
  0
BLOCK_RECORD
  5
188
330
1
100
AcDbSymbolTableRecord
100
AcDbBlockTableRecord
  2
KOZU0043
340
0
102
{BLKREFS
331
5F0
102
}
  0
BLOCK_RECORD
  5
18F
330
1
100
AcDbSymbolTableRecord
100
AcDbBlockTableRecord
  2
KOZU0044
340
0
102
{BLKREFS
331
5F1
102
}
  0
BLOCK_RECORD
  5
196
330
1
100
AcDbSymbolTableRecord
100
AcDbBlockTableRecord
  2
KOZU0045
340
0
102
{BLKREFS
331
5F2
102
}
  0
BLOCK_RECORD
  5
19D
330
1
100
AcDbSymbolTableRecord
100
AcDbBlockTableRecord
  2
KOZU0046
340
0
102
{BLKREFS
331
5F3
102
}
  0
BLOCK_RECORD
  5
1A4
330
1
100
AcDbSymbolTableRecord
100
AcDbBlockTableRecord
  2
KOZU0047
340
0
102
{BLKREFS
331
5F4
102
}
  0
BLOCK_RECORD
  5
1AB
330
1
100
AcDbSymbolTableRecord
100
AcDbBlockTableRecord
  2
KOZU0048
340
0
102
{BLKREFS
331
5F5
102
}
  0
BLOCK_RECORD
  5
1B2
330
1
100
AcDbSymbolTableRecord
100
AcDbBlockTableRecord
  2
KOZU0049
340
0
102
{BLKREFS
331
5F6
102
}
  0
BLOCK_RECORD
  5
1B9
330
1
100
AcDbSymbolTableRecord
100
AcDbBlockTableRecord
  2
KOZU0050
340
0
102
{BLKREFS
331
5F7
102
}
  0
BLOCK_RECORD
  5
1C0
330
1
100
AcDbSymbolTableRecord
100
AcDbBlockTableRecord
  2
KOZU0051
340
0
102
{BLKREFS
331
5F8
102
}
  0
BLOCK_RECORD
  5
1C7
330
1
100
AcDbSymbolTableRecord
100
AcDbBlockTableRecord
  2
KOZU0052
340
0
102
{BLKREFS
331
5F9
102
}
  0
BLOCK_RECORD
  5
1CE
330
1
100
AcDbSymbolTableRecord
100
AcDbBlockTableRecord
  2
KOZU0053
340
0
102
{BLKREFS
331
5FA
102
}
  0
BLOCK_RECORD
  5
1D5
330
1
100
AcDbSymbolTableRecord
100
AcDbBlockTableRecord
  2
KOZU0054
340
0
102
{BLKREFS
331
5FB
102
}
  0
BLOCK_RECORD
  5
1DC
330
1
100
AcDbSymbolTableRecord
100
AcDbBlockTableRecord
  2
KOZU0055
340
0
102
{BLKREFS
331
5FC
102
}
  0
BLOCK_RECORD
  5
1E3
330
1
100
AcDbSymbolTableRecord
100
AcDbBlockTableRecord
  2
KOZU0056
340
0
102
{BLKREFS
331
5FD
102
}
  0
BLOCK_RECORD
  5
1EA
330
1
100
AcDbSymbolTableRecord
100
AcDbBlockTableRecord
  2
KOZU0057
340
0
102
{BLKREFS
331
5FE
102
}
  0
BLOCK_RECORD
  5
1F1
330
1
100
AcDbSymbolTableRecord
100
AcDbBlockTableRecord
  2
KOZU0058
340
0
102
{BLKREFS
331
5FF
102
}
  0
BLOCK_RECORD
  5
1F8
330
1
100
AcDbSymbolTableRecord
100
AcDbBlockTableRecord
  2
KOZU0059
340
0
102
{BLKREFS
331
600
102
}
  0
BLOCK_RECORD
  5
1FF
330
1
100
AcDbSymbolTableRecord
100
AcDbBlockTableRecord
  2
KOZU0060
340
0
102
{BLKREFS
331
601
102
}
  0
BLOCK_RECORD
  5
206
330
1
100
AcDbSymbolTableRecord
100
AcDbBlockTableRecord
  2
KOZU0061
340
0
102
{BLKREFS
331
602
102
}
  0
BLOCK_RECORD
  5
20D
330
1
100
AcDbSymbolTableRecord
100
AcDbBlockTableRecord
  2
KOZU0062
340
0
102
{BLKREFS
331
603
102
}
  0
BLOCK_RECORD
  5
214
330
1
100
AcDbSymbolTableRecord
100
AcDbBlockTableRecord
  2
KOZU0063
340
0
102
{BLKREFS
331
604
102
}
  0
BLOCK_RECORD
  5
21B
330
1
100
AcDbSymbolTableRecord
100
AcDbBlockTableRecord
  2
KOZU0064
340
0
102
{BLKREFS
331
605
102
}
  0
BLOCK_RECORD
  5
222
330
1
100
AcDbSymbolTableRecord
100
AcDbBlockTableRecord
  2
KOZU0065
340
0
102
{BLKREFS
331
606
102
}
  0
BLOCK_RECORD
  5
229
330
1
100
AcDbSymbolTableRecord
100
AcDbBlockTableRecord
  2
KOZU0066
340
0
102
{BLKREFS
331
607
102
}
  0
BLOCK_RECORD
  5
230
330
1
100
AcDbSymbolTableRecord
100
AcDbBlockTableRecord
  2
KOZU0067
340
0
102
{BLKREFS
331
608
102
}
  0
BLOCK_RECORD
  5
237
330
1
100
AcDbSymbolTableRecord
100
AcDbBlockTableRecord
  2
KOZU0068
340
0
102
{BLKREFS
331
609
102
}
  0
BLOCK_RECORD
  5
23E
330
1
100
AcDbSymbolTableRecord
100
AcDbBlockTableRecord
  2
KOZU0069
340
0
102
{BLKREFS
331
60A
102
}
  0
BLOCK_RECORD
  5
245
330
1
100
AcDbSymbolTableRecord
100
AcDbBlockTableRecord
  2
KOZU0070
340
0
102
{BLKREFS
331
60B
102
}
  0
BLOCK_RECORD
  5
24C
330
1
100
AcDbSymbolTableRecord
100
AcDbBlockTableRecord
  2
KOZU0071
340
0
102
{BLKREFS
331
60C
102
}
  0
BLOCK_RECORD
  5
253
330
1
100
AcDbSymbolTableRecord
100
AcDbBlockTableRecord
  2
KOZU0072
340
0
102
{BLKREFS
331
60D
102
}
  0
BLOCK_RECORD
  5
25A
330
1
100
AcDbSymbolTableRecord
100
AcDbBlockTableRecord
  2
KOZU0073
340
0
102
{BLKREFS
331
60E
102
}
  0
BLOCK_RECORD
  5
261
330
1
100
AcDbSymbolTableRecord
100
AcDbBlockTableRecord
  2
KOZU0074
340
0
102
{BLKREFS
331
60F
102
}
  0
BLOCK_RECORD
  5
268
330
1
100
AcDbSymbolTableRecord
100
AcDbBlockTableRecord
  2
KOZU0075
340
0
102
{BLKREFS
331
610
102
}
  0
BLOCK_RECORD
  5
26F
330
1
100
AcDbSymbolTableRecord
100
AcDbBlockTableRecord
  2
KOZU0076
340
0
102
{BLKREFS
331
611
102
}
  0
BLOCK_RECORD
  5
276
330
1
100
AcDbSymbolTableRecord
100
AcDbBlockTableRecord
  2
KOZU0077
340
0
102
{BLKREFS
331
612
102
}
  0
BLOCK_RECORD
  5
27D
330
1
100
AcDbSymbolTableRecord
100
AcDbBlockTableRecord
  2
KOZU0078
340
0
102
{BLKREFS
331
613
102
}
  0
BLOCK_RECORD
  5
284
330
1
100
AcDbSymbolTableRecord
100
AcDbBlockTableRecord
  2
KOZU0079
340
0
102
{BLKREFS
331
614
102
}
  0
BLOCK_RECORD
  5
28B
330
1
100
AcDbSymbolTableRecord
100
AcDbBlockTableRecord
  2
KOZU0080
340
0
102
{BLKREFS
331
615
102
}
  0
BLOCK_RECORD
  5
292
330
1
100
AcDbSymbolTableRecord
100
AcDbBlockTableRecord
  2
KOZU0081
340
0
102
{BLKREFS
331
616
102
}
  0
BLOCK_RECORD
  5
299
330
1
100
AcDbSymbolTableRecord
100
AcDbBlockTableRecord
  2
KOZU0082
340
0
102
{BLKREFS
331
617
102
}
  0
BLOCK_RECORD
  5
2A0
330
1
100
AcDbSymbolTableRecord
100
AcDbBlockTableRecord
  2
KOZU0083
340
0
102
{BLKREFS
331
618
102
}
  0
BLOCK_RECORD
  5
2A7
330
1
100
AcDbSymbolTableRecord
100
AcDbBlockTableRecord
  2
KOZU0084
340
0
102
{BLKREFS
331
619
102
}
  0
BLOCK_RECORD
  5
2AE
330
1
100
AcDbSymbolTableRecord
100
AcDbBlockTableRecord
  2
KOZU0085
340
0
102
{BLKREFS
331
61A
102
}
  0
BLOCK_RECORD
  5
2B5
330
1
100
AcDbSymbolTableRecord
100
AcDbBlockTableRecord
  2
KOZU0086
340
0
102
{BLKREFS
331
61B
102
}
  0
BLOCK_RECORD
  5
2BC
330
1
100
AcDbSymbolTableRecord
100
AcDbBlockTableRecord
  2
KOZU0087
340
0
102
{BLKREFS
331
61C
102
}
  0
BLOCK_RECORD
  5
2C3
330
1
100
AcDbSymbolTableRecord
100
AcDbBlockTableRecord
  2
KOZU0088
340
0
102
{BLKREFS
331
61D
102
}
  0
BLOCK_RECORD
  5
2CA
330
1
100
AcDbSymbolTableRecord
100
AcDbBlockTableRecord
  2
KOZU0089
340
0
102
{BLKREFS
331
61E
102
}
  0
BLOCK_RECORD
  5
2D1
330
1
100
AcDbSymbolTableRecord
100
AcDbBlockTableRecord
  2
KOZU0090
340
0
102
{BLKREFS
331
61F
102
}
  0
BLOCK_RECORD
  5
6B6
330
1
100
AcDbSymbolTableRecord
100
AcDbBlockTableRecord
  2
GENAXEH
340
0
  0
ENDTAB
  0
ENDSEC
  0
SECTION
  2
BLOCKS
  0
BLOCK
  5
37
330
36
100
AcDbEntity
  8
0
100
AcDbBlockBegin
  2
*Model_Space
 70
     0
 10
0.0
 20
0.0
 30
0.0
  3
*Model_Space
  1

  0
ENDBLK
  5
38
330
36
100
AcDbEntity
  8
0
100
AcDbBlockEnd
  0
BLOCK
  5
33
330
32
100
AcDbEntity
 67
     1
  8
0
100
AcDbBlockBegin
  2
*Paper_Space
 70
     0
 10
0.0
 20
0.0
 30
0.0
  3
*Paper_Space
  1

  0
ENDBLK
  5
34
330
32
100
AcDbEntity
 67
     1
  8
0
100
AcDbBlockEnd
  0
BLOCK
  5
45
330
44
100
AcDbEntity
  8
0
100
AcDbBlockBegin
  2
_DOT
 70
     0
 10
0.0
 20
0.0
 30
0.0
  3
_DOT
  1

  0
POLYLINE
  5
46
330
44
100
AcDbEntity
  8
0
  6
ByBlock
 62
     0
100
AcDb2dPolyline
 66
     1
 10
0.0
 20
0.0
 30
0.0
 70
     1
 40
0.4000000100000002
 41
0.4000000100000002
  0
VERTEX
  5
47
330
46
100
AcDbEntity
  8
0
  6
ByBlock
 62
     0
100
AcDbVertex
100
AcDb2dVertex
 10
-0.2
 20
0.0
 30
0.0
 42
1.0
  0
VERTEX
  5
48
330
46
100
AcDbEntity
  8
0
  6
ByBlock
 62
     0
100
AcDbVertex
100
AcDb2dVertex
 10
0.2
 20
0.0
 30
0.0
 42
1.0
  0
SEQEND
  5
49
330
46
100
AcDbEntity
  8
0
  6
ByBlock
 62
     0
  0
LINE
  5
4A
330
44
100
AcDbEntity
  8
0
  6
ByBlock
 62
     0
100
AcDbLine
 10
-0.4000000100000002
 20
0.0
 30
0.0
 11
-3.0
 21
0.0
 31
0.0
  0
ENDBLK
  5
4B
330
44
100
AcDbEntity
  8
0
100
AcDbBlockEnd
  0
BLOCK
  5
4D
330
4C
100
AcDbEntity
  8
0
100
AcDbBlockBegin
  2
*D1
 70
     1
 10
0.0
 20
0.0
 30
0.0
  3
*D1
  1

  0
LINE
  5
4E
330
4C
100
AcDbEntity
  8
0
  6
Continuous
 62
     7
100
AcDbLine
 10
262.39056
 20
1683.4343
 30
0.0
 11
292.39056
 21
1683.4343
 31
0.0
  0
INSERT
  5
4F
330
4C
100
AcDbEntity
  8
0
  6
Continuous
 62
     7
100
AcDbBlockReference
  2
_DOT
 10
262.39056
 20
1683.4343
 30
0.0
 50
180.0
  0
INSERT
  5
50
330
4C
100
AcDbEntity
  8
0
  6
Continuous
 62
     7
100
AcDbBlockReference
  2
_DOT
 10
292.39056
 20
1683.4343
 30
0.0
  0
LINE
  5
51
330
4C
100
AcDbEntity
  8
0
  6
Continuous
 62
     7
100
AcDbLine
 10
292.39056
 20
1709.6797
 30
0.0
 11
292.39056
 21
1682.2344
 31
0.0
  0
TEXT
  5
52
330
4C
100
AcDbEntity
  8
0
  6
Continuous
 62
     7
100
AcDbText
 10
274.64756
 20
1684.2343
 30
0.0
 40
3.2
  1
30
 41
1.102098199999999
100
AcDbText
  0
POINT
  5
53
330
4C
100
AcDbEntity
  8
DEFPOINTS
  6
Continuous
 62
     7
100
AcDbPoint
 10
262.39056
 20
1567.4407
 30
0.0
  0
POINT
  5
54
330
4C
100
AcDbEntity
  8
DEFPOINTS
  6
Continuous
 62
     7
100
AcDbPoint
 10
292.39056
 20
1712.2197
 30
0.0
  0
POINT
  5
55
330
4C
100
AcDbEntity
  8
DEFPOINTS
  6
Continuous
 62
     7
100
AcDbPoint
 10
292.39056
 20
1683.4343
 30
0.0
  0
ENDBLK
  5
56
330
4C
100
AcDbEntity
  8
0
100
AcDbBlockEnd
  0
BLOCK
  5
58
330
57
100
AcDbEntity
  8
0
100
AcDbBlockBegin
  2
*D2
 70
     1
 10
0.0
 20
0.0
 30
0.0
  3
*D2
  1

  0
LINE
  5
59
330
57
100
AcDbEntity
  8
0
  6
Continuous
 62
     7
100
AcDbLine
 10
504.0294199999998
 20
1711.0854
 30
0.0
 11
534.02942
 21
1711.0854
 31
0.0
  0
INSERT
  5
5A
330
57
100
AcDbEntity
  8
0
  6
Continuous
 62
     7
100
AcDbBlockReference
  2
_DOT
 10
504.0294199999998
 20
1711.0854
 30
0.0
 50
180.0
  0
INSERT
  5
5B
330
57
100
AcDbEntity
  8
0
  6
Continuous
 62
     7
100
AcDbBlockReference
  2
_DOT
 10
534.02942
 20
1711.0854
 30
0.0
  0
LINE
  5
5C
330
57
100
AcDbEntity
  8
0
  6
Continuous
 62
     7
100
AcDbLine
 10
534.02942
 20
1730.1797
 30
0.0
 11
534.02942
 21
1709.8855
 31
0.0
  0
TEXT
  5
5D
330
57
100
AcDbEntity
  8
0
  6
Continuous
 62
     7
100
AcDbText
 10
516.28642
 20
1711.8854
 30
0.0
 40
3.2
  1
30
 41
1.102098199999999
100
AcDbText
  0
POINT
  5
5E
330
57
100
AcDbEntity
  8
DEFPOINTS
  6
Continuous
 62
     7
100
AcDbPoint
 10
504.0294199999998
 20
1634.0095
 30
0.0
  0
POINT
  5
5F
330
57
100
AcDbEntity
  8
DEFPOINTS
  6
Continuous
 62
     7
100
AcDbPoint
 10
534.02942
 20
1732.7197
 30
0.0
  0
POINT
  5
60
330
57
100
AcDbEntity
  8
DEFPOINTS
  6
Continuous
 62
     7
100
AcDbPoint
 10
534.02942
 20
1711.0854
 30
0.0
  0
ENDBLK
  5
61
330
57
100
AcDbEntity
  8
0
100
AcDbBlockEnd
  0
BLOCK
  5
63
330
62
100
AcDbEntity
  8
0
100
AcDbBlockBegin
  2
KOZU0001
 70
     0
 10
0.0
 20
0.0
 30
0.0
  3
KOZU0001
  1

  0
POLYLINE
  5
64
330
62
100
AcDbEntity
  8
0
  6
Continuous
 62
     7
100
AcDb2dPolyline
 66
     1
 10
0.0
 20
0.0
 30
0.0
 70
     1
 40
0.4000000100000002
 41
0.4000000100000002
  0
VERTEX
  5
65
330
64
100
AcDbEntity
  8
0
  6
Continuous
 62
     7
100
AcDbVertex
100
AcDb2dVertex
 10
-0.2
 20
0.0
 30
0.0
 42
1.0
  0
VERTEX
  5
66
330
64
100
AcDbEntity
  8
0
  6
Continuous
 62
     7
100
AcDbVertex
100
AcDb2dVertex
 10
0.2
 20
0.0
 30
0.0
 42
1.0
  0
SEQEND
  5
67
330
64
100
AcDbEntity
  8
0
  6
Continuous
 62
     7
  0
ENDBLK
  5
68
330
62
100
AcDbEntity
  8
0
100
AcDbBlockEnd
  0
BLOCK
  5
6A
330
69
100
AcDbEntity
  8
0
100
AcDbBlockBegin
  2
KOZU0002
 70
     0
 10
0.0
 20
0.0
 30
0.0
  3
KOZU0002
  1

  0
POLYLINE
  5
6B
330
69
100
AcDbEntity
  8
0
  6
Continuous
 62
     7
100
AcDb2dPolyline
 66
     1
 10
0.0
 20
0.0
 30
0.0
 70
     1
 40
0.4000000100000002
 41
0.4000000100000002
  0
VERTEX
  5
6C
330
6B
100
AcDbEntity
  8
0
  6
Continuous
 62
     7
100
AcDbVertex
100
AcDb2dVertex
 10
-0.2
 20
0.0
 30
0.0
 42
1.0
  0
VERTEX
  5
6D
330
6B
100
AcDbEntity
  8
0
  6
Continuous
 62
     7
100
AcDbVertex
100
AcDb2dVertex
 10
0.2
 20
0.0
 30
0.0
 42
1.0
  0
SEQEND
  5
6E
330
6B
100
AcDbEntity
  8
0
  6
Continuous
 62
     7
  0
ENDBLK
  5
6F
330
69
100
AcDbEntity
  8
0
100
AcDbBlockEnd
  0
BLOCK
  5
71
330
70
100
AcDbEntity
  8
0
100
AcDbBlockBegin
  2
KOZU0003
 70
     0
 10
0.0
 20
0.0
 30
0.0
  3
KOZU0003
  1

  0
POLYLINE
  5
72
330
70
100
AcDbEntity
  8
0
  6
Continuous
 62
     7
100
AcDb2dPolyline
 66
     1
 10
0.0
 20
0.0
 30
0.0
 70
     1
 40
0.4000000100000002
 41
0.4000000100000002
  0
VERTEX
  5
73
330
72
100
AcDbEntity
  8
0
  6
Continuous
 62
     7
100
AcDbVertex
100
AcDb2dVertex
 10
-0.2
 20
0.0
 30
0.0
 42
1.0
  0
VERTEX
  5
74
330
72
100
AcDbEntity
  8
0
  6
Continuous
 62
     7
100
AcDbVertex
100
AcDb2dVertex
 10
0.2
 20
0.0
 30
0.0
 42
1.0
  0
SEQEND
  5
75
330
72
100
AcDbEntity
  8
0
  6
Continuous
 62
     7
  0
ENDBLK
  5
76
330
70
100
AcDbEntity
  8
0
100
AcDbBlockEnd
  0
BLOCK
  5
78
330
77
100
AcDbEntity
  8
0
100
AcDbBlockBegin
  2
KOZU0004
 70
     0
 10
0.0
 20
0.0
 30
0.0
  3
KOZU0004
  1

  0
POLYLINE
  5
79
330
77
100
AcDbEntity
  8
0
  6
Continuous
 62
     7
100
AcDb2dPolyline
 66
     1
 10
0.0
 20
0.0
 30
0.0
 70
     1
 40
0.4000000100000002
 41
0.4000000100000002
  0
VERTEX
  5
7A
330
79
100
AcDbEntity
  8
0
  6
Continuous
 62
     7
100
AcDbVertex
100
AcDb2dVertex
 10
-0.2
 20
0.0
 30
0.0
 42
1.0
  0
VERTEX
  5
7B
330
79
100
AcDbEntity
  8
0
  6
Continuous
 62
     7
100
AcDbVertex
100
AcDb2dVertex
 10
0.2
 20
0.0
 30
0.0
 42
1.0
  0
SEQEND
  5
7C
330
79
100
AcDbEntity
  8
0
  6
Continuous
 62
     7
  0
ENDBLK
  5
7D
330
77
100
AcDbEntity
  8
0
100
AcDbBlockEnd
  0
BLOCK
  5
7F
330
7E
100
AcDbEntity
  8
0
100
AcDbBlockBegin
  2
KOZU0005
 70
     0
 10
0.0
 20
0.0
 30
0.0
  3
KOZU0005
  1

  0
POLYLINE
  5
80
330
7E
100
AcDbEntity
  8
0
  6
Continuous
 62
     7
100
AcDb2dPolyline
 66
     1
 10
0.0
 20
0.0
 30
0.0
 70
     1
 40
0.4000000100000002
 41
0.4000000100000002
  0
VERTEX
  5
81
330
80
100
AcDbEntity
  8
0
  6
Continuous
 62
     7
100
AcDbVertex
100
AcDb2dVertex
 10
-0.2
 20
0.0
 30
0.0
 42
1.0
  0
VERTEX
  5
82
330
80
100
AcDbEntity
  8
0
  6
Continuous
 62
     7
100
AcDbVertex
100
AcDb2dVertex
 10
0.2
 20
0.0
 30
0.0
 42
1.0
  0
SEQEND
  5
83
330
80
100
AcDbEntity
  8
0
  6
Continuous
 62
     7
  0
ENDBLK
  5
84
330
7E
100
AcDbEntity
  8
0
100
AcDbBlockEnd
  0
BLOCK
  5
86
330
85
100
AcDbEntity
  8
0
100
AcDbBlockBegin
  2
KOZU0006
 70
     0
 10
0.0
 20
0.0
 30
0.0
  3
KOZU0006
  1

  0
POLYLINE
  5
87
330
85
100
AcDbEntity
  8
0
  6
Continuous
 62
     7
100
AcDb2dPolyline
 66
     1
 10
0.0
 20
0.0
 30
0.0
 70
     1
 40
0.4000000100000002
 41
0.4000000100000002
  0
VERTEX
  5
88
330
87
100
AcDbEntity
  8
0
  6
Continuous
 62
     7
100
AcDbVertex
100
AcDb2dVertex
 10
-0.2
 20
0.0
 30
0.0
 42
1.0
  0
VERTEX
  5
89
330
87
100
AcDbEntity
  8
0
  6
Continuous
 62
     7
100
AcDbVertex
100
AcDb2dVertex
 10
0.2
 20
0.0
 30
0.0
 42
1.0
  0
SEQEND
  5
8A
330
87
100
AcDbEntity
  8
0
  6
Continuous
 62
     7
  0
ENDBLK
  5
8B
330
85
100
AcDbEntity
  8
0
100
AcDbBlockEnd
  0
BLOCK
  5
8D
330
8C
100
AcDbEntity
  8
0
100
AcDbBlockBegin
  2
KOZU0007
 70
     0
 10
0.0
 20
0.0
 30
0.0
  3
KOZU0007
  1

  0
POLYLINE
  5
8E
330
8C
100
AcDbEntity
  8
0
  6
Continuous
 62
     7
100
AcDb2dPolyline
 66
     1
 10
0.0
 20
0.0
 30
0.0
 70
     1
 40
0.4000000100000002
 41
0.4000000100000002
  0
VERTEX
  5
8F
330
8E
100
AcDbEntity
  8
0
  6
Continuous
 62
     7
100
AcDbVertex
100
AcDb2dVertex
 10
-0.2
 20
0.0
 30
0.0
 42
1.0
  0
VERTEX
  5
90
330
8E
100
AcDbEntity
  8
0
  6
Continuous
 62
     7
100
AcDbVertex
100
AcDb2dVertex
 10
0.2
 20
0.0
 30
0.0
 42
1.0
  0
SEQEND
  5
91
330
8E
100
AcDbEntity
  8
0
  6
Continuous
 62
     7
  0
ENDBLK
  5
92
330
8C
100
AcDbEntity
  8
0
100
AcDbBlockEnd
  0
BLOCK
  5
94
330
93
100
AcDbEntity
  8
0
100
AcDbBlockBegin
  2
KOZU0008
 70
     0
 10
0.0
 20
0.0
 30
0.0
  3
KOZU0008
  1

  0
POLYLINE
  5
95
330
93
100
AcDbEntity
  8
0
  6
Continuous
 62
     7
100
AcDb2dPolyline
 66
     1
 10
0.0
 20
0.0
 30
0.0
 70
     1
 40
0.4000000100000002
 41
0.4000000100000002
  0
VERTEX
  5
96
330
95
100
AcDbEntity
  8
0
  6
Continuous
 62
     7
100
AcDbVertex
100
AcDb2dVertex
 10
-0.2
 20
0.0
 30
0.0
 42
1.0
  0
VERTEX
  5
97
330
95
100
AcDbEntity
  8
0
  6
Continuous
 62
     7
100
AcDbVertex
100
AcDb2dVertex
 10
0.2
 20
0.0
 30
0.0
 42
1.0
  0
SEQEND
  5
98
330
95
100
AcDbEntity
  8
0
  6
Continuous
 62
     7
  0
ENDBLK
  5
99
330
93
100
AcDbEntity
  8
0
100
AcDbBlockEnd
  0
BLOCK
  5
9B
330
9A
100
AcDbEntity
  8
0
100
AcDbBlockBegin
  2
KOZU0009
 70
     0
 10
0.0
 20
0.0
 30
0.0
  3
KOZU0009
  1

  0
POLYLINE
  5
9C
330
9A
100
AcDbEntity
  8
0
  6
Continuous
 62
     7
100
AcDb2dPolyline
 66
     1
 10
0.0
 20
0.0
 30
0.0
 70
     1
 40
0.4000000100000002
 41
0.4000000100000002
  0
VERTEX
  5
9D
330
9C
100
AcDbEntity
  8
0
  6
Continuous
 62
     7
100
AcDbVertex
100
AcDb2dVertex
 10
-0.2
 20
0.0
 30
0.0
 42
1.0
  0
VERTEX
  5
9E
330
9C
100
AcDbEntity
  8
0
  6
Continuous
 62
     7
100
AcDbVertex
100
AcDb2dVertex
 10
0.2
 20
0.0
 30
0.0
 42
1.0
  0
SEQEND
  5
9F
330
9C
100
AcDbEntity
  8
0
  6
Continuous
 62
     7
  0
ENDBLK
  5
A0
330
9A
100
AcDbEntity
  8
0
100
AcDbBlockEnd
  0
BLOCK
  5
A2
330
A1
100
AcDbEntity
  8
0
100
AcDbBlockBegin
  2
KOZU0010
 70
     0
 10
0.0
 20
0.0
 30
0.0
  3
KOZU0010
  1

  0
POLYLINE
  5
A3
330
A1
100
AcDbEntity
  8
0
  6
Continuous
 62
     7
100
AcDb2dPolyline
 66
     1
 10
0.0
 20
0.0
 30
0.0
 70
     1
 40
0.4000000100000002
 41
0.4000000100000002
  0
VERTEX
  5
A4
330
A3
100
AcDbEntity
  8
0
  6
Continuous
 62
     7
100
AcDbVertex
100
AcDb2dVertex
 10
-0.2
 20
0.0
 30
0.0
 42
1.0
  0
VERTEX
  5
A5
330
A3
100
AcDbEntity
  8
0
  6
Continuous
 62
     7
100
AcDbVertex
100
AcDb2dVertex
 10
0.2
 20
0.0
 30
0.0
 42
1.0
  0
SEQEND
  5
A6
330
A3
100
AcDbEntity
  8
0
  6
Continuous
 62
     7
  0
ENDBLK
  5
A7
330
A1
100
AcDbEntity
  8
0
100
AcDbBlockEnd
  0
BLOCK
  5
A9
330
A8
100
AcDbEntity
  8
0
100
AcDbBlockBegin
  2
KOZU0011
 70
     0
 10
0.0
 20
0.0
 30
0.0
  3
KOZU0011
  1

  0
POLYLINE
  5
AA
330
A8
100
AcDbEntity
  8
0
  6
Continuous
 62
     7
100
AcDb2dPolyline
 66
     1
 10
0.0
 20
0.0
 30
0.0
 70
     1
 40
0.4000000100000002
 41
0.4000000100000002
  0
VERTEX
  5
AB
330
AA
100
AcDbEntity
  8
0
  6
Continuous
 62
     7
100
AcDbVertex
100
AcDb2dVertex
 10
-0.2
 20
0.0
 30
0.0
 42
1.0
  0
VERTEX
  5
AC
330
AA
100
AcDbEntity
  8
0
  6
Continuous
 62
     7
100
AcDbVertex
100
AcDb2dVertex
 10
0.2
 20
0.0
 30
0.0
 42
1.0
  0
SEQEND
  5
AD
330
AA
100
AcDbEntity
  8
0
  6
Continuous
 62
     7
  0
ENDBLK
  5
AE
330
A8
100
AcDbEntity
  8
0
100
AcDbBlockEnd
  0
BLOCK
  5
B0
330
AF
100
AcDbEntity
  8
0
100
AcDbBlockBegin
  2
KOZU0012
 70
     0
 10
0.0
 20
0.0
 30
0.0
  3
KOZU0012
  1

  0
POLYLINE
  5
B1
330
AF
100
AcDbEntity
  8
0
  6
Continuous
 62
     7
100
AcDb2dPolyline
 66
     1
 10
0.0
 20
0.0
 30
0.0
 70
     1
 40
0.4000000100000002
 41
0.4000000100000002
  0
VERTEX
  5
B2
330
B1
100
AcDbEntity
  8
0
  6
Continuous
 62
     7
100
AcDbVertex
100
AcDb2dVertex
 10
-0.2
 20
0.0
 30
0.0
 42
1.0
  0
VERTEX
  5
B3
330
B1
100
AcDbEntity
  8
0
  6
Continuous
 62
     7
100
AcDbVertex
100
AcDb2dVertex
 10
0.2
 20
0.0
 30
0.0
 42
1.0
  0
SEQEND
  5
B4
330
B1
100
AcDbEntity
  8
0
  6
Continuous
 62
     7
  0
ENDBLK
  5
B5
330
AF
100
AcDbEntity
  8
0
100
AcDbBlockEnd
  0
BLOCK
  5
B7
330
B6
100
AcDbEntity
  8
0
100
AcDbBlockBegin
  2
KOZU0013
 70
     0
 10
0.0
 20
0.0
 30
0.0
  3
KOZU0013
  1

  0
POLYLINE
  5
B8
330
B6
100
AcDbEntity
  8
0
  6
Continuous
 62
     7
100
AcDb2dPolyline
 66
     1
 10
0.0
 20
0.0
 30
0.0
 70
     1
 40
0.4000000100000002
 41
0.4000000100000002
  0
VERTEX
  5
B9
330
B8
100
AcDbEntity
  8
0
  6
Continuous
 62
     7
100
AcDbVertex
100
AcDb2dVertex
 10
-0.2
 20
0.0
 30
0.0
 42
1.0
  0
VERTEX
  5
BA
330
B8
100
AcDbEntity
  8
0
  6
Continuous
 62
     7
100
AcDbVertex
100
AcDb2dVertex
 10
0.2
 20
0.0
 30
0.0
 42
1.0
  0
SEQEND
  5
BB
330
B8
100
AcDbEntity
  8
0
  6
Continuous
 62
     7
  0
ENDBLK
  5
BC
330
B6
100
AcDbEntity
  8
0
100
AcDbBlockEnd
  0
BLOCK
  5
BE
330
BD
100
AcDbEntity
  8
0
100
AcDbBlockBegin
  2
KOZU0014
 70
     0
 10
0.0
 20
0.0
 30
0.0
  3
KOZU0014
  1

  0
POLYLINE
  5
BF
330
BD
100
AcDbEntity
  8
0
  6
Continuous
 62
     7
100
AcDb2dPolyline
 66
     1
 10
0.0
 20
0.0
 30
0.0
 70
     1
 40
0.4000000100000002
 41
0.4000000100000002
  0
VERTEX
  5
C0
330
BF
100
AcDbEntity
  8
0
  6
Continuous
 62
     7
100
AcDbVertex
100
AcDb2dVertex
 10
-0.2
 20
0.0
 30
0.0
 42
1.0
  0
VERTEX
  5
C1
330
BF
100
AcDbEntity
  8
0
  6
Continuous
 62
     7
100
AcDbVertex
100
AcDb2dVertex
 10
0.2
 20
0.0
 30
0.0
 42
1.0
  0
SEQEND
  5
C2
330
BF
100
AcDbEntity
  8
0
  6
Continuous
 62
     7
  0
ENDBLK
  5
C3
330
BD
100
AcDbEntity
  8
0
100
AcDbBlockEnd
  0
BLOCK
  5
C5
330
C4
100
AcDbEntity
  8
0
100
AcDbBlockBegin
  2
KOZU0015
 70
     0
 10
0.0
 20
0.0
 30
0.0
  3
KOZU0015
  1

  0
POLYLINE
  5
C6
330
C4
100
AcDbEntity
  8
0
  6
Continuous
 62
     7
100
AcDb2dPolyline
 66
     1
 10
0.0
 20
0.0
 30
0.0
 70
     1
 40
0.4000000100000002
 41
0.4000000100000002
  0
VERTEX
  5
C7
330
C6
100
AcDbEntity
  8
0
  6
Continuous
 62
     7
100
AcDbVertex
100
AcDb2dVertex
 10
-0.2
 20
0.0
 30
0.0
 42
1.0
  0
VERTEX
  5
C8
330
C6
100
AcDbEntity
  8
0
  6
Continuous
 62
     7
100
AcDbVertex
100
AcDb2dVertex
 10
0.2
 20
0.0
 30
0.0
 42
1.0
  0
SEQEND
  5
C9
330
C6
100
AcDbEntity
  8
0
  6
Continuous
 62
     7
  0
ENDBLK
  5
CA
330
C4
100
AcDbEntity
  8
0
100
AcDbBlockEnd
  0
BLOCK
  5
CC
330
CB
100
AcDbEntity
  8
0
100
AcDbBlockBegin
  2
KOZU0016
 70
     0
 10
0.0
 20
0.0
 30
0.0
  3
KOZU0016
  1

  0
POLYLINE
  5
CD
330
CB
100
AcDbEntity
  8
0
  6
Continuous
 62
     7
100
AcDb2dPolyline
 66
     1
 10
0.0
 20
0.0
 30
0.0
 70
     1
 40
0.4000000100000002
 41
0.4000000100000002
  0
VERTEX
  5
CE
330
CD
100
AcDbEntity
  8
0
  6
Continuous
 62
     7
100
AcDbVertex
100
AcDb2dVertex
 10
-0.2
 20
0.0
 30
0.0
 42
1.0
  0
VERTEX
  5
CF
330
CD
100
AcDbEntity
  8
0
  6
Continuous
 62
     7
100
AcDbVertex
100
AcDb2dVertex
 10
0.2
 20
0.0
 30
0.0
 42
1.0
  0
SEQEND
  5
D0
330
CD
100
AcDbEntity
  8
0
  6
Continuous
 62
     7
  0
ENDBLK
  5
D1
330
CB
100
AcDbEntity
  8
0
100
AcDbBlockEnd
  0
BLOCK
  5
D3
330
D2
100
AcDbEntity
  8
0
100
AcDbBlockBegin
  2
KOZU0017
 70
     0
 10
0.0
 20
0.0
 30
0.0
  3
KOZU0017
  1

  0
POLYLINE
  5
D4
330
D2
100
AcDbEntity
  8
0
  6
Continuous
 62
     7
100
AcDb2dPolyline
 66
     1
 10
0.0
 20
0.0
 30
0.0
 70
     1
 40
0.4000000100000002
 41
0.4000000100000002
  0
VERTEX
  5
D5
330
D4
100
AcDbEntity
  8
0
  6
Continuous
 62
     7
100
AcDbVertex
100
AcDb2dVertex
 10
-0.2
 20
0.0
 30
0.0
 42
1.0
  0
VERTEX
  5
D6
330
D4
100
AcDbEntity
  8
0
  6
Continuous
 62
     7
100
AcDbVertex
100
AcDb2dVertex
 10
0.2
 20
0.0
 30
0.0
 42
1.0
  0
SEQEND
  5
D7
330
D4
100
AcDbEntity
  8
0
  6
Continuous
 62
     7
  0
ENDBLK
  5
D8
330
D2
100
AcDbEntity
  8
0
100
AcDbBlockEnd
  0
BLOCK
  5
DA
330
D9
100
AcDbEntity
  8
0
100
AcDbBlockBegin
  2
KOZU0018
 70
     0
 10
0.0
 20
0.0
 30
0.0
  3
KOZU0018
  1

  0
POLYLINE
  5
DB
330
D9
100
AcDbEntity
  8
0
  6
Continuous
 62
     7
100
AcDb2dPolyline
 66
     1
 10
0.0
 20
0.0
 30
0.0
 70
     1
 40
0.4000000100000002
 41
0.4000000100000002
  0
VERTEX
  5
DC
330
DB
100
AcDbEntity
  8
0
  6
Continuous
 62
     7
100
AcDbVertex
100
AcDb2dVertex
 10
-0.2
 20
0.0
 30
0.0
 42
1.0
  0
VERTEX
  5
DD
330
DB
100
AcDbEntity
  8
0
  6
Continuous
 62
     7
100
AcDbVertex
100
AcDb2dVertex
 10
0.2
 20
0.0
 30
0.0
 42
1.0
  0
SEQEND
  5
DE
330
DB
100
AcDbEntity
  8
0
  6
Continuous
 62
     7
  0
ENDBLK
  5
DF
330
D9
100
AcDbEntity
  8
0
100
AcDbBlockEnd
  0
BLOCK
  5
E1
330
E0
100
AcDbEntity
  8
0
100
AcDbBlockBegin
  2
KOZU0019
 70
     0
 10
0.0
 20
0.0
 30
0.0
  3
KOZU0019
  1

  0
POLYLINE
  5
E2
330
E0
100
AcDbEntity
  8
0
  6
Continuous
 62
     7
100
AcDb2dPolyline
 66
     1
 10
0.0
 20
0.0
 30
0.0
 70
     1
 40
0.4000000100000002
 41
0.4000000100000002
  0
VERTEX
  5
E3
330
E2
100
AcDbEntity
  8
0
  6
Continuous
 62
     7
100
AcDbVertex
100
AcDb2dVertex
 10
-0.2
 20
0.0
 30
0.0
 42
1.0
  0
VERTEX
  5
E4
330
E2
100
AcDbEntity
  8
0
  6
Continuous
 62
     7
100
AcDbVertex
100
AcDb2dVertex
 10
0.2
 20
0.0
 30
0.0
 42
1.0
  0
SEQEND
  5
E5
330
E2
100
AcDbEntity
  8
0
  6
Continuous
 62
     7
  0
ENDBLK
  5
E6
330
E0
100
AcDbEntity
  8
0
100
AcDbBlockEnd
  0
BLOCK
  5
E8
330
E7
100
AcDbEntity
  8
0
100
AcDbBlockBegin
  2
KOZU0020
 70
     0
 10
0.0
 20
0.0
 30
0.0
  3
KOZU0020
  1

  0
POLYLINE
  5
E9
330
E7
100
AcDbEntity
  8
0
  6
Continuous
 62
     7
100
AcDb2dPolyline
 66
     1
 10
0.0
 20
0.0
 30
0.0
 70
     1
 40
0.4000000100000002
 41
0.4000000100000002
  0
VERTEX
  5
EA
330
E9
100
AcDbEntity
  8
0
  6
Continuous
 62
     7
100
AcDbVertex
100
AcDb2dVertex
 10
-0.2
 20
0.0
 30
0.0
 42
1.0
  0
VERTEX
  5
EB
330
E9
100
AcDbEntity
  8
0
  6
Continuous
 62
     7
100
AcDbVertex
100
AcDb2dVertex
 10
0.2
 20
0.0
 30
0.0
 42
1.0
  0
SEQEND
  5
EC
330
E9
100
AcDbEntity
  8
0
  6
Continuous
 62
     7
  0
ENDBLK
  5
ED
330
E7
100
AcDbEntity
  8
0
100
AcDbBlockEnd
  0
BLOCK
  5
EF
330
EE
100
AcDbEntity
  8
0
100
AcDbBlockBegin
  2
KOZU0021
 70
     0
 10
0.0
 20
0.0
 30
0.0
  3
KOZU0021
  1

  0
POLYLINE
  5
F0
330
EE
100
AcDbEntity
  8
0
  6
Continuous
 62
     7
100
AcDb2dPolyline
 66
     1
 10
0.0
 20
0.0
 30
0.0
 70
     1
 40
0.4000000100000002
 41
0.4000000100000002
  0
VERTEX
  5
F1
330
F0
100
AcDbEntity
  8
0
  6
Continuous
 62
     7
100
AcDbVertex
100
AcDb2dVertex
 10
-0.2
 20
0.0
 30
0.0
 42
1.0
  0
VERTEX
  5
F2
330
F0
100
AcDbEntity
  8
0
  6
Continuous
 62
     7
100
AcDbVertex
100
AcDb2dVertex
 10
0.2
 20
0.0
 30
0.0
 42
1.0
  0
SEQEND
  5
F3
330
F0
100
AcDbEntity
  8
0
  6
Continuous
 62
     7
  0
ENDBLK
  5
F4
330
EE
100
AcDbEntity
  8
0
100
AcDbBlockEnd
  0
BLOCK
  5
F6
330
F5
100
AcDbEntity
  8
0
100
AcDbBlockBegin
  2
KOZU0022
 70
     0
 10
0.0
 20
0.0
 30
0.0
  3
KOZU0022
  1

  0
POLYLINE
  5
F7
330
F5
100
AcDbEntity
  8
0
  6
Continuous
 62
     7
100
AcDb2dPolyline
 66
     1
 10
0.0
 20
0.0
 30
0.0
 70
     1
 40
0.4000000100000002
 41
0.4000000100000002
  0
VERTEX
  5
F8
330
F7
100
AcDbEntity
  8
0
  6
Continuous
 62
     7
100
AcDbVertex
100
AcDb2dVertex
 10
-0.2
 20
0.0
 30
0.0
 42
1.0
  0
VERTEX
  5
F9
330
F7
100
AcDbEntity
  8
0
  6
Continuous
 62
     7
100
AcDbVertex
100
AcDb2dVertex
 10
0.2
 20
0.0
 30
0.0
 42
1.0
  0
SEQEND
  5
FA
330
F7
100
AcDbEntity
  8
0
  6
Continuous
 62
     7
  0
ENDBLK
  5
FB
330
F5
100
AcDbEntity
  8
0
100
AcDbBlockEnd
  0
BLOCK
  5
FD
330
FC
100
AcDbEntity
  8
0
100
AcDbBlockBegin
  2
KOZU0023
 70
     0
 10
0.0
 20
0.0
 30
0.0
  3
KOZU0023
  1

  0
POLYLINE
  5
FE
330
FC
100
AcDbEntity
  8
0
  6
Continuous
 62
     7
100
AcDb2dPolyline
 66
     1
 10
0.0
 20
0.0
 30
0.0
 70
     1
 40
0.4000000100000002
 41
0.4000000100000002
  0
VERTEX
  5
FF
330
FE
100
AcDbEntity
  8
0
  6
Continuous
 62
     7
100
AcDbVertex
100
AcDb2dVertex
 10
-0.2
 20
0.0
 30
0.0
 42
1.0
  0
VERTEX
  5
100
330
FE
100
AcDbEntity
  8
0
  6
Continuous
 62
     7
100
AcDbVertex
100
AcDb2dVertex
 10
0.2
 20
0.0
 30
0.0
 42
1.0
  0
SEQEND
  5
101
330
FE
100
AcDbEntity
  8
0
  6
Continuous
 62
     7
  0
ENDBLK
  5
102
330
FC
100
AcDbEntity
  8
0
100
AcDbBlockEnd
  0
BLOCK
  5
104
330
103
100
AcDbEntity
  8
0
100
AcDbBlockBegin
  2
KOZU0024
 70
     0
 10
0.0
 20
0.0
 30
0.0
  3
KOZU0024
  1

  0
POLYLINE
  5
105
330
103
100
AcDbEntity
  8
0
  6
Continuous
 62
     7
100
AcDb2dPolyline
 66
     1
 10
0.0
 20
0.0
 30
0.0
 70
     1
 40
0.4000000100000002
 41
0.4000000100000002
  0
VERTEX
  5
106
330
105
100
AcDbEntity
  8
0
  6
Continuous
 62
     7
100
AcDbVertex
100
AcDb2dVertex
 10
-0.2
 20
0.0
 30
0.0
 42
1.0
  0
VERTEX
  5
107
330
105
100
AcDbEntity
  8
0
  6
Continuous
 62
     7
100
AcDbVertex
100
AcDb2dVertex
 10
0.2
 20
0.0
 30
0.0
 42
1.0
  0
SEQEND
  5
108
330
105
100
AcDbEntity
  8
0
  6
Continuous
 62
     7
  0
ENDBLK
  5
109
330
103
100
AcDbEntity
  8
0
100
AcDbBlockEnd
  0
BLOCK
  5
10B
330
10A
100
AcDbEntity
  8
0
100
AcDbBlockBegin
  2
KOZU0025
 70
     0
 10
0.0
 20
0.0
 30
0.0
  3
KOZU0025
  1

  0
POLYLINE
  5
10C
330
10A
100
AcDbEntity
  8
0
  6
Continuous
 62
     7
100
AcDb2dPolyline
 66
     1
 10
0.0
 20
0.0
 30
0.0
 70
     1
 40
0.4000000100000002
 41
0.4000000100000002
  0
VERTEX
  5
10D
330
10C
100
AcDbEntity
  8
0
  6
Continuous
 62
     7
100
AcDbVertex
100
AcDb2dVertex
 10
-0.2
 20
0.0
 30
0.0
 42
1.0
  0
VERTEX
  5
10E
330
10C
100
AcDbEntity
  8
0
  6
Continuous
 62
     7
100
AcDbVertex
100
AcDb2dVertex
 10
0.2
 20
0.0
 30
0.0
 42
1.0
  0
SEQEND
  5
10F
330
10C
100
AcDbEntity
  8
0
  6
Continuous
 62
     7
  0
ENDBLK
  5
110
330
10A
100
AcDbEntity
  8
0
100
AcDbBlockEnd
  0
BLOCK
  5
112
330
111
100
AcDbEntity
  8
0
100
AcDbBlockBegin
  2
KOZU0026
 70
     0
 10
0.0
 20
0.0
 30
0.0
  3
KOZU0026
  1

  0
POLYLINE
  5
113
330
111
100
AcDbEntity
  8
0
  6
Continuous
 62
     7
100
AcDb2dPolyline
 66
     1
 10
0.0
 20
0.0
 30
0.0
 70
     1
 40
0.4000000100000002
 41
0.4000000100000002
  0
VERTEX
  5
114
330
113
100
AcDbEntity
  8
0
  6
Continuous
 62
     7
100
AcDbVertex
100
AcDb2dVertex
 10
-0.2
 20
0.0
 30
0.0
 42
1.0
  0
VERTEX
  5
115
330
113
100
AcDbEntity
  8
0
  6
Continuous
 62
     7
100
AcDbVertex
100
AcDb2dVertex
 10
0.2
 20
0.0
 30
0.0
 42
1.0
  0
SEQEND
  5
116
330
113
100
AcDbEntity
  8
0
  6
Continuous
 62
     7
  0
ENDBLK
  5
117
330
111
100
AcDbEntity
  8
0
100
AcDbBlockEnd
  0
BLOCK
  5
119
330
118
100
AcDbEntity
  8
0
100
AcDbBlockBegin
  2
KOZU0027
 70
     0
 10
0.0
 20
0.0
 30
0.0
  3
KOZU0027
  1

  0
POLYLINE
  5
11A
330
118
100
AcDbEntity
  8
0
  6
Continuous
 62
     7
100
AcDb2dPolyline
 66
     1
 10
0.0
 20
0.0
 30
0.0
 70
     1
 40
0.4000000100000002
 41
0.4000000100000002
  0
VERTEX
  5
11B
330
11A
100
AcDbEntity
  8
0
  6
Continuous
 62
     7
100
AcDbVertex
100
AcDb2dVertex
 10
-0.2
 20
0.0
 30
0.0
 42
1.0
  0
VERTEX
  5
11C
330
11A
100
AcDbEntity
  8
0
  6
Continuous
 62
     7
100
AcDbVertex
100
AcDb2dVertex
 10
0.2
 20
0.0
 30
0.0
 42
1.0
  0
SEQEND
  5
11D
330
11A
100
AcDbEntity
  8
0
  6
Continuous
 62
     7
  0
ENDBLK
  5
11E
330
118
100
AcDbEntity
  8
0
100
AcDbBlockEnd
  0
BLOCK
  5
120
330
11F
100
AcDbEntity
  8
0
100
AcDbBlockBegin
  2
KOZU0028
 70
     0
 10
0.0
 20
0.0
 30
0.0
  3
KOZU0028
  1

  0
POLYLINE
  5
121
330
11F
100
AcDbEntity
  8
0
  6
Continuous
 62
     7
100
AcDb2dPolyline
 66
     1
 10
0.0
 20
0.0
 30
0.0
 70
     1
 40
0.4000000100000002
 41
0.4000000100000002
  0
VERTEX
  5
122
330
121
100
AcDbEntity
  8
0
  6
Continuous
 62
     7
100
AcDbVertex
100
AcDb2dVertex
 10
-0.2
 20
0.0
 30
0.0
 42
1.0
  0
VERTEX
  5
123
330
121
100
AcDbEntity
  8
0
  6
Continuous
 62
     7
100
AcDbVertex
100
AcDb2dVertex
 10
0.2
 20
0.0
 30
0.0
 42
1.0
  0
SEQEND
  5
124
330
121
100
AcDbEntity
  8
0
  6
Continuous
 62
     7
  0
ENDBLK
  5
125
330
11F
100
AcDbEntity
  8
0
100
AcDbBlockEnd
  0
BLOCK
  5
127
330
126
100
AcDbEntity
  8
0
100
AcDbBlockBegin
  2
KOZU0029
 70
     0
 10
0.0
 20
0.0
 30
0.0
  3
KOZU0029
  1

  0
POLYLINE
  5
128
330
126
100
AcDbEntity
  8
0
  6
Continuous
 62
     7
100
AcDb2dPolyline
 66
     1
 10
0.0
 20
0.0
 30
0.0
 70
     1
 40
0.4000000100000002
 41
0.4000000100000002
  0
VERTEX
  5
129
330
128
100
AcDbEntity
  8
0
  6
Continuous
 62
     7
100
AcDbVertex
100
AcDb2dVertex
 10
-0.2
 20
0.0
 30
0.0
 42
1.0
  0
VERTEX
  5
12A
330
128
100
AcDbEntity
  8
0
  6
Continuous
 62
     7
100
AcDbVertex
100
AcDb2dVertex
 10
0.2
 20
0.0
 30
0.0
 42
1.0
  0
SEQEND
  5
12B
330
128
100
AcDbEntity
  8
0
  6
Continuous
 62
     7
  0
ENDBLK
  5
12C
330
126
100
AcDbEntity
  8
0
100
AcDbBlockEnd
  0
BLOCK
  5
12E
330
12D
100
AcDbEntity
  8
0
100
AcDbBlockBegin
  2
KOZU0030
 70
     0
 10
0.0
 20
0.0
 30
0.0
  3
KOZU0030
  1

  0
POLYLINE
  5
12F
330
12D
100
AcDbEntity
  8
0
  6
Continuous
 62
     7
100
AcDb2dPolyline
 66
     1
 10
0.0
 20
0.0
 30
0.0
 70
     1
 40
0.4000000100000002
 41
0.4000000100000002
  0
VERTEX
  5
130
330
12F
100
AcDbEntity
  8
0
  6
Continuous
 62
     7
100
AcDbVertex
100
AcDb2dVertex
 10
-0.2
 20
0.0
 30
0.0
 42
1.0
  0
VERTEX
  5
131
330
12F
100
AcDbEntity
  8
0
  6
Continuous
 62
     7
100
AcDbVertex
100
AcDb2dVertex
 10
0.2
 20
0.0
 30
0.0
 42
1.0
  0
SEQEND
  5
132
330
12F
100
AcDbEntity
  8
0
  6
Continuous
 62
     7
  0
ENDBLK
  5
133
330
12D
100
AcDbEntity
  8
0
100
AcDbBlockEnd
  0
BLOCK
  5
135
330
134
100
AcDbEntity
  8
0
100
AcDbBlockBegin
  2
KOZU0031
 70
     0
 10
0.0
 20
0.0
 30
0.0
  3
KOZU0031
  1

  0
POLYLINE
  5
136
330
134
100
AcDbEntity
  8
0
  6
Continuous
 62
     7
100
AcDb2dPolyline
 66
     1
 10
0.0
 20
0.0
 30
0.0
 70
     1
 40
0.4000000100000002
 41
0.4000000100000002
  0
VERTEX
  5
137
330
136
100
AcDbEntity
  8
0
  6
Continuous
 62
     7
100
AcDbVertex
100
AcDb2dVertex
 10
-0.2
 20
0.0
 30
0.0
 42
1.0
  0
VERTEX
  5
138
330
136
100
AcDbEntity
  8
0
  6
Continuous
 62
     7
100
AcDbVertex
100
AcDb2dVertex
 10
0.2
 20
0.0
 30
0.0
 42
1.0
  0
SEQEND
  5
139
330
136
100
AcDbEntity
  8
0
  6
Continuous
 62
     7
  0
ENDBLK
  5
13A
330
134
100
AcDbEntity
  8
0
100
AcDbBlockEnd
  0
BLOCK
  5
13C
330
13B
100
AcDbEntity
  8
0
100
AcDbBlockBegin
  2
KOZU0032
 70
     0
 10
0.0
 20
0.0
 30
0.0
  3
KOZU0032
  1

  0
POLYLINE
  5
13D
330
13B
100
AcDbEntity
  8
0
  6
Continuous
 62
     7
100
AcDb2dPolyline
 66
     1
 10
0.0
 20
0.0
 30
0.0
 70
     1
 40
0.4000000100000002
 41
0.4000000100000002
  0
VERTEX
  5
13E
330
13D
100
AcDbEntity
  8
0
  6
Continuous
 62
     7
100
AcDbVertex
100
AcDb2dVertex
 10
-0.2
 20
0.0
 30
0.0
 42
1.0
  0
VERTEX
  5
13F
330
13D
100
AcDbEntity
  8
0
  6
Continuous
 62
     7
100
AcDbVertex
100
AcDb2dVertex
 10
0.2
 20
0.0
 30
0.0
 42
1.0
  0
SEQEND
  5
140
330
13D
100
AcDbEntity
  8
0
  6
Continuous
 62
     7
  0
ENDBLK
  5
141
330
13B
100
AcDbEntity
  8
0
100
AcDbBlockEnd
  0
BLOCK
  5
143
330
142
100
AcDbEntity
  8
0
100
AcDbBlockBegin
  2
KOZU0033
 70
     0
 10
0.0
 20
0.0
 30
0.0
  3
KOZU0033
  1

  0
POLYLINE
  5
144
330
142
100
AcDbEntity
  8
0
  6
Continuous
 62
     7
100
AcDb2dPolyline
 66
     1
 10
0.0
 20
0.0
 30
0.0
 70
     1
 40
0.4000000100000002
 41
0.4000000100000002
  0
VERTEX
  5
145
330
144
100
AcDbEntity
  8
0
  6
Continuous
 62
     7
100
AcDbVertex
100
AcDb2dVertex
 10
-0.2
 20
0.0
 30
0.0
 42
1.0
  0
VERTEX
  5
146
330
144
100
AcDbEntity
  8
0
  6
Continuous
 62
     7
100
AcDbVertex
100
AcDb2dVertex
 10
0.2
 20
0.0
 30
0.0
 42
1.0
  0
SEQEND
  5
147
330
144
100
AcDbEntity
  8
0
  6
Continuous
 62
     7
  0
ENDBLK
  5
148
330
142
100
AcDbEntity
  8
0
100
AcDbBlockEnd
  0
BLOCK
  5
14A
330
149
100
AcDbEntity
  8
0
100
AcDbBlockBegin
  2
KOZU0034
 70
     0
 10
0.0
 20
0.0
 30
0.0
  3
KOZU0034
  1

  0
POLYLINE
  5
14B
330
149
100
AcDbEntity
  8
0
  6
Continuous
 62
     7
100
AcDb2dPolyline
 66
     1
 10
0.0
 20
0.0
 30
0.0
 70
     1
 40
0.4000000100000002
 41
0.4000000100000002
  0
VERTEX
  5
14C
330
14B
100
AcDbEntity
  8
0
  6
Continuous
 62
     7
100
AcDbVertex
100
AcDb2dVertex
 10
-0.2
 20
0.0
 30
0.0
 42
1.0
  0
VERTEX
  5
14D
330
14B
100
AcDbEntity
  8
0
  6
Continuous
 62
     7
100
AcDbVertex
100
AcDb2dVertex
 10
0.2
 20
0.0
 30
0.0
 42
1.0
  0
SEQEND
  5
14E
330
14B
100
AcDbEntity
  8
0
  6
Continuous
 62
     7
  0
ENDBLK
  5
14F
330
149
100
AcDbEntity
  8
0
100
AcDbBlockEnd
  0
BLOCK
  5
151
330
150
100
AcDbEntity
  8
0
100
AcDbBlockBegin
  2
KOZU0035
 70
     0
 10
0.0
 20
0.0
 30
0.0
  3
KOZU0035
  1

  0
POLYLINE
  5
152
330
150
100
AcDbEntity
  8
0
  6
Continuous
 62
     7
100
AcDb2dPolyline
 66
     1
 10
0.0
 20
0.0
 30
0.0
 70
     1
 40
0.4000000100000002
 41
0.4000000100000002
  0
VERTEX
  5
153
330
152
100
AcDbEntity
  8
0
  6
Continuous
 62
     7
100
AcDbVertex
100
AcDb2dVertex
 10
-0.2
 20
0.0
 30
0.0
 42
1.0
  0
VERTEX
  5
154
330
152
100
AcDbEntity
  8
0
  6
Continuous
 62
     7
100
AcDbVertex
100
AcDb2dVertex
 10
0.2
 20
0.0
 30
0.0
 42
1.0
  0
SEQEND
  5
155
330
152
100
AcDbEntity
  8
0
  6
Continuous
 62
     7
  0
ENDBLK
  5
156
330
150
100
AcDbEntity
  8
0
100
AcDbBlockEnd
  0
BLOCK
  5
158
330
157
100
AcDbEntity
  8
0
100
AcDbBlockBegin
  2
KOZU0036
 70
     0
 10
0.0
 20
0.0
 30
0.0
  3
KOZU0036
  1

  0
POLYLINE
  5
159
330
157
100
AcDbEntity
  8
0
  6
Continuous
 62
     7
100
AcDb2dPolyline
 66
     1
 10
0.0
 20
0.0
 30
0.0
 70
     1
 40
0.4000000100000002
 41
0.4000000100000002
  0
VERTEX
  5
15A
330
159
100
AcDbEntity
  8
0
  6
Continuous
 62
     7
100
AcDbVertex
100
AcDb2dVertex
 10
-0.2
 20
0.0
 30
0.0
 42
1.0
  0
VERTEX
  5
15B
330
159
100
AcDbEntity
  8
0
  6
Continuous
 62
     7
100
AcDbVertex
100
AcDb2dVertex
 10
0.2
 20
0.0
 30
0.0
 42
1.0
  0
SEQEND
  5
15C
330
159
100
AcDbEntity
  8
0
  6
Continuous
 62
     7
  0
ENDBLK
  5
15D
330
157
100
AcDbEntity
  8
0
100
AcDbBlockEnd
  0
BLOCK
  5
15F
330
15E
100
AcDbEntity
  8
0
100
AcDbBlockBegin
  2
KOZU0037
 70
     0
 10
0.0
 20
0.0
 30
0.0
  3
KOZU0037
  1

  0
POLYLINE
  5
160
330
15E
100
AcDbEntity
  8
0
  6
Continuous
 62
     7
100
AcDb2dPolyline
 66
     1
 10
0.0
 20
0.0
 30
0.0
 70
     1
 40
0.4000000100000002
 41
0.4000000100000002
  0
VERTEX
  5
161
330
160
100
AcDbEntity
  8
0
  6
Continuous
 62
     7
100
AcDbVertex
100
AcDb2dVertex
 10
-0.2
 20
0.0
 30
0.0
 42
1.0
  0
VERTEX
  5
162
330
160
100
AcDbEntity
  8
0
  6
Continuous
 62
     7
100
AcDbVertex
100
AcDb2dVertex
 10
0.2
 20
0.0
 30
0.0
 42
1.0
  0
SEQEND
  5
163
330
160
100
AcDbEntity
  8
0
  6
Continuous
 62
     7
  0
ENDBLK
  5
164
330
15E
100
AcDbEntity
  8
0
100
AcDbBlockEnd
  0
BLOCK
  5
166
330
165
100
AcDbEntity
  8
0
100
AcDbBlockBegin
  2
KOZU0038
 70
     0
 10
0.0
 20
0.0
 30
0.0
  3
KOZU0038
  1

  0
POLYLINE
  5
167
330
165
100
AcDbEntity
  8
0
  6
Continuous
 62
     7
100
AcDb2dPolyline
 66
     1
 10
0.0
 20
0.0
 30
0.0
 70
     1
 40
0.4000000100000002
 41
0.4000000100000002
  0
VERTEX
  5
168
330
167
100
AcDbEntity
  8
0
  6
Continuous
 62
     7
100
AcDbVertex
100
AcDb2dVertex
 10
-0.2
 20
0.0
 30
0.0
 42
1.0
  0
VERTEX
  5
169
330
167
100
AcDbEntity
  8
0
  6
Continuous
 62
     7
100
AcDbVertex
100
AcDb2dVertex
 10
0.2
 20
0.0
 30
0.0
 42
1.0
  0
SEQEND
  5
16A
330
167
100
AcDbEntity
  8
0
  6
Continuous
 62
     7
  0
ENDBLK
  5
16B
330
165
100
AcDbEntity
  8
0
100
AcDbBlockEnd
  0
BLOCK
  5
16D
330
16C
100
AcDbEntity
  8
0
100
AcDbBlockBegin
  2
KOZU0039
 70
     0
 10
0.0
 20
0.0
 30
0.0
  3
KOZU0039
  1

  0
POLYLINE
  5
16E
330
16C
100
AcDbEntity
  8
0
  6
Continuous
 62
     7
100
AcDb2dPolyline
 66
     1
 10
0.0
 20
0.0
 30
0.0
 70
     1
 40
0.4000000100000002
 41
0.4000000100000002
  0
VERTEX
  5
16F
330
16E
100
AcDbEntity
  8
0
  6
Continuous
 62
     7
100
AcDbVertex
100
AcDb2dVertex
 10
-0.2
 20
0.0
 30
0.0
 42
1.0
  0
VERTEX
  5
170
330
16E
100
AcDbEntity
  8
0
  6
Continuous
 62
     7
100
AcDbVertex
100
AcDb2dVertex
 10
0.2
 20
0.0
 30
0.0
 42
1.0
  0
SEQEND
  5
171
330
16E
100
AcDbEntity
  8
0
  6
Continuous
 62
     7
  0
ENDBLK
  5
172
330
16C
100
AcDbEntity
  8
0
100
AcDbBlockEnd
  0
BLOCK
  5
174
330
173
100
AcDbEntity
  8
0
100
AcDbBlockBegin
  2
KOZU0040
 70
     0
 10
0.0
 20
0.0
 30
0.0
  3
KOZU0040
  1

  0
POLYLINE
  5
175
330
173
100
AcDbEntity
  8
0
  6
Continuous
 62
     7
100
AcDb2dPolyline
 66
     1
 10
0.0
 20
0.0
 30
0.0
 70
     1
 40
0.4000000100000002
 41
0.4000000100000002
  0
VERTEX
  5
176
330
175
100
AcDbEntity
  8
0
  6
Continuous
 62
     7
100
AcDbVertex
100
AcDb2dVertex
 10
-0.2
 20
0.0
 30
0.0
 42
1.0
  0
VERTEX
  5
177
330
175
100
AcDbEntity
  8
0
  6
Continuous
 62
     7
100
AcDbVertex
100
AcDb2dVertex
 10
0.2
 20
0.0
 30
0.0
 42
1.0
  0
SEQEND
  5
178
330
175
100
AcDbEntity
  8
0
  6
Continuous
 62
     7
  0
ENDBLK
  5
179
330
173
100
AcDbEntity
  8
0
100
AcDbBlockEnd
  0
BLOCK
  5
17B
330
17A
100
AcDbEntity
  8
0
100
AcDbBlockBegin
  2
KOZU0041
 70
     0
 10
0.0
 20
0.0
 30
0.0
  3
KOZU0041
  1

  0
POLYLINE
  5
17C
330
17A
100
AcDbEntity
  8
0
  6
Continuous
 62
     7
100
AcDb2dPolyline
 66
     1
 10
0.0
 20
0.0
 30
0.0
 70
     1
 40
0.4000000100000002
 41
0.4000000100000002
  0
VERTEX
  5
17D
330
17C
100
AcDbEntity
  8
0
  6
Continuous
 62
     7
100
AcDbVertex
100
AcDb2dVertex
 10
-0.2
 20
0.0
 30
0.0
 42
1.0
  0
VERTEX
  5
17E
330
17C
100
AcDbEntity
  8
0
  6
Continuous
 62
     7
100
AcDbVertex
100
AcDb2dVertex
 10
0.2
 20
0.0
 30
0.0
 42
1.0
  0
SEQEND
  5
17F
330
17C
100
AcDbEntity
  8
0
  6
Continuous
 62
     7
  0
ENDBLK
  5
180
330
17A
100
AcDbEntity
  8
0
100
AcDbBlockEnd
  0
BLOCK
  5
182
330
181
100
AcDbEntity
  8
0
100
AcDbBlockBegin
  2
KOZU0042
 70
     0
 10
0.0
 20
0.0
 30
0.0
  3
KOZU0042
  1

  0
POLYLINE
  5
183
330
181
100
AcDbEntity
  8
0
  6
Continuous
 62
     7
100
AcDb2dPolyline
 66
     1
 10
0.0
 20
0.0
 30
0.0
 70
     1
 40
0.4000000100000002
 41
0.4000000100000002
  0
VERTEX
  5
184
330
183
100
AcDbEntity
  8
0
  6
Continuous
 62
     7
100
AcDbVertex
100
AcDb2dVertex
 10
-0.2
 20
0.0
 30
0.0
 42
1.0
  0
VERTEX
  5
185
330
183
100
AcDbEntity
  8
0
  6
Continuous
 62
     7
100
AcDbVertex
100
AcDb2dVertex
 10
0.2
 20
0.0
 30
0.0
 42
1.0
  0
SEQEND
  5
186
330
183
100
AcDbEntity
  8
0
  6
Continuous
 62
     7
  0
ENDBLK
  5
187
330
181
100
AcDbEntity
  8
0
100
AcDbBlockEnd
  0
BLOCK
  5
189
330
188
100
AcDbEntity
  8
0
100
AcDbBlockBegin
  2
KOZU0043
 70
     0
 10
0.0
 20
0.0
 30
0.0
  3
KOZU0043
  1

  0
POLYLINE
  5
18A
330
188
100
AcDbEntity
  8
0
  6
Continuous
 62
     7
100
AcDb2dPolyline
 66
     1
 10
0.0
 20
0.0
 30
0.0
 70
     1
 40
0.4000000100000002
 41
0.4000000100000002
  0
VERTEX
  5
18B
330
18A
100
AcDbEntity
  8
0
  6
Continuous
 62
     7
100
AcDbVertex
100
AcDb2dVertex
 10
-0.2
 20
0.0
 30
0.0
 42
1.0
  0
VERTEX
  5
18C
330
18A
100
AcDbEntity
  8
0
  6
Continuous
 62
     7
100
AcDbVertex
100
AcDb2dVertex
 10
0.2
 20
0.0
 30
0.0
 42
1.0
  0
SEQEND
  5
18D
330
18A
100
AcDbEntity
  8
0
  6
Continuous
 62
     7
  0
ENDBLK
  5
18E
330
188
100
AcDbEntity
  8
0
100
AcDbBlockEnd
  0
BLOCK
  5
190
330
18F
100
AcDbEntity
  8
0
100
AcDbBlockBegin
  2
KOZU0044
 70
     0
 10
0.0
 20
0.0
 30
0.0
  3
KOZU0044
  1

  0
POLYLINE
  5
191
330
18F
100
AcDbEntity
  8
0
  6
Continuous
 62
     7
100
AcDb2dPolyline
 66
     1
 10
0.0
 20
0.0
 30
0.0
 70
     1
 40
0.4000000100000002
 41
0.4000000100000002
  0
VERTEX
  5
192
330
191
100
AcDbEntity
  8
0
  6
Continuous
 62
     7
100
AcDbVertex
100
AcDb2dVertex
 10
-0.2
 20
0.0
 30
0.0
 42
1.0
  0
VERTEX
  5
193
330
191
100
AcDbEntity
  8
0
  6
Continuous
 62
     7
100
AcDbVertex
100
AcDb2dVertex
 10
0.2
 20
0.0
 30
0.0
 42
1.0
  0
SEQEND
  5
194
330
191
100
AcDbEntity
  8
0
  6
Continuous
 62
     7
  0
ENDBLK
  5
195
330
18F
100
AcDbEntity
  8
0
100
AcDbBlockEnd
  0
BLOCK
  5
197
330
196
100
AcDbEntity
  8
0
100
AcDbBlockBegin
  2
KOZU0045
 70
     0
 10
0.0
 20
0.0
 30
0.0
  3
KOZU0045
  1

  0
POLYLINE
  5
198
330
196
100
AcDbEntity
  8
0
  6
Continuous
 62
     7
100
AcDb2dPolyline
 66
     1
 10
0.0
 20
0.0
 30
0.0
 70
     1
 40
0.4000000100000002
 41
0.4000000100000002
  0
VERTEX
  5
199
330
198
100
AcDbEntity
  8
0
  6
Continuous
 62
     7
100
AcDbVertex
100
AcDb2dVertex
 10
-0.2
 20
0.0
 30
0.0
 42
1.0
  0
VERTEX
  5
19A
330
198
100
AcDbEntity
  8
0
  6
Continuous
 62
     7
100
AcDbVertex
100
AcDb2dVertex
 10
0.2
 20
0.0
 30
0.0
 42
1.0
  0
SEQEND
  5
19B
330
198
100
AcDbEntity
  8
0
  6
Continuous
 62
     7
  0
ENDBLK
  5
19C
330
196
100
AcDbEntity
  8
0
100
AcDbBlockEnd
  0
BLOCK
  5
19E
330
19D
100
AcDbEntity
  8
0
100
AcDbBlockBegin
  2
KOZU0046
 70
     0
 10
0.0
 20
0.0
 30
0.0
  3
KOZU0046
  1

  0
POLYLINE
  5
19F
330
19D
100
AcDbEntity
  8
0
  6
Continuous
 62
     7
100
AcDb2dPolyline
 66
     1
 10
0.0
 20
0.0
 30
0.0
 70
     1
 40
0.4000000100000002
 41
0.4000000100000002
  0
VERTEX
  5
1A0
330
19F
100
AcDbEntity
  8
0
  6
Continuous
 62
     7
100
AcDbVertex
100
AcDb2dVertex
 10
-0.2
 20
0.0
 30
0.0
 42
1.0
  0
VERTEX
  5
1A1
330
19F
100
AcDbEntity
  8
0
  6
Continuous
 62
     7
100
AcDbVertex
100
AcDb2dVertex
 10
0.2
 20
0.0
 30
0.0
 42
1.0
  0
SEQEND
  5
1A2
330
19F
100
AcDbEntity
  8
0
  6
Continuous
 62
     7
  0
ENDBLK
  5
1A3
330
19D
100
AcDbEntity
  8
0
100
AcDbBlockEnd
  0
BLOCK
  5
1A5
330
1A4
100
AcDbEntity
  8
0
100
AcDbBlockBegin
  2
KOZU0047
 70
     0
 10
0.0
 20
0.0
 30
0.0
  3
KOZU0047
  1

  0
POLYLINE
  5
1A6
330
1A4
100
AcDbEntity
  8
0
  6
Continuous
 62
     7
100
AcDb2dPolyline
 66
     1
 10
0.0
 20
0.0
 30
0.0
 70
     1
 40
0.4000000100000002
 41
0.4000000100000002
  0
VERTEX
  5
1A7
330
1A6
100
AcDbEntity
  8
0
  6
Continuous
 62
     7
100
AcDbVertex
100
AcDb2dVertex
 10
-0.2
 20
0.0
 30
0.0
 42
1.0
  0
VERTEX
  5
1A8
330
1A6
100
AcDbEntity
  8
0
  6
Continuous
 62
     7
100
AcDbVertex
100
AcDb2dVertex
 10
0.2
 20
0.0
 30
0.0
 42
1.0
  0
SEQEND
  5
1A9
330
1A6
100
AcDbEntity
  8
0
  6
Continuous
 62
     7
  0
ENDBLK
  5
1AA
330
1A4
100
AcDbEntity
  8
0
100
AcDbBlockEnd
  0
BLOCK
  5
1AC
330
1AB
100
AcDbEntity
  8
0
100
AcDbBlockBegin
  2
KOZU0048
 70
     0
 10
0.0
 20
0.0
 30
0.0
  3
KOZU0048
  1

  0
POLYLINE
  5
1AD
330
1AB
100
AcDbEntity
  8
0
  6
Continuous
 62
     7
100
AcDb2dPolyline
 66
     1
 10
0.0
 20
0.0
 30
0.0
 70
     1
 40
0.4000000100000002
 41
0.4000000100000002
  0
VERTEX
  5
1AE
330
1AD
100
AcDbEntity
  8
0
  6
Continuous
 62
     7
100
AcDbVertex
100
AcDb2dVertex
 10
-0.2
 20
0.0
 30
0.0
 42
1.0
  0
VERTEX
  5
1AF
330
1AD
100
AcDbEntity
  8
0
  6
Continuous
 62
     7
100
AcDbVertex
100
AcDb2dVertex
 10
0.2
 20
0.0
 30
0.0
 42
1.0
  0
SEQEND
  5
1B0
330
1AD
100
AcDbEntity
  8
0
  6
Continuous
 62
     7
  0
ENDBLK
  5
1B1
330
1AB
100
AcDbEntity
  8
0
100
AcDbBlockEnd
  0
BLOCK
  5
1B3
330
1B2
100
AcDbEntity
  8
0
100
AcDbBlockBegin
  2
KOZU0049
 70
     0
 10
0.0
 20
0.0
 30
0.0
  3
KOZU0049
  1

  0
POLYLINE
  5
1B4
330
1B2
100
AcDbEntity
  8
0
  6
Continuous
 62
     7
100
AcDb2dPolyline
 66
     1
 10
0.0
 20
0.0
 30
0.0
 70
     1
 40
0.4000000100000002
 41
0.4000000100000002
  0
VERTEX
  5
1B5
330
1B4
100
AcDbEntity
  8
0
  6
Continuous
 62
     7
100
AcDbVertex
100
AcDb2dVertex
 10
-0.2
 20
0.0
 30
0.0
 42
1.0
  0
VERTEX
  5
1B6
330
1B4
100
AcDbEntity
  8
0
  6
Continuous
 62
     7
100
AcDbVertex
100
AcDb2dVertex
 10
0.2
 20
0.0
 30
0.0
 42
1.0
  0
SEQEND
  5
1B7
330
1B4
100
AcDbEntity
  8
0
  6
Continuous
 62
     7
  0
ENDBLK
  5
1B8
330
1B2
100
AcDbEntity
  8
0
100
AcDbBlockEnd
  0
BLOCK
  5
1BA
330
1B9
100
AcDbEntity
  8
0
100
AcDbBlockBegin
  2
KOZU0050
 70
     0
 10
0.0
 20
0.0
 30
0.0
  3
KOZU0050
  1

  0
POLYLINE
  5
1BB
330
1B9
100
AcDbEntity
  8
0
  6
Continuous
 62
     7
100
AcDb2dPolyline
 66
     1
 10
0.0
 20
0.0
 30
0.0
 70
     1
 40
0.4000000100000002
 41
0.4000000100000002
  0
VERTEX
  5
1BC
330
1BB
100
AcDbEntity
  8
0
  6
Continuous
 62
     7
100
AcDbVertex
100
AcDb2dVertex
 10
-0.2
 20
0.0
 30
0.0
 42
1.0
  0
VERTEX
  5
1BD
330
1BB
100
AcDbEntity
  8
0
  6
Continuous
 62
     7
100
AcDbVertex
100
AcDb2dVertex
 10
0.2
 20
0.0
 30
0.0
 42
1.0
  0
SEQEND
  5
1BE
330
1BB
100
AcDbEntity
  8
0
  6
Continuous
 62
     7
  0
ENDBLK
  5
1BF
330
1B9
100
AcDbEntity
  8
0
100
AcDbBlockEnd
  0
BLOCK
  5
1C1
330
1C0
100
AcDbEntity
  8
0
100
AcDbBlockBegin
  2
KOZU0051
 70
     0
 10
0.0
 20
0.0
 30
0.0
  3
KOZU0051
  1

  0
POLYLINE
  5
1C2
330
1C0
100
AcDbEntity
  8
0
  6
Continuous
 62
     7
100
AcDb2dPolyline
 66
     1
 10
0.0
 20
0.0
 30
0.0
 70
     1
 40
0.4000000100000002
 41
0.4000000100000002
  0
VERTEX
  5
1C3
330
1C2
100
AcDbEntity
  8
0
  6
Continuous
 62
     7
100
AcDbVertex
100
AcDb2dVertex
 10
-0.2
 20
0.0
 30
0.0
 42
1.0
  0
VERTEX
  5
1C4
330
1C2
100
AcDbEntity
  8
0
  6
Continuous
 62
     7
100
AcDbVertex
100
AcDb2dVertex
 10
0.2
 20
0.0
 30
0.0
 42
1.0
  0
SEQEND
  5
1C5
330
1C2
100
AcDbEntity
  8
0
  6
Continuous
 62
     7
  0
ENDBLK
  5
1C6
330
1C0
100
AcDbEntity
  8
0
100
AcDbBlockEnd
  0
BLOCK
  5
1C8
330
1C7
100
AcDbEntity
  8
0
100
AcDbBlockBegin
  2
KOZU0052
 70
     0
 10
0.0
 20
0.0
 30
0.0
  3
KOZU0052
  1

  0
POLYLINE
  5
1C9
330
1C7
100
AcDbEntity
  8
0
  6
Continuous
 62
     7
100
AcDb2dPolyline
 66
     1
 10
0.0
 20
0.0
 30
0.0
 70
     1
 40
0.4000000100000002
 41
0.4000000100000002
  0
VERTEX
  5
1CA
330
1C9
100
AcDbEntity
  8
0
  6
Continuous
 62
     7
100
AcDbVertex
100
AcDb2dVertex
 10
-0.2
 20
0.0
 30
0.0
 42
1.0
  0
VERTEX
  5
1CB
330
1C9
100
AcDbEntity
  8
0
  6
Continuous
 62
     7
100
AcDbVertex
100
AcDb2dVertex
 10
0.2
 20
0.0
 30
0.0
 42
1.0
  0
SEQEND
  5
1CC
330
1C9
100
AcDbEntity
  8
0
  6
Continuous
 62
     7
  0
ENDBLK
  5
1CD
330
1C7
100
AcDbEntity
  8
0
100
AcDbBlockEnd
  0
BLOCK
  5
1CF
330
1CE
100
AcDbEntity
  8
0
100
AcDbBlockBegin
  2
KOZU0053
 70
     0
 10
0.0
 20
0.0
 30
0.0
  3
KOZU0053
  1

  0
POLYLINE
  5
1D0
330
1CE
100
AcDbEntity
  8
0
  6
Continuous
 62
     7
100
AcDb2dPolyline
 66
     1
 10
0.0
 20
0.0
 30
0.0
 70
     1
 40
0.4000000100000002
 41
0.4000000100000002
  0
VERTEX
  5
1D1
330
1D0
100
AcDbEntity
  8
0
  6
Continuous
 62
     7
100
AcDbVertex
100
AcDb2dVertex
 10
-0.2
 20
0.0
 30
0.0
 42
1.0
  0
VERTEX
  5
1D2
330
1D0
100
AcDbEntity
  8
0
  6
Continuous
 62
     7
100
AcDbVertex
100
AcDb2dVertex
 10
0.2
 20
0.0
 30
0.0
 42
1.0
  0
SEQEND
  5
1D3
330
1D0
100
AcDbEntity
  8
0
  6
Continuous
 62
     7
  0
ENDBLK
  5
1D4
330
1CE
100
AcDbEntity
  8
0
100
AcDbBlockEnd
  0
BLOCK
  5
1D6
330
1D5
100
AcDbEntity
  8
0
100
AcDbBlockBegin
  2
KOZU0054
 70
     0
 10
0.0
 20
0.0
 30
0.0
  3
KOZU0054
  1

  0
POLYLINE
  5
1D7
330
1D5
100
AcDbEntity
  8
0
  6
Continuous
 62
     7
100
AcDb2dPolyline
 66
     1
 10
0.0
 20
0.0
 30
0.0
 70
     1
 40
0.4000000100000002
 41
0.4000000100000002
  0
VERTEX
  5
1D8
330
1D7
100
AcDbEntity
  8
0
  6
Continuous
 62
     7
100
AcDbVertex
100
AcDb2dVertex
 10
-0.2
 20
0.0
 30
0.0
 42
1.0
  0
VERTEX
  5
1D9
330
1D7
100
AcDbEntity
  8
0
  6
Continuous
 62
     7
100
AcDbVertex
100
AcDb2dVertex
 10
0.2
 20
0.0
 30
0.0
 42
1.0
  0
SEQEND
  5
1DA
330
1D7
100
AcDbEntity
  8
0
  6
Continuous
 62
     7
  0
ENDBLK
  5
1DB
330
1D5
100
AcDbEntity
  8
0
100
AcDbBlockEnd
  0
BLOCK
  5
1DD
330
1DC
100
AcDbEntity
  8
0
100
AcDbBlockBegin
  2
KOZU0055
 70
     0
 10
0.0
 20
0.0
 30
0.0
  3
KOZU0055
  1

  0
POLYLINE
  5
1DE
330
1DC
100
AcDbEntity
  8
0
  6
Continuous
 62
     7
100
AcDb2dPolyline
 66
     1
 10
0.0
 20
0.0
 30
0.0
 70
     1
 40
0.4000000100000002
 41
0.4000000100000002
  0
VERTEX
  5
1DF
330
1DE
100
AcDbEntity
  8
0
  6
Continuous
 62
     7
100
AcDbVertex
100
AcDb2dVertex
 10
-0.2
 20
0.0
 30
0.0
 42
1.0
  0
VERTEX
  5
1E0
330
1DE
100
AcDbEntity
  8
0
  6
Continuous
 62
     7
100
AcDbVertex
100
AcDb2dVertex
 10
0.2
 20
0.0
 30
0.0
 42
1.0
  0
SEQEND
  5
1E1
330
1DE
100
AcDbEntity
  8
0
  6
Continuous
 62
     7
  0
ENDBLK
  5
1E2
330
1DC
100
AcDbEntity
  8
0
100
AcDbBlockEnd
  0
BLOCK
  5
1E4
330
1E3
100
AcDbEntity
  8
0
100
AcDbBlockBegin
  2
KOZU0056
 70
     0
 10
0.0
 20
0.0
 30
0.0
  3
KOZU0056
  1

  0
POLYLINE
  5
1E5
330
1E3
100
AcDbEntity
  8
0
  6
Continuous
 62
     7
100
AcDb2dPolyline
 66
     1
 10
0.0
 20
0.0
 30
0.0
 70
     1
 40
0.4000000100000002
 41
0.4000000100000002
  0
VERTEX
  5
1E6
330
1E5
100
AcDbEntity
  8
0
  6
Continuous
 62
     7
100
AcDbVertex
100
AcDb2dVertex
 10
-0.2
 20
0.0
 30
0.0
 42
1.0
  0
VERTEX
  5
1E7
330
1E5
100
AcDbEntity
  8
0
  6
Continuous
 62
     7
100
AcDbVertex
100
AcDb2dVertex
 10
0.2
 20
0.0
 30
0.0
 42
1.0
  0
SEQEND
  5
1E8
330
1E5
100
AcDbEntity
  8
0
  6
Continuous
 62
     7
  0
ENDBLK
  5
1E9
330
1E3
100
AcDbEntity
  8
0
100
AcDbBlockEnd
  0
BLOCK
  5
1EB
330
1EA
100
AcDbEntity
  8
0
100
AcDbBlockBegin
  2
KOZU0057
 70
     0
 10
0.0
 20
0.0
 30
0.0
  3
KOZU0057
  1

  0
POLYLINE
  5
1EC
330
1EA
100
AcDbEntity
  8
0
  6
Continuous
 62
     7
100
AcDb2dPolyline
 66
     1
 10
0.0
 20
0.0
 30
0.0
 70
     1
 40
0.4000000100000002
 41
0.4000000100000002
  0
VERTEX
  5
1ED
330
1EC
100
AcDbEntity
  8
0
  6
Continuous
 62
     7
100
AcDbVertex
100
AcDb2dVertex
 10
-0.2
 20
0.0
 30
0.0
 42
1.0
  0
VERTEX
  5
1EE
330
1EC
100
AcDbEntity
  8
0
  6
Continuous
 62
     7
100
AcDbVertex
100
AcDb2dVertex
 10
0.2
 20
0.0
 30
0.0
 42
1.0
  0
SEQEND
  5
1EF
330
1EC
100
AcDbEntity
  8
0
  6
Continuous
 62
     7
  0
ENDBLK
  5
1F0
330
1EA
100
AcDbEntity
  8
0
100
AcDbBlockEnd
  0
BLOCK
  5
1F2
330
1F1
100
AcDbEntity
  8
0
100
AcDbBlockBegin
  2
KOZU0058
 70
     0
 10
0.0
 20
0.0
 30
0.0
  3
KOZU0058
  1

  0
POLYLINE
  5
1F3
330
1F1
100
AcDbEntity
  8
0
  6
Continuous
 62
     7
100
AcDb2dPolyline
 66
     1
 10
0.0
 20
0.0
 30
0.0
 70
     1
 40
0.4000000100000002
 41
0.4000000100000002
  0
VERTEX
  5
1F4
330
1F3
100
AcDbEntity
  8
0
  6
Continuous
 62
     7
100
AcDbVertex
100
AcDb2dVertex
 10
-0.2
 20
0.0
 30
0.0
 42
1.0
  0
VERTEX
  5
1F5
330
1F3
100
AcDbEntity
  8
0
  6
Continuous
 62
     7
100
AcDbVertex
100
AcDb2dVertex
 10
0.2
 20
0.0
 30
0.0
 42
1.0
  0
SEQEND
  5
1F6
330
1F3
100
AcDbEntity
  8
0
  6
Continuous
 62
     7
  0
ENDBLK
  5
1F7
330
1F1
100
AcDbEntity
  8
0
100
AcDbBlockEnd
  0
BLOCK
  5
1F9
330
1F8
100
AcDbEntity
  8
0
100
AcDbBlockBegin
  2
KOZU0059
 70
     0
 10
0.0
 20
0.0
 30
0.0
  3
KOZU0059
  1

  0
POLYLINE
  5
1FA
330
1F8
100
AcDbEntity
  8
0
  6
Continuous
 62
     7
100
AcDb2dPolyline
 66
     1
 10
0.0
 20
0.0
 30
0.0
 70
     1
 40
0.4000000100000002
 41
0.4000000100000002
  0
VERTEX
  5
1FB
330
1FA
100
AcDbEntity
  8
0
  6
Continuous
 62
     7
100
AcDbVertex
100
AcDb2dVertex
 10
-0.2
 20
0.0
 30
0.0
 42
1.0
  0
VERTEX
  5
1FC
330
1FA
100
AcDbEntity
  8
0
  6
Continuous
 62
     7
100
AcDbVertex
100
AcDb2dVertex
 10
0.2
 20
0.0
 30
0.0
 42
1.0
  0
SEQEND
  5
1FD
330
1FA
100
AcDbEntity
  8
0
  6
Continuous
 62
     7
  0
ENDBLK
  5
1FE
330
1F8
100
AcDbEntity
  8
0
100
AcDbBlockEnd
  0
BLOCK
  5
200
330
1FF
100
AcDbEntity
  8
0
100
AcDbBlockBegin
  2
KOZU0060
 70
     0
 10
0.0
 20
0.0
 30
0.0
  3
KOZU0060
  1

  0
POLYLINE
  5
201
330
1FF
100
AcDbEntity
  8
0
  6
Continuous
 62
     7
100
AcDb2dPolyline
 66
     1
 10
0.0
 20
0.0
 30
0.0
 70
     1
 40
0.4000000100000002
 41
0.4000000100000002
  0
VERTEX
  5
202
330
201
100
AcDbEntity
  8
0
  6
Continuous
 62
     7
100
AcDbVertex
100
AcDb2dVertex
 10
-0.2
 20
0.0
 30
0.0
 42
1.0
  0
VERTEX
  5
203
330
201
100
AcDbEntity
  8
0
  6
Continuous
 62
     7
100
AcDbVertex
100
AcDb2dVertex
 10
0.2
 20
0.0
 30
0.0
 42
1.0
  0
SEQEND
  5
204
330
201
100
AcDbEntity
  8
0
  6
Continuous
 62
     7
  0
ENDBLK
  5
205
330
1FF
100
AcDbEntity
  8
0
100
AcDbBlockEnd
  0
BLOCK
  5
207
330
206
100
AcDbEntity
  8
0
100
AcDbBlockBegin
  2
KOZU0061
 70
     0
 10
0.0
 20
0.0
 30
0.0
  3
KOZU0061
  1

  0
POLYLINE
  5
208
330
206
100
AcDbEntity
  8
0
  6
Continuous
 62
     7
100
AcDb2dPolyline
 66
     1
 10
0.0
 20
0.0
 30
0.0
 70
     1
 40
0.4000000100000002
 41
0.4000000100000002
  0
VERTEX
  5
209
330
208
100
AcDbEntity
  8
0
  6
Continuous
 62
     7
100
AcDbVertex
100
AcDb2dVertex
 10
-0.2
 20
0.0
 30
0.0
 42
1.0
  0
VERTEX
  5
20A
330
208
100
AcDbEntity
  8
0
  6
Continuous
 62
     7
100
AcDbVertex
100
AcDb2dVertex
 10
0.2
 20
0.0
 30
0.0
 42
1.0
  0
SEQEND
  5
20B
330
208
100
AcDbEntity
  8
0
  6
Continuous
 62
     7
  0
ENDBLK
  5
20C
330
206
100
AcDbEntity
  8
0
100
AcDbBlockEnd
  0
BLOCK
  5
20E
330
20D
100
AcDbEntity
  8
0
100
AcDbBlockBegin
  2
KOZU0062
 70
     0
 10
0.0
 20
0.0
 30
0.0
  3
KOZU0062
  1

  0
POLYLINE
  5
20F
330
20D
100
AcDbEntity
  8
0
  6
Continuous
 62
     7
100
AcDb2dPolyline
 66
     1
 10
0.0
 20
0.0
 30
0.0
 70
     1
 40
0.4000000100000002
 41
0.4000000100000002
  0
VERTEX
  5
210
330
20F
100
AcDbEntity
  8
0
  6
Continuous
 62
     7
100
AcDbVertex
100
AcDb2dVertex
 10
-0.2
 20
0.0
 30
0.0
 42
1.0
  0
VERTEX
  5
211
330
20F
100
AcDbEntity
  8
0
  6
Continuous
 62
     7
100
AcDbVertex
100
AcDb2dVertex
 10
0.2
 20
0.0
 30
0.0
 42
1.0
  0
SEQEND
  5
212
330
20F
100
AcDbEntity
  8
0
  6
Continuous
 62
     7
  0
ENDBLK
  5
213
330
20D
100
AcDbEntity
  8
0
100
AcDbBlockEnd
  0
BLOCK
  5
215
330
214
100
AcDbEntity
  8
0
100
AcDbBlockBegin
  2
KOZU0063
 70
     0
 10
0.0
 20
0.0
 30
0.0
  3
KOZU0063
  1

  0
POLYLINE
  5
216
330
214
100
AcDbEntity
  8
0
  6
Continuous
 62
     7
100
AcDb2dPolyline
 66
     1
 10
0.0
 20
0.0
 30
0.0
 70
     1
 40
0.4000000100000002
 41
0.4000000100000002
  0
VERTEX
  5
217
330
216
100
AcDbEntity
  8
0
  6
Continuous
 62
     7
100
AcDbVertex
100
AcDb2dVertex
 10
-0.2
 20
0.0
 30
0.0
 42
1.0
  0
VERTEX
  5
218
330
216
100
AcDbEntity
  8
0
  6
Continuous
 62
     7
100
AcDbVertex
100
AcDb2dVertex
 10
0.2
 20
0.0
 30
0.0
 42
1.0
  0
SEQEND
  5
219
330
216
100
AcDbEntity
  8
0
  6
Continuous
 62
     7
  0
ENDBLK
  5
21A
330
214
100
AcDbEntity
  8
0
100
AcDbBlockEnd
  0
BLOCK
  5
21C
330
21B
100
AcDbEntity
  8
0
100
AcDbBlockBegin
  2
KOZU0064
 70
     0
 10
0.0
 20
0.0
 30
0.0
  3
KOZU0064
  1

  0
POLYLINE
  5
21D
330
21B
100
AcDbEntity
  8
0
  6
Continuous
 62
     7
100
AcDb2dPolyline
 66
     1
 10
0.0
 20
0.0
 30
0.0
 70
     1
 40
0.4000000100000002
 41
0.4000000100000002
  0
VERTEX
  5
21E
330
21D
100
AcDbEntity
  8
0
  6
Continuous
 62
     7
100
AcDbVertex
100
AcDb2dVertex
 10
-0.2
 20
0.0
 30
0.0
 42
1.0
  0
VERTEX
  5
21F
330
21D
100
AcDbEntity
  8
0
  6
Continuous
 62
     7
100
AcDbVertex
100
AcDb2dVertex
 10
0.2
 20
0.0
 30
0.0
 42
1.0
  0
SEQEND
  5
220
330
21D
100
AcDbEntity
  8
0
  6
Continuous
 62
     7
  0
ENDBLK
  5
221
330
21B
100
AcDbEntity
  8
0
100
AcDbBlockEnd
  0
BLOCK
  5
223
330
222
100
AcDbEntity
  8
0
100
AcDbBlockBegin
  2
KOZU0065
 70
     0
 10
0.0
 20
0.0
 30
0.0
  3
KOZU0065
  1

  0
POLYLINE
  5
224
330
222
100
AcDbEntity
  8
0
  6
Continuous
 62
     7
100
AcDb2dPolyline
 66
     1
 10
0.0
 20
0.0
 30
0.0
 70
     1
 40
0.4000000100000002
 41
0.4000000100000002
  0
VERTEX
  5
225
330
224
100
AcDbEntity
  8
0
  6
Continuous
 62
     7
100
AcDbVertex
100
AcDb2dVertex
 10
-0.2
 20
0.0
 30
0.0
 42
1.0
  0
VERTEX
  5
226
330
224
100
AcDbEntity
  8
0
  6
Continuous
 62
     7
100
AcDbVertex
100
AcDb2dVertex
 10
0.2
 20
0.0
 30
0.0
 42
1.0
  0
SEQEND
  5
227
330
224
100
AcDbEntity
  8
0
  6
Continuous
 62
     7
  0
ENDBLK
  5
228
330
222
100
AcDbEntity
  8
0
100
AcDbBlockEnd
  0
BLOCK
  5
22A
330
229
100
AcDbEntity
  8
0
100
AcDbBlockBegin
  2
KOZU0066
 70
     0
 10
0.0
 20
0.0
 30
0.0
  3
KOZU0066
  1

  0
POLYLINE
  5
22B
330
229
100
AcDbEntity
  8
0
  6
Continuous
 62
     7
100
AcDb2dPolyline
 66
     1
 10
0.0
 20
0.0
 30
0.0
 70
     1
 40
0.4000000100000002
 41
0.4000000100000002
  0
VERTEX
  5
22C
330
22B
100
AcDbEntity
  8
0
  6
Continuous
 62
     7
100
AcDbVertex
100
AcDb2dVertex
 10
-0.2
 20
0.0
 30
0.0
 42
1.0
  0
VERTEX
  5
22D
330
22B
100
AcDbEntity
  8
0
  6
Continuous
 62
     7
100
AcDbVertex
100
AcDb2dVertex
 10
0.2
 20
0.0
 30
0.0
 42
1.0
  0
SEQEND
  5
22E
330
22B
100
AcDbEntity
  8
0
  6
Continuous
 62
     7
  0
ENDBLK
  5
22F
330
229
100
AcDbEntity
  8
0
100
AcDbBlockEnd
  0
BLOCK
  5
231
330
230
100
AcDbEntity
  8
0
100
AcDbBlockBegin
  2
KOZU0067
 70
     0
 10
0.0
 20
0.0
 30
0.0
  3
KOZU0067
  1

  0
POLYLINE
  5
232
330
230
100
AcDbEntity
  8
0
  6
Continuous
 62
     7
100
AcDb2dPolyline
 66
     1
 10
0.0
 20
0.0
 30
0.0
 70
     1
 40
0.4000000100000002
 41
0.4000000100000002
  0
VERTEX
  5
233
330
232
100
AcDbEntity
  8
0
  6
Continuous
 62
     7
100
AcDbVertex
100
AcDb2dVertex
 10
-0.2
 20
0.0
 30
0.0
 42
1.0
  0
VERTEX
  5
234
330
232
100
AcDbEntity
  8
0
  6
Continuous
 62
     7
100
AcDbVertex
100
AcDb2dVertex
 10
0.2
 20
0.0
 30
0.0
 42
1.0
  0
SEQEND
  5
235
330
232
100
AcDbEntity
  8
0
  6
Continuous
 62
     7
  0
ENDBLK
  5
236
330
230
100
AcDbEntity
  8
0
100
AcDbBlockEnd
  0
BLOCK
  5
238
330
237
100
AcDbEntity
  8
0
100
AcDbBlockBegin
  2
KOZU0068
 70
     0
 10
0.0
 20
0.0
 30
0.0
  3
KOZU0068
  1

  0
POLYLINE
  5
239
330
237
100
AcDbEntity
  8
0
  6
Continuous
 62
     7
100
AcDb2dPolyline
 66
     1
 10
0.0
 20
0.0
 30
0.0
 70
     1
 40
0.4000000100000002
 41
0.4000000100000002
  0
VERTEX
  5
23A
330
239
100
AcDbEntity
  8
0
  6
Continuous
 62
     7
100
AcDbVertex
100
AcDb2dVertex
 10
-0.2
 20
0.0
 30
0.0
 42
1.0
  0
VERTEX
  5
23B
330
239
100
AcDbEntity
  8
0
  6
Continuous
 62
     7
100
AcDbVertex
100
AcDb2dVertex
 10
0.2
 20
0.0
 30
0.0
 42
1.0
  0
SEQEND
  5
23C
330
239
100
AcDbEntity
  8
0
  6
Continuous
 62
     7
  0
ENDBLK
  5
23D
330
237
100
AcDbEntity
  8
0
100
AcDbBlockEnd
  0
BLOCK
  5
23F
330
23E
100
AcDbEntity
  8
0
100
AcDbBlockBegin
  2
KOZU0069
 70
     0
 10
0.0
 20
0.0
 30
0.0
  3
KOZU0069
  1

  0
POLYLINE
  5
240
330
23E
100
AcDbEntity
  8
0
  6
Continuous
 62
     7
100
AcDb2dPolyline
 66
     1
 10
0.0
 20
0.0
 30
0.0
 70
     1
 40
0.4000000100000002
 41
0.4000000100000002
  0
VERTEX
  5
241
330
240
100
AcDbEntity
  8
0
  6
Continuous
 62
     7
100
AcDbVertex
100
AcDb2dVertex
 10
-0.2
 20
0.0
 30
0.0
 42
1.0
  0
VERTEX
  5
242
330
240
100
AcDbEntity
  8
0
  6
Continuous
 62
     7
100
AcDbVertex
100
AcDb2dVertex
 10
0.2
 20
0.0
 30
0.0
 42
1.0
  0
SEQEND
  5
243
330
240
100
AcDbEntity
  8
0
  6
Continuous
 62
     7
  0
ENDBLK
  5
244
330
23E
100
AcDbEntity
  8
0
100
AcDbBlockEnd
  0
BLOCK
  5
246
330
245
100
AcDbEntity
  8
0
100
AcDbBlockBegin
  2
KOZU0070
 70
     0
 10
0.0
 20
0.0
 30
0.0
  3
KOZU0070
  1

  0
POLYLINE
  5
247
330
245
100
AcDbEntity
  8
0
  6
Continuous
 62
     7
100
AcDb2dPolyline
 66
     1
 10
0.0
 20
0.0
 30
0.0
 70
     1
 40
0.4000000100000002
 41
0.4000000100000002
  0
VERTEX
  5
248
330
247
100
AcDbEntity
  8
0
  6
Continuous
 62
     7
100
AcDbVertex
100
AcDb2dVertex
 10
-0.2
 20
0.0
 30
0.0
 42
1.0
  0
VERTEX
  5
249
330
247
100
AcDbEntity
  8
0
  6
Continuous
 62
     7
100
AcDbVertex
100
AcDb2dVertex
 10
0.2
 20
0.0
 30
0.0
 42
1.0
  0
SEQEND
  5
24A
330
247
100
AcDbEntity
  8
0
  6
Continuous
 62
     7
  0
ENDBLK
  5
24B
330
245
100
AcDbEntity
  8
0
100
AcDbBlockEnd
  0
BLOCK
  5
24D
330
24C
100
AcDbEntity
  8
0
100
AcDbBlockBegin
  2
KOZU0071
 70
     0
 10
0.0
 20
0.0
 30
0.0
  3
KOZU0071
  1

  0
POLYLINE
  5
24E
330
24C
100
AcDbEntity
  8
0
  6
Continuous
 62
     7
100
AcDb2dPolyline
 66
     1
 10
0.0
 20
0.0
 30
0.0
 70
     1
 40
0.4000000100000002
 41
0.4000000100000002
  0
VERTEX
  5
24F
330
24E
100
AcDbEntity
  8
0
  6
Continuous
 62
     7
100
AcDbVertex
100
AcDb2dVertex
 10
-0.2
 20
0.0
 30
0.0
 42
1.0
  0
VERTEX
  5
250
330
24E
100
AcDbEntity
  8
0
  6
Continuous
 62
     7
100
AcDbVertex
100
AcDb2dVertex
 10
0.2
 20
0.0
 30
0.0
 42
1.0
  0
SEQEND
  5
251
330
24E
100
AcDbEntity
  8
0
  6
Continuous
 62
     7
  0
ENDBLK
  5
252
330
24C
100
AcDbEntity
  8
0
100
AcDbBlockEnd
  0
BLOCK
  5
254
330
253
100
AcDbEntity
  8
0
100
AcDbBlockBegin
  2
KOZU0072
 70
     0
 10
0.0
 20
0.0
 30
0.0
  3
KOZU0072
  1

  0
POLYLINE
  5
255
330
253
100
AcDbEntity
  8
0
  6
Continuous
 62
     7
100
AcDb2dPolyline
 66
     1
 10
0.0
 20
0.0
 30
0.0
 70
     1
 40
0.4000000100000002
 41
0.4000000100000002
  0
VERTEX
  5
256
330
255
100
AcDbEntity
  8
0
  6
Continuous
 62
     7
100
AcDbVertex
100
AcDb2dVertex
 10
-0.2
 20
0.0
 30
0.0
 42
1.0
  0
VERTEX
  5
257
330
255
100
AcDbEntity
  8
0
  6
Continuous
 62
     7
100
AcDbVertex
100
AcDb2dVertex
 10
0.2
 20
0.0
 30
0.0
 42
1.0
  0
SEQEND
  5
258
330
255
100
AcDbEntity
  8
0
  6
Continuous
 62
     7
  0
ENDBLK
  5
259
330
253
100
AcDbEntity
  8
0
100
AcDbBlockEnd
  0
BLOCK
  5
25B
330
25A
100
AcDbEntity
  8
0
100
AcDbBlockBegin
  2
KOZU0073
 70
     0
 10
0.0
 20
0.0
 30
0.0
  3
KOZU0073
  1

  0
POLYLINE
  5
25C
330
25A
100
AcDbEntity
  8
0
  6
Continuous
 62
     7
100
AcDb2dPolyline
 66
     1
 10
0.0
 20
0.0
 30
0.0
 70
     1
 40
0.4000000100000002
 41
0.4000000100000002
  0
VERTEX
  5
25D
330
25C
100
AcDbEntity
  8
0
  6
Continuous
 62
     7
100
AcDbVertex
100
AcDb2dVertex
 10
-0.2
 20
0.0
 30
0.0
 42
1.0
  0
VERTEX
  5
25E
330
25C
100
AcDbEntity
  8
0
  6
Continuous
 62
     7
100
AcDbVertex
100
AcDb2dVertex
 10
0.2
 20
0.0
 30
0.0
 42
1.0
  0
SEQEND
  5
25F
330
25C
100
AcDbEntity
  8
0
  6
Continuous
 62
     7
  0
ENDBLK
  5
260
330
25A
100
AcDbEntity
  8
0
100
AcDbBlockEnd
  0
BLOCK
  5
262
330
261
100
AcDbEntity
  8
0
100
AcDbBlockBegin
  2
KOZU0074
 70
     0
 10
0.0
 20
0.0
 30
0.0
  3
KOZU0074
  1

  0
POLYLINE
  5
263
330
261
100
AcDbEntity
  8
0
  6
Continuous
 62
     7
100
AcDb2dPolyline
 66
     1
 10
0.0
 20
0.0
 30
0.0
 70
     1
 40
0.4000000100000002
 41
0.4000000100000002
  0
VERTEX
  5
264
330
263
100
AcDbEntity
  8
0
  6
Continuous
 62
     7
100
AcDbVertex
100
AcDb2dVertex
 10
-0.2
 20
0.0
 30
0.0
 42
1.0
  0
VERTEX
  5
265
330
263
100
AcDbEntity
  8
0
  6
Continuous
 62
     7
100
AcDbVertex
100
AcDb2dVertex
 10
0.2
 20
0.0
 30
0.0
 42
1.0
  0
SEQEND
  5
266
330
263
100
AcDbEntity
  8
0
  6
Continuous
 62
     7
  0
ENDBLK
  5
267
330
261
100
AcDbEntity
  8
0
100
AcDbBlockEnd
  0
BLOCK
  5
269
330
268
100
AcDbEntity
  8
0
100
AcDbBlockBegin
  2
KOZU0075
 70
     0
 10
0.0
 20
0.0
 30
0.0
  3
KOZU0075
  1

  0
POLYLINE
  5
26A
330
268
100
AcDbEntity
  8
0
  6
Continuous
 62
     7
100
AcDb2dPolyline
 66
     1
 10
0.0
 20
0.0
 30
0.0
 70
     1
 40
0.4000000100000002
 41
0.4000000100000002
  0
VERTEX
  5
26B
330
26A
100
AcDbEntity
  8
0
  6
Continuous
 62
     7
100
AcDbVertex
100
AcDb2dVertex
 10
-0.2
 20
0.0
 30
0.0
 42
1.0
  0
VERTEX
  5
26C
330
26A
100
AcDbEntity
  8
0
  6
Continuous
 62
     7
100
AcDbVertex
100
AcDb2dVertex
 10
0.2
 20
0.0
 30
0.0
 42
1.0
  0
SEQEND
  5
26D
330
26A
100
AcDbEntity
  8
0
  6
Continuous
 62
     7
  0
ENDBLK
  5
26E
330
268
100
AcDbEntity
  8
0
100
AcDbBlockEnd
  0
BLOCK
  5
270
330
26F
100
AcDbEntity
  8
0
100
AcDbBlockBegin
  2
KOZU0076
 70
     0
 10
0.0
 20
0.0
 30
0.0
  3
KOZU0076
  1

  0
POLYLINE
  5
271
330
26F
100
AcDbEntity
  8
0
  6
Continuous
 62
     7
100
AcDb2dPolyline
 66
     1
 10
0.0
 20
0.0
 30
0.0
 70
     1
 40
0.4000000100000002
 41
0.4000000100000002
  0
VERTEX
  5
272
330
271
100
AcDbEntity
  8
0
  6
Continuous
 62
     7
100
AcDbVertex
100
AcDb2dVertex
 10
-0.2
 20
0.0
 30
0.0
 42
1.0
  0
VERTEX
  5
273
330
271
100
AcDbEntity
  8
0
  6
Continuous
 62
     7
100
AcDbVertex
100
AcDb2dVertex
 10
0.2
 20
0.0
 30
0.0
 42
1.0
  0
SEQEND
  5
274
330
271
100
AcDbEntity
  8
0
  6
Continuous
 62
     7
  0
ENDBLK
  5
275
330
26F
100
AcDbEntity
  8
0
100
AcDbBlockEnd
  0
BLOCK
  5
277
330
276
100
AcDbEntity
  8
0
100
AcDbBlockBegin
  2
KOZU0077
 70
     0
 10
0.0
 20
0.0
 30
0.0
  3
KOZU0077
  1

  0
POLYLINE
  5
278
330
276
100
AcDbEntity
  8
0
  6
Continuous
 62
     7
100
AcDb2dPolyline
 66
     1
 10
0.0
 20
0.0
 30
0.0
 70
     1
 40
0.4000000100000002
 41
0.4000000100000002
  0
VERTEX
  5
279
330
278
100
AcDbEntity
  8
0
  6
Continuous
 62
     7
100
AcDbVertex
100
AcDb2dVertex
 10
-0.2
 20
0.0
 30
0.0
 42
1.0
  0
VERTEX
  5
27A
330
278
100
AcDbEntity
  8
0
  6
Continuous
 62
     7
100
AcDbVertex
100
AcDb2dVertex
 10
0.2
 20
0.0
 30
0.0
 42
1.0
  0
SEQEND
  5
27B
330
278
100
AcDbEntity
  8
0
  6
Continuous
 62
     7
  0
ENDBLK
  5
27C
330
276
100
AcDbEntity
  8
0
100
AcDbBlockEnd
  0
BLOCK
  5
27E
330
27D
100
AcDbEntity
  8
0
100
AcDbBlockBegin
  2
KOZU0078
 70
     0
 10
0.0
 20
0.0
 30
0.0
  3
KOZU0078
  1

  0
POLYLINE
  5
27F
330
27D
100
AcDbEntity
  8
0
  6
Continuous
 62
     7
100
AcDb2dPolyline
 66
     1
 10
0.0
 20
0.0
 30
0.0
 70
     1
 40
0.4000000100000002
 41
0.4000000100000002
  0
VERTEX
  5
280
330
27F
100
AcDbEntity
  8
0
  6
Continuous
 62
     7
100
AcDbVertex
100
AcDb2dVertex
 10
-0.2
 20
0.0
 30
0.0
 42
1.0
  0
VERTEX
  5
281
330
27F
100
AcDbEntity
  8
0
  6
Continuous
 62
     7
100
AcDbVertex
100
AcDb2dVertex
 10
0.2
 20
0.0
 30
0.0
 42
1.0
  0
SEQEND
  5
282
330
27F
100
AcDbEntity
  8
0
  6
Continuous
 62
     7
  0
ENDBLK
  5
283
330
27D
100
AcDbEntity
  8
0
100
AcDbBlockEnd
  0
BLOCK
  5
285
330
284
100
AcDbEntity
  8
0
100
AcDbBlockBegin
  2
KOZU0079
 70
     0
 10
0.0
 20
0.0
 30
0.0
  3
KOZU0079
  1

  0
POLYLINE
  5
286
330
284
100
AcDbEntity
  8
0
  6
Continuous
 62
     7
100
AcDb2dPolyline
 66
     1
 10
0.0
 20
0.0
 30
0.0
 70
     1
 40
0.4000000100000002
 41
0.4000000100000002
  0
VERTEX
  5
287
330
286
100
AcDbEntity
  8
0
  6
Continuous
 62
     7
100
AcDbVertex
100
AcDb2dVertex
 10
-0.2
 20
0.0
 30
0.0
 42
1.0
  0
VERTEX
  5
288
330
286
100
AcDbEntity
  8
0
  6
Continuous
 62
     7
100
AcDbVertex
100
AcDb2dVertex
 10
0.2
 20
0.0
 30
0.0
 42
1.0
  0
SEQEND
  5
289
330
286
100
AcDbEntity
  8
0
  6
Continuous
 62
     7
  0
ENDBLK
  5
28A
330
284
100
AcDbEntity
  8
0
100
AcDbBlockEnd
  0
BLOCK
  5
28C
330
28B
100
AcDbEntity
  8
0
100
AcDbBlockBegin
  2
KOZU0080
 70
     0
 10
0.0
 20
0.0
 30
0.0
  3
KOZU0080
  1

  0
POLYLINE
  5
28D
330
28B
100
AcDbEntity
  8
0
  6
Continuous
 62
     7
100
AcDb2dPolyline
 66
     1
 10
0.0
 20
0.0
 30
0.0
 70
     1
 40
0.4000000100000002
 41
0.4000000100000002
  0
VERTEX
  5
28E
330
28D
100
AcDbEntity
  8
0
  6
Continuous
 62
     7
100
AcDbVertex
100
AcDb2dVertex
 10
-0.2
 20
0.0
 30
0.0
 42
1.0
  0
VERTEX
  5
28F
330
28D
100
AcDbEntity
  8
0
  6
Continuous
 62
     7
100
AcDbVertex
100
AcDb2dVertex
 10
0.2
 20
0.0
 30
0.0
 42
1.0
  0
SEQEND
  5
290
330
28D
100
AcDbEntity
  8
0
  6
Continuous
 62
     7
  0
ENDBLK
  5
291
330
28B
100
AcDbEntity
  8
0
100
AcDbBlockEnd
  0
BLOCK
  5
293
330
292
100
AcDbEntity
  8
0
100
AcDbBlockBegin
  2
KOZU0081
 70
     0
 10
0.0
 20
0.0
 30
0.0
  3
KOZU0081
  1

  0
POLYLINE
  5
294
330
292
100
AcDbEntity
  8
0
  6
Continuous
 62
     7
100
AcDb2dPolyline
 66
     1
 10
0.0
 20
0.0
 30
0.0
 70
     1
 40
0.4000000100000002
 41
0.4000000100000002
  0
VERTEX
  5
295
330
294
100
AcDbEntity
  8
0
  6
Continuous
 62
     7
100
AcDbVertex
100
AcDb2dVertex
 10
-0.2
 20
0.0
 30
0.0
 42
1.0
  0
VERTEX
  5
296
330
294
100
AcDbEntity
  8
0
  6
Continuous
 62
     7
100
AcDbVertex
100
AcDb2dVertex
 10
0.2
 20
0.0
 30
0.0
 42
1.0
  0
SEQEND
  5
297
330
294
100
AcDbEntity
  8
0
  6
Continuous
 62
     7
  0
ENDBLK
  5
298
330
292
100
AcDbEntity
  8
0
100
AcDbBlockEnd
  0
BLOCK
  5
29A
330
299
100
AcDbEntity
  8
0
100
AcDbBlockBegin
  2
KOZU0082
 70
     0
 10
0.0
 20
0.0
 30
0.0
  3
KOZU0082
  1

  0
POLYLINE
  5
29B
330
299
100
AcDbEntity
  8
0
  6
Continuous
 62
     7
100
AcDb2dPolyline
 66
     1
 10
0.0
 20
0.0
 30
0.0
 70
     1
 40
0.4000000100000002
 41
0.4000000100000002
  0
VERTEX
  5
29C
330
29B
100
AcDbEntity
  8
0
  6
Continuous
 62
     7
100
AcDbVertex
100
AcDb2dVertex
 10
-0.2
 20
0.0
 30
0.0
 42
1.0
  0
VERTEX
  5
29D
330
29B
100
AcDbEntity
  8
0
  6
Continuous
 62
     7
100
AcDbVertex
100
AcDb2dVertex
 10
0.2
 20
0.0
 30
0.0
 42
1.0
  0
SEQEND
  5
29E
330
29B
100
AcDbEntity
  8
0
  6
Continuous
 62
     7
  0
ENDBLK
  5
29F
330
299
100
AcDbEntity
  8
0
100
AcDbBlockEnd
  0
BLOCK
  5
2A1
330
2A0
100
AcDbEntity
  8
0
100
AcDbBlockBegin
  2
KOZU0083
 70
     0
 10
0.0
 20
0.0
 30
0.0
  3
KOZU0083
  1

  0
POLYLINE
  5
2A2
330
2A0
100
AcDbEntity
  8
0
  6
Continuous
 62
     7
100
AcDb2dPolyline
 66
     1
 10
0.0
 20
0.0
 30
0.0
 70
     1
 40
0.4000000100000002
 41
0.4000000100000002
  0
VERTEX
  5
2A3
330
2A2
100
AcDbEntity
  8
0
  6
Continuous
 62
     7
100
AcDbVertex
100
AcDb2dVertex
 10
-0.2
 20
0.0
 30
0.0
 42
1.0
  0
VERTEX
  5
2A4
330
2A2
100
AcDbEntity
  8
0
  6
Continuous
 62
     7
100
AcDbVertex
100
AcDb2dVertex
 10
0.2
 20
0.0
 30
0.0
 42
1.0
  0
SEQEND
  5
2A5
330
2A2
100
AcDbEntity
  8
0
  6
Continuous
 62
     7
  0
ENDBLK
  5
2A6
330
2A0
100
AcDbEntity
  8
0
100
AcDbBlockEnd
  0
BLOCK
  5
2A8
330
2A7
100
AcDbEntity
  8
0
100
AcDbBlockBegin
  2
KOZU0084
 70
     0
 10
0.0
 20
0.0
 30
0.0
  3
KOZU0084
  1

  0
POLYLINE
  5
2A9
330
2A7
100
AcDbEntity
  8
0
  6
Continuous
 62
     7
100
AcDb2dPolyline
 66
     1
 10
0.0
 20
0.0
 30
0.0
 70
     1
 40
0.4000000100000002
 41
0.4000000100000002
  0
VERTEX
  5
2AA
330
2A9
100
AcDbEntity
  8
0
  6
Continuous
 62
     7
100
AcDbVertex
100
AcDb2dVertex
 10
-0.2
 20
0.0
 30
0.0
 42
1.0
  0
VERTEX
  5
2AB
330
2A9
100
AcDbEntity
  8
0
  6
Continuous
 62
     7
100
AcDbVertex
100
AcDb2dVertex
 10
0.2
 20
0.0
 30
0.0
 42
1.0
  0
SEQEND
  5
2AC
330
2A9
100
AcDbEntity
  8
0
  6
Continuous
 62
     7
  0
ENDBLK
  5
2AD
330
2A7
100
AcDbEntity
  8
0
100
AcDbBlockEnd
  0
BLOCK
  5
2AF
330
2AE
100
AcDbEntity
  8
0
100
AcDbBlockBegin
  2
KOZU0085
 70
     0
 10
0.0
 20
0.0
 30
0.0
  3
KOZU0085
  1

  0
POLYLINE
  5
2B0
330
2AE
100
AcDbEntity
  8
0
  6
Continuous
 62
     7
100
AcDb2dPolyline
 66
     1
 10
0.0
 20
0.0
 30
0.0
 70
     1
 40
0.4000000100000002
 41
0.4000000100000002
  0
VERTEX
  5
2B1
330
2B0
100
AcDbEntity
  8
0
  6
Continuous
 62
     7
100
AcDbVertex
100
AcDb2dVertex
 10
-0.2
 20
0.0
 30
0.0
 42
1.0
  0
VERTEX
  5
2B2
330
2B0
100
AcDbEntity
  8
0
  6
Continuous
 62
     7
100
AcDbVertex
100
AcDb2dVertex
 10
0.2
 20
0.0
 30
0.0
 42
1.0
  0
SEQEND
  5
2B3
330
2B0
100
AcDbEntity
  8
0
  6
Continuous
 62
     7
  0
ENDBLK
  5
2B4
330
2AE
100
AcDbEntity
  8
0
100
AcDbBlockEnd
  0
BLOCK
  5
2B6
330
2B5
100
AcDbEntity
  8
0
100
AcDbBlockBegin
  2
KOZU0086
 70
     0
 10
0.0
 20
0.0
 30
0.0
  3
KOZU0086
  1

  0
POLYLINE
  5
2B7
330
2B5
100
AcDbEntity
  8
0
  6
Continuous
 62
     7
100
AcDb2dPolyline
 66
     1
 10
0.0
 20
0.0
 30
0.0
 70
     1
 40
0.4000000100000002
 41
0.4000000100000002
  0
VERTEX
  5
2B8
330
2B7
100
AcDbEntity
  8
0
  6
Continuous
 62
     7
100
AcDbVertex
100
AcDb2dVertex
 10
-0.2
 20
0.0
 30
0.0
 42
1.0
  0
VERTEX
  5
2B9
330
2B7
100
AcDbEntity
  8
0
  6
Continuous
 62
     7
100
AcDbVertex
100
AcDb2dVertex
 10
0.2
 20
0.0
 30
0.0
 42
1.0
  0
SEQEND
  5
2BA
330
2B7
100
AcDbEntity
  8
0
  6
Continuous
 62
     7
  0
ENDBLK
  5
2BB
330
2B5
100
AcDbEntity
  8
0
100
AcDbBlockEnd
  0
BLOCK
  5
2BD
330
2BC
100
AcDbEntity
  8
0
100
AcDbBlockBegin
  2
KOZU0087
 70
     0
 10
0.0
 20
0.0
 30
0.0
  3
KOZU0087
  1

  0
POLYLINE
  5
2BE
330
2BC
100
AcDbEntity
  8
0
  6
Continuous
 62
     7
100
AcDb2dPolyline
 66
     1
 10
0.0
 20
0.0
 30
0.0
 70
     1
 40
0.4000000100000002
 41
0.4000000100000002
  0
VERTEX
  5
2BF
330
2BE
100
AcDbEntity
  8
0
  6
Continuous
 62
     7
100
AcDbVertex
100
AcDb2dVertex
 10
-0.2
 20
0.0
 30
0.0
 42
1.0
  0
VERTEX
  5
2C0
330
2BE
100
AcDbEntity
  8
0
  6
Continuous
 62
     7
100
AcDbVertex
100
AcDb2dVertex
 10
0.2
 20
0.0
 30
0.0
 42
1.0
  0
SEQEND
  5
2C1
330
2BE
100
AcDbEntity
  8
0
  6
Continuous
 62
     7
  0
ENDBLK
  5
2C2
330
2BC
100
AcDbEntity
  8
0
100
AcDbBlockEnd
  0
BLOCK
  5
2C4
330
2C3
100
AcDbEntity
  8
0
100
AcDbBlockBegin
  2
KOZU0088
 70
     0
 10
0.0
 20
0.0
 30
0.0
  3
KOZU0088
  1

  0
POLYLINE
  5
2C5
330
2C3
100
AcDbEntity
  8
0
  6
Continuous
 62
     7
100
AcDb2dPolyline
 66
     1
 10
0.0
 20
0.0
 30
0.0
 70
     1
 40
0.4000000100000002
 41
0.4000000100000002
  0
VERTEX
  5
2C6
330
2C5
100
AcDbEntity
  8
0
  6
Continuous
 62
     7
100
AcDbVertex
100
AcDb2dVertex
 10
-0.2
 20
0.0
 30
0.0
 42
1.0
  0
VERTEX
  5
2C7
330
2C5
100
AcDbEntity
  8
0
  6
Continuous
 62
     7
100
AcDbVertex
100
AcDb2dVertex
 10
0.2
 20
0.0
 30
0.0
 42
1.0
  0
SEQEND
  5
2C8
330
2C5
100
AcDbEntity
  8
0
  6
Continuous
 62
     7
  0
ENDBLK
  5
2C9
330
2C3
100
AcDbEntity
  8
0
100
AcDbBlockEnd
  0
BLOCK
  5
2CB
330
2CA
100
AcDbEntity
  8
0
100
AcDbBlockBegin
  2
KOZU0089
 70
     0
 10
0.0
 20
0.0
 30
0.0
  3
KOZU0089
  1

  0
POLYLINE
  5
2CC
330
2CA
100
AcDbEntity
  8
0
  6
Continuous
 62
     7
100
AcDb2dPolyline
 66
     1
 10
0.0
 20
0.0
 30
0.0
 70
     1
 40
0.4000000100000002
 41
0.4000000100000002
  0
VERTEX
  5
2CD
330
2CC
100
AcDbEntity
  8
0
  6
Continuous
 62
     7
100
AcDbVertex
100
AcDb2dVertex
 10
-0.2
 20
0.0
 30
0.0
 42
1.0
  0
VERTEX
  5
2CE
330
2CC
100
AcDbEntity
  8
0
  6
Continuous
 62
     7
100
AcDbVertex
100
AcDb2dVertex
 10
0.2
 20
0.0
 30
0.0
 42
1.0
  0
SEQEND
  5
2CF
330
2CC
100
AcDbEntity
  8
0
  6
Continuous
 62
     7
  0
ENDBLK
  5
2D0
330
2CA
100
AcDbEntity
  8
0
100
AcDbBlockEnd
  0
BLOCK
  5
2D2
330
2D1
100
AcDbEntity
  8
0
100
AcDbBlockBegin
  2
KOZU0090
 70
     0
 10
0.0
 20
0.0
 30
0.0
  3
KOZU0090
  1

  0
POLYLINE
  5
2D3
330
2D1
100
AcDbEntity
  8
0
  6
Continuous
 62
     7
100
AcDb2dPolyline
 66
     1
 10
0.0
 20
0.0
 30
0.0
 70
     1
 40
0.4000000100000002
 41
0.4000000100000002
  0
VERTEX
  5
2D4
330
2D3
100
AcDbEntity
  8
0
  6
Continuous
 62
     7
100
AcDbVertex
100
AcDb2dVertex
 10
-0.2
 20
0.0
 30
0.0
 42
1.0
  0
VERTEX
  5
2D5
330
2D3
100
AcDbEntity
  8
0
  6
Continuous
 62
     7
100
AcDbVertex
100
AcDb2dVertex
 10
0.2
 20
0.0
 30
0.0
 42
1.0
  0
SEQEND
  5
2D6
330
2D3
100
AcDbEntity
  8
0
  6
Continuous
 62
     7
  0
ENDBLK
  5
2D7
330
2D1
100
AcDbEntity
  8
0
100
AcDbBlockEnd
  0
BLOCK
  5
6B8
330
6B6
100
AcDbEntity
  8
0
100
AcDbBlockBegin
  2
GENAXEH
 70
     0
 10
0.0
 20
0.0
 30
0.0
  3
GENAXEH
  1

  0
LINE
  5
6B7
330
6B6
100
AcDbEntity
  8
0
100
AcDbLine
 10
-1.0
 20
0.0
 30
0.0
 11
1.0
 21
0.0
 31
0.0
  0
ENDBLK
  5
6B9
330
6B6
100
AcDbEntity
  8
0
100
AcDbBlockEnd
  0
ENDSEC
  0
SECTION
  2
ENTITIES
  0
POINT
  5
2DF
330
36
100
AcDbEntity
  8
0
  6
Continuous
 62
     3
100
AcDbPoint
 10
239.39058
 20
1774.2197
 30
0.0
  0
POINT
  5
2E0
330
36
100
AcDbEntity
  8
0
  6
Continuous
 62
     3
100
AcDbPoint
 10
248.39058
 20
1773.4697
 30
0.0
  0
POINT
  5
2E1
330
36
100
AcDbEntity
  8
0
  6
Continuous
 62
     3
100
AcDbPoint
 10
248.39058
 20
1834.8798
 30
0.0
  0
POINT
  5
2E2
330
36
100
AcDbEntity
  8
0
  6
Continuous
 62
     3
100
AcDbPoint
 10
248.39058
 20
1773.4697
 30
0.0
  0
POINT
  5
2E3
330
36
100
AcDbEntity
  8
0
  6
Continuous
 62
     3
100
AcDbPoint
 10
276.39056
 20
1773.4697
 30
0.0
  0
POINT
  5
2E4
330
36
100
AcDbEntity
  8
0
  6
Continuous
 62
     3
100
AcDbPoint
 10
276.39056
 20
1834.8798
 30
0.0
  0
POINT
  5
2E5
330
36
100
AcDbEntity
  8
0
  6
Continuous
 62
     3
100
AcDbPoint
 10
276.39056
 20
1773.4697
 30
0.0
  0
POINT
  5
2E6
330
36
100
AcDbEntity
  8
0
  6
Continuous
 62
     3
100
AcDbPoint
 10
285.39056
 20
1774.2197
 30
0.0
  0
POINT
  5
2E7
330
36
100
AcDbEntity
  8
0
  6
Continuous
 62
     3
100
AcDbPoint
 10
285.39056
 20
1834.8798
 30
0.0
  0
POINT
  5
2E8
330
36
100
AcDbEntity
  8
0
  6
Continuous
 62
     3
100
AcDbPoint
 10
239.39058
 20
1790.869
 30
0.0
  0
POINT
  5
2E9
330
36
100
AcDbEntity
  8
0
  6
Continuous
 62
     3
100
AcDbPoint
 10
285.39056
 20
1790.869
 30
0.0
  0
POINT
  5
2EA
330
36
100
AcDbEntity
  8
0
  6
Continuous
 62
     3
100
AcDbPoint
 10
285.39056
 20
1844.8798
 30
0.0
  0
POINT
  5
2EB
330
36
100
AcDbEntity
  8
0
  6
Continuous
 62
     3
100
AcDbPoint
 10
285.39056
 20
1774.2197
 30
0.0
  0
POINT
  5
2EC
330
36
100
AcDbEntity
  8
0
  6
Continuous
 62
     3
100
AcDbPoint
 10
283.64056
 20
1766.2197
 30
0.0
  0
POINT
  5
2ED
330
36
100
AcDbEntity
  8
0
  6
Continuous
 62
     3
100
AcDbPoint
 10
310.38058
 20
1766.2197
 30
0.0
  0
POINT
  5
2EE
330
36
100
AcDbEntity
  8
0
  6
Continuous
 62
     3
100
AcDbPoint
 10
283.64056
 20
1766.2197
 30
0.0
  0
POINT
  5
2EF
330
36
100
AcDbEntity
  8
0
  6
Continuous
 62
     3
100
AcDbPoint
 10
283.64056
 20
1734.2197
 30
0.0
  0
POINT
  5
2F0
330
36
100
AcDbEntity
  8
0
  6
Continuous
 62
     3
100
AcDbPoint
 10
310.38058
 20
1734.2197
 30
0.0
  0
POINT
  5
2F1
330
36
100
AcDbEntity
  8
0
  6
Continuous
 62
     3
100
AcDbPoint
 10
283.64056
 20
1734.2197
 30
0.0
  0
POINT
  5
2F2
330
36
100
AcDbEntity
  8
0
  6
Continuous
 62
     3
100
AcDbPoint
 10
283.64056
 20
1702.2197
 30
0.0
  0
POINT
  5
2F3
330
36
100
AcDbEntity
  8
0
  6
Continuous
 62
     3
100
AcDbPoint
 10
310.38058
 20
1702.2197
 30
0.0
  0
POINT
  5
2F4
330
36
100
AcDbEntity
  8
0
  6
Continuous
 62
     3
100
AcDbPoint
 10
283.64056
 20
1702.2197
 30
0.0
  0
POINT
  5
2F5
330
36
100
AcDbEntity
  8
0
  6
Continuous
 62
     3
100
AcDbPoint
 10
285.39056
 20
1694.2197
 30
0.0
  0
POINT
  5
2F6
330
36
100
AcDbEntity
  8
0
  6
Continuous
 62
     3
100
AcDbPoint
 10
310.38058
 20
1694.2197
 30
0.0
  0
POINT
  5
2F7
330
36
100
AcDbEntity
  8
0
  6
Continuous
 62
     3
100
AcDbPoint
 10
285.39056
 20
1774.2197
 30
0.0
  0
POINT
  5
2F8
330
36
100
AcDbEntity
  8
0
  6
Continuous
 62
     3
100
AcDbPoint
 10
285.39056
 20
1694.2197
 30
0.0
  0
POINT
  5
2F9
330
36
100
AcDbEntity
  8
0
  6
Continuous
 62
     3
100
AcDbPoint
 10
320.38058
 20
1694.2197
 30
0.0
  0
POINT
  5
2FA
330
36
100
AcDbEntity
  8
0
  6
Continuous
 62
     3
100
AcDbPoint
 10
285.39056
 20
1675.0074
 30
0.0
  0
POINT
  5
2FB
330
36
100
AcDbEntity
  8
0
  6
Continuous
 62
     3
100
AcDbPoint
 10
285.39056
 20
1652.0074
 30
0.0
  0
POINT
  5
2FC
330
36
100
AcDbEntity
  8
0
  6
Continuous
 62
     3
100
AcDbPoint
 10
300.39056
 20
1652.0074
 30
0.0
  0
POINT
  5
2FD
330
36
100
AcDbEntity
  8
0
  6
Continuous
 62
     3
100
AcDbPoint
 10
287.39056
 20
1588.6688
 30
0.0
  0
POINT
  5
2FE
330
36
100
AcDbEntity
  8
0
  6
Continuous
 62
     3
100
AcDbPoint
 10
287.39056
 20
1587.1688
 30
0.0
  0
POINT
  5
2FF
330
36
100
AcDbEntity
  8
0
  6
Continuous
 62
     3
100
AcDbPoint
 10
300.39056
 20
1587.1688
 30
0.0
  0
POINT
  5
300
330
36
100
AcDbEntity
  8
0
  6
Continuous
 62
     3
100
AcDbPoint
 10
256.39056
 20
1573.7708
 30
0.0
  0
POINT
  5
301
330
36
100
AcDbEntity
  8
0
  6
Continuous
 62
     3
100
AcDbPoint
 10
268.39056
 20
1573.7708
 30
0.0
  0
POINT
  5
302
330
36
100
AcDbEntity
  8
0
  6
Continuous
 62
     3
100
AcDbPoint
 10
268.39056
 20
1555.4407
 30
0.0
  0
POINT
  5
303
330
36
100
AcDbEntity
  8
0
  6
Continuous
 62
     3
100
AcDbPoint
 10
237.39058
 20
1586.4338
 30
0.0
  0
POINT
  5
304
330
36
100
AcDbEntity
  8
0
  6
Continuous
 62
     3
100
AcDbPoint
 10
244.89058
 20
1583.4338
 30
0.0
  0
POINT
  5
305
330
36
100
AcDbEntity
  8
0
  6
Continuous
 62
     3
100
AcDbPoint
 10
244.89058
 20
1545.4407
 30
0.0
  0
POINT
  5
306
330
36
100
AcDbEntity
  8
0
  6
Continuous
 62
     3
100
AcDbPoint
 10
244.89058
 20
1583.4338
 30
0.0
  0
POINT
  5
307
330
36
100
AcDbEntity
  8
0
  6
Continuous
 62
     3
100
AcDbPoint
 10
279.89056
 20
1583.4338
 30
0.0
  0
POINT
  5
308
330
36
100
AcDbEntity
  8
0
  6
Continuous
 62
     3
100
AcDbPoint
 10
279.89056
 20
1545.4407
 30
0.0
  0
POINT
  5
309
330
36
100
AcDbEntity
  8
0
  6
Continuous
 62
     3
100
AcDbPoint
 10
279.89056
 20
1583.4338
 30
0.0
  0
POINT
  5
30A
330
36
100
AcDbEntity
  8
0
  6
Continuous
 62
     3
100
AcDbPoint
 10
287.39056
 20
1586.4338
 30
0.0
  0
POINT
  5
30B
330
36
100
AcDbEntity
  8
0
  6
Continuous
 62
     3
100
AcDbPoint
 10
287.39056
 20
1545.4407
 30
0.0
  0
POINT
  5
30C
330
36
100
AcDbEntity
  8
0
  6
Continuous
 62
     3
100
AcDbPoint
 10
237.39058
 20
1545.4407
 30
0.0
  0
POINT
  5
30D
330
36
100
AcDbEntity
  8
0
  6
Continuous
 62
     3
100
AcDbPoint
 10
287.39056
 20
1545.4407
 30
0.0
  0
POINT
  5
30E
330
36
100
AcDbEntity
  8
0
  6
Continuous
 62
     3
100
AcDbPoint
 10
287.39056
 20
1535.4407
 30
0.0
  0
POINT
  5
30F
330
36
100
AcDbEntity
  8
0
  6
Continuous
 62
     3
100
AcDbPoint
 10
262.78101
 20
1780.869
 30
0.0
  0
POINT
  5
310
330
36
100
AcDbEntity
  8
0
  6
Continuous
 62
     3
100
AcDbPoint
 10
262.39056
 20
1570.4407
 30
0.0
  0
POINT
  5
311
330
36
100
AcDbEntity
  8
0
  6
Continuous
 62
     3
100
AcDbPoint
 10
219.39058
 20
1570.4407
 30
0.0
  0
POINT
  5
312
330
36
100
AcDbEntity
  8
0
  6
Continuous
 62
     3
100
AcDbPoint
 10
365.64587
 20
1774.2197
 30
0.0
  0
POINT
  5
313
330
36
100
AcDbEntity
  8
0
  6
Continuous
 62
     3
100
AcDbPoint
 10
362.64587
 20
1756.2197
 30
0.0
  0
POINT
  5
314
330
36
100
AcDbEntity
  8
0
  6
Continuous
 62
     3
100
AcDbPoint
 10
355.64587
 20
1756.2197
 30
0.0
  0
POINT
  5
315
330
36
100
AcDbEntity
  8
0
  6
Continuous
 62
     3
100
AcDbPoint
 10
362.64587
 20
1756.2197
 30
0.0
  0
POINT
  5
316
330
36
100
AcDbEntity
  8
0
  6
Continuous
 62
     3
100
AcDbPoint
 10
362.64587
 20
1712.2197
 30
0.0
  0
POINT
  5
317
330
36
100
AcDbEntity
  8
0
  6
Continuous
 62
     3
100
AcDbPoint
 10
355.64587
 20
1712.2197
 30
0.0
  0
POINT
  5
318
330
36
100
AcDbEntity
  8
0
  6
Continuous
 62
     3
100
AcDbPoint
 10
362.64587
 20
1712.2197
 30
0.0
  0
POINT
  5
319
330
36
100
AcDbEntity
  8
0
  6
Continuous
 62
     3
100
AcDbPoint
 10
365.64587
 20
1694.2197
 30
0.0
  0
POINT
  5
31A
330
36
100
AcDbEntity
  8
0
  6
Continuous
 62
     3
100
AcDbPoint
 10
355.64587
 20
1694.2197
 30
0.0
  0
POINT
  5
31B
330
36
100
AcDbEntity
  8
0
  6
Continuous
 62
     3
100
AcDbPoint
 10
373.97086
 20
1827.8798
 30
0.0
  0
POINT
  5
31C
330
36
100
AcDbEntity
  8
0
  6
Continuous
 62
     3
100
AcDbPoint
 10
393.97086
 20
1774.2197
 30
0.0
  0
POINT
  5
31D
330
36
100
AcDbEntity
  8
0
  6
Continuous
 62
     3
100
AcDbPoint
 10
393.97086
 20
1834.8798
 30
0.0
  0
POINT
  5
31E
330
36
100
AcDbEntity
  8
0
  6
Continuous
 62
     3
100
AcDbPoint
 10
362.47086
 20
1586.4338
 30
0.0
  0
POINT
  5
31F
330
36
100
AcDbEntity
  8
0
  6
Continuous
 62
     3
100
AcDbPoint
 10
385.47086
 20
1586.4338
 30
0.0
  0
POINT
  5
320
330
36
100
AcDbEntity
  8
0
  6
Continuous
 62
     3
100
AcDbPoint
 10
385.47086
 20
1545.4407
 30
0.0
  0
POINT
  5
321
330
36
100
AcDbEntity
  8
0
  6
Continuous
 62
     3
100
AcDbPoint
 10
485.52942
 20
1774.2197
 30
0.0
  0
POINT
  5
322
330
36
100
AcDbEntity
  8
0
  6
Continuous
 62
     3
100
AcDbPoint
 10
492.52942
 20
1774.4697
 30
0.0
  0
POINT
  5
323
330
36
100
AcDbEntity
  8
0
  6
Continuous
 62
     3
100
AcDbPoint
 10
492.52942
 20
1812.2197
 30
0.0
  0
POINT
  5
324
330
36
100
AcDbEntity
  8
0
  6
Continuous
 62
     3
100
AcDbPoint
 10
492.52942
 20
1774.2197
 30
0.0
  0
POINT
  5
325
330
36
100
AcDbEntity
  8
0
  6
Continuous
 62
     3
100
AcDbPoint
 10
515.5294200000001
 20
1774.4697
 30
0.0
  0
POINT
  5
326
330
36
100
AcDbEntity
  8
0
  6
Continuous
 62
     3
100
AcDbPoint
 10
515.5294200000001
 20
1812.2197
 30
0.0
  0
POINT
  5
327
330
36
100
AcDbEntity
  8
0
  6
Continuous
 62
     3
100
AcDbPoint
 10
515.5294200000001
 20
1774.4697
 30
0.0
  0
POINT
  5
328
330
36
100
AcDbEntity
  8
0
  6
Continuous
 62
     3
100
AcDbPoint
 10
522.52942
 20
1774.4697
 30
0.0
  0
POINT
  5
329
330
36
100
AcDbEntity
  8
0
  6
Continuous
 62
     3
100
AcDbPoint
 10
522.52942
 20
1812.2197
 30
0.0
  0
POINT
  5
32A
330
36
100
AcDbEntity
  8
0
  6
Continuous
 62
     3
100
AcDbPoint
 10
485.52942
 20
1790.869
 30
0.0
  0
POINT
  5
32B
330
36
100
AcDbEntity
  8
0
  6
Continuous
 62
     3
100
AcDbPoint
 10
522.52942
 20
1790.869
 30
0.0
  0
POINT
  5
32C
330
36
100
AcDbEntity
  8
0
  6
Continuous
 62
     3
100
AcDbPoint
 10
522.52942
 20
1822.2197
 30
0.0
  0
POINT
  5
32D
330
36
100
AcDbEntity
  8
0
  6
Continuous
 62
     3
100
AcDbPoint
 10
485.52942
 20
1774.2197
 30
0.0
  0
POINT
  5
32E
330
36
100
AcDbEntity
  8
0
  6
Continuous
 62
     3
100
AcDbPoint
 10
485.52942
 20
1760.7197
 30
0.0
  0
POINT
  5
32F
330
36
100
AcDbEntity
  8
0
  6
Continuous
 62
     3
100
AcDbPoint
 10
475.52942
 20
1760.7197
 30
0.0
  0
POINT
  5
330
330
36
100
AcDbEntity
  8
0
  6
Continuous
 62
     3
100
AcDbPoint
 10
485.52942
 20
1760.7197
 30
0.0
  0
POINT
  5
331
330
36
100
AcDbEntity
  8
0
  6
Continuous
 62
     3
100
AcDbPoint
 10
503.69342
 20
1732.7197
 30
0.0
  0
POINT
  5
332
330
36
100
AcDbEntity
  8
0
  6
Continuous
 62
     3
100
AcDbPoint
 10
475.52942
 20
1732.7197
 30
0.0
  0
POINT
  5
333
330
36
100
AcDbEntity
  8
0
  6
Continuous
 62
     3
100
AcDbPoint
 10
503.69342
 20
1732.7197
 30
0.0
  0
POINT
  5
334
330
36
100
AcDbEntity
  8
0
  6
Continuous
 62
     3
100
AcDbPoint
 10
485.52942
 20
1719.2197
 30
0.0
  0
POINT
  5
335
330
36
100
AcDbEntity
  8
0
  6
Continuous
 62
     3
100
AcDbPoint
 10
475.52942
 20
1719.2197
 30
0.0
  0
POINT
  5
336
330
36
100
AcDbEntity
  8
0
  6
Continuous
 62
     3
100
AcDbPoint
 10
485.52942
 20
1774.2197
 30
0.0
  0
POINT
  5
337
330
36
100
AcDbEntity
  8
0
  6
Continuous
 62
     3
100
AcDbPoint
 10
504.0294199999998
 20
1637.0095
 30
0.0
  0
POINT
  5
338
330
36
100
AcDbEntity
  8
0
  6
Continuous
 62
     3
100
AcDbPoint
 10
465.52942
 20
1637.0095
 30
0.0
  0
POINT
  5
339
330
36
100
AcDbEntity
  8
0
  6
Continuous
 62
     3
100
AcDbPoint
 10
522.52942
 20
1774.2197
 30
0.0
  0
POINT
  5
33A
330
36
100
AcDbEntity
  8
0
  6
Continuous
 62
     3
100
AcDbPoint
 10
522.77942
 20
1767.2197
 30
0.0
  0
POINT
  5
33B
330
36
100
AcDbEntity
  8
0
  6
Continuous
 62
     3
100
AcDbPoint
 10
552.01941
 20
1767.2197
 30
0.0
  0
POINT
  5
33C
330
36
100
AcDbEntity
  8
0
  6
Continuous
 62
     3
100
AcDbPoint
 10
522.77942
 20
1767.2197
 30
0.0
  0
POINT
  5
33D
330
36
100
AcDbEntity
  8
0
  6
Continuous
 62
     3
100
AcDbPoint
 10
522.77942
 20
1726.2197
 30
0.0
  0
POINT
  5
33E
330
36
100
AcDbEntity
  8
0
  6
Continuous
 62
     3
100
AcDbPoint
 10
552.01941
 20
1726.2197
 30
0.0
  0
POINT
  5
33F
330
36
100
AcDbEntity
  8
0
  6
Continuous
 62
     3
100
AcDbPoint
 10
522.77942
 20
1726.2197
 30
0.0
  0
POINT
  5
340
330
36
100
AcDbEntity
  8
0
  6
Continuous
 62
     3
100
AcDbPoint
 10
522.52942
 20
1719.2197
 30
0.0
  0
POINT
  5
341
330
36
100
AcDbEntity
  8
0
  6
Continuous
 62
     3
100
AcDbPoint
 10
552.01941
 20
1719.2197
 30
0.0
  0
POINT
  5
342
330
36
100
AcDbEntity
  8
0
  6
Continuous
 62
     3
100
AcDbPoint
 10
522.52942
 20
1774.2197
 30
0.0
  0
POINT
  5
343
330
36
100
AcDbEntity
  8
0
  6
Continuous
 62
     3
100
AcDbPoint
 10
522.52942
 20
1719.2197
 30
0.0
  0
POINT
  5
344
330
36
100
AcDbEntity
  8
0
  6
Continuous
 62
     3
100
AcDbPoint
 10
562.0194099999999
 20
1719.2197
 30
0.0
  0
POINT
  5
345
330
36
100
AcDbEntity
  8
0
  6
Continuous
 62
     3
100
AcDbPoint
 10
522.52942
 20
1705.1211
 30
0.0
  0
POINT
  5
346
330
36
100
AcDbEntity
  8
0
  6
Continuous
 62
     3
100
AcDbPoint
 10
522.52942
 20
1690.1211
 30
0.0
  0
POINT
  5
347
330
36
100
AcDbEntity
  8
0
  6
Continuous
 62
     3
100
AcDbPoint
 10
537.52942
 20
1690.1211
 30
0.0
  0
POINT
  5
348
330
36
100
AcDbEntity
  8
0
  6
Continuous
 62
     3
100
AcDbPoint
 10
521.52942
 20
1656.6887
 30
0.0
  0
POINT
  5
349
330
36
100
AcDbEntity
  8
0
  6
Continuous
 62
     3
100
AcDbPoint
 10
521.52942
 20
1655.1887
 30
0.0
  0
POINT
  5
34A
330
36
100
AcDbEntity
  8
0
  6
Continuous
 62
     3
100
AcDbPoint
 10
537.52942
 20
1655.1887
 30
0.0
  0
POINT
  5
34B
330
36
100
AcDbEntity
  8
0
  6
Continuous
 62
     3
100
AcDbPoint
 10
499.52942
 20
1639.3921
 30
0.0
  0
POINT
  5
34C
330
36
100
AcDbEntity
  8
0
  6
Continuous
 62
     3
100
AcDbPoint
 10
508.5294199999998
 20
1639.3921
 30
0.0
  0
POINT
  5
34D
330
36
100
AcDbEntity
  8
0
  6
Continuous
 62
     3
100
AcDbPoint
 10
508.5294199999998
 20
1622.0095
 30
0.0
  0
POINT
  5
34E
330
36
100
AcDbEntity
  8
0
  6
Continuous
 62
     3
100
AcDbPoint
 10
486.52942
 20
1655.1887
 30
0.0
  0
POINT
  5
34F
330
36
100
AcDbEntity
  8
0
  6
Continuous
 62
     3
100
AcDbPoint
 10
492.52942
 20
1652.1887
 30
0.0
  0
POINT
  5
350
330
36
100
AcDbEntity
  8
0
  6
Continuous
 62
     3
100
AcDbPoint
 10
492.52942
 20
1612.0095
 30
0.0
  0
POINT
  5
351
330
36
100
AcDbEntity
  8
0
  6
Continuous
 62
     3
100
AcDbPoint
 10
492.52942
 20
1652.1887
 30
0.0
  0
POINT
  5
352
330
36
100
AcDbEntity
  8
0
  6
Continuous
 62
     3
100
AcDbPoint
 10
515.5294200000001
 20
1652.1887
 30
0.0
  0
POINT
  5
353
330
36
100
AcDbEntity
  8
0
  6
Continuous
 62
     3
100
AcDbPoint
 10
515.5294200000001
 20
1612.0095
 30
0.0
  0
POINT
  5
354
330
36
100
AcDbEntity
  8
0
  6
Continuous
 62
     3
100
AcDbPoint
 10
515.5294200000001
 20
1652.1887
 30
0.0
  0
POINT
  5
355
330
36
100
AcDbEntity
  8
0
  6
Continuous
 62
     3
100
AcDbPoint
 10
521.52942
 20
1655.1887
 30
0.0
  0
POINT
  5
356
330
36
100
AcDbEntity
  8
0
  6
Continuous
 62
     3
100
AcDbPoint
 10
521.52942
 20
1612.0095
 30
0.0
  0
POINT
  5
357
330
36
100
AcDbEntity
  8
0
  6
Continuous
 62
     3
100
AcDbPoint
 10
486.52942
 20
1612.0095
 30
0.0
  0
POINT
  5
358
330
36
100
AcDbEntity
  8
0
  6
Continuous
 62
     3
100
AcDbPoint
 10
521.52942
 20
1612.0095
 30
0.0
  0
POINT
  5
359
330
36
100
AcDbEntity
  8
0
  6
Continuous
 62
     3
100
AcDbPoint
 10
521.52942
 20
1602.0095
 30
0.0
  0
POINT
  5
35A
330
36
100
AcDbEntity
  8
0
  6
Continuous
 62
     3
100
AcDbPoint
 10
262.39056
 20
1614.4407
 30
0.0
  0
POINT
  5
35B
330
36
100
AcDbEntity
  8
0
  6
Continuous
 62
     3
100
AcDbPoint
 10
262.39056
 20
1570.4407
 30
0.0
  0
POINT
  5
35C
330
36
100
AcDbEntity
  8
0
  6
Continuous
 62
     3
100
AcDbPoint
 10
310.39056
 20
1570.4407
 30
0.0
  0
POINT
  5
35D
330
36
100
AcDbEntity
  8
0
  6
Continuous
 62
     3
100
AcDbPoint
 10
504.0294199999998
 20
1665.0486
 30
0.0
  0
POINT
  5
35E
330
36
100
AcDbEntity
  8
0
  6
Continuous
 62
     3
100
AcDbPoint
 10
504.0294199999998
 20
1637.0095
 30
0.0
  0
POINT
  5
35F
330
36
100
AcDbEntity
  8
0
  6
Continuous
 62
     3
100
AcDbPoint
 10
547.52942
 20
1637.0095
 30
0.0
  0
POINT
  5
360
330
36
100
AcDbEntity
  8
0
  6
Continuous
 62
     3
100
AcDbPoint
 10
278.52277
 20
1769.896199999999
 30
0.0
  0
POINT
  5
361
330
36
100
AcDbEntity
  8
0
  6
Continuous
 62
     3
100
AcDbPoint
 10
274.25839
 20
1762.5433
 30
0.0
  0
POINT
  5
362
330
36
100
AcDbEntity
  8
0
  6
Continuous
 62
     3
100
AcDbPoint
 10
517.84753
 20
1770.782
 30
0.0
  0
POINT
  5
363
330
36
100
AcDbEntity
  8
0
  6
Continuous
 62
     3
100
AcDbPoint
 10
513.21136
 20
1763.6576
 30
0.0
  0
POINT
  5
364
330
36
100
AcDbEntity
  8
0
  6
Continuous
 62
     3
100
AcDbPoint
 10
262.39056
 20
1756.2197
 30
0.0
  0
POINT
  5
365
330
36
100
AcDbEntity
  8
0
  6
Continuous
 62
     3
100
AcDbPoint
 10
262.05457
 20
1712.2197
 30
0.0
  0
POINT
  5
366
330
36
100
AcDbEntity
  8
0
  6
Continuous
 62
     3
100
AcDbPoint
 10
229.39058
 20
1712.2197
 30
0.0
  0
POINT
  5
367
330
36
100
AcDbEntity
  8
0
  6
Continuous
 62
     3
100
AcDbPoint
 10
262.39056
 20
1694.2197
 30
0.0
  0
POINT
  5
368
330
36
100
AcDbEntity
  8
0
  6
Continuous
 62
     3
100
AcDbPoint
 10
295.38058
 20
1712.2197
 30
0.0
  0
POINT
  5
369
330
36
100
AcDbEntity
  8
0
  6
Continuous
 62
     3
100
AcDbPoint
 10
504.0294199999998
 20
1719.2197
 30
0.0
  0
POINT
  5
36A
330
36
100
AcDbEntity
  8
0
  6
Continuous
 62
     3
100
AcDbPoint
 10
534.02942
 20
1732.7197
 30
0.0
  0
POINT
  5
36B
330
36
100
AcDbEntity
  8
0
  6
Continuous
 62
     7
100
AcDbPoint
 10
292.39056
 20
1712.2197
 30
0.0
  0
POINT
  5
36C
330
36
100
AcDbEntity
  8
0
  6
Continuous
 62
     7
100
AcDbPoint
 10
534.02942
 20
1732.7197
 30
0.0
  0
POINT
  5
36D
330
36
100
AcDbEntity
  8
0
  6
Continuous
 62
     7
100
AcDbPoint
 10
497.2044099999997
 20
1730.2223
 30
0.0
  0
POINT
  5
36E
330
36
100
AcDbEntity
  8
0
  6
Continuous
 62
     7
100
AcDbPoint
 10
500.36642
 20
1735.2173
 30
0.0
  0
LINE
  5
36F
330
36
100
AcDbEntity
  8
0
  6
Continuous
 62
     7
100
AcDbLine
 10
50.456886
 20
1485.9956
 30
0.0
 11
644.4569099999998
 21
1485.9956
 31
0.0
  0
LINE
  5
370
330
36
100
AcDbEntity
  8
0
  6
Continuous
 62
     7
100
AcDbLine
 10
50.456886
 20
1905.9956
 30
0.0
 11
50.456886
 21
1485.9956
 31
0.0
  0
LINE
  5
371
330
36
100
AcDbEntity
  8
0
  6
Continuous
 62
     7
100
AcDbLine
 10
624.95691
 20
1498.7456
 30
0.0
 11
624.95691
 21
1893.2456
 31
0.0
  0
LINE
  5
372
330
36
100
AcDbEntity
  8
0
  6
Continuous
 62
     7
100
AcDbLine
 10
69.956886
 20
1797.2456
 30
0.0
 11
69.956886
 21
1498.7456
 31
0.0
  0
LINE
  5
373
330
36
100
AcDbEntity
  8
0
  6
Continuous
 62
     7
100
AcDbLine
 10
624.95691
 20
1893.2456
 30
0.0
 11
179.95689
 21
1893.2456
 31
0.0
  0
LINE
  5
374
330
36
100
AcDbEntity
  8
0
  6
Continuous
 62
     7
100
AcDbLine
 10
69.956886
 20
1498.7456
 30
0.0
 11
624.95691
 21
1498.7456
 31
0.0
  0
LINE
  5
375
330
36
100
AcDbEntity
  8
0
  6
Continuous
 62
     7
100
AcDbLine
 10
644.4569099999998
 20
1905.9956
 30
0.0
 11
644.4569099999998
 21
1485.9956
 31
0.0
  0
LINE
  5
376
330
36
100
AcDbEntity
  8
0
  6
Continuous
 62
     7
100
AcDbLine
 10
50.456886
 20
1905.9956
 30
0.0
 11
644.4569099999998
 21
1905.9956
 31
0.0
  0
LINE
  5
377
330
36
100
AcDbEntity
  8
0
  6
Continuous
 62
     7
100
AcDbLine
 10
69.956886
 20
1893.2456
 30
0.0
 11
179.95689
 21
1893.2456
 31
0.0
  0
LINE
  5
378
330
36
100
AcDbEntity
  8
0
  6
Continuous
 62
     7
100
AcDbLine
 10
69.956886
 20
1893.2456
 30
0.0
 11
69.956886
 21
1797.2456
 31
0.0
  0
LINE
  5
379
330
36
100
AcDbEntity
  8
0
  6
Continuous
 62
     7
100
AcDbLine
 10
89.95688599999999
 20
1893.2456
 30
0.0
 11
89.95688599999999
 21
1797.2456
 31
0.0
  0
LINE
  5
37A
330
36
100
AcDbEntity
  8
0
  6
Continuous
 62
     7
100
AcDbLine
 10
69.956886
 20
1885.2456
 30
0.0
 11
179.95689
 21
1885.2456
 31
0.0
  0
LINE
  5
37B
330
36
100
AcDbEntity
  8
0
  6
Continuous
 62
     7
100
AcDbLine
 10
69.956886
 20
1877.2456
 30
0.0
 11
179.95689
 21
1877.2456
 31
0.0
  0
LINE
  5
37C
330
36
100
AcDbEntity
  8
0
  6
Continuous
 62
     7
100
AcDbLine
 10
69.956886
 20
1869.2456
 30
0.0
 11
179.95689
 21
1869.2456
 31
0.0
  0
LINE
  5
37D
330
36
100
AcDbEntity
  8
0
  6
Continuous
 62
     7
100
AcDbLine
 10
69.956886
 20
1861.2456
 30
0.0
 11
179.95689
 21
1861.2456
 31
0.0
  0
LINE
  5
37E
330
36
100
AcDbEntity
  8
0
  6
Continuous
 62
     7
100
AcDbLine
 10
89.95688599999999
 20
1837.2456
 30
0.0
 11
179.95689
 21
1837.2456
 31
0.0
  0
LINE
  5
37F
330
36
100
AcDbEntity
  8
0
  6
Continuous
 62
     7
100
AcDbLine
 10
89.95688599999999
 20
1829.2456
 30
0.0
 11
179.95689
 21
1829.2456
 31
0.0
  0
LINE
  5
380
330
36
100
AcDbEntity
  8
0
  6
Continuous
 62
     7
100
AcDbLine
 10
69.956886
 20
1821.2456
 30
0.0
 11
179.95689
 21
1821.2456
 31
0.0
  0
LINE
  5
381
330
36
100
AcDbEntity
  8
0
  6
Continuous
 62
     7
100
AcDbLine
 10
89.95688599999999
 20
1813.2456
 30
0.0
 11
179.95689
 21
1813.2456
 31
0.0
  0
LINE
  5
382
330
36
100
AcDbEntity
  8
0
  6
Continuous
 62
     7
100
AcDbLine
 10
89.95688599999999
 20
1805.2456
 30
0.0
 11
179.95689
 21
1805.2456
 31
0.0
  0
LINE
  5
383
330
36
100
AcDbEntity
  8
0
  6
Continuous
 62
     7
100
AcDbLine
 10
69.956886
 20
1797.2456
 30
0.0
 11
179.95689
 21
1797.2456
 31
0.0
  0
LINE
  5
384
330
36
100
AcDbEntity
  8
0
  6
Continuous
 62
     7
100
AcDbLine
 10
69.956886
 20
1893.2456
 30
0.0
 11
69.956886
 21
1797.2456
 31
0.0
  0
LINE
  5
385
330
36
100
AcDbEntity
  8
0
  6
Continuous
 62
     7
100
AcDbLine
 10
69.956886
 20
1893.2456
 30
0.0
 11
179.95689
 21
1893.2456
 31
0.0
  0
LINE
  5
386
330
36
100
AcDbEntity
  8
0
  6
Continuous
 62
     7
100
AcDbLine
 10
179.95689
 20
1893.2456
 30
0.0
 11
179.95689
 21
1797.2456
 31
0.0
  0
LINE
  5
387
330
36
100
AcDbEntity
  8
0
  6
Continuous
 62
     7
100
AcDbLine
 10
69.956886
 20
1853.2456
 30
0.0
 11
179.95689
 21
1853.2456
 31
0.0
  0
LINE
  5
388
330
36
100
AcDbEntity
  8
0
  6
Continuous
 62
     7
100
AcDbLine
 10
69.956886
 20
1845.2456
 30
0.0
 11
179.95689
 21
1845.2456
 31
0.0
  0
LINE
  5
389
330
36
100
AcDbEntity
  8
0
  6
Continuous
 62
     7
100
AcDbLine
 10
89.95688599999999
 20
1837.2456
 30
0.0
 11
179.95689
 21
1837.2456
 31
0.0
  0
LINE
  5
38A
330
36
100
AcDbEntity
  8
0
  6
Continuous
 62
     7
100
AcDbLine
 10
239.39058
 20
1774.2197
 30
0.0
 11
285.39056
 21
1774.2197
 31
0.0
  0
LINE
  5
38B
330
36
100
AcDbEntity
  8
0
  6
Continuous
 62
     7
100
AcDbLine
 10
285.39056
 20
1774.2197
 30
0.0
 11
285.39056
 21
1694.2197
 31
0.0
  0
LINE
  5
38C
330
36
100
AcDbEntity
  8
0
  6
Continuous
 62
     7
100
AcDbLine
 10
285.39056
 20
1694.2197
 30
0.0
 11
239.39058
 21
1694.2197
 31
0.0
  0
LINE
  5
38D
330
36
100
AcDbEntity
  8
0
  6
Continuous
 62
     7
100
AcDbLine
 10
239.39058
 20
1774.2197
 30
0.0
 11
239.39058
 21
1694.2197
 31
0.0
  0
LINE
  5
38E
330
36
100
AcDbEntity
  8
0
  6
Continuous
 62
     7
100
AcDbLine
 10
256.39056
 20
1777.5498
 30
0.0
 11
268.39056
 21
1777.5498
 31
0.0
  0
LINE
  5
38F
330
36
100
AcDbEntity
  8
0
  6
Continuous
 62
     7
100
AcDbLine
 10
256.39056
 20
1777.5498
 30
0.0
 11
256.39056
 21
1774.2197
 31
0.0
  0
LINE
  5
390
330
36
100
AcDbEntity
  8
0
  6
Continuous
 62
     7
100
AcDbLine
 10
268.39056
 20
1777.5498
 30
0.0
 11
268.39056
 21
1774.2197
 31
0.0
  0
LINE
  5
391
330
36
100
AcDbEntity
  8
0
  6
Continuous
 62
     7
100
AcDbLine
 10
268.39056
 20
1573.7708
 30
0.0
 11
256.39056
 21
1573.7708
 31
0.0
  0
LINE
  5
392
330
36
100
AcDbEntity
  8
0
  6
Continuous
 62
     7
100
AcDbLine
 10
237.39058
 20
1588.6688
 30
0.0
 11
287.39056
 21
1588.6688
 31
0.0
  0
LINE
  5
393
330
36
100
AcDbEntity
  8
0
  6
Continuous
 62
     7
100
AcDbLine
 10
287.39056
 20
1587.1688
 30
0.0
 11
237.39058
 21
1587.1688
 31
0.0
  0
LINE
  5
394
330
36
100
AcDbEntity
  8
0
  6
Continuous
 62
     7
100
AcDbLine
 10
239.39058
 20
1675.0074
 30
0.0
 11
285.39056
 21
1675.0074
 31
0.0
  0
LINE
  5
395
330
36
100
AcDbEntity
  8
0
  6
Continuous
 62
     7
100
AcDbLine
 10
285.39056
 20
1675.0074
 30
0.0
 11
285.39056
 21
1652.0074
 31
0.0
  0
LINE
  5
396
330
36
100
AcDbEntity
  8
0
  6
Continuous
 62
     7
100
AcDbLine
 10
285.39056
 20
1652.0074
 30
0.0
 11
239.39058
 21
1652.0074
 31
0.0
  0
LINE
  5
397
330
36
100
AcDbEntity
  8
0
  6
Continuous
 62
     7
100
AcDbLine
 10
239.39058
 20
1652.0074
 30
0.0
 11
239.39058
 21
1675.0074
 31
0.0
  0
LINE
  5
398
330
36
100
AcDbEntity
  8
0
  6
Continuous
 62
     7
100
AcDbLine
 10
256.39056
 20
1694.2197
 30
0.0
 11
256.39056
 21
1675.0074
 31
0.0
  0
LINE
  5
399
330
36
100
AcDbEntity
  8
0
  6
Continuous
 62
     7
100
AcDbLine
 10
268.39056
 20
1694.1129
 30
0.0
 11
268.39056
 21
1675.0074
 31
0.0
  0
LINE
  5
39A
330
36
100
AcDbEntity
  8
0
  6
DASHED
 62
     6
100
AcDbLine
 10
256.39056
 20
1774.2197
 30
0.0
 11
256.39056
 21
1759.7227
 31
0.0
  0
LINE
  5
39B
330
36
100
AcDbEntity
  8
0
  6
DASHED
 62
     6
100
AcDbLine
 10
268.39056
 20
1774.2197
 30
0.0
 11
268.39056
 21
1759.7996
 31
0.0
  0
LINE
  5
39C
330
36
100
AcDbEntity
  8
0
  6
CENTER
 62
     4
100
AcDbLine
 10
269.14056
 20
1766.2197
 30
0.0
 11
283.64056
 21
1766.2197
 31
0.0
  0
LINE
  5
39D
330
36
100
AcDbEntity
  8
0
  6
CENTER
 62
     4
100
AcDbLine
 10
276.39056
 20
1773.4697
 30
0.0
 11
276.39056
 21
1758.9697
 31
0.0
  0
LINE
  5
39E
330
36
100
AcDbEntity
  8
0
  6
CENTER
 62
     4
100
AcDbLine
 10
248.39058
 20
1773.4697
 30
0.0
 11
248.39058
 21
1758.9697
 31
0.0
  0
LINE
  5
39F
330
36
100
AcDbEntity
  8
0
  6
CENTER
 62
     4
100
AcDbLine
 10
241.14058
 20
1766.2197
 30
0.0
 11
255.64058
 21
1766.2197
 31
0.0
  0
LINE
  5
3A0
330
36
100
AcDbEntity
  8
0
  6
CENTER
 62
     4
100
AcDbLine
 10
248.39058
 20
1741.4697
 30
0.0
 11
248.39058
 21
1726.9697
 31
0.0
  0
LINE
  5
3A1
330
36
100
AcDbEntity
  8
0
  6
CENTER
 62
     4
100
AcDbLine
 10
241.14058
 20
1734.2197
 30
0.0
 11
255.64058
 21
1734.2197
 31
0.0
  0
LINE
  5
3A2
330
36
100
AcDbEntity
  8
0
  6
CENTER
 62
     4
100
AcDbLine
 10
276.39056
 20
1741.4697
 30
0.0
 11
276.39056
 21
1726.9697
 31
0.0
  0
LINE
  5
3A3
330
36
100
AcDbEntity
  8
0
  6
CENTER
 62
     4
100
AcDbLine
 10
269.14056
 20
1734.2197
 30
0.0
 11
283.64056
 21
1734.2197
 31
0.0
  0
LINE
  5
3A4
330
36
100
AcDbEntity
  8
0
  6
CENTER
 62
     4
100
AcDbLine
 10
241.14058
 20
1702.2197
 30
0.0
 11
255.64058
 21
1702.2197
 31
0.0
  0
LINE
  5
3A5
330
36
100
AcDbEntity
  8
0
  6
CENTER
 62
     4
100
AcDbLine
 10
248.39058
 20
1709.4697
 30
0.0
 11
248.39058
 21
1694.9697
 31
0.0
  0
LINE
  5
3A6
330
36
100
AcDbEntity
  8
0
  6
CENTER
 62
     4
100
AcDbLine
 10
269.14056
 20
1702.2197
 30
0.0
 11
283.64056
 21
1702.2197
 31
0.0
  0
LINE
  5
3A7
330
36
100
AcDbEntity
  8
0
  6
CENTER
 62
     4
100
AcDbLine
 10
276.39056
 20
1709.4697
 30
0.0
 11
276.39056
 21
1694.9697
 31
0.0
  0
LINE
  5
3A8
330
36
100
AcDbEntity
  8
0
  6
CENTER
 62
     4
100
AcDbLine
 10
241.14058
 20
1663.5074
 30
0.0
 11
255.64058
 21
1663.5074
 31
0.0
  0
LINE
  5
3A9
330
36
100
AcDbEntity
  8
0
  6
CENTER
 62
     4
100
AcDbLine
 10
248.39058
 20
1670.7574
 30
0.0
 11
248.39058
 21
1656.2574
 31
0.0
  0
LINE
  5
3AA
330
36
100
AcDbEntity
  8
0
  6
CENTER
 62
     4
100
AcDbLine
 10
269.14056
 20
1663.5074
 30
0.0
 11
283.64056
 21
1663.5074
 31
0.0
  0
LINE
  5
3AB
330
36
100
AcDbEntity
  8
0
  6
CENTER
 62
     4
100
AcDbLine
 10
276.39056
 20
1670.7574
 30
0.0
 11
276.39056
 21
1656.2574
 31
0.0
  0
LINE
  5
3AC
330
36
100
AcDbEntity
  8
0
  6
CENTER
 62
     4
100
AcDbLine
 10
262.39056
 20
1827.8798
 30
0.0
 11
262.39056
 21
1567.4407
 31
0.0
  0
LINE
  5
3AD
330
36
100
AcDbEntity
  8
0
  6
Continuous
 62
     7
100
AcDbLine
 10
254.06558
 20
1774.2197
 30
0.0
 11
254.06558
 21
1694.2197
 31
0.0
  0
LINE
  5
3AE
330
36
100
AcDbEntity
  8
0
  6
Continuous
 62
     7
100
AcDbLine
 10
270.71558
 20
1774.2197
 30
0.0
 11
270.71558
 21
1714.7173
 31
0.0
  0
LINE
  5
3AF
330
36
100
AcDbEntity
  8
0
  6
Continuous
 62
     7
100
AcDbLine
 10
254.06558
 20
1675.0074
 30
0.0
 11
254.06558
 21
1652.0074
 31
0.0
  0
LINE
  5
3B0
330
36
100
AcDbEntity
  8
0
  6
Continuous
 62
     7
100
AcDbLine
 10
270.71558
 20
1675.0074
 30
0.0
 11
270.71558
 21
1652.0074
 31
0.0
  0
LINE
  5
3B1
330
36
100
AcDbEntity
  8
0
  6
DASHED
 62
     6
100
AcDbLine
 10
256.39056
 20
1675.0074
 30
0.0
 11
256.39056
 21
1652.0074
 31
0.0
  0
LINE
  5
3B2
330
36
100
AcDbEntity
  8
0
  6
DASHED
 62
     6
100
AcDbLine
 10
268.39056
 20
1675.0074
 30
0.0
 11
268.39056
 21
1652.0074
 31
0.0
  0
LINE
  5
3B3
330
36
100
AcDbEntity
  8
0
  6
Continuous
 62
     7
100
AcDbLine
 10
256.39056
 20
1623.3391
 30
0.0
 11
256.39056
 21
1588.6688
 31
0.0
  0
LINE
  5
3B4
330
36
100
AcDbEntity
  8
0
  6
Continuous
 62
     7
100
AcDbLine
 10
268.39056
 20
1623.3391
 30
0.0
 11
268.39056
 21
1588.6688
 31
0.0
  0
LINE
  5
3B5
330
36
100
AcDbEntity
  8
0
  6
Continuous
 62
     7
100
AcDbLine
 10
257.0655799999999
 20
1759.7996
 30
0.0
 11
270.71558
 21
1759.7996
 31
0.0
  0
LINE
  5
3B6
330
36
100
AcDbEntity
  8
0
  6
Continuous
 62
     7
100
AcDbLine
 10
261.72757
 20
1752.64
 30
0.0
 11
270.71558
 21
1752.64
 31
0.0
  0
LINE
  5
3B7
330
36
100
AcDbEntity
  8
0
  6
Continuous
 62
     7
100
AcDbLine
 10
258.72757
 20
1749.64
 30
0.0
 11
258.72757
 21
1718.7996
 31
0.0
  0
LINE
  5
3B8
330
36
100
AcDbEntity
  8
0
  6
Continuous
 62
     7
100
AcDbLine
 10
261.72757
 20
1715.7996
 30
0.0
 11
270.71558
 21
1715.7996
 31
0.0
  0
LINE
  5
3B9
330
36
100
AcDbEntity
  8
0
  6
Continuous
 62
     7
100
AcDbLine
 10
257.0655799999999
 20
1708.64
 30
0.0
 11
270.71558
 21
1708.64
 31
0.0
  0
LINE
  5
3BA
330
36
100
AcDbEntity
  8
0
  6
DASHED
 62
     6
100
AcDbLine
 10
256.39056
 20
1708.7169
 30
0.0
 11
256.39056
 21
1694.2197
 31
0.0
  0
LINE
  5
3BB
330
36
100
AcDbEntity
  8
0
  6
DASHED
 62
     6
100
AcDbLine
 10
268.39056
 20
1752.64
 30
0.0
 11
268.39056
 21
1715.7996
 31
0.0
  0
LINE
  5
3BC
330
36
100
AcDbEntity
  8
0
  6
DASHED
 62
     6
100
AcDbLine
 10
268.39056
 20
1708.64
 30
0.0
 11
268.39056
 21
1694.2197
 31
0.0
  0
LINE
  5
3BD
330
36
100
AcDbEntity
  8
0
  6
Continuous
 62
     7
100
AcDbLine
 10
256.39056
 20
1759.7227
 30
0.0
 11
256.39056
 21
1708.7169
 31
0.0
  0
LINE
  5
3BE
330
36
100
AcDbEntity
  8
0
  6
Continuous
 62
     7
100
AcDbLine
 10
268.39056
 20
1715.7996
 30
0.0
 11
268.39056
 21
1714.7173
 31
0.0
  0
LINE
  5
3BF
330
36
100
AcDbEntity
  8
0
  6
Continuous
 62
     7
100
AcDbLine
 10
268.39056
 20
1759.7996
 30
0.0
 11
268.39056
 21
1752.64
 31
0.0
  0
LINE
  5
3C0
330
36
100
AcDbEntity
  8
0
  6
Continuous
 62
     7
100
AcDbLine
 10
266.55466
 20
1714.7173
 30
0.0
 11
282.96033
 21
1714.7173
 31
0.0
  0
LINE
  5
3C1
330
36
100
AcDbEntity
  8
0
  6
Continuous
 62
     7
100
AcDbLine
 10
266.55444
 20
1709.7223
 30
0.0
 11
282.96033
 21
1709.7223
 31
0.0
  0
LINE
  5
3C2
330
36
100
AcDbEntity
  8
0
  6
Continuous
 62
     7
100
AcDbLine
 10
285.73056
 20
1715.8708
 30
0.0
 11
285.73056
 21
1708.5687
 31
0.0
  0
LINE
  5
3C3
330
36
100
AcDbEntity
  8
0
  6
CENTER
 62
     4
100
AcDbLine
 10
279.89056
 20
1591.6688
 30
0.0
 11
279.89056
 21
1584.1688
 31
0.0
  0
LINE
  5
3C4
330
36
100
AcDbEntity
  8
0
  6
CENTER
 62
     4
100
AcDbLine
 10
244.89058
 20
1591.6688
 30
0.0
 11
244.89058
 21
1584.1688
 31
0.0
  0
LINE
  5
3C5
330
36
100
AcDbEntity
  8
0
  6
DASHED
 62
     6
100
AcDbLine
 10
240.64063
 20
1588.6688
 30
0.0
 11
242.64063
 21
1587.1688
 31
0.0
  0
LINE
  5
3C6
330
36
100
AcDbEntity
  8
0
  6
DASHED
 62
     6
100
AcDbLine
 10
249.14061
 20
1588.6688
 30
0.0
 11
247.14061
 21
1587.1688
 31
0.0
  0
LINE
  5
3C7
330
36
100
AcDbEntity
  8
0
  6
DASHED
 62
     6
100
AcDbLine
 10
275.64063
 20
1588.6688
 30
0.0
 11
277.64063
 21
1587.1688
 31
0.0
  0
LINE
  5
3C8
330
36
100
AcDbEntity
  8
0
  6
DASHED
 62
     6
100
AcDbLine
 10
284.14059
 20
1588.6688
 30
0.0
 11
282.14059
 21
1587.1688
 31
0.0
  0
LINE
  5
3C9
330
36
100
AcDbEntity
  8
0
  6
Continuous
 62
     7
100
AcDbLine
 10
485.52942
 20
1774.2197
 30
0.0
 11
522.52942
 21
1774.2197
 31
0.0
  0
LINE
  5
3CA
330
36
100
AcDbEntity
  8
0
  6
Continuous
 62
     7
100
AcDbLine
 10
522.52942
 20
1774.2197
 30
0.0
 11
522.52942
 21
1735.2173
 31
0.0
  0
LINE
  5
3CB
330
36
100
AcDbEntity
  8
0
  6
Continuous
 62
     7
100
AcDbLine
 10
522.52942
 20
1719.2197
 30
0.0
 11
485.52942
 21
1719.2197
 31
0.0
  0
LINE
  5
3CC
330
36
100
AcDbEntity
  8
0
  6
Continuous
 62
     7
100
AcDbLine
 10
485.52942
 20
1719.2197
 30
0.0
 11
485.52942
 21
1774.2197
 31
0.0
  0
LINE
  5
3CD
330
36
100
AcDbEntity
  8
0
  6
Continuous
 62
     7
100
AcDbLine
 10
497.2044099999997
 20
1774.2197
 30
0.0
 11
497.2044099999997
 21
1733.2223
 31
0.0
  0
LINE
  5
3CE
330
36
100
AcDbEntity
  8
0
  6
Continuous
 62
     7
100
AcDbLine
 10
510.85443
 20
1774.2197
 30
0.0
 11
510.85443
 21
1719.2197
 31
0.0
  0
LINE
  5
3CF
330
36
100
AcDbEntity
  8
0
  6
Continuous
 62
     7
100
AcDbLine
 10
485.52942
 20
1705.1211
 30
0.0
 11
485.52942
 21
1690.1211
 31
0.0
  0
LINE
  5
3D0
330
36
100
AcDbEntity
  8
0
  6
Continuous
 62
     7
100
AcDbLine
 10
485.52942
 20
1690.1211
 30
0.0
 11
522.52942
 21
1690.1211
 31
0.0
  0
LINE
  5
3D1
330
36
100
AcDbEntity
  8
0
  6
Continuous
 62
     7
100
AcDbLine
 10
522.52942
 20
1690.1211
 30
0.0
 11
522.52942
 21
1705.1211
 31
0.0
  0
LINE
  5
3D2
330
36
100
AcDbEntity
  8
0
  6
Continuous
 62
     7
100
AcDbLine
 10
522.52942
 20
1705.1211
 30
0.0
 11
485.52942
 21
1705.1211
 31
0.0
  0
LINE
  5
3D3
330
36
100
AcDbEntity
  8
0
  6
Continuous
 62
     7
100
AcDbLine
 10
497.2044099999997
 20
1705.1211
 30
0.0
 11
497.2044099999997
 21
1690.1211
 31
0.0
  0
LINE
  5
3D4
330
36
100
AcDbEntity
  8
0
  6
Continuous
 62
     7
100
AcDbLine
 10
510.85443
 20
1705.1211
 30
0.0
 11
510.85443
 21
1690.1211
 31
0.0
  0
LINE
  5
3D5
330
36
100
AcDbEntity
  8
0
  6
Continuous
 62
     7
100
AcDbLine
 10
499.52942
 20
1764.2227
 30
0.0
 11
499.52942
 21
1730.2169
 31
0.0
  0
LINE
  5
3D6
330
36
100
AcDbEntity
  8
0
  6
Continuous
 62
     7
100
AcDbLine
 10
508.5294199999998
 20
1764.2996
 30
0.0
 11
508.5294199999998
 21
1757.14
 31
0.0
  0
LINE
  5
3D7
330
36
100
AcDbEntity
  8
0
  6
Continuous
 62
     7
100
AcDbLine
 10
499.52942
 20
1639.3921
 30
0.0
 11
508.5294199999998
 21
1639.3921
 31
0.0
  0
LINE
  5
3D8
330
36
100
AcDbEntity
  8
0
  6
Continuous
 62
     7
100
AcDbLine
 10
486.52942
 20
1655.1887
 30
0.0
 11
486.52942
 21
1656.6887
 31
0.0
  0
LINE
  5
3D9
330
36
100
AcDbEntity
  8
0
  6
Continuous
 62
     7
100
AcDbLine
 10
486.52942
 20
1656.6887
 30
0.0
 11
521.52942
 21
1656.6887
 31
0.0
  0
LINE
  5
3DA
330
36
100
AcDbEntity
  8
0
  6
Continuous
 62
     7
100
AcDbLine
 10
521.52942
 20
1656.6887
 30
0.0
 11
521.52942
 21
1655.1887
 31
0.0
  0
LINE
  5
3DB
330
36
100
AcDbEntity
  8
0
  6
Continuous
 62
     7
100
AcDbLine
 10
521.52942
 20
1655.1887
 30
0.0
 11
486.52942
 21
1655.1887
 31
0.0
  0
LINE
  5
3DC
330
36
100
AcDbEntity
  8
0
  6
Continuous
 62
     7
100
AcDbLine
 10
499.52942
 20
1690.1211
 30
0.0
 11
499.52942
 21
1639.3921
 31
0.0
  0
LINE
  5
3DD
330
36
100
AcDbEntity
  8
0
  6
Continuous
 62
     7
100
AcDbLine
 10
508.5294199999998
 20
1690.1211
 30
0.0
 11
508.5294199999998
 21
1639.3921
 31
0.0
  0
LINE
  5
3DE
330
36
100
AcDbEntity
  8
0
  6
DASHED
 62
     6
100
AcDbLine
 10
499.52942
 20
1705.1211
 30
0.0
 11
499.52942
 21
1690.1211
 31
0.0
  0
LINE
  5
3DF
330
36
100
AcDbEntity
  8
0
  6
DASHED
 62
     6
100
AcDbLine
 10
508.5294199999998
 20
1705.1211
 30
0.0
 11
508.5294199999998
 21
1690.1211
 31
0.0
  0
LINE
  5
3E0
330
36
100
AcDbEntity
  8
0
  6
Continuous
 62
     7
100
AcDbLine
 10
500.20444
 20
1764.2996
 30
0.0
 11
510.85443
 21
1764.2996
 31
0.0
  0
LINE
  5
3E1
330
36
100
AcDbEntity
  8
0
  6
Continuous
 62
     7
100
AcDbLine
 10
503.36642
 20
1757.14
 30
0.0
 11
510.85443
 21
1757.14
 31
0.0
  0
LINE
  5
3E2
330
36
100
AcDbEntity
  8
0
  6
Continuous
 62
     7
100
AcDbLine
 10
500.36642
 20
1754.14
 30
0.0
 11
500.36642
 21
1738.2173
 31
0.0
  0
LINE
  5
3E3
330
36
100
AcDbEntity
  8
0
  6
Continuous
 62
     7
100
AcDbLine
 10
503.36642
 20
1735.2173
 30
0.0
 11
524.5991799999997
 21
1735.2173
 31
0.0
  0
LINE
  5
3E4
330
36
100
AcDbEntity
  8
0
  6
Continuous
 62
     7
100
AcDbLine
 10
500.2044099999998
 20
1730.2223
 30
0.0
 11
524.5991799999997
 21
1730.2223
 31
0.0
  0
LINE
  5
3E5
330
36
100
AcDbEntity
  8
0
  6
Continuous
 62
     7
100
AcDbLine
 10
522.52942
 20
1729.7223
 30
0.0
 11
524.5991799999997
 21
1729.7223
 31
0.0
  0
LINE
  5
3E6
330
36
100
AcDbEntity
  8
0
  6
Continuous
 62
     7
100
AcDbLine
 10
522.52942
 20
1735.7173
 30
0.0
 11
524.5991799999997
 21
1735.7173
 31
0.0
  0
LINE
  5
3E7
330
36
100
AcDbEntity
  8
0
  6
Continuous
 62
     7
100
AcDbLine
 10
527.36945
 20
1736.3708
 30
0.0
 11
527.36945
 21
1729.0687
 31
0.0
  0
LINE
  5
3E8
330
36
100
AcDbEntity
  8
0
  6
Continuous
 62
     7
100
AcDbLine
 10
508.5294199999998
 20
1719.2197
 30
0.0
 11
508.5294199999998
 21
1705.1211
 31
0.0
  0
LINE
  5
3E9
330
36
100
AcDbEntity
  8
0
  6
DASHED
 62
     6
100
AcDbLine
 10
508.5294199999998
 20
1719.2197
 30
0.0
 11
508.5294199999998
 21
1730.2223
 31
0.0
  0
LINE
  5
3EA
330
36
100
AcDbEntity
  8
0
  6
DASHED
 62
     6
100
AcDbLine
 10
508.5294199999998
 20
1735.2173
 30
0.0
 11
508.5294199999998
 21
1757.14
 31
0.0
  0
LINE
  5
3EB
330
36
100
AcDbEntity
  8
0
  6
DASHED
 62
     6
100
AcDbLine
 10
508.5294199999998
 20
1764.2996
 30
0.0
 11
508.5294199999998
 21
1774.2197
 31
0.0
  0
LINE
  5
3EC
330
36
100
AcDbEntity
  8
0
  6
Continuous
 62
     7
100
AcDbLine
 10
499.52942
 20
1719.2197
 30
0.0
 11
499.52942
 21
1705.1211
 31
0.0
  0
LINE
  5
3ED
330
36
100
AcDbEntity
  8
0
  6
DASHED
 62
     6
100
AcDbLine
 10
499.52942
 20
1730.2169
 30
0.0
 11
499.52942
 21
1719.2197
 31
0.0
  0
LINE
  5
3EE
330
36
100
AcDbEntity
  8
0
  6
DASHED
 62
     6
100
AcDbLine
 10
499.52942
 20
1764.2227
 30
0.0
 11
499.52942
 21
1774.2197
 31
0.0
  0
LINE
  5
3EF
330
36
100
AcDbEntity
  8
0
  6
CENTER
 62
     4
100
AcDbLine
 10
492.52942
 20
1774.4697
 30
0.0
 11
492.52942
 21
1759.9697
 31
0.0
  0
LINE
  5
3F0
330
36
100
AcDbEntity
  8
0
  6
CENTER
 62
     4
100
AcDbLine
 10
499.77942
 20
1767.2197
 30
0.0
 11
485.2794199999998
 21
1767.2197
 31
0.0
  0
LINE
  5
3F1
330
36
100
AcDbEntity
  8
0
  6
CENTER
 62
     4
100
AcDbLine
 10
522.77942
 20
1767.2197
 30
0.0
 11
508.27942
 21
1767.2197
 31
0.0
  0
LINE
  5
3F2
330
36
100
AcDbEntity
  8
0
  6
CENTER
 62
     4
100
AcDbLine
 10
515.5294200000001
 20
1774.4697
 30
0.0
 11
515.5294200000001
 21
1759.9697
 31
0.0
  0
LINE
  5
3F3
330
36
100
AcDbEntity
  8
0
  6
CENTER
 62
     4
100
AcDbLine
 10
492.52942
 20
1733.4697
 30
0.0
 11
492.52942
 21
1718.9697
 31
0.0
  0
LINE
  5
3F4
330
36
100
AcDbEntity
  8
0
  6
CENTER
 62
     4
100
AcDbLine
 10
522.77942
 20
1726.2197
 30
0.0
 11
508.27942
 21
1726.2197
 31
0.0
  0
LINE
  5
3F5
330
36
100
AcDbEntity
  8
0
  6
CENTER
 62
     4
100
AcDbLine
 10
499.77942
 20
1726.2197
 30
0.0
 11
485.2794199999998
 21
1726.2197
 31
0.0
  0
LINE
  5
3F6
330
36
100
AcDbEntity
  8
0
  6
CENTER
 62
     4
100
AcDbLine
 10
515.5294200000001
 20
1733.4697
 30
0.0
 11
515.5294200000001
 21
1718.9697
 31
0.0
  0
LINE
  5
3F7
330
36
100
AcDbEntity
  8
0
  6
Continuous
 62
     7
100
AcDbLine
 10
365.64587
 20
1708.64
 30
0.0
 11
372.96588
 21
1708.64
 31
0.0
  0
LINE
  5
3F8
330
36
100
AcDbEntity
  8
0
  6
Continuous
 62
     7
100
AcDbLine
 10
365.64587
 20
1715.7996
 30
0.0
 11
372.96588
 21
1715.7996
 31
0.0
  0
LINE
  5
3F9
330
36
100
AcDbEntity
  8
0
  6
Continuous
 62
     7
100
AcDbLine
 10
365.64587
 20
1752.64
 30
0.0
 11
372.96588
 21
1752.64
 31
0.0
  0
LINE
  5
3FA
330
36
100
AcDbEntity
  8
0
  6
Continuous
 62
     7
100
AcDbLine
 10
365.64587
 20
1759.7996
 30
0.0
 11
372.96588
 21
1759.7996
 31
0.0
  0
LINE
  5
3FB
330
36
100
AcDbEntity
  8
0
  6
Continuous
 62
     7
100
AcDbLine
 10
365.64587
 20
1774.2197
 30
0.0
 11
393.97086
 21
1774.2197
 31
0.0
  0
LINE
  5
3FC
330
36
100
AcDbEntity
  8
0
  6
Continuous
 62
     7
100
AcDbLine
 10
393.97086
 20
1694.2197
 30
0.0
 11
365.64587
 21
1694.2197
 31
0.0
  0
LINE
  5
3FD
330
36
100
AcDbEntity
  8
0
  6
Continuous
 62
     7
100
AcDbLine
 10
367.97086
 20
1777.5498
 30
0.0
 11
379.97086
 21
1777.5498
 31
0.0
  0
LINE
  5
3FE
330
36
100
AcDbEntity
  8
0
  6
Continuous
 62
     7
100
AcDbLine
 10
393.97086
 20
1652.0074
 30
0.0
 11
365.64587
 21
1652.0074
 31
0.0
  0
LINE
  5
3FF
330
36
100
AcDbEntity
  8
0
  6
Continuous
 62
     7
100
AcDbLine
 10
365.64587
 20
1675.0074
 30
0.0
 11
393.97086
 21
1675.0074
 31
0.0
  0
LINE
  5
400
330
36
100
AcDbEntity
  8
0
  6
Continuous
 62
     7
100
AcDbLine
 10
385.47086
 20
1587.1688
 30
0.0
 11
362.47086
 21
1587.1688
 31
0.0
  0
LINE
  5
401
330
36
100
AcDbEntity
  8
0
  6
Continuous
 62
     7
100
AcDbLine
 10
362.47086
 20
1588.6688
 30
0.0
 11
385.47086
 21
1588.6688
 31
0.0
  0
LINE
  5
402
330
36
100
AcDbEntity
  8
0
  6
Continuous
 62
     7
100
AcDbLine
 10
379.97086
 20
1573.7708
 30
0.0
 11
367.97086
 21
1573.7708
 31
0.0
  0
LINE
  5
403
330
36
100
AcDbEntity
  8
0
  6
DASHED
 62
     6
100
AcDbLine
 10
367.97086
 20
1774.2197
 30
0.0
 11
367.97086
 21
1759.7227
 31
0.0
  0
LINE
  5
404
330
36
100
AcDbEntity
  8
0
  6
Continuous
 62
     7
100
AcDbLine
 10
365.64587
 20
1774.2197
 30
0.0
 11
365.64587
 21
1759.7996
 31
0.0
  0
LINE
  5
405
330
36
100
AcDbEntity
  8
0
  6
CENTER
 62
     4
100
AcDbLine
 10
373.97086
 20
1827.8798
 30
0.0
 11
373.97086
 21
1567.4407
 31
0.0
  0
LINE
  5
406
330
36
100
AcDbEntity
  8
0
  6
DASHED
 62
     6
100
AcDbLine
 10
367.97086
 20
1675.0074
 30
0.0
 11
367.97086
 21
1652.0074
 31
0.0
  0
LINE
  5
407
330
36
100
AcDbEntity
  8
0
  6
Continuous
 62
     7
100
AcDbLine
 10
365.64587
 20
1675.0074
 30
0.0
 11
365.64587
 21
1652.0074
 31
0.0
  0
LINE
  5
408
330
36
100
AcDbEntity
  8
0
  6
Continuous
 62
     7
100
AcDbLine
 10
367.97086
 20
1652.0074
 30
0.0
 11
367.97086
 21
1633.3391
 31
0.0
  0
LINE
  5
409
330
36
100
AcDbEntity
  8
0
  6
Continuous
 62
     7
100
AcDbLine
 10
367.97086
 20
1623.3391
 30
0.0
 11
367.97086
 21
1588.6688
 31
0.0
  0
LINE
  5
40A
330
36
100
AcDbEntity
  8
0
  6
DASHED
 62
     6
100
AcDbLine
 10
367.97086
 20
1708.7169
 30
0.0
 11
367.97086
 21
1694.2197
 31
0.0
  0
LINE
  5
40B
330
36
100
AcDbEntity
  8
0
  6
Continuous
 62
     7
100
AcDbLine
 10
367.97086
 20
1694.2197
 30
0.0
 11
367.97086
 21
1675.0074
 31
0.0
  0
LINE
  5
40C
330
36
100
AcDbEntity
  8
0
  6
Continuous
 62
     7
100
AcDbLine
 10
367.97086
 20
1759.7227
 30
0.0
 11
367.97086
 21
1752.64
 31
0.0
  0
LINE
  5
40D
330
36
100
AcDbEntity
  8
0
  6
Continuous
 62
     7
100
AcDbLine
 10
367.97086
 20
1777.5498
 30
0.0
 11
367.97086
 21
1774.2197
 31
0.0
  0
LINE
  5
40E
330
36
100
AcDbEntity
  8
0
  6
DASHED
 62
     6
100
AcDbLine
 10
379.97086
 20
1774.2197
 30
0.0
 11
379.97086
 21
1694.2197
 31
0.0
  0
LINE
  5
40F
330
36
100
AcDbEntity
  8
0
  6
Continuous
 62
     7
100
AcDbLine
 10
382.29587
 20
1774.2197
 30
0.0
 11
382.29587
 21
1694.2197
 31
0.0
  0
LINE
  5
410
330
36
100
AcDbEntity
  8
0
  6
Continuous
 62
     7
100
AcDbLine
 10
393.97086
 20
1774.2197
 30
0.0
 11
393.97086
 21
1694.2197
 31
0.0
  0
LINE
  5
411
330
36
100
AcDbEntity
  8
0
  6
DASHED
 62
     6
100
AcDbLine
 10
379.97086
 20
1675.0074
 30
0.0
 11
379.97086
 21
1652.0074
 31
0.0
  0
LINE
  5
412
330
36
100
AcDbEntity
  8
0
  6
Continuous
 62
     7
100
AcDbLine
 10
382.29587
 20
1675.0074
 30
0.0
 11
382.29587
 21
1652.0074
 31
0.0
  0
LINE
  5
413
330
36
100
AcDbEntity
  8
0
  6
Continuous
 62
     7
100
AcDbLine
 10
379.97086
 20
1652.0074
 30
0.0
 11
379.97086
 21
1633.3391
 31
0.0
  0
LINE
  5
414
330
36
100
AcDbEntity
  8
0
  6
Continuous
 62
     7
100
AcDbLine
 10
379.97086
 20
1623.3391
 30
0.0
 11
379.97086
 21
1588.6688
 31
0.0
  0
LINE
  5
415
330
36
100
AcDbEntity
  8
0
  6
Continuous
 62
     7
100
AcDbLine
 10
379.97086
 20
1694.1129
 30
0.0
 11
379.97086
 21
1675.0074
 31
0.0
  0
LINE
  5
416
330
36
100
AcDbEntity
  8
0
  6
Continuous
 62
     7
100
AcDbLine
 10
379.97086
 20
1777.5498
 30
0.0
 11
379.97086
 21
1774.2197
 31
0.0
  0
LINE
  5
417
330
36
100
AcDbEntity
  8
0
  6
DASHED
 62
     6
100
AcDbLine
 10
367.97086
 20
1752.64
 30
0.0
 11
367.97086
 21
1715.7996
 31
0.0
  0
LINE
  5
418
330
36
100
AcDbEntity
  8
0
  6
Continuous
 62
     7
100
AcDbLine
 10
372.96588
 20
1759.7996
 30
0.0
 11
372.96588
 21
1752.64
 31
0.0
  0
LINE
  5
419
330
36
100
AcDbEntity
  8
0
  6
Continuous
 62
     7
100
AcDbLine
 10
372.96588
 20
1715.7996
 30
0.0
 11
372.96588
 21
1708.64
 31
0.0
  0
LINE
  5
41A
330
36
100
AcDbEntity
  8
0
  6
Continuous
 62
     7
100
AcDbLine
 10
391.65088
 20
1774.2197
 30
0.0
 11
391.65088
 21
1694.2197
 31
0.0
  0
LINE
  5
41B
330
36
100
AcDbEntity
  8
0
  6
Continuous
 62
     7
100
AcDbLine
 10
365.64587
 20
1752.64
 30
0.0
 11
365.64587
 21
1715.7996
 31
0.0
  0
LINE
  5
41C
330
36
100
AcDbEntity
  8
0
  6
Continuous
 62
     7
100
AcDbLine
 10
365.64587
 20
1708.64
 30
0.0
 11
365.64587
 21
1694.2197
 31
0.0
  0
LINE
  5
41D
330
36
100
AcDbEntity
  8
0
  6
Continuous
 62
     7
100
AcDbLine
 10
393.97086
 20
1675.0074
 30
0.0
 11
393.97086
 21
1652.0074
 31
0.0
  0
LINE
  5
41E
330
36
100
AcDbEntity
  8
0
  6
Continuous
 62
     7
100
AcDbLine
 10
391.65088
 20
1675.0074
 30
0.0
 11
391.65088
 21
1652.0074
 31
0.0
  0
LINE
  5
41F
330
36
100
AcDbEntity
  8
0
  6
Continuous
 62
     7
100
AcDbLine
 10
362.47086
 20
1588.6688
 30
0.0
 11
362.47086
 21
1587.1688
 31
0.0
  0
LINE
  5
420
330
36
100
AcDbEntity
  8
0
  6
Continuous
 62
     7
100
AcDbLine
 10
385.47086
 20
1588.6688
 30
0.0
 11
385.47086
 21
1587.1688
 31
0.0
  0
LINE
  5
421
330
36
100
AcDbEntity
  8
0
  6
Continuous
 62
     3
100
AcDbLine
 10
239.39058
 20
1775.2197
 30
0.0
 11
239.39058
 21
1835.8798
 31
0.0
  0
LINE
  5
422
330
36
100
AcDbEntity
  8
0
  6
Continuous
 62
     3
100
AcDbLine
 10
248.39058
 20
1774.4697
 30
0.0
 11
248.39058
 21
1835.8798
 31
0.0
  0
LINE
  5
423
330
36
100
AcDbEntity
  8
0
  6
Continuous
 62
     3
100
AcDbLine
 10
240.19058
 20
1834.8798
 30
0.0
 11
247.59058
 21
1834.8798
 31
0.0
  0
LINE
  5
424
330
36
100
AcDbEntity
  8
0
  6
Continuous
 62
     7
100
AcDbLine
 10
239.79057
 20
1834.8798
 30
0.0
 11
240.19058
 21
1834.8798
 31
0.0
  0
LINE
  5
425
330
36
100
AcDbEntity
  8
0
  6
Continuous
 62
     7
100
AcDbLine
 10
247.99059
 20
1834.8798
 30
0.0
 11
247.59058
 21
1834.8798
 31
0.0
  0
LINE
  5
426
330
36
100
AcDbEntity
  8
0
  6
Continuous
 62
     3
100
AcDbLine
 10
248.39058
 20
1774.4697
 30
0.0
 11
248.39058
 21
1835.8798
 31
0.0
  0
LINE
  5
427
330
36
100
AcDbEntity
  8
0
  6
Continuous
 62
     3
100
AcDbLine
 10
276.39056
 20
1774.4697
 30
0.0
 11
276.39056
 21
1835.8798
 31
0.0
  0
LINE
  5
428
330
36
100
AcDbEntity
  8
0
  6
Continuous
 62
     3
100
AcDbLine
 10
249.19058
 20
1834.8798
 30
0.0
 11
275.59058
 21
1834.8798
 31
0.0
  0
LINE
  5
429
330
36
100
AcDbEntity
  8
0
  6
Continuous
 62
     7
100
AcDbLine
 10
248.79057
 20
1834.8798
 30
0.0
 11
249.19058
 21
1834.8798
 31
0.0
  0
LINE
  5
42A
330
36
100
AcDbEntity
  8
0
  6
Continuous
 62
     7
100
AcDbLine
 10
275.99057
 20
1834.8798
 30
0.0
 11
275.59058
 21
1834.8798
 31
0.0
  0
LINE
  5
42B
330
36
100
AcDbEntity
  8
0
  6
Continuous
 62
     3
100
AcDbLine
 10
276.39056
 20
1774.4697
 30
0.0
 11
276.39056
 21
1835.8798
 31
0.0
  0
LINE
  5
42C
330
36
100
AcDbEntity
  8
0
  6
Continuous
 62
     3
100
AcDbLine
 10
285.39056
 20
1775.2197
 30
0.0
 11
285.39056
 21
1835.8798
 31
0.0
  0
LINE
  5
42D
330
36
100
AcDbEntity
  8
0
  6
Continuous
 62
     3
100
AcDbLine
 10
277.1905799999999
 20
1834.8798
 30
0.0
 11
284.59058
 21
1834.8798
 31
0.0
  0
LINE
  5
42E
330
36
100
AcDbEntity
  8
0
  6
Continuous
 62
     7
100
AcDbLine
 10
276.79059
 20
1834.8798
 30
0.0
 11
277.1905799999999
 21
1834.8798
 31
0.0
  0
LINE
  5
42F
330
36
100
AcDbEntity
  8
0
  6
Continuous
 62
     7
100
AcDbLine
 10
284.99057
 20
1834.8798
 30
0.0
 11
284.59058
 21
1834.8798
 31
0.0
  0
LINE
  5
430
330
36
100
AcDbEntity
  8
0
  6
Continuous
 62
     3
100
AcDbLine
 10
239.39058
 20
1791.869
 30
0.0
 11
239.39058
 21
1845.8798
 31
0.0
  0
LINE
  5
431
330
36
100
AcDbEntity
  8
0
  6
Continuous
 62
     3
100
AcDbLine
 10
285.39056
 20
1791.869
 30
0.0
 11
285.39056
 21
1845.8798
 31
0.0
  0
LINE
  5
432
330
36
100
AcDbEntity
  8
0
  6
Continuous
 62
     3
100
AcDbLine
 10
240.19058
 20
1844.8798
 30
0.0
 11
284.59058
 21
1844.8798
 31
0.0
  0
LINE
  5
433
330
36
100
AcDbEntity
  8
0
  6
Continuous
 62
     7
100
AcDbLine
 10
239.79057
 20
1844.8798
 30
0.0
 11
240.19058
 21
1844.8798
 31
0.0
  0
LINE
  5
434
330
36
100
AcDbEntity
  8
0
  6
Continuous
 62
     7
100
AcDbLine
 10
284.99057
 20
1844.8798
 30
0.0
 11
284.59058
 21
1844.8798
 31
0.0
  0
LINE
  5
435
330
36
100
AcDbEntity
  8
0
  6
Continuous
 62
     3
100
AcDbLine
 10
286.39056
 20
1774.2197
 30
0.0
 11
311.38058
 21
1774.2197
 31
0.0
  0
LINE
  5
436
330
36
100
AcDbEntity
  8
0
  6
Continuous
 62
     3
100
AcDbLine
 10
284.64056
 20
1766.2197
 30
0.0
 11
311.38058
 21
1766.2197
 31
0.0
  0
LINE
  5
437
330
36
100
AcDbEntity
  8
0
  6
Continuous
 62
     3
100
AcDbLine
 10
310.38058
 20
1773.4198
 30
0.0
 11
310.38058
 21
1767.0198
 31
0.0
  0
LINE
  5
438
330
36
100
AcDbEntity
  8
0
  6
Continuous
 62
     7
100
AcDbLine
 10
310.38058
 20
1773.8198
 30
0.0
 11
310.38058
 21
1773.4198
 31
0.0
  0
LINE
  5
439
330
36
100
AcDbEntity
  8
0
  6
Continuous
 62
     7
100
AcDbLine
 10
310.38058
 20
1766.6198
 30
0.0
 11
310.38058
 21
1767.0198
 31
0.0
  0
LINE
  5
43A
330
36
100
AcDbEntity
  8
0
  6
Continuous
 62
     3
100
AcDbLine
 10
284.64056
 20
1766.2197
 30
0.0
 11
311.38058
 21
1766.2197
 31
0.0
  0
LINE
  5
43B
330
36
100
AcDbEntity
  8
0
  6
Continuous
 62
     3
100
AcDbLine
 10
284.64056
 20
1734.2197
 30
0.0
 11
311.38058
 21
1734.2197
 31
0.0
  0
LINE
  5
43C
330
36
100
AcDbEntity
  8
0
  6
Continuous
 62
     3
100
AcDbLine
 10
310.38058
 20
1765.4198
 30
0.0
 11
310.38058
 21
1735.0198
 31
0.0
  0
LINE
  5
43D
330
36
100
AcDbEntity
  8
0
  6
Continuous
 62
     7
100
AcDbLine
 10
310.38058
 20
1765.8198
 30
0.0
 11
310.38058
 21
1765.4198
 31
0.0
  0
LINE
  5
43E
330
36
100
AcDbEntity
  8
0
  6
Continuous
 62
     7
100
AcDbLine
 10
310.38058
 20
1734.6198
 30
0.0
 11
310.38058
 21
1735.0198
 31
0.0
  0
LINE
  5
43F
330
36
100
AcDbEntity
  8
0
  6
Continuous
 62
     3
100
AcDbLine
 10
284.64056
 20
1734.2197
 30
0.0
 11
311.38058
 21
1734.2197
 31
0.0
  0
LINE
  5
440
330
36
100
AcDbEntity
  8
0
  6
Continuous
 62
     3
100
AcDbLine
 10
284.64056
 20
1702.2197
 30
0.0
 11
311.38058
 21
1702.2197
 31
0.0
  0
LINE
  5
441
330
36
100
AcDbEntity
  8
0
  6
Continuous
 62
     3
100
AcDbLine
 10
310.38058
 20
1733.4198
 30
0.0
 11
310.38058
 21
1703.0198
 31
0.0
  0
LINE
  5
442
330
36
100
AcDbEntity
  8
0
  6
Continuous
 62
     7
100
AcDbLine
 10
310.38058
 20
1733.8198
 30
0.0
 11
310.38058
 21
1733.4198
 31
0.0
  0
LINE
  5
443
330
36
100
AcDbEntity
  8
0
  6
Continuous
 62
     7
100
AcDbLine
 10
310.38058
 20
1702.6198
 30
0.0
 11
310.38058
 21
1703.0198
 31
0.0
  0
LINE
  5
444
330
36
100
AcDbEntity
  8
0
  6
Continuous
 62
     3
100
AcDbLine
 10
284.64056
 20
1702.2197
 30
0.0
 11
311.38058
 21
1702.2197
 31
0.0
  0
LINE
  5
445
330
36
100
AcDbEntity
  8
0
  6
Continuous
 62
     3
100
AcDbLine
 10
286.39056
 20
1694.2197
 30
0.0
 11
311.38058
 21
1694.2197
 31
0.0
  0
LINE
  5
446
330
36
100
AcDbEntity
  8
0
  6
Continuous
 62
     3
100
AcDbLine
 10
310.38058
 20
1701.4198
 30
0.0
 11
310.38058
 21
1695.0198
 31
0.0
  0
LINE
  5
447
330
36
100
AcDbEntity
  8
0
  6
Continuous
 62
     7
100
AcDbLine
 10
310.38058
 20
1701.8198
 30
0.0
 11
310.38058
 21
1701.4198
 31
0.0
  0
LINE
  5
448
330
36
100
AcDbEntity
  8
0
  6
Continuous
 62
     7
100
AcDbLine
 10
310.38058
 20
1694.6198
 30
0.0
 11
310.38058
 21
1695.0198
 31
0.0
  0
LINE
  5
449
330
36
100
AcDbEntity
  8
0
  6
Continuous
 62
     3
100
AcDbLine
 10
286.39056
 20
1774.2197
 30
0.0
 11
321.38058
 21
1774.2197
 31
0.0
  0
LINE
  5
44A
330
36
100
AcDbEntity
  8
0
  6
Continuous
 62
     3
100
AcDbLine
 10
286.39056
 20
1694.2197
 30
0.0
 11
321.38058
 21
1694.2197
 31
0.0
  0
LINE
  5
44B
330
36
100
AcDbEntity
  8
0
  6
Continuous
 62
     3
100
AcDbLine
 10
320.38058
 20
1773.4198
 30
0.0
 11
320.38058
 21
1695.0198
 31
0.0
  0
LINE
  5
44C
330
36
100
AcDbEntity
  8
0
  6
Continuous
 62
     7
100
AcDbLine
 10
320.38058
 20
1773.8198
 30
0.0
 11
320.38058
 21
1773.4198
 31
0.0
  0
LINE
  5
44D
330
36
100
AcDbEntity
  8
0
  6
Continuous
 62
     7
100
AcDbLine
 10
320.38058
 20
1694.6198
 30
0.0
 11
320.38058
 21
1695.0198
 31
0.0
  0
LINE
  5
44E
330
36
100
AcDbEntity
  8
0
  6
Continuous
 62
     3
100
AcDbLine
 10
286.39056
 20
1675.0074
 30
0.0
 11
301.39056
 21
1675.0074
 31
0.0
  0
LINE
  5
44F
330
36
100
AcDbEntity
  8
0
  6
Continuous
 62
     3
100
AcDbLine
 10
286.39056
 20
1652.0074
 30
0.0
 11
301.39056
 21
1652.0074
 31
0.0
  0
LINE
  5
450
330
36
100
AcDbEntity
  8
0
  6
Continuous
 62
     3
100
AcDbLine
 10
300.39056
 20
1674.2074
 30
0.0
 11
300.39056
 21
1652.8074
 31
0.0
  0
LINE
  5
451
330
36
100
AcDbEntity
  8
0
  6
Continuous
 62
     7
100
AcDbLine
 10
300.39056
 20
1674.6074
 30
0.0
 11
300.39056
 21
1674.2074
 31
0.0
  0
LINE
  5
452
330
36
100
AcDbEntity
  8
0
  6
Continuous
 62
     7
100
AcDbLine
 10
300.39056
 20
1652.4073
 30
0.0
 11
300.39056
 21
1652.8074
 31
0.0
  0
LINE
  5
453
330
36
100
AcDbEntity
  8
0
  6
Continuous
 62
     3
100
AcDbLine
 10
288.39056
 20
1588.6688
 30
0.0
 11
301.39056
 21
1588.6688
 31
0.0
  0
LINE
  5
454
330
36
100
AcDbEntity
  8
0
  6
Continuous
 62
     3
100
AcDbLine
 10
288.39056
 20
1587.1688
 30
0.0
 11
301.39056
 21
1587.1688
 31
0.0
  0
LINE
  5
455
330
36
100
AcDbEntity
  8
0
  6
Continuous
 62
     3
100
AcDbLine
 10
300.39056
 20
1589.4689
 30
0.0
 11
300.39056
 21
1590.2688
 31
0.0
  0
LINE
  5
456
330
36
100
AcDbEntity
  8
0
  6
Continuous
 62
     3
100
AcDbLine
 10
300.39056
 20
1586.3688
 30
0.0
 11
300.39056
 21
1579.5963
 31
0.0
  0
LINE
  5
457
330
36
100
AcDbEntity
  8
0
  6
Continuous
 62
     3
100
AcDbLine
 10
300.39056
 20
1588.6688
 30
0.0
 11
300.39056
 21
1587.1688
 31
0.0
  0
LINE
  5
458
330
36
100
AcDbEntity
  8
0
  6
Continuous
 62
     7
100
AcDbLine
 10
300.39056
 20
1589.0688
 30
0.0
 11
300.39056
 21
1589.4689
 31
0.0
  0
LINE
  5
459
330
36
100
AcDbEntity
  8
0
  6
Continuous
 62
     7
100
AcDbLine
 10
300.39056
 20
1586.7688
 30
0.0
 11
300.39056
 21
1586.3688
 31
0.0
  0
LINE
  5
45A
330
36
100
AcDbEntity
  8
0
  6
Continuous
 62
     3
100
AcDbLine
 10
256.39056
 20
1572.7708
 30
0.0
 11
256.39056
 21
1554.4407
 31
0.0
  0
LINE
  5
45B
330
36
100
AcDbEntity
  8
0
  6
Continuous
 62
     3
100
AcDbLine
 10
268.39056
 20
1572.7708
 30
0.0
 11
268.39056
 21
1554.4407
 31
0.0
  0
LINE
  5
45C
330
36
100
AcDbEntity
  8
0
  6
Continuous
 62
     3
100
AcDbLine
 10
257.19058
 20
1555.4407
 30
0.0
 11
267.59058
 21
1555.4407
 31
0.0
  0
LINE
  5
45D
330
36
100
AcDbEntity
  8
0
  6
Continuous
 62
     7
100
AcDbLine
 10
256.79059
 20
1555.4407
 30
0.0
 11
257.19058
 21
1555.4407
 31
0.0
  0
LINE
  5
45E
330
36
100
AcDbEntity
  8
0
  6
Continuous
 62
     7
100
AcDbLine
 10
267.99057
 20
1555.4407
 30
0.0
 11
267.59058
 21
1555.4407
 31
0.0
  0
LINE
  5
45F
330
36
100
AcDbEntity
  8
0
  6
Continuous
 62
     7
100
AcDbLine
 10
287.39056
 20
1588.6688
 30
0.0
 11
287.39056
 21
1587.1688
 31
0.0
  0
LINE
  5
460
330
36
100
AcDbEntity
  8
0
  6
Continuous
 62
     7
100
AcDbLine
 10
237.39058
 20
1588.6688
 30
0.0
 11
237.39058
 21
1587.1688
 31
0.0
  0
LINE
  5
461
330
36
100
AcDbEntity
  8
0
  6
Continuous
 62
     3
100
AcDbLine
 10
237.39058
 20
1585.4338
 30
0.0
 11
237.39058
 21
1544.4407
 31
0.0
  0
LINE
  5
462
330
36
100
AcDbEntity
  8
0
  6
Continuous
 62
     3
100
AcDbLine
 10
244.89058
 20
1582.4338
 30
0.0
 11
244.89058
 21
1544.4407
 31
0.0
  0
LINE
  5
463
330
36
100
AcDbEntity
  8
0
  6
Continuous
 62
     3
100
AcDbLine
 10
238.19058
 20
1545.4407
 30
0.0
 11
244.09058
 21
1545.4407
 31
0.0
  0
LINE
  5
464
330
36
100
AcDbEntity
  8
0
  6
Continuous
 62
     7
100
AcDbLine
 10
237.79057
 20
1545.4407
 30
0.0
 11
238.19058
 21
1545.4407
 31
0.0
  0
LINE
  5
465
330
36
100
AcDbEntity
  8
0
  6
Continuous
 62
     7
100
AcDbLine
 10
244.49059
 20
1545.4407
 30
0.0
 11
244.09058
 21
1545.4407
 31
0.0
  0
LINE
  5
466
330
36
100
AcDbEntity
  8
0
  6
Continuous
 62
     3
100
AcDbLine
 10
244.89058
 20
1582.4338
 30
0.0
 11
244.89058
 21
1544.4407
 31
0.0
  0
LINE
  5
467
330
36
100
AcDbEntity
  8
0
  6
Continuous
 62
     3
100
AcDbLine
 10
279.89056
 20
1582.4338
 30
0.0
 11
279.89056
 21
1544.4407
 31
0.0
  0
LINE
  5
468
330
36
100
AcDbEntity
  8
0
  6
Continuous
 62
     3
100
AcDbLine
 10
245.69058
 20
1545.4407
 30
0.0
 11
279.09058
 21
1545.4407
 31
0.0
  0
LINE
  5
469
330
36
100
AcDbEntity
  8
0
  6
Continuous
 62
     7
100
AcDbLine
 10
245.29057
 20
1545.4407
 30
0.0
 11
245.69058
 21
1545.4407
 31
0.0
  0
LINE
  5
46A
330
36
100
AcDbEntity
  8
0
  6
Continuous
 62
     7
100
AcDbLine
 10
279.49057
 20
1545.4407
 30
0.0
 11
279.09058
 21
1545.4407
 31
0.0
  0
LINE
  5
46B
330
36
100
AcDbEntity
  8
0
  6
Continuous
 62
     3
100
AcDbLine
 10
279.89056
 20
1582.4338
 30
0.0
 11
279.89056
 21
1544.4407
 31
0.0
  0
LINE
  5
46C
330
36
100
AcDbEntity
  8
0
  6
Continuous
 62
     3
100
AcDbLine
 10
287.39056
 20
1585.4338
 30
0.0
 11
287.39056
 21
1544.4407
 31
0.0
  0
LINE
  5
46D
330
36
100
AcDbEntity
  8
0
  6
Continuous
 62
     3
100
AcDbLine
 10
280.69058
 20
1545.4407
 30
0.0
 11
286.59058
 21
1545.4407
 31
0.0
  0
LINE
  5
46E
330
36
100
AcDbEntity
  8
0
  6
Continuous
 62
     7
100
AcDbLine
 10
280.29059
 20
1545.4407
 30
0.0
 11
280.69058
 21
1545.4407
 31
0.0
  0
LINE
  5
46F
330
36
100
AcDbEntity
  8
0
  6
Continuous
 62
     7
100
AcDbLine
 10
286.99057
 20
1545.4407
 30
0.0
 11
286.59058
 21
1545.4407
 31
0.0
  0
LINE
  5
470
330
36
100
AcDbEntity
  8
0
  6
Continuous
 62
     3
100
AcDbLine
 10
237.39058
 20
1544.4407
 30
0.0
 11
237.39058
 21
1534.4407
 31
0.0
  0
LINE
  5
471
330
36
100
AcDbEntity
  8
0
  6
Continuous
 62
     3
100
AcDbLine
 10
287.39056
 20
1544.4407
 30
0.0
 11
287.39056
 21
1534.4407
 31
0.0
  0
LINE
  5
472
330
36
100
AcDbEntity
  8
0
  6
Continuous
 62
     3
100
AcDbLine
 10
238.19058
 20
1535.4407
 30
0.0
 11
286.59058
 21
1535.4407
 31
0.0
  0
LINE
  5
473
330
36
100
AcDbEntity
  8
0
  6
Continuous
 62
     7
100
AcDbLine
 10
237.79057
 20
1535.4407
 30
0.0
 11
238.19058
 21
1535.4407
 31
0.0
  0
LINE
  5
474
330
36
100
AcDbEntity
  8
0
  6
Continuous
 62
     7
100
AcDbLine
 10
286.99057
 20
1535.4407
 30
0.0
 11
286.59058
 21
1535.4407
 31
0.0
  0
LINE
  5
475
330
36
100
AcDbEntity
  8
0
  6
Continuous
 62
     3
100
AcDbLine
 10
261.78101
 20
1780.869
 30
0.0
 11
218.39058
 21
1780.869
 31
0.0
  0
LINE
  5
476
330
36
100
AcDbEntity
  8
0
  6
Continuous
 62
     3
100
AcDbLine
 10
261.39056
 20
1570.4407
 30
0.0
 11
218.39058
 21
1570.4407
 31
0.0
  0
LINE
  5
477
330
36
100
AcDbEntity
  8
0
  6
Continuous
 62
     3
100
AcDbLine
 10
219.39058
 20
1780.069
 30
0.0
 11
219.39058
 21
1571.2407
 31
0.0
  0
LINE
  5
478
330
36
100
AcDbEntity
  8
0
  6
Continuous
 62
     7
100
AcDbLine
 10
219.39058
 20
1780.469
 30
0.0
 11
219.39058
 21
1780.069
 31
0.0
  0
LINE
  5
479
330
36
100
AcDbEntity
  8
0
  6
Continuous
 62
     7
100
AcDbLine
 10
219.39058
 20
1570.8407
 30
0.0
 11
219.39058
 21
1571.2407
 31
0.0
  0
LINE
  5
47A
330
36
100
AcDbEntity
  8
0
  6
CENTER
 62
     4
100
AcDbLine
 10
375.96588
 20
1712.2197
 30
0.0
 11
362.64587
 21
1712.2197
 31
0.0
  0
LINE
  5
47B
330
36
100
AcDbEntity
  8
0
  6
CENTER
 62
     4
100
AcDbLine
 10
375.96588
 20
1756.2197
 30
0.0
 11
362.64587
 21
1756.2197
 31
0.0
  0
LINE
  5
47C
330
36
100
AcDbEntity
  8
0
  6
Continuous
 62
     3
100
AcDbLine
 10
364.64587
 20
1774.2197
 30
0.0
 11
354.64587
 21
1774.2197
 31
0.0
  0
LINE
  5
47D
330
36
100
AcDbEntity
  8
0
  6
Continuous
 62
     3
100
AcDbLine
 10
361.64587
 20
1756.2197
 30
0.0
 11
354.64587
 21
1756.2197
 31
0.0
  0
LINE
  5
47E
330
36
100
AcDbEntity
  8
0
  6
Continuous
 62
     3
100
AcDbLine
 10
355.64587
 20
1773.4198
 30
0.0
 11
355.64587
 21
1757.0198
 31
0.0
  0
LINE
  5
47F
330
36
100
AcDbEntity
  8
0
  6
Continuous
 62
     7
100
AcDbLine
 10
355.64587
 20
1773.8198
 30
0.0
 11
355.64587
 21
1773.4198
 31
0.0
  0
LINE
  5
480
330
36
100
AcDbEntity
  8
0
  6
Continuous
 62
     7
100
AcDbLine
 10
355.64587
 20
1756.6198
 30
0.0
 11
355.64587
 21
1757.0198
 31
0.0
  0
LINE
  5
481
330
36
100
AcDbEntity
  8
0
  6
Continuous
 62
     3
100
AcDbLine
 10
361.64587
 20
1756.2197
 30
0.0
 11
354.64587
 21
1756.2197
 31
0.0
  0
LINE
  5
482
330
36
100
AcDbEntity
  8
0
  6
Continuous
 62
     3
100
AcDbLine
 10
361.64587
 20
1712.2197
 30
0.0
 11
354.64587
 21
1712.2197
 31
0.0
  0
LINE
  5
483
330
36
100
AcDbEntity
  8
0
  6
Continuous
 62
     3
100
AcDbLine
 10
355.64587
 20
1755.4198
 30
0.0
 11
355.64587
 21
1713.0198
 31
0.0
  0
LINE
  5
484
330
36
100
AcDbEntity
  8
0
  6
Continuous
 62
     7
100
AcDbLine
 10
355.64587
 20
1755.8198
 30
0.0
 11
355.64587
 21
1755.4198
 31
0.0
  0
LINE
  5
485
330
36
100
AcDbEntity
  8
0
  6
Continuous
 62
     7
100
AcDbLine
 10
355.64587
 20
1712.6198
 30
0.0
 11
355.64587
 21
1713.0198
 31
0.0
  0
LINE
  5
486
330
36
100
AcDbEntity
  8
0
  6
Continuous
 62
     3
100
AcDbLine
 10
361.64587
 20
1712.2197
 30
0.0
 11
354.64587
 21
1712.2197
 31
0.0
  0
LINE
  5
487
330
36
100
AcDbEntity
  8
0
  6
Continuous
 62
     3
100
AcDbLine
 10
364.64587
 20
1694.2197
 30
0.0
 11
354.64587
 21
1694.2197
 31
0.0
  0
LINE
  5
488
330
36
100
AcDbEntity
  8
0
  6
Continuous
 62
     3
100
AcDbLine
 10
355.64587
 20
1711.4198
 30
0.0
 11
355.64587
 21
1695.0198
 31
0.0
  0
LINE
  5
489
330
36
100
AcDbEntity
  8
0
  6
Continuous
 62
     7
100
AcDbLine
 10
355.64587
 20
1711.8198
 30
0.0
 11
355.64587
 21
1711.4198
 31
0.0
  0
LINE
  5
48A
330
36
100
AcDbEntity
  8
0
  6
Continuous
 62
     7
100
AcDbLine
 10
355.64587
 20
1694.6198
 30
0.0
 11
355.64587
 21
1695.0198
 31
0.0
  0
LINE
  5
48B
330
36
100
AcDbEntity
  8
0
  6
Continuous
 62
     3
100
AcDbLine
 10
373.97086
 20
1828.8798
 30
0.0
 11
373.97086
 21
1835.8798
 31
0.0
  0
LINE
  5
48C
330
36
100
AcDbEntity
  8
0
  6
Continuous
 62
     3
100
AcDbLine
 10
393.97086
 20
1775.2197
 30
0.0
 11
393.97086
 21
1835.8798
 31
0.0
  0
LINE
  5
48D
330
36
100
AcDbEntity
  8
0
  6
Continuous
 62
     3
100
AcDbLine
 10
374.77087
 20
1834.8798
 30
0.0
 11
393.1708700000001
 21
1834.8798
 31
0.0
  0
LINE
  5
48E
330
36
100
AcDbEntity
  8
0
  6
Continuous
 62
     7
100
AcDbLine
 10
374.37088
 20
1834.8798
 30
0.0
 11
374.77087
 21
1834.8798
 31
0.0
  0
LINE
  5
48F
330
36
100
AcDbEntity
  8
0
  6
Continuous
 62
     7
100
AcDbLine
 10
393.57086
 20
1834.8798
 30
0.0
 11
393.1708700000001
 21
1834.8798
 31
0.0
  0
LINE
  5
490
330
36
100
AcDbEntity
  8
0
  6
Continuous
 62
     3
100
AcDbLine
 10
362.47086
 20
1585.4338
 30
0.0
 11
362.47086
 21
1544.4407
 31
0.0
  0
LINE
  5
491
330
36
100
AcDbEntity
  8
0
  6
Continuous
 62
     3
100
AcDbLine
 10
385.47086
 20
1585.4338
 30
0.0
 11
385.47086
 21
1544.4407
 31
0.0
  0
LINE
  5
492
330
36
100
AcDbEntity
  8
0
  6
Continuous
 62
     3
100
AcDbLine
 10
363.27087
 20
1545.4407
 30
0.0
 11
384.6708700000002
 21
1545.4407
 31
0.0
  0
LINE
  5
493
330
36
100
AcDbEntity
  8
0
  6
Continuous
 62
     7
100
AcDbLine
 10
362.87088
 20
1545.4407
 30
0.0
 11
363.27087
 21
1545.4407
 31
0.0
  0
LINE
  5
494
330
36
100
AcDbEntity
  8
0
  6
Continuous
 62
     7
100
AcDbLine
 10
385.07086
 20
1545.4407
 30
0.0
 11
384.6708700000002
 21
1545.4407
 31
0.0
  0
LINE
  5
495
330
36
100
AcDbEntity
  8
0
  6
Continuous
 62
     3
100
AcDbLine
 10
485.52942
 20
1775.2197
 30
0.0
 11
485.52942
 21
1813.2197
 31
0.0
  0
LINE
  5
496
330
36
100
AcDbEntity
  8
0
  6
Continuous
 62
     3
100
AcDbLine
 10
492.52942
 20
1775.4697
 30
0.0
 11
492.52942
 21
1813.2197
 31
0.0
  0
LINE
  5
497
330
36
100
AcDbEntity
  8
0
  6
Continuous
 62
     3
100
AcDbLine
 10
486.3294099999998
 20
1812.2197
 30
0.0
 11
491.72943
 21
1812.2197
 31
0.0
  0
LINE
  5
498
330
36
100
AcDbEntity
  8
0
  6
Continuous
 62
     7
100
AcDbLine
 10
485.9294099999998
 20
1812.2197
 30
0.0
 11
486.3294099999998
 21
1812.2197
 31
0.0
  0
LINE
  5
499
330
36
100
AcDbEntity
  8
0
  6
Continuous
 62
     7
100
AcDbLine
 10
492.1294299999998
 20
1812.2197
 30
0.0
 11
491.72943
 21
1812.2197
 31
0.0
  0
LINE
  5
49A
330
36
100
AcDbEntity
  8
0
  6
Continuous
 62
     3
100
AcDbLine
 10
492.52942
 20
1775.2197
 30
0.0
 11
492.52942
 21
1813.2197
 31
0.0
  0
LINE
  5
49B
330
36
100
AcDbEntity
  8
0
  6
Continuous
 62
     3
100
AcDbLine
 10
515.5294200000001
 20
1775.4697
 30
0.0
 11
515.5294200000001
 21
1813.2197
 31
0.0
  0
LINE
  5
49C
330
36
100
AcDbEntity
  8
0
  6
Continuous
 62
     3
100
AcDbLine
 10
493.3294099999998
 20
1812.2197
 30
0.0
 11
514.7294299999998
 21
1812.2197
 31
0.0
  0
LINE
  5
49D
330
36
100
AcDbEntity
  8
0
  6
Continuous
 62
     7
100
AcDbLine
 10
492.9294099999999
 20
1812.2197
 30
0.0
 11
493.3294099999998
 21
1812.2197
 31
0.0
  0
LINE
  5
49E
330
36
100
AcDbEntity
  8
0
  6
Continuous
 62
     7
100
AcDbLine
 10
515.12939
 20
1812.2197
 30
0.0
 11
514.7294299999998
 21
1812.2197
 31
0.0
  0
LINE
  5
49F
330
36
100
AcDbEntity
  8
0
  6
Continuous
 62
     3
100
AcDbLine
 10
515.5294200000001
 20
1775.4697
 30
0.0
 11
515.5294200000001
 21
1813.2197
 31
0.0
  0
LINE
  5
4A0
330
36
100
AcDbEntity
  8
0
  6
Continuous
 62
     3
100
AcDbLine
 10
522.52942
 20
1775.4697
 30
0.0
 11
522.52942
 21
1813.2197
 31
0.0
  0
LINE
  5
4A1
330
36
100
AcDbEntity
  8
0
  6
Continuous
 62
     3
100
AcDbLine
 10
516.3294099999998
 20
1812.2197
 30
0.0
 11
521.7294299999998
 21
1812.2197
 31
0.0
  0
LINE
  5
4A2
330
36
100
AcDbEntity
  8
0
  6
Continuous
 62
     7
100
AcDbLine
 10
515.92944
 20
1812.2197
 30
0.0
 11
516.3294099999998
 21
1812.2197
 31
0.0
  0
LINE
  5
4A3
330
36
100
AcDbEntity
  8
0
  6
Continuous
 62
     7
100
AcDbLine
 10
522.12939
 20
1812.2197
 30
0.0
 11
521.7294299999998
 21
1812.2197
 31
0.0
  0
LINE
  5
4A4
330
36
100
AcDbEntity
  8
0
  6
Continuous
 62
     3
100
AcDbLine
 10
485.52942
 20
1791.869
 30
0.0
 11
485.52942
 21
1823.2197
 31
0.0
  0
LINE
  5
4A5
330
36
100
AcDbEntity
  8
0
  6
Continuous
 62
     3
100
AcDbLine
 10
522.52942
 20
1791.869
 30
0.0
 11
522.52942
 21
1823.2197
 31
0.0
  0
LINE
  5
4A6
330
36
100
AcDbEntity
  8
0
  6
Continuous
 62
     3
100
AcDbLine
 10
486.3294099999998
 20
1822.2197
 30
0.0
 11
521.7294299999998
 21
1822.2197
 31
0.0
  0
LINE
  5
4A7
330
36
100
AcDbEntity
  8
0
  6
Continuous
 62
     7
100
AcDbLine
 10
485.9294099999998
 20
1822.2197
 30
0.0
 11
486.3294099999998
 21
1822.2197
 31
0.0
  0
LINE
  5
4A8
330
36
100
AcDbEntity
  8
0
  6
Continuous
 62
     7
100
AcDbLine
 10
522.12939
 20
1822.2197
 30
0.0
 11
521.7294299999998
 21
1822.2197
 31
0.0
  0
LINE
  5
4A9
330
36
100
AcDbEntity
  8
0
  6
CENTER
 62
     4
100
AcDbLine
 10
503.69342
 20
1732.7197
 30
0.0
 11
540.01941
 21
1732.7197
 31
0.0
  0
LINE
  5
4AA
330
36
100
AcDbEntity
  8
0
  6
Continuous
 62
     3
100
AcDbLine
 10
484.52942
 20
1774.2197
 30
0.0
 11
474.52942
 21
1774.2197
 31
0.0
  0
LINE
  5
4AB
330
36
100
AcDbEntity
  8
0
  6
Continuous
 62
     3
100
AcDbLine
 10
484.52942
 20
1760.7197
 30
0.0
 11
474.52942
 21
1760.7197
 31
0.0
  0
LINE
  5
4AC
330
36
100
AcDbEntity
  8
0
  6
Continuous
 62
     3
100
AcDbLine
 10
475.52942
 20
1773.4198
 30
0.0
 11
475.52942
 21
1761.5198
 31
0.0
  0
LINE
  5
4AD
330
36
100
AcDbEntity
  8
0
  6
Continuous
 62
     7
100
AcDbLine
 10
475.52942
 20
1773.8198
 30
0.0
 11
475.52942
 21
1773.4198
 31
0.0
  0
LINE
  5
4AE
330
36
100
AcDbEntity
  8
0
  6
Continuous
 62
     7
100
AcDbLine
 10
475.52942
 20
1761.1198
 30
0.0
 11
475.52942
 21
1761.5198
 31
0.0
  0
LINE
  5
4AF
330
36
100
AcDbEntity
  8
0
  6
Continuous
 62
     3
100
AcDbLine
 10
494.41318
 20
1760.7197
 30
0.0
 11
474.52942
 21
1760.7197
 31
0.0
  0
LINE
  5
4B0
330
36
100
AcDbEntity
  8
0
  6
Continuous
 62
     3
100
AcDbLine
 10
502.69342
 20
1732.7197
 30
0.0
 11
474.52942
 21
1732.7197
 31
0.0
  0
LINE
  5
4B1
330
36
100
AcDbEntity
  8
0
  6
Continuous
 62
     3
100
AcDbLine
 10
475.52942
 20
1759.9198
 30
0.0
 11
475.52942
 21
1733.5198
 31
0.0
  0
LINE
  5
4B2
330
36
100
AcDbEntity
  8
0
  6
Continuous
 62
     7
100
AcDbLine
 10
475.52942
 20
1760.3198
 30
0.0
 11
475.52942
 21
1759.9198
 31
0.0
  0
LINE
  5
4B3
330
36
100
AcDbEntity
  8
0
  6
Continuous
 62
     7
100
AcDbLine
 10
475.52942
 20
1733.1198
 30
0.0
 11
475.52942
 21
1733.5198
 31
0.0
  0
LINE
  5
4B4
330
36
100
AcDbEntity
  8
0
  6
Continuous
 62
     3
100
AcDbLine
 10
495.11661
 20
1732.7197
 30
0.0
 11
474.52942
 21
1732.7197
 31
0.0
  0
LINE
  5
4B5
330
36
100
AcDbEntity
  8
0
  6
Continuous
 62
     3
100
AcDbLine
 10
484.52942
 20
1719.2197
 30
0.0
 11
474.52942
 21
1719.2197
 31
0.0
  0
LINE
  5
4B6
330
36
100
AcDbEntity
  8
0
  6
Continuous
 62
     3
100
AcDbLine
 10
475.52942
 20
1731.9198
 30
0.0
 11
475.52942
 21
1720.0198
 31
0.0
  0
LINE
  5
4B7
330
36
100
AcDbEntity
  8
0
  6
Continuous
 62
     7
100
AcDbLine
 10
475.52942
 20
1732.3198
 30
0.0
 11
475.52942
 21
1731.9198
 31
0.0
  0
LINE
  5
4B8
330
36
100
AcDbEntity
  8
0
  6
Continuous
 62
     7
100
AcDbLine
 10
475.52942
 20
1719.6198
 30
0.0
 11
475.52942
 21
1720.0198
 31
0.0
  0
LINE
  5
4B9
330
36
100
AcDbEntity
  8
0
  6
Continuous
 62
     3
100
AcDbLine
 10
484.52942
 20
1774.2197
 30
0.0
 11
464.52942
 21
1774.2197
 31
0.0
  0
LINE
  5
4BA
330
36
100
AcDbEntity
  8
0
  6
Continuous
 62
     3
100
AcDbLine
 10
503.02942
 20
1637.0095
 30
0.0
 11
464.52942
 21
1637.0095
 31
0.0
  0
LINE
  5
4BB
330
36
100
AcDbEntity
  8
0
  6
Continuous
 62
     3
100
AcDbLine
 10
465.52942
 20
1773.4198
 30
0.0
 11
465.52942
 21
1637.8096
 31
0.0
  0
LINE
  5
4BC
330
36
100
AcDbEntity
  8
0
  6
Continuous
 62
     7
100
AcDbLine
 10
465.52942
 20
1773.8198
 30
0.0
 11
465.52942
 21
1773.4198
 31
0.0
  0
LINE
  5
4BD
330
36
100
AcDbEntity
  8
0
  6
Continuous
 62
     7
100
AcDbLine
 10
465.52942
 20
1637.4095
 30
0.0
 11
465.52942
 21
1637.8096
 31
0.0
  0
LINE
  5
4BE
330
36
100
AcDbEntity
  8
0
  6
Continuous
 62
     3
100
AcDbLine
 10
523.5294200000002
 20
1774.2197
 30
0.0
 11
553.01941
 21
1774.2197
 31
0.0
  0
LINE
  5
4BF
330
36
100
AcDbEntity
  8
0
  6
Continuous
 62
     3
100
AcDbLine
 10
523.77942
 20
1767.2197
 30
0.0
 11
553.01941
 21
1767.2197
 31
0.0
  0
LINE
  5
4C0
330
36
100
AcDbEntity
  8
0
  6
Continuous
 62
     3
100
AcDbLine
 10
552.01941
 20
1773.4198
 30
0.0
 11
552.01941
 21
1768.0198
 31
0.0
  0
LINE
  5
4C1
330
36
100
AcDbEntity
  8
0
  6
Continuous
 62
     7
100
AcDbLine
 10
552.01941
 20
1773.8198
 30
0.0
 11
552.01941
 21
1773.4198
 31
0.0
  0
LINE
  5
4C2
330
36
100
AcDbEntity
  8
0
  6
Continuous
 62
     7
100
AcDbLine
 10
552.01941
 20
1767.6198
 30
0.0
 11
552.01941
 21
1768.0198
 31
0.0
  0
LINE
  5
4C3
330
36
100
AcDbEntity
  8
0
  6
Continuous
 62
     3
100
AcDbLine
 10
523.77942
 20
1767.2197
 30
0.0
 11
553.01941
 21
1767.2197
 31
0.0
  0
LINE
  5
4C4
330
36
100
AcDbEntity
  8
0
  6
Continuous
 62
     3
100
AcDbLine
 10
523.77942
 20
1726.2197
 30
0.0
 11
553.01941
 21
1726.2197
 31
0.0
  0
LINE
  5
4C5
330
36
100
AcDbEntity
  8
0
  6
Continuous
 62
     3
100
AcDbLine
 10
552.01941
 20
1766.4198
 30
0.0
 11
552.01941
 21
1727.0198
 31
0.0
  0
LINE
  5
4C6
330
36
100
AcDbEntity
  8
0
  6
Continuous
 62
     7
100
AcDbLine
 10
552.01941
 20
1766.8198
 30
0.0
 11
552.01941
 21
1766.4198
 31
0.0
  0
LINE
  5
4C7
330
36
100
AcDbEntity
  8
0
  6
Continuous
 62
     7
100
AcDbLine
 10
552.01941
 20
1726.6198
 30
0.0
 11
552.01941
 21
1727.0198
 31
0.0
  0
LINE
  5
4C8
330
36
100
AcDbEntity
  8
0
  6
Continuous
 62
     3
100
AcDbLine
 10
523.77942
 20
1726.2197
 30
0.0
 11
553.01941
 21
1726.2197
 31
0.0
  0
LINE
  5
4C9
330
36
100
AcDbEntity
  8
0
  6
Continuous
 62
     3
100
AcDbLine
 10
523.5294200000002
 20
1719.2197
 30
0.0
 11
553.01941
 21
1719.2197
 31
0.0
  0
LINE
  5
4CA
330
36
100
AcDbEntity
  8
0
  6
Continuous
 62
     3
100
AcDbLine
 10
552.01941
 20
1725.4198
 30
0.0
 11
552.01941
 21
1720.0198
 31
0.0
  0
LINE
  5
4CB
330
36
100
AcDbEntity
  8
0
  6
Continuous
 62
     7
100
AcDbLine
 10
552.01941
 20
1725.8198
 30
0.0
 11
552.01941
 21
1725.4198
 31
0.0
  0
LINE
  5
4CC
330
36
100
AcDbEntity
  8
0
  6
Continuous
 62
     7
100
AcDbLine
 10
552.01941
 20
1719.6198
 30
0.0
 11
552.01941
 21
1720.0198
 31
0.0
  0
LINE
  5
4CD
330
36
100
AcDbEntity
  8
0
  6
Continuous
 62
     3
100
AcDbLine
 10
523.5294200000002
 20
1774.2197
 30
0.0
 11
563.0194099999998
 21
1774.2197
 31
0.0
  0
LINE
  5
4CE
330
36
100
AcDbEntity
  8
0
  6
Continuous
 62
     3
100
AcDbLine
 10
523.5294200000002
 20
1719.2197
 30
0.0
 11
563.0194099999998
 21
1719.2197
 31
0.0
  0
LINE
  5
4CF
330
36
100
AcDbEntity
  8
0
  6
Continuous
 62
     3
100
AcDbLine
 10
562.0194099999999
 20
1773.4198
 30
0.0
 11
562.0194099999999
 21
1720.0198
 31
0.0
  0
LINE
  5
4D0
330
36
100
AcDbEntity
  8
0
  6
Continuous
 62
     7
100
AcDbLine
 10
562.0194099999999
 20
1773.8198
 30
0.0
 11
562.0194099999999
 21
1773.4198
 31
0.0
  0
LINE
  5
4D1
330
36
100
AcDbEntity
  8
0
  6
Continuous
 62
     7
100
AcDbLine
 10
562.0194099999999
 20
1719.6198
 30
0.0
 11
562.0194099999999
 21
1720.0198
 31
0.0
  0
LINE
  5
4D2
330
36
100
AcDbEntity
  8
0
  6
Continuous
 62
     3
100
AcDbLine
 10
523.5294200000002
 20
1705.1211
 30
0.0
 11
538.52942
 21
1705.1211
 31
0.0
  0
LINE
  5
4D3
330
36
100
AcDbEntity
  8
0
  6
Continuous
 62
     3
100
AcDbLine
 10
523.5294200000002
 20
1690.1211
 30
0.0
 11
538.52942
 21
1690.1211
 31
0.0
  0
LINE
  5
4D4
330
36
100
AcDbEntity
  8
0
  6
Continuous
 62
     3
100
AcDbLine
 10
537.52942
 20
1704.321
 30
0.0
 11
537.52942
 21
1690.9211
 31
0.0
  0
LINE
  5
4D5
330
36
100
AcDbEntity
  8
0
  6
Continuous
 62
     7
100
AcDbLine
 10
537.52942
 20
1704.7211
 30
0.0
 11
537.52942
 21
1704.321
 31
0.0
  0
LINE
  5
4D6
330
36
100
AcDbEntity
  8
0
  6
Continuous
 62
     7
100
AcDbLine
 10
537.52942
 20
1690.5211
 30
0.0
 11
537.52942
 21
1690.9211
 31
0.0
  0
LINE
  5
4D7
330
36
100
AcDbEntity
  8
0
  6
Continuous
 62
     3
100
AcDbLine
 10
522.52942
 20
1656.6887
 30
0.0
 11
538.52942
 21
1656.6887
 31
0.0
  0
LINE
  5
4D8
330
36
100
AcDbEntity
  8
0
  6
Continuous
 62
     3
100
AcDbLine
 10
522.52942
 20
1655.1887
 30
0.0
 11
538.52942
 21
1655.1887
 31
0.0
  0
LINE
  5
4D9
330
36
100
AcDbEntity
  8
0
  6
Continuous
 62
     3
100
AcDbLine
 10
537.52942
 20
1657.4886
 30
0.0
 11
537.52942
 21
1658.2887
 31
0.0
  0
LINE
  5
4DA
330
36
100
AcDbEntity
  8
0
  6
Continuous
 62
     3
100
AcDbLine
 10
537.52942
 20
1654.3887
 30
0.0
 11
537.52942
 21
1647.6161
 31
0.0
  0
LINE
  5
4DB
330
36
100
AcDbEntity
  8
0
  6
Continuous
 62
     3
100
AcDbLine
 10
537.52942
 20
1656.6887
 30
0.0
 11
537.52942
 21
1655.1887
 31
0.0
  0
LINE
  5
4DC
330
36
100
AcDbEntity
  8
0
  6
Continuous
 62
     7
100
AcDbLine
 10
537.52942
 20
1657.0886
 30
0.0
 11
537.52942
 21
1657.4886
 31
0.0
  0
LINE
  5
4DD
330
36
100
AcDbEntity
  8
0
  6
Continuous
 62
     7
100
AcDbLine
 10
537.52942
 20
1654.7887
 30
0.0
 11
537.52942
 21
1654.3887
 31
0.0
  0
LINE
  5
4DE
330
36
100
AcDbEntity
  8
0
  6
Continuous
 62
     3
100
AcDbLine
 10
499.52942
 20
1638.3921
 30
0.0
 11
499.52942
 21
1621.0095
 31
0.0
  0
LINE
  5
4DF
330
36
100
AcDbEntity
  8
0
  6
Continuous
 62
     3
100
AcDbLine
 10
508.5294199999998
 20
1638.3921
 30
0.0
 11
508.5294199999998
 21
1621.0095
 31
0.0
  0
LINE
  5
4E0
330
36
100
AcDbEntity
  8
0
  6
Continuous
 62
     3
100
AcDbLine
 10
500.3294099999997
 20
1622.0095
 30
0.0
 11
507.72943
 21
1622.0095
 31
0.0
  0
LINE
  5
4E1
330
36
100
AcDbEntity
  8
0
  6
Continuous
 62
     7
100
AcDbLine
 10
499.9294099999998
 20
1622.0095
 30
0.0
 11
500.3294099999997
 21
1622.0095
 31
0.0
  0
LINE
  5
4E2
330
36
100
AcDbEntity
  8
0
  6
Continuous
 62
     7
100
AcDbLine
 10
508.1294299999998
 20
1622.0095
 30
0.0
 11
507.72943
 21
1622.0095
 31
0.0
  0
LINE
  5
4E3
330
36
100
AcDbEntity
  8
0
  6
DASHED
 62
     6
100
AcDbLine
 10
488.27945
 20
1656.6887
 30
0.0
 11
490.2794499999997
 21
1655.1887
 31
0.0
  0
LINE
  5
4E4
330
36
100
AcDbEntity
  8
0
  6
CENTER
 62
     4
100
AcDbLine
 10
492.52942
 20
1659.6887
 30
0.0
 11
492.52942
 21
1652.1887
 31
0.0
  0
LINE
  5
4E5
330
36
100
AcDbEntity
  8
0
  6
DASHED
 62
     6
100
AcDbLine
 10
496.77939
 20
1656.6887
 30
0.0
 11
494.77939
 21
1655.1887
 31
0.0
  0
LINE
  5
4E6
330
36
100
AcDbEntity
  8
0
  6
DASHED
 62
     6
100
AcDbLine
 10
511.2794499999998
 20
1656.6887
 30
0.0
 11
513.27948
 21
1655.1887
 31
0.0
  0
LINE
  5
4E7
330
36
100
AcDbEntity
  8
0
  6
CENTER
 62
     4
100
AcDbLine
 10
515.5294200000001
 20
1659.6887
 30
0.0
 11
515.5294200000001
 21
1652.1887
 31
0.0
  0
LINE
  5
4E8
330
36
100
AcDbEntity
  8
0
  6
DASHED
 62
     6
100
AcDbLine
 10
519.77942
 20
1656.6887
 30
0.0
 11
517.7794200000001
 21
1655.1887
 31
0.0
  0
LINE
  5
4E9
330
36
100
AcDbEntity
  8
0
  6
Continuous
 62
     3
100
AcDbLine
 10
486.52942
 20
1654.1887
 30
0.0
 11
486.52942
 21
1611.009499999999
 31
0.0
  0
LINE
  5
4EA
330
36
100
AcDbEntity
  8
0
  6
Continuous
 62
     3
100
AcDbLine
 10
492.52942
 20
1651.1887
 30
0.0
 11
492.52942
 21
1611.009499999999
 31
0.0
  0
LINE
  5
4EB
330
36
100
AcDbEntity
  8
0
  6
Continuous
 62
     3
100
AcDbLine
 10
487.3294099999998
 20
1612.0095
 30
0.0
 11
491.72943
 21
1612.0095
 31
0.0
  0
LINE
  5
4EC
330
36
100
AcDbEntity
  8
0
  6
Continuous
 62
     7
100
AcDbLine
 10
486.9294099999998
 20
1612.0095
 30
0.0
 11
487.3294099999998
 21
1612.0095
 31
0.0
  0
LINE
  5
4ED
330
36
100
AcDbEntity
  8
0
  6
Continuous
 62
     7
100
AcDbLine
 10
492.1294299999998
 20
1612.0095
 30
0.0
 11
491.72943
 21
1612.0095
 31
0.0
  0
LINE
  5
4EE
330
36
100
AcDbEntity
  8
0
  6
Continuous
 62
     3
100
AcDbLine
 10
492.52942
 20
1651.1887
 30
0.0
 11
492.52942
 21
1611.009499999999
 31
0.0
  0
LINE
  5
4EF
330
36
100
AcDbEntity
  8
0
  6
Continuous
 62
     3
100
AcDbLine
 10
515.5294200000001
 20
1651.1887
 30
0.0
 11
515.5294200000001
 21
1611.009499999999
 31
0.0
  0
LINE
  5
4F0
330
36
100
AcDbEntity
  8
0
  6
Continuous
 62
     3
100
AcDbLine
 10
493.3294099999998
 20
1612.0095
 30
0.0
 11
514.7294299999998
 21
1612.0095
 31
0.0
  0
LINE
  5
4F1
330
36
100
AcDbEntity
  8
0
  6
Continuous
 62
     7
100
AcDbLine
 10
492.9294099999999
 20
1612.0095
 30
0.0
 11
493.3294099999998
 21
1612.0095
 31
0.0
  0
LINE
  5
4F2
330
36
100
AcDbEntity
  8
0
  6
Continuous
 62
     7
100
AcDbLine
 10
515.12939
 20
1612.0095
 30
0.0
 11
514.7294299999998
 21
1612.0095
 31
0.0
  0
LINE
  5
4F3
330
36
100
AcDbEntity
  8
0
  6
Continuous
 62
     3
100
AcDbLine
 10
515.5294200000001
 20
1651.1887
 30
0.0
 11
515.5294200000001
 21
1611.009499999999
 31
0.0
  0
LINE
  5
4F4
330
36
100
AcDbEntity
  8
0
  6
Continuous
 62
     3
100
AcDbLine
 10
521.52942
 20
1654.1887
 30
0.0
 11
521.52942
 21
1611.009499999999
 31
0.0
  0
LINE
  5
4F5
330
36
100
AcDbEntity
  8
0
  6
Continuous
 62
     3
100
AcDbLine
 10
516.3294099999998
 20
1612.0095
 30
0.0
 11
520.72943
 21
1612.0095
 31
0.0
  0
LINE
  5
4F6
330
36
100
AcDbEntity
  8
0
  6
Continuous
 62
     7
100
AcDbLine
 10
515.92944
 20
1612.0095
 30
0.0
 11
516.3294099999998
 21
1612.0095
 31
0.0
  0
LINE
  5
4F7
330
36
100
AcDbEntity
  8
0
  6
Continuous
 62
     7
100
AcDbLine
 10
521.12939
 20
1612.0095
 30
0.0
 11
520.72943
 21
1612.0095
 31
0.0
  0
LINE
  5
4F8
330
36
100
AcDbEntity
  8
0
  6
Continuous
 62
     3
100
AcDbLine
 10
486.52942
 20
1611.009499999999
 30
0.0
 11
486.52942
 21
1601.0095
 31
0.0
  0
LINE
  5
4F9
330
36
100
AcDbEntity
  8
0
  6
Continuous
 62
     3
100
AcDbLine
 10
521.52942
 20
1611.009499999999
 30
0.0
 11
521.52942
 21
1601.0095
 31
0.0
  0
LINE
  5
4FA
330
36
100
AcDbEntity
  8
0
  6
Continuous
 62
     3
100
AcDbLine
 10
487.3294099999998
 20
1602.0095
 30
0.0
 11
520.72943
 21
1602.0095
 31
0.0
  0
LINE
  5
4FB
330
36
100
AcDbEntity
  8
0
  6
Continuous
 62
     7
100
AcDbLine
 10
486.9294099999998
 20
1602.0095
 30
0.0
 11
487.3294099999998
 21
1602.0095
 31
0.0
  0
LINE
  5
4FC
330
36
100
AcDbEntity
  8
0
  6
Continuous
 62
     7
100
AcDbLine
 10
521.12939
 20
1602.0095
 30
0.0
 11
520.72943
 21
1602.0095
 31
0.0
  0
LINE
  5
4FD
330
36
100
AcDbEntity
  8
0
  6
Continuous
 62
     7
100
AcDbLine
 10
101.20399
 20
1566.4399
 30
0.0
 11
181.20398
 21
1566.4399
 31
0.0
  0
LINE
  5
4FE
330
36
100
AcDbEntity
  8
0
  6
Continuous
 62
     7
100
AcDbLine
 10
181.20398
 20
1566.4399
 30
0.0
 11
181.20398
 21
1542.4399
 31
0.0
  0
LINE
  5
4FF
330
36
100
AcDbEntity
  8
0
  6
Continuous
 62
     7
100
AcDbLine
 10
181.20398
 20
1542.4399
 30
0.0
 11
101.20399
 21
1542.4399
 31
0.0
  0
LINE
  5
500
330
36
100
AcDbEntity
  8
0
  6
Continuous
 62
     7
100
AcDbLine
 10
101.20399
 20
1542.4399
 30
0.0
 11
101.20399
 21
1566.4399
 31
0.0
  0
LINE
  5
501
330
36
100
AcDbEntity
  8
0
  6
Continuous
 62
     7
100
AcDbLine
 10
101.20399
 20
1558.4399
 30
0.0
 11
181.20398
 21
1558.4399
 31
0.0
  0
LINE
  5
502
330
36
100
AcDbEntity
  8
0
  6
Continuous
 62
     7
100
AcDbLine
 10
101.20399
 20
1550.4399
 30
0.0
 11
181.20398
 21
1550.4399
 31
0.0
  0
LINE
  5
503
330
36
100
AcDbEntity
  8
0
  6
Continuous
 62
     7
100
AcDbLine
 10
151.20398
 20
1542.4399
 30
0.0
 11
151.20398
 21
1566.4399
 31
0.0
  0
LINE
  5
504
330
36
100
AcDbEntity
  8
0
  6
Continuous
 62
     7
100
AcDbLine
 10
268.39056
 20
1587.1688
 30
0.0
 11
268.39056
 21
1573.7708
 31
0.0
  0
LINE
  5
505
330
36
100
AcDbEntity
  8
0
  6
Continuous
 62
     7
100
AcDbLine
 10
256.39056
 20
1587.1688
 30
0.0
 11
256.39056
 21
1573.7708
 31
0.0
  0
LINE
  5
506
330
36
100
AcDbEntity
  8
0
  6
Continuous
 62
     7
100
AcDbLine
 10
379.97086
 20
1587.1688
 30
0.0
 11
379.97086
 21
1573.7708
 31
0.0
  0
LINE
  5
507
330
36
100
AcDbEntity
  8
0
  6
Continuous
 62
     7
100
AcDbLine
 10
367.97086
 20
1587.1688
 30
0.0
 11
367.97086
 21
1573.7708
 31
0.0
  0
LINE
  5
508
330
36
100
AcDbEntity
  8
0
  6
Continuous
 62
     3
100
AcDbLine
 10
263.39056
 20
1570.4407
 30
0.0
 11
311.39056
 21
1570.4407
 31
0.0
  0
LINE
  5
509
330
36
100
AcDbEntity
  8
0
  6
Continuous
 62
     3
100
AcDbLine
 10
310.39056
 20
1614.4407
 30
0.0
 11
310.39056
 21
1571.2407
 31
0.0
  0
LINE
  5
50A
330
36
100
AcDbEntity
  8
0
  6
Continuous
 62
     7
100
AcDbLine
 10
310.39056
 20
1570.8407
 30
0.0
 11
310.39056
 21
1571.2407
 31
0.0
  0
LINE
  5
50B
330
36
100
AcDbEntity
  8
0
  6
CENTER
 62
     4
100
AcDbLine
 10
499.77942
 20
1697.6211
 30
0.0
 11
485.2794199999998
 21
1697.6211
 31
0.0
  0
LINE
  5
50C
330
36
100
AcDbEntity
  8
0
  6
CENTER
 62
     4
100
AcDbLine
 10
492.52942
 20
1704.8711
 30
0.0
 11
492.52942
 21
1690.3711
 31
0.0
  0
LINE
  5
50D
330
36
100
AcDbEntity
  8
0
  6
CENTER
 62
     4
100
AcDbLine
 10
515.5294200000001
 20
1704.8711
 30
0.0
 11
515.5294200000001
 21
1690.3711
 31
0.0
  0
LINE
  5
50E
330
36
100
AcDbEntity
  8
0
  6
CENTER
 62
     4
100
AcDbLine
 10
522.77942
 20
1697.6211
 30
0.0
 11
508.27942
 21
1697.6211
 31
0.0
  0
LINE
  5
50F
330
36
100
AcDbEntity
  8
0
  6
CENTER
 62
     4
100
AcDbLine
 10
504.0294199999998
 20
1634.0095
 30
0.0
 11
504.0294199999998
 21
1805.2197
 31
0.0
  0
LINE
  5
510
330
36
100
AcDbEntity
  8
0
  6
Continuous
 62
     3
100
AcDbLine
 10
505.02942
 20
1637.0095
 30
0.0
 11
548.5294200000002
 21
1637.0095
 31
0.0
  0
LINE
  5
511
330
36
100
AcDbEntity
  8
0
  6
Continuous
 62
     3
100
AcDbLine
 10
547.52942
 20
1665.0486
 30
0.0
 11
547.52942
 21
1637.8096
 31
0.0
  0
LINE
  5
512
330
36
100
AcDbEntity
  8
0
  6
Continuous
 62
     7
100
AcDbLine
 10
547.52942
 20
1637.4095
 30
0.0
 11
547.52942
 21
1637.8096
 31
0.0
  0
LINE
  5
513
330
36
100
AcDbEntity
  8
0
  6
Continuous
 62
     3
100
AcDbLine
 10
274.65973
 20
1763.2354
 30
0.0
 11
278.1214
 21
1769.2041
 31
0.0
  0
LINE
  5
514
330
36
100
AcDbEntity
  8
0
  6
Continuous
 62
     3
100
AcDbLine
 10
278.5228
 20
1769.896199999999
 30
0.0
 11
296.46164
 21
1800.8276
 31
0.0
  0
LINE
  5
515
330
36
100
AcDbEntity
  8
0
  6
Continuous
 62
     3
100
AcDbLine
 10
296.46161
 20
1800.8275
 30
0.0
 11
328.34161
 21
1800.8275
 31
0.0
  0
LINE
  5
516
330
36
100
AcDbEntity
  8
0
  6
Continuous
 62
     7
100
AcDbLine
 10
274.45911
 20
1762.8894
 30
0.0
 11
274.65973
 21
1763.2354
 31
0.0
  0
LINE
  5
517
330
36
100
AcDbEntity
  8
0
  6
Continuous
 62
     7
100
AcDbLine
 10
278.32208
 20
1769.5502
 30
0.0
 11
278.1214
 21
1769.2041
 31
0.0
  0
LINE
  5
518
330
36
100
AcDbEntity
  8
0
  6
Continuous
 62
     3
100
AcDbLine
 10
513.6477099999998
 20
1764.3281
 30
0.0
 11
517.41119
 21
1770.1115
 31
0.0
  0
LINE
  5
519
330
36
100
AcDbEntity
  8
0
  6
Continuous
 62
     3
100
AcDbLine
 10
517.84753
 20
1770.7819
 30
0.0
 11
537.39984
 21
1800.8276
 31
0.0
  0
LINE
  5
51A
330
36
100
AcDbEntity
  8
0
  6
Continuous
 62
     3
100
AcDbLine
 10
537.3997799999998
 20
1800.8275
 30
0.0
 11
569.47125
 21
1800.8275
 31
0.0
  0
LINE
  5
51B
330
36
100
AcDbEntity
  8
0
  6
Continuous
 62
     7
100
AcDbLine
 10
513.42957
 20
1763.9928
 30
0.0
 11
513.6477099999998
 21
1764.3281
 31
0.0
  0
LINE
  5
51C
330
36
100
AcDbEntity
  8
0
  6
Continuous
 62
     7
100
AcDbLine
 10
517.62933
 20
1770.4467
 30
0.0
 11
517.41119
 21
1770.1115
 31
0.0
  0
LINE
  5
51D
330
36
100
AcDbEntity
  8
0
  6
Continuous
 62
     7
100
AcDbLine
 10
270.71558
 20
1709.7223
 30
0.0
 11
270.71558
 21
1694.2197
 31
0.0
  0
LINE
  5
51E
330
36
100
AcDbEntity
  8
0
  6
Continuous
 62
     7
100
AcDbLine
 10
268.39056
 20
1709.7223
 30
0.0
 11
268.39056
 21
1708.64
 31
0.0
  0
LINE
  5
51F
330
36
100
AcDbEntity
  8
0
  6
Continuous
 62
     7
100
AcDbLine
 10
522.52942
 20
1730.2223
 30
0.0
 11
522.52942
 21
1719.2197
 31
0.0
  0
LINE
  5
520
330
36
100
AcDbEntity
  8
0
  6
Continuous
 62
     3
100
AcDbLine
 10
261.39056
 20
1756.2197
 30
0.0
 11
228.39058
 21
1756.2197
 31
0.0
  0
LINE
  5
521
330
36
100
AcDbEntity
  8
0
  6
Continuous
 62
     3
100
AcDbLine
 10
261.05457
 20
1712.2197
 30
0.0
 11
228.39058
 21
1712.2197
 31
0.0
  0
LINE
  5
522
330
36
100
AcDbEntity
  8
0
  6
Continuous
 62
     3
100
AcDbLine
 10
229.39058
 20
1755.4198
 30
0.0
 11
229.39058
 21
1713.0198
 31
0.0
  0
LINE
  5
523
330
36
100
AcDbEntity
  8
0
  6
Continuous
 62
     7
100
AcDbLine
 10
229.39058
 20
1755.8198
 30
0.0
 11
229.39058
 21
1755.4198
 31
0.0
  0
LINE
  5
524
330
36
100
AcDbEntity
  8
0
  6
Continuous
 62
     7
100
AcDbLine
 10
229.39058
 20
1712.6198
 30
0.0
 11
229.39058
 21
1713.0198
 31
0.0
  0
LINE
  5
525
330
36
100
AcDbEntity
  8
0
  6
CENTER
 62
     4
100
AcDbLine
 10
262.05457
 20
1712.2197
 30
0.0
 11
298.38058
 21
1712.2197
 31
0.0
  0
LINE
  5
526
330
36
100
AcDbEntity
  8
0
  6
Continuous
 62
     7
100
AcDbLine
 10
256.39056
 20
1633.3391
 30
0.0
 11
256.39056
 21
1652.0074
 31
0.0
  0
LINE
  5
527
330
36
100
AcDbEntity
  8
0
  6
Continuous
 62
     7
100
AcDbLine
 10
268.39056
 20
1633.3391
 30
0.0
 11
268.39056
 21
1652.0074
 31
0.0
  0
LINE
  5
528
330
36
100
AcDbEntity
  8
0
  6
PHANTOM
 62
     3
100
AcDbLine
 10
268.39056
 20
1617.7708
 30
0.0
 11
256.39056
 21
1617.7708
 31
0.0
  0
LINE
  5
529
330
36
100
AcDbEntity
  8
0
  6
PHANTOM
 62
     3
100
AcDbLine
 10
379.97086
 20
1617.7708
 30
0.0
 11
367.97086
 21
1617.7708
 31
0.0
  0
LINE
  5
52A
330
36
100
AcDbEntity
  8
0
  6
PHANTOM
 62
     3
100
AcDbLine
 10
367.97086
 20
1821.5498
 30
0.0
 11
379.97086
 21
1821.5498
 31
0.0
  0
LINE
  5
52B
330
36
100
AcDbEntity
  8
0
  6
PHANTOM
 62
     3
100
AcDbLine
 10
256.39056
 20
1821.5498
 30
0.0
 11
268.39056
 21
1821.5498
 31
0.0
  0
LINE
  5
52C
330
36
100
AcDbEntity
  8
0
  6
PHANTOM
 62
     3
100
AcDbLine
 10
310.29929
 20
1614.4408
 30
0.0
 11
311.07571
 21
1611.543
 31
0.0
  0
LINE
  5
52D
330
36
100
AcDbEntity
  8
0
  6
PHANTOM
 62
     3
100
AcDbLine
 10
310.29929
 20
1614.4407
 30
0.0
 11
309.52283
 21
1611.543
 31
0.0
  0
LINE
  5
52E
330
36
100
AcDbEntity
  8
0
  6
PHANTOM
 62
     3
100
AcDbLine
 10
499.52942
 20
1667.4312
 30
0.0
 11
508.5294199999998
 21
1667.4312
 31
0.0
  0
LINE
  5
52F
330
36
100
AcDbEntity
  8
0
  6
PHANTOM
 62
     3
100
AcDbLine
 10
499.52942
 20
1774.2197
 30
0.0
 11
499.52942
 21
1802.2197
 31
0.0
  0
LINE
  5
530
330
36
100
AcDbEntity
  8
0
  6
PHANTOM
 62
     3
100
AcDbLine
 10
499.52942
 20
1802.2197
 30
0.0
 11
508.5294199999998
 21
1802.2197
 31
0.0
  0
LINE
  5
531
330
36
100
AcDbEntity
  8
0
  6
PHANTOM
 62
     3
100
AcDbLine
 10
508.5294199999998
 20
1802.2197
 30
0.0
 11
508.5294199999998
 21
1774.2197
 31
0.0
  0
LINE
  5
532
330
36
100
AcDbEntity
  8
0
  6
Continuous
 62
     3
100
AcDbLine
 10
547.5515699999998
 20
1665.0486
 30
0.0
 11
548.3280599999998
 21
1662.1509
 31
0.0
  0
LINE
  5
533
330
36
100
AcDbEntity
  8
0
  6
Continuous
 62
     3
100
AcDbLine
 10
547.5515699999998
 20
1665.0486
 30
0.0
 11
546.77515
 21
1662.1508
 31
0.0
  0
ARC
  5
534
330
36
100
AcDbEntity
  8
0
  6
Continuous
 62
     7
100
AcDbCircle
 10
262.39056
 20
1773.8093
 30
0.0
 40
7.070405499999998
100
AcDbArc
 50
31.939114
 51
148.06089
  0
ARC
  5
535
330
36
100
AcDbEntity
  8
0
  6
Continuous
 62
     7
100
AcDbCircle
 10
262.39056
 20
1577.5111
 30
0.0
 40
7.070405499999998
100
AcDbArc
 50
211.93911
 51
328.06089
  0
CIRCLE
  5
536
330
36
100
AcDbEntity
  8
0
  6
Continuous
 62
     7
100
AcDbCircle
 10
276.39056
 20
1766.2197
 30
0.0
 40
2.25
  0
CIRCLE
  5
537
330
36
100
AcDbEntity
  8
0
  6
Continuous
 62
     7
100
AcDbCircle
 10
276.39056
 20
1766.2197
 30
0.0
 40
4.25
  0
CIRCLE
  5
538
330
36
100
AcDbEntity
  8
0
  6
Continuous
 62
     7
100
AcDbCircle
 10
248.39058
 20
1766.2197
 30
0.0
 40
4.25
  0
CIRCLE
  5
539
330
36
100
AcDbEntity
  8
0
  6
Continuous
 62
     7
100
AcDbCircle
 10
248.39058
 20
1766.2197
 30
0.0
 40
2.25
  0
CIRCLE
  5
53A
330
36
100
AcDbEntity
  8
0
  6
Continuous
 62
     7
100
AcDbCircle
 10
248.39058
 20
1734.2197
 30
0.0
 40
2.25
  0
CIRCLE
  5
53B
330
36
100
AcDbEntity
  8
0
  6
Continuous
 62
     7
100
AcDbCircle
 10
248.39058
 20
1734.2197
 30
0.0
 40
4.25
  0
CIRCLE
  5
53C
330
36
100
AcDbEntity
  8
0
  6
Continuous
 62
     7
100
AcDbCircle
 10
276.39056
 20
1734.2197
 30
0.0
 40
4.25
  0
CIRCLE
  5
53D
330
36
100
AcDbEntity
  8
0
  6
Continuous
 62
     7
100
AcDbCircle
 10
276.39056
 20
1734.2197
 30
0.0
 40
2.25
  0
CIRCLE
  5
53E
330
36
100
AcDbEntity
  8
0
  6
Continuous
 62
     7
100
AcDbCircle
 10
248.39058
 20
1702.2197
 30
0.0
 40
4.25
  0
CIRCLE
  5
53F
330
36
100
AcDbEntity
  8
0
  6
Continuous
 62
     7
100
AcDbCircle
 10
248.39058
 20
1702.2197
 30
0.0
 40
2.25
  0
CIRCLE
  5
540
330
36
100
AcDbEntity
  8
0
  6
Continuous
 62
     7
100
AcDbCircle
 10
276.39056
 20
1702.2197
 30
0.0
 40
2.25
  0
CIRCLE
  5
541
330
36
100
AcDbEntity
  8
0
  6
Continuous
 62
     7
100
AcDbCircle
 10
276.39056
 20
1702.2197
 30
0.0
 40
4.25
  0
CIRCLE
  5
542
330
36
100
AcDbEntity
  8
0
  6
Continuous
 62
     7
100
AcDbCircle
 10
248.39058
 20
1663.5074
 30
0.0
 40
4.25
  0
CIRCLE
  5
543
330
36
100
AcDbEntity
  8
0
  6
Continuous
 62
     7
100
AcDbCircle
 10
248.39058
 20
1663.5074
 30
0.0
 40
2.25
  0
CIRCLE
  5
544
330
36
100
AcDbEntity
  8
0
  6
Continuous
 62
     7
100
AcDbCircle
 10
276.39056
 20
1663.5074
 30
0.0
 40
2.25
  0
CIRCLE
  5
545
330
36
100
AcDbEntity
  8
0
  6
Continuous
 62
     7
100
AcDbCircle
 10
276.39056
 20
1663.5074
 30
0.0
 40
4.25
  0
ARC
  5
546
330
36
100
AcDbEntity
  8
0
  6
Continuous
 62
     7
100
AcDbCircle
 10
259.39056
 20
1635.4231
 30
0.0
 40
3.6528163
100
AcDbArc
 50
214.78622
 51
325.21378
  0
ARC
  5
547
330
36
100
AcDbEntity
  8
0
  6
Continuous
 62
     7
100
AcDbCircle
 10
265.39056
 20
1631.2551
 30
0.0
 40
3.6528163
100
AcDbArc
 50
34.786219
 51
145.21378
  0
ARC
  5
548
330
36
100
AcDbEntity
  8
0
  6
Continuous
 62
     7
100
AcDbCircle
 10
265.39056
 20
1635.4231
 30
0.0
 40
3.6528163
100
AcDbArc
 50
214.78622
 51
325.21378
  0
ARC
  5
549
330
36
100
AcDbEntity
  8
0
  6
Continuous
 62
     7
100
AcDbCircle
 10
259.39056
 20
1625.4231
 30
0.0
 40
3.6528163
100
AcDbArc
 50
214.78622
 51
325.21378
  0
ARC
  5
54A
330
36
100
AcDbEntity
  8
0
  6
Continuous
 62
     7
100
AcDbCircle
 10
259.39056
 20
1621.2551
 30
0.0
 40
3.6528163
100
AcDbArc
 50
34.786219
 51
145.21378
  0
ARC
  5
54B
330
36
100
AcDbEntity
  8
0
  6
Continuous
 62
     7
100
AcDbCircle
 10
265.39056
 20
1621.2551
 30
0.0
 40
3.6528163
100
AcDbArc
 50
34.786219
 51
145.21378
  0
ARC
  5
54C
330
36
100
AcDbEntity
  8
0
  6
Continuous
 62
     7
100
AcDbCircle
 10
261.72757
 20
1749.64
 30
0.0
 40
3.0
100
AcDbArc
 50
90.0
 51
180.0
  0
ARC
  5
54D
330
36
100
AcDbEntity
  8
0
  6
Continuous
 62
     7
100
AcDbCircle
 10
261.72757
 20
1718.7996
 30
0.0
 40
3.0
100
AcDbArc
 50
180.0
 51
270.0
  0
ARC
  5
54E
330
36
100
AcDbEntity
  8
0
  6
Continuous
 62
     7
100
AcDbCircle
 10
257.0655799999999
 20
1756.7996
 30
0.0
 40
3.0
100
AcDbArc
 50
90.0
 51
180.0
  0
ARC
  5
54F
330
36
100
AcDbEntity
  8
0
  6
Continuous
 62
     7
100
AcDbCircle
 10
257.0655799999999
 20
1711.64
 30
0.0
 40
3.0
100
AcDbArc
 50
180.0
 51
270.0
  0
ARC
  5
550
330
36
100
AcDbEntity
  8
0
  6
Continuous
 62
     7
100
AcDbCircle
 10
267.88373
 20
1712.2197
 30
0.0
 40
2.8291678
100
AcDbArc
 50
118.02239
 51
241.97877
  0
ARC
  5
551
330
36
100
AcDbEntity
  8
0
  6
Continuous
 62
     7
100
AcDbCircle
 10
282.96033
 20
1706.2223
 30
0.0
 40
3.5
100
AcDbArc
 50
51.51363499999999
 51
90.0
  0
ARC
  5
552
330
36
100
AcDbEntity
  8
0
  6
Continuous
 62
     7
100
AcDbCircle
 10
287.72858
 20
1712.2197
 30
0.0
 40
4.162001099999998
100
AcDbArc
 50
231.5136
 51
128.4864
  0
ARC
  5
553
330
36
100
AcDbEntity
  8
0
  6
Continuous
 62
     7
100
AcDbCircle
 10
282.96033
 20
1718.2173
 30
0.0
 40
3.5
100
AcDbArc
 50
270.0
 51
308.48637
  0
ARC
  5
554
330
36
100
AcDbEntity
  8
0
  6
Continuous
 62
     7
100
AcDbCircle
 10
287.72858
 20
1712.2197
 30
0.0
 40
4.6620026
100
AcDbArc
 50
214.16421
 51
145.83371
  0
ARC
  5
555
330
36
100
AcDbEntity
  8
0
  6
Continuous
 62
     7
100
AcDbCircle
 10
504.0294199999998
 20
1642.4504
 30
0.0
 40
5.4409037
100
AcDbArc
 50
214.2013299999999
 51
325.79867
  0
ARC
  5
556
330
36
100
AcDbEntity
  8
0
  6
Continuous
 62
     7
100
AcDbCircle
 10
500.20444
 20
1761.2996
 30
0.0
 40
3.0
100
AcDbArc
 50
90.0
 51
180.0
  0
ARC
  5
557
330
36
100
AcDbEntity
  8
0
  6
Continuous
 62
     7
100
AcDbCircle
 10
503.36642
 20
1754.14
 30
0.0
 40
3.0
100
AcDbArc
 50
90.0
 51
180.0
  0
ARC
  5
558
330
36
100
AcDbEntity
  8
0
  6
Continuous
 62
     7
100
AcDbCircle
 10
509.52258
 20
1732.7197
 30
0.0
 40
2.8291678
100
AcDbArc
 50
118.02239
 51
241.97877
  0
ARC
  5
559
330
36
100
AcDbEntity
  8
0
  6
Continuous
 62
     7
100
AcDbCircle
 10
524.5991799999997
 20
1726.7223
 30
0.0
 40
3.5
100
AcDbArc
 50
51.513244
 51
90.0
  0
ARC
  5
55A
330
36
100
AcDbEntity
  8
0
  6
Continuous
 62
     7
100
AcDbCircle
 10
524.5991799999997
 20
1726.7223
 30
0.0
 40
3.0
100
AcDbArc
 50
51.51332100000001
 51
90.0
  0
ARC
  5
55B
330
36
100
AcDbEntity
  8
0
  6
Continuous
 62
     7
100
AcDbCircle
 10
529.36743
 20
1732.7197
 30
0.0
 40
4.162001099999998
100
AcDbArc
 50
231.51327
 51
128.48673
  0
ARC
  5
55C
330
36
100
AcDbEntity
  8
0
  6
Continuous
 62
     7
100
AcDbCircle
 10
524.5991799999997
 20
1738.7173
 30
0.0
 40
3.5
100
AcDbArc
 50
270.0
 51
308.48676
  0
ARC
  5
55D
330
36
100
AcDbEntity
  8
0
  6
Continuous
 62
     7
100
AcDbCircle
 10
524.5991799999997
 20
1738.7173
 30
0.0
 40
3.0
100
AcDbArc
 50
270.0
 51
308.48668
  0
ARC
  5
55E
330
36
100
AcDbEntity
  8
0
  6
Continuous
 62
     7
100
AcDbCircle
 10
529.36743
 20
1732.7197
 30
0.0
 40
4.6620026
100
AcDbArc
 50
231.51322
 51
128.48678
  0
CIRCLE
  5
55F
330
36
100
AcDbEntity
  8
0
  6
Continuous
 62
     7
100
AcDbCircle
 10
492.52942
 20
1767.2197
 30
0.0
 40
2.25
  0
CIRCLE
  5
560
330
36
100
AcDbEntity
  8
0
  6
Continuous
 62
     7
100
AcDbCircle
 10
492.52942
 20
1767.2197
 30
0.0
 40
4.25
  0
CIRCLE
  5
561
330
36
100
AcDbEntity
  8
0
  6
Continuous
 62
     7
100
AcDbCircle
 10
515.5294200000001
 20
1767.2197
 30
0.0
 40
2.25
  0
CIRCLE
  5
562
330
36
100
AcDbEntity
  8
0
  6
Continuous
 62
     7
100
AcDbCircle
 10
515.5294200000001
 20
1767.2197
 30
0.0
 40
4.25
  0
CIRCLE
  5
563
330
36
100
AcDbEntity
  8
0
  6
Continuous
 62
     7
100
AcDbCircle
 10
515.5294200000001
 20
1726.2197
 30
0.0
 40
2.25
  0
ARC
  5
564
330
36
100
AcDbEntity
  8
0
  6
Continuous
 62
     7
100
AcDbCircle
 10
515.5294200000001
 20
1726.2197
 30
0.0
 40
4.25
100
AcDbArc
 50
109.6494
 51
70.350604
  0
CIRCLE
  5
565
330
36
100
AcDbEntity
  8
0
  6
Continuous
 62
     7
100
AcDbCircle
 10
492.52942
 20
1726.2197
 30
0.0
 40
4.25
  0
CIRCLE
  5
566
330
36
100
AcDbEntity
  8
0
  6
Continuous
 62
     7
100
AcDbCircle
 10
492.52942
 20
1726.2197
 30
0.0
 40
2.25
  0
ARC
  5
567
330
36
100
AcDbEntity
  8
0
  6
DASHED
 62
     6
100
AcDbCircle
 10
515.5294200000001
 20
1726.2197
 30
0.0
 40
4.25
100
AcDbArc
 50
70.350604
 51
109.6494
  0
ARC
  5
568
330
36
100
AcDbEntity
  8
0
  6
Continuous
 62
     7
100
AcDbCircle
 10
376.97086
 20
1635.4231
 30
0.0
 40
3.6528163
100
AcDbArc
 50
214.78622
 51
325.21378
  0
ARC
  5
569
330
36
100
AcDbEntity
  8
0
  6
Continuous
 62
     7
100
AcDbCircle
 10
376.97086
 20
1631.2551
 30
0.0
 40
3.6528163
100
AcDbArc
 50
34.786219
 51
145.21378
  0
ARC
  5
56A
330
36
100
AcDbEntity
  8
0
  6
Continuous
 62
     7
100
AcDbCircle
 10
376.97086
 20
1621.2551
 30
0.0
 40
3.6528163
100
AcDbArc
 50
34.786219
 51
145.21378
  0
ARC
  5
56B
330
36
100
AcDbEntity
  8
0
  6
Continuous
 62
     7
100
AcDbCircle
 10
373.97086
 20
1773.8093
 30
0.0
 40
7.070405499999998
100
AcDbArc
 50
31.939114
 51
148.06089
  0
ARC
  5
56C
330
36
100
AcDbEntity
  8
0
  6
Continuous
 62
     7
100
AcDbCircle
 10
373.97086
 20
1577.5111
 30
0.0
 40
7.070405499999998
100
AcDbArc
 50
211.93911
 51
328.06089
  0
ARC
  5
56D
330
36
100
AcDbEntity
  8
0
  6
Continuous
 62
     7
100
AcDbCircle
 10
370.97086
 20
1635.4231
 30
0.0
 40
3.6528163
100
AcDbArc
 50
214.78622
 51
325.21378
  0
ARC
  5
56E
330
36
100
AcDbEntity
  8
0
  6
Continuous
 62
     7
100
AcDbCircle
 10
370.97086
 20
1625.4231
 30
0.0
 40
3.6528163
100
AcDbArc
 50
214.78622
 51
325.21378
  0
ARC
  5
56F
330
36
100
AcDbEntity
  8
0
  6
Continuous
 62
     7
100
AcDbCircle
 10
370.97086
 20
1621.2551
 30
0.0
 40
3.6528163
100
AcDbArc
 50
34.786219
 51
145.21378
  0
ARC
  5
570
330
36
100
AcDbEntity
  8
0
  6
Continuous
 62
     7
100
AcDbCircle
 10
369.56421
 20
1712.2197
 30
0.0
 40
3.9183321
100
AcDbArc
 50
113.99375
 51
246.0058399999999
  0
CIRCLE
  5
571
330
36
100
AcDbEntity
  8
0
  6
Continuous
 62
     7
100
AcDbCircle
 10
492.52942
 20
1697.6211
 30
0.0
 40
4.25
  0
CIRCLE
  5
572
330
36
100
AcDbEntity
  8
0
  6
Continuous
 62
     7
100
AcDbCircle
 10
492.52942
 20
1697.6211
 30
0.0
 40
2.25
  0
CIRCLE
  5
573
330
36
100
AcDbEntity
  8
0
  6
Continuous
 62
     7
100
AcDbCircle
 10
515.5294200000001
 20
1697.6211
 30
0.0
 40
4.25
  0
CIRCLE
  5
574
330
36
100
AcDbEntity
  8
0
  6
Continuous
 62
     7
100
AcDbCircle
 10
515.5294200000001
 20
1697.6211
 30
0.0
 40
2.25
  0
ARC
  5
575
330
36
100
AcDbEntity
  8
0
  6
PHANTOM
 62
     3
100
AcDbCircle
 10
262.39056
 20
1621.5111
 30
0.0
 40
7.070405499999998
100
AcDbArc
 50
211.93911
 51
328.06089
  0
ARC
  5
576
330
36
100
AcDbEntity
  8
0
  6
PHANTOM
 62
     3
100
AcDbCircle
 10
373.97086
 20
1621.5111
 30
0.0
 40
7.070405499999998
100
AcDbArc
 50
211.93911
 51
328.06089
  0
ARC
  5
577
330
36
100
AcDbEntity
  8
0
  6
PHANTOM
 62
     3
100
AcDbCircle
 10
373.97086
 20
1817.8093
 30
0.0
 40
7.070405499999998
100
AcDbArc
 50
31.939114
 51
148.06089
  0
ARC
  5
578
330
36
100
AcDbEntity
  8
0
  6
PHANTOM
 62
     3
100
AcDbCircle
 10
262.39056
 20
1817.8093
 30
0.0
 40
7.070405499999998
100
AcDbArc
 50
31.939114
 51
148.06089
  0
ARC
  5
579
330
36
100
AcDbEntity
  8
0
  6
PHANTOM
 62
     3
100
AcDbCircle
 10
504.0294199999998
 20
1670.4895
 30
0.0
 40
5.4409037
100
AcDbArc
 50
214.2013299999999
 51
325.79867
  0
ARC
  5
57A
330
36
100
AcDbEntity
  8
0
  6
Continuous
 62
     7
100
AcDbCircle
 10
500.2044099999998
 20
1733.2223
 30
0.0
 40
3.0
100
AcDbArc
 50
180.0
 51
270.0
  0
ARC
  5
57B
330
36
100
AcDbEntity
  8
0
  6
Continuous
 62
     7
100
AcDbCircle
 10
503.36642
 20
1738.2173
 30
0.0
 40
3.0
100
AcDbArc
 50
180.0
 51
270.0
  0
TEXT
  5
580
330
36
100
AcDbEntity
  8
0
  6
Continuous
 62
     7
100
AcDbText
 10
76.18538499999998
 20
1889.2456
 30
0.0
 40
3.2
  1
品　名
 41
0.60999997
100
AcDbText
  0
TEXT
  5
581
330
36
100
AcDbEntity
  8
0
  6
Continuous
 62
     7
100
AcDbText
 10
76.18538499999998
 20
1881.2456
 30
0.0
 40
3.2
  1
品　番
 41
0.60999997
100
AcDbText
  0
TEXT
  5
582
330
36
100
AcDbEntity
  8
0
  6
Continuous
 62
     7
100
AcDbText
 10
76.18538499999998
 20
1873.2456
 30
0.0
 40
3.2
  1
材　質
 41
0.60999997
100
AcDbText
  0
TEXT
  5
583
330
36
100
AcDbEntity
  8
0
  6
Continuous
 62
     7
100
AcDbText
 10
76.18538499999998
 20
1865.2456
 30
0.0
 40
3.2
  1
仕上げ
 41
0.60999997
100
AcDbText
  0
TEXT
  5
584
330
36
100
AcDbEntity
  8
0
  6
Continuous
 62
     7
100
AcDbText
 10
72.98539100000002
 20
1841.2456
 30
0.0
 40
3.2
  1
セットビス
 41
0.6099999900000001
100
AcDbText
  0
TEXT
  5
585
330
36
100
AcDbEntity
  8
0
  6
Continuous
 62
     7
100
AcDbText
 10
77.785389
 20
1817.2456
 30
0.0
 40
3.2
  1
備考
 41
0.61
100
AcDbText
  0
TEXT
  5
586
330
36
100
AcDbEntity
  8
0
  6
Continuous
 62
     7
100
AcDbText
 10
76.18538499999998
 20
1857.2456
 30
0.0
 40
3.2
  1
定　尺
 41
0.60999997
100
AcDbText
  0
TEXT
  5
587
330
36
100
AcDbEntity
  8
0
  6
Continuous
 62
     7
100
AcDbText
 10
74.585385
 20
1849.2456
 30
0.0
 40
3.2
  1
左右勝手
 41
0.60999998
100
AcDbText
  0
TEXT
  5
588
330
36
100
AcDbEntity
  8
0
  6
Continuous
 62
     7
100
AcDbText
 10
93.38538599999999
 20
1887.6456
 30
0.0
 40
3.2
  1
丸落し
 41
0.7499999600000002
100
AcDbText
  0
TEXT
  5
589
330
36
100
AcDbEntity
  8
0
  6
Continuous
 62
     7
100
AcDbText
 10
93.38538699999999
 20
1879.6456
 30
0.0
 40
3.2
  1
DL-144S
 41
0.78947366
100
AcDbText
  0
TEXT
  5
58A
330
36
100
AcDbEntity
  8
0
  6
Continuous
 62
     7
100
AcDbText
 10
93.38538699999999
 20
1871.6456
 30
0.0
 40
3.2
  1
ステンレス
 41
0.74999999
100
AcDbText
  0
TEXT
  5
58B
330
36
100
AcDbEntity
  8
0
  6
Continuous
 62
     7
100
AcDbText
 10
93.385388
 20
1863.6456
 30
0.0
 40
3.2
  1
電解研磨
 41
0.7499999800000002
100
AcDbText
  0
TEXT
  5
58C
330
36
100
AcDbEntity
  8
0
  6
Continuous
 62
     7
100
AcDbText
 10
93.38539
 20
1847.6456
 30
0.0
 40
3.2
  1
なし
 41
0.74999999
100
AcDbText
  0
TEXT
  5
58D
330
36
100
AcDbEntity
  8
0
  6
Continuous
 62
     3
100
AcDbText
 10
242.82391
 20
1835.8797
 30
0.0
 40
3.2
  1
9
100
AcDbText
  0
TEXT
  5
58E
330
36
100
AcDbEntity
  8
0
  6
Continuous
 62
     3
100
AcDbText
 10
259.7239
 20
1835.8801
 30
0.0
 40
3.2
  1
28
100
AcDbText
  0
TEXT
  5
58F
330
36
100
AcDbEntity
  8
0
  6
Continuous
 62
     3
100
AcDbText
 10
279.8239
 20
1835.8797
 30
0.0
 40
3.2
  1
9
100
AcDbText
  0
TEXT
  5
590
330
36
100
AcDbEntity
  8
0
  6
Continuous
 62
     3
100
AcDbText
 10
259.7239
 20
1845.8797
 30
0.0
 40
3.2
  1
46
100
AcDbText
  0
TEXT
  5
591
330
36
100
AcDbEntity
  8
0
  6
Continuous
 62
     3
100
AcDbText
 10
309.38058
 20
1769.1531
 30
0.0
 40
3.2
  1
8
 50
90.00000300000001
100
AcDbText
  0
TEXT
  5
592
330
36
100
AcDbEntity
  8
0
  6
Continuous
 62
     3
100
AcDbText
 10
309.38027
 20
1747.5531
 30
0.0
 40
3.2
  1
32
 50
90.00000300000001
100
AcDbText
  0
TEXT
  5
593
330
36
100
AcDbEntity
  8
0
  6
Continuous
 62
     3
100
AcDbText
 10
309.38027
 20
1715.5531
 30
0.0
 40
3.2
  1
32
 50
90.00000300000001
100
AcDbText
  0
TEXT
  5
594
330
36
100
AcDbEntity
  8
0
  6
Continuous
 62
     3
100
AcDbText
 10
309.38058
 20
1697.1531
 30
0.0
 40
3.2
  1
8
 50
90.00000300000001
100
AcDbText
  0
TEXT
  5
595
330
36
100
AcDbEntity
  8
0
  6
Continuous
 62
     3
100
AcDbText
 10
319.38058
 20
1731.5531
 30
0.0
 40
3.2
  1
80
 50
90.00000300000001
 41
1.071428599999999
100
AcDbText
  0
TEXT
  5
596
330
36
100
AcDbEntity
  8
0
  6
Continuous
 62
     3
100
AcDbText
 10
299.39025
 20
1660.8408
 30
0.0
 40
3.2
  1
23
 50
90.00000300000001
100
AcDbText
  0
TEXT
  5
597
330
36
100
AcDbEntity
  8
0
  6
Continuous
 62
     3
100
AcDbText
 10
299.39059
 20
1578.3159
 30
0.0
 40
3.2
  1
1.5
 50
90.00000300000001
 41
1.6
100
AcDbText
  0
TEXT
  5
598
330
36
100
AcDbEntity
  8
0
  6
Continuous
 62
     3
100
AcDbText
 10
257.8199
 20
1556.441
 30
0.0
 40
3.2
  1
%%C１２
 41
0.90021012
100
AcDbText
  0
TEXT
  5
599
330
36
100
AcDbEntity
  8
0
  6
Continuous
 62
     3
100
AcDbText
 10
236.87391
 20
1546.4408
 30
0.0
 40
3.2
  1
7.5
 41
1.3333333
100
AcDbText
  0
TEXT
  5
59A
330
36
100
AcDbEntity
  8
0
  6
Continuous
 62
     3
100
AcDbText
 10
259.7239
 20
1546.4408
 30
0.0
 40
3.2
  1
35
100
AcDbText
  0
TEXT
  5
59B
330
36
100
AcDbEntity
  8
0
  6
Continuous
 62
     3
100
AcDbText
 10
279.3739
 20
1546.4408
 30
0.0
 40
3.2
  1
7.5
 41
1.3333333
100
AcDbText
  0
TEXT
  5
59C
330
36
100
AcDbEntity
  8
0
  6
Continuous
 62
     3
100
AcDbText
 10
259.7239
 20
1536.4408
 30
0.0
 40
3.2
  1
50
 41
1.071428599999999
100
AcDbText
  0
TEXT
  5
59D
330
36
100
AcDbEntity
  8
0
  6
Continuous
 62
     3
100
AcDbText
 10
218.39057
 20
1674.5881
 30
0.0
 40
3.2
  1
L
 50
90.00000300000001
100
AcDbText
  0
TEXT
  5
59E
330
36
100
AcDbEntity
  8
0
  6
Continuous
 62
     3
100
AcDbText
 10
354.64587
 20
1762.5531
 30
0.0
 40
3.2
  1
18
 50
90.00000300000001
 41
1.25
100
AcDbText
  0
TEXT
  5
59F
330
36
100
AcDbEntity
  8
0
  6
Continuous
 62
     3
100
AcDbText
 10
354.64587
 20
1731.5531
 30
0.0
 40
3.2
  1
44
 50
90.00000300000001
100
AcDbText
  0
TEXT
  5
5A0
330
36
100
AcDbEntity
  8
0
  6
Continuous
 62
     3
100
AcDbText
 10
354.64587
 20
1700.5531
 30
0.0
 40
3.2
  1
18
 50
90.00000300000001
 41
1.25
100
AcDbText
  0
TEXT
  5
5A1
330
36
100
AcDbEntity
  8
0
  6
Continuous
 62
     3
100
AcDbText
 10
381.30419
 20
1835.8801
 30
0.0
 40
3.2
  1
20
 41
1.071428599999999
100
AcDbText
  0
TEXT
  5
5A2
330
36
100
AcDbEntity
  8
0
  6
Continuous
 62
     3
100
AcDbText
 10
371.30419
 20
1546.441
 30
0.0
 40
3.2
  1
23
100
AcDbText
  0
TEXT
  5
5A3
330
36
100
AcDbEntity
  8
0
  6
Continuous
 62
     3
100
AcDbText
 10
487.96275
 20
1813.2198
 30
0.0
 40
3.2
  1
7
100
AcDbText
  0
TEXT
  5
5A4
330
36
100
AcDbEntity
  8
0
  6
Continuous
 62
     3
100
AcDbText
 10
501.36275
 20
1813.2201
 30
0.0
 40
3.2
  1
23
100
AcDbText
  0
TEXT
  5
5A5
330
36
100
AcDbEntity
  8
0
  6
Continuous
 62
     3
100
AcDbText
 10
517.96275
 20
1813.2198
 30
0.0
 40
3.2
  1
7
100
AcDbText
  0
TEXT
  5
5A6
330
36
100
AcDbEntity
  8
0
  6
Continuous
 62
     3
100
AcDbText
 10
501.36275
 20
1823.2198
 30
0.0
 40
3.2
  1
37
100
AcDbText
  0
TEXT
  5
5A7
330
36
100
AcDbEntity
  8
0
  6
Continuous
 62
     3
100
AcDbText
 10
474.5294099999998
 20
1761.6031
 30
0.0
 40
3.2
  1
13.5
 50
90.00000300000001
 41
1.375
100
AcDbText
  0
TEXT
  5
5A8
330
36
100
AcDbEntity
  8
0
  6
Continuous
 62
     3
100
AcDbText
 10
474.5291099999998
 20
1744.0531
 30
0.0
 40
3.2
  1
28
 50
90.00000300000001
100
AcDbText
  0
TEXT
  5
5A9
330
36
100
AcDbEntity
  8
0
  6
Continuous
 62
     3
100
AcDbText
 10
474.5294099999998
 20
1720.1031
 30
0.0
 40
3.2
  1
13.5
 50
90.00000300000001
 41
1.375
100
AcDbText
  0
TEXT
  5
5AA
330
36
100
AcDbEntity
  8
0
  6
Continuous
 62
     3
100
AcDbText
 10
464.52941
 20
1701.348
 30
0.0
 40
3.2
  1
100
 50
90.00000300000001
 41
1.2972973
100
AcDbText
  0
TEXT
  5
5AB
330
36
100
AcDbEntity
  8
0
  6
Continuous
 62
     3
100
AcDbText
 10
551.0194299999998
 20
1769.6531
 30
0.0
 40
3.2
  1
7
 50
90.00000300000001
100
AcDbText
  0
TEXT
  5
5AC
330
36
100
AcDbEntity
  8
0
  6
Continuous
 62
     3
100
AcDbText
 10
551.0194299999998
 20
1744.0531
 30
0.0
 40
3.2
  1
41
 50
90.00000300000001
 41
1.1538462
100
AcDbText
  0
TEXT
  5
5AD
330
36
100
AcDbEntity
  8
0
  6
Continuous
 62
     3
100
AcDbText
 10
551.0194299999998
 20
1721.6531
 30
0.0
 40
3.2
  1
7
 50
90.00000300000001
100
AcDbText
  0
TEXT
  5
5AE
330
36
100
AcDbEntity
  8
0
  6
Continuous
 62
     3
100
AcDbText
 10
561.0194299999998
 20
1744.0531
 30
0.0
 40
3.2
  1
55
 50
90.00000300000001
100
AcDbText
  0
TEXT
  5
5AF
330
36
100
AcDbEntity
  8
0
  6
Continuous
 62
     3
100
AcDbText
 10
536.52944
 20
1694.9544
 30
0.0
 40
3.2
  1
15
 50
90.00000300000001
 41
1.25
100
AcDbText
  0
TEXT
  5
5B0
330
36
100
AcDbEntity
  8
0
  6
Continuous
 62
     3
100
AcDbText
 10
536.52944
 20
1646.3358
 30
0.0
 40
3.2
  1
1.5
 50
90.00000300000001
 41
1.6
100
AcDbText
  0
TEXT
  5
5B1
330
36
100
AcDbEntity
  8
0
  6
Continuous
 62
     3
100
AcDbText
 10
501.0587499999998
 20
1623.0095
 30
0.0
 40
3.2
  1
%%C９
 41
0.93613447
100
AcDbText
  0
TEXT
  5
5B2
330
36
100
AcDbEntity
  8
0
  6
Continuous
 62
     3
100
AcDbText
 10
488.46275
 20
1613.0095
 30
0.0
 40
3.2
  1
6
100
AcDbText
  0
TEXT
  5
5B3
330
36
100
AcDbEntity
  8
0
  6
Continuous
 62
     3
100
AcDbText
 10
501.36275
 20
1613.0099
 30
0.0
 40
3.2
  1
23
100
AcDbText
  0
TEXT
  5
5B4
330
36
100
AcDbEntity
  8
0
  6
Continuous
 62
     3
100
AcDbText
 10
517.46275
 20
1613.0095
 30
0.0
 40
3.2
  1
6
100
AcDbText
  0
TEXT
  5
5B5
330
36
100
AcDbEntity
  8
0
  6
Continuous
 62
     3
100
AcDbText
 10
501.36275
 20
1603.0095
 30
0.0
 40
3.2
  1
35
100
AcDbText
  0
TEXT
  5
5B6
330
36
100
AcDbEntity
  8
0
  6
Continuous
 62
     2
100
AcDbText
 10
121.12665
 20
1560.8399
 30
0.0
 40
3.2
  1
品　番
100
AcDbText
  0
TEXT
  5
5B7
330
36
100
AcDbEntity
  8
0
  6
Continuous
 62
     2
100
AcDbText
 10
165.13731
 20
1560.8399
 30
0.0
 40
3.2
  1
L
100
AcDbText
  0
TEXT
  5
5B8
330
36
100
AcDbEntity
  8
0
  6
Continuous
 62
     2
100
AcDbText
 10
112.33732
 20
1552.8399
 30
0.0
 40
3.2
  1
DL-144S-2
 41
1.04
100
AcDbText
  0
TEXT
  5
5B9
330
36
100
AcDbEntity
  8
0
  6
Continuous
 62
     2
100
AcDbText
 10
161.93731
 20
1552.8399
 30
0.0
 40
3.2
  1
150
 41
1.199999999999999
100
AcDbText
  0
TEXT
  5
5BA
330
36
100
AcDbEntity
  8
0
  6
Continuous
 62
     2
100
AcDbText
 10
112.33732
 20
1544.8399
 30
0.0
 40
3.2
  1
DL-144S-3
 41
1.04
100
AcDbText
  0
TEXT
  5
5BB
330
36
100
AcDbEntity
  8
0
  6
Continuous
 62
     2
100
AcDbText
 10
161.93731
 20
1544.8399
 30
0.0
 40
3.2
  1
300
 41
1.116279
100
AcDbText
  0
TEXT
  5
5BC
330
36
100
AcDbEntity
  8
0
  6
Continuous
 62
     2
100
AcDbText
 10
378.05133
 20
1829.9034
 30
0.0
 40
3.2
  1
(17)
 41
1.32
100
AcDbText
  0
TEXT
  5
5BD
330
36
100
AcDbEntity
  8
0
  6
Continuous
 62
     2
100
AcDbText
 10
368.0338799999999
 20
1539.6778
 30
0.0
 40
3.2
  1
(20)
 41
1.245282999999999
100
AcDbText
  0
TEXT
  5
5BE
330
36
100
AcDbEntity
  8
0
  6
Continuous
 62
     2
100
AcDbText
 10
472.85944
 20
1570.1078
 30
0.0
 40
3.2
  1
（　）寸法はＤＬ－１４４S－１を示す。
 41
0.9005866599999999
100
AcDbText
  0
TEXT
  5
5BF
330
36
100
AcDbEntity
  8
0
  6
Continuous
 62
     2
100
AcDbText
 10
243.36111
 20
1863.4393
 30
0.0
 40
3.2
  1
DL-144S-2(3)
 41
1.092233
100
AcDbText
  0
TEXT
  5
5C0
330
36
100
AcDbEntity
  8
0
  6
Continuous
 62
     2
100
AcDbText
 10
492.09315
 20
1841.1648
 30
0.0
 40
3.2
  1
DL-144S-1
 41
1.0804116
100
AcDbText
  0
TEXT
  5
5C1
330
36
100
AcDbEntity
  8
0
  6
Continuous
 62
     3
100
AcDbText
 10
309.39059
 20
1580.654
 30
0.0
 40
3.2
  1
ストローク４４
 50
90.00000300000001
 41
0.96008408
100
AcDbText
  0
TEXT
  5
5C2
330
36
100
AcDbEntity
  8
0
  6
Continuous
 62
     3
100
AcDbText
 10
546.52908
 20
1637.6777
 30
0.0
 40
3.2
  1
ストローク２８
 50
90.00000300000001
 41
0.96008408
100
AcDbText
  0
TEXT
  5
5C3
330
36
100
AcDbEntity
  8
0
  6
Continuous
 62
     3
100
AcDbText
 10
291.5202799999999
 20
1801.8275
 30
0.0
 40
3.2
  1
８－%%C４．５＊%%C８．５サラ
 41
0.88655456
100
AcDbText
  0
TEXT
  5
5C4
330
36
100
AcDbEntity
  8
0
  6
Continuous
 62
     3
100
AcDbText
 10
532.55415
 20
1801.8275
 30
0.0
 40
3.2
  1
６－%%C４．５＊%%C８．５サラ
 41
0.88655456
100
AcDbText
  0
TEXT
  5
5C5
330
36
100
AcDbEntity
  8
0
  6
Continuous
 62
     3
100
AcDbText
 10
228.39057
 20
1731.5531
 30
0.0
 40
3.2
  1
44
 50
90.00000300000001
100
AcDbText
  0
INSERT
  5
5C6
330
36
100
AcDbEntity
  8
0
  6
Continuous
 62
     7
100
AcDbBlockReference
  2
KOZU0001
 10
239.39058
 20
1834.8798
 30
0.0
  0
INSERT
  5
5C7
330
36
100
AcDbEntity
  8
0
  6
Continuous
 62
     7
100
AcDbBlockReference
  2
KOZU0002
 10
248.39058
 20
1834.8798
 30
0.0
  0
INSERT
  5
5C8
330
36
100
AcDbEntity
  8
0
  6
Continuous
 62
     7
100
AcDbBlockReference
  2
KOZU0003
 10
248.39058
 20
1834.8798
 30
0.0
  0
INSERT
  5
5C9
330
36
100
AcDbEntity
  8
0
  6
Continuous
 62
     7
100
AcDbBlockReference
  2
KOZU0004
 10
276.39056
 20
1834.8798
 30
0.0
  0
INSERT
  5
5CA
330
36
100
AcDbEntity
  8
0
  6
Continuous
 62
     7
100
AcDbBlockReference
  2
KOZU0005
 10
276.39056
 20
1834.8798
 30
0.0
  0
INSERT
  5
5CB
330
36
100
AcDbEntity
  8
0
  6
Continuous
 62
     7
100
AcDbBlockReference
  2
KOZU0006
 10
285.39056
 20
1834.8798
 30
0.0
  0
INSERT
  5
5CC
330
36
100
AcDbEntity
  8
0
  6
Continuous
 62
     7
100
AcDbBlockReference
  2
KOZU0007
 10
239.39058
 20
1844.8798
 30
0.0
  0
INSERT
  5
5CD
330
36
100
AcDbEntity
  8
0
  6
Continuous
 62
     7
100
AcDbBlockReference
  2
KOZU0008
 10
285.39056
 20
1844.8798
 30
0.0
  0
INSERT
  5
5CE
330
36
100
AcDbEntity
  8
0
  6
Continuous
 62
     7
100
AcDbBlockReference
  2
KOZU0009
 10
310.38058
 20
1774.2197
 30
0.0
  0
INSERT
  5
5CF
330
36
100
AcDbEntity
  8
0
  6
Continuous
 62
     7
100
AcDbBlockReference
  2
KOZU0010
 10
310.38058
 20
1766.2197
 30
0.0
  0
INSERT
  5
5D0
330
36
100
AcDbEntity
  8
0
  6
Continuous
 62
     7
100
AcDbBlockReference
  2
KOZU0011
 10
310.38058
 20
1766.2197
 30
0.0
  0
INSERT
  5
5D1
330
36
100
AcDbEntity
  8
0
  6
Continuous
 62
     7
100
AcDbBlockReference
  2
KOZU0012
 10
310.38058
 20
1734.2197
 30
0.0
  0
INSERT
  5
5D2
330
36
100
AcDbEntity
  8
0
  6
Continuous
 62
     7
100
AcDbBlockReference
  2
KOZU0013
 10
310.38058
 20
1734.2197
 30
0.0
  0
INSERT
  5
5D3
330
36
100
AcDbEntity
  8
0
  6
Continuous
 62
     7
100
AcDbBlockReference
  2
KOZU0014
 10
310.38058
 20
1702.2197
 30
0.0
  0
INSERT
  5
5D4
330
36
100
AcDbEntity
  8
0
  6
Continuous
 62
     7
100
AcDbBlockReference
  2
KOZU0015
 10
310.38058
 20
1702.2197
 30
0.0
  0
INSERT
  5
5D5
330
36
100
AcDbEntity
  8
0
  6
Continuous
 62
     7
100
AcDbBlockReference
  2
KOZU0016
 10
310.38058
 20
1694.2197
 30
0.0
  0
INSERT
  5
5D6
330
36
100
AcDbEntity
  8
0
  6
Continuous
 62
     7
100
AcDbBlockReference
  2
KOZU0017
 10
320.38058
 20
1774.2197
 30
0.0
  0
INSERT
  5
5D7
330
36
100
AcDbEntity
  8
0
  6
Continuous
 62
     7
100
AcDbBlockReference
  2
KOZU0018
 10
320.38058
 20
1694.2197
 30
0.0
  0
INSERT
  5
5D8
330
36
100
AcDbEntity
  8
0
  6
Continuous
 62
     7
100
AcDbBlockReference
  2
KOZU0019
 10
300.39056
 20
1675.0074
 30
0.0
  0
INSERT
  5
5D9
330
36
100
AcDbEntity
  8
0
  6
Continuous
 62
     7
100
AcDbBlockReference
  2
KOZU0020
 10
300.39056
 20
1652.0074
 30
0.0
  0
INSERT
  5
5DA
330
36
100
AcDbEntity
  8
0
  6
Continuous
 62
     7
100
AcDbBlockReference
  2
KOZU0021
 10
300.39056
 20
1588.6688
 30
0.0
  0
INSERT
  5
5DB
330
36
100
AcDbEntity
  8
0
  6
Continuous
 62
     7
100
AcDbBlockReference
  2
KOZU0022
 10
300.39056
 20
1587.1688
 30
0.0
  0
INSERT
  5
5DC
330
36
100
AcDbEntity
  8
0
  6
Continuous
 62
     7
100
AcDbBlockReference
  2
KOZU0023
 10
256.39056
 20
1555.4407
 30
0.0
  0
INSERT
  5
5DD
330
36
100
AcDbEntity
  8
0
  6
Continuous
 62
     7
100
AcDbBlockReference
  2
KOZU0024
 10
268.39056
 20
1555.4407
 30
0.0
  0
INSERT
  5
5DE
330
36
100
AcDbEntity
  8
0
  6
Continuous
 62
     7
100
AcDbBlockReference
  2
KOZU0025
 10
237.39058
 20
1545.4407
 30
0.0
  0
INSERT
  5
5DF
330
36
100
AcDbEntity
  8
0
  6
Continuous
 62
     7
100
AcDbBlockReference
  2
KOZU0026
 10
244.89058
 20
1545.4407
 30
0.0
  0
INSERT
  5
5E0
330
36
100
AcDbEntity
  8
0
  6
Continuous
 62
     7
100
AcDbBlockReference
  2
KOZU0027
 10
244.89058
 20
1545.4407
 30
0.0
  0
INSERT
  5
5E1
330
36
100
AcDbEntity
  8
0
  6
Continuous
 62
     7
100
AcDbBlockReference
  2
KOZU0028
 10
279.89056
 20
1545.4407
 30
0.0
  0
INSERT
  5
5E2
330
36
100
AcDbEntity
  8
0
  6
Continuous
 62
     7
100
AcDbBlockReference
  2
KOZU0029
 10
279.89056
 20
1545.4407
 30
0.0
  0
INSERT
  5
5E3
330
36
100
AcDbEntity
  8
0
  6
Continuous
 62
     7
100
AcDbBlockReference
  2
KOZU0030
 10
287.39056
 20
1545.4407
 30
0.0
  0
INSERT
  5
5E4
330
36
100
AcDbEntity
  8
0
  6
Continuous
 62
     7
100
AcDbBlockReference
  2
KOZU0031
 10
237.39058
 20
1535.4407
 30
0.0
  0
INSERT
  5
5E5
330
36
100
AcDbEntity
  8
0
  6
Continuous
 62
     7
100
AcDbBlockReference
  2
KOZU0032
 10
287.39056
 20
1535.4407
 30
0.0
  0
INSERT
  5
5E6
330
36
100
AcDbEntity
  8
0
  6
Continuous
 62
     7
100
AcDbBlockReference
  2
KOZU0033
 10
219.39058
 20
1780.869
 30
0.0
  0
INSERT
  5
5E7
330
36
100
AcDbEntity
  8
0
  6
Continuous
 62
     7
100
AcDbBlockReference
  2
KOZU0034
 10
219.39058
 20
1570.4407
 30
0.0
  0
INSERT
  5
5E8
330
36
100
AcDbEntity
  8
0
  6
Continuous
 62
     7
100
AcDbBlockReference
  2
KOZU0035
 10
355.64587
 20
1774.2197
 30
0.0
  0
INSERT
  5
5E9
330
36
100
AcDbEntity
  8
0
  6
Continuous
 62
     7
100
AcDbBlockReference
  2
KOZU0036
 10
355.64587
 20
1756.2197
 30
0.0
  0
INSERT
  5
5EA
330
36
100
AcDbEntity
  8
0
  6
Continuous
 62
     7
100
AcDbBlockReference
  2
KOZU0037
 10
355.64587
 20
1756.2197
 30
0.0
  0
INSERT
  5
5EB
330
36
100
AcDbEntity
  8
0
  6
Continuous
 62
     7
100
AcDbBlockReference
  2
KOZU0038
 10
355.64587
 20
1712.2197
 30
0.0
  0
INSERT
  5
5EC
330
36
100
AcDbEntity
  8
0
  6
Continuous
 62
     7
100
AcDbBlockReference
  2
KOZU0039
 10
355.64587
 20
1712.2197
 30
0.0
  0
INSERT
  5
5ED
330
36
100
AcDbEntity
  8
0
  6
Continuous
 62
     7
100
AcDbBlockReference
  2
KOZU0040
 10
355.64587
 20
1694.2197
 30
0.0
  0
INSERT
  5
5EE
330
36
100
AcDbEntity
  8
0
  6
Continuous
 62
     7
100
AcDbBlockReference
  2
KOZU0041
 10
373.97086
 20
1834.8798
 30
0.0
  0
INSERT
  5
5EF
330
36
100
AcDbEntity
  8
0
  6
Continuous
 62
     7
100
AcDbBlockReference
  2
KOZU0042
 10
393.97086
 20
1834.8798
 30
0.0
  0
INSERT
  5
5F0
330
36
100
AcDbEntity
  8
0
  6
Continuous
 62
     7
100
AcDbBlockReference
  2
KOZU0043
 10
362.47086
 20
1545.4407
 30
0.0
  0
INSERT
  5
5F1
330
36
100
AcDbEntity
  8
0
  6
Continuous
 62
     7
100
AcDbBlockReference
  2
KOZU0044
 10
385.47086
 20
1545.4407
 30
0.0
  0
INSERT
  5
5F2
330
36
100
AcDbEntity
  8
0
  6
Continuous
 62
     7
100
AcDbBlockReference
  2
KOZU0045
 10
485.52942
 20
1812.2197
 30
0.0
  0
INSERT
  5
5F3
330
36
100
AcDbEntity
  8
0
  6
Continuous
 62
     7
100
AcDbBlockReference
  2
KOZU0046
 10
492.52942
 20
1812.2197
 30
0.0
  0
INSERT
  5
5F4
330
36
100
AcDbEntity
  8
0
  6
Continuous
 62
     7
100
AcDbBlockReference
  2
KOZU0047
 10
492.52942
 20
1812.2197
 30
0.0
  0
INSERT
  5
5F5
330
36
100
AcDbEntity
  8
0
  6
Continuous
 62
     7
100
AcDbBlockReference
  2
KOZU0048
 10
515.5294200000001
 20
1812.2197
 30
0.0
  0
INSERT
  5
5F6
330
36
100
AcDbEntity
  8
0
  6
Continuous
 62
     7
100
AcDbBlockReference
  2
KOZU0049
 10
515.5294200000001
 20
1812.2197
 30
0.0
  0
INSERT
  5
5F7
330
36
100
AcDbEntity
  8
0
  6
Continuous
 62
     7
100
AcDbBlockReference
  2
KOZU0050
 10
522.52942
 20
1812.2197
 30
0.0
  0
INSERT
  5
5F8
330
36
100
AcDbEntity
  8
0
  6
Continuous
 62
     7
100
AcDbBlockReference
  2
KOZU0051
 10
485.52942
 20
1822.2197
 30
0.0
  0
INSERT
  5
5F9
330
36
100
AcDbEntity
  8
0
  6
Continuous
 62
     7
100
AcDbBlockReference
  2
KOZU0052
 10
522.52942
 20
1822.2197
 30
0.0
  0
INSERT
  5
5FA
330
36
100
AcDbEntity
  8
0
  6
Continuous
 62
     7
100
AcDbBlockReference
  2
KOZU0053
 10
475.52942
 20
1774.2197
 30
0.0
  0
INSERT
  5
5FB
330
36
100
AcDbEntity
  8
0
  6
Continuous
 62
     7
100
AcDbBlockReference
  2
KOZU0054
 10
475.52942
 20
1760.7197
 30
0.0
  0
INSERT
  5
5FC
330
36
100
AcDbEntity
  8
0
  6
Continuous
 62
     7
100
AcDbBlockReference
  2
KOZU0055
 10
475.52942
 20
1760.7197
 30
0.0
  0
INSERT
  5
5FD
330
36
100
AcDbEntity
  8
0
  6
Continuous
 62
     7
100
AcDbBlockReference
  2
KOZU0056
 10
475.52942
 20
1732.7197
 30
0.0
  0
INSERT
  5
5FE
330
36
100
AcDbEntity
  8
0
  6
Continuous
 62
     7
100
AcDbBlockReference
  2
KOZU0057
 10
475.52942
 20
1732.7197
 30
0.0
  0
INSERT
  5
5FF
330
36
100
AcDbEntity
  8
0
  6
Continuous
 62
     7
100
AcDbBlockReference
  2
KOZU0058
 10
475.52942
 20
1719.2197
 30
0.0
  0
INSERT
  5
600
330
36
100
AcDbEntity
  8
0
  6
Continuous
 62
     7
100
AcDbBlockReference
  2
KOZU0059
 10
465.52942
 20
1774.2197
 30
0.0
  0
INSERT
  5
601
330
36
100
AcDbEntity
  8
0
  6
Continuous
 62
     7
100
AcDbBlockReference
  2
KOZU0060
 10
465.52942
 20
1637.0095
 30
0.0
  0
INSERT
  5
602
330
36
100
AcDbEntity
  8
0
  6
Continuous
 62
     7
100
AcDbBlockReference
  2
KOZU0061
 10
552.01941
 20
1774.2197
 30
0.0
  0
INSERT
  5
603
330
36
100
AcDbEntity
  8
0
  6
Continuous
 62
     7
100
AcDbBlockReference
  2
KOZU0062
 10
552.01941
 20
1767.2197
 30
0.0
  0
INSERT
  5
604
330
36
100
AcDbEntity
  8
0
  6
Continuous
 62
     7
100
AcDbBlockReference
  2
KOZU0063
 10
552.01941
 20
1767.2197
 30
0.0
  0
INSERT
  5
605
330
36
100
AcDbEntity
  8
0
  6
Continuous
 62
     7
100
AcDbBlockReference
  2
KOZU0064
 10
552.01941
 20
1726.2197
 30
0.0
  0
INSERT
  5
606
330
36
100
AcDbEntity
  8
0
  6
Continuous
 62
     7
100
AcDbBlockReference
  2
KOZU0065
 10
552.01941
 20
1726.2197
 30
0.0
  0
INSERT
  5
607
330
36
100
AcDbEntity
  8
0
  6
Continuous
 62
     7
100
AcDbBlockReference
  2
KOZU0066
 10
552.01941
 20
1719.2197
 30
0.0
  0
INSERT
  5
608
330
36
100
AcDbEntity
  8
0
  6
Continuous
 62
     7
100
AcDbBlockReference
  2
KOZU0067
 10
562.0194099999999
 20
1774.2197
 30
0.0
  0
INSERT
  5
609
330
36
100
AcDbEntity
  8
0
  6
Continuous
 62
     7
100
AcDbBlockReference
  2
KOZU0068
 10
562.0194099999999
 20
1719.2197
 30
0.0
  0
INSERT
  5
60A
330
36
100
AcDbEntity
  8
0
  6
Continuous
 62
     7
100
AcDbBlockReference
  2
KOZU0069
 10
537.52942
 20
1705.1211
 30
0.0
  0
INSERT
  5
60B
330
36
100
AcDbEntity
  8
0
  6
Continuous
 62
     7
100
AcDbBlockReference
  2
KOZU0070
 10
537.52942
 20
1690.1211
 30
0.0
  0
INSERT
  5
60C
330
36
100
AcDbEntity
  8
0
  6
Continuous
 62
     7
100
AcDbBlockReference
  2
KOZU0071
 10
537.52942
 20
1656.6887
 30
0.0
  0
INSERT
  5
60D
330
36
100
AcDbEntity
  8
0
  6
Continuous
 62
     7
100
AcDbBlockReference
  2
KOZU0072
 10
537.52942
 20
1655.1887
 30
0.0
  0
INSERT
  5
60E
330
36
100
AcDbEntity
  8
0
  6
Continuous
 62
     7
100
AcDbBlockReference
  2
KOZU0073
 10
499.52942
 20
1622.0095
 30
0.0
  0
INSERT
  5
60F
330
36
100
AcDbEntity
  8
0
  6
Continuous
 62
     7
100
AcDbBlockReference
  2
KOZU0074
 10
508.5294199999998
 20
1622.0095
 30
0.0
  0
INSERT
  5
610
330
36
100
AcDbEntity
  8
0
  6
Continuous
 62
     7
100
AcDbBlockReference
  2
KOZU0075
 10
486.52942
 20
1612.0095
 30
0.0
  0
INSERT
  5
611
330
36
100
AcDbEntity
  8
0
  6
Continuous
 62
     7
100
AcDbBlockReference
  2
KOZU0076
 10
492.52942
 20
1612.0095
 30
0.0
  0
INSERT
  5
612
330
36
100
AcDbEntity
  8
0
  6
Continuous
 62
     7
100
AcDbBlockReference
  2
KOZU0077
 10
492.52942
 20
1612.0095
 30
0.0
  0
INSERT
  5
613
330
36
100
AcDbEntity
  8
0
  6
Continuous
 62
     7
100
AcDbBlockReference
  2
KOZU0078
 10
515.5294200000001
 20
1612.0095
 30
0.0
  0
INSERT
  5
614
330
36
100
AcDbEntity
  8
0
  6
Continuous
 62
     7
100
AcDbBlockReference
  2
KOZU0079
 10
515.5294200000001
 20
1612.0095
 30
0.0
  0
INSERT
  5
615
330
36
100
AcDbEntity
  8
0
  6
Continuous
 62
     7
100
AcDbBlockReference
  2
KOZU0080
 10
521.52942
 20
1612.0095
 30
0.0
  0
INSERT
  5
616
330
36
100
AcDbEntity
  8
0
  6
Continuous
 62
     7
100
AcDbBlockReference
  2
KOZU0081
 10
486.52942
 20
1602.0095
 30
0.0
  0
INSERT
  5
617
330
36
100
AcDbEntity
  8
0
  6
Continuous
 62
     7
100
AcDbBlockReference
  2
KOZU0082
 10
521.52942
 20
1602.0095
 30
0.0
  0
INSERT
  5
618
330
36
100
AcDbEntity
  8
0
  6
Continuous
 62
     7
100
AcDbBlockReference
  2
KOZU0083
 10
310.39056
 20
1570.4407
 30
0.0
  0
INSERT
  5
619
330
36
100
AcDbEntity
  8
0
  6
Continuous
 62
     7
100
AcDbBlockReference
  2
KOZU0084
 10
547.52942
 20
1637.0095
 30
0.0
  0
INSERT
  5
61A
330
36
100
AcDbEntity
  8
0
  6
Continuous
 62
     7
100
AcDbBlockReference
  2
KOZU0085
 10
274.25839
 20
1762.5433
 30
0.0
  0
INSERT
  5
61B
330
36
100
AcDbEntity
  8
0
  6
Continuous
 62
     7
100
AcDbBlockReference
  2
KOZU0086
 10
278.52277
 20
1769.896199999999
 30
0.0
  0
INSERT
  5
61C
330
36
100
AcDbEntity
  8
0
  6
Continuous
 62
     7
100
AcDbBlockReference
  2
KOZU0087
 10
513.21136
 20
1763.6576
 30
0.0
  0
INSERT
  5
61D
330
36
100
AcDbEntity
  8
0
  6
Continuous
 62
     7
100
AcDbBlockReference
  2
KOZU0088
 10
517.84753
 20
1770.782
 30
0.0
  0
INSERT
  5
61E
330
36
100
AcDbEntity
  8
0
  6
Continuous
 62
     7
100
AcDbBlockReference
  2
KOZU0089
 10
229.39058
 20
1756.2197
 30
0.0
  0
INSERT
  5
61F
330
36
100
AcDbEntity
  8
0
  6
Continuous
 62
     7
100
AcDbBlockReference
  2
KOZU0090
 10
229.39058
 20
1712.2197
 30
0.0
  0
DIMENSION
  5
620
330
36
100
AcDbEntity
  8
0
  6
Continuous
 62
     7
100
AcDbDimension
  2
*D1
 10
292.39056
 20
1683.4343
 30
0.0
 11
277.39056
 21
1683.4343
 31
0.0
 71
     5
 42
-1.0
  3
DIMSTYLE
100
AcDbAlignedDimension
 13
262.39056
 23
1567.4407
 33
0.0
 14
292.39056
 24
1712.2197
 34
0.0
100
AcDbRotatedDimension
1001
ACAD
1000
DSTYLE
1002
{
1070
    77
1070
     1
1070
   172
1070
     1
1070
    75
1070
     1
1002
}
  0
DIMENSION
  5
621
330
36
100
AcDbEntity
  8
0
  6
Continuous
 62
     7
100
AcDbDimension
  2
*D2
 10
534.02942
 20
1711.0854
 30
0.0
 11
519.0294200000002
 21
1711.0854
 31
0.0
 71
     5
 42
-1.0
  3
DIMSTYLE
100
AcDbAlignedDimension
 13
504.0294199999998
 23
1634.0095
 33
0.0
 14
534.02942
 24
1732.7197
 34
0.0
100
AcDbRotatedDimension
1001
ACAD
1000
DSTYLE
1002
{
1070
    77
1070
     1
1070
   172
1070
     1
1070
    75
1070
     1
1002
}
  0
ENDSEC
  0
SECTION
  2
OBJECTS
  0
DICTIONARY
  5
C
330
0
100
AcDbDictionary
281
     1
  3
ACAD_COLOR
350
2F
  3
ACAD_GROUP
350
D
  3
ACAD_LAYOUT
350
2E
  3
ACAD_MATERIAL
350
10
  3
ACAD_MLINESTYLE
350
2B
  3
ACAD_PLOTSETTINGS
350
2D
  3
ACAD_PLOTSTYLENAME
350
E
  3
ACAD_TABLESTYLE
350
30
  3
ACAD_VISUALSTYLE
350
14
  3
AcDbVariableDictionary
350
6C5
  3
AcmDictionary
350
67C
  3
AMG
350
623
  3
AMGSNAPSETTINGS
350
6BD
  3
DWGPROPS
350
747
  0
DICTIONARY
  5
2F
102
{ACAD_REACTORS
330
C
102
}
330
C
100
AcDbDictionary
281
     1
  0
DICTIONARY
  5
D
102
{ACAD_REACTORS
330
C
102
}
330
C
100
AcDbDictionary
281
     1
  0
DICTIONARY
  5
2E
102
{ACAD_REACTORS
330
C
102
}
330
C
100
AcDbDictionary
281
     1
  3
Model
350
39
  3
レイアウト1
350
35
  0
DICTIONARY
  5
10
102
{ACAD_REACTORS
330
C
102
}
330
C
100
AcDbDictionary
281
     1
  3
ByBlock
350
12
  3
ByLayer
350
11
  3
Global
350
13
  0
DICTIONARY
  5
2B
102
{ACAD_REACTORS
330
C
102
}
330
C
100
AcDbDictionary
281
     1
  3
Standard
350
2C
  0
DICTIONARY
  5
2D
102
{ACAD_REACTORS
330
C
102
}
330
C
100
AcDbDictionary
281
     1
  0
ACDBDICTIONARYWDFLT
  5
E
102
{ACAD_REACTORS
330
C
102
}
330
C
100
AcDbDictionary
281
     1
  3
Normal
350
F
100
AcDbDictionaryWithDefault
340
F
  0
DICTIONARY
  5
30
102
{ACAD_REACTORS
330
C
102
}
330
C
100
AcDbDictionary
281
     1
  3
Standard
350
31
  0
DICTIONARY
  5
14
102
{ACAD_REACTORS
330
C
102
}
330
C
100
AcDbDictionary
281
     1
  3
2dWireframe
350
1A
  3
3D Hidden
350
1C
  3
3dWireframe
350
1B
  3
Basic
350
19
  3
Brighten
350
20
  3
ColorChange
350
24
  3
Conceptual
350
1D
  3
Dim
350
1F
  3
Facepattern
350
23
  3
Flat
350
15
  3
FlatWithEdges
350
16
  3
Gouraud
350
17
  3
GouraudWithEdges
350
18
  3
Linepattern
350
22
  3
Realistic
350
1E
  3
Thicken
350
21
  0
DICTIONARY
  5
6C5
102
{ACAD_REACTORS
330
C
102
}
330
C
100
AcDbDictionary
281
     1
  3
CTABLESTYLE
350
6C6
  3
DIMASSOC
350
744
  3
INDEXCTL
350
743
  3
LOFTANG1
350
745
  3
LOFTANG2
350
746
  3
SORTENTS
350
742
  0
DICTIONARY
  5
67C
102
{ACAD_REACTORS
330
C
102
}
330
C
100
AcDbDictionary
281
     1
  3
AcmStdDictionary
350
687
  3
AMDTSECTSYM_ARROWCOLOR
350
6A8
  0
DICTIONARY
  5
623
102
{ACAD_REACTORS
330
C
102
}
330
C
100
AcDbDictionary
281
     1
  0
DICTIONARY
  5
6BD
102
{ACAD_REACTORS
330
C
102
}
330
C
100
AcDbDictionary
281
     1
  0
XRECORD
  5
747
102
{ACAD_REACTORS
330
C
102
}
330
C
100
AcDbXrecord
280
     1
  1
DWGPROPS COOKIE
  2

  3

  4

  6

  7

  8
Administrator
  9

300
=
301
=
302
=
303
=
304
=
305
=
306
=
307
=
308
=
309
=
 40
0.0020249189814815
 41
2454475.546737373
 42
2455077.57624294
  1

 90
        0
  0
LAYOUT
  5
39
102
{ACAD_XDICTIONARY
360
752
102
}
102
{ACAD_REACTORS
330
2E
102
}
330
2E
100
AcDbPlotSettings
  1

  2
\\CAD-SRV01\FX DocuColor 1250 PLW
  4

  6

 40
0.0
 41
0.0
 42
0.0
 43
0.0
 44
0.0
 45
0.0
 46
0.0
 47
0.0
 48
0.0
 49
0.0
140
0.0
141
0.0
142
1.0
143
1.0
 70
  1712
 72
     0
 73
     0
 74
     0
  7

 75
     0
147
1.0
148
0.0
149
0.0
100
AcDbLayout
  1
Model
 70
     1
 71
     0
 10
0.0
 20
0.0
 11
12.0
 21
9.0
 12
0.0
 22
0.0
 32
0.0
 14
0.0
 24
0.0
 34
0.0
 15
0.0
 25
0.0
 35
0.0
146
0.0
 13
0.0
 23
0.0
 33
0.0
 16
1.0
 26
0.0
 36
0.0
 17
0.0
 27
1.0
 37
0.0
 76
     0
330
36
331
43
  0
LAYOUT
  5
35
102
{ACAD_XDICTIONARY
360
750
102
}
102
{ACAD_REACTORS
330
2E
102
}
330
2E
100
AcDbPlotSettings
  1

  2
\\CAD-SRV01\FX DocuColor 1250 PLW
  4

  6

 40
0.0
 41
0.0
 42
0.0
 43
0.0
 44
0.0
 45
0.0
 46
0.0
 47
0.0
 48
0.0
 49
0.0
140
0.0
141
0.0
142
1.0
143
1.0
 70
   688
 72
     0
 73
     0
 74
     5
  7

 75
    16
147
1.0
148
0.0
149
0.0
100
AcDbLayout
  1
レイアウト1
 70
     1
 71
     1
 10
50.456909
 20
1485.9956
 11
644.4569099999998
 21
1905.9956
 12
0.0
 22
0.0
 32
0.0
 14
1.000000000000000E+20
 24
1.000000000000000E+20
 34
1.000000000000000E+20
 15
-1.000000000000000E+20
 25
-1.000000000000000E+20
 35
-1.000000000000000E+20
146
0.0
 13
0.0
 23
0.0
 33
0.0
 16
1.0
 26
0.0
 36
0.0
 17
0.0
 27
1.0
 37
0.0
 76
     0
330
32
  0
MATERIAL
  5
12
102
{ACAD_XDICTIONARY
360
74A
102
}
102
{ACAD_REACTORS
330
10
102
}
330
10
100
AcDbMaterial
  1
ByBlock
  0
MATERIAL
  5
11
102
{ACAD_XDICTIONARY
360
748
102
}
102
{ACAD_REACTORS
330
10
102
}
330
10
100
AcDbMaterial
  1
ByLayer
  0
MATERIAL
  5
13
102
{ACAD_XDICTIONARY
360
74C
102
}
102
{ACAD_REACTORS
330
10
102
}
330
10
100
AcDbMaterial
  1
Global
  0
MLINESTYLE
  5
2C
102
{ACAD_REACTORS
330
2B
102
}
330
2B
100
AcDbMlineStyle
  2
STANDARD
 70
     0
  3

 62
   256
 51
90.0
 52
90.0
 71
     2
 49
0.5
 62
   256
  6
BYLAYER
 49
-0.5
 62
   256
  6
BYLAYER
  0
ACDBPLACEHOLDER
  5
F
102
{ACAD_REACTORS
330
E
102
}
330
E
  0
TABLESTYLE
  5
31
102
{ACAD_XDICTIONARY
360
74E
102
}
102
{ACAD_REACTORS
330
30
102
}
330
30
100
AcDbTableStyle
  3
Standard
 70
     0
 71
     0
 40
0.06
 41
0.06
280
     0
281
     0
  7
STANDARD
140
0.18
170
     2
 62
     0
 63
     7
283
     0
274
    -2
284
     1
 64
     0
275
    -2
285
     1
 65
     0
276
    -2
286
     1
 66
     0
277
    -2
287
     1
 67
     0
278
    -2
288
     1
 68
     0
279
    -2
289
     1
 69
     0
  7
STANDARD
140
0.25
170
     5
 62
     0
 63
     7
283
     0
274
    -2
284
     1
 64
     0
275
    -2
285
     1
 65
     0
276
    -2
286
     1
 66
     0
277
    -2
287
     1
 67
     0
278
    -2
288
     1
 68
     0
279
    -2
289
     1
 69
     0
  7
STANDARD
140
0.18
170
     5
 62
     0
 63
     7
283
     0
274
    -2
284
     1
 64
     0
275
    -2
285
     1
 65
     0
276
    -2
286
     1
 66
     0
277
    -2
287
     1
 67
     0
278
    -2
288
     1
 68
     0
279
    -2
289
     1
 69
     0
  0
VISUALSTYLE
  5
1A
102
{ACAD_REACTORS
330
14
102
}
330
14
100
AcDbVisualStyle
  2
2dWireframe
 70
     4
 71
     0
 72
     2
 73
     0
 90
        0
 40
-0.6
 41
-30.0
 62
     5
 63
     7
 74
     1
 91
        4
 64
     7
 65
   257
 75
     1
175
     1
 42
1.0
 92
        0
 66
   257
 43
1.0
 76
     1
 77
     6
 78
     2
 67
     7
 79
     5
170
     0
171
     0
290
     0
174
     0
 93
        1
 44
0.0
173
     0
291
     0
 45
0.0
1001
ACAD
1000
AcDbSavedByObjectVersion
1070
     0
  0
VISUALSTYLE
  5
1C
102
{ACAD_REACTORS
330
14
102
}
330
14
100
AcDbVisualStyle
  2
3D Hidden
 70
     6
 71
     1
 72
     2
 73
     2
 90
        0
 40
-0.6
 41
-30.0
 62
     5
 63
     7
 74
     2
 91
        2
 64
     7
 65
   257
 75
     2
175
     1
 42
40.0
 92
        0
 66
   257
 43
1.0
 76
     1
 77
     6
 78
     2
 67
     7
 79
     3
170
     0
171
     0
290
     0
174
     0
 93
        1
 44
0.0
173
     0
291
     0
 45
0.0
1001
ACAD
1000
AcDbSavedByObjectVersion
1070
     0
  0
VISUALSTYLE
  5
1B
102
{ACAD_REACTORS
330
14
102
}
330
14
100
AcDbVisualStyle
  2
3dWireframe
 70
     5
 71
     0
 72
     2
 73
     0
 90
        0
 40
-0.6
 41
-30.0
 62
     5
 63
     7
 74
     1
 91
        4
 64
     7
 65
   257
 75
     1
175
     1
 42
1.0
 92
        0
 66
   257
 43
1.0
 76
     1
 77
     6
 78
     2
 67
     7
 79
     5
170
     0
171
     0
290
     0
174
     0
 93
        1
 44
0.0
173
     0
291
     0
 45
0.0
1001
ACAD
1000
AcDbSavedByObjectVersion
1070
     0
  0
VISUALSTYLE
  5
19
102
{ACAD_REACTORS
330
14
102
}
330
14
100
AcDbVisualStyle
  2
Basic
 70
     7
 71
     1
 72
     0
 73
     1
 90
        0
 40
-0.6
 41
-30.0
 62
     5
 63
     7
 74
     0
 91
        4
 64
     7
 65
   257
 75
     1
175
     1
 42
1.0
 92
        8
 66
     7
 43
1.0
 76
     1
 77
     6
 78
     2
 67
     7
 79
     5
170
     0
171
     0
290
     0
174
     0
 93
        1
 44
0.0
173
     0
291
     1
 45
0.0
1001
ACAD
1000
AcDbSavedByObjectVersion
1070
     0
  0
VISUALSTYLE
  5
20
102
{ACAD_REACTORS
330
14
102
}
330
14
100
AcDbVisualStyle
  2
Brighten
 70
    12
 71
     2
 72
     2
 73
     0
 90
        0
 40
-0.6
 41
-30.0
 62
     5
 63
     7
 74
     1
 91
        4
 64
     7
 65
   257
 75
     1
175
     1
 42
1.0
 92
        8
 66
     7
 43
1.0
 76
     1
 77
     6
 78
     2
 67
     7
 79
     5
170
     0
171
     0
290
     0
174
     0
 93
        1
 44
50.0
173
     0
291
     1
 45
0.0
1001
ACAD
1000
AcDbSavedByObjectVersion
1070
     0
  0
VISUALSTYLE
  5
24
102
{ACAD_REACTORS
330
14
102
}
330
14
100
AcDbVisualStyle
  2
ColorChange
 70
    16
 71
     2
 72
     2
 73
     3
 90
        0
 40
-0.6
 41
-30.0
 62
     5
 63
     8
 74
     1
 91
        4
 64
     7
 65
   257
 75
     1
175
     1
 42
1.0
 92
        8
 66
     8
 43
1.0
 76
     1
 77
     6
 78
     2
 67
     7
 79
     5
170
     0
171
     0
290
     0
174
     0
 93
        1
 44
0.0
173
     0
291
     1
 45
0.0
1001
ACAD
1000
AcDbSavedByObjectVersion
1070
     0
  0
VISUALSTYLE
  5
1D
102
{ACAD_REACTORS
330
14
102
}
330
14
100
AcDbVisualStyle
  2
Conceptual
 70
     9
 71
     3
 72
     2
 73
     0
 90
        0
 40
-0.6
 41
-30.0
 62
     5
 63
     7
 74
     2
 91
        2
 64
     7
 65
   257
 75
     1
175
     1
 42
40.0
 92
        8
 66
     7
 43
1.0
 76
     1
 77
     6
 78
     2
 67
     7
 79
     3
170
     0
171
     0
290
     0
174
     0
 93
        1
 44
0.0
173
     0
291
     0
 45
0.0
1001
ACAD
1000
AcDbSavedByObjectVersion
1070
     0
  0
VISUALSTYLE
  5
1F
102
{ACAD_REACTORS
330
14
102
}
330
14
100
AcDbVisualStyle
  2
Dim
 70
    11
 71
     2
 72
     2
 73
     0
 90
        0
 40
-0.6
 41
-30.0
 62
     5
 63
     7
 74
     1
 91
        4
 64
     7
 65
   257
 75
     1
175
     1
 42
1.0
 92
        8
 66
     7
 43
1.0
 76
     1
 77
     6
 78
     2
 67
     7
 79
     5
170
     0
171
     0
290
     0
174
     0
 93
        1
 44
-50.0
173
     0
291
     1
 45
0.0
1001
ACAD
1000
AcDbSavedByObjectVersion
1070
     0
  0
VISUALSTYLE
  5
23
102
{ACAD_REACTORS
330
14
102
}
330
14
100
AcDbVisualStyle
  2
Facepattern
 70
    15
 71
     2
 72
     2
 73
     0
 90
        0
 40
-0.6
 41
-30.0
 62
     5
 63
     7
 74
     1
 91
        4
 64
     7
 65
   257
 75
     1
175
     1
 42
1.0
 92
        8
 66
     7
 43
1.0
 76
     1
 77
     6
 78
     2
 67
     7
 79
     5
170
     0
171
     0
290
     0
174
     0
 93
        1
 44
0.0
173
     0
291
     1
 45
0.0
1001
ACAD
1000
AcDbSavedByObjectVersion
1070
     0
  0
VISUALSTYLE
  5
15
102
{ACAD_REACTORS
330
14
102
}
330
14
100
AcDbVisualStyle
  2
Flat
 70
     0
 71
     2
 72
     1
 73
     1
 90
        2
 40
-0.6
 41
30.0
 62
     5
 63
     7
 74
     0
 91
        4
 64
     7
 65
   257
 75
     1
175
     1
 42
1.0
 92
        8
 66
     7
 43
1.0
 76
     1
 77
     6
 78
     2
 67
     7
 79
     5
170
     0
171
     0
290
     0
174
     0
 93
       13
 44
0.0
173
     0
291
     1
 45
0.0
1001
ACAD
1000
AcDbSavedByObjectVersion
1070
     0
  0
VISUALSTYLE
  5
16
102
{ACAD_REACTORS
330
14
102
}
330
14
100
AcDbVisualStyle
  2
FlatWithEdges
 70
     1
 71
     2
 72
     1
 73
     1
 90
        2
 40
-0.6
 41
30.0
 62
     5
 63
     7
 74
     1
 91
        4
 64
     7
 65
   257
 75
     1
175
     1
 42
1.0
 92
        0
 66
   257
 43
1.0
 76
     1
 77
     6
 78
     2
 67
     7
 79
     5
170
     0
171
     0
290
     0
174
     0
 93
       13
 44
0.0
173
     0
291
     1
 45
0.0
1001
ACAD
1000
AcDbSavedByObjectVersion
1070
     0
  0
VISUALSTYLE
  5
17
102
{ACAD_REACTORS
330
14
102
}
330
14
100
AcDbVisualStyle
  2
Gouraud
 70
     2
 71
     2
 72
     2
 73
     1
 90
        2
 40
-0.6
 41
30.0
 62
     5
 63
     7
 74
     0
 91
        4
 64
     7
 65
   257
 75
     1
175
     1
 42
1.0
 92
        0
 66
     7
 43
1.0
 76
     1
 77
     6
 78
     2
 67
     7
 79
     5
170
     0
171
     0
290
     0
174
     0
 93
       13
 44
0.0
173
     0
291
     1
 45
0.0
1001
ACAD
1000
AcDbSavedByObjectVersion
1070
     0
  0
VISUALSTYLE
  5
18
102
{ACAD_REACTORS
330
14
102
}
330
14
100
AcDbVisualStyle
  2
GouraudWithEdges
 70
     3
 71
     2
 72
     2
 73
     1
 90
        2
 40
-0.6
 41
30.0
 62
     5
 63
     7
 74
     1
 91
        4
 64
     7
 65
   257
 75
     1
175
     1
 42
1.0
 92
        0
 66
   257
 43
1.0
 76
     1
 77
     6
 78
     2
 67
     7
 79
     5
170
     0
171
     0
290
     0
174
     0
 93
       13
 44
0.0
173
     0
291
     1
 45
0.0
1001
ACAD
1000
AcDbSavedByObjectVersion
1070
     0
  0
VISUALSTYLE
  5
22
102
{ACAD_REACTORS
330
14
102
}
330
14
100
AcDbVisualStyle
  2
Linepattern
 70
    14
 71
     2
 72
     2
 73
     0
 90
        0
 40
-0.6
 41
-30.0
 62
     5
 63
     7
 74
     1
 91
        4
 64
     7
 65
   257
 75
     7
175
     7
 42
1.0
 92
        8
 66
     7
 43
1.0
 76
     1
 77
     6
 78
     2
 67
     7
 79
     5
170
     0
171
     0
290
     0
174
     0
 93
        1
 44
0.0
173
     0
291
     1
 45
0.0
1001
ACAD
1000
AcDbSavedByObjectVersion
1070
     0
  0
VISUALSTYLE
  5
1E
102
{ACAD_REACTORS
330
14
102
}
330
14
100
AcDbVisualStyle
  2
Realistic
 70
     8
 71
     2
 72
     2
 73
     0
 90
        0
 40
-0.6
 41
-30.0
 62
     5
 63
     7
 74
     1
 91
        0
 64
     7
 65
   257
 75
     1
175
     1
 42
1.0
 92
        8
 66
     8
 43
1.0
 76
     1
 77
     6
 78
     2
 67
     7
 79
     5
170
     0
171
     0
290
     0
174
     0
 93
       13
 44
0.0
173
     0
291
     0
 45
0.0
1001
ACAD
1000
AcDbSavedByObjectVersion
1070
     0
  0
VISUALSTYLE
  5
21
102
{ACAD_REACTORS
330
14
102
}
330
14
100
AcDbVisualStyle
  2
Thicken
 70
    13
 71
     2
 72
     2
 73
     0
 90
        0
 40
-0.6
 41
-30.0
 62
     5
 63
     7
 74
     1
 91
        4
 64
     7
 65
   257
 75
     1
175
     1
 42
1.0
 92
       12
 66
     7
 43
1.0
 76
     1
 77
     6
 78
     2
 67
     7
 79
     5
170
     0
171
     0
290
     0
174
     0
 93
        1
 44
0.0
173
     0
291
     1
 45
0.0
1001
ACAD
1000
AcDbSavedByObjectVersion
1070
     0
  0
DICTIONARYVAR
  5
6C6
102
{ACAD_REACTORS
330
6C5
102
}
330
6C5
100
DictionaryVariables
280
     0
  1
STANDARD
  0
DICTIONARYVAR
  5
744
102
{ACAD_REACTORS
330
6C5
102
}
330
6C5
100
DictionaryVariables
280
     0
  1
1
  0
DICTIONARYVAR
  5
743
102
{ACAD_REACTORS
330
6C5
102
}
330
6C5
100
DictionaryVariables
280
     0
  1
0
  0
DICTIONARYVAR
  5
745
102
{ACAD_REACTORS
330
6C5
102
}
330
6C5
100
DictionaryVariables
280
     0
  1
1.570796
  0
DICTIONARYVAR
  5
746
102
{ACAD_REACTORS
330
6C5
102
}
330
6C5
100
DictionaryVariables
280
     0
  1
1.570796
  0
DICTIONARYVAR
  5
742
102
{ACAD_REACTORS
330
6C5
102
}
330
6C5
100
DictionaryVariables
280
     0
  1
127
  0
DICTIONARY
  5
687
102
{ACAD_REACTORS
330
67C
102
}
330
67C
100
AcDbDictionary
281
     1
  0
XRECORD
  5
6A8
102
{ACAD_REACTORS
330
67C
102
}
330
67C
100
AcDbXrecord
280
     1
 90
-1023410169
  0
DICTIONARY
  5
752
330
39
100
AcDbDictionary
280
     1
281
     1
  3
ACAD_XREC_ROUNDTRIP
360
753
  0
DICTIONARY
  5
750
330
35
100
AcDbDictionary
280
     1
281
     1
  3
ACAD_XREC_ROUNDTRIP
360
751
  0
DICTIONARY
  5
74A
330
12
100
AcDbDictionary
280
     1
281
     1
  3
ACAD_XREC_ROUNDTRIP
360
74B
  0
DICTIONARY
  5
748
330
11
100
AcDbDictionary
280
     1
281
     1
  3
ACAD_XREC_ROUNDTRIP
360
749
  0
DICTIONARY
  5
74C
330
13
100
AcDbDictionary
280
     1
281
     1
  3
ACAD_XREC_ROUNDTRIP
360
74D
  0
DICTIONARY
  5
74E
330
31
100
AcDbDictionary
280
     1
281
     1
  3
ACAD_XREC_ROUNDTRIP
360
74F
  0
XRECORD
  5
753
102
{ACAD_REACTORS
330
752
102
}
330
752
100
AcDbXrecord
280
     1
102
SHADEPLOT
 70
     0
102
SHADEPLOTRESLEVEL
 70
     2
102
SHADEPLOTCUSTOMDPI
 70
   300
  0
XRECORD
  5
751
102
{ACAD_REACTORS
330
750
102
}
330
750
100
AcDbXrecord
280
     1
102
SHADEPLOT
 70
     0
102
SHADEPLOTRESLEVEL
 70
     2
102
SHADEPLOTCUSTOMDPI
 70
   300
  0
XRECORD
  5
74B
102
{ACAD_REACTORS
330
74A
102
}
330
74A
100
AcDbXrecord
280
     1
102
MATERIAL
148
0.0
149
0.0
149
0.0
 93
        0
 94
       63
282
     0
 72
     1
 77
     1
171
     1
175
     1
179
     1
273
     0
  0
XRECORD
  5
749
102
{ACAD_REACTORS
330
748
102
}
330
748
100
AcDbXrecord
280
     1
102
MATERIAL
148
0.0
149
0.0
149
0.0
 93
        0
 94
       63
282
     0
 72
     1
 77
     1
171
     1
175
     1
179
     1
273
     0
  0
XRECORD
  5
74D
102
{ACAD_REACTORS
330
74C
102
}
330
74C
100
AcDbXrecord
280
     1
102
MATERIAL
148
0.0
149
0.0
149
0.0
 93
        0
 94
       63
282
     0
 72
     1
 77
     1
171
     1
175
     1
179
     1
273
     0
  0
XRECORD
  5
74F
102
{ACAD_REACTORS
330
74E
102
}
330
74E
100
AcDbXrecord
280
     1
102
ACAD_ROUNDTRIP_PRE2007_TABLESTYLE
 90
      512
 91
        0
  1

 92
      512
 93
        0
  2

 94
      512
 95
        0
  3

  0
ENDSEC
  0
EOF
