  0
SECTION
  2
HEADER
  9
$ACADVER
  1
AC1015
  9
$ACADMAINTVER
 70
    20
  9
$DWGCODEPAGE
  3
ANSI_932
  9
$INSBASE
 10
0.0
 20
0.0
 30
0.0
  9
$EXTMIN
 10
2833.080797941659
 20
1883.483214048603
 30
-0.0015258207003583
  9
$EXTMAX
 10
3130.39895063871
 20
2093.688287528872
 30
0.0000000349246037
  9
$LIMMIN
 10
3779.599158088851
 20
100.7134268036752
  9
$LIMMAX
 10
9719.599158088852
 20
4300.713426803675
  9
$ORTHOMODE
 70
     0
  9
$REGENMODE
 70
     1
  9
$FILLMODE
 70
     1
  9
$QTEXTMODE
 70
     0
  9
$MIRRTEXT
 70
     0
  9
$LTSCALE
 40
1.0
  9
$ATTMODE
 70
     1
  9
$TEXTSIZE
 40
3.2
  9
$TRACEWID
 40
1.0
  9
$TEXTSTYLE
  7
STANDARD
  9
$CLAYER
  8
AM_0
  9
$CELTYPE
  6
ByLayer
  9
$CECOLOR
 62
   256
  9
$CELTSCALE
 40
1.0
  9
$DISPSILH
 70
     0
  9
$DIMSCALE
 40
1.0
  9
$DIMASZ
 40
1.0
  9
$DIMEXO
 40
1.0
  9
$DIMDLI
 40
10.0
  9
$DIMRND
 40
0.0
  9
$DIMDLE
 40
0.0
  9
$DIMEXE
 40
1.0
  9
$DIMTP
 40
0.1
  9
$DIMTM
 40
0.1
  9
$DIMTXT
 40
3.5
  9
$DIMCEN
 40
0.0
  9
$DIMTSZ
 40
0.0
  9
$DIMTOL
 70
     0
  9
$DIMLIM
 70
     0
  9
$DIMTIH
 70
     0
  9
$DIMTOH
 70
     0
  9
$DIMSE1
 70
     0
  9
$DIMSE2
 70
     0
  9
$DIMTAD
 70
     1
  9
$DIMZIN
 70
     8
  9
$DIMBLK
  1

  9
$DIMASO
 70
     1
  9
$DIMSHO
 70
     1
  9
$DIMPOST
  1

  9
$DIMAPOST
  1
"
  9
$DIMALT
 70
     0
  9
$DIMALTD
 70
     2
  9
$DIMALTF
 40
0.0393701
  9
$DIMLFAC
 40
1.0
  9
$DIMTOFL
 70
     1
  9
$DIMTVP
 40
0.0
  9
$DIMTIX
 70
     0
  9
$DIMSOXD
 70
     0
  9
$DIMSAH
 70
     0
  9
$DIMBLK1
  1

  9
$DIMBLK2
  1

  9
$DIMSTYLE
  2
SYS
  9
$DIMCLRD
 70
   256
  9
$DIMCLRE
 70
   256
  9
$DIMCLRT
 70
     7
  9
$DIMTFAC
 40
0.71
  9
$DIMGAP
 40
1.5
  9
$DIMJUST
 70
     0
  9
$DIMSD1
 70
     0
  9
$DIMSD2
 70
     0
  9
$DIMTOLJ
 70
     0
  9
$DIMTZIN
 70
     8
  9
$DIMALTZ
 70
     0
  9
$DIMALTTZ
 70
     0
  9
$DIMUPT
 70
     0
  9
$DIMDEC
 70
     2
  9
$DIMTDEC
 70
     2
  9
$DIMALTU
 70
     2
  9
$DIMALTTD
 70
     2
  9
$DIMTXSTY
  7
STANDARD
  9
$DIMAUNIT
 70
     0
  9
$DIMADEC
 70
     0
  9
$DIMALTRND
 40
0.0
  9
$DIMAZIN
 70
     2
  9
$DIMDSEP
 70
    46
  9
$DIMATFIT
 70
     3
  9
$DIMFRAC
 70
     0
  9
$DIMLDRBLK
  1

  9
$DIMLUNIT
 70
     2
  9
$DIMLWD
 70
    -1
  9
$DIMLWE
 70
    -1
  9
$DIMTMOVE
 70
     0
  9
$LUNITS
 70
     2
  9
$LUPREC
 70
     2
  9
$SKETCHINC
 40
1.0
  9
$FILLETRAD
 40
0.5
  9
$AUNITS
 70
     0
  9
$AUPREC
 70
     0
  9
$MENU
  1
.
  9
$ELEVATION
 40
0.0
  9
$PELEVATION
 40
0.0
  9
$THICKNESS
 40
0.0
  9
$LIMCHECK
 70
     0
  9
$CHAMFERA
 40
0.0
  9
$CHAMFERB
 40
0.0
  9
$CHAMFERC
 40
20.0
  9
$CHAMFERD
 40
0.0
  9
$SKPOLY
 70
     0
  9
$TDCREATE
 40
2455567.680725081
  9
$TDUCREATE
 40
2455567.305725081
  9
$TDUPDATE
 40
2456267.474845371
  9
$TDUUPDATE
 40
2456267.099845370
  9
$TDINDWG
 40
1.2218330440
  9
$TDUSRTIMER
 40
1.2218314120
  9
$USRTIMER
 70
     1
  9
$ANGBASE
 50
0.0
  9
$ANGDIR
 70
     0
  9
$PDMODE
 70
     0
  9
$PDSIZE
 40
-3.0
  9
$PLINEWID
 40
0.0
  9
$SPLFRAME
 70
     0
  9
$SPLINETYPE
 70
     6
  9
$SPLINESEGS
 70
     8
  9
$HANDSEED
  5
327BC
  9
$SURFTAB1
 70
     6
  9
$SURFTAB2
 70
     6
  9
$SURFTYPE
 70
     6
  9
$SURFU
 70
     6
  9
$SURFV
 70
     6
  9
$UCSBASE
  2

  9
$UCSNAME
  2

  9
$UCSORG
 10
0.0
 20
0.0
 30
0.0
  9
$UCSXDIR
 10
1.0
 20
0.0
 30
0.0
  9
$UCSYDIR
 10
0.0
 20
1.0
 30
0.0
  9
$UCSORTHOREF
  2

  9
$UCSORTHOVIEW
 70
     0
  9
$UCSORGTOP
 10
0.0
 20
0.0
 30
0.0
  9
$UCSORGBOTTOM
 10
0.0
 20
0.0
 30
0.0
  9
$UCSORGLEFT
 10
0.0
 20
0.0
 30
0.0
  9
$UCSORGRIGHT
 10
0.0
 20
0.0
 30
0.0
  9
$UCSORGFRONT
 10
0.0
 20
0.0
 30
0.0
  9
$UCSORGBACK
 10
0.0
 20
0.0
 30
0.0
  9
$PUCSBASE
  2

  9
$PUCSNAME
  2

  9
$PUCSORG
 10
0.0
 20
0.0
 30
0.0
  9
$PUCSXDIR
 10
1.0
 20
0.0
 30
0.0
  9
$PUCSYDIR
 10
0.0
 20
1.0
 30
0.0
  9
$PUCSORTHOREF
  2

  9
$PUCSORTHOVIEW
 70
     0
  9
$PUCSORGTOP
 10
0.0
 20
0.0
 30
0.0
  9
$PUCSORGBOTTOM
 10
0.0
 20
0.0
 30
0.0
  9
$PUCSORGLEFT
 10
0.0
 20
0.0
 30
0.0
  9
$PUCSORGRIGHT
 10
0.0
 20
0.0
 30
0.0
  9
$PUCSORGFRONT
 10
0.0
 20
0.0
 30
0.0
  9
$PUCSORGBACK
 10
0.0
 20
0.0
 30
0.0
  9
$USERI1
 70
     0
  9
$USERI2
 70
     0
  9
$USERI3
 70
     0
  9
$USERI4
 70
     0
  9
$USERI5
 70
     0
  9
$USERR1
 40
0.0
  9
$USERR2
 40
0.0
  9
$USERR3
 40
0.0
  9
$USERR4
 40
0.0
  9
$USERR5
 40
0.0
  9
$WORLDVIEW
 70
     1
  9
$SHADEDGE
 70
     3
  9
$SHADEDIF
 70
    70
  9
$TILEMODE
 70
     1
  9
$MAXACTVP
 70
    64
  9
$PINSBASE
 10
0.0
 20
0.0
 30
0.0
  9
$PLIMCHECK
 70
     0
  9
$PEXTMIN
 10
1.000000000000000E+20
 20
1.000000000000000E+20
 30
1.000000000000000E+20
  9
$PEXTMAX
 10
-1.000000000000000E+20
 20
-1.000000000000000E+20
 30
-1.000000000000000E+20
  9
$PLIMMIN
 10
-3.17498779296875
 20
-3.174999952316284
  9
$PLIMMAX
 10
293.4970092773438
 20
206.692492723465
  9
$UNITMODE
 70
     0
  9
$VISRETAIN
 70
     1
  9
$PLINEGEN
 70
     0
  9
$PSLTSCALE
 70
     1
  9
$TREEDEPTH
 70
  3020
  9
$CMLSTYLE
  2
Standard
  9
$CMLJUST
 70
     0
  9
$CMLSCALE
 40
20.0
  9
$PROXYGRAPHICS
 70
     1
  9
$MEASUREMENT
 70
     1
  9
$CELWEIGHT
370
    -1
  9
$ENDCAPS
280
     0
  9
$JOINSTYLE
280
     0
  9
$LWDISPLAY
290
     1
  9
$INSUNITS
 70
     4
  9
$HYPERLINKBASE
  1

  9
$STYLESHEET
  1
monochrome.ctb
  9
$XEDIT
290
     1
  9
$CEPSNTYPE
380
     0
  9
$PSTYLEMODE
290
     1
  9
$FINGERPRINTGUID
  2
{487E49EE-344A-43F6-800E-CE119D8346FF}
  9
$VERSIONGUID
  2
{D1A0374F-754F-4A2C-AFB0-EAA5DF2F6778}
  9
$EXTNAMES
290
     1
  9
$PSVPSCALE
 40
0.0
  9
$OLESTARTUP
290
     0
  0
ENDSEC
  0
SECTION
  2
CLASSES
  0
CLASS
  1
ACDBDICTIONARYWDFLT
  2
AcDbDictionaryWithDefault
  3
ObjectDBX Classes
 90
        0
280
     0
281
     0
  0
CLASS
  1
ACDBPLACEHOLDER
  2
AcDbPlaceHolder
  3
ObjectDBX Classes
 90
        0
280
     0
281
     0
  0
CLASS
  1
LAYOUT
  2
AcDbLayout
  3
ObjectDBX Classes
 90
        0
280
     0
281
     0
  0
CLASS
  1
AMGSETTINGSOBJ
  2
AmgSettingsObj
  3
"AcadM|Product Description: AutoCAD Mechanical|Company: Autodesk"
 90
        0
280
     0
281
     0
  0
CLASS
  1
ACME_DOCUMENT
  2
AcMeDbDoc
  3
AcMeServices
 90
        0
280
     0
281
     0
  0
CLASS
  1
ACMESCOPE
  2
AcMeScope
  3
AcMeServices
 90
        0
280
     0
281
     0
  0
CLASS
  1
ACMECOMMANDHISTORY
  2
AcMeCommandHistory
  3
AcMeServices
 90
        0
280
     0
281
     0
  0
CLASS
  1
DICTIONARYVAR
  2
AcDbDictionaryVar
  3
ObjectDBX Classes
 90
        0
280
     0
281
     0
  0
CLASS
  1
ACIMSYSVARMAN
  2
AcImSysVarManager
  3
AcMeServices
 90
        0
280
     0
281
     0
  0
CLASS
  1
ACIMREALSYSVAR
  2
AcImRealSysVar
  3
AcMeServices
 90
        0
280
     0
281
     0
  0
CLASS
  1
ACIMINTSYSVAR
  2
AcImIntSysVar
  3
AcMeServices
 90
        0
280
     0
281
     0
  0
CLASS
  1
ACMEDRAWINGMAN
  2
AcMeDrawingMan
  3
AcMeServices
 90
        0
280
     0
281
     0
  0
CLASS
  1
ACMEVIEW
  2
AcMeView
  3
AcMeServices
 90
        0
280
     0
281
     0
  0
CLASS
  1
ACDBENTITYCACHE
  2
AcMeEntityCache
  3
AcMeServices
 90
        0
280
     0
281
     0
  0
CLASS
  1
GSMANAGER
  2
AcMeGSManager
  3
AcMeServices
 90
        0
280
     0
281
     0
  0
CLASS
  1
AMDTINTERNALREACTOR
  2
AmdtInternalReactor
  3
AcMeServices
 90
        0
280
     0
281
     0
  0
CLASS
  1
ACMESTATEMGR
  2
AcMeStateMgr
  3
AcMeServices
 90
        0
280
     0
281
     0
  0
CLASS
  1
ACGREFMASTER
  2
AcGrefMaster
  3
AcAttribServices
 90
        0
280
     0
281
     0
  0
CLASS
  1
ACME_DATABASE
  2
AcMeDbDatabase
  3
AcMeServices
 90
        0
280
     0
281
     0
  0
CLASS
  1
ACRFINSADJUSTERMGR
  2
AcRfInsAdjusterMgr
  3
AcMeServices
 90
        0
280
     0
281
     0
  0
CLASS
  1
ACGREFACADMASTER
  2
AcGrefacadMaster
  3
AcGrefServices
 90
        0
280
     0
281
     0
  0
CLASS
  1
AMIMASTER
  2
AmiMaster
  3
AmiServices
 90
        0
280
     0
281
     0
  0
CLASS
  1
ACMDATADICTIONARY
  2
AcmDataDictionary
  3
"AcmSymBB|Product Description: AutoCAD Mechanical|Company: Autodesk"
 90
        0
280
     0
281
     0
  0
CLASS
  1
ACMDATAENTRYBLOCK
  2
AcmDataEntryBlock
  3
"AcmSymBB|Product Description: AutoCAD Mechanical|Company: Autodesk"
 90
        0
280
     0
281
     0
  0
CLASS
  1
ACIMSTRSYSVAR
  2
AcImStrSysVar
  3
AcMeServices
 90
        0
280
     0
281
     0
  0
CLASS
  1
ACMSTANDARDISO
  2
AcmStandardISO
  3
"Amdt_StdImp|Product Description: AutoCAD Mechanical|Company: Autodesk"
 90
        0
280
     0
281
     0
  0
CLASS
  1
AMGOBJPROPCFG
  2
AmgObjPropCfg
  3
"AmgLay|Product Description: AutoCAD Mechanical|Company: Autodesk"
 90
        1
280
     0
281
     0
  0
CLASS
  1
AMDTEDGESTANDARDISO
  2
AmdtEdgeStdISO
  3
"Amdt_StdImp|Product Description: AutoCAD Mechanical|Company: Autodesk"
 90
        0
280
     0
281
     0
  0
CLASS
  1
ACMSURFSTANDARDISO
  2
AcmSurfTextStdISO
  3
"Amdt_StdImp|Product Description: AutoCAD Mechanical|Company: Autodesk"
 90
        0
280
     0
281
     0
  0
CLASS
  1
ACMFCFSTANDARDISO
  2
AcmFCFStdISO
  3
"Amdt_StdImp|Product Description: AutoCAD Mechanical|Company: Autodesk"
 90
        0
280
     0
281
     0
  0
CLASS
  1
ACMWELDSTANDARDISO
  2
AcmWeldingStdISO
  3
"Amdt_StdImp|Product Description: AutoCAD Mechanical|Company: Autodesk"
 90
        0
280
     0
281
     0
  0
CLASS
  1
ACMIDSTANDARDISO
  2
AcmIdStdISO
  3
"Amdt_StdImp|Product Description: AutoCAD Mechanical|Company: Autodesk"
 90
        0
280
     0
281
     0
  0
CLASS
  1
ACMDATUMSTANDARDISO
  2
AcmDatumStdISO
  3
"Amdt_StdImp|Product Description: AutoCAD Mechanical|Company: Autodesk"
 90
        0
280
     0
281
     0
  0
CLASS
  1
ACMBOMSTANDARDISO
  2
AcmBOMStdISO
  3
"Amdt_StdImp|Product Description: AutoCAD Mechanical|Company: Autodesk"
 90
        0
280
     0
281
     0
  0
CLASS
  1
ACMDETAILSTANDARDISO
  2
AmdtDetailSymStdISO
  3
"Amdt_StdImp|Product Description: AutoCAD Mechanical|Company: Autodesk"
 90
        0
280
     0
281
     0
  0
CLASS
  1
ACMSECTIONSTANDARDISO
  2
AmdtSectionSymStdISO
  3
"Amdt_StdImp|Product Description: AutoCAD Mechanical|Company: Autodesk"
 90
        0
280
     0
281
     0
  0
CLASS
  1
ACMCENTERLINESTANDARDISO
  2
AmdtCenterLineStdISO
  3
"Amdt_StdImp|Product Description: AutoCAD Mechanical|Company: Autodesk"
 90
        0
280
     0
281
     0
  0
CLASS
  1
ACAMGLAYSTD
  2
AcAmgLayStd
  3
"AmgLay|Product Description: AutoCAD Mechanical|Company: Autodesk"
 90
        0
280
     0
281
     0
  0
CLASS
  1
ACAMGDIMSTD
  2
AcAmgDimStd
  3
"AmgDim|Product Description: AutoCAD Mechanical|Company: Autodesk"
 90
        0
280
     0
281
     0
  0
CLASS
  1
ACAMGTITLESTD
  2
AcAmgTitleStd
  3
"AmgTitle|Product Description: AutoCAD Mechanical|Company: Autodesk"
 90
        0
280
     0
281
     0
  0
CLASS
  1
ACAMGFILTERDAT
  2
AcAmgFilterDat
  3
"AcadM|Product Description: AutoCAD Mechanical|Company: Autodesk"
 90
        0
280
     0
281
     0
  0
CLASS
  1
LAYER_INDEX
  2
AcDbLayerIndex
  3
ObjectDBX Classes
 90
    32768
280
     0
281
     0
  0
CLASS
  1
IDBUFFER
  2
AcDbIdBuffer
  3
ObjectDBX Classes
 90
    32768
280
     0
281
     0
  0
CLASS
  1
PLOTSETTINGS
  2
AcDbPlotSettings
  3
ObjectDBX Classes
 90
    32768
280
     0
281
     0
  0
CLASS
  1
AMDTFORMULAUPDATEDISPATCHER
  2
AmdtFormulaUpdateDispatcher
  3
AcMeServices
 90
        0
280
     0
281
     0
  0
CLASS
  1
ACMSTANDARDANSI
  2
AcmStandardANSI
  3
"Amdt_StdImp|Product Description: AutoCAD Mechanical|Company: Autodesk"
 90
        0
280
     0
281
     0
  0
CLASS
  1
ACMSURFSTANDARDANSI
  2
AcmSurfTextStdANSI
  3
"Amdt_StdImp|Product Description: AutoCAD Mechanical|Company: Autodesk"
 90
        0
280
     0
281
     0
  0
CLASS
  1
ACMFCFSTANDARDANSI
  2
AcmFCFStdANSI
  3
"Amdt_StdImp|Product Description: AutoCAD Mechanical|Company: Autodesk"
 90
        0
280
     0
281
     0
  0
CLASS
  1
ACMWELDSTANDARDANSI
  2
AcmWeldingStdANSI
  3
"Amdt_StdImp|Product Description: AutoCAD Mechanical|Company: Autodesk"
 90
        0
280
     0
281
     0
  0
CLASS
  1
ACMIDSTANDARDANSI
  2
AcmIdStdANSI
  3
"Amdt_StdImp|Product Description: AutoCAD Mechanical|Company: Autodesk"
 90
        0
280
     0
281
     0
  0
CLASS
  1
ACMDATUMSTANDARDANSI
  2
AcmDatumStdANSI
  3
"Amdt_StdImp|Product Description: AutoCAD Mechanical|Company: Autodesk"
 90
        0
280
     0
281
     0
  0
CLASS
  1
ACMBOMSTANDARDANSI
  2
AcmBOMStdANSI
  3
"Amdt_StdImp|Product Description: AutoCAD Mechanical|Company: Autodesk"
 90
        0
280
     0
281
     0
  0
CLASS
  1
ACMDETAILSTANDARDANSI
  2
AmdtDetailSymStdANSI
  3
"Amdt_StdImp|Product Description: AutoCAD Mechanical|Company: Autodesk"
 90
        0
280
     0
281
     0
  0
CLASS
  1
ACMSECTIONSTANDARDANSI
  2
AmdtSectionSymStdANSI
  3
"Amdt_StdImp|Product Description: AutoCAD Mechanical|Company: Autodesk"
 90
        0
280
     0
281
     0
  0
CLASS
  1
ACMCENTERLINESTANDARDANSI
  2
AmdtCenterLineStdANSI
  3
"Amdt_StdImp|Product Description: AutoCAD Mechanical|Company: Autodesk"
 90
        0
280
     0
281
     0
  0
CLASS
  1
ACMBOM
  2
AcmBom
  3
"AcmSymBB|Product Description: AutoCAD Mechanical|Company: Autodesk"
 90
        0
280
     0
281
     0
  0
CLASS
  1
ACMDATAENTRYPART
  2
AcmDataEntryPart
  3
"AcmSymBB|Product Description: AutoCAD Mechanical|Company: Autodesk"
 90
    32768
280
     0
281
     0
  0
CLASS
  1
ACMPARTREF
  2
AcmPartRef
  3
"AcmSymBB|Product Description: AutoCAD Mechanical|Company: Autodesk"
 90
    35839
280
     0
281
     1
  0
CLASS
  1
ACDBCIRCARCRES
  2
AcDbCircArcRes
  3
AcGrefServices
 90
    32768
280
     0
281
     0
  0
CLASS
  1
ACMBOMROW
  2
AcmBomRow
  3
"AcmSymBB|Product Description: AutoCAD Mechanical|Company: Autodesk"
 90
    32768
280
     0
281
     0
  0
CLASS
  1
ACMBALLOON
  2
AcmBalloon
  3
"AcmSymBB|Product Description: AutoCAD Mechanical|Company: Autodesk"
 90
    35839
280
     0
281
     1
  0
CLASS
  1
AMDTNOTE
  2
AmdtNote
  3
"AcmSymBB|Product Description: AutoCAD Mechanical|Company: Autodesk"
 90
    35839
280
     0
281
     1
  0
CLASS
  1
STDPART2D
  2
AmgStdPart
  3
"g3vace|Class: AmgStdPart|Product Description: AutoCAD Mechanical|Company: Autodesk"
 90
    35839
280
     0
281
     1
  0
CLASS
  1
ACDBSTDPARTRES_LINE
  2
AcDbStdPartRes_Line
  3
"g3vace|Class: AcDbStdPartRes_Line|Product Description: AutoCAD Mechanical|Company: Autodesk"
 90
    32768
280
     0
281
     0
  0
CLASS
  1
ACMDATAENTRY
  2
AcmDataEntry
  3
"AcmSymBB|Product Description: AutoCAD Mechanical|Company: Autodesk"
 90
        0
280
     0
281
     0
  0
CLASS
  1
ACDBOPPOLYLINERES
  2
AcDbOpPolylineRes
  3
AcGrefServices
 90
    32768
280
     0
281
     0
  0
CLASS
  1
ACMPARTLIST
  2
AcmPartList
  3
"AcmSymBB|Product Description: AutoCAD Mechanical|Company: Autodesk"
 90
    35839
280
     0
281
     1
  0
CLASS
  1
ACDBLINERES
  2
AcDbLineRes
  3
AcGrefServices
 90
        0
280
     0
281
     0
  0
CLASS
  1
ACRFINSADJ
  2
AcRfInsAdjuster
  3
AcMeServices
 90
    32768
280
     0
281
     0
  0
CLASS
  1
AM_DRAWING_MGR
  2
AcDmDwgMgr
  3
AcMechDwgViewMgmt
 90
        0
280
     0
281
     0
  0
CLASS
  1
AM_DWG_DOCUMENT
  2
AcDmDwgDocument
  3
AcMechDwgViewMgmt
 90
        0
280
     0
281
     0
  0
CLASS
  1
AM_DWG_SHEET
  2
AcDmSheet
  3
AcMechDwgViewMgmt
 90
        0
280
     0
281
     0
  0
CLASS
  1
AM_VIEWDIMPARMAP
  2
AcDmViewDimParMap
  3
AcMechDwgViewMgmt
 90
        0
280
     0
281
     0
  0
CLASS
  1
AM_DWGMGR_NAME
  2
AcDmDwgMgrName
  3
AcMechDwgViewMgmt
 90
        0
280
     0
281
     0
  0
CLASS
  1
AMDTMENUSTATEMGR
  2
AmdtMenuStateMgr
  3
McadcomServices
 90
        0
280
     0
281
     0
  0
CLASS
  1
AMDTMCOMMENUSTATE
  2
AmdtMcomMenuState
  3
McadcomServices
 90
        0
280
     0
281
     0
  0
CLASS
  1
ASAPP
  2
AcAsAppObject
  3
AutoSurfServices
 90
        0
280
     0
281
     0
  0
CLASS
  1
IM_STATIC_MAN
  2
AcImStaticVarManager
  3
AcMeServices
 90
        0
280
     0
281
     0
  0
CLASS
  1
ACIMDBLSTATICVAR
  2
AcImDblStaticVar
  3
AcMeServices
 90
        0
280
     0
281
     0
  0
CLASS
  1
ACIMSTRSTATICVAR
  2
AcImStrStaticVar
  3
AcMeServices
 90
        0
280
     0
281
     0
  0
CLASS
  1
ACIMINTSTATICVAR
  2
AcImIntStaticVar
  3
AcMeServices
 90
        0
280
     0
281
     0
  0
CLASS
  1
ACASGREFMASTER
  2
AcAsGrefMaster
  3
AutoSurfResolverServices
 90
        0
280
     0
281
     0
  0
CLASS
  1
ACADGREFMODULE
  2
AcAdGrefModule
  3
AdGrefServices
 90
        0
280
     0
281
     0
  0
CLASS
  1
AMDTMAPISURFMOUDULE
  2
AmdtMApiSurfModule
  3
MApiSurfServices
 90
        0
280
     0
281
     0
  0
CLASS
  1
MAPIAMMOUDLE
  2
MApiAmModule
  3
MApiAmServices
 90
        0
280
     0
281
     0
  0
CLASS
  1
AMDTADMENUSTATE
  2
AmdtAdMenuState
  3
DesignerServices
 90
        0
280
     0
281
     0
  0
CLASS
  1
ADAPPL
  2
AcAdAppl
  3
DesignerServices
 90
        0
280
     0
281
     0
  0
CLASS
  1
DEPMGR
  2
AcAdDepMgr
  3
DesignerServices
 90
        0
280
     0
281
     0
  0
CLASS
  1
PARAMMGR
  2
AcAdParamMgr
  3
DesignerServices
 90
        0
280
     0
281
     0
  0
CLASS
  1
PARAMSCOPE
  2
AcAdParamScope
  3
DesignerServices
 90
        0
280
     0
281
     0
  0
CLASS
  1
NAMEDAPPL
  2
AcAdNamedAppl
  3
DesignerServices
 90
        0
280
     0
281
     0
  0
CLASS
  1
ADHNTMPLT
  2
AdHoleNoteTemplateMgr
  3
DesignerServices
 90
    32768
280
     0
281
     0
  0
CLASS
  1
AM_HNTEMPLATE_MGR_NAME
  2
AdHoleNoteTemplateMgrName
  3
DesignerServices
 90
    32768
280
     0
281
     0
  0
CLASS
  1
AMDTDMMENUSTATE
  2
AmdtDmMenuState
  3
AcMechDwgViewMgmt
 90
        0
280
     0
281
     0
  0
CLASS
  1
MAPIADMODULE
  2
MApiAdModule
  3
MApiAdServices
 90
        0
280
     0
281
     0
  0
CLASS
  1
AMDTAMMENUSTATE
  2
AmdtAmMenuState
  3
DesignerAssemblies
 90
        0
280
     0
281
     0
  0
CLASS
  1
ACAMPROJECT
  2
AcAmProject
  3
DesignerAssemblies
 90
        0
280
     0
281
     0
  0
CLASS
  1
ACAMGRCOMPDEF
  2
AcAmGrCompDef
  3
DesignerAssemblies
 90
        0
280
     0
281
     0
  0
CLASS
  1
ACCMCONTEXT
  2
AcCmContext
  3
DesignerAssemblies
 90
        0
280
     0
281
     0
  0
CLASS
  1
ACAMCOMPDEF
  2
AcAmCompDef
  3
DesignerAssemblies
 90
        0
280
     0
281
     0
  0
CLASS
  1
ACAMCOMPDEFMGR
  2
AcAmCompDefMgr
  3
DesignerAssemblies
 90
        0
280
     0
281
     0
  0
CLASS
  1
AMCONTEXTMGR
  2
AcAmContextMgr
  3
DesignerAssemblies
 90
        0
280
     0
281
     0
  0
CLASS
  1
ACAMCONTEXTMODELER
  2
AcAmContextModeler
  3
DesignerAssemblies
 90
        0
280
     0
281
     0
  0
CLASS
  1
CATALOGSTATE
  2
AcAmCatalogState
  3
DesignerAssemblies
 90
        0
280
     0
281
     0
  0
CLASS
  1
ACAMGRCOMPDEFSET
  2
AcAmGrCompDefSet
  3
DesignerAssemblies
 90
        0
280
     0
281
     0
  0
CLASS
  1
AMDTBROWSERDBTAB
  2
AmdtBrowserDbTab
  3
McadcomServices
 90
        0
280
     0
281
     0
  0
CLASS
  1
CBROWSERAPPOBJECT
  2
CBrowserAppObject
  3
McadcomServices
 90
        0
280
     0
281
     0
  0
CLASS
  1
DM_PLACEHOLDER
  2
AcDmSelsetPlaceholder
  3
AcMechDwgViewMgmt
 90
        0
280
     0
281
     0
  0
CLASS
  1
ACMPICKOBJ
  2
AcmPickEnt
  3
"AcmSymBB|Product Description: AutoCAD Mechanical|Company: Autodesk"
 90
    32768
280
     0
281
     1
  0
CLASS
  1
ACMNOTESTANDARDISO
  2
AmdtNoteStdISO
  3
"Amdt_StdImp|Product Description: AutoCAD Mechanical|Company: Autodesk"
 90
        0
280
     0
281
     0
  0
CLASS
  1
ACMNOTESTANDARDANSI
  2
AmdtNoteStdANSI
  3
"Amdt_StdImp|Product Description: AutoCAD Mechanical|Company: Autodesk"
 90
        0
280
     0
281
     0
  0
CLASS
  1
ACMTHREADLINESTANDARDISO
  2
AmdtThreadLineStdISO
  3
"Amdt_StdImp|Product Description: AutoCAD Mechanical|Company: Autodesk"
 90
        0
280
     0
281
     0
  0
CLASS
  1
ACMTHREADLINESTANDARDANSI
  2
AmdtThreadLineStdANSI
  3
"Amdt_StdImp|Product Description: AutoCAD Mechanical|Company: Autodesk"
 90
        0
280
     0
281
     0
  0
CLASS
  1
TABLESTYLE
  2
AcDbTableStyle
  3
ObjectDBX Classes
 90
     4095
280
     0
281
     0
  0
CLASS
  1
SORTENTSTABLE
  2
AcDbSortentsTable
  3
ObjectDBX Classes
 90
        0
280
     0
281
     0
  0
CLASS
  1
MATERIAL
  2
AcDbMaterial
  3
ObjectDBX Classes
 90
     1024
280
     0
281
     0
  0
CLASS
  1
VISUALSTYLE
  2
AcDbVisualStyle
  3
ObjectDBX Classes
 90
     4095
280
     0
281
     0
  0
CLASS
  1
ACRFATTGENMGR
  2
AcRfAttGeneralMgr
  3
AcAttribServices
 90
        0
280
     0
281
     0
  0
CLASS
  1
ACRFOBJATTMGR
  2
AcRfObjAttGroupMgr
  3
AcAttribServices
 90
        0
280
     0
281
     0
  0
CLASS
  1
ACRFMCADAPIATTHOLDER
  2
AcRfMCADAPIAttHolder
  3
AcAttribServices
 90
        0
280
     0
281
     0
  0
CLASS
  1
AMDTSYSATTR
  2
AmdtSystemAttribute
  3
AcAttribServices
 90
        0
280
     0
281
     0
  0
CLASS
  1
ACMTAPERSTANDARDISO
  2
AcmTaperStdISO
  3
"Amdt_StdImp|Product Description: AutoCAD Mechanical|Company: Autodesk"
 90
        0
280
     0
281
     0
  0
CLASS
  1
CAMSSTRUCTBTNSTATE
  2
StructBtnState
  3
L"DesignerAssemblies"
 90
        0
280
     0
281
     0
  0
CLASS
  1
DIMASSOC
  2
AcDbDimAssoc
  3
"AcDbDimAssoc|Product Desc:     AcDim ARX App For Dimension|Company:          Autodesk, Inc.|WEB Address:      www.autodesk.com"
 90
    32768
280
     0
281
     0
  0
CLASS
  1
EXACXREFPANELOBJECT
  2
ExAcXREFPanelObject
  3
EXAC_ESW
 90
    33793
280
     0
281
     0
  0
CLASS
  1
NPOCOLLECTION
  2
AcDbImpNonPersistentObjectsCollection
  3
ObjectDBX Classes
 90
    33921
280
     0
281
     0
  0
CLASS
  1
AMDTEDGESTANDARDISO13715
  2
AmdtEdgeStdISO13715
  3
"Amdt_StdImp|Product Description: AutoCAD Mechanical|Company: Autodesk"
 90
        0
280
     0
281
     0
  0
CLASS
  1
AMDTNOTETEMPLATEDB
  2
AmdtNoteTemplateDB
  3
AMDT_STDIMP_MODULE_NAME
 90
        0
280
     0
281
     0
  0
CLASS
  1
ACAMGHOLECHARTSTDISO
  2
AcAmgHoleChartStdISO
  3
ACMSYMBB_MODULE_NAME
 90
        0
280
     0
281
     0
  0
CLASS
  1
ACMTAPERSTANDARDANSI
  2
AcmTaperStdANSI
  3
"Amdt_StdImp|Product Description: AutoCAD Mechanical|Company: Autodesk"
 90
        0
280
     0
281
     0
  0
CLASS
  1
ACAMGHOLECHARTSTDANSI
  2
AcAmgHoleChartStdANSI
  3
ACMSYMBB_MODULE_NAME
 90
        0
280
     0
281
     0
  0
CLASS
  1
ACAMSTDPCOMPDEF
  2
AcAmStdpCompDef
  3
DesignerAssemblies
 90
    32768
280
     0
281
     0
  0
CLASS
  1
ACAMCOMP
  2
AcAmComp
  3
DesignerAssemblies
 90
    32768
280
     0
281
     0
  0
CLASS
  1
AC_AM_STDP_VIEW_DEF
  2
AcAmStdpViewDef
  3
DesignerAssemblies
 90
    32768
280
     0
281
     0
  0
CLASS
  1
AC_AM_MVD_DEP_MGR
  2
AcAmMVDdepMgr
  3
DesignerAssemblies
 90
        0
280
     0
281
     0
  0
CLASS
  1
AC_AM_MASTER_VIEW_DEF
  2
AcAmMasterViewDef
  3
DesignerAssemblies
 90
        0
280
     0
281
     0
  0
CLASS
  1
AC_AM_DIRTY_NODES
  2
AcAmDirtyNodes
  3
DesignerAssemblies
 90
        0
280
     0
281
     0
  0
CLASS
  1
AC_AM_MAPPER_CACHE
  2
AcAmMapperCache
  3
DesignerAssemblies
 90
        0
280
     0
281
     0
  0
CLASS
  1
ACAMMVDBACKUPOBJECT
  2
AcAmMVDBackupObject
  3
DesignerAssemblies
 90
        0
280
     0
281
     0
  0
CLASS
  1
AC_AM_COMP_VIEW_INST
  2
AcAmCompView
  3
DesignerAssemblies
 90
    32768
280
     0
281
     0
  0
CLASS
  1
AC_AM_2D_XREF_MGR
  2
AcAmXrefMgr2d
  3
DesignerAssemblies
 90
        0
280
     0
281
     0
  0
CLASS
  1
AC_AM_HIDE_SITUATION
  2
AcAmHideSituation
  3
DesignerAssemblies
 90
    32768
280
     0
281
     0
  0
CLASS
  1
AC_AM_TRANSFORM_GHOST
  2
AcDbTransformGhost
  3
DesignerAssemblies
 90
    32768
280
     0
281
     1
  0
CLASS
  1
L"OBJCLONER"
  2
ObjCloner
  3
DesignerAssemblies
 90
    32768
280
     0
281
     1
  0
ENDSEC
  0
SECTION
  2
TABLES
  0
TABLE
  2
VPORT
  5
8
330
0
100
AcDbSymbolTable
 70
     1
  0
VPORT
  5
B0EC
330
8
100
AcDbSymbolTableRecord
100
AcDbViewportTableRecord
  2
*Active
 70
     0
 10
0.0
 20
0.0
 11
1.0
 21
1.0
 12
2981.739874290184
 22
1988.585750788737
 13
0.0
 23
0.0
 14
2.5
 24
2.5
 15
10.0
 25
10.0
 16
0.0
 26
0.0
 36
1.0
 17
0.0
 27
0.0
 37
0.0
 40
211.9336631313748
 41
1.648648648648648
 42
50.0
 43
-1370.695619172058
 44
-1370.695619172058
 50
0.0
 51
0.0
 71
     0
 72
   100
 73
     1
 74
     3
 75
     0
 76
     0
 77
     0
 78
     0
281
     0
 65
     0
110
0.0
120
0.0
130
0.0
111
1.0
121
0.0
131
0.0
112
0.0
122
1.0
132
0.0
 79
     0
146
0.0
  0
ENDTAB
  0
TABLE
  2
LTYPE
  5
5
330
0
100
AcDbSymbolTable
 70
    23
  0
LTYPE
  5
14
330
5
100
AcDbSymbolTableRecord
100
AcDbLinetypeTableRecord
  2
ByBlock
 70
     0
  3

 72
    65
 73
     0
 40
0.0
  0
LTYPE
  5
15
330
5
100
AcDbSymbolTableRecord
100
AcDbLinetypeTableRecord
  2
ByLayer
 70
     0
  3

 72
    65
 73
     0
 40
0.0
  0
LTYPE
  5
16
330
5
100
AcDbSymbolTableRecord
100
AcDbLinetypeTableRecord
  2
Continuous
 70
     0
  3
Solid line
 72
    65
 73
     0
 40
0.0
  0
LTYPE
  5
4F
330
5
100
AcDbSymbolTableRecord
100
AcDbLinetypeTableRecord
  2
AM_ISO02W050
 70
     0
  3
__ __ __ __ __ __ __ __ __ __ __ __ __ __ __
 72
    65
 73
     2
 40
7.5
 49
6.0
 74
     0
 49
-1.5
 74
     0
  0
LTYPE
  5
52
330
5
100
AcDbSymbolTableRecord
100
AcDbLinetypeTableRecord
  2
Amconstr
 70
     0
  3
_______________________
 72
    65
 73
     2
 40
9999.0
 49
9999.0
 74
     0
 49
0.0
 74
     0
  0
LTYPE
  5
64
330
5
100
AcDbSymbolTableRecord
100
AcDbLinetypeTableRecord
  2
ACISOWELD
 70
     0
  3
_ _ _ _ _
 72
    65
 73
     2
 40
2.0
 49
2.0
 74
     0
 49
-1.0
 74
     0
  0
LTYPE
  5
65
330
5
100
AcDbSymbolTableRecord
100
AcDbLinetypeTableRecord
  2
ACISOTGB
 70
     0
  3
__ . . __ . .
 72
    65
 73
     6
 40
9.0
 49
4.0
 74
     0
 49
-1.0
 74
     0
 49
1.0
 74
     0
 49
-1.0
 74
     0
 49
1.0
 74
     0
 49
-1.0
 74
     0
  0
LTYPE
  5
66
330
5
100
AcDbSymbolTableRecord
100
AcDbLinetypeTableRecord
  2
ACISOTGL
 70
     0
  3
_ _ _ _ _
 72
    65
 73
     2
 40
3.0
 49
2.0
 74
     0
 49
-1.0
 74
     0
  0
LTYPE
  5
69
330
5
100
AcDbSymbolTableRecord
100
AcDbLinetypeTableRecord
  2
CENTER
 70
     0
  3
__ . __
 72
    65
 73
     4
 40
7.0
 49
4.0
 74
     0
 49
-1.0
 74
     0
 49
1.0
 74
     0
 49
-1.0
 74
     0
  0
LTYPE
  5
A6E
330
5
100
AcDbSymbolTableRecord
100
AcDbLinetypeTableRecord
  2
PHANTOM2
 70
     0
  3
Phantom (.5x) ___ _ _ ___ _ _ ___ _ _ ___ _ _
 72
    65
 73
     6
 40
31.75
 49
15.875
 74
     0
 49
-3.174999999999999
 74
     0
 49
3.174999999999999
 74
     0
 49
-3.174999999999999
 74
     0
 49
3.174999999999999
 74
     0
 49
-3.174999999999999
 74
     0
  0
LTYPE
  5
4DED
330
5
100
AcDbSymbolTableRecord
100
AcDbLinetypeTableRecord
  2
中線
 70
     0
  3
___________________
 72
    65
 73
     2
 40
2.0
 49
1.0
 74
     0
 49
1.0
 74
     0
  0
LTYPE
  5
4DF6
330
5
100
AcDbSymbolTableRecord
100
AcDbLinetypeTableRecord
  2
細線
 70
     0
  3
___________________
 72
    65
 73
     2
 40
2.0
 49
1.0
 74
     0
 49
1.0
 74
     0
  0
LTYPE
  5
4DF7
330
5
100
AcDbSymbolTableRecord
100
AcDbLinetypeTableRecord
  2
太線
 70
     0
  3
___________________
 72
    65
 73
     2
 40
2.0
 49
1.0
 74
     0
 49
1.0
 74
     0
  0
LTYPE
  5
4EA7
330
5
100
AcDbSymbolTableRecord
100
AcDbLinetypeTableRecord
  2
文字
 70
     0
  3
_________________
 72
    65
 73
     2
 40
2.0
 49
1.0
 74
     0
 49
1.0
 74
     0
  0
LTYPE
  5
4EA9
330
5
100
AcDbSymbolTableRecord
100
AcDbLinetypeTableRecord
  2
寸法線
 70
     0
  3
________________
 72
    65
 73
     2
 40
2.0
 49
1.0
 74
     0
 49
1.0
 74
     0
  0
LTYPE
  5
4F12
330
5
100
AcDbSymbolTableRecord
100
AcDbLinetypeTableRecord
  2
ハッチング
 70
     0
  3
_________________
 72
    65
 73
     2
 40
2.0
 49
1.0
 74
     0
 49
1.0
 74
     0
  0
LTYPE
  5
5180
330
5
100
AcDbSymbolTableRecord
100
AcDbLinetypeTableRecord
  2
陰線1
 70
     0
  3
__ __ __ __
 72
    65
 73
     2
 40
4.0
 49
2.2
 74
     0
 49
-1.8
 74
     0
  0
LTYPE
  5
5182
330
5
100
AcDbSymbolTableRecord
100
AcDbLinetypeTableRecord
  2
切断線
 70
     0
  3
/\/-/\/-/\/-/\/-/\/-/\/
 72
    65
 73
     2
 40
11.0001
 49
0.0001
 74
     4
 75
   135
340
56
 46
0.04
 50
0.0
 44
0.0
 45
0.0
 49
-11.0
 74
     0
  0
LTYPE
  5
5183
330
5
100
AcDbSymbolTableRecord
100
AcDbLinetypeTableRecord
  2
想像線1
 70
     0
  3
__ __ __ _____ __ __ ____
 72
    65
 73
     6
 40
14.5
 49
6.0
 74
     0
 49
-1.5
 74
     0
 49
2.0
 74
     0
 49
-1.5
 74
     0
 49
2.0
 74
     0
 49
-1.5
 74
     0
  0
LTYPE
  5
5185
330
5
100
AcDbSymbolTableRecord
100
AcDbLinetypeTableRecord
  2
中心線1
 70
     0
  3
___ _ ___ _ ___
 72
    65
 73
     4
 40
18.0
 49
12.0
 74
     0
 49
-2.0
 74
     0
 49
2.0
 74
     0
 49
-2.0
 74
     0
  0
LTYPE
  5
5188
330
5
100
AcDbSymbolTableRecord
100
AcDbLinetypeTableRecord
  2
補助線
 70
     0
  3
______________
 72
    65
 73
     2
 40
2.0
 49
1.0
 74
     0
 49
1.0
 74
     0
  0
LTYPE
  5
6427
330
5
100
AcDbSymbolTableRecord
100
AcDbLinetypeTableRecord
  2
HIDDEN
 70
     0
  3
Hidden __ __ __ __ __ __ __ __ __ __ __ __ __ _
 72
    65
 73
     2
 40
0.375
 49
0.25
 74
     0
 49
-0.125
 74
     0
  0
LTYPE
  5
AF95
330
5
100
AcDbSymbolTableRecord
100
AcDbLinetypeTableRecord
  2
AM_ISO08W050
 70
     0
  3
____ . ____ . ____ . ____ . ____ . ____ . ____
 72
    65
 73
     4
 40
18.0
 49
12.0
 74
     0
 49
-1.5
 74
     0
 49
3.0
 74
     0
 49
-1.5
 74
     0
  0
LTYPE
  5
FD15
330
5
100
AcDbSymbolTableRecord
100
AcDbLinetypeTableRecord
  2
ACANSTGB
 70
     0
  3
__ . . __ . .
 72
    65
 73
     6
 40
0.35433070866
 49
0.15748031496
 74
     0
 49
-0.03937007874
 74
     0
 49
0.03937007874
 74
     0
 49
-0.03937007874
 74
     0
 49
0.03937007874
 74
     0
 49
-0.03937007874
 74
     0
  0
LTYPE
  5
FD16
330
5
100
AcDbSymbolTableRecord
100
AcDbLinetypeTableRecord
  2
ACANSTGL
 70
     0
  3
_ _ _ _ _
 72
    65
 73
     2
 40
0.11811023622
 49
0.07874015748
 74
     0
 49
-0.03937007874
 74
     0
  0
ENDTAB
  0
TABLE
  2
LAYER
  5
2
102
{ACAD_XDICTIONARY
360
3F95
102
}
330
0
100
AcDbSymbolTable
 70
    13
  0
LAYER
  5
10
330
2
100
AcDbSymbolTableRecord
100
AcDbLayerTableRecord
  2
0
 70
     0
 62
     7
  6
Continuous
370
    -3
390
F
  0
LAYER
  5
6D1
330
2
100
AcDbSymbolTableRecord
100
AcDbLayerTableRecord
  2
Defpoints
 70
     0
 62
     7
  6
Continuous
290
     0
370
    -3
390
F
  0
LAYER
  5
5F85
330
2
100
AcDbSymbolTableRecord
100
AcDbLayerTableRecord
  2
AM_0
 70
     0
 62
     7
  6
中線
370
    25
390
F
1001
AcAecLayerStandard
1000

1000

  0
LAYER
  5
AC9F
330
2
100
AcDbSymbolTableRecord
100
AcDbLayerTableRecord
  2
size
 70
     0
 62
     5
  6
Continuous
290
     0
370
    25
390
F
  0
LAYER
  5
ACA0
330
2
100
AcDbSymbolTableRecord
100
AcDbLayerTableRecord
  2
waku
 70
     0
 62
     7
  6
Continuous
370
    35
390
F
  0
LAYER
  5
ACA1
330
2
100
AcDbSymbolTableRecord
100
AcDbLayerTableRecord
  2
AM_6
 70
     0
 62
     2
  6
文字
370
    15
390
F
1001
AcAecLayerStandard
1000

1000

  0
LAYER
  5
AD64
330
2
100
AcDbSymbolTableRecord
100
AcDbLayerTableRecord
  2
AM_2
 70
     0
 62
     1
  6
細線
370
    15
390
F
1001
AcAecLayerStandard
1000

1000

  0
LAYER
  5
AD68
330
2
100
AcDbSymbolTableRecord
100
AcDbLayerTableRecord
  2
AM_5
 70
     0
 62
     3
  6
寸法線
370
    15
390
F
1001
AcAecLayerStandard
1000

1000

  0
LAYER
  5
B5FC
330
2
100
AcDbSymbolTableRecord
100
AcDbLayerTableRecord
  2
0部品1
 70
     0
 62
   213
  6
細線
370
    30
390
F
1001
AcAecLayerStandard
1000

1000

  0
LAYER
  5
B5FD
330
2
100
AcDbSymbolTableRecord
100
AcDbLayerTableRecord
  2
0部品2
 70
     0
 62
   163
  6
細線
370
    30
390
F
1001
AcAecLayerStandard
1000

1000

  0
LAYER
  5
B603
330
2
100
AcDbSymbolTableRecord
100
AcDbLayerTableRecord
  2
0部品15
 70
     0
 62
    61
  6
細線
370
    30
390
F
1001
AcAecLayerStandard
1000

1000

  0
LAYER
  5
22DAB
330
2
100
AcDbSymbolTableRecord
100
AcDbLayerTableRecord
  2
AM_4
 70
     0
 62
     3
  6
補助線
370
    15
390
F
  0
LAYER
  5
2E415
102
{ACAD_XDICTIONARY
360
2E416
102
}
330
2
100
AcDbSymbolTableRecord
100
AcDbLayerTableRecord
  2
AM_1
 70
     0
 62
    30
  6
太線
370
    25
390
F
1001
AcAecLayerStandard
1000

1000

  0
ENDTAB
  0
TABLE
  2
STYLE
  5
3
330
0
100
AcDbSymbolTable
 70
     7
  0
STYLE
  5
11
330
3
100
AcDbSymbolTableRecord
100
AcDbTextStyleTableRecord
  2
STANDARD
 70
     0
 40
0.0
 41
0.7
 50
0.0
 71
     0
 42
3.2
  3
romans.shx
  4
extfont.shx
  0
STYLE
  5
56
330
3
100
AcDbSymbolTableRecord
100
AcDbTextStyleTableRecord
  2

 70
     1
 40
0.0
 41
1.0
 50
0.0
 71
     0
 42
2.5
  3
ltypeshp.shx
  4

  0
STYLE
  5
58
330
3
100
AcDbSymbolTableRecord
100
AcDbTextStyleTableRecord
  2
ACISOTS
 70
     0
 40
1.0
 41
1.0
 50
0.0
 71
     0
 42
2.5
  3
isocp.shx
  4
extfont.shx
  0
STYLE
  5
63
330
3
100
AcDbSymbolTableRecord
100
AcDbTextStyleTableRecord
  2
ACISOGDT
 70
     0
 40
0.0
 41
1.0
 50
0.0
 71
     0
 42
2.5
  3
amgdt.shx
  4

  0
STYLE
  5
A74
330
3
100
AcDbSymbolTableRecord
100
AcDbTextStyleTableRecord
  2
DIM
 70
     0
 40
0.0
 41
1.0
 50
0.0
 71
     0
 42
2.5
  3
monotxt.shx
  4
extfont.shx
  0
STYLE
  5
FD18
330
3
100
AcDbSymbolTableRecord
100
AcDbTextStyleTableRecord
  2
ACANSTS
 70
     0
 40
1.0
 41
1.0
 50
0.0
 71
     0
 42
0.2
  3
romans.shx
  4
extfont.shx
  0
STYLE
  5
FD19
330
3
100
AcDbSymbolTableRecord
100
AcDbTextStyleTableRecord
  2
ACANSGDT
 70
     0
 40
0.0
 41
1.0
 50
0.0
 71
     0
 42
0.2
  3
amgdt.shx
  4

  0
ENDTAB
  0
TABLE
  2
VIEW
  5
6
330
0
100
AcDbSymbolTable
 70
     6
  0
VIEW
  5
AE1
330
6
100
AcDbSymbolTableRecord
100
AcDbViewTableRecord
  2
AM_VIEW1
 70
     0
 40
2203.896457765668
 10
5264.599158088851
 20
3198.765197920841
 41
2970.0
 11
0.0
 21
0.0
 31
1.0
 12
0.0
 22
0.0
 32
0.0
 42
50.0
 43
-1370.695619172058
 44
-1370.695619172058
 50
0.0
 71
     0
281
     0
 72
     0
  0
VIEW
  5
AE2
330
6
100
AcDbSymbolTableRecord
100
AcDbViewTableRecord
  2
AM_VIEW2
 70
     0
 40
2203.896457765668
 10
8234.599158088851
 20
3198.765197920841
 41
2970.0
 11
0.0
 21
0.0
 31
1.0
 12
0.0
 22
0.0
 32
0.0
 42
50.0
 43
-1370.695619172058
 44
-1370.695619172058
 50
0.0
 71
     0
281
     0
 72
     0
  0
VIEW
  5
AE3
330
6
100
AcDbSymbolTableRecord
100
AcDbViewTableRecord
  2
AM_VIEW3
 70
     0
 40
2203.896457765668
 10
5264.599158088851
 20
1202.661655686509
 41
2970.0
 11
0.0
 21
0.0
 31
1.0
 12
0.0
 22
0.0
 32
0.0
 42
50.0
 43
-1370.695619172058
 44
-1370.695619172058
 50
0.0
 71
     0
281
     0
 72
     0
  0
VIEW
  5
AE4
330
6
100
AcDbSymbolTableRecord
100
AcDbViewTableRecord
  2
AM_VIEW4
 70
     0
 40
2203.896457765668
 10
8234.599158088851
 20
1202.661655686509
 41
2970.0
 11
0.0
 21
0.0
 31
1.0
 12
0.0
 22
0.0
 32
0.0
 42
50.0
 43
-1370.695619172058
 44
-1370.695619172058
 50
0.0
 71
     0
281
     0
 72
     0
  0
VIEW
  5
AE5
330
6
100
AcDbSymbolTableRecord
100
AcDbViewTableRecord
  2
AM_VIEW5
 70
     0
 40
2203.896457765668
 10
6749.599158088852
 20
2200.713426803675
 41
2970.0
 11
0.0
 21
0.0
 31
1.0
 12
0.0
 22
0.0
 32
0.0
 42
50.0
 43
-1370.695619172058
 44
-1370.695619172058
 50
0.0
 71
     0
281
     0
 72
     0
  0
VIEW
  5
AE6
330
6
100
AcDbSymbolTableRecord
100
AcDbViewTableRecord
  2
AM_VIEW6
 70
     0
 40
4407.748837602181
 10
6749.599158088852
 20
2200.713426803675
 41
5939.9406
 11
0.0
 21
0.0
 31
1.0
 12
0.0
 22
0.0
 32
0.0
 42
50.0
 43
-1370.695619172058
 44
-1370.695619172058
 50
0.0
 71
     0
281
     0
 72
     0
  0
ENDTAB
  0
TABLE
  2
UCS
  5
7
330
0
100
AcDbSymbolTable
 70
     0
  0
ENDTAB
  0
TABLE
  2
APPID
  5
9
330
0
100
AcDbSymbolTable
 70
    67
  0
APPID
  5
12
330
9
100
AcDbSymbolTableRecord
100
AcDbRegAppTableRecord
  2
ACAD
 70
     0
  0
APPID
  5
30
330
9
100
AcDbSymbolTableRecord
100
AcDbRegAppTableRecord
  2
MCAD_NO_VIS
 70
     0
  0
APPID
  5
31
330
9
100
AcDbSymbolTableRecord
100
AcDbRegAppTableRecord
  2
ACAD_TEMP_GRAPHIC
 70
     0
  0
APPID
  5
44
330
9
100
AcDbSymbolTableRecord
100
AcDbRegAppTableRecord
  2
ACATTRIBSERVICES
 70
     0
  0
APPID
  5
7A1
330
9
100
AcDbSymbolTableRecord
100
AcDbRegAppTableRecord
  2
GENIUS_GENDIMSH_14
 70
     0
  0
APPID
  5
A49
330
9
100
AcDbSymbolTableRecord
100
AcDbRegAppTableRecord
  2
GENIUS_GENREC_14
 70
     0
  0
APPID
  5
A4A
330
9
100
AcDbSymbolTableRecord
100
AcDbRegAppTableRecord
  2
GENIUS_GENOBJ-N-REC_13
 70
     0
  0
APPID
  5
A4B
330
9
100
AcDbSymbolTableRecord
100
AcDbRegAppTableRecord
  2
GENIUS_GENODEF_13
 70
     0
  0
APPID
  5
A4C
330
9
100
AcDbSymbolTableRecord
100
AcDbRegAppTableRecord
  2
DCO15
 70
     0
  0
APPID
  5
ADC
330
9
100
AcDbSymbolTableRecord
100
AcDbRegAppTableRecord
  2
GENIUS_GENOLIS_13
 70
     0
  0
APPID
  5
ADD
330
9
100
AcDbSymbolTableRecord
100
AcDbRegAppTableRecord
  2
GENIUS_GENOENT_13
 70
     0
  0
APPID
  5
ADE
330
9
100
AcDbSymbolTableRecord
100
AcDbRegAppTableRecord
  2
GENIUS_GENOBJ-N-TIT_13
 70
     0
  0
APPID
  5
ADF
330
9
100
AcDbSymbolTableRecord
100
AcDbRegAppTableRecord
  2
GENIUS_GENTITLE_13
 70
     0
  0
APPID
  5
AE0
330
9
100
AcDbSymbolTableRecord
100
AcDbRegAppTableRecord
  2
GENIUS_GENOREF_13
 70
     0
  0
APPID
  5
AE7
330
9
100
AcDbSymbolTableRecord
100
AcDbRegAppTableRecord
  2
GENIUS_GENSCREG_15
 70
     0
  0
APPID
  5
AE8
330
9
100
AcDbSymbolTableRecord
100
AcDbRegAppTableRecord
  2
GENIUS_GENOBJ-N-SDF_13
 70
     0
  0
APPID
  5
FAF
330
9
100
AcDbSymbolTableRecord
100
AcDbRegAppTableRecord
  2
GENIUS_GENBLLY_14
 70
     0
  0
APPID
  5
FB0
330
9
100
AcDbSymbolTableRecord
100
AcDbRegAppTableRecord
  2
GENIUS_GENTRA_14
 70
     0
  0
APPID
  5
1285
330
9
100
AcDbSymbolTableRecord
100
AcDbRegAppTableRecord
  2
GENIUS_GENDTOL_13
 70
     0
  0
APPID
  5
142D
330
9
100
AcDbSymbolTableRecord
100
AcDbRegAppTableRecord
  2
GENIUS_GENOBJ-N-CEN_13
 70
     0
  0
APPID
  5
1AB5
330
9
100
AcDbSymbolTableRecord
100
AcDbRegAppTableRecord
  2
GENIUS_GENOBJ-N-CRS_13
 70
     0
  0
APPID
  5
1B36
330
9
100
AcDbSymbolTableRecord
100
AcDbRegAppTableRecord
  2
GENIUS_GENOBJ-N-HTC_13
 70
     0
  0
APPID
  5
1B37
330
9
100
AcDbSymbolTableRecord
100
AcDbRegAppTableRecord
  2
GENIUS_GENHATCH_13
 70
     0
  0
APPID
  5
216D
330
9
100
AcDbSymbolTableRecord
100
AcDbRegAppTableRecord
  2
GENIUS_GENOBJ-N-FIL_13
 70
     0
  0
APPID
  5
2356
330
9
100
AcDbSymbolTableRecord
100
AcDbRegAppTableRecord
  2
GEVID990412420
 70
     0
  0
APPID
  5
2357
330
9
100
AcDbSymbolTableRecord
100
AcDbRegAppTableRecord
  2
GEVDC
 70
     0
  0
APPID
  5
2358
330
9
100
AcDbSymbolTableRecord
100
AcDbRegAppTableRecord
  2
GEVCON
 70
     0
  0
APPID
  5
235B
330
9
100
AcDbSymbolTableRecord
100
AcDbRegAppTableRecord
  2
GEVRADREF
 70
     0
  0
APPID
  5
2360
330
9
100
AcDbSymbolTableRecord
100
AcDbRegAppTableRecord
  2
GENIUS_GENBH_13
 70
     0
  0
APPID
  5
2362
330
9
100
AcDbSymbolTableRecord
100
AcDbRegAppTableRecord
  2
GENIUS_GENOBJ-NBEHI-BHF_13
 70
     0
  0
APPID
  5
2364
330
9
100
AcDbSymbolTableRecord
100
AcDbRegAppTableRecord
  2
GENIUS_GENOBJ-NBEHI-BHB_13
 70
     0
  0
APPID
  5
2379
330
9
100
AcDbSymbolTableRecord
100
AcDbRegAppTableRecord
  2
GENIUS_GENOBJ-F-SCPASSM_13
 70
     0
  0
APPID
  5
3D74
330
9
100
AcDbSymbolTableRecord
100
AcDbRegAppTableRecord
  2
GENIUS_GENDIM_13
 70
     0
  0
APPID
  5
3D76
330
9
100
AcDbSymbolTableRecord
100
AcDbRegAppTableRecord
  2
GENIUS_GE3DTOL_13
 70
     0
  0
APPID
  5
3D9C
330
9
100
AcDbSymbolTableRecord
100
AcDbRegAppTableRecord
  2
AD_DRAW
 70
     0
  0
APPID
  5
3DE8
330
9
100
AcDbSymbolTableRecord
100
AcDbRegAppTableRecord
  2
ASURF_PCURVE_APPNAME
 70
     0
  0
APPID
  5
3DED
330
9
100
AcDbSymbolTableRecord
100
AcDbRegAppTableRecord
  2
AMG_3D2D_5.0
 70
     0
  0
APPID
  5
3E1B
330
9
100
AcDbSymbolTableRecord
100
AcDbRegAppTableRecord
  2
DESIGNERASSEMBLIES
 70
     0
  0
APPID
  5
3E20
330
9
100
AcDbSymbolTableRecord
100
AcDbRegAppTableRecord
  2
ACADM_DIM_EDIT
 70
     0
  0
APPID
  5
3E21
330
9
100
AcDbSymbolTableRecord
100
AcDbRegAppTableRecord
  2
AMDT_DM_ADJ
 70
     0
  0
APPID
  5
4143
330
9
100
AcDbSymbolTableRecord
100
AcDbRegAppTableRecord
  2
GENIUS_GENFIL_13
 70
     0
  0
APPID
  5
4144
330
9
100
AcDbSymbolTableRecord
100
AcDbRegAppTableRecord
  2
GENIUS_GENOBJ-N-CHA_13
 70
     0
  0
APPID
  5
4E17
330
9
100
AcDbSymbolTableRecord
100
AcDbRegAppTableRecord
  2
GEVID1008153417
 70
     0
  0
APPID
  5
4E58
330
9
100
AcDbSymbolTableRecord
100
AcDbRegAppTableRecord
  2
GEVID1008153418
 70
     0
  0
APPID
  5
4E5E
330
9
100
AcDbSymbolTableRecord
100
AcDbRegAppTableRecord
  2
GEVID1008153419
 70
     0
  0
APPID
  5
4E64
330
9
100
AcDbSymbolTableRecord
100
AcDbRegAppTableRecord
  2
GEVID1008153420
 70
     0
  0
APPID
  5
4E75
330
9
100
AcDbSymbolTableRecord
100
AcDbRegAppTableRecord
  2
GEVID1008153421
 70
     0
  0
APPID
  5
4EB7
330
9
100
AcDbSymbolTableRecord
100
AcDbRegAppTableRecord
  2
GENIUS_AMGTXT_16
 70
     0
  0
APPID
  5
7645
330
9
100
AcDbSymbolTableRecord
100
AcDbRegAppTableRecord
  2
GENIUS_GENOBJ-N-DIM_13
 70
     0
  0
APPID
  5
AAD0
330
9
100
AcDbSymbolTableRecord
100
AcDbRegAppTableRecord
  2
ACAD_DSTYLE_DIMARC_LENGTH_SYMBOL
 70
     0
  0
APPID
  5
AAD1
330
9
100
AcDbSymbolTableRecord
100
AcDbRegAppTableRecord
  2
ACAD_DSTYLE_DIMJOGGED_JOGANGLE_SYMBOL
 70
     0
  0
APPID
  5
AAFD
330
9
100
AcDbSymbolTableRecord
100
AcDbRegAppTableRecord
  2
ACAD_PSEXT
 70
     0
  0
APPID
  5
AD61
330
9
100
AcDbSymbolTableRecord
100
AcDbRegAppTableRecord
  2
AcAecLayerStandard
 70
     0
  0
APPID
  5
AEE3
330
9
100
AcDbSymbolTableRecord
100
AcDbRegAppTableRecord
  2
ACAD_EXEMPT_FROM_CAD_STANDARDS
 70
     0
  0
APPID
  5
B1BE
330
9
100
AcDbSymbolTableRecord
100
AcDbRegAppTableRecord
  2
GENIUS_GENCEN_19
 70
     0
  0
APPID
  5
B4E1
330
9
100
AcDbSymbolTableRecord
100
AcDbRegAppTableRecord
  2
ACAD_MLEADERVER
 70
     0
  0
APPID
  5
C488
330
9
100
AcDbSymbolTableRecord
100
AcDbRegAppTableRecord
  2
ACAD_DSTYLE_DIMINSPECT
 70
     0
  0
APPID
  5
C489
330
9
100
AcDbSymbolTableRecord
100
AcDbRegAppTableRecord
  2
ACAD_DSTYLE_DIMRADIAL_EXTENSION
 70
     0
  0
APPID
  5
1980E
330
9
100
AcDbSymbolTableRecord
100
AcDbRegAppTableRecord
  2
GEVID1311583542
 70
     0
  0
APPID
  5
19825
330
9
100
AcDbSymbolTableRecord
100
AcDbRegAppTableRecord
  2
AMG_2DHIDE
 70
     0
  0
APPID
  5
19826
330
9
100
AcDbSymbolTableRecord
100
AcDbRegAppTableRecord
  2
AMG_2DSTRUCT_BTR
 70
     0
  0
APPID
  5
19837
330
9
100
AcDbSymbolTableRecord
100
AcDbRegAppTableRecord
  2
ACADM_2DVIEW_IGN_NOTIFY
 70
     0
  0
APPID
  5
1B56B
330
9
100
AcDbSymbolTableRecord
100
AcDbRegAppTableRecord
  2
GEVID1311583543
 70
     0
  0
APPID
  5
1B5F6
330
9
100
AcDbSymbolTableRecord
100
AcDbRegAppTableRecord
  2
GEVID1311583544
 70
     0
  0
APPID
  5
1B61B
330
9
100
AcDbSymbolTableRecord
100
AcDbRegAppTableRecord
  2
GEVID1311583545
 70
     0
  0
APPID
  5
1B63D
330
9
100
AcDbSymbolTableRecord
100
AcDbRegAppTableRecord
  2
GEVID1311583546
 70
     0
  0
APPID
  5
1B675
330
9
100
AcDbSymbolTableRecord
100
AcDbRegAppTableRecord
  2
GEVID1311583547
 70
     0
  0
ENDTAB
  0
TABLE
  2
DIMSTYLE
  5
A
330
0
100
AcDbSymbolTable
 70
    25
100
AcDbDimStyleTable
 71
     3
340
2515
340
251A
340
251B
  0
DIMSTYLE
105
A76
330
A
100
AcDbSymbolTableRecord
100
AcDbDimStyleTableRecord
  2
STANDARD
 70
     0
 41
3.0
 42
1.0
 43
7.0
 44
2.0
 73
     0
 74
     0
 77
     1
140
2.799999999999999
141
0.0
143
0.0394
147
0.7
171
     4
172
     1
173
     1
176
     3
177
     3
178
     2
271
     3
272
     3
273
     8
274
     4
289
     0
340
A74
341
A66
343
A66
344
A66
  0
DIMSTYLE
105
2515
330
A
100
AcDbSymbolTableRecord
100
AcDbDimStyleTableRecord
  2
SYS
 70
     0
  4
"
 41
1.0
 42
1.0
 43
10.0
 44
1.0
 47
0.1
 48
0.1
 73
     0
 74
     0
 77
     1
 78
     8
 79
     2
140
3.5
141
0.0
143
0.0393701
146
0.71
147
1.5
172
     1
176
   256
177
   256
178
     7
271
     2
272
     2
283
     0
284
     8
340
11
371
    -1
372
    -1
1001
ACAD_DSTYLE_DIMJOGGED_JOGANGLE_SYMBOL
1070
   384
1040
0.7853981633974483
1001
ACAD_DSTYLE_DIMARC_LENGTH_SYMBOL
1070
   379
1070
     1
  0
DIMSTYLE
105
2516
330
A
100
AcDbSymbolTableRecord
100
AcDbDimStyleTableRecord
  2
SYS$3
 70
     0
  4
"
 41
2.0
 42
1.0
 43
10.0
 44
1.0
 47
0.1
 48
0.1
 73
     0
 77
     1
 78
     8
 79
     2
140
3.2
141
0.0
143
0.0393701
146
0.71
147
1.0
176
   256
177
   256
178
     2
271
     2
272
     2
283
     0
284
     8
288
     1
340
11
342
A66
371
    -1
372
    -1
1001
ACAD_DSTYLE_DIMJOGGED_JOGANGLE_SYMBOL
1070
   384
1040
0.7853981633974483
1001
ACAD_DSTYLE_DIMARC_LENGTH_SYMBOL
1070
   379
1070
     1
  0
DIMSTYLE
105
2517
330
A
100
AcDbSymbolTableRecord
100
AcDbDimStyleTableRecord
  2
SYS$4
 70
     0
  4
"
 41
2.0
 42
1.0
 43
10.0
 44
1.0
 47
0.1
 48
0.1
 73
     0
 77
     1
 78
     8
 79
     2
140
3.2
141
0.0
143
0.0393701
146
0.71
147
1.0
173
     1
176
   256
177
   256
178
     2
271
     2
272
     2
283
     0
284
     8
288
     1
340
11
344
A66
371
    -1
372
    -1
1001
ACAD_DSTYLE_DIMJOGGED_JOGANGLE_SYMBOL
1070
   384
1040
0.7853981633974483
1001
ACAD_DSTYLE_DIMARC_LENGTH_SYMBOL
1070
   379
1070
     1
  0
DIMSTYLE
105
2518
330
A
100
AcDbSymbolTableRecord
100
AcDbDimStyleTableRecord
  2
SYS$6
 70
     0
  4
"
 41
2.0
 42
1.0
 43
10.0
 44
1.0
 47
0.1
 48
0.1
 73
     0
 74
     0
 78
     8
 79
     2
140
3.2
141
0.0
143
0.0393701
146
0.71
147
1.0
172
     1
176
   256
177
   256
178
     2
271
     2
272
     2
283
     0
284
     8
340
11
341
A66
371
    -1
372
    -1
1001
ACAD_DSTYLE_DIMJOGGED_JOGANGLE_SYMBOL
1070
   384
1040
0.7853981633974483
1001
ACAD_DSTYLE_DIMARC_LENGTH_SYMBOL
1070
   379
1070
     1
  0
DIMSTYLE
105
2519
330
A
100
AcDbSymbolTableRecord
100
AcDbDimStyleTableRecord
  2
SYS$7
 70
     0
  4
"
 41
2.0
 42
1.0
 43
10.0
 44
1.0
 47
0.1
 48
0.1
 73
     0
 74
     0
 77
     1
 78
     8
 79
     2
140
3.2
141
0.0
143
0.0393701
146
0.71
147
1.0
172
     1
176
   256
177
   256
178
     2
271
     2
272
     2
283
     0
284
     8
340
11
341
A66
342
A66
371
    -1
372
    -1
1001
ACAD_DSTYLE_DIMJOGGED_JOGANGLE_SYMBOL
1070
   384
1040
0.7853981633974483
1001
ACAD_DSTYLE_DIMARC_LENGTH_SYMBOL
1070
   379
1070
     1
  0
DIMSTYLE
105
251A
330
A
100
AcDbSymbolTableRecord
100
AcDbDimStyleTableRecord
  2
SYS$SF
 70
     0
  4
"
 41
2.5
 42
1.0
 43
10.0
 44
1.0
 47
0.1
 48
0.1
 73
     0
 74
     0
 75
     1
 76
     1
 77
     1
 78
     8
 79
     2
140
3.2
141
0.0
143
0.0393701
146
0.71
147
1.0
172
     1
176
   256
177
   256
178
     2
271
     2
272
     2
283
     0
284
     8
340
11
341
6C4
342
6C4
371
    -1
372
    -1
1001
ACAD_DSTYLE_DIMJOGGED_JOGANGLE_SYMBOL
1070
   384
1040
0.7853981633974483
1001
ACAD_DSTYLE_DIMARC_LENGTH_SYMBOL
1070
   379
1070
     1
  0
DIMSTYLE
105
251B
330
A
100
AcDbSymbolTableRecord
100
AcDbDimStyleTableRecord
  2
SYS$SH
 70
     0
  4
"
 41
2.5
 42
1.0
 43
10.0
 44
1.0
 47
0.1
 48
0.1
 73
     0
 74
     0
 75
     1
 76
     1
 77
     1
 78
     8
 79
     2
140
3.2
141
0.0
143
0.0393701
144
2.0
146
0.71
147
1.0
172
     1
173
     1
176
   256
177
   256
178
     2
271
     2
272
     2
283
     0
284
     8
340
11
341
6C4
343
72
344
6C4
371
    -1
372
    -1
1001
ACAD_DSTYLE_DIMJOGGED_JOGANGLE_SYMBOL
1070
   384
1040
0.7853981633974483
1001
ACAD_DSTYLE_DIMARC_LENGTH_SYMBOL
1070
   379
1070
     1
  0
DIMSTYLE
105
2A59
330
A
100
AcDbSymbolTableRecord
100
AcDbDimStyleTableRecord
  2
SYS$2
 70
     0
  4
"
 41
1.0
 42
1.0
 43
10.0
 44
1.0
 47
0.1
 48
0.1
 73
     0
 74
     0
 77
     1
 78
     8
 79
     2
140
3.2
141
0.0
143
0.0393701
146
0.71
147
1.0
172
     1
176
   256
177
   256
178
     2
271
     2
272
     2
283
     0
284
     8
340
11
342
6C4
371
    -1
372
    -1
1001
ACAD_DSTYLE_DIMJOGGED_JOGANGLE_SYMBOL
1070
   384
1040
0.7853981633974483
1001
ACAD_DSTYLE_DIMARC_LENGTH_SYMBOL
1070
   379
1070
     1
  0
DIMSTYLE
105
2AAB
102
{ACAD_REACTORS
330
31586
330
3159C
330
315B2
330
315C8
330
3170E
330
3170F
330
3175E
330
31786
330
31C9C
330
31CCD
102
}
330
A
100
AcDbSymbolTableRecord
100
AcDbDimStyleTableRecord
  2
SYS$0
 70
     0
  4
"
 41
1.0
 42
1.0
 43
10.0
 44
1.0
 47
0.1
 48
0.1
 73
     0
 74
     0
 77
     1
 78
     8
 79
     2
140
3.200000000000001
141
0.0
143
0.0393701
146
0.71
147
1.0
172
     1
176
   256
177
   256
178
     2
271
     2
272
     2
283
     0
284
     8
340
11
341
A66
342
6C4
371
    -1
372
    -1
1001
ACAD_DSTYLE_DIMJOGGED_JOGANGLE_SYMBOL
1070
   384
1040
0.7853981633974483
1001
ACAD_DSTYLE_DIMARC_LENGTH_SYMBOL
1070
   379
1070
     1
  0
DIMSTYLE
105
AF99
330
A
100
AcDbSymbolTableRecord
100
AcDbDimStyleTableRecord
  2
AM_ISO
 70
     0
  4
"
 41
2.5
 42
1.0
 43
10.0
 44
1.0
 47
0.1
 48
0.1
 73
     0
 74
     0
 77
     1
 78
     8
 79
     2
140
3.5
141
0.0
143
0.0393701
146
0.71
147
1.5
172
     1
176
   256
177
   256
178
     2
271
     2
272
     3
274
     4
283
     0
284
     8
340
11
371
    -1
372
    -1
  0
DIMSTYLE
105
AF9A
330
A
100
AcDbSymbolTableRecord
100
AcDbDimStyleTableRecord
  2
AM_ISO$3
 70
     0
  4
"
 41
2.5
 42
1.0
 43
10.0
 44
1.0
 47
0.1
 48
0.1
 73
     0
 77
     1
 78
     8
 79
     2
140
3.5
141
0.0
143
0.0393701
146
0.71
147
1.5
176
   256
177
   256
178
     2
271
     2
272
     3
274
     4
283
     0
284
     8
288
     1
289
     0
340
11
371
    -1
372
    -1
  0
DIMSTYLE
105
AF9B
330
A
100
AcDbSymbolTableRecord
100
AcDbDimStyleTableRecord
  2
AM_ISO$4
 70
     0
  4
"
 41
2.5
 42
1.0
 43
10.0
 44
1.0
 47
0.1
 48
0.1
 73
     0
 77
     1
 78
     8
 79
     2
140
3.5
141
0.0
143
0.0393701
146
0.71
147
1.5
176
   256
177
   256
178
     2
271
     2
272
     3
274
     4
283
     0
284
     8
288
     1
289
     0
340
11
371
    -1
372
    -1
  0
DIMSTYLE
105
AF9C
330
A
100
AcDbSymbolTableRecord
100
AcDbDimStyleTableRecord
  2
AM_ISO$6
 70
     0
  4
"
 41
2.5
 42
1.0
 43
10.0
 44
1.0
 47
0.1
 48
0.1
 73
     0
 74
     0
 78
     8
 79
     2
140
3.5
141
0.0
143
0.0393701
146
0.71
147
1.5
172
     1
176
   256
177
   256
178
     2
271
     2
272
     3
274
     4
283
     0
284
     8
340
11
371
    -1
372
    -1
  0
DIMSTYLE
105
AF9D
330
A
100
AcDbSymbolTableRecord
100
AcDbDimStyleTableRecord
  2
AM_ISO$7
 70
     0
  4
"
 41
2.5
 42
1.0
 43
10.0
 44
1.0
 47
0.1
 48
0.1
 73
     0
 74
     0
 77
     1
 78
     8
 79
     2
140
5.0
141
0.0
143
0.0393701
146
0.71
147
1.5
172
     1
176
   256
177
   256
178
     2
271
     2
272
     3
274
     4
283
     0
284
     8
340
11
371
    -1
372
    -1
  0
DIMSTYLE
105
AF9E
330
A
100
AcDbSymbolTableRecord
100
AcDbDimStyleTableRecord
  2
AM_ISO$SF
 70
     0
  4
"
 41
2.5
 42
1.0
 43
10.0
 44
1.0
 47
0.1
 48
0.1
 73
     0
 74
     0
 75
     1
 76
     1
 77
     1
 78
     8
 79
     2
140
3.5
141
0.0
143
0.0393701
146
0.71
147
1.5
172
     1
176
   256
177
   256
178
     2
271
     2
272
     3
274
     4
283
     0
284
     8
340
11
371
    -1
372
    -1
  0
DIMSTYLE
105
AF9F
330
A
100
AcDbSymbolTableRecord
100
AcDbDimStyleTableRecord
  2
AM_ISO$SH
 70
     0
  4
"
 41
2.5
 42
1.0
 43
10.0
 44
1.0
 47
0.1
 48
0.1
 73
     0
 74
     0
 75
     1
 76
     1
 77
     1
 78
     8
 79
     2
140
3.5
141
0.0
143
0.0393701
144
2.0
146
0.71
147
1.5
172
     1
173
     1
176
   256
177
   256
178
     2
271
     2
272
     3
274
     4
283
     0
284
     8
340
11
343
72
371
    -1
372
    -1
  0
DIMSTYLE
105
B60C
330
A
100
AcDbSymbolTableRecord
100
AcDbDimStyleTableRecord
  2
AM_ANSI
 70
     0
  4
mm
 41
0.1
 42
0.05
 43
0.5
 44
0.1
 47
0.1
 48
0.1
 78
     7
 79
     2
140
0.12
141
0.0
146
0.71
147
0.06
176
   256
177
   256
178
     2
274
     4
284
     7
340
11
371
    -1
372
    -1
  0
DIMSTYLE
105
C485
330
A
100
AcDbSymbolTableRecord
100
AcDbDimStyleTableRecord
  2
AM_ISO$0
 70
     0
  4
"
 41
0.8
 42
1.0
 43
10.0
 44
1.0
 47
0.1
 48
0.1
 73
     0
 74
     0
 77
     1
 78
     8
 79
     2
140
3.2
141
0.0
143
0.0393701
146
0.71
147
0.9999999999999996
172
     1
176
   256
177
   256
178
     2
271
     2
272
     2
283
     0
284
     8
340
11
341
6C4
342
6C4
371
    -1
372
    -1
1001
ACAD_DSTYLE_DIMJOGGED_JOGANGLE_SYMBOL
1070
   384
1040
0.7853981633974483
1001
ACAD_DSTYLE_DIMARC_LENGTH_SYMBOL
1070
   379
1070
     1
  0
DIMSTYLE
105
C486
330
A
100
AcDbSymbolTableRecord
100
AcDbDimStyleTableRecord
  2
AM_ISO$2
 70
     0
  4
"
 41
0.8
 42
1.0
 43
10.0
 44
1.0
 47
0.1
 48
0.1
 73
     0
 74
     0
 77
     3
 78
     8
 79
     2
140
3.200000000000001
141
0.0
143
0.0393701
146
0.71
147
0.9999999999999996
172
     1
176
   256
177
   256
178
     2
271
     2
272
     2
283
     0
284
     8
340
11
342
6C4
371
    -1
372
    -1
1001
ACAD_DSTYLE_DIMJOGGED_JOGANGLE_SYMBOL
1070
   384
1040
0.7853981633974483
1001
ACAD_DSTYLE_DIMARC_LENGTH_SYMBOL
1070
   379
1070
     1
  0
DIMSTYLE
105
FD1A
330
A
100
AcDbSymbolTableRecord
100
AcDbDimStyleTableRecord
  2
AM_ANSI$3
 70
     0
  4
mm
 41
0.1
 42
0.05
 43
0.5
 44
0.1
 47
0.1
 48
0.1
 78
     7
 79
     2
140
0.12
141
0.0
146
0.71
147
0.06
176
   256
177
   256
178
     2
274
     4
284
     7
288
     1
289
     0
340
11
371
    -1
372
    -1
1001
ACAD_DSTYLE_DIMARC_LENGTH_SYMBOL
1070
   379
1070
     1
  0
DIMSTYLE
105
FD1B
330
A
100
AcDbSymbolTableRecord
100
AcDbDimStyleTableRecord
  2
AM_ANSI$4
 70
     0
  4
mm
 41
0.1
 42
0.05
 43
0.5
 44
0.1
 47
0.1
 48
0.1
 78
     7
 79
     2
140
0.12
141
0.0
146
0.71
147
0.06
176
   256
177
   256
178
     2
274
     4
284
     7
288
     1
289
     0
340
11
371
    -1
372
    -1
1001
ACAD_DSTYLE_DIMARC_LENGTH_SYMBOL
1070
   379
1070
     1
  0
DIMSTYLE
105
FD1C
330
A
100
AcDbSymbolTableRecord
100
AcDbDimStyleTableRecord
  2
AM_ANSI$7
 70
     0
  4
mm
 41
0.1
 42
0.05
 43
0.5
 44
0.1
 47
0.1
 48
0.1
 78
     7
 79
     2
140
0.24
141
0.0
146
0.71
147
0.06
176
   256
177
   256
178
     2
274
     4
284
     7
340
11
371
    -1
372
    -1
1001
ACAD_DSTYLE_DIMARC_LENGTH_SYMBOL
1070
   379
1070
     1
  0
DIMSTYLE
105
FD1D
330
A
100
AcDbSymbolTableRecord
100
AcDbDimStyleTableRecord
  2
AM_ANSI$SF
 70
     0
  4
mm
 41
0.1
 42
0.05
 43
0.5
 44
0.1
 47
0.1
 48
0.1
 75
     1
 76
     1
 78
     7
 79
     2
140
0.12
141
0.0
146
0.71
147
0.06
176
   256
177
   256
178
     2
274
     4
284
     7
340
11
371
    -1
372
    -1
1001
ACAD_DSTYLE_DIMARC_LENGTH_SYMBOL
1070
   379
1070
     1
  0
DIMSTYLE
105
FD1E
330
A
100
AcDbSymbolTableRecord
100
AcDbDimStyleTableRecord
  2
AM_ANSI$SH
 70
     0
  4
mm
 41
0.1
 42
0.05
 43
0.5
 44
0.1
 47
0.1
 48
0.1
 75
     1
 76
     1
 78
     7
 79
     2
140
0.12
141
0.0
146
0.71
147
0.06
173
     1
176
   256
177
   256
178
     2
274
     4
284
     7
340
11
343
72
371
    -1
372
    -1
1001
ACAD_DSTYLE_DIMARC_LENGTH_SYMBOL
1070
   379
1070
     1
  0
ENDTAB
  0
TABLE
  2
BLOCK_RECORD
  5
1
330
0
100
AcDbSymbolTable
 70
    24
  0
BLOCK_RECORD
  5
1F
102
{ACAD_XDICTIONARY
360
8A
102
}
330
1
100
AcDbSymbolTableRecord
100
AcDbBlockTableRecord
  2
*Model_Space
340
22
  0
BLOCK_RECORD
  5
1B
330
1
100
AcDbSymbolTableRecord
100
AcDbBlockTableRecord
  2
*Paper_Space
340
1E
  0
BLOCK_RECORD
  5
23
330
1
100
AcDbSymbolTableRecord
100
AcDbBlockTableRecord
  2
*Paper_Space0
340
26
  0
BLOCK_RECORD
  5
72
330
1
100
AcDbSymbolTableRecord
100
AcDbBlockTableRecord
  2
GENAXEH
340
0
  0
BLOCK_RECORD
  5
6C4
330
1
100
AcDbSymbolTableRecord
100
AcDbBlockTableRecord
  2
_Dot
340
0
102
{BLKREFS
331
32664
331
32665
331
3266F
331
32670
331
32678
331
32679
331
32681
331
32682
331
32695
331
32696
331
3269E
331
3269F
331
326A7
331
326A8
331
32753
331
32754
331
3275C
331
3275D
331
32765
331
32766
331
3276E
331
3276F
331
32777
331
32778
331
32780
331
32781
331
32789
331
3278A
331
32792
331
32793
331
3279B
331
3279C
331
327A4
331
327A5
102
}
  0
BLOCK_RECORD
  5
A66
330
1
100
AcDbSymbolTableRecord
100
AcDbBlockTableRecord
  2
_OPEN30
340
0
  0
BLOCK_RECORD
  5
31587
330
1
100
AcDbSymbolTableRecord
100
AcDbBlockTableRecord
  2
*D7
340
0
  0
BLOCK_RECORD
  5
3159D
330
1
100
AcDbSymbolTableRecord
100
AcDbBlockTableRecord
  2
*D8
340
0
  0
BLOCK_RECORD
  5
315B3
330
1
100
AcDbSymbolTableRecord
100
AcDbBlockTableRecord
  2
*D9
340
0
  0
BLOCK_RECORD
  5
315C9
330
1
100
AcDbSymbolTableRecord
100
AcDbBlockTableRecord
  2
*D10
340
0
  0
BLOCK_RECORD
  5
31710
330
1
100
AcDbSymbolTableRecord
100
AcDbBlockTableRecord
  2
*D11
340
0
  0
BLOCK_RECORD
  5
3171C
330
1
100
AcDbSymbolTableRecord
100
AcDbBlockTableRecord
  2
*D12
340
0
  0
BLOCK_RECORD
  5
3175F
330
1
100
AcDbSymbolTableRecord
100
AcDbBlockTableRecord
  2
*D13
340
0
  0
BLOCK_RECORD
  5
31787
330
1
100
AcDbSymbolTableRecord
100
AcDbBlockTableRecord
  2
*D14
340
0
  0
BLOCK_RECORD
  5
31C9D
330
1
100
AcDbSymbolTableRecord
100
AcDbBlockTableRecord
  2
*D15
340
0
  0
BLOCK_RECORD
  5
31CCE
330
1
100
AcDbSymbolTableRecord
100
AcDbBlockTableRecord
  2
*D16
340
0
  0
BLOCK_RECORD
  5
320AB
330
1
100
AcDbSymbolTableRecord
100
AcDbBlockTableRecord
  2
*D17
340
0
  0
BLOCK_RECORD
  5
320FB
330
1
100
AcDbSymbolTableRecord
100
AcDbBlockTableRecord
  2
*D18
340
0
  0
BLOCK_RECORD
  5
32182
330
1
100
AcDbSymbolTableRecord
100
AcDbBlockTableRecord
  2
*D19
340
0
  0
BLOCK_RECORD
  5
32198
330
1
100
AcDbSymbolTableRecord
100
AcDbBlockTableRecord
  2
*D20
340
0
  0
BLOCK_RECORD
  5
321B2
330
1
100
AcDbSymbolTableRecord
100
AcDbBlockTableRecord
  2
*D21
340
0
  0
BLOCK_RECORD
  5
32225
330
1
100
AcDbSymbolTableRecord
100
AcDbBlockTableRecord
  2
*D22
340
0
  0
BLOCK_RECORD
  5
32244
330
1
100
AcDbSymbolTableRecord
100
AcDbBlockTableRecord
  2
*D23
340
0
  0
ENDTAB
  0
ENDSEC
  0
SECTION
  2
BLOCKS
  0
BLOCK
  5
20
330
1F
100
AcDbEntity
  8
0
100
AcDbBlockBegin
  2
*Model_Space
 70
     0
 10
0.0
 20
0.0
 30
0.0
  3
*Model_Space
  1

  0
ENDBLK
  5
21
330
1F
100
AcDbEntity
  8
0
100
AcDbBlockEnd
  0
BLOCK
  5
1C
330
1B
100
AcDbEntity
 67
     1
  8
0
100
AcDbBlockBegin
  2
*Paper_Space
 70
     0
 10
0.0
 20
0.0
 30
0.0
  3
*Paper_Space
  1

  0
ENDBLK
  5
1D
330
1B
100
AcDbEntity
 67
     1
  8
0
100
AcDbBlockEnd
  0
BLOCK
  5
24
330
23
100
AcDbEntity
 67
     1
  8
0
100
AcDbBlockBegin
  2
*Paper_Space0
 70
     0
 10
0.0
 20
0.0
 30
0.0
  3
*Paper_Space0
  1

  0
ENDBLK
  5
25
330
23
100
AcDbEntity
 67
     1
  8
0
100
AcDbBlockEnd
  0
BLOCK
  5
74
330
72
100
AcDbEntity
  8
0
100
AcDbBlockBegin
  2
GENAXEH
 70
     0
 10
0.0
 20
0.0
 30
0.0
  3
GENAXEH
  1

  0
LINE
  5
73
330
72
100
AcDbEntity
  8
0
100
AcDbLine
 10
-1.0
 20
0.0
 30
0.0
 11
1.0
 21
0.0
 31
0.0
  0
ENDBLK
  5
75
330
72
100
AcDbEntity
  8
0
100
AcDbBlockEnd
  0
BLOCK
  5
6C7
330
6C4
100
AcDbEntity
  8
0
100
AcDbBlockBegin
  2
_Dot
 70
     0
 10
0.0
 20
0.0
 30
0.0
  3
_Dot
  1

  0
LWPOLYLINE
  5
6C5
330
6C4
100
AcDbEntity
  8
0
  6
ByBlock
 62
     0
100
AcDbPolyline
 90
        2
 70
     1
 43
0.5
 10
-0.25
 20
0.0
 42
1.0
 10
0.25
 20
0.0
 42
1.0
  0
LINE
  5
6C6
330
6C4
100
AcDbEntity
  8
0
  6
ByBlock
 62
     0
370
    -2
100
AcDbLine
 10
-0.5
 20
0.0
 30
0.0
 11
-1.0
 21
0.0
 31
0.0
  0
ENDBLK
  5
6C8
330
6C4
100
AcDbEntity
  8
0
100
AcDbBlockEnd
  0
BLOCK
  5
A6A
330
A66
100
AcDbEntity
  8
0
100
AcDbBlockBegin
  2
_OPEN30
 70
     0
 10
0.0
 20
0.0
 30
0.0
  3
_OPEN30
  1

  0
LINE
  5
A67
330
A66
100
AcDbEntity
  8
0
  6
ByBlock
 62
     0
100
AcDbLine
 10
-1.0
 20
0.26794919
 30
0.0
 11
0.0
 21
0.0
 31
0.0
  0
LINE
  5
A68
330
A66
100
AcDbEntity
  8
0
  6
ByBlock
 62
     0
100
AcDbLine
 10
0.0
 20
0.0
 30
0.0
 11
-1.0
 21
-0.26794919
 31
0.0
  0
LINE
  5
A69
330
A66
100
AcDbEntity
  8
0
  6
ByBlock
 62
     0
100
AcDbLine
 10
0.0
 20
0.0
 30
0.0
 11
-1.0
 21
0.0
 31
0.0
  0
ENDBLK
  5
A6B
330
A66
100
AcDbEntity
  8
0
100
AcDbBlockEnd
  0
BLOCK
  5
31591
330
31587
100
AcDbEntity
  8
0
100
AcDbBlockBegin
  2
*D7
 70
     1
 10
0.0
 20
0.0
 30
0.0
  3
*D7
  1

  0
LINE
  5
32750
330
31587
100
AcDbEntity
  8
AM_5
100
AcDbLine
 10
2972.346674046015
 20
1997.544061697452
 30
0.0
 11
2980.346674046015
 21
1997.544061697452
 31
0.0
  0
LINE
  5
32751
330
31587
100
AcDbEntity
  8
AM_5
100
AcDbLine
 10
2968.346674046014
 20
1988.044061697452
 30
0.0
 11
2980.346674046015
 21
1988.044061697452
 31
0.0
  0
LINE
  5
32752
330
31587
100
AcDbEntity
  8
AM_5
100
AcDbLine
 10
2979.346674046015
 20
1996.544061697452
 30
0.0
 11
2979.346674046015
 21
1989.044061697453
 31
0.0
  0
INSERT
  5
32753
330
31587
100
AcDbEntity
  8
AM_5
100
AcDbBlockReference
  2
_Dot
 10
2979.346674046015
 20
1997.544061697452
 30
0.0
 50
90.0
  0
INSERT
  5
32754
330
31587
100
AcDbEntity
  8
AM_5
100
AcDbBlockReference
  2
_Dot
 10
2979.346674046015
 20
1988.044061697452
 30
0.0
 50
270.0
  0
MTEXT
  5
32755
330
31587
100
AcDbEntity
  8
AM_5
 62
     2
100
AcDbMText
 10
2976.746674046015
 20
1992.794061697452
 30
0.0
 40
3.200000000000001
 41
0.0
 71
     5
 72
     1
  1
I
 11
0.0000000000000001
 21
1.0
 31
0.0
 73
     1
 44
1.0
1001
ACAD
1000
MTEXTBEGIN
1070
    73
1070
     1
1070
    44
1040
1.0
1070
    74
1070
     0
1000
MTEXTEND
  0
POINT
  5
32756
330
31587
100
AcDbEntity
  8
Defpoints
 62
     0
100
AcDbPoint
 10
2971.346674046015
 20
1997.544061697452
 30
0.0
  0
POINT
  5
32757
330
31587
100
AcDbEntity
  8
Defpoints
 62
     0
100
AcDbPoint
 10
2967.346674046014
 20
1988.044061697452
 30
0.0
  0
POINT
  5
32758
330
31587
100
AcDbEntity
  8
Defpoints
 62
     0
100
AcDbPoint
 10
2979.346674046015
 20
1988.044061697452
 30
0.0
  0
ENDBLK
  5
31592
330
31587
100
AcDbEntity
  8
0
100
AcDbBlockEnd
  0
BLOCK
  5
315A7
330
3159D
100
AcDbEntity
  8
0
100
AcDbBlockBegin
  2
*D8
 70
     1
 10
0.0
 20
0.0
 30
0.0
  3
*D8
  1

  0
LINE
  5
32759
330
3159D
100
AcDbEntity
  8
AM_5
100
AcDbLine
 10
2972.346674046015
 20
1997.544061697452
 30
0.0
 11
2980.346674046015
 21
1997.544061697452
 31
0.0
  0
LINE
  5
3275A
330
3159D
100
AcDbEntity
  8
AM_5
100
AcDbLine
 10
2962.546674046015
 20
2024.544061697452
 30
0.0
 11
2980.346674046015
 21
2024.544061697452
 31
0.0
  0
LINE
  5
3275B
330
3159D
100
AcDbEntity
  8
AM_5
100
AcDbLine
 10
2979.346674046015
 20
1998.544061697452
 30
0.0
 11
2979.346674046015
 21
2023.544061697452
 31
0.0
  0
INSERT
  5
3275C
330
3159D
100
AcDbEntity
  8
AM_5
100
AcDbBlockReference
  2
_Dot
 10
2979.346674046015
 20
1997.544061697452
 30
0.0
 50
270.0
  0
INSERT
  5
3275D
330
3159D
100
AcDbEntity
  8
AM_5
100
AcDbBlockReference
  2
_Dot
 10
2979.346674046015
 20
2024.544061697452
 30
0.0
 50
90.0
  0
MTEXT
  5
3275E
330
3159D
100
AcDbEntity
  8
AM_5
 62
     2
100
AcDbMText
 10
2976.746674046015
 20
2011.044061697452
 30
0.0
 40
3.200000000000001
 41
0.0
 71
     5
 72
     1
  1
L1
 11
0.0000000000000001
 21
1.0
 31
0.0
 73
     1
 44
1.0
1001
ACAD
1000
MTEXTBEGIN
1070
    73
1070
     1
1070
    44
1040
1.0
1070
    74
1070
     0
1000
MTEXTEND
  0
POINT
  5
3275F
330
3159D
100
AcDbEntity
  8
Defpoints
 62
     0
100
AcDbPoint
 10
2971.346674046015
 20
1997.544061697452
 30
0.0
  0
POINT
  5
32760
330
3159D
100
AcDbEntity
  8
Defpoints
 62
     0
100
AcDbPoint
 10
2961.546674046014
 20
2024.544061697452
 30
0.0
  0
POINT
  5
32761
330
3159D
100
AcDbEntity
  8
Defpoints
 62
     0
100
AcDbPoint
 10
2979.346674046015
 20
2024.544061697452
 30
0.0
  0
ENDBLK
  5
315A8
330
3159D
100
AcDbEntity
  8
0
100
AcDbBlockEnd
  0
BLOCK
  5
315BD
330
315B3
100
AcDbEntity
  8
0
100
AcDbBlockBegin
  2
*D9
 70
     1
 10
0.0
 20
0.0
 30
0.0
  3
*D9
  1

  0
LINE
  5
32762
330
315B3
100
AcDbEntity
  8
AM_5
100
AcDbLine
 10
2945.346674046014
 20
1991.044061697452
 30
0.0
 11
2945.346674046014
 21
1979.044061697452
 31
0.0
  0
LINE
  5
32763
330
315B3
100
AcDbEntity
  8
AM_5
100
AcDbLine
 10
2971.346674046015
 20
1991.044061697452
 30
0.0
 11
2971.346674046015
 21
1979.044061697452
 31
0.0
  0
LINE
  5
32764
330
315B3
100
AcDbEntity
  8
AM_5
100
AcDbLine
 10
2946.346674046015
 20
1980.044061697452
 30
0.0
 11
2970.346674046015
 21
1980.044061697452
 31
0.0
  0
INSERT
  5
32765
330
315B3
100
AcDbEntity
  8
AM_5
100
AcDbBlockReference
  2
_Dot
 10
2945.346674046014
 20
1980.044061697452
 30
0.0
 50
180.0
  0
INSERT
  5
32766
330
315B3
100
AcDbEntity
  8
AM_5
100
AcDbBlockReference
  2
_Dot
 10
2971.346674046015
 20
1980.044061697452
 30
0.0
  0
MTEXT
  5
32767
330
315B3
100
AcDbEntity
  8
AM_5
 62
     2
100
AcDbMText
 10
2958.346674046015
 20
1982.644061697452
 30
0.0
 40
3.200000000000001
 41
0.0
 71
     5
 72
     1
  1
%%cA
 73
     1
 44
1.0
1001
ACAD
1000
MTEXTBEGIN
1070
    73
1070
     1
1070
    44
1040
1.0
1070
    74
1070
     0
1000
MTEXTEND
  0
POINT
  5
32768
330
315B3
100
AcDbEntity
  8
Defpoints
 62
     0
100
AcDbPoint
 10
2945.346674046014
 20
1992.044061697452
 30
0.0
  0
POINT
  5
32769
330
315B3
100
AcDbEntity
  8
Defpoints
 62
     0
100
AcDbPoint
 10
2971.346674046015
 20
1992.044061697452
 30
0.0
  0
POINT
  5
3276A
330
315B3
100
AcDbEntity
  8
Defpoints
 62
     0
100
AcDbPoint
 10
2971.346674046015
 20
1980.044061697452
 30
0.0
  0
ENDBLK
  5
315BE
330
315B3
100
AcDbEntity
  8
0
100
AcDbBlockEnd
  0
BLOCK
  5
315D3
330
315C9
100
AcDbEntity
  8
0
100
AcDbBlockBegin
  2
*D10
 70
     1
 10
0.0
 20
0.0
 30
0.0
  3
*D10
  1

  0
LINE
  5
3276B
330
315C9
100
AcDbEntity
  8
AM_5
100
AcDbLine
 10
2962.346674046015
 20
2024.744061697453
 30
0.0
 11
2962.346674046015
 21
2033.544061697452
 31
0.0
  0
LINE
  5
3276C
330
315C9
100
AcDbEntity
  8
AM_5
100
AcDbLine
 10
2954.346674046015
 20
2024.744061697453
 30
0.0
 11
2954.346674046015
 21
2033.544061697452
 31
0.0
  0
LINE
  5
3276D
330
315C9
100
AcDbEntity
  8
AM_5
100
AcDbLine
 10
2961.346674046014
 20
2032.544061697453
 30
0.0
 11
2955.346674046015
 21
2032.544061697453
 31
0.0
  0
INSERT
  5
3276E
330
315C9
100
AcDbEntity
  8
AM_5
100
AcDbBlockReference
  2
_Dot
 10
2962.346674046015
 20
2032.544061697453
 30
0.0
  0
INSERT
  5
3276F
330
315C9
100
AcDbEntity
  8
AM_5
100
AcDbBlockReference
  2
_Dot
 10
2954.346674046015
 20
2032.544061697453
 30
0.0
 50
180.0
  0
MTEXT
  5
32770
330
315C9
100
AcDbEntity
  8
AM_5
 62
     2
100
AcDbMText
 10
2958.346674046014
 20
2035.144061697453
 30
0.0
 40
3.200000000000001
 41
0.0
 71
     5
 72
     1
  1
D
 73
     1
 44
1.0
1001
ACAD
1000
MTEXTBEGIN
1070
    73
1070
     1
1070
    44
1040
1.0
1070
    74
1070
     0
1000
MTEXTEND
  0
POINT
  5
32771
330
315C9
100
AcDbEntity
  8
Defpoints
 62
     0
100
AcDbPoint
 10
2962.346674046015
 20
2023.744061697453
 30
0.0
  0
POINT
  5
32772
330
315C9
100
AcDbEntity
  8
Defpoints
 62
     0
100
AcDbPoint
 10
2954.346674046015
 20
2023.744061697453
 30
0.0
  0
POINT
  5
32773
330
315C9
100
AcDbEntity
  8
Defpoints
 62
     0
100
AcDbPoint
 10
2954.346674046015
 20
2032.544061697453
 30
0.0
  0
ENDBLK
  5
315D4
330
315C9
100
AcDbEntity
  8
0
100
AcDbBlockEnd
  0
BLOCK
  5
3171A
330
31710
100
AcDbEntity
  8
0
100
AcDbBlockBegin
  2
*D11
 70
     1
 10
0.0
 20
0.0
 30
0.0
  3
*D11
  1

  0
LINE
  5
32774
330
31710
100
AcDbEntity
  8
AM_5
100
AcDbLine
 10
3030.575477517559
 20
1997.544061697452
 30
0.0
 11
3049.575477517559
 21
1997.544061697452
 31
0.0
  0
LINE
  5
32775
330
31710
100
AcDbEntity
  8
AM_5
100
AcDbLine
 10
3026.575477517559
 20
1988.544061697452
 30
0.0
 11
3049.575477517559
 21
1988.544061697452
 31
0.0
  0
LINE
  5
32776
330
31710
100
AcDbEntity
  8
AM_5
100
AcDbLine
 10
3048.575477517559
 20
1996.544061697452
 30
0.0
 11
3048.575477517559
 21
1989.544061697452
 31
0.0
  0
INSERT
  5
32777
330
31710
100
AcDbEntity
  8
AM_5
100
AcDbBlockReference
  2
_Dot
 10
3048.575477517559
 20
1997.544061697452
 30
0.0
 50
90.0
  0
INSERT
  5
32778
330
31710
100
AcDbEntity
  8
AM_5
100
AcDbBlockReference
  2
_Dot
 10
3048.575477517559
 20
1988.544061697452
 30
0.0
 50
270.0
  0
MTEXT
  5
32779
330
31710
100
AcDbEntity
  8
AM_5
 62
     2
100
AcDbMText
 10
3045.975477517559
 20
1992.794061697452
 30
0.0
 40
3.200000000000001
 41
0.0
 71
     5
 72
     1
  1
I
 11
0.0000000000000001
 21
1.0
 31
0.0
 73
     1
 44
1.0
1001
ACAD
1000
MTEXTBEGIN
1070
    73
1070
     1
1070
    44
1040
1.0
1070
    74
1070
     0
1000
MTEXTEND
  0
POINT
  5
3277A
330
31710
100
AcDbEntity
  8
Defpoints
 62
     0
100
AcDbPoint
 10
3029.575477517559
 20
1997.544061697452
 30
0.0
  0
POINT
  5
3277B
330
31710
100
AcDbEntity
  8
Defpoints
 62
     0
100
AcDbPoint
 10
3025.575477517559
 20
1988.544061697452
 30
0.0
  0
POINT
  5
3277C
330
31710
100
AcDbEntity
  8
Defpoints
 62
     0
100
AcDbPoint
 10
3048.575477517559
 20
1988.544061697452
 30
0.0
  0
ENDBLK
  5
3171B
330
31710
100
AcDbEntity
  8
0
100
AcDbBlockEnd
  0
BLOCK
  5
31726
330
3171C
100
AcDbEntity
  8
0
100
AcDbBlockBegin
  2
*D12
 70
     1
 10
0.0
 20
0.0
 30
0.0
  3
*D12
  1

  0
LINE
  5
3277D
330
3171C
100
AcDbEntity
  8
AM_5
100
AcDbLine
 10
3030.575477517559
 20
1997.544061697452
 30
0.0
 11
3049.575477517559
 21
1997.544061697452
 31
0.0
  0
LINE
  5
3277E
330
3171C
100
AcDbEntity
  8
AM_5
100
AcDbLine
 10
3029.775477517559
 20
2024.544061697452
 30
0.0
 11
3049.575477517559
 21
2024.544061697452
 31
0.0
  0
LINE
  5
3277F
330
3171C
100
AcDbEntity
  8
AM_5
100
AcDbLine
 10
3048.575477517559
 20
1998.544061697452
 30
0.0
 11
3048.575477517559
 21
2023.544061697452
 31
0.0
  0
INSERT
  5
32780
330
3171C
100
AcDbEntity
  8
AM_5
100
AcDbBlockReference
  2
_Dot
 10
3048.575477517559
 20
1997.544061697452
 30
0.0
 50
270.0
  0
INSERT
  5
32781
330
3171C
100
AcDbEntity
  8
AM_5
100
AcDbBlockReference
  2
_Dot
 10
3048.575477517559
 20
2024.544061697452
 30
0.0
 50
90.0
  0
MTEXT
  5
32782
330
3171C
100
AcDbEntity
  8
AM_5
 62
     2
100
AcDbMText
 10
3045.975477517559
 20
2011.044061697452
 30
0.0
 40
3.200000000000001
 41
0.0
 71
     5
 72
     1
  1
L1
 11
0.0000000000000001
 21
1.0
 31
0.0
 73
     1
 44
1.0
1001
ACAD
1000
MTEXTBEGIN
1070
    73
1070
     1
1070
    44
1040
1.0
1070
    74
1070
     0
1000
MTEXTEND
  0
POINT
  5
32783
330
3171C
100
AcDbEntity
  8
Defpoints
 62
     0
100
AcDbPoint
 10
3029.575477517559
 20
1997.544061697452
 30
0.0
  0
POINT
  5
32784
330
3171C
100
AcDbEntity
  8
Defpoints
 62
     0
100
AcDbPoint
 10
3028.775477517559
 20
2024.544061697452
 30
0.0
  0
POINT
  5
32785
330
3171C
100
AcDbEntity
  8
Defpoints
 62
     0
100
AcDbPoint
 10
3048.575477517559
 20
2024.544061697452
 30
0.0
  0
ENDBLK
  5
31727
330
3171C
100
AcDbEntity
  8
0
100
AcDbBlockEnd
  0
BLOCK
  5
31769
330
3175F
100
AcDbEntity
  8
0
100
AcDbBlockBegin
  2
*D13
 70
     1
 10
0.0
 20
0.0
 30
0.0
  3
*D13
  1

  0
LINE
  5
32786
330
3175F
100
AcDbEntity
  8
AM_5
100
AcDbLine
 10
3040.575477517559
 20
1991.702905697452
 30
0.0
 11
3040.575477517559
 21
1979.544061697452
 31
0.0
  0
LINE
  5
32787
330
3175F
100
AcDbEntity
  8
AM_5
100
AcDbLine
 10
3010.575477517559
 20
1991.702905697452
 30
0.0
 11
3010.575477517559
 21
1979.544061697452
 31
0.0
  0
LINE
  5
32788
330
3175F
100
AcDbEntity
  8
AM_5
100
AcDbLine
 10
3039.575477517559
 20
1980.544061697452
 30
0.0
 11
3011.575477517559
 21
1980.544061697452
 31
0.0
  0
INSERT
  5
32789
330
3175F
100
AcDbEntity
  8
AM_5
100
AcDbBlockReference
  2
_Dot
 10
3040.575477517559
 20
1980.544061697452
 30
0.0
  0
INSERT
  5
3278A
330
3175F
100
AcDbEntity
  8
AM_5
100
AcDbBlockReference
  2
_Dot
 10
3010.575477517559
 20
1980.544061697452
 30
0.0
 50
180.0
  0
MTEXT
  5
3278B
330
3175F
100
AcDbEntity
  8
AM_5
 62
     2
100
AcDbMText
 10
3025.575477517559
 20
1983.144061697452
 30
0.0
 40
3.200000000000001
 41
0.0
 71
     5
 72
     1
  1
%%cA
 73
     1
 44
1.0
1001
ACAD
1000
MTEXTBEGIN
1070
    73
1070
     1
1070
    44
1040
1.0
1070
    74
1070
     0
1000
MTEXTEND
  0
POINT
  5
3278C
330
3175F
100
AcDbEntity
  8
Defpoints
 62
     0
100
AcDbPoint
 10
3040.575477517559
 20
1992.702905697452
 30
0.0
  0
POINT
  5
3278D
330
3175F
100
AcDbEntity
  8
Defpoints
 62
     0
100
AcDbPoint
 10
3010.575477517559
 20
1992.702905697452
 30
0.0
  0
POINT
  5
3278E
330
3175F
100
AcDbEntity
  8
Defpoints
 62
     0
100
AcDbPoint
 10
3010.575477517559
 20
1980.544061697452
 30
0.0
  0
ENDBLK
  5
3176A
330
3175F
100
AcDbEntity
  8
0
100
AcDbBlockEnd
  0
BLOCK
  5
31791
330
31787
100
AcDbEntity
  8
0
100
AcDbBlockBegin
  2
*D14
 70
     1
 10
0.0
 20
0.0
 30
0.0
  3
*D14
  1

  0
LINE
  5
3278F
330
31787
100
AcDbEntity
  8
AM_5
100
AcDbLine
 10
3021.575477517559
 20
2024.744061697452
 30
0.0
 11
3021.575477517559
 21
2033.544061697452
 31
0.0
  0
LINE
  5
32790
330
31787
100
AcDbEntity
  8
AM_5
100
AcDbLine
 10
3029.575477517559
 20
2024.744061697452
 30
0.0
 11
3029.575477517559
 21
2033.544061697452
 31
0.0
  0
LINE
  5
32791
330
31787
100
AcDbEntity
  8
AM_5
100
AcDbLine
 10
3022.575477517559
 20
2032.544061697452
 30
0.0
 11
3028.575477517559
 21
2032.544061697452
 31
0.0
  0
INSERT
  5
32792
330
31787
100
AcDbEntity
  8
AM_5
100
AcDbBlockReference
  2
_Dot
 10
3021.575477517559
 20
2032.544061697452
 30
0.0
 50
180.0
  0
INSERT
  5
32793
330
31787
100
AcDbEntity
  8
AM_5
100
AcDbBlockReference
  2
_Dot
 10
3029.575477517559
 20
2032.544061697452
 30
0.0
  0
MTEXT
  5
32794
330
31787
100
AcDbEntity
  8
AM_5
 62
     2
100
AcDbMText
 10
3025.57547751756
 20
2035.144061697452
 30
0.0
 40
3.200000000000001
 41
0.0
 71
     5
 72
     1
  1
D
 73
     1
 44
1.0
1001
ACAD
1000
MTEXTBEGIN
1070
    73
1070
     1
1070
    44
1040
1.0
1070
    74
1070
     0
1000
MTEXTEND
  0
POINT
  5
32795
330
31787
100
AcDbEntity
  8
Defpoints
 62
     0
100
AcDbPoint
 10
3021.575477517559
 20
2023.744061697453
 30
0.0
  0
POINT
  5
32796
330
31787
100
AcDbEntity
  8
Defpoints
 62
     0
100
AcDbPoint
 10
3029.575477517559
 20
2023.744061697453
 30
0.0
  0
POINT
  5
32797
330
31787
100
AcDbEntity
  8
Defpoints
 62
     0
100
AcDbPoint
 10
3029.575477517559
 20
2032.544061697452
 30
0.0
  0
ENDBLK
  5
31792
330
31787
100
AcDbEntity
  8
0
100
AcDbBlockEnd
  0
BLOCK
  5
31CA7
330
31C9D
100
AcDbEntity
  8
0
100
AcDbBlockBegin
  2
*D15
 70
     1
 10
0.0
 20
0.0
 30
0.0
  3
*D15
  1

  0
LINE
  5
32798
330
31C9D
100
AcDbEntity
  8
AM_5
100
AcDbLine
 10
2968.346674046014
 20
1988.044061697452
 30
0.0
 11
2988.346674046015
 21
1988.044061697452
 31
0.0
  0
LINE
  5
32799
330
31C9D
100
AcDbEntity
  8
AM_5
100
AcDbLine
 10
2962.546674046015
 20
2024.544061697453
 30
0.0
 11
2988.346674046015
 21
2024.544061697453
 31
0.0
  0
LINE
  5
3279A
330
31C9D
100
AcDbEntity
  8
AM_5
100
AcDbLine
 10
2987.346674046015
 20
1989.044061697453
 30
0.0
 11
2987.346674046015
 21
2023.544061697453
 31
0.0
  0
INSERT
  5
3279B
330
31C9D
100
AcDbEntity
  8
AM_5
100
AcDbBlockReference
  2
_Dot
 10
2987.346674046015
 20
1988.044061697452
 30
0.0
 50
270.0
  0
INSERT
  5
3279C
330
31C9D
100
AcDbEntity
  8
AM_5
100
AcDbBlockReference
  2
_Dot
 10
2987.346674046015
 20
2024.544061697453
 30
0.0
 50
90.0
  0
MTEXT
  5
3279D
330
31C9D
100
AcDbEntity
  8
AM_5
 62
     2
100
AcDbMText
 10
2984.746674046015
 20
2006.080872930493
 30
0.0
 40
3.200000000000001
 41
0.0
 71
     5
 72
     1
  1
L2
 11
0.0000000000000001
 21
1.0
 31
0.0
 73
     1
 44
1.0
1001
ACAD
1000
MTEXTBEGIN
1070
    73
1070
     1
1070
    44
1040
1.0
1070
    74
1070
     0
1000
MTEXTEND
  0
POINT
  5
3279E
330
31C9D
100
AcDbEntity
  8
Defpoints
 62
     0
100
AcDbPoint
 10
2967.346674046014
 20
1988.044061697452
 30
0.0
  0
POINT
  5
3279F
330
31C9D
100
AcDbEntity
  8
Defpoints
 62
     0
100
AcDbPoint
 10
2961.546674046014
 20
2024.544061697453
 30
0.0
  0
POINT
  5
327A0
330
31C9D
100
AcDbEntity
  8
Defpoints
 62
     0
100
AcDbPoint
 10
2987.346674046015
 20
2024.544061697453
 30
0.0
  0
ENDBLK
  5
31CA8
330
31C9D
100
AcDbEntity
  8
0
100
AcDbBlockEnd
  0
BLOCK
  5
31CD8
330
31CCE
100
AcDbEntity
  8
0
100
AcDbBlockBegin
  2
*D16
 70
     1
 10
0.0
 20
0.0
 30
0.0
  3
*D16
  1

  0
LINE
  5
327A1
330
31CCE
100
AcDbEntity
  8
AM_5
100
AcDbLine
 10
3026.575477652277
 20
1988.544061697452
 30
0.0
 11
3057.57547751756
 21
1988.544061697452
 31
0.0
  0
LINE
  5
327A2
330
31CCE
100
AcDbEntity
  8
AM_5
100
AcDbLine
 10
3029.77547751756
 20
2024.544061697452
 30
0.0
 11
3057.57547751756
 21
2024.544061697452
 31
0.0
  0
LINE
  5
327A3
330
31CCE
100
AcDbEntity
  8
AM_5
100
AcDbLine
 10
3056.575477517559
 20
1989.544061697452
 30
0.0
 11
3056.575477517559
 21
2023.544061697452
 31
0.0
  0
INSERT
  5
327A4
330
31CCE
100
AcDbEntity
  8
AM_5
100
AcDbBlockReference
  2
_Dot
 10
3056.575477517559
 20
1988.544061697452
 30
0.0
 50
270.0
  0
INSERT
  5
327A5
330
31CCE
100
AcDbEntity
  8
AM_5
100
AcDbBlockReference
  2
_Dot
 10
3056.575477517559
 20
2024.544061697452
 30
0.0
 50
90.0
  0
MTEXT
  5
327A6
330
31CCE
100
AcDbEntity
  8
AM_5
 62
     2
100
AcDbMText
 10
3053.975477517559
 20
2006.770932300184
 30
0.0
 40
3.200000000000001
 41
0.0
 71
     5
 72
     1
  1
L2
 11
0.0000000000000001
 21
1.0
 31
0.0
 73
     1
 44
1.0
1001
ACAD
1000
MTEXTBEGIN
1070
    73
1070
     1
1070
    44
1040
1.0
1070
    74
1070
     0
1000
MTEXTEND
  0
POINT
  5
327A7
330
31CCE
100
AcDbEntity
  8
Defpoints
 62
     0
100
AcDbPoint
 10
3025.575477652277
 20
1988.544061697452
 30
0.0
  0
POINT
  5
327A8
330
31CCE
100
AcDbEntity
  8
Defpoints
 62
     0
100
AcDbPoint
 10
3028.77547751756
 20
2024.544061697452
 30
0.0
  0
POINT
  5
327A9
330
31CCE
100
AcDbEntity
  8
Defpoints
 62
     0
100
AcDbPoint
 10
3056.575477517559
 20
2024.544061697452
 30
0.0
  0
ENDBLK
  5
31CD9
330
31CCE
100
AcDbEntity
  8
0
100
AcDbBlockEnd
  0
BLOCK
  5
320B2
330
320AB
100
AcDbEntity
  8
0
100
AcDbBlockBegin
  2
*D17
 70
     1
 10
0.0
 20
0.0
 30
0.0
  3
*D17
  1

  0
LINE
  5
32690
330
320AB
100
AcDbEntity
  8
AM_5
100
AcDbLine
 10
2915.940979880092
 20
2003.416013870347
 30
0.0
 11
2911.314313213424
 21
2003.416013870347
 31
0.0
  0
LINE
  5
32691
330
320AB
100
AcDbEntity
  8
AM_5
100
AcDbLine
 10
2911.314313213424
 20
2003.416013870347
 30
0.0
 11
2907.022643878259
 21
1998.564887363709
 31
0.0
  0
LINE
  5
32692
330
320AB
100
AcDbEntity
  8
AM_5
100
AcDbLine
 10
2893.770667012308
 20
1983.585397748095
 30
0.0
 11
2893.10806816901
 21
1982.836423267315
 31
0.0
  0
MTEXT
  5
32693
330
320AB
100
AcDbEntity
  8
AM_5
 62
     2
100
AcDbMText
 10
2914.127646546758
 20
2006.016013870348
 30
0.0
 40
3.2
 41
0.0
 71
     5
 72
     1
  1
%%cB
 73
     1
 44
1.0
1001
ACAD
1000
MTEXTBEGIN
1070
    73
1070
     1
1070
    44
1040
1.0
1070
    74
1070
     0
1000
MTEXTEND
  0
LINE
  5
32694
330
320AB
100
AcDbEntity
  8
AM_5
100
AcDbLine
 10
2894.433265855605
 20
1984.334372228876
 30
0.0
 11
2906.360045034962
 21
1997.815912882929
 31
0.0
  0
INSERT
  5
32695
330
320AB
100
AcDbEntity
  8
AM_5
100
AcDbBlockReference
  2
_Dot
 10
2894.433265855605
 20
1984.334372228876
 30
0.0
 50
48.50162217480527
  0
INSERT
  5
32696
330
320AB
100
AcDbEntity
  8
AM_5
100
AcDbBlockReference
  2
_Dot
 10
2906.360045034962
 20
1997.815912882929
 30
0.0
 50
228.5016221748053
  0
POINT
  5
32697
330
320AB
100
AcDbEntity
  8
Defpoints
 62
     0
100
AcDbPoint
 10
2906.360045034962
 20
1997.815912882929
 30
0.0
  0
POINT
  5
32698
330
320AB
100
AcDbEntity
  8
Defpoints
 62
     0
100
AcDbPoint
 10
2894.433265855605
 20
1984.334372228876
 30
0.0
  0
ENDBLK
  5
320B3
330
320AB
100
AcDbEntity
  8
0
100
AcDbBlockEnd
  0
BLOCK
  5
32102
330
320FB
100
AcDbEntity
  8
0
100
AcDbBlockBegin
  2
*D18
 70
     1
 10
0.0
 20
0.0
 30
0.0
  3
*D18
  1

  0
LINE
  5
32699
330
320FB
100
AcDbEntity
  8
AM_5
100
AcDbLine
 10
2875.712373794127
 20
1980.404818026294
 30
0.0
 11
2887.699040460795
 21
1980.404818026294
 31
0.0
  0
LINE
  5
3269A
330
320FB
100
AcDbEntity
  8
AM_5
100
AcDbLine
 10
2887.699040460795
 20
1980.404818026294
 30
0.0
 11
2891.015948295406
 21
1984.578749328395
 31
0.0
  0
LINE
  5
3269B
330
320FB
100
AcDbEntity
  8
AM_5
100
AcDbLine
 10
2894.188905327047
 20
1988.571535783412
 30
0.0
 11
2894.811053764623
 21
1989.354435088317
 31
0.0
  0
MTEXT
  5
3269C
330
320FB
100
AcDbEntity
  8
AM_5
 62
     2
100
AcDbMText
 10
2881.20570712746
 20
1983.004818026294
 30
0.0
 40
3.2
 41
0.0
 71
     5
 72
     1
  1
3-\U+22053.1
 73
     1
 44
1.0
1001
ACAD
1000
MTEXTBEGIN
1070
    73
1070
     1
1070
    44
1040
1.0
1070
    74
1070
     0
1000
MTEXTEND
  0
LINE
  5
3269D
330
320FB
100
AcDbEntity
  8
AM_5
100
AcDbLine
 10
2893.56675688947
 20
1987.788636478506
 30
0.0
 11
2891.638096732983
 21
1985.3616486333
 31
0.0
  0
INSERT
  5
3269E
330
320FB
100
AcDbEntity
  8
AM_5
100
AcDbBlockReference
  2
_Dot
 10
2893.56675688947
 20
1987.788636478506
 30
0.0
 50
231.5268049316919
  0
INSERT
  5
3269F
330
320FB
100
AcDbEntity
  8
AM_5
100
AcDbBlockReference
  2
_Dot
 10
2891.638096732983
 20
1985.3616486333
 30
0.0
 50
51.52680493169192
  0
POINT
  5
326A0
330
320FB
100
AcDbEntity
  8
Defpoints
 62
     0
100
AcDbPoint
 10
2891.638096732983
 20
1985.3616486333
 30
0.0
  0
POINT
  5
326A1
330
320FB
100
AcDbEntity
  8
Defpoints
 62
     0
100
AcDbPoint
 10
2893.56675688947
 20
1987.788636478506
 30
0.0
  0
ENDBLK
  5
32103
330
320FB
100
AcDbEntity
  8
0
100
AcDbBlockEnd
  0
BLOCK
  5
3218C
330
32182
100
AcDbEntity
  8
0
100
AcDbBlockBegin
  2
*D19
 70
     1
 10
0.0
 20
0.0
 30
0.0
  3
*D19
  1

  0
LINE
  5
32661
330
32182
100
AcDbEntity
  8
AM_5
100
AcDbLine
 10
2887.896655445286
 20
1949.316748342676
 30
0.0
 11
2887.896655445286
 21
1941.316748342676
 31
0.0
  0
LINE
  5
32662
330
32182
100
AcDbEntity
  8
AM_5
100
AcDbLine
 10
2912.896655445285
 20
1949.316748342676
 30
0.0
 11
2912.896655445285
 21
1941.316748342676
 31
0.0
  0
LINE
  5
32663
330
32182
100
AcDbEntity
  8
AM_5
100
AcDbLine
 10
2888.896655445286
 20
1942.316748342676
 30
0.0
 11
2911.896655445286
 21
1942.316748342676
 31
0.0
  0
INSERT
  5
32664
330
32182
100
AcDbEntity
  8
AM_5
100
AcDbBlockReference
  2
_Dot
 10
2887.896655445286
 20
1942.316748342676
 30
0.0
 50
180.0
  0
INSERT
  5
32665
330
32182
100
AcDbEntity
  8
AM_5
100
AcDbBlockReference
  2
_Dot
 10
2912.896655445285
 20
1942.316748342676
 30
0.0
  0
MTEXT
  5
32666
330
32182
100
AcDbEntity
  8
AM_5
 62
     2
100
AcDbMText
 10
2900.396655445286
 20
1944.916748342676
 30
0.0
 40
3.200000000000001
 41
0.0
 71
     5
 72
     1
  1
%%cC
 73
     1
 44
1.0
1001
ACAD
1000
MTEXTBEGIN
1070
    73
1070
     1
1070
    44
1040
1.0
1070
    74
1070
     0
1000
MTEXTEND
  0
POINT
  5
32667
330
32182
100
AcDbEntity
  8
Defpoints
 62
     0
100
AcDbPoint
 10
2887.896655445286
 20
1950.316748342676
 30
0.0
  0
POINT
  5
32668
330
32182
100
AcDbEntity
  8
Defpoints
 62
     0
100
AcDbPoint
 10
2912.896655445285
 20
1950.316748342676
 30
0.0
  0
POINT
  5
32669
330
32182
100
AcDbEntity
  8
Defpoints
 62
     0
100
AcDbPoint
 10
2912.896655445285
 20
1942.316748342676
 30
0.0
  0
ENDBLK
  5
3218D
330
32182
100
AcDbEntity
  8
0
100
AcDbBlockEnd
  0
BLOCK
  5
321A4
330
32198
100
AcDbEntity
  8
0
100
AcDbBlockBegin
  2
*D20
 70
     1
 10
0.0
 20
0.0
 30
0.0
  3
*D20
  1

  0
LINE
  5
3266A
330
32198
100
AcDbEntity
  8
AM_5
100
AcDbLine
 10
2913.896655445285
 20
1950.316748342676
 30
0.0
 11
2921.896655445286
 21
1950.316748342676
 31
0.0
  0
LINE
  5
3266B
330
32198
100
AcDbEntity
  8
AM_5
100
AcDbLine
 10
2913.896655445285
 20
1951.916748342676
 30
0.0
 11
2921.896655445286
 21
1951.916748342676
 31
0.0
  0
LINE
  5
3266C
330
32198
100
AcDbEntity
  8
AM_5
100
AcDbLine
 10
2920.896655445286
 20
1952.916748342676
 30
0.0
 11
2920.896655445286
 21
1953.916748342676
 31
0.0
  0
LINE
  5
3266D
330
32198
100
AcDbEntity
  8
AM_5
100
AcDbLine
 10
2920.896655445286
 20
1949.316748342676
 30
0.0
 11
2920.896655445286
 21
1945.439101796212
 31
0.0
  0
LINE
  5
3266E
330
32198
100
AcDbEntity
  8
AM_5
100
AcDbLine
 10
2920.896655445286
 20
1951.916748342676
 30
0.0
 11
2920.896655445286
 21
1950.316748342676
 31
0.0
  0
INSERT
  5
3266F
330
32198
100
AcDbEntity
  8
AM_5
100
AcDbBlockReference
  2
_Dot
 10
2920.896655445286
 20
1951.916748342676
 30
0.0
 50
270.0
  0
INSERT
  5
32670
330
32198
100
AcDbEntity
  8
AM_5
100
AcDbBlockReference
  2
_Dot
 10
2920.896655445286
 20
1950.316748342676
 30
0.0
 50
90.0
  0
MTEXT
  5
32671
330
32198
100
AcDbEntity
  8
AM_5
 62
     2
100
AcDbMText
 10
2918.296655445286
 20
1946.865768462879
 30
0.0
 40
3.200000000000001
 41
0.0
 71
     5
 72
     1
  1
t
 11
0.0000000000000001
 21
1.0
 31
0.0
 73
     1
 44
1.0
1001
ACAD
1000
MTEXTBEGIN
1070
    73
1070
     1
1070
    44
1040
1.0
1070
    74
1070
     0
1000
MTEXTEND
  0
POINT
  5
32672
330
32198
100
AcDbEntity
  8
Defpoints
 62
     0
100
AcDbPoint
 10
2912.896655445285
 20
1950.316748342676
 30
0.0
  0
POINT
  5
32673
330
32198
100
AcDbEntity
  8
Defpoints
 62
     0
100
AcDbPoint
 10
2912.896655445285
 20
1951.916748342676
 30
0.0
  0
POINT
  5
32674
330
32198
100
AcDbEntity
  8
Defpoints
 62
     0
100
AcDbPoint
 10
2920.896655445286
 20
1951.916748342676
 30
0.0
  0
ENDBLK
  5
321A5
330
32198
100
AcDbEntity
  8
0
100
AcDbBlockEnd
  0
BLOCK
  5
321BC
330
321B2
100
AcDbEntity
  8
0
100
AcDbBlockBegin
  2
*D21
 70
     1
 10
0.0
 20
0.0
 30
0.0
  3
*D21
  1

  0
LINE
  5
32675
330
321B2
100
AcDbEntity
  8
AM_5
100
AcDbLine
 10
2913.896655445285
 20
1951.916748342676
 30
0.0
 11
2921.896655445286
 21
1951.916748342676
 31
0.0
  0
LINE
  5
32676
330
321B2
100
AcDbEntity
  8
AM_5
100
AcDbLine
 10
2907.096655445285
 20
1959.916748342676
 30
0.0
 11
2921.896655445286
 21
1959.916748342676
 31
0.0
  0
LINE
  5
32677
330
321B2
100
AcDbEntity
  8
AM_5
100
AcDbLine
 10
2920.896655445286
 20
1952.916748342676
 30
0.0
 11
2920.896655445286
 21
1958.916748342676
 31
0.0
  0
INSERT
  5
32678
330
321B2
100
AcDbEntity
  8
AM_5
100
AcDbBlockReference
  2
_Dot
 10
2920.896655445286
 20
1951.916748342676
 30
0.0
 50
270.0
  0
INSERT
  5
32679
330
321B2
100
AcDbEntity
  8
AM_5
100
AcDbBlockReference
  2
_Dot
 10
2920.896655445286
 20
1959.916748342676
 30
0.0
 50
90.0
  0
MTEXT
  5
3267A
330
321B2
100
AcDbEntity
  8
AM_5
 62
     2
100
AcDbMText
 10
2918.296655445286
 20
1955.916748342676
 30
0.0
 40
3.200000000000001
 41
0.0
 71
     5
 72
     1
  1
8
 11
0.0000000000000001
 21
1.0
 31
0.0
 73
     1
 44
1.0
1001
ACAD
1000
MTEXTBEGIN
1070
    73
1070
     1
1070
    44
1040
1.0
1070
    74
1070
     0
1000
MTEXTEND
  0
POINT
  5
3267B
330
321B2
100
AcDbEntity
  8
Defpoints
 62
     0
100
AcDbPoint
 10
2912.896655445285
 20
1951.916748342676
 30
0.0
  0
POINT
  5
3267C
330
321B2
100
AcDbEntity
  8
Defpoints
 62
     0
100
AcDbPoint
 10
2906.096655445285
 20
1959.916748342676
 30
0.0
  0
POINT
  5
3267D
330
321B2
100
AcDbEntity
  8
Defpoints
 62
     0
100
AcDbPoint
 10
2920.896655445286
 20
1959.916748342676
 30
0.0
  0
ENDBLK
  5
321BD
330
321B2
100
AcDbEntity
  8
0
100
AcDbBlockEnd
  0
BLOCK
  5
3222F
330
32225
100
AcDbEntity
  8
0
100
AcDbBlockBegin
  2
*D22
 70
     1
 10
0.0
 20
0.0
 30
0.0
  3
*D22
  1

  0
LINE
  5
3267E
330
32225
100
AcDbEntity
  8
AM_5
100
AcDbLine
 10
2894.696655445286
 20
1960.916748342676
 30
0.0
 11
2894.696655445286
 21
1968.916748342676
 31
0.0
  0
LINE
  5
3267F
330
32225
100
AcDbEntity
  8
AM_5
100
AcDbLine
 10
2906.096655445285
 20
1960.916748342676
 30
0.0
 11
2906.096655445285
 21
1968.916748342676
 31
0.0
  0
LINE
  5
32680
330
32225
100
AcDbEntity
  8
AM_5
100
AcDbLine
 10
2895.696655445286
 20
1967.916748342676
 30
0.0
 11
2905.096655445285
 21
1967.916748342676
 31
0.0
  0
INSERT
  5
32681
330
32225
100
AcDbEntity
  8
AM_5
100
AcDbBlockReference
  2
_Dot
 10
2894.696655445286
 20
1967.916748342676
 30
0.0
 50
180.0
  0
INSERT
  5
32682
330
32225
100
AcDbEntity
  8
AM_5
100
AcDbBlockReference
  2
_Dot
 10
2906.096655445285
 20
1967.916748342676
 30
0.0
  0
MTEXT
  5
32683
330
32225
100
AcDbEntity
  8
AM_5
 62
     2
100
AcDbMText
 10
2900.396655445286
 20
1970.516748342676
 30
0.0
 40
3.200000000000001
 41
0.0
 71
     5
 72
     1
  1
%%c11.4
 73
     1
 44
1.0
1001
ACAD
1000
MTEXTBEGIN
1070
    73
1070
     1
1070
    44
1040
1.0
1070
    74
1070
     0
1000
MTEXTEND
  0
POINT
  5
32684
330
32225
100
AcDbEntity
  8
Defpoints
 62
     0
100
AcDbPoint
 10
2894.696655445286
 20
1959.916748342676
 30
0.0
  0
POINT
  5
32685
330
32225
100
AcDbEntity
  8
Defpoints
 62
     0
100
AcDbPoint
 10
2906.096655445285
 20
1959.916748342676
 30
0.0
  0
POINT
  5
32686
330
32225
100
AcDbEntity
  8
Defpoints
 62
     0
100
AcDbPoint
 10
2906.096655445285
 20
1967.916748342676
 30
0.0
  0
ENDBLK
  5
32230
330
32225
100
AcDbEntity
  8
0
100
AcDbBlockEnd
  0
BLOCK
  5
3224B
330
32244
100
AcDbEntity
  8
0
100
AcDbBlockBegin
  2
*D23
 70
     1
 10
0.0
 20
0.0
 30
0.0
  3
*D23
  1

  0
LINE
  5
326A2
330
32244
100
AcDbEntity
  8
AM_5
100
AcDbLine
 10
2882.610409680564
 20
2003.705713098391
 30
0.0
 11
2887.557076347231
 21
2003.705713098391
 31
0.0
  0
LINE
  5
326A3
330
32244
100
AcDbEntity
  8
AM_5
100
AcDbLine
 10
2887.557076347231
 20
2003.705713098391
 30
0.0
 11
2896.832228887675
 21
1994.581545743701
 31
0.0
  0
LINE
  5
326A4
330
32244
100
AcDbEntity
  8
AM_5
100
AcDbLine
 10
2903.961082002894
 20
1987.568739368103
 30
0.0
 11
2904.673967314416
 21
1986.867458730543
 31
0.0
  0
MTEXT
  5
326A5
330
32244
100
AcDbEntity
  8
AM_5
 62
     2
100
AcDbMText
 10
2884.583743013897
 20
2006.305713098391
 30
0.0
 40
3.2
 41
0.0
 71
     5
 72
     1
  1
M8
 73
     1
 44
1.0
1001
ACAD
1000
MTEXTBEGIN
1070
    73
1070
     1
1070
    44
1040
1.0
1070
    74
1070
     0
1000
MTEXTEND
  0
LINE
  5
326A6
330
32244
100
AcDbEntity
  8
AM_5
100
AcDbLine
 10
2903.248196691372
 20
1988.270020005663
 30
0.0
 11
2897.545114199197
 21
1993.880265106141
 31
0.0
  0
INSERT
  5
326A7
330
32244
100
AcDbEntity
  8
AM_5
100
AcDbBlockReference
  2
_Dot
 10
2903.248196691372
 20
1988.270020005663
 30
0.0
 50
135.4701597554395
  0
INSERT
  5
326A8
330
32244
100
AcDbEntity
  8
AM_5
100
AcDbBlockReference
  2
_Dot
 10
2897.545114199197
 20
1993.880265106141
 30
0.0
 50
315.4701597554396
  0
POINT
  5
326A9
330
32244
100
AcDbEntity
  8
Defpoints
 62
     0
100
AcDbPoint
 10
2897.545114199197
 20
1993.880265106141
 30
0.0
  0
POINT
  5
326AA
330
32244
100
AcDbEntity
  8
Defpoints
 62
     0
100
AcDbPoint
 10
2903.248196691372
 20
1988.270020005663
 30
0.0
  0
ENDBLK
  5
3224C
330
32244
100
AcDbEntity
  8
0
100
AcDbBlockEnd
  0
ENDSEC
  0
SECTION
  2
ENTITIES
  0
TEXT
  5
31484
330
1F
100
AcDbEntity
  8
AM_6
 60
     1
100
AcDbText
 10
2875.56599107696
 20
1949.595140717809
 30
0.0
 40
2.5
  1
!GENTITLE-INSERT
100
AcDbText
  0
TEXT
  5
31485
330
1F
100
AcDbEntity
  8
AM_6
 60
     1
100
AcDbText
 10
2887.06599107696
 20
2151.095140717809
 30
0.0
 40
2.5
  1
!GENTITLE-MAX
100
AcDbText
  0
TEXT
  5
31486
330
1F
100
AcDbEntity
  8
AM_6
 60
     1
100
AcDbText
 10
2887.06599107696
 20
2151.095140717809
 30
0.0
 40
2.5
  1
!GENTITLE-RU
100
AcDbText
  0
LINE
  5
31487
330
1F
100
AcDbEntity
  8
size
100
AcDbLine
 10
2833.381357407375
 20
2093.647540913991
 30
0.0
 11
3130.381357407375
 21
2093.647540913991
 31
0.0
1001
GENIUS_GENREC_14
1002
{
1000
PYDIR
1011
2833.381357407375
1021
2180.647540913991
1031
0.0
1002
}
1002
{
1000
PXDIR
1011
3253.381357407376
1021
1883.647540913991
1031
0.0
1002
}
1002
{
1000
PORI
1011
2833.381357407375
1021
1883.647540913991
1031
0.0
1002
}
1002
{
1000
PINS
1011
3043.381357407375
1021
2032.147540913991
1031
0.0
1002
}
1002
{
1000
HVAL
1000
297
1002
}
1002
{
1000
H
1070
     2
1002
}
1002
{
1000
WVAL
1000
420
1002
}
1002
{
1000
W
1070
     2
1002
}
1002
{
1000
C
1070
     4
1002
}
1001
GENIUS_GENOBJ-N-REC_13
1002
{
1000
OWNER
1000
GEN
1002
}
1001
GENIUS_GENODEF_13
1002
{
1000
HIER
1070
     0
1002
}
1002
{
1000
MANEDIT
1070
     0
1002
}
1002
{
1000
NOSEL
1070
     0
1002
}
1002
{
1000
BEHIND
1070
     0
1002
}
1002
{
1000
OTHER
1070
     0
1002
}
1002
{
1000
REACTOR
1002
}
  0
TEXT
  5
31488
330
1F
100
AcDbEntity
  8
AM_6
 60
     1
100
AcDbText
 10
2590.06599107696
 20
1941.095140717809
 30
0.0
 40
2.5
  1
!GENTITLE-LL
100
AcDbText
  0
LINE
  5
31489
330
1F
100
AcDbEntity
  8
size
100
AcDbLine
 10
3130.381357407375
 20
2093.647540913991
 30
0.0
 11
3130.381357407375
 21
1883.647540913991
 31
0.0
1001
GENIUS_GENREC_14
1002
{
1000
PYDIR
1011
2833.381357407375
1021
2180.647540913991
1031
0.0
1002
}
1002
{
1000
PXDIR
1011
3253.381357407376
1021
1883.647540913991
1031
0.0
1002
}
1002
{
1000
PORI
1011
2833.381357407375
1021
1883.647540913991
1031
0.0
1002
}
1002
{
1000
PINS
1011
3043.381357407375
1021
2032.147540913991
1031
0.0
1002
}
1002
{
1000
HVAL
1000
297
1002
}
1002
{
1000
H
1070
     2
1002
}
1002
{
1000
WVAL
1000
420
1002
}
1002
{
1000
W
1070
     2
1002
}
1002
{
1000
C
1070
     4
1002
}
1001
GENIUS_GENOBJ-N-REC_13
1002
{
1000
OWNER
1000
GEN
1002
}
1001
GENIUS_GENODEF_13
1002
{
1000
HIER
1070
     0
1002
}
1002
{
1000
MANEDIT
1070
     0
1002
}
1002
{
1000
NOSEL
1070
     0
1002
}
1002
{
1000
BEHIND
1070
     0
1002
}
1002
{
1000
OTHER
1070
     0
1002
}
1002
{
1000
REACTOR
1002
}
  0
LINE
  5
3148A
330
1F
100
AcDbEntity
  8
waku
100
AcDbLine
 10
2844.881357407376
 20
1892.147540913991
 30
0.0
 11
3118.881357407375
 21
1892.147540913991
 31
0.0
1001
GENIUS_GENREC_14
1002
{
1000
PYDIR
1011
2833.381357407375
1021
2180.647540913991
1031
0.0
1002
}
1002
{
1000
PXDIR
1011
3253.381357407376
1021
1883.647540913991
1031
0.0
1002
}
1002
{
1000
PORI
1011
2833.381357407375
1021
1883.647540913991
1031
0.0
1002
}
1002
{
1000
PINS
1011
3043.381357407375
1021
2032.147540913991
1031
0.0
1002
}
1002
{
1000
HVAL
1000
297
1002
}
1002
{
1000
H
1070
     2
1002
}
1002
{
1000
WVAL
1000
420
1002
}
1002
{
1000
W
1070
     2
1002
}
1002
{
1000
C
1070
     4
1002
}
  0
LINE
  5
3148B
330
1F
100
AcDbEntity
  8
waku
100
AcDbLine
 10
3118.881357407375
 20
2085.147540913991
 30
0.0
 11
2844.881357407376
 21
2085.147540913991
 31
0.0
1001
GENIUS_GENREC_14
1002
{
1000
PYDIR
1011
2710.381357407375
1021
2093.647540913991
1031
0.0
1002
}
1002
{
1000
PXDIR
1011
3130.381357407375
1021
1796.647540913991
1031
0.0
1002
}
1002
{
1000
PORI
1011
2710.381357407375
1021
1796.647540913991
1031
0.0
1002
}
1002
{
1000
PINS
1011
2920.381357407375
1021
1945.147540913991
1031
0.0
1002
}
1002
{
1000
HVAL
1000
297
1002
}
1002
{
1000
H
1070
     2
1002
}
1002
{
1000
WVAL
1000
420
1002
}
1002
{
1000
W
1070
     2
1002
}
1002
{
1000
C
1070
     4
1002
}
1001
GENIUS_GENOBJ-N-REC_13
1002
{
1000
OWNER
1000
GEN
1002
}
1001
GENIUS_GENODEF_13
1002
{
1000
HIER
1070
     0
1002
}
1002
{
1000
MANEDIT
1070
     0
1002
}
1002
{
1000
NOSEL
1070
     0
1002
}
1002
{
1000
BEHIND
1070
     0
1002
}
1002
{
1000
OTHER
1070
     0
1002
}
1002
{
1000
REACTOR
1002
}
  0
LINE
  5
3148C
330
1F
100
AcDbEntity
  8
waku
100
AcDbLine
 10
2844.881357407376
 20
2085.147540913991
 30
0.0
 11
2844.881357407376
 21
1892.147540913991
 31
0.0
1001
GENIUS_GENREC_14
1002
{
1000
PYDIR
1011
2833.381357407375
1021
2180.647540913991
1031
0.0
1002
}
1002
{
1000
PXDIR
1011
3253.381357407376
1021
1883.647540913991
1031
0.0
1002
}
1002
{
1000
PORI
1011
2833.381357407375
1021
1883.647540913991
1031
0.0
1002
}
1002
{
1000
PINS
1011
3043.381357407375
1021
2032.147540913991
1031
0.0
1002
}
1002
{
1000
HVAL
1000
297
1002
}
1002
{
1000
H
1070
     2
1002
}
1002
{
1000
WVAL
1000
420
1002
}
1002
{
1000
W
1070
     2
1002
}
1002
{
1000
C
1070
     4
1002
}
1001
GENIUS_GENOBJ-N-REC_13
1002
{
1000
OWNER
1000
GEN
1002
}
1001
GENIUS_GENODEF_13
1002
{
1000
HIER
1070
     0
1002
}
1002
{
1000
MANEDIT
1070
     0
1002
}
1002
{
1000
NOSEL
1070
     0
1002
}
1002
{
1000
BEHIND
1070
     0
1002
}
1002
{
1000
OTHER
1070
     0
1002
}
1002
{
1000
REACTOR
1002
}
  0
LINE
  5
3148D
330
1F
100
AcDbEntity
  8
waku
100
AcDbLine
 10
3118.881357407375
 20
1892.147540913991
 30
0.0
 11
3118.881357407375
 21
2085.147540913991
 31
0.0
1001
GENIUS_GENREC_14
1002
{
1000
PYDIR
1011
2710.381357407375
1021
2099.647540913991
1031
0.0
1002
}
1002
{
1000
PXDIR
1011
3130.381357407375
1021
1802.647540913991
1031
0.0
1002
}
1002
{
1000
PORI
1011
2710.381357407375
1021
1802.647540913991
1031
0.0
1002
}
1002
{
1000
PINS
1011
2920.381357407375
1021
1951.147540913991
1031
0.0
1002
}
1002
{
1000
HVAL
1000
297
1002
}
1002
{
1000
H
1070
     2
1002
}
1002
{
1000
WVAL
1000
420
1002
}
1002
{
1000
W
1070
     2
1002
}
1002
{
1000
C
1070
     4
1002
}
1001
GENIUS_GENOBJ-N-REC_13
1002
{
1000
OWNER
1000
GEN
1002
}
1001
GENIUS_GENODEF_13
1002
{
1000
HIER
1070
     0
1002
}
1002
{
1000
MANEDIT
1070
     0
1002
}
1002
{
1000
NOSEL
1070
     0
1002
}
1002
{
1000
BEHIND
1070
     0
1002
}
1002
{
1000
OTHER
1070
     0
1002
}
1002
{
1000
REACTOR
1002
}
  0
LINE
  5
3148E
330
1F
100
AcDbEntity
  8
size
100
AcDbLine
 10
2833.381357407375
 20
2093.647540913991
 30
0.0
 11
2833.381357407375
 21
1883.647540913991
 31
0.0
1001
GENIUS_GENREC_14
1002
{
1000
PYDIR
1011
2833.381357407375
1021
2180.647540913991
1031
0.0
1002
}
1002
{
1000
PXDIR
1011
3253.381357407376
1021
1883.647540913991
1031
0.0
1002
}
1002
{
1000
PORI
1011
2833.381357407375
1021
1883.647540913991
1031
0.0
1002
}
1002
{
1000
PINS
1011
3043.381357407375
1021
2032.147540913991
1031
0.0
1002
}
1002
{
1000
HVAL
1000
297
1002
}
1002
{
1000
H
1070
     2
1002
}
1002
{
1000
WVAL
1000
420
1002
}
1002
{
1000
W
1070
     2
1002
}
1002
{
1000
C
1070
     4
1002
}
1001
GENIUS_GENOBJ-N-REC_13
1002
{
1000
OWNER
1000
GEN
1002
}
1001
GENIUS_GENODEF_13
1002
{
1000
HIER
1070
     0
1002
}
1002
{
1000
MANEDIT
1070
     0
1002
}
1002
{
1000
NOSEL
1070
     0
1002
}
1002
{
1000
BEHIND
1070
     0
1002
}
1002
{
1000
OTHER
1070
     0
1002
}
1002
{
1000
REACTOR
1002
}
  0
LINE
  5
3148F
330
1F
100
AcDbEntity
  8
size
100
AcDbLine
 10
2833.381357407375
 20
1883.647540913991
 30
0.0
 11
3130.381357407375
 21
1883.647540913991
 31
0.0
1001
GENIUS_GENREC_14
1002
{
1000
PYDIR
1011
2833.381357407375
1021
2180.647540913991
1031
0.0
1002
}
1002
{
1000
PXDIR
1011
3253.381357407376
1021
1883.647540913991
1031
0.0
1002
}
1002
{
1000
PORI
1011
2833.381357407375
1021
1883.647540913991
1031
0.0
1002
}
1002
{
1000
PINS
1011
3043.381357407375
1021
2032.147540913991
1031
0.0
1002
}
1002
{
1000
HVAL
1000
297
1002
}
1002
{
1000
H
1070
     2
1002
}
1002
{
1000
WVAL
1000
420
1002
}
1002
{
1000
W
1070
     2
1002
}
1002
{
1000
C
1070
     4
1002
}
1001
GENIUS_GENOBJ-N-REC_13
1002
{
1000
OWNER
1000
GEN
1002
}
1001
GENIUS_GENODEF_13
1002
{
1000
HIER
1070
     0
1002
}
1002
{
1000
MANEDIT
1070
     0
1002
}
1002
{
1000
NOSEL
1070
     0
1002
}
1002
{
1000
BEHIND
1070
     0
1002
}
1002
{
1000
OTHER
1070
     0
1002
}
1002
{
1000
REACTOR
1002
}
  0
LINE
  5
314C4
330
1F
100
AcDbEntity
  8
AM_2
370
    13
100
AcDbLine
 10
2864.881357407375
 20
2085.147540913991
 30
0.0
 11
2864.881357407376
 21
2037.414207580656
 31
0.0
  0
LINE
  5
314C5
330
1F
100
AcDbEntity
  8
AM_2
370
    13
100
AcDbLine
 10
2844.881357407376
 20
2077.147540913991
 30
0.0
 11
2927.881357407375
 21
2077.147540913991
 31
0.0
  0
LINE
  5
314C6
330
1F
100
AcDbEntity
  8
AM_2
370
    13
100
AcDbLine
 10
2844.881357407376
 20
2069.147540913991
 30
0.0
 11
2927.881357407375
 21
2069.147540913991
 31
0.0
  0
LINE
  5
314C7
330
1F
100
AcDbEntity
  8
AM_2
370
    13
100
AcDbLine
 10
2844.881357407376
 20
2053.414207580657
 30
0.0
 11
2927.881357407376
 21
2053.414207580657
 31
0.0
  0
LINE
  5
314C8
330
1F
100
AcDbEntity
  8
AM_2
370
    13
100
AcDbLine
 10
2844.881357407376
 20
2045.414207580657
 30
0.0
 11
2927.881357407376
 21
2045.414207580657
 31
0.0
  0
LINE
  5
314C9
330
1F
100
AcDbEntity
  8
AM_0
100
AcDbLine
 10
2844.881357407376
 20
2085.147540913991
 30
0.0
 11
2844.881357407376
 21
2044.880874247327
 31
0.0
  0
LINE
  5
314CA
330
1F
100
AcDbEntity
  8
AM_0
100
AcDbLine
 10
2844.881357407376
 20
2085.147540913991
 30
0.0
 11
2927.881357407375
 21
2085.147540913991
 31
0.0
  0
LINE
  5
314CB
330
1F
100
AcDbEntity
  8
AM_1
100
AcDbLine
 10
2927.881357407375
 20
2085.147540913991
 30
0.0
 11
2927.881357407376
 21
2037.414207580656
 31
0.0
  0
TEXT
  5
314CC
330
1F
100
AcDbEntity
  8
AM_6
100
AcDbText
 10
2850.538357407376
 20
2079.547540913991
 30
0.0
 40
3.2
  1
品　名
 41
0.85537027
100
AcDbText
  0
TEXT
  5
314CD
330
1F
100
AcDbEntity
  8
AM_6
100
AcDbText
 10
2850.538357407376
 20
2071.547540913991
 30
0.0
 40
3.2
  1
品　番
 41
0.85537027
100
AcDbText
  0
TEXT
  5
314CE
330
1F
100
AcDbEntity
  8
AM_6
100
AcDbText
 10
2850.538357407377
 20
2063.547540913991
 30
0.0
 40
3.2
  1
材　質
 41
0.85537027
100
AcDbText
  0
TEXT
  5
314CF
330
1F
100
AcDbEntity
  8
AM_6
100
AcDbText
 10
2850.538357407377
 20
2047.814207580656
 30
0.0
 40
3.2
  1
仕上げ
 41
0.85537027
100
AcDbText
  0
TEXT
  5
314D0
330
1F
100
AcDbEntity
  8
AM_6
100
AcDbText
 10
2867.738357407375
 20
2079.547540913991
 30
0.0
 40
3.2
  1
フットボルト
 41
0.84306961
100
AcDbText
  0
TEXT
  5
314D1
330
1F
100
AcDbEntity
  8
AM_6
100
AcDbText
 10
2867.738357407375
 20
2071.547540913991
 30
0.0
 40
3.2
  1
EA14-「 」
 41
0.84741102
100
AcDbText
  0
TEXT
  5
314D2
330
1F
100
AcDbEntity
  8
AM_6
100
AcDbText
 10
2867.738357407376
 20
2063.547540913991
 30
0.0
 40
3.2
  1
シャフト：スチール
 41
0.84634979
100
AcDbText
  0
TEXT
  5
314D3
330
1F
100
AcDbEntity
  8
AM_6
100
AcDbText
 10
2867.738357407376
 20
2047.814207580656
 30
0.0
 40
3.2
  1
有色クロメート
 41
0.84350122
100
AcDbText
  0
TEXT
  5
314D8
330
1F
100
AcDbEntity
  8
AM_6
100
AcDbText
 10
2867.738357407375
 20
2055.547540913991
 30
0.0
 40
3.2
  1
フット：軟質塩化ビニル
 41
0.84634979
100
AcDbText
  0
LINE
  5
314DE
330
1F
100
AcDbEntity
  8
0部品1
100
AcDbLine
 10
2971.346674046015
 20
1992.044061697452
 30
0.0
 11
2971.346674046015
 21
1997.544061697452
 31
0.0
  0
LINE
  5
314DF
330
1F
100
AcDbEntity
  8
0部品1
100
AcDbLine
 10
2949.346674046015
 20
1988.044061697452
 30
0.0
 11
2967.346674046014
 21
1988.044061697452
 31
0.0
  0
ARC
  5
314E0
330
1F
100
AcDbEntity
  8
0部品1
100
AcDbCircle
 10
2967.346674046014
 20
1992.044061697452
 30
0.0
 40
4.0
100
AcDbArc
 50
270.0
 51
0.0
  0
LINE
  5
314E1
330
1F
100
AcDbEntity
  8
0部品1
100
AcDbLine
 10
2945.346674046014
 20
1997.544061697452
 30
0.0
 11
2971.346674046015
 21
1997.544061697452
 31
0.0
  0
ARC
  5
314E2
330
1F
100
AcDbEntity
  8
0部品1
100
AcDbCircle
 10
2949.346674046015
 20
1992.044061697452
 30
0.0
 40
4.0
100
AcDbArc
 50
180.0
 51
270.0
  0
LINE
  5
314E3
330
1F
100
AcDbEntity
  8
0部品2
100
AcDbLine
 10
2961.546674046014
 20
2024.544061697453
 30
0.0
 11
2962.346674046015
 21
2023.744061697453
 31
0.0
  0
LINE
  5
314E6
330
1F
100
AcDbEntity
  8
0部品2
  6
細線
 48
0.3
370
    13
100
AcDbLine
 10
2961.546674046014
 20
2024.544061697453
 30
0.0
 11
2961.546674046014
 21
1997.544061697452
 31
0.0
  0
LINE
  5
314E7
330
1F
100
AcDbEntity
  8
0部品2
100
AcDbLine
 10
2962.346674046015
 20
2023.744061697453
 30
0.0
 11
2962.346674046015
 21
1997.544061697452
 31
0.0
  0
LINE
  5
314E8
330
1F
100
AcDbEntity
  8
0部品1
100
AcDbLine
 10
2945.346674046014
 20
1992.044061697452
 30
0.0
 11
2945.346674046014
 21
1997.544061697452
 31
0.0
  0
LINE
  5
314EB
330
1F
100
AcDbEntity
  8
0部品2
100
AcDbLine
 10
2955.146674046014
 20
2024.544061697453
 30
0.0
 11
2954.346674046015
 21
2023.744061697453
 31
0.0
  0
LINE
  5
314EC
330
1F
100
AcDbEntity
  8
0部品2
100
AcDbLine
 10
2962.346674046015
 20
2023.744061697453
 30
0.0
 11
2954.346674046015
 21
2023.744061697453
 31
0.0
  0
LINE
  5
314ED
330
1F
100
AcDbEntity
  8
0部品2
100
AcDbLine
 10
2954.346674046015
 20
2023.744061697453
 30
0.0
 11
2954.346674046015
 21
1997.544061697452
 31
0.0
  0
LINE
  5
314EE
330
1F
100
AcDbEntity
  8
0部品2
  6
細線
 48
0.3
370
    13
100
AcDbLine
 10
2955.146674046014
 20
2024.544061697453
 30
0.0
 11
2955.146674046014
 21
1997.544061697452
 31
0.0
  0
LINE
  5
314EF
330
1F
100
AcDbEntity
  8
0部品2
100
AcDbLine
 10
2961.546674046014
 20
2024.544061697452
 30
0.0
 11
2955.146674046014
 21
2024.544061697453
 31
0.0
  0
CIRCLE
  5
314F0
330
1F
100
AcDbEntity
  8
0部品1
100
AcDbCircle
 10
2958.346674046015
 20
2058.213225673939
 30
0.0
 40
13.0
  0
CIRCLE
  5
314F1
330
1F
100
AcDbEntity
  8
0部品2
  6
細線
 48
0.3
370
    13
100
AcDbCircle
 10
2958.346674046015
 20
2058.213225673939
 30
0.0
 40
3.2
  0
CIRCLE
  5
314F2
330
1F
100
AcDbEntity
  8
0部品2
100
AcDbCircle
 10
2958.346674046015
 20
2058.213225673939
 30
0.0
 40
4.0
  0
LINE
  5
314F3
330
1F
100
AcDbEntity
  8
0部品1
  6
中心線1
 48
0.5
370
    13
100
AcDbLine
 10
2958.346674046015
 20
2074.213225673939
 30
0.0
 11
2958.346674046015
 21
2042.213225673939
 31
0.0
  0
LINE
  5
314F4
330
1F
100
AcDbEntity
  8
0部品1
  6
中心線1
 48
0.5
370
    13
100
AcDbLine
 10
2974.346674046015
 20
2058.213225673939
 30
0.0
 11
2942.346674046015
 21
2058.213225673939
 31
0.0
  0
LINE
  5
314F5
330
1F
100
AcDbEntity
  8
0部品1
  6
中心線1
 48
0.5
370
    13
100
AcDbLine
 10
2958.346674046015
 20
1985.044061697452
 30
0.0
 11
2958.346674046015
 21
2027.544061697453
 31
0.0
  0
DIMENSION
  5
31586
330
1F
100
AcDbEntity
  8
AM_5
100
AcDbDimension
  2
*D7
 10
2979.346674046015
 20
1988.044061697452
 30
0.0
 11
2979.346674046015
 21
1992.794061697452
 31
0.0
 70
   160
  1
I
 71
     5
 42
9.5
  3
SYS$0
100
AcDbAlignedDimension
 13
2971.346674046015
 23
1997.544061697452
 33
0.0
 14
2967.346674046014
 24
1988.044061697452
 34
0.0
 50
90.0
100
AcDbRotatedDimension
  0
DIMENSION
  5
3159C
330
1F
100
AcDbEntity
  8
AM_5
100
AcDbDimension
  2
*D8
 10
2979.346674046015
 20
2024.544061697452
 30
0.0
 11
2979.346674046015
 21
2011.044061697452
 31
0.0
 70
   160
  1
L1
 71
     5
 42
26.99999999999955
  3
SYS$0
100
AcDbAlignedDimension
 13
2971.346674046015
 23
1997.544061697452
 33
0.0
 14
2961.546674046014
 24
2024.544061697452
 34
0.0
 50
90.0
100
AcDbRotatedDimension
  0
DIMENSION
  5
315B2
330
1F
100
AcDbEntity
  8
AM_5
100
AcDbDimension
  2
*D9
 10
2971.346674046015
 20
1980.044061697452
 30
0.0
 11
2958.346674046015
 21
1980.044061697452
 31
0.0
 70
   160
  1
%%cA
 71
     5
 42
26.0
  3
SYS$0
100
AcDbAlignedDimension
 13
2945.346674046014
 23
1992.044061697452
 33
0.0
 14
2971.346674046015
 24
1992.044061697452
 34
0.0
100
AcDbRotatedDimension
  0
DIMENSION
  5
315C8
330
1F
100
AcDbEntity
  8
AM_5
100
AcDbDimension
  2
*D10
 10
2954.346674046015
 20
2032.544061697453
 30
0.0
 11
2958.346674046014
 21
2032.544061697453
 31
0.0
 70
   160
  1
D
 71
     5
 42
8.0
  3
SYS$0
100
AcDbAlignedDimension
 13
2962.346674046015
 23
2023.744061697453
 33
0.0
 14
2954.346674046015
 24
2023.744061697453
 34
0.0
100
AcDbRotatedDimension
  0
LINE
  5
3165B
330
1F
100
AcDbEntity
  8
0部品1
100
AcDbLine
 10
3010.575477517559
 20
1993.563347697452
 30
0.0
 11
3010.575477517559
 21
1992.702905697452
 31
0.0
  0
ARC
  5
3165C
330
1F
100
AcDbEntity
  8
0部品1
100
AcDbCircle
 10
3012.77547751756
 20
1993.563347697452
 30
0.0
 40
2.2
100
AcDbArc
 50
107.4014790000371
 51
180.0
  0
ARC
  5
3165D
330
1F
100
AcDbEntity
  8
0部品1
100
AcDbCircle
 10
3012.77547751756
 20
1992.702905697452
 30
0.0
 40
2.2
100
AcDbArc
 50
180.0
 51
252.5985209999628
  0
LINE
  5
3165E
330
1F
100
AcDbEntity
  8
0部品2
100
AcDbLine
 10
3022.375477517559
 20
2024.544061697452
 30
0.0
 11
3021.575477517559
 21
2023.744061697453
 31
0.0
  0
LINE
  5
31662
330
1F
100
AcDbEntity
  8
0部品2
  6
細線
 48
0.3
370
    13
100
AcDbLine
 10
3022.375477517559
 20
2024.544061697452
 30
0.0
 11
3022.375477517559
 21
1997.544061697452
 31
0.0
  0
LINE
  5
31663
330
1F
100
AcDbEntity
  8
0部品2
100
AcDbLine
 10
3021.575477517559
 20
2023.744061697453
 30
0.0
 11
3021.575477517559
 21
1997.544061697452
 31
0.0
  0
ARC
  5
31665
330
1F
100
AcDbEntity
  8
0部品1
100
AcDbCircle
 10
3025.575477517559
 20
1952.722191697452
 30
0.0
 40
45.0
100
AcDbArc
 50
95.09968899999563
 51
107.4014790000371
  0
LINE
  5
31666
330
1F
100
AcDbEntity
  8
0部品1
100
AcDbLine
 10
3029.575477517559
 20
1997.544061697452
 30
0.0
 11
3021.575477517559
 21
1997.544061697452
 31
0.0
  0
ARC
  5
31667
330
1F
100
AcDbEntity
  8
0部品1
100
AcDbCircle
 10
3038.375477517559
 20
1993.563347697452
 30
0.0
 40
2.2
100
AcDbArc
 50
0.0
 51
72.59852099996284
  0
ARC
  5
31668
330
1F
100
AcDbEntity
  8
0部品1
100
AcDbCircle
 10
3038.375477517559
 20
1992.702905697452
 30
0.0
 40
2.2
100
AcDbArc
 50
287.4014790000371
 51
0.0
  0
ARC
  5
31669
330
1F
100
AcDbEntity
  8
0部品1
100
AcDbCircle
 10
3025.575477517559
 20
1952.722191697452
 30
0.0
 40
45.0
100
AcDbArc
 50
72.59852099996284
 51
84.90031100000436
  0
ARC
  5
3166A
330
1F
100
AcDbEntity
  8
0部品1
100
AcDbCircle
 10
3025.575477517559
 20
2033.544061697452
 30
0.0
 40
45.0
100
AcDbArc
 50
252.59852134302
 51
287.4014790000371
  0
LINE
  5
3166B
330
1F
100
AcDbEntity
  8
0部品1
100
AcDbLine
 10
3040.575477517559
 20
1993.563347697452
 30
0.0
 11
3040.575477517559
 21
1992.702905697452
 31
0.0
  0
LINE
  5
3166C
330
1F
100
AcDbEntity
  8
0部品2
100
AcDbLine
 10
3028.77547751756
 20
2024.544061697452
 30
0.0
 11
3029.575477517559
 21
2023.744061697453
 31
0.0
  0
LINE
  5
3166D
330
1F
100
AcDbEntity
  8
0部品2
100
AcDbLine
 10
3021.575477517559
 20
2023.744061697453
 30
0.0
 11
3029.575477517559
 21
2023.744061697453
 31
0.0
  0
LINE
  5
3166E
330
1F
100
AcDbEntity
  8
0部品2
100
AcDbLine
 10
3029.575477517559
 20
2023.744061697453
 30
0.0
 11
3029.575477517559
 21
1997.544061697452
 31
0.0
  0
LINE
  5
3166F
330
1F
100
AcDbEntity
  8
0部品2
  6
細線
 48
0.3
370
    13
100
AcDbLine
 10
3028.77547751756
 20
2024.544061697452
 30
0.0
 11
3028.77547751756
 21
1997.544061697452
 31
0.0
  0
LINE
  5
31670
330
1F
100
AcDbEntity
  8
0部品2
100
AcDbLine
 10
3022.375477517559
 20
2024.544061697452
 30
0.0
 11
3028.77547751756
 21
2024.544061697452
 31
0.0
  0
CIRCLE
  5
31671
330
1F
100
AcDbEntity
  8
0部品1
100
AcDbCircle
 10
3025.575477517559
 20
2058.213225673939
 30
0.0
 40
15.0
  0
CIRCLE
  5
31672
330
1F
100
AcDbEntity
  8
0部品2
  6
細線
 48
0.3
370
    13
100
AcDbCircle
 10
3025.575477517559
 20
2058.213225673939
 30
0.0
 40
3.2
  0
CIRCLE
  5
31673
330
1F
100
AcDbEntity
  8
0部品2
100
AcDbCircle
 10
3025.575477517559
 20
2058.213225673939
 30
0.0
 40
4.0
  0
LINE
  5
31674
330
1F
100
AcDbEntity
  8
0部品1
  6
中心線1
 48
0.5
370
    13
100
AcDbLine
 10
3025.575477517559
 20
2076.213225673939
 30
0.0
 11
3025.575477517559
 21
2040.213225673939
 31
0.0
  0
LINE
  5
31675
330
1F
100
AcDbEntity
  8
0部品1
  6
中心線1
 48
0.5
370
    13
100
AcDbLine
 10
3007.575477517559
 20
2058.213225673939
 30
0.0
 11
3043.575477517559
 21
2058.213225673939
 31
0.0
  0
LINE
  5
31676
330
1F
100
AcDbEntity
  8
0部品1
  6
中心線1
 48
0.5
370
    13
100
AcDbLine
 10
3025.575477517559
 20
1985.544061697452
 30
0.0
 11
3025.575477517559
 21
2027.544061697452
 31
0.0
  0
DIMENSION
  5
3170E
330
1F
100
AcDbEntity
  8
AM_5
100
AcDbDimension
  2
*D11
 10
3048.575477517559
 20
1988.544061697452
 30
0.0
 11
3048.575477517559
 21
1992.794061697452
 31
0.0
 70
   160
  1
I
 71
     5
 42
9.0
  3
SYS$0
100
AcDbAlignedDimension
 13
3029.575477517559
 23
1997.544061697452
 33
0.0
 14
3025.575477517559
 24
1988.544061697452
 34
0.0
 50
90.0
100
AcDbRotatedDimension
  0
DIMENSION
  5
3170F
330
1F
100
AcDbEntity
  8
AM_5
100
AcDbDimension
  2
*D12
 10
3048.575477517559
 20
2024.544061697452
 30
0.0
 11
3048.575477517559
 21
2011.044061697452
 31
0.0
 70
   160
  1
L1
 71
     5
 42
27.0
  3
SYS$0
100
AcDbAlignedDimension
 13
3029.575477517559
 23
1997.544061697452
 33
0.0
 14
3028.775477517559
 24
2024.544061697452
 34
0.0
 50
90.0
100
AcDbRotatedDimension
  0
DIMENSION
  5
3175E
330
1F
100
AcDbEntity
  8
AM_5
100
AcDbDimension
  2
*D13
 10
3010.575477517559
 20
1980.544061697452
 30
0.0
 11
3025.575477517559
 21
1980.544061697452
 31
0.0
 70
   160
  1
%%cA
 71
     5
 42
30.0
  3
SYS$0
100
AcDbAlignedDimension
 13
3040.575477517559
 23
1992.702905697452
 33
0.0
 14
3010.575477517559
 24
1992.702905697452
 34
0.0
 50
180.0
100
AcDbRotatedDimension
  0
DIMENSION
  5
31786
330
1F
100
AcDbEntity
  8
AM_5
100
AcDbDimension
  2
*D14
 10
3029.575477517559
 20
2032.544061697452
 30
0.0
 11
3025.57547751756
 21
2032.544061697452
 31
0.0
 70
   160
  1
D
 71
     5
 42
8.0
  3
SYS$0
100
AcDbAlignedDimension
 13
3021.575477517559
 23
2023.744061697453
 33
0.0
 14
3029.575477517559
 24
2023.744061697453
 34
0.0
 50
180.0
100
AcDbRotatedDimension
  0
DIMENSION
  5
31C9C
330
1F
100
AcDbEntity
  8
AM_5
100
AcDbDimension
  2
*D15
 10
2987.346674046015
 20
2024.544061697453
 30
0.0
 11
2987.346674046015
 21
2006.080872930493
 31
0.0
 70
   160
  1
L2
 71
     5
 42
36.5
  3
SYS$0
100
AcDbAlignedDimension
 13
2967.346674046014
 23
1988.044061697452
 33
0.0
 14
2961.546674046014
 24
2024.544061697453
 34
0.0
 50
90.0
100
AcDbRotatedDimension
  0
DIMENSION
  5
31CCD
330
1F
100
AcDbEntity
  8
AM_5
100
AcDbDimension
  2
*D16
 10
3056.575477517559
 20
2024.544061697452
 30
0.0
 11
3056.575477517559
 21
2006.770932300184
 31
0.0
 70
   160
  1
L2
 71
     5
 42
36.0
  3
SYS$0
100
AcDbAlignedDimension
 13
3025.575477652277
 23
1988.544061697452
 33
0.0
 14
3028.77547751756
 24
2024.544061697452
 34
0.0
 50
90.0
100
AcDbRotatedDimension
  0
LINE
  5
31EAF
330
1F
100
AcDbEntity
  8
AM_0
100
AcDbLine
 10
2965.19652227162
 20
1955.902178779925
 30
0.0
 11
2965.196522271621
 21
1898.902178779922
 31
0.0
  0
LINE
  5
31EB0
330
1F
100
AcDbEntity
  8
AM_0
100
AcDbLine
 10
3062.19652227162
 20
1948.902178779923
 30
0.0
 11
2934.196522271621
 21
1948.902178779923
 31
0.0
  0
LINE
  5
31EB2
330
1F
100
AcDbEntity
  8
AM_4
100
AcDbLine
 10
3041.196522271621
 20
1938.902178779926
 30
0.0
 11
3001.196522271621
 21
1938.902178779926
 31
0.0
  0
LINE
  5
31EB4
330
1F
100
AcDbEntity
  8
AM_4
100
AcDbLine
 10
3062.19652227162
 20
1928.902178779923
 30
0.0
 11
3041.196522271622
 21
1928.902178779924
 31
0.0
  0
LINE
  5
31EB5
330
1F
100
AcDbEntity
  8
AM_4
100
AcDbLine
 10
3025.196522271622
 20
1918.902178779925
 30
0.0
 11
2993.196522271621
 21
1918.902178779925
 31
0.0
  0
LINE
  5
31EB6
330
1F
100
AcDbEntity
  8
AM_5
100
AcDbLine
 10
2993.196522271621
 20
1955.902178779925
 30
0.0
 11
2993.196522271621
 21
1898.902178779922
 31
0.0
  0
LINE
  5
31EB7
330
1F
100
AcDbEntity
  8
AM_4
100
AcDbLine
 10
2973.196522271621
 20
1955.902178779925
 30
0.0
 11
2973.196522271621
 21
1898.902178779922
 31
0.0
  0
LINE
  5
31EB8
330
1F
100
AcDbEntity
  8
AM_5
100
AcDbLine
 10
3001.196522271622
 20
1955.902178779925
 30
0.0
 11
3001.19652227162
 21
1898.902178779922
 31
0.0
  0
LINE
  5
31EB9
330
1F
100
AcDbEntity
  8
AM_5
100
AcDbLine
 10
3009.196522271621
 20
1955.902178779925
 30
0.0
 11
3009.196522271621
 21
1898.902178779921
 31
0.0
  0
LINE
  5
31EBA
330
1F
100
AcDbEntity
  8
AM_5
100
AcDbLine
 10
3017.196522271622
 20
1955.902178779925
 30
0.0
 11
3017.19652227162
 21
1898.902178779921
 31
0.0
  0
LINE
  5
31EBB
330
1F
100
AcDbEntity
  8
AM_5
100
AcDbLine
 10
3025.196522271623
 20
1955.902178779925
 30
0.0
 11
3025.196522271621
 21
1898.902178779921
 31
0.0
  0
MTEXT
  5
31EC3
330
1F
100
AcDbEntity
  8
AM_6
100
AcDbMText
 10
3005.196522271621
 20
1933.902178779927
 30
0.0
 40
3.2
 41
8.000000000000113
 71
     5
 72
     5
  1
36
 73
     1
 44
1.0
1001
ACAD
1000
MTEXTBEGIN
1070
    73
1070
     1
1070
    44
1040
1.0
1070
    74
1070
     0
1000
MTEXTEND
1000
ACAD_MTEXT_DEFINED_HEIGHT_BEGIN
1070
    46
1040
9.999999999997681
1000
ACAD_MTEXT_DEFINED_HEIGHT_END
  0
MTEXT
  5
31EC4
330
1F
100
AcDbEntity
  8
AM_6
100
AcDbMText
 10
3005.196522271621
 20
1943.902178779929
 30
0.0
 40
3.2
 41
8.000000000000113
 71
     5
 72
     5
  1
36.5
 73
     1
 44
1.0
1001
ACAD
1000
MTEXTBEGIN
1070
    73
1070
     1
1070
    44
1040
1.0
1070
    74
1070
     0
1000
MTEXTEND
1000
ACAD_MTEXT_DEFINED_HEIGHT_BEGIN
1070
    46
1040
10.00000000000109
1000
ACAD_MTEXT_DEFINED_HEIGHT_END
  0
MTEXT
  5
31EC9
330
1F
100
AcDbEntity
  8
AM_6
100
AcDbMText
 10
2949.69652227162
 20
1943.902178779924
 30
0.0
 40
3.2
 41
31.0000000000001
 71
     5
 72
     5
  1
EA14-08027-26
 73
     1
 44
1.0
1001
ACAD
1000
MTEXTBEGIN
1070
    73
1070
     1
1070
    44
1040
1.0
1070
    74
1070
     0
1000
MTEXTEND
1000
ACAD_MTEXT_DEFINED_HEIGHT_BEGIN
1070
    46
1040
10.00000000000018
1000
ACAD_MTEXT_DEFINED_HEIGHT_END
  0
LINE
  5
31ECA
330
1F
100
AcDbEntity
  8
AM_0
100
AcDbLine
 10
3062.19652227162
 20
1955.902178779927
 30
0.0
 11
2934.196522271621
 21
1955.902178779925
 31
0.0
  0
MTEXT
  5
31ECB
330
1F
100
AcDbEntity
  8
AM_6
100
AcDbMText
 10
2949.69652227162
 20
1952.402178779925
 30
0.0
 40
3.2
 41
30.99999999999982
 71
     5
 72
     5
  1
品番
 73
     1
 44
1.0
1001
ACAD
1000
MTEXTBEGIN
1070
    73
1070
     1
1070
    44
1040
1.0
1070
    74
1070
     0
1000
MTEXTEND
1000
ACAD_MTEXT_DEFINED_HEIGHT_BEGIN
1070
    46
1040
3.200000000000227
1000
ACAD_MTEXT_DEFINED_HEIGHT_END
  0
MTEXT
  5
31ECC
330
1F
100
AcDbEntity
  8
AM_6
100
AcDbMText
 10
2969.19652227162
 20
1954.152178779924
 30
0.0
 40
2.799999999999999
 41
8.000000000000113
 71
     5
 72
     5
  1
耐荷重
 73
     1
 44
1.0
1001
ACAD
1000
MTEXTBEGIN
1070
    73
1070
     1
1070
    44
1040
1.0
1070
    74
1070
     0
1000
MTEXTEND
1000
ACAD_MTEXT_DEFINED_HEIGHT_BEGIN
1070
    46
1040
3.500000000000864
1000
ACAD_MTEXT_DEFINED_HEIGHT_END
  0
MTEXT
  5
31ECD
330
1F
100
AcDbEntity
  8
AM_6
100
AcDbMText
 10
2983.196522271621
 20
1952.402178779925
 30
0.0
 40
3.2
 41
20.00000000000103
 71
     5
 72
     5
  1
D
 73
     1
 44
1.0
1001
ACAD
1000
MTEXTBEGIN
1070
    73
1070
     1
1070
    44
1040
1.0
1070
    74
1070
     0
1000
MTEXTEND
1000
ACAD_MTEXT_DEFINED_HEIGHT_BEGIN
1070
    46
1040
3.200000000000227
1000
ACAD_MTEXT_DEFINED_HEIGHT_END
  0
MTEXT
  5
31ECE
330
1F
100
AcDbEntity
  8
AM_6
100
AcDbMText
 10
2997.196522271622
 20
1952.402178779925
 30
0.0
 40
3.2
 41
7.999999999999886
 71
     5
 72
     5
  1
L1
 73
     1
 44
1.0
1001
ACAD
1000
MTEXTBEGIN
1070
    73
1070
     1
1070
    44
1040
1.0
1070
    74
1070
     0
1000
MTEXTEND
  0
MTEXT
  5
31ECF
330
1F
100
AcDbEntity
  8
AM_6
100
AcDbMText
 10
3005.196522271623
 20
1952.402178779925
 30
0.0
 40
3.2
 41
7.999999999999886
 71
     5
 72
     5
  1
L2
 73
     1
 44
1.0
1001
ACAD
1000
MTEXTBEGIN
1070
    73
1070
     1
1070
    44
1040
1.0
1070
    74
1070
     0
1000
MTEXTEND
  0
MTEXT
  5
31ED0
330
1F
100
AcDbEntity
  8
AM_6
100
AcDbMText
 10
3013.196522271622
 20
1952.402178779925
 30
0.0
 40
3.2
 41
7.999999999999886
 71
     5
 72
     5
  1
I
 73
     1
 44
1.0
1001
ACAD
1000
MTEXTBEGIN
1070
    73
1070
     1
1070
    44
1040
1.0
1070
    74
1070
     0
1000
MTEXTEND
  0
MTEXT
  5
31ED2
330
1F
100
AcDbEntity
  8
AM_6
100
AcDbMText
 10
3021.196522271622
 20
1952.402178779924
 30
0.0
 40
3.2
 41
7.999999999999886
 71
     5
 72
     5
  1
A
 73
     1
 44
1.0
1001
ACAD
1000
MTEXTBEGIN
1070
    73
1070
     1
1070
    44
1040
1.0
1070
    74
1070
     0
1000
MTEXTEND
  0
LINE
  5
31ED5
330
1F
100
AcDbEntity
  8
AM_4
100
AcDbLine
 10
2965.196522271622
 20
1908.902178779923
 30
0.0
 11
2934.196522271621
 21
1908.902178779923
 31
0.0
  0
LINE
  5
31ED6
330
1F
100
AcDbEntity
  8
AM_0
100
AcDbLine
 10
2934.196522271621
 20
1955.902178779925
 30
0.0
 11
2934.196522271621
 21
1898.902178779921
 31
0.0
  0
LINE
  5
31EDA
330
1F
100
AcDbEntity
  8
AM_0
100
AcDbLine
 10
3062.19652227162
 20
1898.902178779921
 30
0.0
 11
2934.196522271621
 21
1898.902178779921
 31
0.0
  0
MTEXT
  5
31EE5
330
1F
100
AcDbEntity
  8
AM_6
100
AcDbMText
 10
2969.19652227162
 20
1950.652178779924
 30
0.0
 40
2.799999999999999
 41
8.000000000000113
 71
     5
 72
     5
  1
kN
 73
     1
 44
1.0
1001
ACAD
1000
MTEXTBEGIN
1070
    73
1070
     1
1070
    44
1040
1.0
1070
    74
1070
     0
1000
MTEXTEND
1000
ACAD_MTEXT_DEFINED_HEIGHT_BEGIN
1070
    46
1040
3.500000000000864
1000
ACAD_MTEXT_DEFINED_HEIGHT_END
  0
MTEXT
  5
31F04
330
1F
100
AcDbEntity
  8
AM_6
100
AcDbMText
 10
2997.196522271622
 20
1933.902178779924
 30
0.0
 40
3.2
 41
8.000000000000113
 71
     5
 72
     5
  1
27
 73
     1
 44
1.0
1001
ACAD
1000
MTEXTBEGIN
1070
    73
1070
     1
1070
    44
1040
1.0
1070
    74
1070
     0
1000
MTEXTEND
1000
ACAD_MTEXT_DEFINED_HEIGHT_BEGIN
1070
    46
1040
29.99999999999791
1000
ACAD_MTEXT_DEFINED_HEIGHT_END
  0
MTEXT
  5
31F08
330
1F
100
AcDbEntity
  8
AM_6
100
AcDbMText
 10
3013.196522271622
 20
1943.902178779925
 30
0.0
 40
3.2
 41
8.000000000000113
 71
     5
 72
     5
  1
9.5
 73
     1
 44
1.0
1001
ACAD
1000
MTEXTBEGIN
1070
    73
1070
     1
1070
    44
1040
1.0
1070
    74
1070
     0
1000
MTEXTEND
1000
ACAD_MTEXT_DEFINED_HEIGHT_BEGIN
1070
    46
1040
9.999999999996774
1000
ACAD_MTEXT_DEFINED_HEIGHT_END
  0
MTEXT
  5
31F09
330
1F
100
AcDbEntity
  8
AM_6
100
AcDbMText
 10
3021.196522271621
 20
1943.902178779924
 30
0.0
 40
3.2
 41
8.000000000001023
 71
     5
 72
     5
  1
26
 73
     1
 44
1.0
1001
ACAD
1000
MTEXTBEGIN
1070
    73
1070
     1
1070
    44
1040
1.0
1070
    74
1070
     0
1000
MTEXTEND
1000
ACAD_MTEXT_DEFINED_HEIGHT_BEGIN
1070
    46
1040
9.999999999996774
1000
ACAD_MTEXT_DEFINED_HEIGHT_END
  0
LINE
  5
31F10
330
1F
100
AcDbEntity
  8
AM_4
100
AcDbLine
 10
3041.196522271621
 20
1955.902178779925
 30
0.0
 11
3041.196522271621
 21
1898.902178779922
 31
0.0
  0
MTEXT
  5
31F11
330
1F
100
AcDbEntity
  8
AM_6
100
AcDbMText
 10
3033.196522271622
 20
1943.902178779925
 30
0.0
 40
3.2
 41
15.99999999999966
 71
     5
 72
     5
  1
Aタイプ
 73
     1
 44
1.0
1001
ACAD
1000
MTEXTBEGIN
1070
    73
1070
     1
1070
    44
1040
1.0
1070
    74
1070
     0
1000
MTEXTEND
1000
ACAD_MTEXT_DEFINED_HEIGHT_BEGIN
1070
    46
1040
9.999999999996774
1000
ACAD_MTEXT_DEFINED_HEIGHT_END
  0
MTEXT
  5
31F12
330
1F
100
AcDbEntity
  8
AM_6
100
AcDbMText
 10
3033.196522271622
 20
1952.402178779924
 30
0.0
 40
3.2
 41
15.99999999999897
 71
     5
 72
     5
  1
タイプ
 73
     1
 44
1.0
1001
ACAD
1000
MTEXTBEGIN
1070
    73
1070
     1
1070
    44
1040
1.0
1070
    74
1070
     0
1000
MTEXTEND
1000
ACAD_MTEXT_DEFINED_HEIGHT_BEGIN
1070
    46
1040
3.199999999999772
1000
ACAD_MTEXT_DEFINED_HEIGHT_END
  0
MTEXT
  5
31F15
330
1F
100
AcDbEntity
  8
AM_6
100
AcDbMText
 10
2949.696522271621
 20
1933.902178779922
 30
0.0
 40
3.2
 41
31.0000000000001
 71
     5
 72
     5
  1
EA14-08027-30
 73
     1
 44
1.0
1001
ACAD
1000
MTEXTBEGIN
1070
    73
1070
     1
1070
    44
1040
1.0
1070
    74
1070
     0
1000
MTEXTEND
1000
ACAD_MTEXT_DEFINED_HEIGHT_BEGIN
1070
    46
1040
10.00000000000018
1000
ACAD_MTEXT_DEFINED_HEIGHT_END
  0
MTEXT
  5
31F16
330
1F
100
AcDbEntity
  8
AM_6
100
AcDbMText
 10
2969.196522271622
 20
1923.902178779922
 30
0.0
 40
3.2
 41
8.000000000000113
 71
     5
 72
     5
  1
1
 73
     1
 44
1.0
1001
ACAD
1000
MTEXTBEGIN
1070
    73
1070
     1
1070
    44
1040
1.0
1070
    74
1070
     0
1000
MTEXTEND
1000
ACAD_MTEXT_DEFINED_HEIGHT_BEGIN
1070
    46
1040
50.00000000000155
1000
ACAD_MTEXT_DEFINED_HEIGHT_END
  0
MTEXT
  5
31F17
330
1F
100
AcDbEntity
  8
AM_6
100
AcDbMText
 10
2983.196522271621
 20
1923.902178779922
 30
0.0
 40
3.2
 41
20.00000000000034
 71
     5
 72
     5
  1
M8×P1.25
 73
     1
 44
1.0
1001
ACAD
1000
MTEXTBEGIN
1070
    73
1070
     1
1070
    44
1040
1.0
1070
    74
1070
     0
1000
MTEXTEND
1000
ACAD_MTEXT_DEFINED_HEIGHT_BEGIN
1070
    46
1040
50.00000000000132
1000
ACAD_MTEXT_DEFINED_HEIGHT_END
  0
MTEXT
  5
31F18
330
1F
100
AcDbEntity
  8
AM_6
100
AcDbMText
 10
3013.196522271622
 20
1933.902178779922
 30
0.0
 40
3.2
 41
8.000000000000113
 71
     5
 72
     5
  1
9
 73
     1
 44
1.0
1001
ACAD
1000
MTEXTBEGIN
1070
    73
1070
     1
1070
    44
1040
1.0
1070
    74
1070
     0
1000
MTEXTEND
1000
ACAD_MTEXT_DEFINED_HEIGHT_BEGIN
1070
    46
1040
9.999999999996774
1000
ACAD_MTEXT_DEFINED_HEIGHT_END
  0
MTEXT
  5
31F19
330
1F
100
AcDbEntity
  8
AM_6
100
AcDbMText
 10
3021.196522271621
 20
1933.902178779922
 30
0.0
 40
3.2
 41
8.000000000001023
 71
     5
 72
     5
  1
30
 73
     1
 44
1.0
1001
ACAD
1000
MTEXTBEGIN
1070
    73
1070
     1
1070
    44
1040
1.0
1070
    74
1070
     0
1000
MTEXTEND
1000
ACAD_MTEXT_DEFINED_HEIGHT_BEGIN
1070
    46
1040
9.999999999996774
1000
ACAD_MTEXT_DEFINED_HEIGHT_END
  0
MTEXT
  5
31F1A
330
1F
100
AcDbEntity
  8
AM_6
100
AcDbMText
 10
3033.196522271622
 20
1918.902178779921
 30
0.0
 40
3.2
 41
15.99999999999966
 71
     5
 72
     5
  1
Bタイプ
 73
     1
 44
1.0
1001
ACAD
1000
MTEXTBEGIN
1070
    73
1070
     1
1070
    44
1040
1.0
1070
    74
1070
     0
1000
MTEXTEND
1000
ACAD_MTEXT_DEFINED_HEIGHT_BEGIN
1070
    46
1040
39.9999999999995
1000
ACAD_MTEXT_DEFINED_HEIGHT_END
  0
MTEXT
  5
31F1B
330
1F
100
AcDbEntity
  8
AM_6
100
AcDbMText
 10
2949.696522271621
 20
1923.902178779923
 30
0.0
 40
3.2
 41
31.0000000000001
 71
     5
 72
     5
  1
EA14-08027-35
 73
     1
 44
1.0
1001
ACAD
1000
MTEXTBEGIN
1070
    73
1070
     1
1070
    44
1040
1.0
1070
    74
1070
     0
1000
MTEXTEND
1000
ACAD_MTEXT_DEFINED_HEIGHT_BEGIN
1070
    46
1040
10.00000000000018
1000
ACAD_MTEXT_DEFINED_HEIGHT_END
  0
MTEXT
  5
31F1C
330
1F
100
AcDbEntity
  8
AM_6
100
AcDbMText
 10
2949.696522271621
 20
1913.902178779921
 30
0.0
 40
3.2
 41
31.0000000000001
 71
     5
 72
     5
  1
EA14-08028-45
 73
     1
 44
1.0
1001
ACAD
1000
MTEXTBEGIN
1070
    73
1070
     1
1070
    44
1040
1.0
1070
    74
1070
     0
1000
MTEXTEND
1000
ACAD_MTEXT_DEFINED_HEIGHT_BEGIN
1070
    46
1040
10.00000000000018
1000
ACAD_MTEXT_DEFINED_HEIGHT_END
  0
MTEXT
  5
31F1D
330
1F
100
AcDbEntity
  8
AM_6
100
AcDbMText
 10
2949.696522271621
 20
1903.902178779919
 30
0.0
 40
3.2
 41
31.0000000000001
 71
     5
 72
     5
  1
EA14-08028-50
 73
     1
 44
1.0
1001
ACAD
1000
MTEXTBEGIN
1070
    73
1070
     1
1070
    44
1040
1.0
1070
    74
1070
     0
1000
MTEXTEND
1000
ACAD_MTEXT_DEFINED_HEIGHT_BEGIN
1070
    46
1040
10.00000000000018
1000
ACAD_MTEXT_DEFINED_HEIGHT_END
  0
LINE
  5
31F1E
330
1F
100
AcDbEntity
  8
AM_4
100
AcDbLine
 10
2965.19652227162
 20
1918.902178779925
 30
0.0
 11
2934.196522271621
 21
1918.902178779925
 31
0.0
  0
LINE
  5
31F1F
330
1F
100
AcDbEntity
  8
AM_4
100
AcDbLine
 10
2965.19652227162
 20
1928.902178779924
 30
0.0
 11
2934.196522271621
 21
1928.902178779925
 31
0.0
  0
MTEXT
  5
31F20
330
1F
100
AcDbEntity
  8
AM_6
100
AcDbMText
 10
2997.19652227162
 20
1908.902178779919
 30
0.0
 40
3.2
 41
8.000000000000113
 71
     5
 72
     5
  1
28
 73
     1
 44
1.0
1001
ACAD
1000
MTEXTBEGIN
1070
    73
1070
     1
1070
    44
1040
1.0
1070
    74
1070
     0
1000
MTEXTEND
1000
ACAD_MTEXT_DEFINED_HEIGHT_BEGIN
1070
    46
1040
19.99999999999359
1000
ACAD_MTEXT_DEFINED_HEIGHT_END
  0
MTEXT
  5
31F21
330
1F
100
AcDbEntity
  8
AM_6
100
AcDbMText
 10
3013.196522271622
 20
1923.902178779923
 30
0.0
 40
3.2
 41
8.000000000000113
 71
     5
 72
     5
  1
10.5
 73
     1
 44
1.0
1001
ACAD
1000
MTEXTBEGIN
1070
    73
1070
     1
1070
    44
1040
1.0
1070
    74
1070
     0
1000
MTEXTEND
1000
ACAD_MTEXT_DEFINED_HEIGHT_BEGIN
1070
    46
1040
9.999999999996774
1000
ACAD_MTEXT_DEFINED_HEIGHT_END
  0
MTEXT
  5
31F22
330
1F
100
AcDbEntity
  8
AM_6
100
AcDbMText
 10
3013.196522271622
 20
1913.902178779921
 30
0.0
 40
3.2
 41
8.000000000000113
 71
     5
 72
     5
  1
9
 73
     1
 44
1.0
1001
ACAD
1000
MTEXTBEGIN
1070
    73
1070
     1
1070
    44
1040
1.0
1070
    74
1070
     0
1000
MTEXTEND
1000
ACAD_MTEXT_DEFINED_HEIGHT_BEGIN
1070
    46
1040
9.999999999996774
1000
ACAD_MTEXT_DEFINED_HEIGHT_END
  0
MTEXT
  5
31F23
330
1F
100
AcDbEntity
  8
AM_6
100
AcDbMText
 10
3013.196522271622
 20
1903.902178779922
 30
0.0
 40
3.2
 41
8.000000000000113
 71
     5
 72
     5
  1
10
 73
     1
 44
1.0
1001
ACAD
1000
MTEXTBEGIN
1070
    73
1070
     1
1070
    44
1040
1.0
1070
    74
1070
     0
1000
MTEXTEND
1000
ACAD_MTEXT_DEFINED_HEIGHT_BEGIN
1070
    46
1040
9.999999999996774
1000
ACAD_MTEXT_DEFINED_HEIGHT_END
  0
MTEXT
  5
31F24
330
1F
100
AcDbEntity
  8
AM_6
100
AcDbMText
 10
3021.196522271621
 20
1923.902178779925
 30
0.0
 40
3.2
 41
8.000000000001023
 71
     5
 72
     5
  1
35
 73
     1
 44
1.0
1001
ACAD
1000
MTEXTBEGIN
1070
    73
1070
     1
1070
    44
1040
1.0
1070
    74
1070
     0
1000
MTEXTEND
1000
ACAD_MTEXT_DEFINED_HEIGHT_BEGIN
1070
    46
1040
9.999999999996774
1000
ACAD_MTEXT_DEFINED_HEIGHT_END
  0
MTEXT
  5
31F25
330
1F
100
AcDbEntity
  8
AM_6
100
AcDbMText
 10
3021.196522271621
 20
1913.902178779922
 30
0.0
 40
3.2
 41
8.000000000001023
 71
     5
 72
     5
  1
45
 73
     1
 44
1.0
1001
ACAD
1000
MTEXTBEGIN
1070
    73
1070
     1
1070
    44
1040
1.0
1070
    74
1070
     0
1000
MTEXTEND
1000
ACAD_MTEXT_DEFINED_HEIGHT_BEGIN
1070
    46
1040
9.999999999996774
1000
ACAD_MTEXT_DEFINED_HEIGHT_END
  0
MTEXT
  5
31F26
330
1F
100
AcDbEntity
  8
AM_6
100
AcDbMText
 10
3021.196522271623
 20
1903.902178779923
 30
0.0
 40
3.2
 41
8.000000000001023
 71
     5
 72
     5
  1
50
 73
     1
 44
1.0
1001
ACAD
1000
MTEXTBEGIN
1070
    73
1070
     1
1070
    44
1040
1.0
1070
    74
1070
     0
1000
MTEXTEND
1000
ACAD_MTEXT_DEFINED_HEIGHT_BEGIN
1070
    46
1040
9.999999999996774
1000
ACAD_MTEXT_DEFINED_HEIGHT_END
  0
LINE
  5
31F28
330
1F
100
AcDbEntity
  8
AM_4
100
AcDbLine
 10
3025.196522271621
 20
1908.902178779925
 30
0.0
 11
3001.19652227162
 21
1908.902178779925
 31
0.0
  0
MTEXT
  5
31F29
330
1F
100
AcDbEntity
  8
AM_6
100
AcDbMText
 10
3005.196522271622
 20
1923.902178779928
 30
0.0
 40
3.2
 41
8.000000000000113
 71
     5
 72
     5
  1
37.5
 73
     1
 44
1.0
1001
ACAD
1000
MTEXTBEGIN
1070
    73
1070
     1
1070
    44
1040
1.0
1070
    74
1070
     0
1000
MTEXTEND
1000
ACAD_MTEXT_DEFINED_HEIGHT_BEGIN
1070
    46
1040
9.999999999997681
1000
ACAD_MTEXT_DEFINED_HEIGHT_END
  0
MTEXT
  5
31F2A
330
1F
100
AcDbEntity
  8
AM_6
100
AcDbMText
 10
3005.196522271621
 20
1913.902178779927
 30
0.0
 40
3.2
 41
8.000000000000113
 71
     5
 72
     5
  1
37
 73
     1
 44
1.0
1001
ACAD
1000
MTEXTBEGIN
1070
    73
1070
     1
1070
    44
1040
1.0
1070
    74
1070
     0
1000
MTEXTEND
1000
ACAD_MTEXT_DEFINED_HEIGHT_BEGIN
1070
    46
1040
9.999999999997681
1000
ACAD_MTEXT_DEFINED_HEIGHT_END
  0
MTEXT
  5
31F2B
330
1F
100
AcDbEntity
  8
AM_6
100
AcDbMText
 10
3005.196522271621
 20
1903.902178779924
 30
0.0
 40
3.2
 41
8.000000000000113
 71
     5
 72
     5
  1
38
 73
     1
 44
1.0
1001
ACAD
1000
MTEXTBEGIN
1070
    73
1070
     1
1070
    44
1040
1.0
1070
    74
1070
     0
1000
MTEXTEND
1000
ACAD_MTEXT_DEFINED_HEIGHT_BEGIN
1070
    46
1040
9.999999999997681
1000
ACAD_MTEXT_DEFINED_HEIGHT_END
  0
MTEXT
  5
31F86
330
1F
100
AcDbEntity
  8
AM_6
100
AcDbMText
 10
2958.346674046015
 20
1971.044819276157
 30
0.0
 40
3.2
 41
32.65685424949243
 71
     5
 72
     5
  1
Aタイプ
 73
     1
 44
1.0
1001
ACAD
1000
MTEXTBEGIN
1070
    73
1070
     1
1070
    44
1040
1.0
1070
    74
1070
     0
1000
MTEXTEND
1000
ACAD_MTEXT_DEFINED_HEIGHT_BEGIN
1070
    46
1040
5.656854249492381
1000
ACAD_MTEXT_DEFINED_HEIGHT_END
  0
LWPOLYLINE
  5
31F87
330
1F
100
AcDbEntity
  8
0部品1
100
AcDbPolyline
 90
        4
 70
     1
 43
0.0
 10
2949.018246921268
 20
1973.873246400903
 10
2967.675101170761
 20
1973.873246400903
 10
2967.675101170761
 20
1968.216392151411
 10
2949.018246921268
 20
1968.216392151411
1001
GENIUS_GENREC_14
1002
{
1000
PYDIR
1011
2949.018246921268
1021
1968.216392151411
1031
0.0
1002
}
1002
{
1000
PXDIR
1011
2967.675101170761
1021
1973.873246400903
1031
0.0
1002
}
1002
{
1000
PORI
1011
2949.018246921268
1021
1973.873246400903
1031
0.0
1002
}
1002
{
1000
PINS
1011
2949.018246921268
1021
1973.873246400903
1031
0.0
1002
}
1002
{
1000
PINS2
1011
2967.675101170761
1021
1968.216392151411
1031
0.0
1002
}
1002
{
1000
C
1070
     1
1002
}
1001
GENIUS_GENODEF_13
1002
{
1000
HIER
1070
     0
1002
}
1002
{
1000
MANEDIT
1070
     0
1002
}
1002
{
1000
NOSEL
1070
     0
1002
}
1002
{
1000
BEHIND
1070
     0
1002
}
1002
{
1000
OTHER
1070
     0
1002
}
1002
{
1000
REACTOR
1002
}
1001
GENIUS_GENOBJ-N-REC_13
1002
{
1000
OWNER
1000
GEN
1002
}
  0
MTEXT
  5
3203C
330
1F
100
AcDbEntity
  8
AM_6
100
AcDbMText
 10
3025.575477517559
 20
1971.044819276157
 30
0.0
 40
3.2
 41
32.65685424949243
 71
     5
 72
     5
  1
Bタイプ
 73
     1
 44
1.0
1001
ACAD
1000
MTEXTBEGIN
1070
    73
1070
     1
1070
    44
1040
1.0
1070
    74
1070
     0
1000
MTEXTEND
1000
ACAD_MTEXT_DEFINED_HEIGHT_BEGIN
1070
    46
1040
5.656854249492381
1000
ACAD_MTEXT_DEFINED_HEIGHT_END
  0
LWPOLYLINE
  5
3203D
330
1F
100
AcDbEntity
  8
0部品1
100
AcDbPolyline
 90
        4
 70
     1
 43
0.0
 10
3016.247050392813
 20
1973.873246400903
 10
3034.903904642305
 20
1973.873246400903
 10
3034.903904642305
 20
1968.216392151411
 10
3016.247050392813
 20
1968.216392151411
1001
GENIUS_GENREC_14
1002
{
1000
PYDIR
1011
3016.247050392813
1021
1968.216392151411
1031
0.0
1002
}
1002
{
1000
PXDIR
1011
3034.903904642305
1021
1973.873246400903
1031
0.0
1002
}
1002
{
1000
PORI
1011
3016.247050392813
1021
1973.873246400903
1031
0.0
1002
}
1002
{
1000
PINS
1011
3016.247050392813
1021
1973.873246400903
1031
0.0
1002
}
1002
{
1000
PINS2
1011
3034.903904642305
1021
1968.216392151411
1031
0.0
1002
}
1002
{
1000
C
1070
     1
1002
}
1001
GENIUS_GENODEF_13
1002
{
1000
HIER
1070
     0
1002
}
1002
{
1000
MANEDIT
1070
     0
1002
}
1002
{
1000
NOSEL
1070
     0
1002
}
1002
{
1000
BEHIND
1070
     0
1002
}
1002
{
1000
OTHER
1070
     0
1002
}
1002
{
1000
REACTOR
1002
}
1001
GENIUS_GENOBJ-N-REC_13
1002
{
1000
OWNER
1000
GEN
1002
}
  0
LINE
  5
3203E
330
1F
100
AcDbEntity
  8
AM_0
100
AcDbLine
 10
3062.19652227162
 20
1955.902178779923
 30
0.0
 11
3062.19652227162
 21
1898.90217877992
 31
0.0
  0
MTEXT
  5
3203F
330
1F
100
AcDbEntity
  8
AM_6
100
AcDbMText
 10
3051.696522271621
 20
1938.902178779923
 30
0.0
 40
3.2
 41
21.00000000000012
 71
     5
 72
     5
  1
EA12-25
 73
     1
 44
1.0
1001
ACAD
1000
MTEXTBEGIN
1070
    73
1070
     1
1070
    44
1040
1.0
1070
    74
1070
     0
1000
MTEXTEND
1000
ACAD_MTEXT_DEFINED_HEIGHT_BEGIN
1070
    46
1040
19.99999999999996
1000
ACAD_MTEXT_DEFINED_HEIGHT_END
  0
MTEXT
  5
32040
330
1F
100
AcDbEntity
  8
AM_6
100
AcDbMText
 10
3051.696522271621
 20
1952.402178779924
 30
0.0
 40
3.2
 41
20.99999999999898
 71
     5
 72
     5
  1
座金
 73
     1
 44
1.0
1001
ACAD
1000
MTEXTBEGIN
1070
    73
1070
     1
1070
    44
1040
1.0
1070
    74
1070
     0
1000
MTEXTEND
1000
ACAD_MTEXT_DEFINED_HEIGHT_BEGIN
1070
    46
1040
3.199999999999772
1000
ACAD_MTEXT_DEFINED_HEIGHT_END
  0
MTEXT
  5
32042
330
1F
100
AcDbEntity
  8
AM_6
100
AcDbMText
 10
3051.696522271621
 20
1913.90217877992
 30
0.0
 40
3.2
 41
21.00000000000012
 71
     5
 72
     5
  1
EA12-295
 73
     1
 44
1.0
1001
ACAD
1000
MTEXTBEGIN
1070
    73
1070
     1
1070
    44
1040
1.0
1070
    74
1070
     0
1000
MTEXTEND
1000
ACAD_MTEXT_DEFINED_HEIGHT_BEGIN
1070
    46
1040
29.99999999999746
1000
ACAD_MTEXT_DEFINED_HEIGHT_END
  0
LINE
  5
32043
330
1F
100
AcDbEntity
  8
AM_4
100
AcDbLine
 10
3025.196522271623
 20
1928.902178779924
 30
0.0
 11
3001.196522271621
 21
1928.902178779924
 31
0.0
  0
LINE
  5
32585
330
1F
100
AcDbEntity
  8
AM_4
100
AcDbLine
 10
2965.196522271621
 20
1938.902178779927
 30
0.0
 11
2934.196522271621
 21
1938.902178779927
 31
0.0
  0
LINE
  5
32606
330
1F
100
AcDbEntity
  8
AM_1
100
AcDbLine
 10
2844.881357407376
 20
2037.414207580656
 30
0.0
 11
2927.881357407376
 21
2037.414207580656
 31
0.0
  0
TEXT
  5
326B3
330
1F
100
AcDbEntity
  8
AM_6
100
AcDbText
 10
2850.538357407377
 20
2039.95235334567
 30
0.0
 40
3.2
  1
備　考
 41
0.85537027
100
AcDbText
  0
ENDSEC
  0
SECTION
  2
OBJECTS
  0
DICTIONARY
  5
C
330
0
100
AcDbDictionary
281
     1
  3
ACAD_2007HEADERVARS_RT
350
327AC
  3
ACAD_BGPLOT_KEY
350
AB06
  3
ACAD_COLOR
350
A91D
  3
ACAD_GROUP
350
D
  3
ACAD_LAYOUT
350
1A
  3
ACAD_MATERIAL
350
A91C
  3
ACAD_MLINESTYLE
350
17
  3
ACAD_PLOTSETTINGS
350
19
  3
ACAD_PLOTSTYLENAME
350
E
  3
ACAD_TABLESTYLE
350
AAB9
  3
ACAD_VISUALSTYLE
350
B0F1
  3
AcAsAppObject
350
3DA1
  3
ACASGREF_MASTER
350
3DE9
  3
AcDbVariableDictionary
350
34
  3
AcmDictionary
350
47
  3
AD_GREF_MODULE
350
3DEA
  3
AD_MAPI_MODULE
350
3E06
  3
AMG
350
2B
  3
AMGSNAPSETTINGS
350
7D
  3
ASE_INDEX_DICTIONARY
350
224C9
  3
DWGPROPS
350
327AB
  3
MAPISURF_MODULE
350
3DEB
  0
DICTIONARY
  5
3F95
330
2
100
AcDbDictionary
280
     1
281
     1
  3
ACAD_LAYERFILTERS
360
B466
  3
ACAD_LAYERSTATES
360
3F96
  3
ACLYDICTIONARY
360
B465
  3
AMLAYER_GROUPCOLORS
360
AAB4
  0
DICTIONARY
  5
2E416
330
2E415
100
AcDbDictionary
280
     1
281
     1
  3
ADSK_XREC_LAYER_RECONCILED
360
2E417
  0
DICTIONARY
  5
8A
330
1F
100
AcDbDictionary
280
     1
281
     1
  3
ACAD_SORTENTS
360
B1BA
  0
DICTIONARY
  5
327AC
102
{ACAD_REACTORS
330
C
102
}
330
C
100
AcDbDictionary
281
     1
  3
DIMARCSYM
350
327AD
  0
DICTIONARY
  5
AB06
102
{ACAD_REACTORS
330
C
102
}
330
C
100
AcDbDictionary
280
     1
281
     1
  0
DICTIONARY
  5
A91D
102
{ACAD_REACTORS
330
C
102
}
330
C
100
AcDbDictionary
281
     1
  0
DICTIONARY
  5
D
102
{ACAD_REACTORS
330
C
102
}
330
C
100
AcDbDictionary
281
     1
  0
DICTIONARY
  5
1A
102
{ACAD_REACTORS
330
C
102
}
330
C
100
AcDbDictionary
281
     1
  3
Model
350
22
  3
ﾚｲｱｳﾄ1
350
1E
  3
ﾚｲｱｳﾄ2
350
26
  0
DICTIONARY
  5
A91C
102
{ACAD_REACTORS
330
C
102
}
330
C
100
AcDbDictionary
281
     1
  3
ByBlock
350
B0EF
  3
ByLayer
350
B0EE
  3
Global
350
B0F0
  0
DICTIONARY
  5
17
102
{ACAD_REACTORS
330
C
102
}
330
C
100
AcDbDictionary
281
     1
  3
Standard
350
18
  0
DICTIONARY
  5
19
102
{ACAD_REACTORS
330
C
102
}
330
C
100
AcDbDictionary
281
     1
  0
ACDBDICTIONARYWDFLT
  5
E
102
{ACAD_REACTORS
330
C
102
}
330
C
100
AcDbDictionary
281
     1
  3
Normal
350
F
100
AcDbDictionaryWithDefault
340
F
  0
DICTIONARY
  5
AAB9
102
{ACAD_REACTORS
330
C
102
}
330
C
100
AcDbDictionary
281
     1
  3
Standard
350
AABA
  0
DICTIONARY
  5
B0F1
102
{ACAD_REACTORS
330
C
102
}
330
C
100
AcDbDictionary
281
     1
  3
2dWireframe
350
B0F7
  3
3D Hidden
350
B0F9
  3
3dWireframe
350
B0F8
  3
Basic
350
B0F6
  3
Brighten
350
B0FD
  3
ColorChange
350
B101
  3
Conceptual
350
B0FA
  3
Dim
350
B0FC
  3
Facepattern
350
B100
  3
Flat
350
B0F2
  3
FlatWithEdges
350
B0F3
  3
Gouraud
350
B0F4
  3
GouraudWithEdges
350
B0F5
  3
Linepattern
350
B0FF
  3
Realistic
350
B0FB
  3
Thicken
350
B0FE
  0
ACAD_PROXY_OBJECT
  5
3DA1
102
{ACAD_REACTORS
330
C
102
}
330
C
100
AcDbProxyObject
 90
      499
 91
      576
 95
   917527
 70
     0
 93
       10
310
407F
 94
        0
1001
ACAD
1000
AcRTDxfName
1000
ASAPP
  0
ACAD_PROXY_OBJECT
  5
3DE9
102
{ACAD_REACTORS
330
C
102
}
330
C
100
AcDbProxyObject
 90
      499
 91
      581
 95
   917527
 70
     0
 93
       34
310
010000407F
 94
        0
1001
ACAD
1000
AcRTDxfName
1000
ACASGREFMASTER
  0
DICTIONARY
  5
34
102
{ACAD_REACTORS
330
C
102
}
330
C
100
AcDbDictionary
281
     1
  3
CTABLESTYLE
350
AAF3
  3
DIMASSOC
350
A10C
  3
FIELDEVAL
350
AB07
  3
INDEXCTL
350
35
  3
SORTENTS
350
194C
  0
DICTIONARY
  5
47
102
{ACAD_REACTORS
330
C
102
}
330
C
100
AcDbDictionary
281
     1
  3
AcmBOM
350
7E8
  3
AcmStdDictionary
350
4C
  3
AMDTSECTSYM_ARROWCOLOR
350
A929
  0
ACAD_PROXY_OBJECT
  5
3DEA
102
{ACAD_REACTORS
330
C
102
}
330
C
100
AcDbProxyObject
 90
      499
 91
      582
 95
   917527
 70
     0
 93
      114
310
00000043800000000000000000003F
 94
        0
1001
ACAD
1000
AcRTDxfName
1000
ACADGREFMODULE
  0
ACAD_PROXY_OBJECT
  5
3E06
102
{ACAD_REACTORS
330
C
102
}
330
C
100
AcDbProxyObject
 90
      499
 91
      594
 95
   917527
 70
     0
 93
       34
310
05000044FF
 94
        0
1001
ACAD
1000
AcRTDxfName
1000
MAPIADMODULE
  0
DICTIONARY
  5
2B
102
{ACAD_REACTORS
330
C
102
}
330
C
100
AcDbDictionary
281
     1
  0
DICTIONARY
  5
7D
102
{ACAD_REACTORS
330
C
102
}
330
C
100
AcDbDictionary
281
     1
  0
DICTIONARY
  5
224C9
102
{ACAD_REACTORS
330
C
102
}
330
C
100
AcDbDictionary
281
     1
  3
ASEBlockHierarchyIndexRecord
350
224CA
1001
DCO15
1040
1737265970.928
  0
XRECORD
  5
327AB
102
{ACAD_REACTORS
330
C
102
}
330
C
100
AcDbXrecord
280
     1
  1
DWGPROPS COOKIE
  2

  3

  4

  6

  7

  8
Administrator
  9

300
AmdtFileType=84
301
=
302
=
303
=
304
=
305
=
306
=
307
=
308
=
309
=
 40
1.22183287037037
 41
2455567.680725081
 42
2456267.474845371
  1

 90
        1
  0
ACAD_PROXY_OBJECT
  5
3DEB
102
{ACAD_REACTORS
330
C
102
}
330
C
100
AcDbProxyObject
 90
      499
 91
      583
 95
   917527
 70
     0
 93
        8
310
047E
 94
        0
1001
ACAD
1000
AcRTDxfName
1000
AMDTMAPISURFMOUDULE
  0
DICTIONARY
  5
B466
102
{ACAD_REACTORS
330
3F95
102
}
330
3F95
100
AcDbDictionary
281
     1
  0
DICTIONARY
  5
3F96
102
{ACAD_REACTORS
330
3F95
102
}
330
3F95
100
AcDbDictionary
281
     1
  3
20011210
350
3FB7
  0
DICTIONARY
  5
B465
102
{ACAD_REACTORS
330
3F95
102
}
330
3F95
100
AcDbDictionary
281
     1
1001
ACAD
1000
<All
  0
DICTIONARY
  5
AAB4
102
{ACAD_REACTORS
330
3F95
102
}
330
3F95
100
AcDbDictionary
280
     1
281
     1
  0
XRECORD
  5
2E417
102
{ACAD_REACTORS
330
2E416
102
}
330
2E416
100
AcDbXrecord
280
     1
290
     1
  0
SORTENTSTABLE
  5
B1BA
102
{ACAD_REACTORS
330
8A
102
}
330
8A
100
AcDbSortentsTable
330
1F
331
314CA
  5
314CA
331
314CB
  5
314CB
331
314EB
  5
314EC
331
314CC
  5
314CC
331
314CD
  5
314CD
331
314EC
  5
314ED
331
314ED
  5
314EE
331
314CE
  5
314CE
331
314CF
  5
314CF
331
314EE
  5
314EF
331
314EF
  5
314F0
331
314D0
  5
314D0
331
314D1
  5
314D1
331
314F0
  5
314F2
331
315B2
  5
315B2
331
314F1
  5
314F4
331
314D2
  5
314D2
331
314D3
  5
314D3
331
314F2
  5
314F5
331
3165B
  5
3165B
331
31484
  5
31484
331
314F3
  5
31551
331
3165C
  5
3165C
331
31485
  5
31485
331
314F4
  5
31552
331
3165D
  5
3165D
331
31EB8
  5
31EBE
331
31486
  5
31486
331
31ED0
  5
31EDA
331
314F5
  5
31553
331
3165E
  5
3165E
331
31EB9
  5
31EBF
331
31487
  5
31487
331
31F08
  5
31F12
331
3170E
  5
3170E
331
31EBA
  5
31EC1
331
31488
  5
31488
331
31F28
  5
31F2A
331
31F09
  5
31F15
331
31ED2
  5
31EE5
331
3170F
  5
3170F
331
31EBB
  5
31EC3
331
31489
  5
31489
331
314D8
  5
314D8
331
31F29
  5
31F2B
331
31CCD
  5
31CCD
331
3148A
  5
3148A
331
31F2A
  5
31F86
331
31662
  5
31662
331
3159C
  5
3159C
331
3148B
  5
3148B
331
31F2B
  5
31F87
331
31ED5
  5
31F04
331
31663
  5
31663
331
3148C
  5
3148C
331
31ED6
  5
31F08
331
3148D
  5
3148D
331
3148E
  5
3148E
331
31665
  5
31665
331
3148F
  5
3148F
331
314DE
  5
314DE
331
31666
  5
31666
331
31F10
  5
31F16
331
31C9C
  5
31C9C
331
315C8
  5
315C8
331
31586
  5
31586
331
314DF
  5
314DF
331
31667
  5
31667
331
31EDA
  5
31F09
331
31F11
  5
31F17
331
3175E
  5
3175E
331
31EC3
  5
31ECB
331
314E0
  5
314E0
331
31668
  5
31668
331
31F12
  5
31F18
331
31EC4
  5
31ECC
331
314E1
  5
314E1
331
31669
  5
31669
331
314E2
  5
314E2
331
3166A
  5
3166A
331
314E3
  5
314E3
331
3166B
  5
3166C
331
314C4
  5
314C4
331
31F15
  5
31F19
331
3166C
  5
3166D
331
314C5
  5
314C5
331
31F16
  5
31F1A
331
3166D
  5
3166E
331
314C6
  5
314C6
331
31F86
  5
3203C
331
31F17
  5
31F1B
331
31EC9
  5
31ECD
331
314E6
  5
314E6
331
3166E
  5
3166F
331
314C7
  5
314C7
331
31F18
  5
31F1C
331
31F87
  5
3203D
331
31ECA
  5
31ECE
331
314E7
  5
314E7
331
3166F
  5
31670
331
31F19
  5
31F1D
331
31ECB
  5
31ECF
331
31670
  5
31671
331
31F1A
  5
31F1E
331
31ECC
  5
31ED0
331
31671
  5
31673
331
31F1B
  5
31F1F
331
31ECD
  5
31ED2
331
31672
  5
31675
331
31F1C
  5
31F20
331
31EE5
  5
31F10
331
31EAF
  5
31EAF
331
31ECE
  5
31ED5
331
31673
  5
31676
331
31F1D
  5
31F21
331
3203C
  5
3203E
331
31EB0
  5
31EB0
331
31ECF
  5
31ED6
331
31674
  5
316F7
331
31F1E
  5
31EB9
331
3203D
  5
3203F
331
31675
  5
316F8
331
31F1F
  5
31EB7
331
3203E
  5
32040
331
31EB2
  5
31EB2
331
31676
  5
316F9
331
31F20
  5
31F22
331
3203F
  5
32041
331
31F21
  5
31F23
331
32040
  5
32042
331
31786
  5
31786
331
31EB4
  5
31EB5
331
31F22
  5
31F24
331
31EB5
  5
31EB8
331
31F04
  5
31F11
331
31F23
  5
31F25
331
32042
  5
3209E
331
31EB6
  5
31EBA
331
32043
  5
31EB6
331
31F24
  5
31F26
331
31EB7
  5
31EBB
331
31F25
  5
31F27
331
31F26
  5
31F29
331
32585
  5
31EB4
331
314C8
  5
314C8
331
314C9
  5
314C9
331
314E8
  5
314E8
  0
XRECORD
  5
327AD
102
{ACAD_REACTORS
330
327AC
102
}
330
327AC
100
AcDbXrecord
280
     1
 70
     1
  0
LAYOUT
  5
22
102
{ACAD_XDICTIONARY
360
327B0
102
}
102
{ACAD_REACTORS
330
1A
102
}
330
1A
100
AcDbPlotSettings
  1

  2
FX DocuWide 2050/2051
  4
A3
  6
AM_VIEW1
 40
3.174999952316284
 41
3.174999952316284
 42
3.17498779296875
 43
3.17498779296875
 44
296.989501953125
 45
419.9889831542968
 46
0.0
 47
1.295841228961961
 48
214.3704939521119
 49
367.5855324241176
140
275.6727856380065
141
407.629191407817
142
1.0
143
0.7225445603030646
 70
  3764
 72
     1
 73
     1
 74
     2
  7
monochrome.ctb
 75
     0
147
1.383997686703999
148
-1700.85588156276
149
-1647.985052086429
100
AcDbLayout
  1
Model
 70
     1
 71
     0
 10
0.0
 20
0.0
 11
12.0
 21
9.0
 12
0.0
 22
0.0
 32
0.0
 14
0.0
 24
0.0
 34
0.0
 15
0.0
 25
0.0
 35
0.0
146
0.0
 13
0.0
 23
0.0
 33
0.0
 16
1.0
 26
0.0
 36
0.0
 17
0.0
 27
1.0
 37
0.0
 76
     0
330
1F
331
B0EC
1001
ACAD_PSEXT
1000
FX DocuWide 2050/2051
1000
FX DocuWide 2050/2051
1000
IP_192.200.15.252
1000

1070
     0
  0
LAYOUT
  5
1E
102
{ACAD_XDICTIONARY
360
327AE
102
}
102
{ACAD_REACTORS
330
1A
102
}
330
1A
100
AcDbPlotSettings
  1

  2
\\ML370\XEROX
  4
A4
  6

 40
3.174999952316284
 41
3.174999952316284
 42
3.175003051757812
 43
3.17498779296875
 44
209.8674926757813
 45
296.6719970703125
 46
0.0
 47
0.0
 48
0.0
 49
0.0
140
0.0
141
0.0
142
1.0
143
1.0
 70
   688
 72
     1
 73
     1
 74
     5
  7
monochrome.ctb
 75
    16
147
1.0
148
0.0
149
0.0
100
AcDbLayout
  1
ﾚｲｱｳﾄ1
 70
     1
 71
     1
 10
-3.17498779296875
 20
-3.174999952316284
 11
293.4970092773438
 21
206.692492723465
 12
0.0
 22
0.0
 32
0.0
 14
1.000000000000000E+20
 24
1.000000000000000E+20
 34
1.000000000000000E+20
 15
-1.000000000000000E+20
 25
-1.000000000000000E+20
 35
-1.000000000000000E+20
146
0.0
 13
0.0
 23
0.0
 33
0.0
 16
1.0
 26
0.0
 36
0.0
 17
0.0
 27
1.0
 37
0.0
 76
     0
330
1B
  0
LAYOUT
  5
26
102
{ACAD_XDICTIONARY
360
327B2
102
}
102
{ACAD_REACTORS
330
1A
102
}
330
1A
100
AcDbPlotSettings
  1

  2
\\ML370\XEROX
  4

  6

 40
0.0
 41
0.0
 42
0.0
 43
0.0
 44
0.0
 45
0.0
 46
0.0
 47
0.0
 48
0.0
 49
0.0
140
0.0
141
0.0
142
1.0
143
1.0
 70
   688
 72
     0
 73
     0
 74
     5
  7
monochrome.ctb
 75
    16
147
1.0
148
0.0
149
0.0
100
AcDbLayout
  1
ﾚｲｱｳﾄ2
 70
     1
 71
     2
 10
0.0
 20
0.0
 11
12.0
 21
9.0
 12
0.0
 22
0.0
 32
0.0
 14
0.0
 24
0.0
 34
0.0
 15
0.0
 25
0.0
 35
0.0
146
0.0
 13
0.0
 23
0.0
 33
0.0
 16
1.0
 26
0.0
 36
0.0
 17
0.0
 27
1.0
 37
0.0
 76
     0
330
23
  0
MATERIAL
  5
B0EF
102
{ACAD_XDICTIONARY
360
327B8
102
}
102
{ACAD_REACTORS
330
A91C
102
}
330
A91C
100
AcDbMaterial
  1
ByBlock
  0
MATERIAL
  5
B0EE
102
{ACAD_XDICTIONARY
360
327B6
102
}
102
{ACAD_REACTORS
330
A91C
102
}
330
A91C
100
AcDbMaterial
  1
ByLayer
  0
MATERIAL
  5
B0F0
102
{ACAD_XDICTIONARY
360
327BA
102
}
102
{ACAD_REACTORS
330
A91C
102
}
330
A91C
100
AcDbMaterial
  1
Global
  0
MLINESTYLE
  5
18
102
{ACAD_REACTORS
330
17
102
}
330
17
100
AcDbMlineStyle
  2
STANDARD
 70
     0
  3

 62
   256
 51
90.0
 52
90.0
 71
     2
 49
0.5
 62
   256
  6
BYLAYER
 49
-0.5
 62
   256
  6
BYLAYER
  0
ACDBPLACEHOLDER
  5
F
102
{ACAD_REACTORS
330
E
102
}
330
E
  0
TABLESTYLE
  5
AABA
102
{ACAD_XDICTIONARY
360
327B4
102
}
102
{ACAD_REACTORS
330
AAB9
102
}
330
AAB9
100
AcDbTableStyle
  3
Standard
 70
     0
 71
     0
 40
1.5
 41
1.5
280
     0
281
     0
  7
STANDARD
140
4.5
170
     2
 62
     0
 63
     7
283
     0
274
    -2
284
     1
 64
     0
275
    -2
285
     1
 65
     0
276
    -2
286
     1
 66
     0
277
    -2
287
     1
 67
     0
278
    -2
288
     1
 68
     0
279
    -2
289
     1
 69
     0
  7
STANDARD
140
6.0
170
     5
 62
     0
 63
     7
283
     0
274
    -2
284
     1
 64
     0
275
    -2
285
     1
 65
     0
276
    -2
286
     1
 66
     0
277
    -2
287
     1
 67
     0
278
    -2
288
     1
 68
     0
279
    -2
289
     1
 69
     0
  7
STANDARD
140
4.5
170
     5
 62
     0
 63
     7
283
     0
274
    -2
284
     1
 64
     0
275
    -2
285
     1
 65
     0
276
    -2
286
     1
 66
     0
277
    -2
287
     1
 67
     0
278
    -2
288
     1
 68
     0
279
    -2
289
     1
 69
     0
  0
VISUALSTYLE
  5
B0F7
102
{ACAD_REACTORS
330
B0F1
102
}
330
B0F1
100
AcDbVisualStyle
  2
2dWireframe
 70
     4
 71
     0
 72
     2
 73
     0
 90
        0
 40
-0.6
 41
-30.0
 62
     5
 63
     7
 74
     1
 91
        4
 64
     7
 65
   257
 75
     1
175
     1
 42
1.0
 92
        0
 66
   257
 43
1.0
 76
     1
 77
     6
 78
     2
 67
     7
 79
     5
170
     0
171
     0
290
     0
174
     0
 93
        1
 44
0.0
173
     0
291
     0
 45
0.0
1001
ACAD
1000
AcDbSavedByObjectVersion
1070
     0
  0
VISUALSTYLE
  5
B0F9
102
{ACAD_REACTORS
330
B0F1
102
}
330
B0F1
100
AcDbVisualStyle
  2
3D Hidden
 70
     6
 71
     1
 72
     2
 73
     2
 90
        0
 40
-0.6
 41
-30.0
 62
     5
 63
     7
 74
     2
 91
        2
 64
     7
 65
   257
 75
     2
175
     1
 42
40.0
 92
        0
 66
   257
 43
1.0
 76
     1
 77
     6
 78
     2
 67
     7
 79
     3
170
     0
171
     0
290
     0
174
     0
 93
        1
 44
0.0
173
     0
291
     0
 45
0.0
1001
ACAD
1000
AcDbSavedByObjectVersion
1070
     0
  0
VISUALSTYLE
  5
B0F8
102
{ACAD_REACTORS
330
B0F1
102
}
330
B0F1
100
AcDbVisualStyle
  2
3dWireframe
 70
     5
 71
     0
 72
     2
 73
     0
 90
        0
 40
-0.6
 41
-30.0
 62
     5
 63
     7
 74
     1
 91
        4
 64
     7
 65
   257
 75
     1
175
     1
 42
1.0
 92
        0
 66
   257
 43
1.0
 76
     1
 77
     6
 78
     2
 67
     7
 79
     5
170
     0
171
     0
290
     0
174
     0
 93
        1
 44
0.0
173
     0
291
     0
 45
0.0
1001
ACAD
1000
AcDbSavedByObjectVersion
1070
     0
  0
VISUALSTYLE
  5
B0F6
102
{ACAD_REACTORS
330
B0F1
102
}
330
B0F1
100
AcDbVisualStyle
  2
Basic
 70
     7
 71
     1
 72
     0
 73
     1
 90
        0
 40
-0.6
 41
-30.0
 62
     5
 63
     7
 74
     0
 91
        4
 64
     7
 65
   257
 75
     1
175
     1
 42
1.0
 92
        8
 66
     7
 43
1.0
 76
     1
 77
     6
 78
     2
 67
     7
 79
     5
170
     0
171
     0
290
     0
174
     0
 93
        1
 44
0.0
173
     0
291
     1
 45
0.0
1001
ACAD
1000
AcDbSavedByObjectVersion
1070
     0
  0
VISUALSTYLE
  5
B0FD
102
{ACAD_REACTORS
330
B0F1
102
}
330
B0F1
100
AcDbVisualStyle
  2
Brighten
 70
    12
 71
     2
 72
     2
 73
     0
 90
        0
 40
-0.6
 41
-30.0
 62
     5
 63
     7
 74
     1
 91
        4
 64
     7
 65
   257
 75
     1
175
     1
 42
1.0
 92
        8
 66
     7
 43
1.0
 76
     1
 77
     6
 78
     2
 67
     7
 79
     5
170
     0
171
     0
290
     0
174
     0
 93
        1
 44
50.0
173
     0
291
     1
 45
0.0
1001
ACAD
1000
AcDbSavedByObjectVersion
1070
     0
  0
VISUALSTYLE
  5
B101
102
{ACAD_REACTORS
330
B0F1
102
}
330
B0F1
100
AcDbVisualStyle
  2
ColorChange
 70
    16
 71
     2
 72
     2
 73
     3
 90
        0
 40
-0.6
 41
-30.0
 62
     5
 63
     8
 74
     1
 91
        4
 64
     7
 65
   257
 75
     1
175
     1
 42
1.0
 92
        8
 66
     8
 43
1.0
 76
     1
 77
     6
 78
     2
 67
     7
 79
     5
170
     0
171
     0
290
     0
174
     0
 93
        1
 44
0.0
173
     0
291
     1
 45
0.0
1001
ACAD
1000
AcDbSavedByObjectVersion
1070
     0
  0
VISUALSTYLE
  5
B0FA
102
{ACAD_REACTORS
330
B0F1
102
}
330
B0F1
100
AcDbVisualStyle
  2
Conceptual
 70
     9
 71
     3
 72
     2
 73
     0
 90
        0
 40
-0.6
 41
-30.0
 62
     5
 63
     7
 74
     2
 91
        2
 64
     7
 65
   257
 75
     1
175
     1
 42
40.0
 92
        8
 66
     7
 43
1.0
 76
     1
 77
     6
 78
     2
 67
     7
 79
     3
170
     0
171
     0
290
     0
174
     0
 93
        1
 44
0.0
173
     0
291
     0
 45
0.0
1001
ACAD
1000
AcDbSavedByObjectVersion
1070
     0
  0
VISUALSTYLE
  5
B0FC
102
{ACAD_REACTORS
330
B0F1
102
}
330
B0F1
100
AcDbVisualStyle
  2
Dim
 70
    11
 71
     2
 72
     2
 73
     0
 90
        0
 40
-0.6
 41
-30.0
 62
     5
 63
     7
 74
     1
 91
        4
 64
     7
 65
   257
 75
     1
175
     1
 42
1.0
 92
        8
 66
     7
 43
1.0
 76
     1
 77
     6
 78
     2
 67
     7
 79
     5
170
     0
171
     0
290
     0
174
     0
 93
        1
 44
-50.0
173
     0
291
     1
 45
0.0
1001
ACAD
1000
AcDbSavedByObjectVersion
1070
     0
  0
VISUALSTYLE
  5
B100
102
{ACAD_REACTORS
330
B0F1
102
}
330
B0F1
100
AcDbVisualStyle
  2
Facepattern
 70
    15
 71
     2
 72
     2
 73
     0
 90
        0
 40
-0.6
 41
-30.0
 62
     5
 63
     7
 74
     1
 91
        4
 64
     7
 65
   257
 75
     1
175
     1
 42
1.0
 92
        8
 66
     7
 43
1.0
 76
     1
 77
     6
 78
     2
 67
     7
 79
     5
170
     0
171
     0
290
     0
174
     0
 93
        1
 44
0.0
173
     0
291
     1
 45
0.0
1001
ACAD
1000
AcDbSavedByObjectVersion
1070
     0
  0
VISUALSTYLE
  5
B0F2
102
{ACAD_REACTORS
330
B0F1
102
}
330
B0F1
100
AcDbVisualStyle
  2
Flat
 70
     0
 71
     2
 72
     1
 73
     1
 90
        2
 40
-0.6
 41
30.0
 62
     5
 63
     7
 74
     0
 91
        4
 64
     7
 65
   257
 75
     1
175
     1
 42
1.0
 92
        8
 66
     7
 43
1.0
 76
     1
 77
     6
 78
     2
 67
     7
 79
     5
170
     0
171
     0
290
     0
174
     0
 93
       13
 44
0.0
173
     0
291
     1
 45
0.0
1001
ACAD
1000
AcDbSavedByObjectVersion
1070
     0
  0
VISUALSTYLE
  5
B0F3
102
{ACAD_REACTORS
330
B0F1
102
}
330
B0F1
100
AcDbVisualStyle
  2
FlatWithEdges
 70
     1
 71
     2
 72
     1
 73
     1
 90
        2
 40
-0.6
 41
30.0
 62
     5
 63
     7
 74
     1
 91
        4
 64
     7
 65
   257
 75
     1
175
     1
 42
1.0
 92
        0
 66
   257
 43
1.0
 76
     1
 77
     6
 78
     2
 67
     7
 79
     5
170
     0
171
     0
290
     0
174
     0
 93
       13
 44
0.0
173
     0
291
     1
 45
0.0
1001
ACAD
1000
AcDbSavedByObjectVersion
1070
     0
  0
VISUALSTYLE
  5
B0F4
102
{ACAD_REACTORS
330
B0F1
102
}
330
B0F1
100
AcDbVisualStyle
  2
Gouraud
 70
     2
 71
     2
 72
     2
 73
     1
 90
        2
 40
-0.6
 41
30.0
 62
     5
 63
     7
 74
     0
 91
        4
 64
     7
 65
   257
 75
     1
175
     1
 42
1.0
 92
        0
 66
     7
 43
1.0
 76
     1
 77
     6
 78
     2
 67
     7
 79
     5
170
     0
171
     0
290
     0
174
     0
 93
       13
 44
0.0
173
     0
291
     1
 45
0.0
1001
ACAD
1000
AcDbSavedByObjectVersion
1070
     0
  0
VISUALSTYLE
  5
B0F5
102
{ACAD_REACTORS
330
B0F1
102
}
330
B0F1
100
AcDbVisualStyle
  2
GouraudWithEdges
 70
     3
 71
     2
 72
     2
 73
     1
 90
        2
 40
-0.6
 41
30.0
 62
     5
 63
     7
 74
     1
 91
        4
 64
     7
 65
   257
 75
     1
175
     1
 42
1.0
 92
        0
 66
   257
 43
1.0
 76
     1
 77
     6
 78
     2
 67
     7
 79
     5
170
     0
171
     0
290
     0
174
     0
 93
       13
 44
0.0
173
     0
291
     1
 45
0.0
1001
ACAD
1000
AcDbSavedByObjectVersion
1070
     0
  0
VISUALSTYLE
  5
B0FF
102
{ACAD_REACTORS
330
B0F1
102
}
330
B0F1
100
AcDbVisualStyle
  2
Linepattern
 70
    14
 71
     2
 72
     2
 73
     0
 90
        0
 40
-0.6
 41
-30.0
 62
     5
 63
     7
 74
     1
 91
        4
 64
     7
 65
   257
 75
     7
175
     7
 42
1.0
 92
        8
 66
     7
 43
1.0
 76
     1
 77
     6
 78
     2
 67
     7
 79
     5
170
     0
171
     0
290
     0
174
     0
 93
        1
 44
0.0
173
     0
291
     1
 45
0.0
1001
ACAD
1000
AcDbSavedByObjectVersion
1070
     0
  0
VISUALSTYLE
  5
B0FB
102
{ACAD_REACTORS
330
B0F1
102
}
330
B0F1
100
AcDbVisualStyle
  2
Realistic
 70
     8
 71
     2
 72
     2
 73
     0
 90
        0
 40
-0.6
 41
-30.0
 62
     5
 63
     7
 74
     1
 91
        0
 64
     7
 65
   257
 75
     1
175
     1
 42
1.0
 92
        8
 66
     8
 43
1.0
 76
     1
 77
     6
 78
     2
 67
     7
 79
     5
170
     0
171
     0
290
     0
174
     0
 93
       13
 44
0.0
173
     0
291
     0
 45
0.0
1001
ACAD
1000
AcDbSavedByObjectVersion
1070
     0
  0
VISUALSTYLE
  5
B0FE
102
{ACAD_REACTORS
330
B0F1
102
}
330
B0F1
100
AcDbVisualStyle
  2
Thicken
 70
    13
 71
     2
 72
     2
 73
     0
 90
        0
 40
-0.6
 41
-30.0
 62
     5
 63
     7
 74
     1
 91
        4
 64
     7
 65
   257
 75
     1
175
     1
 42
1.0
 92
       12
 66
     7
 43
1.0
 76
     1
 77
     6
 78
     2
 67
     7
 79
     5
170
     0
171
     0
290
     0
174
     0
 93
        1
 44
0.0
173
     0
291
     1
 45
0.0
1001
ACAD
1000
AcDbSavedByObjectVersion
1070
     0
  0
DICTIONARYVAR
  5
AAF3
102
{ACAD_REACTORS
330
34
102
}
330
34
100
DictionaryVariables
280
     0
  1
STANDARD
  0
DICTIONARYVAR
  5
A10C
102
{ACAD_REACTORS
330
34
102
}
330
34
100
DictionaryVariables
280
     0
  1
1
  0
DICTIONARYVAR
  5
AB07
102
{ACAD_REACTORS
330
34
102
}
330
34
100
DictionaryVariables
280
     0
  1
4
  0
DICTIONARYVAR
  5
35
102
{ACAD_REACTORS
330
34
102
}
330
34
100
DictionaryVariables
280
     0
  1
0
  0
DICTIONARYVAR
  5
194C
102
{ACAD_REACTORS
330
34
102
}
330
34
100
DictionaryVariables
280
     0
  1
127
  0
DICTIONARY
  5
7E8
102
{ACAD_REACTORS
330
47
102
}
330
47
100
AcDbDictionary
281
     1
  0
DICTIONARY
  5
4C
102
{ACAD_REACTORS
330
47
102
}
330
47
100
AcDbDictionary
281
     1
  0
XRECORD
  5
A929
102
{ACAD_REACTORS
330
47
102
}
330
47
100
AcDbXrecord
280
     1
 90
-1023410169
  0
XRECORD
  5
224CA
102
{ACAD_REACTORS
330
224C9
102
}
330
224C9
100
AcDbXrecord
280
     1
330
0
330
0
330
0
330
0
330
0
330
0
  0
XRECORD
  5
3FB7
102
{ACAD_REACTORS
330
3F96
102
}
330
3F96
100
AcDbXrecord
280
     1
 91
        3
330
0
 90
        8
 62
     7
370
    40
331
16
  1
Color_7
330
0
 90
        0
 62
    14
370
    -3
331
16
  1
Color_14
330
0
 90
        8
 62
     7
370
    20
331
16
  1
Color_7
330
6D1
 90
        0
 62
     7
370
    -3
331
16
  1
Color_7
330
0
 90
        8
 62
     7
370
    50
331
16
  1
Color_7
330
0
 90
        8
 62
     2
370
    35
331
16
  1
Color_2
330
0
 90
        8
 62
     7
370
    -3
331
16
  1
Color_7
330
10
 90
        8
 62
     7
370
    -3
331
16
  1
Color_7
  0
DICTIONARY
  5
327B0
330
22
100
AcDbDictionary
280
     1
281
     1
  3
ACAD_XREC_ROUNDTRIP
360
327B1
  0
DICTIONARY
  5
327AE
330
1E
100
AcDbDictionary
280
     1
281
     1
  3
ACAD_XREC_ROUNDTRIP
360
327AF
  0
DICTIONARY
  5
327B2
330
26
100
AcDbDictionary
280
     1
281
     1
  3
ACAD_XREC_ROUNDTRIP
360
327B3
  0
DICTIONARY
  5
327B8
330
B0EF
100
AcDbDictionary
280
     1
281
     1
  3
ACAD_XREC_ROUNDTRIP
360
327B9
  0
DICTIONARY
  5
327B6
330
B0EE
100
AcDbDictionary
280
     1
281
     1
  3
ACAD_XREC_ROUNDTRIP
360
327B7
  0
DICTIONARY
  5
327BA
330
B0F0
100
AcDbDictionary
280
     1
281
     1
  3
ACAD_XREC_ROUNDTRIP
360
327BB
  0
DICTIONARY
  5
327B4
330
AABA
100
AcDbDictionary
280
     1
281
     1
  3
ACAD_XREC_ROUNDTRIP
360
327B5
  0
XRECORD
  5
327B1
102
{ACAD_REACTORS
330
327B0
102
}
330
327B0
100
AcDbXrecord
280
     1
102
SHADEPLOT
 70
     0
102
SHADEPLOTRESLEVEL
 70
     2
102
SHADEPLOTCUSTOMDPI
 70
   200
  0
XRECORD
  5
327AF
102
{ACAD_REACTORS
330
327AE
102
}
330
327AE
100
AcDbXrecord
280
     1
102
SHADEPLOT
 70
     0
102
SHADEPLOTRESLEVEL
 70
     2
102
SHADEPLOTCUSTOMDPI
 70
   300
  0
XRECORD
  5
327B3
102
{ACAD_REACTORS
330
327B2
102
}
330
327B2
100
AcDbXrecord
280
     1
102
SHADEPLOT
 70
     0
102
SHADEPLOTRESLEVEL
 70
     2
102
SHADEPLOTCUSTOMDPI
 70
   300
  0
XRECORD
  5
327B9
102
{ACAD_REACTORS
330
327B8
102
}
330
327B8
100
AcDbXrecord
280
     1
102
MATERIAL
148
0.0
149
0.0
149
0.0
 93
        0
 94
       63
282
     0
 72
     1
 77
     1
171
     1
175
     1
179
     1
273
     0
  0
XRECORD
  5
327B7
102
{ACAD_REACTORS
330
327B6
102
}
330
327B6
100
AcDbXrecord
280
     1
102
MATERIAL
148
0.0
149
0.0
149
0.0
 93
        0
 94
       63
282
     0
 72
     1
 77
     1
171
     1
175
     1
179
     1
273
     0
  0
XRECORD
  5
327BB
102
{ACAD_REACTORS
330
327BA
102
}
330
327BA
100
AcDbXrecord
280
     1
102
MATERIAL
148
0.0
149
0.0
149
0.0
 93
        0
 94
       63
282
     0
 72
     1
 77
     1
171
     1
175
     1
179
     1
273
     0
  0
XRECORD
  5
327B5
102
{ACAD_REACTORS
330
327B4
102
}
330
327B4
100
AcDbXrecord
280
     1
102
ACAD_ROUNDTRIP_PRE2007_TABLESTYLE
 90
        4
 91
        0
  1

 92
        4
 93
        0
  2

 94
        4
 95
        0
  3

  0
ENDSEC
  0
EOF
