  0
SECTION
  2
HEADER
  9
$ACADVER
  1
AC1015
  9
$ACADMAINTVER
 70
    20
  9
$DWGCODEPAGE
  3
ANSI_932
  9
$INSBASE
 10
0.0
 20
0.0
 30
0.0
  9
$EXTMIN
 10
2830.053118084869
 20
2043.700499391371
 30
-0.0015258207003583
  9
$EXTMAX
 10
3127.976806753277
 20
2253.905572871639
 30
0.0000000349246037
  9
$LIMMIN
 10
3779.599158088851
 20
100.7134268036752
  9
$LIMMAX
 10
9719.599158088852
 20
4300.713426803675
  9
$ORTHOMODE
 70
     0
  9
$REGENMODE
 70
     1
  9
$FILLMODE
 70
     1
  9
$QTEXTMODE
 70
     0
  9
$MIRRTEXT
 70
     0
  9
$LTSCALE
 40
1.0
  9
$ATTMODE
 70
     1
  9
$TEXTSIZE
 40
3.2
  9
$TRACEWID
 40
1.0
  9
$TEXTSTYLE
  7
STANDARD
  9
$CLAYER
  8
AM_0
  9
$CELTYPE
  6
ByLayer
  9
$CECOLOR
 62
   256
  9
$CELTSCALE
 40
1.0
  9
$DISPSILH
 70
     0
  9
$DIMSCALE
 40
1.0
  9
$DIMASZ
 40
1.0
  9
$DIMEXO
 40
1.0
  9
$DIMDLI
 40
10.0
  9
$DIMRND
 40
0.0
  9
$DIMDLE
 40
0.0
  9
$DIMEXE
 40
1.0
  9
$DIMTP
 40
0.1
  9
$DIMTM
 40
0.1
  9
$DIMTXT
 40
3.5
  9
$DIMCEN
 40
0.0
  9
$DIMTSZ
 40
0.0
  9
$DIMTOL
 70
     0
  9
$DIMLIM
 70
     0
  9
$DIMTIH
 70
     0
  9
$DIMTOH
 70
     0
  9
$DIMSE1
 70
     0
  9
$DIMSE2
 70
     0
  9
$DIMTAD
 70
     1
  9
$DIMZIN
 70
     8
  9
$DIMBLK
  1

  9
$DIMASO
 70
     1
  9
$DIMSHO
 70
     1
  9
$DIMPOST
  1

  9
$DIMAPOST
  1
"
  9
$DIMALT
 70
     0
  9
$DIMALTD
 70
     2
  9
$DIMALTF
 40
0.0393701
  9
$DIMLFAC
 40
1.0
  9
$DIMTOFL
 70
     1
  9
$DIMTVP
 40
0.0
  9
$DIMTIX
 70
     0
  9
$DIMSOXD
 70
     0
  9
$DIMSAH
 70
     0
  9
$DIMBLK1
  1

  9
$DIMBLK2
  1

  9
$DIMSTYLE
  2
SYS
  9
$DIMCLRD
 70
   256
  9
$DIMCLRE
 70
   256
  9
$DIMCLRT
 70
     7
  9
$DIMTFAC
 40
0.71
  9
$DIMGAP
 40
1.5
  9
$DIMJUST
 70
     0
  9
$DIMSD1
 70
     0
  9
$DIMSD2
 70
     0
  9
$DIMTOLJ
 70
     0
  9
$DIMTZIN
 70
     8
  9
$DIMALTZ
 70
     0
  9
$DIMALTTZ
 70
     0
  9
$DIMUPT
 70
     0
  9
$DIMDEC
 70
     2
  9
$DIMTDEC
 70
     2
  9
$DIMALTU
 70
     2
  9
$DIMALTTD
 70
     2
  9
$DIMTXSTY
  7
STANDARD
  9
$DIMAUNIT
 70
     0
  9
$DIMADEC
 70
     0
  9
$DIMALTRND
 40
0.0
  9
$DIMAZIN
 70
     2
  9
$DIMDSEP
 70
    46
  9
$DIMATFIT
 70
     3
  9
$DIMFRAC
 70
     0
  9
$DIMLDRBLK
  1

  9
$DIMLUNIT
 70
     2
  9
$DIMLWD
 70
    -1
  9
$DIMLWE
 70
    -1
  9
$DIMTMOVE
 70
     0
  9
$LUNITS
 70
     2
  9
$LUPREC
 70
     2
  9
$SKETCHINC
 40
1.0
  9
$FILLETRAD
 40
1.0
  9
$AUNITS
 70
     0
  9
$AUPREC
 70
     0
  9
$MENU
  1
.
  9
$ELEVATION
 40
0.0
  9
$PELEVATION
 40
0.0
  9
$THICKNESS
 40
0.0
  9
$LIMCHECK
 70
     0
  9
$CHAMFERA
 40
0.0
  9
$CHAMFERB
 40
0.0
  9
$CHAMFERC
 40
20.0
  9
$CHAMFERD
 40
0.0
  9
$SKPOLY
 70
     0
  9
$TDCREATE
 40
2455567.680725081
  9
$TDUCREATE
 40
2455567.305725081
  9
$TDUPDATE
 40
2456267.716816215
  9
$TDUUPDATE
 40
2456267.341816215
  9
$TDINDWG
 40
2.4294026505
  9
$TDUSRTIMER
 40
2.4294010185
  9
$USRTIMER
 70
     1
  9
$ANGBASE
 50
0.0
  9
$ANGDIR
 70
     0
  9
$PDMODE
 70
     0
  9
$PDSIZE
 40
-3.0
  9
$PLINEWID
 40
0.0
  9
$SPLFRAME
 70
     0
  9
$SPLINETYPE
 70
     6
  9
$SPLINESEGS
 70
     8
  9
$HANDSEED
  5
324D6
  9
$SURFTAB1
 70
     6
  9
$SURFTAB2
 70
     6
  9
$SURFTYPE
 70
     6
  9
$SURFU
 70
     6
  9
$SURFV
 70
     6
  9
$UCSBASE
  2

  9
$UCSNAME
  2

  9
$UCSORG
 10
0.0
 20
0.0
 30
0.0
  9
$UCSXDIR
 10
1.0
 20
0.0
 30
0.0
  9
$UCSYDIR
 10
0.0
 20
1.0
 30
0.0
  9
$UCSORTHOREF
  2

  9
$UCSORTHOVIEW
 70
     0
  9
$UCSORGTOP
 10
0.0
 20
0.0
 30
0.0
  9
$UCSORGBOTTOM
 10
0.0
 20
0.0
 30
0.0
  9
$UCSORGLEFT
 10
0.0
 20
0.0
 30
0.0
  9
$UCSORGRIGHT
 10
0.0
 20
0.0
 30
0.0
  9
$UCSORGFRONT
 10
0.0
 20
0.0
 30
0.0
  9
$UCSORGBACK
 10
0.0
 20
0.0
 30
0.0
  9
$PUCSBASE
  2

  9
$PUCSNAME
  2

  9
$PUCSORG
 10
0.0
 20
0.0
 30
0.0
  9
$PUCSXDIR
 10
1.0
 20
0.0
 30
0.0
  9
$PUCSYDIR
 10
0.0
 20
1.0
 30
0.0
  9
$PUCSORTHOREF
  2

  9
$PUCSORTHOVIEW
 70
     0
  9
$PUCSORGTOP
 10
0.0
 20
0.0
 30
0.0
  9
$PUCSORGBOTTOM
 10
0.0
 20
0.0
 30
0.0
  9
$PUCSORGLEFT
 10
0.0
 20
0.0
 30
0.0
  9
$PUCSORGRIGHT
 10
0.0
 20
0.0
 30
0.0
  9
$PUCSORGFRONT
 10
0.0
 20
0.0
 30
0.0
  9
$PUCSORGBACK
 10
0.0
 20
0.0
 30
0.0
  9
$USERI1
 70
     0
  9
$USERI2
 70
     0
  9
$USERI3
 70
     0
  9
$USERI4
 70
     0
  9
$USERI5
 70
     0
  9
$USERR1
 40
0.0
  9
$USERR2
 40
0.0
  9
$USERR3
 40
0.0
  9
$USERR4
 40
0.0
  9
$USERR5
 40
0.0
  9
$WORLDVIEW
 70
     1
  9
$SHADEDGE
 70
     3
  9
$SHADEDIF
 70
    70
  9
$TILEMODE
 70
     1
  9
$MAXACTVP
 70
    64
  9
$PINSBASE
 10
0.0
 20
0.0
 30
0.0
  9
$PLIMCHECK
 70
     0
  9
$PEXTMIN
 10
1.000000000000000E+20
 20
1.000000000000000E+20
 30
1.000000000000000E+20
  9
$PEXTMAX
 10
-1.000000000000000E+20
 20
-1.000000000000000E+20
 30
-1.000000000000000E+20
  9
$PLIMMIN
 10
-3.17498779296875
 20
-3.174999952316284
  9
$PLIMMAX
 10
293.4970092773438
 20
206.692492723465
  9
$UNITMODE
 70
     0
  9
$VISRETAIN
 70
     1
  9
$PLINEGEN
 70
     0
  9
$PSLTSCALE
 70
     1
  9
$TREEDEPTH
 70
  3020
  9
$CMLSTYLE
  2
Standard
  9
$CMLJUST
 70
     0
  9
$CMLSCALE
 40
20.0
  9
$PROXYGRAPHICS
 70
     1
  9
$MEASUREMENT
 70
     1
  9
$CELWEIGHT
370
    -1
  9
$ENDCAPS
280
     0
  9
$JOINSTYLE
280
     0
  9
$LWDISPLAY
290
     1
  9
$INSUNITS
 70
     4
  9
$HYPERLINKBASE
  1

  9
$STYLESHEET
  1
monochrome.ctb
  9
$XEDIT
290
     1
  9
$CEPSNTYPE
380
     0
  9
$PSTYLEMODE
290
     1
  9
$FINGERPRINTGUID
  2
{487E49EE-344A-43F6-800E-CE119D8346FF}
  9
$VERSIONGUID
  2
{8CB648E9-A59D-4652-983B-CFA9C201F49B}
  9
$EXTNAMES
290
     1
  9
$PSVPSCALE
 40
0.0
  9
$OLESTARTUP
290
     0
  0
ENDSEC
  0
SECTION
  2
CLASSES
  0
CLASS
  1
ACDBDICTIONARYWDFLT
  2
AcDbDictionaryWithDefault
  3
ObjectDBX Classes
 90
        0
280
     0
281
     0
  0
CLASS
  1
ACDBPLACEHOLDER
  2
AcDbPlaceHolder
  3
ObjectDBX Classes
 90
        0
280
     0
281
     0
  0
CLASS
  1
LAYOUT
  2
AcDbLayout
  3
ObjectDBX Classes
 90
        0
280
     0
281
     0
  0
CLASS
  1
AMGSETTINGSOBJ
  2
AmgSettingsObj
  3
"AcadM|Product Description: AutoCAD Mechanical|Company: Autodesk"
 90
        0
280
     0
281
     0
  0
CLASS
  1
ACME_DOCUMENT
  2
AcMeDbDoc
  3
AcMeServices
 90
        0
280
     0
281
     0
  0
CLASS
  1
ACMESCOPE
  2
AcMeScope
  3
AcMeServices
 90
        0
280
     0
281
     0
  0
CLASS
  1
ACMECOMMANDHISTORY
  2
AcMeCommandHistory
  3
AcMeServices
 90
        0
280
     0
281
     0
  0
CLASS
  1
DICTIONARYVAR
  2
AcDbDictionaryVar
  3
ObjectDBX Classes
 90
        0
280
     0
281
     0
  0
CLASS
  1
ACIMSYSVARMAN
  2
AcImSysVarManager
  3
AcMeServices
 90
        0
280
     0
281
     0
  0
CLASS
  1
ACIMREALSYSVAR
  2
AcImRealSysVar
  3
AcMeServices
 90
        0
280
     0
281
     0
  0
CLASS
  1
ACIMINTSYSVAR
  2
AcImIntSysVar
  3
AcMeServices
 90
        0
280
     0
281
     0
  0
CLASS
  1
ACMEDRAWINGMAN
  2
AcMeDrawingMan
  3
AcMeServices
 90
        0
280
     0
281
     0
  0
CLASS
  1
ACMEVIEW
  2
AcMeView
  3
AcMeServices
 90
        0
280
     0
281
     0
  0
CLASS
  1
ACDBENTITYCACHE
  2
AcMeEntityCache
  3
AcMeServices
 90
        0
280
     0
281
     0
  0
CLASS
  1
GSMANAGER
  2
AcMeGSManager
  3
AcMeServices
 90
        0
280
     0
281
     0
  0
CLASS
  1
AMDTINTERNALREACTOR
  2
AmdtInternalReactor
  3
AcMeServices
 90
        0
280
     0
281
     0
  0
CLASS
  1
ACMESTATEMGR
  2
AcMeStateMgr
  3
AcMeServices
 90
        0
280
     0
281
     0
  0
CLASS
  1
ACGREFMASTER
  2
AcGrefMaster
  3
AcAttribServices
 90
        0
280
     0
281
     0
  0
CLASS
  1
ACME_DATABASE
  2
AcMeDbDatabase
  3
AcMeServices
 90
        0
280
     0
281
     0
  0
CLASS
  1
ACRFINSADJUSTERMGR
  2
AcRfInsAdjusterMgr
  3
AcMeServices
 90
        0
280
     0
281
     0
  0
CLASS
  1
ACGREFACADMASTER
  2
AcGrefacadMaster
  3
AcGrefServices
 90
        0
280
     0
281
     0
  0
CLASS
  1
AMIMASTER
  2
AmiMaster
  3
AmiServices
 90
        0
280
     0
281
     0
  0
CLASS
  1
ACMDATADICTIONARY
  2
AcmDataDictionary
  3
"AcmSymBB|Product Description: AutoCAD Mechanical|Company: Autodesk"
 90
        0
280
     0
281
     0
  0
CLASS
  1
ACMDATAENTRYBLOCK
  2
AcmDataEntryBlock
  3
"AcmSymBB|Product Description: AutoCAD Mechanical|Company: Autodesk"
 90
        0
280
     0
281
     0
  0
CLASS
  1
ACIMSTRSYSVAR
  2
AcImStrSysVar
  3
AcMeServices
 90
        0
280
     0
281
     0
  0
CLASS
  1
ACMSTANDARDISO
  2
AcmStandardISO
  3
"Amdt_StdImp|Product Description: AutoCAD Mechanical|Company: Autodesk"
 90
        0
280
     0
281
     0
  0
CLASS
  1
AMGOBJPROPCFG
  2
AmgObjPropCfg
  3
"AmgLay|Product Description: AutoCAD Mechanical|Company: Autodesk"
 90
        1
280
     0
281
     0
  0
CLASS
  1
AMDTEDGESTANDARDISO
  2
AmdtEdgeStdISO
  3
"Amdt_StdImp|Product Description: AutoCAD Mechanical|Company: Autodesk"
 90
        0
280
     0
281
     0
  0
CLASS
  1
ACMSURFSTANDARDISO
  2
AcmSurfTextStdISO
  3
"Amdt_StdImp|Product Description: AutoCAD Mechanical|Company: Autodesk"
 90
        0
280
     0
281
     0
  0
CLASS
  1
ACMFCFSTANDARDISO
  2
AcmFCFStdISO
  3
"Amdt_StdImp|Product Description: AutoCAD Mechanical|Company: Autodesk"
 90
        0
280
     0
281
     0
  0
CLASS
  1
ACMWELDSTANDARDISO
  2
AcmWeldingStdISO
  3
"Amdt_StdImp|Product Description: AutoCAD Mechanical|Company: Autodesk"
 90
        0
280
     0
281
     0
  0
CLASS
  1
ACMIDSTANDARDISO
  2
AcmIdStdISO
  3
"Amdt_StdImp|Product Description: AutoCAD Mechanical|Company: Autodesk"
 90
        0
280
     0
281
     0
  0
CLASS
  1
ACMDATUMSTANDARDISO
  2
AcmDatumStdISO
  3
"Amdt_StdImp|Product Description: AutoCAD Mechanical|Company: Autodesk"
 90
        0
280
     0
281
     0
  0
CLASS
  1
ACMBOMSTANDARDISO
  2
AcmBOMStdISO
  3
"Amdt_StdImp|Product Description: AutoCAD Mechanical|Company: Autodesk"
 90
        0
280
     0
281
     0
  0
CLASS
  1
ACMDETAILSTANDARDISO
  2
AmdtDetailSymStdISO
  3
"Amdt_StdImp|Product Description: AutoCAD Mechanical|Company: Autodesk"
 90
        0
280
     0
281
     0
  0
CLASS
  1
ACMSECTIONSTANDARDISO
  2
AmdtSectionSymStdISO
  3
"Amdt_StdImp|Product Description: AutoCAD Mechanical|Company: Autodesk"
 90
        0
280
     0
281
     0
  0
CLASS
  1
ACMCENTERLINESTANDARDISO
  2
AmdtCenterLineStdISO
  3
"Amdt_StdImp|Product Description: AutoCAD Mechanical|Company: Autodesk"
 90
        0
280
     0
281
     0
  0
CLASS
  1
ACAMGLAYSTD
  2
AcAmgLayStd
  3
"AmgLay|Product Description: AutoCAD Mechanical|Company: Autodesk"
 90
        0
280
     0
281
     0
  0
CLASS
  1
ACAMGDIMSTD
  2
AcAmgDimStd
  3
"AmgDim|Product Description: AutoCAD Mechanical|Company: Autodesk"
 90
        0
280
     0
281
     0
  0
CLASS
  1
ACAMGTITLESTD
  2
AcAmgTitleStd
  3
"AmgTitle|Product Description: AutoCAD Mechanical|Company: Autodesk"
 90
        0
280
     0
281
     0
  0
CLASS
  1
ACAMGFILTERDAT
  2
AcAmgFilterDat
  3
"AcadM|Product Description: AutoCAD Mechanical|Company: Autodesk"
 90
        0
280
     0
281
     0
  0
CLASS
  1
LAYER_INDEX
  2
AcDbLayerIndex
  3
ObjectDBX Classes
 90
    32768
280
     0
281
     0
  0
CLASS
  1
IDBUFFER
  2
AcDbIdBuffer
  3
ObjectDBX Classes
 90
    32768
280
     0
281
     0
  0
CLASS
  1
PLOTSETTINGS
  2
AcDbPlotSettings
  3
ObjectDBX Classes
 90
    32768
280
     0
281
     0
  0
CLASS
  1
AMDTFORMULAUPDATEDISPATCHER
  2
AmdtFormulaUpdateDispatcher
  3
AcMeServices
 90
        0
280
     0
281
     0
  0
CLASS
  1
ACMSTANDARDANSI
  2
AcmStandardANSI
  3
"Amdt_StdImp|Product Description: AutoCAD Mechanical|Company: Autodesk"
 90
        0
280
     0
281
     0
  0
CLASS
  1
ACMSURFSTANDARDANSI
  2
AcmSurfTextStdANSI
  3
"Amdt_StdImp|Product Description: AutoCAD Mechanical|Company: Autodesk"
 90
        0
280
     0
281
     0
  0
CLASS
  1
ACMFCFSTANDARDANSI
  2
AcmFCFStdANSI
  3
"Amdt_StdImp|Product Description: AutoCAD Mechanical|Company: Autodesk"
 90
        0
280
     0
281
     0
  0
CLASS
  1
ACMWELDSTANDARDANSI
  2
AcmWeldingStdANSI
  3
"Amdt_StdImp|Product Description: AutoCAD Mechanical|Company: Autodesk"
 90
        0
280
     0
281
     0
  0
CLASS
  1
ACMIDSTANDARDANSI
  2
AcmIdStdANSI
  3
"Amdt_StdImp|Product Description: AutoCAD Mechanical|Company: Autodesk"
 90
        0
280
     0
281
     0
  0
CLASS
  1
ACMDATUMSTANDARDANSI
  2
AcmDatumStdANSI
  3
"Amdt_StdImp|Product Description: AutoCAD Mechanical|Company: Autodesk"
 90
        0
280
     0
281
     0
  0
CLASS
  1
ACMBOMSTANDARDANSI
  2
AcmBOMStdANSI
  3
"Amdt_StdImp|Product Description: AutoCAD Mechanical|Company: Autodesk"
 90
        0
280
     0
281
     0
  0
CLASS
  1
ACMDETAILSTANDARDANSI
  2
AmdtDetailSymStdANSI
  3
"Amdt_StdImp|Product Description: AutoCAD Mechanical|Company: Autodesk"
 90
        0
280
     0
281
     0
  0
CLASS
  1
ACMSECTIONSTANDARDANSI
  2
AmdtSectionSymStdANSI
  3
"Amdt_StdImp|Product Description: AutoCAD Mechanical|Company: Autodesk"
 90
        0
280
     0
281
     0
  0
CLASS
  1
ACMCENTERLINESTANDARDANSI
  2
AmdtCenterLineStdANSI
  3
"Amdt_StdImp|Product Description: AutoCAD Mechanical|Company: Autodesk"
 90
        0
280
     0
281
     0
  0
CLASS
  1
ACMBOM
  2
AcmBom
  3
"AcmSymBB|Product Description: AutoCAD Mechanical|Company: Autodesk"
 90
        0
280
     0
281
     0
  0
CLASS
  1
ACMDATAENTRYPART
  2
AcmDataEntryPart
  3
"AcmSymBB|Product Description: AutoCAD Mechanical|Company: Autodesk"
 90
    32768
280
     0
281
     0
  0
CLASS
  1
ACMPARTREF
  2
AcmPartRef
  3
"AcmSymBB|Product Description: AutoCAD Mechanical|Company: Autodesk"
 90
    35839
280
     0
281
     1
  0
CLASS
  1
ACDBCIRCARCRES
  2
AcDbCircArcRes
  3
AcGrefServices
 90
    32768
280
     0
281
     0
  0
CLASS
  1
ACMBOMROW
  2
AcmBomRow
  3
"AcmSymBB|Product Description: AutoCAD Mechanical|Company: Autodesk"
 90
    32768
280
     0
281
     0
  0
CLASS
  1
ACMBALLOON
  2
AcmBalloon
  3
"AcmSymBB|Product Description: AutoCAD Mechanical|Company: Autodesk"
 90
    35839
280
     0
281
     1
  0
CLASS
  1
AMDTNOTE
  2
AmdtNote
  3
"AcmSymBB|Product Description: AutoCAD Mechanical|Company: Autodesk"
 90
    35839
280
     0
281
     1
  0
CLASS
  1
STDPART2D
  2
AmgStdPart
  3
"g3vace|Class: AmgStdPart|Product Description: AutoCAD Mechanical|Company: Autodesk"
 90
    35839
280
     0
281
     1
  0
CLASS
  1
ACDBSTDPARTRES_LINE
  2
AcDbStdPartRes_Line
  3
"g3vace|Class: AcDbStdPartRes_Line|Product Description: AutoCAD Mechanical|Company: Autodesk"
 90
    32768
280
     0
281
     0
  0
CLASS
  1
ACMDATAENTRY
  2
AcmDataEntry
  3
"AcmSymBB|Product Description: AutoCAD Mechanical|Company: Autodesk"
 90
        0
280
     0
281
     0
  0
CLASS
  1
ACDBOPPOLYLINERES
  2
AcDbOpPolylineRes
  3
AcGrefServices
 90
    32768
280
     0
281
     0
  0
CLASS
  1
ACMPARTLIST
  2
AcmPartList
  3
"AcmSymBB|Product Description: AutoCAD Mechanical|Company: Autodesk"
 90
    35839
280
     0
281
     1
  0
CLASS
  1
ACDBLINERES
  2
AcDbLineRes
  3
AcGrefServices
 90
        0
280
     0
281
     0
  0
CLASS
  1
ACRFINSADJ
  2
AcRfInsAdjuster
  3
AcMeServices
 90
    32768
280
     0
281
     0
  0
CLASS
  1
AM_DRAWING_MGR
  2
AcDmDwgMgr
  3
AcMechDwgViewMgmt
 90
        0
280
     0
281
     0
  0
CLASS
  1
AM_DWG_DOCUMENT
  2
AcDmDwgDocument
  3
AcMechDwgViewMgmt
 90
        0
280
     0
281
     0
  0
CLASS
  1
AM_DWG_SHEET
  2
AcDmSheet
  3
AcMechDwgViewMgmt
 90
        0
280
     0
281
     0
  0
CLASS
  1
AM_VIEWDIMPARMAP
  2
AcDmViewDimParMap
  3
AcMechDwgViewMgmt
 90
        0
280
     0
281
     0
  0
CLASS
  1
AM_DWGMGR_NAME
  2
AcDmDwgMgrName
  3
AcMechDwgViewMgmt
 90
        0
280
     0
281
     0
  0
CLASS
  1
AMDTMENUSTATEMGR
  2
AmdtMenuStateMgr
  3
McadcomServices
 90
        0
280
     0
281
     0
  0
CLASS
  1
AMDTMCOMMENUSTATE
  2
AmdtMcomMenuState
  3
McadcomServices
 90
        0
280
     0
281
     0
  0
CLASS
  1
ASAPP
  2
AcAsAppObject
  3
AutoSurfServices
 90
        0
280
     0
281
     0
  0
CLASS
  1
IM_STATIC_MAN
  2
AcImStaticVarManager
  3
AcMeServices
 90
        0
280
     0
281
     0
  0
CLASS
  1
ACIMDBLSTATICVAR
  2
AcImDblStaticVar
  3
AcMeServices
 90
        0
280
     0
281
     0
  0
CLASS
  1
ACIMSTRSTATICVAR
  2
AcImStrStaticVar
  3
AcMeServices
 90
        0
280
     0
281
     0
  0
CLASS
  1
ACIMINTSTATICVAR
  2
AcImIntStaticVar
  3
AcMeServices
 90
        0
280
     0
281
     0
  0
CLASS
  1
ACASGREFMASTER
  2
AcAsGrefMaster
  3
AutoSurfResolverServices
 90
        0
280
     0
281
     0
  0
CLASS
  1
ACADGREFMODULE
  2
AcAdGrefModule
  3
AdGrefServices
 90
        0
280
     0
281
     0
  0
CLASS
  1
AMDTMAPISURFMOUDULE
  2
AmdtMApiSurfModule
  3
MApiSurfServices
 90
        0
280
     0
281
     0
  0
CLASS
  1
MAPIAMMOUDLE
  2
MApiAmModule
  3
MApiAmServices
 90
        0
280
     0
281
     0
  0
CLASS
  1
AMDTADMENUSTATE
  2
AmdtAdMenuState
  3
DesignerServices
 90
        0
280
     0
281
     0
  0
CLASS
  1
ADAPPL
  2
AcAdAppl
  3
DesignerServices
 90
        0
280
     0
281
     0
  0
CLASS
  1
DEPMGR
  2
AcAdDepMgr
  3
DesignerServices
 90
        0
280
     0
281
     0
  0
CLASS
  1
PARAMMGR
  2
AcAdParamMgr
  3
DesignerServices
 90
        0
280
     0
281
     0
  0
CLASS
  1
PARAMSCOPE
  2
AcAdParamScope
  3
DesignerServices
 90
        0
280
     0
281
     0
  0
CLASS
  1
NAMEDAPPL
  2
AcAdNamedAppl
  3
DesignerServices
 90
        0
280
     0
281
     0
  0
CLASS
  1
ADHNTMPLT
  2
AdHoleNoteTemplateMgr
  3
DesignerServices
 90
    32768
280
     0
281
     0
  0
CLASS
  1
AM_HNTEMPLATE_MGR_NAME
  2
AdHoleNoteTemplateMgrName
  3
DesignerServices
 90
    32768
280
     0
281
     0
  0
CLASS
  1
AMDTDMMENUSTATE
  2
AmdtDmMenuState
  3
AcMechDwgViewMgmt
 90
        0
280
     0
281
     0
  0
CLASS
  1
MAPIADMODULE
  2
MApiAdModule
  3
MApiAdServices
 90
        0
280
     0
281
     0
  0
CLASS
  1
AMDTAMMENUSTATE
  2
AmdtAmMenuState
  3
DesignerAssemblies
 90
        0
280
     0
281
     0
  0
CLASS
  1
ACAMPROJECT
  2
AcAmProject
  3
DesignerAssemblies
 90
        0
280
     0
281
     0
  0
CLASS
  1
ACAMGRCOMPDEF
  2
AcAmGrCompDef
  3
DesignerAssemblies
 90
        0
280
     0
281
     0
  0
CLASS
  1
ACCMCONTEXT
  2
AcCmContext
  3
DesignerAssemblies
 90
        0
280
     0
281
     0
  0
CLASS
  1
ACAMCOMPDEF
  2
AcAmCompDef
  3
DesignerAssemblies
 90
        0
280
     0
281
     0
  0
CLASS
  1
ACAMCOMPDEFMGR
  2
AcAmCompDefMgr
  3
DesignerAssemblies
 90
        0
280
     0
281
     0
  0
CLASS
  1
AMCONTEXTMGR
  2
AcAmContextMgr
  3
DesignerAssemblies
 90
        0
280
     0
281
     0
  0
CLASS
  1
ACAMCONTEXTMODELER
  2
AcAmContextModeler
  3
DesignerAssemblies
 90
        0
280
     0
281
     0
  0
CLASS
  1
CATALOGSTATE
  2
AcAmCatalogState
  3
DesignerAssemblies
 90
        0
280
     0
281
     0
  0
CLASS
  1
ACAMGRCOMPDEFSET
  2
AcAmGrCompDefSet
  3
DesignerAssemblies
 90
        0
280
     0
281
     0
  0
CLASS
  1
AMDTBROWSERDBTAB
  2
AmdtBrowserDbTab
  3
McadcomServices
 90
        0
280
     0
281
     0
  0
CLASS
  1
CBROWSERAPPOBJECT
  2
CBrowserAppObject
  3
McadcomServices
 90
        0
280
     0
281
     0
  0
CLASS
  1
DM_PLACEHOLDER
  2
AcDmSelsetPlaceholder
  3
AcMechDwgViewMgmt
 90
        0
280
     0
281
     0
  0
CLASS
  1
ACMPICKOBJ
  2
AcmPickEnt
  3
"AcmSymBB|Product Description: AutoCAD Mechanical|Company: Autodesk"
 90
    32768
280
     0
281
     1
  0
CLASS
  1
ACMNOTESTANDARDISO
  2
AmdtNoteStdISO
  3
"Amdt_StdImp|Product Description: AutoCAD Mechanical|Company: Autodesk"
 90
        0
280
     0
281
     0
  0
CLASS
  1
ACMNOTESTANDARDANSI
  2
AmdtNoteStdANSI
  3
"Amdt_StdImp|Product Description: AutoCAD Mechanical|Company: Autodesk"
 90
        0
280
     0
281
     0
  0
CLASS
  1
ACMTHREADLINESTANDARDISO
  2
AmdtThreadLineStdISO
  3
"Amdt_StdImp|Product Description: AutoCAD Mechanical|Company: Autodesk"
 90
        0
280
     0
281
     0
  0
CLASS
  1
ACMTHREADLINESTANDARDANSI
  2
AmdtThreadLineStdANSI
  3
"Amdt_StdImp|Product Description: AutoCAD Mechanical|Company: Autodesk"
 90
        0
280
     0
281
     0
  0
CLASS
  1
TABLESTYLE
  2
AcDbTableStyle
  3
ObjectDBX Classes
 90
     4095
280
     0
281
     0
  0
CLASS
  1
SORTENTSTABLE
  2
AcDbSortentsTable
  3
ObjectDBX Classes
 90
        0
280
     0
281
     0
  0
CLASS
  1
MATERIAL
  2
AcDbMaterial
  3
ObjectDBX Classes
 90
     1024
280
     0
281
     0
  0
CLASS
  1
VISUALSTYLE
  2
AcDbVisualStyle
  3
ObjectDBX Classes
 90
     4095
280
     0
281
     0
  0
CLASS
  1
ACRFATTGENMGR
  2
AcRfAttGeneralMgr
  3
AcAttribServices
 90
        0
280
     0
281
     0
  0
CLASS
  1
ACRFOBJATTMGR
  2
AcRfObjAttGroupMgr
  3
AcAttribServices
 90
        0
280
     0
281
     0
  0
CLASS
  1
ACRFMCADAPIATTHOLDER
  2
AcRfMCADAPIAttHolder
  3
AcAttribServices
 90
        0
280
     0
281
     0
  0
CLASS
  1
AMDTSYSATTR
  2
AmdtSystemAttribute
  3
AcAttribServices
 90
        0
280
     0
281
     0
  0
CLASS
  1
ACMTAPERSTANDARDISO
  2
AcmTaperStdISO
  3
"Amdt_StdImp|Product Description: AutoCAD Mechanical|Company: Autodesk"
 90
        0
280
     0
281
     0
  0
CLASS
  1
CAMSSTRUCTBTNSTATE
  2
StructBtnState
  3
L"DesignerAssemblies"
 90
        0
280
     0
281
     0
  0
CLASS
  1
DIMASSOC
  2
AcDbDimAssoc
  3
"AcDbDimAssoc|Product Desc:     AcDim ARX App For Dimension|Company:          Autodesk, Inc.|WEB Address:      www.autodesk.com"
 90
    32768
280
     0
281
     0
  0
CLASS
  1
EXACXREFPANELOBJECT
  2
ExAcXREFPanelObject
  3
EXAC_ESW
 90
    33793
280
     0
281
     0
  0
CLASS
  1
NPOCOLLECTION
  2
AcDbImpNonPersistentObjectsCollection
  3
ObjectDBX Classes
 90
    33921
280
     0
281
     0
  0
CLASS
  1
AMDTEDGESTANDARDISO13715
  2
AmdtEdgeStdISO13715
  3
"Amdt_StdImp|Product Description: AutoCAD Mechanical|Company: Autodesk"
 90
        0
280
     0
281
     0
  0
CLASS
  1
AMDTNOTETEMPLATEDB
  2
AmdtNoteTemplateDB
  3
AMDT_STDIMP_MODULE_NAME
 90
        0
280
     0
281
     0
  0
CLASS
  1
ACAMGHOLECHARTSTDISO
  2
AcAmgHoleChartStdISO
  3
ACMSYMBB_MODULE_NAME
 90
        0
280
     0
281
     0
  0
CLASS
  1
ACMTAPERSTANDARDANSI
  2
AcmTaperStdANSI
  3
"Amdt_StdImp|Product Description: AutoCAD Mechanical|Company: Autodesk"
 90
        0
280
     0
281
     0
  0
CLASS
  1
ACAMGHOLECHARTSTDANSI
  2
AcAmgHoleChartStdANSI
  3
ACMSYMBB_MODULE_NAME
 90
        0
280
     0
281
     0
  0
CLASS
  1
ACAMSTDPCOMPDEF
  2
AcAmStdpCompDef
  3
DesignerAssemblies
 90
    32768
280
     0
281
     0
  0
CLASS
  1
ACAMCOMP
  2
AcAmComp
  3
DesignerAssemblies
 90
    32768
280
     0
281
     0
  0
CLASS
  1
AC_AM_STDP_VIEW_DEF
  2
AcAmStdpViewDef
  3
DesignerAssemblies
 90
    32768
280
     0
281
     0
  0
CLASS
  1
AC_AM_MVD_DEP_MGR
  2
AcAmMVDdepMgr
  3
DesignerAssemblies
 90
        0
280
     0
281
     0
  0
CLASS
  1
AC_AM_MASTER_VIEW_DEF
  2
AcAmMasterViewDef
  3
DesignerAssemblies
 90
        0
280
     0
281
     0
  0
CLASS
  1
AC_AM_DIRTY_NODES
  2
AcAmDirtyNodes
  3
DesignerAssemblies
 90
        0
280
     0
281
     0
  0
CLASS
  1
AC_AM_MAPPER_CACHE
  2
AcAmMapperCache
  3
DesignerAssemblies
 90
        0
280
     0
281
     0
  0
CLASS
  1
ACAMMVDBACKUPOBJECT
  2
AcAmMVDBackupObject
  3
DesignerAssemblies
 90
        0
280
     0
281
     0
  0
CLASS
  1
AC_AM_COMP_VIEW_INST
  2
AcAmCompView
  3
DesignerAssemblies
 90
    32768
280
     0
281
     0
  0
CLASS
  1
AC_AM_2D_XREF_MGR
  2
AcAmXrefMgr2d
  3
DesignerAssemblies
 90
        0
280
     0
281
     0
  0
CLASS
  1
AC_AM_HIDE_SITUATION
  2
AcAmHideSituation
  3
DesignerAssemblies
 90
    32768
280
     0
281
     0
  0
CLASS
  1
AC_AM_TRANSFORM_GHOST
  2
AcDbTransformGhost
  3
DesignerAssemblies
 90
    32768
280
     0
281
     1
  0
CLASS
  1
L"OBJCLONER"
  2
ObjCloner
  3
DesignerAssemblies
 90
    32768
280
     0
281
     1
  0
ENDSEC
  0
SECTION
  2
TABLES
  0
TABLE
  2
VPORT
  5
8
330
0
100
AcDbSymbolTable
 70
     1
  0
VPORT
  5
B0EC
330
8
100
AcDbSymbolTableRecord
100
AcDbViewportTableRecord
  2
*Active
 70
     0
 10
0.0
 20
0.0
 11
1.0
 21
1.0
 12
2979.014962419072
 22
2148.803036131505
 13
0.0
 23
0.0
 14
2.5
 24
2.5
 15
10.0
 25
10.0
 16
0.0
 26
0.0
 36
1.0
 17
0.0
 27
0.0
 37
0.0
 40
211.7525954936202
 41
1.648648648648648
 42
50.0
 43
-1370.695619172058
 44
-1370.695619172058
 50
0.0
 51
0.0
 71
     0
 72
   100
 73
     1
 74
     3
 75
     0
 76
     0
 77
     0
 78
     0
281
     0
 65
     0
110
0.0
120
0.0
130
0.0
111
1.0
121
0.0
131
0.0
112
0.0
122
1.0
132
0.0
 79
     0
146
0.0
  0
ENDTAB
  0
TABLE
  2
LTYPE
  5
5
330
0
100
AcDbSymbolTable
 70
    23
  0
LTYPE
  5
14
330
5
100
AcDbSymbolTableRecord
100
AcDbLinetypeTableRecord
  2
ByBlock
 70
     0
  3

 72
    65
 73
     0
 40
0.0
  0
LTYPE
  5
15
330
5
100
AcDbSymbolTableRecord
100
AcDbLinetypeTableRecord
  2
ByLayer
 70
     0
  3

 72
    65
 73
     0
 40
0.0
  0
LTYPE
  5
16
330
5
100
AcDbSymbolTableRecord
100
AcDbLinetypeTableRecord
  2
Continuous
 70
     0
  3
Solid line
 72
    65
 73
     0
 40
0.0
  0
LTYPE
  5
4F
330
5
100
AcDbSymbolTableRecord
100
AcDbLinetypeTableRecord
  2
AM_ISO02W050
 70
     0
  3
__ __ __ __ __ __ __ __ __ __ __ __ __ __ __
 72
    65
 73
     2
 40
7.5
 49
6.0
 74
     0
 49
-1.5
 74
     0
  0
LTYPE
  5
52
330
5
100
AcDbSymbolTableRecord
100
AcDbLinetypeTableRecord
  2
Amconstr
 70
     0
  3
_______________________
 72
    65
 73
     2
 40
9999.0
 49
9999.0
 74
     0
 49
0.0
 74
     0
  0
LTYPE
  5
64
330
5
100
AcDbSymbolTableRecord
100
AcDbLinetypeTableRecord
  2
ACISOWELD
 70
     0
  3
_ _ _ _ _
 72
    65
 73
     2
 40
2.0
 49
2.0
 74
     0
 49
-1.0
 74
     0
  0
LTYPE
  5
65
330
5
100
AcDbSymbolTableRecord
100
AcDbLinetypeTableRecord
  2
ACISOTGB
 70
     0
  3
__ . . __ . .
 72
    65
 73
     6
 40
9.0
 49
4.0
 74
     0
 49
-1.0
 74
     0
 49
1.0
 74
     0
 49
-1.0
 74
     0
 49
1.0
 74
     0
 49
-1.0
 74
     0
  0
LTYPE
  5
66
330
5
100
AcDbSymbolTableRecord
100
AcDbLinetypeTableRecord
  2
ACISOTGL
 70
     0
  3
_ _ _ _ _
 72
    65
 73
     2
 40
3.0
 49
2.0
 74
     0
 49
-1.0
 74
     0
  0
LTYPE
  5
69
330
5
100
AcDbSymbolTableRecord
100
AcDbLinetypeTableRecord
  2
CENTER
 70
     0
  3
__ . __
 72
    65
 73
     4
 40
7.0
 49
4.0
 74
     0
 49
-1.0
 74
     0
 49
1.0
 74
     0
 49
-1.0
 74
     0
  0
LTYPE
  5
A6E
330
5
100
AcDbSymbolTableRecord
100
AcDbLinetypeTableRecord
  2
PHANTOM2
 70
     0
  3
Phantom (.5x) ___ _ _ ___ _ _ ___ _ _ ___ _ _
 72
    65
 73
     6
 40
31.75
 49
15.875
 74
     0
 49
-3.174999999999999
 74
     0
 49
3.174999999999999
 74
     0
 49
-3.174999999999999
 74
     0
 49
3.174999999999999
 74
     0
 49
-3.174999999999999
 74
     0
  0
LTYPE
  5
4DED
330
5
100
AcDbSymbolTableRecord
100
AcDbLinetypeTableRecord
  2
中線
 70
     0
  3
___________________
 72
    65
 73
     2
 40
2.0
 49
1.0
 74
     0
 49
1.0
 74
     0
  0
LTYPE
  5
4DF6
330
5
100
AcDbSymbolTableRecord
100
AcDbLinetypeTableRecord
  2
細線
 70
     0
  3
___________________
 72
    65
 73
     2
 40
2.0
 49
1.0
 74
     0
 49
1.0
 74
     0
  0
LTYPE
  5
4DF7
330
5
100
AcDbSymbolTableRecord
100
AcDbLinetypeTableRecord
  2
太線
 70
     0
  3
___________________
 72
    65
 73
     2
 40
2.0
 49
1.0
 74
     0
 49
1.0
 74
     0
  0
LTYPE
  5
4EA7
330
5
100
AcDbSymbolTableRecord
100
AcDbLinetypeTableRecord
  2
文字
 70
     0
  3
_________________
 72
    65
 73
     2
 40
2.0
 49
1.0
 74
     0
 49
1.0
 74
     0
  0
LTYPE
  5
4EA9
330
5
100
AcDbSymbolTableRecord
100
AcDbLinetypeTableRecord
  2
寸法線
 70
     0
  3
________________
 72
    65
 73
     2
 40
2.0
 49
1.0
 74
     0
 49
1.0
 74
     0
  0
LTYPE
  5
4F12
330
5
100
AcDbSymbolTableRecord
100
AcDbLinetypeTableRecord
  2
ハッチング
 70
     0
  3
_________________
 72
    65
 73
     2
 40
2.0
 49
1.0
 74
     0
 49
1.0
 74
     0
  0
LTYPE
  5
5180
330
5
100
AcDbSymbolTableRecord
100
AcDbLinetypeTableRecord
  2
陰線1
 70
     0
  3
__ __ __ __
 72
    65
 73
     2
 40
4.0
 49
2.2
 74
     0
 49
-1.8
 74
     0
  0
LTYPE
  5
5182
330
5
100
AcDbSymbolTableRecord
100
AcDbLinetypeTableRecord
  2
切断線
 70
     0
  3
/\/-/\/-/\/-/\/-/\/-/\/
 72
    65
 73
     2
 40
11.0001
 49
0.0001
 74
     4
 75
   135
340
56
 46
0.04
 50
0.0
 44
0.0
 45
0.0
 49
-11.0
 74
     0
  0
LTYPE
  5
5183
330
5
100
AcDbSymbolTableRecord
100
AcDbLinetypeTableRecord
  2
想像線1
 70
     0
  3
__ __ __ _____ __ __ ____
 72
    65
 73
     6
 40
14.5
 49
6.0
 74
     0
 49
-1.5
 74
     0
 49
2.0
 74
     0
 49
-1.5
 74
     0
 49
2.0
 74
     0
 49
-1.5
 74
     0
  0
LTYPE
  5
5185
330
5
100
AcDbSymbolTableRecord
100
AcDbLinetypeTableRecord
  2
中心線1
 70
     0
  3
___ _ ___ _ ___
 72
    65
 73
     4
 40
18.0
 49
12.0
 74
     0
 49
-2.0
 74
     0
 49
2.0
 74
     0
 49
-2.0
 74
     0
  0
LTYPE
  5
5188
330
5
100
AcDbSymbolTableRecord
100
AcDbLinetypeTableRecord
  2
補助線
 70
     0
  3
______________
 72
    65
 73
     2
 40
2.0
 49
1.0
 74
     0
 49
1.0
 74
     0
  0
LTYPE
  5
6427
330
5
100
AcDbSymbolTableRecord
100
AcDbLinetypeTableRecord
  2
HIDDEN
 70
     0
  3
Hidden __ __ __ __ __ __ __ __ __ __ __ __ __ _
 72
    65
 73
     2
 40
0.375
 49
0.25
 74
     0
 49
-0.125
 74
     0
  0
LTYPE
  5
AF95
330
5
100
AcDbSymbolTableRecord
100
AcDbLinetypeTableRecord
  2
AM_ISO08W050
 70
     0
  3
____ . ____ . ____ . ____ . ____ . ____ . ____
 72
    65
 73
     4
 40
18.0
 49
12.0
 74
     0
 49
-1.5
 74
     0
 49
3.0
 74
     0
 49
-1.5
 74
     0
  0
LTYPE
  5
FD15
330
5
100
AcDbSymbolTableRecord
100
AcDbLinetypeTableRecord
  2
ACANSTGB
 70
     0
  3
__ . . __ . .
 72
    65
 73
     6
 40
0.35433070866
 49
0.15748031496
 74
     0
 49
-0.03937007874
 74
     0
 49
0.03937007874
 74
     0
 49
-0.03937007874
 74
     0
 49
0.03937007874
 74
     0
 49
-0.03937007874
 74
     0
  0
LTYPE
  5
FD16
330
5
100
AcDbSymbolTableRecord
100
AcDbLinetypeTableRecord
  2
ACANSTGL
 70
     0
  3
_ _ _ _ _
 72
    65
 73
     2
 40
0.11811023622
 49
0.07874015748
 74
     0
 49
-0.03937007874
 74
     0
  0
ENDTAB
  0
TABLE
  2
LAYER
  5
2
102
{ACAD_XDICTIONARY
360
3F95
102
}
330
0
100
AcDbSymbolTable
 70
    11
  0
LAYER
  5
10
330
2
100
AcDbSymbolTableRecord
100
AcDbLayerTableRecord
  2
0
 70
     0
 62
     7
  6
Continuous
370
    -3
390
F
  0
LAYER
  5
6D1
330
2
100
AcDbSymbolTableRecord
100
AcDbLayerTableRecord
  2
Defpoints
 70
     0
 62
     7
  6
Continuous
290
     0
370
    -3
390
F
  0
LAYER
  5
5F85
330
2
100
AcDbSymbolTableRecord
100
AcDbLayerTableRecord
  2
AM_0
 70
     0
 62
     7
  6
中線
370
    25
390
F
1001
AcAecLayerStandard
1000

1000

  0
LAYER
  5
AC9F
330
2
100
AcDbSymbolTableRecord
100
AcDbLayerTableRecord
  2
size
 70
     0
 62
     5
  6
Continuous
290
     0
370
    25
390
F
  0
LAYER
  5
ACA0
330
2
100
AcDbSymbolTableRecord
100
AcDbLayerTableRecord
  2
waku
 70
     0
 62
     7
  6
Continuous
370
    35
390
F
  0
LAYER
  5
ACA1
330
2
100
AcDbSymbolTableRecord
100
AcDbLayerTableRecord
  2
AM_6
 70
     0
 62
     2
  6
文字
370
    15
390
F
1001
AcAecLayerStandard
1000

1000

  0
LAYER
  5
AD64
330
2
100
AcDbSymbolTableRecord
100
AcDbLayerTableRecord
  2
AM_2
 70
     0
 62
     1
  6
細線
370
    15
390
F
1001
AcAecLayerStandard
1000

1000

  0
LAYER
  5
AD68
330
2
100
AcDbSymbolTableRecord
100
AcDbLayerTableRecord
  2
AM_5
 70
     0
 62
     3
  6
寸法線
370
    15
390
F
1001
AcAecLayerStandard
1000

1000

  0
LAYER
  5
B606
330
2
100
AcDbSymbolTableRecord
100
AcDbLayerTableRecord
  2
0部品19
 70
     0
 62
    70
  6
細線
370
    30
390
F
1001
AcAecLayerStandard
1000

1000

  0
LAYER
  5
22DAB
330
2
100
AcDbSymbolTableRecord
100
AcDbLayerTableRecord
  2
AM_4
 70
     0
 62
     3
  6
補助線
370
    15
390
F
  0
LAYER
  5
2E415
102
{ACAD_XDICTIONARY
360
2E416
102
}
330
2
100
AcDbSymbolTableRecord
100
AcDbLayerTableRecord
  2
AM_1
 70
     0
 62
    30
  6
太線
370
    25
390
F
1001
AcAecLayerStandard
1000

1000

  0
ENDTAB
  0
TABLE
  2
STYLE
  5
3
330
0
100
AcDbSymbolTable
 70
     7
  0
STYLE
  5
11
330
3
100
AcDbSymbolTableRecord
100
AcDbTextStyleTableRecord
  2
STANDARD
 70
     0
 40
0.0
 41
0.7
 50
0.0
 71
     0
 42
3.2
  3
romans.shx
  4
extfont.shx
  0
STYLE
  5
56
330
3
100
AcDbSymbolTableRecord
100
AcDbTextStyleTableRecord
  2

 70
     1
 40
0.0
 41
1.0
 50
0.0
 71
     0
 42
2.5
  3
ltypeshp.shx
  4

  0
STYLE
  5
58
330
3
100
AcDbSymbolTableRecord
100
AcDbTextStyleTableRecord
  2
ACISOTS
 70
     0
 40
1.0
 41
1.0
 50
0.0
 71
     0
 42
2.5
  3
isocp.shx
  4
extfont.shx
  0
STYLE
  5
63
330
3
100
AcDbSymbolTableRecord
100
AcDbTextStyleTableRecord
  2
ACISOGDT
 70
     0
 40
0.0
 41
1.0
 50
0.0
 71
     0
 42
2.5
  3
amgdt.shx
  4

  0
STYLE
  5
A74
330
3
100
AcDbSymbolTableRecord
100
AcDbTextStyleTableRecord
  2
DIM
 70
     0
 40
0.0
 41
1.0
 50
0.0
 71
     0
 42
2.5
  3
monotxt.shx
  4
extfont.shx
  0
STYLE
  5
FD18
330
3
100
AcDbSymbolTableRecord
100
AcDbTextStyleTableRecord
  2
ACANSTS
 70
     0
 40
1.0
 41
1.0
 50
0.0
 71
     0
 42
0.2
  3
romans.shx
  4
extfont.shx
  0
STYLE
  5
FD19
330
3
100
AcDbSymbolTableRecord
100
AcDbTextStyleTableRecord
  2
ACANSGDT
 70
     0
 40
0.0
 41
1.0
 50
0.0
 71
     0
 42
0.2
  3
amgdt.shx
  4

  0
ENDTAB
  0
TABLE
  2
VIEW
  5
6
330
0
100
AcDbSymbolTable
 70
     6
  0
VIEW
  5
AE1
330
6
100
AcDbSymbolTableRecord
100
AcDbViewTableRecord
  2
AM_VIEW1
 70
     0
 40
2203.896457765668
 10
5264.599158088851
 20
3198.765197920841
 41
2970.0
 11
0.0
 21
0.0
 31
1.0
 12
0.0
 22
0.0
 32
0.0
 42
50.0
 43
-1370.695619172058
 44
-1370.695619172058
 50
0.0
 71
     0
281
     0
 72
     0
  0
VIEW
  5
AE2
330
6
100
AcDbSymbolTableRecord
100
AcDbViewTableRecord
  2
AM_VIEW2
 70
     0
 40
2203.896457765668
 10
8234.599158088851
 20
3198.765197920841
 41
2970.0
 11
0.0
 21
0.0
 31
1.0
 12
0.0
 22
0.0
 32
0.0
 42
50.0
 43
-1370.695619172058
 44
-1370.695619172058
 50
0.0
 71
     0
281
     0
 72
     0
  0
VIEW
  5
AE3
330
6
100
AcDbSymbolTableRecord
100
AcDbViewTableRecord
  2
AM_VIEW3
 70
     0
 40
2203.896457765668
 10
5264.599158088851
 20
1202.661655686509
 41
2970.0
 11
0.0
 21
0.0
 31
1.0
 12
0.0
 22
0.0
 32
0.0
 42
50.0
 43
-1370.695619172058
 44
-1370.695619172058
 50
0.0
 71
     0
281
     0
 72
     0
  0
VIEW
  5
AE4
330
6
100
AcDbSymbolTableRecord
100
AcDbViewTableRecord
  2
AM_VIEW4
 70
     0
 40
2203.896457765668
 10
8234.599158088851
 20
1202.661655686509
 41
2970.0
 11
0.0
 21
0.0
 31
1.0
 12
0.0
 22
0.0
 32
0.0
 42
50.0
 43
-1370.695619172058
 44
-1370.695619172058
 50
0.0
 71
     0
281
     0
 72
     0
  0
VIEW
  5
AE5
330
6
100
AcDbSymbolTableRecord
100
AcDbViewTableRecord
  2
AM_VIEW5
 70
     0
 40
2203.896457765668
 10
6749.599158088852
 20
2200.713426803675
 41
2970.0
 11
0.0
 21
0.0
 31
1.0
 12
0.0
 22
0.0
 32
0.0
 42
50.0
 43
-1370.695619172058
 44
-1370.695619172058
 50
0.0
 71
     0
281
     0
 72
     0
  0
VIEW
  5
AE6
330
6
100
AcDbSymbolTableRecord
100
AcDbViewTableRecord
  2
AM_VIEW6
 70
     0
 40
4407.748837602181
 10
6749.599158088852
 20
2200.713426803675
 41
5939.9406
 11
0.0
 21
0.0
 31
1.0
 12
0.0
 22
0.0
 32
0.0
 42
50.0
 43
-1370.695619172058
 44
-1370.695619172058
 50
0.0
 71
     0
281
     0
 72
     0
  0
ENDTAB
  0
TABLE
  2
UCS
  5
7
330
0
100
AcDbSymbolTable
 70
     0
  0
ENDTAB
  0
TABLE
  2
APPID
  5
9
330
0
100
AcDbSymbolTable
 70
    67
  0
APPID
  5
12
330
9
100
AcDbSymbolTableRecord
100
AcDbRegAppTableRecord
  2
ACAD
 70
     0
  0
APPID
  5
30
330
9
100
AcDbSymbolTableRecord
100
AcDbRegAppTableRecord
  2
MCAD_NO_VIS
 70
     0
  0
APPID
  5
31
330
9
100
AcDbSymbolTableRecord
100
AcDbRegAppTableRecord
  2
ACAD_TEMP_GRAPHIC
 70
     0
  0
APPID
  5
44
330
9
100
AcDbSymbolTableRecord
100
AcDbRegAppTableRecord
  2
ACATTRIBSERVICES
 70
     0
  0
APPID
  5
7A1
330
9
100
AcDbSymbolTableRecord
100
AcDbRegAppTableRecord
  2
GENIUS_GENDIMSH_14
 70
     0
  0
APPID
  5
A49
330
9
100
AcDbSymbolTableRecord
100
AcDbRegAppTableRecord
  2
GENIUS_GENREC_14
 70
     0
  0
APPID
  5
A4A
330
9
100
AcDbSymbolTableRecord
100
AcDbRegAppTableRecord
  2
GENIUS_GENOBJ-N-REC_13
 70
     0
  0
APPID
  5
A4B
330
9
100
AcDbSymbolTableRecord
100
AcDbRegAppTableRecord
  2
GENIUS_GENODEF_13
 70
     0
  0
APPID
  5
A4C
330
9
100
AcDbSymbolTableRecord
100
AcDbRegAppTableRecord
  2
DCO15
 70
     0
  0
APPID
  5
ADC
330
9
100
AcDbSymbolTableRecord
100
AcDbRegAppTableRecord
  2
GENIUS_GENOLIS_13
 70
     0
  0
APPID
  5
ADD
330
9
100
AcDbSymbolTableRecord
100
AcDbRegAppTableRecord
  2
GENIUS_GENOENT_13
 70
     0
  0
APPID
  5
ADE
330
9
100
AcDbSymbolTableRecord
100
AcDbRegAppTableRecord
  2
GENIUS_GENOBJ-N-TIT_13
 70
     0
  0
APPID
  5
ADF
330
9
100
AcDbSymbolTableRecord
100
AcDbRegAppTableRecord
  2
GENIUS_GENTITLE_13
 70
     0
  0
APPID
  5
AE0
330
9
100
AcDbSymbolTableRecord
100
AcDbRegAppTableRecord
  2
GENIUS_GENOREF_13
 70
     0
  0
APPID
  5
AE7
330
9
100
AcDbSymbolTableRecord
100
AcDbRegAppTableRecord
  2
GENIUS_GENSCREG_15
 70
     0
  0
APPID
  5
AE8
330
9
100
AcDbSymbolTableRecord
100
AcDbRegAppTableRecord
  2
GENIUS_GENOBJ-N-SDF_13
 70
     0
  0
APPID
  5
FAF
330
9
100
AcDbSymbolTableRecord
100
AcDbRegAppTableRecord
  2
GENIUS_GENBLLY_14
 70
     0
  0
APPID
  5
FB0
330
9
100
AcDbSymbolTableRecord
100
AcDbRegAppTableRecord
  2
GENIUS_GENTRA_14
 70
     0
  0
APPID
  5
1285
330
9
100
AcDbSymbolTableRecord
100
AcDbRegAppTableRecord
  2
GENIUS_GENDTOL_13
 70
     0
  0
APPID
  5
142D
330
9
100
AcDbSymbolTableRecord
100
AcDbRegAppTableRecord
  2
GENIUS_GENOBJ-N-CEN_13
 70
     0
  0
APPID
  5
1AB5
330
9
100
AcDbSymbolTableRecord
100
AcDbRegAppTableRecord
  2
GENIUS_GENOBJ-N-CRS_13
 70
     0
  0
APPID
  5
1B36
330
9
100
AcDbSymbolTableRecord
100
AcDbRegAppTableRecord
  2
GENIUS_GENOBJ-N-HTC_13
 70
     0
  0
APPID
  5
1B37
330
9
100
AcDbSymbolTableRecord
100
AcDbRegAppTableRecord
  2
GENIUS_GENHATCH_13
 70
     0
  0
APPID
  5
216D
330
9
100
AcDbSymbolTableRecord
100
AcDbRegAppTableRecord
  2
GENIUS_GENOBJ-N-FIL_13
 70
     0
  0
APPID
  5
2356
330
9
100
AcDbSymbolTableRecord
100
AcDbRegAppTableRecord
  2
GEVID990412420
 70
     0
  0
APPID
  5
2357
330
9
100
AcDbSymbolTableRecord
100
AcDbRegAppTableRecord
  2
GEVDC
 70
     0
  0
APPID
  5
2358
330
9
100
AcDbSymbolTableRecord
100
AcDbRegAppTableRecord
  2
GEVCON
 70
     0
  0
APPID
  5
235B
330
9
100
AcDbSymbolTableRecord
100
AcDbRegAppTableRecord
  2
GEVRADREF
 70
     0
  0
APPID
  5
2360
330
9
100
AcDbSymbolTableRecord
100
AcDbRegAppTableRecord
  2
GENIUS_GENBH_13
 70
     0
  0
APPID
  5
2362
330
9
100
AcDbSymbolTableRecord
100
AcDbRegAppTableRecord
  2
GENIUS_GENOBJ-NBEHI-BHF_13
 70
     0
  0
APPID
  5
2364
330
9
100
AcDbSymbolTableRecord
100
AcDbRegAppTableRecord
  2
GENIUS_GENOBJ-NBEHI-BHB_13
 70
     0
  0
APPID
  5
2379
330
9
100
AcDbSymbolTableRecord
100
AcDbRegAppTableRecord
  2
GENIUS_GENOBJ-F-SCPASSM_13
 70
     0
  0
APPID
  5
3D74
330
9
100
AcDbSymbolTableRecord
100
AcDbRegAppTableRecord
  2
GENIUS_GENDIM_13
 70
     0
  0
APPID
  5
3D76
330
9
100
AcDbSymbolTableRecord
100
AcDbRegAppTableRecord
  2
GENIUS_GE3DTOL_13
 70
     0
  0
APPID
  5
3D9C
330
9
100
AcDbSymbolTableRecord
100
AcDbRegAppTableRecord
  2
AD_DRAW
 70
     0
  0
APPID
  5
3DE8
330
9
100
AcDbSymbolTableRecord
100
AcDbRegAppTableRecord
  2
ASURF_PCURVE_APPNAME
 70
     0
  0
APPID
  5
3DED
330
9
100
AcDbSymbolTableRecord
100
AcDbRegAppTableRecord
  2
AMG_3D2D_5.0
 70
     0
  0
APPID
  5
3E1B
330
9
100
AcDbSymbolTableRecord
100
AcDbRegAppTableRecord
  2
DESIGNERASSEMBLIES
 70
     0
  0
APPID
  5
3E20
330
9
100
AcDbSymbolTableRecord
100
AcDbRegAppTableRecord
  2
ACADM_DIM_EDIT
 70
     0
  0
APPID
  5
3E21
330
9
100
AcDbSymbolTableRecord
100
AcDbRegAppTableRecord
  2
AMDT_DM_ADJ
 70
     0
  0
APPID
  5
4143
330
9
100
AcDbSymbolTableRecord
100
AcDbRegAppTableRecord
  2
GENIUS_GENFIL_13
 70
     0
  0
APPID
  5
4144
330
9
100
AcDbSymbolTableRecord
100
AcDbRegAppTableRecord
  2
GENIUS_GENOBJ-N-CHA_13
 70
     0
  0
APPID
  5
4E17
330
9
100
AcDbSymbolTableRecord
100
AcDbRegAppTableRecord
  2
GEVID1008153417
 70
     0
  0
APPID
  5
4E58
330
9
100
AcDbSymbolTableRecord
100
AcDbRegAppTableRecord
  2
GEVID1008153418
 70
     0
  0
APPID
  5
4E5E
330
9
100
AcDbSymbolTableRecord
100
AcDbRegAppTableRecord
  2
GEVID1008153419
 70
     0
  0
APPID
  5
4E64
330
9
100
AcDbSymbolTableRecord
100
AcDbRegAppTableRecord
  2
GEVID1008153420
 70
     0
  0
APPID
  5
4E75
330
9
100
AcDbSymbolTableRecord
100
AcDbRegAppTableRecord
  2
GEVID1008153421
 70
     0
  0
APPID
  5
4EB7
330
9
100
AcDbSymbolTableRecord
100
AcDbRegAppTableRecord
  2
GENIUS_AMGTXT_16
 70
     0
  0
APPID
  5
7645
330
9
100
AcDbSymbolTableRecord
100
AcDbRegAppTableRecord
  2
GENIUS_GENOBJ-N-DIM_13
 70
     0
  0
APPID
  5
AAD0
330
9
100
AcDbSymbolTableRecord
100
AcDbRegAppTableRecord
  2
ACAD_DSTYLE_DIMARC_LENGTH_SYMBOL
 70
     0
  0
APPID
  5
AAD1
330
9
100
AcDbSymbolTableRecord
100
AcDbRegAppTableRecord
  2
ACAD_DSTYLE_DIMJOGGED_JOGANGLE_SYMBOL
 70
     0
  0
APPID
  5
AAFD
330
9
100
AcDbSymbolTableRecord
100
AcDbRegAppTableRecord
  2
ACAD_PSEXT
 70
     0
  0
APPID
  5
AD61
330
9
100
AcDbSymbolTableRecord
100
AcDbRegAppTableRecord
  2
AcAecLayerStandard
 70
     0
  0
APPID
  5
AEE3
330
9
100
AcDbSymbolTableRecord
100
AcDbRegAppTableRecord
  2
ACAD_EXEMPT_FROM_CAD_STANDARDS
 70
     0
  0
APPID
  5
B1BE
330
9
100
AcDbSymbolTableRecord
100
AcDbRegAppTableRecord
  2
GENIUS_GENCEN_19
 70
     0
  0
APPID
  5
B4E1
330
9
100
AcDbSymbolTableRecord
100
AcDbRegAppTableRecord
  2
ACAD_MLEADERVER
 70
     0
  0
APPID
  5
C488
330
9
100
AcDbSymbolTableRecord
100
AcDbRegAppTableRecord
  2
ACAD_DSTYLE_DIMINSPECT
 70
     0
  0
APPID
  5
C489
330
9
100
AcDbSymbolTableRecord
100
AcDbRegAppTableRecord
  2
ACAD_DSTYLE_DIMRADIAL_EXTENSION
 70
     0
  0
APPID
  5
1980E
330
9
100
AcDbSymbolTableRecord
100
AcDbRegAppTableRecord
  2
GEVID1311583542
 70
     0
  0
APPID
  5
19825
330
9
100
AcDbSymbolTableRecord
100
AcDbRegAppTableRecord
  2
AMG_2DHIDE
 70
     0
  0
APPID
  5
19826
330
9
100
AcDbSymbolTableRecord
100
AcDbRegAppTableRecord
  2
AMG_2DSTRUCT_BTR
 70
     0
  0
APPID
  5
19837
330
9
100
AcDbSymbolTableRecord
100
AcDbRegAppTableRecord
  2
ACADM_2DVIEW_IGN_NOTIFY
 70
     0
  0
APPID
  5
1B56B
330
9
100
AcDbSymbolTableRecord
100
AcDbRegAppTableRecord
  2
GEVID1311583543
 70
     0
  0
APPID
  5
1B5F6
330
9
100
AcDbSymbolTableRecord
100
AcDbRegAppTableRecord
  2
GEVID1311583544
 70
     0
  0
APPID
  5
1B61B
330
9
100
AcDbSymbolTableRecord
100
AcDbRegAppTableRecord
  2
GEVID1311583545
 70
     0
  0
APPID
  5
1B63D
330
9
100
AcDbSymbolTableRecord
100
AcDbRegAppTableRecord
  2
GEVID1311583546
 70
     0
  0
APPID
  5
1B675
330
9
100
AcDbSymbolTableRecord
100
AcDbRegAppTableRecord
  2
GEVID1311583547
 70
     0
  0
ENDTAB
  0
TABLE
  2
DIMSTYLE
  5
A
330
0
100
AcDbSymbolTable
 70
    25
100
AcDbDimStyleTable
 71
     3
340
2515
340
251A
340
251B
  0
DIMSTYLE
105
A76
330
A
100
AcDbSymbolTableRecord
100
AcDbDimStyleTableRecord
  2
STANDARD
 70
     0
 41
3.0
 42
1.0
 43
7.0
 44
2.0
 73
     0
 74
     0
 77
     1
140
2.799999999999999
141
0.0
143
0.0394
147
0.7
171
     4
172
     1
173
     1
176
     3
177
     3
178
     2
271
     3
272
     3
273
     8
274
     4
289
     0
340
A74
341
A66
343
A66
344
A66
  0
DIMSTYLE
105
2515
330
A
100
AcDbSymbolTableRecord
100
AcDbDimStyleTableRecord
  2
SYS
 70
     0
  4
"
 41
1.0
 42
1.0
 43
10.0
 44
1.0
 47
0.1
 48
0.1
 73
     0
 74
     0
 77
     1
 78
     8
 79
     2
140
3.5
141
0.0
143
0.0393701
146
0.71
147
1.5
172
     1
176
   256
177
   256
178
     7
271
     2
272
     2
283
     0
284
     8
340
11
371
    -1
372
    -1
1001
ACAD_DSTYLE_DIMJOGGED_JOGANGLE_SYMBOL
1070
   384
1040
0.7853981633974483
1001
ACAD_DSTYLE_DIMARC_LENGTH_SYMBOL
1070
   379
1070
     1
  0
DIMSTYLE
105
2516
102
{ACAD_REACTORS
330
31816
102
}
330
A
100
AcDbSymbolTableRecord
100
AcDbDimStyleTableRecord
  2
SYS$3
 70
     0
  4
"
 41
2.0
 42
1.0
 43
10.0
 44
1.0
 47
0.1
 48
0.1
 73
     0
 77
     1
 78
     8
 79
     2
140
3.2
141
0.0
143
0.0393701
146
0.71
147
1.0
176
   256
177
   256
178
     2
271
     2
272
     2
283
     0
284
     8
288
     1
340
11
342
A66
371
    -1
372
    -1
1001
ACAD_DSTYLE_DIMJOGGED_JOGANGLE_SYMBOL
1070
   384
1040
0.7853981633974483
1001
ACAD_DSTYLE_DIMARC_LENGTH_SYMBOL
1070
   379
1070
     1
  0
DIMSTYLE
105
2517
330
A
100
AcDbSymbolTableRecord
100
AcDbDimStyleTableRecord
  2
SYS$4
 70
     0
  4
"
 41
2.0
 42
1.0
 43
10.0
 44
1.0
 47
0.1
 48
0.1
 73
     0
 77
     1
 78
     8
 79
     2
140
3.2
141
0.0
143
0.0393701
146
0.71
147
1.0
173
     1
176
   256
177
   256
178
     2
271
     2
272
     2
283
     0
284
     8
288
     1
340
11
344
A66
371
    -1
372
    -1
1001
ACAD_DSTYLE_DIMJOGGED_JOGANGLE_SYMBOL
1070
   384
1040
0.7853981633974483
1001
ACAD_DSTYLE_DIMARC_LENGTH_SYMBOL
1070
   379
1070
     1
  0
DIMSTYLE
105
2518
330
A
100
AcDbSymbolTableRecord
100
AcDbDimStyleTableRecord
  2
SYS$6
 70
     0
  4
"
 41
2.0
 42
1.0
 43
10.0
 44
1.0
 47
0.1
 48
0.1
 73
     0
 74
     0
 78
     8
 79
     2
140
3.2
141
0.0
143
0.0393701
146
0.71
147
1.0
172
     1
176
   256
177
   256
178
     2
271
     2
272
     2
283
     0
284
     8
340
11
341
A66
371
    -1
372
    -1
1001
ACAD_DSTYLE_DIMJOGGED_JOGANGLE_SYMBOL
1070
   384
1040
0.7853981633974483
1001
ACAD_DSTYLE_DIMARC_LENGTH_SYMBOL
1070
   379
1070
     1
  0
DIMSTYLE
105
2519
330
A
100
AcDbSymbolTableRecord
100
AcDbDimStyleTableRecord
  2
SYS$7
 70
     0
  4
"
 41
2.0
 42
1.0
 43
10.0
 44
1.0
 47
0.1
 48
0.1
 73
     0
 74
     0
 77
     1
 78
     8
 79
     2
140
3.2
141
0.0
143
0.0393701
146
0.71
147
1.0
172
     1
176
   256
177
   256
178
     2
271
     2
272
     2
283
     0
284
     8
340
11
341
A66
342
A66
371
    -1
372
    -1
1001
ACAD_DSTYLE_DIMJOGGED_JOGANGLE_SYMBOL
1070
   384
1040
0.7853981633974483
1001
ACAD_DSTYLE_DIMARC_LENGTH_SYMBOL
1070
   379
1070
     1
  0
DIMSTYLE
105
251A
330
A
100
AcDbSymbolTableRecord
100
AcDbDimStyleTableRecord
  2
SYS$SF
 70
     0
  4
"
 41
2.5
 42
1.0
 43
10.0
 44
1.0
 47
0.1
 48
0.1
 73
     0
 74
     0
 75
     1
 76
     1
 77
     1
 78
     8
 79
     2
140
3.2
141
0.0
143
0.0393701
146
0.71
147
1.0
172
     1
176
   256
177
   256
178
     2
271
     2
272
     2
283
     0
284
     8
340
11
341
6C4
342
6C4
371
    -1
372
    -1
1001
ACAD_DSTYLE_DIMJOGGED_JOGANGLE_SYMBOL
1070
   384
1040
0.7853981633974483
1001
ACAD_DSTYLE_DIMARC_LENGTH_SYMBOL
1070
   379
1070
     1
  0
DIMSTYLE
105
251B
330
A
100
AcDbSymbolTableRecord
100
AcDbDimStyleTableRecord
  2
SYS$SH
 70
     0
  4
"
 41
2.5
 42
1.0
 43
10.0
 44
1.0
 47
0.1
 48
0.1
 73
     0
 74
     0
 75
     1
 76
     1
 77
     1
 78
     8
 79
     2
140
3.2
141
0.0
143
0.0393701
144
2.0
146
0.71
147
1.0
172
     1
173
     1
176
   256
177
   256
178
     2
271
     2
272
     2
283
     0
284
     8
340
11
341
6C4
343
72
344
6C4
371
    -1
372
    -1
1001
ACAD_DSTYLE_DIMJOGGED_JOGANGLE_SYMBOL
1070
   384
1040
0.7853981633974483
1001
ACAD_DSTYLE_DIMARC_LENGTH_SYMBOL
1070
   379
1070
     1
  0
DIMSTYLE
105
2A59
102
{ACAD_REACTORS
330
31901
102
}
330
A
100
AcDbSymbolTableRecord
100
AcDbDimStyleTableRecord
  2
SYS$2
 70
     0
  4
"
 41
1.0
 42
1.0
 43
10.0
 44
1.0
 47
0.1
 48
0.1
 73
     0
 74
     0
 77
     1
 78
     8
 79
     2
140
3.2
141
0.0
143
0.0393701
146
0.71
147
1.0
172
     1
176
   256
177
   256
178
     2
271
     2
272
     2
283
     0
284
     8
340
11
342
6C4
371
    -1
372
    -1
1001
ACAD_DSTYLE_DIMJOGGED_JOGANGLE_SYMBOL
1070
   384
1040
0.7853981633974483
1001
ACAD_DSTYLE_DIMARC_LENGTH_SYMBOL
1070
   379
1070
     1
  0
DIMSTYLE
105
2AAB
102
{ACAD_REACTORS
330
31766
330
317A7
330
317E6
330
31842
330
31975
330
323F0
330
3243F
102
}
330
A
100
AcDbSymbolTableRecord
100
AcDbDimStyleTableRecord
  2
SYS$0
 70
     0
  4
"
 41
1.0
 42
1.0
 43
10.0
 44
1.0
 47
0.1
 48
0.1
 73
     0
 74
     0
 77
     1
 78
     8
 79
     2
140
3.200000000000001
141
0.0
143
0.0393701
146
0.71
147
1.0
172
     1
176
   256
177
   256
178
     2
271
     2
272
     2
283
     0
284
     8
340
11
341
A66
342
6C4
371
    -1
372
    -1
1001
ACAD_DSTYLE_DIMJOGGED_JOGANGLE_SYMBOL
1070
   384
1040
0.7853981633974483
1001
ACAD_DSTYLE_DIMARC_LENGTH_SYMBOL
1070
   379
1070
     1
  0
DIMSTYLE
105
AF99
330
A
100
AcDbSymbolTableRecord
100
AcDbDimStyleTableRecord
  2
AM_ISO
 70
     0
  4
"
 41
2.5
 42
1.0
 43
10.0
 44
1.0
 47
0.1
 48
0.1
 73
     0
 74
     0
 77
     1
 78
     8
 79
     2
140
3.5
141
0.0
143
0.0393701
146
0.71
147
1.5
172
     1
176
   256
177
   256
178
     2
271
     2
272
     3
274
     4
283
     0
284
     8
340
11
371
    -1
372
    -1
  0
DIMSTYLE
105
AF9A
330
A
100
AcDbSymbolTableRecord
100
AcDbDimStyleTableRecord
  2
AM_ISO$3
 70
     0
  4
"
 41
2.5
 42
1.0
 43
10.0
 44
1.0
 47
0.1
 48
0.1
 73
     0
 77
     1
 78
     8
 79
     2
140
3.5
141
0.0
143
0.0393701
146
0.71
147
1.5
176
   256
177
   256
178
     2
271
     2
272
     3
274
     4
283
     0
284
     8
288
     1
289
     0
340
11
371
    -1
372
    -1
  0
DIMSTYLE
105
AF9B
330
A
100
AcDbSymbolTableRecord
100
AcDbDimStyleTableRecord
  2
AM_ISO$4
 70
     0
  4
"
 41
2.5
 42
1.0
 43
10.0
 44
1.0
 47
0.1
 48
0.1
 73
     0
 77
     1
 78
     8
 79
     2
140
3.5
141
0.0
143
0.0393701
146
0.71
147
1.5
176
   256
177
   256
178
     2
271
     2
272
     3
274
     4
283
     0
284
     8
288
     1
289
     0
340
11
371
    -1
372
    -1
  0
DIMSTYLE
105
AF9C
330
A
100
AcDbSymbolTableRecord
100
AcDbDimStyleTableRecord
  2
AM_ISO$6
 70
     0
  4
"
 41
2.5
 42
1.0
 43
10.0
 44
1.0
 47
0.1
 48
0.1
 73
     0
 74
     0
 78
     8
 79
     2
140
3.5
141
0.0
143
0.0393701
146
0.71
147
1.5
172
     1
176
   256
177
   256
178
     2
271
     2
272
     3
274
     4
283
     0
284
     8
340
11
371
    -1
372
    -1
  0
DIMSTYLE
105
AF9D
330
A
100
AcDbSymbolTableRecord
100
AcDbDimStyleTableRecord
  2
AM_ISO$7
 70
     0
  4
"
 41
2.5
 42
1.0
 43
10.0
 44
1.0
 47
0.1
 48
0.1
 73
     0
 74
     0
 77
     1
 78
     8
 79
     2
140
5.0
141
0.0
143
0.0393701
146
0.71
147
1.5
172
     1
176
   256
177
   256
178
     2
271
     2
272
     3
274
     4
283
     0
284
     8
340
11
371
    -1
372
    -1
  0
DIMSTYLE
105
AF9E
330
A
100
AcDbSymbolTableRecord
100
AcDbDimStyleTableRecord
  2
AM_ISO$SF
 70
     0
  4
"
 41
2.5
 42
1.0
 43
10.0
 44
1.0
 47
0.1
 48
0.1
 73
     0
 74
     0
 75
     1
 76
     1
 77
     1
 78
     8
 79
     2
140
3.5
141
0.0
143
0.0393701
146
0.71
147
1.5
172
     1
176
   256
177
   256
178
     2
271
     2
272
     3
274
     4
283
     0
284
     8
340
11
371
    -1
372
    -1
  0
DIMSTYLE
105
AF9F
330
A
100
AcDbSymbolTableRecord
100
AcDbDimStyleTableRecord
  2
AM_ISO$SH
 70
     0
  4
"
 41
2.5
 42
1.0
 43
10.0
 44
1.0
 47
0.1
 48
0.1
 73
     0
 74
     0
 75
     1
 76
     1
 77
     1
 78
     8
 79
     2
140
3.5
141
0.0
143
0.0393701
144
2.0
146
0.71
147
1.5
172
     1
173
     1
176
   256
177
   256
178
     2
271
     2
272
     3
274
     4
283
     0
284
     8
340
11
343
72
371
    -1
372
    -1
  0
DIMSTYLE
105
B60C
330
A
100
AcDbSymbolTableRecord
100
AcDbDimStyleTableRecord
  2
AM_ANSI
 70
     0
  4
mm
 41
0.1
 42
0.05
 43
0.5
 44
0.1
 47
0.1
 48
0.1
 78
     7
 79
     2
140
0.12
141
0.0
146
0.71
147
0.06
176
   256
177
   256
178
     2
274
     4
284
     7
340
11
371
    -1
372
    -1
  0
DIMSTYLE
105
C485
330
A
100
AcDbSymbolTableRecord
100
AcDbDimStyleTableRecord
  2
AM_ISO$0
 70
     0
  4
"
 41
0.8
 42
1.0
 43
10.0
 44
1.0
 47
0.1
 48
0.1
 73
     0
 74
     0
 77
     1
 78
     8
 79
     2
140
3.2
141
0.0
143
0.0393701
146
0.71
147
0.9999999999999996
172
     1
176
   256
177
   256
178
     2
271
     2
272
     2
283
     0
284
     8
340
11
341
6C4
342
6C4
371
    -1
372
    -1
1001
ACAD_DSTYLE_DIMJOGGED_JOGANGLE_SYMBOL
1070
   384
1040
0.7853981633974483
1001
ACAD_DSTYLE_DIMARC_LENGTH_SYMBOL
1070
   379
1070
     1
  0
DIMSTYLE
105
C486
330
A
100
AcDbSymbolTableRecord
100
AcDbDimStyleTableRecord
  2
AM_ISO$2
 70
     0
  4
"
 41
0.8
 42
1.0
 43
10.0
 44
1.0
 47
0.1
 48
0.1
 73
     0
 74
     0
 77
     3
 78
     8
 79
     2
140
3.200000000000001
141
0.0
143
0.0393701
146
0.71
147
0.9999999999999996
172
     1
176
   256
177
   256
178
     2
271
     2
272
     2
283
     0
284
     8
340
11
342
6C4
371
    -1
372
    -1
1001
ACAD_DSTYLE_DIMJOGGED_JOGANGLE_SYMBOL
1070
   384
1040
0.7853981633974483
1001
ACAD_DSTYLE_DIMARC_LENGTH_SYMBOL
1070
   379
1070
     1
  0
DIMSTYLE
105
FD1A
330
A
100
AcDbSymbolTableRecord
100
AcDbDimStyleTableRecord
  2
AM_ANSI$3
 70
     0
  4
mm
 41
0.1
 42
0.05
 43
0.5
 44
0.1
 47
0.1
 48
0.1
 78
     7
 79
     2
140
0.12
141
0.0
146
0.71
147
0.06
176
   256
177
   256
178
     2
274
     4
284
     7
288
     1
289
     0
340
11
371
    -1
372
    -1
1001
ACAD_DSTYLE_DIMARC_LENGTH_SYMBOL
1070
   379
1070
     1
  0
DIMSTYLE
105
FD1B
330
A
100
AcDbSymbolTableRecord
100
AcDbDimStyleTableRecord
  2
AM_ANSI$4
 70
     0
  4
mm
 41
0.1
 42
0.05
 43
0.5
 44
0.1
 47
0.1
 48
0.1
 78
     7
 79
     2
140
0.12
141
0.0
146
0.71
147
0.06
176
   256
177
   256
178
     2
274
     4
284
     7
288
     1
289
     0
340
11
371
    -1
372
    -1
1001
ACAD_DSTYLE_DIMARC_LENGTH_SYMBOL
1070
   379
1070
     1
  0
DIMSTYLE
105
FD1C
330
A
100
AcDbSymbolTableRecord
100
AcDbDimStyleTableRecord
  2
AM_ANSI$7
 70
     0
  4
mm
 41
0.1
 42
0.05
 43
0.5
 44
0.1
 47
0.1
 48
0.1
 78
     7
 79
     2
140
0.24
141
0.0
146
0.71
147
0.06
176
   256
177
   256
178
     2
274
     4
284
     7
340
11
371
    -1
372
    -1
1001
ACAD_DSTYLE_DIMARC_LENGTH_SYMBOL
1070
   379
1070
     1
  0
DIMSTYLE
105
FD1D
330
A
100
AcDbSymbolTableRecord
100
AcDbDimStyleTableRecord
  2
AM_ANSI$SF
 70
     0
  4
mm
 41
0.1
 42
0.05
 43
0.5
 44
0.1
 47
0.1
 48
0.1
 75
     1
 76
     1
 78
     7
 79
     2
140
0.12
141
0.0
146
0.71
147
0.06
176
   256
177
   256
178
     2
274
     4
284
     7
340
11
371
    -1
372
    -1
1001
ACAD_DSTYLE_DIMARC_LENGTH_SYMBOL
1070
   379
1070
     1
  0
DIMSTYLE
105
FD1E
330
A
100
AcDbSymbolTableRecord
100
AcDbDimStyleTableRecord
  2
AM_ANSI$SH
 70
     0
  4
mm
 41
0.1
 42
0.05
 43
0.5
 44
0.1
 47
0.1
 48
0.1
 75
     1
 76
     1
 78
     7
 79
     2
140
0.12
141
0.0
146
0.71
147
0.06
173
     1
176
   256
177
   256
178
     2
274
     4
284
     7
340
11
343
72
371
    -1
372
    -1
1001
ACAD_DSTYLE_DIMARC_LENGTH_SYMBOL
1070
   379
1070
     1
  0
ENDTAB
  0
TABLE
  2
BLOCK_RECORD
  5
1
330
0
100
AcDbSymbolTable
 70
    16
  0
BLOCK_RECORD
  5
1F
102
{ACAD_XDICTIONARY
360
8A
102
}
330
1
100
AcDbSymbolTableRecord
100
AcDbBlockTableRecord
  2
*Model_Space
340
22
  0
BLOCK_RECORD
  5
1B
330
1
100
AcDbSymbolTableRecord
100
AcDbBlockTableRecord
  2
*Paper_Space
340
1E
  0
BLOCK_RECORD
  5
23
330
1
100
AcDbSymbolTableRecord
100
AcDbBlockTableRecord
  2
*Paper_Space0
340
26
  0
BLOCK_RECORD
  5
72
330
1
100
AcDbSymbolTableRecord
100
AcDbBlockTableRecord
  2
GENAXEH
340
0
  0
BLOCK_RECORD
  5
6C4
330
1
100
AcDbSymbolTableRecord
100
AcDbBlockTableRecord
  2
_Dot
340
0
102
{BLKREFS
331
31C02
331
31C03
331
31C0D
331
31C0E
331
31C3C
331
31C3D
331
31D1F
331
31D20
331
31D28
331
31D29
331
32439
331
3243A
331
3246B
331
3246C
331
32481
331
32482
102
}
  0
BLOCK_RECORD
  5
A66
330
1
100
AcDbSymbolTableRecord
100
AcDbBlockTableRecord
  2
_OPEN30
340
0
102
{BLKREFS
331
31C18
331
31C19
102
}
  0
BLOCK_RECORD
  5
31767
330
1
100
AcDbSymbolTableRecord
100
AcDbBlockTableRecord
  2
*D7
340
0
  0
BLOCK_RECORD
  5
317A8
330
1
100
AcDbSymbolTableRecord
100
AcDbBlockTableRecord
  2
*D8
340
0
  0
BLOCK_RECORD
  5
317E7
330
1
100
AcDbSymbolTableRecord
100
AcDbBlockTableRecord
  2
*D9
340
0
  0
BLOCK_RECORD
  5
31817
330
1
100
AcDbSymbolTableRecord
100
AcDbBlockTableRecord
  2
*D10
340
0
  0
BLOCK_RECORD
  5
31843
330
1
100
AcDbSymbolTableRecord
100
AcDbBlockTableRecord
  2
*D11
340
0
  0
BLOCK_RECORD
  5
31902
330
1
100
AcDbSymbolTableRecord
100
AcDbBlockTableRecord
  2
*D12
340
0
  0
BLOCK_RECORD
  5
31976
330
1
100
AcDbSymbolTableRecord
100
AcDbBlockTableRecord
  2
*D13
340
0
  0
BLOCK_RECORD
  5
323F1
330
1
100
AcDbSymbolTableRecord
100
AcDbBlockTableRecord
  2
*D14
340
0
  0
BLOCK_RECORD
  5
32440
330
1
100
AcDbSymbolTableRecord
100
AcDbBlockTableRecord
  2
*D15
340
0
  0
ENDTAB
  0
ENDSEC
  0
SECTION
  2
BLOCKS
  0
BLOCK
  5
20
330
1F
100
AcDbEntity
  8
0
100
AcDbBlockBegin
  2
*Model_Space
 70
     0
 10
0.0
 20
0.0
 30
0.0
  3
*Model_Space
  1

  0
ENDBLK
  5
21
330
1F
100
AcDbEntity
  8
0
100
AcDbBlockEnd
  0
BLOCK
  5
1C
330
1B
100
AcDbEntity
 67
     1
  8
0
100
AcDbBlockBegin
  2
*Paper_Space
 70
     0
 10
0.0
 20
0.0
 30
0.0
  3
*Paper_Space
  1

  0
ENDBLK
  5
1D
330
1B
100
AcDbEntity
 67
     1
  8
0
100
AcDbBlockEnd
  0
BLOCK
  5
24
330
23
100
AcDbEntity
 67
     1
  8
0
100
AcDbBlockBegin
  2
*Paper_Space0
 70
     0
 10
0.0
 20
0.0
 30
0.0
  3
*Paper_Space0
  1

  0
ENDBLK
  5
25
330
23
100
AcDbEntity
 67
     1
  8
0
100
AcDbBlockEnd
  0
BLOCK
  5
74
330
72
100
AcDbEntity
  8
0
100
AcDbBlockBegin
  2
GENAXEH
 70
     0
 10
0.0
 20
0.0
 30
0.0
  3
GENAXEH
  1

  0
LINE
  5
73
330
72
100
AcDbEntity
  8
0
100
AcDbLine
 10
-1.0
 20
0.0
 30
0.0
 11
1.0
 21
0.0
 31
0.0
  0
ENDBLK
  5
75
330
72
100
AcDbEntity
  8
0
100
AcDbBlockEnd
  0
BLOCK
  5
6C7
330
6C4
100
AcDbEntity
  8
0
100
AcDbBlockBegin
  2
_Dot
 70
     0
 10
0.0
 20
0.0
 30
0.0
  3
_Dot
  1

  0
LWPOLYLINE
  5
6C5
330
6C4
100
AcDbEntity
  8
0
  6
ByBlock
 62
     0
100
AcDbPolyline
 90
        2
 70
     1
 43
0.5
 10
-0.25
 20
0.0
 42
1.0
 10
0.25
 20
0.0
 42
1.0
  0
LINE
  5
6C6
330
6C4
100
AcDbEntity
  8
0
  6
ByBlock
 62
     0
370
    -2
100
AcDbLine
 10
-0.5
 20
0.0
 30
0.0
 11
-1.0
 21
0.0
 31
0.0
  0
ENDBLK
  5
6C8
330
6C4
100
AcDbEntity
  8
0
100
AcDbBlockEnd
  0
BLOCK
  5
A6A
330
A66
100
AcDbEntity
  8
0
100
AcDbBlockBegin
  2
_OPEN30
 70
     0
 10
0.0
 20
0.0
 30
0.0
  3
_OPEN30
  1

  0
LINE
  5
A67
330
A66
100
AcDbEntity
  8
0
  6
ByBlock
 62
     0
100
AcDbLine
 10
-1.0
 20
0.26794919
 30
0.0
 11
0.0
 21
0.0
 31
0.0
  0
LINE
  5
A68
330
A66
100
AcDbEntity
  8
0
  6
ByBlock
 62
     0
100
AcDbLine
 10
0.0
 20
0.0
 30
0.0
 11
-1.0
 21
-0.26794919
 31
0.0
  0
LINE
  5
A69
330
A66
100
AcDbEntity
  8
0
  6
ByBlock
 62
     0
100
AcDbLine
 10
0.0
 20
0.0
 30
0.0
 11
-1.0
 21
0.0
 31
0.0
  0
ENDBLK
  5
A6B
330
A66
100
AcDbEntity
  8
0
100
AcDbBlockEnd
  0
BLOCK
  5
31771
330
31767
100
AcDbEntity
  8
0
100
AcDbBlockBegin
  2
*D7
 70
     1
 10
0.0
 20
0.0
 30
0.0
  3
*D7
  1

  0
LINE
  5
32436
330
31767
100
AcDbEntity
  8
AM_5
100
AcDbLine
 10
2968.066638850978
 20
2117.118534455616
 30
0.0
 11
2968.066638850978
 21
2101.118534455616
 31
0.0
  0
LINE
  5
32437
330
31767
100
AcDbEntity
  8
AM_5
100
AcDbLine
 10
2993.066638850978
 20
2117.118534455616
 30
0.0
 11
2993.066638850978
 21
2101.118534455616
 31
0.0
  0
LINE
  5
32438
330
31767
100
AcDbEntity
  8
AM_5
100
AcDbLine
 10
2969.066638850978
 20
2102.118534455616
 30
0.0
 11
2992.066638850978
 21
2102.118534455616
 31
0.0
  0
INSERT
  5
32439
330
31767
100
AcDbEntity
  8
AM_5
100
AcDbBlockReference
  2
_Dot
 10
2968.066638850978
 20
2102.118534455616
 30
0.0
 50
180.0
  0
INSERT
  5
3243A
330
31767
100
AcDbEntity
  8
AM_5
100
AcDbBlockReference
  2
_Dot
 10
2993.066638850978
 20
2102.118534455616
 30
0.0
  0
MTEXT
  5
3243B
330
31767
100
AcDbEntity
  8
AM_5
 62
     2
100
AcDbMText
 10
2980.566638850978
 20
2104.718534455616
 30
0.0
 40
3.200000000000001
 41
0.0
 71
     5
 72
     1
  1
%%cA
 73
     1
 44
1.0
1001
ACAD
1000
MTEXTBEGIN
1070
    73
1070
     1
1070
    44
1040
1.0
1070
    74
1070
     0
1000
MTEXTEND
  0
POINT
  5
3243C
330
31767
100
AcDbEntity
  8
Defpoints
 62
     0
100
AcDbPoint
 10
2968.066638850978
 20
2118.118534455616
 30
0.0
  0
POINT
  5
3243D
330
31767
100
AcDbEntity
  8
Defpoints
 62
     0
100
AcDbPoint
 10
2993.066638850978
 20
2118.118534455616
 30
0.0
  0
POINT
  5
3243E
330
31767
100
AcDbEntity
  8
Defpoints
 62
     0
100
AcDbPoint
 10
2993.066638850978
 20
2102.118534455616
 30
0.0
  0
ENDBLK
  5
31772
330
31767
100
AcDbEntity
  8
0
100
AcDbBlockEnd
  0
BLOCK
  5
317B4
330
317A8
100
AcDbEntity
  8
0
100
AcDbBlockBegin
  2
*D8
 70
     1
 10
0.0
 20
0.0
 30
0.0
  3
*D8
  1

  0
LINE
  5
31BFF
330
317A8
100
AcDbEntity
  8
AM_5
100
AcDbLine
 10
2994.066638850978
 20
2121.118534455616
 30
0.0
 11
3002.066638850978
 21
2121.118534455616
 31
0.0
  0
LINE
  5
31C00
330
317A8
100
AcDbEntity
  8
AM_5
100
AcDbLine
 10
2987.116638850978
 20
2126.118534455616
 30
0.0
 11
3002.066638850978
 21
2126.118534455616
 31
0.0
  0
LINE
  5
31C01
330
317A8
100
AcDbEntity
  8
AM_5
100
AcDbLine
 10
3001.066638850979
 20
2122.118534455616
 30
0.0
 11
3001.066638850979
 21
2125.118534455616
 31
0.0
  0
INSERT
  5
31C02
330
317A8
100
AcDbEntity
  8
AM_5
100
AcDbBlockReference
  2
_Dot
 10
3001.066638850979
 20
2121.118534455616
 30
0.0
 50
270.0
  0
INSERT
  5
31C03
330
317A8
100
AcDbEntity
  8
AM_5
100
AcDbBlockReference
  2
_Dot
 10
3001.066638850979
 20
2126.118534455616
 30
0.0
 50
90.0
  0
MTEXT
  5
31C04
330
317A8
100
AcDbEntity
  8
AM_5
 62
     2
100
AcDbMText
 10
2998.466638850978
 20
2123.618534455617
 30
0.0
 40
3.200000000000001
 41
0.0
 71
     5
 72
     1
  1
B
 11
0.0000000000000001
 21
1.0
 31
0.0
 73
     1
 44
1.0
1001
ACAD
1000
MTEXTBEGIN
1070
    73
1070
     1
1070
    44
1040
1.0
1070
    74
1070
     0
1000
MTEXTEND
  0
POINT
  5
31C05
330
317A8
100
AcDbEntity
  8
Defpoints
 62
     0
100
AcDbPoint
 10
2993.066638850978
 20
2121.118534455616
 30
0.0
  0
POINT
  5
31C06
330
317A8
100
AcDbEntity
  8
Defpoints
 62
     0
100
AcDbPoint
 10
2986.116638850978
 20
2126.118534455616
 30
0.0
  0
POINT
  5
31C07
330
317A8
100
AcDbEntity
  8
Defpoints
 62
     0
100
AcDbPoint
 10
3001.066638850979
 20
2126.118534455616
 30
0.0
  0
ENDBLK
  5
317B5
330
317A8
100
AcDbEntity
  8
0
100
AcDbBlockEnd
  0
BLOCK
  5
317F3
330
317E7
100
AcDbEntity
  8
0
100
AcDbBlockBegin
  2
*D9
 70
     1
 10
0.0
 20
0.0
 30
0.0
  3
*D9
  1

  0
LINE
  5
31C08
330
317E7
100
AcDbEntity
  8
AM_5
100
AcDbLine
 10
2994.066638850978
 20
2118.118534455616
 30
0.0
 11
3002.066638850978
 21
2118.118534455616
 31
0.0
  0
LINE
  5
31C09
330
317E7
100
AcDbEntity
  8
AM_5
100
AcDbLine
 10
2994.066638850978
 20
2121.118534455616
 30
0.0
 11
3002.066638850978
 21
2121.118534455616
 31
0.0
  0
LINE
  5
31C0A
330
317E7
100
AcDbEntity
  8
AM_5
100
AcDbLine
 10
3001.066638850979
 20
2122.118534455616
 30
0.0
 11
3001.066638850979
 21
2123.118534455616
 31
0.0
  0
LINE
  5
31C0B
330
317E7
100
AcDbEntity
  8
AM_5
100
AcDbLine
 10
3001.066638850979
 20
2117.118534455616
 30
0.0
 11
3001.066638850979
 21
2112.625201122283
 31
0.0
  0
LINE
  5
31C0C
330
317E7
100
AcDbEntity
  8
AM_5
100
AcDbLine
 10
3001.066638850979
 20
2121.118534455616
 30
0.0
 11
3001.066638850979
 21
2118.118534455616
 31
0.0
  0
INSERT
  5
31C0D
330
317E7
100
AcDbEntity
  8
AM_5
100
AcDbBlockReference
  2
_Dot
 10
3001.066638850979
 20
2121.118534455616
 30
0.0
 50
270.0
  0
INSERT
  5
31C0E
330
317E7
100
AcDbEntity
  8
AM_5
100
AcDbBlockReference
  2
_Dot
 10
3001.066638850979
 20
2118.118534455616
 30
0.0
 50
90.0
  0
MTEXT
  5
31C0F
330
317E7
100
AcDbEntity
  8
AM_5
 62
     2
100
AcDbMText
 10
2998.466638850978
 20
2114.37186778895
 30
0.0
 40
3.200000000000001
 41
0.0
 71
     5
 72
     1
  1
3
 11
0.0000000000000001
 21
1.0
 31
0.0
 73
     1
 44
1.0
1001
ACAD
1000
MTEXTBEGIN
1070
    73
1070
     1
1070
    44
1040
1.0
1070
    74
1070
     0
1000
MTEXTEND
  0
POINT
  5
31C10
330
317E7
100
AcDbEntity
  8
Defpoints
 62
     0
100
AcDbPoint
 10
2993.066638850978
 20
2118.118534455616
 30
0.0
  0
POINT
  5
31C11
330
317E7
100
AcDbEntity
  8
Defpoints
 62
     0
100
AcDbPoint
 10
2993.066638850978
 20
2121.118534455616
 30
0.0
  0
POINT
  5
31C12
330
317E7
100
AcDbEntity
  8
Defpoints
 62
     0
100
AcDbPoint
 10
3001.066638850979
 20
2121.118534455616
 30
0.0
  0
ENDBLK
  5
317F4
330
317E7
100
AcDbEntity
  8
0
100
AcDbBlockEnd
  0
BLOCK
  5
3181E
330
31817
100
AcDbEntity
  8
0
100
AcDbBlockBegin
  2
*D10
 70
     1
 10
0.0
 20
0.0
 30
0.0
  3
*D10
  1

  0
LINE
  5
31C13
330
31817
100
AcDbEntity
  8
AM_5
100
AcDbLine
 10
2963.226644366822
 20
2174.238768470996
 30
0.0
 11
2967.853311033488
 21
2174.238768470996
 31
0.0
  0
LINE
  5
31C14
330
31817
100
AcDbEntity
  8
AM_5
100
AcDbLine
 10
2967.853311033488
 20
2174.238768470996
 30
0.0
 11
2971.999479757705
 21
2170.52600451816
 31
0.0
  0
LINE
  5
31C15
330
31817
100
AcDbEntity
  8
AM_5
100
AcDbLine
 10
2989.133797944258
 20
2155.182760393075
 30
0.0
 11
2990.623738656132
 21
2153.848565251763
 31
0.0
  0
MTEXT
  5
31C16
330
31817
100
AcDbEntity
  8
AM_5
 62
     2
100
AcDbMText
 10
2965.039977700155
 20
2176.838768470996
 30
0.0
 40
3.2
 41
0.0
 71
     5
 72
     1
  1
%%cD
 73
     1
 44
1.0
1001
ACAD
1000
MTEXTBEGIN
1070
    73
1070
     1
1070
    44
1040
1.0
1070
    74
1070
     0
1000
MTEXTEND
  0
LINE
  5
31C17
330
31817
100
AcDbEntity
  8
AM_5
100
AcDbLine
 10
2987.643857232383
 20
2156.516955534387
 30
0.0
 11
2973.489420469579
 21
2169.191809376848
 31
0.0
  0
INSERT
  5
31C18
330
31817
100
AcDbEntity
  8
AM_5
100
AcDbBlockReference
  2
_OPEN30
 10
2987.643857232383
 20
2156.516955534387
 30
0.0
 41
2.0
 42
2.0
 43
2.0
 50
138.1565527915622
  0
INSERT
  5
31C19
330
31817
100
AcDbEntity
  8
AM_5
100
AcDbBlockReference
  2
_OPEN30
 10
2973.489420469579
 20
2169.191809376848
 30
0.0
 41
2.0
 42
2.0
 43
2.0
 50
318.1565527915623
  0
POINT
  5
31C1A
330
31817
100
AcDbEntity
  8
Defpoints
 62
     0
100
AcDbPoint
 10
2973.489420469579
 20
2169.191809376848
 30
0.0
  0
POINT
  5
31C1B
330
31817
100
AcDbEntity
  8
Defpoints
 62
     0
100
AcDbPoint
 10
2987.643857232383
 20
2156.516955534387
 30
0.0
  0
ENDBLK
  5
3181F
330
31817
100
AcDbEntity
  8
0
100
AcDbBlockEnd
  0
BLOCK
  5
3184D
330
31843
100
AcDbEntity
  8
0
100
AcDbBlockBegin
  2
*D11
 70
     1
 10
0.0
 20
0.0
 30
0.0
  3
*D11
  1

  0
LINE
  5
31D1C
330
31843
100
AcDbEntity
  8
AM_5
100
AcDbLine
 10
2977.046221850979
 20
2157.354382455616
 30
0.0
 11
2959.066638850979
 21
2157.354382455616
 31
0.0
  0
LINE
  5
31D1D
330
31843
100
AcDbEntity
  8
AM_5
100
AcDbLine
 10
2977.046221850979
 20
2168.354382455616
 30
0.0
 11
2959.066638850979
 21
2168.354382455616
 31
0.0
  0
LINE
  5
31D1E
330
31843
100
AcDbEntity
  8
AM_5
100
AcDbLine
 10
2960.066638850979
 20
2158.354382455616
 30
0.0
 11
2960.066638850979
 21
2167.354382455616
 31
0.0
  0
INSERT
  5
31D1F
330
31843
100
AcDbEntity
  8
AM_5
100
AcDbBlockReference
  2
_Dot
 10
2960.066638850979
 20
2157.354382455616
 30
0.0
 50
270.0
  0
INSERT
  5
31D20
330
31843
100
AcDbEntity
  8
AM_5
100
AcDbBlockReference
  2
_Dot
 10
2960.066638850979
 20
2168.354382455616
 30
0.0
 50
90.0
  0
MTEXT
  5
31D21
330
31843
100
AcDbEntity
  8
AM_5
 62
     2
100
AcDbMText
 10
2957.466638850979
 20
2162.854382455616
 30
0.0
 40
3.200000000000001
 41
0.0
 71
     5
 72
     1
  1
C
 11
0.0000000000000001
 21
1.0
 31
0.0
 73
     1
 44
1.0
1001
ACAD
1000
MTEXTBEGIN
1070
    73
1070
     1
1070
    44
1040
1.0
1070
    74
1070
     0
1000
MTEXTEND
  0
POINT
  5
31D22
330
31843
100
AcDbEntity
  8
Defpoints
 62
     0
100
AcDbPoint
 10
2978.046221850978
 20
2157.354382455616
 30
0.0
  0
POINT
  5
31D23
330
31843
100
AcDbEntity
  8
Defpoints
 62
     0
100
AcDbPoint
 10
2978.046221850978
 20
2168.354382455616
 30
0.0
  0
POINT
  5
31D24
330
31843
100
AcDbEntity
  8
Defpoints
 62
     0
100
AcDbPoint
 10
2960.066638850979
 20
2168.354382455616
 30
0.0
  0
ENDBLK
  5
3184E
330
31843
100
AcDbEntity
  8
0
100
AcDbBlockEnd
  0
BLOCK
  5
3190E
330
31902
100
AcDbEntity
  8
0
100
AcDbBlockBegin
  2
*D12
 70
     1
 10
0.0
 20
0.0
 30
0.0
  3
*D12
  1

  0
LINE
  5
31D25
330
31902
100
AcDbEntity
  8
AM_5
100
AcDbLine
 10
2988.816638844236
 20
2148.564963047939
 30
0.0
 11
2991.316638706022
 21
2144.23483619056
 31
0.0
  0
LINE
  5
31D26
330
31902
100
AcDbEntity
  8
AM_5
100
AcDbLine
 10
2988.816638844236
 20
2177.143801863293
 30
0.0
 11
2991.316638706022
 21
2181.473928720672
 31
0.0
  0
ARC
  5
31D27
330
31902
100
AcDbEntity
  8
AM_5
100
AcDbCircle
 10
2980.566638850978
 20
2162.854382455616
 30
0.0
 40
20.49999999999982
100
AcDbArc
 50
302.7951928104321
 51
57.20480718956792
  0
INSERT
  5
31D28
330
31902
100
AcDbEntity
  8
AM_5
100
AcDbBlockReference
  2
_Dot
 10
2990.816638712764
 20
2145.100861598237
 30
0.0
 50
211.3975961821866
  0
INSERT
  5
31D29
330
31902
100
AcDbEntity
  8
AM_5
100
AcDbBlockReference
  2
_Dot
 10
2990.816638712764
 20
2180.607903312995
 30
0.0
 50
148.6024038178134
  0
MTEXT
  5
31D2A
330
31902
100
AcDbEntity
  8
AM_5
 62
     2
100
AcDbMText
 10
2998.466638850978
 20
2162.854382455616
 30
0.0
 40
3.2
 41
0.0
 71
     5
 72
     1
  1
120\U+00B0
 11
0.0000000000000001
 21
1.0
 31
0.0
 73
     1
 44
1.0
1001
ACAD
1000
MTEXTBEGIN
1070
    73
1070
     1
1070
    44
1040
1.0
1070
    74
1070
     0
1000
MTEXTEND
  0
POINT
  5
31D2B
330
31902
100
AcDbEntity
  8
Defpoints
 62
     0
100
AcDbPoint
 10
2999.830337558894
 20
2155.842969467449
 30
0.0
  0
POINT
  5
31D2C
330
31902
100
AcDbEntity
  8
Defpoints
 62
     0
100
AcDbPoint
 10
2980.566638850978
 20
2162.854382455616
 30
0.0
  0
POINT
  5
31D2D
330
31902
100
AcDbEntity
  8
Defpoints
 62
     0
100
AcDbPoint
 10
2980.566638850978
 20
2162.854382455616
 30
0.0
  0
POINT
  5
31D2E
330
31902
100
AcDbEntity
  8
Defpoints
 62
     0
100
AcDbPoint
 10
2988.316638850978
 20
2176.277776455616
 30
0.0
  0
POINT
  5
31D2F
330
31902
100
AcDbEntity
  8
Defpoints
 62
     0
100
AcDbPoint
 10
2988.316638850978
 20
2149.430988455616
 30
0.0
  0
ENDBLK
  5
3190F
330
31902
100
AcDbEntity
  8
0
100
AcDbBlockEnd
  0
BLOCK
  5
31980
330
31976
100
AcDbEntity
  8
0
100
AcDbBlockBegin
  2
*D13
 70
     1
 10
0.0
 20
0.0
 30
0.0
  3
*D13
  1

  0
LINE
  5
31C39
330
31976
100
AcDbEntity
  8
AM_5
100
AcDbLine
 10
2976.566638850978
 20
2161.854382455616
 30
0.0
 11
2976.566638850978
 21
2141.354382455616
 31
0.0
  0
LINE
  5
31C3A
330
31976
100
AcDbEntity
  8
AM_5
100
AcDbLine
 10
2984.566638850978
 20
2161.854382455616
 30
0.0
 11
2984.566638850978
 21
2141.354382455616
 31
0.0
  0
LINE
  5
31C3B
330
31976
100
AcDbEntity
  8
AM_5
100
AcDbLine
 10
2977.566638850978
 20
2142.354382455616
 30
0.0
 11
2983.566638850978
 21
2142.354382455616
 31
0.0
  0
INSERT
  5
31C3C
330
31976
100
AcDbEntity
  8
AM_5
100
AcDbBlockReference
  2
_Dot
 10
2976.566638850978
 20
2142.354382455616
 30
0.0
 50
180.0
  0
INSERT
  5
31C3D
330
31976
100
AcDbEntity
  8
AM_5
100
AcDbBlockReference
  2
_Dot
 10
2984.566638850978
 20
2142.354382455616
 30
0.0
  0
MTEXT
  5
31C3E
330
31976
100
AcDbEntity
  8
AM_5
 62
     2
100
AcDbMText
 10
2980.566638850978
 20
2144.954382455616
 30
0.0
 40
3.200000000000001
 41
0.0
 71
     5
 72
     1
  1
E
 73
     1
 44
1.0
1001
ACAD
1000
MTEXTBEGIN
1070
    73
1070
     1
1070
    44
1040
1.0
1070
    74
1070
     0
1000
MTEXTEND
  0
POINT
  5
31C3F
330
31976
100
AcDbEntity
  8
Defpoints
 62
     0
100
AcDbPoint
 10
2976.566638850978
 20
2162.854382455616
 30
0.0
  0
POINT
  5
31C40
330
31976
100
AcDbEntity
  8
Defpoints
 62
     0
100
AcDbPoint
 10
2984.566638850978
 20
2162.854382455616
 30
0.0
  0
POINT
  5
31C41
330
31976
100
AcDbEntity
  8
Defpoints
 62
     0
100
AcDbPoint
 10
2984.566638850978
 20
2142.354382455616
 30
0.0
  0
ENDBLK
  5
31981
330
31976
100
AcDbEntity
  8
0
100
AcDbBlockEnd
  0
BLOCK
  5
323FD
330
323F1
100
AcDbEntity
  8
0
100
AcDbBlockBegin
  2
*D14
 70
     1
 10
0.0
 20
0.0
 30
0.0
  3
*D14
  1

  0
LINE
  5
3247C
330
323F1
100
AcDbEntity
  8
AM_5
100
AcDbLine
 10
2969.416638850979
 20
2122.118534455616
 30
0.0
 11
2969.416638850979
 21
2135.118534455616
 31
0.0
  0
LINE
  5
3247D
330
323F1
100
AcDbEntity
  8
AM_5
100
AcDbLine
 10
2972.716638850979
 20
2122.118534455616
 30
0.0
 11
2972.716638850979
 21
2135.118534455616
 31
0.0
  0
LINE
  5
3247E
330
323F1
100
AcDbEntity
  8
AM_5
100
AcDbLine
 10
2973.716638850978
 20
2134.118534455616
 30
0.0
 11
2974.716638850978
 21
2134.118534455616
 31
0.0
  0
LINE
  5
3247F
330
323F1
100
AcDbEntity
  8
AM_5
100
AcDbLine
 10
2968.416638850979
 20
2134.118534455616
 30
0.0
 11
2958.696638850979
 21
2134.118534455616
 31
0.0
  0
LINE
  5
32480
330
323F1
100
AcDbEntity
  8
AM_5
100
AcDbLine
 10
2972.716638850979
 20
2134.118534455616
 30
0.0
 11
2969.416638850979
 21
2134.118534455616
 31
0.0
  0
INSERT
  5
32481
330
323F1
100
AcDbEntity
  8
AM_5
100
AcDbBlockReference
  2
_Dot
 10
2972.716638850979
 20
2134.118534455616
 30
0.0
 50
180.0
  0
INSERT
  5
32482
330
323F1
100
AcDbEntity
  8
AM_5
100
AcDbBlockReference
  2
_Dot
 10
2969.416638850979
 20
2134.118534455616
 30
0.0
  0
MTEXT
  5
32483
330
323F1
100
AcDbEntity
  8
AM_5
 62
     2
100
AcDbMText
 10
2963.056638850979
 20
2136.718534455616
 30
0.0
 40
3.200000000000001
 41
0.0
 71
     5
 72
     1
  1
%%c3.3
 73
     1
 44
1.0
1001
ACAD
1000
MTEXTBEGIN
1070
    73
1070
     1
1070
    44
1040
1.0
1070
    74
1070
     0
1000
MTEXTEND
  0
POINT
  5
32484
330
323F1
100
AcDbEntity
  8
Defpoints
 62
     0
100
AcDbPoint
 10
2969.416638850979
 20
2121.118534455616
 30
0.0
  0
POINT
  5
32485
330
323F1
100
AcDbEntity
  8
Defpoints
 62
     0
100
AcDbPoint
 10
2972.716638850979
 20
2121.118534455616
 30
0.0
  0
POINT
  5
32486
330
323F1
100
AcDbEntity
  8
Defpoints
 62
     0
100
AcDbPoint
 10
2972.716638850979
 20
2134.118534455616
 30
0.0
  0
ENDBLK
  5
323FE
330
323F1
100
AcDbEntity
  8
0
100
AcDbBlockEnd
  0
BLOCK
  5
3244A
330
32440
100
AcDbEntity
  8
0
100
AcDbBlockBegin
  2
*D15
 70
     1
 10
0.0
 20
0.0
 30
0.0
  3
*D15
  1

  0
LINE
  5
32468
330
32440
100
AcDbEntity
  8
AM_5
100
AcDbLine
 10
2968.666638850979
 20
2117.118534455616
 30
0.0
 11
2968.666638850979
 21
2109.118534455616
 31
0.0
  0
LINE
  5
32469
330
32440
100
AcDbEntity
  8
AM_5
100
AcDbLine
 10
2973.466638850979
 20
2117.118534455616
 30
0.0
 11
2973.466638850979
 21
2109.118534455616
 31
0.0
  0
LINE
  5
3246A
330
32440
100
AcDbEntity
  8
AM_5
100
AcDbLine
 10
2969.666638850979
 20
2110.118534455616
 30
0.0
 11
2972.466638850978
 21
2110.118534455616
 31
0.0
  0
INSERT
  5
3246B
330
32440
100
AcDbEntity
  8
AM_5
100
AcDbBlockReference
  2
_Dot
 10
2968.666638850979
 20
2110.118534455616
 30
0.0
 50
180.0
  0
INSERT
  5
3246C
330
32440
100
AcDbEntity
  8
AM_5
100
AcDbBlockReference
  2
_Dot
 10
2973.466638850979
 20
2110.118534455616
 30
0.0
  0
MTEXT
  5
3246D
330
32440
100
AcDbEntity
  8
AM_5
 62
     2
100
AcDbMText
 10
2971.066638850978
 20
2112.718534455616
 30
0.0
 40
3.200000000000001
 41
0.0
 71
     5
 72
     1
  1
%%cA
 73
     1
 44
1.0
1001
ACAD
1000
MTEXTBEGIN
1070
    73
1070
     1
1070
    44
1040
1.0
1070
    74
1070
     0
1000
MTEXTEND
  0
POINT
  5
3246E
330
32440
100
AcDbEntity
  8
Defpoints
 62
     0
100
AcDbPoint
 10
2968.666638850979
 20
2118.118534455616
 30
0.0
  0
POINT
  5
3246F
330
32440
100
AcDbEntity
  8
Defpoints
 62
     0
100
AcDbPoint
 10
2973.466638850979
 20
2118.118534455616
 30
0.0
  0
POINT
  5
32470
330
32440
100
AcDbEntity
  8
Defpoints
 62
     0
100
AcDbPoint
 10
2973.466638850979
 20
2110.118534455616
 30
0.0
  0
ENDBLK
  5
3244B
330
32440
100
AcDbEntity
  8
0
100
AcDbBlockEnd
  0
ENDSEC
  0
SECTION
  2
ENTITIES
  0
TEXT
  5
3127F
330
1F
100
AcDbEntity
  8
AM_6
 60
     1
100
AcDbText
 10
3115.940482363385
 20
2052.371942804427
 30
0.0
 40
2.5
  1
!GENTITLE-INSERT
100
AcDbText
  0
TEXT
  5
31280
330
1F
100
AcDbEntity
  8
AM_6
 60
     1
100
AcDbText
 10
3127.440482363385
 20
2253.871942804426
 30
0.0
 40
2.5
  1
!GENTITLE-MAX
100
AcDbText
  0
TEXT
  5
31281
330
1F
100
AcDbEntity
  8
AM_6
 60
     1
100
AcDbText
 10
3127.440482363385
 20
2253.871942804426
 30
0.0
 40
2.5
  1
!GENTITLE-RU
100
AcDbText
  0
LINE
  5
31282
330
1F
100
AcDbEntity
  8
size
100
AcDbLine
 10
2830.440482363385
 20
2253.871942804426
 30
0.0
 11
3127.440482363385
 21
2253.871942804426
 31
0.0
1001
GENIUS_GENREC_14
1002
{
1000
PYDIR
1011
2830.440482363385
1021
2340.871942804426
1031
0.0
1002
}
1002
{
1000
PXDIR
1011
3250.440482363385
1021
2043.871942804427
1031
0.0
1002
}
1002
{
1000
PORI
1011
2830.440482363385
1021
2043.871942804427
1031
0.0
1002
}
1002
{
1000
PINS
1011
3040.440482363385
1021
2192.371942804427
1031
0.0
1002
}
1002
{
1000
HVAL
1000
297
1002
}
1002
{
1000
H
1070
     2
1002
}
1002
{
1000
WVAL
1000
420
1002
}
1002
{
1000
W
1070
     2
1002
}
1002
{
1000
C
1070
     4
1002
}
1001
GENIUS_GENOBJ-N-REC_13
1002
{
1000
OWNER
1000
GEN
1002
}
1001
GENIUS_GENODEF_13
1002
{
1000
HIER
1070
     0
1002
}
1002
{
1000
MANEDIT
1070
     0
1002
}
1002
{
1000
NOSEL
1070
     0
1002
}
1002
{
1000
BEHIND
1070
     0
1002
}
1002
{
1000
OTHER
1070
     0
1002
}
1002
{
1000
REACTOR
1002
}
  0
TEXT
  5
31283
330
1F
100
AcDbEntity
  8
AM_6
 60
     1
100
AcDbText
 10
2830.440482363385
 20
2043.871942804427
 30
0.0
 40
2.5
  1
!GENTITLE-LL
100
AcDbText
  0
LINE
  5
31284
330
1F
100
AcDbEntity
  8
size
100
AcDbLine
 10
3127.440482363385
 20
2253.871942804426
 30
0.0
 11
3127.440482363385
 21
2043.871942804427
 31
0.0
1001
GENIUS_GENREC_14
1002
{
1000
PYDIR
1011
2830.440482363385
1021
2340.871942804426
1031
0.0
1002
}
1002
{
1000
PXDIR
1011
3250.440482363385
1021
2043.871942804427
1031
0.0
1002
}
1002
{
1000
PORI
1011
2830.440482363385
1021
2043.871942804427
1031
0.0
1002
}
1002
{
1000
PINS
1011
3040.440482363385
1021
2192.371942804427
1031
0.0
1002
}
1002
{
1000
HVAL
1000
297
1002
}
1002
{
1000
H
1070
     2
1002
}
1002
{
1000
WVAL
1000
420
1002
}
1002
{
1000
W
1070
     2
1002
}
1002
{
1000
C
1070
     4
1002
}
1001
GENIUS_GENOBJ-N-REC_13
1002
{
1000
OWNER
1000
GEN
1002
}
1001
GENIUS_GENODEF_13
1002
{
1000
HIER
1070
     0
1002
}
1002
{
1000
MANEDIT
1070
     0
1002
}
1002
{
1000
NOSEL
1070
     0
1002
}
1002
{
1000
BEHIND
1070
     0
1002
}
1002
{
1000
OTHER
1070
     0
1002
}
1002
{
1000
REACTOR
1002
}
  0
LINE
  5
31285
330
1F
100
AcDbEntity
  8
waku
100
AcDbLine
 10
2841.940482363385
 20
2052.371942804427
 30
0.0
 11
3115.940482363385
 21
2052.371942804427
 31
0.0
1001
GENIUS_GENREC_14
1002
{
1000
PYDIR
1011
2830.440482363385
1021
2340.871942804426
1031
0.0
1002
}
1002
{
1000
PXDIR
1011
3250.440482363385
1021
2043.871942804427
1031
0.0
1002
}
1002
{
1000
PORI
1011
2830.440482363385
1021
2043.871942804427
1031
0.0
1002
}
1002
{
1000
PINS
1011
3040.440482363385
1021
2192.371942804427
1031
0.0
1002
}
1002
{
1000
HVAL
1000
297
1002
}
1002
{
1000
H
1070
     2
1002
}
1002
{
1000
WVAL
1000
420
1002
}
1002
{
1000
W
1070
     2
1002
}
1002
{
1000
C
1070
     4
1002
}
  0
LINE
  5
31286
330
1F
100
AcDbEntity
  8
waku
100
AcDbLine
 10
3115.940482363385
 20
2245.371942804426
 30
0.0
 11
2841.940482363385
 21
2245.371942804426
 31
0.0
1001
GENIUS_GENREC_14
1002
{
1000
PYDIR
1011
2707.440482363385
1021
2253.871942804426
1031
0.0
1002
}
1002
{
1000
PXDIR
1011
3127.440482363385
1021
1956.871942804426
1031
0.0
1002
}
1002
{
1000
PORI
1011
2707.440482363385
1021
1956.871942804426
1031
0.0
1002
}
1002
{
1000
PINS
1011
2917.440482363385
1021
2105.371942804426
1031
0.0
1002
}
1002
{
1000
HVAL
1000
297
1002
}
1002
{
1000
H
1070
     2
1002
}
1002
{
1000
WVAL
1000
420
1002
}
1002
{
1000
W
1070
     2
1002
}
1002
{
1000
C
1070
     4
1002
}
1001
GENIUS_GENOBJ-N-REC_13
1002
{
1000
OWNER
1000
GEN
1002
}
1001
GENIUS_GENODEF_13
1002
{
1000
HIER
1070
     0
1002
}
1002
{
1000
MANEDIT
1070
     0
1002
}
1002
{
1000
NOSEL
1070
     0
1002
}
1002
{
1000
BEHIND
1070
     0
1002
}
1002
{
1000
OTHER
1070
     0
1002
}
1002
{
1000
REACTOR
1002
}
  0
LINE
  5
31287
330
1F
100
AcDbEntity
  8
waku
100
AcDbLine
 10
2841.940482363385
 20
2245.371942804426
 30
0.0
 11
2841.940482363385
 21
2052.371942804427
 31
0.0
1001
GENIUS_GENREC_14
1002
{
1000
PYDIR
1011
2830.440482363385
1021
2340.871942804426
1031
0.0
1002
}
1002
{
1000
PXDIR
1011
3250.440482363385
1021
2043.871942804427
1031
0.0
1002
}
1002
{
1000
PORI
1011
2830.440482363385
1021
2043.871942804427
1031
0.0
1002
}
1002
{
1000
PINS
1011
3040.440482363385
1021
2192.371942804427
1031
0.0
1002
}
1002
{
1000
HVAL
1000
297
1002
}
1002
{
1000
H
1070
     2
1002
}
1002
{
1000
WVAL
1000
420
1002
}
1002
{
1000
W
1070
     2
1002
}
1002
{
1000
C
1070
     4
1002
}
1001
GENIUS_GENOBJ-N-REC_13
1002
{
1000
OWNER
1000
GEN
1002
}
1001
GENIUS_GENODEF_13
1002
{
1000
HIER
1070
     0
1002
}
1002
{
1000
MANEDIT
1070
     0
1002
}
1002
{
1000
NOSEL
1070
     0
1002
}
1002
{
1000
BEHIND
1070
     0
1002
}
1002
{
1000
OTHER
1070
     0
1002
}
1002
{
1000
REACTOR
1002
}
  0
LINE
  5
31288
330
1F
100
AcDbEntity
  8
waku
100
AcDbLine
 10
3115.940482363385
 20
2052.371942804427
 30
0.0
 11
3115.940482363385
 21
2245.371942804426
 31
0.0
1001
GENIUS_GENREC_14
1002
{
1000
PYDIR
1011
2707.440482363385
1021
2259.871942804426
1031
0.0
1002
}
1002
{
1000
PXDIR
1011
3127.440482363385
1021
1962.871942804426
1031
0.0
1002
}
1002
{
1000
PORI
1011
2707.440482363385
1021
1962.871942804426
1031
0.0
1002
}
1002
{
1000
PINS
1011
2917.440482363385
1021
2111.371942804427
1031
0.0
1002
}
1002
{
1000
HVAL
1000
297
1002
}
1002
{
1000
H
1070
     2
1002
}
1002
{
1000
WVAL
1000
420
1002
}
1002
{
1000
W
1070
     2
1002
}
1002
{
1000
C
1070
     4
1002
}
1001
GENIUS_GENOBJ-N-REC_13
1002
{
1000
OWNER
1000
GEN
1002
}
1001
GENIUS_GENODEF_13
1002
{
1000
HIER
1070
     0
1002
}
1002
{
1000
MANEDIT
1070
     0
1002
}
1002
{
1000
NOSEL
1070
     0
1002
}
1002
{
1000
BEHIND
1070
     0
1002
}
1002
{
1000
OTHER
1070
     0
1002
}
1002
{
1000
REACTOR
1002
}
  0
LINE
  5
31289
330
1F
100
AcDbEntity
  8
size
100
AcDbLine
 10
2830.440482363385
 20
2253.871942804426
 30
0.0
 11
2830.440482363385
 21
2043.871942804427
 31
0.0
1001
GENIUS_GENREC_14
1002
{
1000
PYDIR
1011
2830.440482363385
1021
2340.871942804426
1031
0.0
1002
}
1002
{
1000
PXDIR
1011
3250.440482363385
1021
2043.871942804427
1031
0.0
1002
}
1002
{
1000
PORI
1011
2830.440482363385
1021
2043.871942804427
1031
0.0
1002
}
1002
{
1000
PINS
1011
3040.440482363385
1021
2192.371942804427
1031
0.0
1002
}
1002
{
1000
HVAL
1000
297
1002
}
1002
{
1000
H
1070
     2
1002
}
1002
{
1000
WVAL
1000
420
1002
}
1002
{
1000
W
1070
     2
1002
}
1002
{
1000
C
1070
     4
1002
}
1001
GENIUS_GENOBJ-N-REC_13
1002
{
1000
OWNER
1000
GEN
1002
}
1001
GENIUS_GENODEF_13
1002
{
1000
HIER
1070
     0
1002
}
1002
{
1000
MANEDIT
1070
     0
1002
}
1002
{
1000
NOSEL
1070
     0
1002
}
1002
{
1000
BEHIND
1070
     0
1002
}
1002
{
1000
OTHER
1070
     0
1002
}
1002
{
1000
REACTOR
1002
}
  0
LINE
  5
3128A
330
1F
100
AcDbEntity
  8
size
100
AcDbLine
 10
2830.440482363385
 20
2043.871942804427
 30
0.0
 11
3127.440482363385
 21
2043.871942804427
 31
0.0
1001
GENIUS_GENREC_14
1002
{
1000
PYDIR
1011
2830.440482363385
1021
2340.871942804426
1031
0.0
1002
}
1002
{
1000
PXDIR
1011
3250.440482363385
1021
2043.871942804427
1031
0.0
1002
}
1002
{
1000
PORI
1011
2830.440482363385
1021
2043.871942804427
1031
0.0
1002
}
1002
{
1000
PINS
1011
3040.440482363385
1021
2192.371942804427
1031
0.0
1002
}
1002
{
1000
HVAL
1000
297
1002
}
1002
{
1000
H
1070
     2
1002
}
1002
{
1000
WVAL
1000
420
1002
}
1002
{
1000
W
1070
     2
1002
}
1002
{
1000
C
1070
     4
1002
}
1001
GENIUS_GENOBJ-N-REC_13
1002
{
1000
OWNER
1000
GEN
1002
}
1001
GENIUS_GENODEF_13
1002
{
1000
HIER
1070
     0
1002
}
1002
{
1000
MANEDIT
1070
     0
1002
}
1002
{
1000
NOSEL
1070
     0
1002
}
1002
{
1000
BEHIND
1070
     0
1002
}
1002
{
1000
OTHER
1070
     0
1002
}
1002
{
1000
REACTOR
1002
}
  0
LINE
  5
31667
330
1F
100
AcDbEntity
  8
AM_2
370
    13
100
AcDbLine
 10
2861.940482363385
 20
2245.371942804426
 30
0.0
 11
2861.940482363385
 21
2205.638609471092
 31
0.0
  0
LINE
  5
31668
330
1F
100
AcDbEntity
  8
AM_2
370
    13
100
AcDbLine
 10
2841.940482363385
 20
2237.371942804426
 30
0.0
 11
2924.940482363385
 21
2237.371942804426
 31
0.0
  0
LINE
  5
31669
330
1F
100
AcDbEntity
  8
AM_2
370
    13
100
AcDbLine
 10
2841.940482363385
 20
2229.371942804426
 30
0.0
 11
2924.940482363385
 21
2229.371942804426
 31
0.0
  0
LINE
  5
3166A
330
1F
100
AcDbEntity
  8
AM_2
370
    13
100
AcDbLine
 10
2841.940482363386
 20
2221.638609471092
 30
0.0
 11
2924.940482363385
 21
2221.638609471092
 31
0.0
  0
LINE
  5
3166B
330
1F
100
AcDbEntity
  8
AM_2
370
    13
100
AcDbLine
 10
2841.940482363386
 20
2213.638609471092
 30
0.0
 11
2924.940482363385
 21
2213.638609471092
 31
0.0
  0
LINE
  5
3166C
330
1F
100
AcDbEntity
  8
AM_0
100
AcDbLine
 10
2841.940482363385
 20
2245.371942804426
 30
0.0
 11
2841.940482363386
 21
2205.105276137762
 31
0.0
  0
LINE
  5
3166D
330
1F
100
AcDbEntity
  8
AM_0
100
AcDbLine
 10
2841.940482363385
 20
2245.371942804426
 30
0.0
 11
2924.940482363385
 21
2245.371942804426
 31
0.0
  0
LINE
  5
3166E
330
1F
100
AcDbEntity
  8
AM_1
100
AcDbLine
 10
2924.940482363385
 20
2245.371942804426
 30
0.0
 11
2924.940482363385
 21
2205.638609471092
 31
0.0
  0
TEXT
  5
3166F
330
1F
100
AcDbEntity
  8
AM_6
100
AcDbText
 10
2847.597482363386
 20
2239.771942804426
 30
0.0
 40
3.2
  1
品　名
 41
0.85537027
100
AcDbText
  0
TEXT
  5
31670
330
1F
100
AcDbEntity
  8
AM_6
100
AcDbText
 10
2847.597482363386
 20
2231.771942804426
 30
0.0
 40
3.2
  1
品　番
 41
0.85537027
100
AcDbText
  0
TEXT
  5
31671
330
1F
100
AcDbEntity
  8
AM_6
100
AcDbText
 10
2847.597482363387
 20
2223.771942804426
 30
0.0
 40
3.2
  1
材　質
 41
0.85537027
100
AcDbText
  0
TEXT
  5
31672
330
1F
100
AcDbEntity
  8
AM_6
100
AcDbText
 10
2847.597482363387
 20
2216.038609471091
 30
0.0
 40
3.2
  1
仕上げ
 41
0.85537027
100
AcDbText
  0
TEXT
  5
31673
330
1F
100
AcDbEntity
  8
AM_6
100
AcDbText
 10
2864.797482363385
 20
2239.771942804426
 30
0.0
 40
3.2
  1
座金
 41
0.84306961
100
AcDbText
  0
TEXT
  5
31674
330
1F
100
AcDbEntity
  8
AM_6
100
AcDbText
 10
2864.797482363385
 20
2231.771942804426
 30
0.0
 40
3.2
  1
EA15-「 」
 41
0.84741102
100
AcDbText
  0
TEXT
  5
31675
330
1F
100
AcDbEntity
  8
AM_6
100
AcDbText
 10
2864.797482363386
 20
2223.771942804426
 30
0.0
 40
3.2
  1
亜鉛ダイキャスト
 41
0.84634979
100
AcDbText
  0
TEXT
  5
31676
330
1F
100
AcDbEntity
  8
AM_6
100
AcDbText
 10
2864.797482363386
 20
2216.038609471091
 30
0.0
 40
3.2
  1
クロームメッキ
 41
0.84350122
100
AcDbText
  0
LINE
  5
3167D
330
1F
100
AcDbEntity
  8
AM_1
100
AcDbLine
 10
2841.940482363386
 20
2205.638609471092
 30
0.0
 11
2924.940482363385
 21
2205.638609471092
 31
0.0
  0
TEXT
  5
3167F
330
1F
100
AcDbEntity
  8
AM_6
100
AcDbText
 10
2847.597482363387
 20
2208.03860947109
 30
0.0
 40
3.2
  1
備　考
 41
0.85537027
100
AcDbText
  0
LINE
  5
31680
102
{ACAD_REACTORS
330
31A09
102
}
330
1F
100
AcDbEntity
  8
0部品19
100
AcDbLine
 10
2972.716638850979
 20
2118.868534455616
 30
0.0
 11
2973.466638850979
 21
2118.118534455616
 31
0.0
  0
LINE
  5
31681
102
{ACAD_REACTORS
330
31A09
102
}
330
1F
100
AcDbEntity
  8
0部品19
100
AcDbLine
 10
2972.716638850979
 20
2118.868534455616
 30
0.0
 11
2972.716638850979
 21
2121.118534455616
 31
0.0
  0
LINE
  5
31684
102
{ACAD_REACTORS
330
31A09
102
}
330
1F
100
AcDbEntity
  8
0部品19
100
AcDbLine
 10
2969.416638850979
 20
2118.868534455616
 30
0.0
 11
2968.666638850979
 21
2118.118534455616
 31
0.0
  0
LINE
  5
31685
102
{ACAD_REACTORS
330
31A09
102
}
330
1F
100
AcDbEntity
  8
0部品19
100
AcDbLine
 10
2969.416638850979
 20
2118.868534455616
 30
0.0
 11
2969.416638850979
 21
2121.118534455616
 31
0.0
  0
LINE
  5
31688
330
1F
100
AcDbEntity
  8
0部品19
  6
細線
 48
0.5
370
    13
100
AcDbLine
 10
2983.742065850978
 20
2126.118534455616
 30
0.0
 11
2983.742065850978
 21
2121.118534455616
 31
0.0
  0
ARC
  5
31689
330
1F
100
AcDbEntity
  8
0部品19
100
AcDbCircle
 10
2986.116638850978
 20
2125.618534455616
 30
0.0
 40
0.5
100
AcDbArc
 50
0.0
 51
90.0
  0
LINE
  5
3168A
330
1F
100
AcDbEntity
  8
0部品19
100
AcDbLine
 10
2993.066638850978
 20
2121.118534455616
 30
0.0
 11
2993.066638850978
 21
2118.118534455616
 31
0.0
  0
LINE
  5
3168C
330
1F
100
AcDbEntity
  8
0部品19
100
AcDbLine
 10
2986.616638850978
 20
2125.618534455616
 30
0.0
 11
2986.616638850978
 21
2121.118534455616
 31
0.0
  0
ARC
  5
31691
102
{ACAD_REACTORS
330
31A09
102
}
330
1F
100
AcDbEntity
  8
0部品19
100
AcDbCircle
 10
2975.016638850978
 20
2125.618534455616
 30
0.0
 40
0.5
100
AcDbArc
 50
90.0
 51
180.0
  0
LINE
  5
31693
102
{ACAD_REACTORS
330
31A09
102
}
330
1F
100
AcDbEntity
  8
0部品19
100
AcDbLine
 10
2974.516638850979
 20
2125.618534455616
 30
0.0
 11
2974.516638850979
 21
2121.118534455616
 31
0.0
  0
POLYLINE
  5
31695
330
1F
100
AcDbEntity
  8
0部品19
100
AcDb2dPolyline
 66
     1
 10
0.0
 20
0.0
 30
0.0
  0
VERTEX
  5
31696
330
31695
100
AcDbEntity
  8
0部品19
100
AcDbVertex
100
AcDb2dVertex
 10
2977.063706850978
 20
2167.787126455616
 30
0.0
  0
VERTEX
  5
31697
330
31695
100
AcDbEntity
  8
0部品19
100
AcDbVertex
100
AcDb2dVertex
 10
2974.543290850979
 20
2163.421637455616
 30
0.0
  0
SEQEND
  5
31698
330
31695
100
AcDbEntity
  8
0部品19
  0
POLYLINE
  5
31699
330
1F
100
AcDbEntity
  8
0部品19
100
AcDb2dPolyline
 66
     1
 10
0.0
 20
0.0
 30
0.0
  0
VERTEX
  5
3169A
330
31699
100
AcDbEntity
  8
0部品19
100
AcDbVertex
100
AcDb2dVertex
 10
2983.087055850978
 20
2168.354382455616
 30
0.0
  0
VERTEX
  5
3169B
330
31699
100
AcDbEntity
  8
0部品19
100
AcDbVertex
100
AcDb2dVertex
 10
2978.046221850978
 20
2168.354382455616
 30
0.0
  0
SEQEND
  5
3169C
330
31699
100
AcDbEntity
  8
0部品19
  0
POLYLINE
  5
3169D
330
1F
100
AcDbEntity
  8
0部品19
100
AcDb2dPolyline
 66
     1
 10
0.0
 20
0.0
 30
0.0
  0
VERTEX
  5
3169E
330
3169D
100
AcDbEntity
  8
0部品19
100
AcDbVertex
100
AcDb2dVertex
 10
2986.589986850978
 20
2163.421635455616
 30
0.0
  0
VERTEX
  5
3169F
330
3169D
100
AcDbEntity
  8
0部品19
100
AcDbVertex
100
AcDb2dVertex
 10
2984.069569850978
 20
2167.787127455616
 30
0.0
  0
SEQEND
  5
316A0
330
3169D
100
AcDbEntity
  8
0部品19
  0
POLYLINE
  5
316A1
330
1F
100
AcDbEntity
  8
0部品19
100
AcDb2dPolyline
 66
     1
 10
0.0
 20
0.0
 30
0.0
  0
VERTEX
  5
316A2
330
316A1
100
AcDbEntity
  8
0部品19
100
AcDbVertex
100
AcDb2dVertex
 10
2984.069569850978
 20
2157.921637455616
 30
0.0
  0
VERTEX
  5
316A3
330
316A1
100
AcDbEntity
  8
0部品19
100
AcDbVertex
100
AcDb2dVertex
 10
2986.589986850978
 20
2162.287129455616
 30
0.0
  0
SEQEND
  5
316A4
330
316A1
100
AcDbEntity
  8
0部品19
  0
POLYLINE
  5
316A5
330
1F
100
AcDbEntity
  8
0部品19
100
AcDb2dPolyline
 66
     1
 10
0.0
 20
0.0
 30
0.0
  0
VERTEX
  5
316A6
330
316A5
100
AcDbEntity
  8
0部品19
100
AcDbVertex
100
AcDb2dVertex
 10
2978.046221850978
 20
2157.354382455616
 30
0.0
  0
VERTEX
  5
316A7
330
316A5
100
AcDbEntity
  8
0部品19
100
AcDbVertex
100
AcDb2dVertex
 10
2983.087055850978
 20
2157.354382455616
 30
0.0
  0
SEQEND
  5
316A8
330
316A5
100
AcDbEntity
  8
0部品19
  0
ARC
  5
316A9
330
1F
100
AcDbEntity
  8
0部品19
100
AcDbCircle
 10
2980.566638850978
 20
2162.854382455616
 30
0.0
 40
6.049999999999999
100
AcDbArc
 50
234.6199679999973
 51
245.3800230000062
  0
ARC
  5
316AA
330
1F
100
AcDbEntity
  8
0部品19
100
AcDbCircle
 10
2980.566638850978
 20
2162.854382455616
 30
0.0
 40
6.049999999999999
100
AcDbArc
 50
174.6199760000093
 51
185.3800239999906
  0
ARC
  5
316AB
330
1F
100
AcDbEntity
  8
0部品19
100
AcDbCircle
 10
2980.566638850978
 20
2162.854382455616
 30
0.0
 40
6.049999999999999
100
AcDbArc
 50
114.6199769999938
 51
125.3800320000027
  0
ARC
  5
316AC
330
1F
100
AcDbEntity
  8
0部品19
100
AcDbCircle
 10
2980.566638850978
 20
2162.854382455616
 30
0.0
 40
6.049999999999999
100
AcDbArc
 50
54.61998800000258
 51
65.38002300000616
  0
ARC
  5
316AD
330
1F
100
AcDbEntity
  8
0部品19
100
AcDbCircle
 10
2980.566638850978
 20
2162.854382455616
 30
0.0
 40
6.049999999999999
100
AcDbArc
 50
354.6199950000016
 51
5.380004999998454
  0
ARC
  5
316AE
330
1F
100
AcDbEntity
  8
0部品19
100
AcDbCircle
 10
2980.566638850978
 20
2162.854382455616
 30
0.0
 40
6.049999999999999
100
AcDbArc
 50
294.6199769999937
 51
305.3800119999975
  0
CIRCLE
  5
316AF
330
1F
100
AcDbEntity
  8
0部品19
100
AcDbCircle
 10
2985.316638850978
 20
2154.627141455616
 30
0.0
 40
1.649999999999999
  0
CIRCLE
  5
316B0
330
1F
100
AcDbEntity
  8
0部品19
100
AcDbCircle
 10
2971.066638850978
 20
2162.854382455616
 30
0.0
 40
1.649999999999999
  0
LINE
  5
316BA
102
{ACAD_REACTORS
330
31A09
102
}
330
1F
100
AcDbEntity
  8
0部品19
100
AcDbLine
 10
2986.116638850978
 20
2126.118534455616
 30
0.0
 11
2975.016638850978
 21
2126.118534455616
 31
0.0
  0
LINE
  5
316BB
330
1F
100
AcDbEntity
  8
0部品19
100
AcDbLine
 10
2993.066638850978
 20
2121.118534455616
 30
0.0
 11
2980.566638850978
 21
2121.118534455616
 31
0.0
  0
LINE
  5
316BC
330
1F
100
AcDbEntity
  8
0部品19
100
AcDbLine
 10
2977.366638850978
 20
2119.918534455616
 30
0.0
 11
2980.566638850978
 21
2119.918534455616
 31
0.0
  0
LINE
  5
316BD
102
{ACAD_REACTORS
330
31A09
102
}
330
1F
100
AcDbEntity
  8
0部品19
100
AcDbLine
 10
2993.066638850978
 20
2118.118534455616
 30
0.0
 11
2968.066638850978
 21
2118.118534455616
 31
0.0
  0
LINE
  5
316BE
102
{ACAD_REACTORS
330
31A09
102
}
330
1F
100
AcDbEntity
  8
0部品19
100
AcDbLine
 10
2975.566638850978
 20
2118.118534455616
 30
0.0
 11
2977.366638850978
 21
2119.918534455616
 31
0.0
  0
LINE
  5
316BF
102
{ACAD_REACTORS
330
31A09
102
}
330
1F
100
AcDbEntity
  8
0部品19
100
AcDbLine
 10
2968.066638850978
 20
2121.118534455616
 30
0.0
 11
2968.066638850978
 21
2118.118534455616
 31
0.0
  0
LINE
  5
316C0
102
{ACAD_REACTORS
330
31A09
102
}
330
1F
100
AcDbEntity
  8
0部品19
100
AcDbLine
 10
2977.366638850978
 20
2126.118534455616
 30
0.0
 11
2977.366638850978
 21
2119.918534455616
 31
0.0
  0
LINE
  5
316C1
102
{ACAD_REACTORS
330
31A09
102
}
330
1F
100
AcDbEntity
  8
0部品19
  6
細線
 48
0.5
370
    13
100
AcDbLine
 10
2976.566638850978
 20
2126.118534455616
 30
0.0
 11
2976.566638850978
 21
2119.118534455616
 31
0.0
  0
CIRCLE
  5
316C2
330
1F
100
AcDbEntity
  8
0部品19
100
AcDbCircle
 10
2985.316638850978
 20
2171.081623455616
 30
0.0
 40
1.649999999999999
  0
POLYLINE
  5
316C3
330
1F
100
AcDbEntity
  8
0部品19
100
AcDb2dPolyline
 66
     1
 10
0.0
 20
0.0
 30
0.0
  0
VERTEX
  5
316C4
330
316C3
100
AcDbEntity
  8
0部品19
100
AcDbVertex
100
AcDb2dVertex
 10
2974.543290850979
 20
2162.287127455616
 30
0.0
  0
VERTEX
  5
316C5
330
316C3
100
AcDbEntity
  8
0部品19
100
AcDbVertex
100
AcDb2dVertex
 10
2977.063706850978
 20
2157.921638455616
 30
0.0
  0
SEQEND
  5
316C6
330
316C3
100
AcDbEntity
  8
0部品19
  0
CIRCLE
  5
316C7
330
1F
100
AcDbEntity
  8
0部品19
  6
中心線1
 48
0.5
370
    13
100
AcDbCircle
 10
2980.566638850978
 20
2162.854382455616
 30
0.0
 40
9.5
  0
LINE
  5
316C8
330
1F
100
AcDbEntity
  8
0部品19
  6
中心線1
 48
0.5
370
    13
100
AcDbLine
 10
2980.566638850978
 20
2162.854382455616
 30
0.0
 11
2988.316638850978
 21
2149.430988455616
 31
0.0
  0
CIRCLE
  5
316C9
330
1F
100
AcDbEntity
  8
0部品19
100
AcDbCircle
 10
2980.566638850978
 20
2162.854382455616
 30
0.0
 40
12.5
  0
CIRCLE
  5
316CA
330
1F
100
AcDbEntity
  8
0部品19
100
AcDbCircle
 10
2980.566638850978
 20
2162.854382455616
 30
0.0
 40
3.2
  0
CIRCLE
  5
316CB
330
1F
100
AcDbEntity
  8
0部品19
  6
細線
 48
0.5
370
    13
100
AcDbCircle
 10
2980.566638850978
 20
2162.854382455616
 30
0.0
 40
4.0
  0
LINE
  5
316CD
330
1F
100
AcDbEntity
  8
0部品19
  6
中心線1
 48
0.5
370
    13
100
AcDbLine
 10
2980.566638850978
 20
2162.854382455616
 30
0.0
 11
2988.316638850978
 21
2176.277776455616
 31
0.0
  0
LINE
  5
316CE
330
1F
100
AcDbEntity
  8
0部品19
  6
中心線1
 48
0.5
370
    13
100
AcDbLine
 10
2980.566638850978
 20
2115.118534455616
 30
0.0
 11
2980.566638850978
 21
2129.118534455616
 31
0.0
  0
DIMENSION
  5
31766
330
1F
100
AcDbEntity
  8
AM_5
100
AcDbDimension
  2
*D7
 10
2993.066638850978
 20
2102.118534455616
 30
0.0
 11
2980.566638850978
 21
2102.118534455616
 31
0.0
 70
   160
  1
%%cA
 71
     5
 42
25.0
  3
SYS$0
100
AcDbAlignedDimension
 13
2968.066638850978
 23
2118.118534455616
 33
0.0
 14
2993.066638850978
 24
2118.118534455616
 34
0.0
 50
0.0000000000001018
100
AcDbRotatedDimension
  0
DIMENSION
  5
317A7
330
1F
100
AcDbEntity
  8
AM_5
100
AcDbDimension
  2
*D8
 10
3001.066638850979
 20
2126.118534455616
 30
0.0
 11
3001.066638850978
 21
2123.618534455617
 31
0.0
 70
   160
  1
B
 71
     5
 42
5.0
  3
SYS$0
100
AcDbAlignedDimension
 13
2993.066638850978
 23
2121.118534455616
 33
0.0
 14
2986.116638850978
 24
2126.118534455616
 34
0.0
 50
90.0
100
AcDbRotatedDimension
  0
DIMENSION
  5
317E6
330
1F
100
AcDbEntity
  8
AM_5
100
AcDbDimension
  2
*D9
 10
3001.066638850979
 20
2121.118534455616
 30
0.0
 11
3001.066638850978
 21
2114.37186778895
 31
0.0
 70
   160
 71
     5
 42
3.0
  3
SYS$0
100
AcDbAlignedDimension
 13
2993.066638850978
 23
2118.118534455616
 33
0.0
 14
2993.066638850978
 24
2121.118534455616
 34
0.0
 50
90.0
100
AcDbRotatedDimension
  0
DIMENSION
  5
31816
330
1F
100
AcDbEntity
  8
AM_5
100
AcDbDimension
  2
*D10
 10
2987.643857232383
 20
2156.516955534387
 30
0.0
 11
2965.039977700155
 21
2174.238768470996
 31
0.0
 70
   163
  1
%%cD
 71
     5
 42
18.99999999999954
  3
SYS$3
100
AcDbDiametricDimension
 15
2973.489420469579
 25
2169.191809376848
 35
0.0
 40
0.0
1001
ACAD
1000
DSTYLE
1002
{
1070
   172
1070
     1
1002
}
  0
DIMENSION
  5
31842
330
1F
100
AcDbEntity
  8
AM_5
100
AcDbDimension
  2
*D11
 10
2960.066638850979
 20
2168.354382455616
 30
0.0
 11
2960.066638850978
 21
2162.854382455616
 31
0.0
 70
   160
  1
C
 71
     5
 42
11.0
  3
SYS$0
100
AcDbAlignedDimension
 13
2978.046221850978
 23
2157.354382455616
 33
0.0
 14
2978.046221850978
 24
2168.354382455616
 34
0.0
 50
90.0
100
AcDbRotatedDimension
  0
LINE
  5
318C9
102
{ACAD_REACTORS
330
31A09
102
}
330
1F
100
AcDbEntity
  8
0部品19
100
AcDbLine
 10
2974.516638850979
 20
2121.118534455616
 30
0.0
 11
2968.066638850978
 21
2121.118534455616
 31
0.0
  0
LINE
  5
318CA
330
1F
100
AcDbEntity
  8
0部品19
100
AcDbLine
 10
2972.716638850979
 20
2118.868534455616
 30
0.0
 11
2969.416638850979
 21
2118.868534455616
 31
0.0
  0
LINE
  5
31900
330
1F
100
AcDbEntity
  8
0部品19
  6
中心線1
 48
0.5
370
    13
100
AcDbLine
 10
2971.066638850978
 20
2115.118534455616
 30
0.0
 11
2971.066638850978
 21
2124.118534455616
 31
0.0
1001
GENIUS_GENOBJ-N-CEN_13
1002
{
1000
OWNER
1000
GEN
1002
}
1001
GENIUS_GENODEF_13
1002
{
1000
HIER
1070
     0
1002
}
1002
{
1000
MANEDIT
1070
     0
1002
}
1002
{
1000
NOSEL
1070
     0
1002
}
1002
{
1000
BEHIND
1070
     0
1002
}
1002
{
1000
OTHER
1070
     0
1002
}
1002
{
1000
REACTOR
1002
}
1001
GENIUS_GENCEN_19
1002
{
1040
3.0
1002
}
  0
DIMENSION
  5
31901
330
1F
100
AcDbEntity
  8
AM_5
100
AcDbDimension
  2
*D12
 10
2988.316638850978
 20
2149.430988455616
 30
0.0
 11
3001.066638850978
 21
2162.854382455616
 31
0.0
 70
   162
 71
     5
 42
2.094395117963589
  3
SYS$2
100
AcDb2LineAngularDimension
 13
2980.566638850978
 23
2162.854382455616
 33
0.0
 14
2988.316638850978
 24
2176.277776455616
 34
0.0
 15
2980.566638850978
 25
2162.854382455616
 35
0.0
 16
2999.830337558894
 26
2155.842969467449
 36
0.0
  0
DIMENSION
  5
31975
330
1F
100
AcDbEntity
  8
AM_5
100
AcDbDimension
  2
*D13
 10
2984.566638850978
 20
2142.354382455616
 30
0.0
 11
2980.566638850978
 21
2142.354382455616
 31
0.0
 70
   160
  1
E
 71
     5
 42
8.0
  3
SYS$0
100
AcDbAlignedDimension
 13
2976.566638850978
 23
2162.854382455616
 33
0.0
 14
2984.566638850978
 24
2162.854382455616
 34
0.0
100
AcDbRotatedDimension
  0
HATCH
  5
31A09
330
1F
100
AcDbEntity
  8
0部品19
  6
細線
 48
0.5
370
    13
100
AcDbHatch
 10
0.0
 20
0.0
 30
0.0
210
0.0
220
0.0
230
1.0
  2
ANSI31
 70
     0
 71
     1
 91
        3
 92
        7
 72
     1
 73
     1
 93
        9
 10
2972.716638850979
 20
2121.118534455616
 42
0.0
 10
2972.716638850979
 20
2118.868534455616
 42
0.0
 10
2973.466638850979
 20
2118.118534455616
 42
0.0
 10
2975.566638850978
 20
2118.118534455616
 42
0.0
 10
2976.566638850978
 20
2119.118534455616
 42
0.0
 10
2976.566638850978
 20
2126.118534455616
 42
0.0
 10
2975.016638850978
 20
2126.118534455616
 42
0.4142135623730951
 10
2974.516638850979
 20
2125.618534455616
 42
0.0
 10
2974.516638850979
 20
2121.118534455616
 42
0.0
 97
        9
330
316BA
330
31691
330
31693
330
318C9
330
31681
330
31680
330
316BD
330
316BE
330
316C1
 92
        7
 72
     0
 73
     1
 93
        4
 10
2976.566638850977
 20
2119.118534455616
 10
2977.366638850978
 20
2119.918534455616
 10
2977.366638850978
 20
2126.118534455616
 10
2976.566638850978
 20
2126.118534455616
 97
        4
330
316BA
330
316C1
330
316BE
330
316C0
 92
        7
 72
     0
 73
     1
 93
        5
 10
2969.416638850979
 20
2121.118534455616
 10
2968.066638850978
 20
2121.118534455616
 10
2968.066638850978
 20
2118.118534455616
 10
2968.666638850979
 20
2118.118534455616
 10
2969.416638850979
 20
2118.868534455616
 97
        5
330
318C9
330
316BF
330
316BD
330
31684
330
31685
 75
     0
 76
     1
 52
0.0
 41
0.3
 77
     0
 78
     1
 53
45.0
 43
-13.6552061926177
 44
-6.579292396923847
 45
-0.6735192090801864
 46
0.6735192090801866
 79
     0
 47
0.0614167199444792
 98
        3
 10
2974.165129901841
 20
2119.909253179711
 10
2976.774571841538
 20
2121.627619484011
 10
2968.97208669697
 20
2120.276452372982
1001
ACAD
1010
0.0
1020
0.0
1030
0.0
  0
LINE
  5
31AB2
330
1F
100
AcDbEntity
  8
0部品19
  6
中心線1
 48
0.5
370
    13
100
AcDbLine
 10
2980.566638850978
 20
2178.354382455616
 30
0.0
 11
2980.566638850978
 21
2147.354382455616
 31
0.0
1001
GENIUS_GENOBJ-N-CEN_13
1002
{
1000
OWNER
1000
GEN
1002
}
1001
GENIUS_GENODEF_13
1002
{
1000
HIER
1070
     0
1002
}
1002
{
1000
MANEDIT
1070
     0
1002
}
1002
{
1000
NOSEL
1070
     0
1002
}
1002
{
1000
BEHIND
1070
     0
1002
}
1002
{
1000
OTHER
1070
     0
1002
}
1002
{
1000
REACTOR
1002
}
1001
GENIUS_GENCEN_19
1002
{
1040
3.0
1002
}
  0
LINE
  5
31AB3
330
1F
100
AcDbEntity
  8
0部品19
  6
中心線1
 48
0.5
370
    13
100
AcDbLine
 10
2996.066638850978
 20
2162.854382455616
 30
0.0
 11
2965.066638850978
 21
2162.854382455616
 31
0.0
1001
GENIUS_GENOBJ-N-CEN_13
1002
{
1000
OWNER
1000
GEN
1002
}
1001
GENIUS_GENODEF_13
1002
{
1000
HIER
1070
     0
1002
}
1002
{
1000
MANEDIT
1070
     0
1002
}
1002
{
1000
NOSEL
1070
     0
1002
}
1002
{
1000
BEHIND
1070
     0
1002
}
1002
{
1000
OTHER
1070
     0
1002
}
1002
{
1000
REACTOR
1002
}
1001
GENIUS_GENCEN_19
1002
{
1040
3.0
1002
}
  0
LINE
  5
31B4A
330
1F
100
AcDbEntity
  8
AM_0
100
AcDbLine
 10
2872.940482363385
 20
2089.371942804426
 30
0.0
 11
2872.940482363385
 21
2052.371942804427
 31
0.0
  0
LINE
  5
31B4B
330
1F
100
AcDbEntity
  8
AM_0
100
AcDbLine
 10
2920.940482363385
 20
2082.371942804425
 30
0.0
 11
2841.940482363385
 21
2082.371942804424
 31
0.0
  0
LINE
  5
31B4D
330
1F
100
AcDbEntity
  8
AM_4
100
AcDbLine
 10
2920.940482363385
 20
2072.371942804428
 30
0.0
 11
2841.940482363385
 21
2072.371942804428
 31
0.0
  0
LINE
  5
31B50
330
1F
100
AcDbEntity
  8
AM_4
100
AcDbLine
 10
2920.940482363385
 20
2062.371942804425
 30
0.0
 11
2841.940482363385
 21
2062.371942804427
 31
0.0
  0
LINE
  5
31B52
330
1F
100
AcDbEntity
  8
AM_0
100
AcDbLine
 10
2912.940482363385
 20
2052.371942804427
 30
0.0
 11
2841.940482363385
 21
2052.371942804427
 31
0.0
  0
LINE
  5
31B54
330
1F
100
AcDbEntity
  8
AM_4
100
AcDbLine
 10
2880.940482363385
 20
2089.371942804426
 30
0.0
 11
2880.940482363385
 21
2052.371942804427
 31
0.0
  0
MTEXT
  5
31B5B
330
1F
100
AcDbEntity
  8
AM_6
100
AcDbMText
 10
2857.440482363385
 20
2077.371942804426
 30
0.0
 40
3.2
 41
31.0000000000001
 71
     5
 72
     5
  1
EA15-25
 73
     1
 44
1.0
1001
ACAD
1000
MTEXTBEGIN
1070
    73
1070
     1
1070
    44
1040
1.0
1070
    74
1070
     0
1000
MTEXTEND
1000
ACAD_MTEXT_DEFINED_HEIGHT_BEGIN
1070
    46
1040
10.00000000000018
1000
ACAD_MTEXT_DEFINED_HEIGHT_END
  0
LINE
  5
31B5C
330
1F
100
AcDbEntity
  8
AM_0
100
AcDbLine
 10
2920.940482363385
 20
2089.371942804428
 30
0.0
 11
2841.940482363385
 21
2089.371942804426
 31
0.0
  0
MTEXT
  5
31B5D
330
1F
100
AcDbEntity
  8
AM_6
100
AcDbMText
 10
2857.440482363385
 20
2085.871942804427
 30
0.0
 40
3.2
 41
30.99999999999982
 71
     5
 72
     5
  1
品番
 73
     1
 44
1.0
1001
ACAD
1000
MTEXTBEGIN
1070
    73
1070
     1
1070
    44
1040
1.0
1070
    74
1070
     0
1000
MTEXTEND
1000
ACAD_MTEXT_DEFINED_HEIGHT_BEGIN
1070
    46
1040
3.200000000000227
1000
ACAD_MTEXT_DEFINED_HEIGHT_END
  0
LINE
  5
31B65
330
1F
100
AcDbEntity
  8
AM_0
100
AcDbLine
 10
2841.940482363385
 20
2089.371942804426
 30
0.0
 11
2841.940482363385
 21
2052.371942804427
 31
0.0
  0
MTEXT
  5
31B86
330
1F
100
AcDbEntity
  8
AM_6
100
AcDbMText
 10
2876.940482363386
 20
2085.871942804425
 30
0.0
 40
3.2
 41
7.999999999999886
 71
     5
 72
     5
  1
A
 73
     1
 44
1.0
1001
ACAD
1000
MTEXTBEGIN
1070
    73
1070
     1
1070
    44
1040
1.0
1070
    74
1070
     0
1000
MTEXTEND
  0
MTEXT
  5
31B87
330
1F
100
AcDbEntity
  8
AM_6
100
AcDbMText
 10
2876.940482363385
 20
2077.371942804424
 30
0.0
 40
3.2
 41
8.000000000001023
 71
     5
 72
     5
  1
25
 73
     1
 44
1.0
1001
ACAD
1000
MTEXTBEGIN
1070
    73
1070
     1
1070
    44
1040
1.0
1070
    74
1070
     0
1000
MTEXTEND
1000
ACAD_MTEXT_DEFINED_HEIGHT_BEGIN
1070
    46
1040
9.999999999996774
1000
ACAD_MTEXT_DEFINED_HEIGHT_END
  0
MTEXT
  5
31B88
330
1F
100
AcDbEntity
  8
AM_6
100
AcDbMText
 10
2876.940482363385
 20
2067.371942804422
 30
0.0
 40
3.2
 41
8.000000000001023
 71
     5
 72
     5
  1
28
 73
     1
 44
1.0
1001
ACAD
1000
MTEXTBEGIN
1070
    73
1070
     1
1070
    44
1040
1.0
1070
    74
1070
     0
1000
MTEXTEND
1000
ACAD_MTEXT_DEFINED_HEIGHT_BEGIN
1070
    46
1040
9.999999999996774
1000
ACAD_MTEXT_DEFINED_HEIGHT_END
  0
MTEXT
  5
31B89
330
1F
100
AcDbEntity
  8
AM_6
100
AcDbMText
 10
2876.940482363385
 20
2057.371942804425
 30
0.0
 40
3.2
 41
8.000000000001023
 71
     5
 72
     5
  1
40
 73
     1
 44
1.0
1001
ACAD
1000
MTEXTBEGIN
1070
    73
1070
     1
1070
    44
1040
1.0
1070
    74
1070
     0
1000
MTEXTEND
1000
ACAD_MTEXT_DEFINED_HEIGHT_BEGIN
1070
    46
1040
9.999999999996774
1000
ACAD_MTEXT_DEFINED_HEIGHT_END
  0
MTEXT
  5
31B8C
330
1F
100
AcDbEntity
  8
AM_6
100
AcDbMText
 10
2884.940482363385
 20
2085.871942804425
 30
0.0
 40
3.2
 41
7.999999999999886
 71
     5
 72
     5
  1
B
 73
     1
 44
1.0
1001
ACAD
1000
MTEXTBEGIN
1070
    73
1070
     1
1070
    44
1040
1.0
1070
    74
1070
     0
1000
MTEXTEND
  0
MTEXT
  5
31B8D
330
1F
100
AcDbEntity
  8
AM_6
100
AcDbMText
 10
2884.940482363385
 20
2077.371942804424
 30
0.0
 40
3.2
 41
8.000000000001023
 71
     5
 72
     5
  1
5
 73
     1
 44
1.0
1001
ACAD
1000
MTEXTBEGIN
1070
    73
1070
     1
1070
    44
1040
1.0
1070
    74
1070
     0
1000
MTEXTEND
1000
ACAD_MTEXT_DEFINED_HEIGHT_BEGIN
1070
    46
1040
9.999999999996774
1000
ACAD_MTEXT_DEFINED_HEIGHT_END
  0
MTEXT
  5
31B8E
330
1F
100
AcDbEntity
  8
AM_6
100
AcDbMText
 10
2884.940482363385
 20
2067.371942804422
 30
0.0
 40
3.2
 41
8.000000000001023
 71
     5
 72
     5
  1
6
 73
     1
 44
1.0
1001
ACAD
1000
MTEXTBEGIN
1070
    73
1070
     1
1070
    44
1040
1.0
1070
    74
1070
     0
1000
MTEXTEND
1000
ACAD_MTEXT_DEFINED_HEIGHT_BEGIN
1070
    46
1040
9.999999999996774
1000
ACAD_MTEXT_DEFINED_HEIGHT_END
  0
MTEXT
  5
31B8F
330
1F
100
AcDbEntity
  8
AM_6
100
AcDbMText
 10
2884.940482363385
 20
2057.371942804425
 30
0.0
 40
3.2
 41
8.000000000001023
 71
     5
 72
     5
  1
8
 73
     1
 44
1.0
1001
ACAD
1000
MTEXTBEGIN
1070
    73
1070
     1
1070
    44
1040
1.0
1070
    74
1070
     0
1000
MTEXTEND
1000
ACAD_MTEXT_DEFINED_HEIGHT_BEGIN
1070
    46
1040
9.999999999996774
1000
ACAD_MTEXT_DEFINED_HEIGHT_END
  0
LINE
  5
31B92
330
1F
100
AcDbEntity
  8
AM_4
100
AcDbLine
 10
2888.940482363385
 20
2089.371942804427
 30
0.0
 11
2888.940482363385
 21
2052.371942804427
 31
0.0
  0
LINE
  5
31B93
330
1F
100
AcDbEntity
  8
AM_4
100
AcDbLine
 10
2896.940482363385
 20
2089.371942804427
 30
0.0
 11
2896.940482363385
 21
2052.371942804427
 31
0.0
  0
MTEXT
  5
31B94
330
1F
100
AcDbEntity
  8
AM_6
100
AcDbMText
 10
2892.940482363386
 20
2085.871942804425
 30
0.0
 40
3.2
 41
7.999999999999886
 71
     5
 72
     5
  1
C
 73
     1
 44
1.0
1001
ACAD
1000
MTEXTBEGIN
1070
    73
1070
     1
1070
    44
1040
1.0
1070
    74
1070
     0
1000
MTEXTEND
  0
MTEXT
  5
31B95
330
1F
100
AcDbEntity
  8
AM_6
100
AcDbMText
 10
2892.940482363385
 20
2077.371942804425
 30
0.0
 40
3.2
 41
8.000000000001023
 71
     5
 72
     5
  1
11
 73
     1
 44
1.0
1001
ACAD
1000
MTEXTBEGIN
1070
    73
1070
     1
1070
    44
1040
1.0
1070
    74
1070
     0
1000
MTEXTEND
1000
ACAD_MTEXT_DEFINED_HEIGHT_BEGIN
1070
    46
1040
9.999999999996774
1000
ACAD_MTEXT_DEFINED_HEIGHT_END
  0
MTEXT
  5
31B96
330
1F
100
AcDbEntity
  8
AM_6
100
AcDbMText
 10
2892.940482363385
 20
2067.371942804423
 30
0.0
 40
3.2
 41
8.000000000001023
 71
     5
 72
     5
  1
13
 73
     1
 44
1.0
1001
ACAD
1000
MTEXTBEGIN
1070
    73
1070
     1
1070
    44
1040
1.0
1070
    74
1070
     0
1000
MTEXTEND
1000
ACAD_MTEXT_DEFINED_HEIGHT_BEGIN
1070
    46
1040
9.999999999996774
1000
ACAD_MTEXT_DEFINED_HEIGHT_END
  0
MTEXT
  5
31B97
330
1F
100
AcDbEntity
  8
AM_6
100
AcDbMText
 10
2892.940482363385
 20
2057.371942804426
 30
0.0
 40
3.2
 41
8.000000000001023
 71
     5
 72
     5
  1
16
 73
     1
 44
1.0
1001
ACAD
1000
MTEXTBEGIN
1070
    73
1070
     1
1070
    44
1040
1.0
1070
    74
1070
     0
1000
MTEXTEND
1000
ACAD_MTEXT_DEFINED_HEIGHT_BEGIN
1070
    46
1040
9.999999999996774
1000
ACAD_MTEXT_DEFINED_HEIGHT_END
  0
LINE
  5
31B9A
330
1F
100
AcDbEntity
  8
AM_4
100
AcDbLine
 10
2904.940482363385
 20
2089.371942804427
 30
0.0
 11
2904.940482363385
 21
2052.371942804427
 31
0.0
  0
MTEXT
  5
31B9B
330
1F
100
AcDbEntity
  8
AM_6
100
AcDbMText
 10
2900.940482363385
 20
2085.871942804425
 30
0.0
 40
3.2
 41
7.999999999999886
 71
     5
 72
     5
  1
D
 73
     1
 44
1.0
1001
ACAD
1000
MTEXTBEGIN
1070
    73
1070
     1
1070
    44
1040
1.0
1070
    74
1070
     0
1000
MTEXTEND
  0
MTEXT
  5
31B9C
330
1F
100
AcDbEntity
  8
AM_6
100
AcDbMText
 10
2900.940482363385
 20
2077.371942804425
 30
0.0
 40
3.2
 41
8.000000000001023
 71
     5
 72
     5
  1
19
 73
     1
 44
1.0
1001
ACAD
1000
MTEXTBEGIN
1070
    73
1070
     1
1070
    44
1040
1.0
1070
    74
1070
     0
1000
MTEXTEND
1000
ACAD_MTEXT_DEFINED_HEIGHT_BEGIN
1070
    46
1040
9.999999999996774
1000
ACAD_MTEXT_DEFINED_HEIGHT_END
  0
MTEXT
  5
31B9D
330
1F
100
AcDbEntity
  8
AM_6
100
AcDbMText
 10
2900.940482363385
 20
2067.371942804423
 30
0.0
 40
3.2
 41
8.000000000001023
 71
     5
 72
     5
  1
20
 73
     1
 44
1.0
1001
ACAD
1000
MTEXTBEGIN
1070
    73
1070
     1
1070
    44
1040
1.0
1070
    74
1070
     0
1000
MTEXTEND
1000
ACAD_MTEXT_DEFINED_HEIGHT_BEGIN
1070
    46
1040
9.999999999996774
1000
ACAD_MTEXT_DEFINED_HEIGHT_END
  0
MTEXT
  5
31B9E
330
1F
100
AcDbEntity
  8
AM_6
100
AcDbMText
 10
2900.940482363385
 20
2057.371942804426
 30
0.0
 40
3.2
 41
8.000000000001023
 71
     5
 72
     5
  1
30
 73
     1
 44
1.0
1001
ACAD
1000
MTEXTBEGIN
1070
    73
1070
     1
1070
    44
1040
1.0
1070
    74
1070
     0
1000
MTEXTEND
1000
ACAD_MTEXT_DEFINED_HEIGHT_BEGIN
1070
    46
1040
9.999999999996774
1000
ACAD_MTEXT_DEFINED_HEIGHT_END
  0
LINE
  5
31BA1
330
1F
100
AcDbEntity
  8
AM_4
100
AcDbLine
 10
2912.940482363385
 20
2089.371942804427
 30
0.0
 11
2912.940482363385
 21
2052.371942804427
 31
0.0
  0
MTEXT
  5
31BA2
330
1F
100
AcDbEntity
  8
AM_6
100
AcDbMText
 10
2908.940482363386
 20
2085.871942804425
 30
0.0
 40
3.2
 41
7.999999999999886
 71
     5
 72
     5
  1
E
 73
     1
 44
1.0
1001
ACAD
1000
MTEXTBEGIN
1070
    73
1070
     1
1070
    44
1040
1.0
1070
    74
1070
     0
1000
MTEXTEND
  0
MTEXT
  5
31BA3
330
1F
100
AcDbEntity
  8
AM_6
100
AcDbMText
 10
2908.940482363385
 20
2077.371942804425
 30
0.0
 40
3.2
 41
8.000000000001023
 71
     5
 72
     5
  1
M8
 73
     1
 44
1.0
1001
ACAD
1000
MTEXTBEGIN
1070
    73
1070
     1
1070
    44
1040
1.0
1070
    74
1070
     0
1000
MTEXTEND
1000
ACAD_MTEXT_DEFINED_HEIGHT_BEGIN
1070
    46
1040
9.999999999996774
1000
ACAD_MTEXT_DEFINED_HEIGHT_END
  0
MTEXT
  5
31BA4
330
1F
100
AcDbEntity
  8
AM_6
100
AcDbMText
 10
2908.940482363385
 20
2067.371942804423
 30
0.0
 40
3.2
 41
8.000000000001023
 71
     5
 72
     5
  1
M10
 73
     1
 44
1.0
1001
ACAD
1000
MTEXTBEGIN
1070
    73
1070
     1
1070
    44
1040
1.0
1070
    74
1070
     0
1000
MTEXTEND
1000
ACAD_MTEXT_DEFINED_HEIGHT_BEGIN
1070
    46
1040
9.999999999996774
1000
ACAD_MTEXT_DEFINED_HEIGHT_END
  0
MTEXT
  5
31BA5
330
1F
100
AcDbEntity
  8
AM_6
100
AcDbMText
 10
2908.940482363385
 20
2057.371942804426
 30
0.0
 40
3.2
 41
8.000000000001023
 71
     5
 72
     5
  1
M12
 73
     1
 44
1.0
1001
ACAD
1000
MTEXTBEGIN
1070
    73
1070
     1
1070
    44
1040
1.0
1070
    74
1070
     0
1000
MTEXTEND
1000
ACAD_MTEXT_DEFINED_HEIGHT_BEGIN
1070
    46
1040
9.999999999996774
1000
ACAD_MTEXT_DEFINED_HEIGHT_END
  0
MTEXT
  5
31BA8
330
1F
100
AcDbEntity
  8
AM_6
100
AcDbMText
 10
2857.440482363385
 20
2067.371942804424
 30
0.0
 40
3.2
 41
31.0000000000001
 71
     5
 72
     5
  1
EA15-28
 73
     1
 44
1.0
1001
ACAD
1000
MTEXTBEGIN
1070
    73
1070
     1
1070
    44
1040
1.0
1070
    74
1070
     0
1000
MTEXTEND
1000
ACAD_MTEXT_DEFINED_HEIGHT_BEGIN
1070
    46
1040
10.00000000000018
1000
ACAD_MTEXT_DEFINED_HEIGHT_END
  0
MTEXT
  5
31BA9
330
1F
100
AcDbEntity
  8
AM_6
100
AcDbMText
 10
2857.440482363385
 20
2057.371942804424
 30
0.0
 40
3.2
 41
31.0000000000001
 71
     5
 72
     5
  1
EA15-40
 73
     1
 44
1.0
1001
ACAD
1000
MTEXTBEGIN
1070
    73
1070
     1
1070
    44
1040
1.0
1070
    74
1070
     0
1000
MTEXTEND
1000
ACAD_MTEXT_DEFINED_HEIGHT_BEGIN
1070
    46
1040
10.00000000000018
1000
ACAD_MTEXT_DEFINED_HEIGHT_END
  0
DIMENSION
  5
323F0
330
1F
100
AcDbEntity
  8
AM_5
100
AcDbDimension
  2
*D14
 10
2972.716638850979
 20
2134.118534455616
 30
0.0
 11
2963.056638850979
 21
2134.118534455616
 31
0.0
 70
   160
  1
%%c<>
 71
     5
 42
3.299999999999727
  3
SYS$0
100
AcDbAlignedDimension
 13
2969.416638850979
 23
2121.118534455616
 33
0.0
 14
2972.716638850979
 24
2121.118534455616
 34
0.0
 50
0.0000000000000114
100
AcDbRotatedDimension
  0
DIMENSION
  5
3243F
330
1F
100
AcDbEntity
  8
AM_5
100
AcDbDimension
  2
*D15
 10
2973.466638850979
 20
2110.118534455616
 30
0.0
 11
2971.066638850978
 21
2110.118534455616
 31
0.0
 70
   160
  1
%%cA
 71
     5
 42
4.799999999999727
  3
SYS$0
100
AcDbAlignedDimension
 13
2968.666638850979
 23
2118.118534455616
 33
0.0
 14
2973.466638850979
 24
2118.118534455616
 34
0.0
 50
0.0000000000001018
100
AcDbRotatedDimension
  0
LINE
  5
324A0
330
1F
100
AcDbEntity
  8
AM_0
100
AcDbLine
 10
2920.940482363385
 20
2089.371942804428
 30
0.0
 11
2920.940482363385
 21
2052.371942804427
 31
0.0
  0
MTEXT
  5
324A1
330
1F
100
AcDbEntity
  8
AM_6
100
AcDbMText
 10
2916.940482363385
 20
2085.871942804425
 30
0.0
 40
3.2
 41
7.999999999999886
 71
     5
 72
     5
  1
F
 73
     1
 44
1.0
1001
ACAD
1000
MTEXTBEGIN
1070
    73
1070
     1
1070
    44
1040
1.0
1070
    74
1070
     0
1000
MTEXTEND
  0
MTEXT
  5
324A2
330
1F
100
AcDbEntity
  8
AM_6
100
AcDbMText
 10
2916.940482363385
 20
2077.371942804425
 30
0.0
 40
3.2
 41
8.000000000001023
 71
     5
 72
     5
  1
%%C4.8
 73
     1
 44
1.0
1001
ACAD
1000
MTEXTBEGIN
1070
    73
1070
     1
1070
    44
1040
1.0
1070
    74
1070
     0
1000
MTEXTEND
1000
ACAD_MTEXT_DEFINED_HEIGHT_BEGIN
1070
    46
1040
9.999999999996774
1000
ACAD_MTEXT_DEFINED_HEIGHT_END
  0
MTEXT
  5
324A5
330
1F
100
AcDbEntity
  8
AM_6
100
AcDbMText
 10
2916.940482363385
 20
2067.371942804422
 30
0.0
 40
3.2
 41
8.000000000001023
 71
     5
 72
     5
  1
%%C6.4
 73
     1
 44
1.0
1001
ACAD
1000
MTEXTBEGIN
1070
    73
1070
     1
1070
    44
1040
1.0
1070
    74
1070
     0
1000
MTEXTEND
1000
ACAD_MTEXT_DEFINED_HEIGHT_BEGIN
1070
    46
1040
9.999999999996774
1000
ACAD_MTEXT_DEFINED_HEIGHT_END
  0
MTEXT
  5
324A6
330
1F
100
AcDbEntity
  8
AM_6
100
AcDbMText
 10
2916.940482363385
 20
2057.371942804423
 30
0.0
 40
3.2
 41
8.000000000001023
 71
     5
 72
     5
  1
%%C7.2
 73
     1
 44
1.0
1001
ACAD
1000
MTEXTBEGIN
1070
    73
1070
     1
1070
    44
1040
1.0
1070
    74
1070
     0
1000
MTEXTEND
1000
ACAD_MTEXT_DEFINED_HEIGHT_BEGIN
1070
    46
1040
9.999999999996774
1000
ACAD_MTEXT_DEFINED_HEIGHT_END
  0
ENDSEC
  0
SECTION
  2
OBJECTS
  0
DICTIONARY
  5
C
330
0
100
AcDbDictionary
281
     1
  3
ACAD_2007HEADERVARS_RT
350
324C6
  3
ACAD_BGPLOT_KEY
350
AB06
  3
ACAD_COLOR
350
A91D
  3
ACAD_GROUP
350
D
  3
ACAD_LAYOUT
350
1A
  3
ACAD_MATERIAL
350
A91C
  3
ACAD_MLINESTYLE
350
17
  3
ACAD_PLOTSETTINGS
350
19
  3
ACAD_PLOTSTYLENAME
350
E
  3
ACAD_TABLESTYLE
350
AAB9
  3
ACAD_VISUALSTYLE
350
B0F1
  3
AcAsAppObject
350
3DA1
  3
ACASGREF_MASTER
350
3DE9
  3
AcDbVariableDictionary
350
34
  3
AcmDictionary
350
47
  3
AD_GREF_MODULE
350
3DEA
  3
AD_MAPI_MODULE
350
3E06
  3
AMG
350
2B
  3
AMGSNAPSETTINGS
350
7D
  3
ASE_INDEX_DICTIONARY
350
224C9
  3
DWGPROPS
350
324C5
  3
MAPISURF_MODULE
350
3DEB
  0
DICTIONARY
  5
3F95
330
2
100
AcDbDictionary
280
     1
281
     1
  3
ACAD_LAYERFILTERS
360
B466
  3
ACAD_LAYERSTATES
360
3F96
  3
ACLYDICTIONARY
360
B465
  3
AMLAYER_GROUPCOLORS
360
AAB4
  0
DICTIONARY
  5
2E416
330
2E415
100
AcDbDictionary
280
     1
281
     1
  3
ADSK_XREC_LAYER_RECONCILED
360
2E417
  0
DICTIONARY
  5
8A
330
1F
100
AcDbDictionary
280
     1
281
     1
  3
ACAD_SORTENTS
360
B1BA
  0
DICTIONARY
  5
324C6
102
{ACAD_REACTORS
330
C
102
}
330
C
100
AcDbDictionary
281
     1
  3
DIMARCSYM
350
324C7
  0
DICTIONARY
  5
AB06
102
{ACAD_REACTORS
330
C
102
}
330
C
100
AcDbDictionary
280
     1
281
     1
  0
DICTIONARY
  5
A91D
102
{ACAD_REACTORS
330
C
102
}
330
C
100
AcDbDictionary
281
     1
  0
DICTIONARY
  5
D
102
{ACAD_REACTORS
330
C
102
}
330
C
100
AcDbDictionary
281
     1
  0
DICTIONARY
  5
1A
102
{ACAD_REACTORS
330
C
102
}
330
C
100
AcDbDictionary
281
     1
  3
Model
350
22
  3
ﾚｲｱｳﾄ1
350
1E
  3
ﾚｲｱｳﾄ2
350
26
  0
DICTIONARY
  5
A91C
102
{ACAD_REACTORS
330
C
102
}
330
C
100
AcDbDictionary
281
     1
  3
ByBlock
350
B0EF
  3
ByLayer
350
B0EE
  3
Global
350
B0F0
  0
DICTIONARY
  5
17
102
{ACAD_REACTORS
330
C
102
}
330
C
100
AcDbDictionary
281
     1
  3
Standard
350
18
  0
DICTIONARY
  5
19
102
{ACAD_REACTORS
330
C
102
}
330
C
100
AcDbDictionary
281
     1
  0
ACDBDICTIONARYWDFLT
  5
E
102
{ACAD_REACTORS
330
C
102
}
330
C
100
AcDbDictionary
281
     1
  3
Normal
350
F
100
AcDbDictionaryWithDefault
340
F
  0
DICTIONARY
  5
AAB9
102
{ACAD_REACTORS
330
C
102
}
330
C
100
AcDbDictionary
281
     1
  3
Standard
350
AABA
  0
DICTIONARY
  5
B0F1
102
{ACAD_REACTORS
330
C
102
}
330
C
100
AcDbDictionary
281
     1
  3
2dWireframe
350
B0F7
  3
3D Hidden
350
B0F9
  3
3dWireframe
350
B0F8
  3
Basic
350
B0F6
  3
Brighten
350
B0FD
  3
ColorChange
350
B101
  3
Conceptual
350
B0FA
  3
Dim
350
B0FC
  3
Facepattern
350
B100
  3
Flat
350
B0F2
  3
FlatWithEdges
350
B0F3
  3
Gouraud
350
B0F4
  3
GouraudWithEdges
350
B0F5
  3
Linepattern
350
B0FF
  3
Realistic
350
B0FB
  3
Thicken
350
B0FE
  0
ACAD_PROXY_OBJECT
  5
3DA1
102
{ACAD_REACTORS
330
C
102
}
330
C
100
AcDbProxyObject
 90
      499
 91
      576
 95
   917527
 70
     0
 93
       10
310
407F
 94
        0
1001
ACAD
1000
AcRTDxfName
1000
ASAPP
  0
ACAD_PROXY_OBJECT
  5
3DE9
102
{ACAD_REACTORS
330
C
102
}
330
C
100
AcDbProxyObject
 90
      499
 91
      581
 95
   917527
 70
     0
 93
       34
310
010000407F
 94
        0
1001
ACAD
1000
AcRTDxfName
1000
ACASGREFMASTER
  0
DICTIONARY
  5
34
102
{ACAD_REACTORS
330
C
102
}
330
C
100
AcDbDictionary
281
     1
  3
CTABLESTYLE
350
AAF3
  3
DIMASSOC
350
A10C
  3
FIELDEVAL
350
AB07
  3
INDEXCTL
350
35
  3
SORTENTS
350
194C
  0
DICTIONARY
  5
47
102
{ACAD_REACTORS
330
C
102
}
330
C
100
AcDbDictionary
281
     1
  3
AcmBOM
350
7E8
  3
AcmStdDictionary
350
4C
  3
AMDTSECTSYM_ARROWCOLOR
350
A929
  0
ACAD_PROXY_OBJECT
  5
3DEA
102
{ACAD_REACTORS
330
C
102
}
330
C
100
AcDbProxyObject
 90
      499
 91
      582
 95
   917527
 70
     0
 93
      114
310
00000043800000000000000000003F
 94
        0
1001
ACAD
1000
AcRTDxfName
1000
ACADGREFMODULE
  0
ACAD_PROXY_OBJECT
  5
3E06
102
{ACAD_REACTORS
330
C
102
}
330
C
100
AcDbProxyObject
 90
      499
 91
      594
 95
   917527
 70
     0
 93
       34
310
05000044FF
 94
        0
1001
ACAD
1000
AcRTDxfName
1000
MAPIADMODULE
  0
DICTIONARY
  5
2B
102
{ACAD_REACTORS
330
C
102
}
330
C
100
AcDbDictionary
281
     1
  0
DICTIONARY
  5
7D
102
{ACAD_REACTORS
330
C
102
}
330
C
100
AcDbDictionary
281
     1
  0
DICTIONARY
  5
224C9
102
{ACAD_REACTORS
330
C
102
}
330
C
100
AcDbDictionary
281
     1
  3
ASEBlockHierarchyIndexRecord
350
224CA
1001
DCO15
1040
1737265970.928
  0
XRECORD
  5
324C5
102
{ACAD_REACTORS
330
C
102
}
330
C
100
AcDbXrecord
280
     1
  1
DWGPROPS COOKIE
  2

  3

  4

  6

  7

  8
Administrator
  9

300
AmdtFileType=84
301
=
302
=
303
=
304
=
305
=
306
=
307
=
308
=
309
=
 40
2.429402465277777
 41
2455567.680725081
 42
2456267.716816215
  1

 90
        1
  0
ACAD_PROXY_OBJECT
  5
3DEB
102
{ACAD_REACTORS
330
C
102
}
330
C
100
AcDbProxyObject
 90
      499
 91
      583
 95
   917527
 70
     0
 93
        8
310
047E
 94
        0
1001
ACAD
1000
AcRTDxfName
1000
AMDTMAPISURFMOUDULE
  0
DICTIONARY
  5
B466
102
{ACAD_REACTORS
330
3F95
102
}
330
3F95
100
AcDbDictionary
281
     1
  0
DICTIONARY
  5
3F96
102
{ACAD_REACTORS
330
3F95
102
}
330
3F95
100
AcDbDictionary
281
     1
  3
20011210
350
3FB7
  0
DICTIONARY
  5
B465
102
{ACAD_REACTORS
330
3F95
102
}
330
3F95
100
AcDbDictionary
281
     1
1001
ACAD
1000
<All
  0
DICTIONARY
  5
AAB4
102
{ACAD_REACTORS
330
3F95
102
}
330
3F95
100
AcDbDictionary
280
     1
281
     1
  0
XRECORD
  5
2E417
102
{ACAD_REACTORS
330
2E416
102
}
330
2E416
100
AcDbXrecord
280
     1
290
     1
  0
SORTENTSTABLE
  5
B1BA
102
{ACAD_REACTORS
330
8A
102
}
330
8A
100
AcDbSortentsTable
330
1F
331
316BC
  5
316BE
331
31280
  5
31280
331
31288
  5
31288
331
3169D
  5
316A1
331
31668
  5
31668
331
316A5
  5
316A9
331
31670
  5
31670
331
316AD
  5
316AE
331
31680
  5
31681
331
316BD
  5
316BF
331
31688
  5
31689
331
31281
  5
31281
331
316CD
  5
31766
331
31289
  5
31289
331
31669
  5
31669
331
31671
  5
31671
331
316AE
  5
316AF
331
31681
  5
31682
331
31689
  5
3168A
331
316BE
  5
316C0
331
31691
  5
31693
331
31282
  5
31282
331
3128A
  5
3128A
331
316CE
  5
317A7
331
31766
  5
317E6
331
3166A
  5
3166A
331
31672
  5
31672
331
316AF
  5
316B0
331
317E6
  5
31842
331
3168A
  5
3168C
331
316BF
  5
316C1
331
31283
  5
31283
331
316C7
  5
316C9
331
31975
  5
319EF
331
31816
  5
31872
331
3166B
  5
3166B
331
31673
  5
31673
331
317A7
  5
31816
331
316B0
  5
316B1
331
316C0
  5
316C2
331
31693
  5
31695
331
31284
  5
31284
331
316C8
  5
316CA
331
31699
  5
3169D
331
3166C
  5
3166C
331
316A1
  5
316A5
331
31674
  5
31674
331
316A9
  5
316AA
331
31684
  5
31685
331
3168C
  5
31691
331
316C1
  5
316C3
331
31285
  5
31285
331
316C9
  5
316CB
331
3166D
  5
3166D
331
31675
  5
31675
331
316AA
  5
316AB
331
3167D
  5
3167D
331
31900
  5
31901
331
31685
  5
31688
331
316BA
  5
316BB
331
316C2
  5
316C7
331
31695
  5
31699
331
31286
  5
31286
331
316CA
  5
316CC
331
3166E
  5
3166E
331
31676
  5
31676
331
316AB
  5
316AC
331
318C9
  5
316BD
331
31901
  5
31975
331
316BB
  5
316BC
331
3127F
  5
3127F
331
316C3
  5
316C8
331
31287
  5
31287
331
316CB
  5
316CD
331
31A09
  5
31680
331
31667
  5
31667
331
31842
  5
318AF
331
3166F
  5
3166F
331
316AC
  5
316AD
331
318CA
  5
31900
331
3167F
  5
3167F
  0
XRECORD
  5
324C7
102
{ACAD_REACTORS
330
324C6
102
}
330
324C6
100
AcDbXrecord
280
     1
 70
     1
  0
LAYOUT
  5
22
102
{ACAD_XDICTIONARY
360
324CA
102
}
102
{ACAD_REACTORS
330
1A
102
}
330
1A
100
AcDbPlotSettings
  1

  2
FX DocuWide 2050/2051
  4
A3
  6
AM_VIEW1
 40
3.174999952316284
 41
3.174999952316284
 42
3.17498779296875
 43
3.17498779296875
 44
296.989501953125
 45
419.9889831542968
 46
0.0
 47
1.295841228961961
 48
214.3704939521119
 49
367.5855324241176
140
275.6727856380065
141
407.629191407817
142
1.0
143
0.7225445603030646
 70
  3764
 72
     1
 73
     1
 74
     2
  7
monochrome.ctb
 75
     0
147
1.383997686703999
148
-1700.85588156276
149
-1647.985052086429
100
AcDbLayout
  1
Model
 70
     1
 71
     0
 10
0.0
 20
0.0
 11
12.0
 21
9.0
 12
0.0
 22
0.0
 32
0.0
 14
0.0
 24
0.0
 34
0.0
 15
0.0
 25
0.0
 35
0.0
146
0.0
 13
0.0
 23
0.0
 33
0.0
 16
1.0
 26
0.0
 36
0.0
 17
0.0
 27
1.0
 37
0.0
 76
     0
330
1F
331
B0EC
1001
ACAD_PSEXT
1000
FX DocuWide 2050/2051
1000
FX DocuWide 2050/2051
1000
IP_192.200.15.252
1000

1070
     0
  0
LAYOUT
  5
1E
102
{ACAD_XDICTIONARY
360
324C8
102
}
102
{ACAD_REACTORS
330
1A
102
}
330
1A
100
AcDbPlotSettings
  1

  2
\\ML370\XEROX
  4
A4
  6

 40
3.174999952316284
 41
3.174999952316284
 42
3.175003051757812
 43
3.17498779296875
 44
209.8674926757813
 45
296.6719970703125
 46
0.0
 47
0.0
 48
0.0
 49
0.0
140
0.0
141
0.0
142
1.0
143
1.0
 70
   688
 72
     1
 73
     1
 74
     5
  7
monochrome.ctb
 75
    16
147
1.0
148
0.0
149
0.0
100
AcDbLayout
  1
ﾚｲｱｳﾄ1
 70
     1
 71
     1
 10
-3.17498779296875
 20
-3.174999952316284
 11
293.4970092773438
 21
206.692492723465
 12
0.0
 22
0.0
 32
0.0
 14
1.000000000000000E+20
 24
1.000000000000000E+20
 34
1.000000000000000E+20
 15
-1.000000000000000E+20
 25
-1.000000000000000E+20
 35
-1.000000000000000E+20
146
0.0
 13
0.0
 23
0.0
 33
0.0
 16
1.0
 26
0.0
 36
0.0
 17
0.0
 27
1.0
 37
0.0
 76
     0
330
1B
  0
LAYOUT
  5
26
102
{ACAD_XDICTIONARY
360
324CC
102
}
102
{ACAD_REACTORS
330
1A
102
}
330
1A
100
AcDbPlotSettings
  1

  2
\\ML370\XEROX
  4

  6

 40
0.0
 41
0.0
 42
0.0
 43
0.0
 44
0.0
 45
0.0
 46
0.0
 47
0.0
 48
0.0
 49
0.0
140
0.0
141
0.0
142
1.0
143
1.0
 70
   688
 72
     0
 73
     0
 74
     5
  7
monochrome.ctb
 75
    16
147
1.0
148
0.0
149
0.0
100
AcDbLayout
  1
ﾚｲｱｳﾄ2
 70
     1
 71
     2
 10
0.0
 20
0.0
 11
12.0
 21
9.0
 12
0.0
 22
0.0
 32
0.0
 14
0.0
 24
0.0
 34
0.0
 15
0.0
 25
0.0
 35
0.0
146
0.0
 13
0.0
 23
0.0
 33
0.0
 16
1.0
 26
0.0
 36
0.0
 17
0.0
 27
1.0
 37
0.0
 76
     0
330
23
  0
MATERIAL
  5
B0EF
102
{ACAD_XDICTIONARY
360
324D2
102
}
102
{ACAD_REACTORS
330
A91C
102
}
330
A91C
100
AcDbMaterial
  1
ByBlock
  0
MATERIAL
  5
B0EE
102
{ACAD_XDICTIONARY
360
324D0
102
}
102
{ACAD_REACTORS
330
A91C
102
}
330
A91C
100
AcDbMaterial
  1
ByLayer
  0
MATERIAL
  5
B0F0
102
{ACAD_XDICTIONARY
360
324D4
102
}
102
{ACAD_REACTORS
330
A91C
102
}
330
A91C
100
AcDbMaterial
  1
Global
  0
MLINESTYLE
  5
18
102
{ACAD_REACTORS
330
17
102
}
330
17
100
AcDbMlineStyle
  2
STANDARD
 70
     0
  3

 62
   256
 51
90.0
 52
90.0
 71
     2
 49
0.5
 62
   256
  6
BYLAYER
 49
-0.5
 62
   256
  6
BYLAYER
  0
ACDBPLACEHOLDER
  5
F
102
{ACAD_REACTORS
330
E
102
}
330
E
  0
TABLESTYLE
  5
AABA
102
{ACAD_XDICTIONARY
360
324CE
102
}
102
{ACAD_REACTORS
330
AAB9
102
}
330
AAB9
100
AcDbTableStyle
  3
Standard
 70
     0
 71
     0
 40
1.5
 41
1.5
280
     0
281
     0
  7
STANDARD
140
4.5
170
     2
 62
     0
 63
     7
283
     0
274
    -2
284
     1
 64
     0
275
    -2
285
     1
 65
     0
276
    -2
286
     1
 66
     0
277
    -2
287
     1
 67
     0
278
    -2
288
     1
 68
     0
279
    -2
289
     1
 69
     0
  7
STANDARD
140
6.0
170
     5
 62
     0
 63
     7
283
     0
274
    -2
284
     1
 64
     0
275
    -2
285
     1
 65
     0
276
    -2
286
     1
 66
     0
277
    -2
287
     1
 67
     0
278
    -2
288
     1
 68
     0
279
    -2
289
     1
 69
     0
  7
STANDARD
140
4.5
170
     5
 62
     0
 63
     7
283
     0
274
    -2
284
     1
 64
     0
275
    -2
285
     1
 65
     0
276
    -2
286
     1
 66
     0
277
    -2
287
     1
 67
     0
278
    -2
288
     1
 68
     0
279
    -2
289
     1
 69
     0
  0
VISUALSTYLE
  5
B0F7
102
{ACAD_REACTORS
330
B0F1
102
}
330
B0F1
100
AcDbVisualStyle
  2
2dWireframe
 70
     4
 71
     0
 72
     2
 73
     0
 90
        0
 40
-0.6
 41
-30.0
 62
     5
 63
     7
 74
     1
 91
        4
 64
     7
 65
   257
 75
     1
175
     1
 42
1.0
 92
        0
 66
   257
 43
1.0
 76
     1
 77
     6
 78
     2
 67
     7
 79
     5
170
     0
171
     0
290
     0
174
     0
 93
        1
 44
0.0
173
     0
291
     0
 45
0.0
1001
ACAD
1000
AcDbSavedByObjectVersion
1070
     0
  0
VISUALSTYLE
  5
B0F9
102
{ACAD_REACTORS
330
B0F1
102
}
330
B0F1
100
AcDbVisualStyle
  2
3D Hidden
 70
     6
 71
     1
 72
     2
 73
     2
 90
        0
 40
-0.6
 41
-30.0
 62
     5
 63
     7
 74
     2
 91
        2
 64
     7
 65
   257
 75
     2
175
     1
 42
40.0
 92
        0
 66
   257
 43
1.0
 76
     1
 77
     6
 78
     2
 67
     7
 79
     3
170
     0
171
     0
290
     0
174
     0
 93
        1
 44
0.0
173
     0
291
     0
 45
0.0
1001
ACAD
1000
AcDbSavedByObjectVersion
1070
     0
  0
VISUALSTYLE
  5
B0F8
102
{ACAD_REACTORS
330
B0F1
102
}
330
B0F1
100
AcDbVisualStyle
  2
3dWireframe
 70
     5
 71
     0
 72
     2
 73
     0
 90
        0
 40
-0.6
 41
-30.0
 62
     5
 63
     7
 74
     1
 91
        4
 64
     7
 65
   257
 75
     1
175
     1
 42
1.0
 92
        0
 66
   257
 43
1.0
 76
     1
 77
     6
 78
     2
 67
     7
 79
     5
170
     0
171
     0
290
     0
174
     0
 93
        1
 44
0.0
173
     0
291
     0
 45
0.0
1001
ACAD
1000
AcDbSavedByObjectVersion
1070
     0
  0
VISUALSTYLE
  5
B0F6
102
{ACAD_REACTORS
330
B0F1
102
}
330
B0F1
100
AcDbVisualStyle
  2
Basic
 70
     7
 71
     1
 72
     0
 73
     1
 90
        0
 40
-0.6
 41
-30.0
 62
     5
 63
     7
 74
     0
 91
        4
 64
     7
 65
   257
 75
     1
175
     1
 42
1.0
 92
        8
 66
     7
 43
1.0
 76
     1
 77
     6
 78
     2
 67
     7
 79
     5
170
     0
171
     0
290
     0
174
     0
 93
        1
 44
0.0
173
     0
291
     1
 45
0.0
1001
ACAD
1000
AcDbSavedByObjectVersion
1070
     0
  0
VISUALSTYLE
  5
B0FD
102
{ACAD_REACTORS
330
B0F1
102
}
330
B0F1
100
AcDbVisualStyle
  2
Brighten
 70
    12
 71
     2
 72
     2
 73
     0
 90
        0
 40
-0.6
 41
-30.0
 62
     5
 63
     7
 74
     1
 91
        4
 64
     7
 65
   257
 75
     1
175
     1
 42
1.0
 92
        8
 66
     7
 43
1.0
 76
     1
 77
     6
 78
     2
 67
     7
 79
     5
170
     0
171
     0
290
     0
174
     0
 93
        1
 44
50.0
173
     0
291
     1
 45
0.0
1001
ACAD
1000
AcDbSavedByObjectVersion
1070
     0
  0
VISUALSTYLE
  5
B101
102
{ACAD_REACTORS
330
B0F1
102
}
330
B0F1
100
AcDbVisualStyle
  2
ColorChange
 70
    16
 71
     2
 72
     2
 73
     3
 90
        0
 40
-0.6
 41
-30.0
 62
     5
 63
     8
 74
     1
 91
        4
 64
     7
 65
   257
 75
     1
175
     1
 42
1.0
 92
        8
 66
     8
 43
1.0
 76
     1
 77
     6
 78
     2
 67
     7
 79
     5
170
     0
171
     0
290
     0
174
     0
 93
        1
 44
0.0
173
     0
291
     1
 45
0.0
1001
ACAD
1000
AcDbSavedByObjectVersion
1070
     0
  0
VISUALSTYLE
  5
B0FA
102
{ACAD_REACTORS
330
B0F1
102
}
330
B0F1
100
AcDbVisualStyle
  2
Conceptual
 70
     9
 71
     3
 72
     2
 73
     0
 90
        0
 40
-0.6
 41
-30.0
 62
     5
 63
     7
 74
     2
 91
        2
 64
     7
 65
   257
 75
     1
175
     1
 42
40.0
 92
        8
 66
     7
 43
1.0
 76
     1
 77
     6
 78
     2
 67
     7
 79
     3
170
     0
171
     0
290
     0
174
     0
 93
        1
 44
0.0
173
     0
291
     0
 45
0.0
1001
ACAD
1000
AcDbSavedByObjectVersion
1070
     0
  0
VISUALSTYLE
  5
B0FC
102
{ACAD_REACTORS
330
B0F1
102
}
330
B0F1
100
AcDbVisualStyle
  2
Dim
 70
    11
 71
     2
 72
     2
 73
     0
 90
        0
 40
-0.6
 41
-30.0
 62
     5
 63
     7
 74
     1
 91
        4
 64
     7
 65
   257
 75
     1
175
     1
 42
1.0
 92
        8
 66
     7
 43
1.0
 76
     1
 77
     6
 78
     2
 67
     7
 79
     5
170
     0
171
     0
290
     0
174
     0
 93
        1
 44
-50.0
173
     0
291
     1
 45
0.0
1001
ACAD
1000
AcDbSavedByObjectVersion
1070
     0
  0
VISUALSTYLE
  5
B100
102
{ACAD_REACTORS
330
B0F1
102
}
330
B0F1
100
AcDbVisualStyle
  2
Facepattern
 70
    15
 71
     2
 72
     2
 73
     0
 90
        0
 40
-0.6
 41
-30.0
 62
     5
 63
     7
 74
     1
 91
        4
 64
     7
 65
   257
 75
     1
175
     1
 42
1.0
 92
        8
 66
     7
 43
1.0
 76
     1
 77
     6
 78
     2
 67
     7
 79
     5
170
     0
171
     0
290
     0
174
     0
 93
        1
 44
0.0
173
     0
291
     1
 45
0.0
1001
ACAD
1000
AcDbSavedByObjectVersion
1070
     0
  0
VISUALSTYLE
  5
B0F2
102
{ACAD_REACTORS
330
B0F1
102
}
330
B0F1
100
AcDbVisualStyle
  2
Flat
 70
     0
 71
     2
 72
     1
 73
     1
 90
        2
 40
-0.6
 41
30.0
 62
     5
 63
     7
 74
     0
 91
        4
 64
     7
 65
   257
 75
     1
175
     1
 42
1.0
 92
        8
 66
     7
 43
1.0
 76
     1
 77
     6
 78
     2
 67
     7
 79
     5
170
     0
171
     0
290
     0
174
     0
 93
       13
 44
0.0
173
     0
291
     1
 45
0.0
1001
ACAD
1000
AcDbSavedByObjectVersion
1070
     0
  0
VISUALSTYLE
  5
B0F3
102
{ACAD_REACTORS
330
B0F1
102
}
330
B0F1
100
AcDbVisualStyle
  2
FlatWithEdges
 70
     1
 71
     2
 72
     1
 73
     1
 90
        2
 40
-0.6
 41
30.0
 62
     5
 63
     7
 74
     1
 91
        4
 64
     7
 65
   257
 75
     1
175
     1
 42
1.0
 92
        0
 66
   257
 43
1.0
 76
     1
 77
     6
 78
     2
 67
     7
 79
     5
170
     0
171
     0
290
     0
174
     0
 93
       13
 44
0.0
173
     0
291
     1
 45
0.0
1001
ACAD
1000
AcDbSavedByObjectVersion
1070
     0
  0
VISUALSTYLE
  5
B0F4
102
{ACAD_REACTORS
330
B0F1
102
}
330
B0F1
100
AcDbVisualStyle
  2
Gouraud
 70
     2
 71
     2
 72
     2
 73
     1
 90
        2
 40
-0.6
 41
30.0
 62
     5
 63
     7
 74
     0
 91
        4
 64
     7
 65
   257
 75
     1
175
     1
 42
1.0
 92
        0
 66
     7
 43
1.0
 76
     1
 77
     6
 78
     2
 67
     7
 79
     5
170
     0
171
     0
290
     0
174
     0
 93
       13
 44
0.0
173
     0
291
     1
 45
0.0
1001
ACAD
1000
AcDbSavedByObjectVersion
1070
     0
  0
VISUALSTYLE
  5
B0F5
102
{ACAD_REACTORS
330
B0F1
102
}
330
B0F1
100
AcDbVisualStyle
  2
GouraudWithEdges
 70
     3
 71
     2
 72
     2
 73
     1
 90
        2
 40
-0.6
 41
30.0
 62
     5
 63
     7
 74
     1
 91
        4
 64
     7
 65
   257
 75
     1
175
     1
 42
1.0
 92
        0
 66
   257
 43
1.0
 76
     1
 77
     6
 78
     2
 67
     7
 79
     5
170
     0
171
     0
290
     0
174
     0
 93
       13
 44
0.0
173
     0
291
     1
 45
0.0
1001
ACAD
1000
AcDbSavedByObjectVersion
1070
     0
  0
VISUALSTYLE
  5
B0FF
102
{ACAD_REACTORS
330
B0F1
102
}
330
B0F1
100
AcDbVisualStyle
  2
Linepattern
 70
    14
 71
     2
 72
     2
 73
     0
 90
        0
 40
-0.6
 41
-30.0
 62
     5
 63
     7
 74
     1
 91
        4
 64
     7
 65
   257
 75
     7
175
     7
 42
1.0
 92
        8
 66
     7
 43
1.0
 76
     1
 77
     6
 78
     2
 67
     7
 79
     5
170
     0
171
     0
290
     0
174
     0
 93
        1
 44
0.0
173
     0
291
     1
 45
0.0
1001
ACAD
1000
AcDbSavedByObjectVersion
1070
     0
  0
VISUALSTYLE
  5
B0FB
102
{ACAD_REACTORS
330
B0F1
102
}
330
B0F1
100
AcDbVisualStyle
  2
Realistic
 70
     8
 71
     2
 72
     2
 73
     0
 90
        0
 40
-0.6
 41
-30.0
 62
     5
 63
     7
 74
     1
 91
        0
 64
     7
 65
   257
 75
     1
175
     1
 42
1.0
 92
        8
 66
     8
 43
1.0
 76
     1
 77
     6
 78
     2
 67
     7
 79
     5
170
     0
171
     0
290
     0
174
     0
 93
       13
 44
0.0
173
     0
291
     0
 45
0.0
1001
ACAD
1000
AcDbSavedByObjectVersion
1070
     0
  0
VISUALSTYLE
  5
B0FE
102
{ACAD_REACTORS
330
B0F1
102
}
330
B0F1
100
AcDbVisualStyle
  2
Thicken
 70
    13
 71
     2
 72
     2
 73
     0
 90
        0
 40
-0.6
 41
-30.0
 62
     5
 63
     7
 74
     1
 91
        4
 64
     7
 65
   257
 75
     1
175
     1
 42
1.0
 92
       12
 66
     7
 43
1.0
 76
     1
 77
     6
 78
     2
 67
     7
 79
     5
170
     0
171
     0
290
     0
174
     0
 93
        1
 44
0.0
173
     0
291
     1
 45
0.0
1001
ACAD
1000
AcDbSavedByObjectVersion
1070
     0
  0
DICTIONARYVAR
  5
AAF3
102
{ACAD_REACTORS
330
34
102
}
330
34
100
DictionaryVariables
280
     0
  1
STANDARD
  0
DICTIONARYVAR
  5
A10C
102
{ACAD_REACTORS
330
34
102
}
330
34
100
DictionaryVariables
280
     0
  1
1
  0
DICTIONARYVAR
  5
AB07
102
{ACAD_REACTORS
330
34
102
}
330
34
100
DictionaryVariables
280
     0
  1
4
  0
DICTIONARYVAR
  5
35
102
{ACAD_REACTORS
330
34
102
}
330
34
100
DictionaryVariables
280
     0
  1
0
  0
DICTIONARYVAR
  5
194C
102
{ACAD_REACTORS
330
34
102
}
330
34
100
DictionaryVariables
280
     0
  1
127
  0
DICTIONARY
  5
7E8
102
{ACAD_REACTORS
330
47
102
}
330
47
100
AcDbDictionary
281
     1
  0
DICTIONARY
  5
4C
102
{ACAD_REACTORS
330
47
102
}
330
47
100
AcDbDictionary
281
     1
  0
XRECORD
  5
A929
102
{ACAD_REACTORS
330
47
102
}
330
47
100
AcDbXrecord
280
     1
 90
-1023410169
  0
XRECORD
  5
224CA
102
{ACAD_REACTORS
330
224C9
102
}
330
224C9
100
AcDbXrecord
280
     1
330
0
330
0
330
0
330
0
330
0
330
0
  0
XRECORD
  5
3FB7
102
{ACAD_REACTORS
330
3F96
102
}
330
3F96
100
AcDbXrecord
280
     1
 91
        3
330
0
 90
        8
 62
     7
370
    40
331
16
  1
Color_7
330
0
 90
        0
 62
    14
370
    -3
331
16
  1
Color_14
330
0
 90
        8
 62
     7
370
    20
331
16
  1
Color_7
330
6D1
 90
        0
 62
     7
370
    -3
331
16
  1
Color_7
330
0
 90
        8
 62
     7
370
    50
331
16
  1
Color_7
330
0
 90
        8
 62
     2
370
    35
331
16
  1
Color_2
330
0
 90
        8
 62
     7
370
    -3
331
16
  1
Color_7
330
10
 90
        8
 62
     7
370
    -3
331
16
  1
Color_7
  0
DICTIONARY
  5
324CA
330
22
100
AcDbDictionary
280
     1
281
     1
  3
ACAD_XREC_ROUNDTRIP
360
324CB
  0
DICTIONARY
  5
324C8
330
1E
100
AcDbDictionary
280
     1
281
     1
  3
ACAD_XREC_ROUNDTRIP
360
324C9
  0
DICTIONARY
  5
324CC
330
26
100
AcDbDictionary
280
     1
281
     1
  3
ACAD_XREC_ROUNDTRIP
360
324CD
  0
DICTIONARY
  5
324D2
330
B0EF
100
AcDbDictionary
280
     1
281
     1
  3
ACAD_XREC_ROUNDTRIP
360
324D3
  0
DICTIONARY
  5
324D0
330
B0EE
100
AcDbDictionary
280
     1
281
     1
  3
ACAD_XREC_ROUNDTRIP
360
324D1
  0
DICTIONARY
  5
324D4
330
B0F0
100
AcDbDictionary
280
     1
281
     1
  3
ACAD_XREC_ROUNDTRIP
360
324D5
  0
DICTIONARY
  5
324CE
330
AABA
100
AcDbDictionary
280
     1
281
     1
  3
ACAD_XREC_ROUNDTRIP
360
324CF
  0
XRECORD
  5
324CB
102
{ACAD_REACTORS
330
324CA
102
}
330
324CA
100
AcDbXrecord
280
     1
102
SHADEPLOT
 70
     0
102
SHADEPLOTRESLEVEL
 70
     2
102
SHADEPLOTCUSTOMDPI
 70
   200
  0
XRECORD
  5
324C9
102
{ACAD_REACTORS
330
324C8
102
}
330
324C8
100
AcDbXrecord
280
     1
102
SHADEPLOT
 70
     0
102
SHADEPLOTRESLEVEL
 70
     2
102
SHADEPLOTCUSTOMDPI
 70
   300
  0
XRECORD
  5
324CD
102
{ACAD_REACTORS
330
324CC
102
}
330
324CC
100
AcDbXrecord
280
     1
102
SHADEPLOT
 70
     0
102
SHADEPLOTRESLEVEL
 70
     2
102
SHADEPLOTCUSTOMDPI
 70
   300
  0
XRECORD
  5
324D3
102
{ACAD_REACTORS
330
324D2
102
}
330
324D2
100
AcDbXrecord
280
     1
102
MATERIAL
148
0.0
149
0.0
149
0.0
 93
        0
 94
       63
282
     0
 72
     1
 77
     1
171
     1
175
     1
179
     1
273
     0
  0
XRECORD
  5
324D1
102
{ACAD_REACTORS
330
324D0
102
}
330
324D0
100
AcDbXrecord
280
     1
102
MATERIAL
148
0.0
149
0.0
149
0.0
 93
        0
 94
       63
282
     0
 72
     1
 77
     1
171
     1
175
     1
179
     1
273
     0
  0
XRECORD
  5
324D5
102
{ACAD_REACTORS
330
324D4
102
}
330
324D4
100
AcDbXrecord
280
     1
102
MATERIAL
148
0.0
149
0.0
149
0.0
 93
        0
 94
       63
282
     0
 72
     1
 77
     1
171
     1
175
     1
179
     1
273
     0
  0
XRECORD
  5
324CF
102
{ACAD_REACTORS
330
324CE
102
}
330
324CE
100
AcDbXrecord
280
     1
102
ACAD_ROUNDTRIP_PRE2007_TABLESTYLE
 90
        4
 91
        0
  1

 92
        4
 93
        0
  2

 94
        4
 95
        0
  3

  0
ENDSEC
  0
EOF
