  0
SECTION
  2
HEADER
  9
$ACADVER
  1
AC1015
  9
$ACADMAINTVER
 70
    20
  9
$DWGCODEPAGE
  3
ANSI_932
  9
$INSBASE
 10
0.0
 20
0.0
 30
0.0
  9
$EXTMIN
 10
2979.817356558652
 20
1956.862730735591
 30
-0.0015258207003583
  9
$EXTMAX
 10
3277.532695283772
 20
2167.388238786545
 30
0.0000000349246037
  9
$LIMMIN
 10
3779.599158088851
 20
100.7134268036752
  9
$LIMMAX
 10
9719.599158088852
 20
4300.713426803675
  9
$ORTHOMODE
 70
     0
  9
$REGENMODE
 70
     1
  9
$FILLMODE
 70
     1
  9
$QTEXTMODE
 70
     0
  9
$MIRRTEXT
 70
     0
  9
$LTSCALE
 40
1.0
  9
$ATTMODE
 70
     1
  9
$TEXTSIZE
 40
3.2
  9
$TRACEWID
 40
1.0
  9
$TEXTSTYLE
  7
STANDARD
  9
$CLAYER
  8
AM_0
  9
$CELTYPE
  6
ByLayer
  9
$CECOLOR
 62
   256
  9
$CELTSCALE
 40
1.0
  9
$DISPSILH
 70
     0
  9
$DIMSCALE
 40
1.0
  9
$DIMASZ
 40
1.0
  9
$DIMEXO
 40
1.0
  9
$DIMDLI
 40
10.0
  9
$DIMRND
 40
0.0
  9
$DIMDLE
 40
0.0
  9
$DIMEXE
 40
1.0
  9
$DIMTP
 40
0.1
  9
$DIMTM
 40
0.1
  9
$DIMTXT
 40
3.5
  9
$DIMCEN
 40
0.0
  9
$DIMTSZ
 40
0.0
  9
$DIMTOL
 70
     0
  9
$DIMLIM
 70
     0
  9
$DIMTIH
 70
     0
  9
$DIMTOH
 70
     0
  9
$DIMSE1
 70
     0
  9
$DIMSE2
 70
     0
  9
$DIMTAD
 70
     1
  9
$DIMZIN
 70
     8
  9
$DIMBLK
  1

  9
$DIMASO
 70
     1
  9
$DIMSHO
 70
     1
  9
$DIMPOST
  1

  9
$DIMAPOST
  1
"
  9
$DIMALT
 70
     0
  9
$DIMALTD
 70
     2
  9
$DIMALTF
 40
0.0393701
  9
$DIMLFAC
 40
1.0
  9
$DIMTOFL
 70
     1
  9
$DIMTVP
 40
0.0
  9
$DIMTIX
 70
     0
  9
$DIMSOXD
 70
     0
  9
$DIMSAH
 70
     0
  9
$DIMBLK1
  1

  9
$DIMBLK2
  1

  9
$DIMSTYLE
  2
SYS
  9
$DIMCLRD
 70
   256
  9
$DIMCLRE
 70
   256
  9
$DIMCLRT
 70
     7
  9
$DIMTFAC
 40
0.71
  9
$DIMGAP
 40
1.5
  9
$DIMJUST
 70
     0
  9
$DIMSD1
 70
     0
  9
$DIMSD2
 70
     0
  9
$DIMTOLJ
 70
     0
  9
$DIMTZIN
 70
     8
  9
$DIMALTZ
 70
     0
  9
$DIMALTTZ
 70
     0
  9
$DIMUPT
 70
     0
  9
$DIMDEC
 70
     2
  9
$DIMTDEC
 70
     2
  9
$DIMALTU
 70
     2
  9
$DIMALTTD
 70
     2
  9
$DIMTXSTY
  7
STANDARD
  9
$DIMAUNIT
 70
     0
  9
$DIMADEC
 70
     0
  9
$DIMALTRND
 40
0.0
  9
$DIMAZIN
 70
     2
  9
$DIMDSEP
 70
    46
  9
$DIMATFIT
 70
     3
  9
$DIMFRAC
 70
     0
  9
$DIMLDRBLK
  1

  9
$DIMLUNIT
 70
     2
  9
$DIMLWD
 70
    -1
  9
$DIMLWE
 70
    -1
  9
$DIMTMOVE
 70
     0
  9
$LUNITS
 70
     2
  9
$LUPREC
 70
     2
  9
$SKETCHINC
 40
1.0
  9
$FILLETRAD
 40
1.0
  9
$AUNITS
 70
     0
  9
$AUPREC
 70
     0
  9
$MENU
  1
.
  9
$ELEVATION
 40
0.0
  9
$PELEVATION
 40
0.0
  9
$THICKNESS
 40
0.0
  9
$LIMCHECK
 70
     0
  9
$CHAMFERA
 40
0.0
  9
$CHAMFERB
 40
0.0
  9
$CHAMFERC
 40
20.0
  9
$CHAMFERD
 40
0.0
  9
$SKPOLY
 70
     0
  9
$TDCREATE
 40
2455567.680725081
  9
$TDUCREATE
 40
2455567.305725081
  9
$TDUPDATE
 40
2456267.717032697
  9
$TDUUPDATE
 40
2456267.342032697
  9
$TDINDWG
 40
2.0042601620
  9
$TDUSRTIMER
 40
2.0042585301
  9
$USRTIMER
 70
     1
  9
$ANGBASE
 50
0.0
  9
$ANGDIR
 70
     0
  9
$PDMODE
 70
     0
  9
$PDSIZE
 40
-3.0
  9
$PLINEWID
 40
0.0
  9
$SPLFRAME
 70
     0
  9
$SPLINETYPE
 70
     6
  9
$SPLINESEGS
 70
     8
  9
$HANDSEED
  5
32AFE
  9
$SURFTAB1
 70
     6
  9
$SURFTAB2
 70
     6
  9
$SURFTYPE
 70
     6
  9
$SURFU
 70
     6
  9
$SURFV
 70
     6
  9
$UCSBASE
  2

  9
$UCSNAME
  2

  9
$UCSORG
 10
0.0
 20
0.0
 30
0.0
  9
$UCSXDIR
 10
1.0
 20
0.0
 30
0.0
  9
$UCSYDIR
 10
0.0
 20
1.0
 30
0.0
  9
$UCSORTHOREF
  2

  9
$UCSORTHOVIEW
 70
     0
  9
$UCSORGTOP
 10
0.0
 20
0.0
 30
0.0
  9
$UCSORGBOTTOM
 10
0.0
 20
0.0
 30
0.0
  9
$UCSORGLEFT
 10
0.0
 20
0.0
 30
0.0
  9
$UCSORGRIGHT
 10
0.0
 20
0.0
 30
0.0
  9
$UCSORGFRONT
 10
0.0
 20
0.0
 30
0.0
  9
$UCSORGBACK
 10
0.0
 20
0.0
 30
0.0
  9
$PUCSBASE
  2

  9
$PUCSNAME
  2

  9
$PUCSORG
 10
0.0
 20
0.0
 30
0.0
  9
$PUCSXDIR
 10
1.0
 20
0.0
 30
0.0
  9
$PUCSYDIR
 10
0.0
 20
1.0
 30
0.0
  9
$PUCSORTHOREF
  2

  9
$PUCSORTHOVIEW
 70
     0
  9
$PUCSORGTOP
 10
0.0
 20
0.0
 30
0.0
  9
$PUCSORGBOTTOM
 10
0.0
 20
0.0
 30
0.0
  9
$PUCSORGLEFT
 10
0.0
 20
0.0
 30
0.0
  9
$PUCSORGRIGHT
 10
0.0
 20
0.0
 30
0.0
  9
$PUCSORGFRONT
 10
0.0
 20
0.0
 30
0.0
  9
$PUCSORGBACK
 10
0.0
 20
0.0
 30
0.0
  9
$USERI1
 70
     0
  9
$USERI2
 70
     0
  9
$USERI3
 70
     0
  9
$USERI4
 70
     0
  9
$USERI5
 70
     0
  9
$USERR1
 40
0.0
  9
$USERR2
 40
0.0
  9
$USERR3
 40
0.0
  9
$USERR4
 40
0.0
  9
$USERR5
 40
0.0
  9
$WORLDVIEW
 70
     1
  9
$SHADEDGE
 70
     3
  9
$SHADEDIF
 70
    70
  9
$TILEMODE
 70
     1
  9
$MAXACTVP
 70
    64
  9
$PINSBASE
 10
0.0
 20
0.0
 30
0.0
  9
$PLIMCHECK
 70
     0
  9
$PEXTMIN
 10
1.000000000000000E+20
 20
1.000000000000000E+20
 30
1.000000000000000E+20
  9
$PEXTMAX
 10
-1.000000000000000E+20
 20
-1.000000000000000E+20
 30
-1.000000000000000E+20
  9
$PLIMMIN
 10
-3.17498779296875
 20
-3.174999952316284
  9
$PLIMMAX
 10
293.4970092773438
 20
206.692492723465
  9
$UNITMODE
 70
     0
  9
$VISRETAIN
 70
     1
  9
$PLINEGEN
 70
     0
  9
$PSLTSCALE
 70
     1
  9
$TREEDEPTH
 70
  3020
  9
$CMLSTYLE
  2
Standard
  9
$CMLJUST
 70
     0
  9
$CMLSCALE
 40
20.0
  9
$PROXYGRAPHICS
 70
     1
  9
$MEASUREMENT
 70
     1
  9
$CELWEIGHT
370
    -1
  9
$ENDCAPS
280
     0
  9
$JOINSTYLE
280
     0
  9
$LWDISPLAY
290
     1
  9
$INSUNITS
 70
     4
  9
$HYPERLINKBASE
  1

  9
$STYLESHEET
  1
monochrome.ctb
  9
$XEDIT
290
     1
  9
$CEPSNTYPE
380
     0
  9
$PSTYLEMODE
290
     1
  9
$FINGERPRINTGUID
  2
{487E49EE-344A-43F6-800E-CE119D8346FF}
  9
$VERSIONGUID
  2
{882C40E5-2854-4EA4-B3E2-2E1DC574BB81}
  9
$EXTNAMES
290
     1
  9
$PSVPSCALE
 40
0.0
  9
$OLESTARTUP
290
     0
  0
ENDSEC
  0
SECTION
  2
CLASSES
  0
CLASS
  1
ACDBDICTIONARYWDFLT
  2
AcDbDictionaryWithDefault
  3
ObjectDBX Classes
 90
        0
280
     0
281
     0
  0
CLASS
  1
ACDBPLACEHOLDER
  2
AcDbPlaceHolder
  3
ObjectDBX Classes
 90
        0
280
     0
281
     0
  0
CLASS
  1
LAYOUT
  2
AcDbLayout
  3
ObjectDBX Classes
 90
        0
280
     0
281
     0
  0
CLASS
  1
AMGSETTINGSOBJ
  2
AmgSettingsObj
  3
"AcadM|Product Description: AutoCAD Mechanical|Company: Autodesk"
 90
        0
280
     0
281
     0
  0
CLASS
  1
ACME_DOCUMENT
  2
AcMeDbDoc
  3
AcMeServices
 90
        0
280
     0
281
     0
  0
CLASS
  1
ACMESCOPE
  2
AcMeScope
  3
AcMeServices
 90
        0
280
     0
281
     0
  0
CLASS
  1
ACMECOMMANDHISTORY
  2
AcMeCommandHistory
  3
AcMeServices
 90
        0
280
     0
281
     0
  0
CLASS
  1
DICTIONARYVAR
  2
AcDbDictionaryVar
  3
ObjectDBX Classes
 90
        0
280
     0
281
     0
  0
CLASS
  1
ACIMSYSVARMAN
  2
AcImSysVarManager
  3
AcMeServices
 90
        0
280
     0
281
     0
  0
CLASS
  1
ACIMREALSYSVAR
  2
AcImRealSysVar
  3
AcMeServices
 90
        0
280
     0
281
     0
  0
CLASS
  1
ACIMINTSYSVAR
  2
AcImIntSysVar
  3
AcMeServices
 90
        0
280
     0
281
     0
  0
CLASS
  1
ACMEDRAWINGMAN
  2
AcMeDrawingMan
  3
AcMeServices
 90
        0
280
     0
281
     0
  0
CLASS
  1
ACMEVIEW
  2
AcMeView
  3
AcMeServices
 90
        0
280
     0
281
     0
  0
CLASS
  1
ACDBENTITYCACHE
  2
AcMeEntityCache
  3
AcMeServices
 90
        0
280
     0
281
     0
  0
CLASS
  1
GSMANAGER
  2
AcMeGSManager
  3
AcMeServices
 90
        0
280
     0
281
     0
  0
CLASS
  1
AMDTINTERNALREACTOR
  2
AmdtInternalReactor
  3
AcMeServices
 90
        0
280
     0
281
     0
  0
CLASS
  1
ACMESTATEMGR
  2
AcMeStateMgr
  3
AcMeServices
 90
        0
280
     0
281
     0
  0
CLASS
  1
ACGREFMASTER
  2
AcGrefMaster
  3
AcAttribServices
 90
        0
280
     0
281
     0
  0
CLASS
  1
ACME_DATABASE
  2
AcMeDbDatabase
  3
AcMeServices
 90
        0
280
     0
281
     0
  0
CLASS
  1
ACRFINSADJUSTERMGR
  2
AcRfInsAdjusterMgr
  3
AcMeServices
 90
        0
280
     0
281
     0
  0
CLASS
  1
ACGREFACADMASTER
  2
AcGrefacadMaster
  3
AcGrefServices
 90
        0
280
     0
281
     0
  0
CLASS
  1
AMIMASTER
  2
AmiMaster
  3
AmiServices
 90
        0
280
     0
281
     0
  0
CLASS
  1
ACMDATADICTIONARY
  2
AcmDataDictionary
  3
"AcmSymBB|Product Description: AutoCAD Mechanical|Company: Autodesk"
 90
        0
280
     0
281
     0
  0
CLASS
  1
ACMDATAENTRYBLOCK
  2
AcmDataEntryBlock
  3
"AcmSymBB|Product Description: AutoCAD Mechanical|Company: Autodesk"
 90
        0
280
     0
281
     0
  0
CLASS
  1
ACIMSTRSYSVAR
  2
AcImStrSysVar
  3
AcMeServices
 90
        0
280
     0
281
     0
  0
CLASS
  1
ACMSTANDARDISO
  2
AcmStandardISO
  3
"Amdt_StdImp|Product Description: AutoCAD Mechanical|Company: Autodesk"
 90
        0
280
     0
281
     0
  0
CLASS
  1
AMGOBJPROPCFG
  2
AmgObjPropCfg
  3
"AmgLay|Product Description: AutoCAD Mechanical|Company: Autodesk"
 90
        1
280
     0
281
     0
  0
CLASS
  1
AMDTEDGESTANDARDISO
  2
AmdtEdgeStdISO
  3
"Amdt_StdImp|Product Description: AutoCAD Mechanical|Company: Autodesk"
 90
        0
280
     0
281
     0
  0
CLASS
  1
ACMSURFSTANDARDISO
  2
AcmSurfTextStdISO
  3
"Amdt_StdImp|Product Description: AutoCAD Mechanical|Company: Autodesk"
 90
        0
280
     0
281
     0
  0
CLASS
  1
ACMFCFSTANDARDISO
  2
AcmFCFStdISO
  3
"Amdt_StdImp|Product Description: AutoCAD Mechanical|Company: Autodesk"
 90
        0
280
     0
281
     0
  0
CLASS
  1
ACMWELDSTANDARDISO
  2
AcmWeldingStdISO
  3
"Amdt_StdImp|Product Description: AutoCAD Mechanical|Company: Autodesk"
 90
        0
280
     0
281
     0
  0
CLASS
  1
ACMIDSTANDARDISO
  2
AcmIdStdISO
  3
"Amdt_StdImp|Product Description: AutoCAD Mechanical|Company: Autodesk"
 90
        0
280
     0
281
     0
  0
CLASS
  1
ACMDATUMSTANDARDISO
  2
AcmDatumStdISO
  3
"Amdt_StdImp|Product Description: AutoCAD Mechanical|Company: Autodesk"
 90
        0
280
     0
281
     0
  0
CLASS
  1
ACMBOMSTANDARDISO
  2
AcmBOMStdISO
  3
"Amdt_StdImp|Product Description: AutoCAD Mechanical|Company: Autodesk"
 90
        0
280
     0
281
     0
  0
CLASS
  1
ACMDETAILSTANDARDISO
  2
AmdtDetailSymStdISO
  3
"Amdt_StdImp|Product Description: AutoCAD Mechanical|Company: Autodesk"
 90
        0
280
     0
281
     0
  0
CLASS
  1
ACMSECTIONSTANDARDISO
  2
AmdtSectionSymStdISO
  3
"Amdt_StdImp|Product Description: AutoCAD Mechanical|Company: Autodesk"
 90
        0
280
     0
281
     0
  0
CLASS
  1
ACMCENTERLINESTANDARDISO
  2
AmdtCenterLineStdISO
  3
"Amdt_StdImp|Product Description: AutoCAD Mechanical|Company: Autodesk"
 90
        0
280
     0
281
     0
  0
CLASS
  1
ACAMGLAYSTD
  2
AcAmgLayStd
  3
"AmgLay|Product Description: AutoCAD Mechanical|Company: Autodesk"
 90
        0
280
     0
281
     0
  0
CLASS
  1
ACAMGDIMSTD
  2
AcAmgDimStd
  3
"AmgDim|Product Description: AutoCAD Mechanical|Company: Autodesk"
 90
        0
280
     0
281
     0
  0
CLASS
  1
ACAMGTITLESTD
  2
AcAmgTitleStd
  3
"AmgTitle|Product Description: AutoCAD Mechanical|Company: Autodesk"
 90
        0
280
     0
281
     0
  0
CLASS
  1
ACAMGFILTERDAT
  2
AcAmgFilterDat
  3
"AcadM|Product Description: AutoCAD Mechanical|Company: Autodesk"
 90
        0
280
     0
281
     0
  0
CLASS
  1
LAYER_INDEX
  2
AcDbLayerIndex
  3
ObjectDBX Classes
 90
    32768
280
     0
281
     0
  0
CLASS
  1
IDBUFFER
  2
AcDbIdBuffer
  3
ObjectDBX Classes
 90
    32768
280
     0
281
     0
  0
CLASS
  1
PLOTSETTINGS
  2
AcDbPlotSettings
  3
ObjectDBX Classes
 90
    32768
280
     0
281
     0
  0
CLASS
  1
AMDTFORMULAUPDATEDISPATCHER
  2
AmdtFormulaUpdateDispatcher
  3
AcMeServices
 90
        0
280
     0
281
     0
  0
CLASS
  1
ACMSTANDARDANSI
  2
AcmStandardANSI
  3
"Amdt_StdImp|Product Description: AutoCAD Mechanical|Company: Autodesk"
 90
        0
280
     0
281
     0
  0
CLASS
  1
ACMSURFSTANDARDANSI
  2
AcmSurfTextStdANSI
  3
"Amdt_StdImp|Product Description: AutoCAD Mechanical|Company: Autodesk"
 90
        0
280
     0
281
     0
  0
CLASS
  1
ACMFCFSTANDARDANSI
  2
AcmFCFStdANSI
  3
"Amdt_StdImp|Product Description: AutoCAD Mechanical|Company: Autodesk"
 90
        0
280
     0
281
     0
  0
CLASS
  1
ACMWELDSTANDARDANSI
  2
AcmWeldingStdANSI
  3
"Amdt_StdImp|Product Description: AutoCAD Mechanical|Company: Autodesk"
 90
        0
280
     0
281
     0
  0
CLASS
  1
ACMIDSTANDARDANSI
  2
AcmIdStdANSI
  3
"Amdt_StdImp|Product Description: AutoCAD Mechanical|Company: Autodesk"
 90
        0
280
     0
281
     0
  0
CLASS
  1
ACMDATUMSTANDARDANSI
  2
AcmDatumStdANSI
  3
"Amdt_StdImp|Product Description: AutoCAD Mechanical|Company: Autodesk"
 90
        0
280
     0
281
     0
  0
CLASS
  1
ACMBOMSTANDARDANSI
  2
AcmBOMStdANSI
  3
"Amdt_StdImp|Product Description: AutoCAD Mechanical|Company: Autodesk"
 90
        0
280
     0
281
     0
  0
CLASS
  1
ACMDETAILSTANDARDANSI
  2
AmdtDetailSymStdANSI
  3
"Amdt_StdImp|Product Description: AutoCAD Mechanical|Company: Autodesk"
 90
        0
280
     0
281
     0
  0
CLASS
  1
ACMSECTIONSTANDARDANSI
  2
AmdtSectionSymStdANSI
  3
"Amdt_StdImp|Product Description: AutoCAD Mechanical|Company: Autodesk"
 90
        0
280
     0
281
     0
  0
CLASS
  1
ACMCENTERLINESTANDARDANSI
  2
AmdtCenterLineStdANSI
  3
"Amdt_StdImp|Product Description: AutoCAD Mechanical|Company: Autodesk"
 90
        0
280
     0
281
     0
  0
CLASS
  1
ACMBOM
  2
AcmBom
  3
"AcmSymBB|Product Description: AutoCAD Mechanical|Company: Autodesk"
 90
        0
280
     0
281
     0
  0
CLASS
  1
ACMDATAENTRYPART
  2
AcmDataEntryPart
  3
"AcmSymBB|Product Description: AutoCAD Mechanical|Company: Autodesk"
 90
    32768
280
     0
281
     0
  0
CLASS
  1
ACMPARTREF
  2
AcmPartRef
  3
"AcmSymBB|Product Description: AutoCAD Mechanical|Company: Autodesk"
 90
    35839
280
     0
281
     1
  0
CLASS
  1
ACDBCIRCARCRES
  2
AcDbCircArcRes
  3
AcGrefServices
 90
    32768
280
     0
281
     0
  0
CLASS
  1
ACMBOMROW
  2
AcmBomRow
  3
"AcmSymBB|Product Description: AutoCAD Mechanical|Company: Autodesk"
 90
    32768
280
     0
281
     0
  0
CLASS
  1
ACMBALLOON
  2
AcmBalloon
  3
"AcmSymBB|Product Description: AutoCAD Mechanical|Company: Autodesk"
 90
    35839
280
     0
281
     1
  0
CLASS
  1
AMDTNOTE
  2
AmdtNote
  3
"AcmSymBB|Product Description: AutoCAD Mechanical|Company: Autodesk"
 90
    35839
280
     0
281
     1
  0
CLASS
  1
STDPART2D
  2
AmgStdPart
  3
"g3vace|Class: AmgStdPart|Product Description: AutoCAD Mechanical|Company: Autodesk"
 90
    35839
280
     0
281
     1
  0
CLASS
  1
ACDBSTDPARTRES_LINE
  2
AcDbStdPartRes_Line
  3
"g3vace|Class: AcDbStdPartRes_Line|Product Description: AutoCAD Mechanical|Company: Autodesk"
 90
    32768
280
     0
281
     0
  0
CLASS
  1
ACMDATAENTRY
  2
AcmDataEntry
  3
"AcmSymBB|Product Description: AutoCAD Mechanical|Company: Autodesk"
 90
        0
280
     0
281
     0
  0
CLASS
  1
ACDBOPPOLYLINERES
  2
AcDbOpPolylineRes
  3
AcGrefServices
 90
    32768
280
     0
281
     0
  0
CLASS
  1
ACMPARTLIST
  2
AcmPartList
  3
"AcmSymBB|Product Description: AutoCAD Mechanical|Company: Autodesk"
 90
    35839
280
     0
281
     1
  0
CLASS
  1
ACDBLINERES
  2
AcDbLineRes
  3
AcGrefServices
 90
        0
280
     0
281
     0
  0
CLASS
  1
ACRFINSADJ
  2
AcRfInsAdjuster
  3
AcMeServices
 90
    32768
280
     0
281
     0
  0
CLASS
  1
AM_DRAWING_MGR
  2
AcDmDwgMgr
  3
AcMechDwgViewMgmt
 90
        0
280
     0
281
     0
  0
CLASS
  1
AM_DWG_DOCUMENT
  2
AcDmDwgDocument
  3
AcMechDwgViewMgmt
 90
        0
280
     0
281
     0
  0
CLASS
  1
AM_DWG_SHEET
  2
AcDmSheet
  3
AcMechDwgViewMgmt
 90
        0
280
     0
281
     0
  0
CLASS
  1
AM_VIEWDIMPARMAP
  2
AcDmViewDimParMap
  3
AcMechDwgViewMgmt
 90
        0
280
     0
281
     0
  0
CLASS
  1
AM_DWGMGR_NAME
  2
AcDmDwgMgrName
  3
AcMechDwgViewMgmt
 90
        0
280
     0
281
     0
  0
CLASS
  1
AMDTMENUSTATEMGR
  2
AmdtMenuStateMgr
  3
McadcomServices
 90
        0
280
     0
281
     0
  0
CLASS
  1
AMDTMCOMMENUSTATE
  2
AmdtMcomMenuState
  3
McadcomServices
 90
        0
280
     0
281
     0
  0
CLASS
  1
ASAPP
  2
AcAsAppObject
  3
AutoSurfServices
 90
        0
280
     0
281
     0
  0
CLASS
  1
IM_STATIC_MAN
  2
AcImStaticVarManager
  3
AcMeServices
 90
        0
280
     0
281
     0
  0
CLASS
  1
ACIMDBLSTATICVAR
  2
AcImDblStaticVar
  3
AcMeServices
 90
        0
280
     0
281
     0
  0
CLASS
  1
ACIMSTRSTATICVAR
  2
AcImStrStaticVar
  3
AcMeServices
 90
        0
280
     0
281
     0
  0
CLASS
  1
ACIMINTSTATICVAR
  2
AcImIntStaticVar
  3
AcMeServices
 90
        0
280
     0
281
     0
  0
CLASS
  1
ACASGREFMASTER
  2
AcAsGrefMaster
  3
AutoSurfResolverServices
 90
        0
280
     0
281
     0
  0
CLASS
  1
ACADGREFMODULE
  2
AcAdGrefModule
  3
AdGrefServices
 90
        0
280
     0
281
     0
  0
CLASS
  1
AMDTMAPISURFMOUDULE
  2
AmdtMApiSurfModule
  3
MApiSurfServices
 90
        0
280
     0
281
     0
  0
CLASS
  1
MAPIAMMOUDLE
  2
MApiAmModule
  3
MApiAmServices
 90
        0
280
     0
281
     0
  0
CLASS
  1
AMDTADMENUSTATE
  2
AmdtAdMenuState
  3
DesignerServices
 90
        0
280
     0
281
     0
  0
CLASS
  1
ADAPPL
  2
AcAdAppl
  3
DesignerServices
 90
        0
280
     0
281
     0
  0
CLASS
  1
DEPMGR
  2
AcAdDepMgr
  3
DesignerServices
 90
        0
280
     0
281
     0
  0
CLASS
  1
PARAMMGR
  2
AcAdParamMgr
  3
DesignerServices
 90
        0
280
     0
281
     0
  0
CLASS
  1
PARAMSCOPE
  2
AcAdParamScope
  3
DesignerServices
 90
        0
280
     0
281
     0
  0
CLASS
  1
NAMEDAPPL
  2
AcAdNamedAppl
  3
DesignerServices
 90
        0
280
     0
281
     0
  0
CLASS
  1
ADHNTMPLT
  2
AdHoleNoteTemplateMgr
  3
DesignerServices
 90
    32768
280
     0
281
     0
  0
CLASS
  1
AM_HNTEMPLATE_MGR_NAME
  2
AdHoleNoteTemplateMgrName
  3
DesignerServices
 90
    32768
280
     0
281
     0
  0
CLASS
  1
AMDTDMMENUSTATE
  2
AmdtDmMenuState
  3
AcMechDwgViewMgmt
 90
        0
280
     0
281
     0
  0
CLASS
  1
MAPIADMODULE
  2
MApiAdModule
  3
MApiAdServices
 90
        0
280
     0
281
     0
  0
CLASS
  1
AMDTAMMENUSTATE
  2
AmdtAmMenuState
  3
DesignerAssemblies
 90
        0
280
     0
281
     0
  0
CLASS
  1
ACAMPROJECT
  2
AcAmProject
  3
DesignerAssemblies
 90
        0
280
     0
281
     0
  0
CLASS
  1
ACAMGRCOMPDEF
  2
AcAmGrCompDef
  3
DesignerAssemblies
 90
        0
280
     0
281
     0
  0
CLASS
  1
ACCMCONTEXT
  2
AcCmContext
  3
DesignerAssemblies
 90
        0
280
     0
281
     0
  0
CLASS
  1
ACAMCOMPDEF
  2
AcAmCompDef
  3
DesignerAssemblies
 90
        0
280
     0
281
     0
  0
CLASS
  1
ACAMCOMPDEFMGR
  2
AcAmCompDefMgr
  3
DesignerAssemblies
 90
        0
280
     0
281
     0
  0
CLASS
  1
AMCONTEXTMGR
  2
AcAmContextMgr
  3
DesignerAssemblies
 90
        0
280
     0
281
     0
  0
CLASS
  1
ACAMCONTEXTMODELER
  2
AcAmContextModeler
  3
DesignerAssemblies
 90
        0
280
     0
281
     0
  0
CLASS
  1
CATALOGSTATE
  2
AcAmCatalogState
  3
DesignerAssemblies
 90
        0
280
     0
281
     0
  0
CLASS
  1
ACAMGRCOMPDEFSET
  2
AcAmGrCompDefSet
  3
DesignerAssemblies
 90
        0
280
     0
281
     0
  0
CLASS
  1
AMDTBROWSERDBTAB
  2
AmdtBrowserDbTab
  3
McadcomServices
 90
        0
280
     0
281
     0
  0
CLASS
  1
CBROWSERAPPOBJECT
  2
CBrowserAppObject
  3
McadcomServices
 90
        0
280
     0
281
     0
  0
CLASS
  1
DM_PLACEHOLDER
  2
AcDmSelsetPlaceholder
  3
AcMechDwgViewMgmt
 90
        0
280
     0
281
     0
  0
CLASS
  1
ACMPICKOBJ
  2
AcmPickEnt
  3
"AcmSymBB|Product Description: AutoCAD Mechanical|Company: Autodesk"
 90
    32768
280
     0
281
     1
  0
CLASS
  1
ACMNOTESTANDARDISO
  2
AmdtNoteStdISO
  3
"Amdt_StdImp|Product Description: AutoCAD Mechanical|Company: Autodesk"
 90
        0
280
     0
281
     0
  0
CLASS
  1
ACMNOTESTANDARDANSI
  2
AmdtNoteStdANSI
  3
"Amdt_StdImp|Product Description: AutoCAD Mechanical|Company: Autodesk"
 90
        0
280
     0
281
     0
  0
CLASS
  1
ACMTHREADLINESTANDARDISO
  2
AmdtThreadLineStdISO
  3
"Amdt_StdImp|Product Description: AutoCAD Mechanical|Company: Autodesk"
 90
        0
280
     0
281
     0
  0
CLASS
  1
ACMTHREADLINESTANDARDANSI
  2
AmdtThreadLineStdANSI
  3
"Amdt_StdImp|Product Description: AutoCAD Mechanical|Company: Autodesk"
 90
        0
280
     0
281
     0
  0
CLASS
  1
TABLESTYLE
  2
AcDbTableStyle
  3
ObjectDBX Classes
 90
     4095
280
     0
281
     0
  0
CLASS
  1
SORTENTSTABLE
  2
AcDbSortentsTable
  3
ObjectDBX Classes
 90
        0
280
     0
281
     0
  0
CLASS
  1
MATERIAL
  2
AcDbMaterial
  3
ObjectDBX Classes
 90
     1024
280
     0
281
     0
  0
CLASS
  1
VISUALSTYLE
  2
AcDbVisualStyle
  3
ObjectDBX Classes
 90
     4095
280
     0
281
     0
  0
CLASS
  1
ACRFATTGENMGR
  2
AcRfAttGeneralMgr
  3
AcAttribServices
 90
        0
280
     0
281
     0
  0
CLASS
  1
ACRFOBJATTMGR
  2
AcRfObjAttGroupMgr
  3
AcAttribServices
 90
        0
280
     0
281
     0
  0
CLASS
  1
ACRFMCADAPIATTHOLDER
  2
AcRfMCADAPIAttHolder
  3
AcAttribServices
 90
        0
280
     0
281
     0
  0
CLASS
  1
AMDTSYSATTR
  2
AmdtSystemAttribute
  3
AcAttribServices
 90
        0
280
     0
281
     0
  0
CLASS
  1
ACMTAPERSTANDARDISO
  2
AcmTaperStdISO
  3
"Amdt_StdImp|Product Description: AutoCAD Mechanical|Company: Autodesk"
 90
        0
280
     0
281
     0
  0
CLASS
  1
CAMSSTRUCTBTNSTATE
  2
StructBtnState
  3
L"DesignerAssemblies"
 90
        0
280
     0
281
     0
  0
CLASS
  1
DIMASSOC
  2
AcDbDimAssoc
  3
"AcDbDimAssoc|Product Desc:     AcDim ARX App For Dimension|Company:          Autodesk, Inc.|WEB Address:      www.autodesk.com"
 90
    32768
280
     0
281
     0
  0
CLASS
  1
EXACXREFPANELOBJECT
  2
ExAcXREFPanelObject
  3
EXAC_ESW
 90
    33793
280
     0
281
     0
  0
CLASS
  1
NPOCOLLECTION
  2
AcDbImpNonPersistentObjectsCollection
  3
ObjectDBX Classes
 90
    33921
280
     0
281
     0
  0
CLASS
  1
AMDTEDGESTANDARDISO13715
  2
AmdtEdgeStdISO13715
  3
"Amdt_StdImp|Product Description: AutoCAD Mechanical|Company: Autodesk"
 90
        0
280
     0
281
     0
  0
CLASS
  1
AMDTNOTETEMPLATEDB
  2
AmdtNoteTemplateDB
  3
AMDT_STDIMP_MODULE_NAME
 90
        0
280
     0
281
     0
  0
CLASS
  1
ACAMGHOLECHARTSTDISO
  2
AcAmgHoleChartStdISO
  3
ACMSYMBB_MODULE_NAME
 90
        0
280
     0
281
     0
  0
CLASS
  1
ACMTAPERSTANDARDANSI
  2
AcmTaperStdANSI
  3
"Amdt_StdImp|Product Description: AutoCAD Mechanical|Company: Autodesk"
 90
        0
280
     0
281
     0
  0
CLASS
  1
ACAMGHOLECHARTSTDANSI
  2
AcAmgHoleChartStdANSI
  3
ACMSYMBB_MODULE_NAME
 90
        0
280
     0
281
     0
  0
CLASS
  1
ACAMSTDPCOMPDEF
  2
AcAmStdpCompDef
  3
DesignerAssemblies
 90
    32768
280
     0
281
     0
  0
CLASS
  1
ACAMCOMP
  2
AcAmComp
  3
DesignerAssemblies
 90
    32768
280
     0
281
     0
  0
CLASS
  1
AC_AM_STDP_VIEW_DEF
  2
AcAmStdpViewDef
  3
DesignerAssemblies
 90
    32768
280
     0
281
     0
  0
CLASS
  1
AC_AM_MVD_DEP_MGR
  2
AcAmMVDdepMgr
  3
DesignerAssemblies
 90
        0
280
     0
281
     0
  0
CLASS
  1
AC_AM_MASTER_VIEW_DEF
  2
AcAmMasterViewDef
  3
DesignerAssemblies
 90
        0
280
     0
281
     0
  0
CLASS
  1
AC_AM_DIRTY_NODES
  2
AcAmDirtyNodes
  3
DesignerAssemblies
 90
        0
280
     0
281
     0
  0
CLASS
  1
AC_AM_MAPPER_CACHE
  2
AcAmMapperCache
  3
DesignerAssemblies
 90
        0
280
     0
281
     0
  0
CLASS
  1
ACAMMVDBACKUPOBJECT
  2
AcAmMVDBackupObject
  3
DesignerAssemblies
 90
        0
280
     0
281
     0
  0
CLASS
  1
AC_AM_COMP_VIEW_INST
  2
AcAmCompView
  3
DesignerAssemblies
 90
    32768
280
     0
281
     0
  0
CLASS
  1
AC_AM_2D_XREF_MGR
  2
AcAmXrefMgr2d
  3
DesignerAssemblies
 90
        0
280
     0
281
     0
  0
CLASS
  1
AC_AM_HIDE_SITUATION
  2
AcAmHideSituation
  3
DesignerAssemblies
 90
    32768
280
     0
281
     0
  0
CLASS
  1
AC_AM_TRANSFORM_GHOST
  2
AcDbTransformGhost
  3
DesignerAssemblies
 90
    32768
280
     0
281
     1
  0
CLASS
  1
L"OBJCLONER"
  2
ObjCloner
  3
DesignerAssemblies
 90
    32768
280
     0
281
     1
  0
ENDSEC
  0
SECTION
  2
TABLES
  0
TABLE
  2
VPORT
  5
8
330
0
100
AcDbSymbolTable
 70
     1
  0
VPORT
  5
B0EC
330
8
100
AcDbSymbolTableRecord
100
AcDbViewportTableRecord
  2
*Active
 70
     0
 10
0.0
 20
0.0
 11
1.0
 21
1.0
 12
3128.675025921211
 22
2062.125484761068
 13
0.0
 23
0.0
 14
2.5
 24
2.5
 15
10.0
 25
10.0
 16
0.0
 26
0.0
 36
1.0
 17
0.0
 27
0.0
 37
0.0
 40
212.0753890918201
 41
1.648648648648648
 42
50.0
 43
-1370.695619172058
 44
-1370.695619172058
 50
0.0
 51
0.0
 71
     0
 72
   100
 73
     1
 74
     3
 75
     0
 76
     0
 77
     0
 78
     0
281
     0
 65
     0
110
0.0
120
0.0
130
0.0
111
1.0
121
0.0
131
0.0
112
0.0
122
1.0
132
0.0
 79
     0
146
0.0
  0
ENDTAB
  0
TABLE
  2
LTYPE
  5
5
330
0
100
AcDbSymbolTable
 70
    23
  0
LTYPE
  5
14
330
5
100
AcDbSymbolTableRecord
100
AcDbLinetypeTableRecord
  2
ByBlock
 70
     0
  3

 72
    65
 73
     0
 40
0.0
  0
LTYPE
  5
15
330
5
100
AcDbSymbolTableRecord
100
AcDbLinetypeTableRecord
  2
ByLayer
 70
     0
  3

 72
    65
 73
     0
 40
0.0
  0
LTYPE
  5
16
330
5
100
AcDbSymbolTableRecord
100
AcDbLinetypeTableRecord
  2
Continuous
 70
     0
  3
Solid line
 72
    65
 73
     0
 40
0.0
  0
LTYPE
  5
4F
330
5
100
AcDbSymbolTableRecord
100
AcDbLinetypeTableRecord
  2
AM_ISO02W050
 70
     0
  3
__ __ __ __ __ __ __ __ __ __ __ __ __ __ __
 72
    65
 73
     2
 40
7.5
 49
6.0
 74
     0
 49
-1.5
 74
     0
  0
LTYPE
  5
52
330
5
100
AcDbSymbolTableRecord
100
AcDbLinetypeTableRecord
  2
Amconstr
 70
     0
  3
_______________________
 72
    65
 73
     2
 40
9999.0
 49
9999.0
 74
     0
 49
0.0
 74
     0
  0
LTYPE
  5
64
330
5
100
AcDbSymbolTableRecord
100
AcDbLinetypeTableRecord
  2
ACISOWELD
 70
     0
  3
_ _ _ _ _
 72
    65
 73
     2
 40
2.0
 49
2.0
 74
     0
 49
-1.0
 74
     0
  0
LTYPE
  5
65
330
5
100
AcDbSymbolTableRecord
100
AcDbLinetypeTableRecord
  2
ACISOTGB
 70
     0
  3
__ . . __ . .
 72
    65
 73
     6
 40
9.0
 49
4.0
 74
     0
 49
-1.0
 74
     0
 49
1.0
 74
     0
 49
-1.0
 74
     0
 49
1.0
 74
     0
 49
-1.0
 74
     0
  0
LTYPE
  5
66
330
5
100
AcDbSymbolTableRecord
100
AcDbLinetypeTableRecord
  2
ACISOTGL
 70
     0
  3
_ _ _ _ _
 72
    65
 73
     2
 40
3.0
 49
2.0
 74
     0
 49
-1.0
 74
     0
  0
LTYPE
  5
69
330
5
100
AcDbSymbolTableRecord
100
AcDbLinetypeTableRecord
  2
CENTER
 70
     0
  3
__ . __
 72
    65
 73
     4
 40
7.0
 49
4.0
 74
     0
 49
-1.0
 74
     0
 49
1.0
 74
     0
 49
-1.0
 74
     0
  0
LTYPE
  5
A6E
330
5
100
AcDbSymbolTableRecord
100
AcDbLinetypeTableRecord
  2
PHANTOM2
 70
     0
  3
Phantom (.5x) ___ _ _ ___ _ _ ___ _ _ ___ _ _
 72
    65
 73
     6
 40
31.75
 49
15.875
 74
     0
 49
-3.174999999999999
 74
     0
 49
3.174999999999999
 74
     0
 49
-3.174999999999999
 74
     0
 49
3.174999999999999
 74
     0
 49
-3.174999999999999
 74
     0
  0
LTYPE
  5
4DED
330
5
100
AcDbSymbolTableRecord
100
AcDbLinetypeTableRecord
  2
中線
 70
     0
  3
___________________
 72
    65
 73
     2
 40
2.0
 49
1.0
 74
     0
 49
1.0
 74
     0
  0
LTYPE
  5
4DF6
330
5
100
AcDbSymbolTableRecord
100
AcDbLinetypeTableRecord
  2
細線
 70
     0
  3
___________________
 72
    65
 73
     2
 40
2.0
 49
1.0
 74
     0
 49
1.0
 74
     0
  0
LTYPE
  5
4DF7
330
5
100
AcDbSymbolTableRecord
100
AcDbLinetypeTableRecord
  2
太線
 70
     0
  3
___________________
 72
    65
 73
     2
 40
2.0
 49
1.0
 74
     0
 49
1.0
 74
     0
  0
LTYPE
  5
4EA7
330
5
100
AcDbSymbolTableRecord
100
AcDbLinetypeTableRecord
  2
文字
 70
     0
  3
_________________
 72
    65
 73
     2
 40
2.0
 49
1.0
 74
     0
 49
1.0
 74
     0
  0
LTYPE
  5
4EA9
330
5
100
AcDbSymbolTableRecord
100
AcDbLinetypeTableRecord
  2
寸法線
 70
     0
  3
________________
 72
    65
 73
     2
 40
2.0
 49
1.0
 74
     0
 49
1.0
 74
     0
  0
LTYPE
  5
4F12
330
5
100
AcDbSymbolTableRecord
100
AcDbLinetypeTableRecord
  2
ハッチング
 70
     0
  3
_________________
 72
    65
 73
     2
 40
2.0
 49
1.0
 74
     0
 49
1.0
 74
     0
  0
LTYPE
  5
5180
330
5
100
AcDbSymbolTableRecord
100
AcDbLinetypeTableRecord
  2
陰線1
 70
     0
  3
__ __ __ __
 72
    65
 73
     2
 40
4.0
 49
2.2
 74
     0
 49
-1.8
 74
     0
  0
LTYPE
  5
5182
330
5
100
AcDbSymbolTableRecord
100
AcDbLinetypeTableRecord
  2
切断線
 70
     0
  3
/\/-/\/-/\/-/\/-/\/-/\/
 72
    65
 73
     2
 40
11.0001
 49
0.0001
 74
     4
 75
   135
340
56
 46
0.04
 50
0.0
 44
0.0
 45
0.0
 49
-11.0
 74
     0
  0
LTYPE
  5
5183
330
5
100
AcDbSymbolTableRecord
100
AcDbLinetypeTableRecord
  2
想像線1
 70
     0
  3
__ __ __ _____ __ __ ____
 72
    65
 73
     6
 40
14.5
 49
6.0
 74
     0
 49
-1.5
 74
     0
 49
2.0
 74
     0
 49
-1.5
 74
     0
 49
2.0
 74
     0
 49
-1.5
 74
     0
  0
LTYPE
  5
5185
330
5
100
AcDbSymbolTableRecord
100
AcDbLinetypeTableRecord
  2
中心線1
 70
     0
  3
___ _ ___ _ ___
 72
    65
 73
     4
 40
18.0
 49
12.0
 74
     0
 49
-2.0
 74
     0
 49
2.0
 74
     0
 49
-2.0
 74
     0
  0
LTYPE
  5
5188
330
5
100
AcDbSymbolTableRecord
100
AcDbLinetypeTableRecord
  2
補助線
 70
     0
  3
______________
 72
    65
 73
     2
 40
2.0
 49
1.0
 74
     0
 49
1.0
 74
     0
  0
LTYPE
  5
6427
330
5
100
AcDbSymbolTableRecord
100
AcDbLinetypeTableRecord
  2
HIDDEN
 70
     0
  3
Hidden __ __ __ __ __ __ __ __ __ __ __ __ __ _
 72
    65
 73
     2
 40
0.375
 49
0.25
 74
     0
 49
-0.125
 74
     0
  0
LTYPE
  5
AF95
330
5
100
AcDbSymbolTableRecord
100
AcDbLinetypeTableRecord
  2
AM_ISO08W050
 70
     0
  3
____ . ____ . ____ . ____ . ____ . ____ . ____
 72
    65
 73
     4
 40
18.0
 49
12.0
 74
     0
 49
-1.5
 74
     0
 49
3.0
 74
     0
 49
-1.5
 74
     0
  0
LTYPE
  5
FD15
330
5
100
AcDbSymbolTableRecord
100
AcDbLinetypeTableRecord
  2
ACANSTGB
 70
     0
  3
__ . . __ . .
 72
    65
 73
     6
 40
0.35433070866
 49
0.15748031496
 74
     0
 49
-0.03937007874
 74
     0
 49
0.03937007874
 74
     0
 49
-0.03937007874
 74
     0
 49
0.03937007874
 74
     0
 49
-0.03937007874
 74
     0
  0
LTYPE
  5
FD16
330
5
100
AcDbSymbolTableRecord
100
AcDbLinetypeTableRecord
  2
ACANSTGL
 70
     0
  3
_ _ _ _ _
 72
    65
 73
     2
 40
0.11811023622
 49
0.07874015748
 74
     0
 49
-0.03937007874
 74
     0
  0
ENDTAB
  0
TABLE
  2
LAYER
  5
2
102
{ACAD_XDICTIONARY
360
3F95
102
}
330
0
100
AcDbSymbolTable
 70
    16
  0
LAYER
  5
10
330
2
100
AcDbSymbolTableRecord
100
AcDbLayerTableRecord
  2
0
 70
     0
 62
     7
  6
Continuous
370
    -3
390
F
  0
LAYER
  5
6D1
330
2
100
AcDbSymbolTableRecord
100
AcDbLayerTableRecord
  2
Defpoints
 70
     0
 62
     7
  6
Continuous
290
     0
370
    -3
390
F
  0
LAYER
  5
5F85
330
2
100
AcDbSymbolTableRecord
100
AcDbLayerTableRecord
  2
AM_0
 70
     0
 62
     7
  6
中線
370
    25
390
F
1001
AcAecLayerStandard
1000

1000

  0
LAYER
  5
AC9F
330
2
100
AcDbSymbolTableRecord
100
AcDbLayerTableRecord
  2
size
 70
     0
 62
     5
  6
Continuous
290
     0
370
    25
390
F
  0
LAYER
  5
ACA0
330
2
100
AcDbSymbolTableRecord
100
AcDbLayerTableRecord
  2
waku
 70
     0
 62
     7
  6
Continuous
370
    35
390
F
  0
LAYER
  5
ACA1
330
2
100
AcDbSymbolTableRecord
100
AcDbLayerTableRecord
  2
AM_6
 70
     0
 62
     2
  6
文字
370
    15
390
F
1001
AcAecLayerStandard
1000

1000

  0
LAYER
  5
AD64
330
2
100
AcDbSymbolTableRecord
100
AcDbLayerTableRecord
  2
AM_2
 70
     0
 62
     1
  6
細線
370
    15
390
F
1001
AcAecLayerStandard
1000

1000

  0
LAYER
  5
AD68
330
2
100
AcDbSymbolTableRecord
100
AcDbLayerTableRecord
  2
AM_5
 70
     0
 62
     3
  6
寸法線
370
    15
390
F
1001
AcAecLayerStandard
1000

1000

  0
LAYER
  5
B5F9
330
2
100
AcDbSymbolTableRecord
100
AcDbLayerTableRecord
  2
0部品10
 70
     0
 62
   131
  6
Continuous
370
    30
390
F
1001
AcAecLayerStandard
1000

1000

  0
LAYER
  5
B601
330
2
100
AcDbSymbolTableRecord
100
AcDbLayerTableRecord
  2
0部品13
 70
     0
 62
   241
  6
細線
370
    30
390
F
1001
AcAecLayerStandard
1000

1000

  0
LAYER
  5
B603
330
2
100
AcDbSymbolTableRecord
100
AcDbLayerTableRecord
  2
0部品15
 70
     0
 62
    61
  6
細線
370
    30
390
F
1001
AcAecLayerStandard
1000

1000

  0
LAYER
  5
B605
330
2
100
AcDbSymbolTableRecord
100
AcDbLayerTableRecord
  2
0部品17
 70
     0
 62
   240
  6
細線
370
    30
390
F
1001
AcAecLayerStandard
1000

1000

  0
LAYER
  5
22DAB
330
2
100
AcDbSymbolTableRecord
100
AcDbLayerTableRecord
  2
AM_4
 70
     0
 62
     3
  6
補助線
370
    15
390
F
  0
LAYER
  5
2E415
102
{ACAD_XDICTIONARY
360
2E416
102
}
330
2
100
AcDbSymbolTableRecord
100
AcDbLayerTableRecord
  2
AM_1
 70
     0
 62
    30
  6
太線
370
    25
390
F
1001
AcAecLayerStandard
1000

1000

  0
LAYER
  5
310C4
330
2
100
AcDbSymbolTableRecord
100
AcDbLayerTableRecord
  2
2
 70
     0
 62
     7
  6
Continuous
370
    -3
390
F
  0
LAYER
  5
325B7
330
2
100
AcDbSymbolTableRecord
100
AcDbLayerTableRecord
  2
AM_CL
 70
     0
 62
     1
  6
Amconstr
370
    15
390
F
1001
AcAecLayerStandard
1000

1000

  0
ENDTAB
  0
TABLE
  2
STYLE
  5
3
330
0
100
AcDbSymbolTable
 70
     7
  0
STYLE
  5
11
330
3
100
AcDbSymbolTableRecord
100
AcDbTextStyleTableRecord
  2
STANDARD
 70
     0
 40
0.0
 41
0.7
 50
0.0
 71
     0
 42
3.2
  3
romans.shx
  4
extfont.shx
  0
STYLE
  5
56
330
3
100
AcDbSymbolTableRecord
100
AcDbTextStyleTableRecord
  2

 70
     1
 40
0.0
 41
1.0
 50
0.0
 71
     0
 42
2.5
  3
ltypeshp.shx
  4

  0
STYLE
  5
58
330
3
100
AcDbSymbolTableRecord
100
AcDbTextStyleTableRecord
  2
ACISOTS
 70
     0
 40
1.0
 41
1.0
 50
0.0
 71
     0
 42
2.5
  3
isocp.shx
  4
extfont.shx
  0
STYLE
  5
63
330
3
100
AcDbSymbolTableRecord
100
AcDbTextStyleTableRecord
  2
ACISOGDT
 70
     0
 40
0.0
 41
1.0
 50
0.0
 71
     0
 42
2.5
  3
amgdt.shx
  4

  0
STYLE
  5
A74
330
3
100
AcDbSymbolTableRecord
100
AcDbTextStyleTableRecord
  2
DIM
 70
     0
 40
0.0
 41
1.0
 50
0.0
 71
     0
 42
2.5
  3
monotxt.shx
  4
extfont.shx
  0
STYLE
  5
FD18
330
3
100
AcDbSymbolTableRecord
100
AcDbTextStyleTableRecord
  2
ACANSTS
 70
     0
 40
1.0
 41
1.0
 50
0.0
 71
     0
 42
0.2
  3
romans.shx
  4
extfont.shx
  0
STYLE
  5
FD19
330
3
100
AcDbSymbolTableRecord
100
AcDbTextStyleTableRecord
  2
ACANSGDT
 70
     0
 40
0.0
 41
1.0
 50
0.0
 71
     0
 42
0.2
  3
amgdt.shx
  4

  0
ENDTAB
  0
TABLE
  2
VIEW
  5
6
330
0
100
AcDbSymbolTable
 70
     6
  0
VIEW
  5
AE1
330
6
100
AcDbSymbolTableRecord
100
AcDbViewTableRecord
  2
AM_VIEW1
 70
     0
 40
2203.896457765668
 10
5264.599158088851
 20
3198.765197920841
 41
2970.0
 11
0.0
 21
0.0
 31
1.0
 12
0.0
 22
0.0
 32
0.0
 42
50.0
 43
-1370.695619172058
 44
-1370.695619172058
 50
0.0
 71
     0
281
     0
 72
     0
  0
VIEW
  5
AE2
330
6
100
AcDbSymbolTableRecord
100
AcDbViewTableRecord
  2
AM_VIEW2
 70
     0
 40
2203.896457765668
 10
8234.599158088851
 20
3198.765197920841
 41
2970.0
 11
0.0
 21
0.0
 31
1.0
 12
0.0
 22
0.0
 32
0.0
 42
50.0
 43
-1370.695619172058
 44
-1370.695619172058
 50
0.0
 71
     0
281
     0
 72
     0
  0
VIEW
  5
AE3
330
6
100
AcDbSymbolTableRecord
100
AcDbViewTableRecord
  2
AM_VIEW3
 70
     0
 40
2203.896457765668
 10
5264.599158088851
 20
1202.661655686509
 41
2970.0
 11
0.0
 21
0.0
 31
1.0
 12
0.0
 22
0.0
 32
0.0
 42
50.0
 43
-1370.695619172058
 44
-1370.695619172058
 50
0.0
 71
     0
281
     0
 72
     0
  0
VIEW
  5
AE4
330
6
100
AcDbSymbolTableRecord
100
AcDbViewTableRecord
  2
AM_VIEW4
 70
     0
 40
2203.896457765668
 10
8234.599158088851
 20
1202.661655686509
 41
2970.0
 11
0.0
 21
0.0
 31
1.0
 12
0.0
 22
0.0
 32
0.0
 42
50.0
 43
-1370.695619172058
 44
-1370.695619172058
 50
0.0
 71
     0
281
     0
 72
     0
  0
VIEW
  5
AE5
330
6
100
AcDbSymbolTableRecord
100
AcDbViewTableRecord
  2
AM_VIEW5
 70
     0
 40
2203.896457765668
 10
6749.599158088852
 20
2200.713426803675
 41
2970.0
 11
0.0
 21
0.0
 31
1.0
 12
0.0
 22
0.0
 32
0.0
 42
50.0
 43
-1370.695619172058
 44
-1370.695619172058
 50
0.0
 71
     0
281
     0
 72
     0
  0
VIEW
  5
AE6
330
6
100
AcDbSymbolTableRecord
100
AcDbViewTableRecord
  2
AM_VIEW6
 70
     0
 40
4407.748837602181
 10
6749.599158088852
 20
2200.713426803675
 41
5939.9406
 11
0.0
 21
0.0
 31
1.0
 12
0.0
 22
0.0
 32
0.0
 42
50.0
 43
-1370.695619172058
 44
-1370.695619172058
 50
0.0
 71
     0
281
     0
 72
     0
  0
ENDTAB
  0
TABLE
  2
UCS
  5
7
330
0
100
AcDbSymbolTable
 70
     0
  0
ENDTAB
  0
TABLE
  2
APPID
  5
9
330
0
100
AcDbSymbolTable
 70
    67
  0
APPID
  5
12
330
9
100
AcDbSymbolTableRecord
100
AcDbRegAppTableRecord
  2
ACAD
 70
     0
  0
APPID
  5
30
330
9
100
AcDbSymbolTableRecord
100
AcDbRegAppTableRecord
  2
MCAD_NO_VIS
 70
     0
  0
APPID
  5
31
330
9
100
AcDbSymbolTableRecord
100
AcDbRegAppTableRecord
  2
ACAD_TEMP_GRAPHIC
 70
     0
  0
APPID
  5
44
330
9
100
AcDbSymbolTableRecord
100
AcDbRegAppTableRecord
  2
ACATTRIBSERVICES
 70
     0
  0
APPID
  5
7A1
330
9
100
AcDbSymbolTableRecord
100
AcDbRegAppTableRecord
  2
GENIUS_GENDIMSH_14
 70
     0
  0
APPID
  5
A49
330
9
100
AcDbSymbolTableRecord
100
AcDbRegAppTableRecord
  2
GENIUS_GENREC_14
 70
     0
  0
APPID
  5
A4A
330
9
100
AcDbSymbolTableRecord
100
AcDbRegAppTableRecord
  2
GENIUS_GENOBJ-N-REC_13
 70
     0
  0
APPID
  5
A4B
330
9
100
AcDbSymbolTableRecord
100
AcDbRegAppTableRecord
  2
GENIUS_GENODEF_13
 70
     0
  0
APPID
  5
A4C
330
9
100
AcDbSymbolTableRecord
100
AcDbRegAppTableRecord
  2
DCO15
 70
     0
  0
APPID
  5
ADC
330
9
100
AcDbSymbolTableRecord
100
AcDbRegAppTableRecord
  2
GENIUS_GENOLIS_13
 70
     0
  0
APPID
  5
ADD
330
9
100
AcDbSymbolTableRecord
100
AcDbRegAppTableRecord
  2
GENIUS_GENOENT_13
 70
     0
  0
APPID
  5
ADE
330
9
100
AcDbSymbolTableRecord
100
AcDbRegAppTableRecord
  2
GENIUS_GENOBJ-N-TIT_13
 70
     0
  0
APPID
  5
ADF
330
9
100
AcDbSymbolTableRecord
100
AcDbRegAppTableRecord
  2
GENIUS_GENTITLE_13
 70
     0
  0
APPID
  5
AE0
330
9
100
AcDbSymbolTableRecord
100
AcDbRegAppTableRecord
  2
GENIUS_GENOREF_13
 70
     0
  0
APPID
  5
AE7
330
9
100
AcDbSymbolTableRecord
100
AcDbRegAppTableRecord
  2
GENIUS_GENSCREG_15
 70
     0
  0
APPID
  5
AE8
330
9
100
AcDbSymbolTableRecord
100
AcDbRegAppTableRecord
  2
GENIUS_GENOBJ-N-SDF_13
 70
     0
  0
APPID
  5
FAF
330
9
100
AcDbSymbolTableRecord
100
AcDbRegAppTableRecord
  2
GENIUS_GENBLLY_14
 70
     0
  0
APPID
  5
FB0
330
9
100
AcDbSymbolTableRecord
100
AcDbRegAppTableRecord
  2
GENIUS_GENTRA_14
 70
     0
  0
APPID
  5
1285
330
9
100
AcDbSymbolTableRecord
100
AcDbRegAppTableRecord
  2
GENIUS_GENDTOL_13
 70
     0
  0
APPID
  5
142D
330
9
100
AcDbSymbolTableRecord
100
AcDbRegAppTableRecord
  2
GENIUS_GENOBJ-N-CEN_13
 70
     0
  0
APPID
  5
1AB5
330
9
100
AcDbSymbolTableRecord
100
AcDbRegAppTableRecord
  2
GENIUS_GENOBJ-N-CRS_13
 70
     0
  0
APPID
  5
1B36
330
9
100
AcDbSymbolTableRecord
100
AcDbRegAppTableRecord
  2
GENIUS_GENOBJ-N-HTC_13
 70
     0
  0
APPID
  5
1B37
330
9
100
AcDbSymbolTableRecord
100
AcDbRegAppTableRecord
  2
GENIUS_GENHATCH_13
 70
     0
  0
APPID
  5
216D
330
9
100
AcDbSymbolTableRecord
100
AcDbRegAppTableRecord
  2
GENIUS_GENOBJ-N-FIL_13
 70
     0
  0
APPID
  5
2356
330
9
100
AcDbSymbolTableRecord
100
AcDbRegAppTableRecord
  2
GEVID990412420
 70
     0
  0
APPID
  5
2357
330
9
100
AcDbSymbolTableRecord
100
AcDbRegAppTableRecord
  2
GEVDC
 70
     0
  0
APPID
  5
2358
330
9
100
AcDbSymbolTableRecord
100
AcDbRegAppTableRecord
  2
GEVCON
 70
     0
  0
APPID
  5
235B
330
9
100
AcDbSymbolTableRecord
100
AcDbRegAppTableRecord
  2
GEVRADREF
 70
     0
  0
APPID
  5
2360
330
9
100
AcDbSymbolTableRecord
100
AcDbRegAppTableRecord
  2
GENIUS_GENBH_13
 70
     0
  0
APPID
  5
2362
330
9
100
AcDbSymbolTableRecord
100
AcDbRegAppTableRecord
  2
GENIUS_GENOBJ-NBEHI-BHF_13
 70
     0
  0
APPID
  5
2364
330
9
100
AcDbSymbolTableRecord
100
AcDbRegAppTableRecord
  2
GENIUS_GENOBJ-NBEHI-BHB_13
 70
     0
  0
APPID
  5
2379
330
9
100
AcDbSymbolTableRecord
100
AcDbRegAppTableRecord
  2
GENIUS_GENOBJ-F-SCPASSM_13
 70
     0
  0
APPID
  5
3D74
330
9
100
AcDbSymbolTableRecord
100
AcDbRegAppTableRecord
  2
GENIUS_GENDIM_13
 70
     0
  0
APPID
  5
3D76
330
9
100
AcDbSymbolTableRecord
100
AcDbRegAppTableRecord
  2
GENIUS_GE3DTOL_13
 70
     0
  0
APPID
  5
3D9C
330
9
100
AcDbSymbolTableRecord
100
AcDbRegAppTableRecord
  2
AD_DRAW
 70
     0
  0
APPID
  5
3DE8
330
9
100
AcDbSymbolTableRecord
100
AcDbRegAppTableRecord
  2
ASURF_PCURVE_APPNAME
 70
     0
  0
APPID
  5
3DED
330
9
100
AcDbSymbolTableRecord
100
AcDbRegAppTableRecord
  2
AMG_3D2D_5.0
 70
     0
  0
APPID
  5
3E1B
330
9
100
AcDbSymbolTableRecord
100
AcDbRegAppTableRecord
  2
DESIGNERASSEMBLIES
 70
     0
  0
APPID
  5
3E20
330
9
100
AcDbSymbolTableRecord
100
AcDbRegAppTableRecord
  2
ACADM_DIM_EDIT
 70
     0
  0
APPID
  5
3E21
330
9
100
AcDbSymbolTableRecord
100
AcDbRegAppTableRecord
  2
AMDT_DM_ADJ
 70
     0
  0
APPID
  5
4143
330
9
100
AcDbSymbolTableRecord
100
AcDbRegAppTableRecord
  2
GENIUS_GENFIL_13
 70
     0
  0
APPID
  5
4144
330
9
100
AcDbSymbolTableRecord
100
AcDbRegAppTableRecord
  2
GENIUS_GENOBJ-N-CHA_13
 70
     0
  0
APPID
  5
4E17
330
9
100
AcDbSymbolTableRecord
100
AcDbRegAppTableRecord
  2
GEVID1008153417
 70
     0
  0
APPID
  5
4E58
330
9
100
AcDbSymbolTableRecord
100
AcDbRegAppTableRecord
  2
GEVID1008153418
 70
     0
  0
APPID
  5
4E5E
330
9
100
AcDbSymbolTableRecord
100
AcDbRegAppTableRecord
  2
GEVID1008153419
 70
     0
  0
APPID
  5
4E64
330
9
100
AcDbSymbolTableRecord
100
AcDbRegAppTableRecord
  2
GEVID1008153420
 70
     0
  0
APPID
  5
4E75
330
9
100
AcDbSymbolTableRecord
100
AcDbRegAppTableRecord
  2
GEVID1008153421
 70
     0
  0
APPID
  5
4EB7
330
9
100
AcDbSymbolTableRecord
100
AcDbRegAppTableRecord
  2
GENIUS_AMGTXT_16
 70
     0
  0
APPID
  5
7645
330
9
100
AcDbSymbolTableRecord
100
AcDbRegAppTableRecord
  2
GENIUS_GENOBJ-N-DIM_13
 70
     0
  0
APPID
  5
AAD0
330
9
100
AcDbSymbolTableRecord
100
AcDbRegAppTableRecord
  2
ACAD_DSTYLE_DIMARC_LENGTH_SYMBOL
 70
     0
  0
APPID
  5
AAD1
330
9
100
AcDbSymbolTableRecord
100
AcDbRegAppTableRecord
  2
ACAD_DSTYLE_DIMJOGGED_JOGANGLE_SYMBOL
 70
     0
  0
APPID
  5
AAFD
330
9
100
AcDbSymbolTableRecord
100
AcDbRegAppTableRecord
  2
ACAD_PSEXT
 70
     0
  0
APPID
  5
AD61
330
9
100
AcDbSymbolTableRecord
100
AcDbRegAppTableRecord
  2
AcAecLayerStandard
 70
     0
  0
APPID
  5
AEE3
330
9
100
AcDbSymbolTableRecord
100
AcDbRegAppTableRecord
  2
ACAD_EXEMPT_FROM_CAD_STANDARDS
 70
     0
  0
APPID
  5
B1BE
330
9
100
AcDbSymbolTableRecord
100
AcDbRegAppTableRecord
  2
GENIUS_GENCEN_19
 70
     0
  0
APPID
  5
B4E1
330
9
100
AcDbSymbolTableRecord
100
AcDbRegAppTableRecord
  2
ACAD_MLEADERVER
 70
     0
  0
APPID
  5
C488
330
9
100
AcDbSymbolTableRecord
100
AcDbRegAppTableRecord
  2
ACAD_DSTYLE_DIMINSPECT
 70
     0
  0
APPID
  5
C489
330
9
100
AcDbSymbolTableRecord
100
AcDbRegAppTableRecord
  2
ACAD_DSTYLE_DIMRADIAL_EXTENSION
 70
     0
  0
APPID
  5
1980E
330
9
100
AcDbSymbolTableRecord
100
AcDbRegAppTableRecord
  2
GEVID1311583542
 70
     0
  0
APPID
  5
19825
330
9
100
AcDbSymbolTableRecord
100
AcDbRegAppTableRecord
  2
AMG_2DHIDE
 70
     0
  0
APPID
  5
19826
330
9
100
AcDbSymbolTableRecord
100
AcDbRegAppTableRecord
  2
AMG_2DSTRUCT_BTR
 70
     0
  0
APPID
  5
19837
330
9
100
AcDbSymbolTableRecord
100
AcDbRegAppTableRecord
  2
ACADM_2DVIEW_IGN_NOTIFY
 70
     0
  0
APPID
  5
1B56B
330
9
100
AcDbSymbolTableRecord
100
AcDbRegAppTableRecord
  2
GEVID1311583543
 70
     0
  0
APPID
  5
1B5F6
330
9
100
AcDbSymbolTableRecord
100
AcDbRegAppTableRecord
  2
GEVID1311583544
 70
     0
  0
APPID
  5
1B61B
330
9
100
AcDbSymbolTableRecord
100
AcDbRegAppTableRecord
  2
GEVID1311583545
 70
     0
  0
APPID
  5
1B63D
330
9
100
AcDbSymbolTableRecord
100
AcDbRegAppTableRecord
  2
GEVID1311583546
 70
     0
  0
APPID
  5
1B675
330
9
100
AcDbSymbolTableRecord
100
AcDbRegAppTableRecord
  2
GEVID1311583547
 70
     0
  0
ENDTAB
  0
TABLE
  2
DIMSTYLE
  5
A
330
0
100
AcDbSymbolTable
 70
    25
100
AcDbDimStyleTable
 71
     3
340
2515
340
251A
340
251B
  0
DIMSTYLE
105
A76
330
A
100
AcDbSymbolTableRecord
100
AcDbDimStyleTableRecord
  2
STANDARD
 70
     0
 41
3.0
 42
1.0
 43
7.0
 44
2.0
 73
     0
 74
     0
 77
     1
140
2.799999999999999
141
0.0
143
0.0394
147
0.7
171
     4
172
     1
173
     1
176
     3
177
     3
178
     2
271
     3
272
     3
273
     8
274
     4
289
     0
340
A74
341
A66
343
A66
344
A66
  0
DIMSTYLE
105
2515
330
A
100
AcDbSymbolTableRecord
100
AcDbDimStyleTableRecord
  2
SYS
 70
     0
  4
"
 41
1.0
 42
1.0
 43
10.0
 44
1.0
 47
0.1
 48
0.1
 73
     0
 74
     0
 77
     1
 78
     8
 79
     2
140
3.5
141
0.0
143
0.0393701
146
0.71
147
1.5
172
     1
176
   256
177
   256
178
     7
271
     2
272
     2
283
     0
284
     8
340
11
371
    -1
372
    -1
1001
ACAD_DSTYLE_DIMJOGGED_JOGANGLE_SYMBOL
1070
   384
1040
0.7853981633974483
1001
ACAD_DSTYLE_DIMARC_LENGTH_SYMBOL
1070
   379
1070
     1
  0
DIMSTYLE
105
2516
330
A
100
AcDbSymbolTableRecord
100
AcDbDimStyleTableRecord
  2
SYS$3
 70
     0
  4
"
 41
2.0
 42
1.0
 43
10.0
 44
1.0
 47
0.1
 48
0.1
 73
     0
 77
     1
 78
     8
 79
     2
140
3.2
141
0.0
143
0.0393701
146
0.71
147
1.0
176
   256
177
   256
178
     2
271
     2
272
     2
283
     0
284
     8
288
     1
340
11
342
A66
371
    -1
372
    -1
1001
ACAD_DSTYLE_DIMJOGGED_JOGANGLE_SYMBOL
1070
   384
1040
0.7853981633974483
1001
ACAD_DSTYLE_DIMARC_LENGTH_SYMBOL
1070
   379
1070
     1
  0
DIMSTYLE
105
2517
330
A
100
AcDbSymbolTableRecord
100
AcDbDimStyleTableRecord
  2
SYS$4
 70
     0
  4
"
 41
2.0
 42
1.0
 43
10.0
 44
1.0
 47
0.1
 48
0.1
 73
     0
 77
     1
 78
     8
 79
     2
140
3.2
141
0.0
143
0.0393701
146
0.71
147
1.0
173
     1
176
   256
177
   256
178
     2
271
     2
272
     2
283
     0
284
     8
288
     1
340
11
344
A66
371
    -1
372
    -1
1001
ACAD_DSTYLE_DIMJOGGED_JOGANGLE_SYMBOL
1070
   384
1040
0.7853981633974483
1001
ACAD_DSTYLE_DIMARC_LENGTH_SYMBOL
1070
   379
1070
     1
  0
DIMSTYLE
105
2518
330
A
100
AcDbSymbolTableRecord
100
AcDbDimStyleTableRecord
  2
SYS$6
 70
     0
  4
"
 41
2.0
 42
1.0
 43
10.0
 44
1.0
 47
0.1
 48
0.1
 73
     0
 74
     0
 78
     8
 79
     2
140
3.2
141
0.0
143
0.0393701
146
0.71
147
1.0
172
     1
176
   256
177
   256
178
     2
271
     2
272
     2
283
     0
284
     8
340
11
341
A66
371
    -1
372
    -1
1001
ACAD_DSTYLE_DIMJOGGED_JOGANGLE_SYMBOL
1070
   384
1040
0.7853981633974483
1001
ACAD_DSTYLE_DIMARC_LENGTH_SYMBOL
1070
   379
1070
     1
  0
DIMSTYLE
105
2519
330
A
100
AcDbSymbolTableRecord
100
AcDbDimStyleTableRecord
  2
SYS$7
 70
     0
  4
"
 41
2.0
 42
1.0
 43
10.0
 44
1.0
 47
0.1
 48
0.1
 73
     0
 74
     0
 77
     1
 78
     8
 79
     2
140
3.2
141
0.0
143
0.0393701
146
0.71
147
1.0
172
     1
176
   256
177
   256
178
     2
271
     2
272
     2
283
     0
284
     8
340
11
341
A66
342
A66
371
    -1
372
    -1
1001
ACAD_DSTYLE_DIMJOGGED_JOGANGLE_SYMBOL
1070
   384
1040
0.7853981633974483
1001
ACAD_DSTYLE_DIMARC_LENGTH_SYMBOL
1070
   379
1070
     1
  0
DIMSTYLE
105
251A
330
A
100
AcDbSymbolTableRecord
100
AcDbDimStyleTableRecord
  2
SYS$SF
 70
     0
  4
"
 41
2.5
 42
1.0
 43
10.0
 44
1.0
 47
0.1
 48
0.1
 73
     0
 74
     0
 75
     1
 76
     1
 77
     1
 78
     8
 79
     2
140
3.2
141
0.0
143
0.0393701
146
0.71
147
1.0
172
     1
176
   256
177
   256
178
     2
271
     2
272
     2
283
     0
284
     8
340
11
341
6C4
342
6C4
371
    -1
372
    -1
1001
ACAD_DSTYLE_DIMJOGGED_JOGANGLE_SYMBOL
1070
   384
1040
0.7853981633974483
1001
ACAD_DSTYLE_DIMARC_LENGTH_SYMBOL
1070
   379
1070
     1
  0
DIMSTYLE
105
251B
330
A
100
AcDbSymbolTableRecord
100
AcDbDimStyleTableRecord
  2
SYS$SH
 70
     0
  4
"
 41
2.5
 42
1.0
 43
10.0
 44
1.0
 47
0.1
 48
0.1
 73
     0
 74
     0
 75
     1
 76
     1
 77
     1
 78
     8
 79
     2
140
3.2
141
0.0
143
0.0393701
144
2.0
146
0.71
147
1.0
172
     1
173
     1
176
   256
177
   256
178
     2
271
     2
272
     2
283
     0
284
     8
340
11
341
6C4
343
72
344
6C4
371
    -1
372
    -1
1001
ACAD_DSTYLE_DIMJOGGED_JOGANGLE_SYMBOL
1070
   384
1040
0.7853981633974483
1001
ACAD_DSTYLE_DIMARC_LENGTH_SYMBOL
1070
   379
1070
     1
  0
DIMSTYLE
105
2A59
330
A
100
AcDbSymbolTableRecord
100
AcDbDimStyleTableRecord
  2
SYS$2
 70
     0
  4
"
 41
1.0
 42
1.0
 43
10.0
 44
1.0
 47
0.1
 48
0.1
 73
     0
 74
     0
 77
     1
 78
     8
 79
     2
140
3.2
141
0.0
143
0.0393701
146
0.71
147
1.0
172
     1
176
   256
177
   256
178
     2
271
     2
272
     2
283
     0
284
     8
340
11
342
6C4
371
    -1
372
    -1
1001
ACAD_DSTYLE_DIMJOGGED_JOGANGLE_SYMBOL
1070
   384
1040
0.7853981633974483
1001
ACAD_DSTYLE_DIMARC_LENGTH_SYMBOL
1070
   379
1070
     1
  0
DIMSTYLE
105
2AAB
102
{ACAD_REACTORS
330
32897
330
32898
330
32899
330
3289A
330
3289B
330
3289C
330
3289D
330
3289E
330
3289F
330
328A0
330
329E5
330
32A4C
102
}
330
A
100
AcDbSymbolTableRecord
100
AcDbDimStyleTableRecord
  2
SYS$0
 70
     0
  4
"
 41
1.0
 42
1.0
 43
10.0
 44
1.0
 47
0.1
 48
0.1
 73
     0
 74
     0
 77
     1
 78
     8
 79
     2
140
3.200000000000001
141
0.0
143
0.0393701
146
0.71
147
1.0
172
     1
176
   256
177
   256
178
     2
271
     2
272
     2
283
     0
284
     8
340
11
341
A66
342
6C4
371
    -1
372
    -1
1001
ACAD_DSTYLE_DIMJOGGED_JOGANGLE_SYMBOL
1070
   384
1040
0.7853981633974483
1001
ACAD_DSTYLE_DIMARC_LENGTH_SYMBOL
1070
   379
1070
     1
  0
DIMSTYLE
105
AF99
330
A
100
AcDbSymbolTableRecord
100
AcDbDimStyleTableRecord
  2
AM_ISO
 70
     0
  4
"
 41
2.5
 42
1.0
 43
10.0
 44
1.0
 47
0.1
 48
0.1
 73
     0
 74
     0
 77
     1
 78
     8
 79
     2
140
3.5
141
0.0
143
0.0393701
146
0.71
147
1.5
172
     1
176
   256
177
   256
178
     2
271
     2
272
     3
274
     4
283
     0
284
     8
340
11
371
    -1
372
    -1
  0
DIMSTYLE
105
AF9A
330
A
100
AcDbSymbolTableRecord
100
AcDbDimStyleTableRecord
  2
AM_ISO$3
 70
     0
  4
"
 41
2.5
 42
1.0
 43
10.0
 44
1.0
 47
0.1
 48
0.1
 73
     0
 77
     1
 78
     8
 79
     2
140
3.5
141
0.0
143
0.0393701
146
0.71
147
1.5
176
   256
177
   256
178
     2
271
     2
272
     3
274
     4
283
     0
284
     8
288
     1
289
     0
340
11
371
    -1
372
    -1
  0
DIMSTYLE
105
AF9B
330
A
100
AcDbSymbolTableRecord
100
AcDbDimStyleTableRecord
  2
AM_ISO$4
 70
     0
  4
"
 41
2.5
 42
1.0
 43
10.0
 44
1.0
 47
0.1
 48
0.1
 73
     0
 77
     1
 78
     8
 79
     2
140
3.5
141
0.0
143
0.0393701
146
0.71
147
1.5
176
   256
177
   256
178
     2
271
     2
272
     3
274
     4
283
     0
284
     8
288
     1
289
     0
340
11
371
    -1
372
    -1
  0
DIMSTYLE
105
AF9C
330
A
100
AcDbSymbolTableRecord
100
AcDbDimStyleTableRecord
  2
AM_ISO$6
 70
     0
  4
"
 41
2.5
 42
1.0
 43
10.0
 44
1.0
 47
0.1
 48
0.1
 73
     0
 74
     0
 78
     8
 79
     2
140
3.5
141
0.0
143
0.0393701
146
0.71
147
1.5
172
     1
176
   256
177
   256
178
     2
271
     2
272
     3
274
     4
283
     0
284
     8
340
11
371
    -1
372
    -1
  0
DIMSTYLE
105
AF9D
330
A
100
AcDbSymbolTableRecord
100
AcDbDimStyleTableRecord
  2
AM_ISO$7
 70
     0
  4
"
 41
2.5
 42
1.0
 43
10.0
 44
1.0
 47
0.1
 48
0.1
 73
     0
 74
     0
 77
     1
 78
     8
 79
     2
140
5.0
141
0.0
143
0.0393701
146
0.71
147
1.5
172
     1
176
   256
177
   256
178
     2
271
     2
272
     3
274
     4
283
     0
284
     8
340
11
371
    -1
372
    -1
  0
DIMSTYLE
105
AF9E
330
A
100
AcDbSymbolTableRecord
100
AcDbDimStyleTableRecord
  2
AM_ISO$SF
 70
     0
  4
"
 41
2.5
 42
1.0
 43
10.0
 44
1.0
 47
0.1
 48
0.1
 73
     0
 74
     0
 75
     1
 76
     1
 77
     1
 78
     8
 79
     2
140
3.5
141
0.0
143
0.0393701
146
0.71
147
1.5
172
     1
176
   256
177
   256
178
     2
271
     2
272
     3
274
     4
283
     0
284
     8
340
11
371
    -1
372
    -1
  0
DIMSTYLE
105
AF9F
330
A
100
AcDbSymbolTableRecord
100
AcDbDimStyleTableRecord
  2
AM_ISO$SH
 70
     0
  4
"
 41
2.5
 42
1.0
 43
10.0
 44
1.0
 47
0.1
 48
0.1
 73
     0
 74
     0
 75
     1
 76
     1
 77
     1
 78
     8
 79
     2
140
3.5
141
0.0
143
0.0393701
144
2.0
146
0.71
147
1.5
172
     1
173
     1
176
   256
177
   256
178
     2
271
     2
272
     3
274
     4
283
     0
284
     8
340
11
343
72
371
    -1
372
    -1
  0
DIMSTYLE
105
B60C
330
A
100
AcDbSymbolTableRecord
100
AcDbDimStyleTableRecord
  2
AM_ANSI
 70
     0
  4
mm
 41
0.1
 42
0.05
 43
0.5
 44
0.1
 47
0.1
 48
0.1
 78
     7
 79
     2
140
0.12
141
0.0
146
0.71
147
0.06
176
   256
177
   256
178
     2
274
     4
284
     7
340
11
371
    -1
372
    -1
  0
DIMSTYLE
105
C485
330
A
100
AcDbSymbolTableRecord
100
AcDbDimStyleTableRecord
  2
AM_ISO$0
 70
     0
  4
"
 41
0.8
 42
1.0
 43
10.0
 44
1.0
 47
0.1
 48
0.1
 73
     0
 74
     0
 77
     1
 78
     8
 79
     2
140
3.2
141
0.0
143
0.0393701
146
0.71
147
0.9999999999999996
172
     1
176
   256
177
   256
178
     2
271
     2
272
     2
283
     0
284
     8
340
11
341
6C4
342
6C4
371
    -1
372
    -1
1001
ACAD_DSTYLE_DIMJOGGED_JOGANGLE_SYMBOL
1070
   384
1040
0.7853981633974483
1001
ACAD_DSTYLE_DIMARC_LENGTH_SYMBOL
1070
   379
1070
     1
  0
DIMSTYLE
105
C486
330
A
100
AcDbSymbolTableRecord
100
AcDbDimStyleTableRecord
  2
AM_ISO$2
 70
     0
  4
"
 41
0.8
 42
1.0
 43
10.0
 44
1.0
 47
0.1
 48
0.1
 73
     0
 74
     0
 77
     3
 78
     8
 79
     2
140
3.200000000000001
141
0.0
143
0.0393701
146
0.71
147
0.9999999999999996
172
     1
176
   256
177
   256
178
     2
271
     2
272
     2
283
     0
284
     8
340
11
342
6C4
371
    -1
372
    -1
1001
ACAD_DSTYLE_DIMJOGGED_JOGANGLE_SYMBOL
1070
   384
1040
0.7853981633974483
1001
ACAD_DSTYLE_DIMARC_LENGTH_SYMBOL
1070
   379
1070
     1
  0
DIMSTYLE
105
FD1A
330
A
100
AcDbSymbolTableRecord
100
AcDbDimStyleTableRecord
  2
AM_ANSI$3
 70
     0
  4
mm
 41
0.1
 42
0.05
 43
0.5
 44
0.1
 47
0.1
 48
0.1
 78
     7
 79
     2
140
0.12
141
0.0
146
0.71
147
0.06
176
   256
177
   256
178
     2
274
     4
284
     7
288
     1
289
     0
340
11
371
    -1
372
    -1
1001
ACAD_DSTYLE_DIMARC_LENGTH_SYMBOL
1070
   379
1070
     1
  0
DIMSTYLE
105
FD1B
330
A
100
AcDbSymbolTableRecord
100
AcDbDimStyleTableRecord
  2
AM_ANSI$4
 70
     0
  4
mm
 41
0.1
 42
0.05
 43
0.5
 44
0.1
 47
0.1
 48
0.1
 78
     7
 79
     2
140
0.12
141
0.0
146
0.71
147
0.06
176
   256
177
   256
178
     2
274
     4
284
     7
288
     1
289
     0
340
11
371
    -1
372
    -1
1001
ACAD_DSTYLE_DIMARC_LENGTH_SYMBOL
1070
   379
1070
     1
  0
DIMSTYLE
105
FD1C
330
A
100
AcDbSymbolTableRecord
100
AcDbDimStyleTableRecord
  2
AM_ANSI$7
 70
     0
  4
mm
 41
0.1
 42
0.05
 43
0.5
 44
0.1
 47
0.1
 48
0.1
 78
     7
 79
     2
140
0.24
141
0.0
146
0.71
147
0.06
176
   256
177
   256
178
     2
274
     4
284
     7
340
11
371
    -1
372
    -1
1001
ACAD_DSTYLE_DIMARC_LENGTH_SYMBOL
1070
   379
1070
     1
  0
DIMSTYLE
105
FD1D
330
A
100
AcDbSymbolTableRecord
100
AcDbDimStyleTableRecord
  2
AM_ANSI$SF
 70
     0
  4
mm
 41
0.1
 42
0.05
 43
0.5
 44
0.1
 47
0.1
 48
0.1
 75
     1
 76
     1
 78
     7
 79
     2
140
0.12
141
0.0
146
0.71
147
0.06
176
   256
177
   256
178
     2
274
     4
284
     7
340
11
371
    -1
372
    -1
1001
ACAD_DSTYLE_DIMARC_LENGTH_SYMBOL
1070
   379
1070
     1
  0
DIMSTYLE
105
FD1E
330
A
100
AcDbSymbolTableRecord
100
AcDbDimStyleTableRecord
  2
AM_ANSI$SH
 70
     0
  4
mm
 41
0.1
 42
0.05
 43
0.5
 44
0.1
 47
0.1
 48
0.1
 75
     1
 76
     1
 78
     7
 79
     2
140
0.12
141
0.0
146
0.71
147
0.06
173
     1
176
   256
177
   256
178
     2
274
     4
284
     7
340
11
343
72
371
    -1
372
    -1
1001
ACAD_DSTYLE_DIMARC_LENGTH_SYMBOL
1070
   379
1070
     1
  0
ENDTAB
  0
TABLE
  2
BLOCK_RECORD
  5
1
330
0
100
AcDbSymbolTable
 70
    19
  0
BLOCK_RECORD
  5
1F
102
{ACAD_XDICTIONARY
360
8A
102
}
330
1
100
AcDbSymbolTableRecord
100
AcDbBlockTableRecord
  2
*Model_Space
340
22
  0
BLOCK_RECORD
  5
1B
330
1
100
AcDbSymbolTableRecord
100
AcDbBlockTableRecord
  2
*Paper_Space
340
1E
  0
BLOCK_RECORD
  5
23
330
1
100
AcDbSymbolTableRecord
100
AcDbBlockTableRecord
  2
*Paper_Space0
340
26
  0
BLOCK_RECORD
  5
72
330
1
100
AcDbSymbolTableRecord
100
AcDbBlockTableRecord
  2
GENAXEH
340
0
  0
BLOCK_RECORD
  5
6C4
330
1
100
AcDbSymbolTableRecord
100
AcDbBlockTableRecord
  2
_Dot
340
0
102
{BLKREFS
331
3295D
331
3295E
331
32978
331
32979
331
32981
331
32982
331
3298A
331
3298B
331
32993
331
32994
331
329AE
331
329AF
331
32A2B
331
32A2C
331
32A34
331
32A35
331
32A8A
331
32A8B
331
32A93
331
32A94
331
32AA2
331
32AA3
331
32AAB
331
32AAC
102
}
  0
BLOCK_RECORD
  5
A66
330
1
100
AcDbSymbolTableRecord
100
AcDbBlockTableRecord
  2
_OPEN30
340
0
  0
BLOCK_RECORD
  5
328E2
330
1
100
AcDbSymbolTableRecord
100
AcDbBlockTableRecord
  2
*D7
340
0
  0
BLOCK_RECORD
  5
328EE
330
1
100
AcDbSymbolTableRecord
100
AcDbBlockTableRecord
  2
*D8
340
0
  0
BLOCK_RECORD
  5
328FA
330
1
100
AcDbSymbolTableRecord
100
AcDbBlockTableRecord
  2
*D9
340
0
  0
BLOCK_RECORD
  5
32906
330
1
100
AcDbSymbolTableRecord
100
AcDbBlockTableRecord
  2
*D10
340
0
  0
BLOCK_RECORD
  5
32912
330
1
100
AcDbSymbolTableRecord
100
AcDbBlockTableRecord
  2
*D11
340
0
  0
BLOCK_RECORD
  5
3291E
330
1
100
AcDbSymbolTableRecord
100
AcDbBlockTableRecord
  2
*D12
340
0
  0
BLOCK_RECORD
  5
3292A
330
1
100
AcDbSymbolTableRecord
100
AcDbBlockTableRecord
  2
*D13
340
0
  0
BLOCK_RECORD
  5
32936
330
1
100
AcDbSymbolTableRecord
100
AcDbBlockTableRecord
  2
*D14
340
0
  0
BLOCK_RECORD
  5
32942
330
1
100
AcDbSymbolTableRecord
100
AcDbBlockTableRecord
  2
*D15
340
0
  0
BLOCK_RECORD
  5
3294E
330
1
100
AcDbSymbolTableRecord
100
AcDbBlockTableRecord
  2
*D16
340
0
  0
BLOCK_RECORD
  5
329E6
330
1
100
AcDbSymbolTableRecord
100
AcDbBlockTableRecord
  2
*D17
340
0
  0
BLOCK_RECORD
  5
32A4D
330
1
100
AcDbSymbolTableRecord
100
AcDbBlockTableRecord
  2
*D18
340
0
  0
ENDTAB
  0
ENDSEC
  0
SECTION
  2
BLOCKS
  0
BLOCK
  5
20
330
1F
100
AcDbEntity
  8
0
100
AcDbBlockBegin
  2
*Model_Space
 70
     0
 10
0.0
 20
0.0
 30
0.0
  3
*Model_Space
  1

  0
ENDBLK
  5
21
330
1F
100
AcDbEntity
  8
0
100
AcDbBlockEnd
  0
BLOCK
  5
1C
330
1B
100
AcDbEntity
 67
     1
  8
0
100
AcDbBlockBegin
  2
*Paper_Space
 70
     0
 10
0.0
 20
0.0
 30
0.0
  3
*Paper_Space
  1

  0
ENDBLK
  5
1D
330
1B
100
AcDbEntity
 67
     1
  8
0
100
AcDbBlockEnd
  0
BLOCK
  5
24
330
23
100
AcDbEntity
 67
     1
  8
0
100
AcDbBlockBegin
  2
*Paper_Space0
 70
     0
 10
0.0
 20
0.0
 30
0.0
  3
*Paper_Space0
  1

  0
ENDBLK
  5
25
330
23
100
AcDbEntity
 67
     1
  8
0
100
AcDbBlockEnd
  0
BLOCK
  5
74
330
72
100
AcDbEntity
  8
0
100
AcDbBlockBegin
  2
GENAXEH
 70
     0
 10
0.0
 20
0.0
 30
0.0
  3
GENAXEH
  1

  0
LINE
  5
73
330
72
100
AcDbEntity
  8
0
100
AcDbLine
 10
-1.0
 20
0.0
 30
0.0
 11
1.0
 21
0.0
 31
0.0
  0
ENDBLK
  5
75
330
72
100
AcDbEntity
  8
0
100
AcDbBlockEnd
  0
BLOCK
  5
6C7
330
6C4
100
AcDbEntity
  8
0
100
AcDbBlockBegin
  2
_Dot
 70
     0
 10
0.0
 20
0.0
 30
0.0
  3
_Dot
  1

  0
LWPOLYLINE
  5
6C5
330
6C4
100
AcDbEntity
  8
0
  6
ByBlock
 62
     0
100
AcDbPolyline
 90
        2
 70
     1
 43
0.5
 10
-0.25
 20
0.0
 42
1.0
 10
0.25
 20
0.0
 42
1.0
  0
LINE
  5
6C6
330
6C4
100
AcDbEntity
  8
0
  6
ByBlock
 62
     0
370
    -2
100
AcDbLine
 10
-0.5
 20
0.0
 30
0.0
 11
-1.0
 21
0.0
 31
0.0
  0
ENDBLK
  5
6C8
330
6C4
100
AcDbEntity
  8
0
100
AcDbBlockEnd
  0
BLOCK
  5
A6A
330
A66
100
AcDbEntity
  8
0
100
AcDbBlockBegin
  2
_OPEN30
 70
     0
 10
0.0
 20
0.0
 30
0.0
  3
_OPEN30
  1

  0
LINE
  5
A67
330
A66
100
AcDbEntity
  8
0
  6
ByBlock
 62
     0
100
AcDbLine
 10
-1.0
 20
0.26794919
 30
0.0
 11
0.0
 21
0.0
 31
0.0
  0
LINE
  5
A68
330
A66
100
AcDbEntity
  8
0
  6
ByBlock
 62
     0
100
AcDbLine
 10
0.0
 20
0.0
 30
0.0
 11
-1.0
 21
-0.26794919
 31
0.0
  0
LINE
  5
A69
330
A66
100
AcDbEntity
  8
0
  6
ByBlock
 62
     0
100
AcDbLine
 10
0.0
 20
0.0
 30
0.0
 11
-1.0
 21
0.0
 31
0.0
  0
ENDBLK
  5
A6B
330
A66
100
AcDbEntity
  8
0
100
AcDbBlockEnd
  0
BLOCK
  5
328EC
330
328E2
100
AcDbEntity
  8
0
100
AcDbBlockBegin
  2
*D7
 70
     1
 10
0.0
 20
0.0
 30
0.0
  3
*D7
  1

  0
LINE
  5
3295A
330
328E2
100
AcDbEntity
  8
AM_5
100
AcDbLine
 10
3194.705402038574
 20
2029.268124644338
 30
0.0
 11
3194.705402038574
 21
2017.768124644338
 31
0.0
  0
LINE
  5
3295B
330
328E2
100
AcDbEntity
  8
AM_5
100
AcDbLine
 10
3234.705402038574
 20
2029.268124644338
 30
0.0
 11
3234.705402038574
 21
2017.768124644338
 31
0.0
  0
LINE
  5
3295C
330
328E2
100
AcDbEntity
  8
AM_5
100
AcDbLine
 10
3195.705402038574
 20
2018.768124644338
 30
0.0
 11
3233.705402038574
 21
2018.768124644338
 31
0.0
  0
INSERT
  5
3295D
330
328E2
100
AcDbEntity
  8
AM_5
100
AcDbBlockReference
  2
_Dot
 10
3194.705402038574
 20
2018.768124644338
 30
0.0
 50
180.0
  0
INSERT
  5
3295E
330
328E2
100
AcDbEntity
  8
AM_5
100
AcDbBlockReference
  2
_Dot
 10
3234.705402038574
 20
2018.768124644338
 30
0.0
  0
MTEXT
  5
3295F
330
328E2
100
AcDbEntity
  8
AM_5
 62
     2
100
AcDbMText
 10
3214.705402038574
 20
2021.368124644338
 30
0.0
 40
3.200000000000001
 41
0.0
 71
     5
 72
     1
  1
%%cA
 73
     1
 44
1.0
1001
ACAD
1000
MTEXTBEGIN
1070
    73
1070
     1
1070
    44
1040
1.0
1070
    74
1070
     0
1000
MTEXTEND
  0
POINT
  5
32960
330
328E2
100
AcDbEntity
  8
Defpoints
 62
     0
100
AcDbPoint
 10
3194.705402038574
 20
2030.268124644338
 30
0.0
  0
POINT
  5
32961
330
328E2
100
AcDbEntity
  8
Defpoints
 62
     0
100
AcDbPoint
 10
3234.705402038574
 20
2030.268124644338
 30
0.0
  0
POINT
  5
32962
330
328E2
100
AcDbEntity
  8
Defpoints
 62
     0
100
AcDbPoint
 10
3234.705402038574
 20
2018.768124644338
 30
0.0
  0
ENDBLK
  5
328ED
330
328E2
100
AcDbEntity
  8
0
100
AcDbBlockEnd
  0
BLOCK
  5
328F8
330
328EE
100
AcDbEntity
  8
0
100
AcDbBlockBegin
  2
*D8
 70
     1
 10
0.0
 20
0.0
 30
0.0
  3
*D8
  1

  0
LINE
  5
32A31
330
328EE
100
AcDbEntity
  8
AM_5
100
AcDbLine
 10
3233.205402038574
 20
2026.768124644338
 30
0.0
 11
3243.705402038575
 21
2026.768124644338
 31
0.0
  0
LINE
  5
32A32
330
328EE
100
AcDbEntity
  8
AM_5
100
AcDbLine
 10
3235.705402038574
 20
2039.268124644338
 30
0.0
 11
3243.705402038575
 21
2039.268124644338
 31
0.0
  0
LINE
  5
32A33
330
328EE
100
AcDbEntity
  8
AM_5
100
AcDbLine
 10
3242.705402038575
 20
2027.768124644337
 30
0.0
 11
3242.705402038575
 21
2038.268124644337
 31
0.0
  0
INSERT
  5
32A34
330
328EE
100
AcDbEntity
  8
AM_5
100
AcDbBlockReference
  2
_Dot
 10
3242.705402038575
 20
2026.768124644338
 30
0.0
 50
270.0
  0
INSERT
  5
32A35
330
328EE
100
AcDbEntity
  8
AM_5
100
AcDbBlockReference
  2
_Dot
 10
3242.705402038575
 20
2039.268124644338
 30
0.0
 50
90.0
  0
MTEXT
  5
32A36
330
328EE
100
AcDbEntity
  8
AM_5
 62
     2
100
AcDbMText
 10
3240.105402038575
 20
2033.018124644338
 30
0.0
 40
3.200000000000001
 41
0.0
 71
     5
 72
     1
  1
I
 11
0.0000000000000001
 21
1.0
 31
0.0
 73
     1
 44
1.0
1001
ACAD
1000
MTEXTBEGIN
1070
    73
1070
     1
1070
    44
1040
1.0
1070
    74
1070
     0
1000
MTEXTEND
  0
POINT
  5
32A37
330
328EE
100
AcDbEntity
  8
Defpoints
 62
     0
100
AcDbPoint
 10
3232.205402038574
 20
2026.768124644338
 30
0.0
  0
POINT
  5
32A38
330
328EE
100
AcDbEntity
  8
Defpoints
 62
     0
100
AcDbPoint
 10
3234.705402038574
 20
2039.268124644338
 30
0.0
  0
POINT
  5
32A39
330
328EE
100
AcDbEntity
  8
Defpoints
 62
     0
100
AcDbPoint
 10
3242.705402038575
 20
2039.268124644338
 30
0.0
  0
ENDBLK
  5
328F9
330
328EE
100
AcDbEntity
  8
0
100
AcDbBlockEnd
  0
BLOCK
  5
32904
330
328FA
100
AcDbEntity
  8
0
100
AcDbBlockBegin
  2
*D9
 70
     1
 10
0.0
 20
0.0
 30
0.0
  3
*D9
  1

  0
LINE
  5
32A90
330
328FA
100
AcDbEntity
  8
AM_5
100
AcDbLine
 10
3234.205402038574
 20
2080.768124644338
 30
0.0
 11
3243.705402038575
 21
2080.768124644338
 31
0.0
  0
LINE
  5
32A91
330
328FA
100
AcDbEntity
  8
AM_5
100
AcDbLine
 10
3218.705402038574
 20
2112.768124644338
 30
0.0
 11
3243.705402038575
 21
2112.768124644338
 31
0.0
  0
LINE
  5
32A92
330
328FA
100
AcDbEntity
  8
AM_5
100
AcDbLine
 10
3242.705402038575
 20
2081.768124644338
 30
0.0
 11
3242.705402038575
 21
2111.768124644338
 31
0.0
  0
INSERT
  5
32A93
330
328FA
100
AcDbEntity
  8
AM_5
100
AcDbBlockReference
  2
_Dot
 10
3242.705402038575
 20
2080.768124644338
 30
0.0
 50
270.0
  0
INSERT
  5
32A94
330
328FA
100
AcDbEntity
  8
AM_5
100
AcDbBlockReference
  2
_Dot
 10
3242.705402038575
 20
2112.768124644338
 30
0.0
 50
90.0
  0
MTEXT
  5
32A95
330
328FA
100
AcDbEntity
  8
AM_5
 62
     2
100
AcDbMText
 10
3240.105402038575
 20
2096.768124644339
 30
0.0
 40
3.200000000000001
 41
0.0
 71
     5
 72
     1
  1
L1
 11
0.0000000000000001
 21
1.0
 31
0.0
 73
     1
 44
1.0
1001
ACAD
1000
MTEXTBEGIN
1070
    73
1070
     1
1070
    44
1040
1.0
1070
    74
1070
     0
1000
MTEXTEND
  0
POINT
  5
32A96
330
328FA
100
AcDbEntity
  8
Defpoints
 62
     0
100
AcDbPoint
 10
3233.205402038574
 20
2080.768124644338
 30
0.0
  0
POINT
  5
32A97
330
328FA
100
AcDbEntity
  8
Defpoints
 62
     0
100
AcDbPoint
 10
3217.705402038574
 20
2112.768124644338
 30
0.0
  0
POINT
  5
32A98
330
328FA
100
AcDbEntity
  8
Defpoints
 62
     0
100
AcDbPoint
 10
3242.705402038575
 20
2112.768124644338
 30
0.0
  0
ENDBLK
  5
32905
330
328FA
100
AcDbEntity
  8
0
100
AcDbBlockEnd
  0
BLOCK
  5
32910
330
32906
100
AcDbEntity
  8
0
100
AcDbBlockBegin
  2
*D10
 70
     1
 10
0.0
 20
0.0
 30
0.0
  3
*D10
  1

  0
LINE
  5
32975
330
32906
100
AcDbEntity
  8
AM_5
100
AcDbLine
 10
3233.205402038574
 20
2026.768124644338
 30
0.0
 11
3251.705402038574
 21
2026.768124644338
 31
0.0
  0
LINE
  5
32976
330
32906
100
AcDbEntity
  8
AM_5
100
AcDbLine
 10
3218.705402038574
 20
2112.768124644338
 30
0.0
 11
3251.705402038574
 21
2112.768124644338
 31
0.0
  0
LINE
  5
32977
330
32906
100
AcDbEntity
  8
AM_5
100
AcDbLine
 10
3250.705402038575
 20
2027.768124644337
 30
0.0
 11
3250.705402038575
 21
2111.768124644338
 31
0.0
  0
INSERT
  5
32978
330
32906
100
AcDbEntity
  8
AM_5
100
AcDbBlockReference
  2
_Dot
 10
3250.705402038575
 20
2026.768124644338
 30
0.0
 50
270.0
  0
INSERT
  5
32979
330
32906
100
AcDbEntity
  8
AM_5
100
AcDbBlockReference
  2
_Dot
 10
3250.705402038575
 20
2112.768124644338
 30
0.0
 50
90.0
  0
MTEXT
  5
3297A
330
32906
100
AcDbEntity
  8
AM_5
 62
     2
100
AcDbMText
 10
3248.105402038574
 20
2069.768124644338
 30
0.0
 40
3.200000000000001
 41
0.0
 71
     5
 72
     1
  1
L2
 11
0.0000000000000001
 21
1.0
 31
0.0
 73
     1
 44
1.0
1001
ACAD
1000
MTEXTBEGIN
1070
    73
1070
     1
1070
    44
1040
1.0
1070
    74
1070
     0
1000
MTEXTEND
  0
POINT
  5
3297B
330
32906
100
AcDbEntity
  8
Defpoints
 62
     0
100
AcDbPoint
 10
3232.205402038574
 20
2026.768124644338
 30
0.0
  0
POINT
  5
3297C
330
32906
100
AcDbEntity
  8
Defpoints
 62
     0
100
AcDbPoint
 10
3217.705402038574
 20
2112.768124644338
 30
0.0
  0
POINT
  5
3297D
330
32906
100
AcDbEntity
  8
Defpoints
 62
     0
100
AcDbPoint
 10
3250.705402038575
 20
2112.768124644338
 30
0.0
  0
ENDBLK
  5
32911
330
32906
100
AcDbEntity
  8
0
100
AcDbBlockEnd
  0
BLOCK
  5
3291C
330
32912
100
AcDbEntity
  8
0
100
AcDbBlockBegin
  2
*D11
 70
     1
 10
0.0
 20
0.0
 30
0.0
  3
*D11
  1

  0
LINE
  5
3297E
330
32912
100
AcDbEntity
  8
AM_5
100
AcDbLine
 10
3210.705402038574
 20
2112.768124644338
 30
0.0
 11
3210.705402038574
 21
2121.768124644338
 31
0.0
  0
LINE
  5
3297F
330
32912
100
AcDbEntity
  8
AM_5
100
AcDbLine
 10
3218.705402038574
 20
2112.768124644338
 30
0.0
 11
3218.705402038574
 21
2121.768124644338
 31
0.0
  0
LINE
  5
32980
330
32912
100
AcDbEntity
  8
AM_5
100
AcDbLine
 10
3211.705402038574
 20
2120.768124644337
 30
0.0
 11
3217.705402038574
 21
2120.768124644337
 31
0.0
  0
INSERT
  5
32981
330
32912
100
AcDbEntity
  8
AM_5
100
AcDbBlockReference
  2
_Dot
 10
3210.705402038574
 20
2120.768124644337
 30
0.0
 50
180.0
  0
INSERT
  5
32982
330
32912
100
AcDbEntity
  8
AM_5
100
AcDbBlockReference
  2
_Dot
 10
3218.705402038574
 20
2120.768124644337
 30
0.0
  0
MTEXT
  5
32983
330
32912
100
AcDbEntity
  8
AM_5
 62
     2
100
AcDbMText
 10
3214.705402038574
 20
2123.368124644338
 30
0.0
 40
3.200000000000001
 41
0.0
 71
     5
 72
     1
  1
D
 73
     1
 44
1.0
1001
ACAD
1000
MTEXTBEGIN
1070
    73
1070
     1
1070
    44
1040
1.0
1070
    74
1070
     0
1000
MTEXTEND
  0
POINT
  5
32984
330
32912
100
AcDbEntity
  8
Defpoints
 62
     0
100
AcDbPoint
 10
3210.705402038574
 20
2111.768124644338
 30
0.0
  0
POINT
  5
32985
330
32912
100
AcDbEntity
  8
Defpoints
 62
     0
100
AcDbPoint
 10
3218.705402038574
 20
2111.768124644338
 30
0.0
  0
POINT
  5
32986
330
32912
100
AcDbEntity
  8
Defpoints
 62
     0
100
AcDbPoint
 10
3218.705402038574
 20
2120.768124644337
 30
0.0
  0
ENDBLK
  5
3291D
330
32912
100
AcDbEntity
  8
0
100
AcDbBlockEnd
  0
BLOCK
  5
32928
330
3291E
100
AcDbEntity
  8
0
100
AcDbBlockBegin
  2
*D12
 70
     1
 10
0.0
 20
0.0
 30
0.0
  3
*D12
  1

  0
LINE
  5
32987
330
3291E
100
AcDbEntity
  8
AM_5
100
AcDbLine
 10
3133.914324837376
 20
2073.768124644338
 30
0.0
 11
3133.914324837376
 21
2082.768124644338
 31
0.0
  0
LINE
  5
32988
330
3291E
100
AcDbEntity
  8
AM_5
100
AcDbLine
 10
3141.914324837376
 20
2073.768124644338
 30
0.0
 11
3141.914324837376
 21
2082.768124644338
 31
0.0
  0
LINE
  5
32989
330
3291E
100
AcDbEntity
  8
AM_5
100
AcDbLine
 10
3134.914324837376
 20
2081.768124644338
 30
0.0
 11
3140.914324837376
 21
2081.768124644338
 31
0.0
  0
INSERT
  5
3298A
330
3291E
100
AcDbEntity
  8
AM_5
100
AcDbBlockReference
  2
_Dot
 10
3133.914324837376
 20
2081.768124644338
 30
0.0
 50
180.0
  0
INSERT
  5
3298B
330
3291E
100
AcDbEntity
  8
AM_5
100
AcDbBlockReference
  2
_Dot
 10
3141.914324837376
 20
2081.768124644338
 30
0.0
  0
MTEXT
  5
3298C
330
3291E
100
AcDbEntity
  8
AM_5
 62
     2
100
AcDbMText
 10
3137.914324837376
 20
2084.368124644337
 30
0.0
 40
3.200000000000001
 41
0.0
 71
     5
 72
     1
  1
D
 73
     1
 44
1.0
1001
ACAD
1000
MTEXTBEGIN
1070
    73
1070
     1
1070
    44
1040
1.0
1070
    74
1070
     0
1000
MTEXTEND
  0
POINT
  5
3298D
330
3291E
100
AcDbEntity
  8
Defpoints
 62
     0
100
AcDbPoint
 10
3133.914324837376
 20
2072.768124644338
 30
0.0
  0
POINT
  5
3298E
330
3291E
100
AcDbEntity
  8
Defpoints
 62
     0
100
AcDbPoint
 10
3141.914324837376
 20
2072.768124644338
 30
0.0
  0
POINT
  5
3298F
330
3291E
100
AcDbEntity
  8
Defpoints
 62
     0
100
AcDbPoint
 10
3141.914324837376
 20
2081.768124644338
 30
0.0
  0
ENDBLK
  5
32929
330
3291E
100
AcDbEntity
  8
0
100
AcDbBlockEnd
  0
BLOCK
  5
32934
330
3292A
100
AcDbEntity
  8
0
100
AcDbBlockBegin
  2
*D13
 70
     1
 10
0.0
 20
0.0
 30
0.0
  3
*D13
  1

  0
LINE
  5
32990
330
3292A
100
AcDbEntity
  8
AM_5
100
AcDbLine
 10
3117.914324837376
 20
2029.268124644338
 30
0.0
 11
3117.914324837376
 21
2017.768124644338
 31
0.0
  0
LINE
  5
32991
330
3292A
100
AcDbEntity
  8
AM_5
100
AcDbLine
 10
3157.914324837376
 20
2029.268124644338
 30
0.0
 11
3157.914324837376
 21
2017.768124644338
 31
0.0
  0
LINE
  5
32992
330
3292A
100
AcDbEntity
  8
AM_5
100
AcDbLine
 10
3118.914324837376
 20
2018.768124644338
 30
0.0
 11
3156.914324837376
 21
2018.768124644338
 31
0.0
  0
INSERT
  5
32993
330
3292A
100
AcDbEntity
  8
AM_5
100
AcDbBlockReference
  2
_Dot
 10
3117.914324837376
 20
2018.768124644338
 30
0.0
 50
180.0
  0
INSERT
  5
32994
330
3292A
100
AcDbEntity
  8
AM_5
100
AcDbBlockReference
  2
_Dot
 10
3157.914324837376
 20
2018.768124644338
 30
0.0
  0
MTEXT
  5
32995
330
3292A
100
AcDbEntity
  8
AM_5
 62
     2
100
AcDbMText
 10
3137.914324837376
 20
2021.368124644338
 30
0.0
 40
3.200000000000001
 41
0.0
 71
     5
 72
     1
  1
%%cA
 73
     1
 44
1.0
1001
ACAD
1000
MTEXTBEGIN
1070
    73
1070
     1
1070
    44
1040
1.0
1070
    74
1070
     0
1000
MTEXTEND
  0
POINT
  5
32996
330
3292A
100
AcDbEntity
  8
Defpoints
 62
     0
100
AcDbPoint
 10
3117.914324837376
 20
2030.268124644338
 30
0.0
  0
POINT
  5
32997
330
3292A
100
AcDbEntity
  8
Defpoints
 62
     0
100
AcDbPoint
 10
3157.914324837376
 20
2030.268124644338
 30
0.0
  0
POINT
  5
32998
330
3292A
100
AcDbEntity
  8
Defpoints
 62
     0
100
AcDbPoint
 10
3157.914324837376
 20
2018.768124644338
 30
0.0
  0
ENDBLK
  5
32935
330
3292A
100
AcDbEntity
  8
0
100
AcDbBlockEnd
  0
BLOCK
  5
32940
330
32936
100
AcDbEntity
  8
0
100
AcDbBlockBegin
  2
*D14
 70
     1
 10
0.0
 20
0.0
 30
0.0
  3
*D14
  1

  0
LINE
  5
32A9F
330
32936
100
AcDbEntity
  8
AM_5
100
AcDbLine
 10
3156.414324837376
 20
2026.768124644338
 30
0.0
 11
3166.914324837376
 21
2026.768124644338
 31
0.0
  0
LINE
  5
32AA0
330
32936
100
AcDbEntity
  8
AM_5
100
AcDbLine
 10
3158.914324837376
 20
2039.268124644338
 30
0.0
 11
3166.914324837376
 21
2039.268124644338
 31
0.0
  0
LINE
  5
32AA1
330
32936
100
AcDbEntity
  8
AM_5
100
AcDbLine
 10
3165.914324837376
 20
2027.768124644337
 30
0.0
 11
3165.914324837376
 21
2038.268124644337
 31
0.0
  0
INSERT
  5
32AA2
330
32936
100
AcDbEntity
  8
AM_5
100
AcDbBlockReference
  2
_Dot
 10
3165.914324837376
 20
2026.768124644338
 30
0.0
 50
270.0
  0
INSERT
  5
32AA3
330
32936
100
AcDbEntity
  8
AM_5
100
AcDbBlockReference
  2
_Dot
 10
3165.914324837376
 20
2039.268124644338
 30
0.0
 50
90.0
  0
MTEXT
  5
32AA4
330
32936
100
AcDbEntity
  8
AM_5
 62
     2
100
AcDbMText
 10
3163.314324837376
 20
2033.018124644338
 30
0.0
 40
3.200000000000001
 41
0.0
 71
     5
 72
     1
  1
I
 11
0.0000000000000001
 21
1.0
 31
0.0
 73
     1
 44
1.0
1001
ACAD
1000
MTEXTBEGIN
1070
    73
1070
     1
1070
    44
1040
1.0
1070
    74
1070
     0
1000
MTEXTEND
  0
POINT
  5
32AA5
330
32936
100
AcDbEntity
  8
Defpoints
 62
     0
100
AcDbPoint
 10
3155.414324837376
 20
2026.768124644338
 30
0.0
  0
POINT
  5
32AA6
330
32936
100
AcDbEntity
  8
Defpoints
 62
     0
100
AcDbPoint
 10
3157.914324837376
 20
2039.268124644338
 30
0.0
  0
POINT
  5
32AA7
330
32936
100
AcDbEntity
  8
Defpoints
 62
     0
100
AcDbPoint
 10
3165.914324837376
 20
2039.268124644338
 30
0.0
  0
ENDBLK
  5
32941
330
32936
100
AcDbEntity
  8
0
100
AcDbBlockEnd
  0
BLOCK
  5
3294C
330
32942
100
AcDbEntity
  8
0
100
AcDbBlockBegin
  2
*D15
 70
     1
 10
0.0
 20
0.0
 30
0.0
  3
*D15
  1

  0
LINE
  5
32A87
330
32942
100
AcDbEntity
  8
AM_5
100
AcDbLine
 10
3157.414324837376
 20
2049.768124644338
 30
0.0
 11
3166.914324837376
 21
2049.768124644338
 31
0.0
  0
LINE
  5
32A88
330
32942
100
AcDbEntity
  8
AM_5
100
AcDbLine
 10
3141.914324837376
 20
2073.768124644338
 30
0.0
 11
3166.914324837376
 21
2073.768124644338
 31
0.0
  0
LINE
  5
32A89
330
32942
100
AcDbEntity
  8
AM_5
100
AcDbLine
 10
3165.914324837376
 20
2050.768124644338
 30
0.0
 11
3165.914324837376
 21
2072.768124644338
 31
0.0
  0
INSERT
  5
32A8A
330
32942
100
AcDbEntity
  8
AM_5
100
AcDbBlockReference
  2
_Dot
 10
3165.914324837376
 20
2049.768124644338
 30
0.0
 50
270.0
  0
INSERT
  5
32A8B
330
32942
100
AcDbEntity
  8
AM_5
100
AcDbBlockReference
  2
_Dot
 10
3165.914324837376
 20
2073.768124644338
 30
0.0
 50
90.0
  0
MTEXT
  5
32A8C
330
32942
100
AcDbEntity
  8
AM_5
 62
     2
100
AcDbMText
 10
3163.314324837376
 20
2061.768124644339
 30
0.0
 40
3.200000000000001
 41
0.0
 71
     5
 72
     1
  1
L1
 11
0.0000000000000001
 21
1.0
 31
0.0
 73
     1
 44
1.0
1001
ACAD
1000
MTEXTBEGIN
1070
    73
1070
     1
1070
    44
1040
1.0
1070
    74
1070
     0
1000
MTEXTEND
  0
POINT
  5
32A8D
330
32942
100
AcDbEntity
  8
Defpoints
 62
     0
100
AcDbPoint
 10
3156.414324837376
 20
2049.768124644338
 30
0.0
  0
POINT
  5
32A8E
330
32942
100
AcDbEntity
  8
Defpoints
 62
     0
100
AcDbPoint
 10
3140.914324837376
 20
2073.768124644338
 30
0.0
  0
POINT
  5
32A8F
330
32942
100
AcDbEntity
  8
Defpoints
 62
     0
100
AcDbPoint
 10
3165.914324837376
 20
2073.768124644338
 30
0.0
  0
ENDBLK
  5
3294D
330
32942
100
AcDbEntity
  8
0
100
AcDbBlockEnd
  0
BLOCK
  5
32958
330
3294E
100
AcDbEntity
  8
0
100
AcDbBlockBegin
  2
*D16
 70
     1
 10
0.0
 20
0.0
 30
0.0
  3
*D16
  1

  0
LINE
  5
329AB
330
3294E
100
AcDbEntity
  8
AM_5
100
AcDbLine
 10
3156.414324837376
 20
2026.768124644338
 30
0.0
 11
3174.914324837376
 21
2026.768124644338
 31
0.0
  0
LINE
  5
329AC
330
3294E
100
AcDbEntity
  8
AM_5
100
AcDbLine
 10
3141.914324837376
 20
2073.768124644338
 30
0.0
 11
3174.914324837376
 21
2073.768124644338
 31
0.0
  0
LINE
  5
329AD
330
3294E
100
AcDbEntity
  8
AM_5
100
AcDbLine
 10
3173.914324837376
 20
2027.768124644337
 30
0.0
 11
3173.914324837376
 21
2072.768124644338
 31
0.0
  0
INSERT
  5
329AE
330
3294E
100
AcDbEntity
  8
AM_5
100
AcDbBlockReference
  2
_Dot
 10
3173.914324837376
 20
2026.768124644338
 30
0.0
 50
270.0
  0
INSERT
  5
329AF
330
3294E
100
AcDbEntity
  8
AM_5
100
AcDbBlockReference
  2
_Dot
 10
3173.914324837376
 20
2073.768124644338
 30
0.0
 50
90.0
  0
MTEXT
  5
329B0
330
3294E
100
AcDbEntity
  8
AM_5
 62
     2
100
AcDbMText
 10
3171.314324837376
 20
2051.308819782711
 30
0.0
 40
3.200000000000001
 41
0.0
 71
     5
 72
     1
  1
L2
 11
0.0000000000000001
 21
1.0
 31
0.0
 73
     1
 44
1.0
1001
ACAD
1000
MTEXTBEGIN
1070
    73
1070
     1
1070
    44
1040
1.0
1070
    74
1070
     0
1000
MTEXTEND
  0
POINT
  5
329B1
330
3294E
100
AcDbEntity
  8
Defpoints
 62
     0
100
AcDbPoint
 10
3155.414324837376
 20
2026.768124644338
 30
0.0
  0
POINT
  5
329B2
330
3294E
100
AcDbEntity
  8
Defpoints
 62
     0
100
AcDbPoint
 10
3140.914324837376
 20
2073.768124644338
 30
0.0
  0
POINT
  5
329B3
330
3294E
100
AcDbEntity
  8
Defpoints
 62
     0
100
AcDbPoint
 10
3173.914324837376
 20
2073.768124644338
 30
0.0
  0
ENDBLK
  5
32959
330
3294E
100
AcDbEntity
  8
0
100
AcDbBlockEnd
  0
BLOCK
  5
329F0
330
329E6
100
AcDbEntity
  8
0
100
AcDbBlockBegin
  2
*D17
 70
     1
 10
0.0
 20
0.0
 30
0.0
  3
*D17
  1

  0
LINE
  5
32A28
330
329E6
100
AcDbEntity
  8
AM_5
100
AcDbLine
 10
3235.705402038574
 20
2039.268124644338
 30
0.0
 11
3243.705402038575
 21
2039.268124644338
 31
0.0
  0
LINE
  5
32A29
330
329E6
100
AcDbEntity
  8
AM_5
100
AcDbLine
 10
3234.205402038574
 20
2080.768124644338
 30
0.0
 11
3243.705402038575
 21
2080.768124644338
 31
0.0
  0
LINE
  5
32A2A
330
329E6
100
AcDbEntity
  8
AM_5
100
AcDbLine
 10
3242.705402038575
 20
2040.268124644338
 30
0.0
 11
3242.705402038575
 21
2079.768124644338
 31
0.0
  0
INSERT
  5
32A2B
330
329E6
100
AcDbEntity
  8
AM_5
100
AcDbBlockReference
  2
_Dot
 10
3242.705402038575
 20
2039.268124644338
 30
0.0
 50
270.0
  0
INSERT
  5
32A2C
330
329E6
100
AcDbEntity
  8
AM_5
100
AcDbBlockReference
  2
_Dot
 10
3242.705402038575
 20
2080.768124644338
 30
0.0
 50
90.0
  0
MTEXT
  5
32A2D
330
329E6
100
AcDbEntity
  8
AM_5
 62
     2
100
AcDbMText
 10
3240.105402038575
 20
2060.018124644338
 30
0.0
 40
3.200000000000001
 41
0.0
 71
     5
 72
     1
  1
H
 11
0.0000000000000001
 21
1.0
 31
0.0
 73
     1
 44
1.0
1001
ACAD
1000
MTEXTBEGIN
1070
    73
1070
     1
1070
    44
1040
1.0
1070
    74
1070
     0
1000
MTEXTEND
  0
POINT
  5
32A2E
330
329E6
100
AcDbEntity
  8
Defpoints
 62
     0
100
AcDbPoint
 10
3234.705402038574
 20
2039.268124644338
 30
0.0
  0
POINT
  5
32A2F
330
329E6
100
AcDbEntity
  8
Defpoints
 62
     0
100
AcDbPoint
 10
3233.205402038574
 20
2080.768124644338
 30
0.0
  0
POINT
  5
32A30
330
329E6
100
AcDbEntity
  8
Defpoints
 62
     0
100
AcDbPoint
 10
3242.705402038575
 20
2080.768124644338
 30
0.0
  0
ENDBLK
  5
329F1
330
329E6
100
AcDbEntity
  8
0
100
AcDbBlockEnd
  0
BLOCK
  5
32A57
330
32A4D
100
AcDbEntity
  8
0
100
AcDbBlockBegin
  2
*D18
 70
     1
 10
0.0
 20
0.0
 30
0.0
  3
*D18
  1

  0
LINE
  5
32AA8
330
32A4D
100
AcDbEntity
  8
AM_5
100
AcDbLine
 10
3158.914324837376
 20
2039.268124644338
 30
0.0
 11
3166.914324837376
 21
2039.268124644338
 31
0.0
  0
LINE
  5
32AA9
330
32A4D
100
AcDbEntity
  8
AM_5
100
AcDbLine
 10
3157.414324837376
 20
2049.768124644338
 30
0.0
 11
3166.914324837376
 21
2049.768124644338
 31
0.0
  0
LINE
  5
32AAA
330
32A4D
100
AcDbEntity
  8
AM_5
100
AcDbLine
 10
3165.914324837376
 20
2040.268124644338
 30
0.0
 11
3165.914324837376
 21
2048.768124644338
 31
0.0
  0
INSERT
  5
32AAB
330
32A4D
100
AcDbEntity
  8
AM_5
100
AcDbBlockReference
  2
_Dot
 10
3165.914324837376
 20
2039.268124644338
 30
0.0
 50
270.0
  0
INSERT
  5
32AAC
330
32A4D
100
AcDbEntity
  8
AM_5
100
AcDbBlockReference
  2
_Dot
 10
3165.914324837376
 20
2049.768124644338
 30
0.0
 50
90.0
  0
MTEXT
  5
32AAD
330
32A4D
100
AcDbEntity
  8
AM_5
 62
     2
100
AcDbMText
 10
3163.314324837376
 20
2044.518124644338
 30
0.0
 40
3.200000000000001
 41
0.0
 71
     5
 72
     1
  1
H
 11
0.0000000000000001
 21
1.0
 31
0.0
 73
     1
 44
1.0
1001
ACAD
1000
MTEXTBEGIN
1070
    73
1070
     1
1070
    44
1040
1.0
1070
    74
1070
     0
1000
MTEXTEND
  0
POINT
  5
32AAE
330
32A4D
100
AcDbEntity
  8
Defpoints
 62
     0
100
AcDbPoint
 10
3157.914324837376
 20
2039.268124644338
 30
0.0
  0
POINT
  5
32AAF
330
32A4D
100
AcDbEntity
  8
Defpoints
 62
     0
100
AcDbPoint
 10
3156.414324837376
 20
2049.768124644338
 30
0.0
  0
POINT
  5
32AB0
330
32A4D
100
AcDbEntity
  8
Defpoints
 62
     0
100
AcDbPoint
 10
3165.914324837376
 20
2049.768124644338
 30
0.0
  0
ENDBLK
  5
32A58
330
32A4D
100
AcDbEntity
  8
0
100
AcDbBlockEnd
  0
ENDSEC
  0
SECTION
  2
ENTITIES
  0
TEXT
  5
324A8
330
1F
100
AcDbEntity
  8
AM_6
 60
     1
100
AcDbText
 10
3265.523016408526
 20
1755.652930066888
 30
0.0
 40
2.5
  1
!GENTITLE-INSERT
100
AcDbText
  0
TEXT
  5
324A9
330
1F
100
AcDbEntity
  8
AM_6
 60
     1
100
AcDbText
 10
3277.023016408525
 20
1957.152930066888
 30
0.0
 40
2.5
  1
!GENTITLE-MAX
100
AcDbText
  0
TEXT
  5
324AA
330
1F
100
AcDbEntity
  8
AM_6
 60
     1
100
AcDbText
 10
3277.023016408525
 20
1957.152930066888
 30
0.0
 40
2.5
  1
!GENTITLE-RU
100
AcDbText
  0
LINE
  5
324AB
330
1F
100
AcDbEntity
  8
size
100
AcDbLine
 10
2980.023016408525
 20
1957.152930066888
 30
0.0
 11
3277.023016408525
 21
1957.152930066888
 31
0.0
1001
GENIUS_GENREC_14
1002
{
1000
PYDIR
1011
2980.023016408525
1021
2044.152930066888
1031
0.0
1002
}
1002
{
1000
PXDIR
1011
3400.023016408525
1021
1747.152930066888
1031
0.0
1002
}
1002
{
1000
PORI
1011
2980.023016408525
1021
1747.152930066888
1031
0.0
1002
}
1002
{
1000
PINS
1011
3190.023016408525
1021
1895.652930066888
1031
0.0
1002
}
1002
{
1000
HVAL
1000
297
1002
}
1002
{
1000
H
1070
     2
1002
}
1002
{
1000
WVAL
1000
420
1002
}
1002
{
1000
W
1070
     2
1002
}
1002
{
1000
C
1070
     4
1002
}
1001
GENIUS_GENOBJ-N-REC_13
1002
{
1000
OWNER
1000
GEN
1002
}
1001
GENIUS_GENODEF_13
1002
{
1000
HIER
1070
     0
1002
}
1002
{
1000
MANEDIT
1070
     0
1002
}
1002
{
1000
NOSEL
1070
     0
1002
}
1002
{
1000
BEHIND
1070
     0
1002
}
1002
{
1000
OTHER
1070
     0
1002
}
1002
{
1000
REACTOR
1002
}
  0
TEXT
  5
324AC
330
1F
100
AcDbEntity
  8
AM_6
 60
     1
100
AcDbText
 10
2980.023016408525
 20
1747.152930066888
 30
0.0
 40
2.5
  1
!GENTITLE-LL
100
AcDbText
  0
LINE
  5
32792
330
1F
100
AcDbEntity
  8
size
100
AcDbLine
 10
2980.023017636616
 20
2167.152929724795
 30
0.0
 11
3277.023017636615
 21
2167.152929724795
 31
0.0
1001
GENIUS_GENREC_14
1002
{
1000
PYDIR
1011
2980.023017636616
1021
2254.152929724795
1031
0.0
1002
}
1002
{
1000
PXDIR
1011
3400.023017636616
1021
1957.152929724795
1031
0.0
1002
}
1002
{
1000
PORI
1011
2980.023017636616
1021
1957.152929724795
1031
0.0
1002
}
1002
{
1000
PINS
1011
3190.023017636616
1021
2105.652929724795
1031
0.0
1002
}
1002
{
1000
HVAL
1000
297
1002
}
1002
{
1000
H
1070
     2
1002
}
1002
{
1000
WVAL
1000
420
1002
}
1002
{
1000
W
1070
     2
1002
}
1002
{
1000
C
1070
     4
1002
}
1001
GENIUS_GENOBJ-N-REC_13
1002
{
1000
OWNER
1000
GEN
1002
}
1001
GENIUS_GENODEF_13
1002
{
1000
HIER
1070
     0
1002
}
1002
{
1000
MANEDIT
1070
     0
1002
}
1002
{
1000
NOSEL
1070
     0
1002
}
1002
{
1000
BEHIND
1070
     0
1002
}
1002
{
1000
OTHER
1070
     0
1002
}
1002
{
1000
REACTOR
1002
}
  0
LINE
  5
32793
330
1F
100
AcDbEntity
  8
size
100
AcDbLine
 10
3277.023017636615
 20
2167.152929724795
 30
0.0
 11
3277.023017636615
 21
1957.152929724795
 31
0.0
1001
GENIUS_GENREC_14
1002
{
1000
PYDIR
1011
2980.023017636616
1021
2254.152929724795
1031
0.0
1002
}
1002
{
1000
PXDIR
1011
3400.023017636616
1021
1957.152929724795
1031
0.0
1002
}
1002
{
1000
PORI
1011
2980.023017636616
1021
1957.152929724795
1031
0.0
1002
}
1002
{
1000
PINS
1011
3190.023017636616
1021
2105.652929724795
1031
0.0
1002
}
1002
{
1000
HVAL
1000
297
1002
}
1002
{
1000
H
1070
     2
1002
}
1002
{
1000
WVAL
1000
420
1002
}
1002
{
1000
W
1070
     2
1002
}
1002
{
1000
C
1070
     4
1002
}
1001
GENIUS_GENOBJ-N-REC_13
1002
{
1000
OWNER
1000
GEN
1002
}
1001
GENIUS_GENODEF_13
1002
{
1000
HIER
1070
     0
1002
}
1002
{
1000
MANEDIT
1070
     0
1002
}
1002
{
1000
NOSEL
1070
     0
1002
}
1002
{
1000
BEHIND
1070
     0
1002
}
1002
{
1000
OTHER
1070
     0
1002
}
1002
{
1000
REACTOR
1002
}
  0
LINE
  5
32794
330
1F
100
AcDbEntity
  8
waku
100
AcDbLine
 10
2991.523017636616
 20
1965.652929724795
 30
0.0
 11
3265.523017636616
 21
1965.652929724795
 31
0.0
1001
GENIUS_GENREC_14
1002
{
1000
PYDIR
1011
2980.023017636616
1021
2254.152929724795
1031
0.0
1002
}
1002
{
1000
PXDIR
1011
3400.023017636616
1021
1957.152929724795
1031
0.0
1002
}
1002
{
1000
PORI
1011
2980.023017636616
1021
1957.152929724795
1031
0.0
1002
}
1002
{
1000
PINS
1011
3190.023017636616
1021
2105.652929724795
1031
0.0
1002
}
1002
{
1000
HVAL
1000
297
1002
}
1002
{
1000
H
1070
     2
1002
}
1002
{
1000
WVAL
1000
420
1002
}
1002
{
1000
W
1070
     2
1002
}
1002
{
1000
C
1070
     4
1002
}
  0
LINE
  5
32795
330
1F
100
AcDbEntity
  8
waku
100
AcDbLine
 10
3265.523017636616
 20
2158.652929724795
 30
0.0
 11
2991.523017636616
 21
2158.652929724795
 31
0.0
1001
GENIUS_GENREC_14
1002
{
1000
PYDIR
1011
2857.023017636616
1021
2167.152929724795
1031
0.0
1002
}
1002
{
1000
PXDIR
1011
3277.023017636615
1021
1870.152929724795
1031
0.0
1002
}
1002
{
1000
PORI
1011
2857.023017636616
1021
1870.152929724795
1031
0.0
1002
}
1002
{
1000
PINS
1011
3067.023017636616
1021
2018.652929724795
1031
0.0
1002
}
1002
{
1000
HVAL
1000
297
1002
}
1002
{
1000
H
1070
     2
1002
}
1002
{
1000
WVAL
1000
420
1002
}
1002
{
1000
W
1070
     2
1002
}
1002
{
1000
C
1070
     4
1002
}
1001
GENIUS_GENOBJ-N-REC_13
1002
{
1000
OWNER
1000
GEN
1002
}
1001
GENIUS_GENODEF_13
1002
{
1000
HIER
1070
     0
1002
}
1002
{
1000
MANEDIT
1070
     0
1002
}
1002
{
1000
NOSEL
1070
     0
1002
}
1002
{
1000
BEHIND
1070
     0
1002
}
1002
{
1000
OTHER
1070
     0
1002
}
1002
{
1000
REACTOR
1002
}
  0
LINE
  5
32796
330
1F
100
AcDbEntity
  8
waku
100
AcDbLine
 10
2991.523017636616
 20
2158.652929724795
 30
0.0
 11
2991.523017636616
 21
1965.652929724795
 31
0.0
1001
GENIUS_GENREC_14
1002
{
1000
PYDIR
1011
2980.023017636616
1021
2254.152929724795
1031
0.0
1002
}
1002
{
1000
PXDIR
1011
3400.023017636616
1021
1957.152929724795
1031
0.0
1002
}
1002
{
1000
PORI
1011
2980.023017636616
1021
1957.152929724795
1031
0.0
1002
}
1002
{
1000
PINS
1011
3190.023017636616
1021
2105.652929724795
1031
0.0
1002
}
1002
{
1000
HVAL
1000
297
1002
}
1002
{
1000
H
1070
     2
1002
}
1002
{
1000
WVAL
1000
420
1002
}
1002
{
1000
W
1070
     2
1002
}
1002
{
1000
C
1070
     4
1002
}
1001
GENIUS_GENOBJ-N-REC_13
1002
{
1000
OWNER
1000
GEN
1002
}
1001
GENIUS_GENODEF_13
1002
{
1000
HIER
1070
     0
1002
}
1002
{
1000
MANEDIT
1070
     0
1002
}
1002
{
1000
NOSEL
1070
     0
1002
}
1002
{
1000
BEHIND
1070
     0
1002
}
1002
{
1000
OTHER
1070
     0
1002
}
1002
{
1000
REACTOR
1002
}
  0
LINE
  5
32797
330
1F
100
AcDbEntity
  8
waku
100
AcDbLine
 10
3265.523017636616
 20
1965.652929724795
 30
0.0
 11
3265.523017636616
 21
2158.652929724795
 31
0.0
1001
GENIUS_GENREC_14
1002
{
1000
PYDIR
1011
2857.023017636616
1021
2173.152929724795
1031
0.0
1002
}
1002
{
1000
PXDIR
1011
3277.023017636615
1021
1876.152929724795
1031
0.0
1002
}
1002
{
1000
PORI
1011
2857.023017636616
1021
1876.152929724795
1031
0.0
1002
}
1002
{
1000
PINS
1011
3067.023017636616
1021
2024.652929724795
1031
0.0
1002
}
1002
{
1000
HVAL
1000
297
1002
}
1002
{
1000
H
1070
     2
1002
}
1002
{
1000
WVAL
1000
420
1002
}
1002
{
1000
W
1070
     2
1002
}
1002
{
1000
C
1070
     4
1002
}
1001
GENIUS_GENOBJ-N-REC_13
1002
{
1000
OWNER
1000
GEN
1002
}
1001
GENIUS_GENODEF_13
1002
{
1000
HIER
1070
     0
1002
}
1002
{
1000
MANEDIT
1070
     0
1002
}
1002
{
1000
NOSEL
1070
     0
1002
}
1002
{
1000
BEHIND
1070
     0
1002
}
1002
{
1000
OTHER
1070
     0
1002
}
1002
{
1000
REACTOR
1002
}
  0
LINE
  5
32798
330
1F
100
AcDbEntity
  8
size
100
AcDbLine
 10
2980.023017636616
 20
2167.152929724795
 30
0.0
 11
2980.023017636616
 21
1957.152929724795
 31
0.0
1001
GENIUS_GENREC_14
1002
{
1000
PYDIR
1011
2980.023017636616
1021
2254.152929724795
1031
0.0
1002
}
1002
{
1000
PXDIR
1011
3400.023017636616
1021
1957.152929724795
1031
0.0
1002
}
1002
{
1000
PORI
1011
2980.023017636616
1021
1957.152929724795
1031
0.0
1002
}
1002
{
1000
PINS
1011
3190.023017636616
1021
2105.652929724795
1031
0.0
1002
}
1002
{
1000
HVAL
1000
297
1002
}
1002
{
1000
H
1070
     2
1002
}
1002
{
1000
WVAL
1000
420
1002
}
1002
{
1000
W
1070
     2
1002
}
1002
{
1000
C
1070
     4
1002
}
1001
GENIUS_GENOBJ-N-REC_13
1002
{
1000
OWNER
1000
GEN
1002
}
1001
GENIUS_GENODEF_13
1002
{
1000
HIER
1070
     0
1002
}
1002
{
1000
MANEDIT
1070
     0
1002
}
1002
{
1000
NOSEL
1070
     0
1002
}
1002
{
1000
BEHIND
1070
     0
1002
}
1002
{
1000
OTHER
1070
     0
1002
}
1002
{
1000
REACTOR
1002
}
  0
LINE
  5
3279A
330
1F
100
AcDbEntity
  8
AM_2
370
    13
100
AcDbLine
 10
3011.523017636616
 20
2158.652929724795
 30
0.0
 11
3011.523017636616
 21
2087.986263058123
 31
0.0
  0
LINE
  5
3279B
330
1F
100
AcDbEntity
  8
AM_2
370
    13
100
AcDbLine
 10
2991.523017636616
 20
2150.652929724795
 30
0.0
 11
3074.523017636616
 21
2150.652929724795
 31
0.0
  0
LINE
  5
3279C
330
1F
100
AcDbEntity
  8
AM_2
370
    13
100
AcDbLine
 10
2991.523017636616
 20
2142.652929724795
 30
0.0
 11
3074.523017636616
 21
2142.652929724795
 31
0.0
  0
LINE
  5
3279D
330
1F
100
AcDbEntity
  8
AM_0
100
AcDbLine
 10
2991.523017636616
 20
2158.652929724795
 30
0.0
 11
2991.523017636616
 21
2118.38626305813
 31
0.0
  0
LINE
  5
3279E
330
1F
100
AcDbEntity
  8
AM_0
100
AcDbLine
 10
2991.523017636616
 20
2158.652929724795
 30
0.0
 11
3074.523017636616
 21
2158.652929724795
 31
0.0
  0
LINE
  5
3279F
330
1F
100
AcDbEntity
  8
AM_1
100
AcDbLine
 10
3074.523017636616
 20
2158.652929724795
 30
0.0
 11
3074.523017636617
 21
2087.986263058123
 31
0.0
  0
TEXT
  5
327A0
330
1F
100
AcDbEntity
  8
AM_6
100
AcDbText
 10
2997.180017636617
 20
2153.052929724795
 30
0.0
 40
3.2
  1
品　名
 41
0.85537027
100
AcDbText
  0
TEXT
  5
327A1
330
1F
100
AcDbEntity
  8
AM_6
100
AcDbText
 10
2997.180017636617
 20
2145.052929724795
 30
0.0
 40
3.2
  1
品　番
 41
0.85537027
100
AcDbText
  0
TEXT
  5
327A2
330
1F
100
AcDbEntity
  8
AM_6
100
AcDbText
 10
2997.180017636618
 20
2137.052929724795
 30
0.0
 40
3.2
  1
材　質
 41
0.85537027
100
AcDbText
  0
TEXT
  5
327A3
330
1F
100
AcDbEntity
  8
AM_6
100
AcDbText
 10
2997.180017636618
 20
2113.852929724791
 30
0.0
 40
3.2
  1
仕上げ
 41
0.85537027
100
AcDbText
  0
TEXT
  5
327A4
330
1F
100
AcDbEntity
  8
AM_6
100
AcDbText
 10
3014.380017636616
 20
2153.052929724795
 30
0.0
 40
3.2
  1
フットボルト
 41
0.84306961
100
AcDbText
  0
TEXT
  5
327A5
330
1F
100
AcDbEntity
  8
AM_6
100
AcDbText
 10
3014.380017636616
 20
2145.052929724795
 30
0.0
 40
3.2
  1
EA16-「 」
 41
0.84741102
100
AcDbText
  0
TEXT
  5
327A6
330
1F
100
AcDbEntity
  8
AM_6
100
AcDbText
 10
3014.380017636617
 20
2137.052929724795
 30
0.0
 40
3.2
  1
シャフト：スチール
 41
0.84634979
100
AcDbText
  0
LINE
  5
327A7
330
1F
100
AcDbEntity
  8
AM_1
100
AcDbLine
 10
2991.523017636616
 20
2087.986263058123
 30
0.0
 11
3074.523017636617
 21
2087.986263058123
 31
0.0
  0
TEXT
  5
327A9
330
1F
100
AcDbEntity
  8
AM_6
100
AcDbText
 10
2997.180017636618
 20
2090.38626305812
 30
0.0
 40
3.2
  1
備　考
 41
0.85537027
100
AcDbText
  0
LINE
  5
327AA
330
1F
100
AcDbEntity
  8
0部品17
100
AcDbLine
 10
3195.205402038574
 20
2079.768124644338
 30
0.0
 11
3195.205402038574
 21
2079.268124644338
 31
0.0
  0
ARC
  5
327AB
330
1F
100
AcDbEntity
  8
0部品17
100
AcDbCircle
 10
3196.205402038574
 20
2079.768124644338
 30
0.0
 40
1.0
100
AcDbArc
 50
90.0
 51
180.0
  0
LINE
  5
327AC
330
1F
100
AcDbEntity
  8
0部品17
100
AcDbLine
 10
3214.705402038574
 20
2079.268124644338
 30
0.0
 11
3214.705402038574
 21
2040.268124644338
 31
0.0
  0
LINE
  5
327AD
330
1F
100
AcDbEntity
  8
2
  6
Continuous
 62
     7
370
     9
100
AcDbLine
 10
3214.705402038574
 20
2079.268124644338
 30
0.0
 11
3214.705402038574
 21
2071.268124644338
 31
0.0
  0
LINE
  5
327AE
330
1F
100
AcDbEntity
  8
2
  6
Continuous
 62
     7
370
     9
100
AcDbLine
 10
3214.705402038574
 20
2079.268124644338
 30
0.0
 11
3214.705402038574
 21
2071.268124644338
 31
0.0
  0
LINE
  5
327AF
330
1F
100
AcDbEntity
  8
2
  6
Continuous
 62
     7
370
     9
100
AcDbLine
 10
3214.705402038574
 20
2079.268124644338
 30
0.0
 11
3214.705402038574
 21
2071.268124644338
 31
0.0
  0
LINE
  5
327B0
330
1F
100
AcDbEntity
  8
0部品15
100
AcDbLine
 10
3198.705402038574
 20
2039.268124644338
 30
0.0
 11
3198.705402038574
 21
2040.268124644338
 31
0.0
  0
LINE
  5
327B1
330
1F
100
AcDbEntity
  8
0部品13
100
AcDbLine
 10
3195.705402038574
 20
2030.268124644338
 30
0.0
 11
3195.705402038574
 21
2029.268124644338
 31
0.0
  0
LINE
  5
327B2
330
1F
100
AcDbEntity
  8
0部品13
100
AcDbLine
 10
3197.205402038574
 20
2026.768124644338
 30
0.0
 11
3197.205402038574
 21
2028.268124644338
 31
0.0
  0
ARC
  5
327B3
330
1F
100
AcDbEntity
  8
0部品13
100
AcDbCircle
 10
3196.705402038575
 20
2029.268124644338
 30
0.0
 40
1.0
100
AcDbArc
 50
180.0
 51
270.0
  0
LINE
  5
327B4
330
1F
100
AcDbEntity
  8
0部品13
100
AcDbLine
 10
3200.205402038574
 20
2026.768124644338
 30
0.0
 11
3200.205402038574
 21
2028.268124644338
 31
0.0
  0
LINE
  5
327B5
330
1F
100
AcDbEntity
  8
0部品13
100
AcDbLine
 10
3199.205402038574
 20
2026.768124644338
 30
0.0
 11
3199.205402038574
 21
2028.268124644338
 31
0.0
  0
LINE
  5
327B6
330
1F
100
AcDbEntity
  8
0部品13
100
AcDbLine
 10
3199.205402038574
 20
2026.768124644338
 30
0.0
 11
3197.205402038574
 21
2026.768124644338
 31
0.0
  0
LINE
  5
327B7
330
1F
100
AcDbEntity
  8
0部品15
100
AcDbLine
 10
3194.705402038574
 20
2039.268124644338
 30
0.0
 11
3194.705402038574
 21
2030.268124644338
 31
0.0
  0
LINE
  5
327B8
330
1F
100
AcDbEntity
  8
0部品13
100
AcDbLine
 10
3205.205402038574
 20
2026.768124644338
 30
0.0
 11
3205.205402038574
 21
2028.268124644338
 31
0.0
  0
LINE
  5
327B9
330
1F
100
AcDbEntity
  8
0部品13
100
AcDbLine
 10
3203.205402038574
 20
2026.768124644338
 30
0.0
 11
3203.205402038574
 21
2028.268124644338
 31
0.0
  0
LINE
  5
327BA
330
1F
100
AcDbEntity
  8
0部品13
100
AcDbLine
 10
3205.205402038574
 20
2026.768124644338
 30
0.0
 11
3203.205402038574
 21
2026.768124644338
 31
0.0
  0
LINE
  5
327BB
330
1F
100
AcDbEntity
  8
0部品13
100
AcDbLine
 10
3202.205402038574
 20
2026.768124644338
 30
0.0
 11
3202.205402038574
 21
2028.268124644338
 31
0.0
  0
LINE
  5
327BC
330
1F
100
AcDbEntity
  8
0部品13
100
AcDbLine
 10
3209.205402038574
 20
2026.768124644338
 30
0.0
 11
3209.205402038574
 21
2028.268124644338
 31
0.0
  0
LINE
  5
327BD
330
1F
100
AcDbEntity
  8
0部品13
100
AcDbLine
 10
3208.205402038574
 20
2026.768124644338
 30
0.0
 11
3206.205402038574
 21
2026.768124644338
 31
0.0
  0
LINE
  5
327BE
330
1F
100
AcDbEntity
  8
0部品13
100
AcDbLine
 10
3206.205402038574
 20
2026.768124644338
 30
0.0
 11
3206.205402038574
 21
2028.268124644338
 31
0.0
  0
LINE
  5
327BF
330
1F
100
AcDbEntity
  8
0部品13
100
AcDbLine
 10
3208.205402038574
 20
2026.768124644338
 30
0.0
 11
3208.205402038574
 21
2028.268124644338
 31
0.0
  0
LINE
  5
327C0
330
1F
100
AcDbEntity
  8
0部品13
100
AcDbLine
 10
3214.205402038575
 20
2026.768124644338
 30
0.0
 11
3212.205402038574
 21
2026.768124644338
 31
0.0
  0
LINE
  5
327C1
330
1F
100
AcDbEntity
  8
0部品13
100
AcDbLine
 10
3212.205402038574
 20
2026.768124644338
 30
0.0
 11
3212.205402038574
 21
2028.268124644338
 31
0.0
  0
LINE
  5
327C2
330
1F
100
AcDbEntity
  8
0部品13
100
AcDbLine
 10
3211.205402038574
 20
2026.768124644338
 30
0.0
 11
3211.205402038574
 21
2028.268124644338
 31
0.0
  0
LINE
  5
327C3
330
1F
100
AcDbEntity
  8
0部品13
100
AcDbLine
 10
3214.205402038575
 20
2026.768124644338
 30
0.0
 11
3214.205402038575
 21
2028.268124644338
 31
0.0
  0
LINE
  5
327C4
330
1F
100
AcDbEntity
  8
0部品13
100
AcDbLine
 10
3211.205402038574
 20
2026.768124644338
 30
0.0
 11
3209.205402038574
 21
2026.768124644338
 31
0.0
  0
LINE
  5
327C5
330
1F
100
AcDbEntity
  8
0部品13
100
AcDbLine
 10
3202.205402038574
 20
2026.768124644338
 30
0.0
 11
3200.205402038574
 21
2026.768124644338
 31
0.0
  0
LINE
  5
327C6
330
1F
100
AcDbEntity
  8
0部品13
100
AcDbLine
 10
3232.705402038574
 20
2028.268124644338
 30
0.0
 11
3196.705402038575
 21
2028.268124644338
 31
0.0
  0
LINE
  5
327C7
330
1F
100
AcDbEntity
  8
0部品17
100
AcDbLine
 10
3234.705402038574
 20
2040.268124644338
 30
0.0
 11
3194.705402038574
 21
2040.268124644338
 31
0.0
  0
LINE
  5
327C8
330
1F
100
AcDbEntity
  8
0部品17
100
AcDbLine
 10
3213.310273038575
 20
2079.268124644338
 30
0.0
 11
3213.310273038575
 21
2040.268124644338
 31
0.0
  0
LINE
  5
327C9
330
1F
100
AcDbEntity
  8
0部品17
100
AcDbLine
 10
3211.921940038575
 20
2079.268124644338
 30
0.0
 11
3211.921940038575
 21
2040.268124644338
 31
0.0
  0
LINE
  5
327CA
330
1F
100
AcDbEntity
  8
0部品17
100
AcDbLine
 10
3210.547169038574
 20
2079.268124644338
 30
0.0
 11
3210.547169038574
 21
2040.268124644338
 31
0.0
  0
LINE
  5
327CB
330
1F
100
AcDbEntity
  8
0部品17
100
AcDbLine
 10
3209.192656038574
 20
2079.268124644338
 30
0.0
 11
3209.192656038574
 21
2040.268124644338
 31
0.0
  0
LINE
  5
327CC
330
1F
100
AcDbEntity
  8
0部品17
100
AcDbLine
 10
3207.865000038574
 20
2079.268124644338
 30
0.0
 11
3207.865000038574
 21
2040.268124644338
 31
0.0
  0
LINE
  5
327CD
330
1F
100
AcDbEntity
  8
0部品17
100
AcDbLine
 10
3206.570670038574
 20
2079.268124644338
 30
0.0
 11
3206.570670038574
 21
2040.268124644338
 31
0.0
  0
LINE
  5
327CE
330
1F
100
AcDbEntity
  8
0部品17
100
AcDbLine
 10
3205.315972038574
 20
2079.268124644338
 30
0.0
 11
3205.315972038574
 21
2040.268124644338
 31
0.0
  0
LINE
  5
327CF
330
1F
100
AcDbEntity
  8
0部品17
100
AcDbLine
 10
3204.107018038575
 20
2079.268124644338
 30
0.0
 11
3204.107018038575
 21
2040.268124644338
 31
0.0
  0
LINE
  5
327D0
330
1F
100
AcDbEntity
  8
0部品17
100
AcDbLine
 10
3202.949699038575
 20
2079.268124644338
 30
0.0
 11
3202.949699038575
 21
2040.268124644338
 31
0.0
  0
LINE
  5
327D1
330
1F
100
AcDbEntity
  8
0部品17
100
AcDbLine
 10
3201.849652038575
 20
2079.268124644338
 30
0.0
 11
3201.849652038575
 21
2040.268124644338
 31
0.0
  0
LINE
  5
327D2
330
1F
100
AcDbEntity
  8
0部品17
100
AcDbLine
 10
3200.812237038574
 20
2079.268124644338
 30
0.0
 11
3200.812237038574
 21
2040.268124644338
 31
0.0
  0
LINE
  5
327D3
330
1F
100
AcDbEntity
  8
0部品17
100
AcDbLine
 10
3199.842508038575
 20
2079.268124644338
 30
0.0
 11
3199.842508038575
 21
2040.268124644338
 31
0.0
  0
LINE
  5
327D4
330
1F
100
AcDbEntity
  8
0部品17
100
AcDbLine
 10
3198.945189038574
 20
2079.268124644338
 30
0.0
 11
3198.945189038574
 21
2040.268124644338
 31
0.0
  0
LINE
  5
327D5
330
1F
100
AcDbEntity
  8
0部品17
100
AcDbLine
 10
3198.124653038574
 20
2079.268124644338
 30
0.0
 11
3198.124653038574
 21
2040.268124644338
 31
0.0
  0
LINE
  5
327D6
330
1F
100
AcDbEntity
  8
0部品17
100
AcDbLine
 10
3197.384897038574
 20
2079.268124644338
 30
0.0
 11
3197.384897038574
 21
2040.268124644338
 31
0.0
  0
LINE
  5
327D7
330
1F
100
AcDbEntity
  8
0部品17
100
AcDbLine
 10
3196.161728038574
 20
2079.268124644338
 30
0.0
 11
3196.161728038574
 21
2040.268124644338
 31
0.0
  0
LINE
  5
327D8
330
1F
100
AcDbEntity
  8
0部品17
100
AcDbLine
 10
3196.729524038574
 20
2079.268124644338
 30
0.0
 11
3196.729524038574
 21
2040.268124644338
 31
0.0
  0
LINE
  5
327D9
330
1F
100
AcDbEntity
  8
0部品17
100
AcDbLine
 10
3195.684275038574
 20
2079.268124644338
 30
0.0
 11
3195.684275038574
 21
2040.268124644338
 31
0.0
  0
LINE
  5
327DA
330
1F
100
AcDbEntity
  8
0部品17
100
AcDbLine
 10
3195.299490038574
 20
2079.268124644338
 30
0.0
 11
3195.299490038574
 21
2040.268124644338
 31
0.0
  0
LINE
  5
327DB
330
1F
100
AcDbEntity
  8
0部品17
100
AcDbLine
 10
3195.009250038574
 20
2079.268124644338
 30
0.0
 11
3195.009250038574
 21
2040.268124644338
 31
0.0
  0
LINE
  5
327DC
330
1F
100
AcDbEntity
  8
0部品17
100
AcDbLine
 10
3194.814967038575
 20
2079.268124644338
 30
0.0
 11
3194.814967038575
 21
2040.268124644338
 31
0.0
  0
LINE
  5
327DD
330
1F
100
AcDbEntity
  8
0部品17
100
AcDbLine
 10
3194.705402038574
 20
2079.268124644338
 30
0.0
 11
3194.705402038574
 21
2040.268124644338
 31
0.0
  0
LINE
  5
327DE
330
1F
100
AcDbEntity
  8
2
  6
Continuous
 62
     7
370
     9
100
AcDbLine
 10
3214.705402038574
 20
2079.268124644338
 30
0.0
 11
3214.705402038574
 21
2071.268124644338
 31
0.0
  0
LINE
  5
327DF
330
1F
100
AcDbEntity
  8
2
  6
Continuous
 62
     7
370
     9
100
AcDbLine
 10
3214.705402038574
 20
2079.268124644338
 30
0.0
 11
3214.705402038574
 21
2071.268124644338
 31
0.0
  0
LINE
  5
327E0
330
1F
100
AcDbEntity
  8
0部品10
100
AcDbLine
 10
3210.705402038574
 20
2080.768124644338
 30
0.0
 11
3210.705402038574
 21
2111.768124644338
 31
0.0
  0
LINE
  5
327E1
330
1F
100
AcDbEntity
  8
0部品10
  6
細線
370
    13
100
AcDbLine
 10
3211.705402038574
 20
2080.768124644338
 30
0.0
 11
3211.705402038574
 21
2112.768124644338
 31
0.0
  0
LINE
  5
327E2
330
1F
100
AcDbEntity
  8
0部品15
100
AcDbLine
 10
3234.705402038574
 20
2039.268124644338
 30
0.0
 11
3234.705402038574
 21
2030.268124644338
 31
0.0
  0
LINE
  5
327E3
330
1F
100
AcDbEntity
  8
2
  6
Continuous
 62
     7
370
     9
100
AcDbLine
 10
3214.705402038574
 20
2079.268124644338
 30
0.0
 11
3214.705402038574
 21
2071.268124644338
 31
0.0
  0
LINE
  5
327E4
330
1F
100
AcDbEntity
  8
0部品13
100
AcDbLine
 10
3215.205402038574
 20
2026.768124644338
 30
0.0
 11
3215.205402038574
 21
2028.268124644338
 31
0.0
  0
ARC
  5
327E5
330
1F
100
AcDbEntity
  8
0部品13
100
AcDbCircle
 10
3232.705402038574
 20
2029.268124644338
 30
0.0
 40
1.0
100
AcDbArc
 50
270.0
 51
0.0
  0
LINE
  5
327E6
330
1F
100
AcDbEntity
  8
0部品13
100
AcDbLine
 10
3233.705402038574
 20
2030.268124644338
 30
0.0
 11
3233.705402038574
 21
2029.268124644338
 31
0.0
  0
LINE
  5
327E7
330
1F
100
AcDbEntity
  8
0部品15
100
AcDbLine
 10
3230.705402038574
 20
2039.268124644338
 30
0.0
 11
3230.705402038574
 21
2040.268124644338
 31
0.0
  0
LINE
  5
327E8
330
1F
100
AcDbEntity
  8
0部品15
100
AcDbLine
 10
3194.705402038574
 20
2039.268124644338
 30
0.0
 11
3234.705402038574
 21
2039.268124644338
 31
0.0
  0
LINE
  5
327E9
330
1F
100
AcDbEntity
  8
2
  6
Continuous
 62
     7
370
     9
100
AcDbLine
 10
3214.705402038574
 20
2079.268124644338
 30
0.0
 11
3214.705402038574
 21
2071.268124644338
 31
0.0
  0
LINE
  5
327EA
330
1F
100
AcDbEntity
  8
0部品13
100
AcDbLine
 10
3230.205402038574
 20
2026.768124644338
 30
0.0
 11
3232.205402038574
 21
2026.768124644338
 31
0.0
  0
LINE
  5
327EB
330
1F
100
AcDbEntity
  8
0部品13
100
AcDbLine
 10
3232.205402038574
 20
2026.768124644338
 30
0.0
 11
3232.205402038574
 21
2028.268124644338
 31
0.0
  0
LINE
  5
327EC
330
1F
100
AcDbEntity
  8
0部品13
100
AcDbLine
 10
3230.205402038574
 20
2026.768124644338
 30
0.0
 11
3230.205402038574
 21
2028.268124644338
 31
0.0
  0
LINE
  5
327ED
330
1F
100
AcDbEntity
  8
0部品13
100
AcDbLine
 10
3227.205402038574
 20
2026.768124644338
 30
0.0
 11
3227.205402038574
 21
2028.268124644338
 31
0.0
  0
LINE
  5
327EE
330
1F
100
AcDbEntity
  8
0部品13
100
AcDbLine
 10
3229.205402038574
 20
2026.768124644338
 30
0.0
 11
3229.205402038574
 21
2028.268124644338
 31
0.0
  0
LINE
  5
327EF
330
1F
100
AcDbEntity
  8
0部品13
100
AcDbLine
 10
3227.205402038574
 20
2026.768124644338
 30
0.0
 11
3229.205402038574
 21
2026.768124644338
 31
0.0
  0
LINE
  5
327F0
330
1F
100
AcDbEntity
  8
0部品13
100
AcDbLine
 10
3224.205402038574
 20
2026.768124644338
 30
0.0
 11
3226.205402038574
 21
2026.768124644338
 31
0.0
  0
LINE
  5
327F1
330
1F
100
AcDbEntity
  8
0部品13
100
AcDbLine
 10
3226.205402038574
 20
2026.768124644338
 30
0.0
 11
3226.205402038574
 21
2028.268124644338
 31
0.0
  0
LINE
  5
327F2
330
1F
100
AcDbEntity
  8
0部品13
100
AcDbLine
 10
3224.205402038574
 20
2026.768124644338
 30
0.0
 11
3224.205402038574
 21
2028.268124644338
 31
0.0
  0
LINE
  5
327F3
330
1F
100
AcDbEntity
  8
0部品13
100
AcDbLine
 10
3221.205402038574
 20
2026.768124644338
 30
0.0
 11
3221.205402038574
 21
2028.268124644338
 31
0.0
  0
LINE
  5
327F4
330
1F
100
AcDbEntity
  8
0部品13
100
AcDbLine
 10
3223.205402038574
 20
2026.768124644338
 30
0.0
 11
3223.205402038574
 21
2028.268124644338
 31
0.0
  0
LINE
  5
327F5
330
1F
100
AcDbEntity
  8
0部品13
100
AcDbLine
 10
3221.205402038574
 20
2026.768124644338
 30
0.0
 11
3223.205402038574
 21
2026.768124644338
 31
0.0
  0
LINE
  5
327F6
330
1F
100
AcDbEntity
  8
0部品13
100
AcDbLine
 10
3218.205402038574
 20
2026.768124644338
 30
0.0
 11
3220.205402038574
 21
2026.768124644338
 31
0.0
  0
LINE
  5
327F7
330
1F
100
AcDbEntity
  8
0部品13
100
AcDbLine
 10
3220.205402038574
 20
2026.768124644338
 30
0.0
 11
3220.205402038574
 21
2028.268124644338
 31
0.0
  0
LINE
  5
327F8
330
1F
100
AcDbEntity
  8
0部品13
100
AcDbLine
 10
3218.205402038574
 20
2026.768124644338
 30
0.0
 11
3218.205402038574
 21
2028.268124644338
 31
0.0
  0
LINE
  5
327F9
330
1F
100
AcDbEntity
  8
0部品13
100
AcDbLine
 10
3217.205402038575
 20
2026.768124644338
 30
0.0
 11
3217.205402038575
 21
2028.268124644338
 31
0.0
  0
LINE
  5
327FA
330
1F
100
AcDbEntity
  8
0部品15
100
AcDbLine
 10
3194.705402038574
 20
2030.268124644338
 30
0.0
 11
3234.705402038574
 21
2030.268124644338
 31
0.0
  0
LINE
  5
327FB
330
1F
100
AcDbEntity
  8
0部品13
100
AcDbLine
 10
3215.205402038574
 20
2026.768124644338
 30
0.0
 11
3217.205402038575
 21
2026.768124644338
 31
0.0
  0
LINE
  5
327FC
330
1F
100
AcDbEntity
  8
0部品17
100
AcDbLine
 10
3234.595837038575
 20
2079.268124644338
 30
0.0
 11
3234.595837038575
 21
2040.268124644338
 31
0.0
  0
LINE
  5
327FD
330
1F
100
AcDbEntity
  8
0部品17
100
AcDbLine
 10
3234.401554038574
 20
2079.268124644338
 30
0.0
 11
3234.401554038574
 21
2040.268124644338
 31
0.0
  0
LINE
  5
327FE
330
1F
100
AcDbEntity
  8
0部品17
100
AcDbLine
 10
3234.111313038574
 20
2079.268124644338
 30
0.0
 11
3234.111313038574
 21
2040.268124644338
 31
0.0
  0
LINE
  5
327FF
330
1F
100
AcDbEntity
  8
0部品17
100
AcDbLine
 10
3233.726529038574
 20
2079.268124644338
 30
0.0
 11
3233.726529038574
 21
2040.268124644338
 31
0.0
  0
LINE
  5
32800
330
1F
100
AcDbEntity
  8
0部品17
100
AcDbLine
 10
3233.249076038574
 20
2079.268124644338
 30
0.0
 11
3233.249076038574
 21
2040.268124644338
 31
0.0
  0
LINE
  5
32801
330
1F
100
AcDbEntity
  8
0部品17
100
AcDbLine
 10
3232.681280038575
 20
2079.268124644338
 30
0.0
 11
3232.681280038575
 21
2040.268124644338
 31
0.0
  0
LINE
  5
32802
330
1F
100
AcDbEntity
  8
0部品17
100
AcDbLine
 10
3232.025907038575
 20
2079.268124644338
 30
0.0
 11
3232.025907038575
 21
2040.268124644338
 31
0.0
  0
LINE
  5
32803
330
1F
100
AcDbEntity
  8
0部品17
100
AcDbLine
 10
3231.286151038574
 20
2079.268124644338
 30
0.0
 11
3231.286151038574
 21
2040.268124644338
 31
0.0
  0
LINE
  5
32804
330
1F
100
AcDbEntity
  8
0部品17
100
AcDbLine
 10
3230.465614038575
 20
2079.268124644338
 30
0.0
 11
3230.465614038575
 21
2040.268124644338
 31
0.0
  0
LINE
  5
32805
330
1F
100
AcDbEntity
  8
0部品17
100
AcDbLine
 10
3229.568296038574
 20
2079.268124644338
 30
0.0
 11
3229.568296038574
 21
2040.268124644338
 31
0.0
  0
LINE
  5
32806
330
1F
100
AcDbEntity
  8
0部品17
100
AcDbLine
 10
3228.598567038574
 20
2079.268124644338
 30
0.0
 11
3228.598567038574
 21
2040.268124644338
 31
0.0
  0
LINE
  5
32807
330
1F
100
AcDbEntity
  8
0部品17
100
AcDbLine
 10
3227.561152038575
 20
2079.268124644338
 30
0.0
 11
3227.561152038575
 21
2040.268124644338
 31
0.0
  0
LINE
  5
32808
330
1F
100
AcDbEntity
  8
0部品17
100
AcDbLine
 10
3226.461105038575
 20
2079.268124644338
 30
0.0
 11
3226.461105038575
 21
2040.268124644338
 31
0.0
  0
LINE
  5
32809
330
1F
100
AcDbEntity
  8
0部品17
100
AcDbLine
 10
3225.303785038574
 20
2079.268124644338
 30
0.0
 11
3225.303785038574
 21
2040.268124644338
 31
0.0
  0
LINE
  5
3280A
330
1F
100
AcDbEntity
  8
0部品17
100
AcDbLine
 10
3224.094832038574
 20
2079.268124644338
 30
0.0
 11
3224.094832038574
 21
2040.268124644338
 31
0.0
  0
LINE
  5
3280B
330
1F
100
AcDbEntity
  8
0部品17
100
AcDbLine
 10
3222.840133038574
 20
2079.268124644338
 30
0.0
 11
3222.840133038574
 21
2040.268124644338
 31
0.0
  0
LINE
  5
3280C
330
1F
100
AcDbEntity
  8
0部品17
100
AcDbLine
 10
3221.545804038574
 20
2079.268124644338
 30
0.0
 11
3221.545804038574
 21
2040.268124644338
 31
0.0
  0
LINE
  5
3280D
330
1F
100
AcDbEntity
  8
0部品17
100
AcDbLine
 10
3220.218148038574
 20
2079.268124644338
 30
0.0
 11
3220.218148038574
 21
2040.268124644338
 31
0.0
  0
LINE
  5
3280E
330
1F
100
AcDbEntity
  8
0部品17
100
AcDbLine
 10
3218.863635038574
 20
2079.268124644338
 30
0.0
 11
3218.863635038574
 21
2040.268124644338
 31
0.0
  0
LINE
  5
3280F
330
1F
100
AcDbEntity
  8
0部品17
100
AcDbLine
 10
3217.488863038574
 20
2079.268124644338
 30
0.0
 11
3217.488863038574
 21
2040.268124644338
 31
0.0
  0
LINE
  5
32810
330
1F
100
AcDbEntity
  8
0部品17
100
AcDbLine
 10
3216.100531038574
 20
2079.268124644338
 30
0.0
 11
3216.100531038574
 21
2040.268124644338
 31
0.0
  0
LINE
  5
32811
330
1F
100
AcDbEntity
  8
0部品17
100
AcDbLine
 10
3234.705402038574
 20
2079.268124644338
 30
0.0
 11
3234.705402038574
 21
2040.268124644338
 31
0.0
  0
LINE
  5
32812
330
1F
100
AcDbEntity
  8
0部品17
100
AcDbLine
 10
3194.705402038574
 20
2079.268124644338
 30
0.0
 11
3234.705402038574
 21
2079.268124644338
 31
0.0
  0
ARC
  5
32813
330
1F
100
AcDbEntity
  8
0部品17
100
AcDbCircle
 10
3233.205402038574
 20
2079.768124644338
 30
0.0
 40
1.0
100
AcDbArc
 50
0.0
 51
90.0
  0
LINE
  5
32814
330
1F
100
AcDbEntity
  8
0部品17
100
AcDbLine
 10
3234.205402038574
 20
2079.768124644338
 30
0.0
 11
3234.205402038574
 21
2079.268124644338
 31
0.0
  0
LINE
  5
32815
330
1F
100
AcDbEntity
  8
0部品17
100
AcDbLine
 10
3196.205402038574
 20
2080.768124644338
 30
0.0
 11
3233.205402038574
 21
2080.768124644338
 31
0.0
  0
LINE
  5
32816
330
1F
100
AcDbEntity
  8
0部品10
100
AcDbLine
 10
3217.705402038574
 20
2112.768124644338
 30
0.0
 11
3218.705402038574
 21
2111.768124644338
 31
0.0
  0
LINE
  5
32817
330
1F
100
AcDbEntity
  8
0部品10
100
AcDbLine
 10
3210.705402038574
 20
2111.768124644338
 30
0.0
 11
3218.705402038574
 21
2111.768124644338
 31
0.0
  0
LINE
  5
32818
330
1F
100
AcDbEntity
  8
0部品10
100
AcDbLine
 10
3211.705402038574
 20
2112.768124644338
 30
0.0
 11
3217.705402038574
 21
2112.768124644338
 31
0.0
  0
LINE
  5
32819
330
1F
100
AcDbEntity
  8
0部品10
  6
細線
370
    13
100
AcDbLine
 10
3217.705402038574
 20
2080.768124644338
 30
0.0
 11
3217.705402038574
 21
2112.768124644338
 31
0.0
  0
LINE
  5
3281A
330
1F
100
AcDbEntity
  8
0部品10
100
AcDbLine
 10
3218.705402038574
 20
2080.768124644338
 30
0.0
 11
3218.705402038574
 21
2111.768124644338
 31
0.0
  0
LINE
  5
3281B
330
1F
100
AcDbEntity
  8
0部品10
  6
中心線1
 48
0.5
370
    13
100
AcDbLine
 10
3214.705402038574
 20
2023.768124644337
 30
0.0
 11
3214.705402038574
 21
2115.768124644338
 31
0.0
  0
LINE
  5
3281C
330
1F
100
AcDbEntity
  8
AM_2
370
    13
100
AcDbLine
 10
2991.523017636617
 20
2119.186263058126
 30
0.0
 11
3074.523017636617
 21
2119.186263058126
 31
0.0
  0
LINE
  5
3281D
330
1F
100
AcDbEntity
  8
AM_2
370
    13
100
AcDbLine
 10
2991.523017636616
 20
2095.986263058122
 30
0.0
 11
3074.523017636617
 21
2095.986263058122
 31
0.0
  0
TEXT
  5
3281E
330
1F
100
AcDbEntity
  8
AM_6
100
AcDbText
 10
3014.380017636617
 20
2129.052929724795
 30
0.0
 40
3.2
  1
本体：ナイロン樹脂
 41
0.84634979
100
AcDbText
  0
TEXT
  5
3281F
330
1F
100
AcDbEntity
  8
AM_6
100
AcDbText
 10
3014.380017636617
 20
2121.052929724795
 30
0.0
 40
3.2
  1
フット：ナイロン樹脂、ポリウレタン
 41
0.84634979
100
AcDbText
  0
TEXT
  5
32820
330
1F
100
AcDbEntity
  8
AM_6
100
AcDbText
 10
3014.380017636618
 20
2113.586263058126
 30
0.0
 40
3.2
  1
シャフト：有色クロメート
 41
0.84634979
100
AcDbText
  0
TEXT
  5
32821
330
1F
100
AcDbEntity
  8
AM_6
100
AcDbText
 10
3014.380017636618
 20
2105.586263058126
 30
0.0
 40
3.2
  1
本体：生地
 41
0.84634979
100
AcDbText
  0
TEXT
  5
32822
330
1F
100
AcDbEntity
  8
AM_6
100
AcDbText
 10
3014.380017636618
 20
2097.586263058126
 30
0.0
 40
3.2
  1
フット：生地
 41
0.84634979
100
AcDbText
  0
LINE
  5
32823
330
1F
100
AcDbEntity
  8
0部品10
100
AcDbLine
 10
3211.705402038574
 20
2112.768124644338
 30
0.0
 11
3210.705402038574
 21
2111.768124644338
 31
0.0
  0
LINE
  5
32824
330
1F
100
AcDbEntity
  8
0部品17
100
AcDbLine
 10
3118.414324837376
 20
2048.768124644338
 30
0.0
 11
3118.414324837376
 21
2048.268124644338
 31
0.0
  0
ARC
  5
32825
330
1F
100
AcDbEntity
  8
0部品17
100
AcDbCircle
 10
3119.414324837376
 20
2048.768124644338
 30
0.0
 40
1.0
100
AcDbArc
 50
90.0
 51
180.0
  0
LINE
  5
32826
330
1F
100
AcDbEntity
  8
0部品17
100
AcDbLine
 10
3137.914324837376
 20
2048.268124644338
 30
0.0
 11
3137.914324837376
 21
2040.268124644338
 31
0.0
  0
LINE
  5
32827
330
1F
100
AcDbEntity
  8
2
  6
Continuous
 62
     7
370
     9
100
AcDbLine
 10
3137.914324837376
 20
2048.268124644338
 30
0.0
 11
3137.914324837376
 21
2040.268124644338
 31
0.0
  0
LINE
  5
32828
330
1F
100
AcDbEntity
  8
2
  6
Continuous
 62
     7
370
     9
100
AcDbLine
 10
3137.914324837376
 20
2048.268124644338
 30
0.0
 11
3137.914324837376
 21
2040.268124644338
 31
0.0
  0
LINE
  5
32829
330
1F
100
AcDbEntity
  8
2
  6
Continuous
 62
     7
370
     9
100
AcDbLine
 10
3137.914324837376
 20
2048.268124644338
 30
0.0
 11
3137.914324837376
 21
2040.268124644338
 31
0.0
  0
LINE
  5
3282A
330
1F
100
AcDbEntity
  8
0部品15
100
AcDbLine
 10
3121.914324837376
 20
2039.268124644338
 30
0.0
 11
3121.914324837376
 21
2040.268124644338
 31
0.0
  0
LINE
  5
3282B
330
1F
100
AcDbEntity
  8
0部品13
100
AcDbLine
 10
3118.914324837376
 20
2030.268124644338
 30
0.0
 11
3118.914324837376
 21
2029.268124644338
 31
0.0
  0
LINE
  5
3282C
330
1F
100
AcDbEntity
  8
0部品13
100
AcDbLine
 10
3120.414324837376
 20
2026.768124644338
 30
0.0
 11
3120.414324837376
 21
2028.268124644338
 31
0.0
  0
ARC
  5
3282D
330
1F
100
AcDbEntity
  8
0部品13
100
AcDbCircle
 10
3119.914324837376
 20
2029.268124644338
 30
0.0
 40
1.0
100
AcDbArc
 50
180.0
 51
270.0
  0
LINE
  5
3282E
330
1F
100
AcDbEntity
  8
0部品13
100
AcDbLine
 10
3123.414324837376
 20
2026.768124644338
 30
0.0
 11
3123.414324837376
 21
2028.268124644338
 31
0.0
  0
LINE
  5
3282F
330
1F
100
AcDbEntity
  8
0部品13
100
AcDbLine
 10
3122.414324837376
 20
2026.768124644338
 30
0.0
 11
3122.414324837376
 21
2028.268124644338
 31
0.0
  0
LINE
  5
32830
330
1F
100
AcDbEntity
  8
0部品13
100
AcDbLine
 10
3122.414324837376
 20
2026.768124644338
 30
0.0
 11
3120.414324837376
 21
2026.768124644338
 31
0.0
  0
LINE
  5
32831
330
1F
100
AcDbEntity
  8
0部品15
100
AcDbLine
 10
3117.914324837376
 20
2039.268124644338
 30
0.0
 11
3117.914324837376
 21
2030.268124644338
 31
0.0
  0
LINE
  5
32832
330
1F
100
AcDbEntity
  8
0部品13
100
AcDbLine
 10
3128.414324837376
 20
2026.768124644338
 30
0.0
 11
3128.414324837376
 21
2028.268124644338
 31
0.0
  0
LINE
  5
32833
330
1F
100
AcDbEntity
  8
0部品13
100
AcDbLine
 10
3126.414324837376
 20
2026.768124644338
 30
0.0
 11
3126.414324837376
 21
2028.268124644338
 31
0.0
  0
LINE
  5
32834
330
1F
100
AcDbEntity
  8
0部品13
100
AcDbLine
 10
3128.414324837376
 20
2026.768124644338
 30
0.0
 11
3126.414324837376
 21
2026.768124644338
 31
0.0
  0
LINE
  5
32835
330
1F
100
AcDbEntity
  8
0部品13
100
AcDbLine
 10
3125.414324837376
 20
2026.768124644338
 30
0.0
 11
3125.414324837376
 21
2028.268124644338
 31
0.0
  0
LINE
  5
32836
330
1F
100
AcDbEntity
  8
0部品13
100
AcDbLine
 10
3132.414324837376
 20
2026.768124644338
 30
0.0
 11
3132.414324837376
 21
2028.268124644338
 31
0.0
  0
LINE
  5
32837
330
1F
100
AcDbEntity
  8
0部品13
100
AcDbLine
 10
3131.414324837376
 20
2026.768124644338
 30
0.0
 11
3129.414324837376
 21
2026.768124644338
 31
0.0
  0
LINE
  5
32838
330
1F
100
AcDbEntity
  8
0部品13
100
AcDbLine
 10
3129.414324837376
 20
2026.768124644338
 30
0.0
 11
3129.414324837376
 21
2028.268124644338
 31
0.0
  0
LINE
  5
32839
330
1F
100
AcDbEntity
  8
0部品13
100
AcDbLine
 10
3131.414324837376
 20
2026.768124644338
 30
0.0
 11
3131.414324837376
 21
2028.268124644338
 31
0.0
  0
LINE
  5
3283A
330
1F
100
AcDbEntity
  8
0部品13
100
AcDbLine
 10
3137.414324837376
 20
2026.768124644338
 30
0.0
 11
3135.414324837376
 21
2026.768124644338
 31
0.0
  0
LINE
  5
3283B
330
1F
100
AcDbEntity
  8
0部品13
100
AcDbLine
 10
3135.414324837376
 20
2026.768124644338
 30
0.0
 11
3135.414324837376
 21
2028.268124644338
 31
0.0
  0
LINE
  5
3283C
330
1F
100
AcDbEntity
  8
0部品13
100
AcDbLine
 10
3134.414324837376
 20
2026.768124644338
 30
0.0
 11
3134.414324837376
 21
2028.268124644338
 31
0.0
  0
LINE
  5
3283D
330
1F
100
AcDbEntity
  8
0部品13
100
AcDbLine
 10
3137.414324837376
 20
2026.768124644338
 30
0.0
 11
3137.414324837376
 21
2028.268124644338
 31
0.0
  0
LINE
  5
3283E
330
1F
100
AcDbEntity
  8
0部品13
100
AcDbLine
 10
3134.414324837376
 20
2026.768124644338
 30
0.0
 11
3132.414324837376
 21
2026.768124644338
 31
0.0
  0
LINE
  5
3283F
330
1F
100
AcDbEntity
  8
0部品13
100
AcDbLine
 10
3125.414324837376
 20
2026.768124644338
 30
0.0
 11
3123.414324837376
 21
2026.768124644338
 31
0.0
  0
LINE
  5
32840
330
1F
100
AcDbEntity
  8
0部品13
100
AcDbLine
 10
3155.914324837376
 20
2028.268124644338
 30
0.0
 11
3119.914324837376
 21
2028.268124644338
 31
0.0
  0
LINE
  5
32841
330
1F
100
AcDbEntity
  8
0部品17
100
AcDbLine
 10
3157.914324837376
 20
2040.268124644338
 30
0.0
 11
3117.914324837376
 21
2040.268124644338
 31
0.0
  0
LINE
  5
32842
330
1F
100
AcDbEntity
  8
0部品17
100
AcDbLine
 10
3136.519195837376
 20
2048.268124644338
 30
0.0
 11
3136.519195837376
 21
2040.268124644338
 31
0.0
  0
LINE
  5
32843
330
1F
100
AcDbEntity
  8
0部品17
100
AcDbLine
 10
3135.130862837376
 20
2048.268124644338
 30
0.0
 11
3135.130862837376
 21
2040.268124644338
 31
0.0
  0
LINE
  5
32844
330
1F
100
AcDbEntity
  8
0部品17
100
AcDbLine
 10
3133.756091837376
 20
2048.268124644338
 30
0.0
 11
3133.756091837376
 21
2040.268124644338
 31
0.0
  0
LINE
  5
32845
330
1F
100
AcDbEntity
  8
0部品17
100
AcDbLine
 10
3132.401578837376
 20
2048.268124644338
 30
0.0
 11
3132.401578837376
 21
2040.268124644338
 31
0.0
  0
LINE
  5
32846
330
1F
100
AcDbEntity
  8
0部品17
100
AcDbLine
 10
3131.073922837376
 20
2048.268124644338
 30
0.0
 11
3131.073922837376
 21
2040.268124644338
 31
0.0
  0
LINE
  5
32847
330
1F
100
AcDbEntity
  8
0部品17
100
AcDbLine
 10
3129.779592837376
 20
2048.268124644338
 30
0.0
 11
3129.779592837376
 21
2040.268124644338
 31
0.0
  0
LINE
  5
32848
330
1F
100
AcDbEntity
  8
0部品17
100
AcDbLine
 10
3128.524894837376
 20
2048.268124644338
 30
0.0
 11
3128.524894837376
 21
2040.268124644338
 31
0.0
  0
LINE
  5
32849
330
1F
100
AcDbEntity
  8
0部品17
100
AcDbLine
 10
3127.315940837376
 20
2048.268124644338
 30
0.0
 11
3127.315940837376
 21
2040.268124644338
 31
0.0
  0
LINE
  5
3284A
330
1F
100
AcDbEntity
  8
0部品17
100
AcDbLine
 10
3126.158621837376
 20
2048.268124644338
 30
0.0
 11
3126.158621837376
 21
2040.268124644338
 31
0.0
  0
LINE
  5
3284B
330
1F
100
AcDbEntity
  8
0部品17
100
AcDbLine
 10
3125.058574837376
 20
2048.268124644338
 30
0.0
 11
3125.058574837376
 21
2040.268124644338
 31
0.0
  0
LINE
  5
3284C
330
1F
100
AcDbEntity
  8
0部品17
100
AcDbLine
 10
3124.021159837376
 20
2048.268124644338
 30
0.0
 11
3124.021159837376
 21
2040.268124644338
 31
0.0
  0
LINE
  5
3284D
330
1F
100
AcDbEntity
  8
0部品17
100
AcDbLine
 10
3123.051430837376
 20
2048.268124644338
 30
0.0
 11
3123.051430837376
 21
2040.268124644338
 31
0.0
  0
LINE
  5
3284E
330
1F
100
AcDbEntity
  8
0部品17
100
AcDbLine
 10
3122.154111837376
 20
2048.268124644338
 30
0.0
 11
3122.154111837376
 21
2040.268124644338
 31
0.0
  0
LINE
  5
3284F
330
1F
100
AcDbEntity
  8
0部品17
100
AcDbLine
 10
3121.333575837376
 20
2048.268124644338
 30
0.0
 11
3121.333575837376
 21
2040.268124644338
 31
0.0
  0
LINE
  5
32850
330
1F
100
AcDbEntity
  8
0部品17
100
AcDbLine
 10
3120.593819837376
 20
2048.268124644338
 30
0.0
 11
3120.593819837376
 21
2040.268124644338
 31
0.0
  0
LINE
  5
32851
330
1F
100
AcDbEntity
  8
0部品17
100
AcDbLine
 10
3119.370650837376
 20
2048.268124644338
 30
0.0
 11
3119.370650837376
 21
2040.268124644338
 31
0.0
  0
LINE
  5
32852
330
1F
100
AcDbEntity
  8
0部品17
100
AcDbLine
 10
3119.938446837376
 20
2048.268124644338
 30
0.0
 11
3119.938446837376
 21
2040.268124644338
 31
0.0
  0
LINE
  5
32853
330
1F
100
AcDbEntity
  8
0部品17
100
AcDbLine
 10
3118.893197837376
 20
2048.268124644338
 30
0.0
 11
3118.893197837376
 21
2040.268124644338
 31
0.0
  0
LINE
  5
32854
330
1F
100
AcDbEntity
  8
0部品17
100
AcDbLine
 10
3118.508412837376
 20
2048.268124644338
 30
0.0
 11
3118.508412837376
 21
2040.268124644338
 31
0.0
  0
LINE
  5
32855
330
1F
100
AcDbEntity
  8
0部品17
100
AcDbLine
 10
3118.218172837376
 20
2048.268124644338
 30
0.0
 11
3118.218172837376
 21
2040.268124644338
 31
0.0
  0
LINE
  5
32856
330
1F
100
AcDbEntity
  8
0部品17
100
AcDbLine
 10
3118.023889837376
 20
2048.268124644338
 30
0.0
 11
3118.023889837376
 21
2040.268124644338
 31
0.0
  0
LINE
  5
32857
330
1F
100
AcDbEntity
  8
0部品17
100
AcDbLine
 10
3117.914324837376
 20
2048.268124644338
 30
0.0
 11
3117.914324837376
 21
2040.268124644338
 31
0.0
  0
LINE
  5
32858
330
1F
100
AcDbEntity
  8
2
  6
Continuous
 62
     7
370
     9
100
AcDbLine
 10
3137.914324837376
 20
2048.268124644338
 30
0.0
 11
3137.914324837376
 21
2040.268124644338
 31
0.0
  0
LINE
  5
32859
330
1F
100
AcDbEntity
  8
2
  6
Continuous
 62
     7
370
     9
100
AcDbLine
 10
3137.914324837376
 20
2048.268124644338
 30
0.0
 11
3137.914324837376
 21
2040.268124644338
 31
0.0
  0
LINE
  5
3285A
330
1F
100
AcDbEntity
  8
0部品10
100
AcDbLine
 10
3133.914324837376
 20
2049.768124644338
 30
0.0
 11
3133.914324837376
 21
2072.768124644338
 31
0.0
  0
LINE
  5
3285B
330
1F
100
AcDbEntity
  8
0部品10
  6
細線
370
    13
100
AcDbLine
 10
3134.914324837376
 20
2049.768124644338
 30
0.0
 11
3134.914324837376
 21
2073.768124644338
 31
0.0
  0
LINE
  5
3285C
330
1F
100
AcDbEntity
  8
0部品15
100
AcDbLine
 10
3157.914324837376
 20
2039.268124644338
 30
0.0
 11
3157.914324837376
 21
2030.268124644338
 31
0.0
  0
LINE
  5
3285D
330
1F
100
AcDbEntity
  8
2
  6
Continuous
 62
     7
370
     9
100
AcDbLine
 10
3137.914324837376
 20
2048.268124644338
 30
0.0
 11
3137.914324837376
 21
2040.268124644338
 31
0.0
  0
LINE
  5
3285E
330
1F
100
AcDbEntity
  8
0部品13
100
AcDbLine
 10
3138.414324837376
 20
2026.768124644338
 30
0.0
 11
3138.414324837376
 21
2028.268124644338
 31
0.0
  0
ARC
  5
3285F
330
1F
100
AcDbEntity
  8
0部品13
100
AcDbCircle
 10
3155.914324837376
 20
2029.268124644338
 30
0.0
 40
1.0
100
AcDbArc
 50
270.0
 51
0.0
  0
LINE
  5
32860
330
1F
100
AcDbEntity
  8
0部品13
100
AcDbLine
 10
3156.914324837376
 20
2030.268124644338
 30
0.0
 11
3156.914324837376
 21
2029.268124644338
 31
0.0
  0
LINE
  5
32861
330
1F
100
AcDbEntity
  8
0部品15
100
AcDbLine
 10
3153.914324837376
 20
2039.268124644338
 30
0.0
 11
3153.914324837376
 21
2040.268124644338
 31
0.0
  0
LINE
  5
32862
330
1F
100
AcDbEntity
  8
0部品15
100
AcDbLine
 10
3117.914324837376
 20
2039.268124644338
 30
0.0
 11
3157.914324837376
 21
2039.268124644338
 31
0.0
  0
LINE
  5
32863
330
1F
100
AcDbEntity
  8
2
  6
Continuous
 62
     7
370
     9
100
AcDbLine
 10
3137.914324837376
 20
2048.268124644338
 30
0.0
 11
3137.914324837376
 21
2040.268124644338
 31
0.0
  0
LINE
  5
32864
330
1F
100
AcDbEntity
  8
0部品13
100
AcDbLine
 10
3153.414324837376
 20
2026.768124644338
 30
0.0
 11
3155.414324837376
 21
2026.768124644338
 31
0.0
  0
LINE
  5
32865
330
1F
100
AcDbEntity
  8
0部品13
100
AcDbLine
 10
3155.414324837376
 20
2026.768124644338
 30
0.0
 11
3155.414324837376
 21
2028.268124644338
 31
0.0
  0
LINE
  5
32866
330
1F
100
AcDbEntity
  8
0部品13
100
AcDbLine
 10
3153.414324837376
 20
2026.768124644338
 30
0.0
 11
3153.414324837376
 21
2028.268124644338
 31
0.0
  0
LINE
  5
32867
330
1F
100
AcDbEntity
  8
0部品13
100
AcDbLine
 10
3150.414324837376
 20
2026.768124644338
 30
0.0
 11
3150.414324837376
 21
2028.268124644338
 31
0.0
  0
LINE
  5
32868
330
1F
100
AcDbEntity
  8
0部品13
100
AcDbLine
 10
3152.414324837376
 20
2026.768124644338
 30
0.0
 11
3152.414324837376
 21
2028.268124644338
 31
0.0
  0
LINE
  5
32869
330
1F
100
AcDbEntity
  8
0部品13
100
AcDbLine
 10
3150.414324837376
 20
2026.768124644338
 30
0.0
 11
3152.414324837376
 21
2026.768124644338
 31
0.0
  0
LINE
  5
3286A
330
1F
100
AcDbEntity
  8
0部品13
100
AcDbLine
 10
3147.414324837376
 20
2026.768124644338
 30
0.0
 11
3149.414324837376
 21
2026.768124644338
 31
0.0
  0
LINE
  5
3286B
330
1F
100
AcDbEntity
  8
0部品13
100
AcDbLine
 10
3149.414324837376
 20
2026.768124644338
 30
0.0
 11
3149.414324837376
 21
2028.268124644338
 31
0.0
  0
LINE
  5
3286C
330
1F
100
AcDbEntity
  8
0部品13
100
AcDbLine
 10
3147.414324837376
 20
2026.768124644338
 30
0.0
 11
3147.414324837376
 21
2028.268124644338
 31
0.0
  0
LINE
  5
3286D
330
1F
100
AcDbEntity
  8
0部品13
100
AcDbLine
 10
3144.414324837376
 20
2026.768124644338
 30
0.0
 11
3144.414324837376
 21
2028.268124644338
 31
0.0
  0
LINE
  5
3286E
330
1F
100
AcDbEntity
  8
0部品13
100
AcDbLine
 10
3146.414324837376
 20
2026.768124644338
 30
0.0
 11
3146.414324837376
 21
2028.268124644338
 31
0.0
  0
LINE
  5
3286F
330
1F
100
AcDbEntity
  8
0部品13
100
AcDbLine
 10
3144.414324837376
 20
2026.768124644338
 30
0.0
 11
3146.414324837376
 21
2026.768124644338
 31
0.0
  0
LINE
  5
32870
330
1F
100
AcDbEntity
  8
0部品13
100
AcDbLine
 10
3141.414324837376
 20
2026.768124644338
 30
0.0
 11
3143.414324837376
 21
2026.768124644338
 31
0.0
  0
LINE
  5
32871
330
1F
100
AcDbEntity
  8
0部品13
100
AcDbLine
 10
3143.414324837376
 20
2026.768124644338
 30
0.0
 11
3143.414324837376
 21
2028.268124644338
 31
0.0
  0
LINE
  5
32872
330
1F
100
AcDbEntity
  8
0部品13
100
AcDbLine
 10
3141.414324837376
 20
2026.768124644338
 30
0.0
 11
3141.414324837376
 21
2028.268124644338
 31
0.0
  0
LINE
  5
32873
330
1F
100
AcDbEntity
  8
0部品13
100
AcDbLine
 10
3140.414324837376
 20
2026.768124644338
 30
0.0
 11
3140.414324837376
 21
2028.268124644338
 31
0.0
  0
LINE
  5
32874
330
1F
100
AcDbEntity
  8
0部品15
100
AcDbLine
 10
3117.914324837376
 20
2030.268124644338
 30
0.0
 11
3157.914324837376
 21
2030.268124644338
 31
0.0
  0
LINE
  5
32875
330
1F
100
AcDbEntity
  8
0部品13
100
AcDbLine
 10
3138.414324837376
 20
2026.768124644338
 30
0.0
 11
3140.414324837376
 21
2026.768124644338
 31
0.0
  0
LINE
  5
32876
330
1F
100
AcDbEntity
  8
0部品17
100
AcDbLine
 10
3157.804759837376
 20
2048.268124644338
 30
0.0
 11
3157.804759837376
 21
2040.268124644338
 31
0.0
  0
LINE
  5
32877
330
1F
100
AcDbEntity
  8
0部品17
100
AcDbLine
 10
3157.610476837376
 20
2048.268124644338
 30
0.0
 11
3157.610476837376
 21
2040.268124644338
 31
0.0
  0
LINE
  5
32878
330
1F
100
AcDbEntity
  8
0部品17
100
AcDbLine
 10
3157.320235837376
 20
2048.268124644338
 30
0.0
 11
3157.320235837376
 21
2040.268124644338
 31
0.0
  0
LINE
  5
32879
330
1F
100
AcDbEntity
  8
0部品17
100
AcDbLine
 10
3156.935451837376
 20
2048.268124644338
 30
0.0
 11
3156.935451837376
 21
2040.268124644338
 31
0.0
  0
LINE
  5
3287A
330
1F
100
AcDbEntity
  8
0部品17
100
AcDbLine
 10
3156.457998837376
 20
2048.268124644338
 30
0.0
 11
3156.457998837376
 21
2040.268124644338
 31
0.0
  0
LINE
  5
3287B
330
1F
100
AcDbEntity
  8
0部品17
100
AcDbLine
 10
3155.890202837376
 20
2048.268124644338
 30
0.0
 11
3155.890202837376
 21
2040.268124644338
 31
0.0
  0
LINE
  5
3287C
330
1F
100
AcDbEntity
  8
0部品17
100
AcDbLine
 10
3155.234829837376
 20
2048.268124644338
 30
0.0
 11
3155.234829837376
 21
2040.268124644338
 31
0.0
  0
LINE
  5
3287D
330
1F
100
AcDbEntity
  8
0部品17
100
AcDbLine
 10
3154.495073837376
 20
2048.268124644338
 30
0.0
 11
3154.495073837376
 21
2040.268124644338
 31
0.0
  0
LINE
  5
3287E
330
1F
100
AcDbEntity
  8
0部品17
100
AcDbLine
 10
3153.674536837376
 20
2048.268124644338
 30
0.0
 11
3153.674536837376
 21
2040.268124644338
 31
0.0
  0
LINE
  5
3287F
330
1F
100
AcDbEntity
  8
0部品17
100
AcDbLine
 10
3152.777218837376
 20
2048.268124644338
 30
0.0
 11
3152.777218837376
 21
2040.268124644338
 31
0.0
  0
LINE
  5
32880
330
1F
100
AcDbEntity
  8
0部品17
100
AcDbLine
 10
3151.807489837376
 20
2048.268124644338
 30
0.0
 11
3151.807489837376
 21
2040.268124644338
 31
0.0
  0
LINE
  5
32881
330
1F
100
AcDbEntity
  8
0部品17
100
AcDbLine
 10
3150.770074837376
 20
2048.268124644338
 30
0.0
 11
3150.770074837376
 21
2040.268124644338
 31
0.0
  0
LINE
  5
32882
330
1F
100
AcDbEntity
  8
0部品17
100
AcDbLine
 10
3149.670027837376
 20
2048.268124644338
 30
0.0
 11
3149.670027837376
 21
2040.268124644338
 31
0.0
  0
LINE
  5
32883
330
1F
100
AcDbEntity
  8
0部品17
100
AcDbLine
 10
3148.512707837376
 20
2048.268124644338
 30
0.0
 11
3148.512707837376
 21
2040.268124644338
 31
0.0
  0
LINE
  5
32884
330
1F
100
AcDbEntity
  8
0部品17
100
AcDbLine
 10
3147.303754837376
 20
2048.268124644338
 30
0.0
 11
3147.303754837376
 21
2040.268124644338
 31
0.0
  0
LINE
  5
32885
330
1F
100
AcDbEntity
  8
0部品17
100
AcDbLine
 10
3146.049055837376
 20
2048.268124644338
 30
0.0
 11
3146.049055837376
 21
2040.268124644338
 31
0.0
  0
LINE
  5
32886
330
1F
100
AcDbEntity
  8
0部品17
100
AcDbLine
 10
3144.754726837376
 20
2048.268124644338
 30
0.0
 11
3144.754726837376
 21
2040.268124644338
 31
0.0
  0
LINE
  5
32887
330
1F
100
AcDbEntity
  8
0部品17
100
AcDbLine
 10
3143.427070837376
 20
2048.268124644338
 30
0.0
 11
3143.427070837376
 21
2040.268124644338
 31
0.0
  0
LINE
  5
32888
330
1F
100
AcDbEntity
  8
0部品17
100
AcDbLine
 10
3142.072557837376
 20
2048.268124644338
 30
0.0
 11
3142.072557837376
 21
2040.268124644338
 31
0.0
  0
LINE
  5
32889
330
1F
100
AcDbEntity
  8
0部品17
100
AcDbLine
 10
3140.697785837376
 20
2048.268124644338
 30
0.0
 11
3140.697785837376
 21
2040.268124644338
 31
0.0
  0
LINE
  5
3288A
330
1F
100
AcDbEntity
  8
0部品17
100
AcDbLine
 10
3139.309453837376
 20
2048.268124644338
 30
0.0
 11
3139.309453837376
 21
2040.268124644338
 31
0.0
  0
LINE
  5
3288B
330
1F
100
AcDbEntity
  8
0部品17
100
AcDbLine
 10
3157.914324837376
 20
2048.268124644338
 30
0.0
 11
3157.914324837376
 21
2040.268124644338
 31
0.0
  0
LINE
  5
3288C
330
1F
100
AcDbEntity
  8
0部品17
100
AcDbLine
 10
3117.914324837376
 20
2048.268124644338
 30
0.0
 11
3157.914324837376
 21
2048.268124644338
 31
0.0
  0
ARC
  5
3288D
330
1F
100
AcDbEntity
  8
0部品17
100
AcDbCircle
 10
3156.414324837376
 20
2048.768124644338
 30
0.0
 40
1.0
100
AcDbArc
 50
0.0
 51
90.0
  0
LINE
  5
3288E
330
1F
100
AcDbEntity
  8
0部品17
100
AcDbLine
 10
3157.414324837376
 20
2048.768124644338
 30
0.0
 11
3157.414324837376
 21
2048.268124644338
 31
0.0
  0
LINE
  5
3288F
330
1F
100
AcDbEntity
  8
0部品17
100
AcDbLine
 10
3119.414324837376
 20
2049.768124644338
 30
0.0
 11
3156.414324837376
 21
2049.768124644338
 31
0.0
  0
LINE
  5
32890
330
1F
100
AcDbEntity
  8
0部品10
100
AcDbLine
 10
3140.914324837376
 20
2073.768124644338
 30
0.0
 11
3141.914324837376
 21
2072.768124644338
 31
0.0
  0
LINE
  5
32891
330
1F
100
AcDbEntity
  8
0部品10
100
AcDbLine
 10
3133.914324837376
 20
2072.768124644338
 30
0.0
 11
3141.914324837376
 21
2072.768124644338
 31
0.0
  0
LINE
  5
32892
330
1F
100
AcDbEntity
  8
0部品10
100
AcDbLine
 10
3134.914324837376
 20
2073.768124644338
 30
0.0
 11
3140.914324837376
 21
2073.768124644338
 31
0.0
  0
LINE
  5
32893
330
1F
100
AcDbEntity
  8
0部品10
  6
細線
370
    13
100
AcDbLine
 10
3140.914324837376
 20
2049.768124644338
 30
0.0
 11
3140.914324837376
 21
2073.768124644338
 31
0.0
  0
LINE
  5
32894
330
1F
100
AcDbEntity
  8
0部品10
100
AcDbLine
 10
3141.914324837376
 20
2049.768124644338
 30
0.0
 11
3141.914324837376
 21
2072.768124644338
 31
0.0
  0
LINE
  5
32895
330
1F
100
AcDbEntity
  8
0部品10
  6
中心線1
 48
0.5
370
    13
100
AcDbLine
 10
3137.914324837376
 20
2023.768124644337
 30
0.0
 11
3137.914324837376
 21
2076.768124644338
 31
0.0
  0
LINE
  5
32896
330
1F
100
AcDbEntity
  8
0部品10
100
AcDbLine
 10
3134.914324837376
 20
2073.768124644338
 30
0.0
 11
3133.914324837376
 21
2072.768124644338
 31
0.0
  0
DIMENSION
  5
32897
330
1F
100
AcDbEntity
  8
AM_5
100
AcDbDimension
  2
*D7
 10
3234.705402038574
 20
2018.768124644338
 30
0.0
 11
3214.705402038574
 21
2018.768124644338
 31
0.0
 70
   160
  1
%%cA
 71
     5
 42
40.0
  3
SYS$0
100
AcDbAlignedDimension
 13
3194.705402038574
 23
2030.268124644338
 33
0.0
 14
3234.705402038574
 24
2030.268124644338
 34
0.0
100
AcDbRotatedDimension
  0
DIMENSION
  5
32898
330
1F
100
AcDbEntity
  8
AM_5
100
AcDbDimension
  2
*D8
 10
3242.705402038575
 20
2039.268124644338
 30
0.0
 11
3240.105402038575
 21
2033.018124644338
 31
0.0
 70
    32
  1
I
 71
     5
 42
12.5
  3
SYS$0
100
AcDbAlignedDimension
 13
3232.205402038574
 23
2026.768124644338
 33
0.0
 14
3234.705402038574
 24
2039.268124644338
 34
0.0
 50
90.0
100
AcDbRotatedDimension
  0
DIMENSION
  5
32899
330
1F
100
AcDbEntity
  8
AM_5
100
AcDbDimension
  2
*D9
 10
3242.705402038575
 20
2112.768124644338
 30
0.0
 11
3240.105402038575
 21
2096.768124644339
 31
0.0
 70
    32
  1
L1
 71
     5
 42
32.0
  3
SYS$0
100
AcDbAlignedDimension
 13
3233.205402038574
 23
2080.768124644338
 33
0.0
 14
3217.705402038574
 24
2112.768124644338
 34
0.0
 50
90.0
100
AcDbRotatedDimension
  0
DIMENSION
  5
3289A
330
1F
100
AcDbEntity
  8
AM_5
100
AcDbDimension
  2
*D10
 10
3250.705402038575
 20
2112.768124644338
 30
0.0
 11
3250.705402038574
 21
2069.768124644338
 31
0.0
 70
   160
  1
L2
 71
     5
 42
86.00000000000022
  3
SYS$0
100
AcDbAlignedDimension
 13
3232.205402038574
 23
2026.768124644338
 33
0.0
 14
3217.705402038574
 24
2112.768124644338
 34
0.0
 50
90.0
100
AcDbRotatedDimension
  0
DIMENSION
  5
3289B
330
1F
100
AcDbEntity
  8
AM_5
100
AcDbDimension
  2
*D11
 10
3218.705402038574
 20
2120.768124644337
 30
0.0
 11
3214.705402038574
 21
2120.768124644337
 31
0.0
 70
   160
  1
D
 71
     5
 42
8.0
  3
SYS$0
100
AcDbAlignedDimension
 13
3210.705402038574
 23
2111.768124644338
 33
0.0
 14
3218.705402038574
 24
2111.768124644338
 34
0.0
100
AcDbRotatedDimension
  0
DIMENSION
  5
3289C
330
1F
100
AcDbEntity
  8
AM_5
100
AcDbDimension
  2
*D12
 10
3141.914324837376
 20
2081.768124644338
 30
0.0
 11
3137.914324837376
 21
2081.768124644338
 31
0.0
 70
   160
  1
D
 71
     5
 42
8.0
  3
SYS$0
100
AcDbAlignedDimension
 13
3133.914324837376
 23
2072.768124644338
 33
0.0
 14
3141.914324837376
 24
2072.768124644338
 34
0.0
100
AcDbRotatedDimension
  0
DIMENSION
  5
3289D
330
1F
100
AcDbEntity
  8
AM_5
100
AcDbDimension
  2
*D13
 10
3157.914324837376
 20
2018.768124644338
 30
0.0
 11
3137.914324837376
 21
2018.768124644338
 31
0.0
 70
   160
  1
%%cA
 71
     5
 42
40.0
  3
SYS$0
100
AcDbAlignedDimension
 13
3117.914324837376
 23
2030.268124644338
 33
0.0
 14
3157.914324837376
 24
2030.268124644338
 34
0.0
100
AcDbRotatedDimension
  0
DIMENSION
  5
3289E
330
1F
100
AcDbEntity
  8
AM_5
100
AcDbDimension
  2
*D14
 10
3165.914324837376
 20
2039.268124644338
 30
0.0
 11
3163.314324837376
 21
2033.018124644338
 31
0.0
 70
    32
  1
I
 71
     5
 42
12.5
  3
SYS$0
100
AcDbAlignedDimension
 13
3155.414324837376
 23
2026.768124644338
 33
0.0
 14
3157.914324837376
 24
2039.268124644338
 34
0.0
 50
90.0
100
AcDbRotatedDimension
  0
DIMENSION
  5
3289F
330
1F
100
AcDbEntity
  8
AM_5
100
AcDbDimension
  2
*D15
 10
3165.914324837376
 20
2073.768124644338
 30
0.0
 11
3163.314324837376
 21
2061.768124644339
 31
0.0
 70
    32
  1
L1
 71
     5
 42
24.0
  3
SYS$0
100
AcDbAlignedDimension
 13
3156.414324837376
 23
2049.768124644338
 33
0.0
 14
3140.914324837376
 24
2073.768124644338
 34
0.0
 50
90.0
100
AcDbRotatedDimension
  0
DIMENSION
  5
328A0
330
1F
100
AcDbEntity
  8
AM_5
100
AcDbDimension
  2
*D16
 10
3173.914324837376
 20
2073.768124644338
 30
0.0
 11
3173.914324837376
 21
2051.308819782711
 31
0.0
 70
   160
  1
L2
 71
     5
 42
47.00000000000023
  3
SYS$0
100
AcDbAlignedDimension
 13
3155.414324837376
 23
2026.768124644338
 33
0.0
 14
3140.914324837376
 24
2073.768124644338
 34
0.0
 50
90.0
100
AcDbRotatedDimension
  0
MTEXT
  5
328A1
330
1F
100
AcDbEntity
  8
AM_6
100
AcDbMText
 10
3137.914324837376
 20
2013.065192997293
 30
0.0
 40
3.2
 41
32.65685424949243
 71
     5
 72
     5
  1
Aタイプ
 73
     1
 44
1.0
1001
ACAD
1000
MTEXTBEGIN
1070
    73
1070
     1
1070
    44
1040
1.0
1070
    74
1070
     0
1000
MTEXTEND
1000
ACAD_MTEXT_DEFINED_HEIGHT_BEGIN
1070
    46
1040
5.656854249492381
1000
ACAD_MTEXT_DEFINED_HEIGHT_END
  0
LWPOLYLINE
  5
328A2
330
1F
100
AcDbEntity
  8
0部品17
100
AcDbPolyline
 90
        4
 70
     1
 43
0.0
 10
3128.58589771263
 20
2015.893620122039
 10
3147.242751962122
 20
2015.893620122039
 10
3147.242751962122
 20
2010.236765872547
 10
3128.58589771263
 20
2010.236765872547
1001
GENIUS_GENREC_14
1002
{
1000
PYDIR
1011
3128.58589771263
1021
2010.236765872547
1031
0.0
1002
}
1002
{
1000
PXDIR
1011
3147.242751962122
1021
2015.893620122039
1031
0.0
1002
}
1002
{
1000
PORI
1011
3128.58589771263
1021
2015.893620122039
1031
0.0
1002
}
1002
{
1000
PINS
1011
3128.58589771263
1021
2015.893620122039
1031
0.0
1002
}
1002
{
1000
PINS2
1011
3147.242751962122
1021
2010.236765872547
1031
0.0
1002
}
1002
{
1000
C
1070
     1
1002
}
1001
GENIUS_GENODEF_13
1002
{
1000
HIER
1070
     0
1002
}
1002
{
1000
MANEDIT
1070
     0
1002
}
1002
{
1000
NOSEL
1070
     0
1002
}
1002
{
1000
BEHIND
1070
     0
1002
}
1002
{
1000
OTHER
1070
     0
1002
}
1002
{
1000
REACTOR
1002
}
1001
GENIUS_GENOBJ-N-REC_13
1002
{
1000
OWNER
1000
GEN
1002
}
  0
MTEXT
  5
328A3
330
1F
100
AcDbEntity
  8
AM_6
100
AcDbMText
 10
3214.705402038574
 20
2013.065192997293
 30
0.0
 40
3.2
 41
32.65685424949243
 71
     5
 72
     5
  1
Bタイプ
 73
     1
 44
1.0
1001
ACAD
1000
MTEXTBEGIN
1070
    73
1070
     1
1070
    44
1040
1.0
1070
    74
1070
     0
1000
MTEXTEND
1000
ACAD_MTEXT_DEFINED_HEIGHT_BEGIN
1070
    46
1040
5.656854249492381
1000
ACAD_MTEXT_DEFINED_HEIGHT_END
  0
LWPOLYLINE
  5
328A4
330
1F
100
AcDbEntity
  8
0部品17
100
AcDbPolyline
 90
        4
 70
     1
 43
0.0
 10
3205.376974913828
 20
2015.893620122039
 10
3224.03382916332
 20
2015.893620122039
 10
3224.03382916332
 20
2010.236765872547
 10
3205.376974913828
 20
2010.236765872547
1001
GENIUS_GENREC_14
1002
{
1000
PYDIR
1011
3205.376974913828
1021
2010.236765872547
1031
0.0
1002
}
1002
{
1000
PXDIR
1011
3224.03382916332
1021
2015.893620122039
1031
0.0
1002
}
1002
{
1000
PORI
1011
3205.376974913828
1021
2015.893620122039
1031
0.0
1002
}
1002
{
1000
PINS
1011
3205.376974913828
1021
2015.893620122039
1031
0.0
1002
}
1002
{
1000
PINS2
1011
3224.03382916332
1021
2010.236765872547
1031
0.0
1002
}
1002
{
1000
C
1070
     1
1002
}
1001
GENIUS_GENODEF_13
1002
{
1000
HIER
1070
     0
1002
}
1002
{
1000
MANEDIT
1070
     0
1002
}
1002
{
1000
NOSEL
1070
     0
1002
}
1002
{
1000
BEHIND
1070
     0
1002
}
1002
{
1000
OTHER
1070
     0
1002
}
1002
{
1000
REACTOR
1002
}
1001
GENIUS_GENOBJ-N-REC_13
1002
{
1000
OWNER
1000
GEN
1002
}
  0
LINE
  5
328A5
330
1F
100
AcDbEntity
  8
AM_0
100
AcDbLine
 10
3022.523017636616
 20
2022.652929724799
 30
0.0
 11
3022.523017636617
 21
1965.652929724795
 31
0.0
  0
LINE
  5
328A6
330
1F
100
AcDbEntity
  8
AM_0
100
AcDbLine
 10
3106.523017636618
 20
2015.652929724797
 30
0.0
 11
2991.523017636616
 21
2015.652929724797
 31
0.0
  0
LINE
  5
328A7
330
1F
100
AcDbEntity
  8
AM_4
100
AcDbLine
 10
3106.523017636618
 20
2005.652929724799
 30
0.0
 11
3090.523017636618
 21
2005.652929724799
 31
0.0
  0
LINE
  5
328A8
330
1F
100
AcDbEntity
  8
AM_4
100
AcDbLine
 10
3082.523017636617
 20
2005.652929724799
 30
0.0
 11
3050.523017636617
 21
2005.6529297248
 31
0.0
  0
LINE
  5
328A9
330
1F
100
AcDbEntity
  8
AM_4
100
AcDbLine
 10
3022.523017636617
 20
2005.652929724801
 30
0.0
 11
2991.523017636616
 21
2005.652929724801
 31
0.0
  0
LINE
  5
328AA
330
1F
100
AcDbEntity
  8
AM_4
100
AcDbLine
 10
3106.523017636618
 20
1995.652929724797
 30
0.0
 11
3030.523017636616
 21
1995.652929724798
 31
0.0
  0
LINE
  5
328AB
330
1F
100
AcDbEntity
  8
AM_4
100
AcDbLine
 10
3022.523017636616
 20
1995.652929724798
 30
0.0
 11
2991.523017636616
 21
1995.652929724799
 31
0.0
  0
LINE
  5
328AC
330
1F
100
AcDbEntity
  8
AM_4
100
AcDbLine
 10
3090.523017636618
 20
1985.652929724798
 30
0.0
 11
3082.523017636616
 21
1985.652929724798
 31
0.0
  0
LINE
  5
328AD
330
1F
100
AcDbEntity
  8
AM_4
100
AcDbLine
 10
3066.523017636616
 20
1985.652929724798
 30
0.0
 11
3050.523017636616
 21
1985.652929724799
 31
0.0
  0
LINE
  5
328AE
330
1F
100
AcDbEntity
  8
AM_4
100
AcDbLine
 10
3022.523017636615
 20
1985.652929724799
 30
0.0
 11
2991.523017636616
 21
1985.652929724799
 31
0.0
  0
LINE
  5
328AF
330
1F
100
AcDbEntity
  8
AM_5
100
AcDbLine
 10
3050.523017636617
 20
2022.652929724799
 30
0.0
 11
3050.523017636616
 21
1965.652929724795
 31
0.0
  0
LINE
  5
328B0
330
1F
100
AcDbEntity
  8
AM_4
100
AcDbLine
 10
3030.523017636616
 20
2022.652929724799
 30
0.0
 11
3030.523017636616
 21
1965.652929724795
 31
0.0
  0
LINE
  5
328B1
330
1F
100
AcDbEntity
  8
AM_5
100
AcDbLine
 10
3058.523017636617
 20
2022.652929724799
 30
0.0
 11
3058.523017636616
 21
1965.652929724795
 31
0.0
  0
LINE
  5
328B2
330
1F
100
AcDbEntity
  8
AM_5
100
AcDbLine
 10
3066.523017636617
 20
2022.652929724799
 30
0.0
 11
3066.523017636616
 21
1965.652929724795
 31
0.0
  0
LINE
  5
328B3
330
1F
100
AcDbEntity
  8
AM_5
100
AcDbLine
 10
3090.523017636618
 20
2022.652929724799
 30
0.0
 11
3090.523017636618
 21
1965.652929724795
 31
0.0
  0
LINE
  5
328B4
330
1F
100
AcDbEntity
  8
AM_0
100
AcDbLine
 10
3106.523017636618
 20
2022.6529297248
 30
0.0
 11
2991.523017636616
 21
2022.652929724799
 31
0.0
  0
MTEXT
  5
328B5
330
1F
100
AcDbEntity
  8
AM_6
100
AcDbMText
 10
3007.023017636616
 20
2019.152929724799
 30
0.0
 40
3.2
 41
30.99999999999982
 71
     5
 72
     5
  1
品番
 73
     1
 44
1.0
1001
ACAD
1000
MTEXTBEGIN
1070
    73
1070
     1
1070
    44
1040
1.0
1070
    74
1070
     0
1000
MTEXTEND
1000
ACAD_MTEXT_DEFINED_HEIGHT_BEGIN
1070
    46
1040
3.200000000000227
1000
ACAD_MTEXT_DEFINED_HEIGHT_END
  0
MTEXT
  5
328B6
330
1F
100
AcDbEntity
  8
AM_6
100
AcDbMText
 10
3026.523017636616
 20
2020.902929724798
 30
0.0
 40
2.799999999999999
 41
8.000000000000113
 71
     5
 72
     5
  1
耐荷重
 73
     1
 44
1.0
1001
ACAD
1000
MTEXTBEGIN
1070
    73
1070
     1
1070
    44
1040
1.0
1070
    74
1070
     0
1000
MTEXTEND
1000
ACAD_MTEXT_DEFINED_HEIGHT_BEGIN
1070
    46
1040
3.500000000000864
1000
ACAD_MTEXT_DEFINED_HEIGHT_END
  0
MTEXT
  5
328B7
330
1F
100
AcDbEntity
  8
AM_6
100
AcDbMText
 10
3040.523017636616
 20
2019.152929724798
 30
0.0
 40
3.2
 41
20.00000000000103
 71
     5
 72
     5
  1
D
 73
     1
 44
1.0
1001
ACAD
1000
MTEXTBEGIN
1070
    73
1070
     1
1070
    44
1040
1.0
1070
    74
1070
     0
1000
MTEXTEND
1000
ACAD_MTEXT_DEFINED_HEIGHT_BEGIN
1070
    46
1040
3.200000000000227
1000
ACAD_MTEXT_DEFINED_HEIGHT_END
  0
MTEXT
  5
328B8
330
1F
100
AcDbEntity
  8
AM_6
100
AcDbMText
 10
3054.523017636617
 20
2019.152929724798
 30
0.0
 40
3.2
 41
7.999999999999886
 71
     5
 72
     5
  1
L1
 73
     1
 44
1.0
1001
ACAD
1000
MTEXTBEGIN
1070
    73
1070
     1
1070
    44
1040
1.0
1070
    74
1070
     0
1000
MTEXTEND
  0
MTEXT
  5
328B9
330
1F
100
AcDbEntity
  8
AM_6
100
AcDbMText
 10
3062.523017636618
 20
2019.152929724798
 30
0.0
 40
3.2
 41
7.999999999999886
 71
     5
 72
     5
  1
L2
 73
     1
 44
1.0
1001
ACAD
1000
MTEXTBEGIN
1070
    73
1070
     1
1070
    44
1040
1.0
1070
    74
1070
     0
1000
MTEXTEND
  0
MTEXT
  5
328BA
330
1F
100
AcDbEntity
  8
AM_6
100
AcDbMText
 10
3086.523017636618
 20
2019.152929724798
 30
0.0
 40
3.2
 41
7.999999999999886
 71
     5
 72
     5
  1
A
 73
     1
 44
1.0
1001
ACAD
1000
MTEXTBEGIN
1070
    73
1070
     1
1070
    44
1040
1.0
1070
    74
1070
     0
1000
MTEXTEND
  0
LINE
  5
328BB
330
1F
100
AcDbEntity
  8
AM_4
100
AcDbLine
 10
3022.523017636617
 20
1975.652929724797
 30
0.0
 11
2991.523017636616
 21
1975.652929724796
 31
0.0
  0
LINE
  5
328BC
330
1F
100
AcDbEntity
  8
AM_0
100
AcDbLine
 10
2991.523017636616
 20
2022.652929724799
 30
0.0
 11
2991.523017636616
 21
1965.652929724795
 31
0.0
  0
LINE
  5
328BD
330
1F
100
AcDbEntity
  8
AM_0
100
AcDbLine
 10
3106.523017636618
 20
1965.652929724795
 30
0.0
 11
2991.523017636616
 21
1965.652929724795
 31
0.0
  0
MTEXT
  5
328BE
330
1F
100
AcDbEntity
  8
AM_6
100
AcDbMText
 10
3026.523017636616
 20
2017.402929724797
 30
0.0
 40
2.799999999999999
 41
8.000000000000113
 71
     5
 72
     5
  1
kN
 73
     1
 44
1.0
1001
ACAD
1000
MTEXTBEGIN
1070
    73
1070
     1
1070
    44
1040
1.0
1070
    74
1070
     0
1000
MTEXTEND
1000
ACAD_MTEXT_DEFINED_HEIGHT_BEGIN
1070
    46
1040
3.500000000000864
1000
ACAD_MTEXT_DEFINED_HEIGHT_END
  0
MTEXT
  5
328BF
330
1F
100
AcDbEntity
  8
AM_6
100
AcDbMText
 10
3054.523017636617
 20
2010.652929724799
 30
0.0
 40
3.2
 41
8.000000000000113
 71
     5
 72
     5
  1
24
 73
     1
 44
1.0
1001
ACAD
1000
MTEXTBEGIN
1070
    73
1070
     1
1070
    44
1040
1.0
1070
    74
1070
     0
1000
MTEXTEND
1000
ACAD_MTEXT_DEFINED_HEIGHT_BEGIN
1070
    46
1040
9.999999999996319
1000
ACAD_MTEXT_DEFINED_HEIGHT_END
  0
MTEXT
  5
328C0
330
1F
100
AcDbEntity
  8
AM_6
100
AcDbMText
 10
3086.523017636617
 20
2005.652929724797
 30
0.0
 40
3.2
 41
8.000000000001932
 71
     5
 72
     5
  1
40
 73
     1
 44
1.0
1001
ACAD
1000
MTEXTBEGIN
1070
    73
1070
     1
1070
    44
1040
1.0
1070
    74
1070
     0
1000
MTEXTEND
1000
ACAD_MTEXT_DEFINED_HEIGHT_BEGIN
1070
    46
1040
19.99999999999927
1000
ACAD_MTEXT_DEFINED_HEIGHT_END
  0
LINE
  5
328C1
330
1F
100
AcDbEntity
  8
AM_0
100
AcDbLine
 10
3106.523017636618
 20
2022.652929724798
 30
0.0
 11
3106.523017636618
 21
1965.652929724795
 31
0.0
  0
MTEXT
  5
328C2
330
1F
100
AcDbEntity
  8
AM_6
100
AcDbMText
 10
3098.523017636618
 20
2010.652929724798
 30
0.0
 40
3.2
 41
15.99999999999966
 71
     5
 72
     5
  1
Aタイプ
 73
     1
 44
1.0
1001
ACAD
1000
MTEXTBEGIN
1070
    73
1070
     1
1070
    44
1040
1.0
1070
    74
1070
     0
1000
MTEXTEND
1000
ACAD_MTEXT_DEFINED_HEIGHT_BEGIN
1070
    46
1040
9.999999999996774
1000
ACAD_MTEXT_DEFINED_HEIGHT_END
  0
MTEXT
  5
328C3
330
1F
100
AcDbEntity
  8
AM_6
100
AcDbMText
 10
3098.523017636618
 20
2019.152929724798
 30
0.0
 40
3.2
 41
15.99999999999897
 71
     5
 72
     5
  1
タイプ
 73
     1
 44
1.0
1001
ACAD
1000
MTEXTBEGIN
1070
    73
1070
     1
1070
    44
1040
1.0
1070
    74
1070
     0
1000
MTEXTEND
1000
ACAD_MTEXT_DEFINED_HEIGHT_BEGIN
1070
    46
1040
3.199999999999772
1000
ACAD_MTEXT_DEFINED_HEIGHT_END
  0
MTEXT
  5
328C4
330
1F
100
AcDbEntity
  8
AM_6
100
AcDbMText
 10
3026.523017636617
 20
1990.652929724796
 30
0.0
 40
3.2
 41
8.000000000000113
 71
     5
 72
     5
  1
0.6
 73
     1
 44
1.0
1001
ACAD
1000
MTEXTBEGIN
1070
    73
1070
     1
1070
    44
1040
1.0
1070
    74
1070
     0
1000
MTEXTEND
1000
ACAD_MTEXT_DEFINED_HEIGHT_BEGIN
1070
    46
1040
50.00000000000155
1000
ACAD_MTEXT_DEFINED_HEIGHT_END
  0
MTEXT
  5
328C5
330
1F
100
AcDbEntity
  8
AM_6
100
AcDbMText
 10
3040.523017636616
 20
2005.652929724798
 30
0.0
 40
3.2
 41
20.00000000000079
 71
     5
 72
     5
  1
M8×P1.25
 73
     1
 44
1.0
1001
ACAD
1000
MTEXTBEGIN
1070
    73
1070
     1
1070
    44
1040
1.0
1070
    74
1070
     0
1000
MTEXTEND
1000
ACAD_MTEXT_DEFINED_HEIGHT_BEGIN
1070
    46
1040
19.99999999999859
1000
ACAD_MTEXT_DEFINED_HEIGHT_END
  0
MTEXT
  5
328C6
330
1F
100
AcDbEntity
  8
AM_6
100
AcDbMText
 10
3098.523017636618
 20
2000.652929724796
 30
0.0
 40
3.2
 41
15.99999999999966
 71
     5
 72
     5
  1
Bタイプ
 73
     1
 44
1.0
1001
ACAD
1000
MTEXTBEGIN
1070
    73
1070
     1
1070
    44
1040
1.0
1070
    74
1070
     0
1000
MTEXTEND
1000
ACAD_MTEXT_DEFINED_HEIGHT_BEGIN
1070
    46
1040
9.999999999997228
1000
ACAD_MTEXT_DEFINED_HEIGHT_END
  0
MTEXT
  5
328C7
330
1F
100
AcDbEntity
  8
AM_6
100
AcDbMText
 10
3086.523017636618
 20
1990.652929724799
 30
0.0
 40
3.2
 41
8.000000000001023
 71
     5
 72
     5
  1
50
 73
     1
 44
1.0
1001
ACAD
1000
MTEXTBEGIN
1070
    73
1070
     1
1070
    44
1040
1.0
1070
    74
1070
     0
1000
MTEXTEND
1000
ACAD_MTEXT_DEFINED_HEIGHT_BEGIN
1070
    46
1040
9.999999999996774
1000
ACAD_MTEXT_DEFINED_HEIGHT_END
  0
MTEXT
  5
328C8
330
1F
100
AcDbEntity
  8
AM_6
100
AcDbMText
 10
3086.523017636618
 20
1980.652929724796
 30
0.0
 40
3.2
 41
8.000000000001023
 71
     5
 72
     5
  1
60
 73
     1
 44
1.0
1001
ACAD
1000
MTEXTBEGIN
1070
    73
1070
     1
1070
    44
1040
1.0
1070
    74
1070
     0
1000
MTEXTEND
1000
ACAD_MTEXT_DEFINED_HEIGHT_BEGIN
1070
    46
1040
9.999999999996774
1000
ACAD_MTEXT_DEFINED_HEIGHT_END
  0
MTEXT
  5
328C9
330
1F
100
AcDbEntity
  8
AM_6
100
AcDbMText
 10
3086.523017636619
 20
1970.652929724797
 30
0.0
 40
3.2
 41
8.000000000001023
 71
     5
 72
     5
  1
50
 73
     1
 44
1.0
1001
ACAD
1000
MTEXTBEGIN
1070
    73
1070
     1
1070
    44
1040
1.0
1070
    74
1070
     0
1000
MTEXTEND
1000
ACAD_MTEXT_DEFINED_HEIGHT_BEGIN
1070
    46
1040
9.999999999996774
1000
ACAD_MTEXT_DEFINED_HEIGHT_END
  0
LINE
  5
328CA
330
1F
100
AcDbEntity
  8
AM_4
100
AcDbLine
 10
3106.523017636618
 20
1975.652929724797
 30
0.0
 11
3050.523017636616
 21
1975.652929724798
 31
0.0
  0
MTEXT
  5
328CB
330
1F
100
AcDbEntity
  8
AM_6
100
AcDbMText
 10
3062.523017636618
 20
1990.652929724802
 30
0.0
 40
3.2
 41
8.000000000000113
 71
     5
 72
     5
  1
49.5
 73
     1
 44
1.0
1001
ACAD
1000
MTEXTBEGIN
1070
    73
1070
     1
1070
    44
1040
1.0
1070
    74
1070
     0
1000
MTEXTEND
1000
ACAD_MTEXT_DEFINED_HEIGHT_BEGIN
1070
    46
1040
9.999999999997681
1000
ACAD_MTEXT_DEFINED_HEIGHT_END
  0
MTEXT
  5
328CC
330
1F
100
AcDbEntity
  8
AM_6
100
AcDbMText
 10
3007.023017636616
 20
2010.652929724798
 30
0.0
 40
3.2
 41
31.0000000000001
 71
     5
 72
     5
  1
EA16-08024
 73
     1
 44
1.0
1001
ACAD
1000
MTEXTBEGIN
1070
    73
1070
     1
1070
    44
1040
1.0
1070
    74
1070
     0
1000
MTEXTEND
1000
ACAD_MTEXT_DEFINED_HEIGHT_BEGIN
1070
    46
1040
10.00000000000018
1000
ACAD_MTEXT_DEFINED_HEIGHT_END
  0
MTEXT
  5
328CD
330
1F
100
AcDbEntity
  8
AM_6
100
AcDbMText
 10
3007.023017636616
 20
2000.652929724796
 30
0.0
 40
3.2
 41
31.0000000000001
 71
     5
 72
     5
  1
EA16-08032
 73
     1
 44
1.0
1001
ACAD
1000
MTEXTBEGIN
1070
    73
1070
     1
1070
    44
1040
1.0
1070
    74
1070
     0
1000
MTEXTEND
1000
ACAD_MTEXT_DEFINED_HEIGHT_BEGIN
1070
    46
1040
10.00000000000018
1000
ACAD_MTEXT_DEFINED_HEIGHT_END
  0
MTEXT
  5
328CE
330
1F
100
AcDbEntity
  8
AM_6
100
AcDbMText
 10
3007.023017636616
 20
1990.652929724797
 30
0.0
 40
3.2
 41
31.0000000000001
 71
     5
 72
     5
  1
EA16-100255
 73
     1
 44
1.0
1001
ACAD
1000
MTEXTBEGIN
1070
    73
1070
     1
1070
    44
1040
1.0
1070
    74
1070
     0
1000
MTEXTEND
1000
ACAD_MTEXT_DEFINED_HEIGHT_BEGIN
1070
    46
1040
10.00000000000018
1000
ACAD_MTEXT_DEFINED_HEIGHT_END
  0
MTEXT
  5
328CF
330
1F
100
AcDbEntity
  8
AM_6
100
AcDbMText
 10
3007.023017636616
 20
1980.652929724797
 30
0.0
 40
3.2
 41
31.0000000000001
 71
     5
 72
     5
  1
EA16-10026
 73
     1
 44
1.0
1001
ACAD
1000
MTEXTBEGIN
1070
    73
1070
     1
1070
    44
1040
1.0
1070
    74
1070
     0
1000
MTEXTEND
1000
ACAD_MTEXT_DEFINED_HEIGHT_BEGIN
1070
    46
1040
10.00000000000018
1000
ACAD_MTEXT_DEFINED_HEIGHT_END
  0
MTEXT
  5
328D0
330
1F
100
AcDbEntity
  8
AM_6
100
AcDbMText
 10
3007.023017636616
 20
1970.652929724798
 30
0.0
 40
3.2
 41
31.0000000000001
 71
     5
 72
     5
  1
EA16-10034
 73
     1
 44
1.0
1001
ACAD
1000
MTEXTBEGIN
1070
    73
1070
     1
1070
    44
1040
1.0
1070
    74
1070
     0
1000
MTEXTEND
1000
ACAD_MTEXT_DEFINED_HEIGHT_BEGIN
1070
    46
1040
10.00000000000018
1000
ACAD_MTEXT_DEFINED_HEIGHT_END
  0
LINE
  5
328D1
330
1F
100
AcDbEntity
  8
AM_5
100
AcDbLine
 10
3082.523017636617
 20
2022.652929724798
 30
0.0
 11
3082.523017636616
 21
1965.652929724794
 31
0.0
  0
MTEXT
  5
328D2
330
1F
100
AcDbEntity
  8
AM_6
100
AcDbMText
 10
3070.523017636618
 20
2019.152929724798
 30
0.0
 40
3.2
 41
7.999999999999886
 71
     5
 72
     5
  1
H
 73
     1
 44
1.0
1001
ACAD
1000
MTEXTBEGIN
1070
    73
1070
     1
1070
    44
1040
1.0
1070
    74
1070
     0
1000
MTEXTEND
  0
MTEXT
  5
328D3
330
1F
100
AcDbEntity
  8
AM_6
100
AcDbMText
 10
3070.523017636617
 20
1985.652929724796
 30
0.0
 40
3.2
 41
8.000000000000113
 71
     5
 72
     5
  1
10.5
 73
     1
 44
1.0
1001
ACAD
1000
MTEXTBEGIN
1070
    73
1070
     1
1070
    44
1040
1.0
1070
    74
1070
     0
1000
MTEXTEND
1000
ACAD_MTEXT_DEFINED_HEIGHT_BEGIN
1070
    46
1040
19.99999999999677
1000
ACAD_MTEXT_DEFINED_HEIGHT_END
  0
MTEXT
  5
328D4
330
1F
100
AcDbEntity
  8
AM_6
100
AcDbMText
 10
3040.523017636616
 20
1980.652929724796
 30
0.0
 40
3.2
 41
20.00000000000079
 71
     5
 72
     5
  1
M10×P1.5
 73
     1
 44
1.0
1001
ACAD
1000
MTEXTBEGIN
1070
    73
1070
     1
1070
    44
1040
1.0
1070
    74
1070
     0
1000
MTEXTEND
1000
ACAD_MTEXT_DEFINED_HEIGHT_BEGIN
1070
    46
1040
30.00000000000269
1000
ACAD_MTEXT_DEFINED_HEIGHT_END
  0
MTEXT
  5
328D5
330
1F
100
AcDbEntity
  8
AM_6
100
AcDbMText
 10
3054.523017636617
 20
1990.652929724802
 30
0.0
 40
3.2
 41
8.000000000000113
 71
     5
 72
     5
  1
25.5
 73
     1
 44
1.0
1001
ACAD
1000
MTEXTBEGIN
1070
    73
1070
     1
1070
    44
1040
1.0
1070
    74
1070
     0
1000
MTEXTEND
1000
ACAD_MTEXT_DEFINED_HEIGHT_BEGIN
1070
    46
1040
9.999999999997681
1000
ACAD_MTEXT_DEFINED_HEIGHT_END
  0
MTEXT
  5
328D6
330
1F
100
AcDbEntity
  8
AM_6
100
AcDbMText
 10
3098.523017636616
 20
1985.652929724797
 30
0.0
 40
3.2
 41
16.00000000000011
 71
     5
 72
     5
  1
Aタイプ
 73
     1
 44
1.0
1001
ACAD
1000
MTEXTBEGIN
1070
    73
1070
     1
1070
    44
1040
1.0
1070
    74
1070
     0
1000
MTEXTEND
1000
ACAD_MTEXT_DEFINED_HEIGHT_BEGIN
1070
    46
1040
19.99999999999836
1000
ACAD_MTEXT_DEFINED_HEIGHT_END
  0
MTEXT
  5
328D7
330
1F
100
AcDbEntity
  8
AM_6
100
AcDbMText
 10
3098.523017636618
 20
1970.652929724794
 30
0.0
 40
3.2
 41
15.99999999999966
 71
     5
 72
     5
  1
Bタイプ
 73
     1
 44
1.0
1001
ACAD
1000
MTEXTBEGIN
1070
    73
1070
     1
1070
    44
1040
1.0
1070
    74
1070
     0
1000
MTEXTEND
1000
ACAD_MTEXT_DEFINED_HEIGHT_BEGIN
1070
    46
1040
9.999999999997228
1000
ACAD_MTEXT_DEFINED_HEIGHT_END
  0
MTEXT
  5
328D8
330
1F
100
AcDbEntity
  8
AM_6
100
AcDbMText
 10
3054.523017636617
 20
1970.652929724796
 30
0.0
 40
3.2
 41
8.000000000000113
 71
     5
 72
     5
  1
34
 73
     1
 44
1.0
1001
ACAD
1000
MTEXTBEGIN
1070
    73
1070
     1
1070
    44
1040
1.0
1070
    74
1070
     0
1000
MTEXTEND
1000
ACAD_MTEXT_DEFINED_HEIGHT_BEGIN
1070
    46
1040
9.999999999996319
1000
ACAD_MTEXT_DEFINED_HEIGHT_END
  0
MTEXT
  5
328D9
330
1F
100
AcDbEntity
  8
AM_6
100
AcDbMText
 10
3054.523017636617
 20
1980.652929724796
 30
0.0
 40
3.2
 41
8.000000000000113
 71
     5
 72
     5
  1
26
 73
     1
 44
1.0
1001
ACAD
1000
MTEXTBEGIN
1070
    73
1070
     1
1070
    44
1040
1.0
1070
    74
1070
     0
1000
MTEXTEND
1000
ACAD_MTEXT_DEFINED_HEIGHT_BEGIN
1070
    46
1040
9.999999999996319
1000
ACAD_MTEXT_DEFINED_HEIGHT_END
  0
MTEXT
  5
328DA
330
1F
100
AcDbEntity
  8
AM_6
100
AcDbMText
 10
3054.523017636617
 20
2000.652929724799
 30
0.0
 40
3.2
 41
8.000000000000113
 71
     5
 72
     5
  1
32
 73
     1
 44
1.0
1001
ACAD
1000
MTEXTBEGIN
1070
    73
1070
     1
1070
    44
1040
1.0
1070
    74
1070
     0
1000
MTEXTEND
1000
ACAD_MTEXT_DEFINED_HEIGHT_BEGIN
1070
    46
1040
9.999999999996319
1000
ACAD_MTEXT_DEFINED_HEIGHT_END
  0
MTEXT
  5
328DB
330
1F
100
AcDbEntity
  8
AM_6
100
AcDbMText
 10
3062.523017636617
 20
2010.652929724799
 30
0.0
 40
3.2
 41
8.000000000000113
 71
     5
 72
     5
  1
47
 73
     1
 44
1.0
1001
ACAD
1000
MTEXTBEGIN
1070
    73
1070
     1
1070
    44
1040
1.0
1070
    74
1070
     0
1000
MTEXTEND
1000
ACAD_MTEXT_DEFINED_HEIGHT_BEGIN
1070
    46
1040
9.999999999996319
1000
ACAD_MTEXT_DEFINED_HEIGHT_END
  0
MTEXT
  5
328DC
330
1F
100
AcDbEntity
  8
AM_6
100
AcDbMText
 10
3062.523017636616
 20
1970.652929724796
 30
0.0
 40
3.2
 41
8.000000000000113
 71
     5
 72
     5
  1
88
 73
     1
 44
1.0
1001
ACAD
1000
MTEXTBEGIN
1070
    73
1070
     1
1070
    44
1040
1.0
1070
    74
1070
     0
1000
MTEXTEND
1000
ACAD_MTEXT_DEFINED_HEIGHT_BEGIN
1070
    46
1040
9.999999999996319
1000
ACAD_MTEXT_DEFINED_HEIGHT_END
  0
MTEXT
  5
328DD
330
1F
100
AcDbEntity
  8
AM_6
100
AcDbMText
 10
3062.523017636617
 20
1980.652929724796
 30
0.0
 40
3.2
 41
8.000000000000113
 71
     5
 72
     5
  1
50
 73
     1
 44
1.0
1001
ACAD
1000
MTEXTBEGIN
1070
    73
1070
     1
1070
    44
1040
1.0
1070
    74
1070
     0
1000
MTEXTEND
1000
ACAD_MTEXT_DEFINED_HEIGHT_BEGIN
1070
    46
1040
9.999999999996319
1000
ACAD_MTEXT_DEFINED_HEIGHT_END
  0
MTEXT
  5
328DE
330
1F
100
AcDbEntity
  8
AM_6
100
AcDbMText
 10
3062.523017636617
 20
2000.652929724799
 30
0.0
 40
3.2
 41
8.000000000000113
 71
     5
 72
     5
  1
86
 73
     1
 44
1.0
1001
ACAD
1000
MTEXTBEGIN
1070
    73
1070
     1
1070
    44
1040
1.0
1070
    74
1070
     0
1000
MTEXTEND
1000
ACAD_MTEXT_DEFINED_HEIGHT_BEGIN
1070
    46
1040
9.999999999996319
1000
ACAD_MTEXT_DEFINED_HEIGHT_END
  0
MTEXT
  5
328DF
330
1F
100
AcDbEntity
  8
AM_6
100
AcDbMText
 10
3070.523017636617
 20
2010.652929724799
 30
0.0
 40
3.2
 41
8.000000000000113
 71
     5
 72
     5
  1
10.5
 73
     1
 44
1.0
1001
ACAD
1000
MTEXTBEGIN
1070
    73
1070
     1
1070
    44
1040
1.0
1070
    74
1070
     0
1000
MTEXTEND
1000
ACAD_MTEXT_DEFINED_HEIGHT_BEGIN
1070
    46
1040
9.999999999996319
1000
ACAD_MTEXT_DEFINED_HEIGHT_END
  0
MTEXT
  5
328E0
330
1F
100
AcDbEntity
  8
AM_6
100
AcDbMText
 10
3070.523017636617
 20
1970.652929724796
 30
0.0
 40
3.2
 41
8.000000000000113
 71
     5
 72
     5
  1
40.5
 73
     1
 44
1.0
1001
ACAD
1000
MTEXTBEGIN
1070
    73
1070
     1
1070
    44
1040
1.0
1070
    74
1070
     0
1000
MTEXTEND
1000
ACAD_MTEXT_DEFINED_HEIGHT_BEGIN
1070
    46
1040
9.999999999996319
1000
ACAD_MTEXT_DEFINED_HEIGHT_END
  0
MTEXT
  5
328E1
330
1F
100
AcDbEntity
  8
AM_6
100
AcDbMText
 10
3070.523017636617
 20
2000.652929724799
 30
0.0
 40
3.2
 41
8.000000000000113
 71
     5
 72
     5
  1
41.5
 73
     1
 44
1.0
1001
ACAD
1000
MTEXTBEGIN
1070
    73
1070
     1
1070
    44
1040
1.0
1070
    74
1070
     0
1000
MTEXTEND
1000
ACAD_MTEXT_DEFINED_HEIGHT_BEGIN
1070
    46
1040
9.999999999996319
1000
ACAD_MTEXT_DEFINED_HEIGHT_END
  0
DIMENSION
  5
329E5
330
1F
100
AcDbEntity
  8
AM_5
100
AcDbDimension
  2
*D17
 10
3242.705402038575
 20
2080.768124644338
 30
0.0
 11
3240.105402038575
 21
2060.018124644338
 31
0.0
 70
    32
  1
H
 71
     5
 42
41.50000000000022
  3
SYS$0
100
AcDbAlignedDimension
 13
3234.705402038574
 23
2039.268124644338
 33
0.0
 14
3233.205402038574
 24
2080.768124644338
 34
0.0
 50
90.0
100
AcDbRotatedDimension
  0
DIMENSION
  5
32A4C
330
1F
100
AcDbEntity
  8
AM_5
100
AcDbDimension
  2
*D18
 10
3165.914324837376
 20
2049.768124644338
 30
0.0
 11
3163.314324837376
 21
2044.518124644338
 31
0.0
 70
    32
  1
H
 71
     5
 42
10.50000000000022
  3
SYS$0
100
AcDbAlignedDimension
 13
3157.914324837376
 23
2039.268124644338
 33
0.0
 14
3156.414324837376
 24
2049.768124644338
 34
0.0
 50
90.0
100
AcDbRotatedDimension
  0
LINE
  5
32A99
330
1F
100
AcDbEntity
  8
AM_5
100
AcDbLine
 10
3074.523017636617
 20
2022.652929724799
 30
0.0
 11
3074.523017636616
 21
1965.652929724795
 31
0.0
  0
MTEXT
  5
32A9A
330
1F
100
AcDbEntity
  8
AM_6
100
AcDbMText
 10
3078.523017636618
 20
2019.152929724798
 30
0.0
 40
3.2
 41
7.999999999999886
 71
     5
 72
     5
  1
I
 73
     1
 44
1.0
1001
ACAD
1000
MTEXTBEGIN
1070
    73
1070
     1
1070
    44
1040
1.0
1070
    74
1070
     0
1000
MTEXTEND
  0
MTEXT
  5
32A9B
330
1F
100
AcDbEntity
  8
AM_6
100
AcDbMText
 10
3078.523017636617
 20
1985.652929724796
 30
0.0
 40
3.2
 41
8.000000000000113
 71
     5
 72
     5
  1
13.5
 73
     1
 44
1.0
1001
ACAD
1000
MTEXTBEGIN
1070
    73
1070
     1
1070
    44
1040
1.0
1070
    74
1070
     0
1000
MTEXTEND
1000
ACAD_MTEXT_DEFINED_HEIGHT_BEGIN
1070
    46
1040
19.99999999999677
1000
ACAD_MTEXT_DEFINED_HEIGHT_END
  0
MTEXT
  5
32A9C
330
1F
100
AcDbEntity
  8
AM_6
100
AcDbMText
 10
3078.523017636617
 20
2010.652929724799
 30
0.0
 40
3.2
 41
8.000000000000113
 71
     5
 72
     5
  1
12.5
 73
     1
 44
1.0
1001
ACAD
1000
MTEXTBEGIN
1070
    73
1070
     1
1070
    44
1040
1.0
1070
    74
1070
     0
1000
MTEXTEND
1000
ACAD_MTEXT_DEFINED_HEIGHT_BEGIN
1070
    46
1040
9.999999999996319
1000
ACAD_MTEXT_DEFINED_HEIGHT_END
  0
MTEXT
  5
32A9D
330
1F
100
AcDbEntity
  8
AM_6
100
AcDbMText
 10
3078.523017636616
 20
1970.652929724796
 30
0.0
 40
3.2
 41
8.000000000000113
 71
     5
 72
     5
  1
13.5
 73
     1
 44
1.0
1001
ACAD
1000
MTEXTBEGIN
1070
    73
1070
     1
1070
    44
1040
1.0
1070
    74
1070
     0
1000
MTEXTEND
1000
ACAD_MTEXT_DEFINED_HEIGHT_BEGIN
1070
    46
1040
9.999999999996319
1000
ACAD_MTEXT_DEFINED_HEIGHT_END
  0
MTEXT
  5
32A9E
330
1F
100
AcDbEntity
  8
AM_6
100
AcDbMText
 10
3078.523017636617
 20
2000.652929724799
 30
0.0
 40
3.2
 41
8.000000000000113
 71
     5
 72
     5
  1
12.5
 73
     1
 44
1.0
1001
ACAD
1000
MTEXTBEGIN
1070
    73
1070
     1
1070
    44
1040
1.0
1070
    74
1070
     0
1000
MTEXTEND
1000
ACAD_MTEXT_DEFINED_HEIGHT_BEGIN
1070
    46
1040
9.999999999996319
1000
ACAD_MTEXT_DEFINED_HEIGHT_END
  0
ENDSEC
  0
SECTION
  2
OBJECTS
  0
DICTIONARY
  5
C
330
0
100
AcDbDictionary
281
     1
  3
ACAD_2007HEADERVARS_RT
350
32AEE
  3
ACAD_BGPLOT_KEY
350
AB06
  3
ACAD_COLOR
350
A91D
  3
ACAD_GROUP
350
D
  3
ACAD_LAYOUT
350
1A
  3
ACAD_MATERIAL
350
A91C
  3
ACAD_MLINESTYLE
350
17
  3
ACAD_PLOTSETTINGS
350
19
  3
ACAD_PLOTSTYLENAME
350
E
  3
ACAD_TABLESTYLE
350
AAB9
  3
ACAD_VISUALSTYLE
350
B0F1
  3
AcAsAppObject
350
3DA1
  3
ACASGREF_MASTER
350
3DE9
  3
AcDbVariableDictionary
350
34
  3
AcmDictionary
350
47
  3
AD_GREF_MODULE
350
3DEA
  3
AD_MAPI_MODULE
350
3E06
  3
AMG
350
2B
  3
AMGSNAPSETTINGS
350
7D
  3
ASE_INDEX_DICTIONARY
350
224C9
  3
DWGPROPS
350
32AED
  3
MAPISURF_MODULE
350
3DEB
  0
DICTIONARY
  5
3F95
330
2
100
AcDbDictionary
280
     1
281
     1
  3
ACAD_LAYERFILTERS
360
B466
  3
ACAD_LAYERSTATES
360
3F96
  3
ACLYDICTIONARY
360
B465
  3
AMLAYER_GROUPCOLORS
360
AAB4
  0
DICTIONARY
  5
2E416
330
2E415
100
AcDbDictionary
280
     1
281
     1
  3
ADSK_XREC_LAYER_RECONCILED
360
2E417
  0
DICTIONARY
  5
8A
330
1F
100
AcDbDictionary
280
     1
281
     1
  3
ACAD_SORTENTS
360
B1BA
  0
DICTIONARY
  5
32AEE
102
{ACAD_REACTORS
330
C
102
}
330
C
100
AcDbDictionary
281
     1
  3
DIMARCSYM
350
32AEF
  0
DICTIONARY
  5
AB06
102
{ACAD_REACTORS
330
C
102
}
330
C
100
AcDbDictionary
280
     1
281
     1
  0
DICTIONARY
  5
A91D
102
{ACAD_REACTORS
330
C
102
}
330
C
100
AcDbDictionary
281
     1
  0
DICTIONARY
  5
D
102
{ACAD_REACTORS
330
C
102
}
330
C
100
AcDbDictionary
281
     1
  0
DICTIONARY
  5
1A
102
{ACAD_REACTORS
330
C
102
}
330
C
100
AcDbDictionary
281
     1
  3
Model
350
22
  3
ﾚｲｱｳﾄ1
350
1E
  3
ﾚｲｱｳﾄ2
350
26
  0
DICTIONARY
  5
A91C
102
{ACAD_REACTORS
330
C
102
}
330
C
100
AcDbDictionary
281
     1
  3
ByBlock
350
B0EF
  3
ByLayer
350
B0EE
  3
Global
350
B0F0
  0
DICTIONARY
  5
17
102
{ACAD_REACTORS
330
C
102
}
330
C
100
AcDbDictionary
281
     1
  3
Standard
350
18
  0
DICTIONARY
  5
19
102
{ACAD_REACTORS
330
C
102
}
330
C
100
AcDbDictionary
281
     1
  0
ACDBDICTIONARYWDFLT
  5
E
102
{ACAD_REACTORS
330
C
102
}
330
C
100
AcDbDictionary
281
     1
  3
Normal
350
F
100
AcDbDictionaryWithDefault
340
F
  0
DICTIONARY
  5
AAB9
102
{ACAD_REACTORS
330
C
102
}
330
C
100
AcDbDictionary
281
     1
  3
Standard
350
AABA
  0
DICTIONARY
  5
B0F1
102
{ACAD_REACTORS
330
C
102
}
330
C
100
AcDbDictionary
281
     1
  3
2dWireframe
350
B0F7
  3
3D Hidden
350
B0F9
  3
3dWireframe
350
B0F8
  3
Basic
350
B0F6
  3
Brighten
350
B0FD
  3
ColorChange
350
B101
  3
Conceptual
350
B0FA
  3
Dim
350
B0FC
  3
Facepattern
350
B100
  3
Flat
350
B0F2
  3
FlatWithEdges
350
B0F3
  3
Gouraud
350
B0F4
  3
GouraudWithEdges
350
B0F5
  3
Linepattern
350
B0FF
  3
Realistic
350
B0FB
  3
Thicken
350
B0FE
  0
ACAD_PROXY_OBJECT
  5
3DA1
102
{ACAD_REACTORS
330
C
102
}
330
C
100
AcDbProxyObject
 90
      499
 91
      576
 95
   917527
 70
     0
 93
       10
310
407F
 94
        0
1001
ACAD
1000
AcRTDxfName
1000
ASAPP
  0
ACAD_PROXY_OBJECT
  5
3DE9
102
{ACAD_REACTORS
330
C
102
}
330
C
100
AcDbProxyObject
 90
      499
 91
      581
 95
   917527
 70
     0
 93
       34
310
010000407F
 94
        0
1001
ACAD
1000
AcRTDxfName
1000
ACASGREFMASTER
  0
DICTIONARY
  5
34
102
{ACAD_REACTORS
330
C
102
}
330
C
100
AcDbDictionary
281
     1
  3
CTABLESTYLE
350
AAF3
  3
DIMASSOC
350
A10C
  3
FIELDEVAL
350
AB07
  3
INDEXCTL
350
35
  3
SORTENTS
350
194C
  0
DICTIONARY
  5
47
102
{ACAD_REACTORS
330
C
102
}
330
C
100
AcDbDictionary
281
     1
  3
AcmBOM
350
7E8
  3
AcmStdDictionary
350
4C
  3
AMDTSECTSYM_ARROWCOLOR
350
A929
  0
ACAD_PROXY_OBJECT
  5
3DEA
102
{ACAD_REACTORS
330
C
102
}
330
C
100
AcDbProxyObject
 90
      499
 91
      582
 95
   917527
 70
     0
 93
      114
310
00000043800000000000000000003F
 94
        0
1001
ACAD
1000
AcRTDxfName
1000
ACADGREFMODULE
  0
ACAD_PROXY_OBJECT
  5
3E06
102
{ACAD_REACTORS
330
C
102
}
330
C
100
AcDbProxyObject
 90
      499
 91
      594
 95
   917527
 70
     0
 93
       34
310
05000044FF
 94
        0
1001
ACAD
1000
AcRTDxfName
1000
MAPIADMODULE
  0
DICTIONARY
  5
2B
102
{ACAD_REACTORS
330
C
102
}
330
C
100
AcDbDictionary
281
     1
  0
DICTIONARY
  5
7D
102
{ACAD_REACTORS
330
C
102
}
330
C
100
AcDbDictionary
281
     1
  0
DICTIONARY
  5
224C9
102
{ACAD_REACTORS
330
C
102
}
330
C
100
AcDbDictionary
281
     1
  3
ASEBlockHierarchyIndexRecord
350
224CA
1001
DCO15
1040
1737265970.928
  0
XRECORD
  5
32AED
102
{ACAD_REACTORS
330
C
102
}
330
C
100
AcDbXrecord
280
     1
  1
DWGPROPS COOKIE
  2

  3

  4

  6

  7

  8
Administrator
  9

300
AmdtFileType=84
301
=
302
=
303
=
304
=
305
=
306
=
307
=
308
=
309
=
 40
2.004259988425925
 41
2455567.680725081
 42
2456267.717032697
  1

 90
        1
  0
ACAD_PROXY_OBJECT
  5
3DEB
102
{ACAD_REACTORS
330
C
102
}
330
C
100
AcDbProxyObject
 90
      499
 91
      583
 95
   917527
 70
     0
 93
        8
310
047E
 94
        0
1001
ACAD
1000
AcRTDxfName
1000
AMDTMAPISURFMOUDULE
  0
DICTIONARY
  5
B466
102
{ACAD_REACTORS
330
3F95
102
}
330
3F95
100
AcDbDictionary
281
     1
  0
DICTIONARY
  5
3F96
102
{ACAD_REACTORS
330
3F95
102
}
330
3F95
100
AcDbDictionary
281
     1
  3
20011210
350
3FB7
  0
DICTIONARY
  5
B465
102
{ACAD_REACTORS
330
3F95
102
}
330
3F95
100
AcDbDictionary
281
     1
1001
ACAD
1000
<All
  0
DICTIONARY
  5
AAB4
102
{ACAD_REACTORS
330
3F95
102
}
330
3F95
100
AcDbDictionary
280
     1
281
     1
  0
XRECORD
  5
2E417
102
{ACAD_REACTORS
330
2E416
102
}
330
2E416
100
AcDbXrecord
280
     1
290
     1
  0
SORTENTSTABLE
  5
B1BA
102
{ACAD_REACTORS
330
8A
102
}
330
8A
100
AcDbSortentsTable
330
1F
331
324AC
  5
3139C
331
324AA
  5
31398
331
324A8
  5
31396
331
324AB
  5
3139B
331
324A9
  5
31397
  0
XRECORD
  5
32AEF
102
{ACAD_REACTORS
330
32AEE
102
}
330
32AEE
100
AcDbXrecord
280
     1
 70
     1
  0
LAYOUT
  5
22
102
{ACAD_XDICTIONARY
360
32AF2
102
}
102
{ACAD_REACTORS
330
1A
102
}
330
1A
100
AcDbPlotSettings
  1

  2
FX DocuWide 2050/2051
  4
A3
  6
AM_VIEW1
 40
3.174999952316284
 41
3.174999952316284
 42
3.17498779296875
 43
3.17498779296875
 44
296.989501953125
 45
419.9889831542968
 46
0.0
 47
1.295841228961961
 48
214.3704939521119
 49
367.5855324241176
140
275.6727856380065
141
407.629191407817
142
1.0
143
0.7225445603030646
 70
  3764
 72
     1
 73
     1
 74
     2
  7
monochrome.ctb
 75
     0
147
1.383997686703999
148
-1700.85588156276
149
-1647.985052086429
100
AcDbLayout
  1
Model
 70
     1
 71
     0
 10
0.0
 20
0.0
 11
12.0
 21
9.0
 12
0.0
 22
0.0
 32
0.0
 14
0.0
 24
0.0
 34
0.0
 15
0.0
 25
0.0
 35
0.0
146
0.0
 13
0.0
 23
0.0
 33
0.0
 16
1.0
 26
0.0
 36
0.0
 17
0.0
 27
1.0
 37
0.0
 76
     0
330
1F
331
B0EC
1001
ACAD_PSEXT
1000
FX DocuWide 2050/2051
1000
FX DocuWide 2050/2051
1000
IP_192.200.15.252
1000

1070
     0
  0
LAYOUT
  5
1E
102
{ACAD_XDICTIONARY
360
32AF0
102
}
102
{ACAD_REACTORS
330
1A
102
}
330
1A
100
AcDbPlotSettings
  1

  2
\\ML370\XEROX
  4
A4
  6

 40
3.174999952316284
 41
3.174999952316284
 42
3.175003051757812
 43
3.17498779296875
 44
209.8674926757813
 45
296.6719970703125
 46
0.0
 47
0.0
 48
0.0
 49
0.0
140
0.0
141
0.0
142
1.0
143
1.0
 70
   688
 72
     1
 73
     1
 74
     5
  7
monochrome.ctb
 75
    16
147
1.0
148
0.0
149
0.0
100
AcDbLayout
  1
ﾚｲｱｳﾄ1
 70
     1
 71
     1
 10
-3.17498779296875
 20
-3.174999952316284
 11
293.4970092773438
 21
206.692492723465
 12
0.0
 22
0.0
 32
0.0
 14
1.000000000000000E+20
 24
1.000000000000000E+20
 34
1.000000000000000E+20
 15
-1.000000000000000E+20
 25
-1.000000000000000E+20
 35
-1.000000000000000E+20
146
0.0
 13
0.0
 23
0.0
 33
0.0
 16
1.0
 26
0.0
 36
0.0
 17
0.0
 27
1.0
 37
0.0
 76
     0
330
1B
  0
LAYOUT
  5
26
102
{ACAD_XDICTIONARY
360
32AF4
102
}
102
{ACAD_REACTORS
330
1A
102
}
330
1A
100
AcDbPlotSettings
  1

  2
\\ML370\XEROX
  4

  6

 40
0.0
 41
0.0
 42
0.0
 43
0.0
 44
0.0
 45
0.0
 46
0.0
 47
0.0
 48
0.0
 49
0.0
140
0.0
141
0.0
142
1.0
143
1.0
 70
   688
 72
     0
 73
     0
 74
     5
  7
monochrome.ctb
 75
    16
147
1.0
148
0.0
149
0.0
100
AcDbLayout
  1
ﾚｲｱｳﾄ2
 70
     1
 71
     2
 10
0.0
 20
0.0
 11
12.0
 21
9.0
 12
0.0
 22
0.0
 32
0.0
 14
0.0
 24
0.0
 34
0.0
 15
0.0
 25
0.0
 35
0.0
146
0.0
 13
0.0
 23
0.0
 33
0.0
 16
1.0
 26
0.0
 36
0.0
 17
0.0
 27
1.0
 37
0.0
 76
     0
330
23
  0
MATERIAL
  5
B0EF
102
{ACAD_XDICTIONARY
360
32AFA
102
}
102
{ACAD_REACTORS
330
A91C
102
}
330
A91C
100
AcDbMaterial
  1
ByBlock
  0
MATERIAL
  5
B0EE
102
{ACAD_XDICTIONARY
360
32AF8
102
}
102
{ACAD_REACTORS
330
A91C
102
}
330
A91C
100
AcDbMaterial
  1
ByLayer
  0
MATERIAL
  5
B0F0
102
{ACAD_XDICTIONARY
360
32AFC
102
}
102
{ACAD_REACTORS
330
A91C
102
}
330
A91C
100
AcDbMaterial
  1
Global
  0
MLINESTYLE
  5
18
102
{ACAD_REACTORS
330
17
102
}
330
17
100
AcDbMlineStyle
  2
STANDARD
 70
     0
  3

 62
   256
 51
90.0
 52
90.0
 71
     2
 49
0.5
 62
   256
  6
BYLAYER
 49
-0.5
 62
   256
  6
BYLAYER
  0
ACDBPLACEHOLDER
  5
F
102
{ACAD_REACTORS
330
E
102
}
330
E
  0
TABLESTYLE
  5
AABA
102
{ACAD_XDICTIONARY
360
32AF6
102
}
102
{ACAD_REACTORS
330
AAB9
102
}
330
AAB9
100
AcDbTableStyle
  3
Standard
 70
     0
 71
     0
 40
1.5
 41
1.5
280
     0
281
     0
  7
STANDARD
140
4.5
170
     2
 62
     0
 63
     7
283
     0
274
    -2
284
     1
 64
     0
275
    -2
285
     1
 65
     0
276
    -2
286
     1
 66
     0
277
    -2
287
     1
 67
     0
278
    -2
288
     1
 68
     0
279
    -2
289
     1
 69
     0
  7
STANDARD
140
6.0
170
     5
 62
     0
 63
     7
283
     0
274
    -2
284
     1
 64
     0
275
    -2
285
     1
 65
     0
276
    -2
286
     1
 66
     0
277
    -2
287
     1
 67
     0
278
    -2
288
     1
 68
     0
279
    -2
289
     1
 69
     0
  7
STANDARD
140
4.5
170
     5
 62
     0
 63
     7
283
     0
274
    -2
284
     1
 64
     0
275
    -2
285
     1
 65
     0
276
    -2
286
     1
 66
     0
277
    -2
287
     1
 67
     0
278
    -2
288
     1
 68
     0
279
    -2
289
     1
 69
     0
  0
VISUALSTYLE
  5
B0F7
102
{ACAD_REACTORS
330
B0F1
102
}
330
B0F1
100
AcDbVisualStyle
  2
2dWireframe
 70
     4
 71
     0
 72
     2
 73
     0
 90
        0
 40
-0.6
 41
-30.0
 62
     5
 63
     7
 74
     1
 91
        4
 64
     7
 65
   257
 75
     1
175
     1
 42
1.0
 92
        0
 66
   257
 43
1.0
 76
     1
 77
     6
 78
     2
 67
     7
 79
     5
170
     0
171
     0
290
     0
174
     0
 93
        1
 44
0.0
173
     0
291
     0
 45
0.0
1001
ACAD
1000
AcDbSavedByObjectVersion
1070
     0
  0
VISUALSTYLE
  5
B0F9
102
{ACAD_REACTORS
330
B0F1
102
}
330
B0F1
100
AcDbVisualStyle
  2
3D Hidden
 70
     6
 71
     1
 72
     2
 73
     2
 90
        0
 40
-0.6
 41
-30.0
 62
     5
 63
     7
 74
     2
 91
        2
 64
     7
 65
   257
 75
     2
175
     1
 42
40.0
 92
        0
 66
   257
 43
1.0
 76
     1
 77
     6
 78
     2
 67
     7
 79
     3
170
     0
171
     0
290
     0
174
     0
 93
        1
 44
0.0
173
     0
291
     0
 45
0.0
1001
ACAD
1000
AcDbSavedByObjectVersion
1070
     0
  0
VISUALSTYLE
  5
B0F8
102
{ACAD_REACTORS
330
B0F1
102
}
330
B0F1
100
AcDbVisualStyle
  2
3dWireframe
 70
     5
 71
     0
 72
     2
 73
     0
 90
        0
 40
-0.6
 41
-30.0
 62
     5
 63
     7
 74
     1
 91
        4
 64
     7
 65
   257
 75
     1
175
     1
 42
1.0
 92
        0
 66
   257
 43
1.0
 76
     1
 77
     6
 78
     2
 67
     7
 79
     5
170
     0
171
     0
290
     0
174
     0
 93
        1
 44
0.0
173
     0
291
     0
 45
0.0
1001
ACAD
1000
AcDbSavedByObjectVersion
1070
     0
  0
VISUALSTYLE
  5
B0F6
102
{ACAD_REACTORS
330
B0F1
102
}
330
B0F1
100
AcDbVisualStyle
  2
Basic
 70
     7
 71
     1
 72
     0
 73
     1
 90
        0
 40
-0.6
 41
-30.0
 62
     5
 63
     7
 74
     0
 91
        4
 64
     7
 65
   257
 75
     1
175
     1
 42
1.0
 92
        8
 66
     7
 43
1.0
 76
     1
 77
     6
 78
     2
 67
     7
 79
     5
170
     0
171
     0
290
     0
174
     0
 93
        1
 44
0.0
173
     0
291
     1
 45
0.0
1001
ACAD
1000
AcDbSavedByObjectVersion
1070
     0
  0
VISUALSTYLE
  5
B0FD
102
{ACAD_REACTORS
330
B0F1
102
}
330
B0F1
100
AcDbVisualStyle
  2
Brighten
 70
    12
 71
     2
 72
     2
 73
     0
 90
        0
 40
-0.6
 41
-30.0
 62
     5
 63
     7
 74
     1
 91
        4
 64
     7
 65
   257
 75
     1
175
     1
 42
1.0
 92
        8
 66
     7
 43
1.0
 76
     1
 77
     6
 78
     2
 67
     7
 79
     5
170
     0
171
     0
290
     0
174
     0
 93
        1
 44
50.0
173
     0
291
     1
 45
0.0
1001
ACAD
1000
AcDbSavedByObjectVersion
1070
     0
  0
VISUALSTYLE
  5
B101
102
{ACAD_REACTORS
330
B0F1
102
}
330
B0F1
100
AcDbVisualStyle
  2
ColorChange
 70
    16
 71
     2
 72
     2
 73
     3
 90
        0
 40
-0.6
 41
-30.0
 62
     5
 63
     8
 74
     1
 91
        4
 64
     7
 65
   257
 75
     1
175
     1
 42
1.0
 92
        8
 66
     8
 43
1.0
 76
     1
 77
     6
 78
     2
 67
     7
 79
     5
170
     0
171
     0
290
     0
174
     0
 93
        1
 44
0.0
173
     0
291
     1
 45
0.0
1001
ACAD
1000
AcDbSavedByObjectVersion
1070
     0
  0
VISUALSTYLE
  5
B0FA
102
{ACAD_REACTORS
330
B0F1
102
}
330
B0F1
100
AcDbVisualStyle
  2
Conceptual
 70
     9
 71
     3
 72
     2
 73
     0
 90
        0
 40
-0.6
 41
-30.0
 62
     5
 63
     7
 74
     2
 91
        2
 64
     7
 65
   257
 75
     1
175
     1
 42
40.0
 92
        8
 66
     7
 43
1.0
 76
     1
 77
     6
 78
     2
 67
     7
 79
     3
170
     0
171
     0
290
     0
174
     0
 93
        1
 44
0.0
173
     0
291
     0
 45
0.0
1001
ACAD
1000
AcDbSavedByObjectVersion
1070
     0
  0
VISUALSTYLE
  5
B0FC
102
{ACAD_REACTORS
330
B0F1
102
}
330
B0F1
100
AcDbVisualStyle
  2
Dim
 70
    11
 71
     2
 72
     2
 73
     0
 90
        0
 40
-0.6
 41
-30.0
 62
     5
 63
     7
 74
     1
 91
        4
 64
     7
 65
   257
 75
     1
175
     1
 42
1.0
 92
        8
 66
     7
 43
1.0
 76
     1
 77
     6
 78
     2
 67
     7
 79
     5
170
     0
171
     0
290
     0
174
     0
 93
        1
 44
-50.0
173
     0
291
     1
 45
0.0
1001
ACAD
1000
AcDbSavedByObjectVersion
1070
     0
  0
VISUALSTYLE
  5
B100
102
{ACAD_REACTORS
330
B0F1
102
}
330
B0F1
100
AcDbVisualStyle
  2
Facepattern
 70
    15
 71
     2
 72
     2
 73
     0
 90
        0
 40
-0.6
 41
-30.0
 62
     5
 63
     7
 74
     1
 91
        4
 64
     7
 65
   257
 75
     1
175
     1
 42
1.0
 92
        8
 66
     7
 43
1.0
 76
     1
 77
     6
 78
     2
 67
     7
 79
     5
170
     0
171
     0
290
     0
174
     0
 93
        1
 44
0.0
173
     0
291
     1
 45
0.0
1001
ACAD
1000
AcDbSavedByObjectVersion
1070
     0
  0
VISUALSTYLE
  5
B0F2
102
{ACAD_REACTORS
330
B0F1
102
}
330
B0F1
100
AcDbVisualStyle
  2
Flat
 70
     0
 71
     2
 72
     1
 73
     1
 90
        2
 40
-0.6
 41
30.0
 62
     5
 63
     7
 74
     0
 91
        4
 64
     7
 65
   257
 75
     1
175
     1
 42
1.0
 92
        8
 66
     7
 43
1.0
 76
     1
 77
     6
 78
     2
 67
     7
 79
     5
170
     0
171
     0
290
     0
174
     0
 93
       13
 44
0.0
173
     0
291
     1
 45
0.0
1001
ACAD
1000
AcDbSavedByObjectVersion
1070
     0
  0
VISUALSTYLE
  5
B0F3
102
{ACAD_REACTORS
330
B0F1
102
}
330
B0F1
100
AcDbVisualStyle
  2
FlatWithEdges
 70
     1
 71
     2
 72
     1
 73
     1
 90
        2
 40
-0.6
 41
30.0
 62
     5
 63
     7
 74
     1
 91
        4
 64
     7
 65
   257
 75
     1
175
     1
 42
1.0
 92
        0
 66
   257
 43
1.0
 76
     1
 77
     6
 78
     2
 67
     7
 79
     5
170
     0
171
     0
290
     0
174
     0
 93
       13
 44
0.0
173
     0
291
     1
 45
0.0
1001
ACAD
1000
AcDbSavedByObjectVersion
1070
     0
  0
VISUALSTYLE
  5
B0F4
102
{ACAD_REACTORS
330
B0F1
102
}
330
B0F1
100
AcDbVisualStyle
  2
Gouraud
 70
     2
 71
     2
 72
     2
 73
     1
 90
        2
 40
-0.6
 41
30.0
 62
     5
 63
     7
 74
     0
 91
        4
 64
     7
 65
   257
 75
     1
175
     1
 42
1.0
 92
        0
 66
     7
 43
1.0
 76
     1
 77
     6
 78
     2
 67
     7
 79
     5
170
     0
171
     0
290
     0
174
     0
 93
       13
 44
0.0
173
     0
291
     1
 45
0.0
1001
ACAD
1000
AcDbSavedByObjectVersion
1070
     0
  0
VISUALSTYLE
  5
B0F5
102
{ACAD_REACTORS
330
B0F1
102
}
330
B0F1
100
AcDbVisualStyle
  2
GouraudWithEdges
 70
     3
 71
     2
 72
     2
 73
     1
 90
        2
 40
-0.6
 41
30.0
 62
     5
 63
     7
 74
     1
 91
        4
 64
     7
 65
   257
 75
     1
175
     1
 42
1.0
 92
        0
 66
   257
 43
1.0
 76
     1
 77
     6
 78
     2
 67
     7
 79
     5
170
     0
171
     0
290
     0
174
     0
 93
       13
 44
0.0
173
     0
291
     1
 45
0.0
1001
ACAD
1000
AcDbSavedByObjectVersion
1070
     0
  0
VISUALSTYLE
  5
B0FF
102
{ACAD_REACTORS
330
B0F1
102
}
330
B0F1
100
AcDbVisualStyle
  2
Linepattern
 70
    14
 71
     2
 72
     2
 73
     0
 90
        0
 40
-0.6
 41
-30.0
 62
     5
 63
     7
 74
     1
 91
        4
 64
     7
 65
   257
 75
     7
175
     7
 42
1.0
 92
        8
 66
     7
 43
1.0
 76
     1
 77
     6
 78
     2
 67
     7
 79
     5
170
     0
171
     0
290
     0
174
     0
 93
        1
 44
0.0
173
     0
291
     1
 45
0.0
1001
ACAD
1000
AcDbSavedByObjectVersion
1070
     0
  0
VISUALSTYLE
  5
B0FB
102
{ACAD_REACTORS
330
B0F1
102
}
330
B0F1
100
AcDbVisualStyle
  2
Realistic
 70
     8
 71
     2
 72
     2
 73
     0
 90
        0
 40
-0.6
 41
-30.0
 62
     5
 63
     7
 74
     1
 91
        0
 64
     7
 65
   257
 75
     1
175
     1
 42
1.0
 92
        8
 66
     8
 43
1.0
 76
     1
 77
     6
 78
     2
 67
     7
 79
     5
170
     0
171
     0
290
     0
174
     0
 93
       13
 44
0.0
173
     0
291
     0
 45
0.0
1001
ACAD
1000
AcDbSavedByObjectVersion
1070
     0
  0
VISUALSTYLE
  5
B0FE
102
{ACAD_REACTORS
330
B0F1
102
}
330
B0F1
100
AcDbVisualStyle
  2
Thicken
 70
    13
 71
     2
 72
     2
 73
     0
 90
        0
 40
-0.6
 41
-30.0
 62
     5
 63
     7
 74
     1
 91
        4
 64
     7
 65
   257
 75
     1
175
     1
 42
1.0
 92
       12
 66
     7
 43
1.0
 76
     1
 77
     6
 78
     2
 67
     7
 79
     5
170
     0
171
     0
290
     0
174
     0
 93
        1
 44
0.0
173
     0
291
     1
 45
0.0
1001
ACAD
1000
AcDbSavedByObjectVersion
1070
     0
  0
DICTIONARYVAR
  5
AAF3
102
{ACAD_REACTORS
330
34
102
}
330
34
100
DictionaryVariables
280
     0
  1
STANDARD
  0
DICTIONARYVAR
  5
A10C
102
{ACAD_REACTORS
330
34
102
}
330
34
100
DictionaryVariables
280
     0
  1
1
  0
DICTIONARYVAR
  5
AB07
102
{ACAD_REACTORS
330
34
102
}
330
34
100
DictionaryVariables
280
     0
  1
4
  0
DICTIONARYVAR
  5
35
102
{ACAD_REACTORS
330
34
102
}
330
34
100
DictionaryVariables
280
     0
  1
0
  0
DICTIONARYVAR
  5
194C
102
{ACAD_REACTORS
330
34
102
}
330
34
100
DictionaryVariables
280
     0
  1
127
  0
DICTIONARY
  5
7E8
102
{ACAD_REACTORS
330
47
102
}
330
47
100
AcDbDictionary
281
     1
  0
DICTIONARY
  5
4C
102
{ACAD_REACTORS
330
47
102
}
330
47
100
AcDbDictionary
281
     1
  0
XRECORD
  5
A929
102
{ACAD_REACTORS
330
47
102
}
330
47
100
AcDbXrecord
280
     1
 90
-1023410169
  0
XRECORD
  5
224CA
102
{ACAD_REACTORS
330
224C9
102
}
330
224C9
100
AcDbXrecord
280
     1
330
0
330
0
330
0
330
0
330
0
330
0
  0
XRECORD
  5
3FB7
102
{ACAD_REACTORS
330
3F96
102
}
330
3F96
100
AcDbXrecord
280
     1
 91
        3
330
0
 90
        8
 62
     7
370
    40
331
16
  1
Color_7
330
0
 90
        0
 62
    14
370
    -3
331
16
  1
Color_14
330
0
 90
        8
 62
     7
370
    20
331
16
  1
Color_7
330
6D1
 90
        0
 62
     7
370
    -3
331
16
  1
Color_7
330
0
 90
        8
 62
     7
370
    50
331
16
  1
Color_7
330
0
 90
        8
 62
     2
370
    35
331
16
  1
Color_2
330
0
 90
        8
 62
     7
370
    -3
331
16
  1
Color_7
330
10
 90
        8
 62
     7
370
    -3
331
16
  1
Color_7
  0
DICTIONARY
  5
32AF2
330
22
100
AcDbDictionary
280
     1
281
     1
  3
ACAD_XREC_ROUNDTRIP
360
32AF3
  0
DICTIONARY
  5
32AF0
330
1E
100
AcDbDictionary
280
     1
281
     1
  3
ACAD_XREC_ROUNDTRIP
360
32AF1
  0
DICTIONARY
  5
32AF4
330
26
100
AcDbDictionary
280
     1
281
     1
  3
ACAD_XREC_ROUNDTRIP
360
32AF5
  0
DICTIONARY
  5
32AFA
330
B0EF
100
AcDbDictionary
280
     1
281
     1
  3
ACAD_XREC_ROUNDTRIP
360
32AFB
  0
DICTIONARY
  5
32AF8
330
B0EE
100
AcDbDictionary
280
     1
281
     1
  3
ACAD_XREC_ROUNDTRIP
360
32AF9
  0
DICTIONARY
  5
32AFC
330
B0F0
100
AcDbDictionary
280
     1
281
     1
  3
ACAD_XREC_ROUNDTRIP
360
32AFD
  0
DICTIONARY
  5
32AF6
330
AABA
100
AcDbDictionary
280
     1
281
     1
  3
ACAD_XREC_ROUNDTRIP
360
32AF7
  0
XRECORD
  5
32AF3
102
{ACAD_REACTORS
330
32AF2
102
}
330
32AF2
100
AcDbXrecord
280
     1
102
SHADEPLOT
 70
     0
102
SHADEPLOTRESLEVEL
 70
     2
102
SHADEPLOTCUSTOMDPI
 70
   200
  0
XRECORD
  5
32AF1
102
{ACAD_REACTORS
330
32AF0
102
}
330
32AF0
100
AcDbXrecord
280
     1
102
SHADEPLOT
 70
     0
102
SHADEPLOTRESLEVEL
 70
     2
102
SHADEPLOTCUSTOMDPI
 70
   300
  0
XRECORD
  5
32AF5
102
{ACAD_REACTORS
330
32AF4
102
}
330
32AF4
100
AcDbXrecord
280
     1
102
SHADEPLOT
 70
     0
102
SHADEPLOTRESLEVEL
 70
     2
102
SHADEPLOTCUSTOMDPI
 70
   300
  0
XRECORD
  5
32AFB
102
{ACAD_REACTORS
330
32AFA
102
}
330
32AFA
100
AcDbXrecord
280
     1
102
MATERIAL
148
0.0
149
0.0
149
0.0
 93
        0
 94
       63
282
     0
 72
     1
 77
     1
171
     1
175
     1
179
     1
273
     0
  0
XRECORD
  5
32AF9
102
{ACAD_REACTORS
330
32AF8
102
}
330
32AF8
100
AcDbXrecord
280
     1
102
MATERIAL
148
0.0
149
0.0
149
0.0
 93
        0
 94
       63
282
     0
 72
     1
 77
     1
171
     1
175
     1
179
     1
273
     0
  0
XRECORD
  5
32AFD
102
{ACAD_REACTORS
330
32AFC
102
}
330
32AFC
100
AcDbXrecord
280
     1
102
MATERIAL
148
0.0
149
0.0
149
0.0
 93
        0
 94
       63
282
     0
 72
     1
 77
     1
171
     1
175
     1
179
     1
273
     0
  0
XRECORD
  5
32AF7
102
{ACAD_REACTORS
330
32AF6
102
}
330
32AF6
100
AcDbXrecord
280
     1
102
ACAD_ROUNDTRIP_PRE2007_TABLESTYLE
 90
        4
 91
        0
  1

 92
        4
 93
        0
  2

 94
        4
 95
        0
  3

  0
ENDSEC
  0
EOF
