  0
SECTION
  2
HEADER
  9
$ACADVER
  1
AC1015
  9
$ACADMAINTVER
 70
    20
  9
$DWGCODEPAGE
  3
ANSI_932
  9
$INSBASE
 10
0.0
 20
0.0
 30
0.0
  9
$EXTMIN
 10
6584.387559580678
 20
-804.1998756644732
 30
-0.0015258207003583
  9
$EXTMAX
 10
7396.124904851098
 20
-412.5530276630733
 30
0.0000000349246037
  9
$LIMMIN
 10
6741.356693206789
 20
-807.9890342008241
  9
$LIMMAX
 10
7161.35669320679
 20
-510.9890342008241
  9
$ORTHOMODE
 70
     0
  9
$REGENMODE
 70
     1
  9
$FILLMODE
 70
     1
  9
$QTEXTMODE
 70
     0
  9
$MIRRTEXT
 70
     1
  9
$LTSCALE
 40
1.0
  9
$ATTMODE
 70
     1
  9
$TEXTSIZE
 40
3.200000000000001
  9
$TRACEWID
 40
1.0
  9
$TEXTSTYLE
  7
STANDARD
  9
$CLAYER
  8
AM_CL
  9
$CELTYPE
  6
ByLayer
  9
$CECOLOR
 62
   256
  9
$CELTSCALE
 40
0.5
  9
$DISPSILH
 70
     0
  9
$DIMSCALE
 40
1.0
  9
$DIMASZ
 40
1.0
  9
$DIMEXO
 40
1.0
  9
$DIMDLI
 40
8.0
  9
$DIMRND
 40
0.0
  9
$DIMDLE
 40
0.0
  9
$DIMEXE
 40
1.0
  9
$DIMTP
 40
0.1
  9
$DIMTM
 40
0.1
  9
$DIMTXT
 40
3.200000000000001
  9
$DIMCEN
 40
0.0
  9
$DIMTSZ
 40
0.0
  9
$DIMTOL
 70
     0
  9
$DIMLIM
 70
     0
  9
$DIMTIH
 70
     0
  9
$DIMTOH
 70
     0
  9
$DIMSE1
 70
     0
  9
$DIMSE2
 70
     0
  9
$DIMTAD
 70
     1
  9
$DIMZIN
 70
     8
  9
$DIMBLK
  1
Dot
  9
$DIMASO
 70
     1
  9
$DIMSHO
 70
     1
  9
$DIMPOST
  1

  9
$DIMAPOST
  1
"
  9
$DIMALT
 70
     0
  9
$DIMALTD
 70
     2
  9
$DIMALTF
 40
0.0393701
  9
$DIMLFAC
 40
1.0
  9
$DIMTOFL
 70
     1
  9
$DIMTVP
 40
0.0
  9
$DIMTIX
 70
     0
  9
$DIMSOXD
 70
     0
  9
$DIMSAH
 70
     0
  9
$DIMBLK1
  1

  9
$DIMBLK2
  1

  9
$DIMSTYLE
  2
SYS
  9
$DIMCLRD
 70
   256
  9
$DIMCLRE
 70
   256
  9
$DIMCLRT
 70
     7
  9
$DIMTFAC
 40
0.71
  9
$DIMGAP
 40
1.5
  9
$DIMJUST
 70
     0
  9
$DIMSD1
 70
     0
  9
$DIMSD2
 70
     0
  9
$DIMTOLJ
 70
     0
  9
$DIMTZIN
 70
     8
  9
$DIMALTZ
 70
     0
  9
$DIMALTTZ
 70
     0
  9
$DIMUPT
 70
     0
  9
$DIMDEC
 70
     2
  9
$DIMTDEC
 70
     2
  9
$DIMALTU
 70
     2
  9
$DIMALTTD
 70
     2
  9
$DIMTXSTY
  7
STANDARD
  9
$DIMAUNIT
 70
     0
  9
$DIMADEC
 70
     0
  9
$DIMALTRND
 40
0.0
  9
$DIMAZIN
 70
     2
  9
$DIMDSEP
 70
    46
  9
$DIMATFIT
 70
     3
  9
$DIMFRAC
 70
     0
  9
$DIMLDRBLK
  1
OPEN30
  9
$DIMLUNIT
 70
     2
  9
$DIMLWD
 70
    20
  9
$DIMLWE
 70
    -1
  9
$DIMTMOVE
 70
     0
  9
$LUNITS
 70
     2
  9
$LUPREC
 70
     2
  9
$SKETCHINC
 40
1.0
  9
$FILLETRAD
 40
3.0
  9
$AUNITS
 70
     0
  9
$AUPREC
 70
     0
  9
$MENU
  1
.
  9
$ELEVATION
 40
0.0
  9
$PELEVATION
 40
0.0
  9
$THICKNESS
 40
0.0
  9
$LIMCHECK
 70
     0
  9
$CHAMFERA
 40
5.0
  9
$CHAMFERB
 40
5.0
  9
$CHAMFERC
 40
20.0
  9
$CHAMFERD
 40
0.0
  9
$SKPOLY
 70
     0
  9
$TDCREATE
 40
2452373.637007732
  9
$TDUCREATE
 40
2452373.262007732
  9
$TDUPDATE
 40
2456266.815778171
  9
$TDUUPDATE
 40
2456266.440778172
  9
$TDINDWG
 40
120.9881265741
  9
$TDUSRTIMER
 40
120.9881235069
  9
$USRTIMER
 70
     1
  9
$ANGBASE
 50
0.0
  9
$ANGDIR
 70
     0
  9
$PDMODE
 70
     0
  9
$PDSIZE
 40
0.0
  9
$PLINEWID
 40
0.0
  9
$SPLFRAME
 70
     0
  9
$SPLINETYPE
 70
     6
  9
$SPLINESEGS
 70
     8
  9
$HANDSEED
  5
211263
  9
$SURFTAB1
 70
     6
  9
$SURFTAB2
 70
     6
  9
$SURFTYPE
 70
     6
  9
$SURFU
 70
     6
  9
$SURFV
 70
     6
  9
$UCSBASE
  2

  9
$UCSNAME
  2

  9
$UCSORG
 10
0.0
 20
0.0
 30
0.0
  9
$UCSXDIR
 10
1.0
 20
0.0
 30
0.0
  9
$UCSYDIR
 10
0.0
 20
1.0
 30
0.0
  9
$UCSORTHOREF
  2

  9
$UCSORTHOVIEW
 70
     0
  9
$UCSORGTOP
 10
0.0
 20
0.0
 30
0.0
  9
$UCSORGBOTTOM
 10
0.0
 20
0.0
 30
0.0
  9
$UCSORGLEFT
 10
0.0
 20
0.0
 30
0.0
  9
$UCSORGRIGHT
 10
0.0
 20
0.0
 30
0.0
  9
$UCSORGFRONT
 10
0.0
 20
0.0
 30
0.0
  9
$UCSORGBACK
 10
0.0
 20
0.0
 30
0.0
  9
$PUCSBASE
  2

  9
$PUCSNAME
  2

  9
$PUCSORG
 10
0.0
 20
0.0
 30
0.0
  9
$PUCSXDIR
 10
1.0
 20
0.0
 30
0.0
  9
$PUCSYDIR
 10
0.0
 20
1.0
 30
0.0
  9
$PUCSORTHOREF
  2

  9
$PUCSORTHOVIEW
 70
     0
  9
$PUCSORGTOP
 10
0.0
 20
0.0
 30
0.0
  9
$PUCSORGBOTTOM
 10
0.0
 20
0.0
 30
0.0
  9
$PUCSORGLEFT
 10
0.0
 20
0.0
 30
0.0
  9
$PUCSORGRIGHT
 10
0.0
 20
0.0
 30
0.0
  9
$PUCSORGFRONT
 10
0.0
 20
0.0
 30
0.0
  9
$PUCSORGBACK
 10
0.0
 20
0.0
 30
0.0
  9
$USERI1
 70
     0
  9
$USERI2
 70
     0
  9
$USERI3
 70
     0
  9
$USERI4
 70
     0
  9
$USERI5
 70
     0
  9
$USERR1
 40
0.0
  9
$USERR2
 40
0.0
  9
$USERR3
 40
0.0
  9
$USERR4
 40
0.0
  9
$USERR5
 40
0.0
  9
$WORLDVIEW
 70
     1
  9
$SHADEDGE
 70
     3
  9
$SHADEDIF
 70
    70
  9
$TILEMODE
 70
     1
  9
$MAXACTVP
 70
    64
  9
$PINSBASE
 10
0.0
 20
0.0
 30
0.0
  9
$PLIMCHECK
 70
     0
  9
$PEXTMIN
 10
1.000000000000000E+20
 20
1.000000000000000E+20
 30
1.000000000000000E+20
  9
$PEXTMAX
 10
-1.000000000000000E+20
 20
-1.000000000000000E+20
 30
-1.000000000000000E+20
  9
$PLIMMIN
 10
-3.17498779296875
 20
-3.174999952316284
  9
$PLIMMAX
 10
293.4970092773438
 20
206.692492723465
  9
$UNITMODE
 70
     0
  9
$VISRETAIN
 70
     1
  9
$PLINEGEN
 70
     0
  9
$PSLTSCALE
 70
     1
  9
$TREEDEPTH
 70
  3020
  9
$CMLSTYLE
  2
Standard
  9
$CMLJUST
 70
     0
  9
$CMLSCALE
 40
20.0
  9
$PROXYGRAPHICS
 70
     1
  9
$MEASUREMENT
 70
     1
  9
$CELWEIGHT
370
    -1
  9
$ENDCAPS
280
     0
  9
$JOINSTYLE
280
     0
  9
$LWDISPLAY
290
     1
  9
$INSUNITS
 70
     4
  9
$HYPERLINKBASE
  1

  9
$STYLESHEET
  1
monochrome.ctb
  9
$XEDIT
290
     1
  9
$CEPSNTYPE
380
     0
  9
$PSTYLEMODE
290
     1
  9
$FINGERPRINTGUID
  2
{83FB3AA1-FF18-4BFE-AFE0-611B71DE056D}
  9
$VERSIONGUID
  2
{F61C8E65-7FAD-461F-8431-54FE6431167D}
  9
$EXTNAMES
290
     1
  9
$PSVPSCALE
 40
0.0
  9
$OLESTARTUP
290
     0
  0
ENDSEC
  0
SECTION
  2
CLASSES
  0
CLASS
  1
ACDBDICTIONARYWDFLT
  2
AcDbDictionaryWithDefault
  3
ObjectDBX Classes
 90
        0
280
     0
281
     0
  0
CLASS
  1
ACDBPLACEHOLDER
  2
AcDbPlaceHolder
  3
ObjectDBX Classes
 90
        0
280
     0
281
     0
  0
CLASS
  1
LAYOUT
  2
AcDbLayout
  3
ObjectDBX Classes
 90
        0
280
     0
281
     0
  0
CLASS
  1
AMGSETTINGSOBJ
  2
AmgSettingsObj
  3
"AcadM|Product Description: AutoCAD Mechanical|Company: Autodesk"
 90
        0
280
     0
281
     0
  0
CLASS
  1
ACME_DOCUMENT
  2
AcMeDbDoc
  3
AcMeServices
 90
        0
280
     0
281
     0
  0
CLASS
  1
ACMESCOPE
  2
AcMeScope
  3
AcMeServices
 90
        0
280
     0
281
     0
  0
CLASS
  1
ACMECOMMANDHISTORY
  2
AcMeCommandHistory
  3
AcMeServices
 90
        0
280
     0
281
     0
  0
CLASS
  1
DICTIONARYVAR
  2
AcDbDictionaryVar
  3
ObjectDBX Classes
 90
        0
280
     0
281
     0
  0
CLASS
  1
ACIMSYSVARMAN
  2
AcImSysVarManager
  3
AcMeServices
 90
        0
280
     0
281
     0
  0
CLASS
  1
ACIMREALSYSVAR
  2
AcImRealSysVar
  3
AcMeServices
 90
        0
280
     0
281
     0
  0
CLASS
  1
ACIMINTSYSVAR
  2
AcImIntSysVar
  3
AcMeServices
 90
        0
280
     0
281
     0
  0
CLASS
  1
ACMEDRAWINGMAN
  2
AcMeDrawingMan
  3
AcMeServices
 90
        0
280
     0
281
     0
  0
CLASS
  1
ACMEVIEW
  2
AcMeView
  3
AcMeServices
 90
        0
280
     0
281
     0
  0
CLASS
  1
ACDBENTITYCACHE
  2
AcMeEntityCache
  3
AcMeServices
 90
        0
280
     0
281
     0
  0
CLASS
  1
GSMANAGER
  2
AcMeGSManager
  3
AcMeServices
 90
        0
280
     0
281
     0
  0
CLASS
  1
AMDTINTERNALREACTOR
  2
AmdtInternalReactor
  3
AcMeServices
 90
        0
280
     0
281
     0
  0
CLASS
  1
ACMESTATEMGR
  2
AcMeStateMgr
  3
AcMeServices
 90
        0
280
     0
281
     0
  0
CLASS
  1
ACGREFMASTER
  2
AcGrefMaster
  3
AcAttribServices
 90
        0
280
     0
281
     0
  0
CLASS
  1
ACME_DATABASE
  2
AcMeDbDatabase
  3
AcMeServices
 90
        0
280
     0
281
     0
  0
CLASS
  1
ACRFINSADJUSTERMGR
  2
AcRfInsAdjusterMgr
  3
AcMeServices
 90
        0
280
     0
281
     0
  0
CLASS
  1
ACGREFACADMASTER
  2
AcGrefacadMaster
  3
AcGrefServices
 90
        0
280
     0
281
     0
  0
CLASS
  1
AMIMASTER
  2
AmiMaster
  3
AmiServices
 90
        0
280
     0
281
     0
  0
CLASS
  1
ACMDATADICTIONARY
  2
AcmDataDictionary
  3
"AcmSymBB|Product Description: AutoCAD Mechanical|Company: Autodesk"
 90
        0
280
     0
281
     0
  0
CLASS
  1
ACMDATAENTRYBLOCK
  2
AcmDataEntryBlock
  3
"AcmSymBB|Product Description: AutoCAD Mechanical|Company: Autodesk"
 90
        0
280
     0
281
     0
  0
CLASS
  1
ACIMSTRSYSVAR
  2
AcImStrSysVar
  3
AcMeServices
 90
        0
280
     0
281
     0
  0
CLASS
  1
ACMSTANDARDISO
  2
AcmStandardISO
  3
"Amdt_StdImp|Product Description: AutoCAD Mechanical|Company: Autodesk"
 90
        0
280
     0
281
     0
  0
CLASS
  1
AMGOBJPROPCFG
  2
AmgObjPropCfg
  3
"AmgLay|Product Description: AutoCAD Mechanical|Company: Autodesk"
 90
        1
280
     0
281
     0
  0
CLASS
  1
AMDTEDGESTANDARDISO
  2
AmdtEdgeStdISO
  3
"Amdt_StdImp|Product Description: AutoCAD Mechanical|Company: Autodesk"
 90
        0
280
     0
281
     0
  0
CLASS
  1
ACMSURFSTANDARDISO
  2
AcmSurfTextStdISO
  3
"Amdt_StdImp|Product Description: AutoCAD Mechanical|Company: Autodesk"
 90
        0
280
     0
281
     0
  0
CLASS
  1
ACMFCFSTANDARDISO
  2
AcmFCFStdISO
  3
"Amdt_StdImp|Product Description: AutoCAD Mechanical|Company: Autodesk"
 90
        0
280
     0
281
     0
  0
CLASS
  1
ACMWELDSTANDARDISO
  2
AcmWeldingStdISO
  3
"Amdt_StdImp|Product Description: AutoCAD Mechanical|Company: Autodesk"
 90
        0
280
     0
281
     0
  0
CLASS
  1
ACMIDSTANDARDISO
  2
AcmIdStdISO
  3
"Amdt_StdImp|Product Description: AutoCAD Mechanical|Company: Autodesk"
 90
        0
280
     0
281
     0
  0
CLASS
  1
ACMDATUMSTANDARDISO
  2
AcmDatumStdISO
  3
"Amdt_StdImp|Product Description: AutoCAD Mechanical|Company: Autodesk"
 90
        0
280
     0
281
     0
  0
CLASS
  1
ACMBOMSTANDARDISO
  2
AcmBOMStdISO
  3
"Amdt_StdImp|Product Description: AutoCAD Mechanical|Company: Autodesk"
 90
        0
280
     0
281
     0
  0
CLASS
  1
ACMDETAILSTANDARDISO
  2
AmdtDetailSymStdISO
  3
"Amdt_StdImp|Product Description: AutoCAD Mechanical|Company: Autodesk"
 90
        0
280
     0
281
     0
  0
CLASS
  1
ACMSECTIONSTANDARDISO
  2
AmdtSectionSymStdISO
  3
"Amdt_StdImp|Product Description: AutoCAD Mechanical|Company: Autodesk"
 90
        0
280
     0
281
     0
  0
CLASS
  1
ACMCENTERLINESTANDARDISO
  2
AmdtCenterLineStdISO
  3
"Amdt_StdImp|Product Description: AutoCAD Mechanical|Company: Autodesk"
 90
        0
280
     0
281
     0
  0
CLASS
  1
ACAMGLAYSTD
  2
AcAmgLayStd
  3
"AmgLay|Product Description: AutoCAD Mechanical|Company: Autodesk"
 90
        0
280
     0
281
     0
  0
CLASS
  1
ACAMGDIMSTD
  2
AcAmgDimStd
  3
"AmgDim|Product Description: AutoCAD Mechanical|Company: Autodesk"
 90
        0
280
     0
281
     0
  0
CLASS
  1
ACAMGTITLESTD
  2
AcAmgTitleStd
  3
"AmgTitle|Product Description: AutoCAD Mechanical|Company: Autodesk"
 90
        0
280
     0
281
     0
  0
CLASS
  1
ACAMGFILTERDAT
  2
AcAmgFilterDat
  3
"AcadM|Product Description: AutoCAD Mechanical|Company: Autodesk"
 90
        0
280
     0
281
     0
  0
CLASS
  1
LAYER_INDEX
  2
AcDbLayerIndex
  3
ObjectDBX Classes
 90
    32768
280
     0
281
     0
  0
CLASS
  1
IDBUFFER
  2
AcDbIdBuffer
  3
ObjectDBX Classes
 90
    32768
280
     0
281
     0
  0
CLASS
  1
PLOTSETTINGS
  2
AcDbPlotSettings
  3
ObjectDBX Classes
 90
        0
280
     0
281
     0
  0
CLASS
  1
AMDTFORMULAUPDATEDISPATCHER
  2
AmdtFormulaUpdateDispatcher
  3
AcMeServices
 90
        0
280
     0
281
     0
  0
CLASS
  1
ACMSTANDARDANSI
  2
AcmStandardANSI
  3
"Amdt_StdImp|Product Description: AutoCAD Mechanical|Company: Autodesk"
 90
        0
280
     0
281
     0
  0
CLASS
  1
ACMSURFSTANDARDANSI
  2
AcmSurfTextStdANSI
  3
"Amdt_StdImp|Product Description: AutoCAD Mechanical|Company: Autodesk"
 90
        0
280
     0
281
     0
  0
CLASS
  1
ACMFCFSTANDARDANSI
  2
AcmFCFStdANSI
  3
"Amdt_StdImp|Product Description: AutoCAD Mechanical|Company: Autodesk"
 90
        0
280
     0
281
     0
  0
CLASS
  1
ACMWELDSTANDARDANSI
  2
AcmWeldingStdANSI
  3
"Amdt_StdImp|Product Description: AutoCAD Mechanical|Company: Autodesk"
 90
        0
280
     0
281
     0
  0
CLASS
  1
ACMIDSTANDARDANSI
  2
AcmIdStdANSI
  3
"Amdt_StdImp|Product Description: AutoCAD Mechanical|Company: Autodesk"
 90
        0
280
     0
281
     0
  0
CLASS
  1
ACMDATUMSTANDARDANSI
  2
AcmDatumStdANSI
  3
"Amdt_StdImp|Product Description: AutoCAD Mechanical|Company: Autodesk"
 90
        0
280
     0
281
     0
  0
CLASS
  1
ACMBOMSTANDARDANSI
  2
AcmBOMStdANSI
  3
"Amdt_StdImp|Product Description: AutoCAD Mechanical|Company: Autodesk"
 90
        0
280
     0
281
     0
  0
CLASS
  1
ACMDETAILSTANDARDANSI
  2
AmdtDetailSymStdANSI
  3
"Amdt_StdImp|Product Description: AutoCAD Mechanical|Company: Autodesk"
 90
        0
280
     0
281
     0
  0
CLASS
  1
ACMSECTIONSTANDARDANSI
  2
AmdtSectionSymStdANSI
  3
"Amdt_StdImp|Product Description: AutoCAD Mechanical|Company: Autodesk"
 90
        0
280
     0
281
     0
  0
CLASS
  1
ACMCENTERLINESTANDARDANSI
  2
AmdtCenterLineStdANSI
  3
"Amdt_StdImp|Product Description: AutoCAD Mechanical|Company: Autodesk"
 90
        0
280
     0
281
     0
  0
CLASS
  1
ACMBOM
  2
AcmBom
  3
"AcmSymBB|Product Description: AutoCAD Mechanical|Company: Autodesk"
 90
        0
280
     0
281
     0
  0
CLASS
  1
ACMDATAENTRYPART
  2
AcmDataEntryPart
  3
"AcmSymBB|Product Description: AutoCAD Mechanical|Company: Autodesk"
 90
        0
280
     0
281
     0
  0
CLASS
  1
ACMPARTREF
  2
AcmPartRef
  3
"AcmSymBB|Product Description: AutoCAD Mechanical|Company: Autodesk"
 90
    35839
280
     0
281
     1
  0
CLASS
  1
ACDBCIRCARCRES
  2
AcDbCircArcRes
  3
AcGrefServices
 90
        0
280
     0
281
     0
  0
CLASS
  1
ACMBOMROW
  2
AcmBomRow
  3
"AcmSymBB|Product Description: AutoCAD Mechanical|Company: Autodesk"
 90
    32768
280
     0
281
     0
  0
CLASS
  1
ACMBALLOON
  2
AcmBalloon
  3
"AcmSymBB|Product Description: AutoCAD Mechanical|Company: Autodesk"
 90
    35839
280
     0
281
     1
  0
CLASS
  1
AMDTNOTE
  2
AmdtNote
  3
"AcmSymBB|Product Description: AutoCAD Mechanical|Company: Autodesk"
 90
     3071
280
     0
281
     1
  0
CLASS
  1
STDPART2D
  2
AmgStdPart
  3
"g3vace|Class: AmgStdPart|Product Description: AutoCAD Mechanical|Company: Autodesk"
 90
    35839
280
     0
281
     1
  0
CLASS
  1
ACDBSTDPARTRES_LINE
  2
AcDbStdPartRes_Line
  3
"g3vace|Class: AcDbStdPartRes_Line|Product Description: AutoCAD Mechanical|Company: Autodesk"
 90
        0
280
     0
281
     0
  0
CLASS
  1
ACMDATAENTRY
  2
AcmDataEntry
  3
"AcmSymBB|Product Description: AutoCAD Mechanical|Company: Autodesk"
 90
        0
280
     0
281
     0
  0
CLASS
  1
ACDBOPPOLYLINERES
  2
AcDbOpPolylineRes
  3
AcGrefServices
 90
        0
280
     0
281
     0
  0
CLASS
  1
ACMPARTLIST
  2
AcmPartList
  3
"AcmSymBB|Product Description: AutoCAD Mechanical|Company: Autodesk"
 90
    35839
280
     0
281
     1
  0
CLASS
  1
ACDBLINERES
  2
AcDbLineRes
  3
AcGrefServices
 90
        0
280
     0
281
     0
  0
CLASS
  1
ACRFINSADJ
  2
AcRfInsAdjuster
  3
AcMeServices
 90
        0
280
     0
281
     0
  0
CLASS
  1
AM_DRAWING_MGR
  2
AcDmDwgMgr
  3
AcMechDwgViewMgmt
 90
        0
280
     0
281
     0
  0
CLASS
  1
AM_DWG_DOCUMENT
  2
AcDmDwgDocument
  3
AcMechDwgViewMgmt
 90
        0
280
     0
281
     0
  0
CLASS
  1
AM_DWG_SHEET
  2
AcDmSheet
  3
AcMechDwgViewMgmt
 90
        0
280
     0
281
     0
  0
CLASS
  1
AM_VIEWDIMPARMAP
  2
AcDmViewDimParMap
  3
AcMechDwgViewMgmt
 90
        0
280
     0
281
     0
  0
CLASS
  1
AM_DWGMGR_NAME
  2
AcDmDwgMgrName
  3
AcMechDwgViewMgmt
 90
        0
280
     0
281
     0
  0
CLASS
  1
AMDTMENUSTATEMGR
  2
AmdtMenuStateMgr
  3
McadcomServices
 90
        0
280
     0
281
     0
  0
CLASS
  1
AMDTMCOMMENUSTATE
  2
AmdtMcomMenuState
  3
McadcomServices
 90
        0
280
     0
281
     0
  0
CLASS
  1
ASAPP
  2
AcAsAppObject
  3
AutoSurfServices
 90
        0
280
     0
281
     0
  0
CLASS
  1
IM_STATIC_MAN
  2
AcImStaticVarManager
  3
AcMeServices
 90
        0
280
     0
281
     0
  0
CLASS
  1
ACIMDBLSTATICVAR
  2
AcImDblStaticVar
  3
AcMeServices
 90
        0
280
     0
281
     0
  0
CLASS
  1
ACIMSTRSTATICVAR
  2
AcImStrStaticVar
  3
AcMeServices
 90
        0
280
     0
281
     0
  0
CLASS
  1
ACIMINTSTATICVAR
  2
AcImIntStaticVar
  3
AcMeServices
 90
        0
280
     0
281
     0
  0
CLASS
  1
ACASGREFMASTER
  2
AcAsGrefMaster
  3
AutoSurfResolverServices
 90
        0
280
     0
281
     0
  0
CLASS
  1
ACADGREFMODULE
  2
AcAdGrefModule
  3
AdGrefServices
 90
        0
280
     0
281
     0
  0
CLASS
  1
AMDTMAPISURFMOUDULE
  2
AmdtMApiSurfModule
  3
MApiSurfServices
 90
        0
280
     0
281
     0
  0
CLASS
  1
MAPIAMMOUDLE
  2
MApiAmModule
  3
MApiAmServices
 90
        0
280
     0
281
     0
  0
CLASS
  1
AMDTADMENUSTATE
  2
AmdtAdMenuState
  3
DesignerServices
 90
        0
280
     0
281
     0
  0
CLASS
  1
ADAPPL
  2
AcAdAppl
  3
DesignerServices
 90
        0
280
     0
281
     0
  0
CLASS
  1
DEPMGR
  2
AcAdDepMgr
  3
DesignerServices
 90
        0
280
     0
281
     0
  0
CLASS
  1
PARAMMGR
  2
AcAdParamMgr
  3
DesignerServices
 90
        0
280
     0
281
     0
  0
CLASS
  1
PARAMSCOPE
  2
AcAdParamScope
  3
DesignerServices
 90
        0
280
     0
281
     0
  0
CLASS
  1
NAMEDAPPL
  2
AcAdNamedAppl
  3
DesignerServices
 90
        0
280
     0
281
     0
  0
CLASS
  1
ADHNTMPLT
  2
AdHoleNoteTemplateMgr
  3
DesignerServices
 90
    32768
280
     0
281
     0
  0
CLASS
  1
AM_HNTEMPLATE_MGR_NAME
  2
AdHoleNoteTemplateMgrName
  3
DesignerServices
 90
    32768
280
     0
281
     0
  0
CLASS
  1
AMDTDMMENUSTATE
  2
AmdtDmMenuState
  3
AcMechDwgViewMgmt
 90
        0
280
     0
281
     0
  0
CLASS
  1
MAPIADMODULE
  2
MApiAdModule
  3
MApiAdServices
 90
        0
280
     0
281
     0
  0
CLASS
  1
AMDTAMMENUSTATE
  2
AmdtAmMenuState
  3
DesignerAssemblies
 90
        0
280
     0
281
     0
  0
CLASS
  1
ACAMPROJECT
  2
AcAmProject
  3
DesignerAssemblies
 90
        0
280
     0
281
     0
  0
CLASS
  1
ACAMGRCOMPDEF
  2
AcAmGrCompDef
  3
DesignerAssemblies
 90
        0
280
     0
281
     0
  0
CLASS
  1
ACCMCONTEXT
  2
AcCmContext
  3
DesignerAssemblies
 90
        0
280
     0
281
     0
  0
CLASS
  1
ACAMCOMPDEF
  2
AcAmCompDef
  3
DesignerAssemblies
 90
        0
280
     0
281
     0
  0
CLASS
  1
ACAMCOMPDEFMGR
  2
AcAmCompDefMgr
  3
DesignerAssemblies
 90
        0
280
     0
281
     0
  0
CLASS
  1
AMCONTEXTMGR
  2
AcAmContextMgr
  3
DesignerAssemblies
 90
        0
280
     0
281
     0
  0
CLASS
  1
ACAMCONTEXTMODELER
  2
AcAmContextModeler
  3
DesignerAssemblies
 90
        0
280
     0
281
     0
  0
CLASS
  1
CATALOGSTATE
  2
AcAmCatalogState
  3
DesignerAssemblies
 90
        0
280
     0
281
     0
  0
CLASS
  1
ACAMGRCOMPDEFSET
  2
AcAmGrCompDefSet
  3
DesignerAssemblies
 90
        0
280
     0
281
     0
  0
CLASS
  1
AMDTBROWSERDBTAB
  2
AmdtBrowserDbTab
  3
McadcomServices
 90
        0
280
     0
281
     0
  0
CLASS
  1
CBROWSERAPPOBJECT
  2
CBrowserAppObject
  3
McadcomServices
 90
        0
280
     0
281
     0
  0
CLASS
  1
DM_PLACEHOLDER
  2
AcDmSelsetPlaceholder
  3
AcMechDwgViewMgmt
 90
        0
280
     0
281
     0
  0
CLASS
  1
ACMPICKOBJ
  2
AcmPickEnt
  3
"AcmSymBB|Product Description: AutoCAD Mechanical|Company: Autodesk"
 90
    32768
280
     0
281
     1
  0
CLASS
  1
ACMNOTESTANDARDISO
  2
AmdtNoteStdISO
  3
"Amdt_StdImp|Product Description: AutoCAD Mechanical|Company: Autodesk"
 90
        0
280
     0
281
     0
  0
CLASS
  1
ACMNOTESTANDARDANSI
  2
AmdtNoteStdANSI
  3
"Amdt_StdImp|Product Description: AutoCAD Mechanical|Company: Autodesk"
 90
        0
280
     0
281
     0
  0
CLASS
  1
MATERIAL
  2
AcDbMaterial
  3
ObjectDBX Classes
 90
     1024
280
     0
281
     0
  0
CLASS
  1
VISUALSTYLE
  2
AcDbVisualStyle
  3
ObjectDBX Classes
 90
     4095
280
     0
281
     0
  0
CLASS
  1
TABLESTYLE
  2
AcDbTableStyle
  3
ObjectDBX Classes
 90
     4095
280
     0
281
     0
  0
CLASS
  1
ACRFATTGENMGR
  2
AcRfAttGeneralMgr
  3
AcAttribServices
 90
        0
280
     0
281
     0
  0
CLASS
  1
ACRFOBJATTMGR
  2
AcRfObjAttGroupMgr
  3
AcAttribServices
 90
        0
280
     0
281
     0
  0
CLASS
  1
ACRFMCADAPIATTHOLDER
  2
AcRfMCADAPIAttHolder
  3
AcAttribServices
 90
        0
280
     0
281
     0
  0
CLASS
  1
AMDTSYSATTR
  2
AmdtSystemAttribute
  3
AcAttribServices
 90
        0
280
     0
281
     0
  0
CLASS
  1
ACMTHREADLINESTANDARDISO
  2
AmdtThreadLineStdISO
  3
"Amdt_StdImp|Product Description: AutoCAD Mechanical|Company: Autodesk"
 90
        0
280
     0
281
     0
  0
CLASS
  1
ACMTAPERSTANDARDISO
  2
AcmTaperStdISO
  3
"Amdt_StdImp|Product Description: AutoCAD Mechanical|Company: Autodesk"
 90
        0
280
     0
281
     0
  0
CLASS
  1
ACMTHREADLINESTANDARDANSI
  2
AmdtThreadLineStdANSI
  3
"Amdt_StdImp|Product Description: AutoCAD Mechanical|Company: Autodesk"
 90
        0
280
     0
281
     0
  0
CLASS
  1
ACMTAPERSTANDARDANSI
  2
AcmTaperStdANSI
  3
"Amdt_StdImp|Product Description: AutoCAD Mechanical|Company: Autodesk"
 90
        0
280
     0
281
     0
  0
CLASS
  1
CAMSSTRUCTBTNSTATE
  2
StructBtnState
  3
L"DesignerAssemblies"
 90
        0
280
     0
281
     0
  0
CLASS
  1
SORTENTSTABLE
  2
AcDbSortentsTable
  3
ObjectDBX Classes
 90
        0
280
     0
281
     0
  0
CLASS
  1
AMDTNOTETEMPLATEDB
  2
AmdtNoteTemplateDB
  3
AMDT_STDIMP_MODULE_NAME
 90
        0
280
     0
281
     0
  0
CLASS
  1
ACDBELLIPSERES
  2
AcDbEllipseRes
  3
AcGrefServices
 90
        0
280
     0
281
     0
  0
CLASS
  1
AMDTACMWBLOCKBOMENTITY
  2
AmdtAcmWblockBomEntity
  3
"AcmSymBB|Product Description: AutoCAD Mechanical|Company: Autodesk"
 90
     3071
280
     0
281
     1
  0
CLASS
  1
ACDBNURBCURVERES
  2
AcDbNurbCurveRes
  3
AcGrefServices
 90
        0
280
     0
281
     0
  0
CLASS
  1
DIMASSOC
  2
AcDbDimAssoc
  3
"AcDbDimAssoc|Product Desc:     AcDim ARX App For Dimension|Company:          Autodesk, Inc.|WEB Address:      www.autodesk.com"
 90
        0
280
     0
281
     0
  0
ENDSEC
  0
SECTION
  2
TABLES
  0
TABLE
  2
VPORT
  5
8
330
0
100
AcDbSymbolTable
 70
     1
  0
VPORT
  5
3E9F4
330
8
100
AcDbSymbolTableRecord
100
AcDbViewportTableRecord
  2
*Active
 70
     0
 10
0.0
 20
0.0
 11
1.0
 21
1.0
 12
6658.332689472465
 22
-753.4081621925564
 13
0.0
 23
0.0
 14
2.5
 24
2.5
 15
10.0
 25
10.0
 16
0.0
 26
0.0
 36
1.0
 17
0.0
 27
0.0
 37
0.0
 40
98.67665936606385
 41
1.972972972972972
 42
50.0
 43
-1370.695619172058
 44
-1370.695619172058
 50
0.0
 51
0.0
 71
    16
 72
   100
 73
     1
 74
     3
 75
     0
 76
     0
 77
     0
 78
     0
281
     0
 65
     0
110
0.0
120
0.0
130
0.0
111
1.0
121
0.0
131
0.0
112
0.0
122
1.0
132
0.0
 79
     0
146
0.0
  0
ENDTAB
  0
TABLE
  2
LTYPE
  5
5
330
0
100
AcDbSymbolTable
 70
    23
  0
LTYPE
  5
14
330
5
100
AcDbSymbolTableRecord
100
AcDbLinetypeTableRecord
  2
ByBlock
 70
     0
  3

 72
    65
 73
     0
 40
0.0
  0
LTYPE
  5
15
330
5
100
AcDbSymbolTableRecord
100
AcDbLinetypeTableRecord
  2
ByLayer
 70
     0
  3

 72
    65
 73
     0
 40
0.0
  0
LTYPE
  5
16
330
5
100
AcDbSymbolTableRecord
100
AcDbLinetypeTableRecord
  2
Continuous
 70
     0
  3
Solid line
 72
    65
 73
     0
 40
0.0
  0
LTYPE
  5
4F
330
5
100
AcDbSymbolTableRecord
100
AcDbLinetypeTableRecord
  2
AM_ISO02W050
 70
     0
  3
__ __ __ __ __ __ __ __ __ __ __ __ __ __ __
 72
    65
 73
     2
 40
7.5
 49
6.0
 74
     0
 49
-1.5
 74
     0
  0
LTYPE
  5
52
330
5
100
AcDbSymbolTableRecord
100
AcDbLinetypeTableRecord
  2
Amconstr
 70
     0
  3
_______________________
 72
    65
 73
     2
 40
9999.0
 49
9999.0
 74
     0
 49
0.0
 74
     0
  0
LTYPE
  5
64
330
5
100
AcDbSymbolTableRecord
100
AcDbLinetypeTableRecord
  2
ACISOWELD
 70
     0
  3
_ _ _ _ _
 72
    65
 73
     2
 40
2.0
 49
2.0
 74
     0
 49
-1.0
 74
     0
  0
LTYPE
  5
65
330
5
100
AcDbSymbolTableRecord
100
AcDbLinetypeTableRecord
  2
ACISOTGB
 70
     0
  3
__ . . __ . .
 72
    65
 73
     6
 40
9.0
 49
4.0
 74
     0
 49
-1.0
 74
     0
 49
1.0
 74
     0
 49
-1.0
 74
     0
 49
1.0
 74
     0
 49
-1.0
 74
     0
  0
LTYPE
  5
66
330
5
100
AcDbSymbolTableRecord
100
AcDbLinetypeTableRecord
  2
ACISOTGL
 70
     0
  3
_ _ _ _ _
 72
    65
 73
     2
 40
3.0
 49
2.0
 74
     0
 49
-1.0
 74
     0
  0
LTYPE
  5
69
330
5
100
AcDbSymbolTableRecord
100
AcDbLinetypeTableRecord
  2
CENTER
 70
     0
  3
__ . __
 72
    65
 73
     4
 40
7.0
 49
4.0
 74
     0
 49
-1.0
 74
     0
 49
1.0
 74
     0
 49
-1.0
 74
     0
  0
LTYPE
  5
A6E
330
5
100
AcDbSymbolTableRecord
100
AcDbLinetypeTableRecord
  2
PHANTOM2
 70
     0
  3
Phantom (.5x) ___ _ _ ___ _ _ ___ _ _ ___ _ _
 72
    65
 73
     6
 40
31.75
 49
15.875
 74
     0
 49
-3.174999999999999
 74
     0
 49
3.174999999999999
 74
     0
 49
-3.174999999999999
 74
     0
 49
3.174999999999999
 74
     0
 49
-3.174999999999999
 74
     0
  0
LTYPE
  5
FA3
330
5
100
AcDbSymbolTableRecord
100
AcDbLinetypeTableRecord
  2
ACANSTGB
 70
     0
  3
__ . . __ . .
 72
    65
 73
     6
 40
0.35433070866
 49
0.15748031496
 74
     0
 49
-0.03937007874
 74
     0
 49
0.03937007874
 74
     0
 49
-0.03937007874
 74
     0
 49
0.03937007874
 74
     0
 49
-0.03937007874
 74
     0
  0
LTYPE
  5
FA4
330
5
100
AcDbSymbolTableRecord
100
AcDbLinetypeTableRecord
  2
ACANSTGL
 70
     0
  3
_ _ _ _ _
 72
    65
 73
     2
 40
0.11811023622
 49
0.07874015748
 74
     0
 49
-0.03937007874
 74
     0
  0
LTYPE
  5
4DED
330
5
100
AcDbSymbolTableRecord
100
AcDbLinetypeTableRecord
  2
中線
 70
     0
  3
___________________
 72
    65
 73
     2
 40
2.0
 49
1.0
 74
     0
 49
1.0
 74
     0
  0
LTYPE
  5
4DF6
330
5
100
AcDbSymbolTableRecord
100
AcDbLinetypeTableRecord
  2
細線
 70
     0
  3
___________________
 72
    65
 73
     2
 40
2.0
 49
1.0
 74
     0
 49
1.0
 74
     0
  0
LTYPE
  5
4DF7
330
5
100
AcDbSymbolTableRecord
100
AcDbLinetypeTableRecord
  2
太線
 70
     0
  3
___________________
 72
    65
 73
     2
 40
2.0
 49
1.0
 74
     0
 49
1.0
 74
     0
  0
LTYPE
  5
4EA7
330
5
100
AcDbSymbolTableRecord
100
AcDbLinetypeTableRecord
  2
文字
 70
     0
  3
_________________
 72
    65
 73
     2
 40
2.0
 49
1.0
 74
     0
 49
1.0
 74
     0
  0
LTYPE
  5
4EA9
330
5
100
AcDbSymbolTableRecord
100
AcDbLinetypeTableRecord
  2
寸法線
 70
     0
  3
________________
 72
    65
 73
     2
 40
2.0
 49
1.0
 74
     0
 49
1.0
 74
     0
  0
LTYPE
  5
4F12
330
5
100
AcDbSymbolTableRecord
100
AcDbLinetypeTableRecord
  2
ハッチング
 70
     0
  3
_________________
 72
    65
 73
     2
 40
2.0
 49
1.0
 74
     0
 49
1.0
 74
     0
  0
LTYPE
  5
5180
330
5
100
AcDbSymbolTableRecord
100
AcDbLinetypeTableRecord
  2
陰線1
 70
     0
  3
__ __ __ __
 72
    65
 73
     2
 40
4.0
 49
2.2
 74
     0
 49
-1.8
 74
     0
  0
LTYPE
  5
5182
330
5
100
AcDbSymbolTableRecord
100
AcDbLinetypeTableRecord
  2
切断線
 70
     0
  3
/\/-/\/-/\/-/\/-/\/-/\/
 72
    65
 73
     2
 40
11.0001
 49
0.0001
 74
     4
 75
   135
340
56
 46
0.04
 50
0.0
 44
0.0
 45
0.0
 49
-11.0
 74
     0
  0
LTYPE
  5
5183
330
5
100
AcDbSymbolTableRecord
100
AcDbLinetypeTableRecord
  2
想像線1
 70
     0
  3
__ __ __ _____ __ __ ____
 72
    65
 73
     6
 40
14.5
 49
6.0
 74
     0
 49
-1.5
 74
     0
 49
2.0
 74
     0
 49
-1.5
 74
     0
 49
2.0
 74
     0
 49
-1.5
 74
     0
  0
LTYPE
  5
5185
330
5
100
AcDbSymbolTableRecord
100
AcDbLinetypeTableRecord
  2
中心線1
 70
     0
  3
___ _ ___ _ ___
 72
    65
 73
     4
 40
18.0
 49
12.0
 74
     0
 49
-2.0
 74
     0
 49
2.0
 74
     0
 49
-2.0
 74
     0
  0
LTYPE
  5
5188
330
5
100
AcDbSymbolTableRecord
100
AcDbLinetypeTableRecord
  2
補助線
 70
     0
  3
______________
 72
    65
 73
     2
 40
2.0
 49
1.0
 74
     0
 49
1.0
 74
     0
  0
LTYPE
  5
3EA3B
330
5
100
AcDbSymbolTableRecord
100
AcDbLinetypeTableRecord
  2
HIDDEN
 70
     0
  3
Hidden __ __ __ __ __ __ __ __ __ __ __ __ __ _
 72
    65
 73
     2
 40
9.524999999999998
 49
6.349999999999999
 74
     0
 49
-3.174999999999999
 74
     0
  0
LTYPE
  5
43960
330
5
100
AcDbSymbolTableRecord
100
AcDbLinetypeTableRecord
  2
想像線2
 70
     0
  3
__ _ _ __ _ _ __
 72
    65
 73
     6
 40
6.9
 49
2.5
 74
     0
 49
-0.8
 74
     0
 49
1.0
 74
     0
 49
-0.8
 74
     0
 49
1.0
 74
     0
 49
-0.8
 74
     0
  0
ENDTAB
  0
TABLE
  2
LAYER
  5
2
102
{ACAD_XDICTIONARY
360
3F95
102
}
330
0
100
AcDbSymbolTable
 70
    16
  0
LAYER
  5
10
330
2
100
AcDbSymbolTableRecord
100
AcDbLayerTableRecord
  2
0
 70
     1
 62
     7
  6
Continuous
290
     0
370
    -3
390
F
  0
LAYER
  5
6D1
330
2
100
AcDbSymbolTableRecord
100
AcDbLayerTableRecord
  2
Defpoints
 70
     0
 62
     7
  6
Continuous
290
     0
370
    -3
390
F
  0
LAYER
  5
A46
330
2
100
AcDbSymbolTableRecord
100
AcDbLayerTableRecord
  2
size
 70
     0
 62
     5
  6
Continuous
290
     0
370
    30
390
F
  0
LAYER
  5
A47
330
2
100
AcDbSymbolTableRecord
100
AcDbLayerTableRecord
  2
waku
 70
     0
 62
     7
  6
Continuous
370
    40
390
F
  0
LAYER
  5
A48
330
2
100
AcDbSymbolTableRecord
100
AcDbLayerTableRecord
  2
AM_6
 70
     0
 62
     2
  6
文字
370
    20
390
F
  0
LAYER
  5
10CFB
330
2
100
AcDbSymbolTableRecord
100
AcDbLayerTableRecord
  2
AM_5
 70
     0
 62
     3
  6
寸法線
370
    20
390
F
  0
LAYER
  5
175E2
330
2
100
AcDbSymbolTableRecord
100
AcDbLayerTableRecord
  2
0バネガイド
 70
     0
 62
    57
  6
中線
370
    30
390
F
  0
LAYER
  5
3FA4E
330
2
100
AcDbSymbolTableRecord
100
AcDbLayerTableRecord
  2
0デッド1
 70
     0
 62
   210
  6
中線
370
    30
390
F
  0
LAYER
  5
40436
330
2
100
AcDbSymbolTableRecord
100
AcDbLayerTableRecord
  2
AM_2
 70
     0
 62
     1
  6
細線
370
    20
390
F
  0
LAYER
  5
40E37
330
2
100
AcDbSymbolTableRecord
100
AcDbLayerTableRecord
  2
AM_0
 70
     0
 62
     7
  6
中線
370
    30
390
F
  0
LAYER
  5
484F3
330
2
100
AcDbSymbolTableRecord
100
AcDbLayerTableRecord
  2
AM_CL
 70
     0
 62
     1
  6
Amconstr
370
    20
390
F
1001
AcAecLayerStandard
1000

1000

  0
LAYER
  5
1416C0
330
2
100
AcDbSymbolTableRecord
100
AcDbLayerTableRecord
  2
0台座Ｂ
 70
     0
 62
   211
  6
中線
370
    30
390
F
1001
AcAecLayerStandard
1000

1000

  0
LAYER
  5
154B0C
330
2
100
AcDbSymbolTableRecord
100
AcDbLayerTableRecord
  2
000
 70
     1
 62
   140
  6
中線
290
     0
370
    30
390
F
1001
AcAecLayerStandard
1000

1000

  0
LAYER
  5
1638F2
330
2
100
AcDbSymbolTableRecord
100
AcDbLayerTableRecord
  2
001
 70
     1
 62
    50
  6
Continuous
290
     0
370
    -3
390
F
1001
AcAecLayerStandard
1000

1000

  0
LAYER
  5
1DAC66
330
2
100
AcDbSymbolTableRecord
100
AcDbLayerTableRecord
  2
0部品10
 70
     0
 62
   131
  6
Continuous
370
    30
390
F
1001
AcAecLayerStandard
1000

1000

  0
LAYER
  5
1DE957
330
2
100
AcDbSymbolTableRecord
100
AcDbLayerTableRecord
  2
AM_INV
 70
     0
 62
  -253
  6
Continuous
370
     0
390
F
1001
AcAecLayerStandard
1000

1000

  0
ENDTAB
  0
TABLE
  2
STYLE
  5
3
330
0
100
AcDbSymbolTable
 70
     7
  0
STYLE
  5
11
330
3
100
AcDbSymbolTableRecord
100
AcDbTextStyleTableRecord
  2
STANDARD
 70
     0
 40
0.0
 41
0.7
 50
0.0
 71
     0
 42
3.200000000000001
  3
romans.shx
  4
extfont.shx
  0
STYLE
  5
56
330
3
100
AcDbSymbolTableRecord
100
AcDbTextStyleTableRecord
  2

 70
     1
 40
0.0
 41
1.0
 50
0.0
 71
     0
 42
2.5
  3
ltypeshp.shx
  4

  0
STYLE
  5
58
330
3
100
AcDbSymbolTableRecord
100
AcDbTextStyleTableRecord
  2
ACISOTS
 70
     0
 40
1.0
 41
1.0
 50
0.0
 71
     0
 42
2.5
  3
isocp.shx
  4
extfont.shx
  0
STYLE
  5
63
330
3
100
AcDbSymbolTableRecord
100
AcDbTextStyleTableRecord
  2
ACISOGDT
 70
     0
 40
0.0
 41
1.0
 50
0.0
 71
     0
 42
2.5
  3
amgdt.shx
  4

  0
STYLE
  5
A74
330
3
100
AcDbSymbolTableRecord
100
AcDbTextStyleTableRecord
  2
DIM
 70
     0
 40
0.0
 41
1.0
 50
0.0
 71
     0
 42
2.5
  3
monotxt.shx
  4
extfont.shx
  0
STYLE
  5
FA7
330
3
100
AcDbSymbolTableRecord
100
AcDbTextStyleTableRecord
  2
ACANSTS
 70
     0
 40
1.0
 41
1.0
 50
0.0
 71
     0
 42
0.2
  3
romans.shx
  4
extfont.shx
  0
STYLE
  5
FA8
330
3
100
AcDbSymbolTableRecord
100
AcDbTextStyleTableRecord
  2
ACANSGDT
 70
     0
 40
0.0
 41
1.0
 50
0.0
 71
     0
 42
0.2
  3
amgdtans.shx
  4

  0
ENDTAB
  0
TABLE
  2
VIEW
  5
6
330
0
100
AcDbSymbolTable
 70
     6
  0
VIEW
  5
AE1
330
6
100
AcDbSymbolTableRecord
100
AcDbViewTableRecord
  2
AM_VIEW1
 70
     0
 40
155.8310626702997
 10
6846.35669320679
 20
-588.9045655359739
 41
210.0
 11
0.0
 21
0.0
 31
1.0
 12
0.0
 22
0.0
 32
0.0
 42
50.0
 43
-1370.695619172058
 44
-1370.695619172058
 50
0.0
 71
    16
281
     0
 72
     0
  0
VIEW
  5
AE2
330
6
100
AcDbSymbolTableRecord
100
AcDbViewTableRecord
  2
AM_VIEW2
 70
     0
 40
155.8310626702997
 10
7056.35669320679
 20
-588.9045655359739
 41
210.0
 11
0.0
 21
0.0
 31
1.0
 12
0.0
 22
0.0
 32
0.0
 42
50.0
 43
-1370.695619172058
 44
-1370.695619172058
 50
0.0
 71
    16
281
     0
 72
     0
  0
VIEW
  5
AE3
330
6
100
AcDbSymbolTableRecord
100
AcDbViewTableRecord
  2
AM_VIEW3
 70
     0
 40
155.8310626702997
 10
6846.35669320679
 20
-730.0735028656743
 41
210.0
 11
0.0
 21
0.0
 31
1.0
 12
0.0
 22
0.0
 32
0.0
 42
50.0
 43
-1370.695619172058
 44
-1370.695619172058
 50
0.0
 71
    16
281
     0
 72
     0
  0
VIEW
  5
AE4
330
6
100
AcDbSymbolTableRecord
100
AcDbViewTableRecord
  2
AM_VIEW4
 70
     0
 40
155.8310626702997
 10
7056.35669320679
 20
-730.0735028656743
 41
210.0
 11
0.0
 21
0.0
 31
1.0
 12
0.0
 22
0.0
 32
0.0
 42
50.0
 43
-1370.695619172058
 44
-1370.695619172058
 50
0.0
 71
    16
281
     0
 72
     0
  0
VIEW
  5
AE5
330
6
100
AcDbSymbolTableRecord
100
AcDbViewTableRecord
  2
AM_VIEW5
 70
     0
 40
155.8310626702996
 10
6951.35669320679
 20
-659.4890342008241
 41
210.0
 11
0.0
 21
0.0
 31
1.0
 12
0.0
 22
0.0
 32
0.0
 42
50.0
 43
-1370.695619172058
 44
-1370.695619172058
 50
0.0
 71
    16
281
     0
 72
     0
  0
VIEW
  5
AE6
330
6
100
AcDbSymbolTableRecord
100
AcDbViewTableRecord
  2
AM_VIEW6
 70
     0
 40
311.659008719346
 10
6951.35669320679
 20
-659.4890342008241
 41
419.9958000000005
 11
0.0
 21
0.0
 31
1.0
 12
0.0
 22
0.0
 32
0.0
 42
50.0
 43
-1370.695619172058
 44
-1370.695619172058
 50
0.0
 71
    16
281
     0
 72
     0
  0
ENDTAB
  0
TABLE
  2
UCS
  5
7
330
0
100
AcDbSymbolTable
 70
     0
  0
ENDTAB
  0
TABLE
  2
APPID
  5
9
330
0
100
AcDbSymbolTable
 70
   142
  0
APPID
  5
12
330
9
100
AcDbSymbolTableRecord
100
AcDbRegAppTableRecord
  2
ACAD
 70
     0
  0
APPID
  5
30
330
9
100
AcDbSymbolTableRecord
100
AcDbRegAppTableRecord
  2
MCAD_NO_VIS
 70
     0
  0
APPID
  5
31
330
9
100
AcDbSymbolTableRecord
100
AcDbRegAppTableRecord
  2
ACAD_TEMP_GRAPHIC
 70
     0
  0
APPID
  5
44
330
9
100
AcDbSymbolTableRecord
100
AcDbRegAppTableRecord
  2
ACATTRIBSERVICES
 70
     0
  0
APPID
  5
7A1
330
9
100
AcDbSymbolTableRecord
100
AcDbRegAppTableRecord
  2
GENIUS_GENDIMSH_14
 70
     0
  0
APPID
  5
A49
330
9
100
AcDbSymbolTableRecord
100
AcDbRegAppTableRecord
  2
GENIUS_GENREC_14
 70
     0
  0
APPID
  5
A4A
330
9
100
AcDbSymbolTableRecord
100
AcDbRegAppTableRecord
  2
GENIUS_GENOBJ-N-REC_13
 70
     0
  0
APPID
  5
A4B
330
9
100
AcDbSymbolTableRecord
100
AcDbRegAppTableRecord
  2
GENIUS_GENODEF_13
 70
     0
  0
APPID
  5
A4C
330
9
100
AcDbSymbolTableRecord
100
AcDbRegAppTableRecord
  2
DCO15
 70
     0
  0
APPID
  5
ADC
330
9
100
AcDbSymbolTableRecord
100
AcDbRegAppTableRecord
  2
GENIUS_GENOLIS_13
 70
     0
  0
APPID
  5
ADD
330
9
100
AcDbSymbolTableRecord
100
AcDbRegAppTableRecord
  2
GENIUS_GENOENT_13
 70
     0
  0
APPID
  5
ADE
330
9
100
AcDbSymbolTableRecord
100
AcDbRegAppTableRecord
  2
GENIUS_GENOBJ-N-TIT_13
 70
     0
  0
APPID
  5
ADF
330
9
100
AcDbSymbolTableRecord
100
AcDbRegAppTableRecord
  2
GENIUS_GENTITLE_13
 70
     0
  0
APPID
  5
AE0
330
9
100
AcDbSymbolTableRecord
100
AcDbRegAppTableRecord
  2
GENIUS_GENOREF_13
 70
     0
  0
APPID
  5
AE7
330
9
100
AcDbSymbolTableRecord
100
AcDbRegAppTableRecord
  2
GENIUS_GENSCREG_15
 70
     0
  0
APPID
  5
AE8
330
9
100
AcDbSymbolTableRecord
100
AcDbRegAppTableRecord
  2
GENIUS_GENOBJ-N-SDF_13
 70
     0
  0
APPID
  5
FAF
330
9
100
AcDbSymbolTableRecord
100
AcDbRegAppTableRecord
  2
GENIUS_GENBLLY_14
 70
     0
  0
APPID
  5
FB0
330
9
100
AcDbSymbolTableRecord
100
AcDbRegAppTableRecord
  2
GENIUS_GENTRA_14
 70
     0
  0
APPID
  5
1285
330
9
100
AcDbSymbolTableRecord
100
AcDbRegAppTableRecord
  2
GENIUS_GENDTOL_13
 70
     0
  0
APPID
  5
142D
330
9
100
AcDbSymbolTableRecord
100
AcDbRegAppTableRecord
  2
GENIUS_GENOBJ-N-CEN_13
 70
     0
  0
APPID
  5
1AB5
330
9
100
AcDbSymbolTableRecord
100
AcDbRegAppTableRecord
  2
GENIUS_GENOBJ-N-CRS_13
 70
     0
  0
APPID
  5
1B36
330
9
100
AcDbSymbolTableRecord
100
AcDbRegAppTableRecord
  2
GENIUS_GENOBJ-N-HTC_13
 70
     0
  0
APPID
  5
1B37
330
9
100
AcDbSymbolTableRecord
100
AcDbRegAppTableRecord
  2
GENIUS_GENHATCH_13
 70
     0
  0
APPID
  5
216D
330
9
100
AcDbSymbolTableRecord
100
AcDbRegAppTableRecord
  2
GENIUS_GENOBJ-N-FIL_13
 70
     0
  0
APPID
  5
2356
330
9
100
AcDbSymbolTableRecord
100
AcDbRegAppTableRecord
  2
GEVID990412420
 70
     0
  0
APPID
  5
2357
330
9
100
AcDbSymbolTableRecord
100
AcDbRegAppTableRecord
  2
GEVDC
 70
     0
  0
APPID
  5
2358
330
9
100
AcDbSymbolTableRecord
100
AcDbRegAppTableRecord
  2
GEVCON
 70
     0
  0
APPID
  5
235B
330
9
100
AcDbSymbolTableRecord
100
AcDbRegAppTableRecord
  2
GEVRADREF
 70
     0
  0
APPID
  5
2360
330
9
100
AcDbSymbolTableRecord
100
AcDbRegAppTableRecord
  2
GENIUS_GENBH_13
 70
     0
  0
APPID
  5
2362
330
9
100
AcDbSymbolTableRecord
100
AcDbRegAppTableRecord
  2
GENIUS_GENOBJ-NBEHI-BHF_13
 70
     0
  0
APPID
  5
2364
330
9
100
AcDbSymbolTableRecord
100
AcDbRegAppTableRecord
  2
GENIUS_GENOBJ-NBEHI-BHB_13
 70
     0
  0
APPID
  5
2379
330
9
100
AcDbSymbolTableRecord
100
AcDbRegAppTableRecord
  2
GENIUS_GENOBJ-F-SCPASSM_13
 70
     0
  0
APPID
  5
3D74
330
9
100
AcDbSymbolTableRecord
100
AcDbRegAppTableRecord
  2
GENIUS_GENDIM_13
 70
     0
  0
APPID
  5
3D76
330
9
100
AcDbSymbolTableRecord
100
AcDbRegAppTableRecord
  2
GENIUS_GE3DTOL_13
 70
     0
  0
APPID
  5
3D9C
330
9
100
AcDbSymbolTableRecord
100
AcDbRegAppTableRecord
  2
AD_DRAW
 70
     0
  0
APPID
  5
3DE8
330
9
100
AcDbSymbolTableRecord
100
AcDbRegAppTableRecord
  2
ASURF_PCURVE_APPNAME
 70
     0
  0
APPID
  5
3DED
330
9
100
AcDbSymbolTableRecord
100
AcDbRegAppTableRecord
  2
AMG_3D2D_5.0
 70
     0
  0
APPID
  5
3E1B
330
9
100
AcDbSymbolTableRecord
100
AcDbRegAppTableRecord
  2
DESIGNERASSEMBLIES
 70
     0
  0
APPID
  5
3E20
330
9
100
AcDbSymbolTableRecord
100
AcDbRegAppTableRecord
  2
ACADM_DIM_EDIT
 70
     0
  0
APPID
  5
3E21
330
9
100
AcDbSymbolTableRecord
100
AcDbRegAppTableRecord
  2
AMDT_DM_ADJ
 70
     0
  0
APPID
  5
4143
330
9
100
AcDbSymbolTableRecord
100
AcDbRegAppTableRecord
  2
GENIUS_GENFIL_13
 70
     0
  0
APPID
  5
4144
330
9
100
AcDbSymbolTableRecord
100
AcDbRegAppTableRecord
  2
GENIUS_GENOBJ-N-CHA_13
 70
     0
  0
APPID
  5
4E17
330
9
100
AcDbSymbolTableRecord
100
AcDbRegAppTableRecord
  2
GEVID1008153417
 70
     0
  0
APPID
  5
4E58
330
9
100
AcDbSymbolTableRecord
100
AcDbRegAppTableRecord
  2
GEVID1008153418
 70
     0
  0
APPID
  5
4E5E
330
9
100
AcDbSymbolTableRecord
100
AcDbRegAppTableRecord
  2
GEVID1008153419
 70
     0
  0
APPID
  5
4E64
330
9
100
AcDbSymbolTableRecord
100
AcDbRegAppTableRecord
  2
GEVID1008153420
 70
     0
  0
APPID
  5
4E75
330
9
100
AcDbSymbolTableRecord
100
AcDbRegAppTableRecord
  2
GEVID1008153421
 70
     0
  0
APPID
  5
4EB7
330
9
100
AcDbSymbolTableRecord
100
AcDbRegAppTableRecord
  2
GENIUS_AMGTXT_16
 70
     0
  0
APPID
  5
7645
330
9
100
AcDbSymbolTableRecord
100
AcDbRegAppTableRecord
  2
GENIUS_GENOBJ-N-DIM_13
 70
     0
  0
APPID
  5
EDE9
330
9
100
AcDbSymbolTableRecord
100
AcDbRegAppTableRecord
  2
GENLAYCOLOR
 70
     0
  0
APPID
  5
17623
330
9
100
AcDbSymbolTableRecord
100
AcDbRegAppTableRecord
  2
GENIUS_GEFSPRING_13
 70
     0
  0
APPID
  5
43971
330
9
100
AcDbSymbolTableRecord
100
AcDbRegAppTableRecord
  2
ACAD_PSEXT
 70
     0
  0
APPID
  5
484F4
330
9
100
AcDbSymbolTableRecord
100
AcDbRegAppTableRecord
  2
AcAecLayerStandard
 70
     0
  0
APPID
  5
522B5
330
9
100
AcDbSymbolTableRecord
100
AcDbRegAppTableRecord
  2
GENIUS_GENCEN_19
 70
     0
  0
APPID
  5
536D7
330
9
100
AcDbSymbolTableRecord
100
AcDbRegAppTableRecord
  2
GEVID1193104568
 70
     0
  0
APPID
  5
689FA
330
9
100
AcDbSymbolTableRecord
100
AcDbRegAppTableRecord
  2
AcDbDynamicBlockGUID
 70
     0
  0
APPID
  5
689FB
330
9
100
AcDbSymbolTableRecord
100
AcDbRegAppTableRecord
  2
ACDBBLOCKREPETAG
 70
     0
  0
APPID
  5
689FC
330
9
100
AcDbSymbolTableRecord
100
AcDbRegAppTableRecord
  2
ACLAYERTOOLS
 70
     0
  0
APPID
  5
B9289
330
9
100
AcDbSymbolTableRecord
100
AcDbRegAppTableRecord
  2
ACAD_DSTYLE_DIMJOGGED_JOGANGLE_SYMBOL
 70
     0
  0
APPID
  5
117865
330
9
100
AcDbSymbolTableRecord
100
AcDbRegAppTableRecord
  2
ACAD_EXEMPT_FROM_CAD_STANDARDS
 70
     0
  0
APPID
  5
16AE37
330
9
100
AcDbSymbolTableRecord
100
AcDbRegAppTableRecord
  2
GEVID1224165582
 70
     0
  0
APPID
  5
16AEA8
330
9
100
AcDbSymbolTableRecord
100
AcDbRegAppTableRecord
  2
GEVID1224165583
 70
     0
  0
APPID
  5
16AED3
330
9
100
AcDbSymbolTableRecord
100
AcDbRegAppTableRecord
  2
GEVID1224165584
 70
     0
  0
APPID
  5
16AEFB
330
9
100
AcDbSymbolTableRecord
100
AcDbRegAppTableRecord
  2
GEVID1224165585
 70
     0
  0
APPID
  5
16AF05
330
9
100
AcDbSymbolTableRecord
100
AcDbRegAppTableRecord
  2
GEVID1224165586
 70
     0
  0
APPID
  5
16AF0D
330
9
100
AcDbSymbolTableRecord
100
AcDbRegAppTableRecord
  2
GEVID1224165587
 70
     0
  0
APPID
  5
16AF89
330
9
100
AcDbSymbolTableRecord
100
AcDbRegAppTableRecord
  2
GEVID1224226570
 70
     0
  0
APPID
  5
16B0B0
330
9
100
AcDbSymbolTableRecord
100
AcDbRegAppTableRecord
  2
GEVID1224226571
 70
     0
  0
APPID
  5
16B0BB
330
9
100
AcDbSymbolTableRecord
100
AcDbRegAppTableRecord
  2
GEVID1224226572
 70
     0
  0
APPID
  5
16B4A6
330
9
100
AcDbSymbolTableRecord
100
AcDbRegAppTableRecord
  2
GEVID1224226573
 70
     0
  0
APPID
  5
16D04D
330
9
100
AcDbSymbolTableRecord
100
AcDbRegAppTableRecord
  2
GEVID1225102640
 70
     0
  0
APPID
  5
176CC7
330
9
100
AcDbSymbolTableRecord
100
AcDbRegAppTableRecord
  2
GENIUS_GEFINERT_13
 70
     0
  0
APPID
  5
176CFA
330
9
100
AcDbSymbolTableRecord
100
AcDbRegAppTableRecord
  2
GENIUS_GENOBJ-F-INER_13
 70
     0
  0
APPID
  5
176F20
330
9
100
AcDbSymbolTableRecord
100
AcDbRegAppTableRecord
  2
GEVID1225438260
 70
     0
  0
APPID
  5
178B41
330
9
100
AcDbSymbolTableRecord
100
AcDbRegAppTableRecord
  2
GEVID1225744285
 70
     0
  0
APPID
  5
178B4B
330
9
100
AcDbSymbolTableRecord
100
AcDbRegAppTableRecord
  2
GEVID1225744286
 70
     0
  0
APPID
  5
178B51
330
9
100
AcDbSymbolTableRecord
100
AcDbRegAppTableRecord
  2
GEVID1225744287
 70
     0
  0
APPID
  5
178BAD
330
9
100
AcDbSymbolTableRecord
100
AcDbRegAppTableRecord
  2
GENIUS_GENBHRL_14
 70
     0
  0
APPID
  5
17B64E
330
9
100
AcDbSymbolTableRecord
100
AcDbRegAppTableRecord
  2
GEVID1225744288
 70
     0
  0
APPID
  5
17D843
330
9
100
AcDbSymbolTableRecord
100
AcDbRegAppTableRecord
  2
GEVID1225744289
 70
     0
  0
APPID
  5
17D84D
330
9
100
AcDbSymbolTableRecord
100
AcDbRegAppTableRecord
  2
GEVID1225744290
 70
     0
  0
APPID
  5
17FB87
330
9
100
AcDbSymbolTableRecord
100
AcDbRegAppTableRecord
  2
GEVID1226022947
 70
     0
  0
APPID
  5
17FB91
330
9
100
AcDbSymbolTableRecord
100
AcDbRegAppTableRecord
  2
GEVID1226022948
 70
     0
  0
APPID
  5
17FC2E
330
9
100
AcDbSymbolTableRecord
100
AcDbRegAppTableRecord
  2
GEVID1226022949
 70
     0
  0
APPID
  5
17FC38
330
9
100
AcDbSymbolTableRecord
100
AcDbRegAppTableRecord
  2
GEVID1226022950
 70
     0
  0
APPID
  5
1806D7
330
9
100
AcDbSymbolTableRecord
100
AcDbRegAppTableRecord
  2
GEVID1226022951
 70
     0
  0
APPID
  5
19698C
330
9
100
AcDbSymbolTableRecord
100
AcDbRegAppTableRecord
  2
GEVID1227767280
 70
     0
  0
APPID
  5
196996
330
9
100
AcDbSymbolTableRecord
100
AcDbRegAppTableRecord
  2
GEVID1227767281
 70
     0
  0
APPID
  5
19F3D4
330
9
100
AcDbSymbolTableRecord
100
AcDbRegAppTableRecord
  2
GEVID1227851005
 70
     0
  0
APPID
  5
19F562
330
9
100
AcDbSymbolTableRecord
100
AcDbRegAppTableRecord
  2
GEVID1227851006
 70
     0
  0
APPID
  5
19F720
330
9
100
AcDbSymbolTableRecord
100
AcDbRegAppTableRecord
  2
GEVID1227851007
 70
     0
  0
APPID
  5
19F763
330
9
100
AcDbSymbolTableRecord
100
AcDbRegAppTableRecord
  2
GEVID1227851008
 70
     0
  0
APPID
  5
19F76D
330
9
100
AcDbSymbolTableRecord
100
AcDbRegAppTableRecord
  2
GEVID1227851009
 70
     0
  0
APPID
  5
19F7AB
330
9
100
AcDbSymbolTableRecord
100
AcDbRegAppTableRecord
  2
GEVID1227851010
 70
     0
  0
APPID
  5
1A6682
330
9
100
AcDbSymbolTableRecord
100
AcDbRegAppTableRecord
  2
GEVID1228400672
 70
     0
  0
APPID
  5
1A668C
330
9
100
AcDbSymbolTableRecord
100
AcDbRegAppTableRecord
  2
GEVID1228400673
 70
     0
  0
APPID
  5
1A672C
330
9
100
AcDbSymbolTableRecord
100
AcDbRegAppTableRecord
  2
GEVID1228400674
 70
     0
  0
APPID
  5
1A6736
330
9
100
AcDbSymbolTableRecord
100
AcDbRegAppTableRecord
  2
GEVID1228400675
 70
     0
  0
APPID
  5
1AA1A4
330
9
100
AcDbSymbolTableRecord
100
AcDbRegAppTableRecord
  2
GEVID1228462227
 70
     0
  0
APPID
  5
1AA1AE
330
9
100
AcDbSymbolTableRecord
100
AcDbRegAppTableRecord
  2
GEVID1228462228
 70
     0
  0
APPID
  5
1AA1B6
330
9
100
AcDbSymbolTableRecord
100
AcDbRegAppTableRecord
  2
GEVID1228462229
 70
     0
  0
APPID
  5
1AA203
330
9
100
AcDbSymbolTableRecord
100
AcDbRegAppTableRecord
  2
GEVID1228462230
 70
     0
  0
APPID
  5
1AA20D
330
9
100
AcDbSymbolTableRecord
100
AcDbRegAppTableRecord
  2
GEVID1228462231
 70
     0
  0
APPID
  5
1CB9A3
330
9
100
AcDbSymbolTableRecord
100
AcDbRegAppTableRecord
  2
GEVID1232583290
 70
     0
  0
APPID
  5
1D95BE
330
9
100
AcDbSymbolTableRecord
100
AcDbRegAppTableRecord
  2
GEVID1232697078
 70
     0
  0
APPID
  5
1D960A
330
9
100
AcDbSymbolTableRecord
100
AcDbRegAppTableRecord
  2
GEVID1232697079
 70
     0
  0
APPID
  5
1D9678
330
9
100
AcDbSymbolTableRecord
100
AcDbRegAppTableRecord
  2
GEVID1232697080
 70
     0
  0
APPID
  5
1D96A4
330
9
100
AcDbSymbolTableRecord
100
AcDbRegAppTableRecord
  2
GEVID1232697081
 70
     0
  0
APPID
  5
1D9744
330
9
100
AcDbSymbolTableRecord
100
AcDbRegAppTableRecord
  2
GEVID1232697082
 70
     0
  0
APPID
  5
1D97C2
330
9
100
AcDbSymbolTableRecord
100
AcDbRegAppTableRecord
  2
GEVID1232697083
 70
     0
  0
APPID
  5
1D983C
330
9
100
AcDbSymbolTableRecord
100
AcDbRegAppTableRecord
  2
GEVID1232697084
 70
     0
  0
APPID
  5
1DE930
330
9
100
AcDbSymbolTableRecord
100
AcDbRegAppTableRecord
  2
GEVID1277100167
 70
     0
  0
APPID
  5
1DE954
330
9
100
AcDbSymbolTableRecord
100
AcDbRegAppTableRecord
  2
GEVID1277100168
 70
     0
  0
APPID
  5
1DE96D
330
9
100
AcDbSymbolTableRecord
100
AcDbRegAppTableRecord
  2
GEVID1277100169
 70
     0
  0
APPID
  5
1DF8C1
330
9
100
AcDbSymbolTableRecord
100
AcDbRegAppTableRecord
  2
GEVID1277203782
 70
     0
  0
APPID
  5
1DF8E5
330
9
100
AcDbSymbolTableRecord
100
AcDbRegAppTableRecord
  2
GEVID1277203783
 70
     0
  0
APPID
  5
1DF8EB
330
9
100
AcDbSymbolTableRecord
100
AcDbRegAppTableRecord
  2
GEVID1277203784
 70
     0
  0
APPID
  5
1F6851
330
9
100
AcDbSymbolTableRecord
100
AcDbRegAppTableRecord
  2
GEVID1280123767
 70
     0
  0
APPID
  5
1F685A
330
9
100
AcDbSymbolTableRecord
100
AcDbRegAppTableRecord
  2
GEVID1280123768
 70
     0
  0
APPID
  5
1F6877
330
9
100
AcDbSymbolTableRecord
100
AcDbRegAppTableRecord
  2
GEVID1280123769
 70
     0
  0
APPID
  5
1F68C3
330
9
100
AcDbSymbolTableRecord
100
AcDbRegAppTableRecord
  2
GEVID1280123770
 70
     0
  0
APPID
  5
1F68C8
330
9
100
AcDbSymbolTableRecord
100
AcDbRegAppTableRecord
  2
GEVID1280123771
 70
     0
  0
APPID
  5
1F68E3
330
9
100
AcDbSymbolTableRecord
100
AcDbRegAppTableRecord
  2
GEVID1280123772
 70
     0
  0
APPID
  5
1F68EC
330
9
100
AcDbSymbolTableRecord
100
AcDbRegAppTableRecord
  2
GEVID1280123773
 70
     0
  0
APPID
  5
1F68F6
330
9
100
AcDbSymbolTableRecord
100
AcDbRegAppTableRecord
  2
GEVID1280123774
 70
     0
  0
APPID
  5
1F69AB
330
9
100
AcDbSymbolTableRecord
100
AcDbRegAppTableRecord
  2
GEVID1280123775
 70
     0
  0
APPID
  5
1F69C0
330
9
100
AcDbSymbolTableRecord
100
AcDbRegAppTableRecord
  2
GEVID1280123776
 70
     0
  0
APPID
  5
1F6BA7
330
9
100
AcDbSymbolTableRecord
100
AcDbRegAppTableRecord
  2
GEVID1280123777
 70
     0
  0
APPID
  5
1F6C29
330
9
100
AcDbSymbolTableRecord
100
AcDbRegAppTableRecord
  2
GEVID1280123778
 70
     0
  0
APPID
  5
1F72DE
330
9
100
AcDbSymbolTableRecord
100
AcDbRegAppTableRecord
  2
GEVID1280123779
 70
     0
  0
APPID
  5
1F72E8
330
9
100
AcDbSymbolTableRecord
100
AcDbRegAppTableRecord
  2
GEVID1280123780
 70
     0
  0
APPID
  5
1F72EE
330
9
100
AcDbSymbolTableRecord
100
AcDbRegAppTableRecord
  2
GEVID1280123781
 70
     0
  0
APPID
  5
1F739A
330
9
100
AcDbSymbolTableRecord
100
AcDbRegAppTableRecord
  2
GEVID1280123782
 70
     0
  0
APPID
  5
1F73A3
330
9
100
AcDbSymbolTableRecord
100
AcDbRegAppTableRecord
  2
GEVID1280123783
 70
     0
  0
APPID
  5
1F91F7
330
9
100
AcDbSymbolTableRecord
100
AcDbRegAppTableRecord
  2
GEVID1280372409
 70
     0
  0
APPID
  5
1F9201
330
9
100
AcDbSymbolTableRecord
100
AcDbRegAppTableRecord
  2
GEVID1280372410
 70
     0
  0
APPID
  5
1F9207
330
9
100
AcDbSymbolTableRecord
100
AcDbRegAppTableRecord
  2
GEVID1280372411
 70
     0
  0
APPID
  5
1F925E
330
9
100
AcDbSymbolTableRecord
100
AcDbRegAppTableRecord
  2
GEVID1280372412
 70
     0
  0
APPID
  5
1F92B3
330
9
100
AcDbSymbolTableRecord
100
AcDbRegAppTableRecord
  2
GEVID1280372413
 70
     0
  0
APPID
  5
20BD63
330
9
100
AcDbSymbolTableRecord
100
AcDbRegAppTableRecord
  2
GEVID1282559720
 70
     0
  0
APPID
  5
20BE3B
330
9
100
AcDbSymbolTableRecord
100
AcDbRegAppTableRecord
  2
GEVID1282559721
 70
     0
  0
APPID
  5
20BE40
330
9
100
AcDbSymbolTableRecord
100
AcDbRegAppTableRecord
  2
GEVID1282559722
 70
     0
  0
ENDTAB
  0
TABLE
  2
DIMSTYLE
  5
A
330
0
100
AcDbSymbolTable
 70
    25
100
AcDbDimStyleTable
 71
     5
340
2515
340
251A
340
251B
340
6C
340
FA9
  0
DIMSTYLE
105
6C
330
A
100
AcDbSymbolTableRecord
100
AcDbDimStyleTableRecord
  2
AM_ISO
 70
     0
  4
"
 41
2.5
 42
1.0
 43
10.0
 44
1.0
 47
0.1
 48
0.1
 73
     0
 74
     0
 77
     1
 78
     8
 79
     2
140
3.5
141
0.0
143
0.0393701
146
0.71
147
1.5
172
     1
176
   256
177
   256
178
     2
271
     2
272
     3
274
     4
283
     0
284
     8
340
11
371
    -1
372
    -1
  0
DIMSTYLE
105
6D
330
A
100
AcDbSymbolTableRecord
100
AcDbDimStyleTableRecord
  2
AM_ISO$3
 70
     0
  4
"
 41
0.8
 42
1.0
 43
10.0
 44
1.0
 47
0.1
 48
0.1
 73
     0
 77
     1
 78
     8
 79
     2
140
3.2
141
0.0
143
0.0393701
146
0.71
147
0.9999999999999996
176
   256
177
   256
178
     2
271
     2
272
     2
283
     0
284
     8
288
     1
289
     0
340
11
342
6C4
371
    -1
372
    -1
  0
DIMSTYLE
105
6E
330
A
100
AcDbSymbolTableRecord
100
AcDbDimStyleTableRecord
  2
AM_ISO$4
 70
     0
  4
"
 41
0.8
 42
1.0
 43
10.0
 44
1.0
 47
0.1
 48
0.1
 73
     0
 77
     1
 78
     8
 79
     2
140
3.2
141
0.0
143
0.0393701
146
0.71
147
1.0
173
     1
176
   256
177
   256
178
     2
271
     2
272
     2
283
     0
284
     8
288
     1
289
     0
340
11
344
6C4
371
    -1
372
    -1
  0
DIMSTYLE
105
6F
330
A
100
AcDbSymbolTableRecord
100
AcDbDimStyleTableRecord
  2
AM_ISO$6
 70
     0
  4
"
 41
0.8
 42
1.0
 43
10.0
 44
1.0
 47
0.1
 48
0.1
 73
     0
 74
     0
 78
     8
 79
     2
140
3.2
141
0.0
143
0.0393701
146
0.71
147
1.0
172
     1
176
   256
177
   256
178
     2
271
     2
272
     2
283
     0
284
     8
340
11
341
6C4
371
    -1
372
    -1
  0
DIMSTYLE
105
70
330
A
100
AcDbSymbolTableRecord
100
AcDbDimStyleTableRecord
  2
AM_ISO$7
 70
     0
  4
"
 41
0.8
 42
1.0
 43
10.0
 44
1.0
 47
0.1
 48
0.1
 73
     0
 74
     0
 77
     1
 78
     8
 79
     2
140
3.2
141
0.0
143
0.0393701
146
0.71
147
1.0
172
     1
176
   256
177
   256
178
     2
271
     2
272
     2
283
     0
284
     8
340
11
341
6C4
342
6C4
371
    -1
372
    -1
  0
DIMSTYLE
105
71
330
A
100
AcDbSymbolTableRecord
100
AcDbDimStyleTableRecord
  2
AM_ISO$SF
 70
     0
  4
"
 41
0.8
 42
1.0
 43
10.0
 44
1.0
 47
0.1
 48
0.1
 73
     0
 74
     0
 75
     1
 76
     1
 77
     1
 78
     8
 79
     2
140
3.2
141
0.0
143
0.0393701
146
0.71
147
1.0
172
     1
176
   256
177
   256
178
     2
271
     2
272
     2
283
     0
284
     8
340
11
341
6C4
342
6C4
371
    -1
372
    -1
  0
DIMSTYLE
105
76
330
A
100
AcDbSymbolTableRecord
100
AcDbDimStyleTableRecord
  2
AM_ISO$SH
 70
     0
  4
"
 41
0.8
 42
1.0
 43
10.0
 44
1.0
 47
0.1
 48
0.1
 73
     0
 74
     0
 75
     1
 76
     1
 77
     1
 78
     8
 79
     2
140
3.2
141
0.0
143
0.0393701
144
2.0
146
0.71
147
1.0
172
     1
176
   256
177
   256
178
     2
271
     2
272
     2
283
     0
284
     8
340
11
341
6C4
342
6C4
371
    -1
372
    -1
  0
DIMSTYLE
105
6BE
330
A
100
AcDbSymbolTableRecord
100
AcDbDimStyleTableRecord
  2
AM_ISO$0
 70
     0
  4
"
 41
0.8
 42
1.0
 43
10.0
 44
1.0
 47
0.1
 48
0.1
 73
     0
 74
     0
 77
     1
 78
     8
 79
     2
140
3.2
141
0.0
143
0.0393701
146
0.71
147
0.9999999999999996
172
     1
176
   256
177
   256
178
     2
271
     2
272
     2
283
     0
284
     8
340
11
341
6C4
342
6C4
371
    -1
372
    -1
  0
DIMSTYLE
105
6BF
330
A
100
AcDbSymbolTableRecord
100
AcDbDimStyleTableRecord
  2
AM_ISO$2
 70
     0
  4
"
 41
0.8
 42
1.0
 43
10.0
 44
1.0
 47
0.1
 48
0.1
 73
     0
 74
     0
 77
     3
 78
     8
 79
     2
140
3.200000000000001
141
0.0
143
0.0393701
146
0.71
147
0.9999999999999996
172
     1
176
   256
177
   256
178
     2
271
     2
272
     2
283
     0
284
     8
340
11
342
6C4
371
    -1
372
    -1
  0
DIMSTYLE
105
A76
330
A
100
AcDbSymbolTableRecord
100
AcDbDimStyleTableRecord
  2
STANDARD
 70
     0
 41
3.0
 42
1.0
 43
7.0
 44
2.0
 73
     0
 74
     0
 77
     1
140
2.799999999999999
141
0.0
143
0.0394
147
0.7
171
     4
172
     1
173
     1
176
     3
177
     3
178
     2
271
     3
272
     3
273
     8
274
     4
289
     0
340
A74
341
A66
343
A66
344
A66
  0
DIMSTYLE
105
FA9
330
A
100
AcDbSymbolTableRecord
100
AcDbDimStyleTableRecord
  2
AM_ANSI
 70
     0
  4
mm
 41
0.1
 42
0.05
 43
0.5
 44
0.1
 47
0.1
 48
0.1
 78
     7
 79
     2
140
0.12
141
0.0
146
0.71
147
0.06
176
   256
177
   256
178
     2
274
     4
284
     7
340
11
371
    -1
372
    -1
  0
DIMSTYLE
105
FAA
330
A
100
AcDbSymbolTableRecord
100
AcDbDimStyleTableRecord
  2
AM_ANSI$3
 70
     0
  4
mm
 41
0.1
 42
0.05
 43
0.5
 44
0.1
 47
0.1
 48
0.1
 78
     7
 79
     2
140
0.12
141
0.0
146
0.71
147
0.06
176
   256
177
   256
178
     2
274
     4
284
     7
288
     1
289
     0
340
11
371
    -1
372
    -1
  0
DIMSTYLE
105
FAB
330
A
100
AcDbSymbolTableRecord
100
AcDbDimStyleTableRecord
  2
AM_ANSI$4
 70
     0
  4
mm
 41
0.1
 42
0.05
 43
0.5
 44
0.1
 47
0.1
 48
0.1
 78
     7
 79
     2
140
0.12
141
0.0
146
0.71
147
0.06
176
   256
177
   256
178
     2
274
     4
284
     7
288
     1
289
     0
340
11
371
    -1
372
    -1
  0
DIMSTYLE
105
FAC
330
A
100
AcDbSymbolTableRecord
100
AcDbDimStyleTableRecord
  2
AM_ANSI$7
 70
     0
  4
mm
 41
0.1
 42
0.05
 43
0.5
 44
0.1
 47
0.1
 48
0.1
 78
     7
 79
     2
140
0.24
141
0.0
146
0.71
147
0.06
176
   256
177
   256
178
     2
274
     4
284
     7
340
11
371
    -1
372
    -1
  0
DIMSTYLE
105
FAD
330
A
100
AcDbSymbolTableRecord
100
AcDbDimStyleTableRecord
  2
AM_ANSI$SF
 70
     0
  4
mm
 41
0.1
 42
0.05
 43
0.5
 44
0.1
 47
0.1
 48
0.1
 75
     1
 76
     1
 78
     7
 79
     2
140
0.12
141
0.0
146
0.71
147
0.06
176
   256
177
   256
178
     2
274
     4
284
     7
340
11
371
    -1
372
    -1
  0
DIMSTYLE
105
FAE
330
A
100
AcDbSymbolTableRecord
100
AcDbDimStyleTableRecord
  2
AM_ANSI$SH
 70
     0
  4
mm
 41
0.1
 42
0.05
 43
0.5
 44
0.1
 47
0.1
 48
0.1
 75
     1
 76
     1
 78
     7
 79
     2
140
0.12
141
0.0
146
0.71
147
0.06
173
     1
176
   256
177
   256
178
     2
274
     4
284
     7
340
11
343
72
371
    -1
372
    -1
  0
DIMSTYLE
105
2515
330
A
100
AcDbSymbolTableRecord
100
AcDbDimStyleTableRecord
  2
SYS
 70
     0
  4
"
 41
1.0
 42
1.0
 43
8.0
 44
1.0
 47
0.1
 48
0.1
 73
     0
 74
     0
 77
     1
 78
     8
 79
     2
140
3.200000000000001
141
0.0
143
0.0393701
146
0.71
147
1.5
172
     1
176
   256
177
   256
178
     7
271
     2
272
     2
283
     0
284
     8
340
11
341
A66
342
6C4
371
    20
372
    -1
  0
DIMSTYLE
105
2516
330
A
100
AcDbSymbolTableRecord
100
AcDbDimStyleTableRecord
  2
SYS$3
 70
     0
  4
"
 41
1.5
 42
1.0
 43
10.0
 44
1.0
 47
0.1
 48
0.1
 73
     0
 77
     1
 78
     8
 79
     2
140
3.2
141
0.0
143
0.0393701
146
0.71
147
1.0
172
     1
176
   256
177
   256
178
     2
271
     2
272
     2
283
     0
284
     8
288
     1
340
11
342
A66
371
    20
372
    -1
  0
DIMSTYLE
105
2517
330
A
100
AcDbSymbolTableRecord
100
AcDbDimStyleTableRecord
  2
SYS$4
 70
     0
  4
"
 41
2.0
 42
1.0
 43
10.0
 44
1.0
 47
0.1
 48
0.1
 73
     0
 77
     1
 78
     8
 79
     2
140
3.2
141
0.0
143
0.0393701
146
0.71
147
1.0
172
     1
173
     1
176
   256
177
   256
178
     2
271
     2
272
     2
283
     0
284
     8
288
     1
340
11
343
6C4
344
A66
371
    20
372
    -1
  0
DIMSTYLE
105
2518
330
A
100
AcDbSymbolTableRecord
100
AcDbDimStyleTableRecord
  2
SYS$6
 70
     0
  4
"
 41
2.0
 42
1.0
 43
10.0
 44
1.0
 47
0.1
 48
0.1
 73
     0
 74
     0
 78
     8
 79
     2
140
3.2
141
0.0
143
0.0393701
146
0.71
147
1.0
172
     1
176
   256
177
   256
178
     2
271
     2
272
     2
283
     0
284
     8
340
11
341
A66
342
6C4
371
    20
372
    -1
  0
DIMSTYLE
105
2519
330
A
100
AcDbSymbolTableRecord
100
AcDbDimStyleTableRecord
  2
SYS$7
 70
     0
  4
"
 41
1.0
 42
1.5
 43
10.0
 44
1.0
 47
0.1
 48
0.1
 73
     0
 74
     0
 77
     1
 78
     8
 79
     2
140
3.2
141
0.0
143
0.0393701
146
0.71
147
1.0
172
     1
176
   256
177
   256
178
     2
271
     2
272
     2
283
     0
284
     8
340
11
341
A66
342
A66
371
    20
372
    -1
  0
DIMSTYLE
105
251A
330
A
100
AcDbSymbolTableRecord
100
AcDbDimStyleTableRecord
  2
SYS$SF
 70
     0
  4
"
 41
1.0
 42
1.0
 43
10.0
 44
1.0
 47
0.1
 48
0.1
 73
     0
 74
     0
 75
     1
 76
     1
 77
     1
 78
     8
 79
     2
140
3.2
141
0.0
143
0.0393701
146
0.71
147
1.0
172
     1
176
   256
177
   256
178
     2
271
     2
272
     2
283
     0
284
     8
340
11
341
6C4
342
6C4
371
    -1
372
    -1
  0
DIMSTYLE
105
251B
330
A
100
AcDbSymbolTableRecord
100
AcDbDimStyleTableRecord
  2
SYS$SH
 70
     0
  4
"
 41
1.0
 42
1.0
 43
10.0
 44
1.0
 47
0.1
 48
0.1
 73
     0
 74
     0
 75
     1
 76
     1
 77
     1
 78
     8
 79
     2
140
3.2
141
0.0
143
0.0393701
144
2.0
146
0.71
147
1.0
172
     1
173
     1
176
   256
177
   256
178
     2
271
     2
272
     2
283
     0
284
     8
340
11
341
6C4
343
72
344
6C4
371
    -1
372
    -1
  0
DIMSTYLE
105
2A59
330
A
100
AcDbSymbolTableRecord
100
AcDbDimStyleTableRecord
  2
SYS$2
 70
     0
  4
"
 41
1.0
 42
1.5
 43
10.0
 44
1.0
 47
0.1
 48
0.1
 73
     0
 74
     0
 77
     1
 78
     8
 79
     2
140
3.2
141
0.0
143
0.0393701
146
0.71
147
1.0
172
     1
176
   256
177
   256
178
     2
271
     2
272
     2
283
     0
284
     8
340
11
342
6C4
371
    20
372
    -1
  0
DIMSTYLE
105
2AAB
102
{ACAD_REACTORS
330
15AC2B
330
15AC6E
330
210E52
330
210E55
330
210E58
330
210E5B
330
210E5E
102
}
330
A
100
AcDbSymbolTableRecord
100
AcDbDimStyleTableRecord
  2
SYS$0
 70
     0
  4
"
 41
1.0
 42
1.5
 43
10.0
 44
1.0
 47
0.1
 48
0.1
 73
     0
 74
     0
 77
     1
 78
     8
 79
     2
140
3.2
141
0.0
143
0.0393701
146
0.71
147
1.0
172
     1
176
   256
177
   256
178
     2
271
     2
272
     2
283
     0
284
     8
340
11
341
A66
342
6C4
371
    20
372
    -1
  0
ENDTAB
  0
TABLE
  2
BLOCK_RECORD
  5
1
330
0
100
AcDbSymbolTable
 70
    17
  0
BLOCK_RECORD
  5
1F
102
{ACAD_XDICTIONARY
360
8A
102
}
330
1
100
AcDbSymbolTableRecord
100
AcDbBlockTableRecord
  2
*Model_Space
340
22
  0
BLOCK_RECORD
  5
1B
330
1
100
AcDbSymbolTableRecord
100
AcDbBlockTableRecord
  2
*Paper_Space
340
1E
  0
BLOCK_RECORD
  5
23
330
1
100
AcDbSymbolTableRecord
100
AcDbBlockTableRecord
  2
*Paper_Space0
340
26
  0
BLOCK_RECORD
  5
72
330
1
100
AcDbSymbolTableRecord
100
AcDbBlockTableRecord
  2
GENAXEH
340
0
  0
BLOCK_RECORD
  5
6C4
330
1
100
AcDbSymbolTableRecord
100
AcDbBlockTableRecord
  2
_Dot
340
0
102
{BLKREFS
331
1DB62E
331
1DB62F
331
1DB637
331
1DB638
331
210FE7
331
210FE8
331
210FF0
331
210FF1
331
210FFB
331
210FFC
331
211004
331
211005
331
21100D
331
21100E
102
}
  0
BLOCK_RECORD
  5
A66
330
1
100
AcDbSymbolTableRecord
100
AcDbBlockTableRecord
  2
_OPEN30
340
0
  0
BLOCK_RECORD
  5
3F7A0
330
1
100
AcDbSymbolTableRecord
100
AcDbBlockTableRecord
  2
53
340
0
310
2800000020000000200000000100080000000000000400000000000000000000000000000000000000000000000080000080000000808000800000008000800080800000C0C0C000C0DCC000F0CAA6000020400000206000002080000020A0000020C0000020E00000400000004020000040400000406000004080000040A0
310
000040C0000040E00000600000006020000060400000606000006080000060A0000060C0000060E00000800000008020000080400000806000008080000080A0000080C0000080E00000A0000000A0200000A0400000A0600000A0800000A0A00000A0C00000A0E00000C0000000C0200000C0400000C0600000C0800000C0
310
A00000C0C00000C0E00000E0000000E0200000E0400000E0600000E0800000E0A00000E0C00000E0E00040000000400020004000400040006000400080004000A0004000C0004000E00040200000402020004020400040206000402080004020A0004020C0004020E000404000004040200040404000404060004040800040
310
40A0004040C0004040E00040600000406020004060400040606000406080004060A0004060C0004060E00040800000408020004080400040806000408080004080A0004080C0004080E00040A0000040A0200040A0400040A0600040A0800040A0A00040A0C00040A0E00040C0000040C0200040C0400040C0600040C08000
310
40C0A00040C0C00040C0E00040E0000040E0200040E0400040E0600040E0800040E0A00040E0C00040E0E00080000000800020008000400080006000800080008000A0008000C0008000E00080200000802020008020400080206000802080008020A0008020C0008020E00080400000804020008040400080406000804080
310
008040A0008040C0008040E00080600000806020008060400080606000806080008060A0008060C0008060E00080800000808020008080400080806000808080008080A0008080C0008080E00080A0000080A0200080A0400080A0600080A0800080A0A00080A0C00080A0E00080C0000080C0200080C0400080C0600080C0
310
800080C0A00080C0C00080C0E00080E0000080E0200080E0400080E0600080E0800080E0A00080E0C00080E0E000C0000000C0002000C0004000C0006000C0008000C000A000C000C000C000E000C0200000C0202000C0204000C0206000C0208000C020A000C020C000C020E000C0400000C0402000C0404000C0406000C0
310
408000C040A000C040C000C040E000C0600000C0602000C0604000C0606000C0608000C060A000C060C000C060E000C0800000C0802000C0804000C0806000C0808000C080A000C080C000C080E000C0A00000C0A02000C0A04000C0A06000C0A08000C0A0A000C0A0C000C0A0E000C0C00000C0C02000C0C04000C0C06000
310
C0C08000C0C0A000F0FBFF00A4A0A000808080000000FF0000FF000000FFFF00FF000000FF00FF00FFFF0000FFFFFF0000000000000000000000000000000000000000000000000000000000000000000000000000000000000000000000000000000000000000000000000000000000000000000000000000000000000000
310
0000000000000000000000000000000000000000000000000000000000000000000000000000000000000000000000FA000000000000000000000000000000000000000000000000000000000000FA000000000000000000000000000000000000000000000000000000000000FA0000000000000000000000000000000000
310
000000000000000000000000FAFA0000000000000000000000000000000000000000000000000000000000FA000000000000000000000000000000000000000000000000000000000000FA000000000000000000000000000000000000000000000000000000000000FA000000000000000000000000000000000000000000
310
000000000000000000FA000000000000000000000000000000000000000000000000000000000000FA00000000000000000000000000000000000000000000FA00000000000000FA00000000000000000000000000000000000000000000FA000000000000FAFA0000000000000000000000000000000000000000000000FA
310
0000000000FA000000000000000000000000000000000000000000000000FA0000000000FA000000000000000000000000000000000000000000000000FA0000000000FA00000000000000000000000000000000000000000000000000FA00000000FA00000000000000000000000000000000000000000000000000FA0000
310
0000FA00000000000000000000000000000000000000000000000000FA000000FAFA0000000000FA0000000000000000000000000000000000000000FA0000FA0000000000FAFA0000000000000000000000000000000000000000FA0000FA00000000FAFA000000000000000000000000000000000000000000FA0000FA00
310
0000FAFA00000000000000000000000000000000000000000000FA0000FA0000FAFA000000000000000000000000000000000000000000000000FA00FA00FAFA00000000000000000000000000000000000000000000000000FAFAFAFAFA0000000000000000000000000000000000000000000000000000FAFAFAFA000000
310
00000000000000000000000000000000000000000000000000FAFA0000000000000000000000000000000000000000000000000000000000FA00000000000000000000000000000000000000000000000000000000000000000000000000000000000000000000000000000000000000000000000000000000000000000000
310
0000000000000000000000000000000000000000000000000000000000000000000000000000000000000000000000000000000000000000
102
{BLKREFS
331
937AA
331
937AB
331
937AC
331
937BE
331
93831
331
93832
331
9383A
331
93864
331
9386A
331
9386B
331
9387E
102
}
1001
ACAD
1000
DesignCenter Data
1002
{
1070
     1
1070
     4
1002
}
  0
BLOCK_RECORD
  5
15AC2C
330
1
100
AcDbSymbolTableRecord
100
AcDbBlockTableRecord
  2
*D6
340
0
  0
BLOCK_RECORD
  5
15AC6F
330
1
100
AcDbSymbolTableRecord
100
AcDbBlockTableRecord
  2
*D7
340
0
  0
BLOCK_RECORD
  5
1638D0
330
1
100
AcDbSymbolTableRecord
100
AcDbBlockTableRecord
  2
OK
340
0
310
2800000020000000200000000100080000000000000400000000000000000000000000000000000000000000000080000080000000808000800000008000800080800000C0C0C000C0DCC000F0CAA6000020400000206000002080000020A0000020C0000020E00000400000004020000040400000406000004080000040A0
310
000040C0000040E00000600000006020000060400000606000006080000060A0000060C0000060E00000800000008020000080400000806000008080000080A0000080C0000080E00000A0000000A0200000A0400000A0600000A0800000A0A00000A0C00000A0E00000C0000000C0200000C0400000C0600000C0800000C0
310
A00000C0C00000C0E00000E0000000E0200000E0400000E0600000E0800000E0A00000E0C00000E0E00040000000400020004000400040006000400080004000A0004000C0004000E00040200000402020004020400040206000402080004020A0004020C0004020E000404000004040200040404000404060004040800040
310
40A0004040C0004040E00040600000406020004060400040606000406080004060A0004060C0004060E00040800000408020004080400040806000408080004080A0004080C0004080E00040A0000040A0200040A0400040A0600040A0800040A0A00040A0C00040A0E00040C0000040C0200040C0400040C0600040C08000
310
40C0A00040C0C00040C0E00040E0000040E0200040E0400040E0600040E0800040E0A00040E0C00040E0E00080000000800020008000400080006000800080008000A0008000C0008000E00080200000802020008020400080206000802080008020A0008020C0008020E00080400000804020008040400080406000804080
310
008040A0008040C0008040E00080600000806020008060400080606000806080008060A0008060C0008060E00080800000808020008080400080806000808080008080A0008080C0008080E00080A0000080A0200080A0400080A0600080A0800080A0A00080A0C00080A0E00080C0000080C0200080C0400080C0600080C0
310
800080C0A00080C0C00080C0E00080E0000080E0200080E0400080E0600080E0800080E0A00080E0C00080E0E000C0000000C0002000C0004000C0006000C0008000C000A000C000C000C000E000C0200000C0202000C0204000C0206000C0208000C020A000C020C000C020E000C0400000C0402000C0404000C0406000C0
310
408000C040A000C040C000C040E000C0600000C0602000C0604000C0606000C0608000C060A000C060C000C060E000C0800000C0802000C0804000C0806000C0808000C080A000C080C000C080E000C0A00000C0A02000C0A04000C0A06000C0A08000C0A0A000C0A0C000C0A0E000C0C00000C0C02000C0C04000C0C06000
310
C0C08000C0C0A000F0FBFF00A4A0A000808080000000FF0000FF000000FFFF00FF000000FF00FF00FFFF0000FFFFFF0000000000000000000000000000000000000000000000000000000000000000000000000000000000000000000000000000000000000000000000000000000000000000000000000000000000000000
310
00000000000000000000000000000000000000000000000000000000000000000000000000000000000000000000000000000000000000000000000000000000000000000000000000000000000000000000000000000000000000000000000000000000000000000000000000000000000000000000000000000000000000
310
000000000000000000000000000000000000000000000000000000000000000000000000000000000000000000000000000000000000000000000000000000000000000000000000000000000000000000000000000000000000000000000000000000000000000000000000000000000000000000000000000000F0F0F0F0
310
F0F0F0F0F0F0F0F0F0F0F00000000000000000000000000000F0F0F0F000F0F00000F0F000000000F0F000F0F0F0000000000000000000F0F00000F0F0F0F000F000F0F0000000F0F00000000000F000000000000000F0000000F000F00000F000F0F0F0000000F0F0000000000000F0F000000000F000000000F0F0000000
310
00F0F0F0F00000F0F00000000000000000F000000000F000000000F0F000000000F0F0F000F000F0F0000000000000000000F00000F0F000000000F0F000000000F0F0F0F000F0F000000000000000000000F0000000F000000000F0F000000000F0F0F0F0F000F0000000000000000000F00000000000F0000000F000F000
310
00F000F0F0F000F000F000000000000000F0F0000000000000F0F00000F0F0F0F000F000F0F00000F000F00000000000F000000000000000000000F0F0F0F00000F00000F0F0000000F0F00000F0F0F00000000000000000000000000000F0F0F0F0F0F0F0F0F0F0F0F0F0F0F0000000000000000000000000000000000000
310
00000000000000000000000000000000000000000000000000000000000000000000000000000000000000000000000000000000000000000000000000000000000000000000000000000000000000000000000000000000000000000000000000000000000000000000000000000000000000000000000000000000000000
310
00000000000000000000000000000000000000000000000000000000000000000000000000000000000000000000000000000000000000000000000000000000000000000000000000000000000000000000000000000000000000000000000000000000000000000000000000000000000000000000000000000000000000
310
0000000000000000000000000000000000000000000000000000000000000000000000000000000000000000000000000000000000000000
102
{BLKREFS
331
1638D5
331
1638D6
331
1638D7
331
1638D8
331
1638D9
331
1638DA
331
1638DB
331
1638DC
331
1638DD
331
1638DE
331
1638DF
331
1638E0
331
1638E1
331
1638E2
331
1638E3
331
1638E4
331
1638E5
331
1638E6
331
1638E7
331
1638E8
331
1638E9
331
1638EA
331
1638EB
331
1638EC
331
1638ED
331
1638EE
331
1638EF
331
1638F0
331
1638F1
102
}
1001
ACAD
1000
DesignCenter Data
1002
{
1070
     1
1070
     4
1002
}
  0
BLOCK_RECORD
  5
194ADE
330
1
100
AcDbSymbolTableRecord
100
AcDbBlockTableRecord
  2
588845556
340
0
102
{BLKREFS
331
194AE1
102
}
1001
ACAD
1000
DesignCenter Data
1002
{
1070
     1
1070
     4
1002
}
  0
BLOCK_RECORD
  5
210E94
330
1
100
AcDbSymbolTableRecord
100
AcDbBlockTableRecord
  2
*D10
340
0
  0
BLOCK_RECORD
  5
210EA0
330
1
100
AcDbSymbolTableRecord
100
AcDbBlockTableRecord
  2
*D11
340
0
  0
BLOCK_RECORD
  5
210EAC
330
1
100
AcDbSymbolTableRecord
100
AcDbBlockTableRecord
  2
*D12
340
0
  0
BLOCK_RECORD
  5
210EBA
330
1
100
AcDbSymbolTableRecord
100
AcDbBlockTableRecord
  2
*D13
340
0
  0
BLOCK_RECORD
  5
210EC6
330
1
100
AcDbSymbolTableRecord
100
AcDbBlockTableRecord
  2
*D14
340
0
  0
BLOCK_RECORD
  5
211228
330
1
100
AcDbSymbolTableRecord
100
AcDbBlockTableRecord
  2
*S15
340
0
  0
BLOCK_RECORD
  5
211232
330
1
100
AcDbSymbolTableRecord
100
AcDbBlockTableRecord
  2
*S16
340
0
  0
ENDTAB
  0
ENDSEC
  0
SECTION
  2
BLOCKS
  0
BLOCK
  5
20
330
1F
100
AcDbEntity
  8
0
100
AcDbBlockBegin
  2
*Model_Space
 70
     0
 10
0.0
 20
0.0
 30
0.0
  3
*Model_Space
  1

  0
ENDBLK
  5
21
330
1F
100
AcDbEntity
  8
0
100
AcDbBlockEnd
  0
BLOCK
  5
1C
330
1B
100
AcDbEntity
 67
     1
  8
0
100
AcDbBlockBegin
  2
*Paper_Space
 70
     0
 10
0.0
 20
0.0
 30
0.0
  3
*Paper_Space
  1

  0
ENDBLK
  5
1D
330
1B
100
AcDbEntity
 67
     1
  8
0
100
AcDbBlockEnd
  0
BLOCK
  5
24
330
23
100
AcDbEntity
 67
     1
  8
0
100
AcDbBlockBegin
  2
*Paper_Space0
 70
     0
 10
0.0
 20
0.0
 30
0.0
  3
*Paper_Space0
  1

  0
ENDBLK
  5
25
330
23
100
AcDbEntity
 67
     1
  8
0
100
AcDbBlockEnd
  0
BLOCK
  5
74
330
72
100
AcDbEntity
  8
0
100
AcDbBlockBegin
  2
GENAXEH
 70
     0
 10
0.0
 20
0.0
 30
0.0
  3
GENAXEH
  1

  0
LINE
  5
73
330
72
100
AcDbEntity
  8
0
100
AcDbLine
 10
-1.0
 20
0.0
 30
0.0
 11
1.0
 21
0.0
 31
0.0
  0
ENDBLK
  5
75
330
72
100
AcDbEntity
  8
0
100
AcDbBlockEnd
  0
BLOCK
  5
6C7
330
6C4
100
AcDbEntity
  8
0
100
AcDbBlockBegin
  2
_Dot
 70
     0
 10
0.0
 20
0.0
 30
0.0
  3
_Dot
  1

  0
LWPOLYLINE
  5
6C5
330
6C4
100
AcDbEntity
  8
0
  6
ByBlock
 62
     0
100
AcDbPolyline
 90
        2
 70
     1
 43
0.5
 10
-0.25
 20
0.0
 42
1.0
 10
0.25
 20
0.0
 42
1.0
  0
LINE
  5
6C6
330
6C4
100
AcDbEntity
  8
0
  6
ByBlock
 62
     0
370
    -2
100
AcDbLine
 10
-0.5
 20
0.0
 30
0.0
 11
-1.0
 21
0.0
 31
0.0
  0
ENDBLK
  5
6C8
330
6C4
100
AcDbEntity
  8
0
100
AcDbBlockEnd
  0
BLOCK
  5
A6A
330
A66
100
AcDbEntity
  8
0
100
AcDbBlockBegin
  2
_OPEN30
 70
     0
 10
0.0
 20
0.0
 30
0.0
  3
_OPEN30
  1

  0
LINE
  5
A67
330
A66
100
AcDbEntity
  8
0
  6
ByBlock
 62
     0
100
AcDbLine
 10
-1.0
 20
0.26794919
 30
0.0
 11
0.0
 21
0.0
 31
0.0
  0
LINE
  5
A68
330
A66
100
AcDbEntity
  8
0
  6
ByBlock
 62
     0
100
AcDbLine
 10
0.0
 20
0.0
 30
0.0
 11
-1.0
 21
-0.26794919
 31
0.0
  0
LINE
  5
A69
330
A66
100
AcDbEntity
  8
0
  6
ByBlock
 62
     0
100
AcDbLine
 10
0.0
 20
0.0
 30
0.0
 11
-1.0
 21
0.0
 31
0.0
  0
ENDBLK
  5
A6B
330
A66
100
AcDbEntity
  8
0
100
AcDbBlockEnd
  0
BLOCK
  5
3F7A1
330
3F7A0
100
AcDbEntity
  8
0
 48
0.25
100
AcDbBlockBegin
  2
53
 70
     0
 10
0.0
 20
0.0
 30
0.0
  3
53
  1

  0
ENDBLK
  5
3F7A6
330
3F7A0
100
AcDbEntity
  8
0
 48
0.25
100
AcDbBlockEnd
  0
BLOCK
  5
15AC36
330
15AC2C
100
AcDbEntity
  8
0
 48
0.5
100
AcDbBlockBegin
  2
*D6
 70
     1
 10
0.0
 20
0.0
 30
0.0
  3
*D6
  1

  0
LINE
  5
1DB62B
330
15AC2C
100
AcDbEntity
  8
000
100
AcDbLine
 10
3655.249393280167
 20
-591.1812454098053
 30
0.0
 11
3682.367977403389
 21
-591.1812454098053
 31
0.0
  0
LINE
  5
1DB62C
330
15AC2C
100
AcDbEntity
  8
000
100
AcDbLine
 10
3665.4491813791
 20
-575.5811055008025
 30
0.0
 11
3682.367977403389
 21
-575.5811055008025
 31
0.0
  0
LINE
  5
1DB62D
330
15AC2C
100
AcDbEntity
  8
000
370
    20
100
AcDbLine
 10
3681.367977403388
 20
-590.1812454098053
 30
0.0
 11
3681.367977403388
 21
-576.5811055008025
 31
0.0
  0
INSERT
  5
1DB62E
330
15AC2C
100
AcDbEntity
  8
000
370
    20
100
AcDbBlockReference
  2
_Dot
 10
3681.367977403388
 20
-591.1812454098053
 30
0.0
 41
1.0
 42
1.0
 43
1.0
 50
270.0
  0
INSERT
  5
1DB62F
330
15AC2C
100
AcDbEntity
  8
000
370
    20
100
AcDbBlockReference
  2
_Dot
 10
3681.367977403388
 20
-575.5811055008025
 30
0.0
 41
1.0
 42
1.0
 43
1.0
 50
90.0
  0
MTEXT
  5
1DB630
330
15AC2C
100
AcDbEntity
  8
000
 62
     2
100
AcDbMText
 10
3678.767977403389
 20
-583.3811754553034
 30
0.0
 40
3.2
 41
0.0
 71
     5
 72
     1
  1
15.6
 11
0.0000000000000001
 21
1.0
 31
0.0
 73
     1
 44
1.0
1001
ACAD
1000
MTEXTBEGIN
1070
    73
1070
     1
1070
    44
1040
1.0
1070
    74
1070
     0
1000
MTEXTEND
  0
POINT
  5
1DB631
330
15AC2C
100
AcDbEntity
  8
Defpoints
 62
     0
100
AcDbPoint
 10
3653.749393280167
 20
-591.1812454098053
 30
0.0
  0
POINT
  5
1DB632
330
15AC2C
100
AcDbEntity
  8
Defpoints
 62
     0
100
AcDbPoint
 10
3663.9491813791
 20
-575.5811055008025
 30
0.0
  0
POINT
  5
1DB633
330
15AC2C
100
AcDbEntity
  8
Defpoints
 62
     0
100
AcDbPoint
 10
3681.367977403388
 20
-575.5811055008025
 30
0.0
  0
ENDBLK
  5
15AC37
330
15AC2C
100
AcDbEntity
  8
0
 48
0.5
100
AcDbBlockEnd
  0
BLOCK
  5
15AC79
330
15AC6F
100
AcDbEntity
  8
0
 48
0.5
100
AcDbBlockBegin
  2
*D7
 70
     1
 10
0.0
 20
0.0
 30
0.0
  3
*D7
  1

  0
LINE
  5
1DB634
330
15AC6F
100
AcDbEntity
  8
000
100
AcDbLine
 10
3698.976508065682
 20
-569.0809697024869
 30
0.0
 11
3713.476508065682
 21
-569.0809697024869
 31
0.0
  0
LINE
  5
1DB635
330
15AC6F
100
AcDbEntity
  8
000
100
AcDbLine
 10
3698.976508065684
 20
-582.0809697024888
 30
0.0
 11
3713.476508065682
 21
-582.0809697024888
 31
0.0
  0
LINE
  5
1DB636
330
15AC6F
100
AcDbEntity
  8
000
370
    20
100
AcDbLine
 10
3712.476508065682
 20
-570.080969702487
 30
0.0
 11
3712.476508065682
 21
-581.0809697024888
 31
0.0
  0
INSERT
  5
1DB637
330
15AC6F
100
AcDbEntity
  8
000
370
    20
100
AcDbBlockReference
  2
_Dot
 10
3712.476508065682
 20
-569.0809697024869
 30
0.0
 41
1.0
 42
1.0
 43
1.0
 50
90.0
  0
INSERT
  5
1DB638
330
15AC6F
100
AcDbEntity
  8
000
370
    20
100
AcDbBlockReference
  2
_Dot
 10
3712.476508065682
 20
-582.0809697024888
 30
0.0
 41
1.0
 42
1.0
 43
1.0
 50
270.0
  0
MTEXT
  5
1DB639
330
15AC6F
100
AcDbEntity
  8
000
 62
     2
100
AcDbMText
 10
3709.843174732349
 20
-575.5809697024873
 30
0.0
 40
2.799999999999999
 41
0.0
 71
     5
 72
     1
  1
13{\H1.400000;\S+0.2^ -0;}
 11
0.0000000000000001
 21
1.0
 31
0.0
 73
     1
 44
1.0
1001
ACAD
1000
MTEXTBEGIN
1070
    73
1070
     1
1070
    44
1040
1.0
1070
    74
1070
     0
1000
MTEXTEND
  0
POINT
  5
1DB63A
330
15AC6F
100
AcDbEntity
  8
Defpoints
 62
     0
100
AcDbPoint
 10
3697.476508065682
 20
-569.0809697024869
 30
0.0
  0
POINT
  5
1DB63B
330
15AC6F
100
AcDbEntity
  8
Defpoints
 62
     0
100
AcDbPoint
 10
3697.476508065684
 20
-582.0809697024888
 30
0.0
  0
POINT
  5
1DB63C
330
15AC6F
100
AcDbEntity
  8
Defpoints
 62
     0
100
AcDbPoint
 10
3712.476508065682
 20
-582.0809697024888
 30
0.0
  0
ENDBLK
  5
15AC7A
330
15AC6F
100
AcDbEntity
  8
0
 48
0.5
100
AcDbBlockEnd
  0
BLOCK
  5
1638D1
330
1638D0
100
AcDbEntity
  8
0
 48
0.5
100
AcDbBlockBegin
  2
OK
 70
     0
 10
0.0
 20
0.0
 30
0.0
  3
OK
  1

  0
MTEXT
  5
1638D3
330
1638D0
100
AcDbEntity
  8
000
 48
0.5
100
AcDbMText
 10
3500.167026047377
 20
-515.4933641922398
 30
0.0
 40
5.0
 41
10.4719611646833
 71
     1
 72
     5
  1
{\fMS PGothic|b0|i0|c128|p50;ＯＫ}
 73
     1
 44
1.0
1001
ACAD
1000
MTEXTBEGIN
1070
    73
1070
     1
1070
    44
1040
1.0
1070
    74
1070
     0
1000
MTEXTEND
  0
ELLIPSE
  5
1638D4
330
1638D0
100
AcDbEntity
  8
000
 48
0.5
370
   100
100
AcDbEllipse
 10
3504.348413202813
 20
-517.9909399699827
 30
0.0
 11
-6.752516667358577
 21
0.0
 31
0.0
210
0.0
220
0.0
230
1.0
 40
0.4188802211541622
 41
0.0
 42
6.283185307179586
  0
ENDBLK
  5
1638D2
330
1638D0
100
AcDbEntity
  8
0
 48
0.5
100
AcDbBlockEnd
  0
BLOCK
  5
194ADF
330
194ADE
100
AcDbEntity
  8
0
 48
0.5
100
AcDbBlockBegin
  2
588845556
 70
     0
 10
0.0
 20
0.0
 30
0.0
  3
588845556
  1

  0
ENDBLK
  5
194AE0
330
194ADE
100
AcDbEntity
  8
0
 48
0.5
100
AcDbBlockEnd
  0
BLOCK
  5
210E9E
330
210E94
100
AcDbEntity
  8
0
 48
0.5
100
AcDbBlockBegin
  2
*D10
 70
     1
 10
0.0
 20
0.0
 30
0.0
  3
*D10
  1

  0
LINE
  5
210FE4
330
210E94
100
AcDbEntity
  8
AM_5
100
AcDbLine
 10
6653.924377043572
 20
-760.6795798314869
 30
0.0
 11
6653.924377043572
 21
-768.4295798314868
 31
0.0
  0
LINE
  5
210FE5
330
210E94
100
AcDbEntity
  8
AM_5
100
AcDbLine
 10
6671.924377043572
 20
-760.6795798314869
 30
0.0
 11
6671.924377043572
 21
-768.4295798314868
 31
0.0
  0
LINE
  5
210FE6
330
210E94
100
AcDbEntity
  8
AM_5
370
    20
100
AcDbLine
 10
6654.424377043572
 20
-767.9295798314869
 30
0.0
 11
6671.424377043573
 21
-767.9295798314869
 31
0.0
  0
INSERT
  5
210FE7
330
210E94
100
AcDbEntity
  8
AM_5
370
    20
100
AcDbBlockReference
  2
_Dot
 10
6653.924377043572
 20
-767.9295798314869
 30
0.0
 41
0.5000000000000001
 42
0.5000000000000001
 43
0.5000000000000001
 50
180.0
  0
INSERT
  5
210FE8
330
210E94
100
AcDbEntity
  8
AM_5
370
    20
100
AcDbBlockReference
  2
_Dot
 10
6671.924377043572
 20
-767.9295798314869
 30
0.0
 41
0.5000000000000001
 42
0.5000000000000001
 43
0.5000000000000001
  0
MTEXT
  5
210FE9
330
210E94
100
AcDbEntity
  8
AM_5
 62
     2
100
AcDbMText
 10
6662.924377043572
 20
-766.6295798314869
 30
0.0
 40
1.6
 41
0.0
 71
     5
 72
     1
  1
%%cD
 73
     1
 44
1.0
1001
ACAD
1000
MTEXTBEGIN
1070
    73
1070
     1
1070
    44
1040
1.0
1070
    74
1070
     0
1000
MTEXTEND
  0
POINT
  5
210FEA
330
210E94
100
AcDbEntity
  8
Defpoints
 62
     0
100
AcDbPoint
 10
6653.924377043572
 20
-759.9295798314869
 30
0.0
  0
POINT
  5
210FEB
330
210E94
100
AcDbEntity
  8
Defpoints
 62
     0
100
AcDbPoint
 10
6671.924377043572
 20
-759.9295798314869
 30
0.0
  0
POINT
  5
210FEC
330
210E94
100
AcDbEntity
  8
Defpoints
 62
     0
100
AcDbPoint
 10
6671.924377043572
 20
-767.9295798314869
 30
0.0
  0
ENDBLK
  5
210E9F
330
210E94
100
AcDbEntity
  8
0
 48
0.5
100
AcDbBlockEnd
  0
BLOCK
  5
210EAA
330
210EA0
100
AcDbEntity
  8
0
 48
0.5
100
AcDbBlockBegin
  2
*D11
 70
     1
 10
0.0
 20
0.0
 30
0.0
  3
*D11
  1

  0
LINE
  5
210FED
330
210EA0
100
AcDbEntity
  8
AM_5
100
AcDbLine
 10
6656.824377043573
 20
-754.6795798314868
 30
0.0
 11
6656.824377043573
 21
-750.9295798314869
 31
0.0
  0
LINE
  5
210FEE
330
210EA0
100
AcDbEntity
  8
AM_5
100
AcDbLine
 10
6669.024377043573
 20
-754.6795798314868
 30
0.0
 11
6669.024377043573
 21
-750.9295798314869
 31
0.0
  0
LINE
  5
210FEF
330
210EA0
100
AcDbEntity
  8
AM_5
370
    20
100
AcDbLine
 10
6657.324377043572
 20
-751.4295798314869
 30
0.0
 11
6668.524377043573
 21
-751.4295798314869
 31
0.0
  0
INSERT
  5
210FF0
330
210EA0
100
AcDbEntity
  8
AM_5
370
    20
100
AcDbBlockReference
  2
_Dot
 10
6656.824377043573
 20
-751.4295798314869
 30
0.0
 41
0.5000000000000001
 42
0.5000000000000001
 43
0.5000000000000001
 50
180.0
  0
INSERT
  5
210FF1
330
210EA0
100
AcDbEntity
  8
AM_5
370
    20
100
AcDbBlockReference
  2
_Dot
 10
6669.024377043573
 20
-751.4295798314869
 30
0.0
 41
0.5000000000000001
 42
0.5000000000000001
 43
0.5000000000000001
  0
MTEXT
  5
210FF2
330
210EA0
100
AcDbEntity
  8
AM_5
 62
     2
100
AcDbMText
 10
6662.924377043573
 20
-750.1295798314869
 30
0.0
 40
1.6
 41
0.0
 71
     5
 72
     1
  1
%%cA
 73
     1
 44
1.0
1001
ACAD
1000
MTEXTBEGIN
1070
    73
1070
     1
1070
    44
1040
1.0
1070
    74
1070
     0
1000
MTEXTEND
  0
POINT
  5
210FF3
330
210EA0
100
AcDbEntity
  8
Defpoints
 62
     0
100
AcDbPoint
 10
6656.824377043573
 20
-755.4295798314869
 30
0.0
  0
POINT
  5
210FF4
330
210EA0
100
AcDbEntity
  8
Defpoints
 62
     0
100
AcDbPoint
 10
6669.024377043573
 20
-755.4295798314869
 30
0.0
  0
POINT
  5
210FF5
330
210EA0
100
AcDbEntity
  8
Defpoints
 62
     0
100
AcDbPoint
 10
6669.024377043573
 20
-751.4295798314869
 30
0.0
  0
ENDBLK
  5
210EAB
330
210EA0
100
AcDbEntity
  8
0
 48
0.5
100
AcDbBlockEnd
  0
BLOCK
  5
210EB8
330
210EAC
100
AcDbEntity
  8
0
 48
0.5
100
AcDbBlockBegin
  2
*D12
 70
     1
 10
0.0
 20
0.0
 30
0.0
  3
*D12
  1

  0
LINE
  5
210FF6
330
210EAC
100
AcDbEntity
  8
AM_5
100
AcDbLine
 10
6656.074377043573
 20
-758.4295798314869
 30
0.0
 11
6649.424377043573
 21
-758.4295798314869
 31
0.0
  0
LINE
  5
210FF7
330
210EAC
100
AcDbEntity
  8
AM_5
100
AcDbLine
 10
6653.174377043573
 20
-759.9295798314869
 30
0.0
 11
6649.424377043573
 21
-759.9295798314869
 31
0.0
  0
LINE
  5
210FF8
330
210EAC
100
AcDbEntity
  8
AM_5
370
    20
100
AcDbLine
 10
6649.924377043572
 20
-757.9295798314868
 30
0.0
 11
6649.924377043572
 21
-757.4295798314868
 31
0.0
  0
LINE
  5
210FF9
330
210EAC
100
AcDbEntity
  8
AM_5
370
    20
100
AcDbLine
 10
6649.924377043572
 20
-760.4295798314868
 30
0.0
 11
6649.924377043572
 21
-762.6229131648202
 31
0.0
  0
LINE
  5
210FFA
330
210EAC
100
AcDbEntity
  8
AM_5
370
    20
100
AcDbLine
 10
6649.924377043572
 20
-758.4295798314869
 30
0.0
 11
6649.924377043572
 21
-759.9295798314869
 31
0.0
  0
INSERT
  5
210FFB
330
210EAC
100
AcDbEntity
  8
AM_5
370
    20
100
AcDbBlockReference
  2
_Dot
 10
6649.924377043572
 20
-758.4295798314869
 30
0.0
 41
0.5000000000000001
 42
0.5000000000000001
 43
0.5000000000000001
 50
270.0
  0
INSERT
  5
210FFC
330
210EAC
100
AcDbEntity
  8
AM_5
370
    20
100
AcDbBlockReference
  2
_Dot
 10
6649.924377043572
 20
-759.9295798314869
 30
0.0
 41
0.5000000000000001
 42
0.5000000000000001
 43
0.5000000000000001
 50
90.0
  0
MTEXT
  5
210FFD
330
210EAC
100
AcDbEntity
  8
AM_5
 62
     2
100
AcDbMText
 10
6648.624377043572
 20
-761.7762464981525
 30
0.0
 40
1.6
 41
0.0
 71
     5
 72
     1
  1
E
 11
0.0000000000000001
 21
1.0
 31
0.0
 73
     1
 44
1.0
1001
ACAD
1000
MTEXTBEGIN
1070
    73
1070
     1
1070
    44
1040
1.0
1070
    74
1070
     0
1000
MTEXTEND
  0
POINT
  5
210FFE
330
210EAC
100
AcDbEntity
  8
Defpoints
 62
     0
100
AcDbPoint
 10
6656.824377043573
 20
-758.4295798314869
 30
0.0
  0
POINT
  5
210FFF
330
210EAC
100
AcDbEntity
  8
Defpoints
 62
     0
100
AcDbPoint
 10
6653.924377043572
 20
-759.9295798314869
 30
0.0
  0
POINT
  5
211000
330
210EAC
100
AcDbEntity
  8
Defpoints
 62
     0
100
AcDbPoint
 10
6649.924377043572
 20
-759.9295798314869
 30
0.0
  0
ENDBLK
  5
210EB9
330
210EAC
100
AcDbEntity
  8
0
 48
0.5
100
AcDbBlockEnd
  0
BLOCK
  5
210EC4
330
210EBA
100
AcDbEntity
  8
0
 48
0.5
100
AcDbBlockBegin
  2
*D13
 70
     1
 10
0.0
 20
0.0
 30
0.0
  3
*D13
  1

  0
LINE
  5
211001
330
210EBA
100
AcDbEntity
  8
AM_5
100
AcDbLine
 10
6654.674377043573
 20
-755.4295798314869
 30
0.0
 11
6645.424377043572
 21
-755.4295798314869
 31
0.0
  0
LINE
  5
211002
330
210EBA
100
AcDbEntity
  8
AM_5
100
AcDbLine
 10
6653.174377043573
 20
-759.9295798314869
 30
0.0
 11
6645.424377043572
 21
-759.9295798314869
 31
0.0
  0
LINE
  5
211003
330
210EBA
100
AcDbEntity
  8
AM_5
370
    20
100
AcDbLine
 10
6645.924377043572
 20
-755.9295798314868
 30
0.0
 11
6645.924377043572
 21
-759.4295798314869
 31
0.0
  0
INSERT
  5
211004
330
210EBA
100
AcDbEntity
  8
AM_5
370
    20
100
AcDbBlockReference
  2
_Dot
 10
6645.924377043572
 20
-755.4295798314869
 30
0.0
 41
0.5000000000000001
 42
0.5000000000000001
 43
0.5000000000000001
 50
90.0
  0
INSERT
  5
211005
330
210EBA
100
AcDbEntity
  8
AM_5
370
    20
100
AcDbBlockReference
  2
_Dot
 10
6645.924377043572
 20
-759.9295798314869
 30
0.0
 41
0.5000000000000001
 42
0.5000000000000001
 43
0.5000000000000001
 50
270.0
  0
MTEXT
  5
211006
330
210EBA
100
AcDbEntity
  8
AM_5
 62
     2
100
AcDbMText
 10
6644.624377043573
 20
-757.6795798314858
 30
0.0
 40
1.6
 41
0.0
 71
     5
 72
     1
  1
B
 11
0.0000000000000001
 21
1.0
 31
0.0
 73
     1
 44
1.0
1001
ACAD
1000
MTEXTBEGIN
1070
    73
1070
     1
1070
    44
1040
1.0
1070
    74
1070
     0
1000
MTEXTEND
  0
POINT
  5
211007
330
210EBA
100
AcDbEntity
  8
Defpoints
 62
     0
100
AcDbPoint
 10
6655.424377043572
 20
-755.4295798314869
 30
0.0
  0
POINT
  5
211008
330
210EBA
100
AcDbEntity
  8
Defpoints
 62
     0
100
AcDbPoint
 10
6653.924377043572
 20
-759.9295798314869
 30
0.0
  0
POINT
  5
211009
330
210EBA
100
AcDbEntity
  8
Defpoints
 62
     0
100
AcDbPoint
 10
6645.924377043572
 20
-759.9295798314869
 30
0.0
  0
ENDBLK
  5
210EC5
330
210EBA
100
AcDbEntity
  8
0
 48
0.5
100
AcDbBlockEnd
  0
BLOCK
  5
210ED0
330
210EC6
100
AcDbEntity
  8
0
 48
0.5
100
AcDbBlockBegin
  2
*D14
 70
     1
 10
0.0
 20
0.0
 30
0.0
  3
*D14
  1

  0
LINE
  5
21100A
330
210EC6
100
AcDbEntity
  8
AM_5
100
AcDbLine
 10
6658.824377043572
 20
-760.6795798314869
 30
0.0
 11
6658.824377043572
 21
-764.4295798314868
 31
0.0
  0
LINE
  5
21100B
330
210EC6
100
AcDbEntity
  8
AM_5
100
AcDbLine
 10
6667.024377043573
 20
-760.6795798314869
 30
0.0
 11
6667.024377043573
 21
-764.4295798314868
 31
0.0
  0
LINE
  5
21100C
330
210EC6
100
AcDbEntity
  8
AM_5
370
    20
100
AcDbLine
 10
6659.324377043573
 20
-763.9295798314869
 30
0.0
 11
6666.524377043572
 21
-763.9295798314869
 31
0.0
  0
INSERT
  5
21100D
330
210EC6
100
AcDbEntity
  8
AM_5
370
    20
100
AcDbBlockReference
  2
_Dot
 10
6658.824377043572
 20
-763.9295798314869
 30
0.0
 41
0.5000000000000001
 42
0.5000000000000001
 43
0.5000000000000001
 50
180.0
  0
INSERT
  5
21100E
330
210EC6
100
AcDbEntity
  8
AM_5
370
    20
100
AcDbBlockReference
  2
_Dot
 10
6667.024377043573
 20
-763.9295798314869
 30
0.0
 41
0.5000000000000001
 42
0.5000000000000001
 43
0.5000000000000001
  0
MTEXT
  5
21100F
330
210EC6
100
AcDbEntity
  8
AM_5
 62
     2
100
AcDbMText
 10
6662.924377043573
 20
-762.6295798314869
 30
0.0
 40
1.6
 41
0.0
 71
     5
 72
     1
  1
%%cC
 73
     1
 44
1.0
1001
ACAD
1000
MTEXTBEGIN
1070
    73
1070
     1
1070
    44
1040
1.0
1070
    74
1070
     0
1000
MTEXTEND
  0
POINT
  5
211010
330
210EC6
100
AcDbEntity
  8
Defpoints
 62
     0
100
AcDbPoint
 10
6658.824377043572
 20
-759.9295798314869
 30
0.0
  0
POINT
  5
211011
330
210EC6
100
AcDbEntity
  8
Defpoints
 62
     0
100
AcDbPoint
 10
6667.024377043573
 20
-759.9295798314869
 30
0.0
  0
POINT
  5
211012
330
210EC6
100
AcDbEntity
  8
Defpoints
 62
     0
100
AcDbPoint
 10
6667.024377043573
 20
-763.9295798314869
 30
0.0
  0
ENDBLK
  5
210ED1
330
210EC6
100
AcDbEntity
  8
0
 48
0.5
100
AcDbBlockEnd
  0
BLOCK
  5
21122F
330
211228
100
AcDbEntity
  8
0
 48
0.5
100
AcDbBlockBegin
  2
*S15
 70
     1
 10
0.0
 20
0.0
 30
0.0
  3
*S15
  1

  0
LINE
  5
211229
330
211228
100
AcDbEntity
  8
000
 62
     3
 48
0.5
100
AcDbLine
 10
3598.310459773184
 20
971.3357636975198
 30
0.0
 11
3557.329126439851
 21
971.3357636975198
 31
0.0
  0
LINE
  5
21122A
330
211228
100
AcDbEntity
  8
000
 62
     3
 48
0.5
100
AcDbLine
 10
3557.329126439851
 20
971.3357636975198
 30
0.0
 11
3526.805222640337
 21
930.3513029326106
 31
0.0
  0
LINE
  5
21122B
330
211228
100
AcDbEntity
  8
000
  6
Continuous
 62
     3
 48
0.5
100
AcDbLine
 10
3526.805222640337
 20
930.3513029326106
 30
0.0
 11
3525.610600706794
 21
928.7472834701668
 31
0.0
  0
LINE
  5
21122C
330
211228
100
AcDbEntity
  8
000
  6
Continuous
 62
     3
 48
0.5
100
AcDbLine
 10
3526.375426924631
 20
930.6714009120597
 30
0.0
 11
3525.610600706794
 21
928.7472834701668
 31
0.0
  0
LINE
  5
21122D
330
211228
100
AcDbEntity
  8
000
  6
Continuous
 62
     3
 48
0.5
100
AcDbLine
 10
3525.610600706794
 20
928.7472834701668
 30
0.0
 11
3527.235018356043
 21
930.0312049531617
 31
0.0
  0
MTEXT
  5
21122E
330
211228
100
AcDbEntity
  8
000
 62
     2
100
AcDbMText
 10
3560.52912643985
 20
972.9357636975196
 30
0.0
 40
3.2
 41
0.0
 71
     7
 72
     5
  1
ロックプレートの肉厚確保の為、\P0.5mm上へ上げました。
 73
     1
 44
1.0
1001
ACAD
1000
MTEXTBEGIN
1070
    73
1070
     1
1070
    44
1040
1.0
1070
    74
1070
     0
1000
MTEXTEND
  0
ENDBLK
  5
211230
330
211228
100
AcDbEntity
  8
0
 48
0.5
100
AcDbBlockEnd
  0
BLOCK
  5
211239
330
211232
100
AcDbEntity
  8
0
 48
0.5
100
AcDbBlockBegin
  2
*S16
 70
     1
 10
0.0
 20
0.0
 30
0.0
  3
*S16
  1

  0
LINE
  5
211233
330
211232
100
AcDbEntity
  8
000
 62
     3
 48
0.5
100
AcDbLine
 10
3747.289184332795
 20
-4020.193239487444
 30
0.0
 11
3775.897184332795
 21
-4020.193239487444
 31
0.0
  0
LINE
  5
211234
330
211232
100
AcDbEntity
  8
000
 62
     3
 48
0.5
100
AcDbLine
 10
3775.897184332795
 20
-4020.193239487444
 30
0.0
 11
3790.417041820925
 21
-4032.798030719641
 31
0.0
  0
LINE
  5
211235
330
211232
100
AcDbEntity
  8
000
  6
Continuous
 62
     3
 48
0.5
100
AcDbLine
 10
3790.417041820925
 20
-4032.798030719641
 30
0.0
 11
3791.927342782495
 21
-4034.109133692514
 31
0.0
  0
LINE
  5
211236
330
211232
100
AcDbEntity
  8
000
  6
Continuous
 62
     3
 48
0.5
100
AcDbLine
 10
3790.065732841337
 20
-4033.202714638949
 30
0.0
 11
3791.927342782495
 21
-4034.109133692514
 31
0.0
  0
LINE
  5
211237
330
211232
100
AcDbEntity
  8
000
  6
Continuous
 62
     3
 48
0.5
100
AcDbLine
 10
3791.927342782495
 20
-4034.109133692514
 30
0.0
 11
3790.768350800513
 21
-4032.393346800332
 31
0.0
  0
MTEXT
  5
211238
330
211232
100
AcDbEntity
  8
000
 62
     2
100
AcDbMText
 10
3772.697184332795
 20
-4018.593239487444
 30
0.0
 40
3.2
 41
0.0
 71
     9
 72
     5
  1
板厚変更\P2.0mm→1.6mm
 73
     1
 44
1.0
1001
ACAD
1000
MTEXTBEGIN
1070
    73
1070
     1
1070
    44
1040
1.0
1070
    74
1070
     0
1000
MTEXTEND
  0
ENDBLK
  5
21123A
330
211232
100
AcDbEntity
  8
0
 48
0.5
100
AcDbBlockEnd
  0
ENDSEC
  0
SECTION
  2
ENTITIES
  0
ARC
  5
727CA
330
1F
100
AcDbEntity
  8
0バネガイド
  6
想像線2
 48
0.2
 60
     1
100
AcDbCircle
 10
1398.351719061573
 20
1759.855375416845
 30
0.0
 40
3.0
100
AcDbArc
 50
314.9999999999662
 51
339.9999999999837
  0
ARC
  5
72818
330
1F
100
AcDbEntity
  8
0バネガイド
  6
想像線2
 48
0.2
 60
     1
100
AcDbCircle
 10
1430.697897389958
 20
1631.264761172925
 30
0.0
 40
3.0
100
AcDbArc
 50
341.3696600380173
 51
6.369660038036577
  0
INSERT
  5
937AA
330
1F
100
AcDbEntity
  8
0デッド1
100
AcDbBlockReference
  2
53
 10
1397.469489485744
 20
-1264.261196164881
 30
0.0
 41
-1.0
 50
277.3687617977768
  0
INSERT
  5
937AB
330
1F
100
AcDbEntity
  8
0デッド1
100
AcDbBlockReference
  2
53
 10
6495.392493162171
 20
-669.6740189275811
 30
0.0
 41
-1.0
 50
353.3580433823864
  0
INSERT
  5
937AC
330
1F
100
AcDbEntity
  8
0デッド1
100
AcDbBlockReference
  2
53
 10
7669.935383341453
 20
1676.351483790338
 30
0.0
 41
-1.0
 50
30.07096172237593
  0
INSERT
  5
937BE
330
1F
100
AcDbEntity
  8
0デッド1
100
AcDbBlockReference
  2
53
 10
1095.899171970424
 20
-1029.026288433047
 30
0.0
 50
14.16290902940855
  0
INSERT
  5
93831
330
1F
100
AcDbEntity
  8
0デッド1
100
AcDbBlockReference
  2
53
 10
80.73384814727615
 20
182.960636712427
 30
0.0
 50
351.4199174981363
  0
INSERT
  5
93832
330
1F
100
AcDbEntity
  8
0デッド1
100
AcDbBlockReference
  2
53
 10
7271.488142258771
 20
182.960636712427
 30
0.0
 41
-1.0
 50
8.580082501863675
  0
INSERT
  5
9383A
330
1F
100
AcDbEntity
  8
0デッド1
100
AcDbBlockReference
  2
53
 10
-143.341103387931
 20
537.8175990966935
 30
0.0
 50
346.3983535334115
  0
INSERT
  5
93864
330
1F
100
AcDbEntity
  8
0デッド1
100
AcDbBlockReference
  2
53
 10
7265.992144601479
 20
4468.695153724635
 30
0.0
 50
175.3775645474331
  0
INSERT
  5
9386A
330
1F
100
AcDbEntity
  8
0デッド1
100
AcDbBlockReference
  2
53
 10
7120.058471074701
 20
4669.109993521453
 30
0.0
 41
-1.0
 50
75.85336330037711
  0
INSERT
  5
9386B
330
1F
100
AcDbEntity
  8
0デッド1
100
AcDbBlockReference
  2
53
 10
7120.069403871152
 20
-360.872189492949
 30
0.0
 50
104.1466366996228
  0
INSERT
  5
9387E
330
1F
100
AcDbEntity
  8
0デッド1
100
AcDbBlockReference
  2
53
 10
7320.870362655582
 20
4440.369454154764
 30
0.0
 50
175.3775645474331
  0
AMDTACMWBLOCKBOMENTITY
  5
EFE88
330
1F
100
AcDbEntity
  8
AM_5
 48
0.5
 92
        8
310
0800000000000000
  0
AMDTACMWBLOCKBOMENTITY
  5
EFE89
330
1F
100
AcDbEntity
  8
AM_5
 48
0.5
 92
        8
310
0800000000000000
  0
AMDTACMWBLOCKBOMENTITY
  5
EFE8A
330
1F
100
AcDbEntity
  8
AM_5
 48
0.5
 92
        8
310
0800000000000000
  0
AMDTACMWBLOCKBOMENTITY
  5
EFE8B
330
1F
100
AcDbEntity
  8
AM_5
 48
0.5
 92
        8
310
0800000000000000
  0
AMDTACMWBLOCKBOMENTITY
  5
EFE8C
330
1F
100
AcDbEntity
  8
AM_5
 48
0.5
 92
        8
310
0800000000000000
  0
AMDTACMWBLOCKBOMENTITY
  5
EFE8D
330
1F
100
AcDbEntity
  8
AM_5
 48
0.5
 92
        8
310
0800000000000000
  0
AMDTACMWBLOCKBOMENTITY
  5
12ED8F
330
1F
100
AcDbEntity
  8
AM_5
 48
0.5
 92
        8
310
0800000000000000
  0
AMDTACMWBLOCKBOMENTITY
  5
12ED90
330
1F
100
AcDbEntity
  8
AM_5
 48
0.5
 92
        8
310
0800000000000000
  0
AMDTACMWBLOCKBOMENTITY
  5
12ED91
330
1F
100
AcDbEntity
  8
AM_5
 48
0.5
 92
        8
310
0800000000000000
  0
AMDTACMWBLOCKBOMENTITY
  5
12EF56
330
1F
100
AcDbEntity
  8
AM_5
 48
0.5
 92
        8
310
0800000000000000
  0
AMDTACMWBLOCKBOMENTITY
  5
12EF57
330
1F
100
AcDbEntity
  8
AM_5
 48
0.5
 92
        8
310
0800000000000000
  0
AMDTACMWBLOCKBOMENTITY
  5
12EF58
330
1F
100
AcDbEntity
  8
AM_5
 48
0.5
 92
        8
310
0800000000000000
  0
AMDTACMWBLOCKBOMENTITY
  5
12EF59
330
1F
100
AcDbEntity
  8
AM_5
  6
Continuous
 48
0.5
 92
        8
310
0800000000000000
  0
AMDTACMWBLOCKBOMENTITY
  5
138B7D
330
1F
100
AcDbEntity
  8
AM_5
 48
0.5
 92
        8
310
0800000000000000
  0
AMDTACMWBLOCKBOMENTITY
  5
138B7E
330
1F
100
AcDbEntity
  8
AM_5
 48
0.5
 92
        8
310
0800000000000000
  0
AMDTACMWBLOCKBOMENTITY
  5
138B7F
330
1F
100
AcDbEntity
  8
AM_5
 48
0.5
 92
        8
310
0800000000000000
  0
AMDTACMWBLOCKBOMENTITY
  5
138B80
330
1F
100
AcDbEntity
  8
AM_5
 48
0.5
 92
        8
310
0800000000000000
  0
AMDTACMWBLOCKBOMENTITY
  5
138B81
330
1F
100
AcDbEntity
  8
AM_5
 48
0.3
 92
        8
310
0800000000000000
370
    13
  0
AMDTACMWBLOCKBOMENTITY
  5
145731
330
1F
100
AcDbEntity
  8
AM_5
 48
0.3
 92
        8
310
0800000000000000
  0
AMDTACMWBLOCKBOMENTITY
  5
145732
330
1F
100
AcDbEntity
  8
AM_5
 48
0.3
 92
        8
310
0800000000000000
  0
AMDTACMWBLOCKBOMENTITY
  5
145733
330
1F
100
AcDbEntity
  8
AM_5
 48
0.3
 92
        8
310
0800000000000000
  0
AMDTACMWBLOCKBOMENTITY
  5
145734
330
1F
100
AcDbEntity
  8
AM_5
 48
0.3
 92
        8
310
0800000000000000
  0
AMDTACMWBLOCKBOMENTITY
  5
145735
330
1F
100
AcDbEntity
  8
AM_5
 48
0.3
 92
        8
310
0800000000000000
  0
ARC
  5
15106A
330
1F
100
AcDbEntity
  8
0台座Ｂ
 48
0.5
 60
     1
370
    13
100
AcDbCircle
 10
3536.501061473997
 20
-1517.229555777833
 30
0.0
 40
1.199999999999999
100
AcDbArc
 50
139.1791089583044
 51
180.0000000316027
  0
LWPOLYLINE
  5
153F88
330
1F
100
AcDbEntity
  8
001
 48
0.5
100
AcDbPolyline
 90
        4
 70
     1
 43
0.0
 10
3640.264565147504
 20
1217.708485143921
 10
3656.800541843099
 20
1217.708485143921
 10
3656.800541843099
 20
1234.244461839516
 10
3640.264565147504
 20
1234.244461839516
  0
LINE
  5
153F89
330
1F
100
AcDbEntity
  8
001
 48
0.5
100
AcDbLine
 10
3640.264565147504
 20
1217.708485143921
 30
0.0
 11
3611.039117966499
 21
1204.867719281872
 31
0.0
  0
MTEXT
  5
153F8A
330
1F
100
AcDbEntity
  8
001
 48
0.5
100
AcDbMText
 10
3598.192768385387
 20
1204.707203189911
 30
0.0
 40
3.2
 41
28.86473832044521
 71
     1
 72
     5
  1
ズレいる
 73
     1
 44
1.0
1001
ACAD
1000
MTEXTBEGIN
1070
    73
1070
     1
1070
    44
1040
1.0
1070
    74
1070
     0
1000
MTEXTEND
  0
LWPOLYLINE
  5
153F8B
330
1F
100
AcDbEntity
  8
001
 48
0.5
100
AcDbPolyline
 90
        4
 70
     1
 43
0.0
 10
3490.845669150365
 20
889.9793774263068
 10
3507.38164584596
 20
889.9793774263068
 10
3507.38164584596
 20
906.5153541219022
 10
3490.845669150365
 20
906.5153541219022
  0
LINE
  5
153F8C
330
1F
100
AcDbEntity
  8
001
 48
0.5
100
AcDbLine
 10
3490.845669150365
 20
889.9793774263068
 30
0.0
 11
3461.620221969361
 21
863.1243256447524
 31
0.0
  0
MTEXT
  5
153F8D
330
1F
100
AcDbEntity
  8
001
 48
0.5
100
AcDbMText
 10
3448.773872388249
 20
860.8741203871614
 30
0.0
 40
3.2
 41
28.86473832044521
 71
     1
 72
     5
  1
ズレいる
 73
     1
 44
1.0
1001
ACAD
1000
MTEXTBEGIN
1070
    73
1070
     1
1070
    44
1040
1.0
1070
    74
1070
     0
1000
MTEXTEND
  0
MTEXT
  5
153F94
330
1F
100
AcDbEntity
  8
001
 48
0.5
100
AcDbMText
 10
3684.393256885833
 20
747.9684217172084
 30
0.0
 40
3.2
 41
93.84727766784999
 71
     1
 72
     5
  1
ASS図には、管理寸法以外基本的には入れない。\P入れたい場合は()寸法で入れる事。\Pまた、管理寸法には、必ず公差を入れる。
 73
     1
 44
1.0
1001
ACAD
1000
MTEXTBEGIN
1070
    73
1070
     1
1070
    44
1040
1.0
1070
    74
1070
     0
1000
MTEXTEND
  0
MTEXT
  5
153F9B
330
1F
100
AcDbEntity
  8
001
 48
0.5
100
AcDbMText
 10
3672.89814191173
 20
599.6819589936413
 30
0.0
 40
3.2
 41
18.29791088068714
 71
     1
 72
     5
  1
(　　　　　)
 11
0.0000000000000001
 21
1.0
 31
0.0
 73
     1
 44
1.0
1001
ACAD
1000
MTEXTBEGIN
1070
    73
1070
     1
1070
    44
1040
1.0
1070
    74
1070
     0
1000
MTEXTEND
  0
LWPOLYLINE
  5
153F9C
330
1F
100
AcDbEntity
  8
001
 48
0.5
100
AcDbPolyline
 90
        4
 70
     1
 43
0.0
 10
3696.63206333404
 20
627.3110761140261
 10
3706.705508286239
 20
627.3110761140261
 10
3706.705508286239
 20
634.5636231584859
 10
3696.63206333404
 20
634.5636231584859
  0
LINE
  5
153F9D
330
1F
100
AcDbEntity
  8
001
 48
0.5
100
AcDbLine
 10
3715.193968006137
 20
645.4955607239236
 30
0.0
 11
3701.66878581014
 21
634.5636231584859
 31
0.0
  0
MTEXT
  5
153F9E
330
1F
100
AcDbEntity
  8
001
 48
0.5
100
AcDbMText
 10
3717.078963295262
 20
655.0067354241942
 30
0.0
 40
3.2
 41
65.51259733692131
 71
     1
 72
     5
  1
公差を入れる事。\P素材とカシメ後の高さをデーター取りして決める。
 73
     1
 44
1.0
1001
ACAD
1000
MTEXTBEGIN
1070
    73
1070
     1
1070
    44
1040
1.0
1070
    74
1070
     0
1000
MTEXTEND
  0
LWPOLYLINE
  5
153F9F
330
1F
100
AcDbEntity
  8
001
 48
0.5
100
AcDbPolyline
 90
        4
 70
     1
 43
0.0
 10
3636.951789642364
 20
682.8344940039656
 10
3657.424807575142
 20
682.8344940039656
 10
3657.424807575142
 20
673.6033957805025
 10
3636.951789642364
 20
673.6033957805025
  0
MTEXT
  5
153FA0
330
1F
100
AcDbEntity
  8
001
 48
0.5
100
AcDbMText
 10
3639.177136791288
 20
669.2659002332488
 30
0.0
 40
3.2
 41
26.43134299325084
 71
     1
 72
     5
  1
スポット\P場所も記入
 73
     1
 44
1.0
1001
ACAD
1000
MTEXTBEGIN
1070
    73
1070
     1
1070
    44
1040
1.0
1070
    74
1070
     0
1000
MTEXTEND
  0
MTEXT
  5
153FA1
330
1F
100
AcDbEntity
  8
001
 48
0.5
100
AcDbMText
 10
3445.526518561496
 20
709.0731162471688
 30
0.0
 40
3.2
 41
47.62715147560448
 71
     1
 72
     5
  1
溶接部フクレなき事
 73
     1
 44
1.0
1001
ACAD
1000
MTEXTBEGIN
1070
    73
1070
     1
1070
    44
1040
1.0
1070
    74
1070
     0
1000
MTEXTEND
  0
MTEXT
  5
153FA2
330
1F
100
AcDbEntity
  8
001
 48
0.5
100
AcDbMText
 10
3554.511846692922
 20
357.1124855798731
 30
0.0
 40
3.2
 41
26.43134299325084
 71
     1
 72
     5
  1
スポット\P場所も記入
 73
     1
 44
1.0
1001
ACAD
1000
MTEXTBEGIN
1070
    73
1070
     1
1070
    44
1040
1.0
1070
    74
1070
     0
1000
MTEXTEND
  0
LWPOLYLINE
  5
153FA3
330
1F
100
AcDbEntity
  8
001
 48
0.5
100
AcDbPolyline
 90
        4
 70
     1
 43
0.0
 10
3551.695396945564
 20
373.587672335645
 10
3582.02460023588
 20
373.587672335645
 10
3582.02460023588
 20
361.7169463557984
 10
3551.695396945564
 20
361.7169463557984
  0
MTEXT
  5
153FA4
330
1F
100
AcDbEntity
  8
001
 48
0.5
100
AcDbMText
 10
3651.653640017443
 20
278.5005350123429
 30
0.0
 40
3.2
 41
28.86473832044521
 71
     1
 72
     5
  1
ズレいる
 73
     1
 44
1.0
1001
ACAD
1000
MTEXTBEGIN
1070
    73
1070
     1
1070
    44
1040
1.0
1070
    74
1070
     0
1000
MTEXTEND
  0
LWPOLYLINE
  5
153FA5
330
1F
100
AcDbEntity
  8
001
 48
0.5
100
AcDbPolyline
 90
        4
 70
     1
 43
0.0
 10
3620.588366102295
 20
288.9143683898224
 10
3630.422647151062
 20
288.9143683898224
 10
3630.422647151062
 20
299.7754953837652
 10
3620.588366102295
 20
299.7754953837652
  0
LINE
  5
153FA6
330
1F
100
AcDbEntity
  8
001
 48
0.5
100
AcDbLine
 10
3630.297778102453
 20
288.9143684872433
 30
0.0
 11
3649.889236531726
 21
277.6032346892851
 31
0.0
  0
LWPOLYLINE
  5
153FA7
330
1F
100
AcDbEntity
  8
001
 48
0.5
100
AcDbPolyline
 90
        4
 70
     1
 43
0.0
 10
3775.014396618433
 20
-478.1641412154385
 10
3780.215824766638
 20
-478.1641412154385
 10
3780.215824766638
 20
-483.3655693636428
 10
3775.014396618433
 20
-483.3655693636428
  0
LINE
  5
153FA8
330
1F
100
AcDbEntity
  8
001
 48
0.5
100
AcDbLine
 10
3780.215824766638
 20
-478.1641412154385
 30
0.0
 11
3787.538162636163
 21
-473.9365874753709
 31
0.0
  0
MTEXT
  5
153FA9
330
1F
100
AcDbEntity
  8
001
 48
0.5
100
AcDbMText
 10
3789.49550595917
 20
-470.5514647787313
 30
0.0
 40
3.2
 41
8.79593643032058
 71
     1
 72
     5
  1
不要
 73
     1
 44
1.0
1001
ACAD
1000
MTEXTBEGIN
1070
    73
1070
     1
1070
    44
1040
1.0
1070
    74
1070
     0
1000
MTEXTEND
  0
LWPOLYLINE
  5
153FAA
330
1F
100
AcDbEntity
  8
000
 48
0.5
100
AcDbPolyline
 90
        4
 70
     1
 43
0.0
 10
3546.29741821544
 20
-506.722091350668
 10
3554.752955864471
 20
-506.722091350668
 10
3554.752955864471
 20
-511.6038982884789
 10
3546.29741821544
 20
-511.6038982884789
  0
LINE
  5
153FAB
330
1F
100
AcDbEntity
  8
001
 48
0.5
100
AcDbLine
 10
3546.29741821544
 20
-506.722091350668
 30
0.0
 11
3513.565900052254
 21
-494.5457545324134
 31
0.0
  0
MTEXT
  5
153FAC
330
1F
100
AcDbEntity
  8
001
 48
0.5
100
AcDbMText
 10
3488.215353672931
 20
-486.4955141791906
 30
0.0
 40
3.2
 41
27.30375431785978
 71
     1
 72
     5
  1
たとえばこの寸法%%P0.3でいいのか
 73
     1
 44
1.0
1001
ACAD
1000
MTEXTBEGIN
1070
    73
1070
     1
1070
    44
1040
1.0
1070
    74
1070
     0
1000
MTEXTEND
  0
LWPOLYLINE
  5
153FAD
330
1F
100
AcDbEntity
  8
001
 48
0.5
100
AcDbPolyline
 90
        4
 70
     1
 43
0.0
 10
3423.736252867766
 20
-662.9181481619234
 10
3494.755598453191
 20
-662.9181481619234
 10
3494.755598453191
 20
-711.3887929861848
 10
3423.736252867766
 20
-711.3887929861848
  0
LINE
  5
153FAE
330
1F
100
AcDbEntity
  8
001
 48
0.5
100
AcDbLine
 10
3423.736252867766
 20
-662.9181481619234
 30
0.0
 11
3328.662007353778
 21
-617.1191210735705
 31
0.0
  0
MTEXT
  5
153FAF
330
1F
100
AcDbEntity
  8
001
 48
0.5
100
AcDbMText
 10
3280.03423011476
 20
-606.7915602231363
 30
0.0
 40
3.2
 41
65.08089154505433
 71
     1
 72
     5
  1
この表の公差を全ての寸法にあてはめてみる事。\P全ての図面をチェックの事。\P公差が無視された図面になっている。
 73
     1
 44
1.0
1001
ACAD
1000
MTEXTBEGIN
1070
    73
1070
     1
1070
    44
1040
1.0
1070
    74
1070
     0
1000
MTEXTEND
  0
LINE
  5
153FB0
330
1F
100
AcDbEntity
  8
001
 48
0.5
100
AcDbLine
 10
3623.592722529225
 20
395.5498675173897
 30
0.0
 11
3654.205075143029
 21
419.1042578534798
 31
0.0
  0
MTEXT
  5
153FB1
330
1F
100
AcDbEntity
  8
001
 48
0.5
100
AcDbMText
 10
3659.231829908329
 20
424.5202977220378
 30
0.0
 40
3.2
 41
54.92491859944493
 71
     1
 72
     5
  1
まぎらわしい点線はかかない。
 73
     1
 44
1.0
1001
ACAD
1000
MTEXTBEGIN
1070
    73
1070
     1
1070
    44
1040
1.0
1070
    74
1070
     0
1000
MTEXTEND
  0
LINE
  5
153FB2
330
1F
100
AcDbEntity
  8
001
 48
0.5
100
AcDbLine
 10
3502.510520565594
 20
921.2974075915017
 30
0.0
 11
3433.625089192012
 21
893.1655986666337
 31
0.0
  0
LINE
  5
153FB3
330
1F
100
AcDbEntity
  8
001
 48
0.5
100
AcDbLine
 10
3426.964280744051
 20
895.5664558498611
 30
0.0
 11
3432.774116791873
 21
889.7566198020385
 31
0.0
  0
LINE
  5
153FB4
330
1F
100
AcDbEntity
  8
001
 48
0.5
100
AcDbLine
 10
3432.129824471648
 20
895.9184972446374
 30
0.0
 11
3426.437338697198
 21
890.2260114701885
 31
0.0
  0
MTEXT
  5
153FB5
330
1F
100
AcDbEntity
  8
001
 48
0.5
100
AcDbMText
 10
3668.382396061723
 20
-249.8086136709644
 30
0.0
 40
3.2
 41
93.84727766784999
 71
     1
 72
     5
  1
ASS図には、管理寸法以外基本的には入れない。\P入れたい場合は()寸法で入れる事。\Pまた、管理寸法には、必ず公差を入れる。
 73
     1
 44
1.0
1001
ACAD
1000
MTEXTBEGIN
1070
    73
1070
     1
1070
    44
1040
1.0
1070
    74
1070
     0
1000
MTEXTEND
  0
LINE
  5
153FB6
330
1F
100
AcDbEntity
  8
001
 48
0.5
100
AcDbLine
 10
3573.872684690851
 20
-3973.664055239788
 30
0.0
 11
3580.014131324855
 21
-3984.301352841856
 31
0.0
  0
MTEXT
  5
153FB7
330
1F
100
AcDbEntity
  8
001
 48
0.5
100
AcDbMText
 10
3569.723047013913
 20
-3986.229559259831
 30
0.0
 40
3.2
 41
45.40190969992727
 71
     1
 72
     5
  1
4.6-3.1＝1.5\P板厚より薄い、再考の事。
 73
     1
 44
1.0
1001
ACAD
1000
MTEXTBEGIN
1070
    73
1070
     1
1070
    44
1040
1.0
1070
    74
1070
     0
1000
MTEXTEND
  0
LINE
  5
153FB8
330
1F
100
AcDbEntity
  8
001
 48
0.5
100
AcDbLine
 10
3721.546522371517
 20
-3877.810694159702
 30
0.0
 11
3721.546522371517
 21
-3858.908158804437
 31
0.0
  0
LINE
  5
153FB9
330
1F
100
AcDbEntity
  8
001
 48
0.5
100
AcDbLine
 10
3721.546522371517
 20
-3861.383615813411
 30
0.0
 11
3745.482785749866
 21
-3855.626817015481
 31
0.0
  0
MTEXT
  5
153FBA
330
1F
100
AcDbEntity
  8
001
 48
0.5
100
AcDbMText
 10
3748.973649390221
 20
-3849.414933663228
 30
0.0
 40
3.2
 41
71.71270530671245
 71
     1
 72
     5
  1
この位置が出るまで、4.9-0.8-0.3と3つの寸法からたどりつく、どのラインがどこから必要なのかをきちんと考える事。
 73
     1
 44
1.0
1001
ACAD
1000
MTEXTBEGIN
1070
    73
1070
     1
1070
    44
1040
1.0
1070
    74
1070
     0
1000
MTEXTEND
  0
LWPOLYLINE
  5
153FBB
330
1F
100
AcDbEntity
  8
001
 48
0.5
100
AcDbPolyline
 90
        4
 70
     1
 43
0.0
 10
3616.224210855615
 20
-1807.580450871215
 10
3621.983460919116
 20
-1807.580450871215
 10
3621.983460919116
 20
-1801.821200807714
 10
3616.224210855615
 20
-1801.821200807714
  0
LINE
  5
153FBC
330
1F
100
AcDbEntity
  8
001
 48
0.5
100
AcDbLine
 10
3616.224210855615
 20
-1801.821200807714
 30
0.0
 11
3610.628202502358
 21
-1794.365681875358
 31
0.0
  0
MTEXT
  5
153FBD
330
1F
100
AcDbEntity
  8
001
 48
0.5
100
AcDbMText
 10
3603.277697243314
 20
-1788.260164076054
 30
0.0
 40
3.2
 41
13.25162071002523
 71
     1
 72
     5
  1
不要
 73
     1
 44
1.0
1001
ACAD
1000
MTEXTBEGIN
1070
    73
1070
     1
1070
    44
1040
1.0
1070
    74
1070
     0
1000
MTEXTEND
  0
LWPOLYLINE
  5
153FBE
330
1F
100
AcDbEntity
  8
001
 48
0.5
100
AcDbPolyline
 90
        4
 70
     1
 43
0.0
 10
3687.697324223393
 20
-1837.937045236235
 10
3691.738567125729
 20
-1837.937045236235
 10
3691.738567125729
 20
-1814.888402504546
 10
3687.697324223393
 20
-1814.888402504546
  0
LWPOLYLINE
  5
153FBF
330
1F
100
AcDbEntity
  8
001
 48
0.5
100
AcDbPolyline
 90
        4
 70
     1
 43
0.0
 10
3691.429590772326
 20
-1879.716796369557
 10
3695.940268935039
 20
-1879.716796369557
 10
3695.940268935039
 20
-1853.16548290441
 10
3691.429590772326
 20
-1853.16548290441
  0
LWPOLYLINE
  5
153FC0
330
1F
100
AcDbEntity
  8
001
 48
0.5
100
AcDbPolyline
 90
        4
 70
     1
 43
0.0
 10
3689.870916340308
 20
-1768.145504387025
 10
3695.067445893672
 20
-1768.145504387025
 10
3695.067445893672
 20
-1719.035986656495
 10
3689.870916340308
 20
-1719.035986656495
  0
LWPOLYLINE
  5
153FC1
330
1F
100
AcDbEntity
  8
001
 48
0.5
100
AcDbPolyline
 90
        4
 70
     1
 43
0.0
 10
3474.585228438686
 20
-1838.364069973031
 10
3479.094826070037
 20
-1838.364069973031
 10
3479.094826070037
 20
-1810.696522177905
 10
3474.585228438686
 20
-1810.696522177905
  0
LINE
  5
153FC2
330
1F
100
AcDbEntity
  8
001
 48
0.5
100
AcDbLine
 10
3695.067445893672
 20
-1768.145504387025
 30
0.0
 11
3726.709081671933
 21
-1822.950425189562
 31
0.0
  0
LINE
  5
153FC3
330
1F
100
AcDbEntity
  8
001
 48
0.5
100
AcDbLine
 10
3691.738567125729
 20
-1837.937045236235
 30
0.0
 11
3726.709081671933
 21
-1822.950425189562
 31
0.0
  0
LINE
  5
153FC4
330
1F
100
AcDbEntity
  8
001
 48
0.5
100
AcDbLine
 10
3695.940268935039
 20
-1853.16548290441
 30
0.0
 11
3726.709081671933
 21
-1822.950425189562
 31
0.0
  0
MTEXT
  5
153FC5
330
1F
100
AcDbEntity
  8
001
 48
0.5
100
AcDbMText
 10
3729.999022604458
 20
-1819.876140217088
 30
0.0
 40
3.2
 41
36.56924681364899
 71
     1
 72
     5
  1
基準線をそろえる\PＢも同様
 73
     1
 44
1.0
1001
ACAD
1000
MTEXTBEGIN
1070
    73
1070
     1
1070
    44
1040
1.0
1070
    74
1070
     0
1000
MTEXTEND
  0
LINE
  5
153FC6
330
1F
100
AcDbEntity
  8
001
 48
0.5
100
AcDbLine
 10
3462.768887068374
 20
-1800.898954875793
 30
0.0
 11
3466.329715001576
 21
-1807.066489773109
 31
0.0
  0
LINE
  5
153FC7
330
1F
100
AcDbEntity
  8
001
 48
0.5
100
AcDbLine
 10
3466.667674623015
 20
-1801.707786250794
 30
0.0
 11
3462.548196483158
 21
-1807.149019785051
 31
0.0
  0
LINE
  5
153FD5
330
1F
100
AcDbEntity
  8
001
 48
0.5
100
AcDbLine
 10
3562.702330446921
 20
-1858.424161619997
 30
0.0
 11
3584.399058340994
 21
-1844.340571818633
 31
0.0
  0
MTEXT
  5
153FD6
330
1F
100
AcDbEntity
  8
001
 48
0.5
100
AcDbMText
 10
3584.321811545912
 20
-1839.990768761636
 30
0.0
 40
3.2
 41
19.49745744520805
 71
     1
 72
     5
  1
根元部指示
 73
     1
 44
1.0
1001
ACAD
1000
MTEXTBEGIN
1070
    73
1070
     1
1070
    44
1040
1.0
1070
    74
1070
     0
1000
MTEXTEND
  0
LINE
  5
153FD7
330
1F
100
AcDbEntity
  8
001
 48
0.5
100
AcDbLine
 10
3600.511120347292
 20
-2100.543516211124
 30
0.0
 11
3569.491975924233
 21
-2088.317523623511
 31
0.0
  0
MTEXT
  5
153FD8
330
1F
100
AcDbEntity
  8
001
 48
0.5
100
AcDbMText
 10
3555.669720400245
 20
-2086.528486444923
 30
0.0
 40
3.2
 41
19.49745744520805
 71
     1
 72
     5
  1
根元部指示
 73
     1
 44
1.0
1001
ACAD
1000
MTEXTBEGIN
1070
    73
1070
     1
1070
    44
1040
1.0
1070
    74
1070
     0
1000
MTEXTEND
  0
LWPOLYLINE
  5
153FD9
330
1F
100
AcDbEntity
  8
001
 48
0.5
100
AcDbPolyline
 90
        4
 70
     1
 43
0.0
 10
3629.305843033675
 20
-2101.641036516141
 10
3635.422953525505
 20
-2101.641036516141
 10
3635.422953525505
 20
-2094.016836240384
 10
3629.305843033675
 20
-2094.016836240384
  0
MTEXT
  5
153FDA
330
1F
100
AcDbEntity
  8
001
 48
0.5
100
AcDbMText
 10
3621.432773740688
 20
-2083.290919460262
 30
0.0
 40
3.2
 41
13.25162071002523
 71
     1
 72
     5
  1
不要
 73
     1
 44
1.0
1001
ACAD
1000
MTEXTBEGIN
1070
    73
1070
     1
1070
    44
1040
1.0
1070
    74
1070
     0
1000
MTEXTEND
  0
LINE
  5
153FDB
330
1F
100
AcDbEntity
  8
001
 48
0.5
100
AcDbLine
 10
3629.305843033675
 20
-2094.016836240384
 30
0.0
 11
3625.633118956982
 21
-2087.65549153737
 31
0.0
  0
LWPOLYLINE
  5
153FE1
330
1F
100
AcDbEntity
  8
001
 48
0.5
100
AcDbPolyline
 90
        4
 70
     1
 43
0.0
 10
3526.286437340874
 20
-1252.490452609795
 10
3538.132336325112
 20
-1252.490452609795
 10
3538.132336325112
 20
-1240.644553625557
 10
3526.286437340874
 20
-1240.644553625557
  0
LWPOLYLINE
  5
153FE2
330
1F
100
AcDbEntity
  8
001
 48
0.5
100
AcDbPolyline
 90
        4
 70
     1
 43
0.0
 10
3504.909808739125
 20
-4190.253803714344
 10
3511.87720117793
 20
-4190.253803714344
 10
3511.87720117793
 20
-4178.185926014061
 10
3504.909808739125
 20
-4178.185926014061
  0
LWPOLYLINE
  5
153FE3
330
1F
100
AcDbEntity
  8
001
 48
0.5
100
AcDbPolyline
 90
        4
 70
     1
 43
0.0
 10
3576.320124166679
 20
-4168.559512547394
 10
3567.401252399486
 20
-4168.559512547394
 10
3567.401252399486
 20
-4163.410199531738
 10
3576.320124166679
 20
-4163.410199531738
  0
LWPOLYLINE
  5
153FE4
330
1F
100
AcDbEntity
  8
001
 48
0.5
100
AcDbPolyline
 90
        4
 70
     1
 43
0.0
 10
3572.700518902202
 20
-4190.818254712008
 10
3578.431635041559
 20
-4190.818254712008
 10
3578.431635041559
 20
-4180.891670374562
 10
3572.700518902202
 20
-4180.891670374562
  0
MTEXT
  5
153FE5
330
1F
100
AcDbEntity
  8
001
 48
0.5
100
AcDbMText
 10
3585.294286695935
 20
-4128.783373241953
 30
0.0
 40
3.2
 41
44.49496999701705
 71
     1
 72
     5
  1
公差のない寸法など部品図には存在しない。
 73
     1
 44
1.0
1001
ACAD
1000
MTEXTBEGIN
1070
    73
1070
     1
1070
    44
1040
1.0
1070
    74
1070
     0
1000
MTEXTEND
  0
LINE
  5
153FF3
330
1F
100
AcDbEntity
  8
001
 48
0.5
100
AcDbLine
 10
3546.796103183508
 20
-3431.068759555255
 30
0.0
 11
3550.352902631767
 21
-3437.229316911973
 31
0.0
  0
LINE
  5
153FF4
330
1F
100
AcDbEntity
  8
001
 48
0.5
100
AcDbLine
 10
3552.051132386905
 20
-3430.849893590192
 30
0.0
 11
3545.757522680109
 21
-3437.143503296989
 31
0.0
  0
MTEXT
  5
153FF5
330
1F
100
AcDbEntity
  8
001
 48
0.5
100
AcDbMText
 10
3576.383427459329
 20
-3401.819077608391
 30
0.0
 40
3.2
 41
40.97622804082312
 71
     1
 72
     5
  1
公差チェック修正の事。
 73
     1
 44
1.0
1001
ACAD
1000
MTEXTBEGIN
1070
    73
1070
     1
1070
    44
1040
1.0
1070
    74
1070
     0
1000
MTEXTEND
  0
MTEXT
  5
153FF6
330
1F
100
AcDbEntity
  8
001
 48
0.5
100
AcDbMText
 10
3596.894068924467
 20
-3418.602756973721
 30
0.0
 40
3.2
 41
64.90745574395623
 71
     1
 72
     5
  1
プレス部品には、必ず抜き方向を指定する。
 73
     1
 44
1.0
1001
ACAD
1000
MTEXTBEGIN
1070
    73
1070
     1
1070
    44
1040
1.0
1070
    74
1070
     0
1000
MTEXTEND
  0
LWPOLYLINE
  5
153FF7
330
1F
100
AcDbEntity
  8
001
 48
0.5
100
AcDbPolyline
 90
        4
 70
     1
 43
0.0
 10
3524.902955454024
 20
-3447.562661501497
 10
3536.122930369399
 20
-3447.562661501497
 10
3536.122930369399
 20
-3436.342686586121
 10
3524.902955454024
 20
-3436.342686586121
  0
LINE
  5
154020
330
1F
100
AcDbEntity
  8
001
 48
0.5
100
AcDbLine
 10
3507.495178645237
 20
-1803.856515422075
 30
0.0
 11
3545.186639021875
 21
-1822.556562595172
 31
0.0
  0
LINE
  5
154021
330
1F
100
AcDbEntity
  8
001
 48
0.5
100
AcDbLine
 10
3509.971263927393
 20
-1815.956548718004
 30
0.0
 11
3545.186639021875
 21
-1822.556562595172
 31
0.0
  0
MTEXT
  5
154022
330
1F
100
AcDbEntity
  8
001
 48
0.5
100
AcDbMText
 10
3536.854812660777
 20
-1825.125586806032
 30
0.0
 40
3.2
 41
37.32462792497063
 71
     1
 72
     5
  1
中心線の飛び出しが大きいのでわかりずらい。\Pセンス良く書くこと。
 73
     1
 44
1.0
1001
ACAD
1000
MTEXTBEGIN
1070
    73
1070
     1
1070
    44
1040
1.0
1070
    74
1070
     0
1000
MTEXTEND
  0
LWPOLYLINE
  5
15402D
330
1F
100
AcDbEntity
  8
001
 48
0.5
100
AcDbPolyline
 90
        4
 70
     1
 43
0.0
 10
3483.131330232751
 20
-2142.374941805213
 10
3486.518660980226
 20
-2142.374941805213
 10
3486.518660980226
 20
-2119.69753518592
 10
3483.131330232751
 20
-2119.69753518592
  0
LWPOLYLINE
  5
15402E
330
1F
100
AcDbEntity
  8
001
 48
0.5
100
AcDbPolyline
 90
        4
 70
     1
 43
0.0
 10
3452.012014641718
 20
-2026.878944399829
 10
3458.332633004043
 20
-2026.878944399829
 10
3458.332633004043
 20
-2003.290075536379
 10
3452.012014641718
 20
-2003.290075536379
  0
LWPOLYLINE
  5
15402F
330
1F
100
AcDbEntity
  8
001
 48
0.5
100
AcDbPolyline
 90
        4
 70
     1
 43
0.0
 10
3701.018905869145
 20
-2044.463865394561
 10
3703.495265032143
 20
-2044.463865394561
 10
3703.495265032143
 20
-2035.221967180464
 10
3701.018905869145
 20
-2035.221967180464
  0
LWPOLYLINE
  5
154030
330
1F
100
AcDbEntity
  8
001
 48
0.5
100
AcDbPolyline
 90
        4
 70
     1
 43
0.0
 10
3697.802942628332
 20
-2149.598894752845
 10
3702.650619454056
 20
-2149.598894752845
 10
3702.650619454056
 20
-2120.212814152244
 10
3697.802942628332
 20
-2120.212814152244
  0
LWPOLYLINE
  5
154031
330
1F
100
AcDbEntity
  8
001
 48
0.5
100
AcDbPolyline
 90
        4
 70
     1
 43
0.0
 10
3699.874790005561
 20
-2194.32621085276
 10
3702.822765578903
 20
-2194.32621085276
 10
3702.822765578903
 20
-2175.663775523838
 10
3699.874790005561
 20
-2175.663775523838
  0
MTEXT
  5
154032
330
1F
100
AcDbEntity
  8
001
 48
0.5
100
AcDbMText
 10
3654.471183527594
 20
64.62373224857947
 30
0.0
 40
3.2
 41
28.31942025245599
 71
     1
 72
     5
  1
ガタなき事
 73
     1
 44
1.0
1001
ACAD
1000
MTEXTBEGIN
1070
    73
1070
     1
1070
    44
1040
1.0
1070
    74
1070
     0
1000
MTEXTEND
  0
LINE
  5
154033
330
1F
100
AcDbEntity
  8
001
 48
0.5
100
AcDbLine
 10
3528.796479910037
 20
998.297413313544
 30
0.0
 11
3535.561146489905
 21
1012.74552723473
 31
0.0
  0
LINE
  5
154034
330
1F
100
AcDbEntity
  8
001
 48
0.5
100
AcDbLine
 10
3536.270698064728
 20
1017.124161371791
 30
0.0
 11
3541.243326252428
 21
1012.15153318409
 31
0.0
  0
LINE
  5
154035
330
1F
100
AcDbEntity
  8
001
 48
0.5
100
AcDbLine
 10
3540.718641847887
 20
1017.3666708179
 30
0.0
 11
3537.222512222741
 21
1011.311196677302
 31
0.0
  0
LINE
  5
15406B
330
1F
100
AcDbEntity
  8
001
 48
0.5
100
AcDbLine
 10
3629.70901629741
 20
-2109.773083872712
 30
0.0
 11
3632.725763931154
 21
-2104.547923697454
 31
0.0
  0
LINE
  5
15406C
330
1F
100
AcDbEntity
  8
001
 48
0.5
100
AcDbLine
 10
3629.803268823327
 20
-2104.685630709613
 30
0.0
 11
3632.286153645818
 21
-2108.986113371509
 31
0.0
  0
LINE
  5
15406F
330
1F
100
AcDbEntity
  8
001
 48
0.5
100
AcDbLine
 10
3617.1536108368
 20
-1809.285835318682
 30
0.0
 11
3619.472101375153
 21
-1813.301578727977
 31
0.0
  0
LINE
  5
154070
330
1F
100
AcDbEntity
  8
001
 48
0.5
100
AcDbLine
 10
3620.181919149717
 20
-1809.074651010806
 30
0.0
 11
3615.499642544256
 21
-1813.756927616266
 31
0.0
  0
LINE
  5
15408C
330
1F
100
AcDbEntity
  8
001
 48
0.5
100
AcDbLine
 10
3514.652305046402
 20
-2112.93533466331
 30
0.0
 11
3550.161529055246
 21
-2129.414152901841
 31
0.0
  0
MTEXT
  5
15408D
330
1F
100
AcDbEntity
  8
001
 48
0.5
100
AcDbMText
 10
3552.088903033562
 20
-2128.075343733052
 30
0.0
 40
3.2
 41
30.20932891875054
 71
     1
 72
     5
  1
まぎらわしい
 73
     1
 44
1.0
1001
ACAD
1000
MTEXTBEGIN
1070
    73
1070
     1
1070
    44
1040
1.0
1070
    74
1070
     0
1000
MTEXTEND
  0
MTEXT
  5
154111
330
1F
100
AcDbEntity
  8
001
 48
0.5
100
AcDbMText
 10
3637.73248602162
 20
-2131.118934127148
 30
0.0
 40
3.2
 41
12.49539389891515
 71
     1
 72
     5
  1
裏側
 73
     1
 44
1.0
1001
ACAD
1000
MTEXTBEGIN
1070
    73
1070
     1
1070
    44
1040
1.0
1070
    74
1070
     0
1000
MTEXTEND
  0
LINE
  5
154112
330
1F
100
AcDbEntity
  8
001
 48
0.5
100
AcDbLine
 10
3566.966528283277
 20
-3703.878538195482
 30
0.0
 11
3620.181442444704
 21
-3693.404476092266
 31
0.0
  0
LINE
  5
154113
330
1F
100
AcDbEntity
  8
001
 48
0.5
100
AcDbLine
 10
3566.966528283277
 20
-3693.815223256105
 30
0.0
 11
3620.181442444704
 21
-3702.851670285887
 31
0.0
  0
MTEXT
  5
154114
330
1F
100
AcDbEntity
  8
001
 48
0.5
100
AcDbMText
 10
3630.916677628704
 20
-3691.03274428532
 30
0.0
 40
3.2
 41
21.96499900549225
 71
     1
 72
     5
  1
6ケ所
 73
     1
 44
1.0
1001
ACAD
1000
MTEXTBEGIN
1070
    73
1070
     1
1070
    44
1040
1.0
1070
    74
1070
     0
1000
MTEXTEND
  0
LINE
  5
154115
330
1F
100
AcDbEntity
  8
001
 48
0.5
100
AcDbLine
 10
3536.749606272466
 20
-601.7810523369112
 30
0.0
 11
3506.756579845029
 21
-629.7011786935873
 31
0.0
  0
MTEXT
  5
154116
330
1F
100
AcDbEntity
  8
001
 48
0.5
100
AcDbMText
 10
3491.055306343378
 20
-625.5742176598987
 30
0.0
 40
3.2
 41
25.73390508476541
 71
     1
 72
     5
  1
取る。\P必要になった時追加する。
 73
     1
 44
1.0
1001
ACAD
1000
MTEXTBEGIN
1070
    73
1070
     1
1070
    44
1040
1.0
1070
    74
1070
     0
1000
MTEXTEND
  0
MTEXT
  5
154117
330
1F
100
AcDbEntity
  8
001
 48
0.5
100
AcDbMText
 10
3488.45233887962
 20
-837.4523339181333
 30
0.0
 40
3.2
 41
86.99300775514348
 71
     1
 72
     5
  1
変わる所だけ寸法記入する。\Pそれ以外の寸法は、注記で処理。\Pこの図面は、そのまま残しておく事
 73
     1
 44
1.0
1001
ACAD
1000
MTEXTBEGIN
1070
    73
1070
     1
1070
    44
1040
1.0
1070
    74
1070
     0
1000
MTEXTEND
  0
MTEXT
  5
1543A5
330
1F
100
AcDbEntity
  8
001
 48
0.5
100
AcDbMText
 10
3925.279924901473
 20
-837.4523339181333
 30
0.0
 40
3.2
 41
86.99300775514348
 71
     1
 72
     5
  1
変わる所だけ寸法記入する。\Pそれ以外の寸法は、注記で処理。\Pこの図面は、そのまま残しておく事
 73
     1
 44
1.0
1001
ACAD
1000
MTEXTBEGIN
1070
    73
1070
     1
1070
    44
1040
1.0
1070
    74
1070
     0
1000
MTEXTEND
  0
LINE
  5
154A97
330
1F
100
AcDbEntity
  8
001
 48
0.5
100
AcDbLine
 10
3843.169739388009
 20
-1369.054845480425
 30
0.0
 11
4263.169739388009
 21
-1666.054845480425
 31
0.0
  0
LINE
  5
154A98
330
1F
100
AcDbEntity
  8
001
 48
0.5
100
AcDbLine
 10
4263.169739388009
 20
-1369.054845480425
 30
0.0
 11
3843.169739388009
 21
-1666.054845480425
 31
0.0
  0
LINE
  5
154A99
330
1F
100
AcDbEntity
  8
001
 48
0.5
100
AcDbLine
 10
4263.169739388009
 20
-1052.56647952364
 30
0.0
 11
3843.169739388009
 21
-755.5664795236403
 31
0.0
  0
LINE
  5
154A9A
330
1F
100
AcDbEntity
  8
001
 48
0.5
100
AcDbLine
 10
3843.169739388009
 20
-1052.56647952364
 30
0.0
 11
4263.169739388009
 21
-755.5664795236403
 31
0.0
  0
LINE
  5
1558F0
330
1F
100
AcDbEntity
  8
000
 48
0.5
100
AcDbLine
 10
3611.239652503173
 20
-1792.524188310295
 30
0.0
 11
3599.880311141704
 21
-1787.936160557541
 31
0.0
  0
LINE
  5
1558F1
330
1F
100
AcDbEntity
  8
000
 48
0.5
100
AcDbLine
 10
3643.716259305911
 20
-2134.884540837417
 30
0.0
 11
3635.407331461524
 21
-2130.767767635141
 31
0.0
  0
LINE
  5
155B77
330
1F
100
AcDbEntity
  8
000
 48
0.5
100
AcDbLine
 10
3639.263996563466
 20
-3691.96070567161
 30
0.0
 11
3628.420875810558
 21
-3693.297237259432
 31
0.0
  0
LINE
  5
155B78
330
1F
100
AcDbEntity
  8
000
 48
0.5
100
AcDbLine
 10
3652.177753406846
 20
-3420.527932193945
 30
0.0
 11
3594.75308855077
 21
-3420.527932193945
 31
0.0
  0
ELLIPSE
  5
158370
330
1F
100
AcDbEntity
  8
000
 48
0.5
100
AcDbEllipse
 10
3479.435112612195
 20
-591.006161373174
 30
0.0
 11
0.0
 21
5.27345170787521
 31
0.0
210
0.0
220
0.0
230
1.0
 40
0.5772084207941141
 41
0.0
 42
6.283185307179586
  0
ELLIPSE
  5
15837A
330
1F
100
AcDbEntity
  8
000
 48
0.5
100
AcDbEllipse
 10
3774.733781179647
 20
-483.1538520025969
 30
0.0
 11
5.009351955806778
 21
0.0
 31
0.0
210
0.0
220
0.0
230
1.0
 40
0.7342791627506733
 41
0.0
 42
6.283185307179586
  0
LWPOLYLINE
  5
15846A
330
1F
100
AcDbEntity
  8
000
 48
0.5
100
AcDbPolyline
 90
        4
 70
     1
 43
0.0
 10
3571.774401058691
 20
-506.722091350668
 10
3580.229938707721
 20
-506.722091350668
 10
3580.229938707721
 20
-511.6038982884789
 10
3571.774401058691
 20
-511.6038982884789
  0
ELLIPSE
  5
1584A2
330
1F
100
AcDbEntity
  8
000
 48
0.5
100
AcDbEllipse
 10
3596.45868938976
 20
-576.2125340796701
 30
0.0
 11
0.0
 21
5.27345170787521
 31
0.0
210
0.0
220
0.0
230
1.0
 40
0.5772084207941141
 41
0.0
 42
6.283185307179586
  0
ELLIPSE
  5
1584D0
330
1F
100
AcDbEntity
  8
000
 48
0.5
100
AcDbEllipse
 10
3603.6327250378
 20
-590.9706416170684
 30
0.0
 11
0.0
 21
5.27345170787521
 31
0.0
210
0.0
220
0.0
230
1.0
 40
0.5772084207941141
 41
0.0
 42
6.283185307179586
  0
LWPOLYLINE
  5
1584D1
330
1F
100
AcDbEntity
  8
000
 48
0.5
100
AcDbPolyline
 90
        4
 70
     1
 43
0.0
 10
3568.905031730702
 20
-663.2347563482326
 10
3577.360569379731
 20
-663.2347563482326
 10
3577.360569379731
 20
-668.1165632860434
 10
3568.905031730702
 20
-668.1165632860434
  0
ELLIPSE
  5
1584FF
330
1F
100
AcDbEntity
  8
000
 48
0.5
100
AcDbEllipse
 10
3503.191311436034
 20
-570.5706189998728
 30
0.0
 11
0.0
 21
5.27345170787521
 31
0.0
210
0.0
220
0.0
230
1.0
 40
0.5772084207941141
 41
0.0
 42
6.283185307179586
  0
ELLIPSE
  5
15879D
330
1F
100
AcDbEntity
  8
000
 48
0.5
100
AcDbEllipse
 10
3486.351207049549
 20
-589.6233627886776
 30
0.0
 11
0.0
 21
5.27345170787521
 31
0.0
210
0.0
220
0.0
230
1.0
 40
0.5772084207941141
 41
0.0
 42
6.283185307179586
  0
ELLIPSE
  5
1587AE
330
1F
100
AcDbEntity
  8
000
 48
0.5
100
AcDbEllipse
 10
3496.372648732349
 20
-581.3213534413771
 30
0.0
 11
0.0
 21
5.27345170787521
 31
0.0
210
0.0
220
0.0
230
1.0
 40
0.5772084207941141
 41
0.0
 42
6.283185307179586
  0
ELLIPSE
  5
1587C1
330
1F
100
AcDbEntity
  8
000
 48
0.5
100
AcDbEllipse
 10
3610.154162106677
 20
-599.3236789235834
 30
0.0
 11
0.0
 21
5.27345170787521
 31
0.0
210
0.0
220
0.0
230
1.0
 40
0.5772084207941141
 41
0.0
 42
6.283185307179586
  0
ELLIPSE
  5
1587D4
330
1F
100
AcDbEntity
  8
000
 48
0.5
100
AcDbEllipse
 10
3631.541222878654
 20
-571.2756370276893
 30
0.0
 11
0.0
 21
5.27345170787521
 31
0.0
210
0.0
220
0.0
230
1.0
 40
0.5772084207941141
 41
0.0
 42
6.283185307179586
  0
ELLIPSE
  5
158CF3
330
1F
100
AcDbEntity
  8
000
 48
0.5
100
AcDbEllipse
 10
3617.114455497323
 20
-591.4069471144975
 30
0.0
 11
0.0
 21
5.27345170787521
 31
0.0
210
0.0
220
0.0
230
1.0
 40
0.5772084207941141
 41
0.0
 42
6.283185307179586
  0
ELLIPSE
  5
158CF4
330
1F
100
AcDbEntity
  8
000
 48
0.5
100
AcDbEllipse
 10
3599.003811124809
 20
-1208.031020714674
 30
0.0
 11
0.0
 21
5.27345170787521
 31
0.0
210
0.0
220
0.0
230
1.0
 40
0.5772084207941141
 41
0.0
 42
6.283185307179586
  0
ELLIPSE
  5
158CF5
330
1F
100
AcDbEntity
  8
000
 48
0.5
100
AcDbEllipse
 10
3609.987529348979
 20
-538.0186968145244
 30
0.0
 11
0.0
 21
7.446262017916524
 31
0.0
210
0.0
220
0.0
230
1.0
 40
0.4087796971302867
 41
0.0
 42
6.283185307179586
  0
ELLIPSE
  5
158D2C
330
1F
100
AcDbEntity
  8
000
 48
0.5
100
AcDbEllipse
 10
3592.16578890358
 20
-1214.487258781677
 30
0.0
 11
0.0
 21
5.27345170787521
 31
0.0
210
0.0
220
0.0
230
1.0
 40
0.5772084207941141
 41
0.0
 42
6.283185307179586
  0
ELLIPSE
  5
158D2D
330
1F
100
AcDbEntity
  8
000
 48
0.5
100
AcDbEllipse
 10
3585.801387644848
 20
-1207.284441751242
 30
0.0
 11
0.0
 21
5.27345170787521
 31
0.0
210
0.0
220
0.0
230
1.0
 40
0.5772084207941141
 41
0.0
 42
6.283185307179586
  0
ELLIPSE
  5
158D2E
330
1F
100
AcDbEntity
  8
000
 48
0.5
100
AcDbEllipse
 10
3578.235265320304
 20
-1191.447593024979
 30
0.0
 11
0.0
 21
5.27345170787521
 31
0.0
210
0.0
220
0.0
230
1.0
 40
0.5772084207941141
 41
0.0
 42
6.283185307179586
  0
ELLIPSE
  5
158D2F
330
1F
100
AcDbEntity
  8
000
 48
0.5
100
AcDbEllipse
 10
3590.959824290296
 20
-1155.180605061512
 30
0.0
 11
0.0
 21
5.27345170787521
 31
0.0
210
0.0
220
0.0
230
1.0
 40
0.5772084207941141
 41
0.0
 42
6.283185307179586
  0
ELLIPSE
  5
158D30
330
1F
100
AcDbEntity
  8
000
 48
0.5
100
AcDbEllipse
 10
3491.414127367744
 20
-1186.950964817622
 30
0.0
 11
0.0
 21
5.27345170787521
 31
0.0
210
0.0
220
0.0
230
1.0
 40
0.5772084207941141
 41
0.0
 42
6.283185307179586
  0
ELLIPSE
  5
158D31
330
1F
100
AcDbEntity
  8
000
 48
0.5
100
AcDbEllipse
 10
3484.952380357058
 20
-1197.25013810927
 30
0.0
 11
0.0
 21
5.27345170787521
 31
0.0
210
0.0
220
0.0
230
1.0
 40
0.5772084207941141
 41
0.0
 42
6.283185307179586
  0
DIMENSION
  5
15AC2B
330
1F
100
AcDbEntity
  8
000
100
AcDbDimension
  2
*D6
 10
3681.367977403388
 20
-575.5811055008025
 30
0.0
 11
3678.767977403389
 21
-583.3811754553034
 31
0.0
 70
    32
 71
     5
 42
15.60013990900279
  3
SYS$0
100
AcDbAlignedDimension
 13
3653.749393280167
 23
-591.1812454098053
 33
0.0
 14
3663.9491813791
 24
-575.5811055008025
 34
0.0
 50
90.00000000000003
100
AcDbRotatedDimension
1001
ACAD
1000
DSTYLE
1002
{
1070
   178
1070
     2
1070
   177
1070
   256
1070
   176
1070
   256
1070
    47
1040
0.0
1070
    48
1040
0.05
1002
}
  0
DIMENSION
  5
15AC6E
330
1F
100
AcDbEntity
  8
000
100
AcDbDimension
  2
*D7
 10
3712.476508065682
 20
-582.0809697024888
 30
0.0
 11
3709.843174732349
 21
-575.5809697024873
 31
0.0
 70
    32
 71
     5
 42
13.00000000000182
  3
SYS$0
100
AcDbAlignedDimension
 13
3697.476508065682
 23
-569.0809697024869
 33
0.0
 14
3697.476508065684
 24
-582.0809697024888
 34
0.0
 50
90.0
100
AcDbRotatedDimension
1001
GENIUS_GENDTOL_13
1000
TolAcTol
1000

1000

1040
13.0
1001
ACAD
1000
DSTYLE
1002
{
1070
   178
1070
     2
1070
   177
1070
   256
1070
   176
1070
   256
1070
    47
1040
0.2
1070
    48
1040
0.000000000000001
1070
    71
1070
     1
1070
   140
1040
2.799999999999999
1070
   146
1040
0.5
1002
}
  0
INSERT
  5
1638D5
330
1F
100
AcDbEntity
  8
000
100
AcDbBlockReference
  2
OK
 10
-5.738739454354799
 20
27.28050163137232
 30
0.0
  0
INSERT
  5
1638D6
330
1F
100
AcDbEntity
  8
000
100
AcDbBlockReference
  2
OK
 10
-1.260019894039942
 20
-114.1654573782497
 30
0.0
  0
INSERT
  5
1638D7
330
1F
100
AcDbEntity
  8
000
100
AcDbBlockReference
  2
OK
 10
1.811509900961482
 20
-327.0671682855707
 30
0.0
  0
INSERT
  5
1638D8
330
1F
100
AcDbEntity
  8
000
100
AcDbBlockReference
  2
OK
 10
43.56382510072035
 20
-1312.517248562357
 30
0.0
  0
INSERT
  5
1638D9
330
1F
100
AcDbEntity
  8
000
100
AcDbBlockReference
  2
OK
 10
86.87073810355469
 20
-1323.631282036008
 30
0.0
  0
INSERT
  5
1638DA
330
1F
100
AcDbEntity
  8
000
100
AcDbBlockReference
  2
OK
 10
232.7019910109343
 20
-1305.892233237433
 30
0.0
  0
INSERT
  5
1638DB
330
1F
100
AcDbEntity
  8
000
100
AcDbBlockReference
  2
OK
 10
55.5969043548107
 20
-1611.687749730577
 30
0.0
  0
INSERT
  5
1638DC
330
1F
100
AcDbEntity
  8
000
100
AcDbBlockReference
  2
OK
 10
57.7288026514675
 20
-1570.281574559298
 30
0.0
  0
INSERT
  5
1638DD
330
1F
100
AcDbEntity
  8
000
100
AcDbBlockReference
  2
OK
 10
120.051551033237
 20
-1566.595863156321
 30
0.0
  0
INSERT
  5
1638DE
330
1F
100
AcDbEntity
  8
000
100
AcDbBlockReference
  2
OK
 10
135.2133821809038
 20
-1614.835214266296
 30
0.0
  0
INSERT
  5
1638DF
330
1F
100
AcDbEntity
  8
000
100
AcDbBlockReference
  2
OK
 10
83.18843738805663
 20
-2886.387614846819
 30
0.0
  0
INSERT
  5
1638E0
330
1F
100
AcDbEntity
  8
000
100
AcDbBlockReference
  2
OK
 10
96.78563263183242
 20
-2902.187827221737
 30
0.0
  0
INSERT
  5
1638E1
330
1F
100
AcDbEntity
  8
000
100
AcDbBlockReference
  2
OK
 10
89.22180426603153
 20
-3180.800556325199
 30
0.0
  0
INSERT
  5
1638E2
330
1F
100
AcDbEntity
  8
000
100
AcDbBlockReference
  2
OK
 10
129.3446782355095
 20
-3174.802221264445
 30
0.0
  0
INSERT
  5
1638E3
330
1F
100
AcDbEntity
  8
000
100
AcDbBlockReference
  2
OK
 10
80.80203175911719
 20
-3471.597006705521
 30
0.0
  0
INSERT
  5
1638E4
330
1F
100
AcDbEntity
  8
000
100
AcDbBlockReference
  2
OK
 10
255.7313400076773
 20
-3335.863519472822
 30
0.0
  0
INSERT
  5
1638E5
330
1F
100
AcDbEntity
  8
000
100
AcDbBlockReference
  2
OK
 10
88.77502864173766
 20
-3612.318205905542
 30
0.0
  0
INSERT
  5
1638E6
330
1F
100
AcDbEntity
  8
000
100
AcDbBlockReference
  2
OK
 10
174.222289616745
 20
260.0740901667336
 30
0.0
  0
INSERT
  5
1638E7
330
1F
100
AcDbEntity
  8
000
100
AcDbBlockReference
  2
OK
 10
156.3278638765041
 20
581.0763890290836
 30
0.0
  0
INSERT
  5
1638E8
330
1F
100
AcDbEntity
  8
000
100
AcDbBlockReference
  2
OK
 10
55.82620388923897
 20
871.7024164085124
 30
0.0
  0
INSERT
  5
1638E9
330
1F
100
AcDbEntity
  8
000
100
AcDbBlockReference
  2
OK
 10
162.1106727804999
 20
940.497925538634
 30
0.0
  0
INSERT
  5
1638EA
330
1F
100
AcDbEntity
  8
000
100
AcDbBlockReference
  2
OK
 10
152.4653787488405
 20
794.8395233223916
 30
0.0
  0
INSERT
  5
1638EB
330
1F
100
AcDbEntity
  8
000
100
AcDbBlockReference
  2
OK
 10
-48.2165537871424
 20
1225.539991721342
 30
0.0
  0
INSERT
  5
1638EC
330
1F
100
AcDbEntity
  8
000
100
AcDbBlockReference
  2
OK
 10
140.3434353306693
 20
1183.563257725447
 30
0.0
  0
INSERT
  5
1638ED
330
1F
100
AcDbEntity
  8
000
100
AcDbBlockReference
  2
OK
 10
223.1020999728116
 20
1169.093106170813
 30
0.0
  0
INSERT
  5
1638EE
330
1F
100
AcDbEntity
  8
000
100
AcDbBlockReference
  2
OK
 10
193.0662796501619
 20
1260.660821098771
 30
0.0
  0
INSERT
  5
1638EF
330
1F
100
AcDbEntity
  8
000
100
AcDbBlockReference
  2
OK
 10
-50.74848180553999
 20
1377.430598305792
 30
0.0
  0
INSERT
  5
1638F0
330
1F
100
AcDbEntity
  8
000
100
AcDbBlockReference
  2
OK
 10
-74.44679183118751
 20
1412.050913397752
 30
0.0
  0
INSERT
  5
1638F1
330
1F
100
AcDbEntity
  8
000
100
AcDbBlockReference
  2
OK
 10
99.42311542379503
 20
1720.980588489873
 30
0.0
  0
ELLIPSE
  5
163914
330
1F
100
AcDbEntity
  8
000
 48
0.5
100
AcDbEllipse
 10
3648.647860024652
 20
-1186.975275701021
 30
0.0
 11
0.0
 21
5.27345170787521
 31
0.0
210
0.0
220
0.0
230
1.0
 40
0.5772084207941141
 41
0.0
 42
6.283185307179586
  0
LWPOLYLINE
  5
163915
330
1F
100
AcDbEntity
  8
000
 48
0.5
100
AcDbPolyline
 90
        4
 70
     1
 43
0.0
 10
3527.737671037409
 20
-1122.214345708383
 10
3536.19320868644
 20
-1122.214345708383
 10
3536.19320868644
 20
-1127.096152646194
 10
3527.737671037409
 20
-1127.096152646194
  0
LWPOLYLINE
  5
163916
330
1F
100
AcDbEntity
  8
000
 48
0.5
100
AcDbPolyline
 90
        4
 70
     1
 43
0.0
 10
3553.21465388066
 20
-1122.214345708383
 10
3561.670191529691
 20
-1122.214345708383
 10
3561.670191529691
 20
-1127.096152646194
 10
3553.21465388066
 20
-1127.096152646194
  0
ELLIPSE
  5
163917
330
1F
100
AcDbEntity
  8
000
 48
0.5
100
AcDbEllipse
 10
3760.849532506822
 20
-516.8574166910475
 30
0.0
 11
5.009351955806778
 21
0.0
 31
0.0
210
0.0
220
0.0
230
1.0
 40
0.7342791627506733
 41
0.0
 42
6.283185307179586
  0
ELLIPSE
  5
163918
330
1F
100
AcDbEntity
  8
000
 48
0.5
100
AcDbEllipse
 10
3748.94876452539
 20
-516.8574166910475
 30
0.0
 11
5.009351955806778
 21
0.0
 31
0.0
210
0.0
220
0.0
230
1.0
 40
0.7342791627506733
 41
0.0
 42
6.283185307179586
  0
ELLIPSE
  5
163919
330
1F
100
AcDbEntity
  8
000
 48
0.5
100
AcDbEllipse
 10
3726.425655761011
 20
-1100.458402597251
 30
0.0
 11
5.009351955806778
 21
0.0
 31
0.0
210
0.0
220
0.0
230
1.0
 40
0.7342791627506733
 41
0.0
 42
6.283185307179586
  0
ELLIPSE
  5
16391A
330
1F
100
AcDbEntity
  8
000
 48
0.5
100
AcDbEllipse
 10
3712.541407088187
 20
-1134.161967285701
 30
0.0
 11
5.009351955806778
 21
0.0
 31
0.0
210
0.0
220
0.0
230
1.0
 40
0.7342791627506733
 41
0.0
 42
6.283185307179586
  0
ELLIPSE
  5
16391B
330
1F
100
AcDbEntity
  8
000
 48
0.5
100
AcDbEllipse
 10
3700.640639106756
 20
-1134.161967285701
 30
0.0
 11
5.009351955806778
 21
0.0
 31
0.0
210
0.0
220
0.0
230
1.0
 40
0.7342791627506733
 41
0.0
 42
6.283185307179586
  0
INSERT
  5
163A8B
330
1F
100
AcDbEntity
  8
000
 48
0.5
100
AcDbBlockReference
  2
*S15
 10
0.0
 20
0.0
 30
0.0
  0
LWPOLYLINE
  5
163A8D
330
1F
100
AcDbEntity
  8
000
 48
0.5
100
AcDbPolyline
 90
        4
 70
     1
 43
0.0
 10
3557.329126439851
 20
971.3357636975198
 10
3599.808888092149
 20
971.3357636975198
 10
3599.808888092149
 20
982.6341034637225
 10
3557.329126439851
 20
982.6341034637225
1001
GENIUS_GENREC_14
1002
{
1000
PYDIR
1011
3557.329126439851
1021
982.6341034637225
1031
0.0
1002
}
1002
{
1000
PXDIR
1011
3599.808888092149
1021
971.3357636975198
1031
0.0
1002
}
1002
{
1000
PORI
1011
3557.329126439851
1021
971.3357636975198
1031
0.0
1002
}
1002
{
1000
PINS
1011
3557.329126439851
1021
971.3357636975198
1031
0.0
1002
}
1002
{
1000
PINS2
1011
3599.808888092149
1021
982.6341034637225
1031
0.0
1002
}
1002
{
1000
C
1070
     1
1002
}
1001
GENIUS_GENOBJ-N-REC_13
1002
{
1000
OWNER
1000
GEN
1002
}
1001
GENIUS_GENODEF_13
1002
{
1000
HIER
1070
     0
1002
}
1002
{
1000
MANEDIT
1070
     0
1002
}
1002
{
1000
NOSEL
1070
     0
1002
}
1002
{
1000
BEHIND
1070
     0
1002
}
1002
{
1000
OTHER
1070
     0
1002
}
1002
{
1000
REACTOR
1002
}
  0
INSERT
  5
163A8F
330
1F
100
AcDbEntity
  8
000
 48
0.5
100
AcDbBlockReference
  2
*S16
 10
0.0
 20
0.0
 30
0.0
  0
LWPOLYLINE
  5
163A90
330
1F
100
AcDbEntity
  8
000
 48
0.5
100
AcDbPolyline
 90
        4
 70
     1
 43
0.0
 10
3744.754042044391
 20
-4020.193239487444
 10
3775.897184332795
 20
-4020.193239487444
 10
3775.897184332795
 20
-4008.894899721241
 10
3744.754042044391
 20
-4008.89489972124
1001
GENIUS_GENREC_14
1002
{
1000
PYDIR
1011
3744.754042044391
1021
-4008.89489972124
1031
0.0
1002
}
1002
{
1000
PXDIR
1011
3775.897184332795
1021
-4020.193239487444
1031
0.0
1002
}
1002
{
1000
PORI
1011
3744.754042044391
1021
-4020.193239487444
1031
0.0
1002
}
1002
{
1000
PINS
1011
3744.754042044391
1021
-4020.193239487444
1031
0.0
1002
}
1002
{
1000
PINS2
1011
3775.897184332795
1021
-4008.894899721241
1031
0.0
1002
}
1002
{
1000
C
1070
     1
1002
}
1001
GENIUS_GENOBJ-N-REC_13
1002
{
1000
OWNER
1000
GEN
1002
}
1001
GENIUS_GENODEF_13
1002
{
1000
HIER
1070
     0
1002
}
1002
{
1000
MANEDIT
1070
     0
1002
}
1002
{
1000
NOSEL
1070
     0
1002
}
1002
{
1000
BEHIND
1070
     0
1002
}
1002
{
1000
OTHER
1070
     0
1002
}
1002
{
1000
REACTOR
1002
}
  0
AMDTACMWBLOCKBOMENTITY
  5
16600C
330
1F
100
AcDbEntity
  8
AM_5
 48
0.5
 92
        8
310
0800000000000000
  0
AMDTACMWBLOCKBOMENTITY
  5
16600D
330
1F
100
AcDbEntity
  8
AM_5
 48
0.5
 92
        8
310
0800000000000000
  0
AMDTACMWBLOCKBOMENTITY
  5
16600E
330
1F
100
AcDbEntity
  8
AM_5
 48
0.5
 92
        8
310
0800000000000000
  0
AMDTACMWBLOCKBOMENTITY
  5
16600F
330
1F
100
AcDbEntity
  8
AM_5
 48
0.5
 92
        8
310
0800000000000000
  0
AMDTACMWBLOCKBOMENTITY
  5
166010
330
1F
100
AcDbEntity
  8
AM_5
 48
0.5
 92
        8
310
0800000000000000
  0
AMDTACMWBLOCKBOMENTITY
  5
166011
330
1F
100
AcDbEntity
  8
AM_5
 48
0.5
 92
        8
310
0800000000000000
  0
AMDTACMWBLOCKBOMENTITY
  5
166012
330
1F
100
AcDbEntity
  8
AM_5
 48
0.5
 92
        8
310
0800000000000000
  0
AMDTACMWBLOCKBOMENTITY
  5
166013
330
1F
100
AcDbEntity
  8
AM_5
 48
0.5
 92
        8
310
0800000000000000
  0
AMDTACMWBLOCKBOMENTITY
  5
166014
330
1F
100
AcDbEntity
  8
AM_5
 48
0.5
 92
        8
310
0800000000000000
  0
AMDTACMWBLOCKBOMENTITY
  5
166015
330
1F
100
AcDbEntity
  8
AM_5
 48
0.5
 92
        8
310
0800000000000000
  0
AMDTACMWBLOCKBOMENTITY
  5
166016
330
1F
100
AcDbEntity
  8
AM_5
 48
0.5
 92
        8
310
0800000000000000
  0
AMDTACMWBLOCKBOMENTITY
  5
166017
330
1F
100
AcDbEntity
  8
AM_5
 48
0.5
 92
        8
310
0800000000000000
  0
AMDTACMWBLOCKBOMENTITY
  5
166018
330
1F
100
AcDbEntity
  8
AM_5
 48
0.5
 92
        8
310
0800000000000000
  0
AMDTACMWBLOCKBOMENTITY
  5
166019
330
1F
100
AcDbEntity
  8
AM_5
 48
0.5
 92
        8
310
0800000000000000
  0
AMDTACMWBLOCKBOMENTITY
  5
16601A
330
1F
100
AcDbEntity
  8
AM_5
 48
0.5
 92
        8
310
0800000000000000
  0
AMDTACMWBLOCKBOMENTITY
  5
16601B
330
1F
100
AcDbEntity
  8
AM_5
 48
0.5
 92
        8
310
0800000000000000
  0
AMDTACMWBLOCKBOMENTITY
  5
16601C
330
1F
100
AcDbEntity
  8
AM_5
 48
0.5
 92
        8
310
0800000000000000
  0
AMDTACMWBLOCKBOMENTITY
  5
16601D
330
1F
100
AcDbEntity
  8
AM_5
 48
0.5
 92
        8
310
0800000000000000
  0
AMDTACMWBLOCKBOMENTITY
  5
16601E
330
1F
100
AcDbEntity
  8
AM_5
 48
0.5
 92
        8
310
0800000000000000
  0
AMDTACMWBLOCKBOMENTITY
  5
16601F
330
1F
100
AcDbEntity
  8
AM_5
 48
0.5
 92
        8
310
0800000000000000
  0
AMDTACMWBLOCKBOMENTITY
  5
166020
330
1F
100
AcDbEntity
  8
AM_5
 48
0.5
 92
        8
310
0800000000000000
  0
AMDTACMWBLOCKBOMENTITY
  5
166021
330
1F
100
AcDbEntity
  8
AM_5
 48
0.5
 92
        8
310
0800000000000000
  0
AMDTACMWBLOCKBOMENTITY
  5
166022
330
1F
100
AcDbEntity
  8
AM_5
 48
0.5
 92
        8
310
0800000000000000
  0
AMDTACMWBLOCKBOMENTITY
  5
166023
330
1F
100
AcDbEntity
  8
AM_5
 48
0.5
 92
        8
310
0800000000000000
  0
AMDTACMWBLOCKBOMENTITY
  5
166024
330
1F
100
AcDbEntity
  8
AM_5
 48
0.5
 92
        8
310
0800000000000000
  0
AMDTACMWBLOCKBOMENTITY
  5
166025
330
1F
100
AcDbEntity
  8
AM_5
 48
0.5
 92
        8
310
0800000000000000
  0
AMDTACMWBLOCKBOMENTITY
  5
166026
330
1F
100
AcDbEntity
  8
AM_5
 48
0.5
 92
        8
310
0800000000000000
  0
AMDTACMWBLOCKBOMENTITY
  5
166027
330
1F
100
AcDbEntity
  8
AM_5
 48
0.5
 92
        8
310
0800000000000000
  0
MTEXT
  5
167619
330
1F
100
AcDbEntity
  8
AM_5
 48
0.5
100
AcDbMText
 10
4460.870601619766
 20
1033.930205495231
 30
0.0
 40
3.5
 41
0.0
 71
     5
 72
     5
  1

 73
     1
 44
1.0
1001
ACAD
1000
MTEXTBEGIN
1070
    73
1070
     1
1070
    44
1040
1.0
1070
    74
1070
     0
1000
MTEXTEND
  0
INSERT
  5
194AE1
330
1F
100
AcDbEntity
  8
AM_0
100
AcDbBlockReference
  2
588845556
 10
0.0
 20
0.0
 30
0.0
  0
LINE
  5
1DD7EB
330
1F
100
AcDbEntity
  8
AM_INV
100
AcDbLine
 10
7394.600132215245
 20
-413.5650959646832
 30
0.0
 11
7394.600132215245
 21
-413.5940540642228
 31
0.0
1001
GENIUS_GENBH_13
1002
{
1000
OA
1000
0部品3
1070
   256
1000
ByLayer
1005
1DAC6B
1005
15
1071
       -1
1002
}
1001
GENIUS_GENOREF_13
1005
1DE96F
  0
ARC
  5
1DD7EC
330
1F
100
AcDbEntity
  8
AM_INV
100
AcDbCircle
 10
7395.600132215246
 20
-413.5650959646832
 30
0.0
 40
0.9999999999999053
100
AcDbArc
 50
90.0
 51
115.9005565240433
1001
GENIUS_GENODEF_13
1002
{
1000
HIER
1070
     0
1002
}
1002
{
1000
MANEDIT
1070
     0
1002
}
1002
{
1000
NOSEL
1070
     0
1002
}
1002
{
1000
BEHIND
1070
     0
1002
}
1002
{
1000
OTHER
1070
     0
1002
}
1002
{
1000
REACTOR
1002
}
1001
GENIUS_GENOBJ-N-FIL_13
1002
{
1000
OWNER
1000
GEN
1002
}
1001
GENIUS_GENBH_13
1002
{
1000
OA
1000
0部品3
1070
   256
1000
ByLayer
1005
1DAC6B
1005
15
1071
       -1
1002
}
1001
GENIUS_GENOREF_13
1005
1DE96F
  0
LINE
  5
1DD7EE
330
1F
100
AcDbEntity
  8
AM_INV
100
AcDbLine
 10
7395.600132215246
 20
-415.0650959646831
 30
0.0
 11
7395.809182612085
 21
-415.0650959646831
 31
0.0
1001
GENIUS_GENBH_13
1002
{
1000
OA
1000
0部品3
1070
   256
1000
ByLayer
1005
1DAC6B
1005
15
1071
       -1
1002
}
1001
GENIUS_GENOREF_13
1005
1DE96F
  0
ARC
  5
1DD8AF
330
1F
100
AcDbEntity
  8
AM_INV
 48
0.1
100
AcDbCircle
 10
7393.600132215245
 20
-413.5650959646833
 30
0.0
 40
1.000000000000144
100
AcDbArc
 50
0.0
 51
36.29212665490354
1001
GENIUS_GENOBJ-N-FIL_13
1002
{
1000
OWNER
1000
GEN
1002
}
1001
GENIUS_GENODEF_13
1002
{
1000
HIER
1070
     0
1002
}
1002
{
1000
MANEDIT
1070
     0
1002
}
1002
{
1000
NOSEL
1070
     0
1002
}
1002
{
1000
BEHIND
1070
     0
1002
}
1002
{
1000
OTHER
1070
     0
1002
}
1002
{
1000
REACTOR
1002
}
1001
GENIUS_GENBH_13
1002
{
1000
OA
1000
0部品3
1070
   256
1000
想像線1
1005
1DAC6B
1005
5183
1071
       13
1002
}
1001
GENIUS_GENOREF_13
1005
1DE96F
  0
LINE
  5
1DD8B1
330
1F
100
AcDbEntity
  8
AM_INV
 48
0.1
100
AcDbLine
 10
7389.600132215246
 20
-413.5650959646832
 30
0.0
 11
7389.600132215246
 21
-413.8011963424611
 31
0.0
1001
GENIUS_GENBH_13
1002
{
1000
OA
1000
0部品3
1070
   256
1000
想像線1
1005
1DAC6B
1005
5183
1071
       13
1002
}
1001
GENIUS_GENOREF_13
1005
1DE96F
  0
LINE
  5
1DD8B4
330
1F
100
AcDbEntity
  8
AM_INV
 48
0.1
100
AcDbLine
 10
7390.600132215246
 20
-415.0650959646831
 30
0.0
 11
7390.681605786308
 21
-415.0650959646831
 31
0.0
1001
GENIUS_GENBH_13
1002
{
1000
OA
1000
0部品3
1070
   256
1000
想像線1
1005
1DAC6B
1005
5183
1071
       13
1002
}
1001
GENIUS_GENOREF_13
1005
1DE96F
  0
LINE
  5
1DE958
330
1F
100
AcDbEntity
  8
AM_INV
 48
0.1
100
AcDbLine
 10
7390.681605786308
 20
-415.0650959646831
 30
0.0
 11
7390.733607269043
 21
-415.0650959646831
 31
0.0
1001
GENIUS_GENBH_13
1002
{
1000
OA
1000
0部品3
1070
   256
1000
想像線1
1005
1DAC6B
1005
5183
1071
       13
1002
}
1001
GENIUS_GENOREF_13
1005
1DE96F
  0
ARC
  5
1DE959
330
1F
100
AcDbEntity
  8
AM_INV
 48
0.1
100
AcDbCircle
 10
7390.600132215246
 20
-414.0650959646832
 30
0.0
 40
1.0
100
AcDbArc
 50
229.8505370939515
 51
270.0
1001
GENIUS_GENOBJ-N-FIL_13
1002
{
1000
OWNER
1000
GEN
1002
}
1001
GENIUS_GENODEF_13
1002
{
1000
HIER
1070
     0
1002
}
1002
{
1000
MANEDIT
1070
     0
1002
}
1002
{
1000
NOSEL
1070
     0
1002
}
1002
{
1000
BEHIND
1070
     0
1002
}
1002
{
1000
OTHER
1070
     0
1002
}
1002
{
1000
REACTOR
1002
}
1001
GENIUS_GENBH_13
1002
{
1000
OA
1000
0部品3
1070
   256
1000
想像線1
1005
1DAC6B
1005
5183
1071
       13
1002
}
1001
GENIUS_GENOREF_13
1005
1DE96F
  0
ARC
  5
1DE95A
330
1F
100
AcDbEntity
  8
AM_INV
 48
0.1
100
AcDbCircle
 10
7390.600132215245
 20
-413.5650959646832
 30
0.0
 40
1.0
100
AcDbArc
 50
144.792852164262
 51
180.0
1001
GENIUS_GENODEF_13
1002
{
1000
HIER
1070
     0
1002
}
1002
{
1000
MANEDIT
1070
     0
1002
}
1002
{
1000
NOSEL
1070
     0
1002
}
1002
{
1000
BEHIND
1070
     0
1002
}
1002
{
1000
OTHER
1070
     0
1002
}
1002
{
1000
REACTOR
1002
}
1001
GENIUS_GENOBJ-N-FIL_13
1002
{
1000
OWNER
1000
GEN
1002
}
1001
GENIUS_GENBH_13
1002
{
1000
OA
1000
0部品3
1070
   256
1000
想像線1
1005
1DAC6B
1005
5183
1071
       13
1002
}
1001
GENIUS_GENOREF_13
1005
1DE96F
  0
LINE
  5
1DE95B
330
1F
100
AcDbEntity
  8
AM_INV
 48
0.1
100
AcDbLine
 10
7389.600132215246
 20
-413.8011963424611
 30
0.0
 11
7389.600132215246
 21
-413.8289955869011
 31
0.0
1001
GENIUS_GENBH_13
1002
{
1000
OA
1000
0部品3
1070
   256
1000
想像線1
1005
1DAC6B
1005
5183
1071
       13
1002
}
1001
GENIUS_GENOREF_13
1005
1DE96F
  0
ARC
  5
1DE95D
330
1F
100
AcDbEntity
  8
AM_INV
 48
0.1
100
AcDbCircle
 10
7393.600132215245
 20
-413.5650959646833
 30
0.0
 40
1.000000000000027
100
AcDbArc
 50
64.09611193490815
 51
69.22731117564743
1001
GENIUS_GENOBJ-N-FIL_13
1002
{
1000
OWNER
1000
GEN
1002
}
1001
GENIUS_GENODEF_13
1002
{
1000
HIER
1070
     0
1002
}
1002
{
1000
MANEDIT
1070
     0
1002
}
1002
{
1000
NOSEL
1070
     0
1002
}
1002
{
1000
BEHIND
1070
     0
1002
}
1002
{
1000
OTHER
1070
     0
1002
}
1002
{
1000
REACTOR
1002
}
1001
GENIUS_GENBH_13
1002
{
1000
OA
1000
0部品3
1070
   256
1000
想像線1
1005
1DAC6B
1005
5183
1071
       13
1002
}
1001
GENIUS_GENOREF_13
1005
1DE96F
  0
LINE
  5
1DE95E
330
1F
100
AcDbEntity
  8
AM_INV
 48
0.1
100
AcDbLine
 10
7393.145394317667
 20
-412.5650959646832
 30
0.0
 11
7392.376132956615
 21
-412.5650959646832
 31
0.0
1001
GENIUS_GENBH_13
1002
{
1000
OA
1000
0部品3
1070
   256
1000
想像線1
1005
1DAC6B
1005
5183
1071
       13
1002
}
1001
GENIUS_GENOREF_13
1005
1DE96F
  0
LINE
  5
1DE95F
330
1F
100
AcDbEntity
  8
AM_INV
 48
0.1
100
AcDbLine
 10
7392.376132956615
 20
-412.5650959646832
 30
0.0
 11
7392.324131473879
 21
-412.5650959646832
 31
0.0
1001
GENIUS_GENBH_13
1002
{
1000
OA
1000
0部品3
1070
   256
1000
想像線1
1005
1DAC6B
1005
5183
1071
       13
1002
}
1001
GENIUS_GENOREF_13
1005
1DE96F
  0
LINE
  5
1DE960
330
1F
100
AcDbEntity
  8
AM_INV
 48
0.1
100
AcDbLine
 10
7391.502868630094
 20
-412.5650959646832
 30
0.0
 11
7390.733607269043
 21
-412.5650959646832
 31
0.0
1001
GENIUS_GENBH_13
1002
{
1000
OA
1000
0部品3
1070
   256
1000
想像線1
1005
1DAC6B
1005
5183
1071
       13
1002
}
1001
GENIUS_GENOREF_13
1005
1DE96F
  0
LINE
  5
1DE961
330
1F
100
AcDbEntity
  8
AM_INV
 48
0.1
100
AcDbLine
 10
7390.733607269043
 20
-412.5650959646832
 30
0.0
 11
7390.681605786308
 21
-412.5650959646832
 31
0.0
1001
GENIUS_GENBH_13
1002
{
1000
OA
1000
0部品3
1070
   256
1000
想像線1
1005
1DAC6B
1005
5183
1071
       13
1002
}
1001
GENIUS_GENOREF_13
1005
1DE96F
  0
LINE
  5
1DE963
330
1F
100
AcDbEntity
  8
AM_INV
 48
0.1
100
AcDbLine
 10
7394.600132215247
 20
-413.5940540642181
 30
0.0
 11
7394.600132215247
 21
-413.5650959646831
 31
0.0
1001
GENIUS_GENBH_13
1002
{
1000
OA
1000
0部品3
1070
   256
1000
想像線1
1005
1DAC6B
1005
5183
1071
       13
1002
}
1001
GENIUS_GENOREF_13
1005
1DE96F
  0
LINE
  5
1DE964
330
1F
100
AcDbEntity
  8
AM_INV
 48
0.5
100
AcDbLine
 10
7395.809182612085
 20
-415.0650959646831
 30
0.0
 11
7396.100132215245
 21
-415.0650959646831
 31
0.0
1001
GENIUS_GENBH_13
1002
{
1000
OA
1000
0部品3
1070
   256
1000
ByLayer
1005
1DAC6B
1005
15
1071
       -1
1002
}
1001
GENIUS_GENOREF_13
1005
1DE96F
  0
ARC
  5
1DE965
330
1F
100
AcDbEntity
  8
AM_INV
 48
0.5
100
AcDbCircle
 10
7395.600132215246
 20
-414.0650959646832
 30
0.0
 40
0.9999999999999918
100
AcDbArc
 50
225.0239728381559
 51
244.0994434761329
1001
GENIUS_GENOBJ-N-FIL_13
1002
{
1000
OWNER
1000
GEN
1002
}
1001
GENIUS_GENODEF_13
1002
{
1000
HIER
1070
     0
1002
}
1002
{
1000
MANEDIT
1070
     0
1002
}
1002
{
1000
NOSEL
1070
     0
1002
}
1002
{
1000
BEHIND
1070
     0
1002
}
1002
{
1000
OTHER
1070
     0
1002
}
1002
{
1000
REACTOR
1002
}
1001
GENIUS_GENBH_13
1002
{
1000
OA
1000
0部品3
1070
   256
1000
ByLayer
1005
1DAC6B
1005
15
1071
       -1
1002
}
1001
GENIUS_GENOREF_13
1005
1DE96F
  0
ARC
  5
1DE966
330
1F
100
AcDbEntity
  8
AM_INV
 48
0.5
100
AcDbCircle
 10
7395.600132215246
 20
-414.0650959646832
 30
0.0
 40
1.0
100
AcDbArc
 50
244.0994434761329
 51
270.0
1001
GENIUS_GENOBJ-N-FIL_13
1002
{
1000
OWNER
1000
GEN
1002
}
1001
GENIUS_GENODEF_13
1002
{
1000
HIER
1070
     0
1002
}
1002
{
1000
MANEDIT
1070
     0
1002
}
1002
{
1000
NOSEL
1070
     0
1002
}
1002
{
1000
BEHIND
1070
     0
1002
}
1002
{
1000
OTHER
1070
     0
1002
}
1002
{
1000
REACTOR
1002
}
1001
GENIUS_GENBH_13
1002
{
1000
OA
1000
0部品3
1070
   256
1000
ByLayer
1005
1DAC6B
1005
15
1071
       -1
1002
}
1001
GENIUS_GENOREF_13
1005
1DE96F
  0
ARC
  5
1DE967
330
1F
100
AcDbEntity
  8
AM_INV
 48
0.5
100
AcDbCircle
 10
7395.600132215246
 20
-413.5650959646832
 30
0.0
 40
1.0
100
AcDbArc
 50
157.7691671110711
 51
180.0
1001
GENIUS_GENODEF_13
1002
{
1000
HIER
1070
     0
1002
}
1002
{
1000
MANEDIT
1070
     0
1002
}
1002
{
1000
NOSEL
1070
     0
1002
}
1002
{
1000
BEHIND
1070
     0
1002
}
1002
{
1000
OTHER
1070
     0
1002
}
1002
{
1000
REACTOR
1002
}
1001
GENIUS_GENOBJ-N-FIL_13
1002
{
1000
OWNER
1000
GEN
1002
}
1001
GENIUS_GENBH_13
1002
{
1000
OA
1000
0部品3
1070
   256
1000
ByLayer
1005
1DAC6B
1005
15
1071
       -1
1002
}
1001
GENIUS_GENOREF_13
1005
1DE96F
  0
LINE
  5
1DE968
330
1F
100
AcDbEntity
  8
AM_INV
 48
0.5
100
AcDbLine
 10
7394.600132215245
 20
-413.5940540642228
 30
0.0
 11
7394.600132215247
 21
-414.0361378651698
 31
0.0
1001
GENIUS_GENBH_13
1002
{
1000
OA
1000
0部品3
1070
   256
1000
ByLayer
1005
1DAC6B
1005
15
1071
       -1
1002
}
1001
GENIUS_GENOREF_13
1005
1DE96F
  0
POINT
  5
1DE96F
330
1F
100
AcDbEntity
  8
0
 60
     1
100
AcDbPoint
 10
0.0
 20
0.0
 30
0.0
1001
GENIUS_GENOBJ-NBEHI-BHB_13
1002
{
1000
OWNER
1000
genbehi
1002
}
1001
GENIUS_GENOENT_13
1002
{
1000
MYREF
1005
1DE96F
1002
}
1002
{
1000
GRP
1005
0
1002
}
1001
GENIUS_GENBH_13
1002
{
1000
FGO
1005
1DE96E
1002
}
1001
GENIUS_GENOLIS_13
1002
{
1000
ENT
1005
1DE980
1005
1DE97F
1005
1DE97E
1005
1DE97D
1005
1DE97C
1005
1DE97B
1005
1DE97A
1005
1DE979
1005
1DE978
1005
1DE977
1005
1DE976
1005
1DE975
1005
1DE974
1005
1DE973
1005
1DE972
1005
1DE971
1005
1DE970
1005
1DE969
1005
1DE968
1005
1DE967
1005
1DE966
1005
1DE965
1005
1DE964
1005
1DE963
1005
1DE962
1005
1DE961
1005
1DE960
1005
1DE95F
1005
1DE95E
1005
1DE95D
1005
1DE95C
1005
1DE95B
1005
1DE95A
1005
1DE959
1005
1DE958
1005
1DE935
1005
1DD8B4
1005
1DD8B3
1005
1DD8B2
1005
1DD8B1
1005
1DD8B0
1005
1DD8AF
1005
1DD8AE
1005
1DD8AD
1005
1DD7EE
1005
1DD7ED
1005
1DD7EC
1005
1DD7EB
1005
1DD7EA
1005
1DD7E8
1005
1DD7E5
1005
1DD7DA
1002
}
1001
GENIUS_GENODEF_13
1002
{
1000
HIER
1070
     1
1002
}
1002
{
1000
MANEDIT
1070
     1
1002
}
1002
{
1000
NOSEL
1070
     1
1002
}
1002
{
1000
BEHIND
1070
     1
1002
}
1002
{
1000
OTHER
1070
     1
1002
}
1002
{
1000
REACTOR
1002
}
  0
LINE
  5
1DE970
330
1F
100
AcDbEntity
  8
AM_INV
 48
0.5
100
AcDbLine
 10
7395.809182612082
 20
-412.5650959646832
 30
0.0
 11
7395.600132215246
 21
-412.5650959646832
 31
0.0
1001
GENIUS_GENBH_13
1002
{
1000
OA
1000
0部品3
1070
   256
1000
ByLayer
1005
1DAC6B
1005
15
1071
       -1
1002
}
1001
GENIUS_GENOREF_13
1005
1DE96F
  0
LINE
  5
1DE972
330
1F
100
AcDbEntity
  8
AM_INV
 48
0.1
100
AcDbLine
 10
7394.600132215247
 20
-414.0361378651702
 30
0.0
 11
7394.600132215247
 21
-413.5940540642181
 31
0.0
1001
GENIUS_GENBH_13
1002
{
1000
OA
1000
0部品3
1070
   256
1000
想像線1
1005
1DAC6B
1005
5183
1071
       13
1002
}
1001
GENIUS_GENOREF_13
1005
1DE96F
  0
LINE
  5
1DE975
330
1F
100
AcDbEntity
  8
AM_INV
 48
0.1
100
AcDbLine
 10
7391.554870112827
 20
-412.5650959646832
 30
0.0
 11
7391.502868630094
 21
-412.5650959646832
 31
0.0
1001
GENIUS_GENBH_13
1002
{
1000
OA
1000
0部品3
1070
   256
1000
想像線1
1005
1DAC6B
1005
5183
1071
       13
1002
}
1001
GENIUS_GENOREF_13
1005
1DE96F
  0
ARC
  5
1DE979
330
1F
100
AcDbEntity
  8
AM_INV
 48
0.1
100
AcDbCircle
 10
7390.600132215246
 20
-414.0650959646832
 30
0.0
 40
0.9999999999999506
100
AcDbArc
 50
215.2071478353783
 51
229.8505370939494
1001
GENIUS_GENOBJ-N-FIL_13
1002
{
1000
OWNER
1000
GEN
1002
}
1001
GENIUS_GENODEF_13
1002
{
1000
HIER
1070
     0
1002
}
1002
{
1000
MANEDIT
1070
     0
1002
}
1002
{
1000
NOSEL
1070
     0
1002
}
1002
{
1000
BEHIND
1070
     0
1002
}
1002
{
1000
OTHER
1070
     0
1002
}
1002
{
1000
REACTOR
1002
}
1001
GENIUS_GENBH_13
1002
{
1000
OA
1000
0部品3
1070
   256
1000
想像線1
1005
1DAC6B
1005
5183
1071
       13
1002
}
1001
GENIUS_GENOREF_13
1005
1DE96F
  0
ARC
  5
1DE97A
330
1F
100
AcDbEntity
  8
AM_INV
 48
0.1
100
AcDbCircle
 10
7390.600132215245
 20
-413.5650959646832
 30
0.0
 40
1.000000000000117
100
AcDbArc
 50
130.1494629060443
 51
144.7928521642567
1001
GENIUS_GENODEF_13
1002
{
1000
HIER
1070
     0
1002
}
1002
{
1000
MANEDIT
1070
     0
1002
}
1002
{
1000
NOSEL
1070
     0
1002
}
1002
{
1000
BEHIND
1070
     0
1002
}
1002
{
1000
OTHER
1070
     0
1002
}
1002
{
1000
REACTOR
1002
}
1001
GENIUS_GENOBJ-N-FIL_13
1002
{
1000
OWNER
1000
GEN
1002
}
1001
GENIUS_GENBH_13
1002
{
1000
OA
1000
0部品3
1070
   256
1000
想像線1
1005
1DAC6B
1005
5183
1071
       13
1002
}
1001
GENIUS_GENOREF_13
1005
1DE96F
  0
ARC
  5
1DE97C
330
1F
100
AcDbEntity
  8
AM_INV
 48
0.1
100
AcDbCircle
 10
7393.600132215245
 20
-413.5650959646833
 30
0.0
 40
0.9999999999999333
100
AcDbArc
 50
36.73284903982033
 51
64.09611193490673
1001
GENIUS_GENOBJ-N-FIL_13
1002
{
1000
OWNER
1000
GEN
1002
}
1001
GENIUS_GENODEF_13
1002
{
1000
HIER
1070
     0
1002
}
1002
{
1000
MANEDIT
1070
     0
1002
}
1002
{
1000
NOSEL
1070
     0
1002
}
1002
{
1000
BEHIND
1070
     0
1002
}
1002
{
1000
OTHER
1070
     0
1002
}
1002
{
1000
REACTOR
1002
}
1001
GENIUS_GENBH_13
1002
{
1000
OA
1000
0部品3
1070
   256
1000
想像線1
1005
1DAC6B
1005
5183
1071
       13
1002
}
1001
GENIUS_GENOREF_13
1005
1DE96F
  0
LINE
  5
1DE97D
330
1F
100
AcDbEntity
  8
AM_INV
 48
0.1
100
AcDbLine
 10
7393.197395800398
 20
-412.5650959646832
 30
0.0
 11
7393.145394317667
 21
-412.5650959646832
 31
0.0
1001
GENIUS_GENBH_13
1002
{
1000
OA
1000
0部品3
1070
   256
1000
想像線1
1005
1DAC6B
1005
5183
1071
       13
1002
}
1001
GENIUS_GENOREF_13
1005
1DE96F
  0
ARC
  5
1DE97E
330
1F
100
AcDbEntity
  8
AM_INV
 48
0.5
100
AcDbCircle
 10
7395.600132215246
 20
-414.0650959646832
 30
0.0
 40
1.000000000000047
100
AcDbArc
 50
202.230832887565
 51
225.0239728381582
1001
GENIUS_GENOBJ-N-FIL_13
1002
{
1000
OWNER
1000
GEN
1002
}
1001
GENIUS_GENODEF_13
1002
{
1000
HIER
1070
     0
1002
}
1002
{
1000
MANEDIT
1070
     0
1002
}
1002
{
1000
NOSEL
1070
     0
1002
}
1002
{
1000
BEHIND
1070
     0
1002
}
1002
{
1000
OTHER
1070
     0
1002
}
1002
{
1000
REACTOR
1002
}
1001
GENIUS_GENBH_13
1002
{
1000
OA
1000
0部品3
1070
   256
1000
ByLayer
1005
1DAC6B
1005
15
1071
       -1
1002
}
1001
GENIUS_GENOREF_13
1005
1DE96F
  0
ARC
  5
1DE980
330
1F
100
AcDbEntity
  8
AM_INV
 48
0.5
100
AcDbCircle
 10
7395.600132215246
 20
-413.5650959646832
 30
0.0
 40
0.9999999999998877
100
AcDbArc
 50
134.9760271619961
 51
157.7691671110772
1001
GENIUS_GENODEF_13
1002
{
1000
HIER
1070
     0
1002
}
1002
{
1000
MANEDIT
1070
     0
1002
}
1002
{
1000
NOSEL
1070
     0
1002
}
1002
{
1000
BEHIND
1070
     0
1002
}
1002
{
1000
OTHER
1070
     0
1002
}
1002
{
1000
REACTOR
1002
}
1001
GENIUS_GENOBJ-N-FIL_13
1002
{
1000
OWNER
1000
GEN
1002
}
1001
GENIUS_GENBH_13
1002
{
1000
OA
1000
0部品3
1070
   256
1000
ByLayer
1005
1DAC6B
1005
15
1071
       -1
1002
}
1001
GENIUS_GENOREF_13
1005
1DE96F
  0
ARC
  5
1DF869
330
1F
100
AcDbEntity
  8
AM_INV
100
AcDbCircle
 10
7225.374436621553
 20
-586.4681901749523
 30
0.0
 40
1.0
100
AcDbArc
 50
90.0
 51
180.0000000002214
1001
GENIUS_GENODEF_13
1002
{
1000
HIER
1070
     0
1002
}
1002
{
1000
MANEDIT
1070
     0
1002
}
1002
{
1000
NOSEL
1070
     0
1002
}
1002
{
1000
BEHIND
1070
     0
1002
}
1002
{
1000
OTHER
1070
     0
1002
}
1002
{
1000
REACTOR
1002
}
1001
GENIUS_GENOBJ-N-FIL_13
1002
{
1000
OWNER
1000
GEN
1002
}
1001
GENIUS_GENOREF_13
1005
1DF8ED
1001
GENIUS_GENBH_13
1002
{
1000
OA
1000
0部品3
1070
   256
1000
ByLayer
1005
1DAC6B
1005
15
1071
       -1
1002
}
  0
ARC
  5
1DF86A
330
1F
100
AcDbEntity
  8
AM_INV
100
AcDbCircle
 10
7225.374436621554
 20
-586.9681901749522
 30
0.0
 40
1.000000000000113
100
AcDbArc
 50
180.0
 51
270.0
1001
GENIUS_GENOBJ-N-FIL_13
1002
{
1000
OWNER
1000
GEN
1002
}
1001
GENIUS_GENODEF_13
1002
{
1000
HIER
1070
     0
1002
}
1002
{
1000
MANEDIT
1070
     0
1002
}
1002
{
1000
NOSEL
1070
     0
1002
}
1002
{
1000
BEHIND
1070
     0
1002
}
1002
{
1000
OTHER
1070
     0
1002
}
1002
{
1000
REACTOR
1002
}
1001
GENIUS_GENOREF_13
1005
1DF8ED
1001
GENIUS_GENBH_13
1002
{
1000
OA
1000
0部品3
1070
   256
1000
ByLayer
1005
1DAC6B
1005
15
1071
       -1
1002
}
  0
LINE
  5
1DF899
330
1F
100
AcDbEntity
  8
AM_INV
100
AcDbLine
 10
7225.874436621554
 20
-587.9681901749522
 30
0.0
 11
7225.874436621554
 21
-588.9397134860014
 31
0.0
1001
GENIUS_GENOREF_13
1005
1DF8ED
1001
GENIUS_GENBH_13
1002
{
1000
OA
1000
0部品3
1070
   256
1000
ByLayer
1005
1DAC6B
1005
15
1071
       -1
1002
}
  0
LINE
  5
1DF89E
330
1F
100
AcDbEntity
  8
AM_INV
100
AcDbLine
 10
7224.374436621554
 20
-586.4681901749561
 30
0.0
 11
7224.374436621554
 21
-586.9681901749522
 31
0.0
1001
GENIUS_GENOREF_13
1005
1DF8ED
1001
GENIUS_GENBH_13
1002
{
1000
OA
1000
0部品3
1070
   256
1000
ByLayer
1005
1DAC6B
1005
15
1071
       -1
1002
}
  0
LINE
  5
1DF89F
330
1F
100
AcDbEntity
  8
AM_INV
100
AcDbLine
 10
7225.374436621554
 20
-587.9681901749522
 30
0.0
 11
7225.874436621554
 21
-587.9681901749522
 31
0.0
1001
GENIUS_GENOREF_13
1005
1DF8ED
1001
GENIUS_GENBH_13
1002
{
1000
OA
1000
0部品3
1070
   256
1000
ByLayer
1005
1DAC6B
1005
15
1071
       -1
1002
}
  0
POINT
  5
1DF8ED
330
1F
100
AcDbEntity
  8
0
 60
     1
100
AcDbPoint
 10
0.0
 20
0.0
 30
0.0
1001
GENIUS_GENOENT_13
1002
{
1000
MYREF
1005
1DF8ED
1002
}
1002
{
1000
GRP
1005
0
1002
}
1001
GENIUS_GENOBJ-NBEHI-BHB_13
1002
{
1000
OWNER
1000
genbehi
1002
}
1001
GENIUS_GENBH_13
1002
{
1000
FGO
1005
1DF8EC
1002
}
1001
GENIUS_GENOLIS_13
1002
{
1000
ENT
1005
1DF8EF
1005
1DF8EE
1005
1DF8C6
1005
1DF89F
1005
1DF89E
1005
1DF899
1005
1DF86A
1005
1DF869
1005
1DF867
1005
1DF83D
1005
1DF833
1002
}
1001
GENIUS_GENODEF_13
1002
{
1000
HIER
1070
     1
1002
}
1002
{
1000
MANEDIT
1070
     1
1002
}
1002
{
1000
NOSEL
1070
     1
1002
}
1002
{
1000
BEHIND
1070
     1
1002
}
1002
{
1000
OTHER
1070
     1
1002
}
1002
{
1000
REACTOR
1002
}
  0
LINE
  5
1DF8EF
330
1F
100
AcDbEntity
  8
AM_INV
 48
0.5
100
AcDbLine
 10
7226.08672874534
 20
-585.4681901749522
 30
0.0
 11
7225.374436621553
 21
-585.4681901749522
 31
0.0
1001
GENIUS_GENOREF_13
1005
1DF8ED
1001
GENIUS_GENBH_13
1002
{
1000
OA
1000
0部品3
1070
   256
1000
ByLayer
1005
1DAC6B
1005
15
1071
       -1
1002
}
  0
TEXT
  5
1FC0BA
330
1F
100
AcDbEntity
  8
AM_6
 60
     1
100
AcDbText
 10
8258.353854082834
 20
-587.1524215554801
 30
0.0
 40
2.5
  1
!GENTITLE-LL
100
AcDbText
  0
TEXT
  5
1FC0BB
330
1F
100
AcDbEntity
  8
AM_6
 60
     1
100
AcDbText
 10
8666.853854082834
 20
-298.6524215554801
 30
0.0
 40
2.5
  1
!GENTITLE-RU
100
AcDbText
  0
TEXT
  5
1FC0BC
330
1F
100
AcDbEntity
  8
AM_6
 60
     1
100
AcDbText
 10
8678.353854082834
 20
-290.1524215554801
 30
0.0
 40
2.5
  1
!GENTITLE-MAX
100
AcDbText
  0
TEXT
  5
1FC0BD
330
1F
100
AcDbEntity
  8
AM_6
 60
     1
100
AcDbText
 10
8666.853854082834
 20
-578.6524215554801
 30
0.0
 40
2.5
  1
!GENTITLE-INSERT
100
AcDbText
  0
TEXT
  5
210E27
330
1F
100
AcDbEntity
  8
AM_6
100
AcDbText
 10
6601.590828436814
 20
-706.2212067987834
 30
0.0
 40
1.6
  1
座金
 41
0.84306961
100
AcDbText
  0
TEXT
  5
210E28
330
1F
100
AcDbEntity
  8
AM_6
100
AcDbText
 10
6601.590828436814
 20
-718.2212067987834
 30
0.0
 40
1.6
  1
電解研磨
 41
0.84350122
100
AcDbText
  0
TEXT
  5
210E29
330
1F
100
AcDbEntity
  8
AM_6
100
AcDbText
 10
6601.590828436814
 20
-714.2212067987834
 30
0.0
 40
1.6
  1
ステンレス
 41
0.84634979
100
AcDbText
  0
LINE
  5
210E2A
330
1F
100
AcDbEntity
  8
size
100
AcDbLine
 10
6584.412328436814
 20
-804.1712067987832
 30
0.0
 11
6732.912328436814
 21
-804.1712067987832
 31
0.0
1001
GENIUS_GENREC_14
1002
{
1000
PYDIR
1011
6584.412328436814
1021
-655.6712067987832
1031
0.0
1002
}
1002
{
1000
PXDIR
1011
6794.412328436813
1021
-804.1712067987832
1031
0.0
1002
}
1002
{
1000
PORI
1011
6584.412328436814
1021
-804.1712067987832
1031
0.0
1002
}
1002
{
1000
PINS
1011
6689.412328436813
1021
-729.9212067987832
1031
0.0
1002
}
1002
{
1000
HVAL
1000
297
1002
}
1002
{
1000
H
1070
     2
1002
}
1002
{
1000
WVAL
1000
420
1002
}
1002
{
1000
W
1070
     2
1002
}
1002
{
1000
C
1070
     4
1002
}
1001
GENIUS_GENOBJ-N-REC_13
1002
{
1000
OWNER
1000
GEN
1002
}
1001
GENIUS_GENODEF_13
1002
{
1000
HIER
1070
     0
1002
}
1002
{
1000
MANEDIT
1070
     0
1002
}
1002
{
1000
NOSEL
1070
     0
1002
}
1002
{
1000
BEHIND
1070
     0
1002
}
1002
{
1000
OTHER
1070
     0
1002
}
1002
{
1000
REACTOR
1002
}
  0
LINE
  5
210E2B
330
1F
100
AcDbEntity
  8
size
100
AcDbLine
 10
6584.412328436814
 20
-699.1712067987832
 30
0.0
 11
6584.412328436814
 21
-804.1712067987832
 31
0.0
1001
GENIUS_GENREC_14
1002
{
1000
PYDIR
1011
6584.412328436814
1021
-655.6712067987832
1031
0.0
1002
}
1002
{
1000
PXDIR
1011
6794.412328436813
1021
-804.1712067987832
1031
0.0
1002
}
1002
{
1000
PORI
1011
6584.412328436814
1021
-804.1712067987832
1031
0.0
1002
}
1002
{
1000
PINS
1011
6689.412328436813
1021
-729.9212067987832
1031
0.0
1002
}
1002
{
1000
HVAL
1000
297
1002
}
1002
{
1000
H
1070
     2
1002
}
1002
{
1000
WVAL
1000
420
1002
}
1002
{
1000
W
1070
     2
1002
}
1002
{
1000
C
1070
     4
1002
}
1001
GENIUS_GENOBJ-N-REC_13
1002
{
1000
OWNER
1000
GEN
1002
}
1001
GENIUS_GENODEF_13
1002
{
1000
HIER
1070
     0
1002
}
1002
{
1000
MANEDIT
1070
     0
1002
}
1002
{
1000
NOSEL
1070
     0
1002
}
1002
{
1000
BEHIND
1070
     0
1002
}
1002
{
1000
OTHER
1070
     0
1002
}
1002
{
1000
REACTOR
1002
}
  0
LINE
  5
210E2C
330
1F
100
AcDbEntity
  8
waku
100
AcDbLine
 10
6727.162328436813
 20
-799.9212067987833
 30
0.0
 11
6727.162328436813
 21
-703.4212067987832
 31
0.0
1001
GENIUS_GENREC_14
1002
{
1000
PYDIR
1011
6522.912328436813
1021
-696.1712067987832
1031
0.0
1002
}
1002
{
1000
PXDIR
1011
6732.912328436814
1021
-844.6712067987832
1031
0.0
1002
}
1002
{
1000
PORI
1011
6522.912328436813
1021
-844.6712067987832
1031
0.0
1002
}
1002
{
1000
PINS
1011
6627.912328436813
1021
-770.4212067987833
1031
0.0
1002
}
1002
{
1000
HVAL
1000
297
1002
}
1002
{
1000
H
1070
     2
1002
}
1002
{
1000
WVAL
1000
420
1002
}
1002
{
1000
W
1070
     2
1002
}
1002
{
1000
C
1070
     4
1002
}
1001
GENIUS_GENOBJ-N-REC_13
1002
{
1000
OWNER
1000
GEN
1002
}
1001
GENIUS_GENODEF_13
1002
{
1000
HIER
1070
     0
1002
}
1002
{
1000
MANEDIT
1070
     0
1002
}
1002
{
1000
NOSEL
1070
     0
1002
}
1002
{
1000
BEHIND
1070
     0
1002
}
1002
{
1000
OTHER
1070
     0
1002
}
1002
{
1000
REACTOR
1002
}
  0
LINE
  5
210E2D
330
1F
100
AcDbEntity
  8
waku
100
AcDbLine
 10
6590.162328436813
 20
-703.4212067987832
 30
0.0
 11
6590.162328436813
 21
-799.9212067987833
 31
0.0
1001
GENIUS_GENREC_14
1002
{
1000
PYDIR
1011
6584.412328436814
1021
-655.6712067987832
1031
0.0
1002
}
1002
{
1000
PXDIR
1011
6794.412328436813
1021
-804.1712067987832
1031
0.0
1002
}
1002
{
1000
PORI
1011
6584.412328436814
1021
-804.1712067987832
1031
0.0
1002
}
1002
{
1000
PINS
1011
6689.412328436813
1021
-729.9212067987832
1031
0.0
1002
}
1002
{
1000
HVAL
1000
297
1002
}
1002
{
1000
H
1070
     2
1002
}
1002
{
1000
WVAL
1000
420
1002
}
1002
{
1000
W
1070
     2
1002
}
1002
{
1000
C
1070
     4
1002
}
1001
GENIUS_GENOBJ-N-REC_13
1002
{
1000
OWNER
1000
GEN
1002
}
1001
GENIUS_GENODEF_13
1002
{
1000
HIER
1070
     0
1002
}
1002
{
1000
MANEDIT
1070
     0
1002
}
1002
{
1000
NOSEL
1070
     0
1002
}
1002
{
1000
BEHIND
1070
     0
1002
}
1002
{
1000
OTHER
1070
     0
1002
}
1002
{
1000
REACTOR
1002
}
  0
LINE
  5
210E2E
330
1F
100
AcDbEntity
  8
waku
100
AcDbLine
 10
6727.162328436813
 20
-703.4212067987832
 30
0.0
 11
6590.162328436813
 21
-703.4212067987832
 31
0.0
1001
GENIUS_GENREC_14
1002
{
1000
PYDIR
1011
6522.912328436813
1021
-699.1712067987832
1031
0.0
1002
}
1002
{
1000
PXDIR
1011
6732.912328436814
1021
-847.6712067987833
1031
0.0
1002
}
1002
{
1000
PORI
1011
6522.912328436813
1021
-847.6712067987833
1031
0.0
1002
}
1002
{
1000
PINS
1011
6627.912328436813
1021
-773.4212067987832
1031
0.0
1002
}
1002
{
1000
HVAL
1000
297
1002
}
1002
{
1000
H
1070
     2
1002
}
1002
{
1000
WVAL
1000
420
1002
}
1002
{
1000
W
1070
     2
1002
}
1002
{
1000
C
1070
     4
1002
}
1001
GENIUS_GENOBJ-N-REC_13
1002
{
1000
OWNER
1000
GEN
1002
}
1001
GENIUS_GENODEF_13
1002
{
1000
HIER
1070
     0
1002
}
1002
{
1000
MANEDIT
1070
     0
1002
}
1002
{
1000
NOSEL
1070
     0
1002
}
1002
{
1000
BEHIND
1070
     0
1002
}
1002
{
1000
OTHER
1070
     0
1002
}
1002
{
1000
REACTOR
1002
}
  0
LINE
  5
210E2F
330
1F
100
AcDbEntity
  8
waku
100
AcDbLine
 10
6590.162328436813
 20
-799.9212067987833
 30
0.0
 11
6727.162328436813
 21
-799.9212067987833
 31
0.0
1001
GENIUS_GENREC_14
1002
{
1000
PYDIR
1011
6584.412328436814
1021
-655.6712067987832
1031
0.0
1002
}
1002
{
1000
PXDIR
1011
6794.412328436813
1021
-804.1712067987832
1031
0.0
1002
}
1002
{
1000
PORI
1011
6584.412328436814
1021
-804.1712067987832
1031
0.0
1002
}
1002
{
1000
PINS
1011
6689.412328436813
1021
-729.9212067987832
1031
0.0
1002
}
1002
{
1000
HVAL
1000
297
1002
}
1002
{
1000
H
1070
     2
1002
}
1002
{
1000
WVAL
1000
420
1002
}
1002
{
1000
W
1070
     2
1002
}
1002
{
1000
C
1070
     4
1002
}
  0
LINE
  5
210E30
330
1F
100
AcDbEntity
  8
size
100
AcDbLine
 10
6732.912328436814
 20
-699.1712067987832
 30
0.0
 11
6732.912328436814
 21
-804.1712067987832
 31
0.0
1001
GENIUS_GENREC_14
1002
{
1000
PYDIR
1011
6584.412328436814
1021
-655.6712067987832
1031
0.0
1002
}
1002
{
1000
PXDIR
1011
6794.412328436813
1021
-804.1712067987832
1031
0.0
1002
}
1002
{
1000
PORI
1011
6584.412328436814
1021
-804.1712067987832
1031
0.0
1002
}
1002
{
1000
PINS
1011
6689.412328436813
1021
-729.9212067987832
1031
0.0
1002
}
1002
{
1000
HVAL
1000
297
1002
}
1002
{
1000
H
1070
     2
1002
}
1002
{
1000
WVAL
1000
420
1002
}
1002
{
1000
W
1070
     2
1002
}
1002
{
1000
C
1070
     4
1002
}
1001
GENIUS_GENOBJ-N-REC_13
1002
{
1000
OWNER
1000
GEN
1002
}
1001
GENIUS_GENODEF_13
1002
{
1000
HIER
1070
     0
1002
}
1002
{
1000
MANEDIT
1070
     0
1002
}
1002
{
1000
NOSEL
1070
     0
1002
}
1002
{
1000
BEHIND
1070
     0
1002
}
1002
{
1000
OTHER
1070
     0
1002
}
1002
{
1000
REACTOR
1002
}
  0
LINE
  5
210E31
330
1F
100
AcDbEntity
  8
size
100
AcDbLine
 10
6584.412328436814
 20
-699.1712067987832
 30
0.0
 11
6732.912328436814
 21
-699.1712067987832
 31
0.0
1001
GENIUS_GENREC_14
1002
{
1000
PYDIR
1011
6584.412328436814
1021
-655.6712067987832
1031
0.0
1002
}
1002
{
1000
PXDIR
1011
6794.412328436813
1021
-804.1712067987832
1031
0.0
1002
}
1002
{
1000
PORI
1011
6584.412328436814
1021
-804.1712067987832
1031
0.0
1002
}
1002
{
1000
PINS
1011
6678.736196333379
1021
-729.9212067987832
1031
0.0
1002
}
1002
{
1000
HVAL
1000
297
1002
}
1002
{
1000
H
1070
     2
1002
}
1002
{
1000
WVAL
1000
420
1002
}
1002
{
1000
W
1070
     2
1002
}
1002
{
1000
C
1070
     4
1002
}
1001
GENIUS_GENOBJ-N-REC_13
1002
{
1000
OWNER
1000
GEN
1002
}
1001
GENIUS_GENODEF_13
1002
{
1000
HIER
1070
     0
1002
}
1002
{
1000
MANEDIT
1070
     0
1002
}
1002
{
1000
NOSEL
1070
     0
1002
}
1002
{
1000
BEHIND
1070
     0
1002
}
1002
{
1000
OTHER
1070
     0
1002
}
1002
{
1000
REACTOR
1002
}
  0
LINE
  5
210E32
330
1F
100
AcDbEntity
  8
AM_2
100
AcDbLine
 10
6600.162328436813
 20
-703.4212067987832
 30
0.0
 11
6600.162328436813
 21
-719.4212067987832
 31
0.0
  0
LINE
  5
210E33
330
1F
100
AcDbEntity
  8
AM_2
100
AcDbLine
 10
6590.162328436813
 20
-707.4212067987832
 30
0.0
 11
6634.486196333378
 21
-707.4212067987832
 31
0.0
  0
LINE
  5
210E34
330
1F
100
AcDbEntity
  8
AM_2
100
AcDbLine
 10
6590.162328436813
 20
-711.4212067987832
 30
0.0
 11
6634.486196333378
 21
-711.4212067987832
 31
0.0
  0
LINE
  5
210E35
330
1F
100
AcDbEntity
  8
AM_2
100
AcDbLine
 10
6590.162328436813
 20
-715.4212067987832
 30
0.0
 11
6634.486196333378
 21
-715.4212067987832
 31
0.0
  0
LINE
  5
210E36
330
1F
100
AcDbEntity
  8
AM_0
100
AcDbLine
 10
6590.162328436813
 20
-719.4212067987832
 30
0.0
 11
6634.486196333378
 21
-719.4212067987832
 31
0.0
  0
LINE
  5
210E37
330
1F
100
AcDbEntity
  8
AM_0
100
AcDbLine
 10
6590.162328436813
 20
-703.4212067987832
 30
0.0
 11
6590.162328436813
 21
-719.4212067987832
 31
0.0
  0
LINE
  5
210E38
330
1F
100
AcDbEntity
  8
AM_0
100
AcDbLine
 10
6590.162328436813
 20
-703.4212067987832
 30
0.0
 11
6634.486196333378
 21
-703.4212067987832
 31
0.0
  0
LINE
  5
210E39
330
1F
100
AcDbEntity
  8
AM_0
100
AcDbLine
 10
6634.486196333378
 20
-703.4212067987832
 30
0.0
 11
6634.48619633338
 21
-719.4212067987832
 31
0.0
  0
TEXT
  5
210E3A
330
1F
100
AcDbEntity
  8
AM_6
100
AcDbText
 10
6592.990828436814
 20
-706.2212067987831
 30
0.0
 40
1.6
  1
品　名
 41
0.85537027
100
AcDbText
  0
TEXT
  5
210E3B
330
1F
100
AcDbEntity
  8
AM_6
100
AcDbText
 10
6592.990828436814
 20
-710.2212067987832
 30
0.0
 40
1.6
  1
品　番
 41
0.85537027
100
AcDbText
  0
TEXT
  5
210E3C
330
1F
100
AcDbEntity
  8
AM_6
100
AcDbText
 10
6592.990828436814
 20
-714.2212067987832
 30
0.0
 40
1.6
  1
材　質
 41
0.85537027
100
AcDbText
  0
TEXT
  5
210E3D
330
1F
100
AcDbEntity
  8
AM_6
100
AcDbText
 10
6592.990828436814
 20
-718.2212067987832
 30
0.0
 40
1.6
  1
仕上げ
 41
0.85537027
100
AcDbText
  0
LINE
  5
210E3E
102
{ACAD_REACTORS
330
210E54
102
}
330
1F
100
AcDbEntity
  8
0部品10
100
AcDbLine
 10
6653.924377043572
 20
-759.9295798314869
 30
0.0
 11
6671.924377043572
 21
-759.9295798314869
 31
0.0
  0
LINE
  5
210E3F
102
{ACAD_REACTORS
330
210E5D
102
}
330
1F
100
AcDbEntity
  8
0部品10
100
AcDbLine
 10
6655.424377043572
 20
-755.4295798314869
 30
0.0
 11
6670.424377043572
 21
-755.4295798314869
 31
0.0
  0
LINE
  5
210E40
330
1F
100
AcDbEntity
  8
0部品10
100
AcDbLine
 10
6656.824377043573
 20
-758.4295798314869
 30
0.0
 11
6669.024377043573
 21
-758.4295798314869
 31
0.0
  0
LINE
  5
210E41
102
{ACAD_REACTORS
330
210E57
102
}
330
1F
100
AcDbEntity
  8
0部品10
100
AcDbLine
 10
6656.824377043573
 20
-758.4295798314869
 30
0.0
 11
6656.824377043573
 21
-755.4295798314869
 31
0.0
  0
LINE
  5
210E42
102
{ACAD_REACTORS
330
210E57
102
}
330
1F
100
AcDbEntity
  8
0部品10
100
AcDbLine
 10
6669.024377043573
 20
-758.4295798314869
 30
0.0
 11
6669.024377043573
 21
-755.4295798314869
 31
0.0
  0
LINE
  5
210E43
102
{ACAD_REACTORS
330
210E60
102
}
330
1F
100
AcDbEntity
  8
0部品10
100
AcDbLine
 10
6658.824377043572
 20
-758.4295798314869
 30
0.0
 11
6658.824377043572
 21
-759.9295798314869
 31
0.0
  0
LINE
  5
210E44
102
{ACAD_REACTORS
330
210E60
102
}
330
1F
100
AcDbEntity
  8
0部品10
100
AcDbLine
 10
6667.024377043573
 20
-759.9295798314869
 30
0.0
 11
6667.024377043573
 21
-758.4295798314869
 31
0.0
  0
LINE
  5
210E45
102
{ACAD_REACTORS
330
210E5D
330
210E5A
102
}
330
1F
100
AcDbEntity
  8
0部品10
100
AcDbLine
 10
6653.924377043572
 20
-756.9295798314868
 30
0.0
 11
6653.924377043572
 21
-759.9295798314869
 31
0.0
  0
LINE
  5
210E46
330
1F
100
AcDbEntity
  8
0部品10
100
AcDbLine
 10
6655.424377043572
 20
-755.4295798314869
 30
0.0
 11
6653.924377043572
 21
-756.9295798314868
 31
0.0
1001
GENIUS_GENFIL_13
1070
     1
1040
0.0
1040
0.0
1040
1.5
1040
45.0
1002
{
1002
}
1001
GENIUS_GENOBJ-N-CHA_13
1002
{
1000
OWNER
1000
GEN
1002
}
1001
GENIUS_GENODEF_13
1002
{
1000
HIER
1070
     0
1002
}
1002
{
1000
MANEDIT
1070
     0
1002
}
1002
{
1000
NOSEL
1070
     0
1002
}
1002
{
1000
BEHIND
1070
     0
1002
}
1002
{
1000
OTHER
1070
     0
1002
}
1002
{
1000
REACTOR
1002
}
  0
LINE
  5
210E47
330
1F
100
AcDbEntity
  8
0部品10
100
AcDbLine
 10
6671.924377043572
 20
-759.9295798314869
 30
0.0
 11
6671.924377043572
 21
-756.9295798314868
 31
0.0
  0
LINE
  5
210E48
330
1F
100
AcDbEntity
  8
0部品10
100
AcDbLine
 10
6670.424377043572
 20
-755.4295798314869
 30
0.0
 11
6671.924377043572
 21
-756.9295798314868
 31
0.0
1001
GENIUS_GENFIL_13
1070
     1
1040
0.0
1040
0.0
1040
1.5
1040
45.0
1002
{
1002
}
1001
GENIUS_GENOBJ-N-CHA_13
1002
{
1000
OWNER
1000
GEN
1002
}
1001
GENIUS_GENODEF_13
1002
{
1000
HIER
1070
     0
1002
}
1002
{
1000
MANEDIT
1070
     0
1002
}
1002
{
1000
NOSEL
1070
     0
1002
}
1002
{
1000
BEHIND
1070
     0
1002
}
1002
{
1000
OTHER
1070
     0
1002
}
1002
{
1000
REACTOR
1002
}
  0
HATCH
  5
210E49
330
1F
100
AcDbEntity
  8
0部品10
  6
細線
 48
0.3
370
    13
100
AcDbHatch
 10
0.0
 20
0.0
 30
0.0
210
0.0
220
0.0
230
1.0
  2
_U
 70
     0
 71
     0
 91
        1
 92
        1
 93
        7
 72
     1
 10
6656.824377043573
 20
-755.4295798314869
 11
6655.424377043573
 21
-755.4295798314869
 72
     1
 10
6655.424377043572
 20
-755.4295798314869
 11
6653.924377043572
 21
-756.9295798314868
 72
     1
 10
6653.924377043572
 20
-756.9295798314868
 11
6653.924377043572
 21
-759.9295798314869
 72
     1
 10
6653.924377043572
 20
-759.9295798314869
 11
6658.824377043572
 21
-759.9295798314869
 72
     1
 10
6658.824377043572
 20
-759.9295798314869
 11
6658.824377043572
 21
-758.4295798314869
 72
     1
 10
6658.824377043572
 20
-758.4295798314869
 11
6656.824377043573
 21
-758.4295798314869
 72
     1
 10
6656.824377043573
 20
-758.4295798314869
 11
6656.824377043573
 21
-755.4295798314869
 97
        0
 75
     0
 76
     0
 52
45.0
 41
0.8
 77
     0
 78
     1
 53
45.0
 43
6581.660826880295
 44
-792.6583422101125
 45
-0.565685424949238
 46
0.5656854249492382
 79
     0
 98
        1
 10
6581.660826880295
 20
-792.6583422101125
1001
GENIUS_GENOBJ-N-HTC_13
1002
{
1000
OWNER
1000
GEN
1002
}
1001
GENIUS_GENODEF_13
1002
{
1000
HIER
1070
     0
1002
}
1002
{
1000
MANEDIT
1070
     0
1002
}
1002
{
1000
NOSEL
1070
     0
1002
}
1002
{
1000
BEHIND
1070
     0
1002
}
1002
{
1000
OTHER
1070
     0
1002
}
1002
{
1000
REACTOR
1002
}
1001
GENIUS_GENHATCH_13
1002
{
1000
DATA
1040
45.0
1042
2.5
1000
_U
1070
     0
1011
6655.86919283578
1021
-758.7327188645017
1031
0.0
1002
}
1002
{
1000
UCS
1010
0.0
1020
0.0
1030
0.0
1010
1.0
1020
0.0
1030
0.0
1010
0.0
1020
1.0
1030
0.0
1002
}
  0
HATCH
  5
210E4A
330
1F
100
AcDbEntity
  8
0部品10
  6
細線
 48
0.3
370
    13
100
AcDbHatch
 10
0.0
 20
0.0
 30
0.0
210
0.0
220
0.0
230
1.0
  2
_U
 70
     0
 71
     0
 91
        1
 92
        1
 93
        7
 72
     1
 10
6667.024377043573
 20
-758.4295798314869
 11
6667.024377043573
 21
-759.9295798314869
 72
     1
 10
6667.024377043573
 20
-759.9295798314869
 11
6671.924377043572
 21
-759.9295798314869
 72
     1
 10
6671.924377043572
 20
-759.9295798314869
 11
6671.924377043572
 21
-756.9295798314868
 72
     1
 10
6671.924377043572
 20
-756.9295798314868
 11
6670.424377043572
 21
-755.4295798314869
 72
     1
 10
6670.424377043572
 20
-755.4295798314869
 11
6669.024377043573
 21
-755.4295798314869
 72
     1
 10
6669.024377043573
 20
-755.4295798314869
 11
6669.024377043573
 21
-758.4295798314869
 72
     1
 10
6669.024377043573
 20
-758.4295798314869
 11
6667.024377043573
 21
-758.4295798314869
 97
        0
 75
     0
 76
     0
 52
45.0
 41
0.8
 77
     0
 78
     1
 53
45.0
 43
-3.019194441412764
 44
-2.190309289178003
 45
-0.565685424949238
 46
0.5656854249492382
 79
     0
 98
        1
 10
6581.660826880295
 20
-792.6583422101125
1001
GENIUS_GENOBJ-N-HTC_13
1002
{
1000
OWNER
1000
GEN
1002
}
1001
GENIUS_GENODEF_13
1002
{
1000
HIER
1070
     0
1002
}
1002
{
1000
MANEDIT
1070
     0
1002
}
1002
{
1000
NOSEL
1070
     0
1002
}
1002
{
1000
BEHIND
1070
     0
1002
}
1002
{
1000
OTHER
1070
     0
1002
}
1002
{
1000
REACTOR
1002
}
1001
GENIUS_GENHATCH_13
1002
{
1000
DATA
1040
45.0
1042
2.5
1000
_U
1070
     0
1011
6669.309384416063
1021
-758.9979283631578
1031
0.0
1002
}
1002
{
1000
UCS
1010
0.0
1020
0.0
1030
0.0
1010
1.0
1020
0.0
1030
0.0
1010
0.0
1020
1.0
1030
0.0
1002
}
1001
ACAD
1010
0.0
1020
0.0
1030
0.0
  0
CIRCLE
  5
210E4B
330
1F
100
AcDbEntity
  8
0部品10
100
AcDbCircle
 10
6662.924377043572
 20
-733.3094651451779
 30
0.0
 40
4.099999999999994
  0
CIRCLE
  5
210E4C
330
1F
100
AcDbEntity
  8
0部品10
100
AcDbCircle
 10
6662.924377043572
 20
-733.3094651451779
 30
0.0
 40
6.099999999999994
  0
CIRCLE
  5
210E4D
330
1F
100
AcDbEntity
  8
0部品10
100
AcDbCircle
 10
6662.924377043572
 20
-733.3094651451779
 30
0.0
 40
7.5
  0
CIRCLE
  5
210E4E
330
1F
100
AcDbEntity
  8
0部品10
100
AcDbCircle
 10
6662.924377043572
 20
-733.3094651451779
 30
0.0
 40
9.0
  0
LINE
  5
210E4F
330
1F
100
AcDbEntity
  8
0部品10
  6
中心線1
 48
0.3
370
    13
100
AcDbLine
 10
6662.924377043572
 20
-722.8094651451779
 30
0.0
 11
6662.924377043572
 21
-743.8094651451779
 31
0.0
1001
GENIUS_GENODEF_13
1002
{
1000
HIER
1070
     0
1002
}
1002
{
1000
MANEDIT
1070
     0
1002
}
1002
{
1000
NOSEL
1070
     0
1002
}
1002
{
1000
BEHIND
1070
     0
1002
}
1002
{
1000
OTHER
1070
     0
1002
}
1002
{
1000
REACTOR
1002
}
1001
GENIUS_GENOBJ-N-CEN_13
1002
{
1000
OWNER
1000
GEN
1002
}
1001
GENIUS_GENCEN_19
1002
{
1040
1.5
1002
}
  0
LINE
  5
210E50
330
1F
100
AcDbEntity
  8
0部品10
  6
中心線1
 48
0.3
370
    13
100
AcDbLine
 10
6652.424377043573
 20
-733.3094651451779
 30
0.0
 11
6673.424377043573
 21
-733.3094651451779
 31
0.0
1001
GENIUS_GENOBJ-N-CEN_13
1002
{
1000
OWNER
1000
GEN
1002
}
1001
GENIUS_GENODEF_13
1002
{
1000
HIER
1070
     0
1002
}
1002
{
1000
MANEDIT
1070
     0
1002
}
1002
{
1000
NOSEL
1070
     0
1002
}
1002
{
1000
BEHIND
1070
     0
1002
}
1002
{
1000
OTHER
1070
     0
1002
}
1002
{
1000
REACTOR
1002
}
1001
GENIUS_GENCEN_19
1002
{
1040
1.5
1002
}
  0
LINE
  5
210E51
330
1F
100
AcDbEntity
  8
0部品10
  6
中心線1
 48
0.3
370
    13
100
AcDbLine
 10
6662.924377043572
 20
-753.9295798314868
 30
0.0
 11
6662.924377043572
 21
-761.4295798314868
 31
0.0
1001
GENIUS_GENODEF_13
1002
{
1000
HIER
1070
     0
1002
}
1002
{
1000
MANEDIT
1070
     0
1002
}
1002
{
1000
NOSEL
1070
     0
1002
}
1002
{
1000
BEHIND
1070
     0
1002
}
1002
{
1000
OTHER
1070
     0
1002
}
1002
{
1000
REACTOR
1002
}
1001
GENIUS_GENOBJ-N-CEN_13
1002
{
1000
OWNER
1000
GEN
1002
}
1001
GENIUS_GENCEN_19
1002
{
1040
1.5
1002
}
  0
DIMENSION
  5
210E52
102
{ACAD_XDICTIONARY
360
210E53
102
}
102
{ACAD_REACTORS
330
210E54
102
}
330
1F
100
AcDbEntity
  8
AM_5
100
AcDbDimension
  2
*D10
 10
6671.924377043572
 20
-767.9295798314869
 30
0.0
 11
6662.924377043572
 21
-767.9295798314869
 31
0.0
 70
   160
  1
%%cD
 71
     5
 42
18.0
  3
SYS$0
100
AcDbAlignedDimension
 13
6653.924377043572
 23
-759.9295798314869
 33
0.0
 14
6671.924377043572
 24
-759.9295798314869
 34
0.0
100
AcDbRotatedDimension
1001
ACAD
1000
DSTYLE
1002
{
1070
    40
1040
0.5
1002
}
  0
DIMENSION
  5
210E55
102
{ACAD_XDICTIONARY
360
210E56
102
}
102
{ACAD_REACTORS
330
210E57
102
}
330
1F
100
AcDbEntity
  8
AM_5
100
AcDbDimension
  2
*D11
 10
6669.024377043573
 20
-751.4295798314869
 30
0.0
 11
6662.924377043573
 21
-751.4295798314869
 31
0.0
 70
   160
  1
%%cA
 71
     5
 42
12.19999999999982
  3
SYS$0
100
AcDbAlignedDimension
 13
6656.824377043573
 23
-755.4295798314869
 33
0.0
 14
6669.024377043573
 24
-755.4295798314869
 34
0.0
100
AcDbRotatedDimension
1001
ACAD
1000
DSTYLE
1002
{
1070
    40
1040
0.5
1002
}
  0
DIMENSION
  5
210E58
102
{ACAD_XDICTIONARY
360
210E59
102
}
102
{ACAD_REACTORS
330
210E5A
102
}
330
1F
100
AcDbEntity
  8
AM_5
100
AcDbDimension
  2
*D12
 10
6649.924377043572
 20
-759.9295798314869
 30
0.0
 11
6649.924377043572
 21
-761.7762464981525
 31
0.0
 70
   160
  1
E
 71
     5
 42
1.5
  3
SYS$0
100
AcDbAlignedDimension
 13
6656.824377043573
 23
-758.4295798314869
 33
0.0
 14
6653.924377043572
 24
-759.9295798314869
 34
0.0
 50
90.0
100
AcDbRotatedDimension
1001
ACAD
1000
DSTYLE
1002
{
1070
    40
1040
0.5
1002
}
  0
DIMENSION
  5
210E5B
102
{ACAD_XDICTIONARY
360
210E5C
102
}
102
{ACAD_REACTORS
330
210E5D
102
}
330
1F
100
AcDbEntity
  8
AM_5
100
AcDbDimension
  2
*D13
 10
6645.924377043572
 20
-759.9295798314869
 30
0.0
 11
6645.924377043572
 21
-757.6795798314858
 31
0.0
 70
   160
  1
B
 71
     5
 42
4.5
  3
SYS$0
100
AcDbAlignedDimension
 13
6655.424377043572
 23
-755.4295798314869
 33
0.0
 14
6653.924377043572
 24
-759.9295798314869
 34
0.0
 50
90.0
100
AcDbRotatedDimension
1001
ACAD
1000
DSTYLE
1002
{
1070
    40
1040
0.5
1002
}
  0
DIMENSION
  5
210E5E
102
{ACAD_XDICTIONARY
360
210E5F
102
}
102
{ACAD_REACTORS
330
210E60
102
}
330
1F
100
AcDbEntity
  8
AM_5
100
AcDbDimension
  2
*D14
 10
6667.024377043573
 20
-763.9295798314869
 30
0.0
 11
6662.924377043573
 21
-763.9295798314869
 31
0.0
 70
   160
  1
%%cC
 71
     5
 42
8.199999999999818
  3
SYS$0
100
AcDbAlignedDimension
 13
6658.824377043572
 23
-759.9295798314869
 33
0.0
 14
6667.024377043573
 24
-759.9295798314869
 34
0.0
100
AcDbRotatedDimension
1001
ACAD
1000
DSTYLE
1002
{
1070
    40
1040
0.5
1002
}
  0
LINE
  5
210E61
330
1F
100
AcDbEntity
  8
AM_2
100
AcDbLine
 10
6612.247602661267
 20
-767.9212067987832
 30
0.0
 11
6612.247602661267
 21
-799.9212067987833
 31
0.0
  0
LINE
  5
210E62
330
1F
100
AcDbEntity
  8
AM_0
100
AcDbLine
 10
6590.162328436813
 20
-771.9212067987832
 30
0.0
 11
6644.247602661268
 21
-771.9212067987832
 31
0.0
  0
LINE
  5
210E63
330
1F
100
AcDbEntity
  8
AM_2
100
AcDbLine
 10
6590.162328436813
 20
-775.9212067987832
 30
0.0
 11
6644.247602661268
 21
-775.9212067987832
 31
0.0
  0
LINE
  5
210E64
330
1F
100
AcDbEntity
  8
AM_2
100
AcDbLine
 10
6590.162328436813
 20
-779.9212067987832
 30
0.0
 11
6628.247602661267
 21
-779.9212067987832
 31
0.0
  0
LINE
  5
210E65
330
1F
100
AcDbEntity
  8
AM_2
100
AcDbLine
 10
6590.162328436813
 20
-783.9212067987832
 30
0.0
 11
6612.247602661267
 21
-783.9212067987832
 31
0.0
  0
LINE
  5
210E66
330
1F
100
AcDbEntity
  8
AM_0
100
AcDbLine
 10
6604.247602661267
 20
-767.9212067987832
 30
0.0
 11
6604.247602661264
 21
-799.9212067987833
 31
0.0
  0
LINE
  5
210E67
330
1F
100
AcDbEntity
  8
AM_0
100
AcDbLine
 10
6590.162328436813
 20
-767.9212067987832
 30
0.0
 11
6644.247602661268
 21
-767.9212067987832
 31
0.0
  0
LINE
  5
210E68
330
1F
100
AcDbEntity
  8
AM_2
100
AcDbLine
 10
6590.162328436813
 20
-787.9212067987833
 30
0.0
 11
6612.247602661267
 21
-787.9212067987833
 31
0.0
  0
LINE
  5
210E69
330
1F
100
AcDbEntity
  8
AM_2
100
AcDbLine
 10
6620.247602661267
 20
-767.9212067987832
 30
0.0
 11
6620.247602661267
 21
-799.9212067987833
 31
0.0
  0
LINE
  5
210E6A
330
1F
100
AcDbEntity
  8
AM_2
100
AcDbLine
 10
6628.247602661267
 20
-767.9212067987832
 30
0.0
 11
6628.247602661267
 21
-799.9212067987833
 31
0.0
  0
LINE
  5
210E6B
330
1F
100
AcDbEntity
  8
AM_2
100
AcDbLine
 10
6636.247602661268
 20
-767.9212067987832
 30
0.0
 11
6636.247602661268
 21
-799.9212067987833
 31
0.0
  0
LINE
  5
210E6C
330
1F
100
AcDbEntity
  8
AM_0
100
AcDbLine
 10
6644.247602661268
 20
-767.9212067987832
 30
0.0
 11
6644.247602661268
 21
-799.9212067987833
 31
0.0
  0
LINE
  5
210E6E
330
1F
100
AcDbEntity
  8
AM_0
100
AcDbLine
 10
6590.162328436813
 20
-767.9212067987832
 30
0.0
 11
6590.162328436813
 21
-799.9212067987833
 31
0.0
  0
MTEXT
  5
210E6F
330
1F
100
AcDbEntity
  8
AM_6
100
AcDbMText
 10
6597.204965549039
 20
-769.9212067987832
 30
0.0
 40
1.6
 41
14.08527422445422
 71
     5
 72
     5
  1
品 番
 73
     1
 44
1.0
1001
ACAD
1000
MTEXTBEGIN
1070
    73
1070
     1
1070
    44
1040
1.0
1070
    74
1070
     0
1000
MTEXTEND
  0
TEXT
  5
210E70
330
1F
100
AcDbEntity
  8
AM_6
100
AcDbText
 10
6601.590828436814
 20
-710.2212067987834
 30
0.0
 40
1.6
  1
EB-201
 41
0.84634979
100
AcDbText
  0
MTEXT
  5
210E71
330
1F
100
AcDbEntity
  8
AM_6
100
AcDbMText
 10
6608.247602661268
 20
-769.9212067987832
 30
0.0
 40
1.6
 41
8.000000000000028
 71
     5
 72
     5
  1
A
 73
     1
 44
1.0
1001
ACAD
1000
MTEXTBEGIN
1070
    73
1070
     1
1070
    44
1040
1.0
1070
    74
1070
     0
1000
MTEXTEND
  0
MTEXT
  5
210E72
330
1F
100
AcDbEntity
  8
AM_6
100
AcDbMText
 10
6616.247602661267
 20
-769.9212067987832
 30
0.0
 40
1.6
 41
8.000000000000028
 71
     5
 72
     5
  1
B
 73
     1
 44
1.0
1001
ACAD
1000
MTEXTBEGIN
1070
    73
1070
     1
1070
    44
1040
1.0
1070
    74
1070
     0
1000
MTEXTEND
  0
MTEXT
  5
210E73
330
1F
100
AcDbEntity
  8
AM_6
100
AcDbMText
 10
6624.247602661267
 20
-769.9212067987832
 30
0.0
 40
1.6
 41
8.000000000000028
 71
     5
 72
     5
  1
C
 73
     1
 44
1.0
1001
ACAD
1000
MTEXTBEGIN
1070
    73
1070
     1
1070
    44
1040
1.0
1070
    74
1070
     0
1000
MTEXTEND
  0
MTEXT
  5
210E74
330
1F
100
AcDbEntity
  8
AM_6
100
AcDbMText
 10
6632.247602661268
 20
-769.9212067987832
 30
0.0
 40
1.6
 41
8.000000000000028
 71
     5
 72
     5
  1
D
 73
     1
 44
1.0
1001
ACAD
1000
MTEXTBEGIN
1070
    73
1070
     1
1070
    44
1040
1.0
1070
    74
1070
     0
1000
MTEXTEND
  0
MTEXT
  5
210E75
330
1F
100
AcDbEntity
  8
AM_6
100
AcDbMText
 10
6640.247602661268
 20
-769.921206798783
 30
0.0
 40
1.6
 41
8.000000000000028
 71
     5
 72
     5
  1
E
 73
     1
 44
1.0
1001
ACAD
1000
MTEXTBEGIN
1070
    73
1070
     1
1070
    44
1040
1.0
1070
    74
1070
     0
1000
MTEXTEND
  0
MTEXT
  5
210E77
330
1F
100
AcDbEntity
  8
AM_6
100
AcDbMText
 10
6608.247602661268
 20
-797.9212067987832
 30
0.0
 40
1.6
 41
8.000000000000028
 71
     5
 72
     5
  1
12.2
 73
     1
 44
1.0
1001
ACAD
1000
MTEXTBEGIN
1070
    73
1070
     1
1070
    44
1040
1.0
1070
    74
1070
     0
1000
MTEXTEND
  0
MTEXT
  5
210E78
330
1F
100
AcDbEntity
  8
AM_6
100
AcDbMText
 10
6616.247602661267
 20
-797.9212067987832
 30
0.0
 40
1.6
 41
8.000000000000028
 71
     5
 72
     5
  1
4.5
 73
     1
 44
1.0
1001
ACAD
1000
MTEXTBEGIN
1070
    73
1070
     1
1070
    44
1040
1.0
1070
    74
1070
     0
1000
MTEXTEND
  0
MTEXT
  5
210E79
330
1F
100
AcDbEntity
  8
AM_6
100
AcDbMText
 10
6624.247602661269
 20
-797.9212067987832
 30
0.0
 40
1.6
 41
8.000000000000028
 71
     5
 72
     5
  1
8.2
 73
     1
 44
1.0
1001
ACAD
1000
MTEXTBEGIN
1070
    73
1070
     1
1070
    44
1040
1.0
1070
    74
1070
     0
1000
MTEXTEND
  0
MTEXT
  5
210E7A
330
1F
100
AcDbEntity
  8
AM_6
100
AcDbMText
 10
6632.247602661269
 20
-797.9212067987832
 30
0.0
 40
1.6
 41
8.000000000000028
 71
     5
 72
     5
  1
18
 73
     1
 44
1.0
1001
ACAD
1000
MTEXTBEGIN
1070
    73
1070
     1
1070
    44
1040
1.0
1070
    74
1070
     0
1000
MTEXTEND
  0
MTEXT
  5
210E7B
330
1F
100
AcDbEntity
  8
AM_6
100
AcDbMText
 10
6640.247602661268
 20
-795.9212067987833
 30
0.0
 40
1.6
 41
8.000000000000028
 71
     5
 72
     5
  1
1.5
 73
     1
 44
1.0
1001
ACAD
1000
MTEXTBEGIN
1070
    73
1070
     1
1070
    44
1040
1.0
1070
    74
1070
     0
1000
MTEXTEND
1000
ACAD_MTEXT_DEFINED_HEIGHT_BEGIN
1070
    46
1040
7.999999999999976
1000
ACAD_MTEXT_DEFINED_HEIGHT_END
  0
MTEXT
  5
210E7C
330
1F
100
AcDbEntity
  8
AM_6
100
AcDbMText
 10
6608.247602661268
 20
-793.9212067987832
 30
0.0
 40
1.6
 41
8.000000000000028
 71
     5
 72
     5
  1
10.2
 73
     1
 44
1.0
1001
ACAD
1000
MTEXTBEGIN
1070
    73
1070
     1
1070
    44
1040
1.0
1070
    74
1070
     0
1000
MTEXTEND
  0
MTEXT
  5
210E7D
330
1F
100
AcDbEntity
  8
AM_6
100
AcDbMText
 10
6616.247602661267
 20
-793.9212067987832
 30
0.0
 40
1.6
 41
8.000000000000028
 71
     5
 72
     5
  1
3.5
 73
     1
 44
1.0
1001
ACAD
1000
MTEXTBEGIN
1070
    73
1070
     1
1070
    44
1040
1.0
1070
    74
1070
     0
1000
MTEXTEND
  0
MTEXT
  5
210E7E
330
1F
100
AcDbEntity
  8
AM_6
100
AcDbMText
 10
6624.247602661269
 20
-793.9212067987832
 30
0.0
 40
1.6
 41
8.000000000000028
 71
     5
 72
     5
  1
6.2
 73
     1
 44
1.0
1001
ACAD
1000
MTEXTBEGIN
1070
    73
1070
     1
1070
    44
1040
1.0
1070
    74
1070
     0
1000
MTEXTEND
  0
MTEXT
  5
210E7F
330
1F
100
AcDbEntity
  8
AM_6
100
AcDbMText
 10
6632.247602661269
 20
-793.9212067987832
 30
0.0
 40
1.6
 41
8.000000000000028
 71
     5
 72
     5
  1
15
 73
     1
 44
1.0
1001
ACAD
1000
MTEXTBEGIN
1070
    73
1070
     1
1070
    44
1040
1.0
1070
    74
1070
     0
1000
MTEXTEND
  0
MTEXT
  5
210E81
330
1F
100
AcDbEntity
  8
AM_6
100
AcDbMText
 10
6608.247602661268
 20
-789.9212067987832
 30
0.0
 40
1.6
 41
8.000000000000028
 71
     5
 72
     5
  1
9.2
 73
     1
 44
1.0
1001
ACAD
1000
MTEXTBEGIN
1070
    73
1070
     1
1070
    44
1040
1.0
1070
    74
1070
     0
1000
MTEXTEND
  0
MTEXT
  5
210E84
330
1F
100
AcDbEntity
  8
AM_6
100
AcDbMText
 10
6632.247602661269
 20
-789.9212067987832
 30
0.0
 40
1.6
 41
8.000000000000028
 71
     5
 72
     5
  1
13
 73
     1
 44
1.0
1001
ACAD
1000
MTEXTBEGIN
1070
    73
1070
     1
1070
    44
1040
1.0
1070
    74
1070
     0
1000
MTEXTEND
  0
MTEXT
  5
210E86
330
1F
100
AcDbEntity
  8
AM_6
100
AcDbMText
 10
6608.247602661268
 20
-781.9212067987832
 30
0.0
 40
1.6
 41
8.000000000000028
 71
     5
 72
     5
  1
7.2
 73
     1
 44
1.0
1001
ACAD
1000
MTEXTBEGIN
1070
    73
1070
     1
1070
    44
1040
1.0
1070
    74
1070
     0
1000
MTEXTEND
  0
MTEXT
  5
210E87
330
1F
100
AcDbEntity
  8
AM_6
100
AcDbMText
 10
6616.247602661267
 20
-785.9212067987832
 30
0.0
 40
1.6
 41
7.999999999999118
 71
     5
 72
     5
  1
3
 73
     1
 44
1.0
1001
ACAD
1000
MTEXTBEGIN
1070
    73
1070
     1
1070
    44
1040
1.0
1070
    74
1070
     0
1000
MTEXTEND
1000
ACAD_MTEXT_DEFINED_HEIGHT_BEGIN
1070
    46
1040
11.99999999999986
1000
ACAD_MTEXT_DEFINED_HEIGHT_END
  0
MTEXT
  5
210E88
330
1F
100
AcDbEntity
  8
AM_6
100
AcDbMText
 10
6624.247602661269
 20
-785.9212067987832
 30
0.0
 40
1.6
 41
7.999999999999118
 71
     5
 72
     5
  1
5.2
 73
     1
 44
1.0
1001
ACAD
1000
MTEXTBEGIN
1070
    73
1070
     1
1070
    44
1040
1.0
1070
    74
1070
     0
1000
MTEXTEND
1000
ACAD_MTEXT_DEFINED_HEIGHT_BEGIN
1070
    46
1040
11.99999999999997
1000
ACAD_MTEXT_DEFINED_HEIGHT_END
  0
MTEXT
  5
210E89
330
1F
100
AcDbEntity
  8
AM_6
100
AcDbMText
 10
6632.247602661269
 20
-779.9212067987832
 30
0.0
 40
1.6
 41
7.999999999999118
 71
     5
 72
     5
  1
10
 73
     1
 44
1.0
1001
ACAD
1000
MTEXTBEGIN
1070
    73
1070
     1
1070
    44
1040
1.0
1070
    74
1070
     0
1000
MTEXTEND
1000
ACAD_MTEXT_DEFINED_HEIGHT_BEGIN
1070
    46
1040
7.999999999999976
1000
ACAD_MTEXT_DEFINED_HEIGHT_END
  0
MTEXT
  5
210E8A
330
1F
100
AcDbEntity
  8
AM_6
100
AcDbMText
 10
6640.247602661268
 20
-785.9212067987832
 30
0.0
 40
1.6
 41
8.000000000000028
 71
     5
 72
     5
  1
1
 73
     1
 44
1.0
1001
ACAD
1000
MTEXTBEGIN
1070
    73
1070
     1
1070
    44
1040
1.0
1070
    74
1070
     0
1000
MTEXTEND
1000
ACAD_MTEXT_DEFINED_HEIGHT_BEGIN
1070
    46
1040
11.99999999999997
1000
ACAD_MTEXT_DEFINED_HEIGHT_END
  0
MTEXT
  5
210E90
330
1F
100
AcDbEntity
  8
AM_6
100
AcDbMText
 10
6597.204965549041
 20
-781.9212067987832
 30
0.0
 40
1.6
 41
8.000000000000028
 71
     5
 72
     5
  1
EB-201-3
 73
     1
 44
1.0
1001
ACAD
1000
MTEXTBEGIN
1070
    73
1070
     1
1070
    44
1040
1.0
1070
    74
1070
     0
1000
MTEXTEND
  0
MTEXT
  5
210E91
330
1F
100
AcDbEntity
  8
AM_6
100
AcDbMText
 10
6597.204965549041
 20
-789.9212067987832
 30
0.0
 40
1.6
 41
8.000000000000028
 71
     5
 72
     5
  1
EB-201-5
 73
     1
 44
1.0
1001
ACAD
1000
MTEXTBEGIN
1070
    73
1070
     1
1070
    44
1040
1.0
1070
    74
1070
     0
1000
MTEXTEND
  0
MTEXT
  5
210E92
330
1F
100
AcDbEntity
  8
AM_6
100
AcDbMText
 10
6597.204965549041
 20
-793.9212067987832
 30
0.0
 40
1.6
 41
8.000000000000028
 71
     5
 72
     5
  1
EB-201-6
 73
     1
 44
1.0
1001
ACAD
1000
MTEXTBEGIN
1070
    73
1070
     1
1070
    44
1040
1.0
1070
    74
1070
     0
1000
MTEXTEND
  0
MTEXT
  5
210E93
330
1F
100
AcDbEntity
  8
AM_6
100
AcDbMText
 10
6597.204965549041
 20
-797.9212067987832
 30
0.0
 40
1.6
 41
8.000000000000028
 71
     5
 72
     5
  1
EB-201-7
 73
     1
 44
1.0
1001
ACAD
1000
MTEXTBEGIN
1070
    73
1070
     1
1070
    44
1040
1.0
1070
    74
1070
     0
1000
MTEXTEND
  0
LINE
  5
210ED2
330
1F
100
AcDbEntity
  8
AM_2
100
AcDbLine
 10
6590.162328436813
 20
-791.9212067987833
 30
0.0
 11
6644.247602661268
 21
-791.9212067987833
 31
0.0
  0
LINE
  5
210ED3
330
1F
100
AcDbEntity
  8
AM_2
100
AcDbLine
 10
6590.162328436813
 20
-795.9212067987833
 30
0.0
 11
6636.247602661268
 21
-795.9212067987833
 31
0.0
  0
LINE
  5
210ED4
330
1F
100
AcDbEntity
  8
AM_0
100
AcDbLine
 10
6590.162328436813
 20
-799.9212067987833
 30
0.0
 11
6644.247602661268
 21
-799.9212067987833
 31
0.0
  0
MTEXT
  5
210ED5
330
1F
100
AcDbEntity
  8
AM_6
100
AcDbMText
 10
6597.204965549041
 20
-777.9212067987832
 30
0.0
 40
1.6
 41
8.000000000000028
 71
     5
 72
     5
  1
EB-201-2
 73
     1
 44
1.0
1001
ACAD
1000
MTEXTBEGIN
1070
    73
1070
     1
1070
    44
1040
1.0
1070
    74
1070
     0
1000
MTEXTEND
  0
MTEXT
  5
210ED6
330
1F
100
AcDbEntity
  8
AM_6
100
AcDbMText
 10
6597.204965549041
 20
-785.9212067987832
 30
0.0
 40
1.6
 41
8.000000000000028
 71
     5
 72
     5
  1
EB-201-4
 73
     1
 44
1.0
1001
ACAD
1000
MTEXTBEGIN
1070
    73
1070
     1
1070
    44
1040
1.0
1070
    74
1070
     0
1000
MTEXTEND
  0
MTEXT
  5
210ED7
330
1F
100
AcDbEntity
  8
AM_6
100
AcDbMText
 10
6597.204965549041
 20
-773.9212067987832
 30
0.0
 40
1.6
 41
8.000000000000028
 71
     5
 72
     5
  1
EB-201-1
 73
     1
 44
1.0
1001
ACAD
1000
MTEXTBEGIN
1070
    73
1070
     1
1070
    44
1040
1.0
1070
    74
1070
     0
1000
MTEXTEND
  0
MTEXT
  5
210ED8
330
1F
100
AcDbEntity
  8
AM_6
100
AcDbMText
 10
6608.247602661268
 20
-773.9212067987832
 30
0.0
 40
1.6
 41
8.000000000000028
 71
     5
 72
     5
  1
4.2
 73
     1
 44
1.0
1001
ACAD
1000
MTEXTBEGIN
1070
    73
1070
     1
1070
    44
1040
1.0
1070
    74
1070
     0
1000
MTEXTEND
  0
MTEXT
  5
210ED9
330
1F
100
AcDbEntity
  8
AM_6
100
AcDbMText
 10
6608.247602661268
 20
-777.9212067987832
 30
0.0
 40
1.6
 41
8.000000000000028
 71
     5
 72
     5
  1
6.2
 73
     1
 44
1.0
1001
ACAD
1000
MTEXTBEGIN
1070
    73
1070
     1
1070
    44
1040
1.0
1070
    74
1070
     0
1000
MTEXTEND
  0
MTEXT
  5
210EDA
330
1F
100
AcDbEntity
  8
AM_6
100
AcDbMText
 10
6608.247602661268
 20
-785.9212067987832
 30
0.0
 40
1.6
 41
8.000000000000028
 71
     5
 72
     5
  1
8.2
 73
     1
 44
1.0
1001
ACAD
1000
MTEXTBEGIN
1070
    73
1070
     1
1070
    44
1040
1.0
1070
    74
1070
     0
1000
MTEXTEND
  0
MTEXT
  5
210EDB
330
1F
100
AcDbEntity
  8
AM_6
100
AcDbMText
 10
6616.247602661267
 20
-773.9212067987832
 30
0.0
 40
1.6
 41
8.000000000000028
 71
     5
 72
     5
  1
2
 73
     1
 44
1.0
1001
ACAD
1000
MTEXTBEGIN
1070
    73
1070
     1
1070
    44
1040
1.0
1070
    74
1070
     0
1000
MTEXTEND
  0
MTEXT
  5
210EDC
330
1F
100
AcDbEntity
  8
AM_6
100
AcDbMText
 10
6616.247602661267
 20
-777.9212067987832
 30
0.0
 40
1.6
 41
8.000000000000028
 71
     5
 72
     5
  1
2.5
 73
     1
 44
1.0
1001
ACAD
1000
MTEXTBEGIN
1070
    73
1070
     1
1070
    44
1040
1.0
1070
    74
1070
     0
1000
MTEXTEND
  0
LINE
  5
210EDD
330
1F
100
AcDbEntity
  8
AM_2
100
AcDbLine
 10
6628.247602661267
 20
-787.9212067987833
 30
0.0
 11
6636.247602661268
 21
-787.9212067987833
 31
0.0
  0
LINE
  5
210EDE
330
1F
100
AcDbEntity
  8
AM_2
100
AcDbLine
 10
6628.247602661267
 20
-783.9212067987832
 30
0.0
 11
6636.247602661268
 21
-783.9212067987832
 31
0.0
  0
MTEXT
  5
210EDF
330
1F
100
AcDbEntity
  8
AM_6
100
AcDbMText
 10
6624.247602661269
 20
-773.9212067987832
 30
0.0
 40
1.6
 41
8.000000000000028
 71
     5
 72
     5
  1
2.8
 73
     1
 44
1.0
1001
ACAD
1000
MTEXTBEGIN
1070
    73
1070
     1
1070
    44
1040
1.0
1070
    74
1070
     0
1000
MTEXTEND
  0
MTEXT
  5
210EE0
330
1F
100
AcDbEntity
  8
AM_6
100
AcDbMText
 10
6624.247602661269
 20
-777.9212067987832
 30
0.0
 40
1.6
 41
8.000000000000028
 71
     5
 72
     5
  1
4.5
 73
     1
 44
1.0
1001
ACAD
1000
MTEXTBEGIN
1070
    73
1070
     1
1070
    44
1040
1.0
1070
    74
1070
     0
1000
MTEXTEND
  0
MTEXT
  5
210EE1
330
1F
100
AcDbEntity
  8
AM_6
100
AcDbMText
 10
6632.247602661269
 20
-773.9212067987832
 30
0.0
 40
1.6
 41
8.000000000000028
 71
     5
 72
     5
  1
6
 73
     1
 44
1.0
1001
ACAD
1000
MTEXTBEGIN
1070
    73
1070
     1
1070
    44
1040
1.0
1070
    74
1070
     0
1000
MTEXTEND
  0
LINE
  5
210EE2
330
1F
100
AcDbEntity
  8
AM_2
100
AcDbLine
 10
6636.247602661268
 20
-779.9212067987832
 30
0.0
 11
6644.247602661268
 21
-779.9212067987832
 31
0.0
  0
MTEXT
  5
210EE3
330
1F
100
AcDbEntity
  8
AM_6
100
AcDbMText
 10
6632.247602661269
 20
-785.9212067987832
 30
0.0
 40
1.6
 41
8.000000000000028
 71
     5
 72
     5
  1
12
 73
     1
 44
1.0
1001
ACAD
1000
MTEXTBEGIN
1070
    73
1070
     1
1070
    44
1040
1.0
1070
    74
1070
     0
1000
MTEXTEND
  0
MTEXT
  5
210EE4
330
1F
100
AcDbEntity
  8
AM_6
100
AcDbMText
 10
6640.247602661268
 20
-773.921206798783
 30
0.0
 40
1.6
 41
10.00000000000003
 71
     5
 72
     5
  1
1
 73
     1
 44
1.0
1001
ACAD
1000
MTEXTBEGIN
1070
    73
1070
     1
1070
    44
1040
1.0
1070
    74
1070
     0
1000
MTEXTEND
  0
MTEXT
  5
210EE5
330
1F
100
AcDbEntity
  8
AM_6
100
AcDbMText
 10
6640.247602661268
 20
-777.921206798783
 30
0.0
 40
1.6
 41
8.000000000000028
 71
     5
 72
     5
  1
1.5
 73
     1
 44
1.0
1001
ACAD
1000
MTEXTBEGIN
1070
    73
1070
     1
1070
    44
1040
1.0
1070
    74
1070
     0
1000
MTEXTEND
  0
MTEXT
  5
2111E9
330
1F
100
AcDbEntity
  8
AM_6
 48
0.5
100
AcDbMText
 10
6592.308092548858
 20
-720.3254125672494
 30
0.0
 40
1.6
 41
32.59389036759421
 71
     1
 72
     5
  1
※ETP-114/115/116/117用化粧座金
 73
     1
 44
1.0
1001
ACAD
1000
MTEXTBEGIN
1070
    73
1070
     1
1070
    44
1040
1.0
1070
    74
1070
     0
1000
MTEXTEND
  0
VIEWPORT
  5
9877F
102
{ACAD_XDICTIONARY
360
211260
102
}
330
1B
100
AcDbEntity
 67
     1
  8
0
100
AcDbViewport
 10
166.9281378495066
 20
101.7587463855743
 30
0.0
 40
340.2062512849507
 41
209.8674926757813
 68
     1
 69
     1
 12
166.9281378495066
 22
101.7587463855743
 13
0.0
 23
0.0
 14
2.5
 24
2.5
 15
10.0
 25
10.0
 16
0.0
 26
0.0
 36
1.0
 17
0.0
 27
0.0
 37
0.0
 42
50.0
 43
0.0
 44
0.0
 45
209.8674926757813
 50
0.0
 51
0.0
 72
   100
 90
   819232
  1

281
     0
 71
     1
 74
     0
110
0.0
120
0.0
130
0.0
111
1.0
121
0.0
131
0.0
112
0.0
122
1.0
132
0.0
 79
     0
146
0.0
  0
ENDSEC
  0
SECTION
  2
OBJECTS
  0
DICTIONARY
  5
C
330
0
100
AcDbDictionary
281
     1
  3
ACAD_BGPLOT_KEY
350
10A1B8
  3
ACAD_COLOR
350
3EA0B
  3
ACAD_GROUP
350
D
  3
ACAD_LAYOUT
350
1A
  3
ACAD_MATERIAL
350
3E9F6
  3
ACAD_MLINESTYLE
350
17
  3
ACAD_PLOTSETTINGS
350
19
  3
ACAD_PLOTSTYLENAME
350
E
  3
ACAD_TABLESTYLE
350
3EA0C
  3
ACAD_VISUALSTYLE
350
3E9FA
  3
AcAsAppObject
350
3DA1
  3
ACASGREF_MASTER
350
3DE9
  3
AcDbVariableDictionary
350
34
  3
AcmDictionary
350
47
  3
AD_GREF_MODULE
350
3DEA
  3
AD_MAPI_MODULE
350
3E06
  3
AMG
350
2B
  3
AMGSNAPSETTINGS
350
7D
  3
ASE_INDEX_DICTIONARY
350
1EBD7C
  3
DWGPROPS
350
21123C
  3
GENIUS
350
178BAE
  3
MAPISURF_MODULE
350
3DEB
  0
DICTIONARY
  5
3F95
330
2
100
AcDbDictionary
280
     1
281
     1
  3
ACAD_LAYERFILTERS
360
163D3E
  3
ACAD_LAYERSTATES
360
3F96
  3
ACLYDICTIONARY
360
163D3D
  3
AMLAYER_GROUPCOLORS
360
980C9
  0
DICTIONARY
  5
8A
330
1F
100
AcDbDictionary
280
     1
281
     1
  3
ACAD_SORTENTS
360
526E9
  0
DICTIONARY
  5
210E53
330
210E52
100
AcDbDictionary
280
     1
281
     1
  3
ACAD_DIMASSOC
360
210E54
  0
DICTIONARY
  5
210E56
330
210E55
100
AcDbDictionary
280
     1
281
     1
  3
ACAD_DIMASSOC
360
210E57
  0
DICTIONARY
  5
210E59
330
210E58
100
AcDbDictionary
280
     1
281
     1
  3
ACAD_DIMASSOC
360
210E5A
  0
DICTIONARY
  5
210E5C
330
210E5B
100
AcDbDictionary
280
     1
281
     1
  3
ACAD_DIMASSOC
360
210E5D
  0
DICTIONARY
  5
210E5F
330
210E5E
100
AcDbDictionary
280
     1
281
     1
  3
ACAD_DIMASSOC
360
210E60
  0
DICTIONARY
  5
211260
330
9877F
100
AcDbDictionary
280
     1
281
     1
  3
ACAD_XREC_ROUNDTRIP
360
211261
  0
DICTIONARY
  5
10A1B8
102
{ACAD_REACTORS
330
C
102
}
330
C
100
AcDbDictionary
280
     1
281
     1
  0
DICTIONARY
  5
3EA0B
102
{ACAD_REACTORS
330
C
102
}
330
C
100
AcDbDictionary
281
     1
  0
DICTIONARY
  5
D
102
{ACAD_REACTORS
330
C
102
}
330
C
100
AcDbDictionary
281
     1
  0
DICTIONARY
  5
1A
102
{ACAD_REACTORS
330
C
102
}
330
C
100
AcDbDictionary
281
     1
  3
Model
350
22
  3
ﾚｲｱｳﾄ1
350
1E
  3
ﾚｲｱｳﾄ2
350
26
  0
DICTIONARY
  5
3E9F6
102
{ACAD_REACTORS
330
C
102
}
330
C
100
AcDbDictionary
281
     1
  3
ByBlock
350
3E9F8
  3
ByLayer
350
3E9F7
  3
Global
350
3E9F9
  0
DICTIONARY
  5
17
102
{ACAD_REACTORS
330
C
102
}
330
C
100
AcDbDictionary
281
     1
  3
Standard
350
18
  0
DICTIONARY
  5
19
102
{ACAD_REACTORS
330
C
102
}
330
C
100
AcDbDictionary
281
     1
  3
01   A1　１：１
350
993D
  3
02   A2　１：１
350
993C
  3
03   A3　１：１
350
993B
  3
04   A4  １：１
350
993E
  3
05   A1 自動調整
350
99EF
  3
06   A2 自動調整
350
99F0
  3
07   A3 自動調整
350
99F1
  3
08   A4 自動調整
350
99F2
  3
09   A1をA3に
350
9985
  3
10   A2をA3に
350
99D9
  3
11　レーザー　A3　自動調整
350
A0DD
  0
ACDBDICTIONARYWDFLT
  5
E
102
{ACAD_REACTORS
330
C
102
}
330
C
100
AcDbDictionary
281
     1
  3
Normal
350
F
100
AcDbDictionaryWithDefault
340
F
  0
DICTIONARY
  5
3EA0C
102
{ACAD_REACTORS
330
C
102
}
330
C
100
AcDbDictionary
281
     1
  3
Standard
350
3EA0D
  0
DICTIONARY
  5
3E9FA
102
{ACAD_REACTORS
330
C
102
}
330
C
100
AcDbDictionary
281
     1
  3
2dWireframe
350
3EA00
  3
3D Hidden
350
3EA02
  3
3dWireframe
350
3EA01
  3
Basic
350
3E9FF
  3
Brighten
350
3EA06
  3
ColorChange
350
3EA0A
  3
Conceptual
350
3EA03
  3
Dim
350
3EA05
  3
Facepattern
350
3EA09
  3
Flat
350
3E9FB
  3
FlatWithEdges
350
3E9FC
  3
Gouraud
350
3E9FD
  3
GouraudWithEdges
350
3E9FE
  3
Linepattern
350
3EA08
  3
Realistic
350
3EA04
  3
Thicken
350
3EA07
  0
ACAD_PROXY_OBJECT
  5
3DA1
102
{ACAD_REACTORS
330
C
102
}
330
C
100
AcDbProxyObject
 90
      499
 91
      576
 95
   917527
 70
     0
 93
       10
310
407F
 94
        0
1001
ACAD
1000
AcRTDxfName
1000
ASAPP
  0
ACAD_PROXY_OBJECT
  5
3DE9
102
{ACAD_REACTORS
330
C
102
}
330
C
100
AcDbProxyObject
 90
      499
 91
      581
 95
   917527
 70
     0
 93
       34
310
010000407F
 94
        0
1001
ACAD
1000
AcRTDxfName
1000
ACASGREFMASTER
  0
DICTIONARY
  5
34
102
{ACAD_REACTORS
330
C
102
}
330
C
100
AcDbDictionary
281
     1
  3
CTABLESTYLE
350
3EA41
  3
DIMASSOC
350
A1EC
  3
FIELDEVAL
350
10A1B9
  3
HPORIGIN
350
52970
  3
INDEXCTL
350
35
  3
SORTENTS
350
194C
  0
DICTIONARY
  5
47
102
{ACAD_REACTORS
330
C
102
}
330
C
100
AcDbDictionary
281
     1
  3
AcmBOM
350
7E8
  3
AcmStdDictionary
350
4C
  3
AMDTSECTSYM_ARROWCOLOR
350
3EA36
  0
ACAD_PROXY_OBJECT
  5
3DEA
102
{ACAD_REACTORS
330
C
102
}
330
C
100
AcDbProxyObject
 90
      499
 91
      582
 95
   917527
 70
     0
 93
      114
310
00000043800000000000000000003F
 94
        0
1001
ACAD
1000
AcRTDxfName
1000
ACADGREFMODULE
  0
ACAD_PROXY_OBJECT
  5
3E06
102
{ACAD_REACTORS
330
C
102
}
330
C
100
AcDbProxyObject
 90
      499
 91
      594
 95
   917527
 70
     0
 93
       34
310
05000044FF
 94
        0
1001
ACAD
1000
AcRTDxfName
1000
MAPIADMODULE
  0
DICTIONARY
  5
2B
102
{ACAD_REACTORS
330
C
102
}
330
C
100
AcDbDictionary
281
     1
  0
DICTIONARY
  5
7D
102
{ACAD_REACTORS
330
C
102
}
330
C
100
AcDbDictionary
281
     1
  0
DICTIONARY
  5
1EBD7C
102
{ACAD_REACTORS
330
C
102
}
330
C
100
AcDbDictionary
281
     1
  3
ASEBlockHierarchyIndexRecord
350
1EBD7D
1001
DCO15
1040
1693148824.187
  0
XRECORD
  5
21123C
102
{ACAD_REACTORS
330
C
102
}
330
C
100
AcDbXrecord
280
     1
  1
DWGPROPS COOKIE
  2

  3

  4

  6

  7

  8
Administrator
  9

300
AmdtFileType=84
301
=
302
=
303
=
304
=
305
=
306
=
307
=
308
=
309
=
 40
120.9881256712963
 41
2452373.637007732
 42
2456266.815778171
  1

 90
        1
  0
DICTIONARY
  5
178BAE
102
{ACAD_REACTORS
330
C
102
}
330
C
100
AcDbDictionary
281
     1
  3
ScratchBlock
350
178BAF
  0
ACAD_PROXY_OBJECT
  5
3DEB
102
{ACAD_REACTORS
330
C
102
}
330
C
100
AcDbProxyObject
 90
      499
 91
      583
 95
   917527
 70
     0
 93
        8
310
047E
 94
        0
1001
ACAD
1000
AcRTDxfName
1000
AMDTMAPISURFMOUDULE
  0
DICTIONARY
  5
163D3E
102
{ACAD_REACTORS
330
3F95
102
}
330
3F95
100
AcDbDictionary
281
     1
  0
DICTIONARY
  5
3F96
102
{ACAD_REACTORS
330
3F95
102
}
330
3F95
100
AcDbDictionary
281
     1
  3
20011210
350
3FB7
  0
DICTIONARY
  5
163D3D
102
{ACAD_REACTORS
330
3F95
102
}
330
3F95
100
AcDbDictionary
281
     1
1001
ACAD
1000
<All
  0
DICTIONARY
  5
980C9
102
{ACAD_REACTORS
330
3F95
102
}
330
3F95
100
AcDbDictionary
280
     1
281
     1
  0
SORTENTSTABLE
  5
526E9
102
{ACAD_REACTORS
330
8A
102
}
330
8A
100
AcDbSortentsTable
330
1F
331
158CF3
  5
1594AB
331
15402E
  5
1541E8
331
163919
  5
164006
331
145732
  5
145A56
331
153FB5
  5
1541BD
331
153FBD
  5
1541C5
331
153FC5
  5
1541CD
331
210E4A
  5
210E4A
331
210ED6
  5
210EDC
331
210E87
  5
210E8C
331
210E52
  5
210E52
331
210EDE
  5
210E67
331
210E62
  5
210E62
331
1DD8AF
  5
1DDBF7
331
1DE97E
  5
1DEC25
331
12ED91
  5
130D8D
331
163A8F
  5
1646E1
331
16601D
  5
166164
331
166025
  5
16616C
331
1638DA
  5
163FC5
331
153FD7
  5
1541D2
331
1638E2
  5
163FD8
331
15AC2B
  5
15AD8A
331
1638EA
  5
163FEF
331
154116
  5
1541FF
331
153FF7
  5
1541E3
331
153F9E
  5
1541A4
331
153FA6
  5
1541AE
331
153FAE
  5
1541B6
331
EFE89
  5
101C2C
331
210E6A
  5
210E6F
331
210E2B
  5
210E2B
331
210E72
  5
210E77
331
210E33
  5
210E33
331
210E3B
  5
210E3B
331
210E7A
  5
210E7F
331
12EF59
  5
130D92
331
1FC0BB
  5
1FC9EC
331
210E43
  5
210E43
331
1DF89E
  5
1DF929
331
1DE95F
  5
1DEC0E
331
1DE967
  5
1DEC16
331
16600E
  5
16601B
331
166016
  5
166023
331
1587D4
  5
1588BE
331
16391A
  5
164007
331
15402F
  5
1541E9
331
158CF4
  5
1594AC
331
158D2C
  5
1595EA
331
15406F
  5
1541F6
331
153FB6
  5
1541BE
331
145733
  5
145A57
331
153FBE
  5
1541C6
331
153FC6
  5
1541CE
331
210E4B
  5
210E4B
331
210ED7
  5
210EDD
331
210E88
  5
210E8D
331
210EDF
  5
210EE3
331
210E90
  5
210ED3
331
210E5B
  5
210E5B
331
210E63
  5
210E63
331
163A90
  5
1646E2
331
16601E
  5
166165
331
166026
  5
16616D
331
153FD8
  5
1541D3
331
1638DB
  5
163FC6
331
15879D
  5
158860
331
1638E3
  5
163FD9
331
154117
  5
154200
331
1638EB
  5
163FF0
331
153F9F
  5
1541A5
331
153FA7
  5
1541AF
331
153FAF
  5
1541B7
331
937BE
  5
937CE
331
EFE8A
  5
101C30
331
210E6B
  5
210E70
331
210E2C
  5
210E2C
331
210E73
  5
210E78
331
210E34
  5
210E34
331
210E7B
  5
210E80
331
210E3C
  5
210E3C
331
1FC0BC
  5
1FC9ED
331
210E44
  5
210E44
331
1DF89F
  5
1DF92A
331
1DE958
  5
1DEC07
331
1DE960
  5
1DEC0F
331
16600F
  5
16601C
331
1DE968
  5
1DEC17
331
166017
  5
166024
331
154020
  5
1541E4
331
154A97
  5
1553B8
331
16391B
  5
164008
331
154030
  5
1541EA
331
158CF5
  5
1594B7
331
158D2D
  5
159796
331
145734
  5
145A58
331
153FB7
  5
1541BF
331
153FBF
  5
1541C7
331
153F88
  5
154194
331
153FC7
  5
1541CF
331
9387E
  5
9388D
331
210E81
  5
210E89
331
210E4C
  5
210E4C
331
210E89
  5
210E8E
331
210ED8
  5
210EDE
331
210E91
  5
210ED4
331
210EE0
  5
210EE4
331
210E64
  5
210E64
331
1DE970
  5
1DEC19
331
1DF8EF
  5
1DF938
331
1DD8B1
  5
1DDBFC
331
1DE980
  5
1DEC37
331
16601F
  5
166166
331
166027
  5
16616E
331
154070
  5
1541F7
331
153FD9
  5
1541D4
331
1638DC
  5
163FC7
331
155B77
  5
1561DA
331
153FE1
  5
1541D7
331
1638E4
  5
163FDA
331
1587AE
  5
158861
331
1638EC
  5
163FF1
331
138B7D
  5
13A2B3
331
153FA0
  5
1541A6
331
153FA8
  5
1541B0
331
EFE8B
  5
101C31
331
210E6C
  5
210E71
331
210E2D
  5
210E2D
331
210E74
  5
210E79
331
210E35
  5
210E35
331
210E7C
  5
210E81
331
210E3D
  5
210E3D
331
1FC0BD
  5
1FC9EE
331
210E45
  5
210E45
331
1DE959
  5
1DEC08
331
1DE961
  5
1DEC10
331
166010
  5
16601D
331
154021
  5
1541E5
331
154A98
  5
1553B9
331
163914
  5
164001
331
154031
  5
1541EB
331
158D2E
  5
159798
331
1638D5
  5
163FC0
331
153FB0
  5
1541B8
331
153FB8
  5
1541C0
331
145735
  5
145A59
331
153FC0
  5
1541C8
331
153F89
  5
15419B
331
210E4D
  5
210E4D
331
210E8A
  5
210E8F
331
210ED9
  5
210EDF
331
210E55
  5
210E55
331
210E92
  5
210ED5
331
210EE1
  5
210EE5
331
210E65
  5
210E66
331
1DE979
  5
1DEC20
331
166018
  5
166025
331
166020
  5
166167
331
1DF869
  5
1DF91E
331
1558F0
  5
155F7E
331
1584FF
  5
1587F5
331
153FDA
  5
1541D5
331
1638DD
  5
163FC8
331
153FE2
  5
1541D8
331
154111
  5
1541FA
331
155B78
  5
1561DB
331
1638E5
  5
163FE6
331
158370
  5
158549
331
1638ED
  5
163FFA
331
15AC6E
  5
15ADE1
331
138B7E
  5
13A2B4
331
153FA1
  5
1541A9
331
153FA9
  5
1541B1
331
EFE8C
  5
101C32
331
210E2E
  5
210E2E
331
210E36
  5
210E36
331
210E75
  5
210E7A
331
210E7D
  5
210E83
331
210E3E
  5
210E3E
331
210E46
  5
210E46
331
1DF899
  5
1DF925
331
1DE95A
  5
1DEC09
331
166011
  5
16601E
331
154022
  5
1541E6
331
154A99
  5
1553BB
331
163915
  5
164002
331
154032
  5
1541EC
331
1584D0
  5
1587F3
331
158D2F
  5
1597BF
331
1638D6
  5
163FC1
331
15106A
  5
1424A0
331
153FB1
  5
1541B9
331
153FB9
  5
1541C1
331
153FC1
  5
1541C9
331
153F8A
  5
15419C
331
210ED2
  5
210ED7
331
210E4E
  5
210E4E
331
210EDA
  5
210EE0
331
210EE2
  5
210E65
331
210E93
  5
210ED6
331
210E5E
  5
210E5E
331
210E27
  5
210E27
331
210E66
  5
210E69
331
1DD7EB
  5
1DD8A1
331
1DE972
  5
1DEC1B
331
1DE97A
  5
1DEC21
331
163A8B
  5
164009
331
166019
  5
166026
331
166021
  5
166168
331
1DF86A
  5
1DF91F
331
167619
  5
16762B
331
1558F1
  5
155F7F
331
1638DE
  5
163FC9
331
153FDB
  5
1541D6
331
153FE3
  5
1541D9
331
154112
  5
1541FB
331
1638E6
  5
163FE9
331
153FF3
  5
1541DC
331
1638EE
  5
163FFB
331
138B7F
  5
13A2B5
331
153FA2
  5
1541AA
331
153FAA
  5
1541B2
331
93831
  5
93840
331
EFE8D
  5
101C33
331
210E2F
  5
210E2F
331
210E6E
  5
210E73
331
210E37
  5
210E37
331
210E7E
  5
210E84
331
210E3F
  5
210E3F
331
210E47
  5
210E47
331
1DE95B
  5
1DEC0A
331
1DE963
  5
1DEC12
331
166012
  5
16601F
331
154A9A
  5
1553BC
331
163916
  5
164003
331
154033
  5
1541ED
331
15406B
  5
1541F2
331
1584D1
  5
1587F4
331
1638D7
  5
163FC2
331
153FB2
  5
1541BA
331
153FBA
  5
1541C2
331
153FC2
  5
1541CA
331
153F8B
  5
15419D
331
937AA
  5
937B9
331
72818
  5
72BC1
331
210ED3
  5
210ED8
331
210E84
  5
210E8A
331
210E4F
  5
210E4F
331
210EDB
  5
210EE1
331
210EE3
  5
210EE6
331
210E67
  5
210E6A
331
1DD7EC
  5
1DD8A2
331
16601A
  5
166027
331
1DD8B4
  5
1DDBFF
331
166022
  5
166169
331
158D30
  5
1597C8
331
1638DF
  5
163FCA
331
153FE4
  5
1541DA
331
154113
  5
1541FC
331
1638E7
  5
163FEC
331
153FF4
  5
1541DD
331
1587C1
  5
158892
331
1638EF
  5
163FFC
331
138B80
  5
13A2B6
331
153F9B
  5
1541A1
331
153FA3
  5
1541AB
331
153FAB
  5
1541B3
331
93832
  5
93841
331
9383A
  5
9384B
331
210E28
  5
210E28
331
210E6F
  5
210E74
331
210E30
  5
210E30
331
210E38
  5
210E38
331
210E77
  5
210E7C
331
210E40
  5
210E40
331
210E7F
  5
210E86
331
12EF56
  5
130D8E
331
1DE964
  5
1DEC13
331
166013
  5
166020
331
15837A
  5
15854A
331
15846A
  5
1587D9
331
163917
  5
164004
331
154034
  5
1541EE
331
1584A2
  5
1587DB
331
15406C
  5
1541F3
331
153FB3
  5
1541BB
331
153FBB
  5
1541C3
331
153FC3
  5
1541CB
331
153F8C
  5
15419E
331
9386A
  5
9387E
331
937AB
  5
937BA
331
210E48
  5
210E48
331
210E50
  5
210E50
331
210ED4
  5
210EDA
331
210E58
  5
210E58
331
210EDC
  5
210EE2
331
210EE4
  5
210EE7
331
1DE97C
  5
1DEC23
331
12ED8F
  5
130C94
331
163A8D
  5
16400A
331
16601B
  5
166162
331
166023
  5
16616A
331
153FD5
  5
1541D0
331
158D31
  5
1597C9
331
1638D8
  5
163FC3
331
15408C
  5
1541F8
331
1638E0
  5
163FCB
331
154114
  5
1541FD
331
153FE5
  5
1541DB
331
1638E8
  5
163FED
331
1638F0
  5
163FFD
331
153FF5
  5
1541E1
331
138B81
  5
13A2B7
331
153F94
  5
1541A0
331
153F9C
  5
1541A2
331
153FA4
  5
1541AC
331
153FAC
  5
1541B4
331
210E68
  5
210E6B
331
210E29
  5
210E29
331
210E70
  5
210E75
331
210E31
  5
210E31
331
210E78
  5
210E7D
331
210E39
  5
210E39
331
210E41
  5
210E41
331
12EF57
  5
130D90
331
1DE95D
  5
1DEC0C
331
1DE965
  5
1DEC14
331
16600C
  5
166019
331
166014
  5
166021
331
163918
  5
164005
331
15402D
  5
1541E7
331
194AE1
  5
195508
331
154035
  5
1541EF
331
153FB4
  5
1541BC
331
145731
  5
145A55
331
153FBC
  5
1541C4
331
153FC4
  5
1541CC
331
153F8D
  5
15419F
331
9386B
  5
9387F
331
937AC
  5
937BB
331
727CA
  5
72B11
331
210E49
  5
210E49
331
210ED5
  5
210EDB
331
210E51
  5
210E51
331
210E86
  5
210E8B
331
210EDD
  5
210E6C
331
210E61
  5
210E61
331
210EE5
  5
210EE8
331
1DD7EE
  5
1DD8A5
331
1DE975
  5
1DEC1C
331
1DE97D
  5
1DEC24
331
12ED90
  5
130C97
331
16601C
  5
166163
331
166024
  5
16616B
331
1638D9
  5
163FC4
331
153FD6
  5
1541D1
331
1638E1
  5
163FCC
331
15408D
  5
1541F9
331
1638E9
  5
163FEE
331
154115
  5
1541FE
331
1638F1
  5
163FFE
331
153FF6
  5
1541E2
331
1543A5
  5
1553B3
331
153F9D
  5
1541A3
331
153FA5
  5
1541AD
331
153FAD
  5
1541B5
331
93864
  5
93877
331
EFE88
  5
101C2B
331
210E69
  5
210E6E
331
210E2A
  5
210E2A
331
210E71
  5
210E76
331
210E32
  5
210E32
331
210E3A
  5
210E3A
331
210E79
  5
210E7E
331
12EF58
  5
130D91
331
210E42
  5
210E42
331
1FC0BA
  5
1FC9EB
331
1DE95E
  5
1DEC0D
331
1DE966
  5
1DEC15
331
16600D
  5
16601A
331
166015
  5
166022
  0
DIMASSOC
  5
210E54
102
{ACAD_REACTORS
330
210E53
102
}
330
210E53
100
AcDbDimAssoc
330
210E52
 90
        3
 70
     0
 71
     0
  1
AcDbOsnapPointRef
 72
    13
331
210E3E
 73
     2
 91
        0
 40
0.0
 10
0.0
 20
0.0
 30
2.000000000000000E+50
 75
     0
  1
AcDbOsnapPointRef
 72
     1
331
210E3E
 73
     2
 91
        0
 40
0.0
 10
0.0
 20
0.0
 30
2.000000000000000E+50
 75
     0
  0
DIMASSOC
  5
210E57
102
{ACAD_REACTORS
330
210E56
102
}
330
210E56
100
AcDbDimAssoc
330
210E55
 90
        3
 70
     0
 71
     0
  1
AcDbOsnapPointRef
 72
     1
331
210E41
 73
     0
 91
        0
 40
0.0
 10
0.0
 20
0.0
 30
2.000000000000000E+50
 75
     0
  1
AcDbOsnapPointRef
 72
     8
331
210E42
 73
     0
 91
        0
 40
1.0
 10
0.0
 20
0.0
 30
0.0
 75
     1
  1
AcDbOsnapPointRef
 72
     1
331
210E41
 73
     0
 91
        0
 40
0.0
 10
0.0
 20
0.0
 30
2.000000000000000E+50
 75
     0
  0
DIMASSOC
  5
210E5A
102
{ACAD_REACTORS
330
210E59
102
}
330
210E59
100
AcDbDimAssoc
330
210E58
 90
        2
 70
     0
 71
     0
  1
AcDbOsnapPointRef
 72
     1
331
210E45
 73
     0
 91
        0
 40
0.0
 10
0.0
 20
0.0
 30
2.000000000000000E+50
 75
     0
  0
DIMASSOC
  5
210E5D
102
{ACAD_REACTORS
330
210E5C
102
}
330
210E5C
100
AcDbDimAssoc
330
210E5B
 90
        3
 70
     0
 71
     0
  1
AcDbOsnapPointRef
 72
    13
331
210E3F
 73
     0
 91
        0
 40
0.0
 10
0.0
 20
0.0
 30
2.000000000000000E+50
 75
     0
  1
AcDbOsnapPointRef
 72
     1
331
210E45
 73
     0
 91
        0
 40
0.0
 10
0.0
 20
0.0
 30
2.000000000000000E+50
 75
     0
  0
DIMASSOC
  5
210E60
102
{ACAD_REACTORS
330
210E5F
102
}
330
210E5F
100
AcDbDimAssoc
330
210E5E
 90
        3
 70
     0
 71
     0
  1
AcDbOsnapPointRef
 72
     1
331
210E43
 73
     0
 91
        0
 40
0.0
 10
0.0
 20
0.0
 30
2.000000000000000E+50
 75
     0
  1
AcDbOsnapPointRef
 72
     8
331
210E44
 73
     0
 91
        0
 40
0.0
 10
0.0
 20
0.0
 30
0.0
 75
     1
  1
AcDbOsnapPointRef
 72
     1
331
210E43
 73
     0
 91
        0
 40
0.0
 10
0.0
 20
0.0
 30
2.000000000000000E+50
 75
     0
  0
XRECORD
  5
211261
102
{ACAD_REACTORS
330
211260
102
}
330
211260
100
AcDbXrecord
280
     1
102
SHADEPLOT
 70
     0
  0
LAYOUT
  5
22
102
{ACAD_XDICTIONARY
360
21123E
102
}
102
{ACAD_REACTORS
330
1A
102
}
330
1A
100
AcDbPlotSettings
  1

  2
Acrobat Distiller
  4
A3
  6

 40
3.174999952316284
 41
3.174999952316284
 42
3.17498779296875
 43
3.17498779296875
 44
297.0318298339844
 45
420.1583251953125
 46
-0.3741113090109138
 47
9.091036934750718
 48
7692.621875312427
 49
-3042.604210976337
140
8088.248138892954
141
-2751.174146269616
142
1.0
143
1.0
 70
  3748
 72
     1
 73
     1
 74
     4
  7
monochrome.ctb
 75
     0
147
0.9517873674129395
148
-7692.621875312427
149
3042.604210976337
100
AcDbLayout
  1
Model
 70
     1
 71
     0
 10
0.0
 20
0.0
 11
12.0
 21
9.0
 12
0.0
 22
0.0
 32
0.0
 14
0.0
 24
0.0
 34
0.0
 15
0.0
 25
0.0
 35
0.0
146
0.0
 13
0.0
 23
0.0
 33
0.0
 16
1.0
 26
0.0
 36
0.0
 17
0.0
 27
1.0
 37
0.0
 76
     0
330
1F
331
3E9F4
1001
ACAD_PSEXT
1000
Acrobat Distiller
1000
AdobePS Acrobat Distiller J
1000
C:\Documents and Settings\All Users\デスクトップ\*.pdf
1000

1070
     0
  0
LAYOUT
  5
1E
102
{ACAD_XDICTIONARY
360
98784
102
}
102
{ACAD_REACTORS
330
1A
102
}
330
1A
100
AcDbPlotSettings
  1

  2
\\ML370\XEROX
  4
A4
  6

 40
3.174999952316284
 41
3.174999952316284
 42
3.175003051757812
 43
3.17498779296875
 44
209.8674926757813
 45
296.6719970703125
 46
0.0
 47
0.0
 48
0.0
 49
0.0
140
0.0
141
0.0
142
1.0
143
1.0
 70
   688
 72
     1
 73
     1
 74
     5
  7
monochrome.ctb
 75
    16
147
1.0
148
0.0
149
0.0
100
AcDbLayout
  1
ﾚｲｱｳﾄ1
 70
     1
 71
     1
 10
-3.17498779296875
 20
-3.174999952316284
 11
293.4970092773438
 21
206.692492723465
 12
0.0
 22
0.0
 32
0.0
 14
1.000000000000000E+20
 24
1.000000000000000E+20
 34
1.000000000000000E+20
 15
-1.000000000000000E+20
 25
-1.000000000000000E+20
 35
-1.000000000000000E+20
146
0.0
 13
0.0
 23
0.0
 33
0.0
 16
1.0
 26
0.0
 36
0.0
 17
0.0
 27
1.0
 37
0.0
 76
     0
330
1B
331
9877F
  0
LAYOUT
  5
26
102
{ACAD_XDICTIONARY
360
211240
102
}
102
{ACAD_REACTORS
330
1A
102
}
330
1A
100
AcDbPlotSettings
  1

  2
\\ML370\XEROX
  4

  6

 40
0.0
 41
0.0
 42
0.0
 43
0.0
 44
0.0
 45
0.0
 46
0.0
 47
0.0
 48
0.0
 49
0.0
140
0.0
141
0.0
142
1.0
143
1.0
 70
   688
 72
     0
 73
     0
 74
     5
  7
monochrome.ctb
 75
    16
147
1.0
148
0.0
149
0.0
100
AcDbLayout
  1
ﾚｲｱｳﾄ2
 70
     1
 71
     2
 10
0.0
 20
0.0
 11
12.0
 21
9.0
 12
0.0
 22
0.0
 32
0.0
 14
0.0
 24
0.0
 34
0.0
 15
0.0
 25
0.0
 35
0.0
146
0.0
 13
0.0
 23
0.0
 33
0.0
 16
1.0
 26
0.0
 36
0.0
 17
0.0
 27
1.0
 37
0.0
 76
     0
330
23
  0
MATERIAL
  5
3E9F8
102
{ACAD_XDICTIONARY
360
21125A
102
}
102
{ACAD_REACTORS
330
3E9F6
102
}
330
3E9F6
100
AcDbMaterial
  1
ByBlock
  0
MATERIAL
  5
3E9F7
102
{ACAD_XDICTIONARY
360
211258
102
}
102
{ACAD_REACTORS
330
3E9F6
102
}
330
3E9F6
100
AcDbMaterial
  1
ByLayer
  0
MATERIAL
  5
3E9F9
102
{ACAD_XDICTIONARY
360
21125C
102
}
102
{ACAD_REACTORS
330
3E9F6
102
}
330
3E9F6
100
AcDbMaterial
  1
Global
  0
MLINESTYLE
  5
18
102
{ACAD_REACTORS
330
17
102
}
330
17
100
AcDbMlineStyle
  2
STANDARD
 70
     0
  3

 62
   256
 51
90.0
 52
90.0
 71
     2
 49
0.5
 62
   256
  6
BYLAYER
 49
-0.5
 62
   256
  6
BYLAYER
  0
PLOTSETTINGS
  5
993D
102
{ACAD_XDICTIONARY
360
211246
102
}
102
{ACAD_REACTORS
330
19
102
}
330
19
100
AcDbPlotSettings
  1
01   A1　１：１
  2
\\ML370\Fuji Xerox BT8050(AutoCAD)
  4
User122
  6
AM_VIEW1
 40
3.174999952316284
 41
3.174999952316284
 42
3.17498779296875
 43
3.17498779296875
 44
593.7249755859375
 45
840.6129760742187
 46
145.19
 47
207.13
 48
214.3704939521119
 49
367.5855324241176
140
275.6727856380065
141
407.629191407817
142
1.0
143
1.0
 70
  1716
 72
     1
 73
     1
 74
     2
  7
monochrome.ctb
 75
    16
147
1.0
148
-538.139750291099
149
411.0980235086544
  0
PLOTSETTINGS
  5
993C
102
{ACAD_XDICTIONARY
360
211244
102
}
102
{ACAD_REACTORS
330
19
102
}
330
19
100
AcDbPlotSettings
  1
02   A2　１：１
  2
\\ML370\Fuji Xerox BT8050(AutoCAD)
  4
User123
  6
AM_VIEW1
 40
3.174999952316284
 41
3.174999952316284
 42
3.17498779296875
 43
3.17498779296875
 44
420.0
 45
594.0
 46
58.33
 47
83.83
 48
214.3704939521119
 49
367.5855324241176
140
275.6727856380065
141
407.629191407817
142
1.0
143
1.0
 70
  1716
 72
     1
 73
     1
 74
     2
  7
monochrome.ctb
 75
    16
147
1.0
148
-538.139750291099
149
411.0980235086544
  0
PLOTSETTINGS
  5
993B
102
{ACAD_XDICTIONARY
360
211242
102
}
102
{ACAD_REACTORS
330
19
102
}
330
19
100
AcDbPlotSettings
  1
03   A3　１：１
  2
\\ML370\Fuji Xerox BT8050(AutoCAD)
  4
User124
  6
AM_VIEW1
 40
3.174999952316284
 41
3.174999952316284
 42
3.17498779296875
 43
3.17498779296875
 44
297.0
 45
420.0
 46
-3.169999999999999
 47
-3.169999999999999
 48
214.3704939521119
 49
367.5855324241176
140
275.6727856380065
141
407.629191407817
142
1.0
143
1.0
 70
  1716
 72
     1
 73
     1
 74
     2
  7
monochrome.ctb
 75
    16
147
1.0
148
-538.139750291099
149
411.0980235086544
  0
PLOTSETTINGS
  5
993E
102
{ACAD_XDICTIONARY
360
211248
102
}
102
{ACAD_REACTORS
330
19
102
}
330
19
100
AcDbPlotSettings
  1
04   A4  １：１
  2
\\ML370\Fuji Xerox BT8050(AutoCAD)
  4
User125
  6
AM_VIEW1
 40
3.174999952316284
 41
3.174999952316284
 42
3.175003051757812
 43
3.17498779296875
 44
210.0
 45
297.0
 46
-46.68
 47
-64.67
 48
214.3704939521119
 49
367.5855324241176
140
275.6727856380065
141
407.629191407817
142
1.0
143
1.0
 70
  1716
 72
     1
 73
     1
 74
     2
  7
monochrome.ctb
 75
    16
147
1.0
148
-538.139750291099
149
411.0980235086544
  0
PLOTSETTINGS
  5
99EF
102
{ACAD_XDICTIONARY
360
21124E
102
}
102
{ACAD_REACTORS
330
19
102
}
330
19
100
AcDbPlotSettings
  1
05   A1 自動調整
  2
\\ML370\Fuji Xerox BT8050(AutoCAD)
  4
User122
  6
AM_VIEW1
 40
3.174999952316284
 41
3.174999952316284
 42
3.17498779296875
 43
3.17498779296875
 44
593.7249755859375
 45
840.6129760742187
 46
0.0
 47
1.77
 48
214.3704939521119
 49
367.5855324241176
140
275.6727856380065
141
407.629191407817
142
1.0
143
0.7150457692181145
 70
  1716
 72
     1
 73
     1
 74
     2
  7
monochrome.ctb
 75
     0
147
1.398511875811077
148
-408.2719444961221
149
-428.6675171947154
  0
PLOTSETTINGS
  5
99F0
102
{ACAD_XDICTIONARY
360
211250
102
}
102
{ACAD_REACTORS
330
19
102
}
330
19
100
AcDbPlotSettings
  1
06   A2 自動調整
  2
\\ML370\Fuji Xerox BT8050(AutoCAD)
  4
User123
  6
AM_VIEW1
 40
3.174999952316284
 41
3.174999952316284
 42
3.17498779296875
 43
3.17498779296875
 44
420.0
 45
594.0
 46
0.0
 47
1.32
 48
214.3704939521119
 49
367.5855324241176
140
275.6727856380065
141
407.629191407817
142
1.0
143
1.015351112189439
 70
  1716
 72
     1
 73
     1
 74
     2
  7
monochrome.ctb
 75
     0
147
0.9848809815588451
148
-408.2719444961221
149
-428.6675171947154
  0
PLOTSETTINGS
  5
99F1
102
{ACAD_XDICTIONARY
360
211252
102
}
102
{ACAD_REACTORS
330
19
102
}
330
19
100
AcDbPlotSettings
  1
07   A3 自動調整
  2
\\ML370\Fuji Xerox BT8050(AutoCAD)
  4
User124
  6
AM_VIEW1
 40
3.174999952316284
 41
3.174999952316284
 42
3.17498779296875
 43
3.17498779296875
 44
297.0
 45
420.0
 46
0.0
 47
1.29
 48
214.3704939521119
 49
367.5855324241176
140
275.6727856380065
141
407.629191407817
142
1.0
143
1.445036925138428
 70
  1716
 72
     1
 73
     1
 74
     2
  7
monochrome.ctb
 75
     0
147
0.6920238387017023
148
-408.2719444961221
149
-428.6675171947154
  0
PLOTSETTINGS
  5
99F2
102
{ACAD_XDICTIONARY
360
211254
102
}
102
{ACAD_REACTORS
330
19
102
}
330
19
100
AcDbPlotSettings
  1
08   A4 自動調整
  2
\\ML370\Fuji Xerox BT8050(AutoCAD)
  4
User125
  6
AM_VIEW1
 40
3.174999952316284
 41
3.174999952316284
 42
3.175003051757812
 43
3.17498779296875
 44
210.0
 45
297.0
 46
0.0
 47
1.32
 48
214.3704939521119
 49
367.5855324241176
140
275.6727856380065
141
407.629191407817
142
1.0
143
2.062361925831023
 70
  1716
 72
     1
 73
     1
 74
     2
  7
monochrome.ctb
 75
     0
147
0.484880945228395
148
-408.2719444961221
149
-428.6675171947154
  0
PLOTSETTINGS
  5
9985
102
{ACAD_XDICTIONARY
360
21124A
102
}
102
{ACAD_REACTORS
330
19
102
}
330
19
100
AcDbPlotSettings
  1
09   A1をA3に
  2
\\ML370\Fuji Xerox BT8050(AutoCAD)
  4
User124
  6
AM_VIEW1
 40
3.174999952316284
 41
3.174999952316284
 42
3.17498779296875
 43
3.17498779296875
 44
297.0
 45
420.0
 46
-3.169999999999999
 47
-3.419999999999999
 48
214.3704939521119
 49
367.5855324241176
140
275.6727856380065
141
407.629191407817
142
1.0
143
20.0
 70
  1716
 72
     1
 73
     1
 74
     2
  7
monochrome.ctb
 75
    22
147
0.05
148
-66.24202774817149
149
-81.38953477958603
  0
PLOTSETTINGS
  5
99D9
102
{ACAD_XDICTIONARY
360
21124C
102
}
102
{ACAD_REACTORS
330
19
102
}
330
19
100
AcDbPlotSettings
  1
10   A2をA3に
  2
\\ML370\Fuji Xerox BT8050(AutoCAD)
  4
User124
  6
AM_VIEW1
 40
3.174999952316284
 41
3.174999952316284
 42
3.17498779296875
 43
3.17498779296875
 44
297.0
 45
420.0
 46
-3.189999999999999
 47
-3.22
 48
214.3704939521119
 49
367.5855324241176
140
275.6727856380065
141
407.629191407817
142
1.0
143
1.414
 70
  1700
 72
     1
 73
     1
 74
     2
  7
monochrome.ctb
 75
     0
147
0.7072135785007072
148
-408.2719444961221
149
-428.6675171947154
  0
PLOTSETTINGS
  5
A0DD
102
{ACAD_XDICTIONARY
360
211256
102
}
102
{ACAD_REACTORS
330
19
102
}
330
19
100
AcDbPlotSettings
  1
11　レーザー　A3　自動調整
  2
\\ML370\NX710
  4
User124
  6
AM_VIEW1
 40
3.174999952316284
 41
3.174999952316284
 42
3.17578125
 43
3.17578125
 44
25146.0
 45
35602.33203125
 46
0.0
 47
0.0
 48
214.3704939521119
 49
367.5855324241176
140
275.6727856380065
141
407.629191407817
142
1.0
143
0.0083533385120973
 70
  1712
 72
     1
 73
     1
 74
     2
  7
monochrome.ctb
 75
     0
147
119.712615327608
148
-26.69879532799951
149
-28.92730121669592
  0
ACDBPLACEHOLDER
  5
F
102
{ACAD_REACTORS
330
E
102
}
330
E
  0
TABLESTYLE
  5
3EA0D
102
{ACAD_XDICTIONARY
360
21125E
102
}
102
{ACAD_REACTORS
330
3EA0C
102
}
330
3EA0C
100
AcDbTableStyle
  3
Standard
 70
     0
 71
     0
 40
1.5
 41
1.5
280
     0
281
     0
  7
STANDARD
140
4.5
170
     2
 62
     0
 63
     7
283
     0
274
    -2
284
     1
 64
     0
275
    -2
285
     1
 65
     0
276
    -2
286
     1
 66
     0
277
    -2
287
     1
 67
     0
278
    -2
288
     1
 68
     0
279
    -2
289
     1
 69
     0
  7
STANDARD
140
6.0
170
     5
 62
     0
 63
     7
283
     0
274
    -2
284
     1
 64
     0
275
    -2
285
     1
 65
     0
276
    -2
286
     1
 66
     0
277
    -2
287
     1
 67
     0
278
    -2
288
     1
 68
     0
279
    -2
289
     1
 69
     0
  7
STANDARD
140
4.5
170
     5
 62
     0
 63
     7
283
     0
274
    -2
284
     1
 64
     0
275
    -2
285
     1
 65
     0
276
    -2
286
     1
 66
     0
277
    -2
287
     1
 67
     0
278
    -2
288
     1
 68
     0
279
    -2
289
     1
 69
     0
  0
VISUALSTYLE
  5
3EA00
102
{ACAD_REACTORS
330
3E9FA
102
}
330
3E9FA
100
AcDbVisualStyle
  2
2dWireframe
 70
     4
 71
     0
 72
     2
 73
     0
 90
        0
 40
-0.6
 41
-30.0
 62
     5
 63
     7
 74
     1
 91
        4
 64
     7
 65
   257
 75
     1
175
     1
 42
1.0
 92
        0
 66
   257
 43
1.0
 76
     1
 77
     6
 78
     2
 67
     7
 79
     5
170
     0
171
     0
290
     0
174
     0
 93
        1
 44
0.0
173
     0
291
     0
 45
0.0
1001
ACAD
1000
AcDbSavedByObjectVersion
1070
     0
  0
VISUALSTYLE
  5
3EA02
102
{ACAD_REACTORS
330
3E9FA
102
}
330
3E9FA
100
AcDbVisualStyle
  2
3D Hidden
 70
     6
 71
     1
 72
     2
 73
     2
 90
        0
 40
-0.6
 41
-30.0
 62
     5
 63
     7
 74
     2
 91
        2
 64
     7
 65
   257
 75
     2
175
     1
 42
40.0
 92
        0
 66
   257
 43
1.0
 76
     1
 77
     6
 78
     2
 67
     7
 79
     3
170
     0
171
     0
290
     0
174
     0
 93
        1
 44
0.0
173
     0
291
     0
 45
0.0
1001
ACAD
1000
AcDbSavedByObjectVersion
1070
     0
  0
VISUALSTYLE
  5
3EA01
102
{ACAD_REACTORS
330
3E9FA
102
}
330
3E9FA
100
AcDbVisualStyle
  2
3dWireframe
 70
     5
 71
     0
 72
     2
 73
     0
 90
        0
 40
-0.6
 41
-30.0
 62
     5
 63
     7
 74
     1
 91
        4
 64
     7
 65
   257
 75
     1
175
     1
 42
1.0
 92
        0
 66
   257
 43
1.0
 76
     1
 77
     6
 78
     2
 67
     7
 79
     5
170
     0
171
     0
290
     0
174
     0
 93
        1
 44
0.0
173
     0
291
     0
 45
0.0
1001
ACAD
1000
AcDbSavedByObjectVersion
1070
     0
  0
VISUALSTYLE
  5
3E9FF
102
{ACAD_REACTORS
330
3E9FA
102
}
330
3E9FA
100
AcDbVisualStyle
  2
Basic
 70
     7
 71
     1
 72
     0
 73
     1
 90
        0
 40
-0.6
 41
-30.0
 62
     5
 63
     7
 74
     0
 91
        4
 64
     7
 65
   257
 75
     1
175
     1
 42
1.0
 92
        8
 66
     7
 43
1.0
 76
     1
 77
     6
 78
     2
 67
     7
 79
     5
170
     0
171
     0
290
     0
174
     0
 93
        1
 44
0.0
173
     0
291
     1
 45
0.0
1001
ACAD
1000
AcDbSavedByObjectVersion
1070
     0
  0
VISUALSTYLE
  5
3EA06
102
{ACAD_REACTORS
330
3E9FA
102
}
330
3E9FA
100
AcDbVisualStyle
  2
Brighten
 70
    12
 71
     2
 72
     2
 73
     0
 90
        0
 40
-0.6
 41
-30.0
 62
     5
 63
     7
 74
     1
 91
        4
 64
     7
 65
   257
 75
     1
175
     1
 42
1.0
 92
        8
 66
     7
 43
1.0
 76
     1
 77
     6
 78
     2
 67
     7
 79
     5
170
     0
171
     0
290
     0
174
     0
 93
        1
 44
50.0
173
     0
291
     1
 45
0.0
1001
ACAD
1000
AcDbSavedByObjectVersion
1070
     0
  0
VISUALSTYLE
  5
3EA0A
102
{ACAD_REACTORS
330
3E9FA
102
}
330
3E9FA
100
AcDbVisualStyle
  2
ColorChange
 70
    16
 71
     2
 72
     2
 73
     3
 90
        0
 40
-0.6
 41
-30.0
 62
     5
 63
     8
 74
     1
 91
        4
 64
     7
 65
   257
 75
     1
175
     1
 42
1.0
 92
        8
 66
     8
 43
1.0
 76
     1
 77
     6
 78
     2
 67
     7
 79
     5
170
     0
171
     0
290
     0
174
     0
 93
        1
 44
0.0
173
     0
291
     1
 45
0.0
1001
ACAD
1000
AcDbSavedByObjectVersion
1070
     0
  0
VISUALSTYLE
  5
3EA03
102
{ACAD_REACTORS
330
3E9FA
102
}
330
3E9FA
100
AcDbVisualStyle
  2
Conceptual
 70
     9
 71
     3
 72
     2
 73
     0
 90
        0
 40
-0.6
 41
-30.0
 62
     5
 63
     7
 74
     2
 91
        2
 64
     7
 65
   257
 75
     1
175
     1
 42
40.0
 92
        8
 66
     7
 43
1.0
 76
     1
 77
     6
 78
     2
 67
     7
 79
     3
170
     0
171
     0
290
     0
174
     0
 93
        1
 44
0.0
173
     0
291
     0
 45
0.0
1001
ACAD
1000
AcDbSavedByObjectVersion
1070
     0
  0
VISUALSTYLE
  5
3EA05
102
{ACAD_REACTORS
330
3E9FA
102
}
330
3E9FA
100
AcDbVisualStyle
  2
Dim
 70
    11
 71
     2
 72
     2
 73
     0
 90
        0
 40
-0.6
 41
-30.0
 62
     5
 63
     7
 74
     1
 91
        4
 64
     7
 65
   257
 75
     1
175
     1
 42
1.0
 92
        8
 66
     7
 43
1.0
 76
     1
 77
     6
 78
     2
 67
     7
 79
     5
170
     0
171
     0
290
     0
174
     0
 93
        1
 44
-50.0
173
     0
291
     1
 45
0.0
1001
ACAD
1000
AcDbSavedByObjectVersion
1070
     0
  0
VISUALSTYLE
  5
3EA09
102
{ACAD_REACTORS
330
3E9FA
102
}
330
3E9FA
100
AcDbVisualStyle
  2
Facepattern
 70
    15
 71
     2
 72
     2
 73
     0
 90
        0
 40
-0.6
 41
-30.0
 62
     5
 63
     7
 74
     1
 91
        4
 64
     7
 65
   257
 75
     1
175
     1
 42
1.0
 92
        8
 66
     7
 43
1.0
 76
     1
 77
     6
 78
     2
 67
     7
 79
     5
170
     0
171
     0
290
     0
174
     0
 93
        1
 44
0.0
173
     0
291
     1
 45
0.0
1001
ACAD
1000
AcDbSavedByObjectVersion
1070
     0
  0
VISUALSTYLE
  5
3E9FB
102
{ACAD_REACTORS
330
3E9FA
102
}
330
3E9FA
100
AcDbVisualStyle
  2
Flat
 70
     0
 71
     2
 72
     1
 73
     1
 90
        2
 40
-0.6
 41
30.0
 62
     5
 63
     7
 74
     0
 91
        4
 64
     7
 65
   257
 75
     1
175
     1
 42
1.0
 92
        8
 66
     7
 43
1.0
 76
     1
 77
     6
 78
     2
 67
     7
 79
     5
170
     0
171
     0
290
     0
174
     0
 93
       13
 44
0.0
173
     0
291
     1
 45
0.0
1001
ACAD
1000
AcDbSavedByObjectVersion
1070
     0
  0
VISUALSTYLE
  5
3E9FC
102
{ACAD_REACTORS
330
3E9FA
102
}
330
3E9FA
100
AcDbVisualStyle
  2
FlatWithEdges
 70
     1
 71
     2
 72
     1
 73
     1
 90
        2
 40
-0.6
 41
30.0
 62
     5
 63
     7
 74
     1
 91
        4
 64
     7
 65
   257
 75
     1
175
     1
 42
1.0
 92
        0
 66
   257
 43
1.0
 76
     1
 77
     6
 78
     2
 67
     7
 79
     5
170
     0
171
     0
290
     0
174
     0
 93
       13
 44
0.0
173
     0
291
     1
 45
0.0
1001
ACAD
1000
AcDbSavedByObjectVersion
1070
     0
  0
VISUALSTYLE
  5
3E9FD
102
{ACAD_REACTORS
330
3E9FA
102
}
330
3E9FA
100
AcDbVisualStyle
  2
Gouraud
 70
     2
 71
     2
 72
     2
 73
     1
 90
        2
 40
-0.6
 41
30.0
 62
     5
 63
     7
 74
     0
 91
        4
 64
     7
 65
   257
 75
     1
175
     1
 42
1.0
 92
        0
 66
     7
 43
1.0
 76
     1
 77
     6
 78
     2
 67
     7
 79
     5
170
     0
171
     0
290
     0
174
     0
 93
       13
 44
0.0
173
     0
291
     1
 45
0.0
1001
ACAD
1000
AcDbSavedByObjectVersion
1070
     0
  0
VISUALSTYLE
  5
3E9FE
102
{ACAD_REACTORS
330
3E9FA
102
}
330
3E9FA
100
AcDbVisualStyle
  2
GouraudWithEdges
 70
     3
 71
     2
 72
     2
 73
     1
 90
        2
 40
-0.6
 41
30.0
 62
     5
 63
     7
 74
     1
 91
        4
 64
     7
 65
   257
 75
     1
175
     1
 42
1.0
 92
        0
 66
   257
 43
1.0
 76
     1
 77
     6
 78
     2
 67
     7
 79
     5
170
     0
171
     0
290
     0
174
     0
 93
       13
 44
0.0
173
     0
291
     1
 45
0.0
1001
ACAD
1000
AcDbSavedByObjectVersion
1070
     0
  0
VISUALSTYLE
  5
3EA08
102
{ACAD_REACTORS
330
3E9FA
102
}
330
3E9FA
100
AcDbVisualStyle
  2
Linepattern
 70
    14
 71
     2
 72
     2
 73
     0
 90
        0
 40
-0.6
 41
-30.0
 62
     5
 63
     7
 74
     1
 91
        4
 64
     7
 65
   257
 75
     7
175
     7
 42
1.0
 92
        8
 66
     7
 43
1.0
 76
     1
 77
     6
 78
     2
 67
     7
 79
     5
170
     0
171
     0
290
     0
174
     0
 93
        1
 44
0.0
173
     0
291
     1
 45
0.0
1001
ACAD
1000
AcDbSavedByObjectVersion
1070
     0
  0
VISUALSTYLE
  5
3EA04
102
{ACAD_REACTORS
330
3E9FA
102
}
330
3E9FA
100
AcDbVisualStyle
  2
Realistic
 70
     8
 71
     2
 72
     2
 73
     0
 90
        0
 40
-0.6
 41
-30.0
 62
     5
 63
     7
 74
     1
 91
        0
 64
     7
 65
   257
 75
     1
175
     1
 42
1.0
 92
        8
 66
     8
 43
1.0
 76
     1
 77
     6
 78
     2
 67
     7
 79
     5
170
     0
171
     0
290
     0
174
     0
 93
       13
 44
0.0
173
     0
291
     0
 45
0.0
1001
ACAD
1000
AcDbSavedByObjectVersion
1070
     0
  0
VISUALSTYLE
  5
3EA07
102
{ACAD_REACTORS
330
3E9FA
102
}
330
3E9FA
100
AcDbVisualStyle
  2
Thicken
 70
    13
 71
     2
 72
     2
 73
     0
 90
        0
 40
-0.6
 41
-30.0
 62
     5
 63
     7
 74
     1
 91
        4
 64
     7
 65
   257
 75
     1
175
     1
 42
1.0
 92
       12
 66
     7
 43
1.0
 76
     1
 77
     6
 78
     2
 67
     7
 79
     5
170
     0
171
     0
290
     0
174
     0
 93
        1
 44
0.0
173
     0
291
     1
 45
0.0
1001
ACAD
1000
AcDbSavedByObjectVersion
1070
     0
  0
DICTIONARYVAR
  5
3EA41
102
{ACAD_REACTORS
330
34
102
}
330
34
100
DictionaryVariables
280
     0
  1
STANDARD
  0
DICTIONARYVAR
  5
A1EC
102
{ACAD_REACTORS
330
34
102
}
330
34
100
DictionaryVariables
280
     0
  1
1
  0
DICTIONARYVAR
  5
10A1B9
102
{ACAD_REACTORS
330
34
102
}
330
34
100
DictionaryVariables
280
     0
  1
4
  0
DICTIONARYVAR
  5
52970
102
{ACAD_REACTORS
330
34
102
}
330
34
100
DictionaryVariables
280
     0
  1
11991.567509;2340.006379
  0
DICTIONARYVAR
  5
35
102
{ACAD_REACTORS
330
34
102
}
330
34
100
DictionaryVariables
280
     0
  1
0
  0
DICTIONARYVAR
  5
194C
102
{ACAD_REACTORS
330
34
102
}
330
34
100
DictionaryVariables
280
     0
  1
127
  0
DICTIONARY
  5
7E8
102
{ACAD_REACTORS
330
47
102
}
330
47
100
AcDbDictionary
281
     1
  0
DICTIONARY
  5
4C
102
{ACAD_REACTORS
330
47
102
}
330
47
100
AcDbDictionary
281
     1
  0
XRECORD
  5
3EA36
102
{ACAD_REACTORS
330
47
102
}
330
47
100
AcDbXrecord
280
     1
 90
-1023410169
  0
XRECORD
  5
1EBD7D
102
{ACAD_REACTORS
330
1EBD7C
102
}
330
1EBD7C
100
AcDbXrecord
280
     1
330
0
330
0
330
0
330
937AA
330
937AB
330
937AC
330
937BE
330
93831
330
93832
330
9383A
330
93864
330
9386A
330
9386B
330
9387E
330
1638D5
330
1638D6
330
1638D7
330
1638D8
330
1638D9
330
1638DA
330
1638DB
330
1638DC
330
1638DD
330
1638DE
330
1638DF
330
1638E0
330
1638E1
330
1638E2
330
1638E3
330
1638E4
330
1638E5
330
1638E6
330
1638E7
330
1638E8
330
1638E9
330
1638EA
330
1638EB
330
1638EC
330
1638ED
330
1638EE
330
1638EF
330
1638F0
330
1638F1
330
194AE1
330
0
330
0
330
0
330
0
330
0
330
0
330
0
330
0
330
0
330
0
330
0
330
0
330
0
330
0
330
0
330
0
330
0
330
0
330
0
330
0
330
0
330
0
330
0
330
0
330
0
330
0
330
0
330
0
330
0
330
0
330
0
330
0
330
0
330
0
330
0
330
0
330
0
330
0
330
0
330
0
330
0
330
0
330
0
330
0
330
0
330
0
330
0
330
0
330
0
330
0
330
0
330
0
330
0
330
0
330
0
330
0
330
0
330
0
330
0
330
0
330
0
330
0
330
0
330
0
330
0
330
0
330
0
330
0
330
0
330
1DB62E
330
1DB62F
330
1DB637
330
1DB638
330
0
330
0
330
0
330
0
330
0
330
0
330
0
330
0
330
0
330
0
330
0
330
0
330
0
330
0
330
0
330
0
330
0
330
0
330
0
330
0
330
0
330
0
330
0
330
0
330
0
330
0
330
0
330
0
330
0
330
0
330
0
330
0
330
0
330
0
330
0
330
0
330
0
330
0
330
0
330
0
330
0
330
0
330
0
330
0
330
0
330
0
330
0
330
0
330
0
330
0
330
0
330
0
330
0
330
0
330
0
330
0
330
0
330
0
330
0
330
0
330
0
330
0
330
0
330
0
330
0
330
0
330
0
330
0
330
0
330
0
330
0
330
0
330
0
330
0
330
0
330
0
330
0
330
0
330
0
330
0
330
0
330
0
330
0
330
0
330
0
330
0
330
0
330
0
330
0
330
0
330
0
330
0
330
0
330
0
330
0
330
0
330
0
330
0
330
0
330
0
330
0
330
0
330
0
330
0
330
0
330
0
330
0
330
0
330
0
330
0
330
0
330
0
330
0
330
0
330
0
330
0
330
0
330
0
330
0
330
0
330
0
330
0
330
0
330
0
330
0
330
0
330
0
330
0
330
0
330
0
330
0
330
0
330
0
330
0
330
0
330
0
330
0
330
0
330
0
330
0
330
0
330
0
330
0
330
0
330
0
330
0
330
0
330
0
330
0
330
0
330
0
330
0
330
0
330
0
330
0
330
0
330
0
330
0
330
0
330
0
330
0
330
0
330
0
330
0
330
0
330
0
330
0
330
0
330
0
330
0
330
0
330
0
330
0
330
0
330
0
330
0
330
0
330
0
330
0
330
0
330
0
330
0
330
0
330
0
330
0
330
0
330
0
330
0
330
0
330
0
330
0
330
0
330
0
330
0
330
0
330
0
330
0
330
0
330
0
330
0
330
0
330
0
330
0
330
0
330
0
330
0
330
0
330
0
330
0
330
0
330
0
330
0
330
0
330
0
330
0
330
0
330
0
330
0
330
0
330
0
330
0
330
0
330
0
330
0
330
0
330
0
330
0
330
0
330
0
330
0
330
0
330
0
330
0
330
0
330
0
330
0
330
0
330
0
330
0
330
0
330
0
330
0
330
0
330
0
330
0
330
0
330
0
330
0
330
0
330
0
330
0
330
0
330
0
330
0
330
0
330
0
330
0
330
0
330
0
330
0
330
0
330
0
330
0
330
0
330
0
330
0
330
0
330
0
330
0
330
0
330
0
330
0
330
0
330
0
330
0
330
0
330
0
330
0
330
0
330
0
330
0
330
0
330
0
330
0
330
0
330
0
330
0
330
0
330
0
330
0
330
0
330
0
330
0
330
0
330
0
330
0
330
0
330
0
330
0
330
0
330
0
330
0
330
0
330
0
330
0
330
0
330
0
330
0
330
0
330
0
330
0
330
0
330
0
330
0
330
0
330
0
330
0
330
0
330
0
330
0
330
0
330
0
330
0
330
0
330
0
330
0
330
0
330
0
330
0
330
0
330
0
330
0
330
0
330
0
330
0
330
0
330
0
330
0
330
0
330
0
330
0
330
0
330
0
330
0
330
0
330
0
330
0
330
0
330
0
330
0
330
0
330
0
330
0
330
0
330
0
330
0
330
0
330
0
330
0
330
0
330
0
330
0
330
0
330
0
330
0
330
0
330
0
330
0
330
0
330
0
330
0
330
0
330
0
330
0
330
0
330
0
330
0
330
0
330
0
330
0
330
0
330
0
330
0
330
0
330
0
330
0
330
0
330
0
330
0
330
0
330
0
330
0
330
0
330
0
330
0
330
0
330
0
330
0
330
0
330
0
330
0
330
0
330
0
330
0
330
0
330
0
330
0
330
0
330
0
330
0
330
0
330
0
330
0
330
0
330
0
330
0
330
0
330
0
330
0
330
0
330
0
330
0
330
0
330
0
330
0
330
0
330
0
330
0
330
0
330
0
330
0
330
0
330
0
330
0
330
0
330
0
330
0
330
0
330
0
330
0
330
0
330
0
330
0
330
0
330
0
330
0
330
0
330
0
330
0
330
0
330
0
330
0
330
0
330
0
330
0
330
0
330
0
330
0
330
0
330
0
330
0
330
0
330
0
330
0
330
0
330
0
330
0
330
0
330
0
330
0
330
0
330
0
330
0
330
0
330
0
330
0
330
0
330
0
330
0
330
0
330
0
330
0
330
0
330
0
330
0
330
0
330
0
330
0
330
0
330
0
330
0
330
0
330
0
330
0
330
0
330
0
330
0
330
0
330
0
330
0
330
0
330
0
330
0
330
0
330
0
330
0
330
0
330
0
330
0
330
0
330
0
330
0
330
0
330
0
330
0
330
0
330
0
330
0
330
0
330
0
330
0
330
0
330
0
330
0
330
0
330
0
330
0
330
0
330
0
330
0
330
0
330
0
330
0
330
0
330
0
330
0
330
0
330
0
330
0
330
0
330
0
330
0
330
0
330
0
330
0
330
0
330
0
330
0
  0
XRECORD
  5
178BAF
102
{ACAD_REACTORS
330
178BAE
102
}
330
178BAE
100
AcDbXrecord
280
     1
330
0
  0
XRECORD
  5
3FB7
102
{ACAD_REACTORS
330
3F96
102
}
330
3F96
100
AcDbXrecord
280
     1
 91
        3
330
A47
 90
        8
 62
     7
370
    40
331
16
  1
Color_7
330
A46
 90
        0
 62
    14
370
    -3
331
16
  1
Color_14
330
0
 90
        8
 62
     7
370
    20
331
16
  1
Color_7
330
6D1
 90
        0
 62
     7
370
    -3
331
16
  1
Color_7
330
0
 90
        8
 62
     7
370
    50
331
16
  1
Color_7
330
A48
 90
        8
 62
     2
370
    35
331
16
  1
Color_2
330
0
 90
        8
 62
     7
370
    -3
331
16
  1
Color_7
330
10
 90
        8
 62
     7
370
    -3
331
16
  1
Color_7
  0
DICTIONARY
  5
21123E
330
22
100
AcDbDictionary
280
     1
281
     1
  3
ACAD_XREC_ROUNDTRIP
360
21123F
  0
DICTIONARY
  5
98784
330
1E
100
AcDbDictionary
280
     1
281
     1
  3
ACAD_XREC_ROUNDTRIP
360
21123D
  3
ADSK_XREC_LAYOUTTHUMBNAIL
360
98785
  0
DICTIONARY
  5
211240
330
26
100
AcDbDictionary
280
     1
281
     1
  3
ACAD_XREC_ROUNDTRIP
360
211241
  0
DICTIONARY
  5
21125A
330
3E9F8
100
AcDbDictionary
280
     1
281
     1
  3
ACAD_XREC_ROUNDTRIP
360
21125B
  0
DICTIONARY
  5
211258
330
3E9F7
100
AcDbDictionary
280
     1
281
     1
  3
ACAD_XREC_ROUNDTRIP
360
211259
  0
DICTIONARY
  5
21125C
330
3E9F9
100
AcDbDictionary
280
     1
281
     1
  3
ACAD_XREC_ROUNDTRIP
360
21125D
  0
DICTIONARY
  5
211246
330
993D
100
AcDbDictionary
280
     1
281
     1
  3
ACAD_XREC_ROUNDTRIP
360
211247
  0
DICTIONARY
  5
211244
330
993C
100
AcDbDictionary
280
     1
281
     1
  3
ACAD_XREC_ROUNDTRIP
360
211245
  0
DICTIONARY
  5
211242
330
993B
100
AcDbDictionary
280
     1
281
     1
  3
ACAD_XREC_ROUNDTRIP
360
211243
  0
DICTIONARY
  5
211248
330
993E
100
AcDbDictionary
280
     1
281
     1
  3
ACAD_XREC_ROUNDTRIP
360
211249
  0
DICTIONARY
  5
21124E
330
99EF
100
AcDbDictionary
280
     1
281
     1
  3
ACAD_XREC_ROUNDTRIP
360
21124F
  0
DICTIONARY
  5
211250
330
99F0
100
AcDbDictionary
280
     1
281
     1
  3
ACAD_XREC_ROUNDTRIP
360
211251
  0
DICTIONARY
  5
211252
330
99F1
100
AcDbDictionary
280
     1
281
     1
  3
ACAD_XREC_ROUNDTRIP
360
211253
  0
DICTIONARY
  5
211254
330
99F2
100
AcDbDictionary
280
     1
281
     1
  3
ACAD_XREC_ROUNDTRIP
360
211255
  0
DICTIONARY
  5
21124A
330
9985
100
AcDbDictionary
280
     1
281
     1
  3
ACAD_XREC_ROUNDTRIP
360
21124B
  0
DICTIONARY
  5
21124C
330
99D9
100
AcDbDictionary
280
     1
281
     1
  3
ACAD_XREC_ROUNDTRIP
360
21124D
  0
DICTIONARY
  5
211256
330
A0DD
100
AcDbDictionary
280
     1
281
     1
  3
ACAD_XREC_ROUNDTRIP
360
211257
  0
DICTIONARY
  5
21125E
330
3EA0D
100
AcDbDictionary
280
     1
281
     1
  3
ACAD_XREC_ROUNDTRIP
360
21125F
  0
XRECORD
  5
21123F
102
{ACAD_REACTORS
330
21123E
102
}
330
21123E
100
AcDbXrecord
280
     1
102
SHADEPLOT
 70
     1
102
SHADEPLOTRESLEVEL
 70
     2
102
SHADEPLOTCUSTOMDPI
 70
   300
  0
XRECORD
  5
21123D
102
{ACAD_REACTORS
330
98784
102
}
330
98784
100
AcDbXrecord
280
     1
102
SHADEPLOT
 70
     0
102
SHADEPLOTRESLEVEL
 70
     2
102
SHADEPLOTCUSTOMDPI
 70
   300
  0
XRECORD
  5
98785
102
{ACAD_REACTORS
330
98784
102
}
330
98784
100
AcDbXrecord
280
     1
310
28000000B40000007F00000001000800000000004C59000000000000000000000001000000000000FFFFFF0000000000FFFFFF000000000000000000000000000000000000000000000000000000000000000000330000006600000099000000CC000000FF00000000330000333300006633000099330000CC330000FF3300
310
0000660000336600006666000099660000CC660000FF66000000990000339900006699000099990000CC990000FF99000000CC000033CC000066CC000099CC0000CCCC0000FFCC000000FF000033FF000066FF000099FF0000CCFF0000FFFF000000003300330033006600330099003300CC003300FF003300003333003333
310
33006633330099333300CC333300FF33330000663300336633006666330099663300CC663300FF66330000993300339933006699330099993300CC993300FF99330000CC330033CC330066CC330099CC3300CCCC3300FFCC330000FF330033FF330066FF330099FF3300CCFF3300FFFF330000006600330066006600660099
310
006600CC006600FF00660000336600333366006633660099336600CC336600FF33660000666600336666006666660099666600CC666600FF66660000996600339966006699660099996600CC996600FF99660000CC660033CC660066CC660099CC6600CCCC6600FFCC660000FF660033FF660066FF660099FF6600CCFF6600
310
FFFF660000009900330099006600990099009900CC009900FF00990000339900333399006633990099339900CC339900FF33990000669900336699006666990099669900CC669900FF66990000999900339999006699990099999900CC999900FF99990000CC990033CC990066CC990099CC9900CCCC9900FFCC990000FF99
310
0033FF990066FF990099FF9900CCFF9900FFFF99000000CC003300CC006600CC009900CC00CC00CC00FF00CC000033CC003333CC006633CC009933CC00CC33CC00FF33CC000066CC003366CC006666CC009966CC00CC66CC00FF66CC000099CC003399CC006699CC009999CC00CC99CC00FF99CC0000CCCC0033CCCC0066CC
310
CC0099CCCC00CCCCCC00FFCCCC0000FFCC0033FFCC0066FFCC0099FFCC00CCFFCC00FFFFCC000000FF003300FF006600FF009900FF00CC00FF00FF00FF000033FF003333FF006633FF009933FF00CC33FF00FF33FF000066FF003366FF006666FF009966FF00CC66FF00FF66FF000099FF003399FF006699FF009999FF00CC
310
99FF00FF99FF0000CCFF0033CCFF0066CCFF0099CCFF00CCCCFF00FFCCFF0000FFFF0033FFFF0066FFFF0099FFFF00CCFFFF00FFFFFF00000000000D0D0D001A1A1A00282828003535350043434300505050005D5D5D006B6B6B00787878008686860093939300A1A1A100AEAEAE00BBBBBB00C9C9C900D6D6D600E4E4E400
310
F1F1F100FFFFFF0000000000000000000000000000000000000000000000000000000000000000000000000000000000E2E2E2E2E2E2E2E2E2E2E2E2E2E2E2E2E2E2E2E2E2E2E2E2E2E2E2E2E2E2E2E2E2E2E2E2E2E2E2E2E2E2E2E2E2E2E2E2E2E2E2E2E2E2E2E2E2E2E2E2E2E2E2E2E2E2E2E2E2E2E2E2E2E2E2E2E2E2E2
310
E2E2E2E2E2E2E2E2E2E2E2E2E2E2E2E2E2E2E2E2E2E2E2E2E2E2E2E2E2E2E2E2E2E2E2E2E2E2E2E2E2E2E2E2E2E2E2E2E2E2E2E2E2E2E2E2E2E2E2E2E2E2E2E2E2E2E2E2E2E2E2E2E2E2E2E2E2E2E2E2E2E2E2E2E2E2E2E2E2E2E2E2E2E2E2E2E2E2E2E2E2E2F5F5F5F5F5F5F5F5F5F5F5F5F5F5F5F5F5F5F5F5F5F5F5F5F5
310
F5F5F5F5F5F5F5F5F5F5F5F5F5F5F5F5F5F5F5F5F5F5F5F5F5F5F5F5F5F5F5F5F5F5F5F5F5F5F5F5F5F5F5F5F5F5F5F5F5F5F5F5F5F5F5F5F5F5F5F5F5F5F5F5F5F5F5F5F5F5F5F5F5F5F5F5F5F5F5F5F5F5F5F5F5F5F5F5F5F5F5F5F5F5F5F5F5F5F5F5F5F5F5F5F5F5F5F5F5F5F5F5F5F5F5F5F5F5F5F5F5F5F5F5F5F5F5
310
F5F5F5F5F5F5F5F5F5F5F5F5F5F5F5F5F5F5F5F5F5F5F5F5F5E2E2E2F5E2E2E2E2E2E2E2E2F5F5F5F5F5F5F5F5F5E2E2E2E2E2E2E2E2E2E2E2E2E2E2E2E2F5F5F5F5F5F5F5F5F5E2E2E2E2E2E2E2E2E2E2E2E2E2E2E2E2F5F5F5F5F5F5F5F5F5E2E2E2E2E2E2E2E2E2E2E2E2E2E2E2E2F5F5F5F5F5F5F5F5F5E2E2E2E2E2E2
310
E2E2E2E2E2E2E2E2E2E2F5F5F5F5F5F5F5F5F5E2E2E2E2E2E2E2E2E2E2E2E2E2E2E2E2F5F5F5F5F5F5F5F5F5E2E2E2E2E2E2E2E2E2E2E2E2E2E2E2E2F5F5F5F5F5F5F5F5F5E2E2E2E2E2E2E2E2F5E2E2E2F5E2F5F5F5F5F5F5F5F5F5F5F5F5F5F5F5F5F5F5F5F5F5F5F5F5F5F5F5F5F5F5F5F5F5F5F5F5F5F5F5F5F5F5F5F5
310
F5F5F5F5F5F5F5F5F5F5F5F5F5F5F5F5F5F5F5F5F5F5F5F5F5F5F5F5F5F5F5F5F5F5F5F5F5F5F5F5F5F5F5F5F5F5F5F5F5F5F5F5F5F5F5F5F5F5F5F5F5F5F5F5F5F5F5F5F5F5F5F5F5F5F5F5F5F5F5F5F5F5F5F5F5F5F5F5F5F5F5F5F5F5F5F5F5F5F5F5F5F5F5F5F5F5F5F5F5F5F5F5F5F5F5F5F5F5F5F5F5F5F5F5F5F5F5
310
F5F5E2F5E2E2E2F5E2F5F5F5F5F5F5F5F5F5F5F5F5F5F5F5F5F5F5F5F5F5F5F5F5F5F5F5F5F5F5F5F5F5F5F5F5F5F5F5F5F5F5F5F5F5F5F5F5F5F5F5F5F5F5F5F5F5F5F5F5F5F5F5F5F5F5F5F5F5F5F5F5F5F5F5F5F5F5F5F5F5F5F5F5F5F5F5F5F5F5F5F5F5F5F5F5F5F5F5F5F5F5F5F5F5F5F5F5F5F5F5F5F5F5F5F5F5F5
310
F5F5F5F5F5F5F5F5F5F5F5F5F5F5F5F5F5F5F5F5F5F5F5F5F5F5F5F5F5F5F5F5F5F5F5F5F5F5F5F5F5F5F5F5F5F5F5F5F5F5F5F5F5F5F5E2F5E2E2E2F5E2F5F5F5F5F5F5F5F5F5F5F5F5F5F5F5F5F5F5F5F5F5F5F5F5F5F5F5F5F5F5F5F5F5F5F5F5F5F5F5F5F5F5F5F5F5F5F5F5F5F5F5F5F5F5F5F5F5F5F5F5F5F5F5F5F5
310
F5F5F5F5F5F5F5F5F5F5F5F5F5F5F5F5F5F5F5F5F5F5F5F5F5F5F5F5F5F5F5F5F5F5F5F5F5F5F5F5F5F5F5F5F5F5F5F5F5F5F5F5F5F5F5F5F5F5F5F5F5F5F5F5F5F5F5F5F5F5F5F5F5F5F5F5F5F5F5F5F5F5F5F5F5F5F5F5F5F5F5F5F5F5F5F5F5F5F5F5F5F5F5F5F5F5F5F5E2F5E2E2E2F5E2F5F5F5F5F5F5F5F5F5F5F5F5
310
F5F5F5F5F5F5F5F5F5F5F5F5F5F5F5F5F5F5F5F5F5F5F5F5F5F5F5F5F5F5F5F5F5F5F5F5F5F5F5F5F5F5F5F5F5F5F5F5F5F5F5F5F5F5F5F5F5F5F5F5F5F5F5F5F5F5F5F5F5F5F5F5F5F5F5F5F5F5F5F5F5F5F5F5F5F5F5F5F5F5F5F5F5F5F5F5F5F5F5F5F5F5F5F5F5F5F5F5F5F5F5F5F5F5F5F5F5F5F5F5F5F5F5F5F5F5F5
310
F5F5F5F5F5F5F5F5F5F5F5F5F5F5F5F5F5F5F5F5F5F5F5F5F5F5F5F5F5F5F5F5F5F5E2F5E2E2E2F5E2F5F5F5F5F5F5F5F5F5F5F5F5F5F5F5F5F5F5F5F5F5F5F5F5F5F5F5F5F5F5F5F5F5F5F5F5F5F5F5F5F5F5F5F5F5F5F5F5F5F5F5F5F5F5F5F5F5F5F5F5F5F5F5F5F5F5F5F5F5F5F5F5F5F5F5F5F5F5F5F5F5F5F5F5F5F5
310
F5F5F5F5F5F5F5F5F5F5F5F5F5F5F5F5F5F5F5F5F5F5F5F5F5F5F5F5F5F5F5F5F5F5F5F5F5F5F5F5F5F5F5F5F5F5F5F5F5F5F5F5F5F5F5F5F5F5F5F5F5F5F5F5F5F5F5F5F5F5F5F5F5F5F5F5F5F5F5F5F5F5F5F5F5F5F5E2F5E2E2E2F5E2F5F5F5F5F5F5F5F5F5F5F5F5F5F5F5F5F5F5F5F5F5F5F5F5F5F5F5F5F5F5F5F5F5
310
F5F5F5F5F5F5F5F5F5F5F5F5F5F5F5F5F5F5F5F5F5F5F5F5F5F5F5F5F5F5F5F5F5F5F5F5F5F5F5F5F5F5F5F5F5F5F5F5F5F5F5F5F5F5F5F5F5F5F5F5F5F5F5F5F5F5F5F5F5F5F5F5F5F5F5F5F5F5F5F5F5F5F5F5F5F5F5F5F5F5F5F5F5F5F5F5F5F5F5F5F5F5F5F5F5F5F5F5F5F5F5F5F5F5F5F5F5F5F5F5F5F5F5F5F5F5F5
310
F5F5F5F5F5F5F5F5F5F5F5F5F5E2F5E2E2E2F5E2F5F5F5F5F5F5F5F5F5F5F5F5F5F5F5F5F5F5F5F5F5F5F5F5F5F5F5F5F5F5F5F5F5F5F5F5F5F5F5F5F5F5F5F5F5F5F5F5F5F5F5F5F5F5F5F5F5F5F5F5F5F5F5F5F5F5F5F5F5F5F5F5F5F5F5F5F5F5F5F5F5F5F5F5F5F5F5F5F5F5F5F5F5F5F5F5F5F5F5F5F5F5F5F5F5F5F5
310
F5F5F5F5F5F5F5F5F5F5F5F5F5F5F5F5F5F5F5F5F5F5F5F5F5F5F5F5F5F5F5F5F5F5F5F5F5F5F5F5F5F5F5F5F5F5F5F5F5F5F5F5F5F5F5F5F5F5F5F5F5F5F5F5F5F5E2F5E2E2E2F5F5F5F5F5F5F5F5F5F5F5F5F5F5F5F5F5F5F5F5F5F5F5F5F5F5F5F5F5F5F5F5F5F5F5F5F5F5F5F5F5F5F5F5F5F5F5F5F5F5F5F5F5F5F5F5
310
F5F5F5F5F5F5F5F5F5F5F5F5F5F5F5F5F5F5F5F5F5F5F5F5F5F5F5F5F5F5F5F5F5F5F5F5F5F5F5F5F5F5F5F5F5F5F5F5F5F5F5F5F5F5F5F5F5F5F5F5F5F5F5F5F5F5F5F5F5F5F5F5F5F5F5F5F5F5F5F5F5F5F5F5F5F5F5F5F5F5F5F5F5F5F5F5F5F5F5F5F5F5F5F5F5F5F5F5F5F5F5F5F5F5F5F5F5F5F5F5F5E2E2E2F5F5F5
310
F5F5F5F5F5F5F5F5F5F5F5F5F5F5F5F5F5F5F5F5F5F5F5F5F5F5F5F5F5F5F5F5F5F5F5F5F5F5F5F5F5F5F5F5F5F5F5F5F5F5F5F5F5F5F5F5F5F5F5F5F5F5F5F5F5F5F5F5F5F5F5F5F5F5F5F5F5F5F5F5F5F5F5F5F5F5F5F5F5F5F5F5F5F5F5F5F5F5F5F5F5F5F5F5F5F5F5F5F5F5F5F5F5F5F5F5F5F5F5F5F5F5F5F5F5F5F5
310
F5F5F5F5F5F5F5F5F5F5F5F5F5F5F5F5F5F5F5F5F5F5F5F5F5F5F5F5F5F5F5F5F5F5F5F5F5F5F5F5F5F5F5F5F5F5F5E2E2E2F5F5F5F5F5F5F5F5F5F5F5F5F5F5F5F5F5F5F5F5F5F5F5F5F5F5F5F5F5F5F5F5F5F5F5F5F5F5F5F5F5F5F5F5F5F5F5F5F5F5F5F5F5F5F5F5F5F5F5F5F5F5F5F5F5F5F5F5F5F5F5F5F5F5F5F5F5
310
F5F5F5F5F5F5F5F5F5F5F5F5F5F5F5F5F5F5F5F5F5F5F5F5F5F5F5F5F5F5F5F5F5F5F5F5F5F5F5F5F5F5F5F5F5F5F5F5F5F5F5F5F5F5F5F5F5F5F5F5F5F5F5F5F5F5F5F5F5F5F5F5F5F5F5F5F5F5F5F5F5F5F5F5F5F5F5F5F5F5F5F5F5F5F5F5F5F5F5F5E2E2E2F5F5F5F5F5F5F5F5F5F5F5F5F5F5F5F5F5F5F5F5F5F5F5F5
310
F5F5F5F5F5F5F5F5F5F5F5F5F5F5F5F5F5F5F5F5F5F5F5F5F5F5F5F5F5F5F5F5F5F5F5F5F5F5F5F5F5F5F5F5F5F5F5F5F5F5F5F5F5F5F5F5F5F5F5F5F5F5F5F5F5F5F5F5F5F5F5F5F5F5F5F5F5F5F5F5F5F5F5F5F5F5F5F5F5F5F5F5F5F5F5F5F5F5F5F5F5F5F5F5F5F5F5F5F5F5F5F5F5F5F5F5F5F5F5F5F5F5F5F5F5F5F5
310
F5F5F5F5F5F5F5F5F5F5F5F5F5F5F5F5F5F5F5F5F5F5F5F5F5F5E2E2E2F5F5F5F5F5F5F5F5F5F5F5F5F5F5F5F5F5F5F5F5F5F5F5F5F5F5F5F5F5F5F5F5F5F5F5F5F5F5F5F5F5F5F5F5F5F5F5F5F5F5F5F5F5F5F5F5F5F5F5F5F5F5F5F5F5F5F5F5F5F5F5F5F5F5F5F5F5F5F5F5F5F5F5F5F5F5F5F5F5F5F5F5F5F5F5F5F5F5
310
F5F5F5F5F5F5F5F5F5F5F5F5F5F5F5F5F5F5F5F5F5F5F5F5F5F5F5F5F5F5F5F5F5F5F5F5F5F5F5F5F5F5F5F5F5F5F5F5F5F5F5F5F5F5F5F5F5F5F5F5F5F5F5F5F5F5F5F5F5F5F5F5F5F5F5F5F5F5F5E2E2E2F5F5F5F5F5F5F5F5F5F5F5F5F5F5F5F5F5F5F5F5F5F5F5F5F5F5F5F5F5F5F5F5F5F5F5F5F5F5F5F5F5F5F5F5F5
310
F5F5F5F5F5F5F5F5F5F5F5F5F5F5F5F5F5F5F5F5F5F5F5F5F5F5F5F5F5F5F5F5F5F5F5F5F5F5F5F5F5F5F5F5F5F5F5F5F5F5F5F5F5F5F5F5F5F5F5F5F5F5F5F5F5F5F5F5F5F5F5F5F5F5F5F5F5F5F5F5F5F5F5F5F5F5F5F5F5F5F5F5F5F5F5F5F5F5F5F5F5F5F5F5F5F5F5F5F5F5F5F5F5F5F5F5F5F5F5F5F5F5F5F5F5F5F5
310
F5F5F5F5F5E2E2E2F5F5F5F5F5F5F5F5F5F5F5F5F5F5F5F5F5F5F5F5F5F5F5F5F5F5F5F5F5F5F5F5F5F5F5F5F5F5F5F5F5F5F5F5F5F5F5F5F5F5F5F5F5F5F5F5F5F5F5F5F5F5F5F5F5F5F5F5F5F5F5F5F5F5F5F5F5F5F5F5F5F5F5F5F5F5F5F5F5F5F5F5F5F5F5F5F5F5F5F5F5F5F5F5F5F5F5F5F5F5F5F5F5F5F5F5F5F5F5
310
F5F5F5F5F5F5F5F5F5F5F5F5F5F5F5F5F5F5F5F5F5F5F5F5F5F5F5F5F5F5F5F5F5F5F5F5F5F5F5F5F5F5F5F5F5F5F5F5F5F5F5F5F5F5F5F5F5F5E2E2E2F5F5F5F5F5F5F5F5F5F5F5F5F5F5F5F5F5F5F5F5F5F5F5F5F5F5F5F5F5F5F5F5F5F5F5F5F5F5F5F5F5F5F5F5F5F5F5F5F5F5F5F5F5F5F5F5F5F5F5F5F5F5F5F5F5F5
310
F5F5F5F5F5F5F5F5F5F5F5F5F5F5F5F5F5F5F5F5F5F5F5F5F5F5F5F5F5F5F5F5F5F5F5F5F5F5F5F5F5F5F5F5F5F5F5F5F5F5F5F5F5F5F5F5F5F5F5F5F5F5F5F5F5F5F5F5F5F5F5F5F5F5F5F5F5F5F5F5F5F5F5F5F5F5F5F5F5F5F5F5F5F5F5F5F5F5F5F5F5F5F5F5F5F5F5F5F5F5F5E2E2E2F5F5F5F5F5F5F5F5F5F5F5F5F5
310
F5F5F5F5F5F5F5F5F5F5F5F5F5F5F5F5F5F5F5F5F5F5F5F5F5F5F5F5F5F5F5F5F5F5F5F5F5F5F5F5F5F5F5F5F5F5F5F5F5F5F5F5F5F5F5F5F5F5F5F5F5F5F5F5F5F5F5F5F5F5F5F5F5F5F5F5F5F5F5F5F5F5F5F5F5F5F5F5F5F5F5F5F5F5F5F5F5F5F5F5F5F5F5F5F5F5F5F5F5F5F5F5F5F5F5F5F5F5F5F5F5F5F5F5F5F5F5
310
F5F5F5F5F5F5F5F5F5F5F5F5F5F5F5F5F5F5F5F5F5F5F5F5F5F5F5F5F5F5F5F5F5F5F5F5F5E2E2E2F5E2F5F5F5F5F5F5F5F5F5F5F5F5F5F5F5F5F5F5F5F5F5F5F5F5F5F5F5F5F5F5F5F5F5F5F5F5F5F5F5F5F5F5F5F5F5F5F5F5F5F5F5F5F5F5F5F5F5F5F5F5F5F5F5F5F5F5F5F5F5F5F5F5F5F5F5F5F5F5F5F5F5F5F5F5F5
310
F5F5F5F5F5F5F5F5F5F5F5F5F5F5F5F5F5F5F5F5F5F5F5F5F5F5F5F5F5F5F5F5F5F5F5F5F5F5F5F5F5F5F5F5F5F5F5F5F5F5F5F5F5F5F5F5F5F5F5F5F5F5F5F5F5F5F5F5F5F5F5F5F5F5F5F5F5F5F5F5F5F5F5F5F5F5F5F5E2F5E2E2E2F5E2F5F5F5F5F5F5F5F5F5F5F5F5F5F5F5F5F5F5F5F5F5F5F5F5F5F5F5F5F5F5F5F5
310
F5F5F5F5F5F5F5F5F5F5F5F5F5F5F5F5F5F5F5F5F5F5F5F5F5F5F5F5F5F5F5F5F5F5F5F5F5F5F5F5F5F5F5F5F5F5F5F5F5F5F5F5F5F5F5F5F5F5F5F5F5F5F5F5F5F5F5F5F5F5F5F5F5F5F5F5F5F5F5F5F5F5F5F5F5F5F5F5F5F5F5F5F5F5F5F5F5F5F5F5F5F5F5F5F5F5F5F5F5F5F5F5F5F5F5F5F5F5F5F5F5F5F5F5F5F5F5
310
F5F5F5F5F5F5F5F5F5F5F5F5F5F5E2F5E2E2E2F5E2F5F5F5F5F5F5F5F5F5F5F5F5F5F5F5F5F5F5F5F5F5F5F5F5F5F5F5F5F5F5F5F5F5F5F5F5F5F5F5F5F5F5F5F5F5F5F5F5F5F5F5F5F5F5F5F5F5F5F5F5F5F5F5F5F5F5F5F5F5F5F5F5F5F5F5F5F5F5F5F5F5F5F5F5F5F5F5F5F5F5F5F5F5F5F5F5F5F5F5F5F5F5F5F5F5F5
310
F5F5F5F5F5F5F5F5F5F5F5F5F5F5F5F5F5F5F5F5F5F5F5F5F5F5F5F5F5F5F5F5F5F5F5F5F5F5F5F5F5F5F5F5F5F5F5F5F5F5F5F5F5F5F5F5F5F5F5F5F5F5F5F5F5F5F5E2F5E2E2E2F5E2F5F5F5F5F5F5F5F5F5F5F5F5F5F5F5F5F5F5F5F5F5F5F5F5F5F5F5F5F5F5F5F5F5F5F5F5F5F5F5F5F5F5F5F5F5F5F5F5F5F5F5F5F5
310
F5F5F5F5F5F5F5F5F5F5F5F5F5F5F5F5F5F5F5F5F5F5F5F5F5F5F5F5F5F5F5F5F5F5F5F5F5F5F5F5F5F5F5F5F5F5F5F5F5F5F5F5F5F5F5F5F5F5F5F5F5F5F5F5F5F5F5F5F5F5F5F5F5F5F5F5F5F5F5F5F5F5F5F5F5F5F5F5F5F5F5F5F5F5F5F5F5F5F5F5F5F5F5F5F5F5F5F5F5F5F5F5F5F5F5F5F5F5F5F5E2F5E2E2E2F5E2
310
F5F5F5F5F5F5F5F5F5F5F5F5F5F5F5F5F5F5F5F5F5F5F5F5F5F5F5F5F5F5F5F5F5F5F5F5F5F5F5F5F5F5F5F5F5F5F5F5F5F5F5F5F5F5F5F5F5F5F5F5F5F5F5F5F5F5F5F5F5F5F5F5F5F5F5F5F5F5F5F5F5F5F5F5F5F5F5F5F5F5F5F5F5F5F5F5F5F5F5F5F5F5F5F5F5F5F5F5F5F5F5F5F5F5F5F5F5F5F5F5F5F5F5F5F5F5F5
310
F5F5F5F5F5F5F5F5F5F5F5F5F5F5F5F5F5F5F5F5F5F5F5F5F5F5F5F5F5F5F5F5F5F5F5F5F5F5F5F5F5F5F5F5F5F5E2F5E2E2E2F5E2F5F5F5F5F5F5F5F5F5F5F5F5F5F5F5F5F5F5F5F5F5F5F5F5F5F5F5F5F5F5F5F5F5F5F5F5F5F5F5F5F5F5F5F5F5F5F5F5F5F5F5F5F5F5F5F5F5F5F5F5F5F5F5F5F5F5F5F5F5F5F5F5F5F5
310
F5F5F5F5F5F5F5F5F5F5F5F5F5F5F5F5F5F5F5F5F5F5F5F5F5F5F5F5F5F5F5F5F5F5F5F5F5F5F5F5F5F5F5F5F5F5F5F5F5F5F5F5F5F5F5F5F5F5F5F5F5F5F5F5F5F5F5F5F5F5F5F5F5F5F5F5F5F5F5F5F5F5F5F5F5F5F5F5F5F5F5F5F5F5F5F5F5F5F5E2F5E2E2E2F5E2F5F5F5F5F5F5F5F5F5F5F5F5F5F5F5F5F5F5F5F5F5
310
F5F5F5F5F5F5F5F5F5F5F5F5F5F5F5F5F5F5F5F5F5F5F5F5F5F5F5F5F5F5F5F5F5F5F5F5F5F5F5F5F5F5F5F5F5F5F5F5F5F5F5F5F5F5F5F5F5F5F5F5F5F5F5F5F5F5F5F5F5F5F5F5F5F5F5F5F5F5F5F5F5F5F5F5F5F5F5F5F5F5F5F5F5F5F5F5F5F5F5F5F5F5F5F5F5F5F5F5F5F5F5F5F5F5F5F5F5F5F5F5F5F5F5F5F5F5F5
310
F5F5F5F5F5F5F5F5F5F5F5F5F5F5F5F5F5F5F5F5F5F5F5F5F5E2F5E2E2E2F5E2F5F5F5F5F5F5F5F5F5F5F5F5F5F5F5F5F5F5F5F5F5F5F5F5F5F5F5F5F5F5F5F5F5F5F5F5F5F5F5F5F5F5F5F5F5F5F5F5F5F5F5F5F5F5F5F5F5F5F5F5F5F5F5F5F5F5F5F5F5F5F5F5F5F5F5F5F5F5F5F5F5F5F5F5F5F5F5F5F5F5F5F5F5F5F5
310
F5F5F5F5F5F5F5F5F5F5F5F5F5F5F5F5F5F5F5F5F5F5F5F5F5F5F5F5F5F5F5F5F5F5F5F5F5F5F5F5F5F5F5F5F5F5F5F5F5F5F5F5F5F5F5F5F5F5F5F5F5F5F5F5F5F5F5F5F5F5F5F5F5F5F5F5F5F5E2F5E2E2E2F5E2F5F5F5F5F5F5F5F5F5F5F5F5F5F5F5F5F5F5F5F5F5F5F5F5F5F5F5F5F5F5F5F5F5F5F5F5F5F5F5F5F5F5
310
F5F5F5F5F5F5F5F5F5F5F5F5F5F5F5F5F5F5F5F5F5F5F5F5F5F5F5F5F5F5F5F5F5F5F5F5F5F5F5F5F5F5F5F5F5F5F5F5F5F5F5F5F5F5F5F5F5F5F5F5F5F5F5F5F5F5F5F5F5F5F5F5F5F5F5F5F5F5F5F5F5F5F5F5F5F5F5F5F5F5F5F5F5F5F5F5F5F5F5F5F5F5F5F5F5F5F5F5F5F5F5F5F5F5F5F5F5F5F5F5F5F5F5F5F5F5F5
310
F5F5F5F5E2F5E2E2E2F5E2F5F5F5F5F5F5F5F5F5F5F5F5F5F5F5F5F5F5F5F5F5F5F5F5F5F5F5F5F5F5F5F5F5F5F5F5F5F5F5F5F5F5F5F5F5F5F5F5F5F5F5F5F5F5F5F5F5F5F5F5F5F5F5F5F5F5F5F5F5F5F5F5F5F5F5F5F5F5F5F5F5F5F5F5F5F5F5F5F5F5F5F5F5F5F5F5F5F5F5F5F5F5F5F5F5F5F5F5F5F5F5F5F5F5F5F5
310
F5F5F5F5F5F5F5F5F5F5F5F5F5F5F5F5F5F5F5F5F5F5F5F5F5F5F5F5F5F5F5F5F5F5F5F5F5F5F5F5F5F5F5F5F5F5F5F5F5F5F5F5F5F5F5F5F5E2F5E2E2E2F5E2F5F5F5F5F5F5F5F5F5F5F5F5F5F5F5F5F5F5F5F5F5F5F5F5F5F5F5F5F5F5F5F5F5F5F5F5F5F5F5F5F5F5F5F5F5F5F5F5F5F5F5F5F5F5F5F5F5F5F5F5F5F5F5
310
F5F5F5F5F5F5F5F5F5F5F5F5F5F5F5F5F5F5F5F5F5F5F5F5F5F5F5F5F5F5F5F5F5F5F5F5F5F5F5F5F5F5F5F5F5F5F5F5F5F5F5F5F5F5F5F5F5F5F5F5F5F5F5F5F5F5F5F5F5F5F5F5F5F5F5F5F5F5F5F5F5F5F5F5F5F5F5F5F5F5F5F5F5F5F5F5F5F5F5F5F5F5F5F5F5F5F5F5F5F5E2F5E2E2E2F5E2F5F5F5F5F5F5F5F5F5F5
310
F5F5F5F5F5F5F5F5F5F5F5F5F5F5F5F5F5F5F5F5F5F5F5F5F5F5F5F5F5F5F5F5F5F5F5F5F5F5F5F5F5F5F5F5F5F5F5F5F5F5F5F5F5F5F5F5F5F5F5F5F5F5F5F5F5F5F5F5F5F5F5F5F5F5F5F5F5F5F5F5F5F5F5F5F5F5F5F5F5F5F5F5F5F5F5F5F5F5F5F5F5F5F5F5F5F5F5F5F5F5F5F5F5F5F5F5F5F5F5F5F5F5F5F5F5F5F5
310
F5F5F5F5F5F5F5F5F5F5F5F5F5F5F5F5F5F5F5F5F5F5F5F5F5F5F5F5F5F5F5F5F5F5F5F5E2F5E2E2E2F5E2F5F5F5F5F5F5F5F5F5F5F5F5F5F5F5F5F5F5F5F5F5F5F5F5F5F5F5F5F5F5F5F5F5F5F5F5F5F5F5F5F5F5F5F5F5F5F5F5F5F5F5F5F5F5F5F5F5F5F5F5F5F5F5F5F5F5F5F5F5F5F5F5F5F5F5F5F5F5F5F5F5F5F5F5
310
F5F5F5F5F5F5F5F5F5F5F5F5F5F5F5F5F5F5F5F5F5F5F5F5F5F5F5F5F5F5F5F5F5F5F5F5F5F5F5F5F5F5F5F5F5F5F5F5F5F5F5F5F5F5F5F5F5F5F5F5F5F5F5F5F5F5F5F5F5F5F5F5F5F5F5F5F5F5F5F5F5F5F5F5F5F5F5F5F5E2F5E2E2E2F5E2F5F5F5F5F5F5F5F5F5F5F5F5F5F5F5F5F5F5F5F5F5F5F5F5F5F5F5F5F5F5F5
310
F5F5F5F5F5F5F5F5F5F5F5F5F5F5F5F5F5F5F5F5F5F5F5F5F5F5F5F5F5F5F5F5F5F5F5F5F5F5F5F5F5F5F5F5F5F5F5F5F5F5F5F5F5F5F5F5F5F5F5F5F5F5F5F5F5F5F5F5F5F5F5F5F5F5F5F5F5F5F5F5F5F5F5F5F5F5F5F5F5F5F5F5F5F5F5F5F5F5F5F5F5F5F5F5F5F5F5F5F5F5F5F5F5F5F5F5F5F5F5F5F5F5F5F5F5F5F5
310
F5F5F5F5F5F5F5F5F5F5F5F5F5F5F5E2F5E2E2E2F5E2F5F5F5F5F5F5F5F5F5F5F5F5F5F5F5F5F5F5F5F5F5F5F5F5F5F5F5F5F5F5F5F5F5F5F5F5F5F5F5F5F5F5F5F5F5F5F5F5F5F5F5F5F5F5F5F5F5F5F5F5F5F5F5F5F5F5F5F5F5F5F5F5F5F5F5F5F5F5F5F5F5F5F5F5F5F5F5F5F5F5F5F5F5F5F5F5F5F5F5F5F5F5F5F5F5
310
F5F5F5F5F5F5F5F5F5F5F5F5F5F5F5F5F5F5F5F5F5F5F5F5F5F5F5F5F5F5F5F5F5F5F5F5F5F5F5F5F5F5F5F5F5F5F5F5F5F5F5F5F5F5F5F5F5F5F5F5F5F5F5F5F5F5F5F5E2F5E2E2E2F5E2F5F5F5F5F5F5F5F5F5F5F5F5F5F5F5F5F5F5F5F5F5F5F5F5F5F5F5F5F5F5F5F5F5F5F5F5F5F5F5F5F5F5F5F5F5F5F5F5F5F5F5F5
310
F5F5F5F5F5F5F5F5F5F5F5F5F5F5F5F5F5F5F5F5F5F5F5F5F5F5F5F5F5F5F5F5F5F5F5F5F5F5F5F5F5F5F5F5F5F5F5F5F5F5F5F5F5F5F5F5F5F5F5F5F5F5F5F5F5F5F5F5F5F5F5F5F5F5F5F5F5F5F5F5F5F5F5F5F5F5F5F5F5F5F5F5F5F5F5F5F5F5F5F5F5F5F5F5F5F5F5F5F5F5F5F5F5F5F5F5F5F5F5F5F5E2F5E2E2E2F5
310
F5F5F5F5F5F5F5F5F5F5F5F5F5F5F5F5F5F5F5F5F5F5F5F5F5F5F5F5F5F5F5F5F5F5F5F5F5F5F5F5F5F5F5F5F5F5F5F5F5F5F5F5F5F5F5F5F5F5F5F5F5F5F5F5F5F5F5F5F5F5F5F5F5F5F5F5F5F5F5F5F5F5F5F5F5F5F5F5F5F5F5F5F5F5F5F5F5F5F5F5F5F5F5F5F5F5F5F5F5F5F5F5F5F5F5F5F5F5F5F5F5F5F5F5F5F5F5
310
F5F5F5F5F5F5F5F5F5F5F5F5F5F5F5F5F5F5F5F5F5F5F5F5F5F5F5F5F5F5F5F5F5F5F5F5F5F5F5F5F5F5F5F5F5F5F5F5F5E2E2E2F5F5F5F5F5F5F5F5F5F5F5F5F5F5F5F5F5F5F5F5F5F5F5F5F5F5F5F5F5F5F5F5F5F5F5F5F5F5F5F5F5F5F5F5F5F5F5F5F5F5F5F5F5F5F5F5F5F5F5F5F5F5F5F5F5F5F5F5F5F5F5F5F5F5F5
310
F5F5F5F5F5F5F5F5F5F5F5F5F5F5F5F5F5F5F5F5F5F5F5F5F5F5F5F5F5F5F5F5F5F5F5F5F5F5F5F5F5F5F5F5F5F5F5F5F5F5F5F5F5F5F5F5F5F5F5F5F5F5F5F5F5F5F5F5F5F5F5F5F5F5F5F5F5F5F5F5F5F5F5F5F5F5F5F5F5F5F5F5F5F5F5F5F5F5F5F5F5F5E2E2E2F5F5F5F5F5F5F5F5F5F5F5F5F5F5F5F5F5F5F5F5F5F5
310
F5F5F5F5F5F5F5F5F5F5F5F5F5F5F5F5F5F5F5F5F5F5F5F5F5F5F5F5F5F5F5F5F5F5F5F5F5F5F5F5F5F5F5F5F5F5F5F5F5F5F5F5F5F5F5F5F5F5F5F5F5F5F5F5F5F5F5F5F5F5F5F5F5F5F5F5F5F5F5F5F5F5F5F5F5F5F5F5F5F5F5F5F5F5F5F5F5F5F5F5F5F5F5F5F5F5F5F5F5F5F5F5F5F5F5F5F5F5F5F5F5F5F5F5F5F5F5
310
F5F5F5F5F5F5F5F5F5F5F5F5F5F5F5F5F5F5F5F5F5F5F5F5F5F5F5F5E2E2E2F5F5F5F5F5F5F5F5F5F5F5F5F5F5F5F5F5F5F5F5F5F5F5F5F5F5F5F5F5F5F5F5F5F5F5F5F5F5F5F5F5F5F5F5F5F5F5F5F5F5F5F5F5F5F5F5F5F5F5F5F5F5F5F5F5F5F5F5F5F5F5F5F5F5F5F5F5F5F5F5F5F5F5F5F5F5F5F5F5F5F5F5F5F5F5F5
310
F5F5F5F5F5F5F5F5F5F5F5F5F5F5F5F5F5F5F5F5F5F5F5F5F5F5F5F5F5F5F5F5F5F5F5F5F5F5F5F5F5F5F5F5F5F5F5F5F5F5F5F5F5F5F5F5F5F5F5F5F5F5F5F5F5F5F5F5F5F5F5F5F5F5F5F5F5F5F5F5F5E2E2E2F5F5F5F5F5F5F5F5F5F5F5F5F5F5F5F5F5F5F5F5F5F5F5F5F5F5F5F5F5F5F5F5F5F5F5F5F5F5F5F5F5F5F5
310
F5F5F5F5F5F5F5F5F5F5F5F5F5F5F5F5F5F5F5F5F5F5F5F5F5F5F5F5F5F5F5F5F5F5F5F5F5F5F5F5F5F5F5F5F5F5F5F5F5F5F5F5F5F5F5F5F5F5F5F5F5F5F5F5F5F5F5F5F5F5F5F5F5F5F5F5F5F5F5F5F5F5F5F5F5F5F5F5F5F5F5F5F5F5F5F5F5F5F5F5F5F5F5F5F5F5F5F5F5F5F5F5F5F5F5F5F5F5F5F5F5F5F5F5F5F5F5
310
F5F5F5F5F5F5F5E2E2E2F5F5F5F5F5F5F5F5F5F5F5F5F5F5F5F5F5F5F5F5F5F5F5F5F5F5F5F5F5F5F5F5F5F5F5F5F5F5F5F5F5F5F5F5F5F5F5F5F5F5F5F5F5F5F5F5F5F5F5F5F5F5F5F5F5F5F5F5F5F5F5F5F5F5F5F5F5F5F5F5F5F5F5F5F5F5F5F5F5F5F5F5F5F5F5F5F5F5F5F5F5F5F5F5F5F5F5F5F5F5F5F5F5F5F5F5F5
310
F5F5F5F5F5F5F5F5F5F5F5F5F5F5F5F5F5F5F5F5F5F5F5F5F5F5F5F5F5F5F5F5F5F5F5F5F5F5F5F5F5F5F5F5F5F5F5F5F5F5F5F5F5F5F5F5F5F5F5F5E2E2E2F5F5F5F5F5F5F5F5F5F5F5F5F5F5F5F5F5F5F5F5F5F5F5F5F5F5F5F5F5F5F5F5F5F5F5F5F5F5F5F5F5F5F5F5F5F5F5F5F5F5F5F5F5F5F5F5F5F5F5F5F5F5F5F5
310
F5F5F5F5F5F5F5F5F5F5F5F5F5F5F5F5F5F5F5F5F5F5F5F5F5F5F5F5F5F5F5F5F5F5F5F5F5F5F5F5F5F5F5F5F5F5F5F5F5F5F5F5F5F5F5F5F5F5F5F5F5F5F5F5F5F5F5F5F5F5F5F5F5F5F5F5F5F5F5F5F5F5F5F5F5F5F5F5F5F5F5F5F5F5F5F5F5F5F5F5F5F5F5F5F5F5F5F5F5F5F5F5F5E2E2E2F5F5F5F5F5F5F5F5F5F5F5
310
F5F5F5F5F5F5F5F5F5F5F5F5F5F5F5F5F5F5F5F5F5F5F5F5F5F5F5F5F5F5F5F5F5F5F5F5F5F5F5F5F5F5F5F5F5F5F5F5F5F5F5F5F5F5F5F5F5F5F5F5F5F5F5F5F5F5F5F5F5F5F5F5F5F5F5F5F5F5F5F5F5F5F5F5F5F5F5F5F5F5F5F5F5F5F5F5F5F5F5F5F5F5F5F5F5F5F5F5F5F5F5F5F5F5F5F5F5F5F5F5F5F5F5F5F5F5F5
310
F5F5F5F5F5F5F5F5F5F5F5F5F5F5F5F5F5F5F5F5F5F5F5F5F5F5F5F5F5F5F5F5F5F5F5F5F5F5F5E2E2E2F5E2F5F5F5F5F5F5F5F5F5F5F5F5F5F5F5F5F5F5F5F5F5F5F5F5F5F5F5F5F5F5F5F5F5F5F5F5F5F5F5F5F5F5F5F5F5F5F5F5F5F5F5F5F5F5F5F5F5F5F5F5F5F5F5F5F5F5F5F5F5F5F5F5F5F5F5F5F5F5F5F5F5F5F5
310
F5F5F5F5F5F5F5F5F5F5F5F5F5F5F5F5F5F5F5F5F5F5F5F5F5F5F5F5F5F5F5F5F5F5F5F5F5F5F5F5F5F5F5F5F5F5F5F5F5F5F5F5F5F5F5F5F5F5F5F5F5F5F5F5F5F5F5F5F5F5F5F5F5F5F5F5F5F5F5F5F5F5F5F5F5F5F5F5F5F5E2F5E2E2E2F5E2F5F5F5F5F5F5F5F5F5F5F5F5F5F5F5F5F5F5F5F5F5F5F5F5F5F5F5F5F5F5
310
F5F5F5F5F5F5F5F5F5F5F5F5F5F5F5F5F5F5F5F5F5F5F5F5F5F5F5F5F5F5F5F5F5F5F5F5F5F5F5F5F5F5F5F5F5F5F5F5F5F5F5F5F5F5F5F5F5F5F5F5F5F5F5F5F5F5F5F5F5F5F5F5F5F5F5F5F5F5F5F5F5F5F5F5F5F5F5F5F5F5F5F5F5F5F5F5F5F5F5F5F5F5F5F5F5F5F5F5F5F5F5F5F5F5F5F5F5F5F5F5F5F5F5F5F5F5F5
310
F5F5F5F5F5F5F5F5F5F5F5F5F5F5F5F5E2F5E2E2E2F5E2F5F5F5F5F5F5F5F5F5F5F5F5F5F5F5F5F5F5F5F5F5F5F5F5F5F5F5F5F5F5F5F5F5F5F5F5F5F5F5F5F5F5F5F5F5F5F5F5F5F5F5F5F5F5F5F5F5F5F5F5F5F5F5F5F5F5F5F5F5F5F5F5F5F5F5F5F5F5F5F5F5F5F5F5F5F5F5F5F5F5F5F5F5F5F5F5F5F5F5F5F5F5F5F5
310
F5F5F5F5F5F5F5F5F5F5F5F5F5F5F5F5F5F5F5F5F5F5F5F5F5F5F5F5F5F5F5F5F5F5F5F5F5F5F5F5F5F5F5F5F5F5F5F5F5F5F5F5F5F5F5F5F5F5F5F5F5F5F5F5F5F5F5F5F5E2F5E2E2E2F5E2F5F5F5F5F5F5F5F5F5F5F5F5F5F5F5F5F5F5F5F5F5F5F5F5F5F5F5F5F5F5F5F5F5F5F5F5F5F5F5F5F5F5F5F5F5F5F5F5F5F5F5
310
F5F5F5F5F5F5F5F5F5F5F5F5F5F5F5F5F5F5F5F5F5F5F5F5F5F5F5F5F5F5F5F5F5F5F5F5F5F5F5F5F5F5F5F5F5F5F5F5F5F5F5F5F5F5F5F5F5F5F5F5F5F5F5F5F5F5F5F5F5F5F5F5F5F5F5F5F5F5F5F5F5F5F5F5F5F5F5F5F5F5F5F5F5F5F5F5F5F5F5F5F5F5F5F5F5F5F5F5F5F5F5F5F5F5F5F5F5F5F5F5F5F5E2F5E2E2E2
310
F5E2F5F5F5F5F5F5F5F5F5F5F5F5F5F5F5F5F5F5F5F5F5F5F5F5F5F5F5F5F5F5F5F5F5F5F5F5F5F5F5F5F5F5F5F5F5F5F5F5F5F5F5F5F5F5F5F5F5F5F5F5F5F5F5F5F5F5F5F5F5F5F5F5F5F5F5F5F5F5F5F5F5F5F5F5F5F5F5F5F5F5F5F5F5F5F5F5F5F5F5F5F5F5F5F5F5F5F5F5F5F5F5F5F5F5F5F5F5F5F5F5F5F5F5F5F5
310
F5F5F5F5F5F5F5F5F5F5F5F5F5F5F5F5F5F5F5F5F5F5F5F5F5F5F5F5F5F5F5F5F5F5F5F5F5F5F5F5F5F5F5F5F5F5F5F5E2F5E2E2E2F5E2F5F5F5F5F5F5F5F5F5F5F5F5F5F5F5F5F5F5F5F5F5F5F5F5F5F5F5F5F5F5F5F5F5F5F5F5F5F5F5F5F5F5F5F5F5F5F5F5F5F5F5F5F5F5F5F5F5F5F5F5F5F5F5F5F5F5F5F5F5F5F5F5
310
F5F5F5F5F5F5F5F5F5F5F5F5F5F5F5F5F5F5F5F5F5F5F5F5F5F5F5F5F5F5F5F5F5F5F5F5F5F5F5F5F5F5F5F5F5F5F5F5F5F5F5F5F5F5F5F5F5F5F5F5F5F5F5F5F5F5F5F5F5F5F5F5F5F5F5F5F5F5F5F5F5F5F5F5F5F5F5F5F5F5F5F5F5F5F5F5F5F5F5F5F5E2F5E2E2E2F5E2F5F5F5F5F5F5F5F5F5F5F5F5F5F5F5F5F5F5F5
310
F5F5F5F5F5F5F5F5F5F5F5F5F5F5F5F5F5F5F5F5F5F5F5F5F5F5F5F5F5F5F5F5F5F5F5F5F5F5F5F5F5F5F5F5F5F5F5F5F5F5F5F5F5F5F5F5F5F5F5F5F5F5F5F5F5F5F5F5F5F5F5F5F5F5F5F5F5F5F5F5F5F5F5F5F5F5F5F5F5F5F5F5F5F5F5F5F5F5F5F5F5F5F5F5F5F5F5F5F5F5F5F5F5F5F5F5F5F5F5F5F5F5F5F5F5F5F5
310
F5F5F5F5F5F5F5F5F5F5F5F5F5F5F5F5F5F5F5F5F5F5F5F5F5F5F5E2F5E2E2E2F5E2F5F5F5F5F5F5F5F5F5F5F5F5F5F5F5F5F5F5F5F5F5F5F5F5F5F5F5F5F5F5F5F5F5F5F5F5F5F5F5F5F5F5F5F5F5F5F5F5F5F5F5F5F5F5F5F5F5F5F5F5F5F5F5F5F5F5F5F5F5F5F5F5F5F5F5F5F5F5F5F5F5F5F5F5F5F5F5F5F5F5F5F5F5
310
F5F5F5F5F5F5F5F5F5F5F5F5F5F5F5F5F5F5F5F5F5F5F5F5F5F5F5F5F5F5F5F5F5F5F5F5F5F5F5F5F5F5F5F5F5F5F5F5F5F5F5F5F5F5F5F5F5F5F5F5F5F5F5F5F5F5F5F5F5F5F5F5F5F5F5F5F5F5F5F5E2F5E2E2E2F5E2F5F5F5F5F5F5F5F5F5F5F5F5F5F5F5F5F5F5F5F5F5F5F5F5F5F5F5F5F5F5F5F5F5F5F5F5F5F5F5F5
310
F5F5F5F5F5F5F5F5F5F5F5F5F5F5F5F5F5F5F5F5F5F5F5F5F5F5F5F5F5F5F5F5F5F5F5F5F5F5F5F5F5F5F5F5F5F5F5F5F5F5F5F5F5F5F5F5F5F5F5F5F5F5F5F5F5F5F5F5F5F5F5F5F5F5F5F5F5F5F5F5F5F5F5F5F5F5F5F5F5F5F5F5F5F5F5F5F5F5F5F5F5F5F5F5F5F5F5F5F5F5F5F5F5F5F5F5F5F5F5F5F5F5F5F5F5F5F5
310
F5F5F5F5F5F5E2F5E2E2E2F5E2F5F5F5F5F5F5F5F5F5F5F5F5F5F5F5F5F5F5F5F5F5F5F5F5F5F5F5F5F5F5F5F5F5F5F5F5F5F5F5F5F5F5F5F5F5F5F5F5F5F5F5F5F5F5F5F5F5F5F5F5F5F5F5F5F5F5F5F5F5F5F5F5F5F5F5F5F5F5F5F5F5F5F5F5F5F5F5F5F5F5F5F5F5F5F5F5F5F5F5F5F5F5F5F5F5F5F5F5F5F5F5F5F5F5
310
F5F5F5F5F5F5F5F5F5F5F5F5F5F5F5F5F5F5F5F5F5F5F5F5F5F5F5F5F5F5F5F5F5F5F5F5F5F5F5F5F5F5F5F5F5F5F5F5F5F5F5F5F5F5F5F5F5F5F5E2F5E2E2E2F5E2F5F5F5F5F5F5F5F5F5F5F5F5F5F5F5F5F5F5F5F5F5F5F5F5F5F5F5F5F5F5F5F5F5F5F5F5F5F5F5F5F5F5F5F5F5F5F5F5F5F5F5F5F5F5F5F5F5F5F5F5F5
310
F5F5F5F5F5F5F5F5F5F5F5F5F5F5F5F5F5F5F5F5F5F5F5F5F5F5F5F5F5F5F5F5F5F5F5F5F5F5F5F5F5F5F5F5F5F5F5F5F5F5F5F5F5F5F5F5F5F5F5F5F5F5F5F5F5F5F5F5F5F5F5F5F5F5F5F5F5F5F5F5F5F5F5F5F5F5F5F5F5F5F5F5F5F5F5F5F5F5F5F5F5F5F5F5F5F5F5F5F5F5F5F5E2F5E2E2E2F5E2F5F5F5F5F5F5F5F5
310
F5F5F5F5F5F5F5F5F5F5F5F5F5F5F5F5F5F5F5F5F5F5F5F5F5F5F5F5F5F5F5F5F5F5F5F5F5F5F5F5F5F5F5F5F5F5F5F5F5F5F5F5F5F5F5F5F5F5F5F5F5F5F5F5F5F5F5F5F5F5F5F5F5F5F5F5F5F5F5F5F5F5F5F5F5F5F5F5F5F5F5F5F5F5F5F5F5F5F5F5F5F5F5F5F5F5F5F5F5F5F5F5F5F5F5F5F5F5F5F5F5F5F5F5F5F5F5
310
F5F5F5F5F5F5F5F5F5F5F5F5F5F5F5F5F5F5F5F5F5F5F5F5F5F5F5F5F5F5F5F5F5F5F5F5F5F5E2F5E2E2E2F5E2F5F5F5F5F5F5F5F5F5F5F5F5F5F5F5F5F5F5F5F5F5F5F5F5F5F5F5F5F5F5F5F5F5F5F5F5F5F5F5F5F5F5F5F5F5F5F5F5F5F5F5F5F5F5F5F5F5F5F5F5F5F5F5F5F5F5F5F5F5F5F5F5F5F5F5F5F5F5F5F5F5F5
310
F5F5F5F5F5F5F5F5F5F5F5F5F5F5F5F5F5F5F5F5F5F5F5F5F5F5F5F5F5F5F5F5F5F5F5F5F5F5F5F5F5F5F5F5F5F5F5F5F5F5F5F5F5F5F5F5F5F5F5F5F5F5F5F5F5F5F5F5F5F5F5F5F5F5F5F5F5F5F5F5F5F5F5F5F5F5F5F5F5F5F5E2F5E2E2E2F5E2F5F5F5F5F5F5F5F5F5F5F5F5F5F5F5F5F5F5F5F5F5F5F5F5F5F5F5F5F5
310
F5F5F5F5F5F5F5F5F5F5F5F5F5F5F5F5F5F5F5F5F5F5F5F5F5F5F5F5F5F5F5F5F5F5F5F5F5F5F5F5F5F5F5F5F5F5F5F5F5F5F5F5F5F5F5F5F5F5F5F5F5F5F5F5F5F5F5F5F5F5F5F5F5F5F5F5F5F5F5F5F5F5F5F5F5F5F5F5F5F5F5F5F5F5F5F5F5F5F5F5F5F5F5F5F5F5F5F5F5F5F5F5F5F5F5F5F5F5F5F5F5F5F5F5F5F5F5
310
F5F5F5F5F5F5F5F5F5F5F5F5F5F5F5F5F5E2F5E2E2E2F5E2F5F5F5F5F5F5F5F5F5F5F5F5F5F5F5F5F5F5F5F5F5F5F5F5F5F5F5F5F5F5F5F5F5F5F5F5F5F5F5F5F5F5F5F5F5F5F5F5F5F5F5F5F5F5F5F5F5F5F5F5F5F5F5F5F5F5F5F5F5F5F5F5F5F5F5F5F5F5F5F5F5F5F5F5F5F5F5F5F5F5F5F5F5F5F5F5F5F5F5F5F5F5F5
310
F5F5F5F5F5F5F5F5F5F5F5F5F5F5F5F5F5F5F5F5F5F5F5F5F5F5F5F5F5F5F5F5F5F5F5F5F5F5F5F5F5F5F5F5F5F5F5F5F5F5F5F5F5F5F5F5F5F5F5F5F5F5F5F5F5F5F5F5F5F5E2F5E2E2E2F5E2F5F5F5F5F5F5F5F5F5F5F5F5F5F5F5F5F5F5F5F5F5F5F5F5F5F5F5F5F5F5F5F5F5F5F5F5F5F5F5F5F5F5F5F5F5F5F5F5F5F5
310
F5F5F5F5F5F5F5F5F5F5F5F5F5F5F5F5F5F5F5F5F5F5F5F5F5F5F5F5F5F5F5F5F5F5F5F5F5F5F5F5F5F5F5F5F5F5F5F5F5F5F5F5F5F5F5F5F5F5F5F5F5F5F5F5F5F5F5F5F5F5F5F5F5F5F5F5F5F5F5F5F5F5F5F5F5F5F5F5F5F5F5F5F5F5F5F5F5F5F5F5F5F5F5F5F5F5F5F5F5F5F5F5F5F5F5F5F5F5F5F5F5F5F5E2F5E2E2
310
E2F5F5F5F5F5F5F5F5F5F5F5F5F5F5F5F5F5F5F5F5F5F5F5F5F5F5F5F5F5F5F5F5F5F5F5F5F5F5F5F5F5F5F5F5F5F5F5F5F5F5F5F5F5F5F5F5F5F5F5F5F5F5F5F5F5F5F5F5F5F5F5F5F5F5F5F5F5F5F5F5F5F5F5F5F5F5F5F5F5F5F5F5F5F5F5F5F5F5F5F5F5F5F5F5F5F5F5F5F5F5F5F5F5F5F5F5F5F5F5F5F5F5F5F5F5F5
310
F5F5F5F5F5F5F5F5F5F5F5F5F5F5F5F5F5F5F5F5F5F5F5F5F5F5F5F5F5F5F5F5F5F5F5F5F5F5F5F5F5F5F5F5F5F5F5F5F5F5F5E2E2E2F5F5F5F5F5F5F5F5F5F5F5F5F5F5F5F5F5F5F5F5F5F5F5F5F5F5F5F5F5F5F5F5F5F5F5F5F5F5F5F5F5F5F5F5F5F5F5F5F5F5F5F5F5F5F5F5F5F5F5F5F5F5F5F5F5F5F5F5F5F5F5F5F5
310
F5F5F5F5F5F5F5F5F5F5F5F5F5F5F5F5F5F5F5F5F5F5F5F5F5F5F5F5F5F5F5F5F5F5F5F5F5F5F5F5F5F5F5F5F5F5F5F5F5F5F5F5F5F5F5F5F5F5F5F5F5F5F5F5F5F5F5F5F5F5F5F5F5F5F5F5F5F5F5F5F5F5F5F5F5F5F5F5F5F5F5F5F5F5F5F5F5F5F5F5F5F5F5F5E2E2E2F5F5F5F5F5F5F5F5F5F5F5F5F5F5F5F5F5F5F5F5
310
F5F5F5F5F5F5F5F5F5F5F5F5F5F5F5F5F5F5F5F5F5F5F5F5F5F5F5F5F5F5F5F5F5F5F5F5F5F5F5F5F5F5F5F5F5F5F5F5F5F5F5F5F5F5F5F5F5F5F5F5F5F5F5F5F5F5F5F5F5F5F5F5F5F5F5F5F5F5F5F5F5F5F5F5F5F5F5F5F5F5F5F5F5F5F5F5F5F5F5F5F5F5F5F5F5F5F5F5F5F5F5F5F5F5F5F5F5F5F5F5F5F5F5F5F5F5F5
310
F5F5F5F5F5F5F5F5F5F5F5F5F5F5F5F5F5F5F5F5F5F5F5F5F5F5F5F5F5F5E2E2E2F5F5F5F5F5F5F5F5F5F5F5F5F5F5F5F5F5F5F5F5F5F5F5F5F5F5F5F5F5F5F5F5F5F5F5F5F5F5F5F5F5F5F5F5F5F5F5F5F5F5F5F5F5F5F5F5F5F5F5F5F5F5F5F5F5F5F5F5F5F5F5F5F5F5F5F5F5F5F5F5F5F5F5F5F5F5F5F5F5F5F5F5F5F5
310
F5F5F5F5F5F5F5F5F5F5F5F5F5F5F5F5F5F5F5F5F5F5F5F5F5F5F5F5F5F5F5F5F5F5F5F5F5F5F5F5F5F5F5F5F5F5F5F5F5F5F5F5F5F5F5F5F5F5F5F5F5F5F5F5F5F5F5F5F5F5F5F5F5F5F5F5F5F5F5F5F5F5F5E2E2E2F5F5F5F5F5F5F5F5F5F5F5F5F5F5F5F5F5F5F5F5F5F5F5F5F5F5F5F5F5F5F5F5F5F5F5F5F5F5F5F5F5
310
F5F5F5F5F5F5F5F5F5F5F5F5F5F5F5F5F5F5F5F5F5F5F5F5F5F5F5F5F5F5F5F5F5F5F5F5F5F5F5F5F5F5F5F5F5F5F5F5F5F5F5F5F5F5F5F5F5F5F5F5F5F5F5F5F5F5F5F5F5F5F5F5F5F5F5F5F5F5F5F5F5F5F5F5F5F5F5F5F5F5F5F5F5F5F5F5F5F5F5F5F5F5F5F5F5F5F5F5F5F5F5F5F5F5F5F5F5F5F5F5F5F5F5F5F5F5F5
310
F5F5F5F5F5F5F5F5F5E2E2E2F5F5F5F5F5F5F5F5F5F5F5F5F5F5F5F5F5F5F5F5F5F5F5F5F5F5F5F5F5F5F5F5F5F5F5F5F5F5F5F5F5F5F5F5F5F5F5F5F5F5F5F5F5F5F5F5F5F5F5F5F5F5F5F5F5F5F5F5F5F5F5F5F5F5F5F5F5F5F5F5F5F5F5F5F5F5F5F5F5F5F5F5F5F5F5F5F5F5F5F5F5F5F5F5F5F5F5F5F5F5F5F5F5F5F5
310
F5F5F5F5F5F5F5F5F5F5F5F5F5F5F5F5F5F5F5F5F5F5F5F5F5F5F5F5F5F5F5F5F5F5F5F5F5F5F5F5F5F5F5F5F5F5F5F5F5F5F5F5F5F5F5F5F5F5F5F5F5F5E2E2E2F5F5F5F5F5F5F5F5F5F5F5F5F5F5F5F5F5F5F5F5F5F5F5F5F5F5F5F5F5F5F5F5F5F5F5F5F5F5F5F5F5F5F5F5F5F5F5F5F5F5F5F5F5F5F5F5F5F5F5F5F5F5
310
F5F5F5F5F5F5F5F5F5F5F5F5F5F5F5F5F5F5F5F5F5F5F5F5F5F5F5F5F5F5F5F5F5F5F5F5F5F5F5F5F5F5F5F5F5F5F5F5F5F5F5F5F5F5F5F5F5F5F5F5F5F5F5F5F5F5F5F5F5F5F5F5F5F5F5F5F5F5F5F5F5F5F5F5F5F5F5F5F5F5F5F5F5F5F5F5F5F5F5F5F5F5F5F5F5F5F5F5F5F5F5F5F5F5F5E2E2E2F5F5F5F5F5F5F5F5F5
310
F5F5F5F5F5F5F5F5F5F5F5F5F5F5F5F5F5F5F5F5F5F5F5F5F5F5F5F5F5F5F5F5F5F5F5F5F5F5F5F5F5F5F5F5F5F5F5F5F5F5F5F5F5F5F5F5F5F5F5F5F5F5F5F5F5F5F5F5F5F5F5F5F5F5F5F5F5F5F5F5F5F5F5F5F5F5F5F5F5F5F5F5F5F5F5F5F5F5F5F5F5F5F5F5F5F5F5F5F5F5F5F5F5F5F5F5F5F5F5F5F5F5F5F5F5F5F5
310
F5F5F5F5F5F5F5F5F5F5F5F5F5F5F5F5F5F5F5F5F5F5F5F5F5F5F5F5F5F5F5F5F5F5F5F5F5F5F5F5F5E2E2E2F5F5F5F5F5F5F5F5F5F5F5F5F5F5F5F5F5F5F5F5F5F5F5F5F5F5F5F5F5F5F5F5F5F5F5F5F5F5F5F5F5F5F5F5F5F5F5F5F5F5F5F5F5F5F5F5F5F5F5F5F5F5F5F5F5F5F5F5F5F5F5F5F5F5F5F5F5F5F5F5F5F5F5
310
F5F5F5F5F5F5F5F5F5F5F5F5F5F5F5F5F5F5F5F5F5F5F5F5F5F5F5F5F5F5F5F5F5F5F5F5F5F5F5F5F5F5F5F5F5F5F5F5F5F5F5F5F5F5F5F5F5F5F5F5F5F5F5F5F5F5F5F5F5F5F5F5F5F5F5F5F5F5F5F5F5F5F5F5F5F5F5F5F5F5F5F5F5F5E2E2E2F5E2F5F5F5F5F5F5F5F5F5F5F5F5F5F5F5F5F5F5F5F5F5F5F5F5F5F5F5F5
310
F5F5F5F5F5F5F5F5F5F5F5F5F5F5F5F5F5F5F5F5F5F5F5F5F5F5F5F5F5F5F5F5F5F5F5F5F5F5F5F5F5F5F5F5F5F5F5F5F5F5F5F5F5F5F5F5F5F5F5F5F5F5F5F5F5F5F5F5F5F5F5F5F5F5F5F5F5F5F5F5F5F5F5F5F5F5F5F5F5F5F5F5F5F5F5F5F5F5F5F5F5F5F5F5F5F5F5F5F5F5F5F5F5F5F5F5F5F5F5F5F5F5F5F5F5F5F5
310
F5F5F5F5F5F5F5F5F5F5F5F5F5F5F5F5F5F5E2F5E2E2E2F5E2F5F5F5F5F5F5F5F5F5F5F5F5F5F5F5F5F5F5F5F5F5F5F5F5F5F5F5F5F5F5F5F5F5F5F5F5F5F5F5F5F5F5F5F5F5F5F5F5F5F5F5F5F5F5F5F5F5F5F5F5F5F5F5F5F5F5F5F5F5F5F5F5F5F5F5F5F5F5F5F5F5F5F5F5F5F5F5F5F5F5F5F5F5F5F5F5F5F5F5F5F5F5
310
F5F5F5F5F5F5F5F5F5F5F5F5F5F5F5F5F5F5F5F5F5F5F5F5F5F5F5F5F5F5F5F5F5F5F5F5F5F5F5F5F5F5F5F5F5F5F5F5F5F5F5F5F5F5F5F5F5F5F5F5F5F5F5F5F5F5F5F5F5F5F5E2F5E2E2E2F5E2F5F5F5F5F5F5F5F5F5F5F5F5F5F5F5F5F5F5F5F5F5F5F5F5F5F5F5F5F5F5F5F5F5F5F5F5F5F5F5F5F5F5F5F5F5F5F5F5F5
310
F5F5F5F5F5F5F5F5F5F5F5F5F5F5F5F5F5F5F5F5F5F5F5F5F5F5F5F5F5F5F5F5F5F5F5F5F5F5F5F5F5F5F5F5F5F5F5F5F5F5F5F5F5F5F5F5F5F5F5F5F5F5F5F5F5F5F5F5F5F5F5F5F5F5F5F5F5F5F5F5F5F5F5F5F5F5F5F5F5F5F5F5F5F5F5F5F5F5F5F5F5F5F5F5F5F5F5F5F5F5F5F5F5F5F5F5F5F5F5F5F5F5F5F5E2F5E2
310
E2E2F5E2F5F5F5F5F5F5F5F5F5F5F5F5F5F5F5F5F5F5F5F5F5F5F5F5F5F5F5F5F5F5F5F5F5F5F5F5F5F5F5F5F5F5F5F5F5F5F5F5F5F5F5F5F5F5F5F5F5F5F5F5F5F5F5F5F5F5F5F5F5F5F5F5F5F5F5F5F5F5F5F5F5F5F5F5F5F5F5F5F5F5F5F5F5F5F5F5F5F5F5F5F5F5F5F5F5F5F5F5F5F5F5F5F5F5F5F5F5F5F5F5F5F5F5
310
F5F5F5F5F5F5F5F5F5F5F5F5F5F5F5F5F5F5F5F5F5F5F5F5F5F5F5F5F5F5F5F5F5F5F5F5F5F5F5F5F5F5F5F5F5F5F5F5F5F5E2F5E2E2E2F5E2F5F5F5F5F5F5F5F5F5F5F5F5F5F5F5F5F5F5F5F5F5F5F5F5F5F5F5F5F5F5F5F5F5F5F5F5F5F5F5F5F5F5F5F5F5F5F5F5F5F5F5F5F5F5F5F5F5F5F5F5F5F5F5F5F5F5F5F5F5F5
310
F5F5F5F5F5F5F5F5F5F5F5F5F5F5F5F5F5F5F5F5F5F5F5F5F5F5F5F5F5F5F5F5F5F5F5F5F5F5F5F5F5F5F5F5F5F5F5F5F5F5F5F5F5F5F5F5F5F5F5F5F5F5F5F5F5F5F5F5F5F5F5F5F5F5F5F5F5F5F5F5F5F5F5F5F5F5F5F5F5F5F5F5F5F5F5F5F5F5F5F5F5F5F5E2F5E2E2E2F5E2F5F5F5F5F5F5F5F5F5F5F5F5F5F5F5F5F5
310
F5F5F5F5F5F5F5F5F5F5F5F5F5F5F5F5F5F5F5F5F5F5F5F5F5F5F5F5F5F5F5F5F5F5F5F5F5F5F5F5F5F5F5F5F5F5F5F5F5F5F5F5F5F5F5F5F5F5F5F5F5F5F5F5F5F5F5F5F5F5F5F5F5F5F5F5F5F5F5F5F5F5F5F5F5F5F5F5F5F5F5F5F5F5F5F5F5F5F5F5F5F5F5F5F5F5F5F5F5F5F5F5F5F5F5F5F5F5F5F5F5F5F5F5F5F5F5
310
F5F5F5F5F5F5F5F5F5F5F5F5F5F5F5F5F5F5F5F5F5F5F5F5F5F5F5F5F5E2F5E2E2E2F5E2F5F5F5F5F5F5F5F5F5F5F5F5F5F5F5F5F5F5F5F5F5F5F5F5F5F5F5F5F5F5F5F5F5F5F5F5F5F5F5F5F5F5F5F5F5F5F5F5F5F5F5F5F5F5F5F5F5F5F5F5F5F5F5F5F5F5F5F5F5F5F5F5F5F5F5F5F5F5F5F5F5F5F5F5F5F5F5F5F5F5F5
310
F5F5F5F5F5F5F5F5F5F5F5F5F5F5F5F5F5F5F5F5F5F5F5F5F5F5F5F5F5F5F5F5F5F5F5F5F5F5F5F5F5F5F5F5F5F5F5F5F5F5F5F5F5F5F5F5F5F5F5F5F5F5F5F5F5F5F5F5F5F5F5F5F5F5F5F5F5F5F5F5F5F5E2F5E2E2E2F5E2F5F5F5F5F5F5F5F5F5F5F5F5F5F5F5F5F5F5F5F5F5F5F5F5F5F5F5F5F5F5F5F5F5F5F5F5F5F5
310
F5F5F5F5F5F5F5F5F5F5F5F5F5F5F5F5F5F5F5F5F5F5F5F5F5F5F5F5F5F5F5F5F5F5F5F5F5F5F5F5F5F5F5F5F5F5F5F5F5F5F5F5F5F5F5F5F5F5F5F5F5F5F5F5F5F5F5F5F5F5F5F5F5F5F5F5F5F5F5F5F5F5F5F5F5F5F5F5F5F5F5F5F5F5F5F5F5F5F5F5F5F5F5F5F5F5F5F5F5F5F5F5F5F5F5F5F5F5F5F5F5F5F5F5F5F5F5
310
F5F5F5F5F5F5F5F5E2F5E2E2E2F5E2F5F5F5F5F5F5F5F5F5F5F5F5F5F5F5F5F5F5F5F5F5F5F5F5F5F5F5F5F5F5F5F5F5F5F5F5F5F5F5F5F5F5F5F5F5F5F5F5F5F5F5F5F5F5F5F5F5F5F5F5F5F5F5F5F5F5F5F5F5F5F5F5F5F5F5F5F5F5F5F5F5F5F5F5F5F5F5F5F5F5F5F5F5F5F5F5F5F5F5F5F5F5F5F5F5F5F5F5F5F5F5F5
310
F5F5F5F5F5F5F5F5F5F5F5F5F5F5F5F5F5F5F5F5F5F5F5F5F5F5F5F5F5F5F5F5F5F5F5F5F5F5F5F5F5F5F5F5F5F5F5F5F5F5F5F5F5F5F5F5F5F5F5F5F5E2F5E2E2E2F5E2F5F5F5F5F5F5F5F5F5F5F5F5F5F5F5F5F5F5F5F5F5F5F5F5F5F5F5F5F5F5F5F5F5F5F5F5F5F5F5F5F5F5F5F5F5F5F5F5F5F5F5F5F5F5F5F5F5F5F5
310
F5F5F5F5F5F5F5F5F5F5F5F5F5F5F5F5F5F5F5F5F5F5F5F5F5F5F5F5F5F5F5F5F5F5F5F5F5F5F5F5F5F5F5F5F5F5F5F5F5F5F5F5F5F5F5F5F5F5F5F5F5F5F5F5F5F5F5F5F5F5F5F5F5F5F5F5F5F5F5F5F5F5F5F5F5F5F5F5F5F5F5F5F5F5F5F5F5F5F5F5F5F5F5F5F5F5F5F5F5F5F5F5F5F5E2F5E2E2E2F5E2F5F5F5F5F5F5
310
F5F5F5F5F5F5F5F5F5F5F5F5F5F5F5F5F5F5F5F5F5F5F5F5F5F5F5F5F5F5F5F5F5F5F5F5F5F5F5F5F5F5F5F5F5F5F5F5F5F5F5F5F5F5F5F5F5F5F5F5F5F5F5F5F5F5F5F5F5F5F5F5F5F5F5F5F5F5F5F5F5F5F5F5F5F5F5F5F5F5F5F5F5F5F5F5F5F5F5F5F5F5F5F5F5F5F5F5F5F5F5F5F5F5F5F5F5F5F5F5F5F5F5F5F5F5F5
310
F5F5F5F5F5F5F5F5F5F5F5F5F5F5F5F5F5F5F5F5F5F5F5F5F5F5F5F5F5F5F5F5F5F5F5F5F5F5F5F5E2F5E2E2E2F5E2F5F5F5F5F5F5F5F5F5F5F5F5F5F5F5F5F5F5F5F5F5F5F5F5F5F5F5F5F5F5F5F5F5F5F5F5F5F5F5F5F5F5F5F5F5F5F5F5F5F5F5F5F5F5F5F5F5F5F5F5F5F5F5F5F5F5F5F5F5F5F5F5F5F5F5F5F5F5F5F5
310
F5F5F5F5F5F5F5F5F5F5F5F5F5F5F5F5F5F5F5F5F5F5F5F5F5F5F5F5F5F5F5F5F5F5F5F5F5F5F5F5F5F5F5F5F5F5F5F5F5F5F5F5F5F5F5F5F5F5F5F5F5F5F5F5F5F5F5F5F5F5F5F5F5F5F5F5F5F5F5F5F5F5F5F5F5F5F5F5F5F5F5F5F5E2F5E2E2E2F5E2F5F5F5F5F5F5F5F5F5F5F5F5F5F5F5F5F5F5F5F5F5F5F5F5F5F5F5
310
F5F5F5F5F5F5F5F5F5F5F5F5F5F5F5F5F5F5F5F5F5F5F5F5F5F5F5F5F5F5F5F5F5F5F5F5F5F5F5F5F5F5F5F5F5F5F5F5F5F5F5F5F5F5F5F5F5F5F5F5F5F5F5F5F5F5F5F5F5F5F5F5F5F5F5F5F5F5F5F5F5F5F5F5F5F5F5F5F5F5F5F5F5F5F5F5F5F5F5F5F5F5F5F5F5F5F5F5F5F5F5F5F5F5F5F5F5F5F5F5F5F5F5F5F5F5F5
310
F5F5F5F5F5F5F5F5F5F5F5F5F5F5F5F5F5F5F5E2F5E2E2E2F5E2F5F5F5F5F5F5F5F5F5F5F5F5F5F5F5F5F5F5F5F5F5F5F5F5F5F5F5F5F5F5F5F5F5F5F5F5F5F5F5F5F5F5F5F5F5F5F5F5F5F5F5F5F5F5F5F5F5F5F5F5F5F5F5F5F5F5F5F5F5F5F5F5F5F5F5F5F5F5F5F5F5F5F5F5F5F5F5F5F5F5F5F5F5F5F5F5F5F5F5F5F5
310
F5F5F5F5F5F5F5F5F5F5F5F5F5F5F5F5F5F5F5F5F5F5F5F5F5F5F5F5F5F5F5F5F5F5F5F5F5F5F5F5F5F5F5F5F5F5F5F5F5F5F5F5F5F5F5F5F5F5F5F5F5F5F5F5F5F5F5F5F5F5F5F5E2F5E2E2E2F5E2F5F5F5F5F5F5F5F5F5F5F5F5F5F5F5F5F5F5F5F5F5F5F5F5F5F5F5F5F5F5F5F5F5F5F5F5F5F5F5F5F5F5F5F5F5F5F5F5
310
F5F5F5F5F5F5F5F5F5F5F5F5F5F5F5F5F5F5F5F5F5F5F5F5F5F5F5F5F5F5F5F5F5F5F5F5F5F5F5F5F5F5F5F5F5F5F5F5F5F5F5F5F5F5F5F5F5F5F5F5F5F5F5F5F5F5F5F5F5F5F5F5F5F5F5F5F5F5F5F5F5F5F5F5F5F5F5F5F5F5F5F5F5F5F5F5F5F5F5F5F5F5F5F5F5F5F5F5F5F5F5F5F5F5F5F5F5F5F5F5F5F5F5F5F5E2F5
310
E2E2E2F5E2F5F5F5F5F5F5F5F5F5F5F5F5F5F5F5F5F5F5F5F5F5F5F5F5F5F5F5F5F5F5F5F5F5F5F5F5F5F5F5F5F5F5F5F5F5F5F5F5F5F5F5F5F5F5F5F5F5F5F5F5F5F5F5F5F5F5F5F5F5F5F5F5F5F5F5F5F5F5F5F5F5F5F5F5F5F5F5F5F5F5F5F5F5F5F5F5F5F5F5F5F5F5F5F5F5F5F5F5F5F5F5F5F5F5F5F5F5F5F5F5F5F5
310
F5F5F5F5F5F5F5F5F5F5F5F5F5F5F5F5F5F5F5F5F5F5F5F5F5F5F5F5F5F5F5F5F5F5F5F5F5F5F5F5F5F5F5F5F5F5F5F5F5F5F5E2F5E2E2E2F5F5F5F5F5F5F5F5F5F5F5F5F5F5F5F5F5F5F5F5F5F5F5F5F5F5F5F5F5F5F5F5F5F5F5F5F5F5F5F5F5F5F5F5F5F5F5F5F5F5F5F5F5F5F5F5F5F5F5F5F5F5F5F5F5F5F5F5F5F5F5
310
F5F5F5F5F5F5F5F5F5F5F5F5F5F5F5F5F5F5F5F5F5F5F5F5F5F5F5F5F5F5F5F5F5F5F5F5F5F5F5F5F5F5F5F5F5F5F5F5F5F5F5F5F5F5F5F5F5F5F5F5F5F5F5F5F5F5F5F5F5F5F5F5F5F5F5F5F5F5F5F5F5F5F5F5F5F5F5F5F5F5F5F5F5F5F5F5F5F5F5F5F5F5F5F5F5F5E2E2E2F5F5F5F5F5F5F5F5F5F5F5F5F5F5F5F5F5F5
310
F5F5F5F5F5F5F5F5F5F5F5F5F5F5F5F5F5F5F5F5F5F5F5F5F5F5F5F5F5F5F5F5F5F5F5F5F5F5F5F5F5F5F5F5F5F5F5F5F5F5F5F5F5F5F5F5F5F5F5F5F5F5F5F5F5F5F5F5F5F5F5F5F5F5F5F5F5F5F5F5F5F5F5F5F5F5F5F5F5F5F5F5F5F5F5F5F5F5F5F5F5F5F5F5F5F5F5F5F5F5F5F5F5F5F5F5F5F5F5F5F5F5F5F5F5F5F5
310
F5F5F5F5F5F5F5F5F5F5F5F5F5F5F5F5F5F5F5F5F5F5F5F5F5F5F5F5F5F5F5F5E2E2E2F5F5F5F5F5F5F5F5F5F5F5F5F5F5F5F5F5F5F5F5F5F5F5F5F5F5F5F5F5F5F5F5F5F5F5F5F5F5F5F5F5F5F5F5F5F5F5F5F5F5F5F5F5F5F5F5F5F5F5F5F5F5F5F5F5F5F5F5F5F5F5F5F5F5F5F5F5F5F5F5F5F5F5F5F5F5F5F5F5F5F5F5
310
F5F5F5F5F5F5F5F5F5F5F5F5F5F5F5F5F5F5F5F5F5F5F5F5F5F5F5F5F5F5F5F5F5F5F5F5F5F5F5F5F5F5F5F5F5F5F5F5F5F5F5F5F5F5F5F5F5F5F5F5F5F5F5F5F5F5F5F5F5F5F5F5F5F5F5F5F5F5F5F5F5F5F5F5F5E2E2E2F5F5F5F5F5F5F5F5F5F5F5F5F5F5F5F5F5F5F5F5F5F5F5F5F5F5F5F5F5F5F5F5F5F5F5F5F5F5F5
310
F5F5F5F5F5F5F5F5F5F5F5F5F5F5F5F5F5F5F5F5F5F5F5F5F5F5F5F5F5F5F5F5F5F5F5F5F5F5F5F5F5F5F5F5F5F5F5F5F5F5F5F5F5F5F5F5F5F5F5F5F5F5F5F5F5F5F5F5F5F5F5F5F5F5F5F5F5F5F5F5F5F5F5F5F5F5F5F5F5F5F5F5F5F5F5F5F5F5F5F5F5F5F5F5F5F5F5F5F5F5F5F5F5F5F5F5F5F5F5F5F5F5F5F5F5F5F5
310
F5F5F5F5F5F5F5F5F5F5F5E2E2E2F5F5F5F5F5F5F5F5F5F5F5F5F5F5F5F5F5F5F5F5F5F5F5F5F5F5F5F5F5F5F5F5F5F5F5F5F5F5F5F5F5F5F5F5F5F5F5F5F5F5F5F5F5F5F5F5F5F5F5F5F5F5F5F5F5F5F5F5F5F5F5F5F5F5F5F5F5F5F5F5F5F5F5F5F5F5F5F5F5F5F5F5F5F5F5F5F5F5F5F5F5F5F5F5F5F5F5F5F5F5F5F5F5
310
F5F5F5F5F5F5F5F5F5F5F5F5F5F5F5F5F5F5F5F5F5F5F5F5F5F5F5F5F5F5F5F5F5F5F5F5F5F5F5F5F5F5F5F5F5F5F5F5F5F5F5F5F5F5F5F5F5F5F5F5F5F5F5F5E2E2E2F5F5F5F5F5F5F5F5F5F5F5F5F5F5F5F5F5F5F5F5F5F5F5F5F5F5F5F5F5F5F5F5F5F5F5F5F5F5F5F5F5F5F5F5F5F5F5F5F5F5F5F5F5F5F5F5F5F5F5F5
310
F5F5F5F5F5F5F5F5F5F5F5F5F5F5F5F5F5F5F5F5F5F5F5F5F5F5F5F5F5F5F5F5F5F5F5F5F5F5F5F5F5F5F5F5F5F5F5F5F5F5F5F5F5F5F5F5F5F5F5F5F5F5F5F5F5F5F5F5F5F5F5F5F5F5F5F5F5F5F5F5F5F5F5F5F5F5F5F5F5F5F5F5F5F5F5F5F5F5F5F5F5F5F5F5F5F5F5F5F5F5F5F5F5F5F5F5F5E2E2E2F5F5F5F5F5F5F5
310
F5F5F5F5F5F5F5F5F5F5F5F5F5F5F5F5F5F5F5F5F5F5F5F5F5F5F5F5F5F5F5F5F5F5F5F5F5F5F5F5F5F5F5F5F5F5F5F5F5F5F5F5F5F5F5F5F5F5F5F5F5F5F5F5F5F5F5F5F5F5F5F5F5F5F5F5F5F5F5F5F5F5F5F5F5F5F5F5F5F5F5F5F5F5F5F5F5F5F5F5F5F5F5F5F5F5F5F5F5F5F5F5F5F5F5F5F5F5F5F5F5F5F5F5F5F5F5
310
F5F5F5F5F5F5F5F5F5F5F5F5F5F5F5F5F5F5F5F5F5F5F5F5F5F5F5F5F5F5F5F5F5F5F5F5F5F5F5F5F5F5F5E2E2E2F5F5F5F5F5F5F5F5F5F5F5F5F5F5F5F5F5F5F5F5F5F5F5F5F5F5F5F5F5F5F5F5F5F5F5F5F5F5F5F5F5F5F5F5F5F5F5F5F5F5F5F5F5F5F5F5F5F5F5F5F5F5F5F5F5F5F5F5F5F5F5F5F5F5F5F5F5F5F5F5F5
310
F5F5F5F5F5F5F5F5F5F5F5F5F5F5F5F5F5F5F5F5F5F5F5F5F5F5F5F5F5F5F5F5F5F5F5F5F5F5F5F5F5F5F5F5F5F5F5F5F5F5F5F5F5F5F5F5F5F5F5F5F5F5F5F5F5F5F5F5F5F5F5F5F5F5F5F5F5F5F5F5F5F5F5F5F5F5F5F5F5F5F5F5F5F5F5F5E2E2E2F5E2F5F5F5F5F5F5F5F5F5F5F5F5F5F5F5F5F5F5F5F5F5F5F5F5F5F5
310
F5F5F5F5F5F5F5F5F5F5F5F5F5F5F5F5F5F5F5F5F5F5F5F5F5F5F5F5F5F5F5F5F5F5F5F5F5F5F5F5F5F5F5F5F5F5F5F5F5F5F5F5F5F5F5F5F5F5F5F5F5F5F5F5F5F5F5F5F5F5F5F5F5F5F5F5F5F5F5F5F5F5F5F5F5F5F5F5F5F5F5F5F5F5F5F5F5F5F5F5F5F5F5F5F5F5F5F5F5F5F5F5F5F5F5F5F5F5F5F5F5F5F5F5F5F5F5
310
F5F5F5F5F5F5F5F5F5F5F5F5F5F5F5F5F5F5F5F5E2F5E2E2E2F5E2F5F5F5F5F5F5F5F5F5F5F5F5F5F5F5F5F5F5F5F5F5F5F5F5F5F5F5F5F5F5F5F5F5F5F5F5F5F5F5F5F5F5F5F5F5F5F5F5F5F5F5F5F5F5F5F5F5F5F5F5F5F5F5F5F5F5F5F5F5F5F5F5F5F5F5F5F5F5F5F5F5F5F5F5F5F5F5F5F5F5F5F5F5F5F5F5F5F5F5F5
310
F5F5F5F5F5F5F5F5F5F5F5F5F5F5F5F5F5F5F5F5F5F5F5F5F5F5F5F5F5F5F5F5F5F5F5F5F5F5F5F5F5F5F5F5F5F5F5F5F5F5F5F5F5F5F5F5F5F5F5F5F5F5F5F5F5F5F5F5F5F5F5F5F5E2F5E2E2E2F5E2F5F5F5F5F5F5F5F5F5F5F5F5F5F5F5F5F5F5F5F5F5F5F5F5F5F5F5F5F5F5F5F5F5F5F5F5F5F5F5F5F5F5F5F5F5F5F5
310
F5F5F5F5F5F5F5F5F5F5F5F5F5F5F5F5F5F5F5F5F5F5F5F5F5F5F5F5F5F5F5F5F5F5F5F5F5F5F5F5F5F5F5F5F5F5F5F5F5F5F5F5F5F5F5F5F5F5F5F5F5F5F5F5F5F5F5F5F5F5F5F5F5F5F5F5F5F5F5F5F5F5F5F5F5F5F5F5F5F5F5F5F5F5F5F5F5F5F5F5F5F5F5F5F5F5F5F5F5F5F5F5F5F5F5F5F5F5F5F5F5F5F5F5F5F5E2
310
F5E2E2E2F5E2F5F5F5F5F5F5F5F5F5F5F5F5F5F5F5F5F5F5F5F5F5F5F5F5F5F5F5F5F5F5F5F5F5F5F5F5F5F5F5F5F5F5F5F5F5F5F5F5F5F5F5F5F5F5F5F5F5F5F5F5F5F5F5F5F5F5F5F5F5F5F5F5F5F5F5F5F5F5F5F5F5F5F5F5F5F5F5F5F5F5F5F5F5F5F5F5F5F5F5F5F5F5F5F5F5F5F5F5F5F5F5F5F5F5F5F5F5F5F5F5F5
310
F5F5F5F5F5F5F5F5F5F5F5F5F5F5F5F5F5F5F5F5F5F5F5F5F5F5F5F5F5F5F5F5F5F5F5F5F5F5F5F5F5F5F5F5F5F5F5F5F5F5F5F5E2F5E2E2E2F5E2F5F5F5F5F5F5F5F5F5F5F5F5F5F5F5F5F5F5F5F5F5F5F5F5F5F5F5F5F5F5F5F5F5F5F5F5F5F5F5F5F5F5F5F5F5F5F5F5F5F5F5F5F5F5F5F5F5F5F5F5F5F5F5F5F5F5F5F5
310
F5F5F5F5F5F5F5F5F5F5F5F5F5F5F5F5F5F5F5F5F5F5F5F5F5F5F5F5F5F5F5F5F5F5F5F5F5F5F5F5F5F5F5F5F5F5F5F5F5F5F5F5F5F5F5F5F5F5F5F5F5F5F5F5F5F5F5F5F5F5F5F5F5F5F5F5F5F5F5F5F5F5F5F5F5F5F5F5F5F5F5F5F5F5F5F5F5F5F5F5F5F5F5F5F5E2F5E2E2E2F5E2F5F5F5F5F5F5F5F5F5F5F5F5F5F5F5
310
F5F5F5F5F5F5F5F5F5F5F5F5F5F5F5F5F5F5F5F5F5F5F5F5F5F5F5F5F5F5F5F5F5F5F5F5F5F5F5F5F5F5F5F5F5F5F5F5F5F5F5F5F5F5F5F5F5F5F5F5F5F5F5F5F5F5F5F5F5F5F5F5F5F5F5F5F5F5F5F5F5F5F5F5F5F5F5F5F5F5F5F5F5F5F5F5F5F5F5F5F5F5F5F5F5F5F5F5F5F5F5F5F5F5F5F5F5F5F5F5F5F5F5F5F5F5F5
310
F5F5F5F5F5F5F5F5F5F5F5F5F5F5F5F5F5F5F5F5F5F5F5F5F5F5F5F5F5F5F5E2F5E2E2E2F5E2F5F5F5F5F5F5F5F5F5F5F5F5F5F5F5F5F5F5F5F5F5F5F5F5F5F5F5F5F5F5F5F5F5F5F5F5F5F5F5F5F5F5F5F5F5F5F5F5F5F5F5F5F5F5F5F5F5F5F5F5F5F5F5F5F5F5F5F5F5F5F5F5F5F5F5F5F5F5F5F5F5F5F5F5F5F5F5F5F5
310
F5F5F5F5F5F5F5F5F5F5F5F5F5F5F5F5F5F5F5F5F5F5F5F5F5F5F5F5F5F5F5F5F5F5F5F5F5F5F5F5F5F5F5F5F5F5F5F5F5F5F5F5F5F5F5F5F5F5F5F5F5F5F5F5F5F5F5F5F5F5F5F5F5F5F5F5F5F5F5F5F5F5F5F5E2F5E2E2E2F5E2F5F5F5F5F5F5F5F5F5F5F5F5F5F5F5F5F5F5F5F5F5F5F5F5F5F5F5F5F5F5F5F5F5F5F5F5
310
F5F5F5F5F5F5F5F5F5F5F5F5F5F5F5F5F5F5F5F5F5F5F5F5F5F5F5F5F5F5F5F5F5F5F5F5F5F5F5F5F5F5F5F5F5F5F5F5F5F5F5F5F5F5F5F5F5F5F5F5F5F5F5F5F5F5F5F5F5F5F5F5F5F5F5F5F5F5F5F5F5F5F5F5F5F5F5F5F5F5F5F5F5F5F5F5F5F5F5F5F5F5F5F5F5F5F5F5F5F5F5F5F5F5F5F5F5F5F5F5F5F5F5F5F5F5F5
310
F5F5F5F5F5F5F5F5F5F5E2F5E2E2E2F5E2F5F5F5F5F5F5F5F5F5F5F5F5F5F5F5F5F5F5F5F5F5F5F5F5F5F5F5F5F5F5F5F5F5F5F5F5F5F5F5F5F5F5F5F5F5F5F5F5F5F5F5F5F5F5F5F5F5F5F5F5F5F5F5F5F5F5F5F5F5F5F5F5F5F5F5F5F5F5F5F5F5F5F5F5F5F5F5F5F5F5F5F5F5F5F5F5F5F5F5F5F5F5F5F5F5F5F5F5F5F5
310
F5F5F5F5F5F5F5F5F5F5F5F5F5F5F5F5F5F5F5F5F5F5F5F5F5F5F5F5F5F5F5F5F5F5F5F5F5F5F5F5F5F5F5F5F5F5F5F5F5F5F5F5F5F5F5F5F5F5F5F5F5F5F5E2F5E2E2E2F5E2F5F5F5F5F5F5F5F5F5F5F5F5F5F5F5F5F5F5F5F5F5F5F5F5F5F5F5F5F5F5F5F5F5F5F5F5F5F5F5F5F5F5F5F5F5F5F5F5F5F5F5F5F5F5F5F5F5
310
F5F5F5F5F5F5F5F5F5F5F5F5F5F5F5F5F5F5F5F5F5F5F5F5F5F5F5F5F5F5F5F5F5F5F5F5F5F5F5F5F5F5F5F5F5F5F5F5F5F5F5F5F5F5F5F5F5F5F5F5F5F5F5F5F5F5F5F5F5F5F5F5F5F5F5F5F5F5F5F5F5F5F5F5F5F5F5F5F5F5F5F5F5F5F5F5F5F5F5F5F5F5F5F5F5F5F5F5F5F5F5F5F5F5F5F5E2F5E2E2E2F5E2F5F5F5F5
310
F5F5F5F5F5F5F5F5F5F5F5F5F5F5F5F5F5F5F5F5F5F5F5F5F5F5F5F5F5F5F5F5F5F5F5F5F5F5F5F5F5F5F5F5F5F5F5F5F5F5F5F5F5F5F5F5F5F5F5F5F5F5F5F5F5F5F5F5F5F5F5F5F5F5F5F5F5F5F5F5F5F5F5F5F5F5F5F5F5F5F5F5F5F5F5F5F5F5F5F5F5F5F5F5F5F5F5F5F5F5F5F5F5F5F5F5F5F5F5F5F5F5F5F5F5F5F5
310
F5F5F5F5F5F5F5F5F5F5F5F5F5F5F5F5F5F5F5F5F5F5F5F5F5F5F5F5F5F5F5F5F5F5F5F5F5F5F5F5F5F5E2F5E2E2E2F5E2F5F5F5F5F5F5F5F5F5F5F5F5F5F5F5F5F5F5F5F5F5F5F5F5F5F5F5F5F5F5F5F5F5F5F5F5F5F5F5F5F5F5F5F5F5F5F5F5F5F5F5F5F5F5F5F5F5F5F5F5F5F5F5F5F5F5F5F5F5F5F5F5F5F5F5F5F5F5
310
F5F5F5F5F5F5F5F5F5F5F5F5F5F5F5F5F5F5F5F5F5F5F5F5F5F5F5F5F5F5F5F5F5F5F5F5F5F5F5F5F5F5F5F5F5F5F5F5F5F5F5F5F5F5F5F5F5F5F5F5F5F5F5F5F5F5F5F5F5F5F5F5F5F5F5F5F5F5F5F5F5F5F5F5F5F5F5F5F5F5F5F5F5F5F5E2F5E2E2E2F5E2F5F5F5F5F5F5F5F5F5F5F5F5F5F5F5F5F5F5F5F5F5F5F5F5F5
310
F5F5F5F5F5F5F5F5F5F5F5F5F5F5F5F5F5F5F5F5F5F5F5F5F5F5F5F5F5F5F5F5F5F5F5F5F5F5F5F5F5F5F5F5F5F5F5F5F5F5F5F5F5F5F5F5F5F5F5F5F5F5F5F5F5F5F5F5F5F5F5F5F5F5F5F5F5F5F5F5F5F5F5F5F5F5F5F5F5F5F5F5F5F5F5F5F5F5F5F5F5F5F5F5F5F5F5F5F5F5F5F5F5F5F5F5F5F5F5F5F5F5F5F5F5F5F5
310
F5F5F5F5F5F5F5F5F5F5F5F5F5F5F5F5F5F5F5F5F5E2F5E2E2E2F5E2F5F5F5F5F5F5F5F5F5F5F5F5F5F5F5F5F5F5F5F5F5F5F5F5F5F5F5F5F5F5F5F5F5F5F5F5F5F5F5F5F5F5F5F5F5F5F5F5F5F5F5F5F5F5F5F5F5F5F5F5F5F5F5F5F5F5F5F5F5F5F5F5F5F5F5F5F5F5F5F5F5F5F5F5F5F5F5F5F5F5F5F5F5F5F5F5F5F5F5
310
F5F5F5F5F5F5F5F5F5F5F5F5F5F5F5F5F5F5F5F5F5F5F5F5F5F5F5F5F5F5F5F5F5F5F5F5F5F5F5F5F5F5F5F5F5F5F5F5F5F5F5F5F5F5F5F5F5F5F5F5F5F5F5F5F5F5F5F5F5F5F5F5F5F5E2F5E2E2E2F5E2F5F5F5F5F5F5F5F5F5F5F5F5F5F5F5F5F5F5F5F5F5F5F5F5F5F5F5F5F5F5F5F5F5F5F5F5F5F5F5F5F5F5F5F5F5F5
310
F5F5F5F5F5F5F5F5F5F5F5F5F5F5F5F5F5F5F5F5F5F5F5F5F5F5F5F5F5F5F5F5F5F5F5F5F5F5F5F5F5F5F5F5F5F5F5F5F5F5F5F5F5F5F5F5F5F5F5F5F5F5F5F5F5F5F5F5F5F5F5F5F5F5F5F5F5F5F5F5F5F5F5F5F5F5F5F5F5F5F5F5F5F5F5F5F5F5F5F5F5F5F5F5F5F5F5F5F5F5F5F5F5F5F5F5F5F5F5F5F5F5F5F5F5F5F5
310
E2F5E2E2E2F5E2F5F5F5F5F5F5F5F5F5F5F5F5F5F5F5F5F5F5F5F5F5F5F5F5F5F5F5F5F5F5F5F5F5F5F5F5F5F5F5F5F5F5F5F5F5F5F5F5F5F5F5F5F5F5F5F5F5F5F5F5F5F5F5F5F5F5F5F5F5F5F5F5F5F5F5F5F5F5F5F5F5F5F5F5F5F5F5F5F5F5F5F5F5F5F5F5F5F5F5F5F5F5F5F5F5F5F5F5F5F5F5F5F5F5F5F5F5F5F5F5
310
F5F5F5F5F5F5F5F5F5F5F5F5F5F5F5F5F5F5F5F5F5F5F5F5F5F5F5F5F5F5F5F5F5F5F5F5F5F5F5F5F5F5F5F5F5F5F5F5F5F5F5F5F5E2F5E2E2E2F5F5F5F5F5F5F5F5F5F5F5F5F5F5F5F5F5F5F5F5F5F5F5F5F5F5F5F5F5F5F5F5F5F5F5F5F5F5F5F5F5F5F5F5F5F5F5F5F5F5F5F5F5F5F5F5F5F5F5F5F5F5F5F5F5F5F5F5F5
310
F5F5F5F5F5F5F5F5F5F5F5F5F5F5F5F5F5F5F5F5F5F5F5F5F5F5F5F5F5F5F5F5F5F5F5F5F5F5F5F5F5F5F5F5F5F5F5F5F5F5F5F5F5F5F5F5F5F5F5F5F5F5F5F5F5F5F5F5F5F5F5F5F5F5F5F5F5F5F5F5F5F5F5F5F5F5F5F5F5F5F5F5F5F5F5F5F5F5F5F5F5F5F5F5F5F5F5F5E2E2E2F5F5F5F5F5F5F5F5F5F5F5F5F5F5F5F5
310
F5F5F5F5F5F5F5F5F5F5F5F5F5F5F5F5F5F5F5F5F5F5F5F5F5F5F5F5F5F5F5F5F5F5F5F5F5F5F5F5F5F5F5F5F5F5F5F5F5F5F5F5F5F5F5F5F5F5F5F5F5F5F5F5F5F5F5F5F5F5F5F5F5F5F5F5F5F5F5F5F5F5F5F5F5F5F5F5F5F5F5F5F5F5F5F5F5F5F5F5F5F5F5F5F5F5F5F5F5F5F5F5F5F5F5F5F5F5F5F5F5F5F5F5F5F5F5
310
F5F5F5F5F5F5F5F5F5F5F5F5F5F5F5F5F5F5F5F5F5F5F5F5F5F5F5F5F5F5F5F5F5F5E2E2E2F5F5F5F5F5F5F5F5F5F5F5F5F5F5F5F5F5F5F5F5F5F5F5F5F5F5F5F5F5F5F5F5F5F5F5F5F5F5F5F5F5F5F5F5F5F5F5F5F5F5F5F5F5F5F5F5F5F5F5F5F5F5F5F5F5F5F5F5F5F5F5F5F5F5F5F5F5F5F5F5F5F5F5F5F5F5F5F5F5F5
310
F5F5F5F5F5F5F5F5F5F5F5F5F5F5F5F5F5F5F5F5F5F5F5F5F5F5F5F5F5F5F5F5F5F5F5F5F5F5F5F5F5F5F5F5F5F5F5F5F5F5F5F5F5F5F5F5F5F5F5F5F5F5F5F5F5F5F5F5F5F5F5F5F5F5F5F5F5F5F5F5F5F5F5F5F5F5F5E2E2E2F5F5F5F5F5F5F5F5F5F5F5F5F5F5F5F5F5F5F5F5F5F5F5F5F5F5F5F5F5F5F5F5F5F5F5F5F5
310
F5F5F5F5F5F5F5F5F5F5F5F5F5F5F5F5F5F5F5F5F5F5F5F5F5F5F5F5F5F5F5F5F5F5F5F5F5F5F5F5F5F5F5F5F5F5F5F5F5F5F5F5F5F5F5F5F5F5F5F5F5F5F5F5F5F5F5F5F5F5F5F5F5F5F5F5F5F5F5F5F5F5F5F5F5F5F5F5F5F5F5F5F5F5F5F5F5F5F5F5F5F5F5F5F5F5F5F5F5F5F5F5F5F5F5F5F5F5F5F5F5F5F5F5F5F5F5
310
F5F5F5F5F5F5F5F5F5F5F5F5F5E2E2E2F5F5F5F5F5F5F5F5F5F5F5F5F5F5F5F5F5F5F5F5F5F5F5F5F5F5F5F5F5F5F5F5F5F5F5F5F5F5F5F5F5F5F5F5F5F5F5F5F5F5F5F5F5F5F5F5F5F5F5F5F5F5F5F5F5F5F5F5F5F5F5F5F5F5F5F5F5F5F5F5F5F5F5F5F5F5F5F5F5F5F5F5F5F5F5F5F5F5F5F5F5F5F5F5F5F5F5F5F5F5F5
310
F5F5F5F5F5F5F5F5F5F5F5F5F5F5F5F5F5F5F5F5F5F5F5F5F5F5F5F5F5F5F5F5F5F5F5F5F5F5F5F5F5F5F5F5F5F5F5F5F5F5F5F5F5F5F5F5F5F5F5F5F5F5F5F5F5F5E2E2E2F5F5F5F5F5F5F5F5F5F5F5F5F5F5F5F5F5F5F5F5F5F5F5F5F5F5F5F5F5F5F5F5F5F5F5F5F5F5F5F5F5F5F5F5F5F5F5F5F5F5F5F5F5F5F5F5F5F5
310
F5F5F5F5F5F5F5F5F5F5F5F5F5F5F5F5F5F5F5F5F5F5F5F5F5F5F5F5F5F5F5F5F5F5F5F5F5F5F5F5F5F5F5F5F5F5F5F5F5F5F5F5F5F5F5F5F5F5F5F5F5F5F5F5F5F5F5F5F5F5F5F5F5F5F5F5F5F5F5F5F5F5F5F5F5F5F5F5F5F5F5F5F5F5F5F5F5F5F5F5F5F5F5F5F5F5F5F5F5F5F5F5F5F5F5F5F5F5F5E2E2E2F5F5F5F5F5
310
F5F5F5F5F5F5F5F5F5F5F5F5F5F5F5F5F5F5F5F5F5F5F5F5F5F5F5F5F5F5F5F5F5F5F5F5F5F5F5F5F5F5F5F5F5F5F5F5F5F5F5F5F5F5F5F5F5F5F5F5F5F5F5F5F5F5F5F5F5F5F5F5F5F5F5F5F5F5F5F5F5F5F5F5F5F5F5F5F5F5F5F5F5F5F5F5F5F5F5F5F5F5F5F5F5F5F5F5F5F5F5F5F5F5F5F5F5F5F5F5F5F5F5F5F5F5F5
310
F5F5F5F5F5F5F5F5F5F5F5F5F5F5F5F5F5F5F5F5F5F5F5F5F5F5F5F5F5F5F5F5F5F5F5F5F5F5F5F5F5F5F5F5F5E2E2E2F5F5F5F5F5F5F5F5F5F5F5F5F5F5F5F5F5F5F5F5F5F5F5F5F5F5F5F5F5F5F5F5F5F5F5F5F5F5F5F5F5F5F5F5F5F5F5F5F5F5F5F5F5F5F5F5F5F5F5F5F5F5F5F5F5F5F5F5F5F5F5F5F5F5F5F5F5F5F5
310
F5F5F5F5F5F5F5F5F5F5F5F5F5F5F5F5F5F5F5F5F5F5F5F5F5F5F5F5F5F5F5F5F5F5F5F5F5F5F5F5F5F5F5F5F5F5F5F5F5F5F5F5F5F5F5F5F5F5F5F5F5F5F5F5F5F5F5F5F5F5F5F5F5F5F5F5F5F5F5F5F5F5F5F5F5F5F5F5F5F5F5F5F5F5F5F5F5F5E2E2E2F5F5F5F5F5F5F5F5F5F5F5F5F5F5F5F5F5F5F5F5F5F5F5F5F5F5
310
F5F5F5F5F5F5F5F5F5F5F5F5F5F5F5F5F5F5F5F5F5F5F5F5F5F5F5F5F5F5F5F5F5F5F5F5F5F5F5F5F5F5F5F5F5F5F5F5F5F5F5F5F5F5F5F5F5F5F5F5F5F5F5F5F5F5F5F5F5F5F5F5F5F5F5F5F5F5F5F5F5F5F5F5F5F5F5F5F5F5F5F5F5F5F5F5F5F5F5F5F5F5F5F5F5F5F5F5F5F5F5F5F5F5F5F5F5F5F5F5F5F5F5F5F5F5F5
310
F5F5F5F5F5F5F5F5F5F5F5F5F5F5F5F5F5F5F5F5F5F5F5F5E2E2E2F5E2F5F5F5F5F5F5F5F5F5F5F5F5F5F5F5F5F5F5F5F5F5F5F5F5F5F5F5F5F5F5F5F5F5F5F5F5F5F5F5F5F5F5F5F5F5F5F5F5F5F5F5F5F5F5F5F5F5F5F5F5F5F5F5F5F5F5F5F5F5F5F5F5F5F5F5F5F5F5F5F5F5F5F5F5F5F5F5F5F5F5F5F5F5F5F5F5F5F5
310
F5F5F5F5F5F5F5F5F5F5F5F5F5F5F5F5F5F5F5F5F5F5F5F5F5F5F5F5F5F5F5F5F5F5F5F5F5F5F5F5F5F5F5F5F5F5F5F5F5F5F5F5F5F5F5F5F5F5F5F5F5F5F5F5F5F5F5F5F5F5F5F5F5F5F5E2F5E2E2E2F5E2F5F5F5F5F5F5F5F5F5F5F5F5F5F5F5F5F5F5F5F5F5F5F5F5F5F5F5F5F5F5F5F5F5F5F5F5F5F5F5F5F5F5F5F5F5
310
F5F5F5F5F5F5F5F5F5F5F5F5F5F5F5F5F5F5F5F5F5F5F5F5F5F5F5F5F5F5F5F5F5F5F5F5F5F5F5F5F5F5F5F5F5F5F5F5F5F5F5F5F5F5F5F5F5F5F5F5F5F5F5F5F5F5F5F5F5F5F5F5F5F5F5F5F5F5F5F5F5F5F5F5F5F5F5F5F5F5F5F5F5F5F5F5F5F5F5F5F5F5F5F5F5F5F5F5F5F5F5F5F5F5F5F5F5F5F5F5F5F5F5F5F5F5F5
310
F5E2F5E2E2E2F5E2F5F5F5F5F5F5F5F5F5F5F5F5F5F5F5F5F5F5F5F5F5F5F5F5F5F5F5F5F5F5F5F5F5F5F5F5F5F5F5F5F5F5F5F5F5F5F5F5F5F5F5F5F5F5F5F5F5F5F5F5F5F5F5F5F5F5F5F5F5F5F5F5F5F5F5F5F5F5F5F5F5F5F5F5F5F5F5F5F5F5F5F5F5F5F5F5F5F5F5F5F5F5F5F5F5F5F5F5F5F5F5F5F5F5F5F5F5F5F5
310
F5F5F5F5F5F5F5F5F5F5F5F5F5F5F5F5F5F5F5F5F5F5F5F5F5F5F5F5F5F5F5F5F5F5F5F5F5F5F5F5F5F5F5F5F5F5F5F5F5F5F5F5F5F5E2F5E2E2E2F5E2F5F5F5F5F5F5F5F5F5F5F5F5F5F5F5F5F5F5F5F5F5F5F5F5F5F5F5F5F5F5F5F5F5F5F5F5F5F5F5F5F5F5F5F5F5F5F5F5F5F5F5F5F5F5F5F5F5F5F5F5F5F5F5F5F5F5
310
F5F5F5F5F5F5F5F5F5F5F5F5F5F5F5F5F5F5F5F5F5F5F5F5F5F5F5F5F5F5F5F5F5F5F5F5F5F5F5F5F5F5F5F5F5F5F5F5F5F5F5F5F5F5F5F5F5F5F5F5F5F5F5F5F5F5F5F5F5F5F5F5F5F5F5F5F5F5F5F5F5F5F5F5F5F5F5F5F5F5F5F5F5F5F5F5F5F5F5F5F5F5F5F5F5F5F5E2F5E2E2E2F5E2F5F5F5F5F5F5F5F5F5F5F5F5F5
310
F5F5F5F5F5F5F5F5F5F5F5F5F5F5F5F5F5F5F5F5F5F5F5F5F5F5F5F5F5F5F5F5F5F5F5F5F5F5F5F5F5F5F5F5F5F5F5F5F5F5F5F5F5F5F5F5F5F5F5F5F5F5F5F5F5F5F5F5F5F5F5F5F5F5F5F5F5F5F5F5F5F5F5F5F5F5F5F5F5F5F5F5F5F5F5F5F5F5F5F5F5F5F5F5F5F5F5F5F5F5F5F5F5F5F5F5F5F5F5F5F5F5F5F5F5F5F5
310
F5F5F5F5F5F5F5F5F5F5F5F5F5F5F5F5F5F5F5F5F5F5F5F5F5F5F5F5F5F5F5F5F5E2F5E2E2E2F5E2F5F5F5F5F5F5F5F5F5F5F5F5F5F5F5F5F5F5F5F5F5F5F5F5F5F5F5F5F5F5F5F5F5F5F5F5F5F5F5F5F5F5F5F5F5F5F5F5F5F5F5F5F5F5F5F5F5F5F5F5F5F5F5F5F5F5F5F5F5F5F5F5F5F5F5F5F5F5F5F5F5F5F5F5F5F5F5
310
F5F5F5F5F5F5F5F5F5F5F5F5F5F5F5F5F5F5F5F5F5F5F5F5F5F5F5F5F5F5F5F5F5F5F5F5F5F5F5F5F5F5F5F5F5F5F5F5F5F5F5F5F5F5F5F5F5F5F5F5F5F5F5F5F5F5F5F5F5F5F5F5F5F5F5F5F5F5F5F5F5F5F5F5F5F5E2F5E2E2E2F5E2F5F5F5F5F5F5F5F5F5F5F5F5F5F5F5F5F5F5F5F5F5F5F5F5F5F5F5F5F5F5F5F5F5F5
310
F5F5F5F5F5F5F5F5F5F5F5F5F5F5F5F5F5F5F5F5F5F5F5F5F5F5F5F5F5F5F5F5F5F5F5F5F5F5F5F5F5F5F5F5F5F5F5F5F5F5F5F5F5F5F5F5F5F5F5F5F5F5F5F5F5F5F5F5F5F5F5F5F5F5F5F5F5F5F5F5F5F5F5F5F5F5F5F5F5F5F5F5F5F5F5F5F5F5F5F5F5F5F5F5F5F5F5F5F5F5F5F5F5F5F5F5F5F5F5F5F5F5F5F5F5F5F5
310
F5F5F5F5F5F5F5F5F5F5F5F5E2F5E2E2E2F5E2E2E2E2E2E2E2E2F5F5F5F5F5F5F5F5F5E2E2E2E2E2E2E2E2E2E2E2E2E2E2E2E2F5F5F5F5F5F5F5F5F5E2E2E2E2E2E2E2E2E2E2E2E2E2E2E2E2F5F5F5F5F5F5F5F5F5E2E2E2E2E2E2E2E2E2E2E2E2E2E2E2E2F5F5F5F5F5F5F5F5F5E2E2E2E2E2E2E2E2E2E2E2E2E2E2E2E2F5
310
F5F5F5F5F5F5F5F5E2E2E2E2E2E2E2E2E2E2E2E2E2E2E2E2F5F5F5F5F5F5F5F5F5E2E2E2E2E2E2E2E2E2E2E2E2E2E2E2E2F5F5F5F5F5F5F5F5F5E2E2E2E2E2E2E2E2F5E2E2E2F5F5F5F5F5F5F5F5F5F5F5F5F5F5F5F5F5F5F5F5F5F5F5F5F5F5F5F5F5F5F5F5F5F5F5F5F5F5F5F5F5F5F5F5F5F5F5F5F5F5F5F5F5F5F5F5F5
310
F5F5F5F5F5F5F5F5F5F5F5F5F5F5F5F5F5F5F5F5F5F5F5F5F5F5F5F5F5F5F5F5F5F5F5F5F5F5F5F5F5F5F5F5F5F5F5F5F5F5F5F5F5F5F5F5F5F5F5F5F5F5F5F5F5F5F5F5F5F5F5F5F5F5F5F5F5F5F5F5F5F5F5F5F5F5F5F5F5F5F5F5F5F5F5F5F5F5F5F5F5F5F5F5F5F5F5F5F5F5F5F5F5F5F5F5F5F5F5F5E2EFE2E2E2E2E2
310
E2E2E2E2E2E2E2E2E2E2E2E2E2E2E2E2E2E2E2E2E2E2E2E2E2E2E2E2E2E2E2E2E2E2E2E2E2E2E2E2E2E2E2E2E2E2E2E2E2E2E2E2E2E2E2E2E2E2E2E2E2E2E2E2E2E2E2E2E2E2E2E2E2E2E2E2E2E2E2E2E2E2E2E2E2E2E2E2E2E2E2E2E2E2E2E2E2E2E2E2E2E2E2E2E2E2E2E2E2E2E2E2E2E2E2E2E2E2E2E2E2E2E2E2E2E2E2
310
E2E2E2E2E2E2E2E2E2E2E2E2E2E2E2E2E2E2E2E2E2E2E2E2E2E2E2E2E2E2E2E2E2E2E2E2E2E2E2E2E2E2E2E2E2E2E2EF
  0
XRECORD
  5
211241
102
{ACAD_REACTORS
330
211240
102
}
330
211240
100
AcDbXrecord
280
     1
102
SHADEPLOT
 70
     0
102
SHADEPLOTRESLEVEL
 70
     2
102
SHADEPLOTCUSTOMDPI
 70
   300
  0
XRECORD
  5
21125B
102
{ACAD_REACTORS
330
21125A
102
}
330
21125A
100
AcDbXrecord
280
     1
102
MATERIAL
148
0.0
149
0.0
149
0.0
 93
        0
 94
       63
282
     0
 72
     1
 77
     1
171
     1
175
     1
179
     1
273
     0
  0
XRECORD
  5
211259
102
{ACAD_REACTORS
330
211258
102
}
330
211258
100
AcDbXrecord
280
     1
102
MATERIAL
148
0.0
149
0.0
149
0.0
 93
        0
 94
       63
282
     0
 72
     1
 77
     1
171
     1
175
     1
179
     1
273
     0
  0
XRECORD
  5
21125D
102
{ACAD_REACTORS
330
21125C
102
}
330
21125C
100
AcDbXrecord
280
     1
102
MATERIAL
148
0.0
149
0.0
149
0.0
 93
        0
 94
       63
282
     0
 72
     1
 77
     1
171
     1
175
     1
179
     1
273
     0
  0
XRECORD
  5
211247
102
{ACAD_REACTORS
330
211246
102
}
330
211246
100
AcDbXrecord
280
     1
102
SHADEPLOT
 70
     0
102
SHADEPLOTRESLEVEL
 70
     2
102
SHADEPLOTCUSTOMDPI
 70
   300
  0
XRECORD
  5
211245
102
{ACAD_REACTORS
330
211244
102
}
330
211244
100
AcDbXrecord
280
     1
102
SHADEPLOT
 70
     0
102
SHADEPLOTRESLEVEL
 70
     2
102
SHADEPLOTCUSTOMDPI
 70
   300
  0
XRECORD
  5
211243
102
{ACAD_REACTORS
330
211242
102
}
330
211242
100
AcDbXrecord
280
     1
102
SHADEPLOT
 70
     0
102
SHADEPLOTRESLEVEL
 70
     2
102
SHADEPLOTCUSTOMDPI
 70
   300
  0
XRECORD
  5
211249
102
{ACAD_REACTORS
330
211248
102
}
330
211248
100
AcDbXrecord
280
     1
102
SHADEPLOT
 70
     0
102
SHADEPLOTRESLEVEL
 70
     2
102
SHADEPLOTCUSTOMDPI
 70
   300
  0
XRECORD
  5
21124F
102
{ACAD_REACTORS
330
21124E
102
}
330
21124E
100
AcDbXrecord
280
     1
102
SHADEPLOT
 70
     0
102
SHADEPLOTRESLEVEL
 70
     2
102
SHADEPLOTCUSTOMDPI
 70
   300
  0
XRECORD
  5
211251
102
{ACAD_REACTORS
330
211250
102
}
330
211250
100
AcDbXrecord
280
     1
102
SHADEPLOT
 70
     0
102
SHADEPLOTRESLEVEL
 70
     2
102
SHADEPLOTCUSTOMDPI
 70
   300
  0
XRECORD
  5
211253
102
{ACAD_REACTORS
330
211252
102
}
330
211252
100
AcDbXrecord
280
     1
102
SHADEPLOT
 70
     0
102
SHADEPLOTRESLEVEL
 70
     2
102
SHADEPLOTCUSTOMDPI
 70
   300
  0
XRECORD
  5
211255
102
{ACAD_REACTORS
330
211254
102
}
330
211254
100
AcDbXrecord
280
     1
102
SHADEPLOT
 70
     0
102
SHADEPLOTRESLEVEL
 70
     2
102
SHADEPLOTCUSTOMDPI
 70
   300
  0
XRECORD
  5
21124B
102
{ACAD_REACTORS
330
21124A
102
}
330
21124A
100
AcDbXrecord
280
     1
102
SHADEPLOT
 70
     0
102
SHADEPLOTRESLEVEL
 70
     2
102
SHADEPLOTCUSTOMDPI
 70
   300
  0
XRECORD
  5
21124D
102
{ACAD_REACTORS
330
21124C
102
}
330
21124C
100
AcDbXrecord
280
     1
102
SHADEPLOT
 70
     0
102
SHADEPLOTRESLEVEL
 70
     2
102
SHADEPLOTCUSTOMDPI
 70
   300
  0
XRECORD
  5
211257
102
{ACAD_REACTORS
330
211256
102
}
330
211256
100
AcDbXrecord
280
     1
102
SHADEPLOT
 70
     0
102
SHADEPLOTRESLEVEL
 70
     2
102
SHADEPLOTCUSTOMDPI
 70
   300
  0
XRECORD
  5
21125F
102
{ACAD_REACTORS
330
21125E
102
}
330
21125E
100
AcDbXrecord
280
     1
102
ACAD_ROUNDTRIP_PRE2007_TABLESTYLE
 90
      512
 91
        0
  1

 92
      512
 93
        0
  2

 94
      512
 95
        0
  3

  0
ENDSEC
  0
EOF
