  0
SECTION
  2
HEADER
  9
$ACADVER
  1
AC1015
  9
$ACADMAINTVER
 70
    20
  9
$DWGCODEPAGE
  3
ANSI_932
  9
$INSBASE
 10
0.0
 20
0.0
 30
0.0
  9
$EXTMIN
 10
0.0
 20
0.0
 30
0.0
  9
$EXTMAX
 10
419.9999999999999
 20
297.0
 30
0.0
  9
$LIMMIN
 10
0.0
 20
0.0
  9
$LIMMAX
 10
297.0
 20
210.0
  9
$ORTHOMODE
 70
     0
  9
$REGENMODE
 70
     1
  9
$FILLMODE
 70
     1
  9
$QTEXTMODE
 70
     0
  9
$MIRRTEXT
 70
     0
  9
$LTSCALE
 40
1.0
  9
$ATTMODE
 70
     1
  9
$TEXTSIZE
 40
3.2
  9
$TRACEWID
 40
1.0
  9
$TEXTSTYLE
  7
STANDARD
  9
$CLAYER
  8
AM_0
  9
$CELTYPE
  6
ByLayer
  9
$CECOLOR
 62
   256
  9
$CELTSCALE
 40
1.0
  9
$DISPSILH
 70
     0
  9
$DIMSCALE
 40
1.0
  9
$DIMASZ
 40
2.5
  9
$DIMEXO
 40
1.0
  9
$DIMDLI
 40
10.0
  9
$DIMRND
 40
0.0
  9
$DIMDLE
 40
0.0
  9
$DIMEXE
 40
1.0
  9
$DIMTP
 40
0.1
  9
$DIMTM
 40
0.1
  9
$DIMTXT
 40
3.5
  9
$DIMCEN
 40
0.0
  9
$DIMTSZ
 40
0.0
  9
$DIMTOL
 70
     0
  9
$DIMLIM
 70
     0
  9
$DIMTIH
 70
     0
  9
$DIMTOH
 70
     0
  9
$DIMSE1
 70
     0
  9
$DIMSE2
 70
     0
  9
$DIMTAD
 70
     1
  9
$DIMZIN
 70
     8
  9
$DIMBLK
  1

  9
$DIMASO
 70
     1
  9
$DIMSHO
 70
     1
  9
$DIMPOST
  1

  9
$DIMAPOST
  1
"
  9
$DIMALT
 70
     0
  9
$DIMALTD
 70
     2
  9
$DIMALTF
 40
0.0393701
  9
$DIMLFAC
 40
1.0
  9
$DIMTOFL
 70
     1
  9
$DIMTVP
 40
0.0
  9
$DIMTIX
 70
     0
  9
$DIMSOXD
 70
     0
  9
$DIMSAH
 70
     0
  9
$DIMBLK1
  1

  9
$DIMBLK2
  1

  9
$DIMSTYLE
  2
SYS
  9
$DIMCLRD
 70
   256
  9
$DIMCLRE
 70
   256
  9
$DIMCLRT
 70
     7
  9
$DIMTFAC
 40
0.71
  9
$DIMGAP
 40
1.5
  9
$DIMJUST
 70
     0
  9
$DIMSD1
 70
     0
  9
$DIMSD2
 70
     0
  9
$DIMTOLJ
 70
     0
  9
$DIMTZIN
 70
     8
  9
$DIMALTZ
 70
     0
  9
$DIMALTTZ
 70
     0
  9
$DIMUPT
 70
     0
  9
$DIMDEC
 70
     1
  9
$DIMTDEC
 70
     3
  9
$DIMALTU
 70
     2
  9
$DIMALTTD
 70
     4
  9
$DIMTXSTY
  7
STANDARD
  9
$DIMAUNIT
 70
     0
  9
$DIMADEC
 70
     0
  9
$DIMALTRND
 40
0.0
  9
$DIMAZIN
 70
     2
  9
$DIMDSEP
 70
    46
  9
$DIMATFIT
 70
     3
  9
$DIMFRAC
 70
     0
  9
$DIMLDRBLK
  1

  9
$DIMLUNIT
 70
     2
  9
$DIMLWD
 70
    -1
  9
$DIMLWE
 70
    -1
  9
$DIMTMOVE
 70
     0
  9
$LUNITS
 70
     2
  9
$LUPREC
 70
     2
  9
$SKETCHINC
 40
1.0
  9
$FILLETRAD
 40
1.0
  9
$AUNITS
 70
     0
  9
$AUPREC
 70
     0
  9
$MENU
  1
.
  9
$ELEVATION
 40
0.0
  9
$PELEVATION
 40
0.0
  9
$THICKNESS
 40
0.0
  9
$LIMCHECK
 70
     0
  9
$CHAMFERA
 40
0.0
  9
$CHAMFERB
 40
0.0
  9
$CHAMFERC
 40
20.0
  9
$CHAMFERD
 40
0.0
  9
$SKPOLY
 70
     0
  9
$TDCREATE
 40
2452002.615067627
  9
$TDUCREATE
 40
2452002.240067627
  9
$TDUPDATE
 40
2456260.422827871
  9
$TDUUPDATE
 40
2456260.047827871
  9
$TDINDWG
 40
3.8833198148
  9
$TDUSRTIMER
 40
3.8833198148
  9
$USRTIMER
 70
     1
  9
$ANGBASE
 50
0.0
  9
$ANGDIR
 70
     0
  9
$PDMODE
 70
     0
  9
$PDSIZE
 40
0.0
  9
$PLINEWID
 40
0.0
  9
$SPLFRAME
 70
     0
  9
$SPLINETYPE
 70
     6
  9
$SPLINESEGS
 70
     8
  9
$HANDSEED
  5
F388
  9
$SURFTAB1
 70
     6
  9
$SURFTAB2
 70
     6
  9
$SURFTYPE
 70
     6
  9
$SURFU
 70
     6
  9
$SURFV
 70
     6
  9
$UCSBASE
  2

  9
$UCSNAME
  2

  9
$UCSORG
 10
0.0
 20
0.0
 30
0.0
  9
$UCSXDIR
 10
1.0
 20
0.0
 30
0.0
  9
$UCSYDIR
 10
0.0
 20
1.0
 30
0.0
  9
$UCSORTHOREF
  2

  9
$UCSORTHOVIEW
 70
     0
  9
$UCSORGTOP
 10
0.0
 20
0.0
 30
0.0
  9
$UCSORGBOTTOM
 10
0.0
 20
0.0
 30
0.0
  9
$UCSORGLEFT
 10
0.0
 20
0.0
 30
0.0
  9
$UCSORGRIGHT
 10
0.0
 20
0.0
 30
0.0
  9
$UCSORGFRONT
 10
0.0
 20
0.0
 30
0.0
  9
$UCSORGBACK
 10
0.0
 20
0.0
 30
0.0
  9
$PUCSBASE
  2

  9
$PUCSNAME
  2

  9
$PUCSORG
 10
0.0
 20
0.0
 30
0.0
  9
$PUCSXDIR
 10
1.0
 20
0.0
 30
0.0
  9
$PUCSYDIR
 10
0.0
 20
1.0
 30
0.0
  9
$PUCSORTHOREF
  2

  9
$PUCSORTHOVIEW
 70
     0
  9
$PUCSORGTOP
 10
0.0
 20
0.0
 30
0.0
  9
$PUCSORGBOTTOM
 10
0.0
 20
0.0
 30
0.0
  9
$PUCSORGLEFT
 10
0.0
 20
0.0
 30
0.0
  9
$PUCSORGRIGHT
 10
0.0
 20
0.0
 30
0.0
  9
$PUCSORGFRONT
 10
0.0
 20
0.0
 30
0.0
  9
$PUCSORGBACK
 10
0.0
 20
0.0
 30
0.0
  9
$USERI1
 70
     0
  9
$USERI2
 70
     0
  9
$USERI3
 70
     0
  9
$USERI4
 70
     0
  9
$USERI5
 70
     0
  9
$USERR1
 40
0.0
  9
$USERR2
 40
0.0
  9
$USERR3
 40
0.0
  9
$USERR4
 40
0.0
  9
$USERR5
 40
0.0
  9
$WORLDVIEW
 70
     1
  9
$SHADEDGE
 70
     3
  9
$SHADEDIF
 70
    70
  9
$TILEMODE
 70
     1
  9
$MAXACTVP
 70
    64
  9
$PINSBASE
 10
0.0
 20
0.0
 30
0.0
  9
$PLIMCHECK
 70
     0
  9
$PEXTMIN
 10
1.000000000000000E+20
 20
1.000000000000000E+20
 30
1.000000000000000E+20
  9
$PEXTMAX
 10
-1.000000000000000E+20
 20
-1.000000000000000E+20
 30
-1.000000000000000E+20
  9
$PLIMMIN
 10
-3.17498779296875
 20
-3.174999952316284
  9
$PLIMMAX
 10
293.4970092773438
 20
206.692492723465
  9
$UNITMODE
 70
     0
  9
$VISRETAIN
 70
     1
  9
$PLINEGEN
 70
     0
  9
$PSLTSCALE
 70
     1
  9
$TREEDEPTH
 70
  3020
  9
$CMLSTYLE
  2
Standard
  9
$CMLJUST
 70
     0
  9
$CMLSCALE
 40
20.0
  9
$PROXYGRAPHICS
 70
     1
  9
$MEASUREMENT
 70
     1
  9
$CELWEIGHT
370
    -1
  9
$ENDCAPS
280
     0
  9
$JOINSTYLE
280
     0
  9
$LWDISPLAY
290
     0
  9
$INSUNITS
 70
     4
  9
$HYPERLINKBASE
  1

  9
$STYLESHEET
  1
monochrome.ctb
  9
$XEDIT
290
     1
  9
$CEPSNTYPE
380
     0
  9
$PSTYLEMODE
290
     1
  9
$FINGERPRINTGUID
  2
{83FB3AA1-FF18-4BFE-AFE0-611B71DE056D}
  9
$VERSIONGUID
  2
{14B792B3-CF0F-469F-BC4E-B6B0CADB3222}
  9
$EXTNAMES
290
     1
  9
$PSVPSCALE
 40
0.0
  9
$OLESTARTUP
290
     0
  0
ENDSEC
  0
SECTION
  2
CLASSES
  0
CLASS
  1
ACDBDICTIONARYWDFLT
  2
AcDbDictionaryWithDefault
  3
ObjectDBX Classes
 90
        0
280
     0
281
     0
  0
CLASS
  1
ACDBPLACEHOLDER
  2
AcDbPlaceHolder
  3
ObjectDBX Classes
 90
        0
280
     0
281
     0
  0
CLASS
  1
LAYOUT
  2
AcDbLayout
  3
ObjectDBX Classes
 90
        0
280
     0
281
     0
  0
CLASS
  1
AMGSETTINGSOBJ
  2
AmgSettingsObj
  3
"AcadM|Product Description: AutoCAD Mechanical|Company: Autodesk"
 90
        0
280
     0
281
     0
  0
CLASS
  1
ACME_DOCUMENT
  2
AcMeDbDoc
  3
AcMeServices
 90
        0
280
     0
281
     0
  0
CLASS
  1
ACMESCOPE
  2
AcMeScope
  3
AcMeServices
 90
        0
280
     0
281
     0
  0
CLASS
  1
ACMECOMMANDHISTORY
  2
AcMeCommandHistory
  3
AcMeServices
 90
        0
280
     0
281
     0
  0
CLASS
  1
DICTIONARYVAR
  2
AcDbDictionaryVar
  3
ObjectDBX Classes
 90
        0
280
     0
281
     0
  0
CLASS
  1
ACIMSYSVARMAN
  2
AcImSysVarManager
  3
AcMeServices
 90
        0
280
     0
281
     0
  0
CLASS
  1
ACIMREALSYSVAR
  2
AcImRealSysVar
  3
AcMeServices
 90
        0
280
     0
281
     0
  0
CLASS
  1
ACIMINTSYSVAR
  2
AcImIntSysVar
  3
AcMeServices
 90
        0
280
     0
281
     0
  0
CLASS
  1
ACMEDRAWINGMAN
  2
AcMeDrawingMan
  3
AcMeServices
 90
        0
280
     0
281
     0
  0
CLASS
  1
ACMEVIEW
  2
AcMeView
  3
AcMeServices
 90
        0
280
     0
281
     0
  0
CLASS
  1
ACDBENTITYCACHE
  2
AcMeEntityCache
  3
AcMeServices
 90
        0
280
     0
281
     0
  0
CLASS
  1
GSMANAGER
  2
AcMeGSManager
  3
AcMeServices
 90
        0
280
     0
281
     0
  0
CLASS
  1
AMDTINTERNALREACTOR
  2
AmdtInternalReactor
  3
AcMeServices
 90
        0
280
     0
281
     0
  0
CLASS
  1
ACMESTATEMGR
  2
AcMeStateMgr
  3
AcMeServices
 90
        0
280
     0
281
     0
  0
CLASS
  1
ACGREFMASTER
  2
AcGrefMaster
  3
AcAttribServices
 90
        0
280
     0
281
     0
  0
CLASS
  1
ACME_DATABASE
  2
AcMeDbDatabase
  3
AcMeServices
 90
        0
280
     0
281
     0
  0
CLASS
  1
ACRFINSADJUSTERMGR
  2
AcRfInsAdjusterMgr
  3
AcMeServices
 90
        0
280
     0
281
     0
  0
CLASS
  1
ACGREFACADMASTER
  2
AcGrefacadMaster
  3
AcGrefServices
 90
        0
280
     0
281
     0
  0
CLASS
  1
AMIMASTER
  2
AmiMaster
  3
AmiServices
 90
        0
280
     0
281
     0
  0
CLASS
  1
ACMDATADICTIONARY
  2
AcmDataDictionary
  3
"AcmSymBB|Product Description: AutoCAD Mechanical|Company: Autodesk"
 90
        0
280
     0
281
     0
  0
CLASS
  1
ACMDATAENTRYBLOCK
  2
AcmDataEntryBlock
  3
"AcmSymBB|Product Description: AutoCAD Mechanical|Company: Autodesk"
 90
        0
280
     0
281
     0
  0
CLASS
  1
ACIMSTRSYSVAR
  2
AcImStrSysVar
  3
AcMeServices
 90
        0
280
     0
281
     0
  0
CLASS
  1
ACMSTANDARDISO
  2
AcmStandardISO
  3
"Amdt_StdImp|Product Description: AutoCAD Mechanical|Company: Autodesk"
 90
        0
280
     0
281
     0
  0
CLASS
  1
AMGOBJPROPCFG
  2
AmgObjPropCfg
  3
"AmgLay|Product Description: AutoCAD Mechanical|Company: Autodesk"
 90
        1
280
     0
281
     0
  0
CLASS
  1
AMDTEDGESTANDARDISO
  2
AmdtEdgeStdISO
  3
"Amdt_StdImp|Product Description: AutoCAD Mechanical|Company: Autodesk"
 90
        0
280
     0
281
     0
  0
CLASS
  1
ACMSURFSTANDARDISO
  2
AcmSurfTextStdISO
  3
"Amdt_StdImp|Product Description: AutoCAD Mechanical|Company: Autodesk"
 90
        0
280
     0
281
     0
  0
CLASS
  1
ACMFCFSTANDARDISO
  2
AcmFCFStdISO
  3
"Amdt_StdImp|Product Description: AutoCAD Mechanical|Company: Autodesk"
 90
        0
280
     0
281
     0
  0
CLASS
  1
ACMWELDSTANDARDISO
  2
AcmWeldingStdISO
  3
"Amdt_StdImp|Product Description: AutoCAD Mechanical|Company: Autodesk"
 90
        0
280
     0
281
     0
  0
CLASS
  1
ACMIDSTANDARDISO
  2
AcmIdStdISO
  3
"Amdt_StdImp|Product Description: AutoCAD Mechanical|Company: Autodesk"
 90
        0
280
     0
281
     0
  0
CLASS
  1
ACMDATUMSTANDARDISO
  2
AcmDatumStdISO
  3
"Amdt_StdImp|Product Description: AutoCAD Mechanical|Company: Autodesk"
 90
        0
280
     0
281
     0
  0
CLASS
  1
ACMBOMSTANDARDISO
  2
AcmBOMStdISO
  3
"Amdt_StdImp|Product Description: AutoCAD Mechanical|Company: Autodesk"
 90
        0
280
     0
281
     0
  0
CLASS
  1
ACMDETAILSTANDARDISO
  2
AmdtDetailSymStdISO
  3
"Amdt_StdImp|Product Description: AutoCAD Mechanical|Company: Autodesk"
 90
        0
280
     0
281
     0
  0
CLASS
  1
ACMSECTIONSTANDARDISO
  2
AmdtSectionSymStdISO
  3
"Amdt_StdImp|Product Description: AutoCAD Mechanical|Company: Autodesk"
 90
        0
280
     0
281
     0
  0
CLASS
  1
ACMCENTERLINESTANDARDISO
  2
AmdtCenterLineStdISO
  3
"Amdt_StdImp|Product Description: AutoCAD Mechanical|Company: Autodesk"
 90
        0
280
     0
281
     0
  0
CLASS
  1
ACAMGLAYSTD
  2
AcAmgLayStd
  3
"AmgLay|Product Description: AutoCAD Mechanical|Company: Autodesk"
 90
        0
280
     0
281
     0
  0
CLASS
  1
ACAMGDIMSTD
  2
AcAmgDimStd
  3
"AmgDim|Product Description: AutoCAD Mechanical|Company: Autodesk"
 90
        0
280
     0
281
     0
  0
CLASS
  1
ACAMGTITLESTD
  2
AcAmgTitleStd
  3
"AmgTitle|Product Description: AutoCAD Mechanical|Company: Autodesk"
 90
        0
280
     0
281
     0
  0
CLASS
  1
ACAMGFILTERDAT
  2
AcAmgFilterDat
  3
"AcadM|Product Description: AutoCAD Mechanical|Company: Autodesk"
 90
        0
280
     0
281
     0
  0
CLASS
  1
LAYER_INDEX
  2
AcDbLayerIndex
  3
ObjectDBX Classes
 90
    32768
280
     0
281
     0
  0
CLASS
  1
IDBUFFER
  2
AcDbIdBuffer
  3
ObjectDBX Classes
 90
    32768
280
     0
281
     0
  0
CLASS
  1
PLOTSETTINGS
  2
AcDbPlotSettings
  3
ObjectDBX Classes
 90
        0
280
     0
281
     0
  0
CLASS
  1
AMDTFORMULAUPDATEDISPATCHER
  2
AmdtFormulaUpdateDispatcher
  3
AcMeServices
 90
        0
280
     0
281
     0
  0
CLASS
  1
ACMSTANDARDANSI
  2
AcmStandardANSI
  3
"Amdt_StdImp|Product Description: AutoCAD Mechanical|Company: Autodesk"
 90
        0
280
     0
281
     0
  0
CLASS
  1
ACMSURFSTANDARDANSI
  2
AcmSurfTextStdANSI
  3
"Amdt_StdImp|Product Description: AutoCAD Mechanical|Company: Autodesk"
 90
        0
280
     0
281
     0
  0
CLASS
  1
ACMFCFSTANDARDANSI
  2
AcmFCFStdANSI
  3
"Amdt_StdImp|Product Description: AutoCAD Mechanical|Company: Autodesk"
 90
        0
280
     0
281
     0
  0
CLASS
  1
ACMWELDSTANDARDANSI
  2
AcmWeldingStdANSI
  3
"Amdt_StdImp|Product Description: AutoCAD Mechanical|Company: Autodesk"
 90
        0
280
     0
281
     0
  0
CLASS
  1
ACMIDSTANDARDANSI
  2
AcmIdStdANSI
  3
"Amdt_StdImp|Product Description: AutoCAD Mechanical|Company: Autodesk"
 90
        0
280
     0
281
     0
  0
CLASS
  1
ACMDATUMSTANDARDANSI
  2
AcmDatumStdANSI
  3
"Amdt_StdImp|Product Description: AutoCAD Mechanical|Company: Autodesk"
 90
        0
280
     0
281
     0
  0
CLASS
  1
ACMBOMSTANDARDANSI
  2
AcmBOMStdANSI
  3
"Amdt_StdImp|Product Description: AutoCAD Mechanical|Company: Autodesk"
 90
        0
280
     0
281
     0
  0
CLASS
  1
ACMDETAILSTANDARDANSI
  2
AmdtDetailSymStdANSI
  3
"Amdt_StdImp|Product Description: AutoCAD Mechanical|Company: Autodesk"
 90
        0
280
     0
281
     0
  0
CLASS
  1
ACMSECTIONSTANDARDANSI
  2
AmdtSectionSymStdANSI
  3
"Amdt_StdImp|Product Description: AutoCAD Mechanical|Company: Autodesk"
 90
        0
280
     0
281
     0
  0
CLASS
  1
ACMCENTERLINESTANDARDANSI
  2
AmdtCenterLineStdANSI
  3
"Amdt_StdImp|Product Description: AutoCAD Mechanical|Company: Autodesk"
 90
        0
280
     0
281
     0
  0
CLASS
  1
ACMBOM
  2
AcmBom
  3
"AcmSymBB|Product Description: AutoCAD Mechanical|Company: Autodesk"
 90
        0
280
     0
281
     0
  0
CLASS
  1
ACMDATAENTRYPART
  2
AcmDataEntryPart
  3
"AcmSymBB|Product Description: AutoCAD Mechanical|Company: Autodesk"
 90
    32768
280
     0
281
     0
  0
CLASS
  1
ACMPARTREF
  2
AcmPartRef
  3
"AcmSymBB|Product Description: AutoCAD Mechanical|Company: Autodesk"
 90
    35839
280
     0
281
     1
  0
CLASS
  1
ACDBCIRCARCRES
  2
AcDbCircArcRes
  3
AcGrefServices
 90
    32768
280
     0
281
     0
  0
CLASS
  1
ACMBOMROW
  2
AcmBomRow
  3
"AcmSymBB|Product Description: AutoCAD Mechanical|Company: Autodesk"
 90
    32768
280
     0
281
     0
  0
CLASS
  1
ACMBALLOON
  2
AcmBalloon
  3
"AcmSymBB|Product Description: AutoCAD Mechanical|Company: Autodesk"
 90
    35839
280
     0
281
     1
  0
CLASS
  1
AMDTNOTE
  2
AmdtNote
  3
"AcmSymBB|Product Description: AutoCAD Mechanical|Company: Autodesk"
 90
    35839
280
     0
281
     1
  0
CLASS
  1
STDPART2D
  2
AmgStdPart
  3
"g3vace|Class: AmgStdPart|Product Description: AutoCAD Mechanical|Company: Autodesk"
 90
    35839
280
     0
281
     1
  0
CLASS
  1
ACDBSTDPARTRES_LINE
  2
AcDbStdPartRes_Line
  3
"g3vace|Class: AcDbStdPartRes_Line|Product Description: AutoCAD Mechanical|Company: Autodesk"
 90
    32768
280
     0
281
     0
  0
CLASS
  1
ACMDATAENTRY
  2
AcmDataEntry
  3
"AcmSymBB|Product Description: AutoCAD Mechanical|Company: Autodesk"
 90
        0
280
     0
281
     0
  0
CLASS
  1
ACDBOPPOLYLINERES
  2
AcDbOpPolylineRes
  3
AcGrefServices
 90
    32768
280
     0
281
     0
  0
CLASS
  1
ACMPARTLIST
  2
AcmPartList
  3
"AcmSymBB|Product Description: AutoCAD Mechanical|Company: Autodesk"
 90
    35839
280
     0
281
     1
  0
CLASS
  1
ACDBLINERES
  2
AcDbLineRes
  3
AcGrefServices
 90
    32768
280
     0
281
     0
  0
CLASS
  1
ACRFINSADJ
  2
AcRfInsAdjuster
  3
AcMeServices
 90
    32768
280
     0
281
     0
  0
CLASS
  1
AM_DRAWING_MGR
  2
AcDmDwgMgr
  3
AcMechDwgViewMgmt
 90
        0
280
     0
281
     0
  0
CLASS
  1
AM_DWG_DOCUMENT
  2
AcDmDwgDocument
  3
AcMechDwgViewMgmt
 90
        0
280
     0
281
     0
  0
CLASS
  1
AM_DWG_SHEET
  2
AcDmSheet
  3
AcMechDwgViewMgmt
 90
        0
280
     0
281
     0
  0
CLASS
  1
AM_VIEWDIMPARMAP
  2
AcDmViewDimParMap
  3
AcMechDwgViewMgmt
 90
        0
280
     0
281
     0
  0
CLASS
  1
AM_DWGMGR_NAME
  2
AcDmDwgMgrName
  3
AcMechDwgViewMgmt
 90
        0
280
     0
281
     0
  0
CLASS
  1
AMDTMENUSTATEMGR
  2
AmdtMenuStateMgr
  3
McadcomServices
 90
        0
280
     0
281
     0
  0
CLASS
  1
AMDTMCOMMENUSTATE
  2
AmdtMcomMenuState
  3
McadcomServices
 90
        0
280
     0
281
     0
  0
CLASS
  1
ASAPP
  2
AcAsAppObject
  3
AutoSurfServices
 90
        0
280
     0
281
     0
  0
CLASS
  1
IM_STATIC_MAN
  2
AcImStaticVarManager
  3
AcMeServices
 90
        0
280
     0
281
     0
  0
CLASS
  1
ACIMDBLSTATICVAR
  2
AcImDblStaticVar
  3
AcMeServices
 90
        0
280
     0
281
     0
  0
CLASS
  1
ACIMSTRSTATICVAR
  2
AcImStrStaticVar
  3
AcMeServices
 90
        0
280
     0
281
     0
  0
CLASS
  1
ACIMINTSTATICVAR
  2
AcImIntStaticVar
  3
AcMeServices
 90
        0
280
     0
281
     0
  0
CLASS
  1
ACASGREFMASTER
  2
AcAsGrefMaster
  3
AutoSurfResolverServices
 90
        0
280
     0
281
     0
  0
CLASS
  1
ACADGREFMODULE
  2
AcAdGrefModule
  3
AdGrefServices
 90
        0
280
     0
281
     0
  0
CLASS
  1
AMDTMAPISURFMOUDULE
  2
AmdtMApiSurfModule
  3
MApiSurfServices
 90
        0
280
     0
281
     0
  0
CLASS
  1
MAPIAMMOUDLE
  2
MApiAmModule
  3
MApiAmServices
 90
        0
280
     0
281
     0
  0
CLASS
  1
AMDTADMENUSTATE
  2
AmdtAdMenuState
  3
DesignerServices
 90
        0
280
     0
281
     0
  0
CLASS
  1
ADAPPL
  2
AcAdAppl
  3
DesignerServices
 90
        0
280
     0
281
     0
  0
CLASS
  1
DEPMGR
  2
AcAdDepMgr
  3
DesignerServices
 90
        0
280
     0
281
     0
  0
CLASS
  1
PARAMMGR
  2
AcAdParamMgr
  3
DesignerServices
 90
        0
280
     0
281
     0
  0
CLASS
  1
PARAMSCOPE
  2
AcAdParamScope
  3
DesignerServices
 90
        0
280
     0
281
     0
  0
CLASS
  1
NAMEDAPPL
  2
AcAdNamedAppl
  3
DesignerServices
 90
        0
280
     0
281
     0
  0
CLASS
  1
ADHNTMPLT
  2
AdHoleNoteTemplateMgr
  3
DesignerServices
 90
    32768
280
     0
281
     0
  0
CLASS
  1
AM_HNTEMPLATE_MGR_NAME
  2
AdHoleNoteTemplateMgrName
  3
DesignerServices
 90
    32768
280
     0
281
     0
  0
CLASS
  1
AMDTDMMENUSTATE
  2
AmdtDmMenuState
  3
AcMechDwgViewMgmt
 90
        0
280
     0
281
     0
  0
CLASS
  1
MAPIADMODULE
  2
MApiAdModule
  3
MApiAdServices
 90
        0
280
     0
281
     0
  0
CLASS
  1
AMDTAMMENUSTATE
  2
AmdtAmMenuState
  3
DesignerAssemblies
 90
        0
280
     0
281
     0
  0
CLASS
  1
ACAMPROJECT
  2
AcAmProject
  3
DesignerAssemblies
 90
        0
280
     0
281
     0
  0
CLASS
  1
ACAMGRCOMPDEF
  2
AcAmGrCompDef
  3
DesignerAssemblies
 90
        0
280
     0
281
     0
  0
CLASS
  1
ACCMCONTEXT
  2
AcCmContext
  3
DesignerAssemblies
 90
        0
280
     0
281
     0
  0
CLASS
  1
ACAMCOMPDEF
  2
AcAmCompDef
  3
DesignerAssemblies
 90
        0
280
     0
281
     0
  0
CLASS
  1
ACAMCOMPDEFMGR
  2
AcAmCompDefMgr
  3
DesignerAssemblies
 90
        0
280
     0
281
     0
  0
CLASS
  1
AMCONTEXTMGR
  2
AcAmContextMgr
  3
DesignerAssemblies
 90
        0
280
     0
281
     0
  0
CLASS
  1
ACAMCONTEXTMODELER
  2
AcAmContextModeler
  3
DesignerAssemblies
 90
        0
280
     0
281
     0
  0
CLASS
  1
CATALOGSTATE
  2
AcAmCatalogState
  3
DesignerAssemblies
 90
        0
280
     0
281
     0
  0
CLASS
  1
ACAMGRCOMPDEFSET
  2
AcAmGrCompDefSet
  3
DesignerAssemblies
 90
        0
280
     0
281
     0
  0
CLASS
  1
AMDTBROWSERDBTAB
  2
AmdtBrowserDbTab
  3
McadcomServices
 90
        0
280
     0
281
     0
  0
CLASS
  1
CBROWSERAPPOBJECT
  2
CBrowserAppObject
  3
McadcomServices
 90
        0
280
     0
281
     0
  0
CLASS
  1
DM_PLACEHOLDER
  2
AcDmSelsetPlaceholder
  3
AcMechDwgViewMgmt
 90
        0
280
     0
281
     0
  0
CLASS
  1
ACMPICKOBJ
  2
AcmPickEnt
  3
"AcmSymBB|Product Description: AutoCAD Mechanical|Company: Autodesk"
 90
    32768
280
     0
281
     1
  0
CLASS
  1
MATERIAL
  2
AcDbMaterial
  3
ObjectDBX Classes
 90
     1024
280
     0
281
     0
  0
CLASS
  1
VISUALSTYLE
  2
AcDbVisualStyle
  3
ObjectDBX Classes
 90
     4095
280
     0
281
     0
  0
CLASS
  1
TABLESTYLE
  2
AcDbTableStyle
  3
ObjectDBX Classes
 90
     4095
280
     0
281
     0
  0
CLASS
  1
ACRFATTGENMGR
  2
AcRfAttGeneralMgr
  3
AcAttribServices
 90
        0
280
     0
281
     0
  0
CLASS
  1
ACRFOBJATTMGR
  2
AcRfObjAttGroupMgr
  3
AcAttribServices
 90
        0
280
     0
281
     0
  0
CLASS
  1
ACRFMCADAPIATTHOLDER
  2
AcRfMCADAPIAttHolder
  3
AcAttribServices
 90
        0
280
     0
281
     0
  0
CLASS
  1
AMDTSYSATTR
  2
AmdtSystemAttribute
  3
AcAttribServices
 90
        0
280
     0
281
     0
  0
CLASS
  1
ACMTHREADLINESTANDARDISO
  2
AmdtThreadLineStdISO
  3
"Amdt_StdImp|Product Description: AutoCAD Mechanical|Company: Autodesk"
 90
        0
280
     0
281
     0
  0
CLASS
  1
ACMNOTESTANDARDISO
  2
AmdtNoteStdISO
  3
"Amdt_StdImp|Product Description: AutoCAD Mechanical|Company: Autodesk"
 90
        0
280
     0
281
     0
  0
CLASS
  1
AMDTNOTETEMPLATEDB
  2
AmdtNoteTemplateDB
  3
AMDT_STDIMP_MODULE_NAME
 90
        0
280
     0
281
     0
  0
CLASS
  1
ACMTAPERSTANDARDISO
  2
AcmTaperStdISO
  3
"Amdt_StdImp|Product Description: AutoCAD Mechanical|Company: Autodesk"
 90
        0
280
     0
281
     0
  0
CLASS
  1
ACMTHREADLINESTANDARDANSI
  2
AmdtThreadLineStdANSI
  3
"Amdt_StdImp|Product Description: AutoCAD Mechanical|Company: Autodesk"
 90
        0
280
     0
281
     0
  0
CLASS
  1
ACMNOTESTANDARDANSI
  2
AmdtNoteStdANSI
  3
"Amdt_StdImp|Product Description: AutoCAD Mechanical|Company: Autodesk"
 90
        0
280
     0
281
     0
  0
CLASS
  1
ACMTAPERSTANDARDANSI
  2
AcmTaperStdANSI
  3
"Amdt_StdImp|Product Description: AutoCAD Mechanical|Company: Autodesk"
 90
        0
280
     0
281
     0
  0
CLASS
  1
CAMSSTRUCTBTNSTATE
  2
StructBtnState
  3
L"DesignerAssemblies"
 90
        0
280
     0
281
     0
  0
CLASS
  1
SORTENTSTABLE
  2
AcDbSortentsTable
  3
ObjectDBX Classes
 90
        0
280
     0
281
     0
  0
CLASS
  1
DIMASSOC
  2
AcDbDimAssoc
  3
"AcDbDimAssoc|Product Desc:     AcDim ARX App For Dimension|Company:          Autodesk, Inc.|WEB Address:      www.autodesk.com"
 90
        0
280
     0
281
     0
  0
ENDSEC
  0
SECTION
  2
TABLES
  0
TABLE
  2
VPORT
  5
8
330
0
100
AcDbSymbolTable
 70
     1
  0
VPORT
  5
C444
330
8
100
AcDbSymbolTableRecord
100
AcDbViewportTableRecord
  2
*Active
 70
     0
 10
0.0
 20
0.0
 11
1.0
 21
1.0
 12
192.4186458199401
 22
148.5522053700748
 13
0.0
 23
0.0
 14
2.5
 24
2.5
 15
10.0
 25
10.0
 16
0.0
 26
0.0
 36
1.0
 17
0.0
 27
0.0
 37
0.0
 40
381.5957023414306
 41
1.599762470308788
 42
50.0
 43
-1370.695619172058
 44
-1370.695619172058
 50
0.0
 51
0.0
 71
    16
 72
   100
 73
     1
 74
     3
 75
     0
 76
     0
 77
     0
 78
     0
281
     0
 65
     0
110
0.0
120
0.0
130
0.0
111
1.0
121
0.0
131
0.0
112
0.0
122
1.0
132
0.0
 79
     0
146
0.0
  0
ENDTAB
  0
TABLE
  2
LTYPE
  5
5
330
0
100
AcDbSymbolTable
 70
    23
  0
LTYPE
  5
14
330
5
100
AcDbSymbolTableRecord
100
AcDbLinetypeTableRecord
  2
ByBlock
 70
     0
  3

 72
    65
 73
     0
 40
0.0
  0
LTYPE
  5
15
330
5
100
AcDbSymbolTableRecord
100
AcDbLinetypeTableRecord
  2
ByLayer
 70
     0
  3

 72
    65
 73
     0
 40
0.0
  0
LTYPE
  5
16
330
5
100
AcDbSymbolTableRecord
100
AcDbLinetypeTableRecord
  2
Continuous
 70
     0
  3
Solid line
 72
    65
 73
     0
 40
0.0
  0
LTYPE
  5
4F
330
5
100
AcDbSymbolTableRecord
100
AcDbLinetypeTableRecord
  2
AM_ISO02W050
 70
     0
  3
__ __ __ __ __ __ __ __ __ __ __ __ __ __ __
 72
    65
 73
     2
 40
7.5
 49
6.0
 74
     0
 49
-1.5
 74
     0
  0
LTYPE
  5
52
330
5
100
AcDbSymbolTableRecord
100
AcDbLinetypeTableRecord
  2
Amconstr
 70
     0
  3
_______________________
 72
    65
 73
     2
 40
9999.0
 49
9999.0
 74
     0
 49
0.0
 74
     0
  0
LTYPE
  5
64
330
5
100
AcDbSymbolTableRecord
100
AcDbLinetypeTableRecord
  2
ACISOWELD
 70
     0
  3
_ _ _ _ _
 72
    65
 73
     2
 40
2.0
 49
2.0
 74
     0
 49
-1.0
 74
     0
  0
LTYPE
  5
65
330
5
100
AcDbSymbolTableRecord
100
AcDbLinetypeTableRecord
  2
ACISOTGB
 70
     0
  3
__ . . __ . .
 72
    65
 73
     6
 40
9.0
 49
4.0
 74
     0
 49
-1.0
 74
     0
 49
1.0
 74
     0
 49
-1.0
 74
     0
 49
1.0
 74
     0
 49
-1.0
 74
     0
  0
LTYPE
  5
66
330
5
100
AcDbSymbolTableRecord
100
AcDbLinetypeTableRecord
  2
ACISOTGL
 70
     0
  3
_ _ _ _ _
 72
    65
 73
     2
 40
3.0
 49
2.0
 74
     0
 49
-1.0
 74
     0
  0
LTYPE
  5
69
330
5
100
AcDbSymbolTableRecord
100
AcDbLinetypeTableRecord
  2
CENTER
 70
     0
  3
__ . __
 72
    65
 73
     4
 40
7.0
 49
4.0
 74
     0
 49
-1.0
 74
     0
 49
1.0
 74
     0
 49
-1.0
 74
     0
  0
LTYPE
  5
A6E
330
5
100
AcDbSymbolTableRecord
100
AcDbLinetypeTableRecord
  2
PHANTOM2
 70
     0
  3
Phantom (.5x) ___ _ _ ___ _ _ ___ _ _ ___ _ _
 72
    65
 73
     6
 40
31.75
 49
15.875
 74
     0
 49
-3.174999999999999
 74
     0
 49
3.174999999999999
 74
     0
 49
-3.174999999999999
 74
     0
 49
3.174999999999999
 74
     0
 49
-3.174999999999999
 74
     0
  0
LTYPE
  5
FA3
330
5
100
AcDbSymbolTableRecord
100
AcDbLinetypeTableRecord
  2
ACANSTGB
 70
     0
  3
__ . . __ . .
 72
    65
 73
     6
 40
0.35433070866
 49
0.15748031496
 74
     0
 49
-0.03937007874
 74
     0
 49
0.03937007874
 74
     0
 49
-0.03937007874
 74
     0
 49
0.03937007874
 74
     0
 49
-0.03937007874
 74
     0
  0
LTYPE
  5
FA4
330
5
100
AcDbSymbolTableRecord
100
AcDbLinetypeTableRecord
  2
ACANSTGL
 70
     0
  3
_ _ _ _ _
 72
    65
 73
     2
 40
0.11811023622
 49
0.07874015748
 74
     0
 49
-0.03937007874
 74
     0
  0
LTYPE
  5
4DED
330
5
100
AcDbSymbolTableRecord
100
AcDbLinetypeTableRecord
  2
中線
 70
     0
  3
___________________
 72
    65
 73
     2
 40
2.0
 49
1.0
 74
     0
 49
1.0
 74
     0
  0
LTYPE
  5
4DF6
330
5
100
AcDbSymbolTableRecord
100
AcDbLinetypeTableRecord
  2
細線
 70
     0
  3
___________________
 72
    65
 73
     2
 40
2.0
 49
1.0
 74
     0
 49
1.0
 74
     0
  0
LTYPE
  5
4DF7
330
5
100
AcDbSymbolTableRecord
100
AcDbLinetypeTableRecord
  2
太線
 70
     0
  3
___________________
 72
    65
 73
     2
 40
2.0
 49
1.0
 74
     0
 49
1.0
 74
     0
  0
LTYPE
  5
4EA7
330
5
100
AcDbSymbolTableRecord
100
AcDbLinetypeTableRecord
  2
文字
 70
     0
  3
_________________
 72
    65
 73
     2
 40
2.0
 49
1.0
 74
     0
 49
1.0
 74
     0
  0
LTYPE
  5
4EA9
330
5
100
AcDbSymbolTableRecord
100
AcDbLinetypeTableRecord
  2
寸法線
 70
     0
  3
________________
 72
    65
 73
     2
 40
2.0
 49
1.0
 74
     0
 49
1.0
 74
     0
  0
LTYPE
  5
4F12
330
5
100
AcDbSymbolTableRecord
100
AcDbLinetypeTableRecord
  2
ハッチング
 70
     0
  3
_________________
 72
    65
 73
     2
 40
2.0
 49
1.0
 74
     0
 49
1.0
 74
     0
  0
LTYPE
  5
5180
330
5
100
AcDbSymbolTableRecord
100
AcDbLinetypeTableRecord
  2
陰線1
 70
     0
  3
__ __ __ __
 72
    65
 73
     2
 40
4.0
 49
2.2
 74
     0
 49
-1.8
 74
     0
  0
LTYPE
  5
5182
330
5
100
AcDbSymbolTableRecord
100
AcDbLinetypeTableRecord
  2
切断線
 70
     0
  3
/\/-/\/-/\/-/\/-/\/-/\/
 72
    65
 73
     2
 40
11.0001
 49
0.0001
 74
     4
 75
   135
340
56
 46
0.04
 50
0.0
 44
0.0
 45
0.0
 49
-11.0
 74
     0
  0
LTYPE
  5
5183
330
5
100
AcDbSymbolTableRecord
100
AcDbLinetypeTableRecord
  2
想像線1
 70
     0
  3
__ __ __ _____ __ __ ____
 72
    65
 73
     6
 40
14.5
 49
6.0
 74
     0
 49
-1.5
 74
     0
 49
2.0
 74
     0
 49
-1.5
 74
     0
 49
2.0
 74
     0
 49
-1.5
 74
     0
  0
LTYPE
  5
5185
330
5
100
AcDbSymbolTableRecord
100
AcDbLinetypeTableRecord
  2
中心線1
 70
     0
  3
___ _ ___ _ ___
 72
    65
 73
     4
 40
18.0
 49
12.0
 74
     0
 49
-2.0
 74
     0
 49
2.0
 74
     0
 49
-2.0
 74
     0
  0
LTYPE
  5
5188
330
5
100
AcDbSymbolTableRecord
100
AcDbLinetypeTableRecord
  2
補助線
 70
     0
  3
______________
 72
    65
 73
     2
 40
2.0
 49
1.0
 74
     0
 49
1.0
 74
     0
  0
LTYPE
  5
C49C
330
5
100
AcDbSymbolTableRecord
100
AcDbLinetypeTableRecord
  2
HIDDEN
 70
     0
  3
Hidden __ __ __ __ __ __ __ __ __ __ __ __ __ _
 72
    65
 73
     2
 40
9.524999999999998
 49
6.349999999999999
 74
     0
 49
-3.174999999999999
 74
     0
  0
LTYPE
  5
C545
330
5
100
AcDbSymbolTableRecord
100
AcDbLinetypeTableRecord
  2
AM_ISO08W050x2
 70
     0
  3
__ . __ . __ . __ . __ . __
 72
    65
 73
     4
 40
9.0
 49
6.0
 74
     0
 49
-0.75
 74
     0
 49
1.5
 74
     0
 49
-0.75
 74
     0
  0
ENDTAB
  0
TABLE
  2
LAYER
  5
2
102
{ACAD_XDICTIONARY
360
3F95
102
}
330
0
100
AcDbSymbolTable
 70
    11
  0
LAYER
  5
10
330
2
100
AcDbSymbolTableRecord
100
AcDbLayerTableRecord
  2
0
 70
     0
 62
     7
  6
Continuous
370
    -3
390
F
  0
LAYER
  5
6D1
330
2
100
AcDbSymbolTableRecord
100
AcDbLayerTableRecord
  2
Defpoints
 70
     0
 62
     7
  6
Continuous
290
     0
370
    -3
390
F
  0
LAYER
  5
A46
330
2
100
AcDbSymbolTableRecord
100
AcDbLayerTableRecord
  2
size
 70
     0
 62
     5
  6
Continuous
290
     0
370
    30
390
F
  0
LAYER
  5
A47
330
2
100
AcDbSymbolTableRecord
100
AcDbLayerTableRecord
  2
waku
 70
     0
 62
     7
  6
Continuous
370
    40
390
F
  0
LAYER
  5
A48
330
2
100
AcDbSymbolTableRecord
100
AcDbLayerTableRecord
  2
AM_6
 70
     0
 62
     2
  6
文字
370
    20
390
F
  0
LAYER
  5
5F85
330
2
100
AcDbSymbolTableRecord
100
AcDbLayerTableRecord
  2
AM_0
 70
     0
 62
     7
  6
中線
370
    30
390
F
  0
LAYER
  5
5F89
330
2
100
AcDbSymbolTableRecord
100
AcDbLayerTableRecord
  2
AM_4
 70
     0
 62
     3
  6
補助線
370
    20
390
F
  0
LAYER
  5
BFAA
330
2
100
AcDbSymbolTableRecord
100
AcDbLayerTableRecord
  2
AM_2
 70
     0
 62
     1
  6
細線
370
    20
390
F
  0
LAYER
  5
BFAB
330
2
100
AcDbSymbolTableRecord
100
AcDbLayerTableRecord
  2
AM_5
 70
     0
 62
     3
  6
寸法線
370
    18
390
F
  0
LAYER
  5
BFAC
330
2
100
AcDbSymbolTableRecord
100
AcDbLayerTableRecord
  2
AM_7
 70
     0
 62
     4
  6
中心線1
370
    15
390
F
  0
LAYER
  5
C7E8
330
2
100
AcDbSymbolTableRecord
100
AcDbLayerTableRecord
  2
AM_3
 70
     0
 62
     6
  6
陰線1
370
    20
390
F
  0
ENDTAB
  0
TABLE
  2
STYLE
  5
3
330
0
100
AcDbSymbolTable
 70
     7
  0
STYLE
  5
11
330
3
100
AcDbSymbolTableRecord
100
AcDbTextStyleTableRecord
  2
STANDARD
 70
     0
 40
0.0
 41
0.7
 50
0.0
 71
     0
 42
3.2
  3
romans.shx
  4
extfont.shx
  0
STYLE
  5
56
330
3
100
AcDbSymbolTableRecord
100
AcDbTextStyleTableRecord
  2

 70
     1
 40
0.0
 41
1.0
 50
0.0
 71
     0
 42
2.5
  3
ltypeshp.shx
  4

  0
STYLE
  5
58
330
3
100
AcDbSymbolTableRecord
100
AcDbTextStyleTableRecord
  2
ACISOTS
 70
     0
 40
1.0
 41
1.0
 50
0.0
 71
     0
 42
2.5
  3
isocp.shx
  4
extfont.shx
  0
STYLE
  5
63
330
3
100
AcDbSymbolTableRecord
100
AcDbTextStyleTableRecord
  2
ACISOGDT
 70
     0
 40
0.0
 41
1.0
 50
0.0
 71
     0
 42
2.5
  3
amgdt.shx
  4

  0
STYLE
  5
A74
330
3
100
AcDbSymbolTableRecord
100
AcDbTextStyleTableRecord
  2
DIM
 70
     0
 40
0.0
 41
1.0
 50
0.0
 71
     0
 42
2.5
  3
monotxt.shx
  4
extfont.shx
  0
STYLE
  5
FA7
330
3
100
AcDbSymbolTableRecord
100
AcDbTextStyleTableRecord
  2
ACANSTS
 70
     0
 40
1.0
 41
1.0
 50
0.0
 71
     0
 42
0.2
  3
romans.shx
  4
extfont.shx
  0
STYLE
  5
FA8
330
3
100
AcDbSymbolTableRecord
100
AcDbTextStyleTableRecord
  2
ACANSGDT
 70
     0
 40
0.0
 41
1.0
 50
0.0
 71
     0
 42
0.2
  3
amgdtans.shx
  4

  0
ENDTAB
  0
TABLE
  2
VIEW
  5
6
330
0
100
AcDbSymbolTable
 70
     6
  0
VIEW
  5
AE1
330
6
100
AcDbSymbolTableRecord
100
AcDbViewTableRecord
  2
AM_VIEW1
 70
     0
 40
105.0
 10
90.503120124805
 20
157.5
 41
181.00624024961
 11
0.0
 21
0.0
 31
1.0
 12
0.0
 22
0.0
 32
0.0
 42
50.0
 43
-1370.695619172058
 44
-1370.695619172058
 50
0.0
 71
    16
281
     0
 72
     0
  0
VIEW
  5
AE2
330
6
100
AcDbSymbolTableRecord
100
AcDbViewTableRecord
  2
AM_VIEW2
 70
     0
 40
105.0
 10
206.496879875195
 20
157.5
 41
181.00624024961
 11
0.0
 21
0.0
 31
1.0
 12
0.0
 22
0.0
 32
0.0
 42
50.0
 43
-1370.695619172058
 44
-1370.695619172058
 50
0.0
 71
    16
281
     0
 72
     0
  0
VIEW
  5
AE3
330
6
100
AcDbSymbolTableRecord
100
AcDbViewTableRecord
  2
AM_VIEW3
 70
     0
 40
105.0
 10
90.503120124805
 20
52.5
 41
181.00624024961
 11
0.0
 21
0.0
 31
1.0
 12
0.0
 22
0.0
 32
0.0
 42
50.0
 43
-1370.695619172058
 44
-1370.695619172058
 50
0.0
 71
    16
281
     0
 72
     0
  0
VIEW
  5
AE4
330
6
100
AcDbSymbolTableRecord
100
AcDbViewTableRecord
  2
AM_VIEW4
 70
     0
 40
105.0
 10
206.496879875195
 20
52.5
 41
181.00624024961
 11
0.0
 21
0.0
 31
1.0
 12
0.0
 22
0.0
 32
0.0
 42
50.0
 43
-1370.695619172058
 44
-1370.695619172058
 50
0.0
 71
    16
281
     0
 72
     0
  0
VIEW
  5
AE5
330
6
100
AcDbSymbolTableRecord
100
AcDbViewTableRecord
  2
AM_VIEW5
 70
     0
 40
105.0
 10
148.5
 20
105.0
 41
181.0062402496099
 11
0.0
 21
0.0
 31
1.0
 12
0.0
 22
0.0
 32
0.0
 42
50.0
 43
-1370.695619172058
 44
-1370.695619172058
 50
0.0
 71
    16
281
     0
 72
     0
  0
VIEW
  5
AE6
330
6
100
AcDbSymbolTableRecord
100
AcDbViewTableRecord
  2
AM_VIEW6
 70
     0
 40
209.9979
 10
148.5
 20
105.0
 41
362.008860374415
 11
0.0
 21
0.0
 31
1.0
 12
0.0
 22
0.0
 32
0.0
 42
50.0
 43
-1370.695619172058
 44
-1370.695619172058
 50
0.0
 71
    16
281
     0
 72
     0
  0
ENDTAB
  0
TABLE
  2
UCS
  5
7
330
0
100
AcDbSymbolTable
 70
     0
  0
ENDTAB
  0
TABLE
  2
APPID
  5
9
330
0
100
AcDbSymbolTable
 70
    55
  0
APPID
  5
12
330
9
100
AcDbSymbolTableRecord
100
AcDbRegAppTableRecord
  2
ACAD
 70
     0
  0
APPID
  5
30
330
9
100
AcDbSymbolTableRecord
100
AcDbRegAppTableRecord
  2
MCAD_NO_VIS
 70
     0
  0
APPID
  5
31
330
9
100
AcDbSymbolTableRecord
100
AcDbRegAppTableRecord
  2
ACAD_TEMP_GRAPHIC
 70
     0
  0
APPID
  5
44
330
9
100
AcDbSymbolTableRecord
100
AcDbRegAppTableRecord
  2
ACATTRIBSERVICES
 70
     0
  0
APPID
  5
7A1
330
9
100
AcDbSymbolTableRecord
100
AcDbRegAppTableRecord
  2
GENIUS_GENDIMSH_14
 70
     0
  0
APPID
  5
A49
330
9
100
AcDbSymbolTableRecord
100
AcDbRegAppTableRecord
  2
GENIUS_GENREC_14
 70
     0
  0
APPID
  5
A4A
330
9
100
AcDbSymbolTableRecord
100
AcDbRegAppTableRecord
  2
GENIUS_GENOBJ-N-REC_13
 70
     0
  0
APPID
  5
A4B
330
9
100
AcDbSymbolTableRecord
100
AcDbRegAppTableRecord
  2
GENIUS_GENODEF_13
 70
     0
  0
APPID
  5
A4C
330
9
100
AcDbSymbolTableRecord
100
AcDbRegAppTableRecord
  2
DCO15
 70
     0
  0
APPID
  5
ADC
330
9
100
AcDbSymbolTableRecord
100
AcDbRegAppTableRecord
  2
GENIUS_GENOLIS_13
 70
     0
  0
APPID
  5
ADD
330
9
100
AcDbSymbolTableRecord
100
AcDbRegAppTableRecord
  2
GENIUS_GENOENT_13
 70
     0
  0
APPID
  5
ADE
330
9
100
AcDbSymbolTableRecord
100
AcDbRegAppTableRecord
  2
GENIUS_GENOBJ-N-TIT_13
 70
     0
  0
APPID
  5
ADF
330
9
100
AcDbSymbolTableRecord
100
AcDbRegAppTableRecord
  2
GENIUS_GENTITLE_13
 70
     0
  0
APPID
  5
AE0
330
9
100
AcDbSymbolTableRecord
100
AcDbRegAppTableRecord
  2
GENIUS_GENOREF_13
 70
     0
  0
APPID
  5
AE7
330
9
100
AcDbSymbolTableRecord
100
AcDbRegAppTableRecord
  2
GENIUS_GENSCREG_15
 70
     0
  0
APPID
  5
AE8
330
9
100
AcDbSymbolTableRecord
100
AcDbRegAppTableRecord
  2
GENIUS_GENOBJ-N-SDF_13
 70
     0
  0
APPID
  5
FAF
330
9
100
AcDbSymbolTableRecord
100
AcDbRegAppTableRecord
  2
GENIUS_GENBLLY_14
 70
     0
  0
APPID
  5
FB0
330
9
100
AcDbSymbolTableRecord
100
AcDbRegAppTableRecord
  2
GENIUS_GENTRA_14
 70
     0
  0
APPID
  5
1285
330
9
100
AcDbSymbolTableRecord
100
AcDbRegAppTableRecord
  2
GENIUS_GENDTOL_13
 70
     0
  0
APPID
  5
142D
330
9
100
AcDbSymbolTableRecord
100
AcDbRegAppTableRecord
  2
GENIUS_GENOBJ-N-CEN_13
 70
     0
  0
APPID
  5
1AB5
330
9
100
AcDbSymbolTableRecord
100
AcDbRegAppTableRecord
  2
GENIUS_GENOBJ-N-CRS_13
 70
     0
  0
APPID
  5
1B36
330
9
100
AcDbSymbolTableRecord
100
AcDbRegAppTableRecord
  2
GENIUS_GENOBJ-N-HTC_13
 70
     0
  0
APPID
  5
1B37
330
9
100
AcDbSymbolTableRecord
100
AcDbRegAppTableRecord
  2
GENIUS_GENHATCH_13
 70
     0
  0
APPID
  5
216D
330
9
100
AcDbSymbolTableRecord
100
AcDbRegAppTableRecord
  2
GENIUS_GENOBJ-N-FIL_13
 70
     0
  0
APPID
  5
2356
330
9
100
AcDbSymbolTableRecord
100
AcDbRegAppTableRecord
  2
GEVID990412420
 70
     0
  0
APPID
  5
2357
330
9
100
AcDbSymbolTableRecord
100
AcDbRegAppTableRecord
  2
GEVDC
 70
     0
  0
APPID
  5
2358
330
9
100
AcDbSymbolTableRecord
100
AcDbRegAppTableRecord
  2
GEVCON
 70
     0
  0
APPID
  5
235B
330
9
100
AcDbSymbolTableRecord
100
AcDbRegAppTableRecord
  2
GEVRADREF
 70
     0
  0
APPID
  5
2360
330
9
100
AcDbSymbolTableRecord
100
AcDbRegAppTableRecord
  2
GENIUS_GENBH_13
 70
     0
  0
APPID
  5
2362
330
9
100
AcDbSymbolTableRecord
100
AcDbRegAppTableRecord
  2
GENIUS_GENOBJ-NBEHI-BHF_13
 70
     0
  0
APPID
  5
2364
330
9
100
AcDbSymbolTableRecord
100
AcDbRegAppTableRecord
  2
GENIUS_GENOBJ-NBEHI-BHB_13
 70
     0
  0
APPID
  5
2379
330
9
100
AcDbSymbolTableRecord
100
AcDbRegAppTableRecord
  2
GENIUS_GENOBJ-F-SCPASSM_13
 70
     0
  0
APPID
  5
3D74
330
9
100
AcDbSymbolTableRecord
100
AcDbRegAppTableRecord
  2
GENIUS_GENDIM_13
 70
     0
  0
APPID
  5
3D76
330
9
100
AcDbSymbolTableRecord
100
AcDbRegAppTableRecord
  2
GENIUS_GE3DTOL_13
 70
     0
  0
APPID
  5
3D9C
330
9
100
AcDbSymbolTableRecord
100
AcDbRegAppTableRecord
  2
AD_DRAW
 70
     0
  0
APPID
  5
3DE8
330
9
100
AcDbSymbolTableRecord
100
AcDbRegAppTableRecord
  2
ASURF_PCURVE_APPNAME
 70
     0
  0
APPID
  5
3DED
330
9
100
AcDbSymbolTableRecord
100
AcDbRegAppTableRecord
  2
AMG_3D2D_5.0
 70
     0
  0
APPID
  5
3E1B
330
9
100
AcDbSymbolTableRecord
100
AcDbRegAppTableRecord
  2
DESIGNERASSEMBLIES
 70
     0
  0
APPID
  5
3E20
330
9
100
AcDbSymbolTableRecord
100
AcDbRegAppTableRecord
  2
ACADM_DIM_EDIT
 70
     0
  0
APPID
  5
3E21
330
9
100
AcDbSymbolTableRecord
100
AcDbRegAppTableRecord
  2
AMDT_DM_ADJ
 70
     0
  0
APPID
  5
4143
330
9
100
AcDbSymbolTableRecord
100
AcDbRegAppTableRecord
  2
GENIUS_GENFIL_13
 70
     0
  0
APPID
  5
4144
330
9
100
AcDbSymbolTableRecord
100
AcDbRegAppTableRecord
  2
GENIUS_GENOBJ-N-CHA_13
 70
     0
  0
APPID
  5
4E17
330
9
100
AcDbSymbolTableRecord
100
AcDbRegAppTableRecord
  2
GEVID1008153417
 70
     0
  0
APPID
  5
4E58
330
9
100
AcDbSymbolTableRecord
100
AcDbRegAppTableRecord
  2
GEVID1008153418
 70
     0
  0
APPID
  5
4E5E
330
9
100
AcDbSymbolTableRecord
100
AcDbRegAppTableRecord
  2
GEVID1008153419
 70
     0
  0
APPID
  5
4E64
330
9
100
AcDbSymbolTableRecord
100
AcDbRegAppTableRecord
  2
GEVID1008153420
 70
     0
  0
APPID
  5
4E75
330
9
100
AcDbSymbolTableRecord
100
AcDbRegAppTableRecord
  2
GEVID1008153421
 70
     0
  0
APPID
  5
4EB7
330
9
100
AcDbSymbolTableRecord
100
AcDbRegAppTableRecord
  2
GENIUS_AMGTXT_16
 70
     0
  0
APPID
  5
7645
330
9
100
AcDbSymbolTableRecord
100
AcDbRegAppTableRecord
  2
GENIUS_GENOBJ-N-DIM_13
 70
     0
  0
APPID
  5
C5F0
330
9
100
AcDbSymbolTableRecord
100
AcDbRegAppTableRecord
  2
GENIUS_GENCEN_19
 70
     0
  0
APPID
  5
C5FB
330
9
100
AcDbSymbolTableRecord
100
AcDbRegAppTableRecord
  2
ACAD_DSTYLE_DIMJOGGED_JOGANGLE_SYMBOL
 70
     0
  0
APPID
  5
C5FC
330
9
100
AcDbSymbolTableRecord
100
AcDbRegAppTableRecord
  2
ACAD_PSEXT
 70
     0
  0
APPID
  5
CA37
330
9
100
AcDbSymbolTableRecord
100
AcDbRegAppTableRecord
  2
AcAecLayerStandard
 70
     0
  0
APPID
  5
E693
330
9
100
AcDbSymbolTableRecord
100
AcDbRegAppTableRecord
  2
ACAD_DSTYLE_DIMINSPECT
 70
     0
  0
APPID
  5
E694
330
9
100
AcDbSymbolTableRecord
100
AcDbRegAppTableRecord
  2
ACAD_DSTYLE_DIMRADIAL_EXTENSION
 70
     0
  0
ENDTAB
  0
TABLE
  2
DIMSTYLE
  5
A
330
0
100
AcDbSymbolTable
 70
    25
100
AcDbDimStyleTable
 71
     5
340
2515
340
251A
340
251B
340
6C
340
FA9
  0
DIMSTYLE
105
6C
330
A
100
AcDbSymbolTableRecord
100
AcDbDimStyleTableRecord
  2
AM_ISO
 70
     0
  4
"
 41
2.5
 42
1.0
 43
10.0
 44
1.0
 47
0.1
 48
0.1
 73
     0
 74
     0
 77
     1
 78
     8
 79
     2
140
3.5
141
0.0
143
0.0393701
146
0.71
147
1.5
172
     1
176
   256
177
   256
178
     2
271
     2
272
     3
274
     4
283
     0
284
     8
340
11
371
    -1
372
    -1
  0
DIMSTYLE
105
6D
330
A
100
AcDbSymbolTableRecord
100
AcDbDimStyleTableRecord
  2
AM_ISO$3
 70
     0
  4
"
 41
0.8
 42
1.0
 43
10.0
 44
1.0
 47
0.1
 48
0.1
 73
     0
 77
     1
 78
     8
 79
     2
140
3.2
141
0.0
143
0.0393701
146
0.71
147
0.9999999999999996
176
   256
177
   256
178
     2
271
     2
272
     2
283
     0
284
     8
288
     1
289
     0
340
11
342
6C4
371
    -1
372
    -1
  0
DIMSTYLE
105
6E
330
A
100
AcDbSymbolTableRecord
100
AcDbDimStyleTableRecord
  2
AM_ISO$4
 70
     0
  4
"
 41
0.8
 42
1.0
 43
10.0
 44
1.0
 47
0.1
 48
0.1
 73
     0
 77
     1
 78
     8
 79
     2
140
3.2
141
0.0
143
0.0393701
146
0.71
147
1.0
173
     1
176
   256
177
   256
178
     2
271
     2
272
     2
283
     0
284
     8
288
     1
289
     0
340
11
344
6C4
371
    -1
372
    -1
  0
DIMSTYLE
105
6F
330
A
100
AcDbSymbolTableRecord
100
AcDbDimStyleTableRecord
  2
AM_ISO$6
 70
     0
  4
"
 41
0.8
 42
1.0
 43
10.0
 44
1.0
 47
0.1
 48
0.1
 73
     0
 74
     0
 78
     8
 79
     2
140
3.2
141
0.0
143
0.0393701
146
0.71
147
1.0
172
     1
176
   256
177
   256
178
     2
271
     2
272
     2
283
     0
284
     8
340
11
341
6C4
371
    -1
372
    -1
  0
DIMSTYLE
105
70
330
A
100
AcDbSymbolTableRecord
100
AcDbDimStyleTableRecord
  2
AM_ISO$7
 70
     0
  4
"
 41
0.8
 42
1.0
 43
10.0
 44
1.0
 47
0.1
 48
0.1
 73
     0
 74
     0
 77
     1
 78
     8
 79
     2
140
3.2
141
0.0
143
0.0393701
146
0.71
147
1.0
172
     1
176
   256
177
   256
178
     2
271
     2
272
     2
283
     0
284
     8
340
11
341
6C4
342
6C4
371
    -1
372
    -1
  0
DIMSTYLE
105
71
330
A
100
AcDbSymbolTableRecord
100
AcDbDimStyleTableRecord
  2
AM_ISO$SF
 70
     0
  4
"
 41
0.8
 42
1.0
 43
10.0
 44
1.0
 47
0.1
 48
0.1
 73
     0
 74
     0
 75
     1
 76
     1
 77
     1
 78
     8
 79
     2
140
3.2
141
0.0
143
0.0393701
146
0.71
147
1.0
172
     1
176
   256
177
   256
178
     2
271
     2
272
     2
283
     0
284
     8
340
11
341
6C4
342
6C4
371
    -1
372
    -1
  0
DIMSTYLE
105
76
330
A
100
AcDbSymbolTableRecord
100
AcDbDimStyleTableRecord
  2
AM_ISO$SH
 70
     0
  4
"
 41
0.8
 42
1.0
 43
10.0
 44
1.0
 47
0.1
 48
0.1
 73
     0
 74
     0
 75
     1
 76
     1
 77
     1
 78
     8
 79
     2
140
3.2
141
0.0
143
0.0393701
144
2.0
146
0.71
147
1.0
172
     1
176
   256
177
   256
178
     2
271
     2
272
     2
283
     0
284
     8
340
11
341
6C4
342
6C4
371
    -1
372
    -1
  0
DIMSTYLE
105
6BE
330
A
100
AcDbSymbolTableRecord
100
AcDbDimStyleTableRecord
  2
AM_ISO$0
 70
     0
  4
"
 41
0.8
 42
1.0
 43
10.0
 44
1.0
 47
0.1
 48
0.1
 73
     0
 74
     0
 77
     1
 78
     8
 79
     2
140
3.2
141
0.0
143
0.0393701
146
0.71
147
0.9999999999999996
172
     1
176
   256
177
   256
178
     2
271
     2
272
     2
283
     0
284
     8
340
11
341
6C4
342
6C4
371
    -1
372
    -1
  0
DIMSTYLE
105
6BF
330
A
100
AcDbSymbolTableRecord
100
AcDbDimStyleTableRecord
  2
AM_ISO$2
 70
     0
  4
"
 41
0.8
 42
1.0
 43
10.0
 44
1.0
 47
0.1
 48
0.1
 73
     0
 74
     0
 77
     3
 78
     8
 79
     2
140
3.200000000000001
141
0.0
143
0.0393701
146
0.71
147
0.9999999999999996
172
     1
176
   256
177
   256
178
     2
271
     2
272
     2
283
     0
284
     8
340
11
342
6C4
371
    -1
372
    -1
  0
DIMSTYLE
105
A76
330
A
100
AcDbSymbolTableRecord
100
AcDbDimStyleTableRecord
  2
STANDARD
 70
     0
 41
3.0
 42
1.0
 43
7.0
 44
2.0
 73
     0
 74
     0
 77
     1
140
2.799999999999999
141
0.0
143
0.0394
147
0.7
171
     4
172
     1
173
     1
176
     3
177
     3
178
     2
271
     3
272
     3
273
     8
274
     4
289
     0
340
A74
341
A66
343
A66
344
A66
  0
DIMSTYLE
105
FA9
330
A
100
AcDbSymbolTableRecord
100
AcDbDimStyleTableRecord
  2
AM_ANSI
 70
     0
  4
mm
 41
0.1
 42
0.05
 43
0.5
 44
0.1
 47
0.1
 48
0.1
 78
     7
 79
     2
140
0.12
141
0.0
146
0.71
147
0.06
176
   256
177
   256
178
     2
274
     4
284
     7
340
11
371
    -1
372
    -1
  0
DIMSTYLE
105
FAA
330
A
100
AcDbSymbolTableRecord
100
AcDbDimStyleTableRecord
  2
AM_ANSI$3
 70
     0
  4
mm
 41
0.1
 42
0.05
 43
0.5
 44
0.1
 47
0.1
 48
0.1
 78
     7
 79
     2
140
0.12
141
0.0
146
0.71
147
0.06
176
   256
177
   256
178
     2
274
     4
284
     7
288
     1
289
     0
340
11
371
    -1
372
    -1
  0
DIMSTYLE
105
FAB
330
A
100
AcDbSymbolTableRecord
100
AcDbDimStyleTableRecord
  2
AM_ANSI$4
 70
     0
  4
mm
 41
0.1
 42
0.05
 43
0.5
 44
0.1
 47
0.1
 48
0.1
 78
     7
 79
     2
140
0.12
141
0.0
146
0.71
147
0.06
176
   256
177
   256
178
     2
274
     4
284
     7
288
     1
289
     0
340
11
371
    -1
372
    -1
  0
DIMSTYLE
105
FAC
330
A
100
AcDbSymbolTableRecord
100
AcDbDimStyleTableRecord
  2
AM_ANSI$7
 70
     0
  4
mm
 41
0.1
 42
0.05
 43
0.5
 44
0.1
 47
0.1
 48
0.1
 78
     7
 79
     2
140
0.24
141
0.0
146
0.71
147
0.06
176
   256
177
   256
178
     2
274
     4
284
     7
340
11
371
    -1
372
    -1
  0
DIMSTYLE
105
FAD
330
A
100
AcDbSymbolTableRecord
100
AcDbDimStyleTableRecord
  2
AM_ANSI$SF
 70
     0
  4
mm
 41
0.1
 42
0.05
 43
0.5
 44
0.1
 47
0.1
 48
0.1
 75
     1
 76
     1
 78
     7
 79
     2
140
0.12
141
0.0
146
0.71
147
0.06
176
   256
177
   256
178
     2
274
     4
284
     7
340
11
371
    -1
372
    -1
  0
DIMSTYLE
105
FAE
330
A
100
AcDbSymbolTableRecord
100
AcDbDimStyleTableRecord
  2
AM_ANSI$SH
 70
     0
  4
mm
 41
0.1
 42
0.05
 43
0.5
 44
0.1
 47
0.1
 48
0.1
 75
     1
 76
     1
 78
     7
 79
     2
140
0.12
141
0.0
146
0.71
147
0.06
173
     1
176
   256
177
   256
178
     2
274
     4
284
     7
340
11
343
72
371
    -1
372
    -1
  0
DIMSTYLE
105
2515
330
A
100
AcDbSymbolTableRecord
100
AcDbDimStyleTableRecord
  2
SYS
 70
     0
  4
"
 41
2.5
 42
1.0
 43
10.0
 44
1.0
 47
0.1
 48
0.1
 73
     0
 74
     0
 77
     1
 78
     8
 79
     2
140
3.5
141
0.0
143
0.0393701
146
0.71
147
1.5
172
     1
176
   256
177
   256
178
     7
271
     2
272
     3
274
     4
283
     0
284
     8
340
11
371
    -1
372
    -1
  0
DIMSTYLE
105
2516
102
{ACAD_REACTORS
330
EFAC
102
}
330
A
100
AcDbSymbolTableRecord
100
AcDbDimStyleTableRecord
  2
SYS$3
 70
     0
  4
"
 41
2.0
 42
1.0
 43
10.0
 44
1.0
 47
0.1
 48
0.1
 73
     0
 77
     1
 78
     8
 79
     2
140
3.200000000000001
141
0.0
143
0.0393701
146
0.71
147
0.9999999999999996
176
   256
177
   256
178
     2
271
     1
272
     1
283
     0
284
     8
288
     1
340
11
342
A66
371
    -1
372
    -1
  0
DIMSTYLE
105
2517
330
A
100
AcDbSymbolTableRecord
100
AcDbDimStyleTableRecord
  2
SYS$4
 70
     0
  4
"
 41
2.0
 42
1.0
 43
10.0
 44
1.0
 47
0.1
 48
0.1
 73
     0
 77
     1
 78
     8
 79
     2
140
3.2
141
0.0
143
0.0393701
146
0.71
147
0.9999999999999996
173
     1
176
   256
177
   256
178
     2
271
     2
272
     2
283
     0
284
     8
288
     1
340
11
344
A66
371
    -1
372
    -1
  0
DIMSTYLE
105
2518
330
A
100
AcDbSymbolTableRecord
100
AcDbDimStyleTableRecord
  2
SYS$6
 70
     0
  4
"
 41
2.0
 42
1.0
 43
10.0
 44
1.0
 47
0.1
 48
0.1
 73
     0
 74
     0
 78
     8
 79
     2
140
3.2
141
0.0
143
0.0393701
146
0.71
147
0.9999999999999996
172
     1
176
   256
177
   256
178
     2
271
     2
272
     2
283
     0
284
     8
340
11
341
A66
371
    -1
372
    -1
  0
DIMSTYLE
105
2519
330
A
100
AcDbSymbolTableRecord
100
AcDbDimStyleTableRecord
  2
SYS$7
 70
     0
  4
"
 41
2.0
 42
1.5
 43
10.0
 44
1.0
 47
0.1
 48
0.1
 73
     0
 74
     0
 77
     1
 78
     8
 79
     2
140
3.2
141
0.0
143
0.0393701
146
0.71
147
0.9999999999999996
172
     1
176
   256
177
   256
178
     2
271
     2
272
     2
283
     0
284
     8
340
11
341
A66
342
A66
371
    -1
372
    -1
  0
DIMSTYLE
105
251A
330
A
100
AcDbSymbolTableRecord
100
AcDbDimStyleTableRecord
  2
SYS$SF
 70
     0
  4
"
 41
1.0
 42
1.0
 43
10.0
 44
1.0
 47
0.1
 48
0.1
 73
     0
 74
     0
 75
     1
 76
     1
 77
     1
 78
     8
 79
     2
140
3.2
141
0.0
143
0.0393701
146
0.71
147
0.9999999999999996
172
     1
176
   256
177
   256
178
     2
271
     2
272
     2
283
     0
284
     8
340
11
341
6C4
342
6C4
371
    -1
372
    -1
  0
DIMSTYLE
105
251B
330
A
100
AcDbSymbolTableRecord
100
AcDbDimStyleTableRecord
  2
SYS$SH
 70
     0
  4
"
 41
1.0
 42
1.0
 43
10.0
 44
1.0
 47
0.1
 48
0.1
 73
     0
 74
     0
 75
     1
 76
     1
 77
     1
 78
     8
 79
     2
140
3.2
141
0.0
143
0.0393701
144
2.0
146
0.71
147
0.9999999999999996
172
     1
173
     1
176
   256
177
   256
178
     2
271
     2
272
     2
283
     0
284
     8
340
11
341
6C4
343
72
344
6C4
371
    -1
372
    -1
  0
DIMSTYLE
105
2A59
102
{ACAD_REACTORS
330
EFE5
102
}
330
A
100
AcDbSymbolTableRecord
100
AcDbDimStyleTableRecord
  2
SYS$2
 70
     0
  4
"
 41
1.0
 42
1.5
 43
10.0
 44
1.0
 47
0.1
 48
0.1
 73
     0
 74
     0
 77
     1
 78
     8
 79
     2
140
3.2
141
0.0
143
0.0393701
146
0.71
147
0.9999999999999996
172
     1
176
   256
177
   256
178
     2
271
     2
272
     2
283
     0
284
     8
340
11
342
6C4
371
    -1
372
    -1
  0
DIMSTYLE
105
2AAB
102
{ACAD_REACTORS
330
EFA0
330
EFAA
330
EFAB
330
EFAD
330
EFAE
330
EFAF
330
EFB0
102
}
330
A
100
AcDbSymbolTableRecord
100
AcDbDimStyleTableRecord
  2
SYS$0
 70
     0
  4
"
 41
1.0
 42
1.5
 43
10.0
 44
1.0
 47
0.1
 48
0.1
 73
     0
 74
     0
 77
     1
 78
     8
 79
     2
140
3.2
141
0.0
143
0.0393701
146
0.71
147
0.9999999999999996
172
     1
176
   256
177
   256
178
     2
271
     1
272
     1
283
     0
284
     8
340
11
341
A66
342
6C4
371
    -1
372
    -1
  0
ENDTAB
  0
TABLE
  2
BLOCK_RECORD
  5
1
330
0
100
AcDbSymbolTable
 70
    14
  0
BLOCK_RECORD
  5
1F
102
{ACAD_XDICTIONARY
360
8A
102
}
330
1
100
AcDbSymbolTableRecord
100
AcDbBlockTableRecord
  2
*Model_Space
340
22
  0
BLOCK_RECORD
  5
1B
330
1
100
AcDbSymbolTableRecord
100
AcDbBlockTableRecord
  2
*Paper_Space
340
1E
  0
BLOCK_RECORD
  5
23
330
1
100
AcDbSymbolTableRecord
100
AcDbBlockTableRecord
  2
*Paper_Space0
340
26
  0
BLOCK_RECORD
  5
72
330
1
100
AcDbSymbolTableRecord
100
AcDbBlockTableRecord
  2
GENAXEH
340
0
  0
BLOCK_RECORD
  5
6C4
330
1
100
AcDbSymbolTableRecord
100
AcDbBlockTableRecord
  2
_Dot
340
0
102
{BLKREFS
331
F26A
331
F26B
331
F273
331
F274
331
F27C
331
F27D
331
F28E
331
F28F
331
F297
331
F298
331
F2A0
331
F2A1
331
F2A9
331
F2AA
331
F30B
331
F30C
102
}
  0
BLOCK_RECORD
  5
A66
330
1
100
AcDbSymbolTableRecord
100
AcDbBlockTableRecord
  2
_OPEN30
340
0
102
{BLKREFS
331
F2B2
331
F2B3
102
}
  0
BLOCK_RECORD
  5
F0E0
330
1
100
AcDbSymbolTableRecord
100
AcDbBlockTableRecord
  2
*D5
340
0
  0
BLOCK_RECORD
  5
F0EC
330
1
100
AcDbSymbolTableRecord
100
AcDbBlockTableRecord
  2
*D6
340
0
  0
BLOCK_RECORD
  5
F0F8
330
1
100
AcDbSymbolTableRecord
100
AcDbBlockTableRecord
  2
*D7
340
0
  0
BLOCK_RECORD
  5
F104
330
1
100
AcDbSymbolTableRecord
100
AcDbBlockTableRecord
  2
*D8
340
0
  0
BLOCK_RECORD
  5
F110
330
1
100
AcDbSymbolTableRecord
100
AcDbBlockTableRecord
  2
*D9
340
0
  0
BLOCK_RECORD
  5
F11C
330
1
100
AcDbSymbolTableRecord
100
AcDbBlockTableRecord
  2
*D10
340
0
  0
BLOCK_RECORD
  5
F128
330
1
100
AcDbSymbolTableRecord
100
AcDbBlockTableRecord
  2
*D11
340
0
  0
BLOCK_RECORD
  5
F134
330
1
100
AcDbSymbolTableRecord
100
AcDbBlockTableRecord
  2
*D12
340
0
  0
BLOCK_RECORD
  5
F188
330
1
100
AcDbSymbolTableRecord
100
AcDbBlockTableRecord
  2
*D13
340
0
  0
ENDTAB
  0
ENDSEC
  0
SECTION
  2
BLOCKS
  0
BLOCK
  5
20
330
1F
100
AcDbEntity
  8
0
100
AcDbBlockBegin
  2
*Model_Space
 70
     0
 10
0.0
 20
0.0
 30
0.0
  3
*Model_Space
  1

  0
ENDBLK
  5
21
330
1F
100
AcDbEntity
  8
0
100
AcDbBlockEnd
  0
BLOCK
  5
1C
330
1B
100
AcDbEntity
 67
     1
  8
0
100
AcDbBlockBegin
  2
*Paper_Space
 70
     0
 10
0.0
 20
0.0
 30
0.0
  3
*Paper_Space
  1

  0
ENDBLK
  5
1D
330
1B
100
AcDbEntity
 67
     1
  8
0
100
AcDbBlockEnd
  0
BLOCK
  5
24
330
23
100
AcDbEntity
 67
     1
  8
0
100
AcDbBlockBegin
  2
*Paper_Space0
 70
     0
 10
0.0
 20
0.0
 30
0.0
  3
*Paper_Space0
  1

  0
ENDBLK
  5
25
330
23
100
AcDbEntity
 67
     1
  8
0
100
AcDbBlockEnd
  0
BLOCK
  5
74
330
72
100
AcDbEntity
  8
0
100
AcDbBlockBegin
  2
GENAXEH
 70
     0
 10
0.0
 20
0.0
 30
0.0
  3
GENAXEH
  1

  0
LINE
  5
73
330
72
100
AcDbEntity
  8
0
100
AcDbLine
 10
-1.0
 20
0.0
 30
0.0
 11
1.0
 21
0.0
 31
0.0
  0
ENDBLK
  5
75
330
72
100
AcDbEntity
  8
0
100
AcDbBlockEnd
  0
BLOCK
  5
6C7
330
6C4
100
AcDbEntity
  8
0
100
AcDbBlockBegin
  2
_Dot
 70
     0
 10
0.0
 20
0.0
 30
0.0
  3
_Dot
  1

  0
LWPOLYLINE
  5
6C5
330
6C4
100
AcDbEntity
  8
0
  6
ByBlock
 62
     0
100
AcDbPolyline
 90
        2
 70
     1
 43
0.5
 10
-0.25
 20
0.0
 42
1.0
 10
0.25
 20
0.0
 42
1.0
  0
LINE
  5
6C6
330
6C4
100
AcDbEntity
  8
0
  6
ByBlock
 62
     0
370
    -2
100
AcDbLine
 10
-0.5
 20
0.0
 30
0.0
 11
-1.0
 21
0.0
 31
0.0
  0
ENDBLK
  5
6C8
330
6C4
100
AcDbEntity
  8
0
100
AcDbBlockEnd
  0
BLOCK
  5
A6A
330
A66
100
AcDbEntity
  8
0
100
AcDbBlockBegin
  2
_OPEN30
 70
     0
 10
0.0
 20
0.0
 30
0.0
  3
_OPEN30
  1

  0
LINE
  5
A67
330
A66
100
AcDbEntity
  8
0
  6
ByBlock
 62
     0
100
AcDbLine
 10
-1.0
 20
0.26794919
 30
0.0
 11
0.0
 21
0.0
 31
0.0
  0
LINE
  5
A68
330
A66
100
AcDbEntity
  8
0
  6
ByBlock
 62
     0
100
AcDbLine
 10
0.0
 20
0.0
 30
0.0
 11
-1.0
 21
-0.26794919
 31
0.0
  0
LINE
  5
A69
330
A66
100
AcDbEntity
  8
0
  6
ByBlock
 62
     0
100
AcDbLine
 10
0.0
 20
0.0
 30
0.0
 11
-1.0
 21
0.0
 31
0.0
  0
ENDBLK
  5
A6B
330
A66
100
AcDbEntity
  8
0
100
AcDbBlockEnd
  0
BLOCK
  5
F0EA
330
F0E0
100
AcDbEntity
  8
0
100
AcDbBlockBegin
  2
*D5
 70
     1
 10
0.0
 20
0.0
 30
0.0
  3
*D5
  1

  0
LINE
  5
F267
330
F0E0
100
AcDbEntity
  8
AM_5
100
AcDbLine
 10
158.3243238565051
 20
218.3811415556429
 30
0.0
 11
148.3243238565033
 21
218.3811415556429
 31
0.0
  0
LINE
  5
F268
330
F0E0
100
AcDbEntity
  8
AM_5
100
AcDbLine
 10
165.8243238565053
 20
168.3811415556429
 30
0.0
 11
148.3243238565032
 21
168.3811415556429
 31
0.0
  0
LINE
  5
F269
330
F0E0
100
AcDbEntity
  8
AM_5
100
AcDbLine
 10
149.3243238565033
 20
217.3811415556429
 30
0.0
 11
149.3243238565032
 21
169.3811415556429
 31
0.0
  0
INSERT
  5
F26A
330
F0E0
100
AcDbEntity
  8
AM_5
100
AcDbBlockReference
  2
_Dot
 10
149.3243238565033
 20
218.3811415556429
 30
0.0
 41
1.0
 42
1.0
 43
1.0
 50
90.0
  0
INSERT
  5
F26B
330
F0E0
100
AcDbEntity
  8
AM_5
100
AcDbBlockReference
  2
_Dot
 10
149.3243238565032
 20
168.3811415556429
 30
0.0
 41
1.0
 42
1.0
 43
1.0
 50
270.0
  0
MTEXT
  5
F26C
330
F0E0
100
AcDbEntity
  8
AM_5
 62
     2
100
AcDbMText
 10
146.7243238565032
 20
193.3811415556429
 30
0.0
 40
3.2
 41
0.0
 71
     5
 72
     1
  1
L
 11
0.0000000000000001
 21
1.0
 31
0.0
 73
     1
 44
1.0
1001
ACAD
1000
MTEXTBEGIN
1070
    73
1070
     1
1070
    44
1040
1.0
1070
    74
1070
     0
1000
MTEXTEND
  0
POINT
  5
F26D
330
F0E0
100
AcDbEntity
  8
Defpoints
 62
     0
100
AcDbPoint
 10
159.8243238565051
 20
218.3811415556429
 30
0.0
  0
POINT
  5
F26E
330
F0E0
100
AcDbEntity
  8
Defpoints
 62
     0
100
AcDbPoint
 10
167.3243238565053
 20
168.3811415556429
 30
0.0
  0
POINT
  5
F26F
330
F0E0
100
AcDbEntity
  8
Defpoints
 62
     0
100
AcDbPoint
 10
149.3243238565032
 20
168.3811415556429
 30
0.0
  0
ENDBLK
  5
F0EB
330
F0E0
100
AcDbEntity
  8
0
100
AcDbBlockEnd
  0
BLOCK
  5
F0F6
330
F0EC
100
AcDbEntity
  8
0
100
AcDbBlockBegin
  2
*D6
 70
     1
 10
0.0
 20
0.0
 30
0.0
  3
*D6
  1

  0
LINE
  5
F270
330
F0EC
100
AcDbEntity
  8
AM_5
100
AcDbLine
 10
151.0243238565051
 20
236.8811415556429
 30
0.0
 11
151.0243238565051
 21
262.6811415556422
 31
0.0
  0
LINE
  5
F271
330
F0EC
100
AcDbEntity
  8
AM_5
100
AcDbLine
 10
183.6243238565051
 20
236.8811415556429
 30
0.0
 11
183.6243238565051
 21
262.6811415556422
 31
0.0
  0
LINE
  5
F272
330
F0EC
100
AcDbEntity
  8
AM_5
100
AcDbLine
 10
152.0243238565051
 20
261.6811415556422
 30
0.0
 11
182.6243238565051
 21
261.6811415556422
 31
0.0
  0
INSERT
  5
F273
330
F0EC
100
AcDbEntity
  8
AM_5
100
AcDbBlockReference
  2
_Dot
 10
151.0243238565051
 20
261.6811415556422
 30
0.0
 41
1.0
 42
1.0
 43
1.0
 50
180.0
  0
INSERT
  5
F274
330
F0EC
100
AcDbEntity
  8
AM_5
100
AcDbBlockReference
  2
_Dot
 10
183.6243238565051
 20
261.6811415556422
 30
0.0
 41
1.0
 42
1.0
 43
1.0
  0
MTEXT
  5
F275
330
F0EC
100
AcDbEntity
  8
AM_5
 62
     2
100
AcDbMText
 10
167.3243238565051
 20
264.2811415556422
 30
0.0
 40
3.2
 41
0.0
 71
     5
 72
     1
  1
A
 73
     1
 44
1.0
1001
ACAD
1000
MTEXTBEGIN
1070
    73
1070
     1
1070
    44
1040
1.0
1070
    74
1070
     0
1000
MTEXTEND
  0
POINT
  5
F276
330
F0EC
100
AcDbEntity
  8
Defpoints
 62
     0
100
AcDbPoint
 10
151.0243238565051
 20
235.3811415556429
 30
0.0
  0
POINT
  5
F277
330
F0EC
100
AcDbEntity
  8
Defpoints
 62
     0
100
AcDbPoint
 10
183.6243238565051
 20
235.3811415556429
 30
0.0
  0
POINT
  5
F278
330
F0EC
100
AcDbEntity
  8
Defpoints
 62
     0
100
AcDbPoint
 10
183.6243238565051
 20
261.6811415556422
 30
0.0
  0
ENDBLK
  5
F0F7
330
F0EC
100
AcDbEntity
  8
0
100
AcDbBlockEnd
  0
BLOCK
  5
F102
330
F0F8
100
AcDbEntity
  8
0
100
AcDbBlockBegin
  2
*D7
 70
     1
 10
0.0
 20
0.0
 30
0.0
  3
*D7
  1

  0
LINE
  5
F279
330
F0F8
100
AcDbEntity
  8
AM_5
100
AcDbLine
 10
168.8243238565051
 20
251.6811415556422
 30
0.0
 11
204.624323856505
 21
251.6811415556421
 31
0.0
  0
LINE
  5
F27A
330
F0F8
100
AcDbEntity
  8
AM_5
100
AcDbLine
 10
176.3243238565048
 20
218.3811415556393
 30
0.0
 11
204.624323856505
 21
218.3811415556392
 31
0.0
  0
LINE
  5
F27B
330
F0F8
100
AcDbEntity
  8
AM_5
100
AcDbLine
 10
203.6243238565051
 20
250.6811415556422
 30
0.0
 11
203.6243238565051
 21
219.3811415556393
 31
0.0
  0
INSERT
  5
F27C
330
F0F8
100
AcDbEntity
  8
AM_5
100
AcDbBlockReference
  2
_Dot
 10
203.6243238565051
 20
251.6811415556421
 30
0.0
 41
1.0
 42
1.0
 43
1.0
 50
90.0
  0
INSERT
  5
F27D
330
F0F8
100
AcDbEntity
  8
AM_5
100
AcDbBlockReference
  2
_Dot
 10
203.6243238565051
 20
218.3811415556392
 30
0.0
 41
1.0
 42
1.0
 43
1.0
 50
270.0
  0
MTEXT
  5
F27E
330
F0F8
100
AcDbEntity
  8
AM_5
 62
     2
100
AcDbMText
 10
201.024323856505
 20
235.0311415556407
 30
0.0
 40
3.2
 41
0.0
 71
     5
 72
     1
  1
G
 11
0.0000000000000001
 21
1.0
 31
0.0
 73
     1
 44
1.0
1001
ACAD
1000
MTEXTBEGIN
1070
    73
1070
     1
1070
    44
1040
1.0
1070
    74
1070
     0
1000
MTEXTEND
  0
POINT
  5
F27F
330
F0F8
100
AcDbEntity
  8
Defpoints
 62
     0
100
AcDbPoint
 10
167.3243238565051
 20
251.6811415556422
 30
0.0
  0
POINT
  5
F280
330
F0F8
100
AcDbEntity
  8
Defpoints
 62
     0
100
AcDbPoint
 10
174.8243238565048
 20
218.3811415556393
 30
0.0
  0
POINT
  5
F281
330
F0F8
100
AcDbEntity
  8
Defpoints
 62
     0
100
AcDbPoint
 10
203.6243238565051
 20
218.3811415556392
 30
0.0
  0
ENDBLK
  5
F103
330
F0F8
100
AcDbEntity
  8
0
100
AcDbBlockEnd
  0
BLOCK
  5
F10E
330
F104
100
AcDbEntity
  8
0
100
AcDbBlockBegin
  2
*D8
 70
     1
 10
0.0
 20
0.0
 30
0.0
  3
*D8
  1

  0
LINE
  5
F306
330
F104
100
AcDbEntity
  8
AM_5
100
AcDbLine
 10
144.8134843042248
 20
251.681141555644
 30
0.0
 11
147.8768176375609
 21
251.6811415556439
 31
0.0
  0
LINE
  5
F307
330
F104
100
AcDbEntity
  8
AM_5
100
AcDbLine
 10
147.8768176375609
 20
251.6811415556439
 30
0.0
 11
158.8939097126063
 21
242.4471246692888
 31
0.0
  0
LINE
  5
F308
330
F104
100
AcDbEntity
  8
AM_5
100
AcDbLine
 10
175.7547380004005
 20
228.3151584420043
 30
0.0
 11
176.5211392862097
 21
227.6727963407639
 31
0.0
  0
MTEXT
  5
F309
330
F104
100
AcDbEntity
  8
AM_5
 62
     2
100
AcDbMText
 10
145.5601509708915
 20
254.2811415556439
 30
0.0
 40
3.200000000000001
 41
0.0
 71
     5
 72
     1
  1
B
 73
     1
 44
1.0
1001
ACAD
1000
MTEXTBEGIN
1070
    73
1070
     1
1070
    44
1040
1.0
1070
    74
1070
     0
1000
MTEXTEND
  0
LINE
  5
F30A
330
F104
100
AcDbEntity
  8
AM_5
100
AcDbLine
 10
174.9883367145914
 20
228.9575205432448
 30
0.0
 11
159.6603109984155
 21
241.8047625680483
 31
0.0
  0
INSERT
  5
F30B
330
F104
100
AcDbEntity
  8
AM_5
100
AcDbBlockReference
  2
_Dot
 10
174.9883367145914
 20
228.9575205432448
 30
0.0
 50
140.0318182067003
  0
INSERT
  5
F30C
330
F104
100
AcDbEntity
  8
AM_5
100
AcDbBlockReference
  2
_Dot
 10
159.6603109984155
 20
241.8047625680483
 30
0.0
 50
320.0318182067003
  0
POINT
  5
F30D
330
F104
100
AcDbEntity
  8
Defpoints
 62
     0
100
AcDbPoint
 10
159.6603109984155
 20
241.8047625680483
 30
0.0
  0
POINT
  5
F30E
330
F104
100
AcDbEntity
  8
Defpoints
 62
     0
100
AcDbPoint
 10
174.9883367145914
 20
228.9575205432448
 30
0.0
  0
ENDBLK
  5
F10F
330
F104
100
AcDbEntity
  8
0
100
AcDbBlockEnd
  0
BLOCK
  5
F11A
330
F110
100
AcDbEntity
  8
0
100
AcDbBlockBegin
  2
*D9
 70
     1
 10
0.0
 20
0.0
 30
0.0
  3
*D9
  1

  0
LINE
  5
F28B
330
F110
100
AcDbEntity
  8
AM_5
100
AcDbLine
 10
188.124323856505
 20
235.3811415556429
 30
0.0
 11
194.624323856505
 21
235.3811415556429
 31
0.0
  0
LINE
  5
F28C
330
F110
100
AcDbEntity
  8
AM_5
100
AcDbLine
 10
176.324323856505
 20
218.3811415556393
 30
0.0
 11
194.624323856505
 21
218.3811415556392
 31
0.0
  0
LINE
  5
F28D
330
F110
100
AcDbEntity
  8
AM_5
100
AcDbLine
 10
193.624323856505
 20
234.3811415556429
 30
0.0
 11
193.624323856505
 21
219.3811415556393
 31
0.0
  0
INSERT
  5
F28E
330
F110
100
AcDbEntity
  8
AM_5
100
AcDbBlockReference
  2
_Dot
 10
193.624323856505
 20
235.3811415556429
 30
0.0
 41
1.0
 42
1.0
 43
1.0
 50
90.0
  0
INSERT
  5
F28F
330
F110
100
AcDbEntity
  8
AM_5
100
AcDbBlockReference
  2
_Dot
 10
193.624323856505
 20
218.3811415556392
 30
0.0
 41
1.0
 42
1.0
 43
1.0
 50
270.0
  0
MTEXT
  5
F290
330
F110
100
AcDbEntity
  8
AM_5
 62
     2
100
AcDbMText
 10
191.024323856505
 20
226.8811415556411
 30
0.0
 40
3.2
 41
0.0
 71
     5
 72
     1
  1
F
 11
0.0000000000000001
 21
1.0
 31
0.0
 73
     1
 44
1.0
1001
ACAD
1000
MTEXTBEGIN
1070
    73
1070
     1
1070
    44
1040
1.0
1070
    74
1070
     0
1000
MTEXTEND
  0
POINT
  5
F291
330
F110
100
AcDbEntity
  8
Defpoints
 62
     0
100
AcDbPoint
 10
186.624323856505
 20
235.3811415556429
 30
0.0
  0
POINT
  5
F292
330
F110
100
AcDbEntity
  8
Defpoints
 62
     0
100
AcDbPoint
 10
174.8243238565049
 20
218.3811415556393
 30
0.0
  0
POINT
  5
F293
330
F110
100
AcDbEntity
  8
Defpoints
 62
     0
100
AcDbPoint
 10
193.624323856505
 20
218.3811415556392
 30
0.0
  0
ENDBLK
  5
F11B
330
F110
100
AcDbEntity
  8
0
100
AcDbBlockEnd
  0
BLOCK
  5
F126
330
F11C
100
AcDbEntity
  8
0
100
AcDbBlockBegin
  2
*D10
 70
     1
 10
0.0
 20
0.0
 30
0.0
  3
*D10
  1

  0
LINE
  5
F294
330
F11C
100
AcDbEntity
  8
AM_5
100
AcDbLine
 10
224.0734066702464
 20
250.0311415556425
 30
0.0
 11
224.0734066702464
 21
262.6811415556422
 31
0.0
  0
LINE
  5
F295
330
F11C
100
AcDbEntity
  8
AM_5
100
AcDbLine
 10
230.3734066702461
 20
250.0311415556407
 30
0.0
 11
230.3734066702461
 21
262.6811415556422
 31
0.0
  0
LINE
  5
F296
330
F11C
100
AcDbEntity
  8
AM_5
100
AcDbLine
 10
225.0734066702464
 20
261.6811415556422
 30
0.0
 11
229.3734066702461
 21
261.6811415556422
 31
0.0
  0
INSERT
  5
F297
330
F11C
100
AcDbEntity
  8
AM_5
100
AcDbBlockReference
  2
_Dot
 10
224.0734066702464
 20
261.6811415556422
 30
0.0
 41
1.0
 42
1.0
 43
1.0
 50
180.0
  0
INSERT
  5
F298
330
F11C
100
AcDbEntity
  8
AM_5
100
AcDbBlockReference
  2
_Dot
 10
230.3734066702461
 20
261.6811415556422
 30
0.0
 41
1.0
 42
1.0
 43
1.0
  0
MTEXT
  5
F299
330
F11C
100
AcDbEntity
  8
AM_5
 62
     2
100
AcDbMText
 10
227.2234066702463
 20
264.2811415556422
 30
0.0
 40
3.2
 41
0.0
 71
     5
 72
     1
  1
C
 73
     1
 44
1.0
1001
ACAD
1000
MTEXTBEGIN
1070
    73
1070
     1
1070
    44
1040
1.0
1070
    74
1070
     0
1000
MTEXTEND
  0
POINT
  5
F29A
330
F11C
100
AcDbEntity
  8
Defpoints
 62
     0
100
AcDbPoint
 10
224.0734066702464
 20
248.5311415556425
 30
0.0
  0
POINT
  5
F29B
330
F11C
100
AcDbEntity
  8
Defpoints
 62
     0
100
AcDbPoint
 10
230.3734066702461
 20
248.5311415556407
 30
0.0
  0
POINT
  5
F29C
330
F11C
100
AcDbEntity
  8
Defpoints
 62
     0
100
AcDbPoint
 10
230.3734066702461
 20
261.6811415556422
 30
0.0
  0
ENDBLK
  5
F127
330
F11C
100
AcDbEntity
  8
0
100
AcDbBlockEnd
  0
BLOCK
  5
F132
330
F128
100
AcDbEntity
  8
0
100
AcDbBlockBegin
  2
*D11
 70
     1
 10
0.0
 20
0.0
 30
0.0
  3
*D11
  1

  0
LINE
  5
F29D
330
F128
100
AcDbEntity
  8
AM_5
100
AcDbLine
 10
219.2234066702465
 20
217.3811415556429
 30
0.0
 11
219.2234066702465
 21
158.5811415556436
 31
0.0
  0
LINE
  5
F29E
330
F128
100
AcDbEntity
  8
AM_5
100
AcDbLine
 10
235.2234066702465
 20
217.3811415556411
 30
0.0
 11
235.2234066702465
 21
158.5811415556436
 31
0.0
  0
LINE
  5
F29F
330
F128
100
AcDbEntity
  8
AM_5
100
AcDbLine
 10
220.2234066702465
 20
159.5811415556436
 30
0.0
 11
234.2234066702465
 21
159.5811415556436
 31
0.0
  0
INSERT
  5
F2A0
330
F128
100
AcDbEntity
  8
AM_5
100
AcDbBlockReference
  2
_Dot
 10
219.2234066702465
 20
159.5811415556436
 30
0.0
 41
1.0
 42
1.0
 43
1.0
 50
180.0
  0
INSERT
  5
F2A1
330
F128
100
AcDbEntity
  8
AM_5
100
AcDbBlockReference
  2
_Dot
 10
235.2234066702465
 20
159.5811415556436
 30
0.0
 41
1.0
 42
1.0
 43
1.0
  0
MTEXT
  5
F2A2
330
F128
100
AcDbEntity
  8
AM_5
 62
     2
100
AcDbMText
 10
227.2234066702465
 20
162.1811415556436
 30
0.0
 40
3.2
 41
0.0
 71
     5
 72
     1
  1
D
 73
     1
 44
1.0
1001
ACAD
1000
MTEXTBEGIN
1070
    73
1070
     1
1070
    44
1040
1.0
1070
    74
1070
     0
1000
MTEXTEND
  0
POINT
  5
F2A3
330
F128
100
AcDbEntity
  8
Defpoints
 62
     0
100
AcDbPoint
 10
219.2234066702465
 20
218.8811415556429
 30
0.0
  0
POINT
  5
F2A4
330
F128
100
AcDbEntity
  8
Defpoints
 62
     0
100
AcDbPoint
 10
235.2234066702465
 20
218.8811415556411
 30
0.0
  0
POINT
  5
F2A5
330
F128
100
AcDbEntity
  8
Defpoints
 62
     0
100
AcDbPoint
 10
235.2234066702465
 20
159.5811415556436
 30
0.0
  0
ENDBLK
  5
F133
330
F128
100
AcDbEntity
  8
0
100
AcDbBlockEnd
  0
BLOCK
  5
F13E
330
F134
100
AcDbEntity
  8
0
100
AcDbBlockBegin
  2
*D12
 70
     1
 10
0.0
 20
0.0
 30
0.0
  3
*D12
  1

  0
LINE
  5
F2A6
330
F134
100
AcDbEntity
  8
AM_5
100
AcDbLine
 10
158.8167784029999
 20
223.3811415556447
 30
0.0
 11
148.3243238565005
 21
223.3811415556447
 31
0.0
  0
LINE
  5
F2A7
330
F134
100
AcDbEntity
  8
AM_5
100
AcDbLine
 10
158.3243238565021
 20
218.3811415556466
 30
0.0
 11
148.3243238565005
 21
218.3811415556466
 31
0.0
  0
LINE
  5
F2A8
330
F134
100
AcDbEntity
  8
AM_5
100
AcDbLine
 10
149.3243238565005
 20
222.3811415556447
 30
0.0
 11
149.3243238565005
 21
219.3811415556465
 31
0.0
  0
INSERT
  5
F2A9
330
F134
100
AcDbEntity
  8
AM_5
100
AcDbBlockReference
  2
_Dot
 10
149.3243238565005
 20
223.3811415556447
 30
0.0
 41
1.0
 42
1.0
 43
1.0
 50
90.0
  0
INSERT
  5
F2AA
330
F134
100
AcDbEntity
  8
AM_5
100
AcDbBlockReference
  2
_Dot
 10
149.3243238565005
 20
218.3811415556466
 30
0.0
 41
1.0
 42
1.0
 43
1.0
 50
270.0
  0
MTEXT
  5
F2AB
330
F134
100
AcDbEntity
  8
AM_5
 62
     2
100
AcDbMText
 10
146.7243238565005
 20
220.8811415556457
 30
0.0
 40
3.2
 41
0.0
 71
     5
 72
     1
  1
E
 11
0.0000000000000001
 21
1.0
 31
0.0
 73
     1
 44
1.0
1001
ACAD
1000
MTEXTBEGIN
1070
    73
1070
     1
1070
    44
1040
1.0
1070
    74
1070
     0
1000
MTEXTEND
  0
POINT
  5
F2AC
330
F134
100
AcDbEntity
  8
Defpoints
 62
     0
100
AcDbPoint
 10
160.3167784029999
 20
223.3811415556447
 30
0.0
  0
POINT
  5
F2AD
330
F134
100
AcDbEntity
  8
Defpoints
 62
     0
100
AcDbPoint
 10
159.8243238565021
 20
218.3811415556466
 30
0.0
  0
POINT
  5
F2AE
330
F134
100
AcDbEntity
  8
Defpoints
 62
     0
100
AcDbPoint
 10
149.3243238565005
 20
218.3811415556466
 30
0.0
  0
ENDBLK
  5
F13F
330
F134
100
AcDbEntity
  8
0
100
AcDbBlockEnd
  0
BLOCK
  5
F194
330
F188
100
AcDbEntity
  8
0
100
AcDbBlockBegin
  2
*D13
 70
     1
 10
0.0
 20
0.0
 30
0.0
  3
*D13
  1

  0
ARC
  5
F2AF
330
F188
100
AcDbEntity
  8
AM_5
100
AcDbCircle
 10
341.7035929598578
 20
202.1658030432027
 30
0.0
 40
7.870285709108093
100
AcDbArc
 50
120.4005104360267
 51
135.0000000000055
  0
LINE
  5
F2B0
330
F188
100
AcDbEntity
  8
AM_5
100
AcDbLine
 10
337.720902183025
 20
208.9539965671914
 30
0.0
 11
346.200902183025
 21
208.9539965671913
 31
0.0
  0
ARC
  5
F2B1
330
F188
100
AcDbEntity
  8
AM_5
100
AcDbCircle
 10
341.7035929598578
 20
202.1658030432027
 30
0.0
 40
7.870285709108093
100
AcDbArc
 50
149.5994895639842
 51
165.4005104360212
  0
INSERT
  5
F2B2
330
F188
100
AcDbEntity
  8
AM_5
100
AcDbBlockReference
  2
_OPEN30
 10
336.1384605650713
 20
207.7309354379881
 30
0.0
 41
2.0
 42
2.0
 43
2.0
 50
52.29974478199491
  0
INSERT
  5
F2B3
330
F188
100
AcDbEntity
  8
AM_5
100
AcDbBlockReference
  2
_OPEN30
 10
333.8333072507497
 20
202.1658030432027
 30
0.0
 41
2.0
 42
2.0
 43
2.0
 50
262.7002552180106
  0
MTEXT
  5
F2B4
330
F188
100
AcDbEntity
  8
AM_5
 62
     2
100
AcDbMText
 10
342.960902183025
 20
211.5539965671913
 30
0.0
 40
3.2
 41
0.0
 71
     5
 72
     1
  1
45\U+00B0
 73
     1
 44
1.0
1001
ACAD
1000
MTEXTBEGIN
1070
    73
1070
     1
1070
    44
1040
1.0
1070
    74
1070
     0
1000
MTEXTEND
  0
POINT
  5
F2B5
330
F188
100
AcDbEntity
  8
Defpoints
 62
     0
100
AcDbPoint
 10
334.1014807331565
 20
204.2027828751178
 30
0.0
  0
POINT
  5
F2B6
330
F188
100
AcDbEntity
  8
Defpoints
 62
     0
100
AcDbPoint
 10
339.4018162645593
 20
204.4675797385008
 30
0.0
  0
POINT
  5
F2B7
330
F188
100
AcDbEntity
  8
Defpoints
 62
     0
100
AcDbPoint
 10
316.9906309305468
 20
202.1658030432027
 30
0.0
  0
POINT
  5
F2B8
330
F188
100
AcDbEntity
  8
Defpoints
 62
     0
100
AcDbPoint
 10
345.9906309305468
 20
202.1658030432027
 30
0.0
  0
POINT
  5
F2B9
330
F188
100
AcDbEntity
  8
Defpoints
 62
     0
100
AcDbPoint
 10
332.3127982736433
 20
211.5565977294154
 30
0.0
  0
ENDBLK
  5
F195
330
F188
100
AcDbEntity
  8
0
100
AcDbBlockEnd
  0
ENDSEC
  0
SECTION
  2
ENTITIES
  0
LWPOLYLINE
  5
EF48
330
1F
100
AcDbEntity
  8
waku
100
AcDbPolyline
 90
        4
 70
     1
 43
0.0
 10
11.5
 20
288.5
 10
408.5000000000004
 20
288.5
 10
408.5000000000004
 20
8.5
 10
11.5
 20
8.5
1001
GENIUS_GENREC_14
1002
{
1000
PYDIR
1011
11.5
1021
8.5
1031
0.0
1002
}
1002
{
1000
PXDIR
1011
408.5000000000004
1021
288.5
1031
0.0
1002
}
1002
{
1000
PORI
1011
11.5
1021
288.5
1031
0.0
1002
}
1002
{
1000
PINS
1011
11.5
1021
288.5
1031
0.0
1002
}
1002
{
1000
PINS2
1011
408.5000000000004
1021
8.5
1031
0.0
1002
}
1002
{
1000
C
1070
     1
1002
}
1001
GENIUS_GENODEF_13
1002
{
1000
HIER
1070
     0
1002
}
1002
{
1000
MANEDIT
1070
     0
1002
}
1002
{
1000
NOSEL
1070
     0
1002
}
1002
{
1000
BEHIND
1070
     0
1002
}
1002
{
1000
OTHER
1070
     0
1002
}
1002
{
1000
REACTOR
1002
}
1001
GENIUS_GENOBJ-N-REC_13
1002
{
1000
OWNER
1000
GEN
1002
}
  0
LWPOLYLINE
  5
EF49
330
1F
100
AcDbEntity
  8
size
100
AcDbPolyline
 90
        4
 70
     1
 43
0.0
 10
0.0
 20
297.0
 10
419.9999999999999
 20
297.0
 10
419.9999999999999
 20
0.0
 10
0.0
 20
0.0
1001
GENIUS_GENREC_14
1002
{
1000
PYDIR
1011
0.0
1021
0.0
1031
0.0
1002
}
1002
{
1000
PXDIR
1011
419.9999999999999
1021
297.0
1031
0.0
1002
}
1002
{
1000
PORI
1011
0.0
1021
297.0
1031
0.0
1002
}
1002
{
1000
PINS
1011
0.0
1021
297.0
1031
0.0
1002
}
1002
{
1000
PINS2
1011
419.9999999999999
1021
0.0
1031
0.0
1002
}
1002
{
1000
C
1070
     1
1002
}
1001
GENIUS_GENODEF_13
1002
{
1000
HIER
1070
     0
1002
}
1002
{
1000
MANEDIT
1070
     0
1002
}
1002
{
1000
NOSEL
1070
     0
1002
}
1002
{
1000
BEHIND
1070
     0
1002
}
1002
{
1000
OTHER
1070
     0
1002
}
1002
{
1000
REACTOR
1002
}
1001
GENIUS_GENOBJ-N-REC_13
1002
{
1000
OWNER
1000
GEN
1002
}
  0
LINE
  5
EF4B
330
1F
100
AcDbEntity
  8
AM_0
100
AcDbLine
 10
11.5
 20
288.5
 30
0.0
 11
11.50000000000403
 21
240.5
 31
0.0
  0
LINE
  5
EF4C
330
1F
100
AcDbEntity
  8
AM_0
100
AcDbLine
 10
11.5
 20
288.5
 30
0.0
 11
101.4999999999999
 21
288.5
 31
0.0
  0
LINE
  5
EF4D
330
1F
100
AcDbEntity
  8
AM_0
100
AcDbLine
 10
101.4999999999999
 20
288.5
 30
0.0
 11
101.4999999999981
 21
240.5
 31
0.0
  0
LINE
  5
EF4E
330
1F
100
AcDbEntity
  8
AM_0
100
AcDbLine
 10
31.49999999999727
 20
240.5
 30
0.0
 11
31.5
 21
288.5
 31
0.0
  0
LINE
  5
EF4F
330
1F
100
AcDbEntity
  8
AM_5
100
AcDbLine
 10
11.5
 20
280.5
 30
0.0
 11
101.4999999999997
 21
280.5
 31
0.0
  0
LINE
  5
EF50
330
1F
100
AcDbEntity
  8
AM_5
100
AcDbLine
 10
11.49999999999954
 20
272.5
 30
0.0
 11
101.4999999999997
 21
272.5
 31
0.0
  0
MTEXT
  5
EF51
330
1F
100
AcDbEntity
  8
AM_6
100
AcDbMText
 10
21.5
 20
284.5
 30
0.0
 40
3.2
 41
20.0
 71
     5
 72
     5
  1
品　名
 73
     1
 44
1.0
1001
ACAD
1000
MTEXTBEGIN
1070
    73
1070
     1
1070
    44
1040
1.0
1070
    74
1070
     0
1000
MTEXTEND
  0
MTEXT
  5
EF52
330
1F
100
AcDbEntity
  8
AM_6
100
AcDbMText
 10
31.5
 20
284.5000000000004
 30
0.0
 40
3.2
 41
69.99999999999985
 71
     4
 72
     5
  1
　アイボルト
 73
     1
 44
1.0
1001
ACAD
1000
MTEXTBEGIN
1070
    73
1070
     1
1070
    44
1040
1.0
1070
    74
1070
     0
1000
MTEXTEND
1000
ACAD_MTEXT_DEFINED_HEIGHT_BEGIN
1070
    46
1040
3.200000000000756
1000
ACAD_MTEXT_DEFINED_HEIGHT_END
  0
MTEXT
  5
EF53
330
1F
100
AcDbEntity
  8
AM_6
100
AcDbMText
 10
21.49999999999977
 20
276.5
 30
0.0
 40
3.2
 41
20.0
 71
     5
 72
     5
  1
品　番
 73
     1
 44
1.0
1001
ACAD
1000
MTEXTBEGIN
1070
    73
1070
     1
1070
    44
1040
1.0
1070
    74
1070
     0
1000
MTEXTEND
  0
MTEXT
  5
EF54
330
1F
100
AcDbEntity
  8
AM_6
100
AcDbMText
 10
31.49999999999977
 20
276.5000000000004
 30
0.0
 40
3.2
 41
69.99999999999982
 71
     4
 72
     5
  1
　EB-901 / EB-901S
 73
     1
 44
1.0
1001
ACAD
1000
MTEXTBEGIN
1070
    73
1070
     1
1070
    44
1040
1.0
1070
    74
1070
     0
1000
MTEXTEND
1000
ACAD_MTEXT_DEFINED_HEIGHT_BEGIN
1070
    46
1040
4.876190476191229
1000
ACAD_MTEXT_DEFINED_HEIGHT_END
  0
MTEXT
  5
EF55
330
1F
100
AcDbEntity
  8
AM_6
100
AcDbMText
 10
21.49999999999977
 20
268.5
 30
0.0
 40
3.2
 41
20.0
 71
     5
 72
     5
  1
材　質
 73
     1
 44
1.0
1001
ACAD
1000
MTEXTBEGIN
1070
    73
1070
     1
1070
    44
1040
1.0
1070
    74
1070
     0
1000
MTEXTEND
  0
MTEXT
  5
EF56
330
1F
100
AcDbEntity
  8
AM_6
100
AcDbMText
 10
31.49999999999977
 20
268.5
 30
0.0
 40
3.2
 41
69.99999999999953
 71
     4
 72
     5
  1
　スチール（EB-901）
 73
     1
 44
1.0
1001
ACAD
1000
MTEXTBEGIN
1070
    73
1070
     1
1070
    44
1040
1.0
1070
    74
1070
     0
1000
MTEXTEND
1000
ACAD_MTEXT_DEFINED_HEIGHT_BEGIN
1070
    46
1040
6.399999999999319
1000
ACAD_MTEXT_DEFINED_HEIGHT_END
  0
LINE
  5
EF57
330
1F
100
AcDbEntity
  8
AM_5
100
AcDbLine
 10
31.49999999999772
 20
248.5
 30
0.0
 11
101.4999999999988
 21
248.5
 31
0.0
  0
MTEXT
  5
EF59
330
1F
100
AcDbEntity
  8
AM_6
100
AcDbMText
 10
31.49999999999841
 20
244.5000000000004
 30
0.0
 40
3.2
 41
70.0
 71
     4
 72
     5
  1
　生地（EB-901S）
 73
     1
 44
1.0
1001
ACAD
1000
MTEXTBEGIN
1070
    73
1070
     1
1070
    44
1040
1.0
1070
    74
1070
     0
1000
MTEXTEND
1000
ACAD_MTEXT_DEFINED_HEIGHT_BEGIN
1070
    46
1040
6.400000000000086
1000
ACAD_MTEXT_DEFINED_HEIGHT_END
  0
LINE
  5
EF5A
330
1F
100
AcDbEntity
  8
AM_0
100
AcDbLine
 10
11.5000000000025
 20
240.5
 30
0.0
 11
101.4999999999999
 21
240.5
 31
0.0
  0
LINE
  5
EF5B
330
1F
100
AcDbEntity
  8
AM_5
100
AcDbLine
 10
31.49999999999909
 20
264.5
 30
0.0
 11
101.4999999999995
 21
264.5
 31
0.0
  0
MTEXT
  5
EF5E
330
1F
100
AcDbEntity
  8
AM_6
100
AcDbMText
 10
31.49999999999932
 20
260.5
 30
0.0
 40
3.2
 41
69.99999999999944
 71
     4
 72
     5
  1
　ステンレス（EB-901S）
 73
     1
 44
1.0
1001
ACAD
1000
MTEXTBEGIN
1070
    73
1070
     1
1070
    44
1040
1.0
1070
    74
1070
     0
1000
MTEXTEND
1000
ACAD_MTEXT_DEFINED_HEIGHT_BEGIN
1070
    46
1040
6.399999999999319
1000
ACAD_MTEXT_DEFINED_HEIGHT_END
  0
LINE
  5
EF5F
330
1F
100
AcDbEntity
  8
AM_5
100
AcDbLine
 10
11.5
 20
256.5
 30
0.0
 11
101.499999999999
 21
256.5
 31
0.0
  0
MTEXT
  5
EF60
330
1F
100
AcDbEntity
  8
AM_6
100
AcDbMText
 10
21.49999999999886
 20
252.5
 30
0.0
 40
3.2
 41
20.0
 71
     5
 72
     5
  1
仕上げ
 73
     1
 44
1.0
1001
ACAD
1000
MTEXTBEGIN
1070
    73
1070
     1
1070
    44
1040
1.0
1070
    74
1070
     0
1000
MTEXTEND
  0
MTEXT
  5
EF61
330
1F
100
AcDbEntity
  8
AM_6
100
AcDbMText
 10
31.49999999999841
 20
252.5
 30
0.0
 40
3.2
 41
70.00000000000004
 71
     4
 72
     5
  1
　光沢クロメート（EB-901）
 73
     1
 44
1.0
1001
ACAD
1000
MTEXTBEGIN
1070
    73
1070
     1
1070
    44
1040
1.0
1070
    74
1070
     0
1000
MTEXTEND
1000
ACAD_MTEXT_DEFINED_HEIGHT_BEGIN
1070
    46
1040
6.399999999999319
1000
ACAD_MTEXT_DEFINED_HEIGHT_END
  0
ARC
  5
EF62
330
1F
100
AcDbEntity
  8
AM_0
100
AcDbCircle
 10
167.3243238565051
 20
235.3811415556429
 30
0.0
 40
16.3
100
AcDbArc
 50
302.5726096403334
 51
237.4273903596666
  0
ARC
  5
EF63
330
1F
100
AcDbEntity
  8
AM_0
100
AcDbCircle
 10
157.472189686352
 20
219.959551096359
 30
0.0
 40
2.0
100
AcDbArc
 50
354.2894068624241
 51
57.4273903596716
  0
ARC
  5
EF64
330
1F
100
AcDbEntity
  8
AM_0
100
AcDbCircle
 10
177.1764580266581
 20
219.959551096359
 30
0.0
 40
2.0
100
AcDbArc
 50
122.5726096403284
 51
185.7105931375759
  0
CIRCLE
  5
EF65
330
1F
100
AcDbEntity
  8
AM_0
100
AcDbCircle
 10
167.3243238565051
 20
235.3811415556429
 30
0.0
 40
10.0
  0
LINE
  5
EF66
330
1F
100
AcDbEntity
  8
AM_7
100
AcDbLine
 10
148.0243238565051
 20
235.3811415556429
 30
0.0
 11
186.624323856505
 21
235.3811415556429
 31
0.0
1001
GENIUS_GENODEF_13
1002
{
1000
HIER
1070
     0
1002
}
1002
{
1000
MANEDIT
1070
     0
1002
}
1002
{
1000
NOSEL
1070
     0
1002
}
1002
{
1000
BEHIND
1070
     0
1002
}
1002
{
1000
OTHER
1070
     0
1002
}
1002
{
1000
REACTOR
1002
}
1001
GENIUS_GENOBJ-N-CEN_13
1002
{
1000
OWNER
1000
GEN
1002
}
1001
GENIUS_GENCEN_19
1002
{
1040
3.0
1002
}
  0
LINE
  5
EF67
330
1F
100
AcDbEntity
  8
AM_0
100
AcDbLine
 10
171.3243238565051
 20
169.5811415556436
 30
0.0
 11
171.3243238565051
 21
215.3811415556429
 31
0.0
  0
LINE
  5
EF68
330
1F
100
AcDbEntity
  8
AM_2
 48
0.5
100
AcDbLine
 10
170.624323856505
 20
169.5811415556436
 30
0.0
 11
170.624323856505
 21
215.3811415556429
 31
0.0
  0
LINE
  5
EF69
330
1F
100
AcDbEntity
  8
AM_0
100
AcDbLine
 10
171.3243238565051
 20
218.3811415556429
 30
0.0
 11
163.3243238565051
 21
218.3811415556429
 31
0.0
  0
LINE
  5
EF6A
330
1F
100
AcDbEntity
  8
AM_0
100
AcDbLine
 10
163.3243238565051
 20
215.3811415556429
 30
0.0
 11
163.3243238565051
 21
169.5811415556436
 31
0.0
  0
LINE
  5
EF6B
330
1F
100
AcDbEntity
  8
AM_2
 48
0.5
100
AcDbLine
 10
164.0243238565051
 20
215.3811415556429
 30
0.0
 11
164.0243238565051
 21
169.5811415556436
 31
0.0
  0
ARC
  5
EF6C
330
1F
100
AcDbEntity
  8
AM_0
100
AcDbCircle
 10
167.3243238565053
 20
175.6478082223057
 30
0.0
 40
7.266666666662882
100
AcDbArc
 50
236.6015115320184
 51
303.3984884679816
  0
LINE
  5
EF6D
330
1F
100
AcDbEntity
  8
AM_0
100
AcDbLine
 10
159.8243238565051
 20
218.3811415556429
 30
0.0
 11
174.824323856505
 21
218.3811415556393
 31
0.0
  0
LINE
  5
EF6E
330
1F
100
AcDbEntity
  8
AM_7
100
AcDbLine
 10
167.3243238565051
 20
254.6811415556422
 30
0.0
 11
167.3243238565053
 21
165.3811415556429
 31
0.0
1001
GENIUS_GENODEF_13
1002
{
1000
HIER
1070
     0
1002
}
1002
{
1000
MANEDIT
1070
     0
1002
}
1002
{
1000
NOSEL
1070
     0
1002
}
1002
{
1000
BEHIND
1070
     0
1002
}
1002
{
1000
OTHER
1070
     0
1002
}
1002
{
1000
REACTOR
1002
}
1001
GENIUS_GENOBJ-N-CEN_13
1002
{
1000
OWNER
1000
GEN
1002
}
1001
GENIUS_GENCEN_19
1002
{
1040
3.0
1002
}
  0
LINE
  5
EF6F
330
1F
100
AcDbEntity
  8
AM_0
100
AcDbLine
 10
231.2234066702463
 20
218.3811415556429
 30
0.0
 11
223.2234066702463
 21
218.3811415556429
 31
0.0
  0
LINE
  5
EF70
330
1F
100
AcDbEntity
  8
AM_7
100
AcDbLine
 10
227.2234066702463
 20
254.6811415556422
 30
0.0
 11
227.2234066702465
 21
165.3811415556429
 31
0.0
1001
GENIUS_GENODEF_13
1002
{
1000
HIER
1070
     0
1002
}
1002
{
1000
MANEDIT
1070
     0
1002
}
1002
{
1000
NOSEL
1070
     0
1002
}
1002
{
1000
BEHIND
1070
     0
1002
}
1002
{
1000
OTHER
1070
     0
1002
}
1002
{
1000
REACTOR
1002
}
1001
GENIUS_GENOBJ-N-CEN_13
1002
{
1000
OWNER
1000
GEN
1002
}
1001
GENIUS_GENCEN_19
1002
{
1040
3.0
1002
}
  0
ARC
  5
EF71
330
1F
100
AcDbEntity
  8
AM_0
100
AcDbCircle
 10
227.2234066702463
 20
248.5311415556425
 30
0.0
 40
3.149999999999636
100
AcDbArc
 50
0.0
 51
180.0
  0
ARC
  5
EF72
330
1F
100
AcDbEntity
  8
AM_0
100
AcDbCircle
 10
227.2234066702463
 20
222.2311415556433
 30
0.0
 40
3.149999999999636
100
AcDbArc
 50
180.0
 51
0.0
  0
LINE
  5
EF73
330
1F
100
AcDbEntity
  8
AM_0
100
AcDbLine
 10
224.0734066702466
 20
248.5311415556425
 30
0.0
 11
224.0734066702466
 21
222.2311415556433
 31
0.0
  0
LINE
  5
EF74
330
1F
100
AcDbEntity
  8
AM_0
100
AcDbLine
 10
230.3734066702459
 20
222.2311415556433
 30
0.0
 11
230.3734066702459
 21
248.5311415556425
 31
0.0
  0
LINE
  5
EF75
330
1F
100
AcDbEntity
  8
AM_7
  6
AM_ISO08W050x2
100
AcDbLine
 10
221.0734066702467
 20
235.3811415556429
 30
0.0
 11
233.3734066702459
 21
235.3811415556429
 31
0.0
1001
GENIUS_GENOBJ-N-CEN_13
1002
{
1000
OWNER
1000
GEN
1002
}
1001
GENIUS_GENODEF_13
1002
{
1000
HIER
1070
     0
1002
}
1002
{
1000
MANEDIT
1070
     0
1002
}
1002
{
1000
NOSEL
1070
     0
1002
}
1002
{
1000
BEHIND
1070
     0
1002
}
1002
{
1000
OTHER
1070
     0
1002
}
1002
{
1000
REACTOR
1002
}
1001
GENIUS_GENCEN_19
1002
{
1040
3.0
1002
}
  0
LINE
  5
EF76
330
1F
100
AcDbEntity
  8
AM_0
100
AcDbLine
 10
163.3243238565051
 20
169.5811415556436
 30
0.0
 11
171.3243238565053
 21
169.5811415556436
 31
0.0
  0
LINE
  5
EF77
330
1F
100
AcDbEntity
  8
AM_0
100
AcDbLine
 10
163.3243238565051
 20
215.3811415556429
 30
0.0
 11
163.3243238565071
 21
215.3811415556465
 31
0.0
  0
LINE
  5
EF78
330
1F
100
AcDbEntity
  8
AM_0
100
AcDbLine
 10
171.3243238565035
 20
215.3811415556429
 30
0.0
 11
171.3243238565051
 21
215.3811415556429
 31
0.0
  0
ARC
  5
EF79
330
1F
100
AcDbEntity
  8
AM_0
100
AcDbCircle
 10
171.3243238565053
 20
216.3811415556429
 30
0.0
 40
1.0
100
AcDbArc
 50
180.0
 51
269.9999999998958
  0
LINE
  5
EF7A
330
1F
100
AcDbEntity
  8
AM_0
100
AcDbLine
 10
164.3243238565053
 20
216.3811415556466
 30
0.0
 11
164.3243238565053
 21
217.3811415556393
 31
0.0
  0
ARC
  5
EF7B
330
1F
100
AcDbEntity
  8
AM_0
100
AcDbCircle
 10
163.3243238565053
 20
216.3811415556466
 30
0.0
 40
1.0
100
AcDbArc
 50
270.0000000001042
 51
0.0
  0
LINE
  5
EF7C
330
1F
100
AcDbEntity
  8
AM_0
100
AcDbLine
 10
170.3243238565053
 20
216.3811415556429
 30
0.0
 11
170.3243238565053
 21
217.3811415556429
 31
0.0
  0
LINE
  5
EF7D
330
1F
100
AcDbEntity
  8
AM_0
100
AcDbLine
 10
163.3243238565051
 20
215.3811415556429
 30
0.0
 11
171.3243238565051
 21
215.3811415556411
 31
0.0
  0
ARC
  5
EF7E
330
1F
100
AcDbEntity
  8
AM_0
100
AcDbCircle
 10
171.3243238565053
 20
217.3811415556429
 30
0.0
 40
1.0
100
AcDbArc
 50
90.00000000010421
 51
180.0
  0
ARC
  5
EF7F
330
1F
100
AcDbEntity
  8
AM_0
100
AcDbCircle
 10
163.3243238565053
 20
217.3811415556393
 30
0.0
 40
1.0
100
AcDbArc
 50
0.0
 51
89.99999999989578
  0
ARC
  5
EF80
330
1F
100
AcDbEntity
  8
AM_0
100
AcDbCircle
 10
167.3243238565053
 20
199.3289862623351
 30
0.0
 40
25.05218288964554
100
AcDbArc
 50
73.17636745404044
 51
106.8236325459595
  0
LINE
  5
EF81
330
1F
100
AcDbEntity
  8
AM_0
100
AcDbLine
 10
160.3167784030029
 20
223.3811415556411
 30
0.0
 11
174.3318693100054
 21
223.3811415556429
 31
0.0
  0
LINE
  5
EF82
330
1F
100
AcDbEntity
  8
AM_0
100
AcDbLine
 10
231.2234066702465
 20
169.5811415556436
 30
0.0
 11
231.2234066702465
 21
215.3811415556429
 31
0.0
  0
LINE
  5
EF83
330
1F
100
AcDbEntity
  8
AM_2
 48
0.5
100
AcDbLine
 10
230.5234066702464
 20
169.5811415556436
 30
0.0
 11
230.5234066702464
 21
215.3811415556429
 31
0.0
  0
LINE
  5
EF84
330
1F
100
AcDbEntity
  8
AM_0
100
AcDbLine
 10
231.2234066702465
 20
218.3811415556429
 30
0.0
 11
223.2234066702465
 21
218.3811415556429
 31
0.0
  0
LINE
  5
EF85
330
1F
100
AcDbEntity
  8
AM_0
100
AcDbLine
 10
223.2234066702465
 20
215.3811415556429
 30
0.0
 11
223.2234066702465
 21
169.5811415556436
 31
0.0
  0
LINE
  5
EF86
330
1F
100
AcDbEntity
  8
AM_2
 48
0.5
100
AcDbLine
 10
223.9234066702465
 20
215.3811415556429
 30
0.0
 11
223.9234066702465
 21
169.5811415556436
 31
0.0
  0
ARC
  5
EF87
330
1F
100
AcDbEntity
  8
AM_0
100
AcDbCircle
 10
227.2234066702465
 20
175.6478082223057
 30
0.0
 40
7.266666666662882
100
AcDbArc
 50
236.6015115320184
 51
303.3984884679816
  0
LINE
  5
EF88
330
1F
100
AcDbEntity
  8
AM_0
100
AcDbLine
 10
219.7234066702465
 20
218.3811415556429
 30
0.0
 11
234.7234066702465
 21
218.3811415556411
 31
0.0
  0
ARC
  5
EF89
330
1F
100
AcDbEntity
  8
AM_0
100
AcDbCircle
 10
234.7234066702465
 20
218.8811415556411
 30
0.0
 40
0.5
100
AcDbArc
 50
270.0
 51
5.710593137471139
  0
ARC
  5
EF8A
330
1F
100
AcDbEntity
  8
AM_0
100
AcDbCircle
 10
219.7234066702465
 20
218.8811415556429
 30
0.0
 40
0.5
100
AcDbArc
 50
174.2894068625288
 51
270.0
  0
LINE
  5
EF8B
330
1F
100
AcDbEntity
  8
AM_0
100
AcDbLine
 10
235.2209252653515
 20
218.9308934151522
 30
0.0
 11
234.8259748199871
 21
222.8803978688011
 31
0.0
  0
LINE
  5
EF8C
330
1F
100
AcDbEntity
  8
AM_0
100
AcDbLine
 10
219.6208385205064
 20
222.8803978688011
 30
0.0
 11
219.2258880751415
 21
218.9308934151541
 31
0.0
  0
LINE
  5
EF8D
330
1F
100
AcDbEntity
  8
AM_0
100
AcDbLine
 10
223.2234066702465
 20
169.5811415556436
 30
0.0
 11
231.2234066702467
 21
169.5811415556436
 31
0.0
  0
LINE
  5
EF8E
330
1F
100
AcDbEntity
  8
AM_0
100
AcDbLine
 10
223.2234066702465
 20
215.3811415556429
 30
0.0
 11
223.2234066702483
 21
215.3811415556465
 31
0.0
  0
LINE
  5
EF8F
330
1F
100
AcDbEntity
  8
AM_0
100
AcDbLine
 10
231.2234066702447
 20
215.3811415556429
 30
0.0
 11
231.2234066702465
 21
215.3811415556429
 31
0.0
  0
ARC
  5
EF90
330
1F
100
AcDbEntity
  8
AM_0
100
AcDbCircle
 10
231.2234066702465
 20
216.3811415556429
 30
0.0
 40
1.0
100
AcDbArc
 50
180.0
 51
269.9999999998958
  0
LINE
  5
EF91
330
1F
100
AcDbEntity
  8
AM_0
100
AcDbLine
 10
224.2234066702465
 20
216.3811415556466
 30
0.0
 11
224.2234066702465
 21
217.3811415556393
 31
0.0
  0
ARC
  5
EF92
330
1F
100
AcDbEntity
  8
AM_0
100
AcDbCircle
 10
223.2234066702465
 20
216.3811415556466
 30
0.0
 40
1.0
100
AcDbArc
 50
270.0000000001042
 51
0.0
  0
LINE
  5
EF93
330
1F
100
AcDbEntity
  8
AM_0
100
AcDbLine
 10
230.2234066702465
 20
216.3811415556429
 30
0.0
 11
230.2234066702465
 21
217.3811415556429
 31
0.0
  0
LINE
  5
EF94
330
1F
100
AcDbEntity
  8
AM_0
100
AcDbLine
 10
223.2234066702465
 20
215.3811415556429
 30
0.0
 11
231.2234066702465
 21
215.3811415556411
 31
0.0
  0
ARC
  5
EF95
330
1F
100
AcDbEntity
  8
AM_0
100
AcDbCircle
 10
231.2234066702465
 20
217.3811415556429
 30
0.0
 40
1.0
100
AcDbArc
 50
90.00000000010421
 51
180.0
  0
ARC
  5
EF96
330
1F
100
AcDbEntity
  8
AM_0
100
AcDbCircle
 10
223.2234066702465
 20
217.3811415556393
 30
0.0
 40
1.0
100
AcDbArc
 50
0.0
 51
89.99999999989578
  0
ARC
  5
EF97
330
1F
100
AcDbEntity
  8
AM_0
100
AcDbCircle
 10
227.185282642547
 20
199.0667970353661
 30
0.0
 40
25.31421522890323
100
AcDbArc
 50
73.26552719110606
 51
82.76483907860946
  0
ARC
  5
EF98
330
1F
100
AcDbEntity
  8
AM_0
100
AcDbCircle
 10
227.2615306979471
 20
199.0667970353679
 30
0.0
 40
25.31421522890163
100
AcDbArc
 50
97.23516092139051
 51
106.7344728089014
  0
ARC
  5
EF99
330
1F
100
AcDbEntity
  8
AM_0
100
AcDbCircle
 10
234.3284562248823
 20
222.8306460092899
 30
0.0
 40
0.5
100
AcDbArc
 50
5.710593137575879
 51
73.05588434102843
  0
ARC
  5
EF9A
330
1F
100
AcDbEntity
  8
AM_0
100
AcDbCircle
 10
220.1183571156116
 20
222.8306460092899
 30
0.0
 40
0.5
100
AcDbArc
 50
106.9441156589819
 51
174.2894068624241
  0
LINE
  5
EF9B
330
1F
100
AcDbEntity
  8
AM_0
100
AcDbLine
 10
220.214032069121
 20
223.3811415556429
 30
0.0
 11
224.0734066702466
 21
223.3811415556429
 31
0.0
  0
LINE
  5
EF9C
330
1F
100
AcDbEntity
  8
AM_0
100
AcDbLine
 10
230.3734066702459
 20
223.3811415556429
 30
0.0
 11
234.2327812713723
 21
223.3811415556429
 31
0.0
  0
ARC
  5
EF9D
330
1F
100
AcDbEntity
  8
AM_3
100
AcDbCircle
 10
227.2234066702463
 20
248.5311415556425
 30
0.0
 40
3.14999999999992
100
AcDbArc
 50
180.0
 51
0.0
  0
ARC
  5
EF9E
330
1F
100
AcDbEntity
  8
AM_3
100
AcDbCircle
 10
227.2234066702465
 20
199.6820461833158
 30
0.0
 40
24.69909537232704
100
AcDbArc
 50
82.67282545131944
 51
84.4085063688845
  0
ARC
  5
EF9F
330
1F
100
AcDbEntity
  8
AM_3
100
AcDbCircle
 10
227.2234066702465
 20
199.6820461833158
 30
0.0
 40
24.69909537232704
100
AcDbArc
 50
95.5914936311084
 51
97.32717454868055
  0
DIMENSION
  5
EFA0
330
1F
100
AcDbEntity
  8
AM_5
100
AcDbDimension
  2
*D5
 10
149.3243238565032
 20
168.3811415556429
 30
0.0
 11
146.7243238565032
 21
193.3811415556429
 31
0.0
 70
    32
  1
L
 71
     5
 42
50.0
  3
SYS$0
100
AcDbAlignedDimension
 13
159.8243238565051
 23
218.3811415556429
 33
0.0
 14
167.3243238565053
 24
168.3811415556429
 34
0.0
 50
89.99999999999349
100
AcDbRotatedDimension
1001
ACAD
1000
DSTYLE
1002
{
1070
    47
1040
0.2
1070
    48
1040
-0.2
1070
   271
1070
     1
1002
}
1001
ACAD_DSTYLE_DIMINSPECT
1070
   396
1000
100%
1070
   395
1000

1070
   394
1070
    33
1070
   393
1070
     0
  0
ARC
  5
EFA1
330
1F
100
AcDbEntity
  8
AM_0
100
AcDbCircle
 10
174.824323856505
 20
218.8811415556411
 30
0.0
 40
0.5
100
AcDbArc
 50
270.0
 51
5.710593137471139
  0
ARC
  5
EFA2
330
1F
100
AcDbEntity
  8
AM_0
100
AcDbCircle
 10
159.8243238565051
 20
218.8811415556429
 30
0.0
 40
0.5
100
AcDbArc
 50
174.2894068625288
 51
270.0
  0
LINE
  5
EFA3
330
1F
100
AcDbEntity
  8
AM_0
100
AcDbLine
 10
175.3218424516101
 20
218.9308934151522
 30
0.0
 11
174.9268920062459
 21
222.8803978688011
 31
0.0
  0
LINE
  5
EFA4
330
1F
100
AcDbEntity
  8
AM_0
100
AcDbLine
 10
159.7217557067649
 20
222.8803978688011
 30
0.0
 11
159.3268052614
 21
218.9308934151541
 31
0.0
  0
ARC
  5
EFA5
330
1F
100
AcDbEntity
  8
AM_0
100
AcDbCircle
 10
174.4293734111409
 20
222.8306460092899
 30
0.0
 40
0.5
100
AcDbArc
 50
5.710593137575879
 51
73.05588434102843
  0
ARC
  5
EFA6
330
1F
100
AcDbEntity
  8
AM_0
100
AcDbCircle
 10
160.2192743018702
 20
222.8306460092899
 30
0.0
 40
0.5
100
AcDbArc
 50
106.9441156589819
 51
174.2894068624241
  0
ARC
  5
EFA7
330
1F
100
AcDbEntity
  8
AM_3
100
AcDbCircle
 10
227.2234066702463
 20
222.2311415556433
 30
0.0
 40
3.149999999999636
100
AcDbArc
 50
40.18302120953721
 51
139.8169787904627
  0
LEADER
  5
EFA8
330
1F
100
AcDbEntity
  8
AM_5
100
AcDbLeader
  3
SYS$7
 73
     0
 74
     0
 75
     1
 40
3.2
 41
1.706666666666666
 76
     3
 10
171.3243238565051
 20
196.5884776758485
 30
0.0
 10
177.4360072733827
 20
198.9461656352814
 30
0.0
 10
178.4360072733827
 20
198.9461656352814
 30
0.0
340
EFA9
213
0.2407310461430487
223
0.0
233
0.0
1001
ACAD
1000
DSTYLE
1002
{
1070
    41
1040
1.0
1070
   147
1040
1.5
1070
    77
1070
     1
1070
    40
1040
1.0
1070
   173
1070
     1
1002
}
  0
MTEXT
  5
EFA9
102
{ACAD_REACTORS
330
EFA8
102
}
330
1F
100
AcDbEntity
  8
AM_5
 62
     2
100
AcDbMText
 10
179.6952762272397
 20
200.4461656352814
 30
0.0
 40
3.2
 41
0.0
 71
     7
 72
     1
  1
M
 73
     1
 44
1.0
1001
ACAD
1000
MTEXTBEGIN
1070
    73
1070
     1
1070
    44
1040
1.0
1070
    74
1070
     0
1000
MTEXTEND
  0
DIMENSION
  5
EFAA
330
1F
100
AcDbEntity
  8
AM_5
100
AcDbDimension
  2
*D6
 10
183.6243238565051
 20
261.6811415556422
 30
0.0
 11
167.3243238565051
 21
264.2811415556422
 31
0.0
 70
    32
  1
A
 71
     5
 42
32.60000000000002
  3
SYS$0
100
AcDbAlignedDimension
 13
151.0243238565051
 23
235.3811415556429
 33
0.0
 14
183.6243238565051
 24
235.3811415556429
 34
0.0
100
AcDbRotatedDimension
1001
ACAD
1000
DSTYLE
1002
{
1070
    47
1040
0.2
1070
    48
1040
-0.2
1070
   271
1070
     1
1002
}
1001
ACAD_DSTYLE_DIMINSPECT
1070
   396
1000
100%
1070
   395
1000

1070
   394
1070
    33
1070
   393
1070
     0
  0
DIMENSION
  5
EFAB
330
1F
100
AcDbEntity
  8
AM_5
100
AcDbDimension
  2
*D7
 10
203.6243238565051
 20
218.3811415556392
 30
0.0
 11
201.024323856505
 21
235.0311415556407
 31
0.0
 70
    32
  1
G
 71
     5
 42
33.30000000000291
  3
SYS$0
100
AcDbAlignedDimension
 13
167.3243238565051
 23
251.6811415556422
 33
0.0
 14
174.8243238565048
 24
218.3811415556393
 34
0.0
 50
90.0
100
AcDbRotatedDimension
1001
ACAD
1000
DSTYLE
1002
{
1070
    47
1040
0.2
1070
    48
1040
-0.2
1070
   271
1070
     1
1002
}
1001
ACAD_DSTYLE_DIMINSPECT
1070
   396
1000
100%
1070
   395
1000

1070
   394
1070
    33
1070
   393
1070
     0
  0
DIMENSION
  5
EFAC
330
1F
100
AcDbEntity
  8
AM_5
100
AcDbDimension
  2
*D8
 10
174.9883367145914
 20
228.9575205432448
 30
0.0
 11
145.5601509708915
 21
251.6811415556439
 31
0.0
 70
   163
  1
B
 71
     5
 42
19.99999999999069
  3
SYS$3
100
AcDbDiametricDimension
 15
159.6603109984155
 25
241.8047625680483
 35
0.0
 40
0.0
1001
ACAD_DSTYLE_DIMRADIAL_EXTENSION
1070
   387
1070
     1
1070
   388
1040
0.0
1070
   390
1040
0.0
1001
ACAD_DSTYLE_DIMINSPECT
1070
   396
1000
100%
1070
   395
1000

1070
   394
1070
    33
1070
   393
1070
     0
1001
ACAD
1000
DSTYLE
1002
{
1070
   344
1005
6C4
1070
   342
1005
0
1070
   173
1070
     1
1070
   343
1005
6C4
1070
    41
1040
1.0
1070
    47
1040
0.2
1070
    48
1040
-0.2
1070
   172
1070
     1
1070
   271
1070
     1
1002
}
  0
DIMENSION
  5
EFAD
330
1F
100
AcDbEntity
  8
AM_5
100
AcDbDimension
  2
*D9
 10
193.624323856505
 20
218.3811415556392
 30
0.0
 11
191.024323856505
 21
226.8811415556411
 31
0.0
 70
    32
  1
F
 71
     5
 42
17.00000000000364
  3
SYS$0
100
AcDbAlignedDimension
 13
186.624323856505
 23
235.3811415556429
 33
0.0
 14
174.8243238565049
 24
218.3811415556393
 34
0.0
 50
90.0
100
AcDbRotatedDimension
1001
ACAD
1000
DSTYLE
1002
{
1070
    47
1040
0.2
1070
    48
1040
-0.2
1070
   271
1070
     1
1002
}
1001
ACAD_DSTYLE_DIMINSPECT
1070
   396
1000
100%
1070
   395
1000

1070
   394
1070
    33
1070
   393
1070
     0
  0
DIMENSION
  5
EFAE
330
1F
100
AcDbEntity
  8
AM_5
100
AcDbDimension
  2
*D10
 10
230.3734066702461
 20
261.6811415556422
 30
0.0
 11
227.2234066702463
 21
264.2811415556422
 31
0.0
 70
    32
  1
C
 71
     5
 42
6.299999999999727
  3
SYS$0
100
AcDbAlignedDimension
 13
224.0734066702464
 23
248.5311415556425
 33
0.0
 14
230.3734066702461
 24
248.5311415556407
 34
0.0
100
AcDbRotatedDimension
1001
ACAD
1000
DSTYLE
1002
{
1070
    47
1040
0.2
1070
    48
1040
-0.2
1070
   271
1070
     1
1002
}
1001
ACAD_DSTYLE_DIMINSPECT
1070
   396
1000
100%
1070
   395
1000

1070
   394
1070
    33
1070
   393
1070
     0
  0
DIMENSION
  5
EFAF
330
1F
100
AcDbEntity
  8
AM_5
100
AcDbDimension
  2
*D11
 10
235.2234066702465
 20
159.5811415556436
 30
0.0
 11
227.2234066702465
 21
162.1811415556436
 31
0.0
 70
    32
  1
D
 71
     5
 42
16.0
  3
SYS$0
100
AcDbAlignedDimension
 13
219.2234066702465
 23
218.8811415556429
 33
0.0
 14
235.2234066702465
 24
218.8811415556411
 34
0.0
100
AcDbRotatedDimension
1001
ACAD
1000
DSTYLE
1002
{
1070
    47
1040
0.2
1070
    48
1040
-0.2
1070
   271
1070
     1
1002
}
1001
ACAD_DSTYLE_DIMINSPECT
1070
   396
1000
100%
1070
   395
1000

1070
   394
1070
    33
1070
   393
1070
     0
  0
DIMENSION
  5
EFB0
330
1F
100
AcDbEntity
  8
AM_5
100
AcDbDimension
  2
*D12
 10
149.3243238565005
 20
218.3811415556466
 30
0.0
 11
146.7243238565005
 21
220.8811415556457
 31
0.0
 70
    32
  1
E
 71
     5
 42
4.999999999998181
  3
SYS$0
100
AcDbAlignedDimension
 13
160.3167784029999
 23
223.3811415556447
 33
0.0
 14
159.8243238565021
 24
218.3811415556466
 34
0.0
 50
90.0
100
AcDbRotatedDimension
1001
ACAD
1000
DSTYLE
1002
{
1070
    47
1040
0.2
1070
    48
1040
-0.2
1070
   271
1070
     1
1002
}
1001
ACAD_DSTYLE_DIMINSPECT
1070
   396
1000
100%
1070
   395
1000

1070
   394
1070
    33
1070
   393
1070
     0
  0
ARC
  5
EFB1
330
1F
100
AcDbEntity
  8
AM_0
100
AcDbCircle
 10
322.6955621200505
 20
204.2908030432027
 30
0.0
 40
2.0375
100
AcDbArc
 50
302.5726096403077
 51
30.79459880933543
  0
ARC
  5
EFB2
330
1F
100
AcDbEntity
  8
AM_0
100
AcDbCircle
 10
322.6955621200505
 20
204.2908030432027
 30
0.0
 40
2.0375
100
AcDbArc
 50
59.2054011905913
 51
237.4273903596923
  0
ARC
  5
EFB3
330
1F
100
AcDbEntity
  8
AM_0
100
AcDbCircle
 10
321.4640453487814
 20
202.3631042357938
 30
0.0
 40
0.25
100
AcDbArc
 50
354.2894068625288
 51
57.42739035969917
  0
ARC
  5
EFB4
330
1F
100
AcDbEntity
  8
AM_0
100
AcDbCircle
 10
323.9270788913196
 20
202.3631042357938
 30
0.0
 40
0.25
100
AcDbArc
 50
122.5726096403008
 51
185.7105931374711
  0
ARC
  5
EFB5
330
1F
100
AcDbEntity
  8
AM_0
100
AcDbCircle
 10
322.6955621200505
 20
204.2908030432027
 30
0.0
 40
1.25
100
AcDbArc
 50
68.57817847822802
 51
21.42182152176948
  0
LINE
  5
EFB6
330
1F
100
AcDbEntity
  8
AM_0
100
AcDbLine
 10
323.1955621200504
 20
202.1658030432027
 30
0.0
 11
322.1955621200505
 21
202.1658030432027
 31
0.0
  0
LINE
  5
EFB7
330
1F
100
AcDbEntity
  8
AM_0
100
AcDbLine
 10
321.7580621200505
 20
202.1658030432027
 30
0.0
 11
323.6330621200504
 21
202.1658030432027
 31
0.0
  0
ARC
  5
EFB8
330
1F
100
AcDbEntity
  8
AM_0
100
AcDbCircle
 10
322.6955621200506
 20
199.7842836315412
 30
0.0
 40
3.131522861205692
100
AcDbArc
 50
73.17636745398285
 51
106.8236325460171
  0
LINE
  5
EFB9
330
1F
100
AcDbEntity
  8
AM_0
100
AcDbLine
 10
321.8196189383627
 20
202.7908030432027
 30
0.0
 11
323.5715053017381
 21
202.7908030432027
 31
0.0
  0
ARC
  5
EFBA
330
1F
100
AcDbEntity
  8
AM_0
100
AcDbCircle
 10
323.6330621200504
 20
202.2283030432027
 30
0.0
 40
0.0625
100
AcDbArc
 50
270.0
 51
5.710593137471139
  0
ARC
  5
EFBB
330
1F
100
AcDbEntity
  8
AM_0
100
AcDbCircle
 10
321.7580621200505
 20
202.2283030432027
 30
0.0
 40
0.0625
100
AcDbArc
 50
174.2894068625288
 51
270.0
  0
LINE
  5
EFBC
330
1F
100
AcDbEntity
  8
AM_0
100
AcDbLine
 10
323.6952519444387
 20
202.2345220256411
 30
0.0
 11
323.6458831387681
 21
202.7282100823486
 31
0.0
  0
LINE
  5
EFBD
330
1F
100
AcDbEntity
  8
AM_0
100
AcDbLine
 10
321.745241101333
 20
202.7282100823486
 30
0.0
 11
321.6958722956624
 21
202.2345220256411
 31
0.0
  0
ARC
  5
EFBE
330
1F
100
AcDbEntity
  8
AM_0
100
AcDbCircle
 10
323.5836933143801
 20
202.7219910999102
 30
0.0
 40
0.0625
100
AcDbArc
 50
5.710593137575879
 51
73.05588434105771
  0
ARC
  5
EFBF
330
1F
100
AcDbEntity
  8
AM_0
100
AcDbCircle
 10
321.8074309257212
 20
202.7219910999102
 30
0.0
 40
0.0625
100
AcDbArc
 50
106.9441156589526
 51
174.2894068624241
  0
LWPOLYLINE
  5
EFC0
102
{ACAD_REACTORS
330
EFE7
102
}
330
1F
100
AcDbEntity
  8
AM_0
100
AcDbPolyline
 90
        5
 70
     0
 43
0.0
 10
316.9906309305468
 20
202.1658030432027
 10
345.9906309305468
 20
202.1658030432027
 10
345.9906309305468
 20
199.6658030432027
 10
316.9906309305468
 20
199.6658030432027
 10
316.9906309305468
 20
202.1658030432027
  0
LWPOLYLINE
  5
EFC1
330
1F
100
AcDbEntity
  8
AM_0
100
AcDbPolyline
 90
        5
 70
     0
 43
0.0
 10
276.9247664177826
 20
202.1658030432027
 10
301.9247664177826
 20
202.1658030432027
 10
301.9247664177826
 20
199.6658030432027
 10
276.9247664177826
 20
199.6658030432027
 10
276.9247664177826
 20
202.1658030432027
  0
ARC
  5
EFC2
330
1F
100
AcDbEntity
  8
AM_0
100
AcDbCircle
 10
340.2856997410426
 20
204.2908030432027
 30
0.0
 40
2.0375
100
AcDbArc
 50
302.5726096403077
 51
120.7945988094087
  0
ARC
  5
EFC3
330
1F
100
AcDbEntity
  8
AM_0
100
AcDbCircle
 10
340.2856997410426
 20
204.2908030432027
 30
0.0
 40
2.0375
100
AcDbArc
 50
149.2054011906645
 51
237.4273903596923
  0
ARC
  5
EFC4
330
1F
100
AcDbEntity
  8
AM_0
100
AcDbCircle
 10
339.0541829697734
 20
202.3631042357938
 30
0.0
 40
0.25
100
AcDbArc
 50
354.2894068625288
 51
57.42739035969917
  0
ARC
  5
EFC5
330
1F
100
AcDbEntity
  8
AM_0
100
AcDbCircle
 10
341.5172165123117
 20
202.3631042357938
 30
0.0
 40
0.25
100
AcDbArc
 50
122.5726096403008
 51
185.7105931374711
  0
ARC
  5
EFC6
330
1F
100
AcDbEntity
  8
AM_0
100
AcDbCircle
 10
340.2856997410426
 20
204.2908030432027
 30
0.0
 40
1.25
100
AcDbArc
 50
158.5781784782305
 51
111.4218215217719
  0
LINE
  5
EFC7
330
1F
100
AcDbEntity
  8
AM_0
100
AcDbLine
 10
340.7856997410426
 20
202.1658030432027
 30
0.0
 11
339.7856997410425
 21
202.1658030432027
 31
0.0
  0
LINE
  5
EFC8
330
1F
100
AcDbEntity
  8
AM_0
100
AcDbLine
 10
339.3481997410426
 20
202.1658030432027
 30
0.0
 11
341.2231997410426
 21
202.1658030432027
 31
0.0
  0
ARC
  5
EFC9
330
1F
100
AcDbEntity
  8
AM_0
100
AcDbCircle
 10
340.2856997410427
 20
199.7842836315412
 30
0.0
 40
3.131522861205692
100
AcDbArc
 50
73.17636745398285
 51
106.8236325460171
  0
LINE
  5
EFCA
330
1F
100
AcDbEntity
  8
AM_0
100
AcDbLine
 10
339.4097565593547
 20
202.7908030432027
 30
0.0
 11
341.1616429227302
 21
202.7908030432027
 31
0.0
  0
ARC
  5
EFCB
330
1F
100
AcDbEntity
  8
AM_0
100
AcDbCircle
 10
341.2231997410426
 20
202.2283030432027
 30
0.0
 40
0.0625
100
AcDbArc
 50
270.0
 51
5.710593137471139
  0
ARC
  5
EFCC
330
1F
100
AcDbEntity
  8
AM_0
100
AcDbCircle
 10
339.3481997410426
 20
202.2283030432027
 30
0.0
 40
0.0625
100
AcDbArc
 50
174.2894068625288
 51
270.0
  0
LINE
  5
EFCD
330
1F
100
AcDbEntity
  8
AM_0
100
AcDbLine
 10
341.2853895654307
 20
202.2345220256411
 30
0.0
 11
341.2360207597601
 21
202.7282100823486
 31
0.0
  0
LINE
  5
EFCE
330
1F
100
AcDbEntity
  8
AM_0
100
AcDbLine
 10
339.335378722325
 20
202.7282100823486
 30
0.0
 11
339.2860099166544
 21
202.2345220256411
 31
0.0
  0
ARC
  5
EFCF
330
1F
100
AcDbEntity
  8
AM_0
100
AcDbCircle
 10
341.1738309353721
 20
202.7219910999102
 30
0.0
 40
0.0625
100
AcDbArc
 50
5.710593137575879
 51
73.05588434105771
  0
ARC
  5
EFD0
330
1F
100
AcDbEntity
  8
AM_0
100
AcDbCircle
 10
339.3975685467133
 20
202.7219910999102
 30
0.0
 40
0.0625
100
AcDbArc
 50
106.9441156589526
 51
174.2894068624241
  0
LWPOLYLINE
  5
EFD1
330
1F
100
AcDbEntity
  8
AM_0
100
AcDbPolyline
 90
        4
 70
     0
 43
0.0
 10
329.0495481138021
 20
224.2457897305103
 10
329.0495481138021
 20
219.2457897305103
 10
334.0495481138021
 20
219.2457897305103
 10
334.0495481138021
 20
224.2457897305103
  0
ARC
  5
EFD2
330
1F
100
AcDbEntity
  8
AM_0
100
AcDbCircle
 10
336.0072268678007
 20
219.5946371355621
 30
0.0
 40
3.577716916454968
100
AcDbArc
 50
185.5955493530432
 51
240.6488384814666
  0
ARC
  5
EFD3
330
1F
100
AcDbEntity
  8
AM_0
100
AcDbCircle
 10
335.9573223610421
 20
219.6630156983865
 30
0.0
 40
5.301251538979165
100
AcDbArc
 50
184.5140350326566
 51
231.8467442308255
  0
ARC
  5
EFD4
330
1F
100
AcDbEntity
  8
AM_0
100
AcDbCircle
 10
331.9212001581927
 20
213.2364542312007
 30
0.0
 40
3.991967178042532
100
AcDbArc
 50
178.5362247779289
 51
214.930287473506
  0
ARC
  5
EFD5
330
1F
100
AcDbEntity
  8
AM_0
100
AcDbCircle
 10
331.9212001581927
 20
213.2364542312007
 30
0.0
 40
3.991967178042532
100
AcDbArc
 50
229.3389604947898
 51
301.8093307631438
  0
ARC
  5
EFD6
330
1F
100
AcDbEntity
  8
AM_0
100
AcDbCircle
 10
331.9212001581927
 20
213.2364542312007
 30
0.0
 40
3.991967178042532
100
AcDbArc
 50
316.2784175626207
 51
54.24886700823821
  0
ARC
  5
EFD7
330
1F
100
AcDbEntity
  8
AM_0
100
AcDbCircle
 10
331.4676644486474
 20
213.3935745247527
 30
0.0
 40
2.42665692386442
100
AcDbArc
 50
183.8795942464379
 51
218.7025162116355
  0
ARC
  5
EFD8
330
1F
100
AcDbEntity
  8
AM_0
100
AcDbCircle
 10
331.4676644486474
 20
213.3935745247527
 30
0.0
 40
2.42665692386442
100
AcDbArc
 50
242.6017441333797
 51
298.2010388564781
  0
ARC
  5
EFD9
330
1F
100
AcDbEntity
  8
AM_0
100
AcDbCircle
 10
331.4676644486474
 20
213.3935745247527
 30
0.0
 40
2.42665692386442
100
AcDbArc
 50
322.0696103631249
 51
59.96207186822754
  0
ARC
  5
EFDA
330
1F
100
AcDbEntity
  8
AM_0
100
AcDbCircle
 10
326.7221963308061
 20
213.0374504038154
 30
0.0
 40
1.245259758757551
100
AcDbArc
 50
13.98685093648846
 51
76.01314906338706
  0
ARC
  5
EFDB
330
1F
100
AcDbEntity
  8
AM_0
100
AcDbCircle
 10
327.3767589068746
 20
213.1002683951556
 30
0.0
 40
1.674794081522616
100
AcDbArc
 50
4.421617977064793
 51
96.02712786662433
  0
ARC
  5
EFDC
330
1F
100
AcDbEntity
  8
AM_0
100
AcDbCircle
 10
327.230097708765
 20
214.4654473783503
 30
0.0
 40
0.3017724996952311
100
AcDbArc
 50
95.55101494923688
 51
226.7099239553581
  0
ARC
  5
EFDD
330
1F
100
AcDbEntity
  8
AM_0
100
AcDbCircle
 10
323.2258922059406
 20
204.8211331290931
 30
0.0
 40
0.5
100
AcDbArc
 50
134.9999999999905
 51
314.9999999999905
  0
LINE
  5
EFDE
330
1F
100
AcDbEntity
  8
AM_0
100
AcDbLine
 10
322.8723388153473
 20
205.1746865196856
 30
0.0
 11
329.9613568062639
 21
212.2637045106039
 31
0.0
  0
LINE
  5
EFDF
330
1F
100
AcDbEntity
  8
AM_0
100
AcDbLine
 10
323.5794455965338
 20
204.4675797385007
 30
0.0
 11
330.668463587451
 21
211.5565977294155
 31
0.0
  0
ARC
  5
EFE0
330
1F
100
AcDbEntity
  8
AM_0
100
AcDbCircle
 10
339.7553696551524
 20
204.8211331290931
 30
0.0
 40
0.5
100
AcDbArc
 50
225.0000000000095
 51
45.00000000000945
  0
LINE
  5
EFE1
330
1F
100
AcDbEntity
  8
AM_0
100
AcDbLine
 10
340.1089230457458
 20
205.1746865196856
 30
0.0
 11
333.0199050548295
 21
212.2637045106039
 31
0.0
  0
LINE
  5
EFE2
102
{ACAD_REACTORS
330
EFE7
102
}
330
1F
100
AcDbEntity
  8
AM_0
100
AcDbLine
 10
339.4018162645593
 20
204.4675797385007
 30
0.0
 11
332.3127982736433
 21
211.5565977294155
 31
0.0
  0
ARC
  5
EFE3
330
1F
100
AcDbEntity
  8
AM_0
100
AcDbCircle
 10
330.3149101968572
 20
211.9101511200115
 30
0.0
 40
0.5
100
AcDbArc
 50
314.9999999999905
 51
134.9999999999905
  0
ARC
  5
EFE4
330
1F
100
AcDbEntity
  8
AM_0
100
AcDbCircle
 10
332.6663516642366
 20
211.9101511200115
 30
0.0
 40
0.5
100
AcDbArc
 50
45.00000000000945
 51
225.0000000000095
  0
DIMENSION
  5
EFE5
102
{ACAD_XDICTIONARY
360
EFE6
102
}
102
{ACAD_REACTORS
330
EFE7
102
}
330
1F
100
AcDbEntity
  8
AM_5
100
AcDbDimension
  2
*D13
 10
332.3127982736433
 20
211.5565977294155
 30
0.0
 11
342.960902183025
 21
211.5539965671913
 31
0.0
 70
    34
 71
     5
 42
0.785398163397352
  3
SYS$2
100
AcDb2LineAngularDimension
 13
316.9906309305468
 23
202.1658030432027
 33
0.0
 14
345.9906309305468
 24
202.1658030432027
 34
0.0
 15
339.4018162645593
 25
204.4675797385007
 35
0.0
 16
334.1014807331565
 26
204.2027828751178
 36
0.0
1001
ACAD
1000
DSTYLE
1002
{
1070
    41
1040
2.0
1070
    47
1040
0.2
1070
    48
1040
-0.2
1070
    74
1070
     1
1070
   271
1070
     1
1070
   288
1070
     1
1070
   342
1005
A66
1002
}
  0
LWPOLYLINE
  5
EFE8
330
1F
100
AcDbEntity
  8
AM_0
100
AcDbPolyline
 90
        4
 70
     0
 43
0.0
 10
287.0066500829373
 20
224.2457897305103
 10
287.0066500829373
 20
219.2457897305103
 10
292.0066500829373
 20
219.2457897305103
 10
292.0066500829373
 20
224.2457897305103
  0
ARC
  5
EFE9
330
1F
100
AcDbEntity
  8
AM_0
100
AcDbCircle
 10
293.9643288369359
 20
219.5946371355621
 30
0.0
 40
3.577716916454968
100
AcDbArc
 50
185.5955493530432
 51
240.6488384814666
  0
ARC
  5
EFEA
330
1F
100
AcDbEntity
  8
AM_0
100
AcDbCircle
 10
293.9144243301773
 20
219.6630156983865
 30
0.0
 40
5.301251538979165
100
AcDbArc
 50
184.5140350326566
 51
231.8467442308255
  0
ARC
  5
EFEB
330
1F
100
AcDbEntity
  8
AM_0
100
AcDbCircle
 10
289.8783021273282
 20
213.2364542312007
 30
0.0
 40
3.991967178042532
100
AcDbArc
 50
178.5362247779289
 51
256.1805203100472
  0
ARC
  5
EFEC
330
1F
100
AcDbEntity
  8
AM_0
100
AcDbCircle
 10
289.8783021273282
 20
213.2364542312007
 30
0.0
 40
3.991967178042532
100
AcDbArc
 50
270.6669062487895
 51
54.24886700823821
  0
ARC
  5
EFED
330
1F
100
AcDbEntity
  8
AM_0
100
AcDbCircle
 10
289.4247664177826
 20
213.3935745247527
 30
0.0
 40
2.42665692386442
100
AcDbArc
 50
183.8795942464379
 51
258.1093334974883
  0
ARC
  5
EFEE
330
1F
100
AcDbEntity
  8
AM_0
100
AcDbCircle
 10
289.4247664177826
 20
213.3935745247527
 30
0.0
 40
2.42665692386442
100
AcDbArc
 50
281.8906665025253
 51
59.96207186822754
  0
ARC
  5
EFEF
330
1F
100
AcDbEntity
  8
AM_0
100
AcDbCircle
 10
284.6792982999416
 20
213.0374504038154
 30
0.0
 40
1.245259758757551
100
AcDbArc
 50
13.98685093648846
 51
76.01314906338706
  0
ARC
  5
EFF0
330
1F
100
AcDbEntity
  8
AM_0
100
AcDbCircle
 10
285.3338608760098
 20
213.1002683951556
 30
0.0
 40
1.674794081522616
100
AcDbArc
 50
4.421617977064793
 51
96.02712786662433
  0
ARC
  5
EFF1
330
1F
100
AcDbEntity
  8
AM_0
100
AcDbCircle
 10
285.1871996779003
 20
214.4654473783503
 30
0.0
 40
0.3017724996952311
100
AcDbArc
 50
95.55101494923688
 51
226.7099239553581
  0
ARC
  5
EFF2
330
1F
100
AcDbEntity
  8
AM_0
100
AcDbCircle
 10
289.4247664177826
 20
204.2908030432027
 30
0.0
 40
2.0375
100
AcDbArc
 50
302.5726096403077
 51
75.79459880929468
  0
ARC
  5
EFF3
330
1F
100
AcDbEntity
  8
AM_0
100
AcDbCircle
 10
289.4247664177826
 20
204.2908030432027
 30
0.0
 40
2.0375
100
AcDbArc
 50
104.2054011906994
 51
237.4273903596923
  0
ARC
  5
EFF4
330
1F
100
AcDbEntity
  8
AM_0
100
AcDbCircle
 10
288.1932496465136
 20
202.3631042357938
 30
0.0
 40
0.25
100
AcDbArc
 50
354.2894068625288
 51
57.42739035969917
  0
ARC
  5
EFF5
330
1F
100
AcDbEntity
  8
AM_0
100
AcDbCircle
 10
290.6562831890518
 20
202.3631042357938
 30
0.0
 40
0.25
100
AcDbArc
 50
122.5726096403008
 51
185.7105931374711
  0
ARC
  5
EFF6
330
1F
100
AcDbEntity
  8
AM_0
100
AcDbCircle
 10
289.4247664177826
 20
204.2908030432027
 30
0.0
 40
1.25
100
AcDbArc
 50
113.5781784781672
 51
66.42182152183271
  0
LINE
  5
EFF7
330
1F
100
AcDbEntity
  8
AM_0
100
AcDbLine
 10
289.9247664177826
 20
202.1658030432027
 30
0.0
 11
288.9247664177826
 21
202.1658030432027
 31
0.0
  0
LINE
  5
EFF8
330
1F
100
AcDbEntity
  8
AM_0
100
AcDbLine
 10
288.4872664177826
 20
202.1658030432027
 30
0.0
 11
290.3622664177826
 21
202.1658030432027
 31
0.0
  0
ARC
  5
EFF9
330
1F
100
AcDbEntity
  8
AM_0
100
AcDbCircle
 10
289.4247664177826
 20
199.7842836315412
 30
0.0
 40
3.131522861205692
100
AcDbArc
 50
73.17636745398285
 51
106.8236325460171
  0
LINE
  5
EFFA
330
1F
100
AcDbEntity
  8
AM_0
100
AcDbLine
 10
288.5488232360949
 20
202.7908030432027
 30
0.0
 11
290.3007095994702
 21
202.7908030432027
 31
0.0
  0
ARC
  5
EFFB
330
1F
100
AcDbEntity
  8
AM_0
100
AcDbCircle
 10
290.3622664177826
 20
202.2283030432027
 30
0.0
 40
0.0625
100
AcDbArc
 50
270.0
 51
5.710593137471139
  0
ARC
  5
EFFC
330
1F
100
AcDbEntity
  8
AM_0
100
AcDbCircle
 10
288.4872664177826
 20
202.2283030432027
 30
0.0
 40
0.0625
100
AcDbArc
 50
174.2894068625288
 51
270.0
  0
LINE
  5
EFFD
330
1F
100
AcDbEntity
  8
AM_0
100
AcDbLine
 10
290.4244562421709
 20
202.234522025643
 30
0.0
 11
290.3750874365003
 21
202.7282100823486
 31
0.0
  0
LINE
  5
EFFE
330
1F
100
AcDbEntity
  8
AM_0
100
AcDbLine
 10
288.4744453990652
 20
202.7282100823486
 30
0.0
 11
288.4250765933946
 21
202.234522025643
 31
0.0
  0
ARC
  5
EFFF
330
1F
100
AcDbEntity
  8
AM_0
100
AcDbCircle
 10
290.3128976121122
 20
202.7219910999102
 30
0.0
 40
0.0625
100
AcDbArc
 50
5.710593137575879
 51
73.05588434105771
  0
ARC
  5
F000
330
1F
100
AcDbEntity
  8
AM_0
100
AcDbCircle
 10
288.5366352234532
 20
202.7219910999102
 30
0.0
 40
0.0625
100
AcDbArc
 50
106.9441156589526
 51
174.2894068624241
  0
ARC
  5
F001
330
1F
100
AcDbEntity
  8
AM_0
100
AcDbCircle
 10
289.4247664177826
 20
205.0408030432027
 30
0.0
 40
0.5
100
AcDbArc
 50
180.0
 51
0.0
  0
LINE
  5
F002
330
1F
100
AcDbEntity
  8
AM_0
100
AcDbLine
 10
288.9247664177826
 20
205.0408030432045
 30
0.0
 11
288.9247664177826
 21
211.4669176008884
 31
0.0
  0
LINE
  5
F003
330
1F
100
AcDbEntity
  8
AM_0
100
AcDbLine
 10
289.9247664177826
 20
205.0408030432027
 30
0.0
 11
289.9247664177835
 21
211.4669176008884
 31
0.0
  0
ARC
  5
F004
330
1F
100
AcDbEntity
  8
AM_0
100
AcDbCircle
 10
289.4247664177826
 20
211.4669176008884
 30
0.0
 40
0.5
100
AcDbArc
 50
0.0
 51
180.0
  0
MTEXT
  5
F005
330
1F
100
AcDbEntity
  8
AM_6
 48
1.01
100
AcDbMText
 10
289.5066500829373
 20
231.0332616235355
 30
0.0
 40
3.2
 41
24.99999999999995
 71
     5
 72
     5
  1
{\L垂直づり}
 73
     1
 44
0.8
1001
ACAD
1000
MTEXTBEGIN
1070
    73
1070
     1
1070
    44
1040
0.8
1070
    74
1070
     0
1000
MTEXTEND
1000
ACAD_MTEXT_DEFINED_HEIGHT_BEGIN
1070
    46
1040
7.391999999999098
1000
ACAD_MTEXT_DEFINED_HEIGHT_END
  0
MTEXT
  5
F006
330
1F
100
AcDbEntity
  8
AM_6
 48
1.01
100
AcDbMText
 10
331.5495481138021
 20
231.0332616235319
 30
0.0
 40
3.2
 41
24.99999999999995
 71
     5
 72
     5
  1
{\L45度づり}
 73
     1
 44
0.8
1001
ACAD
1000
MTEXTBEGIN
1070
    73
1070
     1
1070
    44
1040
0.8
1070
    74
1070
     0
1000
MTEXTEND
1000
ACAD_MTEXT_DEFINED_HEIGHT_BEGIN
1070
    46
1040
7.391999999999098
1000
ACAD_MTEXT_DEFINED_HEIGHT_END
  0
LINE
  5
F007
330
1F
100
AcDbEntity
  8
AM_0
100
AcDbLine
 10
278.9247664177826
 20
199.6658030432027
 30
0.0
 11
278.9247664177826
 21
194.6658030432027
 31
0.0
  0
LINE
  5
F008
330
1F
100
AcDbEntity
  8
AM_0
100
AcDbLine
 10
318.9906309305468
 20
199.6658030432027
 30
0.0
 11
318.9906309305468
 21
194.6658030432027
 31
0.0
  0
LINE
  5
F009
330
1F
100
AcDbEntity
  8
AM_0
100
AcDbLine
 10
343.9906309305468
 20
199.6658030432027
 30
0.0
 11
343.9906309305468
 21
194.6658030432027
 31
0.0
  0
LINE
  5
F00A
330
1F
100
AcDbEntity
  8
AM_0
100
AcDbLine
 10
299.9247664177826
 20
199.6658030432027
 30
0.0
 11
299.9247664177826
 21
194.6658030432027
 31
0.0
  0
TEXT
  5
F00B
330
1F
100
AcDbEntity
  8
AM_6
100
AcDbText
 10
94.88448221243187
 20
149.063345001873
 30
0.0
 40
3.2
  1
品番表
 41
0.85537027
100
AcDbText
  0
LINE
  5
F00C
330
1F
100
AcDbEntity
  8
AM_0
100
AcDbLine
 10
92.02748221243552
 20
27.17431824539352
 30
0.0
 11
345.0274822124319
 21
27.17431824539563
 31
0.0
  0
LINE
  5
F00D
330
1F
100
AcDbEntity
  8
AM_4
100
AcDbLine
 10
92.02748221243531
 20
34.56631824539602
 30
0.0
 11
345.0274822124317
 21
34.56631824539182
 31
0.0
  0
LINE
  5
F00E
330
1F
100
AcDbEntity
  8
AM_4
100
AcDbLine
 10
92.02748221243508
 20
41.95831824539562
 30
0.0
 11
345.0274822124314
 21
41.95831824539346
 31
0.0
  0
LINE
  5
F00F
330
1F
100
AcDbEntity
  8
AM_4
100
AcDbLine
 10
92.02748221243464
 20
56.74231824539521
 30
0.0
 11
345.027482212431
 21
56.74231824539311
 31
0.0
  0
LINE
  5
F010
330
1F
100
AcDbEntity
  8
AM_4
100
AcDbLine
 10
92.02748221243417
 20
71.52631824539515
 30
0.0
 11
345.0274822124308
 21
71.52631824539094
 31
0.0
  0
LINE
  5
F011
330
1F
100
AcDbEntity
  8
AM_4
100
AcDbLine
 10
92.02748221243281
 20
115.8783182453992
 30
0.0
 11
345.0274822124293
 21
115.8783182453971
 31
0.0
  0
LINE
  5
F012
330
1F
100
AcDbEntity
  8
AM_0
100
AcDbLine
 10
92.02748221243234
 20
130.6623182454013
 30
0.0
 11
345.0274822124288
 21
130.662318245395
 31
0.0
  0
LINE
  5
F013
330
1F
100
AcDbEntity
  8
AM_0
100
AcDbLine
 10
92.0274822124319
 20
145.4463182453937
 30
0.0
 11
345.0274822124284
 21
145.4463182454001
 31
0.0
  0
LINE
  5
F014
330
1F
100
AcDbEntity
  8
AM_0
100
AcDbLine
 10
160.0274822124281
 20
145.4463182453928
 30
0.0
 11
160.0274822124319
 21
27.17431824539563
 31
0.0
  0
LINE
  5
F015
330
1F
100
AcDbEntity
  8
AM_0
100
AcDbLine
 10
175.0274822124282
 20
145.4463182453928
 30
0.0
 11
175.0274822124319
 21
27.17431824539563
 31
0.0
  0
MTEXT
  5
F017
330
1F
100
AcDbEntity
  8
AM_6
 48
1.01
100
AcDbMText
 10
167.5274822124287
 20
138.0543182454003
 30
0.0
 40
3.2
 41
15.0
 71
     5
 72
     5
  1
ねじの呼び\PM
 73
     1
 44
1.0
1001
ACAD
1000
MTEXTBEGIN
1070
    73
1070
     1
1070
    44
1040
1.0
1070
    74
1070
     0
1000
MTEXTEND
1000
ACAD_MTEXT_DEFINED_HEIGHT_BEGIN
1070
    46
1040
14.7839999999971
1000
ACAD_MTEXT_DEFINED_HEIGHT_END
  0
MTEXT
  5
F01B
330
1F
100
AcDbEntity
  8
AM_6
 48
1.01
100
AcDbMText
 10
167.5274822124314
 20
38.26231824539718
 30
0.0
 40
3.2
 41
15.00000000000011
 71
     5
 72
     5
  1
M24
 73
     1
 44
1.0
1001
ACAD
1000
MTEXTBEGIN
1070
    73
1070
     1
1070
    44
1040
1.0
1070
    74
1070
     0
1000
MTEXTEND
1000
ACAD_MTEXT_DEFINED_HEIGHT_BEGIN
1070
    46
1040
7.391999999999098
1000
ACAD_MTEXT_DEFINED_HEIGHT_END
  0
MTEXT
  5
F01C
330
1F
100
AcDbEntity
  8
AM_6
 48
1.01
100
AcDbMText
 10
167.5274822124301
 20
30.87031824539554
 30
0.0
 40
3.2
 41
15.00000000000017
 71
     5
 72
     5
  1
M30
 73
     1
 44
1.0
1001
ACAD
1000
MTEXTBEGIN
1070
    73
1070
     1
1070
    44
1040
1.0
1070
    74
1070
     0
1000
MTEXTEND
1000
ACAD_MTEXT_DEFINED_HEIGHT_BEGIN
1070
    46
1040
7.391999999999098
1000
ACAD_MTEXT_DEFINED_HEIGHT_END
  0
LINE
  5
F01D
330
1F
100
AcDbEntity
  8
AM_0
100
AcDbLine
 10
190.0274822124282
 20
145.4463182453946
 30
0.0
 11
190.0274822124319
 21
27.17431824539563
 31
0.0
  0
LINE
  5
F01E
330
1F
100
AcDbEntity
  8
AM_0
100
AcDbLine
 10
205.0274822124281
 20
145.4463182453946
 30
0.0
 11
205.0274822124318
 21
27.17431824539563
 31
0.0
  0
LINE
  5
F01F
330
1F
100
AcDbEntity
  8
AM_0
100
AcDbLine
 10
220.0274822124281
 20
145.4463182453946
 30
0.0
 11
220.027482212432
 21
27.17431824539563
 31
0.0
  0
LINE
  5
F020
330
1F
100
AcDbEntity
  8
AM_0
100
AcDbLine
 10
235.0274822124281
 20
145.4463182453946
 30
0.0
 11
235.0274822124319
 21
27.17431824539563
 31
0.0
  0
LINE
  5
F021
330
1F
100
AcDbEntity
  8
AM_0
100
AcDbLine
 10
250.0274822124282
 20
145.4463182453946
 30
0.0
 11
250.0274822124319
 21
27.17431824539563
 31
0.0
  0
LINE
  5
F022
330
1F
100
AcDbEntity
  8
AM_0
100
AcDbLine
 10
265.0274822124282
 20
145.4463182453946
 30
0.0
 11
265.0274822124319
 21
27.17431824539563
 31
0.0
  0
LINE
  5
F023
330
1F
100
AcDbEntity
  8
AM_0
100
AcDbLine
 10
295.0274822124281
 20
145.4463182453983
 30
0.0
 11
295.027482212432
 21
27.17431824539563
 31
0.0
  0
LINE
  5
F024
330
1F
100
AcDbEntity
  8
AM_4
100
AcDbLine
 10
320.0274822124286
 20
138.0543182453984
 30
0.0
 11
320.0274822124318
 21
27.17431824539563
 31
0.0
  0
LINE
  5
F025
330
1F
100
AcDbEntity
  8
AM_0
100
AcDbLine
 10
345.0274822124283
 20
145.4463182453983
 30
0.0
 11
345.0274822124319
 21
27.17431824539744
 31
0.0
  0
MTEXT
  5
F026
330
1F
100
AcDbEntity
  8
AM_6
 48
1.01
100
AcDbMText
 10
182.5274822124285
 20
138.0543182454003
 30
0.0
 40
3.2
 41
14.99999999999949
 71
     5
 72
     5
  1
A
 73
     1
 44
1.0
1001
ACAD
1000
MTEXTBEGIN
1070
    73
1070
     1
1070
    44
1040
1.0
1070
    74
1070
     0
1000
MTEXTEND
1000
ACAD_MTEXT_DEFINED_HEIGHT_BEGIN
1070
    46
1040
14.78399999999528
1000
ACAD_MTEXT_DEFINED_HEIGHT_END
  0
MTEXT
  5
F027
330
1F
100
AcDbEntity
  8
AM_6
 48
1.01
100
AcDbMText
 10
197.5274822124287
 20
138.0543182454003
 30
0.0
 40
3.2
 41
14.99999999999983
 71
     5
 72
     5
  1
B
 73
     1
 44
1.0
1001
ACAD
1000
MTEXTBEGIN
1070
    73
1070
     1
1070
    44
1040
1.0
1070
    74
1070
     0
1000
MTEXTEND
1000
ACAD_MTEXT_DEFINED_HEIGHT_BEGIN
1070
    46
1040
14.78399999999892
1000
ACAD_MTEXT_DEFINED_HEIGHT_END
  0
MTEXT
  5
F028
330
1F
100
AcDbEntity
  8
AM_6
 48
1.01
100
AcDbMText
 10
212.5274822124285
 20
138.0543182454003
 30
0.0
 40
3.2
 41
14.9999999999996
 71
     5
 72
     5
  1
C
 73
     1
 44
1.0
1001
ACAD
1000
MTEXTBEGIN
1070
    73
1070
     1
1070
    44
1040
1.0
1070
    74
1070
     0
1000
MTEXTEND
1000
ACAD_MTEXT_DEFINED_HEIGHT_BEGIN
1070
    46
1040
14.7839999999971
1000
ACAD_MTEXT_DEFINED_HEIGHT_END
  0
MTEXT
  5
F029
330
1F
100
AcDbEntity
  8
AM_6
 48
1.01
100
AcDbMText
 10
227.5274822124287
 20
138.0543182454003
 30
0.0
 40
3.2
 41
14.99999999999988
 71
     5
 72
     5
  1
D
 73
     1
 44
1.0
1001
ACAD
1000
MTEXTBEGIN
1070
    73
1070
     1
1070
    44
1040
1.0
1070
    74
1070
     0
1000
MTEXTEND
1000
ACAD_MTEXT_DEFINED_HEIGHT_BEGIN
1070
    46
1040
14.78400000000074
1000
ACAD_MTEXT_DEFINED_HEIGHT_END
  0
MTEXT
  5
F02A
330
1F
100
AcDbEntity
  8
AM_6
 48
1.01
100
AcDbMText
 10
242.5274822124287
 20
138.0543182454021
 30
0.0
 40
3.2
 41
14.99999999999983
 71
     5
 72
     5
  1
E
 73
     1
 44
1.0
1001
ACAD
1000
MTEXTBEGIN
1070
    73
1070
     1
1070
    44
1040
1.0
1070
    74
1070
     0
1000
MTEXTEND
1000
ACAD_MTEXT_DEFINED_HEIGHT_BEGIN
1070
    46
1040
14.78399999999892
1000
ACAD_MTEXT_DEFINED_HEIGHT_END
  0
MTEXT
  5
F02B
330
1F
100
AcDbEntity
  8
AM_6
 48
1.01
100
AcDbMText
 10
257.5274822124287
 20
138.0543182454021
 30
0.0
 40
3.2
 41
14.99999999999983
 71
     5
 72
     5
  1
F
 73
     1
 44
1.0
1001
ACAD
1000
MTEXTBEGIN
1070
    73
1070
     1
1070
    44
1040
1.0
1070
    74
1070
     0
1000
MTEXTEND
1000
ACAD_MTEXT_DEFINED_HEIGHT_BEGIN
1070
    46
1040
14.78399999999892
1000
ACAD_MTEXT_DEFINED_HEIGHT_END
  0
MTEXT
  5
F02C
330
1F
100
AcDbEntity
  8
AM_6
 48
1.01
100
AcDbMText
 10
272.5274822124287
 20
138.0543182454003
 30
0.0
 40
3.2
 41
14.99999999999983
 71
     5
 72
     5
  1
G\P（参考値）
 73
     1
 44
1.0
1001
ACAD
1000
MTEXTBEGIN
1070
    73
1070
     1
1070
    44
1040
1.0
1070
    74
1070
     0
1000
MTEXTEND
1000
ACAD_MTEXT_DEFINED_HEIGHT_BEGIN
1070
    46
1040
14.78399999999892
1000
ACAD_MTEXT_DEFINED_HEIGHT_END
  0
MTEXT
  5
F02D
330
1F
100
AcDbEntity
  8
AM_6
 48
1.01
100
AcDbMText
 10
320.0274822124285
 20
141.7503182454002
 30
0.0
 40
3.2
 41
50.00000000000028
 71
     5
 72
     5
  1
使用荷重 kgf（K・N）
 73
     1
 44
1.0
1001
ACAD
1000
MTEXTBEGIN
1070
    73
1070
     1
1070
    44
1040
1.0
1070
    74
1070
     0
1000
MTEXTEND
1000
ACAD_MTEXT_DEFINED_HEIGHT_BEGIN
1070
    46
1040
7.392000000000917
1000
ACAD_MTEXT_DEFINED_HEIGHT_END
  0
LINE
  5
F02E
330
1F
100
AcDbEntity
  8
AM_4
100
AcDbLine
 10
295.0274822124285
 20
138.0543182453984
 30
0.0
 11
345.0274822124285
 21
138.0543182453984
 31
0.0
  0
MTEXT
  5
F02F
330
1F
100
AcDbEntity
  8
AM_6
 48
1.01
100
AcDbMText
 10
307.5274822124287
 20
134.3583182454003
 30
0.0
 40
2.5
 41
24.99999999999995
 71
     5
 72
     5
  1
垂直づり\P〈2個につき〉
 73
     1
 44
0.8
1001
ACAD
1000
MTEXTBEGIN
1070
    73
1070
     1
1070
    44
1040
0.8
1070
    74
1070
     0
1000
MTEXTEND
1000
ACAD_MTEXT_DEFINED_HEIGHT_BEGIN
1070
    46
1040
7.391999999999098
1000
ACAD_MTEXT_DEFINED_HEIGHT_END
  0
MTEXT
  5
F030
330
1F
100
AcDbEntity
  8
AM_6
 48
1.01
100
AcDbMText
 10
332.5274822124287
 20
134.3583182453985
 30
0.0
 40
2.5
 41
24.99999999999995
 71
     5
 72
     5
  1
45度づり\P〈2個につき〉
 73
     1
 44
0.8
1001
ACAD
1000
MTEXTBEGIN
1070
    73
1070
     1
1070
    44
1040
0.8
1070
    74
1070
     0
1000
MTEXTEND
1000
ACAD_MTEXT_DEFINED_HEIGHT_BEGIN
1070
    46
1040
7.391999999999098
1000
ACAD_MTEXT_DEFINED_HEIGHT_END
  0
MTEXT
  5
F037
330
1F
100
AcDbEntity
  8
AM_6
 48
1.01
100
AcDbMText
 10
182.5274822124314
 20
38.26231824539718
 30
0.0
 40
3.2
 41
15.00000000000006
 71
     5
 72
     5
  1
90
 73
     1
 44
1.0
1001
ACAD
1000
MTEXTBEGIN
1070
    73
1070
     1
1070
    44
1040
1.0
1070
    74
1070
     0
1000
MTEXTEND
1000
ACAD_MTEXT_DEFINED_HEIGHT_BEGIN
1070
    46
1040
7.392000000000917
1000
ACAD_MTEXT_DEFINED_HEIGHT_END
  0
MTEXT
  5
F038
330
1F
100
AcDbEntity
  8
AM_6
 48
1.01
100
AcDbMText
 10
182.5274822124296
 20
30.87031824539736
 30
0.0
 40
3.2
 41
15.00000000000006
 71
     5
 72
     5
  1
110
 73
     1
 44
1.0
1001
ACAD
1000
MTEXTBEGIN
1070
    73
1070
     1
1070
    44
1040
1.0
1070
    74
1070
     0
1000
MTEXTEND
1000
ACAD_MTEXT_DEFINED_HEIGHT_BEGIN
1070
    46
1040
7.392000000000917
1000
ACAD_MTEXT_DEFINED_HEIGHT_END
  0
MTEXT
  5
F03D
330
1F
100
AcDbEntity
  8
AM_6
 48
1.01
100
AcDbMText
 10
197.5274822124314
 20
38.26231824539718
 30
0.0
 40
3.2
 41
15.00000000000006
 71
     5
 72
     5
  1
50
 73
     1
 44
1.0
1001
ACAD
1000
MTEXTBEGIN
1070
    73
1070
     1
1070
    44
1040
1.0
1070
    74
1070
     0
1000
MTEXTEND
1000
ACAD_MTEXT_DEFINED_HEIGHT_BEGIN
1070
    46
1040
7.392000000000917
1000
ACAD_MTEXT_DEFINED_HEIGHT_END
  0
MTEXT
  5
F03E
330
1F
100
AcDbEntity
  8
AM_6
 48
1.01
100
AcDbMText
 10
197.5274822124296
 20
30.87031824539736
 30
0.0
 40
3.2
 41
15.00000000000006
 71
     5
 72
     5
  1
60
 73
     1
 44
1.0
1001
ACAD
1000
MTEXTBEGIN
1070
    73
1070
     1
1070
    44
1040
1.0
1070
    74
1070
     0
1000
MTEXTEND
1000
ACAD_MTEXT_DEFINED_HEIGHT_BEGIN
1070
    46
1040
7.392000000000917
1000
ACAD_MTEXT_DEFINED_HEIGHT_END
  0
MTEXT
  5
F043
330
1F
100
AcDbEntity
  8
AM_6
 48
1.01
100
AcDbMText
 10
212.5274822124314
 20
38.26231824539718
 30
0.0
 40
3.2
 41
15.00000000000006
 71
     5
 72
     5
  1
20
 73
     1
 44
1.0
1001
ACAD
1000
MTEXTBEGIN
1070
    73
1070
     1
1070
    44
1040
1.0
1070
    74
1070
     0
1000
MTEXTEND
1000
ACAD_MTEXT_DEFINED_HEIGHT_BEGIN
1070
    46
1040
7.392000000000917
1000
ACAD_MTEXT_DEFINED_HEIGHT_END
  0
MTEXT
  5
F044
330
1F
100
AcDbEntity
  8
AM_6
 48
1.01
100
AcDbMText
 10
212.5274822124296
 20
30.87031824539736
 30
0.0
 40
3.2
 41
15.00000000000006
 71
     5
 72
     5
  1
25
 73
     1
 44
1.0
1001
ACAD
1000
MTEXTBEGIN
1070
    73
1070
     1
1070
    44
1040
1.0
1070
    74
1070
     0
1000
MTEXTEND
1000
ACAD_MTEXT_DEFINED_HEIGHT_BEGIN
1070
    46
1040
7.392000000000917
1000
ACAD_MTEXT_DEFINED_HEIGHT_END
  0
MTEXT
  5
F049
330
1F
100
AcDbEntity
  8
AM_6
 48
1.01
100
AcDbMText
 10
227.5274822124314
 20
38.26231824540082
 30
0.0
 40
3.2
 41
15.0
 71
     5
 72
     5
  1
45
 73
     1
 44
1.0
1001
ACAD
1000
MTEXTBEGIN
1070
    73
1070
     1
1070
    44
1040
1.0
1070
    74
1070
     0
1000
MTEXTEND
1000
ACAD_MTEXT_DEFINED_HEIGHT_BEGIN
1070
    46
1040
7.392000000000917
1000
ACAD_MTEXT_DEFINED_HEIGHT_END
  0
MTEXT
  5
F04A
330
1F
100
AcDbEntity
  8
AM_6
 48
1.01
100
AcDbMText
 10
227.5274822124305
 20
30.870318245401
 30
0.0
 40
3.2
 41
14.99999999999824
 71
     5
 72
     5
  1
60
 73
     1
 44
1.0
1001
ACAD
1000
MTEXTBEGIN
1070
    73
1070
     1
1070
    44
1040
1.0
1070
    74
1070
     0
1000
MTEXTEND
1000
ACAD_MTEXT_DEFINED_HEIGHT_BEGIN
1070
    46
1040
7.392000000000917
1000
ACAD_MTEXT_DEFINED_HEIGHT_END
  0
MTEXT
  5
F04F
330
1F
100
AcDbEntity
  8
AM_6
 48
1.01
100
AcDbMText
 10
242.5274822124314
 20
38.26231824539718
 30
0.0
 40
3.2
 41
15.00000000000006
 71
     5
 72
     5
  1
18
 73
     1
 44
1.0
1001
ACAD
1000
MTEXTBEGIN
1070
    73
1070
     1
1070
    44
1040
1.0
1070
    74
1070
     0
1000
MTEXTEND
1000
ACAD_MTEXT_DEFINED_HEIGHT_BEGIN
1070
    46
1040
7.392000000000917
1000
ACAD_MTEXT_DEFINED_HEIGHT_END
  0
MTEXT
  5
F050
330
1F
100
AcDbEntity
  8
AM_6
 48
1.01
100
AcDbMText
 10
242.5274822124296
 20
30.87031824539736
 30
0.0
 40
3.2
 41
15.00000000000006
 71
     5
 72
     5
  1
22
 73
     1
 44
1.0
1001
ACAD
1000
MTEXTBEGIN
1070
    73
1070
     1
1070
    44
1040
1.0
1070
    74
1070
     0
1000
MTEXTEND
1000
ACAD_MTEXT_DEFINED_HEIGHT_BEGIN
1070
    46
1040
7.392000000000917
1000
ACAD_MTEXT_DEFINED_HEIGHT_END
  0
MTEXT
  5
F055
330
1F
100
AcDbEntity
  8
AM_6
 48
1.01
100
AcDbMText
 10
257.5274822124314
 20
38.26231824539718
 30
0.0
 40
3.2
 41
15.00000000000006
 71
     5
 72
     5
  1
45
 73
     1
 44
1.0
1001
ACAD
1000
MTEXTBEGIN
1070
    73
1070
     1
1070
    44
1040
1.0
1070
    74
1070
     0
1000
MTEXTEND
1000
ACAD_MTEXT_DEFINED_HEIGHT_BEGIN
1070
    46
1040
7.392000000000917
1000
ACAD_MTEXT_DEFINED_HEIGHT_END
  0
MTEXT
  5
F056
330
1F
100
AcDbEntity
  8
AM_6
 48
1.01
100
AcDbMText
 10
257.5274822124296
 20
30.87031824539736
 30
0.0
 40
3.2
 41
15.00000000000006
 71
     5
 72
     5
  1
55
 73
     1
 44
1.0
1001
ACAD
1000
MTEXTBEGIN
1070
    73
1070
     1
1070
    44
1040
1.0
1070
    74
1070
     0
1000
MTEXTEND
1000
ACAD_MTEXT_DEFINED_HEIGHT_BEGIN
1070
    46
1040
7.392000000000917
1000
ACAD_MTEXT_DEFINED_HEIGHT_END
  0
MTEXT
  5
F05B
330
1F
100
AcDbEntity
  8
AM_6
 48
1.01
100
AcDbMText
 10
272.5274822124315
 20
38.26231824539718
 30
0.0
 40
3.2
 41
15.00000000000006
 71
     5
 72
     5
  1
90
 73
     1
 44
1.0
1001
ACAD
1000
MTEXTBEGIN
1070
    73
1070
     1
1070
    44
1040
1.0
1070
    74
1070
     0
1000
MTEXTEND
1000
ACAD_MTEXT_DEFINED_HEIGHT_BEGIN
1070
    46
1040
7.392000000000917
1000
ACAD_MTEXT_DEFINED_HEIGHT_END
  0
MTEXT
  5
F05C
330
1F
100
AcDbEntity
  8
AM_6
 48
1.01
100
AcDbMText
 10
272.5274822124296
 20
30.87031824539736
 30
0.0
 40
3.2
 41
15.00000000000006
 71
     5
 72
     5
  1
110
 73
     1
 44
1.0
1001
ACAD
1000
MTEXTBEGIN
1070
    73
1070
     1
1070
    44
1040
1.0
1070
    74
1070
     0
1000
MTEXTEND
1000
ACAD_MTEXT_DEFINED_HEIGHT_BEGIN
1070
    46
1040
7.392000000000917
1000
ACAD_MTEXT_DEFINED_HEIGHT_END
  0
MTEXT
  5
F060
330
1F
100
AcDbEntity
  8
AM_6
 48
1.01
100
AcDbMText
 10
307.5274822124314
 20
38.26231824539718
 30
0.0
 40
3.2
 41
25.00000000000006
 71
     5
 72
     5
  1
950（9.32）
 73
     1
 44
1.0
1001
ACAD
1000
MTEXTBEGIN
1070
    73
1070
     1
1070
    44
1040
1.0
1070
    74
1070
     0
1000
MTEXTEND
1000
ACAD_MTEXT_DEFINED_HEIGHT_BEGIN
1070
    46
1040
7.392000000000917
1000
ACAD_MTEXT_DEFINED_HEIGHT_END
  0
MTEXT
  5
F061
330
1F
100
AcDbEntity
  8
AM_6
 48
1.01
100
AcDbMText
 10
307.5274822124296
 20
30.87031824539736
 30
0.0
 40
3.2
 41
25.00000000000006
 71
     5
 72
     5
  1
1500（14.7）
 73
     1
 44
1.0
1001
ACAD
1000
MTEXTBEGIN
1070
    73
1070
     1
1070
    44
1040
1.0
1070
    74
1070
     0
1000
MTEXTEND
1000
ACAD_MTEXT_DEFINED_HEIGHT_BEGIN
1070
    46
1040
7.392000000000917
1000
ACAD_MTEXT_DEFINED_HEIGHT_END
  0
MTEXT
  5
F065
330
1F
100
AcDbEntity
  8
AM_6
 48
1.01
100
AcDbMText
 10
332.5274822124314
 20
38.26231824539718
 30
0.0
 40
3.2
 41
25.00000000000006
 71
     5
 72
     5
  1
950（9.32）
 73
     1
 44
1.0
1001
ACAD
1000
MTEXTBEGIN
1070
    73
1070
     1
1070
    44
1040
1.0
1070
    74
1070
     0
1000
MTEXTEND
1000
ACAD_MTEXT_DEFINED_HEIGHT_BEGIN
1070
    46
1040
7.392000000000917
1000
ACAD_MTEXT_DEFINED_HEIGHT_END
  0
MTEXT
  5
F066
330
1F
100
AcDbEntity
  8
AM_6
 48
1.01
100
AcDbMText
 10
332.5274822124296
 20
30.87031824539736
 30
0.0
 40
3.2
 41
25.00000000000006
 71
     5
 72
     5
  1
1500（14.7）
 73
     1
 44
1.0
1001
ACAD
1000
MTEXTBEGIN
1070
    73
1070
     1
1070
    44
1040
1.0
1070
    74
1070
     0
1000
MTEXTEND
1000
ACAD_MTEXT_DEFINED_HEIGHT_BEGIN
1070
    46
1040
7.392000000000917
1000
ACAD_MTEXT_DEFINED_HEIGHT_END
  0
LINE
  5
F067
330
1F
100
AcDbEntity
  8
AM_0
100
AcDbLine
 10
280.0274822124283
 20
145.4463182453946
 30
0.0
 11
280.0274822124319
 21
27.17431824539563
 31
0.0
  0
MTEXT
  5
F068
330
1F
100
AcDbEntity
  8
AM_6
 48
1.01
100
AcDbMText
 10
287.5274822124287
 20
138.0543182454003
 30
0.0
 40
3.2
 41
14.99999999999983
 71
     5
 72
     5
  1
L
 73
     1
 44
1.0
1001
ACAD
1000
MTEXTBEGIN
1070
    73
1070
     1
1070
    44
1040
1.0
1070
    74
1070
     0
1000
MTEXTEND
1000
ACAD_MTEXT_DEFINED_HEIGHT_BEGIN
1070
    46
1040
14.78399999999892
1000
ACAD_MTEXT_DEFINED_HEIGHT_END
  0
LINE
  5
F069
330
1F
100
AcDbEntity
  8
AM_0
100
AcDbLine
 10
160.0274822124281
 20
145.4463182453928
 30
0.0
 11
160.0274822124319
 21
27.17431824539563
 31
0.0
  0
LINE
  5
F06A
330
1F
100
AcDbEntity
  8
AM_0
100
AcDbLine
 10
126.0274822124305
 20
130.6623182454005
 30
0.0
 11
126.0274822124337
 21
27.17431824539381
 31
0.0
  0
MTEXT
  5
F06B
330
1F
100
AcDbEntity
  8
AM_6
 48
1.01
100
AcDbMText
 10
126.0274822124301
 20
138.054318245396
 30
0.0
 40
3.2
 41
67.99999999999645
 71
     5
 72
     5
  1
品番
 73
     1
 44
1.0
1001
ACAD
1000
MTEXTBEGIN
1070
    73
1070
     1
1070
    44
1040
1.0
1070
    74
1070
     0
1000
MTEXTEND
1000
ACAD_MTEXT_DEFINED_HEIGHT_BEGIN
1070
    46
1040
14.78399999999295
1000
ACAD_MTEXT_DEFINED_HEIGHT_END
  0
MTEXT
  5
F06C
330
1F
100
AcDbEntity
  8
AM_6
 48
1.01
100
AcDbMText
 10
143.027482212432
 20
38.26231824538809
 30
0.0
 40
3.2
 41
33.99999999999858
 71
     5
 72
     5
  1
EB-901S-2450
 73
     1
 44
1.0
1001
ACAD
1000
MTEXTBEGIN
1070
    73
1070
     1
1070
    44
1040
1.0
1070
    74
1070
     0
1000
MTEXTEND
1000
ACAD_MTEXT_DEFINED_HEIGHT_BEGIN
1070
    46
1040
7.391999999999098
1000
ACAD_MTEXT_DEFINED_HEIGHT_END
  0
MTEXT
  5
F06D
330
1F
100
AcDbEntity
  8
AM_6
 48
1.01
100
AcDbMText
 10
143.027482212432
 20
30.87031824538826
 30
0.0
 40
3.2
 41
33.99999999999903
 71
     5
 72
     5
  1
EB-901S-30100
 73
     1
 44
1.0
1001
ACAD
1000
MTEXTBEGIN
1070
    73
1070
     1
1070
    44
1040
1.0
1070
    74
1070
     0
1000
MTEXTEND
1000
ACAD_MTEXT_DEFINED_HEIGHT_BEGIN
1070
    46
1040
7.391999999999098
1000
ACAD_MTEXT_DEFINED_HEIGHT_END
  0
MTEXT
  5
F06E
330
1F
100
AcDbEntity
  8
AM_6
 48
1.01
100
AcDbMText
 10
143.0274822124282
 20
119.5743182454043
 30
0.0
 40
3.2
 41
34.00000000000097
 71
     5
 72
     5
  1
EB-901S-0850
 73
     1
 44
1.0
1001
ACAD
1000
MTEXTBEGIN
1070
    73
1070
     1
1070
    44
1040
1.0
1070
    74
1070
     0
1000
MTEXTEND
1000
ACAD_MTEXT_DEFINED_HEIGHT_BEGIN
1070
    46
1040
7.392000000006374
1000
ACAD_MTEXT_DEFINED_HEIGHT_END
  0
MTEXT
  5
F06F
330
1F
100
AcDbEntity
  8
AM_6
 48
1.01
100
AcDbMText
 10
143.027482212432
 20
75.2223182453963
 30
0.0
 40
3.2
 41
33.99999999999631
 71
     5
 72
     5
  1
EB-901S-1250
 73
     1
 44
1.0
1001
ACAD
1000
MTEXTBEGIN
1070
    73
1070
     1
1070
    44
1040
1.0
1070
    74
1070
     0
1000
MTEXTEND
1000
ACAD_MTEXT_DEFINED_HEIGHT_BEGIN
1070
    46
1040
7.391999999993641
1000
ACAD_MTEXT_DEFINED_HEIGHT_END
  0
MTEXT
  5
F070
330
1F
100
AcDbEntity
  8
AM_6
 48
1.01
100
AcDbMText
 10
143.0274822124324
 20
60.43831824539484
 30
0.0
 40
3.2
 41
33.99999999999653
 71
     5
 72
     5
  1
EB-901S-1650
 73
     1
 44
1.0
1001
ACAD
1000
MTEXTBEGIN
1070
    73
1070
     1
1070
    44
1040
1.0
1070
    74
1070
     0
1000
MTEXTEND
1000
ACAD_MTEXT_DEFINED_HEIGHT_BEGIN
1070
    46
1040
7.391999999999098
1000
ACAD_MTEXT_DEFINED_HEIGHT_END
  0
MTEXT
  5
F071
330
1F
100
AcDbEntity
  8
AM_6
 48
1.01
100
AcDbMText
 10
143.0274822124336
 20
45.65431824539337
 30
0.0
 40
3.2
 41
33.99999999999494
 71
     5
 72
     5
  1
EB-901S-2050
 73
     1
 44
1.0
1001
ACAD
1000
MTEXTBEGIN
1070
    73
1070
     1
1070
    44
1040
1.0
1070
    74
1070
     0
1000
MTEXTEND
1000
ACAD_MTEXT_DEFINED_HEIGHT_BEGIN
1070
    46
1040
7.391999999999098
1000
ACAD_MTEXT_DEFINED_HEIGHT_END
  0
MTEXT
  5
F072
330
1F
100
AcDbEntity
  8
AM_6
 48
1.01
100
AcDbMText
 10
287.527482212431
 20
75.22231824539995
 30
0.0
 40
3.2
 41
14.99999999999971
 71
     5
 72
     5
  1
50
 73
     1
 44
1.0
1001
ACAD
1000
MTEXTBEGIN
1070
    73
1070
     1
1070
    44
1040
1.0
1070
    74
1070
     0
1000
MTEXTEND
1000
ACAD_MTEXT_DEFINED_HEIGHT_BEGIN
1070
    46
1040
7.392000000000917
1000
ACAD_MTEXT_DEFINED_HEIGHT_END
  0
MTEXT
  5
F073
330
1F
100
AcDbEntity
  8
AM_6
 48
1.01
100
AcDbMText
 10
287.5274822124317
 20
60.43831824539302
 30
0.0
 40
3.2
 41
15.00000000000176
 71
     5
 72
     5
  1
50
 73
     1
 44
1.0
1001
ACAD
1000
MTEXTBEGIN
1070
    73
1070
     1
1070
    44
1040
1.0
1070
    74
1070
     0
1000
MTEXTEND
1000
ACAD_MTEXT_DEFINED_HEIGHT_BEGIN
1070
    46
1040
7.392000000000917
1000
ACAD_MTEXT_DEFINED_HEIGHT_END
  0
MTEXT
  5
F074
330
1F
100
AcDbEntity
  8
AM_6
 48
1.01
100
AcDbMText
 10
287.5274822124328
 20
45.65431824538791
 30
0.0
 40
3.2
 41
15.00000000000176
 71
     5
 72
     5
  1
50
 73
     1
 44
1.0
1001
ACAD
1000
MTEXTBEGIN
1070
    73
1070
     1
1070
    44
1040
1.0
1070
    74
1070
     0
1000
MTEXTEND
1000
ACAD_MTEXT_DEFINED_HEIGHT_BEGIN
1070
    46
1040
7.392000000000917
1000
ACAD_MTEXT_DEFINED_HEIGHT_END
  0
MTEXT
  5
F075
330
1F
100
AcDbEntity
  8
AM_6
 48
1.01
100
AcDbMText
 10
287.527482212433
 20
38.26231824538991
 30
0.0
 40
3.2
 41
15.00000000000267
 71
     5
 72
     5
  1
50
 73
     1
 44
1.0
1001
ACAD
1000
MTEXTBEGIN
1070
    73
1070
     1
1070
    44
1040
1.0
1070
    74
1070
     0
1000
MTEXTEND
1000
ACAD_MTEXT_DEFINED_HEIGHT_BEGIN
1070
    46
1040
7.391999999988184
1000
ACAD_MTEXT_DEFINED_HEIGHT_END
  0
MTEXT
  5
F076
330
1F
100
AcDbEntity
  8
AM_6
 48
1.01
100
AcDbMText
 10
287.5274822124305
 20
30.87031824539736
 30
0.0
 40
3.2
 41
15.00000000000267
 71
     5
 72
     5
  1
100
 73
     1
 44
1.0
1001
ACAD
1000
MTEXTBEGIN
1070
    73
1070
     1
1070
    44
1040
1.0
1070
    74
1070
     0
1000
MTEXTEND
1000
ACAD_MTEXT_DEFINED_HEIGHT_BEGIN
1070
    46
1040
7.39200000001365
1000
ACAD_MTEXT_DEFINED_HEIGHT_END
  0
MTEXT
  5
F077
330
1F
100
AcDbEntity
  8
AM_6
 48
1.01
100
AcDbMText
 10
287.5274822124279
 20
119.5743182454007
 30
0.0
 40
3.2
 41
14.99999999999755
 71
     5
 72
     5
  1
50
 73
     1
 44
1.0
1001
ACAD
1000
MTEXTBEGIN
1070
    73
1070
     1
1070
    44
1040
1.0
1070
    74
1070
     0
1000
MTEXTEND
1000
ACAD_MTEXT_DEFINED_HEIGHT_BEGIN
1070
    46
1040
7.392000000000917
1000
ACAD_MTEXT_DEFINED_HEIGHT_END
  0
LINE
  5
F078
330
1F
100
AcDbEntity
  8
AM_4
100
AcDbLine
 10
92.02748221243325
 20
101.0943182453947
 30
0.0
 11
160.0274822124295
 21
101.0943182453929
 31
0.0
  0
MTEXT
  5
F079
330
1F
100
AcDbEntity
  8
AM_6
 48
1.01
100
AcDbMText
 10
167.5274822124296
 20
104.7903182453974
 30
0.0
 40
3.2
 41
14.99999999999954
 71
     5
 72
     5
  1
M10
 73
     1
 44
1.0
1001
ACAD
1000
MTEXTBEGIN
1070
    73
1070
     1
1070
    44
1040
1.0
1070
    74
1070
     0
1000
MTEXTEND
1000
ACAD_MTEXT_DEFINED_HEIGHT_BEGIN
1070
    46
1040
7.392000000000917
1000
ACAD_MTEXT_DEFINED_HEIGHT_END
  0
MTEXT
  5
F07A
330
1F
100
AcDbEntity
  8
AM_6
 48
1.01
100
AcDbMText
 10
182.5274822124294
 20
104.7903182453974
 30
0.0
 40
3.2
 41
15.00000000000006
 71
     5
 72
     5
  1
41
 73
     1
 44
1.0
1001
ACAD
1000
MTEXTBEGIN
1070
    73
1070
     1
1070
    44
1040
1.0
1070
    74
1070
     0
1000
MTEXTEND
1000
ACAD_MTEXT_DEFINED_HEIGHT_BEGIN
1070
    46
1040
7.392000000000917
1000
ACAD_MTEXT_DEFINED_HEIGHT_END
  0
MTEXT
  5
F07B
330
1F
100
AcDbEntity
  8
AM_6
 48
1.01
100
AcDbMText
 10
197.5274822124294
 20
104.7903182453974
 30
0.0
 40
3.2
 41
15.00000000000006
 71
     5
 72
     5
  1
25
 73
     1
 44
1.0
1001
ACAD
1000
MTEXTBEGIN
1070
    73
1070
     1
1070
    44
1040
1.0
1070
    74
1070
     0
1000
MTEXTEND
1000
ACAD_MTEXT_DEFINED_HEIGHT_BEGIN
1070
    46
1040
7.392000000000917
1000
ACAD_MTEXT_DEFINED_HEIGHT_END
  0
MTEXT
  5
F07C
330
1F
100
AcDbEntity
  8
AM_6
 48
1.01
100
AcDbMText
 10
212.5274822124294
 20
104.7903182453974
 30
0.0
 40
3.2
 41
15.00000000000006
 71
     5
 72
     5
  1
8
 73
     1
 44
1.0
1001
ACAD
1000
MTEXTBEGIN
1070
    73
1070
     1
1070
    44
1040
1.0
1070
    74
1070
     0
1000
MTEXTEND
1000
ACAD_MTEXT_DEFINED_HEIGHT_BEGIN
1070
    46
1040
7.392000000000917
1000
ACAD_MTEXT_DEFINED_HEIGHT_END
  0
MTEXT
  5
F07D
330
1F
100
AcDbEntity
  8
AM_6
 48
1.01
100
AcDbMText
 10
227.5274822124294
 20
104.7903182453974
 30
0.0
 40
3.2
 41
14.99999999999988
 71
     5
 72
     5
  1
20
 73
     1
 44
1.0
1001
ACAD
1000
MTEXTBEGIN
1070
    73
1070
     1
1070
    44
1040
1.0
1070
    74
1070
     0
1000
MTEXTEND
1000
ACAD_MTEXT_DEFINED_HEIGHT_BEGIN
1070
    46
1040
7.392000000006374
1000
ACAD_MTEXT_DEFINED_HEIGHT_END
  0
MTEXT
  5
F07E
330
1F
100
AcDbEntity
  8
AM_6
 48
1.01
100
AcDbMText
 10
242.5274822124294
 20
104.7903182453974
 30
0.0
 40
3.2
 41
15.00000000000006
 71
     5
 72
     5
  1
7
 73
     1
 44
1.0
1001
ACAD
1000
MTEXTBEGIN
1070
    73
1070
     1
1070
    44
1040
1.0
1070
    74
1070
     0
1000
MTEXTEND
1000
ACAD_MTEXT_DEFINED_HEIGHT_BEGIN
1070
    46
1040
7.392000000000917
1000
ACAD_MTEXT_DEFINED_HEIGHT_END
  0
MTEXT
  5
F07F
330
1F
100
AcDbEntity
  8
AM_6
 48
1.01
100
AcDbMText
 10
257.5274822124294
 20
104.7903182453974
 30
0.0
 40
3.2
 41
15.00000000000006
 71
     5
 72
     5
  1
21
 73
     1
 44
1.0
1001
ACAD
1000
MTEXTBEGIN
1070
    73
1070
     1
1070
    44
1040
1.0
1070
    74
1070
     0
1000
MTEXTEND
1000
ACAD_MTEXT_DEFINED_HEIGHT_BEGIN
1070
    46
1040
7.392000000000917
1000
ACAD_MTEXT_DEFINED_HEIGHT_END
  0
MTEXT
  5
F080
330
1F
100
AcDbEntity
  8
AM_6
 48
1.01
100
AcDbMText
 10
272.5274822124294
 20
104.7903182453974
 30
0.0
 40
3.2
 41
15.00000000000006
 71
     5
 72
     5
  1
41.5
 73
     1
 44
1.0
1001
ACAD
1000
MTEXTBEGIN
1070
    73
1070
     1
1070
    44
1040
1.0
1070
    74
1070
     0
1000
MTEXTEND
1000
ACAD_MTEXT_DEFINED_HEIGHT_BEGIN
1070
    46
1040
7.392000000000917
1000
ACAD_MTEXT_DEFINED_HEIGHT_END
  0
MTEXT
  5
F081
330
1F
100
AcDbEntity
  8
AM_6
 48
1.01
100
AcDbMText
 10
307.5274822124294
 20
104.7903182453974
 30
0.0
 40
3.2
 41
24.99999999999995
 71
     5
 72
     5
  1
150（1.47）
 73
     1
 44
1.0
1001
ACAD
1000
MTEXTBEGIN
1070
    73
1070
     1
1070
    44
1040
1.0
1070
    74
1070
     0
1000
MTEXTEND
1000
ACAD_MTEXT_DEFINED_HEIGHT_BEGIN
1070
    46
1040
7.391999999999098
1000
ACAD_MTEXT_DEFINED_HEIGHT_END
  0
MTEXT
  5
F082
330
1F
100
AcDbEntity
  8
AM_6
 48
1.01
100
AcDbMText
 10
332.5274822124294
 20
104.7903182453974
 30
0.0
 40
3.2
 41
24.99999999999995
 71
     5
 72
     5
  1
150（1.47）
 73
     1
 44
1.0
1001
ACAD
1000
MTEXTBEGIN
1070
    73
1070
     1
1070
    44
1040
1.0
1070
    74
1070
     0
1000
MTEXTEND
1000
ACAD_MTEXT_DEFINED_HEIGHT_BEGIN
1070
    46
1040
7.391999999999098
1000
ACAD_MTEXT_DEFINED_HEIGHT_END
  0
MTEXT
  5
F083
330
1F
100
AcDbEntity
  8
AM_6
 48
1.01
100
AcDbMText
 10
143.0274822124307
 20
104.7903182453956
 30
0.0
 40
3.2
 41
33.99999999999688
 71
     5
 72
     5
  1
EB-901S-1040
 73
     1
 44
1.0
1001
ACAD
1000
MTEXTBEGIN
1070
    73
1070
     1
1070
    44
1040
1.0
1070
    74
1070
     0
1000
MTEXTEND
1000
ACAD_MTEXT_DEFINED_HEIGHT_BEGIN
1070
    46
1040
7.39199999999546
1000
ACAD_MTEXT_DEFINED_HEIGHT_END
  0
MTEXT
  5
F084
330
1F
100
AcDbEntity
  8
AM_6
 48
1.01
100
AcDbMText
 10
287.5274822124298
 20
104.7903182453938
 30
0.0
 40
3.2
 41
14.99999999999971
 71
     5
 72
     5
  1
40
 73
     1
 44
1.0
1001
ACAD
1000
MTEXTBEGIN
1070
    73
1070
     1
1070
    44
1040
1.0
1070
    74
1070
     0
1000
MTEXTEND
1000
ACAD_MTEXT_DEFINED_HEIGHT_BEGIN
1070
    46
1040
7.392000000000917
1000
ACAD_MTEXT_DEFINED_HEIGHT_END
  0
LINE
  5
F085
330
1F
100
AcDbEntity
  8
AM_4
100
AcDbLine
 10
92.02748221243304
 20
108.4863182453946
 30
0.0
 11
160.0274822124293
 21
108.4863182453928
 31
0.0
  0
MTEXT
  5
F090
330
1F
100
AcDbEntity
  8
AM_6
 48
1.01
100
AcDbMText
 10
143.0274822124301
 20
112.1823182453954
 30
0.0
 40
3.2
 41
33.99999999999688
 71
     5
 72
     5
  1
EB-901S-1030
 73
     1
 44
1.0
1001
ACAD
1000
MTEXTBEGIN
1070
    73
1070
     1
1070
    44
1040
1.0
1070
    74
1070
     0
1000
MTEXTEND
1000
ACAD_MTEXT_DEFINED_HEIGHT_BEGIN
1070
    46
1040
7.392000000002736
1000
ACAD_MTEXT_DEFINED_HEIGHT_END
  0
MTEXT
  5
F091
330
1F
100
AcDbEntity
  8
AM_6
 48
1.01
100
AcDbMText
 10
287.5274822124293
 20
112.1823182453936
 30
0.0
 40
3.2
 41
14.99999999999971
 71
     5
 72
     5
  1
30
 73
     1
 44
1.0
1001
ACAD
1000
MTEXTBEGIN
1070
    73
1070
     1
1070
    44
1040
1.0
1070
    74
1070
     0
1000
MTEXTEND
1000
ACAD_MTEXT_DEFINED_HEIGHT_BEGIN
1070
    46
1040
7.392000000000917
1000
ACAD_MTEXT_DEFINED_HEIGHT_END
  0
LINE
  5
F092
330
1F
100
AcDbEntity
  8
AM_4
100
AcDbLine
 10
92.0274822124335
 20
93.70231824540033
 30
0.0
 11
345.0274822124304
 21
93.70231824539406
 31
0.0
  0
MTEXT
  5
F09D
330
1F
100
AcDbEntity
  8
AM_6
 48
1.01
100
AcDbMText
 10
143.0274822124311
 20
97.39831824540306
 30
0.0
 40
3.2
 41
33.99999999999665
 71
     5
 72
     5
  1
EB-901S-1050
 73
     1
 44
1.0
1001
ACAD
1000
MTEXTBEGIN
1070
    73
1070
     1
1070
    44
1040
1.0
1070
    74
1070
     0
1000
MTEXTEND
1000
ACAD_MTEXT_DEFINED_HEIGHT_BEGIN
1070
    46
1040
7.391999999999098
1000
ACAD_MTEXT_DEFINED_HEIGHT_END
  0
MTEXT
  5
F09E
330
1F
100
AcDbEntity
  8
AM_6
 48
1.01
100
AcDbMText
 10
287.5274822124303
 20
97.39831824539942
 30
0.0
 40
3.2
 41
14.99999999999971
 71
     5
 72
     5
  1
50
 73
     1
 44
1.0
1001
ACAD
1000
MTEXTBEGIN
1070
    73
1070
     1
1070
    44
1040
1.0
1070
    74
1070
     0
1000
MTEXTEND
1000
ACAD_MTEXT_DEFINED_HEIGHT_BEGIN
1070
    46
1040
7.392000000000917
1000
ACAD_MTEXT_DEFINED_HEIGHT_END
  0
LINE
  5
F09F
330
1F
100
AcDbEntity
  8
AM_4
100
AcDbLine
 10
92.02748221243394
 20
78.91831824539497
 30
0.0
 11
160.0274822124302
 21
78.91831824539394
 31
0.0
  0
MTEXT
  5
F0A0
330
1F
100
AcDbEntity
  8
AM_6
 48
1.01
100
AcDbMText
 10
167.5274822124305
 20
82.61431824539432
 30
0.0
 40
3.2
 41
14.99999999999954
 71
     5
 72
     5
  1
M12
 73
     1
 44
1.0
1001
ACAD
1000
MTEXTBEGIN
1070
    73
1070
     1
1070
    44
1040
1.0
1070
    74
1070
     0
1000
MTEXTEND
1000
ACAD_MTEXT_DEFINED_HEIGHT_BEGIN
1070
    46
1040
7.391999999997279
1000
ACAD_MTEXT_DEFINED_HEIGHT_END
  0
MTEXT
  5
F0A1
330
1F
100
AcDbEntity
  8
AM_6
 48
1.01
100
AcDbMText
 10
182.5274822124301
 20
82.61431824539613
 30
0.0
 40
3.2
 41
15.00000000000006
 71
     5
 72
     5
  1
50
 73
     1
 44
1.0
1001
ACAD
1000
MTEXTBEGIN
1070
    73
1070
     1
1070
    44
1040
1.0
1070
    74
1070
     0
1000
MTEXTEND
1000
ACAD_MTEXT_DEFINED_HEIGHT_BEGIN
1070
    46
1040
7.392000000000917
1000
ACAD_MTEXT_DEFINED_HEIGHT_END
  0
MTEXT
  5
F0A2
330
1F
100
AcDbEntity
  8
AM_6
 48
1.01
100
AcDbMText
 10
197.5274822124301
 20
82.61431824539613
 30
0.0
 40
3.2
 41
15.00000000000006
 71
     5
 72
     5
  1
30
 73
     1
 44
1.0
1001
ACAD
1000
MTEXTBEGIN
1070
    73
1070
     1
1070
    44
1040
1.0
1070
    74
1070
     0
1000
MTEXTEND
1000
ACAD_MTEXT_DEFINED_HEIGHT_BEGIN
1070
    46
1040
7.392000000000917
1000
ACAD_MTEXT_DEFINED_HEIGHT_END
  0
MTEXT
  5
F0A3
330
1F
100
AcDbEntity
  8
AM_6
 48
1.01
100
AcDbMText
 10
212.5274822124301
 20
82.61431824539613
 30
0.0
 40
3.2
 41
15.00000000000006
 71
     5
 72
     5
  1
10
 73
     1
 44
1.0
1001
ACAD
1000
MTEXTBEGIN
1070
    73
1070
     1
1070
    44
1040
1.0
1070
    74
1070
     0
1000
MTEXTEND
1000
ACAD_MTEXT_DEFINED_HEIGHT_BEGIN
1070
    46
1040
7.392000000000917
1000
ACAD_MTEXT_DEFINED_HEIGHT_END
  0
MTEXT
  5
F0A4
330
1F
100
AcDbEntity
  8
AM_6
 48
1.01
100
AcDbMText
 10
227.5274822124303
 20
82.61431824539796
 30
0.0
 40
3.2
 41
14.99999999999988
 71
     5
 72
     5
  1
25
 73
     1
 44
1.0
1001
ACAD
1000
MTEXTBEGIN
1070
    73
1070
     1
1070
    44
1040
1.0
1070
    74
1070
     0
1000
MTEXTEND
1000
ACAD_MTEXT_DEFINED_HEIGHT_BEGIN
1070
    46
1040
7.39199999999546
1000
ACAD_MTEXT_DEFINED_HEIGHT_END
  0
MTEXT
  5
F0A5
330
1F
100
AcDbEntity
  8
AM_6
 48
1.01
100
AcDbMText
 10
242.5274822124301
 20
82.61431824539613
 30
0.0
 40
3.2
 41
15.00000000000006
 71
     5
 72
     5
  1
9
 73
     1
 44
1.0
1001
ACAD
1000
MTEXTBEGIN
1070
    73
1070
     1
1070
    44
1040
1.0
1070
    74
1070
     0
1000
MTEXTEND
1000
ACAD_MTEXT_DEFINED_HEIGHT_BEGIN
1070
    46
1040
7.392000000000917
1000
ACAD_MTEXT_DEFINED_HEIGHT_END
  0
MTEXT
  5
F0A6
330
1F
100
AcDbEntity
  8
AM_6
 48
1.01
100
AcDbMText
 10
257.5274822124301
 20
82.61431824539613
 30
0.0
 40
3.2
 41
15.00000000000006
 71
     5
 72
     5
  1
26
 73
     1
 44
1.0
1001
ACAD
1000
MTEXTBEGIN
1070
    73
1070
     1
1070
    44
1040
1.0
1070
    74
1070
     0
1000
MTEXTEND
1000
ACAD_MTEXT_DEFINED_HEIGHT_BEGIN
1070
    46
1040
7.392000000000917
1000
ACAD_MTEXT_DEFINED_HEIGHT_END
  0
MTEXT
  5
F0A7
330
1F
100
AcDbEntity
  8
AM_6
 48
1.01
100
AcDbMText
 10
272.5274822124301
 20
82.61431824539613
 30
0.0
 40
3.2
 41
15.00000000000006
 71
     5
 72
     5
  1
51
 73
     1
 44
1.0
1001
ACAD
1000
MTEXTBEGIN
1070
    73
1070
     1
1070
    44
1040
1.0
1070
    74
1070
     0
1000
MTEXTEND
1000
ACAD_MTEXT_DEFINED_HEIGHT_BEGIN
1070
    46
1040
7.392000000000917
1000
ACAD_MTEXT_DEFINED_HEIGHT_END
  0
MTEXT
  5
F0A8
330
1F
100
AcDbEntity
  8
AM_6
 48
1.01
100
AcDbMText
 10
307.5274822124301
 20
82.61431824539613
 30
0.0
 40
3.2
 41
25.00000000000006
 71
     5
 72
     5
  1
220（2.16）
 73
     1
 44
1.0
1001
ACAD
1000
MTEXTBEGIN
1070
    73
1070
     1
1070
    44
1040
1.0
1070
    74
1070
     0
1000
MTEXTEND
1000
ACAD_MTEXT_DEFINED_HEIGHT_BEGIN
1070
    46
1040
7.392000000000917
1000
ACAD_MTEXT_DEFINED_HEIGHT_END
  0
MTEXT
  5
F0A9
330
1F
100
AcDbEntity
  8
AM_6
 48
1.01
100
AcDbMText
 10
332.5274822124301
 20
82.61431824539613
 30
0.0
 40
3.2
 41
25.00000000000006
 71
     5
 72
     5
  1
220（2.16）
 73
     1
 44
1.0
1001
ACAD
1000
MTEXTBEGIN
1070
    73
1070
     1
1070
    44
1040
1.0
1070
    74
1070
     0
1000
MTEXTEND
1000
ACAD_MTEXT_DEFINED_HEIGHT_BEGIN
1070
    46
1040
7.392000000000917
1000
ACAD_MTEXT_DEFINED_HEIGHT_END
  0
MTEXT
  5
F0AA
330
1F
100
AcDbEntity
  8
AM_6
 48
1.01
100
AcDbMText
 10
143.027482212432
 20
82.61431824539613
 30
0.0
 40
3.2
 41
33.99999999999631
 71
     5
 72
     5
  1
EB-901S-1240
 73
     1
 44
1.0
1001
ACAD
1000
MTEXTBEGIN
1070
    73
1070
     1
1070
    44
1040
1.0
1070
    74
1070
     0
1000
MTEXTEND
1000
ACAD_MTEXT_DEFINED_HEIGHT_BEGIN
1070
    46
1040
7.392000000004555
1000
ACAD_MTEXT_DEFINED_HEIGHT_END
  0
MTEXT
  5
F0AB
330
1F
100
AcDbEntity
  8
AM_6
 48
1.01
100
AcDbMText
 10
287.527482212431
 20
82.61431824539977
 30
0.0
 40
3.2
 41
14.99999999999971
 71
     5
 72
     5
  1
40
 73
     1
 44
1.0
1001
ACAD
1000
MTEXTBEGIN
1070
    73
1070
     1
1070
    44
1040
1.0
1070
    74
1070
     0
1000
MTEXTEND
1000
ACAD_MTEXT_DEFINED_HEIGHT_BEGIN
1070
    46
1040
7.392000000000917
1000
ACAD_MTEXT_DEFINED_HEIGHT_END
  0
LINE
  5
F0AC
330
1F
100
AcDbEntity
  8
AM_4
100
AcDbLine
 10
92.02748221243371
 20
86.31031824539485
 30
0.0
 11
160.02748221243
 21
86.31031824539366
 31
0.0
  0
MTEXT
  5
F0B7
330
1F
100
AcDbEntity
  8
AM_6
 48
1.01
100
AcDbMText
 10
143.0274822124317
 20
90.0063182453996
 30
0.0
 40
3.2
 41
33.99999999999574
 71
     5
 72
     5
  1
EB-901S-1230
 73
     1
 44
1.0
1001
ACAD
1000
MTEXTBEGIN
1070
    73
1070
     1
1070
    44
1040
1.0
1070
    74
1070
     0
1000
MTEXTEND
1000
ACAD_MTEXT_DEFINED_HEIGHT_BEGIN
1070
    46
1040
7.391999999999098
1000
ACAD_MTEXT_DEFINED_HEIGHT_END
  0
MTEXT
  5
F0B8
330
1F
100
AcDbEntity
  8
AM_6
 48
1.01
100
AcDbMText
 10
287.527482212431
 20
90.0063182453996
 30
0.0
 40
3.2
 41
14.99999999999971
 71
     5
 72
     5
  1
30
 73
     1
 44
1.0
1001
ACAD
1000
MTEXTBEGIN
1070
    73
1070
     1
1070
    44
1040
1.0
1070
    74
1070
     0
1000
MTEXTEND
1000
ACAD_MTEXT_DEFINED_HEIGHT_BEGIN
1070
    46
1040
7.392000000000917
1000
ACAD_MTEXT_DEFINED_HEIGHT_END
  0
LINE
  5
F0B9
330
1F
100
AcDbEntity
  8
AM_4
100
AcDbLine
 10
92.02748221243441
 20
64.13431824539504
 30
0.0
 11
160.0274822124307
 21
64.13431824539447
 31
0.0
  0
MTEXT
  5
F0BA
330
1F
100
AcDbEntity
  8
AM_6
 48
1.01
100
AcDbMText
 10
167.5274822124302
 20
64.13431824539441
 30
0.0
 40
3.2
 41
14.9999999999996
 71
     5
 72
     5
  1
M16
 73
     1
 44
1.0
1001
ACAD
1000
MTEXTBEGIN
1070
    73
1070
     1
1070
    44
1040
1.0
1070
    74
1070
     0
1000
MTEXTEND
1000
ACAD_MTEXT_DEFINED_HEIGHT_BEGIN
1070
    46
1040
7.391999999999098
1000
ACAD_MTEXT_DEFINED_HEIGHT_END
  0
MTEXT
  5
F0BB
330
1F
100
AcDbEntity
  8
AM_6
 48
1.01
100
AcDbMText
 10
182.52748221243
 20
64.13431824539429
 30
0.0
 40
3.2
 41
15.00000000000006
 71
     5
 72
     5
  1
60
 73
     1
 44
1.0
1001
ACAD
1000
MTEXTBEGIN
1070
    73
1070
     1
1070
    44
1040
1.0
1070
    74
1070
     0
1000
MTEXTEND
1000
ACAD_MTEXT_DEFINED_HEIGHT_BEGIN
1070
    46
1040
7.392000000000917
1000
ACAD_MTEXT_DEFINED_HEIGHT_END
  0
MTEXT
  5
F0BC
330
1F
100
AcDbEntity
  8
AM_6
 48
1.01
100
AcDbMText
 10
197.52748221243
 20
64.13431824539419
 30
0.0
 40
3.2
 41
15.00000000000006
 71
     5
 72
     5
  1
35
 73
     1
 44
1.0
1001
ACAD
1000
MTEXTBEGIN
1070
    73
1070
     1
1070
    44
1040
1.0
1070
    74
1070
     0
1000
MTEXTEND
1000
ACAD_MTEXT_DEFINED_HEIGHT_BEGIN
1070
    46
1040
7.392000000000917
1000
ACAD_MTEXT_DEFINED_HEIGHT_END
  0
MTEXT
  5
F0BD
330
1F
100
AcDbEntity
  8
AM_6
 48
1.01
100
AcDbMText
 10
212.52748221243
 20
64.13431824539407
 30
0.0
 40
3.2
 41
15.00000000000006
 71
     5
 72
     5
  1
12.5
 73
     1
 44
1.0
1001
ACAD
1000
MTEXTBEGIN
1070
    73
1070
     1
1070
    44
1040
1.0
1070
    74
1070
     0
1000
MTEXTEND
1000
ACAD_MTEXT_DEFINED_HEIGHT_BEGIN
1070
    46
1040
7.392000000000917
1000
ACAD_MTEXT_DEFINED_HEIGHT_END
  0
MTEXT
  5
F0BE
330
1F
100
AcDbEntity
  8
AM_6
 48
1.01
100
AcDbMText
 10
227.5274822124303
 20
64.13431824539395
 30
0.0
 40
3.2
 41
14.99999999999988
 71
     5
 72
     5
  1
30
 73
     1
 44
1.0
1001
ACAD
1000
MTEXTBEGIN
1070
    73
1070
     1
1070
    44
1040
1.0
1070
    74
1070
     0
1000
MTEXTEND
1000
ACAD_MTEXT_DEFINED_HEIGHT_BEGIN
1070
    46
1040
7.392000000000917
1000
ACAD_MTEXT_DEFINED_HEIGHT_END
  0
MTEXT
  5
F0BF
330
1F
100
AcDbEntity
  8
AM_6
 48
1.01
100
AcDbMText
 10
242.52748221243
 20
64.13431824539384
 30
0.0
 40
3.2
 41
15.00000000000006
 71
     5
 72
     5
  1
11
 73
     1
 44
1.0
1001
ACAD
1000
MTEXTBEGIN
1070
    73
1070
     1
1070
    44
1040
1.0
1070
    74
1070
     0
1000
MTEXTEND
1000
ACAD_MTEXT_DEFINED_HEIGHT_BEGIN
1070
    46
1040
7.392000000000917
1000
ACAD_MTEXT_DEFINED_HEIGHT_END
  0
MTEXT
  5
F0C0
330
1F
100
AcDbEntity
  8
AM_6
 48
1.01
100
AcDbMText
 10
257.5274822124301
 20
64.13431824539362
 30
0.0
 40
3.2
 41
15.00000000000006
 71
     5
 72
     5
  1
30
 73
     1
 44
1.0
1001
ACAD
1000
MTEXTBEGIN
1070
    73
1070
     1
1070
    44
1040
1.0
1070
    74
1070
     0
1000
MTEXTEND
1000
ACAD_MTEXT_DEFINED_HEIGHT_BEGIN
1070
    46
1040
7.392000000000917
1000
ACAD_MTEXT_DEFINED_HEIGHT_END
  0
MTEXT
  5
F0C1
330
1F
100
AcDbEntity
  8
AM_6
 48
1.01
100
AcDbMText
 10
272.5274822124301
 20
64.13431824539356
 30
0.0
 40
3.2
 41
15.00000000000006
 71
     5
 72
     5
  1
60
 73
     1
 44
1.0
1001
ACAD
1000
MTEXTBEGIN
1070
    73
1070
     1
1070
    44
1040
1.0
1070
    74
1070
     0
1000
MTEXTEND
1000
ACAD_MTEXT_DEFINED_HEIGHT_BEGIN
1070
    46
1040
7.392000000000917
1000
ACAD_MTEXT_DEFINED_HEIGHT_END
  0
MTEXT
  5
F0C2
330
1F
100
AcDbEntity
  8
AM_6
 48
1.01
100
AcDbMText
 10
307.5274822124301
 20
64.13431824539322
 30
0.0
 40
3.2
 41
25.00000000000006
 71
     5
 72
     5
  1
450（4.41）
 73
     1
 44
1.0
1001
ACAD
1000
MTEXTBEGIN
1070
    73
1070
     1
1070
    44
1040
1.0
1070
    74
1070
     0
1000
MTEXTEND
1000
ACAD_MTEXT_DEFINED_HEIGHT_BEGIN
1070
    46
1040
7.392000000000917
1000
ACAD_MTEXT_DEFINED_HEIGHT_END
  0
MTEXT
  5
F0C3
330
1F
100
AcDbEntity
  8
AM_6
 48
1.01
100
AcDbMText
 10
332.52748221243
 20
64.13431824539305
 30
0.0
 40
3.2
 41
25.00000000000006
 71
     5
 72
     5
  1
450（4.41）
 73
     1
 44
1.0
1001
ACAD
1000
MTEXTBEGIN
1070
    73
1070
     1
1070
    44
1040
1.0
1070
    74
1070
     0
1000
MTEXTEND
1000
ACAD_MTEXT_DEFINED_HEIGHT_BEGIN
1070
    46
1040
7.392000000000917
1000
ACAD_MTEXT_DEFINED_HEIGHT_END
  0
MTEXT
  5
F0C4
330
1F
100
AcDbEntity
  8
AM_6
 48
1.01
100
AcDbMText
 10
143.0274822124322
 20
67.83031824539467
 30
0.0
 40
3.2
 41
33.99999999999653
 71
     5
 72
     5
  1
EB-901S-1640
 73
     1
 44
1.0
1001
ACAD
1000
MTEXTBEGIN
1070
    73
1070
     1
1070
    44
1040
1.0
1070
    74
1070
     0
1000
MTEXTEND
1000
ACAD_MTEXT_DEFINED_HEIGHT_BEGIN
1070
    46
1040
7.391999999999098
1000
ACAD_MTEXT_DEFINED_HEIGHT_END
  0
MTEXT
  5
F0C5
330
1F
100
AcDbEntity
  8
AM_6
 48
1.01
100
AcDbMText
 10
287.5274822124314
 20
67.83031824539285
 30
0.0
 40
3.2
 41
15.00000000000176
 71
     5
 72
     5
  1
40
 73
     1
 44
1.0
1001
ACAD
1000
MTEXTBEGIN
1070
    73
1070
     1
1070
    44
1040
1.0
1070
    74
1070
     0
1000
MTEXTEND
1000
ACAD_MTEXT_DEFINED_HEIGHT_BEGIN
1070
    46
1040
7.392000000000917
1000
ACAD_MTEXT_DEFINED_HEIGHT_END
  0
LINE
  5
F0C6
330
1F
100
AcDbEntity
  8
AM_4
100
AcDbLine
 10
92.02748221243487
 20
49.35031824539539
 30
0.0
 11
160.0274822124312
 21
49.35031824539482
 31
0.0
  0
MTEXT
  5
F0C7
330
1F
100
AcDbEntity
  8
AM_6
 48
1.01
100
AcDbMText
 10
167.5274822124312
 20
49.3503182453947
 30
0.0
 40
3.2
 41
14.9999999999996
 71
     5
 72
     5
  1
M20
 73
     1
 44
1.0
1001
ACAD
1000
MTEXTBEGIN
1070
    73
1070
     1
1070
    44
1040
1.0
1070
    74
1070
     0
1000
MTEXTEND
1000
ACAD_MTEXT_DEFINED_HEIGHT_BEGIN
1070
    46
1040
7.391999999999098
1000
ACAD_MTEXT_DEFINED_HEIGHT_END
  0
MTEXT
  5
F0C8
330
1F
100
AcDbEntity
  8
AM_6
 48
1.01
100
AcDbMText
 10
182.5274822124307
 20
49.35031824539459
 30
0.0
 40
3.2
 41
15.00000000000006
 71
     5
 72
     5
  1
72
 73
     1
 44
1.0
1001
ACAD
1000
MTEXTBEGIN
1070
    73
1070
     1
1070
    44
1040
1.0
1070
    74
1070
     0
1000
MTEXTEND
1000
ACAD_MTEXT_DEFINED_HEIGHT_BEGIN
1070
    46
1040
7.392000000000917
1000
ACAD_MTEXT_DEFINED_HEIGHT_END
  0
MTEXT
  5
F0C9
330
1F
100
AcDbEntity
  8
AM_6
 48
1.01
100
AcDbMText
 10
197.5274822124307
 20
49.35031824539447
 30
0.0
 40
3.2
 41
15.00000000000006
 71
     5
 72
     5
  1
40
 73
     1
 44
1.0
1001
ACAD
1000
MTEXTBEGIN
1070
    73
1070
     1
1070
    44
1040
1.0
1070
    74
1070
     0
1000
MTEXTEND
1000
ACAD_MTEXT_DEFINED_HEIGHT_BEGIN
1070
    46
1040
7.392000000000917
1000
ACAD_MTEXT_DEFINED_HEIGHT_END
  0
MTEXT
  5
F0CA
330
1F
100
AcDbEntity
  8
AM_6
 48
1.01
100
AcDbMText
 10
212.5274822124307
 20
49.35031824539436
 30
0.0
 40
3.2
 41
15.00000000000006
 71
     5
 72
     5
  1
16
 73
     1
 44
1.0
1001
ACAD
1000
MTEXTBEGIN
1070
    73
1070
     1
1070
    44
1040
1.0
1070
    74
1070
     0
1000
MTEXTEND
1000
ACAD_MTEXT_DEFINED_HEIGHT_BEGIN
1070
    46
1040
7.392000000000917
1000
ACAD_MTEXT_DEFINED_HEIGHT_END
  0
MTEXT
  5
F0CB
330
1F
100
AcDbEntity
  8
AM_6
 48
1.01
100
AcDbMText
 10
227.527482212431
 20
49.35031824539425
 30
0.0
 40
3.2
 41
14.99999999999988
 71
     5
 72
     5
  1
35
 73
     1
 44
1.0
1001
ACAD
1000
MTEXTBEGIN
1070
    73
1070
     1
1070
    44
1040
1.0
1070
    74
1070
     0
1000
MTEXTEND
1000
ACAD_MTEXT_DEFINED_HEIGHT_BEGIN
1070
    46
1040
7.392000000000917
1000
ACAD_MTEXT_DEFINED_HEIGHT_END
  0
MTEXT
  5
F0CC
330
1F
100
AcDbEntity
  8
AM_6
 48
1.01
100
AcDbMText
 10
242.5274822124308
 20
49.35031824539414
 30
0.0
 40
3.2
 41
15.00000000000006
 71
     5
 72
     5
  1
13
 73
     1
 44
1.0
1001
ACAD
1000
MTEXTBEGIN
1070
    73
1070
     1
1070
    44
1040
1.0
1070
    74
1070
     0
1000
MTEXTEND
1000
ACAD_MTEXT_DEFINED_HEIGHT_BEGIN
1070
    46
1040
7.392000000000917
1000
ACAD_MTEXT_DEFINED_HEIGHT_END
  0
MTEXT
  5
F0CD
330
1F
100
AcDbEntity
  8
AM_6
 48
1.01
100
AcDbMText
 10
257.5274822124308
 20
49.35031824539402
 30
0.0
 40
3.2
 41
15.00000000000006
 71
     5
 72
     5
  1
35
 73
     1
 44
1.0
1001
ACAD
1000
MTEXTBEGIN
1070
    73
1070
     1
1070
    44
1040
1.0
1070
    74
1070
     0
1000
MTEXTEND
1000
ACAD_MTEXT_DEFINED_HEIGHT_BEGIN
1070
    46
1040
7.392000000000917
1000
ACAD_MTEXT_DEFINED_HEIGHT_END
  0
MTEXT
  5
F0CE
330
1F
100
AcDbEntity
  8
AM_6
 48
1.01
100
AcDbMText
 10
272.5274822124307
 20
49.35031824539385
 30
0.0
 40
3.2
 41
15.00000000000006
 71
     5
 72
     5
  1
71
 73
     1
 44
1.0
1001
ACAD
1000
MTEXTBEGIN
1070
    73
1070
     1
1070
    44
1040
1.0
1070
    74
1070
     0
1000
MTEXTEND
1000
ACAD_MTEXT_DEFINED_HEIGHT_BEGIN
1070
    46
1040
7.392000000000917
1000
ACAD_MTEXT_DEFINED_HEIGHT_END
  0
MTEXT
  5
F0CF
330
1F
100
AcDbEntity
  8
AM_6
 48
1.01
100
AcDbMText
 10
307.5274822124307
 20
49.35031824539357
 30
0.0
 40
3.2
 41
25.00000000000006
 71
     5
 72
     5
  1
630（6.18）
 73
     1
 44
1.0
1001
ACAD
1000
MTEXTBEGIN
1070
    73
1070
     1
1070
    44
1040
1.0
1070
    74
1070
     0
1000
MTEXTEND
1000
ACAD_MTEXT_DEFINED_HEIGHT_BEGIN
1070
    46
1040
7.392000000000917
1000
ACAD_MTEXT_DEFINED_HEIGHT_END
  0
MTEXT
  5
F0D0
330
1F
100
AcDbEntity
  8
AM_6
 48
1.01
100
AcDbMText
 10
332.5274822124308
 20
49.3503182453934
 30
0.0
 40
3.2
 41
25.00000000000006
 71
     5
 72
     5
  1
630（6.18）
 73
     1
 44
1.0
1001
ACAD
1000
MTEXTBEGIN
1070
    73
1070
     1
1070
    44
1040
1.0
1070
    74
1070
     0
1000
MTEXTEND
1000
ACAD_MTEXT_DEFINED_HEIGHT_BEGIN
1070
    46
1040
7.392000000000917
1000
ACAD_MTEXT_DEFINED_HEIGHT_END
  0
MTEXT
  5
F0D1
330
1F
100
AcDbEntity
  8
AM_6
 48
1.01
100
AcDbMText
 10
143.0274822124336
 20
53.0463182453932
 30
0.0
 40
3.2
 41
33.99999999999471
 71
     5
 72
     5
  1
EB-901S-2040
 73
     1
 44
1.0
1001
ACAD
1000
MTEXTBEGIN
1070
    73
1070
     1
1070
    44
1040
1.0
1070
    74
1070
     0
1000
MTEXTEND
1000
ACAD_MTEXT_DEFINED_HEIGHT_BEGIN
1070
    46
1040
7.392000000000917
1000
ACAD_MTEXT_DEFINED_HEIGHT_END
  0
MTEXT
  5
F0D2
330
1F
100
AcDbEntity
  8
AM_6
 48
1.01
100
AcDbMText
 10
287.5274822124328
 20
53.04631824538773
 30
0.0
 40
3.2
 41
15.00000000000176
 71
     5
 72
     5
  1
40
 73
     1
 44
1.0
1001
ACAD
1000
MTEXTBEGIN
1070
    73
1070
     1
1070
    44
1040
1.0
1070
    74
1070
     0
1000
MTEXTEND
1000
ACAD_MTEXT_DEFINED_HEIGHT_BEGIN
1070
    46
1040
7.392000000000917
1000
ACAD_MTEXT_DEFINED_HEIGHT_END
  0
LINE
  5
F0D3
330
1F
100
AcDbEntity
  8
AM_4
100
AcDbLine
 10
92.02748221243258
 20
123.2703182454081
 30
0.0
 11
160.0274822124288
 21
123.2703182454075
 31
0.0
  0
MTEXT
  5
F0D4
330
1F
100
AcDbEntity
  8
AM_6
 48
1.01
100
AcDbMText
 10
167.5274822124287
 20
123.2703182454075
 30
0.0
 40
3.2
 41
15.00000000000023
 71
     5
 72
     5
  1
M8
 73
     1
 44
1.0
1001
ACAD
1000
MTEXTBEGIN
1070
    73
1070
     1
1070
    44
1040
1.0
1070
    74
1070
     0
1000
MTEXTEND
1000
ACAD_MTEXT_DEFINED_HEIGHT_BEGIN
1070
    46
1040
7.392000000002736
1000
ACAD_MTEXT_DEFINED_HEIGHT_END
  0
MTEXT
  5
F0D5
330
1F
100
AcDbEntity
  8
AM_6
 48
1.01
100
AcDbMText
 10
307.5274822124284
 20
123.2703182454064
 30
0.0
 40
3.2
 41
24.99999999999995
 71
     5
 72
     5
  1
80（0.785）
 73
     1
 44
1.0
1001
ACAD
1000
MTEXTBEGIN
1070
    73
1070
     1
1070
    44
1040
1.0
1070
    74
1070
     0
1000
MTEXTEND
1000
ACAD_MTEXT_DEFINED_HEIGHT_BEGIN
1070
    46
1040
7.391999999999098
1000
ACAD_MTEXT_DEFINED_HEIGHT_END
  0
MTEXT
  5
F0D6
330
1F
100
AcDbEntity
  8
AM_6
 48
1.01
100
AcDbMText
 10
332.5274822124285
 20
123.2703182454062
 30
0.0
 40
3.2
 41
24.99999999999995
 71
     5
 72
     5
  1
80（0.785）
 73
     1
 44
1.0
1001
ACAD
1000
MTEXTBEGIN
1070
    73
1070
     1
1070
    44
1040
1.0
1070
    74
1070
     0
1000
MTEXTEND
1000
ACAD_MTEXT_DEFINED_HEIGHT_BEGIN
1070
    46
1040
7.391999999999098
1000
ACAD_MTEXT_DEFINED_HEIGHT_END
  0
MTEXT
  5
F0D7
330
1F
100
AcDbEntity
  8
AM_6
 48
1.01
100
AcDbMText
 10
182.5274822124287
 20
123.2703182454074
 30
0.0
 40
3.2
 41
15.00000000000006
 71
     5
 72
     5
  1
32.6
 73
     1
 44
1.0
1001
ACAD
1000
MTEXTBEGIN
1070
    73
1070
     1
1070
    44
1040
1.0
1070
    74
1070
     0
1000
MTEXTEND
1000
ACAD_MTEXT_DEFINED_HEIGHT_BEGIN
1070
    46
1040
7.392000000000917
1000
ACAD_MTEXT_DEFINED_HEIGHT_END
  0
MTEXT
  5
F0D8
330
1F
100
AcDbEntity
  8
AM_6
 48
1.01
100
AcDbMText
 10
197.5274822124287
 20
123.2703182454073
 30
0.0
 40
3.2
 41
15.00000000000006
 71
     5
 72
     5
  1
20
 73
     1
 44
1.0
1001
ACAD
1000
MTEXTBEGIN
1070
    73
1070
     1
1070
    44
1040
1.0
1070
    74
1070
     0
1000
MTEXTEND
1000
ACAD_MTEXT_DEFINED_HEIGHT_BEGIN
1070
    46
1040
7.392000000000917
1000
ACAD_MTEXT_DEFINED_HEIGHT_END
  0
MTEXT
  5
F0D9
330
1F
100
AcDbEntity
  8
AM_6
 48
1.01
100
AcDbMText
 10
212.5274822124287
 20
123.2703182454072
 30
0.0
 40
3.2
 41
15.00000000000006
 71
     5
 72
     5
  1
6.3
 73
     1
 44
1.0
1001
ACAD
1000
MTEXTBEGIN
1070
    73
1070
     1
1070
    44
1040
1.0
1070
    74
1070
     0
1000
MTEXTEND
1000
ACAD_MTEXT_DEFINED_HEIGHT_BEGIN
1070
    46
1040
7.392000000000917
1000
ACAD_MTEXT_DEFINED_HEIGHT_END
  0
MTEXT
  5
F0DA
330
1F
100
AcDbEntity
  8
AM_6
 48
1.01
100
AcDbMText
 10
227.5274822124287
 20
123.270318245407
 30
0.0
 40
3.2
 41
15.00000000000011
 71
     5
 72
     5
  1
16
 73
     1
 44
1.0
1001
ACAD
1000
MTEXTBEGIN
1070
    73
1070
     1
1070
    44
1040
1.0
1070
    74
1070
     0
1000
MTEXTEND
1000
ACAD_MTEXT_DEFINED_HEIGHT_BEGIN
1070
    46
1040
7.391999999999098
1000
ACAD_MTEXT_DEFINED_HEIGHT_END
  0
MTEXT
  5
F0DB
330
1F
100
AcDbEntity
  8
AM_6
 48
1.01
100
AcDbMText
 10
242.5274822124287
 20
123.2703182454069
 30
0.0
 40
3.2
 41
15.00000000000006
 71
     5
 72
     5
  1
5
 73
     1
 44
1.0
1001
ACAD
1000
MTEXTBEGIN
1070
    73
1070
     1
1070
    44
1040
1.0
1070
    74
1070
     0
1000
MTEXTEND
1000
ACAD_MTEXT_DEFINED_HEIGHT_BEGIN
1070
    46
1040
7.392000000000917
1000
ACAD_MTEXT_DEFINED_HEIGHT_END
  0
MTEXT
  5
F0DC
330
1F
100
AcDbEntity
  8
AM_6
 48
1.01
100
AcDbMText
 10
257.5274822124287
 20
123.2703182454068
 30
0.0
 40
3.2
 41
15.00000000000006
 71
     5
 72
     5
  1
17
 73
     1
 44
1.0
1001
ACAD
1000
MTEXTBEGIN
1070
    73
1070
     1
1070
    44
1040
1.0
1070
    74
1070
     0
1000
MTEXTEND
1000
ACAD_MTEXT_DEFINED_HEIGHT_BEGIN
1070
    46
1040
7.392000000000917
1000
ACAD_MTEXT_DEFINED_HEIGHT_END
  0
MTEXT
  5
F0DD
330
1F
100
AcDbEntity
  8
AM_6
 48
1.01
100
AcDbMText
 10
272.5274822124287
 20
123.2703182454067
 30
0.0
 40
3.2
 41
15.00000000000006
 71
     5
 72
     5
  1
33.3
 73
     1
 44
1.0
1001
ACAD
1000
MTEXTBEGIN
1070
    73
1070
     1
1070
    44
1040
1.0
1070
    74
1070
     0
1000
MTEXTEND
1000
ACAD_MTEXT_DEFINED_HEIGHT_BEGIN
1070
    46
1040
7.392000000000917
1000
ACAD_MTEXT_DEFINED_HEIGHT_END
  0
MTEXT
  5
F0DE
330
1F
100
AcDbEntity
  8
AM_6
 48
1.01
100
AcDbMText
 10
143.027482212428
 20
126.9663182454133
 30
0.0
 40
3.2
 41
34.00000000000097
 71
     5
 72
     5
  1
EB-901S-0830
 73
     1
 44
1.0
1001
ACAD
1000
MTEXTBEGIN
1070
    73
1070
     1
1070
    44
1040
1.0
1070
    74
1070
     0
1000
MTEXTEND
1000
ACAD_MTEXT_DEFINED_HEIGHT_BEGIN
1070
    46
1040
7.391999999991822
1000
ACAD_MTEXT_DEFINED_HEIGHT_END
  0
MTEXT
  5
F0DF
330
1F
100
AcDbEntity
  8
AM_6
 48
1.01
100
AcDbMText
 10
287.5274822124277
 20
126.9663182454096
 30
0.0
 40
3.2
 41
14.99999999999755
 71
     5
 72
     5
  1
30
 73
     1
 44
1.0
1001
ACAD
1000
MTEXTBEGIN
1070
    73
1070
     1
1070
    44
1040
1.0
1070
    74
1070
     0
1000
MTEXTEND
1000
ACAD_MTEXT_DEFINED_HEIGHT_BEGIN
1070
    46
1040
7.392000000000917
1000
ACAD_MTEXT_DEFINED_HEIGHT_END
  0
LINE
  5
F234
330
1F
100
AcDbEntity
  8
AM_0
100
AcDbLine
 10
92.02748221243188
 20
145.4463182453925
 30
0.0
 11
92.02748221243552
 21
27.17431824539352
 31
0.0
  0
MTEXT
  5
F236
330
1F
100
AcDbEntity
  8
AM_6
 48
1.01
100
AcDbMText
 10
109.027482212434
 20
38.26231824539139
 30
0.0
 40
3.2
 41
33.99999999999889
 71
     5
 72
     5
  1
EB-901-2450
 73
     1
 44
1.0
1001
ACAD
1000
MTEXTBEGIN
1070
    73
1070
     1
1070
    44
1040
1.0
1070
    74
1070
     0
1000
MTEXTEND
1000
ACAD_MTEXT_DEFINED_HEIGHT_BEGIN
1070
    46
1040
7.391999999991936
1000
ACAD_MTEXT_DEFINED_HEIGHT_END
  0
MTEXT
  5
F237
330
1F
100
AcDbEntity
  8
AM_6
 48
1.01
100
AcDbMText
 10
109.0274822124338
 20
30.87031824539156
 30
0.0
 40
3.2
 41
33.99999999999889
 71
     5
 72
     5
  1
EB-901-30100
 73
     1
 44
1.0
1001
ACAD
1000
MTEXTBEGIN
1070
    73
1070
     1
1070
    44
1040
1.0
1070
    74
1070
     0
1000
MTEXTEND
1000
ACAD_MTEXT_DEFINED_HEIGHT_BEGIN
1070
    46
1040
7.392000000006261
1000
ACAD_MTEXT_DEFINED_HEIGHT_END
  0
MTEXT
  5
F238
330
1F
100
AcDbEntity
  8
AM_6
 48
1.01
100
AcDbMText
 10
109.0274822124301
 20
119.5743182454004
 30
0.0
 40
3.2
 41
34.00000000000117
 71
     5
 72
     5
  1
EB-901-0850
 73
     1
 44
1.0
1001
ACAD
1000
MTEXTBEGIN
1070
    73
1070
     1
1070
    44
1040
1.0
1070
    74
1070
     0
1000
MTEXTEND
1000
ACAD_MTEXT_DEFINED_HEIGHT_BEGIN
1070
    46
1040
7.391999999999098
1000
ACAD_MTEXT_DEFINED_HEIGHT_END
  0
MTEXT
  5
F239
330
1F
100
AcDbEntity
  8
AM_6
 48
1.01
100
AcDbMText
 10
109.0274822124339
 20
75.22231824539687
 30
0.0
 40
3.2
 41
33.99999999999639
 71
     5
 72
     5
  1
EB-901-1250
 73
     1
 44
1.0
1001
ACAD
1000
MTEXTBEGIN
1070
    73
1070
     1
1070
    44
1040
1.0
1070
    74
1070
     0
1000
MTEXTEND
1000
ACAD_MTEXT_DEFINED_HEIGHT_BEGIN
1070
    46
1040
7.391999999993528
1000
ACAD_MTEXT_DEFINED_HEIGHT_END
  0
MTEXT
  5
F23A
330
1F
100
AcDbEntity
  8
AM_6
 48
1.01
100
AcDbMText
 10
109.0274822124342
 20
60.43831824539461
 30
0.0
 40
3.2
 41
33.99999999999662
 71
     5
 72
     5
  1
EB-901-1650
 73
     1
 44
1.0
1001
ACAD
1000
MTEXTBEGIN
1070
    73
1070
     1
1070
    44
1040
1.0
1070
    74
1070
     0
1000
MTEXTEND
1000
ACAD_MTEXT_DEFINED_HEIGHT_BEGIN
1070
    46
1040
7.391999999999269
1000
ACAD_MTEXT_DEFINED_HEIGHT_END
  0
MTEXT
  5
F23B
330
1F
100
AcDbEntity
  8
AM_6
 48
1.01
100
AcDbMText
 10
109.0274822124355
 20
45.65431824539314
 30
0.0
 40
3.2
 41
33.99999999999503
 71
     5
 72
     5
  1
EB-901-2050
 73
     1
 44
1.0
1001
ACAD
1000
MTEXTBEGIN
1070
    73
1070
     1
1070
    44
1040
1.0
1070
    74
1070
     0
1000
MTEXTEND
1000
ACAD_MTEXT_DEFINED_HEIGHT_BEGIN
1070
    46
1040
7.391999999999269
1000
ACAD_MTEXT_DEFINED_HEIGHT_END
  0
MTEXT
  5
F23C
330
1F
100
AcDbEntity
  8
AM_6
 48
1.01
100
AcDbMText
 10
109.0274822124327
 20
104.7903182453956
 30
0.0
 40
3.2
 41
33.99999999999707
 71
     5
 72
     5
  1
EB-901-1040
 73
     1
 44
1.0
1001
ACAD
1000
MTEXTBEGIN
1070
    73
1070
     1
1070
    44
1040
1.0
1070
    74
1070
     0
1000
MTEXTEND
1000
ACAD_MTEXT_DEFINED_HEIGHT_BEGIN
1070
    46
1040
7.391999999996142
1000
ACAD_MTEXT_DEFINED_HEIGHT_END
  0
MTEXT
  5
F23D
330
1F
100
AcDbEntity
  8
AM_6
 48
1.01
100
AcDbMText
 10
109.0274822124323
 20
112.1823182453969
 30
0.0
 40
3.2
 41
33.99999999999741
 71
     5
 72
     5
  1
EB-901-1030
 73
     1
 44
1.0
1001
ACAD
1000
MTEXTBEGIN
1070
    73
1070
     1
1070
    44
1040
1.0
1070
    74
1070
     0
1000
MTEXTEND
1000
ACAD_MTEXT_DEFINED_HEIGHT_BEGIN
1070
    46
1040
7.391999999999098
1000
ACAD_MTEXT_DEFINED_HEIGHT_END
  0
MTEXT
  5
F23E
330
1F
100
AcDbEntity
  8
AM_6
 48
1.01
100
AcDbMText
 10
109.027482212433
 20
97.39831824539855
 30
0.0
 40
3.2
 41
33.99999999999685
 71
     5
 72
     5
  1
EB-901-1050
 73
     1
 44
1.0
1001
ACAD
1000
MTEXTBEGIN
1070
    73
1070
     1
1070
    44
1040
1.0
1070
    74
1070
     0
1000
MTEXTEND
1000
ACAD_MTEXT_DEFINED_HEIGHT_BEGIN
1070
    46
1040
7.391999999990629
1000
ACAD_MTEXT_DEFINED_HEIGHT_END
  0
MTEXT
  5
F23F
330
1F
100
AcDbEntity
  8
AM_6
 48
1.01
100
AcDbMText
 10
109.0274822124339
 20
82.6143182453967
 30
0.0
 40
3.2
 41
33.99999999999639
 71
     5
 72
     5
  1
EB-901-1240
 73
     1
 44
1.0
1001
ACAD
1000
MTEXTBEGIN
1070
    73
1070
     1
1070
    44
1040
1.0
1070
    74
1070
     0
1000
MTEXTEND
1000
ACAD_MTEXT_DEFINED_HEIGHT_BEGIN
1070
    46
1040
7.392000000004669
1000
ACAD_MTEXT_DEFINED_HEIGHT_END
  0
MTEXT
  5
F240
330
1F
100
AcDbEntity
  8
AM_6
 48
1.01
100
AcDbMText
 10
109.0274822124338
 20
90.00631824539937
 30
0.0
 40
3.2
 41
33.99999999999615
 71
     5
 72
     5
  1
EB-901-1230
 73
     1
 44
1.0
1001
ACAD
1000
MTEXTBEGIN
1070
    73
1070
     1
1070
    44
1040
1.0
1070
    74
1070
     0
1000
MTEXTEND
1000
ACAD_MTEXT_DEFINED_HEIGHT_BEGIN
1070
    46
1040
7.391999999998985
1000
ACAD_MTEXT_DEFINED_HEIGHT_END
  0
MTEXT
  5
F241
330
1F
100
AcDbEntity
  8
AM_6
 48
1.01
100
AcDbMText
 10
109.027482212434
 20
67.83031824539444
 30
0.0
 40
3.2
 41
33.99999999999662
 71
     5
 72
     5
  1
EB-901-1640
 73
     1
 44
1.0
1001
ACAD
1000
MTEXTBEGIN
1070
    73
1070
     1
1070
    44
1040
1.0
1070
    74
1070
     0
1000
MTEXTEND
1000
ACAD_MTEXT_DEFINED_HEIGHT_BEGIN
1070
    46
1040
7.391999999998928
1000
ACAD_MTEXT_DEFINED_HEIGHT_END
  0
MTEXT
  5
F242
330
1F
100
AcDbEntity
  8
AM_6
 48
1.01
100
AcDbMText
 10
109.0274822124355
 20
53.04631824539296
 30
0.0
 40
3.2
 41
33.99999999999503
 71
     5
 72
     5
  1
EB-901-2040
 73
     1
 44
1.0
1001
ACAD
1000
MTEXTBEGIN
1070
    73
1070
     1
1070
    44
1040
1.0
1070
    74
1070
     0
1000
MTEXTEND
1000
ACAD_MTEXT_DEFINED_HEIGHT_BEGIN
1070
    46
1040
7.391999999998928
1000
ACAD_MTEXT_DEFINED_HEIGHT_END
  0
MTEXT
  5
F243
330
1F
100
AcDbEntity
  8
AM_6
 48
1.01
100
AcDbMText
 10
109.0274822124299
 20
126.9663182454051
 30
0.0
 40
3.2
 41
34.00000000000117
 71
     5
 72
     5
  1
EB-901-0830
 73
     1
 44
1.0
1001
ACAD
1000
MTEXTBEGIN
1070
    73
1070
     1
1070
    44
1040
1.0
1070
    74
1070
     0
1000
MTEXTEND
1000
ACAD_MTEXT_DEFINED_HEIGHT_BEGIN
1070
    46
1040
7.391999999990686
1000
ACAD_MTEXT_DEFINED_HEIGHT_END
  0
LINE
  5
F25F
330
1F
100
AcDbEntity
  8
AM_4
100
AcDbLine
 10
280.0274822124289
 20
123.2703182454066
 30
0.0
 11
295.0274822124288
 21
123.2703182454065
 31
0.0
  0
LINE
  5
F261
330
1F
100
AcDbEntity
  8
AM_4
100
AcDbLine
 10
280.0274822124296
 20
101.09431824539
 30
0.0
 11
295.0274822124296
 21
101.0943182453896
 31
0.0
  0
LINE
  5
F262
330
1F
100
AcDbEntity
  8
AM_4
100
AcDbLine
 10
280.0274822124294
 20
108.4863182453899
 30
0.0
 11
295.0274822124294
 21
108.4863182453895
 31
0.0
  0
LINE
  5
F263
330
1F
100
AcDbEntity
  8
AM_4
100
AcDbLine
 10
280.0274822124303
 20
78.91831824539185
 30
0.0
 11
295.0274822124304
 21
78.91831824539156
 31
0.0
  0
LINE
  5
F264
330
1F
100
AcDbEntity
  8
AM_4
100
AcDbLine
 10
280.0274822124301
 20
86.31031824539162
 30
0.0
 11
295.0274822124301
 21
86.31031824539139
 31
0.0
  0
LINE
  5
F265
330
1F
100
AcDbEntity
  8
AM_4
100
AcDbLine
 10
280.0274822124308
 20
64.13431824539344
 30
0.0
 11
295.0274822124308
 21
64.13431824539333
 31
0.0
  0
LINE
  5
F266
330
1F
100
AcDbEntity
  8
AM_4
100
AcDbLine
 10
280.0274822124312
 20
49.35031824539385
 30
0.0
 11
295.0274822124313
 21
49.35031824539374
 31
0.0
  0
ENDSEC
  0
SECTION
  2
OBJECTS
  0
DICTIONARY
  5
C
330
0
100
AcDbDictionary
281
     1
  3
ACAD_COLOR
350
C45B
  3
ACAD_GROUP
350
D
  3
ACAD_LAYOUT
350
1A
  3
ACAD_MATERIAL
350
C446
  3
ACAD_MLINESTYLE
350
17
  3
ACAD_PLOTSETTINGS
350
19
  3
ACAD_PLOTSTYLENAME
350
E
  3
ACAD_TABLESTYLE
350
C45C
  3
ACAD_VISUALSTYLE
350
C44A
  3
AcAsAppObject
350
3DA1
  3
ACASGREF_MASTER
350
3DE9
  3
AcDbVariableDictionary
350
34
  3
AcmDictionary
350
47
  3
AD_GREF_MODULE
350
3DEA
  3
AD_MAPI_MODULE
350
3E06
  3
AMG
350
2B
  3
AMGSNAPSETTINGS
350
7D
  3
ASE_INDEX_DICTIONARY
350
E473
  3
DWGPROPS
350
F377
  3
MAPISURF_MODULE
350
3DEB
  0
DICTIONARY
  5
3F95
330
2
100
AcDbDictionary
280
     1
281
     1
  3
ACAD_LAYERFILTERS
360
CB0C
  3
ACAD_LAYERSTATES
360
3F96
  3
ACLYDICTIONARY
360
CB0B
  3
AMLAYER_GROUPCOLORS
360
CB2F
  0
DICTIONARY
  5
8A
330
1F
100
AcDbDictionary
280
     1
281
     1
  3
ACAD_SORTENTS
360
F260
  0
DICTIONARY
  5
EFE6
330
EFE5
100
AcDbDictionary
280
     1
281
     1
  3
ACAD_DIMASSOC
360
EFE7
  0
DICTIONARY
  5
C45B
102
{ACAD_REACTORS
330
C
102
}
330
C
100
AcDbDictionary
281
     1
  0
DICTIONARY
  5
D
102
{ACAD_REACTORS
330
C
102
}
330
C
100
AcDbDictionary
281
     1
  0
DICTIONARY
  5
1A
102
{ACAD_REACTORS
330
C
102
}
330
C
100
AcDbDictionary
281
     1
  3
Model
350
22
  3
ﾚｲｱｳﾄ1
350
1E
  3
ﾚｲｱｳﾄ2
350
26
  0
DICTIONARY
  5
C446
102
{ACAD_REACTORS
330
C
102
}
330
C
100
AcDbDictionary
281
     1
  3
ByBlock
350
C448
  3
ByLayer
350
C447
  3
Global
350
C449
  0
DICTIONARY
  5
17
102
{ACAD_REACTORS
330
C
102
}
330
C
100
AcDbDictionary
281
     1
  3
Standard
350
18
  0
DICTIONARY
  5
19
102
{ACAD_REACTORS
330
C
102
}
330
C
100
AcDbDictionary
281
     1
  3
-00
350
C85D
  0
ACDBDICTIONARYWDFLT
  5
E
102
{ACAD_REACTORS
330
C
102
}
330
C
100
AcDbDictionary
281
     1
  3
Normal
350
F
100
AcDbDictionaryWithDefault
340
F
  0
DICTIONARY
  5
C45C
102
{ACAD_REACTORS
330
C
102
}
330
C
100
AcDbDictionary
281
     1
  3
Standard
350
C45D
  0
DICTIONARY
  5
C44A
102
{ACAD_REACTORS
330
C
102
}
330
C
100
AcDbDictionary
281
     1
  3
2dWireframe
350
C450
  3
3D Hidden
350
C452
  3
3dWireframe
350
C451
  3
Basic
350
C44F
  3
Brighten
350
C456
  3
ColorChange
350
C45A
  3
Conceptual
350
C453
  3
Dim
350
C455
  3
Facepattern
350
C459
  3
Flat
350
C44B
  3
FlatWithEdges
350
C44C
  3
Gouraud
350
C44D
  3
GouraudWithEdges
350
C44E
  3
Linepattern
350
C458
  3
Realistic
350
C454
  3
Thicken
350
C457
  0
ACAD_PROXY_OBJECT
  5
3DA1
102
{ACAD_REACTORS
330
C
102
}
330
C
100
AcDbProxyObject
 90
      499
 91
      576
 95
   720919
 70
     0
 93
       10
310
407F
 94
        0
1001
ACAD
1000
AcRTDxfName
1000
ASAPP
  0
ACAD_PROXY_OBJECT
  5
3DE9
102
{ACAD_REACTORS
330
C
102
}
330
C
100
AcDbProxyObject
 90
      499
 91
      581
 95
   720919
 70
     0
 93
       34
310
010000407F
 94
        0
1001
ACAD
1000
AcRTDxfName
1000
ACASGREFMASTER
  0
DICTIONARY
  5
34
102
{ACAD_REACTORS
330
C
102
}
330
C
100
AcDbDictionary
281
     1
  3
CTABLESTYLE
350
C4A2
  3
DIMASSOC
350
AC85
  3
INDEXCTL
350
35
  3
SORTENTS
350
194C
  0
DICTIONARY
  5
47
102
{ACAD_REACTORS
330
C
102
}
330
C
100
AcDbDictionary
281
     1
  3
AcmBOM
350
7E8
  3
AcmStdDictionary
350
4C
  3
AMDTSECTSYM_ARROWCOLOR
350
C487
  0
ACAD_PROXY_OBJECT
  5
3DEA
102
{ACAD_REACTORS
330
C
102
}
330
C
100
AcDbProxyObject
 90
      499
 91
      582
 95
   720919
 70
     0
 93
      114
310
00000043800000000000000000003F
 94
        0
1001
ACAD
1000
AcRTDxfName
1000
ACADGREFMODULE
  0
ACAD_PROXY_OBJECT
  5
3E06
102
{ACAD_REACTORS
330
C
102
}
330
C
100
AcDbProxyObject
 90
      499
 91
      594
 95
   720919
 70
     0
 93
       34
310
05000044FF
 94
        0
1001
ACAD
1000
AcRTDxfName
1000
MAPIADMODULE
  0
DICTIONARY
  5
2B
102
{ACAD_REACTORS
330
C
102
}
330
C
100
AcDbDictionary
281
     1
  0
DICTIONARY
  5
7D
102
{ACAD_REACTORS
330
C
102
}
330
C
100
AcDbDictionary
281
     1
  0
DICTIONARY
  5
E473
102
{ACAD_REACTORS
330
C
102
}
330
C
100
AcDbDictionary
281
     1
  3
ASEBlockHierarchyIndexRecord
350
E474
1001
DCO15
1040
1728116413.781
  0
XRECORD
  5
F377
102
{ACAD_REACTORS
330
C
102
}
330
C
100
AcDbXrecord
280
     1
  1
DWGPROPS COOKIE
  2

  3

  4

  6

  7

  8
shibutanishibutani
  9

300
AmdtFileType=84
301
=
302
=
303
=
304
=
305
=
306
=
307
=
308
=
309
=
 40
3.883319085648148
 41
2452002.615067627
 42
2456260.422827871
  1

 90
        1
  0
ACAD_PROXY_OBJECT
  5
3DEB
102
{ACAD_REACTORS
330
C
102
}
330
C
100
AcDbProxyObject
 90
      499
 91
      583
 95
   720919
 70
     0
 93
        8
310
047D
 94
        0
1001
ACAD
1000
AcRTDxfName
1000
AMDTMAPISURFMOUDULE
  0
DICTIONARY
  5
CB0C
102
{ACAD_REACTORS
330
3F95
102
}
330
3F95
100
AcDbDictionary
281
     1
  3
50
350
CB0E
  0
DICTIONARY
  5
3F96
102
{ACAD_REACTORS
330
3F95
102
}
330
3F95
100
AcDbDictionary
281
     1
  3
20011210
350
3FB7
  0
DICTIONARY
  5
CB0B
102
{ACAD_REACTORS
330
3F95
102
}
330
3F95
100
AcDbDictionary
281
     1
  3
*A1
350
CB0D
1001
ACAD
1000
<All
  0
DICTIONARY
  5
CB2F
102
{ACAD_REACTORS
330
3F95
102
}
330
3F95
100
AcDbDictionary
280
     1
281
     1
  0
SORTENTSTABLE
  5
F260
102
{ACAD_REACTORS
330
8A
102
}
330
8A
100
AcDbSortentsTable
330
1F
331
F050
  5
F050
331
F011
  5
F011
331
EFDA
  5
EFDA
331
EF9B
  5
EF9B
331
EFE2
  5
EFE2
331
EFA3
  5
EFA3
331
F0D6
  5
F0DD
331
F0DE
  5
F239
331
F09F
  5
F0A1
331
F060
  5
F060
331
F021
  5
F021
331
EFAB
  5
EFAB
331
EFEA
  5
EFEA
331
F234
  5
F23B
331
F0A7
  5
F0AA
331
F068
  5
F068
331
EFF2
  5
EFF2
331
EFB3
  5
EFB3
331
F029
  5
F029
331
F23C
  5
F243
331
EF66
  5
EF66
331
EF6E
  5
EF6E
331
EF76
  5
EF76
331
EF7E
  5
EF7E
331
F070
  5
F070
331
EFBB
  5
EFBB
331
EFFA
  5
EFFA
331
F0B7
  5
F0BB
331
F002
  5
F002
331
EFC3
  5
EFC3
331
F078
  5
F078
331
F0BF
  5
F0C4
331
F00A
  5
F00A
331
EFCB
  5
EFCB
331
F080
  5
F081
331
F264
  5
F0B0
331
F049
  5
F049
331
EFD3
  5
EFD3
331
F0C7
  5
F0CD
331
F0CF
  5
F0D5
331
EF86
  5
EF86
331
EF4F
  5
EF4F
331
EF8E
  5
EF8E
331
EF96
  5
EF96
331
EF57
  5
EF57
331
EF5F
  5
EF5F
331
F012
  5
F012
331
EFDB
  5
EFDB
331
EF9C
  5
EF9C
331
F090
  5
F092
331
EFE3
  5
EFE3
331
EFA4
  5
EFA4
331
F0D7
  5
F0DE
331
F0A0
  5
F0A3
331
F061
  5
F061
331
F022
  5
F022
331
EFEB
  5
EFEB
331
EFAC
  5
EFAC
331
F0DF
  5
F23A
331
F0A8
  5
F0AB
331
F069
  5
F069
331
F02A
  5
F02A
331
EFB4
  5
EFB4
331
EFF3
  5
EFF3
331
F23D
  5
F25F
331
EF67
  5
EF67
331
EF6F
  5
EF6F
331
EF77
  5
EF77
331
EF7F
  5
EF7F
331
F071
  5
F071
331
EFBC
  5
EFBC
331
EFFB
  5
EFFB
331
F0B8
  5
F0BC
331
F079
  5
F07A
331
EFC4
  5
EFC4
331
F003
  5
F003
331
F0C0
  5
F0C5
331
F00B
  5
F00B
331
EFCC
  5
EFCC
331
F081
  5
F082
331
F265
  5
F0BE
331
F04A
  5
F04A
331
EFD4
  5
EFD4
331
F0C8
  5
F0CE
331
EF87
  5
EF87
331
EF48
  5
EF48
331
EF50
  5
EF50
331
EF8F
  5
EF8F
331
EF97
  5
EF97
331
F0D0
  5
F0D6
331
F013
  5
F013
331
EFDC
  5
EFDC
331
EF9D
  5
EF9D
331
F091
  5
F09D
331
F01B
  5
F01B
331
EFE4
  5
EFE4
331
EFA5
  5
EFA5
331
F0D8
  5
F0DF
331
F0A1
  5
F0A4
331
F023
  5
F023
331
EFEC
  5
EFEC
331
EFAD
  5
EFAD
331
F236
  5
F23D
331
F0A9
  5
F0AC
331
F06A
  5
F06A
331
F02B
  5
F02B
331
EFB5
  5
EFB5
331
EFF4
  5
EFF4
331
F23E
  5
F261
331
EF60
  5
EF60
331
EF68
  5
EF68
331
EF70
  5
EF70
331
EF78
  5
EF78
331
F072
  5
F072
331
EFFC
  5
EFFC
331
EFBD
  5
EFBD
331
F0B9
  5
F0BD
331
F07A
  5
F07B
331
EFC5
  5
EFC5
331
F004
  5
F004
331
F0C1
  5
F0C6
331
F082
  5
F083
331
F043
  5
F043
331
EFCD
  5
EFCD
331
F00C
  5
F00C
331
F266
  5
F0CC
331
EFD5
  5
EFD5
331
F0C9
  5
F0CF
331
EF80
  5
EF80
331
EF88
  5
EF88
331
EF49
  5
EF49
331
EF90
  5
EF90
331
EF51
  5
EF51
331
EF59
  5
EF59
331
F0D1
  5
F0D7
331
F014
  5
F014
331
EFDD
  5
EFDD
331
EF9E
  5
EF9E
331
F092
  5
F09E
331
F0D9
  5
F234
331
F01C
  5
F01C
331
EFE5
  5
EFE5
331
EFA6
  5
EFA6
331
F05B
  5
F05B
331
F237
  5
F23E
331
F024
  5
F024
331
EFED
  5
EFED
331
EFAE
  5
EFAE
331
F0A2
  5
F0A5
331
F0AA
  5
F0AD
331
F06B
  5
F06B
331
F02C
  5
F02C
331
EFF5
  5
EFF5
331
EFB6
  5
EFB6
331
F23F
  5
F262
331
EF61
  5
EF61
331
EF69
  5
EF69
331
EF71
  5
EF71
331
EF79
  5
EF79
331
F073
  5
F073
331
EFFD
  5
EFFD
331
EFBE
  5
EFBE
331
F0BA
  5
F0BF
331
F07B
  5
F07C
331
F005
  5
F005
331
EFC6
  5
EFC6
331
F25F
  5
F0DA
331
F0C2
  5
F0C7
331
F083
  5
F084
331
F044
  5
F044
331
EFCE
  5
EFCE
331
F00D
  5
F00D
331
EFD6
  5
EFD6
331
F0CA
  5
F0D0
331
EF81
  5
EF81
331
EF89
  5
EF89
331
EF91
  5
EF91
331
EF52
  5
EF52
331
EF5A
  5
EF5A
331
F0D2
  5
F0D8
331
EFDE
  5
EFDE
331
EF9F
  5
EF9F
331
F015
  5
F015
331
F0DA
  5
F235
331
F01D
  5
F01D
331
EFA7
  5
EFA7
331
F05C
  5
F05C
331
F238
  5
F23F
331
F025
  5
F025
331
EFEE
  5
EFEE
331
EFAF
  5
EFAF
331
F0A3
  5
F0A6
331
F240
  5
F263
331
F06C
  5
F06C
331
F02D
  5
F02D
331
EFF6
  5
EFF6
331
EFB7
  5
EFB7
331
F0AB
  5
F0AE
331
EF62
  5
EF62
331
EF6A
  5
EF6A
331
EF72
  5
EF72
331
EF7A
  5
EF7A
331
F074
  5
F074
331
EFFE
  5
EFFE
331
EFBF
  5
EFBF
331
F07C
  5
F07D
331
F03D
  5
F03D
331
F006
  5
F006
331
EFC7
  5
EFC7
331
F0BB
  5
F0C0
331
F0C3
  5
F0C8
331
F084
  5
F085
331
F00E
  5
F00E
331
EFCF
  5
EFCF
331
EFD7
  5
EFD7
331
F0CB
  5
F0D1
331
EF82
  5
EF82
331
EF8A
  5
EF8A
331
EF4B
  5
EF4B
331
EF92
  5
EF92
331
EF53
  5
EF53
331
EF5B
  5
EF5B
331
EF98
  5
EF98
331
F0D3
  5
F0D9
331
EFDF
  5
EFDF
331
EFA0
  5
EFA0
331
F055
  5
F055
331
F0DB
  5
F236
331
EFA8
  5
EFA8
331
F01E
  5
F01E
331
F239
  5
F240
331
F0A4
  5
F0A7
331
F026
  5
F026
331
EFEF
  5
EFEF
331
EFB0
  5
EFB0
331
F065
  5
F065
331
F241
  5
F264
331
F06D
  5
F06D
331
F02E
  5
F02E
331
EFF7
  5
EFF7
331
F0AC
  5
F0AF
331
EF63
  5
EF63
331
EF6B
  5
EF6B
331
EF73
  5
EF73
331
EF7B
  5
EF7B
331
EFB8
  5
EFB8
331
EFFF
  5
EFFF
331
EFC0
  5
EFC0
331
F075
  5
F075
331
F261
  5
F079
331
F07D
  5
F07E
331
F03E
  5
F03E
331
F007
  5
F007
331
EFC8
  5
EFC8
331
F0BC
  5
F0C1
331
F0C4
  5
F0C9
331
F085
  5
F090
331
F00F
  5
F00F
331
EFD0
  5
EFD0
331
F0CC
  5
F0D2
331
EF83
  5
EF83
331
EF8B
  5
EF8B
331
EF4C
  5
EF4C
331
EF93
  5
EF93
331
EF54
  5
EF54
331
EFD8
  5
EFD8
331
EF99
  5
EF99
331
F0D4
  5
F0DB
331
F056
  5
F056
331
F017
  5
F017
331
EFA1
  5
EFA1
331
EFE0
  5
EFE0
331
F0DC
  5
F237
331
F09D
  5
F09F
331
EFE8
  5
EFE8
331
EFA9
  5
EFA9
331
F01F
  5
F01F
331
F0A5
  5
F0A8
331
F027
  5
F027
331
EFF0
  5
EFF0
331
EFB1
  5
EFB1
331
F066
  5
F066
331
F23A
  5
F241
331
F242
  5
F265
331
F02F
  5
F02F
331
F06E
  5
F06E
331
EF64
  5
EF64
331
EF6C
  5
EF6C
331
EF74
  5
EF74
331
EF7C
  5
EF7C
331
EFF8
  5
EFF8
331
EFB9
  5
EFB9
331
F037
  5
F037
331
F000
  5
F000
331
EFC1
  5
EFC1
331
F076
  5
F076
331
F262
  5
F091
331
F0BD
  5
F0C2
331
F008
  5
F008
331
EFC9
  5
EFC9
331
F07E
  5
F07F
331
EFD1
  5
EFD1
331
F0C5
  5
F0CA
331
F0CD
  5
F0D3
331
F04F
  5
F04F
331
EF84
  5
EF84
331
EF8C
  5
EF8C
331
EF4D
  5
EF4D
331
EF94
  5
EF94
331
EF55
  5
EF55
331
F010
  5
F010
331
EFD9
  5
EFD9
331
EF9A
  5
EF9A
331
EFA2
  5
EFA2
331
EFE1
  5
EFE1
331
F0D5
  5
F0DC
331
F0DD
  5
F238
331
F09E
  5
F0A0
331
F020
  5
F020
331
EFAA
  5
EFAA
331
EFE9
  5
EFE9
331
F0A6
  5
F0A9
331
F067
  5
F067
331
EFF1
  5
EFF1
331
EFB2
  5
EFB2
331
F028
  5
F028
331
F23B
  5
F242
331
F06F
  5
F06F
331
F243
  5
F266
331
EF65
  5
EF65
331
EF6D
  5
EF6D
331
EF75
  5
EF75
331
EF7D
  5
EF7D
331
EFF9
  5
EFF9
331
EFBA
  5
EFBA
331
F030
  5
F030
331
F077
  5
F077
331
F001
  5
F001
331
EFC2
  5
EFC2
331
F038
  5
F038
331
F263
  5
F0A2
331
F0BE
  5
F0C3
331
F009
  5
F009
331
EFCA
  5
EFCA
331
F07F
  5
F080
331
EFD2
  5
EFD2
331
F0C6
  5
F0CB
331
F0CE
  5
F0D4
331
EF85
  5
EF85
331
EF8D
  5
EF8D
331
EF4E
  5
EF4E
331
EF95
  5
EF95
331
EF56
  5
EF56
331
EF5E
  5
EF5E
  0
DIMASSOC
  5
EFE7
102
{ACAD_REACTORS
330
EFE6
102
}
330
EFE6
100
AcDbDimAssoc
330
EFE5
 90
       15
 70
     0
 71
     0
  1
AcDbOsnapPointRef
 72
    13
331
EFC0
 73
     2
 91
        1
 40
0.0
 10
0.0
 20
0.0
 30
2.000000000000000E+50
 75
     0
  1
AcDbOsnapPointRef
 72
     1
331
EFC0
 73
     2
 91
        1
 40
1.0
 10
0.0
 20
0.0
 30
2.000000000000000E+50
 75
     0
  1
AcDbOsnapPointRef
 72
    13
331
EFE2
 73
     2
 91
        0
 40
0.0
 10
0.0
 20
0.0
 30
2.000000000000000E+50
 75
     0
  1
AcDbOsnapPointRef
 72
     1
331
EFE2
 73
     2
 91
        0
 40
0.9999999999999998
 10
0.0
 20
0.0
 30
2.000000000000000E+50
 75
     0
  0
LAYOUT
  5
22
102
{ACAD_XDICTIONARY
360
F37A
102
}
102
{ACAD_REACTORS
330
1A
102
}
330
1A
100
AcDbPlotSettings
  1

  2
Adobe PDF
  4
A3
  6

 40
3.174999952316284
 41
3.174999952316284
 42
3.17498779296875
 43
3.17498779296875
 44
297.0318298339844
 45
420.1583251953125
 46
0.0
 47
1.371553106741487
 48
0.0
 49
0.0
140
419.9999999999999
141
297.0
142
1.0
143
1.021735647008087
 70
  3764
 72
     1
 73
     1
 74
     4
  7
monochrome.ctb
 75
     0
147
0.9787267410393917
148
0.0
149
0.0
100
AcDbLayout
  1
Model
 70
     1
 71
     0
 10
0.0
 20
0.0
 11
12.0
 21
9.0
 12
0.0
 22
0.0
 32
0.0
 14
0.0
 24
0.0
 34
0.0
 15
0.0
 25
0.0
 35
0.0
146
0.0
 13
0.0
 23
0.0
 33
0.0
 16
1.0
 26
0.0
 36
0.0
 17
0.0
 27
1.0
 37
0.0
 76
     0
330
1F
331
C444
1001
ACAD_PSEXT
1000
Adobe PDF
1000
Adobe PDF Converter
1000
My Documents\*.pdf
1000

1070
     0
  0
LAYOUT
  5
1E
102
{ACAD_XDICTIONARY
360
F378
102
}
102
{ACAD_REACTORS
330
1A
102
}
330
1A
100
AcDbPlotSettings
  1

  2
\\ML370\XEROX
  4
A4
  6

 40
3.174999952316284
 41
3.174999952316284
 42
3.175003051757812
 43
3.17498779296875
 44
209.8674926757813
 45
296.6719970703125
 46
0.0
 47
0.0
 48
0.0
 49
0.0
140
0.0
141
0.0
142
1.0
143
1.0
 70
   688
 72
     1
 73
     1
 74
     5
  7
monochrome.ctb
 75
    16
147
1.0
148
0.0
149
0.0
100
AcDbLayout
  1
ﾚｲｱｳﾄ1
 70
     1
 71
     1
 10
-3.17498779296875
 20
-3.174999952316284
 11
293.4970092773438
 21
206.692492723465
 12
0.0
 22
0.0
 32
0.0
 14
1.000000000000000E+20
 24
1.000000000000000E+20
 34
1.000000000000000E+20
 15
-1.000000000000000E+20
 25
-1.000000000000000E+20
 35
-1.000000000000000E+20
146
0.0
 13
0.0
 23
0.0
 33
0.0
 16
1.0
 26
0.0
 36
0.0
 17
0.0
 27
1.0
 37
0.0
 76
     0
330
1B
  0
LAYOUT
  5
26
102
{ACAD_XDICTIONARY
360
F37C
102
}
102
{ACAD_REACTORS
330
1A
102
}
330
1A
100
AcDbPlotSettings
  1

  2
\\ML370\XEROX
  4

  6

 40
0.0
 41
0.0
 42
0.0
 43
0.0
 44
0.0
 45
0.0
 46
0.0
 47
0.0
 48
0.0
 49
0.0
140
0.0
141
0.0
142
1.0
143
1.0
 70
   688
 72
     0
 73
     0
 74
     5
  7
monochrome.ctb
 75
    16
147
1.0
148
0.0
149
0.0
100
AcDbLayout
  1
ﾚｲｱｳﾄ2
 70
     1
 71
     2
 10
0.0
 20
0.0
 11
12.0
 21
9.0
 12
0.0
 22
0.0
 32
0.0
 14
0.0
 24
0.0
 34
0.0
 15
0.0
 25
0.0
 35
0.0
146
0.0
 13
0.0
 23
0.0
 33
0.0
 16
1.0
 26
0.0
 36
0.0
 17
0.0
 27
1.0
 37
0.0
 76
     0
330
23
  0
MATERIAL
  5
C448
102
{ACAD_XDICTIONARY
360
F380
102
}
102
{ACAD_REACTORS
330
C446
102
}
330
C446
100
AcDbMaterial
  1
ByBlock
  0
MATERIAL
  5
C447
102
{ACAD_XDICTIONARY
360
F37E
102
}
102
{ACAD_REACTORS
330
C446
102
}
330
C446
100
AcDbMaterial
  1
ByLayer
  0
MATERIAL
  5
C449
102
{ACAD_XDICTIONARY
360
F382
102
}
102
{ACAD_REACTORS
330
C446
102
}
330
C446
100
AcDbMaterial
  1
Global
  0
MLINESTYLE
  5
18
102
{ACAD_REACTORS
330
17
102
}
330
17
100
AcDbMlineStyle
  2
STANDARD
 70
     0
  3

 62
   256
 51
90.0
 52
90.0
 71
     2
 49
0.5
 62
   256
  6
BYLAYER
 49
-0.5
 62
   256
  6
BYLAYER
  0
PLOTSETTINGS
  5
C85D
102
{ACAD_XDICTIONARY
360
F386
102
}
102
{ACAD_REACTORS
330
19
102
}
330
19
100
AcDbPlotSettings
  1
-00
  2
RICOH imagio Wide 7040e RP-GL/2
  4
A3
  6
AM_VIEW1
 40
5.069416522979736
 41
7.228392601013183
 42
5.23870849609375
 43
7.05908203125
 44
419.9889831542968
 45
296.9683227539062
 46
-5.159570932388305
 47
-7.159575939178466
 48
347.0000006405867
 49
-0.0000003719120514
140
767.0000006405866
141
296.9999996280879
142
1.0
143
1.0
 70
 11956
 72
     1
 73
     0
 74
     4
  7
monochrome.ctb
 75
    16
147
1.0
148
-347.0000006405867
149
0.0000003719120514
1001
ACAD_PSEXT
1000
RICOH imagio Wide 7040e RP-GL/2
1000
RICOH imagio Wide 7040e RP-GL/2
1000
\\ADMINISTRATOR
1000
RP-GL/2 Driver (Windows 2000/XP/Server 2003)
1070
     0
  0
ACDBPLACEHOLDER
  5
F
102
{ACAD_REACTORS
330
E
102
}
330
E
  0
TABLESTYLE
  5
C45D
102
{ACAD_XDICTIONARY
360
F384
102
}
102
{ACAD_REACTORS
330
C45C
102
}
330
C45C
100
AcDbTableStyle
  3
Standard
 70
     0
 71
     0
 40
1.5
 41
1.5
280
     0
281
     0
  7
STANDARD
140
4.5
170
     2
 62
     0
 63
     7
283
     0
274
    -2
284
     1
 64
     0
275
    -2
285
     1
 65
     0
276
    -2
286
     1
 66
     0
277
    -2
287
     1
 67
     0
278
    -2
288
     1
 68
     0
279
    -2
289
     1
 69
     0
  7
STANDARD
140
6.0
170
     5
 62
     0
 63
     7
283
     0
274
    -2
284
     1
 64
     0
275
    -2
285
     1
 65
     0
276
    -2
286
     1
 66
     0
277
    -2
287
     1
 67
     0
278
    -2
288
     1
 68
     0
279
    -2
289
     1
 69
     0
  7
STANDARD
140
4.5
170
     5
 62
     0
 63
     7
283
     0
274
    -2
284
     1
 64
     0
275
    -2
285
     1
 65
     0
276
    -2
286
     1
 66
     0
277
    -2
287
     1
 67
     0
278
    -2
288
     1
 68
     0
279
    -2
289
     1
 69
     0
  0
VISUALSTYLE
  5
C450
102
{ACAD_REACTORS
330
C44A
102
}
330
C44A
100
AcDbVisualStyle
  2
2dWireframe
 70
     4
 71
     0
 72
     2
 73
     0
 90
        0
 40
-0.6
 41
-30.0
 62
     5
 63
     7
 74
     1
 91
        4
 64
     7
 65
   257
 75
     1
175
     1
 42
1.0
 92
        0
 66
   257
 43
1.0
 76
     1
 77
     6
 78
     2
 67
     7
 79
     5
170
     0
171
     0
290
     0
174
     0
 93
        1
 44
0.0
173
     0
291
     0
 45
0.0
1001
ACAD
1000
AcDbSavedByObjectVersion
1070
     0
  0
VISUALSTYLE
  5
C452
102
{ACAD_REACTORS
330
C44A
102
}
330
C44A
100
AcDbVisualStyle
  2
3D Hidden
 70
     6
 71
     1
 72
     2
 73
     2
 90
        0
 40
-0.6
 41
-30.0
 62
     5
 63
     7
 74
     2
 91
        2
 64
     7
 65
   257
 75
     2
175
     1
 42
40.0
 92
        0
 66
   257
 43
1.0
 76
     1
 77
     6
 78
     2
 67
     7
 79
     3
170
     0
171
     0
290
     0
174
     0
 93
        1
 44
0.0
173
     0
291
     0
 45
0.0
1001
ACAD
1000
AcDbSavedByObjectVersion
1070
     0
  0
VISUALSTYLE
  5
C451
102
{ACAD_REACTORS
330
C44A
102
}
330
C44A
100
AcDbVisualStyle
  2
3dWireframe
 70
     5
 71
     0
 72
     2
 73
     0
 90
        0
 40
-0.6
 41
-30.0
 62
     5
 63
     7
 74
     1
 91
        4
 64
     7
 65
   257
 75
     1
175
     1
 42
1.0
 92
        0
 66
   257
 43
1.0
 76
     1
 77
     6
 78
     2
 67
     7
 79
     5
170
     0
171
     0
290
     0
174
     0
 93
        1
 44
0.0
173
     0
291
     0
 45
0.0
1001
ACAD
1000
AcDbSavedByObjectVersion
1070
     0
  0
VISUALSTYLE
  5
C44F
102
{ACAD_REACTORS
330
C44A
102
}
330
C44A
100
AcDbVisualStyle
  2
Basic
 70
     7
 71
     1
 72
     0
 73
     1
 90
        0
 40
-0.6
 41
-30.0
 62
     5
 63
     7
 74
     0
 91
        4
 64
     7
 65
   257
 75
     1
175
     1
 42
1.0
 92
        8
 66
     7
 43
1.0
 76
     1
 77
     6
 78
     2
 67
     7
 79
     5
170
     0
171
     0
290
     0
174
     0
 93
        1
 44
0.0
173
     0
291
     1
 45
0.0
1001
ACAD
1000
AcDbSavedByObjectVersion
1070
     0
  0
VISUALSTYLE
  5
C456
102
{ACAD_REACTORS
330
C44A
102
}
330
C44A
100
AcDbVisualStyle
  2
Brighten
 70
    12
 71
     2
 72
     2
 73
     0
 90
        0
 40
-0.6
 41
-30.0
 62
     5
 63
     7
 74
     1
 91
        4
 64
     7
 65
   257
 75
     1
175
     1
 42
1.0
 92
        8
 66
     7
 43
1.0
 76
     1
 77
     6
 78
     2
 67
     7
 79
     5
170
     0
171
     0
290
     0
174
     0
 93
        1
 44
50.0
173
     0
291
     1
 45
0.0
1001
ACAD
1000
AcDbSavedByObjectVersion
1070
     0
  0
VISUALSTYLE
  5
C45A
102
{ACAD_REACTORS
330
C44A
102
}
330
C44A
100
AcDbVisualStyle
  2
ColorChange
 70
    16
 71
     2
 72
     2
 73
     3
 90
        0
 40
-0.6
 41
-30.0
 62
     5
 63
     8
 74
     1
 91
        4
 64
     7
 65
   257
 75
     1
175
     1
 42
1.0
 92
        8
 66
     8
 43
1.0
 76
     1
 77
     6
 78
     2
 67
     7
 79
     5
170
     0
171
     0
290
     0
174
     0
 93
        1
 44
0.0
173
     0
291
     1
 45
0.0
1001
ACAD
1000
AcDbSavedByObjectVersion
1070
     0
  0
VISUALSTYLE
  5
C453
102
{ACAD_REACTORS
330
C44A
102
}
330
C44A
100
AcDbVisualStyle
  2
Conceptual
 70
     9
 71
     3
 72
     2
 73
     0
 90
        0
 40
-0.6
 41
-30.0
 62
     5
 63
     7
 74
     2
 91
        2
 64
     7
 65
   257
 75
     1
175
     1
 42
40.0
 92
        8
 66
     7
 43
1.0
 76
     1
 77
     6
 78
     2
 67
     7
 79
     3
170
     0
171
     0
290
     0
174
     0
 93
        1
 44
0.0
173
     0
291
     0
 45
0.0
1001
ACAD
1000
AcDbSavedByObjectVersion
1070
     0
  0
VISUALSTYLE
  5
C455
102
{ACAD_REACTORS
330
C44A
102
}
330
C44A
100
AcDbVisualStyle
  2
Dim
 70
    11
 71
     2
 72
     2
 73
     0
 90
        0
 40
-0.6
 41
-30.0
 62
     5
 63
     7
 74
     1
 91
        4
 64
     7
 65
   257
 75
     1
175
     1
 42
1.0
 92
        8
 66
     7
 43
1.0
 76
     1
 77
     6
 78
     2
 67
     7
 79
     5
170
     0
171
     0
290
     0
174
     0
 93
        1
 44
-50.0
173
     0
291
     1
 45
0.0
1001
ACAD
1000
AcDbSavedByObjectVersion
1070
     0
  0
VISUALSTYLE
  5
C459
102
{ACAD_REACTORS
330
C44A
102
}
330
C44A
100
AcDbVisualStyle
  2
Facepattern
 70
    15
 71
     2
 72
     2
 73
     0
 90
        0
 40
-0.6
 41
-30.0
 62
     5
 63
     7
 74
     1
 91
        4
 64
     7
 65
   257
 75
     1
175
     1
 42
1.0
 92
        8
 66
     7
 43
1.0
 76
     1
 77
     6
 78
     2
 67
     7
 79
     5
170
     0
171
     0
290
     0
174
     0
 93
        1
 44
0.0
173
     0
291
     1
 45
0.0
1001
ACAD
1000
AcDbSavedByObjectVersion
1070
     0
  0
VISUALSTYLE
  5
C44B
102
{ACAD_REACTORS
330
C44A
102
}
330
C44A
100
AcDbVisualStyle
  2
Flat
 70
     0
 71
     2
 72
     1
 73
     1
 90
        2
 40
-0.6
 41
30.0
 62
     5
 63
     7
 74
     0
 91
        4
 64
     7
 65
   257
 75
     1
175
     1
 42
1.0
 92
        8
 66
     7
 43
1.0
 76
     1
 77
     6
 78
     2
 67
     7
 79
     5
170
     0
171
     0
290
     0
174
     0
 93
       13
 44
0.0
173
     0
291
     1
 45
0.0
1001
ACAD
1000
AcDbSavedByObjectVersion
1070
     0
  0
VISUALSTYLE
  5
C44C
102
{ACAD_REACTORS
330
C44A
102
}
330
C44A
100
AcDbVisualStyle
  2
FlatWithEdges
 70
     1
 71
     2
 72
     1
 73
     1
 90
        2
 40
-0.6
 41
30.0
 62
     5
 63
     7
 74
     1
 91
        4
 64
     7
 65
   257
 75
     1
175
     1
 42
1.0
 92
        0
 66
   257
 43
1.0
 76
     1
 77
     6
 78
     2
 67
     7
 79
     5
170
     0
171
     0
290
     0
174
     0
 93
       13
 44
0.0
173
     0
291
     1
 45
0.0
1001
ACAD
1000
AcDbSavedByObjectVersion
1070
     0
  0
VISUALSTYLE
  5
C44D
102
{ACAD_REACTORS
330
C44A
102
}
330
C44A
100
AcDbVisualStyle
  2
Gouraud
 70
     2
 71
     2
 72
     2
 73
     1
 90
        2
 40
-0.6
 41
30.0
 62
     5
 63
     7
 74
     0
 91
        4
 64
     7
 65
   257
 75
     1
175
     1
 42
1.0
 92
        0
 66
     7
 43
1.0
 76
     1
 77
     6
 78
     2
 67
     7
 79
     5
170
     0
171
     0
290
     0
174
     0
 93
       13
 44
0.0
173
     0
291
     1
 45
0.0
1001
ACAD
1000
AcDbSavedByObjectVersion
1070
     0
  0
VISUALSTYLE
  5
C44E
102
{ACAD_REACTORS
330
C44A
102
}
330
C44A
100
AcDbVisualStyle
  2
GouraudWithEdges
 70
     3
 71
     2
 72
     2
 73
     1
 90
        2
 40
-0.6
 41
30.0
 62
     5
 63
     7
 74
     1
 91
        4
 64
     7
 65
   257
 75
     1
175
     1
 42
1.0
 92
        0
 66
   257
 43
1.0
 76
     1
 77
     6
 78
     2
 67
     7
 79
     5
170
     0
171
     0
290
     0
174
     0
 93
       13
 44
0.0
173
     0
291
     1
 45
0.0
1001
ACAD
1000
AcDbSavedByObjectVersion
1070
     0
  0
VISUALSTYLE
  5
C458
102
{ACAD_REACTORS
330
C44A
102
}
330
C44A
100
AcDbVisualStyle
  2
Linepattern
 70
    14
 71
     2
 72
     2
 73
     0
 90
        0
 40
-0.6
 41
-30.0
 62
     5
 63
     7
 74
     1
 91
        4
 64
     7
 65
   257
 75
     7
175
     7
 42
1.0
 92
        8
 66
     7
 43
1.0
 76
     1
 77
     6
 78
     2
 67
     7
 79
     5
170
     0
171
     0
290
     0
174
     0
 93
        1
 44
0.0
173
     0
291
     1
 45
0.0
1001
ACAD
1000
AcDbSavedByObjectVersion
1070
     0
  0
VISUALSTYLE
  5
C454
102
{ACAD_REACTORS
330
C44A
102
}
330
C44A
100
AcDbVisualStyle
  2
Realistic
 70
     8
 71
     2
 72
     2
 73
     0
 90
        0
 40
-0.6
 41
-30.0
 62
     5
 63
     7
 74
     1
 91
        0
 64
     7
 65
   257
 75
     1
175
     1
 42
1.0
 92
        8
 66
     8
 43
1.0
 76
     1
 77
     6
 78
     2
 67
     7
 79
     5
170
     0
171
     0
290
     0
174
     0
 93
       13
 44
0.0
173
     0
291
     0
 45
0.0
1001
ACAD
1000
AcDbSavedByObjectVersion
1070
     0
  0
VISUALSTYLE
  5
C457
102
{ACAD_REACTORS
330
C44A
102
}
330
C44A
100
AcDbVisualStyle
  2
Thicken
 70
    13
 71
     2
 72
     2
 73
     0
 90
        0
 40
-0.6
 41
-30.0
 62
     5
 63
     7
 74
     1
 91
        4
 64
     7
 65
   257
 75
     1
175
     1
 42
1.0
 92
       12
 66
     7
 43
1.0
 76
     1
 77
     6
 78
     2
 67
     7
 79
     5
170
     0
171
     0
290
     0
174
     0
 93
        1
 44
0.0
173
     0
291
     1
 45
0.0
1001
ACAD
1000
AcDbSavedByObjectVersion
1070
     0
  0
DICTIONARYVAR
  5
C4A2
102
{ACAD_REACTORS
330
34
102
}
330
34
100
DictionaryVariables
280
     0
  1
STANDARD
  0
DICTIONARYVAR
  5
AC85
102
{ACAD_REACTORS
330
34
102
}
330
34
100
DictionaryVariables
280
     0
  1
2
  0
DICTIONARYVAR
  5
35
102
{ACAD_REACTORS
330
34
102
}
330
34
100
DictionaryVariables
280
     0
  1
0
  0
DICTIONARYVAR
  5
194C
102
{ACAD_REACTORS
330
34
102
}
330
34
100
DictionaryVariables
280
     0
  1
96
  0
DICTIONARY
  5
7E8
102
{ACAD_REACTORS
330
47
102
}
330
47
100
AcDbDictionary
281
     1
  0
DICTIONARY
  5
4C
102
{ACAD_REACTORS
330
47
102
}
330
47
100
AcDbDictionary
281
     1
  0
XRECORD
  5
C487
102
{ACAD_REACTORS
330
47
102
}
330
47
100
AcDbXrecord
280
     1
 90
-1023410169
  0
XRECORD
  5
E474
102
{ACAD_REACTORS
330
E473
102
}
330
E473
100
AcDbXrecord
280
     1
330
0
330
0
330
0
330
0
330
0
330
0
330
0
330
0
  0
XRECORD
  5
CB0E
102
{ACAD_REACTORS
330
CB0C
102
}
330
CB0C
100
AcDbXrecord
280
     1
  1
50
  1
*-50
  1
*
  1
*
 70
     0
  1
*
  1
*
1001
ACAD
1000
( NAME== "*-50" )
  0
XRECORD
  5
3FB7
102
{ACAD_REACTORS
330
3F96
102
}
330
3F96
100
AcDbXrecord
280
     1
 91
        3
330
A47
 90
        8
 62
     7
370
    40
331
16
  1
Color_7
330
A46
 90
        0
 62
    14
370
    -3
331
16
  1
Color_14
330
0
 90
        8
 62
     7
370
    20
331
16
  1
Color_7
330
6D1
 90
        0
 62
     7
370
    -3
331
16
  1
Color_7
330
0
 90
        8
 62
     7
370
    50
331
16
  1
Color_7
330
A48
 90
        8
 62
     2
370
    35
331
16
  1
Color_2
330
0
 90
        8
 62
     7
370
    -3
331
16
  1
Color_7
330
10
 90
        8
 62
     7
370
    -3
331
16
  1
Color_7
  0
XRECORD
  5
CB0D
102
{ACAD_REACTORS
330
CB0B
102
}
330
CB0B
100
AcDbXrecord
280
     1
  1
AcLyLayerFilter
 90
        1
300
50
301
( NAME== "*-50" )
  0
DICTIONARY
  5
F37A
330
22
100
AcDbDictionary
280
     1
281
     1
  3
ACAD_XREC_ROUNDTRIP
360
F37B
  0
DICTIONARY
  5
F378
330
1E
100
AcDbDictionary
280
     1
281
     1
  3
ACAD_XREC_ROUNDTRIP
360
F379
  0
DICTIONARY
  5
F37C
330
26
100
AcDbDictionary
280
     1
281
     1
  3
ACAD_XREC_ROUNDTRIP
360
F37D
  0
DICTIONARY
  5
F380
330
C448
100
AcDbDictionary
280
     1
281
     1
  3
ACAD_XREC_ROUNDTRIP
360
F381
  0
DICTIONARY
  5
F37E
330
C447
100
AcDbDictionary
280
     1
281
     1
  3
ACAD_XREC_ROUNDTRIP
360
F37F
  0
DICTIONARY
  5
F382
330
C449
100
AcDbDictionary
280
     1
281
     1
  3
ACAD_XREC_ROUNDTRIP
360
F383
  0
DICTIONARY
  5
F386
330
C85D
100
AcDbDictionary
280
     1
281
     1
  3
ACAD_XREC_ROUNDTRIP
360
F387
  0
DICTIONARY
  5
F384
330
C45D
100
AcDbDictionary
280
     1
281
     1
  3
ACAD_XREC_ROUNDTRIP
360
F385
  0
XRECORD
  5
F37B
102
{ACAD_REACTORS
330
F37A
102
}
330
F37A
100
AcDbXrecord
280
     1
102
SHADEPLOT
 70
     1
102
SHADEPLOTRESLEVEL
 70
     2
102
SHADEPLOTCUSTOMDPI
 70
   300
  0
XRECORD
  5
F379
102
{ACAD_REACTORS
330
F378
102
}
330
F378
100
AcDbXrecord
280
     1
102
SHADEPLOT
 70
     0
102
SHADEPLOTRESLEVEL
 70
     2
102
SHADEPLOTCUSTOMDPI
 70
   300
  0
XRECORD
  5
F37D
102
{ACAD_REACTORS
330
F37C
102
}
330
F37C
100
AcDbXrecord
280
     1
102
SHADEPLOT
 70
     0
102
SHADEPLOTRESLEVEL
 70
     2
102
SHADEPLOTCUSTOMDPI
 70
   300
  0
XRECORD
  5
F381
102
{ACAD_REACTORS
330
F380
102
}
330
F380
100
AcDbXrecord
280
     1
102
MATERIAL
148
0.0
149
0.0
149
0.0
 93
        0
 94
       63
282
     0
 72
     1
 77
     1
171
     1
175
     1
179
     1
273
     0
  0
XRECORD
  5
F37F
102
{ACAD_REACTORS
330
F37E
102
}
330
F37E
100
AcDbXrecord
280
     1
102
MATERIAL
148
0.0
149
0.0
149
0.0
 93
        0
 94
       63
282
     0
 72
     1
 77
     1
171
     1
175
     1
179
     1
273
     0
  0
XRECORD
  5
F383
102
{ACAD_REACTORS
330
F382
102
}
330
F382
100
AcDbXrecord
280
     1
102
MATERIAL
148
0.0
149
0.0
149
0.0
 93
        0
 94
       63
282
     0
 72
     1
 77
     1
171
     1
175
     1
179
     1
273
     0
  0
XRECORD
  5
F387
102
{ACAD_REACTORS
330
F386
102
}
330
F386
100
AcDbXrecord
280
     1
102
SHADEPLOT
 70
     0
102
SHADEPLOTRESLEVEL
 70
     2
102
SHADEPLOTCUSTOMDPI
 70
   300
  0
XRECORD
  5
F385
102
{ACAD_REACTORS
330
F384
102
}
330
F384
100
AcDbXrecord
280
     1
102
ACAD_ROUNDTRIP_PRE2007_TABLESTYLE
 90
      512
 91
        0
  1

 92
      512
 93
        0
  2

 94
      512
 95
        0
  3

  0
ENDSEC
  0
EOF
