  0
SECTION
  2
HEADER
  9
$ACADVER
  1
AC1015
  9
$ACADMAINTVER
 70
    20
  9
$DWGCODEPAGE
  3
ANSI_932
  9
$INSBASE
 10
0.0
 20
0.0
 30
0.0
  9
$EXTMIN
 10
-0.0064041928749248
 20
-0.0045286792473007
 30
-0.0000000000112498
  9
$EXTMAX
 10
420.0064100605654
 20
297.0045328285426
 30
0.0000000000002956
  9
$LIMMIN
 10
0.0
 20
0.0
  9
$LIMMAX
 10
420.0
 20
297.0
  9
$ORTHOMODE
 70
     0
  9
$REGENMODE
 70
     1
  9
$FILLMODE
 70
     1
  9
$QTEXTMODE
 70
     0
  9
$MIRRTEXT
 70
     0
  9
$LTSCALE
 40
1.0
  9
$ATTMODE
 70
     1
  9
$TEXTSIZE
 40
3.2
  9
$TRACEWID
 40
1.0
  9
$TEXTSTYLE
  7
STANDARD
  9
$CLAYER
  8
AM_0
  9
$CELTYPE
  6
ByLayer
  9
$CECOLOR
 62
   256
  9
$CELTSCALE
 40
1.0
  9
$DISPSILH
 70
     0
  9
$DIMSCALE
 40
1.0
  9
$DIMASZ
 40
1.0
  9
$DIMEXO
 40
1.0
  9
$DIMDLI
 40
10.0
  9
$DIMRND
 40
0.0
  9
$DIMDLE
 40
0.0
  9
$DIMEXE
 40
1.0
  9
$DIMTP
 40
0.1
  9
$DIMTM
 40
0.1
  9
$DIMTXT
 40
3.5
  9
$DIMCEN
 40
0.0
  9
$DIMTSZ
 40
0.0
  9
$DIMTOL
 70
     0
  9
$DIMLIM
 70
     0
  9
$DIMTIH
 70
     0
  9
$DIMTOH
 70
     0
  9
$DIMSE1
 70
     0
  9
$DIMSE2
 70
     0
  9
$DIMTAD
 70
     1
  9
$DIMZIN
 70
     8
  9
$DIMBLK
  1

  9
$DIMASO
 70
     1
  9
$DIMSHO
 70
     1
  9
$DIMPOST
  1

  9
$DIMAPOST
  1
"
  9
$DIMALT
 70
     0
  9
$DIMALTD
 70
     2
  9
$DIMALTF
 40
0.0393701
  9
$DIMLFAC
 40
1.0
  9
$DIMTOFL
 70
     1
  9
$DIMTVP
 40
0.0
  9
$DIMTIX
 70
     0
  9
$DIMSOXD
 70
     0
  9
$DIMSAH
 70
     0
  9
$DIMBLK1
  1

  9
$DIMBLK2
  1

  9
$DIMSTYLE
  2
SYS
  9
$DIMCLRD
 70
   256
  9
$DIMCLRE
 70
   256
  9
$DIMCLRT
 70
     7
  9
$DIMTFAC
 40
0.71
  9
$DIMGAP
 40
1.5
  9
$DIMJUST
 70
     0
  9
$DIMSD1
 70
     0
  9
$DIMSD2
 70
     0
  9
$DIMTOLJ
 70
     0
  9
$DIMTZIN
 70
     8
  9
$DIMALTZ
 70
     0
  9
$DIMALTTZ
 70
     0
  9
$DIMUPT
 70
     0
  9
$DIMDEC
 70
     2
  9
$DIMTDEC
 70
     2
  9
$DIMALTU
 70
     2
  9
$DIMALTTD
 70
     2
  9
$DIMTXSTY
  7
STANDARD
  9
$DIMAUNIT
 70
     0
  9
$DIMADEC
 70
     0
  9
$DIMALTRND
 40
0.0
  9
$DIMAZIN
 70
     2
  9
$DIMDSEP
 70
    46
  9
$DIMATFIT
 70
     3
  9
$DIMFRAC
 70
     0
  9
$DIMLDRBLK
  1

  9
$DIMLUNIT
 70
     2
  9
$DIMLWD
 70
    -1
  9
$DIMLWE
 70
    -1
  9
$DIMTMOVE
 70
     0
  9
$LUNITS
 70
     2
  9
$LUPREC
 70
     2
  9
$SKETCHINC
 40
1.0
  9
$FILLETRAD
 40
0.0
  9
$AUNITS
 70
     0
  9
$AUPREC
 70
     0
  9
$MENU
  1
.
  9
$ELEVATION
 40
0.0
  9
$PELEVATION
 40
0.0
  9
$THICKNESS
 40
0.0
  9
$LIMCHECK
 70
     0
  9
$CHAMFERA
 40
0.0
  9
$CHAMFERB
 40
0.0
  9
$CHAMFERC
 40
20.0
  9
$CHAMFERD
 40
0.0
  9
$SKPOLY
 70
     0
  9
$TDCREATE
 40
2456066.693646007
  9
$TDUCREATE
 40
2456066.318646007
  9
$TDUPDATE
 40
2456314.562054028
  9
$TDUUPDATE
 40
2456314.187054028
  9
$TDINDWG
 40
0.0761356944
  9
$TDUSRTIMER
 40
0.0761203241
  9
$USRTIMER
 70
     1
  9
$ANGBASE
 50
0.0
  9
$ANGDIR
 70
     0
  9
$PDMODE
 70
     0
  9
$PDSIZE
 40
-3.0
  9
$PLINEWID
 40
0.0
  9
$SPLFRAME
 70
     0
  9
$SPLINETYPE
 70
     6
  9
$SPLINESEGS
 70
     8
  9
$HANDSEED
  5
12D40
  9
$SURFTAB1
 70
     6
  9
$SURFTAB2
 70
     6
  9
$SURFTYPE
 70
     6
  9
$SURFU
 70
     6
  9
$SURFV
 70
     6
  9
$UCSBASE
  2

  9
$UCSNAME
  2

  9
$UCSORG
 10
0.0
 20
0.0
 30
0.0
  9
$UCSXDIR
 10
1.0
 20
0.0
 30
0.0
  9
$UCSYDIR
 10
0.0
 20
1.0
 30
0.0
  9
$UCSORTHOREF
  2

  9
$UCSORTHOVIEW
 70
     0
  9
$UCSORGTOP
 10
0.0
 20
0.0
 30
0.0
  9
$UCSORGBOTTOM
 10
0.0
 20
0.0
 30
0.0
  9
$UCSORGLEFT
 10
0.0
 20
0.0
 30
0.0
  9
$UCSORGRIGHT
 10
0.0
 20
0.0
 30
0.0
  9
$UCSORGFRONT
 10
0.0
 20
0.0
 30
0.0
  9
$UCSORGBACK
 10
0.0
 20
0.0
 30
0.0
  9
$PUCSBASE
  2

  9
$PUCSNAME
  2

  9
$PUCSORG
 10
0.0
 20
0.0
 30
0.0
  9
$PUCSXDIR
 10
1.0
 20
0.0
 30
0.0
  9
$PUCSYDIR
 10
0.0
 20
1.0
 30
0.0
  9
$PUCSORTHOREF
  2

  9
$PUCSORTHOVIEW
 70
     0
  9
$PUCSORGTOP
 10
0.0
 20
0.0
 30
0.0
  9
$PUCSORGBOTTOM
 10
0.0
 20
0.0
 30
0.0
  9
$PUCSORGLEFT
 10
0.0
 20
0.0
 30
0.0
  9
$PUCSORGRIGHT
 10
0.0
 20
0.0
 30
0.0
  9
$PUCSORGFRONT
 10
0.0
 20
0.0
 30
0.0
  9
$PUCSORGBACK
 10
0.0
 20
0.0
 30
0.0
  9
$USERI1
 70
     0
  9
$USERI2
 70
     0
  9
$USERI3
 70
     0
  9
$USERI4
 70
     0
  9
$USERI5
 70
     0
  9
$USERR1
 40
0.0
  9
$USERR2
 40
0.0
  9
$USERR3
 40
0.0
  9
$USERR4
 40
0.0
  9
$USERR5
 40
0.0
  9
$WORLDVIEW
 70
     1
  9
$SHADEDGE
 70
     3
  9
$SHADEDIF
 70
    70
  9
$TILEMODE
 70
     1
  9
$MAXACTVP
 70
    64
  9
$PINSBASE
 10
0.0
 20
0.0
 30
0.0
  9
$PLIMCHECK
 70
     0
  9
$PEXTMIN
 10
1.000000000000000E+20
 20
1.000000000000000E+20
 30
1.000000000000000E+20
  9
$PEXTMAX
 10
-1.000000000000000E+20
 20
-1.000000000000000E+20
 30
-1.000000000000000E+20
  9
$PLIMMIN
 10
-3.17498779296875
 20
-3.174999952316281
  9
$PLIMMAX
 10
293.4970092773438
 20
206.692492723465
  9
$UNITMODE
 70
     0
  9
$VISRETAIN
 70
     1
  9
$PLINEGEN
 70
     0
  9
$PSLTSCALE
 70
     1
  9
$TREEDEPTH
 70
  3020
  9
$CMLSTYLE
  2
Standard
  9
$CMLJUST
 70
     0
  9
$CMLSCALE
 40
20.0
  9
$PROXYGRAPHICS
 70
     1
  9
$MEASUREMENT
 70
     1
  9
$CELWEIGHT
370
    -1
  9
$ENDCAPS
280
     0
  9
$JOINSTYLE
280
     0
  9
$LWDISPLAY
290
     1
  9
$INSUNITS
 70
     4
  9
$HYPERLINKBASE
  1

  9
$STYLESHEET
  1
MONOCHROME.CTB
  9
$XEDIT
290
     1
  9
$CEPSNTYPE
380
     0
  9
$PSTYLEMODE
290
     1
  9
$FINGERPRINTGUID
  2
{5A4E5334-5A04-40F7-B949-147BF1F28F72}
  9
$VERSIONGUID
  2
{C9BD77E9-A845-4F71-AB38-D116DD01EC69}
  9
$EXTNAMES
290
     1
  9
$PSVPSCALE
 40
0.0
  9
$OLESTARTUP
290
     0
  0
ENDSEC
  0
SECTION
  2
CLASSES
  0
CLASS
  1
ACDBDICTIONARYWDFLT
  2
AcDbDictionaryWithDefault
  3
ObjectDBX Classes
 90
        0
280
     0
281
     0
  0
CLASS
  1
ACDBPLACEHOLDER
  2
AcDbPlaceHolder
  3
ObjectDBX Classes
 90
        0
280
     0
281
     0
  0
CLASS
  1
LAYOUT
  2
AcDbLayout
  3
ObjectDBX Classes
 90
        0
280
     0
281
     0
  0
CLASS
  1
AMGSETTINGSOBJ
  2
AmgSettingsObj
  3
"AcadM|Product Description: AutoCAD Mechanical|Company: Autodesk"
 90
        0
280
     0
281
     0
  0
CLASS
  1
ACME_DOCUMENT
  2
AcMeDbDoc
  3
AcMeServices
 90
        0
280
     0
281
     0
  0
CLASS
  1
ACMESCOPE
  2
AcMeScope
  3
AcMeServices
 90
        0
280
     0
281
     0
  0
CLASS
  1
ACMECOMMANDHISTORY
  2
AcMeCommandHistory
  3
AcMeServices
 90
        0
280
     0
281
     0
  0
CLASS
  1
DICTIONARYVAR
  2
AcDbDictionaryVar
  3
ObjectDBX Classes
 90
        0
280
     0
281
     0
  0
CLASS
  1
ACIMSYSVARMAN
  2
AcImSysVarManager
  3
AcMeServices
 90
        0
280
     0
281
     0
  0
CLASS
  1
ACIMREALSYSVAR
  2
AcImRealSysVar
  3
AcMeServices
 90
        0
280
     0
281
     0
  0
CLASS
  1
ACIMINTSYSVAR
  2
AcImIntSysVar
  3
AcMeServices
 90
        0
280
     0
281
     0
  0
CLASS
  1
ACMEDRAWINGMAN
  2
AcMeDrawingMan
  3
AcMeServices
 90
        0
280
     0
281
     0
  0
CLASS
  1
ACMEVIEW
  2
AcMeView
  3
AcMeServices
 90
        0
280
     0
281
     0
  0
CLASS
  1
ACDBENTITYCACHE
  2
AcMeEntityCache
  3
AcMeServices
 90
        0
280
     0
281
     0
  0
CLASS
  1
GSMANAGER
  2
AcMeGSManager
  3
AcMeServices
 90
        0
280
     0
281
     0
  0
CLASS
  1
AMDTINTERNALREACTOR
  2
AmdtInternalReactor
  3
AcMeServices
 90
        0
280
     0
281
     0
  0
CLASS
  1
ACMESTATEMGR
  2
AcMeStateMgr
  3
AcMeServices
 90
        0
280
     0
281
     0
  0
CLASS
  1
ACGREFMASTER
  2
AcGrefMaster
  3
AcAttribServices
 90
        0
280
     0
281
     0
  0
CLASS
  1
ACME_DATABASE
  2
AcMeDbDatabase
  3
AcMeServices
 90
        0
280
     0
281
     0
  0
CLASS
  1
ACRFINSADJUSTERMGR
  2
AcRfInsAdjusterMgr
  3
AcMeServices
 90
        0
280
     0
281
     0
  0
CLASS
  1
ACGREFACADMASTER
  2
AcGrefacadMaster
  3
AcGrefServices
 90
        0
280
     0
281
     0
  0
CLASS
  1
AMIMASTER
  2
AmiMaster
  3
AmiServices
 90
        0
280
     0
281
     0
  0
CLASS
  1
ACMDATADICTIONARY
  2
AcmDataDictionary
  3
"AcmSymBB|Product Description: AutoCAD Mechanical|Company: Autodesk"
 90
        0
280
     0
281
     0
  0
CLASS
  1
ACMDATAENTRYBLOCK
  2
AcmDataEntryBlock
  3
"AcmSymBB|Product Description: AutoCAD Mechanical|Company: Autodesk"
 90
    32768
280
     0
281
     0
  0
CLASS
  1
ACIMSTRSYSVAR
  2
AcImStrSysVar
  3
AcMeServices
 90
        0
280
     0
281
     0
  0
CLASS
  1
ACMSTANDARDISO
  2
AcmStandardISO
  3
"Amdt_StdImp|Product Description: AutoCAD Mechanical|Company: Autodesk"
 90
        0
280
     0
281
     0
  0
CLASS
  1
AMGOBJPROPCFG
  2
AmgObjPropCfg
  3
"AmgLay|Product Description: AutoCAD Mechanical|Company: Autodesk"
 90
        1
280
     0
281
     0
  0
CLASS
  1
AMDTEDGESTANDARDISO
  2
AmdtEdgeStdISO
  3
"Amdt_StdImp|Product Description: AutoCAD Mechanical|Company: Autodesk"
 90
    32768
280
     0
281
     0
  0
CLASS
  1
ACMSURFSTANDARDISO
  2
AcmSurfTextStdISO
  3
"Amdt_StdImp|Product Description: AutoCAD Mechanical|Company: Autodesk"
 90
        0
280
     0
281
     0
  0
CLASS
  1
ACMFCFSTANDARDISO
  2
AcmFCFStdISO
  3
"Amdt_StdImp|Product Description: AutoCAD Mechanical|Company: Autodesk"
 90
        0
280
     0
281
     0
  0
CLASS
  1
ACMWELDSTANDARDISO
  2
AcmWeldingStdISO
  3
"Amdt_StdImp|Product Description: AutoCAD Mechanical|Company: Autodesk"
 90
        0
280
     0
281
     0
  0
CLASS
  1
ACMIDSTANDARDISO
  2
AcmIdStdISO
  3
"Amdt_StdImp|Product Description: AutoCAD Mechanical|Company: Autodesk"
 90
        0
280
     0
281
     0
  0
CLASS
  1
ACMDATUMSTANDARDISO
  2
AcmDatumStdISO
  3
"Amdt_StdImp|Product Description: AutoCAD Mechanical|Company: Autodesk"
 90
        0
280
     0
281
     0
  0
CLASS
  1
ACMBOMSTANDARDISO
  2
AcmBOMStdISO
  3
"Amdt_StdImp|Product Description: AutoCAD Mechanical|Company: Autodesk"
 90
        0
280
     0
281
     0
  0
CLASS
  1
ACMDETAILSTANDARDISO
  2
AmdtDetailSymStdISO
  3
"Amdt_StdImp|Product Description: AutoCAD Mechanical|Company: Autodesk"
 90
        0
280
     0
281
     0
  0
CLASS
  1
ACMSECTIONSTANDARDISO
  2
AmdtSectionSymStdISO
  3
"Amdt_StdImp|Product Description: AutoCAD Mechanical|Company: Autodesk"
 90
        0
280
     0
281
     0
  0
CLASS
  1
ACMCENTERLINESTANDARDISO
  2
AmdtCenterLineStdISO
  3
"Amdt_StdImp|Product Description: AutoCAD Mechanical|Company: Autodesk"
 90
        0
280
     0
281
     0
  0
CLASS
  1
ACAMGLAYSTD
  2
AcAmgLayStd
  3
"AmgLay|Product Description: AutoCAD Mechanical|Company: Autodesk"
 90
        0
280
     0
281
     0
  0
CLASS
  1
ACAMGDIMSTD
  2
AcAmgDimStd
  3
"AmgDim|Product Description: AutoCAD Mechanical|Company: Autodesk"
 90
        0
280
     0
281
     0
  0
CLASS
  1
ACAMGTITLESTD
  2
AcAmgTitleStd
  3
"AmgTitle|Product Description: AutoCAD Mechanical|Company: Autodesk"
 90
        0
280
     0
281
     0
  0
CLASS
  1
ACAMGFILTERDAT
  2
AcAmgFilterDat
  3
"AcadM|Product Description: AutoCAD Mechanical|Company: Autodesk"
 90
    32768
280
     0
281
     0
  0
CLASS
  1
LAYER_INDEX
  2
AcDbLayerIndex
  3
ObjectDBX Classes
 90
    32768
280
     0
281
     0
  0
CLASS
  1
IDBUFFER
  2
AcDbIdBuffer
  3
ObjectDBX Classes
 90
    32768
280
     0
281
     0
  0
CLASS
  1
PLOTSETTINGS
  2
AcDbPlotSettings
  3
ObjectDBX Classes
 90
    32768
280
     0
281
     0
  0
CLASS
  1
AMDTFORMULAUPDATEDISPATCHER
  2
AmdtFormulaUpdateDispatcher
  3
AcMeServices
 90
    32768
280
     0
281
     0
  0
CLASS
  1
ACMSTANDARDANSI
  2
AcmStandardANSI
  3
"Amdt_StdImp|Product Description: AutoCAD Mechanical|Company: Autodesk"
 90
    32768
280
     0
281
     0
  0
CLASS
  1
ACMSURFSTANDARDANSI
  2
AcmSurfTextStdANSI
  3
"Amdt_StdImp|Product Description: AutoCAD Mechanical|Company: Autodesk"
 90
    32768
280
     0
281
     0
  0
CLASS
  1
ACMFCFSTANDARDANSI
  2
AcmFCFStdANSI
  3
"Amdt_StdImp|Product Description: AutoCAD Mechanical|Company: Autodesk"
 90
    32768
280
     0
281
     0
  0
CLASS
  1
ACMWELDSTANDARDANSI
  2
AcmWeldingStdANSI
  3
"Amdt_StdImp|Product Description: AutoCAD Mechanical|Company: Autodesk"
 90
    32768
280
     0
281
     0
  0
CLASS
  1
ACMIDSTANDARDANSI
  2
AcmIdStdANSI
  3
"Amdt_StdImp|Product Description: AutoCAD Mechanical|Company: Autodesk"
 90
    32768
280
     0
281
     0
  0
CLASS
  1
ACMDATUMSTANDARDANSI
  2
AcmDatumStdANSI
  3
"Amdt_StdImp|Product Description: AutoCAD Mechanical|Company: Autodesk"
 90
    32768
280
     0
281
     0
  0
CLASS
  1
ACMBOMSTANDARDANSI
  2
AcmBOMStdANSI
  3
"Amdt_StdImp|Product Description: AutoCAD Mechanical|Company: Autodesk"
 90
    32768
280
     0
281
     0
  0
CLASS
  1
ACMDETAILSTANDARDANSI
  2
AmdtDetailSymStdANSI
  3
"Amdt_StdImp|Product Description: AutoCAD Mechanical|Company: Autodesk"
 90
    32768
280
     0
281
     0
  0
CLASS
  1
ACMSECTIONSTANDARDANSI
  2
AmdtSectionSymStdANSI
  3
"Amdt_StdImp|Product Description: AutoCAD Mechanical|Company: Autodesk"
 90
    32768
280
     0
281
     0
  0
CLASS
  1
ACMCENTERLINESTANDARDANSI
  2
AmdtCenterLineStdANSI
  3
"Amdt_StdImp|Product Description: AutoCAD Mechanical|Company: Autodesk"
 90
    32768
280
     0
281
     0
  0
CLASS
  1
ACMBOM
  2
AcmBom
  3
"AcmSymBB|Product Description: AutoCAD Mechanical|Company: Autodesk"
 90
    32768
280
     0
281
     0
  0
CLASS
  1
ACMDATAENTRYPART
  2
AcmDataEntryPart
  3
"AcmSymBB|Product Description: AutoCAD Mechanical|Company: Autodesk"
 90
    32768
280
     0
281
     0
  0
CLASS
  1
ACMPARTREF
  2
AcmPartRef
  3
"AcmSymBB|Product Description: AutoCAD Mechanical|Company: Autodesk"
 90
    35839
280
     0
281
     1
  0
CLASS
  1
ACDBCIRCARCRES
  2
AcDbCircArcRes
  3
AcGrefServices
 90
    32768
280
     0
281
     0
  0
CLASS
  1
ACMBOMROW
  2
AcmBomRow
  3
"AcmSymBB|Product Description: AutoCAD Mechanical|Company: Autodesk"
 90
    32768
280
     0
281
     0
  0
CLASS
  1
ACMBALLOON
  2
AcmBalloon
  3
"AcmSymBB|Product Description: AutoCAD Mechanical|Company: Autodesk"
 90
    35839
280
     0
281
     1
  0
CLASS
  1
AMDTNOTE
  2
AmdtNote
  3
"AcmSymBB|Product Description: AutoCAD Mechanical|Company: Autodesk"
 90
    35839
280
     0
281
     1
  0
CLASS
  1
STDPART2D
  2
AmgStdPart
  3
"g3vace|Class: AmgStdPart|Product Description: AutoCAD Mechanical|Company: Autodesk"
 90
    35839
280
     0
281
     1
  0
CLASS
  1
ACDBSTDPARTRES_LINE
  2
AcDbStdPartRes_Line
  3
"g3vace|Class: AcDbStdPartRes_Line|Product Description: AutoCAD Mechanical|Company: Autodesk"
 90
    32768
280
     0
281
     0
  0
CLASS
  1
ACMDATAENTRY
  2
AcmDataEntry
  3
"AcmSymBB|Product Description: AutoCAD Mechanical|Company: Autodesk"
 90
    32768
280
     0
281
     0
  0
CLASS
  1
ACDBOPPOLYLINERES
  2
AcDbOpPolylineRes
  3
AcGrefServices
 90
    32768
280
     0
281
     0
  0
CLASS
  1
ACMPARTLIST
  2
AcmPartList
  3
"AcmSymBB|Product Description: AutoCAD Mechanical|Company: Autodesk"
 90
    35839
280
     0
281
     1
  0
CLASS
  1
ACDBLINERES
  2
AcDbLineRes
  3
AcGrefServices
 90
    32768
280
     0
281
     0
  0
CLASS
  1
ACRFINSADJ
  2
AcRfInsAdjuster
  3
AcMeServices
 90
    32768
280
     0
281
     0
  0
CLASS
  1
AM_DRAWING_MGR
  2
AcDmDwgMgr
  3
AcMechDwgViewMgmt
 90
        0
280
     0
281
     0
  0
CLASS
  1
AM_DWG_DOCUMENT
  2
AcDmDwgDocument
  3
AcMechDwgViewMgmt
 90
        0
280
     0
281
     0
  0
CLASS
  1
AM_DWG_SHEET
  2
AcDmSheet
  3
AcMechDwgViewMgmt
 90
        0
280
     0
281
     0
  0
CLASS
  1
AM_VIEWDIMPARMAP
  2
AcDmViewDimParMap
  3
AcMechDwgViewMgmt
 90
        0
280
     0
281
     0
  0
CLASS
  1
AM_DWGMGR_NAME
  2
AcDmDwgMgrName
  3
AcMechDwgViewMgmt
 90
        0
280
     0
281
     0
  0
CLASS
  1
AMDTMENUSTATEMGR
  2
AmdtMenuStateMgr
  3
McadcomServices
 90
        0
280
     0
281
     0
  0
CLASS
  1
AMDTMCOMMENUSTATE
  2
AmdtMcomMenuState
  3
McadcomServices
 90
        0
280
     0
281
     0
  0
CLASS
  1
ASAPP
  2
AcAsAppObject
  3
AutoSurfServices
 90
        0
280
     0
281
     0
  0
CLASS
  1
IM_STATIC_MAN
  2
AcImStaticVarManager
  3
AcMeServices
 90
    32768
280
     0
281
     0
  0
CLASS
  1
ACIMDBLSTATICVAR
  2
AcImDblStaticVar
  3
AcMeServices
 90
    32768
280
     0
281
     0
  0
CLASS
  1
ACIMSTRSTATICVAR
  2
AcImStrStaticVar
  3
AcMeServices
 90
    32768
280
     0
281
     0
  0
CLASS
  1
ACIMINTSTATICVAR
  2
AcImIntStaticVar
  3
AcMeServices
 90
    32768
280
     0
281
     0
  0
CLASS
  1
ACASGREFMASTER
  2
AcAsGrefMaster
  3
AutoSurfResolverServices
 90
        0
280
     0
281
     0
  0
CLASS
  1
ACADGREFMODULE
  2
AcAdGrefModule
  3
AdGrefServices
 90
        0
280
     0
281
     0
  0
CLASS
  1
AMDTMAPISURFMOUDULE
  2
AmdtMApiSurfModule
  3
MApiSurfServices
 90
        0
280
     0
281
     0
  0
CLASS
  1
MAPIAMMOUDLE
  2
MApiAmModule
  3
MApiAmServices
 90
        0
280
     0
281
     0
  0
CLASS
  1
AMDTADMENUSTATE
  2
AmdtAdMenuState
  3
DesignerServices
 90
        0
280
     0
281
     0
  0
CLASS
  1
ADAPPL
  2
AcAdAppl
  3
DesignerServices
 90
        0
280
     0
281
     0
  0
CLASS
  1
DEPMGR
  2
AcAdDepMgr
  3
DesignerServices
 90
        0
280
     0
281
     0
  0
CLASS
  1
PARAMMGR
  2
AcAdParamMgr
  3
DesignerServices
 90
        0
280
     0
281
     0
  0
CLASS
  1
PARAMSCOPE
  2
AcAdParamScope
  3
DesignerServices
 90
        0
280
     0
281
     0
  0
CLASS
  1
NAMEDAPPL
  2
AcAdNamedAppl
  3
DesignerServices
 90
        0
280
     0
281
     0
  0
CLASS
  1
ADHNTMPLT
  2
AdHoleNoteTemplateMgr
  3
DesignerServices
 90
    32768
280
     0
281
     0
  0
CLASS
  1
AM_HNTEMPLATE_MGR_NAME
  2
AdHoleNoteTemplateMgrName
  3
DesignerServices
 90
    32768
280
     0
281
     0
  0
CLASS
  1
AMDTDMMENUSTATE
  2
AmdtDmMenuState
  3
AcMechDwgViewMgmt
 90
        0
280
     0
281
     0
  0
CLASS
  1
MAPIADMODULE
  2
MApiAdModule
  3
MApiAdServices
 90
        0
280
     0
281
     0
  0
CLASS
  1
AMDTAMMENUSTATE
  2
AmdtAmMenuState
  3
DesignerAssemblies
 90
        0
280
     0
281
     0
  0
CLASS
  1
ACAMPROJECT
  2
AcAmProject
  3
DesignerAssemblies
 90
        0
280
     0
281
     0
  0
CLASS
  1
ACAMGRCOMPDEF
  2
AcAmGrCompDef
  3
DesignerAssemblies
 90
        0
280
     0
281
     0
  0
CLASS
  1
ACCMCONTEXT
  2
AcCmContext
  3
DesignerAssemblies
 90
        0
280
     0
281
     0
  0
CLASS
  1
ACAMCOMPDEF
  2
AcAmCompDef
  3
DesignerAssemblies
 90
        0
280
     0
281
     0
  0
CLASS
  1
ACAMCOMPDEFMGR
  2
AcAmCompDefMgr
  3
DesignerAssemblies
 90
        0
280
     0
281
     0
  0
CLASS
  1
AMCONTEXTMGR
  2
AcAmContextMgr
  3
DesignerAssemblies
 90
        0
280
     0
281
     0
  0
CLASS
  1
ACAMCONTEXTMODELER
  2
AcAmContextModeler
  3
DesignerAssemblies
 90
        0
280
     0
281
     0
  0
CLASS
  1
CATALOGSTATE
  2
AcAmCatalogState
  3
DesignerAssemblies
 90
        0
280
     0
281
     0
  0
CLASS
  1
ACAMGRCOMPDEFSET
  2
AcAmGrCompDefSet
  3
DesignerAssemblies
 90
        0
280
     0
281
     0
  0
CLASS
  1
AMDTBROWSERDBTAB
  2
AmdtBrowserDbTab
  3
McadcomServices
 90
        0
280
     0
281
     0
  0
CLASS
  1
CBROWSERAPPOBJECT
  2
CBrowserAppObject
  3
McadcomServices
 90
        0
280
     0
281
     0
  0
CLASS
  1
DM_PLACEHOLDER
  2
AcDmSelsetPlaceholder
  3
AcMechDwgViewMgmt
 90
        0
280
     0
281
     0
  0
CLASS
  1
ACMPICKOBJ
  2
AcmPickEnt
  3
"AcmSymBB|Product Description: AutoCAD Mechanical|Company: Autodesk"
 90
    32768
280
     0
281
     1
  0
CLASS
  1
ACMNOTESTANDARDISO
  2
AmdtNoteStdISO
  3
"Amdt_StdImp|Product Description: AutoCAD Mechanical|Company: Autodesk"
 90
        0
280
     0
281
     0
  0
CLASS
  1
ACMNOTESTANDARDANSI
  2
AmdtNoteStdANSI
  3
"Amdt_StdImp|Product Description: AutoCAD Mechanical|Company: Autodesk"
 90
    32768
280
     0
281
     0
  0
CLASS
  1
ACMTHREADLINESTANDARDISO
  2
AmdtThreadLineStdISO
  3
"Amdt_StdImp|Product Description: AutoCAD Mechanical|Company: Autodesk"
 90
        0
280
     0
281
     0
  0
CLASS
  1
ACMTHREADLINESTANDARDANSI
  2
AmdtThreadLineStdANSI
  3
"Amdt_StdImp|Product Description: AutoCAD Mechanical|Company: Autodesk"
 90
    32768
280
     0
281
     0
  0
CLASS
  1
TABLESTYLE
  2
AcDbTableStyle
  3
ObjectDBX Classes
 90
     4095
280
     0
281
     0
  0
CLASS
  1
SORTENTSTABLE
  2
AcDbSortentsTable
  3
ObjectDBX Classes
 90
        0
280
     0
281
     0
  0
CLASS
  1
MATERIAL
  2
AcDbMaterial
  3
ObjectDBX Classes
 90
     1024
280
     0
281
     0
  0
CLASS
  1
VISUALSTYLE
  2
AcDbVisualStyle
  3
ObjectDBX Classes
 90
     4095
280
     0
281
     0
  0
CLASS
  1
ACRFATTGENMGR
  2
AcRfAttGeneralMgr
  3
AcAttribServices
 90
    32768
280
     0
281
     0
  0
CLASS
  1
ACRFOBJATTMGR
  2
AcRfObjAttGroupMgr
  3
AcAttribServices
 90
    32768
280
     0
281
     0
  0
CLASS
  1
ACRFMCADAPIATTHOLDER
  2
AcRfMCADAPIAttHolder
  3
AcAttribServices
 90
    32768
280
     0
281
     0
  0
CLASS
  1
AMDTSYSATTR
  2
AmdtSystemAttribute
  3
AcAttribServices
 90
    32768
280
     0
281
     0
  0
CLASS
  1
ACMTAPERSTANDARDISO
  2
AcmTaperStdISO
  3
"Amdt_StdImp|Product Description: AutoCAD Mechanical|Company: Autodesk"
 90
        0
280
     0
281
     0
  0
CLASS
  1
CAMSSTRUCTBTNSTATE
  2
StructBtnState
  3
L"DesignerAssemblies"
 90
    32768
280
     0
281
     0
  0
CLASS
  1
DIMASSOC
  2
AcDbDimAssoc
  3
"AcDbDimAssoc|Product Desc:     AcDim ARX App For Dimension|Company:          Autodesk, Inc.|WEB Address:      www.autodesk.com"
 90
    32768
280
     0
281
     0
  0
CLASS
  1
AMDTNOTETEMPLATEDB
  2
AmdtNoteTemplateDB
  3
AMDT_STDIMP_MODULE_NAME
 90
        0
280
     0
281
     0
  0
CLASS
  1
SCALE
  2
AcDbScale
  3
ObjectDBX Classes
 90
     1153
280
     0
281
     0
  0
CLASS
  1
MLEADERSTYLE
  2
AcDbMLeaderStyle
  3
ACDB_MLEADERSTYLE_CLASS
 90
     4095
280
     0
281
     0
  0
CLASS
  1
ACMANOOTATIONVIEWSTANDARDISO
  2
AmdtAnViewStdISO
  3
"Amdt_StdImp|Product Description: AutoCAD Mechanical|Company: Autodesk, Inc."
 90
    33792
280
     0
281
     0
  0
CLASS
  1
CELLSTYLEMAP
  2
AcDbCellStyleMap
  3
ObjectDBX Classes
 90
     1152
280
     0
281
     0
  0
CLASS
  1
ACMTAPERSTANDARDANSI
  2
AcmTaperStdANSI
  3
"Amdt_StdImp|Product Description: AutoCAD Mechanical|Company: Autodesk"
 90
    32768
280
     0
281
     0
  0
CLASS
  1
ACMANOOTATIONVIEWSTANDARDANSI
  2
AmdtAnViewStdANSI
  3
"Amdt_StdImp|Product Description: AutoCAD Mechanical|Company: Autodesk, Inc."
 90
    33792
280
     0
281
     0
  0
CLASS
  1
ACAMGHOLECHARTSTDANSI
  2
AcAmgHoleChartStdANSI
  3
ACMSYMBB_MODULE_NAME
 90
    32768
280
     0
281
     0
  0
CLASS
  1
ACAD_EVALUATION_GRAPH
  2
AcDbEvalGraph
  3
ObjectDBX Classes
 90
    33921
280
     0
281
     0
  0
CLASS
  1
ACAECUSTOBJ
  2
AcAeEditorObj
  3
AcAeEditorObj
 90
    33792
280
     0
281
     0
  0
CLASS
  1
AMDTEDGESTANDARDISO13715
  2
AmdtEdgeStdISO13715
  3
"Amdt_StdImp|Product Description: AutoCAD Mechanical|Company: Autodesk"
 90
        0
280
     0
281
     0
  0
CLASS
  1
ACAMGHOLECHARTSTDISO
  2
AcAmgHoleChartStdISO
  3
ACMSYMBB_MODULE_NAME
 90
        0
280
     0
281
     0
  0
ENDSEC
  0
SECTION
  2
TABLES
  0
TABLE
  2
VPORT
  5
8
330
0
100
AcDbSymbolTable
 70
     1
  0
VPORT
  5
B0EC
330
8
100
AcDbSymbolTableRecord
100
AcDbViewportTableRecord
  2
*Active
 70
     0
 10
0.0
 20
0.0
 11
1.0
 21
1.0
 12
210.0000029338453
 22
148.5000020746476
 13
0.0
 23
0.0
 14
2.5
 24
2.5
 15
10.0
 25
10.0
 16
0.0
 26
0.0
 36
1.0
 17
0.0
 27
0.0
 37
0.0
 40
299.1956312857614
 41
1.648648648648648
 42
50.0
 43
0.0
 44
0.0
 50
0.0
 51
0.0
 71
     0
 72
   100
 73
     1
 74
     3
 75
     0
 76
     0
 77
     0
 78
     0
281
     0
 65
     0
110
0.0
120
0.0
130
0.0
111
1.0
121
0.0
131
0.0
112
0.0
122
1.0
132
0.0
 79
     0
146
0.0
  0
ENDTAB
  0
TABLE
  2
LTYPE
  5
5
330
0
100
AcDbSymbolTable
 70
    56
  0
LTYPE
  5
14
330
5
100
AcDbSymbolTableRecord
100
AcDbLinetypeTableRecord
  2
ByBlock
 70
     0
  3

 72
    65
 73
     0
 40
0.0
  0
LTYPE
  5
15
330
5
100
AcDbSymbolTableRecord
100
AcDbLinetypeTableRecord
  2
ByLayer
 70
     0
  3

 72
    65
 73
     0
 40
0.0
  0
LTYPE
  5
16
330
5
100
AcDbSymbolTableRecord
100
AcDbLinetypeTableRecord
  2
Continuous
 70
     0
  3
Solid line
 72
    65
 73
     0
 40
0.0
  0
LTYPE
  5
4F
330
5
100
AcDbSymbolTableRecord
100
AcDbLinetypeTableRecord
  2
AM_ISO02W050
 70
     0
  3
__ __ __ __ __ __ __ __ __ __ __ __ __ __ __
 72
    65
 73
     2
 40
7.5
 49
6.0
 74
     0
 49
-1.5
 74
     0
  0
LTYPE
  5
52
330
5
100
AcDbSymbolTableRecord
100
AcDbLinetypeTableRecord
  2
Amconstr
 70
     0
  3
_______________________
 72
    65
 73
     2
 40
9999.0
 49
9999.0
 74
     0
 49
0.0
 74
     0
  0
LTYPE
  5
64
330
5
100
AcDbSymbolTableRecord
100
AcDbLinetypeTableRecord
  2
ACISOWELD
 70
     0
  3
_ _ _ _ _
 72
    65
 73
     2
 40
2.0
 49
2.0
 74
     0
 49
-1.0
 74
     0
  0
LTYPE
  5
65
330
5
100
AcDbSymbolTableRecord
100
AcDbLinetypeTableRecord
  2
ACISOTGB
 70
     0
  3
__ . . __ . .
 72
    65
 73
     6
 40
9.0
 49
4.0
 74
     0
 49
-1.0
 74
     0
 49
1.0
 74
     0
 49
-1.0
 74
     0
 49
1.0
 74
     0
 49
-1.0
 74
     0
  0
LTYPE
  5
66
330
5
100
AcDbSymbolTableRecord
100
AcDbLinetypeTableRecord
  2
ACISOTGL
 70
     0
  3
_ _ _ _ _
 72
    65
 73
     2
 40
3.0
 49
2.0
 74
     0
 49
-1.0
 74
     0
  0
LTYPE
  5
69
330
5
100
AcDbSymbolTableRecord
100
AcDbLinetypeTableRecord
  2
CENTER
 70
     0
  3
__ . __
 72
    65
 73
     4
 40
7.0
 49
4.0
 74
     0
 49
-1.0
 74
     0
 49
1.0
 74
     0
 49
-1.0
 74
     0
  0
LTYPE
  5
A6E
330
5
100
AcDbSymbolTableRecord
100
AcDbLinetypeTableRecord
  2
PHANTOM2
 70
     0
  3
Phantom (.5x) ___ _ _ ___ _ _ ___ _ _ ___ _ _
 72
    65
 73
     6
 40
31.75
 49
15.875
 74
     0
 49
-3.174999999999998
 74
     0
 49
3.174999999999998
 74
     0
 49
-3.174999999999998
 74
     0
 49
3.174999999999998
 74
     0
 49
-3.174999999999998
 74
     0
  0
LTYPE
  5
4DED
330
5
100
AcDbSymbolTableRecord
100
AcDbLinetypeTableRecord
  2
中線
 70
     0
  3
___________________
 72
    65
 73
     2
 40
2.0
 49
1.0
 74
     0
 49
1.0
 74
     0
  0
LTYPE
  5
4DF6
330
5
100
AcDbSymbolTableRecord
100
AcDbLinetypeTableRecord
  2
細線
 70
     0
  3
___________________
 72
    65
 73
     2
 40
2.0
 49
1.0
 74
     0
 49
1.0
 74
     0
  0
LTYPE
  5
4EA7
330
5
100
AcDbSymbolTableRecord
100
AcDbLinetypeTableRecord
  2
文字
 70
     0
  3
_________________
 72
    65
 73
     2
 40
2.0
 49
1.0
 74
     0
 49
1.0
 74
     0
  0
LTYPE
  5
4EA9
330
5
100
AcDbSymbolTableRecord
100
AcDbLinetypeTableRecord
  2
寸法線
 70
     0
  3
________________
 72
    65
 73
     2
 40
2.0
 49
1.0
 74
     0
 49
1.0
 74
     0
  0
LTYPE
  5
5185
330
5
100
AcDbSymbolTableRecord
100
AcDbLinetypeTableRecord
  2
中心線1
 70
     0
  3
___ _ ___ _ ___
 72
    65
 73
     4
 40
18.0
 49
12.0
 74
     0
 49
-2.0
 74
     0
 49
2.0
 74
     0
 49
-2.0
 74
     0
  0
LTYPE
  5
5188
330
5
100
AcDbSymbolTableRecord
100
AcDbLinetypeTableRecord
  2
補助線
 70
     0
  3
______________
 72
    65
 73
     2
 40
2.0
 49
1.0
 74
     0
 49
1.0
 74
     0
  0
LTYPE
  5
6427
330
5
100
AcDbSymbolTableRecord
100
AcDbLinetypeTableRecord
  2
HIDDEN
 70
     0
  3
Hidden __ __ __ __ __ __ __ __ __ __ __ __ __ _
 72
    65
 73
     2
 40
0.375
 49
0.25
 74
     0
 49
-0.125
 74
     0
  0
LTYPE
  5
AC9E
330
5
100
AcDbSymbolTableRecord
100
AcDbLinetypeTableRecord
  2
Amzigzag
 70
     0
  3
/\/-/\/-/\/-/\/-/\/-/\/
 72
    65
 73
     2
 40
11.0001
 49
0.0001
 74
     4
 75
   135
340
56
 46
0.04
 50
0.0
 44
0.0
 45
0.0
 49
-11.0
 74
     0
  0
LTYPE
  5
AF95
330
5
100
AcDbSymbolTableRecord
100
AcDbLinetypeTableRecord
  2
AM_ISO08W050
 70
     0
  3
____ . ____ . ____ . ____ . ____ . ____ . ____
 72
    65
 73
     4
 40
18.0
 49
12.0
 74
     0
 49
-1.5
 74
     0
 49
3.0
 74
     0
 49
-1.5
 74
     0
  0
LTYPE
  5
AF96
330
5
100
AcDbSymbolTableRecord
100
AcDbLinetypeTableRecord
  2
AM_ISO09W050
 70
     0
  3
_____ . . _____ . . _____ . . ____ .. ____
 72
    65
 73
     6
 40
22.5
 49
12.0
 74
     0
 49
-1.5
 74
     0
 49
3.0
 74
     0
 49
-1.5
 74
     0
 49
3.0
 74
     0
 49
-1.5
 74
     0
  0
LTYPE
  5
AF97
330
5
100
AcDbSymbolTableRecord
100
AcDbLinetypeTableRecord
  2
AM_ISO08W050x2
 70
     0
  3
__ . __ . __ . __ . __ . __
 72
    65
 73
     4
 40
9.0
 49
6.0
 74
     0
 49
-0.75
 74
     0
 49
1.5
 74
     0
 49
-0.75
 74
     0
  0
LTYPE
  5
AF98
330
5
100
AcDbSymbolTableRecord
100
AcDbLinetypeTableRecord
  2
AM_ISO02W050x2
 70
     0
  3
 _ _ _ _ _ _ _ _ _ _ _ _
 72
    65
 73
     2
 40
3.75
 49
3.0
 74
     0
 49
-0.75
 74
     0
  0
LTYPE
  5
C2AE
330
5
100
AcDbSymbolTableRecord
100
AcDbLinetypeTableRecord
  2
AI-Linetype-26
 70
     0
  3
Adobe Illustrator Linetype No. 26
 72
    65
 73
     4
 40
60.45904350280761
 49
37.78688430786133
 74
     0
 49
-7.557386398315427
 74
     0
 49
7.557386398315427
 74
     0
 49
-7.557386398315427
 74
     0
  0
LTYPE
  5
C2AF
330
5
100
AcDbSymbolTableRecord
100
AcDbLinetypeTableRecord
  2
AI-Linetype-27
 70
     0
  3
Adobe Illustrator Linetype No. 27
 72
    65
 73
     4
 40
60.45904350280761
 49
37.78688430786133
 74
     0
 49
-7.557386398315427
 74
     0
 49
7.557386398315427
 74
     0
 49
-7.557386398315427
 74
     0
  0
LTYPE
  5
C2B0
330
5
100
AcDbSymbolTableRecord
100
AcDbLinetypeTableRecord
  2
AI-Linetype-28
 70
     0
  3
Adobe Illustrator Linetype No. 28
 72
    65
 73
     4
 40
60.45904350280761
 49
37.78688430786133
 74
     0
 49
-7.557386398315427
 74
     0
 49
7.557386398315427
 74
     0
 49
-7.557386398315427
 74
     0
  0
LTYPE
  5
C2B1
330
5
100
AcDbSymbolTableRecord
100
AcDbLinetypeTableRecord
  2
AI-Linetype-29
 70
     0
  3
Adobe Illustrator Linetype No. 29
 72
    65
 73
     4
 40
60.45904350280761
 49
37.78688430786133
 74
     0
 49
-7.557386398315427
 74
     0
 49
7.557386398315427
 74
     0
 49
-7.557386398315427
 74
     0
  0
LTYPE
  5
C2B2
330
5
100
AcDbSymbolTableRecord
100
AcDbLinetypeTableRecord
  2
AI-Linetype-30
 70
     0
  3
Adobe Illustrator Linetype No. 30
 72
    65
 73
     4
 40
60.45904350280761
 49
37.78688430786133
 74
     0
 49
-7.557386398315427
 74
     0
 49
7.557386398315427
 74
     0
 49
-7.557386398315427
 74
     0
  0
LTYPE
  5
F4F5
330
5
100
AcDbSymbolTableRecord
100
AcDbLinetypeTableRecord
  2
AI-Linetype-1
 70
     0
  3
Adobe Illustrator Linetype No. 1
 72
    65
 73
     4
 40
60.45904350280761
 49
37.78688430786133
 74
     0
 49
-7.557386398315427
 74
     0
 49
7.557386398315427
 74
     0
 49
-7.557386398315427
 74
     0
  0
LTYPE
  5
F4F6
330
5
100
AcDbSymbolTableRecord
100
AcDbLinetypeTableRecord
  2
AI-Linetype-2
 70
     0
  3
Adobe Illustrator Linetype No. 2
 72
    65
 73
     4
 40
60.45904350280761
 49
37.78688430786133
 74
     0
 49
-7.557386398315427
 74
     0
 49
7.557386398315427
 74
     0
 49
-7.557386398315427
 74
     0
  0
LTYPE
  5
F4F7
330
5
100
AcDbSymbolTableRecord
100
AcDbLinetypeTableRecord
  2
AI-Linetype-3
 70
     0
  3
Adobe Illustrator Linetype No. 3
 72
    65
 73
     4
 40
60.45904350280761
 49
37.78688430786133
 74
     0
 49
-7.557386398315427
 74
     0
 49
7.557386398315427
 74
     0
 49
-7.557386398315427
 74
     0
  0
LTYPE
  5
F4F8
330
5
100
AcDbSymbolTableRecord
100
AcDbLinetypeTableRecord
  2
AI-Linetype-4
 70
     0
  3
Adobe Illustrator Linetype No. 4
 72
    65
 73
     4
 40
60.45904350280761
 49
37.78688430786133
 74
     0
 49
-7.557386398315427
 74
     0
 49
7.557386398315427
 74
     0
 49
-7.557386398315427
 74
     0
  0
LTYPE
  5
F4F9
330
5
100
AcDbSymbolTableRecord
100
AcDbLinetypeTableRecord
  2
AI-Linetype-5
 70
     0
  3
Adobe Illustrator Linetype No. 5
 72
    65
 73
     4
 40
60.45904350280761
 49
37.78688430786133
 74
     0
 49
-7.557386398315427
 74
     0
 49
7.557386398315427
 74
     0
 49
-7.557386398315427
 74
     0
  0
LTYPE
  5
F4FA
330
5
100
AcDbSymbolTableRecord
100
AcDbLinetypeTableRecord
  2
AI-Linetype-6
 70
     0
  3
Adobe Illustrator Linetype No. 6
 72
    65
 73
     4
 40
60.45904350280761
 49
37.78688430786133
 74
     0
 49
-7.557386398315427
 74
     0
 49
7.557386398315427
 74
     0
 49
-7.557386398315427
 74
     0
  0
LTYPE
  5
F4FB
330
5
100
AcDbSymbolTableRecord
100
AcDbLinetypeTableRecord
  2
AI-Linetype-7
 70
     0
  3
Adobe Illustrator Linetype No. 7
 72
    65
 73
     4
 40
60.45904350280761
 49
37.78688430786133
 74
     0
 49
-7.557386398315427
 74
     0
 49
7.557386398315427
 74
     0
 49
-7.557386398315427
 74
     0
  0
LTYPE
  5
F4FC
330
5
100
AcDbSymbolTableRecord
100
AcDbLinetypeTableRecord
  2
AI-Linetype-8
 70
     0
  3
Adobe Illustrator Linetype No. 8
 72
    65
 73
     4
 40
60.45904350280761
 49
37.78688430786133
 74
     0
 49
-7.557386398315427
 74
     0
 49
7.557386398315427
 74
     0
 49
-7.557386398315427
 74
     0
  0
LTYPE
  5
F4FD
330
5
100
AcDbSymbolTableRecord
100
AcDbLinetypeTableRecord
  2
AI-Linetype-9
 70
     0
  3
Adobe Illustrator Linetype No. 9
 72
    65
 73
     4
 40
60.45904350280761
 49
37.78688430786133
 74
     0
 49
-7.557386398315427
 74
     0
 49
7.557386398315427
 74
     0
 49
-7.557386398315427
 74
     0
  0
LTYPE
  5
F4FE
330
5
100
AcDbSymbolTableRecord
100
AcDbLinetypeTableRecord
  2
AI-Linetype-10
 70
     0
  3
Adobe Illustrator Linetype No. 10
 72
    65
 73
     4
 40
60.45904350280761
 49
37.78688430786133
 74
     0
 49
-7.557386398315427
 74
     0
 49
7.557386398315427
 74
     0
 49
-7.557386398315427
 74
     0
  0
LTYPE
  5
F4FF
330
5
100
AcDbSymbolTableRecord
100
AcDbLinetypeTableRecord
  2
AI-Linetype-11
 70
     0
  3
Adobe Illustrator Linetype No. 11
 72
    65
 73
     4
 40
60.45904350280761
 49
37.78688430786133
 74
     0
 49
-7.557386398315427
 74
     0
 49
7.557386398315427
 74
     0
 49
-7.557386398315427
 74
     0
  0
LTYPE
  5
F500
330
5
100
AcDbSymbolTableRecord
100
AcDbLinetypeTableRecord
  2
AI-Linetype-12
 70
     0
  3
Adobe Illustrator Linetype No. 12
 72
    65
 73
     4
 40
60.45904350280761
 49
37.78688430786133
 74
     0
 49
-7.557386398315427
 74
     0
 49
7.557386398315427
 74
     0
 49
-7.557386398315427
 74
     0
  0
LTYPE
  5
F501
330
5
100
AcDbSymbolTableRecord
100
AcDbLinetypeTableRecord
  2
AI-Linetype-13
 70
     0
  3
Adobe Illustrator Linetype No. 13
 72
    65
 73
     4
 40
60.45904350280761
 49
37.78688430786133
 74
     0
 49
-7.557386398315427
 74
     0
 49
7.557386398315427
 74
     0
 49
-7.557386398315427
 74
     0
  0
LTYPE
  5
F502
330
5
100
AcDbSymbolTableRecord
100
AcDbLinetypeTableRecord
  2
AI-Linetype-14
 70
     0
  3
Adobe Illustrator Linetype No. 14
 72
    65
 73
     4
 40
60.45904350280761
 49
37.78688430786133
 74
     0
 49
-7.557386398315427
 74
     0
 49
7.557386398315427
 74
     0
 49
-7.557386398315427
 74
     0
  0
LTYPE
  5
F503
330
5
100
AcDbSymbolTableRecord
100
AcDbLinetypeTableRecord
  2
AI-Linetype-15
 70
     0
  3
Adobe Illustrator Linetype No. 15
 72
    65
 73
     4
 40
60.45904350280761
 49
37.78688430786133
 74
     0
 49
-7.557386398315427
 74
     0
 49
7.557386398315427
 74
     0
 49
-7.557386398315427
 74
     0
  0
LTYPE
  5
F504
330
5
100
AcDbSymbolTableRecord
100
AcDbLinetypeTableRecord
  2
AI-Linetype-16
 70
     0
  3
Adobe Illustrator Linetype No. 16
 72
    65
 73
     4
 40
60.45904350280761
 49
37.78688430786133
 74
     0
 49
-7.557386398315427
 74
     0
 49
7.557386398315427
 74
     0
 49
-7.557386398315427
 74
     0
  0
LTYPE
  5
F505
330
5
100
AcDbSymbolTableRecord
100
AcDbLinetypeTableRecord
  2
AI-Linetype-17
 70
     0
  3
Adobe Illustrator Linetype No. 17
 72
    65
 73
     4
 40
60.45904350280761
 49
37.78688430786133
 74
     0
 49
-7.557386398315427
 74
     0
 49
7.557386398315427
 74
     0
 49
-7.557386398315427
 74
     0
  0
LTYPE
  5
F506
330
5
100
AcDbSymbolTableRecord
100
AcDbLinetypeTableRecord
  2
AI-Linetype-18
 70
     0
  3
Adobe Illustrator Linetype No. 18
 72
    65
 73
     4
 40
60.45904350280761
 49
37.78688430786133
 74
     0
 49
-7.557386398315427
 74
     0
 49
7.557386398315427
 74
     0
 49
-7.557386398315427
 74
     0
  0
LTYPE
  5
F507
330
5
100
AcDbSymbolTableRecord
100
AcDbLinetypeTableRecord
  2
AI-Linetype-19
 70
     0
  3
Adobe Illustrator Linetype No. 19
 72
    65
 73
     4
 40
60.45904350280761
 49
37.78688430786133
 74
     0
 49
-7.557386398315427
 74
     0
 49
7.557386398315427
 74
     0
 49
-7.557386398315427
 74
     0
  0
LTYPE
  5
F508
330
5
100
AcDbSymbolTableRecord
100
AcDbLinetypeTableRecord
  2
AI-Linetype-20
 70
     0
  3
Adobe Illustrator Linetype No. 20
 72
    65
 73
     4
 40
60.45904350280761
 49
37.78688430786133
 74
     0
 49
-7.557386398315427
 74
     0
 49
7.557386398315427
 74
     0
 49
-7.557386398315427
 74
     0
  0
LTYPE
  5
F509
330
5
100
AcDbSymbolTableRecord
100
AcDbLinetypeTableRecord
  2
AI-Linetype-21
 70
     0
  3
Adobe Illustrator Linetype No. 21
 72
    65
 73
     4
 40
60.45904350280761
 49
37.78688430786133
 74
     0
 49
-7.557386398315427
 74
     0
 49
7.557386398315427
 74
     0
 49
-7.557386398315427
 74
     0
  0
LTYPE
  5
F50A
330
5
100
AcDbSymbolTableRecord
100
AcDbLinetypeTableRecord
  2
AI-Linetype-22
 70
     0
  3
Adobe Illustrator Linetype No. 22
 72
    65
 73
     4
 40
60.45904350280761
 49
37.78688430786133
 74
     0
 49
-7.557386398315427
 74
     0
 49
7.557386398315427
 74
     0
 49
-7.557386398315427
 74
     0
  0
LTYPE
  5
F50B
330
5
100
AcDbSymbolTableRecord
100
AcDbLinetypeTableRecord
  2
AI-Linetype-23
 70
     0
  3
Adobe Illustrator Linetype No. 23
 72
    65
 73
     4
 40
60.45904350280761
 49
37.78688430786133
 74
     0
 49
-7.557386398315427
 74
     0
 49
7.557386398315427
 74
     0
 49
-7.557386398315427
 74
     0
  0
LTYPE
  5
F50C
330
5
100
AcDbSymbolTableRecord
100
AcDbLinetypeTableRecord
  2
AI-Linetype-24
 70
     0
  3
Adobe Illustrator Linetype No. 24
 72
    65
 73
     4
 40
60.45904350280761
 49
37.78688430786133
 74
     0
 49
-7.557386398315427
 74
     0
 49
7.557386398315427
 74
     0
 49
-7.557386398315427
 74
     0
  0
LTYPE
  5
F50D
330
5
100
AcDbSymbolTableRecord
100
AcDbLinetypeTableRecord
  2
AI-Linetype-25
 70
     0
  3
Adobe Illustrator Linetype No. 25
 72
    65
 73
     4
 40
60.45904350280761
 49
37.78688430786133
 74
     0
 49
-7.557386398315427
 74
     0
 49
7.557386398315427
 74
     0
 49
-7.557386398315427
 74
     0
  0
LTYPE
  5
F50E
330
5
100
AcDbSymbolTableRecord
100
AcDbLinetypeTableRecord
  2
AI-Linetype-31
 70
     0
  3
Adobe Illustrator Linetype No. 31
 72
    65
 73
     4
 40
60.45904350280761
 49
37.78688430786133
 74
     0
 49
-7.557386398315427
 74
     0
 49
7.557386398315427
 74
     0
 49
-7.557386398315427
 74
     0
  0
ENDTAB
  0
TABLE
  2
LAYER
  5
2
102
{ACAD_XDICTIONARY
360
3F95
102
}
330
0
100
AcDbSymbolTable
 70
    15
  0
LAYER
  5
10
102
{ACAD_XDICTIONARY
360
12546
102
}
330
2
100
AcDbSymbolTableRecord
100
AcDbLayerTableRecord
  2
0
 70
     0
 62
     7
  6
Continuous
370
    -3
390
F
  0
LAYER
  5
6D1
330
2
100
AcDbSymbolTableRecord
100
AcDbLayerTableRecord
  2
Defpoints
 70
     0
 62
     7
  6
Continuous
290
     0
370
    -3
390
F
  0
LAYER
  5
5F85
102
{ACAD_XDICTIONARY
360
12548
102
}
330
2
100
AcDbSymbolTableRecord
100
AcDbLayerTableRecord
  2
AM_0
 70
     0
 62
     7
  6
中線
370
    30
390
F
1001
AcAecLayerStandard
1000

1000

  0
LAYER
  5
AC9F
102
{ACAD_XDICTIONARY
360
1254A
102
}
330
2
100
AcDbSymbolTableRecord
100
AcDbLayerTableRecord
  2
size
 70
     0
 62
     5
  6
Continuous
290
     0
370
    25
390
F
  0
LAYER
  5
ACA0
102
{ACAD_XDICTIONARY
360
1254C
102
}
330
2
100
AcDbSymbolTableRecord
100
AcDbLayerTableRecord
  2
waku
 70
     0
 62
     7
  6
Continuous
370
    35
390
F
  0
LAYER
  5
ACA1
102
{ACAD_XDICTIONARY
360
1254E
102
}
330
2
100
AcDbSymbolTableRecord
100
AcDbLayerTableRecord
  2
AM_6
 70
     0
 62
     2
  6
文字
370
    13
390
F
1001
AcAecLayerStandard
1000

1000

  0
LAYER
  5
AD64
102
{ACAD_XDICTIONARY
360
12558
102
}
330
2
100
AcDbSymbolTableRecord
100
AcDbLayerTableRecord
  2
AM_2
 70
     0
 62
     1
  6
細線
370
    13
390
F
1001
AcAecLayerStandard
1000

1000

  0
LAYER
  5
AD68
102
{ACAD_XDICTIONARY
360
1255C
102
}
330
2
100
AcDbSymbolTableRecord
100
AcDbLayerTableRecord
  2
AM_5
 70
     0
 62
     3
  6
寸法線
370
    13
390
F
1001
AcAecLayerStandard
1000

1000

  0
LAYER
  5
AD69
102
{ACAD_XDICTIONARY
360
1255E
102
}
330
2
100
AcDbSymbolTableRecord
100
AcDbLayerTableRecord
  2
AM_7
 70
     0
 62
     4
  6
中心線1
370
    13
390
F
1001
AcAecLayerStandard
1000

1000

  0
LAYER
  5
C2B3
102
{ACAD_XDICTIONARY
360
1256E
102
}
330
2
100
AcDbSymbolTableRecord
100
AcDbLayerTableRecord
  2
240
 70
     0
 62
     7
  6
Continuous
370
    -3
390
F
  0
LAYER
  5
107CC
102
{ACAD_XDICTIONARY
360
12570
102
}
330
2
100
AcDbSymbolTableRecord
100
AcDbLayerTableRecord
  2
AM_4
 70
     0
 62
     3
  6
補助線
370
    13
390
F
1001
AcAecLayerStandard
1000

1000

  0
ENDTAB
  0
TABLE
  2
STYLE
  5
3
330
0
100
AcDbSymbolTable
 70
     7
  0
STYLE
  5
11
330
3
100
AcDbSymbolTableRecord
100
AcDbTextStyleTableRecord
  2
STANDARD
 70
     0
 40
0.0
 41
0.7
 50
0.0
 71
     0
 42
3.2
  3
romans.shx
  4
extfont.shx
  0
STYLE
  5
56
330
3
100
AcDbSymbolTableRecord
100
AcDbTextStyleTableRecord
  2

 70
     1
 40
0.0
 41
1.0
 50
0.0
 71
     0
 42
2.5
  3
ltypeshp.shx
  4

  0
STYLE
  5
58
330
3
100
AcDbSymbolTableRecord
100
AcDbTextStyleTableRecord
  2
ACISOTS
 70
     0
 40
1.0
 41
1.0
 50
0.0
 71
     0
 42
2.5
  3
isocp.shx
  4
extfont.shx
  0
STYLE
  5
63
330
3
100
AcDbSymbolTableRecord
100
AcDbTextStyleTableRecord
  2
ACISOGDT
 70
     0
 40
0.0
 41
1.0
 50
0.0
 71
     0
 42
2.5
  3
amgdt.shx
  4

  0
STYLE
  5
A74
330
3
100
AcDbSymbolTableRecord
100
AcDbTextStyleTableRecord
  2
DIM
 70
     0
 40
0.0
 41
1.0
 50
0.0
 71
     0
 42
2.5
  3
monotxt.shx
  4
extfont.shx
  0
ENDTAB
  0
TABLE
  2
VIEW
  5
6
330
0
100
AcDbSymbolTable
 70
     6
  0
VIEW
  5
AE1
330
6
100
AcDbSymbolTableRecord
100
AcDbViewTableRecord
  2
AM_VIEW1
 70
     0
 40
148.5
 10
203.6494565217391
 20
222.75
 41
407.298913043478
 11
0.0
 21
0.0
 31
1.0
 12
0.0
 22
0.0
 32
0.0
 42
50.0
 43
-1370.695619172058
 44
-1370.695619172058
 50
0.0
 71
     0
281
     0
 72
     0
  0
VIEW
  5
AE2
330
6
100
AcDbSymbolTableRecord
100
AcDbViewTableRecord
  2
AM_VIEW2
 70
     0
 40
148.5
 10
216.3505434782609
 20
222.75
 41
407.298913043478
 11
0.0
 21
0.0
 31
1.0
 12
0.0
 22
0.0
 32
0.0
 42
50.0
 43
-1370.695619172058
 44
-1370.695619172058
 50
0.0
 71
     0
281
     0
 72
     0
  0
VIEW
  5
AE3
330
6
100
AcDbSymbolTableRecord
100
AcDbViewTableRecord
  2
AM_VIEW3
 70
     0
 40
148.5
 10
203.6494565217391
 20
74.25
 41
407.298913043478
 11
0.0
 21
0.0
 31
1.0
 12
0.0
 22
0.0
 32
0.0
 42
50.0
 43
-1370.695619172058
 44
-1370.695619172058
 50
0.0
 71
     0
281
     0
 72
     0
  0
VIEW
  5
AE4
330
6
100
AcDbSymbolTableRecord
100
AcDbViewTableRecord
  2
AM_VIEW4
 70
     0
 40
148.5
 10
216.3505434782609
 20
74.25
 41
407.298913043478
 11
0.0
 21
0.0
 31
1.0
 12
0.0
 22
0.0
 32
0.0
 42
50.0
 43
-1370.695619172058
 44
-1370.695619172058
 50
0.0
 71
     0
281
     0
 72
     0
  0
VIEW
  5
AE5
330
6
100
AcDbSymbolTableRecord
100
AcDbViewTableRecord
  2
AM_VIEW5
 70
     0
 40
148.5
 10
210.0
 20
148.5
 41
407.298913043478
 11
0.0
 21
0.0
 31
1.0
 12
0.0
 22
0.0
 32
0.0
 42
50.0
 43
-1370.695619172058
 44
-1370.695619172058
 50
0.0
 71
     0
281
     0
 72
     0
  0
VIEW
  5
AE6
330
6
100
AcDbSymbolTableRecord
100
AcDbViewTableRecord
  2
AM_VIEW6
 70
     0
 40
296.99703
 10
210.0
 20
148.5
 41
814.5896801086955
 11
0.0
 21
0.0
 31
1.0
 12
0.0
 22
0.0
 32
0.0
 42
50.0
 43
-1370.695619172058
 44
-1370.695619172058
 50
0.0
 71
     0
281
     0
 72
     0
  0
ENDTAB
  0
TABLE
  2
UCS
  5
7
330
0
100
AcDbSymbolTable
 70
     0
  0
ENDTAB
  0
TABLE
  2
APPID
  5
9
330
0
100
AcDbSymbolTable
 70
    59
  0
APPID
  5
12
330
9
100
AcDbSymbolTableRecord
100
AcDbRegAppTableRecord
  2
ACAD
 70
     0
  0
APPID
  5
30
330
9
100
AcDbSymbolTableRecord
100
AcDbRegAppTableRecord
  2
MCAD_NO_VIS
 70
     0
  0
APPID
  5
31
330
9
100
AcDbSymbolTableRecord
100
AcDbRegAppTableRecord
  2
ACAD_TEMP_GRAPHIC
 70
     0
  0
APPID
  5
44
330
9
100
AcDbSymbolTableRecord
100
AcDbRegAppTableRecord
  2
ACATTRIBSERVICES
 70
     0
  0
APPID
  5
7A1
330
9
100
AcDbSymbolTableRecord
100
AcDbRegAppTableRecord
  2
GENIUS_GENDIMSH_14
 70
     0
  0
APPID
  5
A49
330
9
100
AcDbSymbolTableRecord
100
AcDbRegAppTableRecord
  2
GENIUS_GENREC_14
 70
     0
  0
APPID
  5
A4A
330
9
100
AcDbSymbolTableRecord
100
AcDbRegAppTableRecord
  2
GENIUS_GENOBJ-N-REC_13
 70
     0
  0
APPID
  5
A4B
330
9
100
AcDbSymbolTableRecord
100
AcDbRegAppTableRecord
  2
GENIUS_GENODEF_13
 70
     0
  0
APPID
  5
A4C
330
9
100
AcDbSymbolTableRecord
100
AcDbRegAppTableRecord
  2
DCO15
 70
     0
  0
APPID
  5
ADC
330
9
100
AcDbSymbolTableRecord
100
AcDbRegAppTableRecord
  2
GENIUS_GENOLIS_13
 70
     0
  0
APPID
  5
ADD
330
9
100
AcDbSymbolTableRecord
100
AcDbRegAppTableRecord
  2
GENIUS_GENOENT_13
 70
     0
  0
APPID
  5
ADE
330
9
100
AcDbSymbolTableRecord
100
AcDbRegAppTableRecord
  2
GENIUS_GENOBJ-N-TIT_13
 70
     0
  0
APPID
  5
ADF
330
9
100
AcDbSymbolTableRecord
100
AcDbRegAppTableRecord
  2
GENIUS_GENTITLE_13
 70
     0
  0
APPID
  5
AE0
330
9
100
AcDbSymbolTableRecord
100
AcDbRegAppTableRecord
  2
GENIUS_GENOREF_13
 70
     0
  0
APPID
  5
AE7
330
9
100
AcDbSymbolTableRecord
100
AcDbRegAppTableRecord
  2
GENIUS_GENSCREG_15
 70
     0
  0
APPID
  5
AE8
330
9
100
AcDbSymbolTableRecord
100
AcDbRegAppTableRecord
  2
GENIUS_GENOBJ-N-SDF_13
 70
     0
  0
APPID
  5
FAF
330
9
100
AcDbSymbolTableRecord
100
AcDbRegAppTableRecord
  2
GENIUS_GENBLLY_14
 70
     0
  0
APPID
  5
FB0
330
9
100
AcDbSymbolTableRecord
100
AcDbRegAppTableRecord
  2
GENIUS_GENTRA_14
 70
     0
  0
APPID
  5
1285
330
9
100
AcDbSymbolTableRecord
100
AcDbRegAppTableRecord
  2
GENIUS_GENDTOL_13
 70
     0
  0
APPID
  5
142D
330
9
100
AcDbSymbolTableRecord
100
AcDbRegAppTableRecord
  2
GENIUS_GENOBJ-N-CEN_13
 70
     0
  0
APPID
  5
1AB5
330
9
100
AcDbSymbolTableRecord
100
AcDbRegAppTableRecord
  2
GENIUS_GENOBJ-N-CRS_13
 70
     0
  0
APPID
  5
1B36
330
9
100
AcDbSymbolTableRecord
100
AcDbRegAppTableRecord
  2
GENIUS_GENOBJ-N-HTC_13
 70
     0
  0
APPID
  5
1B37
330
9
100
AcDbSymbolTableRecord
100
AcDbRegAppTableRecord
  2
GENIUS_GENHATCH_13
 70
     0
  0
APPID
  5
216D
330
9
100
AcDbSymbolTableRecord
100
AcDbRegAppTableRecord
  2
GENIUS_GENOBJ-N-FIL_13
 70
     0
  0
APPID
  5
2356
330
9
100
AcDbSymbolTableRecord
100
AcDbRegAppTableRecord
  2
GEVID990412420
 70
     0
  0
APPID
  5
2357
330
9
100
AcDbSymbolTableRecord
100
AcDbRegAppTableRecord
  2
GEVDC
 70
     0
  0
APPID
  5
2358
330
9
100
AcDbSymbolTableRecord
100
AcDbRegAppTableRecord
  2
GEVCON
 70
     0
  0
APPID
  5
235B
330
9
100
AcDbSymbolTableRecord
100
AcDbRegAppTableRecord
  2
GEVRADREF
 70
     0
  0
APPID
  5
2360
330
9
100
AcDbSymbolTableRecord
100
AcDbRegAppTableRecord
  2
GENIUS_GENBH_13
 70
     0
  0
APPID
  5
2362
330
9
100
AcDbSymbolTableRecord
100
AcDbRegAppTableRecord
  2
GENIUS_GENOBJ-NBEHI-BHF_13
 70
     0
  0
APPID
  5
2364
330
9
100
AcDbSymbolTableRecord
100
AcDbRegAppTableRecord
  2
GENIUS_GENOBJ-NBEHI-BHB_13
 70
     0
  0
APPID
  5
2379
330
9
100
AcDbSymbolTableRecord
100
AcDbRegAppTableRecord
  2
GENIUS_GENOBJ-F-SCPASSM_13
 70
     0
  0
APPID
  5
3D74
330
9
100
AcDbSymbolTableRecord
100
AcDbRegAppTableRecord
  2
GENIUS_GENDIM_13
 70
     0
  0
APPID
  5
3D76
330
9
100
AcDbSymbolTableRecord
100
AcDbRegAppTableRecord
  2
GENIUS_GE3DTOL_13
 70
     0
  0
APPID
  5
3D9C
330
9
100
AcDbSymbolTableRecord
100
AcDbRegAppTableRecord
  2
AD_DRAW
 70
     0
  0
APPID
  5
3DE8
330
9
100
AcDbSymbolTableRecord
100
AcDbRegAppTableRecord
  2
ASURF_PCURVE_APPNAME
 70
     0
  0
APPID
  5
3DED
330
9
100
AcDbSymbolTableRecord
100
AcDbRegAppTableRecord
  2
AMG_3D2D_5.0
 70
     0
  0
APPID
  5
3E1B
330
9
100
AcDbSymbolTableRecord
100
AcDbRegAppTableRecord
  2
DESIGNERASSEMBLIES
 70
     0
  0
APPID
  5
3E20
330
9
100
AcDbSymbolTableRecord
100
AcDbRegAppTableRecord
  2
ACADM_DIM_EDIT
 70
     0
  0
APPID
  5
3E21
330
9
100
AcDbSymbolTableRecord
100
AcDbRegAppTableRecord
  2
AMDT_DM_ADJ
 70
     0
  0
APPID
  5
4143
330
9
100
AcDbSymbolTableRecord
100
AcDbRegAppTableRecord
  2
GENIUS_GENFIL_13
 70
     0
  0
APPID
  5
4144
330
9
100
AcDbSymbolTableRecord
100
AcDbRegAppTableRecord
  2
GENIUS_GENOBJ-N-CHA_13
 70
     0
  0
APPID
  5
4E17
330
9
100
AcDbSymbolTableRecord
100
AcDbRegAppTableRecord
  2
GEVID1008153417
 70
     0
  0
APPID
  5
4E58
330
9
100
AcDbSymbolTableRecord
100
AcDbRegAppTableRecord
  2
GEVID1008153418
 70
     0
  0
APPID
  5
4E5E
330
9
100
AcDbSymbolTableRecord
100
AcDbRegAppTableRecord
  2
GEVID1008153419
 70
     0
  0
APPID
  5
4E64
330
9
100
AcDbSymbolTableRecord
100
AcDbRegAppTableRecord
  2
GEVID1008153420
 70
     0
  0
APPID
  5
4E75
330
9
100
AcDbSymbolTableRecord
100
AcDbRegAppTableRecord
  2
GEVID1008153421
 70
     0
  0
APPID
  5
4EB7
330
9
100
AcDbSymbolTableRecord
100
AcDbRegAppTableRecord
  2
GENIUS_AMGTXT_16
 70
     0
  0
APPID
  5
7645
330
9
100
AcDbSymbolTableRecord
100
AcDbRegAppTableRecord
  2
GENIUS_GENOBJ-N-DIM_13
 70
     0
  0
APPID
  5
AAD0
330
9
100
AcDbSymbolTableRecord
100
AcDbRegAppTableRecord
  2
ACAD_DSTYLE_DIMARC_LENGTH_SYMBOL
 70
     0
  0
APPID
  5
AAD1
330
9
100
AcDbSymbolTableRecord
100
AcDbRegAppTableRecord
  2
ACAD_DSTYLE_DIMJOGGED_JOGANGLE_SYMBOL
 70
     0
  0
APPID
  5
AAFD
330
9
100
AcDbSymbolTableRecord
100
AcDbRegAppTableRecord
  2
ACAD_PSEXT
 70
     0
  0
APPID
  5
AD61
330
9
100
AcDbSymbolTableRecord
100
AcDbRegAppTableRecord
  2
AcAecLayerStandard
 70
     0
  0
APPID
  5
AEE3
330
9
100
AcDbSymbolTableRecord
100
AcDbRegAppTableRecord
  2
ACAD_EXEMPT_FROM_CAD_STANDARDS
 70
     0
  0
APPID
  5
B1BE
330
9
100
AcDbSymbolTableRecord
100
AcDbRegAppTableRecord
  2
GENIUS_GENCEN_19
 70
     0
  0
APPID
  5
B597
330
9
100
AcDbSymbolTableRecord
100
AcDbRegAppTableRecord
  2
ACAD_MLEADERVER
 70
     0
  0
APPID
  5
1013B
330
9
100
AcDbSymbolTableRecord
100
AcDbRegAppTableRecord
  2
ACAUTHENVIRON
 70
     0
  0
APPID
  5
103FE
330
9
100
AcDbSymbolTableRecord
100
AcDbRegAppTableRecord
  2
ACAD_DSTYLE_DIMINSPECT
 70
     0
  0
APPID
  5
127BF
330
9
100
AcDbSymbolTableRecord
100
AcDbRegAppTableRecord
  2
AcDbAttr
 70
     0
  0
ENDTAB
  0
TABLE
  2
DIMSTYLE
  5
A
330
0
100
AcDbSymbolTable
 70
    11
100
AcDbDimStyleTable
 71
     1
340
2515
  0
DIMSTYLE
105
A76
330
A
100
AcDbSymbolTableRecord
100
AcDbDimStyleTableRecord
  2
STANDARD
 70
     0
 41
3.0
 42
1.0
 43
7.0
 44
2.0
 73
     0
 74
     0
 77
     1
140
2.799999999999998
141
0.0
143
0.0394
147
0.7
171
     4
172
     1
173
     1
176
     3
177
     3
178
     2
271
     3
272
     3
273
     8
274
     4
289
     0
340
A74
341
A66
343
A66
344
A66
  0
DIMSTYLE
105
2515
330
A
100
AcDbSymbolTableRecord
100
AcDbDimStyleTableRecord
  2
SYS
 70
     0
  4
"
 41
1.0
 42
1.0
 43
10.0
 44
1.0
 47
0.1
 48
0.1
 73
     0
 74
     0
 77
     1
 78
     8
 79
     2
140
3.5
141
0.0
143
0.0393701
146
0.71
147
1.5
172
     1
176
   256
177
   256
178
     7
271
     2
272
     2
283
     0
284
     8
340
11
371
    -1
372
    -1
1001
ACAD_DSTYLE_DIMJOGGED_JOGANGLE_SYMBOL
1070
   384
1040
0.7853981633974483
1001
ACAD_DSTYLE_DIMARC_LENGTH_SYMBOL
1070
   379
1070
     1
  0
DIMSTYLE
105
2AAB
102
{ACAD_REACTORS
330
11F74
330
11FA6
330
11FD7
330
1202F
330
12060
330
12091
330
120C2
330
12112
330
12143
330
1217D
330
121AE
102
}
330
A
100
AcDbSymbolTableRecord
100
AcDbDimStyleTableRecord
  2
SYS$0
 70
     0
  4
"
 41
1.0
 42
1.0
 43
10.0
 44
1.0
 47
0.1
 48
0.1
 73
     0
 74
     0
 77
     1
 78
     8
 79
     2
140
3.200000000000001
141
0.0
143
0.0393701
146
0.71
147
1.5
172
     1
176
   256
177
   256
178
     2
271
     2
272
     2
283
     0
284
     8
340
11
341
A66
342
6C4
371
    -1
372
    -1
1001
ACAD_DSTYLE_DIMJOGGED_JOGANGLE_SYMBOL
1070
   384
1040
0.7853981633974483
1001
ACAD_DSTYLE_DIMARC_LENGTH_SYMBOL
1070
   379
1070
     1
  0
DIMSTYLE
105
AF99
330
A
100
AcDbSymbolTableRecord
100
AcDbDimStyleTableRecord
  2
AM_ISO
 70
     0
  4
"
 41
2.5
 42
1.0
 43
10.0
 44
1.0
 47
0.1
 48
0.1
 73
     0
 74
     0
 77
     1
 78
     8
 79
     2
140
3.5
141
0.0
143
0.0393701
146
0.71
147
1.5
172
     1
176
   256
177
   256
178
     2
271
     2
272
     3
274
     4
283
     0
284
     8
340
11
371
    -1
372
    -1
  0
DIMSTYLE
105
AF9A
330
A
100
AcDbSymbolTableRecord
100
AcDbDimStyleTableRecord
  2
AM_ISO$3
 70
     0
  4
"
 41
2.5
 42
1.0
 43
10.0
 44
1.0
 47
0.1
 48
0.1
 73
     0
 77
     1
 78
     8
 79
     2
140
3.5
141
0.0
143
0.0393701
146
0.71
147
1.5
176
   256
177
   256
178
     2
271
     2
272
     3
274
     4
283
     0
284
     8
288
     1
289
     0
340
11
371
    -1
372
    -1
  0
DIMSTYLE
105
AF9B
330
A
100
AcDbSymbolTableRecord
100
AcDbDimStyleTableRecord
  2
AM_ISO$4
 70
     0
  4
"
 41
2.5
 42
1.0
 43
10.0
 44
1.0
 47
0.1
 48
0.1
 73
     0
 77
     1
 78
     8
 79
     2
140
3.5
141
0.0
143
0.0393701
146
0.71
147
1.5
176
   256
177
   256
178
     2
271
     2
272
     3
274
     4
283
     0
284
     8
288
     1
289
     0
340
11
371
    -1
372
    -1
  0
DIMSTYLE
105
AF9C
330
A
100
AcDbSymbolTableRecord
100
AcDbDimStyleTableRecord
  2
AM_ISO$6
 70
     0
  4
"
 41
2.5
 42
1.0
 43
10.0
 44
1.0
 47
0.1
 48
0.1
 73
     0
 74
     0
 78
     8
 79
     2
140
3.5
141
0.0
143
0.0393701
146
0.71
147
1.5
172
     1
176
   256
177
   256
178
     2
271
     2
272
     3
274
     4
283
     0
284
     8
340
11
371
    -1
372
    -1
  0
DIMSTYLE
105
AF9D
330
A
100
AcDbSymbolTableRecord
100
AcDbDimStyleTableRecord
  2
AM_ISO$7
 70
     0
  4
"
 41
2.5
 42
1.0
 43
10.0
 44
1.0
 47
0.1
 48
0.1
 73
     0
 74
     0
 77
     1
 78
     8
 79
     2
140
5.0
141
0.0
143
0.0393701
146
0.71
147
1.5
172
     1
176
   256
177
   256
178
     2
271
     2
272
     3
274
     4
283
     0
284
     8
340
11
371
    -1
372
    -1
  0
DIMSTYLE
105
AF9E
330
A
100
AcDbSymbolTableRecord
100
AcDbDimStyleTableRecord
  2
AM_ISO$SF
 70
     0
  4
"
 41
2.5
 42
1.0
 43
10.0
 44
1.0
 47
0.1
 48
0.1
 73
     0
 74
     0
 75
     1
 76
     1
 77
     1
 78
     8
 79
     2
140
3.5
141
0.0
143
0.0393701
146
0.71
147
1.5
172
     1
176
   256
177
   256
178
     2
271
     2
272
     3
274
     4
283
     0
284
     8
340
11
371
    -1
372
    -1
  0
DIMSTYLE
105
AF9F
330
A
100
AcDbSymbolTableRecord
100
AcDbDimStyleTableRecord
  2
AM_ISO$SH
 70
     0
  4
"
 41
2.5
 42
1.0
 43
10.0
 44
1.0
 47
0.1
 48
0.1
 73
     0
 74
     0
 75
     1
 76
     1
 77
     1
 78
     8
 79
     2
140
3.5
141
0.0
143
0.0393701
144
2.0
146
0.71
147
1.5
172
     1
173
     1
176
   256
177
   256
178
     2
271
     2
272
     3
274
     4
283
     0
284
     8
340
11
343
72
371
    -1
372
    -1
  0
ENDTAB
  0
TABLE
  2
BLOCK_RECORD
  5
1
330
0
100
AcDbSymbolTable
 70
  1446
  0
BLOCK_RECORD
  5
1F
102
{ACAD_XDICTIONARY
360
8A
102
}
330
1
100
AcDbSymbolTableRecord
100
AcDbBlockTableRecord
  2
*Model_Space
340
22
  0
BLOCK_RECORD
  5
1B
330
1
100
AcDbSymbolTableRecord
100
AcDbBlockTableRecord
  2
*Paper_Space
340
1E
  0
BLOCK_RECORD
  5
23
330
1
100
AcDbSymbolTableRecord
100
AcDbBlockTableRecord
  2
*Paper_Space0
340
26
  0
BLOCK_RECORD
  5
72
330
1
100
AcDbSymbolTableRecord
100
AcDbBlockTableRecord
  2
GENAXEH
340
0
  0
BLOCK_RECORD
  5
6C4
330
1
100
AcDbSymbolTableRecord
100
AcDbBlockTableRecord
  2
_Dot
340
0
102
{BLKREFS
331
12622
331
12623
331
12634
331
12635
331
12646
331
12647
331
12658
331
12659
331
1266A
331
1266B
331
1267C
331
1267D
331
1268E
331
1268F
331
126A0
331
126A1
331
126C4
331
126C5
331
126D6
331
126D7
331
126E8
331
126E9
102
}
  0
BLOCK_RECORD
  5
A66
330
1
100
AcDbSymbolTableRecord
100
AcDbBlockTableRecord
  2
_OPEN30
340
0
  0
BLOCK_RECORD
  5
F4C1
330
1
100
AcDbSymbolTableRecord
100
AcDbBlockTableRecord
  2
block 2834
340
0
102
{BLKREFS
331
F4BF
102
}
  0
BLOCK_RECORD
  5
F4CD
330
1
100
AcDbSymbolTableRecord
100
AcDbBlockTableRecord
  2
block 2837
340
0
102
{BLKREFS
331
F4CB
102
}
  0
BLOCK_RECORD
  5
F4D9
330
1
100
AcDbSymbolTableRecord
100
AcDbBlockTableRecord
  2
block 2840
340
0
102
{BLKREFS
331
F4D7
102
}
  0
BLOCK_RECORD
  5
F4E5
330
1
100
AcDbSymbolTableRecord
100
AcDbBlockTableRecord
  2
block 2843
340
0
102
{BLKREFS
331
F4E3
102
}
  0
BLOCK_RECORD
  5
F4F1
330
1
100
AcDbSymbolTableRecord
100
AcDbBlockTableRecord
  2
block 2846
340
0
102
{BLKREFS
331
F4EF
102
}
  0
BLOCK_RECORD
  5
11F75
330
1
100
AcDbSymbolTableRecord
100
AcDbBlockTableRecord
  2
*D1434
340
0
  0
BLOCK_RECORD
  5
11FA7
330
1
100
AcDbSymbolTableRecord
100
AcDbBlockTableRecord
  2
*D1435
340
0
  0
BLOCK_RECORD
  5
11FD8
330
1
100
AcDbSymbolTableRecord
100
AcDbBlockTableRecord
  2
*D1436
340
0
  0
BLOCK_RECORD
  5
12030
330
1
100
AcDbSymbolTableRecord
100
AcDbBlockTableRecord
  2
*D1437
340
0
  0
BLOCK_RECORD
  5
12061
330
1
100
AcDbSymbolTableRecord
100
AcDbBlockTableRecord
  2
*D1438
340
0
  0
BLOCK_RECORD
  5
12092
330
1
100
AcDbSymbolTableRecord
100
AcDbBlockTableRecord
  2
*D1439
340
0
  0
BLOCK_RECORD
  5
120C3
330
1
100
AcDbSymbolTableRecord
100
AcDbBlockTableRecord
  2
*D1440
340
0
  0
BLOCK_RECORD
  5
12113
330
1
100
AcDbSymbolTableRecord
100
AcDbBlockTableRecord
  2
*D1441
340
0
  0
BLOCK_RECORD
  5
12144
330
1
100
AcDbSymbolTableRecord
100
AcDbBlockTableRecord
  2
*D1442
340
0
  0
BLOCK_RECORD
  5
1217E
330
1
100
AcDbSymbolTableRecord
100
AcDbBlockTableRecord
  2
*D1443
340
0
  0
BLOCK_RECORD
  5
121AF
330
1
100
AcDbSymbolTableRecord
100
AcDbBlockTableRecord
  2
*D1444
340
0
  0
ENDTAB
  0
ENDSEC
  0
SECTION
  2
BLOCKS
  0
BLOCK
  5
20
330
1F
100
AcDbEntity
  8
0
100
AcDbBlockBegin
  2
*Model_Space
 70
     0
 10
0.0
 20
0.0
 30
0.0
  3
*Model_Space
  1

  0
ENDBLK
  5
21
330
1F
100
AcDbEntity
  8
0
100
AcDbBlockEnd
  0
BLOCK
  5
1C
330
1B
100
AcDbEntity
 67
     1
  8
0
100
AcDbBlockBegin
  2
*Paper_Space
 70
     0
 10
0.0
 20
0.0
 30
0.0
  3
*Paper_Space
  1

  0
ENDBLK
  5
1D
330
1B
100
AcDbEntity
 67
     1
  8
0
100
AcDbBlockEnd
  0
BLOCK
  5
24
330
23
100
AcDbEntity
 67
     1
  8
0
100
AcDbBlockBegin
  2
*Paper_Space0
 70
     0
 10
0.0
 20
0.0
 30
0.0
  3
*Paper_Space0
  1

  0
ENDBLK
  5
25
330
23
100
AcDbEntity
 67
     1
  8
0
100
AcDbBlockEnd
  0
BLOCK
  5
74
330
72
100
AcDbEntity
  8
0
100
AcDbBlockBegin
  2
GENAXEH
 70
     0
 10
0.0
 20
0.0
 30
0.0
  3
GENAXEH
  1

  0
LINE
  5
73
330
72
100
AcDbEntity
  8
0
100
AcDbLine
 10
-1.0
 20
0.0
 30
0.0
 11
1.0
 21
0.0
 31
0.0
  0
ENDBLK
  5
75
330
72
100
AcDbEntity
  8
0
100
AcDbBlockEnd
  0
BLOCK
  5
6C7
330
6C4
100
AcDbEntity
  8
0
100
AcDbBlockBegin
  2
_Dot
 70
     0
 10
0.0
 20
0.0
 30
0.0
  3
_Dot
  1

  0
LWPOLYLINE
  5
6C5
330
6C4
100
AcDbEntity
  8
0
  6
ByBlock
 62
     0
100
AcDbPolyline
 90
        2
 70
     1
 43
0.5
 10
-0.25
 20
0.0
 42
1.0
 10
0.25
 20
0.0
 42
1.0
  0
LINE
  5
6C6
330
6C4
100
AcDbEntity
  8
0
  6
ByBlock
 62
     0
370
    -2
100
AcDbLine
 10
-0.5
 20
0.0
 30
0.0
 11
-1.0
 21
0.0
 31
0.0
  0
ENDBLK
  5
6C8
330
6C4
100
AcDbEntity
  8
0
100
AcDbBlockEnd
  0
BLOCK
  5
A6A
330
A66
100
AcDbEntity
  8
0
100
AcDbBlockBegin
  2
_OPEN30
 70
     0
 10
0.0
 20
0.0
 30
0.0
  3
_OPEN30
  1

  0
LINE
  5
A67
330
A66
100
AcDbEntity
  8
0
  6
ByBlock
 62
     0
100
AcDbLine
 10
-1.0
 20
0.26794919
 30
0.0
 11
0.0
 21
0.0
 31
0.0
  0
LINE
  5
A68
330
A66
100
AcDbEntity
  8
0
  6
ByBlock
 62
     0
100
AcDbLine
 10
0.0
 20
0.0
 30
0.0
 11
-1.0
 21
-0.26794919
 31
0.0
  0
LINE
  5
A69
330
A66
100
AcDbEntity
  8
0
  6
ByBlock
 62
     0
100
AcDbLine
 10
0.0
 20
0.0
 30
0.0
 11
-1.0
 21
0.0
 31
0.0
  0
ENDBLK
  5
A6B
330
A66
100
AcDbEntity
  8
0
100
AcDbBlockEnd
  0
BLOCK
  5
F4C2
330
F4C1
100
AcDbEntity
  8
0
100
AcDbBlockBegin
  2
block 2834
 70
     0
 10
0.0
 20
0.0
 30
0.0
  3
block 2834
  1

  0
SPLINE
  5
F4C3
330
F4C1
100
AcDbEntity
  8
240
 62
     7
370
    25
100
AcDbSpline
210
0.0
220
0.0
230
1.0
 70
    11
 71
     3
 72
    32
 73
    28
 74
     0
 42
0.0000000001
 43
0.0000000001
 40
0.0
 40
0.0
 40
0.0
 40
0.0
 40
1.0
 40
1.0
 40
1.0
 40
2.0
 40
2.0
 40
2.0
 40
3.0
 40
3.0
 40
3.0
 40
4.0
 40
4.0
 40
4.0
 40
5.0
 40
5.0
 40
5.0
 40
6.0
 40
6.0
 40
6.0
 40
7.0
 40
7.0
 40
7.0
 40
8.0
 40
8.0
 40
8.0
 40
9.0
 40
9.0
 40
9.0
 40
9.0
 10
657.802734375
 20
242.9921875
 30
0.0
 10
657.6474609375
 20
243.4169921875
 30
0.0
 10
656.8837890624998
 20
243.529296875
 30
0.0
 10
656.095703125
 20
243.2431640625
 30
0.0
 10
656.095703125
 20
243.2431640625
 30
0.0
 10
656.095703125
 20
243.2431640625
 30
0.0
 10
656.095703125
 20
243.2431640625
 30
0.0
 10
655.30859375
 20
242.9560546875
 30
0.0
 10
654.794921875
 20
242.37890625
 30
0.0
 10
654.9501953125
 20
241.9541015625
 30
0.0
 10
654.9501953125
 20
241.9541015625
 30
0.0
 10
654.9501953125
 20
241.9541015625
 30
0.0
 10
654.9501953125
 20
241.9541015625
 30
0.0
 10
655.1044921875
 20
241.5283203125
 30
0.0
 10
655.869140625
 20
241.416015625
 30
0.0
 10
656.6562499999998
 20
241.7021484375
 30
0.0
 10
656.6562499999998
 20
241.7021484375
 30
0.0
 10
656.6562499999998
 20
241.7021484375
 30
0.0
 10
656.6562499999998
 20
241.7021484375
 30
0.0
 10
657.4443359375
 20
241.9892578125
 30
0.0
 10
657.95703125
 20
242.56640625
 30
0.0
 10
657.802734375
 20
242.9921875
 30
0.0
 10
657.802734375
 20
242.9921875
 30
0.0
 10
657.802734375
 20
242.9921875
 30
0.0
 10
657.802734375
 20
242.9921875
 30
0.0
 10
657.802734375
 20
242.9921875
 30
0.0
 10
657.802734375
 20
242.9921875
 30
0.0
 10
657.802734375
 20
242.9921875
 30
0.0
  0
ENDBLK
  5
F4C4
330
F4C1
100
AcDbEntity
  8
0
100
AcDbBlockEnd
  0
BLOCK
  5
F4CE
330
F4CD
100
AcDbEntity
  8
0
100
AcDbBlockBegin
  2
block 2837
 70
     0
 10
0.0
 20
0.0
 30
0.0
  3
block 2837
  1

  0
SPLINE
  5
F4CF
330
F4CD
100
AcDbEntity
  8
240
 62
     7
370
    25
100
AcDbSpline
210
0.0
220
0.0
230
1.0
 70
    11
 71
     3
 72
    32
 73
    28
 74
     0
 42
0.0000000001
 43
0.0000000001
 40
0.0
 40
0.0
 40
0.0
 40
0.0
 40
1.0
 40
1.0
 40
1.0
 40
2.0
 40
2.0
 40
2.0
 40
3.0
 40
3.0
 40
3.0
 40
4.0
 40
4.0
 40
4.0
 40
5.0
 40
5.0
 40
5.0
 40
6.0
 40
6.0
 40
6.0
 40
7.0
 40
7.0
 40
7.0
 40
8.0
 40
8.0
 40
8.0
 40
9.0
 40
9.0
 40
9.0
 40
9.0
 10
658.46875
 20
244.8232421875
 30
0.0
 10
658.314453125
 20
245.2490234375
 30
0.0
 10
657.5498046875
 20
245.361328125
 30
0.0
 10
656.7626953125
 20
245.0751953125
 30
0.0
 10
656.7626953125
 20
245.0751953125
 30
0.0
 10
656.7626953125
 20
245.0751953125
 30
0.0
 10
656.7626953125
 20
245.0751953125
 30
0.0
 10
655.974609375
 20
244.7880859375
 30
0.0
 10
655.4619140625
 20
244.2109375
 30
0.0
 10
655.6171875
 20
243.78515625
 30
0.0
 10
655.6171875
 20
243.78515625
 30
0.0
 10
655.6171875
 20
243.78515625
 30
0.0
 10
655.6171875
 20
243.78515625
 30
0.0
 10
655.771484375
 20
243.3603515625
 30
0.0
 10
656.53515625
 20
243.2470703125
 30
0.0
 10
657.3232421874998
 20
243.5341796875
 30
0.0
 10
657.3232421874998
 20
243.5341796875
 30
0.0
 10
657.3232421874998
 20
243.5341796875
 30
0.0
 10
657.3232421874998
 20
243.5341796875
 30
0.0
 10
658.111328125
 20
243.8212890625
 30
0.0
 10
658.6240234375
 20
244.3984375
 30
0.0
 10
658.46875
 20
244.8232421875
 30
0.0
 10
658.46875
 20
244.8232421875
 30
0.0
 10
658.46875
 20
244.8232421875
 30
0.0
 10
658.46875
 20
244.8232421875
 30
0.0
 10
658.46875
 20
244.8232421875
 30
0.0
 10
658.46875
 20
244.8232421875
 30
0.0
 10
658.46875
 20
244.8232421875
 30
0.0
  0
ENDBLK
  5
F4D0
330
F4CD
100
AcDbEntity
  8
0
100
AcDbBlockEnd
  0
BLOCK
  5
F4DA
330
F4D9
100
AcDbEntity
  8
0
100
AcDbBlockBegin
  2
block 2840
 70
     0
 10
0.0
 20
0.0
 30
0.0
  3
block 2840
  1

  0
SPLINE
  5
F4DB
330
F4D9
100
AcDbEntity
  8
240
 62
     7
370
    25
100
AcDbSpline
210
0.0
220
0.0
230
1.0
 70
    11
 71
     3
 72
    32
 73
    28
 74
     0
 42
0.0000000001
 43
0.0000000001
 40
0.0
 40
0.0
 40
0.0
 40
0.0
 40
1.0
 40
1.0
 40
1.0
 40
2.0
 40
2.0
 40
2.0
 40
3.0
 40
3.0
 40
3.0
 40
4.0
 40
4.0
 40
4.0
 40
5.0
 40
5.0
 40
5.0
 40
6.0
 40
6.0
 40
6.0
 40
7.0
 40
7.0
 40
7.0
 40
8.0
 40
8.0
 40
8.0
 40
9.0
 40
9.0
 40
9.0
 40
9.0
 10
659.1357421875
 20
246.6552734375
 30
0.0
 10
658.98046875
 20
247.0810546875
 30
0.0
 10
658.216796875
 20
247.193359375
 30
0.0
 10
657.4296874999999
 20
246.90625
 30
0.0
 10
657.4296874999999
 20
246.90625
 30
0.0
 10
657.4296874999999
 20
246.90625
 30
0.0
 10
657.4296874999999
 20
246.90625
 30
0.0
 10
656.6416015625
 20
246.6201171875
 30
0.0
 10
656.12890625
 20
246.04296875
 30
0.0
 10
656.283203125
 20
245.6171875
 30
0.0
 10
656.283203125
 20
245.6171875
 30
0.0
 10
656.283203125
 20
245.6171875
 30
0.0
 10
656.283203125
 20
245.6171875
 30
0.0
 10
656.4384765625
 20
245.19140625
 30
0.0
 10
657.2021484375
 20
245.0791015625
 30
0.0
 10
657.9902343749997
 20
245.3662109375
 30
0.0
 10
657.9902343749997
 20
245.3662109375
 30
0.0
 10
657.9902343749997
 20
245.3662109375
 30
0.0
 10
657.9902343749997
 20
245.3662109375
 30
0.0
 10
658.77734375
 20
245.65234375
 30
0.0
 10
659.2900390625
 20
246.2294921875
 30
0.0
 10
659.1357421875
 20
246.6552734375
 30
0.0
 10
659.1357421875
 20
246.6552734375
 30
0.0
 10
659.1357421875
 20
246.6552734375
 30
0.0
 10
659.1357421875
 20
246.6552734375
 30
0.0
 10
659.1357421875
 20
246.6552734375
 30
0.0
 10
659.1357421875
 20
246.6552734375
 30
0.0
 10
659.1357421875
 20
246.6552734375
 30
0.0
  0
ENDBLK
  5
F4DC
330
F4D9
100
AcDbEntity
  8
0
100
AcDbBlockEnd
  0
BLOCK
  5
F4E6
330
F4E5
100
AcDbEntity
  8
0
100
AcDbBlockBegin
  2
block 2843
 70
     0
 10
0.0
 20
0.0
 30
0.0
  3
block 2843
  1

  0
SPLINE
  5
F4E7
330
F4E5
100
AcDbEntity
  8
240
 62
     7
370
    25
100
AcDbSpline
210
0.0
220
0.0
230
1.0
 70
    11
 71
     3
 72
    32
 73
    28
 74
     0
 42
0.0000000001
 43
0.0000000001
 40
0.0
 40
0.0
 40
0.0
 40
0.0
 40
1.0
 40
1.0
 40
1.0
 40
2.0
 40
2.0
 40
2.0
 40
3.0
 40
3.0
 40
3.0
 40
4.0
 40
4.0
 40
4.0
 40
5.0
 40
5.0
 40
5.0
 40
6.0
 40
6.0
 40
6.0
 40
7.0
 40
7.0
 40
7.0
 40
8.0
 40
8.0
 40
8.0
 40
9.0
 40
9.0
 40
9.0
 40
9.0
 10
660.2939453124998
 20
250.8017578125
 30
0.0
 10
659.7265625
 20
251.478515625
 30
0.0
 10
658.6953124999999
 20
251.546875
 30
0.0
 10
657.9902343749997
 20
250.955078125
 30
0.0
 10
657.9902343749997
 20
250.955078125
 30
0.0
 10
657.9902343749997
 20
250.955078125
 30
0.0
 10
657.9902343749997
 20
250.955078125
 30
0.0
 10
657.2861328125
 20
250.3642578125
 30
0.0
 10
657.173828125
 20
249.3359375
 30
0.0
 10
657.7421874999997
 20
248.66015625
 30
0.0
 10
657.7421874999997
 20
248.66015625
 30
0.0
 10
657.7421874999997
 20
248.66015625
 30
0.0
 10
657.7421874999997
 20
248.66015625
 30
0.0
 10
658.3085937499999
 20
247.984375
 30
0.0
 10
659.3408203125
 20
247.9150390625
 30
0.0
 10
660.044921875
 20
248.5068359375
 30
0.0
 10
660.044921875
 20
248.5068359375
 30
0.0
 10
660.044921875
 20
248.5068359375
 30
0.0
 10
660.044921875
 20
248.5068359375
 30
0.0
 10
660.7499999999999
 20
249.0986328125
 30
0.0
 10
660.861328125
 20
250.1259765625
 30
0.0
 10
660.2939453124998
 20
250.8017578125
 30
0.0
 10
660.2939453124998
 20
250.8017578125
 30
0.0
 10
660.2939453124998
 20
250.8017578125
 30
0.0
 10
660.2939453124998
 20
250.8017578125
 30
0.0
 10
660.2939453124998
 20
250.8017578125
 30
0.0
 10
660.2939453124998
 20
250.8017578125
 30
0.0
 10
660.2939453124998
 20
250.8017578125
 30
0.0
  0
ENDBLK
  5
F4E8
330
F4E5
100
AcDbEntity
  8
0
100
AcDbBlockEnd
  0
BLOCK
  5
F4F2
330
F4F1
100
AcDbEntity
  8
0
100
AcDbBlockBegin
  2
block 2846
 70
     0
 10
0.0
 20
0.0
 30
0.0
  3
block 2846
  1

  0
SPLINE
  5
F4F3
330
F4F1
100
AcDbEntity
  8
240
 62
     7
370
    25
100
AcDbSpline
210
0.0
220
0.0
230
1.0
 70
    11
 71
     3
 72
    32
 73
    28
 74
     0
 42
0.0000000001
 43
0.0000000001
 40
0.0
 40
0.0
 40
0.0
 40
0.0
 40
1.0
 40
1.0
 40
1.0
 40
2.0
 40
2.0
 40
2.0
 40
3.0
 40
3.0
 40
3.0
 40
4.0
 40
4.0
 40
4.0
 40
5.0
 40
5.0
 40
5.0
 40
6.0
 40
6.0
 40
6.0
 40
7.0
 40
7.0
 40
7.0
 40
8.0
 40
8.0
 40
8.0
 40
9.0
 40
9.0
 40
9.0
 40
9.0
 10
659.61328125
 20
250.23046875
 30
0.0
 10
659.3994140625
 20
250.486328125
 30
0.0
 10
658.9589843749998
 20
250.4697265625
 30
0.0
 10
658.6298828124999
 20
250.193359375
 30
0.0
 10
658.6298828124999
 20
250.193359375
 30
0.0
 10
658.6298828124999
 20
250.193359375
 30
0.0
 10
658.6298828124999
 20
250.193359375
 30
0.0
 10
658.30078125
 20
249.91796875
 30
0.0
 10
658.2080078125
 20
249.4873046875
 30
0.0
 10
658.4228515625
 20
249.2314453125
 30
0.0
 10
658.4228515625
 20
249.2314453125
 30
0.0
 10
658.4228515625
 20
249.2314453125
 30
0.0
 10
658.4228515625
 20
249.2314453125
 30
0.0
 10
658.63671875
 20
248.9755859375
 30
0.0
 10
659.0771484374998
 20
248.9921875
 30
0.0
 10
659.4062499999997
 20
249.2685546875
 30
0.0
 10
659.4062499999997
 20
249.2685546875
 30
0.0
 10
659.4062499999997
 20
249.2685546875
 30
0.0
 10
659.4062499999997
 20
249.2685546875
 30
0.0
 10
659.7353515625
 20
249.5439453125
 30
0.0
 10
659.828125
 20
249.9755859375
 30
0.0
 10
659.61328125
 20
250.23046875
 30
0.0
 10
659.61328125
 20
250.23046875
 30
0.0
 10
659.61328125
 20
250.23046875
 30
0.0
 10
659.61328125
 20
250.23046875
 30
0.0
 10
659.61328125
 20
250.23046875
 30
0.0
 10
659.61328125
 20
250.23046875
 30
0.0
 10
659.61328125
 20
250.23046875
 30
0.0
  0
ENDBLK
  5
F4F4
330
F4F1
100
AcDbEntity
  8
0
100
AcDbBlockEnd
  0
BLOCK
  5
11F76
330
11F75
100
AcDbEntity
  8
0
100
AcDbBlockBegin
  2
*D1434
 70
     1
 10
0.0
 20
0.0
 30
0.0
  3
*D1434
  1

  0
LINE
  5
1261F
330
11F75
100
AcDbEntity
  8
AM_5
100
AcDbLine
 10
156.4724405622609
 20
123.2165043401631
 30
0.0
 11
156.4724405622609
 21
109.7164728020821
 31
0.0
  0
LINE
  5
12620
330
11F75
100
AcDbEntity
  8
AM_5
100
AcDbLine
 10
172.4724405622609
 20
123.2165043401631
 30
0.0
 11
172.4724405622609
 21
109.7164728020821
 31
0.0
  0
LINE
  5
12621
330
11F75
100
AcDbEntity
  8
AM_5
100
AcDbLine
 10
157.4724405622609
 20
110.7164728020821
 30
0.0
 11
171.4724405622609
 21
110.7164728020821
 31
0.0
  0
INSERT
  5
12622
330
11F75
100
AcDbEntity
  8
AM_5
100
AcDbBlockReference
  2
_Dot
 10
156.4724405622609
 20
110.7164728020821
 30
0.0
 50
180.0
  0
INSERT
  5
12623
330
11F75
100
AcDbEntity
  8
AM_5
100
AcDbBlockReference
  2
_Dot
 10
172.4724405622609
 20
110.7164728020821
 30
0.0
  0
MTEXT
  5
12624
330
11F75
100
AcDbEntity
  8
AM_5
 62
     2
100
AcDbMText
 10
164.4724405622609
 20
113.8164728020821
 30
0.0
 40
3.200000000000001
 41
0.0
 71
     5
 72
     1
  1
M
 73
     1
 44
1.0
1001
ACAD
1000
MTEXTBEGIN
1070
    73
1070
     1
1070
    44
1040
1.0
1070
    74
1070
     0
1000
MTEXTEND
  0
POINT
  5
12625
330
11F75
100
AcDbEntity
  8
Defpoints
 62
     0
100
AcDbPoint
 10
156.4724405622609
 20
124.2165043401631
 30
0.0
  0
POINT
  5
12626
330
11F75
100
AcDbEntity
  8
Defpoints
 62
     0
100
AcDbPoint
 10
172.4724405622609
 20
124.2165043401631
 30
0.0
  0
POINT
  5
12627
330
11F75
100
AcDbEntity
  8
Defpoints
 62
     0
100
AcDbPoint
 10
172.4724405622609
 20
110.7164728020821
 30
0.0
  0
ENDBLK
  5
11F77
330
11F75
100
AcDbEntity
  8
0
100
AcDbBlockEnd
  0
BLOCK
  5
11FA8
330
11FA7
100
AcDbEntity
  8
0
100
AcDbBlockBegin
  2
*D1435
 70
     1
 10
0.0
 20
0.0
 30
0.0
  3
*D1435
  1

  0
LINE
  5
12631
330
11FA7
100
AcDbEntity
  8
AM_5
100
AcDbLine
 10
131.9725932526657
 20
227.2156492738955
 30
0.0
 11
131.9725932526657
 21
281.7159851927863
 31
0.0
  0
LINE
  5
12632
330
11FA7
100
AcDbEntity
  8
AM_5
100
AcDbLine
 10
196.9722878718559
 20
227.2156492738955
 30
0.0
 11
196.9722878718559
 21
281.7159851927863
 31
0.0
  0
LINE
  5
12633
330
11FA7
100
AcDbEntity
  8
AM_5
100
AcDbLine
 10
132.9725932526657
 20
280.7159851927863
 30
0.0
 11
195.9722878718558
 21
280.7159851927863
 31
0.0
  0
INSERT
  5
12634
330
11FA7
100
AcDbEntity
  8
AM_5
100
AcDbBlockReference
  2
_Dot
 10
131.9725932526657
 20
280.7159851927863
 30
0.0
 50
180.0
  0
INSERT
  5
12635
330
11FA7
100
AcDbEntity
  8
AM_5
100
AcDbBlockReference
  2
_Dot
 10
196.9722878718559
 20
280.7159851927863
 30
0.0
  0
MTEXT
  5
12636
330
11FA7
100
AcDbEntity
  8
AM_5
 62
     2
100
AcDbMText
 10
164.4724405622608
 20
283.8159851927863
 30
0.0
 40
3.200000000000001
 41
0.0
 71
     5
 72
     1
  1
A
 73
     1
 44
1.0
1001
ACAD
1000
MTEXTBEGIN
1070
    73
1070
     1
1070
    44
1040
1.0
1070
    74
1070
     0
1000
MTEXTEND
  0
POINT
  5
12637
330
11FA7
100
AcDbEntity
  8
Defpoints
 62
     0
100
AcDbPoint
 10
131.9725932526657
 20
226.2156492738955
 30
0.0
  0
POINT
  5
12638
330
11FA7
100
AcDbEntity
  8
Defpoints
 62
     0
100
AcDbPoint
 10
196.9722878718559
 20
226.2156492738955
 30
0.0
  0
POINT
  5
12639
330
11FA7
100
AcDbEntity
  8
Defpoints
 62
     0
100
AcDbPoint
 10
196.9722878718559
 20
280.7159851927863
 30
0.0
  0
ENDBLK
  5
11FA9
330
11FA7
100
AcDbEntity
  8
0
100
AcDbBlockEnd
  0
BLOCK
  5
11FD9
330
11FD8
100
AcDbEntity
  8
0
100
AcDbBlockBegin
  2
*D1436
 70
     1
 10
0.0
 20
0.0
 30
0.0
  3
*D1436
  1

  0
LINE
  5
12643
330
11FD8
100
AcDbEntity
  8
AM_5
100
AcDbLine
 10
145.9722267956939
 20
227.2156492738955
 30
0.0
 11
145.9722267956939
 21
271.7159851927863
 31
0.0
  0
LINE
  5
12644
330
11FD8
100
AcDbEntity
  8
AM_5
100
AcDbLine
 10
182.9726543288277
 20
227.2156492738955
 30
0.0
 11
182.9726543288277
 21
271.7159851927863
 31
0.0
  0
LINE
  5
12645
330
11FD8
100
AcDbEntity
  8
AM_5
100
AcDbLine
 10
146.9722267956939
 20
270.7159851927863
 30
0.0
 11
181.9726543288277
 21
270.7159851927863
 31
0.0
  0
INSERT
  5
12646
330
11FD8
100
AcDbEntity
  8
AM_5
100
AcDbBlockReference
  2
_Dot
 10
145.9722267956939
 20
270.7159851927863
 30
0.0
 50
180.0
  0
INSERT
  5
12647
330
11FD8
100
AcDbEntity
  8
AM_5
100
AcDbBlockReference
  2
_Dot
 10
182.9726543288277
 20
270.7159851927863
 30
0.0
  0
MTEXT
  5
12648
330
11FD8
100
AcDbEntity
  8
AM_5
 62
     2
100
AcDbMText
 10
164.4724405622608
 20
273.8159851927863
 30
0.0
 40
3.200000000000001
 41
0.0
 71
     5
 72
     1
  1
B1
 73
     1
 44
1.0
1001
ACAD
1000
MTEXTBEGIN
1070
    73
1070
     1
1070
    44
1040
1.0
1070
    74
1070
     0
1000
MTEXTEND
  0
POINT
  5
12649
330
11FD8
100
AcDbEntity
  8
Defpoints
 62
     0
100
AcDbPoint
 10
145.9722267956939
 20
226.2156492738955
 30
0.0
  0
POINT
  5
1264A
330
11FD8
100
AcDbEntity
  8
Defpoints
 62
     0
100
AcDbPoint
 10
182.9726543288277
 20
226.2156492738955
 30
0.0
  0
POINT
  5
1264B
330
11FD8
100
AcDbEntity
  8
Defpoints
 62
     0
100
AcDbPoint
 10
182.9726543288277
 20
270.7159851927863
 30
0.0
  0
ENDBLK
  5
11FDA
330
11FD8
100
AcDbEntity
  8
0
100
AcDbBlockEnd
  0
BLOCK
  5
12031
330
12030
100
AcDbEntity
  8
0
100
AcDbBlockBegin
  2
*D1437
 70
     1
 10
0.0
 20
0.0
 30
0.0
  3
*D1437
  1

  0
LINE
  5
126C1
330
12030
100
AcDbEntity
  8
AM_5
100
AcDbLine
 10
266.0738368431404
 20
252.7161684212722
 30
0.0
 11
266.0738368431404
 21
271.7159851927862
 31
0.0
  0
LINE
  5
126C2
330
12030
100
AcDbEntity
  8
AM_5
100
AcDbLine
 10
280.0734703861685
 20
252.7161684212722
 30
0.0
 11
280.0734703861685
 21
271.7159851927862
 31
0.0
  0
LINE
  5
126C3
330
12030
100
AcDbEntity
  8
AM_5
100
AcDbLine
 10
267.0738368431404
 20
270.7159851927862
 30
0.0
 11
279.0734703861685
 21
270.7159851927862
 31
0.0
  0
INSERT
  5
126C4
330
12030
100
AcDbEntity
  8
AM_5
100
AcDbBlockReference
  2
_Dot
 10
266.0738368431404
 20
270.7159851927862
 30
0.0
 50
180.0
  0
INSERT
  5
126C5
330
12030
100
AcDbEntity
  8
AM_5
100
AcDbBlockReference
  2
_Dot
 10
280.0734703861685
 20
270.7159851927862
 30
0.0
  0
MTEXT
  5
126C6
330
12030
100
AcDbEntity
  8
AM_5
 62
     2
100
AcDbMText
 10
273.0736536146545
 20
273.8159851927862
 30
0.0
 40
3.200000000000001
 41
0.0
 71
     5
 72
     1
  1
C
 73
     1
 44
1.0
1001
ACAD
1000
MTEXTBEGIN
1070
    73
1070
     1
1070
    44
1040
1.0
1070
    74
1070
     0
1000
MTEXTEND
  0
POINT
  5
126C7
330
12030
100
AcDbEntity
  8
Defpoints
 62
     0
100
AcDbPoint
 10
266.0738368431404
 20
251.7161684212723
 30
0.0
  0
POINT
  5
126C8
330
12030
100
AcDbEntity
  8
Defpoints
 62
     0
100
AcDbPoint
 10
280.0734703861685
 20
251.7161684212722
 30
0.0
  0
POINT
  5
126C9
330
12030
100
AcDbEntity
  8
Defpoints
 62
     0
100
AcDbPoint
 10
280.0734703861685
 20
270.7159851927862
 30
0.0
  0
ENDBLK
  5
12032
330
12030
100
AcDbEntity
  8
0
100
AcDbBlockEnd
  0
BLOCK
  5
12062
330
12061
100
AcDbEntity
  8
0
100
AcDbBlockBegin
  2
*D1438
 70
     1
 10
0.0
 20
0.0
 30
0.0
  3
*D1438
  1

  0
LINE
  5
1269D
330
12061
100
AcDbEntity
  8
AM_5
100
AcDbLine
 10
252.0737146938679
 20
167.2157714262194
 30
0.0
 11
252.0737146938679
 21
109.7164728020821
 31
0.0
  0
LINE
  5
1269E
330
12061
100
AcDbEntity
  8
AM_5
100
AcDbLine
 10
294.0735925347975
 20
167.2165411321561
 30
0.0
 11
294.0735925347975
 21
109.7164728020821
 31
0.0
  0
LINE
  5
1269F
330
12061
100
AcDbEntity
  8
AM_5
100
AcDbLine
 10
253.073714693868
 20
110.7164728020821
 30
0.0
 11
293.0735925347975
 21
110.7164728020821
 31
0.0
  0
INSERT
  5
126A0
330
12061
100
AcDbEntity
  8
AM_5
100
AcDbBlockReference
  2
_Dot
 10
252.0737146938679
 20
110.7164728020821
 30
0.0
 50
180.0
  0
INSERT
  5
126A1
330
12061
100
AcDbEntity
  8
AM_5
100
AcDbBlockReference
  2
_Dot
 10
294.0735925347975
 20
110.7164728020821
 30
0.0
  0
MTEXT
  5
126A2
330
12061
100
AcDbEntity
  8
AM_5
 62
     2
100
AcDbMText
 10
273.0736536143327
 20
113.8164728020821
 30
0.0
 40
3.200000000000001
 41
0.0
 71
     5
 72
     1
  1
D
 73
     1
 44
1.0
1001
ACAD
1000
MTEXTBEGIN
1070
    73
1070
     1
1070
    44
1040
1.0
1070
    74
1070
     0
1000
MTEXTEND
  0
POINT
  5
126A3
330
12061
100
AcDbEntity
  8
Defpoints
 62
     0
100
AcDbPoint
 10
252.0737146938679
 20
168.2157714262194
 30
0.0
  0
POINT
  5
126A4
330
12061
100
AcDbEntity
  8
Defpoints
 62
     0
100
AcDbPoint
 10
294.0735925347975
 20
168.2165411321561
 30
0.0
  0
POINT
  5
126A5
330
12061
100
AcDbEntity
  8
Defpoints
 62
     0
100
AcDbPoint
 10
294.0735925347975
 20
110.7164728020821
 30
0.0
  0
ENDBLK
  5
12063
330
12061
100
AcDbEntity
  8
0
100
AcDbBlockEnd
  0
BLOCK
  5
12093
330
12092
100
AcDbEntity
  8
0
100
AcDbBlockBegin
  2
*D1439
 70
     1
 10
0.0
 20
0.0
 30
0.0
  3
*D1439
  1

  0
LINE
  5
1268B
330
12092
100
AcDbEntity
  8
AM_5
100
AcDbLine
 10
181.4719519529651
 20
150.2163821878391
 30
0.0
 11
216.97210464337
 21
150.2163821878391
 31
0.0
  0
LINE
  5
1268C
330
12092
100
AcDbEntity
  8
AM_5
100
AcDbLine
 10
171.9724100241799
 20
122.7164738020821
 30
0.0
 11
216.97210464337
 21
122.7164738020821
 31
0.0
  0
LINE
  5
1268D
330
12092
100
AcDbEntity
  8
AM_5
100
AcDbLine
 10
215.97210464337
 20
149.216382187839
 30
0.0
 11
215.97210464337
 21
123.7164738020821
 31
0.0
  0
INSERT
  5
1268E
330
12092
100
AcDbEntity
  8
AM_5
100
AcDbBlockReference
  2
_Dot
 10
215.97210464337
 20
150.2163821878391
 30
0.0
 50
90.0
  0
INSERT
  5
1268F
330
12092
100
AcDbEntity
  8
AM_5
100
AcDbBlockReference
  2
_Dot
 10
215.97210464337
 20
122.7164738020821
 30
0.0
 50
270.0
  0
MTEXT
  5
12690
330
12092
100
AcDbEntity
  8
AM_5
 62
     2
100
AcDbMText
 10
212.87210464337
 20
136.4664279949606
 30
0.0
 40
3.200000000000001
 41
0.0
 71
     5
 72
     1
  1
L
 11
0.0000000000000001
 21
1.0
 31
0.0
 73
     1
 44
1.0
1001
ACAD
1000
MTEXTBEGIN
1070
    73
1070
     1
1070
    44
1040
1.0
1070
    74
1070
     0
1000
MTEXTEND
  0
POINT
  5
12691
330
12092
100
AcDbEntity
  8
Defpoints
 62
     0
100
AcDbPoint
 10
180.4719519529651
 20
150.2163821878391
 30
0.0
  0
POINT
  5
12692
330
12092
100
AcDbEntity
  8
Defpoints
 62
     0
100
AcDbPoint
 10
170.9724100241799
 20
122.7164738020821
 30
0.0
  0
POINT
  5
12693
330
12092
100
AcDbEntity
  8
Defpoints
 62
     0
100
AcDbPoint
 10
215.97210464337
 20
122.7164738020821
 30
0.0
  0
ENDBLK
  5
12094
330
12092
100
AcDbEntity
  8
0
100
AcDbBlockEnd
  0
BLOCK
  5
120C4
330
120C3
100
AcDbEntity
  8
0
100
AcDbBlockBegin
  2
*D1440
 70
     1
 10
0.0
 20
0.0
 30
0.0
  3
*D1440
  1

  0
LINE
  5
12679
330
120C3
100
AcDbEntity
  8
AM_5
100
AcDbLine
 10
181.4719519529651
 20
150.2163821878391
 30
0.0
 11
216.9721046433701
 21
150.2163821878391
 31
0.0
  0
LINE
  5
1267A
330
120C3
100
AcDbEntity
  8
AM_5
100
AcDbLine
 10
177.4721962576129
 20
197.7160462689483
 30
0.0
 11
216.9721046433701
 21
197.7160462689481
 31
0.0
  0
LINE
  5
1267B
330
120C3
100
AcDbEntity
  8
AM_5
100
AcDbLine
 10
215.9721046433701
 20
151.2163821878391
 30
0.0
 11
215.9721046433701
 21
196.7160462689481
 31
0.0
  0
INSERT
  5
1267C
330
120C3
100
AcDbEntity
  8
AM_5
100
AcDbBlockReference
  2
_Dot
 10
215.9721046433701
 20
150.2163821878391
 30
0.0
 50
270.0
  0
INSERT
  5
1267D
330
120C3
100
AcDbEntity
  8
AM_5
100
AcDbBlockReference
  2
_Dot
 10
215.9721046433701
 20
197.7160462689481
 30
0.0
 50
90.0
  0
MTEXT
  5
1267E
330
120C3
100
AcDbEntity
  8
AM_5
 62
     2
100
AcDbMText
 10
212.8721046433701
 20
173.9662142283938
 30
0.0
 40
3.200000000000001
 41
0.0
 71
     5
 72
     1
  1
H2
 11
0.0000000000000001
 21
1.0
 31
0.0
 73
     1
 44
1.0
1001
ACAD
1000
MTEXTBEGIN
1070
    73
1070
     1
1070
    44
1040
1.0
1070
    74
1070
     0
1000
MTEXTEND
  0
POINT
  5
1267F
330
120C3
100
AcDbEntity
  8
Defpoints
 62
     0
100
AcDbPoint
 10
180.4719519529651
 20
150.2163821878391
 30
0.0
  0
POINT
  5
12680
330
120C3
100
AcDbEntity
  8
Defpoints
 62
     0
100
AcDbPoint
 10
176.4721962576129
 20
197.7160462689483
 30
0.0
  0
POINT
  5
12681
330
120C3
100
AcDbEntity
  8
Defpoints
 62
     0
100
AcDbPoint
 10
215.9721046433701
 20
197.7160462689481
 30
0.0
  0
ENDBLK
  5
120C5
330
120C3
100
AcDbEntity
  8
0
100
AcDbBlockEnd
  0
BLOCK
  5
12114
330
12113
100
AcDbEntity
  8
0
100
AcDbBlockBegin
  2
*D1441
 70
     1
 10
0.0
 20
0.0
 30
0.0
  3
*D1441
  1

  0
LINE
  5
12655
330
12113
100
AcDbEntity
  8
AM_5
100
AcDbLine
 10
177.4721962576129
 20
197.7160462689483
 30
0.0
 11
216.97210464337
 21
197.7160462689481
 31
0.0
  0
LINE
  5
12656
330
12113
100
AcDbEntity
  8
AM_5
100
AcDbLine
 10
165.471951952965
 20
244.7153744311666
 30
0.0
 11
216.97210464337
 21
244.7153744311666
 31
0.0
  0
LINE
  5
12657
330
12113
100
AcDbEntity
  8
AM_5
100
AcDbLine
 10
215.97210464337
 20
198.7160462689481
 30
0.0
 11
215.97210464337
 21
243.7153744311665
 31
0.0
  0
INSERT
  5
12658
330
12113
100
AcDbEntity
  8
AM_5
100
AcDbBlockReference
  2
_Dot
 10
215.97210464337
 20
197.7160462689481
 30
0.0
 50
270.0
  0
INSERT
  5
12659
330
12113
100
AcDbEntity
  8
AM_5
100
AcDbBlockReference
  2
_Dot
 10
215.97210464337
 20
244.7153744311666
 30
0.0
 50
90.0
  0
MTEXT
  5
1265A
330
12113
100
AcDbEntity
  8
AM_5
 62
     2
100
AcDbMText
 10
212.87210464337
 20
221.2157103500575
 30
0.0
 40
3.200000000000001
 41
0.0
 71
     5
 72
     1
  1
B2
 11
0.0000000000000001
 21
1.0
 31
0.0
 73
     1
 44
1.0
1001
ACAD
1000
MTEXTBEGIN
1070
    73
1070
     1
1070
    44
1040
1.0
1070
    74
1070
     0
1000
MTEXTEND
  0
POINT
  5
1265B
330
12113
100
AcDbEntity
  8
Defpoints
 62
     0
100
AcDbPoint
 10
176.4721962576129
 20
197.7160462689483
 30
0.0
  0
POINT
  5
1265C
330
12113
100
AcDbEntity
  8
Defpoints
 62
     0
100
AcDbPoint
 10
164.4719519529649
 20
244.7153744311666
 30
0.0
  0
POINT
  5
1265D
330
12113
100
AcDbEntity
  8
Defpoints
 62
     0
100
AcDbPoint
 10
215.97210464337
 20
244.7153744311666
 30
0.0
  0
ENDBLK
  5
12115
330
12113
100
AcDbEntity
  8
0
100
AcDbBlockEnd
  0
BLOCK
  5
12145
330
12144
100
AcDbEntity
  8
0
100
AcDbBlockBegin
  2
*D1442
 70
     1
 10
0.0
 20
0.0
 30
0.0
  3
*D1442
  1

  0
LINE
  5
12667
330
12144
100
AcDbEntity
  8
AM_5
100
AcDbLine
 10
181.4719519529651
 20
150.2163821878391
 30
0.0
 11
226.97210464337
 21
150.2163821878391
 31
0.0
  0
LINE
  5
12668
330
12144
100
AcDbEntity
  8
AM_5
100
AcDbLine
 10
165.471951952965
 20
258.7159851927863
 30
0.0
 11
226.97210464337
 21
258.7159851927863
 31
0.0
  0
LINE
  5
12669
330
12144
100
AcDbEntity
  8
AM_5
100
AcDbLine
 10
225.97210464337
 20
151.2163821878391
 30
0.0
 11
225.97210464337
 21
257.7159851927863
 31
0.0
  0
INSERT
  5
1266A
330
12144
100
AcDbEntity
  8
AM_5
100
AcDbBlockReference
  2
_Dot
 10
225.97210464337
 20
150.2163821878391
 30
0.0
 50
270.0
  0
INSERT
  5
1266B
330
12144
100
AcDbEntity
  8
AM_5
100
AcDbBlockReference
  2
_Dot
 10
225.97210464337
 20
258.7159851927863
 30
0.0
 50
90.0
  0
MTEXT
  5
1266C
330
12144
100
AcDbEntity
  8
AM_5
 62
     2
100
AcDbMText
 10
222.87210464337
 20
204.4661836903128
 30
0.0
 40
3.200000000000001
 41
0.0
 71
     5
 72
     1
  1
H1
 11
0.0000000000000001
 21
1.0
 31
0.0
 73
     1
 44
1.0
1001
ACAD
1000
MTEXTBEGIN
1070
    73
1070
     1
1070
    44
1040
1.0
1070
    74
1070
     0
1000
MTEXTEND
  0
POINT
  5
1266D
330
12144
100
AcDbEntity
  8
Defpoints
 62
     0
100
AcDbPoint
 10
180.4719519529651
 20
150.2163821878391
 30
0.0
  0
POINT
  5
1266E
330
12144
100
AcDbEntity
  8
Defpoints
 62
     0
100
AcDbPoint
 10
164.4719519529649
 20
258.7159851927863
 30
0.0
  0
POINT
  5
1266F
330
12144
100
AcDbEntity
  8
Defpoints
 62
     0
100
AcDbPoint
 10
225.97210464337
 20
258.7159851927863
 30
0.0
  0
ENDBLK
  5
12146
330
12144
100
AcDbEntity
  8
0
100
AcDbBlockEnd
  0
BLOCK
  5
1217F
330
1217E
100
AcDbEntity
  8
0
100
AcDbBlockBegin
  2
*D1443
 70
     1
 10
0.0
 20
0.0
 30
0.0
  3
*D1443
  1

  0
LINE
  5
126D3
330
1217E
100
AcDbEntity
  8
AM_5
100
AcDbLine
 10
148.471951952965
 20
149.216382187839
 30
0.0
 11
148.471951952965
 21
99.71647280208202
 31
0.0
  0
LINE
  5
126D4
330
1217E
100
AcDbEntity
  8
AM_5
100
AcDbLine
 10
180.4719519529651
 20
149.216382187839
 30
0.0
 11
180.4719519529651
 21
99.71647280208202
 31
0.0
  0
LINE
  5
126D5
330
1217E
100
AcDbEntity
  8
AM_5
100
AcDbLine
 10
149.471951952965
 20
100.716472802082
 30
0.0
 11
179.4719519529651
 21
100.716472802082
 31
0.0
  0
INSERT
  5
126D6
330
1217E
100
AcDbEntity
  8
AM_5
100
AcDbBlockReference
  2
_Dot
 10
148.471951952965
 20
100.716472802082
 30
0.0
 50
180.0
  0
INSERT
  5
126D7
330
1217E
100
AcDbEntity
  8
AM_5
100
AcDbBlockReference
  2
_Dot
 10
180.4719519529651
 20
100.716472802082
 30
0.0
  0
MTEXT
  5
126D8
330
1217E
100
AcDbEntity
  8
AM_5
 62
     2
100
AcDbMText
 10
164.4719519529649
 20
103.816472802082
 30
0.0
 40
3.200000000000001
 41
0.0
 71
     5
 72
     1
  1
E
 73
     1
 44
1.0
1001
ACAD
1000
MTEXTBEGIN
1070
    73
1070
     1
1070
    44
1040
1.0
1070
    74
1070
     0
1000
MTEXTEND
  0
POINT
  5
126D9
330
1217E
100
AcDbEntity
  8
Defpoints
 62
     0
100
AcDbPoint
 10
148.471951952965
 20
150.2163821878391
 30
0.0
  0
POINT
  5
126DA
330
1217E
100
AcDbEntity
  8
Defpoints
 62
     0
100
AcDbPoint
 10
180.4719519529651
 20
150.2163821878391
 30
0.0
  0
POINT
  5
126DB
330
1217E
100
AcDbEntity
  8
Defpoints
 62
     0
100
AcDbPoint
 10
180.4719519529651
 20
100.716472802082
 30
0.0
  0
ENDBLK
  5
12180
330
1217E
100
AcDbEntity
  8
0
100
AcDbBlockEnd
  0
BLOCK
  5
121B0
330
121AF
100
AcDbEntity
  8
0
100
AcDbBlockBegin
  2
*D1444
 70
     1
 10
0.0
 20
0.0
 30
0.0
  3
*D1444
  1

  0
LINE
  5
126E5
330
121AF
100
AcDbEntity
  8
AM_5
100
AcDbLine
 10
124.9727764811517
 20
164.7404767337379
 30
0.0
 11
124.9727764811517
 21
89.71647280208186
 31
0.0
  0
LINE
  5
126E6
330
121AF
100
AcDbEntity
  8
AM_5
100
AcDbLine
 10
203.97210464337
 20
164.7404767337379
 30
0.0
 11
203.97210464337
 21
89.71647280208186
 31
0.0
  0
LINE
  5
126E7
330
121AF
100
AcDbEntity
  8
AM_5
100
AcDbLine
 10
125.9727764811517
 20
90.71647280208187
 30
0.0
 11
202.97210464337
 21
90.71647280208187
 31
0.0
  0
INSERT
  5
126E8
330
121AF
100
AcDbEntity
  8
AM_5
100
AcDbBlockReference
  2
_Dot
 10
124.9727764811517
 20
90.71647280208187
 30
0.0
 50
180.0
  0
INSERT
  5
126E9
330
121AF
100
AcDbEntity
  8
AM_5
100
AcDbBlockReference
  2
_Dot
 10
203.97210464337
 20
90.71647280208187
 30
0.0
  0
MTEXT
  5
126EA
330
121AF
100
AcDbEntity
  8
AM_5
 62
     2
100
AcDbMText
 10
164.4724405622608
 20
93.81647280208188
 30
0.0
 40
3.200000000000001
 41
0.0
 71
     5
 72
     1
  1
W
 73
     1
 44
1.0
1001
ACAD
1000
MTEXTBEGIN
1070
    73
1070
     1
1070
    44
1040
1.0
1070
    74
1070
     0
1000
MTEXTEND
  0
POINT
  5
126EB
330
121AF
100
AcDbEntity
  8
Defpoints
 62
     0
100
AcDbPoint
 10
124.9727764811517
 20
165.7404767337379
 30
0.0
  0
POINT
  5
126EC
330
121AF
100
AcDbEntity
  8
Defpoints
 62
     0
100
AcDbPoint
 10
203.97210464337
 20
165.7404767337379
 30
0.0
  0
POINT
  5
126ED
330
121AF
100
AcDbEntity
  8
Defpoints
 62
     0
100
AcDbPoint
 10
203.97210464337
 20
90.71647280208187
 30
0.0
  0
ENDBLK
  5
121B1
330
121AF
100
AcDbEntity
  8
0
100
AcDbBlockEnd
  0
ENDSEC
  0
SECTION
  2
ENTITIES
  0
LINE
  5
10800
330
1F
100
AcDbEntity
  8
AM_0
100
AcDbLine
 10
266.5
 20
85.49999999999995
 30
0.0
 11
11.49999999999998
 21
85.49999999999995
 31
0.0
  0
LINE
  5
10801
330
1F
100
AcDbEntity
  8
AM_4
100
AcDbLine
 10
11.49999999999998
 20
57.5
 30
0.0
 11
266.5
 21
57.5
 31
0.0
  0
LINE
  5
10802
330
1F
100
AcDbEntity
  8
AM_0
100
AcDbLine
 10
266.5
 20
78.5
 30
0.0
 11
11.49999999999998
 21
78.5
 31
0.0
  0
LINE
  5
10805
330
1F
100
AcDbEntity
  8
AM_4
100
AcDbLine
 10
266.5
 20
64.5
 30
0.0
 11
11.49999999999998
 21
64.5
 31
0.0
  0
LINE
  5
10806
330
1F
100
AcDbEntity
  8
AM_0
100
AcDbLine
 10
11.49999999999998
 20
85.49999999999995
 30
0.0
 11
11.49999999999998
 21
8.5
 31
0.0
  0
LINE
  5
10807
330
1F
100
AcDbEntity
  8
AM_0
100
AcDbLine
 10
39.49999999999999
 20
85.49999999999995
 30
0.0
 11
39.49999999999999
 21
8.5
 31
0.0
  0
LINE
  5
10808
330
1F
100
AcDbEntity
  8
AM_4
100
AcDbLine
 10
100.5
 20
85.49999999999995
 30
0.0
 11
100.5
 21
8.5
 31
0.0
  0
LINE
  5
10809
330
1F
100
AcDbEntity
  8
AM_0
100
AcDbLine
 10
266.5
 20
85.49999999999995
 30
0.0
 11
266.5
 21
8.5
 31
0.0
  0
MTEXT
  5
1080A
330
1F
100
AcDbEntity
  8
AM_6
100
AcDbMText
 10
25.49999999999999
 20
82.0
 30
0.0
 40
3.2
 41
28.0
 71
     5
 72
     5
  1
品番
 73
     1
 44
1.0
1001
ACAD
1000
MTEXTBEGIN
1070
    73
1070
     1
1070
    44
1040
1.0
1070
    74
1070
     0
1000
MTEXTEND
  0
MTEXT
  5
1080B
330
1F
100
AcDbEntity
  8
AM_6
100
AcDbMText
 10
89.49999999999999
 20
82.0
 30
0.0
 40
3.2
 41
22.0
 71
     5
 72
     5
  1
取付ボルト：M
 73
     1
 44
1.0
1001
ACAD
1000
MTEXTBEGIN
1070
    73
1070
     1
1070
    44
1040
1.0
1070
    74
1070
     0
1000
MTEXTEND
  0
MTEXT
  5
1080C
330
1F
100
AcDbEntity
  8
AM_6
100
AcDbMText
 10
106.0
 20
82.0
 30
0.0
 40
3.2
 41
11.0
 71
     5
 72
     5
  1
A
 73
     1
 44
1.0
1001
ACAD
1000
MTEXTBEGIN
1070
    73
1070
     1
1070
    44
1040
1.0
1070
    74
1070
     0
1000
MTEXTEND
  0
LINE
  5
1080D
330
1F
100
AcDbEntity
  8
AM_0
100
AcDbLine
 10
11.49999999999998
 20
8.5
 30
0.0
 11
266.5
 21
8.5
 31
0.0
  0
MTEXT
  5
1080E
330
1F
100
AcDbEntity
  8
AM_6
100
AcDbMText
 10
25.49999999999999
 20
75.0
 30
0.0
 40
3.2
 41
28.0
 71
     5
 72
     5
  1
EB-903-8
 73
     1
 44
1.0
1001
ACAD
1000
MTEXTBEGIN
1070
    73
1070
     1
1070
    44
1040
1.0
1070
    74
1070
     0
1000
MTEXTEND
  0
MTEXT
  5
1080F
330
1F
100
AcDbEntity
  8
AM_6
100
AcDbMText
 10
106.0
 20
71.5
 30
0.0
 40
3.2
 41
11.0
 71
     5
 72
     5
  1
41
 73
     1
 44
1.0
1001
ACAD
1000
MTEXTBEGIN
1070
    73
1070
     1
1070
    44
1040
1.0
1070
    74
1070
     0
1000
MTEXTEND
  0
MTEXT
  5
10811
330
1F
100
AcDbEntity
  8
AM_6
100
AcDbMText
 10
106.0
 20
61.0
 30
0.0
 40
3.2
 41
11.0
 71
     5
 72
     5
  1
50
 73
     1
 44
1.0
1001
ACAD
1000
MTEXTBEGIN
1070
    73
1070
     1
1070
    44
1040
1.0
1070
    74
1070
     0
1000
MTEXTEND
  0
MTEXT
  5
10812
330
1F
100
AcDbEntity
  8
AM_6
100
AcDbMText
 10
106.0
 20
54.0
 30
0.0
 40
3.2
 41
11.0
 71
     5
 72
     5
  1
65
 73
     1
 44
1.0
1001
ACAD
1000
MTEXTBEGIN
1070
    73
1070
     1
1070
    44
1040
1.0
1070
    74
1070
     0
1000
MTEXTEND
  0
MTEXT
  5
10813
330
1F
100
AcDbEntity
  8
AM_6
100
AcDbMText
 10
89.49999999999999
 20
75.0
 30
0.0
 40
3.2
 41
22.0
 71
     5
 72
     5
  1
M8
 73
     1
 44
1.0
1001
ACAD
1000
MTEXTBEGIN
1070
    73
1070
     1
1070
    44
1040
1.0
1070
    74
1070
     0
1000
MTEXTEND
  0
LINE
  5
10819
330
1F
100
AcDbEntity
  8
AM_4
100
AcDbLine
 10
111.5
 20
85.49999999999995
 30
0.0
 11
111.5
 21
8.5
 31
0.0
  0
MTEXT
  5
1081A
330
1F
100
AcDbEntity
  8
AM_6
100
AcDbMText
 10
116.9999999999999
 20
82.0
 30
0.0
 40
3.2
 41
11.0
 71
     5
 72
     5
  1
B1
 73
     1
 44
1.0
1001
ACAD
1000
MTEXTBEGIN
1070
    73
1070
     1
1070
    44
1040
1.0
1070
    74
1070
     0
1000
MTEXTEND
  0
MTEXT
  5
1081B
330
1F
100
AcDbEntity
  8
AM_6
100
AcDbMText
 10
116.9999999999999
 20
71.5
 30
0.0
 40
3.2
 41
11.0
 71
     5
 72
     5
  1
25
 73
     1
 44
1.0
1001
ACAD
1000
MTEXTBEGIN
1070
    73
1070
     1
1070
    44
1040
1.0
1070
    74
1070
     0
1000
MTEXTEND
  0
LINE
  5
1081E
330
1F
100
AcDbEntity
  8
AM_4
100
AcDbLine
 10
122.4999999999999
 20
85.49999999999995
 30
0.0
 11
122.4999999999999
 21
8.5
 31
0.0
  0
MTEXT
  5
1081F
330
1F
100
AcDbEntity
  8
AM_6
100
AcDbMText
 10
138.9999999999999
 20
82.0
 30
0.0
 40
3.2
 41
11.0
 71
     5
 72
     5
  1
C
 73
     1
 44
1.0
1001
ACAD
1000
MTEXTBEGIN
1070
    73
1070
     1
1070
    44
1040
1.0
1070
    74
1070
     0
1000
MTEXTEND
  0
MTEXT
  5
10820
330
1F
100
AcDbEntity
  8
AM_6
100
AcDbMText
 10
138.9999999999999
 20
71.5
 30
0.0
 40
3.2
 41
11.0
 71
     5
 72
     5
  1
8
 73
     1
 44
1.0
1001
ACAD
1000
MTEXTBEGIN
1070
    73
1070
     1
1070
    44
1040
1.0
1070
    74
1070
     0
1000
MTEXTEND
  0
LINE
  5
10823
330
1F
100
AcDbEntity
  8
AM_4
100
AcDbLine
 10
144.5
 20
85.49999999999995
 30
0.0
 11
144.5
 21
8.5
 31
0.0
  0
MTEXT
  5
10824
330
1F
100
AcDbEntity
  8
AM_6
100
AcDbMText
 10
150.0
 20
82.0
 30
0.0
 40
3.2
 41
11.0
 71
     5
 72
     5
  1
D
 73
     1
 44
1.0
1001
ACAD
1000
MTEXTBEGIN
1070
    73
1070
     1
1070
    44
1040
1.0
1070
    74
1070
     0
1000
MTEXTEND
  0
MTEXT
  5
10825
330
1F
100
AcDbEntity
  8
AM_6
100
AcDbMText
 10
150.0
 20
71.5
 30
0.0
 40
3.2
 41
11.0
 71
     5
 72
     5
  1
28
 73
     1
 44
1.0
1001
ACAD
1000
MTEXTBEGIN
1070
    73
1070
     1
1070
    44
1040
1.0
1070
    74
1070
     0
1000
MTEXTEND
  0
LINE
  5
10828
330
1F
100
AcDbEntity
  8
AM_4
100
AcDbLine
 10
11.49999999999998
 20
50.5
 30
0.0
 11
266.5
 21
50.5
 31
0.0
  0
MTEXT
  5
1082A
330
1F
100
AcDbEntity
  8
AM_6
100
AcDbMText
 10
106.0
 20
47.0
 30
0.0
 40
3.2
 41
11.0
 71
     5
 72
     5
  1
83
 73
     1
 44
1.0
1001
ACAD
1000
MTEXTBEGIN
1070
    73
1070
     1
1070
    44
1040
1.0
1070
    74
1070
     0
1000
MTEXTEND
  0
MTEXT
  5
1082C
330
1F
100
AcDbEntity
  8
AM_6
100
AcDbMText
 10
89.49999999999999
 20
68.0
 30
0.0
 40
3.2
 41
22.0
 71
     5
 72
     5
  1
M10
 73
     1
 44
1.0
1001
ACAD
1000
MTEXTBEGIN
1070
    73
1070
     1
1070
    44
1040
1.0
1070
    74
1070
     0
1000
MTEXTEND
  0
MTEXT
  5
10830
330
1F
100
AcDbEntity
  8
AM_6
100
AcDbMText
 10
89.49999999999999
 20
61.0
 30
0.0
 40
3.2
 41
22.0
 71
     5
 72
     5
  1
M12
 73
     1
 44
1.0
1001
ACAD
1000
MTEXTBEGIN
1070
    73
1070
     1
1070
    44
1040
1.0
1070
    74
1070
     0
1000
MTEXTEND
  0
MTEXT
  5
10831
330
1F
100
AcDbEntity
  8
AM_6
100
AcDbMText
 10
116.9999999999999
 20
61.0
 30
0.0
 40
3.2
 41
11.0
 71
     5
 72
     5
  1
30
 73
     1
 44
1.0
1001
ACAD
1000
MTEXTBEGIN
1070
    73
1070
     1
1070
    44
1040
1.0
1070
    74
1070
     0
1000
MTEXTEND
  0
MTEXT
  5
10832
330
1F
100
AcDbEntity
  8
AM_6
100
AcDbMText
 10
138.9999999999999
 20
61.0
 30
0.0
 40
3.2
 41
11.0
 71
     5
 72
     5
  1
10
 73
     1
 44
1.0
1001
ACAD
1000
MTEXTBEGIN
1070
    73
1070
     1
1070
    44
1040
1.0
1070
    74
1070
     0
1000
MTEXTEND
  0
MTEXT
  5
10833
330
1F
100
AcDbEntity
  8
AM_6
100
AcDbMText
 10
150.0
 20
61.0
 30
0.0
 40
3.2
 41
11.0
 71
     5
 72
     5
  1
32
 73
     1
 44
1.0
1001
ACAD
1000
MTEXTBEGIN
1070
    73
1070
     1
1070
    44
1040
1.0
1070
    74
1070
     0
1000
MTEXTEND
  0
MTEXT
  5
10834
330
1F
100
AcDbEntity
  8
AM_6
100
AcDbMText
 10
89.49999999999999
 20
54.0
 30
0.0
 40
3.2
 41
22.0
 71
     5
 72
     5
  1
M16
 73
     1
 44
1.0
1001
ACAD
1000
MTEXTBEGIN
1070
    73
1070
     1
1070
    44
1040
1.0
1070
    74
1070
     0
1000
MTEXTEND
  0
MTEXT
  5
10835
330
1F
100
AcDbEntity
  8
AM_6
100
AcDbMText
 10
116.9999999999999
 20
54.0
 30
0.0
 40
3.2
 41
11.0
 71
     5
 72
     5
  1
37
 73
     1
 44
1.0
1001
ACAD
1000
MTEXTBEGIN
1070
    73
1070
     1
1070
    44
1040
1.0
1070
    74
1070
     0
1000
MTEXTEND
  0
MTEXT
  5
10836
330
1F
100
AcDbEntity
  8
AM_6
100
AcDbMText
 10
138.9999999999999
 20
54.0
 30
0.0
 40
3.2
 41
11.0
 71
     5
 72
     5
  1
14
 73
     1
 44
1.0
1001
ACAD
1000
MTEXTBEGIN
1070
    73
1070
     1
1070
    44
1040
1.0
1070
    74
1070
     0
1000
MTEXTEND
  0
MTEXT
  5
10837
330
1F
100
AcDbEntity
  8
AM_6
100
AcDbMText
 10
150.0
 20
54.0
 30
0.0
 40
3.2
 41
11.0
 71
     5
 72
     5
  1
42
 73
     1
 44
1.0
1001
ACAD
1000
MTEXTBEGIN
1070
    73
1070
     1
1070
    44
1040
1.0
1070
    74
1070
     0
1000
MTEXTEND
  0
MTEXT
  5
10838
330
1F
100
AcDbEntity
  8
AM_6
100
AcDbMText
 10
89.49999999999999
 20
47.0
 30
0.0
 40
3.2
 41
22.0
 71
     5
 72
     5
  1
M20
 73
     1
 44
1.0
1001
ACAD
1000
MTEXTBEGIN
1070
    73
1070
     1
1070
    44
1040
1.0
1070
    74
1070
     0
1000
MTEXTEND
  0
MTEXT
  5
10839
330
1F
100
AcDbEntity
  8
AM_6
100
AcDbMText
 10
116.9999999999999
 20
47.0
 30
0.0
 40
3.2
 41
11.0
 71
     5
 72
     5
  1
47
 73
     1
 44
1.0
1001
ACAD
1000
MTEXTBEGIN
1070
    73
1070
     1
1070
    44
1040
1.0
1070
    74
1070
     0
1000
MTEXTEND
  0
MTEXT
  5
1083A
330
1F
100
AcDbEntity
  8
AM_6
100
AcDbMText
 10
138.9999999999999
 20
47.0
 30
0.0
 40
3.2
 41
11.0
 71
     5
 72
     5
  1
18
 73
     1
 44
1.0
1001
ACAD
1000
MTEXTBEGIN
1070
    73
1070
     1
1070
    44
1040
1.0
1070
    74
1070
     0
1000
MTEXTEND
  0
MTEXT
  5
1083B
330
1F
100
AcDbEntity
  8
AM_6
100
AcDbMText
 10
150.0
 20
47.0
 30
0.0
 40
3.2
 41
11.0
 71
     5
 72
     5
  1
50
 73
     1
 44
1.0
1001
ACAD
1000
MTEXTBEGIN
1070
    73
1070
     1
1070
    44
1040
1.0
1070
    74
1070
     0
1000
MTEXTEND
  0
LINE
  5
1083C
330
1F
100
AcDbEntity
  8
AM_4
100
AcDbLine
 10
11.49999999999998
 20
22.50000000000006
 30
0.0
 11
266.5
 21
22.50000000000006
 31
0.0
  0
LINE
  5
1083D
330
1F
100
AcDbEntity
  8
AM_4
100
AcDbLine
 10
266.5
 20
36.50000000000007
 30
0.0
 11
11.49999999999998
 21
36.50000000000007
 31
0.0
  0
LINE
  5
1083E
330
1F
100
AcDbEntity
  8
AM_4
100
AcDbLine
 10
266.5
 20
29.50000000000006
 30
0.0
 11
11.49999999999998
 21
29.50000000000006
 31
0.0
  0
MTEXT
  5
10840
330
1F
100
AcDbEntity
  8
AM_6
100
AcDbMText
 10
106.0
 20
40.00000000000006
 30
0.0
 40
3.2
 41
11.0
 71
     5
 72
     5
  1
102
 73
     1
 44
1.0
1001
ACAD
1000
MTEXTBEGIN
1070
    73
1070
     1
1070
    44
1040
1.0
1070
    74
1070
     0
1000
MTEXTEND
  0
MTEXT
  5
10841
330
1F
100
AcDbEntity
  8
AM_6
100
AcDbMText
 10
106.0
 20
33.00000000000006
 30
0.0
 40
3.2
 41
11.0
 71
     5
 72
     5
  1
128
 73
     1
 44
1.0
1001
ACAD
1000
MTEXTBEGIN
1070
    73
1070
     1
1070
    44
1040
1.0
1070
    74
1070
     0
1000
MTEXTEND
  0
MTEXT
  5
10842
330
1F
100
AcDbEntity
  8
AM_6
100
AcDbMText
 10
106.0
 20
26.00000000000006
 30
0.0
 40
3.2
 41
11.0
 71
     5
 72
     5
  1
154
 73
     1
 44
1.0
1001
ACAD
1000
MTEXTBEGIN
1070
    73
1070
     1
1070
    44
1040
1.0
1070
    74
1070
     0
1000
MTEXTEND
  0
MTEXT
  5
10843
330
1F
100
AcDbEntity
  8
AM_6
100
AcDbMText
 10
106.0
 20
19.00000000000005
 30
0.0
 40
3.2
 41
11.0
 71
     5
 72
     5
  1
176
 73
     1
 44
1.0
1001
ACAD
1000
MTEXTBEGIN
1070
    73
1070
     1
1070
    44
1040
1.0
1070
    74
1070
     0
1000
MTEXTEND
  0
MTEXT
  5
10844
330
1F
100
AcDbEntity
  8
AM_6
100
AcDbMText
 10
89.49999999999999
 20
40.00000000000006
 30
0.0
 40
3.2
 41
22.0
 71
     5
 72
     5
  1
M24
 73
     1
 44
1.0
1001
ACAD
1000
MTEXTBEGIN
1070
    73
1070
     1
1070
    44
1040
1.0
1070
    74
1070
     0
1000
MTEXTEND
  0
MTEXT
  5
10848
330
1F
100
AcDbEntity
  8
AM_6
100
AcDbMText
 10
116.9999999999999
 20
40.00000000000006
 30
0.0
 40
3.2
 41
11.0
 71
     5
 72
     5
  1
58
 73
     1
 44
1.0
1001
ACAD
1000
MTEXTBEGIN
1070
    73
1070
     1
1070
    44
1040
1.0
1070
    74
1070
     0
1000
MTEXTEND
  0
MTEXT
  5
10849
330
1F
100
AcDbEntity
  8
AM_6
100
AcDbMText
 10
138.9999999999999
 20
40.00000000000006
 30
0.0
 40
3.2
 41
11.0
 71
     5
 72
     5
  1
22
 73
     1
 44
1.0
1001
ACAD
1000
MTEXTBEGIN
1070
    73
1070
     1
1070
    44
1040
1.0
1070
    74
1070
     0
1000
MTEXTEND
  0
MTEXT
  5
1084A
330
1F
100
AcDbEntity
  8
AM_6
100
AcDbMText
 10
150.0
 20
40.00000000000006
 30
0.0
 40
3.2
 41
11.0
 71
     5
 72
     5
  1
60
 73
     1
 44
1.0
1001
ACAD
1000
MTEXTBEGIN
1070
    73
1070
     1
1070
    44
1040
1.0
1070
    74
1070
     0
1000
MTEXTEND
  0
LINE
  5
1084B
330
1F
100
AcDbEntity
  8
AM_4
100
AcDbLine
 10
11.49999999999998
 20
15.50000000000006
 30
0.0
 11
266.5
 21
15.50000000000006
 31
0.0
  0
MTEXT
  5
1084C
330
1F
100
AcDbEntity
  8
AM_6
100
AcDbMText
 10
106.0
 20
12.00000000000005
 30
0.0
 40
3.2
 41
11.0
 71
     5
 72
     5
  1
200
 73
     1
 44
1.0
1001
ACAD
1000
MTEXTBEGIN
1070
    73
1070
     1
1070
    44
1040
1.0
1070
    74
1070
     0
1000
MTEXTEND
  0
MTEXT
  5
1084E
330
1F
100
AcDbEntity
  8
AM_6
100
AcDbMText
 10
89.49999999999999
 20
33.00000000000006
 30
0.0
 40
3.2
 41
22.0
 71
     5
 72
     5
  1
M30
 73
     1
 44
1.0
1001
ACAD
1000
MTEXTBEGIN
1070
    73
1070
     1
1070
    44
1040
1.0
1070
    74
1070
     0
1000
MTEXTEND
  0
MTEXT
  5
1084F
330
1F
100
AcDbEntity
  8
AM_6
100
AcDbMText
 10
116.9999999999999
 20
33.00000000000006
 30
0.0
 40
3.2
 41
11.0
 71
     5
 72
     5
  1
72
 73
     1
 44
1.0
1001
ACAD
1000
MTEXTBEGIN
1070
    73
1070
     1
1070
    44
1040
1.0
1070
    74
1070
     0
1000
MTEXTEND
  0
MTEXT
  5
10850
330
1F
100
AcDbEntity
  8
AM_6
100
AcDbMText
 10
138.9999999999999
 20
33.00000000000006
 30
0.0
 40
3.2
 41
11.0
 71
     5
 72
     5
  1
28
 73
     1
 44
1.0
1001
ACAD
1000
MTEXTBEGIN
1070
    73
1070
     1
1070
    44
1040
1.0
1070
    74
1070
     0
1000
MTEXTEND
  0
MTEXT
  5
10851
330
1F
100
AcDbEntity
  8
AM_6
100
AcDbMText
 10
150.0
 20
33.00000000000006
 30
0.0
 40
3.2
 41
11.0
 71
     5
 72
     5
  1
75
 73
     1
 44
1.0
1001
ACAD
1000
MTEXTBEGIN
1070
    73
1070
     1
1070
    44
1040
1.0
1070
    74
1070
     0
1000
MTEXTEND
  0
MTEXT
  5
10852
330
1F
100
AcDbEntity
  8
AM_6
100
AcDbMText
 10
89.49999999999999
 20
26.00000000000006
 30
0.0
 40
3.2
 41
22.0
 71
     5
 72
     5
  1
M36
 73
     1
 44
1.0
1001
ACAD
1000
MTEXTBEGIN
1070
    73
1070
     1
1070
    44
1040
1.0
1070
    74
1070
     0
1000
MTEXTEND
  0
MTEXT
  5
10853
330
1F
100
AcDbEntity
  8
AM_6
100
AcDbMText
 10
116.9999999999999
 20
26.00000000000006
 30
0.0
 40
3.2
 41
11.0
 71
     5
 72
     5
  1
90
 73
     1
 44
1.0
1001
ACAD
1000
MTEXTBEGIN
1070
    73
1070
     1
1070
    44
1040
1.0
1070
    74
1070
     0
1000
MTEXTEND
  0
MTEXT
  5
10854
330
1F
100
AcDbEntity
  8
AM_6
100
AcDbMText
 10
138.9999999999999
 20
26.00000000000006
 30
0.0
 40
3.2
 41
11.0
 71
     5
 72
     5
  1
32
 73
     1
 44
1.0
1001
ACAD
1000
MTEXTBEGIN
1070
    73
1070
     1
1070
    44
1040
1.0
1070
    74
1070
     0
1000
MTEXTEND
  0
MTEXT
  5
10855
330
1F
100
AcDbEntity
  8
AM_6
100
AcDbMText
 10
150.0
 20
26.00000000000006
 30
0.0
 40
3.2
 41
11.0
 71
     5
 72
     5
  1
90
 73
     1
 44
1.0
1001
ACAD
1000
MTEXTBEGIN
1070
    73
1070
     1
1070
    44
1040
1.0
1070
    74
1070
     0
1000
MTEXTEND
  0
MTEXT
  5
10856
330
1F
100
AcDbEntity
  8
AM_6
100
AcDbMText
 10
89.49999999999999
 20
19.00000000000005
 30
0.0
 40
3.2
 41
22.0
 71
     5
 72
     5
  1
M42
 73
     1
 44
1.0
1001
ACAD
1000
MTEXTBEGIN
1070
    73
1070
     1
1070
    44
1040
1.0
1070
    74
1070
     0
1000
MTEXTEND
  0
MTEXT
  5
10857
330
1F
100
AcDbEntity
  8
AM_6
100
AcDbMText
 10
116.9999999999999
 20
19.00000000000005
 30
0.0
 40
3.2
 41
11.0
 71
     5
 72
     5
  1
104
 73
     1
 44
1.0
1001
ACAD
1000
MTEXTBEGIN
1070
    73
1070
     1
1070
    44
1040
1.0
1070
    74
1070
     0
1000
MTEXTEND
  0
MTEXT
  5
10858
330
1F
100
AcDbEntity
  8
AM_6
100
AcDbMText
 10
138.9999999999999
 20
19.00000000000005
 30
0.0
 40
3.2
 41
11.0
 71
     5
 72
     5
  1
36
 73
     1
 44
1.0
1001
ACAD
1000
MTEXTBEGIN
1070
    73
1070
     1
1070
    44
1040
1.0
1070
    74
1070
     0
1000
MTEXTEND
  0
MTEXT
  5
10859
330
1F
100
AcDbEntity
  8
AM_6
100
AcDbMText
 10
150.0
 20
19.00000000000005
 30
0.0
 40
3.2
 41
11.0
 71
     5
 72
     5
  1
105
 73
     1
 44
1.0
1001
ACAD
1000
MTEXTBEGIN
1070
    73
1070
     1
1070
    44
1040
1.0
1070
    74
1070
     0
1000
MTEXTEND
  0
MTEXT
  5
1085A
330
1F
100
AcDbEntity
  8
AM_6
100
AcDbMText
 10
89.49999999999999
 20
12.00000000000005
 30
0.0
 40
3.2
 41
22.0
 71
     5
 72
     5
  1
M48
 73
     1
 44
1.0
1001
ACAD
1000
MTEXTBEGIN
1070
    73
1070
     1
1070
    44
1040
1.0
1070
    74
1070
     0
1000
MTEXTEND
  0
MTEXT
  5
1085B
330
1F
100
AcDbEntity
  8
AM_6
100
AcDbMText
 10
116.9999999999999
 20
12.00000000000005
 30
0.0
 40
3.2
 41
11.0
 71
     5
 72
     5
  1
116
 73
     1
 44
1.0
1001
ACAD
1000
MTEXTBEGIN
1070
    73
1070
     1
1070
    44
1040
1.0
1070
    74
1070
     0
1000
MTEXTEND
  0
MTEXT
  5
1085C
330
1F
100
AcDbEntity
  8
AM_6
100
AcDbMText
 10
138.9999999999999
 20
12.00000000000005
 30
0.0
 40
3.2
 41
11.0
 71
     5
 72
     5
  1
42
 73
     1
 44
1.0
1001
ACAD
1000
MTEXTBEGIN
1070
    73
1070
     1
1070
    44
1040
1.0
1070
    74
1070
     0
1000
MTEXTEND
  0
MTEXT
  5
1085D
330
1F
100
AcDbEntity
  8
AM_6
100
AcDbMText
 10
150.0
 20
12.00000000000005
 30
0.0
 40
3.2
 41
11.0
 71
     5
 72
     5
  1
120
 73
     1
 44
1.0
1001
ACAD
1000
MTEXTBEGIN
1070
    73
1070
     1
1070
    44
1040
1.0
1070
    74
1070
     0
1000
MTEXTEND
  0
LINE
  5
1085E
330
1F
100
AcDbEntity
  8
AM_4
100
AcDbLine
 10
11.49999999999998
 20
43.5
 30
0.0
 11
266.5
 21
43.5
 31
0.0
  0
LINE
  5
1085F
330
1F
100
AcDbEntity
  8
AM_4
100
AcDbLine
 10
177.4999999999999
 20
85.49999999999995
 30
0.0
 11
177.4999999999999
 21
8.5
 31
0.0
  0
MTEXT
  5
10860
330
1F
100
AcDbEntity
  8
AM_6
100
AcDbMText
 10
183.0
 20
82.0
 30
0.0
 40
3.2
 41
11.0
 71
     5
 72
     5
  1
L
 73
     1
 44
1.0
1001
ACAD
1000
MTEXTBEGIN
1070
    73
1070
     1
1070
    44
1040
1.0
1070
    74
1070
     0
1000
MTEXTEND
  0
MTEXT
  5
10861
330
1F
100
AcDbEntity
  8
AM_6
100
AcDbMText
 10
183.0
 20
75.0
 30
0.0
 40
3.2
 41
11.0
 71
     5
 72
     5
  1
11
 73
     1
 44
1.0
1001
ACAD
1000
MTEXTBEGIN
1070
    73
1070
     1
1070
    44
1040
1.0
1070
    74
1070
     0
1000
MTEXTEND
  0
MTEXT
  5
10862
330
1F
100
AcDbEntity
  8
AM_6
100
AcDbMText
 10
183.0
 20
68.0
 30
0.0
 40
3.2
 41
11.0
 71
     5
 72
     5
  1
16
 73
     1
 44
1.0
1001
ACAD
1000
MTEXTBEGIN
1070
    73
1070
     1
1070
    44
1040
1.0
1070
    74
1070
     0
1000
MTEXTEND
  0
MTEXT
  5
10863
330
1F
100
AcDbEntity
  8
AM_6
100
AcDbMText
 10
183.0
 20
61.0
 30
0.0
 40
3.2
 41
11.0
 71
     5
 72
     5
  1
21
 73
     1
 44
1.0
1001
ACAD
1000
MTEXTBEGIN
1070
    73
1070
     1
1070
    44
1040
1.0
1070
    74
1070
     0
1000
MTEXTEND
  0
MTEXT
  5
10864
330
1F
100
AcDbEntity
  8
AM_6
100
AcDbMText
 10
183.0
 20
54.0
 30
0.0
 40
3.2
 41
11.0
 71
     5
 72
     5
  1
27
 73
     1
 44
1.0
1001
ACAD
1000
MTEXTBEGIN
1070
    73
1070
     1
1070
    44
1040
1.0
1070
    74
1070
     0
1000
MTEXTEND
  0
LINE
  5
10865
330
1F
100
AcDbEntity
  8
AM_4
100
AcDbLine
 10
166.5
 20
85.49999999999995
 30
0.0
 11
166.5
 21
8.5
 31
0.0
  0
MTEXT
  5
10866
330
1F
100
AcDbEntity
  8
AM_6
100
AcDbMText
 10
128.0
 20
82.0
 30
0.0
 40
3.2
 41
11.0
 71
     5
 72
     5
  1
B2
 73
     1
 44
1.0
1001
ACAD
1000
MTEXTBEGIN
1070
    73
1070
     1
1070
    44
1040
1.0
1070
    74
1070
     0
1000
MTEXTEND
  0
MTEXT
  5
10867
330
1F
100
AcDbEntity
  8
AM_6
100
AcDbMText
 10
128.0
 20
75.0
 30
0.0
 40
3.2
 41
11.0
 71
     5
 72
     5
  1
33
 73
     1
 44
1.0
1001
ACAD
1000
MTEXTBEGIN
1070
    73
1070
     1
1070
    44
1040
1.0
1070
    74
1070
     0
1000
MTEXTEND
  0
LINE
  5
10868
330
1F
100
AcDbEntity
  8
AM_4
100
AcDbLine
 10
133.4999999999999
 20
85.49999999999995
 30
0.0
 11
133.4999999999999
 21
8.5
 31
0.0
  0
MTEXT
  5
10869
330
1F
100
AcDbEntity
  8
AM_6
100
AcDbMText
 10
171.9999999999999
 20
82.0
 30
0.0
 40
3.2
 41
11.0
 71
     5
 72
     5
  1
H2
 73
     1
 44
1.0
1001
ACAD
1000
MTEXTBEGIN
1070
    73
1070
     1
1070
    44
1040
1.0
1070
    74
1070
     0
1000
MTEXTEND
  0
MTEXT
  5
1086A
330
1F
100
AcDbEntity
  8
AM_6
100
AcDbMText
 10
171.9999999999999
 20
75.0
 30
0.0
 40
3.2
 41
11.0
 71
     5
 72
     5
  1
30
 73
     1
 44
1.0
1001
ACAD
1000
MTEXTBEGIN
1070
    73
1070
     1
1070
    44
1040
1.0
1070
    74
1070
     0
1000
MTEXTEND
  0
LINE
  5
1086B
330
1F
100
AcDbEntity
  8
AM_4
100
AcDbLine
 10
188.4999999999999
 20
85.49999999999995
 30
0.0
 11
188.4999999999999
 21
8.5
 31
0.0
  0
MTEXT
  5
1086C
330
1F
100
AcDbEntity
  8
AM_6
100
AcDbMText
 10
160.9999999999999
 20
82.0
 30
0.0
 40
3.2
 41
11.0
 71
     5
 72
     5
  1
H1
 73
     1
 44
1.0
1001
ACAD
1000
MTEXTBEGIN
1070
    73
1070
     1
1070
    44
1040
1.0
1070
    74
1070
     0
1000
MTEXTEND
  0
MTEXT
  5
1086D
330
1F
100
AcDbEntity
  8
AM_6
100
AcDbMText
 10
160.9999999999999
 20
71.5
 30
0.0
 40
3.2
 41
11.0
 71
     5
 72
     5
  1
71
 73
     1
 44
1.0
1001
ACAD
1000
MTEXTBEGIN
1070
    73
1070
     1
1070
    44
1040
1.0
1070
    74
1070
     0
1000
MTEXTEND
  0
MTEXT
  5
1086E
330
1F
100
AcDbEntity
  8
AM_6
100
AcDbMText
 10
183.0
 20
47.0
 30
0.0
 40
3.2
 41
11.0
 71
     5
 72
     5
  1
31
 73
     1
 44
1.0
1001
ACAD
1000
MTEXTBEGIN
1070
    73
1070
     1
1070
    44
1040
1.0
1070
    74
1070
     0
1000
MTEXTEND
  0
MTEXT
  5
1086F
330
1F
100
AcDbEntity
  8
AM_6
100
AcDbMText
 10
128.0
 20
68.0
 30
0.0
 40
3.2
 41
11.0
 71
     5
 72
     5
  1
32
 73
     1
 44
1.0
1001
ACAD
1000
MTEXTBEGIN
1070
    73
1070
     1
1070
    44
1040
1.0
1070
    74
1070
     0
1000
MTEXTEND
  0
MTEXT
  5
10870
330
1F
100
AcDbEntity
  8
AM_6
100
AcDbMText
 10
171.9999999999999
 20
68.0
 30
0.0
 40
3.2
 41
11.0
 71
     5
 72
     5
  1
31
 73
     1
 44
1.0
1001
ACAD
1000
MTEXTBEGIN
1070
    73
1070
     1
1070
    44
1040
1.0
1070
    74
1070
     0
1000
MTEXTEND
  0
MTEXT
  5
10872
330
1F
100
AcDbEntity
  8
AM_6
100
AcDbMText
 10
128.0
 20
61.0
 30
0.0
 40
3.2
 41
11.0
 71
     5
 72
     5
  1
40
 73
     1
 44
1.0
1001
ACAD
1000
MTEXTBEGIN
1070
    73
1070
     1
1070
    44
1040
1.0
1070
    74
1070
     0
1000
MTEXTEND
  0
MTEXT
  5
10873
330
1F
100
AcDbEntity
  8
AM_6
100
AcDbMText
 10
171.9999999999999
 20
61.0
 30
0.0
 40
3.2
 41
11.0
 71
     5
 72
     5
  1
38
 73
     1
 44
1.0
1001
ACAD
1000
MTEXTBEGIN
1070
    73
1070
     1
1070
    44
1040
1.0
1070
    74
1070
     0
1000
MTEXTEND
  0
MTEXT
  5
10874
330
1F
100
AcDbEntity
  8
AM_6
100
AcDbMText
 10
160.9999999999999
 20
61.0
 30
0.0
 40
3.2
 41
11.0
 71
     5
 72
     5
  1
88
 73
     1
 44
1.0
1001
ACAD
1000
MTEXTBEGIN
1070
    73
1070
     1
1070
    44
1040
1.0
1070
    74
1070
     0
1000
MTEXTEND
  0
MTEXT
  5
10875
330
1F
100
AcDbEntity
  8
AM_6
100
AcDbMText
 10
128.0
 20
54.0
 30
0.0
 40
3.2
 41
11.0
 71
     5
 72
     5
  1
47
 73
     1
 44
1.0
1001
ACAD
1000
MTEXTBEGIN
1070
    73
1070
     1
1070
    44
1040
1.0
1070
    74
1070
     0
1000
MTEXTEND
  0
MTEXT
  5
10876
330
1F
100
AcDbEntity
  8
AM_6
100
AcDbMText
 10
171.9999999999999
 20
54.0
 30
0.0
 40
3.2
 41
11.0
 71
     5
 72
     5
  1
48
 73
     1
 44
1.0
1001
ACAD
1000
MTEXTBEGIN
1070
    73
1070
     1
1070
    44
1040
1.0
1070
    74
1070
     0
1000
MTEXTEND
  0
MTEXT
  5
10877
330
1F
100
AcDbEntity
  8
AM_6
100
AcDbMText
 10
160.9999999999999
 20
54.0
 30
0.0
 40
3.2
 41
11.0
 71
     5
 72
     5
  1
109
 73
     1
 44
1.0
1001
ACAD
1000
MTEXTBEGIN
1070
    73
1070
     1
1070
    44
1040
1.0
1070
    74
1070
     0
1000
MTEXTEND
  0
MTEXT
  5
10878
330
1F
100
AcDbEntity
  8
AM_6
100
AcDbMText
 10
128.0
 20
47.0
 30
0.0
 40
3.2
 41
11.0
 71
     5
 72
     5
  1
60
 73
     1
 44
1.0
1001
ACAD
1000
MTEXTBEGIN
1070
    73
1070
     1
1070
    44
1040
1.0
1070
    74
1070
     0
1000
MTEXTEND
  0
MTEXT
  5
10879
330
1F
100
AcDbEntity
  8
AM_6
100
AcDbMText
 10
171.9999999999999
 20
47.0
 30
0.0
 40
3.2
 41
11.0
 71
     5
 72
     5
  1
57
 73
     1
 44
1.0
1001
ACAD
1000
MTEXTBEGIN
1070
    73
1070
     1
1070
    44
1040
1.0
1070
    74
1070
     0
1000
MTEXTEND
  0
MTEXT
  5
1087A
330
1F
100
AcDbEntity
  8
AM_6
100
AcDbMText
 10
160.9999999999999
 20
47.0
 30
0.0
 40
3.2
 41
11.0
 71
     5
 72
     5
  1
135
 73
     1
 44
1.0
1001
ACAD
1000
MTEXTBEGIN
1070
    73
1070
     1
1070
    44
1040
1.0
1070
    74
1070
     0
1000
MTEXTEND
  0
MTEXT
  5
1087B
330
1F
100
AcDbEntity
  8
AM_6
100
AcDbMText
 10
183.0
 20
40.00000000000006
 30
0.0
 40
3.2
 41
11.0
 71
     5
 72
     5
  1
37
 73
     1
 44
1.0
1001
ACAD
1000
MTEXTBEGIN
1070
    73
1070
     1
1070
    44
1040
1.0
1070
    74
1070
     0
1000
MTEXTEND
  0
MTEXT
  5
1087C
330
1F
100
AcDbEntity
  8
AM_6
100
AcDbMText
 10
183.0
 20
33.00000000000006
 30
0.0
 40
3.2
 41
11.0
 71
     5
 72
     5
  1
50
 73
     1
 44
1.0
1001
ACAD
1000
MTEXTBEGIN
1070
    73
1070
     1
1070
    44
1040
1.0
1070
    74
1070
     0
1000
MTEXTEND
  0
MTEXT
  5
1087D
330
1F
100
AcDbEntity
  8
AM_6
100
AcDbMText
 10
183.0
 20
26.00000000000006
 30
0.0
 40
3.2
 41
11.0
 71
     5
 72
     5
  1
58
 73
     1
 44
1.0
1001
ACAD
1000
MTEXTBEGIN
1070
    73
1070
     1
1070
    44
1040
1.0
1070
    74
1070
     0
1000
MTEXTEND
  0
MTEXT
  5
1087E
330
1F
100
AcDbEntity
  8
AM_6
100
AcDbMText
 10
183.0
 20
19.00000000000005
 30
0.0
 40
3.2
 41
11.0
 71
     5
 72
     5
  1
67
 73
     1
 44
1.0
1001
ACAD
1000
MTEXTBEGIN
1070
    73
1070
     1
1070
    44
1040
1.0
1070
    74
1070
     0
1000
MTEXTEND
  0
MTEXT
  5
1087F
330
1F
100
AcDbEntity
  8
AM_6
100
AcDbMText
 10
128.0
 20
40.00000000000006
 30
0.0
 40
3.2
 41
11.0
 71
     5
 72
     5
  1
72
 73
     1
 44
1.0
1001
ACAD
1000
MTEXTBEGIN
1070
    73
1070
     1
1070
    44
1040
1.0
1070
    74
1070
     0
1000
MTEXTEND
  0
MTEXT
  5
10880
330
1F
100
AcDbEntity
  8
AM_6
100
AcDbMText
 10
171.9999999999999
 20
40.00000000000006
 30
0.0
 40
3.2
 41
11.0
 71
     5
 72
     5
  1
63
 73
     1
 44
1.0
1001
ACAD
1000
MTEXTBEGIN
1070
    73
1070
     1
1070
    44
1040
1.0
1070
    74
1070
     0
1000
MTEXTEND
  0
MTEXT
  5
10881
330
1F
100
AcDbEntity
  8
AM_6
100
AcDbMText
 10
160.9999999999999
 20
40.00000000000006
 30
0.0
 40
3.2
 41
11.0
 71
     5
 72
     5
  1
157
 73
     1
 44
1.0
1001
ACAD
1000
MTEXTBEGIN
1070
    73
1070
     1
1070
    44
1040
1.0
1070
    74
1070
     0
1000
MTEXTEND
  0
MTEXT
  5
10882
330
1F
100
AcDbEntity
  8
AM_6
100
AcDbMText
 10
183.0
 20
12.00000000000005
 30
0.0
 40
3.2
 41
11.0
 71
     5
 72
     5
  1
73
 73
     1
 44
1.0
1001
ACAD
1000
MTEXTBEGIN
1070
    73
1070
     1
1070
    44
1040
1.0
1070
    74
1070
     0
1000
MTEXTEND
  0
MTEXT
  5
10883
330
1F
100
AcDbEntity
  8
AM_6
100
AcDbMText
 10
128.0
 20
33.00000000000006
 30
0.0
 40
3.2
 41
11.0
 71
     5
 72
     5
  1
90
 73
     1
 44
1.0
1001
ACAD
1000
MTEXTBEGIN
1070
    73
1070
     1
1070
    44
1040
1.0
1070
    74
1070
     0
1000
MTEXTEND
  0
MTEXT
  5
10884
330
1F
100
AcDbEntity
  8
AM_6
100
AcDbMText
 10
171.9999999999999
 20
33.00000000000006
 30
0.0
 40
3.2
 41
11.0
 71
     5
 72
     5
  1
79
 73
     1
 44
1.0
1001
ACAD
1000
MTEXTBEGIN
1070
    73
1070
     1
1070
    44
1040
1.0
1070
    74
1070
     0
1000
MTEXTEND
  0
MTEXT
  5
10885
330
1F
100
AcDbEntity
  8
AM_6
100
AcDbMText
 10
160.9999999999999
 20
33.00000000000006
 30
0.0
 40
3.2
 41
11.0
 71
     5
 72
     5
  1
197
 73
     1
 44
1.0
1001
ACAD
1000
MTEXTBEGIN
1070
    73
1070
     1
1070
    44
1040
1.0
1070
    74
1070
     0
1000
MTEXTEND
  0
MTEXT
  5
10886
330
1F
100
AcDbEntity
  8
AM_6
100
AcDbMText
 10
128.0
 20
26.00000000000006
 30
0.0
 40
3.2
 41
11.0
 71
     5
 72
     5
  1
112
 73
     1
 44
1.0
1001
ACAD
1000
MTEXTBEGIN
1070
    73
1070
     1
1070
    44
1040
1.0
1070
    74
1070
     0
1000
MTEXTEND
  0
MTEXT
  5
10887
330
1F
100
AcDbEntity
  8
AM_6
100
AcDbMText
 10
171.9999999999999
 20
26.00000000000006
 30
0.0
 40
3.2
 41
11.0
 71
     5
 72
     5
  1
91
 73
     1
 44
1.0
1001
ACAD
1000
MTEXTBEGIN
1070
    73
1070
     1
1070
    44
1040
1.0
1070
    74
1070
     0
1000
MTEXTEND
  0
MTEXT
  5
10888
330
1F
100
AcDbEntity
  8
AM_6
100
AcDbMText
 10
160.9999999999999
 20
26.00000000000006
 30
0.0
 40
3.2
 41
11.0
 71
     5
 72
     5
  1
235
 73
     1
 44
1.0
1001
ACAD
1000
MTEXTBEGIN
1070
    73
1070
     1
1070
    44
1040
1.0
1070
    74
1070
     0
1000
MTEXTEND
  0
MTEXT
  5
10889
330
1F
100
AcDbEntity
  8
AM_6
100
AcDbMText
 10
128.0
 20
19.00000000000005
 30
0.0
 40
3.2
 41
11.0
 71
     5
 72
     5
  1
130
 73
     1
 44
1.0
1001
ACAD
1000
MTEXTBEGIN
1070
    73
1070
     1
1070
    44
1040
1.0
1070
    74
1070
     0
1000
MTEXTEND
  0
MTEXT
  5
1088A
330
1F
100
AcDbEntity
  8
AM_6
100
AcDbMText
 10
171.9999999999999
 20
19.00000000000005
 30
0.0
 40
3.2
 41
11.0
 71
     5
 72
     5
  1
109
 73
     1
 44
1.0
1001
ACAD
1000
MTEXTBEGIN
1070
    73
1070
     1
1070
    44
1040
1.0
1070
    74
1070
     0
1000
MTEXTEND
  0
MTEXT
  5
1088B
330
1F
100
AcDbEntity
  8
AM_6
100
AcDbMText
 10
160.9999999999999
 20
19.00000000000005
 30
0.0
 40
3.2
 41
11.0
 71
     5
 72
     5
  1
275
 73
     1
 44
1.0
1001
ACAD
1000
MTEXTBEGIN
1070
    73
1070
     1
1070
    44
1040
1.0
1070
    74
1070
     0
1000
MTEXTEND
  0
MTEXT
  5
1088C
330
1F
100
AcDbEntity
  8
AM_6
100
AcDbMText
 10
128.0
 20
12.00000000000005
 30
0.0
 40
3.2
 41
11.0
 71
     5
 72
     5
  1
140
 73
     1
 44
1.0
1001
ACAD
1000
MTEXTBEGIN
1070
    73
1070
     1
1070
    44
1040
1.0
1070
    74
1070
     0
1000
MTEXTEND
  0
MTEXT
  5
1088D
330
1F
100
AcDbEntity
  8
AM_6
100
AcDbMText
 10
171.9999999999999
 20
12.00000000000005
 30
0.0
 40
3.2
 41
11.0
 71
     5
 72
     5
  1
127
 73
     1
 44
1.0
1001
ACAD
1000
MTEXTBEGIN
1070
    73
1070
     1
1070
    44
1040
1.0
1070
    74
1070
     0
1000
MTEXTEND
  0
MTEXT
  5
1088E
330
1F
100
AcDbEntity
  8
AM_6
100
AcDbMText
 10
160.9999999999999
 20
12.00000000000005
 30
0.0
 40
3.2
 41
11.0
 71
     5
 72
     5
  1
309
 73
     1
 44
1.0
1001
ACAD
1000
MTEXTBEGIN
1070
    73
1070
     1
1070
    44
1040
1.0
1070
    74
1070
     0
1000
MTEXTEND
  0
LINE
  5
1088F
330
1F
100
AcDbEntity
  8
AM_4
100
AcDbLine
 10
155.4999999999999
 20
85.49999999999995
 30
0.0
 11
155.4999999999999
 21
8.5
 31
0.0
  0
MTEXT
  5
10890
330
1F
100
AcDbEntity
  8
AM_6
100
AcDbMText
 10
193.9999999999999
 20
82.0
 30
0.0
 40
3.2
 41
11.0
 71
     5
 72
     5
  1
E
 73
     1
 44
1.0
1001
ACAD
1000
MTEXTBEGIN
1070
    73
1070
     1
1070
    44
1040
1.0
1070
    74
1070
     0
1000
MTEXTEND
  0
MTEXT
  5
10891
330
1F
100
AcDbEntity
  8
AM_6
100
AcDbMText
 10
193.9999999999999
 20
71.5
 30
0.0
 40
3.2
 41
11.0
 71
     5
 72
     5
  1
22
 73
     1
 44
1.0
1001
ACAD
1000
MTEXTBEGIN
1070
    73
1070
     1
1070
    44
1040
1.0
1070
    74
1070
     0
1000
MTEXTEND
  0
MTEXT
  5
10893
330
1F
100
AcDbEntity
  8
AM_6
100
AcDbMText
 10
193.9999999999999
 20
61.0
 30
0.0
 40
3.2
 41
11.0
 71
     5
 72
     5
  1
25
 73
     1
 44
1.0
1001
ACAD
1000
MTEXTBEGIN
1070
    73
1070
     1
1070
    44
1040
1.0
1070
    74
1070
     0
1000
MTEXTEND
  0
MTEXT
  5
10894
330
1F
100
AcDbEntity
  8
AM_6
100
AcDbMText
 10
193.9999999999999
 20
54.0
 30
0.0
 40
3.2
 41
11.0
 71
     5
 72
     5
  1
32
 73
     1
 44
1.0
1001
ACAD
1000
MTEXTBEGIN
1070
    73
1070
     1
1070
    44
1040
1.0
1070
    74
1070
     0
1000
MTEXTEND
  0
LINE
  5
10895
330
1F
100
AcDbEntity
  8
AM_4
100
AcDbLine
 10
199.5
 20
85.49999999999995
 30
0.0
 11
199.5
 21
8.5
 31
0.0
  0
MTEXT
  5
10896
330
1F
100
AcDbEntity
  8
AM_6
100
AcDbMText
 10
205.0
 20
82.0
 30
0.0
 40
3.2
 41
11.0
 71
     5
 72
     5
  1
W
 73
     1
 44
1.0
1001
ACAD
1000
MTEXTBEGIN
1070
    73
1070
     1
1070
    44
1040
1.0
1070
    74
1070
     0
1000
MTEXTEND
  0
MTEXT
  5
10897
330
1F
100
AcDbEntity
  8
AM_6
100
AcDbMText
 10
205.0
 20
71.5
 30
0.0
 40
3.2
 41
11.0
 71
     5
 72
     5
  1
50
 73
     1
 44
1.0
1001
ACAD
1000
MTEXTBEGIN
1070
    73
1070
     1
1070
    44
1040
1.0
1070
    74
1070
     0
1000
MTEXTEND
  0
MTEXT
  5
1089E
330
1F
100
AcDbEntity
  8
AM_6
100
AcDbMText
 10
193.9999999999999
 20
47.0
 30
0.0
 40
3.2
 41
11.0
 71
     5
 72
     5
  1
38
 73
     1
 44
1.0
1001
ACAD
1000
MTEXTBEGIN
1070
    73
1070
     1
1070
    44
1040
1.0
1070
    74
1070
     0
1000
MTEXTEND
  0
MTEXT
  5
108A2
330
1F
100
AcDbEntity
  8
AM_6
100
AcDbMText
 10
205.0
 20
61.0
 30
0.0
 40
3.2
 41
11.0
 71
     5
 72
     5
  1
62
 73
     1
 44
1.0
1001
ACAD
1000
MTEXTBEGIN
1070
    73
1070
     1
1070
    44
1040
1.0
1070
    74
1070
     0
1000
MTEXTEND
  0
MTEXT
  5
108A5
330
1F
100
AcDbEntity
  8
AM_6
100
AcDbMText
 10
205.0
 20
54.0
 30
0.0
 40
3.2
 41
11.0
 71
     5
 72
     5
  1
79
 73
     1
 44
1.0
1001
ACAD
1000
MTEXTBEGIN
1070
    73
1070
     1
1070
    44
1040
1.0
1070
    74
1070
     0
1000
MTEXTEND
  0
MTEXT
  5
108A8
330
1F
100
AcDbEntity
  8
AM_6
100
AcDbMText
 10
205.0
 20
47.0
 30
0.0
 40
3.2
 41
11.0
 71
     5
 72
     5
  1
100
 73
     1
 44
1.0
1001
ACAD
1000
MTEXTBEGIN
1070
    73
1070
     1
1070
    44
1040
1.0
1070
    74
1070
     0
1000
MTEXTEND
  0
MTEXT
  5
108AB
330
1F
100
AcDbEntity
  8
AM_6
100
AcDbMText
 10
193.9999999999999
 20
40.00000000000006
 30
0.0
 40
3.2
 41
11.0
 71
     5
 72
     5
  1
48
 73
     1
 44
1.0
1001
ACAD
1000
MTEXTBEGIN
1070
    73
1070
     1
1070
    44
1040
1.0
1070
    74
1070
     0
1000
MTEXTEND
  0
MTEXT
  5
108AC
330
1F
100
AcDbEntity
  8
AM_6
100
AcDbMText
 10
193.9999999999999
 20
33.00000000000006
 30
0.0
 40
3.2
 41
11.0
 71
     5
 72
     5
  1
60
 73
     1
 44
1.0
1001
ACAD
1000
MTEXTBEGIN
1070
    73
1070
     1
1070
    44
1040
1.0
1070
    74
1070
     0
1000
MTEXTEND
  0
MTEXT
  5
108AD
330
1F
100
AcDbEntity
  8
AM_6
100
AcDbMText
 10
193.9999999999999
 20
26.00000000000006
 30
0.0
 40
3.2
 41
11.0
 71
     5
 72
     5
  1
70
 73
     1
 44
1.0
1001
ACAD
1000
MTEXTBEGIN
1070
    73
1070
     1
1070
    44
1040
1.0
1070
    74
1070
     0
1000
MTEXTEND
  0
MTEXT
  5
108AE
330
1F
100
AcDbEntity
  8
AM_6
100
AcDbMText
 10
193.9999999999999
 20
19.00000000000005
 30
0.0
 40
3.2
 41
11.0
 71
     5
 72
     5
  1
80
 73
     1
 44
1.0
1001
ACAD
1000
MTEXTBEGIN
1070
    73
1070
     1
1070
    44
1040
1.0
1070
    74
1070
     0
1000
MTEXTEND
  0
MTEXT
  5
108AF
330
1F
100
AcDbEntity
  8
AM_6
100
AcDbMText
 10
205.0
 20
40.00000000000006
 30
0.0
 40
3.2
 41
11.0
 71
     5
 72
     5
  1
121
 73
     1
 44
1.0
1001
ACAD
1000
MTEXTBEGIN
1070
    73
1070
     1
1070
    44
1040
1.0
1070
    74
1070
     0
1000
MTEXTEND
  0
MTEXT
  5
108B2
330
1F
100
AcDbEntity
  8
AM_6
100
AcDbMText
 10
193.9999999999999
 20
12.00000000000005
 30
0.0
 40
3.2
 41
11.0
 71
     5
 72
     5
  1
98
 73
     1
 44
1.0
1001
ACAD
1000
MTEXTBEGIN
1070
    73
1070
     1
1070
    44
1040
1.0
1070
    74
1070
     0
1000
MTEXTEND
  0
MTEXT
  5
108B3
330
1F
100
AcDbEntity
  8
AM_6
100
AcDbMText
 10
205.0
 20
33.00000000000006
 30
0.0
 40
3.2
 41
11.0
 71
     5
 72
     5
  1
150
 73
     1
 44
1.0
1001
ACAD
1000
MTEXTBEGIN
1070
    73
1070
     1
1070
    44
1040
1.0
1070
    74
1070
     0
1000
MTEXTEND
  0
MTEXT
  5
108B6
330
1F
100
AcDbEntity
  8
AM_6
100
AcDbMText
 10
205.0
 20
26.00000000000006
 30
0.0
 40
3.2
 41
11.0
 71
     5
 72
     5
  1
176
 73
     1
 44
1.0
1001
ACAD
1000
MTEXTBEGIN
1070
    73
1070
     1
1070
    44
1040
1.0
1070
    74
1070
     0
1000
MTEXTEND
  0
MTEXT
  5
108B9
330
1F
100
AcDbEntity
  8
AM_6
100
AcDbMText
 10
205.0
 20
19.00000000000005
 30
0.0
 40
3.2
 41
11.0
 71
     5
 72
     5
  1
200
 73
     1
 44
1.0
1001
ACAD
1000
MTEXTBEGIN
1070
    73
1070
     1
1070
    44
1040
1.0
1070
    74
1070
     0
1000
MTEXTEND
  0
MTEXT
  5
108BC
330
1F
100
AcDbEntity
  8
AM_6
100
AcDbMText
 10
205.0
 20
12.00000000000005
 30
0.0
 40
3.2
 41
11.0
 71
     5
 72
     5
  1
226
 73
     1
 44
1.0
1001
ACAD
1000
MTEXTBEGIN
1070
    73
1070
     1
1070
    44
1040
1.0
1070
    74
1070
     0
1000
MTEXTEND
  0
MTEXT
  5
108BF
330
1F
100
AcDbEntity
  8
AM_6
100
AcDbMText
 10
25.49999999999999
 20
68.0
 30
0.0
 40
3.2
 41
28.0
 71
     5
 72
     5
  1
EB-903-10
 73
     1
 44
1.0
1001
ACAD
1000
MTEXTBEGIN
1070
    73
1070
     1
1070
    44
1040
1.0
1070
    74
1070
     0
1000
MTEXTEND
  0
MTEXT
  5
108C0
330
1F
100
AcDbEntity
  8
AM_6
100
AcDbMText
 10
25.49999999999999
 20
61.0
 30
0.0
 40
3.2
 41
28.0
 71
     5
 72
     5
  1
EB-903-12
 73
     1
 44
1.0
1001
ACAD
1000
MTEXTBEGIN
1070
    73
1070
     1
1070
    44
1040
1.0
1070
    74
1070
     0
1000
MTEXTEND
  0
MTEXT
  5
108C1
330
1F
100
AcDbEntity
  8
AM_6
100
AcDbMText
 10
25.49999999999999
 20
54.0
 30
0.0
 40
3.2
 41
28.0
 71
     5
 72
     5
  1
EB-903-16
 73
     1
 44
1.0
1001
ACAD
1000
MTEXTBEGIN
1070
    73
1070
     1
1070
    44
1040
1.0
1070
    74
1070
     0
1000
MTEXTEND
  0
MTEXT
  5
108C2
330
1F
100
AcDbEntity
  8
AM_6
100
AcDbMText
 10
25.49999999999999
 20
47.0
 30
0.0
 40
3.2
 41
28.0
 71
     5
 72
     5
  1
EB-903-20
 73
     1
 44
1.0
1001
ACAD
1000
MTEXTBEGIN
1070
    73
1070
     1
1070
    44
1040
1.0
1070
    74
1070
     0
1000
MTEXTEND
  0
MTEXT
  5
108C3
330
1F
100
AcDbEntity
  8
AM_6
100
AcDbMText
 10
25.49999999999999
 20
40.0
 30
0.0
 40
3.2
 41
28.0
 71
     5
 72
     5
  1
EB-903-24
 73
     1
 44
1.0
1001
ACAD
1000
MTEXTBEGIN
1070
    73
1070
     1
1070
    44
1040
1.0
1070
    74
1070
     0
1000
MTEXTEND
  0
MTEXT
  5
108C4
330
1F
100
AcDbEntity
  8
AM_6
100
AcDbMText
 10
25.49999999999999
 20
33.00000000000006
 30
0.0
 40
3.2
 41
28.0
 71
     5
 72
     5
  1
EB-903-30
 73
     1
 44
1.0
1001
ACAD
1000
MTEXTBEGIN
1070
    73
1070
     1
1070
    44
1040
1.0
1070
    74
1070
     0
1000
MTEXTEND
  0
MTEXT
  5
108C5
330
1F
100
AcDbEntity
  8
AM_6
100
AcDbMText
 10
25.49999999999999
 20
26.00000000000006
 30
0.0
 40
3.2
 41
28.0
 71
     5
 72
     5
  1
EB-903-36
 73
     1
 44
1.0
1001
ACAD
1000
MTEXTBEGIN
1070
    73
1070
     1
1070
    44
1040
1.0
1070
    74
1070
     0
1000
MTEXTEND
  0
MTEXT
  5
108C6
330
1F
100
AcDbEntity
  8
AM_6
100
AcDbMText
 10
25.49999999999999
 20
19.00000000000005
 30
0.0
 40
3.2
 41
28.0
 71
     5
 72
     5
  1
EB-903-42
 73
     1
 44
1.0
1001
ACAD
1000
MTEXTBEGIN
1070
    73
1070
     1
1070
    44
1040
1.0
1070
    74
1070
     0
1000
MTEXTEND
  0
MTEXT
  5
108C7
330
1F
100
AcDbEntity
  8
AM_6
100
AcDbMText
 10
25.49999999999999
 20
12.00000000000005
 30
0.0
 40
3.2
 41
28.0
 71
     5
 72
     5
  1
EB-903-48
 73
     1
 44
1.0
1001
ACAD
1000
MTEXTBEGIN
1070
    73
1070
     1
1070
    44
1040
1.0
1070
    74
1070
     0
1000
MTEXTEND
  0
LINE
  5
1095B
330
1F
100
AcDbEntity
  8
AM_4
100
AcDbLine
 10
100.5
 20
71.5
 30
0.0
 11
11.49999999999998
 21
71.5
 31
0.0
  0
LINE
  5
1095D
330
1F
100
AcDbEntity
  8
AM_4
100
AcDbLine
 10
188.4999999999999
 20
71.5
 30
0.0
 11
177.4999999999999
 21
71.5
 31
0.0
  0
TEXT
  5
10DD1
330
1F
100
AcDbEntity
  8
AM_6
 60
     1
100
AcDbText
 10
408.4999999999998
 20
8.5
 30
0.0
 40
2.5
  1
!GENTITLE-INSERT
100
AcDbText
  0
TEXT
  5
10DD2
330
1F
100
AcDbEntity
  8
AM_6
 60
     1
100
AcDbText
 10
0.0
 20
0.0
 30
0.0
 40
2.5
  1
!GENTITLE-LL
100
AcDbText
  0
TEXT
  5
10DD3
330
1F
100
AcDbEntity
  8
AM_6
 60
     1
100
AcDbText
 10
420.0
 20
297.0
 30
0.0
 40
2.5
  1
!GENTITLE-RU
100
AcDbText
  0
TEXT
  5
10DD4
330
1F
100
AcDbEntity
  8
AM_6
 60
     1
100
AcDbText
 10
420.0
 20
297.0
 30
0.0
 40
2.5
  1
!GENTITLE-MAX
100
AcDbText
  0
LINE
  5
10DD5
330
1F
100
AcDbEntity
  8
size
100
AcDbLine
 10
0.0
 20
0.0
 30
0.0
 11
420.0
 21
0.0
 31
0.0
1001
GENIUS_GENREC_14
1002
{
1000
PYDIR
1011
0.0000000000000178
1021
297.0
1031
0.0
1002
}
1002
{
1000
PXDIR
1011
420.0
1021
0.0
1031
0.0
1002
}
1002
{
1000
PORI
1011
0.0
1021
0.0
1031
0.0
1002
}
1002
{
1000
PINS
1011
210.0
1021
148.4999999999999
1031
0.0
1002
}
1002
{
1000
HVAL
1000
297
1002
}
1002
{
1000
H
1070
     2
1002
}
1002
{
1000
WVAL
1000
420
1002
}
1002
{
1000
W
1070
     2
1002
}
1002
{
1000
C
1070
     4
1002
}
1001
GENIUS_GENOBJ-N-REC_13
1002
{
1000
OWNER
1000
GEN
1002
}
1001
GENIUS_GENODEF_13
1002
{
1000
HIER
1070
     0
1002
}
1002
{
1000
MANEDIT
1070
     0
1002
}
1002
{
1000
NOSEL
1070
     0
1002
}
1002
{
1000
BEHIND
1070
     0
1002
}
1002
{
1000
OTHER
1070
     0
1002
}
1002
{
1000
REACTOR
1002
}
  0
LINE
  5
10DD6
330
1F
100
AcDbEntity
  8
size
100
AcDbLine
 10
420.0
 20
0.0
 30
0.0
 11
420.0
 21
297.0
 31
0.0
1001
GENIUS_GENREC_14
1002
{
1000
PYDIR
1011
0.0000000000000178
1021
297.0
1031
0.0
1002
}
1002
{
1000
PXDIR
1011
420.0
1021
0.0
1031
0.0
1002
}
1002
{
1000
PORI
1011
0.0
1021
0.0
1031
0.0
1002
}
1002
{
1000
PINS
1011
210.0
1021
148.4999999999999
1031
0.0
1002
}
1002
{
1000
HVAL
1000
297
1002
}
1002
{
1000
H
1070
     2
1002
}
1002
{
1000
WVAL
1000
420
1002
}
1002
{
1000
W
1070
     2
1002
}
1002
{
1000
C
1070
     4
1002
}
1001
GENIUS_GENOBJ-N-REC_13
1002
{
1000
OWNER
1000
GEN
1002
}
1001
GENIUS_GENODEF_13
1002
{
1000
HIER
1070
     0
1002
}
1002
{
1000
MANEDIT
1070
     0
1002
}
1002
{
1000
NOSEL
1070
     0
1002
}
1002
{
1000
BEHIND
1070
     0
1002
}
1002
{
1000
OTHER
1070
     0
1002
}
1002
{
1000
REACTOR
1002
}
  0
LINE
  5
10DD7
330
1F
100
AcDbEntity
  8
size
100
AcDbLine
 10
420.0
 20
297.0
 30
0.0
 11
0.0000000000000275
 21
297.0
 31
0.0
1001
GENIUS_GENREC_14
1002
{
1000
PYDIR
1011
0.0000000000000178
1021
297.0
1031
0.0
1002
}
1002
{
1000
PXDIR
1011
420.0
1021
0.0
1031
0.0
1002
}
1002
{
1000
PORI
1011
0.0
1021
0.0
1031
0.0
1002
}
1002
{
1000
PINS
1011
210.0
1021
148.4999999999999
1031
0.0
1002
}
1002
{
1000
HVAL
1000
297
1002
}
1002
{
1000
H
1070
     2
1002
}
1002
{
1000
WVAL
1000
420
1002
}
1002
{
1000
W
1070
     2
1002
}
1002
{
1000
C
1070
     4
1002
}
1001
GENIUS_GENOBJ-N-REC_13
1002
{
1000
OWNER
1000
GEN
1002
}
1001
GENIUS_GENODEF_13
1002
{
1000
HIER
1070
     0
1002
}
1002
{
1000
MANEDIT
1070
     0
1002
}
1002
{
1000
NOSEL
1070
     0
1002
}
1002
{
1000
BEHIND
1070
     0
1002
}
1002
{
1000
OTHER
1070
     0
1002
}
1002
{
1000
REACTOR
1002
}
  0
LINE
  5
10DD8
330
1F
100
AcDbEntity
  8
size
100
AcDbLine
 10
0.0000000000000275
 20
297.0
 30
0.0
 11
0.0
 21
0.0
 31
0.0
1001
GENIUS_GENREC_14
1002
{
1000
PYDIR
1011
0.0000000000000178
1021
297.0
1031
0.0
1002
}
1002
{
1000
PXDIR
1011
420.0
1021
0.0
1031
0.0
1002
}
1002
{
1000
PORI
1011
0.0
1021
0.0
1031
0.0
1002
}
1002
{
1000
PINS
1011
210.0
1021
148.4999999999999
1031
0.0
1002
}
1002
{
1000
HVAL
1000
297
1002
}
1002
{
1000
H
1070
     2
1002
}
1002
{
1000
WVAL
1000
420
1002
}
1002
{
1000
W
1070
     2
1002
}
1002
{
1000
C
1070
     4
1002
}
1001
GENIUS_GENOBJ-N-REC_13
1002
{
1000
OWNER
1000
GEN
1002
}
1001
GENIUS_GENODEF_13
1002
{
1000
HIER
1070
     0
1002
}
1002
{
1000
MANEDIT
1070
     0
1002
}
1002
{
1000
NOSEL
1070
     0
1002
}
1002
{
1000
BEHIND
1070
     0
1002
}
1002
{
1000
OTHER
1070
     0
1002
}
1002
{
1000
REACTOR
1002
}
  0
LINE
  5
10DD9
330
1F
100
AcDbEntity
  8
waku
100
AcDbLine
 10
408.4999999999998
 20
8.5
 30
0.0
 11
408.4999999999998
 21
288.5
 31
0.0
1001
GENIUS_GENREC_14
1002
{
1000
PYDIR
1011
0.0000000000000178
1021
297.0
1031
0.0
1002
}
1002
{
1000
PXDIR
1011
420.0
1021
0.0
1031
0.0
1002
}
1002
{
1000
PORI
1011
0.0
1021
0.0
1031
0.0
1002
}
1002
{
1000
PINS
1011
210.0
1021
148.4999999999999
1031
0.0
1002
}
1002
{
1000
HVAL
1000
297
1002
}
1002
{
1000
H
1070
     2
1002
}
1002
{
1000
WVAL
1000
420
1002
}
1002
{
1000
W
1070
     2
1002
}
1002
{
1000
C
1070
     4
1002
}
1001
GENIUS_GENOBJ-N-REC_13
1002
{
1000
OWNER
1000
GEN
1002
}
1001
GENIUS_GENODEF_13
1002
{
1000
HIER
1070
     0
1002
}
1002
{
1000
MANEDIT
1070
     0
1002
}
1002
{
1000
NOSEL
1070
     0
1002
}
1002
{
1000
BEHIND
1070
     0
1002
}
1002
{
1000
OTHER
1070
     0
1002
}
1002
{
1000
REACTOR
1002
}
  0
LINE
  5
10DDA
330
1F
100
AcDbEntity
  8
waku
100
AcDbLine
 10
11.50000000000002
 20
288.5
 30
0.0
 11
11.5
 21
8.5
 31
0.0
1001
GENIUS_GENREC_14
1002
{
1000
PYDIR
1011
0.0000000000000178
1021
297.0
1031
0.0
1002
}
1002
{
1000
PXDIR
1011
420.0
1021
0.0
1031
0.0
1002
}
1002
{
1000
PORI
1011
0.0
1021
0.0
1031
0.0
1002
}
1002
{
1000
PINS
1011
210.0
1021
148.4999999999999
1031
0.0
1002
}
1002
{
1000
HVAL
1000
297
1002
}
1002
{
1000
H
1070
     2
1002
}
1002
{
1000
WVAL
1000
420
1002
}
1002
{
1000
W
1070
     2
1002
}
1002
{
1000
C
1070
     4
1002
}
1001
GENIUS_GENOBJ-N-REC_13
1002
{
1000
OWNER
1000
GEN
1002
}
1001
GENIUS_GENODEF_13
1002
{
1000
HIER
1070
     0
1002
}
1002
{
1000
MANEDIT
1070
     0
1002
}
1002
{
1000
NOSEL
1070
     0
1002
}
1002
{
1000
BEHIND
1070
     0
1002
}
1002
{
1000
OTHER
1070
     0
1002
}
1002
{
1000
REACTOR
1002
}
  0
LINE
  5
10DDB
330
1F
100
AcDbEntity
  8
waku
100
AcDbLine
 10
408.4999999999998
 20
288.5
 30
0.0
 11
11.50000000000002
 21
288.5
 31
0.0
1001
GENIUS_GENREC_14
1002
{
1000
PYDIR
1011
0.0000000000000178
1021
297.0
1031
0.0
1002
}
1002
{
1000
PXDIR
1011
420.0
1021
0.0
1031
0.0
1002
}
1002
{
1000
PORI
1011
0.0
1021
0.0
1031
0.0
1002
}
1002
{
1000
PINS
1011
210.0
1021
148.4999999999999
1031
0.0
1002
}
1002
{
1000
HVAL
1000
297
1002
}
1002
{
1000
H
1070
     2
1002
}
1002
{
1000
WVAL
1000
420
1002
}
1002
{
1000
W
1070
     2
1002
}
1002
{
1000
C
1070
     4
1002
}
1001
GENIUS_GENOBJ-N-REC_13
1002
{
1000
OWNER
1000
GEN
1002
}
1001
GENIUS_GENODEF_13
1002
{
1000
HIER
1070
     0
1002
}
1002
{
1000
MANEDIT
1070
     0
1002
}
1002
{
1000
NOSEL
1070
     0
1002
}
1002
{
1000
BEHIND
1070
     0
1002
}
1002
{
1000
OTHER
1070
     0
1002
}
1002
{
1000
REACTOR
1002
}
  0
TEXT
  5
10DDC
330
1F
100
AcDbEntity
  8
AM_6
 60
     1
100
AcDbText
 10
0.0
 20
0.0
 30
0.0
 40
2.5
  1
!GENTITLE-LL
100
AcDbText
  0
TEXT
  5
10DDD
330
1F
100
AcDbEntity
  8
AM_6
 60
     1
100
AcDbText
 10
408.4999999999998
 20
288.5
 30
0.0
 40
2.5
  1
!GENTITLE-RU
100
AcDbText
  0
TEXT
  5
10DDE
330
1F
100
AcDbEntity
  8
AM_6
 60
     1
100
AcDbText
 10
420.0
 20
297.0
 30
0.0
 40
2.5
  1
!GENTITLE-MAX
100
AcDbText
  0
TEXT
  5
10DDF
330
1F
100
AcDbEntity
  8
AM_6
 60
     1
100
AcDbText
 10
408.4999999999998
 20
8.5
 30
0.0
 40
2.5
  1
!GENTITLE-INSERT
100
AcDbText
  0
LINE
  5
10DE0
330
1F
100
AcDbEntity
  8
waku
100
AcDbLine
 10
11.5
 20
8.5
 30
0.0
 11
408.4999999999998
 21
8.5
 31
0.0
  0
LINE
  5
10EC6
330
1F
100
AcDbEntity
  8
AM_0
100
AcDbLine
 10
11.50000000000002
 20
288.5
 30
0.0
 11
91.38876405539551
 21
288.5
 31
0.0
  0
LINE
  5
10EC7
330
1F
100
AcDbEntity
  8
AM_2
100
AcDbLine
 10
11.50000000000002
 20
281.5
 30
0.0
 11
91.38876405539551
 21
281.5
 31
0.0
  0
LINE
  5
10EC8
330
1F
100
AcDbEntity
  8
AM_0
100
AcDbLine
 10
11.50000000000002
 20
288.5
 30
0.0
 11
11.50000198402609
 21
253.5000000000005
 31
0.0
  0
LINE
  5
10EC9
330
1F
100
AcDbEntity
  8
AM_2
100
AcDbLine
 10
34.50000000000004
 20
288.5
 30
0.0
 11
34.50000198402552
 21
253.5000000000007
 31
0.0
  0
MTEXT
  5
10ECA
330
1F
100
AcDbEntity
  8
AM_6
100
AcDbMText
 10
23.00000000000007
 20
285.0
 30
0.0
 40
3.2
 41
22.99999999999987
 71
     5
 72
     5
  1
品　名
 73
     1
 44
1.0
1001
ACAD
1000
MTEXTBEGIN
1070
    73
1070
     1
1070
    44
1040
1.0
1070
    74
1070
     0
1000
MTEXTEND
1000
ACAD_MTEXT_DEFINED_HEIGHT_BEGIN
1070
    46
1040
6.999999999999952
1000
ACAD_MTEXT_DEFINED_HEIGHT_END
  0
MTEXT
  5
10ECB
330
1F
100
AcDbEntity
  8
AM_6
100
AcDbMText
 10
23.00000000000002
 20
278.0
 30
0.0
 40
3.2
 41
23.00000000000001
 71
     5
 72
     5
  1
品　番
 73
     1
 44
1.0
1001
ACAD
1000
MTEXTBEGIN
1070
    73
1070
     1
1070
    44
1040
1.0
1070
    74
1070
     0
1000
MTEXTEND
1000
ACAD_MTEXT_DEFINED_HEIGHT_BEGIN
1070
    46
1040
7.762029914680923
1000
ACAD_MTEXT_DEFINED_HEIGHT_END
  0
LINE
  5
10ECC
330
1F
100
AcDbEntity
  8
AM_0
100
AcDbLine
 10
91.38876405539551
 20
288.5
 30
0.0
 11
91.38876603942099
 21
253.5000000000007
 31
0.0
  0
LINE
  5
10ED1
330
1F
100
AcDbEntity
  8
AM_0
100
AcDbLine
 10
11.50000198402529
 20
253.5000000000005
 30
0.0
 11
91.38876603942078
 21
253.5000000000005
 31
0.0
  0
LINE
  5
10EE5
330
1F
100
AcDbEntity
  8
AM_4
100
AcDbLine
 10
210.5
 20
85.49999999999995
 30
0.0
 11
210.5
 21
8.5
 31
0.0
  0
MTEXT
  5
10EE6
330
1F
100
AcDbEntity
  8
AM_6
100
AcDbMText
 10
230.0
 20
81.5816534237776
 30
0.0
 40
2.799999999999998
 41
39.0
 71
     5
 72
     5
  1
{\T0.9;ボルト締付トルクの目安（kgf・m）}
 73
     1
 44
1.0
1001
ACAD
1000
MTEXTBEGIN
1070
    73
1070
     1
1070
    44
1040
1.0
1070
    74
1070
     0
1000
MTEXTEND
1000
ACAD_MTEXT_DEFINED_HEIGHT_BEGIN
1070
    46
1040
4.836693152444721
1000
ACAD_MTEXT_DEFINED_HEIGHT_END
  0
MTEXT
  5
10EE7
330
1F
100
AcDbEntity
  8
AM_6
100
AcDbMText
 10
230.0
 20
75.0
 30
0.0
 40
3.2
 41
39.0
 71
     5
 72
     5
  1
0.8～1.5
 73
     1
 44
1.0
1001
ACAD
1000
MTEXTBEGIN
1070
    73
1070
     1
1070
    44
1040
1.0
1070
    74
1070
     0
1000
MTEXTEND
  0
MTEXT
  5
10EE8
330
1F
100
AcDbEntity
  8
AM_6
100
AcDbMText
 10
230.0
 20
61.0
 30
0.0
 40
3.2
 41
39.0
 71
     5
 72
     5
  1
1.5～4.0
 73
     1
 44
1.0
1001
ACAD
1000
MTEXTBEGIN
1070
    73
1070
     1
1070
    44
1040
1.0
1070
    74
1070
     0
1000
MTEXTEND
  0
MTEXT
  5
10EE9
330
1F
100
AcDbEntity
  8
AM_6
100
AcDbMText
 10
230.0
 20
54.0
 30
0.0
 40
3.2
 41
39.0
 71
     5
 72
     5
  1
4.0～10.0
 73
     1
 44
1.0
1001
ACAD
1000
MTEXTBEGIN
1070
    73
1070
     1
1070
    44
1040
1.0
1070
    74
1070
     0
1000
MTEXTEND
  0
MTEXT
  5
10EEA
330
1F
100
AcDbEntity
  8
AM_6
100
AcDbMText
 10
230.0
 20
47.0
 30
0.0
 40
3.2
 41
39.0
 71
     5
 72
     5
  1
7.0～15.0
 73
     1
 44
1.0
1001
ACAD
1000
MTEXTBEGIN
1070
    73
1070
     1
1070
    44
1040
1.0
1070
    74
1070
     0
1000
MTEXTEND
  0
MTEXT
  5
10EEB
330
1F
100
AcDbEntity
  8
AM_6
100
AcDbMText
 10
230.0
 20
40.00000000000006
 30
0.0
 40
3.2
 41
39.0
 71
     5
 72
     5
  1
10.0～25.0
 73
     1
 44
1.0
1001
ACAD
1000
MTEXTBEGIN
1070
    73
1070
     1
1070
    44
1040
1.0
1070
    74
1070
     0
1000
MTEXTEND
  0
MTEXT
  5
10EEC
330
1F
100
AcDbEntity
  8
AM_6
100
AcDbMText
 10
230.0
 20
33.00000000000006
 30
0.0
 40
3.2
 41
39.0
 71
     5
 72
     5
  1
12.0～35.0
 73
     1
 44
1.0
1001
ACAD
1000
MTEXTBEGIN
1070
    73
1070
     1
1070
    44
1040
1.0
1070
    74
1070
     0
1000
MTEXTEND
  0
MTEXT
  5
10EED
330
1F
100
AcDbEntity
  8
AM_6
100
AcDbMText
 10
230.0
 20
26.00000000000006
 30
0.0
 40
3.2
 41
39.0
 71
     5
 72
     5
  1
15.0～50.0
 73
     1
 44
1.0
1001
ACAD
1000
MTEXTBEGIN
1070
    73
1070
     1
1070
    44
1040
1.0
1070
    74
1070
     0
1000
MTEXTEND
  0
MTEXT
  5
10EEE
330
1F
100
AcDbEntity
  8
AM_6
100
AcDbMText
 10
230.0
 20
19.00000000000005
 30
0.0
 40
3.2
 41
39.0
 71
     5
 72
     5
  1
18.0～60.0
 73
     1
 44
1.0
1001
ACAD
1000
MTEXTBEGIN
1070
    73
1070
     1
1070
    44
1040
1.0
1070
    74
1070
     0
1000
MTEXTEND
  0
MTEXT
  5
10EEF
330
1F
100
AcDbEntity
  8
AM_6
100
AcDbMText
 10
230.0
 20
12.00000000000005
 30
0.0
 40
3.2
 41
39.0
 71
     5
 72
     5
  1
30.0～80.0
 73
     1
 44
1.0
1001
ACAD
1000
MTEXTBEGIN
1070
    73
1070
     1
1070
    44
1040
1.0
1070
    74
1070
     0
1000
MTEXTEND
  0
MTEXT
  5
10EF0
330
1F
100
AcDbEntity
  8
AM_6
100
AcDbMText
 10
258.0
 20
82.0
 30
0.0
 40
3.2
 41
17.0
 71
     5
 72
     5
  1
自重（kg）
 73
     1
 44
1.0
1001
ACAD
1000
MTEXTBEGIN
1070
    73
1070
     1
1070
    44
1040
1.0
1070
    74
1070
     0
1000
MTEXTEND
  0
MTEXT
  5
10EF1
330
1F
100
AcDbEntity
  8
AM_6
100
AcDbMText
 10
258.0
 20
75.0
 30
0.0
 40
3.2
 41
17.0
 71
     5
 72
     5
  1
0.18
 73
     1
 44
1.0
1001
ACAD
1000
MTEXTBEGIN
1070
    73
1070
     1
1070
    44
1040
1.0
1070
    74
1070
     0
1000
MTEXTEND
  0
MTEXT
  5
10EF2
330
1F
100
AcDbEntity
  8
AM_6
100
AcDbMText
 10
258.0
 20
61.0
 30
0.0
 40
3.2
 41
17.0
 71
     5
 72
     5
  1
0.35
 73
     1
 44
1.0
1001
ACAD
1000
MTEXTBEGIN
1070
    73
1070
     1
1070
    44
1040
1.0
1070
    74
1070
     0
1000
MTEXTEND
  0
MTEXT
  5
10EF3
330
1F
100
AcDbEntity
  8
AM_6
100
AcDbMText
 10
258.0
 20
54.0
 30
0.0
 40
3.2
 41
17.0
 71
     5
 72
     5
  1
0.75
 73
     1
 44
1.0
1001
ACAD
1000
MTEXTBEGIN
1070
    73
1070
     1
1070
    44
1040
1.0
1070
    74
1070
     0
1000
MTEXTEND
  0
MTEXT
  5
10EF4
330
1F
100
AcDbEntity
  8
AM_6
100
AcDbMText
 10
258.0
 20
47.0
 30
0.0
 40
3.2
 41
17.0
 71
     5
 72
     5
  1
1.38
 73
     1
 44
1.0
1001
ACAD
1000
MTEXTBEGIN
1070
    73
1070
     1
1070
    44
1040
1.0
1070
    74
1070
     0
1000
MTEXTEND
  0
MTEXT
  5
10EF5
330
1F
100
AcDbEntity
  8
AM_6
100
AcDbMText
 10
258.0
 20
40.00000000000006
 30
0.0
 40
3.2
 41
17.0
 71
     5
 72
     5
  1
2.38
 73
     1
 44
1.0
1001
ACAD
1000
MTEXTBEGIN
1070
    73
1070
     1
1070
    44
1040
1.0
1070
    74
1070
     0
1000
MTEXTEND
  0
MTEXT
  5
10EF6
330
1F
100
AcDbEntity
  8
AM_6
100
AcDbMText
 10
258.0
 20
33.00000000000006
 30
0.0
 40
3.2
 41
17.0
 71
     5
 72
     5
  1
4.90
 73
     1
 44
1.0
1001
ACAD
1000
MTEXTBEGIN
1070
    73
1070
     1
1070
    44
1040
1.0
1070
    74
1070
     0
1000
MTEXTEND
  0
MTEXT
  5
10EF7
330
1F
100
AcDbEntity
  8
AM_6
100
AcDbMText
 10
258.0
 20
26.00000000000006
 30
0.0
 40
3.2
 41
17.0
 71
     5
 72
     5
  1
7.60
 73
     1
 44
1.0
1001
ACAD
1000
MTEXTBEGIN
1070
    73
1070
     1
1070
    44
1040
1.0
1070
    74
1070
     0
1000
MTEXTEND
  0
MTEXT
  5
10EF8
330
1F
100
AcDbEntity
  8
AM_6
100
AcDbMText
 10
258.0
 20
19.00000000000005
 30
0.0
 40
3.2
 41
17.0
 71
     5
 72
     5
  1
11.80
 73
     1
 44
1.0
1001
ACAD
1000
MTEXTBEGIN
1070
    73
1070
     1
1070
    44
1040
1.0
1070
    74
1070
     0
1000
MTEXTEND
  0
MTEXT
  5
10EF9
330
1F
100
AcDbEntity
  8
AM_6
100
AcDbMText
 10
258.0
 20
12.00000000000005
 30
0.0
 40
3.2
 41
17.0
 71
     5
 72
     5
  1
18.20
 73
     1
 44
1.0
1001
ACAD
1000
MTEXTBEGIN
1070
    73
1070
     1
1070
    44
1040
1.0
1070
    74
1070
     0
1000
MTEXTEND
  0
LINE
  5
10EFA
330
1F
100
AcDbEntity
  8
AM_4
100
AcDbLine
 10
249.5
 20
85.49999999999995
 30
0.0
 11
249.5
 21
8.5
 31
0.0
  0
MTEXT
  5
10EFC
330
1F
100
AcDbEntity
  8
AM_6
100
AcDbMText
 10
258.0
 20
68.0
 30
0.0
 40
3.2
 41
17.0
 71
     5
 72
     5
  1
0.19
 73
     1
 44
1.0
1001
ACAD
1000
MTEXTBEGIN
1070
    73
1070
     1
1070
    44
1040
1.0
1070
    74
1070
     0
1000
MTEXTEND
  0
LINE
  5
10EFD
330
1F
100
AcDbEntity
  8
AM_4
100
AcDbLine
 10
266.5
 20
71.5
 30
0.0
 11
210.5
 21
71.49999999999995
 31
0.0
  0
MTEXT
  5
10EFE
330
1F
100
AcDbEntity
  8
AM_6
100
AcDbMText
 10
230.0
 20
68.0
 30
0.0
 40
3.2
 41
39.0
 71
     5
 72
     5
  1
1.0～2.5
 73
     1
 44
1.0
1001
ACAD
1000
MTEXTBEGIN
1070
    73
1070
     1
1070
    44
1040
1.0
1070
    74
1070
     0
1000
MTEXTEND
  0
POLYLINE
  5
11D7C
330
1F
100
AcDbEntity
  8
AM_0
100
AcDb2dPolyline
 66
     1
 10
0.0
 20
0.0
 30
0.0
  0
VERTEX
  5
11D7D
330
11D7C
100
AcDbEntity
  8
AM_0
100
AcDbVertex
100
AcDb2dVertex
 10
182.9726543288277
 20
155.7161684212722
 30
0.0
  0
VERTEX
  5
11D7E
330
11D7C
100
AcDbEntity
  8
AM_0
100
AcDbVertex
100
AcDb2dVertex
 10
182.9726543288277
 20
226.2156492738955
 30
0.0
  0
SEQEND
  5
11D7F
330
11D7C
100
AcDbEntity
  8
AM_0
  0
POLYLINE
  5
11D80
330
1F
100
AcDbEntity
  8
AM_0
100
AcDb2dPolyline
 66
     1
 10
0.0
 20
0.0
 30
0.0
  0
VERTEX
  5
11D81
330
11D80
100
AcDbEntity
  8
AM_0
100
AcDbVertex
100
AcDb2dVertex
 10
196.9722878718559
 20
157.2161989593532
 30
0.0
  0
VERTEX
  5
11D82
330
11D80
100
AcDbEntity
  8
AM_0
100
AcDbVertex
100
AcDb2dVertex
 10
196.9722878718559
 20
226.2156492738955
 30
0.0
  0
SEQEND
  5
11D83
330
11D80
100
AcDbEntity
  8
AM_0
  0
POLYLINE
  5
11D84
330
1F
100
AcDbEntity
  8
AM_0
100
AcDb2dPolyline
 66
     1
 10
0.0
 20
0.0
 30
0.0
  0
VERTEX
  5
11D85
330
11D84
100
AcDbEntity
  8
AM_0
100
AcDbVertex
100
AcDb2dVertex
 10
145.9722267956939
 20
155.7161684212722
 30
0.0
  0
VERTEX
  5
11D86
330
11D84
100
AcDbEntity
  8
AM_0
100
AcDbVertex
100
AcDb2dVertex
 10
145.9722267956939
 20
226.2156492738955
 30
0.0
  0
SEQEND
  5
11D87
330
11D84
100
AcDbEntity
  8
AM_0
  0
POLYLINE
  5
11D88
330
1F
100
AcDbEntity
  8
AM_0
100
AcDb2dPolyline
 66
     1
 10
0.0
 20
0.0
 30
0.0
  0
VERTEX
  5
11D89
330
11D88
100
AcDbEntity
  8
AM_0
100
AcDbVertex
100
AcDb2dVertex
 10
131.9725932526657
 20
157.2161989593532
 30
0.0
  0
VERTEX
  5
11D8A
330
11D88
100
AcDbEntity
  8
AM_0
100
AcDbVertex
100
AcDb2dVertex
 10
131.9725932526657
 20
226.2156492738955
 30
0.0
  0
SEQEND
  5
11D8B
330
11D88
100
AcDbEntity
  8
AM_0
  0
POLYLINE
  5
11D90
330
1F
100
AcDbEntity
  8
AM_0
100
AcDb2dPolyline
 66
     1
 10
0.0
 20
0.0
 30
0.0
  0
VERTEX
  5
11D91
330
11D90
100
AcDbEntity
  8
AM_0
100
AcDbVertex
100
AcDb2dVertex
 10
128.9725321765038
 20
173.4663669187986
 30
0.0
  0
VERTEX
  5
11D92
330
11D90
100
AcDbEntity
  8
AM_0
100
AcDbVertex
100
AcDb2dVertex
 10
128.1721901499967
 20
173.4663669187986
 30
0.0
  0
SEQEND
  5
11D93
330
11D90
100
AcDbEntity
  8
AM_0
  0
POLYLINE
  5
11D94
330
1F
100
AcDbEntity
  8
AM_0
100
AcDb2dPolyline
 66
     1
 10
0.0
 20
0.0
 30
0.0
  0
VERTEX
  5
11D95
330
11D94
100
AcDbEntity
  8
AM_0
100
AcDbVertex
100
AcDb2dVertex
 10
128.9725321765038
 20
162.9661531522317
 30
0.0
  0
VERTEX
  5
11D96
330
11D94
100
AcDbEntity
  8
AM_0
100
AcDbVertex
100
AcDb2dVertex
 10
128.1721901499967
 20
162.9661531522317
 30
0.0
  0
SEQEND
  5
11D97
330
11D94
100
AcDbEntity
  8
AM_0
  0
POLYLINE
  5
11D9C
330
1F
100
AcDbEntity
  8
AM_0
100
AcDb2dPolyline
 66
     1
 10
0.0
 20
0.0
 30
0.0
  0
VERTEX
  5
11D9D
330
11D9C
100
AcDbEntity
  8
AM_0
100
AcDbVertex
100
AcDb2dVertex
 10
128.1721901499967
 20
173.4663669187986
 30
0.0
  0
VERTEX
  5
11D9E
330
11D9C
100
AcDbEntity
  8
AM_0
100
AcDbVertex
100
AcDb2dVertex
 10
128.1721901499967
 20
162.9661531522317
 30
0.0
  0
SEQEND
  5
11D9F
330
11D9C
100
AcDbEntity
  8
AM_0
  0
SPLINE
  5
11DA0
330
1F
100
AcDbEntity
  8
AM_0
100
AcDbSpline
210
0.0
220
0.0
230
1.0
 70
     8
 71
     3
 72
     8
 73
     4
 74
     0
 42
0.0000000001
 43
0.0000000001
 40
0.0
 40
0.0
 40
0.0
 40
0.0
 40
1.0
 40
1.0
 40
1.0
 40
1.0
 10
124.9727764811517
 20
165.7404767337379
 30
0.0
 10
125.478975711592
 20
164.5580422379216
 30
0.0
 10
126.9301453200938
 20
163.3003619105534
 30
0.0
 10
128.1721901499967
 20
162.9661531522317
 30
0.0
  0
POLYLINE
  5
11DA1
330
1F
100
AcDbEntity
  8
AM_0
100
AcDb2dPolyline
 66
     1
 10
0.0
 20
0.0
 30
0.0
  0
VERTEX
  5
11DA2
330
11DA1
100
AcDbEntity
  8
AM_0
100
AcDbVertex
100
AcDb2dVertex
 10
124.9727764811517
 20
170.6910661187009
 30
0.0
  0
VERTEX
  5
11DA3
330
11DA1
100
AcDbEntity
  8
AM_0
100
AcDbVertex
100
AcDb2dVertex
 10
124.9727764811517
 20
165.7404767337379
 30
0.0
  0
SEQEND
  5
11DA4
330
11DA1
100
AcDbEntity
  8
AM_0
  0
SPLINE
  5
11DA5
330
1F
100
AcDbEntity
  8
AM_0
100
AcDbSpline
210
0.0
220
0.0
230
1.0
 70
     8
 71
     3
 72
     8
 73
     4
 74
     0
 42
0.0000000001
 43
0.0000000001
 40
0.0
 40
0.0
 40
0.0
 40
0.0
 40
1.0
 40
1.0
 40
1.0
 40
1.0
 10
128.1721901499967
 20
173.4663669187986
 30
0.0
 10
126.9301453200938
 20
173.132158160477
 30
0.0
 10
125.478975711592
 20
171.8735006145172
 30
0.0
 10
124.9727764811517
 20
170.6910661187009
 30
0.0
  0
POLYLINE
  5
11DA6
330
1F
100
AcDbEntity
  8
AM_0
100
AcDb2dPolyline
 66
     1
 10
0.0
 20
0.0
 30
0.0
  0
VERTEX
  5
11DA7
330
11DA6
100
AcDbEntity
  8
AM_0
100
AcDbVertex
100
AcDb2dVertex
 10
176.4721962576129
 20
197.7160462689483
 30
0.0
  0
VERTEX
  5
11DA8
330
11DA6
100
AcDbEntity
  8
AM_0
100
AcDbVertex
100
AcDb2dVertex
 10
178.328911581622
 20
196.644037473981
 30
0.0
  0
SEQEND
  5
11DA9
330
11DA6
100
AcDbEntity
  8
AM_0
  0
POLYLINE
  5
11DAA
330
1F
100
AcDbEntity
  8
AM_0
100
AcDb2dPolyline
 66
     1
 10
0.0
 20
0.0
 30
0.0
  0
VERTEX
  5
11DAB
330
11DAA
100
AcDbEntity
  8
AM_0
100
AcDbVertex
100
AcDb2dVertex
 10
146.4725627145848
 20
181.2157103500574
 30
0.0
  0
VERTEX
  5
11DAC
330
11DAA
100
AcDbEntity
  8
AM_0
100
AcDbVertex
100
AcDb2dVertex
 10
182.4723184099368
 20
181.2157103500574
 30
0.0
  0
SEQEND
  5
11DAD
330
11DAA
100
AcDbEntity
  8
AM_0
  0
POLYLINE
  5
11DAE
330
1F
100
AcDbEntity
  8
AM_0
100
AcDb2dPolyline
 66
     1
 10
0.0
 20
0.0
 30
0.0
  0
VERTEX
  5
11DAF
330
11DAE
100
AcDbEntity
  8
AM_0
100
AcDbVertex
100
AcDb2dVertex
 10
149.4726237907468
 20
181.7160462689483
 30
0.0
  0
VERTEX
  5
11DB0
330
11DAE
100
AcDbEntity
  8
AM_0
100
AcDbVertex
100
AcDb2dVertex
 10
179.4722573337749
 20
181.7160462689483
 30
0.0
  0
SEQEND
  5
11DB1
330
11DAE
100
AcDbEntity
  8
AM_0
  0
POLYLINE
  5
11DB2
330
1F
100
AcDbEntity
  8
AM_0
100
AcDb2dPolyline
 66
     1
 10
0.0
 20
0.0
 30
0.0
  0
VERTEX
  5
11DB3
330
11DB2
100
AcDbEntity
  8
AM_0
100
AcDbVertex
100
AcDb2dVertex
 10
146.4725627145848
 20
155.2158325023814
 30
0.0
  0
VERTEX
  5
11DB4
330
11DB2
100
AcDbEntity
  8
AM_0
100
AcDbVertex
100
AcDb2dVertex
 10
182.4723184099368
 20
155.2158325023814
 30
0.0
  0
SEQEND
  5
11DB5
330
11DB2
100
AcDbEntity
  8
AM_0
  0
POLYLINE
  5
11DB6
330
1F
100
AcDbEntity
  8
AM_0
100
AcDb2dPolyline
 66
     1
 10
0.0
 20
0.0
 30
0.0
  0
VERTEX
  5
11DB7
330
11DB6
100
AcDbEntity
  8
AM_0
100
AcDbVertex
100
AcDb2dVertex
 10
148.471951952965
 20
150.2163821878391
 30
0.0
  0
VERTEX
  5
11DB8
330
11DB6
100
AcDbEntity
  8
AM_0
100
AcDbVertex
100
AcDb2dVertex
 10
180.4719519529651
 20
150.2163821878391
 30
0.0
  0
SEQEND
  5
11DB9
330
11DB6
100
AcDbEntity
  8
AM_0
  0
POLYLINE
  5
11DBA
330
1F
100
AcDbEntity
  8
AM_0
100
AcDb2dPolyline
 66
     1
 10
0.0
 20
0.0
 30
0.0
  0
VERTEX
  5
11DBB
330
11DBA
100
AcDbEntity
  8
AM_0
100
AcDbVertex
100
AcDb2dVertex
 10
149.971982491046
 20
187.7161684212722
 30
0.0
  0
VERTEX
  5
11DBC
330
11DBA
100
AcDbEntity
  8
AM_0
100
AcDbVertex
100
AcDb2dVertex
 10
178.971921414884
 20
187.7161684212722
 30
0.0
  0
SEQEND
  5
11DBD
330
11DBA
100
AcDbEntity
  8
AM_0
  0
POLYLINE
  5
11DBE
330
1F
100
AcDbEntity
  8
AM_0
100
AcDb2dPolyline
 66
     1
 10
0.0
 20
0.0
 30
0.0
  0
VERTEX
  5
11DBF
330
11DBE
100
AcDbEntity
  8
AM_0
100
AcDbVertex
100
AcDb2dVertex
 10
131.4722573337749
 20
179.2163211116771
 30
0.0
  0
VERTEX
  5
11DC0
330
11DBE
100
AcDbEntity
  8
AM_0
100
AcDbVertex
100
AcDb2dVertex
 10
131.4722573337749
 20
157.2161989593532
 30
0.0
  0
SEQEND
  5
11DC1
330
11DBE
100
AcDbEntity
  8
AM_0
  0
POLYLINE
  5
11DC2
330
1F
100
AcDbEntity
  8
AM_0
100
AcDb2dPolyline
 66
     1
 10
0.0
 20
0.0
 30
0.0
  0
VERTEX
  5
11DC3
330
11DC2
100
AcDbEntity
  8
AM_0
100
AcDbVertex
100
AcDb2dVertex
 10
128.9725321765038
 20
179.2163211116771
 30
0.0
  0
VERTEX
  5
11DC4
330
11DC2
100
AcDbEntity
  8
AM_0
100
AcDbVertex
100
AcDb2dVertex
 10
128.9725321765038
 20
157.2161989593532
 30
0.0
  0
SEQEND
  5
11DC5
330
11DC2
100
AcDbEntity
  8
AM_0
  0
POLYLINE
  5
11DC6
330
1F
100
AcDbEntity
  8
AM_0
100
AcDb2dPolyline
 66
     1
 10
0.0
 20
0.0
 30
0.0
  0
VERTEX
  5
11DC7
330
11DC6
100
AcDbEntity
  8
AM_0
100
AcDbVertex
100
AcDb2dVertex
 10
146.4725627145848
 20
155.2158325023814
 30
0.0
  0
VERTEX
  5
11DC8
330
11DC6
100
AcDbEntity
  8
AM_0
100
AcDbVertex
100
AcDb2dVertex
 10
146.4725627145848
 20
181.2157103500574
 30
0.0
  0
SEQEND
  5
11DC9
330
11DC6
100
AcDbEntity
  8
AM_0
  0
POLYLINE
  5
11DCA
330
1F
100
AcDbEntity
  8
AM_0
100
AcDb2dPolyline
 66
     1
 10
0.0
 20
0.0
 30
0.0
  0
VERTEX
  5
11DCB
330
11DCA
100
AcDbEntity
  8
AM_0
100
AcDbVertex
100
AcDb2dVertex
 10
143.4725016384228
 20
153.2164432640011
 30
0.0
  0
VERTEX
  5
11DCC
330
11DCA
100
AcDbEntity
  8
AM_0
100
AcDbVertex
100
AcDb2dVertex
 10
135.9723489480179
 20
153.2164432640011
 30
0.0
  0
SEQEND
  5
11DCD
330
11DCA
100
AcDbEntity
  8
AM_0
  0
POLYLINE
  5
11DCE
330
1F
100
AcDbEntity
  8
AM_0
100
AcDb2dPolyline
 66
     1
 10
0.0
 20
0.0
 30
0.0
  0
VERTEX
  5
11DCF
330
11DCE
100
AcDbEntity
  8
AM_0
100
AcDbVertex
100
AcDb2dVertex
 10
131.4722573337749
 20
160.2162600355152
 30
0.0
  0
VERTEX
  5
11DD0
330
11DCE
100
AcDbEntity
  8
AM_0
100
AcDbVertex
100
AcDb2dVertex
 10
131.9725932526657
 20
160.2162600355152
 30
0.0
  0
SEQEND
  5
11DD1
330
11DCE
100
AcDbEntity
  8
AM_0
  0
POLYLINE
  5
11DD2
330
1F
100
AcDbEntity
  8
AM_0
100
AcDb2dPolyline
 66
     1
 10
0.0
 20
0.0
 30
0.0
  0
VERTEX
  5
11DD3
330
11DD2
100
AcDbEntity
  8
AM_0
100
AcDbVertex
100
AcDb2dVertex
 10
128.9725321765038
 20
157.2161989593532
 30
0.0
  0
VERTEX
  5
11DD4
330
11DD2
100
AcDbEntity
  8
AM_0
100
AcDbVertex
100
AcDb2dVertex
 10
131.4722573337749
 20
157.2161989593532
 30
0.0
  0
SEQEND
  5
11DD5
330
11DD2
100
AcDbEntity
  8
AM_0
  0
SPLINE
  5
11DD6
330
1F
100
AcDbEntity
  8
AM_0
100
AcDbSpline
210
0.0
220
0.0
230
1.0
 70
     8
 71
     3
 72
    14
 73
    10
 74
     0
 42
0.0000000001
 43
0.0000000001
 40
0.0
 40
0.0
 40
0.0
 40
0.0
 40
1.0
 40
1.0
 40
1.0
 40
2.0
 40
2.0
 40
2.0
 40
3.0
 40
3.0
 40
3.0
 40
3.0
 10
131.9725932526657
 20
157.2161989593532
 30
0.0
 10
131.9725932526657
 20
155.0067077237825
 30
0.0
 10
133.7628577124471
 20
153.2164432640011
 30
0.0
 10
135.9723489480179
 20
153.2164432640011
 30
0.0
 10
135.9723489480179
 20
153.2164432640011
 30
0.0
 10
135.9723489480179
 20
153.2164432640011
 30
0.0
 10
135.9723489480179
 20
153.2164432640011
 30
0.0
 10
135.9723489480179
 20
153.2164432640011
 30
0.0
 10
135.9723489480179
 20
153.2164432640011
 30
0.0
 10
135.9723489480179
 20
153.2164432640011
 30
0.0
  0
SPLINE
  5
11DD7
330
1F
100
AcDbEntity
  8
AM_0
100
AcDbSpline
210
0.0
220
0.0
230
1.0
 70
     8
 71
     3
 72
     8
 73
     4
 74
     0
 42
0.0000000001
 43
0.0000000001
 40
0.0
 40
0.0
 40
0.0
 40
0.0
 40
1.0
 40
1.0
 40
1.0
 40
1.0
 10
146.4725627145848
 20
157.2161989593532
 30
0.0
 10
146.5009020537407
 20
157.7116487852862
 30
0.0
 10
146.2702784661269
 20
158.4777881610878
 30
0.0
 10
145.9722267956939
 20
158.8745389092706
 30
0.0
  0
SPLINE
  5
11DD8
330
1F
100
AcDbEntity
  8
AM_0
100
AcDbSpline
210
0.0
220
0.0
230
1.0
 70
     8
 71
     3
 72
    14
 73
    10
 74
     0
 42
0.0000000001
 43
0.0000000001
 40
0.0
 40
0.0
 40
0.0
 40
0.0
 40
1.0
 40
1.0
 40
1.0
 40
2.0
 40
2.0
 40
2.0
 40
3.0
 40
3.0
 40
3.0
 40
3.0
 10
143.4725016384228
 20
153.2164432640011
 30
0.0
 10
144.8533115083306
 20
153.2164432640011
 30
0.0
 10
145.9722267956939
 20
154.3353585513644
 30
0.0
 10
145.9722267956939
 20
155.7161684212722
 30
0.0
 10
145.9722267956939
 20
155.7161684212722
 30
0.0
 10
145.9722267956939
 20
155.7161684212722
 30
0.0
 10
145.9722267956939
 20
155.7161684212722
 30
0.0
 10
145.9722267956939
 20
155.7161684212722
 30
0.0
 10
145.9722267956939
 20
155.7161684212722
 30
0.0
 10
145.9722267956939
 20
155.7161684212722
 30
0.0
  0
POLYLINE
  5
11DD9
330
1F
100
AcDbEntity
  8
AM_0
100
AcDb2dPolyline
 66
     1
 10
0.0
 20
0.0
 30
0.0
  0
VERTEX
  5
11DDA
330
11DD9
100
AcDbEntity
  8
AM_0
100
AcDbVertex
100
AcDb2dVertex
 10
148.471951952965
 20
155.2158325023814
 30
0.0
  0
VERTEX
  5
11DDB
330
11DD9
100
AcDbEntity
  8
AM_0
100
AcDbVertex
100
AcDb2dVertex
 10
148.471951952965
 20
150.2163821878391
 30
0.0
  0
SEQEND
  5
11DDC
330
11DD9
100
AcDbEntity
  8
AM_0
  0
POLYLINE
  5
11DDD
330
1F
100
AcDbEntity
  8
AM_0
100
AcDb2dPolyline
 66
     1
 10
0.0
 20
0.0
 30
0.0
  0
VERTEX
  5
11DDE
330
11DDD
100
AcDbEntity
  8
AM_0
100
AcDbVertex
100
AcDb2dVertex
 10
172.4724405622609
 20
124.2165043401631
 30
0.0
  0
VERTEX
  5
11DDF
330
11DDD
100
AcDbEntity
  8
AM_0
100
AcDbVertex
100
AcDb2dVertex
 10
172.4724405622609
 20
150.2163821878391
 30
0.0
  0
SEQEND
  5
11DE0
330
11DDD
100
AcDbEntity
  8
AM_0
  0
POLYLINE
  5
11DE1
330
1F
100
AcDbEntity
  8
AM_2
100
AcDb2dPolyline
 66
     1
 10
0.0
 20
0.0
 30
0.0
  0
VERTEX
  5
11DE2
330
11DE1
100
AcDbEntity
  8
AM_2
100
AcDbVertex
100
AcDb2dVertex
 10
157.472135181451
 20
150.2163821878391
 30
0.0
  0
VERTEX
  5
11DE3
330
11DE1
100
AcDbEntity
  8
AM_2
100
AcDbVertex
100
AcDb2dVertex
 10
157.472135181451
 20
123.2158325023814
 30
0.0
  0
SEQEND
  5
11DE4
330
11DE1
100
AcDbEntity
  8
AM_2
  0
POLYLINE
  5
11DE5
330
1F
100
AcDbEntity
  8
AM_2
100
AcDb2dPolyline
 66
     1
 10
0.0
 20
0.0
 30
0.0
  0
VERTEX
  5
11DE6
330
11DE5
100
AcDbEntity
  8
AM_2
100
AcDbVertex
100
AcDb2dVertex
 10
171.4717687244791
 20
150.2163821878391
 30
0.0
  0
VERTEX
  5
11DE7
330
11DE5
100
AcDbEntity
  8
AM_2
100
AcDbVertex
100
AcDb2dVertex
 10
171.4717687244791
 20
123.2158325023814
 30
0.0
  0
SEQEND
  5
11DE8
330
11DE5
100
AcDbEntity
  8
AM_2
  0
POLYLINE
  5
11DE9
330
1F
100
AcDbEntity
  8
AM_0
100
AcDb2dPolyline
 66
     1
 10
0.0
 20
0.0
 30
0.0
  0
VERTEX
  5
11DEA
330
11DE9
100
AcDbEntity
  8
AM_0
100
AcDbVertex
100
AcDb2dVertex
 10
156.4724405622609
 20
124.2165043401631
 30
0.0
  0
VERTEX
  5
11DEB
330
11DE9
100
AcDbEntity
  8
AM_0
100
AcDbVertex
100
AcDb2dVertex
 10
156.4724405622609
 20
150.2163821878391
 30
0.0
  0
SEQEND
  5
11DEC
330
11DE9
100
AcDbEntity
  8
AM_0
  0
POLYLINE
  5
11DED
330
1F
100
AcDbEntity
  8
AM_0
100
AcDb2dPolyline
 66
     1
 10
0.0
 20
0.0
 30
0.0
  0
VERTEX
  5
11DEE
330
11DED
100
AcDbEntity
  8
AM_0
100
AcDbVertex
100
AcDb2dVertex
 10
157.9724711003418
 20
122.7164738020821
 30
0.0
  0
VERTEX
  5
11DEF
330
11DED
100
AcDbEntity
  8
AM_0
100
AcDbVertex
100
AcDb2dVertex
 10
170.9724100241799
 20
122.7164738020821
 30
0.0
  0
SEQEND
  5
11DF0
330
11DED
100
AcDbEntity
  8
AM_0
  0
POLYLINE
  5
11DF1
330
1F
100
AcDbEntity
  8
AM_0
100
AcDb2dPolyline
 66
     1
 10
0.0
 20
0.0
 30
0.0
  0
VERTEX
  5
11DF2
330
11DF1
100
AcDbEntity
  8
AM_0
100
AcDbVertex
100
AcDb2dVertex
 10
172.4724405622609
 20
124.2165043401631
 30
0.0
  0
VERTEX
  5
11DF3
330
11DF1
100
AcDbEntity
  8
AM_0
100
AcDbVertex
100
AcDb2dVertex
 10
156.4724405622609
 20
124.2165043401631
 30
0.0
  0
SEQEND
  5
11DF4
330
11DF1
100
AcDbEntity
  8
AM_0
  0
POLYLINE
  5
11DF5
330
1F
100
AcDbEntity
  8
AM_0
100
AcDb2dPolyline
 66
     1
 10
0.0
 20
0.0
 30
0.0
  0
VERTEX
  5
11DF6
330
11DF5
100
AcDbEntity
  8
AM_0
100
AcDbVertex
100
AcDb2dVertex
 10
157.9724711003418
 20
122.7164738020821
 30
0.0
  0
VERTEX
  5
11DF7
330
11DF5
100
AcDbEntity
  8
AM_0
100
AcDbVertex
100
AcDb2dVertex
 10
156.4724405622609
 20
124.2165043401631
 30
0.0
  0
SEQEND
  5
11DF8
330
11DF5
100
AcDbEntity
  8
AM_0
  0
POLYLINE
  5
11DF9
330
1F
100
AcDbEntity
  8
AM_0
100
AcDb2dPolyline
 66
     1
 10
0.0
 20
0.0
 30
0.0
  0
VERTEX
  5
11DFA
330
11DF9
100
AcDbEntity
  8
AM_0
100
AcDbVertex
100
AcDb2dVertex
 10
170.9724100241799
 20
122.7164738020821
 30
0.0
  0
VERTEX
  5
11DFB
330
11DF9
100
AcDbEntity
  8
AM_0
100
AcDbVertex
100
AcDb2dVertex
 10
172.4724405622609
 20
124.2165043401631
 30
0.0
  0
SEQEND
  5
11DFC
330
11DF9
100
AcDbEntity
  8
AM_0
  0
POLYLINE
  5
11DFD
330
1F
100
AcDbEntity
  8
AM_0
100
AcDb2dPolyline
 66
     1
 10
0.0
 20
0.0
 30
0.0
  0
VERTEX
  5
11DFE
330
11DFD
100
AcDbEntity
  8
AM_0
100
AcDbVertex
100
AcDb2dVertex
 10
152.4726848669087
 20
197.7160462689483
 30
0.0
  0
VERTEX
  5
11DFF
330
11DFD
100
AcDbEntity
  8
AM_0
100
AcDbVertex
100
AcDb2dVertex
 10
176.4721962576129
 20
197.7160462689483
 30
0.0
  0
SEQEND
  5
11E00
330
11DFD
100
AcDbEntity
  8
AM_0
  0
POLYLINE
  5
11E01
330
1F
100
AcDbEntity
  8
AM_0
100
AcDb2dPolyline
 66
     1
 10
0.0
 20
0.0
 30
0.0
  0
VERTEX
  5
11E02
330
11E01
100
AcDbEntity
  8
AM_0
100
AcDbVertex
100
AcDb2dVertex
 10
150.6159695428997
 20
187.7161684212722
 30
0.0
  0
VERTEX
  5
11E03
330
11E01
100
AcDbEntity
  8
AM_0
100
AcDbVertex
100
AcDb2dVertex
 10
150.6159695428997
 20
196.644037473981
 30
0.0
  0
SEQEND
  5
11E04
330
11E01
100
AcDbEntity
  8
AM_0
  0
POLYLINE
  5
11E05
330
1F
100
AcDbEntity
  8
AM_0
100
AcDb2dPolyline
 66
     1
 10
0.0
 20
0.0
 30
0.0
  0
VERTEX
  5
11E06
330
11E05
100
AcDbEntity
  8
AM_0
100
AcDbVertex
100
AcDb2dVertex
 10
131.4722573337749
 20
176.2162600355152
 30
0.0
  0
VERTEX
  5
11E07
330
11E05
100
AcDbEntity
  8
AM_0
100
AcDbVertex
100
AcDb2dVertex
 10
131.9725932526657
 20
176.2162600355152
 30
0.0
  0
SEQEND
  5
11E08
330
11E05
100
AcDbEntity
  8
AM_0
  0
POLYLINE
  5
11E09
330
1F
100
AcDbEntity
  8
AM_0
100
AcDb2dPolyline
 66
     1
 10
0.0
 20
0.0
 30
0.0
  0
VERTEX
  5
11E0A
330
11E09
100
AcDbEntity
  8
AM_0
100
AcDbVertex
100
AcDb2dVertex
 10
128.9725321765038
 20
179.2163211116771
 30
0.0
  0
VERTEX
  5
11E0B
330
11E09
100
AcDbEntity
  8
AM_0
100
AcDbVertex
100
AcDb2dVertex
 10
131.4722573337749
 20
179.2163211116771
 30
0.0
  0
SEQEND
  5
11E0C
330
11E09
100
AcDbEntity
  8
AM_0
  0
POLYLINE
  5
11E0D
330
1F
100
AcDbEntity
  8
AM_0
100
AcDb2dPolyline
 66
     1
 10
0.0
 20
0.0
 30
0.0
  0
VERTEX
  5
11E0E
330
11E0D
100
AcDbEntity
  8
AM_0
100
AcDbVertex
100
AcDb2dVertex
 10
149.4726237907468
 20
187.2158325023814
 30
0.0
  0
VERTEX
  5
11E0F
330
11E0D
100
AcDbEntity
  8
AM_0
100
AcDbVertex
100
AcDb2dVertex
 10
149.4726237907468
 20
181.7160462689483
 30
0.0
  0
SEQEND
  5
11E10
330
11E0D
100
AcDbEntity
  8
AM_0
  0
SPLINE
  5
11E11
330
1F
100
AcDbEntity
  8
AM_0
100
AcDbSpline
210
0.0
220
0.0
230
1.0
 70
     8
 71
     3
 72
     8
 73
     4
 74
     0
 42
0.0000000001
 43
0.0000000001
 40
0.0
 40
0.0
 40
0.0
 40
0.0
 40
1.0
 40
1.0
 40
1.0
 40
1.0
 10
145.9722267956939
 20
177.5579811617596
 30
0.0
 10
146.2702784661269
 20
177.9547319099425
 30
0.0
 10
146.5009020537407
 20
178.7208712857442
 30
0.0
 10
146.4725627145848
 20
179.2163211116771
 30
0.0
  0
POLYLINE
  5
11E12
330
1F
100
AcDbEntity
  8
AM_0
100
AcDb2dPolyline
 66
     1
 10
0.0
 20
0.0
 30
0.0
  0
VERTEX
  5
11E13
330
11E12
100
AcDbEntity
  8
AM_0
100
AcDbVertex
100
AcDb2dVertex
 10
149.971982491046
 20
187.7161684212722
 30
0.0
  0
VERTEX
  5
11E14
330
11E12
100
AcDbEntity
  8
AM_0
100
AcDbVertex
100
AcDb2dVertex
 10
149.4726237907468
 20
187.2158325023814
 30
0.0
  0
SEQEND
  5
11E15
330
11E12
100
AcDbEntity
  8
AM_0
  0
POLYLINE
  5
11E16
330
1F
100
AcDbEntity
  8
AM_0
100
AcDb2dPolyline
 66
     1
 10
0.0
 20
0.0
 30
0.0
  0
VERTEX
  5
11E17
330
11E16
100
AcDbEntity
  8
AM_0
100
AcDbVertex
100
AcDb2dVertex
 10
152.4726848669087
 20
197.7160462689483
 30
0.0
  0
VERTEX
  5
11E18
330
11E16
100
AcDbEntity
  8
AM_0
100
AcDbVertex
100
AcDb2dVertex
 10
150.6159695428997
 20
196.644037473981
 30
0.0
  0
SEQEND
  5
11E19
330
11E16
100
AcDbEntity
  8
AM_0
  0
POLYLINE
  5
11E1A
330
1F
100
AcDbEntity
  8
AM_0
100
AcDb2dPolyline
 66
     1
 10
0.0
 20
0.0
 30
0.0
  0
VERTEX
  5
11E1B
330
11E1A
100
AcDbEntity
  8
AM_0
100
AcDbVertex
100
AcDb2dVertex
 10
171.4004317672935
 20
187.7161684212722
 30
0.0
  0
VERTEX
  5
11E1C
330
11E1A
100
AcDbEntity
  8
AM_0
100
AcDbVertex
100
AcDb2dVertex
 10
171.4004317672935
 20
196.644037473981
 30
0.0
  0
SEQEND
  5
11E1D
330
11E1A
100
AcDbEntity
  8
AM_0
  0
POLYLINE
  5
11E1E
330
1F
100
AcDbEntity
  8
AM_0
100
AcDb2dPolyline
 66
     1
 10
0.0
 20
0.0
 30
0.0
  0
VERTEX
  5
11E1F
330
11E1E
100
AcDbEntity
  8
AM_0
100
AcDbVertex
100
AcDb2dVertex
 10
157.5444493572281
 20
187.7161684212722
 30
0.0
  0
VERTEX
  5
11E20
330
11E1E
100
AcDbEntity
  8
AM_0
100
AcDbVertex
100
AcDb2dVertex
 10
157.5444493572281
 20
196.644037473981
 30
0.0
  0
SEQEND
  5
11E21
330
11E1E
100
AcDbEntity
  8
AM_0
  0
SPLINE
  5
11E22
330
1F
100
AcDbEntity
  8
AM_0
100
AcDbSpline
210
0.0
220
0.0
230
1.0
 70
     8
 71
     3
 72
     8
 73
     4
 74
     0
 42
0.0000000001
 43
0.0000000001
 40
0.0
 40
0.0
 40
0.0
 40
0.0
 40
1.0
 40
1.0
 40
1.0
 40
1.0
 10
171.4004317672935
 20
196.644037473981
 30
0.0
 10
167.6615934358942
 20
198.0727310548763
 30
0.0
 10
161.2823104700359
 20
198.0727310548763
 30
0.0
 10
157.5444493572281
 20
196.644037473981
 30
0.0
  0
SPLINE
  5
11E23
330
1F
100
AcDbEntity
  8
AM_0
100
AcDbSpline
210
0.0
220
0.0
230
1.0
 70
     8
 71
     3
 72
     8
 73
     4
 74
     0
 42
0.0000000001
 43
0.0000000001
 40
0.0
 40
0.0
 40
0.0
 40
0.0
 40
1.0
 40
1.0
 40
1.0
 40
1.0
 10
157.5444493572281
 20
196.644037473981
 30
0.0
 10
156.5672307656444
 20
197.282161214285
 30
0.0
 10
154.7085610044522
 20
197.7805426959928
 30
0.0
 10
153.5437164432844
 20
197.7160462689483
 30
0.0
  0
SPLINE
  5
11E24
330
1F
100
AcDbEntity
  8
AM_0
100
AcDbSpline
210
0.0
220
0.0
230
1.0
 70
     8
 71
     3
 72
     8
 73
     4
 74
     0
 42
0.0000000001
 43
0.0000000001
 40
0.0
 40
0.0
 40
0.0
 40
0.0
 40
1.0
 40
1.0
 40
1.0
 40
1.0
 10
175.4001874626456
 20
197.7160462689483
 30
0.0
 10
174.2363201200694
 20
197.7805426959928
 30
0.0
 10
172.3766731402857
 20
197.282161214285
 30
0.0
 10
171.4004317672935
 20
196.644037473981
 30
0.0
  0
POLYLINE
  5
11E25
330
1F
100
AcDbEntity
  8
AM_0
100
AcDb2dPolyline
 66
     1
 10
0.0
 20
0.0
 30
0.0
  0
VERTEX
  5
11E26
330
11E25
100
AcDbEntity
  8
AM_0
100
AcDbVertex
100
AcDb2dVertex
 10
197.4716465721552
 20
179.2163211116771
 30
0.0
  0
VERTEX
  5
11E27
330
11E25
100
AcDbEntity
  8
AM_0
100
AcDbVertex
100
AcDb2dVertex
 10
197.4716465721552
 20
157.2161989593532
 30
0.0
  0
SEQEND
  5
11E28
330
11E25
100
AcDbEntity
  8
AM_0
  0
POLYLINE
  5
11E29
330
1F
100
AcDbEntity
  8
AM_0
100
AcDb2dPolyline
 66
     1
 10
0.0
 20
0.0
 30
0.0
  0
VERTEX
  5
11E2A
330
11E29
100
AcDbEntity
  8
AM_0
100
AcDbVertex
100
AcDb2dVertex
 10
199.9723489480179
 20
179.2163211116771
 30
0.0
  0
VERTEX
  5
11E2B
330
11E29
100
AcDbEntity
  8
AM_0
100
AcDbVertex
100
AcDb2dVertex
 10
199.9723489480179
 20
157.2161989593532
 30
0.0
  0
SEQEND
  5
11E2C
330
11E29
100
AcDbEntity
  8
AM_0
  0
POLYLINE
  5
11E2D
330
1F
100
AcDbEntity
  8
AM_0
100
AcDb2dPolyline
 66
     1
 10
0.0
 20
0.0
 30
0.0
  0
VERTEX
  5
11E2E
330
11E2D
100
AcDbEntity
  8
AM_0
100
AcDbVertex
100
AcDb2dVertex
 10
200.7717137559333
 20
173.4663669187986
 30
0.0
  0
VERTEX
  5
11E2F
330
11E2D
100
AcDbEntity
  8
AM_0
100
AcDbVertex
100
AcDb2dVertex
 10
200.7717137559333
 20
162.9661531522317
 30
0.0
  0
SEQEND
  5
11E30
330
11E2D
100
AcDbEntity
  8
AM_0
  0
POLYLINE
  5
11E31
330
1F
100
AcDbEntity
  8
AM_0
100
AcDb2dPolyline
 66
     1
 10
0.0
 20
0.0
 30
0.0
  0
VERTEX
  5
11E32
330
11E31
100
AcDbEntity
  8
AM_0
100
AcDbVertex
100
AcDb2dVertex
 10
182.4723184099368
 20
155.2158325023814
 30
0.0
  0
VERTEX
  5
11E33
330
11E31
100
AcDbEntity
  8
AM_0
100
AcDbVertex
100
AcDb2dVertex
 10
182.4723184099368
 20
181.2157103500574
 30
0.0
  0
SEQEND
  5
11E34
330
11E31
100
AcDbEntity
  8
AM_0
  0
SPLINE
  5
11E35
330
1F
100
AcDbEntity
  8
AM_0
100
AcDbSpline
210
0.0
220
0.0
230
1.0
 70
     8
 71
     3
 72
     8
 73
     4
 74
     0
 42
0.0000000001
 43
0.0000000001
 40
0.0
 40
0.0
 40
0.0
 40
0.0
 40
1.0
 40
1.0
 40
1.0
 40
1.0
 10
200.7717137559333
 20
162.9661531522317
 30
0.0
 10
202.0147358044278
 20
163.3003619105534
 30
0.0
 10
203.4659054129296
 20
164.5580422379216
 30
0.0
 10
203.97210464337
 20
165.7404767337379
 30
0.0
  0
POLYLINE
  5
11E36
330
1F
100
AcDbEntity
  8
AM_0
100
AcDb2dPolyline
 66
     1
 10
0.0
 20
0.0
 30
0.0
  0
VERTEX
  5
11E37
330
11E36
100
AcDbEntity
  8
AM_0
100
AcDbVertex
100
AcDb2dVertex
 10
185.4723794860989
 20
153.2164432640011
 30
0.0
  0
VERTEX
  5
11E38
330
11E36
100
AcDbEntity
  8
AM_0
100
AcDbVertex
100
AcDb2dVertex
 10
192.9725321765038
 20
153.2164432640011
 30
0.0
  0
SEQEND
  5
11E39
330
11E36
100
AcDbEntity
  8
AM_0
  0
POLYLINE
  5
11E3A
330
1F
100
AcDbEntity
  8
AM_0
100
AcDb2dPolyline
 66
     1
 10
0.0
 20
0.0
 30
0.0
  0
VERTEX
  5
11E3B
330
11E3A
100
AcDbEntity
  8
AM_0
100
AcDbVertex
100
AcDb2dVertex
 10
180.4719519529651
 20
155.2158325023814
 30
0.0
  0
VERTEX
  5
11E3C
330
11E3A
100
AcDbEntity
  8
AM_0
100
AcDbVertex
100
AcDb2dVertex
 10
180.4719519529651
 20
150.2163821878391
 30
0.0
  0
SEQEND
  5
11E3D
330
11E3A
100
AcDbEntity
  8
AM_0
  0
SPLINE
  5
11E3E
330
1F
100
AcDbEntity
  8
AM_0
100
AcDbSpline
210
0.0
220
0.0
230
1.0
 70
     8
 71
     3
 72
     8
 73
     4
 74
     0
 42
0.0000000001
 43
0.0000000001
 40
0.0
 40
0.0
 40
0.0
 40
0.0
 40
1.0
 40
1.0
 40
1.0
 40
1.0
 10
182.9726543288277
 20
158.8745389092706
 30
0.0
 10
182.6746026583947
 20
158.4777881610878
 30
0.0
 10
182.443979070781
 20
157.7116487852862
 30
0.0
 10
182.4723184099368
 20
157.2161989593532
 30
0.0
  0
SPLINE
  5
11E3F
330
1F
100
AcDbEntity
  8
AM_0
100
AcDbSpline
210
0.0
220
0.0
230
1.0
 70
     8
 71
     3
 72
    14
 73
    10
 74
     0
 42
0.0000000001
 43
0.0000000001
 40
0.0
 40
0.0
 40
0.0
 40
0.0
 40
1.0
 40
1.0
 40
1.0
 40
2.0
 40
2.0
 40
2.0
 40
3.0
 40
3.0
 40
3.0
 40
3.0
 10
182.9726543288277
 20
155.7161684212722
 30
0.0
 10
182.9726543288277
 20
154.3353585513644
 30
0.0
 10
184.0915696161911
 20
153.2164432640011
 30
0.0
 10
185.4723794860989
 20
153.2164432640011
 30
0.0
 10
185.4723794860989
 20
153.2164432640011
 30
0.0
 10
185.4723794860989
 20
153.2164432640011
 30
0.0
 10
185.4723794860989
 20
153.2164432640011
 30
0.0
 10
185.4723794860989
 20
153.2164432640011
 30
0.0
 10
185.4723794860989
 20
153.2164432640011
 30
0.0
 10
185.4723794860989
 20
153.2164432640011
 30
0.0
  0
POLYLINE
  5
11E40
330
1F
100
AcDbEntity
  8
AM_0
100
AcDb2dPolyline
 66
     1
 10
0.0
 20
0.0
 30
0.0
  0
VERTEX
  5
11E41
330
11E40
100
AcDbEntity
  8
AM_0
100
AcDbVertex
100
AcDb2dVertex
 10
199.9723489480179
 20
162.9661531522317
 30
0.0
  0
VERTEX
  5
11E42
330
11E40
100
AcDbEntity
  8
AM_0
100
AcDbVertex
100
AcDb2dVertex
 10
200.7717137559333
 20
162.9661531522317
 30
0.0
  0
SEQEND
  5
11E43
330
11E40
100
AcDbEntity
  8
AM_0
  0
POLYLINE
  5
11E44
330
1F
100
AcDbEntity
  8
AM_0
100
AcDb2dPolyline
 66
     1
 10
0.0
 20
0.0
 30
0.0
  0
VERTEX
  5
11E45
330
11E44
100
AcDbEntity
  8
AM_0
100
AcDbVertex
100
AcDb2dVertex
 10
197.4716465721552
 20
160.2162600355152
 30
0.0
  0
VERTEX
  5
11E46
330
11E44
100
AcDbEntity
  8
AM_0
100
AcDbVertex
100
AcDb2dVertex
 10
196.9722878718559
 20
160.2162600355152
 30
0.0
  0
SEQEND
  5
11E47
330
11E44
100
AcDbEntity
  8
AM_0
  0
POLYLINE
  5
11E48
330
1F
100
AcDbEntity
  8
AM_0
100
AcDb2dPolyline
 66
     1
 10
0.0
 20
0.0
 30
0.0
  0
VERTEX
  5
11E49
330
11E48
100
AcDbEntity
  8
AM_0
100
AcDbVertex
100
AcDb2dVertex
 10
199.9723489480179
 20
157.2161989593532
 30
0.0
  0
VERTEX
  5
11E4A
330
11E48
100
AcDbEntity
  8
AM_0
100
AcDbVertex
100
AcDb2dVertex
 10
197.4716465721552
 20
157.2161989593532
 30
0.0
  0
SEQEND
  5
11E4B
330
11E48
100
AcDbEntity
  8
AM_0
  0
SPLINE
  5
11E4C
330
1F
100
AcDbEntity
  8
AM_0
100
AcDbSpline
210
0.0
220
0.0
230
1.0
 70
     8
 71
     3
 72
    14
 73
    10
 74
     0
 42
0.0000000001
 43
0.0000000001
 40
0.0
 40
0.0
 40
0.0
 40
0.0
 40
1.0
 40
1.0
 40
1.0
 40
2.0
 40
2.0
 40
2.0
 40
3.0
 40
3.0
 40
3.0
 40
3.0
 10
192.9725321765038
 20
153.2164432640011
 30
0.0
 10
195.181046193483
 20
153.2164432640011
 30
0.0
 10
196.9722878718559
 20
155.0067077237825
 30
0.0
 10
196.9722878718559
 20
157.2161989593532
 30
0.0
 10
196.9722878718559
 20
157.2161989593532
 30
0.0
 10
196.9722878718559
 20
157.2161989593532
 30
0.0
 10
196.9722878718559
 20
157.2161989593532
 30
0.0
 10
196.9722878718559
 20
157.2161989593532
 30
0.0
 10
196.9722878718559
 20
157.2161989593532
 30
0.0
 10
196.9722878718559
 20
157.2161989593532
 30
0.0
  0
SPLINE
  5
11E4D
330
1F
100
AcDbEntity
  8
AM_0
100
AcDbSpline
210
0.0
220
0.0
230
1.0
 70
     8
 71
     3
 72
     8
 73
     4
 74
     0
 42
0.0000000001
 43
0.0000000001
 40
0.0
 40
0.0
 40
0.0
 40
0.0
 40
1.0
 40
1.0
 40
1.0
 40
1.0
 10
203.97210464337
 20
170.6910661187009
 30
0.0
 10
203.4659054129296
 20
171.8735006145172
 30
0.0
 10
202.0147358044278
 20
173.132158160477
 30
0.0
 10
200.7717137559333
 20
173.4663669187986
 30
0.0
  0
POLYLINE
  5
11E4E
330
1F
100
AcDbEntity
  8
AM_0
100
AcDb2dPolyline
 66
     1
 10
0.0
 20
0.0
 30
0.0
  0
VERTEX
  5
11E4F
330
11E4E
100
AcDbEntity
  8
AM_0
100
AcDbVertex
100
AcDb2dVertex
 10
178.328911581622
 20
187.7161684212722
 30
0.0
  0
VERTEX
  5
11E50
330
11E4E
100
AcDbEntity
  8
AM_0
100
AcDbVertex
100
AcDb2dVertex
 10
178.328911581622
 20
196.644037473981
 30
0.0
  0
SEQEND
  5
11E51
330
11E4E
100
AcDbEntity
  8
AM_0
  0
SPLINE
  5
11E52
330
1F
100
AcDbEntity
  8
AM_0
100
AcDbSpline
210
0.0
220
0.0
230
1.0
 70
     8
 71
     3
 72
     8
 73
     4
 74
     0
 42
0.0000000001
 43
0.0000000001
 40
0.0
 40
0.0
 40
0.0
 40
0.0
 40
1.0
 40
1.0
 40
1.0
 40
1.0
 10
182.4723184099368
 20
179.2163211116771
 30
0.0
 10
182.443979070781
 20
178.7208712857442
 30
0.0
 10
182.6746026583947
 20
177.9547319099425
 30
0.0
 10
182.9726543288277
 20
177.5579811617596
 30
0.0
  0
POLYLINE
  5
11E53
330
1F
100
AcDbEntity
  8
AM_0
100
AcDb2dPolyline
 66
     1
 10
0.0
 20
0.0
 30
0.0
  0
VERTEX
  5
11E54
330
11E53
100
AcDbEntity
  8
AM_0
100
AcDbVertex
100
AcDb2dVertex
 10
179.4722573337749
 20
187.2158325023814
 30
0.0
  0
VERTEX
  5
11E55
330
11E53
100
AcDbEntity
  8
AM_0
100
AcDbVertex
100
AcDb2dVertex
 10
179.4722573337749
 20
181.7160462689483
 30
0.0
  0
SEQEND
  5
11E56
330
11E53
100
AcDbEntity
  8
AM_0
  0
POLYLINE
  5
11E57
330
1F
100
AcDbEntity
  8
AM_0
100
AcDb2dPolyline
 66
     1
 10
0.0
 20
0.0
 30
0.0
  0
VERTEX
  5
11E58
330
11E57
100
AcDbEntity
  8
AM_0
100
AcDbVertex
100
AcDb2dVertex
 10
178.971921414884
 20
187.7161684212722
 30
0.0
  0
VERTEX
  5
11E59
330
11E57
100
AcDbEntity
  8
AM_0
100
AcDbVertex
100
AcDb2dVertex
 10
179.4722573337749
 20
187.2158325023814
 30
0.0
  0
SEQEND
  5
11E5A
330
11E57
100
AcDbEntity
  8
AM_0
  0
POLYLINE
  5
11E5B
330
1F
100
AcDbEntity
  8
AM_0
100
AcDb2dPolyline
 66
     1
 10
0.0
 20
0.0
 30
0.0
  0
VERTEX
  5
11E5C
330
11E5B
100
AcDbEntity
  8
AM_0
100
AcDbVertex
100
AcDb2dVertex
 10
199.9723489480179
 20
179.2163211116771
 30
0.0
  0
VERTEX
  5
11E5D
330
11E5B
100
AcDbEntity
  8
AM_0
100
AcDbVertex
100
AcDb2dVertex
 10
197.4716465721552
 20
179.2163211116771
 30
0.0
  0
SEQEND
  5
11E5E
330
11E5B
100
AcDbEntity
  8
AM_0
  0
POLYLINE
  5
11E5F
330
1F
100
AcDbEntity
  8
AM_0
100
AcDb2dPolyline
 66
     1
 10
0.0
 20
0.0
 30
0.0
  0
VERTEX
  5
11E60
330
11E5F
100
AcDbEntity
  8
AM_0
100
AcDbVertex
100
AcDb2dVertex
 10
199.9723489480179
 20
173.4663669187986
 30
0.0
  0
VERTEX
  5
11E61
330
11E5F
100
AcDbEntity
  8
AM_0
100
AcDbVertex
100
AcDb2dVertex
 10
200.7717137559333
 20
173.4663669187986
 30
0.0
  0
SEQEND
  5
11E62
330
11E5F
100
AcDbEntity
  8
AM_0
  0
POLYLINE
  5
11E63
330
1F
100
AcDbEntity
  8
AM_0
100
AcDb2dPolyline
 66
     1
 10
0.0
 20
0.0
 30
0.0
  0
VERTEX
  5
11E64
330
11E63
100
AcDbEntity
  8
AM_0
100
AcDbVertex
100
AcDb2dVertex
 10
197.4716465721552
 20
176.2162600355152
 30
0.0
  0
VERTEX
  5
11E65
330
11E63
100
AcDbEntity
  8
AM_0
100
AcDbVertex
100
AcDb2dVertex
 10
196.9722878718559
 20
176.2162600355152
 30
0.0
  0
SEQEND
  5
11E66
330
11E63
100
AcDbEntity
  8
AM_0
  0
POLYLINE
  5
11E67
330
1F
100
AcDbEntity
  8
AM_0
100
AcDb2dPolyline
 66
     1
 10
0.0
 20
0.0
 30
0.0
  0
VERTEX
  5
11E68
330
11E67
100
AcDbEntity
  8
AM_0
100
AcDbVertex
100
AcDb2dVertex
 10
203.97210464337
 20
170.6910661187009
 30
0.0
  0
VERTEX
  5
11E69
330
11E67
100
AcDbEntity
  8
AM_0
100
AcDbVertex
100
AcDb2dVertex
 10
203.97210464337
 20
165.7404767337379
 30
0.0
  0
SEQEND
  5
11E6A
330
11E67
100
AcDbEntity
  8
AM_0
  0
SPLINE
  5
11E6B
330
1F
100
AcDbEntity
  8
AM_0
100
AcDbSpline
210
0.0
220
0.0
230
1.0
 70
     8
 71
     3
 72
    20
 73
    16
 74
     0
 42
0.0000000001
 43
0.0000000001
 40
0.0
 40
0.0
 40
0.0
 40
0.0
 40
1.0
 40
1.0
 40
1.0
 40
2.0
 40
2.0
 40
2.0
 40
3.0
 40
3.0
 40
3.0
 40
4.0
 40
4.0
 40
4.0
 40
5.0
 40
5.0
 40
5.0
 40
5.0
 10
196.9722878718559
 20
226.2156492738955
 30
0.0
 10
196.9722878718559
 20
244.165200364105
 30
0.0
 10
182.4215030431745
 20
258.7159851927863
 30
0.0
 10
164.4719519529649
 20
258.7159851927863
 30
0.0
 10
164.4719519529649
 20
258.7159851927863
 30
0.0
 10
164.4719519529649
 20
258.7159851927863
 30
0.0
 10
164.4719519529649
 20
258.7159851927863
 30
0.0
 10
146.5233780813471
 20
258.7159851927863
 30
0.0
 10
131.9725932526657
 20
244.165200364105
 30
0.0
 10
131.9725932526657
 20
226.2156492738955
 30
0.0
 10
131.9725932526657
 20
226.2156492738955
 30
0.0
 10
131.9725932526657
 20
226.2156492738955
 30
0.0
 10
131.9725932526657
 20
226.2156492738955
 30
0.0
 10
131.9725932526657
 20
226.2156492738955
 30
0.0
 10
131.9725932526657
 20
226.2156492738955
 30
0.0
 10
131.9725932526657
 20
226.2156492738955
 30
0.0
  0
SPLINE
  5
11E6C
330
1F
100
AcDbEntity
  8
AM_0
100
AcDbSpline
210
0.0
220
0.0
230
1.0
 70
     8
 71
     3
 72
    20
 73
    16
 74
     0
 42
0.0000000001
 43
0.0000000001
 40
0.0
 40
0.0
 40
0.0
 40
0.0
 40
1.0
 40
1.0
 40
1.0
 40
2.0
 40
2.0
 40
2.0
 40
3.0
 40
3.0
 40
3.0
 40
4.0
 40
4.0
 40
4.0
 40
5.0
 40
5.0
 40
5.0
 40
5.0
 10
182.9726543288277
 20
226.2156492738955
 30
0.0
 10
182.9726543288277
 20
236.4334468674947
 30
0.0
 10
174.6897495465641
 20
244.7153744311666
 30
0.0
 10
164.4719519529649
 20
244.7153744311666
 30
0.0
 10
164.4719519529649
 20
244.7153744311666
 30
0.0
 10
164.4719519529649
 20
244.7153744311666
 30
0.0
 10
164.4719519529649
 20
244.7153744311666
 30
0.0
 10
154.2551315779574
 20
244.7153744311666
 30
0.0
 10
145.9722267956939
 20
236.4334468674947
 30
0.0
 10
145.9722267956939
 20
226.2156492738955
 30
0.0
 10
145.9722267956939
 20
226.2156492738955
 30
0.0
 10
145.9722267956939
 20
226.2156492738955
 30
0.0
 10
145.9722267956939
 20
226.2156492738955
 30
0.0
 10
145.9722267956939
 20
226.2156492738955
 30
0.0
 10
145.9722267956939
 20
226.2156492738955
 30
0.0
 10
145.9722267956939
 20
226.2156492738955
 30
0.0
  0
POLYLINE
  5
11E6D
330
1F
100
AcDbEntity
  8
AM_0
100
AcDb2dPolyline
 66
     1
 10
0.0
 20
0.0
 30
0.0
  0
VERTEX
  5
11E6E
330
11E6D
100
AcDbEntity
  8
AM_0
100
AcDbVertex
100
AcDb2dVertex
 10
280.0734703861685
 20
251.7161684212723
 30
0.0
  0
VERTEX
  5
11E6F
330
11E6D
100
AcDbEntity
  8
AM_0
100
AcDbVertex
100
AcDb2dVertex
 10
280.0734703861685
 20
186.1047349637507
 30
0.0
  0
SEQEND
  5
11E70
330
11E6D
100
AcDbEntity
  8
AM_0
  0
POLYLINE
  5
11E71
330
1F
100
AcDbEntity
  8
AM_0
100
AcDb2dPolyline
 66
     1
 10
0.0
 20
0.0
 30
0.0
  0
VERTEX
  5
11E72
330
11E71
100
AcDbEntity
  8
AM_0
100
AcDbVertex
100
AcDb2dVertex
 10
266.0738368431404
 20
251.7161684212723
 30
0.0
  0
VERTEX
  5
11E73
330
11E71
100
AcDbEntity
  8
AM_0
100
AcDbVertex
100
AcDb2dVertex
 10
266.0738368431404
 20
186.1047349637507
 30
0.0
  0
SEQEND
  5
11E74
330
11E71
100
AcDbEntity
  8
AM_0
  0
POLYLINE
  5
11E79
330
1F
100
AcDbEntity
  8
AM_0
100
AcDb2dPolyline
 66
     1
 10
0.0
 20
0.0
 30
0.0
  0
VERTEX
  5
11E7A
330
11E79
100
AcDbEntity
  8
AM_0
100
AcDbVertex
100
AcDb2dVertex
 10
285.0738979193023
 20
197.7160462689483
 30
0.0
  0
VERTEX
  5
11E7B
330
11E79
100
AcDbEntity
  8
AM_0
100
AcDbVertex
100
AcDb2dVertex
 10
286.9306132433114
 20
196.644037473981
 30
0.0
  0
SEQEND
  5
11E7C
330
11E79
100
AcDbEntity
  8
AM_0
  0
POLYLINE
  5
11E7D
330
1F
100
AcDbEntity
  8
AM_0
100
AcDb2dPolyline
 66
     1
 10
0.0
 20
0.0
 30
0.0
  0
VERTEX
  5
11E7E
330
11E7D
100
AcDbEntity
  8
AM_0
100
AcDbVertex
100
AcDb2dVertex
 10
281.5168222459377
 20
181.2157103500574
 30
0.0
  0
VERTEX
  5
11E7F
330
11E7D
100
AcDbEntity
  8
AM_0
100
AcDbVertex
100
AcDb2dVertex
 10
289.5661717848127
 20
181.2157103500574
 30
0.0
  0
SEQEND
  5
11E80
330
11E7D
100
AcDbEntity
  8
AM_0
  0
POLYLINE
  5
11E81
330
1F
100
AcDbEntity
  8
AM_0
100
AcDb2dPolyline
 66
     1
 10
0.0
 20
0.0
 30
0.0
  0
VERTEX
  5
11E82
330
11E81
100
AcDbEntity
  8
AM_0
100
AcDbVertex
100
AcDb2dVertex
 10
288.5742949143552
 20
187.7161684212722
 30
0.0
  0
VERTEX
  5
11E83
330
11E81
100
AcDbEntity
  8
AM_0
100
AcDbVertex
100
AcDb2dVertex
 10
280.0734703861685
 20
187.7161684212722
 30
0.0
  0
SEQEND
  5
11E84
330
11E81
100
AcDbEntity
  8
AM_0
  0
POLYLINE
  5
11E85
330
1F
100
AcDbEntity
  8
AM_0
100
AcDb2dPolyline
 66
     1
 10
0.0
 20
0.0
 30
0.0
  0
VERTEX
  5
11E86
330
11E85
100
AcDbEntity
  8
AM_0
100
AcDbVertex
100
AcDb2dVertex
 10
281.2158389197299
 20
181.7160462689483
 30
0.0
  0
VERTEX
  5
11E87
330
11E85
100
AcDbEntity
  8
AM_0
100
AcDbVertex
100
AcDb2dVertex
 10
289.0736536146545
 20
181.7160462689483
 30
0.0
  0
SEQEND
  5
11E88
330
11E85
100
AcDbEntity
  8
AM_0
  0
SPLINE
  5
11E8D
330
1F
100
AcDbEntity
  8
AM_0
100
AcDbSpline
210
0.0
220
0.0
230
1.0
 70
     8
 71
     3
 72
    26
 73
    22
 74
     0
 42
0.0000000001
 43
0.0000000001
 40
0.0
 40
0.0
 40
0.0
 40
0.0
 40
1.0
 40
1.0
 40
1.0
 40
2.0
 40
2.0
 40
2.0
 40
3.0
 40
3.0
 40
3.0
 40
4.0
 40
4.0
 40
4.0
 40
5.0
 40
5.0
 40
5.0
 40
6.0
 40
6.0
 40
6.0
 40
7.0
 40
7.0
 40
7.0
 40
7.0
 10
263.0737757669784
 20
179.3961293325286
 30
0.0
 10
256.898731486761
 20
173.873867071489
 30
0.0
 10
256.3710334473058
 20
164.3909378587608
 30
0.0
 10
261.8932957083454
 20
158.2158935785433
 30
0.0
 10
261.8932957083454
 20
158.2158935785433
 30
0.0
 10
261.8932957083454
 20
158.2158935785433
 30
0.0
 10
261.8932957083454
 20
158.2158935785433
 30
0.0
 10
267.4165351879764
 20
152.0418265169175
 30
0.0
 10
276.8994644007047
 20
151.5131512588707
 30
0.0
 10
283.0735314623305
 20
157.0354135199101
 30
0.0
 10
283.0735314623305
 20
157.0354135199101
 30
0.0
 10
283.0735314623305
 20
157.0354135199101
 30
0.0
 10
283.0735314623305
 20
157.0354135199101
 30
0.0
 10
289.2485757425479
 20
162.5586529995413
 30
0.0
 10
289.7772510005948
 20
172.0415822122696
 30
0.0
 10
284.2540115209637
 20
178.2156492738955
 30
0.0
 10
284.2540115209637
 20
178.2156492738955
 30
0.0
 10
284.2540115209637
 20
178.2156492738955
 30
0.0
 10
284.2540115209637
 20
178.2156492738955
 30
0.0
 10
283.9755042223623
 20
178.538131409118
 30
0.0
 10
283.3960135975532
 20
179.1176220339272
 30
0.0
 10
283.0735314623305
 20
179.3961293325286
 30
0.0
  0
POLYLINE
  5
11E8E
330
1F
100
AcDbEntity
  8
AM_0
100
AcDb2dPolyline
 66
     1
 10
0.0
 20
0.0
 30
0.0
  0
VERTEX
  5
11E8F
330
11E8E
100
AcDbEntity
  8
AM_0
100
AcDbVertex
100
AcDb2dVertex
 10
280.5571935890025
 20
155.2158325023814
 30
0.0
  0
VERTEX
  5
11E90
330
11E8E
100
AcDbEntity
  8
AM_0
100
AcDbVertex
100
AcDb2dVertex
 10
289.5661717848127
 20
155.2158325023814
 30
0.0
  0
SEQEND
  5
11E91
330
11E8E
100
AcDbEntity
  8
AM_0
  0
POLYLINE
  5
11E92
330
1F
100
AcDbEntity
  8
AM_0
100
AcDb2dPolyline
 66
     1
 10
0.0
 20
0.0
 30
0.0
  0
VERTEX
  5
11E93
330
11E92
100
AcDbEntity
  8
AM_0
100
AcDbVertex
100
AcDb2dVertex
 10
257.0736536146545
 20
150.2163821878391
 30
0.0
  0
VERTEX
  5
11E94
330
11E92
100
AcDbEntity
  8
AM_0
100
AcDbVertex
100
AcDb2dVertex
 10
289.0736536146545
 20
150.2163821878391
 30
0.0
  0
SEQEND
  5
11E95
330
11E92
100
AcDbEntity
  8
AM_0
  0
SPLINE
  5
11E96
330
1F
100
AcDbEntity
  8
AM_0
100
AcDbSpline
210
0.0
220
0.0
230
1.0
 70
    11
 71
     3
 72
    38
 73
    34
 74
     0
 42
0.0000000001
 43
0.0000000001
 40
0.0
 40
0.0
 40
0.0
 40
0.0
 40
1.0
 40
1.0
 40
1.0
 40
2.0
 40
2.0
 40
2.0
 40
3.0
 40
3.0
 40
3.0
 40
4.0
 40
4.0
 40
4.0
 40
5.0
 40
5.0
 40
5.0
 40
6.0
 40
6.0
 40
6.0
 40
7.0
 40
7.0
 40
7.0
 40
8.0
 40
8.0
 40
8.0
 40
9.0
 40
9.0
 40
9.0
 40
10.0
 40
10.0
 40
10.0
 40
11.0
 40
11.0
 40
11.0
 40
11.0
 10
278.3242491072337
 20
168.2157714262194
 30
0.0
 10
278.3242491072337
 20
171.1151789874483
 30
0.0
 10
275.9730611758834
 20
173.4663669187986
 30
0.0
 10
273.0736536146545
 20
173.4663669187986
 30
0.0
 10
273.0736536146545
 20
173.4663669187986
 30
0.0
 10
273.0736536146545
 20
173.4663669187986
 30
0.0
 10
273.0736536146545
 20
173.4663669187986
 30
0.0
 10
270.1742460534257
 20
173.4663669187986
 30
0.0
 10
267.8240353406668
 20
171.1151789874483
 30
0.0
 10
267.8240353406668
 20
168.2157714262194
 30
0.0
 10
267.8240353406668
 20
168.2157714262194
 30
0.0
 10
267.8240353406668
 20
168.2157714262194
 30
0.0
 10
267.8240353406668
 20
168.2157714262194
 30
0.0
 10
267.8240353406668
 20
165.3163638649905
 30
0.0
 10
270.1742460534257
 20
162.9661531522317
 30
0.0
 10
273.0736536146545
 20
162.9661531522317
 30
0.0
 10
273.0736536146545
 20
162.9661531522317
 30
0.0
 10
273.0736536146545
 20
162.9661531522317
 30
0.0
 10
273.0736536146545
 20
162.9661531522317
 30
0.0
 10
275.9730611758834
 20
162.9661531522317
 30
0.0
 10
278.3242491072337
 20
165.3163638649905
 30
0.0
 10
278.3242491072337
 20
168.2157714262194
 30
0.0
 10
278.3242491072337
 20
168.2157714262194
 30
0.0
 10
278.3242491072337
 20
168.2157714262194
 30
0.0
 10
278.3242491072337
 20
168.2157714262194
 30
0.0
 10
278.3242491072337
 20
168.2157714262194
 30
0.0
 10
278.3242491072337
 20
168.2157714262194
 30
0.0
 10
278.3242491072337
 20
168.2157714262194
 30
0.0
 10
278.3242491072337
 20
168.2157714262194
 30
0.0
 10
278.3242491072337
 20
168.2157714262194
 30
0.0
 10
278.3242491072337
 20
168.2157714262194
 30
0.0
 10
278.3242491072337
 20
168.2157714262194
 30
0.0
 10
278.3242491072337
 20
168.2157714262194
 30
0.0
 10
278.3242491072337
 20
168.2157714262194
 30
0.0
  0
SPLINE
  5
11E97
330
1F
100
AcDbEntity
  8
AM_0
100
AcDbSpline
210
0.0
220
0.0
230
1.0
 70
    11
 71
     3
 72
    38
 73
    34
 74
     0
 42
0.0000000001
 43
0.0000000001
 40
0.0
 40
0.0
 40
0.0
 40
0.0
 40
1.0
 40
1.0
 40
1.0
 40
2.0
 40
2.0
 40
2.0
 40
3.0
 40
3.0
 40
3.0
 40
4.0
 40
4.0
 40
4.0
 40
5.0
 40
5.0
 40
5.0
 40
6.0
 40
6.0
 40
6.0
 40
7.0
 40
7.0
 40
7.0
 40
8.0
 40
8.0
 40
8.0
 40
9.0
 40
9.0
 40
9.0
 40
10.0
 40
10.0
 40
10.0
 40
11.0
 40
11.0
 40
11.0
 40
11.0
 10
284.0742033001122
 20
168.2157714262194
 30
0.0
 10
284.0742033001122
 20
174.2911394100953
 30
0.0
 10
279.1490215985303
 20
179.2163211116771
 30
0.0
 10
273.0736536146545
 20
179.2163211116771
 30
0.0
 10
273.0736536146545
 20
179.2163211116771
 30
0.0
 10
273.0736536146545
 20
179.2163211116771
 30
0.0
 10
273.0736536146545
 20
179.2163211116771
 30
0.0
 10
266.9992628493702
 20
179.2163211116771
 30
0.0
 10
262.0740811477883
 20
174.2911394100953
 30
0.0
 10
262.0740811477883
 20
168.2157714262194
 30
0.0
 10
262.0740811477883
 20
168.2157714262194
 30
0.0
 10
262.0740811477883
 20
168.2157714262194
 30
0.0
 10
262.0740811477883
 20
168.2157714262194
 30
0.0
 10
262.0740811477883
 20
162.1413806609351
 30
0.0
 10
266.9992628493702
 20
157.2161989593532
 30
0.0
 10
273.0736536146545
 20
157.2161989593532
 30
0.0
 10
273.0736536146545
 20
157.2161989593532
 30
0.0
 10
273.0736536146545
 20
157.2161989593532
 30
0.0
 10
273.0736536146545
 20
157.2161989593532
 30
0.0
 10
279.1490215985303
 20
157.2161989593532
 30
0.0
 10
284.0742033001122
 20
162.1413806609351
 30
0.0
 10
284.0742033001122
 20
168.2157714262194
 30
0.0
 10
284.0742033001122
 20
168.2157714262194
 30
0.0
 10
284.0742033001122
 20
168.2157714262194
 30
0.0
 10
284.0742033001122
 20
168.2157714262194
 30
0.0
 10
284.0742033001122
 20
168.2157714262194
 30
0.0
 10
284.0742033001122
 20
168.2157714262194
 30
0.0
 10
284.0742033001122
 20
168.2157714262194
 30
0.0
 10
284.0742033001122
 20
168.2157714262194
 30
0.0
 10
284.0742033001122
 20
168.2157714262194
 30
0.0
 10
284.0742033001122
 20
168.2157714262194
 30
0.0
 10
284.0742033001122
 20
168.2157714262194
 30
0.0
 10
284.0742033001122
 20
168.2157714262194
 30
0.0
 10
284.0742033001122
 20
168.2157714262194
 30
0.0
  0
SPLINE
  5
11E98
330
1F
100
AcDbEntity
  8
AM_0
100
AcDbSpline
210
0.0
220
0.0
230
1.0
 70
     8
 71
     3
 72
     8
 73
     4
 74
     0
 42
0.0000000001
 43
0.0000000001
 40
0.0
 40
0.0
 40
0.0
 40
0.0
 40
1.0
 40
1.0
 40
1.0
 40
1.0
 10
256.5811354444964
 20
181.2157103500574
 30
0.0
 10
250.5712411062565
 20
173.9950421768454
 30
0.0
 10
250.5712411062565
 20
162.437477894185
 30
0.0
 10
256.5811354444964
 20
155.2158325023814
 30
0.0
  0
POLYLINE
  5
11E99
330
1F
100
AcDbEntity
  8
AM_0
100
AcDb2dPolyline
 66
     1
 10
0.0
 20
0.0
 30
0.0
  0
VERTEX
  5
11E9A
330
11E99
100
AcDbEntity
  8
AM_0
100
AcDbVertex
100
AcDb2dVertex
 10
265.5901136403065
 20
155.2158325023814
 30
0.0
  0
VERTEX
  5
11E9B
330
11E99
100
AcDbEntity
  8
AM_0
100
AcDbVertex
100
AcDb2dVertex
 10
256.5811354444964
 20
155.2158325023814
 30
0.0
  0
SEQEND
  5
11E9C
330
11E99
100
AcDbEntity
  8
AM_0
  0
POLYLINE
  5
11E9D
330
1F
100
AcDbEntity
  8
AM_0
100
AcDb2dPolyline
 66
     1
 10
0.0
 20
0.0
 30
0.0
  0
VERTEX
  5
11E9E
330
11E9D
100
AcDbEntity
  8
AM_0
100
AcDbVertex
100
AcDb2dVertex
 10
257.0736536146545
 20
155.2158325023814
 30
0.0
  0
VERTEX
  5
11E9F
330
11E9D
100
AcDbEntity
  8
AM_0
100
AcDbVertex
100
AcDb2dVertex
 10
257.0736536146545
 20
150.2163821878391
 30
0.0
  0
SEQEND
  5
11EA0
330
11E9D
100
AcDbEntity
  8
AM_0
  0
POLYLINE
  5
11EA1
330
1F
100
AcDbEntity
  8
AM_0
100
AcDb2dPolyline
 66
     1
 10
0.0
 20
0.0
 30
0.0
  0
VERTEX
  5
11EA2
330
11EA1
100
AcDbEntity
  8
AM_0
100
AcDbVertex
100
AcDb2dVertex
 10
281.0741422239503
 20
124.2165043401631
 30
0.0
  0
VERTEX
  5
11EA3
330
11EA1
100
AcDbEntity
  8
AM_0
100
AcDbVertex
100
AcDb2dVertex
 10
281.0741422239503
 20
150.2163821878391
 30
0.0
  0
SEQEND
  5
11EA4
330
11EA1
100
AcDbEntity
  8
AM_0
  0
POLYLINE
  5
11EA5
330
1F
100
AcDbEntity
  8
AM_0
100
AcDb2dPolyline
 66
     1
 10
0.0
 20
0.0
 30
0.0
  0
VERTEX
  5
11EA6
330
11EA5
100
AcDbEntity
  8
AM_0
100
AcDbVertex
100
AcDb2dVertex
 10
265.0741422239503
 20
124.2165043401631
 30
0.0
  0
VERTEX
  5
11EA7
330
11EA5
100
AcDbEntity
  8
AM_0
100
AcDbVertex
100
AcDb2dVertex
 10
265.0741422239503
 20
150.2163821878391
 30
0.0
  0
SEQEND
  5
11EA8
330
11EA5
100
AcDbEntity
  8
AM_0
  0
POLYLINE
  5
11EA9
330
1F
100
AcDbEntity
  8
AM_2
100
AcDb2dPolyline
 66
     1
 10
0.0
 20
0.0
 30
0.0
  0
VERTEX
  5
11EAA
330
11EA9
100
AcDbEntity
  8
AM_2
100
AcDbVertex
100
AcDb2dVertex
 10
280.0734703861685
 20
150.2163821878391
 30
0.0
  0
VERTEX
  5
11EAB
330
11EA9
100
AcDbEntity
  8
AM_2
100
AcDbVertex
100
AcDb2dVertex
 10
280.0734703861685
 20
123.2158325023814
 30
0.0
  0
SEQEND
  5
11EAC
330
11EA9
100
AcDbEntity
  8
AM_2
  0
POLYLINE
  5
11EAD
330
1F
100
AcDbEntity
  8
AM_2
100
AcDb2dPolyline
 66
     1
 10
0.0
 20
0.0
 30
0.0
  0
VERTEX
  5
11EAE
330
11EAD
100
AcDbEntity
  8
AM_2
100
AcDbVertex
100
AcDb2dVertex
 10
266.0738368431404
 20
150.2163821878391
 30
0.0
  0
VERTEX
  5
11EAF
330
11EAD
100
AcDbEntity
  8
AM_2
100
AcDbVertex
100
AcDb2dVertex
 10
266.0738368431404
 20
123.2158325023814
 30
0.0
  0
SEQEND
  5
11EB0
330
11EAD
100
AcDbEntity
  8
AM_2
  0
POLYLINE
  5
11EB1
330
1F
100
AcDbEntity
  8
AM_0
100
AcDb2dPolyline
 66
     1
 10
0.0
 20
0.0
 30
0.0
  0
VERTEX
  5
11EB2
330
11EB1
100
AcDbEntity
  8
AM_0
100
AcDbVertex
100
AcDb2dVertex
 10
266.5741727620313
 20
122.7164738020821
 30
0.0
  0
VERTEX
  5
11EB3
330
11EB1
100
AcDbEntity
  8
AM_0
100
AcDbVertex
100
AcDb2dVertex
 10
279.5741116858693
 20
122.7164738020821
 30
0.0
  0
SEQEND
  5
11EB4
330
11EB1
100
AcDbEntity
  8
AM_0
  0
POLYLINE
  5
11EB5
330
1F
100
AcDbEntity
  8
AM_0
100
AcDb2dPolyline
 66
     1
 10
0.0
 20
0.0
 30
0.0
  0
VERTEX
  5
11EB6
330
11EB5
100
AcDbEntity
  8
AM_0
100
AcDbVertex
100
AcDb2dVertex
 10
281.0741422239503
 20
124.2165043401631
 30
0.0
  0
VERTEX
  5
11EB7
330
11EB5
100
AcDbEntity
  8
AM_0
100
AcDbVertex
100
AcDb2dVertex
 10
265.0741422239503
 20
124.2165043401631
 30
0.0
  0
SEQEND
  5
11EB8
330
11EB5
100
AcDbEntity
  8
AM_0
  0
POLYLINE
  5
11EB9
330
1F
100
AcDbEntity
  8
AM_0
100
AcDb2dPolyline
 66
     1
 10
0.0
 20
0.0
 30
0.0
  0
VERTEX
  5
11EBA
330
11EB9
100
AcDbEntity
  8
AM_0
100
AcDbVertex
100
AcDb2dVertex
 10
266.5741727620313
 20
122.7164738020821
 30
0.0
  0
VERTEX
  5
11EBB
330
11EB9
100
AcDbEntity
  8
AM_0
100
AcDbVertex
100
AcDb2dVertex
 10
265.0741422239503
 20
124.2165043401631
 30
0.0
  0
SEQEND
  5
11EBC
330
11EB9
100
AcDbEntity
  8
AM_0
  0
POLYLINE
  5
11EBD
330
1F
100
AcDbEntity
  8
AM_0
100
AcDb2dPolyline
 66
     1
 10
0.0
 20
0.0
 30
0.0
  0
VERTEX
  5
11EBE
330
11EBD
100
AcDbEntity
  8
AM_0
100
AcDbVertex
100
AcDb2dVertex
 10
279.5741116858693
 20
122.7164738020821
 30
0.0
  0
VERTEX
  5
11EBF
330
11EBD
100
AcDbEntity
  8
AM_0
100
AcDbVertex
100
AcDb2dVertex
 10
281.0741422239503
 20
124.2165043401631
 30
0.0
  0
SEQEND
  5
11EC0
330
11EBD
100
AcDbEntity
  8
AM_0
  0
POLYLINE
  5
11EC1
330
1F
100
AcDbEntity
  8
AM_0
100
AcDb2dPolyline
 66
     1
 10
0.0
 20
0.0
 30
0.0
  0
VERTEX
  5
11EC2
330
11EC1
100
AcDbEntity
  8
AM_0
100
AcDbVertex
100
AcDb2dVertex
 10
264.6304849833713
 20
181.2157103500574
 30
0.0
  0
VERTEX
  5
11EC3
330
11EC1
100
AcDbEntity
  8
AM_0
100
AcDbVertex
100
AcDb2dVertex
 10
256.5811354444964
 20
181.2157103500574
 30
0.0
  0
SEQEND
  5
11EC4
330
11EC1
100
AcDbEntity
  8
AM_0
  0
POLYLINE
  5
11EC5
330
1F
100
AcDbEntity
  8
AM_0
100
AcDb2dPolyline
 66
     1
 10
0.0
 20
0.0
 30
0.0
  0
VERTEX
  5
11EC6
330
11EC5
100
AcDbEntity
  8
AM_0
100
AcDbVertex
100
AcDb2dVertex
 10
257.5739895335455
 20
187.7161684212722
 30
0.0
  0
VERTEX
  5
11EC7
330
11EC5
100
AcDbEntity
  8
AM_0
100
AcDbVertex
100
AcDb2dVertex
 10
266.0738368431404
 20
187.7161684212722
 30
0.0
  0
SEQEND
  5
11EC8
330
11EC5
100
AcDbEntity
  8
AM_0
  0
POLYLINE
  5
11EC9
330
1F
100
AcDbEntity
  8
AM_0
100
AcDb2dPolyline
 66
     1
 10
0.0
 20
0.0
 30
0.0
  0
VERTEX
  5
11ECA
330
11EC9
100
AcDbEntity
  8
AM_0
100
AcDbVertex
100
AcDb2dVertex
 10
261.0743865285982
 20
197.7160462689483
 30
0.0
  0
VERTEX
  5
11ECB
330
11EC9
100
AcDbEntity
  8
AM_0
100
AcDbVertex
100
AcDb2dVertex
 10
259.217671204589
 20
196.644037473981
 30
0.0
  0
SEQEND
  5
11ECC
330
11EC9
100
AcDbEntity
  8
AM_0
  0
POLYLINE
  5
11ECD
330
1F
100
AcDbEntity
  8
AM_0
100
AcDb2dPolyline
 66
     1
 10
0.0
 20
0.0
 30
0.0
  0
VERTEX
  5
11ECE
330
11ECD
100
AcDbEntity
  8
AM_0
100
AcDbVertex
100
AcDb2dVertex
 10
257.0736536146545
 20
181.7160462689483
 30
0.0
  0
VERTEX
  5
11ECF
330
11ECD
100
AcDbEntity
  8
AM_0
100
AcDbVertex
100
AcDb2dVertex
 10
264.931468309579
 20
181.7160462689483
 30
0.0
  0
SEQEND
  5
11ED0
330
11ECD
100
AcDbEntity
  8
AM_0
  0
POLYLINE
  5
11ED1
330
1F
100
AcDbEntity
  8
AM_0
100
AcDb2dPolyline
 66
     1
 10
0.0
 20
0.0
 30
0.0
  0
VERTEX
  5
11ED2
330
11ED1
100
AcDbEntity
  8
AM_0
100
AcDbVertex
100
AcDb2dVertex
 10
259.217671204589
 20
187.7161684212722
 30
0.0
  0
VERTEX
  5
11ED3
330
11ED1
100
AcDbEntity
  8
AM_0
100
AcDbVertex
100
AcDb2dVertex
 10
259.217671204589
 20
196.644037473981
 30
0.0
  0
SEQEND
  5
11ED4
330
11ED1
100
AcDbEntity
  8
AM_0
  0
POLYLINE
  5
11ED5
330
1F
100
AcDbEntity
  8
AM_0
100
AcDb2dPolyline
 66
     1
 10
0.0
 20
0.0
 30
0.0
  0
VERTEX
  5
11ED6
330
11ED5
100
AcDbEntity
  8
AM_0
100
AcDbVertex
100
AcDb2dVertex
 10
257.0736536146545
 20
187.2158325023814
 30
0.0
  0
VERTEX
  5
11ED7
330
11ED5
100
AcDbEntity
  8
AM_0
100
AcDbVertex
100
AcDb2dVertex
 10
257.0736536146545
 20
181.7160462689483
 30
0.0
  0
SEQEND
  5
11ED8
330
11ED5
100
AcDbEntity
  8
AM_0
  0
POLYLINE
  5
11ED9
330
1F
100
AcDbEntity
  8
AM_0
100
AcDb2dPolyline
 66
     1
 10
0.0
 20
0.0
 30
0.0
  0
VERTEX
  5
11EDA
330
11ED9
100
AcDbEntity
  8
AM_0
100
AcDbVertex
100
AcDb2dVertex
 10
257.5739895335455
 20
187.7161684212722
 30
0.0
  0
VERTEX
  5
11EDB
330
11ED9
100
AcDbEntity
  8
AM_0
100
AcDbVertex
100
AcDb2dVertex
 10
257.0736536146545
 20
187.2158325023814
 30
0.0
  0
SEQEND
  5
11EDC
330
11ED9
100
AcDbEntity
  8
AM_0
  0
POLYLINE
  5
11EDD
330
1F
100
AcDbEntity
  8
AM_0
100
AcDb2dPolyline
 66
     1
 10
0.0
 20
0.0
 30
0.0
  0
VERTEX
  5
11EDE
330
11EDD
100
AcDbEntity
  8
AM_0
100
AcDbVertex
100
AcDb2dVertex
 10
274.2287259899065
 20
170.2161378831912
 30
0.0
  0
VERTEX
  5
11EDF
330
11EDD
100
AcDbEntity
  8
AM_0
100
AcDbVertex
100
AcDb2dVertex
 10
271.9195584579942
 20
170.2161378831912
 30
0.0
  0
SEQEND
  5
11EE0
330
11EDD
100
AcDbEntity
  8
AM_0
  0
POLYLINE
  5
11EE1
330
1F
100
AcDbEntity
  8
AM_0
100
AcDb2dPolyline
 66
     1
 10
0.0
 20
0.0
 30
0.0
  0
VERTEX
  5
11EE2
330
11EE1
100
AcDbEntity
  8
AM_0
100
AcDbVertex
100
AcDb2dVertex
 10
271.9195584579942
 20
166.2163821878391
 30
0.0
  0
VERTEX
  5
11EE3
330
11EE1
100
AcDbEntity
  8
AM_0
100
AcDbVertex
100
AcDb2dVertex
 10
274.2287259899065
 20
166.2163821878391
 30
0.0
  0
SEQEND
  5
11EE4
330
11EE1
100
AcDbEntity
  8
AM_0
  0
POLYLINE
  5
11EE5
330
1F
100
AcDbEntity
  8
AM_0
100
AcDb2dPolyline
 66
     1
 10
0.0
 20
0.0
 30
0.0
  0
VERTEX
  5
11EE6
330
11EE5
100
AcDbEntity
  8
AM_0
100
AcDbVertex
100
AcDb2dVertex
 10
271.9195584579942
 20
170.2161378831912
 30
0.0
  0
VERTEX
  5
11EE7
330
11EE5
100
AcDbEntity
  8
AM_0
100
AcDbVertex
100
AcDb2dVertex
 10
270.7644860827422
 20
168.2157714262194
 30
0.0
  0
SEQEND
  5
11EE8
330
11EE5
100
AcDbEntity
  8
AM_0
  0
POLYLINE
  5
11EE9
330
1F
100
AcDbEntity
  8
AM_0
100
AcDb2dPolyline
 66
     1
 10
0.0
 20
0.0
 30
0.0
  0
VERTEX
  5
11EEA
330
11EE9
100
AcDbEntity
  8
AM_0
100
AcDbVertex
100
AcDb2dVertex
 10
270.7644860827422
 20
168.2157714262194
 30
0.0
  0
VERTEX
  5
11EEB
330
11EE9
100
AcDbEntity
  8
AM_0
100
AcDbVertex
100
AcDb2dVertex
 10
271.9195584579942
 20
166.2163821878391
 30
0.0
  0
SEQEND
  5
11EEC
330
11EE9
100
AcDbEntity
  8
AM_0
  0
SPLINE
  5
11EED
330
1F
100
AcDbEntity
  8
AM_0
100
AcDbSpline
210
0.0
220
0.0
230
1.0
 70
     8
 71
     3
 72
     8
 73
     4
 74
     0
 42
0.0000000001
 43
0.0000000001
 40
0.0
 40
0.0
 40
0.0
 40
0.0
 40
1.0
 40
1.0
 40
1.0
 40
1.0
 10
263.0737757669784
 20
179.3961293325286
 30
0.0
 10
264.8513363850692
 20
180.8091874159586
 30
0.0
 10
266.2057613530042
 20
183.8385650498681
 30
0.0
 10
266.0738368431404
 20
186.1047349637507
 30
0.0
  0
POLYLINE
  5
11EEE
330
1F
100
AcDbEntity
  8
AM_0
100
AcDb2dPolyline
 66
     1
 10
0.0
 20
0.0
 30
0.0
  0
VERTEX
  5
11EEF
330
11EEE
100
AcDbEntity
  8
AM_0
100
AcDbVertex
100
AcDb2dVertex
 10
274.2287259899065
 20
166.2163821878391
 30
0.0
  0
VERTEX
  5
11EF0
330
11EEE
100
AcDbEntity
  8
AM_0
100
AcDbVertex
100
AcDb2dVertex
 10
275.3828211465668
 20
168.2157714262194
 30
0.0
  0
SEQEND
  5
11EF1
330
11EEE
100
AcDbEntity
  8
AM_0
  0
POLYLINE
  5
11EF2
330
1F
100
AcDbEntity
  8
AM_0
100
AcDb2dPolyline
 66
     1
 10
0.0
 20
0.0
 30
0.0
  0
VERTEX
  5
11EF3
330
11EF2
100
AcDbEntity
  8
AM_0
100
AcDbVertex
100
AcDb2dVertex
 10
275.3828211465668
 20
168.2157714262194
 30
0.0
  0
VERTEX
  5
11EF4
330
11EF2
100
AcDbEntity
  8
AM_0
100
AcDbVertex
100
AcDb2dVertex
 10
274.2287259899065
 20
170.2161378831912
 30
0.0
  0
SEQEND
  5
11EF5
330
11EF2
100
AcDbEntity
  8
AM_0
  0
SPLINE
  5
11EF6
330
1F
100
AcDbEntity
  8
AM_0
100
AcDbSpline
210
0.0
220
0.0
230
1.0
 70
     8
 71
     3
 72
     8
 73
     4
 74
     0
 42
0.0000000001
 43
0.0000000001
 40
0.0
 40
0.0
 40
0.0
 40
0.0
 40
1.0
 40
1.0
 40
1.0
 40
1.0
 10
280.0734703861685
 20
186.1047349637507
 30
0.0
 10
279.9415458763048
 20
183.8385650498681
 30
0.0
 10
281.2969480628313
 20
180.8091874159586
 30
0.0
 10
283.0735314623305
 20
179.3961293325286
 30
0.0
  0
POLYLINE
  5
11EF7
330
1F
100
AcDbEntity
  8
AM_0
100
AcDb2dPolyline
 66
     1
 10
0.0
 20
0.0
 30
0.0
  0
VERTEX
  5
11EF8
330
11EF7
100
AcDbEntity
  8
AM_0
100
AcDbVertex
100
AcDb2dVertex
 10
261.0743865285982
 20
197.7160462689483
 30
0.0
  0
VERTEX
  5
11EF9
330
11EF7
100
AcDbEntity
  8
AM_0
100
AcDbVertex
100
AcDb2dVertex
 10
266.0738368431404
 20
197.7160462689483
 30
0.0
  0
SEQEND
  5
11EFA
330
11EF7
100
AcDbEntity
  8
AM_0
  0
SPLINE
  5
11EFB
330
1F
100
AcDbEntity
  8
AM_0
100
AcDbSpline
210
0.0
220
0.0
230
1.0
 70
     8
 71
     3
 72
     8
 73
     4
 74
     0
 42
0.0000000001
 43
0.0000000001
 40
0.0
 40
0.0
 40
0.0
 40
0.0
 40
1.0
 40
1.0
 40
1.0
 40
1.0
 10
266.0738368431404
 20
196.6850806548275
 30
0.0
 10
265.112253749022
 20
197.298773930342
 30
0.0
 10
263.2848549827605
 20
197.7785882588096
 30
0.0
 10
262.145418104974
 20
197.7160462689483
 30
0.0
  0
POLYLINE
  5
11EFC
330
1F
100
AcDbEntity
  8
AM_0
100
AcDb2dPolyline
 66
     1
 10
0.0
 20
0.0
 30
0.0
  0
VERTEX
  5
11EFD
330
11EFC
100
AcDbEntity
  8
AM_0
100
AcDbVertex
100
AcDb2dVertex
 10
280.0734703861685
 20
197.7160462689483
 30
0.0
  0
VERTEX
  5
11EFE
330
11EFC
100
AcDbEntity
  8
AM_0
100
AcDbVertex
100
AcDb2dVertex
 10
285.0738979193023
 20
197.7160462689483
 30
0.0
  0
SEQEND
  5
11EFF
330
11EFC
100
AcDbEntity
  8
AM_0
  0
SPLINE
  5
11F00
330
1F
100
AcDbEntity
  8
AM_0
100
AcDbSpline
210
0.0
220
0.0
230
1.0
 70
     8
 71
     3
 72
     8
 73
     4
 74
     0
 42
0.0000000001
 43
0.0000000001
 40
0.0
 40
0.0
 40
0.0
 40
0.0
 40
1.0
 40
1.0
 40
1.0
 40
1.0
 10
280.0734703861685
 20
196.6850806548275
 30
0.0
 10
280.05588045152
 20
196.6753084689116
 30
0.0
 10
280.0197233636314
 20
196.6547868784884
 30
0.0
 10
280.0021334289829
 20
196.644037473981
 30
0.0
  0
SPLINE
  5
11F01
330
1F
100
AcDbEntity
  8
AM_0
100
AcDbSpline
210
0.0
220
0.0
230
1.0
 70
     8
 71
     3
 72
     8
 73
     4
 74
     0
 42
0.0000000001
 43
0.0000000001
 40
0.0
 40
0.0
 40
0.0
 40
0.0
 40
1.0
 40
1.0
 40
1.0
 40
1.0
 10
289.5661717848127
 20
155.2158325023814
 30
0.0
 10
295.5760661230524
 20
162.437477894185
 30
0.0
 10
295.5760661230524
 20
173.9950421768454
 30
0.0
 10
289.5661717848127
 20
181.2157103500574
 30
0.0
  0
POLYLINE
  5
11F02
330
1F
100
AcDbEntity
  8
AM_0
100
AcDb2dPolyline
 66
     1
 10
0.0
 20
0.0
 30
0.0
  0
VERTEX
  5
11F03
330
11F02
100
AcDbEntity
  8
AM_0
100
AcDbVertex
100
AcDb2dVertex
 10
289.0736536146545
 20
155.2158325023814
 30
0.0
  0
VERTEX
  5
11F04
330
11F02
100
AcDbEntity
  8
AM_0
100
AcDbVertex
100
AcDb2dVertex
 10
289.0736536146545
 20
150.2163821878391
 30
0.0
  0
SEQEND
  5
11F05
330
11F02
100
AcDbEntity
  8
AM_0
  0
POLYLINE
  5
11F06
330
1F
100
AcDbEntity
  8
AM_0
100
AcDb2dPolyline
 66
     1
 10
0.0
 20
0.0
 30
0.0
  0
VERTEX
  5
11F07
330
11F06
100
AcDbEntity
  8
AM_0
100
AcDbVertex
100
AcDb2dVertex
 10
286.9306132433114
 20
187.7161684212722
 30
0.0
  0
VERTEX
  5
11F08
330
11F06
100
AcDbEntity
  8
AM_0
100
AcDbVertex
100
AcDb2dVertex
 10
286.9306132433114
 20
196.644037473981
 30
0.0
  0
SEQEND
  5
11F09
330
11F06
100
AcDbEntity
  8
AM_0
  0
POLYLINE
  5
11F0A
330
1F
100
AcDbEntity
  8
AM_0
100
AcDb2dPolyline
 66
     1
 10
0.0
 20
0.0
 30
0.0
  0
VERTEX
  5
11F0B
330
11F0A
100
AcDbEntity
  8
AM_0
100
AcDbVertex
100
AcDb2dVertex
 10
289.0736536146545
 20
187.2158325023814
 30
0.0
  0
VERTEX
  5
11F0C
330
11F0A
100
AcDbEntity
  8
AM_0
100
AcDbVertex
100
AcDb2dVertex
 10
289.0736536146545
 20
181.7160462689483
 30
0.0
  0
SEQEND
  5
11F0D
330
11F0A
100
AcDbEntity
  8
AM_0
  0
POLYLINE
  5
11F0E
330
1F
100
AcDbEntity
  8
AM_0
100
AcDb2dPolyline
 66
     1
 10
0.0
 20
0.0
 30
0.0
  0
VERTEX
  5
11F0F
330
11F0E
100
AcDbEntity
  8
AM_0
100
AcDbVertex
100
AcDb2dVertex
 10
289.0736536146545
 20
187.2158325023814
 30
0.0
  0
VERTEX
  5
11F10
330
11F0E
100
AcDbEntity
  8
AM_0
100
AcDbVertex
100
AcDb2dVertex
 10
288.5742949143552
 20
187.7161684212722
 30
0.0
  0
SEQEND
  5
11F11
330
11F0E
100
AcDbEntity
  8
AM_0
  0
SPLINE
  5
11F16
330
1F
100
AcDbEntity
  8
AM_0
100
AcDbSpline
210
0.0
220
0.0
230
1.0
 70
     8
 71
     3
 72
    20
 73
    16
 74
     0
 42
0.0000000001
 43
0.0000000001
 40
0.0
 40
0.0
 40
0.0
 40
0.0
 40
1.0
 40
1.0
 40
1.0
 40
2.0
 40
2.0
 40
2.0
 40
3.0
 40
3.0
 40
3.0
 40
4.0
 40
4.0
 40
4.0
 40
5.0
 40
5.0
 40
5.0
 40
5.0
 10
280.0734703861685
 20
251.7161684212723
 30
0.0
 10
280.0734703861685
 20
255.5820451695774
 30
0.0
 10
276.9395303629597
 20
258.7159851927863
 30
0.0
 10
273.0736536146545
 20
258.7159851927863
 30
0.0
 10
273.0736536146545
 20
258.7159851927863
 30
0.0
 10
273.0736536146545
 20
258.7159851927863
 30
0.0
 10
273.0736536146545
 20
258.7159851927863
 30
0.0
 10
269.2077768663494
 20
258.7159851927863
 30
0.0
 10
266.0738368431404
 20
255.5820451695774
 30
0.0
 10
266.0738368431404
 20
251.7161684212723
 30
0.0
 10
266.0738368431404
 20
251.7161684212723
 30
0.0
 10
266.0738368431404
 20
251.7161684212723
 30
0.0
 10
266.0738368431404
 20
251.7161684212723
 30
0.0
 10
266.0738368431404
 20
251.7161684212723
 30
0.0
 10
266.0738368431404
 20
251.7161684212723
 30
0.0
 10
266.0738368431404
 20
251.7161684212723
 30
0.0
  0
LINE
  5
11F17
330
1F
100
AcDbEntity
  8
AM_7
100
AcDbLine
 10
164.4719519529649
 20
261.7180007061315
 30
0.0
 11
164.4719519529649
 21
119.714458288737
 31
0.0
1001
GENIUS_GENOBJ-N-CEN_13
1002
{
1000
OWNER
1000
GEN
1002
}
1001
GENIUS_GENODEF_13
1002
{
1000
HIER
1070
     0
1002
}
1002
{
1000
MANEDIT
1070
     0
1002
}
1002
{
1000
NOSEL
1070
     0
1002
}
1002
{
1000
BEHIND
1070
     0
1002
}
1002
{
1000
OTHER
1070
     0
1002
}
1002
{
1000
REACTOR
1002
}
1001
GENIUS_GENCEN_19
1002
{
1040
3.0
1002
}
  0
LINE
  5
11F18
330
1F
100
AcDbEntity
  8
AM_7
100
AcDbLine
 10
121.9707609678065
 20
168.2157714262194
 30
0.0
 11
206.9741201567151
 21
168.2157714262194
 31
0.0
1001
GENIUS_GENODEF_13
1002
{
1000
HIER
1070
     0
1002
}
1002
{
1000
MANEDIT
1070
     0
1002
}
1002
{
1000
NOSEL
1070
     0
1002
}
1002
{
1000
BEHIND
1070
     0
1002
}
1002
{
1000
OTHER
1070
     0
1002
}
1002
{
1000
REACTOR
1002
}
1001
GENIUS_GENOBJ-N-CEN_13
1002
{
1000
OWNER
1000
GEN
1002
}
1001
GENIUS_GENCEN_19
1002
{
1040
3.0
1002
}
  0
LINE
  5
11F19
330
1F
100
AcDbEntity
  8
AM_7
100
AcDbLine
 10
249.0716991810269
 20
168.2157164101269
 30
0.0
 11
297.0756080476385
 21
168.2165961482486
 31
0.0
1001
GENIUS_GENOBJ-N-CEN_13
1002
{
1000
OWNER
1000
GEN
1002
}
1001
GENIUS_GENODEF_13
1002
{
1000
HIER
1070
     0
1002
}
1002
{
1000
MANEDIT
1070
     0
1002
}
1002
{
1000
NOSEL
1070
     0
1002
}
1002
{
1000
BEHIND
1070
     0
1002
}
1002
{
1000
OTHER
1070
     0
1002
}
1002
{
1000
REACTOR
1002
}
1001
GENIUS_GENCEN_19
1002
{
1040
3.0
1002
}
  0
LINE
  5
11F1A
330
1F
100
AcDbEntity
  8
AM_7
100
AcDbLine
 10
273.0736536146545
 20
119.714458288737
 30
0.0
 11
273.0736536146545
 21
261.7180007061315
 31
0.0
1001
GENIUS_GENOBJ-N-CEN_13
1002
{
1000
OWNER
1000
GEN
1002
}
1001
GENIUS_GENODEF_13
1002
{
1000
HIER
1070
     0
1002
}
1002
{
1000
MANEDIT
1070
     0
1002
}
1002
{
1000
NOSEL
1070
     0
1002
}
1002
{
1000
BEHIND
1070
     0
1002
}
1002
{
1000
OTHER
1070
     0
1002
}
1002
{
1000
REACTOR
1002
}
1001
GENIUS_GENCEN_19
1002
{
1040
3.0
1002
}
  0
LINE
  5
11F1B
330
1F
100
AcDbEntity
  8
AM_7
100
AcDbLine
 10
263.0718213297953
 20
251.7161684212723
 30
0.0
 11
283.0754858995137
 21
251.7161684212723
 31
0.0
1001
GENIUS_GENOBJ-N-CEN_13
1002
{
1000
OWNER
1000
GEN
1002
}
1001
GENIUS_GENODEF_13
1002
{
1000
HIER
1070
     0
1002
}
1002
{
1000
MANEDIT
1070
     0
1002
}
1002
{
1000
NOSEL
1070
     0
1002
}
1002
{
1000
BEHIND
1070
     0
1002
}
1002
{
1000
OTHER
1070
     0
1002
}
1002
{
1000
REACTOR
1002
}
1001
GENIUS_GENCEN_19
1002
{
1040
3.0
1002
}
  0
DIMENSION
  5
11F74
330
1F
100
AcDbEntity
  8
AM_5
100
AcDbDimension
  2
*D1434
 10
172.4724405622609
 20
110.7164728020821
 30
0.0
 11
164.4724405622609
 21
113.8164728020821
 31
0.0
 70
    32
  1
M
 71
     5
 42
16.0
  3
SYS$0
100
AcDbAlignedDimension
 13
156.4724405622609
 23
124.2165043401631
 33
0.0
 14
172.4724405622609
 24
124.2165043401631
 34
0.0
 50
0.0000000000002036
100
AcDbRotatedDimension
1001
ACAD_DSTYLE_DIMINSPECT
1070
   396
1000
100%
1070
   395
1000

1070
   394
1070
    33
1070
   393
1070
     0
  0
DIMENSION
  5
11FA6
330
1F
100
AcDbEntity
  8
AM_5
100
AcDbDimension
  2
*D1435
 10
196.9722878718559
 20
280.7159851927863
 30
0.0
 11
164.4724405622608
 21
283.8159851927863
 31
0.0
 70
    32
  1
A
 71
     5
 42
64.99969461919011
  3
SYS$0
100
AcDbAlignedDimension
 13
131.9725932526657
 23
226.2156492738955
 33
0.0
 14
196.9722878718559
 24
226.2156492738955
 34
0.0
100
AcDbRotatedDimension
1001
ACAD_DSTYLE_DIMINSPECT
1070
   396
1000
100%
1070
   395
1000

1070
   394
1070
    33
1070
   393
1070
     0
  0
DIMENSION
  5
11FD7
330
1F
100
AcDbEntity
  8
AM_5
100
AcDbDimension
  2
*D1436
 10
182.9726543288277
 20
270.7159851927863
 30
0.0
 11
164.4724405622608
 21
273.8159851927863
 31
0.0
 70
    32
  1
B1
 71
     5
 42
37.00042753313379
  3
SYS$0
100
AcDbAlignedDimension
 13
145.9722267956939
 23
226.2156492738955
 33
0.0
 14
182.9726543288277
 24
226.2156492738955
 34
0.0
100
AcDbRotatedDimension
1001
ACAD_DSTYLE_DIMINSPECT
1070
   396
1000
100%
1070
   395
1000

1070
   394
1070
    33
1070
   393
1070
     0
  0
DIMENSION
  5
1202F
330
1F
100
AcDbEntity
  8
AM_5
100
AcDbDimension
  2
*D1437
 10
280.0734703861685
 20
270.7159851927862
 30
0.0
 11
273.0736536146545
 21
273.8159851927862
 31
0.0
 70
    32
  1
C
 71
     5
 42
13.99963354302815
  3
SYS$0
100
AcDbAlignedDimension
 13
266.0738368431404
 23
251.7161684212723
 33
0.0
 14
280.0734703861685
 24
251.7161684212722
 34
0.0
100
AcDbRotatedDimension
1001
ACAD_DSTYLE_DIMINSPECT
1070
   396
1000
100%
1070
   395
1000

1070
   394
1070
    33
1070
   393
1070
     0
  0
DIMENSION
  5
12060
330
1F
100
AcDbEntity
  8
AM_5
100
AcDbDimension
  2
*D1438
 10
294.0735925347975
 20
110.7164728020821
 30
0.0
 11
273.0736536143327
 21
113.8164728020821
 31
0.0
 70
    32
  1
D
 71
     5
 42
41.99987784092956
  3
SYS$0
100
AcDbAlignedDimension
 13
252.0737146938679
 23
168.2157714262194
 33
0.0
 14
294.0735925347975
 24
168.2165411321561
 34
0.0
 50
0.0000000000002036
100
AcDbRotatedDimension
1001
ACAD_DSTYLE_DIMINSPECT
1070
   396
1000
100%
1070
   395
1000

1070
   394
1070
    33
1070
   393
1070
     0
  0
DIMENSION
  5
12091
330
1F
100
AcDbEntity
  8
AM_5
100
AcDbDimension
  2
*D1439
 10
215.97210464337
 20
122.7164738020821
 30
0.0
 11
212.87210464337
 21
136.4664279949606
 31
0.0
 70
    32
  1
L
 71
     5
 42
27.499908385757
  3
SYS$0
100
AcDbAlignedDimension
 13
180.4719519529651
 23
150.2163821878391
 33
0.0
 14
170.9724100241799
 24
122.7164738020821
 34
0.0
 50
90.0
100
AcDbRotatedDimension
1001
ACAD_DSTYLE_DIMINSPECT
1070
   396
1000
100%
1070
   395
1000

1070
   394
1070
    33
1070
   393
1070
     0
  0
DIMENSION
  5
120C2
330
1F
100
AcDbEntity
  8
AM_5
100
AcDbDimension
  2
*D1440
 10
215.9721046433701
 20
197.7160462689481
 30
0.0
 11
212.8721046433701
 21
173.9662142283938
 31
0.0
 70
    32
  1
H2
 71
     5
 42
47.49966408110915
  3
SYS$0
100
AcDbAlignedDimension
 13
180.4719519529651
 23
150.2163821878391
 33
0.0
 14
176.4721962576129
 24
197.7160462689483
 34
0.0
 50
90.0
100
AcDbRotatedDimension
1001
ACAD_DSTYLE_DIMINSPECT
1070
   396
1000
100%
1070
   395
1000

1070
   394
1070
    33
1070
   393
1070
     0
  0
DIMENSION
  5
12112
330
1F
100
AcDbEntity
  8
AM_5
100
AcDbDimension
  2
*D1441
 10
215.97210464337
 20
244.7153744311666
 30
0.0
 11
212.87210464337
 21
221.2157103500575
 31
0.0
 70
    32
  1
B2
 71
     5
 42
46.99932816221828
  3
SYS$0
100
AcDbAlignedDimension
 13
176.4721962576129
 23
197.7160462689483
 33
0.0
 14
164.4719519529649
 24
244.7153744311666
 34
0.0
 50
90.0
100
AcDbRotatedDimension
1001
ACAD_DSTYLE_DIMINSPECT
1070
   396
1000
100%
1070
   395
1000

1070
   394
1070
    33
1070
   393
1070
     0
  0
DIMENSION
  5
12143
330
1F
100
AcDbEntity
  8
AM_5
100
AcDbDimension
  2
*D1442
 10
225.97210464337
 20
258.7159851927863
 30
0.0
 11
222.87210464337
 21
204.4661836903128
 31
0.0
 70
    32
  1
H1
 71
     5
 42
108.4996030049472
  3
SYS$0
100
AcDbAlignedDimension
 13
180.4719519529651
 23
150.2163821878391
 33
0.0
 14
164.4719519529649
 24
258.7159851927863
 34
0.0
 50
90.0
100
AcDbRotatedDimension
1001
ACAD_DSTYLE_DIMINSPECT
1070
   396
1000
100%
1070
   395
1000

1070
   394
1070
    33
1070
   393
1070
     0
  0
DIMENSION
  5
1217D
330
1F
100
AcDbEntity
  8
AM_5
100
AcDbDimension
  2
*D1443
 10
180.4719519529651
 20
100.716472802082
 30
0.0
 11
164.4719519529649
 21
103.816472802082
 31
0.0
 70
    32
  1
E
 71
     5
 42
32.00000000000009
  3
SYS$0
100
AcDbAlignedDimension
 13
148.471951952965
 23
150.2163821878391
 33
0.0
 14
180.4719519529651
 24
150.2163821878391
 34
0.0
 50
0.0000000000002036
100
AcDbRotatedDimension
1001
ACAD_DSTYLE_DIMINSPECT
1070
   396
1000
100%
1070
   395
1000

1070
   394
1070
    33
1070
   393
1070
     0
  0
DIMENSION
  5
121AE
330
1F
100
AcDbEntity
  8
AM_5
100
AcDbDimension
  2
*D1444
 10
203.97210464337
 20
90.71647280208187
 30
0.0
 11
164.4724405622608
 21
93.81647280208188
 31
0.0
 70
    32
  1
W
 71
     5
 42
78.99932816221832
  3
SYS$0
100
AcDbAlignedDimension
 13
124.9727764811517
 23
165.7404767337379
 33
0.0
 14
203.97210464337
 24
165.7404767337379
 34
0.0
 50
0.0000000000002036
100
AcDbRotatedDimension
1001
ACAD_DSTYLE_DIMINSPECT
1070
   396
1000
100%
1070
   395
1000

1070
   394
1070
    33
1070
   393
1070
     0
  0
MTEXT
  5
124CD
330
1F
100
AcDbEntity
  8
AM_6
100
AcDbMText
 10
59.0
 20
75.0
 30
0.0
 40
3.2
 41
39.0
 71
     5
 72
     5
  1
0.3（2.94）
 73
     1
 44
1.0
1001
ACAD
1000
MTEXTBEGIN
1070
    73
1070
     1
1070
    44
1040
1.0
1070
    74
1070
     0
1000
MTEXTEND
  0
MTEXT
  5
124CE
330
1F
100
AcDbEntity
  8
AM_6
100
AcDbMText
 10
59.0
 20
61.0
 30
0.0
 40
3.2
 41
39.0
 71
     5
 72
     5
  1
0.8（7.85）
 73
     1
 44
1.0
1001
ACAD
1000
MTEXTBEGIN
1070
    73
1070
     1
1070
    44
1040
1.0
1070
    74
1070
     0
1000
MTEXTEND
  0
MTEXT
  5
124CF
330
1F
100
AcDbEntity
  8
AM_6
100
AcDbMText
 10
59.0
 20
54.0
 30
0.0
 40
3.2
 41
39.0
 71
     5
 72
     5
  1
1.6（15.69）
 73
     1
 44
1.0
1001
ACAD
1000
MTEXTBEGIN
1070
    73
1070
     1
1070
    44
1040
1.0
1070
    74
1070
     0
1000
MTEXTEND
  0
MTEXT
  5
124D0
330
1F
100
AcDbEntity
  8
AM_6
100
AcDbMText
 10
59.0
 20
47.0
 30
0.0
 40
3.2
 41
39.0
 71
     5
 72
     5
  1
2.5（24.52）
 73
     1
 44
1.0
1001
ACAD
1000
MTEXTBEGIN
1070
    73
1070
     1
1070
    44
1040
1.0
1070
    74
1070
     0
1000
MTEXTEND
  0
MTEXT
  5
124D1
330
1F
100
AcDbEntity
  8
AM_6
100
AcDbMText
 10
59.0
 20
40.00000000000006
 30
0.0
 40
3.2
 41
39.0
 71
     5
 72
     5
  1
3.6（35.30）
 73
     1
 44
1.0
1001
ACAD
1000
MTEXTBEGIN
1070
    73
1070
     1
1070
    44
1040
1.0
1070
    74
1070
     0
1000
MTEXTEND
  0
MTEXT
  5
124D2
330
1F
100
AcDbEntity
  8
AM_6
100
AcDbMText
 10
59.0
 20
33.00000000000006
 30
0.0
 40
3.2
 41
39.0
 71
     5
 72
     5
  1
5.8（56.87）
 73
     1
 44
1.0
1001
ACAD
1000
MTEXTBEGIN
1070
    73
1070
     1
1070
    44
1040
1.0
1070
    74
1070
     0
1000
MTEXTEND
  0
MTEXT
  5
124D3
330
1F
100
AcDbEntity
  8
AM_6
100
AcDbMText
 10
59.0
 20
26.00000000000006
 30
0.0
 40
3.2
 41
39.0
 71
     5
 72
     5
  1
8.0（78.45）
 73
     1
 44
1.0
1001
ACAD
1000
MTEXTBEGIN
1070
    73
1070
     1
1070
    44
1040
1.0
1070
    74
1070
     0
1000
MTEXTEND
  0
MTEXT
  5
124D4
330
1F
100
AcDbEntity
  8
AM_6
100
AcDbMText
 10
59.0
 20
19.00000000000005
 30
0.0
 40
3.2
 41
39.0
 71
     5
 72
     5
  1
10.0（98.06）
 73
     1
 44
1.0
1001
ACAD
1000
MTEXTBEGIN
1070
    73
1070
     1
1070
    44
1040
1.0
1070
    74
1070
     0
1000
MTEXTEND
  0
MTEXT
  5
124D5
330
1F
100
AcDbEntity
  8
AM_6
100
AcDbMText
 10
59.0
 20
12.00000000000005
 30
0.0
 40
3.2
 41
39.0
 71
     5
 72
     5
  1
15.0（147.00）
 73
     1
 44
1.0
1001
ACAD
1000
MTEXTBEGIN
1070
    73
1070
     1
1070
    44
1040
1.0
1070
    74
1070
     0
1000
MTEXTEND
  0
LINE
  5
124D6
330
1F
100
AcDbEntity
  8
AM_4
100
AcDbLine
 10
78.5
 20
85.49999999999995
 30
0.0
 11
78.5
 21
8.5
 31
0.0
  0
MTEXT
  5
124D7
330
1F
100
AcDbEntity
  8
AM_6
100
AcDbMText
 10
59.0
 20
68.0
 30
0.0
 40
3.2
 41
39.0
 71
     5
 72
     5
  1
0.5（4.90）
 73
     1
 44
1.0
1001
ACAD
1000
MTEXTBEGIN
1070
    73
1070
     1
1070
    44
1040
1.0
1070
    74
1070
     0
1000
MTEXTEND
  0
MTEXT
  5
124D8
330
1F
100
AcDbEntity
  8
AM_6
100
AcDbMText
 10
58.99999999999999
 20
82.0
 30
0.0
 40
3.2
 41
39.00000000000002
 71
     5
 72
     5
  1
使用荷重　Ton（kN）
 73
     1
 44
1.0
1001
ACAD
1000
MTEXTBEGIN
1070
    73
1070
     1
1070
    44
1040
1.0
1070
    74
1070
     0
1000
MTEXTEND
  0
LINE
  5
12738
330
1F
100
AcDbEntity
  8
AM_2
100
AcDbLine
 10
11.50000066134181
 20
260.5000000000002
 30
0.0
 11
91.38876471673729
 21
260.5000000000002
 31
0.0
  0
MTEXT
  5
12739
330
1F
100
AcDbEntity
  8
AM_6
100
AcDbMText
 10
23.00000066134181
 20
257.0000000000002
 30
0.0
 40
3.2
 41
23.00000000000001
 71
     5
 72
     5
  1
備　考
 73
     1
 44
1.0
1001
ACAD
1000
MTEXTBEGIN
1070
    73
1070
     1
1070
    44
1040
1.0
1070
    74
1070
     0
1000
MTEXTEND
1000
ACAD_MTEXT_DEFINED_HEIGHT_BEGIN
1070
    46
1040
7.762029914680923
1000
ACAD_MTEXT_DEFINED_HEIGHT_END
  0
LINE
  5
12787
330
1F
100
AcDbEntity
  8
AM_2
100
AcDbLine
 10
11.50000039680511
 20
274.5
 30
0.0
 11
91.38876445220059
 21
274.5
 31
0.0
  0
MTEXT
  5
12788
330
1F
100
AcDbEntity
  8
AM_6
100
AcDbMText
 10
23.00000039680512
 20
271.0
 30
0.0
 40
3.2
 41
23.00000000000001
 71
     5
 72
     5
  1
材　質
 73
     1
 44
1.0
1001
ACAD
1000
MTEXTBEGIN
1070
    73
1070
     1
1070
    44
1040
1.0
1070
    74
1070
     0
1000
MTEXTEND
1000
ACAD_MTEXT_DEFINED_HEIGHT_BEGIN
1070
    46
1040
7.762029914680923
1000
ACAD_MTEXT_DEFINED_HEIGHT_END
  0
LINE
  5
1278A
330
1F
100
AcDbEntity
  8
AM_2
100
AcDbLine
 10
11.50000079361022
 20
267.5
 30
0.0
 11
91.38876484900572
 21
267.5
 31
0.0
  0
MTEXT
  5
1278B
330
1F
100
AcDbEntity
  8
AM_6
100
AcDbMText
 10
23.00000079361022
 20
264.0
 30
0.0
 40
3.2
 41
23.00000000000001
 71
     5
 72
     5
  1
仕　上
 73
     1
 44
1.0
1001
ACAD
1000
MTEXTBEGIN
1070
    73
1070
     1
1070
    44
1040
1.0
1070
    74
1070
     0
1000
MTEXTEND
1000
ACAD_MTEXT_DEFINED_HEIGHT_BEGIN
1070
    46
1040
7.762029914680923
1000
ACAD_MTEXT_DEFINED_HEIGHT_END
  0
TEXT
  5
1278D
330
1F
100
AcDbEntity
  8
AM_6
100
AcDbText
 10
34.50000000000004
 20
283.4000000000001
 30
0.0
 40
3.2
  1
　マルチアイボルト
 41
0.7
100
AcDbText
1001
ACAD
1000
ACAD_MTEXT_DEFINED_HEIGHT_BEGIN
1070
    46
1040
7.000000000000011
1000
ACAD_MTEXT_DEFINED_HEIGHT_END
  0
TEXT
  5
1278F
330
1F
100
AcDbEntity
  8
AM_6
100
AcDbText
 10
34.50000079361023
 20
262.5129999705681
 30
0.0
 40
3.2
  1
　焼付塗装
 41
0.7
100
AcDbText
1001
ACAD
1000
ACAD_MTEXT_DEFINED_HEIGHT_BEGIN
1070
    46
1040
5.200000000000001
1000
ACAD_MTEXT_DEFINED_HEIGHT_END
  0
TEXT
  5
12790
330
1F
100
AcDbEntity
  8
AM_6
100
AcDbText
 10
34.50000039680512
 20
269.5129999705681
 30
0.0
 40
3.2
  1
　スチール
 41
0.7
100
AcDbText
1001
ACAD
1000
ACAD_MTEXT_DEFINED_HEIGHT_BEGIN
1070
    46
1040
5.200000000000001
1000
ACAD_MTEXT_DEFINED_HEIGHT_END
  0
TEXT
  5
12791
330
1F
100
AcDbEntity
  8
AM_6
100
AcDbText
 10
34.50000000000004
 20
276.512999970568
 30
0.0
 40
3.2
  1
　表参照
 41
0.7
100
AcDbText
1001
ACAD
1000
ACAD_MTEXT_DEFINED_HEIGHT_BEGIN
1070
    46
1040
5.200000000000001
1000
ACAD_MTEXT_DEFINED_HEIGHT_END
  0
ENDSEC
  0
SECTION
  2
OBJECTS
  0
DICTIONARY
  5
C
330
0
100
AcDbDictionary
281
     1
  3
ACAD_2007HEADERVARS_RT
350
12C46
  3
ACAD_BGPLOT_KEY
350
AB06
  3
ACAD_COLOR
350
A91D
  3
ACAD_GROUP
350
D
  3
ACAD_LAYOUT
350
1A
  3
ACAD_MATERIAL
350
A91C
  3
ACAD_MLEADERSTYLE
350
B595
  3
ACAD_MLINESTYLE
350
17
  3
ACAD_PLOTSETTINGS
350
19
  3
ACAD_PLOTSTYLENAME
350
E
  3
ACAD_SCALELIST
350
B573
  3
ACAD_TABLESTYLE
350
AAB9
  3
ACAD_VISUALSTYLE
350
B0F1
  3
AcAsAppObject
350
3DA1
  3
ACASGREF_MASTER
350
3DE9
  3
ACDB_RECOMPOSE_DATA
350
B5B7
  3
AcDbVariableDictionary
350
34
  3
AcmDictionary
350
47
  3
AD_GREF_MODULE
350
3DEA
  3
AD_MAPI_MODULE
350
3E06
  3
AMG
350
2B
  3
AMGSNAPSETTINGS
350
7D
  3
ASE_INDEX_DICTIONARY
350
103C5
  3
DWGPROPS
350
12C45
  3
MAPISURF_MODULE
350
3DEB
  0
DICTIONARY
  5
3F95
330
2
100
AcDbDictionary
280
     1
281
     1
  3
ACAD_LAYERFILTERS
360
B4F7
  3
ACAD_LAYERSTATES
360
3F96
  3
ACLYDICTIONARY
360
B4F6
  3
AMLAYER_GROUPCOLORS
360
AAB4
  0
DICTIONARY
  5
12546
330
10
100
AcDbDictionary
280
     1
281
     1
  3
ADSK_XREC_LAYER_RECONCILED
360
12547
  0
DICTIONARY
  5
12548
330
5F85
100
AcDbDictionary
280
     1
281
     1
  3
ADSK_XREC_LAYER_RECONCILED
360
12549
  0
DICTIONARY
  5
1254A
330
AC9F
100
AcDbDictionary
280
     1
281
     1
  3
ADSK_XREC_LAYER_RECONCILED
360
1254B
  0
DICTIONARY
  5
1254C
330
ACA0
100
AcDbDictionary
280
     1
281
     1
  3
ADSK_XREC_LAYER_RECONCILED
360
1254D
  0
DICTIONARY
  5
1254E
330
ACA1
100
AcDbDictionary
280
     1
281
     1
  3
ADSK_XREC_LAYER_RECONCILED
360
1254F
  0
DICTIONARY
  5
12558
330
AD64
100
AcDbDictionary
280
     1
281
     1
  3
ADSK_XREC_LAYER_RECONCILED
360
12559
  0
DICTIONARY
  5
1255C
330
AD68
100
AcDbDictionary
280
     1
281
     1
  3
ADSK_XREC_LAYER_RECONCILED
360
1255D
  0
DICTIONARY
  5
1255E
330
AD69
100
AcDbDictionary
280
     1
281
     1
  3
ADSK_XREC_LAYER_RECONCILED
360
1255F
  0
DICTIONARY
  5
1256E
330
C2B3
100
AcDbDictionary
280
     1
281
     1
  3
ADSK_XREC_LAYER_RECONCILED
360
1256F
  0
DICTIONARY
  5
12570
330
107CC
100
AcDbDictionary
280
     1
281
     1
  3
ADSK_XREC_LAYER_RECONCILED
360
12571
  0
DICTIONARY
  5
8A
330
1F
100
AcDbDictionary
280
     1
281
     1
  3
ACAD_SORTENTS
360
B1BA
  0
DICTIONARY
  5
12C46
102
{ACAD_REACTORS
330
C
102
}
330
C
100
AcDbDictionary
281
     1
  3
DIMARCSYM
350
12C47
  0
DICTIONARY
  5
AB06
102
{ACAD_REACTORS
330
C
102
}
330
C
100
AcDbDictionary
280
     1
281
     1
  0
DICTIONARY
  5
A91D
102
{ACAD_REACTORS
330
C
102
}
330
C
100
AcDbDictionary
281
     1
  0
DICTIONARY
  5
D
102
{ACAD_REACTORS
330
C
102
}
330
C
100
AcDbDictionary
281
     1
  0
DICTIONARY
  5
1A
102
{ACAD_REACTORS
330
C
102
}
330
C
100
AcDbDictionary
281
     1
  3
Model
350
22
  3
ﾚｲｱｳﾄ1
350
1E
  3
ﾚｲｱｳﾄ2
350
26
  0
DICTIONARY
  5
A91C
102
{ACAD_REACTORS
330
C
102
}
330
C
100
AcDbDictionary
281
     1
  3
ByBlock
350
B0EF
  3
ByLayer
350
B0EE
  3
Global
350
B0F0
  0
DICTIONARY
  5
B595
102
{ACAD_REACTORS
330
C
102
}
330
C
100
AcDbDictionary
281
     1
  3
Standard
350
B596
  0
DICTIONARY
  5
17
102
{ACAD_REACTORS
330
C
102
}
330
C
100
AcDbDictionary
281
     1
  3
Standard
350
18
  0
DICTIONARY
  5
19
102
{ACAD_REACTORS
330
C
102
}
330
C
100
AcDbDictionary
281
     1
  0
ACDBDICTIONARYWDFLT
  5
E
102
{ACAD_REACTORS
330
C
102
}
330
C
100
AcDbDictionary
281
     1
  3
Normal
350
F
100
AcDbDictionaryWithDefault
340
F
  0
DICTIONARY
  5
B573
102
{ACAD_REACTORS
330
C
102
}
330
C
100
AcDbDictionary
281
     1
  3
A0
350
B574
  3
A1
350
B575
  3
A2
350
B576
  3
A3
350
B577
  3
A4
350
B578
  3
A5
350
B579
  3
A6
350
B57A
  3
A7
350
B57B
  3
A8
350
B57C
  3
A9
350
B57D
  3
B0
350
B57E
  3
B1
350
B57F
  3
B2
350
B580
  3
B3
350
B581
  3
B4
350
B582
  3
B5
350
B583
  3
B6
350
B584
  3
B7
350
B585
  3
B8
350
B586
  3
B9
350
B587
  3
C0
350
B588
  3
C1
350
B589
  3
C2
350
B58A
  3
C3
350
B58B
  3
C4
350
B58C
  3
C5
350
B58D
  3
C6
350
B58E
  3
C7
350
B58F
  3
C8
350
B590
  3
C9
350
B591
  3
D0
350
B592
  3
D1
350
B593
  3
D2
350
B594
  0
DICTIONARY
  5
AAB9
102
{ACAD_REACTORS
330
C
102
}
330
C
100
AcDbDictionary
281
     1
  3
Standard
350
AABA
  0
DICTIONARY
  5
B0F1
102
{ACAD_REACTORS
330
C
102
}
330
C
100
AcDbDictionary
281
     1
  3
2dWireframe
350
B0F7
  3
3D Hidden
350
B0F9
  3
3dWireframe
350
B0F8
  3
Basic
350
B0F6
  3
Brighten
350
B0FD
  3
ColorChange
350
B101
  3
Conceptual
350
B0FA
  3
Dim
350
B0FC
  3
Facepattern
350
B100
  3
Flat
350
B0F2
  3
FlatWithEdges
350
B0F3
  3
Gouraud
350
B0F4
  3
GouraudWithEdges
350
B0F5
  3
Linepattern
350
B0FF
  3
Realistic
350
B0FB
  3
Thicken
350
B0FE
  0
ACAD_PROXY_OBJECT
  5
3DA1
102
{ACAD_REACTORS
330
C
102
}
330
C
100
AcDbProxyObject
 90
      499
 91
      576
 95
   917527
 70
     0
 93
       10
310
407F
 94
        0
1001
ACAD
1000
AcRTDxfName
1000
ASAPP
1000
AcRTDxfName
1000
ASAPP
1000
AcRTDxfName
1000
ASAPP
1000
AcRTDxfName
1000
ASAPP
  0
ACAD_PROXY_OBJECT
  5
3DE9
102
{ACAD_REACTORS
330
C
102
}
330
C
100
AcDbProxyObject
 90
      499
 91
      581
 95
   917527
 70
     0
 93
       34
310
010000407F
 94
        0
1001
ACAD
1000
AcRTDxfName
1000
ACASGREFMASTER
1000
AcRTDxfName
1000
ACASGREFMASTER
1000
AcRTDxfName
1000
ACASGREFMASTER
1000
AcRTDxfName
1000
ACASGREFMASTER
  0
XRECORD
  5
B5B7
102
{ACAD_REACTORS
330
C
102
}
330
C
100
AcDbXrecord
280
     1
 90
        1
330
AABA
  0
DICTIONARY
  5
34
102
{ACAD_REACTORS
330
C
102
}
330
C
100
AcDbDictionary
281
     1
  3
CANNOSCALE
350
B5BA
  3
CMLEADERSTYLE
350
B5B8
  3
CTABLESTYLE
350
AAF3
  3
DIMASSOC
350
A10C
  3
FIELDEVAL
350
AB07
  3
INDEXCTL
350
35
  3
LIGHTINGUNITS
350
B5BB
  3
MSLTSCALE
350
B5B9
  3
SORTENTS
350
194C
  0
DICTIONARY
  5
47
102
{ACAD_REACTORS
330
C
102
}
330
C
100
AcDbDictionary
281
     1
  3
AcmBOM
350
7E8
  3
AcmStdDictionary
350
4C
  3
AMDTSECTSYM_ARROWCOLOR
350
A929
  0
ACAD_PROXY_OBJECT
  5
3DEA
102
{ACAD_REACTORS
330
C
102
}
330
C
100
AcDbProxyObject
 90
      499
 91
      582
 95
   917527
 70
     0
 93
      114
310
00000043800000000000000000003F
 94
        0
1001
ACAD
1000
AcRTDxfName
1000
ACADGREFMODULE
1000
AcRTDxfName
1000
ACADGREFMODULE
1000
AcRTDxfName
1000
ACADGREFMODULE
1000
AcRTDxfName
1000
ACADGREFMODULE
  0
ACAD_PROXY_OBJECT
  5
3E06
102
{ACAD_REACTORS
330
C
102
}
330
C
100
AcDbProxyObject
 90
      499
 91
      594
 95
   917527
 70
     0
 93
       34
310
05000044FF
 94
        0
1001
ACAD
1000
AcRTDxfName
1000
MAPIADMODULE
1000
AcRTDxfName
1000
MAPIADMODULE
1000
AcRTDxfName
1000
MAPIADMODULE
1000
AcRTDxfName
1000
MAPIADMODULE
  0
DICTIONARY
  5
2B
102
{ACAD_REACTORS
330
C
102
}
330
C
100
AcDbDictionary
281
     1
  0
DICTIONARY
  5
7D
102
{ACAD_REACTORS
330
C
102
}
330
C
100
AcDbDictionary
281
     1
  0
DICTIONARY
  5
103C5
102
{ACAD_REACTORS
330
C
102
}
330
C
100
AcDbDictionary
281
     1
  3
ASEBlockHierarchyIndexRecord
350
103C6
1001
DCO15
1040
1751282870.14
  0
XRECORD
  5
12C45
102
{ACAD_REACTORS
330
C
102
}
330
C
100
AcDbXrecord
280
     1
  1
DWGPROPS COOKIE
  2

  3

  4

  6

  7

  8
Administrator
  9

300
AmdtFileType=84
301
=
302
=
303
=
304
=
305
=
306
=
307
=
308
=
309
=
 40
0.0761264814814815
 41
2456066.693646007
 42
2456314.562054028
  1

 90
        1
  0
ACAD_PROXY_OBJECT
  5
3DEB
102
{ACAD_REACTORS
330
C
102
}
330
C
100
AcDbProxyObject
 90
      499
 91
      583
 95
   917527
 70
     0
 93
        8
310
047E
 94
        0
1001
ACAD
1000
AcRTDxfName
1000
AMDTMAPISURFMOUDULE
1000
AcRTDxfName
1000
AMDTMAPISURFMOUDULE
1000
AcRTDxfName
1000
AMDTMAPISURFMOUDULE
1000
AcRTDxfName
1000
AMDTMAPISURFMOUDULE
  0
DICTIONARY
  5
B4F7
102
{ACAD_REACTORS
330
3F95
102
}
330
3F95
100
AcDbDictionary
281
     1
  0
DICTIONARY
  5
3F96
102
{ACAD_REACTORS
330
3F95
102
}
330
3F95
100
AcDbDictionary
281
     1
  3
20011210
350
3FB7
  0
DICTIONARY
  5
B4F6
102
{ACAD_REACTORS
330
3F95
102
}
330
3F95
100
AcDbDictionary
281
     1
1001
ACAD
1000
<All
  0
DICTIONARY
  5
AAB4
102
{ACAD_REACTORS
330
3F95
102
}
330
3F95
100
AcDbDictionary
280
     1
281
     1
  0
XRECORD
  5
12547
102
{ACAD_REACTORS
330
12546
102
}
330
12546
100
AcDbXrecord
280
     1
290
     1
  0
XRECORD
  5
12549
102
{ACAD_REACTORS
330
12548
102
}
330
12548
100
AcDbXrecord
280
     1
290
     1
  0
XRECORD
  5
1254B
102
{ACAD_REACTORS
330
1254A
102
}
330
1254A
100
AcDbXrecord
280
     1
290
     1
  0
XRECORD
  5
1254D
102
{ACAD_REACTORS
330
1254C
102
}
330
1254C
100
AcDbXrecord
280
     1
290
     1
  0
XRECORD
  5
1254F
102
{ACAD_REACTORS
330
1254E
102
}
330
1254E
100
AcDbXrecord
280
     1
290
     1
  0
XRECORD
  5
12559
102
{ACAD_REACTORS
330
12558
102
}
330
12558
100
AcDbXrecord
280
     1
290
     1
  0
XRECORD
  5
1255D
102
{ACAD_REACTORS
330
1255C
102
}
330
1255C
100
AcDbXrecord
280
     1
290
     1
  0
XRECORD
  5
1255F
102
{ACAD_REACTORS
330
1255E
102
}
330
1255E
100
AcDbXrecord
280
     1
290
     1
  0
XRECORD
  5
1256F
102
{ACAD_REACTORS
330
1256E
102
}
330
1256E
100
AcDbXrecord
280
     1
290
     1
  0
XRECORD
  5
12571
102
{ACAD_REACTORS
330
12570
102
}
330
12570
100
AcDbXrecord
280
     1
290
     1
  0
SORTENTSTABLE
  5
B1BA
102
{ACAD_REACTORS
330
8A
102
}
330
8A
100
AcDbSortentsTable
330
1F
331
1087B
  5
10891
331
11D80
  5
11DCA
331
11E35
  5
11E98
331
108C2
  5
10DDE
331
10EC9
  5
10EC9
331
10883
  5
108A5
331
11D88
  5
11E3F
331
11D90
  5
11E31
331
1088B
  5
108B3
331
10ED1
  5
10EE5
331
10893
  5
108C2
331
10DD2
  5
B84A
331
11DD7
  5
11EAD
331
11E16
  5
11C67
331
11E4D
  5
11EA1
331
10805
  5
10825
331
10844
  5
1085E
331
1080D
  5
10834
331
1084C
  5
10863
331
10854
  5
1086A
331
1085C
  5
10873
331
12143
  5
121AE
331
11EAD
  5
11D69
331
11EB5
  5
11E4C
331
11EBD
  5
11EC5
331
11EFC
  5
11D5E
331
1278B
  5
12790
331
11EC5
  5
11D0A
331
12060
  5
120C2
331
10EE9
  5
10EEB
331
11DA0
  5
11EB5
331
10DDA
  5
B852
331
10EF1
  5
10EF3
331
11E1E
  5
11C63
331
108AB
  5
10DD1
331
10EF9
  5
10EFC
331
108B3
  5
10DD7
331
11E6D
  5
11D72
331
10825
  5
10843
331
10864
  5
1087B
331
124CE
  5
124D0
331
1086C
  5
10883
331
10874
  5
1088A
331
124D6
  5
124D8
331
10835
  5
10850
331
1083D
  5
10858
331
11ECD
  5
11D63
331
11ED5
  5
11D61
331
11EDD
  5
11DD9
331
11EE5
  5
11DE9
331
1087C
  5
10893
331
10ECA
  5
10ECA
331
11E36
  5
11EE1
331
10884
  5
108A8
331
108C3
  5
10DDF
331
11E7D
  5
11D5B
331
1095B
  5
10824
331
1088C
  5
108B6
331
11E3E
  5
11F0E
331
10DD3
  5
B84B
331
11E85
  5
11D64
331
10894
  5
108C3
331
11E4E
  5
11C60
331
11E8D
  5
11E79
331
10806
  5
10828
331
1080E
  5
10835
331
10855
  5
1086B
331
1081E
  5
1083D
331
1085D
  5
10874
331
11EED
  5
11E97
331
11DA1
  5
11E25
331
11DD8
  5
11EB1
331
10EEA
  5
10EEC
331
10EF2
  5
10EF4
331
10DDB
  5
B853
331
11E9D
  5
11F02
331
10EFA
  5
10EFD
331
108AC
  5
10DD2
331
11EA5
  5
11D32
331
10865
  5
1087C
331
1086D
  5
10884
331
124CF
  5
124D1
331
10836
  5
10851
331
10875
  5
1088B
331
124D7
  5
12738
331
1083E
  5
10859
331
12091
  5
12112
331
108BC
  5
10DDA
331
1087D
  5
10894
331
108C4
  5
10DE0
331
10ECB
  5
10ECB
331
10885
  5
108AB
331
1088D
  5
108B9
331
11E3F
  5
11F12
331
10895
  5
108C4
331
10DD4
  5
B84C
331
11E8E
  5
11ED9
331
10807
  5
1082A
331
1084E
  5
10864
331
1080F
  5
10836
331
10856
  5
1086C
331
1081F
  5
1083E
331
1085E
  5
10875
331
1217D
  5
124CD
331
11EEE
  5
11DD2
331
11EF6
  5
11E92
331
11F06
  5
11D16
331
1278D
  5
10EE6
331
11DD9
  5
11EF7
331
10EEB
  5
10EED
331
11E57
  5
11ED1
331
11DE1
  5
11D6B
331
11E96
  5
11E67
331
10DDC
  5
B854
331
10EF3
  5
10EF5
331
108A5
  5
1095B
331
11DAA
  5
11D62
331
11E5F
  5
11DAE
331
108AD
  5
10DD3
331
11DB2
  5
11EE5
331
11DE9
  5
11E11
331
11E67
  5
11DA0
331
11DF1
  5
11E44
331
10866
  5
1087D
331
124D0
  5
124D2
331
1086E
  5
10885
331
10876
  5
1088C
331
10837
  5
10852
331
11F0E
  5
11EED
331
11F16
  5
11EA9
331
120C2
  5
12143
331
12112
  5
1217D
331
11DF9
  5
11E5B
331
1087E
  5
10895
331
11DBA
  5
11C48
331
11E01
  5
11C64
331
10ECC
  5
10ECC
331
10886
  5
108AC
331
108C5
  5
10DE1
331
11DC2
  5
11E24
331
1095D
  5
10823
331
11DCA
  5
11E09
331
11E09
  5
11E22
331
1088E
  5
108BC
331
11E40
  5
11DBA
331
11E48
  5
11EF2
331
10DD5
  5
B84D
331
11DD2
  5
11E1E
331
11E11
  5
11EC1
331
10896
  5
108C5
331
10800
  5
1081E
331
10808
  5
1082C
331
1084F
  5
10865
331
10857
  5
1086D
331
1085F
  5
10876
331
121AE
  5
124CE
331
11EF7
  5
11D12
331
1089E
  5
108C7
331
10EEC
  5
10EEE
331
10EF4
  5
10EF6
331
10DDD
  5
B855
331
11E97
  5
11E75
331
10EFC
  5
10EFE
331
11E29
  5
11D84
331
108AE
  5
10DD4
331
11D7C
  5
11DC6
331
108B6
  5
10DD8
331
10820
  5
10840
331
10867
  5
1087E
331
10828
  5
10844
331
10830
  5
1084A
331
1086F
  5
10886
331
124D1
  5
124D3
331
10838
  5
10853
331
10877
  5
1088D
331
11F17
  5
11F19
331
11F74
  5
11FD7
331
1087F
  5
10896
331
11D84
  5
11E3A
331
11E31
  5
11E53
331
10887
  5
108AD
331
108C6
  5
10DE2
331
1088F
  5
108BF
331
11D94
  5
11E36
331
11E12
  5
11EC9
331
10EE5
  5
10EE7
331
11D9C
  5
11E29
331
10897
  5
108C6
331
10DD6
  5
B84E
331
10801
  5
1081F
331
10840
  5
1085A
331
10809
  5
10830
331
10848
  5
1085F
331
10850
  5
10866
331
10811
  5
10837
331
10858
  5
1086E
331
10819
  5
1083A
331
11EA9
  5
11D65
331
11EB1
  5
11D21
331
11EB9
  5
11D56
331
12787
  5
1278A
331
11EC1
  5
11C8F
331
11F00
  5
11E8D
331
1278F
  5
12791
331
10EED
  5
10EEF
331
11E1A
  5
11C61
331
11E98
  5
11F17
331
10DDE
  5
B856
331
10EF5
  5
10EF7
331
11E22
  5
11E7D
331
108AF
  5
10DD5
331
10EFD
  5
11C38
331
10860
  5
10877
331
10868
  5
1087F
331
10870
  5
10887
331
124D2
  5
124D4
331
10831
  5
1084B
331
10839
  5
10854
331
11EC9
  5
11D20
331
11ED1
  5
11D18
331
11ED9
  5
11EEE
331
11F18
  5
11F1A
331
11EE1
  5
11DF1
331
10878
  5
1088E
331
10EC6
  5
10EC6
331
10880
  5
10897
331
108BF
  5
10DDB
331
11E71
  5
11D75
331
11E79
  5
11D1C
331
11E3A
  5
11EF6
331
10888
  5
108AE
331
108C7
  5
10DE3
331
11E81
  5
11D5D
331
10890
  5
108C0
331
10DD7
  5
B84F
331
10EE6
  5
10EE8
331
10841
  5
1085B
331
10802
  5
10820
331
1080A
  5
10831
331
10849
  5
10860
331
10812
  5
10838
331
10851
  5
10867
331
1081A
  5
1083B
331
10859
  5
1086F
331
124D8
  5
12739
331
11EE9
  5
11DED
331
12738
  5
1273A
331
11F01
  5
11F18
331
12788
  5
1278C
331
11DA5
  5
11EB9
331
11E52
  5
11EA5
331
10EEE
  5
10EF0
331
10EF6
  5
10EF8
331
11E23
  5
11E89
331
108A8
  5
1095C
331
10DDF
  5
B857
331
11E99
  5
11CA4
331
11EA1
  5
11D23
331
10EFE
  5
11C3C
331
10861
  5
10878
331
10869
  5
10880
331
1082A
  5
10848
331
10832
  5
1084C
331
124D3
  5
124D5
331
1083A
  5
10855
331
12790
  5
1278D
331
11F19
  5
11F1B
331
10879
  5
1088F
331
108C0
  5
10DDC
331
10EC7
  5
10EC7
331
10881
  5
1089E
331
10889
  5
108AF
331
10891
  5
108C1
331
10EE7
  5
10EE9
331
10842
  5
1085C
331
1080B
  5
10832
331
1084A
  5
10861
331
10852
  5
10868
331
10813
  5
10839
331
1081B
  5
1083C
331
1085A
  5
10870
331
11EF2
  5
11DD6
331
12739
  5
12788
331
11FA6
  5
1202F
331
11F02
  5
11F01
331
11E92
  5
11EFC
331
11DDD
  5
11C8B
331
10DD8
  5
B850
331
10EEF
  5
10EF1
331
11DA6
  5
11C65
331
11E53
  5
11ECD
331
11E5B
  5
11D77
331
11DAE
  5
11D6F
331
11DE5
  5
11D6E
331
10DE0
  5
B858
331
10EF7
  5
10EF9
331
11E24
  5
11E81
331
11E63
  5
11C40
331
11DB6
  5
11EFB
331
11DED
  5
11C70
331
11E6B
  5
11F06
331
11DF5
  5
11C8C
331
10823
  5
10841
331
10862
  5
10879
331
1086A
  5
10881
331
10872
  5
10888
331
124D4
  5
124D6
331
10833
  5
1084E
331
1083B
  5
10856
331
11F0A
  5
11D60
331
12791
  5
10ED1
331
11F1A
  5
11F74
331
1087A
  5
10890
331
108B9
  5
10DD9
331
11DFD
  5
11C5C
331
10EC8
  5
10EC8
331
10882
  5
108A2
331
108C1
  5
10DDD
331
11DBE
  5
11E23
331
11DC6
  5
11E4D
331
11E05
  5
11DF5
331
1088A
  5
108B2
331
10DD1
  5
B849
331
11DCE
  5
11DF9
331
11E0D
  5
11E16
331
11E44
  5
11EDD
331
11E4C
  5
11F16
331
11DD6
  5
11EBD
331
10843
  5
1085D
331
1080C
  5
10833
331
1084B
  5
10862
331
10853
  5
10869
331
1085B
  5
10872
331
11EFB
  5
11E8E
331
11FD7
  5
12060
331
1278A
  5
1278F
331
1202F
  5
12091
331
10EE8
  5
10EEA
331
10EF0
  5
10EF2
331
108A2
  5
10933
331
10DD9
  5
B851
331
10EF8
  5
10EFA
331
11E25
  5
11D7B
331
11E2D
  5
11DA6
331
108B2
  5
10DD6
331
11E6C
  5
11F0A
331
10863
  5
1087A
331
10824
  5
10842
331
1082C
  5
10849
331
1086B
  5
10882
331
124CD
  5
124CF
331
10834
  5
1084F
331
10873
  5
10889
331
124D5
  5
124D7
331
1083C
  5
10857
331
11F1B
  5
11FA6
  0
XRECORD
  5
12C47
102
{ACAD_REACTORS
330
12C46
102
}
330
12C46
100
AcDbXrecord
280
     1
 70
     1
  0
LAYOUT
  5
22
102
{ACAD_XDICTIONARY
360
12C4A
102
}
102
{ACAD_REACTORS
330
1A
102
}
330
1A
100
AcDbPlotSettings
  1

  2
Adobe PDF
  4
A3
  6
AM_VIEW1
 40
3.174999952316281
 41
3.174999952316281
 42
3.17498779296875
 43
3.17498779296875
 44
297.0318298339844
 45
420.1583251953125
 46
-3.159078955650328
 47
-3.095831274986267
 48
0.0000000000000275
 49
0.0
140
420.0
141
297.0
142
1.0
143
1.0
 70
  3748
 72
     1
 73
     1
 74
     4
  7
monochrome.ctb
 75
     0
147
0.9670387807518544
148
-0.0000000000000275
149
0.0
100
AcDbLayout
  1
Model
 70
     1
 71
     0
 10
0.0
 20
0.0
 11
12.0
 21
9.0
 12
0.0
 22
0.0
 32
0.0
 14
0.0
 24
0.0
 34
0.0
 15
0.0
 25
0.0
 35
0.0
146
0.0
 13
0.0
 23
0.0
 33
0.0
 16
1.0
 26
0.0
 36
0.0
 17
0.0
 27
1.0
 37
0.0
 76
     0
330
1F
331
B0EC
1001
ACAD_PSEXT
1000
Adobe PDF
1000
Adobe PDF Converter
1000
My Documents\*.pdf
1000

1070
     0
  0
LAYOUT
  5
1E
102
{ACAD_XDICTIONARY
360
12C48
102
}
102
{ACAD_REACTORS
330
1A
102
}
330
1A
100
AcDbPlotSettings
  1

  2
\\ML370\XEROX
  4
A4
  6

 40
3.174999952316281
 41
3.174999952316281
 42
3.175003051757812
 43
3.17498779296875
 44
209.8674926757813
 45
296.6719970703125
 46
0.0
 47
0.0
 48
0.0
 49
0.0
140
0.0
141
0.0
142
1.0
143
1.0
 70
   688
 72
     1
 73
     1
 74
     5
  7
monochrome.ctb
 75
    16
147
1.0
148
0.0
149
0.0
100
AcDbLayout
  1
ﾚｲｱｳﾄ1
 70
     1
 71
     1
 10
-3.17498779296875
 20
-3.174999952316281
 11
293.4970092773438
 21
206.692492723465
 12
0.0
 22
0.0
 32
0.0
 14
1.000000000000000E+20
 24
1.000000000000000E+20
 34
1.000000000000000E+20
 15
-1.000000000000000E+20
 25
-1.000000000000000E+20
 35
-1.000000000000000E+20
146
0.0
 13
0.0
 23
0.0
 33
0.0
 16
1.0
 26
0.0
 36
0.0
 17
0.0
 27
1.0
 37
0.0
 76
     0
330
1B
  0
LAYOUT
  5
26
102
{ACAD_XDICTIONARY
360
12C4C
102
}
102
{ACAD_REACTORS
330
1A
102
}
330
1A
100
AcDbPlotSettings
  1

  2
\\ML370\XEROX
  4

  6

 40
0.0
 41
0.0
 42
0.0
 43
0.0
 44
0.0
 45
0.0
 46
0.0
 47
0.0
 48
0.0
 49
0.0
140
0.0
141
0.0
142
1.0
143
1.0
 70
   688
 72
     0
 73
     0
 74
     5
  7
monochrome.ctb
 75
    16
147
1.0
148
0.0
149
0.0
100
AcDbLayout
  1
ﾚｲｱｳﾄ2
 70
     1
 71
     2
 10
0.0
 20
0.0
 11
12.0
 21
9.0
 12
0.0
 22
0.0
 32
0.0
 14
0.0
 24
0.0
 34
0.0
 15
0.0
 25
0.0
 35
0.0
146
0.0
 13
0.0
 23
0.0
 33
0.0
 16
1.0
 26
0.0
 36
0.0
 17
0.0
 27
1.0
 37
0.0
 76
     0
330
23
  0
MATERIAL
  5
B0EF
102
{ACAD_XDICTIONARY
360
127BB
102
}
102
{ACAD_REACTORS
330
A91C
102
}
330
A91C
100
AcDbMaterial
  1
ByBlock
  0
MATERIAL
  5
B0EE
102
{ACAD_XDICTIONARY
360
127B9
102
}
102
{ACAD_REACTORS
330
A91C
102
}
330
A91C
100
AcDbMaterial
  1
ByLayer
  0
MATERIAL
  5
B0F0
102
{ACAD_XDICTIONARY
360
127BD
102
}
102
{ACAD_REACTORS
330
A91C
102
}
330
A91C
100
AcDbMaterial
  1
Global
  0
MLEADERSTYLE
  5
B596
102
{ACAD_REACTORS
330
B595
102
}
330
B595
100
AcDbMLeaderStyle
170
     2
171
     1
172
     0
 90
        2
 40
0.0
 41
0.0
173
     1
 91
-1056964608
340
14
 92
       -2
290
     1
 42
2.0
291
     1
 43
0.36
  3
Standard
 44
4.0
300

342
11
174
     1
178
     6
175
     1
176
     0
 93
-1056964608
 45
4.0
292
     0
297
     0
 46
4.0
 94
-1056964608
 47
1.0
 49
1.0
140
1.0
293
     1
141
0.0
294
     1
177
     0
142
1.0
295
     0
296
     0
143
0.125
1001
ACAD_MLEADERVER
1070
     2
1001
ACAD
1001
ACAD
1001
ACAD
1000
AcRTDxfName
1000
MLEADERSTYLE
  0
MLINESTYLE
  5
18
102
{ACAD_REACTORS
330
17
102
}
330
17
100
AcDbMlineStyle
  2
STANDARD
 70
     0
  3

 62
   256
 51
90.0
 52
90.0
 71
     2
 49
0.5
 62
   256
  6
BYLAYER
 49
-0.5
 62
   256
  6
BYLAYER
  0
ACDBPLACEHOLDER
  5
F
102
{ACAD_REACTORS
330
E
102
}
330
E
  0
SCALE
  5
B574
102
{ACAD_REACTORS
330
B573
102
}
330
B573
100
AcDbScale
 70
     0
300
1:1
140
1.0
141
1.0
290
     1
1001
ACAD
1001
ACAD
1001
ACAD
1000
AcRTDxfName
1000
SCALE
  0
SCALE
  5
B575
102
{ACAD_REACTORS
330
B573
102
}
330
B573
100
AcDbScale
 70
     0
300
1:2
140
1.0
141
2.0
290
     0
1001
ACAD
1001
ACAD
1001
ACAD
1000
AcRTDxfName
1000
SCALE
  0
SCALE
  5
B576
102
{ACAD_REACTORS
330
B573
102
}
330
B573
100
AcDbScale
 70
     0
300
1:4
140
1.0
141
4.0
290
     0
1001
ACAD
1001
ACAD
1001
ACAD
1000
AcRTDxfName
1000
SCALE
  0
SCALE
  5
B577
102
{ACAD_REACTORS
330
B573
102
}
330
B573
100
AcDbScale
 70
     0
300
1:5
140
1.0
141
5.0
290
     0
1001
ACAD
1001
ACAD
1001
ACAD
1000
AcRTDxfName
1000
SCALE
  0
SCALE
  5
B578
102
{ACAD_REACTORS
330
B573
102
}
330
B573
100
AcDbScale
 70
     0
300
1:8
140
1.0
141
8.0
290
     0
1001
ACAD
1001
ACAD
1001
ACAD
1000
AcRTDxfName
1000
SCALE
  0
SCALE
  5
B579
102
{ACAD_REACTORS
330
B573
102
}
330
B573
100
AcDbScale
 70
     0
300
1:10
140
1.0
141
10.0
290
     0
1001
ACAD
1001
ACAD
1001
ACAD
1000
AcRTDxfName
1000
SCALE
  0
SCALE
  5
B57A
102
{ACAD_REACTORS
330
B573
102
}
330
B573
100
AcDbScale
 70
     0
300
1:16
140
1.0
141
16.0
290
     0
1001
ACAD
1001
ACAD
1001
ACAD
1000
AcRTDxfName
1000
SCALE
  0
SCALE
  5
B57B
102
{ACAD_REACTORS
330
B573
102
}
330
B573
100
AcDbScale
 70
     0
300
1:20
140
1.0
141
20.0
290
     0
1001
ACAD
1001
ACAD
1001
ACAD
1000
AcRTDxfName
1000
SCALE
  0
SCALE
  5
B57C
102
{ACAD_REACTORS
330
B573
102
}
330
B573
100
AcDbScale
 70
     0
300
1:30
140
1.0
141
30.0
290
     0
1001
ACAD
1001
ACAD
1001
ACAD
1000
AcRTDxfName
1000
SCALE
  0
SCALE
  5
B57D
102
{ACAD_REACTORS
330
B573
102
}
330
B573
100
AcDbScale
 70
     0
300
1:40
140
1.0
141
40.0
290
     0
1001
ACAD
1001
ACAD
1001
ACAD
1000
AcRTDxfName
1000
SCALE
  0
SCALE
  5
B57E
102
{ACAD_REACTORS
330
B573
102
}
330
B573
100
AcDbScale
 70
     0
300
1:50
140
1.0
141
50.0
290
     0
1001
ACAD
1001
ACAD
1001
ACAD
1000
AcRTDxfName
1000
SCALE
  0
SCALE
  5
B57F
102
{ACAD_REACTORS
330
B573
102
}
330
B573
100
AcDbScale
 70
     0
300
1:100
140
1.0
141
100.0
290
     0
1001
ACAD
1001
ACAD
1001
ACAD
1000
AcRTDxfName
1000
SCALE
  0
SCALE
  5
B580
102
{ACAD_REACTORS
330
B573
102
}
330
B573
100
AcDbScale
 70
     0
300
2:1
140
2.0
141
1.0
290
     0
1001
ACAD
1001
ACAD
1001
ACAD
1000
AcRTDxfName
1000
SCALE
  0
SCALE
  5
B581
102
{ACAD_REACTORS
330
B573
102
}
330
B573
100
AcDbScale
 70
     0
300
4:1
140
4.0
141
1.0
290
     0
1001
ACAD
1001
ACAD
1001
ACAD
1000
AcRTDxfName
1000
SCALE
  0
SCALE
  5
B582
102
{ACAD_REACTORS
330
B573
102
}
330
B573
100
AcDbScale
 70
     0
300
8:1
140
8.0
141
1.0
290
     0
1001
ACAD
1001
ACAD
1001
ACAD
1000
AcRTDxfName
1000
SCALE
  0
SCALE
  5
B583
102
{ACAD_REACTORS
330
B573
102
}
330
B573
100
AcDbScale
 70
     0
300
10:1
140
10.0
141
1.0
290
     0
1001
ACAD
1001
ACAD
1001
ACAD
1000
AcRTDxfName
1000
SCALE
  0
SCALE
  5
B584
102
{ACAD_REACTORS
330
B573
102
}
330
B573
100
AcDbScale
 70
     0
300
100:1
140
100.0
141
1.0
290
     0
1001
ACAD
1001
ACAD
1001
ACAD
1000
AcRTDxfName
1000
SCALE
  0
SCALE
  5
B585
102
{ACAD_REACTORS
330
B573
102
}
330
B573
100
AcDbScale
 70
     0
300
1/128" = 1'-0"
140
0.0078125
141
12.0
290
     0
1001
ACAD
1001
ACAD
1001
ACAD
1000
AcRTDxfName
1000
SCALE
  0
SCALE
  5
B586
102
{ACAD_REACTORS
330
B573
102
}
330
B573
100
AcDbScale
 70
     0
300
1/64" = 1'-0"
140
0.015625
141
12.0
290
     0
1001
ACAD
1001
ACAD
1001
ACAD
1000
AcRTDxfName
1000
SCALE
  0
SCALE
  5
B587
102
{ACAD_REACTORS
330
B573
102
}
330
B573
100
AcDbScale
 70
     0
300
1/32" = 1'-0"
140
0.03125
141
12.0
290
     0
1001
ACAD
1001
ACAD
1001
ACAD
1000
AcRTDxfName
1000
SCALE
  0
SCALE
  5
B588
102
{ACAD_REACTORS
330
B573
102
}
330
B573
100
AcDbScale
 70
     0
300
1/16" = 1'-0"
140
0.0625
141
12.0
290
     0
1001
ACAD
1001
ACAD
1001
ACAD
1000
AcRTDxfName
1000
SCALE
  0
SCALE
  5
B589
102
{ACAD_REACTORS
330
B573
102
}
330
B573
100
AcDbScale
 70
     0
300
3/32" = 1'-0"
140
0.09375
141
12.0
290
     0
1001
ACAD
1001
ACAD
1001
ACAD
1000
AcRTDxfName
1000
SCALE
  0
SCALE
  5
B58A
102
{ACAD_REACTORS
330
B573
102
}
330
B573
100
AcDbScale
 70
     0
300
1/8" = 1'-0"
140
0.125
141
12.0
290
     0
1001
ACAD
1001
ACAD
1001
ACAD
1000
AcRTDxfName
1000
SCALE
  0
SCALE
  5
B58B
102
{ACAD_REACTORS
330
B573
102
}
330
B573
100
AcDbScale
 70
     0
300
3/16" = 1'-0"
140
0.1875
141
12.0
290
     0
1001
ACAD
1001
ACAD
1001
ACAD
1000
AcRTDxfName
1000
SCALE
  0
SCALE
  5
B58C
102
{ACAD_REACTORS
330
B573
102
}
330
B573
100
AcDbScale
 70
     0
300
1/4" = 1'-0"
140
0.25
141
12.0
290
     0
1001
ACAD
1001
ACAD
1001
ACAD
1000
AcRTDxfName
1000
SCALE
  0
SCALE
  5
B58D
102
{ACAD_REACTORS
330
B573
102
}
330
B573
100
AcDbScale
 70
     0
300
3/8" = 1'-0"
140
0.375
141
12.0
290
     0
1001
ACAD
1001
ACAD
1001
ACAD
1000
AcRTDxfName
1000
SCALE
  0
SCALE
  5
B58E
102
{ACAD_REACTORS
330
B573
102
}
330
B573
100
AcDbScale
 70
     0
300
1/2" = 1'-0"
140
0.5
141
12.0
290
     0
1001
ACAD
1001
ACAD
1001
ACAD
1000
AcRTDxfName
1000
SCALE
  0
SCALE
  5
B58F
102
{ACAD_REACTORS
330
B573
102
}
330
B573
100
AcDbScale
 70
     0
300
3/4" = 1'-0"
140
0.75
141
12.0
290
     0
1001
ACAD
1001
ACAD
1001
ACAD
1000
AcRTDxfName
1000
SCALE
  0
SCALE
  5
B590
102
{ACAD_REACTORS
330
B573
102
}
330
B573
100
AcDbScale
 70
     0
300
1" = 1'-0"
140
1.0
141
12.0
290
     0
1001
ACAD
1001
ACAD
1001
ACAD
1000
AcRTDxfName
1000
SCALE
  0
SCALE
  5
B591
102
{ACAD_REACTORS
330
B573
102
}
330
B573
100
AcDbScale
 70
     0
300
1-1/2" = 1'-0"
140
1.5
141
12.0
290
     0
1001
ACAD
1001
ACAD
1001
ACAD
1000
AcRTDxfName
1000
SCALE
  0
SCALE
  5
B592
102
{ACAD_REACTORS
330
B573
102
}
330
B573
100
AcDbScale
 70
     0
300
3" = 1'-0"
140
3.0
141
12.0
290
     0
1001
ACAD
1001
ACAD
1001
ACAD
1000
AcRTDxfName
1000
SCALE
  0
SCALE
  5
B593
102
{ACAD_REACTORS
330
B573
102
}
330
B573
100
AcDbScale
 70
     0
300
6" = 1'-0"
140
6.0
141
12.0
290
     0
1001
ACAD
1001
ACAD
1001
ACAD
1000
AcRTDxfName
1000
SCALE
  0
SCALE
  5
B594
102
{ACAD_REACTORS
330
B573
102
}
330
B573
100
AcDbScale
 70
     0
300
1'-0" = 1'-0"
140
12.0
141
12.0
290
     0
1001
ACAD
1001
ACAD
1001
ACAD
1000
AcRTDxfName
1000
SCALE
  0
TABLESTYLE
  5
AABA
102
{ACAD_XDICTIONARY
360
B5B5
102
}
102
{ACAD_REACTORS
330
AAB9
102
}
330
AAB9
100
AcDbTableStyle
  3
Standard
 70
     0
 71
     0
 40
1.5
 41
1.5
280
     0
281
     0
  7
STANDARD
140
4.5
170
     2
 62
     0
 63
     7
283
     0
274
    -2
284
     1
 64
     0
275
    -2
285
     1
 65
     0
276
    -2
286
     1
 66
     0
277
    -2
287
     1
 67
     0
278
    -2
288
     1
 68
     0
279
    -2
289
     1
 69
     0
  7
STANDARD
140
6.0
170
     5
 62
     0
 63
     7
283
     0
274
    -2
284
     1
 64
     0
275
    -2
285
     1
 65
     0
276
    -2
286
     1
 66
     0
277
    -2
287
     1
 67
     0
278
    -2
288
     1
 68
     0
279
    -2
289
     1
 69
     0
  7
STANDARD
140
4.5
170
     5
 62
     0
 63
     7
283
     0
274
    -2
284
     1
 64
     0
275
    -2
285
     1
 65
     0
276
    -2
286
     1
 66
     0
277
    -2
287
     1
 67
     0
278
    -2
288
     1
 68
     0
279
    -2
289
     1
 69
     0
  0
VISUALSTYLE
  5
B0F7
102
{ACAD_REACTORS
330
B0F1
102
}
330
B0F1
100
AcDbVisualStyle
  2
2dWireframe
 70
     4
 71
     0
 72
     2
 73
     0
 90
        0
 40
-0.6
 41
-30.0
 62
     5
 63
     7
 74
     1
 91
        4
 64
     7
 65
   257
 75
     1
175
     1
 42
1.0
 92
        0
 66
   257
 43
1.0
 76
     1
 77
     6
 78
     2
 67
     7
 79
     5
170
     0
171
     0
290
     0
174
     0
 93
        1
 44
0.0
173
     0
291
     0
 45
0.0
1001
ACAD
1000
AcDbSavedByObjectVersion
1070
     0
1000
AcDbSavedByObjectVersion
1070
     0
1000
AcDbSavedByObjectVersion
1070
     0
  0
VISUALSTYLE
  5
B0F9
102
{ACAD_REACTORS
330
B0F1
102
}
330
B0F1
100
AcDbVisualStyle
  2
3D Hidden
 70
     6
 71
     1
 72
     2
 73
     2
 90
        0
 40
-0.6
 41
-30.0
 62
     5
 63
     7
 74
     2
 91
        2
 64
     7
 65
   257
 75
     2
175
     1
 42
40.0
 92
        0
 66
   257
 43
1.0
 76
     1
 77
     6
 78
     2
 67
     7
 79
     3
170
     0
171
     0
290
     0
174
     0
 93
        1
 44
0.0
173
     0
291
     0
 45
0.0
1001
ACAD
1000
AcDbSavedByObjectVersion
1070
     0
1000
AcDbSavedByObjectVersion
1070
     0
1000
AcDbSavedByObjectVersion
1070
     0
  0
VISUALSTYLE
  5
B0F8
102
{ACAD_REACTORS
330
B0F1
102
}
330
B0F1
100
AcDbVisualStyle
  2
3dWireframe
 70
     5
 71
     0
 72
     2
 73
     0
 90
        0
 40
-0.6
 41
-30.0
 62
     5
 63
     7
 74
     1
 91
        4
 64
     7
 65
   257
 75
     1
175
     1
 42
1.0
 92
        0
 66
   257
 43
1.0
 76
     1
 77
     6
 78
     2
 67
     7
 79
     5
170
     0
171
     0
290
     0
174
     0
 93
        1
 44
0.0
173
     0
291
     0
 45
0.0
1001
ACAD
1000
AcDbSavedByObjectVersion
1070
     0
1000
AcDbSavedByObjectVersion
1070
     0
1000
AcDbSavedByObjectVersion
1070
     0
  0
VISUALSTYLE
  5
B0F6
102
{ACAD_REACTORS
330
B0F1
102
}
330
B0F1
100
AcDbVisualStyle
  2
Basic
 70
     7
 71
     1
 72
     0
 73
     1
 90
        0
 40
-0.6
 41
-30.0
 62
     5
 63
     7
 74
     0
 91
        4
 64
     7
 65
   257
 75
     1
175
     1
 42
1.0
 92
        8
 66
     7
 43
1.0
 76
     1
 77
     6
 78
     2
 67
     7
 79
     5
170
     0
171
     0
290
     0
174
     0
 93
        1
 44
0.0
173
     0
291
     1
 45
0.0
1001
ACAD
1000
AcDbSavedByObjectVersion
1070
     0
1000
AcDbSavedByObjectVersion
1070
     0
1000
AcDbSavedByObjectVersion
1070
     0
  0
VISUALSTYLE
  5
B0FD
102
{ACAD_REACTORS
330
B0F1
102
}
330
B0F1
100
AcDbVisualStyle
  2
Brighten
 70
    12
 71
     2
 72
     2
 73
     0
 90
        0
 40
-0.6
 41
-30.0
 62
     5
 63
     7
 74
     1
 91
        4
 64
     7
 65
   257
 75
     1
175
     1
 42
1.0
 92
        8
 66
     7
 43
1.0
 76
     1
 77
     6
 78
     2
 67
     7
 79
     5
170
     0
171
     0
290
     0
174
     0
 93
        1
 44
50.0
173
     0
291
     1
 45
0.0
1001
ACAD
1000
AcDbSavedByObjectVersion
1070
     0
1000
AcDbSavedByObjectVersion
1070
     0
1000
AcDbSavedByObjectVersion
1070
     0
  0
VISUALSTYLE
  5
B101
102
{ACAD_REACTORS
330
B0F1
102
}
330
B0F1
100
AcDbVisualStyle
  2
ColorChange
 70
    16
 71
     2
 72
     2
 73
     3
 90
        0
 40
-0.6
 41
-30.0
 62
     5
 63
     8
 74
     1
 91
        4
 64
     7
 65
   257
 75
     1
175
     1
 42
1.0
 92
        8
 66
     8
 43
1.0
 76
     1
 77
     6
 78
     2
 67
     7
 79
     5
170
     0
171
     0
290
     0
174
     0
 93
        1
 44
0.0
173
     0
291
     1
 45
0.0
1001
ACAD
1000
AcDbSavedByObjectVersion
1070
     0
1000
AcDbSavedByObjectVersion
1070
     0
1000
AcDbSavedByObjectVersion
1070
     0
  0
VISUALSTYLE
  5
B0FA
102
{ACAD_REACTORS
330
B0F1
102
}
330
B0F1
100
AcDbVisualStyle
  2
Conceptual
 70
     9
 71
     3
 72
     2
 73
     0
 90
        0
 40
-0.6
 41
-30.0
 62
     5
 63
     7
 74
     2
 91
        2
 64
     7
 65
   257
 75
     1
175
     1
 42
40.0
 92
        8
 66
     7
 43
1.0
 76
     1
 77
     6
 78
     2
 67
     7
 79
     3
170
     0
171
     0
290
     0
174
     0
 93
        1
 44
0.0
173
     0
291
     0
 45
0.0
1001
ACAD
1000
AcDbSavedByObjectVersion
1070
     0
1000
AcDbSavedByObjectVersion
1070
     0
1000
AcDbSavedByObjectVersion
1070
     0
  0
VISUALSTYLE
  5
B0FC
102
{ACAD_REACTORS
330
B0F1
102
}
330
B0F1
100
AcDbVisualStyle
  2
Dim
 70
    11
 71
     2
 72
     2
 73
     0
 90
        0
 40
-0.6
 41
-30.0
 62
     5
 63
     7
 74
     1
 91
        4
 64
     7
 65
   257
 75
     1
175
     1
 42
1.0
 92
        8
 66
     7
 43
1.0
 76
     1
 77
     6
 78
     2
 67
     7
 79
     5
170
     0
171
     0
290
     0
174
     0
 93
        1
 44
-50.0
173
     0
291
     1
 45
0.0
1001
ACAD
1000
AcDbSavedByObjectVersion
1070
     0
1000
AcDbSavedByObjectVersion
1070
     0
1000
AcDbSavedByObjectVersion
1070
     0
  0
VISUALSTYLE
  5
B100
102
{ACAD_REACTORS
330
B0F1
102
}
330
B0F1
100
AcDbVisualStyle
  2
Facepattern
 70
    15
 71
     2
 72
     2
 73
     0
 90
        0
 40
-0.6
 41
-30.0
 62
     5
 63
     7
 74
     1
 91
        4
 64
     7
 65
   257
 75
     1
175
     1
 42
1.0
 92
        8
 66
     7
 43
1.0
 76
     1
 77
     6
 78
     2
 67
     7
 79
     5
170
     0
171
     0
290
     0
174
     0
 93
        1
 44
0.0
173
     0
291
     1
 45
0.0
1001
ACAD
1000
AcDbSavedByObjectVersion
1070
     0
1000
AcDbSavedByObjectVersion
1070
     0
1000
AcDbSavedByObjectVersion
1070
     0
  0
VISUALSTYLE
  5
B0F2
102
{ACAD_REACTORS
330
B0F1
102
}
330
B0F1
100
AcDbVisualStyle
  2
Flat
 70
     0
 71
     2
 72
     1
 73
     1
 90
        2
 40
-0.6
 41
30.0
 62
     5
 63
     7
 74
     0
 91
        4
 64
     7
 65
   257
 75
     1
175
     1
 42
1.0
 92
        8
 66
     7
 43
1.0
 76
     1
 77
     6
 78
     2
 67
     7
 79
     5
170
     0
171
     0
290
     0
174
     0
 93
       13
 44
0.0
173
     0
291
     1
 45
0.0
1001
ACAD
1000
AcDbSavedByObjectVersion
1070
     0
1000
AcDbSavedByObjectVersion
1070
     0
1000
AcDbSavedByObjectVersion
1070
     0
  0
VISUALSTYLE
  5
B0F3
102
{ACAD_REACTORS
330
B0F1
102
}
330
B0F1
100
AcDbVisualStyle
  2
FlatWithEdges
 70
     1
 71
     2
 72
     1
 73
     1
 90
        2
 40
-0.6
 41
30.0
 62
     5
 63
     7
 74
     1
 91
        4
 64
     7
 65
   257
 75
     1
175
     1
 42
1.0
 92
        0
 66
   257
 43
1.0
 76
     1
 77
     6
 78
     2
 67
     7
 79
     5
170
     0
171
     0
290
     0
174
     0
 93
       13
 44
0.0
173
     0
291
     1
 45
0.0
1001
ACAD
1000
AcDbSavedByObjectVersion
1070
     0
1000
AcDbSavedByObjectVersion
1070
     0
1000
AcDbSavedByObjectVersion
1070
     0
  0
VISUALSTYLE
  5
B0F4
102
{ACAD_REACTORS
330
B0F1
102
}
330
B0F1
100
AcDbVisualStyle
  2
Gouraud
 70
     2
 71
     2
 72
     2
 73
     1
 90
        2
 40
-0.6
 41
30.0
 62
     5
 63
     7
 74
     0
 91
        4
 64
     7
 65
   257
 75
     1
175
     1
 42
1.0
 92
        0
 66
     7
 43
1.0
 76
     1
 77
     6
 78
     2
 67
     7
 79
     5
170
     0
171
     0
290
     0
174
     0
 93
       13
 44
0.0
173
     0
291
     1
 45
0.0
1001
ACAD
1000
AcDbSavedByObjectVersion
1070
     0
1000
AcDbSavedByObjectVersion
1070
     0
1000
AcDbSavedByObjectVersion
1070
     0
  0
VISUALSTYLE
  5
B0F5
102
{ACAD_REACTORS
330
B0F1
102
}
330
B0F1
100
AcDbVisualStyle
  2
GouraudWithEdges
 70
     3
 71
     2
 72
     2
 73
     1
 90
        2
 40
-0.6
 41
30.0
 62
     5
 63
     7
 74
     1
 91
        4
 64
     7
 65
   257
 75
     1
175
     1
 42
1.0
 92
        0
 66
   257
 43
1.0
 76
     1
 77
     6
 78
     2
 67
     7
 79
     5
170
     0
171
     0
290
     0
174
     0
 93
       13
 44
0.0
173
     0
291
     1
 45
0.0
1001
ACAD
1000
AcDbSavedByObjectVersion
1070
     0
1000
AcDbSavedByObjectVersion
1070
     0
1000
AcDbSavedByObjectVersion
1070
     0
  0
VISUALSTYLE
  5
B0FF
102
{ACAD_REACTORS
330
B0F1
102
}
330
B0F1
100
AcDbVisualStyle
  2
Linepattern
 70
    14
 71
     2
 72
     2
 73
     0
 90
        0
 40
-0.6
 41
-30.0
 62
     5
 63
     7
 74
     1
 91
        4
 64
     7
 65
   257
 75
     7
175
     7
 42
1.0
 92
        8
 66
     7
 43
1.0
 76
     1
 77
     6
 78
     2
 67
     7
 79
     5
170
     0
171
     0
290
     0
174
     0
 93
        1
 44
0.0
173
     0
291
     1
 45
0.0
1001
ACAD
1000
AcDbSavedByObjectVersion
1070
     0
1000
AcDbSavedByObjectVersion
1070
     0
1000
AcDbSavedByObjectVersion
1070
     0
  0
VISUALSTYLE
  5
B0FB
102
{ACAD_REACTORS
330
B0F1
102
}
330
B0F1
100
AcDbVisualStyle
  2
Realistic
 70
     8
 71
     2
 72
     2
 73
     0
 90
        0
 40
-0.6
 41
-30.0
 62
     5
 63
     7
 74
     1
 91
        0
 64
     7
 65
   257
 75
     1
175
     1
 42
1.0
 92
        8
 66
     8
 43
1.0
 76
     1
 77
     6
 78
     2
 67
     7
 79
     5
170
     0
171
     0
290
     0
174
     0
 93
       13
 44
0.0
173
     0
291
     0
 45
0.0
1001
ACAD
1000
AcDbSavedByObjectVersion
1070
     0
1000
AcDbSavedByObjectVersion
1070
     0
1000
AcDbSavedByObjectVersion
1070
     0
  0
VISUALSTYLE
  5
B0FE
102
{ACAD_REACTORS
330
B0F1
102
}
330
B0F1
100
AcDbVisualStyle
  2
Thicken
 70
    13
 71
     2
 72
     2
 73
     0
 90
        0
 40
-0.6
 41
-30.0
 62
     5
 63
     7
 74
     1
 91
        4
 64
     7
 65
   257
 75
     1
175
     1
 42
1.0
 92
       12
 66
     7
 43
1.0
 76
     1
 77
     6
 78
     2
 67
     7
 79
     5
170
     0
171
     0
290
     0
174
     0
 93
        1
 44
0.0
173
     0
291
     1
 45
0.0
1001
ACAD
1000
AcDbSavedByObjectVersion
1070
     0
1000
AcDbSavedByObjectVersion
1070
     0
1000
AcDbSavedByObjectVersion
1070
     0
  0
DICTIONARYVAR
  5
B5BA
102
{ACAD_REACTORS
330
34
102
}
330
34
100
DictionaryVariables
280
     0
  1
1:1
  0
DICTIONARYVAR
  5
B5B8
102
{ACAD_REACTORS
330
34
102
}
330
34
100
DictionaryVariables
280
     0
  1
STANDARD
  0
DICTIONARYVAR
  5
AAF3
102
{ACAD_REACTORS
330
34
102
}
330
34
100
DictionaryVariables
280
     0
  1
STANDARD
  0
DICTIONARYVAR
  5
A10C
102
{ACAD_REACTORS
330
34
102
}
330
34
100
DictionaryVariables
280
     0
  1
1
  0
DICTIONARYVAR
  5
AB07
102
{ACAD_REACTORS
330
34
102
}
330
34
100
DictionaryVariables
280
     0
  1
4
  0
DICTIONARYVAR
  5
35
102
{ACAD_REACTORS
330
34
102
}
330
34
100
DictionaryVariables
280
     0
  1
0
  0
DICTIONARYVAR
  5
B5BB
102
{ACAD_REACTORS
330
34
102
}
330
34
100
DictionaryVariables
280
     0
  1
0
  0
DICTIONARYVAR
  5
B5B9
102
{ACAD_REACTORS
330
34
102
}
330
34
100
DictionaryVariables
280
     0
  1
0
  0
DICTIONARYVAR
  5
194C
102
{ACAD_REACTORS
330
34
102
}
330
34
100
DictionaryVariables
280
     0
  1
96
  0
DICTIONARY
  5
7E8
102
{ACAD_REACTORS
330
47
102
}
330
47
100
AcDbDictionary
281
     1
  0
DICTIONARY
  5
4C
102
{ACAD_REACTORS
330
47
102
}
330
47
100
AcDbDictionary
281
     1
  0
XRECORD
  5
A929
102
{ACAD_REACTORS
330
47
102
}
330
47
100
AcDbXrecord
280
     1
 90
-1023410169
  0
XRECORD
  5
103C6
102
{ACAD_REACTORS
330
103C5
102
}
330
103C5
100
AcDbXrecord
280
     1
330
B818
330
B819
330
B81A
330
B81B
330
B81C
330
B9B2
330
B9BD
330
B9C8
330
B9D3
330
B9DE
330
B9E9
330
B9F4
330
B9FF
330
BA0A
330
BA15
330
BA20
330
BA2B
330
BA36
330
BA41
330
BA4C
330
BA57
330
BA62
330
BA6D
330
BA78
330
BA83
330
BA8E
330
BA99
330
BAA4
330
BAAF
330
BABA
330
BAC5
330
BAD0
330
BADB
330
BAE6
330
BAF1
330
BAFC
330
BB07
330
BB12
330
BB1D
330
BB28
330
BB33
330
BB3E
330
BB49
330
BB54
330
BB5F
330
BB6A
330
BB75
330
BB80
330
BB8B
330
BB96
330
BBA1
330
BBAC
330
BBB7
330
BBC2
330
BBCD
330
BBD8
330
BBE3
330
BBEE
330
BBF9
330
BC04
330
BC0F
330
BC1A
330
BC25
330
BC30
330
BC3B
330
BC46
330
BC51
330
BC5C
330
BC67
330
BC72
330
BC7D
330
BC88
330
BC93
330
BC9E
330
BCA9
330
BCB4
330
BCBF
330
BCCA
330
BCD5
330
BCE0
330
BCEB
330
BCF6
330
BD01
330
BD0C
330
BD17
330
BD22
330
BD2D
330
BD38
330
BD43
330
BD4E
330
BD59
330
BD64
330
BD6F
330
BD7A
330
BD85
330
BD90
330
BD9B
330
BDA6
330
BDB1
330
BDBC
330
BDC7
330
BDD2
330
BDDD
330
BDE8
330
BDF3
330
BDFE
330
BE09
330
BE14
330
BE1F
330
BE2A
330
BE35
330
BE40
330
BE4B
330
BE56
330
BE61
330
BE6C
330
BE77
330
BE82
330
BE8D
330
BE98
330
BEA3
330
BEAE
330
BEB9
330
BEC4
330
BECF
330
BEDA
330
BEE5
330
BEF0
330
BEFB
330
BF06
330
BF11
330
BF1C
330
BF27
330
BF32
330
BF3D
330
BF48
330
BF53
330
BF5E
330
BF69
330
BF74
330
BF7F
330
BF8A
330
BF95
330
BFA0
330
BFAB
330
BFB6
330
BFC1
330
BFCC
330
BFD7
330
BFE2
330
BFED
330
BFF8
330
C003
330
C00E
330
C019
330
C024
330
C02F
330
C03A
330
C045
330
C050
330
C05B
330
C066
330
C071
330
C07C
330
C087
330
C092
330
C09D
330
C0A8
330
C0B3
330
C0BE
330
C0C9
330
C0D4
330
C0DF
330
C0EA
330
C0F5
330
C100
330
C10B
330
C116
330
C121
330
C12C
330
C137
330
C142
330
C14D
330
C158
330
C160
330
C168
330
C170
330
C178
330
C180
330
C188
330
C190
330
C198
330
C1A0
330
C1A8
330
C1B0
330
C1B8
330
C1C0
330
C1C8
330
C1D0
330
C1D8
330
C1E0
330
C1E8
330
C1F0
330
C1F8
330
C200
330
C208
330
C210
330
C218
330
C220
330
C228
330
C230
330
C238
330
C240
330
C248
330
C250
330
C258
330
C260
330
C268
330
C270
330
C278
330
C280
330
C288
330
C290
330
C298
330
C2A0
330
C2A8
330
C476
330
C481
330
C48C
330
C497
330
C4A2
330
C4AD
330
C4B8
330
C4C3
330
C4CE
330
C4D9
330
C4E4
330
C4EF
330
C4FA
330
C505
330
C510
330
C51B
330
C526
330
C531
330
C53C
330
C547
330
C552
330
C55D
330
C568
330
C573
330
C57E
330
C589
330
C594
330
C59F
330
C5AA
330
C5B5
330
C5C0
330
C5CB
330
C5D6
330
C5E1
330
C5EC
330
C5F7
330
C602
330
C60D
330
C618
330
C623
330
C62E
330
C639
330
C644
330
C64F
330
C65A
330
C665
330
C670
330
C67B
330
C686
330
C691
330
C69C
330
C6A7
330
C6B2
330
C6BD
330
C6C8
330
C6D3
330
C6DE
330
C6E9
330
C6F4
330
C6FF
330
C70A
330
C715
330
C720
330
C72B
330
C736
330
C741
330
C74C
330
C757
330
C762
330
C76D
330
C778
330
C783
330
C78E
330
C799
330
C7A4
330
C7AF
330
C7BA
330
C7C5
330
C7D0
330
C7DB
330
C7E6
330
C7F1
330
C7FC
330
C807
330
C812
330
C81D
330
C828
330
C833
330
C83E
330
C849
330
C854
330
C85F
330
C86A
330
C875
330
C880
330
C88B
330
C896
330
C8A1
330
C8AC
330
C8B7
330
C8C2
330
C8CD
330
C8D8
330
C8E3
330
C8EE
330
C8F9
330
C904
330
C90F
330
C91A
330
C925
330
C930
330
C93B
330
C946
330
C951
330
C95C
330
C967
330
C972
330
C97D
330
C988
330
C993
330
C99E
330
C9A9
330
C9B4
330
C9BF
330
C9CA
330
C9D5
330
C9E0
330
C9EB
330
C9F6
330
CA01
330
CA0C
330
CA17
330
CA22
330
CA2D
330
CA38
330
CA43
330
CA4E
330
CA59
330
CA64
330
CA6F
330
CA7A
330
CA85
330
CA90
330
CA9B
330
CAA6
330
CAB1
330
CABC
330
CAC7
330
CAD2
330
CADD
330
CAE8
330
CAF3
330
CAFE
330
CB09
330
CB14
330
CB1F
330
CB2A
330
CB35
330
CB40
330
CB4B
330
CB56
330
CB61
330
CB6C
330
CB77
330
CB82
330
CB8D
330
CB98
330
CBA3
330
CBAE
330
CBB9
330
CBC4
330
CBCF
330
CBDA
330
CBE5
330
CBF0
330
CBFB
330
CC06
330
CC11
330
CC1C
330
CC27
330
CC2F
330
CC37
330
CC3F
330
CC47
330
CC4F
330
CC57
330
CC5F
330
CC67
330
CC6F
330
CC77
330
CC7F
330
CC87
330
CC8F
330
CC97
330
CC9F
330
CCA7
330
CCAF
330
CCB7
330
CCBF
330
CCC7
330
CCCF
330
CCD7
330
CCDF
330
CCE7
330
CCEF
330
CCF7
330
CCFF
330
CD07
330
CD0F
330
CD17
330
CD1F
330
CD27
330
CD2F
330
CD37
330
CD3F
330
CD47
330
CD4F
330
CD57
330
CD5F
330
CD67
330
CD6F
330
CD77
330
CD7F
330
CD87
330
CD8F
330
CD97
330
CD9F
330
CDA7
330
CDAF
330
CDB7
330
CDBF
330
CDC7
330
CDCF
330
CDD7
330
CDDF
330
CDE7
330
CDEF
330
CDFA
330
CE05
330
CE10
330
CE1B
330
CE26
330
CE31
330
CE3C
330
CE47
330
CE52
330
CE5D
330
CE68
330
CE73
330
CE7E
330
CE89
330
CE94
330
CEAA
330
CEB5
330
CEC0
330
CECB
330
CED6
330
CEE1
330
CEEC
330
CEF7
330
CF02
330
CF0D
330
CF18
330
CF23
330
CF2E
330
CF39
330
CF44
330
CF4F
330
CF5A
330
CF65
330
CF70
330
CF7B
330
CF86
330
CF91
330
CF9C
330
CFA7
330
CFB2
330
CFBD
330
CFC8
330
CFD3
330
CFDE
330
CFE9
330
CFF4
330
CFFF
330
D00A
330
D015
330
D020
330
D02B
330
D036
330
D041
330
D04C
330
D057
330
D062
330
D06D
330
D078
330
D083
330
D08E
330
D099
330
D0A4
330
D0AF
330
D0BA
330
D0C5
330
D0D0
330
D0DB
330
D0E6
330
D0F1
330
D0FC
330
D107
330
D112
330
D11D
330
D128
330
D133
330
D13E
330
D149
330
D154
330
D15F
330
D16A
330
D175
330
D180
330
D18B
330
D196
330
D1A1
330
D1AC
330
D1B7
330
D1C2
330
D1CD
330
D1D8
330
D1E3
330
D1EE
330
D1F9
330
D204
330
D20F
330
D21A
330
D225
330
D230
330
D23B
330
D246
330
D251
330
D25C
330
D267
330
D272
330
D27D
330
D288
330
D293
330
D29E
330
D2A9
330
D2B4
330
D2BF
330
D2CA
330
D2D5
330
D2E0
330
D2EB
330
D2F6
330
D301
330
D30C
330
D317
330
D322
330
D32D
330
D338
330
D343
330
D34E
330
D359
330
D364
330
D36F
330
D37A
330
D385
330
D390
330
D39B
330
D3A6
330
D3B1
330
D3BC
330
D3C7
330
D3D2
330
D3DD
330
D3E8
330
D3F3
330
D3FE
330
D409
330
D414
330
D41F
330
D42A
330
D435
330
D440
330
D44B
330
D456
330
D461
330
D46C
330
D477
330
D482
330
D48D
330
D498
330
D4A3
330
D4AE
330
D4B9
330
D4C4
330
D4CF
330
D4DA
330
D4E5
330
D4F0
330
D4FB
330
D506
330
D511
330
D51C
330
D527
330
D532
330
D53D
330
D548
330
D553
330
D55E
330
D569
330
D574
330
D57F
330
D58A
330
D595
330
D5A0
330
D5AB
330
D5B6
330
D5C1
330
D5CC
330
D5D7
330
D5E2
330
D5ED
330
D5F8
330
D603
330
D60E
330
D619
330
D624
330
D62F
330
D63A
330
D645
330
D650
330
D65B
330
D666
330
D671
330
D67C
330
D687
330
D692
330
D69D
330
D6A8
330
D6B3
330
D6BE
330
D6C9
330
D6D4
330
D6DF
330
D6EA
330
D6F5
330
D700
330
D70B
330
D716
330
D721
330
D72C
330
D737
330
D742
330
D74D
330
D758
330
D763
330
D76E
330
D779
330
D784
330
D78F
330
D79A
330
D7A5
330
D7B0
330
D7BB
330
D7C6
330
D7D1
330
D7DC
330
D7E7
330
D7F2
330
D7FD
330
D808
330
D813
330
D81E
330
D829
330
D834
330
D83F
330
D84A
330
D855
330
D860
330
D86B
330
D876
330
D881
330
D88C
330
D897
330
D8A2
330
D8AD
330
D8B8
330
D8C3
330
D8CE
330
D8D9
330
D8E4
330
D8EF
330
D8FA
330
D905
330
D910
330
D91B
330
D926
330
D931
330
D93C
330
D947
330
D952
330
D95D
330
D968
330
D973
330
D97E
330
D989
330
D994
330
D99F
330
D9AA
330
D9B5
330
D9C0
330
D9CB
330
D9D6
330
D9E1
330
D9EC
330
D9F7
330
DA02
330
DA0D
330
DA18
330
DA23
330
DA2E
330
DA39
330
DA44
330
DA4F
330
DA5A
330
DA65
330
DA70
330
DA7B
330
DA86
330
DA91
330
DA9C
330
DAA7
330
DAB2
330
DABD
330
DAC8
330
DAD3
330
DADE
330
DAE9
330
DAF4
330
DAFF
330
DB0A
330
DB15
330
DB20
330
DB2B
330
DB36
330
DB41
330
DB4C
330
DB57
330
DB62
330
DB6D
330
DB78
330
DB83
330
DB8E
330
DB99
330
DBA4
330
DBAF
330
DBBA
330
DBC5
330
DBD0
330
DBDB
330
DBE6
330
DBF1
330
DBFC
330
DC07
330
DC12
330
DC1D
330
DC28
330
DC33
330
DC3E
330
DC49
330
DC54
330
DC5F
330
DC6A
330
DC75
330
DC80
330
DC8B
330
DC96
330
DCA1
330
DCAC
330
DCB7
330
DCC2
330
DCCD
330
DCD8
330
DCE3
330
DCEE
330
DCF9
330
DD04
330
DD0F
330
DD1A
330
DD25
330
DD30
330
DD3B
330
DD46
330
DD51
330
DD5C
330
DD67
330
DD72
330
DD7D
330
DD88
330
DD93
330
DD9E
330
DDA9
330
DDB4
330
DDBF
330
DDCA
330
DDD5
330
DDE0
330
DDEB
330
DDF6
330
DE01
330
DE0C
330
DE17
330
DE22
330
DE2D
330
DE38
330
DE43
330
DE4E
330
DE59
330
DE64
330
DE6F
330
DE7A
330
DE85
330
DE90
330
DE9B
330
DEA6
330
DEB1
330
DEBC
330
DEC7
330
DED2
330
DEDD
330
DEE8
330
DEF3
330
DEFE
330
DF09
330
DF14
330
DF1F
330
DF2A
330
DF35
330
DF40
330
DF4B
330
DF56
330
DF61
330
DF6C
330
DF77
330
DF82
330
DF8D
330
DF98
330
DFA3
330
DFAE
330
DFB9
330
DFC4
330
DFCF
330
DFDA
330
DFE5
330
DFF0
330
DFFB
330
E006
330
E011
330
E01C
330
E027
330
E032
330
E03D
330
E048
330
E053
330
E05E
330
E069
330
E074
330
E07F
330
E08A
330
E095
330
E0A0
330
E0AB
330
E0B6
330
E0C1
330
E0CC
330
E0D7
330
E0E2
330
E0ED
330
E0F8
330
E103
330
E10E
330
E119
330
E124
330
E12F
330
E13A
330
E145
330
E150
330
E15B
330
E166
330
E171
330
E17C
330
E187
330
E192
330
E19D
330
E1A8
330
E1B3
330
E1BE
330
E1C9
330
E1D4
330
E1DF
330
E1EA
330
E1F5
330
E200
330
E20B
330
E216
330
E221
330
E22C
330
E237
330
E242
330
E24D
330
E258
330
E263
330
E26E
330
E279
330
E284
330
E28F
330
E29A
330
E2A5
330
E2B0
330
E2BB
330
E2C6
330
E2D1
330
E2DC
330
E2E7
330
E2F2
330
E2FD
330
E308
330
E313
330
E31E
330
E329
330
E334
330
E33F
330
E34A
330
E355
330
E360
330
E36B
330
E376
330
E381
330
E38C
330
E397
330
E3A2
330
E3AD
330
E3B8
330
E3C3
330
E3CE
330
E3D9
330
E3E4
330
E3EF
330
E3FA
330
E405
330
E410
330
E41B
330
E426
330
E431
330
E43C
330
E447
330
E452
330
E45D
330
E468
330
E473
330
E47E
330
E489
330
E494
330
E49F
330
E4AA
330
E4B5
330
E4C0
330
E4CB
330
E4D6
330
E4E1
330
E4EC
330
E4F7
330
E502
330
E50D
330
E518
330
E523
330
E52E
330
E539
330
E544
330
E54F
330
E55A
330
E565
330
E570
330
E57B
330
E586
330
E591
330
E59C
330
E5A7
330
E5B2
330
E5BD
330
E5C8
330
E5D3
330
E5DE
330
E5E9
330
E5F4
330
E5FF
330
E60A
330
E615
330
E620
330
E62B
330
E636
330
E641
330
E64C
330
E657
330
E662
330
E66D
330
E678
330
E683
330
E68E
330
E699
330
E6A4
330
E6AF
330
E6BA
330
E6C5
330
E6D0
330
E6DB
330
E6E6
330
E6F1
330
E6FC
330
E707
330
E712
330
E71D
330
E728
330
E733
330
E73E
330
E749
330
E754
330
E75F
330
E76A
330
E775
330
E780
330
E78B
330
E796
330
E7A1
330
E7AC
330
E7B7
330
E7C2
330
E7CD
330
E7D8
330
E7E3
330
E7EE
330
E7F9
330
E804
330
E80F
330
E81A
330
E825
330
E830
330
E83B
330
E846
330
E851
330
E85C
330
E867
330
E872
330
E87D
330
E888
330
E893
330
E89E
330
E8A9
330
E8B4
330
E8BF
330
E8CA
330
E8D5
330
E8E0
330
E8EB
330
E8F6
330
E901
330
E90C
330
E917
330
E922
330
E92D
330
E938
330
E943
330
E94E
330
E959
330
E964
330
E96F
330
E97A
330
E985
330
E990
330
E99B
330
E9A6
330
E9B1
330
E9BC
330
E9C7
330
E9D2
330
E9DD
330
E9E8
330
E9F3
330
E9FE
330
EA09
330
EA14
330
EA1F
330
EA2A
330
EA35
330
EA40
330
EA4B
330
EA56
330
EA61
330
EA6C
330
EA77
330
EA82
330
EA8D
330
EA98
330
EAA3
330
EAAE
330
EAB9
330
EAC4
330
EACF
330
EADA
330
EAE5
330
EAF0
330
EAFB
330
EB06
330
EB11
330
EB1C
330
EB27
330
EB32
330
EB3D
330
EB48
330
EB53
330
EB5E
330
EB69
330
EB74
330
EB7F
330
EB8A
330
EB95
330
EBA0
330
EBAB
330
EBB6
330
EBC1
330
EBCC
330
EBD7
330
EBE2
330
EBED
330
EBF8
330
EC03
330
EC0E
330
EC19
330
EC24
330
EC2F
330
EC3A
330
EC45
330
EC50
330
EC5B
330
EC66
330
EC71
330
EC7C
330
EC87
330
EC92
330
EC9D
330
ECA8
330
ECB3
330
ECBE
330
ECC9
330
ECD4
330
ECDF
330
ECEA
330
ECF5
330
ED00
330
ED0B
330
ED16
330
ED21
330
ED2C
330
ED37
330
ED42
330
ED4D
330
ED58
330
ED63
330
ED6E
330
ED79
330
ED84
330
ED8F
330
ED9A
330
EDA5
330
EDB0
330
EDBB
330
EDC6
330
EDD1
330
EDDC
330
EDE7
330
EDF2
330
EDFD
330
EE08
330
EE13
330
EE1E
330
EE29
330
EE34
330
EE3F
330
EE4A
330
EE55
330
EE60
330
EE6B
330
EE73
330
EE7B
330
EE83
330
EE8B
330
EE93
330
EE9B
330
EEA3
330
EEAB
330
EEB3
330
EEBB
330
EEC3
330
EECB
330
EED3
330
EEDB
330
EEE3
330
EEEB
330
EEF3
330
EEFB
330
EF03
330
EF0B
330
EF13
330
EF1B
330
EF23
330
EF2B
330
EF33
330
EF3B
330
EF43
330
EF4B
330
EF53
330
EF5B
330
EF63
330
EF6B
330
EF73
330
EF7B
330
EF83
330
EF8B
330
EF93
330
EF9B
330
EFA3
330
EFAB
330
EFB3
330
EFBB
330
EFC3
330
EFCB
330
EFD3
330
EFDB
330
EFE3
330
EFEB
330
EFF3
330
EFFB
330
F003
330
F00B
330
F013
330
F01B
330
F023
330
F02B
330
F033
330
F03B
330
F043
330
F04B
330
F053
330
F05B
330
F063
330
F06B
330
F073
330
F07B
330
F083
330
F08B
330
F093
330
F09B
330
F0A3
330
F0AB
330
F0B3
330
F0BB
330
F0C3
330
F0CB
330
F0D3
330
F0DB
330
F0E3
330
F0EB
330
F0F3
330
F0FB
330
F103
330
F10B
330
F113
330
F11B
330
F123
330
F12B
330
F133
330
F13B
330
F143
330
F14B
330
F153
330
F15B
330
F163
330
F16B
330
F173
330
F17B
330
F183
330
F18B
330
F193
330
F19B
330
F1A3
330
F1AB
330
F1B3
330
F1BB
330
F1C3
330
F1CB
330
F1D3
330
F1DB
330
F1E3
330
F1EB
330
F1F3
330
F1FB
330
F203
330
F20B
330
F213
330
F21B
330
F223
330
F22B
330
F233
330
F23B
330
F243
330
F24B
330
F253
330
F25B
330
F263
330
F26B
330
F273
330
F27B
330
F283
330
F28B
330
F293
330
F29B
330
F2A3
330
F2AB
330
F2B3
330
F2BB
330
F2C3
330
F2CB
330
F2D3
330
F2DB
330
F2E3
330
F2EB
330
F2F3
330
F2FB
330
F303
330
F30B
330
F313
330
F31B
330
F323
330
F32B
330
F333
330
F33B
330
F343
330
F34B
330
F353
330
F35B
330
F363
330
F36B
330
F373
330
F37B
330
F383
330
F38B
330
F393
330
F39B
330
F3A3
330
F3AB
330
F3B3
330
F3BB
330
F3C3
330
F3CB
330
F3D3
330
F3DB
330
F3E3
330
F3EB
330
F3F3
330
F3FB
330
F403
330
F40B
330
F413
330
F41B
330
F423
330
F42B
330
F433
330
F43B
330
F443
330
F44B
330
F453
330
F45B
330
F463
330
F46B
330
F473
330
F47B
330
F483
330
F48B
330
F493
330
F49B
330
F4A3
330
F4AB
330
F4B3
330
F4BB
330
F4BF
330
F4C7
330
F4CB
330
F4D3
330
F4D7
330
F4DF
330
F4E3
330
F4EB
330
F4EF
330
12622
330
12623
330
12634
330
12635
330
12646
330
12647
330
126C4
330
126C5
330
126A0
330
126A1
330
1268E
330
1268F
330
1267C
330
1267D
330
12658
330
12659
330
1266A
330
1266B
330
126D6
330
126D7
330
126E8
330
126E9
  0
XRECORD
  5
3FB7
102
{ACAD_REACTORS
330
3F96
102
}
330
3F96
100
AcDbXrecord
280
     1
 91
        3
330
0
 90
        8
 62
     7
370
    40
331
16
  1
Color_7
330
0
 90
        0
 62
    14
370
    -3
331
16
  1
Color_14
330
0
 90
        8
 62
     7
370
    20
331
16
  1
Color_7
330
6D1
 90
        0
 62
     7
370
    -3
331
16
  1
Color_7
330
0
 90
        8
 62
     7
370
    50
331
16
  1
Color_7
330
0
 90
        8
 62
     2
370
    35
331
16
  1
Color_2
330
0
 90
        8
 62
     7
370
    -3
331
16
  1
Color_7
330
10
 90
        8
 62
     7
370
    -3
331
16
  1
Color_7
  0
DICTIONARY
  5
12C4A
330
22
100
AcDbDictionary
280
     1
281
     1
  3
ACAD_XREC_ROUNDTRIP
360
12C4B
  0
DICTIONARY
  5
12C48
330
1E
100
AcDbDictionary
280
     1
281
     1
  3
ACAD_XREC_ROUNDTRIP
360
12C49
  0
DICTIONARY
  5
12C4C
330
26
100
AcDbDictionary
280
     1
281
     1
  3
ACAD_XREC_ROUNDTRIP
360
12C4D
  0
DICTIONARY
  5
127BB
330
B0EF
100
AcDbDictionary
280
     1
281
     1
  3
ACAD_XREC_ROUNDTRIP
360
127BC
  0
DICTIONARY
  5
127B9
330
B0EE
100
AcDbDictionary
280
     1
281
     1
  3
ACAD_XREC_ROUNDTRIP
360
127BA
  0
DICTIONARY
  5
127BD
330
B0F0
100
AcDbDictionary
280
     1
281
     1
  3
ACAD_XREC_ROUNDTRIP
360
127BE
  0
DICTIONARY
  5
B5B5
330
AABA
100
AcDbDictionary
280
     1
281
     1
  3
ACAD_ROUNDTRIP_2008_TABLESTYLE_CELLSTYLEMAP
360
127AD
  3
ACAD_XREC_ROUNDTRIP
360
12C4E
  0
XRECORD
  5
12C4B
102
{ACAD_REACTORS
330
12C4A
102
}
330
12C4A
100
AcDbXrecord
280
     1
102
SHADEPLOT
 70
     0
102
SHADEPLOTRESLEVEL
 70
     2
102
SHADEPLOTCUSTOMDPI
 70
   200
  0
XRECORD
  5
12C49
102
{ACAD_REACTORS
330
12C48
102
}
330
12C48
100
AcDbXrecord
280
     1
102
SHADEPLOT
 70
     0
102
SHADEPLOTRESLEVEL
 70
     2
102
SHADEPLOTCUSTOMDPI
 70
   300
  0
XRECORD
  5
12C4D
102
{ACAD_REACTORS
330
12C4C
102
}
330
12C4C
100
AcDbXrecord
280
     1
102
SHADEPLOT
 70
     0
102
SHADEPLOTRESLEVEL
 70
     2
102
SHADEPLOTCUSTOMDPI
 70
   300
  0
XRECORD
  5
127BC
102
{ACAD_REACTORS
330
127BB
102
}
330
127BB
100
AcDbXrecord
280
     1
102
MATERIAL
148
0.0
149
0.0
149
0.0
 93
        0
 94
       63
282
     0
 72
     1
 77
     1
171
     1
175
     1
179
     1
273
     0
  0
XRECORD
  5
127BA
102
{ACAD_REACTORS
330
127B9
102
}
330
127B9
100
AcDbXrecord
280
     1
102
MATERIAL
148
0.0
149
0.0
149
0.0
 93
        0
 94
       63
282
     0
 72
     1
 77
     1
171
     1
175
     1
179
     1
273
     0
  0
XRECORD
  5
127BE
102
{ACAD_REACTORS
330
127BD
102
}
330
127BD
100
AcDbXrecord
280
     1
102
MATERIAL
148
0.0
149
0.0
149
0.0
 93
        0
 94
       63
282
     0
 72
     1
 77
     1
171
     1
175
     1
179
     1
273
     0
  0
CELLSTYLEMAP
  5
127AD
102
{ACAD_REACTORS
330
B5B5
102
}
330
B5B5
100
AcDbCellStyleMap
 90
        3
300
CELLSTYLE
  1
TABLEFORMAT_BEGIN
 90
        5
170
     1
 91
        0
 92
    32768
 62
   257
 93
        1
300
CONTENTFORMAT
  1
CONTENTFORMAT_BEGIN
 90
        0
 91
        0
 92
        4
 93
        0
300

 40
0.0
140
1.0
 94
        5
 62
     0
340
11
144
6.0
309
CONTENTFORMAT_END
171
     1
301
MARGIN
  1
CELLMARGIN_BEGIN
 40
1.5
 40
1.5
 40
1.5
 40
1.5
 40
0.18
 40
0.18
309
CELLMARGIN_END
 94
        6
 95
        1
302
GRIDFORMAT
  1
GRIDFORMAT_BEGIN
 90
        0
 91
        1
 62
     0
 92
       -2
340
0
 93
        0
 40
0.045
309
GRIDFORMAT_END
 95
        2
302
GRIDFORMAT
  1
GRIDFORMAT_BEGIN
 90
        0
 91
        1
 62
     0
 92
       -2
340
0
 93
        0
 40
0.045
309
GRIDFORMAT_END
 95
        4
302
GRIDFORMAT
  1
GRIDFORMAT_BEGIN
 90
        0
 91
        1
 62
     0
 92
       -2
340
0
 93
        0
 40
0.045
309
GRIDFORMAT_END
 95
        8
302
GRIDFORMAT
  1
GRIDFORMAT_BEGIN
 90
        0
 91
        1
 62
     0
 92
       -2
340
0
 93
        0
 40
0.045
309
GRIDFORMAT_END
 95
       16
302
GRIDFORMAT
  1
GRIDFORMAT_BEGIN
 90
        0
 91
        1
 62
     0
 92
       -2
340
0
 93
        0
 40
0.045
309
GRIDFORMAT_END
 95
       32
302
GRIDFORMAT
  1
GRIDFORMAT_BEGIN
 90
        0
 91
        1
 62
     0
 92
       -2
340
0
 93
        0
 40
0.045
309
GRIDFORMAT_END
309
TABLEFORMAT_END
  1
CELLSTYLE_BEGIN
 90
        1
 91
        1
300
_TITLE
309
CELLSTYLE_END
300
CELLSTYLE
  1
TABLEFORMAT_BEGIN
 90
        5
170
     1
 91
        0
 92
        0
 62
   257
 93
        1
300
CONTENTFORMAT
  1
CONTENTFORMAT_BEGIN
 90
        0
 91
        0
 92
        4
 93
        0
300

 40
0.0
140
1.0
 94
        5
 62
     0
340
11
144
4.5
309
CONTENTFORMAT_END
171
     1
301
MARGIN
  1
CELLMARGIN_BEGIN
 40
1.5
 40
1.5
 40
1.5
 40
1.5
 40
0.18
 40
0.18
309
CELLMARGIN_END
 94
        6
 95
        1
302
GRIDFORMAT
  1
GRIDFORMAT_BEGIN
 90
        0
 91
        1
 62
     0
 92
       -2
340
0
 93
        0
 40
0.045
309
GRIDFORMAT_END
 95
        2
302
GRIDFORMAT
  1
GRIDFORMAT_BEGIN
 90
        0
 91
        1
 62
     0
 92
       -2
340
0
 93
        0
 40
0.045
309
GRIDFORMAT_END
 95
        4
302
GRIDFORMAT
  1
GRIDFORMAT_BEGIN
 90
        0
 91
        1
 62
     0
 92
       -2
340
0
 93
        0
 40
0.045
309
GRIDFORMAT_END
 95
        8
302
GRIDFORMAT
  1
GRIDFORMAT_BEGIN
 90
        0
 91
        1
 62
     0
 92
       -2
340
0
 93
        0
 40
0.045
309
GRIDFORMAT_END
 95
       16
302
GRIDFORMAT
  1
GRIDFORMAT_BEGIN
 90
        0
 91
        1
 62
     0
 92
       -2
340
0
 93
        0
 40
0.045
309
GRIDFORMAT_END
 95
       32
302
GRIDFORMAT
  1
GRIDFORMAT_BEGIN
 90
        0
 91
        1
 62
     0
 92
       -2
340
0
 93
        0
 40
0.045
309
GRIDFORMAT_END
309
TABLEFORMAT_END
  1
CELLSTYLE_BEGIN
 90
        2
 91
        1
300
_HEADER
309
CELLSTYLE_END
300
CELLSTYLE
  1
TABLEFORMAT_BEGIN
 90
        5
170
     1
 91
        0
 92
        0
 62
   257
 93
        1
300
CONTENTFORMAT
  1
CONTENTFORMAT_BEGIN
 90
        0
 91
        0
 92
        4
 93
        0
300

 40
0.0
140
1.0
 94
        2
 62
     0
340
11
144
4.5
309
CONTENTFORMAT_END
171
     1
301
MARGIN
  1
CELLMARGIN_BEGIN
 40
1.5
 40
1.5
 40
1.5
 40
1.5
 40
0.18
 40
0.18
309
CELLMARGIN_END
 94
        6
 95
        1
302
GRIDFORMAT
  1
GRIDFORMAT_BEGIN
 90
        0
 91
        1
 62
     0
 92
       -2
340
0
 93
        0
 40
0.045
309
GRIDFORMAT_END
 95
        2
302
GRIDFORMAT
  1
GRIDFORMAT_BEGIN
 90
        0
 91
        1
 62
     0
 92
       -2
340
0
 93
        0
 40
0.045
309
GRIDFORMAT_END
 95
        4
302
GRIDFORMAT
  1
GRIDFORMAT_BEGIN
 90
        0
 91
        1
 62
     0
 92
       -2
340
0
 93
        0
 40
0.045
309
GRIDFORMAT_END
 95
        8
302
GRIDFORMAT
  1
GRIDFORMAT_BEGIN
 90
        0
 91
        1
 62
     0
 92
       -2
340
0
 93
        0
 40
0.045
309
GRIDFORMAT_END
 95
       16
302
GRIDFORMAT
  1
GRIDFORMAT_BEGIN
 90
        0
 91
        1
 62
     0
 92
       -2
340
0
 93
        0
 40
0.045
309
GRIDFORMAT_END
 95
       32
302
GRIDFORMAT
  1
GRIDFORMAT_BEGIN
 90
        0
 91
        1
 62
     0
 92
       -2
340
0
 93
        0
 40
0.045
309
GRIDFORMAT_END
309
TABLEFORMAT_END
  1
CELLSTYLE_BEGIN
 90
        3
 91
        2
300
_DATA
309
CELLSTYLE_END
1001
ACAD
1001
ACAD
1001
ACAD
1000
AcRTDxfName
1000
CELLSTYLEMAP
  0
XRECORD
  5
12C4E
102
{ACAD_REACTORS
330
B5B5
102
}
330
B5B5
100
AcDbXrecord
280
     1
102
ACAD_ROUNDTRIP_PRE2007_TABLESTYLE
 90
        4
 91
        0
  1

 92
        4
 93
        0
  2

 94
        4
 95
        0
  3

  0
ENDSEC
  0
EOF
