  0
SECTION
  2
HEADER
  9
$ACADVER
  1
AC1015
  9
$ACADMAINTVER
 70
    20
  9
$DWGCODEPAGE
  3
ANSI_932
  9
$INSBASE
 10
0.0
 20
0.0
 30
0.0
  9
$EXTMIN
 10
-0.0512671842573127
 20
-0.0646391642208073
 30
-0.0000000349181948
  9
$EXTMAX
 10
840.051275007606
 20
594.0236675444484
 30
0.0000000814935747
  9
$LIMMIN
 10
0.0000000000000285
 20
465.112710942024
  9
$LIMMAX
 10
840.0
 20
1059.112710942024
  9
$ORTHOMODE
 70
     0
  9
$REGENMODE
 70
     1
  9
$FILLMODE
 70
     1
  9
$QTEXTMODE
 70
     0
  9
$MIRRTEXT
 70
     0
  9
$LTSCALE
 40
2.0
  9
$ATTMODE
 70
     1
  9
$TEXTSIZE
 40
3.2
  9
$TRACEWID
 40
1.0
  9
$TEXTSTYLE
  7
STANDARD
  9
$CLAYER
  8
AM_0
  9
$CELTYPE
  6
ByLayer
  9
$CECOLOR
 62
   256
  9
$CELTSCALE
 40
1.0
  9
$DISPSILH
 70
     0
  9
$DIMSCALE
 40
1.0
  9
$DIMASZ
 40
1.0
  9
$DIMEXO
 40
1.0
  9
$DIMDLI
 40
10.0
  9
$DIMRND
 40
0.0
  9
$DIMDLE
 40
0.0
  9
$DIMEXE
 40
1.0
  9
$DIMTP
 40
0.1
  9
$DIMTM
 40
0.1
  9
$DIMTXT
 40
3.5
  9
$DIMCEN
 40
0.0
  9
$DIMTSZ
 40
0.0
  9
$DIMTOL
 70
     0
  9
$DIMLIM
 70
     0
  9
$DIMTIH
 70
     0
  9
$DIMTOH
 70
     0
  9
$DIMSE1
 70
     0
  9
$DIMSE2
 70
     0
  9
$DIMTAD
 70
     1
  9
$DIMZIN
 70
     8
  9
$DIMBLK
  1

  9
$DIMASO
 70
     1
  9
$DIMSHO
 70
     1
  9
$DIMPOST
  1

  9
$DIMAPOST
  1
"
  9
$DIMALT
 70
     0
  9
$DIMALTD
 70
     2
  9
$DIMALTF
 40
0.0393701
  9
$DIMLFAC
 40
1.0
  9
$DIMTOFL
 70
     1
  9
$DIMTVP
 40
0.0
  9
$DIMTIX
 70
     0
  9
$DIMSOXD
 70
     0
  9
$DIMSAH
 70
     0
  9
$DIMBLK1
  1

  9
$DIMBLK2
  1

  9
$DIMSTYLE
  2
SYS
  9
$DIMCLRD
 70
   256
  9
$DIMCLRE
 70
   256
  9
$DIMCLRT
 70
     7
  9
$DIMTFAC
 40
0.71
  9
$DIMGAP
 40
1.5
  9
$DIMJUST
 70
     0
  9
$DIMSD1
 70
     0
  9
$DIMSD2
 70
     0
  9
$DIMTOLJ
 70
     0
  9
$DIMTZIN
 70
     8
  9
$DIMALTZ
 70
     0
  9
$DIMALTTZ
 70
     0
  9
$DIMUPT
 70
     0
  9
$DIMDEC
 70
     2
  9
$DIMTDEC
 70
     2
  9
$DIMALTU
 70
     2
  9
$DIMALTTD
 70
     2
  9
$DIMTXSTY
  7
STANDARD
  9
$DIMAUNIT
 70
     0
  9
$DIMADEC
 70
     0
  9
$DIMALTRND
 40
0.0
  9
$DIMAZIN
 70
     2
  9
$DIMDSEP
 70
    46
  9
$DIMATFIT
 70
     3
  9
$DIMFRAC
 70
     0
  9
$DIMLDRBLK
  1

  9
$DIMLUNIT
 70
     2
  9
$DIMLWD
 70
    -1
  9
$DIMLWE
 70
    -1
  9
$DIMTMOVE
 70
     0
  9
$LUNITS
 70
     2
  9
$LUPREC
 70
     2
  9
$SKETCHINC
 40
1.0
  9
$FILLETRAD
 40
0.0
  9
$AUNITS
 70
     0
  9
$AUPREC
 70
     0
  9
$MENU
  1
.
  9
$ELEVATION
 40
0.0
  9
$PELEVATION
 40
0.0
  9
$THICKNESS
 40
0.0
  9
$LIMCHECK
 70
     0
  9
$CHAMFERA
 40
0.0
  9
$CHAMFERB
 40
0.0
  9
$CHAMFERC
 40
20.0
  9
$CHAMFERD
 40
0.0
  9
$SKPOLY
 70
     0
  9
$TDCREATE
 40
2456066.693646007
  9
$TDUCREATE
 40
2456066.318646007
  9
$TDUPDATE
 40
2456314.561735567
  9
$TDUUPDATE
 40
2456314.186735567
  9
$TDINDWG
 40
0.1217257870
  9
$TDUSRTIMER
 40
0.1217218171
  9
$USRTIMER
 70
     1
  9
$ANGBASE
 50
0.0
  9
$ANGDIR
 70
     0
  9
$PDMODE
 70
     0
  9
$PDSIZE
 40
-3.0
  9
$PLINEWID
 40
0.0
  9
$SPLFRAME
 70
     0
  9
$SPLINETYPE
 70
     6
  9
$SPLINESEGS
 70
     8
  9
$HANDSEED
  5
13B4F
  9
$SURFTAB1
 70
     6
  9
$SURFTAB2
 70
     6
  9
$SURFTYPE
 70
     6
  9
$SURFU
 70
     6
  9
$SURFV
 70
     6
  9
$UCSBASE
  2

  9
$UCSNAME
  2

  9
$UCSORG
 10
0.0
 20
0.0
 30
0.0
  9
$UCSXDIR
 10
1.0
 20
0.0
 30
0.0
  9
$UCSYDIR
 10
0.0
 20
1.0
 30
0.0
  9
$UCSORTHOREF
  2

  9
$UCSORTHOVIEW
 70
     0
  9
$UCSORGTOP
 10
0.0
 20
0.0
 30
0.0
  9
$UCSORGBOTTOM
 10
0.0
 20
0.0
 30
0.0
  9
$UCSORGLEFT
 10
0.0
 20
0.0
 30
0.0
  9
$UCSORGRIGHT
 10
0.0
 20
0.0
 30
0.0
  9
$UCSORGFRONT
 10
0.0
 20
0.0
 30
0.0
  9
$UCSORGBACK
 10
0.0
 20
0.0
 30
0.0
  9
$PUCSBASE
  2

  9
$PUCSNAME
  2

  9
$PUCSORG
 10
0.0
 20
0.0
 30
0.0
  9
$PUCSXDIR
 10
1.0
 20
0.0
 30
0.0
  9
$PUCSYDIR
 10
0.0
 20
1.0
 30
0.0
  9
$PUCSORTHOREF
  2

  9
$PUCSORTHOVIEW
 70
     0
  9
$PUCSORGTOP
 10
0.0
 20
0.0
 30
0.0
  9
$PUCSORGBOTTOM
 10
0.0
 20
0.0
 30
0.0
  9
$PUCSORGLEFT
 10
0.0
 20
0.0
 30
0.0
  9
$PUCSORGRIGHT
 10
0.0
 20
0.0
 30
0.0
  9
$PUCSORGFRONT
 10
0.0
 20
0.0
 30
0.0
  9
$PUCSORGBACK
 10
0.0
 20
0.0
 30
0.0
  9
$USERI1
 70
     0
  9
$USERI2
 70
     0
  9
$USERI3
 70
     0
  9
$USERI4
 70
     0
  9
$USERI5
 70
     0
  9
$USERR1
 40
0.0
  9
$USERR2
 40
0.0
  9
$USERR3
 40
0.0
  9
$USERR4
 40
0.0
  9
$USERR5
 40
0.0
  9
$WORLDVIEW
 70
     1
  9
$SHADEDGE
 70
     3
  9
$SHADEDIF
 70
    70
  9
$TILEMODE
 70
     1
  9
$MAXACTVP
 70
    64
  9
$PINSBASE
 10
0.0
 20
0.0
 30
0.0
  9
$PLIMCHECK
 70
     0
  9
$PEXTMIN
 10
1.000000000000000E+20
 20
1.000000000000000E+20
 30
1.000000000000000E+20
  9
$PEXTMAX
 10
-1.000000000000000E+20
 20
-1.000000000000000E+20
 30
-1.000000000000000E+20
  9
$PLIMMIN
 10
-3.17498779296875
 20
-3.174999952316282
  9
$PLIMMAX
 10
293.4970092773438
 20
206.692492723465
  9
$UNITMODE
 70
     0
  9
$VISRETAIN
 70
     1
  9
$PLINEGEN
 70
     0
  9
$PSLTSCALE
 70
     1
  9
$TREEDEPTH
 70
  3020
  9
$CMLSTYLE
  2
Standard
  9
$CMLJUST
 70
     0
  9
$CMLSCALE
 40
20.0
  9
$PROXYGRAPHICS
 70
     1
  9
$MEASUREMENT
 70
     1
  9
$CELWEIGHT
370
    -1
  9
$ENDCAPS
280
     0
  9
$JOINSTYLE
280
     0
  9
$LWDISPLAY
290
     1
  9
$INSUNITS
 70
     4
  9
$HYPERLINKBASE
  1

  9
$STYLESHEET
  1
MONOCHROME.CTB
  9
$XEDIT
290
     1
  9
$CEPSNTYPE
380
     0
  9
$PSTYLEMODE
290
     1
  9
$FINGERPRINTGUID
  2
{5A4E5334-5A04-40F7-B949-147BF1F28F72}
  9
$VERSIONGUID
  2
{A2F199EB-361E-43CC-8B21-9E9391B61288}
  9
$EXTNAMES
290
     1
  9
$PSVPSCALE
 40
0.0
  9
$OLESTARTUP
290
     0
  0
ENDSEC
  0
SECTION
  2
CLASSES
  0
CLASS
  1
ACDBDICTIONARYWDFLT
  2
AcDbDictionaryWithDefault
  3
ObjectDBX Classes
 90
        0
280
     0
281
     0
  0
CLASS
  1
ACDBPLACEHOLDER
  2
AcDbPlaceHolder
  3
ObjectDBX Classes
 90
        0
280
     0
281
     0
  0
CLASS
  1
LAYOUT
  2
AcDbLayout
  3
ObjectDBX Classes
 90
        0
280
     0
281
     0
  0
CLASS
  1
AMGSETTINGSOBJ
  2
AmgSettingsObj
  3
"AcadM|Product Description: AutoCAD Mechanical|Company: Autodesk"
 90
        0
280
     0
281
     0
  0
CLASS
  1
ACME_DOCUMENT
  2
AcMeDbDoc
  3
AcMeServices
 90
        0
280
     0
281
     0
  0
CLASS
  1
ACMESCOPE
  2
AcMeScope
  3
AcMeServices
 90
        0
280
     0
281
     0
  0
CLASS
  1
ACMECOMMANDHISTORY
  2
AcMeCommandHistory
  3
AcMeServices
 90
        0
280
     0
281
     0
  0
CLASS
  1
DICTIONARYVAR
  2
AcDbDictionaryVar
  3
ObjectDBX Classes
 90
        0
280
     0
281
     0
  0
CLASS
  1
ACIMSYSVARMAN
  2
AcImSysVarManager
  3
AcMeServices
 90
        0
280
     0
281
     0
  0
CLASS
  1
ACIMREALSYSVAR
  2
AcImRealSysVar
  3
AcMeServices
 90
        0
280
     0
281
     0
  0
CLASS
  1
ACIMINTSYSVAR
  2
AcImIntSysVar
  3
AcMeServices
 90
        0
280
     0
281
     0
  0
CLASS
  1
ACMEDRAWINGMAN
  2
AcMeDrawingMan
  3
AcMeServices
 90
        0
280
     0
281
     0
  0
CLASS
  1
ACMEVIEW
  2
AcMeView
  3
AcMeServices
 90
        0
280
     0
281
     0
  0
CLASS
  1
ACDBENTITYCACHE
  2
AcMeEntityCache
  3
AcMeServices
 90
        0
280
     0
281
     0
  0
CLASS
  1
GSMANAGER
  2
AcMeGSManager
  3
AcMeServices
 90
        0
280
     0
281
     0
  0
CLASS
  1
AMDTINTERNALREACTOR
  2
AmdtInternalReactor
  3
AcMeServices
 90
        0
280
     0
281
     0
  0
CLASS
  1
ACMESTATEMGR
  2
AcMeStateMgr
  3
AcMeServices
 90
        0
280
     0
281
     0
  0
CLASS
  1
ACGREFMASTER
  2
AcGrefMaster
  3
AcAttribServices
 90
        0
280
     0
281
     0
  0
CLASS
  1
ACME_DATABASE
  2
AcMeDbDatabase
  3
AcMeServices
 90
        0
280
     0
281
     0
  0
CLASS
  1
ACRFINSADJUSTERMGR
  2
AcRfInsAdjusterMgr
  3
AcMeServices
 90
        0
280
     0
281
     0
  0
CLASS
  1
ACGREFACADMASTER
  2
AcGrefacadMaster
  3
AcGrefServices
 90
        0
280
     0
281
     0
  0
CLASS
  1
AMIMASTER
  2
AmiMaster
  3
AmiServices
 90
        0
280
     0
281
     0
  0
CLASS
  1
ACMDATADICTIONARY
  2
AcmDataDictionary
  3
"AcmSymBB|Product Description: AutoCAD Mechanical|Company: Autodesk"
 90
        0
280
     0
281
     0
  0
CLASS
  1
ACMDATAENTRYBLOCK
  2
AcmDataEntryBlock
  3
"AcmSymBB|Product Description: AutoCAD Mechanical|Company: Autodesk"
 90
    32768
280
     0
281
     0
  0
CLASS
  1
ACIMSTRSYSVAR
  2
AcImStrSysVar
  3
AcMeServices
 90
        0
280
     0
281
     0
  0
CLASS
  1
ACMSTANDARDISO
  2
AcmStandardISO
  3
"Amdt_StdImp|Product Description: AutoCAD Mechanical|Company: Autodesk"
 90
        0
280
     0
281
     0
  0
CLASS
  1
AMGOBJPROPCFG
  2
AmgObjPropCfg
  3
"AmgLay|Product Description: AutoCAD Mechanical|Company: Autodesk"
 90
        1
280
     0
281
     0
  0
CLASS
  1
AMDTEDGESTANDARDISO
  2
AmdtEdgeStdISO
  3
"Amdt_StdImp|Product Description: AutoCAD Mechanical|Company: Autodesk"
 90
    32768
280
     0
281
     0
  0
CLASS
  1
ACMSURFSTANDARDISO
  2
AcmSurfTextStdISO
  3
"Amdt_StdImp|Product Description: AutoCAD Mechanical|Company: Autodesk"
 90
        0
280
     0
281
     0
  0
CLASS
  1
ACMFCFSTANDARDISO
  2
AcmFCFStdISO
  3
"Amdt_StdImp|Product Description: AutoCAD Mechanical|Company: Autodesk"
 90
        0
280
     0
281
     0
  0
CLASS
  1
ACMWELDSTANDARDISO
  2
AcmWeldingStdISO
  3
"Amdt_StdImp|Product Description: AutoCAD Mechanical|Company: Autodesk"
 90
        0
280
     0
281
     0
  0
CLASS
  1
ACMIDSTANDARDISO
  2
AcmIdStdISO
  3
"Amdt_StdImp|Product Description: AutoCAD Mechanical|Company: Autodesk"
 90
        0
280
     0
281
     0
  0
CLASS
  1
ACMDATUMSTANDARDISO
  2
AcmDatumStdISO
  3
"Amdt_StdImp|Product Description: AutoCAD Mechanical|Company: Autodesk"
 90
        0
280
     0
281
     0
  0
CLASS
  1
ACMBOMSTANDARDISO
  2
AcmBOMStdISO
  3
"Amdt_StdImp|Product Description: AutoCAD Mechanical|Company: Autodesk"
 90
        0
280
     0
281
     0
  0
CLASS
  1
ACMDETAILSTANDARDISO
  2
AmdtDetailSymStdISO
  3
"Amdt_StdImp|Product Description: AutoCAD Mechanical|Company: Autodesk"
 90
        0
280
     0
281
     0
  0
CLASS
  1
ACMSECTIONSTANDARDISO
  2
AmdtSectionSymStdISO
  3
"Amdt_StdImp|Product Description: AutoCAD Mechanical|Company: Autodesk"
 90
        0
280
     0
281
     0
  0
CLASS
  1
ACMCENTERLINESTANDARDISO
  2
AmdtCenterLineStdISO
  3
"Amdt_StdImp|Product Description: AutoCAD Mechanical|Company: Autodesk"
 90
        0
280
     0
281
     0
  0
CLASS
  1
ACAMGLAYSTD
  2
AcAmgLayStd
  3
"AmgLay|Product Description: AutoCAD Mechanical|Company: Autodesk"
 90
        0
280
     0
281
     0
  0
CLASS
  1
ACAMGDIMSTD
  2
AcAmgDimStd
  3
"AmgDim|Product Description: AutoCAD Mechanical|Company: Autodesk"
 90
        0
280
     0
281
     0
  0
CLASS
  1
ACAMGTITLESTD
  2
AcAmgTitleStd
  3
"AmgTitle|Product Description: AutoCAD Mechanical|Company: Autodesk"
 90
        0
280
     0
281
     0
  0
CLASS
  1
ACAMGFILTERDAT
  2
AcAmgFilterDat
  3
"AcadM|Product Description: AutoCAD Mechanical|Company: Autodesk"
 90
    32768
280
     0
281
     0
  0
CLASS
  1
LAYER_INDEX
  2
AcDbLayerIndex
  3
ObjectDBX Classes
 90
    32768
280
     0
281
     0
  0
CLASS
  1
IDBUFFER
  2
AcDbIdBuffer
  3
ObjectDBX Classes
 90
    32768
280
     0
281
     0
  0
CLASS
  1
PLOTSETTINGS
  2
AcDbPlotSettings
  3
ObjectDBX Classes
 90
    32768
280
     0
281
     0
  0
CLASS
  1
AMDTFORMULAUPDATEDISPATCHER
  2
AmdtFormulaUpdateDispatcher
  3
AcMeServices
 90
    32768
280
     0
281
     0
  0
CLASS
  1
ACMSTANDARDANSI
  2
AcmStandardANSI
  3
"Amdt_StdImp|Product Description: AutoCAD Mechanical|Company: Autodesk"
 90
    32768
280
     0
281
     0
  0
CLASS
  1
ACMSURFSTANDARDANSI
  2
AcmSurfTextStdANSI
  3
"Amdt_StdImp|Product Description: AutoCAD Mechanical|Company: Autodesk"
 90
    32768
280
     0
281
     0
  0
CLASS
  1
ACMFCFSTANDARDANSI
  2
AcmFCFStdANSI
  3
"Amdt_StdImp|Product Description: AutoCAD Mechanical|Company: Autodesk"
 90
    32768
280
     0
281
     0
  0
CLASS
  1
ACMWELDSTANDARDANSI
  2
AcmWeldingStdANSI
  3
"Amdt_StdImp|Product Description: AutoCAD Mechanical|Company: Autodesk"
 90
    32768
280
     0
281
     0
  0
CLASS
  1
ACMIDSTANDARDANSI
  2
AcmIdStdANSI
  3
"Amdt_StdImp|Product Description: AutoCAD Mechanical|Company: Autodesk"
 90
    32768
280
     0
281
     0
  0
CLASS
  1
ACMDATUMSTANDARDANSI
  2
AcmDatumStdANSI
  3
"Amdt_StdImp|Product Description: AutoCAD Mechanical|Company: Autodesk"
 90
    32768
280
     0
281
     0
  0
CLASS
  1
ACMBOMSTANDARDANSI
  2
AcmBOMStdANSI
  3
"Amdt_StdImp|Product Description: AutoCAD Mechanical|Company: Autodesk"
 90
    32768
280
     0
281
     0
  0
CLASS
  1
ACMDETAILSTANDARDANSI
  2
AmdtDetailSymStdANSI
  3
"Amdt_StdImp|Product Description: AutoCAD Mechanical|Company: Autodesk"
 90
    32768
280
     0
281
     0
  0
CLASS
  1
ACMSECTIONSTANDARDANSI
  2
AmdtSectionSymStdANSI
  3
"Amdt_StdImp|Product Description: AutoCAD Mechanical|Company: Autodesk"
 90
    32768
280
     0
281
     0
  0
CLASS
  1
ACMCENTERLINESTANDARDANSI
  2
AmdtCenterLineStdANSI
  3
"Amdt_StdImp|Product Description: AutoCAD Mechanical|Company: Autodesk"
 90
    32768
280
     0
281
     0
  0
CLASS
  1
ACMBOM
  2
AcmBom
  3
"AcmSymBB|Product Description: AutoCAD Mechanical|Company: Autodesk"
 90
    32768
280
     0
281
     0
  0
CLASS
  1
ACMDATAENTRYPART
  2
AcmDataEntryPart
  3
"AcmSymBB|Product Description: AutoCAD Mechanical|Company: Autodesk"
 90
    32768
280
     0
281
     0
  0
CLASS
  1
ACMPARTREF
  2
AcmPartRef
  3
"AcmSymBB|Product Description: AutoCAD Mechanical|Company: Autodesk"
 90
    35839
280
     0
281
     1
  0
CLASS
  1
ACDBCIRCARCRES
  2
AcDbCircArcRes
  3
AcGrefServices
 90
    32768
280
     0
281
     0
  0
CLASS
  1
ACMBOMROW
  2
AcmBomRow
  3
"AcmSymBB|Product Description: AutoCAD Mechanical|Company: Autodesk"
 90
    32768
280
     0
281
     0
  0
CLASS
  1
ACMBALLOON
  2
AcmBalloon
  3
"AcmSymBB|Product Description: AutoCAD Mechanical|Company: Autodesk"
 90
    35839
280
     0
281
     1
  0
CLASS
  1
AMDTNOTE
  2
AmdtNote
  3
"AcmSymBB|Product Description: AutoCAD Mechanical|Company: Autodesk"
 90
    35839
280
     0
281
     1
  0
CLASS
  1
STDPART2D
  2
AmgStdPart
  3
"g3vace|Class: AmgStdPart|Product Description: AutoCAD Mechanical|Company: Autodesk"
 90
    35839
280
     0
281
     1
  0
CLASS
  1
ACDBSTDPARTRES_LINE
  2
AcDbStdPartRes_Line
  3
"g3vace|Class: AcDbStdPartRes_Line|Product Description: AutoCAD Mechanical|Company: Autodesk"
 90
    32768
280
     0
281
     0
  0
CLASS
  1
ACMDATAENTRY
  2
AcmDataEntry
  3
"AcmSymBB|Product Description: AutoCAD Mechanical|Company: Autodesk"
 90
    32768
280
     0
281
     0
  0
CLASS
  1
ACDBOPPOLYLINERES
  2
AcDbOpPolylineRes
  3
AcGrefServices
 90
    32768
280
     0
281
     0
  0
CLASS
  1
ACMPARTLIST
  2
AcmPartList
  3
"AcmSymBB|Product Description: AutoCAD Mechanical|Company: Autodesk"
 90
    35839
280
     0
281
     1
  0
CLASS
  1
ACDBLINERES
  2
AcDbLineRes
  3
AcGrefServices
 90
    32768
280
     0
281
     0
  0
CLASS
  1
ACRFINSADJ
  2
AcRfInsAdjuster
  3
AcMeServices
 90
    32768
280
     0
281
     0
  0
CLASS
  1
AM_DRAWING_MGR
  2
AcDmDwgMgr
  3
AcMechDwgViewMgmt
 90
        0
280
     0
281
     0
  0
CLASS
  1
AM_DWG_DOCUMENT
  2
AcDmDwgDocument
  3
AcMechDwgViewMgmt
 90
        0
280
     0
281
     0
  0
CLASS
  1
AM_DWG_SHEET
  2
AcDmSheet
  3
AcMechDwgViewMgmt
 90
        0
280
     0
281
     0
  0
CLASS
  1
AM_VIEWDIMPARMAP
  2
AcDmViewDimParMap
  3
AcMechDwgViewMgmt
 90
        0
280
     0
281
     0
  0
CLASS
  1
AM_DWGMGR_NAME
  2
AcDmDwgMgrName
  3
AcMechDwgViewMgmt
 90
        0
280
     0
281
     0
  0
CLASS
  1
AMDTMENUSTATEMGR
  2
AmdtMenuStateMgr
  3
McadcomServices
 90
        0
280
     0
281
     0
  0
CLASS
  1
AMDTMCOMMENUSTATE
  2
AmdtMcomMenuState
  3
McadcomServices
 90
        0
280
     0
281
     0
  0
CLASS
  1
ASAPP
  2
AcAsAppObject
  3
AutoSurfServices
 90
        0
280
     0
281
     0
  0
CLASS
  1
IM_STATIC_MAN
  2
AcImStaticVarManager
  3
AcMeServices
 90
    32768
280
     0
281
     0
  0
CLASS
  1
ACIMDBLSTATICVAR
  2
AcImDblStaticVar
  3
AcMeServices
 90
    32768
280
     0
281
     0
  0
CLASS
  1
ACIMSTRSTATICVAR
  2
AcImStrStaticVar
  3
AcMeServices
 90
    32768
280
     0
281
     0
  0
CLASS
  1
ACIMINTSTATICVAR
  2
AcImIntStaticVar
  3
AcMeServices
 90
    32768
280
     0
281
     0
  0
CLASS
  1
ACASGREFMASTER
  2
AcAsGrefMaster
  3
AutoSurfResolverServices
 90
        0
280
     0
281
     0
  0
CLASS
  1
ACADGREFMODULE
  2
AcAdGrefModule
  3
AdGrefServices
 90
        0
280
     0
281
     0
  0
CLASS
  1
AMDTMAPISURFMOUDULE
  2
AmdtMApiSurfModule
  3
MApiSurfServices
 90
        0
280
     0
281
     0
  0
CLASS
  1
MAPIAMMOUDLE
  2
MApiAmModule
  3
MApiAmServices
 90
        0
280
     0
281
     0
  0
CLASS
  1
AMDTADMENUSTATE
  2
AmdtAdMenuState
  3
DesignerServices
 90
        0
280
     0
281
     0
  0
CLASS
  1
ADAPPL
  2
AcAdAppl
  3
DesignerServices
 90
        0
280
     0
281
     0
  0
CLASS
  1
DEPMGR
  2
AcAdDepMgr
  3
DesignerServices
 90
        0
280
     0
281
     0
  0
CLASS
  1
PARAMMGR
  2
AcAdParamMgr
  3
DesignerServices
 90
        0
280
     0
281
     0
  0
CLASS
  1
PARAMSCOPE
  2
AcAdParamScope
  3
DesignerServices
 90
        0
280
     0
281
     0
  0
CLASS
  1
NAMEDAPPL
  2
AcAdNamedAppl
  3
DesignerServices
 90
        0
280
     0
281
     0
  0
CLASS
  1
ADHNTMPLT
  2
AdHoleNoteTemplateMgr
  3
DesignerServices
 90
    32768
280
     0
281
     0
  0
CLASS
  1
AM_HNTEMPLATE_MGR_NAME
  2
AdHoleNoteTemplateMgrName
  3
DesignerServices
 90
    32768
280
     0
281
     0
  0
CLASS
  1
AMDTDMMENUSTATE
  2
AmdtDmMenuState
  3
AcMechDwgViewMgmt
 90
        0
280
     0
281
     0
  0
CLASS
  1
MAPIADMODULE
  2
MApiAdModule
  3
MApiAdServices
 90
        0
280
     0
281
     0
  0
CLASS
  1
AMDTAMMENUSTATE
  2
AmdtAmMenuState
  3
DesignerAssemblies
 90
        0
280
     0
281
     0
  0
CLASS
  1
ACAMPROJECT
  2
AcAmProject
  3
DesignerAssemblies
 90
        0
280
     0
281
     0
  0
CLASS
  1
ACAMGRCOMPDEF
  2
AcAmGrCompDef
  3
DesignerAssemblies
 90
        0
280
     0
281
     0
  0
CLASS
  1
ACCMCONTEXT
  2
AcCmContext
  3
DesignerAssemblies
 90
        0
280
     0
281
     0
  0
CLASS
  1
ACAMCOMPDEF
  2
AcAmCompDef
  3
DesignerAssemblies
 90
        0
280
     0
281
     0
  0
CLASS
  1
ACAMCOMPDEFMGR
  2
AcAmCompDefMgr
  3
DesignerAssemblies
 90
        0
280
     0
281
     0
  0
CLASS
  1
AMCONTEXTMGR
  2
AcAmContextMgr
  3
DesignerAssemblies
 90
        0
280
     0
281
     0
  0
CLASS
  1
ACAMCONTEXTMODELER
  2
AcAmContextModeler
  3
DesignerAssemblies
 90
        0
280
     0
281
     0
  0
CLASS
  1
CATALOGSTATE
  2
AcAmCatalogState
  3
DesignerAssemblies
 90
        0
280
     0
281
     0
  0
CLASS
  1
ACAMGRCOMPDEFSET
  2
AcAmGrCompDefSet
  3
DesignerAssemblies
 90
        0
280
     0
281
     0
  0
CLASS
  1
AMDTBROWSERDBTAB
  2
AmdtBrowserDbTab
  3
McadcomServices
 90
        0
280
     0
281
     0
  0
CLASS
  1
CBROWSERAPPOBJECT
  2
CBrowserAppObject
  3
McadcomServices
 90
        0
280
     0
281
     0
  0
CLASS
  1
DM_PLACEHOLDER
  2
AcDmSelsetPlaceholder
  3
AcMechDwgViewMgmt
 90
        0
280
     0
281
     0
  0
CLASS
  1
ACMPICKOBJ
  2
AcmPickEnt
  3
"AcmSymBB|Product Description: AutoCAD Mechanical|Company: Autodesk"
 90
    32768
280
     0
281
     1
  0
CLASS
  1
ACMNOTESTANDARDISO
  2
AmdtNoteStdISO
  3
"Amdt_StdImp|Product Description: AutoCAD Mechanical|Company: Autodesk"
 90
        0
280
     0
281
     0
  0
CLASS
  1
ACMNOTESTANDARDANSI
  2
AmdtNoteStdANSI
  3
"Amdt_StdImp|Product Description: AutoCAD Mechanical|Company: Autodesk"
 90
    32768
280
     0
281
     0
  0
CLASS
  1
ACMTHREADLINESTANDARDISO
  2
AmdtThreadLineStdISO
  3
"Amdt_StdImp|Product Description: AutoCAD Mechanical|Company: Autodesk"
 90
        0
280
     0
281
     0
  0
CLASS
  1
ACMTHREADLINESTANDARDANSI
  2
AmdtThreadLineStdANSI
  3
"Amdt_StdImp|Product Description: AutoCAD Mechanical|Company: Autodesk"
 90
    32768
280
     0
281
     0
  0
CLASS
  1
TABLESTYLE
  2
AcDbTableStyle
  3
ObjectDBX Classes
 90
     4095
280
     0
281
     0
  0
CLASS
  1
SORTENTSTABLE
  2
AcDbSortentsTable
  3
ObjectDBX Classes
 90
        0
280
     0
281
     0
  0
CLASS
  1
MATERIAL
  2
AcDbMaterial
  3
ObjectDBX Classes
 90
     1024
280
     0
281
     0
  0
CLASS
  1
VISUALSTYLE
  2
AcDbVisualStyle
  3
ObjectDBX Classes
 90
     4095
280
     0
281
     0
  0
CLASS
  1
ACRFATTGENMGR
  2
AcRfAttGeneralMgr
  3
AcAttribServices
 90
    32768
280
     0
281
     0
  0
CLASS
  1
ACRFOBJATTMGR
  2
AcRfObjAttGroupMgr
  3
AcAttribServices
 90
    32768
280
     0
281
     0
  0
CLASS
  1
ACRFMCADAPIATTHOLDER
  2
AcRfMCADAPIAttHolder
  3
AcAttribServices
 90
    32768
280
     0
281
     0
  0
CLASS
  1
AMDTSYSATTR
  2
AmdtSystemAttribute
  3
AcAttribServices
 90
    32768
280
     0
281
     0
  0
CLASS
  1
ACMTAPERSTANDARDISO
  2
AcmTaperStdISO
  3
"Amdt_StdImp|Product Description: AutoCAD Mechanical|Company: Autodesk"
 90
        0
280
     0
281
     0
  0
CLASS
  1
CAMSSTRUCTBTNSTATE
  2
StructBtnState
  3
L"DesignerAssemblies"
 90
    32768
280
     0
281
     0
  0
CLASS
  1
DIMASSOC
  2
AcDbDimAssoc
  3
"AcDbDimAssoc|Product Desc:     AcDim ARX App For Dimension|Company:          Autodesk, Inc.|WEB Address:      www.autodesk.com"
 90
    32768
280
     0
281
     0
  0
CLASS
  1
AMDTNOTETEMPLATEDB
  2
AmdtNoteTemplateDB
  3
AMDT_STDIMP_MODULE_NAME
 90
        0
280
     0
281
     0
  0
CLASS
  1
SCALE
  2
AcDbScale
  3
ObjectDBX Classes
 90
     1153
280
     0
281
     0
  0
CLASS
  1
MLEADERSTYLE
  2
AcDbMLeaderStyle
  3
ACDB_MLEADERSTYLE_CLASS
 90
     4095
280
     0
281
     0
  0
CLASS
  1
ACMANOOTATIONVIEWSTANDARDISO
  2
AmdtAnViewStdISO
  3
"Amdt_StdImp|Product Description: AutoCAD Mechanical|Company: Autodesk, Inc."
 90
    33792
280
     0
281
     0
  0
CLASS
  1
CELLSTYLEMAP
  2
AcDbCellStyleMap
  3
ObjectDBX Classes
 90
     1152
280
     0
281
     0
  0
CLASS
  1
ACMTAPERSTANDARDANSI
  2
AcmTaperStdANSI
  3
"Amdt_StdImp|Product Description: AutoCAD Mechanical|Company: Autodesk"
 90
    32768
280
     0
281
     0
  0
CLASS
  1
ACMANOOTATIONVIEWSTANDARDANSI
  2
AmdtAnViewStdANSI
  3
"Amdt_StdImp|Product Description: AutoCAD Mechanical|Company: Autodesk, Inc."
 90
    33792
280
     0
281
     0
  0
CLASS
  1
ACAMGHOLECHARTSTDANSI
  2
AcAmgHoleChartStdANSI
  3
ACMSYMBB_MODULE_NAME
 90
    32768
280
     0
281
     0
  0
CLASS
  1
ACAD_EVALUATION_GRAPH
  2
AcDbEvalGraph
  3
ObjectDBX Classes
 90
    33921
280
     0
281
     0
  0
CLASS
  1
ACAECUSTOBJ
  2
AcAeEditorObj
  3
AcAeEditorObj
 90
    33792
280
     0
281
     0
  0
CLASS
  1
AMDTEDGESTANDARDISO13715
  2
AmdtEdgeStdISO13715
  3
"Amdt_StdImp|Product Description: AutoCAD Mechanical|Company: Autodesk"
 90
        0
280
     0
281
     0
  0
CLASS
  1
ACAMGHOLECHARTSTDISO
  2
AcAmgHoleChartStdISO
  3
ACMSYMBB_MODULE_NAME
 90
        0
280
     0
281
     0
  0
ENDSEC
  0
SECTION
  2
TABLES
  0
TABLE
  2
VPORT
  5
8
330
0
100
AcDbSymbolTable
 70
     1
  0
VPORT
  5
B0EC
330
8
100
AcDbSymbolTableRecord
100
AcDbViewportTableRecord
  2
*Active
 70
     0
 10
0.0
 20
0.0
 11
1.0
 21
1.0
 12
420.0000039116743
 22
296.9795141901138
 13
0.0
 23
0.0
 14
5.0
 24
5.0
 15
20.0
 25
20.0
 16
0.0
 26
0.0
 36
1.0
 17
0.0
 27
0.0
 37
0.0
 40
598.4619629543772
 41
1.648648648648648
 42
50.0
 43
0.0
 44
0.0
 50
0.0
 51
0.0
 71
    16
 72
   100
 73
     1
 74
     3
 75
     0
 76
     0
 77
     0
 78
     0
281
     0
 65
     0
110
0.0
120
0.0
130
0.0
111
1.0
121
0.0
131
0.0
112
0.0
122
1.0
132
0.0
 79
     0
146
0.0
  0
ENDTAB
  0
TABLE
  2
LTYPE
  5
5
330
0
100
AcDbSymbolTable
 70
    65
  0
LTYPE
  5
14
330
5
100
AcDbSymbolTableRecord
100
AcDbLinetypeTableRecord
  2
ByBlock
 70
     0
  3

 72
    65
 73
     0
 40
0.0
  0
LTYPE
  5
15
330
5
100
AcDbSymbolTableRecord
100
AcDbLinetypeTableRecord
  2
ByLayer
 70
     0
  3

 72
    65
 73
     0
 40
0.0
  0
LTYPE
  5
16
330
5
100
AcDbSymbolTableRecord
100
AcDbLinetypeTableRecord
  2
Continuous
 70
     0
  3
Solid line
 72
    65
 73
     0
 40
0.0
  0
LTYPE
  5
4F
330
5
100
AcDbSymbolTableRecord
100
AcDbLinetypeTableRecord
  2
AM_ISO02W050
 70
     0
  3
__ __ __ __ __ __ __ __ __ __ __ __ __ __ __
 72
    65
 73
     2
 40
7.5
 49
6.0
 74
     0
 49
-1.5
 74
     0
  0
LTYPE
  5
52
330
5
100
AcDbSymbolTableRecord
100
AcDbLinetypeTableRecord
  2
Amconstr
 70
     0
  3
_______________________
 72
    65
 73
     2
 40
9999.0
 49
9999.0
 74
     0
 49
0.0
 74
     0
  0
LTYPE
  5
64
330
5
100
AcDbSymbolTableRecord
100
AcDbLinetypeTableRecord
  2
ACISOWELD
 70
     0
  3
_ _ _ _ _
 72
    65
 73
     2
 40
2.0
 49
2.0
 74
     0
 49
-1.0
 74
     0
  0
LTYPE
  5
65
330
5
100
AcDbSymbolTableRecord
100
AcDbLinetypeTableRecord
  2
ACISOTGB
 70
     0
  3
__ . . __ . .
 72
    65
 73
     6
 40
9.0
 49
4.0
 74
     0
 49
-1.0
 74
     0
 49
1.0
 74
     0
 49
-1.0
 74
     0
 49
1.0
 74
     0
 49
-1.0
 74
     0
  0
LTYPE
  5
66
330
5
100
AcDbSymbolTableRecord
100
AcDbLinetypeTableRecord
  2
ACISOTGL
 70
     0
  3
_ _ _ _ _
 72
    65
 73
     2
 40
3.0
 49
2.0
 74
     0
 49
-1.0
 74
     0
  0
LTYPE
  5
69
330
5
100
AcDbSymbolTableRecord
100
AcDbLinetypeTableRecord
  2
CENTER
 70
     0
  3
__ . __
 72
    65
 73
     4
 40
7.0
 49
4.0
 74
     0
 49
-1.0
 74
     0
 49
1.0
 74
     0
 49
-1.0
 74
     0
  0
LTYPE
  5
A6E
330
5
100
AcDbSymbolTableRecord
100
AcDbLinetypeTableRecord
  2
PHANTOM2
 70
     0
  3
Phantom (.5x) ___ _ _ ___ _ _ ___ _ _ ___ _ _
 72
    65
 73
     6
 40
31.75
 49
15.875
 74
     0
 49
-3.174999999999998
 74
     0
 49
3.174999999999998
 74
     0
 49
-3.174999999999998
 74
     0
 49
3.174999999999998
 74
     0
 49
-3.174999999999998
 74
     0
  0
LTYPE
  5
4DED
330
5
100
AcDbSymbolTableRecord
100
AcDbLinetypeTableRecord
  2
中線
 70
     0
  3
___________________
 72
    65
 73
     2
 40
2.0
 49
1.0
 74
     0
 49
1.0
 74
     0
  0
LTYPE
  5
4DF6
330
5
100
AcDbSymbolTableRecord
100
AcDbLinetypeTableRecord
  2
細線
 70
     0
  3
___________________
 72
    65
 73
     2
 40
2.0
 49
1.0
 74
     0
 49
1.0
 74
     0
  0
LTYPE
  5
4EA7
330
5
100
AcDbSymbolTableRecord
100
AcDbLinetypeTableRecord
  2
文字
 70
     0
  3
_________________
 72
    65
 73
     2
 40
2.0
 49
1.0
 74
     0
 49
1.0
 74
     0
  0
LTYPE
  5
4EA9
330
5
100
AcDbSymbolTableRecord
100
AcDbLinetypeTableRecord
  2
寸法線
 70
     0
  3
________________
 72
    65
 73
     2
 40
2.0
 49
1.0
 74
     0
 49
1.0
 74
     0
  0
LTYPE
  5
5185
330
5
100
AcDbSymbolTableRecord
100
AcDbLinetypeTableRecord
  2
中心線1
 70
     0
  3
___ _ ___ _ ___
 72
    65
 73
     4
 40
18.0
 49
12.0
 74
     0
 49
-2.0
 74
     0
 49
2.0
 74
     0
 49
-2.0
 74
     0
  0
LTYPE
  5
5188
330
5
100
AcDbSymbolTableRecord
100
AcDbLinetypeTableRecord
  2
補助線
 70
     0
  3
______________
 72
    65
 73
     2
 40
2.0
 49
1.0
 74
     0
 49
1.0
 74
     0
  0
LTYPE
  5
6427
330
5
100
AcDbSymbolTableRecord
100
AcDbLinetypeTableRecord
  2
HIDDEN
 70
     0
  3
Hidden __ __ __ __ __ __ __ __ __ __ __ __ __ _
 72
    65
 73
     2
 40
0.375
 49
0.25
 74
     0
 49
-0.125
 74
     0
  0
LTYPE
  5
AC9E
330
5
100
AcDbSymbolTableRecord
100
AcDbLinetypeTableRecord
  2
Amzigzag
 70
     0
  3
/\/-/\/-/\/-/\/-/\/-/\/
 72
    65
 73
     2
 40
11.0001
 49
0.0001
 74
     4
 75
   135
340
56
 46
0.04
 50
0.0
 44
0.0
 45
0.0
 49
-11.0
 74
     0
  0
LTYPE
  5
AF95
330
5
100
AcDbSymbolTableRecord
100
AcDbLinetypeTableRecord
  2
AM_ISO08W050
 70
     0
  3
____ . ____ . ____ . ____ . ____ . ____ . ____
 72
    65
 73
     4
 40
18.0
 49
12.0
 74
     0
 49
-1.5
 74
     0
 49
3.0
 74
     0
 49
-1.5
 74
     0
  0
LTYPE
  5
AF96
330
5
100
AcDbSymbolTableRecord
100
AcDbLinetypeTableRecord
  2
AM_ISO09W050
 70
     0
  3
_____ . . _____ . . _____ . . ____ .. ____
 72
    65
 73
     6
 40
22.5
 49
12.0
 74
     0
 49
-1.5
 74
     0
 49
3.0
 74
     0
 49
-1.5
 74
     0
 49
3.0
 74
     0
 49
-1.5
 74
     0
  0
LTYPE
  5
AF97
330
5
100
AcDbSymbolTableRecord
100
AcDbLinetypeTableRecord
  2
AM_ISO08W050x2
 70
     0
  3
__ . __ . __ . __ . __ . __
 72
    65
 73
     4
 40
9.0
 49
6.0
 74
     0
 49
-0.75
 74
     0
 49
1.5
 74
     0
 49
-0.75
 74
     0
  0
LTYPE
  5
AF98
330
5
100
AcDbSymbolTableRecord
100
AcDbLinetypeTableRecord
  2
AM_ISO02W050x2
 70
     0
  3
 _ _ _ _ _ _ _ _ _ _ _ _
 72
    65
 73
     2
 40
3.75
 49
3.0
 74
     0
 49
-0.75
 74
     0
  0
LTYPE
  5
C2AE
330
5
100
AcDbSymbolTableRecord
100
AcDbLinetypeTableRecord
  2
AI-Linetype-26
 70
     0
  3
Adobe Illustrator Linetype No. 26
 72
    65
 73
     4
 40
60.45904350280761
 49
37.78688430786133
 74
     0
 49
-7.557386398315427
 74
     0
 49
7.557386398315427
 74
     0
 49
-7.557386398315427
 74
     0
  0
LTYPE
  5
C2AF
330
5
100
AcDbSymbolTableRecord
100
AcDbLinetypeTableRecord
  2
AI-Linetype-27
 70
     0
  3
Adobe Illustrator Linetype No. 27
 72
    65
 73
     4
 40
60.45904350280761
 49
37.78688430786133
 74
     0
 49
-7.557386398315427
 74
     0
 49
7.557386398315427
 74
     0
 49
-7.557386398315427
 74
     0
  0
LTYPE
  5
C2B0
330
5
100
AcDbSymbolTableRecord
100
AcDbLinetypeTableRecord
  2
AI-Linetype-28
 70
     0
  3
Adobe Illustrator Linetype No. 28
 72
    65
 73
     4
 40
60.45904350280761
 49
37.78688430786133
 74
     0
 49
-7.557386398315427
 74
     0
 49
7.557386398315427
 74
     0
 49
-7.557386398315427
 74
     0
  0
LTYPE
  5
C2B1
330
5
100
AcDbSymbolTableRecord
100
AcDbLinetypeTableRecord
  2
AI-Linetype-29
 70
     0
  3
Adobe Illustrator Linetype No. 29
 72
    65
 73
     4
 40
60.45904350280761
 49
37.78688430786133
 74
     0
 49
-7.557386398315427
 74
     0
 49
7.557386398315427
 74
     0
 49
-7.557386398315427
 74
     0
  0
LTYPE
  5
C2B2
330
5
100
AcDbSymbolTableRecord
100
AcDbLinetypeTableRecord
  2
AI-Linetype-30
 70
     0
  3
Adobe Illustrator Linetype No. 30
 72
    65
 73
     4
 40
60.45904350280761
 49
37.78688430786133
 74
     0
 49
-7.557386398315427
 74
     0
 49
7.557386398315427
 74
     0
 49
-7.557386398315427
 74
     0
  0
LTYPE
  5
F4F5
330
5
100
AcDbSymbolTableRecord
100
AcDbLinetypeTableRecord
  2
AI-Linetype-1
 70
     0
  3
Adobe Illustrator Linetype No. 1
 72
    65
 73
     4
 40
60.45904350280761
 49
37.78688430786133
 74
     0
 49
-7.557386398315427
 74
     0
 49
7.557386398315427
 74
     0
 49
-7.557386398315427
 74
     0
  0
LTYPE
  5
F4F6
330
5
100
AcDbSymbolTableRecord
100
AcDbLinetypeTableRecord
  2
AI-Linetype-2
 70
     0
  3
Adobe Illustrator Linetype No. 2
 72
    65
 73
     4
 40
60.45904350280761
 49
37.78688430786133
 74
     0
 49
-7.557386398315427
 74
     0
 49
7.557386398315427
 74
     0
 49
-7.557386398315427
 74
     0
  0
LTYPE
  5
F4F7
330
5
100
AcDbSymbolTableRecord
100
AcDbLinetypeTableRecord
  2
AI-Linetype-3
 70
     0
  3
Adobe Illustrator Linetype No. 3
 72
    65
 73
     4
 40
60.45904350280761
 49
37.78688430786133
 74
     0
 49
-7.557386398315427
 74
     0
 49
7.557386398315427
 74
     0
 49
-7.557386398315427
 74
     0
  0
LTYPE
  5
F4F8
330
5
100
AcDbSymbolTableRecord
100
AcDbLinetypeTableRecord
  2
AI-Linetype-4
 70
     0
  3
Adobe Illustrator Linetype No. 4
 72
    65
 73
     4
 40
60.45904350280761
 49
37.78688430786133
 74
     0
 49
-7.557386398315427
 74
     0
 49
7.557386398315427
 74
     0
 49
-7.557386398315427
 74
     0
  0
LTYPE
  5
F4F9
330
5
100
AcDbSymbolTableRecord
100
AcDbLinetypeTableRecord
  2
AI-Linetype-5
 70
     0
  3
Adobe Illustrator Linetype No. 5
 72
    65
 73
     4
 40
60.45904350280761
 49
37.78688430786133
 74
     0
 49
-7.557386398315427
 74
     0
 49
7.557386398315427
 74
     0
 49
-7.557386398315427
 74
     0
  0
LTYPE
  5
F4FA
330
5
100
AcDbSymbolTableRecord
100
AcDbLinetypeTableRecord
  2
AI-Linetype-6
 70
     0
  3
Adobe Illustrator Linetype No. 6
 72
    65
 73
     4
 40
60.45904350280761
 49
37.78688430786133
 74
     0
 49
-7.557386398315427
 74
     0
 49
7.557386398315427
 74
     0
 49
-7.557386398315427
 74
     0
  0
LTYPE
  5
F4FB
330
5
100
AcDbSymbolTableRecord
100
AcDbLinetypeTableRecord
  2
AI-Linetype-7
 70
     0
  3
Adobe Illustrator Linetype No. 7
 72
    65
 73
     4
 40
60.45904350280761
 49
37.78688430786133
 74
     0
 49
-7.557386398315427
 74
     0
 49
7.557386398315427
 74
     0
 49
-7.557386398315427
 74
     0
  0
LTYPE
  5
F4FC
330
5
100
AcDbSymbolTableRecord
100
AcDbLinetypeTableRecord
  2
AI-Linetype-8
 70
     0
  3
Adobe Illustrator Linetype No. 8
 72
    65
 73
     4
 40
60.45904350280761
 49
37.78688430786133
 74
     0
 49
-7.557386398315427
 74
     0
 49
7.557386398315427
 74
     0
 49
-7.557386398315427
 74
     0
  0
LTYPE
  5
F4FD
330
5
100
AcDbSymbolTableRecord
100
AcDbLinetypeTableRecord
  2
AI-Linetype-9
 70
     0
  3
Adobe Illustrator Linetype No. 9
 72
    65
 73
     4
 40
60.45904350280761
 49
37.78688430786133
 74
     0
 49
-7.557386398315427
 74
     0
 49
7.557386398315427
 74
     0
 49
-7.557386398315427
 74
     0
  0
LTYPE
  5
F4FE
330
5
100
AcDbSymbolTableRecord
100
AcDbLinetypeTableRecord
  2
AI-Linetype-10
 70
     0
  3
Adobe Illustrator Linetype No. 10
 72
    65
 73
     4
 40
60.45904350280761
 49
37.78688430786133
 74
     0
 49
-7.557386398315427
 74
     0
 49
7.557386398315427
 74
     0
 49
-7.557386398315427
 74
     0
  0
LTYPE
  5
F4FF
330
5
100
AcDbSymbolTableRecord
100
AcDbLinetypeTableRecord
  2
AI-Linetype-11
 70
     0
  3
Adobe Illustrator Linetype No. 11
 72
    65
 73
     4
 40
60.45904350280761
 49
37.78688430786133
 74
     0
 49
-7.557386398315427
 74
     0
 49
7.557386398315427
 74
     0
 49
-7.557386398315427
 74
     0
  0
LTYPE
  5
F500
330
5
100
AcDbSymbolTableRecord
100
AcDbLinetypeTableRecord
  2
AI-Linetype-12
 70
     0
  3
Adobe Illustrator Linetype No. 12
 72
    65
 73
     4
 40
60.45904350280761
 49
37.78688430786133
 74
     0
 49
-7.557386398315427
 74
     0
 49
7.557386398315427
 74
     0
 49
-7.557386398315427
 74
     0
  0
LTYPE
  5
F501
330
5
100
AcDbSymbolTableRecord
100
AcDbLinetypeTableRecord
  2
AI-Linetype-13
 70
     0
  3
Adobe Illustrator Linetype No. 13
 72
    65
 73
     4
 40
60.45904350280761
 49
37.78688430786133
 74
     0
 49
-7.557386398315427
 74
     0
 49
7.557386398315427
 74
     0
 49
-7.557386398315427
 74
     0
  0
LTYPE
  5
F502
330
5
100
AcDbSymbolTableRecord
100
AcDbLinetypeTableRecord
  2
AI-Linetype-14
 70
     0
  3
Adobe Illustrator Linetype No. 14
 72
    65
 73
     4
 40
60.45904350280761
 49
37.78688430786133
 74
     0
 49
-7.557386398315427
 74
     0
 49
7.557386398315427
 74
     0
 49
-7.557386398315427
 74
     0
  0
LTYPE
  5
F503
330
5
100
AcDbSymbolTableRecord
100
AcDbLinetypeTableRecord
  2
AI-Linetype-15
 70
     0
  3
Adobe Illustrator Linetype No. 15
 72
    65
 73
     4
 40
60.45904350280761
 49
37.78688430786133
 74
     0
 49
-7.557386398315427
 74
     0
 49
7.557386398315427
 74
     0
 49
-7.557386398315427
 74
     0
  0
LTYPE
  5
F504
330
5
100
AcDbSymbolTableRecord
100
AcDbLinetypeTableRecord
  2
AI-Linetype-16
 70
     0
  3
Adobe Illustrator Linetype No. 16
 72
    65
 73
     4
 40
60.45904350280761
 49
37.78688430786133
 74
     0
 49
-7.557386398315427
 74
     0
 49
7.557386398315427
 74
     0
 49
-7.557386398315427
 74
     0
  0
LTYPE
  5
F505
330
5
100
AcDbSymbolTableRecord
100
AcDbLinetypeTableRecord
  2
AI-Linetype-17
 70
     0
  3
Adobe Illustrator Linetype No. 17
 72
    65
 73
     4
 40
60.45904350280761
 49
37.78688430786133
 74
     0
 49
-7.557386398315427
 74
     0
 49
7.557386398315427
 74
     0
 49
-7.557386398315427
 74
     0
  0
LTYPE
  5
F506
330
5
100
AcDbSymbolTableRecord
100
AcDbLinetypeTableRecord
  2
AI-Linetype-18
 70
     0
  3
Adobe Illustrator Linetype No. 18
 72
    65
 73
     4
 40
60.45904350280761
 49
37.78688430786133
 74
     0
 49
-7.557386398315427
 74
     0
 49
7.557386398315427
 74
     0
 49
-7.557386398315427
 74
     0
  0
LTYPE
  5
F507
330
5
100
AcDbSymbolTableRecord
100
AcDbLinetypeTableRecord
  2
AI-Linetype-19
 70
     0
  3
Adobe Illustrator Linetype No. 19
 72
    65
 73
     4
 40
60.45904350280761
 49
37.78688430786133
 74
     0
 49
-7.557386398315427
 74
     0
 49
7.557386398315427
 74
     0
 49
-7.557386398315427
 74
     0
  0
LTYPE
  5
F508
330
5
100
AcDbSymbolTableRecord
100
AcDbLinetypeTableRecord
  2
AI-Linetype-20
 70
     0
  3
Adobe Illustrator Linetype No. 20
 72
    65
 73
     4
 40
60.45904350280761
 49
37.78688430786133
 74
     0
 49
-7.557386398315427
 74
     0
 49
7.557386398315427
 74
     0
 49
-7.557386398315427
 74
     0
  0
LTYPE
  5
F509
330
5
100
AcDbSymbolTableRecord
100
AcDbLinetypeTableRecord
  2
AI-Linetype-21
 70
     0
  3
Adobe Illustrator Linetype No. 21
 72
    65
 73
     4
 40
60.45904350280761
 49
37.78688430786133
 74
     0
 49
-7.557386398315427
 74
     0
 49
7.557386398315427
 74
     0
 49
-7.557386398315427
 74
     0
  0
LTYPE
  5
F50A
330
5
100
AcDbSymbolTableRecord
100
AcDbLinetypeTableRecord
  2
AI-Linetype-22
 70
     0
  3
Adobe Illustrator Linetype No. 22
 72
    65
 73
     4
 40
60.45904350280761
 49
37.78688430786133
 74
     0
 49
-7.557386398315427
 74
     0
 49
7.557386398315427
 74
     0
 49
-7.557386398315427
 74
     0
  0
LTYPE
  5
F50B
330
5
100
AcDbSymbolTableRecord
100
AcDbLinetypeTableRecord
  2
AI-Linetype-23
 70
     0
  3
Adobe Illustrator Linetype No. 23
 72
    65
 73
     4
 40
60.45904350280761
 49
37.78688430786133
 74
     0
 49
-7.557386398315427
 74
     0
 49
7.557386398315427
 74
     0
 49
-7.557386398315427
 74
     0
  0
LTYPE
  5
F50C
330
5
100
AcDbSymbolTableRecord
100
AcDbLinetypeTableRecord
  2
AI-Linetype-24
 70
     0
  3
Adobe Illustrator Linetype No. 24
 72
    65
 73
     4
 40
60.45904350280761
 49
37.78688430786133
 74
     0
 49
-7.557386398315427
 74
     0
 49
7.557386398315427
 74
     0
 49
-7.557386398315427
 74
     0
  0
LTYPE
  5
F50D
330
5
100
AcDbSymbolTableRecord
100
AcDbLinetypeTableRecord
  2
AI-Linetype-25
 70
     0
  3
Adobe Illustrator Linetype No. 25
 72
    65
 73
     4
 40
60.45904350280761
 49
37.78688430786133
 74
     0
 49
-7.557386398315427
 74
     0
 49
7.557386398315427
 74
     0
 49
-7.557386398315427
 74
     0
  0
LTYPE
  5
F50E
330
5
100
AcDbSymbolTableRecord
100
AcDbLinetypeTableRecord
  2
AI-Linetype-31
 70
     0
  3
Adobe Illustrator Linetype No. 31
 72
    65
 73
     4
 40
60.45904350280761
 49
37.78688430786133
 74
     0
 49
-7.557386398315427
 74
     0
 49
7.557386398315427
 74
     0
 49
-7.557386398315427
 74
     0
  0
ENDTAB
  0
TABLE
  2
LAYER
  5
2
102
{ACAD_XDICTIONARY
360
3F95
102
}
330
0
100
AcDbSymbolTable
 70
    24
  0
LAYER
  5
10
102
{ACAD_XDICTIONARY
360
132DC
102
}
330
2
100
AcDbSymbolTableRecord
100
AcDbLayerTableRecord
  2
0
 70
     0
 62
     7
  6
Continuous
370
    -3
390
F
  0
LAYER
  5
6D1
330
2
100
AcDbSymbolTableRecord
100
AcDbLayerTableRecord
  2
Defpoints
 70
     0
 62
     7
  6
Continuous
290
     0
370
    -3
390
F
  0
LAYER
  5
5F85
102
{ACAD_XDICTIONARY
360
132DE
102
}
330
2
100
AcDbSymbolTableRecord
100
AcDbLayerTableRecord
  2
AM_0
 70
     0
 62
     7
  6
中線
370
    30
390
F
1001
AcAecLayerStandard
1000

1000

  0
LAYER
  5
AC9F
102
{ACAD_XDICTIONARY
360
132E0
102
}
330
2
100
AcDbSymbolTableRecord
100
AcDbLayerTableRecord
  2
size
 70
     0
 62
     5
  6
Continuous
290
     0
370
    25
390
F
  0
LAYER
  5
ACA0
102
{ACAD_XDICTIONARY
360
132E2
102
}
330
2
100
AcDbSymbolTableRecord
100
AcDbLayerTableRecord
  2
waku
 70
     0
 62
     7
  6
Continuous
370
    35
390
F
  0
LAYER
  5
ACA1
102
{ACAD_XDICTIONARY
360
132E4
102
}
330
2
100
AcDbSymbolTableRecord
100
AcDbLayerTableRecord
  2
AM_6
 70
     0
 62
     2
  6
文字
370
    13
390
F
1001
AcAecLayerStandard
1000

1000

  0
LAYER
  5
AD64
102
{ACAD_XDICTIONARY
360
132EE
102
}
330
2
100
AcDbSymbolTableRecord
100
AcDbLayerTableRecord
  2
AM_2
 70
     0
 62
     1
  6
細線
370
    13
390
F
1001
AcAecLayerStandard
1000

1000

  0
LAYER
  5
AD68
102
{ACAD_XDICTIONARY
360
132F2
102
}
330
2
100
AcDbSymbolTableRecord
100
AcDbLayerTableRecord
  2
AM_5
 70
     0
 62
     3
  6
寸法線
370
    13
390
F
1001
AcAecLayerStandard
1000

1000

  0
LAYER
  5
AD69
102
{ACAD_XDICTIONARY
360
132F4
102
}
330
2
100
AcDbSymbolTableRecord
100
AcDbLayerTableRecord
  2
AM_7
 70
     0
 62
     4
  6
中心線1
370
    13
390
F
1001
AcAecLayerStandard
1000

1000

  0
LAYER
  5
C2B3
102
{ACAD_XDICTIONARY
360
13304
102
}
330
2
100
AcDbSymbolTableRecord
100
AcDbLayerTableRecord
  2
240
 70
     0
 62
     7
  6
Continuous
370
    -3
390
F
  0
LAYER
  5
107CC
102
{ACAD_XDICTIONARY
360
13306
102
}
330
2
100
AcDbSymbolTableRecord
100
AcDbLayerTableRecord
  2
AM_4
 70
     0
 62
     3
  6
補助線
370
    13
390
F
1001
AcAecLayerStandard
1000

1000

  0
ENDTAB
  0
TABLE
  2
STYLE
  5
3
330
0
100
AcDbSymbolTable
 70
    10
  0
STYLE
  5
11
330
3
100
AcDbSymbolTableRecord
100
AcDbTextStyleTableRecord
  2
STANDARD
 70
     0
 40
0.0
 41
0.7
 50
0.0
 71
     0
 42
3.2
  3
romans.shx
  4
extfont.shx
  0
STYLE
  5
56
330
3
100
AcDbSymbolTableRecord
100
AcDbTextStyleTableRecord
  2

 70
     1
 40
0.0
 41
1.0
 50
0.0
 71
     0
 42
2.5
  3
ltypeshp.shx
  4

  0
STYLE
  5
58
330
3
100
AcDbSymbolTableRecord
100
AcDbTextStyleTableRecord
  2
ACISOTS
 70
     0
 40
1.0
 41
1.0
 50
0.0
 71
     0
 42
2.5
  3
isocp.shx
  4
extfont.shx
  0
STYLE
  5
63
330
3
100
AcDbSymbolTableRecord
100
AcDbTextStyleTableRecord
  2
ACISOGDT
 70
     0
 40
0.0
 41
1.0
 50
0.0
 71
     0
 42
2.5
  3
amgdt.shx
  4

  0
STYLE
  5
A74
330
3
100
AcDbSymbolTableRecord
100
AcDbTextStyleTableRecord
  2
DIM
 70
     0
 40
0.0
 41
1.0
 50
0.0
 71
     0
 42
2.5
  3
monotxt.shx
  4
extfont.shx
  0
ENDTAB
  0
TABLE
  2
VIEW
  5
6
330
0
100
AcDbSymbolTable
 70
     6
  0
VIEW
  5
AE1
330
6
100
AcDbSymbolTableRecord
100
AcDbViewTableRecord
  2
AM_VIEW1
 70
     0
 40
297.0
 10
242.1500524658972
 20
910.6127109420238
 41
484.300104931794
 11
0.0
 21
0.0
 31
1.0
 12
0.0
 22
0.0
 32
0.0
 42
50.0
 43
0.0
 44
0.0
 50
0.0
 71
    16
281
     0
 72
     0
  0
VIEW
  5
AE2
330
6
100
AcDbSymbolTableRecord
100
AcDbViewTableRecord
  2
AM_VIEW2
 70
     0
 40
297.0
 10
597.8499475341027
 20
910.6127109420238
 41
484.300104931794
 11
0.0
 21
0.0
 31
1.0
 12
0.0
 22
0.0
 32
0.0
 42
50.0
 43
0.0
 44
0.0
 50
0.0
 71
    16
281
     0
 72
     0
  0
VIEW
  5
AE3
330
6
100
AcDbSymbolTableRecord
100
AcDbViewTableRecord
  2
AM_VIEW3
 70
     0
 40
297.0
 10
242.1500524658972
 20
613.612710942024
 41
484.300104931794
 11
0.0
 21
0.0
 31
1.0
 12
0.0
 22
0.0
 32
0.0
 42
50.0
 43
0.0
 44
0.0
 50
0.0
 71
    16
281
     0
 72
     0
  0
VIEW
  5
AE4
330
6
100
AcDbSymbolTableRecord
100
AcDbViewTableRecord
  2
AM_VIEW4
 70
     0
 40
297.0
 10
597.8499475341027
 20
613.612710942024
 41
484.300104931794
 11
0.0
 21
0.0
 31
1.0
 12
0.0
 22
0.0
 32
0.0
 42
50.0
 43
0.0
 44
0.0
 50
0.0
 71
    16
281
     0
 72
     0
  0
VIEW
  5
AE5
330
6
100
AcDbSymbolTableRecord
100
AcDbViewTableRecord
  2
AM_VIEW5
 70
     0
 40
297.0
 10
420.0000000000001
 20
762.1127109420239
 41
484.3001049317941
 11
0.0
 21
0.0
 31
1.0
 12
0.0
 22
0.0
 32
0.0
 42
50.0
 43
0.0
 44
0.0
 50
0.0
 71
    16
281
     0
 72
     0
  0
VIEW
  5
AE6
330
6
100
AcDbSymbolTableRecord
100
AcDbViewTableRecord
  2
AM_VIEW6
 70
     0
 40
593.9940599999999
 10
420.0000000000001
 20
762.1127109420239
 41
968.59052386149
 11
0.0
 21
0.0
 31
1.0
 12
0.0
 22
0.0
 32
0.0
 42
50.0
 43
0.0
 44
0.0
 50
0.0
 71
    16
281
     0
 72
     0
  0
ENDTAB
  0
TABLE
  2
UCS
  5
7
330
0
100
AcDbSymbolTable
 70
     0
  0
ENDTAB
  0
TABLE
  2
APPID
  5
9
330
0
100
AcDbSymbolTable
 70
    60
  0
APPID
  5
12
330
9
100
AcDbSymbolTableRecord
100
AcDbRegAppTableRecord
  2
ACAD
 70
     0
  0
APPID
  5
30
330
9
100
AcDbSymbolTableRecord
100
AcDbRegAppTableRecord
  2
MCAD_NO_VIS
 70
     0
  0
APPID
  5
31
330
9
100
AcDbSymbolTableRecord
100
AcDbRegAppTableRecord
  2
ACAD_TEMP_GRAPHIC
 70
     0
  0
APPID
  5
44
330
9
100
AcDbSymbolTableRecord
100
AcDbRegAppTableRecord
  2
ACATTRIBSERVICES
 70
     0
  0
APPID
  5
7A1
330
9
100
AcDbSymbolTableRecord
100
AcDbRegAppTableRecord
  2
GENIUS_GENDIMSH_14
 70
     0
  0
APPID
  5
A49
330
9
100
AcDbSymbolTableRecord
100
AcDbRegAppTableRecord
  2
GENIUS_GENREC_14
 70
     0
  0
APPID
  5
A4A
330
9
100
AcDbSymbolTableRecord
100
AcDbRegAppTableRecord
  2
GENIUS_GENOBJ-N-REC_13
 70
     0
  0
APPID
  5
A4B
330
9
100
AcDbSymbolTableRecord
100
AcDbRegAppTableRecord
  2
GENIUS_GENODEF_13
 70
     0
  0
APPID
  5
A4C
330
9
100
AcDbSymbolTableRecord
100
AcDbRegAppTableRecord
  2
DCO15
 70
     0
  0
APPID
  5
ADC
330
9
100
AcDbSymbolTableRecord
100
AcDbRegAppTableRecord
  2
GENIUS_GENOLIS_13
 70
     0
  0
APPID
  5
ADD
330
9
100
AcDbSymbolTableRecord
100
AcDbRegAppTableRecord
  2
GENIUS_GENOENT_13
 70
     0
  0
APPID
  5
ADE
330
9
100
AcDbSymbolTableRecord
100
AcDbRegAppTableRecord
  2
GENIUS_GENOBJ-N-TIT_13
 70
     0
  0
APPID
  5
ADF
330
9
100
AcDbSymbolTableRecord
100
AcDbRegAppTableRecord
  2
GENIUS_GENTITLE_13
 70
     0
  0
APPID
  5
AE0
330
9
100
AcDbSymbolTableRecord
100
AcDbRegAppTableRecord
  2
GENIUS_GENOREF_13
 70
     0
  0
APPID
  5
AE7
330
9
100
AcDbSymbolTableRecord
100
AcDbRegAppTableRecord
  2
GENIUS_GENSCREG_15
 70
     0
  0
APPID
  5
AE8
330
9
100
AcDbSymbolTableRecord
100
AcDbRegAppTableRecord
  2
GENIUS_GENOBJ-N-SDF_13
 70
     0
  0
APPID
  5
FAF
330
9
100
AcDbSymbolTableRecord
100
AcDbRegAppTableRecord
  2
GENIUS_GENBLLY_14
 70
     0
  0
APPID
  5
FB0
330
9
100
AcDbSymbolTableRecord
100
AcDbRegAppTableRecord
  2
GENIUS_GENTRA_14
 70
     0
  0
APPID
  5
1285
330
9
100
AcDbSymbolTableRecord
100
AcDbRegAppTableRecord
  2
GENIUS_GENDTOL_13
 70
     0
  0
APPID
  5
142D
330
9
100
AcDbSymbolTableRecord
100
AcDbRegAppTableRecord
  2
GENIUS_GENOBJ-N-CEN_13
 70
     0
  0
APPID
  5
1AB5
330
9
100
AcDbSymbolTableRecord
100
AcDbRegAppTableRecord
  2
GENIUS_GENOBJ-N-CRS_13
 70
     0
  0
APPID
  5
1B36
330
9
100
AcDbSymbolTableRecord
100
AcDbRegAppTableRecord
  2
GENIUS_GENOBJ-N-HTC_13
 70
     0
  0
APPID
  5
1B37
330
9
100
AcDbSymbolTableRecord
100
AcDbRegAppTableRecord
  2
GENIUS_GENHATCH_13
 70
     0
  0
APPID
  5
216D
330
9
100
AcDbSymbolTableRecord
100
AcDbRegAppTableRecord
  2
GENIUS_GENOBJ-N-FIL_13
 70
     0
  0
APPID
  5
2356
330
9
100
AcDbSymbolTableRecord
100
AcDbRegAppTableRecord
  2
GEVID990412420
 70
     0
  0
APPID
  5
2357
330
9
100
AcDbSymbolTableRecord
100
AcDbRegAppTableRecord
  2
GEVDC
 70
     0
  0
APPID
  5
2358
330
9
100
AcDbSymbolTableRecord
100
AcDbRegAppTableRecord
  2
GEVCON
 70
     0
  0
APPID
  5
235B
330
9
100
AcDbSymbolTableRecord
100
AcDbRegAppTableRecord
  2
GEVRADREF
 70
     0
  0
APPID
  5
2360
330
9
100
AcDbSymbolTableRecord
100
AcDbRegAppTableRecord
  2
GENIUS_GENBH_13
 70
     0
  0
APPID
  5
2362
330
9
100
AcDbSymbolTableRecord
100
AcDbRegAppTableRecord
  2
GENIUS_GENOBJ-NBEHI-BHF_13
 70
     0
  0
APPID
  5
2364
330
9
100
AcDbSymbolTableRecord
100
AcDbRegAppTableRecord
  2
GENIUS_GENOBJ-NBEHI-BHB_13
 70
     0
  0
APPID
  5
2379
330
9
100
AcDbSymbolTableRecord
100
AcDbRegAppTableRecord
  2
GENIUS_GENOBJ-F-SCPASSM_13
 70
     0
  0
APPID
  5
3D74
330
9
100
AcDbSymbolTableRecord
100
AcDbRegAppTableRecord
  2
GENIUS_GENDIM_13
 70
     0
  0
APPID
  5
3D76
330
9
100
AcDbSymbolTableRecord
100
AcDbRegAppTableRecord
  2
GENIUS_GE3DTOL_13
 70
     0
  0
APPID
  5
3D9C
330
9
100
AcDbSymbolTableRecord
100
AcDbRegAppTableRecord
  2
AD_DRAW
 70
     0
  0
APPID
  5
3DE8
330
9
100
AcDbSymbolTableRecord
100
AcDbRegAppTableRecord
  2
ASURF_PCURVE_APPNAME
 70
     0
  0
APPID
  5
3DED
330
9
100
AcDbSymbolTableRecord
100
AcDbRegAppTableRecord
  2
AMG_3D2D_5.0
 70
     0
  0
APPID
  5
3E1B
330
9
100
AcDbSymbolTableRecord
100
AcDbRegAppTableRecord
  2
DESIGNERASSEMBLIES
 70
     0
  0
APPID
  5
3E20
330
9
100
AcDbSymbolTableRecord
100
AcDbRegAppTableRecord
  2
ACADM_DIM_EDIT
 70
     0
  0
APPID
  5
3E21
330
9
100
AcDbSymbolTableRecord
100
AcDbRegAppTableRecord
  2
AMDT_DM_ADJ
 70
     0
  0
APPID
  5
4143
330
9
100
AcDbSymbolTableRecord
100
AcDbRegAppTableRecord
  2
GENIUS_GENFIL_13
 70
     0
  0
APPID
  5
4144
330
9
100
AcDbSymbolTableRecord
100
AcDbRegAppTableRecord
  2
GENIUS_GENOBJ-N-CHA_13
 70
     0
  0
APPID
  5
4E17
330
9
100
AcDbSymbolTableRecord
100
AcDbRegAppTableRecord
  2
GEVID1008153417
 70
     0
  0
APPID
  5
4E58
330
9
100
AcDbSymbolTableRecord
100
AcDbRegAppTableRecord
  2
GEVID1008153418
 70
     0
  0
APPID
  5
4E5E
330
9
100
AcDbSymbolTableRecord
100
AcDbRegAppTableRecord
  2
GEVID1008153419
 70
     0
  0
APPID
  5
4E64
330
9
100
AcDbSymbolTableRecord
100
AcDbRegAppTableRecord
  2
GEVID1008153420
 70
     0
  0
APPID
  5
4E75
330
9
100
AcDbSymbolTableRecord
100
AcDbRegAppTableRecord
  2
GEVID1008153421
 70
     0
  0
APPID
  5
4EB7
330
9
100
AcDbSymbolTableRecord
100
AcDbRegAppTableRecord
  2
GENIUS_AMGTXT_16
 70
     0
  0
APPID
  5
7645
330
9
100
AcDbSymbolTableRecord
100
AcDbRegAppTableRecord
  2
GENIUS_GENOBJ-N-DIM_13
 70
     0
  0
APPID
  5
AAD0
330
9
100
AcDbSymbolTableRecord
100
AcDbRegAppTableRecord
  2
ACAD_DSTYLE_DIMARC_LENGTH_SYMBOL
 70
     0
  0
APPID
  5
AAD1
330
9
100
AcDbSymbolTableRecord
100
AcDbRegAppTableRecord
  2
ACAD_DSTYLE_DIMJOGGED_JOGANGLE_SYMBOL
 70
     0
  0
APPID
  5
AAFD
330
9
100
AcDbSymbolTableRecord
100
AcDbRegAppTableRecord
  2
ACAD_PSEXT
 70
     0
  0
APPID
  5
AD61
330
9
100
AcDbSymbolTableRecord
100
AcDbRegAppTableRecord
  2
AcAecLayerStandard
 70
     0
  0
APPID
  5
AEE3
330
9
100
AcDbSymbolTableRecord
100
AcDbRegAppTableRecord
  2
ACAD_EXEMPT_FROM_CAD_STANDARDS
 70
     0
  0
APPID
  5
B1BE
330
9
100
AcDbSymbolTableRecord
100
AcDbRegAppTableRecord
  2
GENIUS_GENCEN_19
 70
     0
  0
APPID
  5
B597
330
9
100
AcDbSymbolTableRecord
100
AcDbRegAppTableRecord
  2
ACAD_MLEADERVER
 70
     0
  0
APPID
  5
1013B
330
9
100
AcDbSymbolTableRecord
100
AcDbRegAppTableRecord
  2
ACAUTHENVIRON
 70
     0
  0
APPID
  5
103FE
330
9
100
AcDbSymbolTableRecord
100
AcDbRegAppTableRecord
  2
ACAD_DSTYLE_DIMINSPECT
 70
     0
  0
APPID
  5
12A54
330
9
100
AcDbSymbolTableRecord
100
AcDbRegAppTableRecord
  2
ACAD_DSTYLE_DIMRADIAL_EXTENSION
 70
     0
  0
APPID
  5
13743
330
9
100
AcDbSymbolTableRecord
100
AcDbRegAppTableRecord
  2
AcDbAttr
 70
     0
  0
ENDTAB
  0
TABLE
  2
DIMSTYLE
  5
A
330
0
100
AcDbSymbolTable
 70
    23
100
AcDbDimStyleTable
 71
     1
340
2515
  0
DIMSTYLE
105
A76
330
A
100
AcDbSymbolTableRecord
100
AcDbDimStyleTableRecord
  2
STANDARD
 70
     0
 41
3.0
 42
1.0
 43
7.0
 44
2.0
 73
     0
 74
     0
 77
     1
140
2.799999999999998
141
0.0
143
0.0394
147
0.7
171
     4
172
     1
173
     1
176
     3
177
     3
178
     2
271
     3
272
     3
273
     8
274
     4
289
     0
340
A74
341
A66
343
A66
344
A66
  0
DIMSTYLE
105
2515
330
A
100
AcDbSymbolTableRecord
100
AcDbDimStyleTableRecord
  2
SYS
 70
     0
  4
"
 41
1.0
 42
1.0
 43
10.0
 44
1.0
 47
0.1
 48
0.1
 73
     0
 74
     0
 77
     1
 78
     8
 79
     2
140
3.5
141
0.0
143
0.0393701
146
0.71
147
1.5
172
     1
176
   256
177
   256
178
     7
271
     2
272
     2
283
     0
284
     8
340
11
371
    -1
372
    -1
1001
ACAD_DSTYLE_DIMJOGGED_JOGANGLE_SYMBOL
1070
   384
1040
0.7853981633974483
1001
ACAD_DSTYLE_DIMARC_LENGTH_SYMBOL
1070
   379
1070
     1
  0
DIMSTYLE
105
2AAB
102
{ACAD_REACTORS
330
12E56
330
12E87
330
12EA6
330
12ED7
330
12F2C
330
12F5D
330
12F85
330
12FA4
330
12FC3
330
1306E
330
1309F
102
}
330
A
100
AcDbSymbolTableRecord
100
AcDbDimStyleTableRecord
  2
SYS$0
 70
     0
  4
"
 41
1.0
 42
1.0
 43
10.0
 44
1.0
 47
0.1
 48
0.1
 73
     0
 74
     0
 77
     1
 78
     8
 79
     2
140
3.200000000000001
141
0.0
143
0.0393701
146
0.71
147
1.5
172
     1
176
   256
177
   256
178
     2
271
     2
272
     2
283
     0
284
     8
340
11
341
A66
342
6C4
371
    -1
372
    -1
1001
ACAD_DSTYLE_DIMJOGGED_JOGANGLE_SYMBOL
1070
   384
1040
0.7853981633974483
1001
ACAD_DSTYLE_DIMARC_LENGTH_SYMBOL
1070
   379
1070
     1
  0
DIMSTYLE
105
AF99
330
A
100
AcDbSymbolTableRecord
100
AcDbDimStyleTableRecord
  2
AM_ISO
 70
     0
  4
"
 41
2.5
 42
1.0
 43
10.0
 44
1.0
 47
0.1
 48
0.1
 73
     0
 74
     0
 77
     1
 78
     8
 79
     2
140
3.5
141
0.0
143
0.0393701
146
0.71
147
1.5
172
     1
176
   256
177
   256
178
     2
271
     2
272
     3
274
     4
283
     0
284
     8
340
11
371
    -1
372
    -1
  0
DIMSTYLE
105
AF9A
330
A
100
AcDbSymbolTableRecord
100
AcDbDimStyleTableRecord
  2
AM_ISO$3
 70
     0
  4
"
 41
2.5
 42
1.0
 43
10.0
 44
1.0
 47
0.1
 48
0.1
 73
     0
 77
     1
 78
     8
 79
     2
140
3.5
141
0.0
143
0.0393701
146
0.71
147
1.5
176
   256
177
   256
178
     2
271
     2
272
     3
274
     4
283
     0
284
     8
288
     1
289
     0
340
11
371
    -1
372
    -1
  0
DIMSTYLE
105
AF9B
330
A
100
AcDbSymbolTableRecord
100
AcDbDimStyleTableRecord
  2
AM_ISO$4
 70
     0
  4
"
 41
2.5
 42
1.0
 43
10.0
 44
1.0
 47
0.1
 48
0.1
 73
     0
 77
     1
 78
     8
 79
     2
140
3.5
141
0.0
143
0.0393701
146
0.71
147
1.5
176
   256
177
   256
178
     2
271
     2
272
     3
274
     4
283
     0
284
     8
288
     1
289
     0
340
11
371
    -1
372
    -1
  0
DIMSTYLE
105
AF9C
330
A
100
AcDbSymbolTableRecord
100
AcDbDimStyleTableRecord
  2
AM_ISO$6
 70
     0
  4
"
 41
2.5
 42
1.0
 43
10.0
 44
1.0
 47
0.1
 48
0.1
 73
     0
 74
     0
 78
     8
 79
     2
140
3.5
141
0.0
143
0.0393701
146
0.71
147
1.5
172
     1
176
   256
177
   256
178
     2
271
     2
272
     3
274
     4
283
     0
284
     8
340
11
371
    -1
372
    -1
  0
DIMSTYLE
105
AF9D
330
A
100
AcDbSymbolTableRecord
100
AcDbDimStyleTableRecord
  2
AM_ISO$7
 70
     0
  4
"
 41
2.5
 42
1.0
 43
10.0
 44
1.0
 47
0.1
 48
0.1
 73
     0
 74
     0
 77
     1
 78
     8
 79
     2
140
5.0
141
0.0
143
0.0393701
146
0.71
147
1.5
172
     1
176
   256
177
   256
178
     2
271
     2
272
     3
274
     4
283
     0
284
     8
340
11
371
    -1
372
    -1
  0
DIMSTYLE
105
AF9E
330
A
100
AcDbSymbolTableRecord
100
AcDbDimStyleTableRecord
  2
AM_ISO$SF
 70
     0
  4
"
 41
2.5
 42
1.0
 43
10.0
 44
1.0
 47
0.1
 48
0.1
 73
     0
 74
     0
 75
     1
 76
     1
 77
     1
 78
     8
 79
     2
140
3.5
141
0.0
143
0.0393701
146
0.71
147
1.5
172
     1
176
   256
177
   256
178
     2
271
     2
272
     3
274
     4
283
     0
284
     8
340
11
371
    -1
372
    -1
  0
DIMSTYLE
105
AF9F
330
A
100
AcDbSymbolTableRecord
100
AcDbDimStyleTableRecord
  2
AM_ISO$SH
 70
     0
  4
"
 41
2.5
 42
1.0
 43
10.0
 44
1.0
 47
0.1
 48
0.1
 73
     0
 74
     0
 75
     1
 76
     1
 77
     1
 78
     8
 79
     2
140
3.5
141
0.0
143
0.0393701
144
2.0
146
0.71
147
1.5
172
     1
173
     1
176
   256
177
   256
178
     2
271
     2
272
     3
274
     4
283
     0
284
     8
340
11
343
72
371
    -1
372
    -1
  0
ENDTAB
  0
TABLE
  2
BLOCK_RECORD
  5
1
330
0
100
AcDbSymbolTable
 70
  2874
  0
BLOCK_RECORD
  5
1F
102
{ACAD_XDICTIONARY
360
8A
102
}
330
1
100
AcDbSymbolTableRecord
100
AcDbBlockTableRecord
  2
*Model_Space
340
22
  0
BLOCK_RECORD
  5
1B
330
1
100
AcDbSymbolTableRecord
100
AcDbBlockTableRecord
  2
*Paper_Space
340
1E
  0
BLOCK_RECORD
  5
23
330
1
100
AcDbSymbolTableRecord
100
AcDbBlockTableRecord
  2
*Paper_Space0
340
26
  0
BLOCK_RECORD
  5
72
330
1
100
AcDbSymbolTableRecord
100
AcDbBlockTableRecord
  2
GENAXEH
340
0
  0
BLOCK_RECORD
  5
6C4
330
1
100
AcDbSymbolTableRecord
100
AcDbBlockTableRecord
  2
_Dot
340
0
102
{BLKREFS
331
1353D
331
1353E
331
1354F
331
13550
331
135BB
331
135BC
331
135CD
331
135CE
331
135F1
331
135F2
331
1361E
331
1361F
331
13630
331
13631
331
13642
331
13643
331
13654
331
13655
331
13666
331
13667
331
13678
331
13679
102
}
  0
BLOCK_RECORD
  5
A66
330
1
100
AcDbSymbolTableRecord
100
AcDbBlockTableRecord
  2
_OPEN30
340
0
  0
BLOCK_RECORD
  5
F4C1
330
1
100
AcDbSymbolTableRecord
100
AcDbBlockTableRecord
  2
block 2834
340
0
102
{BLKREFS
331
F4BF
102
}
  0
BLOCK_RECORD
  5
F4CD
330
1
100
AcDbSymbolTableRecord
100
AcDbBlockTableRecord
  2
block 2837
340
0
102
{BLKREFS
331
F4CB
102
}
  0
BLOCK_RECORD
  5
F4D9
330
1
100
AcDbSymbolTableRecord
100
AcDbBlockTableRecord
  2
block 2840
340
0
102
{BLKREFS
331
F4D7
102
}
  0
BLOCK_RECORD
  5
F4E5
330
1
100
AcDbSymbolTableRecord
100
AcDbBlockTableRecord
  2
block 2843
340
0
102
{BLKREFS
331
F4E3
102
}
  0
BLOCK_RECORD
  5
F4F1
330
1
100
AcDbSymbolTableRecord
100
AcDbBlockTableRecord
  2
block 2846
340
0
102
{BLKREFS
331
F4EF
102
}
  0
BLOCK_RECORD
  5
12E57
330
1
100
AcDbSymbolTableRecord
100
AcDbBlockTableRecord
  2
*D2862
340
0
  0
BLOCK_RECORD
  5
12E88
330
1
100
AcDbSymbolTableRecord
100
AcDbBlockTableRecord
  2
*D2863
340
0
  0
BLOCK_RECORD
  5
12EA7
330
1
100
AcDbSymbolTableRecord
100
AcDbBlockTableRecord
  2
*D2864
340
0
  0
BLOCK_RECORD
  5
12ED8
330
1
100
AcDbSymbolTableRecord
100
AcDbBlockTableRecord
  2
*D2865
340
0
  0
BLOCK_RECORD
  5
12F2D
330
1
100
AcDbSymbolTableRecord
100
AcDbBlockTableRecord
  2
*D2866
340
0
  0
BLOCK_RECORD
  5
12F5E
330
1
100
AcDbSymbolTableRecord
100
AcDbBlockTableRecord
  2
*D2867
340
0
  0
BLOCK_RECORD
  5
12F86
330
1
100
AcDbSymbolTableRecord
100
AcDbBlockTableRecord
  2
*D2868
340
0
  0
BLOCK_RECORD
  5
12FA5
330
1
100
AcDbSymbolTableRecord
100
AcDbBlockTableRecord
  2
*D2869
340
0
  0
BLOCK_RECORD
  5
12FC4
330
1
100
AcDbSymbolTableRecord
100
AcDbBlockTableRecord
  2
*D2870
340
0
  0
BLOCK_RECORD
  5
1306F
330
1
100
AcDbSymbolTableRecord
100
AcDbBlockTableRecord
  2
*D2871
340
0
  0
BLOCK_RECORD
  5
130A0
330
1
100
AcDbSymbolTableRecord
100
AcDbBlockTableRecord
  2
*D2872
340
0
  0
ENDTAB
  0
ENDSEC
  0
SECTION
  2
BLOCKS
  0
BLOCK
  5
20
330
1F
100
AcDbEntity
  8
0
100
AcDbBlockBegin
  2
*Model_Space
 70
     0
 10
0.0
 20
0.0
 30
0.0
  3
*Model_Space
  1

  0
ENDBLK
  5
21
330
1F
100
AcDbEntity
  8
0
100
AcDbBlockEnd
  0
BLOCK
  5
1C
330
1B
100
AcDbEntity
 67
     1
  8
0
100
AcDbBlockBegin
  2
*Paper_Space
 70
     0
 10
0.0
 20
0.0
 30
0.0
  3
*Paper_Space
  1

  0
ENDBLK
  5
1D
330
1B
100
AcDbEntity
 67
     1
  8
0
100
AcDbBlockEnd
  0
BLOCK
  5
24
330
23
100
AcDbEntity
 67
     1
  8
0
100
AcDbBlockBegin
  2
*Paper_Space0
 70
     0
 10
0.0
 20
0.0
 30
0.0
  3
*Paper_Space0
  1

  0
ENDBLK
  5
25
330
23
100
AcDbEntity
 67
     1
  8
0
100
AcDbBlockEnd
  0
BLOCK
  5
74
330
72
100
AcDbEntity
  8
0
100
AcDbBlockBegin
  2
GENAXEH
 70
     0
 10
0.0
 20
0.0
 30
0.0
  3
GENAXEH
  1

  0
LINE
  5
73
330
72
100
AcDbEntity
  8
0
100
AcDbLine
 10
-1.0
 20
0.0
 30
0.0
 11
1.0
 21
0.0
 31
0.0
  0
ENDBLK
  5
75
330
72
100
AcDbEntity
  8
0
100
AcDbBlockEnd
  0
BLOCK
  5
6C7
330
6C4
100
AcDbEntity
  8
0
100
AcDbBlockBegin
  2
_Dot
 70
     0
 10
0.0
 20
0.0
 30
0.0
  3
_Dot
  1

  0
LWPOLYLINE
  5
6C5
330
6C4
100
AcDbEntity
  8
0
  6
ByBlock
 62
     0
100
AcDbPolyline
 90
        2
 70
     1
 43
0.5
 10
-0.25
 20
0.0
 42
1.0
 10
0.25
 20
0.0
 42
1.0
  0
LINE
  5
6C6
330
6C4
100
AcDbEntity
  8
0
  6
ByBlock
 62
     0
370
    -2
100
AcDbLine
 10
-0.5
 20
0.0
 30
0.0
 11
-1.0
 21
0.0
 31
0.0
  0
ENDBLK
  5
6C8
330
6C4
100
AcDbEntity
  8
0
100
AcDbBlockEnd
  0
BLOCK
  5
A6A
330
A66
100
AcDbEntity
  8
0
100
AcDbBlockBegin
  2
_OPEN30
 70
     0
 10
0.0
 20
0.0
 30
0.0
  3
_OPEN30
  1

  0
LINE
  5
A67
330
A66
100
AcDbEntity
  8
0
  6
ByBlock
 62
     0
100
AcDbLine
 10
-1.0
 20
0.26794919
 30
0.0
 11
0.0
 21
0.0
 31
0.0
  0
LINE
  5
A68
330
A66
100
AcDbEntity
  8
0
  6
ByBlock
 62
     0
100
AcDbLine
 10
0.0
 20
0.0
 30
0.0
 11
-1.0
 21
-0.26794919
 31
0.0
  0
LINE
  5
A69
330
A66
100
AcDbEntity
  8
0
  6
ByBlock
 62
     0
100
AcDbLine
 10
0.0
 20
0.0
 30
0.0
 11
-1.0
 21
0.0
 31
0.0
  0
ENDBLK
  5
A6B
330
A66
100
AcDbEntity
  8
0
100
AcDbBlockEnd
  0
BLOCK
  5
F4C2
330
F4C1
100
AcDbEntity
  8
0
100
AcDbBlockBegin
  2
block 2834
 70
     0
 10
0.0
 20
0.0
 30
0.0
  3
block 2834
  1

  0
SPLINE
  5
F4C3
330
F4C1
100
AcDbEntity
  8
240
 62
     7
370
    25
100
AcDbSpline
210
0.0
220
0.0
230
1.0
 70
    11
 71
     3
 72
    32
 73
    28
 74
     0
 42
0.0000000001
 43
0.0000000001
 40
0.0
 40
0.0
 40
0.0
 40
0.0
 40
1.0
 40
1.0
 40
1.0
 40
2.0
 40
2.0
 40
2.0
 40
3.0
 40
3.0
 40
3.0
 40
4.0
 40
4.0
 40
4.0
 40
5.0
 40
5.0
 40
5.0
 40
6.0
 40
6.0
 40
6.0
 40
7.0
 40
7.0
 40
7.0
 40
8.0
 40
8.0
 40
8.0
 40
9.0
 40
9.0
 40
9.0
 40
9.0
 10
657.802734375
 20
242.9921875
 30
0.0
 10
657.6474609375
 20
243.4169921875
 30
0.0
 10
656.8837890624998
 20
243.529296875
 30
0.0
 10
656.095703125
 20
243.2431640625
 30
0.0
 10
656.095703125
 20
243.2431640625
 30
0.0
 10
656.095703125
 20
243.2431640625
 30
0.0
 10
656.095703125
 20
243.2431640625
 30
0.0
 10
655.30859375
 20
242.9560546875
 30
0.0
 10
654.794921875
 20
242.37890625
 30
0.0
 10
654.9501953125
 20
241.9541015625
 30
0.0
 10
654.9501953125
 20
241.9541015625
 30
0.0
 10
654.9501953125
 20
241.9541015625
 30
0.0
 10
654.9501953125
 20
241.9541015625
 30
0.0
 10
655.1044921875
 20
241.5283203125
 30
0.0
 10
655.869140625
 20
241.416015625
 30
0.0
 10
656.6562499999998
 20
241.7021484375
 30
0.0
 10
656.6562499999998
 20
241.7021484375
 30
0.0
 10
656.6562499999998
 20
241.7021484375
 30
0.0
 10
656.6562499999998
 20
241.7021484375
 30
0.0
 10
657.4443359375
 20
241.9892578125
 30
0.0
 10
657.95703125
 20
242.56640625
 30
0.0
 10
657.802734375
 20
242.9921875
 30
0.0
 10
657.802734375
 20
242.9921875
 30
0.0
 10
657.802734375
 20
242.9921875
 30
0.0
 10
657.802734375
 20
242.9921875
 30
0.0
 10
657.802734375
 20
242.9921875
 30
0.0
 10
657.802734375
 20
242.9921875
 30
0.0
 10
657.802734375
 20
242.9921875
 30
0.0
  0
ENDBLK
  5
F4C4
330
F4C1
100
AcDbEntity
  8
0
100
AcDbBlockEnd
  0
BLOCK
  5
F4CE
330
F4CD
100
AcDbEntity
  8
0
100
AcDbBlockBegin
  2
block 2837
 70
     0
 10
0.0
 20
0.0
 30
0.0
  3
block 2837
  1

  0
SPLINE
  5
F4CF
330
F4CD
100
AcDbEntity
  8
240
 62
     7
370
    25
100
AcDbSpline
210
0.0
220
0.0
230
1.0
 70
    11
 71
     3
 72
    32
 73
    28
 74
     0
 42
0.0000000001
 43
0.0000000001
 40
0.0
 40
0.0
 40
0.0
 40
0.0
 40
1.0
 40
1.0
 40
1.0
 40
2.0
 40
2.0
 40
2.0
 40
3.0
 40
3.0
 40
3.0
 40
4.0
 40
4.0
 40
4.0
 40
5.0
 40
5.0
 40
5.0
 40
6.0
 40
6.0
 40
6.0
 40
7.0
 40
7.0
 40
7.0
 40
8.0
 40
8.0
 40
8.0
 40
9.0
 40
9.0
 40
9.0
 40
9.0
 10
658.46875
 20
244.8232421875
 30
0.0
 10
658.314453125
 20
245.2490234375
 30
0.0
 10
657.5498046875
 20
245.361328125
 30
0.0
 10
656.7626953125
 20
245.0751953125
 30
0.0
 10
656.7626953125
 20
245.0751953125
 30
0.0
 10
656.7626953125
 20
245.0751953125
 30
0.0
 10
656.7626953125
 20
245.0751953125
 30
0.0
 10
655.974609375
 20
244.7880859375
 30
0.0
 10
655.4619140625
 20
244.2109375
 30
0.0
 10
655.6171875
 20
243.78515625
 30
0.0
 10
655.6171875
 20
243.78515625
 30
0.0
 10
655.6171875
 20
243.78515625
 30
0.0
 10
655.6171875
 20
243.78515625
 30
0.0
 10
655.771484375
 20
243.3603515625
 30
0.0
 10
656.53515625
 20
243.2470703125
 30
0.0
 10
657.3232421874998
 20
243.5341796875
 30
0.0
 10
657.3232421874998
 20
243.5341796875
 30
0.0
 10
657.3232421874998
 20
243.5341796875
 30
0.0
 10
657.3232421874998
 20
243.5341796875
 30
0.0
 10
658.111328125
 20
243.8212890625
 30
0.0
 10
658.6240234375
 20
244.3984375
 30
0.0
 10
658.46875
 20
244.8232421875
 30
0.0
 10
658.46875
 20
244.8232421875
 30
0.0
 10
658.46875
 20
244.8232421875
 30
0.0
 10
658.46875
 20
244.8232421875
 30
0.0
 10
658.46875
 20
244.8232421875
 30
0.0
 10
658.46875
 20
244.8232421875
 30
0.0
 10
658.46875
 20
244.8232421875
 30
0.0
  0
ENDBLK
  5
F4D0
330
F4CD
100
AcDbEntity
  8
0
100
AcDbBlockEnd
  0
BLOCK
  5
F4DA
330
F4D9
100
AcDbEntity
  8
0
100
AcDbBlockBegin
  2
block 2840
 70
     0
 10
0.0
 20
0.0
 30
0.0
  3
block 2840
  1

  0
SPLINE
  5
F4DB
330
F4D9
100
AcDbEntity
  8
240
 62
     7
370
    25
100
AcDbSpline
210
0.0
220
0.0
230
1.0
 70
    11
 71
     3
 72
    32
 73
    28
 74
     0
 42
0.0000000001
 43
0.0000000001
 40
0.0
 40
0.0
 40
0.0
 40
0.0
 40
1.0
 40
1.0
 40
1.0
 40
2.0
 40
2.0
 40
2.0
 40
3.0
 40
3.0
 40
3.0
 40
4.0
 40
4.0
 40
4.0
 40
5.0
 40
5.0
 40
5.0
 40
6.0
 40
6.0
 40
6.0
 40
7.0
 40
7.0
 40
7.0
 40
8.0
 40
8.0
 40
8.0
 40
9.0
 40
9.0
 40
9.0
 40
9.0
 10
659.1357421875
 20
246.6552734375
 30
0.0
 10
658.98046875
 20
247.0810546875
 30
0.0
 10
658.216796875
 20
247.193359375
 30
0.0
 10
657.4296874999999
 20
246.90625
 30
0.0
 10
657.4296874999999
 20
246.90625
 30
0.0
 10
657.4296874999999
 20
246.90625
 30
0.0
 10
657.4296874999999
 20
246.90625
 30
0.0
 10
656.6416015625
 20
246.6201171875
 30
0.0
 10
656.12890625
 20
246.04296875
 30
0.0
 10
656.283203125
 20
245.6171875
 30
0.0
 10
656.283203125
 20
245.6171875
 30
0.0
 10
656.283203125
 20
245.6171875
 30
0.0
 10
656.283203125
 20
245.6171875
 30
0.0
 10
656.4384765625
 20
245.19140625
 30
0.0
 10
657.2021484375
 20
245.0791015625
 30
0.0
 10
657.9902343749997
 20
245.3662109375
 30
0.0
 10
657.9902343749997
 20
245.3662109375
 30
0.0
 10
657.9902343749997
 20
245.3662109375
 30
0.0
 10
657.9902343749997
 20
245.3662109375
 30
0.0
 10
658.77734375
 20
245.65234375
 30
0.0
 10
659.2900390625
 20
246.2294921875
 30
0.0
 10
659.1357421875
 20
246.6552734375
 30
0.0
 10
659.1357421875
 20
246.6552734375
 30
0.0
 10
659.1357421875
 20
246.6552734375
 30
0.0
 10
659.1357421875
 20
246.6552734375
 30
0.0
 10
659.1357421875
 20
246.6552734375
 30
0.0
 10
659.1357421875
 20
246.6552734375
 30
0.0
 10
659.1357421875
 20
246.6552734375
 30
0.0
  0
ENDBLK
  5
F4DC
330
F4D9
100
AcDbEntity
  8
0
100
AcDbBlockEnd
  0
BLOCK
  5
F4E6
330
F4E5
100
AcDbEntity
  8
0
100
AcDbBlockBegin
  2
block 2843
 70
     0
 10
0.0
 20
0.0
 30
0.0
  3
block 2843
  1

  0
SPLINE
  5
F4E7
330
F4E5
100
AcDbEntity
  8
240
 62
     7
370
    25
100
AcDbSpline
210
0.0
220
0.0
230
1.0
 70
    11
 71
     3
 72
    32
 73
    28
 74
     0
 42
0.0000000001
 43
0.0000000001
 40
0.0
 40
0.0
 40
0.0
 40
0.0
 40
1.0
 40
1.0
 40
1.0
 40
2.0
 40
2.0
 40
2.0
 40
3.0
 40
3.0
 40
3.0
 40
4.0
 40
4.0
 40
4.0
 40
5.0
 40
5.0
 40
5.0
 40
6.0
 40
6.0
 40
6.0
 40
7.0
 40
7.0
 40
7.0
 40
8.0
 40
8.0
 40
8.0
 40
9.0
 40
9.0
 40
9.0
 40
9.0
 10
660.2939453124998
 20
250.8017578125
 30
0.0
 10
659.7265625
 20
251.478515625
 30
0.0
 10
658.6953124999999
 20
251.546875
 30
0.0
 10
657.9902343749997
 20
250.955078125
 30
0.0
 10
657.9902343749997
 20
250.955078125
 30
0.0
 10
657.9902343749997
 20
250.955078125
 30
0.0
 10
657.9902343749997
 20
250.955078125
 30
0.0
 10
657.2861328125
 20
250.3642578125
 30
0.0
 10
657.173828125
 20
249.3359375
 30
0.0
 10
657.7421874999997
 20
248.66015625
 30
0.0
 10
657.7421874999997
 20
248.66015625
 30
0.0
 10
657.7421874999997
 20
248.66015625
 30
0.0
 10
657.7421874999997
 20
248.66015625
 30
0.0
 10
658.3085937499999
 20
247.984375
 30
0.0
 10
659.3408203125
 20
247.9150390625
 30
0.0
 10
660.044921875
 20
248.5068359375
 30
0.0
 10
660.044921875
 20
248.5068359375
 30
0.0
 10
660.044921875
 20
248.5068359375
 30
0.0
 10
660.044921875
 20
248.5068359375
 30
0.0
 10
660.7499999999999
 20
249.0986328125
 30
0.0
 10
660.861328125
 20
250.1259765625
 30
0.0
 10
660.2939453124998
 20
250.8017578125
 30
0.0
 10
660.2939453124998
 20
250.8017578125
 30
0.0
 10
660.2939453124998
 20
250.8017578125
 30
0.0
 10
660.2939453124998
 20
250.8017578125
 30
0.0
 10
660.2939453124998
 20
250.8017578125
 30
0.0
 10
660.2939453124998
 20
250.8017578125
 30
0.0
 10
660.2939453124998
 20
250.8017578125
 30
0.0
  0
ENDBLK
  5
F4E8
330
F4E5
100
AcDbEntity
  8
0
100
AcDbBlockEnd
  0
BLOCK
  5
F4F2
330
F4F1
100
AcDbEntity
  8
0
100
AcDbBlockBegin
  2
block 2846
 70
     0
 10
0.0
 20
0.0
 30
0.0
  3
block 2846
  1

  0
SPLINE
  5
F4F3
330
F4F1
100
AcDbEntity
  8
240
 62
     7
370
    25
100
AcDbSpline
210
0.0
220
0.0
230
1.0
 70
    11
 71
     3
 72
    32
 73
    28
 74
     0
 42
0.0000000001
 43
0.0000000001
 40
0.0
 40
0.0
 40
0.0
 40
0.0
 40
1.0
 40
1.0
 40
1.0
 40
2.0
 40
2.0
 40
2.0
 40
3.0
 40
3.0
 40
3.0
 40
4.0
 40
4.0
 40
4.0
 40
5.0
 40
5.0
 40
5.0
 40
6.0
 40
6.0
 40
6.0
 40
7.0
 40
7.0
 40
7.0
 40
8.0
 40
8.0
 40
8.0
 40
9.0
 40
9.0
 40
9.0
 40
9.0
 10
659.61328125
 20
250.23046875
 30
0.0
 10
659.3994140625
 20
250.486328125
 30
0.0
 10
658.9589843749998
 20
250.4697265625
 30
0.0
 10
658.6298828124999
 20
250.193359375
 30
0.0
 10
658.6298828124999
 20
250.193359375
 30
0.0
 10
658.6298828124999
 20
250.193359375
 30
0.0
 10
658.6298828124999
 20
250.193359375
 30
0.0
 10
658.30078125
 20
249.91796875
 30
0.0
 10
658.2080078125
 20
249.4873046875
 30
0.0
 10
658.4228515625
 20
249.2314453125
 30
0.0
 10
658.4228515625
 20
249.2314453125
 30
0.0
 10
658.4228515625
 20
249.2314453125
 30
0.0
 10
658.4228515625
 20
249.2314453125
 30
0.0
 10
658.63671875
 20
248.9755859375
 30
0.0
 10
659.0771484374998
 20
248.9921875
 30
0.0
 10
659.4062499999997
 20
249.2685546875
 30
0.0
 10
659.4062499999997
 20
249.2685546875
 30
0.0
 10
659.4062499999997
 20
249.2685546875
 30
0.0
 10
659.4062499999997
 20
249.2685546875
 30
0.0
 10
659.7353515625
 20
249.5439453125
 30
0.0
 10
659.828125
 20
249.9755859375
 30
0.0
 10
659.61328125
 20
250.23046875
 30
0.0
 10
659.61328125
 20
250.23046875
 30
0.0
 10
659.61328125
 20
250.23046875
 30
0.0
 10
659.61328125
 20
250.23046875
 30
0.0
 10
659.61328125
 20
250.23046875
 30
0.0
 10
659.61328125
 20
250.23046875
 30
0.0
 10
659.61328125
 20
250.23046875
 30
0.0
  0
ENDBLK
  5
F4F4
330
F4F1
100
AcDbEntity
  8
0
100
AcDbBlockEnd
  0
BLOCK
  5
12E58
330
12E57
100
AcDbEntity
  8
0
100
AcDbBlockBegin
  2
*D2862
 70
     1
 10
0.0
 20
0.0
 30
0.0
  3
*D2862
  1

  0
LINE
  5
1353A
330
12E57
100
AcDbEntity
  8
AM_5
100
AcDbLine
 10
353.0600859700113
 20
292.8073964522279
 30
0.0
 11
353.0600859700113
 21
268.8073964522279
 31
0.0
  0
LINE
  5
1353B
330
12E57
100
AcDbEntity
  8
AM_5
100
AcDbLine
 10
323.0600859700112
 20
292.8073964522279
 30
0.0
 11
323.0600859700112
 21
268.8073964522279
 31
0.0
  0
LINE
  5
1353C
330
12E57
100
AcDbEntity
  8
AM_5
100
AcDbLine
 10
351.0600859700113
 20
270.8073964522279
 30
0.0
 11
325.0600859700112
 21
270.8073964522279
 31
0.0
  0
INSERT
  5
1353D
330
12E57
100
AcDbEntity
  8
AM_5
100
AcDbBlockReference
  2
_Dot
 10
353.0600859700113
 20
270.8073964522279
 30
0.0
 41
2.0
 42
2.0
 43
2.0
  0
INSERT
  5
1353E
330
12E57
100
AcDbEntity
  8
AM_5
100
AcDbBlockReference
  2
_Dot
 10
323.0600859700112
 20
270.8073964522279
 30
0.0
 41
2.0
 42
2.0
 43
2.0
 50
180.0
  0
MTEXT
  5
1353F
330
12E57
100
AcDbEntity
  8
AM_5
 62
     2
100
AcDbMText
 10
338.0600859700114
 20
277.0073964522278
 30
0.0
 40
6.400000000000002
 41
0.0
 71
     5
 72
     1
  1
M
 73
     1
 44
1.0
1001
ACAD
1000
MTEXTBEGIN
1070
    73
1070
     1
1070
    44
1040
1.0
1070
    74
1070
     0
1000
MTEXTEND
  0
POINT
  5
13540
330
12E57
100
AcDbEntity
  8
Defpoints
 62
     0
100
AcDbPoint
 10
353.0600859700113
 20
294.8073964522279
 30
0.0
  0
POINT
  5
13541
330
12E57
100
AcDbEntity
  8
Defpoints
 62
     0
100
AcDbPoint
 10
323.0600859700112
 20
294.8073964522279
 30
0.0
  0
POINT
  5
13542
330
12E57
100
AcDbEntity
  8
Defpoints
 62
     0
100
AcDbPoint
 10
323.0600859700112
 20
270.8073964522279
 30
0.0
  0
ENDBLK
  5
12E59
330
12E57
100
AcDbEntity
  8
0
100
AcDbBlockEnd
  0
BLOCK
  5
12E89
330
12E88
100
AcDbEntity
  8
0
100
AcDbBlockBegin
  2
*D2863
 70
     1
 10
0.0
 20
0.0
 30
0.0
  3
*D2863
  1

  0
LINE
  5
1354C
330
12E88
100
AcDbEntity
  8
AM_5
100
AcDbLine
 10
296.5600859700114
 20
432.3073964522277
 30
0.0
 11
296.5600859700114
 21
517.807397462228
 31
0.0
  0
LINE
  5
1354D
330
12E88
100
AcDbEntity
  8
AM_5
100
AcDbLine
 10
379.5600859700112
 20
432.3073964522277
 30
0.0
 11
379.5600859700112
 21
517.807397462228
 31
0.0
  0
LINE
  5
1354E
330
12E88
100
AcDbEntity
  8
AM_5
100
AcDbLine
 10
298.5600859700113
 20
515.8073974622277
 30
0.0
 11
377.5600859700113
 21
515.8073974622277
 31
0.0
  0
INSERT
  5
1354F
330
12E88
100
AcDbEntity
  8
AM_5
100
AcDbBlockReference
  2
_Dot
 10
296.5600859700114
 20
515.8073974622277
 30
0.0
 41
2.0
 42
2.0
 43
2.0
 50
180.0
  0
INSERT
  5
13550
330
12E88
100
AcDbEntity
  8
AM_5
100
AcDbBlockReference
  2
_Dot
 10
379.5600859700112
 20
515.8073974622277
 30
0.0
 41
2.0
 42
2.0
 43
2.0
  0
MTEXT
  5
13551
330
12E88
100
AcDbEntity
  8
AM_5
 62
     2
100
AcDbMText
 10
338.0600859700114
 20
522.0073974622279
 30
0.0
 40
6.400000000000002
 41
0.0
 71
     5
 72
     1
  1
A
 73
     1
 44
1.0
1001
ACAD
1000
MTEXTBEGIN
1070
    73
1070
     1
1070
    44
1040
1.0
1070
    74
1070
     0
1000
MTEXTEND
  0
POINT
  5
13552
330
12E88
100
AcDbEntity
  8
Defpoints
 62
     0
100
AcDbPoint
 10
296.5600859700114
 20
430.307396452228
 30
0.0
  0
POINT
  5
13553
330
12E88
100
AcDbEntity
  8
Defpoints
 62
     0
100
AcDbPoint
 10
379.5600859700112
 20
430.307396452228
 30
0.0
  0
POINT
  5
13554
330
12E88
100
AcDbEntity
  8
Defpoints
 62
     0
100
AcDbPoint
 10
379.5600859700112
 20
515.8073974622277
 30
0.0
  0
ENDBLK
  5
12E8A
330
12E88
100
AcDbEntity
  8
0
100
AcDbBlockEnd
  0
BLOCK
  5
12EA8
330
12EA7
100
AcDbEntity
  8
0
100
AcDbBlockBegin
  2
*D2864
 70
     1
 10
0.0
 20
0.0
 30
0.0
  3
*D2864
  1

  0
LINE
  5
135B8
330
12EA7
100
AcDbEntity
  8
AM_5
100
AcDbLine
 10
314.5600859700112
 20
432.3073964522277
 30
0.0
 11
314.5600859700112
 21
497.8073974622279
 31
0.0
  0
LINE
  5
135B9
330
12EA7
100
AcDbEntity
  8
AM_5
100
AcDbLine
 10
361.5600859700113
 20
432.3073964522277
 30
0.0
 11
361.5600859700113
 21
497.8073974622279
 31
0.0
  0
LINE
  5
135BA
330
12EA7
100
AcDbEntity
  8
AM_5
100
AcDbLine
 10
316.5600859700112
 20
495.8073974622278
 30
0.0
 11
359.5600859700113
 21
495.8073974622278
 31
0.0
  0
INSERT
  5
135BB
330
12EA7
100
AcDbEntity
  8
AM_5
100
AcDbBlockReference
  2
_Dot
 10
314.5600859700112
 20
495.8073974622278
 30
0.0
 41
2.0
 42
2.0
 43
2.0
 50
180.0
  0
INSERT
  5
135BC
330
12EA7
100
AcDbEntity
  8
AM_5
100
AcDbBlockReference
  2
_Dot
 10
361.5600859700113
 20
495.8073974622278
 30
0.0
 41
2.0
 42
2.0
 43
2.0
  0
MTEXT
  5
135BD
330
12EA7
100
AcDbEntity
  8
AM_5
 62
     2
100
AcDbMText
 10
338.0600859700114
 20
502.0073974622278
 30
0.0
 40
6.400000000000002
 41
0.0
 71
     5
 72
     1
  1
B\H5;1
 73
     1
 44
1.0
1001
ACAD
1000
MTEXTBEGIN
1070
    73
1070
     1
1070
    44
1040
1.0
1070
    74
1070
     0
1000
MTEXTEND
  0
POINT
  5
135BE
330
12EA7
100
AcDbEntity
  8
Defpoints
 62
     0
100
AcDbPoint
 10
314.5600859700112
 20
430.307396452228
 30
0.0
  0
POINT
  5
135BF
330
12EA7
100
AcDbEntity
  8
Defpoints
 62
     0
100
AcDbPoint
 10
361.5600859700113
 20
430.307396452228
 30
0.0
  0
POINT
  5
135C0
330
12EA7
100
AcDbEntity
  8
Defpoints
 62
     0
100
AcDbPoint
 10
361.5600859700113
 20
495.8073974622278
 30
0.0
  0
ENDBLK
  5
12EA9
330
12EA7
100
AcDbEntity
  8
0
100
AcDbBlockEnd
  0
BLOCK
  5
12ED9
330
12ED8
100
AcDbEntity
  8
0
100
AcDbBlockBegin
  2
*D2865
 70
     1
 10
0.0
 20
0.0
 30
0.0
  3
*D2865
  1

  0
LINE
  5
1362D
330
12ED8
100
AcDbEntity
  8
AM_5
100
AcDbLine
 10
486.1026786589226
 20
464.8073964522279
 30
0.0
 11
486.1026786589226
 21
497.8073974622279
 31
0.0
  0
LINE
  5
1362E
330
12ED8
100
AcDbEntity
  8
AM_5
100
AcDbLine
 10
504.1026786589226
 20
464.8073964522279
 30
0.0
 11
504.1026786589226
 21
497.8073974622279
 31
0.0
  0
LINE
  5
1362F
330
12ED8
100
AcDbEntity
  8
AM_5
100
AcDbLine
 10
488.1026786589226
 20
495.8073974622278
 30
0.0
 11
502.1026786589226
 21
495.8073974622278
 31
0.0
  0
INSERT
  5
13630
330
12ED8
100
AcDbEntity
  8
AM_5
100
AcDbBlockReference
  2
_Dot
 10
486.1026786589226
 20
495.8073974622278
 30
0.0
 41
2.0
 42
2.0
 43
2.0
 50
180.0
  0
INSERT
  5
13631
330
12ED8
100
AcDbEntity
  8
AM_5
100
AcDbBlockReference
  2
_Dot
 10
504.1026786589226
 20
495.8073974622278
 30
0.0
 41
2.0
 42
2.0
 43
2.0
  0
MTEXT
  5
13632
330
12ED8
100
AcDbEntity
  8
AM_5
 62
     2
100
AcDbMText
 10
495.1026786589226
 20
502.0073974622278
 30
0.0
 40
6.400000000000002
 41
0.0
 71
     5
 72
     1
  1
C
 73
     1
 44
1.0
1001
ACAD
1000
MTEXTBEGIN
1070
    73
1070
     1
1070
    44
1040
1.0
1070
    74
1070
     0
1000
MTEXTEND
  0
POINT
  5
13633
330
12ED8
100
AcDbEntity
  8
Defpoints
 62
     0
100
AcDbPoint
 10
486.1026786589226
 20
462.8073964522278
 30
0.0
  0
POINT
  5
13634
330
12ED8
100
AcDbEntity
  8
Defpoints
 62
     0
100
AcDbPoint
 10
504.1026786589226
 20
462.8073964522278
 30
0.0
  0
POINT
  5
13635
330
12ED8
100
AcDbEntity
  8
Defpoints
 62
     0
100
AcDbPoint
 10
504.1026786589226
 20
495.8073974622278
 30
0.0
  0
ENDBLK
  5
12EDA
330
12ED8
100
AcDbEntity
  8
0
100
AcDbBlockEnd
  0
BLOCK
  5
12F2E
330
12F2D
100
AcDbEntity
  8
0
100
AcDbBlockBegin
  2
*D2866
 70
     1
 10
0.0
 20
0.0
 30
0.0
  3
*D2866
  1

  0
LINE
  5
1363F
330
12F2D
100
AcDbEntity
  8
AM_5
100
AcDbLine
 10
470.1026786589226
 20
356.3073964522278
 30
0.0
 11
470.1026786589226
 21
266.9073954522277
 31
0.0
  0
LINE
  5
13640
330
12F2D
100
AcDbEntity
  8
AM_5
100
AcDbLine
 10
520.1026786589226
 20
356.3073964522278
 30
0.0
 11
520.1026786589226
 21
266.9073954522277
 31
0.0
  0
LINE
  5
13641
330
12F2D
100
AcDbEntity
  8
AM_5
100
AcDbLine
 10
472.1026786589226
 20
268.9073954522277
 30
0.0
 11
518.1026786589226
 21
268.9073954522277
 31
0.0
  0
INSERT
  5
13642
330
12F2D
100
AcDbEntity
  8
AM_5
100
AcDbBlockReference
  2
_Dot
 10
470.1026786589226
 20
268.9073954522277
 30
0.0
 41
2.0
 42
2.0
 43
2.0
 50
180.0
  0
INSERT
  5
13643
330
12F2D
100
AcDbEntity
  8
AM_5
100
AcDbBlockReference
  2
_Dot
 10
520.1026786589226
 20
268.9073954522277
 30
0.0
 41
2.0
 42
2.0
 43
2.0
  0
MTEXT
  5
13644
330
12F2D
100
AcDbEntity
  8
AM_5
 62
     2
100
AcDbMText
 10
495.1026786589226
 20
275.1073954522277
 30
0.0
 40
6.400000000000002
 41
0.0
 71
     5
 72
     1
  1
D
 73
     1
 44
1.0
1001
ACAD
1000
MTEXTBEGIN
1070
    73
1070
     1
1070
    44
1040
1.0
1070
    74
1070
     0
1000
MTEXTEND
  0
POINT
  5
13645
330
12F2D
100
AcDbEntity
  8
Defpoints
 62
     0
100
AcDbPoint
 10
470.1026786589226
 20
358.3073964522278
 30
0.0
  0
POINT
  5
13646
330
12F2D
100
AcDbEntity
  8
Defpoints
 62
     0
100
AcDbPoint
 10
520.1026786589226
 20
358.3073964522278
 30
0.0
  0
POINT
  5
13647
330
12F2D
100
AcDbEntity
  8
Defpoints
 62
     0
100
AcDbPoint
 10
520.1026786589226
 20
268.9073954522277
 30
0.0
  0
ENDBLK
  5
12F2F
330
12F2D
100
AcDbEntity
  8
0
100
AcDbBlockEnd
  0
BLOCK
  5
12F5F
330
12F5E
100
AcDbEntity
  8
0
100
AcDbBlockBegin
  2
*D2867
 70
     1
 10
0.0
 20
0.0
 30
0.0
  3
*D2867
  1

  0
LINE
  5
135EE
330
12F5E
100
AcDbEntity
  8
AM_5
100
AcDbLine
 10
361.5600859700113
 20
337.3073964522279
 30
0.0
 11
409.0600869700112
 21
337.3073964522278
 31
0.0
  0
LINE
  5
135EF
330
12F5E
100
AcDbEntity
  8
AM_5
100
AcDbLine
 10
351.5600859700114
 20
395.8073964522279
 30
0.0
 11
409.0600869700112
 21
395.8073964522278
 31
0.0
  0
LINE
  5
135F0
330
12F5E
100
AcDbEntity
  8
AM_5
100
AcDbLine
 10
407.0600869700111
 20
339.3073964522278
 30
0.0
 11
407.0600869700112
 21
393.8073964522278
 31
0.0
  0
INSERT
  5
135F1
330
12F5E
100
AcDbEntity
  8
AM_5
100
AcDbBlockReference
  2
_Dot
 10
407.0600869700111
 20
337.3073964522278
 30
0.0
 41
2.0
 42
2.0
 43
2.0
 50
270.0
  0
INSERT
  5
135F2
330
12F5E
100
AcDbEntity
  8
AM_5
100
AcDbBlockReference
  2
_Dot
 10
407.0600869700112
 20
395.8073964522278
 30
0.0
 41
2.0
 42
2.0
 43
2.0
 50
90.0
  0
MTEXT
  5
135F3
330
12F5E
100
AcDbEntity
  8
AM_5
 62
     2
100
AcDbMText
 10
400.8600869700111
 20
366.5573964522279
 30
0.0
 40
6.400000000000002
 41
0.0
 71
     5
 72
     1
  1
H\H5;2
 11
0.0000000000000001
 21
1.0
 31
0.0
 73
     1
 44
1.0
1001
ACAD
1000
MTEXTBEGIN
1070
    73
1070
     1
1070
    44
1040
1.0
1070
    74
1070
     0
1000
MTEXTEND
  0
POINT
  5
135F4
330
12F5E
100
AcDbEntity
  8
Defpoints
 62
     0
100
AcDbPoint
 10
359.5600859700113
 20
337.3073964522279
 30
0.0
  0
POINT
  5
135F5
330
12F5E
100
AcDbEntity
  8
Defpoints
 62
     0
100
AcDbPoint
 10
349.5600859700114
 20
395.8073964522279
 30
0.0
  0
POINT
  5
135F6
330
12F5E
100
AcDbEntity
  8
Defpoints
 62
     0
100
AcDbPoint
 10
407.0600869700112
 20
395.8073964522278
 30
0.0
  0
ENDBLK
  5
12F60
330
12F5E
100
AcDbEntity
  8
0
100
AcDbBlockEnd
  0
BLOCK
  5
12F87
330
12F86
100
AcDbEntity
  8
0
100
AcDbBlockBegin
  2
*D2868
 70
     1
 10
0.0
 20
0.0
 30
0.0
  3
*D2868
  1

  0
LINE
  5
135CA
330
12F86
100
AcDbEntity
  8
AM_5
100
AcDbLine
 10
351.5600859700112
 20
395.8073964522279
 30
0.0
 11
409.0600869700115
 21
395.8073964522278
 31
0.0
  0
LINE
  5
135CB
330
12F86
100
AcDbEntity
  8
AM_5
100
AcDbLine
 10
340.0600859700114
 20
453.8073964522277
 30
0.0
 11
409.0600869700115
 21
453.8073964522277
 31
0.0
  0
LINE
  5
135CC
330
12F86
100
AcDbEntity
  8
AM_5
100
AcDbLine
 10
407.0600869700117
 20
397.8073964522278
 30
0.0
 11
407.0600869700117
 21
451.8073964522279
 31
0.0
  0
INSERT
  5
135CD
330
12F86
100
AcDbEntity
  8
AM_5
100
AcDbBlockReference
  2
_Dot
 10
407.0600869700117
 20
395.8073964522278
 30
0.0
 41
2.0
 42
2.0
 43
2.0
 50
270.0
  0
INSERT
  5
135CE
330
12F86
100
AcDbEntity
  8
AM_5
100
AcDbBlockReference
  2
_Dot
 10
407.0600869700117
 20
453.8073964522277
 30
0.0
 41
2.0
 42
2.0
 43
2.0
 50
90.0
  0
MTEXT
  5
135CF
330
12F86
100
AcDbEntity
  8
AM_5
 62
     2
100
AcDbMText
 10
400.8600869700115
 20
424.8073964522277
 30
0.0
 40
6.400000000000002
 41
0.0
 71
     5
 72
     1
  1
B\H5;2
 11
0.0000000000000001
 21
1.0
 31
0.0
 73
     1
 44
1.0
1001
ACAD
1000
MTEXTBEGIN
1070
    73
1070
     1
1070
    44
1040
1.0
1070
    74
1070
     0
1000
MTEXTEND
  0
POINT
  5
135D0
330
12F86
100
AcDbEntity
  8
Defpoints
 62
     0
100
AcDbPoint
 10
349.5600859700112
 20
395.8073964522279
 30
0.0
  0
POINT
  5
135D1
330
12F86
100
AcDbEntity
  8
Defpoints
 62
     0
100
AcDbPoint
 10
338.0600859700114
 20
453.8073964522277
 30
0.0
  0
POINT
  5
135D2
330
12F86
100
AcDbEntity
  8
Defpoints
 62
     0
100
AcDbPoint
 10
407.0600869700117
 20
453.8073964522277
 30
0.0
  0
ENDBLK
  5
12F88
330
12F86
100
AcDbEntity
  8
0
100
AcDbBlockEnd
  0
BLOCK
  5
12FA6
330
12FA5
100
AcDbEntity
  8
0
100
AcDbBlockBegin
  2
*D2869
 70
     1
 10
0.0
 20
0.0
 30
0.0
  3
*D2869
  1

  0
LINE
  5
1361B
330
12FA5
100
AcDbEntity
  8
AM_5
100
AcDbLine
 10
361.5600859700113
 20
337.3073964522279
 30
0.0
 11
429.0600869700122
 21
337.3073964522278
 31
0.0
  0
LINE
  5
1361C
330
12FA5
100
AcDbEntity
  8
AM_5
100
AcDbLine
 10
340.0600859700114
 20
471.807396452228
 30
0.0
 11
429.0600869700122
 21
471.8073964522278
 31
0.0
  0
LINE
  5
1361D
330
12FA5
100
AcDbEntity
  8
AM_5
100
AcDbLine
 10
427.0600869700122
 20
339.3073964522278
 30
0.0
 11
427.0600869700122
 21
469.8073964522277
 31
0.0
  0
INSERT
  5
1361E
330
12FA5
100
AcDbEntity
  8
AM_5
100
AcDbBlockReference
  2
_Dot
 10
427.0600869700122
 20
337.3073964522278
 30
0.0
 41
2.0
 42
2.0
 43
2.0
 50
270.0
  0
INSERT
  5
1361F
330
12FA5
100
AcDbEntity
  8
AM_5
100
AcDbBlockReference
  2
_Dot
 10
427.0600869700122
 20
471.8073964522278
 30
0.0
 41
2.0
 42
2.0
 43
2.0
 50
90.0
  0
MTEXT
  5
13620
330
12FA5
100
AcDbEntity
  8
AM_5
 62
     2
100
AcDbMText
 10
420.8600869700121
 20
404.5573964522279
 30
0.0
 40
6.400000000000002
 41
0.0
 71
     5
 72
     1
  1
H\H5;1
 11
0.0000000000000001
 21
1.0
 31
0.0
 73
     1
 44
1.0
1001
ACAD
1000
MTEXTBEGIN
1070
    73
1070
     1
1070
    44
1040
1.0
1070
    74
1070
     0
1000
MTEXTEND
  0
POINT
  5
13621
330
12FA5
100
AcDbEntity
  8
Defpoints
 62
     0
100
AcDbPoint
 10
359.5600859700113
 20
337.3073964522279
 30
0.0
  0
POINT
  5
13622
330
12FA5
100
AcDbEntity
  8
Defpoints
 62
     0
100
AcDbPoint
 10
338.0600859700114
 20
471.807396452228
 30
0.0
  0
POINT
  5
13623
330
12FA5
100
AcDbEntity
  8
Defpoints
 62
     0
100
AcDbPoint
 10
427.0600869700122
 20
471.8073964522278
 30
0.0
  0
ENDBLK
  5
12FA7
330
12FA5
100
AcDbEntity
  8
0
100
AcDbBlockEnd
  0
BLOCK
  5
12FC5
330
12FC4
100
AcDbEntity
  8
0
100
AcDbBlockBegin
  2
*D2870
 70
     1
 10
0.0
 20
0.0
 30
0.0
  3
*D2870
  1

  0
LINE
  5
13651
330
12FC4
100
AcDbEntity
  8
AM_5
100
AcDbLine
 10
361.5600859700113
 20
337.3073964522279
 30
0.0
 11
429.0600869700128
 21
337.3073964522278
 31
0.0
  0
LINE
  5
13652
330
12FC4
100
AcDbEntity
  8
AM_5
100
AcDbLine
 10
352.5600859700113
 20
292.3073964522279
 30
0.0
 11
429.0600869700128
 21
292.3073964522278
 31
0.0
  0
LINE
  5
13653
330
12FC4
100
AcDbEntity
  8
AM_5
100
AcDbLine
 10
427.0600869700128
 20
335.3073964522278
 30
0.0
 11
427.0600869700128
 21
294.3073964522278
 31
0.0
  0
INSERT
  5
13654
330
12FC4
100
AcDbEntity
  8
AM_5
100
AcDbBlockReference
  2
_Dot
 10
427.0600869700128
 20
337.3073964522278
 30
0.0
 41
2.0
 42
2.0
 43
2.0
 50
90.0
  0
INSERT
  5
13655
330
12FC4
100
AcDbEntity
  8
AM_5
100
AcDbBlockReference
  2
_Dot
 10
427.0600869700128
 20
292.3073964522278
 30
0.0
 41
2.0
 42
2.0
 43
2.0
 50
270.0
  0
MTEXT
  5
13656
330
12FC4
100
AcDbEntity
  8
AM_5
 62
     2
100
AcDbMText
 10
420.8600869700125
 20
314.8073964522279
 30
0.0
 40
6.400000000000002
 41
0.0
 71
     5
 72
     1
  1
L
 11
0.0000000000000001
 21
1.0
 31
0.0
 73
     1
 44
1.0
1001
ACAD
1000
MTEXTBEGIN
1070
    73
1070
     1
1070
    44
1040
1.0
1070
    74
1070
     0
1000
MTEXTEND
  0
POINT
  5
13657
330
12FC4
100
AcDbEntity
  8
Defpoints
 62
     0
100
AcDbPoint
 10
359.5600859700113
 20
337.3073964522279
 30
0.0
  0
POINT
  5
13658
330
12FC4
100
AcDbEntity
  8
Defpoints
 62
     0
100
AcDbPoint
 10
350.5600859700113
 20
292.3073964522279
 30
0.0
  0
POINT
  5
13659
330
12FC4
100
AcDbEntity
  8
Defpoints
 62
     0
100
AcDbPoint
 10
427.0600869700128
 20
292.3073964522278
 30
0.0
  0
ENDBLK
  5
12FC6
330
12FC4
100
AcDbEntity
  8
0
100
AcDbBlockEnd
  0
BLOCK
  5
13070
330
1306F
100
AcDbEntity
  8
0
100
AcDbBlockBegin
  2
*D2871
 70
     1
 10
0.0
 20
0.0
 30
0.0
  3
*D2871
  1

  0
LINE
  5
13663
330
1306F
100
AcDbEntity
  8
AM_5
100
AcDbLine
 10
316.0600859700112
 20
335.8073964522279
 30
0.0
 11
316.0600859700112
 21
248.8073964522278
 31
0.0
  0
LINE
  5
13664
330
1306F
100
AcDbEntity
  8
AM_5
100
AcDbLine
 10
360.0600859700112
 20
335.8073964522279
 30
0.0
 11
360.0600859700112
 21
248.8073964522278
 31
0.0
  0
LINE
  5
13665
330
1306F
100
AcDbEntity
  8
AM_5
100
AcDbLine
 10
318.0600859700112
 20
250.8073964522278
 30
0.0
 11
358.0600859700112
 21
250.8073964522278
 31
0.0
  0
INSERT
  5
13666
330
1306F
100
AcDbEntity
  8
AM_5
100
AcDbBlockReference
  2
_Dot
 10
316.0600859700112
 20
250.8073964522278
 30
0.0
 41
2.0
 42
2.0
 43
2.0
 50
180.0
  0
INSERT
  5
13667
330
1306F
100
AcDbEntity
  8
AM_5
100
AcDbBlockReference
  2
_Dot
 10
360.0600859700112
 20
250.8073964522278
 30
0.0
 41
2.0
 42
2.0
 43
2.0
  0
MTEXT
  5
13668
330
1306F
100
AcDbEntity
  8
AM_5
 62
     2
100
AcDbMText
 10
338.0600859700114
 20
257.0073964522279
 30
0.0
 40
6.400000000000002
 41
0.0
 71
     5
 72
     1
  1
E
 73
     1
 44
1.0
1001
ACAD
1000
MTEXTBEGIN
1070
    73
1070
     1
1070
    44
1040
1.0
1070
    74
1070
     0
1000
MTEXTEND
  0
POINT
  5
13669
330
1306F
100
AcDbEntity
  8
Defpoints
 62
     0
100
AcDbPoint
 10
316.0600859700112
 20
337.8073964522279
 30
0.0
  0
POINT
  5
1366A
330
1306F
100
AcDbEntity
  8
Defpoints
 62
     0
100
AcDbPoint
 10
360.0600859700112
 20
337.8073964522279
 30
0.0
  0
POINT
  5
1366B
330
1306F
100
AcDbEntity
  8
Defpoints
 62
     0
100
AcDbPoint
 10
360.0600859700112
 20
250.8073964522278
 30
0.0
  0
ENDBLK
  5
13071
330
1306F
100
AcDbEntity
  8
0
100
AcDbBlockEnd
  0
BLOCK
  5
130A1
330
130A0
100
AcDbEntity
  8
0
100
AcDbBlockBegin
  2
*D2872
 70
     1
 10
0.0
 20
0.0
 30
0.0
  3
*D2872
  1

  0
LINE
  5
13675
330
130A0
100
AcDbEntity
  8
AM_5
100
AcDbLine
 10
288.0600859700114
 20
352.6554354621817
 30
0.0
 11
288.0600859700114
 21
228.8073964522276
 31
0.0
  0
LINE
  5
13676
330
130A0
100
AcDbEntity
  8
AM_5
100
AcDbLine
 10
388.0600859700113
 20
352.6554354621817
 30
0.0
 11
388.0600859700113
 21
228.8073964522276
 31
0.0
  0
LINE
  5
13677
330
130A0
100
AcDbEntity
  8
AM_5
100
AcDbLine
 10
290.0600859700112
 20
230.8073964522276
 30
0.0
 11
386.0600859700113
 21
230.8073964522276
 31
0.0
  0
INSERT
  5
13678
330
130A0
100
AcDbEntity
  8
AM_5
100
AcDbBlockReference
  2
_Dot
 10
288.0600859700114
 20
230.8073964522276
 30
0.0
 41
2.0
 42
2.0
 43
2.0
 50
180.0
  0
INSERT
  5
13679
330
130A0
100
AcDbEntity
  8
AM_5
100
AcDbBlockReference
  2
_Dot
 10
388.0600859700113
 20
230.8073964522276
 30
0.0
 41
2.0
 42
2.0
 43
2.0
  0
MTEXT
  5
1367A
330
130A0
100
AcDbEntity
  8
AM_5
 62
     2
100
AcDbMText
 10
338.0600859700114
 20
237.0073964522276
 30
0.0
 40
6.400000000000002
 41
0.0
 71
     5
 72
     1
  1
W
 73
     1
 44
1.0
1001
ACAD
1000
MTEXTBEGIN
1070
    73
1070
     1
1070
    44
1040
1.0
1070
    74
1070
     0
1000
MTEXTEND
  0
POINT
  5
1367B
330
130A0
100
AcDbEntity
  8
Defpoints
 62
     0
100
AcDbPoint
 10
288.0600859700114
 20
354.6554354621817
 30
0.0
  0
POINT
  5
1367C
330
130A0
100
AcDbEntity
  8
Defpoints
 62
     0
100
AcDbPoint
 10
388.0600859700113
 20
354.6554354621817
 30
0.0
  0
POINT
  5
1367D
330
130A0
100
AcDbEntity
  8
Defpoints
 62
     0
100
AcDbPoint
 10
388.0600859700113
 20
230.8073964522276
 30
0.0
  0
ENDBLK
  5
130A2
330
130A0
100
AcDbEntity
  8
0
100
AcDbBlockEnd
  0
ENDSEC
  0
SECTION
  2
ENTITIES
  0
TEXT
  5
10DD1
330
1F
100
AcDbEntity
  8
AM_6
 60
     1
100
AcDbText
 10
408.4999999999998
 20
8.5
 30
0.0
 40
2.5
  1
!GENTITLE-INSERT
100
AcDbText
  0
TEXT
  5
10DD2
330
1F
100
AcDbEntity
  8
AM_6
 60
     1
100
AcDbText
 10
0.0
 20
0.0
 30
0.0
 40
2.5
  1
!GENTITLE-LL
100
AcDbText
  0
TEXT
  5
10DD3
330
1F
100
AcDbEntity
  8
AM_6
 60
     1
100
AcDbText
 10
420.0
 20
297.0
 30
0.0
 40
2.5
  1
!GENTITLE-RU
100
AcDbText
  0
TEXT
  5
10DD4
330
1F
100
AcDbEntity
  8
AM_6
 60
     1
100
AcDbText
 10
420.0
 20
297.0
 30
0.0
 40
2.5
  1
!GENTITLE-MAX
100
AcDbText
  0
TEXT
  5
10DDC
330
1F
100
AcDbEntity
  8
AM_6
 60
     1
100
AcDbText
 10
0.0
 20
0.0
 30
0.0
 40
2.5
  1
!GENTITLE-LL
100
AcDbText
  0
TEXT
  5
10DDD
330
1F
100
AcDbEntity
  8
AM_6
 60
     1
100
AcDbText
 10
408.4999999999998
 20
288.5
 30
0.0
 40
2.5
  1
!GENTITLE-RU
100
AcDbText
  0
TEXT
  5
10DDE
330
1F
100
AcDbEntity
  8
AM_6
 60
     1
100
AcDbText
 10
420.0
 20
297.0
 30
0.0
 40
2.5
  1
!GENTITLE-MAX
100
AcDbText
  0
TEXT
  5
10DDF
330
1F
100
AcDbEntity
  8
AM_6
 60
     1
100
AcDbText
 10
408.4999999999998
 20
8.5
 30
0.0
 40
2.5
  1
!GENTITLE-INSERT
100
AcDbText
  0
LINE
  5
12C1A
330
1F
100
AcDbEntity
  8
AM_0
100
AcDbLine
 10
473.6026786589226
 20
342.3073964522278
 30
0.0
 11
488.0139552195436
 21
342.3073964522278
 31
0.0
  0
LINE
  5
12C1B
330
1F
100
AcDbEntity
  8
AM_0
100
AcDbLine
 10
478.1026786589225
 20
377.8073964522278
 30
0.0
 11
486.1026786589226
 21
377.8073964522278
 31
0.0
  0
LINE
  5
12C1C
330
1F
100
AcDbEntity
  8
AM_0
100
AcDbLine
 10
516.6026786589226
 20
342.3073964522278
 30
0.0
 11
502.1914020983015
 21
342.3073964522278
 31
0.0
  0
LINE
  5
12C1D
330
1F
100
AcDbEntity
  8
AM_0
100
AcDbLine
 10
477.1026786589223
 20
374.3073964522277
 30
0.0
 11
477.1026786589223
 21
376.8073964522279
 31
0.0
  0
LINE
  5
12C1E
330
1F
100
AcDbEntity
  8
AM_0
100
AcDbLine
 10
355.5600859700112
 20
382.3073964522279
 30
0.0
 11
355.5600859700112
 21
378.8073964522279
 31
0.0
  0
LINE
  5
12C35
330
1F
100
AcDbEntity
  8
AM_0
100
AcDbLine
 10
504.1026786589226
 20
462.8073964522278
 30
0.0
 11
504.1026786589226
 21
379.4320266265054
 31
0.0
  0
LINE
  5
12C36
330
1F
100
AcDbEntity
  8
AM_0
100
AcDbLine
 10
486.1026786589226
 20
462.8073964522278
 30
0.0
 11
486.1026786589226
 21
379.4320266265055
 31
0.0
  0
LINE
  5
12C3D
330
1F
100
AcDbEntity
  8
AM_0
100
AcDbLine
 10
380.0600859700113
 20
370.8073964522278
 30
0.0
 11
380.0600859700113
 21
345.8073964522279
 31
0.0
  0
LINE
  5
12C3E
330
1F
100
AcDbEntity
  8
AM_0
100
AcDbLine
 10
383.0600859700112
 20
370.8073964522278
 30
0.0
 11
383.0600859700112
 21
345.8073964522279
 31
0.0
  0
LINE
  5
12C3F
330
1F
100
AcDbEntity
  8
AM_0
100
AcDbLine
 10
383.0600859700112
 20
345.8073964522279
 30
0.0
 11
380.0600859700113
 21
345.8073964522279
 31
0.0
  0
LINE
  5
12C40
330
1F
100
AcDbEntity
  8
AM_0
100
AcDbLine
 10
383.0600859700112
 20
370.8073964522278
 30
0.0
 11
380.0600859700113
 21
370.8073964522278
 31
0.0
  0
LINE
  5
12C41
330
1F
100
AcDbEntity
  8
AM_0
100
AcDbLine
 10
383.8600859700112
 20
365.3073964522278
 30
0.0
 11
383.8600859700112
 21
351.3073964522277
 31
0.0
  0
LINE
  5
12C42
330
1F
100
AcDbEntity
  8
AM_0
100
AcDbLine
 10
388.0600859700113
 20
361.959357442274
 30
0.0
 11
388.0600859700113
 21
354.6554354621817
 31
0.0
  0
LINE
  5
12C43
330
1F
100
AcDbEntity
  8
AM_0
100
AcDbLine
 10
383.0600859700112
 20
365.3073964522278
 30
0.0
 11
383.8600859700112
 21
365.3073964522278
 31
0.0
  0
LINE
  5
12C44
330
1F
100
AcDbEntity
  8
AM_0
100
AcDbLine
 10
383.0600859700112
 20
351.3073964522277
 30
0.0
 11
383.8600859700112
 21
351.3073964522277
 31
0.0
  0
LINE
  5
12C45
330
1F
100
AcDbEntity
  8
AM_0
100
AcDbLine
 10
379.5600859700112
 20
343.8073964522279
 30
0.0
 11
379.5600859700112
 21
430.307396452228
 31
0.0
  0
LINE
  5
12C46
330
1F
100
AcDbEntity
  8
AM_0
100
AcDbLine
 10
361.5600859700113
 20
343.8073964522279
 30
0.0
 11
361.5600859700113
 21
430.307396452228
 31
0.0
  0
LINE
  5
12C5D
330
1F
100
AcDbEntity
  8
AM_0
100
AcDbLine
 10
360.5600859700112
 20
342.8073964522279
 30
0.0
 11
360.5600859700112
 21
374.3073964522277
 31
0.0
  0
LINE
  5
12C5E
330
1F
100
AcDbEntity
  8
AM_0
100
AcDbLine
 10
299.5600859700114
 20
340.8073964522279
 30
0.0
 11
311.5600859700113
 21
340.8073964522279
 31
0.0
  0
LINE
  5
12C5F
330
1F
100
AcDbEntity
  8
AM_0
100
AcDbLine
 10
296.0600859700112
 20
367.3073964522278
 30
0.0
 11
296.5600859700114
 21
367.3073964522276
 31
0.0
  0
LINE
  5
12C60
330
1F
100
AcDbEntity
  8
AM_0
100
AcDbLine
 10
296.0600859700112
 20
349.3073964522279
 30
0.0
 11
296.5600859700114
 21
349.3073964522277
 31
0.0
  0
LINE
  5
12C6D
330
1F
100
AcDbEntity
  8
AM_0
100
AcDbLine
 10
316.0600859700112
 20
341.8073964522279
 30
0.0
 11
316.0600859700112
 21
337.8073964522279
 31
0.0
  0
LINE
  5
12C70
330
1F
100
AcDbEntity
  8
AM_0
100
AcDbLine
 10
296.0600859700112
 20
370.8073964522278
 30
0.0
 11
296.0600859700114
 21
345.8073964522279
 31
0.0
  0
LINE
  5
12C71
330
1F
100
AcDbEntity
  8
AM_0
100
AcDbLine
 10
293.0600859700112
 20
370.8073964522278
 30
0.0
 11
293.0600859700112
 21
345.8073964522279
 31
0.0
  0
LINE
  5
12C74
330
1F
100
AcDbEntity
  8
AM_0
100
AcDbLine
 10
293.0600859700112
 20
345.8073964522279
 30
0.0
 11
296.0600859700112
 21
345.8073964522279
 31
0.0
  0
LINE
  5
12C75
330
1F
100
AcDbEntity
  8
AM_0
100
AcDbLine
 10
293.0600859700112
 20
370.8073964522278
 30
0.0
 11
296.0600859700112
 21
370.8073964522278
 31
0.0
  0
LINE
  5
12C76
330
1F
100
AcDbEntity
  8
AM_0
100
AcDbLine
 10
292.2600859700112
 20
365.3073964522278
 30
0.0
 11
292.2600859700112
 21
351.3073964522277
 31
0.0
  0
LINE
  5
12C77
330
1F
100
AcDbEntity
  8
AM_0
100
AcDbLine
 10
288.0600859700114
 20
361.959357442274
 30
0.0
 11
288.0600859700114
 21
354.6554354621817
 31
0.0
  0
LINE
  5
12C78
330
1F
100
AcDbEntity
  8
AM_0
100
AcDbLine
 10
293.0600859700112
 20
365.3073964522278
 30
0.0
 11
292.2600859700112
 21
365.3073964522278
 31
0.0
  0
LINE
  5
12C79
330
1F
100
AcDbEntity
  8
AM_0
100
AcDbLine
 10
293.0600859700112
 20
351.3073964522277
 30
0.0
 11
292.2600859700112
 21
351.3073964522277
 31
0.0
  0
LINE
  5
12C7B
330
1F
100
AcDbEntity
  8
AM_0
100
AcDbLine
 10
296.5600859700114
 20
343.8073964522279
 30
0.0
 11
296.5600859700114
 21
430.307396452228
 31
0.0
  0
LINE
  5
12C7C
330
1F
100
AcDbEntity
  8
AM_0
100
AcDbLine
 10
314.5600859700112
 20
343.8073964522279
 30
0.0
 11
314.5600859700112
 21
430.307396452228
 31
0.0
  0
LINE
  5
12C7F
330
1F
100
AcDbEntity
  8
AM_0
100
AcDbLine
 10
376.5600859700112
 20
340.8073964522279
 30
0.0
 11
364.5600859700112
 21
340.8073964522279
 31
0.0
  0
LINE
  5
12C8E
330
1F
100
AcDbEntity
  8
AM_0
100
AcDbLine
 10
473.6026786589226
 20
337.3073964522279
 30
0.0
 11
516.6026786589226
 21
337.3073964522279
 31
0.0
  0
LINE
  5
12C94
330
1F
100
AcDbEntity
  8
AM_0
100
AcDbLine
 10
360.0600859700112
 20
337.8073964522279
 30
0.0
 11
359.5600859700113
 21
337.3073964522279
 31
0.0
  0
LINE
  5
12C95
330
1F
100
AcDbEntity
  8
AM_0
100
AcDbLine
 10
316.5600859700112
 20
337.3073964522279
 30
0.0
 11
316.0600859700112
 21
337.8073964522279
 31
0.0
  0
LINE
  5
12C96
330
1F
100
AcDbEntity
  8
AM_0
100
AcDbLine
 10
316.5600859700112
 20
342.3073964522278
 30
0.0
 11
316.0600859700112
 21
341.8073964522279
 31
0.0
  0
LINE
  5
12C97
330
1F
100
AcDbEntity
  8
AM_0
100
AcDbLine
 10
360.5600859700112
 20
342.8073964522279
 30
0.0
 11
360.0600859700112
 21
342.3073964522278
 31
0.0
  0
LINE
  5
12C98
330
1F
100
AcDbEntity
  8
AM_0
100
AcDbLine
 10
315.5600859700113
 20
342.8073964522279
 30
0.0
 11
315.5600859700113
 21
374.3073964522277
 31
0.0
  0
LINE
  5
12C99
330
1F
100
AcDbEntity
  8
AM_0
100
AcDbLine
 10
360.0600859700112
 20
341.8073964522279
 30
0.0
 11
360.0600859700112
 21
337.8073964522279
 31
0.0
  0
LINE
  5
12C9A
330
1F
100
AcDbEntity
  8
AM_0
100
AcDbLine
 10
359.5600859700113
 20
342.3073964522278
 30
0.0
 11
360.0600859700112
 21
341.8073964522279
 31
0.0
  0
LINE
  5
12C9B
330
1F
100
AcDbEntity
  8
AM_0
100
AcDbLine
 10
315.5600859700113
 20
342.8073964522279
 30
0.0
 11
316.0600859700112
 21
342.3073964522278
 31
0.0
  0
LINE
  5
12C9C
330
1F
100
AcDbEntity
  8
AM_0
100
AcDbLine
 10
517.1026786589226
 20
341.8073964522279
 30
0.0
 11
517.1026786589226
 21
337.8073964522279
 31
0.0
  0
LINE
  5
12C9D
330
1F
100
AcDbEntity
  8
AM_0
100
AcDbLine
 10
473.1026786589226
 20
337.8073964522279
 30
0.0
 11
473.1026786589226
 21
341.8073964522279
 31
0.0
  0
LINE
  5
12C9E
330
1F
100
AcDbEntity
  8
AM_0
100
AcDbLine
 10
517.1026786589226
 20
337.8073964522279
 30
0.0
 11
516.6026786589226
 21
337.3073964522279
 31
0.0
  0
LINE
  5
12C9F
330
1F
100
AcDbEntity
  8
AM_0
100
AcDbLine
 10
517.1026786589226
 20
341.8073964522279
 30
0.0
 11
516.6026786589226
 21
342.3073964522278
 31
0.0
  0
LINE
  5
12CA0
330
1F
100
AcDbEntity
  8
AM_0
100
AcDbLine
 10
473.6026786589226
 20
342.3073964522278
 30
0.0
 11
473.1026786589226
 21
341.8073964522279
 31
0.0
  0
LINE
  5
12CA1
330
1F
100
AcDbEntity
  8
AM_0
100
AcDbLine
 10
473.1026786589226
 20
337.8073964522279
 30
0.0
 11
473.6026786589226
 21
337.3073964522279
 31
0.0
  0
LINE
  5
12CA2
330
1F
100
AcDbEntity
  8
AM_0
100
AcDbLine
 10
480.1026786589225
 20
294.8073964522277
 30
0.0
 11
480.1026786589225
 21
337.3073964522279
 31
0.0
  0
LINE
  5
12CA3
330
1F
100
AcDbEntity
  8
AM_2
100
AcDbLine
 10
482.0026786589227
 20
337.3073964522279
 30
0.0
 11
482.0026786589227
 21
292.9073964522276
 31
0.0
  0
LINE
  5
12CA5
330
1F
100
AcDbEntity
  8
AM_0
100
AcDbLine
 10
338.0600859700114
 20
374.3073964522277
 30
0.0
 11
360.5600859700112
 21
374.3073964522277
 31
0.0
  0
LINE
  5
12CAA
330
1F
100
AcDbEntity
  8
AM_0
100
AcDbLine
 10
325.5600859700114
 20
292.3073964522279
 30
0.0
 11
350.5600859700113
 21
292.3073964522279
 31
0.0
  0
LINE
  5
12CAC
330
1F
100
AcDbEntity
  8
AM_0
100
AcDbLine
 10
323.0600859700112
 20
294.8073964522279
 30
0.0
 11
323.0600859700112
 21
337.3073964522279
 31
0.0
  0
LINE
  5
12CAE
330
1F
100
AcDbEntity
  8
AM_0
100
AcDbLine
 10
325.5600859700114
 20
292.3073964522279
 30
0.0
 11
323.0600859700112
 21
294.8073964522279
 31
0.0
  0
LINE
  5
12CAF
330
1F
100
AcDbEntity
  8
AM_0
100
AcDbLine
 10
323.0600859700112
 20
294.8073964522279
 30
0.0
 11
353.0600859700113
 21
294.8073964522279
 31
0.0
  0
LINE
  5
12CB2
330
1F
100
AcDbEntity
  8
AM_0
100
AcDbLine
 10
316.0600859700114
 20
342.3073964522278
 30
0.0
 11
360.0600859700112
 21
342.3073964522278
 31
0.0
  0
LINE
  5
12CB3
330
1F
100
AcDbEntity
  8
AM_0
100
AcDbLine
 10
359.5600859700113
 20
337.3073964522279
 30
0.0
 11
316.5600859700112
 21
337.3073964522279
 31
0.0
  0
LINE
  5
12CBA
330
1F
100
AcDbEntity
  8
AM_0
100
AcDbLine
 10
482.6026786589226
 20
292.3073964522279
 30
0.0
 11
507.6026786589226
 21
292.3073964522279
 31
0.0
  0
LINE
  5
12CBB
330
1F
100
AcDbEntity
  8
AM_0
100
AcDbLine
 10
482.6026786589226
 20
292.3073964522279
 30
0.0
 11
480.1026786589225
 21
294.8073964522279
 31
0.0
  0
LINE
  5
12CBC
330
1F
100
AcDbEntity
  8
AM_0
100
AcDbLine
 10
480.1026786589225
 20
294.8073964522279
 30
0.0
 11
510.1026786589226
 21
294.8073964522279
 31
0.0
  0
LINE
  5
12CBD
330
1F
100
AcDbEntity
  8
AM_0
100
AcDbLine
 10
510.1026786589223
 20
294.8073964522277
 30
0.0
 11
510.1026786589223
 21
337.3073964522279
 31
0.0
  0
LINE
  5
12CBE
330
1F
100
AcDbEntity
  8
AM_2
100
AcDbLine
 10
508.2026786589223
 20
337.3073964522279
 30
0.0
 11
508.2026786589223
 21
292.9073964522276
 31
0.0
  0
LINE
  5
12CBF
330
1F
100
AcDbEntity
  8
AM_0
100
AcDbLine
 10
507.6026786589226
 20
292.3073964522279
 30
0.0
 11
510.1026786589226
 21
294.8073964522279
 31
0.0
  0
LINE
  5
12CC0
330
1F
100
AcDbEntity
  8
AM_0
100
AcDbLine
 10
379.5600859700112
 20
349.3073964522279
 30
0.0
 11
380.0600859700113
 21
349.3073964522279
 31
0.0
  0
LINE
  5
12CC1
330
1F
100
AcDbEntity
  8
AM_0
100
AcDbLine
 10
379.5600859700112
 20
367.3073964522278
 30
0.0
 11
380.0600859700113
 21
367.3073964522278
 31
0.0
  0
LINE
  5
12CC2
330
1F
100
AcDbEntity
  8
AM_0
100
AcDbLine
 10
496.5460543318966
 20
355.8073964522277
 30
0.0
 11
497.9894300048705
 21
358.3073964522278
 31
0.0
  0
LINE
  5
12CC3
330
1F
100
AcDbEntity
  8
AM_0
100
AcDbLine
 10
497.9894300048705
 20
358.3073964522278
 30
0.0
 11
496.5460543318966
 21
360.8073964522278
 31
0.0
  0
LINE
  5
12CC4
330
1F
100
AcDbEntity
  8
AM_0
100
AcDbLine
 10
496.5460543318966
 20
360.8073964522278
 30
0.0
 11
493.6593029859484
 21
360.8073964522278
 31
0.0
  0
LINE
  5
12CC5
330
1F
100
AcDbEntity
  8
AM_0
100
AcDbLine
 10
493.6593029859484
 20
360.8073964522278
 30
0.0
 11
492.2159273129745
 21
358.3073964522278
 31
0.0
  0
LINE
  5
12CC6
330
1F
100
AcDbEntity
  8
AM_0
100
AcDbLine
 10
492.2159273129745
 20
358.3073964522278
 30
0.0
 11
493.6593029859484
 21
355.8073964522277
 31
0.0
  0
LINE
  5
12CC7
330
1F
100
AcDbEntity
  8
AM_0
100
AcDbLine
 10
493.6593029859484
 20
355.8073964522277
 30
0.0
 11
496.5460543318966
 21
355.8073964522277
 31
0.0
  0
LINE
  5
12CCA
330
1F
100
AcDbEntity
  8
AM_0
100
AcDbLine
 10
355.5600859700112
 20
376.8073964522279
 30
0.0
 11
354.5600859700112
 21
377.8073964522278
 31
0.0
  0
LINE
  5
12CCD
330
1F
100
AcDbEntity
  8
AM_0
100
AcDbLine
 10
478.1026786589225
 20
377.8073964522278
 30
0.0
 11
477.1026786589223
 21
376.8073964522279
 31
0.0
  0
LINE
  5
12CCE
330
1F
100
AcDbEntity
  8
AM_0
100
AcDbLine
 10
505.1553707790325
 20
374.3073964522277
 30
0.0
 11
514.3120513712212
 21
374.3073964522277
 31
0.0
  0
LINE
  5
12CCF
330
1F
100
AcDbEntity
  8
AM_0
100
AcDbLine
 10
475.8933059466241
 20
374.3073964522277
 30
0.0
 11
485.0499865388128
 21
374.3073964522277
 31
0.0
  0
LINE
  5
12CD2
330
1F
100
AcDbEntity
  8
AM_0
100
AcDbLine
 10
353.0600859700113
 20
294.8073964522279
 30
0.0
 11
353.0600859700113
 21
337.3073964522279
 31
0.0
  0
LINE
  5
12CD3
330
1F
100
AcDbEntity
  8
AM_2
100
AcDbLine
 10
351.1600859700113
 20
337.3073964522279
 30
0.0
 11
351.1600859700113
 21
292.9073964522278
 31
0.0
  0
LINE
  5
12CD4
330
1F
100
AcDbEntity
  8
AM_0
100
AcDbLine
 10
350.5600859700113
 20
292.3073964522279
 30
0.0
 11
353.0600859700113
 21
294.8073964522279
 31
0.0
  0
LINE
  5
12CE3
330
1F
100
AcDbEntity
  8
AM_0
100
AcDbLine
 10
351.9164924305623
 20
394.4469245479086
 30
0.0
 11
351.9164924305623
 21
382.8073964522279
 31
0.0
  0
LINE
  5
12CE4
330
1F
100
AcDbEntity
  8
AM_0
100
AcDbLine
 10
344.9882892002869
 20
382.8073964522279
 30
0.0
 11
344.9882892002869
 21
393.910188720946
 31
0.0
  0
LINE
  5
12CE6
330
1F
100
AcDbEntity
  8
AM_0
100
AcDbLine
 10
349.5600859700112
 20
395.8073964522279
 30
0.0
 11
351.9164924305623
 21
394.4469245479086
 31
0.0
  0
LINE
  5
12CEE
330
1F
100
AcDbEntity
  8
AM_0
100
AcDbLine
 10
315.5600859700113
 20
374.3073964522277
 30
0.0
 11
338.0600859700114
 21
374.3073964522277
 31
0.0
  0
LINE
  5
12CEF
330
1F
100
AcDbEntity
  8
AM_0
100
AcDbLine
 10
321.5600859700114
 20
377.8073964522278
 30
0.0
 11
354.5600859700112
 21
377.8073964522278
 31
0.0
  0
LINE
  5
12CF0
330
1F
100
AcDbEntity
  8
AM_0
100
AcDbLine
 10
326.5600859700114
 20
395.8073964522279
 30
0.0
 11
349.5600859700114
 21
395.8073964522279
 31
0.0
  0
LINE
  5
12CF1
330
1F
100
AcDbEntity
  8
AM_0
100
AcDbLine
 10
512.6026786589226
 20
382.3073964522279
 30
0.0
 11
512.6026786589226
 21
378.8073964522279
 31
0.0
  0
LINE
  5
12CF2
330
1F
100
AcDbEntity
  8
AM_0
100
AcDbLine
 10
512.6026786589226
 20
376.8073964522279
 30
0.0
 11
511.6026786589226
 21
377.8073964522278
 31
0.0
  0
LINE
  5
12CF3
330
1F
100
AcDbEntity
  8
AM_0
100
AcDbLine
 10
504.1026786589226
 20
395.8073964522279
 30
0.0
 11
506.6026786589225
 21
395.8073964522279
 31
0.0
  0
LINE
  5
12CF4
330
1F
100
AcDbEntity
  8
AM_0
100
AcDbLine
 10
508.9590851194736
 20
394.4469245479086
 30
0.0
 11
508.9590851194736
 21
382.8073964522279
 31
0.0
  0
LINE
  5
12CF5
330
1F
100
AcDbEntity
  8
AM_0
100
AcDbLine
 10
506.6026786589225
 20
395.8073964522279
 30
0.0
 11
508.9590851194736
 21
394.4469245479086
 31
0.0
  0
LINE
  5
12CF6
330
1F
100
AcDbEntity
  8
AM_0
100
AcDbLine
 10
504.2045944292072
 20
377.8073964522278
 30
0.0
 11
511.6026786589226
 21
377.8073964522278
 31
0.0
  0
LINE
  5
12CF7
330
1F
100
AcDbEntity
  8
AM_0
100
AcDbLine
 10
486.1026786589226
 20
395.8073964522279
 30
0.0
 11
483.6026786589226
 21
395.8073964522279
 31
0.0
  0
LINE
  5
12CF8
330
1F
100
AcDbEntity
  8
AM_0
100
AcDbLine
 10
481.2462721983717
 20
394.4469245479086
 30
0.0
 11
481.2462721983717
 21
382.8073964522279
 31
0.0
  0
LINE
  5
12CF9
330
1F
100
AcDbEntity
  8
AM_0
100
AcDbLine
 10
483.6026786589226
 20
395.8073964522279
 30
0.0
 11
481.2462721983717
 21
394.4469245479086
 31
0.0
  0
LINE
  5
12D02
330
1F
100
AcDbEntity
  8
AM_2
100
AcDbLine
 10
339.469003474094
 20
386.5656519940403
 30
0.0
 11
338.9971445230981
 21
386.1565687135642
 31
0.0
  0
LINE
  5
12D03
330
1F
100
AcDbEntity
  8
AM_2
100
AcDbLine
 10
339.0104632209079
 20
387.0945573127958
 30
0.0
 11
338.538604269912
 21
386.6854740323198
 31
0.0
  0
LINE
  5
12D08
330
1F
100
AcDbEntity
  8
AM_0
100
AcDbLine
 10
355.5600859700112
 20
378.8073964522279
 30
0.0
 11
354.5600859700112
 21
377.8073964522278
 31
0.0
  0
LINE
  5
12D0A
330
1F
100
AcDbEntity
  8
AM_0
100
AcDbLine
 10
355.5600859700112
 20
376.8073964522279
 30
0.0
 11
355.5600859700112
 21
374.3073964522277
 31
0.0
  0
LINE
  5
12D0C
330
1F
100
AcDbEntity
  8
AM_0
100
AcDbLine
 10
355.5600859700112
 20
382.3073964522279
 30
0.0
 11
355.0600859700113
 21
382.8073964522279
 31
0.0
  0
LINE
  5
12D0E
330
1F
100
AcDbEntity
  8
AM_0
100
AcDbLine
 10
321.0600859700115
 20
382.807396452228
 30
0.0
 11
355.0600859700113
 21
382.8073964522279
 31
0.0
  0
LINE
  5
12D17
330
1F
100
AcDbEntity
  8
AM_0
100
AcDbLine
 10
477.6026786589225
 20
382.8073964522279
 30
0.0
 11
486.1026786589226
 21
382.8073964522279
 31
0.0
  0
LINE
  5
12D18
330
1F
100
AcDbEntity
  8
AM_0
100
AcDbLine
 10
478.1026786589225
 20
377.8073964522278
 30
0.0
 11
477.1026786589223
 21
378.8073964522279
 31
0.0
  0
LINE
  5
12D19
330
1F
100
AcDbEntity
  8
AM_0
100
AcDbLine
 10
512.6026786589226
 20
378.8073964522279
 30
0.0
 11
511.6026786589226
 21
377.8073964522278
 31
0.0
  0
LINE
  5
12D1A
330
1F
100
AcDbEntity
  8
AM_0
100
AcDbLine
 10
512.6026786589226
 20
376.8073964522279
 30
0.0
 11
512.6026786589226
 21
374.3073964522277
 31
0.0
  0
LINE
  5
12D1B
330
1F
100
AcDbEntity
  8
AM_0
100
AcDbLine
 10
477.1026786589223
 20
382.3073964522279
 30
0.0
 11
477.1026786589223
 21
378.8073964522279
 31
0.0
  0
LINE
  5
12D1C
330
1F
100
AcDbEntity
  8
AM_0
100
AcDbLine
 10
512.6026786589226
 20
382.3073964522279
 30
0.0
 11
512.1026786589226
 21
382.8073964522279
 31
0.0
  0
LINE
  5
12D1D
330
1F
100
AcDbEntity
  8
AM_0
100
AcDbLine
 10
477.6026786589225
 20
382.8073964522279
 30
0.0
 11
477.1026786589223
 21
382.3073964522279
 31
0.0
  0
LINE
  5
12D1E
330
1F
100
AcDbEntity
  8
AM_0
100
AcDbLine
 10
504.1026786589226
 20
382.8073964522279
 30
0.0
 11
512.1026786589226
 21
382.8073964522279
 31
0.0
  0
CIRCLE
  5
12D3B
330
1F
100
AcDbEntity
  8
AM_0
100
AcDbCircle
 10
495.1026786589226
 20
358.3073964522278
 30
0.0
 40
12.5
  0
CIRCLE
  5
12D3C
330
1F
100
AcDbEntity
  8
AM_0
100
AcDbCircle
 10
495.1026786589225
 20
358.3073964522278
 30
0.0
 40
7.0
  0
CIRCLE
  5
12D3D
330
1F
100
AcDbEntity
  8
AM_2
100
AcDbCircle
 10
338.0600859700114
 20
385.8073964522279
 30
0.0
 40
1.6
  0
ARC
  5
12D3E
330
1F
100
AcDbEntity
  8
AM_0
100
AcDbCircle
 10
495.1026786589226
 20
358.3073964522278
 30
0.0
 40
17.5
100
AcDbArc
 50
136.162864690462
 51
43.83713530953797
  0
ARC
  5
12D3F
330
1F
100
AcDbEntity
  8
AM_0
100
AcDbCircle
 10
495.1026786589226
 20
358.3073964522278
 30
0.0
 40
25.0
100
AcDbArc
 50
140.2081805004434
 51
219.7918194995565
  0
ARC
  5
12D40
330
1F
100
AcDbEntity
  8
AM_0
100
AcDbCircle
 10
495.1026786589226
 20
358.3073964522278
 30
0.0
 40
25.0
100
AcDbArc
 50
320.2081805004435
 51
39.79181949955652
  0
ARC
  5
12D41
330
1F
100
AcDbEntity
  8
AM_0
100
AcDbCircle
 10
338.0600859700114
 20
430.307396452228
 30
0.0
 40
23.5
100
AcDbArc
 50
0.0
 51
180.0
  0
ARC
  5
12D42
330
1F
100
AcDbEntity
  8
AM_0
100
AcDbCircle
 10
338.0600859700114
 20
430.307396452228
 30
0.0
 40
41.5
100
AcDbArc
 50
0.0
 51
180.0
  0
ARC
  5
12D44
330
1F
100
AcDbEntity
  8
AM_0
100
AcDbCircle
 10
517.1026786589226
 20
379.4320266265054
 30
0.0
 40
13.0
100
AcDbArc
 50
180.0
 51
223.837135309538
  0
ARC
  5
12D45
330
1F
100
AcDbEntity
  8
AM_0
100
AcDbCircle
 10
473.1026786589226
 20
379.4320266265055
 30
0.0
 40
13.0
100
AcDbArc
 50
316.162864690462
 51
0.0
  0
ARC
  5
12D46
330
1F
100
AcDbEntity
  8
AM_0
100
AcDbCircle
 10
495.1026786589226
 20
462.8073964522278
 30
0.0
 40
9.0
100
AcDbArc
 50
0.0
 51
180.0
  0
ARC
  5
12D47
330
1F
100
AcDbEntity
  8
AM_0
100
AcDbCircle
 10
381.7144691929659
 20
358.3073964522278
 30
0.0
 40
7.321452817162628
100
AcDbArc
 50
287.0411758755908
 51
330.079176138415
  0
ARC
  5
12D48
330
1F
100
AcDbEntity
  8
AM_0
100
AcDbCircle
 10
381.7144691929659
 20
358.3073964522278
 30
0.0
 40
7.321452817162628
100
AcDbArc
 50
29.92082386158497
 51
72.95882412440906
  0
ARC
  5
12D49
330
1F
100
AcDbEntity
  8
AM_0
100
AcDbCircle
 10
294.4057027470567
 20
358.3073964522278
 30
0.0
 40
7.321452817162628
100
AcDbArc
 50
209.920823861585
 51
252.9588241244091
  0
ARC
  5
12D4A
330
1F
100
AcDbEntity
  8
AM_0
100
AcDbCircle
 10
294.4057027470567
 20
358.3073964522278
 30
0.0
 40
7.321452817162628
100
AcDbArc
 50
107.0411758755908
 51
150.079176138415
  0
ARC
  5
12D50
330
1F
100
AcDbEntity
  8
AM_0
100
AcDbCircle
 10
311.5600859700113
 20
343.8073964522279
 30
0.0
 40
3.0
100
AcDbArc
 50
270.0
 51
0.0
  0
ARC
  5
12D51
330
1F
100
AcDbEntity
  8
AM_0
100
AcDbCircle
 10
299.5600859700114
 20
343.8073964522279
 30
0.0
 40
3.0
100
AcDbArc
 50
180.0
 51
270.0
  0
ARC
  5
12D52
330
1F
100
AcDbEntity
  8
AM_0
100
AcDbCircle
 10
364.5600859700112
 20
343.8073964522279
 30
0.0
 40
3.0
100
AcDbArc
 50
180.0
 51
270.0
  0
ARC
  5
12D53
330
1F
100
AcDbEntity
  8
AM_0
100
AcDbCircle
 10
376.5600859700112
 20
343.8073964522279
 30
0.0
 40
3.0
100
AcDbArc
 50
270.0
 51
0.0
  0
ARC
  5
12D54
330
1F
100
AcDbEntity
  8
AM_0
100
AcDbCircle
 10
338.0600859700114
 20
382.2086227584334
 30
0.0
 40
13.59877369379439
100
AcDbArc
 50
59.37129059048498
 51
90.0
  0
ARC
  5
12D55
330
1F
100
AcDbEntity
  8
AM_0
100
AcDbCircle
 10
353.3329885123671
 20
380.2585956494043
 30
0.0
 40
16.0
100
AcDbArc
 50
103.6391625749323
 51
121.4358573864013
  0
ARC
  5
12D58
330
1F
100
AcDbEntity
  8
AM_0
100
AcDbCircle
 10
510.3755812012784
 20
380.2585956494043
 30
0.0
 40
16.0
100
AcDbArc
 50
103.6391625749323
 51
113.0825158245293
  0
ARC
  5
12D59
330
1F
100
AcDbEntity
  8
AM_0
100
AcDbCircle
 10
479.8297761165668
 20
380.2585956494043
 30
0.0
 40
16.0
100
AcDbArc
 50
66.91748417547069
 51
76.3608374250676
  0
ARC
  5
12D5A
330
1F
100
AcDbEntity
  8
AM_2
100
AcDbCircle
 10
338.0600859700114
 20
385.8073964522279
 30
0.0
 40
1.0
100
AcDbArc
 50
61.41132551280493
 51
20.43669528335869
  0
ARC
  5
12D5B
330
1F
100
AcDbEntity
  8
AM_0
100
AcDbCircle
 10
311.0600859700114
 20
344.8073964522279
 30
0.0
 40
4.5
100
AcDbArc
 50
0.0
 51
38.94244126897874
  0
ARC
  5
12D5C
330
1F
100
AcDbEntity
  8
AM_0
100
AcDbCircle
 10
311.0600859700114
 20
371.8073964522278
 30
0.0
 40
4.5
100
AcDbArc
 50
321.0575587310212
 51
0.0
  0
ARC
  5
12D5D
330
1F
100
AcDbEntity
  8
AM_0
100
AcDbCircle
 10
365.0600859700113
 20
344.8073964522279
 30
0.0
 40
4.5
100
AcDbArc
 50
141.0575587310215
 51
180.0
  0
ARC
  5
12D5E
330
1F
100
AcDbEntity
  8
AM_0
100
AcDbCircle
 10
365.0600859700113
 20
371.8073964522278
 30
0.0
 40
4.5
100
AcDbArc
 50
180.0
 51
218.9424412689785
  0
LINE
  5
12D74
330
1F
100
AcDbEntity
  8
AM_0
100
AcDbLine
 10
674.0767194190661
 20
185.0
 30
0.0
 11
164.0767194190661
 21
185.0
 31
0.0
  0
LINE
  5
12D75
330
1F
100
AcDbEntity
  8
AM_4
100
AcDbLine
 10
164.0767194190661
 20
129.0
 30
0.0
 11
674.0767194190661
 21
129.0
 31
0.0
  0
LINE
  5
12D76
330
1F
100
AcDbEntity
  8
AM_0
100
AcDbLine
 10
674.0767194190661
 20
171.0
 30
0.0
 11
164.0767194190661
 21
171.0
 31
0.0
  0
LINE
  5
12D77
330
1F
100
AcDbEntity
  8
AM_4
100
AcDbLine
 10
674.0767194190661
 20
157.0
 30
0.0
 11
164.0767194190661
 21
157.0
 31
0.0
  0
LINE
  5
12D78
330
1F
100
AcDbEntity
  8
AM_4
100
AcDbLine
 10
674.0767194190661
 20
143.0
 30
0.0
 11
164.0767194190661
 21
143.0
 31
0.0
  0
LINE
  5
12D79
330
1F
100
AcDbEntity
  8
AM_0
100
AcDbLine
 10
164.0767194190661
 20
185.0
 30
0.0
 11
164.0767194190661
 21
17.00000000000005
 31
0.0
  0
LINE
  5
12D7A
330
1F
100
AcDbEntity
  8
AM_0
100
AcDbLine
 10
220.0767194190662
 20
185.0
 30
0.0
 11
220.0767194190662
 21
17.00000000000005
 31
0.0
  0
LINE
  5
12D7B
330
1F
100
AcDbEntity
  8
AM_4
100
AcDbLine
 10
342.0767194190661
 20
185.0
 30
0.0
 11
342.0767194190661
 21
17.00000000000005
 31
0.0
  0
LINE
  5
12D7C
330
1F
100
AcDbEntity
  8
AM_0
100
AcDbLine
 10
674.0767194190661
 20
185.0
 30
0.0
 11
674.0767194190661
 21
17.00000000000005
 31
0.0
  0
MTEXT
  5
12D7D
330
1F
100
AcDbEntity
  8
AM_6
100
AcDbMText
 10
192.0767194190661
 20
178.0
 30
0.0
 40
6.4
 41
56.0
 71
     5
 72
     5
  1
品番
 73
     1
 44
1.0
1001
ACAD
1000
MTEXTBEGIN
1070
    73
1070
     1
1070
    44
1040
1.0
1070
    74
1070
     0
1000
MTEXTEND
  0
MTEXT
  5
12D7E
330
1F
100
AcDbEntity
  8
AM_6
100
AcDbMText
 10
320.0767194190661
 20
178.0
 30
0.0
 40
6.4
 41
44.0
 71
     5
 72
     5
  1
取付ボルト：M
 73
     1
 44
1.0
1001
ACAD
1000
MTEXTBEGIN
1070
    73
1070
     1
1070
    44
1040
1.0
1070
    74
1070
     0
1000
MTEXTEND
  0
MTEXT
  5
12D7F
330
1F
100
AcDbEntity
  8
AM_6
100
AcDbMText
 10
353.0767194190661
 20
178.0
 30
0.0
 40
6.4
 41
22.0
 71
     5
 72
     5
  1
A
 73
     1
 44
1.0
1001
ACAD
1000
MTEXTBEGIN
1070
    73
1070
     1
1070
    44
1040
1.0
1070
    74
1070
     0
1000
MTEXTEND
  0
LINE
  5
12D80
330
1F
100
AcDbEntity
  8
AM_0
100
AcDbLine
 10
164.0767194190661
 20
17.00000000000005
 30
0.0
 11
674.0767194190661
 21
17.00000000000005
 31
0.0
  0
MTEXT
  5
12D81
330
1F
100
AcDbEntity
  8
AM_6
100
AcDbMText
 10
192.0767194190661
 20
164.0
 30
0.0
 40
6.4
 41
56.0
 71
     5
 72
     5
  1
EB-904-2416
 73
     1
 44
1.0
1001
ACAD
1000
MTEXTBEGIN
1070
    73
1070
     1
1070
    44
1040
1.0
1070
    74
1070
     0
1000
MTEXTEND
  0
MTEXT
  5
12D82
330
1F
100
AcDbEntity
  8
AM_6
100
AcDbMText
 10
353.0767194190661
 20
136.0
 30
0.0
 40
6.4
 41
22.0
 71
     5
 72
     5
  1
83
 73
     1
 44
1.0
1001
ACAD
1000
MTEXTBEGIN
1070
    73
1070
     1
1070
    44
1040
1.0
1070
    74
1070
     0
1000
MTEXTEND
  0
MTEXT
  5
12D83
330
1F
100
AcDbEntity
  8
AM_6
100
AcDbMText
 10
353.0767194190661
 20
122.0
 30
0.0
 40
6.4
 41
22.0
 71
     5
 72
     5
  1
102
 73
     1
 44
1.0
1001
ACAD
1000
MTEXTBEGIN
1070
    73
1070
     1
1070
    44
1040
1.0
1070
    74
1070
     0
1000
MTEXTEND
  0
MTEXT
  5
12D84
330
1F
100
AcDbEntity
  8
AM_6
100
AcDbMText
 10
320.0767194190661
 20
164.0
 30
0.0
 40
6.4
 41
44.0
 71
     5
 72
     5
  1
M24
 73
     1
 44
1.0
1001
ACAD
1000
MTEXTBEGIN
1070
    73
1070
     1
1070
    44
1040
1.0
1070
    74
1070
     0
1000
MTEXTEND
  0
LINE
  5
12D85
330
1F
100
AcDbEntity
  8
AM_4
100
AcDbLine
 10
364.0767194190662
 20
185.0
 30
0.0
 11
364.0767194190662
 21
17.00000000000005
 31
0.0
  0
MTEXT
  5
12D86
330
1F
100
AcDbEntity
  8
AM_6
100
AcDbMText
 10
375.0767194190661
 20
178.0
 30
0.0
 40
6.4
 41
22.0
 71
     5
 72
     5
  1
B{\H5;1}
 73
     1
 44
1.0
1001
ACAD
1000
MTEXTBEGIN
1070
    73
1070
     1
1070
    44
1040
1.0
1070
    74
1070
     0
1000
MTEXTEND
  0
LINE
  5
12D87
330
1F
100
AcDbEntity
  8
AM_4
100
AcDbLine
 10
386.0767194190661
 20
185.0
 30
0.0
 11
386.0767194190661
 21
17.00000000000005
 31
0.0
  0
MTEXT
  5
12D88
330
1F
100
AcDbEntity
  8
AM_6
100
AcDbMText
 10
419.0767194190661
 20
178.0
 30
0.0
 40
6.4
 41
22.0
 71
     5
 72
     5
  1
C
 73
     1
 44
1.0
1001
ACAD
1000
MTEXTBEGIN
1070
    73
1070
     1
1070
    44
1040
1.0
1070
    74
1070
     0
1000
MTEXTEND
  0
LINE
  5
12D89
330
1F
100
AcDbEntity
  8
AM_4
100
AcDbLine
 10
430.0767194190661
 20
185.0
 30
0.0
 11
430.0767194190661
 21
17.00000000000005
 31
0.0
  0
MTEXT
  5
12D8A
330
1F
100
AcDbEntity
  8
AM_6
100
AcDbMText
 10
441.0767194190661
 20
178.0
 30
0.0
 40
6.4
 41
22.0
 71
     5
 72
     5
  1
D
 73
     1
 44
1.0
1001
ACAD
1000
MTEXTBEGIN
1070
    73
1070
     1
1070
    44
1040
1.0
1070
    74
1070
     0
1000
MTEXTEND
  0
LINE
  5
12D8B
330
1F
100
AcDbEntity
  8
AM_4
100
AcDbLine
 10
164.0767194190661
 20
115.0
 30
0.0
 11
674.0767194190661
 21
115.0
 31
0.0
  0
MTEXT
  5
12D8C
330
1F
100
AcDbEntity
  8
AM_6
100
AcDbMText
 10
320.0767194190661
 20
150.0
 30
0.0
 40
6.4
 41
44.0
 71
     5
 72
     5
  1
M24
 73
     1
 44
1.0
1001
ACAD
1000
MTEXTBEGIN
1070
    73
1070
     1
1070
    44
1040
1.0
1070
    74
1070
     0
1000
MTEXTEND
  0
MTEXT
  5
12D8D
330
1F
100
AcDbEntity
  8
AM_6
100
AcDbMText
 10
320.0767194190661
 20
136.0
 30
0.0
 40
6.4
 41
44.0
 71
     5
 72
     5
  1
M30
 73
     1
 44
1.0
1001
ACAD
1000
MTEXTBEGIN
1070
    73
1070
     1
1070
    44
1040
1.0
1070
    74
1070
     0
1000
MTEXTEND
  0
MTEXT
  5
12D8E
330
1F
100
AcDbEntity
  8
AM_6
100
AcDbMText
 10
320.0767194190661
 20
122.0
 30
0.0
 40
6.4
 41
44.0
 71
     5
 72
     5
  1
M30
 73
     1
 44
1.0
1001
ACAD
1000
MTEXTBEGIN
1070
    73
1070
     1
1070
    44
1040
1.0
1070
    74
1070
     0
1000
MTEXTEND
  0
MTEXT
  5
12D8F
330
1F
100
AcDbEntity
  8
AM_6
100
AcDbMText
 10
375.0767194190661
 20
122.0
 30
0.0
 40
6.4
 41
22.0
 71
     5
 72
     5
  1
58
 73
     1
 44
1.0
1001
ACAD
1000
MTEXTBEGIN
1070
    73
1070
     1
1070
    44
1040
1.0
1070
    74
1070
     0
1000
MTEXTEND
  0
MTEXT
  5
12D90
330
1F
100
AcDbEntity
  8
AM_6
100
AcDbMText
 10
320.0767194190661
 20
108.0
 30
0.0
 40
6.4
 41
44.0
 71
     5
 72
     5
  1
M36
 73
     1
 44
1.0
1001
ACAD
1000
MTEXTBEGIN
1070
    73
1070
     1
1070
    44
1040
1.0
1070
    74
1070
     0
1000
MTEXTEND
  0
MTEXT
  5
12D91
330
1F
100
AcDbEntity
  8
AM_6
100
AcDbMText
 10
419.0767194190661
 20
150.0
 30
0.0
 40
6.4
 41
22.0
 71
     5
 72
     5
  1
18
 73
     1
 44
1.0
1001
ACAD
1000
MTEXTBEGIN
1070
    73
1070
     1
1070
    44
1040
1.0
1070
    74
1070
     0
1000
MTEXTEND
  0
MTEXT
  5
12D92
330
1F
100
AcDbEntity
  8
AM_6
100
AcDbMText
 10
441.0767194190661
 20
150.0
 30
0.0
 40
6.4
 41
22.0
 71
     5
 72
     5
  1
50
 73
     1
 44
1.0
1001
ACAD
1000
MTEXTBEGIN
1070
    73
1070
     1
1070
    44
1040
1.0
1070
    74
1070
     0
1000
MTEXTEND
  0
LINE
  5
12D93
330
1F
100
AcDbEntity
  8
AM_4
100
AcDbLine
 10
164.0767194190661
 20
59.00000000000023
 30
0.0
 11
674.0767194190661
 21
59.00000000000023
 31
0.0
  0
LINE
  5
12D94
330
1F
100
AcDbEntity
  8
AM_4
100
AcDbLine
 10
674.0767194190661
 20
87.00000000000022
 30
0.0
 11
164.0767194190661
 21
87.00000000000022
 31
0.0
  0
LINE
  5
12D95
330
1F
100
AcDbEntity
  8
AM_4
100
AcDbLine
 10
674.0767194190661
 20
73.00000000000022
 30
0.0
 11
164.0767194190661
 21
73.00000000000022
 31
0.0
  0
MTEXT
  5
12D96
330
1F
100
AcDbEntity
  8
AM_6
100
AcDbMText
 10
353.0767194190661
 20
94.00000000000023
 30
0.0
 40
6.4
 41
22.0
 71
     5
 72
     5
  1
128
 73
     1
 44
1.0
1001
ACAD
1000
MTEXTBEGIN
1070
    73
1070
     1
1070
    44
1040
1.0
1070
    74
1070
     0
1000
MTEXTEND
  0
MTEXT
  5
12D97
330
1F
100
AcDbEntity
  8
AM_6
100
AcDbMText
 10
353.0767194190661
 20
80.00000000000024
 30
0.0
 40
6.4
 41
22.0
 71
     5
 72
     5
  1
128
 73
     1
 44
1.0
1001
ACAD
1000
MTEXTBEGIN
1070
    73
1070
     1
1070
    44
1040
1.0
1070
    74
1070
     0
1000
MTEXTEND
  0
MTEXT
  5
12D98
330
1F
100
AcDbEntity
  8
AM_6
100
AcDbMText
 10
353.0767194190661
 20
66.00000000000021
 30
0.0
 40
6.4
 41
22.0
 71
     5
 72
     5
  1
154
 73
     1
 44
1.0
1001
ACAD
1000
MTEXTBEGIN
1070
    73
1070
     1
1070
    44
1040
1.0
1070
    74
1070
     0
1000
MTEXTEND
  0
MTEXT
  5
12D99
330
1F
100
AcDbEntity
  8
AM_6
100
AcDbMText
 10
353.0767194190661
 20
38.00000000000029
 30
0.0
 40
6.4
 41
22.0
 71
     5
 72
     5
  1
176
 73
     1
 44
1.0
1001
ACAD
1000
MTEXTBEGIN
1070
    73
1070
     1
1070
    44
1040
1.0
1070
    74
1070
     0
1000
MTEXTEND
  0
MTEXT
  5
12D9A
330
1F
100
AcDbEntity
  8
AM_6
100
AcDbMText
 10
320.0767194190661
 20
94.00000000000023
 30
0.0
 40
6.4
 41
44.0
 71
     5
 72
     5
  1
M36
 73
     1
 44
1.0
1001
ACAD
1000
MTEXTBEGIN
1070
    73
1070
     1
1070
    44
1040
1.0
1070
    74
1070
     0
1000
MTEXTEND
  0
MTEXT
  5
12D9B
330
1F
100
AcDbEntity
  8
AM_6
100
AcDbMText
 10
375.0767194190661
 20
108.0000000000002
 30
0.0
 40
6.4
 41
22.0
 71
     5
 72
     5
  1
58
 73
     1
 44
1.0
1001
ACAD
1000
MTEXTBEGIN
1070
    73
1070
     1
1070
    44
1040
1.0
1070
    74
1070
     0
1000
MTEXTEND
  0
MTEXT
  5
12D9C
330
1F
100
AcDbEntity
  8
AM_6
100
AcDbMText
 10
419.0767194190661
 20
122.0
 30
0.0
 40
6.4
 41
22.0
 71
     5
 72
     5
  1
22
 73
     1
 44
1.0
1001
ACAD
1000
MTEXTBEGIN
1070
    73
1070
     1
1070
    44
1040
1.0
1070
    74
1070
     0
1000
MTEXTEND
  0
MTEXT
  5
12D9D
330
1F
100
AcDbEntity
  8
AM_6
100
AcDbMText
 10
441.0767194190661
 20
122.0000000000002
 30
0.0
 40
6.4
 41
22.0
 71
     5
 72
     5
  1
60
 73
     1
 44
1.0
1001
ACAD
1000
MTEXTBEGIN
1070
    73
1070
     1
1070
    44
1040
1.0
1070
    74
1070
     0
1000
MTEXTEND
  0
LINE
  5
12D9E
330
1F
100
AcDbEntity
  8
AM_4
100
AcDbLine
 10
164.0767194190661
 20
45.00000000000027
 30
0.0
 11
674.0767194190661
 21
45.00000000000027
 31
0.0
  0
MTEXT
  5
12D9F
330
1F
100
AcDbEntity
  8
AM_6
100
AcDbMText
 10
320.0767194190661
 20
80.00000000000024
 30
0.0
 40
6.4
 41
44.0
 71
     5
 72
     5
  1
M42
 73
     1
 44
1.0
1001
ACAD
1000
MTEXTBEGIN
1070
    73
1070
     1
1070
    44
1040
1.0
1070
    74
1070
     0
1000
MTEXTEND
  0
MTEXT
  5
12DA0
330
1F
100
AcDbEntity
  8
AM_6
100
AcDbMText
 10
375.0767194190661
 20
80.00000000000024
 30
0.0
 40
6.4
 41
22.0
 71
     5
 72
     5
  1
72
 73
     1
 44
1.0
1001
ACAD
1000
MTEXTBEGIN
1070
    73
1070
     1
1070
    44
1040
1.0
1070
    74
1070
     0
1000
MTEXTEND
  0
MTEXT
  5
12DA1
330
1F
100
AcDbEntity
  8
AM_6
100
AcDbMText
 10
419.0767194190661
 20
80.00000000000024
 30
0.0
 40
6.4
 41
22.0
 71
     5
 72
     5
  1
28
 73
     1
 44
1.0
1001
ACAD
1000
MTEXTBEGIN
1070
    73
1070
     1
1070
    44
1040
1.0
1070
    74
1070
     0
1000
MTEXTEND
  0
MTEXT
  5
12DA2
330
1F
100
AcDbEntity
  8
AM_6
100
AcDbMText
 10
441.0767194190661
 20
94.0
 30
0.0
 40
6.4
 41
22.0
 71
     5
 72
     5
  1
75
 73
     1
 44
1.0
1001
ACAD
1000
MTEXTBEGIN
1070
    73
1070
     1
1070
    44
1040
1.0
1070
    74
1070
     0
1000
MTEXTEND
  0
MTEXT
  5
12DA3
330
1F
100
AcDbEntity
  8
AM_6
100
AcDbMText
 10
320.0767194190661
 20
66.00000000000021
 30
0.0
 40
6.4
 41
44.0
 71
     5
 72
     5
  1
M42
 73
     1
 44
1.0
1001
ACAD
1000
MTEXTBEGIN
1070
    73
1070
     1
1070
    44
1040
1.0
1070
    74
1070
     0
1000
MTEXTEND
  0
MTEXT
  5
12DA4
330
1F
100
AcDbEntity
  8
AM_6
100
AcDbMText
 10
375.0767194190661
 20
66.00000000000021
 30
0.0
 40
6.4
 41
22.0
 71
     5
 72
     5
  1
90
 73
     1
 44
1.0
1001
ACAD
1000
MTEXTBEGIN
1070
    73
1070
     1
1070
    44
1040
1.0
1070
    74
1070
     0
1000
MTEXTEND
  0
MTEXT
  5
12DA5
330
1F
100
AcDbEntity
  8
AM_6
100
AcDbMText
 10
419.0767194190661
 20
66.00000000000021
 30
0.0
 40
6.4
 41
22.0
 71
     5
 72
     5
  1
32
 73
     1
 44
1.0
1001
ACAD
1000
MTEXTBEGIN
1070
    73
1070
     1
1070
    44
1040
1.0
1070
    74
1070
     0
1000
MTEXTEND
  0
MTEXT
  5
12DA6
330
1F
100
AcDbEntity
  8
AM_6
100
AcDbMText
 10
441.0767194190661
 20
66.00000000000021
 30
0.0
 40
6.4
 41
22.0
 71
     5
 72
     5
  1
90
 73
     1
 44
1.0
1001
ACAD
1000
MTEXTBEGIN
1070
    73
1070
     1
1070
    44
1040
1.0
1070
    74
1070
     0
1000
MTEXTEND
  0
MTEXT
  5
12DA7
330
1F
100
AcDbEntity
  8
AM_6
100
AcDbMText
 10
320.0767194190661
 20
52.00000000000023
 30
0.0
 40
6.4
 41
44.0
 71
     5
 72
     5
  1
M48
 73
     1
 44
1.0
1001
ACAD
1000
MTEXTBEGIN
1070
    73
1070
     1
1070
    44
1040
1.0
1070
    74
1070
     0
1000
MTEXTEND
  0
MTEXT
  5
12DA8
330
1F
100
AcDbEntity
  8
AM_6
100
AcDbMText
 10
375.0767194190661
 20
38.00000000000029
 30
0.0
 40
6.4
 41
22.0
 71
     5
 72
     5
  1
104
 73
     1
 44
1.0
1001
ACAD
1000
MTEXTBEGIN
1070
    73
1070
     1
1070
    44
1040
1.0
1070
    74
1070
     0
1000
MTEXTEND
  0
MTEXT
  5
12DA9
330
1F
100
AcDbEntity
  8
AM_6
100
AcDbMText
 10
419.0767194190661
 20
38.00000000000029
 30
0.0
 40
6.4
 41
22.0
 71
     5
 72
     5
  1
36
 73
     1
 44
1.0
1001
ACAD
1000
MTEXTBEGIN
1070
    73
1070
     1
1070
    44
1040
1.0
1070
    74
1070
     0
1000
MTEXTEND
  0
MTEXT
  5
12DAA
330
1F
100
AcDbEntity
  8
AM_6
100
AcDbMText
 10
441.0767194190661
 20
38.00000000000029
 30
0.0
 40
6.4
 41
22.0
 71
     5
 72
     5
  1
105
 73
     1
 44
1.0
1001
ACAD
1000
MTEXTBEGIN
1070
    73
1070
     1
1070
    44
1040
1.0
1070
    74
1070
     0
1000
MTEXTEND
  0
MTEXT
  5
12DAB
330
1F
100
AcDbEntity
  8
AM_6
100
AcDbMText
 10
320.0767194190661
 20
38.00000000000029
 30
0.0
 40
6.4
 41
44.0
 71
     5
 72
     5
  1
M48
 73
     1
 44
1.0
1001
ACAD
1000
MTEXTBEGIN
1070
    73
1070
     1
1070
    44
1040
1.0
1070
    74
1070
     0
1000
MTEXTEND
  0
LINE
  5
12DAC
330
1F
100
AcDbEntity
  8
AM_4
100
AcDbLine
 10
164.0767194190661
 20
101.0
 30
0.0
 11
674.0767194190661
 21
101.0
 31
0.0
  0
LINE
  5
12DAD
330
1F
100
AcDbEntity
  8
AM_4
100
AcDbLine
 10
474.0767194190661
 20
185.0
 30
0.0
 11
474.0767194190661
 21
17.00000000000005
 31
0.0
  0
MTEXT
  5
12DAE
330
1F
100
AcDbEntity
  8
AM_6
100
AcDbMText
 10
507.0767194190661
 20
178.0
 30
0.0
 40
6.4
 41
22.0
 71
     5
 72
     5
  1
L
 73
     1
 44
1.0
1001
ACAD
1000
MTEXTBEGIN
1070
    73
1070
     1
1070
    44
1040
1.0
1070
    74
1070
     0
1000
MTEXTEND
  0
MTEXT
  5
12DAF
330
1F
100
AcDbEntity
  8
AM_6
100
AcDbMText
 10
507.0767194190661
 20
164.0
 30
0.0
 40
6.4
 41
22.0
 71
     5
 72
     5
  1
35
 73
     1
 44
1.0
1001
ACAD
1000
MTEXTBEGIN
1070
    73
1070
     1
1070
    44
1040
1.0
1070
    74
1070
     0
1000
MTEXTEND
  0
LINE
  5
12DB0
330
1F
100
AcDbEntity
  8
AM_4
100
AcDbLine
 10
452.0767194190661
 20
185.0
 30
0.0
 11
452.0767194190661
 21
17.00000000000005
 31
0.0
  0
MTEXT
  5
12DB1
330
1F
100
AcDbEntity
  8
AM_6
100
AcDbMText
 10
397.0767194190661
 20
178.0
 30
0.0
 40
6.4
 41
22.0
 71
     5
 72
     5
  1
B{\H5;2}
 73
     1
 44
1.0
1001
ACAD
1000
MTEXTBEGIN
1070
    73
1070
     1
1070
    44
1040
1.0
1070
    74
1070
     0
1000
MTEXTEND
  0
MTEXT
  5
12DB2
330
1F
100
AcDbEntity
  8
AM_6
100
AcDbMText
 10
397.0767194190661
 20
164.0
 30
0.0
 40
6.4
 41
22.0
 71
     5
 72
     5
  1
45
 73
     1
 44
1.0
1001
ACAD
1000
MTEXTBEGIN
1070
    73
1070
     1
1070
    44
1040
1.0
1070
    74
1070
     0
1000
MTEXTEND
  0
LINE
  5
12DB3
330
1F
100
AcDbEntity
  8
AM_4
100
AcDbLine
 10
408.0767194190661
 20
185.0
 30
0.0
 11
408.0767194190661
 21
17.00000000000005
 31
0.0
  0
MTEXT
  5
12DB4
330
1F
100
AcDbEntity
  8
AM_6
100
AcDbMText
 10
485.0767194190661
 20
178.0
 30
0.0
 40
6.4
 41
22.0
 71
     5
 72
     5
  1
H{\H5;2}
 73
     1
 44
1.0
1001
ACAD
1000
MTEXTBEGIN
1070
    73
1070
     1
1070
    44
1040
1.0
1070
    74
1070
     0
1000
MTEXTEND
  0
MTEXT
  5
12DB5
330
1F
100
AcDbEntity
  8
AM_6
100
AcDbMText
 10
485.0767194190661
 20
164.0
 30
0.0
 40
6.4
 41
22.0
 71
     5
 72
     5
  1
50
 73
     1
 44
1.0
1001
ACAD
1000
MTEXTBEGIN
1070
    73
1070
     1
1070
    44
1040
1.0
1070
    74
1070
     0
1000
MTEXTEND
  0
LINE
  5
12DB6
330
1F
100
AcDbEntity
  8
AM_4
100
AcDbLine
 10
496.0767194190661
 20
185.0
 30
0.0
 11
496.0767194190661
 21
17.00000000000005
 31
0.0
  0
MTEXT
  5
12DB7
330
1F
100
AcDbEntity
  8
AM_6
100
AcDbMText
 10
463.0767194190661
 20
178.0
 30
0.0
 40
6.4
 41
22.0
 71
     5
 72
     5
  1
H{\H5;1}
 73
     1
 44
1.0
1001
ACAD
1000
MTEXTBEGIN
1070
    73
1070
     1
1070
    44
1040
1.0
1070
    74
1070
     0
1000
MTEXTEND
  0
LINE
  5
12DB8
330
1F
100
AcDbEntity
  8
AM_4
100
AcDbLine
 10
518.0767194190662
 20
185.0
 30
0.0
 11
518.0767194190662
 21
17.00000000000005
 31
0.0
  0
MTEXT
  5
12DB9
330
1F
100
AcDbEntity
  8
AM_6
100
AcDbMText
 10
529.0767194190662
 20
178.0
 30
0.0
 40
6.4
 41
22.0
 71
     5
 72
     5
  1
E
 73
     1
 44
1.0
1001
ACAD
1000
MTEXTBEGIN
1070
    73
1070
     1
1070
    44
1040
1.0
1070
    74
1070
     0
1000
MTEXTEND
  0
LINE
  5
12DBA
330
1F
100
AcDbEntity
  8
AM_4
100
AcDbLine
 10
540.0767194190661
 20
185.0
 30
0.0
 11
540.0767194190661
 21
17.00000000000005
 31
0.0
  0
MTEXT
  5
12DBB
330
1F
100
AcDbEntity
  8
AM_6
100
AcDbMText
 10
551.0767194190662
 20
178.0
 30
0.0
 40
6.4
 41
22.0
 71
     5
 72
     5
  1
W
 73
     1
 44
1.0
1001
ACAD
1000
MTEXTBEGIN
1070
    73
1070
     1
1070
    44
1040
1.0
1070
    74
1070
     0
1000
MTEXTEND
  0
MTEXT
  5
12DBC
330
1F
100
AcDbEntity
  8
AM_6
100
AcDbMText
 10
192.0767194190661
 20
150.0
 30
0.0
 40
6.4
 41
56.0
 71
     5
 72
     5
  1
EB-904-2420
 73
     1
 44
1.0
1001
ACAD
1000
MTEXTBEGIN
1070
    73
1070
     1
1070
    44
1040
1.0
1070
    74
1070
     0
1000
MTEXTEND
  0
MTEXT
  5
12DBD
330
1F
100
AcDbEntity
  8
AM_6
100
AcDbMText
 10
192.0767194190661
 20
136.0
 30
0.0
 40
6.4
 41
56.0
 71
     5
 72
     5
  1
EB-904-3020
 73
     1
 44
1.0
1001
ACAD
1000
MTEXTBEGIN
1070
    73
1070
     1
1070
    44
1040
1.0
1070
    74
1070
     0
1000
MTEXTEND
  0
MTEXT
  5
12DBE
330
1F
100
AcDbEntity
  8
AM_6
100
AcDbMText
 10
192.0767194190661
 20
122.0
 30
0.0
 40
6.4
 41
56.0
 71
     5
 72
     5
  1
EB-904-3024
 73
     1
 44
1.0
1001
ACAD
1000
MTEXTBEGIN
1070
    73
1070
     1
1070
    44
1040
1.0
1070
    74
1070
     0
1000
MTEXTEND
  0
MTEXT
  5
12DBF
330
1F
100
AcDbEntity
  8
AM_6
100
AcDbMText
 10
192.0767194190661
 20
108.0
 30
0.0
 40
6.4
 41
56.0
 71
     5
 72
     5
  1
EB-904-3624
 73
     1
 44
1.0
1001
ACAD
1000
MTEXTBEGIN
1070
    73
1070
     1
1070
    44
1040
1.0
1070
    74
1070
     0
1000
MTEXTEND
  0
MTEXT
  5
12DC0
330
1F
100
AcDbEntity
  8
AM_6
100
AcDbMText
 10
192.0767194190661
 20
94.0
 30
0.0
 40
6.4
 41
56.0
 71
     5
 72
     5
  1
EB-904-3630
 73
     1
 44
1.0
1001
ACAD
1000
MTEXTBEGIN
1070
    73
1070
     1
1070
    44
1040
1.0
1070
    74
1070
     0
1000
MTEXTEND
  0
MTEXT
  5
12DC1
330
1F
100
AcDbEntity
  8
AM_6
100
AcDbMText
 10
192.0767194190661
 20
80.00000000000024
 30
0.0
 40
6.4
 41
56.0
 71
     5
 72
     5
  1
EB-904-4230
 73
     1
 44
1.0
1001
ACAD
1000
MTEXTBEGIN
1070
    73
1070
     1
1070
    44
1040
1.0
1070
    74
1070
     0
1000
MTEXTEND
  0
MTEXT
  5
12DC2
330
1F
100
AcDbEntity
  8
AM_6
100
AcDbMText
 10
192.0767194190661
 20
66.00000000000021
 30
0.0
 40
6.4
 41
56.0
 71
     5
 72
     5
  1
EB-904-4236
 73
     1
 44
1.0
1001
ACAD
1000
MTEXTBEGIN
1070
    73
1070
     1
1070
    44
1040
1.0
1070
    74
1070
     0
1000
MTEXTEND
  0
MTEXT
  5
12DC3
330
1F
100
AcDbEntity
  8
AM_6
100
AcDbMText
 10
192.0767194190661
 20
52.00000000000023
 30
0.0
 40
6.4
 41
56.0
 71
     5
 72
     5
  1
EB-904-4836
 73
     1
 44
1.0
1001
ACAD
1000
MTEXTBEGIN
1070
    73
1070
     1
1070
    44
1040
1.0
1070
    74
1070
     0
1000
MTEXTEND
  0
MTEXT
  5
12DC4
330
1F
100
AcDbEntity
  8
AM_6
100
AcDbMText
 10
192.0767194190661
 20
38.00000000000029
 30
0.0
 40
6.4
 41
56.0
 71
     5
 72
     5
  1
EB-904-4842
 73
     1
 44
1.0
1001
ACAD
1000
MTEXTBEGIN
1070
    73
1070
     1
1070
    44
1040
1.0
1070
    74
1070
     0
1000
MTEXTEND
  0
LINE
  5
12DC5
330
1F
100
AcDbEntity
  8
AM_4
100
AcDbLine
 10
562.0767194190661
 20
185.0
 30
0.0
 11
562.0767194190661
 21
17.00000000000005
 31
0.0
  0
MTEXT
  5
12DC6
330
1F
100
AcDbEntity
  8
AM_6
100
AcDbMText
 10
601.0767194190662
 20
177.1633068475553
 30
0.0
 40
5.599999999999997
 41
78.0
 71
     5
 72
     5
  1
{\T0.9;ボルト締付トルクの目安（kgf・m）}
 73
     1
 44
1.0
1001
ACAD
1000
MTEXTBEGIN
1070
    73
1070
     1
1070
    44
1040
1.0
1070
    74
1070
     0
1000
MTEXTEND
1000
ACAD_MTEXT_DEFINED_HEIGHT_BEGIN
1070
    46
1040
9.673386304889447
1000
ACAD_MTEXT_DEFINED_HEIGHT_END
  0
MTEXT
  5
12DC7
330
1F
100
AcDbEntity
  8
AM_6
100
AcDbMText
 10
601.0767194190662
 20
164.0
 30
0.0
 40
6.4
 41
78.0
 71
     5
 72
     5
  1
10.0～25.0
 73
     1
 44
1.0
1001
ACAD
1000
MTEXTBEGIN
1070
    73
1070
     1
1070
    44
1040
1.0
1070
    74
1070
     0
1000
MTEXTEND
  0
MTEXT
  5
12DC8
330
1F
100
AcDbEntity
  8
AM_6
100
AcDbMText
 10
601.0767194190662
 20
150.0000000000002
 30
0.0
 40
6.4
 41
78.0
 71
     5
 72
     5
  1
10.0～25.0
 73
     1
 44
1.0
1001
ACAD
1000
MTEXTBEGIN
1070
    73
1070
     1
1070
    44
1040
1.0
1070
    74
1070
     0
1000
MTEXTEND
  0
MTEXT
  5
12DC9
330
1F
100
AcDbEntity
  8
AM_6
100
AcDbMText
 10
601.0767194190662
 20
136.0
 30
0.0
 40
6.4
 41
78.0
 71
     5
 72
     5
  1
12.0～35.0
 73
     1
 44
1.0
1001
ACAD
1000
MTEXTBEGIN
1070
    73
1070
     1
1070
    44
1040
1.0
1070
    74
1070
     0
1000
MTEXTEND
  0
MTEXT
  5
12DCA
330
1F
100
AcDbEntity
  8
AM_6
100
AcDbMText
 10
601.0767194190662
 20
108.0
 30
0.0
 40
6.4
 41
78.0
 71
     5
 72
     5
  1
15.0～50.0
 73
     1
 44
1.0
1001
ACAD
1000
MTEXTBEGIN
1070
    73
1070
     1
1070
    44
1040
1.0
1070
    74
1070
     0
1000
MTEXTEND
  0
MTEXT
  5
12DCB
330
1F
100
AcDbEntity
  8
AM_6
100
AcDbMText
 10
601.0767194190662
 20
80.00000000000024
 30
0.0
 40
6.4
 41
78.0
 71
     5
 72
     5
  1
18.0～60.0
 73
     1
 44
1.0
1001
ACAD
1000
MTEXTBEGIN
1070
    73
1070
     1
1070
    44
1040
1.0
1070
    74
1070
     0
1000
MTEXTEND
  0
MTEXT
  5
12DCC
330
1F
100
AcDbEntity
  8
AM_6
100
AcDbMText
 10
601.0767194190662
 20
38.00000000000029
 30
0.0
 40
6.4
 41
78.0
 71
     5
 72
     5
  1
30.0～80.0
 73
     1
 44
1.0
1001
ACAD
1000
MTEXTBEGIN
1070
    73
1070
     1
1070
    44
1040
1.0
1070
    74
1070
     0
1000
MTEXTEND
  0
MTEXT
  5
12DCD
330
1F
100
AcDbEntity
  8
AM_6
100
AcDbMText
 10
657.0767194190661
 20
178.0
 30
0.0
 40
6.4
 41
34.0
 71
     5
 72
     5
  1
自重（kg）
 73
     1
 44
1.0
1001
ACAD
1000
MTEXTBEGIN
1070
    73
1070
     1
1070
    44
1040
1.0
1070
    74
1070
     0
1000
MTEXTEND
  0
MTEXT
  5
12DCE
330
1F
100
AcDbEntity
  8
AM_6
100
AcDbMText
 10
657.0767194190661
 20
164.0
 30
0.0
 40
6.4
 41
34.0
 71
     5
 72
     5
  1
0.83
 73
     1
 44
1.0
1001
ACAD
1000
MTEXTBEGIN
1070
    73
1070
     1
1070
    44
1040
1.0
1070
    74
1070
     0
1000
MTEXTEND
  0
MTEXT
  5
12DCF
330
1F
100
AcDbEntity
  8
AM_6
100
AcDbMText
 10
657.0767194190661
 20
136.0
 30
0.0
 40
6.4
 41
34.0
 71
     5
 72
     5
  1
1.52
 73
     1
 44
1.0
1001
ACAD
1000
MTEXTBEGIN
1070
    73
1070
     1
1070
    44
1040
1.0
1070
    74
1070
     0
1000
MTEXTEND
  0
MTEXT
  5
12DD0
330
1F
100
AcDbEntity
  8
AM_6
100
AcDbMText
 10
657.0767194190661
 20
122.0
 30
0.0
 40
6.4
 41
34.0
 71
     5
 72
     5
  1
2.46
 73
     1
 44
1.0
1001
ACAD
1000
MTEXTBEGIN
1070
    73
1070
     1
1070
    44
1040
1.0
1070
    74
1070
     0
1000
MTEXTEND
  0
MTEXT
  5
12DD1
330
1F
100
AcDbEntity
  8
AM_6
100
AcDbMText
 10
657.0767194190661
 20
108.0
 30
0.0
 40
6.4
 41
34.0
 71
     5
 72
     5
  1
2.63
 73
     1
 44
1.0
1001
ACAD
1000
MTEXTBEGIN
1070
    73
1070
     1
1070
    44
1040
1.0
1070
    74
1070
     0
1000
MTEXTEND
  0
MTEXT
  5
12DD2
330
1F
100
AcDbEntity
  8
AM_6
100
AcDbMText
 10
657.0767194190661
 20
94.00000000000023
 30
0.0
 40
6.4
 41
34.0
 71
     5
 72
     5
  1
4.91
 73
     1
 44
1.0
1001
ACAD
1000
MTEXTBEGIN
1070
    73
1070
     1
1070
    44
1040
1.0
1070
    74
1070
     0
1000
MTEXTEND
  0
MTEXT
  5
12DD3
330
1F
100
AcDbEntity
  8
AM_6
100
AcDbMText
 10
657.0767194190661
 20
80.00000000000024
 30
0.0
 40
6.4
 41
34.0
 71
     5
 72
     5
  1
5.14
 73
     1
 44
1.0
1001
ACAD
1000
MTEXTBEGIN
1070
    73
1070
     1
1070
    44
1040
1.0
1070
    74
1070
     0
1000
MTEXTEND
  0
MTEXT
  5
12DD4
330
1F
100
AcDbEntity
  8
AM_6
100
AcDbMText
 10
657.0767194190661
 20
66.00000000000021
 30
0.0
 40
6.4
 41
34.0
 71
     5
 72
     5
  1
7.76
 73
     1
 44
1.0
1001
ACAD
1000
MTEXTBEGIN
1070
    73
1070
     1
1070
    44
1040
1.0
1070
    74
1070
     0
1000
MTEXTEND
  0
MTEXT
  5
12DD5
330
1F
100
AcDbEntity
  8
AM_6
100
AcDbMText
 10
657.0767194190661
 20
52.00000000000023
 30
0.0
 40
6.4
 41
34.0
 71
     5
 72
     5
  1
8.00
 73
     1
 44
1.0
1001
ACAD
1000
MTEXTBEGIN
1070
    73
1070
     1
1070
    44
1040
1.0
1070
    74
1070
     0
1000
MTEXTEND
  0
MTEXT
  5
12DD6
330
1F
100
AcDbEntity
  8
AM_6
100
AcDbMText
 10
657.0767194190661
 20
38.00000000000029
 30
0.0
 40
6.4
 41
34.0
 71
     5
 72
     5
  1
11.90
 73
     1
 44
1.0
1001
ACAD
1000
MTEXTBEGIN
1070
    73
1070
     1
1070
    44
1040
1.0
1070
    74
1070
     0
1000
MTEXTEND
  0
LINE
  5
12DD7
330
1F
100
AcDbEntity
  8
AM_4
100
AcDbLine
 10
640.0767194190661
 20
185.0
 30
0.0
 11
640.0767194190661
 21
17.00000000000005
 31
0.0
  0
MTEXT
  5
12DD8
330
1F
100
AcDbEntity
  8
AM_6
100
AcDbMText
 10
657.0767194190661
 20
150.0
 30
0.0
 40
6.4
 41
34.0
 71
     5
 72
     5
  1
1.42
 73
     1
 44
1.0
1001
ACAD
1000
MTEXTBEGIN
1070
    73
1070
     1
1070
    44
1040
1.0
1070
    74
1070
     0
1000
MTEXTEND
  0
MTEXT
  5
12DD9
330
1F
100
AcDbEntity
  8
AM_6
100
AcDbMText
 10
259.0767194190661
 20
164.0
 30
0.0
 40
6.4
 41
78.0
 71
     5
 72
     5
  1
2.0（19.6）
 73
     1
 44
1.0
1001
ACAD
1000
MTEXTBEGIN
1070
    73
1070
     1
1070
    44
1040
1.0
1070
    74
1070
     0
1000
MTEXTEND
  0
MTEXT
  5
12DDA
330
1F
100
AcDbEntity
  8
AM_6
100
AcDbMText
 10
259.0767194190661
 20
136.0
 30
0.0
 40
6.4
 41
78.0
 71
     5
 72
     5
  1
3.2（31.8）
 73
     1
 44
1.0
1001
ACAD
1000
MTEXTBEGIN
1070
    73
1070
     1
1070
    44
1040
1.0
1070
    74
1070
     0
1000
MTEXTEND
  0
MTEXT
  5
12DDB
330
1F
100
AcDbEntity
  8
AM_6
100
AcDbMText
 10
259.0767194190661
 20
122.0
 30
0.0
 40
6.4
 41
78.0
 71
     5
 72
     5
  1
4.2（41.2）
 73
     1
 44
1.0
1001
ACAD
1000
MTEXTBEGIN
1070
    73
1070
     1
1070
    44
1040
1.0
1070
    74
1070
     0
1000
MTEXTEND
  0
MTEXT
  5
12DDC
330
1F
100
AcDbEntity
  8
AM_6
100
AcDbMText
 10
259.0767194190661
 20
108.0
 30
0.0
 40
6.4
 41
78.0
 71
     5
 72
     5
  1
4.6（45.9）
 73
     1
 44
1.0
1001
ACAD
1000
MTEXTBEGIN
1070
    73
1070
     1
1070
    44
1040
1.0
1070
    74
1070
     0
1000
MTEXTEND
  0
MTEXT
  5
12DDD
330
1F
100
AcDbEntity
  8
AM_6
100
AcDbMText
 10
259.0767194190661
 20
94.00000000000023
 30
0.0
 40
6.4
 41
78.0
 71
     5
 72
     5
  1
6.5（63.7）
 73
     1
 44
1.0
1001
ACAD
1000
MTEXTBEGIN
1070
    73
1070
     1
1070
    44
1040
1.0
1070
    74
1070
     0
1000
MTEXTEND
  0
MTEXT
  5
12DDE
330
1F
100
AcDbEntity
  8
AM_6
100
AcDbMText
 10
259.0767194190661
 20
80.00000000000024
 30
0.0
 40
6.4
 41
78.0
 71
     5
 72
     5
  1
7.0（68.6）
 73
     1
 44
1.0
1001
ACAD
1000
MTEXTBEGIN
1070
    73
1070
     1
1070
    44
1040
1.0
1070
    74
1070
     0
1000
MTEXTEND
  0
MTEXT
  5
12DDF
330
1F
100
AcDbEntity
  8
AM_6
100
AcDbMText
 10
259.0767194190661
 20
66.00000000000021
 30
0.0
 40
6.4
 41
78.0
 71
     5
 72
     5
  1
8.5（83.3）
 73
     1
 44
1.0
1001
ACAD
1000
MTEXTBEGIN
1070
    73
1070
     1
1070
    44
1040
1.0
1070
    74
1070
     0
1000
MTEXTEND
  0
MTEXT
  5
12DE0
330
1F
100
AcDbEntity
  8
AM_6
100
AcDbMText
 10
259.0767194190661
 20
52.00000000000023
 30
0.0
 40
6.4
 41
78.0
 71
     5
 72
     5
  1
9.0（88.2）
 73
     1
 44
1.0
1001
ACAD
1000
MTEXTBEGIN
1070
    73
1070
     1
1070
    44
1040
1.0
1070
    74
1070
     0
1000
MTEXTEND
  0
MTEXT
  5
12DE1
330
1F
100
AcDbEntity
  8
AM_6
100
AcDbMText
 10
259.0767194190661
 20
38.00000000000029
 30
0.0
 40
6.4
 41
78.0
 71
     5
 72
     5
  1
12.0（117.7）
 73
     1
 44
1.0
1001
ACAD
1000
MTEXTBEGIN
1070
    73
1070
     1
1070
    44
1040
1.0
1070
    74
1070
     0
1000
MTEXTEND
  0
LINE
  5
12DE2
330
1F
100
AcDbEntity
  8
AM_4
100
AcDbLine
 10
298.0767194190661
 20
185.0
 30
0.0
 11
298.0767194190661
 21
17.00000000000005
 31
0.0
  0
MTEXT
  5
12DE3
330
1F
100
AcDbEntity
  8
AM_6
100
AcDbMText
 10
259.0767194190661
 20
150.0
 30
0.0
 40
6.4
 41
78.0
 71
     5
 72
     5
  1
2.8（27.4）
 73
     1
 44
1.0
1001
ACAD
1000
MTEXTBEGIN
1070
    73
1070
     1
1070
    44
1040
1.0
1070
    74
1070
     0
1000
MTEXTEND
  0
MTEXT
  5
12DE4
330
1F
100
AcDbEntity
  8
AM_6
100
AcDbMText
 10
259.0767194190661
 20
178.0
 30
0.0
 40
6.4
 41
78.00000000000003
 71
     5
 72
     5
  1
使用荷重　Ton（kN）
 73
     1
 44
1.0
1001
ACAD
1000
MTEXTBEGIN
1070
    73
1070
     1
1070
    44
1040
1.0
1070
    74
1070
     0
1000
MTEXTEND
  0
LINE
  5
12DE5
330
1F
100
AcDbEntity
  8
AM_4
100
AcDbLine
 10
164.0767194190661
 20
31.00000000000028
 30
0.0
 11
674.0767194190661
 21
31.00000000000028
 31
0.0
  0
MTEXT
  5
12DE6
330
1F
100
AcDbEntity
  8
AM_6
100
AcDbMText
 10
353.0767194190661
 20
24.00000000000029
 30
0.0
 40
6.4
 41
22.0
 71
     5
 72
     5
  1
200
 73
     1
 44
1.0
1001
ACAD
1000
MTEXTBEGIN
1070
    73
1070
     1
1070
    44
1040
1.0
1070
    74
1070
     0
1000
MTEXTEND
  0
MTEXT
  5
12DE7
330
1F
100
AcDbEntity
  8
AM_6
100
AcDbMText
 10
320.0767194190661
 20
24.00000000000029
 30
0.0
 40
6.4
 41
44.0
 71
     5
 72
     5
  1
M64
 73
     1
 44
1.0
1001
ACAD
1000
MTEXTBEGIN
1070
    73
1070
     1
1070
    44
1040
1.0
1070
    74
1070
     0
1000
MTEXTEND
  0
MTEXT
  5
12DE8
330
1F
100
AcDbEntity
  8
AM_6
100
AcDbMText
 10
375.0767194190661
 20
24.00000000000029
 30
0.0
 40
6.4
 41
22.0
 71
     5
 72
     5
  1
116
 73
     1
 44
1.0
1001
ACAD
1000
MTEXTBEGIN
1070
    73
1070
     1
1070
    44
1040
1.0
1070
    74
1070
     0
1000
MTEXTEND
  0
MTEXT
  5
12DE9
330
1F
100
AcDbEntity
  8
AM_6
100
AcDbMText
 10
419.0767194190661
 20
24.00000000000029
 30
0.0
 40
6.4
 41
22.0
 71
     5
 72
     5
  1
42
 73
     1
 44
1.0
1001
ACAD
1000
MTEXTBEGIN
1070
    73
1070
     1
1070
    44
1040
1.0
1070
    74
1070
     0
1000
MTEXTEND
  0
MTEXT
  5
12DEA
330
1F
100
AcDbEntity
  8
AM_6
100
AcDbMText
 10
441.0767194190661
 20
24.00000000000029
 30
0.0
 40
6.4
 41
22.0
 71
     5
 72
     5
  1
120
 73
     1
 44
1.0
1001
ACAD
1000
MTEXTBEGIN
1070
    73
1070
     1
1070
    44
1040
1.0
1070
    74
1070
     0
1000
MTEXTEND
  0
MTEXT
  5
12DEB
330
1F
100
AcDbEntity
  8
AM_6
100
AcDbMText
 10
192.0767194190661
 20
24.00000000000029
 30
0.0
 40
6.4
 41
56.0
 71
     5
 72
     5
  1
EB-904-6448
 73
     1
 44
1.0
1001
ACAD
1000
MTEXTBEGIN
1070
    73
1070
     1
1070
    44
1040
1.0
1070
    74
1070
     0
1000
MTEXTEND
  0
MTEXT
  5
12DEC
330
1F
100
AcDbEntity
  8
AM_6
100
AcDbMText
 10
601.0767194190662
 20
24.00000000000029
 30
0.0
 40
6.4
 41
78.0
 71
     5
 72
     5
  1
30.0～80.0
 73
     1
 44
1.0
1001
ACAD
1000
MTEXTBEGIN
1070
    73
1070
     1
1070
    44
1040
1.0
1070
    74
1070
     0
1000
MTEXTEND
  0
MTEXT
  5
12DED
330
1F
100
AcDbEntity
  8
AM_6
100
AcDbMText
 10
657.0767194190661
 20
24.00000000000029
 30
0.0
 40
6.4
 41
34.0
 71
     5
 72
     5
  1
18.70
 73
     1
 44
1.0
1001
ACAD
1000
MTEXTBEGIN
1070
    73
1070
     1
1070
    44
1040
1.0
1070
    74
1070
     0
1000
MTEXTEND
  0
MTEXT
  5
12DEE
330
1F
100
AcDbEntity
  8
AM_6
100
AcDbMText
 10
259.0767194190661
 20
24.00000000000029
 30
0.0
 40
6.4
 41
78.0
 71
     5
 72
     5
  1
20.0（196.0）
 73
     1
 44
1.0
1001
ACAD
1000
MTEXTBEGIN
1070
    73
1070
     1
1070
    44
1040
1.0
1070
    74
1070
     0
1000
MTEXTEND
  0
MTEXT
  5
12DEF
330
1F
100
AcDbEntity
  8
AM_6
100
AcDbMText
 10
353.0767194190661
 20
150.0
 30
0.0
 40
6.4
 41
22.0
 71
     5
 72
     5
  1
83
 73
     1
 44
1.0
1001
ACAD
1000
MTEXTBEGIN
1070
    73
1070
     1
1070
    44
1040
1.0
1070
    74
1070
     0
1000
MTEXTEND
  0
MTEXT
  5
12DF0
330
1F
100
AcDbEntity
  8
AM_6
100
AcDbMText
 10
375.0767194190661
 20
150.0
 30
0.0
 40
6.4
 41
22.0
 71
     5
 72
     5
  1
47
 73
     1
 44
1.0
1001
ACAD
1000
MTEXTBEGIN
1070
    73
1070
     1
1070
    44
1040
1.0
1070
    74
1070
     0
1000
MTEXTEND
  0
MTEXT
  5
12DF1
330
1F
100
AcDbEntity
  8
AM_6
100
AcDbMText
 10
353.0767194190661
 20
164.0
 30
0.0
 40
6.4
 41
22.0
 71
     5
 72
     5
  1
65
 73
     1
 44
1.0
1001
ACAD
1000
MTEXTBEGIN
1070
    73
1070
     1
1070
    44
1040
1.0
1070
    74
1070
     0
1000
MTEXTEND
  0
MTEXT
  5
12DF2
330
1F
100
AcDbEntity
  8
AM_6
100
AcDbMText
 10
375.0767194190661
 20
164.0
 30
0.0
 40
6.4
 41
22.0
 71
     5
 72
     5
  1
37
 73
     1
 44
1.0
1001
ACAD
1000
MTEXTBEGIN
1070
    73
1070
     1
1070
    44
1040
1.0
1070
    74
1070
     0
1000
MTEXTEND
  0
MTEXT
  5
12DF3
330
1F
100
AcDbEntity
  8
AM_6
100
AcDbMText
 10
419.0767194190661
 20
164.0
 30
0.0
 40
6.4
 41
22.0
 71
     5
 72
     5
  1
14
 73
     1
 44
1.0
1001
ACAD
1000
MTEXTBEGIN
1070
    73
1070
     1
1070
    44
1040
1.0
1070
    74
1070
     0
1000
MTEXTEND
  0
MTEXT
  5
12DF4
330
1F
100
AcDbEntity
  8
AM_6
100
AcDbMText
 10
441.0767194190661
 20
164.0
 30
0.0
 40
6.4
 41
22.0
 71
     5
 72
     5
  1
42
 73
     1
 44
1.0
1001
ACAD
1000
MTEXTBEGIN
1070
    73
1070
     1
1070
    44
1040
1.0
1070
    74
1070
     0
1000
MTEXTEND
  0
MTEXT
  5
12DF5
330
1F
100
AcDbEntity
  8
AM_6
100
AcDbMText
 10
463.0767194190661
 20
164.0
 30
0.0
 40
6.4
 41
22.0
 71
     5
 72
     5
  1
109
 73
     1
 44
1.0
1001
ACAD
1000
MTEXTBEGIN
1070
    73
1070
     1
1070
    44
1040
1.0
1070
    74
1070
     0
1000
MTEXTEND
  0
MTEXT
  5
12DF6
330
1F
100
AcDbEntity
  8
AM_6
100
AcDbMText
 10
529.0767194190662
 20
164.0
 30
0.0
 40
6.4
 41
22.0
 71
     5
 72
     5
  1
36
 73
     1
 44
1.0
1001
ACAD
1000
MTEXTBEGIN
1070
    73
1070
     1
1070
    44
1040
1.0
1070
    74
1070
     0
1000
MTEXTEND
  0
MTEXT
  5
12DF7
330
1F
100
AcDbEntity
  8
AM_6
100
AcDbMText
 10
551.0767194190662
 20
164.0
 30
0.0
 40
6.4
 41
22.0
 71
     5
 72
     5
  1
79
 73
     1
 44
1.0
1001
ACAD
1000
MTEXTBEGIN
1070
    73
1070
     1
1070
    44
1040
1.0
1070
    74
1070
     0
1000
MTEXTEND
  0
MTEXT
  5
12DF8
330
1F
100
AcDbEntity
  8
AM_6
100
AcDbMText
 10
353.0767194190661
 20
108.0
 30
0.0
 40
6.4
 41
22.0
 71
     5
 72
     5
  1
102
 73
     1
 44
1.0
1001
ACAD
1000
MTEXTBEGIN
1070
    73
1070
     1
1070
    44
1040
1.0
1070
    74
1070
     0
1000
MTEXTEND
  0
MTEXT
  5
12DF9
330
1F
100
AcDbEntity
  8
AM_6
100
AcDbMText
 10
353.0767194190661
 20
52.00000000000023
 30
0.0
 40
6.4
 41
22.0
 71
     5
 72
     5
  1
154
 73
     1
 44
1.0
1001
ACAD
1000
MTEXTBEGIN
1070
    73
1070
     1
1070
    44
1040
1.0
1070
    74
1070
     0
1000
MTEXTEND
  0
MTEXT
  5
12DFA
330
1F
100
AcDbEntity
  8
AM_6
100
AcDbMText
 10
375.0767194190661
 20
136.0
 30
0.0
 40
6.4
 41
22.0
 71
     5
 72
     5
  1
47
 73
     1
 44
1.0
1001
ACAD
1000
MTEXTBEGIN
1070
    73
1070
     1
1070
    44
1040
1.0
1070
    74
1070
     0
1000
MTEXTEND
  0
MTEXT
  5
12DFB
330
1F
100
AcDbEntity
  8
AM_6
100
AcDbMText
 10
375.0767194190661
 20
94.0
 30
0.0
 40
6.4
 41
22.0
 71
     5
 72
     5
  1
72
 73
     1
 44
1.0
1001
ACAD
1000
MTEXTBEGIN
1070
    73
1070
     1
1070
    44
1040
1.0
1070
    74
1070
     0
1000
MTEXTEND
  0
MTEXT
  5
12DFC
330
1F
100
AcDbEntity
  8
AM_6
100
AcDbMText
 10
375.0767194190661
 20
52.00000000000023
 30
0.0
 40
6.4
 41
22.0
 71
     5
 72
     5
  1
90
 73
     1
 44
1.0
1001
ACAD
1000
MTEXTBEGIN
1070
    73
1070
     1
1070
    44
1040
1.0
1070
    74
1070
     0
1000
MTEXTEND
  0
MTEXT
  5
12DFD
330
1F
100
AcDbEntity
  8
AM_6
100
AcDbMText
 10
419.0767194190661
 20
136.0
 30
0.0
 40
6.4
 41
22.0
 71
     5
 72
     5
  1
18
 73
     1
 44
1.0
1001
ACAD
1000
MTEXTBEGIN
1070
    73
1070
     1
1070
    44
1040
1.0
1070
    74
1070
     0
1000
MTEXTEND
  0
MTEXT
  5
12DFE
330
1F
100
AcDbEntity
  8
AM_6
100
AcDbMText
 10
419.0767194190661
 20
108.0
 30
0.0
 40
6.4
 41
22.0
 71
     5
 72
     5
  1
22
 73
     1
 44
1.0
1001
ACAD
1000
MTEXTBEGIN
1070
    73
1070
     1
1070
    44
1040
1.0
1070
    74
1070
     0
1000
MTEXTEND
  0
MTEXT
  5
12DFF
330
1F
100
AcDbEntity
  8
AM_6
100
AcDbMText
 10
419.0767194190661
 20
94.0
 30
0.0
 40
6.4
 41
22.0
 71
     5
 72
     5
  1
28
 73
     1
 44
1.0
1001
ACAD
1000
MTEXTBEGIN
1070
    73
1070
     1
1070
    44
1040
1.0
1070
    74
1070
     0
1000
MTEXTEND
  0
MTEXT
  5
12E00
330
1F
100
AcDbEntity
  8
AM_6
100
AcDbMText
 10
419.0767194190661
 20
52.00000000000023
 30
0.0
 40
6.4
 41
22.0
 71
     5
 72
     5
  1
32
 73
     1
 44
1.0
1001
ACAD
1000
MTEXTBEGIN
1070
    73
1070
     1
1070
    44
1040
1.0
1070
    74
1070
     0
1000
MTEXTEND
  0
MTEXT
  5
12E01
330
1F
100
AcDbEntity
  8
AM_6
100
AcDbMText
 10
441.0767194190661
 20
136.0
 30
0.0
 40
6.4
 41
22.0
 71
     5
 72
     5
  1
50
 73
     1
 44
1.0
1001
ACAD
1000
MTEXTBEGIN
1070
    73
1070
     1
1070
    44
1040
1.0
1070
    74
1070
     0
1000
MTEXTEND
  0
MTEXT
  5
12E02
330
1F
100
AcDbEntity
  8
AM_6
100
AcDbMText
 10
441.0767194190661
 20
108.0000000000002
 30
0.0
 40
6.4
 41
22.0
 71
     5
 72
     5
  1
60
 73
     1
 44
1.0
1001
ACAD
1000
MTEXTBEGIN
1070
    73
1070
     1
1070
    44
1040
1.0
1070
    74
1070
     0
1000
MTEXTEND
  0
MTEXT
  5
12E03
330
1F
100
AcDbEntity
  8
AM_6
100
AcDbMText
 10
441.0767194190661
 20
80.0
 30
0.0
 40
6.4
 41
22.0
 71
     5
 72
     5
  1
75
 73
     1
 44
1.0
1001
ACAD
1000
MTEXTBEGIN
1070
    73
1070
     1
1070
    44
1040
1.0
1070
    74
1070
     0
1000
MTEXTEND
  0
MTEXT
  5
12E04
330
1F
100
AcDbEntity
  8
AM_6
100
AcDbMText
 10
441.0767194190661
 20
52.00000000000023
 30
0.0
 40
6.4
 41
22.0
 71
     5
 72
     5
  1
90
 73
     1
 44
1.0
1001
ACAD
1000
MTEXTBEGIN
1070
    73
1070
     1
1070
    44
1040
1.0
1070
    74
1070
     0
1000
MTEXTEND
  0
MTEXT
  5
12E05
330
1F
100
AcDbEntity
  8
AM_6
100
AcDbMText
 10
507.0767194190661
 20
150.0
 30
0.0
 40
6.4
 41
22.0
 71
     5
 72
     5
  1
35
 73
     1
 44
1.0
1001
ACAD
1000
MTEXTBEGIN
1070
    73
1070
     1
1070
    44
1040
1.0
1070
    74
1070
     0
1000
MTEXTEND
  0
MTEXT
  5
12E06
330
1F
100
AcDbEntity
  8
AM_6
100
AcDbMText
 10
507.0767194190661
 20
136.0
 30
0.0
 40
6.4
 41
22.0
 71
     5
 72
     5
  1
45
 73
     1
 44
1.0
1001
ACAD
1000
MTEXTBEGIN
1070
    73
1070
     1
1070
    44
1040
1.0
1070
    74
1070
     0
1000
MTEXTEND
  0
MTEXT
  5
12E07
330
1F
100
AcDbEntity
  8
AM_6
100
AcDbMText
 10
507.0767194190661
 20
108.0
 30
0.0
 40
6.4
 41
22.0
 71
     5
 72
     5
  1
55
 73
     1
 44
1.0
1001
ACAD
1000
MTEXTBEGIN
1070
    73
1070
     1
1070
    44
1040
1.0
1070
    74
1070
     0
1000
MTEXTEND
  0
MTEXT
  5
12E08
330
1F
100
AcDbEntity
  8
AM_6
100
AcDbMText
 10
507.0767194190661
 20
80.00000000000024
 30
0.0
 40
6.4
 41
22.0
 71
     5
 72
     5
  1
65
 73
     1
 44
1.0
1001
ACAD
1000
MTEXTBEGIN
1070
    73
1070
     1
1070
    44
1040
1.0
1070
    74
1070
     0
1000
MTEXTEND
  0
MTEXT
  5
12E09
330
1F
100
AcDbEntity
  8
AM_6
100
AcDbMText
 10
507.0767194190661
 20
52.00000000000023
 30
0.0
 40
6.4
 41
22.0
 71
     5
 72
     5
  1
70
 73
     1
 44
1.0
1001
ACAD
1000
MTEXTBEGIN
1070
    73
1070
     1
1070
    44
1040
1.0
1070
    74
1070
     0
1000
MTEXTEND
  0
MTEXT
  5
12E0B
330
1F
100
AcDbEntity
  8
AM_6
100
AcDbMText
 10
507.0767194190661
 20
24.00000000000029
 30
0.0
 40
6.4
 41
22.0
 71
     5
 72
     5
  1
90
 73
     1
 44
1.0
1001
ACAD
1000
MTEXTBEGIN
1070
    73
1070
     1
1070
    44
1040
1.0
1070
    74
1070
     0
1000
MTEXTEND
  0
MTEXT
  5
12E0C
330
1F
100
AcDbEntity
  8
AM_6
100
AcDbMText
 10
507.0767194190661
 20
122.0
 30
0.0
 40
6.4
 41
22.0
 71
     5
 72
     5
  1
45
 73
     1
 44
1.0
1001
ACAD
1000
MTEXTBEGIN
1070
    73
1070
     1
1070
    44
1040
1.0
1070
    74
1070
     0
1000
MTEXTEND
  0
MTEXT
  5
12E0D
330
1F
100
AcDbEntity
  8
AM_6
100
AcDbMText
 10
507.0767194190661
 20
94.0
 30
0.0
 40
6.4
 41
22.0
 71
     5
 72
     5
  1
55
 73
     1
 44
1.0
1001
ACAD
1000
MTEXTBEGIN
1070
    73
1070
     1
1070
    44
1040
1.0
1070
    74
1070
     0
1000
MTEXTEND
  0
MTEXT
  5
12E0E
330
1F
100
AcDbEntity
  8
AM_6
100
AcDbMText
 10
507.0767194190661
 20
66.00000000000021
 30
0.0
 40
6.4
 41
22.0
 71
     5
 72
     5
  1
65
 73
     1
 44
1.0
1001
ACAD
1000
MTEXTBEGIN
1070
    73
1070
     1
1070
    44
1040
1.0
1070
    74
1070
     0
1000
MTEXTEND
  0
MTEXT
  5
12E0F
330
1F
100
AcDbEntity
  8
AM_6
100
AcDbMText
 10
507.0767194190661
 20
38.00000000000029
 30
0.0
 40
6.4
 41
22.0
 71
     5
 72
     5
  1
70
 73
     1
 44
1.0
1001
ACAD
1000
MTEXTBEGIN
1070
    73
1070
     1
1070
    44
1040
1.0
1070
    74
1070
     0
1000
MTEXTEND
  0
MTEXT
  5
12E10
330
1F
100
AcDbEntity
  8
AM_6
100
AcDbMText
 10
397.0767194190661
 20
150.0
 30
0.0
 40
6.4
 41
22.0
 71
     5
 72
     5
  1
58
 73
     1
 44
1.0
1001
ACAD
1000
MTEXTBEGIN
1070
    73
1070
     1
1070
    44
1040
1.0
1070
    74
1070
     0
1000
MTEXTEND
  0
MTEXT
  5
12E11
330
1F
100
AcDbEntity
  8
AM_6
100
AcDbMText
 10
397.0767194190661
 20
122.0
 30
0.0
 40
6.4
 41
22.0
 71
     5
 72
     5
  1
68
 73
     1
 44
1.0
1001
ACAD
1000
MTEXTBEGIN
1070
    73
1070
     1
1070
    44
1040
1.0
1070
    74
1070
     0
1000
MTEXTEND
  0
MTEXT
  5
12E12
330
1F
100
AcDbEntity
  8
AM_6
100
AcDbMText
 10
397.0767194190661
 20
94.0
 30
0.0
 40
6.4
 41
22.0
 71
     5
 72
     5
  1
88
 73
     1
 44
1.0
1001
ACAD
1000
MTEXTBEGIN
1070
    73
1070
     1
1070
    44
1040
1.0
1070
    74
1070
     0
1000
MTEXTEND
  0
MTEXT
  5
12E13
330
1F
100
AcDbEntity
  8
AM_6
100
AcDbMText
 10
397.0767194190661
 20
66.00000000000021
 30
0.0
 40
6.4
 41
22.0
 71
     5
 72
     5
  1
109
 73
     1
 44
1.0
1001
ACAD
1000
MTEXTBEGIN
1070
    73
1070
     1
1070
    44
1040
1.0
1070
    74
1070
     0
1000
MTEXTEND
  0
MTEXT
  5
12E14
330
1F
100
AcDbEntity
  8
AM_6
100
AcDbMText
 10
397.0767194190661
 20
38.00000000000029
 30
0.0
 40
6.4
 41
22.0
 71
     5
 72
     5
  1
126
 73
     1
 44
1.0
1001
ACAD
1000
MTEXTBEGIN
1070
    73
1070
     1
1070
    44
1040
1.0
1070
    74
1070
     0
1000
MTEXTEND
  0
MTEXT
  5
12E15
330
1F
100
AcDbEntity
  8
AM_6
100
AcDbMText
 10
397.0767194190661
 20
24.00000000000029
 30
0.0
 40
6.4
 41
22.0
 71
     5
 72
     5
  1
133
 73
     1
 44
1.0
1001
ACAD
1000
MTEXTBEGIN
1070
    73
1070
     1
1070
    44
1040
1.0
1070
    74
1070
     0
1000
MTEXTEND
  0
MTEXT
  5
12E16
330
1F
100
AcDbEntity
  8
AM_6
100
AcDbMText
 10
397.0767194190661
 20
136.0
 30
0.0
 40
6.4
 41
22.0
 71
     5
 72
     5
  1
58
 73
     1
 44
1.0
1001
ACAD
1000
MTEXTBEGIN
1070
    73
1070
     1
1070
    44
1040
1.0
1070
    74
1070
     0
1000
MTEXTEND
  0
MTEXT
  5
12E17
330
1F
100
AcDbEntity
  8
AM_6
100
AcDbMText
 10
397.0767194190661
 20
108.0
 30
0.0
 40
6.4
 41
22.0
 71
     5
 72
     5
  1
68
 73
     1
 44
1.0
1001
ACAD
1000
MTEXTBEGIN
1070
    73
1070
     1
1070
    44
1040
1.0
1070
    74
1070
     0
1000
MTEXTEND
  0
MTEXT
  5
12E18
330
1F
100
AcDbEntity
  8
AM_6
100
AcDbMText
 10
397.0767194190661
 20
80.0
 30
0.0
 40
6.4
 41
22.0
 71
     5
 72
     5
  1
88
 73
     1
 44
1.0
1001
ACAD
1000
MTEXTBEGIN
1070
    73
1070
     1
1070
    44
1040
1.0
1070
    74
1070
     0
1000
MTEXTEND
  0
MTEXT
  5
12E19
330
1F
100
AcDbEntity
  8
AM_6
100
AcDbMText
 10
397.0767194190661
 20
52.00000000000023
 30
0.0
 40
6.4
 41
22.0
 71
     5
 72
     5
  1
109
 73
     1
 44
1.0
1001
ACAD
1000
MTEXTBEGIN
1070
    73
1070
     1
1070
    44
1040
1.0
1070
    74
1070
     0
1000
MTEXTEND
  0
MTEXT
  5
12E1A
330
1F
100
AcDbEntity
  8
AM_6
100
AcDbMText
 10
485.0767194190661
 20
150.0
 30
0.0
 40
6.4
 41
22.0
 71
     5
 72
     5
  1
59
 73
     1
 44
1.0
1001
ACAD
1000
MTEXTBEGIN
1070
    73
1070
     1
1070
    44
1040
1.0
1070
    74
1070
     0
1000
MTEXTEND
  0
MTEXT
  5
12E1B
330
1F
100
AcDbEntity
  8
AM_6
100
AcDbMText
 10
485.0767194190661
 20
122.0
 30
0.0
 40
6.4
 41
22.0
 71
     5
 72
     5
  1
67
 73
     1
 44
1.0
1001
ACAD
1000
MTEXTBEGIN
1070
    73
1070
     1
1070
    44
1040
1.0
1070
    74
1070
     0
1000
MTEXTEND
  0
MTEXT
  5
12E1C
330
1F
100
AcDbEntity
  8
AM_6
100
AcDbMText
 10
485.0767194190661
 20
94.0
 30
0.0
 40
6.4
 41
22.0
 71
     5
 72
     5
  1
81
 73
     1
 44
1.0
1001
ACAD
1000
MTEXTBEGIN
1070
    73
1070
     1
1070
    44
1040
1.0
1070
    74
1070
     0
1000
MTEXTEND
  0
MTEXT
  5
12E1D
330
1F
100
AcDbEntity
  8
AM_6
100
AcDbMText
 10
485.0767194190661
 20
66.00000000000021
 30
0.0
 40
6.4
 41
22.0
 71
     5
 72
     5
  1
94
 73
     1
 44
1.0
1001
ACAD
1000
MTEXTBEGIN
1070
    73
1070
     1
1070
    44
1040
1.0
1070
    74
1070
     0
1000
MTEXTEND
  0
MTEXT
  5
12E1E
330
1F
100
AcDbEntity
  8
AM_6
100
AcDbMText
 10
485.0767194190661
 20
38.00000000000029
 30
0.0
 40
6.4
 41
22.0
 71
     5
 72
     5
  1
113
 73
     1
 44
1.0
1001
ACAD
1000
MTEXTBEGIN
1070
    73
1070
     1
1070
    44
1040
1.0
1070
    74
1070
     0
1000
MTEXTEND
  0
MTEXT
  5
12E1F
330
1F
100
AcDbEntity
  8
AM_6
100
AcDbMText
 10
485.0767194190661
 20
24.00000000000029
 30
0.0
 40
6.4
 41
22.0
 71
     5
 72
     5
  1
134
 73
     1
 44
1.0
1001
ACAD
1000
MTEXTBEGIN
1070
    73
1070
     1
1070
    44
1040
1.0
1070
    74
1070
     0
1000
MTEXTEND
  0
MTEXT
  5
12E20
330
1F
100
AcDbEntity
  8
AM_6
100
AcDbMText
 10
485.0767194190661
 20
136.0
 30
0.0
 40
6.4
 41
22.0
 71
     5
 72
     5
  1
59
 73
     1
 44
1.0
1001
ACAD
1000
MTEXTBEGIN
1070
    73
1070
     1
1070
    44
1040
1.0
1070
    74
1070
     0
1000
MTEXTEND
  0
MTEXT
  5
12E21
330
1F
100
AcDbEntity
  8
AM_6
100
AcDbMText
 10
485.0767194190661
 20
108.0
 30
0.0
 40
6.4
 41
22.0
 71
     5
 72
     5
  1
67
 73
     1
 44
1.0
1001
ACAD
1000
MTEXTBEGIN
1070
    73
1070
     1
1070
    44
1040
1.0
1070
    74
1070
     0
1000
MTEXTEND
  0
MTEXT
  5
12E22
330
1F
100
AcDbEntity
  8
AM_6
100
AcDbMText
 10
485.0767194190661
 20
80.0
 30
0.0
 40
6.4
 41
22.0
 71
     5
 72
     5
  1
81
 73
     1
 44
1.0
1001
ACAD
1000
MTEXTBEGIN
1070
    73
1070
     1
1070
    44
1040
1.0
1070
    74
1070
     0
1000
MTEXTEND
  0
MTEXT
  5
12E23
330
1F
100
AcDbEntity
  8
AM_6
100
AcDbMText
 10
485.0767194190661
 20
52.00000000000023
 30
0.0
 40
6.4
 41
22.0
 71
     5
 72
     5
  1
94
 73
     1
 44
1.0
1001
ACAD
1000
MTEXTBEGIN
1070
    73
1070
     1
1070
    44
1040
1.0
1070
    74
1070
     0
1000
MTEXTEND
  0
MTEXT
  5
12E24
330
1F
100
AcDbEntity
  8
AM_6
100
AcDbMText
 10
463.0767194190661
 20
150.0
 30
0.0
 40
6.4
 41
22.0
 71
     5
 72
     5
  1
135
 73
     1
 44
1.0
1001
ACAD
1000
MTEXTBEGIN
1070
    73
1070
     1
1070
    44
1040
1.0
1070
    74
1070
     0
1000
MTEXTEND
  0
MTEXT
  5
12E25
330
1F
100
AcDbEntity
  8
AM_6
100
AcDbMText
 10
529.0767194190662
 20
150.0
 30
0.0
 40
6.4
 41
22.0
 71
     5
 72
     5
  1
44
 73
     1
 44
1.0
1001
ACAD
1000
MTEXTBEGIN
1070
    73
1070
     1
1070
    44
1040
1.0
1070
    74
1070
     0
1000
MTEXTEND
  0
MTEXT
  5
12E26
330
1F
100
AcDbEntity
  8
AM_6
100
AcDbMText
 10
551.0767194190662
 20
150.0
 30
0.0
 40
6.4
 41
22.0
 71
     5
 72
     5
  1
100
 73
     1
 44
1.0
1001
ACAD
1000
MTEXTBEGIN
1070
    73
1070
     1
1070
    44
1040
1.0
1070
    74
1070
     0
1000
MTEXTEND
  0
MTEXT
  5
12E27
330
1F
100
AcDbEntity
  8
AM_6
100
AcDbMText
 10
463.0767194190661
 20
122.0
 30
0.0
 40
6.4
 41
22.0
 71
     5
 72
     5
  1
157
 73
     1
 44
1.0
1001
ACAD
1000
MTEXTBEGIN
1070
    73
1070
     1
1070
    44
1040
1.0
1070
    74
1070
     0
1000
MTEXTEND
  0
MTEXT
  5
12E28
330
1F
100
AcDbEntity
  8
AM_6
100
AcDbMText
 10
529.0767194190662
 20
122.0
 30
0.0
 40
6.4
 41
22.0
 71
     5
 72
     5
  1
54
 73
     1
 44
1.0
1001
ACAD
1000
MTEXTBEGIN
1070
    73
1070
     1
1070
    44
1040
1.0
1070
    74
1070
     0
1000
MTEXTEND
  0
MTEXT
  5
12E29
330
1F
100
AcDbEntity
  8
AM_6
100
AcDbMText
 10
551.0767194190662
 20
122.0
 30
0.0
 40
6.4
 41
22.0
 71
     5
 72
     5
  1
120
 73
     1
 44
1.0
1001
ACAD
1000
MTEXTBEGIN
1070
    73
1070
     1
1070
    44
1040
1.0
1070
    74
1070
     0
1000
MTEXTEND
  0
MTEXT
  5
12E2A
330
1F
100
AcDbEntity
  8
AM_6
100
AcDbMText
 10
463.0767194190661
 20
94.0
 30
0.0
 40
6.4
 41
22.0
 71
     5
 72
     5
  1
197
 73
     1
 44
1.0
1001
ACAD
1000
MTEXTBEGIN
1070
    73
1070
     1
1070
    44
1040
1.0
1070
    74
1070
     0
1000
MTEXTEND
  0
MTEXT
  5
12E2B
330
1F
100
AcDbEntity
  8
AM_6
100
AcDbMText
 10
529.0767194190662
 20
94.0
 30
0.0
 40
6.4
 41
22.0
 71
     5
 72
     5
  1
67
 73
     1
 44
1.0
1001
ACAD
1000
MTEXTBEGIN
1070
    73
1070
     1
1070
    44
1040
1.0
1070
    74
1070
     0
1000
MTEXTEND
  0
MTEXT
  5
12E2C
330
1F
100
AcDbEntity
  8
AM_6
100
AcDbMText
 10
551.0767194190662
 20
94.0
 30
0.0
 40
6.4
 41
22.0
 71
     5
 72
     5
  1
150
 73
     1
 44
1.0
1001
ACAD
1000
MTEXTBEGIN
1070
    73
1070
     1
1070
    44
1040
1.0
1070
    74
1070
     0
1000
MTEXTEND
  0
MTEXT
  5
12E2D
330
1F
100
AcDbEntity
  8
AM_6
100
AcDbMText
 10
463.0767194190661
 20
66.00000000000021
 30
0.0
 40
6.4
 41
22.0
 71
     5
 72
     5
  1
235
 73
     1
 44
1.0
1001
ACAD
1000
MTEXTBEGIN
1070
    73
1070
     1
1070
    44
1040
1.0
1070
    74
1070
     0
1000
MTEXTEND
  0
MTEXT
  5
12E2E
330
1F
100
AcDbEntity
  8
AM_6
100
AcDbMText
 10
529.0767194190662
 20
66.00000000000021
 30
0.0
 40
6.4
 41
22.0
 71
     5
 72
     5
  1
85
 73
     1
 44
1.0
1001
ACAD
1000
MTEXTBEGIN
1070
    73
1070
     1
1070
    44
1040
1.0
1070
    74
1070
     0
1000
MTEXTEND
  0
MTEXT
  5
12E2F
330
1F
100
AcDbEntity
  8
AM_6
100
AcDbMText
 10
551.0767194190662
 20
66.00000000000021
 30
0.0
 40
6.4
 41
22.0
 71
     5
 72
     5
  1
176
 73
     1
 44
1.0
1001
ACAD
1000
MTEXTBEGIN
1070
    73
1070
     1
1070
    44
1040
1.0
1070
    74
1070
     0
1000
MTEXTEND
  0
MTEXT
  5
12E30
330
1F
100
AcDbEntity
  8
AM_6
100
AcDbMText
 10
463.0767194190661
 20
38.00000000000029
 30
0.0
 40
6.4
 41
22.0
 71
     5
 72
     5
  1
275
 73
     1
 44
1.0
1001
ACAD
1000
MTEXTBEGIN
1070
    73
1070
     1
1070
    44
1040
1.0
1070
    74
1070
     0
1000
MTEXTEND
  0
MTEXT
  5
12E31
330
1F
100
AcDbEntity
  8
AM_6
100
AcDbMText
 10
529.0767194190662
 20
38.00000000000029
 30
0.0
 40
6.4
 41
22.0
 71
     5
 72
     5
  1
96
 73
     1
 44
1.0
1001
ACAD
1000
MTEXTBEGIN
1070
    73
1070
     1
1070
    44
1040
1.0
1070
    74
1070
     0
1000
MTEXTEND
  0
MTEXT
  5
12E32
330
1F
100
AcDbEntity
  8
AM_6
100
AcDbMText
 10
551.0767194190662
 20
38.00000000000029
 30
0.0
 40
6.4
 41
22.0
 71
     5
 72
     5
  1
200
 73
     1
 44
1.0
1001
ACAD
1000
MTEXTBEGIN
1070
    73
1070
     1
1070
    44
1040
1.0
1070
    74
1070
     0
1000
MTEXTEND
  0
MTEXT
  5
12E33
330
1F
100
AcDbEntity
  8
AM_6
100
AcDbMText
 10
463.0767194190661
 20
24.00000000000029
 30
0.0
 40
6.4
 41
22.0
 71
     5
 72
     5
  1
309
 73
     1
 44
1.0
1001
ACAD
1000
MTEXTBEGIN
1070
    73
1070
     1
1070
    44
1040
1.0
1070
    74
1070
     0
1000
MTEXTEND
  0
MTEXT
  5
12E34
330
1F
100
AcDbEntity
  8
AM_6
100
AcDbMText
 10
529.0767194190662
 20
24.00000000000029
 30
0.0
 40
6.4
 41
22.0
 71
     5
 72
     5
  1
98
 73
     1
 44
1.0
1001
ACAD
1000
MTEXTBEGIN
1070
    73
1070
     1
1070
    44
1040
1.0
1070
    74
1070
     0
1000
MTEXTEND
  0
MTEXT
  5
12E35
330
1F
100
AcDbEntity
  8
AM_6
100
AcDbMText
 10
551.0767194190662
 20
24.00000000000029
 30
0.0
 40
6.4
 41
22.0
 71
     5
 72
     5
  1
226
 73
     1
 44
1.0
1001
ACAD
1000
MTEXTBEGIN
1070
    73
1070
     1
1070
    44
1040
1.0
1070
    74
1070
     0
1000
MTEXTEND
  0
MTEXT
  5
12E36
330
1F
100
AcDbEntity
  8
AM_6
100
AcDbMText
 10
463.0767194190661
 20
136.0
 30
0.0
 40
6.4
 41
22.0
 71
     5
 72
     5
  1
135
 73
     1
 44
1.0
1001
ACAD
1000
MTEXTBEGIN
1070
    73
1070
     1
1070
    44
1040
1.0
1070
    74
1070
     0
1000
MTEXTEND
  0
MTEXT
  5
12E37
330
1F
100
AcDbEntity
  8
AM_6
100
AcDbMText
 10
529.0767194190662
 20
136.0
 30
0.0
 40
6.4
 41
22.0
 71
     5
 72
     5
  1
44
 73
     1
 44
1.0
1001
ACAD
1000
MTEXTBEGIN
1070
    73
1070
     1
1070
    44
1040
1.0
1070
    74
1070
     0
1000
MTEXTEND
  0
MTEXT
  5
12E38
330
1F
100
AcDbEntity
  8
AM_6
100
AcDbMText
 10
551.0767194190662
 20
136.0
 30
0.0
 40
6.4
 41
22.0
 71
     5
 72
     5
  1
100
 73
     1
 44
1.0
1001
ACAD
1000
MTEXTBEGIN
1070
    73
1070
     1
1070
    44
1040
1.0
1070
    74
1070
     0
1000
MTEXTEND
  0
MTEXT
  5
12E39
330
1F
100
AcDbEntity
  8
AM_6
100
AcDbMText
 10
463.0767194190661
 20
108.0
 30
0.0
 40
6.4
 41
22.0
 71
     5
 72
     5
  1
157
 73
     1
 44
1.0
1001
ACAD
1000
MTEXTBEGIN
1070
    73
1070
     1
1070
    44
1040
1.0
1070
    74
1070
     0
1000
MTEXTEND
  0
MTEXT
  5
12E3A
330
1F
100
AcDbEntity
  8
AM_6
100
AcDbMText
 10
529.0767194190662
 20
108.0
 30
0.0
 40
6.4
 41
22.0
 71
     5
 72
     5
  1
54
 73
     1
 44
1.0
1001
ACAD
1000
MTEXTBEGIN
1070
    73
1070
     1
1070
    44
1040
1.0
1070
    74
1070
     0
1000
MTEXTEND
  0
MTEXT
  5
12E3B
330
1F
100
AcDbEntity
  8
AM_6
100
AcDbMText
 10
551.0767194190662
 20
108.0
 30
0.0
 40
6.4
 41
22.0
 71
     5
 72
     5
  1
120
 73
     1
 44
1.0
1001
ACAD
1000
MTEXTBEGIN
1070
    73
1070
     1
1070
    44
1040
1.0
1070
    74
1070
     0
1000
MTEXTEND
  0
MTEXT
  5
12E3C
330
1F
100
AcDbEntity
  8
AM_6
100
AcDbMText
 10
463.0767194190661
 20
80.0
 30
0.0
 40
6.4
 41
22.0
 71
     5
 72
     5
  1
197
 73
     1
 44
1.0
1001
ACAD
1000
MTEXTBEGIN
1070
    73
1070
     1
1070
    44
1040
1.0
1070
    74
1070
     0
1000
MTEXTEND
  0
MTEXT
  5
12E3D
330
1F
100
AcDbEntity
  8
AM_6
100
AcDbMText
 10
529.0767194190662
 20
80.0
 30
0.0
 40
6.4
 41
22.0
 71
     5
 72
     5
  1
67
 73
     1
 44
1.0
1001
ACAD
1000
MTEXTBEGIN
1070
    73
1070
     1
1070
    44
1040
1.0
1070
    74
1070
     0
1000
MTEXTEND
  0
MTEXT
  5
12E3E
330
1F
100
AcDbEntity
  8
AM_6
100
AcDbMText
 10
551.0767194190662
 20
80.0
 30
0.0
 40
6.4
 41
22.0
 71
     5
 72
     5
  1
150
 73
     1
 44
1.0
1001
ACAD
1000
MTEXTBEGIN
1070
    73
1070
     1
1070
    44
1040
1.0
1070
    74
1070
     0
1000
MTEXTEND
  0
MTEXT
  5
12E3F
330
1F
100
AcDbEntity
  8
AM_6
100
AcDbMText
 10
463.0767194190661
 20
52.00000000000023
 30
0.0
 40
6.4
 41
22.0
 71
     5
 72
     5
  1
235
 73
     1
 44
1.0
1001
ACAD
1000
MTEXTBEGIN
1070
    73
1070
     1
1070
    44
1040
1.0
1070
    74
1070
     0
1000
MTEXTEND
  0
MTEXT
  5
12E40
330
1F
100
AcDbEntity
  8
AM_6
100
AcDbMText
 10
529.0767194190662
 20
52.00000000000023
 30
0.0
 40
6.4
 41
22.0
 71
     5
 72
     5
  1
85
 73
     1
 44
1.0
1001
ACAD
1000
MTEXTBEGIN
1070
    73
1070
     1
1070
    44
1040
1.0
1070
    74
1070
     0
1000
MTEXTEND
  0
MTEXT
  5
12E41
330
1F
100
AcDbEntity
  8
AM_6
100
AcDbMText
 10
551.0767194190662
 20
52.00000000000023
 30
0.0
 40
6.4
 41
22.0
 71
     5
 72
     5
  1
176
 73
     1
 44
1.0
1001
ACAD
1000
MTEXTBEGIN
1070
    73
1070
     1
1070
    44
1040
1.0
1070
    74
1070
     0
1000
MTEXTEND
  0
MTEXT
  5
12E42
330
1F
100
AcDbEntity
  8
AM_6
100
AcDbMText
 10
601.0767194190662
 20
52.00000000000023
 30
0.0
 40
6.4
 41
78.0
 71
     5
 72
     5
  1
30.0～80.0
 73
     1
 44
1.0
1001
ACAD
1000
MTEXTBEGIN
1070
    73
1070
     1
1070
    44
1040
1.0
1070
    74
1070
     0
1000
MTEXTEND
  0
MTEXT
  5
12E43
330
1F
100
AcDbEntity
  8
AM_6
100
AcDbMText
 10
601.0767194190662
 20
122.0
 30
0.0
 40
6.4
 41
78.0
 71
     5
 72
     5
  1
12.0～35.0
 73
     1
 44
1.0
1001
ACAD
1000
MTEXTBEGIN
1070
    73
1070
     1
1070
    44
1040
1.0
1070
    74
1070
     0
1000
MTEXTEND
  0
MTEXT
  5
12E44
330
1F
100
AcDbEntity
  8
AM_6
100
AcDbMText
 10
601.0767194190662
 20
94.0
 30
0.0
 40
6.4
 41
78.0
 71
     5
 72
     5
  1
15.0～50.0
 73
     1
 44
1.0
1001
ACAD
1000
MTEXTBEGIN
1070
    73
1070
     1
1070
    44
1040
1.0
1070
    74
1070
     0
1000
MTEXTEND
  0
MTEXT
  5
12E45
330
1F
100
AcDbEntity
  8
AM_6
100
AcDbMText
 10
601.0767194190662
 20
66.00000000000021
 30
0.0
 40
6.4
 41
78.0
 71
     5
 72
     5
  1
18.0～60.0
 73
     1
 44
1.0
1001
ACAD
1000
MTEXTBEGIN
1070
    73
1070
     1
1070
    44
1040
1.0
1070
    74
1070
     0
1000
MTEXTEND
  0
LINE
  5
12E46
330
1F
100
AcDbEntity
  8
AM_0
100
AcDbLine
 10
320.5600859700112
 20
382.3073964522279
 30
0.0
 11
320.5600859700112
 21
378.8073964522279
 31
0.0
  0
LINE
  5
12E47
330
1F
100
AcDbEntity
  8
AM_0
100
AcDbLine
 10
320.5600859700112
 20
376.8073964522279
 30
0.0
 11
321.5600859700114
 21
377.8073964522278
 31
0.0
  0
LINE
  5
12E48
330
1F
100
AcDbEntity
  8
AM_0
100
AcDbLine
 10
324.2036795094602
 20
394.4469245479086
 30
0.0
 11
324.2036795094602
 21
382.8073964522279
 31
0.0
  0
LINE
  5
12E49
330
1F
100
AcDbEntity
  8
AM_0
100
AcDbLine
 10
326.5600859700112
 20
395.8073964522279
 30
0.0
 11
324.2036795094602
 21
394.4469245479086
 31
0.0
  0
LINE
  5
12E4A
330
1F
100
AcDbEntity
  8
AM_0
100
AcDbLine
 10
320.5600859700112
 20
378.8073964522279
 30
0.0
 11
321.5600859700114
 21
377.8073964522278
 31
0.0
  0
LINE
  5
12E4B
330
1F
100
AcDbEntity
  8
AM_0
100
AcDbLine
 10
320.5600859700112
 20
376.8073964522279
 30
0.0
 11
320.5600859700112
 21
374.3073964522277
 31
0.0
  0
LINE
  5
12E4C
330
1F
100
AcDbEntity
  8
AM_0
100
AcDbLine
 10
320.5600859700112
 20
382.3073964522279
 30
0.0
 11
321.0600859700112
 21
382.8073964522279
 31
0.0
  0
LINE
  5
12E4D
330
1F
100
AcDbEntity
  8
AM_0
100
AcDbLine
 10
331.1318827397357
 20
382.8073964522279
 30
0.0
 11
331.1318827397357
 21
393.910188720946
 31
0.0
  0
ARC
  5
12E4E
330
1F
100
AcDbEntity
  8
AM_0
100
AcDbCircle
 10
338.0600859700114
 20
382.2086227584334
 30
0.0
 40
13.59877369379439
100
AcDbArc
 50
90.0
 51
120.628709409515
  0
ARC
  5
12E4F
330
1F
100
AcDbEntity
  8
AM_0
100
AcDbCircle
 10
322.7871834276553
 20
380.2585956494043
 30
0.0
 40
16.0
100
AcDbArc
 50
58.56414261359878
 51
76.3608374250676
  0
LINE
  5
12E50
330
1F
100
AcDbEntity
  8
AM_2
100
AcDbLine
 10
324.9600859700112
 20
337.3073964522279
 30
0.0
 11
324.9600859700112
 21
292.9073964522278
 31
0.0
  0
LINE
  5
12E51
330
1F
100
AcDbEntity
  8
AM_7
100
AcDbLine
 10
338.0600859700114
 20
286.3073964522278
 30
0.0
 11
338.0600859700114
 21
477.8073964522278
 31
0.0
1001
GENIUS_GENOBJ-N-CEN_13
1002
{
1000
OWNER
1000
GEN
1002
}
1001
GENIUS_GENODEF_13
1002
{
1000
HIER
1070
     0
1002
}
1002
{
1000
MANEDIT
1070
     0
1002
}
1002
{
1000
NOSEL
1070
     0
1002
}
1002
{
1000
BEHIND
1070
     0
1002
}
1002
{
1000
OTHER
1070
     0
1002
}
1002
{
1000
REACTOR
1002
}
1001
GENIUS_GENCEN_19
1002
{
1040
6.0
1002
}
  0
LINE
  5
12E52
330
1F
100
AcDbEntity
  8
AM_7
100
AcDbLine
 10
282.0600859700114
 20
358.3073964522278
 30
0.0
 11
394.0600859700112
 21
358.3073964522276
 31
0.0
1001
GENIUS_GENODEF_13
1002
{
1000
HIER
1070
     0
1002
}
1002
{
1000
MANEDIT
1070
     0
1002
}
1002
{
1000
NOSEL
1070
     0
1002
}
1002
{
1000
BEHIND
1070
     0
1002
}
1002
{
1000
OTHER
1070
     0
1002
}
1002
{
1000
REACTOR
1002
}
1001
GENIUS_GENOBJ-N-CEN_13
1002
{
1000
OWNER
1000
GEN
1002
}
1001
GENIUS_GENCEN_19
1002
{
1040
6.0
1002
}
  0
LINE
  5
12E53
330
1F
100
AcDbEntity
  8
AM_7
100
AcDbLine
 10
495.1026786589226
 20
477.8073964522278
 30
0.0
 11
495.1026786589226
 21
286.3073964522278
 31
0.0
1001
GENIUS_GENODEF_13
1002
{
1000
HIER
1070
     0
1002
}
1002
{
1000
MANEDIT
1070
     0
1002
}
1002
{
1000
NOSEL
1070
     0
1002
}
1002
{
1000
BEHIND
1070
     0
1002
}
1002
{
1000
OTHER
1070
     0
1002
}
1002
{
1000
REACTOR
1002
}
1001
GENIUS_GENOBJ-N-CEN_13
1002
{
1000
OWNER
1000
GEN
1002
}
1001
GENIUS_GENCEN_19
1002
{
1040
6.0
1002
}
  0
LINE
  5
12E54
330
1F
100
AcDbEntity
  8
AM_7
 48
0.8
100
AcDbLine
 10
480.1026786589225
 20
462.8073964522278
 30
0.0
 11
510.1026786589226
 21
462.8073964522278
 31
0.0
1001
GENIUS_GENODEF_13
1002
{
1000
HIER
1070
     0
1002
}
1002
{
1000
MANEDIT
1070
     0
1002
}
1002
{
1000
NOSEL
1070
     0
1002
}
1002
{
1000
BEHIND
1070
     0
1002
}
1002
{
1000
OTHER
1070
     0
1002
}
1002
{
1000
REACTOR
1002
}
1001
GENIUS_GENOBJ-N-CEN_13
1002
{
1000
OWNER
1000
GEN
1002
}
1001
GENIUS_GENCEN_19
1002
{
1040
6.0
1002
}
  0
LINE
  5
12E55
330
1F
100
AcDbEntity
  8
AM_7
100
AcDbLine
 10
464.1026786589226
 20
358.3073964522276
 30
0.0
 11
526.1026786589225
 21
358.3073964522278
 31
0.0
1001
GENIUS_GENODEF_13
1002
{
1000
HIER
1070
     0
1002
}
1002
{
1000
MANEDIT
1070
     0
1002
}
1002
{
1000
NOSEL
1070
     0
1002
}
1002
{
1000
BEHIND
1070
     0
1002
}
1002
{
1000
OTHER
1070
     0
1002
}
1002
{
1000
REACTOR
1002
}
1001
GENIUS_GENOBJ-N-CEN_13
1002
{
1000
OWNER
1000
GEN
1002
}
1001
GENIUS_GENCEN_19
1002
{
1040
6.0
1002
}
  0
DIMENSION
  5
12E56
330
1F
100
AcDbEntity
  8
AM_5
100
AcDbDimension
  2
*D2862
 10
323.0600859700112
 20
270.8073964522279
 30
0.0
 11
338.0600859700114
 21
277.0073964522278
 31
0.0
 70
    32
  1
M
 71
     5
 42
30.0
  3
SYS$0
100
AcDbAlignedDimension
 13
353.0600859700113
 23
294.8073964522279
 33
0.0
 14
323.0600859700112
 24
294.8073964522279
 34
0.0
100
AcDbRotatedDimension
1001
ACAD
1000
DSTYLE
1002
{
1070
    40
1040
2.0
1002
}
1001
ACAD_DSTYLE_DIMINSPECT
1070
   396
1000
100%
1070
   395
1000

1070
   394
1070
    33
1070
   393
1070
     0
  0
DIMENSION
  5
12E87
330
1F
100
AcDbEntity
  8
AM_5
100
AcDbDimension
  2
*D2863
 10
379.5600859700112
 20
515.8073974622277
 30
0.0
 11
338.0600859700114
 21
522.0073974622279
 31
0.0
 70
    32
  1
A
 71
     5
 42
83.0
  3
SYS$0
100
AcDbAlignedDimension
 13
296.5600859700114
 23
430.307396452228
 33
0.0
 14
379.5600859700112
 24
430.307396452228
 34
0.0
100
AcDbRotatedDimension
1001
ACAD
1000
DSTYLE
1002
{
1070
    40
1040
2.0
1002
}
1001
ACAD_DSTYLE_DIMINSPECT
1070
   396
1000
100%
1070
   395
1000

1070
   394
1070
    33
1070
   393
1070
     0
  0
DIMENSION
  5
12EA6
330
1F
100
AcDbEntity
  8
AM_5
100
AcDbDimension
  2
*D2864
 10
361.5600859700113
 20
495.8073974622278
 30
0.0
 11
338.0600859700114
 21
502.0073974622278
 31
0.0
 70
    32
  1
B\H5;1
 71
     5
 42
47.0
  3
SYS$0
100
AcDbAlignedDimension
 13
314.5600859700112
 23
430.307396452228
 33
0.0
 14
361.5600859700113
 24
430.307396452228
 34
0.0
100
AcDbRotatedDimension
1001
ACAD
1000
DSTYLE
1002
{
1070
    40
1040
2.0
1002
}
1001
ACAD_DSTYLE_DIMINSPECT
1070
   396
1000
100%
1070
   395
1000

1070
   394
1070
    33
1070
   393
1070
     0
  0
DIMENSION
  5
12ED7
330
1F
100
AcDbEntity
  8
AM_5
100
AcDbDimension
  2
*D2865
 10
504.1026786589226
 20
495.8073974622278
 30
0.0
 11
495.1026786589226
 21
502.0073974622278
 31
0.0
 70
    32
  1
C
 71
     5
 42
18.0
  3
SYS$0
100
AcDbAlignedDimension
 13
486.1026786589226
 23
462.8073964522278
 33
0.0
 14
504.1026786589226
 24
462.8073964522278
 34
0.0
100
AcDbRotatedDimension
1001
ACAD
1000
DSTYLE
1002
{
1070
    40
1040
2.0
1002
}
1001
ACAD_DSTYLE_DIMINSPECT
1070
   396
1000
100%
1070
   395
1000

1070
   394
1070
    33
1070
   393
1070
     0
  0
DIMENSION
  5
12F2C
330
1F
100
AcDbEntity
  8
AM_5
100
AcDbDimension
  2
*D2866
 10
520.1026786589226
 20
268.9073954522277
 30
0.0
 11
495.1026786589226
 21
275.1073954522277
 31
0.0
 70
    32
  1
D
 71
     5
 42
50.00000000000007
  3
SYS$0
100
AcDbAlignedDimension
 13
470.1026786589226
 23
358.3073964522278
 33
0.0
 14
520.1026786589226
 24
358.3073964522278
 34
0.0
100
AcDbRotatedDimension
1001
ACAD
1000
DSTYLE
1002
{
1070
    40
1040
2.0
1002
}
1001
ACAD_DSTYLE_DIMINSPECT
1070
   396
1000
100%
1070
   395
1000

1070
   394
1070
    33
1070
   393
1070
     0
  0
DIMENSION
  5
12F5D
330
1F
100
AcDbEntity
  8
AM_5
100
AcDbDimension
  2
*D2867
 10
407.0600869700112
 20
395.8073964522278
 30
0.0
 11
400.8600869700111
 21
366.5573964522279
 31
0.0
 70
    32
  1
H\H5;2
 71
     5
 42
58.5
  3
SYS$0
100
AcDbAlignedDimension
 13
359.5600859700113
 23
337.3073964522279
 33
0.0
 14
349.5600859700114
 24
395.8073964522279
 34
0.0
 50
90.0
100
AcDbRotatedDimension
1001
ACAD
1000
DSTYLE
1002
{
1070
    40
1040
2.0
1002
}
1001
ACAD_DSTYLE_DIMINSPECT
1070
   396
1000
100%
1070
   395
1000

1070
   394
1070
    33
1070
   393
1070
     0
  0
DIMENSION
  5
12F85
330
1F
100
AcDbEntity
  8
AM_5
100
AcDbDimension
  2
*D2868
 10
407.0600869700117
 20
453.8073964522277
 30
0.0
 11
400.8600869700115
 21
424.8073964522277
 31
0.0
 70
    32
  1
B\H5;2
 71
     5
 42
58.00000000000011
  3
SYS$0
100
AcDbAlignedDimension
 13
349.5600859700112
 23
395.8073964522279
 33
0.0
 14
338.0600859700114
 24
453.8073964522277
 34
0.0
 50
90.0
100
AcDbRotatedDimension
1001
ACAD
1000
DSTYLE
1002
{
1070
    40
1040
2.0
1002
}
1001
ACAD_DSTYLE_DIMINSPECT
1070
   396
1000
100%
1070
   395
1000

1070
   394
1070
    33
1070
   393
1070
     0
  0
DIMENSION
  5
12FA4
330
1F
100
AcDbEntity
  8
AM_5
100
AcDbDimension
  2
*D2869
 10
427.0600869700122
 20
471.8073964522278
 30
0.0
 11
420.8600869700121
 21
404.5573964522279
 31
0.0
 70
    32
  1
H\H5;1
 71
     5
 42
134.5000000000001
  3
SYS$0
100
AcDbAlignedDimension
 13
359.5600859700113
 23
337.3073964522279
 33
0.0
 14
338.0600859700114
 24
471.807396452228
 34
0.0
 50
90.0
100
AcDbRotatedDimension
1001
ACAD
1000
DSTYLE
1002
{
1070
    40
1040
2.0
1002
}
1001
ACAD_DSTYLE_DIMINSPECT
1070
   396
1000
100%
1070
   395
1000

1070
   394
1070
    33
1070
   393
1070
     0
  0
DIMENSION
  5
12FC3
330
1F
100
AcDbEntity
  8
AM_5
100
AcDbDimension
  2
*D2870
 10
427.0600869700128
 20
292.3073964522278
 30
0.0
 11
420.8600869700125
 21
314.8073964522279
 31
0.0
 70
    32
  1
L
 71
     5
 42
45.0
  3
SYS$0
100
AcDbAlignedDimension
 13
359.5600859700113
 23
337.3073964522279
 33
0.0
 14
350.5600859700113
 24
292.3073964522279
 34
0.0
 50
90.0
100
AcDbRotatedDimension
1001
ACAD
1000
DSTYLE
1002
{
1070
    40
1040
2.0
1002
}
1001
ACAD_DSTYLE_DIMINSPECT
1070
   396
1000
100%
1070
   395
1000

1070
   394
1070
    33
1070
   393
1070
     0
  0
DIMENSION
  5
1306E
330
1F
100
AcDbEntity
  8
AM_5
100
AcDbDimension
  2
*D2871
 10
360.0600859700112
 20
250.8073964522278
 30
0.0
 11
338.0600859700114
 21
257.0073964522279
 31
0.0
 70
    32
  1
E
 71
     5
 42
44.0
  3
SYS$0
100
AcDbAlignedDimension
 13
316.0600859700112
 23
337.8073964522279
 33
0.0
 14
360.0600859700112
 24
337.8073964522279
 34
0.0
100
AcDbRotatedDimension
1001
ACAD
1000
DSTYLE
1002
{
1070
    40
1040
2.0
1002
}
1001
ACAD_DSTYLE_DIMINSPECT
1070
   396
1000
100%
1070
   395
1000

1070
   394
1070
    33
1070
   393
1070
     0
  0
DIMENSION
  5
1309F
330
1F
100
AcDbEntity
  8
AM_5
100
AcDbDimension
  2
*D2872
 10
388.0600859700113
 20
230.8073964522276
 30
0.0
 11
338.0600859700114
 21
237.0073964522276
 31
0.0
 70
    32
  1
W
 71
     5
 42
100.0
  3
SYS$0
100
AcDbAlignedDimension
 13
288.0600859700114
 23
354.6554354621817
 33
0.0
 14
388.0600859700113
 24
354.6554354621817
 34
0.0
100
AcDbRotatedDimension
1001
ACAD
1000
DSTYLE
1002
{
1070
    40
1040
2.0
1002
}
1001
ACAD_DSTYLE_DIMINSPECT
1070
   396
1000
100%
1070
   395
1000

1070
   394
1070
    33
1070
   393
1070
     0
  0
TEXT
  5
13196
330
1F
100
AcDbEntity
  8
AM_6
 60
     1
100
AcDbText
 10
816.9999999999996
 20
482.112710942024
 30
0.0
 40
5.0
  1
!GENTITLE-INSERT
100
AcDbText
  0
TEXT
  5
13197
330
1F
100
AcDbEntity
  8
AM_6
 60
     1
100
AcDbText
 10
0.0000000000000285
 20
465.112710942024
 30
0.0
 40
5.0
  1
!GENTITLE-LL
100
AcDbText
  0
TEXT
  5
13198
330
1F
100
AcDbEntity
  8
AM_6
 60
     1
100
AcDbText
 10
840.0
 20
1059.112710942024
 30
0.0
 40
5.0
  1
!GENTITLE-RU
100
AcDbText
  0
TEXT
  5
13199
330
1F
100
AcDbEntity
  8
AM_6
 60
     1
100
AcDbText
 10
840.0
 20
1059.112710942024
 30
0.0
 40
5.0
  1
!GENTITLE-MAX
100
AcDbText
  0
LINE
  5
1319A
330
1F
100
AcDbEntity
  8
size
100
AcDbLine
 10
0.0
 20
0.0
 30
0.0
 11
840.0
 21
0.0
 31
0.0
1001
GENIUS_GENREC_14
1002
{
1000
PYDIR
1011
0.0000000000000355
1021
594.0
1031
0.0
1002
}
1002
{
1000
PXDIR
1011
840.0
1021
0.0
1031
0.0
1002
}
1002
{
1000
PORI
1011
0.0
1021
0.0
1031
0.0
1002
}
1002
{
1000
PINS
1011
420.0000000000001
1021
297.0
1031
0.0
1002
}
1002
{
1000
HVAL
1000
297
1002
}
1002
{
1000
H
1070
     2
1002
}
1002
{
1000
WVAL
1000
420
1002
}
1002
{
1000
W
1070
     2
1002
}
1002
{
1000
C
1070
     4
1002
}
1001
GENIUS_GENOBJ-N-REC_13
1002
{
1000
OWNER
1000
GEN
1002
}
1001
GENIUS_GENODEF_13
1002
{
1000
HIER
1070
     0
1002
}
1002
{
1000
MANEDIT
1070
     0
1002
}
1002
{
1000
NOSEL
1070
     0
1002
}
1002
{
1000
BEHIND
1070
     0
1002
}
1002
{
1000
OTHER
1070
     0
1002
}
1002
{
1000
REACTOR
1002
}
  0
LINE
  5
1319B
330
1F
100
AcDbEntity
  8
size
100
AcDbLine
 10
840.0
 20
0.0
 30
0.0
 11
840.0
 21
594.0
 31
0.0
1001
GENIUS_GENREC_14
1002
{
1000
PYDIR
1011
0.0000000000000355
1021
594.0
1031
0.0
1002
}
1002
{
1000
PXDIR
1011
840.0
1021
0.0
1031
0.0
1002
}
1002
{
1000
PORI
1011
0.0
1021
0.0
1031
0.0
1002
}
1002
{
1000
PINS
1011
420.0000000000001
1021
297.0
1031
0.0
1002
}
1002
{
1000
HVAL
1000
297
1002
}
1002
{
1000
H
1070
     2
1002
}
1002
{
1000
WVAL
1000
420
1002
}
1002
{
1000
W
1070
     2
1002
}
1002
{
1000
C
1070
     4
1002
}
1001
GENIUS_GENOBJ-N-REC_13
1002
{
1000
OWNER
1000
GEN
1002
}
1001
GENIUS_GENODEF_13
1002
{
1000
HIER
1070
     0
1002
}
1002
{
1000
MANEDIT
1070
     0
1002
}
1002
{
1000
NOSEL
1070
     0
1002
}
1002
{
1000
BEHIND
1070
     0
1002
}
1002
{
1000
OTHER
1070
     0
1002
}
1002
{
1000
REACTOR
1002
}
  0
LINE
  5
1319C
330
1F
100
AcDbEntity
  8
size
100
AcDbLine
 10
840.0
 20
594.0
 30
0.0
 11
0.0000000000000551
 21
594.0
 31
0.0
1001
GENIUS_GENREC_14
1002
{
1000
PYDIR
1011
0.0000000000000355
1021
594.0
1031
0.0
1002
}
1002
{
1000
PXDIR
1011
840.0
1021
0.0
1031
0.0
1002
}
1002
{
1000
PORI
1011
0.0
1021
0.0
1031
0.0
1002
}
1002
{
1000
PINS
1011
420.0000000000001
1021
297.0
1031
0.0
1002
}
1002
{
1000
HVAL
1000
297
1002
}
1002
{
1000
H
1070
     2
1002
}
1002
{
1000
WVAL
1000
420
1002
}
1002
{
1000
W
1070
     2
1002
}
1002
{
1000
C
1070
     4
1002
}
1001
GENIUS_GENOBJ-N-REC_13
1002
{
1000
OWNER
1000
GEN
1002
}
1001
GENIUS_GENODEF_13
1002
{
1000
HIER
1070
     0
1002
}
1002
{
1000
MANEDIT
1070
     0
1002
}
1002
{
1000
NOSEL
1070
     0
1002
}
1002
{
1000
BEHIND
1070
     0
1002
}
1002
{
1000
OTHER
1070
     0
1002
}
1002
{
1000
REACTOR
1002
}
  0
LINE
  5
1319D
330
1F
100
AcDbEntity
  8
size
100
AcDbLine
 10
0.0000000000000551
 20
594.0
 30
0.0
 11
0.0
 21
0.0
 31
0.0
1001
GENIUS_GENREC_14
1002
{
1000
PYDIR
1011
0.0000000000000355
1021
594.0
1031
0.0
1002
}
1002
{
1000
PXDIR
1011
840.0
1021
0.0
1031
0.0
1002
}
1002
{
1000
PORI
1011
0.0
1021
0.0
1031
0.0
1002
}
1002
{
1000
PINS
1011
420.0000000000001
1021
297.0
1031
0.0
1002
}
1002
{
1000
HVAL
1000
297
1002
}
1002
{
1000
H
1070
     2
1002
}
1002
{
1000
WVAL
1000
420
1002
}
1002
{
1000
W
1070
     2
1002
}
1002
{
1000
C
1070
     4
1002
}
1001
GENIUS_GENOBJ-N-REC_13
1002
{
1000
OWNER
1000
GEN
1002
}
1001
GENIUS_GENODEF_13
1002
{
1000
HIER
1070
     0
1002
}
1002
{
1000
MANEDIT
1070
     0
1002
}
1002
{
1000
NOSEL
1070
     0
1002
}
1002
{
1000
BEHIND
1070
     0
1002
}
1002
{
1000
OTHER
1070
     0
1002
}
1002
{
1000
REACTOR
1002
}
  0
LINE
  5
1319E
330
1F
100
AcDbEntity
  8
waku
100
AcDbLine
 10
816.9999999999996
 20
17.0
 30
0.0
 11
817.0
 21
577.0
 31
0.0
1001
GENIUS_GENREC_14
1002
{
1000
PYDIR
1011
0.0000000000000355
1021
594.0
1031
0.0
1002
}
1002
{
1000
PXDIR
1011
840.0
1021
0.0
1031
0.0
1002
}
1002
{
1000
PORI
1011
0.0
1021
0.0
1031
0.0
1002
}
1002
{
1000
PINS
1011
420.0000000000001
1021
297.0
1031
0.0
1002
}
1002
{
1000
HVAL
1000
297
1002
}
1002
{
1000
H
1070
     2
1002
}
1002
{
1000
WVAL
1000
420
1002
}
1002
{
1000
W
1070
     2
1002
}
1002
{
1000
C
1070
     4
1002
}
1001
GENIUS_GENOBJ-N-REC_13
1002
{
1000
OWNER
1000
GEN
1002
}
1001
GENIUS_GENODEF_13
1002
{
1000
HIER
1070
     0
1002
}
1002
{
1000
MANEDIT
1070
     0
1002
}
1002
{
1000
NOSEL
1070
     0
1002
}
1002
{
1000
BEHIND
1070
     0
1002
}
1002
{
1000
OTHER
1070
     0
1002
}
1002
{
1000
REACTOR
1002
}
  0
LINE
  5
1319F
330
1F
100
AcDbEntity
  8
waku
100
AcDbLine
 10
23.00000000000006
 20
577.0
 30
0.0
 11
23.0
 21
17.0
 31
0.0
1001
GENIUS_GENREC_14
1002
{
1000
PYDIR
1011
0.0000000000000355
1021
594.0
1031
0.0
1002
}
1002
{
1000
PXDIR
1011
840.0
1021
0.0
1031
0.0
1002
}
1002
{
1000
PORI
1011
0.0
1021
0.0
1031
0.0
1002
}
1002
{
1000
PINS
1011
420.0000000000001
1021
297.0
1031
0.0
1002
}
1002
{
1000
HVAL
1000
297
1002
}
1002
{
1000
H
1070
     2
1002
}
1002
{
1000
WVAL
1000
420
1002
}
1002
{
1000
W
1070
     2
1002
}
1002
{
1000
C
1070
     4
1002
}
1001
GENIUS_GENOBJ-N-REC_13
1002
{
1000
OWNER
1000
GEN
1002
}
1001
GENIUS_GENODEF_13
1002
{
1000
HIER
1070
     0
1002
}
1002
{
1000
MANEDIT
1070
     0
1002
}
1002
{
1000
NOSEL
1070
     0
1002
}
1002
{
1000
BEHIND
1070
     0
1002
}
1002
{
1000
OTHER
1070
     0
1002
}
1002
{
1000
REACTOR
1002
}
  0
LINE
  5
131A0
330
1F
100
AcDbEntity
  8
waku
100
AcDbLine
 10
817.0
 20
577.0
 30
0.0
 11
23.00000000000006
 21
577.0
 31
0.0
1001
GENIUS_GENREC_14
1002
{
1000
PYDIR
1011
0.0000000000000355
1021
594.0
1031
0.0
1002
}
1002
{
1000
PXDIR
1011
840.0
1021
0.0
1031
0.0
1002
}
1002
{
1000
PORI
1011
0.0
1021
0.0
1031
0.0
1002
}
1002
{
1000
PINS
1011
420.0000000000001
1021
297.0
1031
0.0
1002
}
1002
{
1000
HVAL
1000
297
1002
}
1002
{
1000
H
1070
     2
1002
}
1002
{
1000
WVAL
1000
420
1002
}
1002
{
1000
W
1070
     2
1002
}
1002
{
1000
C
1070
     4
1002
}
1001
GENIUS_GENOBJ-N-REC_13
1002
{
1000
OWNER
1000
GEN
1002
}
1001
GENIUS_GENODEF_13
1002
{
1000
HIER
1070
     0
1002
}
1002
{
1000
MANEDIT
1070
     0
1002
}
1002
{
1000
NOSEL
1070
     0
1002
}
1002
{
1000
BEHIND
1070
     0
1002
}
1002
{
1000
OTHER
1070
     0
1002
}
1002
{
1000
REACTOR
1002
}
  0
TEXT
  5
131A1
330
1F
100
AcDbEntity
  8
AM_6
 60
     1
100
AcDbText
 10
0.0000000000000285
 20
465.112710942024
 30
0.0
 40
5.0
  1
!GENTITLE-LL
100
AcDbText
  0
TEXT
  5
131A2
330
1F
100
AcDbEntity
  8
AM_6
 60
     1
100
AcDbText
 10
817.0
 20
1042.112710942024
 30
0.0
 40
5.0
  1
!GENTITLE-RU
100
AcDbText
  0
TEXT
  5
131A3
330
1F
100
AcDbEntity
  8
AM_6
 60
     1
100
AcDbText
 10
840.0
 20
1059.112710942024
 30
0.0
 40
5.0
  1
!GENTITLE-MAX
100
AcDbText
  0
TEXT
  5
131A4
330
1F
100
AcDbEntity
  8
AM_6
 60
     1
100
AcDbText
 10
816.9999999999996
 20
482.112710942024
 30
0.0
 40
5.0
  1
!GENTITLE-INSERT
100
AcDbText
  0
LINE
  5
131A5
330
1F
100
AcDbEntity
  8
waku
100
AcDbLine
 10
23.0
 20
17.0
 30
0.0
 11
816.9999999999996
 21
17.0
 31
0.0
  0
LINE
  5
1326F
330
1F
100
AcDbEntity
  8
AM_0
100
AcDbLine
 10
23.00000000000009
 20
577.0
 30
0.0
 11
182.777528110791
 21
577.0
 31
0.0
  0
LINE
  5
13270
330
1F
100
AcDbEntity
  8
AM_2
100
AcDbLine
 10
23.00000000000009
 20
563.0
 30
0.0
 11
182.777528110791
 21
563.0
 31
0.0
  0
LINE
  5
13271
330
1F
100
AcDbEntity
  8
AM_0
100
AcDbLine
 10
23.00000000000009
 20
577.0
 30
0.0
 11
23.00000529073711
 21
507.0
 31
0.0
  0
LINE
  5
13272
330
1F
100
AcDbEntity
  8
AM_2
100
AcDbLine
 10
69.0000000000001
 20
577.0
 30
0.0
 11
69.00000529073597
 21
507.0000000000002
 31
0.0
  0
MTEXT
  5
13273
330
1F
100
AcDbEntity
  8
AM_6
100
AcDbMText
 10
46.0000000000002
 20
570.0
 30
0.0
 40
6.4
 41
45.99999999999972
 71
     5
 72
     5
  1
品　名
 73
     1
 44
1.0
1001
ACAD
1000
MTEXTBEGIN
1070
    73
1070
     1
1070
    44
1040
1.0
1070
    74
1070
     0
1000
MTEXTEND
1000
ACAD_MTEXT_DEFINED_HEIGHT_BEGIN
1070
    46
1040
13.99999999999991
1000
ACAD_MTEXT_DEFINED_HEIGHT_END
  0
MTEXT
  5
13274
330
1F
100
AcDbEntity
  8
AM_6
100
AcDbMText
 10
46.00000000000006
 20
556.0
 30
0.0
 40
6.4
 41
46.00000000000002
 71
     5
 72
     5
  1
品　番
 73
     1
 44
1.0
1001
ACAD
1000
MTEXTBEGIN
1070
    73
1070
     1
1070
    44
1040
1.0
1070
    74
1070
     0
1000
MTEXTEND
1000
ACAD_MTEXT_DEFINED_HEIGHT_BEGIN
1070
    46
1040
15.52405982936184
1000
ACAD_MTEXT_DEFINED_HEIGHT_END
  0
LINE
  5
13275
330
1F
100
AcDbEntity
  8
AM_0
100
AcDbLine
 10
182.777528110791
 20
577.0
 30
0.0
 11
182.7775334015269
 21
507.0000000000002
 31
0.0
  0
LINE
  5
13277
330
1F
100
AcDbEntity
  8
AM_0
100
AcDbLine
 10
23.00000529073552
 20
507.0
 30
0.0
 11
182.7775334015265
 21
507.0
 31
0.0
  0
LINE
  5
136CA
330
1F
100
AcDbEntity
  8
AM_2
100
AcDbLine
 10
23.00000176357873
 20
521.0
 30
0.0
 11
182.7775298743697
 21
521.0
 31
0.0
  0
MTEXT
  5
136CB
330
1F
100
AcDbEntity
  8
AM_6
100
AcDbMText
 10
46.00000176357872
 20
514.0
 30
0.0
 40
6.4
 41
46.00000000000002
 71
     5
 72
     5
  1
備　考
 73
     1
 44
1.0
1001
ACAD
1000
MTEXTBEGIN
1070
    73
1070
     1
1070
    44
1040
1.0
1070
    74
1070
     0
1000
MTEXTEND
1000
ACAD_MTEXT_DEFINED_HEIGHT_BEGIN
1070
    46
1040
15.52405982936184
1000
ACAD_MTEXT_DEFINED_HEIGHT_END
  0
LINE
  5
1371C
330
1F
100
AcDbEntity
  8
AM_2
100
AcDbLine
 10
23.00000105814726
 20
549.0
 30
0.0
 11
182.7775291689381
 21
549.0
 31
0.0
  0
MTEXT
  5
1371D
330
1F
100
AcDbEntity
  8
AM_6
100
AcDbMText
 10
46.00000105814726
 20
542.0
 30
0.0
 40
6.4
 41
46.00000000000002
 71
     5
 72
     5
  1
材　質
 73
     1
 44
1.0
1001
ACAD
1000
MTEXTBEGIN
1070
    73
1070
     1
1070
    44
1040
1.0
1070
    74
1070
     0
1000
MTEXTEND
1000
ACAD_MTEXT_DEFINED_HEIGHT_BEGIN
1070
    46
1040
15.52405982936184
1000
ACAD_MTEXT_DEFINED_HEIGHT_END
  0
LINE
  5
1371F
330
1F
100
AcDbEntity
  8
AM_2
100
AcDbLine
 10
23.00000211629444
 20
535.0
 30
0.0
 11
182.7775302270854
 21
535.0
 31
0.0
  0
MTEXT
  5
13720
330
1F
100
AcDbEntity
  8
AM_6
100
AcDbMText
 10
46.00000211629444
 20
528.0
 30
0.0
 40
6.4
 41
46.00000000000002
 71
     5
 72
     5
  1
仕　上
 73
     1
 44
1.0
1001
ACAD
1000
MTEXTBEGIN
1070
    73
1070
     1
1070
    44
1040
1.0
1070
    74
1070
     0
1000
MTEXTEND
1000
ACAD_MTEXT_DEFINED_HEIGHT_BEGIN
1070
    46
1040
15.52405982936184
1000
ACAD_MTEXT_DEFINED_HEIGHT_END
  0
TEXT
  5
13722
330
1F
100
AcDbEntity
  8
AM_6
100
AcDbText
 10
69.00000211629444
 20
525.0259999411363
 30
0.0
 40
6.4
  1
　焼付塗装
 41
0.7
100
AcDbText
1001
ACAD
1000
ACAD_MTEXT_DEFINED_HEIGHT_BEGIN
1070
    46
1040
5.200000000000001
1000
ACAD_MTEXT_DEFINED_HEIGHT_END
  0
TEXT
  5
13724
330
1F
100
AcDbEntity
  8
AM_6
100
AcDbText
 10
69.0000000000001
 20
566.8000000000001
 30
0.0
 40
6.4
  1
　マルチアイボルト　ハイブリッド
 41
0.7
100
AcDbText
1001
ACAD
1000
ACAD_MTEXT_DEFINED_HEIGHT_BEGIN
1070
    46
1040
7.000000000000011
1000
ACAD_MTEXT_DEFINED_HEIGHT_END
  0
TEXT
  5
13725
330
1F
100
AcDbEntity
  8
AM_6
100
AcDbText
 10
69.0000000000001
 20
553.0259999411363
 30
0.0
 40
6.4
  1
　表参照
 41
0.7
100
AcDbText
1001
ACAD
1000
ACAD_MTEXT_DEFINED_HEIGHT_BEGIN
1070
    46
1040
5.200000000000001
1000
ACAD_MTEXT_DEFINED_HEIGHT_END
  0
TEXT
  5
13726
330
1F
100
AcDbEntity
  8
AM_6
100
AcDbText
 10
69.00000105814726
 20
539.0259999411362
 30
0.0
 40
6.4
  1
　スチール
 41
0.7
100
AcDbText
1001
ACAD
1000
ACAD_MTEXT_DEFINED_HEIGHT_BEGIN
1070
    46
1040
5.200000000000001
1000
ACAD_MTEXT_DEFINED_HEIGHT_END
  0
ENDSEC
  0
SECTION
  2
OBJECTS
  0
DICTIONARY
  5
C
330
0
100
AcDbDictionary
281
     1
  3
ACAD_2007HEADERVARS_RT
350
13A55
  3
ACAD_BGPLOT_KEY
350
AB06
  3
ACAD_COLOR
350
A91D
  3
ACAD_GROUP
350
D
  3
ACAD_LAYOUT
350
1A
  3
ACAD_MATERIAL
350
A91C
  3
ACAD_MLEADERSTYLE
350
B595
  3
ACAD_MLINESTYLE
350
17
  3
ACAD_PLOTSETTINGS
350
19
  3
ACAD_PLOTSTYLENAME
350
E
  3
ACAD_SCALELIST
350
B573
  3
ACAD_TABLESTYLE
350
AAB9
  3
ACAD_VISUALSTYLE
350
B0F1
  3
AcAsAppObject
350
3DA1
  3
ACASGREF_MASTER
350
3DE9
  3
ACDB_RECOMPOSE_DATA
350
B5B7
  3
AcDbVariableDictionary
350
34
  3
AcmDictionary
350
47
  3
AD_GREF_MODULE
350
3DEA
  3
AD_MAPI_MODULE
350
3E06
  3
AMG
350
2B
  3
AMGSNAPSETTINGS
350
7D
  3
ASE_INDEX_DICTIONARY
350
103C5
  3
DWGPROPS
350
13A54
  3
MAPISURF_MODULE
350
3DEB
  0
DICTIONARY
  5
3F95
330
2
100
AcDbDictionary
280
     1
281
     1
  3
ACAD_LAYERFILTERS
360
B4F7
  3
ACAD_LAYERSTATES
360
3F96
  3
ACLYDICTIONARY
360
B4F6
  3
AMLAYER_GROUPCOLORS
360
AAB4
  0
DICTIONARY
  5
132DC
330
10
100
AcDbDictionary
280
     1
281
     1
  3
ADSK_XREC_LAYER_RECONCILED
360
132DD
  0
DICTIONARY
  5
132DE
330
5F85
100
AcDbDictionary
280
     1
281
     1
  3
ADSK_XREC_LAYER_RECONCILED
360
132DF
  0
DICTIONARY
  5
132E0
330
AC9F
100
AcDbDictionary
280
     1
281
     1
  3
ADSK_XREC_LAYER_RECONCILED
360
132E1
  0
DICTIONARY
  5
132E2
330
ACA0
100
AcDbDictionary
280
     1
281
     1
  3
ADSK_XREC_LAYER_RECONCILED
360
132E3
  0
DICTIONARY
  5
132E4
330
ACA1
100
AcDbDictionary
280
     1
281
     1
  3
ADSK_XREC_LAYER_RECONCILED
360
132E5
  0
DICTIONARY
  5
132EE
330
AD64
100
AcDbDictionary
280
     1
281
     1
  3
ADSK_XREC_LAYER_RECONCILED
360
132EF
  0
DICTIONARY
  5
132F2
330
AD68
100
AcDbDictionary
280
     1
281
     1
  3
ADSK_XREC_LAYER_RECONCILED
360
132F3
  0
DICTIONARY
  5
132F4
330
AD69
100
AcDbDictionary
280
     1
281
     1
  3
ADSK_XREC_LAYER_RECONCILED
360
132F5
  0
DICTIONARY
  5
13304
330
C2B3
100
AcDbDictionary
280
     1
281
     1
  3
ADSK_XREC_LAYER_RECONCILED
360
13305
  0
DICTIONARY
  5
13306
330
107CC
100
AcDbDictionary
280
     1
281
     1
  3
ADSK_XREC_LAYER_RECONCILED
360
13307
  0
DICTIONARY
  5
8A
330
1F
100
AcDbDictionary
280
     1
281
     1
  3
ACAD_SORTENTS
360
B1BA
  0
DICTIONARY
  5
13A55
102
{ACAD_REACTORS
330
C
102
}
330
C
100
AcDbDictionary
281
     1
  3
DIMARCSYM
350
13A56
  0
DICTIONARY
  5
AB06
102
{ACAD_REACTORS
330
C
102
}
330
C
100
AcDbDictionary
280
     1
281
     1
  0
DICTIONARY
  5
A91D
102
{ACAD_REACTORS
330
C
102
}
330
C
100
AcDbDictionary
281
     1
  0
DICTIONARY
  5
D
102
{ACAD_REACTORS
330
C
102
}
330
C
100
AcDbDictionary
281
     1
  0
DICTIONARY
  5
1A
102
{ACAD_REACTORS
330
C
102
}
330
C
100
AcDbDictionary
281
     1
  3
Model
350
22
  3
ﾚｲｱｳﾄ1
350
1E
  3
ﾚｲｱｳﾄ2
350
26
  0
DICTIONARY
  5
A91C
102
{ACAD_REACTORS
330
C
102
}
330
C
100
AcDbDictionary
281
     1
  3
ByBlock
350
B0EF
  3
ByLayer
350
B0EE
  3
Global
350
B0F0
  0
DICTIONARY
  5
B595
102
{ACAD_REACTORS
330
C
102
}
330
C
100
AcDbDictionary
281
     1
  3
Standard
350
B596
  0
DICTIONARY
  5
17
102
{ACAD_REACTORS
330
C
102
}
330
C
100
AcDbDictionary
281
     1
  3
Standard
350
18
  0
DICTIONARY
  5
19
102
{ACAD_REACTORS
330
C
102
}
330
C
100
AcDbDictionary
281
     1
  0
ACDBDICTIONARYWDFLT
  5
E
102
{ACAD_REACTORS
330
C
102
}
330
C
100
AcDbDictionary
281
     1
  3
Normal
350
F
100
AcDbDictionaryWithDefault
340
F
  0
DICTIONARY
  5
B573
102
{ACAD_REACTORS
330
C
102
}
330
C
100
AcDbDictionary
281
     1
  3
A0
350
B574
  3
A1
350
B575
  3
A2
350
B576
  3
A3
350
B577
  3
A4
350
B578
  3
A5
350
B579
  3
A6
350
B57A
  3
A7
350
B57B
  3
A8
350
B57C
  3
A9
350
B57D
  3
B0
350
B57E
  3
B1
350
B57F
  3
B2
350
B580
  3
B3
350
B581
  3
B4
350
B582
  3
B5
350
B583
  3
B6
350
B584
  3
B7
350
B585
  3
B8
350
B586
  3
B9
350
B587
  3
C0
350
B588
  3
C1
350
B589
  3
C2
350
B58A
  3
C3
350
B58B
  3
C4
350
B58C
  3
C5
350
B58D
  3
C6
350
B58E
  3
C7
350
B58F
  3
C8
350
B590
  3
C9
350
B591
  3
D0
350
B592
  3
D1
350
B593
  3
D2
350
B594
  0
DICTIONARY
  5
AAB9
102
{ACAD_REACTORS
330
C
102
}
330
C
100
AcDbDictionary
281
     1
  3
Standard
350
AABA
  0
DICTIONARY
  5
B0F1
102
{ACAD_REACTORS
330
C
102
}
330
C
100
AcDbDictionary
281
     1
  3
2dWireframe
350
B0F7
  3
3D Hidden
350
B0F9
  3
3dWireframe
350
B0F8
  3
Basic
350
B0F6
  3
Brighten
350
B0FD
  3
ColorChange
350
B101
  3
Conceptual
350
B0FA
  3
Dim
350
B0FC
  3
Facepattern
350
B100
  3
Flat
350
B0F2
  3
FlatWithEdges
350
B0F3
  3
Gouraud
350
B0F4
  3
GouraudWithEdges
350
B0F5
  3
Linepattern
350
B0FF
  3
Realistic
350
B0FB
  3
Thicken
350
B0FE
  0
ACAD_PROXY_OBJECT
  5
3DA1
102
{ACAD_REACTORS
330
C
102
}
330
C
100
AcDbProxyObject
 90
      499
 91
      576
 95
   917527
 70
     0
 93
       10
310
407F
 94
        0
1001
ACAD
1000
AcRTDxfName
1000
ASAPP
1000
AcRTDxfName
1000
ASAPP
1000
AcRTDxfName
1000
ASAPP
  0
ACAD_PROXY_OBJECT
  5
3DE9
102
{ACAD_REACTORS
330
C
102
}
330
C
100
AcDbProxyObject
 90
      499
 91
      581
 95
   917527
 70
     0
 93
       34
310
010000407F
 94
        0
1001
ACAD
1000
AcRTDxfName
1000
ACASGREFMASTER
1000
AcRTDxfName
1000
ACASGREFMASTER
1000
AcRTDxfName
1000
ACASGREFMASTER
  0
XRECORD
  5
B5B7
102
{ACAD_REACTORS
330
C
102
}
330
C
100
AcDbXrecord
280
     1
 90
        1
330
AABA
  0
DICTIONARY
  5
34
102
{ACAD_REACTORS
330
C
102
}
330
C
100
AcDbDictionary
281
     1
  3
CANNOSCALE
350
B5BA
  3
CMLEADERSTYLE
350
B5B8
  3
CTABLESTYLE
350
AAF3
  3
DIMASSOC
350
A10C
  3
FIELDEVAL
350
AB07
  3
INDEXCTL
350
35
  3
LIGHTINGUNITS
350
B5BB
  3
MSLTSCALE
350
B5B9
  3
SORTENTS
350
194C
  0
DICTIONARY
  5
47
102
{ACAD_REACTORS
330
C
102
}
330
C
100
AcDbDictionary
281
     1
  3
AcmBOM
350
7E8
  3
AcmStdDictionary
350
4C
  3
AMDTSECTSYM_ARROWCOLOR
350
A929
  0
ACAD_PROXY_OBJECT
  5
3DEA
102
{ACAD_REACTORS
330
C
102
}
330
C
100
AcDbProxyObject
 90
      499
 91
      582
 95
   917527
 70
     0
 93
      114
310
00000043800000000000000000003F
 94
        0
1001
ACAD
1000
AcRTDxfName
1000
ACADGREFMODULE
1000
AcRTDxfName
1000
ACADGREFMODULE
1000
AcRTDxfName
1000
ACADGREFMODULE
  0
ACAD_PROXY_OBJECT
  5
3E06
102
{ACAD_REACTORS
330
C
102
}
330
C
100
AcDbProxyObject
 90
      499
 91
      594
 95
   917527
 70
     0
 93
       34
310
05000044FF
 94
        0
1001
ACAD
1000
AcRTDxfName
1000
MAPIADMODULE
1000
AcRTDxfName
1000
MAPIADMODULE
1000
AcRTDxfName
1000
MAPIADMODULE
  0
DICTIONARY
  5
2B
102
{ACAD_REACTORS
330
C
102
}
330
C
100
AcDbDictionary
281
     1
  0
DICTIONARY
  5
7D
102
{ACAD_REACTORS
330
C
102
}
330
C
100
AcDbDictionary
281
     1
  0
DICTIONARY
  5
103C5
102
{ACAD_REACTORS
330
C
102
}
330
C
100
AcDbDictionary
281
     1
  3
ASEBlockHierarchyIndexRecord
350
103C6
1001
DCO15
1040
1751282920.375
  0
XRECORD
  5
13A54
102
{ACAD_REACTORS
330
C
102
}
330
C
100
AcDbXrecord
280
     1
  1
DWGPROPS COOKIE
  2

  3

  4

  6

  7

  8
Administrator
  9

300
AmdtFileType=84
301
=
302
=
303
=
304
=
305
=
306
=
307
=
308
=
309
=
 40
0.1217153009259259
 41
2456066.693646007
 42
2456314.561735567
  1

 90
        1
  0
ACAD_PROXY_OBJECT
  5
3DEB
102
{ACAD_REACTORS
330
C
102
}
330
C
100
AcDbProxyObject
 90
      499
 91
      583
 95
   917527
 70
     0
 93
        8
310
047E
 94
        0
1001
ACAD
1000
AcRTDxfName
1000
AMDTMAPISURFMOUDULE
1000
AcRTDxfName
1000
AMDTMAPISURFMOUDULE
1000
AcRTDxfName
1000
AMDTMAPISURFMOUDULE
  0
DICTIONARY
  5
B4F7
102
{ACAD_REACTORS
330
3F95
102
}
330
3F95
100
AcDbDictionary
281
     1
  0
DICTIONARY
  5
3F96
102
{ACAD_REACTORS
330
3F95
102
}
330
3F95
100
AcDbDictionary
281
     1
  3
20011210
350
3FB7
  0
DICTIONARY
  5
B4F6
102
{ACAD_REACTORS
330
3F95
102
}
330
3F95
100
AcDbDictionary
281
     1
1001
ACAD
1000
<All
  0
DICTIONARY
  5
AAB4
102
{ACAD_REACTORS
330
3F95
102
}
330
3F95
100
AcDbDictionary
280
     1
281
     1
  0
XRECORD
  5
132DD
102
{ACAD_REACTORS
330
132DC
102
}
330
132DC
100
AcDbXrecord
280
     1
290
     1
  0
XRECORD
  5
132DF
102
{ACAD_REACTORS
330
132DE
102
}
330
132DE
100
AcDbXrecord
280
     1
290
     1
  0
XRECORD
  5
132E1
102
{ACAD_REACTORS
330
132E0
102
}
330
132E0
100
AcDbXrecord
280
     1
290
     1
  0
XRECORD
  5
132E3
102
{ACAD_REACTORS
330
132E2
102
}
330
132E2
100
AcDbXrecord
280
     1
290
     1
  0
XRECORD
  5
132E5
102
{ACAD_REACTORS
330
132E4
102
}
330
132E4
100
AcDbXrecord
280
     1
290
     1
  0
XRECORD
  5
132EF
102
{ACAD_REACTORS
330
132EE
102
}
330
132EE
100
AcDbXrecord
280
     1
290
     1
  0
XRECORD
  5
132F3
102
{ACAD_REACTORS
330
132F2
102
}
330
132F2
100
AcDbXrecord
280
     1
290
     1
  0
XRECORD
  5
132F5
102
{ACAD_REACTORS
330
132F4
102
}
330
132F4
100
AcDbXrecord
280
     1
290
     1
  0
XRECORD
  5
13305
102
{ACAD_REACTORS
330
13304
102
}
330
13304
100
AcDbXrecord
280
     1
290
     1
  0
XRECORD
  5
13307
102
{ACAD_REACTORS
330
13306
102
}
330
13306
100
AcDbXrecord
280
     1
290
     1
  0
SORTENTSTABLE
  5
B1BA
102
{ACAD_REACTORS
330
8A
102
}
330
8A
100
AcDbSortentsTable
330
1F
331
10DD1
  5
B849
331
12C60
  5
12C99
331
12D8C
  5
12D9F
331
12DC3
  5
12DD6
331
12CEE
  5
12D17
331
12D3D
  5
12D55
331
12E02
  5
12E15
331
12D45
  5
12D74
331
12D94
  5
12DA7
331
12CAF
  5
12CCE
331
12CF6
  5
12D3B
331
12DCB
  5
12DDE
331
12C70
  5
12C9B
331
12E12
  5
12E25
331
12C78
  5
12CA1
331
12D9C
  5
12DAF
331
12DD3
  5
12DE6
331
12DDB
  5
12DEE
331
12E1A
  5
12E2D
331
12D55
  5
12D7F
331
12CBF
  5
12CEE
331
12DA4
  5
12DB7
331
12E56
  5
1319E
331
12E3F
  5
12E52
331
12E47
  5
12F2C
331
12E4F
  5
13197
331
13726
  5
13723
331
13197
  5
12C1B
331
12DAC
  5
12DBF
331
12DE3
  5
12DF6
331
12CC7
  5
12CF6
331
12D0E
  5
12D45
331
12D5D
  5
12D85
331
12E22
  5
12E35
331
12E2A
  5
12E3D
331
12DB4
  5
12DC7
331
12DEB
  5
12DFE
331
12CCF
  5
12D01
331
12C41
  5
12C7B
331
12C98
  5
12CBA
331
12D75
  5
12D88
331
12E32
  5
12E45
331
12D7D
  5
12D90
331
12DBC
  5
12DCF
331
12D1E
  5
12D52
331
12DF3
  5
12E06
331
12DFB
  5
12E0E
331
12D85
  5
12D98
331
12FC3
  5
131A6
331
12EA6
  5
131A0
331
1319F
  5
12C3F
331
1326F
  5
1326F
331
13277
  5
136CA
331
12CA0
  5
12CC2
331
10DD2
  5
B84A
331
12DC4
  5
12DD7
331
12E03
  5
12E16
331
12D3E
  5
12D58
331
12D8D
  5
12DA0
331
12CEF
  5
12D18
331
12DCC
  5
12DDF
331
12E0B
  5
12E1E
331
12CF7
  5
12D3C
331
12C71
  5
12C9C
331
12D46
  5
12D75
331
12D95
  5
12DA8
331
12D9D
  5
12DB0
331
12DD4
  5
12DE7
331
12C1A
  5
12C5F
331
12C79
  5
12CA2
331
12E13
  5
12E26
331
12E1B
  5
12E2E
331
12DA5
  5
12DB8
331
12DDC
  5
12DEF
331
12F2C
  5
131A2
331
12E38
  5
12E4B
331
12E40
  5
12E53
331
12E48
  5
12F5D
331
1371F
  5
13724
331
12CC0
  5
12CEF
331
12E23
  5
12E36
331
12D5E
  5
12D86
331
12DAD
  5
12DC0
331
12DE4
  5
12DF7
331
12DEC
  5
12DFF
331
12E2B
  5
12E3E
331
12D17
  5
12D46
331
12C42
  5
12C7C
331
12C99
  5
12CBB
331
12D76
  5
12D89
331
12DB5
  5
12DC8
331
12DBD
  5
12DD0
331
12DF4
  5
12E07
331
12D7E
  5
12D91
331
12E33
  5
12E46
331
12DFC
  5
12E0F
331
12D86
  5
12D99
331
12FA4
  5
131A5
331
12E87
  5
1319F
331
13198
  5
12C1C
331
12ED7
  5
131A1
331
131A0
  5
12C40
331
13270
  5
13270
331
10DD3
  5
B84B
331
12CA1
  5
12CC3
331
12D8E
  5
12DA1
331
12DC5
  5
12DD8
331
12CF0
  5
12D19
331
12D3F
  5
12D59
331
12E04
  5
12E17
331
12E0C
  5
12E1F
331
12D47
  5
12D76
331
12D96
  5
12DA9
331
12CF8
  5
12D3D
331
12DCD
  5
12DE0
331
12DD5
  5
12DE8
331
12E14
  5
12E27
331
12D9E
  5
12DB1
331
12C1B
  5
12C60
331
12DDD
  5
12DF0
331
12E1C
  5
12E2F
331
12DA6
  5
12DB9
331
12F5D
  5
131A3
331
12E39
  5
12E4C
331
12F85
  5
131A4
331
12E50
  5
13198
331
12E41
  5
12E54
331
12E49
  5
12F85
331
13720
  5
13725
331
12D08
  5
12D42
331
12CC1
  5
12CF0
331
12DAE
  5
12DC1
331
12DE5
  5
12DF8
331
12E24
  5
12E37
331
12E2C
  5
12E3F
331
12D77
  5
12D8A
331
12DB6
  5
12DC9
331
12D18
  5
12D47
331
12DED
  5
12E00
331
12C43
  5
12C7F
331
12C9A
  5
12CBC
331
12E34
  5
12E47
331
12D7F
  5
12D92
331
12DBE
  5
12DD1
331
12DF5
  5
12E08
331
12DFD
  5
12E10
331
12D87
  5
12D9A
331
13199
  5
12C1D
331
131A1
  5
12C41
331
13271
  5
13271
331
12CA2
  5
12CC4
331
10DD4
  5
B84C
331
12DC6
  5
12DD9
331
12E05
  5
12E18
331
12CF1
  5
12D1A
331
12D40
  5
12D5A
331
12CAA
  5
12CC7
331
12D8F
  5
12DA2
331
10DDC
  5
B854
331
12DCE
  5
12DE1
331
12E0D
  5
12E20
331
12CF9
  5
12D3E
331
12D48
  5
12D77
331
12CB2
  5
12CCF
331
12D97
  5
12DAA
331
12D9F
  5
12DB2
331
12DD6
  5
12DE9
331
12CBA
  5
12CD3
331
12C1C
  5
12C6D
331
12C7B
  5
12CA3
331
12D50
  5
12D7A
331
12E15
  5
12E28
331
12E1D
  5
12E30
331
12DA7
  5
12DBA
331
12DDE
  5
12DF1
331
12E3A
  5
12E4D
331
12E51
  5
13199
331
12E42
  5
12E55
331
12E4A
  5
12FA4
331
12D58
  5
12D80
331
12CC2
  5
12CF1
331
12DE6
  5
12DF9
331
12E25
  5
12E38
331
12CCA
  5
12CF7
331
12DAF
  5
12DC2
331
12DEE
  5
12E01
331
12E2D
  5
12E40
331
12D19
  5
12D48
331
12D78
  5
12D8B
331
12C44
  5
12C8E
331
12C9B
  5
12CBD
331
12CD2
  5
12D02
331
12DB7
  5
12DCA
331
12DBF
  5
12DD2
331
12DF6
  5
12E09
331
12D80
  5
12D93
331
12E35
  5
12E48
331
12DFE
  5
12E11
331
1306E
  5
131A7
331
1319A
  5
12C1E
331
131A2
  5
12C42
331
13272
  5
13272
331
12D88
  5
12D9B
331
12CA3
  5
12CC5
331
12D90
  5
12DA3
331
12DC7
  5
12DDA
331
10DDD
  5
B855
331
12CF2
  5
12D1B
331
12D41
  5
12D5B
331
12E06
  5
12E19
331
12E0E
  5
12E21
331
12D49
  5
12D78
331
12C74
  5
12C9D
331
12CB3
  5
12CD2
331
12D98
  5
12DAB
331
12DCF
  5
12DE2
331
12DD7
  5
12DEA
331
12E16
  5
12E29
331
12D02
  5
12D40
331
12D51
  5
12D7B
331
12C7C
  5
12CA5
331
12CBB
  5
12CD4
331
12DA0
  5
12DB3
331
12C1D
  5
12C70
331
12DDF
  5
12DF2
331
12E1E
  5
12E31
331
136CA
  5
1371C
331
12E52
  5
1319A
331
12E3B
  5
12E4E
331
12E43
  5
12E56
331
12E4B
  5
12FC3
331
13722
  5
13726
331
12D0A
  5
12D43
331
12D59
  5
12D81
331
12C35
  5
12C74
331
12CC3
  5
12CF2
331
12DA8
  5
12DBB
331
12DB0
  5
12DC3
331
12DE7
  5
12DFA
331
12C3D
  5
12C76
331
12C94
  5
12CAE
331
12E26
  5
12E39
331
12E2E
  5
12E41
331
12D79
  5
12D8C
331
12DB8
  5
12DCB
331
12C9C
  5
12CBE
331
12CD3
  5
12D03
331
12C45
  5
12C94
331
12D1A
  5
12D49
331
12DEF
  5
12E02
331
12DF7
  5
12E0A
331
12D81
  5
12D94
331
12E36
  5
12E49
331
12CE3
  5
12D0A
331
12C5D
  5
12C96
331
12DFF
  5
12E12
331
1309F
  5
131A8
331
1319B
  5
12C35
331
131A3
  5
12C43
331
13273
  5
13273
331
12D89
  5
12D9C
331
12DC0
  5
12DD3
331
12DC8
  5
12DDB
331
12E07
  5
12E1A
331
12CF3
  5
12D1C
331
12D42
  5
12D5C
331
10DDE
  5
B856
331
12C6D
  5
12C9A
331
12CAC
  5
12CCA
331
12D91
  5
12DA4
331
12D99
  5
12DAC
331
12DD0
  5
12DE3
331
12C75
  5
12C9E
331
12D4A
  5
12D79
331
12E0F
  5
12E22
331
12DA1
  5
12DB4
331
12DD8
  5
12DEB
331
12CBC
  5
12CE3
331
12C1E
  5
12C71
331
12D03
  5
12D41
331
12D52
  5
12D7C
331
12E17
  5
12E2A
331
12E1F
  5
12E32
331
12E3C
  5
12E4F
331
12E53
  5
1319B
331
136CB
  5
1371D
331
12E44
  5
12E87
331
12E4C
  5
1306E
331
12D5A
  5
12D82
331
12CC4
  5
12CF3
331
12DA9
  5
12DBC
331
12C36
  5
12C75
331
12DE0
  5
12DF3
331
12DE8
  5
12DFB
331
12E27
  5
12E3A
331
12C95
  5
12CAF
331
12DB1
  5
12DC4
331
12C3E
  5
12C77
331
12DF0
  5
12E03
331
12E2F
  5
12E42
331
12D1B
  5
12D4A
331
12D7A
  5
12D8D
331
12C46
  5
12C95
331
12C9D
  5
12CBF
331
12CD4
  5
12D08
331
12DB9
  5
12DCC
331
12DF8
  5
12E0B
331
12CE4
  5
12D0C
331
12C5E
  5
12C97
331
12D82
  5
12D95
331
12E37
  5
12E4A
331
1319C
  5
12C36
331
131A4
  5
12C44
331
13274
  5
13274
331
12D8A
  5
12D9D
331
12DC1
  5
12DD4
331
12CA5
  5
12CC6
331
12D3B
  5
12D53
331
12E00
  5
12E13
331
12E08
  5
12E1B
331
12D92
  5
12DA5
331
10DDF
  5
B857
331
12CF4
  5
12D1D
331
12DC9
  5
12DDC
331
12E10
  5
12E23
331
12C76
  5
12C9F
331
12D9A
  5
12DAD
331
12DD1
  5
12DE4
331
12DD9
  5
12DEC
331
12E18
  5
12E2B
331
12D53
  5
12D7D
331
12CBD
  5
12CE4
331
12DA2
  5
12DB5
331
12E54
  5
1319C
331
12E3D
  5
12E50
331
12E45
  5
12EA6
331
1371C
  5
1371F
331
12E4D
  5
1309F
331
13724
  5
136CB
331
12DAA
  5
12DBD
331
12DE1
  5
12DF4
331
12D0C
  5
12D44
331
12D5B
  5
12D83
331
12E20
  5
12E33
331
12C8E
  5
12CAC
331
12CC5
  5
12CF4
331
12CCD
  5
12CF8
331
12DB2
  5
12DC5
331
12DE9
  5
12DFC
331
12C3F
  5
12C78
331
12C96
  5
12CB2
331
12E28
  5
12E3B
331
12E30
  5
12E43
331
12D7B
  5
12D8E
331
12DBA
  5
12DCD
331
12C9E
  5
12CC0
331
12D1C
  5
12D50
331
12DF1
  5
12E04
331
12DF9
  5
12E0C
331
12D83
  5
12D96
331
12C5F
  5
12C98
331
1319D
  5
12C3D
331
131A5
  5
12C45
331
13275
  5
13275
331
12E01
  5
12E14
331
12D3C
  5
12D54
331
12D8B
  5
12D9E
331
12DC2
  5
12DD5
331
12DCA
  5
12DDD
331
12E09
  5
12E1C
331
12CF5
  5
12D1E
331
12D44
  5
12D5E
331
12CAE
  5
12CCD
331
12D93
  5
12DA6
331
12D9B
  5
12DAE
331
12DD2
  5
12DE5
331
12C77
  5
12CA0
331
12E11
  5
12E24
331
12E19
  5
12E2C
331
12DA3
  5
12DB6
331
12DDA
  5
12DED
331
12CBE
  5
12CE6
331
12C7F
  5
12CAA
331
12D54
  5
12D7E
331
12E3E
  5
12E51
331
12E55
  5
1319D
331
12E46
  5
12ED7
331
1371D
  5
13720
331
13725
  5
13277
331
12E4E
  5
13196
331
13196
  5
12C1A
331
12E21
  5
12E34
331
12D5C
  5
12D84
331
12CC6
  5
12CF5
331
12DAB
  5
12DBE
331
12DE2
  5
12DF5
331
12DEA
  5
12DFD
331
12E29
  5
12E3C
331
12D74
  5
12D87
331
12C40
  5
12C79
331
12C97
  5
12CB3
331
12CCE
  5
12CF9
331
12DB3
  5
12DC6
331
12DBB
  5
12DCE
331
12DF2
  5
12E05
331
12D1D
  5
12D51
331
12C9F
  5
12CC1
331
12D7C
  5
12D8F
331
12E31
  5
12E44
331
12DFA
  5
12E0D
331
12CE6
  5
12D0E
331
12D84
  5
12D97
331
1319E
  5
12C3E
  0
XRECORD
  5
13A56
102
{ACAD_REACTORS
330
13A55
102
}
330
13A55
100
AcDbXrecord
280
     1
 70
     1
  0
LAYOUT
  5
22
102
{ACAD_XDICTIONARY
360
13A59
102
}
102
{ACAD_REACTORS
330
1A
102
}
330
1A
100
AcDbPlotSettings
  1

  2
Adobe PDF
  4
A3
  6
AM_VIEW1
 40
3.174999952316282
 41
3.174999952316282
 42
3.17498779296875
 43
3.17498779296875
 44
297.0318298339844
 45
420.1583251953125
 46
-3.159078955650328
 47
-3.095831274986267
 48
0.0000000000000551
 49
0.0
140
840.0
141
594.0
142
1.0
143
2.0
 70
  3748
 72
     1
 73
     1
 74
     4
  7
monochrome.ctb
 75
     0
147
0.4835193903759273
148
-0.0000000000000551
149
0.0
100
AcDbLayout
  1
Model
 70
     1
 71
     0
 10
0.0
 20
0.0
 11
12.0
 21
9.0
 12
0.0
 22
0.0
 32
0.0
 14
0.0
 24
0.0
 34
0.0
 15
0.0
 25
0.0
 35
0.0
146
0.0
 13
0.0
 23
0.0
 33
0.0
 16
1.0
 26
0.0
 36
0.0
 17
0.0
 27
1.0
 37
0.0
 76
     0
330
1F
331
B0EC
1001
ACAD_PSEXT
1000
Adobe PDF
1000
Adobe PDF Converter
1000
My Documents\*.pdf
1000

1070
     0
  0
LAYOUT
  5
1E
102
{ACAD_XDICTIONARY
360
13A57
102
}
102
{ACAD_REACTORS
330
1A
102
}
330
1A
100
AcDbPlotSettings
  1

  2
\\ML370\XEROX
  4
A4
  6

 40
3.174999952316282
 41
3.174999952316282
 42
3.175003051757812
 43
3.17498779296875
 44
209.8674926757813
 45
296.6719970703125
 46
0.0
 47
0.0
 48
0.0
 49
0.0
140
0.0
141
0.0
142
1.0
143
1.0
 70
   688
 72
     1
 73
     1
 74
     5
  7
monochrome.ctb
 75
    16
147
1.0
148
0.0
149
0.0
100
AcDbLayout
  1
ﾚｲｱｳﾄ1
 70
     1
 71
     1
 10
-3.17498779296875
 20
-3.174999952316282
 11
293.4970092773438
 21
206.692492723465
 12
0.0
 22
0.0
 32
0.0
 14
1.000000000000000E+20
 24
1.000000000000000E+20
 34
1.000000000000000E+20
 15
-1.000000000000000E+20
 25
-1.000000000000000E+20
 35
-1.000000000000000E+20
146
0.0
 13
0.0
 23
0.0
 33
0.0
 16
1.0
 26
0.0
 36
0.0
 17
0.0
 27
1.0
 37
0.0
 76
     0
330
1B
  0
LAYOUT
  5
26
102
{ACAD_XDICTIONARY
360
13A5B
102
}
102
{ACAD_REACTORS
330
1A
102
}
330
1A
100
AcDbPlotSettings
  1

  2
\\ML370\XEROX
  4

  6

 40
0.0
 41
0.0
 42
0.0
 43
0.0
 44
0.0
 45
0.0
 46
0.0
 47
0.0
 48
0.0
 49
0.0
140
0.0
141
0.0
142
1.0
143
1.0
 70
   688
 72
     0
 73
     0
 74
     5
  7
monochrome.ctb
 75
    16
147
1.0
148
0.0
149
0.0
100
AcDbLayout
  1
ﾚｲｱｳﾄ2
 70
     1
 71
     2
 10
0.0
 20
0.0
 11
12.0
 21
9.0
 12
0.0
 22
0.0
 32
0.0
 14
0.0
 24
0.0
 34
0.0
 15
0.0
 25
0.0
 35
0.0
146
0.0
 13
0.0
 23
0.0
 33
0.0
 16
1.0
 26
0.0
 36
0.0
 17
0.0
 27
1.0
 37
0.0
 76
     0
330
23
  0
MATERIAL
  5
B0EF
102
{ACAD_XDICTIONARY
360
1373F
102
}
102
{ACAD_REACTORS
330
A91C
102
}
330
A91C
100
AcDbMaterial
  1
ByBlock
  0
MATERIAL
  5
B0EE
102
{ACAD_XDICTIONARY
360
1373D
102
}
102
{ACAD_REACTORS
330
A91C
102
}
330
A91C
100
AcDbMaterial
  1
ByLayer
  0
MATERIAL
  5
B0F0
102
{ACAD_XDICTIONARY
360
13741
102
}
102
{ACAD_REACTORS
330
A91C
102
}
330
A91C
100
AcDbMaterial
  1
Global
  0
MLEADERSTYLE
  5
B596
102
{ACAD_REACTORS
330
B595
102
}
330
B595
100
AcDbMLeaderStyle
170
     2
171
     1
172
     0
 90
        2
 40
0.0
 41
0.0
173
     1
 91
-1056964608
340
14
 92
       -2
290
     1
 42
2.0
291
     1
 43
0.36
  3
Standard
 44
4.0
300

342
11
174
     1
178
     6
175
     1
176
     0
 93
-1056964608
 45
4.0
292
     0
297
     0
 46
4.0
 94
-1056964608
 47
1.0
 49
1.0
140
1.0
293
     1
141
0.0
294
     1
177
     0
142
1.0
295
     0
296
     0
143
0.125
1001
ACAD_MLEADERVER
1070
     2
1001
ACAD
1001
ACAD
1000
AcRTDxfName
1000
MLEADERSTYLE
  0
MLINESTYLE
  5
18
102
{ACAD_REACTORS
330
17
102
}
330
17
100
AcDbMlineStyle
  2
STANDARD
 70
     0
  3

 62
   256
 51
90.0
 52
90.0
 71
     2
 49
0.5
 62
   256
  6
BYLAYER
 49
-0.5
 62
   256
  6
BYLAYER
  0
ACDBPLACEHOLDER
  5
F
102
{ACAD_REACTORS
330
E
102
}
330
E
  0
SCALE
  5
B574
102
{ACAD_REACTORS
330
B573
102
}
330
B573
100
AcDbScale
 70
     0
300
1:1
140
1.0
141
1.0
290
     1
1001
ACAD
1001
ACAD
1000
AcRTDxfName
1000
SCALE
  0
SCALE
  5
B575
102
{ACAD_REACTORS
330
B573
102
}
330
B573
100
AcDbScale
 70
     0
300
1:2
140
1.0
141
2.0
290
     0
1001
ACAD
1001
ACAD
1000
AcRTDxfName
1000
SCALE
  0
SCALE
  5
B576
102
{ACAD_REACTORS
330
B573
102
}
330
B573
100
AcDbScale
 70
     0
300
1:4
140
1.0
141
4.0
290
     0
1001
ACAD
1001
ACAD
1000
AcRTDxfName
1000
SCALE
  0
SCALE
  5
B577
102
{ACAD_REACTORS
330
B573
102
}
330
B573
100
AcDbScale
 70
     0
300
1:5
140
1.0
141
5.0
290
     0
1001
ACAD
1001
ACAD
1000
AcRTDxfName
1000
SCALE
  0
SCALE
  5
B578
102
{ACAD_REACTORS
330
B573
102
}
330
B573
100
AcDbScale
 70
     0
300
1:8
140
1.0
141
8.0
290
     0
1001
ACAD
1001
ACAD
1000
AcRTDxfName
1000
SCALE
  0
SCALE
  5
B579
102
{ACAD_REACTORS
330
B573
102
}
330
B573
100
AcDbScale
 70
     0
300
1:10
140
1.0
141
10.0
290
     0
1001
ACAD
1001
ACAD
1000
AcRTDxfName
1000
SCALE
  0
SCALE
  5
B57A
102
{ACAD_REACTORS
330
B573
102
}
330
B573
100
AcDbScale
 70
     0
300
1:16
140
1.0
141
16.0
290
     0
1001
ACAD
1001
ACAD
1000
AcRTDxfName
1000
SCALE
  0
SCALE
  5
B57B
102
{ACAD_REACTORS
330
B573
102
}
330
B573
100
AcDbScale
 70
     0
300
1:20
140
1.0
141
20.0
290
     0
1001
ACAD
1001
ACAD
1000
AcRTDxfName
1000
SCALE
  0
SCALE
  5
B57C
102
{ACAD_REACTORS
330
B573
102
}
330
B573
100
AcDbScale
 70
     0
300
1:30
140
1.0
141
30.0
290
     0
1001
ACAD
1001
ACAD
1000
AcRTDxfName
1000
SCALE
  0
SCALE
  5
B57D
102
{ACAD_REACTORS
330
B573
102
}
330
B573
100
AcDbScale
 70
     0
300
1:40
140
1.0
141
40.0
290
     0
1001
ACAD
1001
ACAD
1000
AcRTDxfName
1000
SCALE
  0
SCALE
  5
B57E
102
{ACAD_REACTORS
330
B573
102
}
330
B573
100
AcDbScale
 70
     0
300
1:50
140
1.0
141
50.0
290
     0
1001
ACAD
1001
ACAD
1000
AcRTDxfName
1000
SCALE
  0
SCALE
  5
B57F
102
{ACAD_REACTORS
330
B573
102
}
330
B573
100
AcDbScale
 70
     0
300
1:100
140
1.0
141
100.0
290
     0
1001
ACAD
1001
ACAD
1000
AcRTDxfName
1000
SCALE
  0
SCALE
  5
B580
102
{ACAD_REACTORS
330
B573
102
}
330
B573
100
AcDbScale
 70
     0
300
2:1
140
2.0
141
1.0
290
     0
1001
ACAD
1001
ACAD
1000
AcRTDxfName
1000
SCALE
  0
SCALE
  5
B581
102
{ACAD_REACTORS
330
B573
102
}
330
B573
100
AcDbScale
 70
     0
300
4:1
140
4.0
141
1.0
290
     0
1001
ACAD
1001
ACAD
1000
AcRTDxfName
1000
SCALE
  0
SCALE
  5
B582
102
{ACAD_REACTORS
330
B573
102
}
330
B573
100
AcDbScale
 70
     0
300
8:1
140
8.0
141
1.0
290
     0
1001
ACAD
1001
ACAD
1000
AcRTDxfName
1000
SCALE
  0
SCALE
  5
B583
102
{ACAD_REACTORS
330
B573
102
}
330
B573
100
AcDbScale
 70
     0
300
10:1
140
10.0
141
1.0
290
     0
1001
ACAD
1001
ACAD
1000
AcRTDxfName
1000
SCALE
  0
SCALE
  5
B584
102
{ACAD_REACTORS
330
B573
102
}
330
B573
100
AcDbScale
 70
     0
300
100:1
140
100.0
141
1.0
290
     0
1001
ACAD
1001
ACAD
1000
AcRTDxfName
1000
SCALE
  0
SCALE
  5
B585
102
{ACAD_REACTORS
330
B573
102
}
330
B573
100
AcDbScale
 70
     0
300
1/128" = 1'-0"
140
0.0078125
141
12.0
290
     0
1001
ACAD
1001
ACAD
1000
AcRTDxfName
1000
SCALE
  0
SCALE
  5
B586
102
{ACAD_REACTORS
330
B573
102
}
330
B573
100
AcDbScale
 70
     0
300
1/64" = 1'-0"
140
0.015625
141
12.0
290
     0
1001
ACAD
1001
ACAD
1000
AcRTDxfName
1000
SCALE
  0
SCALE
  5
B587
102
{ACAD_REACTORS
330
B573
102
}
330
B573
100
AcDbScale
 70
     0
300
1/32" = 1'-0"
140
0.03125
141
12.0
290
     0
1001
ACAD
1001
ACAD
1000
AcRTDxfName
1000
SCALE
  0
SCALE
  5
B588
102
{ACAD_REACTORS
330
B573
102
}
330
B573
100
AcDbScale
 70
     0
300
1/16" = 1'-0"
140
0.0625
141
12.0
290
     0
1001
ACAD
1001
ACAD
1000
AcRTDxfName
1000
SCALE
  0
SCALE
  5
B589
102
{ACAD_REACTORS
330
B573
102
}
330
B573
100
AcDbScale
 70
     0
300
3/32" = 1'-0"
140
0.09375
141
12.0
290
     0
1001
ACAD
1001
ACAD
1000
AcRTDxfName
1000
SCALE
  0
SCALE
  5
B58A
102
{ACAD_REACTORS
330
B573
102
}
330
B573
100
AcDbScale
 70
     0
300
1/8" = 1'-0"
140
0.125
141
12.0
290
     0
1001
ACAD
1001
ACAD
1000
AcRTDxfName
1000
SCALE
  0
SCALE
  5
B58B
102
{ACAD_REACTORS
330
B573
102
}
330
B573
100
AcDbScale
 70
     0
300
3/16" = 1'-0"
140
0.1875
141
12.0
290
     0
1001
ACAD
1001
ACAD
1000
AcRTDxfName
1000
SCALE
  0
SCALE
  5
B58C
102
{ACAD_REACTORS
330
B573
102
}
330
B573
100
AcDbScale
 70
     0
300
1/4" = 1'-0"
140
0.25
141
12.0
290
     0
1001
ACAD
1001
ACAD
1000
AcRTDxfName
1000
SCALE
  0
SCALE
  5
B58D
102
{ACAD_REACTORS
330
B573
102
}
330
B573
100
AcDbScale
 70
     0
300
3/8" = 1'-0"
140
0.375
141
12.0
290
     0
1001
ACAD
1001
ACAD
1000
AcRTDxfName
1000
SCALE
  0
SCALE
  5
B58E
102
{ACAD_REACTORS
330
B573
102
}
330
B573
100
AcDbScale
 70
     0
300
1/2" = 1'-0"
140
0.5
141
12.0
290
     0
1001
ACAD
1001
ACAD
1000
AcRTDxfName
1000
SCALE
  0
SCALE
  5
B58F
102
{ACAD_REACTORS
330
B573
102
}
330
B573
100
AcDbScale
 70
     0
300
3/4" = 1'-0"
140
0.75
141
12.0
290
     0
1001
ACAD
1001
ACAD
1000
AcRTDxfName
1000
SCALE
  0
SCALE
  5
B590
102
{ACAD_REACTORS
330
B573
102
}
330
B573
100
AcDbScale
 70
     0
300
1" = 1'-0"
140
1.0
141
12.0
290
     0
1001
ACAD
1001
ACAD
1000
AcRTDxfName
1000
SCALE
  0
SCALE
  5
B591
102
{ACAD_REACTORS
330
B573
102
}
330
B573
100
AcDbScale
 70
     0
300
1-1/2" = 1'-0"
140
1.5
141
12.0
290
     0
1001
ACAD
1001
ACAD
1000
AcRTDxfName
1000
SCALE
  0
SCALE
  5
B592
102
{ACAD_REACTORS
330
B573
102
}
330
B573
100
AcDbScale
 70
     0
300
3" = 1'-0"
140
3.0
141
12.0
290
     0
1001
ACAD
1001
ACAD
1000
AcRTDxfName
1000
SCALE
  0
SCALE
  5
B593
102
{ACAD_REACTORS
330
B573
102
}
330
B573
100
AcDbScale
 70
     0
300
6" = 1'-0"
140
6.0
141
12.0
290
     0
1001
ACAD
1001
ACAD
1000
AcRTDxfName
1000
SCALE
  0
SCALE
  5
B594
102
{ACAD_REACTORS
330
B573
102
}
330
B573
100
AcDbScale
 70
     0
300
1'-0" = 1'-0"
140
12.0
141
12.0
290
     0
1001
ACAD
1001
ACAD
1000
AcRTDxfName
1000
SCALE
  0
TABLESTYLE
  5
AABA
102
{ACAD_XDICTIONARY
360
B5B5
102
}
102
{ACAD_REACTORS
330
AAB9
102
}
330
AAB9
100
AcDbTableStyle
  3
Standard
 70
     0
 71
     0
 40
1.5
 41
1.5
280
     0
281
     0
  7
STANDARD
140
4.5
170
     2
 62
     0
 63
     7
283
     0
274
    -2
284
     1
 64
     0
275
    -2
285
     1
 65
     0
276
    -2
286
     1
 66
     0
277
    -2
287
     1
 67
     0
278
    -2
288
     1
 68
     0
279
    -2
289
     1
 69
     0
  7
STANDARD
140
6.0
170
     5
 62
     0
 63
     7
283
     0
274
    -2
284
     1
 64
     0
275
    -2
285
     1
 65
     0
276
    -2
286
     1
 66
     0
277
    -2
287
     1
 67
     0
278
    -2
288
     1
 68
     0
279
    -2
289
     1
 69
     0
  7
STANDARD
140
4.5
170
     5
 62
     0
 63
     7
283
     0
274
    -2
284
     1
 64
     0
275
    -2
285
     1
 65
     0
276
    -2
286
     1
 66
     0
277
    -2
287
     1
 67
     0
278
    -2
288
     1
 68
     0
279
    -2
289
     1
 69
     0
  0
VISUALSTYLE
  5
B0F7
102
{ACAD_REACTORS
330
B0F1
102
}
330
B0F1
100
AcDbVisualStyle
  2
2dWireframe
 70
     4
 71
     0
 72
     2
 73
     0
 90
        0
 40
-0.6
 41
-30.0
 62
     5
 63
     7
 74
     1
 91
        4
 64
     7
 65
   257
 75
     1
175
     1
 42
1.0
 92
        0
 66
   257
 43
1.0
 76
     1
 77
     6
 78
     2
 67
     7
 79
     5
170
     0
171
     0
290
     0
174
     0
 93
        1
 44
0.0
173
     0
291
     0
 45
0.0
1001
ACAD
1000
AcDbSavedByObjectVersion
1070
     0
1000
AcDbSavedByObjectVersion
1070
     0
  0
VISUALSTYLE
  5
B0F9
102
{ACAD_REACTORS
330
B0F1
102
}
330
B0F1
100
AcDbVisualStyle
  2
3D Hidden
 70
     6
 71
     1
 72
     2
 73
     2
 90
        0
 40
-0.6
 41
-30.0
 62
     5
 63
     7
 74
     2
 91
        2
 64
     7
 65
   257
 75
     2
175
     1
 42
40.0
 92
        0
 66
   257
 43
1.0
 76
     1
 77
     6
 78
     2
 67
     7
 79
     3
170
     0
171
     0
290
     0
174
     0
 93
        1
 44
0.0
173
     0
291
     0
 45
0.0
1001
ACAD
1000
AcDbSavedByObjectVersion
1070
     0
1000
AcDbSavedByObjectVersion
1070
     0
  0
VISUALSTYLE
  5
B0F8
102
{ACAD_REACTORS
330
B0F1
102
}
330
B0F1
100
AcDbVisualStyle
  2
3dWireframe
 70
     5
 71
     0
 72
     2
 73
     0
 90
        0
 40
-0.6
 41
-30.0
 62
     5
 63
     7
 74
     1
 91
        4
 64
     7
 65
   257
 75
     1
175
     1
 42
1.0
 92
        0
 66
   257
 43
1.0
 76
     1
 77
     6
 78
     2
 67
     7
 79
     5
170
     0
171
     0
290
     0
174
     0
 93
        1
 44
0.0
173
     0
291
     0
 45
0.0
1001
ACAD
1000
AcDbSavedByObjectVersion
1070
     0
1000
AcDbSavedByObjectVersion
1070
     0
  0
VISUALSTYLE
  5
B0F6
102
{ACAD_REACTORS
330
B0F1
102
}
330
B0F1
100
AcDbVisualStyle
  2
Basic
 70
     7
 71
     1
 72
     0
 73
     1
 90
        0
 40
-0.6
 41
-30.0
 62
     5
 63
     7
 74
     0
 91
        4
 64
     7
 65
   257
 75
     1
175
     1
 42
1.0
 92
        8
 66
     7
 43
1.0
 76
     1
 77
     6
 78
     2
 67
     7
 79
     5
170
     0
171
     0
290
     0
174
     0
 93
        1
 44
0.0
173
     0
291
     1
 45
0.0
1001
ACAD
1000
AcDbSavedByObjectVersion
1070
     0
1000
AcDbSavedByObjectVersion
1070
     0
  0
VISUALSTYLE
  5
B0FD
102
{ACAD_REACTORS
330
B0F1
102
}
330
B0F1
100
AcDbVisualStyle
  2
Brighten
 70
    12
 71
     2
 72
     2
 73
     0
 90
        0
 40
-0.6
 41
-30.0
 62
     5
 63
     7
 74
     1
 91
        4
 64
     7
 65
   257
 75
     1
175
     1
 42
1.0
 92
        8
 66
     7
 43
1.0
 76
     1
 77
     6
 78
     2
 67
     7
 79
     5
170
     0
171
     0
290
     0
174
     0
 93
        1
 44
50.0
173
     0
291
     1
 45
0.0
1001
ACAD
1000
AcDbSavedByObjectVersion
1070
     0
1000
AcDbSavedByObjectVersion
1070
     0
  0
VISUALSTYLE
  5
B101
102
{ACAD_REACTORS
330
B0F1
102
}
330
B0F1
100
AcDbVisualStyle
  2
ColorChange
 70
    16
 71
     2
 72
     2
 73
     3
 90
        0
 40
-0.6
 41
-30.0
 62
     5
 63
     8
 74
     1
 91
        4
 64
     7
 65
   257
 75
     1
175
     1
 42
1.0
 92
        8
 66
     8
 43
1.0
 76
     1
 77
     6
 78
     2
 67
     7
 79
     5
170
     0
171
     0
290
     0
174
     0
 93
        1
 44
0.0
173
     0
291
     1
 45
0.0
1001
ACAD
1000
AcDbSavedByObjectVersion
1070
     0
1000
AcDbSavedByObjectVersion
1070
     0
  0
VISUALSTYLE
  5
B0FA
102
{ACAD_REACTORS
330
B0F1
102
}
330
B0F1
100
AcDbVisualStyle
  2
Conceptual
 70
     9
 71
     3
 72
     2
 73
     0
 90
        0
 40
-0.6
 41
-30.0
 62
     5
 63
     7
 74
     2
 91
        2
 64
     7
 65
   257
 75
     1
175
     1
 42
40.0
 92
        8
 66
     7
 43
1.0
 76
     1
 77
     6
 78
     2
 67
     7
 79
     3
170
     0
171
     0
290
     0
174
     0
 93
        1
 44
0.0
173
     0
291
     0
 45
0.0
1001
ACAD
1000
AcDbSavedByObjectVersion
1070
     0
1000
AcDbSavedByObjectVersion
1070
     0
  0
VISUALSTYLE
  5
B0FC
102
{ACAD_REACTORS
330
B0F1
102
}
330
B0F1
100
AcDbVisualStyle
  2
Dim
 70
    11
 71
     2
 72
     2
 73
     0
 90
        0
 40
-0.6
 41
-30.0
 62
     5
 63
     7
 74
     1
 91
        4
 64
     7
 65
   257
 75
     1
175
     1
 42
1.0
 92
        8
 66
     7
 43
1.0
 76
     1
 77
     6
 78
     2
 67
     7
 79
     5
170
     0
171
     0
290
     0
174
     0
 93
        1
 44
-50.0
173
     0
291
     1
 45
0.0
1001
ACAD
1000
AcDbSavedByObjectVersion
1070
     0
1000
AcDbSavedByObjectVersion
1070
     0
  0
VISUALSTYLE
  5
B100
102
{ACAD_REACTORS
330
B0F1
102
}
330
B0F1
100
AcDbVisualStyle
  2
Facepattern
 70
    15
 71
     2
 72
     2
 73
     0
 90
        0
 40
-0.6
 41
-30.0
 62
     5
 63
     7
 74
     1
 91
        4
 64
     7
 65
   257
 75
     1
175
     1
 42
1.0
 92
        8
 66
     7
 43
1.0
 76
     1
 77
     6
 78
     2
 67
     7
 79
     5
170
     0
171
     0
290
     0
174
     0
 93
        1
 44
0.0
173
     0
291
     1
 45
0.0
1001
ACAD
1000
AcDbSavedByObjectVersion
1070
     0
1000
AcDbSavedByObjectVersion
1070
     0
  0
VISUALSTYLE
  5
B0F2
102
{ACAD_REACTORS
330
B0F1
102
}
330
B0F1
100
AcDbVisualStyle
  2
Flat
 70
     0
 71
     2
 72
     1
 73
     1
 90
        2
 40
-0.6
 41
30.0
 62
     5
 63
     7
 74
     0
 91
        4
 64
     7
 65
   257
 75
     1
175
     1
 42
1.0
 92
        8
 66
     7
 43
1.0
 76
     1
 77
     6
 78
     2
 67
     7
 79
     5
170
     0
171
     0
290
     0
174
     0
 93
       13
 44
0.0
173
     0
291
     1
 45
0.0
1001
ACAD
1000
AcDbSavedByObjectVersion
1070
     0
1000
AcDbSavedByObjectVersion
1070
     0
  0
VISUALSTYLE
  5
B0F3
102
{ACAD_REACTORS
330
B0F1
102
}
330
B0F1
100
AcDbVisualStyle
  2
FlatWithEdges
 70
     1
 71
     2
 72
     1
 73
     1
 90
        2
 40
-0.6
 41
30.0
 62
     5
 63
     7
 74
     1
 91
        4
 64
     7
 65
   257
 75
     1
175
     1
 42
1.0
 92
        0
 66
   257
 43
1.0
 76
     1
 77
     6
 78
     2
 67
     7
 79
     5
170
     0
171
     0
290
     0
174
     0
 93
       13
 44
0.0
173
     0
291
     1
 45
0.0
1001
ACAD
1000
AcDbSavedByObjectVersion
1070
     0
1000
AcDbSavedByObjectVersion
1070
     0
  0
VISUALSTYLE
  5
B0F4
102
{ACAD_REACTORS
330
B0F1
102
}
330
B0F1
100
AcDbVisualStyle
  2
Gouraud
 70
     2
 71
     2
 72
     2
 73
     1
 90
        2
 40
-0.6
 41
30.0
 62
     5
 63
     7
 74
     0
 91
        4
 64
     7
 65
   257
 75
     1
175
     1
 42
1.0
 92
        0
 66
     7
 43
1.0
 76
     1
 77
     6
 78
     2
 67
     7
 79
     5
170
     0
171
     0
290
     0
174
     0
 93
       13
 44
0.0
173
     0
291
     1
 45
0.0
1001
ACAD
1000
AcDbSavedByObjectVersion
1070
     0
1000
AcDbSavedByObjectVersion
1070
     0
  0
VISUALSTYLE
  5
B0F5
102
{ACAD_REACTORS
330
B0F1
102
}
330
B0F1
100
AcDbVisualStyle
  2
GouraudWithEdges
 70
     3
 71
     2
 72
     2
 73
     1
 90
        2
 40
-0.6
 41
30.0
 62
     5
 63
     7
 74
     1
 91
        4
 64
     7
 65
   257
 75
     1
175
     1
 42
1.0
 92
        0
 66
   257
 43
1.0
 76
     1
 77
     6
 78
     2
 67
     7
 79
     5
170
     0
171
     0
290
     0
174
     0
 93
       13
 44
0.0
173
     0
291
     1
 45
0.0
1001
ACAD
1000
AcDbSavedByObjectVersion
1070
     0
1000
AcDbSavedByObjectVersion
1070
     0
  0
VISUALSTYLE
  5
B0FF
102
{ACAD_REACTORS
330
B0F1
102
}
330
B0F1
100
AcDbVisualStyle
  2
Linepattern
 70
    14
 71
     2
 72
     2
 73
     0
 90
        0
 40
-0.6
 41
-30.0
 62
     5
 63
     7
 74
     1
 91
        4
 64
     7
 65
   257
 75
     7
175
     7
 42
1.0
 92
        8
 66
     7
 43
1.0
 76
     1
 77
     6
 78
     2
 67
     7
 79
     5
170
     0
171
     0
290
     0
174
     0
 93
        1
 44
0.0
173
     0
291
     1
 45
0.0
1001
ACAD
1000
AcDbSavedByObjectVersion
1070
     0
1000
AcDbSavedByObjectVersion
1070
     0
  0
VISUALSTYLE
  5
B0FB
102
{ACAD_REACTORS
330
B0F1
102
}
330
B0F1
100
AcDbVisualStyle
  2
Realistic
 70
     8
 71
     2
 72
     2
 73
     0
 90
        0
 40
-0.6
 41
-30.0
 62
     5
 63
     7
 74
     1
 91
        0
 64
     7
 65
   257
 75
     1
175
     1
 42
1.0
 92
        8
 66
     8
 43
1.0
 76
     1
 77
     6
 78
     2
 67
     7
 79
     5
170
     0
171
     0
290
     0
174
     0
 93
       13
 44
0.0
173
     0
291
     0
 45
0.0
1001
ACAD
1000
AcDbSavedByObjectVersion
1070
     0
1000
AcDbSavedByObjectVersion
1070
     0
  0
VISUALSTYLE
  5
B0FE
102
{ACAD_REACTORS
330
B0F1
102
}
330
B0F1
100
AcDbVisualStyle
  2
Thicken
 70
    13
 71
     2
 72
     2
 73
     0
 90
        0
 40
-0.6
 41
-30.0
 62
     5
 63
     7
 74
     1
 91
        4
 64
     7
 65
   257
 75
     1
175
     1
 42
1.0
 92
       12
 66
     7
 43
1.0
 76
     1
 77
     6
 78
     2
 67
     7
 79
     5
170
     0
171
     0
290
     0
174
     0
 93
        1
 44
0.0
173
     0
291
     1
 45
0.0
1001
ACAD
1000
AcDbSavedByObjectVersion
1070
     0
1000
AcDbSavedByObjectVersion
1070
     0
  0
DICTIONARYVAR
  5
B5BA
102
{ACAD_REACTORS
330
34
102
}
330
34
100
DictionaryVariables
280
     0
  1
1:2
  0
DICTIONARYVAR
  5
B5B8
102
{ACAD_REACTORS
330
34
102
}
330
34
100
DictionaryVariables
280
     0
  1
STANDARD
  0
DICTIONARYVAR
  5
AAF3
102
{ACAD_REACTORS
330
34
102
}
330
34
100
DictionaryVariables
280
     0
  1
STANDARD
  0
DICTIONARYVAR
  5
A10C
102
{ACAD_REACTORS
330
34
102
}
330
34
100
DictionaryVariables
280
     0
  1
1
  0
DICTIONARYVAR
  5
AB07
102
{ACAD_REACTORS
330
34
102
}
330
34
100
DictionaryVariables
280
     0
  1
4
  0
DICTIONARYVAR
  5
35
102
{ACAD_REACTORS
330
34
102
}
330
34
100
DictionaryVariables
280
     0
  1
0
  0
DICTIONARYVAR
  5
B5BB
102
{ACAD_REACTORS
330
34
102
}
330
34
100
DictionaryVariables
280
     0
  1
0
  0
DICTIONARYVAR
  5
B5B9
102
{ACAD_REACTORS
330
34
102
}
330
34
100
DictionaryVariables
280
     0
  1
0
  0
DICTIONARYVAR
  5
194C
102
{ACAD_REACTORS
330
34
102
}
330
34
100
DictionaryVariables
280
     0
  1
96
  0
DICTIONARY
  5
7E8
102
{ACAD_REACTORS
330
47
102
}
330
47
100
AcDbDictionary
281
     1
  0
DICTIONARY
  5
4C
102
{ACAD_REACTORS
330
47
102
}
330
47
100
AcDbDictionary
281
     1
  0
XRECORD
  5
A929
102
{ACAD_REACTORS
330
47
102
}
330
47
100
AcDbXrecord
280
     1
 90
-1023410169
  0
XRECORD
  5
103C6
102
{ACAD_REACTORS
330
103C5
102
}
330
103C5
100
AcDbXrecord
280
     1
330
B818
330
B819
330
B81A
330
B81B
330
B81C
330
B9B2
330
B9BD
330
B9C8
330
B9D3
330
B9DE
330
B9E9
330
B9F4
330
B9FF
330
BA0A
330
BA15
330
BA20
330
BA2B
330
BA36
330
BA41
330
BA4C
330
BA57
330
BA62
330
BA6D
330
BA78
330
BA83
330
BA8E
330
BA99
330
BAA4
330
BAAF
330
BABA
330
BAC5
330
BAD0
330
BADB
330
BAE6
330
BAF1
330
BAFC
330
BB07
330
BB12
330
BB1D
330
BB28
330
BB33
330
BB3E
330
BB49
330
BB54
330
BB5F
330
BB6A
330
BB75
330
BB80
330
BB8B
330
BB96
330
BBA1
330
BBAC
330
BBB7
330
BBC2
330
BBCD
330
BBD8
330
BBE3
330
BBEE
330
BBF9
330
BC04
330
BC0F
330
BC1A
330
BC25
330
BC30
330
BC3B
330
BC46
330
BC51
330
BC5C
330
BC67
330
BC72
330
BC7D
330
BC88
330
BC93
330
BC9E
330
BCA9
330
BCB4
330
BCBF
330
BCCA
330
BCD5
330
BCE0
330
BCEB
330
BCF6
330
BD01
330
BD0C
330
BD17
330
BD22
330
BD2D
330
BD38
330
BD43
330
BD4E
330
BD59
330
BD64
330
BD6F
330
BD7A
330
BD85
330
BD90
330
BD9B
330
BDA6
330
BDB1
330
BDBC
330
BDC7
330
BDD2
330
BDDD
330
BDE8
330
BDF3
330
BDFE
330
BE09
330
BE14
330
BE1F
330
BE2A
330
BE35
330
BE40
330
BE4B
330
BE56
330
BE61
330
BE6C
330
BE77
330
BE82
330
BE8D
330
BE98
330
BEA3
330
BEAE
330
BEB9
330
BEC4
330
BECF
330
BEDA
330
BEE5
330
BEF0
330
BEFB
330
BF06
330
BF11
330
BF1C
330
BF27
330
BF32
330
BF3D
330
BF48
330
BF53
330
BF5E
330
BF69
330
BF74
330
BF7F
330
BF8A
330
BF95
330
BFA0
330
BFAB
330
BFB6
330
BFC1
330
BFCC
330
BFD7
330
BFE2
330
BFED
330
BFF8
330
C003
330
C00E
330
C019
330
C024
330
C02F
330
C03A
330
C045
330
C050
330
C05B
330
C066
330
C071
330
C07C
330
C087
330
C092
330
C09D
330
C0A8
330
C0B3
330
C0BE
330
C0C9
330
C0D4
330
C0DF
330
C0EA
330
C0F5
330
C100
330
C10B
330
C116
330
C121
330
C12C
330
C137
330
C142
330
C14D
330
C158
330
C160
330
C168
330
C170
330
C178
330
C180
330
C188
330
C190
330
C198
330
C1A0
330
C1A8
330
C1B0
330
C1B8
330
C1C0
330
C1C8
330
C1D0
330
C1D8
330
C1E0
330
C1E8
330
C1F0
330
C1F8
330
C200
330
C208
330
C210
330
C218
330
C220
330
C228
330
C230
330
C238
330
C240
330
C248
330
C250
330
C258
330
C260
330
C268
330
C270
330
C278
330
C280
330
C288
330
C290
330
C298
330
C2A0
330
C2A8
330
C476
330
C481
330
C48C
330
C497
330
C4A2
330
C4AD
330
C4B8
330
C4C3
330
C4CE
330
C4D9
330
C4E4
330
C4EF
330
C4FA
330
C505
330
C510
330
C51B
330
C526
330
C531
330
C53C
330
C547
330
C552
330
C55D
330
C568
330
C573
330
C57E
330
C589
330
C594
330
C59F
330
C5AA
330
C5B5
330
C5C0
330
C5CB
330
C5D6
330
C5E1
330
C5EC
330
C5F7
330
C602
330
C60D
330
C618
330
C623
330
C62E
330
C639
330
C644
330
C64F
330
C65A
330
C665
330
C670
330
C67B
330
C686
330
C691
330
C69C
330
C6A7
330
C6B2
330
C6BD
330
C6C8
330
C6D3
330
C6DE
330
C6E9
330
C6F4
330
C6FF
330
C70A
330
C715
330
C720
330
C72B
330
C736
330
C741
330
C74C
330
C757
330
C762
330
C76D
330
C778
330
C783
330
C78E
330
C799
330
C7A4
330
C7AF
330
C7BA
330
C7C5
330
C7D0
330
C7DB
330
C7E6
330
C7F1
330
C7FC
330
C807
330
C812
330
C81D
330
C828
330
C833
330
C83E
330
C849
330
C854
330
C85F
330
C86A
330
C875
330
C880
330
C88B
330
C896
330
C8A1
330
C8AC
330
C8B7
330
C8C2
330
C8CD
330
C8D8
330
C8E3
330
C8EE
330
C8F9
330
C904
330
C90F
330
C91A
330
C925
330
C930
330
C93B
330
C946
330
C951
330
C95C
330
C967
330
C972
330
C97D
330
C988
330
C993
330
C99E
330
C9A9
330
C9B4
330
C9BF
330
C9CA
330
C9D5
330
C9E0
330
C9EB
330
C9F6
330
CA01
330
CA0C
330
CA17
330
CA22
330
CA2D
330
CA38
330
CA43
330
CA4E
330
CA59
330
CA64
330
CA6F
330
CA7A
330
CA85
330
CA90
330
CA9B
330
CAA6
330
CAB1
330
CABC
330
CAC7
330
CAD2
330
CADD
330
CAE8
330
CAF3
330
CAFE
330
CB09
330
CB14
330
CB1F
330
CB2A
330
CB35
330
CB40
330
CB4B
330
CB56
330
CB61
330
CB6C
330
CB77
330
CB82
330
CB8D
330
CB98
330
CBA3
330
CBAE
330
CBB9
330
CBC4
330
CBCF
330
CBDA
330
CBE5
330
CBF0
330
CBFB
330
CC06
330
CC11
330
CC1C
330
CC27
330
CC2F
330
CC37
330
CC3F
330
CC47
330
CC4F
330
CC57
330
CC5F
330
CC67
330
CC6F
330
CC77
330
CC7F
330
CC87
330
CC8F
330
CC97
330
CC9F
330
CCA7
330
CCAF
330
CCB7
330
CCBF
330
CCC7
330
CCCF
330
CCD7
330
CCDF
330
CCE7
330
CCEF
330
CCF7
330
CCFF
330
CD07
330
CD0F
330
CD17
330
CD1F
330
CD27
330
CD2F
330
CD37
330
CD3F
330
CD47
330
CD4F
330
CD57
330
CD5F
330
CD67
330
CD6F
330
CD77
330
CD7F
330
CD87
330
CD8F
330
CD97
330
CD9F
330
CDA7
330
CDAF
330
CDB7
330
CDBF
330
CDC7
330
CDCF
330
CDD7
330
CDDF
330
CDE7
330
CDEF
330
CDFA
330
CE05
330
CE10
330
CE1B
330
CE26
330
CE31
330
CE3C
330
CE47
330
CE52
330
CE5D
330
CE68
330
CE73
330
CE7E
330
CE89
330
CE94
330
CEAA
330
CEB5
330
CEC0
330
CECB
330
CED6
330
CEE1
330
CEEC
330
CEF7
330
CF02
330
CF0D
330
CF18
330
CF23
330
CF2E
330
CF39
330
CF44
330
CF4F
330
CF5A
330
CF65
330
CF70
330
CF7B
330
CF86
330
CF91
330
CF9C
330
CFA7
330
CFB2
330
CFBD
330
CFC8
330
CFD3
330
CFDE
330
CFE9
330
CFF4
330
CFFF
330
D00A
330
D015
330
D020
330
D02B
330
D036
330
D041
330
D04C
330
D057
330
D062
330
D06D
330
D078
330
D083
330
D08E
330
D099
330
D0A4
330
D0AF
330
D0BA
330
D0C5
330
D0D0
330
D0DB
330
D0E6
330
D0F1
330
D0FC
330
D107
330
D112
330
D11D
330
D128
330
D133
330
D13E
330
D149
330
D154
330
D15F
330
D16A
330
D175
330
D180
330
D18B
330
D196
330
D1A1
330
D1AC
330
D1B7
330
D1C2
330
D1CD
330
D1D8
330
D1E3
330
D1EE
330
D1F9
330
D204
330
D20F
330
D21A
330
D225
330
D230
330
D23B
330
D246
330
D251
330
D25C
330
D267
330
D272
330
D27D
330
D288
330
D293
330
D29E
330
D2A9
330
D2B4
330
D2BF
330
D2CA
330
D2D5
330
D2E0
330
D2EB
330
D2F6
330
D301
330
D30C
330
D317
330
D322
330
D32D
330
D338
330
D343
330
D34E
330
D359
330
D364
330
D36F
330
D37A
330
D385
330
D390
330
D39B
330
D3A6
330
D3B1
330
D3BC
330
D3C7
330
D3D2
330
D3DD
330
D3E8
330
D3F3
330
D3FE
330
D409
330
D414
330
D41F
330
D42A
330
D435
330
D440
330
D44B
330
D456
330
D461
330
D46C
330
D477
330
D482
330
D48D
330
D498
330
D4A3
330
D4AE
330
D4B9
330
D4C4
330
D4CF
330
D4DA
330
D4E5
330
D4F0
330
D4FB
330
D506
330
D511
330
D51C
330
D527
330
D532
330
D53D
330
D548
330
D553
330
D55E
330
D569
330
D574
330
D57F
330
D58A
330
D595
330
D5A0
330
D5AB
330
D5B6
330
D5C1
330
D5CC
330
D5D7
330
D5E2
330
D5ED
330
D5F8
330
D603
330
D60E
330
D619
330
D624
330
D62F
330
D63A
330
D645
330
D650
330
D65B
330
D666
330
D671
330
D67C
330
D687
330
D692
330
D69D
330
D6A8
330
D6B3
330
D6BE
330
D6C9
330
D6D4
330
D6DF
330
D6EA
330
D6F5
330
D700
330
D70B
330
D716
330
D721
330
D72C
330
D737
330
D742
330
D74D
330
D758
330
D763
330
D76E
330
D779
330
D784
330
D78F
330
D79A
330
D7A5
330
D7B0
330
D7BB
330
D7C6
330
D7D1
330
D7DC
330
D7E7
330
D7F2
330
D7FD
330
D808
330
D813
330
D81E
330
D829
330
D834
330
D83F
330
D84A
330
D855
330
D860
330
D86B
330
D876
330
D881
330
D88C
330
D897
330
D8A2
330
D8AD
330
D8B8
330
D8C3
330
D8CE
330
D8D9
330
D8E4
330
D8EF
330
D8FA
330
D905
330
D910
330
D91B
330
D926
330
D931
330
D93C
330
D947
330
D952
330
D95D
330
D968
330
D973
330
D97E
330
D989
330
D994
330
D99F
330
D9AA
330
D9B5
330
D9C0
330
D9CB
330
D9D6
330
D9E1
330
D9EC
330
D9F7
330
DA02
330
DA0D
330
DA18
330
DA23
330
DA2E
330
DA39
330
DA44
330
DA4F
330
DA5A
330
DA65
330
DA70
330
DA7B
330
DA86
330
DA91
330
DA9C
330
DAA7
330
DAB2
330
DABD
330
DAC8
330
DAD3
330
DADE
330
DAE9
330
DAF4
330
DAFF
330
DB0A
330
DB15
330
DB20
330
DB2B
330
DB36
330
DB41
330
DB4C
330
DB57
330
DB62
330
DB6D
330
DB78
330
DB83
330
DB8E
330
DB99
330
DBA4
330
DBAF
330
DBBA
330
DBC5
330
DBD0
330
DBDB
330
DBE6
330
DBF1
330
DBFC
330
DC07
330
DC12
330
DC1D
330
DC28
330
DC33
330
DC3E
330
DC49
330
DC54
330
DC5F
330
DC6A
330
DC75
330
DC80
330
DC8B
330
DC96
330
DCA1
330
DCAC
330
DCB7
330
DCC2
330
DCCD
330
DCD8
330
DCE3
330
DCEE
330
DCF9
330
DD04
330
DD0F
330
DD1A
330
DD25
330
DD30
330
DD3B
330
DD46
330
DD51
330
DD5C
330
DD67
330
DD72
330
DD7D
330
DD88
330
DD93
330
DD9E
330
DDA9
330
DDB4
330
DDBF
330
DDCA
330
DDD5
330
DDE0
330
DDEB
330
DDF6
330
DE01
330
DE0C
330
DE17
330
DE22
330
DE2D
330
DE38
330
DE43
330
DE4E
330
DE59
330
DE64
330
DE6F
330
DE7A
330
DE85
330
DE90
330
DE9B
330
DEA6
330
DEB1
330
DEBC
330
DEC7
330
DED2
330
DEDD
330
DEE8
330
DEF3
330
DEFE
330
DF09
330
DF14
330
DF1F
330
DF2A
330
DF35
330
DF40
330
DF4B
330
DF56
330
DF61
330
DF6C
330
DF77
330
DF82
330
DF8D
330
DF98
330
DFA3
330
DFAE
330
DFB9
330
DFC4
330
DFCF
330
DFDA
330
DFE5
330
DFF0
330
DFFB
330
E006
330
E011
330
E01C
330
E027
330
E032
330
E03D
330
E048
330
E053
330
E05E
330
E069
330
E074
330
E07F
330
E08A
330
E095
330
E0A0
330
E0AB
330
E0B6
330
E0C1
330
E0CC
330
E0D7
330
E0E2
330
E0ED
330
E0F8
330
E103
330
E10E
330
E119
330
E124
330
E12F
330
E13A
330
E145
330
E150
330
E15B
330
E166
330
E171
330
E17C
330
E187
330
E192
330
E19D
330
E1A8
330
E1B3
330
E1BE
330
E1C9
330
E1D4
330
E1DF
330
E1EA
330
E1F5
330
E200
330
E20B
330
E216
330
E221
330
E22C
330
E237
330
E242
330
E24D
330
E258
330
E263
330
E26E
330
E279
330
E284
330
E28F
330
E29A
330
E2A5
330
E2B0
330
E2BB
330
E2C6
330
E2D1
330
E2DC
330
E2E7
330
E2F2
330
E2FD
330
E308
330
E313
330
E31E
330
E329
330
E334
330
E33F
330
E34A
330
E355
330
E360
330
E36B
330
E376
330
E381
330
E38C
330
E397
330
E3A2
330
E3AD
330
E3B8
330
E3C3
330
E3CE
330
E3D9
330
E3E4
330
E3EF
330
E3FA
330
E405
330
E410
330
E41B
330
E426
330
E431
330
E43C
330
E447
330
E452
330
E45D
330
E468
330
E473
330
E47E
330
E489
330
E494
330
E49F
330
E4AA
330
E4B5
330
E4C0
330
E4CB
330
E4D6
330
E4E1
330
E4EC
330
E4F7
330
E502
330
E50D
330
E518
330
E523
330
E52E
330
E539
330
E544
330
E54F
330
E55A
330
E565
330
E570
330
E57B
330
E586
330
E591
330
E59C
330
E5A7
330
E5B2
330
E5BD
330
E5C8
330
E5D3
330
E5DE
330
E5E9
330
E5F4
330
E5FF
330
E60A
330
E615
330
E620
330
E62B
330
E636
330
E641
330
E64C
330
E657
330
E662
330
E66D
330
E678
330
E683
330
E68E
330
E699
330
E6A4
330
E6AF
330
E6BA
330
E6C5
330
E6D0
330
E6DB
330
E6E6
330
E6F1
330
E6FC
330
E707
330
E712
330
E71D
330
E728
330
E733
330
E73E
330
E749
330
E754
330
E75F
330
E76A
330
E775
330
E780
330
E78B
330
E796
330
E7A1
330
E7AC
330
E7B7
330
E7C2
330
E7CD
330
E7D8
330
E7E3
330
E7EE
330
E7F9
330
E804
330
E80F
330
E81A
330
E825
330
E830
330
E83B
330
E846
330
E851
330
E85C
330
E867
330
E872
330
E87D
330
E888
330
E893
330
E89E
330
E8A9
330
E8B4
330
E8BF
330
E8CA
330
E8D5
330
E8E0
330
E8EB
330
E8F6
330
E901
330
E90C
330
E917
330
E922
330
E92D
330
E938
330
E943
330
E94E
330
E959
330
E964
330
E96F
330
E97A
330
E985
330
E990
330
E99B
330
E9A6
330
E9B1
330
E9BC
330
E9C7
330
E9D2
330
E9DD
330
E9E8
330
E9F3
330
E9FE
330
EA09
330
EA14
330
EA1F
330
EA2A
330
EA35
330
EA40
330
EA4B
330
EA56
330
EA61
330
EA6C
330
EA77
330
EA82
330
EA8D
330
EA98
330
EAA3
330
EAAE
330
EAB9
330
EAC4
330
EACF
330
EADA
330
EAE5
330
EAF0
330
EAFB
330
EB06
330
EB11
330
EB1C
330
EB27
330
EB32
330
EB3D
330
EB48
330
EB53
330
EB5E
330
EB69
330
EB74
330
EB7F
330
EB8A
330
EB95
330
EBA0
330
EBAB
330
EBB6
330
EBC1
330
EBCC
330
EBD7
330
EBE2
330
EBED
330
EBF8
330
EC03
330
EC0E
330
EC19
330
EC24
330
EC2F
330
EC3A
330
EC45
330
EC50
330
EC5B
330
EC66
330
EC71
330
EC7C
330
EC87
330
EC92
330
EC9D
330
ECA8
330
ECB3
330
ECBE
330
ECC9
330
ECD4
330
ECDF
330
ECEA
330
ECF5
330
ED00
330
ED0B
330
ED16
330
ED21
330
ED2C
330
ED37
330
ED42
330
ED4D
330
ED58
330
ED63
330
ED6E
330
ED79
330
ED84
330
ED8F
330
ED9A
330
EDA5
330
EDB0
330
EDBB
330
EDC6
330
EDD1
330
EDDC
330
EDE7
330
EDF2
330
EDFD
330
EE08
330
EE13
330
EE1E
330
EE29
330
EE34
330
EE3F
330
EE4A
330
EE55
330
EE60
330
EE6B
330
EE73
330
EE7B
330
EE83
330
EE8B
330
EE93
330
EE9B
330
EEA3
330
EEAB
330
EEB3
330
EEBB
330
EEC3
330
EECB
330
EED3
330
EEDB
330
EEE3
330
EEEB
330
EEF3
330
EEFB
330
EF03
330
EF0B
330
EF13
330
EF1B
330
EF23
330
EF2B
330
EF33
330
EF3B
330
EF43
330
EF4B
330
EF53
330
EF5B
330
EF63
330
EF6B
330
EF73
330
EF7B
330
EF83
330
EF8B
330
EF93
330
EF9B
330
EFA3
330
EFAB
330
EFB3
330
EFBB
330
EFC3
330
EFCB
330
EFD3
330
EFDB
330
EFE3
330
EFEB
330
EFF3
330
EFFB
330
F003
330
F00B
330
F013
330
F01B
330
F023
330
F02B
330
F033
330
F03B
330
F043
330
F04B
330
F053
330
F05B
330
F063
330
F06B
330
F073
330
F07B
330
F083
330
F08B
330
F093
330
F09B
330
F0A3
330
F0AB
330
F0B3
330
F0BB
330
F0C3
330
F0CB
330
F0D3
330
F0DB
330
F0E3
330
F0EB
330
F0F3
330
F0FB
330
F103
330
F10B
330
F113
330
F11B
330
F123
330
F12B
330
F133
330
F13B
330
F143
330
F14B
330
F153
330
F15B
330
F163
330
F16B
330
F173
330
F17B
330
F183
330
F18B
330
F193
330
F19B
330
F1A3
330
F1AB
330
F1B3
330
F1BB
330
F1C3
330
F1CB
330
F1D3
330
F1DB
330
F1E3
330
F1EB
330
F1F3
330
F1FB
330
F203
330
F20B
330
F213
330
F21B
330
F223
330
F22B
330
F233
330
F23B
330
F243
330
F24B
330
F253
330
F25B
330
F263
330
F26B
330
F273
330
F27B
330
F283
330
F28B
330
F293
330
F29B
330
F2A3
330
F2AB
330
F2B3
330
F2BB
330
F2C3
330
F2CB
330
F2D3
330
F2DB
330
F2E3
330
F2EB
330
F2F3
330
F2FB
330
F303
330
F30B
330
F313
330
F31B
330
F323
330
F32B
330
F333
330
F33B
330
F343
330
F34B
330
F353
330
F35B
330
F363
330
F36B
330
F373
330
F37B
330
F383
330
F38B
330
F393
330
F39B
330
F3A3
330
F3AB
330
F3B3
330
F3BB
330
F3C3
330
F3CB
330
F3D3
330
F3DB
330
F3E3
330
F3EB
330
F3F3
330
F3FB
330
F403
330
F40B
330
F413
330
F41B
330
F423
330
F42B
330
F433
330
F43B
330
F443
330
F44B
330
F453
330
F45B
330
F463
330
F46B
330
F473
330
F47B
330
F483
330
F48B
330
F493
330
F49B
330
F4A3
330
F4AB
330
F4B3
330
F4BB
330
F4BF
330
F4C7
330
F4CB
330
F4D3
330
F4D7
330
F4DF
330
F4E3
330
F4EB
330
F4EF
330
1353D
330
1353E
330
1354F
330
13550
330
135BB
330
135BC
330
13630
330
13631
330
13642
330
13643
330
135F1
330
135F2
330
135CD
330
135CE
330
1361E
330
1361F
330
13654
330
13655
330
13666
330
13667
330
13678
330
13679
  0
XRECORD
  5
3FB7
102
{ACAD_REACTORS
330
3F96
102
}
330
3F96
100
AcDbXrecord
280
     1
 91
        3
330
0
 90
        8
 62
     7
370
    40
331
16
  1
Color_7
330
0
 90
        0
 62
    14
370
    -3
331
16
  1
Color_14
330
0
 90
        8
 62
     7
370
    20
331
16
  1
Color_7
330
6D1
 90
        0
 62
     7
370
    -3
331
16
  1
Color_7
330
0
 90
        8
 62
     7
370
    50
331
16
  1
Color_7
330
0
 90
        8
 62
     2
370
    35
331
16
  1
Color_2
330
0
 90
        8
 62
     7
370
    -3
331
16
  1
Color_7
330
10
 90
        8
 62
     7
370
    -3
331
16
  1
Color_7
  0
DICTIONARY
  5
13A59
330
22
100
AcDbDictionary
280
     1
281
     1
  3
ACAD_XREC_ROUNDTRIP
360
13A5A
  0
DICTIONARY
  5
13A57
330
1E
100
AcDbDictionary
280
     1
281
     1
  3
ACAD_XREC_ROUNDTRIP
360
13A58
  0
DICTIONARY
  5
13A5B
330
26
100
AcDbDictionary
280
     1
281
     1
  3
ACAD_XREC_ROUNDTRIP
360
13A5C
  0
DICTIONARY
  5
1373F
330
B0EF
100
AcDbDictionary
280
     1
281
     1
  3
ACAD_XREC_ROUNDTRIP
360
13740
  0
DICTIONARY
  5
1373D
330
B0EE
100
AcDbDictionary
280
     1
281
     1
  3
ACAD_XREC_ROUNDTRIP
360
1373E
  0
DICTIONARY
  5
13741
330
B0F0
100
AcDbDictionary
280
     1
281
     1
  3
ACAD_XREC_ROUNDTRIP
360
13742
  0
DICTIONARY
  5
B5B5
330
AABA
100
AcDbDictionary
280
     1
281
     1
  3
ACAD_ROUNDTRIP_2008_TABLESTYLE_CELLSTYLEMAP
360
13731
  3
ACAD_XREC_ROUNDTRIP
360
13A5D
  0
XRECORD
  5
13A5A
102
{ACAD_REACTORS
330
13A59
102
}
330
13A59
100
AcDbXrecord
280
     1
102
SHADEPLOT
 70
     0
102
SHADEPLOTRESLEVEL
 70
     2
102
SHADEPLOTCUSTOMDPI
 70
   200
  0
XRECORD
  5
13A58
102
{ACAD_REACTORS
330
13A57
102
}
330
13A57
100
AcDbXrecord
280
     1
102
SHADEPLOT
 70
     0
102
SHADEPLOTRESLEVEL
 70
     2
102
SHADEPLOTCUSTOMDPI
 70
   300
  0
XRECORD
  5
13A5C
102
{ACAD_REACTORS
330
13A5B
102
}
330
13A5B
100
AcDbXrecord
280
     1
102
SHADEPLOT
 70
     0
102
SHADEPLOTRESLEVEL
 70
     2
102
SHADEPLOTCUSTOMDPI
 70
   300
  0
XRECORD
  5
13740
102
{ACAD_REACTORS
330
1373F
102
}
330
1373F
100
AcDbXrecord
280
     1
102
MATERIAL
148
0.0
149
0.0
149
0.0
 93
        0
 94
       63
282
     0
 72
     1
 77
     1
171
     1
175
     1
179
     1
273
     0
  0
XRECORD
  5
1373E
102
{ACAD_REACTORS
330
1373D
102
}
330
1373D
100
AcDbXrecord
280
     1
102
MATERIAL
148
0.0
149
0.0
149
0.0
 93
        0
 94
       63
282
     0
 72
     1
 77
     1
171
     1
175
     1
179
     1
273
     0
  0
XRECORD
  5
13742
102
{ACAD_REACTORS
330
13741
102
}
330
13741
100
AcDbXrecord
280
     1
102
MATERIAL
148
0.0
149
0.0
149
0.0
 93
        0
 94
       63
282
     0
 72
     1
 77
     1
171
     1
175
     1
179
     1
273
     0
  0
CELLSTYLEMAP
  5
13731
102
{ACAD_REACTORS
330
B5B5
102
}
330
B5B5
100
AcDbCellStyleMap
 90
        3
300
CELLSTYLE
  1
TABLEFORMAT_BEGIN
 90
        5
170
     1
 91
        0
 92
    32768
 62
   257
 93
        1
300
CONTENTFORMAT
  1
CONTENTFORMAT_BEGIN
 90
        0
 91
        0
 92
        4
 93
        0
300

 40
0.0
140
1.0
 94
        5
 62
     0
340
11
144
6.0
309
CONTENTFORMAT_END
171
     1
301
MARGIN
  1
CELLMARGIN_BEGIN
 40
1.5
 40
1.5
 40
1.5
 40
1.5
 40
0.18
 40
0.18
309
CELLMARGIN_END
 94
        6
 95
        1
302
GRIDFORMAT
  1
GRIDFORMAT_BEGIN
 90
        0
 91
        1
 62
     0
 92
       -2
340
0
 93
        0
 40
0.045
309
GRIDFORMAT_END
 95
        2
302
GRIDFORMAT
  1
GRIDFORMAT_BEGIN
 90
        0
 91
        1
 62
     0
 92
       -2
340
0
 93
        0
 40
0.045
309
GRIDFORMAT_END
 95
        4
302
GRIDFORMAT
  1
GRIDFORMAT_BEGIN
 90
        0
 91
        1
 62
     0
 92
       -2
340
0
 93
        0
 40
0.045
309
GRIDFORMAT_END
 95
        8
302
GRIDFORMAT
  1
GRIDFORMAT_BEGIN
 90
        0
 91
        1
 62
     0
 92
       -2
340
0
 93
        0
 40
0.045
309
GRIDFORMAT_END
 95
       16
302
GRIDFORMAT
  1
GRIDFORMAT_BEGIN
 90
        0
 91
        1
 62
     0
 92
       -2
340
0
 93
        0
 40
0.045
309
GRIDFORMAT_END
 95
       32
302
GRIDFORMAT
  1
GRIDFORMAT_BEGIN
 90
        0
 91
        1
 62
     0
 92
       -2
340
0
 93
        0
 40
0.045
309
GRIDFORMAT_END
309
TABLEFORMAT_END
  1
CELLSTYLE_BEGIN
 90
        1
 91
        1
300
_TITLE
309
CELLSTYLE_END
300
CELLSTYLE
  1
TABLEFORMAT_BEGIN
 90
        5
170
     1
 91
        0
 92
        0
 62
   257
 93
        1
300
CONTENTFORMAT
  1
CONTENTFORMAT_BEGIN
 90
        0
 91
        0
 92
        4
 93
        0
300

 40
0.0
140
1.0
 94
        5
 62
     0
340
11
144
4.5
309
CONTENTFORMAT_END
171
     1
301
MARGIN
  1
CELLMARGIN_BEGIN
 40
1.5
 40
1.5
 40
1.5
 40
1.5
 40
0.18
 40
0.18
309
CELLMARGIN_END
 94
        6
 95
        1
302
GRIDFORMAT
  1
GRIDFORMAT_BEGIN
 90
        0
 91
        1
 62
     0
 92
       -2
340
0
 93
        0
 40
0.045
309
GRIDFORMAT_END
 95
        2
302
GRIDFORMAT
  1
GRIDFORMAT_BEGIN
 90
        0
 91
        1
 62
     0
 92
       -2
340
0
 93
        0
 40
0.045
309
GRIDFORMAT_END
 95
        4
302
GRIDFORMAT
  1
GRIDFORMAT_BEGIN
 90
        0
 91
        1
 62
     0
 92
       -2
340
0
 93
        0
 40
0.045
309
GRIDFORMAT_END
 95
        8
302
GRIDFORMAT
  1
GRIDFORMAT_BEGIN
 90
        0
 91
        1
 62
     0
 92
       -2
340
0
 93
        0
 40
0.045
309
GRIDFORMAT_END
 95
       16
302
GRIDFORMAT
  1
GRIDFORMAT_BEGIN
 90
        0
 91
        1
 62
     0
 92
       -2
340
0
 93
        0
 40
0.045
309
GRIDFORMAT_END
 95
       32
302
GRIDFORMAT
  1
GRIDFORMAT_BEGIN
 90
        0
 91
        1
 62
     0
 92
       -2
340
0
 93
        0
 40
0.045
309
GRIDFORMAT_END
309
TABLEFORMAT_END
  1
CELLSTYLE_BEGIN
 90
        2
 91
        1
300
_HEADER
309
CELLSTYLE_END
300
CELLSTYLE
  1
TABLEFORMAT_BEGIN
 90
        5
170
     1
 91
        0
 92
        0
 62
   257
 93
        1
300
CONTENTFORMAT
  1
CONTENTFORMAT_BEGIN
 90
        0
 91
        0
 92
        4
 93
        0
300

 40
0.0
140
1.0
 94
        2
 62
     0
340
11
144
4.5
309
CONTENTFORMAT_END
171
     1
301
MARGIN
  1
CELLMARGIN_BEGIN
 40
1.5
 40
1.5
 40
1.5
 40
1.5
 40
0.18
 40
0.18
309
CELLMARGIN_END
 94
        6
 95
        1
302
GRIDFORMAT
  1
GRIDFORMAT_BEGIN
 90
        0
 91
        1
 62
     0
 92
       -2
340
0
 93
        0
 40
0.045
309
GRIDFORMAT_END
 95
        2
302
GRIDFORMAT
  1
GRIDFORMAT_BEGIN
 90
        0
 91
        1
 62
     0
 92
       -2
340
0
 93
        0
 40
0.045
309
GRIDFORMAT_END
 95
        4
302
GRIDFORMAT
  1
GRIDFORMAT_BEGIN
 90
        0
 91
        1
 62
     0
 92
       -2
340
0
 93
        0
 40
0.045
309
GRIDFORMAT_END
 95
        8
302
GRIDFORMAT
  1
GRIDFORMAT_BEGIN
 90
        0
 91
        1
 62
     0
 92
       -2
340
0
 93
        0
 40
0.045
309
GRIDFORMAT_END
 95
       16
302
GRIDFORMAT
  1
GRIDFORMAT_BEGIN
 90
        0
 91
        1
 62
     0
 92
       -2
340
0
 93
        0
 40
0.045
309
GRIDFORMAT_END
 95
       32
302
GRIDFORMAT
  1
GRIDFORMAT_BEGIN
 90
        0
 91
        1
 62
     0
 92
       -2
340
0
 93
        0
 40
0.045
309
GRIDFORMAT_END
309
TABLEFORMAT_END
  1
CELLSTYLE_BEGIN
 90
        3
 91
        2
300
_DATA
309
CELLSTYLE_END
1001
ACAD
1001
ACAD
1000
AcRTDxfName
1000
CELLSTYLEMAP
  0
XRECORD
  5
13A5D
102
{ACAD_REACTORS
330
B5B5
102
}
330
B5B5
100
AcDbXrecord
280
     1
102
ACAD_ROUNDTRIP_PRE2007_TABLESTYLE
 90
        4
 91
        0
  1

 92
        4
 93
        0
  2

 94
        4
 95
        0
  3

  0
ENDSEC
  0
EOF
