  0
SECTION
  2
HEADER
  9
$ACADVER
  1
AC1015
  9
$ACADMAINTVER
 70
    20
  9
$DWGCODEPAGE
  3
ANSI_932
  9
$INSBASE
 10
0.0
 20
0.0
 30
0.0
  9
$EXTMIN
 10
-0.1219034953101072
 20
-0.1133684629298841
 30
-0.000000000000013
  9
$EXTMAX
 10
148.648755858052
 20
105.0705709699359
 30
0.0000000000000023
  9
$LIMMIN
 10
1700.85588156276
 20
1647.985052086429
  9
$LIMMAX
 10
1997.85588156276
 20
1857.985052086429
  9
$ORTHOMODE
 70
     0
  9
$REGENMODE
 70
     1
  9
$FILLMODE
 70
     1
  9
$QTEXTMODE
 70
     0
  9
$MIRRTEXT
 70
     0
  9
$LTSCALE
 40
1.0
  9
$ATTMODE
 70
     1
  9
$TEXTSIZE
 40
3.2
  9
$TRACEWID
 40
1.0
  9
$TEXTSTYLE
  7
STANDARD
  9
$CLAYER
  8
AM_0
  9
$CELTYPE
  6
ByLayer
  9
$CECOLOR
 62
   256
  9
$CELTSCALE
 40
1.0
  9
$DISPSILH
 70
     0
  9
$DIMSCALE
 40
1.0
  9
$DIMASZ
 40
1.0
  9
$DIMEXO
 40
1.0
  9
$DIMDLI
 40
10.0
  9
$DIMRND
 40
0.0
  9
$DIMDLE
 40
0.0
  9
$DIMEXE
 40
1.0
  9
$DIMTP
 40
0.1
  9
$DIMTM
 40
0.1
  9
$DIMTXT
 40
3.5
  9
$DIMCEN
 40
0.0
  9
$DIMTSZ
 40
0.0
  9
$DIMTOL
 70
     0
  9
$DIMLIM
 70
     0
  9
$DIMTIH
 70
     0
  9
$DIMTOH
 70
     0
  9
$DIMSE1
 70
     0
  9
$DIMSE2
 70
     0
  9
$DIMTAD
 70
     1
  9
$DIMZIN
 70
     8
  9
$DIMBLK
  1

  9
$DIMASO
 70
     1
  9
$DIMSHO
 70
     1
  9
$DIMPOST
  1

  9
$DIMAPOST
  1
"
  9
$DIMALT
 70
     0
  9
$DIMALTD
 70
     2
  9
$DIMALTF
 40
0.0393701
  9
$DIMLFAC
 40
1.0
  9
$DIMTOFL
 70
     1
  9
$DIMTVP
 40
0.0
  9
$DIMTIX
 70
     0
  9
$DIMSOXD
 70
     0
  9
$DIMSAH
 70
     0
  9
$DIMBLK1
  1

  9
$DIMBLK2
  1

  9
$DIMSTYLE
  2
SYS
  9
$DIMCLRD
 70
   256
  9
$DIMCLRE
 70
   256
  9
$DIMCLRT
 70
     7
  9
$DIMTFAC
 40
0.71
  9
$DIMGAP
 40
1.5
  9
$DIMJUST
 70
     0
  9
$DIMSD1
 70
     0
  9
$DIMSD2
 70
     0
  9
$DIMTOLJ
 70
     0
  9
$DIMTZIN
 70
     8
  9
$DIMALTZ
 70
     0
  9
$DIMALTTZ
 70
     0
  9
$DIMUPT
 70
     0
  9
$DIMDEC
 70
     2
  9
$DIMTDEC
 70
     2
  9
$DIMALTU
 70
     2
  9
$DIMALTTD
 70
     2
  9
$DIMTXSTY
  7
STANDARD
  9
$DIMAUNIT
 70
     0
  9
$DIMADEC
 70
     0
  9
$DIMALTRND
 40
0.0
  9
$DIMAZIN
 70
     2
  9
$DIMDSEP
 70
    46
  9
$DIMATFIT
 70
     3
  9
$DIMFRAC
 70
     0
  9
$DIMLDRBLK
  1

  9
$DIMLUNIT
 70
     2
  9
$DIMLWD
 70
    -1
  9
$DIMLWE
 70
    -1
  9
$DIMTMOVE
 70
     0
  9
$LUNITS
 70
     2
  9
$LUPREC
 70
     2
  9
$SKETCHINC
 40
1.0
  9
$FILLETRAD
 40
1.0
  9
$AUNITS
 70
     0
  9
$AUPREC
 70
     0
  9
$MENU
  1
.
  9
$ELEVATION
 40
0.0
  9
$PELEVATION
 40
0.0
  9
$THICKNESS
 40
0.0
  9
$LIMCHECK
 70
     0
  9
$CHAMFERA
 40
0.0
  9
$CHAMFERB
 40
0.0
  9
$CHAMFERC
 40
20.0
  9
$CHAMFERD
 40
0.0
  9
$SKPOLY
 70
     0
  9
$TDCREATE
 40
2454837.465145579
  9
$TDUCREATE
 40
2454837.090145578
  9
$TDUPDATE
 40
2456185.498824861
  9
$TDUUPDATE
 40
2456185.123824861
  9
$TDINDWG
 40
0.3748679977
  9
$TDUSRTIMER
 40
0.3748678125
  9
$USRTIMER
 70
     1
  9
$ANGBASE
 50
0.0
  9
$ANGDIR
 70
     0
  9
$PDMODE
 70
     0
  9
$PDSIZE
 40
-3.0
  9
$PLINEWID
 40
0.0
  9
$SPLFRAME
 70
     0
  9
$SPLINETYPE
 70
     6
  9
$SPLINESEGS
 70
     8
  9
$HANDSEED
  5
C861
  9
$SURFTAB1
 70
     6
  9
$SURFTAB2
 70
     6
  9
$SURFTYPE
 70
     6
  9
$SURFU
 70
     6
  9
$SURFV
 70
     6
  9
$UCSBASE
  2

  9
$UCSNAME
  2

  9
$UCSORG
 10
0.0
 20
0.0
 30
0.0
  9
$UCSXDIR
 10
1.0
 20
0.0
 30
0.0
  9
$UCSYDIR
 10
0.0
 20
1.0
 30
0.0
  9
$UCSORTHOREF
  2

  9
$UCSORTHOVIEW
 70
     0
  9
$UCSORGTOP
 10
0.0
 20
0.0
 30
0.0
  9
$UCSORGBOTTOM
 10
0.0
 20
0.0
 30
0.0
  9
$UCSORGLEFT
 10
0.0
 20
0.0
 30
0.0
  9
$UCSORGRIGHT
 10
0.0
 20
0.0
 30
0.0
  9
$UCSORGFRONT
 10
0.0
 20
0.0
 30
0.0
  9
$UCSORGBACK
 10
0.0
 20
0.0
 30
0.0
  9
$PUCSBASE
  2

  9
$PUCSNAME
  2

  9
$PUCSORG
 10
0.0
 20
0.0
 30
0.0
  9
$PUCSXDIR
 10
1.0
 20
0.0
 30
0.0
  9
$PUCSYDIR
 10
0.0
 20
1.0
 30
0.0
  9
$PUCSORTHOREF
  2

  9
$PUCSORTHOVIEW
 70
     0
  9
$PUCSORGTOP
 10
0.0
 20
0.0
 30
0.0
  9
$PUCSORGBOTTOM
 10
0.0
 20
0.0
 30
0.0
  9
$PUCSORGLEFT
 10
0.0
 20
0.0
 30
0.0
  9
$PUCSORGRIGHT
 10
0.0
 20
0.0
 30
0.0
  9
$PUCSORGFRONT
 10
0.0
 20
0.0
 30
0.0
  9
$PUCSORGBACK
 10
0.0
 20
0.0
 30
0.0
  9
$USERI1
 70
     0
  9
$USERI2
 70
     0
  9
$USERI3
 70
     0
  9
$USERI4
 70
     0
  9
$USERI5
 70
     0
  9
$USERR1
 40
0.0
  9
$USERR2
 40
0.0
  9
$USERR3
 40
0.0
  9
$USERR4
 40
0.0
  9
$USERR5
 40
0.0
  9
$WORLDVIEW
 70
     1
  9
$SHADEDGE
 70
     3
  9
$SHADEDIF
 70
    70
  9
$TILEMODE
 70
     1
  9
$MAXACTVP
 70
    64
  9
$PINSBASE
 10
0.0
 20
0.0
 30
0.0
  9
$PLIMCHECK
 70
     0
  9
$PEXTMIN
 10
1.000000000000000E+20
 20
1.000000000000000E+20
 30
1.000000000000000E+20
  9
$PEXTMAX
 10
-1.000000000000000E+20
 20
-1.000000000000000E+20
 30
-1.000000000000000E+20
  9
$PLIMMIN
 10
-3.17498779296875
 20
-3.174999952316284
  9
$PLIMMAX
 10
293.4970092773438
 20
206.692492723465
  9
$UNITMODE
 70
     0
  9
$VISRETAIN
 70
     1
  9
$PLINEGEN
 70
     0
  9
$PSLTSCALE
 70
     1
  9
$TREEDEPTH
 70
  3020
  9
$CMLSTYLE
  2
Standard
  9
$CMLJUST
 70
     0
  9
$CMLSCALE
 40
20.0
  9
$PROXYGRAPHICS
 70
     1
  9
$MEASUREMENT
 70
     1
  9
$CELWEIGHT
370
    -1
  9
$ENDCAPS
280
     0
  9
$JOINSTYLE
280
     0
  9
$LWDISPLAY
290
     1
  9
$INSUNITS
 70
     4
  9
$HYPERLINKBASE
  1

  9
$STYLESHEET
  1
monochrome.ctb
  9
$XEDIT
290
     1
  9
$CEPSNTYPE
380
     0
  9
$PSTYLEMODE
290
     1
  9
$FINGERPRINTGUID
  2
{7B40FA06-A080-4744-AA3D-6C68CB9C42CB}
  9
$VERSIONGUID
  2
{D92EF06A-BD6E-4DB9-B2D9-E0DFF9F1BCF9}
  9
$EXTNAMES
290
     1
  9
$PSVPSCALE
 40
0.0
  9
$OLESTARTUP
290
     0
  0
ENDSEC
  0
SECTION
  2
CLASSES
  0
CLASS
  1
ACDBDICTIONARYWDFLT
  2
AcDbDictionaryWithDefault
  3
ObjectDBX Classes
 90
        0
280
     0
281
     0
  0
CLASS
  1
ACDBPLACEHOLDER
  2
AcDbPlaceHolder
  3
ObjectDBX Classes
 90
        0
280
     0
281
     0
  0
CLASS
  1
LAYOUT
  2
AcDbLayout
  3
ObjectDBX Classes
 90
        0
280
     0
281
     0
  0
CLASS
  1
AMGSETTINGSOBJ
  2
AmgSettingsObj
  3
"AcadM|Product Description: AutoCAD Mechanical|Company: Autodesk"
 90
        0
280
     0
281
     0
  0
CLASS
  1
ACME_DOCUMENT
  2
AcMeDbDoc
  3
AcMeServices
 90
        0
280
     0
281
     0
  0
CLASS
  1
ACMESCOPE
  2
AcMeScope
  3
AcMeServices
 90
        0
280
     0
281
     0
  0
CLASS
  1
ACMECOMMANDHISTORY
  2
AcMeCommandHistory
  3
AcMeServices
 90
        0
280
     0
281
     0
  0
CLASS
  1
DICTIONARYVAR
  2
AcDbDictionaryVar
  3
ObjectDBX Classes
 90
        0
280
     0
281
     0
  0
CLASS
  1
ACIMSYSVARMAN
  2
AcImSysVarManager
  3
AcMeServices
 90
        0
280
     0
281
     0
  0
CLASS
  1
ACIMREALSYSVAR
  2
AcImRealSysVar
  3
AcMeServices
 90
        0
280
     0
281
     0
  0
CLASS
  1
ACIMINTSYSVAR
  2
AcImIntSysVar
  3
AcMeServices
 90
        0
280
     0
281
     0
  0
CLASS
  1
ACMEDRAWINGMAN
  2
AcMeDrawingMan
  3
AcMeServices
 90
        0
280
     0
281
     0
  0
CLASS
  1
ACMEVIEW
  2
AcMeView
  3
AcMeServices
 90
        0
280
     0
281
     0
  0
CLASS
  1
ACDBENTITYCACHE
  2
AcMeEntityCache
  3
AcMeServices
 90
        0
280
     0
281
     0
  0
CLASS
  1
GSMANAGER
  2
AcMeGSManager
  3
AcMeServices
 90
        0
280
     0
281
     0
  0
CLASS
  1
AMDTINTERNALREACTOR
  2
AmdtInternalReactor
  3
AcMeServices
 90
        0
280
     0
281
     0
  0
CLASS
  1
ACMESTATEMGR
  2
AcMeStateMgr
  3
AcMeServices
 90
        0
280
     0
281
     0
  0
CLASS
  1
ACGREFMASTER
  2
AcGrefMaster
  3
AcAttribServices
 90
        0
280
     0
281
     0
  0
CLASS
  1
ACME_DATABASE
  2
AcMeDbDatabase
  3
AcMeServices
 90
        0
280
     0
281
     0
  0
CLASS
  1
ACRFINSADJUSTERMGR
  2
AcRfInsAdjusterMgr
  3
AcMeServices
 90
        0
280
     0
281
     0
  0
CLASS
  1
ACGREFACADMASTER
  2
AcGrefacadMaster
  3
AcGrefServices
 90
        0
280
     0
281
     0
  0
CLASS
  1
AMIMASTER
  2
AmiMaster
  3
AmiServices
 90
        0
280
     0
281
     0
  0
CLASS
  1
ACMDATADICTIONARY
  2
AcmDataDictionary
  3
"AcmSymBB|Product Description: AutoCAD Mechanical|Company: Autodesk"
 90
        0
280
     0
281
     0
  0
CLASS
  1
ACMDATAENTRYBLOCK
  2
AcmDataEntryBlock
  3
"AcmSymBB|Product Description: AutoCAD Mechanical|Company: Autodesk"
 90
        0
280
     0
281
     0
  0
CLASS
  1
ACIMSTRSYSVAR
  2
AcImStrSysVar
  3
AcMeServices
 90
        0
280
     0
281
     0
  0
CLASS
  1
ACMSTANDARDISO
  2
AcmStandardISO
  3
"Amdt_StdImp|Product Description: AutoCAD Mechanical|Company: Autodesk"
 90
        0
280
     0
281
     0
  0
CLASS
  1
AMGOBJPROPCFG
  2
AmgObjPropCfg
  3
"AmgLay|Product Description: AutoCAD Mechanical|Company: Autodesk"
 90
        1
280
     0
281
     0
  0
CLASS
  1
AMDTEDGESTANDARDISO
  2
AmdtEdgeStdISO
  3
"Amdt_StdImp|Product Description: AutoCAD Mechanical|Company: Autodesk"
 90
        0
280
     0
281
     0
  0
CLASS
  1
ACMSURFSTANDARDISO
  2
AcmSurfTextStdISO
  3
"Amdt_StdImp|Product Description: AutoCAD Mechanical|Company: Autodesk"
 90
        0
280
     0
281
     0
  0
CLASS
  1
ACMFCFSTANDARDISO
  2
AcmFCFStdISO
  3
"Amdt_StdImp|Product Description: AutoCAD Mechanical|Company: Autodesk"
 90
        0
280
     0
281
     0
  0
CLASS
  1
ACMWELDSTANDARDISO
  2
AcmWeldingStdISO
  3
"Amdt_StdImp|Product Description: AutoCAD Mechanical|Company: Autodesk"
 90
        0
280
     0
281
     0
  0
CLASS
  1
ACMIDSTANDARDISO
  2
AcmIdStdISO
  3
"Amdt_StdImp|Product Description: AutoCAD Mechanical|Company: Autodesk"
 90
        0
280
     0
281
     0
  0
CLASS
  1
ACMDATUMSTANDARDISO
  2
AcmDatumStdISO
  3
"Amdt_StdImp|Product Description: AutoCAD Mechanical|Company: Autodesk"
 90
        0
280
     0
281
     0
  0
CLASS
  1
ACMBOMSTANDARDISO
  2
AcmBOMStdISO
  3
"Amdt_StdImp|Product Description: AutoCAD Mechanical|Company: Autodesk"
 90
        0
280
     0
281
     0
  0
CLASS
  1
ACMDETAILSTANDARDISO
  2
AmdtDetailSymStdISO
  3
"Amdt_StdImp|Product Description: AutoCAD Mechanical|Company: Autodesk"
 90
        0
280
     0
281
     0
  0
CLASS
  1
ACMSECTIONSTANDARDISO
  2
AmdtSectionSymStdISO
  3
"Amdt_StdImp|Product Description: AutoCAD Mechanical|Company: Autodesk"
 90
        0
280
     0
281
     0
  0
CLASS
  1
ACMCENTERLINESTANDARDISO
  2
AmdtCenterLineStdISO
  3
"Amdt_StdImp|Product Description: AutoCAD Mechanical|Company: Autodesk"
 90
        0
280
     0
281
     0
  0
CLASS
  1
ACAMGLAYSTD
  2
AcAmgLayStd
  3
"AmgLay|Product Description: AutoCAD Mechanical|Company: Autodesk"
 90
        0
280
     0
281
     0
  0
CLASS
  1
ACAMGDIMSTD
  2
AcAmgDimStd
  3
"AmgDim|Product Description: AutoCAD Mechanical|Company: Autodesk"
 90
        0
280
     0
281
     0
  0
CLASS
  1
ACAMGTITLESTD
  2
AcAmgTitleStd
  3
"AmgTitle|Product Description: AutoCAD Mechanical|Company: Autodesk"
 90
        0
280
     0
281
     0
  0
CLASS
  1
ACAMGFILTERDAT
  2
AcAmgFilterDat
  3
"AcadM|Product Description: AutoCAD Mechanical|Company: Autodesk"
 90
        0
280
     0
281
     0
  0
CLASS
  1
LAYER_INDEX
  2
AcDbLayerIndex
  3
ObjectDBX Classes
 90
    32768
280
     0
281
     0
  0
CLASS
  1
IDBUFFER
  2
AcDbIdBuffer
  3
ObjectDBX Classes
 90
    32768
280
     0
281
     0
  0
CLASS
  1
PLOTSETTINGS
  2
AcDbPlotSettings
  3
ObjectDBX Classes
 90
    32768
280
     0
281
     0
  0
CLASS
  1
AMDTFORMULAUPDATEDISPATCHER
  2
AmdtFormulaUpdateDispatcher
  3
AcMeServices
 90
        0
280
     0
281
     0
  0
CLASS
  1
ACMSTANDARDANSI
  2
AcmStandardANSI
  3
"Amdt_StdImp|Product Description: AutoCAD Mechanical|Company: Autodesk"
 90
    32768
280
     0
281
     0
  0
CLASS
  1
ACMSURFSTANDARDANSI
  2
AcmSurfTextStdANSI
  3
"Amdt_StdImp|Product Description: AutoCAD Mechanical|Company: Autodesk"
 90
    32768
280
     0
281
     0
  0
CLASS
  1
ACMFCFSTANDARDANSI
  2
AcmFCFStdANSI
  3
"Amdt_StdImp|Product Description: AutoCAD Mechanical|Company: Autodesk"
 90
    32768
280
     0
281
     0
  0
CLASS
  1
ACMWELDSTANDARDANSI
  2
AcmWeldingStdANSI
  3
"Amdt_StdImp|Product Description: AutoCAD Mechanical|Company: Autodesk"
 90
    32768
280
     0
281
     0
  0
CLASS
  1
ACMIDSTANDARDANSI
  2
AcmIdStdANSI
  3
"Amdt_StdImp|Product Description: AutoCAD Mechanical|Company: Autodesk"
 90
    32768
280
     0
281
     0
  0
CLASS
  1
ACMDATUMSTANDARDANSI
  2
AcmDatumStdANSI
  3
"Amdt_StdImp|Product Description: AutoCAD Mechanical|Company: Autodesk"
 90
    32768
280
     0
281
     0
  0
CLASS
  1
ACMBOMSTANDARDANSI
  2
AcmBOMStdANSI
  3
"Amdt_StdImp|Product Description: AutoCAD Mechanical|Company: Autodesk"
 90
    32768
280
     0
281
     0
  0
CLASS
  1
ACMDETAILSTANDARDANSI
  2
AmdtDetailSymStdANSI
  3
"Amdt_StdImp|Product Description: AutoCAD Mechanical|Company: Autodesk"
 90
    32768
280
     0
281
     0
  0
CLASS
  1
ACMSECTIONSTANDARDANSI
  2
AmdtSectionSymStdANSI
  3
"Amdt_StdImp|Product Description: AutoCAD Mechanical|Company: Autodesk"
 90
    32768
280
     0
281
     0
  0
CLASS
  1
ACMCENTERLINESTANDARDANSI
  2
AmdtCenterLineStdANSI
  3
"Amdt_StdImp|Product Description: AutoCAD Mechanical|Company: Autodesk"
 90
    32768
280
     0
281
     0
  0
CLASS
  1
ACMBOM
  2
AcmBom
  3
"AcmSymBB|Product Description: AutoCAD Mechanical|Company: Autodesk"
 90
        0
280
     0
281
     0
  0
CLASS
  1
ACMDATAENTRYPART
  2
AcmDataEntryPart
  3
"AcmSymBB|Product Description: AutoCAD Mechanical|Company: Autodesk"
 90
    32768
280
     0
281
     0
  0
CLASS
  1
ACMPARTREF
  2
AcmPartRef
  3
"AcmSymBB|Product Description: AutoCAD Mechanical|Company: Autodesk"
 90
    35839
280
     0
281
     1
  0
CLASS
  1
ACDBCIRCARCRES
  2
AcDbCircArcRes
  3
AcGrefServices
 90
    32768
280
     0
281
     0
  0
CLASS
  1
ACMBOMROW
  2
AcmBomRow
  3
"AcmSymBB|Product Description: AutoCAD Mechanical|Company: Autodesk"
 90
    32768
280
     0
281
     0
  0
CLASS
  1
ACMBALLOON
  2
AcmBalloon
  3
"AcmSymBB|Product Description: AutoCAD Mechanical|Company: Autodesk"
 90
    35839
280
     0
281
     1
  0
CLASS
  1
AMDTNOTE
  2
AmdtNote
  3
"AcmSymBB|Product Description: AutoCAD Mechanical|Company: Autodesk"
 90
    35839
280
     0
281
     1
  0
CLASS
  1
STDPART2D
  2
AmgStdPart
  3
"g3vace|Class: AmgStdPart|Product Description: AutoCAD Mechanical|Company: Autodesk"
 90
    35839
280
     0
281
     1
  0
CLASS
  1
ACDBSTDPARTRES_LINE
  2
AcDbStdPartRes_Line
  3
"g3vace|Class: AcDbStdPartRes_Line|Product Description: AutoCAD Mechanical|Company: Autodesk"
 90
    32768
280
     0
281
     0
  0
CLASS
  1
ACMDATAENTRY
  2
AcmDataEntry
  3
"AcmSymBB|Product Description: AutoCAD Mechanical|Company: Autodesk"
 90
        0
280
     0
281
     0
  0
CLASS
  1
ACDBOPPOLYLINERES
  2
AcDbOpPolylineRes
  3
AcGrefServices
 90
    32768
280
     0
281
     0
  0
CLASS
  1
ACMPARTLIST
  2
AcmPartList
  3
"AcmSymBB|Product Description: AutoCAD Mechanical|Company: Autodesk"
 90
    35839
280
     0
281
     1
  0
CLASS
  1
ACDBLINERES
  2
AcDbLineRes
  3
AcGrefServices
 90
    32768
280
     0
281
     0
  0
CLASS
  1
ACRFINSADJ
  2
AcRfInsAdjuster
  3
AcMeServices
 90
    32768
280
     0
281
     0
  0
CLASS
  1
AM_DRAWING_MGR
  2
AcDmDwgMgr
  3
AcMechDwgViewMgmt
 90
        0
280
     0
281
     0
  0
CLASS
  1
AM_DWG_DOCUMENT
  2
AcDmDwgDocument
  3
AcMechDwgViewMgmt
 90
        0
280
     0
281
     0
  0
CLASS
  1
AM_DWG_SHEET
  2
AcDmSheet
  3
AcMechDwgViewMgmt
 90
        0
280
     0
281
     0
  0
CLASS
  1
AM_VIEWDIMPARMAP
  2
AcDmViewDimParMap
  3
AcMechDwgViewMgmt
 90
        0
280
     0
281
     0
  0
CLASS
  1
AM_DWGMGR_NAME
  2
AcDmDwgMgrName
  3
AcMechDwgViewMgmt
 90
        0
280
     0
281
     0
  0
CLASS
  1
AMDTMENUSTATEMGR
  2
AmdtMenuStateMgr
  3
McadcomServices
 90
        0
280
     0
281
     0
  0
CLASS
  1
AMDTMCOMMENUSTATE
  2
AmdtMcomMenuState
  3
McadcomServices
 90
        0
280
     0
281
     0
  0
CLASS
  1
ASAPP
  2
AcAsAppObject
  3
AutoSurfServices
 90
        0
280
     0
281
     0
  0
CLASS
  1
IM_STATIC_MAN
  2
AcImStaticVarManager
  3
AcMeServices
 90
        0
280
     0
281
     0
  0
CLASS
  1
ACIMDBLSTATICVAR
  2
AcImDblStaticVar
  3
AcMeServices
 90
        0
280
     0
281
     0
  0
CLASS
  1
ACIMSTRSTATICVAR
  2
AcImStrStaticVar
  3
AcMeServices
 90
        0
280
     0
281
     0
  0
CLASS
  1
ACIMINTSTATICVAR
  2
AcImIntStaticVar
  3
AcMeServices
 90
        0
280
     0
281
     0
  0
CLASS
  1
ACASGREFMASTER
  2
AcAsGrefMaster
  3
AutoSurfResolverServices
 90
        0
280
     0
281
     0
  0
CLASS
  1
ACADGREFMODULE
  2
AcAdGrefModule
  3
AdGrefServices
 90
        0
280
     0
281
     0
  0
CLASS
  1
AMDTMAPISURFMOUDULE
  2
AmdtMApiSurfModule
  3
MApiSurfServices
 90
        0
280
     0
281
     0
  0
CLASS
  1
MAPIAMMOUDLE
  2
MApiAmModule
  3
MApiAmServices
 90
        0
280
     0
281
     0
  0
CLASS
  1
AMDTADMENUSTATE
  2
AmdtAdMenuState
  3
DesignerServices
 90
        0
280
     0
281
     0
  0
CLASS
  1
ADAPPL
  2
AcAdAppl
  3
DesignerServices
 90
        0
280
     0
281
     0
  0
CLASS
  1
DEPMGR
  2
AcAdDepMgr
  3
DesignerServices
 90
        0
280
     0
281
     0
  0
CLASS
  1
PARAMMGR
  2
AcAdParamMgr
  3
DesignerServices
 90
        0
280
     0
281
     0
  0
CLASS
  1
PARAMSCOPE
  2
AcAdParamScope
  3
DesignerServices
 90
        0
280
     0
281
     0
  0
CLASS
  1
NAMEDAPPL
  2
AcAdNamedAppl
  3
DesignerServices
 90
        0
280
     0
281
     0
  0
CLASS
  1
ADHNTMPLT
  2
AdHoleNoteTemplateMgr
  3
DesignerServices
 90
    32768
280
     0
281
     0
  0
CLASS
  1
AM_HNTEMPLATE_MGR_NAME
  2
AdHoleNoteTemplateMgrName
  3
DesignerServices
 90
    32768
280
     0
281
     0
  0
CLASS
  1
AMDTDMMENUSTATE
  2
AmdtDmMenuState
  3
AcMechDwgViewMgmt
 90
        0
280
     0
281
     0
  0
CLASS
  1
MAPIADMODULE
  2
MApiAdModule
  3
MApiAdServices
 90
        0
280
     0
281
     0
  0
CLASS
  1
AMDTAMMENUSTATE
  2
AmdtAmMenuState
  3
DesignerAssemblies
 90
        0
280
     0
281
     0
  0
CLASS
  1
ACAMPROJECT
  2
AcAmProject
  3
DesignerAssemblies
 90
        0
280
     0
281
     0
  0
CLASS
  1
ACAMGRCOMPDEF
  2
AcAmGrCompDef
  3
DesignerAssemblies
 90
        0
280
     0
281
     0
  0
CLASS
  1
ACCMCONTEXT
  2
AcCmContext
  3
DesignerAssemblies
 90
        0
280
     0
281
     0
  0
CLASS
  1
ACAMCOMPDEF
  2
AcAmCompDef
  3
DesignerAssemblies
 90
        0
280
     0
281
     0
  0
CLASS
  1
ACAMCOMPDEFMGR
  2
AcAmCompDefMgr
  3
DesignerAssemblies
 90
        0
280
     0
281
     0
  0
CLASS
  1
AMCONTEXTMGR
  2
AcAmContextMgr
  3
DesignerAssemblies
 90
        0
280
     0
281
     0
  0
CLASS
  1
ACAMCONTEXTMODELER
  2
AcAmContextModeler
  3
DesignerAssemblies
 90
        0
280
     0
281
     0
  0
CLASS
  1
CATALOGSTATE
  2
AcAmCatalogState
  3
DesignerAssemblies
 90
        0
280
     0
281
     0
  0
CLASS
  1
ACAMGRCOMPDEFSET
  2
AcAmGrCompDefSet
  3
DesignerAssemblies
 90
        0
280
     0
281
     0
  0
CLASS
  1
AMDTBROWSERDBTAB
  2
AmdtBrowserDbTab
  3
McadcomServices
 90
        0
280
     0
281
     0
  0
CLASS
  1
CBROWSERAPPOBJECT
  2
CBrowserAppObject
  3
McadcomServices
 90
        0
280
     0
281
     0
  0
CLASS
  1
DM_PLACEHOLDER
  2
AcDmSelsetPlaceholder
  3
AcMechDwgViewMgmt
 90
        0
280
     0
281
     0
  0
CLASS
  1
ACMPICKOBJ
  2
AcmPickEnt
  3
"AcmSymBB|Product Description: AutoCAD Mechanical|Company: Autodesk"
 90
    32768
280
     0
281
     1
  0
CLASS
  1
ACMNOTESTANDARDISO
  2
AmdtNoteStdISO
  3
"Amdt_StdImp|Product Description: AutoCAD Mechanical|Company: Autodesk"
 90
        0
280
     0
281
     0
  0
CLASS
  1
ACMNOTESTANDARDANSI
  2
AmdtNoteStdANSI
  3
"Amdt_StdImp|Product Description: AutoCAD Mechanical|Company: Autodesk"
 90
    32768
280
     0
281
     0
  0
CLASS
  1
ACMTHREADLINESTANDARDISO
  2
AmdtThreadLineStdISO
  3
"Amdt_StdImp|Product Description: AutoCAD Mechanical|Company: Autodesk"
 90
        0
280
     0
281
     0
  0
CLASS
  1
ACMTHREADLINESTANDARDANSI
  2
AmdtThreadLineStdANSI
  3
"Amdt_StdImp|Product Description: AutoCAD Mechanical|Company: Autodesk"
 90
    32768
280
     0
281
     0
  0
CLASS
  1
TABLESTYLE
  2
AcDbTableStyle
  3
ObjectDBX Classes
 90
     4095
280
     0
281
     0
  0
CLASS
  1
SORTENTSTABLE
  2
AcDbSortentsTable
  3
ObjectDBX Classes
 90
        0
280
     0
281
     0
  0
CLASS
  1
EXACXREFPANELOBJECT
  2
ExAcXREFPanelObject
  3
EXAC_ESW
 90
    32768
280
     0
281
     0
  0
CLASS
  1
DIMASSOC
  2
AcDbDimAssoc
  3
"AcDbDimAssoc|Product Desc:     AcDim ARX App For Dimension|Company:          Autodesk, Inc.|WEB Address:      www.autodesk.com"
 90
    32768
280
     0
281
     0
  0
CLASS
  1
MATERIAL
  2
AcDbMaterial
  3
ObjectDBX Classes
 90
     1024
280
     0
281
     0
  0
CLASS
  1
VISUALSTYLE
  2
AcDbVisualStyle
  3
ObjectDBX Classes
 90
     4095
280
     0
281
     0
  0
CLASS
  1
ACRFATTGENMGR
  2
AcRfAttGeneralMgr
  3
AcAttribServices
 90
        0
280
     0
281
     0
  0
CLASS
  1
ACRFOBJATTMGR
  2
AcRfObjAttGroupMgr
  3
AcAttribServices
 90
        0
280
     0
281
     0
  0
CLASS
  1
ACRFMCADAPIATTHOLDER
  2
AcRfMCADAPIAttHolder
  3
AcAttribServices
 90
        0
280
     0
281
     0
  0
CLASS
  1
AMDTSYSATTR
  2
AmdtSystemAttribute
  3
AcAttribServices
 90
        0
280
     0
281
     0
  0
CLASS
  1
ACMTAPERSTANDARDISO
  2
AcmTaperStdISO
  3
"Amdt_StdImp|Product Description: AutoCAD Mechanical|Company: Autodesk"
 90
        0
280
     0
281
     0
  0
CLASS
  1
CAMSSTRUCTBTNSTATE
  2
StructBtnState
  3
L"DesignerAssemblies"
 90
        0
280
     0
281
     0
  0
ENDSEC
  0
SECTION
  2
TABLES
  0
TABLE
  2
VPORT
  5
8
330
0
100
AcDbSymbolTable
 70
     1
  0
VPORT
  5
C812
330
8
100
AcDbSymbolTableRecord
100
AcDbViewportTableRecord
  2
*Active
 70
     0
 10
0.0
 20
0.0
 11
1.0
 21
1.0
 12
74.26342618137096
 22
52.47860125350303
 13
0.0
 23
0.0
 14
2.5
 24
2.5
 15
10.0
 25
10.0
 16
0.0
 26
0.0
 36
1.0
 17
0.0
 27
0.0
 37
0.0
 40
105.9858500257466
 41
1.723918575063613
 42
50.0
 43
-1370.695619172058
 44
-1370.695619172058
 50
0.0
 51
0.0
 71
    16
 72
   100
 73
     1
 74
     3
 75
     0
 76
     0
 77
     0
 78
     0
281
     0
 65
     0
110
0.0
120
0.0
130
0.0
111
1.0
121
0.0
131
0.0
112
0.0
122
1.0
132
0.0
 79
     0
146
0.0
  0
ENDTAB
  0
TABLE
  2
LTYPE
  5
5
330
0
100
AcDbSymbolTable
 70
    27
  0
LTYPE
  5
14
330
5
100
AcDbSymbolTableRecord
100
AcDbLinetypeTableRecord
  2
ByBlock
 70
     0
  3

 72
    65
 73
     0
 40
0.0
  0
LTYPE
  5
15
330
5
100
AcDbSymbolTableRecord
100
AcDbLinetypeTableRecord
  2
ByLayer
 70
     0
  3

 72
    65
 73
     0
 40
0.0
  0
LTYPE
  5
16
330
5
100
AcDbSymbolTableRecord
100
AcDbLinetypeTableRecord
  2
Continuous
 70
     0
  3
Solid line
 72
    65
 73
     0
 40
0.0
  0
LTYPE
  5
4F
330
5
100
AcDbSymbolTableRecord
100
AcDbLinetypeTableRecord
  2
AM_ISO02W050
 70
     0
  3
__ __ __ __ __ __ __ __ __ __ __ __ __ __ __
 72
    65
 73
     2
 40
7.5
 49
6.0
 74
     0
 49
-1.5
 74
     0
  0
LTYPE
  5
52
330
5
100
AcDbSymbolTableRecord
100
AcDbLinetypeTableRecord
  2
Amconstr
 70
     0
  3
_______________________
 72
    65
 73
     2
 40
9999.0
 49
9999.0
 74
     0
 49
0.0
 74
     0
  0
LTYPE
  5
64
330
5
100
AcDbSymbolTableRecord
100
AcDbLinetypeTableRecord
  2
ACISOWELD
 70
     0
  3
_ _ _ _ _
 72
    65
 73
     2
 40
2.0
 49
2.0
 74
     0
 49
-1.0
 74
     0
  0
LTYPE
  5
65
330
5
100
AcDbSymbolTableRecord
100
AcDbLinetypeTableRecord
  2
ACISOTGB
 70
     0
  3
__ . . __ . .
 72
    65
 73
     6
 40
9.0
 49
4.0
 74
     0
 49
-1.0
 74
     0
 49
1.0
 74
     0
 49
-1.0
 74
     0
 49
1.0
 74
     0
 49
-1.0
 74
     0
  0
LTYPE
  5
66
330
5
100
AcDbSymbolTableRecord
100
AcDbLinetypeTableRecord
  2
ACISOTGL
 70
     0
  3
_ _ _ _ _
 72
    65
 73
     2
 40
3.0
 49
2.0
 74
     0
 49
-1.0
 74
     0
  0
LTYPE
  5
69
330
5
100
AcDbSymbolTableRecord
100
AcDbLinetypeTableRecord
  2
CENTER
 70
     0
  3
__ . __
 72
    65
 73
     4
 40
7.0
 49
4.0
 74
     0
 49
-1.0
 74
     0
 49
1.0
 74
     0
 49
-1.0
 74
     0
  0
LTYPE
  5
A6E
330
5
100
AcDbSymbolTableRecord
100
AcDbLinetypeTableRecord
  2
PHANTOM2
 70
     0
  3
Phantom (.5x) ___ _ _ ___ _ _ ___ _ _ ___ _ _
 72
    65
 73
     6
 40
31.75
 49
15.875
 74
     0
 49
-3.174999999999999
 74
     0
 49
3.174999999999999
 74
     0
 49
-3.174999999999999
 74
     0
 49
3.174999999999999
 74
     0
 49
-3.174999999999999
 74
     0
  0
LTYPE
  5
4DED
330
5
100
AcDbSymbolTableRecord
100
AcDbLinetypeTableRecord
  2
中線
 70
     0
  3
___________________
 72
    65
 73
     2
 40
2.0
 49
1.0
 74
     0
 49
1.0
 74
     0
  0
LTYPE
  5
4DF6
330
5
100
AcDbSymbolTableRecord
100
AcDbLinetypeTableRecord
  2
細線
 70
     0
  3
___________________
 72
    65
 73
     2
 40
2.0
 49
1.0
 74
     0
 49
1.0
 74
     0
  0
LTYPE
  5
4DF7
330
5
100
AcDbSymbolTableRecord
100
AcDbLinetypeTableRecord
  2
太線
 70
     0
  3
___________________
 72
    65
 73
     2
 40
2.0
 49
1.0
 74
     0
 49
1.0
 74
     0
  0
LTYPE
  5
4EA7
330
5
100
AcDbSymbolTableRecord
100
AcDbLinetypeTableRecord
  2
文字
 70
     0
  3
_________________
 72
    65
 73
     2
 40
2.0
 49
1.0
 74
     0
 49
1.0
 74
     0
  0
LTYPE
  5
4EA9
330
5
100
AcDbSymbolTableRecord
100
AcDbLinetypeTableRecord
  2
寸法線
 70
     0
  3
________________
 72
    65
 73
     2
 40
2.0
 49
1.0
 74
     0
 49
1.0
 74
     0
  0
LTYPE
  5
4F12
330
5
100
AcDbSymbolTableRecord
100
AcDbLinetypeTableRecord
  2
ハッチング
 70
     0
  3
_________________
 72
    65
 73
     2
 40
2.0
 49
1.0
 74
     0
 49
1.0
 74
     0
  0
LTYPE
  5
5180
330
5
100
AcDbSymbolTableRecord
100
AcDbLinetypeTableRecord
  2
陰線1
 70
     0
  3
__ __ __ __
 72
    65
 73
     2
 40
4.0
 49
2.2
 74
     0
 49
-1.8
 74
     0
  0
LTYPE
  5
5182
330
5
100
AcDbSymbolTableRecord
100
AcDbLinetypeTableRecord
  2
切断線
 70
     0
  3
/\/-/\/-/\/-/\/-/\/-/\/
 72
    65
 73
     2
 40
11.0001
 49
0.0001
 74
     4
 75
   135
340
56
 46
0.04
 50
0.0
 44
0.0
 45
0.0
 49
-11.0
 74
     0
  0
LTYPE
  5
5183
330
5
100
AcDbSymbolTableRecord
100
AcDbLinetypeTableRecord
  2
想像線1
 70
     0
  3
__ __ __ _____ __ __ ____
 72
    65
 73
     6
 40
14.5
 49
6.0
 74
     0
 49
-1.5
 74
     0
 49
2.0
 74
     0
 49
-1.5
 74
     0
 49
2.0
 74
     0
 49
-1.5
 74
     0
  0
LTYPE
  5
5185
330
5
100
AcDbSymbolTableRecord
100
AcDbLinetypeTableRecord
  2
中心線1
 70
     0
  3
___ _ ___ _ ___
 72
    65
 73
     4
 40
18.0
 49
12.0
 74
     0
 49
-2.0
 74
     0
 49
2.0
 74
     0
 49
-2.0
 74
     0
  0
LTYPE
  5
5188
330
5
100
AcDbSymbolTableRecord
100
AcDbLinetypeTableRecord
  2
補助線
 70
     0
  3
______________
 72
    65
 73
     2
 40
2.0
 49
1.0
 74
     0
 49
1.0
 74
     0
  0
LTYPE
  5
6427
330
5
100
AcDbSymbolTableRecord
100
AcDbLinetypeTableRecord
  2
HIDDEN
 70
     0
  3
Hidden __ __ __ __ __ __ __ __ __ __ __ __ __ _
 72
    65
 73
     2
 40
0.375
 49
0.25
 74
     0
 49
-0.125
 74
     0
  0
LTYPE
  5
AC81
330
5
100
AcDbSymbolTableRecord
100
AcDbLinetypeTableRecord
  2
破断線
 70
     0
  3
/\/-/\/-/\/-/\/-/\/-/\/
 72
    65
 73
     2
 40
0.4401
 49
0.0001
 74
     4
 75
   136
340
AC80
 46
0.0016
 50
0.0
 44
0.0
 45
0.0
 49
-0.4400000000000001
 74
     0
  0
LTYPE
  5
AC9E
330
5
100
AcDbSymbolTableRecord
100
AcDbLinetypeTableRecord
  2
Amzigzag
 70
     0
  3
/\/-/\/-/\/-/\/-/\/-/\/
 72
    65
 73
     2
 40
11.0001
 49
0.0001
 74
     4
 75
   135
340
56
 46
0.04
 50
0.0
 44
0.0
 45
0.0
 49
-11.0
 74
     0
  0
LTYPE
  5
AF0F
330
5
100
AcDbSymbolTableRecord
100
AcDbLinetypeTableRecord
  2
genzigzag
 70
     0
  3
/\/-/\/-/\/-/\/-/\/-/\/
 72
    65
 73
     2
 40
12.0001
 49
0.0001
 74
     4
 75
   135
340
AC80
 46
2.0
 50
0.0
 44
0.0
 45
0.0
 49
-12.0
 74
     0
  0
LTYPE
  5
AF95
330
5
100
AcDbSymbolTableRecord
100
AcDbLinetypeTableRecord
  2
AM_ISO08W050
 70
     0
  3
____ . ____ . ____ . ____ . ____ . ____ . ____
 72
    65
 73
     4
 40
18.0
 49
12.0
 74
     0
 49
-1.5
 74
     0
 49
3.0
 74
     0
 49
-1.5
 74
     0
  0
LTYPE
  5
AF96
330
5
100
AcDbSymbolTableRecord
100
AcDbLinetypeTableRecord
  2
AM_ISO09W050
 70
     0
  3
_____ . . _____ . . _____ . . ____ .. ____
 72
    65
 73
     6
 40
22.5
 49
12.0
 74
     0
 49
-1.5
 74
     0
 49
3.0
 74
     0
 49
-1.5
 74
     0
 49
3.0
 74
     0
 49
-1.5
 74
     0
  0
LTYPE
  5
AF97
330
5
100
AcDbSymbolTableRecord
100
AcDbLinetypeTableRecord
  2
AM_ISO08W050x2
 70
     0
  3
__ . __ . __ . __ . __ . __
 72
    65
 73
     4
 40
9.0
 49
6.0
 74
     0
 49
-0.75
 74
     0
 49
1.5
 74
     0
 49
-0.75
 74
     0
  0
LTYPE
  5
AF98
330
5
100
AcDbSymbolTableRecord
100
AcDbLinetypeTableRecord
  2
AM_ISO02W050x2
 70
     0
  3
 _ _ _ _ _ _ _ _ _ _ _ _
 72
    65
 73
     2
 40
3.75
 49
3.0
 74
     0
 49
-0.75
 74
     0
  0
ENDTAB
  0
TABLE
  2
LAYER
  5
2
102
{ACAD_XDICTIONARY
360
3F95
102
}
330
0
100
AcDbSymbolTable
 70
    19
  0
LAYER
  5
10
330
2
100
AcDbSymbolTableRecord
100
AcDbLayerTableRecord
  2
0
 70
     0
 62
     7
  6
Continuous
370
    -3
390
F
  0
LAYER
  5
6D1
330
2
100
AcDbSymbolTableRecord
100
AcDbLayerTableRecord
  2
Defpoints
 70
     0
 62
     7
  6
Continuous
290
     0
370
    -3
390
F
  0
LAYER
  5
5F85
330
2
100
AcDbSymbolTableRecord
100
AcDbLayerTableRecord
  2
AM_0
 70
     0
 62
     7
  6
中線
370
    25
390
F
1001
AcAecLayerStandard
1000

1000

  0
LAYER
  5
AC9F
330
2
100
AcDbSymbolTableRecord
100
AcDbLayerTableRecord
  2
size
 70
     0
 62
     5
  6
Continuous
290
     0
370
    25
390
F
  0
LAYER
  5
ACA0
330
2
100
AcDbSymbolTableRecord
100
AcDbLayerTableRecord
  2
waku
 70
     0
 62
     7
  6
Continuous
370
    35
390
F
  0
LAYER
  5
ACA1
330
2
100
AcDbSymbolTableRecord
100
AcDbLayerTableRecord
  2
AM_6
 70
     0
 62
     2
  6
文字
370
    15
390
F
1001
AcAecLayerStandard
1000

1000

  0
LAYER
  5
ACC8
330
2
100
AcDbSymbolTableRecord
100
AcDbLayerTableRecord
  2
hyomoji
 70
     0
 62
     2
  6
Continuous
370
    15
390
F
  0
LAYER
  5
ACC9
330
2
100
AcDbSymbolTableRecord
100
AcDbLayerTableRecord
  2
hyosen1
 70
     0
 62
     1
  6
Continuous
370
    25
390
F
  0
LAYER
  5
ACCA
330
2
100
AcDbSymbolTableRecord
100
AcDbLayerTableRecord
  2
hyosen2
 70
     0
 62
     1
  6
Continuous
370
    15
390
F
  0
LAYER
  5
AD60
330
2
100
AcDbSymbolTableRecord
100
AcDbLayerTableRecord
  2
AM_1
 70
     0
 62
    30
  6
太線
370
    25
390
F
1001
AcAecLayerStandard
1000

1000

  0
LAYER
  5
AD64
330
2
100
AcDbSymbolTableRecord
100
AcDbLayerTableRecord
  2
AM_2
 70
     0
 62
     1
  6
細線
370
    15
390
F
1001
AcAecLayerStandard
1000

1000

  0
LAYER
  5
AD67
330
2
100
AcDbSymbolTableRecord
100
AcDbLayerTableRecord
  2
AM_3
 70
     0
 62
     6
  6
陰線1
370
    15
390
F
1001
AcAecLayerStandard
1000

1000

  0
LAYER
  5
AD68
330
2
100
AcDbSymbolTableRecord
100
AcDbLayerTableRecord
  2
AM_5
 70
     0
 62
     3
  6
寸法線
370
    15
390
F
1001
AcAecLayerStandard
1000

1000

  0
LAYER
  5
AD69
330
2
100
AcDbSymbolTableRecord
100
AcDbLayerTableRecord
  2
AM_7
 70
     0
 62
     4
  6
中心線1
370
    15
390
F
1001
AcAecLayerStandard
1000

1000

  0
LAYER
  5
AD6A
330
2
100
AcDbSymbolTableRecord
100
AcDbLayerTableRecord
  2
AM_8
 70
     0
 62
     1
  6
ハッチング
370
    15
390
F
1001
AcAecLayerStandard
1000

1000

  0
LAYER
  5
AD6E
330
2
100
AcDbSymbolTableRecord
100
AcDbLayerTableRecord
  2
AM_10
 70
     0
 62
     7
  6
genzigzag
370
    25
390
F
1001
AcAecLayerStandard
1000

1000

  0
LAYER
  5
AD6F
330
2
100
AcDbSymbolTableRecord
100
AcDbLayerTableRecord
  2
AM_11
 70
     0
 62
     2
  6
想像線1
370
    15
390
F
1001
AcAecLayerStandard
1000

1000

  0
LAYER
  5
C26E
330
2
100
AcDbSymbolTableRecord
100
AcDbLayerTableRecord
  2
AM_14
 70
     0
 62
     5
  6
細線
370
     9
390
F
1001
AcAecLayerStandard
1000

1000

  0
LAYER
  5
C34C
330
2
100
AcDbSymbolTableRecord
100
AcDbLayerTableRecord
  2
AM_CL
 70
     0
 62
     1
  6
Amconstr
370
    15
390
F
1001
AcAecLayerStandard
1000

1000

  0
ENDTAB
  0
TABLE
  2
STYLE
  5
3
330
0
100
AcDbSymbolTable
 70
     6
  0
STYLE
  5
11
330
3
100
AcDbSymbolTableRecord
100
AcDbTextStyleTableRecord
  2
STANDARD
 70
     0
 40
0.0
 41
0.7
 50
0.0
 71
     0
 42
3.2
  3
romans.shx
  4
extfont.shx
  0
STYLE
  5
56
330
3
100
AcDbSymbolTableRecord
100
AcDbTextStyleTableRecord
  2

 70
     1
 40
0.0
 41
1.0
 50
0.0
 71
     0
 42
2.5
  3
ltypeshp.shx
  4

  0
STYLE
  5
58
330
3
100
AcDbSymbolTableRecord
100
AcDbTextStyleTableRecord
  2
ACISOTS
 70
     0
 40
1.0
 41
1.0
 50
0.0
 71
     0
 42
2.5
  3
isocp.shx
  4
extfont.shx
  0
STYLE
  5
63
330
3
100
AcDbSymbolTableRecord
100
AcDbTextStyleTableRecord
  2
ACISOGDT
 70
     0
 40
0.0
 41
1.0
 50
0.0
 71
     0
 42
2.5
  3
amgdt.shx
  4

  0
STYLE
  5
A74
330
3
100
AcDbSymbolTableRecord
100
AcDbTextStyleTableRecord
  2
DIM
 70
     0
 40
0.0
 41
1.0
 50
0.0
 71
     0
 42
2.5
  3
monotxt.shx
  4
extfont.shx
  0
STYLE
  5
AC80
330
3
100
AcDbSymbolTableRecord
100
AcDbTextStyleTableRecord
  2

 70
     1
 40
0.0
 41
1.0
 50
0.0
 71
     0
 42
3.2
  3
genltshp.shx
  4

  0
ENDTAB
  0
TABLE
  2
VIEW
  5
6
330
0
100
AcDbSymbolTable
 70
     6
  0
VIEW
  5
AE1
330
6
100
AcDbSymbolTableRecord
100
AcDbViewTableRecord
  2
AM_VIEW1
 70
     0
 40
129.7276464542651
 10
1775.10588156276
 20
1793.121228859297
 41
148.5
 11
0.0
 21
0.0
 31
1.0
 12
0.0
 22
0.0
 32
0.0
 42
50.0
 43
-1370.695619172058
 44
-1370.695619172058
 50
0.0
 71
    16
281
     0
 72
     0
  0
VIEW
  5
AE2
330
6
100
AcDbSymbolTableRecord
100
AcDbViewTableRecord
  2
AM_VIEW2
 70
     0
 40
129.7276464542651
 10
1923.60588156276
 20
1793.121228859297
 41
148.5
 11
0.0
 21
0.0
 31
1.0
 12
0.0
 22
0.0
 32
0.0
 42
50.0
 43
-1370.695619172058
 44
-1370.695619172058
 50
0.0
 71
    16
281
     0
 72
     0
  0
VIEW
  5
AE3
330
6
100
AcDbSymbolTableRecord
100
AcDbViewTableRecord
  2
AM_VIEW3
 70
     0
 40
129.7276464542651
 10
1775.10588156276
 20
1712.848875313562
 41
148.5
 11
0.0
 21
0.0
 31
1.0
 12
0.0
 22
0.0
 32
0.0
 42
50.0
 43
-1370.695619172058
 44
-1370.695619172058
 50
0.0
 71
    16
281
     0
 72
     0
  0
VIEW
  5
AE4
330
6
100
AcDbSymbolTableRecord
100
AcDbViewTableRecord
  2
AM_VIEW4
 70
     0
 40
129.7276464542651
 10
1923.60588156276
 20
1712.848875313562
 41
148.5
 11
0.0
 21
0.0
 31
1.0
 12
0.0
 22
0.0
 32
0.0
 42
50.0
 43
-1370.695619172058
 44
-1370.695619172058
 50
0.0
 71
    16
281
     0
 72
     0
  0
VIEW
  5
AE5
330
6
100
AcDbSymbolTableRecord
100
AcDbViewTableRecord
  2
AM_VIEW5
 70
     0
 40
129.7276464542651
 10
1849.35588156276
 20
1752.985052086429
 41
148.5
 11
0.0
 21
0.0
 31
1.0
 12
0.0
 22
0.0
 32
0.0
 42
50.0
 43
-1370.695619172058
 44
-1370.695619172058
 50
0.0
 71
    16
281
     0
 72
     0
  0
VIEW
  5
AE6
330
6
100
AcDbSymbolTableRecord
100
AcDbViewTableRecord
  2
AM_VIEW6
 70
     0
 40
259.4526983556011
 10
1849.35588156276
 20
1752.985052086429
 41
296.99703
 11
0.0
 21
0.0
 31
1.0
 12
0.0
 22
0.0
 32
0.0
 42
50.0
 43
-1370.695619172058
 44
-1370.695619172058
 50
0.0
 71
    16
281
     0
 72
     0
  0
ENDTAB
  0
TABLE
  2
UCS
  5
7
330
0
100
AcDbSymbolTable
 70
     0
  0
ENDTAB
  0
TABLE
  2
APPID
  5
9
330
0
100
AcDbSymbolTable
 70
    61
  0
APPID
  5
12
330
9
100
AcDbSymbolTableRecord
100
AcDbRegAppTableRecord
  2
ACAD
 70
     0
  0
APPID
  5
30
330
9
100
AcDbSymbolTableRecord
100
AcDbRegAppTableRecord
  2
MCAD_NO_VIS
 70
     0
  0
APPID
  5
31
330
9
100
AcDbSymbolTableRecord
100
AcDbRegAppTableRecord
  2
ACAD_TEMP_GRAPHIC
 70
     0
  0
APPID
  5
44
330
9
100
AcDbSymbolTableRecord
100
AcDbRegAppTableRecord
  2
ACATTRIBSERVICES
 70
     0
  0
APPID
  5
7A1
330
9
100
AcDbSymbolTableRecord
100
AcDbRegAppTableRecord
  2
GENIUS_GENDIMSH_14
 70
     0
  0
APPID
  5
A49
330
9
100
AcDbSymbolTableRecord
100
AcDbRegAppTableRecord
  2
GENIUS_GENREC_14
 70
     0
  0
APPID
  5
A4A
330
9
100
AcDbSymbolTableRecord
100
AcDbRegAppTableRecord
  2
GENIUS_GENOBJ-N-REC_13
 70
     0
  0
APPID
  5
A4B
330
9
100
AcDbSymbolTableRecord
100
AcDbRegAppTableRecord
  2
GENIUS_GENODEF_13
 70
     0
  0
APPID
  5
A4C
330
9
100
AcDbSymbolTableRecord
100
AcDbRegAppTableRecord
  2
DCO15
 70
     0
  0
APPID
  5
ADC
330
9
100
AcDbSymbolTableRecord
100
AcDbRegAppTableRecord
  2
GENIUS_GENOLIS_13
 70
     0
  0
APPID
  5
ADD
330
9
100
AcDbSymbolTableRecord
100
AcDbRegAppTableRecord
  2
GENIUS_GENOENT_13
 70
     0
  0
APPID
  5
ADE
330
9
100
AcDbSymbolTableRecord
100
AcDbRegAppTableRecord
  2
GENIUS_GENOBJ-N-TIT_13
 70
     0
  0
APPID
  5
ADF
330
9
100
AcDbSymbolTableRecord
100
AcDbRegAppTableRecord
  2
GENIUS_GENTITLE_13
 70
     0
  0
APPID
  5
AE0
330
9
100
AcDbSymbolTableRecord
100
AcDbRegAppTableRecord
  2
GENIUS_GENOREF_13
 70
     0
  0
APPID
  5
AE7
330
9
100
AcDbSymbolTableRecord
100
AcDbRegAppTableRecord
  2
GENIUS_GENSCREG_15
 70
     0
  0
APPID
  5
AE8
330
9
100
AcDbSymbolTableRecord
100
AcDbRegAppTableRecord
  2
GENIUS_GENOBJ-N-SDF_13
 70
     0
  0
APPID
  5
FAF
330
9
100
AcDbSymbolTableRecord
100
AcDbRegAppTableRecord
  2
GENIUS_GENBLLY_14
 70
     0
  0
APPID
  5
FB0
330
9
100
AcDbSymbolTableRecord
100
AcDbRegAppTableRecord
  2
GENIUS_GENTRA_14
 70
     0
  0
APPID
  5
1285
330
9
100
AcDbSymbolTableRecord
100
AcDbRegAppTableRecord
  2
GENIUS_GENDTOL_13
 70
     0
  0
APPID
  5
142D
330
9
100
AcDbSymbolTableRecord
100
AcDbRegAppTableRecord
  2
GENIUS_GENOBJ-N-CEN_13
 70
     0
  0
APPID
  5
1AB5
330
9
100
AcDbSymbolTableRecord
100
AcDbRegAppTableRecord
  2
GENIUS_GENOBJ-N-CRS_13
 70
     0
  0
APPID
  5
1B36
330
9
100
AcDbSymbolTableRecord
100
AcDbRegAppTableRecord
  2
GENIUS_GENOBJ-N-HTC_13
 70
     0
  0
APPID
  5
1B37
330
9
100
AcDbSymbolTableRecord
100
AcDbRegAppTableRecord
  2
GENIUS_GENHATCH_13
 70
     0
  0
APPID
  5
216D
330
9
100
AcDbSymbolTableRecord
100
AcDbRegAppTableRecord
  2
GENIUS_GENOBJ-N-FIL_13
 70
     0
  0
APPID
  5
2356
330
9
100
AcDbSymbolTableRecord
100
AcDbRegAppTableRecord
  2
GEVID990412420
 70
     0
  0
APPID
  5
2357
330
9
100
AcDbSymbolTableRecord
100
AcDbRegAppTableRecord
  2
GEVDC
 70
     0
  0
APPID
  5
2358
330
9
100
AcDbSymbolTableRecord
100
AcDbRegAppTableRecord
  2
GEVCON
 70
     0
  0
APPID
  5
235B
330
9
100
AcDbSymbolTableRecord
100
AcDbRegAppTableRecord
  2
GEVRADREF
 70
     0
  0
APPID
  5
2360
330
9
100
AcDbSymbolTableRecord
100
AcDbRegAppTableRecord
  2
GENIUS_GENBH_13
 70
     0
  0
APPID
  5
2362
330
9
100
AcDbSymbolTableRecord
100
AcDbRegAppTableRecord
  2
GENIUS_GENOBJ-NBEHI-BHF_13
 70
     0
  0
APPID
  5
2364
330
9
100
AcDbSymbolTableRecord
100
AcDbRegAppTableRecord
  2
GENIUS_GENOBJ-NBEHI-BHB_13
 70
     0
  0
APPID
  5
2379
330
9
100
AcDbSymbolTableRecord
100
AcDbRegAppTableRecord
  2
GENIUS_GENOBJ-F-SCPASSM_13
 70
     0
  0
APPID
  5
3D74
330
9
100
AcDbSymbolTableRecord
100
AcDbRegAppTableRecord
  2
GENIUS_GENDIM_13
 70
     0
  0
APPID
  5
3D76
330
9
100
AcDbSymbolTableRecord
100
AcDbRegAppTableRecord
  2
GENIUS_GE3DTOL_13
 70
     0
  0
APPID
  5
3D9C
330
9
100
AcDbSymbolTableRecord
100
AcDbRegAppTableRecord
  2
AD_DRAW
 70
     0
  0
APPID
  5
3DE8
330
9
100
AcDbSymbolTableRecord
100
AcDbRegAppTableRecord
  2
ASURF_PCURVE_APPNAME
 70
     0
  0
APPID
  5
3DED
330
9
100
AcDbSymbolTableRecord
100
AcDbRegAppTableRecord
  2
AMG_3D2D_5.0
 70
     0
  0
APPID
  5
3E1B
330
9
100
AcDbSymbolTableRecord
100
AcDbRegAppTableRecord
  2
DESIGNERASSEMBLIES
 70
     0
  0
APPID
  5
3E20
330
9
100
AcDbSymbolTableRecord
100
AcDbRegAppTableRecord
  2
ACADM_DIM_EDIT
 70
     0
  0
APPID
  5
3E21
330
9
100
AcDbSymbolTableRecord
100
AcDbRegAppTableRecord
  2
AMDT_DM_ADJ
 70
     0
  0
APPID
  5
4143
330
9
100
AcDbSymbolTableRecord
100
AcDbRegAppTableRecord
  2
GENIUS_GENFIL_13
 70
     0
  0
APPID
  5
4144
330
9
100
AcDbSymbolTableRecord
100
AcDbRegAppTableRecord
  2
GENIUS_GENOBJ-N-CHA_13
 70
     0
  0
APPID
  5
4E17
330
9
100
AcDbSymbolTableRecord
100
AcDbRegAppTableRecord
  2
GEVID1008153417
 70
     0
  0
APPID
  5
4E58
330
9
100
AcDbSymbolTableRecord
100
AcDbRegAppTableRecord
  2
GEVID1008153418
 70
     0
  0
APPID
  5
4E5E
330
9
100
AcDbSymbolTableRecord
100
AcDbRegAppTableRecord
  2
GEVID1008153419
 70
     0
  0
APPID
  5
4E64
330
9
100
AcDbSymbolTableRecord
100
AcDbRegAppTableRecord
  2
GEVID1008153420
 70
     0
  0
APPID
  5
4E75
330
9
100
AcDbSymbolTableRecord
100
AcDbRegAppTableRecord
  2
GEVID1008153421
 70
     0
  0
APPID
  5
4EB7
330
9
100
AcDbSymbolTableRecord
100
AcDbRegAppTableRecord
  2
GENIUS_AMGTXT_16
 70
     0
  0
APPID
  5
7645
330
9
100
AcDbSymbolTableRecord
100
AcDbRegAppTableRecord
  2
GENIUS_GENOBJ-N-DIM_13
 70
     0
  0
APPID
  5
AAD0
330
9
100
AcDbSymbolTableRecord
100
AcDbRegAppTableRecord
  2
ACAD_DSTYLE_DIMARC_LENGTH_SYMBOL
 70
     0
  0
APPID
  5
AAD1
330
9
100
AcDbSymbolTableRecord
100
AcDbRegAppTableRecord
  2
ACAD_DSTYLE_DIMJOGGED_JOGANGLE_SYMBOL
 70
     0
  0
APPID
  5
AAFD
330
9
100
AcDbSymbolTableRecord
100
AcDbRegAppTableRecord
  2
ACAD_PSEXT
 70
     0
  0
APPID
  5
AD61
330
9
100
AcDbSymbolTableRecord
100
AcDbRegAppTableRecord
  2
AcAecLayerStandard
 70
     0
  0
APPID
  5
AEE3
330
9
100
AcDbSymbolTableRecord
100
AcDbRegAppTableRecord
  2
ACAD_EXEMPT_FROM_CAD_STANDARDS
 70
     0
  0
APPID
  5
B0F5
330
9
100
AcDbSymbolTableRecord
100
AcDbRegAppTableRecord
  2
ACAD_DSTYLE_DIMTEXT_FILL
 70
     0
  0
APPID
  5
B0F6
330
9
100
AcDbSymbolTableRecord
100
AcDbRegAppTableRecord
  2
ACAD_DSTYLE_DIMEXT_LENGTH
 70
     0
  0
APPID
  5
B0F7
330
9
100
AcDbSymbolTableRecord
100
AcDbRegAppTableRecord
  2
ACAD_DSTYLE_DIMEXT_ENABLED
 70
     0
  0
APPID
  5
B0F8
330
9
100
AcDbSymbolTableRecord
100
AcDbRegAppTableRecord
  2
ACAD_DSTYLE_DIM_LINETYPE
 70
     0
  0
APPID
  5
B0F9
330
9
100
AcDbSymbolTableRecord
100
AcDbRegAppTableRecord
  2
ACAD_DSTYLE_DIM_EXT1_LINETYPE
 70
     0
  0
APPID
  5
B0FA
330
9
100
AcDbSymbolTableRecord
100
AcDbRegAppTableRecord
  2
ACAD_DSTYLE_DIM_EXT2_LINETYPE
 70
     0
  0
APPID
  5
C464
330
9
100
AcDbSymbolTableRecord
100
AcDbRegAppTableRecord
  2
GENIUS_GENCEN_19
 70
     0
  0
ENDTAB
  0
TABLE
  2
DIMSTYLE
  5
A
330
0
100
AcDbSymbolTable
 70
    17
100
AcDbDimStyleTable
 71
     3
340
2515
340
251A
340
251B
  0
DIMSTYLE
105
A76
330
A
100
AcDbSymbolTableRecord
100
AcDbDimStyleTableRecord
  2
STANDARD
 70
     0
 41
3.0
 42
1.0
 43
7.0
 44
2.0
 73
     0
 74
     0
 77
     1
140
2.799999999999999
141
0.0
143
0.0394
147
0.7
171
     4
172
     1
173
     1
176
     3
177
     3
178
     2
271
     3
272
     3
273
     8
274
     4
289
     0
340
A74
341
A66
343
A66
344
A66
  0
DIMSTYLE
105
2515
330
A
100
AcDbSymbolTableRecord
100
AcDbDimStyleTableRecord
  2
SYS
 70
     0
  4
"
 41
1.0
 42
1.0
 43
10.0
 44
1.0
 47
0.1
 48
0.1
 73
     0
 74
     0
 77
     1
 78
     8
 79
     2
140
3.5
141
0.0
143
0.0393701
146
0.71
147
1.5
172
     1
176
   256
177
   256
178
     7
271
     2
272
     2
283
     0
284
     8
340
11
371
    -1
372
    -1
1001
ACAD_DSTYLE_DIMJOGGED_JOGANGLE_SYMBOL
1070
   384
1040
0.7853981633974483
1001
ACAD_DSTYLE_DIMARC_LENGTH_SYMBOL
1070
   379
1070
     1
  0
DIMSTYLE
105
2516
330
A
100
AcDbSymbolTableRecord
100
AcDbDimStyleTableRecord
  2
SYS$3
 70
     0
  4
"
 41
2.0
 42
1.0
 43
10.0
 44
1.0
 47
0.1
 48
0.1
 73
     0
 77
     1
 78
     8
 79
     2
140
3.200000000000001
141
0.0
143
0.0393701
146
0.71
147
1.5
176
   256
177
   256
178
     2
271
     2
272
     2
283
     0
284
     8
288
     1
340
11
342
A66
371
    -1
372
    -1
1001
ACAD_DSTYLE_DIMJOGGED_JOGANGLE_SYMBOL
1070
   384
1040
0.7853981633974483
1001
ACAD_DSTYLE_DIMARC_LENGTH_SYMBOL
1070
   379
1070
     1
1001
ACAD_DSTYLE_DIMEXT_LENGTH
1070
   378
1040
0.0
  0
DIMSTYLE
105
2517
330
A
100
AcDbSymbolTableRecord
100
AcDbDimStyleTableRecord
  2
SYS$4
 70
     0
  4
"
 41
2.0
 42
1.0
 43
10.0
 44
1.0
 47
0.1
 48
0.1
 73
     0
 77
     1
 78
     8
 79
     2
140
3.200000000000001
141
0.0
143
0.0393701
146
0.71
147
1.5
173
     1
176
   256
177
   256
178
     2
271
     2
272
     2
283
     0
284
     8
288
     1
340
11
344
A66
371
    -1
372
    -1
1001
ACAD_DSTYLE_DIMJOGGED_JOGANGLE_SYMBOL
1070
   384
1040
0.7853981633974483
1001
ACAD_DSTYLE_DIMARC_LENGTH_SYMBOL
1070
   379
1070
     1
1001
ACAD_DSTYLE_DIMEXT_LENGTH
1070
   378
1040
0.0
  0
DIMSTYLE
105
2518
330
A
100
AcDbSymbolTableRecord
100
AcDbDimStyleTableRecord
  2
SYS$6
 70
     0
  4
"
 41
2.0
 42
1.0
 43
10.0
 44
1.0
 47
0.1
 48
0.1
 73
     0
 74
     0
 78
     8
 79
     2
140
3.200000000000001
141
0.0
143
0.0393701
146
0.71
147
1.5
172
     1
176
   256
177
   256
178
     2
271
     2
272
     2
283
     0
284
     8
340
11
341
A66
371
    -1
372
    -1
1001
ACAD_DSTYLE_DIMJOGGED_JOGANGLE_SYMBOL
1070
   384
1040
0.7853981633974483
1001
ACAD_DSTYLE_DIMARC_LENGTH_SYMBOL
1070
   379
1070
     1
1001
ACAD_DSTYLE_DIMEXT_LENGTH
1070
   378
1040
0.0
  0
DIMSTYLE
105
2519
330
A
100
AcDbSymbolTableRecord
100
AcDbDimStyleTableRecord
  2
SYS$7
 70
     0
  4
"
 41
2.0
 42
1.0
 43
10.0
 44
1.0
 47
0.1
 48
0.1
 73
     0
 74
     0
 77
     1
 78
     8
 79
     2
140
3.200000000000006
141
0.0
143
0.0393701
146
0.71
147
1.5
172
     1
176
   256
177
   256
178
     2
271
     2
272
     2
283
     0
284
     8
340
11
341
A66
342
A66
371
    -1
372
    -1
1001
ACAD_DSTYLE_DIMJOGGED_JOGANGLE_SYMBOL
1070
   384
1040
0.7853981633974483
1001
ACAD_DSTYLE_DIMARC_LENGTH_SYMBOL
1070
   379
1070
     1
1001
ACAD_DSTYLE_DIMEXT_LENGTH
1070
   378
1040
0.0
  0
DIMSTYLE
105
251A
330
A
100
AcDbSymbolTableRecord
100
AcDbDimStyleTableRecord
  2
SYS$SF
 70
     0
  4
"
 41
2.5
 42
1.0
 43
10.0
 44
1.0
 47
0.1
 48
0.1
 73
     0
 74
     0
 75
     1
 76
     1
 77
     1
 78
     8
 79
     2
140
3.200000000000001
141
0.0
143
0.0393701
146
0.71
147
1.5
172
     1
176
   256
177
   256
178
     2
271
     2
272
     2
283
     0
284
     8
340
11
341
6C4
342
6C4
371
    -1
372
    -1
1001
ACAD_DSTYLE_DIMJOGGED_JOGANGLE_SYMBOL
1070
   384
1040
0.7853981633974483
1001
ACAD_DSTYLE_DIMARC_LENGTH_SYMBOL
1070
   379
1070
     1
1001
ACAD_DSTYLE_DIMEXT_LENGTH
1070
   378
1040
0.0
  0
DIMSTYLE
105
251B
330
A
100
AcDbSymbolTableRecord
100
AcDbDimStyleTableRecord
  2
SYS$SH
 70
     0
  4
"
 41
2.5
 42
1.0
 43
10.0
 44
1.0
 47
0.1
 48
0.1
 73
     0
 74
     0
 75
     1
 76
     1
 77
     1
 78
     8
 79
     2
140
3.200000000000001
141
0.0
143
0.0393701
144
2.0
146
0.71
147
1.5
172
     1
173
     1
176
   256
177
   256
178
     2
271
     2
272
     2
283
     0
284
     8
340
11
341
6C4
343
72
344
6C4
371
    -1
372
    -1
1001
ACAD_DSTYLE_DIMJOGGED_JOGANGLE_SYMBOL
1070
   384
1040
0.7853981633974483
1001
ACAD_DSTYLE_DIMARC_LENGTH_SYMBOL
1070
   379
1070
     1
1001
ACAD_DSTYLE_DIMEXT_LENGTH
1070
   378
1040
0.0
  0
DIMSTYLE
105
2A59
330
A
100
AcDbSymbolTableRecord
100
AcDbDimStyleTableRecord
  2
SYS$2
 70
     0
  4
"
 41
1.0
 42
1.0
 43
10.0
 44
1.0
 47
0.1
 48
0.1
 73
     0
 74
     0
 77
     1
 78
     8
 79
     2
140
3.200000000000001
141
0.0
143
0.0393701
146
0.71
147
1.5
172
     1
176
   256
177
   256
178
     2
271
     2
272
     2
283
     0
284
     8
340
11
342
6C4
371
    -1
372
    -1
1001
ACAD_DSTYLE_DIMJOGGED_JOGANGLE_SYMBOL
1070
   384
1040
0.7853981633974483
1001
ACAD_DSTYLE_DIMARC_LENGTH_SYMBOL
1070
   379
1070
     1
1001
ACAD_DSTYLE_DIMEXT_LENGTH
1070
   378
1040
0.0
  0
DIMSTYLE
105
2AAB
102
{ACAD_REACTORS
330
C316
330
C319
102
}
330
A
100
AcDbSymbolTableRecord
100
AcDbDimStyleTableRecord
  2
SYS$0
 70
     0
  4
"
 41
1.0
 42
1.0
 43
10.0
 44
1.0
 47
0.1
 48
0.1
 73
     0
 74
     0
 77
     1
 78
     8
 79
     2
140
3.200000000000001
141
0.0
143
0.0393701
146
0.71
147
1.5
172
     1
176
   256
177
   256
178
     2
271
     2
272
     2
283
     0
284
     8
340
11
341
A66
342
6C4
371
    -1
372
    -1
1001
ACAD_DSTYLE_DIMJOGGED_JOGANGLE_SYMBOL
1070
   384
1040
0.7853981633974483
1001
ACAD_DSTYLE_DIMARC_LENGTH_SYMBOL
1070
   379
1070
     1
1001
ACAD_DSTYLE_DIMEXT_LENGTH
1070
   378
1040
0.0
  0
DIMSTYLE
105
AF99
330
A
100
AcDbSymbolTableRecord
100
AcDbDimStyleTableRecord
  2
AM_ISO
 70
     0
  4
"
 41
2.5
 42
1.0
 43
10.0
 44
1.0
 47
0.1
 48
0.1
 73
     0
 74
     0
 77
     1
 78
     8
 79
     2
140
3.5
141
0.0
143
0.0393701
146
0.71
147
1.5
172
     1
176
   256
177
   256
178
     2
271
     2
272
     3
274
     4
283
     0
284
     8
340
11
371
    -1
372
    -1
  0
DIMSTYLE
105
AF9A
330
A
100
AcDbSymbolTableRecord
100
AcDbDimStyleTableRecord
  2
AM_ISO$3
 70
     0
  4
"
 41
2.5
 42
1.0
 43
10.0
 44
1.0
 47
0.1
 48
0.1
 73
     0
 77
     1
 78
     8
 79
     2
140
3.5
141
0.0
143
0.0393701
146
0.71
147
1.5
176
   256
177
   256
178
     2
271
     2
272
     3
274
     4
283
     0
284
     8
288
     1
289
     0
340
11
371
    -1
372
    -1
  0
DIMSTYLE
105
AF9B
330
A
100
AcDbSymbolTableRecord
100
AcDbDimStyleTableRecord
  2
AM_ISO$4
 70
     0
  4
"
 41
2.5
 42
1.0
 43
10.0
 44
1.0
 47
0.1
 48
0.1
 73
     0
 77
     1
 78
     8
 79
     2
140
3.5
141
0.0
143
0.0393701
146
0.71
147
1.5
176
   256
177
   256
178
     2
271
     2
272
     3
274
     4
283
     0
284
     8
288
     1
289
     0
340
11
371
    -1
372
    -1
  0
DIMSTYLE
105
AF9C
330
A
100
AcDbSymbolTableRecord
100
AcDbDimStyleTableRecord
  2
AM_ISO$6
 70
     0
  4
"
 41
2.5
 42
1.0
 43
10.0
 44
1.0
 47
0.1
 48
0.1
 73
     0
 74
     0
 78
     8
 79
     2
140
3.5
141
0.0
143
0.0393701
146
0.71
147
1.5
172
     1
176
   256
177
   256
178
     2
271
     2
272
     3
274
     4
283
     0
284
     8
340
11
371
    -1
372
    -1
  0
DIMSTYLE
105
AF9D
330
A
100
AcDbSymbolTableRecord
100
AcDbDimStyleTableRecord
  2
AM_ISO$7
 70
     0
  4
"
 41
2.5
 42
1.0
 43
10.0
 44
1.0
 47
0.1
 48
0.1
 73
     0
 74
     0
 77
     1
 78
     8
 79
     2
140
5.0
141
0.0
143
0.0393701
146
0.71
147
1.5
172
     1
176
   256
177
   256
178
     2
271
     2
272
     3
274
     4
283
     0
284
     8
340
11
371
    -1
372
    -1
  0
DIMSTYLE
105
AF9E
330
A
100
AcDbSymbolTableRecord
100
AcDbDimStyleTableRecord
  2
AM_ISO$SF
 70
     0
  4
"
 41
2.5
 42
1.0
 43
10.0
 44
1.0
 47
0.1
 48
0.1
 73
     0
 74
     0
 75
     1
 76
     1
 77
     1
 78
     8
 79
     2
140
3.5
141
0.0
143
0.0393701
146
0.71
147
1.5
172
     1
176
   256
177
   256
178
     2
271
     2
272
     3
274
     4
283
     0
284
     8
340
11
371
    -1
372
    -1
  0
DIMSTYLE
105
AF9F
330
A
100
AcDbSymbolTableRecord
100
AcDbDimStyleTableRecord
  2
AM_ISO$SH
 70
     0
  4
"
 41
2.5
 42
1.0
 43
10.0
 44
1.0
 47
0.1
 48
0.1
 73
     0
 74
     0
 75
     1
 76
     1
 77
     1
 78
     8
 79
     2
140
3.5
141
0.0
143
0.0393701
144
2.0
146
0.71
147
1.5
172
     1
173
     1
176
   256
177
   256
178
     2
271
     2
272
     3
274
     4
283
     0
284
     8
340
11
343
72
371
    -1
372
    -1
  0
ENDTAB
  0
TABLE
  2
BLOCK_RECORD
  5
1
330
0
100
AcDbSymbolTable
 70
     8
  0
BLOCK_RECORD
  5
1F
102
{ACAD_XDICTIONARY
360
8A
102
}
330
1
100
AcDbSymbolTableRecord
100
AcDbBlockTableRecord
  2
*Model_Space
340
22
  0
BLOCK_RECORD
  5
1B
330
1
100
AcDbSymbolTableRecord
100
AcDbBlockTableRecord
  2
*Paper_Space
340
1E
  0
BLOCK_RECORD
  5
23
330
1
100
AcDbSymbolTableRecord
100
AcDbBlockTableRecord
  2
*Paper_Space0
340
26
  0
BLOCK_RECORD
  5
72
330
1
100
AcDbSymbolTableRecord
100
AcDbBlockTableRecord
  2
GENAXEH
340
0
  0
BLOCK_RECORD
  5
6C4
330
1
100
AcDbSymbolTableRecord
100
AcDbBlockTableRecord
  2
_Dot
340
0
102
{BLKREFS
331
C511
331
C512
331
C51A
331
C51B
102
}
  0
BLOCK_RECORD
  5
A66
330
1
100
AcDbSymbolTableRecord
100
AcDbBlockTableRecord
  2
_OPEN30
340
0
  0
BLOCK_RECORD
  5
C31C
330
1
100
AcDbSymbolTableRecord
100
AcDbBlockTableRecord
  2
*D5
340
0
  0
BLOCK_RECORD
  5
C326
330
1
100
AcDbSymbolTableRecord
100
AcDbBlockTableRecord
  2
*D6
340
0
  0
BLOCK_RECORD
  5
C64F
102
{ACAD_XDICTIONARY
360
C68B
102
}
330
1
100
AcDbSymbolTableRecord
100
AcDbBlockTableRecord
  2
A$C1F401AFE
340
0
1001
ACAD
1000
DesignCenter Data
1002
{
1070
     1
1070
     4
1002
}
  0
ENDTAB
  0
ENDSEC
  0
SECTION
  2
BLOCKS
  0
BLOCK
  5
20
330
1F
100
AcDbEntity
  8
0
100
AcDbBlockBegin
  2
*Model_Space
 70
     0
 10
0.0
 20
0.0
 30
0.0
  3
*Model_Space
  1

  0
ENDBLK
  5
21
330
1F
100
AcDbEntity
  8
0
100
AcDbBlockEnd
  0
BLOCK
  5
1C
330
1B
100
AcDbEntity
 67
     1
  8
0
100
AcDbBlockBegin
  2
*Paper_Space
 70
     0
 10
0.0
 20
0.0
 30
0.0
  3
*Paper_Space
  1

  0
ENDBLK
  5
1D
330
1B
100
AcDbEntity
 67
     1
  8
0
100
AcDbBlockEnd
  0
BLOCK
  5
24
330
23
100
AcDbEntity
 67
     1
  8
0
100
AcDbBlockBegin
  2
*Paper_Space0
 70
     0
 10
0.0
 20
0.0
 30
0.0
  3
*Paper_Space0
  1

  0
ENDBLK
  5
25
330
23
100
AcDbEntity
 67
     1
  8
0
100
AcDbBlockEnd
  0
BLOCK
  5
74
330
72
100
AcDbEntity
  8
0
100
AcDbBlockBegin
  2
GENAXEH
 70
     0
 10
0.0
 20
0.0
 30
0.0
  3
GENAXEH
  1

  0
LINE
  5
73
330
72
100
AcDbEntity
  8
0
100
AcDbLine
 10
-1.0
 20
0.0
 30
0.0
 11
1.0
 21
0.0
 31
0.0
  0
ENDBLK
  5
75
330
72
100
AcDbEntity
  8
0
100
AcDbBlockEnd
  0
BLOCK
  5
6C7
330
6C4
100
AcDbEntity
  8
0
100
AcDbBlockBegin
  2
_Dot
 70
     0
 10
0.0
 20
0.0
 30
0.0
  3
_Dot
  1

  0
LWPOLYLINE
  5
6C5
330
6C4
100
AcDbEntity
  8
0
  6
ByBlock
 62
     0
100
AcDbPolyline
 90
        2
 70
     1
 43
0.5
 10
-0.25
 20
0.0
 42
1.0
 10
0.25
 20
0.0
 42
1.0
  0
LINE
  5
6C6
330
6C4
100
AcDbEntity
  8
0
  6
ByBlock
 62
     0
370
    -2
100
AcDbLine
 10
-0.5
 20
0.0
 30
0.0
 11
-1.0
 21
0.0
 31
0.0
  0
ENDBLK
  5
6C8
330
6C4
100
AcDbEntity
  8
0
100
AcDbBlockEnd
  0
BLOCK
  5
A6A
330
A66
100
AcDbEntity
  8
0
100
AcDbBlockBegin
  2
_OPEN30
 70
     0
 10
0.0
 20
0.0
 30
0.0
  3
_OPEN30
  1

  0
LINE
  5
A67
330
A66
100
AcDbEntity
  8
0
  6
ByBlock
 62
     0
100
AcDbLine
 10
-1.0
 20
0.26794919
 30
0.0
 11
0.0
 21
0.0
 31
0.0
  0
LINE
  5
A68
330
A66
100
AcDbEntity
  8
0
  6
ByBlock
 62
     0
100
AcDbLine
 10
0.0
 20
0.0
 30
0.0
 11
-1.0
 21
-0.26794919
 31
0.0
  0
LINE
  5
A69
330
A66
100
AcDbEntity
  8
0
  6
ByBlock
 62
     0
100
AcDbLine
 10
0.0
 20
0.0
 30
0.0
 11
-1.0
 21
0.0
 31
0.0
  0
ENDBLK
  5
A6B
330
A66
100
AcDbEntity
  8
0
100
AcDbBlockEnd
  0
BLOCK
  5
C330
330
C31C
100
AcDbEntity
  8
0
100
AcDbBlockBegin
  2
*D5
 70
     1
 10
0.0
 20
0.0
 30
0.0
  3
*D5
  1

  0
LINE
  5
C50E
330
C31C
100
AcDbEntity
  8
AM_5
100
AcDbLine
 10
61.43354576980097
 20
39.04054848517276
 30
0.0
 11
61.43354576980097
 21
33.04054848517276
 31
0.0
  0
LINE
  5
C50F
330
C31C
100
AcDbEntity
  8
AM_5
100
AcDbLine
 10
71.43354576980096
 20
39.04054848517276
 30
0.0
 11
71.43354576980096
 21
33.04054848517276
 31
0.0
  0
LINE
  5
C510
330
C31C
100
AcDbEntity
  8
AM_5
100
AcDbLine
 10
61.93354576980096
 20
33.54054848517276
 30
0.0
 11
70.93354576980096
 21
33.54054848517276
 31
0.0
  0
INSERT
  5
C511
330
C31C
100
AcDbEntity
  8
AM_5
100
AcDbBlockReference
  2
_Dot
 10
61.43354576980097
 20
33.54054848517276
 30
0.0
 41
0.5
 42
0.5
 43
0.5
 50
180.0
  0
INSERT
  5
C512
330
C31C
100
AcDbEntity
  8
AM_5
100
AcDbBlockReference
  2
_Dot
 10
71.43354576980096
 20
33.54054848517276
 30
0.0
 41
0.5
 42
0.5
 43
0.5
  0
MTEXT
  5
C513
330
C31C
100
AcDbEntity
  8
AM_5
 62
     2
100
AcDbMText
 10
66.43354576980096
 20
35.09054848517275
 30
0.0
 40
1.6
 41
0.0
 71
     5
 72
     1
  1
W
 73
     1
 44
1.0
1001
ACAD
1000
MTEXTBEGIN
1070
    73
1070
     1
1070
    44
1040
1.0
1070
    74
1070
     0
1000
MTEXTEND
  0
POINT
  5
C514
330
C31C
100
AcDbEntity
  8
Defpoints
 62
     0
100
AcDbPoint
 10
61.43354576980097
 20
39.54054848517276
 30
0.0
  0
POINT
  5
C515
330
C31C
100
AcDbEntity
  8
Defpoints
 62
     0
100
AcDbPoint
 10
71.43354576980096
 20
39.54054848517276
 30
0.0
  0
POINT
  5
C516
330
C31C
100
AcDbEntity
  8
Defpoints
 62
     0
100
AcDbPoint
 10
71.43354576980096
 20
33.54054848517276
 30
0.0
  0
ENDBLK
  5
C331
330
C31C
100
AcDbEntity
  8
0
100
AcDbBlockEnd
  0
BLOCK
  5
C332
330
C326
100
AcDbEntity
  8
0
100
AcDbBlockBegin
  2
*D6
 70
     1
 10
0.0
 20
0.0
 30
0.0
  3
*D6
  1

  0
LINE
  5
C517
330
C326
100
AcDbEntity
  8
AM_5
100
AcDbLine
 10
71.93354576980095
 20
39.54054848517276
 30
0.0
 11
77.93354576980097
 21
39.54054848517276
 31
0.0
  0
LINE
  5
C518
330
C326
100
AcDbEntity
  8
AM_5
100
AcDbLine
 10
66.93354576980095
 20
47.54054848517275
 30
0.0
 11
77.93354576980097
 21
47.54054848517275
 31
0.0
  0
LINE
  5
C519
330
C326
100
AcDbEntity
  8
AM_5
100
AcDbLine
 10
77.43354576980097
 20
40.04054848517275
 30
0.0
 11
77.43354576980097
 21
47.04054848517276
 31
0.0
  0
INSERT
  5
C51A
330
C326
100
AcDbEntity
  8
AM_5
100
AcDbBlockReference
  2
_Dot
 10
77.43354576980097
 20
39.54054848517276
 30
0.0
 41
0.5
 42
0.5
 43
0.5
 50
270.0
  0
INSERT
  5
C51B
330
C326
100
AcDbEntity
  8
AM_5
100
AcDbBlockReference
  2
_Dot
 10
77.43354576980097
 20
47.54054848517275
 30
0.0
 41
0.5
 42
0.5
 43
0.5
 50
90.0
  0
MTEXT
  5
C51C
330
C326
100
AcDbEntity
  8
AM_5
 62
     2
100
AcDbMText
 10
75.88354576980096
 20
43.54054848517277
 30
0.0
 40
1.6
 41
0.0
 71
     5
 72
     1
  1
H
 11
0.0000000000000001
 21
1.0
 31
0.0
 73
     1
 44
1.0
1001
ACAD
1000
MTEXTBEGIN
1070
    73
1070
     1
1070
    44
1040
1.0
1070
    74
1070
     0
1000
MTEXTEND
  0
POINT
  5
C51D
330
C326
100
AcDbEntity
  8
Defpoints
 62
     0
100
AcDbPoint
 10
71.43354576980096
 20
39.54054848517276
 30
0.0
  0
POINT
  5
C51E
330
C326
100
AcDbEntity
  8
Defpoints
 62
     0
100
AcDbPoint
 10
66.43354576980096
 20
47.54054848517275
 30
0.0
  0
POINT
  5
C51F
330
C326
100
AcDbEntity
  8
Defpoints
 62
     0
100
AcDbPoint
 10
77.43354576980097
 20
47.54054848517275
 30
0.0
  0
ENDBLK
  5
C333
330
C326
100
AcDbEntity
  8
0
100
AcDbBlockEnd
  0
BLOCK
  5
C68D
330
C64F
100
AcDbEntity
  8
0
100
AcDbBlockBegin
  2
A$C1F401AFE
 70
     0
 10
0.0
 20
0.0
 30
0.0
  3
A$C1F401AFE
  1

  0
MTEXT
  5
C650
330
C64F
100
AcDbEntity
  8
AM_6
100
AcDbMText
 10
9.592990213316028
 20
59.06877055714985
 30
0.0
 40
1.6
 41
45.0
 71
     4
 72
     5
  1
　項　目
 73
     1
 44
1.0
1001
ACAD
1000
MTEXTBEGIN
1070
    73
1070
     1
1070
    44
1040
1.0
1070
    74
1070
     0
1000
MTEXTEND
  0
MTEXT
  5
C651
330
C64F
100
AcDbEntity
  8
AM_6
100
AcDbMText
 10
29.38831260471122
 20
59.06877055714985
 30
0.0
 40
1.6
 41
45.0
 71
     4
 72
     5
  1
　値
 73
     1
 44
1.0
1001
ACAD
1000
MTEXTBEGIN
1070
    73
1070
     1
1070
    44
1040
1.0
1070
    74
1070
     0
1000
MTEXTEND
  0
LINE
  5
C652
330
C64F
100
AcDbEntity
  8
AM_1
370
    30
100
AcDbLine
 10
6.72609073333146
 20
60.56959746822151
 30
0.0
 11
35.70986136277132
 21
60.5695974682215
 31
0.0
  0
LINE
  5
C653
330
C64F
100
AcDbEntity
  8
AM_1
370
    30
100
AcDbLine
 10
35.70986136277131
 20
60.56959746822151
 30
0.0
 11
35.70986136277135
 21
3.569597468221515
 31
0.0
  0
LINE
  5
C654
330
C64F
100
AcDbEntity
  8
AM_1
370
    30
100
AcDbLine
 10
6.726090733331494
 20
3.569597468221515
 30
0.0
 11
6.72609073333146
 21
60.56959746822151
 31
0.0
  0
LINE
  5
C655
330
C64F
100
AcDbEntity
  8
AM_0
100
AcDbLine
 10
6.72609073333146
 20
57.56959746822151
 30
0.0
 11
35.70986136277132
 21
57.5695974682215
 31
0.0
  0
LINE
  5
C656
330
C64F
100
AcDbEntity
  8
AM_1
370
    30
100
AcDbLine
 10
26.9148276056221
 20
60.56959746822151
 30
0.0
 11
26.91482760562214
 21
3.569597468221515
 31
0.0
  0
MTEXT
  5
C657
330
C64F
100
AcDbEntity
  8
AM_6
100
AcDbMText
 10
7.273307641400933
 20
56.16696657367255
 30
0.0
 40
1.6
 41
45.0
 71
     4
 72
     5
  1
見掛比重
 73
     1
 44
1.0
1001
ACAD
1000
MTEXTBEGIN
1070
    73
1070
     1
1070
    44
1040
1.0
1070
    74
1070
     0
1000
MTEXTEND
  0
MTEXT
  5
C658
330
C64F
100
AcDbEntity
  8
AM_6
100
AcDbMText
 10
7.273307641400933
 20
52.99585214115407
 30
0.0
 40
1.6
 41
45.0
 71
     4
 72
     5
  1
硬度（スポンジ硬度）
 73
     1
 44
1.0
1001
ACAD
1000
MTEXTBEGIN
1070
    73
1070
     1
1070
    44
1040
1.0
1070
    74
1070
     0
1000
MTEXTEND
  0
MTEXT
  5
C659
330
C64F
100
AcDbEntity
  8
AM_6
100
AcDbMText
 10
7.273307641400933
 20
49.99585214115407
 30
0.0
 40
1.6
 41
45.0
 71
     4
 72
     5
  1
引張強さ（kg/cm　）
 73
     1
 44
1.0
1001
ACAD
1000
MTEXTBEGIN
1070
    73
1070
     1
1070
    44
1040
1.0
1070
    74
1070
     0
1000
MTEXTEND
  0
MTEXT
  5
C65A
330
C64F
100
AcDbEntity
  8
AM_6
100
AcDbMText
 10
7.273307641400933
 20
46.99585214115407
 30
0.0
 40
1.6
 41
45.0
 71
     4
 72
     5
  1
伸び（％）
 73
     1
 44
1.0
1001
ACAD
1000
MTEXTBEGIN
1070
    73
1070
     1
1070
    44
1040
1.0
1070
    74
1070
     0
1000
MTEXTEND
  0
MTEXT
  5
C65B
330
C64F
100
AcDbEntity
  8
AM_6
100
AcDbMText
 10
19.34193435427765
 20
50.68539263471251
 30
0.0
 40
0.8
 41
45.0
 71
     4
 72
     5
  1
　2
 73
     1
 44
1.0
1001
ACAD
1000
MTEXTBEGIN
1070
    73
1070
     1
1070
    44
1040
1.0
1070
    74
1070
     0
1000
MTEXTEND
  0
LINE
  5
C65C
330
C64F
100
AcDbEntity
  8
AM_0
100
AcDbLine
 10
6.726090733331464
 20
54.56959746822152
 30
0.0
 11
35.70986136277131
 21
54.5695974682215
 31
0.0
  0
LINE
  5
C65D
330
C64F
100
AcDbEntity
  8
AM_0
100
AcDbLine
 10
6.726090733331467
 20
51.56959746822152
 30
0.0
 11
35.70986136277133
 21
51.56959746822153
 31
0.0
  0
LINE
  5
C65E
330
C64F
100
AcDbEntity
  8
AM_0
100
AcDbLine
 10
6.726090733331473
 20
48.56959746822152
 30
0.0
 11
35.70986136277132
 21
48.56959746822152
 31
0.0
  0
LINE
  5
C65F
330
C64F
100
AcDbEntity
  8
AM_0
100
AcDbLine
 10
6.726090733331476
 20
45.56959746822151
 30
0.0
 11
35.70986136277132
 21
45.56959746822151
 31
0.0
  0
LINE
  5
C660
330
C64F
100
AcDbEntity
  8
AM_0
100
AcDbLine
 10
6.726090733331476
 20
36.56959746822152
 30
0.0
 11
35.70986136277134
 21
36.56959746822152
 31
0.0
  0
LINE
  5
C661
330
C64F
100
AcDbEntity
  8
AM_0
100
AcDbLine
 10
6.726090733331476
 20
30.56959746822152
 30
0.0
 11
35.70986136277133
 21
30.56959746822151
 31
0.0
  0
LINE
  5
C662
330
C64F
100
AcDbEntity
  8
AM_0
100
AcDbLine
 10
19.46016848736326
 20
27.56959746822152
 30
0.0
 11
35.70986136277133
 21
27.56959746822152
 31
0.0
  0
MTEXT
  5
C663
330
C64F
100
AcDbEntity
  8
AM_6
100
AcDbMText
 10
7.273307641400931
 20
43.99585214115407
 30
0.0
 40
1.6
 41
45.0
 71
     4
 72
     5
  1
圧縮応力（g/cm　）
 73
     1
 44
1.0
1001
ACAD
1000
MTEXTBEGIN
1070
    73
1070
     1
1070
    44
1040
1.0
1070
    74
1070
     0
1000
MTEXTEND
  0
MTEXT
  5
C664
330
C64F
100
AcDbEntity
  8
AM_6
100
AcDbMText
 10
18.38617847745134
 20
44.51796384994547
 30
0.0
 40
0.8
 41
45.0
 71
     4
 72
     5
  1
　2
 73
     1
 44
1.0
1001
ACAD
1000
MTEXTBEGIN
1070
    73
1070
     1
1070
    44
1040
1.0
1070
    74
1070
     0
1000
MTEXTEND
  0
LINE
  5
C665
330
C64F
100
AcDbEntity
  8
AM_0
100
AcDbLine
 10
6.726090733331476
 20
42.56959746822151
 30
0.0
 11
35.70986136277134
 21
42.56959746822152
 31
0.0
  0
MTEXT
  5
C666
330
C64F
100
AcDbEntity
  8
AM_6
100
AcDbMText
 10
7.273307641400929
 20
40.99585214115407
 30
0.0
 40
1.6
 41
45.0
 71
     4
 72
     5
  1
常温永久歪（％）
 73
     1
 44
1.0
1001
ACAD
1000
MTEXTBEGIN
1070
    73
1070
     1
1070
    44
1040
1.0
1070
    74
1070
     0
1000
MTEXTEND
  0
MTEXT
  5
C667
330
C64F
100
AcDbEntity
  8
AM_6
100
AcDbMText
 10
7.273307641400929
 20
38.49585214115409
 30
0.0
 40
1.6
 41
45.0
 71
     4
 72
     5
  1
（22hrs×50％def）
 73
     1
 44
1.0
1001
ACAD
1000
MTEXTBEGIN
1070
    73
1070
     1
1070
    44
1040
1.0
1070
    74
1070
     0
1000
MTEXTEND
  0
MTEXT
  5
C668
330
C64F
100
AcDbEntity
  8
AM_6
100
AcDbMText
 10
7.273307641400931
 20
34.99585214115408
 30
0.0
 40
1.6
 41
45.0
 71
     4
 72
     5
  1
加熱永久歪（％）
 73
     1
 44
1.0
1001
ACAD
1000
MTEXTBEGIN
1070
    73
1070
     1
1070
    44
1040
1.0
1070
    74
1070
     0
1000
MTEXTEND
  0
MTEXT
  5
C669
330
C64F
100
AcDbEntity
  8
AM_6
100
AcDbMText
 10
6.533869689621822
 20
32.49585214115409
 30
0.0
 40
1.3
 41
45.0
 71
     4
 72
     5
  1
（70℃×22hrs×50％def）
 73
     1
 44
1.0
1001
ACAD
1000
MTEXTBEGIN
1070
    73
1070
     1
1070
    44
1040
1.0
1070
    74
1070
     0
1000
MTEXTEND
  0
MTEXT
  5
C66A
330
C64F
100
AcDbEntity
  8
AM_6
100
AcDbMText
 10
7.273307641400929
 20
27.49585214115408
 30
0.0
 40
1.6
 41
45.0
 71
     4
 72
     5
  1
使用周囲温度（℃）
 73
     1
 44
1.0
1001
ACAD
1000
MTEXTBEGIN
1070
    73
1070
     1
1070
    44
1040
1.0
1070
    74
1070
     0
1000
MTEXTEND
  0
MTEXT
  5
C66B
330
C64F
100
AcDbEntity
  8
AM_6
100
AcDbMText
 10
20.29797972249252
 20
28.99585214115408
 30
0.0
 40
1.6
 41
45.0
 71
     4
 72
     5
  1
高温連続
 73
     1
 44
1.0
1001
ACAD
1000
MTEXTBEGIN
1070
    73
1070
     1
1070
    44
1040
1.0
1070
    74
1070
     0
1000
MTEXTEND
  0
MTEXT
  5
C66C
330
C64F
100
AcDbEntity
  8
AM_6
100
AcDbMText
 10
20.29797972249252
 20
25.99585214115407
 30
0.0
 40
1.6
 41
45.0
 71
     4
 72
     5
  1
低温連続
 73
     1
 44
1.0
1001
ACAD
1000
MTEXTBEGIN
1070
    73
1070
     1
1070
    44
1040
1.0
1070
    74
1070
     0
1000
MTEXTEND
  0
LINE
  5
C66D
330
C64F
100
AcDbEntity
  8
AM_0
100
AcDbLine
 10
6.726090733331476
 20
24.56959746822152
 30
0.0
 11
35.70986136277133
 21
24.56959746822152
 31
0.0
  0
LINE
  5
C66E
330
C64F
100
AcDbEntity
  8
AM_0
100
AcDbLine
 10
19.46016848736326
 20
30.56959746822152
 30
0.0
 11
19.46016848736326
 21
24.56959746822152
 31
0.0
  0
MTEXT
  5
C66F
330
C64F
100
AcDbEntity
  8
AM_6
100
AcDbMText
 10
7.273307641400949
 20
22.99585214115408
 30
0.0
 40
1.6
 41
45.0
 71
     4
 72
     5
  1
耐油性
 73
     1
 44
1.0
1001
ACAD
1000
MTEXTBEGIN
1070
    73
1070
     1
1070
    44
1040
1.0
1070
    74
1070
     0
1000
MTEXTEND
  0
LINE
  5
C670
330
C64F
100
AcDbEntity
  8
AM_0
100
AcDbLine
 10
6.726090733331492
 20
21.56959746822152
 30
0.0
 11
35.70986136277134
 21
21.56959746822152
 31
0.0
  0
MTEXT
  5
C671
330
C64F
100
AcDbEntity
  8
AM_6
100
AcDbMText
 10
7.273307641400958
 20
19.99585214115407
 30
0.0
 40
1.6
 41
45.0
 71
     4
 72
     5
  1
耐コロナ性
 73
     1
 44
1.0
1001
ACAD
1000
MTEXTBEGIN
1070
    73
1070
     1
1070
    44
1040
1.0
1070
    74
1070
     0
1000
MTEXTEND
  0
LINE
  5
C672
330
C64F
100
AcDbEntity
  8
AM_0
100
AcDbLine
 10
6.726090733331501
 20
18.56959746822152
 30
0.0
 11
35.70986136277135
 21
18.56959746822152
 31
0.0
  0
MTEXT
  5
C673
330
C64F
100
AcDbEntity
  8
AM_6
100
AcDbMText
 10
7.273307641400966
 20
16.99585214115407
 30
0.0
 40
1.6
 41
45.0
 71
     4
 72
     5
  1
耐薬品性
 73
     1
 44
1.0
1001
ACAD
1000
MTEXTBEGIN
1070
    73
1070
     1
1070
    44
1040
1.0
1070
    74
1070
     0
1000
MTEXTEND
  0
LINE
  5
C674
330
C64F
100
AcDbEntity
  8
AM_0
100
AcDbLine
 10
6.72609073333151
 20
15.56959746822151
 30
0.0
 11
35.70986136277136
 21
15.56959746822151
 31
0.0
  0
MTEXT
  5
C675
330
C64F
100
AcDbEntity
  8
AM_6
100
AcDbMText
 10
7.273307641400966
 20
13.99585214115407
 30
0.0
 40
1.6
 41
45.0
 71
     4
 72
     5
  1
耐候性
 73
     1
 44
1.0
1001
ACAD
1000
MTEXTBEGIN
1070
    73
1070
     1
1070
    44
1040
1.0
1070
    74
1070
     0
1000
MTEXTEND
  0
LINE
  5
C676
330
C64F
100
AcDbEntity
  8
AM_0
100
AcDbLine
 10
6.72609073333151
 20
12.56959746822152
 30
0.0
 11
35.70986136277136
 21
12.56959746822152
 31
0.0
  0
MTEXT
  5
C677
330
C64F
100
AcDbEntity
  8
AM_6
100
AcDbMText
 10
7.273307641400966
 20
10.99585214115407
 30
0.0
 40
1.6
 41
45.0
 71
     4
 72
     5
  1
標準色
 73
     1
 44
1.0
1001
ACAD
1000
MTEXTBEGIN
1070
    73
1070
     1
1070
    44
1040
1.0
1070
    74
1070
     0
1000
MTEXTEND
  0
LINE
  5
C678
330
C64F
100
AcDbEntity
  8
AM_0
100
AcDbLine
 10
6.72609073333151
 20
9.569597468221516
 30
0.0
 11
35.70986136277136
 21
9.569597468221516
 31
0.0
  0
MTEXT
  5
C679
330
C64F
100
AcDbEntity
  8
AM_6
100
AcDbMText
 10
7.273307641400966
 20
7.995852141154074
 30
0.0
 40
1.6
 41
45.0
 71
     4
 72
     5
  1
寸法公差
 73
     1
 44
1.0
1001
ACAD
1000
MTEXTBEGIN
1070
    73
1070
     1
1070
    44
1040
1.0
1070
    74
1070
     0
1000
MTEXTEND
  0
LINE
  5
C67A
330
C64F
100
AcDbEntity
  8
AM_0
100
AcDbLine
 10
6.72609073333151
 20
6.569597468221516
 30
0.0
 11
35.70986136277136
 21
6.569597468221516
 31
0.0
  0
MTEXT
  5
C67B
330
C64F
100
AcDbEntity
  8
AM_6
100
AcDbMText
 10
7.273307641400966
 20
4.995852141154074
 30
0.0
 40
1.6
 41
45.0
 71
     4
 72
     5
  1
組織
 73
     1
 44
1.0
1001
ACAD
1000
MTEXTBEGIN
1070
    73
1070
     1
1070
    44
1040
1.0
1070
    74
1070
     0
1000
MTEXTEND
  0
LINE
  5
C67C
330
C64F
100
AcDbEntity
  8
AM_1
370
    30
100
AcDbLine
 10
6.726090733331416
 20
3.569597468221516
 30
0.0
 11
35.70986136277128
 21
3.569597468221502
 31
0.0
  0
MTEXT
  5
C67D
330
C64F
100
AcDbEntity
  8
AM_6
100
AcDbMText
 10
27.92950943986578
 20
56.06877055714985
 30
0.0
 40
1.6
 41
45.0
 71
     4
 72
     5
  1
　0.35
 73
     1
 44
1.0
1001
ACAD
1000
MTEXTBEGIN
1070
    73
1070
     1
1070
    44
1040
1.0
1070
    74
1070
     0
1000
MTEXTEND
  0
MTEXT
  5
C67E
330
C64F
100
AcDbEntity
  8
AM_6
100
AcDbMText
 10
28.88047845437175
 20
53.06877055714984
 30
0.0
 40
1.6
 41
45.0
 71
     4
 72
     5
  1
　20
 73
     1
 44
1.0
1001
ACAD
1000
MTEXTBEGIN
1070
    73
1070
     1
1070
    44
1040
1.0
1070
    74
1070
     0
1000
MTEXTEND
  0
MTEXT
  5
C67F
330
C64F
100
AcDbEntity
  8
AM_6
100
AcDbMText
 10
28.35251018082998
 20
47.06877055714985
 30
0.0
 40
1.6
 41
45.0
 71
     4
 72
     5
  1
　250
 73
     1
 44
1.0
1001
ACAD
1000
MTEXTBEGIN
1070
    73
1070
     1
1070
    44
1040
1.0
1070
    74
1070
     0
1000
MTEXTEND
  0
MTEXT
  5
C680
330
C64F
100
AcDbEntity
  8
AM_6
100
AcDbMText
 10
28.35251018082999
 20
44.06877055714986
 30
0.0
 40
1.6
 41
45.0
 71
     4
 72
     5
  1
　500
 73
     1
 44
1.0
1001
ACAD
1000
MTEXTBEGIN
1070
    73
1070
     1
1070
    44
1040
1.0
1070
    74
1070
     0
1000
MTEXTEND
  0
MTEXT
  5
C681
330
C64F
100
AcDbEntity
  8
AM_6
100
AcDbMText
 10
28.35251018082999
 20
29.06877055714986
 30
0.0
 40
1.6
 41
45.0
 71
     4
 72
     5
  1
　200
 73
     1
 44
1.0
1001
ACAD
1000
MTEXTBEGIN
1070
    73
1070
     1
1070
    44
1040
1.0
1070
    74
1070
     0
1000
MTEXTEND
  0
MTEXT
  5
C682
330
C64F
100
AcDbEntity
  8
AM_6
100
AcDbMText
 10
27.9295094398658
 20
26.06877055714986
 30
0.0
 40
1.6
 41
45.0
 71
     4
 72
     5
  1
　-80
 73
     1
 44
1.0
1001
ACAD
1000
MTEXTBEGIN
1070
    73
1070
     1
1070
    44
1040
1.0
1070
    74
1070
     0
1000
MTEXTEND
  0
MTEXT
  5
C683
330
C64F
100
AcDbEntity
  8
AM_6
100
AcDbMText
 10
29.38831260471122
 20
50.06877055714987
 30
0.0
 40
1.6
 41
45.0
 71
     4
 72
     5
  1
　8
 73
     1
 44
1.0
1001
ACAD
1000
MTEXTBEGIN
1070
    73
1070
     1
1070
    44
1040
1.0
1070
    74
1070
     0
1000
MTEXTEND
  0
MTEXT
  5
C684
330
C64F
100
AcDbEntity
  8
AM_6
100
AcDbMText
 10
29.38831260471123
 20
39.56877055714988
 30
0.0
 40
1.6
 41
45.0
 71
     4
 72
     5
  1
　0
 73
     1
 44
1.0
1001
ACAD
1000
MTEXTBEGIN
1070
    73
1070
     1
1070
    44
1040
1.0
1070
    74
1070
     0
1000
MTEXTEND
  0
MTEXT
  5
C685
330
C64F
100
AcDbEntity
  8
AM_6
100
AcDbMText
 10
28.88047845437175
 20
33.56877055714985
 30
0.0
 40
1.6
 41
45.0
 71
     4
 72
     5
  1
　10
 73
     1
 44
1.0
1001
ACAD
1000
MTEXTBEGIN
1070
    73
1070
     1
1070
    44
1040
1.0
1070
    74
1070
     0
1000
MTEXTEND
  0
MTEXT
  5
C686
330
C64F
100
AcDbEntity
  8
AM_6
100
AcDbMText
 10
29.38831260471125
 20
20.06877055714986
 30
0.0
 40
1.6
 41
45.0
 71
     4
 72
     5
  1
　良
 73
     1
 44
1.0
1001
ACAD
1000
MTEXTBEGIN
1070
    73
1070
     1
1070
    44
1040
1.0
1070
    74
1070
     0
1000
MTEXTEND
  0
MTEXT
  5
C687
330
C64F
100
AcDbEntity
  8
AM_6
100
AcDbMText
 10
29.38831260471125
 20
17.06877055714986
 30
0.0
 40
1.6
 41
45.0
 71
     4
 72
     5
  1
　良
 73
     1
 44
1.0
1001
ACAD
1000
MTEXTBEGIN
1070
    73
1070
     1
1070
    44
1040
1.0
1070
    74
1070
     0
1000
MTEXTEND
  0
MTEXT
  5
C688
330
C64F
100
AcDbEntity
  8
AM_6
100
AcDbMText
 10
29.38831260471125
 20
14.06877055714986
 30
0.0
 40
1.6
 41
45.0
 71
     4
 72
     5
  1
　優
 73
     1
 44
1.0
1001
ACAD
1000
MTEXTBEGIN
1070
    73
1070
     1
1070
    44
1040
1.0
1070
    74
1070
     0
1000
MTEXTEND
  0
MTEXT
  5
C689
330
C64F
100
AcDbEntity
  8
AM_6
100
AcDbMText
 10
26.6626556752417
 20
11.06877055714986
 30
0.0
 40
1.6
 41
45.0
 71
     4
 72
     5
  1
　ベンガル色
 73
     1
 44
1.0
1001
ACAD
1000
MTEXTBEGIN
1070
    73
1070
     1
1070
    44
1040
1.0
1070
    74
1070
     0
1000
MTEXTEND
  0
MTEXT
  5
C68A
330
C64F
100
AcDbEntity
  8
AM_6
100
AcDbMText
 10
29.38831260471125
 20
23.06877055714986
 30
0.0
 40
1.6
 41
45.0
 71
     4
 72
     5
  1
　良
 73
     1
 44
1.0
1001
ACAD
1000
MTEXTBEGIN
1070
    73
1070
     1
1070
    44
1040
1.0
1070
    74
1070
     0
1000
MTEXTEND
  0
ENDBLK
  5
C68E
330
C64F
100
AcDbEntity
  8
0
100
AcDbBlockEnd
  0
ENDSEC
  0
SECTION
  2
ENTITIES
  0
LINE
  5
C2F7
330
1F
100
AcDbEntity
  8
AM_0
100
AcDbLine
 10
5.749998270504875
 20
100.7499989029238
 30
0.0
 11
40.74999827050476
 21
100.7499989029238
 31
0.0
  0
LINE
  5
C2F8
330
1F
100
AcDbEntity
  8
AM_2
100
AcDbLine
 10
17.24999827050499
 20
80.74999890292337
 30
0.0
 11
40.74999827050476
 21
80.74999890292337
 31
0.0
  0
LINE
  5
C2F9
330
1F
100
AcDbEntity
  8
AM_2
100
AcDbLine
 10
5.749998270504875
 20
84.74999890292361
 30
0.0
 11
40.74999827050476
 21
84.74999890292361
 31
0.0
  0
LINE
  5
C2FA
330
1F
100
AcDbEntity
  8
AM_2
100
AcDbLine
 10
5.749998270504875
 20
84.74999890292361
 30
0.0
 11
40.74999827050476
 21
84.74999890292361
 31
0.0
  0
LINE
  5
C2FB
330
1F
100
AcDbEntity
  8
AM_2
100
AcDbLine
 10
5.749998270504875
 20
88.74999890292384
 30
0.0
 11
40.74999827050476
 21
88.74999890292384
 31
0.0
  0
LINE
  5
C2FC
330
1F
100
AcDbEntity
  8
AM_2
100
AcDbLine
 10
5.749998270504875
 20
92.74999890292383
 30
0.0
 11
40.74999827050476
 21
92.74999890292383
 31
0.0
  0
LINE
  5
C2FD
330
1F
100
AcDbEntity
  8
AM_2
100
AcDbLine
 10
5.749998270504875
 20
96.74999890292383
 30
0.0
 11
40.74999827050476
 21
96.74999890292383
 31
0.0
  0
LINE
  5
C2FE
330
1F
100
AcDbEntity
  8
AM_0
100
AcDbLine
 10
5.749998270504875
 20
100.7499989029238
 30
0.0
 11
5.749998270504931
 21
80.7499989029236
 31
0.0
  0
LINE
  5
C2FF
330
1F
100
AcDbEntity
  8
AM_2
100
AcDbLine
 10
17.24999827050487
 20
100.7499989029238
 30
0.0
 11
17.24999827050499
 21
72.74999890292338
 31
0.0
  0
MTEXT
  5
C300
330
1F
100
AcDbEntity
  8
AM_6
100
AcDbMText
 10
11.49999827050487
 20
86.74999890292383
 30
0.0
 40
1.6
 41
11.5
 71
     5
 72
     5
  1
仕上げ
 73
     1
 44
1.0
1001
ACAD
1000
MTEXTBEGIN
1070
    73
1070
     1
1070
    44
1040
1.0
1070
    74
1070
     0
1000
MTEXTEND
  0
MTEXT
  5
C301
330
1F
100
AcDbEntity
  8
AM_6
100
AcDbMText
 10
11.49999827050487
 20
90.74999890292383
 30
0.0
 40
1.6
 41
11.5
 71
     5
 72
     5
  1
材質
 73
     1
 44
1.0
1001
ACAD
1000
MTEXTBEGIN
1070
    73
1070
     1
1070
    44
1040
1.0
1070
    74
1070
     0
1000
MTEXTEND
  0
MTEXT
  5
C302
330
1F
100
AcDbEntity
  8
AM_6
100
AcDbMText
 10
11.49999827050487
 20
98.74999890292384
 30
0.0
 40
1.6
 41
11.5
 71
     5
 72
     5
  1
品名
 73
     1
 44
1.0
1001
ACAD
1000
MTEXTBEGIN
1070
    73
1070
     1
1070
    44
1040
1.0
1070
    74
1070
     0
1000
MTEXTEND
  0
MTEXT
  5
C303
330
1F
100
AcDbEntity
  8
AM_6
100
AcDbMText
 10
11.49999827050487
 20
94.74999890292384
 30
0.0
 40
1.6
 41
11.5
 71
     5
 72
     5
  1
品番
 73
     1
 44
1.0
1001
ACAD
1000
MTEXTBEGIN
1070
    73
1070
     1
1070
    44
1040
1.0
1070
    74
1070
     0
1000
MTEXTEND
  0
MTEXT
  5
C304
330
1F
100
AcDbEntity
  8
AM_6
100
AcDbMText
 10
17.24999827050487
 20
86.74999890292383
 30
0.0
 40
1.6
 41
45.0
 71
     4
 72
     5
  1
　生地（橙色）
 73
     1
 44
1.0
1001
ACAD
1000
MTEXTBEGIN
1070
    73
1070
     1
1070
    44
1040
1.0
1070
    74
1070
     0
1000
MTEXTEND
  0
MTEXT
  5
C305
330
1F
100
AcDbEntity
  8
AM_6
100
AcDbMText
 10
17.24999827050487
 20
90.74999890292383
 30
0.0
 40
1.6
 41
45.0
 71
     4
 72
     5
  1
　シリコンスポンジ
 73
     1
 44
1.0
1001
ACAD
1000
MTEXTBEGIN
1070
    73
1070
     1
1070
    44
1040
1.0
1070
    74
1070
     0
1000
MTEXTEND
  0
MTEXT
  5
C306
330
1F
100
AcDbEntity
  8
AM_6
100
AcDbMText
 10
17.24999827050487
 20
94.74999890292384
 30
0.0
 40
1.6
 41
45.0
 71
     4
 72
     5
  1
　EBGK-「　」
 73
     1
 44
1.0
1001
ACAD
1000
MTEXTBEGIN
1070
    73
1070
     1
1070
    44
1040
1.0
1070
    74
1070
     0
1000
MTEXTEND
  0
MTEXT
  5
C307
330
1F
100
AcDbEntity
  8
AM_6
100
AcDbMText
 10
17.24999827050487
 20
98.74999890292384
 30
0.0
 40
1.6
 41
45.0
 71
     4
 72
     5
  1
　防塵ゴム
 73
     1
 44
1.0
1001
ACAD
1000
MTEXTBEGIN
1070
    73
1070
     1
1070
    44
1040
1.0
1070
    74
1070
     0
1000
MTEXTEND
  0
MTEXT
  5
C309
330
1F
100
AcDbEntity
  8
AM_6
100
AcDbMText
 10
11.49999827050493
 20
78.74999890292338
 30
0.0
 40
1.6
 41
11.50000000000023
 71
     5
 72
     5
  1
備考
 73
     1
 44
1.0
1001
ACAD
1000
MTEXTBEGIN
1070
    73
1070
     1
1070
    44
1040
1.0
1070
    74
1070
     0
1000
MTEXTEND
1000
ACAD_MTEXT_DEFINED_HEIGHT_BEGIN
1070
    46
1040
24.00000000000007
1000
ACAD_MTEXT_DEFINED_HEIGHT_END
  0
LINE
  5
C30A
330
1F
100
AcDbEntity
  8
AM_0
100
AcDbLine
 10
5.749998270505045
 20
72.74999890292338
 30
0.0
 11
40.74999827050493
 21
72.74999890292338
 31
0.0
  0
LINE
  5
C30B
330
1F
100
AcDbEntity
  8
AM_0
100
AcDbLine
 10
40.74999827050476
 20
100.7499989029238
 30
0.0
 11
40.74999827050487
 21
72.74999890292338
 31
0.0
  0
LINE
  5
C30C
330
1F
100
AcDbEntity
  8
AM_2
100
AcDbLine
 10
17.24999827050499
 20
76.74999890292338
 30
0.0
 11
40.74999827050476
 21
76.74999890292338
 31
0.0
  0
LINE
  5
C30E
330
1F
100
AcDbEntity
  8
size
100
AcDbLine
 10
-0.0000017294951249
 20
104.9999989029238
 30
0.0
 11
148.4999982705049
 21
104.9999989029238
 31
0.0
1001
GENIUS_GENREC_14
1002
{
1000
PYDIR
1011
-0.0000017294951178
1021
148.4999989029238
1031
0.0
1002
}
1002
{
1000
PXDIR
1011
209.9999982705049
1021
-0.000001097076165
1031
0.0
1002
}
1002
{
1000
PORI
1011
-0.0000017294951249
1021
-0.000001097076165
1031
0.0
1002
}
1002
{
1000
PINS
1011
104.9999982705049
1021
74.24999890292382
1031
0.0
1002
}
1002
{
1000
HVAL
1000
297
1002
}
1002
{
1000
H
1070
     2
1002
}
1002
{
1000
WVAL
1000
420
1002
}
1002
{
1000
W
1070
     2
1002
}
1002
{
1000
C
1070
     4
1002
}
1001
GENIUS_GENOBJ-N-REC_13
1002
{
1000
OWNER
1000
GEN
1002
}
1001
GENIUS_GENODEF_13
1002
{
1000
HIER
1070
     0
1002
}
1002
{
1000
MANEDIT
1070
     0
1002
}
1002
{
1000
NOSEL
1070
     0
1002
}
1002
{
1000
BEHIND
1070
     0
1002
}
1002
{
1000
OTHER
1070
     0
1002
}
1002
{
1000
REACTOR
1002
}
  0
LINE
  5
C30F
330
1F
100
AcDbEntity
  8
size
100
AcDbLine
 10
148.4999982705049
 20
104.9999989029238
 30
0.0
 11
148.4999982705049
 21
-0.0000010970761792
 31
0.0
1001
GENIUS_GENREC_14
1002
{
1000
PYDIR
1011
-0.0000017294951178
1021
148.4999989029238
1031
0.0
1002
}
1002
{
1000
PXDIR
1011
209.9999982705049
1021
-0.000001097076165
1031
0.0
1002
}
1002
{
1000
PORI
1011
-0.0000017294951249
1021
-0.000001097076165
1031
0.0
1002
}
1002
{
1000
PINS
1011
104.9999982705049
1021
74.24999890292382
1031
0.0
1002
}
1002
{
1000
HVAL
1000
297
1002
}
1002
{
1000
H
1070
     2
1002
}
1002
{
1000
WVAL
1000
420
1002
}
1002
{
1000
W
1070
     2
1002
}
1002
{
1000
C
1070
     4
1002
}
1001
GENIUS_GENOBJ-N-REC_13
1002
{
1000
OWNER
1000
GEN
1002
}
1001
GENIUS_GENODEF_13
1002
{
1000
HIER
1070
     0
1002
}
1002
{
1000
MANEDIT
1070
     0
1002
}
1002
{
1000
NOSEL
1070
     0
1002
}
1002
{
1000
BEHIND
1070
     0
1002
}
1002
{
1000
OTHER
1070
     0
1002
}
1002
{
1000
REACTOR
1002
}
  0
LINE
  5
C310
330
1F
100
AcDbEntity
  8
waku
100
AcDbLine
 10
5.749998270504875
 20
4.249998902923834
 30
0.0
 11
142.7499982705048
 21
4.249998902923834
 31
0.0
1001
GENIUS_GENREC_14
1002
{
1000
PYDIR
1011
-0.0000017294951178
1021
148.4999989029238
1031
0.0
1002
}
1002
{
1000
PXDIR
1011
209.9999982705049
1021
-0.000001097076165
1031
0.0
1002
}
1002
{
1000
PORI
1011
-0.0000017294951249
1021
-0.000001097076165
1031
0.0
1002
}
1002
{
1000
PINS
1011
104.9999982705049
1021
74.24999890292382
1031
0.0
1002
}
1002
{
1000
HVAL
1000
297
1002
}
1002
{
1000
H
1070
     2
1002
}
1002
{
1000
WVAL
1000
420
1002
}
1002
{
1000
W
1070
     2
1002
}
1002
{
1000
C
1070
     4
1002
}
  0
LINE
  5
C311
330
1F
100
AcDbEntity
  8
waku
100
AcDbLine
 10
142.7499982705048
 20
100.7499989029238
 30
0.0
 11
5.749998270504875
 21
100.7499989029238
 31
0.0
1001
GENIUS_GENREC_14
1002
{
1000
PYDIR
1011
-61.50000172949512
1021
104.9999989029238
1031
0.0
1002
}
1002
{
1000
PXDIR
1011
148.4999982705049
1021
-43.50000109707616
1031
0.0
1002
}
1002
{
1000
PORI
1011
-61.50000172949512
1021
-43.50000109707616
1031
0.0
1002
}
1002
{
1000
PINS
1011
43.49999827050488
1021
30.74999890292382
1031
0.0
1002
}
1002
{
1000
HVAL
1000
297
1002
}
1002
{
1000
H
1070
     2
1002
}
1002
{
1000
WVAL
1000
420
1002
}
1002
{
1000
W
1070
     2
1002
}
1002
{
1000
C
1070
     4
1002
}
1001
GENIUS_GENOBJ-N-REC_13
1002
{
1000
OWNER
1000
GEN
1002
}
1001
GENIUS_GENODEF_13
1002
{
1000
HIER
1070
     0
1002
}
1002
{
1000
MANEDIT
1070
     0
1002
}
1002
{
1000
NOSEL
1070
     0
1002
}
1002
{
1000
BEHIND
1070
     0
1002
}
1002
{
1000
OTHER
1070
     0
1002
}
1002
{
1000
REACTOR
1002
}
  0
LINE
  5
C312
330
1F
100
AcDbEntity
  8
waku
100
AcDbLine
 10
5.749998270504883
 20
100.7499989029238
 30
0.0
 11
5.749998270504875
 21
4.249998902923834
 31
0.0
1001
GENIUS_GENREC_14
1002
{
1000
PYDIR
1011
-0.0000017294951178
1021
148.4999989029238
1031
0.0
1002
}
1002
{
1000
PXDIR
1011
209.9999982705049
1021
-0.000001097076165
1031
0.0
1002
}
1002
{
1000
PORI
1011
-0.0000017294951249
1021
-0.000001097076165
1031
0.0
1002
}
1002
{
1000
PINS
1011
104.9999982705049
1021
74.24999890292382
1031
0.0
1002
}
1002
{
1000
HVAL
1000
297
1002
}
1002
{
1000
H
1070
     2
1002
}
1002
{
1000
WVAL
1000
420
1002
}
1002
{
1000
W
1070
     2
1002
}
1002
{
1000
C
1070
     4
1002
}
1001
GENIUS_GENOBJ-N-REC_13
1002
{
1000
OWNER
1000
GEN
1002
}
1001
GENIUS_GENODEF_13
1002
{
1000
HIER
1070
     0
1002
}
1002
{
1000
MANEDIT
1070
     0
1002
}
1002
{
1000
NOSEL
1070
     0
1002
}
1002
{
1000
BEHIND
1070
     0
1002
}
1002
{
1000
OTHER
1070
     0
1002
}
1002
{
1000
REACTOR
1002
}
  0
LINE
  5
C313
330
1F
100
AcDbEntity
  8
waku
100
AcDbLine
 10
142.7499982705048
 20
4.249998902923834
 30
0.0
 11
142.7499982705048
 21
100.7499989029238
 31
0.0
1001
GENIUS_GENREC_14
1002
{
1000
PYDIR
1011
-61.50000172949512
1021
107.9999989029238
1031
0.0
1002
}
1002
{
1000
PXDIR
1011
148.4999982705049
1021
-40.50000109707617
1031
0.0
1002
}
1002
{
1000
PORI
1011
-61.50000172949512
1021
-40.50000109707617
1031
0.0
1002
}
1002
{
1000
PINS
1011
43.49999827050488
1021
33.74999890292382
1031
0.0
1002
}
1002
{
1000
HVAL
1000
297
1002
}
1002
{
1000
H
1070
     2
1002
}
1002
{
1000
WVAL
1000
420
1002
}
1002
{
1000
W
1070
     2
1002
}
1002
{
1000
C
1070
     4
1002
}
1001
GENIUS_GENOBJ-N-REC_13
1002
{
1000
OWNER
1000
GEN
1002
}
1001
GENIUS_GENODEF_13
1002
{
1000
HIER
1070
     0
1002
}
1002
{
1000
MANEDIT
1070
     0
1002
}
1002
{
1000
NOSEL
1070
     0
1002
}
1002
{
1000
BEHIND
1070
     0
1002
}
1002
{
1000
OTHER
1070
     0
1002
}
1002
{
1000
REACTOR
1002
}
  0
LINE
  5
C314
330
1F
100
AcDbEntity
  8
size
100
AcDbLine
 10
-0.0000017294951142
 20
104.9999989029238
 30
0.0
 11
-0.0000017294951249
 21
-0.000001097076165
 31
0.0
1001
GENIUS_GENREC_14
1002
{
1000
PYDIR
1011
-0.0000017294951178
1021
148.4999989029238
1031
0.0
1002
}
1002
{
1000
PXDIR
1011
209.9999982705049
1021
-0.000001097076165
1031
0.0
1002
}
1002
{
1000
PORI
1011
-0.0000017294951249
1021
-0.000001097076165
1031
0.0
1002
}
1002
{
1000
PINS
1011
104.9999982705049
1021
74.24999890292382
1031
0.0
1002
}
1002
{
1000
HVAL
1000
297
1002
}
1002
{
1000
H
1070
     2
1002
}
1002
{
1000
WVAL
1000
420
1002
}
1002
{
1000
W
1070
     2
1002
}
1002
{
1000
C
1070
     4
1002
}
1001
GENIUS_GENOBJ-N-REC_13
1002
{
1000
OWNER
1000
GEN
1002
}
1001
GENIUS_GENODEF_13
1002
{
1000
HIER
1070
     0
1002
}
1002
{
1000
MANEDIT
1070
     0
1002
}
1002
{
1000
NOSEL
1070
     0
1002
}
1002
{
1000
BEHIND
1070
     0
1002
}
1002
{
1000
OTHER
1070
     0
1002
}
1002
{
1000
REACTOR
1002
}
  0
LINE
  5
C315
330
1F
100
AcDbEntity
  8
size
100
AcDbLine
 10
-0.0000017294951249
 20
-0.000001097076165
 30
0.0
 11
148.4999982705049
 21
-0.000001097076165
 31
0.0
1001
GENIUS_GENREC_14
1002
{
1000
PYDIR
1011
-0.0000017294951178
1021
148.4999989029238
1031
0.0
1002
}
1002
{
1000
PXDIR
1011
209.9999982705049
1021
-0.000001097076165
1031
0.0
1002
}
1002
{
1000
PORI
1011
-0.0000017294951249
1021
-0.000001097076165
1031
0.0
1002
}
1002
{
1000
PINS
1011
104.9999982705049
1021
74.24999890292382
1031
0.0
1002
}
1002
{
1000
HVAL
1000
297
1002
}
1002
{
1000
H
1070
     2
1002
}
1002
{
1000
WVAL
1000
420
1002
}
1002
{
1000
W
1070
     2
1002
}
1002
{
1000
C
1070
     4
1002
}
1001
GENIUS_GENOBJ-N-REC_13
1002
{
1000
OWNER
1000
GEN
1002
}
1001
GENIUS_GENODEF_13
1002
{
1000
HIER
1070
     0
1002
}
1002
{
1000
MANEDIT
1070
     0
1002
}
1002
{
1000
NOSEL
1070
     0
1002
}
1002
{
1000
BEHIND
1070
     0
1002
}
1002
{
1000
OTHER
1070
     0
1002
}
1002
{
1000
REACTOR
1002
}
  0
DIMENSION
  5
C316
330
1F
100
AcDbEntity
  8
AM_5
100
AcDbDimension
  2
*D5
 10
71.43354576980096
 20
33.54054848517276
 30
0.0
 11
66.43354576980096
 21
33.54054848517276
 31
0.0
 70
   160
  1
W
 71
     5
 42
9.999999999999992
  3
SYS$0
100
AcDbAlignedDimension
 13
61.43354576980097
 23
39.54054848517276
 33
0.0
 14
71.43354576980096
 24
39.54054848517276
 34
0.0
100
AcDbRotatedDimension
1001
ACAD
1000
DSTYLE
1002
{
1070
    40
1040
0.5
1002
}
  0
DIMENSION
  5
C319
330
1F
100
AcDbEntity
  8
AM_5
100
AcDbDimension
  2
*D6
 10
77.43354576980097
 20
47.54054848517275
 30
0.0
 11
77.43354576980095
 21
43.54054848517277
 31
0.0
 70
   160
  1
H
 71
     5
 42
8.0
  3
SYS$0
100
AcDbAlignedDimension
 13
71.43354576980096
 23
39.54054848517276
 33
0.0
 14
66.43354576980096
 24
47.54054848517275
 34
0.0
 50
90.0
100
AcDbRotatedDimension
1001
ACAD
1000
DSTYLE
1002
{
1070
    40
1040
0.5
1002
}
  0
ARC
  5
C36A
330
1F
100
AcDbEntity
  8
AM_0
100
AcDbCircle
 10
66.43354576980096
 20
42.54054848517275
 30
0.0
 40
5.0
100
AcDbArc
 50
0.0
 51
180.0
  0
LINE
  5
C36B
330
1F
100
AcDbEntity
  8
AM_0
100
AcDbLine
 10
61.43354576980097
 20
42.54054848517275
 30
0.0
 11
61.43354576980097
 21
39.54054848517276
 31
0.0
  0
LINE
  5
C36C
330
1F
100
AcDbEntity
  8
AM_0
100
AcDbLine
 10
61.43354576980097
 20
39.54054848517276
 30
0.0
 11
71.43354576980096
 21
39.54054848517276
 31
0.0
  0
LINE
  5
C36D
330
1F
100
AcDbEntity
  8
AM_0
100
AcDbLine
 10
71.43354576980096
 20
39.54054848517276
 30
0.0
 11
71.43354576980096
 21
42.54054848517275
 31
0.0
  0
LINE
  5
C4A2
330
1F
100
AcDbEntity
  8
AM_7
 48
0.5
100
AcDbLine
 10
66.43354576980096
 20
49.54054848517276
 30
0.0
 11
66.43354576980096
 21
37.54054848517276
 31
0.0
1001
GENIUS_GENODEF_13
1002
{
1000
HIER
1070
     0
1002
}
1002
{
1000
MANEDIT
1070
     0
1002
}
1002
{
1000
NOSEL
1070
     0
1002
}
1002
{
1000
BEHIND
1070
     0
1002
}
1002
{
1000
OTHER
1070
     0
1002
}
1002
{
1000
REACTOR
1002
}
1001
GENIUS_GENOBJ-N-CEN_13
1002
{
1000
OWNER
1000
GEN
1002
}
1001
GENIUS_GENCEN_19
1002
{
1040
4.0
1002
}
  0
MTEXT
  5
C571
330
1F
100
AcDbEntity
  8
AM_6
100
AcDbMText
 10
108.6931493097183
 20
84.82698670343962
 30
0.0
 40
1.6
 41
45.0
 71
     4
 72
     5
  1
　品　番
 73
     1
 44
1.0
1001
ACAD
1000
MTEXTBEGIN
1070
    73
1070
     1
1070
    44
1040
1.0
1070
    74
1070
     0
1000
MTEXTEND
  0
MTEXT
  5
C572
330
1F
100
AcDbEntity
  8
AM_6
100
AcDbMText
 10
118.2375365049004
 20
84.82698670343962
 30
0.0
 40
1.6
 41
45.0
 71
     4
 72
     5
  1
　H
 73
     1
 44
1.0
1001
ACAD
1000
MTEXTBEGIN
1070
    73
1070
     1
1070
    44
1040
1.0
1070
    74
1070
     0
1000
MTEXTEND
  0
MTEXT
  5
C573
330
1F
100
AcDbEntity
  8
AM_6
100
AcDbMText
 10
122.635053383475
 20
84.82698670343962
 30
0.0
 40
1.6
 41
45.0
 71
     4
 72
     5
  1
　W
 73
     1
 44
1.0
1001
ACAD
1000
MTEXTBEGIN
1070
    73
1070
     1
1070
    44
1040
1.0
1070
    74
1070
     0
1000
MTEXTEND
  0
LINE
  5
C574
330
1F
100
AcDbEntity
  8
AM_2
100
AcDbLine
 10
105.8262498297338
 20
76.07952537322347
 30
0.0
 11
126.791517558325
 21
76.07952537322347
 31
0.0
  0
LINE
  5
C575
330
1F
100
AcDbEntity
  8
AM_1
370
    30
100
AcDbLine
 10
105.8262498297338
 20
86.07952537322347
 30
0.0
 11
126.791517558325
 21
86.07952537322347
 31
0.0
  0
LINE
  5
C576
330
1F
100
AcDbEntity
  8
AM_1
370
    30
100
AcDbLine
 10
126.791517558325
 20
86.07952537322347
 30
0.0
 11
126.791517558325
 21
48.57952537322347
 31
0.0
  0
LINE
  5
C577
330
1F
100
AcDbEntity
  8
AM_1
370
    30
100
AcDbLine
 10
105.8262498297338
 20
48.57952537322347
 30
0.0
 11
105.8262498297338
 21
86.07952537322347
 31
0.0
  0
LINE
  5
C578
330
1F
100
AcDbEntity
  8
AM_1
370
    30
100
AcDbLine
 10
105.8262498297338
 20
83.57952537322347
 30
0.0
 11
126.791517558325
 21
83.57952537322347
 31
0.0
  0
LINE
  5
C579
330
1F
100
AcDbEntity
  8
AM_2
100
AcDbLine
 10
105.8262498297338
 20
81.07952537322347
 30
0.0
 11
126.791517558325
 21
81.07952537322347
 31
0.0
  0
LINE
  5
C57A
330
1F
100
AcDbEntity
  8
AM_2
100
AcDbLine
 10
105.8262498297338
 20
78.57952537322347
 30
0.0
 11
126.791517558325
 21
78.57952537322347
 31
0.0
  0
LINE
  5
C57B
330
1F
100
AcDbEntity
  8
AM_2
100
AcDbLine
 10
105.8262498297338
 20
73.57952537322347
 30
0.0
 11
126.791517558325
 21
73.57952537322347
 31
0.0
  0
LINE
  5
C57C
330
1F
100
AcDbEntity
  8
AM_2
370
    -3
100
AcDbLine
 10
105.8262498297338
 20
71.07952537322347
 30
0.0
 11
126.791517558325
 21
71.07952537322347
 31
0.0
  0
LINE
  5
C57D
330
1F
100
AcDbEntity
  8
AM_2
100
AcDbLine
 10
105.8262498297338
 20
68.57952537322347
 30
0.0
 11
126.791517558325
 21
68.57952537322347
 31
0.0
  0
LINE
  5
C57E
330
1F
100
AcDbEntity
  8
AM_2
100
AcDbLine
 10
105.8262498297338
 20
66.07952537322347
 30
0.0
 11
126.791517558325
 21
66.07952537322347
 31
0.0
  0
LINE
  5
C57F
330
1F
100
AcDbEntity
  8
AM_2
100
AcDbLine
 10
105.8262498297338
 20
63.57952537322347
 30
0.0
 11
126.791517558325
 21
63.57952537322347
 31
0.0
  0
LINE
  5
C580
330
1F
100
AcDbEntity
  8
AM_2
100
AcDbLine
 10
105.8262498297338
 20
61.07952537322347
 30
0.0
 11
126.791517558325
 21
61.07952537322347
 31
0.0
  0
LINE
  5
C581
330
1F
100
AcDbEntity
  8
AM_2
100
AcDbLine
 10
105.8262498297338
 20
58.57952537322347
 30
0.0
 11
126.791517558325
 21
58.57952537322347
 31
0.0
  0
LINE
  5
C582
330
1F
100
AcDbEntity
  8
AM_2
100
AcDbLine
 10
105.8262498297338
 20
56.07952537322347
 30
0.0
 11
126.791517558325
 21
56.07952537322347
 31
0.0
  0
LINE
  5
C583
330
1F
100
AcDbEntity
  8
AM_2
370
    -3
100
AcDbLine
 10
105.8262498297338
 20
51.07952537322347
 30
0.0
 11
126.791517558325
 21
51.07952537322347
 31
0.0
  0
LINE
  5
C584
330
1F
100
AcDbEntity
  8
AM_1
370
    30
100
AcDbLine
 10
105.8262498297338
 20
48.57952537322347
 30
0.0
 11
126.791517558325
 21
48.57952537322347
 31
0.0
  0
LINE
  5
C588
330
1F
100
AcDbEntity
  8
AM_1
370
    30
100
AcDbLine
 10
117.9964838011758
 20
86.07952537322347
 30
0.0
 11
117.9964838011758
 21
48.57952537322347
 31
0.0
  0
LINE
  5
C589
330
1F
100
AcDbEntity
  8
AM_2
100
AcDbLine
 10
122.3940006797504
 20
48.57952537322347
 30
0.0
 11
122.3940006797504
 21
86.07952537322349
 31
0.0
  0
MTEXT
  5
C58A
330
1F
100
AcDbEntity
  8
AM_6
100
AcDbMText
 10
106.3734667378033
 20
82.32698670343962
 30
0.0
 40
1.6
 41
45.0
 71
     4
 72
     5
  1
EBGK-5-5
 73
     1
 44
1.0
1001
ACAD
1000
MTEXTBEGIN
1070
    73
1070
     1
1070
    44
1040
1.0
1070
    74
1070
     0
1000
MTEXTEND
  0
MTEXT
  5
C5BE
330
1F
100
AcDbEntity
  8
AM_6
100
AcDbMText
 10
118.2375365049004
 20
82.32698670343962
 30
0.0
 40
1.6
 41
45.0
 71
     4
 72
     5
  1
　5
 73
     1
 44
1.0
1001
ACAD
1000
MTEXTBEGIN
1070
    73
1070
     1
1070
    44
1040
1.0
1070
    74
1070
     0
1000
MTEXTEND
  0
MTEXT
  5
C5BF
330
1F
100
AcDbEntity
  8
AM_6
100
AcDbMText
 10
122.635053383475
 20
82.32698670343962
 30
0.0
 40
1.6
 41
45.0
 71
     4
 72
     5
  1
　5
 73
     1
 44
1.0
1001
ACAD
1000
MTEXTBEGIN
1070
    73
1070
     1
1070
    44
1040
1.0
1070
    74
1070
     0
1000
MTEXTEND
  0
MTEXT
  5
C5C2
330
1F
100
AcDbEntity
  8
AM_6
100
AcDbMText
 10
106.3734667378033
 20
79.82698670343961
 30
0.0
 40
1.6
 41
45.0
 71
     4
 72
     5
  1
EBGK-6-7
 73
     1
 44
1.0
1001
ACAD
1000
MTEXTBEGIN
1070
    73
1070
     1
1070
    44
1040
1.0
1070
    74
1070
     0
1000
MTEXTEND
  0
MTEXT
  5
C5C3
330
1F
100
AcDbEntity
  8
AM_6
100
AcDbMText
 10
118.2375365049004
 20
79.82698670343963
 30
0.0
 40
1.6
 41
45.0
 71
     4
 72
     5
  1
　6
 73
     1
 44
1.0
1001
ACAD
1000
MTEXTBEGIN
1070
    73
1070
     1
1070
    44
1040
1.0
1070
    74
1070
     0
1000
MTEXTEND
  0
MTEXT
  5
C5C4
330
1F
100
AcDbEntity
  8
AM_6
100
AcDbMText
 10
122.635053383475
 20
79.82698670343963
 30
0.0
 40
1.6
 41
45.0
 71
     4
 72
     5
  1
　7
 73
     1
 44
1.0
1001
ACAD
1000
MTEXTBEGIN
1070
    73
1070
     1
1070
    44
1040
1.0
1070
    74
1070
     0
1000
MTEXTEND
  0
MTEXT
  5
C5C5
330
1F
100
AcDbEntity
  8
AM_6
100
AcDbMText
 10
106.3734667378033
 20
77.32698670343963
 30
0.0
 40
1.6
 41
45.0
 71
     4
 72
     5
  1
EBGK-6-10
 73
     1
 44
1.0
1001
ACAD
1000
MTEXTBEGIN
1070
    73
1070
     1
1070
    44
1040
1.0
1070
    74
1070
     0
1000
MTEXTEND
  0
MTEXT
  5
C5C6
330
1F
100
AcDbEntity
  8
AM_6
100
AcDbMText
 10
118.2375365049004
 20
77.32698670343964
 30
0.0
 40
1.6
 41
45.0
 71
     4
 72
     5
  1
　6
 73
     1
 44
1.0
1001
ACAD
1000
MTEXTBEGIN
1070
    73
1070
     1
1070
    44
1040
1.0
1070
    74
1070
     0
1000
MTEXTEND
  0
MTEXT
  5
C5C8
330
1F
100
AcDbEntity
  8
AM_6
100
AcDbMText
 10
106.3734667378033
 20
74.82698670343961
 30
0.0
 40
1.6
 41
45.0
 71
     4
 72
     5
  1
EBGK-7-8
 73
     1
 44
1.0
1001
ACAD
1000
MTEXTBEGIN
1070
    73
1070
     1
1070
    44
1040
1.0
1070
    74
1070
     0
1000
MTEXTEND
  0
MTEXT
  5
C5CA
330
1F
100
AcDbEntity
  8
AM_6
100
AcDbMText
 10
122.635053383475
 20
74.82698670343963
 30
0.0
 40
1.6
 41
45.0
 71
     4
 72
     5
  1
　8
 73
     1
 44
1.0
1001
ACAD
1000
MTEXTBEGIN
1070
    73
1070
     1
1070
    44
1040
1.0
1070
    74
1070
     0
1000
MTEXTEND
  0
MTEXT
  5
C5CB
330
1F
100
AcDbEntity
  8
AM_6
100
AcDbMText
 10
106.3734667378033
 20
72.32698670343963
 30
0.0
 40
1.6
 41
45.0
 71
     4
 72
     5
  1
EBGK-8-10
 73
     1
 44
1.0
1001
ACAD
1000
MTEXTBEGIN
1070
    73
1070
     1
1070
    44
1040
1.0
1070
    74
1070
     0
1000
MTEXTEND
  0
MTEXT
  5
C5CC
330
1F
100
AcDbEntity
  8
AM_6
100
AcDbMText
 10
118.2375365049004
 20
72.32698670343964
 30
0.0
 40
1.6
 41
45.0
 71
     4
 72
     5
  1
　8
 73
     1
 44
1.0
1001
ACAD
1000
MTEXTBEGIN
1070
    73
1070
     1
1070
    44
1040
1.0
1070
    74
1070
     0
1000
MTEXTEND
  0
MTEXT
  5
C5CE
330
1F
100
AcDbEntity
  8
AM_6
100
AcDbMText
 10
106.3734667378033
 20
69.82698670343961
 30
0.0
 40
1.6
 41
45.0
 71
     4
 72
     5
  1
EBGK-10-10
 73
     1
 44
1.0
1001
ACAD
1000
MTEXTBEGIN
1070
    73
1070
     1
1070
    44
1040
1.0
1070
    74
1070
     0
1000
MTEXTEND
  0
MTEXT
  5
C5D1
330
1F
100
AcDbEntity
  8
AM_6
100
AcDbMText
 10
106.3734667378033
 20
67.32698670343961
 30
0.0
 40
1.6
 41
45.0
 71
     4
 72
     5
  1
EBGK-10-13
 73
     1
 44
1.0
1001
ACAD
1000
MTEXTBEGIN
1070
    73
1070
     1
1070
    44
1040
1.0
1070
    74
1070
     0
1000
MTEXTEND
  0
MTEXT
  5
C5D4
330
1F
100
AcDbEntity
  8
AM_6
100
AcDbMText
 10
106.3734667378033
 20
62.32698670343961
 30
0.0
 40
1.6
 41
45.0
 71
     4
 72
     5
  1
EBGK-12-9
 73
     1
 44
1.0
1001
ACAD
1000
MTEXTBEGIN
1070
    73
1070
     1
1070
    44
1040
1.0
1070
    74
1070
     0
1000
MTEXTEND
  0
MTEXT
  5
C5DA
330
1F
100
AcDbEntity
  8
AM_6
100
AcDbMText
 10
106.3734667378033
 20
59.82698670343962
 30
0.0
 40
1.6
 41
45.0
 71
     4
 72
     5
  1
EBGK-12-15
 73
     1
 44
1.0
1001
ACAD
1000
MTEXTBEGIN
1070
    73
1070
     1
1070
    44
1040
1.0
1070
    74
1070
     0
1000
MTEXTEND
  0
MTEXT
  5
C5DD
330
1F
100
AcDbEntity
  8
AM_6
100
AcDbMText
 10
106.3734667378033
 20
57.32698670343962
 30
0.0
 40
1.6
 41
45.0
 71
     4
 72
     5
  1
EBGK-15-13
 73
     1
 44
1.0
1001
ACAD
1000
MTEXTBEGIN
1070
    73
1070
     1
1070
    44
1040
1.0
1070
    74
1070
     0
1000
MTEXTEND
  0
MTEXT
  5
C5E0
330
1F
100
AcDbEntity
  8
AM_6
100
AcDbMText
 10
106.3734667378033
 20
54.82698670343961
 30
0.0
 40
1.6
 41
45.0
 71
     4
 72
     5
  1
EBGK-15-20
 73
     1
 44
1.0
1001
ACAD
1000
MTEXTBEGIN
1070
    73
1070
     1
1070
    44
1040
1.0
1070
    74
1070
     0
1000
MTEXTEND
  0
MTEXT
  5
C5E3
330
1F
100
AcDbEntity
  8
AM_6
100
AcDbMText
 10
106.3734667378033
 20
49.82698670343961
 30
0.0
 40
1.6
 41
45.0
 71
     4
 72
     5
  1
EBGK-20-30
 73
     1
 44
1.0
1001
ACAD
1000
MTEXTBEGIN
1070
    73
1070
     1
1070
    44
1040
1.0
1070
    74
1070
     0
1000
MTEXTEND
  0
MTEXT
  5
C5FC
330
1F
100
AcDbEntity
  8
AM_6
100
AcDbMText
 10
122.050027210055
 20
72.32698670343963
 30
0.0
 40
1.6
 41
45.0
 71
     4
 72
     5
  1
　10
 73
     1
 44
1.0
1001
ACAD
1000
MTEXTBEGIN
1070
    73
1070
     1
1070
    44
1040
1.0
1070
    74
1070
     0
1000
MTEXTEND
  0
MTEXT
  5
C5FF
330
1F
100
AcDbEntity
  8
AM_6
100
AcDbMText
 10
122.050027210055
 20
69.82698670343963
 30
0.0
 40
1.6
 41
45.0
 71
     4
 72
     5
  1
　10
 73
     1
 44
1.0
1001
ACAD
1000
MTEXTBEGIN
1070
    73
1070
     1
1070
    44
1040
1.0
1070
    74
1070
     0
1000
MTEXTEND
  0
MTEXT
  5
C600
330
1F
100
AcDbEntity
  8
AM_6
100
AcDbMText
 10
122.050027210055
 20
67.32698670343963
 30
0.0
 40
1.6
 41
45.0
 71
     4
 72
     5
  1
　13
 73
     1
 44
1.0
1001
ACAD
1000
MTEXTBEGIN
1070
    73
1070
     1
1070
    44
1040
1.0
1070
    74
1070
     0
1000
MTEXTEND
  0
MTEXT
  5
C603
330
1F
100
AcDbEntity
  8
AM_6
100
AcDbMText
 10
117.6525103314804
 20
67.32698670343963
 30
0.0
 40
1.6
 41
45.0
 71
     4
 72
     5
  1
　10
 73
     1
 44
1.0
1001
ACAD
1000
MTEXTBEGIN
1070
    73
1070
     1
1070
    44
1040
1.0
1070
    74
1070
     0
1000
MTEXTEND
  0
MTEXT
  5
C606
330
1F
100
AcDbEntity
  8
AM_6
100
AcDbMText
 10
122.050027210055
 20
77.32698670343963
 30
0.0
 40
1.6
 41
45.0
 71
     4
 72
     5
  1
　10
 73
     1
 44
1.0
1001
ACAD
1000
MTEXTBEGIN
1070
    73
1070
     1
1070
    44
1040
1.0
1070
    74
1070
     0
1000
MTEXTEND
  0
MTEXT
  5
C608
330
1F
100
AcDbEntity
  8
AM_6
100
AcDbMText
 10
118.2375365049004
 20
74.82698670343964
 30
0.0
 40
1.6
 41
45.0
 71
     4
 72
     5
  1
　7
 73
     1
 44
1.0
1001
ACAD
1000
MTEXTBEGIN
1070
    73
1070
     1
1070
    44
1040
1.0
1070
    74
1070
     0
1000
MTEXTEND
  0
MTEXT
  5
C60F
330
1F
100
AcDbEntity
  8
AM_6
100
AcDbMText
 10
117.6525103314804
 20
69.82698670343963
 30
0.0
 40
1.6
 41
45.0
 71
     4
 72
     5
  1
　10
 73
     1
 44
1.0
1001
ACAD
1000
MTEXTBEGIN
1070
    73
1070
     1
1070
    44
1040
1.0
1070
    74
1070
     0
1000
MTEXTEND
  0
MTEXT
  5
C613
330
1F
100
AcDbEntity
  8
AM_6
100
AcDbMText
 10
117.6525103314804
 20
62.32698670343963
 30
0.0
 40
1.6
 41
45.0
 71
     4
 72
     5
  1
　12
 73
     1
 44
1.0
1001
ACAD
1000
MTEXTBEGIN
1070
    73
1070
     1
1070
    44
1040
1.0
1070
    74
1070
     0
1000
MTEXTEND
  0
MTEXT
  5
C616
330
1F
100
AcDbEntity
  8
AM_6
100
AcDbMText
 10
122.050027210055
 20
59.82698670343964
 30
0.0
 40
1.6
 41
45.0
 71
     4
 72
     5
  1
　15
 73
     1
 44
1.0
1001
ACAD
1000
MTEXTBEGIN
1070
    73
1070
     1
1070
    44
1040
1.0
1070
    74
1070
     0
1000
MTEXTEND
  0
MTEXT
  5
C617
330
1F
100
AcDbEntity
  8
AM_6
100
AcDbMText
 10
117.6525103314804
 20
59.82698670343964
 30
0.0
 40
1.6
 41
45.0
 71
     4
 72
     5
  1
　12
 73
     1
 44
1.0
1001
ACAD
1000
MTEXTBEGIN
1070
    73
1070
     1
1070
    44
1040
1.0
1070
    74
1070
     0
1000
MTEXTEND
  0
MTEXT
  5
C618
330
1F
100
AcDbEntity
  8
AM_6
100
AcDbMText
 10
122.050027210055
 20
57.32698670343964
 30
0.0
 40
1.6
 41
45.0
 71
     4
 72
     5
  1
　13
 73
     1
 44
1.0
1001
ACAD
1000
MTEXTBEGIN
1070
    73
1070
     1
1070
    44
1040
1.0
1070
    74
1070
     0
1000
MTEXTEND
  0
MTEXT
  5
C619
330
1F
100
AcDbEntity
  8
AM_6
100
AcDbMText
 10
117.6525103314804
 20
57.32698670343964
 30
0.0
 40
1.6
 41
45.0
 71
     4
 72
     5
  1
　15
 73
     1
 44
1.0
1001
ACAD
1000
MTEXTBEGIN
1070
    73
1070
     1
1070
    44
1040
1.0
1070
    74
1070
     0
1000
MTEXTEND
  0
MTEXT
  5
C61A
330
1F
100
AcDbEntity
  8
AM_6
100
AcDbMText
 10
122.050027210055
 20
54.82698670343963
 30
0.0
 40
1.6
 41
45.0
 71
     4
 72
     5
  1
　20
 73
     1
 44
1.0
1001
ACAD
1000
MTEXTBEGIN
1070
    73
1070
     1
1070
    44
1040
1.0
1070
    74
1070
     0
1000
MTEXTEND
  0
MTEXT
  5
C61B
330
1F
100
AcDbEntity
  8
AM_6
100
AcDbMText
 10
117.6525103314804
 20
54.82698670343963
 30
0.0
 40
1.6
 41
45.0
 71
     4
 72
     5
  1
　15
 73
     1
 44
1.0
1001
ACAD
1000
MTEXTBEGIN
1070
    73
1070
     1
1070
    44
1040
1.0
1070
    74
1070
     0
1000
MTEXTEND
  0
MTEXT
  5
C61C
330
1F
100
AcDbEntity
  8
AM_6
100
AcDbMText
 10
122.050027210055
 20
49.82698670343963
 30
0.0
 40
1.6
 41
45.0
 71
     4
 72
     5
  1
　30
 73
     1
 44
1.0
1001
ACAD
1000
MTEXTBEGIN
1070
    73
1070
     1
1070
    44
1040
1.0
1070
    74
1070
     0
1000
MTEXTEND
  0
MTEXT
  5
C61D
330
1F
100
AcDbEntity
  8
AM_6
100
AcDbMText
 10
117.6525103314804
 20
49.82698670343963
 30
0.0
 40
1.6
 41
45.0
 71
     4
 72
     5
  1
　20
 73
     1
 44
1.0
1001
ACAD
1000
MTEXTBEGIN
1070
    73
1070
     1
1070
    44
1040
1.0
1070
    74
1070
     0
1000
MTEXTEND
  0
MTEXT
  5
C624
330
1F
100
AcDbEntity
  8
AM_6
100
AcDbMText
 10
122.635053383475
 20
62.32698670343963
 30
0.0
 40
1.6
 41
45.0
 71
     4
 72
     5
  1
　9
 73
     1
 44
1.0
1001
ACAD
1000
MTEXTBEGIN
1070
    73
1070
     1
1070
    44
1040
1.0
1070
    74
1070
     0
1000
MTEXTEND
  0
MTEXT
  5
C627
330
1F
100
AcDbEntity
  8
AM_6
100
AcDbMText
 10
106.3734667378033
 20
64.82698670343961
 30
0.0
 40
1.6
 41
45.0
 71
     4
 72
     5
  1
EBGK-10-15
 73
     1
 44
1.0
1001
ACAD
1000
MTEXTBEGIN
1070
    73
1070
     1
1070
    44
1040
1.0
1070
    74
1070
     0
1000
MTEXTEND
  0
MTEXT
  5
C628
330
1F
100
AcDbEntity
  8
AM_6
100
AcDbMText
 10
122.050027210055
 20
64.82698670343963
 30
0.0
 40
1.6
 41
45.0
 71
     4
 72
     5
  1
　15
 73
     1
 44
1.0
1001
ACAD
1000
MTEXTBEGIN
1070
    73
1070
     1
1070
    44
1040
1.0
1070
    74
1070
     0
1000
MTEXTEND
  0
MTEXT
  5
C629
330
1F
100
AcDbEntity
  8
AM_6
100
AcDbMText
 10
117.6525103314804
 20
64.82698670343963
 30
0.0
 40
1.6
 41
45.0
 71
     4
 72
     5
  1
　10
 73
     1
 44
1.0
1001
ACAD
1000
MTEXTBEGIN
1070
    73
1070
     1
1070
    44
1040
1.0
1070
    74
1070
     0
1000
MTEXTEND
  0
MTEXT
  5
C75D
330
1F
100
AcDbEntity
  8
AM_6
100
AcDbMText
 10
15.3429884838209
 20
66.88326596476148
 30
0.0
 40
1.6
 41
45.0
 71
     4
 72
     5
  1
　項　目
 73
     1
 44
1.0
1001
ACAD
1000
MTEXTBEGIN
1070
    73
1070
     1
1070
    44
1040
1.0
1070
    74
1070
     0
1000
MTEXTEND
  0
MTEXT
  5
C75E
330
1F
100
AcDbEntity
  8
AM_6
100
AcDbMText
 10
35.1383108752161
 20
66.88326596476148
 30
0.0
 40
1.6
 41
45.0
 71
     4
 72
     5
  1
　値
 73
     1
 44
1.0
1001
ACAD
1000
MTEXTBEGIN
1070
    73
1070
     1
1070
    44
1040
1.0
1070
    74
1070
     0
1000
MTEXTEND
  0
LINE
  5
C75F
330
1F
100
AcDbEntity
  8
AM_1
370
    30
100
AcDbLine
 10
12.47608900383633
 20
68.38409287583314
 30
0.0
 11
41.45985963327619
 21
68.38409287583314
 31
0.0
  0
LINE
  5
C760
330
1F
100
AcDbEntity
  8
AM_1
370
    30
100
AcDbLine
 10
41.45985963327619
 20
68.38409287583314
 30
0.0
 11
41.45985963327622
 21
8.384092875833133
 31
0.0
  0
LINE
  5
C761
330
1F
100
AcDbEntity
  8
AM_1
370
    30
100
AcDbLine
 10
12.47608900383637
 20
8.384092875833147
 30
0.0
 11
12.47608900383633
 21
68.38409287583314
 31
0.0
  0
LINE
  5
C762
330
1F
100
AcDbEntity
  8
AM_0
100
AcDbLine
 10
12.47608900383633
 20
65.38409287583315
 30
0.0
 11
41.45985963327619
 21
65.38409287583315
 31
0.0
  0
LINE
  5
C763
330
1F
100
AcDbEntity
  8
AM_1
370
    30
100
AcDbLine
 10
32.66482587612698
 20
68.38409287583314
 30
0.0
 11
32.66482587612702
 21
8.384092875833136
 31
0.0
  0
MTEXT
  5
C764
330
1F
100
AcDbEntity
  8
AM_6
100
AcDbMText
 10
13.02330591190581
 20
63.98146198128419
 30
0.0
 40
1.6
 41
45.0
 71
     4
 72
     5
  1
見掛比重
 73
     1
 44
1.0
1001
ACAD
1000
MTEXTBEGIN
1070
    73
1070
     1
1070
    44
1040
1.0
1070
    74
1070
     0
1000
MTEXTEND
  0
MTEXT
  5
C765
330
1F
100
AcDbEntity
  8
AM_6
100
AcDbMText
 10
13.02330591190581
 20
60.8103475487657
 30
0.0
 40
1.6
 41
45.0
 71
     4
 72
     5
  1
硬度（スポンジ硬度）
 73
     1
 44
1.0
1001
ACAD
1000
MTEXTBEGIN
1070
    73
1070
     1
1070
    44
1040
1.0
1070
    74
1070
     0
1000
MTEXTEND
  0
MTEXT
  5
C766
330
1F
100
AcDbEntity
  8
AM_6
100
AcDbMText
 10
13.02330591190581
 20
57.81034754876571
 30
0.0
 40
1.6
 41
45.0
 71
     4
 72
     5
  1
引張強さ（kg/cm　）
 73
     1
 44
1.0
1001
ACAD
1000
MTEXTBEGIN
1070
    73
1070
     1
1070
    44
1040
1.0
1070
    74
1070
     0
1000
MTEXTEND
  0
MTEXT
  5
C767
330
1F
100
AcDbEntity
  8
AM_6
100
AcDbMText
 10
13.02330591190581
 20
54.81034754876571
 30
0.0
 40
1.6
 41
45.0
 71
     4
 72
     5
  1
伸び（％）
 73
     1
 44
1.0
1001
ACAD
1000
MTEXTBEGIN
1070
    73
1070
     1
1070
    44
1040
1.0
1070
    74
1070
     0
1000
MTEXTEND
  0
MTEXT
  5
C768
330
1F
100
AcDbEntity
  8
AM_6
100
AcDbMText
 10
25.09193262478253
 20
58.49988804232414
 30
0.0
 40
0.8
 41
45.0
 71
     4
 72
     5
  1
　2
 73
     1
 44
1.0
1001
ACAD
1000
MTEXTBEGIN
1070
    73
1070
     1
1070
    44
1040
1.0
1070
    74
1070
     0
1000
MTEXTEND
  0
LINE
  5
C769
330
1F
100
AcDbEntity
  8
AM_0
100
AcDbLine
 10
12.47608900383634
 20
62.38409287583315
 30
0.0
 11
41.45985963327619
 21
62.38409287583312
 31
0.0
  0
LINE
  5
C76A
330
1F
100
AcDbEntity
  8
AM_0
100
AcDbLine
 10
12.47608900383634
 20
59.38409287583315
 30
0.0
 11
41.4598596332762
 21
59.38409287583315
 31
0.0
  0
LINE
  5
C76B
330
1F
100
AcDbEntity
  8
AM_0
100
AcDbLine
 10
12.47608900383635
 20
56.38409287583314
 30
0.0
 11
41.45985963327619
 21
56.38409287583314
 31
0.0
  0
LINE
  5
C76C
330
1F
100
AcDbEntity
  8
AM_0
100
AcDbLine
 10
12.47608900383635
 20
53.38409287583314
 30
0.0
 11
41.45985963327619
 21
53.38409287583314
 31
0.0
  0
LINE
  5
C76D
330
1F
100
AcDbEntity
  8
AM_0
100
AcDbLine
 10
12.47608900383635
 20
41.38409287583314
 30
0.0
 11
41.4598596332762
 21
41.38409287583314
 31
0.0
  0
LINE
  5
C76E
330
1F
100
AcDbEntity
  8
AM_0
100
AcDbLine
 10
12.47608900383635
 20
35.38409287583315
 30
0.0
 11
41.45985963327619
 21
35.38409287583314
 31
0.0
  0
LINE
  5
C76F
330
1F
100
AcDbEntity
  8
AM_0
100
AcDbLine
 10
25.21016675786813
 20
32.38409287583315
 30
0.0
 11
41.45985963327619
 21
32.38409287583315
 31
0.0
  0
MTEXT
  5
C770
330
1F
100
AcDbEntity
  8
AM_6
100
AcDbMText
 10
13.0233059119058
 20
51.8103475487657
 30
0.0
 40
1.6
 41
45.0
 71
     4
 72
     5
  1
圧縮応力（g/cm　）
 73
     1
 44
1.0
1001
ACAD
1000
MTEXTBEGIN
1070
    73
1070
     1
1070
    44
1040
1.0
1070
    74
1070
     0
1000
MTEXTEND
  0
MTEXT
  5
C771
330
1F
100
AcDbEntity
  8
AM_6
100
AcDbMText
 10
24.13617674795622
 20
52.3324592575571
 30
0.0
 40
0.8
 41
45.0
 71
     4
 72
     5
  1
　2
 73
     1
 44
1.0
1001
ACAD
1000
MTEXTBEGIN
1070
    73
1070
     1
1070
    44
1040
1.0
1070
    74
1070
     0
1000
MTEXTEND
  0
LINE
  5
C772
330
1F
100
AcDbEntity
  8
AM_0
100
AcDbLine
 10
12.47608900383635
 20
47.38409287583315
 30
0.0
 11
41.4598596332762
 21
47.38409287583315
 31
0.0
  0
MTEXT
  5
C773
330
1F
100
AcDbEntity
  8
AM_6
100
AcDbMText
 10
13.0233059119058
 20
45.8103475487657
 30
0.0
 40
1.6
 41
45.0
 71
     4
 72
     5
  1
常温永久歪（％）
 73
     1
 44
1.0
1001
ACAD
1000
MTEXTBEGIN
1070
    73
1070
     1
1070
    44
1040
1.0
1070
    74
1070
     0
1000
MTEXTEND
  0
MTEXT
  5
C774
330
1F
100
AcDbEntity
  8
AM_6
100
AcDbMText
 10
13.0233059119058
 20
43.31034754876571
 30
0.0
 40
1.6
 41
45.0
 71
     4
 72
     5
  1
（22h×50％def）
 73
     1
 44
1.0
1001
ACAD
1000
MTEXTBEGIN
1070
    73
1070
     1
1070
    44
1040
1.0
1070
    74
1070
     0
1000
MTEXTEND
  0
MTEXT
  5
C775
330
1F
100
AcDbEntity
  8
AM_6
100
AcDbMText
 10
13.0233059119058
 20
39.81034754876571
 30
0.0
 40
1.6
 41
45.0
 71
     4
 72
     5
  1
加熱永久歪（％）
 73
     1
 44
1.0
1001
ACAD
1000
MTEXTBEGIN
1070
    73
1070
     1
1070
    44
1040
1.0
1070
    74
1070
     0
1000
MTEXTEND
  0
MTEXT
  5
C776
330
1F
100
AcDbEntity
  8
AM_6
100
AcDbMText
 10
12.28386796012669
 20
37.31034754876572
 30
0.0
 40
1.3
 41
45.0
 71
     4
 72
     5
  1
（70℃×22h×50％def）
 73
     1
 44
1.0
1001
ACAD
1000
MTEXTBEGIN
1070
    73
1070
     1
1070
    44
1040
1.0
1070
    74
1070
     0
1000
MTEXTEND
  0
MTEXT
  5
C777
330
1F
100
AcDbEntity
  8
AM_6
100
AcDbMText
 10
13.0233059119058
 20
32.31034754876571
 30
0.0
 40
1.6
 41
45.0
 71
     4
 72
     5
  1
使用周囲温度（℃）
 73
     1
 44
1.0
1001
ACAD
1000
MTEXTBEGIN
1070
    73
1070
     1
1070
    44
1040
1.0
1070
    74
1070
     0
1000
MTEXTEND
  0
MTEXT
  5
C778
330
1F
100
AcDbEntity
  8
AM_6
100
AcDbMText
 10
26.04797799299739
 20
33.81034754876571
 30
0.0
 40
1.6
 41
45.0
 71
     4
 72
     5
  1
高温連続
 73
     1
 44
1.0
1001
ACAD
1000
MTEXTBEGIN
1070
    73
1070
     1
1070
    44
1040
1.0
1070
    74
1070
     0
1000
MTEXTEND
  0
MTEXT
  5
C779
330
1F
100
AcDbEntity
  8
AM_6
100
AcDbMText
 10
26.04797799299739
 20
30.81034754876571
 30
0.0
 40
1.6
 41
45.0
 71
     4
 72
     5
  1
低温連続
 73
     1
 44
1.0
1001
ACAD
1000
MTEXTBEGIN
1070
    73
1070
     1
1070
    44
1040
1.0
1070
    74
1070
     0
1000
MTEXTEND
  0
LINE
  5
C77A
330
1F
100
AcDbEntity
  8
AM_0
100
AcDbLine
 10
12.47608900383635
 20
29.38409287583315
 30
0.0
 11
41.45985963327619
 21
29.38409287583315
 31
0.0
  0
LINE
  5
C77B
330
1F
100
AcDbEntity
  8
AM_0
100
AcDbLine
 10
25.21016675786813
 20
35.38409287583315
 30
0.0
 11
25.21016675786813
 21
29.38409287583315
 31
0.0
  0
MTEXT
  5
C77C
330
1F
100
AcDbEntity
  8
AM_6
100
AcDbMText
 10
13.02330591190582
 20
27.81034754876571
 30
0.0
 40
1.6
 41
45.0
 71
     4
 72
     5
  1
耐油性
 73
     1
 44
1.0
1001
ACAD
1000
MTEXTBEGIN
1070
    73
1070
     1
1070
    44
1040
1.0
1070
    74
1070
     0
1000
MTEXTEND
  0
LINE
  5
C77D
330
1F
100
AcDbEntity
  8
AM_0
100
AcDbLine
 10
12.47608900383636
 20
26.38409287583315
 30
0.0
 11
41.4598596332762
 21
26.38409287583315
 31
0.0
  0
MTEXT
  5
C77E
330
1F
100
AcDbEntity
  8
AM_6
100
AcDbMText
 10
13.02330591190583
 20
24.81034754876571
 30
0.0
 40
1.6
 41
45.0
 71
     4
 72
     5
  1
耐コロナ性
 73
     1
 44
1.0
1001
ACAD
1000
MTEXTBEGIN
1070
    73
1070
     1
1070
    44
1040
1.0
1070
    74
1070
     0
1000
MTEXTEND
  0
LINE
  5
C77F
330
1F
100
AcDbEntity
  8
AM_0
100
AcDbLine
 10
12.47608900383637
 20
23.38409287583315
 30
0.0
 11
41.45985963327621
 21
23.38409287583315
 31
0.0
  0
MTEXT
  5
C780
330
1F
100
AcDbEntity
  8
AM_6
100
AcDbMText
 10
13.02330591190584
 20
21.8103475487657
 30
0.0
 40
1.6
 41
45.0
 71
     4
 72
     5
  1
耐薬品性
 73
     1
 44
1.0
1001
ACAD
1000
MTEXTBEGIN
1070
    73
1070
     1
1070
    44
1040
1.0
1070
    74
1070
     0
1000
MTEXTEND
  0
LINE
  5
C781
330
1F
100
AcDbEntity
  8
AM_0
100
AcDbLine
 10
12.47608900383638
 20
20.38409287583315
 30
0.0
 11
41.45985963327622
 21
20.38409287583315
 31
0.0
  0
MTEXT
  5
C782
330
1F
100
AcDbEntity
  8
AM_6
100
AcDbMText
 10
13.02330591190584
 20
18.8103475487657
 30
0.0
 40
1.6
 41
45.0
 71
     4
 72
     5
  1
耐候性
 73
     1
 44
1.0
1001
ACAD
1000
MTEXTBEGIN
1070
    73
1070
     1
1070
    44
1040
1.0
1070
    74
1070
     0
1000
MTEXTEND
  0
LINE
  5
C783
330
1F
100
AcDbEntity
  8
AM_0
100
AcDbLine
 10
12.47608900383638
 20
17.38409287583315
 30
0.0
 11
41.45985963327622
 21
17.38409287583315
 31
0.0
  0
MTEXT
  5
C784
330
1F
100
AcDbEntity
  8
AM_6
100
AcDbMText
 10
13.02330591190584
 20
15.8103475487657
 30
0.0
 40
1.6
 41
45.0
 71
     4
 72
     5
  1
標準色
 73
     1
 44
1.0
1001
ACAD
1000
MTEXTBEGIN
1070
    73
1070
     1
1070
    44
1040
1.0
1070
    74
1070
     0
1000
MTEXTEND
  0
LINE
  5
C785
330
1F
100
AcDbEntity
  8
AM_0
100
AcDbLine
 10
12.47608900383638
 20
14.38409287583314
 30
0.0
 11
41.45985963327622
 21
14.38409287583314
 31
0.0
  0
MTEXT
  5
C786
330
1F
100
AcDbEntity
  8
AM_6
100
AcDbMText
 10
13.02330591190584
 20
12.8103475487657
 30
0.0
 40
1.6
 41
45.0
 71
     4
 72
     5
  1
寸法公差
 73
     1
 44
1.0
1001
ACAD
1000
MTEXTBEGIN
1070
    73
1070
     1
1070
    44
1040
1.0
1070
    74
1070
     0
1000
MTEXTEND
  0
LINE
  5
C787
330
1F
100
AcDbEntity
  8
AM_0
100
AcDbLine
 10
12.47608900383638
 20
11.38409287583314
 30
0.0
 11
41.45985963327622
 21
11.38409287583314
 31
0.0
  0
MTEXT
  5
C788
330
1F
100
AcDbEntity
  8
AM_6
100
AcDbMText
 10
13.02330591190584
 20
9.810347548765705
 30
0.0
 40
1.6
 41
45.0
 71
     4
 72
     5
  1
組織
 73
     1
 44
1.0
1001
ACAD
1000
MTEXTBEGIN
1070
    73
1070
     1
1070
    44
1040
1.0
1070
    74
1070
     0
1000
MTEXTEND
  0
LINE
  5
C789
330
1F
100
AcDbEntity
  8
AM_1
370
    30
100
AcDbLine
 10
12.47608900383628
 20
8.384092875833147
 30
0.0
 11
41.45985963327614
 21
8.384092875833133
 31
0.0
  0
MTEXT
  5
C78A
330
1F
100
AcDbEntity
  8
AM_6
100
AcDbMText
 10
33.67950771037066
 20
63.88326596476148
 30
0.0
 40
1.6
 41
45.0
 71
     4
 72
     5
  1
　0.35
 73
     1
 44
1.0
1001
ACAD
1000
MTEXTBEGIN
1070
    73
1070
     1
1070
    44
1040
1.0
1070
    74
1070
     0
1000
MTEXTEND
  0
MTEXT
  5
C78B
330
1F
100
AcDbEntity
  8
AM_6
100
AcDbMText
 10
34.63047672487662
 20
60.88326596476147
 30
0.0
 40
1.6
 41
45.0
 71
     4
 72
     5
  1
　20
 73
     1
 44
1.0
1001
ACAD
1000
MTEXTBEGIN
1070
    73
1070
     1
1070
    44
1040
1.0
1070
    74
1070
     0
1000
MTEXTEND
  0
MTEXT
  5
C78C
330
1F
100
AcDbEntity
  8
AM_6
100
AcDbMText
 10
34.10250845133486
 20
54.88326596476149
 30
0.0
 40
1.6
 41
45.0
 71
     4
 72
     5
  1
　250
 73
     1
 44
1.0
1001
ACAD
1000
MTEXTBEGIN
1070
    73
1070
     1
1070
    44
1040
1.0
1070
    74
1070
     0
1000
MTEXTEND
  0
MTEXT
  5
C78D
330
1F
100
AcDbEntity
  8
AM_6
100
AcDbMText
 10
34.10250845133486
 20
50.38326596476149
 30
0.0
 40
1.6
 41
45.0
 71
     4
 72
     5
  1
　500
 73
     1
 44
1.0
1001
ACAD
1000
MTEXTBEGIN
1070
    73
1070
     1
1070
    44
1040
1.0
1070
    74
1070
     0
1000
MTEXTEND
  0
MTEXT
  5
C78E
330
1F
100
AcDbEntity
  8
AM_6
100
AcDbMText
 10
34.10250845133486
 20
33.88326596476149
 30
0.0
 40
1.6
 41
45.0
 71
     4
 72
     5
  1
　200
 73
     1
 44
1.0
1001
ACAD
1000
MTEXTBEGIN
1070
    73
1070
     1
1070
    44
1040
1.0
1070
    74
1070
     0
1000
MTEXTEND
  0
MTEXT
  5
C78F
330
1F
100
AcDbEntity
  8
AM_6
100
AcDbMText
 10
33.67950771037067
 20
30.88326596476149
 30
0.0
 40
1.6
 41
45.0
 71
     4
 72
     5
  1
　-80
 73
     1
 44
1.0
1001
ACAD
1000
MTEXTBEGIN
1070
    73
1070
     1
1070
    44
1040
1.0
1070
    74
1070
     0
1000
MTEXTEND
  0
MTEXT
  5
C790
330
1F
100
AcDbEntity
  8
AM_6
100
AcDbMText
 10
35.1383108752161
 20
57.88326596476149
 30
0.0
 40
1.6
 41
45.0
 71
     4
 72
     5
  1
　8
 73
     1
 44
1.0
1001
ACAD
1000
MTEXTBEGIN
1070
    73
1070
     1
1070
    44
1040
1.0
1070
    74
1070
     0
1000
MTEXTEND
  0
MTEXT
  5
C791
330
1F
100
AcDbEntity
  8
AM_6
100
AcDbMText
 10
35.1383108752161
 20
44.38326596476151
 30
0.0
 40
1.6
 41
45.0
 71
     4
 72
     5
  1
　0
 73
     1
 44
1.0
1001
ACAD
1000
MTEXTBEGIN
1070
    73
1070
     1
1070
    44
1040
1.0
1070
    74
1070
     0
1000
MTEXTEND
  0
MTEXT
  5
C792
330
1F
100
AcDbEntity
  8
AM_6
100
AcDbMText
 10
34.63047672487661
 20
38.38326596476149
 30
0.0
 40
1.6
 41
45.0
 71
     4
 72
     5
  1
　10
 73
     1
 44
1.0
1001
ACAD
1000
MTEXTBEGIN
1070
    73
1070
     1
1070
    44
1040
1.0
1070
    74
1070
     0
1000
MTEXTEND
  0
MTEXT
  5
C793
330
1F
100
AcDbEntity
  8
AM_6
100
AcDbMText
 10
35.13831087521611
 20
24.88326596476149
 30
0.0
 40
1.6
 41
45.0
 71
     4
 72
     5
  1
　良
 73
     1
 44
1.0
1001
ACAD
1000
MTEXTBEGIN
1070
    73
1070
     1
1070
    44
1040
1.0
1070
    74
1070
     0
1000
MTEXTEND
  0
MTEXT
  5
C794
330
1F
100
AcDbEntity
  8
AM_6
100
AcDbMText
 10
35.13831087521611
 20
21.8832659647615
 30
0.0
 40
1.6
 41
45.0
 71
     4
 72
     5
  1
　良
 73
     1
 44
1.0
1001
ACAD
1000
MTEXTBEGIN
1070
    73
1070
     1
1070
    44
1040
1.0
1070
    74
1070
     0
1000
MTEXTEND
  0
MTEXT
  5
C795
330
1F
100
AcDbEntity
  8
AM_6
100
AcDbMText
 10
35.13831087521611
 20
18.88326596476149
 30
0.0
 40
1.6
 41
45.0
 71
     4
 72
     5
  1
　優
 73
     1
 44
1.0
1001
ACAD
1000
MTEXTBEGIN
1070
    73
1070
     1
1070
    44
1040
1.0
1070
    74
1070
     0
1000
MTEXTEND
  0
MTEXT
  5
C796
330
1F
100
AcDbEntity
  8
AM_6
100
AcDbMText
 10
34.37243334042282
 20
15.88326596476149
 30
0.0
 40
1.6
 41
45.0
 71
     4
 72
     5
  1
　橙色
 73
     1
 44
1.0
1001
ACAD
1000
MTEXTBEGIN
1070
    73
1070
     1
1070
    44
1040
1.0
1070
    74
1070
     0
1000
MTEXTEND
  0
MTEXT
  5
C797
330
1F
100
AcDbEntity
  8
AM_6
100
AcDbMText
 10
35.13831087521611
 20
27.8832659647615
 30
0.0
 40
1.6
 41
45.0
 71
     4
 72
     5
  1
　良
 73
     1
 44
1.0
1001
ACAD
1000
MTEXTBEGIN
1070
    73
1070
     1
1070
    44
1040
1.0
1070
    74
1070
     0
1000
MTEXTEND
  0
MTEXT
  5
C798
330
1F
100
AcDbEntity
  8
AM_6
100
AcDbMText
 10
17.24999827050486
 20
82.74999890292372
 30
0.0
 40
1.6
 41
45.0
 71
     4
 72
     5
  1
　L寸法はご希望の長さに切断します
 73
     1
 44
1.0
1001
ACAD
1000
MTEXTBEGIN
1070
    73
1070
     1
1070
    44
1040
1.0
1070
    74
1070
     0
1000
MTEXTEND
  0
MTEXT
  5
C799
330
1F
100
AcDbEntity
  8
AM_6
100
AcDbMText
 10
13.0233059119058
 20
48.8103475487657
 30
0.0
 40
1.6
 41
45.0
 71
     4
 72
     5
  1
（25％def）
 73
     1
 44
1.0
1001
ACAD
1000
MTEXTBEGIN
1070
    73
1070
     1
1070
    44
1040
1.0
1070
    74
1070
     0
1000
MTEXTEND
  0
MTEXT
  5
C79A
330
1F
100
AcDbEntity
  8
AM_6
100
AcDbMText
 10
34.60690343911333
 20
12.88326596476149
 30
0.0
 40
1.6
 41
45.0
 71
     4
 72
     5
  1
±10％
 73
     1
 44
1.0
1001
ACAD
1000
MTEXTBEGIN
1070
    73
1070
     1
1070
    44
1040
1.0
1070
    74
1070
     0
1000
MTEXTEND
  0
MTEXT
  5
C79B
330
1F
100
AcDbEntity
  8
AM_6
100
AcDbMText
 10
34.37243334042283
 20
9.883265964761495
 30
0.0
 40
1.6
 41
45.0
 71
     4
 72
     5
  1
　単泡
 73
     1
 44
1.0
1001
ACAD
1000
MTEXTBEGIN
1070
    73
1070
     1
1070
    44
1040
1.0
1070
    74
1070
     0
1000
MTEXTEND
  0
MTEXT
  5
C84A
330
1F
100
AcDbEntity
  8
AM_6
100
AcDbMText
 10
106.3734667378033
 20
52.32698670343961
 30
0.0
 40
1.6
 41
45.0
 71
     4
 72
     5
  1
EBGK-20-20
 73
     1
 44
1.0
1001
ACAD
1000
MTEXTBEGIN
1070
    73
1070
     1
1070
    44
1040
1.0
1070
    74
1070
     0
1000
MTEXTEND
  0
MTEXT
  5
C84B
330
1F
100
AcDbEntity
  8
AM_6
100
AcDbMText
 10
122.050027210055
 20
52.32698670343963
 30
0.0
 40
1.6
 41
45.0
 71
     4
 72
     5
  1
　20
 73
     1
 44
1.0
1001
ACAD
1000
MTEXTBEGIN
1070
    73
1070
     1
1070
    44
1040
1.0
1070
    74
1070
     0
1000
MTEXTEND
  0
MTEXT
  5
C84C
330
1F
100
AcDbEntity
  8
AM_6
100
AcDbMText
 10
117.6525103314804
 20
52.32698670343963
 30
0.0
 40
1.6
 41
45.0
 71
     4
 72
     5
  1
　20
 73
     1
 44
1.0
1001
ACAD
1000
MTEXTBEGIN
1070
    73
1070
     1
1070
    44
1040
1.0
1070
    74
1070
     0
1000
MTEXTEND
  0
LINE
  5
C84D
330
1F
100
AcDbEntity
  8
AM_2
100
AcDbLine
 10
105.8262498297338
 20
53.57952537322347
 30
0.0
 11
126.791517558325
 21
53.57952537322347
 31
0.0
  0
ENDSEC
  0
SECTION
  2
OBJECTS
  0
DICTIONARY
  5
C
330
0
100
AcDbDictionary
281
     1
  3
ACAD_2007HEADERVARS_RT
350
C850
  3
ACAD_BGPLOT_KEY
350
AB06
  3
ACAD_COLOR
350
A91D
  3
ACAD_GROUP
350
D
  3
ACAD_LAYOUT
350
1A
  3
ACAD_MATERIAL
350
A91C
  3
ACAD_MLINESTYLE
350
17
  3
ACAD_PLOTSETTINGS
350
19
  3
ACAD_PLOTSTYLENAME
350
E
  3
ACAD_TABLESTYLE
350
AAB9
  3
ACAD_VISUALSTYLE
350
C817
  3
AcAsAppObject
350
3DA1
  3
ACASGREF_MASTER
350
3DE9
  3
AcDbVariableDictionary
350
34
  3
AcmDictionary
350
47
  3
AD_GREF_MODULE
350
3DEA
  3
AD_MAPI_MODULE
350
3E06
  3
AMG
350
2B
  3
AMGSNAPSETTINGS
350
7D
  3
ASE_INDEX_DICTIONARY
350
9F48
  3
DWGPROPS
350
C84F
  3
MAPISURF_MODULE
350
3DEB
  0
DICTIONARY
  5
3F95
330
2
100
AcDbDictionary
280
     1
281
     1
  3
ACAD_LAYERFILTERS
360
C291
  3
ACAD_LAYERSTATES
360
3F96
  3
ACLYDICTIONARY
360
C290
  3
AMLAYER_GROUPCOLORS
360
AAB4
  0
DICTIONARY
  5
8A
330
1F
100
AcDbDictionary
280
     1
281
     1
  0
DICTIONARY
  5
C68B
330
C64F
100
AcDbDictionary
280
     1
281
     1
  3
ACAD_SORTENTS
360
C68C
  0
DICTIONARY
  5
C850
102
{ACAD_REACTORS
330
C
102
}
330
C
100
AcDbDictionary
281
     1
  3
DIMARCSYM
350
C852
  3
DIMFXL
350
C851
  0
DICTIONARY
  5
AB06
102
{ACAD_REACTORS
330
C
102
}
330
C
100
AcDbDictionary
280
     1
281
     1
  0
DICTIONARY
  5
A91D
102
{ACAD_REACTORS
330
C
102
}
330
C
100
AcDbDictionary
281
     1
  0
DICTIONARY
  5
D
102
{ACAD_REACTORS
330
C
102
}
330
C
100
AcDbDictionary
281
     1
  0
DICTIONARY
  5
1A
102
{ACAD_REACTORS
330
C
102
}
330
C
100
AcDbDictionary
281
     1
  3
Model
350
22
  3
ﾚｲｱｳﾄ1
350
1E
  3
ﾚｲｱｳﾄ2
350
26
  0
DICTIONARY
  5
A91C
102
{ACAD_REACTORS
330
C
102
}
330
C
100
AcDbDictionary
281
     1
  3
ByBlock
350
C815
  3
ByLayer
350
C814
  3
Global
350
C816
  0
DICTIONARY
  5
17
102
{ACAD_REACTORS
330
C
102
}
330
C
100
AcDbDictionary
281
     1
  3
Standard
350
18
  0
DICTIONARY
  5
19
102
{ACAD_REACTORS
330
C
102
}
330
C
100
AcDbDictionary
281
     1
  0
ACDBDICTIONARYWDFLT
  5
E
102
{ACAD_REACTORS
330
C
102
}
330
C
100
AcDbDictionary
281
     1
  3
Normal
350
F
100
AcDbDictionaryWithDefault
340
F
  0
DICTIONARY
  5
AAB9
102
{ACAD_REACTORS
330
C
102
}
330
C
100
AcDbDictionary
281
     1
  3
Standard
350
AABA
  0
DICTIONARY
  5
C817
102
{ACAD_REACTORS
330
C
102
}
330
C
100
AcDbDictionary
281
     1
  3
2dWireframe
350
C81D
  3
3D Hidden
350
C81F
  3
3dWireframe
350
C81E
  3
Basic
350
C81C
  3
Brighten
350
C823
  3
ColorChange
350
C827
  3
Conceptual
350
C820
  3
Dim
350
C822
  3
Facepattern
350
C826
  3
Flat
350
C818
  3
FlatWithEdges
350
C819
  3
Gouraud
350
C81A
  3
GouraudWithEdges
350
C81B
  3
Linepattern
350
C825
  3
Realistic
350
C821
  3
Thicken
350
C824
  0
ACAD_PROXY_OBJECT
  5
3DA1
102
{ACAD_REACTORS
330
C
102
}
330
C
100
AcDbProxyObject
 90
      499
 91
      576
 95
   917527
 70
     0
 93
       10
310
407F
 94
        0
1001
ACAD
1000
AcRTDxfName
1000
ASAPP
  0
ACAD_PROXY_OBJECT
  5
3DE9
102
{ACAD_REACTORS
330
C
102
}
330
C
100
AcDbProxyObject
 90
      499
 91
      581
 95
   917527
 70
     0
 93
       34
310
010000407F
 94
        0
1001
ACAD
1000
AcRTDxfName
1000
ACASGREFMASTER
  0
DICTIONARY
  5
34
102
{ACAD_REACTORS
330
C
102
}
330
C
100
AcDbDictionary
281
     1
  3
CTABLESTYLE
350
AAF3
  3
DIMASSOC
350
A10C
  3
FIELDEVAL
350
AB07
  3
INDEXCTL
350
35
  3
SORTENTS
350
194C
  0
DICTIONARY
  5
47
102
{ACAD_REACTORS
330
C
102
}
330
C
100
AcDbDictionary
281
     1
  3
AcmBOM
350
7E8
  3
AcmStdDictionary
350
4C
  3
AMDTSECTSYM_ARROWCOLOR
350
A929
  0
ACAD_PROXY_OBJECT
  5
3DEA
102
{ACAD_REACTORS
330
C
102
}
330
C
100
AcDbProxyObject
 90
      499
 91
      582
 95
   917527
 70
     0
 93
      114
310
00000043800000000000000000003F
 94
        0
1001
ACAD
1000
AcRTDxfName
1000
ACADGREFMODULE
  0
ACAD_PROXY_OBJECT
  5
3E06
102
{ACAD_REACTORS
330
C
102
}
330
C
100
AcDbProxyObject
 90
      499
 91
      594
 95
   917527
 70
     0
 93
       34
310
05000044FF
 94
        0
1001
ACAD
1000
AcRTDxfName
1000
MAPIADMODULE
  0
DICTIONARY
  5
2B
102
{ACAD_REACTORS
330
C
102
}
330
C
100
AcDbDictionary
281
     1
  0
DICTIONARY
  5
7D
102
{ACAD_REACTORS
330
C
102
}
330
C
100
AcDbDictionary
281
     1
  0
DICTIONARY
  5
9F48
102
{ACAD_REACTORS
330
C
102
}
330
C
100
AcDbDictionary
281
     1
  3
ASEBlockHierarchyIndexRecord
350
9F49
1001
DCO15
1040
1425739953.442
  0
XRECORD
  5
C84F
102
{ACAD_REACTORS
330
C
102
}
330
C
100
AcDbXrecord
280
     1
  1
DWGPROPS COOKIE
  2

  3

  4

  6

  7

  8
Administrator
  9

300
AmdtFileType=84
301
=
302
=
303
=
304
=
305
=
306
=
307
=
308
=
309
=
 40
0.3748674537037037
 41
2454837.465145579
 42
2456185.498824861
  1

 90
        1
  0
ACAD_PROXY_OBJECT
  5
3DEB
102
{ACAD_REACTORS
330
C
102
}
330
C
100
AcDbProxyObject
 90
      499
 91
      583
 95
   917527
 70
     0
 93
        8
310
047E
 94
        0
1001
ACAD
1000
AcRTDxfName
1000
AMDTMAPISURFMOUDULE
  0
DICTIONARY
  5
C291
102
{ACAD_REACTORS
330
3F95
102
}
330
3F95
100
AcDbDictionary
281
     1
  0
DICTIONARY
  5
3F96
102
{ACAD_REACTORS
330
3F95
102
}
330
3F95
100
AcDbDictionary
281
     1
  3
20011210
350
3FB7
  0
DICTIONARY
  5
C290
102
{ACAD_REACTORS
330
3F95
102
}
330
3F95
100
AcDbDictionary
281
     1
1001
ACAD
1000
<All
  0
DICTIONARY
  5
AAB4
102
{ACAD_REACTORS
330
3F95
102
}
330
3F95
100
AcDbDictionary
280
     1
281
     1
  0
SORTENTSTABLE
  5
C68C
102
{ACAD_REACTORS
330
C68B
102
}
330
C68B
100
AcDbSortentsTable
330
C64F
  0
XRECORD
  5
C852
102
{ACAD_REACTORS
330
C850
102
}
330
C850
100
AcDbXrecord
280
     1
 70
     1
  0
XRECORD
  5
C851
102
{ACAD_REACTORS
330
C850
102
}
330
C850
100
AcDbXrecord
280
     1
 40
0.0
  0
LAYOUT
  5
22
102
{ACAD_XDICTIONARY
360
C855
102
}
102
{ACAD_REACTORS
330
1A
102
}
330
1A
100
AcDbPlotSettings
  1

  2
FX DocuWide 2050/2051
  4
A4
  6
AM_VIEW1
 40
3.174999952316284
 41
3.174999952316284
 42
3.175003051757812
 43
3.17498779296875
 44
209.9944915771484
 45
296.989501953125
 46
0.0
 47
1.314013290113393
 48
0.0
 49
-0.0000010970761792
140
148.4999982705049
141
104.9999989029238
142
1.0
143
0.5156044277737602
 70
  3764
 72
     1
 73
     1
 74
     4
  7
monochrome.ctb
 75
     0
147
1.939471319743564
148
0.0
149
0.0000010970761792
100
AcDbLayout
  1
Model
 70
     1
 71
     0
 10
0.0
 20
0.0
 11
12.0
 21
9.0
 12
0.0
 22
0.0
 32
0.0
 14
0.0
 24
0.0
 34
0.0
 15
0.0
 25
0.0
 35
0.0
146
0.0
 13
0.0
 23
0.0
 33
0.0
 16
1.0
 26
0.0
 36
0.0
 17
0.0
 27
1.0
 37
0.0
 76
     0
330
1F
331
C812
1001
ACAD_PSEXT
1000
FX DocuWide 2050/2051
1000
FX DocuWide 2050/2051
1000
IP_192.168.2.203
1000

1070
     0
  0
LAYOUT
  5
1E
102
{ACAD_XDICTIONARY
360
C853
102
}
102
{ACAD_REACTORS
330
1A
102
}
330
1A
100
AcDbPlotSettings
  1

  2
\\ML370\XEROX
  4
A4
  6

 40
3.174999952316284
 41
3.174999952316284
 42
3.175003051757812
 43
3.17498779296875
 44
209.8674926757813
 45
296.6719970703125
 46
0.0
 47
0.0
 48
0.0
 49
0.0
140
0.0
141
0.0
142
1.0
143
1.0
 70
   688
 72
     1
 73
     1
 74
     5
  7
monochrome.ctb
 75
    16
147
1.0
148
0.0
149
0.0
100
AcDbLayout
  1
ﾚｲｱｳﾄ1
 70
     1
 71
     1
 10
-3.17498779296875
 20
-3.174999952316284
 11
293.4970092773438
 21
206.692492723465
 12
0.0
 22
0.0
 32
0.0
 14
1.000000000000000E+20
 24
1.000000000000000E+20
 34
1.000000000000000E+20
 15
-1.000000000000000E+20
 25
-1.000000000000000E+20
 35
-1.000000000000000E+20
146
0.0
 13
0.0
 23
0.0
 33
0.0
 16
1.0
 26
0.0
 36
0.0
 17
0.0
 27
1.0
 37
0.0
 76
     0
330
1B
  0
LAYOUT
  5
26
102
{ACAD_XDICTIONARY
360
C857
102
}
102
{ACAD_REACTORS
330
1A
102
}
330
1A
100
AcDbPlotSettings
  1

  2
\\ML370\XEROX
  4

  6

 40
0.0
 41
0.0
 42
0.0
 43
0.0
 44
0.0
 45
0.0
 46
0.0
 47
0.0
 48
0.0
 49
0.0
140
0.0
141
0.0
142
1.0
143
1.0
 70
   688
 72
     0
 73
     0
 74
     5
  7
monochrome.ctb
 75
    16
147
1.0
148
0.0
149
0.0
100
AcDbLayout
  1
ﾚｲｱｳﾄ2
 70
     1
 71
     2
 10
0.0
 20
0.0
 11
12.0
 21
9.0
 12
0.0
 22
0.0
 32
0.0
 14
0.0
 24
0.0
 34
0.0
 15
0.0
 25
0.0
 35
0.0
146
0.0
 13
0.0
 23
0.0
 33
0.0
 16
1.0
 26
0.0
 36
0.0
 17
0.0
 27
1.0
 37
0.0
 76
     0
330
23
  0
MATERIAL
  5
C815
102
{ACAD_XDICTIONARY
360
C85D
102
}
102
{ACAD_REACTORS
330
A91C
102
}
330
A91C
100
AcDbMaterial
  1
ByBlock
  0
MATERIAL
  5
C814
102
{ACAD_XDICTIONARY
360
C85B
102
}
102
{ACAD_REACTORS
330
A91C
102
}
330
A91C
100
AcDbMaterial
  1
ByLayer
  0
MATERIAL
  5
C816
102
{ACAD_XDICTIONARY
360
C85F
102
}
102
{ACAD_REACTORS
330
A91C
102
}
330
A91C
100
AcDbMaterial
  1
Global
  0
MLINESTYLE
  5
18
102
{ACAD_REACTORS
330
17
102
}
330
17
100
AcDbMlineStyle
  2
STANDARD
 70
     0
  3

 62
   256
 51
90.0
 52
90.0
 71
     2
 49
0.5
 62
   256
  6
BYLAYER
 49
-0.5
 62
   256
  6
BYLAYER
  0
ACDBPLACEHOLDER
  5
F
102
{ACAD_REACTORS
330
E
102
}
330
E
  0
TABLESTYLE
  5
AABA
102
{ACAD_XDICTIONARY
360
C859
102
}
102
{ACAD_REACTORS
330
AAB9
102
}
330
AAB9
100
AcDbTableStyle
  3
Standard
 70
     0
 71
     0
 40
1.5
 41
1.5
280
     0
281
     0
  7
STANDARD
140
4.5
170
     2
 62
     0
 63
     7
283
     0
274
    -2
284
     1
 64
     0
275
    -2
285
     1
 65
     0
276
    -2
286
     1
 66
     0
277
    -2
287
     1
 67
     0
278
    -2
288
     1
 68
     0
279
    -2
289
     1
 69
     0
  7
STANDARD
140
6.0
170
     5
 62
     0
 63
     7
283
     0
274
    -2
284
     1
 64
     0
275
    -2
285
     1
 65
     0
276
    -2
286
     1
 66
     0
277
    -2
287
     1
 67
     0
278
    -2
288
     1
 68
     0
279
    -2
289
     1
 69
     0
  7
STANDARD
140
4.5
170
     5
 62
     0
 63
     7
283
     0
274
    -2
284
     1
 64
     0
275
    -2
285
     1
 65
     0
276
    -2
286
     1
 66
     0
277
    -2
287
     1
 67
     0
278
    -2
288
     1
 68
     0
279
    -2
289
     1
 69
     0
  0
VISUALSTYLE
  5
C81D
102
{ACAD_REACTORS
330
C817
102
}
330
C817
100
AcDbVisualStyle
  2
2dWireframe
 70
     4
 71
     0
 72
     2
 73
     0
 90
        0
 40
-0.6
 41
-30.0
 62
     5
 63
     7
 74
     1
 91
        4
 64
     7
 65
   257
 75
     1
175
     1
 42
1.0
 92
        0
 66
   257
 43
1.0
 76
     1
 77
     6
 78
     2
 67
     7
 79
     5
170
     0
171
     0
290
     0
174
     0
 93
        1
 44
0.0
173
     0
291
     0
 45
0.0
1001
ACAD
1000
AcDbSavedByObjectVersion
1070
     0
  0
VISUALSTYLE
  5
C81F
102
{ACAD_REACTORS
330
C817
102
}
330
C817
100
AcDbVisualStyle
  2
3D Hidden
 70
     6
 71
     1
 72
     2
 73
     2
 90
        0
 40
-0.6
 41
-30.0
 62
     5
 63
     7
 74
     2
 91
        2
 64
     7
 65
   257
 75
     2
175
     1
 42
40.0
 92
        0
 66
   257
 43
1.0
 76
     1
 77
     6
 78
     2
 67
     7
 79
     3
170
     0
171
     0
290
     0
174
     0
 93
        1
 44
0.0
173
     0
291
     0
 45
0.0
1001
ACAD
1000
AcDbSavedByObjectVersion
1070
     0
  0
VISUALSTYLE
  5
C81E
102
{ACAD_REACTORS
330
C817
102
}
330
C817
100
AcDbVisualStyle
  2
3dWireframe
 70
     5
 71
     0
 72
     2
 73
     0
 90
        0
 40
-0.6
 41
-30.0
 62
     5
 63
     7
 74
     1
 91
        4
 64
     7
 65
   257
 75
     1
175
     1
 42
1.0
 92
        0
 66
   257
 43
1.0
 76
     1
 77
     6
 78
     2
 67
     7
 79
     5
170
     0
171
     0
290
     0
174
     0
 93
        1
 44
0.0
173
     0
291
     0
 45
0.0
1001
ACAD
1000
AcDbSavedByObjectVersion
1070
     0
  0
VISUALSTYLE
  5
C81C
102
{ACAD_REACTORS
330
C817
102
}
330
C817
100
AcDbVisualStyle
  2
Basic
 70
     7
 71
     1
 72
     0
 73
     1
 90
        0
 40
-0.6
 41
-30.0
 62
     5
 63
     7
 74
     0
 91
        4
 64
     7
 65
   257
 75
     1
175
     1
 42
1.0
 92
        8
 66
     7
 43
1.0
 76
     1
 77
     6
 78
     2
 67
     7
 79
     5
170
     0
171
     0
290
     0
174
     0
 93
        1
 44
0.0
173
     0
291
     1
 45
0.0
1001
ACAD
1000
AcDbSavedByObjectVersion
1070
     0
  0
VISUALSTYLE
  5
C823
102
{ACAD_REACTORS
330
C817
102
}
330
C817
100
AcDbVisualStyle
  2
Brighten
 70
    12
 71
     2
 72
     2
 73
     0
 90
        0
 40
-0.6
 41
-30.0
 62
     5
 63
     7
 74
     1
 91
        4
 64
     7
 65
   257
 75
     1
175
     1
 42
1.0
 92
        8
 66
     7
 43
1.0
 76
     1
 77
     6
 78
     2
 67
     7
 79
     5
170
     0
171
     0
290
     0
174
     0
 93
        1
 44
50.0
173
     0
291
     1
 45
0.0
1001
ACAD
1000
AcDbSavedByObjectVersion
1070
     0
  0
VISUALSTYLE
  5
C827
102
{ACAD_REACTORS
330
C817
102
}
330
C817
100
AcDbVisualStyle
  2
ColorChange
 70
    16
 71
     2
 72
     2
 73
     3
 90
        0
 40
-0.6
 41
-30.0
 62
     5
 63
     8
 74
     1
 91
        4
 64
     7
 65
   257
 75
     1
175
     1
 42
1.0
 92
        8
 66
     8
 43
1.0
 76
     1
 77
     6
 78
     2
 67
     7
 79
     5
170
     0
171
     0
290
     0
174
     0
 93
        1
 44
0.0
173
     0
291
     1
 45
0.0
1001
ACAD
1000
AcDbSavedByObjectVersion
1070
     0
  0
VISUALSTYLE
  5
C820
102
{ACAD_REACTORS
330
C817
102
}
330
C817
100
AcDbVisualStyle
  2
Conceptual
 70
     9
 71
     3
 72
     2
 73
     0
 90
        0
 40
-0.6
 41
-30.0
 62
     5
 63
     7
 74
     2
 91
        2
 64
     7
 65
   257
 75
     1
175
     1
 42
40.0
 92
        8
 66
     7
 43
1.0
 76
     1
 77
     6
 78
     2
 67
     7
 79
     3
170
     0
171
     0
290
     0
174
     0
 93
        1
 44
0.0
173
     0
291
     0
 45
0.0
1001
ACAD
1000
AcDbSavedByObjectVersion
1070
     0
  0
VISUALSTYLE
  5
C822
102
{ACAD_REACTORS
330
C817
102
}
330
C817
100
AcDbVisualStyle
  2
Dim
 70
    11
 71
     2
 72
     2
 73
     0
 90
        0
 40
-0.6
 41
-30.0
 62
     5
 63
     7
 74
     1
 91
        4
 64
     7
 65
   257
 75
     1
175
     1
 42
1.0
 92
        8
 66
     7
 43
1.0
 76
     1
 77
     6
 78
     2
 67
     7
 79
     5
170
     0
171
     0
290
     0
174
     0
 93
        1
 44
-50.0
173
     0
291
     1
 45
0.0
1001
ACAD
1000
AcDbSavedByObjectVersion
1070
     0
  0
VISUALSTYLE
  5
C826
102
{ACAD_REACTORS
330
C817
102
}
330
C817
100
AcDbVisualStyle
  2
Facepattern
 70
    15
 71
     2
 72
     2
 73
     0
 90
        0
 40
-0.6
 41
-30.0
 62
     5
 63
     7
 74
     1
 91
        4
 64
     7
 65
   257
 75
     1
175
     1
 42
1.0
 92
        8
 66
     7
 43
1.0
 76
     1
 77
     6
 78
     2
 67
     7
 79
     5
170
     0
171
     0
290
     0
174
     0
 93
        1
 44
0.0
173
     0
291
     1
 45
0.0
1001
ACAD
1000
AcDbSavedByObjectVersion
1070
     0
  0
VISUALSTYLE
  5
C818
102
{ACAD_REACTORS
330
C817
102
}
330
C817
100
AcDbVisualStyle
  2
Flat
 70
     0
 71
     2
 72
     1
 73
     1
 90
        2
 40
-0.6
 41
30.0
 62
     5
 63
     7
 74
     0
 91
        4
 64
     7
 65
   257
 75
     1
175
     1
 42
1.0
 92
        8
 66
     7
 43
1.0
 76
     1
 77
     6
 78
     2
 67
     7
 79
     5
170
     0
171
     0
290
     0
174
     0
 93
       13
 44
0.0
173
     0
291
     1
 45
0.0
1001
ACAD
1000
AcDbSavedByObjectVersion
1070
     0
  0
VISUALSTYLE
  5
C819
102
{ACAD_REACTORS
330
C817
102
}
330
C817
100
AcDbVisualStyle
  2
FlatWithEdges
 70
     1
 71
     2
 72
     1
 73
     1
 90
        2
 40
-0.6
 41
30.0
 62
     5
 63
     7
 74
     1
 91
        4
 64
     7
 65
   257
 75
     1
175
     1
 42
1.0
 92
        0
 66
   257
 43
1.0
 76
     1
 77
     6
 78
     2
 67
     7
 79
     5
170
     0
171
     0
290
     0
174
     0
 93
       13
 44
0.0
173
     0
291
     1
 45
0.0
1001
ACAD
1000
AcDbSavedByObjectVersion
1070
     0
  0
VISUALSTYLE
  5
C81A
102
{ACAD_REACTORS
330
C817
102
}
330
C817
100
AcDbVisualStyle
  2
Gouraud
 70
     2
 71
     2
 72
     2
 73
     1
 90
        2
 40
-0.6
 41
30.0
 62
     5
 63
     7
 74
     0
 91
        4
 64
     7
 65
   257
 75
     1
175
     1
 42
1.0
 92
        0
 66
     7
 43
1.0
 76
     1
 77
     6
 78
     2
 67
     7
 79
     5
170
     0
171
     0
290
     0
174
     0
 93
       13
 44
0.0
173
     0
291
     1
 45
0.0
1001
ACAD
1000
AcDbSavedByObjectVersion
1070
     0
  0
VISUALSTYLE
  5
C81B
102
{ACAD_REACTORS
330
C817
102
}
330
C817
100
AcDbVisualStyle
  2
GouraudWithEdges
 70
     3
 71
     2
 72
     2
 73
     1
 90
        2
 40
-0.6
 41
30.0
 62
     5
 63
     7
 74
     1
 91
        4
 64
     7
 65
   257
 75
     1
175
     1
 42
1.0
 92
        0
 66
   257
 43
1.0
 76
     1
 77
     6
 78
     2
 67
     7
 79
     5
170
     0
171
     0
290
     0
174
     0
 93
       13
 44
0.0
173
     0
291
     1
 45
0.0
1001
ACAD
1000
AcDbSavedByObjectVersion
1070
     0
  0
VISUALSTYLE
  5
C825
102
{ACAD_REACTORS
330
C817
102
}
330
C817
100
AcDbVisualStyle
  2
Linepattern
 70
    14
 71
     2
 72
     2
 73
     0
 90
        0
 40
-0.6
 41
-30.0
 62
     5
 63
     7
 74
     1
 91
        4
 64
     7
 65
   257
 75
     7
175
     7
 42
1.0
 92
        8
 66
     7
 43
1.0
 76
     1
 77
     6
 78
     2
 67
     7
 79
     5
170
     0
171
     0
290
     0
174
     0
 93
        1
 44
0.0
173
     0
291
     1
 45
0.0
1001
ACAD
1000
AcDbSavedByObjectVersion
1070
     0
  0
VISUALSTYLE
  5
C821
102
{ACAD_REACTORS
330
C817
102
}
330
C817
100
AcDbVisualStyle
  2
Realistic
 70
     8
 71
     2
 72
     2
 73
     0
 90
        0
 40
-0.6
 41
-30.0
 62
     5
 63
     7
 74
     1
 91
        0
 64
     7
 65
   257
 75
     1
175
     1
 42
1.0
 92
        8
 66
     8
 43
1.0
 76
     1
 77
     6
 78
     2
 67
     7
 79
     5
170
     0
171
     0
290
     0
174
     0
 93
       13
 44
0.0
173
     0
291
     0
 45
0.0
1001
ACAD
1000
AcDbSavedByObjectVersion
1070
     0
  0
VISUALSTYLE
  5
C824
102
{ACAD_REACTORS
330
C817
102
}
330
C817
100
AcDbVisualStyle
  2
Thicken
 70
    13
 71
     2
 72
     2
 73
     0
 90
        0
 40
-0.6
 41
-30.0
 62
     5
 63
     7
 74
     1
 91
        4
 64
     7
 65
   257
 75
     1
175
     1
 42
1.0
 92
       12
 66
     7
 43
1.0
 76
     1
 77
     6
 78
     2
 67
     7
 79
     5
170
     0
171
     0
290
     0
174
     0
 93
        1
 44
0.0
173
     0
291
     1
 45
0.0
1001
ACAD
1000
AcDbSavedByObjectVersion
1070
     0
  0
DICTIONARYVAR
  5
AAF3
102
{ACAD_REACTORS
330
34
102
}
330
34
100
DictionaryVariables
280
     0
  1
STANDARD
  0
DICTIONARYVAR
  5
A10C
102
{ACAD_REACTORS
330
34
102
}
330
34
100
DictionaryVariables
280
     0
  1
2
  0
DICTIONARYVAR
  5
AB07
102
{ACAD_REACTORS
330
34
102
}
330
34
100
DictionaryVariables
280
     0
  1
4
  0
DICTIONARYVAR
  5
35
102
{ACAD_REACTORS
330
34
102
}
330
34
100
DictionaryVariables
280
     0
  1
0
  0
DICTIONARYVAR
  5
194C
102
{ACAD_REACTORS
330
34
102
}
330
34
100
DictionaryVariables
280
     0
  1
96
  0
DICTIONARY
  5
7E8
102
{ACAD_REACTORS
330
47
102
}
330
47
100
AcDbDictionary
281
     1
  0
DICTIONARY
  5
4C
102
{ACAD_REACTORS
330
47
102
}
330
47
100
AcDbDictionary
281
     1
  0
XRECORD
  5
A929
102
{ACAD_REACTORS
330
47
102
}
330
47
100
AcDbXrecord
280
     1
 90
-1023410169
  0
XRECORD
  5
9F49
102
{ACAD_REACTORS
330
9F48
102
}
330
9F48
100
AcDbXrecord
280
     1
330
0
330
0
330
0
330
0
330
0
330
0
330
0
330
0
  0
XRECORD
  5
3FB7
102
{ACAD_REACTORS
330
3F96
102
}
330
3F96
100
AcDbXrecord
280
     1
 91
        3
330
0
 90
        8
 62
     7
370
    40
331
16
  1
Color_7
330
0
 90
        0
 62
    14
370
    -3
331
16
  1
Color_14
330
0
 90
        8
 62
     7
370
    20
331
16
  1
Color_7
330
6D1
 90
        0
 62
     7
370
    -3
331
16
  1
Color_7
330
0
 90
        8
 62
     7
370
    50
331
16
  1
Color_7
330
0
 90
        8
 62
     2
370
    35
331
16
  1
Color_2
330
0
 90
        8
 62
     7
370
    -3
331
16
  1
Color_7
330
10
 90
        8
 62
     7
370
    -3
331
16
  1
Color_7
  0
DICTIONARY
  5
C855
330
22
100
AcDbDictionary
280
     1
281
     1
  3
ACAD_XREC_ROUNDTRIP
360
C856
  0
DICTIONARY
  5
C853
330
1E
100
AcDbDictionary
280
     1
281
     1
  3
ACAD_XREC_ROUNDTRIP
360
C854
  0
DICTIONARY
  5
C857
330
26
100
AcDbDictionary
280
     1
281
     1
  3
ACAD_XREC_ROUNDTRIP
360
C858
  0
DICTIONARY
  5
C85D
330
C815
100
AcDbDictionary
280
     1
281
     1
  3
ACAD_XREC_ROUNDTRIP
360
C85E
  0
DICTIONARY
  5
C85B
330
C814
100
AcDbDictionary
280
     1
281
     1
  3
ACAD_XREC_ROUNDTRIP
360
C85C
  0
DICTIONARY
  5
C85F
330
C816
100
AcDbDictionary
280
     1
281
     1
  3
ACAD_XREC_ROUNDTRIP
360
C860
  0
DICTIONARY
  5
C859
330
AABA
100
AcDbDictionary
280
     1
281
     1
  3
ACAD_XREC_ROUNDTRIP
360
C85A
  0
XRECORD
  5
C856
102
{ACAD_REACTORS
330
C855
102
}
330
C855
100
AcDbXrecord
280
     1
102
SHADEPLOT
 70
     0
102
SHADEPLOTRESLEVEL
 70
     2
102
SHADEPLOTCUSTOMDPI
 70
   200
  0
XRECORD
  5
C854
102
{ACAD_REACTORS
330
C853
102
}
330
C853
100
AcDbXrecord
280
     1
102
SHADEPLOT
 70
     0
102
SHADEPLOTRESLEVEL
 70
     2
102
SHADEPLOTCUSTOMDPI
 70
   300
  0
XRECORD
  5
C858
102
{ACAD_REACTORS
330
C857
102
}
330
C857
100
AcDbXrecord
280
     1
102
SHADEPLOT
 70
     0
102
SHADEPLOTRESLEVEL
 70
     2
102
SHADEPLOTCUSTOMDPI
 70
   300
  0
XRECORD
  5
C85E
102
{ACAD_REACTORS
330
C85D
102
}
330
C85D
100
AcDbXrecord
280
     1
102
MATERIAL
148
0.0
149
0.0
149
0.0
 93
        0
 94
       63
282
     0
 72
     1
 77
     1
171
     1
175
     1
179
     1
273
     0
  0
XRECORD
  5
C85C
102
{ACAD_REACTORS
330
C85B
102
}
330
C85B
100
AcDbXrecord
280
     1
102
MATERIAL
148
0.0
149
0.0
149
0.0
 93
        0
 94
       63
282
     0
 72
     1
 77
     1
171
     1
175
     1
179
     1
273
     0
  0
XRECORD
  5
C860
102
{ACAD_REACTORS
330
C85F
102
}
330
C85F
100
AcDbXrecord
280
     1
102
MATERIAL
148
0.0
149
0.0
149
0.0
 93
        0
 94
       63
282
     0
 72
     1
 77
     1
171
     1
175
     1
179
     1
273
     0
  0
XRECORD
  5
C85A
102
{ACAD_REACTORS
330
C859
102
}
330
C859
100
AcDbXrecord
280
     1
102
ACAD_ROUNDTRIP_PRE2007_TABLESTYLE
 90
        4
 91
        0
  1

 92
        4
 93
        0
  2

 94
        4
 95
        0
  3

  0
ENDSEC
  0
EOF
