  0
SECTION
  2
HEADER
  9
$ACADVER
  1
AC1015
  9
$ACADMAINTVER
 70
    20
  9
$DWGCODEPAGE
  3
ANSI_932
  9
$INSBASE
 10
0.0
 20
0.0
 30
0.0
  9
$EXTMIN
 10
0.0
 20
-0.0000000000000142
 30
0.0
  9
$EXTMAX
 10
148.5
 20
105.0
 30
0.0
  9
$LIMMIN
 10
0.0
 20
-0.0000000000000284
  9
$LIMMAX
 10
148.5
 20
105.0
  9
$ORTHOMODE
 70
     0
  9
$REGENMODE
 70
     1
  9
$FILLMODE
 70
     1
  9
$QTEXTMODE
 70
     0
  9
$MIRRTEXT
 70
     0
  9
$LTSCALE
 40
0.5
  9
$ATTMODE
 70
     1
  9
$TEXTSIZE
 40
3.2
  9
$TRACEWID
 40
1.0
  9
$TEXTSTYLE
  7
STANDARD
  9
$CLAYER
  8
AM_1
  9
$CELTYPE
  6
ByLayer
  9
$CECOLOR
 62
   256
  9
$CELTSCALE
 40
1.0
  9
$DISPSILH
 70
     0
  9
$DIMSCALE
 40
1.0
  9
$DIMASZ
 40
1.0
  9
$DIMEXO
 40
1.0
  9
$DIMDLI
 40
10.0
  9
$DIMRND
 40
0.0
  9
$DIMDLE
 40
0.0
  9
$DIMEXE
 40
1.0
  9
$DIMTP
 40
0.1
  9
$DIMTM
 40
0.1
  9
$DIMTXT
 40
3.5
  9
$DIMCEN
 40
0.0
  9
$DIMTSZ
 40
0.0
  9
$DIMTOL
 70
     0
  9
$DIMLIM
 70
     0
  9
$DIMTIH
 70
     0
  9
$DIMTOH
 70
     0
  9
$DIMSE1
 70
     0
  9
$DIMSE2
 70
     0
  9
$DIMTAD
 70
     1
  9
$DIMZIN
 70
     8
  9
$DIMBLK
  1

  9
$DIMASO
 70
     1
  9
$DIMSHO
 70
     1
  9
$DIMPOST
  1

  9
$DIMAPOST
  1
"
  9
$DIMALT
 70
     0
  9
$DIMALTD
 70
     2
  9
$DIMALTF
 40
0.0393701
  9
$DIMLFAC
 40
1.0
  9
$DIMTOFL
 70
     1
  9
$DIMTVP
 40
0.0
  9
$DIMTIX
 70
     0
  9
$DIMSOXD
 70
     0
  9
$DIMSAH
 70
     0
  9
$DIMBLK1
  1

  9
$DIMBLK2
  1

  9
$DIMSTYLE
  2
SYS
  9
$DIMCLRD
 70
   256
  9
$DIMCLRE
 70
   256
  9
$DIMCLRT
 70
     7
  9
$DIMTFAC
 40
0.71
  9
$DIMGAP
 40
1.5
  9
$DIMJUST
 70
     0
  9
$DIMSD1
 70
     0
  9
$DIMSD2
 70
     0
  9
$DIMTOLJ
 70
     0
  9
$DIMTZIN
 70
     8
  9
$DIMALTZ
 70
     0
  9
$DIMALTTZ
 70
     0
  9
$DIMUPT
 70
     0
  9
$DIMDEC
 70
     2
  9
$DIMTDEC
 70
     2
  9
$DIMALTU
 70
     2
  9
$DIMALTTD
 70
     2
  9
$DIMTXSTY
  7
STANDARD
  9
$DIMAUNIT
 70
     0
  9
$DIMADEC
 70
     0
  9
$DIMALTRND
 40
0.0
  9
$DIMAZIN
 70
     2
  9
$DIMDSEP
 70
    46
  9
$DIMATFIT
 70
     3
  9
$DIMFRAC
 70
     0
  9
$DIMLDRBLK
  1

  9
$DIMLUNIT
 70
     2
  9
$DIMLWD
 70
    -1
  9
$DIMLWE
 70
    -1
  9
$DIMTMOVE
 70
     0
  9
$LUNITS
 70
     2
  9
$LUPREC
 70
     2
  9
$SKETCHINC
 40
1.0
  9
$FILLETRAD
 40
0.5
  9
$AUNITS
 70
     0
  9
$AUPREC
 70
     0
  9
$MENU
  1
.
  9
$ELEVATION
 40
0.0
  9
$PELEVATION
 40
0.0
  9
$THICKNESS
 40
0.0
  9
$LIMCHECK
 70
     0
  9
$CHAMFERA
 40
0.0
  9
$CHAMFERB
 40
0.0
  9
$CHAMFERC
 40
20.0
  9
$CHAMFERD
 40
0.0
  9
$SKPOLY
 70
     0
  9
$TDCREATE
 40
2454837.461395938
  9
$TDUCREATE
 40
2454837.086395938
  9
$TDUPDATE
 40
2456185.549812824
  9
$TDUUPDATE
 40
2456185.174812824
  9
$TDINDWG
 40
0.6561168981
  9
$TDUSRTIMER
 40
0.6561167130
  9
$USRTIMER
 70
     1
  9
$ANGBASE
 50
0.0
  9
$ANGDIR
 70
     0
  9
$PDMODE
 70
     0
  9
$PDSIZE
 40
-3.0
  9
$PLINEWID
 40
0.0
  9
$SPLFRAME
 70
     0
  9
$SPLINETYPE
 70
     6
  9
$SPLINESEGS
 70
     8
  9
$HANDSEED
  5
CBD0
  9
$SURFTAB1
 70
     6
  9
$SURFTAB2
 70
     6
  9
$SURFTYPE
 70
     6
  9
$SURFU
 70
     6
  9
$SURFV
 70
     6
  9
$UCSBASE
  2

  9
$UCSNAME
  2

  9
$UCSORG
 10
0.0
 20
0.0
 30
0.0
  9
$UCSXDIR
 10
1.0
 20
0.0
 30
0.0
  9
$UCSYDIR
 10
0.0
 20
1.0
 30
0.0
  9
$UCSORTHOREF
  2

  9
$UCSORTHOVIEW
 70
     0
  9
$UCSORGTOP
 10
0.0
 20
0.0
 30
0.0
  9
$UCSORGBOTTOM
 10
0.0
 20
0.0
 30
0.0
  9
$UCSORGLEFT
 10
0.0
 20
0.0
 30
0.0
  9
$UCSORGRIGHT
 10
0.0
 20
0.0
 30
0.0
  9
$UCSORGFRONT
 10
0.0
 20
0.0
 30
0.0
  9
$UCSORGBACK
 10
0.0
 20
0.0
 30
0.0
  9
$PUCSBASE
  2

  9
$PUCSNAME
  2

  9
$PUCSORG
 10
0.0
 20
0.0
 30
0.0
  9
$PUCSXDIR
 10
1.0
 20
0.0
 30
0.0
  9
$PUCSYDIR
 10
0.0
 20
1.0
 30
0.0
  9
$PUCSORTHOREF
  2

  9
$PUCSORTHOVIEW
 70
     0
  9
$PUCSORGTOP
 10
0.0
 20
0.0
 30
0.0
  9
$PUCSORGBOTTOM
 10
0.0
 20
0.0
 30
0.0
  9
$PUCSORGLEFT
 10
0.0
 20
0.0
 30
0.0
  9
$PUCSORGRIGHT
 10
0.0
 20
0.0
 30
0.0
  9
$PUCSORGFRONT
 10
0.0
 20
0.0
 30
0.0
  9
$PUCSORGBACK
 10
0.0
 20
0.0
 30
0.0
  9
$USERI1
 70
     0
  9
$USERI2
 70
     0
  9
$USERI3
 70
     0
  9
$USERI4
 70
     0
  9
$USERI5
 70
     0
  9
$USERR1
 40
0.0
  9
$USERR2
 40
0.0
  9
$USERR3
 40
0.0
  9
$USERR4
 40
0.0
  9
$USERR5
 40
0.0
  9
$WORLDVIEW
 70
     1
  9
$SHADEDGE
 70
     3
  9
$SHADEDIF
 70
    70
  9
$TILEMODE
 70
     1
  9
$MAXACTVP
 70
    64
  9
$PINSBASE
 10
0.0
 20
0.0
 30
0.0
  9
$PLIMCHECK
 70
     0
  9
$PEXTMIN
 10
1.000000000000000E+20
 20
1.000000000000000E+20
 30
1.000000000000000E+20
  9
$PEXTMAX
 10
-1.000000000000000E+20
 20
-1.000000000000000E+20
 30
-1.000000000000000E+20
  9
$PLIMMIN
 10
-3.17498779296875
 20
-3.174999952316284
  9
$PLIMMAX
 10
293.4970092773438
 20
206.692492723465
  9
$UNITMODE
 70
     0
  9
$VISRETAIN
 70
     1
  9
$PLINEGEN
 70
     0
  9
$PSLTSCALE
 70
     1
  9
$TREEDEPTH
 70
  3020
  9
$CMLSTYLE
  2
Standard
  9
$CMLJUST
 70
     0
  9
$CMLSCALE
 40
20.0
  9
$PROXYGRAPHICS
 70
     1
  9
$MEASUREMENT
 70
     1
  9
$CELWEIGHT
370
    -1
  9
$ENDCAPS
280
     0
  9
$JOINSTYLE
280
     0
  9
$LWDISPLAY
290
     1
  9
$INSUNITS
 70
     4
  9
$HYPERLINKBASE
  1

  9
$STYLESHEET
  1
monochrome.ctb
  9
$XEDIT
290
     1
  9
$CEPSNTYPE
380
     0
  9
$PSTYLEMODE
290
     1
  9
$FINGERPRINTGUID
  2
{D65091FB-6FDF-47BE-B489-8B7AB14428B2}
  9
$VERSIONGUID
  2
{42279D5B-D382-418D-A610-8E76E8A5E2EA}
  9
$EXTNAMES
290
     1
  9
$PSVPSCALE
 40
0.0
  9
$OLESTARTUP
290
     0
  0
ENDSEC
  0
SECTION
  2
CLASSES
  0
CLASS
  1
ACDBDICTIONARYWDFLT
  2
AcDbDictionaryWithDefault
  3
ObjectDBX Classes
 90
        0
280
     0
281
     0
  0
CLASS
  1
ACDBPLACEHOLDER
  2
AcDbPlaceHolder
  3
ObjectDBX Classes
 90
        0
280
     0
281
     0
  0
CLASS
  1
LAYOUT
  2
AcDbLayout
  3
ObjectDBX Classes
 90
        0
280
     0
281
     0
  0
CLASS
  1
AMGSETTINGSOBJ
  2
AmgSettingsObj
  3
"AcadM|Product Description: AutoCAD Mechanical|Company: Autodesk"
 90
        0
280
     0
281
     0
  0
CLASS
  1
ACME_DOCUMENT
  2
AcMeDbDoc
  3
AcMeServices
 90
        0
280
     0
281
     0
  0
CLASS
  1
ACMESCOPE
  2
AcMeScope
  3
AcMeServices
 90
        0
280
     0
281
     0
  0
CLASS
  1
ACMECOMMANDHISTORY
  2
AcMeCommandHistory
  3
AcMeServices
 90
        0
280
     0
281
     0
  0
CLASS
  1
DICTIONARYVAR
  2
AcDbDictionaryVar
  3
ObjectDBX Classes
 90
        0
280
     0
281
     0
  0
CLASS
  1
ACIMSYSVARMAN
  2
AcImSysVarManager
  3
AcMeServices
 90
        0
280
     0
281
     0
  0
CLASS
  1
ACIMREALSYSVAR
  2
AcImRealSysVar
  3
AcMeServices
 90
        0
280
     0
281
     0
  0
CLASS
  1
ACIMINTSYSVAR
  2
AcImIntSysVar
  3
AcMeServices
 90
        0
280
     0
281
     0
  0
CLASS
  1
ACMEDRAWINGMAN
  2
AcMeDrawingMan
  3
AcMeServices
 90
        0
280
     0
281
     0
  0
CLASS
  1
ACMEVIEW
  2
AcMeView
  3
AcMeServices
 90
        0
280
     0
281
     0
  0
CLASS
  1
ACDBENTITYCACHE
  2
AcMeEntityCache
  3
AcMeServices
 90
        0
280
     0
281
     0
  0
CLASS
  1
GSMANAGER
  2
AcMeGSManager
  3
AcMeServices
 90
        0
280
     0
281
     0
  0
CLASS
  1
AMDTINTERNALREACTOR
  2
AmdtInternalReactor
  3
AcMeServices
 90
        0
280
     0
281
     0
  0
CLASS
  1
ACMESTATEMGR
  2
AcMeStateMgr
  3
AcMeServices
 90
        0
280
     0
281
     0
  0
CLASS
  1
ACGREFMASTER
  2
AcGrefMaster
  3
AcAttribServices
 90
        0
280
     0
281
     0
  0
CLASS
  1
ACME_DATABASE
  2
AcMeDbDatabase
  3
AcMeServices
 90
        0
280
     0
281
     0
  0
CLASS
  1
ACRFINSADJUSTERMGR
  2
AcRfInsAdjusterMgr
  3
AcMeServices
 90
        0
280
     0
281
     0
  0
CLASS
  1
ACGREFACADMASTER
  2
AcGrefacadMaster
  3
AcGrefServices
 90
        0
280
     0
281
     0
  0
CLASS
  1
AMIMASTER
  2
AmiMaster
  3
AmiServices
 90
        0
280
     0
281
     0
  0
CLASS
  1
ACMDATADICTIONARY
  2
AcmDataDictionary
  3
"AcmSymBB|Product Description: AutoCAD Mechanical|Company: Autodesk"
 90
        0
280
     0
281
     0
  0
CLASS
  1
ACMDATAENTRYBLOCK
  2
AcmDataEntryBlock
  3
"AcmSymBB|Product Description: AutoCAD Mechanical|Company: Autodesk"
 90
        0
280
     0
281
     0
  0
CLASS
  1
ACIMSTRSYSVAR
  2
AcImStrSysVar
  3
AcMeServices
 90
        0
280
     0
281
     0
  0
CLASS
  1
ACMSTANDARDISO
  2
AcmStandardISO
  3
"Amdt_StdImp|Product Description: AutoCAD Mechanical|Company: Autodesk"
 90
        0
280
     0
281
     0
  0
CLASS
  1
AMGOBJPROPCFG
  2
AmgObjPropCfg
  3
"AmgLay|Product Description: AutoCAD Mechanical|Company: Autodesk"
 90
        1
280
     0
281
     0
  0
CLASS
  1
AMDTEDGESTANDARDISO
  2
AmdtEdgeStdISO
  3
"Amdt_StdImp|Product Description: AutoCAD Mechanical|Company: Autodesk"
 90
        0
280
     0
281
     0
  0
CLASS
  1
ACMSURFSTANDARDISO
  2
AcmSurfTextStdISO
  3
"Amdt_StdImp|Product Description: AutoCAD Mechanical|Company: Autodesk"
 90
        0
280
     0
281
     0
  0
CLASS
  1
ACMFCFSTANDARDISO
  2
AcmFCFStdISO
  3
"Amdt_StdImp|Product Description: AutoCAD Mechanical|Company: Autodesk"
 90
        0
280
     0
281
     0
  0
CLASS
  1
ACMWELDSTANDARDISO
  2
AcmWeldingStdISO
  3
"Amdt_StdImp|Product Description: AutoCAD Mechanical|Company: Autodesk"
 90
        0
280
     0
281
     0
  0
CLASS
  1
ACMIDSTANDARDISO
  2
AcmIdStdISO
  3
"Amdt_StdImp|Product Description: AutoCAD Mechanical|Company: Autodesk"
 90
        0
280
     0
281
     0
  0
CLASS
  1
ACMDATUMSTANDARDISO
  2
AcmDatumStdISO
  3
"Amdt_StdImp|Product Description: AutoCAD Mechanical|Company: Autodesk"
 90
        0
280
     0
281
     0
  0
CLASS
  1
ACMBOMSTANDARDISO
  2
AcmBOMStdISO
  3
"Amdt_StdImp|Product Description: AutoCAD Mechanical|Company: Autodesk"
 90
        0
280
     0
281
     0
  0
CLASS
  1
ACMDETAILSTANDARDISO
  2
AmdtDetailSymStdISO
  3
"Amdt_StdImp|Product Description: AutoCAD Mechanical|Company: Autodesk"
 90
        0
280
     0
281
     0
  0
CLASS
  1
ACMSECTIONSTANDARDISO
  2
AmdtSectionSymStdISO
  3
"Amdt_StdImp|Product Description: AutoCAD Mechanical|Company: Autodesk"
 90
        0
280
     0
281
     0
  0
CLASS
  1
ACMCENTERLINESTANDARDISO
  2
AmdtCenterLineStdISO
  3
"Amdt_StdImp|Product Description: AutoCAD Mechanical|Company: Autodesk"
 90
        0
280
     0
281
     0
  0
CLASS
  1
ACAMGLAYSTD
  2
AcAmgLayStd
  3
"AmgLay|Product Description: AutoCAD Mechanical|Company: Autodesk"
 90
        0
280
     0
281
     0
  0
CLASS
  1
ACAMGDIMSTD
  2
AcAmgDimStd
  3
"AmgDim|Product Description: AutoCAD Mechanical|Company: Autodesk"
 90
        0
280
     0
281
     0
  0
CLASS
  1
ACAMGTITLESTD
  2
AcAmgTitleStd
  3
"AmgTitle|Product Description: AutoCAD Mechanical|Company: Autodesk"
 90
        0
280
     0
281
     0
  0
CLASS
  1
ACAMGFILTERDAT
  2
AcAmgFilterDat
  3
"AcadM|Product Description: AutoCAD Mechanical|Company: Autodesk"
 90
        0
280
     0
281
     0
  0
CLASS
  1
LAYER_INDEX
  2
AcDbLayerIndex
  3
ObjectDBX Classes
 90
    32768
280
     0
281
     0
  0
CLASS
  1
IDBUFFER
  2
AcDbIdBuffer
  3
ObjectDBX Classes
 90
    32768
280
     0
281
     0
  0
CLASS
  1
PLOTSETTINGS
  2
AcDbPlotSettings
  3
ObjectDBX Classes
 90
        0
280
     0
281
     0
  0
CLASS
  1
AMDTFORMULAUPDATEDISPATCHER
  2
AmdtFormulaUpdateDispatcher
  3
AcMeServices
 90
        0
280
     0
281
     0
  0
CLASS
  1
ACMSTANDARDANSI
  2
AcmStandardANSI
  3
"Amdt_StdImp|Product Description: AutoCAD Mechanical|Company: Autodesk"
 90
    32768
280
     0
281
     0
  0
CLASS
  1
ACMSURFSTANDARDANSI
  2
AcmSurfTextStdANSI
  3
"Amdt_StdImp|Product Description: AutoCAD Mechanical|Company: Autodesk"
 90
    32768
280
     0
281
     0
  0
CLASS
  1
ACMFCFSTANDARDANSI
  2
AcmFCFStdANSI
  3
"Amdt_StdImp|Product Description: AutoCAD Mechanical|Company: Autodesk"
 90
    32768
280
     0
281
     0
  0
CLASS
  1
ACMWELDSTANDARDANSI
  2
AcmWeldingStdANSI
  3
"Amdt_StdImp|Product Description: AutoCAD Mechanical|Company: Autodesk"
 90
    32768
280
     0
281
     0
  0
CLASS
  1
ACMIDSTANDARDANSI
  2
AcmIdStdANSI
  3
"Amdt_StdImp|Product Description: AutoCAD Mechanical|Company: Autodesk"
 90
    32768
280
     0
281
     0
  0
CLASS
  1
ACMDATUMSTANDARDANSI
  2
AcmDatumStdANSI
  3
"Amdt_StdImp|Product Description: AutoCAD Mechanical|Company: Autodesk"
 90
    32768
280
     0
281
     0
  0
CLASS
  1
ACMBOMSTANDARDANSI
  2
AcmBOMStdANSI
  3
"Amdt_StdImp|Product Description: AutoCAD Mechanical|Company: Autodesk"
 90
    32768
280
     0
281
     0
  0
CLASS
  1
ACMDETAILSTANDARDANSI
  2
AmdtDetailSymStdANSI
  3
"Amdt_StdImp|Product Description: AutoCAD Mechanical|Company: Autodesk"
 90
    32768
280
     0
281
     0
  0
CLASS
  1
ACMSECTIONSTANDARDANSI
  2
AmdtSectionSymStdANSI
  3
"Amdt_StdImp|Product Description: AutoCAD Mechanical|Company: Autodesk"
 90
    32768
280
     0
281
     0
  0
CLASS
  1
ACMCENTERLINESTANDARDANSI
  2
AmdtCenterLineStdANSI
  3
"Amdt_StdImp|Product Description: AutoCAD Mechanical|Company: Autodesk"
 90
    32768
280
     0
281
     0
  0
CLASS
  1
ACMBOM
  2
AcmBom
  3
"AcmSymBB|Product Description: AutoCAD Mechanical|Company: Autodesk"
 90
        0
280
     0
281
     0
  0
CLASS
  1
ACMDATAENTRYPART
  2
AcmDataEntryPart
  3
"AcmSymBB|Product Description: AutoCAD Mechanical|Company: Autodesk"
 90
    32768
280
     0
281
     0
  0
CLASS
  1
ACMPARTREF
  2
AcmPartRef
  3
"AcmSymBB|Product Description: AutoCAD Mechanical|Company: Autodesk"
 90
    35839
280
     0
281
     1
  0
CLASS
  1
ACDBCIRCARCRES
  2
AcDbCircArcRes
  3
AcGrefServices
 90
    32768
280
     0
281
     0
  0
CLASS
  1
ACMBOMROW
  2
AcmBomRow
  3
"AcmSymBB|Product Description: AutoCAD Mechanical|Company: Autodesk"
 90
    32768
280
     0
281
     0
  0
CLASS
  1
ACMBALLOON
  2
AcmBalloon
  3
"AcmSymBB|Product Description: AutoCAD Mechanical|Company: Autodesk"
 90
    35839
280
     0
281
     1
  0
CLASS
  1
AMDTNOTE
  2
AmdtNote
  3
"AcmSymBB|Product Description: AutoCAD Mechanical|Company: Autodesk"
 90
    35839
280
     0
281
     1
  0
CLASS
  1
STDPART2D
  2
AmgStdPart
  3
"g3vace|Class: AmgStdPart|Product Description: AutoCAD Mechanical|Company: Autodesk"
 90
    35839
280
     0
281
     1
  0
CLASS
  1
ACDBSTDPARTRES_LINE
  2
AcDbStdPartRes_Line
  3
"g3vace|Class: AcDbStdPartRes_Line|Product Description: AutoCAD Mechanical|Company: Autodesk"
 90
    32768
280
     0
281
     0
  0
CLASS
  1
ACMDATAENTRY
  2
AcmDataEntry
  3
"AcmSymBB|Product Description: AutoCAD Mechanical|Company: Autodesk"
 90
        0
280
     0
281
     0
  0
CLASS
  1
ACDBOPPOLYLINERES
  2
AcDbOpPolylineRes
  3
AcGrefServices
 90
    32768
280
     0
281
     0
  0
CLASS
  1
ACMPARTLIST
  2
AcmPartList
  3
"AcmSymBB|Product Description: AutoCAD Mechanical|Company: Autodesk"
 90
    35839
280
     0
281
     1
  0
CLASS
  1
ACDBLINERES
  2
AcDbLineRes
  3
AcGrefServices
 90
    32768
280
     0
281
     0
  0
CLASS
  1
ACRFINSADJ
  2
AcRfInsAdjuster
  3
AcMeServices
 90
    32768
280
     0
281
     0
  0
CLASS
  1
AM_DRAWING_MGR
  2
AcDmDwgMgr
  3
AcMechDwgViewMgmt
 90
        0
280
     0
281
     0
  0
CLASS
  1
AM_DWG_DOCUMENT
  2
AcDmDwgDocument
  3
AcMechDwgViewMgmt
 90
        0
280
     0
281
     0
  0
CLASS
  1
AM_DWG_SHEET
  2
AcDmSheet
  3
AcMechDwgViewMgmt
 90
        0
280
     0
281
     0
  0
CLASS
  1
AM_VIEWDIMPARMAP
  2
AcDmViewDimParMap
  3
AcMechDwgViewMgmt
 90
        0
280
     0
281
     0
  0
CLASS
  1
AM_DWGMGR_NAME
  2
AcDmDwgMgrName
  3
AcMechDwgViewMgmt
 90
        0
280
     0
281
     0
  0
CLASS
  1
AMDTMENUSTATEMGR
  2
AmdtMenuStateMgr
  3
McadcomServices
 90
        0
280
     0
281
     0
  0
CLASS
  1
AMDTMCOMMENUSTATE
  2
AmdtMcomMenuState
  3
McadcomServices
 90
        0
280
     0
281
     0
  0
CLASS
  1
ASAPP
  2
AcAsAppObject
  3
AutoSurfServices
 90
        0
280
     0
281
     0
  0
CLASS
  1
IM_STATIC_MAN
  2
AcImStaticVarManager
  3
AcMeServices
 90
        0
280
     0
281
     0
  0
CLASS
  1
ACIMDBLSTATICVAR
  2
AcImDblStaticVar
  3
AcMeServices
 90
        0
280
     0
281
     0
  0
CLASS
  1
ACIMSTRSTATICVAR
  2
AcImStrStaticVar
  3
AcMeServices
 90
        0
280
     0
281
     0
  0
CLASS
  1
ACIMINTSTATICVAR
  2
AcImIntStaticVar
  3
AcMeServices
 90
        0
280
     0
281
     0
  0
CLASS
  1
ACASGREFMASTER
  2
AcAsGrefMaster
  3
AutoSurfResolverServices
 90
        0
280
     0
281
     0
  0
CLASS
  1
ACADGREFMODULE
  2
AcAdGrefModule
  3
AdGrefServices
 90
        0
280
     0
281
     0
  0
CLASS
  1
AMDTMAPISURFMOUDULE
  2
AmdtMApiSurfModule
  3
MApiSurfServices
 90
        0
280
     0
281
     0
  0
CLASS
  1
MAPIAMMOUDLE
  2
MApiAmModule
  3
MApiAmServices
 90
        0
280
     0
281
     0
  0
CLASS
  1
AMDTADMENUSTATE
  2
AmdtAdMenuState
  3
DesignerServices
 90
        0
280
     0
281
     0
  0
CLASS
  1
ADAPPL
  2
AcAdAppl
  3
DesignerServices
 90
        0
280
     0
281
     0
  0
CLASS
  1
DEPMGR
  2
AcAdDepMgr
  3
DesignerServices
 90
        0
280
     0
281
     0
  0
CLASS
  1
PARAMMGR
  2
AcAdParamMgr
  3
DesignerServices
 90
        0
280
     0
281
     0
  0
CLASS
  1
PARAMSCOPE
  2
AcAdParamScope
  3
DesignerServices
 90
        0
280
     0
281
     0
  0
CLASS
  1
NAMEDAPPL
  2
AcAdNamedAppl
  3
DesignerServices
 90
        0
280
     0
281
     0
  0
CLASS
  1
ADHNTMPLT
  2
AdHoleNoteTemplateMgr
  3
DesignerServices
 90
    32768
280
     0
281
     0
  0
CLASS
  1
AM_HNTEMPLATE_MGR_NAME
  2
AdHoleNoteTemplateMgrName
  3
DesignerServices
 90
    32768
280
     0
281
     0
  0
CLASS
  1
AMDTDMMENUSTATE
  2
AmdtDmMenuState
  3
AcMechDwgViewMgmt
 90
        0
280
     0
281
     0
  0
CLASS
  1
MAPIADMODULE
  2
MApiAdModule
  3
MApiAdServices
 90
        0
280
     0
281
     0
  0
CLASS
  1
AMDTAMMENUSTATE
  2
AmdtAmMenuState
  3
DesignerAssemblies
 90
        0
280
     0
281
     0
  0
CLASS
  1
ACAMPROJECT
  2
AcAmProject
  3
DesignerAssemblies
 90
        0
280
     0
281
     0
  0
CLASS
  1
ACAMGRCOMPDEF
  2
AcAmGrCompDef
  3
DesignerAssemblies
 90
        0
280
     0
281
     0
  0
CLASS
  1
ACCMCONTEXT
  2
AcCmContext
  3
DesignerAssemblies
 90
        0
280
     0
281
     0
  0
CLASS
  1
ACAMCOMPDEF
  2
AcAmCompDef
  3
DesignerAssemblies
 90
        0
280
     0
281
     0
  0
CLASS
  1
ACAMCOMPDEFMGR
  2
AcAmCompDefMgr
  3
DesignerAssemblies
 90
        0
280
     0
281
     0
  0
CLASS
  1
AMCONTEXTMGR
  2
AcAmContextMgr
  3
DesignerAssemblies
 90
        0
280
     0
281
     0
  0
CLASS
  1
ACAMCONTEXTMODELER
  2
AcAmContextModeler
  3
DesignerAssemblies
 90
        0
280
     0
281
     0
  0
CLASS
  1
CATALOGSTATE
  2
AcAmCatalogState
  3
DesignerAssemblies
 90
        0
280
     0
281
     0
  0
CLASS
  1
ACAMGRCOMPDEFSET
  2
AcAmGrCompDefSet
  3
DesignerAssemblies
 90
        0
280
     0
281
     0
  0
CLASS
  1
AMDTBROWSERDBTAB
  2
AmdtBrowserDbTab
  3
McadcomServices
 90
        0
280
     0
281
     0
  0
CLASS
  1
CBROWSERAPPOBJECT
  2
CBrowserAppObject
  3
McadcomServices
 90
        0
280
     0
281
     0
  0
CLASS
  1
DM_PLACEHOLDER
  2
AcDmSelsetPlaceholder
  3
AcMechDwgViewMgmt
 90
        0
280
     0
281
     0
  0
CLASS
  1
ACMPICKOBJ
  2
AcmPickEnt
  3
"AcmSymBB|Product Description: AutoCAD Mechanical|Company: Autodesk"
 90
    32768
280
     0
281
     1
  0
CLASS
  1
ACMNOTESTANDARDISO
  2
AmdtNoteStdISO
  3
"Amdt_StdImp|Product Description: AutoCAD Mechanical|Company: Autodesk"
 90
        0
280
     0
281
     0
  0
CLASS
  1
ACMNOTESTANDARDANSI
  2
AmdtNoteStdANSI
  3
"Amdt_StdImp|Product Description: AutoCAD Mechanical|Company: Autodesk"
 90
    32768
280
     0
281
     0
  0
CLASS
  1
ACMTHREADLINESTANDARDISO
  2
AmdtThreadLineStdISO
  3
"Amdt_StdImp|Product Description: AutoCAD Mechanical|Company: Autodesk"
 90
        0
280
     0
281
     0
  0
CLASS
  1
ACMTHREADLINESTANDARDANSI
  2
AmdtThreadLineStdANSI
  3
"Amdt_StdImp|Product Description: AutoCAD Mechanical|Company: Autodesk"
 90
    32768
280
     0
281
     0
  0
CLASS
  1
TABLESTYLE
  2
AcDbTableStyle
  3
ObjectDBX Classes
 90
     4095
280
     0
281
     0
  0
CLASS
  1
SORTENTSTABLE
  2
AcDbSortentsTable
  3
ObjectDBX Classes
 90
        0
280
     0
281
     0
  0
CLASS
  1
EXACXREFPANELOBJECT
  2
ExAcXREFPanelObject
  3
EXAC_ESW
 90
    32768
280
     0
281
     0
  0
CLASS
  1
AMDTEDGESTANDARDISO13715
  2
AmdtEdgeStdISO13715
  3
"Amdt_StdImp|Product Description: AutoCAD Mechanical|Company: Autodesk"
 90
        0
280
     0
281
     0
  0
CLASS
  1
AMDTNOTETEMPLATEDB
  2
AmdtNoteTemplateDB
  3
AMDT_STDIMP_MODULE_NAME
 90
        0
280
     0
281
     0
  0
CLASS
  1
ACAMGHOLECHARTSTDISO
  2
AcAmgHoleChartStdISO
  3
ACMSYMBB_MODULE_NAME
 90
        0
280
     0
281
     0
  0
CLASS
  1
DIMASSOC
  2
AcDbDimAssoc
  3
"AcDbDimAssoc|Product Desc:     AcDim ARX App For Dimension|Company:          Autodesk, Inc.|WEB Address:      www.autodesk.com"
 90
        0
280
     0
281
     0
  0
CLASS
  1
MATERIAL
  2
AcDbMaterial
  3
ObjectDBX Classes
 90
     1024
280
     0
281
     0
  0
CLASS
  1
VISUALSTYLE
  2
AcDbVisualStyle
  3
ObjectDBX Classes
 90
     4095
280
     0
281
     0
  0
CLASS
  1
ACRFATTGENMGR
  2
AcRfAttGeneralMgr
  3
AcAttribServices
 90
        0
280
     0
281
     0
  0
CLASS
  1
ACRFOBJATTMGR
  2
AcRfObjAttGroupMgr
  3
AcAttribServices
 90
        0
280
     0
281
     0
  0
CLASS
  1
ACRFMCADAPIATTHOLDER
  2
AcRfMCADAPIAttHolder
  3
AcAttribServices
 90
        0
280
     0
281
     0
  0
CLASS
  1
AMDTSYSATTR
  2
AmdtSystemAttribute
  3
AcAttribServices
 90
        0
280
     0
281
     0
  0
CLASS
  1
ACMTAPERSTANDARDISO
  2
AcmTaperStdISO
  3
"Amdt_StdImp|Product Description: AutoCAD Mechanical|Company: Autodesk"
 90
        0
280
     0
281
     0
  0
CLASS
  1
CAMSSTRUCTBTNSTATE
  2
StructBtnState
  3
L"DesignerAssemblies"
 90
        0
280
     0
281
     0
  0
ENDSEC
  0
SECTION
  2
TABLES
  0
TABLE
  2
VPORT
  5
8
330
0
100
AcDbSymbolTable
 70
     1
  0
VPORT
  5
CB31
330
8
100
AcDbSymbolTableRecord
100
AcDbViewportTableRecord
  2
*Active
 70
     0
 10
0.0
 20
0.0
 11
1.0
 21
1.0
 12
76.56301647624161
 22
45.30363299078897
 13
0.0
 23
0.0
 14
1.25
 24
1.25
 15
5.0
 25
5.0
 16
0.0
 26
0.0
 36
1.0
 17
0.0
 27
0.0
 37
0.0
 40
263.3609308940604
 41
1.723918575063613
 42
50.0
 43
-1370.695619172058
 44
-1370.695619172058
 50
0.0
 51
0.0
 71
     0
 72
   100
 73
     1
 74
     3
 75
     0
 76
     0
 77
     0
 78
     0
281
     0
 65
     0
110
0.0
120
0.0
130
0.0
111
1.0
121
0.0
131
0.0
112
0.0
122
1.0
132
0.0
 79
     0
146
0.0
  0
ENDTAB
  0
TABLE
  2
LTYPE
  5
5
330
0
100
AcDbSymbolTable
 70
    27
  0
LTYPE
  5
14
330
5
100
AcDbSymbolTableRecord
100
AcDbLinetypeTableRecord
  2
ByBlock
 70
     0
  3

 72
    65
 73
     0
 40
0.0
  0
LTYPE
  5
15
330
5
100
AcDbSymbolTableRecord
100
AcDbLinetypeTableRecord
  2
ByLayer
 70
     0
  3

 72
    65
 73
     0
 40
0.0
  0
LTYPE
  5
16
330
5
100
AcDbSymbolTableRecord
100
AcDbLinetypeTableRecord
  2
Continuous
 70
     0
  3
Solid line
 72
    65
 73
     0
 40
0.0
  0
LTYPE
  5
4F
330
5
100
AcDbSymbolTableRecord
100
AcDbLinetypeTableRecord
  2
AM_ISO02W050
 70
     0
  3
__ __ __ __ __ __ __ __ __ __ __ __ __ __ __
 72
    65
 73
     2
 40
7.5
 49
6.0
 74
     0
 49
-1.5
 74
     0
  0
LTYPE
  5
52
330
5
100
AcDbSymbolTableRecord
100
AcDbLinetypeTableRecord
  2
Amconstr
 70
     0
  3
_______________________
 72
    65
 73
     2
 40
9999.0
 49
9999.0
 74
     0
 49
0.0
 74
     0
  0
LTYPE
  5
64
330
5
100
AcDbSymbolTableRecord
100
AcDbLinetypeTableRecord
  2
ACISOWELD
 70
     0
  3
_ _ _ _ _
 72
    65
 73
     2
 40
2.0
 49
2.0
 74
     0
 49
-1.0
 74
     0
  0
LTYPE
  5
65
330
5
100
AcDbSymbolTableRecord
100
AcDbLinetypeTableRecord
  2
ACISOTGB
 70
     0
  3
__ . . __ . .
 72
    65
 73
     6
 40
9.0
 49
4.0
 74
     0
 49
-1.0
 74
     0
 49
1.0
 74
     0
 49
-1.0
 74
     0
 49
1.0
 74
     0
 49
-1.0
 74
     0
  0
LTYPE
  5
66
330
5
100
AcDbSymbolTableRecord
100
AcDbLinetypeTableRecord
  2
ACISOTGL
 70
     0
  3
_ _ _ _ _
 72
    65
 73
     2
 40
3.0
 49
2.0
 74
     0
 49
-1.0
 74
     0
  0
LTYPE
  5
69
330
5
100
AcDbSymbolTableRecord
100
AcDbLinetypeTableRecord
  2
CENTER
 70
     0
  3
__ . __
 72
    65
 73
     4
 40
7.0
 49
4.0
 74
     0
 49
-1.0
 74
     0
 49
1.0
 74
     0
 49
-1.0
 74
     0
  0
LTYPE
  5
A6E
330
5
100
AcDbSymbolTableRecord
100
AcDbLinetypeTableRecord
  2
PHANTOM2
 70
     0
  3
Phantom (.5x) ___ _ _ ___ _ _ ___ _ _ ___ _ _
 72
    65
 73
     6
 40
31.75
 49
15.875
 74
     0
 49
-3.174999999999999
 74
     0
 49
3.174999999999999
 74
     0
 49
-3.174999999999999
 74
     0
 49
3.174999999999999
 74
     0
 49
-3.174999999999999
 74
     0
  0
LTYPE
  5
4DED
330
5
100
AcDbSymbolTableRecord
100
AcDbLinetypeTableRecord
  2
中線
 70
     0
  3
___________________
 72
    65
 73
     2
 40
2.0
 49
1.0
 74
     0
 49
1.0
 74
     0
  0
LTYPE
  5
4DF6
330
5
100
AcDbSymbolTableRecord
100
AcDbLinetypeTableRecord
  2
細線
 70
     0
  3
___________________
 72
    65
 73
     2
 40
2.0
 49
1.0
 74
     0
 49
1.0
 74
     0
  0
LTYPE
  5
4DF7
330
5
100
AcDbSymbolTableRecord
100
AcDbLinetypeTableRecord
  2
太線
 70
     0
  3
___________________
 72
    65
 73
     2
 40
2.0
 49
1.0
 74
     0
 49
1.0
 74
     0
  0
LTYPE
  5
4EA7
330
5
100
AcDbSymbolTableRecord
100
AcDbLinetypeTableRecord
  2
文字
 70
     0
  3
_________________
 72
    65
 73
     2
 40
2.0
 49
1.0
 74
     0
 49
1.0
 74
     0
  0
LTYPE
  5
4EA9
330
5
100
AcDbSymbolTableRecord
100
AcDbLinetypeTableRecord
  2
寸法線
 70
     0
  3
________________
 72
    65
 73
     2
 40
2.0
 49
1.0
 74
     0
 49
1.0
 74
     0
  0
LTYPE
  5
4F12
330
5
100
AcDbSymbolTableRecord
100
AcDbLinetypeTableRecord
  2
ハッチング
 70
     0
  3
_________________
 72
    65
 73
     2
 40
2.0
 49
1.0
 74
     0
 49
1.0
 74
     0
  0
LTYPE
  5
5180
330
5
100
AcDbSymbolTableRecord
100
AcDbLinetypeTableRecord
  2
陰線1
 70
     0
  3
__ __ __ __
 72
    65
 73
     2
 40
4.0
 49
2.2
 74
     0
 49
-1.8
 74
     0
  0
LTYPE
  5
5182
330
5
100
AcDbSymbolTableRecord
100
AcDbLinetypeTableRecord
  2
切断線
 70
     0
  3
/\/-/\/-/\/-/\/-/\/-/\/
 72
    65
 73
     2
 40
11.0001
 49
0.0001
 74
     4
 75
   135
340
56
 46
0.04
 50
0.0
 44
0.0
 45
0.0
 49
-11.0
 74
     0
  0
LTYPE
  5
5183
330
5
100
AcDbSymbolTableRecord
100
AcDbLinetypeTableRecord
  2
想像線1
 70
     0
  3
__ __ __ _____ __ __ ____
 72
    65
 73
     6
 40
14.5
 49
6.0
 74
     0
 49
-1.5
 74
     0
 49
2.0
 74
     0
 49
-1.5
 74
     0
 49
2.0
 74
     0
 49
-1.5
 74
     0
  0
LTYPE
  5
5185
330
5
100
AcDbSymbolTableRecord
100
AcDbLinetypeTableRecord
  2
中心線1
 70
     0
  3
___ _ ___ _ ___
 72
    65
 73
     4
 40
18.0
 49
12.0
 74
     0
 49
-2.0
 74
     0
 49
2.0
 74
     0
 49
-2.0
 74
     0
  0
LTYPE
  5
5188
330
5
100
AcDbSymbolTableRecord
100
AcDbLinetypeTableRecord
  2
補助線
 70
     0
  3
______________
 72
    65
 73
     2
 40
2.0
 49
1.0
 74
     0
 49
1.0
 74
     0
  0
LTYPE
  5
6427
330
5
100
AcDbSymbolTableRecord
100
AcDbLinetypeTableRecord
  2
HIDDEN
 70
     0
  3
Hidden __ __ __ __ __ __ __ __ __ __ __ __ __ _
 72
    65
 73
     2
 40
0.375
 49
0.25
 74
     0
 49
-0.125
 74
     0
  0
LTYPE
  5
AC81
330
5
100
AcDbSymbolTableRecord
100
AcDbLinetypeTableRecord
  2
破断線
 70
     0
  3
/\/-/\/-/\/-/\/-/\/-/\/
 72
    65
 73
     2
 40
0.4401
 49
0.0001
 74
     4
 75
   136
340
AC80
 46
0.0016
 50
0.0
 44
0.0
 45
0.0
 49
-0.4400000000000001
 74
     0
  0
LTYPE
  5
AC9E
330
5
100
AcDbSymbolTableRecord
100
AcDbLinetypeTableRecord
  2
Amzigzag
 70
     0
  3
/\/-/\/-/\/-/\/-/\/-/\/
 72
    65
 73
     2
 40
11.0001
 49
0.0001
 74
     4
 75
   135
340
56
 46
0.04
 50
0.0
 44
0.0
 45
0.0
 49
-11.0
 74
     0
  0
LTYPE
  5
AF0F
330
5
100
AcDbSymbolTableRecord
100
AcDbLinetypeTableRecord
  2
genzigzag
 70
     0
  3
/\/-/\/-/\/-/\/-/\/-/\/
 72
    65
 73
     2
 40
12.0001
 49
0.0001
 74
     4
 75
   135
340
AC80
 46
2.0
 50
0.0
 44
0.0
 45
0.0
 49
-12.0
 74
     0
  0
LTYPE
  5
AF95
330
5
100
AcDbSymbolTableRecord
100
AcDbLinetypeTableRecord
  2
AM_ISO08W050
 70
     0
  3
____ . ____ . ____ . ____ . ____ . ____ . ____
 72
    65
 73
     4
 40
18.0
 49
12.0
 74
     0
 49
-1.5
 74
     0
 49
3.0
 74
     0
 49
-1.5
 74
     0
  0
LTYPE
  5
AF96
330
5
100
AcDbSymbolTableRecord
100
AcDbLinetypeTableRecord
  2
AM_ISO09W050
 70
     0
  3
_____ . . _____ . . _____ . . ____ .. ____
 72
    65
 73
     6
 40
22.5
 49
12.0
 74
     0
 49
-1.5
 74
     0
 49
3.0
 74
     0
 49
-1.5
 74
     0
 49
3.0
 74
     0
 49
-1.5
 74
     0
  0
LTYPE
  5
AF97
330
5
100
AcDbSymbolTableRecord
100
AcDbLinetypeTableRecord
  2
AM_ISO08W050x2
 70
     0
  3
__ . __ . __ . __ . __ . __
 72
    65
 73
     4
 40
9.0
 49
6.0
 74
     0
 49
-0.75
 74
     0
 49
1.5
 74
     0
 49
-0.75
 74
     0
  0
LTYPE
  5
AF98
330
5
100
AcDbSymbolTableRecord
100
AcDbLinetypeTableRecord
  2
AM_ISO02W050x2
 70
     0
  3
 _ _ _ _ _ _ _ _ _ _ _ _
 72
    65
 73
     2
 40
3.75
 49
3.0
 74
     0
 49
-0.75
 74
     0
  0
ENDTAB
  0
TABLE
  2
LAYER
  5
2
102
{ACAD_XDICTIONARY
360
3F95
102
}
330
0
100
AcDbSymbolTable
 70
    19
  0
LAYER
  5
10
330
2
100
AcDbSymbolTableRecord
100
AcDbLayerTableRecord
  2
0
 70
     0
 62
     7
  6
Continuous
370
    -3
390
F
  0
LAYER
  5
6D1
330
2
100
AcDbSymbolTableRecord
100
AcDbLayerTableRecord
  2
Defpoints
 70
     0
 62
     7
  6
Continuous
290
     0
370
    -3
390
F
  0
LAYER
  5
5F85
330
2
100
AcDbSymbolTableRecord
100
AcDbLayerTableRecord
  2
AM_0
 70
     0
 62
     7
  6
中線
370
    25
390
F
1001
AcAecLayerStandard
1000

1000

  0
LAYER
  5
AC9F
330
2
100
AcDbSymbolTableRecord
100
AcDbLayerTableRecord
  2
size
 70
     0
 62
     5
  6
Continuous
290
     0
370
    25
390
F
  0
LAYER
  5
ACA0
330
2
100
AcDbSymbolTableRecord
100
AcDbLayerTableRecord
  2
waku
 70
     0
 62
     7
  6
Continuous
370
    35
390
F
  0
LAYER
  5
ACA1
330
2
100
AcDbSymbolTableRecord
100
AcDbLayerTableRecord
  2
AM_6
 70
     0
 62
     2
  6
文字
370
    15
390
F
1001
AcAecLayerStandard
1000

1000

  0
LAYER
  5
ACC8
330
2
100
AcDbSymbolTableRecord
100
AcDbLayerTableRecord
  2
hyomoji
 70
     0
 62
     2
  6
Continuous
370
    15
390
F
  0
LAYER
  5
ACC9
330
2
100
AcDbSymbolTableRecord
100
AcDbLayerTableRecord
  2
hyosen1
 70
     0
 62
     1
  6
Continuous
370
    25
390
F
  0
LAYER
  5
ACCA
330
2
100
AcDbSymbolTableRecord
100
AcDbLayerTableRecord
  2
hyosen2
 70
     0
 62
     1
  6
Continuous
370
    15
390
F
  0
LAYER
  5
AD60
330
2
100
AcDbSymbolTableRecord
100
AcDbLayerTableRecord
  2
AM_1
 70
     0
 62
    30
  6
太線
370
    25
390
F
1001
AcAecLayerStandard
1000

1000

  0
LAYER
  5
AD64
330
2
100
AcDbSymbolTableRecord
100
AcDbLayerTableRecord
  2
AM_2
 70
     0
 62
     1
  6
細線
370
    15
390
F
1001
AcAecLayerStandard
1000

1000

  0
LAYER
  5
AD67
330
2
100
AcDbSymbolTableRecord
100
AcDbLayerTableRecord
  2
AM_3
 70
     0
 62
     6
  6
陰線1
370
    15
390
F
1001
AcAecLayerStandard
1000

1000

  0
LAYER
  5
AD68
330
2
100
AcDbSymbolTableRecord
100
AcDbLayerTableRecord
  2
AM_5
 70
     0
 62
     3
  6
寸法線
370
    15
390
F
1001
AcAecLayerStandard
1000

1000

  0
LAYER
  5
AD69
330
2
100
AcDbSymbolTableRecord
100
AcDbLayerTableRecord
  2
AM_7
 70
     0
 62
     4
  6
中心線1
370
    15
390
F
1001
AcAecLayerStandard
1000

1000

  0
LAYER
  5
AD6A
330
2
100
AcDbSymbolTableRecord
100
AcDbLayerTableRecord
  2
AM_8
 70
     0
 62
     1
  6
ハッチング
370
    15
390
F
1001
AcAecLayerStandard
1000

1000

  0
LAYER
  5
AD6E
330
2
100
AcDbSymbolTableRecord
100
AcDbLayerTableRecord
  2
AM_10
 70
     0
 62
     7
  6
genzigzag
370
    25
390
F
1001
AcAecLayerStandard
1000

1000

  0
LAYER
  5
AD6F
330
2
100
AcDbSymbolTableRecord
100
AcDbLayerTableRecord
  2
AM_11
 70
     0
 62
     2
  6
想像線1
370
    15
390
F
1001
AcAecLayerStandard
1000

1000

  0
LAYER
  5
C26E
330
2
100
AcDbSymbolTableRecord
100
AcDbLayerTableRecord
  2
AM_14
 70
     0
 62
     5
  6
細線
370
     9
390
F
1001
AcAecLayerStandard
1000

1000

  0
LAYER
  5
C4FF
330
2
100
AcDbSymbolTableRecord
100
AcDbLayerTableRecord
  2
AM_CL
 70
     0
 62
     1
  6
Amconstr
370
    15
390
F
1001
AcAecLayerStandard
1000

1000

  0
ENDTAB
  0
TABLE
  2
STYLE
  5
3
330
0
100
AcDbSymbolTable
 70
     6
  0
STYLE
  5
11
330
3
100
AcDbSymbolTableRecord
100
AcDbTextStyleTableRecord
  2
STANDARD
 70
     0
 40
0.0
 41
0.7
 50
0.0
 71
     0
 42
3.2
  3
romans.shx
  4
extfont.shx
  0
STYLE
  5
56
330
3
100
AcDbSymbolTableRecord
100
AcDbTextStyleTableRecord
  2

 70
     1
 40
0.0
 41
1.0
 50
0.0
 71
     0
 42
2.5
  3
ltypeshp.shx
  4

  0
STYLE
  5
58
330
3
100
AcDbSymbolTableRecord
100
AcDbTextStyleTableRecord
  2
ACISOTS
 70
     0
 40
1.0
 41
1.0
 50
0.0
 71
     0
 42
2.5
  3
isocp.shx
  4
extfont.shx
  0
STYLE
  5
63
330
3
100
AcDbSymbolTableRecord
100
AcDbTextStyleTableRecord
  2
ACISOGDT
 70
     0
 40
0.0
 41
1.0
 50
0.0
 71
     0
 42
2.5
  3
amgdt.shx
  4

  0
STYLE
  5
A74
330
3
100
AcDbSymbolTableRecord
100
AcDbTextStyleTableRecord
  2
DIM
 70
     0
 40
0.0
 41
1.0
 50
0.0
 71
     0
 42
2.5
  3
monotxt.shx
  4
extfont.shx
  0
STYLE
  5
AC80
330
3
100
AcDbSymbolTableRecord
100
AcDbTextStyleTableRecord
  2

 70
     1
 40
0.0
 41
1.0
 50
0.0
 71
     0
 42
3.2
  3
genltshp.shx
  4

  0
ENDTAB
  0
TABLE
  2
VIEW
  5
6
330
0
100
AcDbSymbolTable
 70
     6
  0
VIEW
  5
AE1
330
6
100
AcDbSymbolTableRecord
100
AcDbViewTableRecord
  2
AM_VIEW1
 70
     0
 40
52.5
 10
37.21566523605151
 20
78.74999999999999
 41
74.43133047210301
 11
0.0
 21
0.0
 31
1.0
 12
0.0
 22
0.0
 32
0.0
 42
50.0
 43
-1370.695619172058
 44
-1370.695619172058
 50
0.0
 71
     0
281
     0
 72
     0
  0
VIEW
  5
AE2
330
6
100
AcDbSymbolTableRecord
100
AcDbViewTableRecord
  2
AM_VIEW2
 70
     0
 40
52.5
 10
111.2843347639485
 20
78.74999999999999
 41
74.43133047210301
 11
0.0
 21
0.0
 31
1.0
 12
0.0
 22
0.0
 32
0.0
 42
50.0
 43
-1370.695619172058
 44
-1370.695619172058
 50
0.0
 71
     0
281
     0
 72
     0
  0
VIEW
  5
AE3
330
6
100
AcDbSymbolTableRecord
100
AcDbViewTableRecord
  2
AM_VIEW3
 70
     0
 40
52.5
 10
37.21566523605151
 20
26.24999999999998
 41
74.43133047210301
 11
0.0
 21
0.0
 31
1.0
 12
0.0
 22
0.0
 32
0.0
 42
50.0
 43
-1370.695619172058
 44
-1370.695619172058
 50
0.0
 71
     0
281
     0
 72
     0
  0
VIEW
  5
AE4
330
6
100
AcDbSymbolTableRecord
100
AcDbViewTableRecord
  2
AM_VIEW4
 70
     0
 40
52.5
 10
111.2843347639485
 20
26.24999999999998
 41
74.43133047210301
 11
0.0
 21
0.0
 31
1.0
 12
0.0
 22
0.0
 32
0.0
 42
50.0
 43
-1370.695619172058
 44
-1370.695619172058
 50
0.0
 71
     0
281
     0
 72
     0
  0
VIEW
  5
AE5
330
6
100
AcDbSymbolTableRecord
100
AcDbViewTableRecord
  2
AM_VIEW5
 70
     0
 40
52.50000000000001
 10
74.25
 20
52.49999999999998
 41
74.43133047210301
 11
0.0
 21
0.0
 31
1.0
 12
0.0
 22
0.0
 32
0.0
 42
50.0
 43
-1370.695619172058
 44
-1370.695619172058
 50
0.0
 71
     0
281
     0
 72
     0
  0
VIEW
  5
AE6
330
6
100
AcDbSymbolTableRecord
100
AcDbViewTableRecord
  2
AM_VIEW6
 70
     0
 40
104.99895
 10
74.25
 20
52.49999999999998
 41
148.8611723175966
 11
0.0
 21
0.0
 31
1.0
 12
0.0
 22
0.0
 32
0.0
 42
50.0
 43
-1370.695619172058
 44
-1370.695619172058
 50
0.0
 71
     0
281
     0
 72
     0
  0
ENDTAB
  0
TABLE
  2
UCS
  5
7
330
0
100
AcDbSymbolTable
 70
     0
  0
ENDTAB
  0
TABLE
  2
APPID
  5
9
330
0
100
AcDbSymbolTable
 70
    61
  0
APPID
  5
12
330
9
100
AcDbSymbolTableRecord
100
AcDbRegAppTableRecord
  2
ACAD
 70
     0
  0
APPID
  5
30
330
9
100
AcDbSymbolTableRecord
100
AcDbRegAppTableRecord
  2
MCAD_NO_VIS
 70
     0
  0
APPID
  5
31
330
9
100
AcDbSymbolTableRecord
100
AcDbRegAppTableRecord
  2
ACAD_TEMP_GRAPHIC
 70
     0
  0
APPID
  5
44
330
9
100
AcDbSymbolTableRecord
100
AcDbRegAppTableRecord
  2
ACATTRIBSERVICES
 70
     0
  0
APPID
  5
7A1
330
9
100
AcDbSymbolTableRecord
100
AcDbRegAppTableRecord
  2
GENIUS_GENDIMSH_14
 70
     0
  0
APPID
  5
A49
330
9
100
AcDbSymbolTableRecord
100
AcDbRegAppTableRecord
  2
GENIUS_GENREC_14
 70
     0
  0
APPID
  5
A4A
330
9
100
AcDbSymbolTableRecord
100
AcDbRegAppTableRecord
  2
GENIUS_GENOBJ-N-REC_13
 70
     0
  0
APPID
  5
A4B
330
9
100
AcDbSymbolTableRecord
100
AcDbRegAppTableRecord
  2
GENIUS_GENODEF_13
 70
     0
  0
APPID
  5
A4C
330
9
100
AcDbSymbolTableRecord
100
AcDbRegAppTableRecord
  2
DCO15
 70
     0
  0
APPID
  5
ADC
330
9
100
AcDbSymbolTableRecord
100
AcDbRegAppTableRecord
  2
GENIUS_GENOLIS_13
 70
     0
  0
APPID
  5
ADD
330
9
100
AcDbSymbolTableRecord
100
AcDbRegAppTableRecord
  2
GENIUS_GENOENT_13
 70
     0
  0
APPID
  5
ADE
330
9
100
AcDbSymbolTableRecord
100
AcDbRegAppTableRecord
  2
GENIUS_GENOBJ-N-TIT_13
 70
     0
  0
APPID
  5
ADF
330
9
100
AcDbSymbolTableRecord
100
AcDbRegAppTableRecord
  2
GENIUS_GENTITLE_13
 70
     0
  0
APPID
  5
AE0
330
9
100
AcDbSymbolTableRecord
100
AcDbRegAppTableRecord
  2
GENIUS_GENOREF_13
 70
     0
  0
APPID
  5
AE7
330
9
100
AcDbSymbolTableRecord
100
AcDbRegAppTableRecord
  2
GENIUS_GENSCREG_15
 70
     0
  0
APPID
  5
AE8
330
9
100
AcDbSymbolTableRecord
100
AcDbRegAppTableRecord
  2
GENIUS_GENOBJ-N-SDF_13
 70
     0
  0
APPID
  5
FAF
330
9
100
AcDbSymbolTableRecord
100
AcDbRegAppTableRecord
  2
GENIUS_GENBLLY_14
 70
     0
  0
APPID
  5
FB0
330
9
100
AcDbSymbolTableRecord
100
AcDbRegAppTableRecord
  2
GENIUS_GENTRA_14
 70
     0
  0
APPID
  5
1285
330
9
100
AcDbSymbolTableRecord
100
AcDbRegAppTableRecord
  2
GENIUS_GENDTOL_13
 70
     0
  0
APPID
  5
142D
330
9
100
AcDbSymbolTableRecord
100
AcDbRegAppTableRecord
  2
GENIUS_GENOBJ-N-CEN_13
 70
     0
  0
APPID
  5
1AB5
330
9
100
AcDbSymbolTableRecord
100
AcDbRegAppTableRecord
  2
GENIUS_GENOBJ-N-CRS_13
 70
     0
  0
APPID
  5
1B36
330
9
100
AcDbSymbolTableRecord
100
AcDbRegAppTableRecord
  2
GENIUS_GENOBJ-N-HTC_13
 70
     0
  0
APPID
  5
1B37
330
9
100
AcDbSymbolTableRecord
100
AcDbRegAppTableRecord
  2
GENIUS_GENHATCH_13
 70
     0
  0
APPID
  5
216D
330
9
100
AcDbSymbolTableRecord
100
AcDbRegAppTableRecord
  2
GENIUS_GENOBJ-N-FIL_13
 70
     0
  0
APPID
  5
2356
330
9
100
AcDbSymbolTableRecord
100
AcDbRegAppTableRecord
  2
GEVID990412420
 70
     0
  0
APPID
  5
2357
330
9
100
AcDbSymbolTableRecord
100
AcDbRegAppTableRecord
  2
GEVDC
 70
     0
  0
APPID
  5
2358
330
9
100
AcDbSymbolTableRecord
100
AcDbRegAppTableRecord
  2
GEVCON
 70
     0
  0
APPID
  5
235B
330
9
100
AcDbSymbolTableRecord
100
AcDbRegAppTableRecord
  2
GEVRADREF
 70
     0
  0
APPID
  5
2360
330
9
100
AcDbSymbolTableRecord
100
AcDbRegAppTableRecord
  2
GENIUS_GENBH_13
 70
     0
  0
APPID
  5
2362
330
9
100
AcDbSymbolTableRecord
100
AcDbRegAppTableRecord
  2
GENIUS_GENOBJ-NBEHI-BHF_13
 70
     0
  0
APPID
  5
2364
330
9
100
AcDbSymbolTableRecord
100
AcDbRegAppTableRecord
  2
GENIUS_GENOBJ-NBEHI-BHB_13
 70
     0
  0
APPID
  5
2379
330
9
100
AcDbSymbolTableRecord
100
AcDbRegAppTableRecord
  2
GENIUS_GENOBJ-F-SCPASSM_13
 70
     0
  0
APPID
  5
3D74
330
9
100
AcDbSymbolTableRecord
100
AcDbRegAppTableRecord
  2
GENIUS_GENDIM_13
 70
     0
  0
APPID
  5
3D76
330
9
100
AcDbSymbolTableRecord
100
AcDbRegAppTableRecord
  2
GENIUS_GE3DTOL_13
 70
     0
  0
APPID
  5
3D9C
330
9
100
AcDbSymbolTableRecord
100
AcDbRegAppTableRecord
  2
AD_DRAW
 70
     0
  0
APPID
  5
3DE8
330
9
100
AcDbSymbolTableRecord
100
AcDbRegAppTableRecord
  2
ASURF_PCURVE_APPNAME
 70
     0
  0
APPID
  5
3DED
330
9
100
AcDbSymbolTableRecord
100
AcDbRegAppTableRecord
  2
AMG_3D2D_5.0
 70
     0
  0
APPID
  5
3E1B
330
9
100
AcDbSymbolTableRecord
100
AcDbRegAppTableRecord
  2
DESIGNERASSEMBLIES
 70
     0
  0
APPID
  5
3E20
330
9
100
AcDbSymbolTableRecord
100
AcDbRegAppTableRecord
  2
ACADM_DIM_EDIT
 70
     0
  0
APPID
  5
3E21
330
9
100
AcDbSymbolTableRecord
100
AcDbRegAppTableRecord
  2
AMDT_DM_ADJ
 70
     0
  0
APPID
  5
4143
330
9
100
AcDbSymbolTableRecord
100
AcDbRegAppTableRecord
  2
GENIUS_GENFIL_13
 70
     0
  0
APPID
  5
4144
330
9
100
AcDbSymbolTableRecord
100
AcDbRegAppTableRecord
  2
GENIUS_GENOBJ-N-CHA_13
 70
     0
  0
APPID
  5
4E17
330
9
100
AcDbSymbolTableRecord
100
AcDbRegAppTableRecord
  2
GEVID1008153417
 70
     0
  0
APPID
  5
4E58
330
9
100
AcDbSymbolTableRecord
100
AcDbRegAppTableRecord
  2
GEVID1008153418
 70
     0
  0
APPID
  5
4E5E
330
9
100
AcDbSymbolTableRecord
100
AcDbRegAppTableRecord
  2
GEVID1008153419
 70
     0
  0
APPID
  5
4E64
330
9
100
AcDbSymbolTableRecord
100
AcDbRegAppTableRecord
  2
GEVID1008153420
 70
     0
  0
APPID
  5
4E75
330
9
100
AcDbSymbolTableRecord
100
AcDbRegAppTableRecord
  2
GEVID1008153421
 70
     0
  0
APPID
  5
4EB7
330
9
100
AcDbSymbolTableRecord
100
AcDbRegAppTableRecord
  2
GENIUS_AMGTXT_16
 70
     0
  0
APPID
  5
7645
330
9
100
AcDbSymbolTableRecord
100
AcDbRegAppTableRecord
  2
GENIUS_GENOBJ-N-DIM_13
 70
     0
  0
APPID
  5
AAD0
330
9
100
AcDbSymbolTableRecord
100
AcDbRegAppTableRecord
  2
ACAD_DSTYLE_DIMARC_LENGTH_SYMBOL
 70
     0
  0
APPID
  5
AAD1
330
9
100
AcDbSymbolTableRecord
100
AcDbRegAppTableRecord
  2
ACAD_DSTYLE_DIMJOGGED_JOGANGLE_SYMBOL
 70
     0
  0
APPID
  5
AAFD
330
9
100
AcDbSymbolTableRecord
100
AcDbRegAppTableRecord
  2
ACAD_PSEXT
 70
     0
  0
APPID
  5
AD61
330
9
100
AcDbSymbolTableRecord
100
AcDbRegAppTableRecord
  2
AcAecLayerStandard
 70
     0
  0
APPID
  5
AEE3
330
9
100
AcDbSymbolTableRecord
100
AcDbRegAppTableRecord
  2
ACAD_EXEMPT_FROM_CAD_STANDARDS
 70
     0
  0
APPID
  5
B0F5
330
9
100
AcDbSymbolTableRecord
100
AcDbRegAppTableRecord
  2
ACAD_DSTYLE_DIMTEXT_FILL
 70
     0
  0
APPID
  5
B0F6
330
9
100
AcDbSymbolTableRecord
100
AcDbRegAppTableRecord
  2
ACAD_DSTYLE_DIMEXT_LENGTH
 70
     0
  0
APPID
  5
B0F7
330
9
100
AcDbSymbolTableRecord
100
AcDbRegAppTableRecord
  2
ACAD_DSTYLE_DIMEXT_ENABLED
 70
     0
  0
APPID
  5
B0F8
330
9
100
AcDbSymbolTableRecord
100
AcDbRegAppTableRecord
  2
ACAD_DSTYLE_DIM_LINETYPE
 70
     0
  0
APPID
  5
B0F9
330
9
100
AcDbSymbolTableRecord
100
AcDbRegAppTableRecord
  2
ACAD_DSTYLE_DIM_EXT1_LINETYPE
 70
     0
  0
APPID
  5
B0FA
330
9
100
AcDbSymbolTableRecord
100
AcDbRegAppTableRecord
  2
ACAD_DSTYLE_DIM_EXT2_LINETYPE
 70
     0
  0
APPID
  5
C496
330
9
100
AcDbSymbolTableRecord
100
AcDbRegAppTableRecord
  2
GENIUS_GENCEN_19
 70
     0
  0
ENDTAB
  0
TABLE
  2
DIMSTYLE
  5
A
330
0
100
AcDbSymbolTable
 70
    19
100
AcDbDimStyleTable
 71
     3
340
2515
340
251A
340
251B
  0
DIMSTYLE
105
A76
330
A
100
AcDbSymbolTableRecord
100
AcDbDimStyleTableRecord
  2
STANDARD
 70
     0
 41
3.0
 42
1.0
 43
7.0
 44
2.0
 73
     0
 74
     0
 77
     1
140
2.799999999999999
141
0.0
143
0.0394
147
0.7
171
     4
172
     1
173
     1
176
     3
177
     3
178
     2
271
     3
272
     3
273
     8
274
     4
289
     0
340
A74
341
A66
343
A66
344
A66
  0
DIMSTYLE
105
2515
330
A
100
AcDbSymbolTableRecord
100
AcDbDimStyleTableRecord
  2
SYS
 70
     0
  4
"
 41
1.0
 42
1.0
 43
10.0
 44
1.0
 47
0.1
 48
0.1
 73
     0
 74
     0
 77
     1
 78
     8
 79
     2
140
3.5
141
0.0
143
0.0393701
146
0.71
147
1.5
172
     1
176
   256
177
   256
178
     7
271
     2
272
     2
283
     0
284
     8
340
11
371
    -1
372
    -1
1001
ACAD_DSTYLE_DIMJOGGED_JOGANGLE_SYMBOL
1070
   384
1040
0.7853981633974483
1001
ACAD_DSTYLE_DIMARC_LENGTH_SYMBOL
1070
   379
1070
     1
  0
DIMSTYLE
105
2516
330
A
100
AcDbSymbolTableRecord
100
AcDbDimStyleTableRecord
  2
SYS$3
 70
     0
  4
"
 41
2.0
 42
1.0
 43
10.0
 44
1.0
 47
0.1
 48
0.1
 73
     0
 77
     1
 78
     8
 79
     2
140
3.200000000000001
141
0.0
143
0.0393701
146
0.71
147
1.5
176
   256
177
   256
178
     2
271
     2
272
     2
283
     0
284
     8
288
     1
340
11
342
A66
371
    -1
372
    -1
1001
ACAD_DSTYLE_DIMJOGGED_JOGANGLE_SYMBOL
1070
   384
1040
0.7853981633974483
1001
ACAD_DSTYLE_DIMARC_LENGTH_SYMBOL
1070
   379
1070
     1
1001
ACAD_DSTYLE_DIMEXT_LENGTH
1070
   378
1040
0.0
  0
DIMSTYLE
105
2517
330
A
100
AcDbSymbolTableRecord
100
AcDbDimStyleTableRecord
  2
SYS$4
 70
     0
  4
"
 41
2.0
 42
1.0
 43
10.0
 44
1.0
 47
0.1
 48
0.1
 73
     0
 77
     1
 78
     8
 79
     2
140
3.200000000000001
141
0.0
143
0.0393701
146
0.71
147
1.5
173
     1
176
   256
177
   256
178
     2
271
     2
272
     2
283
     0
284
     8
288
     1
340
11
344
A66
371
    -1
372
    -1
1001
ACAD_DSTYLE_DIMJOGGED_JOGANGLE_SYMBOL
1070
   384
1040
0.7853981633974483
1001
ACAD_DSTYLE_DIMARC_LENGTH_SYMBOL
1070
   379
1070
     1
1001
ACAD_DSTYLE_DIMEXT_LENGTH
1070
   378
1040
0.0
  0
DIMSTYLE
105
2518
330
A
100
AcDbSymbolTableRecord
100
AcDbDimStyleTableRecord
  2
SYS$6
 70
     0
  4
"
 41
2.0
 42
1.0
 43
10.0
 44
1.0
 47
0.1
 48
0.1
 73
     0
 74
     0
 78
     8
 79
     2
140
3.200000000000001
141
0.0
143
0.0393701
146
0.71
147
1.5
172
     1
176
   256
177
   256
178
     2
271
     2
272
     2
283
     0
284
     8
340
11
341
A66
371
    -1
372
    -1
1001
ACAD_DSTYLE_DIMJOGGED_JOGANGLE_SYMBOL
1070
   384
1040
0.7853981633974483
1001
ACAD_DSTYLE_DIMARC_LENGTH_SYMBOL
1070
   379
1070
     1
1001
ACAD_DSTYLE_DIMEXT_LENGTH
1070
   378
1040
0.0
  0
DIMSTYLE
105
2519
330
A
100
AcDbSymbolTableRecord
100
AcDbDimStyleTableRecord
  2
SYS$7
 70
     0
  4
"
 41
2.0
 42
1.0
 43
10.0
 44
1.0
 47
0.1
 48
0.1
 73
     0
 74
     0
 77
     1
 78
     8
 79
     2
140
3.200000000000006
141
0.0
143
0.0393701
146
0.71
147
1.5
172
     1
176
   256
177
   256
178
     2
271
     2
272
     2
283
     0
284
     8
340
11
341
A66
342
A66
371
    -1
372
    -1
1001
ACAD_DSTYLE_DIMJOGGED_JOGANGLE_SYMBOL
1070
   384
1040
0.7853981633974483
1001
ACAD_DSTYLE_DIMARC_LENGTH_SYMBOL
1070
   379
1070
     1
1001
ACAD_DSTYLE_DIMEXT_LENGTH
1070
   378
1040
0.0
  0
DIMSTYLE
105
251A
330
A
100
AcDbSymbolTableRecord
100
AcDbDimStyleTableRecord
  2
SYS$SF
 70
     0
  4
"
 41
2.5
 42
1.0
 43
10.0
 44
1.0
 47
0.1
 48
0.1
 73
     0
 74
     0
 75
     1
 76
     1
 77
     1
 78
     8
 79
     2
140
3.200000000000001
141
0.0
143
0.0393701
146
0.71
147
1.5
172
     1
176
   256
177
   256
178
     2
271
     2
272
     2
283
     0
284
     8
340
11
341
6C4
342
6C4
371
    -1
372
    -1
1001
ACAD_DSTYLE_DIMJOGGED_JOGANGLE_SYMBOL
1070
   384
1040
0.7853981633974483
1001
ACAD_DSTYLE_DIMARC_LENGTH_SYMBOL
1070
   379
1070
     1
1001
ACAD_DSTYLE_DIMEXT_LENGTH
1070
   378
1040
0.0
  0
DIMSTYLE
105
251B
330
A
100
AcDbSymbolTableRecord
100
AcDbDimStyleTableRecord
  2
SYS$SH
 70
     0
  4
"
 41
2.5
 42
1.0
 43
10.0
 44
1.0
 47
0.1
 48
0.1
 73
     0
 74
     0
 75
     1
 76
     1
 77
     1
 78
     8
 79
     2
140
3.200000000000001
141
0.0
143
0.0393701
144
2.0
146
0.71
147
1.5
172
     1
173
     1
176
   256
177
   256
178
     2
271
     2
272
     2
283
     0
284
     8
340
11
341
6C4
343
72
344
6C4
371
    -1
372
    -1
1001
ACAD_DSTYLE_DIMJOGGED_JOGANGLE_SYMBOL
1070
   384
1040
0.7853981633974483
1001
ACAD_DSTYLE_DIMARC_LENGTH_SYMBOL
1070
   379
1070
     1
1001
ACAD_DSTYLE_DIMEXT_LENGTH
1070
   378
1040
0.0
  0
DIMSTYLE
105
2A59
330
A
100
AcDbSymbolTableRecord
100
AcDbDimStyleTableRecord
  2
SYS$2
 70
     0
  4
"
 41
1.0
 42
1.0
 43
10.0
 44
1.0
 47
0.1
 48
0.1
 73
     0
 74
     0
 77
     1
 78
     8
 79
     2
140
3.200000000000001
141
0.0
143
0.0393701
146
0.71
147
1.5
172
     1
176
   256
177
   256
178
     2
271
     2
272
     2
283
     0
284
     8
340
11
342
6C4
371
    -1
372
    -1
1001
ACAD_DSTYLE_DIMJOGGED_JOGANGLE_SYMBOL
1070
   384
1040
0.7853981633974483
1001
ACAD_DSTYLE_DIMARC_LENGTH_SYMBOL
1070
   379
1070
     1
1001
ACAD_DSTYLE_DIMEXT_LENGTH
1070
   378
1040
0.0
  0
DIMSTYLE
105
2AAB
102
{ACAD_REACTORS
330
C3EF
330
C415
102
}
330
A
100
AcDbSymbolTableRecord
100
AcDbDimStyleTableRecord
  2
SYS$0
 70
     0
  4
"
 41
1.0
 42
1.0
 43
10.0
 44
1.0
 47
0.1
 48
0.1
 73
     0
 74
     0
 77
     1
 78
     8
 79
     2
140
3.200000000000001
141
0.0
143
0.0393701
146
0.71
147
1.5
172
     1
176
   256
177
   256
178
     2
271
     2
272
     2
283
     0
284
     8
340
11
341
A66
342
6C4
371
    -1
372
    -1
1001
ACAD_DSTYLE_DIMJOGGED_JOGANGLE_SYMBOL
1070
   384
1040
0.7853981633974483
1001
ACAD_DSTYLE_DIMARC_LENGTH_SYMBOL
1070
   379
1070
     1
1001
ACAD_DSTYLE_DIMEXT_LENGTH
1070
   378
1040
0.0
  0
DIMSTYLE
105
AF99
330
A
100
AcDbSymbolTableRecord
100
AcDbDimStyleTableRecord
  2
AM_ISO
 70
     0
  4
"
 41
2.5
 42
1.0
 43
10.0
 44
1.0
 47
0.1
 48
0.1
 73
     0
 74
     0
 77
     1
 78
     8
 79
     2
140
3.5
141
0.0
143
0.0393701
146
0.71
147
1.5
172
     1
176
   256
177
   256
178
     2
271
     2
272
     3
274
     4
283
     0
284
     8
340
11
371
    -1
372
    -1
  0
DIMSTYLE
105
AF9A
330
A
100
AcDbSymbolTableRecord
100
AcDbDimStyleTableRecord
  2
AM_ISO$3
 70
     0
  4
"
 41
2.5
 42
1.0
 43
10.0
 44
1.0
 47
0.1
 48
0.1
 73
     0
 77
     1
 78
     8
 79
     2
140
3.5
141
0.0
143
0.0393701
146
0.71
147
1.5
176
   256
177
   256
178
     2
271
     2
272
     3
274
     4
283
     0
284
     8
288
     1
289
     0
340
11
371
    -1
372
    -1
  0
DIMSTYLE
105
AF9B
330
A
100
AcDbSymbolTableRecord
100
AcDbDimStyleTableRecord
  2
AM_ISO$4
 70
     0
  4
"
 41
2.5
 42
1.0
 43
10.0
 44
1.0
 47
0.1
 48
0.1
 73
     0
 77
     1
 78
     8
 79
     2
140
3.5
141
0.0
143
0.0393701
146
0.71
147
1.5
176
   256
177
   256
178
     2
271
     2
272
     3
274
     4
283
     0
284
     8
288
     1
289
     0
340
11
371
    -1
372
    -1
  0
DIMSTYLE
105
AF9C
330
A
100
AcDbSymbolTableRecord
100
AcDbDimStyleTableRecord
  2
AM_ISO$6
 70
     0
  4
"
 41
2.5
 42
1.0
 43
10.0
 44
1.0
 47
0.1
 48
0.1
 73
     0
 74
     0
 78
     8
 79
     2
140
3.5
141
0.0
143
0.0393701
146
0.71
147
1.5
172
     1
176
   256
177
   256
178
     2
271
     2
272
     3
274
     4
283
     0
284
     8
340
11
371
    -1
372
    -1
  0
DIMSTYLE
105
AF9D
330
A
100
AcDbSymbolTableRecord
100
AcDbDimStyleTableRecord
  2
AM_ISO$7
 70
     0
  4
"
 41
2.5
 42
1.0
 43
10.0
 44
1.0
 47
0.1
 48
0.1
 73
     0
 74
     0
 77
     1
 78
     8
 79
     2
140
5.0
141
0.0
143
0.0393701
146
0.71
147
1.5
172
     1
176
   256
177
   256
178
     2
271
     2
272
     3
274
     4
283
     0
284
     8
340
11
371
    -1
372
    -1
  0
DIMSTYLE
105
AF9E
330
A
100
AcDbSymbolTableRecord
100
AcDbDimStyleTableRecord
  2
AM_ISO$SF
 70
     0
  4
"
 41
2.5
 42
1.0
 43
10.0
 44
1.0
 47
0.1
 48
0.1
 73
     0
 74
     0
 75
     1
 76
     1
 77
     1
 78
     8
 79
     2
140
3.5
141
0.0
143
0.0393701
146
0.71
147
1.5
172
     1
176
   256
177
   256
178
     2
271
     2
272
     3
274
     4
283
     0
284
     8
340
11
371
    -1
372
    -1
  0
DIMSTYLE
105
AF9F
330
A
100
AcDbSymbolTableRecord
100
AcDbDimStyleTableRecord
  2
AM_ISO$SH
 70
     0
  4
"
 41
2.5
 42
1.0
 43
10.0
 44
1.0
 47
0.1
 48
0.1
 73
     0
 74
     0
 75
     1
 76
     1
 77
     1
 78
     8
 79
     2
140
3.5
141
0.0
143
0.0393701
144
2.0
146
0.71
147
1.5
172
     1
173
     1
176
   256
177
   256
178
     2
271
     2
272
     3
274
     4
283
     0
284
     8
340
11
343
72
371
    -1
372
    -1
  0
DIMSTYLE
105
C2B3
330
A
100
AcDbSymbolTableRecord
100
AcDbDimStyleTableRecord
  2
AM_ISO$0
 70
     0
  4
"
 41
0.8
 42
1.0
 43
10.0
 44
1.0
 47
0.1
 48
0.1
 73
     0
 74
     0
 77
     1
 78
     8
 79
     2
140
3.2
141
0.0
143
0.0393701
146
0.71
147
0.9999999999999996
172
     1
176
   256
177
   256
178
     2
271
     2
272
     2
283
     0
284
     8
340
11
341
6C4
342
6C4
371
    -1
372
    -1
1001
ACAD_DSTYLE_DIMJOGGED_JOGANGLE_SYMBOL
1070
   384
1040
0.7853981633974483
1001
ACAD_DSTYLE_DIMARC_LENGTH_SYMBOL
1070
   379
1070
     1
  0
DIMSTYLE
105
C2B4
330
A
100
AcDbSymbolTableRecord
100
AcDbDimStyleTableRecord
  2
AM_ISO$2
 70
     0
  4
"
 41
0.8
 42
1.0
 43
10.0
 44
1.0
 47
0.1
 48
0.1
 73
     0
 74
     0
 77
     3
 78
     8
 79
     2
140
3.200000000000001
141
0.0
143
0.0393701
146
0.71
147
0.9999999999999996
172
     1
176
   256
177
   256
178
     2
271
     2
272
     2
283
     0
284
     8
340
11
342
6C4
371
    -1
372
    -1
1001
ACAD_DSTYLE_DIMJOGGED_JOGANGLE_SYMBOL
1070
   384
1040
0.7853981633974483
1001
ACAD_DSTYLE_DIMARC_LENGTH_SYMBOL
1070
   379
1070
     1
  0
ENDTAB
  0
TABLE
  2
BLOCK_RECORD
  5
1
330
0
100
AcDbSymbolTable
 70
     9
  0
BLOCK_RECORD
  5
1F
102
{ACAD_XDICTIONARY
360
8A
102
}
330
1
100
AcDbSymbolTableRecord
100
AcDbBlockTableRecord
  2
*Model_Space
340
22
  0
BLOCK_RECORD
  5
1B
330
1
100
AcDbSymbolTableRecord
100
AcDbBlockTableRecord
  2
*Paper_Space
340
1E
  0
BLOCK_RECORD
  5
23
330
1
100
AcDbSymbolTableRecord
100
AcDbBlockTableRecord
  2
*Paper_Space0
340
26
  0
BLOCK_RECORD
  5
72
330
1
100
AcDbSymbolTableRecord
100
AcDbBlockTableRecord
  2
GENAXEH
340
0
  0
BLOCK_RECORD
  5
6C4
330
1
100
AcDbSymbolTableRecord
100
AcDbBlockTableRecord
  2
_Dot
340
0
102
{BLKREFS
331
C8A3
331
C8A4
331
C8AC
331
C8AD
102
}
  0
BLOCK_RECORD
  5
A66
330
1
100
AcDbSymbolTableRecord
100
AcDbBlockTableRecord
  2
_OPEN30
340
0
  0
BLOCK_RECORD
  5
C318
102
{ACAD_XDICTIONARY
360
C327
102
}
330
1
100
AcDbSymbolTableRecord
100
AcDbBlockTableRecord
  2
SYS図枠A4(10)
340
0
  0
BLOCK_RECORD
  5
C348
102
{ACAD_XDICTIONARY
360
C3B8
102
}
330
1
100
AcDbSymbolTableRecord
100
AcDbBlockTableRecord
  2
SYS表題A4(10)
340
0
  0
BLOCK_RECORD
  5
C3F0
330
1
100
AcDbSymbolTableRecord
100
AcDbBlockTableRecord
  2
*D7
340
0
  0
BLOCK_RECORD
  5
C416
330
1
100
AcDbSymbolTableRecord
100
AcDbBlockTableRecord
  2
*D8
340
0
  0
ENDTAB
  0
ENDSEC
  0
SECTION
  2
BLOCKS
  0
BLOCK
  5
20
330
1F
100
AcDbEntity
  8
0
100
AcDbBlockBegin
  2
*Model_Space
 70
     0
 10
0.0
 20
0.0
 30
0.0
  3
*Model_Space
  1

  0
ENDBLK
  5
21
330
1F
100
AcDbEntity
  8
0
100
AcDbBlockEnd
  0
BLOCK
  5
1C
330
1B
100
AcDbEntity
 67
     1
  8
0
100
AcDbBlockBegin
  2
*Paper_Space
 70
     0
 10
0.0
 20
0.0
 30
0.0
  3
*Paper_Space
  1

  0
ENDBLK
  5
1D
330
1B
100
AcDbEntity
 67
     1
  8
0
100
AcDbBlockEnd
  0
BLOCK
  5
24
330
23
100
AcDbEntity
 67
     1
  8
0
100
AcDbBlockBegin
  2
*Paper_Space0
 70
     0
 10
0.0
 20
0.0
 30
0.0
  3
*Paper_Space0
  1

  0
ENDBLK
  5
25
330
23
100
AcDbEntity
 67
     1
  8
0
100
AcDbBlockEnd
  0
BLOCK
  5
74
330
72
100
AcDbEntity
  8
0
100
AcDbBlockBegin
  2
GENAXEH
 70
     0
 10
0.0
 20
0.0
 30
0.0
  3
GENAXEH
  1

  0
LINE
  5
73
330
72
100
AcDbEntity
  8
0
100
AcDbLine
 10
-1.0
 20
0.0
 30
0.0
 11
1.0
 21
0.0
 31
0.0
  0
ENDBLK
  5
75
330
72
100
AcDbEntity
  8
0
100
AcDbBlockEnd
  0
BLOCK
  5
6C7
330
6C4
100
AcDbEntity
  8
0
100
AcDbBlockBegin
  2
_Dot
 70
     0
 10
0.0
 20
0.0
 30
0.0
  3
_Dot
  1

  0
LWPOLYLINE
  5
6C5
330
6C4
100
AcDbEntity
  8
0
  6
ByBlock
 62
     0
100
AcDbPolyline
 90
        2
 70
     1
 43
0.5
 10
-0.25
 20
0.0
 42
1.0
 10
0.25
 20
0.0
 42
1.0
  0
LINE
  5
6C6
330
6C4
100
AcDbEntity
  8
0
  6
ByBlock
 62
     0
370
    -2
100
AcDbLine
 10
-0.5
 20
0.0
 30
0.0
 11
-1.0
 21
0.0
 31
0.0
  0
ENDBLK
  5
6C8
330
6C4
100
AcDbEntity
  8
0
100
AcDbBlockEnd
  0
BLOCK
  5
A6A
330
A66
100
AcDbEntity
  8
0
100
AcDbBlockBegin
  2
_OPEN30
 70
     0
 10
0.0
 20
0.0
 30
0.0
  3
_OPEN30
  1

  0
LINE
  5
A67
330
A66
100
AcDbEntity
  8
0
  6
ByBlock
 62
     0
100
AcDbLine
 10
-1.0
 20
0.26794919
 30
0.0
 11
0.0
 21
0.0
 31
0.0
  0
LINE
  5
A68
330
A66
100
AcDbEntity
  8
0
  6
ByBlock
 62
     0
100
AcDbLine
 10
0.0
 20
0.0
 30
0.0
 11
-1.0
 21
-0.26794919
 31
0.0
  0
LINE
  5
A69
330
A66
100
AcDbEntity
  8
0
  6
ByBlock
 62
     0
100
AcDbLine
 10
0.0
 20
0.0
 30
0.0
 11
-1.0
 21
0.0
 31
0.0
  0
ENDBLK
  5
A6B
330
A66
100
AcDbEntity
  8
0
100
AcDbBlockEnd
  0
BLOCK
  5
C328
330
C318
100
AcDbEntity
  8
0
100
AcDbBlockBegin
  2
SYS図枠A4(10)
 70
     0
 10
0.0
 20
0.0
 30
0.0
  3
SYS図枠A4(10)
  1

  0
LINE
  5
C319
330
C318
100
AcDbEntity
  8
waku
100
AcDbLine
 10
86.49999999999996
 20
48.5
 30
0.0
 11
285.5
 21
48.5
 31
0.0
  0
LINE
  5
C31A
330
C318
100
AcDbEntity
  8
waku
100
AcDbLine
 10
86.49999999999996
 20
8.5
 30
0.0
 11
86.49999999999996
 21
48.5
 31
0.0
  0
TEXT
  5
C31B
330
C318
100
AcDbEntity
  8
AM_6
 60
     1
100
AcDbText
 10
285.5
 20
8.5
 30
0.0
 40
2.5
  1
!GENTITLE-INSERT
100
AcDbText
  0
TEXT
  5
C31C
330
C318
100
AcDbEntity
  8
AM_6
 60
     1
100
AcDbText
 10
297.0
 20
210.0
 30
0.0
 40
2.5
  1
!GENTITLE-MAX
100
AcDbText
  0
TEXT
  5
C31D
330
C318
100
AcDbEntity
  8
AM_6
 60
     1
100
AcDbText
 10
297.0
 20
210.0
 30
0.0
 40
2.5
  1
!GENTITLE-RU
100
AcDbText
  0
LINE
  5
C31E
330
C318
100
AcDbEntity
  8
size
100
AcDbLine
 10
0.0
 20
210.0
 30
0.0
 11
297.0
 21
210.0
 31
0.0
1001
GENIUS_GENREC_14
1002
{
1000
PYDIR
1011
0.0000000000000142
1021
297.0
1031
0.0
1002
}
1002
{
1000
PXDIR
1011
420.0
1021
0.0
1031
0.0
1002
}
1002
{
1000
PORI
1011
0.0
1021
0.0
1031
0.0
1002
}
1002
{
1000
PINS
1011
210.0
1021
148.4999999999999
1031
0.0
1002
}
1002
{
1000
HVAL
1000
297
1002
}
1002
{
1000
H
1070
     2
1002
}
1002
{
1000
WVAL
1000
420
1002
}
1002
{
1000
W
1070
     2
1002
}
1002
{
1000
C
1070
     4
1002
}
1001
GENIUS_GENOBJ-N-REC_13
1002
{
1000
OWNER
1000
GEN
1002
}
1001
GENIUS_GENODEF_13
1002
{
1000
HIER
1070
     0
1002
}
1002
{
1000
MANEDIT
1070
     0
1002
}
1002
{
1000
NOSEL
1070
     0
1002
}
1002
{
1000
BEHIND
1070
     0
1002
}
1002
{
1000
OTHER
1070
     0
1002
}
1002
{
1000
REACTOR
1002
}
  0
TEXT
  5
C31F
330
C318
100
AcDbEntity
  8
AM_6
 60
     1
100
AcDbText
 10
0.0
 20
0.0
 30
0.0
 40
2.5
  1
!GENTITLE-LL
100
AcDbText
  0
LINE
  5
C320
330
C318
100
AcDbEntity
  8
size
100
AcDbLine
 10
297.0
 20
210.0
 30
0.0
 11
297.0
 21
-0.0000000000000284
 31
0.0
1001
GENIUS_GENREC_14
1002
{
1000
PYDIR
1011
0.0000000000000142
1021
297.0
1031
0.0
1002
}
1002
{
1000
PXDIR
1011
420.0
1021
0.0
1031
0.0
1002
}
1002
{
1000
PORI
1011
0.0
1021
0.0
1031
0.0
1002
}
1002
{
1000
PINS
1011
210.0
1021
148.4999999999999
1031
0.0
1002
}
1002
{
1000
HVAL
1000
297
1002
}
1002
{
1000
H
1070
     2
1002
}
1002
{
1000
WVAL
1000
420
1002
}
1002
{
1000
W
1070
     2
1002
}
1002
{
1000
C
1070
     4
1002
}
1001
GENIUS_GENOBJ-N-REC_13
1002
{
1000
OWNER
1000
GEN
1002
}
1001
GENIUS_GENODEF_13
1002
{
1000
HIER
1070
     0
1002
}
1002
{
1000
MANEDIT
1070
     0
1002
}
1002
{
1000
NOSEL
1070
     0
1002
}
1002
{
1000
BEHIND
1070
     0
1002
}
1002
{
1000
OTHER
1070
     0
1002
}
1002
{
1000
REACTOR
1002
}
  0
LINE
  5
C321
330
C318
100
AcDbEntity
  8
waku
100
AcDbLine
 10
11.5
 20
8.5
 30
0.0
 11
285.5
 21
8.5
 31
0.0
1001
GENIUS_GENREC_14
1002
{
1000
PYDIR
1011
0.0000000000000142
1021
297.0
1031
0.0
1002
}
1002
{
1000
PXDIR
1011
420.0
1021
0.0
1031
0.0
1002
}
1002
{
1000
PORI
1011
0.0
1021
0.0
1031
0.0
1002
}
1002
{
1000
PINS
1011
210.0
1021
148.4999999999999
1031
0.0
1002
}
1002
{
1000
HVAL
1000
297
1002
}
1002
{
1000
H
1070
     2
1002
}
1002
{
1000
WVAL
1000
420
1002
}
1002
{
1000
W
1070
     2
1002
}
1002
{
1000
C
1070
     4
1002
}
  0
LINE
  5
C322
330
C318
100
AcDbEntity
  8
waku
100
AcDbLine
 10
285.5
 20
201.5
 30
0.0
 11
11.5
 21
201.5
 31
0.0
1001
GENIUS_GENREC_14
1002
{
1000
PYDIR
1011
-123.0
1021
210.0
1031
0.0
1002
}
1002
{
1000
PXDIR
1011
297.0
1021
-87.0
1031
0.0
1002
}
1002
{
1000
PORI
1011
-123.0
1021
-87.0
1031
0.0
1002
}
1002
{
1000
PINS
1011
87.00000000000002
1021
61.49999999999997
1031
0.0
1002
}
1002
{
1000
HVAL
1000
297
1002
}
1002
{
1000
H
1070
     2
1002
}
1002
{
1000
WVAL
1000
420
1002
}
1002
{
1000
W
1070
     2
1002
}
1002
{
1000
C
1070
     4
1002
}
1001
GENIUS_GENOBJ-N-REC_13
1002
{
1000
OWNER
1000
GEN
1002
}
1001
GENIUS_GENODEF_13
1002
{
1000
HIER
1070
     0
1002
}
1002
{
1000
MANEDIT
1070
     0
1002
}
1002
{
1000
NOSEL
1070
     0
1002
}
1002
{
1000
BEHIND
1070
     0
1002
}
1002
{
1000
OTHER
1070
     0
1002
}
1002
{
1000
REACTOR
1002
}
  0
LINE
  5
C323
330
C318
100
AcDbEntity
  8
waku
100
AcDbLine
 10
11.50000000000002
 20
201.5
 30
0.0
 11
11.5
 21
8.5
 31
0.0
1001
GENIUS_GENREC_14
1002
{
1000
PYDIR
1011
0.0000000000000142
1021
297.0
1031
0.0
1002
}
1002
{
1000
PXDIR
1011
420.0
1021
0.0
1031
0.0
1002
}
1002
{
1000
PORI
1011
0.0
1021
0.0
1031
0.0
1002
}
1002
{
1000
PINS
1011
210.0
1021
148.4999999999999
1031
0.0
1002
}
1002
{
1000
HVAL
1000
297
1002
}
1002
{
1000
H
1070
     2
1002
}
1002
{
1000
WVAL
1000
420
1002
}
1002
{
1000
W
1070
     2
1002
}
1002
{
1000
C
1070
     4
1002
}
1001
GENIUS_GENOBJ-N-REC_13
1002
{
1000
OWNER
1000
GEN
1002
}
1001
GENIUS_GENODEF_13
1002
{
1000
HIER
1070
     0
1002
}
1002
{
1000
MANEDIT
1070
     0
1002
}
1002
{
1000
NOSEL
1070
     0
1002
}
1002
{
1000
BEHIND
1070
     0
1002
}
1002
{
1000
OTHER
1070
     0
1002
}
1002
{
1000
REACTOR
1002
}
  0
LINE
  5
C324
330
C318
100
AcDbEntity
  8
waku
100
AcDbLine
 10
285.5
 20
8.5
 30
0.0
 11
285.5
 21
201.5
 31
0.0
1001
GENIUS_GENREC_14
1002
{
1000
PYDIR
1011
-123.0
1021
216.0
1031
0.0
1002
}
1002
{
1000
PXDIR
1011
297.0
1021
-81.0
1031
0.0
1002
}
1002
{
1000
PORI
1011
-123.0
1021
-81.0
1031
0.0
1002
}
1002
{
1000
PINS
1011
87.00000000000002
1021
67.49999999999997
1031
0.0
1002
}
1002
{
1000
HVAL
1000
297
1002
}
1002
{
1000
H
1070
     2
1002
}
1002
{
1000
WVAL
1000
420
1002
}
1002
{
1000
W
1070
     2
1002
}
1002
{
1000
C
1070
     4
1002
}
1001
GENIUS_GENOBJ-N-REC_13
1002
{
1000
OWNER
1000
GEN
1002
}
1001
GENIUS_GENODEF_13
1002
{
1000
HIER
1070
     0
1002
}
1002
{
1000
MANEDIT
1070
     0
1002
}
1002
{
1000
NOSEL
1070
     0
1002
}
1002
{
1000
BEHIND
1070
     0
1002
}
1002
{
1000
OTHER
1070
     0
1002
}
1002
{
1000
REACTOR
1002
}
  0
LINE
  5
C325
330
C318
100
AcDbEntity
  8
size
100
AcDbLine
 10
0.0000000000000213
 20
210.0
 30
0.0
 11
0.0
 21
0.0
 31
0.0
1001
GENIUS_GENREC_14
1002
{
1000
PYDIR
1011
0.0000000000000142
1021
297.0
1031
0.0
1002
}
1002
{
1000
PXDIR
1011
420.0
1021
0.0
1031
0.0
1002
}
1002
{
1000
PORI
1011
0.0
1021
0.0
1031
0.0
1002
}
1002
{
1000
PINS
1011
210.0
1021
148.4999999999999
1031
0.0
1002
}
1002
{
1000
HVAL
1000
297
1002
}
1002
{
1000
H
1070
     2
1002
}
1002
{
1000
WVAL
1000
420
1002
}
1002
{
1000
W
1070
     2
1002
}
1002
{
1000
C
1070
     4
1002
}
1001
GENIUS_GENOBJ-N-REC_13
1002
{
1000
OWNER
1000
GEN
1002
}
1001
GENIUS_GENODEF_13
1002
{
1000
HIER
1070
     0
1002
}
1002
{
1000
MANEDIT
1070
     0
1002
}
1002
{
1000
NOSEL
1070
     0
1002
}
1002
{
1000
BEHIND
1070
     0
1002
}
1002
{
1000
OTHER
1070
     0
1002
}
1002
{
1000
REACTOR
1002
}
  0
LINE
  5
C326
330
C318
100
AcDbEntity
  8
size
100
AcDbLine
 10
0.0
 20
0.0
 30
0.0
 11
297.0
 21
0.0
 31
0.0
1001
GENIUS_GENREC_14
1002
{
1000
PYDIR
1011
0.0000000000000142
1021
297.0
1031
0.0
1002
}
1002
{
1000
PXDIR
1011
420.0
1021
0.0
1031
0.0
1002
}
1002
{
1000
PORI
1011
0.0
1021
0.0
1031
0.0
1002
}
1002
{
1000
PINS
1011
210.0
1021
148.4999999999999
1031
0.0
1002
}
1002
{
1000
HVAL
1000
297
1002
}
1002
{
1000
H
1070
     2
1002
}
1002
{
1000
WVAL
1000
420
1002
}
1002
{
1000
W
1070
     2
1002
}
1002
{
1000
C
1070
     4
1002
}
1001
GENIUS_GENOBJ-N-REC_13
1002
{
1000
OWNER
1000
GEN
1002
}
1001
GENIUS_GENODEF_13
1002
{
1000
HIER
1070
     0
1002
}
1002
{
1000
MANEDIT
1070
     0
1002
}
1002
{
1000
NOSEL
1070
     0
1002
}
1002
{
1000
BEHIND
1070
     0
1002
}
1002
{
1000
OTHER
1070
     0
1002
}
1002
{
1000
REACTOR
1002
}
  0
ENDBLK
  5
C329
330
C318
100
AcDbEntity
  8
0
100
AcDbBlockEnd
  0
BLOCK
  5
C3BA
330
C348
100
AcDbEntity
  8
0
100
AcDbBlockBegin
  2
SYS表題A4(10)
 70
     2
 10
0.0
 20
0.0
 30
0.0
  3
SYS表題A4(10)
  1

  0
ATTDEF
  5
C349
330
C348
100
AcDbEntity
  8
hyomoji
100
AcDbText
 10
-190.4209416136792
 20
14.54933004801888
 30
0.0
 40
4.5
  1

 41
0.7
100
AcDbAttributeDefinition
  3
品名
  2
品名
 70
     0
  0
ATTDEF
  5
C34A
330
C348
100
AcDbEntity
  8
hyomoji
100
AcDbText
 10
-190.4209416136792
 20
1.500597217436961
 30
0.0
 40
5.0
  1

 41
0.9
100
AcDbAttributeDefinition
  3
図番
  2
XXX000000-00-00
 70
     0
  0
LINE
  5
C34B
330
C348
100
AcDbEntity
  8
hyosen1
370
    40
100
AcDbLine
 10
-199.0
 20
20.00000000000001
 30
0.0
 11
0.0
 21
20.00000000000001
 31
0.0
  0
LINE
  5
C34C
330
C348
100
AcDbEntity
  8
hyosen1
370
    40
100
AcDbLine
 10
-199.0
 20
20.00000000000001
 30
0.0
 11
-1.000000000000056
 21
20.00000000000001
 31
0.0
  0
LINE
  5
C34D
330
C348
100
AcDbEntity
  8
hyosen1
  6
Continuous
370
    40
100
AcDbLine
 10
-199.0
 20
9.0
 30
0.0
 11
0.0
 21
9.0
 31
0.0
  0
LWPOLYLINE
  5
C34E
330
C348
100
AcDbEntity
  8
hyomoji
  6
Continuous
100
AcDbPolyline
 90
       23
 70
   129
 43
0.0
 10
-84.60062248100086
 20
2.922408641299355
 42
0.0223985860000053
 10
-84.31824648100088
 20
2.638179641299316
 42
0.0223985860000067
 10
-83.97714748100083
 20
2.365821541299297
 42
0.0223985860000024
 10
-83.58006248100087
 20
2.107518441299319
 42
0.0220669162099173
 10
-83.13698702184728
 20
1.868630468524955
 42
0.4330144820686968
 10
-83.08661212126271
 20
1.887990969270461
 10
-82.82304964928551
 20
2.535439206675633
 42
0.1957402929298021
 10
-82.82304889069228
 20
3.17941460501207
 10
-83.46378652570797
 20
4.753414302732196
 42
-0.1957419841521856
 10
-83.46378407732249
 20
5.305397632785272
 10
-83.03886623792795
 20
6.349200156601156
 42
0.6213425724569266
 10
-83.09028248100089
 20
6.391129141299373
 42
0.0223985860000949
 10
-83.54442748100273
 20
6.150390441298227
 42
0.0223985859999093
 10
-83.94605548100122
 20
5.893357741299112
 42
0.0223985859999842
 10
-84.29194548100088
 20
5.622092441299358
 42
0.0223985860000033
 10
-84.57932448100086
 20
5.338769741299316
 42
0.0223985859999945
 10
-84.80588648100086
 20
5.045661641299361
 42
0.0223985860000046
 10
-84.96981548100093
 20
4.745118641299299
 42
0.0223985860000012
 10
-85.06979748100087
 20
4.439550741299356
 42
0.0223985859999998
 10
-85.10502948100088
 20
4.131408441299313
 42
0.0223985859999993
 10
-85.07523048100086
 20
3.823162641299333
 42
0.0223985859999987
 10
-84.98063748100088
 20
3.517285341299313
 42
0.0223985859999964
 10
-84.82201148100086
 20
3.216229241299359
 42
0.0223985860000002
  0
HATCH
  5
C34F
330
C348
100
AcDbEntity
  8
hyomoji
  6
Continuous
100
AcDbHatch
 10
0.0
 20
0.0
 30
0.0
210
0.0
220
0.0
230
1.0
  2
SOLID
 70
     1
 71
     0
 91
        5
 92
        7
 72
     1
 73
     1
 93
       23
 10
-83.46378652570797
 20
4.753414302732196
 42
-0.1957419841521856
 10
-83.46378407732249
 20
5.305397632785272
 42
0.0
 10
-83.038866237928
 20
6.349200156601099
 42
0.6213425724690987
 10
-83.09028248100203
 20
6.391129141298833
 42
0.0223985860001783
 10
-83.54442748100552
 20
6.150390441296607
 42
0.0223985859996376
 10
-83.94605548099907
 20
5.893357741300619
 42
0.0223985860001622
 10
-84.29194548100156
 20
5.622092441298761
 42
0.0223985859999441
 10
-84.57932448100075
 20
5.338769741299429
 42
0.022398585999998
 10
-84.80588648100081
 20
5.045661641299446
 42
0.0223985860000088
 10
-84.96981548100093
 20
4.745118641299328
 42
0.0223985860000237
 10
-85.06979748100093
 20
4.439550741299072
 42
0.0223985859999749
 10
-85.10502948100088
 20
4.13140844129937
 42
0.0223985859999784
 10
-85.07523048100091
 20
3.823162641299674
 42
0.0223985860000139
 10
-84.98063748100099
 20
3.517285341299427
 42
0.0223985860000266
 10
-84.82201148100063
 20
3.216229241299075
 42
0.0223985860000033
 10
-84.60062248100058
 20
2.922408641299071
 42
0.0223985859999659
 10
-84.31824648100109
 20
2.638179641299544
 42
0.0223985859998799
 10
-83.97714748100311
 20
2.365821541300917
 42
0.0223985860002826
 10
-83.58006248099821
 20
2.107518441297727
 42
0.0220669162097788
 10
-83.13698702184735
 20
1.868630468524955
 42
0.433014482069008
 10
-83.08661212126271
 20
1.887990969270461
 42
0.0
 10
-82.82304964928551
 20
2.535439206675604
 42
0.1957402929298114
 10
-82.82304889069228
 20
3.17941460501207
 42
0.0
 97
        0
 92
        7
 72
     1
 73
     1
 93
       46
 10
-79.15975753181129
 20
3.263995477395141
 42
-0.4787358622778849
 10
-80.08160692178178
 20
4.926098408027442
 42
0.0
 10
-79.07736483811101
 20
7.393042176692503
 42
0.5685357036716303
 10
-79.11571288575101
 20
7.443767025967289
 42
0.0037682570574796
 10
-79.23345348100378
 20
7.429809241298997
 42
0.0037967614000663
 10
-79.35156848100581
 20
7.414988941298716
 42
0.0037967613998709
 10
-79.46914148100148
 20
7.399408441299229
 42
0.0037967614000278
 10
-79.58614348100224
 20
7.383071141299168
 42
0.0037967614000033
 10
-79.70254748100234
 20
7.365980841299077
 42
0.0037967613999715
 10
-79.81832748100117
 20
7.34814164129925
 42
0.0037967614000127
 10
-79.93345648100177
 20
7.329557541299195
 42
0.0037967613999978
 10
-80.04790848100157
 20
7.310232841299225
 42
0.003796761399916
 10
-80.16165548099939
 20
7.290172041299584
 42
0.0037967614001115
 10
-80.2746724810027
 20
7.269379741299033
 42
0.0037967613998133
 10
-80.38693348099736
 20
7.247860641300022
 42
0.0037967614000965
 10
-80.49841148100034
 20
7.225619841299405
 42
0.0037967614000603
 10
-80.60908248100213
 20
7.202662441299068
 42
0.0037967613998026
 10
-80.71891948099642
 20
7.178993641300323
 42
0.0037967614001459
 10
-80.82789748100031
 20
7.154619041299454
 42
0.0038055234899045
 10
-80.93624149281788
 20
7.129484377005226
 42
0.2417074229055406
 10
-80.96187522459041
 20
7.107456547699953
 42
0.0
 10
-81.67679310057867
 20
5.351238007852643
 42
0.1957404060663654
 10
-81.67679324222644
 20
4.707262264772069
 42
0.0
 10
-81.05481874049798
 20
3.179360160222003
 42
-0.1957405476044163
 10
-81.05481905771336
 20
2.53538398585438
 42
0.0
 10
-81.55302151669195
 20
1.311535683439686
 42
0.4443455524912625
 10
-81.52914870534289
 20
1.262076041420399
 42
0.0067708198256677
 10
-81.34540348100079
 20
1.210969441299269
 42
0.0067740667999754
 10
-81.15837748100165
 20
1.161971541299536
 42
0.0067740667999861
 10
-80.96829548100226
 20
1.11514424129966
 42
0.0067740668001172
 10
-80.77529648099886
 20
1.070521841298884
 42
0.0067740667999221
 10
-80.57952248100122
 20
1.028137041299416
 42
0.0067740668000231
 10
-80.38111748100062
 20
0.9880210412992909
 42
0.0067740668000178
 10
-80.18022648100027
 20
0.9502032412991781
 42
0.0067740668000117
 10
-79.97699748099989
 20
0.9147114412991612
 42
0.0067740667999077
 10
-79.77157948100302
 20
0.8815717412996804
 42
0.0067740668001033
 10
-79.56412348099991
 20
0.8508083412992135
 42
0.0067740667999557
 10
-79.35478248100139
 20
0.8224438412994032
 42
0.0067740668000387
 10
-79.14370848100015
 20
0.7964991412992646
 42
0.0067740667999537
 10
-78.93105748100158
 20
0.7729933412993973
 42
0.0067740667999914
 10
-78.71698548100181
 20
0.7519435412994398
 42
0.0067740667999878
 10
-78.50164948100223
 20
0.7333653412994324
 42
0.0067636405007964
 10
-78.28554092211977
 20
0.7172925024907642
 42
0.3216815158957555
 10
-78.24902671059788
 20
0.7402739243399168
 42
0.0
 10
-77.22531974689275
 20
3.25501927152429
 42
0.6036079430413216
 10
-77.26747857872481
 20
3.305118758429657
 42
-0.0968770041122257
 97
        0
 92
        7
 72
     1
 73
     1
 93
       23
 10
-78.38295652935596
 20
4.755026023556396
 42
0.5200087835236598
 10
-77.84193479851961
 20
3.915503817791815
 42
0.1173827961225184
 10
-76.91830940053188
 20
4.097361758078065
 42
0.1913082464585336
 10
-76.85596118473819
 20
4.162353364074974
 42
0.0
 10
-75.53148293830719
 20
7.415968590147585
 42
0.5046897278904324
 10
-75.56250708888382
 20
7.466776330723277
 42
0.0053970181930172
 10
-75.73501248100223
 20
7.480090241299464
 42
0.0031368713998986
 10
-75.83551848099915
 20
7.486840141299254
 42
0.0031368713999987
 10
-75.93621748099912
 20
7.493053841299243
 42
0.0031368713999523
 10
-76.03709148099762
 20
7.498730241299156
 42
0.0031368714000881
 10
-76.13812448100043
 20
7.503868641299348
 42
0.0031368714000824
 10
-76.23930248100328
 20
7.508468041299451
 42
0.0031368713999708
 10
-76.34060748100234
 20
7.512527741299422
 42
0.0031368713998812
 10
-76.4420244809981
 20
7.516047241299318
 42
0.0031368714001445
 10
-76.54353748100283
 20
7.519025841299438
 42
0.0031368714000362
 10
-76.64513048100395
 20
7.521463141299435
 42
0.0031368713998308
 10
-76.7467884809983
 20
7.523358741299304
 42
0.0031368714000767
 10
-76.8484934810009
 20
7.524712341299348
 42
0.0031368714000625
 10
-76.95023048100262
 20
7.525523641299358
 42
0.0031368713999152
 10
-77.05198348100026
 20
7.525792741299355
 42
0.0031368714000485
 10
-77.15373648100166
 20
7.5255193412993
 42
0.002378381288338
 10
-77.23087482131643
 20
7.525017965209841
 42
0.3019404427552704
 10
-77.26472766965793
 20
7.501970698744159
 42
0.0
 97
        0
 92
        7
 72
     1
 73
     1
 93
       42
 10
-72.99251550271089
 20
4.993381119125515
 42
-0.1957413474957151
 10
-72.99251642934581
 20
5.637359730877065
 42
0.0
 10
-72.46499287740249
 20
6.933237569940828
 42
0.4460668776928963
 10
-72.48906992686062
 20
6.982756357906694
 42
0.0028283786039479
 10
-72.56563548100297
 20
7.004228641299917
 42
0.0028494113000945
 10
-72.6433444810055
 20
7.025489041300616
 42
0.0028494112998765
 10
-72.72161948100216
 20
7.046371841299688
 42
0.0028494112999565
 10
-72.8004494810009
 20
7.066874241299345
 42
0.0028494113001165
 10
-72.87982448100433
 20
7.086993641300196
 42
0.0028494112998642
 10
-72.95973348100074
 20
7.106727441299298
 42
0.0028494112998679
 10
-73.04016748099702
 20
7.126073041298425
 42
0.0028494113001654
 10
-73.12111448100182
 20
7.145027941299517
 42
0.0028494112999915
 10
-73.20256548100132
 20
7.163589641299452
 42
0.002849411300025
 10
-73.28450848100198
 20
7.18175584129959
 42
0.00284941129982
 10
-73.3669344809968
 20
7.199524041298516
 42
0.002849411300116
 10
-73.4498314810001
 20
7.216892141299169
 42
0.0028494113000772
 10
-73.53318848100241
 20
7.23385764129965
 42
0.0028494112999554
 10
-73.61699548100119
 20
7.250418441299373
 42
0.0028494113000053
 10
-73.70124148100114
 20
7.266572441299402
 42
0.0028485312981449
 10
-73.78588930331165
 20
7.282312727728893
 42
0.3543993923517317
 10
-73.82671550229469
 20
7.259848702368017
 42
0.0
 10
-76.48399329063067
 20
0.7321936259631201
 42
0.5392714590992974
 10
-76.44895126845131
 20
0.6812513337253421
 42
0.0068019099602504
 10
-76.22904048100122
 20
0.6888387412992501
 42
0.0068021948000016
 10
-76.00968748100109
 20
0.6989650412993314
 42
0.0068021948000154
 10
-75.79106448100088
 20
0.7116227412993084
 42
0.0068021948000269
 10
-75.57333248100002
 20
0.7268023412994041
 42
0.0068021947999491
 10
-75.35665348100161
 20
0.7444926412992317
 42
0.0068021947999771
 10
-75.14118848100236
 20
0.7646806412991936
 42
0.0068021948000913
 10
-74.92709448099936
 20
0.7873512412994757
 42
0.0068021947999927
 10
-74.71453248099971
 20
0.8124877412994493
 42
0.0068021947999826
 10
-74.50365948100017
 20
0.8400714412993721
 42
0.0068021947999387
 10
-74.29462948100194
 20
0.8700821412991643
 42
0.0068021948000676
 10
-74.08759948099987
 20
0.9024973412994512
 42
0.0068021947999569
 10
-73.88272248100117
 20
0.9372933412993091
 42
0.0068021948000789
 10
-73.68014948099892
 20
0.9744441412997133
 42
0.0068021947999133
 10
-73.4800304810015
 20
1.013922341299192
 42
0.0068021948001044
 10
-73.28251348099826
 20
1.055698741299877
 42
0.0067876847516365
 10
-73.08815863735453
 20
1.099642758789357
 42
0.2416094440683338
 10
-73.06253822552235
 20
1.121667385795333
 42
0.0
 10
-72.37377681836176
 20
2.813631322146576
 42
0.1957413290603562
 10
-72.37377779121278
 20
3.473445415974808
 42
0.0
 97
        0
 92
        7
 72
     1
 73
     1
 93
       23
 10
-70.6023149132937
 20
3.465320599991443
 42
-0.1957433897416723
 10
-70.60231611425542
 20
2.821335765231836
 42
0.0
 10
-70.98728762316278
 20
1.875661006442541
 42
0.6820149919175252
 10
-70.93736526962032
 20
1.828184631690064
 42
0.0225466705713383
 10
-70.47647948100359
 20
2.069241941297789
 42
0.0225609850000015
 10
-70.06833048100327
 20
2.327111041297669
 42
0.0225609850001515
 10
-69.71653748100078
 20
2.59955444129936
 42
0.0225609849999793
 10
-69.42396348100118
 20
2.884355641298938
 42
0.0225609850000091
 10
-69.19298848100101
 20
3.179197441299137
 42
0.022560984999996
 10
-69.02549148100098
 20
3.481681241299057
 42
0.0225609850000407
 10
-68.92283548100085
 20
3.789346041299594
 42
0.0225609849999855
 10
-68.88585548100081
 20
4.099688741299431
 42
0.0225609849999925
 10
-68.91485148100082
 20
4.410184641299323
 42
0.0225609850000018
 10
-69.00958948100083
 20
4.718307541299381
 42
0.0225609849999988
 10
-69.16929648100079
 20
5.021550641299356
 42
0.0225609850000042
 10
-69.39267448100093
 20
5.317446941299365
 42
0.0225609850000189
 10
-69.67790648100123
 20
5.603589041299599
 42
0.0225609849998744
 10
-70.02267048099923
 20
5.877648941298176
 42
0.022560985000175
 10
-70.42416348100238
 20
6.137397141300212
 42
0.0225711483269983
 10
-70.87932716666506
 20
6.380820495278172
 42
0.4317106519725615
 10
-70.92955566189942
 20
6.361389847202858
 42
0.0
 10
-71.22432796981951
 20
5.637286099455693
 42
0.1957432007478235
 10
-71.22432893634453
 20
4.993301840585715
 42
0.0
 97
        0
 75
     0
 76
     1
 47
0.0210963047906488
 98
        5
 10
-83.72773086737561
 20
4.18291466459236
 10
-79.06086437609189
 20
2.368632469716956
 10
-77.35038366997156
 20
5.153344665882301
 10
-73.71825250504667
 20
4.098529530567233
 10
-69.91718489466416
 20
4.3305888091365
  0
ATTDEF
  5
C350
330
C348
100
AcDbEntity
  8
hyomoji
100
AcDbText
 10
-8.500000000000049
 20
27.63512329555828
 30
0.0
 40
4.0
  1

 41
0.7
 72
     4
 11
-8.500000000000049
 21
27.63512329555828
 31
0.0
100
AcDbAttributeDefinition
  3
作図者
  2
作成
 70
     0
  0
ATTDEF
  5
C351
330
C348
100
AcDbEntity
  8
hyomoji
100
AcDbText
 10
-23.24770706330008
 20
27.63512329555828
 30
0.0
 40
4.0
  1

 41
0.7
 72
     4
 11
-23.24770706330008
 21
27.63512329555828
 31
0.0
100
AcDbAttributeDefinition
  3
検図者１
  2
確認1
 70
     0
  0
LINE
  5
C352
330
C348
100
AcDbEntity
  8
hyosen2
  6
Continuous
100
AcDbLine
 10
-194.0
 20
13.0
 30
0.0
 11
-99.0
 21
13.0
 31
0.0
  0
LINE
  5
C353
330
C348
100
AcDbEntity
  8
hyosen2
  6
Continuous
100
AcDbLine
 10
-199.0
 20
25.00000000000001
 30
0.0
 11
-91.00000000000006
 21
25.0
 31
0.0
  0
LINE
  5
C354
330
C348
100
AcDbEntity
  8
hyosen2
  6
Continuous
100
AcDbLine
 10
-199.0
 20
35.00000000000001
 30
0.0
 11
-91.00000000000006
 21
34.99999999999998
 31
0.0
  0
LINE
  5
C355
330
C348
100
AcDbEntity
  8
hyosen1
  6
Continuous
100
AcDbLine
 10
-194.0
 20
20.00000000000001
 30
0.0
 11
-194.0
 21
0.0
 31
0.0
  0
TEXT
  5
C356
330
C348
100
AcDbEntity
  8
hyomoji
  6
Continuous
100
AcDbText
 10
-197.14687
 20
0.9750000800000009
 30
0.0
 40
2.299999999999999
  1
番
 41
0.7
100
AcDbText
  0
TEXT
  5
C357
330
C348
100
AcDbEntity
  8
hyomoji
  6
Continuous
100
AcDbText
 10
-197.1468699999975
 20
5.725000099999789
 30
0.0
 40
2.299999999999999
  1
図
 41
0.7
100
AcDbText
  0
LINE
  5
C358
330
C348
100
AcDbEntity
  8
hyosen2
  6
Continuous
100
AcDbLine
 10
-181.0
 20
40.0
 30
0.0
 11
-181.0
 21
20.00000000000001
 31
0.0
  0
TEXT
  5
C359
330
C348
100
AcDbEntity
  8
hyomoji
  6
Continuous
100
AcDbText
 10
-197.1468699999975
 20
10.97499999999974
 30
0.0
 40
2.299999999999999
  1
名
 41
0.7
100
AcDbText
  0
TEXT
  5
C35A
330
C348
100
AcDbEntity
  8
hyomoji
  6
Continuous
100
AcDbText
 10
-197.1468699999975
 20
16.72499999999972
 30
0.0
 40
2.299999999999999
  1
品
 41
0.7
100
AcDbText
  0
ATTDEF
  5
C35B
330
C348
100
AcDbEntity
  8
hyomoji
100
AcDbText
 10
-38.50000000000006
 20
27.63512329555828
 30
0.0
 40
4.0
  1

 41
0.7
 72
     4
 11
-38.50000000000006
 21
27.63512329555828
 31
0.0
100
AcDbAttributeDefinition
  3
検図者2
  2
確認2
 70
     0
  0
TEXT
  5
C35C
330
C348
100
AcDbEntity
  8
hyomoji
  6
Continuous
100
AcDbText
 10
-197.1356580704931
 20
21.12568523492711
 30
0.0
 40
3.0
  1
ファイル名
 41
0.7
100
AcDbText
  0
TEXT
  5
C35D
330
C348
100
AcDbEntity
  8
hyomoji
  6
Continuous
100
AcDbText
 10
-192.5894449376766
 20
27.08332773495815
 30
0.0
 40
3.0
  1
訂正
 41
0.7
100
AcDbText
  0
TEXT
  5
C35E
330
C348
100
AcDbEntity
  8
hyomoji
  6
Continuous
100
AcDbText
 10
-194.0894449376757
 20
36.00000000000007
 30
0.0
 40
3.0
  1
製図日
 41
0.7
100
AcDbText
  0
LINE
  5
C35F
330
C348
100
AcDbEntity
  8
hyosen2
  6
Continuous
100
AcDbLine
 10
-91.0
 20
20.00000000000001
 30
0.0
 11
-91.0
 21
9.0
 31
0.0
  0
LINE
  5
C360
330
C348
100
AcDbEntity
  8
hyosen1
  6
Continuous
370
    40
100
AcDbLine
 10
-99.0
 20
20.00000000000001
 30
0.0
 11
-99.0
 21
0.0
 31
0.0
  0
ATTDEF
  5
C361
330
C348
100
AcDbEntity
  8
hyomoji
100
AcDbText
 10
-53.26457471938994
 20
27.63512329555828
 30
0.0
 40
4.0
  1

 41
0.7
 72
     4
 11
-53.26457471938994
 21
27.63512329555828
 31
0.0
100
AcDbAttributeDefinition
  3
承認
  2
承認
 70
     0
  0
LINE
  5
C362
330
C348
100
AcDbEntity
  8
hyosen2
  6
Continuous
100
AcDbLine
 10
-114.0
 20
9.0
 30
0.0
 11
-114.0
 21
0.0
 31
0.0
  0
LINE
  5
C363
330
C348
100
AcDbEntity
  8
hyosen1
  6
Continuous
100
AcDbLine
 10
-119.0
 20
9.0
 30
0.0
 11
-119.0
 21
0.0
 31
0.0
  0
TEXT
  5
C364
330
C348
100
AcDbEntity
  8
hyomoji
  6
Continuous
100
AcDbText
 10
-117.2031300000001
 20
3.250000000000028
 30
0.0
 40
2.0
  1
枚
 41
0.7
100
AcDbText
  0
TEXT
  5
C365
330
C348
100
AcDbEntity
  8
hyomoji
  6
Continuous
100
AcDbText
 10
-117.20313
 20
0.625
 30
0.0
 40
2.0
  1
数
 41
0.7
100
AcDbText
  0
TEXT
  5
C366
330
C348
100
AcDbEntity
  8
hyomoji
  6
Continuous
100
AcDbText
 10
-117.2031300000003
 20
5.874999999999943
 30
0.0
 40
2.0
  1
総
 41
0.7
100
AcDbText
  0
TEXT
  5
C367
330
C348
100
AcDbEntity
  8
hyomoji
  6
Continuous
100
AcDbText
 10
-132.8335284631967
 20
26.21725748251071
 30
0.0
 40
3.0
  1
ファイルＮｏ
 41
0.7
100
AcDbText
  0
TEXT
  5
C368
330
C348
100
AcDbEntity
  8
hyomoji
  6
Continuous
100
AcDbText
 10
-133.0587394575692
 20
31.25309884974954
 30
0.0
 40
3.0
  1
製造コ－ド
 41
0.7
100
AcDbText
  0
TEXT
  5
C369
330
C348
100
AcDbEntity
  8
hyomoji
  6
Continuous
100
AcDbText
 10
-134.5587394575698
 20
36.25310284974962
 30
0.0
 40
3.0
  1
得意先コ－ド
 41
0.7
100
AcDbText
  0
TEXT
  5
C36A
330
C348
100
AcDbEntity
  8
hyomoji
  6
Continuous
100
AcDbText
 10
-131.5676658602734
 20
21.02864312321525
 30
0.0
 40
3.0
  1
整理Ｎｏ
 41
0.7
100
AcDbText
  0
LINE
  5
C36B
330
C348
100
AcDbEntity
  8
hyosen2
  6
Continuous
100
AcDbLine
 10
-137.0
 20
30.0
 30
0.0
 11
-91.00000000000006
 21
30.0
 31
0.0
  0
LINE
  5
C36C
330
C348
100
AcDbEntity
  8
hyosen2
  6
Continuous
370
    30
100
AcDbLine
 10
-137.0
 20
40.0
 30
0.0
 11
-137.0
 21
20.00000000000001
 31
0.0
  0
ATTDEF
  5
C36D
330
C348
100
AcDbEntity
  8
hyomoji
100
AcDbText
 10
-79.04673067957083
 20
29.05591524272848
 30
0.0
 40
4.5
  1

 41
0.7
 72
     4
 11
-79.04673067957083
 21
29.05591524272848
 31
0.0
100
AcDbAttributeDefinition
  3
尺度
  2
1/10
 70
     0
  0
POLYLINE
  5
C36E
330
C348
100
AcDbEntity
  8
hyosen2
100
AcDb2dPolyline
 66
     1
 10
0.0
 20
0.0
 30
0.0
 70
     1
  0
VERTEX
  5
C36F
330
C36E
100
AcDbEntity
  8
hyosen2
100
AcDbVertex
100
AcDb2dVertex
 10
-176.0661926269643
 20
31.69371524263438
 30
0.0
  0
VERTEX
  5
C370
330
C36E
100
AcDbEntity
  8
hyosen2
100
AcDbVertex
100
AcDb2dVertex
 10
-179.0972815402098
 20
26.44371524263438
 30
0.0
  0
VERTEX
  5
C371
330
C36E
100
AcDbEntity
  8
hyosen2
100
AcDbVertex
100
AcDb2dVertex
 10
-173.0351037137188
 20
26.44371524263438
 30
0.0
  0
SEQEND
  5
C372
330
C36E
100
AcDbEntity
  8
hyosen2
  0
ATTDEF
  5
C373
330
C348
100
AcDbEntity
  8
hyomoji
100
AcDbText
 10
-168.6947769257895
 20
36.1789919272969
 30
0.0
 40
3.0
  1
 
 41
0.7
100
AcDbAttributeDefinition
  3
製図日
  2
200X年XX年XX日
 70
     0
  0
ATTDEF
  5
C374
330
C348
100
AcDbEntity
  8
hyomoji
100
AcDbText
 10
-176.0661885855164
 20
27.91491868011986
 30
0.0
 40
2.2
  1

 41
0.7
 72
     4
 11
-176.0661885855164
 21
27.91491868011986
 31
0.0
100
AcDbAttributeDefinition
  3
△
  2
99
 70
     0
  0
ATTDEF
  5
C375
330
C348
100
AcDbEntity
  8
hyomoji
100
AcDbText
 10
-168.5145339145882
 20
26.54154464690286
 30
0.0
 40
3.0
  1

 41
0.7
100
AcDbAttributeDefinition
  3
訂正の日付
  2
200X年XX月XX日
 70
     0
  0
ATTDEF
  5
C376
330
C348
100
AcDbEntity
  8
hyomoji
100
AcDbText
 10
-191.4377071728197
 20
10.03775635870818
 30
0.0
 40
2.0
  1

 41
0.7
100
AcDbAttributeDefinition
  3
現場名・部品名
  2
現場名：/部品名：
 70
     0
  0
LINE
  5
C377
330
C348
100
AcDbEntity
  8
hyosen2
  6
Continuous
100
AcDbLine
 10
-115.0
 20
40.0
 30
0.0
 11
-115.0
 21
19.99999999999999
 31
0.0
  0
LINE
  5
C378
330
C348
100
AcDbEntity
  8
hyosen1
  6
Continuous
370
    40
100
AcDbLine
 10
-91.00000000000006
 20
39.99999999999998
 30
0.0
 11
-91.00000000000006
 21
19.99999999999999
 31
0.0
  0
LINE
  5
C379
330
C348
100
AcDbEntity
  8
hyosen1
  6
Continuous
100
AcDbLine
 10
-86.00000000000006
 20
39.99999999999998
 30
0.0
 11
-86.00000000000006
 21
19.99999999999999
 31
0.0
  0
ATTDEF
  5
C37A
330
C348
100
AcDbEntity
  8
hyomoji
100
AcDbText
 10
-110.557452528252
 20
1.500597217436961
 30
0.0
 40
4.0
  1

 41
0.7
100
AcDbAttributeDefinition
  3
総枚数
  2
1
 70
     0
  0
ATTDEF
  5
C37B
330
C348
100
AcDbEntity
  8
hyomoji
100
AcDbText
 10
-87.24734332779508
 20
11.37997572476797
 30
0.0
 40
5.0
  1

 41
0.7
100
AcDbAttributeDefinition
  3
SYS品番
  2
SYS品番
 70
     0
  0
TEXT
  5
C37C
330
C348
100
AcDbEntity
  8
hyomoji
  6
Continuous
100
AcDbText
 10
-96.29006337728595
 20
15.35000000000003
 30
0.0
 40
2.799999999999999
  1
Y
 41
0.7
100
AcDbText
  0
TEXT
  5
C37D
330
C348
100
AcDbEntity
  8
hyomoji
  6
Continuous
100
AcDbText
 10
-97.48311979542314
 20
11.16051326572778
 30
0.0
 40
2.799999999999999
  1
品番
 41
0.7
100
AcDbText
  0
TEXT
  5
C37E
330
C348
100
AcDbEntity
  8
hyomoji
  6
Continuous
100
AcDbText
 10
-98.46968299800744
 20
15.35000000000003
 30
0.0
 40
2.799999999999999
  1
S
 41
0.7
100
AcDbText
  0
TEXT
  5
C37F
330
C348
100
AcDbEntity
  8
hyomoji
  6
Continuous
100
AcDbText
 10
-93.99262583023404
 20
15.35000000000003
 30
0.0
 40
2.799999999999999
  1
S
 41
0.7
100
AcDbText
  0
TEXT
  5
C380
330
C348
100
AcDbEntity
  8
hyomoji
  6
Continuous
100
AcDbText
 10
-90.01045830417632
 20
22.12499999999999
 30
0.0
 40
4.5
  1
度
 41
0.7
100
AcDbText
  0
ATTDEF
  5
C381
330
C348
100
AcDbEntity
  8
hyomoji
100
AcDbText
 10
-37.89652339096398
 20
11.37997572476797
 30
0.0
 40
5.0
  1

 41
0.7
100
AcDbAttributeDefinition
  3
得意先品番
  2
得意先品番
 70
     0
  0
TEXT
  5
C382
330
C348
100
AcDbEntity
  8
hyomoji
  6
Continuous
100
AcDbText
 10
-90.01045830418178
 20
33.37499999999972
 30
0.0
 40
4.5
  1
尺
 41
0.7
100
AcDbText
  0
LINE
  5
C383
330
C348
100
AcDbEntity
  8
hyosen1
  6
Continuous
100
AcDbLine
 10
-49.5
 20
20.00000000000001
 30
0.0
 11
-49.5
 21
9.0
 31
0.0
  0
LINE
  5
C384
330
C348
100
AcDbEntity
  8
hyosen2
  6
Continuous
100
AcDbLine
 10
-41.5
 20
20.00000000000001
 30
0.0
 11
-41.5
 21
9.0
 31
0.0
  0
LWPOLYLINE
  5
C385
102
{ACAD_REACTORS
330
C386
102
}
330
C348
100
AcDbEntity
  8
hyomoji
  6
Continuous
100
AcDbPolyline
 90
       46
 70
   128
 43
0.0
 10
-31.50807948100084
 20
6.496560841299114
 42
0.0246113600000082
 10
-31.50699548100084
 20
6.460610141299099
 42
0.0246113599999873
 10
-31.50356048100082
 20
6.425007441299129
 42
0.0246113599999939
 10
-31.49780848100085
 20
6.390097441299133
 42
0.0246113600000089
 10
-31.48979548100084
 20
6.356217941299121
 42
0.0246113600000195
 10
-31.47959848100089
 20
6.32369694129909
 42
0.0246113599999893
 10
-31.46731548100087
 20
6.292849241299109
 42
0.0246113599999934
 10
-31.45306648100086
 20
6.26397334129912
 42
0.0246113599999928
 10
-31.43698948100086
 20
6.237348941299117
 42
0.0246113599999958
 10
-31.41923948100083
 20
6.213233541299118
 42
0.0246113600000034
 10
-31.39998848100089
 20
6.191860741299109
 42
0.0246113599999883
 10
-31.37942348100086
 20
6.173437441299114
 42
0.0246113600000125
 10
-31.35774148100086
 20
6.158141841299126
 42
0.0246113599999954
 10
-31.33515548100087
 20
6.146122041299108
 42
0.024611359999985
 10
-31.31188148100085
 20
6.137494441299139
 42
0.024611360000015
 10
-31.28814548100087
 20
6.13234244129913
 42
0.0246113600000176
 10
-31.2641784810009
 20
6.130716041299123
 10
-30.4106134810009
 20
6.130716041299123
 42
-0.4142135623730951
 10
-30.16661348100092
 20
5.886716041299123
 10
-30.16661348100092
 20
5.275497923116361
 42
-0.0244511737842624
 10
-30.18131048100088
 20
4.894515141299123
 42
-0.0245486219999786
 10
-30.22521048100083
 20
4.51569674129945
 42
-0.0245486220000839
 10
-30.29790848100112
 20
4.144210241298182
 42
-0.0245486219998618
 10
-30.39870248100056
 20
3.783633241300208
 42
-0.0245486220001097
 10
-30.52662248100109
 20
3.437438441298652
 42
-0.024548621999966
 10
-30.68043648100087
 20
3.10895974129913
 42
-0.0245486220000008
 10
-30.85866448100086
 20
2.801360541299132
 42
-0.0245486220000017
 10
-31.0595884810009
 20
2.517603341299107
 42
-0.0245486219999997
 10
-31.28127348100088
 20
2.260420841299122
 42
-0.0245486220000006
 10
-31.5215854810009
 20
2.032289841299117
 42
-0.0245486219999995
 10
-31.77820948100089
 20
1.835407241299122
 42
-0.0245486219999993
 10
-32.04867448100089
 20
1.671669241299142
 42
-0.0245486219999995
 10
-32.33037448100089
 20
1.542652741299136
 42
-0.0245486220000024
 10
-32.62059848100085
 20
1.449600241299123
 42
-0.0245486220000146
 10
-32.91655048100108
 20
1.393407841299094
 42
-0.0245738278590478
 10
-33.21568788868956
 20
1.374612541299129
 10
-36.75194048100093
 20
1.374612541299129
 10
-36.75194048100093
 20
2.35019854129915
 10
-33.94686748100088
 20
2.35019854129915
 42
0.4142135623730951
 10
-31.99586748100092
 20
4.301198541299157
 10
-31.99586748100092
 20
5.520716041299124
 42
0.4142135623730951
 10
-32.60586748100093
 20
6.130716041299123
 10
-37.11778548100091
 20
6.130716041299123
 10
-37.11778548100091
 20
7.106302041299144
 10
-31.50807448100091
 20
7.106302041299144
 10
-31.50807448100091
 20
6.496560841299114
  0
HATCH
  5
C386
330
C348
100
AcDbEntity
  8
hyomoji
  6
Continuous
100
AcDbHatch
 10
0.0
 20
0.0
 30
0.0
210
0.0
220
0.0
230
1.0
  2
SOLID
 70
     1
 71
     1
 91
        5
 92
       17
 93
       24
 72
     1
 10
-40.41062948100085
 20
1.374612541299129
 11
-44.31282348100092
 21
1.374612541299129
 72
     1
 10
-44.31282348100092
 20
1.374612541299129
 11
-44.31282348100092
 21
2.35019854129915
 72
     1
 10
-44.31282348100092
 20
2.35019854129915
 11
-41.32485848100083
 21
2.35019854129915
 72
     2
 10
-41.32485848100085
 20
4.301198541299136
 40
1.950999999999986
 50
270.0000000000006
 51
360.0000000000006
 73
     1
 72
     1
 10
-39.37385848100087
 20
4.301198541299157
 11
-39.37385848100087
 21
5.764871341299127
 72
     1
 10
-39.37385848100087
 20
5.764871341299127
 11
-37.72866439050967
 21
5.764871341299127
 72
     2
 10
-37.73350367664755
 20
5.5206488705547
 40
0.2442704114436222
 50
271.1351715111995
 51
277.0274425571937
 73
     0
 72
     2
 10
-37.74539953794738
 20
5.519484552045806
 40
0.2471567626505262
 50
279.732401952073
 51
285.3577006019165
 73
     0
 72
     2
 10
-37.75712391558223
 20
5.51714910625737
 40
0.2527400033570294
 50
287.781191900676
 51
293.4064905505137
 73
     0
 72
     2
 10
-37.76856239131908
 20
5.513679401613124
 40
0.260627714642242
 50
295.4115667719504
 51
301.0368654217817
 73
     0
 72
     2
 10
-37.77960674183728
 20
5.509104447762098
 40
0.2703354172792714
 50
302.5427679199386
 51
308.1680665697771
 73
     0
 72
     2
 10
-37.79014888556903
 20
5.503464799974072
 40
0.281325053477792
 50
309.1463353383184
 51
314.7716339881504
 73
     0
 72
     2
 10
-37.8000880244567
 20
5.496831713512614
 40
0.2930436766167751
 50
315.2378398774451
 51
320.8631385272775
 73
     0
 72
     2
 10
-37.80932816166755
 20
5.489234253298038
 40
0.3050060338686421
 50
320.8517256794308
 51
326.4770243292667
 73
     0
 72
     2
 10
-37.81777963703735
 20
5.480789797403753
 40
0.3167242439168004
 50
326.0478621995591
 51
331.6731608493939
 73
     0
 72
     2
 10
-37.82536271566213
 20
5.471549229170366
 40
0.327815325652672
 50
330.8803509734951
 51
336.5056496233285
 73
     0
 72
     2
 10
-37.83200357018162
 20
5.461616713515649
 40
0.3379271164879645
 50
335.4100021712468
 51
341.0353008210853
 73
     0
 72
     2
 10
-37.83763836937544
 20
5.451065729395723
 40
0.3467806841550121
 50
339.6891075424539
 51
345.3144061922893
 73
     0
 72
     2
 10
-37.84221227816173
 20
5.440017687344449
 40
0.3541341989384887
 50
343.7727442892093
 51
349.3980429390439
 73
     0
 72
     2
 10
-37.84568097531713
 20
5.428588193506785
 40
0.3598025996588388
 50
347.7104370894088
 51
353.3357357392449
 73
     0
 72
     2
 10
-37.84801274207382
 20
5.416863545263726
 40
0.3636572113879825
 50
351.543290419548
 51
357.1685890693863
 73
     0
 72
     2
 10
-37.84918440896014
 20
5.404958544376682
 40
0.365607049685469
 50
355.313931494261
 51
360.9674864795957
 73
     0
 72
     1
 10
-37.48362948100089
 20
5.398785261261593
 11
-37.48362948100089
 21
4.301612541299135
 72
     2
 10
-40.41062948100087
 20
4.301612541299114
 40
2.926999999999985
 50
359.9999999999996
 51
449.9999999999996
 73
     0
 97
        1
330
C394
 92
       16
 93
        4
 72
     1
 10
-44.31282348100092
 20
4.301431441299115
 11
-44.31282348100092
 21
5.337991441299124
 72
     1
 10
-44.31282348100092
 20
5.337991441299124
 11
-39.80067748100089
 21
5.337991441299124
 72
     1
 10
-39.80067748100089
 20
5.337991441299124
 11
-39.80067748100089
 21
4.301431441299115
 72
     1
 10
-39.80067748100089
 20
4.301431441299115
 11
-44.31282348100092
 21
4.301431441299115
 97
        1
330
C396
 92
        1
 93
        8
 72
     2
 10
-31.0812034810009
 20
6.557525641299129
 40
0.122000000000007
 50
89.99999999999664
 51
179.9999999999966
 73
     0
 72
     1
 10
-31.20320348100091
 20
6.557525641299122
 11
-31.20320348100091
 21
7.350146741299155
 72
     2
 10
-31.0812034810009
 20
7.350146741299148
 40
0.122000000000007
 50
180.0000000000033
 51
270.0000000000033
 73
     0
 72
     1
 10
-31.0812034810009
 20
7.472146741299155
 11
-30.28861348100094
 21
7.472146741299155
 72
     2
 10
-30.28861348100093
 20
7.350146741299148
 40
0.122000000000007
 50
269.9999999999966
 51
359.9999999999966
 73
     0
 72
     1
 10
-30.16661348100092
 20
7.350146741299155
 11
-30.16661348100092
 21
6.557525641299122
 72
     2
 10
-30.28861348100093
 20
6.557525641299129
 40
0.122000000000007
 50
0.0000000000033587
 51
90.00000000000335
 73
     0
 72
     1
 10
-30.28861348100094
 20
6.435525641299122
 11
-31.0812034810009
 21
6.435525641299122
 97
        1
330
C39A
 92
        1
 93
        8
 72
     2
 10
-29.67876848100088
 20
6.557525641299129
 40
0.122000000000007
 50
89.99999999999664
 51
179.9999999999966
 73
     0
 72
     1
 10
-29.80076848100089
 20
6.557525641299122
 11
-29.80076848100089
 21
7.350146741299155
 72
     2
 10
-29.67876848100088
 20
7.350146741299148
 40
0.122000000000007
 50
180.0000000000033
 51
270.0000000000033
 73
     0
 72
     1
 10
-29.67876848100087
 20
7.472146741299155
 11
-28.88617848100086
 21
7.472146741299155
 72
     2
 10
-28.88617848100088
 20
7.350146741299177
 40
0.1219999999999786
 50
270.00000000001
 51
360.00000000001
 73
     0
 72
     1
 10
-28.7641784810009
 20
7.350146741299155
 11
-28.7641784810009
 21
6.557525641299122
 72
     2
 10
-28.88617848100088
 20
6.5575256412991
 40
0.1219999999999786
 50
359.99999999999
 51
449.9999999999899
 73
     0
 72
     1
 10
-28.88617848100086
 20
6.435525641299122
 11
-29.67876848100087
 21
6.435525641299122
 97
        1
330
C39B
 92
       33
 93
       65
 72
     2
 10
-40.15955403217664
 20
6.7408092919751
 40
0.3655642531807606
 50
268.9079085784473
 51
274.5472783620652
 73
     0
 72
     2
 10
-40.14763822412966
 20
6.742072451993012
 40
0.3635512054363512
 50
272.6907127711501
 51
278.3300825547625
 73
     0
 72
     2
 10
-40.1359043625413
 20
6.74451437027278
 40
0.3596113094173716
 50
276.5363585297269
 51
282.1757283133398
 73
     0
 72
     2
 10
-40.12446857838511
 20
6.748088080990186
 40
0.35385965084628
 50
280.48753408145
 51
286.1269038650641
 73
     0
 72
     2
 10
-40.11343850263419
 20
6.752778970082954
 40
0.3464142485698674
 50
284.5896776688345
 51
290.2290474524438
 73
     0
 72
     2
 10
-40.10292294837059
 20
6.7585331129385
 40
0.3374709780506084
 50
288.8915190653625
 51
294.5308888489795
 73
     0
 72
     2
 10
-40.09302285008405
 20
6.76527657791475
 40
0.3272846928118226
 50
293.444251251041
 51
299.0836210346574
 73
     0
 72
     2
 10
-40.08383483954716
 20
6.772965135123371
 40
0.3161285569237866
 50
298.3056685439536
 51
303.9450383275653
 73
     0
 72
     2
 10
-40.07544568511781
 20
6.781532397649521
 40
0.3043446755875352
 50
303.5354792677978
 51
309.1748490514095
 73
     0
 72
     2
 10
-40.06793845866753
 20
6.790868068026561
 40
0.2923652372842618
 50
309.1900320635539
 51
314.8294018471675
 73
     0
 72
     2
 10
-40.06138697488218
 20
6.80090750406298
 40
0.2806369267863284
 50
315.3258135433781
 51
320.965183326995
 73
     0
 72
     2
 10
-40.05585176090673
 20
6.811528701260874
 40
0.2696903073535069
 50
321.9773747645569
 51
327.6167445481712
 73
     0
 72
     2
 10
-40.0513897232835
 20
6.822662012156958
 40
0.2600539621514557
 50
329.1618629455981
 51
334.8012327292105
 73
     0
 72
     2
 10
-40.04803946583914
 20
6.834156273460845
 40
0.2522883888160134
 50
336.8397010734224
 51
342.4790708570333
 73
     0
 72
     2
 10
-40.04583754767341
 20
6.84593908419425
 40
0.2468678889690294
 50
344.9337820978299
 51
350.5731518814466
 73
     0
 72
     2
 10
-40.04480375552435
 20
6.857882582826594
 40
0.2441681696414171
 50
353.2992254702268
 51
358.9385952541411
 73
     0
 72
     1
 10
-39.80067748100089
 20
6.86240554129786
 11
-39.80067748100089
 21
6.069680941299168
 72
     1
 10
-39.80067748100089
 20
6.069680941299168
 11
-44.31282348100092
 21
6.069680941299168
 72
     1
 10
-44.31282348100092
 20
6.069680941299168
 11
-44.31282348100092
 21
7.106302041299144
 72
     1
 10
-44.31282348100092
 20
7.106302041299144
 11
-40.16652148100092
 21
7.106302041299144
 72
     2
 10
-31.14257467544607
 20
6.489589996947624
 40
0.3655712728793128
 50
178.9073972755287
 51
184.5467670591445
 73
     1
 72
     2
 10
-31.1438479872227
 20
6.477680079955249
 40
0.3635484631284685
 50
182.6912372584356
 51
188.3306070420467
 73
     1
 72
     2
 10
-31.14628660997418
 20
6.465945353190733
 40
0.3596116398956016
 50
186.5366781027052
 51
192.1760478863178
 73
     1
 72
     2
 10
-31.14986549657101
 20
6.454503727980222
 40
0.3538537694839348
 50
190.4870828575621
 51
196.1264526411781
 73
     1
 72
     2
 10
-31.15455165978465
 20
6.443474917404435
 40
0.3464133362656131
 50
194.5891964393065
 51
200.228566222925
 73
     1
 72
     2
 10
-31.16029859641006
 20
6.432967134548325
 40
0.3374794681642724
 50
198.8918738167613
 51
204.5312436003729
 73
     1
 72
     2
 10
-31.16704983279188
 20
6.42306369073371
 40
0.3272846808757174
 50
203.4446491229474
 51
209.0840189065599
 73
     1
 72
     2
 10
-31.17474351588014
 20
6.413870954318162
 40
0.3161217602481632
 50
208.3057667989053
 51
213.9451365825176
 73
     1
 72
     2
 10
-31.18330077664805
 20
6.405484945416437
 40
0.3043479498809699
 50
213.535025556506
 51
219.1743953401191
 73
     1
 72
     2
 10
-31.19264248807965
 20
6.397978634141019
 40
0.2923644070848646
 50
219.1904466843832
 51
224.829816467998
 73
     1
 72
     2
 10
-31.20267709823703
 20
6.391419994125731
 40
0.2806344190524484
 50
225.3245190717162
 51
230.9638888553275
 73
     1
 72
     2
 10
-31.21330525166636
 20
6.385900057787068
 40
0.2696954384525926
 50
231.9792008406406
 51
237.6185706242575
 73
     1
 72
     2
 10
-31.22442638045165
 20
6.381419546999623
 40
0.2600497065895711
 50
239.1593346124937
 51
244.7987043961067
 73
     1
 72
     2
 10
-31.23593317386652
 20
6.378080256489139
 40
0.252288881695582
 50
246.8407272902829
 51
252.4800970738935
 73
     1
 72
     2
 10
-31.24771162389598
 20
6.375880568674587
 40
0.2468718620781297
 50
254.9339822484814
 51
260.5733520320987
 73
     1
 72
     2
 10
-31.25965116182473
 20
6.374836424767416
 40
0.2441623604154202
 50
263.2981767439606
 51
268.9375465275787
 73
     1
 72
     1
 10
-31.2641784810009
 20
6.130716041299123
 11
-30.4106134810009
 21
6.130716041299123
 72
     2
 10
-30.41061348100091
 20
5.886716041299138
 40
0.2439999999999856
 50
270.0000000000033
 51
360.0000000000033
 73
     0
 72
     1
 10
-30.16661348100092
 20
5.886716041299123
 11
-30.16661348100092
 21
5.275497923116361
 72
     2
 10
-34.06697557258851
 20
5.235185552063913
 40
3.900570411203132
 50
359.4078379314366
 51
365.0105178180954
 73
     0
 72
     2
 10
-34.05877333660366
 20
5.151908457652558
 40
3.885996592366323
 50
3.797830276358332
 51
9.422830251404647
 73
     0
 72
     2
 10
-34.04245020973237
 20
5.069854387286857
 40
3.857254184418337
 50
8.260058340267923
 51
13.88505831533831
 73
     0
 72
     2
 10
-34.01816222221169
 20
4.98977624775309
 40
3.815136926803983
 50
12.80505383335247
 51
18.43005380837197
 73
     0
 72
     2
 10
-33.98614101832333
 20
4.912471556376995
 40
3.760849797672591
 50
17.46692010976991
 51
23.0919200848462
 73
     0
 72
     2
 10
-33.94669826752666
 20
4.838677046888363
 40
3.695996214199022
 50
22.27939384303167
 51
27.90439381807504
 73
     0
 72
     2
 10
-33.90021327344463
 20
4.769117291290548
 40
3.622579976198314
 50
27.27620306789391
 51
32.90120304294526
 73
     0
 72
     2
 10
-33.84713174280935
 20
4.704432938925536
 40
3.542967841444326
 50
32.4892084948973
 51
38.11420846994886
 73
     0
 72
     2
 10
-33.78796601886075
 20
4.645263021544927
 40
3.459910360694611
 50
37.94803117320233
 51
43.57303114825342
 73
     0
 72
     2
 10
-33.72328608369366
 20
4.592186920112757
 40
3.376471323440533
 50
43.677035881613
 51
49.3020358566643
 73
     0
 72
     2
 10
-33.65371618501446
 20
4.545699314799506
 40
3.295938185172602
 50
49.69198602774816
 51
55.3169860027992
 73
     0
 72
     2
 10
-33.57992376739414
 20
4.50625902912422
 40
3.22174233021855
 50
55.99702165353679
 51
61.62202162858774
 73
     0
 72
     2
 10
-33.50262008125396
 20
4.474228619015546
 40
3.15726097656203
 50
62.5800733401317
 51
68.20507331518276
 73
     0
 72
     2
 10
-33.42255006079529
 20
4.449949122417944
 40
3.105675408790454
 50
69.41045277538663
 51
75.03545275043833
 73
     0
 72
     2
 10
-33.3404857730268
 20
4.433624731956021
 40
3.069631879242297
 50
76.4367231923789
 51
82.06172316743341
 73
     0
 72
     2
 10
-33.25721629569448
 20
4.425424499997577
 40
3.051094593080625
 50
83.5893505936195
 51
89.22012384329049
 73
     0
 72
     1
 10
-33.21568788868956
 20
1.374612541299129
 11
-36.75194048100093
 21
1.374612541299129
 72
     1
 10
-36.75194048100093
 20
1.374612541299129
 11
-36.75194048100093
 21
2.35019854129915
 72
     1
 10
-36.75194048100093
 20
2.35019854129915
 11
-33.94686748100088
 21
2.35019854129915
 72
     2
 10
-33.9468674810009
 20
4.301198541299136
 40
1.950999999999986
 50
270.0000000000006
 51
360.0000000000006
 73
     1
 72
     1
 10
-31.99586748100092
 20
4.301198541299157
 11
-31.99586748100092
 21
5.520716041299124
 72
     2
 10
-32.60586748100092
 20
5.520716041299117
 40
0.6100000000000066
 50
0.0000000000006674
 51
90.00000000000067
 73
     1
 72
     1
 10
-32.60586748100093
 20
6.130716041299123
 11
-37.11778548100091
 21
6.130716041299123
 72
     1
 10
-37.11778548100091
 20
6.130716041299123
 11
-37.11778548100091
 21
7.106302041299144
 72
     1
 10
-37.11778548100091
 20
7.106302041299144
 11
-31.50807448100091
 21
7.106302041299144
 72
     1
 10
-31.50807448100091
 20
7.106302041299144
 11
-31.50807448100091
 21
6.496560841299114
 97
        2
330
C395
330
C385
 75
     0
 76
     1
 98
        1
 10
-11.52273983372674
 20
-102.7401946664322
  0
HATCH
  5
C387
330
C348
100
AcDbEntity
  8
hyomoji
  6
Continuous
100
AcDbHatch
 10
0.0
 20
0.0
 30
0.0
210
0.0
220
0.0
230
1.0
  2
SOLID
 70
     1
 71
     0
 91
        1
 92
        7
 72
     1
 73
     1
 93
       45
 10
-31.50807448100091
 20
7.10630204129913
 42
0.0
 10
-37.11778548100091
 20
7.106302041299144
 42
0.0
 10
-37.11778548100091
 20
6.130716041299109
 42
0.0
 10
-32.60586748100093
 20
6.130716041299123
 42
-0.4142135623730968
 10
-31.99586748100092
 20
5.520716041299124
 42
0.0
 10
-31.99586748100092
 20
4.301198541299157
 42
-0.4142135623730962
 10
-33.94686748100088
 20
2.35019854129915
 42
0.0
 10
-36.75194048100093
 20
2.350198541299164
 42
0.0
 10
-36.75194048100093
 20
1.374612541299114
 42
0.0
 10
-33.21568788868888
 20
1.374612541299129
 42
0.0245738278589854
 10
-32.91655048100114
 20
1.39340784129908
 42
0.0245486219999894
 10
-32.62059848100125
 20
1.449600241299023
 42
0.0245486220000304
 10
-32.33037448100089
 20
1.542652741299121
 42
0.0245486220000232
 10
-32.04867448100066
 20
1.671669241299255
 42
0.0245486219999824
 10
-31.77820948100083
 20
1.835407241299151
 42
0.0245486220000847
 10
-31.52158548099999
 20
2.032289841299871
 42
0.0245486220001661
 10
-31.28127348099855
 20
2.260420841301581
 42
0.0245486219995206
 10
-31.05958848100289
 20
2.517603341296563
 42
0.0245486220002942
 10
-30.8586644810004
 20
2.801360541299899
 42
0.0245486219999203
 10
-30.68043648100098
 20
3.108959741298903
 42
0.0245486220000126
 10
-30.52662248100091
 20
3.43743844129905
 42
0.0245486220000909
 10
-30.3987024810005
 20
3.78363324130035
 42
0.0245486219998644
 10
-30.29790848100106
 20
4.144210241298367
 42
0.0245486220000773
 10
-30.22521048100083
 20
4.515696741299535
 42
0.0245486219999914
 10
-30.18131048100088
 20
4.894515141299407
 42
0.0244511737842523
 10
-30.16661348100092
 20
5.275497923116489
 42
0.0
 10
-30.16661348100092
 20
5.886716041299123
 42
0.4142135623730951
 10
-30.4106134810009
 20
6.130716041299123
 42
0.0
 10
-31.25512384264875
 20
6.130716041299123
 42
-0.0338910150518635
 10
-31.28814548100093
 20
6.13234244129913
 42
-0.024611360000011
 10
-31.31188148100091
 20
6.137494441299153
 42
-0.0246113599999024
 10
-31.33515548100087
 20
6.146122041299094
 42
-0.0246113599996793
 10
-31.35774148100058
 20
6.158141841298927
 42
-0.0246113600007094
 10
-31.37942348100114
 20
6.173437441299356
 42
-0.0246113600001381
 10
-31.39998848100123
 20
6.191860741299507
 42
-0.0281712769884098
 10
-31.42184532635571
 20
6.216476553006117
 42
-0.0211922032231682
 10
-31.43698948100149
 20
6.237348941300041
 42
-0.0246113599990504
 10
-31.45306648100086
 20
6.263973341299049
 42
-0.0246113600001016
 10
-31.46731548100087
 20
6.292849241299165
 42
-0.0246113599999766
 10
-31.47959848100089
 20
6.323696941299132
 42
-0.0246113599999236
 10
-31.48979548100084
 20
6.356217941299036
 42
-0.0246113600000503
 10
-31.49780848100085
 20
6.390097441299104
 42
-0.0246113600000346
 10
-31.50356048100088
 20
6.425007441299158
 42
-0.0246113599999966
 10
-31.50699548100084
 20
6.460610141299142
 42
-0.0247875348888672
 10
-31.50807448100091
 20
6.496818253583739
 42
0.0
 97
        0
 75
     0
 76
     1
 47
0.0219243262339325
 98
        1
 10
-34.88913805847534
 20
6.515773347131556
  0
LWPOLYLINE
  5
C388
102
{ACAD_REACTORS
330
C389
102
}
330
C348
100
AcDbEntity
  8
hyomoji
  6
Continuous
100
AcDbPolyline
 90
       43
 70
   129
 43
0.0
 10
-59.49559248100093
 20
2.459460770658239
 42
0.4538928057970519
 10
-59.40002856816966
 20
2.373539142465205
 10
-58.21513648100091
 20
2.65565654130745
 10
-58.21513648100091
 20
2.166874593013147
 10
-59.97605424750162
 20
1.923989054180879
 10
-61.20289848100089
 20
1.862646641298482
 10
-61.20289848100089
 20
2.35019854129915
 10
-60.41026148100087
 20
2.35019854129915
 42
0.4142135623730951
 10
-60.34926148100089
 20
2.411198541299157
 10
-60.34926148100089
 20
4.179833051003981
 42
0.4109416450539176
 10
-60.40990345391247
 20
4.240457241299154
 10
-61.20289848100089
 20
4.240457241299154
 10
-61.20289848100089
 20
4.667276141299126
 10
-58.47201198712764
 20
4.667276141299126
 42
0.4890132124780574
 10
-58.35375899315687
 20
4.819279964671366
 10
-58.48916922335632
 20
5.352967452985268
 42
0.3431714260423211
 10
-58.54829572034168
 20
5.398965541299148
 10
-61.20289848100089
 20
5.398965541299148
 10
-61.20289848100089
 20
5.825784441299134
 10
-58.76596001972183
 20
5.825784441299134
 42
0.4890148091784922
 10
-58.64770718039967
 20
5.977788874175686
 10
-58.76384927206533
 20
6.435525641299122
 10
-57.91020861058473
 20
6.435525641299122
 10
-57.76716777773612
 20
5.871782075988221
 42
0.3431692821353876
 10
-57.70804139584885
 20
5.825784441299134
 10
-57.23957148100095
 20
5.825784441299134
 42
0.4142135623730951
 10
-57.11757148100094
 20
5.947784441299148
 10
-57.11757148100094
 20
6.435525641299122
 10
-56.32490848100087
 20
6.435525641299122
 10
-56.32490848100087
 20
5.835573103868767
 42
-0.3824524618302969
 10
-56.7068615190268
 20
5.398965541299148
 10
-57.56853345391249
 20
5.398965541299148
 42
0.4790978957378951
 10
-57.62848939861356
 20
5.325226663145386
 10
-56.8853024185089
 20
2.396196312671946
 42
0.3431699281256741
 10
-56.82617600194055
 20
2.35019854129915
 10
-56.32490848100087
 20
2.35019854129915
 10
-56.32490848100087
 20
1.862313411481466
 10
-57.3029635753897
 20
1.908396245450404
 42
-0.3300656182922443
 10
-57.6967519167186
 20
2.22990749382825
 10
-58.19522029465185
 20
4.194459465683493
 42
0.3431699481782171
 10
-58.25434671229681
 20
4.240457241299154
 10
-59.43495050808934
 20
4.240457241299154
 42
0.4109416450539143
 10
-59.49559248100093
 20
4.179833051003981
  0
HATCH
  5
C389
330
C348
100
AcDbEntity
  8
hyomoji
  6
Continuous
100
AcDbHatch
 10
0.0
 20
0.0
 30
0.0
210
0.0
220
0.0
230
1.0
  2
SOLID
 70
     1
 71
     1
 91
        7
 92
       16
 93
        8
 72
     2
 10
-54.74620849627122
 20
4.972172641299138
 40
0.0610000000000071
 50
89.99999999998667
 51
214.2158041457457
 73
     0
 72
     1
 10
-54.79665095182571
 20
5.006473642416224
 11
-54.19290315928896
 21
5.894334643533326
 72
     2
 10
-54.09201824818003
 20
5.825732641299188
 40
0.1219999999999548
 50
214.2158041457457
 51
269.9999999999833
 73
     0
 72
     1
 10
-54.09201824818007
 20
5.94773264129914
 11
-52.82622506559921
 21
5.94773264129914
 72
     2
 10
-52.8262250655992
 20
5.825732641299138
 40
0.1220000000000017
 50
269.9999999999966
 51
325.7843192239312
 73
     0
 72
     1
 10
-52.72534000677615
 20
5.89433442630704
 11
-52.12159508384053
 21
5.006473533803074
 72
     2
 10
-52.17203761325205
 20
4.97217264129912
 40
0.0609999999999922
 50
325.7843192239235
 51
449.9999999999866
 73
     0
 72
     1
 10
-52.17203761325203
 20
4.911172641299131
 11
-54.74620849627121
 21
4.911172641299131
 97
        1
330
C392
 92
        1
 93
       69
 72
     2
 10
-62.72728248100087
 20
2.989602841299127
 40
0.0609750040000122
 50
20.55601515250868
 51
180.3287979995265
 73
     1
 72
     1
 10
-62.78825648100087
 20
2.989252931594279
 11
-62.78825648100087
 21
1.862405541299139
 72
     1
 10
-62.78825648100087
 20
1.862405541299139
 11
-63.64189448100091
 21
1.862405541299139
 72
     1
 10
-63.64189448100091
 20
1.862405541299139
 11
-63.64189448100091
 21
2.97177701961047
 72
     2
 10
-63.70289448100091
 20
2.971777019610471
 40
0.061
 50
359.9999999999992
 51
516.501434324047
 73
     1
 72
     1
 10
-63.75883575443237
 20
2.996099312406755
 11
-64.25174608969655
 21
1.862405541299139
 72
     1
 10
-64.25174608969655
 20
1.862405541299139
 11
-64.86139895336487
 21
1.862405541299139
 72
     1
 10
-64.86139895336487
 20
1.862405541299139
 11
-63.90864895294914
 21
4.156057205292952
 72
     2
 10
-63.96498223187829
 20
4.179457241299146
 40
0.0610000000000066
 50
337.4427025304224
 51
450.0000000000199
 73
     1
 72
     1
 10
-63.96498223187831
 20
4.240457241299154
 11
-64.72066345391249
 21
4.240457241299154
 72
     2
 10
-64.72099548100088
 20
4.179483141299137
 40
0.0609750039999958
 50
89.68800584477012
 51
205.584723880978
 73
     1
 72
     1
 10
-64.77599174539887
 20
4.153151373127101
 11
-64.43432036448945
 21
3.532893033066841
 72
     1
 10
-64.43432036448945
 20
3.532893033066841
 11
-64.98318196062911
 21
3.569484639619815
 72
     1
 10
-64.98318196062911
 20
3.569484639619815
 11
-65.06457835488749
 21
3.752614298647173
 72
     2
 10
-65.14225148100092
 20
3.71809060417853
 40
0.0849999999999904
 50
23.96390884029606
 51
180.000000000002
 73
     1
 72
     1
 10
-65.2272514810009
 20
3.718090604178527
 11
-65.2272514810009
 21
1.862405541299139
 72
     1
 10
-65.2272514810009
 20
1.862405541299139
 11
-66.01991548100091
 21
1.862405541299139
 72
     1
 10
-66.01991548100091
 20
1.862405541299139
 11
-66.01991548100091
 21
3.180389201155023
 72
     2
 10
-66.05691548100089
 20
3.180389201155027
 40
0.0369999999999919
 50
359.9999999999931
 51
525.0682641126503
 73
     1
 72
     1
 10
-66.09266612073515
 20
3.189922918089735
 11
-66.20279949565958
 21
2.77693198951394
 72
     1
 10
-66.20279949565958
 20
2.77693198951394
 11
-66.69079791063558
 21
2.715931687446754
 72
     1
 10
-66.69079791063558
 20
2.715931687446754
 11
-66.0423487498785
 21
4.897074248306211
 72
     2
 10
-66.10167148100086
 20
4.911172641299136
 40
0.0609750039999943
 50
346.6313300948614
 51
450.3119941552164
 73
     1
 72
     1
 10
-66.10200350808923
 20
4.972146741299155
 11
-66.56871348100088
 21
4.972146741299155
 72
     1
 10
-66.56871348100088
 20
4.972146741299155
 11
-66.56871348100088
 21
5.398965541299148
 72
     1
 10
-66.56871348100088
 20
5.398965541299148
 11
-66.08057635616257
 21
5.398965541299148
 72
     2
 10
-66.08088948100089
 20
5.459939741299114
 40
0.0609750040000025
 50
270.2942322160608
 51
360.328797999525
 73
     1
 72
     1
 10
-66.01991548100091
 20
5.460289651003961
 11
-66.01991548100091
 21
6.435525641299122
 72
     1
 10
-66.01991548100091
 20
6.435525641299122
 11
-65.2272514810009
 21
6.435525641299122
 72
     1
 10
-65.2272514810009
 20
6.435525641299122
 11
-65.2272514810009
 21
5.460289651003961
 72
     2
 10
-65.16627748100091
 20
5.459939741299106
 40
0.060975004
 50
179.6712020004675
 51
270.2942322160609
 73
     1
 72
     1
 10
-65.16596435616259
 20
5.398965541299148
 11
-65.01326412084137
 21
5.398965541299148
 72
     2
 10
-65.01457448100095
 20
5.642862041299148
 40
0.2439000199999946
 50
270.3078247716722
 51
323.2355201469979
 73
     1
 72
     1
 10
-64.81918554624172
 20
5.496881275683762
 11
-64.80043248100088
 21
5.520991826785888
 72
     1
 10
-64.80043248100088
 20
5.520991826785888
 11
-64.80043248100088
 21
4.972146741299155
 72
     1
 10
-64.80043248100088
 20
4.972146741299155
 11
-65.12440350808924
 21
4.972146741299155
 72
     2
 10
-65.12407148100088
 20
4.911172641299119
 40
0.0609750040000152
 50
90.31199415520308
 51
212.5323653743687
 73
     1
 72
     1
 10
-65.17547876299079
 20
4.878381751234783
 11
-64.90594841597351
 21
4.389080222085937
 72
     2
 10
-64.88579048100085
 20
4.402810841299114
 40
0.0243900029999836
 50
214.260815384079
 51
361.3730430692656
 73
     1
 72
     1
 10
-64.86140748100092
 20
4.403395270373323
 11
-64.86140748100092
 21
4.667276141299126
 72
     1
 10
-64.86140748100092
 20
4.667276141299126
 11
-63.7025364539125
 21
4.667276141299126
 72
     2
 10
-63.70286848100089
 20
4.728250241299138
 40
0.0609750039999905
 50
270.3119941552366
 51
360.3287979995417
 73
     1
 72
     1
 10
-63.64189448100091
 20
4.728600151004002
 11
-63.64189448100091
 21
5.338341351003975
 72
     2
 10
-63.70286848100089
 20
5.337991441299136
 40
0.0609750039999928
 50
0.328797999518302
 51
89.6880058447634
 73
     1
 72
     1
 10
-63.7025364539125
 20
5.398965541299148
 11
-64.28611254821658
 21
5.398965541299148
 72
     2
 10
-64.32991248100091
 20
5.941018841299143
 40
0.5438200199999966
 50
85.38032373407656
 51
167.7784156334983
 73
     0
 72
     1
 10
-64.86140748100092
 20
5.825895954227206
 11
-64.86140748100092
 21
6.435525641299122
 72
     1
 10
-64.86140748100092
 20
6.435525641299122
 11
-64.06874348100086
 21
6.435525641299122
 72
     1
 10
-64.06874348100086
 20
6.435525641299122
 11
-64.06874348100086
 21
5.886784441299141
 72
     2
 10
-64.00774348100084
 20
5.886784441299155
 40
0.0610000000000213
 50
180.0000000000133
 51
270.0000000000134
 73
     1
 72
     1
 10
-64.00774348100083
 20
5.825784441299134
 11
-63.7028944810009
 21
5.825784441299134
 72
     2
 10
-63.70289448100091
 20
5.886784441299127
 40
0.0609999999999928
 50
270.0000000000134
 51
360.0000000000134
 73
     1
 72
     1
 10
-63.64189448100091
 20
5.886784441299141
 11
-63.64189448100091
 21
6.435525641299122
 72
     1
 10
-63.64189448100091
 20
6.435525641299122
 11
-62.78825648100087
 21
6.435525641299122
 72
     1
 10
-62.78825648100087
 20
6.435525641299122
 11
-62.78825648100087
 21
5.886784441299141
 72
     2
 10
-62.72725648100085
 20
5.886784441299155
 40
0.0610000000000213
 50
180.0000000000133
 51
270.0000000000134
 73
     1
 72
     1
 10
-62.72725648100084
 20
5.825784441299134
 11
-61.69069148100089
 21
5.825784441299134
 72
     1
 10
-61.69069148100089
 20
5.825784441299134
 11
-61.69069148100089
 21
5.398965541299148
 72
     1
 10
-61.69069148100089
 20
5.398965541299148
 11
-62.72761450808928
 21
5.398965541299148
 72
     2
 10
-62.72728248100089
 20
5.337991441299136
 40
0.0609750039999905
 50
90.31199415523659
 51
180.3287979995417
 73
     1
 72
     1
 10
-62.78825648100087
 20
5.337641531594272
 11
-62.78825648100087
 21
4.727900331594298
 72
     2
 10
-62.72728248100087
 20
4.728250241299159
 40
0.0609750040000143
 50
180.3287979995382
 51
270.3119941552298
 73
     1
 72
     1
 10
-62.72695045391248
 20
4.667276141299126
 11
-61.69069148100089
 21
4.667276141299126
 72
     1
 10
-61.69069148100089
 20
4.667276141299126
 11
-61.69069148100089
 21
4.240457241299154
 72
     1
 10
-61.69069148100089
 20
4.240457241299154
 11
-62.46552950808933
 21
4.240457241299154
 72
     2
 10
-62.46519748100094
 20
4.179483141299145
 40
0.0609750039999869
 50
90.31199415523662
 51
204.5343249868246
 73
     1
 72
     1
 10
-62.52066721478428
 20
4.154163983595879
 11
-61.56870695644437
 21
1.862405541299139
 72
     1
 10
-61.56870695644437
 20
1.862405541299139
 11
-62.23946240602021
 21
1.862405541299139
 72
     1
 10
-62.23946240602021
 20
1.862405541299139
 11
-62.67018940675479
 21
3.011012709967502
 97
        1
330
C38E
 92
        1
 93
       43
 72
     2
 10
-59.41023548100087
 20
2.45829174129915
 40
0.0853650050000071
 50
179.2153395627239
 51
276.8671644776522
 73
     1
 72
     1
 10
-59.40002856816966
 20
2.373539142465205
 11
-58.21513648100091
 21
2.65565654130745
 72
     1
 10
-58.21513648100091
 20
2.65565654130745
 11
-58.21513648100091
 21
2.166874593013147
 72
     1
 10
-58.21513648100091
 20
2.166874593013147
 11
-59.97605424750162
 21
1.923989054180879
 72
     1
 10
-59.97605424750162
 20
1.923989054180879
 11
-61.20289848100089
 21
1.862646641298482
 72
     1
 10
-61.20289848100089
 20
1.862646641298482
 11
-61.20289848100089
 21
2.35019854129915
 72
     1
 10
-61.20289848100089
 20
2.35019854129915
 11
-60.41026148100087
 21
2.35019854129915
 72
     2
 10
-60.41026148100089
 20
2.411198541299143
 40
0.0609999999999928
 50
270.0000000000134
 51
360.0000000000134
 73
     1
 72
     1
 10
-60.34926148100089
 20
2.411198541299157
 11
-60.34926148100089
 21
4.179833051003981
 72
     2
 10
-60.41023548100088
 20
4.179483141299142
 40
0.0609750039999928
 50
0.328797999518302
 51
89.6880058447634
 73
     1
 72
     1
 10
-60.40990345391247
 20
4.240457241299154
 11
-61.20289848100089
 21
4.240457241299154
 72
     1
 10
-61.20289848100089
 20
4.240457241299154
 11
-61.20289848100089
 21
4.667276141299126
 72
     1
 10
-61.20289848100089
 20
4.667276141299126
 11
-58.47201198712764
 21
4.667276141299126
 72
     2
 10
-58.47201198712763
 20
4.789276141299129
 40
0.1220000000000034
 50
269.9999999999934
 51
374.2369765495947
 73
     1
 72
     1
 10
-58.35375899315687
 20
4.819279964671366
 11
-58.48916922335632
 21
5.352967452985268
 72
     2
 10
-58.54829572034169
 20
5.33796554129916
 40
0.0609999999999908
 50
14.23697654958662
 51
89.99999999998665
 73
     1
 72
     1
 10
-58.54829572034168
 20
5.398965541299148
 11
-61.20289848100089
 21
5.398965541299148
 72
     1
 10
-61.20289848100089
 20
5.398965541299148
 11
-61.20289848100089
 21
5.825784441299134
 72
     1
 10
-61.20289848100089
 20
5.825784441299134
 11
-58.76596001972183
 21
5.825784441299134
 72
     2
 10
-58.76596001972184
 20
5.947784441299132
 40
0.1219999999999981
 50
270.0000000000033
 51
374.2372718659893
 73
     1
 72
     1
 10
-58.64770718039967
 20
5.977788874175686
 11
-58.76384927206533
 21
6.435525641299122
 72
     1
 10
-58.76384927206533
 20
6.435525641299122
 11
-57.91020861058473
 21
6.435525641299122
 72
     1
 10
-57.91020861058473
 20
6.435525641299122
 11
-57.76716777773612
 21
5.871782075988221
 72
     2
 10
-57.70804139584885
 20
5.886784441299148
 40
0.0610000000000125
 50
194.2374161293682
 51
270.0
 73
     1
 72
     1
 10
-57.70804139584885
 20
5.825784441299134
 11
-57.23957148100095
 21
5.825784441299134
 72
     2
 10
-57.23957148100095
 20
5.947784441299148
 40
0.1220000000000141
 50
270.0
 51
360.0
 73
     1
 72
     1
 10
-57.11757148100094
 20
5.947784441299148
 11
-57.11757148100094
 21
6.435525641299122
 72
     1
 10
-57.11757148100094
 20
6.435525641299122
 11
-56.32490848100087
 21
6.435525641299122
 72
     1
 10
-56.32490848100087
 20
6.435525641299122
 11
-56.32490848100087
 21
5.835573103868767
 72
     2
 10
-56.75953948100088
 20
5.830423141299112
 40
0.4346615099999902
 50
359.3211314615436
 51
443.0390370806019
 73
     0
 72
     1
 10
-56.7068615190268
 20
5.398965541299148
 11
-57.56853345391249
 21
5.398965541299148
 72
     2
 10
-57.56886548100087
 20
5.337991441299133
 40
0.0609750039999931
 50
89.68800584477678
 51
192.0839376141646
 73
     1
 72
     1
 10
-57.62848939861356
 20
5.325226663145386
 11
-56.8853024185089
 21
2.396196312671946
 72
     2
 10
-56.82617600194053
 20
2.41119854129914
 40
0.0609999999999902
 50
194.2372836775217
 51
269.99999999998
 73
     1
 72
     1
 10
-56.82617600194055
 20
2.35019854129915
 11
-56.32490848100087
 21
2.35019854129915
 72
     1
 10
-56.32490848100087
 20
2.35019854129915
 11
-56.32490848100087
 21
1.862313411481466
 72
     1
 10
-56.32490848100087
 20
1.862313411481466
 11
-57.3029635753897
 21
1.908396245450404
 72
     2
 10
-57.28286699320412
 20
2.334923064518642
 40
0.4270000000000124
 50
92.69759919784574
 51
165.7627204339681
 73
     0
 72
     1
 10
-57.6967519167186
 20
2.22990749382825
 11
-58.19522029465185
 21
4.194459465683493
 72
     2
 10
-58.25434671229679
 20
4.179457241299129
 40
0.061000000000022
 50
14.23727956604894
 51
90.00000000002
 73
     1
 72
     1
 10
-58.25434671229681
 20
4.240457241299154
 11
-59.43495050808934
 21
4.240457241299154
 72
     2
 10
-59.43461848100095
 20
4.179483141299142
 40
0.0609750039999905
 50
90.31199415523659
 51
179.6712020004817
 73
     1
 72
     1
 10
-59.49559248100093
 20
4.179833051003981
 11
-59.49559248100093
 21
2.459460770658239
 97
        1
330
C388
 92
        1
 93
       18
 72
     1
 10
-52.87093633831881
 20
3.325845441299151
 11
-51.75916059699716
 21
3.325845441299151
 72
     1
 10
-51.75916059699716
 20
3.325845441299151
 11
-51.20585795859813
 21
2.313705249298507
 72
     2
 10
-51.47347969807253
 20
2.167405541299147
 40
0.3050000000000091
 50
331.3360719409863
 51
450.0
 73
     0
 72
     1
 10
-51.47347969807253
 20
1.862405541299139
 11
-55.4447130530363
 21
1.862405541299139
 72
     2
 10
-55.44471305303631
 20
2.167405541299146
 40
0.3050000000000068
 50
89.99999999999868
 51
208.663997012829
 73
     0
 72
     1
 10
-55.71233461644306
 20
2.313705571373432
 11
-55.07504248299546
 21
3.479481935284297
 72
     2
 10
-55.12856679567678
 20
3.508741941299168
 40
0.0609999999999886
 50
331.3360029871494
 51
449.99999999998
 73
     1
 72
     1
 10
-55.12856679567676
 20
3.569741941299156
 11
-55.9590634810009
 21
3.569741941299156
 72
     1
 10
-55.9590634810009
 20
3.569741941299156
 11
-55.9590634810009
 21
4.057534941299138
 72
     1
 10
-55.9590634810009
 20
4.057534941299138
 11
-50.95909348100088
 21
4.057534941299138
 72
     1
 10
-50.95909348100088
 20
4.057534941299138
 11
-50.95909348100088
 21
3.569741941299156
 72
     1
 10
-50.95909348100088
 20
3.569741941299156
 11
-53.87771688642391
 21
3.569741941299156
 72
     2
 10
-53.87771688642389
 20
3.508741941299169
 40
0.0609999999999871
 50
90.00000000002
 51
151.335938873511
 73
     1
 72
     1
 10
-53.9312411663634
 20
3.53800200720741
 11
-54.53123414632449
 21
2.440458607207418
 72
     2
 10
-54.47770986638495
 20
2.411198541299161
 40
0.0610000000000124
 50
151.3359388735077
 51
270.0000000000134
 73
     1
 72
     1
 10
-54.47770986638494
 20
2.35019854129915
 11
-52.44044865694786
 21
2.35019854129915
 72
     2
 10
-52.44044865694788
 20
2.411198541299147
 40
0.0609999999999977
 50
270.0000000000134
 51
388.6639816236973
 73
     1
 72
     1
 10
-52.38692433640756
 20
2.440458532937853
 11
-52.87093633831881
 21
3.325845441299151
 97
        1
330
C391
 92
        1
 93
       12
 72
     1
 10
-55.34929148100093
 20
4.423379641299163
 11
-55.34929148100093
 21
4.698244640018955
 72
     2
 10
-55.41029148100093
 20
4.698244640018972
 40
0.0609999999999928
 50
359.9999999999842
 51
455.4360694590207
 73
     1
 72
     1
 10
-55.4160703179266
 20
4.75897029393711
 11
-55.95854716663592
 21
4.707346555988095
 72
     1
 10
-55.95854716663592
 20
4.707346555988095
 11
-54.87947905250138
 21
6.29420998446335
 72
     2
 10
-54.62214948100092
 20
6.130716041299132
 40
0.3048750199999937
 50
212.4297726273445
 51
268.8130299920873
 73
     0
 72
     1
 10
-54.62846498318532
 20
6.435525641299122
 11
-52.30232298318532
 21
6.435525641299122
 72
     2
 10
-52.29600748100089
 20
6.130716041299111
 40
0.3048750200000128
 50
268.8130299920847
 51
323.9431965978807
 73
     0
 72
     1
 10
-52.0495361909027
 20
6.310161523207511
 11
-50.95974050063467
 21
4.707520282198061
 72
     1
 10
-50.95974050063467
 20
4.707520282198061
 11
-51.50208659474504
 21
4.759132021705653
 72
     2
 10
-51.50786548100088
 20
4.698406372481915
 40
0.0610000000000193
 50
84.56388399705218
 51
180.0000000000033
 73
     1
 72
     1
 10
-51.56886548100089
 20
4.698406372481912
 11
-51.56886548100089
 21
4.423379641299163
 72
     1
 10
-51.56886548100089
 20
4.423379641299163
 11
-55.34929148100093
 21
4.423379641299163
 97
        1
330
C393
 92
        1
 93
       23
 72
     1
 10
-49.86155948100088
 20
1.862405541299139
 11
-49.86155948100088
 21
3.077863598466819
 72
     2
 10
-49.92255948100087
 20
3.077863598466838
 40
0.0609999999999857
 50
359.9999999999829
 51
454.0856260770403
 73
     1
 72
     1
 10
-49.9269055609231
 20
3.138708578451286
 11
-50.71478207094611
 21
3.082431556381408
 72
     1
 10
-50.71478207094611
 20
3.082431556381408
 11
-49.35559875564741
 21
5.121206529329384
 72
     2
 10
-49.40635382360203
 20
5.15504324129912
 40
0.0610000000000124
 50
326.3099324740318
 51
450.0000000000134
 73
     1
 72
     1
 10
-49.40635382360205
 20
5.216043241299132
 11
-50.5932494810009
 21
5.216043241299132
 72
     1
 10
-50.5932494810009
 20
5.216043241299132
 11
-50.5932494810009
 21
5.642862041299153
 72
     1
 10
-50.5932494810009
 20
5.642862041299153
 11
-49.92286550809757
 21
5.642862041299153
 72
     2
 10
-49.92253348100085
 20
5.703836141299116
 40
0.060975003999987
 50
269.6880058369449
 51
359.6712020004875
 73
     1
 72
     1
 10
-49.86155948100088
 20
5.703486231594283
 11
-49.86155948100088
 21
6.496560841299114
 72
     1
 10
-49.86155948100088
 20
6.496560841299114
 11
-49.00789148100091
 21
6.496560841299114
 72
     1
 10
-49.00789148100091
 20
6.496560841299114
 11
-49.00789148100091
 21
5.704186051003986
 72
     2
 10
-48.9469174810009
 20
5.703836141299147
 40
0.0609750040000213
 50
179.6712020004818
 51
269.6880058369384
 73
     1
 72
     1
 10
-48.94724950809763
 20
5.642862041299153
 11
-48.69823432828718
 21
5.642862041299153
 72
     2
 10
-48.69823432828717
 20
5.337862041299146
 40
0.3050000000000068
 50
269.9999999999987
 51
393.690355750094
 73
     0
 72
     1
 10
-48.44445983958843
 20
5.168677204845948
 11
-48.72354084329003
 21
4.750060261952882
 72
     2
 10
-48.67512748100091
 20
4.712991441299108
 40
0.0609750039999971
 50
142.5596824517575
 51
204.6828840265598
 73
     1
 72
     1
 10
-48.73053137976512
 20
4.687528544477956
 11
-47.97097340284989
 21
3.325563008176146
 72
     1
 10
-47.97097340284989
 20
3.325563008176146
 11
-48.77287533117197
 21
3.386532052496306
 72
     1
 10
-48.77287533117197
 20
3.386532052496306
 11
-48.89361620086919
 21
3.603034357753827
 72
     2
 10
-48.94689148100086
 20
3.573323340825796
 40
0.0610000000000481
 50
29.14791024784397
 51
180.000000000015
 73
     1
 72
     1
 10
-49.00789148100091
 20
3.57332334082578
 11
-49.00789148100091
 21
1.862405541299139
 72
     1
 10
-49.00789148100091
 20
1.862405541299139
 11
-49.86155948100088
 21
1.862405541299139
 97
        1
330
C390
 92
        1
 93
       22
 72
     1
 10
-48.39815048100092
 20
1.862405541299139
 11
-48.39815048100092
 21
2.35019854129915
 72
     1
 10
-48.39815048100092
 20
2.35019854129915
 11
-47.42259048100089
 21
2.35019854129915
 72
     2
 10
-47.4225904810009
 20
2.411198541299143
 40
0.0609999999999928
 50
270.0000000000134
 51
360.0000000000134
 73
     1
 72
     1
 10
-47.36159048100091
 20
2.411198541299157
 11
-47.36159048100091
 21
4.727900331594298
 72
     2
 10
-47.42256448100088
 20
4.728250241299157
 40
0.0609750039999858
 50
359.6712020004633
 51
449.6880058369182
 73
     1
 72
     1
 10
-47.42223245390414
 20
4.789224341299117
 11
-48.09327948100087
 21
4.789224341299117
 72
     1
 10
-48.09327948100087
 20
4.789224341299117
 11
-48.09327948100087
 21
5.216043241299132
 72
     1
 10
-48.09327948100087
 20
5.216043241299132
 11
-47.42289650809346
 21
5.216043241299132
 72
     2
 10
-47.42256448100089
 20
5.277017341299126
 40
0.0609750039999954
 50
269.6880058408508
 51
359.6712020004717
 73
     1
 72
     1
 10
-47.36159048100091
 20
5.276667431594276
 11
-47.36159048100091
 21
6.496560841299114
 72
     1
 10
-47.36159048100091
 20
6.496560841299114
 11
-46.50792148100089
 21
6.496560841299114
 72
     1
 10
-46.50792148100089
 20
6.496560841299114
 11
-46.50792148100089
 21
5.27736725100398
 72
     2
 10
-46.4469474810009
 20
5.277017341299132
 40
0.060975004
 50
179.6712020004742
 51
269.6880058408575
 73
     1
 72
     1
 10
-46.44727950809346
 20
5.216043241299132
 11
-45.77623248100088
 21
5.216043241299132
 72
     1
 10
-45.77623248100088
 20
5.216043241299132
 11
-45.77623248100088
 21
4.789224341299117
 72
     1
 10
-45.77623248100088
 20
4.789224341299117
 11
-46.44661545390414
 21
4.789224341299117
 72
     2
 10
-46.44694748100089
 20
4.728250241299134
 40
0.0609750040000076
 50
89.68800583691161
 51
179.671202000455
 73
     1
 72
     1
 10
-46.50792148100089
 20
4.728600151004002
 11
-46.50792148100089
 21
2.411198541299157
 72
     2
 10
-46.44692148100086
 20
2.411198541299171
 40
0.0610000000000213
 50
180.0000000000133
 51
270.0000000000134
 73
     1
 72
     1
 10
-46.44692148100086
 20
2.35019854129915
 11
-45.47136148100088
 21
2.35019854129915
 72
     1
 10
-45.47136148100088
 20
2.35019854129915
 11
-45.47136148100088
 21
1.862405541299139
 72
     1
 10
-45.47136148100088
 20
1.862405541299139
 11
-48.39815048100092
 21
1.862405541299139
 97
        1
330
C38F
 75
     0
 76
     1
 98
        1
 10
-11.52273983372674
 20
-102.7401946664322
  0
LWPOLYLINE
  5
C38A
330
C348
100
AcDbEntity
  8
hyomoji
  6
Continuous
100
AcDbPolyline
 90
       23
 70
   129
 43
0.0
 10
-69.02549148100087
 20
3.481681241299313
 42
-0.0225609849999951
 10
-69.1929884810009
 20
3.179197441299393
 42
-0.0225609850000035
 10
-69.42396348100095
 20
2.884355641299222
 42
-0.022560985000006
 10
-69.7165374810009
 20
2.599554441299304
 42
-0.0225609849999973
 10
-70.06833048100083
 20
2.327111041299346
 42
-0.0225609849999909
 10
-70.47647948100081
 20
2.069241941299353
 42
-0.0225466705714752
 10
-70.93736526962032
 20
1.828184631690092
 42
-0.6820149919169938
 10
-70.98728762316278
 20
1.875661006442541
 10
-70.60231611425542
 20
2.821335765231808
 42
0.1957433897416816
 10
-70.6023149132937
 20
3.465320599991443
 10
-71.22432893634459
 20
4.9933018405858
 42
-0.1957432007478236
 10
-71.22432796981951
 20
5.637286099455778
 10
-70.92955566189942
 20
6.361389847202886
 42
-0.4317106519725617
 10
-70.87932716666506
 20
6.3808204952782
 42
-0.0225711483270752
 10
-70.4241634810009
 20
6.137397141299331
 42
-0.0225609850000041
 10
-70.02267048100083
 20
5.877648941299256
 42
-0.022560984999992
 10
-69.67790648100089
 20
5.603589041299315
 42
-0.0225609849999975
 10
-69.39267448100088
 20
5.317446941299337
 42
-0.0225609850000032
 10
-69.16929648100079
 20
5.021550641299327
 42
-0.0225609849999971
 10
-69.00958948100083
 20
4.718307541299381
 42
-0.0225609850000056
 10
-68.91485148100082
 20
4.410184641299267
 42
-0.0225609849999966
 10
-68.88585548100081
 20
4.099688741299317
 42
-0.0225609849999982
 10
-68.92283548100085
 20
3.78934604129931
 42
-0.0225609850000013
  0
LWPOLYLINE
  5
C38B
330
C348
100
AcDbEntity
  8
hyomoji
  6
Continuous
100
AcDbPolyline
 90
       46
 70
   129
 43
0.0
 10
-79.56412348100087
 20
0.8508083412993272
 42
0.0067740668000082
 10
-79.35478248100071
 20
0.8224438412992896
 42
0.0067740667999966
 10
-79.14370848100083
 20
0.7964991412993499
 42
0.00677406679999
 10
-78.93105748100106
 20
0.7729933412993404
 42
0.0067740668000013
 10
-78.71698548100102
 20
0.7519435412993545
 42
0.0067740668000002
 10
-78.50164948100104
 20
0.7333653412993471
 42
0.0067636405007582
 10
-78.28554092211977
 20
0.7172925024907642
 42
0.3216815158956166
 10
-78.24902671059788
 20
0.7402739243398884
 10
-77.22531974689275
 20
3.25501927152429
 42
0.6036079430413216
 10
-77.26747857872481
 20
3.305118758429657
 42
-0.0968770041122301
 10
-79.15975753181135
 20
3.263995477395141
 42
-0.4787358622778684
 10
-80.08160692178178
 20
4.926098408027442
 10
-79.07736483811101
 20
7.393042176692503
 42
0.5685357036715337
 10
-79.11571288575107
 20
7.443767025967261
 42
0.0037682570573848
 10
-79.23345348100088
 20
7.429809241299366
 42
0.003796761400007
 10
-79.35156848100104
 20
7.414988941299313
 42
0.0037967614000019
 10
-79.46914148100081
 20
7.399408441299343
 42
0.0037967614000093
 10
-79.58614348100098
 20
7.383071141299367
 42
0.0037967613999978
 10
-79.70254748100092
 20
7.365980841299304
 42
0.0037967614000032
 10
-79.81832748100072
 20
7.348141641299335
 42
0.0037967614000015
 10
-79.93345648100097
 20
7.329557541299337
 42
0.0037967613999987
 10
-80.04790848100077
 20
7.310232841299367
 42
0.0037967613999957
 10
-80.16165548100099
 20
7.2901720412993
 42
0.0037967613999885
 10
-80.27467248100066
 20
7.269379741299403
 42
0.0037967613999968
 10
-80.38693348100077
 20
7.247860641299368
 42
0.003796761399993
 10
-80.49841148100069
 20
7.225619841299348
 42
0.0037967614000086
 10
-80.60908248100094
 20
7.202662441299324
 42
0.0037967614000003
 10
-80.71891948100091
 20
7.178993641299328
 42
0.0037967613999995
 10
-80.82789748100067
 20
7.154619041299369
 42
0.0038055234898925
 10
-80.93624149281783
 20
7.129484377005226
 42
0.2417074229057139
 10
-80.96187522459041
 20
7.107456547699953
 10
-81.67679310057867
 20
5.351238007852643
 42
0.1957404060663561
 10
-81.67679324222644
 20
4.707262264772097
 10
-81.05481874049798
 20
3.179360160222003
 42
-0.1957405476044069
 10
-81.05481905771336
 20
2.535383985854409
 10
-81.55302151669195
 20
1.311535683439686
 42
0.4443455524912625
 10
-81.52914870534289
 20
1.262076041420399
 42
0.0067708198256604
 10
-81.34540348100102
 20
1.210969441299326
 42
0.0067740668000073
 10
-81.15837748100096
 20
1.161971541299365
 42
0.0067740668000071
 10
-80.96829548100094
 20
1.115144241299375
 42
0.0067740668000066
 10
-80.7752964810008
 20
1.07052184129931
 42
0.0067740667999989
 10
-80.57952248100088
 20
1.028137041299359
 42
0.0067740668000009
 10
-80.3811174810009
 20
0.9880210412993477
 42
0.0067740668000062
 10
-80.18022648100094
 20
0.9502032412993202
 42
0.0067740668000053
 10
-79.97699748100075
 20
0.9147114412993033
 42
0.0067740668000071
 10
-79.77157948100085
 20
0.8815717412993393
 42
0.0067740668000022
  0
LWPOLYLINE
  5
C38C
330
C348
100
AcDbEntity
  8
hyomoji
  6
Continuous
100
AcDbPolyline
 90
       42
 70
   129
 43
0.0
 10
-74.08759948100095
 20
0.9024973412992807
 42
0.0068021948000069
 10
-73.88272248100071
 20
0.9372933412993944
 42
0.0068021948000014
 10
-73.68014948100079
 20
0.9744441412993438
 42
0.0068021947999925
 10
-73.480030481001
 20
1.013922341299277
 42
0.0068021948000045
 10
-73.28251348100071
 20
1.055698741299337
 42
0.0067876847517197
 10
-73.08815863735458
 20
1.099642758789329
 42
0.2416094440683337
 10
-73.06253822552235
 20
1.121667385795305
 10
-72.37377681836176
 20
2.813631322146548
 42
0.1957413290603471
 10
-72.37377779121271
 20
3.473445415974751
 10
-72.99251550271089
 20
4.993381119125459
 42
-0.1957413474957244
 10
-72.99251642934581
 20
5.637359730877037
 10
-72.46499287740249
 20
6.933237569940857
 42
0.4460668776922764
 10
-72.48906992686062
 20
6.982756357906666
 42
0.0028283786038634
 10
-72.5656354810007
 20
7.004228641299292
 42
0.0028494113000101
 10
-72.6433444810009
 20
7.025489041299366
 42
0.0028494112999968
 10
-72.72161948100091
 20
7.046371841299347
 42
0.0028494113000006
 10
-72.80044948100083
 20
7.066874241299316
 42
0.0028494113000024
 10
-72.87982448100109
 20
7.086993641299372
 42
0.002849411299989
 10
-72.95973348100097
 20
7.106727441299355
 42
0.0028494113000037
 10
-73.0401674810011
 20
7.126073041299392
 42
0.0028494112999894
 10
-73.12111448100086
 20
7.145027941299318
 42
0.0028494113000082
 10
-73.20256548100087
 20
7.163589641299338
 42
0.0028494112999955
 10
-73.28450848100072
 20
7.181755841299306
 42
0.0028494113000056
 10
-73.36693448100089
 20
7.199524041299369
 42
0.0028494113000083
 10
-73.44983148100101
 20
7.216892141299339
 42
0.0028494112999919
 10
-73.53318848100087
 20
7.233857641299337
 42
0.0028494112999998
 10
-73.61699548100091
 20
7.250418441299316
 42
0.0028494113000083
 10
-73.70124148100098
 20
7.266572441299373
 42
0.0028485312981507
 10
-73.78588930331165
 20
7.282312727728893
 42
0.3543993923517316
 10
-73.82671550229469
 20
7.259848702368017
 10
-76.48399329063067
 20
0.7321936259631201
 42
0.5392714590992974
 10
-76.44895126845131
 20
0.6812513337253421
 42
0.0068019099602671
 10
-76.22904048100071
 20
0.6888387412992785
 42
0.0068021947999971
 10
-76.00968748100076
 20
0.6989650412993314
 42
0.0068021947999996
 10
-75.791064481001
 20
0.7116227412993084
 42
0.0068021948000011
 10
-75.57333248100093
 20
0.7268023412993188
 42
0.0068021947999982
 10
-75.35665348100105
 20
0.7444926412992885
 42
0.0068021948000014
 10
-75.14118848100094
 20
0.7646806412993357
 42
0.0068021947999974
 10
-74.92709448100089
 20
0.7873512412993052
 42
0.0068021948000009
 10
-74.71453248100101
 20
0.8124877412993072
 42
0.0068021948000053
 10
-74.50365948100079
 20
0.8400714412992869
 42
0.0068021947999869
 10
-74.29462948100109
 20
0.8700821412993064
 42
0.006802194800004
  0
LWPOLYLINE
  5
C38D
330
C348
100
AcDbEntity
  8
hyomoji
  6
Continuous
100
AcDbPolyline
 90
       23
 70
   129
 43
0.0
 10
-77.84193479851961
 20
3.915503817791787
 42
0.1173827961225227
 10
-76.91830940053188
 20
4.097361758078065
 42
0.1913082464585806
 10
-76.85596118473819
 20
4.162353364075002
 10
-75.53148293830719
 20
7.415968590147585
 42
0.5046897278906438
 10
-75.56250708888382
 20
7.466776330723277
 42
0.0053970181929799
 10
-75.73501248100109
 20
7.480090241299379
 42
0.0031368713999882
 10
-75.83551848100086
 20
7.486840141299367
 42
0.003136871399997
 10
-75.93621748100076
 20
7.493053841299357
 42
0.0031368714000045
 10
-76.03709148100091
 20
7.498730241299355
 42
0.0031368713999919
 10
-76.13812448100066
 20
7.503868641299348
 42
0.0031368714000049
 10
-76.23930248100101
 20
7.508468041299337
 42
0.0031368713999963
 10
-76.34060748100086
 20
7.512527741299365
 42
0.0031368714000025
 10
-76.4420244810006
 20
7.516047241299375
 42
0.0031368714000093
 10
-76.54353748100089
 20
7.519025841299381
 42
0.003136871400002
 10
-76.64513048100099
 20
7.521463141299378
 42
0.0031368714000044
 10
-76.74678848100092
 20
7.523358741299333
 42
0.0031368714000004
 10
-76.84849348100107
 20
7.524712341299348
 42
0.0031368713999985
 10
-76.95023048100068
 20
7.525523641299358
 42
0.0031368713999931
 10
-77.05198348100083
 20
7.525792741299355
 42
0.0031368713999985
 10
-77.15373648100063
 20
7.525519341299329
 42
0.0023783812883705
 10
-77.23087482131649
 20
7.525017965209812
 42
0.3019404427550624
 10
-77.26472766965793
 20
7.501970698744131
 10
-78.38295652935596
 20
4.755026023556396
 42
0.5200087835236676
  0
LWPOLYLINE
  5
C38E
102
{ACAD_REACTORS
330
C389
102
}
330
C348
100
AcDbEntity
  8
hyomoji
  6
Continuous
100
AcDbPolyline
 90
       70
 70
   128
 43
0.0
 10
-62.67018979441809
 20
3.011012564593983
 42
0.8374115646471505
 10
-62.78825648100087
 20
2.989252931594279
 10
-62.78825648100087
 20
1.862405541299139
 10
-63.64189448100091
 20
1.862405541299139
 10
-63.64189448100091
 20
2.97177701961047
 42
0.8134131176983945
 10
-63.75883575443237
 20
2.996099312406755
 10
-64.25174608969655
 20
1.862405541299139
 10
-64.86139895336487
 20
1.862405541299139
 10
-63.90864895294914
 20
4.156057205292952
 42
0.534832613937013
 10
-63.96498223187831
 20
4.240457241299154
 10
-64.72066345391249
 20
4.240457241299154
 42
0.5537200791098316
 10
-64.77599174539887
 20
4.153151373127101
 10
-64.43432036448945
 20
3.532893033066841
 10
-64.98318196062911
 20
3.569484639619815
 10
-65.06457835488749
 20
3.752614298647173
 42
0.810044809672172
 10
-65.2272514810009
 20
3.718090604178527
 10
-65.2272514810009
 20
1.862405541299139
 10
-66.01991548100091
 20
1.862405541299139
 10
-66.01991548100091
 20
3.180389201155023
 42
0.8775035382925871
 10
-66.09266612073515
 20
3.189922918089735
 10
-66.20279949565958
 20
2.77693198951394
 10
-66.69079791063558
 20
2.715931687446754
 10
-66.0423487498785
 20
4.897074248306211
 42
0.4860089347694501
 10
-66.10200350808923
 20
4.972146741299155
 10
-66.56871348100088
 20
4.972146741299155
 10
-66.56871348100088
 20
5.398965541299148
 10
-66.08057635616257
 20
5.398965541299148
 42
0.4143902720061034
 10
-66.01991548100091
 20
5.460289651003961
 10
-66.01991548100091
 20
6.435525641299122
 10
-65.2272514810009
 20
6.435525641299122
 10
-65.2272514810009
 20
5.460289651003961
 42
0.4174020605283751
 10
-65.16596435616259
 20
5.398965541299148
 10
-65.01326412084137
 20
5.398965541299148
 42
0.2351357873419996
 10
-64.81918554624172
 20
5.496881275683762
 10
-64.80043248100088
 20
5.520991826785888
 10
-64.80043248100088
 20
4.972146741299155
 10
-65.12440350808924
 20
4.972146741299155
 42
0.5903409348321763
 10
-65.17547876299079
 20
4.878381751234783
 10
-64.90594841597351
 20
4.389080222085937
 42
0.7474984379804729
 10
-64.86140748100092
 20
4.403395270373323
 10
-64.86140748100092
 20
4.667276141299126
 10
-63.7025364539125
 20
4.667276141299126
 42
0.4142994654112848
 10
-63.64189448100091
 20
4.728600151004002
 10
-63.64189448100091
 20
5.338341351003975
 42
0.4109416450539159
 10
-63.7025364539125
 20
5.398965541299148
 10
-64.28611254821658
 20
5.398965541299148
 42
-0.3758657869825331
 10
-64.86140748100092
 20
5.825895954227206
 10
-64.86140748100092
 20
6.435525641299122
 10
-64.06874348100086
 20
6.435525641299122
 10
-64.06874348100086
 20
5.886784441299141
 42
0.4142135623730951
 10
-64.00774348100083
 20
5.825784441299134
 10
-63.7028944810009
 20
5.825784441299134
 42
0.4142135623730951
 10
-63.64189448100091
 20
5.886784441299141
 10
-63.64189448100091
 20
6.435525641299122
 10
-62.78825648100087
 20
6.435525641299122
 10
-62.78825648100087
 20
5.886784441299141
 42
0.4142135623730951
 10
-62.72725648100084
 20
5.825784441299134
 10
-61.69069148100089
 20
5.825784441299134
 10
-61.69069148100089
 20
5.398965541299148
 10
-62.72761450808928
 20
5.398965541299148
 42
0.4142994654112848
 10
-62.78825648100087
 20
5.337641531594272
 10
-62.78825648100087
 20
4.727900331594298
 42
0.414127664552564
 10
-62.72695045391248
 20
4.667276141299126
 10
-61.69069148100089
 20
4.667276141299126
 10
-61.69069148100089
 20
4.240457241299154
 10
-62.46552950808933
 20
4.240457241299154
 42
0.5442124499672577
 10
-62.52066721478428
 20
4.154163983595879
 10
-61.56870695644437
 20
1.862405541299139
 10
-62.23946240602021
 20
1.862405541299139
 10
-62.67018940675479
 20
3.011012709967502
  0
LWPOLYLINE
  5
C38F
102
{ACAD_REACTORS
330
C389
102
}
330
C348
100
AcDbEntity
  8
hyomoji
  6
Continuous
100
AcDbPolyline
 90
       22
 70
   129
 43
0.0
 10
-48.39815048100092
 20
1.862405541299139
 10
-48.39815048100092
 20
2.35019854129915
 10
-47.42259048100089
 20
2.35019854129915
 42
0.4142135623730951
 10
-47.36159048100091
 20
2.411198541299157
 10
-47.36159048100091
 20
4.727900331594298
 42
0.4142994653711524
 10
-47.42223245390414
 20
4.789224341299117
 10
-48.09327948100087
 20
4.789224341299117
 10
-48.09327948100087
 20
5.216043241299132
 10
-47.42289650809346
 20
5.216043241299132
 42
0.4141276645726239
 10
-47.36159048100091
 20
5.276667431594276
 10
-47.36159048100091
 20
6.496560841299114
 10
-46.50792148100089
 20
6.496560841299114
 10
-46.50792148100089
 20
5.27736725100398
 42
0.4142994653912224
 10
-46.44727950809346
 20
5.216043241299132
 10
-45.77623248100088
 20
5.216043241299132
 10
-45.77623248100088
 20
4.789224341299117
 10
-46.44661545390414
 20
4.789224341299117
 42
0.4141276645926918
 10
-46.50792148100089
 20
4.728600151004002
 10
-46.50792148100089
 20
2.411198541299157
 42
0.4142135623730951
 10
-46.44692148100086
 20
2.35019854129915
 10
-45.47136148100088
 20
2.35019854129915
 10
-45.47136148100088
 20
1.862405541299139
  0
LWPOLYLINE
  5
C390
102
{ACAD_REACTORS
330
C389
102
}
330
C348
100
AcDbEntity
  8
hyomoji
  6
Continuous
100
AcDbPolyline
 90
       23
 70
   129
 43
0.0
 10
-49.86155948100088
 20
1.862405541299139
 10
-49.86155948100088
 20
3.077863598466819
 42
0.435256697587034
 10
-49.9269055609231
 20
3.138708578451286
 10
-50.71478207094611
 20
3.082431556381408
 10
-49.35559875564741
 20
5.121206529329384
 42
0.5990215383385383
 10
-49.40635382360205
 20
5.216043241299132
 10
-50.5932494810009
 20
5.216043241299132
 10
-50.5932494810009
 20
5.642862041299153
 10
-49.92286550809757
 20
5.642862041299153
 42
0.4141276645926778
 10
-49.86155948100088
 20
5.703486231594283
 10
-49.86155948100088
 20
6.496560841299114
 10
-49.00789148100091
 20
6.496560841299114
 10
-49.00789148100091
 20
5.704186051003986
 42
0.4142994653711661
 10
-48.94724950809763
 20
5.642862041299153
 10
-48.69823432828718
 20
5.642862041299153
 42
-0.5990232472207202
 10
-48.44445983958843
 20
5.168677204845948
 10
-48.72354084329003
 20
4.750060261952882
 42
0.2779035425008352
 10
-48.73053137976512
 20
4.687528544477956
 10
-47.97097340284989
 20
3.325563008176146
 10
-48.77287533117197
 20
3.386532052496306
 10
-48.89361620086919
 20
3.603034357753827
 42
0.7732509487775636
 10
-49.00789148100091
 20
3.57332334082578
 10
-49.00789148100091
 20
1.862405541299139
  0
LWPOLYLINE
  5
C391
102
{ACAD_REACTORS
330
C389
102
}
330
C348
100
AcDbEntity
  8
hyomoji
  6
Continuous
100
AcDbPolyline
 90
       18
 70
   129
 43
0.0
 10
-52.87093633831881
 20
3.325845441299151
 10
-51.75916059699716
 20
3.325845441299151
 10
-51.20585795859813
 20
2.313705249298507
 42
-0.56960330458711
 10
-51.47347969807253
 20
1.862405541299139
 10
-55.4447130530363
 20
1.862405541299139
 42
-0.569603703070891
 10
-55.71233461644306
 20
2.313705571373432
 10
-55.07504248299546
 20
3.479481935284297
 42
0.569603703070901
 10
-55.12856679567676
 20
3.569741941299156
 10
-55.9590634810009
 20
3.569741941299156
 10
-55.9590634810009
 20
4.057534941299138
 10
-50.95909348100088
 20
4.057534941299138
 10
-50.95909348100088
 20
3.569741941299156
 10
-53.87771688642391
 20
3.569741941299156
 42
0.2742066828570859
 10
-53.9312411663634
 20
3.53800200720741
 10
-54.53123414632449
 20
2.440458607207418
 42
0.569604073583639
 10
-54.47770986638494
 20
2.35019854129915
 10
-52.44044865694786
 20
2.35019854129915
 42
0.5696036141370885
 10
-52.38692433640756
 20
2.440458532937853
  0
LWPOLYLINE
  5
C392
102
{ACAD_REACTORS
330
C389
102
}
330
C348
100
AcDbEntity
  8
hyomoji
  6
Continuous
100
AcDbPolyline
 90
        8
 70
   129
 43
0.0
 10
-54.74620849627121
 20
4.911172641299131
 42
-0.6021429256477856
 10
-54.79665095182571
 20
5.006473642416224
 10
-54.19290315928896
 20
5.894334643533326
 42
-0.2483280785897051
 10
-54.09201824818007
 20
5.94773264129914
 10
-52.82622506559921
 20
5.94773264129914
 42
-0.2483286500869998
 10
-52.72534000677615
 20
5.89433442630704
 10
-52.12159508384053
 20
5.006473533803074
 42
-0.6021421921708056
 10
-52.17203761325203
 20
4.911172641299131
  0
LWPOLYLINE
  5
C393
102
{ACAD_REACTORS
330
C389
102
}
330
C348
100
AcDbEntity
  8
hyomoji
  6
Continuous
100
AcDbPolyline
 90
       12
 70
   129
 43
0.0
 10
-55.34929148100093
 20
4.423379641299163
 10
-55.34929148100093
 20
4.698244640018955
 42
0.4422835312456968
 10
-55.4160703179266
 20
4.75897029393711
 10
-55.95854716663592
 20
4.707346555988095
 10
-54.87947905250138
 20
6.29420998446335
 42
-0.251104977230494
 10
-54.62846498318532
 20
6.435525641299122
 10
-52.30232298318532
 20
6.435525641299122
 42
-0.2453004937928962
 10
-52.0495361909027
 20
6.310161523207511
 10
-50.95974050063467
 20
4.707520282198061
 10
-51.50208659474504
 20
4.759132021705653
 42
0.4422837740584967
 10
-51.56886548100089
 20
4.698406372481912
 10
-51.56886548100089
 20
4.423379641299163
  0
LWPOLYLINE
  5
C394
102
{ACAD_REACTORS
330
C386
102
}
330
C348
100
AcDbEntity
  8
hyomoji
  6
Continuous
100
AcDbPolyline
 90
       24
 70
   129
 43
0.0
 10
-40.41062948100085
 20
1.374612541299129
 10
-44.31282348100092
 20
1.374612541299129
 10
-44.31282348100092
 20
2.35019854129915
 10
-41.32485848100083
 20
2.35019854129915
 42
0.4142135623730951
 10
-39.37385848100087
 20
4.301198541299157
 10
-39.37385848100087
 20
5.764871341299127
 10
-37.72866439050967
 20
5.764871341299127
 42
-0.0257155487687808
 10
-37.70361848100094
 20
5.763084241299154
 42
-0.024549926000034
 10
-37.67994148100092
 20
5.757815641299146
 42
-0.0245499260000084
 10
-37.65672248100088
 20
5.749091041299138
 42
-0.0245499259999808
 10
-37.63418548100094
 20
5.736994541299154
 42
-0.0245499260000123
 10
-37.61254748100089
 20
5.721642541299132
 42
-0.0245499259999841
 10
-37.59201648100094
 20
5.703182941299161
 42
-0.0245499259999858
 10
-37.57279148100094
 20
5.681793541299157
 42
-0.0245499260000007
 10
-37.55505548100092
 20
5.657680341299169
 42
-0.024549925999996
 10
-37.53898148100092
 20
5.631075641299162
 42
-0.02454992599999
 10
-37.52472348100094
 20
5.602235641299159
 42
-0.0245499260000124
 10
-37.51241948100091
 20
5.571438141299154
 42
-0.0245499259999989
 10
-37.50218648100088
 20
5.538979741299158
 42
-0.0245499259999953
 10
-37.49412348100094
 20
5.505173041299158
 42
-0.0245499260000016
 10
-37.4883094810009
 20
5.47034374129916
 42
-0.0245499260000116
 10
-37.48479948100089
 20
5.434827241299132
 42
-0.024673292203941
 10
-37.48362948100089
 20
5.398785261261593
 10
-37.48362948100089
 20
4.301612541299135
 42
-0.4142135623730951
  0
LWPOLYLINE
  5
C395
102
{ACAD_REACTORS
330
C386
102
}
330
C348
100
AcDbEntity
  8
hyomoji
  6
Continuous
100
AcDbPolyline
 90
       21
 70
   128
 43
0.0
 10
-40.16652148100092
 20
7.106307141299126
 42
-0.0246113600000175
 10
-40.13057148100091
 20
7.105222841299152
 42
-0.0246113599999931
 10
-40.09496848100087
 20
7.101788141299124
 42
-0.0246113599999957
 10
-40.0600584810009
 20
7.096036341299111
 42
-0.0246113600000006
 10
-40.02617848100089
 20
7.088022941299115
 42
-0.0246113599999799
 10
-39.99365748100093
 20
7.077825641299128
 42
-0.0246113600000132
 10
-39.96281048100087
 20
7.065543141299144
 42
-0.0246113600000103
 10
-39.93393448100091
 20
7.051294341299112
 42
-0.0246113599999903
 10
-39.90730948100088
 20
7.035217041299134
 42
-0.02461135999999
 10
-39.88319448100089
 20
7.017467041299141
 42
-0.0246113599999982
 10
-39.8618214810009
 20
6.998216141299153
 42
-0.0246113600000129
 10
-39.84339848100092
 20
6.977650541299112
 42
-0.024611360000001
 10
-39.82810248100089
 20
6.955969441299117
 42
-0.0246113599999927
 10
-39.81608348100093
 20
6.933382541299138
 42
-0.0246113599999869
 10
-39.80745548100088
 20
6.91010874129914
 42
-0.024611360000012
 10
-39.80230348100088
 20
6.886373141299131
 42
-0.0246113600013111
 10
-39.80067748100089
 20
6.86240554129786
 10
-39.80067748100089
 20
6.069680941299168
 10
-44.31282348100092
 20
6.069680941299168
 10
-44.31282348100092
 20
7.106302041299144
 10
-40.16652148100092
 20
7.106302041299144
  0
LWPOLYLINE
  5
C396
102
{ACAD_REACTORS
330
C386
102
}
330
C348
100
AcDbEntity
  8
hyomoji
  6
Continuous
100
AcDbPolyline
 90
        4
 70
   129
 43
0.0
 10
-44.31282348100092
 20
4.301431441299115
 10
-44.31282348100092
 20
5.337991441299124
 10
-39.80067748100089
 20
5.337991441299124
 10
-39.80067748100089
 20
4.301431441299115
  0
HATCH
  5
C397
330
C348
100
AcDbEntity
  8
hyomoji
  6
Continuous
100
AcDbHatch
 10
0.0
 20
0.0
 30
0.0
210
0.0
220
0.0
230
1.0
  2
SOLID
 70
     1
 71
     0
 91
        1
 92
        7
 72
     1
 73
     1
 93
       20
 10
-39.80067748100089
 20
6.862405541297817
 42
0.0246113600013108
 10
-39.80230348100088
 20
6.886373141299088
 42
0.0246113600000699
 10
-39.80745548100088
 20
6.910108741299154
 42
0.0246113599998168
 10
-39.81608348100082
 20
6.933382541298996
 42
0.0246113600003525
 10
-39.828102481001
 20
6.955969441299302
 42
0.0246113599997321
 10
-39.84339848100086
 20
6.977650541299055
 42
0.0246113599993797
 10
-39.86182148100033
 20
6.998216141298598
 42
0.0246113599605993
 10
-39.88319448096462
 20
7.017467041269554
 42
0.024611360036966
 10
-39.90730948099935
 20
7.03521704129811
 42
0.0246113600006345
 10
-39.93393448099999
 20
7.051294341298614
 42
0.0246113600006277
 10
-39.9628104810007
 20
7.065543141299059
 42
0.0246113600001713
 10
-39.99365748100093
 20
7.077825641299128
 42
0.0246113599996734
 10
-40.02617848100044
 20
7.088022941299001
 42
0.024611360000408
 10
-40.06005848100102
 20
7.096036341299139
 42
0.0246113599998639
 10
-40.09496848100087
 20
7.10178814129911
 42
0.0246113600002751
 10
-40.13057148100125
 20
7.105222841299166
 42
0.0247910788806026
 10
-40.16678406641955
 20
7.106302041299144
 42
0.0
 10
-44.31282348100092
 20
7.106302041299159
 42
0.0
 10
-44.31282348100092
 20
6.069680941299168
 42
0.0
 10
-39.80067748100089
 20
6.069680941299168
 42
0.0
 97
        0
 75
     0
 76
     1
 47
0.0219243262339325
 98
        1
 10
-40.44075897886443
 20
6.537697711871857
  0
LWPOLYLINE
  5
C398
330
C348
100
AcDbEntity
  8
hyomoji
  6
Continuous
100
AcDbPolyline
 90
       44
 70
   128
 43
0.0
 10
-22.79570248100089
 20
2.472208645299133
 42
0.2129151059966407
 10
-22.84107167829768
 20
2.45197167082243
 42
-0.220358021742929
 10
-25.16667448100089
 20
1.374612541299129
 10
-28.9471304810009
 20
1.374612541299129
 10
-28.9471304810009
 20
2.35019854129915
 10
-26.14229048100089
 20
2.35019854129915
 42
0.0137554371945167
 10
-26.02831248100069
 20
2.353912941299157
 42
0.0137524419998822
 10
-25.91467748100166
 20
2.364968441299041
 42
0.0137524420004598
 10
-25.80173248099788
 20
2.383357241299719
 42
0.013752441999331
 10
-25.68981748100333
 20
2.409023541298481
 42
0.0137524420003075
 10
-25.57927048100083
 20
2.441889841299143
 42
0.0137524420000012
 10
-25.47042648100086
 20
2.481856641299131
 42
0.0137524419999966
 10
-25.36361548100086
 20
2.528803041299127
 42
0.0137524419999995
 10
-25.25915948100089
 20
2.582587141299143
 42
0.0137524420000046
 10
-25.15737548100083
 20
2.643046041299157
 42
0.0137524419999986
 10
-25.05857048100086
 20
2.709997041299132
 42
0.0137524419999979
 10
-24.96304348100085
 20
2.783237641299137
 42
0.0137524419999975
 10
-24.87108348100083
 20
2.862546141299162
 42
0.013752441999999
 10
-24.78296948100086
 20
2.947682641299152
 42
0.0137524419999975
 10
-24.69896648100087
 20
3.038389741299141
 42
0.0137524420000003
 10
-24.61932948100088
 20
3.134393041299148
 42
0.0138047286378086
 10
-24.54402492762563
 20
3.235793804276596
 42
0.4326750878113178
 10
-24.5803232616978
 20
3.409900718458288
 10
-25.38195389927228
 20
3.899787273978091
 42
0.1380038353994479
 10
-25.50918792204959
 20
3.935586641299153
 10
-26.99592848100087
 20
3.935586641299153
 10
-26.99592848100087
 20
4.826227931606169
 42
0.483124814362098
 10
-27.07042859230956
 20
4.886033668815599
 10
-27.5388829252729
 20
4.729882392874444
 42
-0.080611490271625
 10
-27.92468042540406
 20
4.667276141299126
 10
-29.1910274810009
 20
4.667276141299126
 10
-29.1910274810009
 20
5.642862041299153
 10
-28.60803106756714
 20
5.642862041299153
 42
0.2403459008079929
 10
-28.4104861288638
 20
5.743641940780094
 10
-27.49562285561598
 20
7.005522141818204
 42
-0.2403459008079905
 10
-27.29807791691263
 20
7.106302041299144
 10
-22.73096096047272
 20
7.106302041299144
 42
-0.4142866644357847
 10
-22.11793748100092
 20
6.499690141703638
 10
-22.11793748100092
 20
4.41440819597048
 42
-0.073920925025852
 10
-22.25237623922613
 20
3.527978312291438
 42
0.5098120014094599
 10
-22.19483850809758
 20
3.44779374129915
 10
-21.99598948100089
 20
3.44779374129915
 10
-21.99598948100089
 20
2.472146741299155
 10
-22.79570248100089
 20
2.472146741299155
  0
HATCH
  5
C399
330
C348
100
AcDbEntity
  8
hyomoji
  6
Continuous
100
AcDbHatch
 10
0.0
 20
0.0
 30
0.0
210
0.0
220
0.0
230
1.0
  2
SOLID
 70
     1
 71
     0
 91
        4
 92
        7
 72
     1
 73
     1
 93
       43
 10
-22.11793748100092
 20
6.499690141703794
 42
0.4111374742261061
 10
-22.72439800153092
 20
7.106302041299144
 42
0.0
 10
-27.29807791691263
 20
7.106302041299144
 42
0.2403459008079904
 10
-27.49562285561598
 20
7.005522141818204
 42
0.0
 10
-28.4104861288638
 20
5.743641940780108
 42
-0.2403459008080008
 10
-28.60803106756714
 20
5.642862041299153
 42
0.0
 10
-29.1910274810009
 20
5.642862041299153
 42
0.0
 10
-29.1910274810009
 20
4.66727614129914
 42
0.0
 10
-27.92468042540406
 20
4.667276141299126
 42
0.0806114902716036
 10
-27.53888292527296
 20
4.729882392874415
 42
0.0
 10
-27.08175505243935
 20
4.882258186176812
 42
-0.5451163426399201
 10
-26.99592848100087
 20
4.826227931606297
 42
0.0
 10
-26.99592848100087
 20
3.935586641299153
 42
0.0
 10
-25.50918792204959
 20
3.935586641299153
 42
-0.138003835399446
 10
-25.38195389927228
 20
3.899787273978091
 42
0.0
 10
-24.5803232616978
 20
3.409900718458288
 42
-0.4326750878113164
 10
-24.54402492762563
 20
3.235793804276596
 42
-0.0138047286378493
 10
-24.6193294810011
 20
3.134393041298849
 42
-0.0137524420014467
 10
-24.69896648100974
 20
3.038389741288995
 42
-0.0137524419982802
 10
-24.7829694809995
 20
2.947682641300545
 42
-0.0137524419997905
 10
-24.87108348099804
 20
2.862546141301734
 42
-0.0137524420004081
 10
-24.96304348100068
 20
2.783237641299251
 42
-0.0137524420000229
 10
-25.05857048100086
 20
2.709997041299104
 42
-0.0137524419998802
 10
-25.15737548100003
 20
2.643046041299683
 42
-0.0137524420001772
 10
-25.25915948100129
 20
2.582587141298901
 42
-0.0137524419999723
 10
-25.36361548100109
 20
2.528803041299013
 42
-0.0137524419999808
 10
-25.47042648100097
 20
2.481856641299074
 42
-0.0137524419999774
 10
-25.57927048100078
 20
2.441889841299172
 42
-0.0137524420001314
 10
-25.68981748100185
 20
2.409023541298878
 42
-0.0137524419994291
 10
-25.80173248099721
 20
2.383357241299862
 42
-0.0137524420005571
 10
-25.91467748100177
 20
2.364968441299026
 42
-0.0137524419998892
 10
-26.02831248100085
 20
2.353912941299142
 42
-0.0162900486309537
 10
-26.16330263573963
 20
2.35019854129915
 42
0.0
 10
-28.9471304810009
 20
2.35019854129915
 42
0.0
 10
-28.9471304810009
 20
1.374612541299143
 42
0.0
 10
-25.16680452813285
 20
1.374612541299129
 42
0.2200765101082553
 10
-22.84327469333408
 20
2.449375950176829
 42
-0.2394335662263612
 10
-22.79295559891625
 20
2.472146741299155
 42
0.0
 10
-21.99598948100089
 20
2.47214674129917
 42
0.0
 10
-21.99598948100089
 20
3.447793741299165
 42
0.0
 10
-22.19417445390275
 20
3.44779374129915
 42
-0.5132470832222941
 10
-22.25237623922618
 20
3.527978312291395
 42
0.0739209250258662
 10
-22.11793748100092
 20
4.414408195970608
 42
0.0
 97
        0
 92
       22
 72
     1
 73
     1
 93
       26
 10
-26.09950634785406
 20
6.022513887169438
 42
-0.2516647099568892
 10
-25.89552812083991
 20
6.130716041299123
 42
0.0
 10
-24.3143468411605
 20
6.130716041299123
 42
-0.4174725427475722
 10
-24.06914048100089
 20
5.885419205627925
 42
0.0
 10
-24.06914048100089
 20
4.789224341305725
 42
-0.0027675332005065
 10
-24.06926748100085
 20
4.762224941300786
 42
-0.0027675332004232
 10
-24.06964848100091
 20
4.73522884129666
 42
-0.0027675331991665
 10
-24.07028348100073
 20
4.708239341304789
 42
-0.0027675332011284
 10
-24.07117248100104
 20
4.681259741293786
 42
-0.0027675331987053
 10
-24.07231548100055
 20
4.654293341306399
 42
-0.0027675332009155
 10
-24.07371148100094
 20
4.627343541297477
 42
-0.0027675332009985
 10
-24.07536148100161
 20
4.600413541287778
 42
-0.0027675331989814
 10
-24.07726448100101
 20
4.573506741297677
 42
-0.0027675331994423
 10
-24.07942148100057
 20
4.546626241303101
 42
-0.0027675332005088
 10
-24.08183048100096
 20
4.519775641298153
 42
-0.0027675331980663
 10
-24.08449148099902
 20
4.492957941316888
 42
-0.0027675332031634
 10
-24.08740548100235
 20
4.466176641286267
 42
-0.0027675331997102
 10
-24.09057148100209
 20
4.439434841289084
 42
-0.0027675331989405
 10
-24.09398848100085
 20
4.412735941299317
 42
-0.0027675331998098
 10
-24.09765648100057
 20
4.386083141301142
 42
-0.002637305733349
 10
-24.10138351745263
 20
4.360730681618633
 42
-0.5743107685812884
 10
-24.19843215589316
 20
4.319786042922885
 42
0.0
 10
-25.10757501850236
 20
4.875373403082349
 42
0.1380035768931384
 10
-25.23480883001833
 20
4.911172641299131
 42
0.0
 10
-26.78554445391336
 20
4.911172641299131
 42
-0.6376639659024507
 10
-26.83273294813051
 20
5.011164975509998
 42
0.0
 97
        0
 92
        7
 72
     1
 73
     1
 93
       16
 10
-15.0448174810009
 20
6.748873848172564
 42
0.0309163692554858
 10
-15.0481645298272
 20
6.793927975883548
 42
0.0488070742210316
 10
-15.06231925804786
 20
6.863064660102409
 42
0.0484601911608653
 10
-15.08713727771453
 20
6.927104619488773
 42
0.0458520337274189
 10
-15.11960667549857
 20
6.981258304011376
 42
0.0419710568843188
 10
-15.15596848100063
 20
7.023648441298846
 42
0.0245951490011407
 10
-15.18002348100174
 20
7.045024941299828
 42
0.0245951490002321
 10
-15.20571948100206
 20
7.063457141299878
 42
0.0245951489982075
 10
-15.23280648100007
 20
7.078766841298758
 42
0.0245951490009266
 10
-15.26102348100113
 20
7.090806141299253
 42
0.0245951489995659
 10
-15.29009848100065
 20
7.099458641299079
 42
0.0245951490006515
 10
-15.3197484810014
 20
7.104640641299198
 42
0.0245951489987076
 10
-15.34968848099981
 20
7.106302041299144
 42
0.0
 10
-20.77647648100094
 20
7.106302041299144
 42
0.0
 10
-20.77647648100094
 20
6.069680941299154
 42
0.0
 10
-15.0448174810009
 20
6.069680941299154
 42
0.0
 97
        0
 92
        7
 72
     1
 73
     1
 93
       16
 10
-14.43507648100092
 20
2.480563253336782
 42
0.0308838912040585
 10
-14.43841708646312
 20
2.525570233433285
 42
0.0488395343566829
 10
-14.4525786036657
 20
2.594753617348615
 42
0.0485095197191555
 10
-14.47742598987509
 20
2.658855853719785
 42
0.0458606787790824
 10
-14.50991317401207
 20
2.713012694748158
 42
0.0419109682859432
 10
-14.54622648100121
 20
2.755337941299472
 42
0.0245951490000142
 10
-14.5702824810013
 20
2.776714341299438
 42
0.0245951490006883
 10
-14.59597748100208
 20
2.795146541299885
 42
0.0245951489991911
 10
-14.62306548100122
 20
2.810456341299286
 42
0.0245951489998262
 10
-14.65128248100103
 20
2.822495641299155
 42
0.0245951489996845
 10
-14.68035648100067
 20
2.831148041299073
 42
0.0245951489998894
 10
-14.71000748100056
 20
2.836330041299063
 42
0.0245951490034687
 10
-14.73994748100477
 20
2.837991441299124
 42
0.0
 10
-21.26426948100089
 20
2.837991441299124
 42
0.0
 10
-21.26426948100089
 20
1.496560841299142
 42
0.0
 10
-14.43507648100092
 20
1.496560841299157
 42
0.0
 97
        0
 75
     0
 76
     1
 47
0.0683084432309891
 98
        5
 10
-11.52273983372674
 20
-102.7401946664322
 10
-27.37847390351385
 20
5.738428971873815
 10
-27.37847390351385
 20
5.738428971873815
 10
-18.42237831150396
 20
6.48982244039422
 10
-18.2856441113986
 20
2.254698718094743
  0
LWPOLYLINE
  5
C39A
102
{ACAD_REACTORS
330
C386
102
}
330
C348
100
AcDbEntity
  8
hyomoji
  6
Continuous
100
AcDbPolyline
 90
        8
 70
   129
 43
0.0
 10
-31.0812034810009
 20
6.435525641299122
 42
-0.4142135623730951
 10
-31.20320348100091
 20
6.557525641299122
 10
-31.20320348100091
 20
7.350146741299155
 42
-0.4142135623730951
 10
-31.0812034810009
 20
7.472146741299155
 10
-30.28861348100094
 20
7.472146741299155
 42
-0.4142135623730951
 10
-30.16661348100092
 20
7.350146741299155
 10
-30.16661348100092
 20
6.557525641299122
 42
-0.4142135623730951
 10
-30.28861348100094
 20
6.435525641299122
  0
LWPOLYLINE
  5
C39B
102
{ACAD_REACTORS
330
C386
102
}
330
C348
100
AcDbEntity
  8
hyomoji
  6
Continuous
100
AcDbPolyline
 90
        8
 70
   129
 43
0.0
 10
-29.67876848100087
 20
6.435525641299122
 42
-0.4142135623730951
 10
-29.80076848100089
 20
6.557525641299122
 10
-29.80076848100089
 20
7.350146741299155
 42
-0.4142135623730951
 10
-29.67876848100087
 20
7.472146741299155
 10
-28.88617848100086
 20
7.472146741299155
 42
-0.4142135623730951
 10
-28.7641784810009
 20
7.350146741299155
 10
-28.7641784810009
 20
6.557525641299122
 42
-0.4142135623730951
 10
-28.88617848100086
 20
6.435525641299122
  0
LWPOLYLINE
  5
C39C
330
C348
100
AcDbEntity
  8
hyomoji
  6
Continuous
100
AcDbPolyline
 90
       26
 70
   129
 43
0.0
 10
-24.18857785518384
 20
4.313763969668542
 10
-25.10757501850236
 20
4.875373403082363
 42
0.1380035768931157
 10
-25.23480883001833
 20
4.911172641299131
 10
-26.78620850808926
 20
4.911172641299131
 42
-0.5877959702502288
 10
-26.83753010714549
 20
5.00454819217586
 10
-26.09950634785401
 20
6.022513887169537
 42
-0.2488102192010769
 10
-25.89814884116043
 20
6.130716041299123
 10
-24.31434684116045
 20
6.130716041299123
 42
-0.4141055155693935
 10
-24.06914048100089
 20
5.888219876970183
 10
-24.06914048100089
 20
4.789224341305953
 42
-0.0027675332005429
 10
-24.06926748100085
 20
4.762224941300658
 42
-0.0027675332004465
 10
-24.06964848100091
 20
4.735228841296304
 42
-0.0027675331990674
 10
-24.07028348100067
 20
4.7082393413054
 42
-0.0027675332013063
 10
-24.0711724810011
 20
4.681259741292663
 42
-0.0027675331985318
 10
-24.07231548100049
 20
4.654293341306967
 42
-0.0027675332011082
 10
-24.073711481001
 20
4.62734354129617
 42
-0.0027675332007225
 10
-24.07536148100155
 20
4.600413541289157
 42
-0.0027675331990705
 10
-24.07726448100095
 20
4.573506741298189
 42
-0.0027675331994759
 10
-24.07942148100051
 20
4.546626241303286
 42
-0.0027675332004882
 10
-24.08183048100091
 20
4.519775641298537
 42
-0.0027675331980648
 10
-24.08449148099896
 20
4.492957941317285
 42
-0.0027675332032427
 10
-24.08740548100235
 20
4.466176641285898
 42
-0.0027675331997779
 10
-24.09057148100226
 20
4.439434841288061
 42
-0.0027675331988507
 10
-24.09398848100091
 20
4.41273594129916
 42
-0.0027675331998305
 10
-24.09765648100063
 20
4.386083141300787
 42
-0.0029245593357009
 10
-24.10180560796943
 20
4.357971732380022
 42
-0.498504514683721
  0
LWPOLYLINE
  5
C39D
330
C348
100
AcDbEntity
  8
hyomoji
  6
Continuous
100
AcDbPolyline
 90
       21
 70
   128
 43
0.0
 10
-21.26426948100089
 20
2.837991441299124
 10
-14.74376200274577
 20
2.837991441299124
 42
-0.0277241649809473
 10
-14.7100074810009
 20
2.836330041299106
 42
-0.0245951490000116
 10
-14.68035648100084
 20
2.83114804129913
 42
-0.0245951489999535
 10
-14.65128248100092
 20
2.822495641299113
 42
-0.0245951490000357
 10
-14.62306548100088
 20
2.810456341299115
 42
-0.0245951489999617
 10
-14.59597748100089
 20
2.795146541299146
 42
-0.024595149000028
 10
-14.5702824810009
 20
2.776714341299111
 42
-0.0245951489999838
 10
-14.54622648100087
 20
2.755337941299131
 42
-0.0245951490000106
 10
-14.52404448100088
 20
2.731223841299112
 42
-0.0245951489999761
 10
-14.50394848100092
 20
2.704605241299148
 42
-0.0245951490000292
 10
-14.48613448100087
 20
2.675739441299114
 42
-0.0245951489999958
 10
-14.47077348100089
 20
2.644905441299115
 42
-0.0245951489999834
 10
-14.45801548100092
 20
2.612401541299121
 42
-0.0245951490000133
 10
-14.4479824810009
 20
2.578541641299111
 42
-0.0245951489999937
 10
-14.44077148100092
 20
2.543653241299111
 42
-0.0245951490001447
 10
-14.43645348100091
 20
2.508073641298906
 42
-0.0188381928052038
 10
-14.43507648100092
 20
2.480563253336754
 10
-14.43507648100092
 20
1.496560841299142
 10
-21.26426948100089
 20
1.496560841299142
 10
-21.26426948100089
 20
2.83805254129912
  0
LWPOLYLINE
  5
C39E
330
C348
100
AcDbEntity
  8
hyomoji
  6
Continuous
100
AcDbPolyline
 90
       21
 70
   128
 43
0.0
 10
-15.0448174810009
 20
6.740457241299154
 10
-15.0448174810009
 20
6.069680941299168
 10
-20.77647648100094
 20
6.069680941299168
 10
-20.77647648100094
 20
7.106302041299144
 10
-15.34968848100089
 20
7.106302041299144
 42
-0.0245951489999901
 10
-15.31974848100088
 20
7.104640641299141
 42
-0.0245951489999939
 10
-15.29009848100094
 20
7.09945864129915
 42
-0.0245951490000111
 10
-15.2610234810009
 20
7.090806141299168
 42
-0.0245951489999948
 10
-15.23280648100092
 20
7.078766841299156
 42
-0.0245951490000167
 10
-15.20571948100087
 20
7.063457141299139
 42
-0.0245951489999851
 10
-15.18002348100089
 20
7.045024941299161
 42
-0.0245951489999982
 10
-15.15596848100091
 20
7.023648441299144
 42
-0.0245951490000079
 10
-15.13378548100092
 20
6.999534341299153
 42
-0.0245951489999929
 10
-15.1136894810009
 20
6.972915741299175
 42
-0.0245951490000121
 10
-15.09587548100092
 20
6.944049941299141
 42
-0.0245951489999839
 10
-15.08051548100093
 20
6.913216041299165
 42
-0.0245951490000097
 10
-15.06775648100091
 20
6.880712041299162
 42
-0.0245951489999972
 10
-15.05772348100089
 20
6.84685224129916
 42
-0.0245951490000035
 10
-15.0505134810009
 20
6.81196384129916
 42
-0.0245951490000047
 10
-15.04619448100089
 20
6.776384241299155
 42
-0.024595148999995
 10
-15.04481048100086
 20
6.740457241299154
  0
ATTDEF
  5
C39F
330
C348
100
AcDbEntity
  8
hyomoji
100
AcDbText
 10
-179.5679686679717
 20
20.97162534221035
 30
0.0
 40
3.0
  1

 41
0.7
100
AcDbAttributeDefinition
  3
ファイル名
  2
ファイル名
 70
     0
  0
ATTDEF
  5
C3A0
330
C348
100
AcDbEntity
  8
hyomoji
100
AcDbText
 10
-112.2783231980861
 20
20.97162534221035
 30
0.0
 40
3.0
  1

 41
0.7
100
AcDbAttributeDefinition
  3
整理No
  2
000
 70
     0
  0
LINE
  5
C3A1
330
C348
100
AcDbEntity
  8
hyosen2
  6
Continuous
100
AcDbLine
 10
-61.00000000000005
 20
34.99999999999998
 30
0.0
 11
0.0
 21
34.99999999999998
 31
0.0
  0
TEXT
  5
C3A2
330
C348
100
AcDbEntity
  8
hyomoji
  6
Continuous
100
AcDbText
 10
-64.95386512971379
 20
30.43749999999978
 30
0.0
 40
3.5
  1
三
 41
0.7
100
AcDbText
  0
LINE
  5
C3A3
330
C348
100
AcDbEntity
  8
hyosen1
  6
Continuous
370
    40
100
AcDbLine
 10
-71.00000000000005
 20
39.99999999999998
 30
0.0
 11
-71.00000000000005
 21
19.99999999999999
 31
0.0
  0
LINE
  5
C3A4
330
C348
100
AcDbEntity
  8
hyosen2
  6
Continuous
100
AcDbLine
 10
-66.00000000000005
 20
39.99999999999998
 30
0.0
 11
-66.00000000000005
 21
19.99999999999999
 31
0.0
  0
LINE
  5
C3A5
330
C348
100
AcDbEntity
  8
hyosen1
  6
Continuous
370
    40
100
AcDbLine
 10
-61.00000000000005
 20
39.99999999999998
 30
0.0
 11
-61.00000000000005
 21
19.99999999999999
 31
0.0
  0
LINE
  5
C3A6
330
C348
100
AcDbEntity
  8
hyosen2
  6
Continuous
100
AcDbLine
 10
-46.00000000000005
 20
39.99999999999998
 30
0.0
 11
-46.00000000000005
 21
19.99999999999999
 31
0.0
  0
TEXT
  5
C3A7
330
C348
100
AcDbEntity
  8
hyomoji
  6
Continuous
100
AcDbText
 10
-64.95386512971379
 20
26.06249999999991
 30
0.0
 40
3.5
  1
角
 41
0.7
100
AcDbText
  0
TEXT
  5
C3A8
330
C348
100
AcDbEntity
  8
hyomoji
  6
Continuous
100
AcDbText
 10
-64.95386512970646
 20
21.68749999999998
 30
0.0
 40
3.5
  1
法
 41
0.7
100
AcDbText
  0
TEXT
  5
C3A9
330
C348
100
AcDbEntity
  8
hyomoji
  6
Continuous
100
AcDbText
 10
-70.23511512970998
 20
22.12499999999999
 30
0.0
 40
4.5
  1
法
 41
0.7
100
AcDbText
  0
TEXT
  5
C3AA
330
C348
100
AcDbEntity
  8
hyomoji
  6
Continuous
100
AcDbText
 10
-70.23511512970651
 20
27.75000000000001
 30
0.0
 40
4.5
  1
図
 41
0.7
100
AcDbText
  0
TEXT
  5
C3AB
330
C348
100
AcDbEntity
  8
hyomoji
  6
Continuous
100
AcDbText
 10
-47.7105193958107
 20
10.94749414098044
 30
0.0
 40
2.799999999999999
  1
品番
 41
0.7
100
AcDbText
  0
TEXT
  5
C3AC
330
C348
100
AcDbEntity
  8
hyomoji
  6
Continuous
100
AcDbText
 10
-49.14528072662211
 20
15.35
 30
0.0
 40
2.799999999999999
  1
得
 41
0.7
100
AcDbText
  0
TEXT
  5
C3AD
330
C348
100
AcDbEntity
  8
hyomoji
  6
Continuous
100
AcDbText
 10
-43.98466554955234
 20
15.54033100654931
 30
0.0
 40
2.799999999999999
  1
先
 41
0.7
100
AcDbText
  0
TEXT
  5
C3AE
330
C348
100
AcDbEntity
  8
hyomoji
  6
Continuous
100
AcDbText
 10
-46.57168911155622
 20
15.54033100654931
 30
0.0
 40
2.799999999999999
  1
意
 41
0.7
100
AcDbText
  0
ATTDEF
  5
C3AF
330
C348
100
AcDbEntity
  8
hyomoji
100
AcDbText
 10
-112.122298953557
 20
36.09767060301937
 30
0.0
 40
3.0
  1

 41
0.7
100
AcDbAttributeDefinition
  3
得意先コード
  2
XXXXX
 70
     0
  0
TEXT
  5
C3B0
330
C348
100
AcDbEntity
  8
hyomoji
  6
Continuous
100
AcDbText
 10
-64.95386512971015
 20
34.81250000000009
 30
0.0
 40
3.5
  1
第
 41
0.7
100
AcDbText
  0
TEXT
  5
C3B1
330
C348
100
AcDbEntity
  8
hyomoji
  6
Continuous
100
AcDbText
 10
-70.23511512970685
 20
33.37499999999995
 30
0.0
 40
4.5
  1
製
 41
0.7
100
AcDbText
  0
TEXT
  5
C3B2
330
C348
100
AcDbEntity
  8
hyomoji
  6
Continuous
100
AcDbText
 10
-55.9999999999983
 20
35.90000000000002
 30
0.0
 40
3.2
  1
承認
 41
0.7
100
AcDbText
  0
LINE
  5
C3B3
330
C348
100
AcDbEntity
  8
hyosen2
  6
Continuous
100
AcDbLine
 10
-16.00000000000006
 20
39.99999999999998
 30
0.0
 11
-16.00000000000006
 21
19.99999999999999
 31
0.0
  0
ATTDEF
  5
C3B4
330
C348
100
AcDbEntity
  8
hyomoji
100
AcDbText
 10
-112.122298953557
 20
31.09767060301936
 30
0.0
 40
3.0
  1

 41
0.7
100
AcDbAttributeDefinition
  3
製造コード
  2
XXXX
 70
     0
  0
ATTDEF
  5
C3B5
330
C348
100
AcDbEntity
  8
hyomoji
100
AcDbText
 10
-109.6215355842744
 20
26.28478228664523
 30
0.0
 40
3.0
  1

 41
0.7
100
AcDbAttributeDefinition
  3
ファイルNo
  2
ファイルＮＯ
 70
     0
  0
TEXT
  5
C3B6
330
C348
100
AcDbEntity
  8
hyomoji
  6
Continuous
100
AcDbText
 10
-11.0000000000004
 20
35.89999999999998
 30
0.0
 40
3.2
  1
作成
 41
0.7
100
AcDbText
  0
TEXT
  5
C3B7
330
C348
100
AcDbEntity
  8
hyomoji
  6
Continuous
100
AcDbText
 10
-33.50000000000094
 20
35.90000000000013
 30
0.0
 40
3.2
  1
確認
 41
0.7
100
AcDbText
  0
ENDBLK
  5
C3BB
330
C348
100
AcDbEntity
  8
0
100
AcDbBlockEnd
  0
BLOCK
  5
C3FA
330
C3F0
100
AcDbEntity
  8
0
100
AcDbBlockBegin
  2
*D7
 70
     1
 10
0.0
 20
0.0
 30
0.0
  3
*D7
  1

  0
LINE
  5
C8A0
330
C3F0
100
AcDbEntity
  8
AM_5
100
AcDbLine
 10
56.37348597327238
 20
48.64716588206658
 30
0.0
 11
56.37348597327238
 21
42.64716588206658
 31
0.0
  0
LINE
  5
C8A1
330
C3F0
100
AcDbEntity
  8
AM_5
100
AcDbLine
 10
76.37348597327238
 20
48.64716588206658
 30
0.0
 11
76.37348597327238
 21
42.64716588206658
 31
0.0
  0
LINE
  5
C8A2
330
C3F0
100
AcDbEntity
  8
AM_5
100
AcDbLine
 10
56.87348597327238
 20
43.14716588206658
 30
0.0
 11
75.87348597327238
 21
43.14716588206658
 31
0.0
  0
INSERT
  5
C8A3
330
C3F0
100
AcDbEntity
  8
AM_5
100
AcDbBlockReference
  2
_Dot
 10
56.37348597327238
 20
43.14716588206658
 30
0.0
 41
0.5
 42
0.5
 43
0.5
 50
180.0
  0
INSERT
  5
C8A4
330
C3F0
100
AcDbEntity
  8
AM_5
100
AcDbBlockReference
  2
_Dot
 10
76.37348597327238
 20
43.14716588206658
 30
0.0
 41
0.5
 42
0.5
 43
0.5
  0
MTEXT
  5
C8A5
330
C3F0
100
AcDbEntity
  8
AM_5
 62
     2
100
AcDbMText
 10
66.37348597327238
 20
44.69716588206657
 30
0.0
 40
1.6
 41
0.0
 71
     5
 72
     1
  1
W
 73
     1
 44
1.0
1001
ACAD
1000
MTEXTBEGIN
1070
    73
1070
     1
1070
    44
1040
1.0
1070
    74
1070
     0
1000
MTEXTEND
  0
POINT
  5
C8A6
330
C3F0
100
AcDbEntity
  8
Defpoints
 62
     0
100
AcDbPoint
 10
56.37348597327238
 20
49.14716588206658
 30
0.0
  0
POINT
  5
C8A7
330
C3F0
100
AcDbEntity
  8
Defpoints
 62
     0
100
AcDbPoint
 10
76.37348597327238
 20
49.14716588206658
 30
0.0
  0
POINT
  5
C8A8
330
C3F0
100
AcDbEntity
  8
Defpoints
 62
     0
100
AcDbPoint
 10
76.37348597327238
 20
43.14716588206658
 30
0.0
  0
ENDBLK
  5
C3FB
330
C3F0
100
AcDbEntity
  8
0
100
AcDbBlockEnd
  0
BLOCK
  5
C420
330
C416
100
AcDbEntity
  8
0
100
AcDbBlockBegin
  2
*D8
 70
     1
 10
0.0
 20
0.0
 30
0.0
  3
*D8
  1

  0
LINE
  5
C8A9
330
C416
100
AcDbEntity
  8
AM_5
100
AcDbLine
 10
76.87348597327238
 20
49.14716588206658
 30
0.0
 11
82.87348597327238
 21
49.14716588206658
 31
0.0
  0
LINE
  5
C8AA
330
C416
100
AcDbEntity
  8
AM_5
100
AcDbLine
 10
76.87348597327238
 20
54.14716588206648
 30
0.0
 11
82.87348597327238
 21
54.14716588206647
 31
0.0
  0
LINE
  5
C8AB
330
C416
100
AcDbEntity
  8
AM_5
100
AcDbLine
 10
82.37348597327239
 20
49.64716588206658
 30
0.0
 11
82.37348597327239
 21
53.64716588206647
 31
0.0
  0
INSERT
  5
C8AC
330
C416
100
AcDbEntity
  8
AM_5
100
AcDbBlockReference
  2
_Dot
 10
82.37348597327239
 20
49.14716588206658
 30
0.0
 41
0.5
 42
0.5
 43
0.5
 50
270.0
  0
INSERT
  5
C8AD
330
C416
100
AcDbEntity
  8
AM_5
100
AcDbBlockReference
  2
_Dot
 10
82.37348597327239
 20
54.14716588206647
 30
0.0
 41
0.5
 42
0.5
 43
0.5
 50
90.0
  0
MTEXT
  5
C8AE
330
C416
100
AcDbEntity
  8
AM_5
 62
     2
100
AcDbMText
 10
80.82348597327237
 20
51.64716588206654
 30
0.0
 40
1.6
 41
0.0
 71
     5
 72
     1
  1
H
 11
0.0000000000000001
 21
1.0
 31
0.0
 73
     1
 44
1.0
1001
ACAD
1000
MTEXTBEGIN
1070
    73
1070
     1
1070
    44
1040
1.0
1070
    74
1070
     0
1000
MTEXTEND
  0
POINT
  5
C8AF
330
C416
100
AcDbEntity
  8
Defpoints
 62
     0
100
AcDbPoint
 10
76.37348597327238
 20
49.14716588206658
 30
0.0
  0
POINT
  5
C8B0
330
C416
100
AcDbEntity
  8
Defpoints
 62
     0
100
AcDbPoint
 10
76.37348597327238
 20
54.14716588206648
 30
0.0
  0
POINT
  5
C8B1
330
C416
100
AcDbEntity
  8
Defpoints
 62
     0
100
AcDbPoint
 10
82.37348597327239
 20
54.14716588206647
 30
0.0
  0
ENDBLK
  5
C421
330
C416
100
AcDbEntity
  8
0
100
AcDbBlockEnd
  0
ENDSEC
  0
SECTION
  2
ENTITIES
  0
LINE
  5
C2FA
330
1F
100
AcDbEntity
  8
AM_0
100
AcDbLine
 10
5.75
 20
100.75
 30
0.0
 11
40.74999999999989
 21
100.75
 31
0.0
  0
LINE
  5
C2FB
330
1F
100
AcDbEntity
  8
AM_2
100
AcDbLine
 10
17.2500000000001
 20
80.74999999999965
 30
0.0
 11
40.74999999999987
 21
80.74999999999965
 31
0.0
  0
LINE
  5
C2FC
330
1F
100
AcDbEntity
  8
AM_2
100
AcDbLine
 10
5.749999999999985
 20
84.74999999999988
 30
0.0
 11
40.74999999999987
 21
84.74999999999988
 31
0.0
  0
LINE
  5
C2FD
330
1F
100
AcDbEntity
  8
AM_2
100
AcDbLine
 10
5.75
 20
84.74999999999978
 30
0.0
 11
40.74999999999989
 21
84.74999999999978
 31
0.0
  0
LINE
  5
C2FE
330
1F
100
AcDbEntity
  8
AM_2
100
AcDbLine
 10
5.75
 20
88.75
 30
0.0
 11
40.74999999999989
 21
88.75
 31
0.0
  0
LINE
  5
C2FF
330
1F
100
AcDbEntity
  8
AM_2
100
AcDbLine
 10
5.75
 20
92.75
 30
0.0
 11
40.74999999999989
 21
92.75
 31
0.0
  0
LINE
  5
C300
330
1F
100
AcDbEntity
  8
AM_2
100
AcDbLine
 10
5.75
 20
96.75
 30
0.0
 11
40.74999999999989
 21
96.75
 31
0.0
  0
LINE
  5
C301
330
1F
100
AcDbEntity
  8
AM_0
100
AcDbLine
 10
5.75
 20
100.75
 30
0.0
 11
5.750000000000042
 21
80.74999999999988
 31
0.0
  0
LINE
  5
C302
330
1F
100
AcDbEntity
  8
AM_2
100
AcDbLine
 10
17.25
 20
100.75
 30
0.0
 11
17.2500000000001
 21
72.74999999999966
 31
0.0
  0
MTEXT
  5
C303
330
1F
100
AcDbEntity
  8
AM_6
100
AcDbMText
 10
11.5
 20
86.75
 30
0.0
 40
1.6
 41
11.5
 71
     5
 72
     5
  1
仕上げ
 73
     1
 44
1.0
1001
ACAD
1000
MTEXTBEGIN
1070
    73
1070
     1
1070
    44
1040
1.0
1070
    74
1070
     0
1000
MTEXTEND
  0
MTEXT
  5
C304
330
1F
100
AcDbEntity
  8
AM_6
100
AcDbMText
 10
11.5
 20
90.75000000000001
 30
0.0
 40
1.6
 41
11.5
 71
     5
 72
     5
  1
材質
 73
     1
 44
1.0
1001
ACAD
1000
MTEXTBEGIN
1070
    73
1070
     1
1070
    44
1040
1.0
1070
    74
1070
     0
1000
MTEXTEND
  0
MTEXT
  5
C305
330
1F
100
AcDbEntity
  8
AM_6
100
AcDbMText
 10
11.5
 20
98.75
 30
0.0
 40
1.6
 41
11.5
 71
     5
 72
     5
  1
品名
 73
     1
 44
1.0
1001
ACAD
1000
MTEXTBEGIN
1070
    73
1070
     1
1070
    44
1040
1.0
1070
    74
1070
     0
1000
MTEXTEND
  0
MTEXT
  5
C306
330
1F
100
AcDbEntity
  8
AM_6
100
AcDbMText
 10
11.5
 20
94.74999999999999
 30
0.0
 40
1.6
 41
11.5
 71
     5
 72
     5
  1
品番
 73
     1
 44
1.0
1001
ACAD
1000
MTEXTBEGIN
1070
    73
1070
     1
1070
    44
1040
1.0
1070
    74
1070
     0
1000
MTEXTEND
  0
MTEXT
  5
C307
330
1F
100
AcDbEntity
  8
AM_6
100
AcDbMText
 10
17.25
 20
86.75
 30
0.0
 40
1.6
 41
45.0
 71
     4
 72
     5
  1
　生地（橙色）
 73
     1
 44
1.0
1001
ACAD
1000
MTEXTBEGIN
1070
    73
1070
     1
1070
    44
1040
1.0
1070
    74
1070
     0
1000
MTEXTEND
  0
MTEXT
  5
C308
330
1F
100
AcDbEntity
  8
AM_6
100
AcDbMText
 10
17.25
 20
90.75000000000001
 30
0.0
 40
1.6
 41
45.0
 71
     4
 72
     5
  1
　シリコンスポンジ
 73
     1
 44
1.0
1001
ACAD
1000
MTEXTBEGIN
1070
    73
1070
     1
1070
    44
1040
1.0
1070
    74
1070
     0
1000
MTEXTEND
  0
MTEXT
  5
C309
330
1F
100
AcDbEntity
  8
AM_6
100
AcDbMText
 10
17.25
 20
94.74999999999999
 30
0.0
 40
1.6
 41
45.0
 71
     4
 72
     5
  1
　EBGS-「　」
 73
     1
 44
1.0
1001
ACAD
1000
MTEXTBEGIN
1070
    73
1070
     1
1070
    44
1040
1.0
1070
    74
1070
     0
1000
MTEXTEND
  0
MTEXT
  5
C30A
330
1F
100
AcDbEntity
  8
AM_6
100
AcDbMText
 10
17.25
 20
98.75
 30
0.0
 40
1.6
 41
45.0
 71
     4
 72
     5
  1
　防塵ゴム
 73
     1
 44
1.0
1001
ACAD
1000
MTEXTBEGIN
1070
    73
1070
     1
1070
    44
1040
1.0
1070
    74
1070
     0
1000
MTEXTEND
  0
MTEXT
  5
C30C
330
1F
100
AcDbEntity
  8
AM_6
100
AcDbMText
 10
11.50000000000004
 20
78.74999999999966
 30
0.0
 40
1.6
 41
11.50000000000023
 71
     5
 72
     5
  1
備考
 73
     1
 44
1.0
1001
ACAD
1000
MTEXTBEGIN
1070
    73
1070
     1
1070
    44
1040
1.0
1070
    74
1070
     0
1000
MTEXTEND
1000
ACAD_MTEXT_DEFINED_HEIGHT_BEGIN
1070
    46
1040
24.00000000000007
1000
ACAD_MTEXT_DEFINED_HEIGHT_END
  0
LINE
  5
C30D
330
1F
100
AcDbEntity
  8
AM_0
100
AcDbLine
 10
5.750000000000156
 20
72.74999999999966
 30
0.0
 11
40.75000000000005
 21
72.74999999999966
 31
0.0
  0
LINE
  5
C30E
330
1F
100
AcDbEntity
  8
AM_0
100
AcDbLine
 10
40.74999999999989
 20
100.75
 30
0.0
 11
40.74999999999999
 21
72.74999999999966
 31
0.0
  0
LINE
  5
C30F
330
1F
100
AcDbEntity
  8
AM_2
100
AcDbLine
 10
17.2500000000001
 20
76.74999999999966
 30
0.0
 11
40.74999999999987
 21
76.74999999999966
 31
0.0
  0
LWPOLYLINE
  5
C310
102
{ACAD_REACTORS
330
C3FD
330
C423
102
}
330
1F
100
AcDbEntity
  8
AM_0
100
AcDbPolyline
 90
        4
 70
     1
 43
0.0
 10
56.37348597327238
 20
54.14716588206648
 10
76.37348597327238
 20
54.14716588206648
 10
76.37348597327238
 20
49.14716588206658
 10
56.37348597327238
 20
49.14716588206658
1001
GENIUS_GENREC_14
1002
{
1000
PYDIR
1011
56.37348597327238
1021
49.14716588206658
1031
0.0
1002
}
1002
{
1000
PXDIR
1011
76.37348597327238
1021
54.14716588206648
1031
0.0
1002
}
1002
{
1000
PORI
1011
56.37348597327238
1021
54.14716588206648
1031
0.0
1002
}
1002
{
1000
PINS
1011
56.37348597327238
1021
54.14716588206648
1031
0.0
1002
}
1002
{
1000
PINS2
1011
76.37348597327238
1021
49.14716588206658
1031
0.0
1002
}
1002
{
1000
C
1070
     1
1002
}
1001
GENIUS_GENOBJ-N-REC_13
1002
{
1000
OWNER
1000
GEN
1002
}
1001
GENIUS_GENODEF_13
1002
{
1000
HIER
1070
     0
1002
}
1002
{
1000
MANEDIT
1070
     0
1002
}
1002
{
1000
NOSEL
1070
     0
1002
}
1002
{
1000
BEHIND
1070
     0
1002
}
1002
{
1000
OTHER
1070
     0
1002
}
1002
{
1000
REACTOR
1002
}
  0
POINT
  5
C3DF
330
1F
100
AcDbEntity
  8
0
 60
     1
100
AcDbPoint
 10
0.0
 20
0.0
 30
0.0
1001
GENIUS_GENOLIS_13
1002
{
1000
ENT
1005
C3CA
1005
C33B
1002
}
1001
GENIUS_GENOENT_13
1002
{
1000
MYREF
1005
C3DF
1002
}
1002
{
1000
GRP
1005
0
1002
}
1001
GENIUS_GENOBJ-N-TIT_13
1002
{
1000
OWNER
1000
GEN
1002
}
1001
GENIUS_GENTITLE_13
1002
{
1000
BORDER
1000
\\Cad-srv01\J\共通\AUTOCAD\SYS図枠10\SYS図枠A4(10)
1002
}
1002
{
1000
TITLE
1000
\\Cad-srv01\J\共通\AUTOCAD\SYS図枠10\SYS表題A4(10)
1002
}
1002
{
1000
SCALE
1000
2:1
1002
}
1002
{
1000
TITLESTD
1000
SYS
1002
}
1002
{
1000
HRA
1005
C33B
1002
}
1002
{
1000
HTIT
1005
C3CA
1002
}
1002
{
1000
INVTXTID
1005
0
1002
}
1002
{
1000
UNCHG
1002
{
1000
GEN-TITLE-SIZ
1000
GEN-TITLE-SCA
1002
}
1002
}
1002
{
1000
GENIUSID
1005
C3DF
1002
}
1001
GENIUS_GENODEF_13
1002
{
1000
HIER
1070
     1
1002
}
1002
{
1000
MANEDIT
1070
     1
1002
}
1002
{
1000
NOSEL
1070
     0
1002
}
1002
{
1000
BEHIND
1070
     0
1002
}
1002
{
1000
OTHER
1070
     0
1002
}
1002
{
1000
REACTOR
1002
}
  0
DIMENSION
  5
C3EF
102
{ACAD_XDICTIONARY
360
C3FC
102
}
102
{ACAD_REACTORS
330
C3FD
102
}
330
1F
100
AcDbEntity
  8
AM_5
100
AcDbDimension
  2
*D7
 10
76.37348597327238
 20
43.14716588206658
 30
0.0
 11
66.37348597327238
 21
44.69716588206657
 31
0.0
 70
    32
  1
W
 71
     5
 42
20.0
  3
SYS$0
100
AcDbAlignedDimension
 13
56.37348597327238
 23
49.14716588206658
 33
0.0
 14
76.37348597327238
 24
49.14716588206658
 34
0.0
 50
0.0000000000001018
100
AcDbRotatedDimension
1001
ACAD
1000
DSTYLE
1002
{
1070
    40
1040
0.5
1002
}
  0
DIMENSION
  5
C415
102
{ACAD_XDICTIONARY
360
C422
102
}
102
{ACAD_REACTORS
330
C423
102
}
330
1F
100
AcDbEntity
  8
AM_5
100
AcDbDimension
  2
*D8
 10
82.37348597327239
 20
54.14716588206647
 30
0.0
 11
80.82348597327237
 21
51.64716588206654
 31
0.0
 70
    32
  1
H
 71
     5
 42
4.999999999999886
  3
SYS$0
100
AcDbAlignedDimension
 13
76.37348597327238
 23
49.14716588206658
 33
0.0
 14
76.37348597327238
 24
54.14716588206648
 34
0.0
 50
90.0
100
AcDbRotatedDimension
1001
ACAD
1000
DSTYLE
1002
{
1070
    40
1040
0.5
1002
}
  0
TEXT
  5
C433
330
1F
100
AcDbEntity
  8
AM_6
 60
     1
100
AcDbText
 10
142.75
 20
4.25
 30
0.0
 40
1.25
  1
!GENTITLE-INSERT
100
AcDbText
  0
TEXT
  5
C434
330
1F
100
AcDbEntity
  8
AM_6
 60
     1
100
AcDbText
 10
148.5
 20
105.0
 30
0.0
 40
1.25
  1
!GENTITLE-MAX
100
AcDbText
  0
TEXT
  5
C435
330
1F
100
AcDbEntity
  8
AM_6
 60
     1
100
AcDbText
 10
148.5
 20
105.0
 30
0.0
 40
1.25
  1
!GENTITLE-RU
100
AcDbText
  0
LINE
  5
C436
330
1F
100
AcDbEntity
  8
size
100
AcDbLine
 10
0.0
 20
105.0
 30
0.0
 11
148.5
 21
105.0
 31
0.0
1001
GENIUS_GENREC_14
1002
{
1000
PYDIR
1011
0.0000000000000071
1021
148.5
1031
0.0
1002
}
1002
{
1000
PXDIR
1011
210.0
1021
0.0
1031
0.0
1002
}
1002
{
1000
PORI
1011
0.0
1021
0.0
1031
0.0
1002
}
1002
{
1000
PINS
1011
105.0
1021
74.24999999999998
1031
0.0
1002
}
1002
{
1000
HVAL
1000
297
1002
}
1002
{
1000
H
1070
     2
1002
}
1002
{
1000
WVAL
1000
420
1002
}
1002
{
1000
W
1070
     2
1002
}
1002
{
1000
C
1070
     4
1002
}
1001
GENIUS_GENOBJ-N-REC_13
1002
{
1000
OWNER
1000
GEN
1002
}
1001
GENIUS_GENODEF_13
1002
{
1000
HIER
1070
     0
1002
}
1002
{
1000
MANEDIT
1070
     0
1002
}
1002
{
1000
NOSEL
1070
     0
1002
}
1002
{
1000
BEHIND
1070
     0
1002
}
1002
{
1000
OTHER
1070
     0
1002
}
1002
{
1000
REACTOR
1002
}
  0
TEXT
  5
C437
330
1F
100
AcDbEntity
  8
AM_6
 60
     1
100
AcDbText
 10
0.0
 20
0.0
 30
0.0
 40
1.25
  1
!GENTITLE-LL
100
AcDbText
  0
LINE
  5
C438
330
1F
100
AcDbEntity
  8
size
100
AcDbLine
 10
148.5
 20
105.0
 30
0.0
 11
148.5
 21
-0.0000000000000142
 31
0.0
1001
GENIUS_GENREC_14
1002
{
1000
PYDIR
1011
0.0000000000000071
1021
148.5
1031
0.0
1002
}
1002
{
1000
PXDIR
1011
210.0
1021
0.0
1031
0.0
1002
}
1002
{
1000
PORI
1011
0.0
1021
0.0
1031
0.0
1002
}
1002
{
1000
PINS
1011
105.0
1021
74.24999999999998
1031
0.0
1002
}
1002
{
1000
HVAL
1000
297
1002
}
1002
{
1000
H
1070
     2
1002
}
1002
{
1000
WVAL
1000
420
1002
}
1002
{
1000
W
1070
     2
1002
}
1002
{
1000
C
1070
     4
1002
}
1001
GENIUS_GENOBJ-N-REC_13
1002
{
1000
OWNER
1000
GEN
1002
}
1001
GENIUS_GENODEF_13
1002
{
1000
HIER
1070
     0
1002
}
1002
{
1000
MANEDIT
1070
     0
1002
}
1002
{
1000
NOSEL
1070
     0
1002
}
1002
{
1000
BEHIND
1070
     0
1002
}
1002
{
1000
OTHER
1070
     0
1002
}
1002
{
1000
REACTOR
1002
}
  0
LINE
  5
C439
330
1F
100
AcDbEntity
  8
waku
100
AcDbLine
 10
5.75
 20
4.25
 30
0.0
 11
142.75
 21
4.25
 31
0.0
1001
GENIUS_GENREC_14
1002
{
1000
PYDIR
1011
0.0000000000000071
1021
148.5
1031
0.0
1002
}
1002
{
1000
PXDIR
1011
210.0
1021
0.0
1031
0.0
1002
}
1002
{
1000
PORI
1011
0.0
1021
0.0
1031
0.0
1002
}
1002
{
1000
PINS
1011
105.0
1021
74.24999999999998
1031
0.0
1002
}
1002
{
1000
HVAL
1000
297
1002
}
1002
{
1000
H
1070
     2
1002
}
1002
{
1000
WVAL
1000
420
1002
}
1002
{
1000
W
1070
     2
1002
}
1002
{
1000
C
1070
     4
1002
}
  0
LINE
  5
C43A
330
1F
100
AcDbEntity
  8
waku
100
AcDbLine
 10
142.75
 20
100.75
 30
0.0
 11
5.75
 21
100.75
 31
0.0
1001
GENIUS_GENREC_14
1002
{
1000
PYDIR
1011
-61.5
1021
105.0
1031
0.0
1002
}
1002
{
1000
PXDIR
1011
148.5
1021
-43.5
1031
0.0
1002
}
1002
{
1000
PORI
1011
-61.5
1021
-43.5
1031
0.0
1002
}
1002
{
1000
PINS
1011
43.50000000000001
1021
30.74999999999999
1031
0.0
1002
}
1002
{
1000
HVAL
1000
297
1002
}
1002
{
1000
H
1070
     2
1002
}
1002
{
1000
WVAL
1000
420
1002
}
1002
{
1000
W
1070
     2
1002
}
1002
{
1000
C
1070
     4
1002
}
1001
GENIUS_GENOBJ-N-REC_13
1002
{
1000
OWNER
1000
GEN
1002
}
1001
GENIUS_GENODEF_13
1002
{
1000
HIER
1070
     0
1002
}
1002
{
1000
MANEDIT
1070
     0
1002
}
1002
{
1000
NOSEL
1070
     0
1002
}
1002
{
1000
BEHIND
1070
     0
1002
}
1002
{
1000
OTHER
1070
     0
1002
}
1002
{
1000
REACTOR
1002
}
  0
LINE
  5
C43B
330
1F
100
AcDbEntity
  8
waku
100
AcDbLine
 10
5.750000000000008
 20
100.75
 30
0.0
 11
5.75
 21
4.25
 31
0.0
1001
GENIUS_GENREC_14
1002
{
1000
PYDIR
1011
0.0000000000000071
1021
148.5
1031
0.0
1002
}
1002
{
1000
PXDIR
1011
210.0
1021
0.0
1031
0.0
1002
}
1002
{
1000
PORI
1011
0.0
1021
0.0
1031
0.0
1002
}
1002
{
1000
PINS
1011
105.0
1021
74.24999999999998
1031
0.0
1002
}
1002
{
1000
HVAL
1000
297
1002
}
1002
{
1000
H
1070
     2
1002
}
1002
{
1000
WVAL
1000
420
1002
}
1002
{
1000
W
1070
     2
1002
}
1002
{
1000
C
1070
     4
1002
}
1001
GENIUS_GENOBJ-N-REC_13
1002
{
1000
OWNER
1000
GEN
1002
}
1001
GENIUS_GENODEF_13
1002
{
1000
HIER
1070
     0
1002
}
1002
{
1000
MANEDIT
1070
     0
1002
}
1002
{
1000
NOSEL
1070
     0
1002
}
1002
{
1000
BEHIND
1070
     0
1002
}
1002
{
1000
OTHER
1070
     0
1002
}
1002
{
1000
REACTOR
1002
}
  0
LINE
  5
C43C
330
1F
100
AcDbEntity
  8
waku
100
AcDbLine
 10
142.75
 20
4.25
 30
0.0
 11
142.75
 21
100.75
 31
0.0
1001
GENIUS_GENREC_14
1002
{
1000
PYDIR
1011
-61.5
1021
108.0
1031
0.0
1002
}
1002
{
1000
PXDIR
1011
148.5
1021
-40.49999999999999
1031
0.0
1002
}
1002
{
1000
PORI
1011
-61.5
1021
-40.49999999999999
1031
0.0
1002
}
1002
{
1000
PINS
1011
43.50000000000001
1021
33.74999999999999
1031
0.0
1002
}
1002
{
1000
HVAL
1000
297
1002
}
1002
{
1000
H
1070
     2
1002
}
1002
{
1000
WVAL
1000
420
1002
}
1002
{
1000
W
1070
     2
1002
}
1002
{
1000
C
1070
     4
1002
}
1001
GENIUS_GENOBJ-N-REC_13
1002
{
1000
OWNER
1000
GEN
1002
}
1001
GENIUS_GENODEF_13
1002
{
1000
HIER
1070
     0
1002
}
1002
{
1000
MANEDIT
1070
     0
1002
}
1002
{
1000
NOSEL
1070
     0
1002
}
1002
{
1000
BEHIND
1070
     0
1002
}
1002
{
1000
OTHER
1070
     0
1002
}
1002
{
1000
REACTOR
1002
}
  0
LINE
  5
C43D
330
1F
100
AcDbEntity
  8
size
100
AcDbLine
 10
0.0000000000000107
 20
105.0
 30
0.0
 11
0.0
 21
0.0
 31
0.0
1001
GENIUS_GENREC_14
1002
{
1000
PYDIR
1011
0.0000000000000071
1021
148.5
1031
0.0
1002
}
1002
{
1000
PXDIR
1011
210.0
1021
0.0
1031
0.0
1002
}
1002
{
1000
PORI
1011
0.0
1021
0.0
1031
0.0
1002
}
1002
{
1000
PINS
1011
105.0
1021
74.24999999999998
1031
0.0
1002
}
1002
{
1000
HVAL
1000
297
1002
}
1002
{
1000
H
1070
     2
1002
}
1002
{
1000
WVAL
1000
420
1002
}
1002
{
1000
W
1070
     2
1002
}
1002
{
1000
C
1070
     4
1002
}
1001
GENIUS_GENOBJ-N-REC_13
1002
{
1000
OWNER
1000
GEN
1002
}
1001
GENIUS_GENODEF_13
1002
{
1000
HIER
1070
     0
1002
}
1002
{
1000
MANEDIT
1070
     0
1002
}
1002
{
1000
NOSEL
1070
     0
1002
}
1002
{
1000
BEHIND
1070
     0
1002
}
1002
{
1000
OTHER
1070
     0
1002
}
1002
{
1000
REACTOR
1002
}
  0
LINE
  5
C43E
330
1F
100
AcDbEntity
  8
size
100
AcDbLine
 10
0.0
 20
0.0
 30
0.0
 11
148.5
 21
0.0
 31
0.0
1001
GENIUS_GENREC_14
1002
{
1000
PYDIR
1011
0.0000000000000071
1021
148.5
1031
0.0
1002
}
1002
{
1000
PXDIR
1011
210.0
1021
0.0
1031
0.0
1002
}
1002
{
1000
PORI
1011
0.0
1021
0.0
1031
0.0
1002
}
1002
{
1000
PINS
1011
105.0
1021
74.24999999999998
1031
0.0
1002
}
1002
{
1000
HVAL
1000
297
1002
}
1002
{
1000
H
1070
     2
1002
}
1002
{
1000
WVAL
1000
420
1002
}
1002
{
1000
W
1070
     2
1002
}
1002
{
1000
C
1070
     4
1002
}
1001
GENIUS_GENOBJ-N-REC_13
1002
{
1000
OWNER
1000
GEN
1002
}
1001
GENIUS_GENODEF_13
1002
{
1000
HIER
1070
     0
1002
}
1002
{
1000
MANEDIT
1070
     0
1002
}
1002
{
1000
NOSEL
1070
     0
1002
}
1002
{
1000
BEHIND
1070
     0
1002
}
1002
{
1000
OTHER
1070
     0
1002
}
1002
{
1000
REACTOR
1002
}
  0
LINE
  5
C495
330
1F
100
AcDbEntity
  8
AM_7
100
AcDbLine
 10
54.37348597327238
 20
51.64716588206653
 30
0.0
 11
78.37348597327238
 21
51.64716588206653
 31
0.0
1001
GENIUS_GENODEF_13
1002
{
1000
HIER
1070
     0
1002
}
1002
{
1000
MANEDIT
1070
     0
1002
}
1002
{
1000
NOSEL
1070
     0
1002
}
1002
{
1000
BEHIND
1070
     0
1002
}
1002
{
1000
OTHER
1070
     0
1002
}
1002
{
1000
REACTOR
1002
}
1001
GENIUS_GENOBJ-N-CEN_13
1002
{
1000
OWNER
1000
GEN
1002
}
1001
GENIUS_GENCEN_19
1002
{
1040
2.0
1002
}
  0
LINE
  5
C4A3
330
1F
100
AcDbEntity
  8
AM_7
100
AcDbLine
 10
66.37348597327238
 20
56.14716588206647
 30
0.0
 11
66.37348597327238
 21
47.14716588206658
 31
0.0
1001
GENIUS_GENODEF_13
1002
{
1000
HIER
1070
     0
1002
}
1002
{
1000
MANEDIT
1070
     0
1002
}
1002
{
1000
NOSEL
1070
     0
1002
}
1002
{
1000
BEHIND
1070
     0
1002
}
1002
{
1000
OTHER
1070
     0
1002
}
1002
{
1000
REACTOR
1002
}
1001
GENIUS_GENOBJ-N-CEN_13
1002
{
1000
OWNER
1000
GEN
1002
}
1001
GENIUS_GENCEN_19
1002
{
1040
2.0
1002
}
  0
MTEXT
  5
C5EA
330
1F
100
AcDbEntity
  8
AM_6
100
AcDbMText
 10
93.3020417571867
 20
89.41139813229064
 30
0.0
 40
1.6
 41
45.0
 71
     4
 72
     5
  1
　品　番
 73
     1
 44
1.0
1001
ACAD
1000
MTEXTBEGIN
1070
    73
1070
     1
1070
    44
1040
1.0
1070
    74
1070
     0
1000
MTEXTEND
  0
MTEXT
  5
C62B
330
1F
100
AcDbEntity
  8
AM_6
100
AcDbMText
 10
102.8464289523687
 20
89.41139813229064
 30
0.0
 40
1.6
 41
45.0
 71
     4
 72
     5
  1
　H
 73
     1
 44
1.0
1001
ACAD
1000
MTEXTBEGIN
1070
    73
1070
     1
1070
    44
1040
1.0
1070
    74
1070
     0
1000
MTEXTEND
  0
MTEXT
  5
C62D
330
1F
100
AcDbEntity
  8
AM_6
100
AcDbMText
 10
107.2439458309433
 20
89.41139813229064
 30
0.0
 40
1.6
 41
45.0
 71
     4
 72
     5
  1
　W
 73
     1
 44
1.0
1001
ACAD
1000
MTEXTBEGIN
1070
    73
1070
     1
1070
    44
1040
1.0
1070
    74
1070
     0
1000
MTEXTEND
  0
MTEXT
  5
C634
330
1F
100
AcDbEntity
  8
AM_6
100
AcDbMText
 10
90.98712661476399
 20
86.91139813229064
 30
0.0
 40
1.6
 41
45.0
 71
     4
 72
     5
  1
EBGS-3-10
 73
     1
 44
1.0
1001
ACAD
1000
MTEXTBEGIN
1070
    73
1070
     1
1070
    44
1040
1.0
1070
    74
1070
     0
1000
MTEXTEND
  0
MTEXT
  5
C635
330
1F
100
AcDbEntity
  8
AM_6
100
AcDbMText
 10
102.8464289523687
 20
86.91139813229064
 30
0.0
 40
1.6
 41
45.0
 71
     4
 72
     5
  1
　3
 73
     1
 44
1.0
1001
ACAD
1000
MTEXTBEGIN
1070
    73
1070
     1
1070
    44
1040
1.0
1070
    74
1070
     0
1000
MTEXTEND
  0
MTEXT
  5
C636
330
1F
100
AcDbEntity
  8
AM_6
100
AcDbMText
 10
106.7031660559375
 20
86.91139813229064
 30
0.0
 40
1.6
 41
45.0
 71
     4
 72
     5
  1
　10
 73
     1
 44
1.0
1001
ACAD
1000
MTEXTBEGIN
1070
    73
1070
     1
1070
    44
1040
1.0
1070
    74
1070
     0
1000
MTEXTEND
  0
MTEXT
  5
C643
330
1F
100
AcDbEntity
  8
AM_6
100
AcDbMText
 10
90.98712661476399
 20
84.41139813229064
 30
0.0
 40
1.6
 41
45.0
 71
     4
 72
     5
  1
EBGS-3-15
 73
     1
 44
1.0
1001
ACAD
1000
MTEXTBEGIN
1070
    73
1070
     1
1070
    44
1040
1.0
1070
    74
1070
     0
1000
MTEXTEND
  0
MTEXT
  5
C644
330
1F
100
AcDbEntity
  8
AM_6
100
AcDbMText
 10
102.8464289523687
 20
84.41139813229064
 30
0.0
 40
1.6
 41
45.0
 71
     4
 72
     5
  1
　3
 73
     1
 44
1.0
1001
ACAD
1000
MTEXTBEGIN
1070
    73
1070
     1
1070
    44
1040
1.0
1070
    74
1070
     0
1000
MTEXTEND
  0
MTEXT
  5
C645
330
1F
100
AcDbEntity
  8
AM_6
100
AcDbMText
 10
106.7031660559375
 20
84.41139813229064
 30
0.0
 40
1.6
 41
45.0
 71
     4
 72
     5
  1
　15
 73
     1
 44
1.0
1001
ACAD
1000
MTEXTBEGIN
1070
    73
1070
     1
1070
    44
1040
1.0
1070
    74
1070
     0
1000
MTEXTEND
  0
MTEXT
  5
C646
330
1F
100
AcDbEntity
  8
AM_6
100
AcDbMText
 10
90.98712661476399
 20
81.91139813229064
 30
0.0
 40
1.6
 41
45.0
 71
     4
 72
     5
  1
EBGS-3-20
 73
     1
 44
1.0
1001
ACAD
1000
MTEXTBEGIN
1070
    73
1070
     1
1070
    44
1040
1.0
1070
    74
1070
     0
1000
MTEXTEND
  0
MTEXT
  5
C647
330
1F
100
AcDbEntity
  8
AM_6
100
AcDbMText
 10
102.8464289523687
 20
81.91139813229064
 30
0.0
 40
1.6
 41
45.0
 71
     4
 72
     5
  1
　3
 73
     1
 44
1.0
1001
ACAD
1000
MTEXTBEGIN
1070
    73
1070
     1
1070
    44
1040
1.0
1070
    74
1070
     0
1000
MTEXTEND
  0
MTEXT
  5
C648
330
1F
100
AcDbEntity
  8
AM_6
100
AcDbMText
 10
106.7031660559375
 20
81.91139813229064
 30
0.0
 40
1.6
 41
45.0
 71
     4
 72
     5
  1
　20
 73
     1
 44
1.0
1001
ACAD
1000
MTEXTBEGIN
1070
    73
1070
     1
1070
    44
1040
1.0
1070
    74
1070
     0
1000
MTEXTEND
  0
MTEXT
  5
C649
330
1F
100
AcDbEntity
  8
AM_6
100
AcDbMText
 10
90.98712661476399
 20
69.41139813229066
 30
0.0
 40
1.6
 41
45.0
 71
     4
 72
     5
  1
EBGS-5-5
 73
     1
 44
1.0
1001
ACAD
1000
MTEXTBEGIN
1070
    73
1070
     1
1070
    44
1040
1.0
1070
    74
1070
     0
1000
MTEXTEND
  0
MTEXT
  5
C64A
330
1F
100
AcDbEntity
  8
AM_6
100
AcDbMText
 10
102.8464289523687
 20
69.41139813229066
 30
0.0
 40
1.6
 41
45.0
 71
     4
 72
     5
  1
　5
 73
     1
 44
1.0
1001
ACAD
1000
MTEXTBEGIN
1070
    73
1070
     1
1070
    44
1040
1.0
1070
    74
1070
     0
1000
MTEXTEND
  0
MTEXT
  5
C64C
330
1F
100
AcDbEntity
  8
AM_6
100
AcDbMText
 10
90.98712661476399
 20
66.91139813229066
 30
0.0
 40
1.6
 41
45.0
 71
     4
 72
     5
  1
EBGS-5-10
 73
     1
 44
1.0
1001
ACAD
1000
MTEXTBEGIN
1070
    73
1070
     1
1070
    44
1040
1.0
1070
    74
1070
     0
1000
MTEXTEND
  0
MTEXT
  5
C64D
330
1F
100
AcDbEntity
  8
AM_6
100
AcDbMText
 10
102.8464289523687
 20
66.91139813229066
 30
0.0
 40
1.6
 41
45.0
 71
     4
 72
     5
  1
　5
 73
     1
 44
1.0
1001
ACAD
1000
MTEXTBEGIN
1070
    73
1070
     1
1070
    44
1040
1.0
1070
    74
1070
     0
1000
MTEXTEND
  0
MTEXT
  5
C64E
330
1F
100
AcDbEntity
  8
AM_6
100
AcDbMText
 10
106.7031660559375
 20
66.91139813229066
 30
0.0
 40
1.6
 41
45.0
 71
     4
 72
     5
  1
　10
 73
     1
 44
1.0
1001
ACAD
1000
MTEXTBEGIN
1070
    73
1070
     1
1070
    44
1040
1.0
1070
    74
1070
     0
1000
MTEXTEND
  0
MTEXT
  5
C64F
330
1F
100
AcDbEntity
  8
AM_6
100
AcDbMText
 10
90.98712661476399
 20
64.41139813229066
 30
0.0
 40
1.6
 41
45.0
 71
     4
 72
     5
  1
EBGS-5-15
 73
     1
 44
1.0
1001
ACAD
1000
MTEXTBEGIN
1070
    73
1070
     1
1070
    44
1040
1.0
1070
    74
1070
     0
1000
MTEXTEND
  0
MTEXT
  5
C650
330
1F
100
AcDbEntity
  8
AM_6
100
AcDbMText
 10
102.8464289523687
 20
64.41139813229066
 30
0.0
 40
1.6
 41
45.0
 71
     4
 72
     5
  1
　5
 73
     1
 44
1.0
1001
ACAD
1000
MTEXTBEGIN
1070
    73
1070
     1
1070
    44
1040
1.0
1070
    74
1070
     0
1000
MTEXTEND
  0
MTEXT
  5
C651
330
1F
100
AcDbEntity
  8
AM_6
100
AcDbMText
 10
106.7031660559375
 20
64.41139813229066
 30
0.0
 40
1.6
 41
45.0
 71
     4
 72
     5
  1
　15
 73
     1
 44
1.0
1001
ACAD
1000
MTEXTBEGIN
1070
    73
1070
     1
1070
    44
1040
1.0
1070
    74
1070
     0
1000
MTEXTEND
  0
MTEXT
  5
C652
330
1F
100
AcDbEntity
  8
AM_6
100
AcDbMText
 10
90.98712661476399
 20
61.91139813229066
 30
0.0
 40
1.6
 41
45.0
 71
     4
 72
     5
  1
EBGS-5-20
 73
     1
 44
1.0
1001
ACAD
1000
MTEXTBEGIN
1070
    73
1070
     1
1070
    44
1040
1.0
1070
    74
1070
     0
1000
MTEXTEND
  0
MTEXT
  5
C653
330
1F
100
AcDbEntity
  8
AM_6
100
AcDbMText
 10
102.8464289523687
 20
61.91139813229066
 30
0.0
 40
1.6
 41
45.0
 71
     4
 72
     5
  1
　5
 73
     1
 44
1.0
1001
ACAD
1000
MTEXTBEGIN
1070
    73
1070
     1
1070
    44
1040
1.0
1070
    74
1070
     0
1000
MTEXTEND
  0
MTEXT
  5
C654
330
1F
100
AcDbEntity
  8
AM_6
100
AcDbMText
 10
106.7031660559375
 20
61.91139813229066
 30
0.0
 40
1.6
 41
45.0
 71
     4
 72
     5
  1
　20
 73
     1
 44
1.0
1001
ACAD
1000
MTEXTBEGIN
1070
    73
1070
     1
1070
    44
1040
1.0
1070
    74
1070
     0
1000
MTEXTEND
  0
MTEXT
  5
C655
330
1F
100
AcDbEntity
  8
AM_6
100
AcDbMText
 10
90.98712661476399
 20
59.41139813229066
 30
0.0
 40
1.6
 41
45.0
 71
     4
 72
     5
  1
EBGS-5-25
 73
     1
 44
1.0
1001
ACAD
1000
MTEXTBEGIN
1070
    73
1070
     1
1070
    44
1040
1.0
1070
    74
1070
     0
1000
MTEXTEND
  0
MTEXT
  5
C656
330
1F
100
AcDbEntity
  8
AM_6
100
AcDbMText
 10
102.8464289523687
 20
59.41139813229066
 30
0.0
 40
1.6
 41
45.0
 71
     4
 72
     5
  1
　5
 73
     1
 44
1.0
1001
ACAD
1000
MTEXTBEGIN
1070
    73
1070
     1
1070
    44
1040
1.0
1070
    74
1070
     0
1000
MTEXTEND
  0
MTEXT
  5
C657
330
1F
100
AcDbEntity
  8
AM_6
100
AcDbMText
 10
106.7031660559375
 20
59.41139813229066
 30
0.0
 40
1.6
 41
45.0
 71
     4
 72
     5
  1
　25
 73
     1
 44
1.0
1001
ACAD
1000
MTEXTBEGIN
1070
    73
1070
     1
1070
    44
1040
1.0
1070
    74
1070
     0
1000
MTEXTEND
  0
MTEXT
  5
C658
330
1F
100
AcDbEntity
  8
AM_6
100
AcDbMText
 10
90.98712661476399
 20
56.91139813229066
 30
0.0
 40
1.6
 41
45.0
 71
     4
 72
     5
  1
EBGS-5-30
 73
     1
 44
1.0
1001
ACAD
1000
MTEXTBEGIN
1070
    73
1070
     1
1070
    44
1040
1.0
1070
    74
1070
     0
1000
MTEXTEND
  0
MTEXT
  5
C659
330
1F
100
AcDbEntity
  8
AM_6
100
AcDbMText
 10
102.8464289523687
 20
56.91139813229066
 30
0.0
 40
1.6
 41
45.0
 71
     4
 72
     5
  1
　5
 73
     1
 44
1.0
1001
ACAD
1000
MTEXTBEGIN
1070
    73
1070
     1
1070
    44
1040
1.0
1070
    74
1070
     0
1000
MTEXTEND
  0
MTEXT
  5
C65A
330
1F
100
AcDbEntity
  8
AM_6
100
AcDbMText
 10
106.7031660559375
 20
56.91139813229066
 30
0.0
 40
1.6
 41
45.0
 71
     4
 72
     5
  1
　30
 73
     1
 44
1.0
1001
ACAD
1000
MTEXTBEGIN
1070
    73
1070
     1
1070
    44
1040
1.0
1070
    74
1070
     0
1000
MTEXTEND
  0
MTEXT
  5
C65B
330
1F
100
AcDbEntity
  8
AM_6
100
AcDbMText
 10
90.98712661476399
 20
49.41139813229066
 30
0.0
 40
1.6
 41
45.0
 71
     4
 72
     5
  1
EBGS-6-10
 73
     1
 44
1.0
1001
ACAD
1000
MTEXTBEGIN
1070
    73
1070
     1
1070
    44
1040
1.0
1070
    74
1070
     0
1000
MTEXTEND
  0
MTEXT
  5
C65C
330
1F
100
AcDbEntity
  8
AM_6
100
AcDbMText
 10
102.8464289523687
 20
49.41139813229066
 30
0.0
 40
1.6
 41
45.0
 71
     4
 72
     5
  1
　6
 73
     1
 44
1.0
1001
ACAD
1000
MTEXTBEGIN
1070
    73
1070
     1
1070
    44
1040
1.0
1070
    74
1070
     0
1000
MTEXTEND
  0
MTEXT
  5
C65D
330
1F
100
AcDbEntity
  8
AM_6
100
AcDbMText
 10
106.7031660559375
 20
49.41139813229066
 30
0.0
 40
1.6
 41
45.0
 71
     4
 72
     5
  1
　10
 73
     1
 44
1.0
1001
ACAD
1000
MTEXTBEGIN
1070
    73
1070
     1
1070
    44
1040
1.0
1070
    74
1070
     0
1000
MTEXTEND
  0
MTEXT
  5
C65E
330
1F
100
AcDbEntity
  8
AM_6
100
AcDbMText
 10
90.98712661476399
 20
46.91139813229066
 30
0.0
 40
1.6
 41
45.0
 71
     4
 72
     5
  1
EBGS-6-15
 73
     1
 44
1.0
1001
ACAD
1000
MTEXTBEGIN
1070
    73
1070
     1
1070
    44
1040
1.0
1070
    74
1070
     0
1000
MTEXTEND
  0
MTEXT
  5
C65F
330
1F
100
AcDbEntity
  8
AM_6
100
AcDbMText
 10
102.8464289523687
 20
46.91139813229066
 30
0.0
 40
1.6
 41
45.0
 71
     4
 72
     5
  1
　6
 73
     1
 44
1.0
1001
ACAD
1000
MTEXTBEGIN
1070
    73
1070
     1
1070
    44
1040
1.0
1070
    74
1070
     0
1000
MTEXTEND
  0
MTEXT
  5
C660
330
1F
100
AcDbEntity
  8
AM_6
100
AcDbMText
 10
106.7031660559375
 20
46.91139813229066
 30
0.0
 40
1.6
 41
45.0
 71
     4
 72
     5
  1
　15
 73
     1
 44
1.0
1001
ACAD
1000
MTEXTBEGIN
1070
    73
1070
     1
1070
    44
1040
1.0
1070
    74
1070
     0
1000
MTEXTEND
  0
MTEXT
  5
C661
330
1F
100
AcDbEntity
  8
AM_6
100
AcDbMText
 10
90.98712661476399
 20
44.41139813229066
 30
0.0
 40
1.6
 41
45.0
 71
     4
 72
     5
  1
EBGS-6-20
 73
     1
 44
1.0
1001
ACAD
1000
MTEXTBEGIN
1070
    73
1070
     1
1070
    44
1040
1.0
1070
    74
1070
     0
1000
MTEXTEND
  0
MTEXT
  5
C662
330
1F
100
AcDbEntity
  8
AM_6
100
AcDbMText
 10
102.8464289523687
 20
44.41139813229066
 30
0.0
 40
1.6
 41
45.0
 71
     4
 72
     5
  1
　6
 73
     1
 44
1.0
1001
ACAD
1000
MTEXTBEGIN
1070
    73
1070
     1
1070
    44
1040
1.0
1070
    74
1070
     0
1000
MTEXTEND
  0
MTEXT
  5
C663
330
1F
100
AcDbEntity
  8
AM_6
100
AcDbMText
 10
106.7031660559375
 20
44.41139813229066
 30
0.0
 40
1.6
 41
45.0
 71
     4
 72
     5
  1
　20
 73
     1
 44
1.0
1001
ACAD
1000
MTEXTBEGIN
1070
    73
1070
     1
1070
    44
1040
1.0
1070
    74
1070
     0
1000
MTEXTEND
  0
MTEXT
  5
C664
330
1F
100
AcDbEntity
  8
AM_6
100
AcDbMText
 10
90.98712661476399
 20
41.91139813229066
 30
0.0
 40
1.6
 41
45.0
 71
     4
 72
     5
  1
EBGS-6-25
 73
     1
 44
1.0
1001
ACAD
1000
MTEXTBEGIN
1070
    73
1070
     1
1070
    44
1040
1.0
1070
    74
1070
     0
1000
MTEXTEND
  0
MTEXT
  5
C665
330
1F
100
AcDbEntity
  8
AM_6
100
AcDbMText
 10
102.8464289523687
 20
41.91139813229066
 30
0.0
 40
1.6
 41
45.0
 71
     4
 72
     5
  1
　6
 73
     1
 44
1.0
1001
ACAD
1000
MTEXTBEGIN
1070
    73
1070
     1
1070
    44
1040
1.0
1070
    74
1070
     0
1000
MTEXTEND
  0
MTEXT
  5
C666
330
1F
100
AcDbEntity
  8
AM_6
100
AcDbMText
 10
106.7031660559375
 20
41.91139813229066
 30
0.0
 40
1.6
 41
45.0
 71
     4
 72
     5
  1
　25
 73
     1
 44
1.0
1001
ACAD
1000
MTEXTBEGIN
1070
    73
1070
     1
1070
    44
1040
1.0
1070
    74
1070
     0
1000
MTEXTEND
  0
MTEXT
  5
C667
330
1F
100
AcDbEntity
  8
AM_6
100
AcDbMText
 10
90.98712661476401
 20
36.91139813229066
 30
0.0
 40
1.6
 41
45.0
 71
     4
 72
     5
  1
EBGS-7-10
 73
     1
 44
1.0
1001
ACAD
1000
MTEXTBEGIN
1070
    73
1070
     1
1070
    44
1040
1.0
1070
    74
1070
     0
1000
MTEXTEND
  0
MTEXT
  5
C668
330
1F
100
AcDbEntity
  8
AM_6
100
AcDbMText
 10
102.8464289523687
 20
36.91139813229066
 30
0.0
 40
1.6
 41
45.0
 71
     4
 72
     5
  1
　7
 73
     1
 44
1.0
1001
ACAD
1000
MTEXTBEGIN
1070
    73
1070
     1
1070
    44
1040
1.0
1070
    74
1070
     0
1000
MTEXTEND
  0
MTEXT
  5
C669
330
1F
100
AcDbEntity
  8
AM_6
100
AcDbMText
 10
106.7031660559375
 20
36.91139813229066
 30
0.0
 40
1.6
 41
45.0
 71
     4
 72
     5
  1
　10
 73
     1
 44
1.0
1001
ACAD
1000
MTEXTBEGIN
1070
    73
1070
     1
1070
    44
1040
1.0
1070
    74
1070
     0
1000
MTEXTEND
  0
MTEXT
  5
C66A
330
1F
100
AcDbEntity
  8
AM_6
100
AcDbMText
 10
90.98712661476401
 20
34.41139813229066
 30
0.0
 40
1.6
 41
45.0
 71
     4
 72
     5
  1
EBGS-7-15
 73
     1
 44
1.0
1001
ACAD
1000
MTEXTBEGIN
1070
    73
1070
     1
1070
    44
1040
1.0
1070
    74
1070
     0
1000
MTEXTEND
  0
MTEXT
  5
C66B
330
1F
100
AcDbEntity
  8
AM_6
100
AcDbMText
 10
102.8464289523687
 20
34.41139813229066
 30
0.0
 40
1.6
 41
45.0
 71
     4
 72
     5
  1
　7
 73
     1
 44
1.0
1001
ACAD
1000
MTEXTBEGIN
1070
    73
1070
     1
1070
    44
1040
1.0
1070
    74
1070
     0
1000
MTEXTEND
  0
MTEXT
  5
C66C
330
1F
100
AcDbEntity
  8
AM_6
100
AcDbMText
 10
106.7031660559375
 20
34.41139813229066
 30
0.0
 40
1.6
 41
45.0
 71
     4
 72
     5
  1
　15
 73
     1
 44
1.0
1001
ACAD
1000
MTEXTBEGIN
1070
    73
1070
     1
1070
    44
1040
1.0
1070
    74
1070
     0
1000
MTEXTEND
  0
MTEXT
  5
C66D
330
1F
100
AcDbEntity
  8
AM_6
100
AcDbMText
 10
90.98712661476401
 20
31.91139813229066
 30
0.0
 40
1.6
 41
45.0
 71
     4
 72
     5
  1
EBGS-7-20
 73
     1
 44
1.0
1001
ACAD
1000
MTEXTBEGIN
1070
    73
1070
     1
1070
    44
1040
1.0
1070
    74
1070
     0
1000
MTEXTEND
  0
MTEXT
  5
C66E
330
1F
100
AcDbEntity
  8
AM_6
100
AcDbMText
 10
102.8464289523687
 20
31.91139813229066
 30
0.0
 40
1.6
 41
45.0
 71
     4
 72
     5
  1
　7
 73
     1
 44
1.0
1001
ACAD
1000
MTEXTBEGIN
1070
    73
1070
     1
1070
    44
1040
1.0
1070
    74
1070
     0
1000
MTEXTEND
  0
MTEXT
  5
C66F
330
1F
100
AcDbEntity
  8
AM_6
100
AcDbMText
 10
106.7031660559375
 20
31.91139813229066
 30
0.0
 40
1.6
 41
45.0
 71
     4
 72
     5
  1
　20
 73
     1
 44
1.0
1001
ACAD
1000
MTEXTBEGIN
1070
    73
1070
     1
1070
    44
1040
1.0
1070
    74
1070
     0
1000
MTEXTEND
  0
MTEXT
  5
C670
330
1F
100
AcDbEntity
  8
AM_6
100
AcDbMText
 10
90.98712661476399
 20
29.41139813229066
 30
0.0
 40
1.6
 41
45.0
 71
     4
 72
     5
  1
EBGS-7-25
 73
     1
 44
1.0
1001
ACAD
1000
MTEXTBEGIN
1070
    73
1070
     1
1070
    44
1040
1.0
1070
    74
1070
     0
1000
MTEXTEND
  0
MTEXT
  5
C671
330
1F
100
AcDbEntity
  8
AM_6
100
AcDbMText
 10
102.8464289523687
 20
29.41139813229066
 30
0.0
 40
1.6
 41
45.0
 71
     4
 72
     5
  1
　7
 73
     1
 44
1.0
1001
ACAD
1000
MTEXTBEGIN
1070
    73
1070
     1
1070
    44
1040
1.0
1070
    74
1070
     0
1000
MTEXTEND
  0
MTEXT
  5
C672
330
1F
100
AcDbEntity
  8
AM_6
100
AcDbMText
 10
106.7031660559375
 20
29.41139813229066
 30
0.0
 40
1.6
 41
45.0
 71
     4
 72
     5
  1
　25
 73
     1
 44
1.0
1001
ACAD
1000
MTEXTBEGIN
1070
    73
1070
     1
1070
    44
1040
1.0
1070
    74
1070
     0
1000
MTEXTEND
  0
MTEXT
  5
C673
330
1F
100
AcDbEntity
  8
AM_6
100
AcDbMText
 10
90.98712661476399
 20
26.91139813229066
 30
0.0
 40
1.6
 41
45.0
 71
     4
 72
     5
  1
EBGS-8-8
 73
     1
 44
1.0
1001
ACAD
1000
MTEXTBEGIN
1070
    73
1070
     1
1070
    44
1040
1.0
1070
    74
1070
     0
1000
MTEXTEND
  0
MTEXT
  5
C674
330
1F
100
AcDbEntity
  8
AM_6
100
AcDbMText
 10
102.8464289523687
 20
26.91139813229066
 30
0.0
 40
1.6
 41
45.0
 71
     4
 72
     5
  1
　8
 73
     1
 44
1.0
1001
ACAD
1000
MTEXTBEGIN
1070
    73
1070
     1
1070
    44
1040
1.0
1070
    74
1070
     0
1000
MTEXTEND
  0
MTEXT
  5
C676
330
1F
100
AcDbEntity
  8
AM_6
100
AcDbMText
 10
90.98712661476399
 20
24.41139813229066
 30
0.0
 40
1.6
 41
45.0
 71
     4
 72
     5
  1
EBGS-8-10
 73
     1
 44
1.0
1001
ACAD
1000
MTEXTBEGIN
1070
    73
1070
     1
1070
    44
1040
1.0
1070
    74
1070
     0
1000
MTEXTEND
  0
MTEXT
  5
C677
330
1F
100
AcDbEntity
  8
AM_6
100
AcDbMText
 10
102.8464289523687
 20
24.41139813229066
 30
0.0
 40
1.6
 41
45.0
 71
     4
 72
     5
  1
　8
 73
     1
 44
1.0
1001
ACAD
1000
MTEXTBEGIN
1070
    73
1070
     1
1070
    44
1040
1.0
1070
    74
1070
     0
1000
MTEXTEND
  0
MTEXT
  5
C678
330
1F
100
AcDbEntity
  8
AM_6
100
AcDbMText
 10
106.7031660559375
 20
24.41139813229066
 30
0.0
 40
1.6
 41
45.0
 71
     4
 72
     5
  1
　10
 73
     1
 44
1.0
1001
ACAD
1000
MTEXTBEGIN
1070
    73
1070
     1
1070
    44
1040
1.0
1070
    74
1070
     0
1000
MTEXTEND
  0
MTEXT
  5
C679
330
1F
100
AcDbEntity
  8
AM_6
100
AcDbMText
 10
90.98712661476399
 20
21.91139813229066
 30
0.0
 40
1.6
 41
45.0
 71
     4
 72
     5
  1
EBGS-8-15
 73
     1
 44
1.0
1001
ACAD
1000
MTEXTBEGIN
1070
    73
1070
     1
1070
    44
1040
1.0
1070
    74
1070
     0
1000
MTEXTEND
  0
MTEXT
  5
C67A
330
1F
100
AcDbEntity
  8
AM_6
100
AcDbMText
 10
102.8464289523687
 20
21.91139813229066
 30
0.0
 40
1.6
 41
45.0
 71
     4
 72
     5
  1
　8
 73
     1
 44
1.0
1001
ACAD
1000
MTEXTBEGIN
1070
    73
1070
     1
1070
    44
1040
1.0
1070
    74
1070
     0
1000
MTEXTEND
  0
MTEXT
  5
C67B
330
1F
100
AcDbEntity
  8
AM_6
100
AcDbMText
 10
106.7031660559375
 20
21.91139813229066
 30
0.0
 40
1.6
 41
45.0
 71
     4
 72
     5
  1
　15
 73
     1
 44
1.0
1001
ACAD
1000
MTEXTBEGIN
1070
    73
1070
     1
1070
    44
1040
1.0
1070
    74
1070
     0
1000
MTEXTEND
  0
MTEXT
  5
C67C
330
1F
100
AcDbEntity
  8
AM_6
100
AcDbMText
 10
90.98712661476401
 20
19.41139813229066
 30
0.0
 40
1.6
 41
45.0
 71
     4
 72
     5
  1
EBGS-8-20
 73
     1
 44
1.0
1001
ACAD
1000
MTEXTBEGIN
1070
    73
1070
     1
1070
    44
1040
1.0
1070
    74
1070
     0
1000
MTEXTEND
  0
MTEXT
  5
C67D
330
1F
100
AcDbEntity
  8
AM_6
100
AcDbMText
 10
102.8464289523687
 20
19.41139813229066
 30
0.0
 40
1.6
 41
45.0
 71
     4
 72
     5
  1
　8
 73
     1
 44
1.0
1001
ACAD
1000
MTEXTBEGIN
1070
    73
1070
     1
1070
    44
1040
1.0
1070
    74
1070
     0
1000
MTEXTEND
  0
MTEXT
  5
C67E
330
1F
100
AcDbEntity
  8
AM_6
100
AcDbMText
 10
106.7031660559375
 20
19.41139813229066
 30
0.0
 40
1.6
 41
45.0
 71
     4
 72
     5
  1
　20
 73
     1
 44
1.0
1001
ACAD
1000
MTEXTBEGIN
1070
    73
1070
     1
1070
    44
1040
1.0
1070
    74
1070
     0
1000
MTEXTEND
  0
MTEXT
  5
C67F
330
1F
100
AcDbEntity
  8
AM_6
100
AcDbMText
 10
90.98712661476401
 20
16.91139813229066
 30
0.0
 40
1.6
 41
45.0
 71
     4
 72
     5
  1
EBGS-8-25
 73
     1
 44
1.0
1001
ACAD
1000
MTEXTBEGIN
1070
    73
1070
     1
1070
    44
1040
1.0
1070
    74
1070
     0
1000
MTEXTEND
  0
MTEXT
  5
C680
330
1F
100
AcDbEntity
  8
AM_6
100
AcDbMText
 10
102.8464289523687
 20
16.91139813229066
 30
0.0
 40
1.6
 41
45.0
 71
     4
 72
     5
  1
　8
 73
     1
 44
1.0
1001
ACAD
1000
MTEXTBEGIN
1070
    73
1070
     1
1070
    44
1040
1.0
1070
    74
1070
     0
1000
MTEXTEND
  0
MTEXT
  5
C681
330
1F
100
AcDbEntity
  8
AM_6
100
AcDbMText
 10
106.7031660559375
 20
16.91139813229066
 30
0.0
 40
1.6
 41
45.0
 71
     4
 72
     5
  1
　25
 73
     1
 44
1.0
1001
ACAD
1000
MTEXTBEGIN
1070
    73
1070
     1
1070
    44
1040
1.0
1070
    74
1070
     0
1000
MTEXTEND
  0
MTEXT
  5
C682
330
1F
100
AcDbEntity
  8
AM_6
100
AcDbMText
 10
116.506818882711
 20
86.91139813229064
 30
0.0
 40
1.6
 41
45.0
 71
     4
 72
     5
  1
EBGS-10-10
 73
     1
 44
1.0
1001
ACAD
1000
MTEXTBEGIN
1070
    73
1070
     1
1070
    44
1040
1.0
1070
    74
1070
     0
1000
MTEXTEND
  0
MTEXT
  5
C684
330
1F
100
AcDbEntity
  8
AM_6
100
AcDbMText
 10
132.2276257533768
 20
86.91139813229064
 30
0.0
 40
1.6
 41
45.0
 71
     4
 72
     5
  1
　10
 73
     1
 44
1.0
1001
ACAD
1000
MTEXTBEGIN
1070
    73
1070
     1
1070
    44
1040
1.0
1070
    74
1070
     0
1000
MTEXTEND
  0
LINE
  5
C69B
330
1F
100
AcDbEntity
  8
AM_1
370
    30
100
AcDbLine
 10
90.43514227720214
 20
70.66393680207451
 30
0.0
 11
111.4004100057933
 21
70.66393680207451
 31
0.0
  0
LINE
  5
C69C
330
1F
100
AcDbEntity
  8
AM_1
370
    30
100
AcDbLine
 10
90.43514227720214
 20
90.6639368020745
 30
0.0
 11
111.4004100057933
 21
90.6639368020745
 31
0.0
  0
LINE
  5
C69D
330
1F
100
AcDbEntity
  8
AM_1
370
    30
100
AcDbLine
 10
111.4004100057933
 20
90.6639368020745
 30
0.0
 11
111.4004100057934
 21
13.16393680207452
 31
0.0
  0
LINE
  5
C6A0
330
1F
100
AcDbEntity
  8
AM_1
370
    30
100
AcDbLine
 10
90.43514227720214
 20
88.1639368020745
 30
0.0
 11
111.4004100057933
 21
88.1639368020745
 31
0.0
  0
LINE
  5
C6A1
330
1F
100
AcDbEntity
  8
AM_2
100
AcDbLine
 10
90.43514227720214
 20
85.6639368020745
 30
0.0
 11
111.4004100057933
 21
85.6639368020745
 31
0.0
  0
LINE
  5
C6A2
330
1F
100
AcDbEntity
  8
AM_2
100
AcDbLine
 10
90.43514227720214
 20
83.1639368020745
 30
0.0
 11
111.4004100057933
 21
83.1639368020745
 31
0.0
  0
LINE
  5
C6A4
330
1F
100
AcDbEntity
  8
AM_2
100
AcDbLine
 10
90.43514227720214
 20
68.16393680207451
 30
0.0
 11
111.4004100057933
 21
68.16393680207451
 31
0.0
  0
LINE
  5
C6A5
330
1F
100
AcDbEntity
  8
AM_2
100
AcDbLine
 10
90.43514227720214
 20
65.66393680207451
 30
0.0
 11
111.4004100057933
 21
65.66393680207451
 31
0.0
  0
LINE
  5
C6A6
330
1F
100
AcDbEntity
  8
AM_2
100
AcDbLine
 10
90.43514227720214
 20
63.16393680207451
 30
0.0
 11
111.4004100057933
 21
63.16393680207451
 31
0.0
  0
LINE
  5
C6A7
330
1F
100
AcDbEntity
  8
AM_2
100
AcDbLine
 10
90.43514227720214
 20
60.66393680207451
 30
0.0
 11
111.4004100057933
 21
60.66393680207451
 31
0.0
  0
LINE
  5
C6A8
330
1F
100
AcDbEntity
  8
AM_2
100
AcDbLine
 10
90.43514227720214
 20
58.16393680207451
 30
0.0
 11
111.4004100057933
 21
58.16393680207451
 31
0.0
  0
LINE
  5
C6A9
330
1F
100
AcDbEntity
  8
AM_1
370
    30
100
AcDbLine
 10
90.43514227720214
 20
50.66393680207451
 30
0.0
 11
111.4004100057933
 21
50.66393680207451
 31
0.0
  0
LINE
  5
C6AA
330
1F
100
AcDbEntity
  8
AM_2
100
AcDbLine
 10
90.43514227720214
 20
48.16393680207451
 30
0.0
 11
111.4004100057933
 21
48.16393680207451
 31
0.0
  0
LINE
  5
C6AB
330
1F
100
AcDbEntity
  8
AM_2
100
AcDbLine
 10
90.43514227720214
 20
45.66393680207451
 30
0.0
 11
111.4004100057933
 21
45.66393680207451
 31
0.0
  0
LINE
  5
C6AC
330
1F
100
AcDbEntity
  8
AM_2
100
AcDbLine
 10
90.43514227720214
 20
43.16393680207451
 30
0.0
 11
111.4004100057933
 21
43.16393680207451
 31
0.0
  0
LINE
  5
C6AD
330
1F
100
AcDbEntity
  8
AM_1
370
    30
100
AcDbLine
 10
90.43514227720214
 20
38.16393680207452
 30
0.0
 11
111.4004100057934
 21
38.16393680207452
 31
0.0
  0
LINE
  5
C6AE
330
1F
100
AcDbEntity
  8
AM_2
100
AcDbLine
 10
90.43514227720214
 20
35.66393680207452
 30
0.0
 11
111.4004100057934
 21
35.66393680207452
 31
0.0
  0
LINE
  5
C6AF
330
1F
100
AcDbEntity
  8
AM_2
100
AcDbLine
 10
90.43514227720214
 20
33.16393680207452
 30
0.0
 11
111.4004100057934
 21
33.16393680207452
 31
0.0
  0
LINE
  5
C6B0
330
1F
100
AcDbEntity
  8
AM_2
100
AcDbLine
 10
90.43514227720214
 20
30.66393680207452
 30
0.0
 11
111.4004100057934
 21
30.66393680207452
 31
0.0
  0
LINE
  5
C6B1
330
1F
100
AcDbEntity
  8
AM_1
370
    30
100
AcDbLine
 10
90.43514227720214
 20
28.16393680207452
 30
0.0
 11
111.4004100057934
 21
28.16393680207452
 31
0.0
  0
LINE
  5
C6B2
330
1F
100
AcDbEntity
  8
AM_2
100
AcDbLine
 10
90.43514227720214
 20
25.66393680207452
 30
0.0
 11
111.4004100057934
 21
25.66393680207452
 31
0.0
  0
LINE
  5
C6B3
330
1F
100
AcDbEntity
  8
AM_2
100
AcDbLine
 10
90.43514227720214
 20
23.16393680207452
 30
0.0
 11
111.4004100057934
 21
23.16393680207452
 31
0.0
  0
LINE
  5
C6B4
330
1F
100
AcDbEntity
  8
AM_2
100
AcDbLine
 10
90.43514227720214
 20
20.66393680207452
 30
0.0
 11
111.4004100057934
 21
20.66393680207452
 31
0.0
  0
LINE
  5
C6B5
330
1F
100
AcDbEntity
  8
AM_2
100
AcDbLine
 10
90.43514227720214
 20
18.16393680207452
 30
0.0
 11
111.4004100057933
 21
18.16393680207452
 31
0.0
  0
LINE
  5
C6B6
330
1F
100
AcDbEntity
  8
AM_1
370
    30
100
AcDbLine
 10
90.43514227720214
 20
13.16393680207452
 30
0.0
 11
111.4004100057933
 21
13.16393680207452
 31
0.0
  0
LINE
  5
C6B7
330
1F
100
AcDbEntity
  8
AM_2
100
AcDbLine
 10
115.9596019746415
 20
85.6639368020745
 30
0.0
 11
136.9248697032327
 21
85.6639368020745
 31
0.0
  0
LINE
  5
C6B8
330
1F
100
AcDbEntity
  8
AM_2
100
AcDbLine
 10
115.9596019746415
 20
83.1639368020745
 30
0.0
 11
136.9248697032327
 21
83.1639368020745
 31
0.0
  0
LINE
  5
C6B9
330
1F
100
AcDbEntity
  8
AM_2
100
AcDbLine
 10
115.9596019746415
 20
80.6639368020745
 30
0.0
 11
136.9248697032327
 21
80.6639368020745
 31
0.0
  0
LINE
  5
C6BA
330
1F
100
AcDbEntity
  8
AM_2
100
AcDbLine
 10
115.9596019746415
 20
78.1639368020745
 30
0.0
 11
136.9248697032327
 21
78.1639368020745
 31
0.0
  0
LINE
  5
C6BB
330
1F
100
AcDbEntity
  8
AM_2
100
AcDbLine
 10
115.9596019746415
 20
75.6639368020745
 30
0.0
 11
136.9248697032327
 21
75.6639368020745
 31
0.0
  0
LINE
  5
C6BC
330
1F
100
AcDbEntity
  8
AM_2
100
AcDbLine
 10
115.9596019746415
 20
73.1639368020745
 30
0.0
 11
136.9248697032327
 21
73.1639368020745
 31
0.0
  0
LINE
  5
C6BD
330
1F
100
AcDbEntity
  8
AM_1
370
    30
100
AcDbLine
 10
115.9596019746415
 20
68.1639368020745
 30
0.0
 11
136.9248697032327
 21
68.1639368020745
 31
0.0
  0
LINE
  5
C6BF
330
1F
100
AcDbEntity
  8
AM_1
370
    30
100
AcDbLine
 10
102.6053762486441
 20
90.6639368020745
 30
0.0
 11
102.6053762486441
 21
13.16393680207452
 31
0.0
  0
LINE
  5
C6C0
330
1F
100
AcDbEntity
  8
AM_2
100
AcDbLine
 10
107.0028931272188
 20
13.16393680207452
 30
0.0
 11
107.0028931272188
 21
90.66393680207452
 31
0.0
  0
MTEXT
  5
C6C5
330
1F
100
AcDbEntity
  8
AM_6
100
AcDbMText
 10
107.2439458309433
 20
69.41139813229066
 30
0.0
 40
1.6
 41
45.0
 71
     4
 72
     5
  1
　5
 73
     1
 44
1.0
1001
ACAD
1000
MTEXTBEGIN
1070
    73
1070
     1
1070
    44
1040
1.0
1070
    74
1070
     0
1000
MTEXTEND
  0
MTEXT
  5
C6ED
330
1F
100
AcDbEntity
  8
AM_6
100
AcDbMText
 10
107.2439458309433
 20
26.91139813229066
 30
0.0
 40
1.6
 41
45.0
 71
     4
 72
     5
  1
　8
 73
     1
 44
1.0
1001
ACAD
1000
MTEXTBEGIN
1070
    73
1070
     1
1070
    44
1040
1.0
1070
    74
1070
     0
1000
MTEXTEND
  0
MTEXT
  5
C6FC
330
1F
100
AcDbEntity
  8
AM_6
100
AcDbMText
 10
127.8301088748023
 20
86.91139813229064
 30
0.0
 40
1.6
 41
45.0
 71
     4
 72
     5
  1
　10
 73
     1
 44
1.0
1001
ACAD
1000
MTEXTBEGIN
1070
    73
1070
     1
1070
    44
1040
1.0
1070
    74
1070
     0
1000
MTEXTEND
  0
MTEXT
  5
C6FD
330
1F
100
AcDbEntity
  8
AM_6
100
AcDbMText
 10
116.5068188827109
 20
84.41139813229064
 30
0.0
 40
1.6
 41
45.0
 71
     4
 72
     5
  1
EBGS-10-15
 73
     1
 44
1.0
1001
ACAD
1000
MTEXTBEGIN
1070
    73
1070
     1
1070
    44
1040
1.0
1070
    74
1070
     0
1000
MTEXTEND
  0
MTEXT
  5
C6FE
330
1F
100
AcDbEntity
  8
AM_6
100
AcDbMText
 10
132.2276257533768
 20
84.41139813229064
 30
0.0
 40
1.6
 41
45.0
 71
     4
 72
     5
  1
　15
 73
     1
 44
1.0
1001
ACAD
1000
MTEXTBEGIN
1070
    73
1070
     1
1070
    44
1040
1.0
1070
    74
1070
     0
1000
MTEXTEND
  0
MTEXT
  5
C6FF
330
1F
100
AcDbEntity
  8
AM_6
100
AcDbMText
 10
127.8301088748023
 20
84.41139813229064
 30
0.0
 40
1.6
 41
45.0
 71
     4
 72
     5
  1
　10
 73
     1
 44
1.0
1001
ACAD
1000
MTEXTBEGIN
1070
    73
1070
     1
1070
    44
1040
1.0
1070
    74
1070
     0
1000
MTEXTEND
  0
MTEXT
  5
C700
330
1F
100
AcDbEntity
  8
AM_6
100
AcDbMText
 10
116.5068188827109
 20
81.91139813229064
 30
0.0
 40
1.6
 41
45.0
 71
     4
 72
     5
  1
EBGS-10-20
 73
     1
 44
1.0
1001
ACAD
1000
MTEXTBEGIN
1070
    73
1070
     1
1070
    44
1040
1.0
1070
    74
1070
     0
1000
MTEXTEND
  0
MTEXT
  5
C701
330
1F
100
AcDbEntity
  8
AM_6
100
AcDbMText
 10
132.2276257533768
 20
81.91139813229064
 30
0.0
 40
1.6
 41
45.0
 71
     4
 72
     5
  1
　20
 73
     1
 44
1.0
1001
ACAD
1000
MTEXTBEGIN
1070
    73
1070
     1
1070
    44
1040
1.0
1070
    74
1070
     0
1000
MTEXTEND
  0
MTEXT
  5
C702
330
1F
100
AcDbEntity
  8
AM_6
100
AcDbMText
 10
127.8301088748023
 20
81.91139813229064
 30
0.0
 40
1.6
 41
45.0
 71
     4
 72
     5
  1
　10
 73
     1
 44
1.0
1001
ACAD
1000
MTEXTBEGIN
1070
    73
1070
     1
1070
    44
1040
1.0
1070
    74
1070
     0
1000
MTEXTEND
  0
MTEXT
  5
C703
330
1F
100
AcDbEntity
  8
AM_6
100
AcDbMText
 10
116.5068188827109
 20
79.41139813229064
 30
0.0
 40
1.6
 41
45.0
 71
     4
 72
     5
  1
EBGS-10-25
 73
     1
 44
1.0
1001
ACAD
1000
MTEXTBEGIN
1070
    73
1070
     1
1070
    44
1040
1.0
1070
    74
1070
     0
1000
MTEXTEND
  0
MTEXT
  5
C704
330
1F
100
AcDbEntity
  8
AM_6
100
AcDbMText
 10
132.2276257533768
 20
79.41139813229064
 30
0.0
 40
1.6
 41
45.0
 71
     4
 72
     5
  1
　25
 73
     1
 44
1.0
1001
ACAD
1000
MTEXTBEGIN
1070
    73
1070
     1
1070
    44
1040
1.0
1070
    74
1070
     0
1000
MTEXTEND
  0
MTEXT
  5
C705
330
1F
100
AcDbEntity
  8
AM_6
100
AcDbMText
 10
127.8301088748023
 20
79.41139813229064
 30
0.0
 40
1.6
 41
45.0
 71
     4
 72
     5
  1
　10
 73
     1
 44
1.0
1001
ACAD
1000
MTEXTBEGIN
1070
    73
1070
     1
1070
    44
1040
1.0
1070
    74
1070
     0
1000
MTEXTEND
  0
MTEXT
  5
C706
330
1F
100
AcDbEntity
  8
AM_6
100
AcDbMText
 10
116.5068188827109
 20
76.91139813229064
 30
0.0
 40
1.6
 41
45.0
 71
     4
 72
     5
  1
EBGS-10-30
 73
     1
 44
1.0
1001
ACAD
1000
MTEXTBEGIN
1070
    73
1070
     1
1070
    44
1040
1.0
1070
    74
1070
     0
1000
MTEXTEND
  0
MTEXT
  5
C707
330
1F
100
AcDbEntity
  8
AM_6
100
AcDbMText
 10
132.2276257533768
 20
76.91139813229064
 30
0.0
 40
1.6
 41
45.0
 71
     4
 72
     5
  1
　30
 73
     1
 44
1.0
1001
ACAD
1000
MTEXTBEGIN
1070
    73
1070
     1
1070
    44
1040
1.0
1070
    74
1070
     0
1000
MTEXTEND
  0
MTEXT
  5
C708
330
1F
100
AcDbEntity
  8
AM_6
100
AcDbMText
 10
127.8301088748023
 20
76.91139813229064
 30
0.0
 40
1.6
 41
45.0
 71
     4
 72
     5
  1
　10
 73
     1
 44
1.0
1001
ACAD
1000
MTEXTBEGIN
1070
    73
1070
     1
1070
    44
1040
1.0
1070
    74
1070
     0
1000
MTEXTEND
  0
MTEXT
  5
C709
330
1F
100
AcDbEntity
  8
AM_6
100
AcDbMText
 10
116.5068188827109
 20
74.41139813229064
 30
0.0
 40
1.6
 41
45.0
 71
     4
 72
     5
  1
EBGS-10-35
 73
     1
 44
1.0
1001
ACAD
1000
MTEXTBEGIN
1070
    73
1070
     1
1070
    44
1040
1.0
1070
    74
1070
     0
1000
MTEXTEND
  0
MTEXT
  5
C70A
330
1F
100
AcDbEntity
  8
AM_6
100
AcDbMText
 10
132.2276257533768
 20
74.41139813229064
 30
0.0
 40
1.6
 41
45.0
 71
     4
 72
     5
  1
　35
 73
     1
 44
1.0
1001
ACAD
1000
MTEXTBEGIN
1070
    73
1070
     1
1070
    44
1040
1.0
1070
    74
1070
     0
1000
MTEXTEND
  0
MTEXT
  5
C70B
330
1F
100
AcDbEntity
  8
AM_6
100
AcDbMText
 10
127.8301088748023
 20
74.41139813229064
 30
0.0
 40
1.6
 41
45.0
 71
     4
 72
     5
  1
　10
 73
     1
 44
1.0
1001
ACAD
1000
MTEXTBEGIN
1070
    73
1070
     1
1070
    44
1040
1.0
1070
    74
1070
     0
1000
MTEXTEND
  0
MTEXT
  5
C70C
330
1F
100
AcDbEntity
  8
AM_6
100
AcDbMText
 10
116.506818882711
 20
71.91139813229064
 30
0.0
 40
1.6
 41
45.0
 71
     4
 72
     5
  1
EBGS-10-40
 73
     1
 44
1.0
1001
ACAD
1000
MTEXTBEGIN
1070
    73
1070
     1
1070
    44
1040
1.0
1070
    74
1070
     0
1000
MTEXTEND
  0
MTEXT
  5
C70D
330
1F
100
AcDbEntity
  8
AM_6
100
AcDbMText
 10
132.2276257533768
 20
71.91139813229064
 30
0.0
 40
1.6
 41
45.0
 71
     4
 72
     5
  1
　40
 73
     1
 44
1.0
1001
ACAD
1000
MTEXTBEGIN
1070
    73
1070
     1
1070
    44
1040
1.0
1070
    74
1070
     0
1000
MTEXTEND
  0
MTEXT
  5
C70E
330
1F
100
AcDbEntity
  8
AM_6
100
AcDbMText
 10
127.8301088748023
 20
71.91139813229064
 30
0.0
 40
1.6
 41
45.0
 71
     4
 72
     5
  1
　10
 73
     1
 44
1.0
1001
ACAD
1000
MTEXTBEGIN
1070
    73
1070
     1
1070
    44
1040
1.0
1070
    74
1070
     0
1000
MTEXTEND
  0
LINE
  5
C723
330
1F
100
AcDbEntity
  8
AM_1
370
    30
100
AcDbLine
 10
90.43514227720214
 20
13.16393680207452
 30
0.0
 11
90.43514227720214
 21
90.6639368020745
 31
0.0
  0
MTEXT
  5
C736
330
1F
100
AcDbEntity
  8
AM_6
100
AcDbMText
 10
118.826501454626
 20
89.41139813229064
 30
0.0
 40
1.6
 41
45.0
 71
     4
 72
     5
  1
　品　番
 73
     1
 44
1.0
1001
ACAD
1000
MTEXTBEGIN
1070
    73
1070
     1
1070
    44
1040
1.0
1070
    74
1070
     0
1000
MTEXTEND
  0
MTEXT
  5
C737
330
1F
100
AcDbEntity
  8
AM_6
100
AcDbMText
 10
128.3708886498081
 20
89.41139813229064
 30
0.0
 40
1.6
 41
45.0
 71
     4
 72
     5
  1
　H
 73
     1
 44
1.0
1001
ACAD
1000
MTEXTBEGIN
1070
    73
1070
     1
1070
    44
1040
1.0
1070
    74
1070
     0
1000
MTEXTEND
  0
MTEXT
  5
C738
330
1F
100
AcDbEntity
  8
AM_6
100
AcDbMText
 10
132.7684055283827
 20
89.41139813229064
 30
0.0
 40
1.6
 41
45.0
 71
     4
 72
     5
  1
　W
 73
     1
 44
1.0
1001
ACAD
1000
MTEXTBEGIN
1070
    73
1070
     1
1070
    44
1040
1.0
1070
    74
1070
     0
1000
MTEXTEND
  0
LINE
  5
C77B
330
1F
100
AcDbEntity
  8
AM_1
370
    30
100
AcDbLine
 10
115.9596019746415
 20
53.1639368020745
 30
0.0
 11
136.9248697032327
 21
53.1639368020745
 31
0.0
  0
LINE
  5
C77C
330
1F
100
AcDbEntity
  8
AM_1
370
    30
100
AcDbLine
 10
115.9596019746415
 20
90.6639368020745
 30
0.0
 11
136.9248697032327
 21
90.6639368020745
 31
0.0
  0
LINE
  5
C77D
330
1F
100
AcDbEntity
  8
AM_1
370
    30
100
AcDbLine
 10
136.9248697032327
 20
90.6639368020745
 30
0.0
 11
136.9248697032328
 21
10.6639368020745
 31
0.0
  0
LINE
  5
C77F
330
1F
100
AcDbEntity
  8
AM_1
370
    30
100
AcDbLine
 10
115.9596019746415
 20
88.1639368020745
 30
0.0
 11
136.9248697032327
 21
88.1639368020745
 31
0.0
  0
LINE
  5
C780
330
1F
100
AcDbEntity
  8
AM_2
100
AcDbLine
 10
115.9596019746415
 20
65.6639368020745
 30
0.0
 11
136.9248697032327
 21
65.6639368020745
 31
0.0
  0
LINE
  5
C781
330
1F
100
AcDbEntity
  8
AM_2
100
AcDbLine
 10
115.9596019746415
 20
63.1639368020745
 30
0.0
 11
136.9248697032327
 21
63.1639368020745
 31
0.0
  0
LINE
  5
C782
330
1F
100
AcDbEntity
  8
AM_2
100
AcDbLine
 10
115.9596019746415
 20
50.6639368020745
 30
0.0
 11
136.9248697032327
 21
50.6639368020745
 31
0.0
  0
LINE
  5
C783
330
1F
100
AcDbEntity
  8
AM_2
100
AcDbLine
 10
115.9596019746415
 20
48.1639368020745
 30
0.0
 11
136.9248697032327
 21
48.1639368020745
 31
0.0
  0
LINE
  5
C784
330
1F
100
AcDbEntity
  8
AM_2
100
AcDbLine
 10
115.9596019746415
 20
45.6639368020745
 30
0.0
 11
136.9248697032327
 21
45.6639368020745
 31
0.0
  0
LINE
  5
C785
330
1F
100
AcDbEntity
  8
AM_2
100
AcDbLine
 10
115.9596019746415
 20
43.1639368020745
 30
0.0
 11
136.9248697032327
 21
43.1639368020745
 31
0.0
  0
LINE
  5
C786
330
1F
100
AcDbEntity
  8
AM_1
370
    30
100
AcDbLine
 10
115.9596019746415
 20
38.1639368020745
 30
0.0
 11
136.9248697032327
 21
38.1639368020745
 31
0.0
  0
LINE
  5
C787
330
1F
100
AcDbEntity
  8
AM_1
370
    30
100
AcDbLine
 10
115.9596019746415
 20
35.6639368020745
 30
0.0
 11
136.9248697032327
 21
35.6639368020745
 31
0.0
  0
LINE
  5
C788
330
1F
100
AcDbEntity
  8
AM_2
100
AcDbLine
 10
115.9596019746415
 20
33.1639368020745
 30
0.0
 11
136.9248697032327
 21
33.1639368020745
 31
0.0
  0
LINE
  5
C789
330
1F
100
AcDbEntity
  8
AM_2
100
AcDbLine
 10
115.9596019746415
 20
30.66393680207451
 30
0.0
 11
136.9248697032327
 21
30.66393680207451
 31
0.0
  0
LINE
  5
C78A
330
1F
100
AcDbEntity
  8
AM_2
100
AcDbLine
 10
115.9596019746415
 20
28.16393680207451
 30
0.0
 11
136.9248697032327
 21
28.16393680207451
 31
0.0
  0
LINE
  5
C78B
330
1F
100
AcDbEntity
  8
AM_2
100
AcDbLine
 10
115.9596019746415
 20
25.66393680207451
 30
0.0
 11
136.9248697032327
 21
25.66393680207451
 31
0.0
  0
LINE
  5
C78C
330
1F
100
AcDbEntity
  8
AM_1
370
    30
100
AcDbLine
 10
115.9596019746415
 20
23.1639368020745
 30
0.0
 11
136.9248697032327
 21
23.1639368020745
 31
0.0
  0
LINE
  5
C78D
330
1F
100
AcDbEntity
  8
AM_2
100
AcDbLine
 10
115.9596019746415
 20
13.1639368020745
 30
0.0
 11
136.9248697032327
 21
13.1639368020745
 31
0.0
  0
LINE
  5
C78E
330
1F
100
AcDbEntity
  8
AM_1
370
    30
100
AcDbLine
 10
115.9596019746415
 20
10.6639368020745
 30
0.0
 11
136.9248697032327
 21
10.6639368020745
 31
0.0
  0
LINE
  5
C79C
330
1F
100
AcDbEntity
  8
AM_1
370
    30
100
AcDbLine
 10
128.1298359460835
 20
90.6639368020745
 30
0.0
 11
128.1298359460836
 21
10.6639368020745
 31
0.0
  0
MTEXT
  5
C7B3
330
1F
100
AcDbEntity
  8
AM_6
100
AcDbMText
 10
116.506818882711
 20
66.91139813229064
 30
0.0
 40
1.6
 41
45.0
 71
     4
 72
     5
  1
EBGS-12-12
 73
     1
 44
1.0
1001
ACAD
1000
MTEXTBEGIN
1070
    73
1070
     1
1070
    44
1040
1.0
1070
    74
1070
     0
1000
MTEXTEND
  0
MTEXT
  5
C7B4
330
1F
100
AcDbEntity
  8
AM_6
100
AcDbMText
 10
132.2276257533768
 20
66.91139813229064
 30
0.0
 40
1.6
 41
45.0
 71
     4
 72
     5
  1
　12
 73
     1
 44
1.0
1001
ACAD
1000
MTEXTBEGIN
1070
    73
1070
     1
1070
    44
1040
1.0
1070
    74
1070
     0
1000
MTEXTEND
  0
MTEXT
  5
C7B5
330
1F
100
AcDbEntity
  8
AM_6
100
AcDbMText
 10
127.8301088748023
 20
66.91139813229064
 30
0.0
 40
1.6
 41
45.0
 71
     4
 72
     5
  1
　12
 73
     1
 44
1.0
1001
ACAD
1000
MTEXTBEGIN
1070
    73
1070
     1
1070
    44
1040
1.0
1070
    74
1070
     0
1000
MTEXTEND
  0
MTEXT
  5
C7B6
330
1F
100
AcDbEntity
  8
AM_6
100
AcDbMText
 10
116.506818882711
 20
64.41139813229066
 30
0.0
 40
1.6
 41
45.0
 71
     4
 72
     5
  1
EBGS-12-15
 73
     1
 44
1.0
1001
ACAD
1000
MTEXTBEGIN
1070
    73
1070
     1
1070
    44
1040
1.0
1070
    74
1070
     0
1000
MTEXTEND
  0
MTEXT
  5
C7B7
330
1F
100
AcDbEntity
  8
AM_6
100
AcDbMText
 10
132.2276257533768
 20
64.41139813229066
 30
0.0
 40
1.6
 41
45.0
 71
     4
 72
     5
  1
　15
 73
     1
 44
1.0
1001
ACAD
1000
MTEXTBEGIN
1070
    73
1070
     1
1070
    44
1040
1.0
1070
    74
1070
     0
1000
MTEXTEND
  0
MTEXT
  5
C7B8
330
1F
100
AcDbEntity
  8
AM_6
100
AcDbMText
 10
127.8301088748023
 20
64.41139813229066
 30
0.0
 40
1.6
 41
45.0
 71
     4
 72
     5
  1
　12
 73
     1
 44
1.0
1001
ACAD
1000
MTEXTBEGIN
1070
    73
1070
     1
1070
    44
1040
1.0
1070
    74
1070
     0
1000
MTEXTEND
  0
MTEXT
  5
C7B9
330
1F
100
AcDbEntity
  8
AM_6
100
AcDbMText
 10
116.506818882711
 20
61.91139813229064
 30
0.0
 40
1.6
 41
45.0
 71
     4
 72
     5
  1
EBGS-12-20
 73
     1
 44
1.0
1001
ACAD
1000
MTEXTBEGIN
1070
    73
1070
     1
1070
    44
1040
1.0
1070
    74
1070
     0
1000
MTEXTEND
  0
MTEXT
  5
C7BA
330
1F
100
AcDbEntity
  8
AM_6
100
AcDbMText
 10
132.2276257533768
 20
61.91139813229064
 30
0.0
 40
1.6
 41
45.0
 71
     4
 72
     5
  1
　20
 73
     1
 44
1.0
1001
ACAD
1000
MTEXTBEGIN
1070
    73
1070
     1
1070
    44
1040
1.0
1070
    74
1070
     0
1000
MTEXTEND
  0
MTEXT
  5
C7BB
330
1F
100
AcDbEntity
  8
AM_6
100
AcDbMText
 10
127.8301088748023
 20
61.91139813229064
 30
0.0
 40
1.6
 41
45.0
 71
     4
 72
     5
  1
　12
 73
     1
 44
1.0
1001
ACAD
1000
MTEXTBEGIN
1070
    73
1070
     1
1070
    44
1040
1.0
1070
    74
1070
     0
1000
MTEXTEND
  0
MTEXT
  5
C7BC
330
1F
100
AcDbEntity
  8
AM_6
100
AcDbMText
 10
116.506818882711
 20
51.91139813229064
 30
0.0
 40
1.6
 41
45.0
 71
     4
 72
     5
  1
EBGS-15-15
 73
     1
 44
1.0
1001
ACAD
1000
MTEXTBEGIN
1070
    73
1070
     1
1070
    44
1040
1.0
1070
    74
1070
     0
1000
MTEXTEND
  0
MTEXT
  5
C7BD
330
1F
100
AcDbEntity
  8
AM_6
100
AcDbMText
 10
132.2276257533768
 20
51.91139813229064
 30
0.0
 40
1.6
 41
45.0
 71
     4
 72
     5
  1
　15
 73
     1
 44
1.0
1001
ACAD
1000
MTEXTBEGIN
1070
    73
1070
     1
1070
    44
1040
1.0
1070
    74
1070
     0
1000
MTEXTEND
  0
MTEXT
  5
C7BE
330
1F
100
AcDbEntity
  8
AM_6
100
AcDbMText
 10
127.8301088748023
 20
51.91139813229064
 30
0.0
 40
1.6
 41
45.0
 71
     4
 72
     5
  1
　15
 73
     1
 44
1.0
1001
ACAD
1000
MTEXTBEGIN
1070
    73
1070
     1
1070
    44
1040
1.0
1070
    74
1070
     0
1000
MTEXTEND
  0
MTEXT
  5
C7BF
330
1F
100
AcDbEntity
  8
AM_6
100
AcDbMText
 10
116.506818882711
 20
49.41139813229066
 30
0.0
 40
1.6
 41
45.0
 71
     4
 72
     5
  1
EBGS-15-20
 73
     1
 44
1.0
1001
ACAD
1000
MTEXTBEGIN
1070
    73
1070
     1
1070
    44
1040
1.0
1070
    74
1070
     0
1000
MTEXTEND
  0
MTEXT
  5
C7C0
330
1F
100
AcDbEntity
  8
AM_6
100
AcDbMText
 10
132.2276257533768
 20
49.41139813229066
 30
0.0
 40
1.6
 41
45.0
 71
     4
 72
     5
  1
　20
 73
     1
 44
1.0
1001
ACAD
1000
MTEXTBEGIN
1070
    73
1070
     1
1070
    44
1040
1.0
1070
    74
1070
     0
1000
MTEXTEND
  0
MTEXT
  5
C7C1
330
1F
100
AcDbEntity
  8
AM_6
100
AcDbMText
 10
127.8301088748023
 20
49.41139813229066
 30
0.0
 40
1.6
 41
45.0
 71
     4
 72
     5
  1
　15
 73
     1
 44
1.0
1001
ACAD
1000
MTEXTBEGIN
1070
    73
1070
     1
1070
    44
1040
1.0
1070
    74
1070
     0
1000
MTEXTEND
  0
MTEXT
  5
C7C2
330
1F
100
AcDbEntity
  8
AM_6
100
AcDbMText
 10
116.506818882711
 20
46.91139813229064
 30
0.0
 40
1.6
 41
45.0
 71
     4
 72
     5
  1
EBGS-15-25
 73
     1
 44
1.0
1001
ACAD
1000
MTEXTBEGIN
1070
    73
1070
     1
1070
    44
1040
1.0
1070
    74
1070
     0
1000
MTEXTEND
  0
MTEXT
  5
C7C3
330
1F
100
AcDbEntity
  8
AM_6
100
AcDbMText
 10
132.2276257533768
 20
46.91139813229064
 30
0.0
 40
1.6
 41
45.0
 71
     4
 72
     5
  1
　25
 73
     1
 44
1.0
1001
ACAD
1000
MTEXTBEGIN
1070
    73
1070
     1
1070
    44
1040
1.0
1070
    74
1070
     0
1000
MTEXTEND
  0
MTEXT
  5
C7C4
330
1F
100
AcDbEntity
  8
AM_6
100
AcDbMText
 10
127.8301088748023
 20
46.91139813229064
 30
0.0
 40
1.6
 41
45.0
 71
     4
 72
     5
  1
　15
 73
     1
 44
1.0
1001
ACAD
1000
MTEXTBEGIN
1070
    73
1070
     1
1070
    44
1040
1.0
1070
    74
1070
     0
1000
MTEXTEND
  0
MTEXT
  5
C7C5
330
1F
100
AcDbEntity
  8
AM_6
100
AcDbMText
 10
116.506818882711
 20
44.41139813229066
 30
0.0
 40
1.6
 41
45.0
 71
     4
 72
     5
  1
EBGS-15-30
 73
     1
 44
1.0
1001
ACAD
1000
MTEXTBEGIN
1070
    73
1070
     1
1070
    44
1040
1.0
1070
    74
1070
     0
1000
MTEXTEND
  0
MTEXT
  5
C7C6
330
1F
100
AcDbEntity
  8
AM_6
100
AcDbMText
 10
132.2276257533768
 20
44.41139813229066
 30
0.0
 40
1.6
 41
45.0
 71
     4
 72
     5
  1
　30
 73
     1
 44
1.0
1001
ACAD
1000
MTEXTBEGIN
1070
    73
1070
     1
1070
    44
1040
1.0
1070
    74
1070
     0
1000
MTEXTEND
  0
MTEXT
  5
C7C7
330
1F
100
AcDbEntity
  8
AM_6
100
AcDbMText
 10
127.8301088748023
 20
44.41139813229066
 30
0.0
 40
1.6
 41
45.0
 71
     4
 72
     5
  1
　15
 73
     1
 44
1.0
1001
ACAD
1000
MTEXTBEGIN
1070
    73
1070
     1
1070
    44
1040
1.0
1070
    74
1070
     0
1000
MTEXTEND
  0
MTEXT
  5
C7C8
330
1F
100
AcDbEntity
  8
AM_6
100
AcDbMText
 10
116.506818882711
 20
41.91139813229064
 30
0.0
 40
1.6
 41
45.0
 71
     4
 72
     5
  1
EBGS-15-35
 73
     1
 44
1.0
1001
ACAD
1000
MTEXTBEGIN
1070
    73
1070
     1
1070
    44
1040
1.0
1070
    74
1070
     0
1000
MTEXTEND
  0
MTEXT
  5
C7C9
330
1F
100
AcDbEntity
  8
AM_6
100
AcDbMText
 10
132.2276257533768
 20
41.91139813229064
 30
0.0
 40
1.6
 41
45.0
 71
     4
 72
     5
  1
　35
 73
     1
 44
1.0
1001
ACAD
1000
MTEXTBEGIN
1070
    73
1070
     1
1070
    44
1040
1.0
1070
    74
1070
     0
1000
MTEXTEND
  0
MTEXT
  5
C7CA
330
1F
100
AcDbEntity
  8
AM_6
100
AcDbMText
 10
127.8301088748023
 20
41.91139813229064
 30
0.0
 40
1.6
 41
45.0
 71
     4
 72
     5
  1
　15
 73
     1
 44
1.0
1001
ACAD
1000
MTEXTBEGIN
1070
    73
1070
     1
1070
    44
1040
1.0
1070
    74
1070
     0
1000
MTEXTEND
  0
MTEXT
  5
C7CB
330
1F
100
AcDbEntity
  8
AM_6
100
AcDbMText
 10
116.506818882711
 20
36.91139813229066
 30
0.0
 40
1.6
 41
45.0
 71
     4
 72
     5
  1
EBGS-18-18
 73
     1
 44
1.0
1001
ACAD
1000
MTEXTBEGIN
1070
    73
1070
     1
1070
    44
1040
1.0
1070
    74
1070
     0
1000
MTEXTEND
  0
MTEXT
  5
C7CC
330
1F
100
AcDbEntity
  8
AM_6
100
AcDbMText
 10
132.2276257533768
 20
36.91139813229066
 30
0.0
 40
1.6
 41
45.0
 71
     4
 72
     5
  1
　18
 73
     1
 44
1.0
1001
ACAD
1000
MTEXTBEGIN
1070
    73
1070
     1
1070
    44
1040
1.0
1070
    74
1070
     0
1000
MTEXTEND
  0
MTEXT
  5
C7CD
330
1F
100
AcDbEntity
  8
AM_6
100
AcDbMText
 10
127.8301088748023
 20
36.91139813229066
 30
0.0
 40
1.6
 41
45.0
 71
     4
 72
     5
  1
　18
 73
     1
 44
1.0
1001
ACAD
1000
MTEXTBEGIN
1070
    73
1070
     1
1070
    44
1040
1.0
1070
    74
1070
     0
1000
MTEXTEND
  0
MTEXT
  5
C7CE
330
1F
100
AcDbEntity
  8
AM_6
100
AcDbMText
 10
116.506818882711
 20
34.41139813229066
 30
0.0
 40
1.6
 41
45.0
 71
     4
 72
     5
  1
EBGS-20-20
 73
     1
 44
1.0
1001
ACAD
1000
MTEXTBEGIN
1070
    73
1070
     1
1070
    44
1040
1.0
1070
    74
1070
     0
1000
MTEXTEND
  0
MTEXT
  5
C7CF
330
1F
100
AcDbEntity
  8
AM_6
100
AcDbMText
 10
132.2276257533768
 20
34.41139813229066
 30
0.0
 40
1.6
 41
45.0
 71
     4
 72
     5
  1
　20
 73
     1
 44
1.0
1001
ACAD
1000
MTEXTBEGIN
1070
    73
1070
     1
1070
    44
1040
1.0
1070
    74
1070
     0
1000
MTEXTEND
  0
MTEXT
  5
C7D0
330
1F
100
AcDbEntity
  8
AM_6
100
AcDbMText
 10
127.8301088748023
 20
34.41139813229066
 30
0.0
 40
1.6
 41
45.0
 71
     4
 72
     5
  1
　20
 73
     1
 44
1.0
1001
ACAD
1000
MTEXTBEGIN
1070
    73
1070
     1
1070
    44
1040
1.0
1070
    74
1070
     0
1000
MTEXTEND
  0
MTEXT
  5
C7D1
330
1F
100
AcDbEntity
  8
AM_6
100
AcDbMText
 10
116.506818882711
 20
31.91139813229065
 30
0.0
 40
1.6
 41
45.0
 71
     4
 72
     5
  1
EBGS-20-25
 73
     1
 44
1.0
1001
ACAD
1000
MTEXTBEGIN
1070
    73
1070
     1
1070
    44
1040
1.0
1070
    74
1070
     0
1000
MTEXTEND
  0
MTEXT
  5
C7D2
330
1F
100
AcDbEntity
  8
AM_6
100
AcDbMText
 10
132.2276257533768
 20
31.91139813229065
 30
0.0
 40
1.6
 41
45.0
 71
     4
 72
     5
  1
　25
 73
     1
 44
1.0
1001
ACAD
1000
MTEXTBEGIN
1070
    73
1070
     1
1070
    44
1040
1.0
1070
    74
1070
     0
1000
MTEXTEND
  0
MTEXT
  5
C7D3
330
1F
100
AcDbEntity
  8
AM_6
100
AcDbMText
 10
127.8301088748023
 20
31.91139813229065
 30
0.0
 40
1.6
 41
45.0
 71
     4
 72
     5
  1
　20
 73
     1
 44
1.0
1001
ACAD
1000
MTEXTBEGIN
1070
    73
1070
     1
1070
    44
1040
1.0
1070
    74
1070
     0
1000
MTEXTEND
  0
MTEXT
  5
C7D4
330
1F
100
AcDbEntity
  8
AM_6
100
AcDbMText
 10
116.506818882711
 20
29.41139813229065
 30
0.0
 40
1.6
 41
45.0
 71
     4
 72
     5
  1
EBGS-20-30
 73
     1
 44
1.0
1001
ACAD
1000
MTEXTBEGIN
1070
    73
1070
     1
1070
    44
1040
1.0
1070
    74
1070
     0
1000
MTEXTEND
  0
MTEXT
  5
C7D5
330
1F
100
AcDbEntity
  8
AM_6
100
AcDbMText
 10
132.2276257533768
 20
29.41139813229065
 30
0.0
 40
1.6
 41
45.0
 71
     4
 72
     5
  1
　30
 73
     1
 44
1.0
1001
ACAD
1000
MTEXTBEGIN
1070
    73
1070
     1
1070
    44
1040
1.0
1070
    74
1070
     0
1000
MTEXTEND
  0
MTEXT
  5
C7D6
330
1F
100
AcDbEntity
  8
AM_6
100
AcDbMText
 10
127.8301088748023
 20
29.41139813229065
 30
0.0
 40
1.6
 41
45.0
 71
     4
 72
     5
  1
　20
 73
     1
 44
1.0
1001
ACAD
1000
MTEXTBEGIN
1070
    73
1070
     1
1070
    44
1040
1.0
1070
    74
1070
     0
1000
MTEXTEND
  0
MTEXT
  5
C7D7
330
1F
100
AcDbEntity
  8
AM_6
100
AcDbMText
 10
116.506818882711
 20
26.91139813229065
 30
0.0
 40
1.6
 41
45.0
 71
     4
 72
     5
  1
EBGS-20-35
 73
     1
 44
1.0
1001
ACAD
1000
MTEXTBEGIN
1070
    73
1070
     1
1070
    44
1040
1.0
1070
    74
1070
     0
1000
MTEXTEND
  0
MTEXT
  5
C7D8
330
1F
100
AcDbEntity
  8
AM_6
100
AcDbMText
 10
132.2276257533768
 20
26.91139813229065
 30
0.0
 40
1.6
 41
45.0
 71
     4
 72
     5
  1
　35
 73
     1
 44
1.0
1001
ACAD
1000
MTEXTBEGIN
1070
    73
1070
     1
1070
    44
1040
1.0
1070
    74
1070
     0
1000
MTEXTEND
  0
MTEXT
  5
C7D9
330
1F
100
AcDbEntity
  8
AM_6
100
AcDbMText
 10
127.8301088748023
 20
26.91139813229065
 30
0.0
 40
1.6
 41
45.0
 71
     4
 72
     5
  1
　20
 73
     1
 44
1.0
1001
ACAD
1000
MTEXTBEGIN
1070
    73
1070
     1
1070
    44
1040
1.0
1070
    74
1070
     0
1000
MTEXTEND
  0
MTEXT
  5
C7DA
330
1F
100
AcDbEntity
  8
AM_6
100
AcDbMText
 10
116.506818882711
 20
24.41139813229065
 30
0.0
 40
1.6
 41
45.0
 71
     4
 72
     5
  1
EBGS-20-40
 73
     1
 44
1.0
1001
ACAD
1000
MTEXTBEGIN
1070
    73
1070
     1
1070
    44
1040
1.0
1070
    74
1070
     0
1000
MTEXTEND
  0
MTEXT
  5
C7DB
330
1F
100
AcDbEntity
  8
AM_6
100
AcDbMText
 10
132.2276257533768
 20
24.41139813229065
 30
0.0
 40
1.6
 41
45.0
 71
     4
 72
     5
  1
　40
 73
     1
 44
1.0
1001
ACAD
1000
MTEXTBEGIN
1070
    73
1070
     1
1070
    44
1040
1.0
1070
    74
1070
     0
1000
MTEXTEND
  0
MTEXT
  5
C7DC
330
1F
100
AcDbEntity
  8
AM_6
100
AcDbMText
 10
127.8301088748023
 20
24.41139813229065
 30
0.0
 40
1.6
 41
45.0
 71
     4
 72
     5
  1
　20
 73
     1
 44
1.0
1001
ACAD
1000
MTEXTBEGIN
1070
    73
1070
     1
1070
    44
1040
1.0
1070
    74
1070
     0
1000
MTEXTEND
  0
MTEXT
  5
C7DD
330
1F
100
AcDbEntity
  8
AM_6
100
AcDbMText
 10
116.506818882711
 20
14.41139813229064
 30
0.0
 40
1.6
 41
45.0
 71
     4
 72
     5
  1
EBGS-30-30
 73
     1
 44
1.0
1001
ACAD
1000
MTEXTBEGIN
1070
    73
1070
     1
1070
    44
1040
1.0
1070
    74
1070
     0
1000
MTEXTEND
  0
MTEXT
  5
C7DE
330
1F
100
AcDbEntity
  8
AM_6
100
AcDbMText
 10
132.2276257533768
 20
14.41139813229064
 30
0.0
 40
1.6
 41
45.0
 71
     4
 72
     5
  1
　30
 73
     1
 44
1.0
1001
ACAD
1000
MTEXTBEGIN
1070
    73
1070
     1
1070
    44
1040
1.0
1070
    74
1070
     0
1000
MTEXTEND
  0
MTEXT
  5
C7DF
330
1F
100
AcDbEntity
  8
AM_6
100
AcDbMText
 10
127.8301088748023
 20
14.41139813229064
 30
0.0
 40
1.6
 41
45.0
 71
     4
 72
     5
  1
　30
 73
     1
 44
1.0
1001
ACAD
1000
MTEXTBEGIN
1070
    73
1070
     1
1070
    44
1040
1.0
1070
    74
1070
     0
1000
MTEXTEND
  0
MTEXT
  5
C7E0
330
1F
100
AcDbEntity
  8
AM_6
100
AcDbMText
 10
116.506818882711
 20
11.91139813229064
 30
0.0
 40
1.6
 41
45.0
 71
     4
 72
     5
  1
EBGS-30-40
 73
     1
 44
1.0
1001
ACAD
1000
MTEXTBEGIN
1070
    73
1070
     1
1070
    44
1040
1.0
1070
    74
1070
     0
1000
MTEXTEND
  0
MTEXT
  5
C7E1
330
1F
100
AcDbEntity
  8
AM_6
100
AcDbMText
 10
132.2276257533768
 20
11.91139813229064
 30
0.0
 40
1.6
 41
45.0
 71
     4
 72
     5
  1
　40
 73
     1
 44
1.0
1001
ACAD
1000
MTEXTBEGIN
1070
    73
1070
     1
1070
    44
1040
1.0
1070
    74
1070
     0
1000
MTEXTEND
  0
MTEXT
  5
C7E2
330
1F
100
AcDbEntity
  8
AM_6
100
AcDbMText
 10
127.8301088748023
 20
11.91139813229064
 30
0.0
 40
1.6
 41
45.0
 71
     4
 72
     5
  1
　30
 73
     1
 44
1.0
1001
ACAD
1000
MTEXTBEGIN
1070
    73
1070
     1
1070
    44
1040
1.0
1070
    74
1070
     0
1000
MTEXTEND
  0
LINE
  5
C83A
330
1F
100
AcDbEntity
  8
AM_2
100
AcDbLine
 10
132.5273528246581
 20
10.6639368020745
 30
0.0
 11
132.5273528246581
 21
90.66393680207452
 31
0.0
  0
LINE
  5
C83C
330
1F
100
AcDbEntity
  8
AM_1
370
    30
100
AcDbLine
 10
115.9596019746415
 20
10.6639368020745
 30
0.0
 11
115.9596019746415
 21
90.6639368020745
 31
0.0
  0
MTEXT
  5
C8B2
330
1F
100
AcDbEntity
  8
AM_6
100
AcDbMText
 10
15.34299021331603
 20
66.88326706183764
 30
0.0
 40
1.6
 41
45.0
 71
     4
 72
     5
  1
　項　目
 73
     1
 44
1.0
1001
ACAD
1000
MTEXTBEGIN
1070
    73
1070
     1
1070
    44
1040
1.0
1070
    74
1070
     0
1000
MTEXTEND
  0
MTEXT
  5
C8B3
330
1F
100
AcDbEntity
  8
AM_6
100
AcDbMText
 10
35.13831260471123
 20
66.88326706183764
 30
0.0
 40
1.6
 41
45.0
 71
     4
 72
     5
  1
　値
 73
     1
 44
1.0
1001
ACAD
1000
MTEXTBEGIN
1070
    73
1070
     1
1070
    44
1040
1.0
1070
    74
1070
     0
1000
MTEXTEND
  0
LINE
  5
C8B6
330
1F
100
AcDbEntity
  8
AM_1
370
    30
100
AcDbLine
 10
12.47609073333146
 20
68.38409397290931
 30
0.0
 11
41.45986136277132
 21
68.3840939729093
 31
0.0
  0
LINE
  5
C8B7
330
1F
100
AcDbEntity
  8
AM_1
370
    30
100
AcDbLine
 10
41.45986136277131
 20
68.38409397290931
 30
0.0
 11
41.45986136277135
 21
8.384093972909298
 31
0.0
  0
LINE
  5
C8B8
330
1F
100
AcDbEntity
  8
AM_1
370
    30
100
AcDbLine
 10
12.4760907333315
 20
8.384093972909312
 30
0.0
 11
12.47609073333146
 21
68.38409397290931
 31
0.0
  0
LINE
  5
C8B9
330
1F
100
AcDbEntity
  8
AM_0
100
AcDbLine
 10
12.47609073333146
 20
65.38409397290931
 30
0.0
 11
41.45986136277132
 21
65.38409397290931
 31
0.0
  0
LINE
  5
C8C9
330
1F
100
AcDbEntity
  8
AM_1
370
    30
100
AcDbLine
 10
32.6648276056221
 20
68.38409397290931
 30
0.0
 11
32.66482760562214
 21
8.384093972909301
 31
0.0
  0
MTEXT
  5
C8CB
330
1F
100
AcDbEntity
  8
AM_6
100
AcDbMText
 10
13.02330764140093
 20
63.98146307836035
 30
0.0
 40
1.6
 41
45.0
 71
     4
 72
     5
  1
見掛比重
 73
     1
 44
1.0
1001
ACAD
1000
MTEXTBEGIN
1070
    73
1070
     1
1070
    44
1040
1.0
1070
    74
1070
     0
1000
MTEXTEND
  0
MTEXT
  5
C8CE
330
1F
100
AcDbEntity
  8
AM_6
100
AcDbMText
 10
13.02330764140093
 20
60.81034864584187
 30
0.0
 40
1.6
 41
45.0
 71
     4
 72
     5
  1
硬度（スポンジ硬度）
 73
     1
 44
1.0
1001
ACAD
1000
MTEXTBEGIN
1070
    73
1070
     1
1070
    44
1040
1.0
1070
    74
1070
     0
1000
MTEXTEND
  0
MTEXT
  5
C8D4
330
1F
100
AcDbEntity
  8
AM_6
100
AcDbMText
 10
13.02330764140093
 20
57.81034864584187
 30
0.0
 40
1.6
 41
45.0
 71
     4
 72
     5
  1
引張強さ（kg/cm　）
 73
     1
 44
1.0
1001
ACAD
1000
MTEXTBEGIN
1070
    73
1070
     1
1070
    44
1040
1.0
1070
    74
1070
     0
1000
MTEXTEND
  0
MTEXT
  5
C8DA
330
1F
100
AcDbEntity
  8
AM_6
100
AcDbMText
 10
13.02330764140093
 20
54.81034864584187
 30
0.0
 40
1.6
 41
45.0
 71
     4
 72
     5
  1
伸び（％）
 73
     1
 44
1.0
1001
ACAD
1000
MTEXTBEGIN
1070
    73
1070
     1
1070
    44
1040
1.0
1070
    74
1070
     0
1000
MTEXTEND
  0
MTEXT
  5
C905
330
1F
100
AcDbEntity
  8
AM_6
100
AcDbMText
 10
25.09193435427766
 20
58.4998891394003
 30
0.0
 40
0.8
 41
45.0
 71
     4
 72
     5
  1
　2
 73
     1
 44
1.0
1001
ACAD
1000
MTEXTBEGIN
1070
    73
1070
     1
1070
    44
1040
1.0
1070
    74
1070
     0
1000
MTEXTEND
  0
LINE
  5
C967
330
1F
100
AcDbEntity
  8
AM_0
100
AcDbLine
 10
12.47609073333146
 20
62.38409397290931
 30
0.0
 11
41.45986136277131
 21
62.38409397290929
 31
0.0
  0
LINE
  5
C968
330
1F
100
AcDbEntity
  8
AM_0
100
AcDbLine
 10
12.47609073333147
 20
59.38409397290931
 30
0.0
 11
41.45986136277133
 21
59.38409397290932
 31
0.0
  0
LINE
  5
C969
330
1F
100
AcDbEntity
  8
AM_0
100
AcDbLine
 10
12.47609073333147
 20
56.38409397290931
 30
0.0
 11
41.45986136277132
 21
56.38409397290931
 31
0.0
  0
LINE
  5
C96A
330
1F
100
AcDbEntity
  8
AM_0
100
AcDbLine
 10
12.47609073333147
 20
53.38409397290931
 30
0.0
 11
41.45986136277132
 21
53.38409397290931
 31
0.0
  0
LINE
  5
C96D
330
1F
100
AcDbEntity
  8
AM_0
100
AcDbLine
 10
12.47609073333147
 20
41.38409397290931
 30
0.0
 11
41.45986136277133
 21
41.38409397290931
 31
0.0
  0
LINE
  5
C96F
330
1F
100
AcDbEntity
  8
AM_0
100
AcDbLine
 10
12.47609073333147
 20
35.38409397290931
 30
0.0
 11
41.45986136277132
 21
35.3840939729093
 31
0.0
  0
LINE
  5
C970
330
1F
100
AcDbEntity
  8
AM_0
100
AcDbLine
 10
25.21016848736326
 20
32.38409397290932
 30
0.0
 11
41.45986136277132
 21
32.38409397290932
 31
0.0
  0
MTEXT
  5
C972
330
1F
100
AcDbEntity
  8
AM_6
100
AcDbMText
 10
13.02330764140093
 20
51.81034864584187
 30
0.0
 40
1.6
 41
45.0
 71
     4
 72
     5
  1
圧縮応力（g/cm　）
 73
     1
 44
1.0
1001
ACAD
1000
MTEXTBEGIN
1070
    73
1070
     1
1070
    44
1040
1.0
1070
    74
1070
     0
1000
MTEXTEND
  0
MTEXT
  5
C974
330
1F
100
AcDbEntity
  8
AM_6
100
AcDbMText
 10
24.13617847745135
 20
52.33246035463326
 30
0.0
 40
0.8
 41
45.0
 71
     4
 72
     5
  1
　2
 73
     1
 44
1.0
1001
ACAD
1000
MTEXTBEGIN
1070
    73
1070
     1
1070
    44
1040
1.0
1070
    74
1070
     0
1000
MTEXTEND
  0
LINE
  5
C976
330
1F
100
AcDbEntity
  8
AM_0
100
AcDbLine
 10
12.47609073333147
 20
47.38409397290931
 30
0.0
 11
41.45986136277133
 21
47.38409397290932
 31
0.0
  0
MTEXT
  5
C977
330
1F
100
AcDbEntity
  8
AM_6
100
AcDbMText
 10
13.02330764140092
 20
45.81034864584187
 30
0.0
 40
1.6
 41
45.0
 71
     4
 72
     5
  1
常温永久歪（％）
 73
     1
 44
1.0
1001
ACAD
1000
MTEXTBEGIN
1070
    73
1070
     1
1070
    44
1040
1.0
1070
    74
1070
     0
1000
MTEXTEND
  0
MTEXT
  5
C978
330
1F
100
AcDbEntity
  8
AM_6
100
AcDbMText
 10
13.02330764140092
 20
43.31034864584188
 30
0.0
 40
1.6
 41
45.0
 71
     4
 72
     5
  1
（22h×50％def）
 73
     1
 44
1.0
1001
ACAD
1000
MTEXTBEGIN
1070
    73
1070
     1
1070
    44
1040
1.0
1070
    74
1070
     0
1000
MTEXTEND
  0
MTEXT
  5
C97B
330
1F
100
AcDbEntity
  8
AM_6
100
AcDbMText
 10
13.02330764140092
 20
39.81034864584187
 30
0.0
 40
1.6
 41
45.0
 71
     4
 72
     5
  1
加熱永久歪（％）
 73
     1
 44
1.0
1001
ACAD
1000
MTEXTBEGIN
1070
    73
1070
     1
1070
    44
1040
1.0
1070
    74
1070
     0
1000
MTEXTEND
  0
MTEXT
  5
C97C
330
1F
100
AcDbEntity
  8
AM_6
100
AcDbMText
 10
12.28386968962182
 20
37.31034864584188
 30
0.0
 40
1.3
 41
45.0
 71
     4
 72
     5
  1
（70℃×22h×50％def）
 73
     1
 44
1.0
1001
ACAD
1000
MTEXTBEGIN
1070
    73
1070
     1
1070
    44
1040
1.0
1070
    74
1070
     0
1000
MTEXTEND
  0
MTEXT
  5
C981
330
1F
100
AcDbEntity
  8
AM_6
100
AcDbMText
 10
13.02330764140092
 20
32.31034864584187
 30
0.0
 40
1.6
 41
45.0
 71
     4
 72
     5
  1
使用周囲温度（℃）
 73
     1
 44
1.0
1001
ACAD
1000
MTEXTBEGIN
1070
    73
1070
     1
1070
    44
1040
1.0
1070
    74
1070
     0
1000
MTEXTEND
  0
MTEXT
  5
C998
330
1F
100
AcDbEntity
  8
AM_6
100
AcDbMText
 10
26.04797972249251
 20
33.81034864584187
 30
0.0
 40
1.6
 41
45.0
 71
     4
 72
     5
  1
高温連続
 73
     1
 44
1.0
1001
ACAD
1000
MTEXTBEGIN
1070
    73
1070
     1
1070
    44
1040
1.0
1070
    74
1070
     0
1000
MTEXTEND
  0
MTEXT
  5
C99A
330
1F
100
AcDbEntity
  8
AM_6
100
AcDbMText
 10
26.04797972249251
 20
30.81034864584187
 30
0.0
 40
1.6
 41
45.0
 71
     4
 72
     5
  1
低温連続
 73
     1
 44
1.0
1001
ACAD
1000
MTEXTBEGIN
1070
    73
1070
     1
1070
    44
1040
1.0
1070
    74
1070
     0
1000
MTEXTEND
  0
LINE
  5
C99C
330
1F
100
AcDbEntity
  8
AM_0
100
AcDbLine
 10
12.47609073333147
 20
29.38409397290931
 30
0.0
 11
41.45986136277132
 21
29.38409397290931
 31
0.0
  0
LINE
  5
C99D
330
1F
100
AcDbEntity
  8
AM_0
100
AcDbLine
 10
25.21016848736326
 20
35.38409397290931
 30
0.0
 11
25.21016848736326
 21
29.38409397290932
 31
0.0
  0
MTEXT
  5
C9A5
330
1F
100
AcDbEntity
  8
AM_6
100
AcDbMText
 10
13.02330764140094
 20
27.81034864584187
 30
0.0
 40
1.6
 41
45.0
 71
     4
 72
     5
  1
耐油性
 73
     1
 44
1.0
1001
ACAD
1000
MTEXTBEGIN
1070
    73
1070
     1
1070
    44
1040
1.0
1070
    74
1070
     0
1000
MTEXTEND
  0
LINE
  5
C9A6
330
1F
100
AcDbEntity
  8
AM_0
100
AcDbLine
 10
12.47609073333149
 20
26.38409397290931
 30
0.0
 11
41.45986136277133
 21
26.38409397290931
 31
0.0
  0
MTEXT
  5
C9A7
330
1F
100
AcDbEntity
  8
AM_6
100
AcDbMText
 10
13.02330764140095
 20
24.81034864584187
 30
0.0
 40
1.6
 41
45.0
 71
     4
 72
     5
  1
耐コロナ性
 73
     1
 44
1.0
1001
ACAD
1000
MTEXTBEGIN
1070
    73
1070
     1
1070
    44
1040
1.0
1070
    74
1070
     0
1000
MTEXTEND
  0
LINE
  5
C9A8
330
1F
100
AcDbEntity
  8
AM_0
100
AcDbLine
 10
12.47609073333149
 20
23.38409397290931
 30
0.0
 11
41.45986136277134
 21
23.38409397290931
 31
0.0
  0
MTEXT
  5
C9A9
330
1F
100
AcDbEntity
  8
AM_6
100
AcDbMText
 10
13.02330764140096
 20
21.81034864584187
 30
0.0
 40
1.6
 41
45.0
 71
     4
 72
     5
  1
耐薬品性
 73
     1
 44
1.0
1001
ACAD
1000
MTEXTBEGIN
1070
    73
1070
     1
1070
    44
1040
1.0
1070
    74
1070
     0
1000
MTEXTEND
  0
LINE
  5
C9AA
330
1F
100
AcDbEntity
  8
AM_0
100
AcDbLine
 10
12.4760907333315
 20
20.38409397290931
 30
0.0
 11
41.45986136277135
 21
20.38409397290931
 31
0.0
  0
MTEXT
  5
C9AE
330
1F
100
AcDbEntity
  8
AM_6
100
AcDbMText
 10
13.02330764140096
 20
18.81034864584187
 30
0.0
 40
1.6
 41
45.0
 71
     4
 72
     5
  1
耐候性
 73
     1
 44
1.0
1001
ACAD
1000
MTEXTBEGIN
1070
    73
1070
     1
1070
    44
1040
1.0
1070
    74
1070
     0
1000
MTEXTEND
  0
LINE
  5
C9AF
330
1F
100
AcDbEntity
  8
AM_0
100
AcDbLine
 10
12.4760907333315
 20
17.38409397290931
 30
0.0
 11
41.45986136277135
 21
17.38409397290931
 31
0.0
  0
MTEXT
  5
C9B1
330
1F
100
AcDbEntity
  8
AM_6
100
AcDbMText
 10
13.02330764140096
 20
15.81034864584187
 30
0.0
 40
1.6
 41
45.0
 71
     4
 72
     5
  1
標準色
 73
     1
 44
1.0
1001
ACAD
1000
MTEXTBEGIN
1070
    73
1070
     1
1070
    44
1040
1.0
1070
    74
1070
     0
1000
MTEXTEND
  0
LINE
  5
C9B2
330
1F
100
AcDbEntity
  8
AM_0
100
AcDbLine
 10
12.4760907333315
 20
14.38409397290931
 30
0.0
 11
41.45986136277135
 21
14.38409397290931
 31
0.0
  0
MTEXT
  5
C9B3
330
1F
100
AcDbEntity
  8
AM_6
100
AcDbMText
 10
13.02330764140096
 20
12.81034864584187
 30
0.0
 40
1.6
 41
45.0
 71
     4
 72
     5
  1
寸法公差
 73
     1
 44
1.0
1001
ACAD
1000
MTEXTBEGIN
1070
    73
1070
     1
1070
    44
1040
1.0
1070
    74
1070
     0
1000
MTEXTEND
  0
LINE
  5
C9B4
330
1F
100
AcDbEntity
  8
AM_0
100
AcDbLine
 10
12.4760907333315
 20
11.38409397290931
 30
0.0
 11
41.45986136277135
 21
11.38409397290931
 31
0.0
  0
MTEXT
  5
C9B5
330
1F
100
AcDbEntity
  8
AM_6
100
AcDbMText
 10
13.02330764140096
 20
9.81034864584187
 30
0.0
 40
1.6
 41
45.0
 71
     4
 72
     5
  1
組織
 73
     1
 44
1.0
1001
ACAD
1000
MTEXTBEGIN
1070
    73
1070
     1
1070
    44
1040
1.0
1070
    74
1070
     0
1000
MTEXTEND
  0
LINE
  5
C9BA
330
1F
100
AcDbEntity
  8
AM_1
370
    30
100
AcDbLine
 10
12.47609073333141
 20
8.384093972909312
 30
0.0
 11
41.45986136277127
 21
8.384093972909298
 31
0.0
  0
MTEXT
  5
C9BB
330
1F
100
AcDbEntity
  8
AM_6
100
AcDbMText
 10
33.67950943986578
 20
63.88326706183764
 30
0.0
 40
1.6
 41
45.0
 71
     4
 72
     5
  1
　0.35
 73
     1
 44
1.0
1001
ACAD
1000
MTEXTBEGIN
1070
    73
1070
     1
1070
    44
1040
1.0
1070
    74
1070
     0
1000
MTEXTEND
  0
MTEXT
  5
C9BD
330
1F
100
AcDbEntity
  8
AM_6
100
AcDbMText
 10
34.63047845437175
 20
60.88326706183764
 30
0.0
 40
1.6
 41
45.0
 71
     4
 72
     5
  1
　20
 73
     1
 44
1.0
1001
ACAD
1000
MTEXTBEGIN
1070
    73
1070
     1
1070
    44
1040
1.0
1070
    74
1070
     0
1000
MTEXTEND
  0
MTEXT
  5
C9BF
330
1F
100
AcDbEntity
  8
AM_6
100
AcDbMText
 10
34.10251018082998
 20
54.88326706183766
 30
0.0
 40
1.6
 41
45.0
 71
     4
 72
     5
  1
　250
 73
     1
 44
1.0
1001
ACAD
1000
MTEXTBEGIN
1070
    73
1070
     1
1070
    44
1040
1.0
1070
    74
1070
     0
1000
MTEXTEND
  0
MTEXT
  5
C9C0
330
1F
100
AcDbEntity
  8
AM_6
100
AcDbMText
 10
34.10251018082999
 20
50.38326706183766
 30
0.0
 40
1.6
 41
45.0
 71
     4
 72
     5
  1
　500
 73
     1
 44
1.0
1001
ACAD
1000
MTEXTBEGIN
1070
    73
1070
     1
1070
    44
1040
1.0
1070
    74
1070
     0
1000
MTEXTEND
  0
MTEXT
  5
C9C3
330
1F
100
AcDbEntity
  8
AM_6
100
AcDbMText
 10
34.10251018082999
 20
33.88326706183765
 30
0.0
 40
1.6
 41
45.0
 71
     4
 72
     5
  1
　200
 73
     1
 44
1.0
1001
ACAD
1000
MTEXTBEGIN
1070
    73
1070
     1
1070
    44
1040
1.0
1070
    74
1070
     0
1000
MTEXTEND
  0
MTEXT
  5
C9C4
330
1F
100
AcDbEntity
  8
AM_6
100
AcDbMText
 10
33.67950943986579
 20
30.88326706183766
 30
0.0
 40
1.6
 41
45.0
 71
     4
 72
     5
  1
　-80
 73
     1
 44
1.0
1001
ACAD
1000
MTEXTBEGIN
1070
    73
1070
     1
1070
    44
1040
1.0
1070
    74
1070
     0
1000
MTEXTEND
  0
MTEXT
  5
C9CD
330
1F
100
AcDbEntity
  8
AM_6
100
AcDbMText
 10
35.13831260471123
 20
57.88326706183767
 30
0.0
 40
1.6
 41
45.0
 71
     4
 72
     5
  1
　8
 73
     1
 44
1.0
1001
ACAD
1000
MTEXTBEGIN
1070
    73
1070
     1
1070
    44
1040
1.0
1070
    74
1070
     0
1000
MTEXTEND
  0
MTEXT
  5
C9D2
330
1F
100
AcDbEntity
  8
AM_6
100
AcDbMText
 10
35.13831260471123
 20
44.38326706183767
 30
0.0
 40
1.6
 41
45.0
 71
     4
 72
     5
  1
　0
 73
     1
 44
1.0
1001
ACAD
1000
MTEXTBEGIN
1070
    73
1070
     1
1070
    44
1040
1.0
1070
    74
1070
     0
1000
MTEXTEND
  0
MTEXT
  5
C9D6
330
1F
100
AcDbEntity
  8
AM_6
100
AcDbMText
 10
34.63047845437174
 20
38.38326706183765
 30
0.0
 40
1.6
 41
45.0
 71
     4
 72
     5
  1
　10
 73
     1
 44
1.0
1001
ACAD
1000
MTEXTBEGIN
1070
    73
1070
     1
1070
    44
1040
1.0
1070
    74
1070
     0
1000
MTEXTEND
  0
MTEXT
  5
C9DA
330
1F
100
AcDbEntity
  8
AM_6
100
AcDbMText
 10
35.13831260471124
 20
24.88326706183766
 30
0.0
 40
1.6
 41
45.0
 71
     4
 72
     5
  1
　良
 73
     1
 44
1.0
1001
ACAD
1000
MTEXTBEGIN
1070
    73
1070
     1
1070
    44
1040
1.0
1070
    74
1070
     0
1000
MTEXTEND
  0
MTEXT
  5
C9DC
330
1F
100
AcDbEntity
  8
AM_6
100
AcDbMText
 10
35.13831260471124
 20
21.88326706183766
 30
0.0
 40
1.6
 41
45.0
 71
     4
 72
     5
  1
　良
 73
     1
 44
1.0
1001
ACAD
1000
MTEXTBEGIN
1070
    73
1070
     1
1070
    44
1040
1.0
1070
    74
1070
     0
1000
MTEXTEND
  0
MTEXT
  5
C9DE
330
1F
100
AcDbEntity
  8
AM_6
100
AcDbMText
 10
35.13831260471124
 20
18.88326706183766
 30
0.0
 40
1.6
 41
45.0
 71
     4
 72
     5
  1
　優
 73
     1
 44
1.0
1001
ACAD
1000
MTEXTBEGIN
1070
    73
1070
     1
1070
    44
1040
1.0
1070
    74
1070
     0
1000
MTEXTEND
  0
MTEXT
  5
C9DF
330
1F
100
AcDbEntity
  8
AM_6
100
AcDbMText
 10
34.37243506991795
 20
15.88326706183766
 30
0.0
 40
1.6
 41
45.0
 71
     4
 72
     5
  1
　橙色
 73
     1
 44
1.0
1001
ACAD
1000
MTEXTBEGIN
1070
    73
1070
     1
1070
    44
1040
1.0
1070
    74
1070
     0
1000
MTEXTEND
  0
MTEXT
  5
C9E0
330
1F
100
AcDbEntity
  8
AM_6
100
AcDbMText
 10
35.13831260471124
 20
27.88326706183766
 30
0.0
 40
1.6
 41
45.0
 71
     4
 72
     5
  1
　良
 73
     1
 44
1.0
1001
ACAD
1000
MTEXTBEGIN
1070
    73
1070
     1
1070
    44
1040
1.0
1070
    74
1070
     0
1000
MTEXTEND
  0
MTEXT
  5
CA86
330
1F
100
AcDbEntity
  8
AM_6
100
AcDbMText
 10
17.24999999999998
 20
82.74999999999989
 30
0.0
 40
1.6
 41
45.0
 71
     4
 72
     5
  1
　L寸法はご希望の長さに切断します
 73
     1
 44
1.0
1001
ACAD
1000
MTEXTBEGIN
1070
    73
1070
     1
1070
    44
1040
1.0
1070
    74
1070
     0
1000
MTEXTEND
  0
MTEXT
  5
CA89
330
1F
100
AcDbEntity
  8
AM_6
100
AcDbMText
 10
13.02330764140093
 20
48.81034864584187
 30
0.0
 40
1.6
 41
45.0
 71
     4
 72
     5
  1
（25％def）
 73
     1
 44
1.0
1001
ACAD
1000
MTEXTBEGIN
1070
    73
1070
     1
1070
    44
1040
1.0
1070
    74
1070
     0
1000
MTEXTEND
  0
MTEXT
  5
CA8B
330
1F
100
AcDbEntity
  8
AM_6
100
AcDbMText
 10
34.60690516860846
 20
12.88326706183766
 30
0.0
 40
1.6
 41
45.0
 71
     4
 72
     5
  1
±10％
 73
     1
 44
1.0
1001
ACAD
1000
MTEXTBEGIN
1070
    73
1070
     1
1070
    44
1040
1.0
1070
    74
1070
     0
1000
MTEXTEND
  0
MTEXT
  5
CA8C
330
1F
100
AcDbEntity
  8
AM_6
100
AcDbMText
 10
34.37243506991796
 20
9.88326706183766
 30
0.0
 40
1.6
 41
45.0
 71
     4
 72
     5
  1
　単泡
 73
     1
 44
1.0
1001
ACAD
1000
MTEXTBEGIN
1070
    73
1070
     1
1070
    44
1040
1.0
1070
    74
1070
     0
1000
MTEXTEND
  0
MTEXT
  5
CB6B
330
1F
100
AcDbEntity
  8
AM_6
100
AcDbMText
 10
90.98712661476399
 20
79.41139813229066
 30
0.0
 40
1.6
 41
45.0
 71
     4
 72
     5
  1
EBGS-3-25
 73
     1
 44
1.0
1001
ACAD
1000
MTEXTBEGIN
1070
    73
1070
     1
1070
    44
1040
1.0
1070
    74
1070
     0
1000
MTEXTEND
  0
MTEXT
  5
CB6C
330
1F
100
AcDbEntity
  8
AM_6
100
AcDbMText
 10
102.8464289523687
 20
79.41139813229066
 30
0.0
 40
1.6
 41
45.0
 71
     4
 72
     5
  1
　3
 73
     1
 44
1.0
1001
ACAD
1000
MTEXTBEGIN
1070
    73
1070
     1
1070
    44
1040
1.0
1070
    74
1070
     0
1000
MTEXTEND
  0
MTEXT
  5
CB6D
330
1F
100
AcDbEntity
  8
AM_6
100
AcDbMText
 10
106.7031660559375
 20
79.41139813229066
 30
0.0
 40
1.6
 41
45.0
 71
     4
 72
     5
  1
　25
 73
     1
 44
1.0
1001
ACAD
1000
MTEXTBEGIN
1070
    73
1070
     1
1070
    44
1040
1.0
1070
    74
1070
     0
1000
MTEXTEND
  0
LINE
  5
CB6E
330
1F
100
AcDbEntity
  8
AM_2
100
AcDbLine
 10
90.43514227720214
 20
80.66393680207452
 30
0.0
 11
111.4004100057933
 21
80.66393680207452
 31
0.0
  0
MTEXT
  5
CB6F
330
1F
100
AcDbEntity
  8
AM_6
100
AcDbMText
 10
90.98712661476399
 20
76.91139813229066
 30
0.0
 40
1.6
 41
45.0
 71
     4
 72
     5
  1
EBGS-3-30
 73
     1
 44
1.0
1001
ACAD
1000
MTEXTBEGIN
1070
    73
1070
     1
1070
    44
1040
1.0
1070
    74
1070
     0
1000
MTEXTEND
  0
MTEXT
  5
CB70
330
1F
100
AcDbEntity
  8
AM_6
100
AcDbMText
 10
102.8464289523687
 20
76.91139813229066
 30
0.0
 40
1.6
 41
45.0
 71
     4
 72
     5
  1
　3
 73
     1
 44
1.0
1001
ACAD
1000
MTEXTBEGIN
1070
    73
1070
     1
1070
    44
1040
1.0
1070
    74
1070
     0
1000
MTEXTEND
  0
MTEXT
  5
CB71
330
1F
100
AcDbEntity
  8
AM_6
100
AcDbMText
 10
106.7031660559375
 20
76.91139813229066
 30
0.0
 40
1.6
 41
45.0
 71
     4
 72
     5
  1
　30
 73
     1
 44
1.0
1001
ACAD
1000
MTEXTBEGIN
1070
    73
1070
     1
1070
    44
1040
1.0
1070
    74
1070
     0
1000
MTEXTEND
  0
LINE
  5
CB72
330
1F
100
AcDbEntity
  8
AM_2
100
AcDbLine
 10
90.43514227720214
 20
78.16393680207451
 30
0.0
 11
111.4004100057933
 21
78.16393680207451
 31
0.0
  0
MTEXT
  5
CB73
330
1F
100
AcDbEntity
  8
AM_6
100
AcDbMText
 10
90.98712661476399
 20
74.41139813229067
 30
0.0
 40
1.6
 41
45.0
 71
     4
 72
     5
  1
EBGS-3-40
 73
     1
 44
1.0
1001
ACAD
1000
MTEXTBEGIN
1070
    73
1070
     1
1070
    44
1040
1.0
1070
    74
1070
     0
1000
MTEXTEND
  0
MTEXT
  5
CB74
330
1F
100
AcDbEntity
  8
AM_6
100
AcDbMText
 10
102.8464289523687
 20
74.41139813229067
 30
0.0
 40
1.6
 41
45.0
 71
     4
 72
     5
  1
　3
 73
     1
 44
1.0
1001
ACAD
1000
MTEXTBEGIN
1070
    73
1070
     1
1070
    44
1040
1.0
1070
    74
1070
     0
1000
MTEXTEND
  0
MTEXT
  5
CB75
330
1F
100
AcDbEntity
  8
AM_6
100
AcDbMText
 10
106.7031660559375
 20
74.41139813229067
 30
0.0
 40
1.6
 41
45.0
 71
     4
 72
     5
  1
　40
 73
     1
 44
1.0
1001
ACAD
1000
MTEXTBEGIN
1070
    73
1070
     1
1070
    44
1040
1.0
1070
    74
1070
     0
1000
MTEXTEND
  0
LINE
  5
CB76
330
1F
100
AcDbEntity
  8
AM_2
100
AcDbLine
 10
90.43514227720214
 20
75.66393680207453
 30
0.0
 11
111.4004100057933
 21
75.66393680207453
 31
0.0
  0
MTEXT
  5
CB77
330
1F
100
AcDbEntity
  8
AM_6
100
AcDbMText
 10
90.98712661476399
 20
71.91139813229067
 30
0.0
 40
1.6
 41
45.0
 71
     4
 72
     5
  1
EBGS-3-50
 73
     1
 44
1.0
1001
ACAD
1000
MTEXTBEGIN
1070
    73
1070
     1
1070
    44
1040
1.0
1070
    74
1070
     0
1000
MTEXTEND
  0
MTEXT
  5
CB78
330
1F
100
AcDbEntity
  8
AM_6
100
AcDbMText
 10
102.8464289523687
 20
71.91139813229067
 30
0.0
 40
1.6
 41
45.0
 71
     4
 72
     5
  1
　3
 73
     1
 44
1.0
1001
ACAD
1000
MTEXTBEGIN
1070
    73
1070
     1
1070
    44
1040
1.0
1070
    74
1070
     0
1000
MTEXTEND
  0
MTEXT
  5
CB79
330
1F
100
AcDbEntity
  8
AM_6
100
AcDbMText
 10
106.7031660559375
 20
71.91139813229067
 30
0.0
 40
1.6
 41
45.0
 71
     4
 72
     5
  1
　50
 73
     1
 44
1.0
1001
ACAD
1000
MTEXTBEGIN
1070
    73
1070
     1
1070
    44
1040
1.0
1070
    74
1070
     0
1000
MTEXTEND
  0
LINE
  5
CB7A
330
1F
100
AcDbEntity
  8
AM_2
100
AcDbLine
 10
90.43514227720214
 20
73.16393680207453
 30
0.0
 11
111.4004100057933
 21
73.16393680207453
 31
0.0
  0
MTEXT
  5
CB7B
330
1F
100
AcDbEntity
  8
AM_6
100
AcDbMText
 10
90.98712661476399
 20
54.41139813229066
 30
0.0
 40
1.6
 41
45.0
 71
     4
 72
     5
  1
EBGS-5-40
 73
     1
 44
1.0
1001
ACAD
1000
MTEXTBEGIN
1070
    73
1070
     1
1070
    44
1040
1.0
1070
    74
1070
     0
1000
MTEXTEND
  0
MTEXT
  5
CB7C
330
1F
100
AcDbEntity
  8
AM_6
100
AcDbMText
 10
102.8464289523687
 20
54.41139813229066
 30
0.0
 40
1.6
 41
45.0
 71
     4
 72
     5
  1
　5
 73
     1
 44
1.0
1001
ACAD
1000
MTEXTBEGIN
1070
    73
1070
     1
1070
    44
1040
1.0
1070
    74
1070
     0
1000
MTEXTEND
  0
MTEXT
  5
CB7D
330
1F
100
AcDbEntity
  8
AM_6
100
AcDbMText
 10
106.7031660559375
 20
54.41139813229066
 30
0.0
 40
1.6
 41
45.0
 71
     4
 72
     5
  1
　40
 73
     1
 44
1.0
1001
ACAD
1000
MTEXTBEGIN
1070
    73
1070
     1
1070
    44
1040
1.0
1070
    74
1070
     0
1000
MTEXTEND
  0
LINE
  5
CB7E
330
1F
100
AcDbEntity
  8
AM_2
100
AcDbLine
 10
90.43514227720214
 20
55.66393680207451
 30
0.0
 11
111.4004100057933
 21
55.66393680207451
 31
0.0
  0
MTEXT
  5
CB7F
330
1F
100
AcDbEntity
  8
AM_6
100
AcDbMText
 10
90.98712661476399
 20
51.91139813229066
 30
0.0
 40
1.6
 41
45.0
 71
     4
 72
     5
  1
EBGS-5-50
 73
     1
 44
1.0
1001
ACAD
1000
MTEXTBEGIN
1070
    73
1070
     1
1070
    44
1040
1.0
1070
    74
1070
     0
1000
MTEXTEND
  0
MTEXT
  5
CB80
330
1F
100
AcDbEntity
  8
AM_6
100
AcDbMText
 10
102.8464289523687
 20
51.91139813229066
 30
0.0
 40
1.6
 41
45.0
 71
     4
 72
     5
  1
　5
 73
     1
 44
1.0
1001
ACAD
1000
MTEXTBEGIN
1070
    73
1070
     1
1070
    44
1040
1.0
1070
    74
1070
     0
1000
MTEXTEND
  0
MTEXT
  5
CB81
330
1F
100
AcDbEntity
  8
AM_6
100
AcDbMText
 10
106.7031660559375
 20
51.91139813229066
 30
0.0
 40
1.6
 41
45.0
 71
     4
 72
     5
  1
　50
 73
     1
 44
1.0
1001
ACAD
1000
MTEXTBEGIN
1070
    73
1070
     1
1070
    44
1040
1.0
1070
    74
1070
     0
1000
MTEXTEND
  0
LINE
  5
CB82
330
1F
100
AcDbEntity
  8
AM_2
100
AcDbLine
 10
90.43514227720214
 20
53.16393680207451
 30
0.0
 11
111.4004100057933
 21
53.16393680207451
 31
0.0
  0
MTEXT
  5
CB83
330
1F
100
AcDbEntity
  8
AM_6
100
AcDbMText
 10
90.98712661476399
 20
39.41139813229066
 30
0.0
 40
1.6
 41
45.0
 71
     4
 72
     5
  1
EBGS-6-30
 73
     1
 44
1.0
1001
ACAD
1000
MTEXTBEGIN
1070
    73
1070
     1
1070
    44
1040
1.0
1070
    74
1070
     0
1000
MTEXTEND
  0
MTEXT
  5
CB84
330
1F
100
AcDbEntity
  8
AM_6
100
AcDbMText
 10
102.8464289523687
 20
39.41139813229066
 30
0.0
 40
1.6
 41
45.0
 71
     4
 72
     5
  1
　6
 73
     1
 44
1.0
1001
ACAD
1000
MTEXTBEGIN
1070
    73
1070
     1
1070
    44
1040
1.0
1070
    74
1070
     0
1000
MTEXTEND
  0
MTEXT
  5
CB85
330
1F
100
AcDbEntity
  8
AM_6
100
AcDbMText
 10
106.7031660559375
 20
39.41139813229066
 30
0.0
 40
1.6
 41
45.0
 71
     4
 72
     5
  1
　30
 73
     1
 44
1.0
1001
ACAD
1000
MTEXTBEGIN
1070
    73
1070
     1
1070
    44
1040
1.0
1070
    74
1070
     0
1000
MTEXTEND
  0
LINE
  5
CB86
330
1F
100
AcDbEntity
  8
AM_2
100
AcDbLine
 10
90.43514227720214
 20
40.66393680207451
 30
0.0
 11
111.4004100057933
 21
40.66393680207451
 31
0.0
  0
LINE
  5
CB87
330
1F
100
AcDbEntity
  8
AM_2
100
AcDbLine
 10
115.9596019746415
 20
70.6639368020745
 30
0.0
 11
136.9248697032327
 21
70.6639368020745
 31
0.0
  0
MTEXT
  5
CB88
330
1F
100
AcDbEntity
  8
AM_6
100
AcDbMText
 10
116.506818882711
 20
69.41139813229064
 30
0.0
 40
1.6
 41
45.0
 71
     4
 72
     5
  1
EBGS-10-50
 73
     1
 44
1.0
1001
ACAD
1000
MTEXTBEGIN
1070
    73
1070
     1
1070
    44
1040
1.0
1070
    74
1070
     0
1000
MTEXTEND
  0
MTEXT
  5
CB89
330
1F
100
AcDbEntity
  8
AM_6
100
AcDbMText
 10
132.2276257533768
 20
69.41139813229064
 30
0.0
 40
1.6
 41
45.0
 71
     4
 72
     5
  1
　50
 73
     1
 44
1.0
1001
ACAD
1000
MTEXTBEGIN
1070
    73
1070
     1
1070
    44
1040
1.0
1070
    74
1070
     0
1000
MTEXTEND
  0
MTEXT
  5
CB8A
330
1F
100
AcDbEntity
  8
AM_6
100
AcDbMText
 10
127.8301088748023
 20
69.41139813229064
 30
0.0
 40
1.6
 41
45.0
 71
     4
 72
     5
  1
　10
 73
     1
 44
1.0
1001
ACAD
1000
MTEXTBEGIN
1070
    73
1070
     1
1070
    44
1040
1.0
1070
    74
1070
     0
1000
MTEXTEND
  0
LINE
  5
CB8B
330
1F
100
AcDbEntity
  8
AM_2
100
AcDbLine
 10
115.9596019746415
 20
60.6639368020745
 30
0.0
 11
136.9248697032327
 21
60.6639368020745
 31
0.0
  0
MTEXT
  5
CB8C
330
1F
100
AcDbEntity
  8
AM_6
100
AcDbMText
 10
116.506818882711
 20
59.41139813229064
 30
0.0
 40
1.6
 41
45.0
 71
     4
 72
     5
  1
EBGS-12-25
 73
     1
 44
1.0
1001
ACAD
1000
MTEXTBEGIN
1070
    73
1070
     1
1070
    44
1040
1.0
1070
    74
1070
     0
1000
MTEXTEND
  0
MTEXT
  5
CB8D
330
1F
100
AcDbEntity
  8
AM_6
100
AcDbMText
 10
132.2276257533768
 20
59.41139813229064
 30
0.0
 40
1.6
 41
45.0
 71
     4
 72
     5
  1
　25
 73
     1
 44
1.0
1001
ACAD
1000
MTEXTBEGIN
1070
    73
1070
     1
1070
    44
1040
1.0
1070
    74
1070
     0
1000
MTEXTEND
  0
MTEXT
  5
CB8E
330
1F
100
AcDbEntity
  8
AM_6
100
AcDbMText
 10
127.8301088748023
 20
59.41139813229064
 30
0.0
 40
1.6
 41
45.0
 71
     4
 72
     5
  1
　12
 73
     1
 44
1.0
1001
ACAD
1000
MTEXTBEGIN
1070
    73
1070
     1
1070
    44
1040
1.0
1070
    74
1070
     0
1000
MTEXTEND
  0
LINE
  5
CB8F
330
1F
100
AcDbEntity
  8
AM_2
100
AcDbLine
 10
115.9596019746415
 20
58.1639368020745
 30
0.0
 11
136.9248697032327
 21
58.1639368020745
 31
0.0
  0
MTEXT
  5
CB90
330
1F
100
AcDbEntity
  8
AM_6
100
AcDbMText
 10
116.506818882711
 20
56.91139813229064
 30
0.0
 40
1.6
 41
45.0
 71
     4
 72
     5
  1
EBGS-12-30
 73
     1
 44
1.0
1001
ACAD
1000
MTEXTBEGIN
1070
    73
1070
     1
1070
    44
1040
1.0
1070
    74
1070
     0
1000
MTEXTEND
  0
MTEXT
  5
CB91
330
1F
100
AcDbEntity
  8
AM_6
100
AcDbMText
 10
132.2276257533768
 20
56.91139813229064
 30
0.0
 40
1.6
 41
45.0
 71
     4
 72
     5
  1
　30
 73
     1
 44
1.0
1001
ACAD
1000
MTEXTBEGIN
1070
    73
1070
     1
1070
    44
1040
1.0
1070
    74
1070
     0
1000
MTEXTEND
  0
MTEXT
  5
CB92
330
1F
100
AcDbEntity
  8
AM_6
100
AcDbMText
 10
127.8301088748023
 20
56.91139813229064
 30
0.0
 40
1.6
 41
45.0
 71
     4
 72
     5
  1
　12
 73
     1
 44
1.0
1001
ACAD
1000
MTEXTBEGIN
1070
    73
1070
     1
1070
    44
1040
1.0
1070
    74
1070
     0
1000
MTEXTEND
  0
LINE
  5
CB93
330
1F
100
AcDbEntity
  8
AM_2
100
AcDbLine
 10
115.9596019746415
 20
55.6639368020745
 30
0.0
 11
136.9248697032327
 21
55.6639368020745
 31
0.0
  0
MTEXT
  5
CB94
330
1F
100
AcDbEntity
  8
AM_6
100
AcDbMText
 10
116.506818882711
 20
54.41139813229064
 30
0.0
 40
1.6
 41
45.0
 71
     4
 72
     5
  1
EBGS-12-40
 73
     1
 44
1.0
1001
ACAD
1000
MTEXTBEGIN
1070
    73
1070
     1
1070
    44
1040
1.0
1070
    74
1070
     0
1000
MTEXTEND
  0
MTEXT
  5
CB95
330
1F
100
AcDbEntity
  8
AM_6
100
AcDbMText
 10
132.2276257533768
 20
54.41139813229064
 30
0.0
 40
1.6
 41
45.0
 71
     4
 72
     5
  1
　40
 73
     1
 44
1.0
1001
ACAD
1000
MTEXTBEGIN
1070
    73
1070
     1
1070
    44
1040
1.0
1070
    74
1070
     0
1000
MTEXTEND
  0
MTEXT
  5
CB96
330
1F
100
AcDbEntity
  8
AM_6
100
AcDbMText
 10
127.8301088748023
 20
54.41139813229064
 30
0.0
 40
1.6
 41
45.0
 71
     4
 72
     5
  1
　12
 73
     1
 44
1.0
1001
ACAD
1000
MTEXTBEGIN
1070
    73
1070
     1
1070
    44
1040
1.0
1070
    74
1070
     0
1000
MTEXTEND
  0
LINE
  5
CB97
330
1F
100
AcDbEntity
  8
AM_2
100
AcDbLine
 10
115.9596019746415
 20
40.6639368020745
 30
0.0
 11
136.9248697032327
 21
40.6639368020745
 31
0.0
  0
MTEXT
  5
CB98
330
1F
100
AcDbEntity
  8
AM_6
100
AcDbMText
 10
116.506818882711
 20
39.41139813229064
 30
0.0
 40
1.6
 41
45.0
 71
     4
 72
     5
  1
EBGS-15-40
 73
     1
 44
1.0
1001
ACAD
1000
MTEXTBEGIN
1070
    73
1070
     1
1070
    44
1040
1.0
1070
    74
1070
     0
1000
MTEXTEND
  0
MTEXT
  5
CB99
330
1F
100
AcDbEntity
  8
AM_6
100
AcDbMText
 10
132.2276257533768
 20
39.41139813229064
 30
0.0
 40
1.6
 41
45.0
 71
     4
 72
     5
  1
　40
 73
     1
 44
1.0
1001
ACAD
1000
MTEXTBEGIN
1070
    73
1070
     1
1070
    44
1040
1.0
1070
    74
1070
     0
1000
MTEXTEND
  0
MTEXT
  5
CB9A
330
1F
100
AcDbEntity
  8
AM_6
100
AcDbMText
 10
127.8301088748023
 20
39.41139813229064
 30
0.0
 40
1.6
 41
45.0
 71
     4
 72
     5
  1
　15
 73
     1
 44
1.0
1001
ACAD
1000
MTEXTBEGIN
1070
    73
1070
     1
1070
    44
1040
1.0
1070
    74
1070
     0
1000
MTEXTEND
  0
LINE
  5
CB9B
330
1F
100
AcDbEntity
  8
AM_2
100
AcDbLine
 10
115.9596019746415
 20
23.1639368020745
 30
0.0
 11
136.9248697032327
 21
23.1639368020745
 31
0.0
  0
MTEXT
  5
CB9C
330
1F
100
AcDbEntity
  8
AM_6
100
AcDbMText
 10
116.506818882711
 20
21.91139813229065
 30
0.0
 40
1.6
 41
45.0
 71
     4
 72
     5
  1
EBGS-25-25
 73
     1
 44
1.0
1001
ACAD
1000
MTEXTBEGIN
1070
    73
1070
     1
1070
    44
1040
1.0
1070
    74
1070
     0
1000
MTEXTEND
  0
LINE
  5
CB9D
330
1F
100
AcDbEntity
  8
AM_2
100
AcDbLine
 10
115.9596019746415
 20
20.6639368020745
 30
0.0
 11
136.9248697032327
 21
20.6639368020745
 31
0.0
  0
MTEXT
  5
CB9E
330
1F
100
AcDbEntity
  8
AM_6
100
AcDbMText
 10
116.506818882711
 20
19.41139813229064
 30
0.0
 40
1.6
 41
45.0
 71
     4
 72
     5
  1
EBGS-25-30
 73
     1
 44
1.0
1001
ACAD
1000
MTEXTBEGIN
1070
    73
1070
     1
1070
    44
1040
1.0
1070
    74
1070
     0
1000
MTEXTEND
  0
LINE
  5
CB9F
330
1F
100
AcDbEntity
  8
AM_2
100
AcDbLine
 10
115.9596019746415
 20
18.16393680207451
 30
0.0
 11
136.9248697032327
 21
18.16393680207451
 31
0.0
  0
MTEXT
  5
CBA0
330
1F
100
AcDbEntity
  8
AM_6
100
AcDbMText
 10
116.506818882711
 20
16.91139813229065
 30
0.0
 40
1.6
 41
45.0
 71
     4
 72
     5
  1
EBGS-25-40
 73
     1
 44
1.0
1001
ACAD
1000
MTEXTBEGIN
1070
    73
1070
     1
1070
    44
1040
1.0
1070
    74
1070
     0
1000
MTEXTEND
  0
LINE
  5
CBA1
330
1F
100
AcDbEntity
  8
AM_1
370
    30
100
AcDbLine
 10
115.9596019746415
 20
15.6639368020745
 30
0.0
 11
136.9248697032327
 21
15.6639368020745
 31
0.0
  0
MTEXT
  5
CBA2
330
1F
100
AcDbEntity
  8
AM_6
100
AcDbMText
 10
132.2276257533768
 20
21.91139813229065
 30
0.0
 40
1.6
 41
45.0
 71
     4
 72
     5
  1
　25
 73
     1
 44
1.0
1001
ACAD
1000
MTEXTBEGIN
1070
    73
1070
     1
1070
    44
1040
1.0
1070
    74
1070
     0
1000
MTEXTEND
  0
MTEXT
  5
CBA3
330
1F
100
AcDbEntity
  8
AM_6
100
AcDbMText
 10
127.8301088748023
 20
21.91139813229065
 30
0.0
 40
1.6
 41
45.0
 71
     4
 72
     5
  1
　25
 73
     1
 44
1.0
1001
ACAD
1000
MTEXTBEGIN
1070
    73
1070
     1
1070
    44
1040
1.0
1070
    74
1070
     0
1000
MTEXTEND
  0
MTEXT
  5
CBA4
330
1F
100
AcDbEntity
  8
AM_6
100
AcDbMText
 10
132.2276257533768
 20
19.41139813229064
 30
0.0
 40
1.6
 41
45.0
 71
     4
 72
     5
  1
　30
 73
     1
 44
1.0
1001
ACAD
1000
MTEXTBEGIN
1070
    73
1070
     1
1070
    44
1040
1.0
1070
    74
1070
     0
1000
MTEXTEND
  0
MTEXT
  5
CBA6
330
1F
100
AcDbEntity
  8
AM_6
100
AcDbMText
 10
132.2276257533768
 20
16.91139813229064
 30
0.0
 40
1.6
 41
45.0
 71
     4
 72
     5
  1
　40
 73
     1
 44
1.0
1001
ACAD
1000
MTEXTBEGIN
1070
    73
1070
     1
1070
    44
1040
1.0
1070
    74
1070
     0
1000
MTEXTEND
  0
MTEXT
  5
CBA8
330
1F
100
AcDbEntity
  8
AM_6
100
AcDbMText
 10
127.8301088748023
 20
19.41139813229064
 30
0.0
 40
1.6
 41
45.0
 71
     4
 72
     5
  1
　25
 73
     1
 44
1.0
1001
ACAD
1000
MTEXTBEGIN
1070
    73
1070
     1
1070
    44
1040
1.0
1070
    74
1070
     0
1000
MTEXTEND
  0
MTEXT
  5
CBA9
330
1F
100
AcDbEntity
  8
AM_6
100
AcDbMText
 10
127.8301088748023
 20
16.91139813229064
 30
0.0
 40
1.6
 41
45.0
 71
     4
 72
     5
  1
　25
 73
     1
 44
1.0
1001
ACAD
1000
MTEXTBEGIN
1070
    73
1070
     1
1070
    44
1040
1.0
1070
    74
1070
     0
1000
MTEXTEND
  0
MTEXT
  5
CBAA
330
1F
100
AcDbEntity
  8
AM_6
100
AcDbMText
 10
90.98712661476401
 20
14.41139813229066
 30
0.0
 40
1.6
 41
45.0
 71
     4
 72
     5
  1
EBGS-8-30
 73
     1
 44
1.0
1001
ACAD
1000
MTEXTBEGIN
1070
    73
1070
     1
1070
    44
1040
1.0
1070
    74
1070
     0
1000
MTEXTEND
  0
MTEXT
  5
CBAB
330
1F
100
AcDbEntity
  8
AM_6
100
AcDbMText
 10
102.8464289523687
 20
14.41139813229066
 30
0.0
 40
1.6
 41
45.0
 71
     4
 72
     5
  1
　8
 73
     1
 44
1.0
1001
ACAD
1000
MTEXTBEGIN
1070
    73
1070
     1
1070
    44
1040
1.0
1070
    74
1070
     0
1000
MTEXTEND
  0
MTEXT
  5
CBAC
330
1F
100
AcDbEntity
  8
AM_6
100
AcDbMText
 10
106.7031660559375
 20
14.41139813229066
 30
0.0
 40
1.6
 41
45.0
 71
     4
 72
     5
  1
　30
 73
     1
 44
1.0
1001
ACAD
1000
MTEXTBEGIN
1070
    73
1070
     1
1070
    44
1040
1.0
1070
    74
1070
     0
1000
MTEXTEND
  0
LINE
  5
CBAD
330
1F
100
AcDbEntity
  8
AM_2
100
AcDbLine
 10
90.43514227720214
 20
15.66393680207452
 30
0.0
 11
111.4004100057933
 21
15.66393680207452
 31
0.0
  0
ENDSEC
  0
SECTION
  2
OBJECTS
  0
DICTIONARY
  5
C
330
0
100
AcDbDictionary
281
     1
  3
ACAD_2007HEADERVARS_RT
350
CBAF
  3
ACAD_BGPLOT_KEY
350
AB06
  3
ACAD_COLOR
350
A91D
  3
ACAD_GROUP
350
D
  3
ACAD_LAYOUT
350
1A
  3
ACAD_MATERIAL
350
A91C
  3
ACAD_MLINESTYLE
350
17
  3
ACAD_PLOTSETTINGS
350
19
  3
ACAD_PLOTSTYLENAME
350
E
  3
ACAD_TABLESTYLE
350
AAB9
  3
ACAD_VISUALSTYLE
350
CB36
  3
AcAsAppObject
350
3DA1
  3
ACASGREF_MASTER
350
3DE9
  3
AcDbVariableDictionary
350
34
  3
AcmDictionary
350
47
  3
AD_GREF_MODULE
350
3DEA
  3
AD_MAPI_MODULE
350
3E06
  3
AMG
350
2B
  3
AMGSNAPSETTINGS
350
7D
  3
ASE_INDEX_DICTIONARY
350
9F48
  3
DWGPROPS
350
CBAE
  3
MAPISURF_MODULE
350
3DEB
  0
DICTIONARY
  5
3F95
330
2
100
AcDbDictionary
280
     1
281
     1
  3
ACAD_LAYERFILTERS
360
C291
  3
ACAD_LAYERSTATES
360
3F96
  3
ACLYDICTIONARY
360
C290
  3
AMLAYER_GROUPCOLORS
360
AAB4
  0
DICTIONARY
  5
8A
330
1F
100
AcDbDictionary
280
     1
281
     1
  3
ACAD_SORTENTS
360
C43F
  0
DICTIONARY
  5
C327
330
C318
100
AcDbDictionary
280
     1
281
     1
  0
DICTIONARY
  5
C3B8
330
C348
100
AcDbDictionary
280
     1
281
     1
  3
ACAD_SORTENTS
360
C3B9
  0
DICTIONARY
  5
C3FC
330
C3EF
100
AcDbDictionary
280
     1
281
     1
  3
ACAD_DIMASSOC
360
C3FD
  0
DICTIONARY
  5
C422
330
C415
100
AcDbDictionary
280
     1
281
     1
  3
ACAD_DIMASSOC
360
C423
  0
DICTIONARY
  5
CBAF
102
{ACAD_REACTORS
330
C
102
}
330
C
100
AcDbDictionary
281
     1
  3
DIMARCSYM
350
CBB1
  3
DIMFXL
350
CBB0
  0
DICTIONARY
  5
AB06
102
{ACAD_REACTORS
330
C
102
}
330
C
100
AcDbDictionary
280
     1
281
     1
  0
DICTIONARY
  5
A91D
102
{ACAD_REACTORS
330
C
102
}
330
C
100
AcDbDictionary
281
     1
  0
DICTIONARY
  5
D
102
{ACAD_REACTORS
330
C
102
}
330
C
100
AcDbDictionary
281
     1
  0
DICTIONARY
  5
1A
102
{ACAD_REACTORS
330
C
102
}
330
C
100
AcDbDictionary
281
     1
  3
Model
350
22
  3
ﾚｲｱｳﾄ1
350
1E
  3
ﾚｲｱｳﾄ2
350
26
  0
DICTIONARY
  5
A91C
102
{ACAD_REACTORS
330
C
102
}
330
C
100
AcDbDictionary
281
     1
  3
ByBlock
350
CB34
  3
ByLayer
350
CB33
  3
Global
350
CB35
  0
DICTIONARY
  5
17
102
{ACAD_REACTORS
330
C
102
}
330
C
100
AcDbDictionary
281
     1
  3
Standard
350
18
  0
DICTIONARY
  5
19
102
{ACAD_REACTORS
330
C
102
}
330
C
100
AcDbDictionary
281
     1
  3
01 A3フィット
350
C340
  3
02 A3
350
C341
  3
03 A2フィット
350
C342
  3
04 A2
350
C343
  3
05 A1フィット
350
C344
  3
06 A1
350
C345
  3
06 A4フィット
350
C346
  3
07 A4
350
C347
  0
ACDBDICTIONARYWDFLT
  5
E
102
{ACAD_REACTORS
330
C
102
}
330
C
100
AcDbDictionary
281
     1
  3
Normal
350
F
100
AcDbDictionaryWithDefault
340
F
  0
DICTIONARY
  5
AAB9
102
{ACAD_REACTORS
330
C
102
}
330
C
100
AcDbDictionary
281
     1
  3
Standard
350
AABA
  0
DICTIONARY
  5
CB36
102
{ACAD_REACTORS
330
C
102
}
330
C
100
AcDbDictionary
281
     1
  3
2dWireframe
350
CB3C
  3
3D Hidden
350
CB3E
  3
3dWireframe
350
CB3D
  3
Basic
350
CB3B
  3
Brighten
350
CB42
  3
ColorChange
350
CB46
  3
Conceptual
350
CB3F
  3
Dim
350
CB41
  3
Facepattern
350
CB45
  3
Flat
350
CB37
  3
FlatWithEdges
350
CB38
  3
Gouraud
350
CB39
  3
GouraudWithEdges
350
CB3A
  3
Linepattern
350
CB44
  3
Realistic
350
CB40
  3
Thicken
350
CB43
  0
ACAD_PROXY_OBJECT
  5
3DA1
102
{ACAD_REACTORS
330
C
102
}
330
C
100
AcDbProxyObject
 90
      499
 91
      576
 95
   917527
 70
     0
 93
       10
310
407F
 94
        0
1001
ACAD
1000
AcRTDxfName
1000
ASAPP
  0
ACAD_PROXY_OBJECT
  5
3DE9
102
{ACAD_REACTORS
330
C
102
}
330
C
100
AcDbProxyObject
 90
      499
 91
      581
 95
   917527
 70
     0
 93
       34
310
010000407F
 94
        0
1001
ACAD
1000
AcRTDxfName
1000
ACASGREFMASTER
  0
DICTIONARY
  5
34
102
{ACAD_REACTORS
330
C
102
}
330
C
100
AcDbDictionary
281
     1
  3
CTABLESTYLE
350
AAF3
  3
DIMASSOC
350
A10C
  3
FIELDEVAL
350
AB07
  3
INDEXCTL
350
35
  3
SORTENTS
350
194C
  0
DICTIONARY
  5
47
102
{ACAD_REACTORS
330
C
102
}
330
C
100
AcDbDictionary
281
     1
  3
AcmBOM
350
7E8
  3
AcmStdDictionary
350
4C
  3
AMDTSECTSYM_ARROWCOLOR
350
A929
  0
ACAD_PROXY_OBJECT
  5
3DEA
102
{ACAD_REACTORS
330
C
102
}
330
C
100
AcDbProxyObject
 90
      499
 91
      582
 95
   917527
 70
     0
 93
      114
310
00000043800000000000000000003F
 94
        0
1001
ACAD
1000
AcRTDxfName
1000
ACADGREFMODULE
  0
ACAD_PROXY_OBJECT
  5
3E06
102
{ACAD_REACTORS
330
C
102
}
330
C
100
AcDbProxyObject
 90
      499
 91
      594
 95
   917527
 70
     0
 93
       34
310
05000044FF
 94
        0
1001
ACAD
1000
AcRTDxfName
1000
MAPIADMODULE
  0
DICTIONARY
  5
2B
102
{ACAD_REACTORS
330
C
102
}
330
C
100
AcDbDictionary
281
     1
  0
DICTIONARY
  5
7D
102
{ACAD_REACTORS
330
C
102
}
330
C
100
AcDbDictionary
281
     1
  0
DICTIONARY
  5
9F48
102
{ACAD_REACTORS
330
C
102
}
330
C
100
AcDbDictionary
281
     1
  3
ASEBlockHierarchyIndexRecord
350
9F49
1001
DCO15
1040
1425739953.442
  0
XRECORD
  5
CBAE
102
{ACAD_REACTORS
330
C
102
}
330
C
100
AcDbXrecord
280
     1
  1
DWGPROPS COOKIE
  2

  3

  4

  6

  7

  8
Administrator
  9

300
AmdtFileType=84
301
=
302
=
303
=
304
=
305
=
306
=
307
=
308
=
309
=
 40
0.6561163541666667
 41
2454837.461395938
 42
2456185.549812824
  1

 90
        1
  0
ACAD_PROXY_OBJECT
  5
3DEB
102
{ACAD_REACTORS
330
C
102
}
330
C
100
AcDbProxyObject
 90
      499
 91
      583
 95
   917527
 70
     0
 93
        8
310
047E
 94
        0
1001
ACAD
1000
AcRTDxfName
1000
AMDTMAPISURFMOUDULE
  0
DICTIONARY
  5
C291
102
{ACAD_REACTORS
330
3F95
102
}
330
3F95
100
AcDbDictionary
281
     1
  0
DICTIONARY
  5
3F96
102
{ACAD_REACTORS
330
3F95
102
}
330
3F95
100
AcDbDictionary
281
     1
  3
20011210
350
3FB7
  0
DICTIONARY
  5
C290
102
{ACAD_REACTORS
330
3F95
102
}
330
3F95
100
AcDbDictionary
281
     1
1001
ACAD
1000
<All
  0
DICTIONARY
  5
AAB4
102
{ACAD_REACTORS
330
3F95
102
}
330
3F95
100
AcDbDictionary
280
     1
281
     1
  0
SORTENTSTABLE
  5
C43F
102
{ACAD_REACTORS
330
8A
102
}
330
8A
100
AcDbSortentsTable
330
1F
331
C658
  5
C658
331
C30D
  5
C30D
331
C660
  5
C660
331
C6A7
  5
C6A9
331
C70E
  5
C723
331
C668
  5
C668
331
C6AF
  5
C6B1
331
C670
  5
C670
331
C6B7
  5
C6B9
331
C736
  5
C736
331
C6BF
  5
C6C5
331
C83C
  5
C782
331
C7B5
  5
C7BD
331
C7BD
  5
C7C5
331
C7C5
  5
C7CD
331
C678
  5
C678
331
C680
  5
C680
331
C43A
  5
C438
331
C786
  5
C78A
331
C649
  5
C649
331
C78E
  5
C7B4
331
C6FF
  5
C701
331
C651
  5
C651
331
C707
  5
C709
331
C2FE
  5
C2FE
331
C306
  5
C306
331
C7CD
  5
C7D5
331
C7D5
  5
C7DD
331
C8D4
  5
C8D4
331
C7DD
  5
C837
331
C659
  5
C659
331
C30E
  5
C30E
331
C6A0
  5
C6A2
331
C6A8
  5
C6AA
331
C661
  5
C661
331
C5EA
  5
C5EA
331
C669
  5
C669
331
C6B0
  5
C6B2
331
C737
  5
C737
331
C6B8
  5
C6BA
331
C671
  5
C671
331
C7B6
  5
C7BE
331
C7BE
  5
C7C6
331
C7C6
  5
C7CE
331
C433
  5
C431
331
C679
  5
C679
331
C6C0
  5
C6ED
331
C77F
  5
C783
331
C43B
  5
C439
331
C681
  5
C681
331
C787
  5
C78B
331
C64A
  5
C64A
331
C700
  5
C702
331
C652
  5
C652
331
C2FF
  5
C2FF
331
C307
  5
C307
331
C7CE
  5
C7D6
331
C7D6
  5
C7DE
331
C7DE
  5
C838
331
C708
  5
C70A
331
C65A
  5
C65A
331
C4A3
  5
C4A3
331
C30F
  5
C30F
331
C6A1
  5
C6A4
331
C662
  5
C662
331
C6A9
  5
C6AB
331
C66A
  5
C66A
331
C6B1
  5
C6B3
331
C738
  5
C738
331
C672
  5
C672
331
C62B
  5
C62B
331
C6B9
  5
C6BB
331
C7B7
  5
C7BF
331
C905
  5
C905
331
C7BF
  5
C7C7
331
C8B6
  5
C8B6
331
C7C7
  5
C7CF
331
C96D
  5
C96D
331
C67A
  5
C67A
331
C434
  5
C432
331
C780
  5
C784
331
C682
  5
C682
331
C643
  5
C643
331
C43C
  5
C43A
331
C788
  5
C78C
331
C653
  5
C653
331
C701
  5
C703
331
C300
  5
C300
331
C7CF
  5
C7D7
331
C8CE
  5
C8CE
331
C7D7
  5
C7DF
331
C7DF
  5
C839
331
C308
  5
C308
331
C65B
  5
C65B
331
C310
  5
C310
331
C6A2
  5
C6A5
331
C709
  5
C70B
331
C6AA
  5
C6AC
331
C663
  5
C663
331
C66B
  5
C66B
331
C415
  5
C43E
331
C6B2
  5
C6B4
331
C673
  5
C673
331
C6BA
  5
C6BC
331
C7B8
  5
C7C0
331
C7C0
  5
C7C8
331
C8B7
  5
C8B7
331
C67B
  5
C67B
331
C634
  5
C634
331
C435
  5
C433
331
C781
  5
C785
331
C644
  5
C644
331
C43D
  5
C43B
331
C789
  5
C78D
331
C69B
  5
C69B
331
C64C
  5
C64C
331
C495
  5
C495
331
C702
  5
C704
331
C654
  5
C654
331
C301
  5
C301
331
C7C8
  5
C7D0
331
C7D0
  5
C7D8
331
C7D8
  5
C7E0
331
C7E0
  5
C83A
331
C309
  5
C309
331
C65C
  5
C65C
331
C70A
  5
C70C
331
C664
  5
C664
331
C6AB
  5
C6AD
331
C66C
  5
C66C
331
C6B3
  5
C6B5
331
C674
  5
C674
331
C62D
  5
C62D
331
C6BB
  5
C6BD
331
C7B9
  5
C7C1
331
C967
  5
C967
331
C7C1
  5
C7C9
331
C96F
  5
C96F
331
C67C
  5
C67C
331
C635
  5
C635
331
C436
  5
C434
331
C782
  5
C786
331
C684
  5
C684
331
C645
  5
C645
331
C43E
  5
C43C
331
C78A
  5
C78E
331
C69C
  5
C69C
331
C64D
  5
C64D
331
C655
  5
C655
331
C3EF
  5
C43D
331
C703
  5
C705
331
C2FA
  5
C2FA
331
C302
  5
C302
331
C8B8
  5
C8B8
331
C7C9
  5
C7D1
331
C7D1
  5
C7D9
331
C7D9
  5
C7E1
331
C7E1
  5
C83B
331
C30A
  5
C30A
331
C6A4
  5
C6A6
331
C65D
  5
C65D
331
C70B
  5
C70D
331
C723
  5
C6A1
331
C665
  5
C665
331
C6AC
  5
C6AE
331
C66D
  5
C66D
331
C6B4
  5
C6B6
331
C6BC
  5
C6BE
331
C7BA
  5
C7C2
331
C968
  5
C968
331
C7C2
  5
C7CA
331
C77B
  5
C77B
331
C67D
  5
C67D
331
C636
  5
C636
331
C437
  5
C435
331
C783
  5
C787
331
C646
  5
C646
331
C78B
  5
C79C
331
C69D
  5
C69D
331
C64E
  5
C64E
331
C6FC
  5
C6FE
331
C704
  5
C706
331
C656
  5
C656
331
C2FB
  5
C2FB
331
C303
  5
C303
331
C8B9
  5
C8B9
331
C7CA
  5
C7D2
331
C970
  5
C970
331
C8C9
  5
C8C9
331
C7D2
  5
C7DA
331
C7DA
  5
C7E2
331
C7E2
  5
C83C
331
C65E
  5
C65E
331
C6A5
  5
C6A7
331
C70C
  5
C70E
331
C666
  5
C666
331
C6AD
  5
C6AF
331
C6B5
  5
C6B7
331
C66E
  5
C66E
331
C676
  5
C676
331
C6BD
  5
C6BF
331
C83A
  5
C7BA
331
C7B3
  5
C7BB
331
C7BB
  5
C7C3
331
C8B2
  5
C8B2
331
C7C3
  5
C7CB
331
C969
  5
C969
331
C77C
  5
C77C
331
C67E
  5
C67E
331
C438
  5
C436
331
C6C5
  5
C6FC
331
C784
  5
C788
331
C647
  5
C647
331
C6ED
  5
C6FD
331
C78C
  5
C79D
331
C6FD
  5
C6FF
331
C64F
  5
C64F
331
C657
  5
C657
331
C705
  5
C707
331
C2FC
  5
C2FC
331
C304
  5
C304
331
C7CB
  5
C7D3
331
C7D3
  5
C7DB
331
C7DB
  5
C835
331
C30C
  5
C30C
331
C6A6
  5
C6A8
331
C65F
  5
C65F
331
C70D
  5
C722
331
C667
  5
C667
331
C6AE
  5
C6B0
331
C66F
  5
C66F
331
C6B6
  5
C6B8
331
C677
  5
C677
331
C79C
  5
C7B5
331
C8DA
  5
C8DA
331
C7B4
  5
C7BC
331
C7BC
  5
C7C4
331
C8B3
  5
C8B3
331
C7C4
  5
C7CC
331
C96A
  5
C96A
331
C77D
  5
C77D
331
C67F
  5
C67F
331
C439
  5
C437
331
C785
  5
C789
331
C648
  5
C648
331
C78D
  5
C7B3
331
C6FE
  5
C700
331
C650
  5
C650
331
C706
  5
C708
331
C2FD
  5
C2FD
331
C305
  5
C305
331
C7CC
  5
C7D4
331
C8CB
  5
C8CB
331
C7D4
  5
C7DC
331
C7DC
  5
C836
  0
SORTENTSTABLE
  5
C3B9
102
{ACAD_REACTORS
330
C3B8
102
}
330
C3B8
100
AcDbSortentsTable
330
C348
  0
DIMASSOC
  5
C3FD
102
{ACAD_REACTORS
330
C3FC
102
}
330
C3FC
100
AcDbDimAssoc
330
C3EF
 90
        3
 70
     0
 71
     0
  1
AcDbOsnapPointRef
 72
     1
331
C310
 73
     2
 91
        3
 40
0.0
 10
0.0
 20
0.0
 30
2.000000000000000E+50
 75
     0
  1
AcDbOsnapPointRef
 72
     1
331
C310
 73
     2
 91
        2
 40
0.0
 10
0.0
 20
0.0
 30
2.000000000000000E+50
 75
     0
  0
DIMASSOC
  5
C423
102
{ACAD_REACTORS
330
C422
102
}
330
C422
100
AcDbDimAssoc
330
C415
 90
        3
 70
     0
 71
     0
  1
AcDbOsnapPointRef
 72
     1
331
C310
 73
     2
 91
        2
 40
0.0
 10
0.0
 20
0.0
 30
2.000000000000000E+50
 75
     0
  1
AcDbOsnapPointRef
 72
    13
331
C310
 73
     2
 91
        2
 40
0.0
 10
0.0
 20
0.0
 30
2.000000000000000E+50
 75
     0
  0
XRECORD
  5
CBB1
102
{ACAD_REACTORS
330
CBAF
102
}
330
CBAF
100
AcDbXrecord
280
     1
 70
     1
  0
XRECORD
  5
CBB0
102
{ACAD_REACTORS
330
CBAF
102
}
330
CBAF
100
AcDbXrecord
280
     1
 40
0.0
  0
LAYOUT
  5
22
102
{ACAD_XDICTIONARY
360
CBB4
102
}
102
{ACAD_REACTORS
330
1A
102
}
330
1A
100
AcDbPlotSettings
  1

  2
FX DocuWide 2050/2051
  4
A4
  6
AM_VIEW1
 40
3.174999952316284
 41
3.174999952316284
 42
3.175003051757812
 43
3.17498779296875
 44
209.9944915771484
 45
296.989501953125
 46
0.0
 47
1.314011612960285
 48
214.3704939521119
 49
367.5855324241176
140
275.6727856380065
141
407.629191407817
142
1.0
143
0.5156044277737601
 70
  3764
 72
     1
 73
     1
 74
     2
  7
monochrome.ctb
 75
     0
147
1.939471319743564
148
0.0
149
0.0000000000000284
100
AcDbLayout
  1
Model
 70
     1
 71
     0
 10
0.0
 20
0.0
 11
12.0
 21
9.0
 12
0.0
 22
0.0
 32
0.0
 14
0.0
 24
0.0
 34
0.0
 15
0.0
 25
0.0
 35
0.0
146
0.0
 13
0.0
 23
0.0
 33
0.0
 16
1.0
 26
0.0
 36
0.0
 17
0.0
 27
1.0
 37
0.0
 76
     0
330
1F
331
CB31
1001
ACAD_PSEXT
1000
FX DocuWide 2050/2051
1000
FX DocuWide 2050/2051
1000
IP_192.168.2.203
1000

1070
     0
  0
LAYOUT
  5
1E
102
{ACAD_XDICTIONARY
360
CBB2
102
}
102
{ACAD_REACTORS
330
1A
102
}
330
1A
100
AcDbPlotSettings
  1

  2
\\ML370\XEROX
  4
A4
  6

 40
3.174999952316284
 41
3.174999952316284
 42
3.175003051757812
 43
3.17498779296875
 44
209.8674926757813
 45
296.6719970703125
 46
0.0
 47
0.0
 48
0.0
 49
0.0
140
0.0
141
0.0
142
1.0
143
1.0
 70
   688
 72
     1
 73
     1
 74
     5
  7
monochrome.ctb
 75
    16
147
1.0
148
0.0
149
0.0
100
AcDbLayout
  1
ﾚｲｱｳﾄ1
 70
     1
 71
     1
 10
-3.17498779296875
 20
-3.174999952316284
 11
293.4970092773438
 21
206.692492723465
 12
0.0
 22
0.0
 32
0.0
 14
1.000000000000000E+20
 24
1.000000000000000E+20
 34
1.000000000000000E+20
 15
-1.000000000000000E+20
 25
-1.000000000000000E+20
 35
-1.000000000000000E+20
146
0.0
 13
0.0
 23
0.0
 33
0.0
 16
1.0
 26
0.0
 36
0.0
 17
0.0
 27
1.0
 37
0.0
 76
     0
330
1B
  0
LAYOUT
  5
26
102
{ACAD_XDICTIONARY
360
CBB6
102
}
102
{ACAD_REACTORS
330
1A
102
}
330
1A
100
AcDbPlotSettings
  1

  2
\\ML370\XEROX
  4

  6

 40
0.0
 41
0.0
 42
0.0
 43
0.0
 44
0.0
 45
0.0
 46
0.0
 47
0.0
 48
0.0
 49
0.0
140
0.0
141
0.0
142
1.0
143
1.0
 70
   688
 72
     0
 73
     0
 74
     5
  7
monochrome.ctb
 75
    16
147
1.0
148
0.0
149
0.0
100
AcDbLayout
  1
ﾚｲｱｳﾄ2
 70
     1
 71
     2
 10
0.0
 20
0.0
 11
12.0
 21
9.0
 12
0.0
 22
0.0
 32
0.0
 14
0.0
 24
0.0
 34
0.0
 15
0.0
 25
0.0
 35
0.0
146
0.0
 13
0.0
 23
0.0
 33
0.0
 16
1.0
 26
0.0
 36
0.0
 17
0.0
 27
1.0
 37
0.0
 76
     0
330
23
  0
MATERIAL
  5
CB34
102
{ACAD_XDICTIONARY
360
CBCC
102
}
102
{ACAD_REACTORS
330
A91C
102
}
330
A91C
100
AcDbMaterial
  1
ByBlock
  0
MATERIAL
  5
CB33
102
{ACAD_XDICTIONARY
360
CBCA
102
}
102
{ACAD_REACTORS
330
A91C
102
}
330
A91C
100
AcDbMaterial
  1
ByLayer
  0
MATERIAL
  5
CB35
102
{ACAD_XDICTIONARY
360
CBCE
102
}
102
{ACAD_REACTORS
330
A91C
102
}
330
A91C
100
AcDbMaterial
  1
Global
  0
MLINESTYLE
  5
18
102
{ACAD_REACTORS
330
17
102
}
330
17
100
AcDbMlineStyle
  2
STANDARD
 70
     0
  3

 62
   256
 51
90.0
 52
90.0
 71
     2
 49
0.5
 62
   256
  6
BYLAYER
 49
-0.5
 62
   256
  6
BYLAYER
  0
PLOTSETTINGS
  5
C340
102
{ACAD_XDICTIONARY
360
CBBA
102
}
102
{ACAD_REACTORS
330
19
102
}
330
19
100
AcDbPlotSettings
  1
01 A3フィット
  2
FX DocuWide 2050/2051
  4
A3
  6

 40
3.174999952316284
 41
3.174999952316284
 42
3.17498779296875
 43
3.17498779296875
 44
296.989501953125
 45
419.9889831542968
 46
0.0
 47
1.295841228961961
 48
214.3704939521119
 49
367.5855324241176
140
275.6727856380065
141
407.629191407817
142
1.0
143
1.445089120606129
 70
  3764
 72
     1
 73
     1
 74
     2
  7
monochrome.ctb
 75
     0
147
0.6919988433519999
148
0.0
149
0.0
1001
ACAD_PSEXT
1000
FX DocuWide 2050/2051
1000
FX DocuWide 2050/2051
1000
IP_192.200.15.252
1000

1070
     0
  0
PLOTSETTINGS
  5
C341
102
{ACAD_XDICTIONARY
360
CBBC
102
}
102
{ACAD_REACTORS
330
19
102
}
330
19
100
AcDbPlotSettings
  1
02 A3
  2
FX DocuWide 2050/2051
  4
A3
  6

 40
3.174999952316284
 41
3.174999952316284
 42
3.17498779296875
 43
3.17498779296875
 44
296.989501953125
 45
419.9889831542968
 46
-64.68024289608002
 47
-90.18050229549407
 48
214.3704939521119
 49
367.5855324241176
140
275.6727856380065
141
407.629191407817
142
1.0
143
1.0
 70
  3764
 72
     1
 73
     1
 74
     2
  7
monochrome.ctb
 75
    16
147
1.0
148
0.0
149
0.0
1001
ACAD_PSEXT
1000
FX DocuWide 2050/2051
1000
FX DocuWide 2050/2051
1000
IP_192.200.15.252
1000

1070
     0
  0
PLOTSETTINGS
  5
C342
102
{ACAD_XDICTIONARY
360
CBBE
102
}
102
{ACAD_REACTORS
330
19
102
}
330
19
100
AcDbPlotSettings
  1
03 A2フィット
  2
FX DocuWide 2050/2051
  4
User66
  6

 40
3.174999952316284
 41
3.174999952316284
 42
3.17498779296875
 43
3.17498779296875
 44
419.9889831542968
 45
593.97900390625
 46
0.0
 47
1.312647041252716
 48
214.3704939521119
 49
367.5855324241176
140
275.6727856380065
141
407.629191407817
142
1.0
143
1.015378155013403
 70
  3764
 72
     1
 73
     1
 74
     2
  7
monochrome.ctb
 75
     0
147
0.9848547509738377
148
0.0
149
0.0
1001
ACAD_PSEXT
1000
FX DocuWide 2050/2051
1000
FX DocuWide 2050/2051
1000
IP_192.200.15.252
1000

1070
     0
  0
PLOTSETTINGS
  5
C343
102
{ACAD_XDICTIONARY
360
CBC0
102
}
102
{ACAD_REACTORS
330
19
102
}
330
19
100
AcDbPlotSettings
  1
04 A2
  2
FX DocuWide 2050/2051
  4
User66
  6

 40
3.174999952316284
 41
3.174999952316284
 42
3.17498779296875
 43
3.17498779296875
 44
419.9889831542968
 45
593.97900390625
 46
-3.180502295494079
 47
-3.185491919517517
 48
214.3704939521119
 49
367.5855324241176
140
275.6727856380065
141
407.629191407817
142
1.0
143
1.0
 70
  3764
 72
     1
 73
     1
 74
     2
  7
monochrome.ctb
 75
    16
147
1.0
148
0.0
149
0.0
1001
ACAD_PSEXT
1000
FX DocuWide 2050/2051
1000
FX DocuWide 2050/2051
1000
IP_192.200.15.252
1000

1070
     0
  0
PLOTSETTINGS
  5
C344
102
{ACAD_XDICTIONARY
360
CBC2
102
}
102
{ACAD_REACTORS
330
19
102
}
330
19
100
AcDbPlotSettings
  1
05 A1フィット
  2
FX DocuWide 2050/2051
  4
User139
  6

 40
3.174999952316284
 41
3.174999952316284
 42
3.17498779296875
 43
3.17498779296875
 44
593.97900390625
 45
840.9939575195313
 46
0.0
 47
1.784323459012171
 48
214.3704939521119
 49
367.5855324241176
140
275.6727856380065
141
407.629191407817
142
1.0
143
0.7147366594384652
 70
  3764
 72
     1
 73
     1
 74
     2
  7
monochrome.ctb
 75
     0
147
1.399116705145154
148
0.0
149
0.0
1001
ACAD_PSEXT
1000
FX DocuWide 2050/2051
1000
FX DocuWide 2050/2051
1000
IP_192.200.15.252
1000

1070
     0
  0
PLOTSETTINGS
  5
C345
102
{ACAD_XDICTIONARY
360
CBC4
102
}
102
{ACAD_REACTORS
330
19
102
}
330
19
100
AcDbPlotSettings
  1
06 A1
  2
FX DocuWide 2050/2051
  4
User139
  6

 40
3.174999952316284
 41
3.174999952316284
 42
3.17498779296875
 43
3.17498779296875
 44
593.97900390625
 45
840.9939575195313
 46
83.81450808048247
 47
120.3219848871231
 48
214.3704939521119
 49
367.5855324241176
140
275.6727856380065
141
407.629191407817
142
1.0
143
1.0
 70
  3764
 72
     1
 73
     1
 74
     2
  7
monochrome.ctb
 75
    16
147
1.0
148
0.0
149
0.0
1001
ACAD_PSEXT
1000
FX DocuWide 2050/2051
1000
FX DocuWide 2050/2051
1000
IP_192.200.15.252
1000

1070
     0
  0
PLOTSETTINGS
  5
C346
102
{ACAD_XDICTIONARY
360
CBC6
102
}
102
{ACAD_REACTORS
330
19
102
}
330
19
100
AcDbPlotSettings
  1
06 A4フィット
  2
FX DocuWide 2050/2051
  4
A4
  6

 40
3.174999952316284
 41
3.174999952316284
 42
3.175003051757812
 43
3.17498779296875
 44
209.9944915771484
 45
296.989501953125
 46
0.0
 47
1.314011612960285
 48
214.3704939521119
 49
367.5855324241176
140
275.6727856380065
141
407.629191407817
142
1.0
143
2.06241771109504
 70
  3764
 72
     1
 73
     1
 74
     2
  7
monochrome.ctb
 75
     0
147
0.4848678299358913
148
0.0
149
0.0
1001
ACAD_PSEXT
1000
FX DocuWide 2050/2051
1000
FX DocuWide 2050/2051
1000
IP_192.200.15.252
1000

1070
     0
  0
PLOTSETTINGS
  5
C347
102
{ACAD_XDICTIONARY
360
CBC8
102
}
102
{ACAD_REACTORS
330
19
102
}
330
19
100
AcDbPlotSettings
  1
07 A4
  2
FX DocuWide 2050/2051
  4
A4
  6

 40
3.174999952316284
 41
3.174999952316284
 42
3.175003051757812
 43
3.17498779296875
 44
209.9944915771484
 45
296.989501953125
 46
-108.1777557134628
 47
-151.68024289608
 48
214.3704939521119
 49
367.5855324241176
140
275.6727856380065
141
407.629191407817
142
1.0
143
1.0
 70
  3764
 72
     1
 73
     1
 74
     2
  7
monochrome.ctb
 75
    16
147
1.0
148
0.0
149
0.0
1001
ACAD_PSEXT
1000
FX DocuWide 2050/2051
1000
FX DocuWide 2050/2051
1000
IP_192.200.15.252
1000

1070
     0
  0
ACDBPLACEHOLDER
  5
F
102
{ACAD_REACTORS
330
E
102
}
330
E
  0
TABLESTYLE
  5
AABA
102
{ACAD_XDICTIONARY
360
CBB8
102
}
102
{ACAD_REACTORS
330
AAB9
102
}
330
AAB9
100
AcDbTableStyle
  3
Standard
 70
     0
 71
     0
 40
1.5
 41
1.5
280
     0
281
     0
  7
STANDARD
140
4.5
170
     2
 62
     0
 63
     7
283
     0
274
    -2
284
     1
 64
     0
275
    -2
285
     1
 65
     0
276
    -2
286
     1
 66
     0
277
    -2
287
     1
 67
     0
278
    -2
288
     1
 68
     0
279
    -2
289
     1
 69
     0
  7
STANDARD
140
6.0
170
     5
 62
     0
 63
     7
283
     0
274
    -2
284
     1
 64
     0
275
    -2
285
     1
 65
     0
276
    -2
286
     1
 66
     0
277
    -2
287
     1
 67
     0
278
    -2
288
     1
 68
     0
279
    -2
289
     1
 69
     0
  7
STANDARD
140
4.5
170
     5
 62
     0
 63
     7
283
     0
274
    -2
284
     1
 64
     0
275
    -2
285
     1
 65
     0
276
    -2
286
     1
 66
     0
277
    -2
287
     1
 67
     0
278
    -2
288
     1
 68
     0
279
    -2
289
     1
 69
     0
  0
VISUALSTYLE
  5
CB3C
102
{ACAD_REACTORS
330
CB36
102
}
330
CB36
100
AcDbVisualStyle
  2
2dWireframe
 70
     4
 71
     0
 72
     2
 73
     0
 90
        0
 40
-0.6
 41
-30.0
 62
     5
 63
     7
 74
     1
 91
        4
 64
     7
 65
   257
 75
     1
175
     1
 42
1.0
 92
        0
 66
   257
 43
1.0
 76
     1
 77
     6
 78
     2
 67
     7
 79
     5
170
     0
171
     0
290
     0
174
     0
 93
        1
 44
0.0
173
     0
291
     0
 45
0.0
1001
ACAD
1000
AcDbSavedByObjectVersion
1070
     0
  0
VISUALSTYLE
  5
CB3E
102
{ACAD_REACTORS
330
CB36
102
}
330
CB36
100
AcDbVisualStyle
  2
3D Hidden
 70
     6
 71
     1
 72
     2
 73
     2
 90
        0
 40
-0.6
 41
-30.0
 62
     5
 63
     7
 74
     2
 91
        2
 64
     7
 65
   257
 75
     2
175
     1
 42
40.0
 92
        0
 66
   257
 43
1.0
 76
     1
 77
     6
 78
     2
 67
     7
 79
     3
170
     0
171
     0
290
     0
174
     0
 93
        1
 44
0.0
173
     0
291
     0
 45
0.0
1001
ACAD
1000
AcDbSavedByObjectVersion
1070
     0
  0
VISUALSTYLE
  5
CB3D
102
{ACAD_REACTORS
330
CB36
102
}
330
CB36
100
AcDbVisualStyle
  2
3dWireframe
 70
     5
 71
     0
 72
     2
 73
     0
 90
        0
 40
-0.6
 41
-30.0
 62
     5
 63
     7
 74
     1
 91
        4
 64
     7
 65
   257
 75
     1
175
     1
 42
1.0
 92
        0
 66
   257
 43
1.0
 76
     1
 77
     6
 78
     2
 67
     7
 79
     5
170
     0
171
     0
290
     0
174
     0
 93
        1
 44
0.0
173
     0
291
     0
 45
0.0
1001
ACAD
1000
AcDbSavedByObjectVersion
1070
     0
  0
VISUALSTYLE
  5
CB3B
102
{ACAD_REACTORS
330
CB36
102
}
330
CB36
100
AcDbVisualStyle
  2
Basic
 70
     7
 71
     1
 72
     0
 73
     1
 90
        0
 40
-0.6
 41
-30.0
 62
     5
 63
     7
 74
     0
 91
        4
 64
     7
 65
   257
 75
     1
175
     1
 42
1.0
 92
        8
 66
     7
 43
1.0
 76
     1
 77
     6
 78
     2
 67
     7
 79
     5
170
     0
171
     0
290
     0
174
     0
 93
        1
 44
0.0
173
     0
291
     1
 45
0.0
1001
ACAD
1000
AcDbSavedByObjectVersion
1070
     0
  0
VISUALSTYLE
  5
CB42
102
{ACAD_REACTORS
330
CB36
102
}
330
CB36
100
AcDbVisualStyle
  2
Brighten
 70
    12
 71
     2
 72
     2
 73
     0
 90
        0
 40
-0.6
 41
-30.0
 62
     5
 63
     7
 74
     1
 91
        4
 64
     7
 65
   257
 75
     1
175
     1
 42
1.0
 92
        8
 66
     7
 43
1.0
 76
     1
 77
     6
 78
     2
 67
     7
 79
     5
170
     0
171
     0
290
     0
174
     0
 93
        1
 44
50.0
173
     0
291
     1
 45
0.0
1001
ACAD
1000
AcDbSavedByObjectVersion
1070
     0
  0
VISUALSTYLE
  5
CB46
102
{ACAD_REACTORS
330
CB36
102
}
330
CB36
100
AcDbVisualStyle
  2
ColorChange
 70
    16
 71
     2
 72
     2
 73
     3
 90
        0
 40
-0.6
 41
-30.0
 62
     5
 63
     8
 74
     1
 91
        4
 64
     7
 65
   257
 75
     1
175
     1
 42
1.0
 92
        8
 66
     8
 43
1.0
 76
     1
 77
     6
 78
     2
 67
     7
 79
     5
170
     0
171
     0
290
     0
174
     0
 93
        1
 44
0.0
173
     0
291
     1
 45
0.0
1001
ACAD
1000
AcDbSavedByObjectVersion
1070
     0
  0
VISUALSTYLE
  5
CB3F
102
{ACAD_REACTORS
330
CB36
102
}
330
CB36
100
AcDbVisualStyle
  2
Conceptual
 70
     9
 71
     3
 72
     2
 73
     0
 90
        0
 40
-0.6
 41
-30.0
 62
     5
 63
     7
 74
     2
 91
        2
 64
     7
 65
   257
 75
     1
175
     1
 42
40.0
 92
        8
 66
     7
 43
1.0
 76
     1
 77
     6
 78
     2
 67
     7
 79
     3
170
     0
171
     0
290
     0
174
     0
 93
        1
 44
0.0
173
     0
291
     0
 45
0.0
1001
ACAD
1000
AcDbSavedByObjectVersion
1070
     0
  0
VISUALSTYLE
  5
CB41
102
{ACAD_REACTORS
330
CB36
102
}
330
CB36
100
AcDbVisualStyle
  2
Dim
 70
    11
 71
     2
 72
     2
 73
     0
 90
        0
 40
-0.6
 41
-30.0
 62
     5
 63
     7
 74
     1
 91
        4
 64
     7
 65
   257
 75
     1
175
     1
 42
1.0
 92
        8
 66
     7
 43
1.0
 76
     1
 77
     6
 78
     2
 67
     7
 79
     5
170
     0
171
     0
290
     0
174
     0
 93
        1
 44
-50.0
173
     0
291
     1
 45
0.0
1001
ACAD
1000
AcDbSavedByObjectVersion
1070
     0
  0
VISUALSTYLE
  5
CB45
102
{ACAD_REACTORS
330
CB36
102
}
330
CB36
100
AcDbVisualStyle
  2
Facepattern
 70
    15
 71
     2
 72
     2
 73
     0
 90
        0
 40
-0.6
 41
-30.0
 62
     5
 63
     7
 74
     1
 91
        4
 64
     7
 65
   257
 75
     1
175
     1
 42
1.0
 92
        8
 66
     7
 43
1.0
 76
     1
 77
     6
 78
     2
 67
     7
 79
     5
170
     0
171
     0
290
     0
174
     0
 93
        1
 44
0.0
173
     0
291
     1
 45
0.0
1001
ACAD
1000
AcDbSavedByObjectVersion
1070
     0
  0
VISUALSTYLE
  5
CB37
102
{ACAD_REACTORS
330
CB36
102
}
330
CB36
100
AcDbVisualStyle
  2
Flat
 70
     0
 71
     2
 72
     1
 73
     1
 90
        2
 40
-0.6
 41
30.0
 62
     5
 63
     7
 74
     0
 91
        4
 64
     7
 65
   257
 75
     1
175
     1
 42
1.0
 92
        8
 66
     7
 43
1.0
 76
     1
 77
     6
 78
     2
 67
     7
 79
     5
170
     0
171
     0
290
     0
174
     0
 93
       13
 44
0.0
173
     0
291
     1
 45
0.0
1001
ACAD
1000
AcDbSavedByObjectVersion
1070
     0
  0
VISUALSTYLE
  5
CB38
102
{ACAD_REACTORS
330
CB36
102
}
330
CB36
100
AcDbVisualStyle
  2
FlatWithEdges
 70
     1
 71
     2
 72
     1
 73
     1
 90
        2
 40
-0.6
 41
30.0
 62
     5
 63
     7
 74
     1
 91
        4
 64
     7
 65
   257
 75
     1
175
     1
 42
1.0
 92
        0
 66
   257
 43
1.0
 76
     1
 77
     6
 78
     2
 67
     7
 79
     5
170
     0
171
     0
290
     0
174
     0
 93
       13
 44
0.0
173
     0
291
     1
 45
0.0
1001
ACAD
1000
AcDbSavedByObjectVersion
1070
     0
  0
VISUALSTYLE
  5
CB39
102
{ACAD_REACTORS
330
CB36
102
}
330
CB36
100
AcDbVisualStyle
  2
Gouraud
 70
     2
 71
     2
 72
     2
 73
     1
 90
        2
 40
-0.6
 41
30.0
 62
     5
 63
     7
 74
     0
 91
        4
 64
     7
 65
   257
 75
     1
175
     1
 42
1.0
 92
        0
 66
     7
 43
1.0
 76
     1
 77
     6
 78
     2
 67
     7
 79
     5
170
     0
171
     0
290
     0
174
     0
 93
       13
 44
0.0
173
     0
291
     1
 45
0.0
1001
ACAD
1000
AcDbSavedByObjectVersion
1070
     0
  0
VISUALSTYLE
  5
CB3A
102
{ACAD_REACTORS
330
CB36
102
}
330
CB36
100
AcDbVisualStyle
  2
GouraudWithEdges
 70
     3
 71
     2
 72
     2
 73
     1
 90
        2
 40
-0.6
 41
30.0
 62
     5
 63
     7
 74
     1
 91
        4
 64
     7
 65
   257
 75
     1
175
     1
 42
1.0
 92
        0
 66
   257
 43
1.0
 76
     1
 77
     6
 78
     2
 67
     7
 79
     5
170
     0
171
     0
290
     0
174
     0
 93
       13
 44
0.0
173
     0
291
     1
 45
0.0
1001
ACAD
1000
AcDbSavedByObjectVersion
1070
     0
  0
VISUALSTYLE
  5
CB44
102
{ACAD_REACTORS
330
CB36
102
}
330
CB36
100
AcDbVisualStyle
  2
Linepattern
 70
    14
 71
     2
 72
     2
 73
     0
 90
        0
 40
-0.6
 41
-30.0
 62
     5
 63
     7
 74
     1
 91
        4
 64
     7
 65
   257
 75
     7
175
     7
 42
1.0
 92
        8
 66
     7
 43
1.0
 76
     1
 77
     6
 78
     2
 67
     7
 79
     5
170
     0
171
     0
290
     0
174
     0
 93
        1
 44
0.0
173
     0
291
     1
 45
0.0
1001
ACAD
1000
AcDbSavedByObjectVersion
1070
     0
  0
VISUALSTYLE
  5
CB40
102
{ACAD_REACTORS
330
CB36
102
}
330
CB36
100
AcDbVisualStyle
  2
Realistic
 70
     8
 71
     2
 72
     2
 73
     0
 90
        0
 40
-0.6
 41
-30.0
 62
     5
 63
     7
 74
     1
 91
        0
 64
     7
 65
   257
 75
     1
175
     1
 42
1.0
 92
        8
 66
     8
 43
1.0
 76
     1
 77
     6
 78
     2
 67
     7
 79
     5
170
     0
171
     0
290
     0
174
     0
 93
       13
 44
0.0
173
     0
291
     0
 45
0.0
1001
ACAD
1000
AcDbSavedByObjectVersion
1070
     0
  0
VISUALSTYLE
  5
CB43
102
{ACAD_REACTORS
330
CB36
102
}
330
CB36
100
AcDbVisualStyle
  2
Thicken
 70
    13
 71
     2
 72
     2
 73
     0
 90
        0
 40
-0.6
 41
-30.0
 62
     5
 63
     7
 74
     1
 91
        4
 64
     7
 65
   257
 75
     1
175
     1
 42
1.0
 92
       12
 66
     7
 43
1.0
 76
     1
 77
     6
 78
     2
 67
     7
 79
     5
170
     0
171
     0
290
     0
174
     0
 93
        1
 44
0.0
173
     0
291
     1
 45
0.0
1001
ACAD
1000
AcDbSavedByObjectVersion
1070
     0
  0
DICTIONARYVAR
  5
AAF3
102
{ACAD_REACTORS
330
34
102
}
330
34
100
DictionaryVariables
280
     0
  1
STANDARD
  0
DICTIONARYVAR
  5
A10C
102
{ACAD_REACTORS
330
34
102
}
330
34
100
DictionaryVariables
280
     0
  1
2
  0
DICTIONARYVAR
  5
AB07
102
{ACAD_REACTORS
330
34
102
}
330
34
100
DictionaryVariables
280
     0
  1
4
  0
DICTIONARYVAR
  5
35
102
{ACAD_REACTORS
330
34
102
}
330
34
100
DictionaryVariables
280
     0
  1
0
  0
DICTIONARYVAR
  5
194C
102
{ACAD_REACTORS
330
34
102
}
330
34
100
DictionaryVariables
280
     0
  1
96
  0
DICTIONARY
  5
7E8
102
{ACAD_REACTORS
330
47
102
}
330
47
100
AcDbDictionary
281
     1
  0
DICTIONARY
  5
4C
102
{ACAD_REACTORS
330
47
102
}
330
47
100
AcDbDictionary
281
     1
  0
XRECORD
  5
A929
102
{ACAD_REACTORS
330
47
102
}
330
47
100
AcDbXrecord
280
     1
 90
-1023410169
  0
XRECORD
  5
9F49
102
{ACAD_REACTORS
330
9F48
102
}
330
9F48
100
AcDbXrecord
280
     1
330
0
330
0
330
0
330
0
330
0
330
0
330
0
330
0
  0
XRECORD
  5
3FB7
102
{ACAD_REACTORS
330
3F96
102
}
330
3F96
100
AcDbXrecord
280
     1
 91
        3
330
0
 90
        8
 62
     7
370
    40
331
16
  1
Color_7
330
0
 90
        0
 62
    14
370
    -3
331
16
  1
Color_14
330
0
 90
        8
 62
     7
370
    20
331
16
  1
Color_7
330
6D1
 90
        0
 62
     7
370
    -3
331
16
  1
Color_7
330
0
 90
        8
 62
     7
370
    50
331
16
  1
Color_7
330
0
 90
        8
 62
     2
370
    35
331
16
  1
Color_2
330
0
 90
        8
 62
     7
370
    -3
331
16
  1
Color_7
330
10
 90
        8
 62
     7
370
    -3
331
16
  1
Color_7
  0
DICTIONARY
  5
CBB4
330
22
100
AcDbDictionary
280
     1
281
     1
  3
ACAD_XREC_ROUNDTRIP
360
CBB5
  0
DICTIONARY
  5
CBB2
330
1E
100
AcDbDictionary
280
     1
281
     1
  3
ACAD_XREC_ROUNDTRIP
360
CBB3
  0
DICTIONARY
  5
CBB6
330
26
100
AcDbDictionary
280
     1
281
     1
  3
ACAD_XREC_ROUNDTRIP
360
CBB7
  0
DICTIONARY
  5
CBCC
330
CB34
100
AcDbDictionary
280
     1
281
     1
  3
ACAD_XREC_ROUNDTRIP
360
CBCD
  0
DICTIONARY
  5
CBCA
330
CB33
100
AcDbDictionary
280
     1
281
     1
  3
ACAD_XREC_ROUNDTRIP
360
CBCB
  0
DICTIONARY
  5
CBCE
330
CB35
100
AcDbDictionary
280
     1
281
     1
  3
ACAD_XREC_ROUNDTRIP
360
CBCF
  0
DICTIONARY
  5
CBBA
330
C340
100
AcDbDictionary
280
     1
281
     1
  3
ACAD_XREC_ROUNDTRIP
360
CBBB
  0
DICTIONARY
  5
CBBC
330
C341
100
AcDbDictionary
280
     1
281
     1
  3
ACAD_XREC_ROUNDTRIP
360
CBBD
  0
DICTIONARY
  5
CBBE
330
C342
100
AcDbDictionary
280
     1
281
     1
  3
ACAD_XREC_ROUNDTRIP
360
CBBF
  0
DICTIONARY
  5
CBC0
330
C343
100
AcDbDictionary
280
     1
281
     1
  3
ACAD_XREC_ROUNDTRIP
360
CBC1
  0
DICTIONARY
  5
CBC2
330
C344
100
AcDbDictionary
280
     1
281
     1
  3
ACAD_XREC_ROUNDTRIP
360
CBC3
  0
DICTIONARY
  5
CBC4
330
C345
100
AcDbDictionary
280
     1
281
     1
  3
ACAD_XREC_ROUNDTRIP
360
CBC5
  0
DICTIONARY
  5
CBC6
330
C346
100
AcDbDictionary
280
     1
281
     1
  3
ACAD_XREC_ROUNDTRIP
360
CBC7
  0
DICTIONARY
  5
CBC8
330
C347
100
AcDbDictionary
280
     1
281
     1
  3
ACAD_XREC_ROUNDTRIP
360
CBC9
  0
DICTIONARY
  5
CBB8
330
AABA
100
AcDbDictionary
280
     1
281
     1
  3
ACAD_XREC_ROUNDTRIP
360
CBB9
  0
XRECORD
  5
CBB5
102
{ACAD_REACTORS
330
CBB4
102
}
330
CBB4
100
AcDbXrecord
280
     1
102
SHADEPLOT
 70
     0
102
SHADEPLOTRESLEVEL
 70
     2
102
SHADEPLOTCUSTOMDPI
 70
   200
  0
XRECORD
  5
CBB3
102
{ACAD_REACTORS
330
CBB2
102
}
330
CBB2
100
AcDbXrecord
280
     1
102
SHADEPLOT
 70
     0
102
SHADEPLOTRESLEVEL
 70
     2
102
SHADEPLOTCUSTOMDPI
 70
   300
  0
XRECORD
  5
CBB7
102
{ACAD_REACTORS
330
CBB6
102
}
330
CBB6
100
AcDbXrecord
280
     1
102
SHADEPLOT
 70
     0
102
SHADEPLOTRESLEVEL
 70
     2
102
SHADEPLOTCUSTOMDPI
 70
   300
  0
XRECORD
  5
CBCD
102
{ACAD_REACTORS
330
CBCC
102
}
330
CBCC
100
AcDbXrecord
280
     1
102
MATERIAL
148
0.0
149
0.0
149
0.0
 93
        0
 94
       63
282
     0
 72
     1
 77
     1
171
     1
175
     1
179
     1
273
     0
  0
XRECORD
  5
CBCB
102
{ACAD_REACTORS
330
CBCA
102
}
330
CBCA
100
AcDbXrecord
280
     1
102
MATERIAL
148
0.0
149
0.0
149
0.0
 93
        0
 94
       63
282
     0
 72
     1
 77
     1
171
     1
175
     1
179
     1
273
     0
  0
XRECORD
  5
CBCF
102
{ACAD_REACTORS
330
CBCE
102
}
330
CBCE
100
AcDbXrecord
280
     1
102
MATERIAL
148
0.0
149
0.0
149
0.0
 93
        0
 94
       63
282
     0
 72
     1
 77
     1
171
     1
175
     1
179
     1
273
     0
  0
XRECORD
  5
CBBB
102
{ACAD_REACTORS
330
CBBA
102
}
330
CBBA
100
AcDbXrecord
280
     1
102
SHADEPLOT
 70
     0
102
SHADEPLOTRESLEVEL
 70
     2
102
SHADEPLOTCUSTOMDPI
 70
   200
  0
XRECORD
  5
CBBD
102
{ACAD_REACTORS
330
CBBC
102
}
330
CBBC
100
AcDbXrecord
280
     1
102
SHADEPLOT
 70
     0
102
SHADEPLOTRESLEVEL
 70
     2
102
SHADEPLOTCUSTOMDPI
 70
   200
  0
XRECORD
  5
CBBF
102
{ACAD_REACTORS
330
CBBE
102
}
330
CBBE
100
AcDbXrecord
280
     1
102
SHADEPLOT
 70
     0
102
SHADEPLOTRESLEVEL
 70
     2
102
SHADEPLOTCUSTOMDPI
 70
   200
  0
XRECORD
  5
CBC1
102
{ACAD_REACTORS
330
CBC0
102
}
330
CBC0
100
AcDbXrecord
280
     1
102
SHADEPLOT
 70
     0
102
SHADEPLOTRESLEVEL
 70
     2
102
SHADEPLOTCUSTOMDPI
 70
   200
  0
XRECORD
  5
CBC3
102
{ACAD_REACTORS
330
CBC2
102
}
330
CBC2
100
AcDbXrecord
280
     1
102
SHADEPLOT
 70
     0
102
SHADEPLOTRESLEVEL
 70
     2
102
SHADEPLOTCUSTOMDPI
 70
   200
  0
XRECORD
  5
CBC5
102
{ACAD_REACTORS
330
CBC4
102
}
330
CBC4
100
AcDbXrecord
280
     1
102
SHADEPLOT
 70
     0
102
SHADEPLOTRESLEVEL
 70
     2
102
SHADEPLOTCUSTOMDPI
 70
   200
  0
XRECORD
  5
CBC7
102
{ACAD_REACTORS
330
CBC6
102
}
330
CBC6
100
AcDbXrecord
280
     1
102
SHADEPLOT
 70
     0
102
SHADEPLOTRESLEVEL
 70
     2
102
SHADEPLOTCUSTOMDPI
 70
   200
  0
XRECORD
  5
CBC9
102
{ACAD_REACTORS
330
CBC8
102
}
330
CBC8
100
AcDbXrecord
280
     1
102
SHADEPLOT
 70
     0
102
SHADEPLOTRESLEVEL
 70
     2
102
SHADEPLOTCUSTOMDPI
 70
   200
  0
XRECORD
  5
CBB9
102
{ACAD_REACTORS
330
CBB8
102
}
330
CBB8
100
AcDbXrecord
280
     1
102
ACAD_ROUNDTRIP_PRE2007_TABLESTYLE
 90
        4
 91
        0
  1

 92
        4
 93
        0
  2

 94
        4
 95
        0
  3

  0
ENDSEC
  0
EOF
