  0
SECTION
  2
HEADER
  9
$ACADVER
  1
AC1015
  9
$ACADMAINTVER
 70
    20
  9
$DWGCODEPAGE
  3
ANSI_932
  9
$INSBASE
 10
0.0
 20
0.0
 30
0.0
  9
$EXTMIN
 10
0.0
 20
-9.406390626873303
 30
0.0
  9
$EXTMAX
 10
283.7012599579992
 20
148.5000000000145
 30
0.0
  9
$LIMMIN
 10
0.0
 20
0.0
  9
$LIMMAX
 10
210.0000000000084
 20
148.5000000000145
  9
$ORTHOMODE
 70
     1
  9
$REGENMODE
 70
     1
  9
$FILLMODE
 70
     1
  9
$QTEXTMODE
 70
     0
  9
$MIRRTEXT
 70
     0
  9
$LTSCALE
 40
1.0
  9
$ATTMODE
 70
     1
  9
$TEXTSIZE
 40
3.2
  9
$TRACEWID
 40
1.0
  9
$TEXTSTYLE
  7
STANDARD
  9
$CLAYER
  8
0
  9
$CELTYPE
  6
ByLayer
  9
$CECOLOR
 62
   256
  9
$CELTSCALE
 40
1.0
  9
$DISPSILH
 70
     0
  9
$DIMSCALE
 40
0.5
  9
$DIMASZ
 40
1.0
  9
$DIMEXO
 40
1.0
  9
$DIMDLI
 40
10.0
  9
$DIMRND
 40
0.0
  9
$DIMDLE
 40
0.0
  9
$DIMEXE
 40
0.0
  9
$DIMTP
 40
0.1
  9
$DIMTM
 40
0.1
  9
$DIMTXT
 40
3.5
  9
$DIMCEN
 40
0.0
  9
$DIMTSZ
 40
0.0
  9
$DIMTOL
 70
     0
  9
$DIMLIM
 70
     0
  9
$DIMTIH
 70
     0
  9
$DIMTOH
 70
     0
  9
$DIMSE1
 70
     0
  9
$DIMSE2
 70
     0
  9
$DIMTAD
 70
     1
  9
$DIMZIN
 70
     8
  9
$DIMBLK
  1
Dot
  9
$DIMASO
 70
     1
  9
$DIMSHO
 70
     1
  9
$DIMPOST
  1

  9
$DIMAPOST
  1
"
  9
$DIMALT
 70
     0
  9
$DIMALTD
 70
     2
  9
$DIMALTF
 40
0.0393701
  9
$DIMLFAC
 40
1.0
  9
$DIMTOFL
 70
     1
  9
$DIMTVP
 40
0.0
  9
$DIMTIX
 70
     0
  9
$DIMSOXD
 70
     0
  9
$DIMSAH
 70
     0
  9
$DIMBLK1
  1

  9
$DIMBLK2
  1

  9
$DIMSTYLE
  2
S-1／2
  9
$DIMCLRD
 70
   256
  9
$DIMCLRE
 70
   256
  9
$DIMCLRT
 70
     2
  9
$DIMTFAC
 40
0.71
  9
$DIMGAP
 40
1.5
  9
$DIMJUST
 70
     0
  9
$DIMSD1
 70
     0
  9
$DIMSD2
 70
     0
  9
$DIMTOLJ
 70
     0
  9
$DIMTZIN
 70
     8
  9
$DIMALTZ
 70
     0
  9
$DIMALTTZ
 70
     0
  9
$DIMUPT
 70
     0
  9
$DIMDEC
 70
     2
  9
$DIMTDEC
 70
     2
  9
$DIMALTU
 70
     2
  9
$DIMALTTD
 70
     2
  9
$DIMTXSTY
  7
STANDARD
  9
$DIMAUNIT
 70
     0
  9
$DIMADEC
 70
     0
  9
$DIMALTRND
 40
0.0
  9
$DIMAZIN
 70
     2
  9
$DIMDSEP
 70
    46
  9
$DIMATFIT
 70
     3
  9
$DIMFRAC
 70
     0
  9
$DIMLDRBLK
  1
Dot
  9
$DIMLUNIT
 70
     2
  9
$DIMLWD
 70
    -1
  9
$DIMLWE
 70
    -1
  9
$DIMTMOVE
 70
     0
  9
$LUNITS
 70
     2
  9
$LUPREC
 70
     2
  9
$SKETCHINC
 40
1.0
  9
$FILLETRAD
 40
0.0
  9
$AUNITS
 70
     0
  9
$AUPREC
 70
     0
  9
$MENU
  1
.
  9
$ELEVATION
 40
0.0
  9
$PELEVATION
 40
0.0
  9
$THICKNESS
 40
0.0
  9
$LIMCHECK
 70
     0
  9
$CHAMFERA
 40
0.0
  9
$CHAMFERB
 40
0.0
  9
$CHAMFERC
 40
20.0
  9
$CHAMFERD
 40
0.0
  9
$SKPOLY
 70
     0
  9
$TDCREATE
 40
2455567.561054317
  9
$TDUCREATE
 40
2455567.186054318
  9
$TDUPDATE
 40
2457198.489137291
  9
$TDUUPDATE
 40
2457198.114137292
  9
$TDINDWG
 40
3.3292034838
  9
$TDUSRTIMER
 40
3.3292014583
  9
$USRTIMER
 70
     1
  9
$ANGBASE
 50
0.0
  9
$ANGDIR
 70
     0
  9
$PDMODE
 70
     0
  9
$PDSIZE
 40
-3.0
  9
$PLINEWID
 40
0.0
  9
$SPLFRAME
 70
     0
  9
$SPLINETYPE
 70
     6
  9
$SPLINESEGS
 70
     8
  9
$HANDSEED
  5
ADD5F
  9
$SURFTAB1
 70
     6
  9
$SURFTAB2
 70
     6
  9
$SURFTYPE
 70
     6
  9
$SURFU
 70
     6
  9
$SURFV
 70
     6
  9
$UCSBASE
  2

  9
$UCSNAME
  2

  9
$UCSORG
 10
0.0
 20
0.0
 30
0.0
  9
$UCSXDIR
 10
1.0
 20
0.0
 30
0.0
  9
$UCSYDIR
 10
0.0
 20
1.0
 30
0.0
  9
$UCSORTHOREF
  2

  9
$UCSORTHOVIEW
 70
     0
  9
$UCSORGTOP
 10
0.0
 20
0.0
 30
0.0
  9
$UCSORGBOTTOM
 10
0.0
 20
0.0
 30
0.0
  9
$UCSORGLEFT
 10
0.0
 20
0.0
 30
0.0
  9
$UCSORGRIGHT
 10
0.0
 20
0.0
 30
0.0
  9
$UCSORGFRONT
 10
0.0
 20
0.0
 30
0.0
  9
$UCSORGBACK
 10
0.0
 20
0.0
 30
0.0
  9
$PUCSBASE
  2

  9
$PUCSNAME
  2

  9
$PUCSORG
 10
0.0
 20
0.0
 30
0.0
  9
$PUCSXDIR
 10
1.0
 20
0.0
 30
0.0
  9
$PUCSYDIR
 10
0.0
 20
1.0
 30
0.0
  9
$PUCSORTHOREF
  2

  9
$PUCSORTHOVIEW
 70
     0
  9
$PUCSORGTOP
 10
0.0
 20
0.0
 30
0.0
  9
$PUCSORGBOTTOM
 10
0.0
 20
0.0
 30
0.0
  9
$PUCSORGLEFT
 10
0.0
 20
0.0
 30
0.0
  9
$PUCSORGRIGHT
 10
0.0
 20
0.0
 30
0.0
  9
$PUCSORGFRONT
 10
0.0
 20
0.0
 30
0.0
  9
$PUCSORGBACK
 10
0.0
 20
0.0
 30
0.0
  9
$USERI1
 70
     0
  9
$USERI2
 70
     0
  9
$USERI3
 70
     0
  9
$USERI4
 70
     0
  9
$USERI5
 70
     0
  9
$USERR1
 40
0.0
  9
$USERR2
 40
0.0
  9
$USERR3
 40
0.0
  9
$USERR4
 40
0.0
  9
$USERR5
 40
0.0
  9
$WORLDVIEW
 70
     1
  9
$SHADEDGE
 70
     3
  9
$SHADEDIF
 70
    70
  9
$TILEMODE
 70
     1
  9
$MAXACTVP
 70
    64
  9
$PINSBASE
 10
0.0
 20
0.0
 30
0.0
  9
$PLIMCHECK
 70
     0
  9
$PEXTMIN
 10
1.000000000000000E+20
 20
1.000000000000000E+20
 30
1.000000000000000E+20
  9
$PEXTMAX
 10
-1.000000000000000E+20
 20
-1.000000000000000E+20
 30
-1.000000000000000E+20
  9
$PLIMMIN
 10
-3.17498779296875
 20
-3.174999952316283
  9
$PLIMMAX
 10
293.4970092773438
 20
206.692492723465
  9
$UNITMODE
 70
     0
  9
$VISRETAIN
 70
     1
  9
$PLINEGEN
 70
     0
  9
$PSLTSCALE
 70
     1
  9
$TREEDEPTH
 70
  3020
  9
$CMLSTYLE
  2
Standard
  9
$CMLJUST
 70
     0
  9
$CMLSCALE
 40
20.0
  9
$PROXYGRAPHICS
 70
     1
  9
$MEASUREMENT
 70
     1
  9
$CELWEIGHT
370
    -1
  9
$ENDCAPS
280
     0
  9
$JOINSTYLE
280
     0
  9
$LWDISPLAY
290
     1
  9
$INSUNITS
 70
     4
  9
$HYPERLINKBASE
  1

  9
$STYLESHEET
  1
MONOCHROME.CTB
  9
$XEDIT
290
     1
  9
$CEPSNTYPE
380
     0
  9
$PSTYLEMODE
290
     1
  9
$FINGERPRINTGUID
  2
{E0FB5660-30B4-4D8A-8C1D-9D7E99D72F0A}
  9
$VERSIONGUID
  2
{C0DE26EA-CAE4-4795-8B12-63CE3AB6970C}
  9
$EXTNAMES
290
     1
  9
$PSVPSCALE
 40
0.0
  9
$OLESTARTUP
290
     0
  0
ENDSEC
  0
SECTION
  2
CLASSES
  0
CLASS
  1
ACDBDICTIONARYWDFLT
  2
AcDbDictionaryWithDefault
  3
ObjectDBX Classes
 90
        0
280
     0
281
     0
  0
CLASS
  1
ACDBPLACEHOLDER
  2
AcDbPlaceHolder
  3
ObjectDBX Classes
 90
        0
280
     0
281
     0
  0
CLASS
  1
LAYOUT
  2
AcDbLayout
  3
ObjectDBX Classes
 90
        0
280
     0
281
     0
  0
CLASS
  1
AMGSETTINGSOBJ
  2
AmgSettingsObj
  3
"AcadM|Product Description: AutoCAD Mechanical|Company: Autodesk"
 90
    32768
280
     0
281
     0
  0
CLASS
  1
ACME_DOCUMENT
  2
AcMeDbDoc
  3
AcMeServices
 90
    32768
280
     0
281
     0
  0
CLASS
  1
ACMESCOPE
  2
AcMeScope
  3
AcMeServices
 90
    32768
280
     0
281
     0
  0
CLASS
  1
ACMECOMMANDHISTORY
  2
AcMeCommandHistory
  3
AcMeServices
 90
    32768
280
     0
281
     0
  0
CLASS
  1
DICTIONARYVAR
  2
AcDbDictionaryVar
  3
ObjectDBX Classes
 90
        0
280
     0
281
     0
  0
CLASS
  1
ACIMSYSVARMAN
  2
AcImSysVarManager
  3
AcMeServices
 90
    32768
280
     0
281
     0
  0
CLASS
  1
ACIMREALSYSVAR
  2
AcImRealSysVar
  3
AcMeServices
 90
    32768
280
     0
281
     0
  0
CLASS
  1
ACIMINTSYSVAR
  2
AcImIntSysVar
  3
AcMeServices
 90
    32768
280
     0
281
     0
  0
CLASS
  1
ACMEDRAWINGMAN
  2
AcMeDrawingMan
  3
AcMeServices
 90
    32768
280
     0
281
     0
  0
CLASS
  1
ACMEVIEW
  2
AcMeView
  3
AcMeServices
 90
    32768
280
     0
281
     0
  0
CLASS
  1
ACDBENTITYCACHE
  2
AcMeEntityCache
  3
AcMeServices
 90
    32768
280
     0
281
     0
  0
CLASS
  1
GSMANAGER
  2
AcMeGSManager
  3
AcMeServices
 90
    32768
280
     0
281
     0
  0
CLASS
  1
AMDTINTERNALREACTOR
  2
AmdtInternalReactor
  3
AcMeServices
 90
    32768
280
     0
281
     0
  0
CLASS
  1
ACMESTATEMGR
  2
AcMeStateMgr
  3
AcMeServices
 90
    32768
280
     0
281
     0
  0
CLASS
  1
ACGREFMASTER
  2
AcGrefMaster
  3
AcAttribServices
 90
    32768
280
     0
281
     0
  0
CLASS
  1
ACME_DATABASE
  2
AcMeDbDatabase
  3
AcMeServices
 90
    32768
280
     0
281
     0
  0
CLASS
  1
ACRFINSADJUSTERMGR
  2
AcRfInsAdjusterMgr
  3
AcMeServices
 90
    32768
280
     0
281
     0
  0
CLASS
  1
ACGREFACADMASTER
  2
AcGrefacadMaster
  3
AcGrefServices
 90
    32768
280
     0
281
     0
  0
CLASS
  1
AMIMASTER
  2
AmiMaster
  3
AmiServices
 90
    32768
280
     0
281
     0
  0
CLASS
  1
ACMDATADICTIONARY
  2
AcmDataDictionary
  3
"AcmSymBB|Product Description: AutoCAD Mechanical|Company: Autodesk"
 90
    32768
280
     0
281
     0
  0
CLASS
  1
ACMDATAENTRYBLOCK
  2
AcmDataEntryBlock
  3
"AcmSymBB|Product Description: AutoCAD Mechanical|Company: Autodesk"
 90
    32768
280
     0
281
     0
  0
CLASS
  1
ACIMSTRSYSVAR
  2
AcImStrSysVar
  3
AcMeServices
 90
    32768
280
     0
281
     0
  0
CLASS
  1
ACMSTANDARDISO
  2
AcmStandardISO
  3
"Amdt_StdImp|Product Description: AutoCAD Mechanical|Company: Autodesk"
 90
    32768
280
     0
281
     0
  0
CLASS
  1
AMGOBJPROPCFG
  2
AmgObjPropCfg
  3
"AmgLay|Product Description: AutoCAD Mechanical|Company: Autodesk"
 90
    32769
280
     0
281
     0
  0
CLASS
  1
AMDTEDGESTANDARDISO
  2
AmdtEdgeStdISO
  3
"Amdt_StdImp|Product Description: AutoCAD Mechanical|Company: Autodesk"
 90
    32768
280
     0
281
     0
  0
CLASS
  1
ACMSURFSTANDARDISO
  2
AcmSurfTextStdISO
  3
"Amdt_StdImp|Product Description: AutoCAD Mechanical|Company: Autodesk"
 90
    32768
280
     0
281
     0
  0
CLASS
  1
ACMFCFSTANDARDISO
  2
AcmFCFStdISO
  3
"Amdt_StdImp|Product Description: AutoCAD Mechanical|Company: Autodesk"
 90
    32768
280
     0
281
     0
  0
CLASS
  1
ACMWELDSTANDARDISO
  2
AcmWeldingStdISO
  3
"Amdt_StdImp|Product Description: AutoCAD Mechanical|Company: Autodesk"
 90
    32768
280
     0
281
     0
  0
CLASS
  1
ACMIDSTANDARDISO
  2
AcmIdStdISO
  3
"Amdt_StdImp|Product Description: AutoCAD Mechanical|Company: Autodesk"
 90
    32768
280
     0
281
     0
  0
CLASS
  1
ACMDATUMSTANDARDISO
  2
AcmDatumStdISO
  3
"Amdt_StdImp|Product Description: AutoCAD Mechanical|Company: Autodesk"
 90
    32768
280
     0
281
     0
  0
CLASS
  1
ACMBOMSTANDARDISO
  2
AcmBOMStdISO
  3
"Amdt_StdImp|Product Description: AutoCAD Mechanical|Company: Autodesk"
 90
    32768
280
     0
281
     0
  0
CLASS
  1
ACMDETAILSTANDARDISO
  2
AmdtDetailSymStdISO
  3
"Amdt_StdImp|Product Description: AutoCAD Mechanical|Company: Autodesk"
 90
    32768
280
     0
281
     0
  0
CLASS
  1
ACMSECTIONSTANDARDISO
  2
AmdtSectionSymStdISO
  3
"Amdt_StdImp|Product Description: AutoCAD Mechanical|Company: Autodesk"
 90
    32768
280
     0
281
     0
  0
CLASS
  1
ACMCENTERLINESTANDARDISO
  2
AmdtCenterLineStdISO
  3
"Amdt_StdImp|Product Description: AutoCAD Mechanical|Company: Autodesk"
 90
    32768
280
     0
281
     0
  0
CLASS
  1
ACAMGLAYSTD
  2
AcAmgLayStd
  3
"AmgLay|Product Description: AutoCAD Mechanical|Company: Autodesk"
 90
    32768
280
     0
281
     0
  0
CLASS
  1
ACAMGDIMSTD
  2
AcAmgDimStd
  3
"AmgDim|Product Description: AutoCAD Mechanical|Company: Autodesk"
 90
    32768
280
     0
281
     0
  0
CLASS
  1
ACAMGTITLESTD
  2
AcAmgTitleStd
  3
"AmgTitle|Product Description: AutoCAD Mechanical|Company: Autodesk"
 90
    32768
280
     0
281
     0
  0
CLASS
  1
ACAMGFILTERDAT
  2
AcAmgFilterDat
  3
"AcadM|Product Description: AutoCAD Mechanical|Company: Autodesk"
 90
    32768
280
     0
281
     0
  0
CLASS
  1
LAYER_INDEX
  2
AcDbLayerIndex
  3
ObjectDBX Classes
 90
    32768
280
     0
281
     0
  0
CLASS
  1
IDBUFFER
  2
AcDbIdBuffer
  3
ObjectDBX Classes
 90
    32768
280
     0
281
     0
  0
CLASS
  1
PLOTSETTINGS
  2
AcDbPlotSettings
  3
ObjectDBX Classes
 90
    32768
280
     0
281
     0
  0
CLASS
  1
AMDTFORMULAUPDATEDISPATCHER
  2
AmdtFormulaUpdateDispatcher
  3
AcMeServices
 90
    32768
280
     0
281
     0
  0
CLASS
  1
ACMSTANDARDANSI
  2
AcmStandardANSI
  3
"Amdt_StdImp|Product Description: AutoCAD Mechanical|Company: Autodesk"
 90
    32768
280
     0
281
     0
  0
CLASS
  1
ACMSURFSTANDARDANSI
  2
AcmSurfTextStdANSI
  3
"Amdt_StdImp|Product Description: AutoCAD Mechanical|Company: Autodesk"
 90
    32768
280
     0
281
     0
  0
CLASS
  1
ACMFCFSTANDARDANSI
  2
AcmFCFStdANSI
  3
"Amdt_StdImp|Product Description: AutoCAD Mechanical|Company: Autodesk"
 90
    32768
280
     0
281
     0
  0
CLASS
  1
ACMWELDSTANDARDANSI
  2
AcmWeldingStdANSI
  3
"Amdt_StdImp|Product Description: AutoCAD Mechanical|Company: Autodesk"
 90
    32768
280
     0
281
     0
  0
CLASS
  1
ACMIDSTANDARDANSI
  2
AcmIdStdANSI
  3
"Amdt_StdImp|Product Description: AutoCAD Mechanical|Company: Autodesk"
 90
    32768
280
     0
281
     0
  0
CLASS
  1
ACMDATUMSTANDARDANSI
  2
AcmDatumStdANSI
  3
"Amdt_StdImp|Product Description: AutoCAD Mechanical|Company: Autodesk"
 90
    32768
280
     0
281
     0
  0
CLASS
  1
ACMBOMSTANDARDANSI
  2
AcmBOMStdANSI
  3
"Amdt_StdImp|Product Description: AutoCAD Mechanical|Company: Autodesk"
 90
    32768
280
     0
281
     0
  0
CLASS
  1
ACMDETAILSTANDARDANSI
  2
AmdtDetailSymStdANSI
  3
"Amdt_StdImp|Product Description: AutoCAD Mechanical|Company: Autodesk"
 90
    32768
280
     0
281
     0
  0
CLASS
  1
ACMSECTIONSTANDARDANSI
  2
AmdtSectionSymStdANSI
  3
"Amdt_StdImp|Product Description: AutoCAD Mechanical|Company: Autodesk"
 90
    32768
280
     0
281
     0
  0
CLASS
  1
ACMCENTERLINESTANDARDANSI
  2
AmdtCenterLineStdANSI
  3
"Amdt_StdImp|Product Description: AutoCAD Mechanical|Company: Autodesk"
 90
    32768
280
     0
281
     0
  0
CLASS
  1
ACMBOM
  2
AcmBom
  3
"AcmSymBB|Product Description: AutoCAD Mechanical|Company: Autodesk"
 90
    32768
280
     0
281
     0
  0
CLASS
  1
ACMDATAENTRYPART
  2
AcmDataEntryPart
  3
"AcmSymBB|Product Description: AutoCAD Mechanical|Company: Autodesk"
 90
    32768
280
     0
281
     0
  0
CLASS
  1
ACMPARTREF
  2
AcmPartRef
  3
"AcmSymBB|Product Description: AutoCAD Mechanical|Company: Autodesk"
 90
    35839
280
     0
281
     1
  0
CLASS
  1
ACDBCIRCARCRES
  2
AcDbCircArcRes
  3
AcGrefServices
 90
    32768
280
     0
281
     0
  0
CLASS
  1
ACMBOMROW
  2
AcmBomRow
  3
"AcmSymBB|Product Description: AutoCAD Mechanical|Company: Autodesk"
 90
    32768
280
     0
281
     0
  0
CLASS
  1
ACMBALLOON
  2
AcmBalloon
  3
"AcmSymBB|Product Description: AutoCAD Mechanical|Company: Autodesk"
 90
    35839
280
     0
281
     1
  0
CLASS
  1
AMDTNOTE
  2
AmdtNote
  3
"AcmSymBB|Product Description: AutoCAD Mechanical|Company: Autodesk"
 90
    35839
280
     0
281
     1
  0
CLASS
  1
STDPART2D
  2
AmgStdPart
  3
"g3vace|Class: AmgStdPart|Product Description: AutoCAD Mechanical|Company: Autodesk"
 90
    35839
280
     0
281
     1
  0
CLASS
  1
ACDBSTDPARTRES_LINE
  2
AcDbStdPartRes_Line
  3
"g3vace|Class: AcDbStdPartRes_Line|Product Description: AutoCAD Mechanical|Company: Autodesk"
 90
    32768
280
     0
281
     0
  0
CLASS
  1
ACMDATAENTRY
  2
AcmDataEntry
  3
"AcmSymBB|Product Description: AutoCAD Mechanical|Company: Autodesk"
 90
    32768
280
     0
281
     0
  0
CLASS
  1
ACDBOPPOLYLINERES
  2
AcDbOpPolylineRes
  3
AcGrefServices
 90
    32768
280
     0
281
     0
  0
CLASS
  1
ACMPARTLIST
  2
AcmPartList
  3
"AcmSymBB|Product Description: AutoCAD Mechanical|Company: Autodesk"
 90
    35839
280
     0
281
     1
  0
CLASS
  1
ACDBLINERES
  2
AcDbLineRes
  3
AcGrefServices
 90
    32768
280
     0
281
     0
  0
CLASS
  1
ACRFINSADJ
  2
AcRfInsAdjuster
  3
AcMeServices
 90
    32768
280
     0
281
     0
  0
CLASS
  1
AM_DRAWING_MGR
  2
AcDmDwgMgr
  3
AcMechDwgViewMgmt
 90
    32768
280
     0
281
     0
  0
CLASS
  1
AM_DWG_DOCUMENT
  2
AcDmDwgDocument
  3
AcMechDwgViewMgmt
 90
    32768
280
     0
281
     0
  0
CLASS
  1
AM_DWG_SHEET
  2
AcDmSheet
  3
AcMechDwgViewMgmt
 90
    32768
280
     0
281
     0
  0
CLASS
  1
AM_VIEWDIMPARMAP
  2
AcDmViewDimParMap
  3
AcMechDwgViewMgmt
 90
    32768
280
     0
281
     0
  0
CLASS
  1
AM_DWGMGR_NAME
  2
AcDmDwgMgrName
  3
AcMechDwgViewMgmt
 90
    32768
280
     0
281
     0
  0
CLASS
  1
AMDTMENUSTATEMGR
  2
AmdtMenuStateMgr
  3
McadcomServices
 90
    32768
280
     0
281
     0
  0
CLASS
  1
AMDTMCOMMENUSTATE
  2
AmdtMcomMenuState
  3
McadcomServices
 90
    32768
280
     0
281
     0
  0
CLASS
  1
ASAPP
  2
AcAsAppObject
  3
AutoSurfServices
 90
        0
280
     0
281
     0
  0
CLASS
  1
IM_STATIC_MAN
  2
AcImStaticVarManager
  3
AcMeServices
 90
    32768
280
     0
281
     0
  0
CLASS
  1
ACIMDBLSTATICVAR
  2
AcImDblStaticVar
  3
AcMeServices
 90
    32768
280
     0
281
     0
  0
CLASS
  1
ACIMSTRSTATICVAR
  2
AcImStrStaticVar
  3
AcMeServices
 90
    32768
280
     0
281
     0
  0
CLASS
  1
ACIMINTSTATICVAR
  2
AcImIntStaticVar
  3
AcMeServices
 90
    32768
280
     0
281
     0
  0
CLASS
  1
ACASGREFMASTER
  2
AcAsGrefMaster
  3
AutoSurfResolverServices
 90
        0
280
     0
281
     0
  0
CLASS
  1
ACADGREFMODULE
  2
AcAdGrefModule
  3
AdGrefServices
 90
        0
280
     0
281
     0
  0
CLASS
  1
AMDTMAPISURFMOUDULE
  2
AmdtMApiSurfModule
  3
MApiSurfServices
 90
        0
280
     0
281
     0
  0
CLASS
  1
MAPIAMMOUDLE
  2
MApiAmModule
  3
MApiAmServices
 90
    32768
280
     0
281
     0
  0
CLASS
  1
AMDTADMENUSTATE
  2
AmdtAdMenuState
  3
DesignerServices
 90
    32768
280
     0
281
     0
  0
CLASS
  1
ADAPPL
  2
AcAdAppl
  3
DesignerServices
 90
    32768
280
     0
281
     0
  0
CLASS
  1
DEPMGR
  2
AcAdDepMgr
  3
DesignerServices
 90
    32768
280
     0
281
     0
  0
CLASS
  1
PARAMMGR
  2
AcAdParamMgr
  3
DesignerServices
 90
    32768
280
     0
281
     0
  0
CLASS
  1
PARAMSCOPE
  2
AcAdParamScope
  3
DesignerServices
 90
    32768
280
     0
281
     0
  0
CLASS
  1
NAMEDAPPL
  2
AcAdNamedAppl
  3
DesignerServices
 90
    32768
280
     0
281
     0
  0
CLASS
  1
ADHNTMPLT
  2
AdHoleNoteTemplateMgr
  3
DesignerServices
 90
    32768
280
     0
281
     0
  0
CLASS
  1
AM_HNTEMPLATE_MGR_NAME
  2
AdHoleNoteTemplateMgrName
  3
DesignerServices
 90
    32768
280
     0
281
     0
  0
CLASS
  1
AMDTDMMENUSTATE
  2
AmdtDmMenuState
  3
AcMechDwgViewMgmt
 90
    32768
280
     0
281
     0
  0
CLASS
  1
MAPIADMODULE
  2
MApiAdModule
  3
MApiAdServices
 90
        0
280
     0
281
     0
  0
CLASS
  1
AMDTAMMENUSTATE
  2
AmdtAmMenuState
  3
DesignerAssemblies
 90
    32768
280
     0
281
     0
  0
CLASS
  1
ACAMPROJECT
  2
AcAmProject
  3
DesignerAssemblies
 90
    32768
280
     0
281
     0
  0
CLASS
  1
ACAMGRCOMPDEF
  2
AcAmGrCompDef
  3
DesignerAssemblies
 90
    32768
280
     0
281
     0
  0
CLASS
  1
ACCMCONTEXT
  2
AcCmContext
  3
DesignerAssemblies
 90
    32768
280
     0
281
     0
  0
CLASS
  1
ACAMCOMPDEF
  2
AcAmCompDef
  3
DesignerAssemblies
 90
    32768
280
     0
281
     0
  0
CLASS
  1
ACAMCOMPDEFMGR
  2
AcAmCompDefMgr
  3
DesignerAssemblies
 90
    32768
280
     0
281
     0
  0
CLASS
  1
AMCONTEXTMGR
  2
AcAmContextMgr
  3
DesignerAssemblies
 90
    32768
280
     0
281
     0
  0
CLASS
  1
ACAMCONTEXTMODELER
  2
AcAmContextModeler
  3
DesignerAssemblies
 90
    32768
280
     0
281
     0
  0
CLASS
  1
CATALOGSTATE
  2
AcAmCatalogState
  3
DesignerAssemblies
 90
    32768
280
     0
281
     0
  0
CLASS
  1
ACAMGRCOMPDEFSET
  2
AcAmGrCompDefSet
  3
DesignerAssemblies
 90
    32768
280
     0
281
     0
  0
CLASS
  1
AMDTBROWSERDBTAB
  2
AmdtBrowserDbTab
  3
McadcomServices
 90
    32768
280
     0
281
     0
  0
CLASS
  1
CBROWSERAPPOBJECT
  2
CBrowserAppObject
  3
McadcomServices
 90
    32768
280
     0
281
     0
  0
CLASS
  1
DM_PLACEHOLDER
  2
AcDmSelsetPlaceholder
  3
AcMechDwgViewMgmt
 90
    32768
280
     0
281
     0
  0
CLASS
  1
ACMPICKOBJ
  2
AcmPickEnt
  3
"AcmSymBB|Product Description: AutoCAD Mechanical|Company: Autodesk"
 90
    32768
280
     0
281
     1
  0
CLASS
  1
ACMNOTESTANDARDISO
  2
AmdtNoteStdISO
  3
"Amdt_StdImp|Product Description: AutoCAD Mechanical|Company: Autodesk"
 90
    32768
280
     0
281
     0
  0
CLASS
  1
ACMNOTESTANDARDANSI
  2
AmdtNoteStdANSI
  3
"Amdt_StdImp|Product Description: AutoCAD Mechanical|Company: Autodesk"
 90
    32768
280
     0
281
     0
  0
CLASS
  1
ACMTHREADLINESTANDARDISO
  2
AmdtThreadLineStdISO
  3
"Amdt_StdImp|Product Description: AutoCAD Mechanical|Company: Autodesk"
 90
    32768
280
     0
281
     0
  0
CLASS
  1
ACMTHREADLINESTANDARDANSI
  2
AmdtThreadLineStdANSI
  3
"Amdt_StdImp|Product Description: AutoCAD Mechanical|Company: Autodesk"
 90
    32768
280
     0
281
     0
  0
CLASS
  1
TABLESTYLE
  2
AcDbTableStyle
  3
ObjectDBX Classes
 90
     4095
280
     0
281
     0
  0
CLASS
  1
SORTENTSTABLE
  2
AcDbSortentsTable
  3
ObjectDBX Classes
 90
        0
280
     0
281
     0
  0
CLASS
  1
MATERIAL
  2
AcDbMaterial
  3
ObjectDBX Classes
 90
     1153
280
     0
281
     0
  0
CLASS
  1
VISUALSTYLE
  2
AcDbVisualStyle
  3
ObjectDBX Classes
 90
     4095
280
     0
281
     0
  0
CLASS
  1
ACRFATTGENMGR
  2
AcRfAttGeneralMgr
  3
AcAttribServices
 90
    32768
280
     0
281
     0
  0
CLASS
  1
ACRFOBJATTMGR
  2
AcRfObjAttGroupMgr
  3
AcAttribServices
 90
    32768
280
     0
281
     0
  0
CLASS
  1
ACRFMCADAPIATTHOLDER
  2
AcRfMCADAPIAttHolder
  3
AcAttribServices
 90
    32768
280
     0
281
     0
  0
CLASS
  1
AMDTSYSATTR
  2
AmdtSystemAttribute
  3
AcAttribServices
 90
    32768
280
     0
281
     0
  0
CLASS
  1
ACMTAPERSTANDARDISO
  2
AcmTaperStdISO
  3
"Amdt_StdImp|Product Description: AutoCAD Mechanical|Company: Autodesk"
 90
    32768
280
     0
281
     0
  0
CLASS
  1
CAMSSTRUCTBTNSTATE
  2
StructBtnState
  3
L"DesignerAssemblies"
 90
    32768
280
     0
281
     0
  0
CLASS
  1
DIMASSOC
  2
AcDbDimAssoc
  3
"AcDbDimAssoc|Product Desc:     AcDim ARX App For Dimension|Company:          Autodesk, Inc.|WEB Address:      www.autodesk.com"
 90
    32768
280
     0
281
     0
  0
CLASS
  1
AMDTNOTETEMPLATEDB
  2
AmdtNoteTemplateDB
  3
AMDT_STDIMP_MODULE_NAME
 90
    32768
280
     0
281
     0
  0
CLASS
  1
ACMTAPERSTANDARDANSI
  2
AcmTaperStdANSI
  3
"Amdt_StdImp|Product Description: AutoCAD Mechanical|Company: Autodesk"
 90
    32768
280
     0
281
     0
  0
CLASS
  1
ACAMGHOLECHARTSTDANSI
  2
AcAmgHoleChartStdANSI
  3
ACMSYMBB_MODULE_NAME
 90
    32768
280
     0
281
     0
  0
CLASS
  1
AMDTEDGESTANDARDISO13715
  2
AmdtEdgeStdISO13715
  3
"Amdt_StdImp|Product Description: AutoCAD Mechanical|Company: Autodesk"
 90
    32768
280
     0
281
     0
  0
CLASS
  1
ACAMGHOLECHARTSTDISO
  2
AcAmgHoleChartStdISO
  3
ACMSYMBB_MODULE_NAME
 90
    32768
280
     0
281
     0
  0
CLASS
  1
ACDBDIMENSIONRES
  2
AcDbDimensionRes
  3
L"AcDbDimensionRes|Product Description: AutoCAD Mechanical 2000|Company: Autodesk"
 90
    32768
280
     0
281
     0
  0
CLASS
  1
SCALE
  2
AcDbScale
  3
ObjectDBX Classes
 90
     1153
280
     0
281
     0
  0
CLASS
  1
MLEADERSTYLE
  2
AcDbMLeaderStyle
  3
ACDB_MLEADERSTYLE_CLASS
 90
     4095
280
     0
281
     0
  0
CLASS
  1
ACDBSECTIONVIEWSTYLE
  2
AcDbSectionViewStyle
  3
ObjectDBX Classes
 90
     1025
280
     0
281
     0
  0
CLASS
  1
ACDBDETAILVIEWSTYLE
  2
AcDbDetailViewStyle
  3
ObjectDBX Classes
 90
     1025
280
     0
281
     0
  0
CLASS
  1
CELLSTYLEMAP
  2
AcDbCellStyleMap
  3
ObjectDBX Classes
 90
     1152
280
     0
281
     0
  0
ENDSEC
  0
SECTION
  2
TABLES
  0
TABLE
  2
VPORT
  5
8
330
0
100
AcDbSymbolTable
 70
     1
  0
VPORT
  5
B0EC
330
8
100
AcDbSymbolTableRecord
100
AcDbViewportTableRecord
  2
*Active
 70
     0
 10
0.0
 20
0.0
 11
1.0
 21
1.0
 12
105.0
 22
74.25
 13
0.0
 23
0.0
 14
2.5
 24
2.5
 15
10.0
 25
10.0
 16
0.0
 26
0.0
 36
1.0
 17
0.0
 27
0.0
 37
0.0
 40
148.5
 41
2.046913580246913
 42
50.0
 43
-1370.695619172058
 44
-1370.695619172058
 50
0.0
 51
0.0
 71
     0
 72
   100
 73
     1
 74
     3
 75
     0
 76
     0
 77
     0
 78
     0
281
     0
 65
     0
110
0.0
120
0.0
130
0.0
111
1.0
121
0.0
131
0.0
112
0.0
122
1.0
132
0.0
 79
     0
146
0.0
1001
ACAD_NAV_VCDISPLAY
1070
     3
  0
ENDTAB
  0
TABLE
  2
LTYPE
  5
5
330
0
100
AcDbSymbolTable
 70
    20
  0
LTYPE
  5
14
330
5
100
AcDbSymbolTableRecord
100
AcDbLinetypeTableRecord
  2
ByBlock
 70
     0
  3

 72
    65
 73
     0
 40
0.0
  0
LTYPE
  5
15
330
5
100
AcDbSymbolTableRecord
100
AcDbLinetypeTableRecord
  2
ByLayer
 70
     0
  3

 72
    65
 73
     0
 40
0.0
  0
LTYPE
  5
16
330
5
100
AcDbSymbolTableRecord
100
AcDbLinetypeTableRecord
  2
Continuous
 70
     0
  3
Solid line
 72
    65
 73
     0
 40
0.0
  0
LTYPE
  5
52
330
5
100
AcDbSymbolTableRecord
100
AcDbLinetypeTableRecord
  2
Amconstr
 70
     0
  3
_______________________
 72
    65
 73
     2
 40
9999.0
 49
9999.0
 74
     0
 49
0.0
 74
     0
  0
LTYPE
  5
4DED
330
5
100
AcDbSymbolTableRecord
100
AcDbLinetypeTableRecord
  2
中線
 70
     0
  3
___________________
 72
    65
 73
     2
 40
2.0
 49
1.0
 74
     0
 49
1.0
 74
     0
  0
LTYPE
  5
4DF6
330
5
100
AcDbSymbolTableRecord
100
AcDbLinetypeTableRecord
  2
細線
 70
     0
  3
___________________
 72
    65
 73
     2
 40
2.0
 49
1.0
 74
     0
 49
1.0
 74
     0
  0
LTYPE
  5
4DF7
330
5
100
AcDbSymbolTableRecord
100
AcDbLinetypeTableRecord
  2
太線
 70
     0
  3
___________________
 72
    65
 73
     2
 40
2.0
 49
1.0
 74
     0
 49
1.0
 74
     0
  0
LTYPE
  5
4EA7
330
5
100
AcDbSymbolTableRecord
100
AcDbLinetypeTableRecord
  2
文字
 70
     0
  3
_________________
 72
    65
 73
     2
 40
2.0
 49
1.0
 74
     0
 49
1.0
 74
     0
  0
LTYPE
  5
4EA9
330
5
100
AcDbSymbolTableRecord
100
AcDbLinetypeTableRecord
  2
寸法線
 70
     0
  3
________________
 72
    65
 73
     2
 40
2.0
 49
1.0
 74
     0
 49
1.0
 74
     0
  0
LTYPE
  5
4F12
330
5
100
AcDbSymbolTableRecord
100
AcDbLinetypeTableRecord
  2
ハッチング
 70
     0
  3
_________________
 72
    65
 73
     2
 40
2.0
 49
1.0
 74
     0
 49
1.0
 74
     0
  0
LTYPE
  5
5180
330
5
100
AcDbSymbolTableRecord
100
AcDbLinetypeTableRecord
  2
陰線1
 70
     0
  3
__ __ __ __
 72
    65
 73
     2
 40
4.0
 49
2.2
 74
     0
 49
-1.8
 74
     0
  0
LTYPE
  5
5182
330
5
100
AcDbSymbolTableRecord
100
AcDbLinetypeTableRecord
  2
切断線
 70
     0
  3
/\/-/\/-/\/-/\/-/\/-/\/
 72
    65
 73
     2
 40
11.0001
 49
0.0001
 74
     4
 75
   135
340
56
 46
0.04
 50
0.0
 44
0.0
 45
0.0
 49
-11.0
 74
     0
  0
LTYPE
  5
5183
330
5
100
AcDbSymbolTableRecord
100
AcDbLinetypeTableRecord
  2
想像線1
 70
     0
  3
__ __ __ _____ __ __ ____
 72
    65
 73
     6
 40
14.5
 49
6.0
 74
     0
 49
-1.5
 74
     0
 49
2.0
 74
     0
 49
-1.5
 74
     0
 49
2.0
 74
     0
 49
-1.5
 74
     0
  0
LTYPE
  5
5185
330
5
100
AcDbSymbolTableRecord
100
AcDbLinetypeTableRecord
  2
中心線1
 70
     0
  3
___ _ ___ _ ___
 72
    65
 73
     4
 40
18.0
 49
12.0
 74
     0
 49
-2.0
 74
     0
 49
2.0
 74
     0
 49
-2.0
 74
     0
  0
LTYPE
  5
AB712
330
5
100
AcDbSymbolTableRecord
100
AcDbLinetypeTableRecord
  2
CENTER
 70
     0
  3
___ _ ___ _ __
 72
    65
 73
     4
 40
13.0
 49
8.5
 74
     0
 49
-1.5
 74
     0
 49
1.5
 74
     0
 49
-1.5
 74
     0
  0
LTYPE
  5
AB713
330
5
100
AcDbSymbolTableRecord
100
AcDbLinetypeTableRecord
  2
CENTER2
 70
     0
  3
__ _ __ _ __ _
 72
    65
 73
     4
 40
10.0
 49
7.0
 74
     0
 49
-1.0
 74
     0
 49
1.0
 74
     0
 49
-1.0
 74
     0
  0
LTYPE
  5
AB714
330
5
100
AcDbSymbolTableRecord
100
AcDbLinetypeTableRecord
  2
HIDDEN2
 70
     0
  3
_ _ _ _ _ _ _ 
 72
    65
 73
     2
 40
2.0
 49
1.399999975999999
 74
     0
 49
-0.600000024
 74
     0
  0
LTYPE
  5
AB715
330
5
100
AcDbSymbolTableRecord
100
AcDbLinetypeTableRecord
  2
PHANTOM2
 70
     0
  3
___ _ _ ___ _ _ ___ _ _ ___ _ _
 72
    65
 73
     6
 40
1.25
 49
0.625
 74
     0
 49
-0.125
 74
     0
 49
0.125
 74
     0
 49
-0.125
 74
     0
 49
0.125
 74
     0
 49
-0.125
 74
     0
  0
LTYPE
  5
AB7D3
330
5
100
AcDbSymbolTableRecord
100
AcDbLinetypeTableRecord
  2
補助線
 70
     0
  3
______________
 72
    65
 73
     2
 40
2.0
 49
1.0
 74
     0
 49
1.0
 74
     0
  0
LTYPE
  5
ABA67
330
5
100
AcDbSymbolTableRecord
100
AcDbLinetypeTableRecord
  2
DASHED
 70
     0
  3
__ __ __ __ __ __ __ __ __ __ __ __ __ __ __
 72
    65
 73
     2
 40
3.5
 49
2.0
 74
     0
 49
-1.5
 74
     0
  0
LTYPE
  5
ABA68
330
5
100
AcDbSymbolTableRecord
100
AcDbLinetypeTableRecord
  2
PHANTOM
 70
     0
  3
_____ _ _ _____ _ _ _____ _ _ _____ _ _ ____  
 72
    65
 73
     6
 40
15.5
 49
8.0
 74
     0
 49
-1.5
 74
     0
 49
1.5
 74
     0
 49
-1.5
 74
     0
 49
1.5
 74
     0
 49
-1.5
 74
     0
  0
LTYPE
  5
ABC68
330
5
100
AcDbSymbolTableRecord
100
AcDbLinetypeTableRecord
  2
AM_ISO08W050x2
 70
     0
  3
__ . __ . __ . __ . __ . __
 72
    65
 73
     4
 40
9.0
 49
6.0
 74
     0
 49
-0.75
 74
     0
 49
1.5
 74
     0
 49
-0.75
 74
     0
  0
ENDTAB
  0
TABLE
  2
LAYER
  5
2
102
{ACAD_XDICTIONARY
360
3F95
102
}
330
0
100
AcDbSymbolTable
 70
    19
  0
LAYER
  5
10
102
{ACAD_XDICTIONARY
360
AB489
102
}
330
2
100
AcDbSymbolTableRecord
100
AcDbLayerTableRecord
  2
0
 70
     0
 62
     7
  6
Continuous
370
    -3
390
F
  0
LAYER
  5
6D1
330
2
100
AcDbSymbolTableRecord
100
AcDbLayerTableRecord
  2
Defpoints
 70
     0
 62
     7
  6
Continuous
290
     0
370
    -3
390
F
  0
LAYER
  5
ACA1
102
{ACAD_XDICTIONARY
360
AB491
102
}
330
2
100
AcDbSymbolTableRecord
100
AcDbLayerTableRecord
  2
AM_6
 70
     0
 62
     2
  6
文字
370
    13
390
F
1001
AcAecLayerStandard
1000

1000

  0
LAYER
  5
AB501
102
{ACAD_XDICTIONARY
360
AB502
102
}
330
2
100
AcDbSymbolTableRecord
100
AcDbLayerTableRecord
  2
AM_0
 70
     0
 62
     7
  6
中線
370
    30
390
F
1001
AcAecLayerStandard
1000

1000

  0
LAYER
  5
AB503
102
{ACAD_XDICTIONARY
360
AB504
102
}
330
2
100
AcDbSymbolTableRecord
100
AcDbLayerTableRecord
  2
size
 70
     0
 62
     5
  6
Continuous
290
     0
370
    25
390
F
  0
LAYER
  5
AB505
102
{ACAD_XDICTIONARY
360
AB506
102
}
330
2
100
AcDbSymbolTableRecord
100
AcDbLayerTableRecord
  2
waku
 70
     0
 62
     7
  6
Continuous
370
    35
390
F
  0
LAYER
  5
AB507
102
{ACAD_XDICTIONARY
360
AB508
102
}
330
2
100
AcDbSymbolTableRecord
100
AcDbLayerTableRecord
  2
hyomoji
 70
     0
 62
     2
  6
Continuous
370
    13
390
F
  0
LAYER
  5
AB509
102
{ACAD_XDICTIONARY
360
AB50A
102
}
330
2
100
AcDbSymbolTableRecord
100
AcDbLayerTableRecord
  2
hyosen1
 70
     0
 62
     1
  6
Continuous
370
    30
390
F
  0
LAYER
  5
AB50B
102
{ACAD_XDICTIONARY
360
AB50C
102
}
330
2
100
AcDbSymbolTableRecord
100
AcDbLayerTableRecord
  2
hyosen2
 70
     0
 62
     1
  6
Continuous
370
    13
390
F
  0
LAYER
  5
AB50D
102
{ACAD_XDICTIONARY
360
AB50E
102
}
330
2
100
AcDbSymbolTableRecord
100
AcDbLayerTableRecord
  2
AM_1
 70
     0
 62
    30
  6
太線
370
    40
390
F
1001
AcAecLayerStandard
1000

1000

  0
LAYER
  5
AB50F
102
{ACAD_XDICTIONARY
360
AB510
102
}
330
2
100
AcDbSymbolTableRecord
100
AcDbLayerTableRecord
  2
AM_2
 70
     0
 62
     1
  6
細線
370
    13
390
F
1001
AcAecLayerStandard
1000

1000

  0
LAYER
  5
AB511
102
{ACAD_XDICTIONARY
360
AB512
102
}
330
2
100
AcDbSymbolTableRecord
100
AcDbLayerTableRecord
  2
AM_3
 70
     0
 62
     6
  6
陰線1
370
    13
390
F
1001
AcAecLayerStandard
1000

1000

  0
LAYER
  5
AB513
102
{ACAD_XDICTIONARY
360
AB514
102
}
330
2
100
AcDbSymbolTableRecord
100
AcDbLayerTableRecord
  2
AM_5
 70
     0
 62
     3
  6
寸法線
370
    13
390
F
1001
AcAecLayerStandard
1000

1000

  0
LAYER
  5
AB515
102
{ACAD_XDICTIONARY
360
AB516
102
}
330
2
100
AcDbSymbolTableRecord
100
AcDbLayerTableRecord
  2
AM_7
 70
     0
 62
     4
  6
中心線1
370
    13
390
F
1001
AcAecLayerStandard
1000

1000

  0
LAYER
  5
AB517
102
{ACAD_XDICTIONARY
360
AB518
102
}
330
2
100
AcDbSymbolTableRecord
100
AcDbLayerTableRecord
  2
AM_8
 70
     0
 62
     1
  6
ハッチング
370
    13
390
F
1001
AcAecLayerStandard
1000

1000

  0
LAYER
  5
AB519
102
{ACAD_XDICTIONARY
360
AB51A
102
}
330
2
100
AcDbSymbolTableRecord
100
AcDbLayerTableRecord
  2
AM_10
 70
     0
 62
     7
  6
切断線
370
    30
390
F
1001
AcAecLayerStandard
1000

1000

  0
LAYER
  5
AB51B
102
{ACAD_XDICTIONARY
360
AB51C
102
}
330
2
100
AcDbSymbolTableRecord
100
AcDbLayerTableRecord
  2
AM_11
 70
     0
 62
     2
  6
想像線1
370
    13
390
F
1001
AcAecLayerStandard
1000

1000

  0
LAYER
  5
AB51D
102
{ACAD_XDICTIONARY
360
AB51E
102
}
330
2
100
AcDbSymbolTableRecord
100
AcDbLayerTableRecord
  2
AM_CL
 70
     0
 62
     1
  6
Amconstr
370
    15
390
F
1001
AcAecLayerStandard
1000

1000

  0
LAYER
  5
AB51F
102
{ACAD_XDICTIONARY
360
AB520
102
}
330
2
100
AcDbSymbolTableRecord
100
AcDbLayerTableRecord
  2
JISSEN
 70
     0
 62
     7
  6
Continuous
370
    -3
390
F
  0
ENDTAB
  0
TABLE
  2
STYLE
  5
3
330
0
100
AcDbSymbolTable
 70
     6
  0
STYLE
  5
11
330
3
100
AcDbSymbolTableRecord
100
AcDbTextStyleTableRecord
  2
STANDARD
 70
     0
 40
0.0
 41
0.7
 50
0.0
 71
     0
 42
3.2
  3
romans.shx
  4
extfont.shx
  0
STYLE
  5
56
330
3
100
AcDbSymbolTableRecord
100
AcDbTextStyleTableRecord
  2

 70
     1
 40
0.0
 41
1.0
 50
0.0
 71
     0
 42
2.5
  3
ltypeshp.shx
  4

  0
STYLE
  5
AC80
330
3
100
AcDbSymbolTableRecord
100
AcDbTextStyleTableRecord
  2

 70
     1
 40
0.0
 41
1.0
 50
0.0
 71
     0
 42
3.2
  3
genltshp.shx
  4

  0
STYLE
  5
ABA7E
330
3
100
AcDbSymbolTableRecord
100
AcDbTextStyleTableRecord
  2
NORMAL
 70
     0
 40
0.0
 41
1.0
 50
0.0
 71
     0
 42
3.2
  3
monotxt.shx
  4
extfont.shx
  0
STYLE
  5
ACD3F
330
3
100
AcDbSymbolTableRecord
100
AcDbTextStyleTableRecord
  2
縦
 70
     0
 40
0.0
 41
1.0
 50
0.0
 71
     0
 42
2.5
  3

  4

1001
ACAD
1000
MS PMincho
1071
    32786
  0
STYLE
  5
ACD40
330
3
100
AcDbSymbolTableRecord
100
AcDbTextStyleTableRecord
  2
ＭＳ Ｐゴシック
 70
     0
 40
0.0
 41
1.0
 50
0.0
 71
     0
 42
2.5
  3

  4

1001
ACAD
1000
MS PGothic
1071
    32818
  0
ENDTAB
  0
TABLE
  2
VIEW
  5
6
330
0
100
AcDbSymbolTable
 70
     6
  0
VIEW
  5
AE1
330
6
100
AcDbSymbolTableRecord
100
AcDbViewTableRecord
  2
AM_VIEW1
 70
     0
 40
297.0
 10
-970.0097649269439
 20
-11756.86094600418
 41
473.7940828402367
 11
0.0
 21
0.0
 31
1.0
 12
0.0
 22
0.0
 32
0.0
 42
50.0
 43
-1370.695619172058
 44
-1370.695619172058
 50
0.0
 71
     0
281
     0
 72
     0
  0
VIEW
  5
AE2
330
6
100
AcDbSymbolTableRecord
100
AcDbViewTableRecord
  2
AM_VIEW2
 70
     0
 40
297.0
 10
-603.8038477671805
 20
-11756.86094600418
 41
473.7940828402367
 11
0.0
 21
0.0
 31
1.0
 12
0.0
 22
0.0
 32
0.0
 42
50.0
 43
-1370.695619172058
 44
-1370.695619172058
 50
0.0
 71
     0
281
     0
 72
     0
  0
VIEW
  5
AE3
330
6
100
AcDbSymbolTableRecord
100
AcDbViewTableRecord
  2
AM_VIEW3
 70
     0
 40
297.0
 10
-970.0097649269439
 20
-12053.86094600418
 41
473.7940828402367
 11
0.0
 21
0.0
 31
1.0
 12
0.0
 22
0.0
 32
0.0
 42
50.0
 43
-1370.695619172058
 44
-1370.695619172058
 50
0.0
 71
     0
281
     0
 72
     0
  0
VIEW
  5
AE4
330
6
100
AcDbSymbolTableRecord
100
AcDbViewTableRecord
  2
AM_VIEW4
 70
     0
 40
297.0
 10
-603.8038477671805
 20
-12053.86094600418
 41
473.7940828402367
 11
0.0
 21
0.0
 31
1.0
 12
0.0
 22
0.0
 32
0.0
 42
50.0
 43
-1370.695619172058
 44
-1370.695619172058
 50
0.0
 71
     0
281
     0
 72
     0
  0
VIEW
  5
AE5
330
6
100
AcDbSymbolTableRecord
100
AcDbViewTableRecord
  2
AM_VIEW5
 70
     0
 40
297.0
 10
-786.9068063470622
 20
-11905.36094600418
 41
473.7940828402365
 11
0.0
 21
0.0
 31
1.0
 12
0.0
 22
0.0
 32
0.0
 42
50.0
 43
-1370.695619172058
 44
-1370.695619172058
 50
0.0
 71
     0
281
     0
 72
     0
  0
VIEW
  5
AE6
330
6
100
AcDbSymbolTableRecord
100
AcDbViewTableRecord
  2
AM_VIEW6
 70
     0
 40
593.9940600000007
 10
-786.9068063470622
 20
-11905.36094600418
 41
947.5786897988164
 11
0.0
 21
0.0
 31
1.0
 12
0.0
 22
0.0
 32
0.0
 42
50.0
 43
-1370.695619172058
 44
-1370.695619172058
 50
0.0
 71
     0
281
     0
 72
     0
  0
ENDTAB
  0
TABLE
  2
UCS
  5
7
330
0
100
AcDbSymbolTable
 70
     0
  0
ENDTAB
  0
TABLE
  2
APPID
  5
9
330
0
100
AcDbSymbolTable
 70
    65
  0
APPID
  5
12
330
9
100
AcDbSymbolTableRecord
100
AcDbRegAppTableRecord
  2
ACAD
 70
     0
  0
APPID
  5
30
330
9
100
AcDbSymbolTableRecord
100
AcDbRegAppTableRecord
  2
MCAD_NO_VIS
 70
     0
  0
APPID
  5
31
330
9
100
AcDbSymbolTableRecord
100
AcDbRegAppTableRecord
  2
ACAD_TEMP_GRAPHIC
 70
     0
  0
APPID
  5
44
330
9
100
AcDbSymbolTableRecord
100
AcDbRegAppTableRecord
  2
ACATTRIBSERVICES
 70
     0
  0
APPID
  5
7A1
330
9
100
AcDbSymbolTableRecord
100
AcDbRegAppTableRecord
  2
GENIUS_GENDIMSH_14
 70
     0
  0
APPID
  5
A49
330
9
100
AcDbSymbolTableRecord
100
AcDbRegAppTableRecord
  2
GENIUS_GENREC_14
 70
     0
  0
APPID
  5
A4A
330
9
100
AcDbSymbolTableRecord
100
AcDbRegAppTableRecord
  2
GENIUS_GENOBJ-N-REC_13
 70
     0
  0
APPID
  5
A4B
330
9
100
AcDbSymbolTableRecord
100
AcDbRegAppTableRecord
  2
GENIUS_GENODEF_13
 70
     0
  0
APPID
  5
A4C
330
9
100
AcDbSymbolTableRecord
100
AcDbRegAppTableRecord
  2
DCO15
 70
     0
  0
APPID
  5
ADC
330
9
100
AcDbSymbolTableRecord
100
AcDbRegAppTableRecord
  2
GENIUS_GENOLIS_13
 70
     0
  0
APPID
  5
ADD
330
9
100
AcDbSymbolTableRecord
100
AcDbRegAppTableRecord
  2
GENIUS_GENOENT_13
 70
     0
  0
APPID
  5
ADE
330
9
100
AcDbSymbolTableRecord
100
AcDbRegAppTableRecord
  2
GENIUS_GENOBJ-N-TIT_13
 70
     0
  0
APPID
  5
ADF
330
9
100
AcDbSymbolTableRecord
100
AcDbRegAppTableRecord
  2
GENIUS_GENTITLE_13
 70
     0
  0
APPID
  5
AE0
330
9
100
AcDbSymbolTableRecord
100
AcDbRegAppTableRecord
  2
GENIUS_GENOREF_13
 70
     0
  0
APPID
  5
AE7
330
9
100
AcDbSymbolTableRecord
100
AcDbRegAppTableRecord
  2
GENIUS_GENSCREG_15
 70
     0
  0
APPID
  5
AE8
330
9
100
AcDbSymbolTableRecord
100
AcDbRegAppTableRecord
  2
GENIUS_GENOBJ-N-SDF_13
 70
     0
  0
APPID
  5
FAF
330
9
100
AcDbSymbolTableRecord
100
AcDbRegAppTableRecord
  2
GENIUS_GENBLLY_14
 70
     0
  0
APPID
  5
FB0
330
9
100
AcDbSymbolTableRecord
100
AcDbRegAppTableRecord
  2
GENIUS_GENTRA_14
 70
     0
  0
APPID
  5
1285
330
9
100
AcDbSymbolTableRecord
100
AcDbRegAppTableRecord
  2
GENIUS_GENDTOL_13
 70
     0
  0
APPID
  5
142D
330
9
100
AcDbSymbolTableRecord
100
AcDbRegAppTableRecord
  2
GENIUS_GENOBJ-N-CEN_13
 70
     0
  0
APPID
  5
1AB5
330
9
100
AcDbSymbolTableRecord
100
AcDbRegAppTableRecord
  2
GENIUS_GENOBJ-N-CRS_13
 70
     0
  0
APPID
  5
1B36
330
9
100
AcDbSymbolTableRecord
100
AcDbRegAppTableRecord
  2
GENIUS_GENOBJ-N-HTC_13
 70
     0
  0
APPID
  5
1B37
330
9
100
AcDbSymbolTableRecord
100
AcDbRegAppTableRecord
  2
GENIUS_GENHATCH_13
 70
     0
  0
APPID
  5
216D
330
9
100
AcDbSymbolTableRecord
100
AcDbRegAppTableRecord
  2
GENIUS_GENOBJ-N-FIL_13
 70
     0
  0
APPID
  5
2356
330
9
100
AcDbSymbolTableRecord
100
AcDbRegAppTableRecord
  2
GEVID990412420
 70
     0
  0
APPID
  5
2357
330
9
100
AcDbSymbolTableRecord
100
AcDbRegAppTableRecord
  2
GEVDC
 70
     0
  0
APPID
  5
2358
330
9
100
AcDbSymbolTableRecord
100
AcDbRegAppTableRecord
  2
GEVCON
 70
     0
  0
APPID
  5
235B
330
9
100
AcDbSymbolTableRecord
100
AcDbRegAppTableRecord
  2
GEVRADREF
 70
     0
  0
APPID
  5
2360
330
9
100
AcDbSymbolTableRecord
100
AcDbRegAppTableRecord
  2
GENIUS_GENBH_13
 70
     0
  0
APPID
  5
2362
330
9
100
AcDbSymbolTableRecord
100
AcDbRegAppTableRecord
  2
GENIUS_GENOBJ-NBEHI-BHF_13
 70
     0
  0
APPID
  5
2364
330
9
100
AcDbSymbolTableRecord
100
AcDbRegAppTableRecord
  2
GENIUS_GENOBJ-NBEHI-BHB_13
 70
     0
  0
APPID
  5
2379
330
9
100
AcDbSymbolTableRecord
100
AcDbRegAppTableRecord
  2
GENIUS_GENOBJ-F-SCPASSM_13
 70
     0
  0
APPID
  5
3D74
330
9
100
AcDbSymbolTableRecord
100
AcDbRegAppTableRecord
  2
GENIUS_GENDIM_13
 70
     0
  0
APPID
  5
3D76
330
9
100
AcDbSymbolTableRecord
100
AcDbRegAppTableRecord
  2
GENIUS_GE3DTOL_13
 70
     0
  0
APPID
  5
3D9C
330
9
100
AcDbSymbolTableRecord
100
AcDbRegAppTableRecord
  2
AD_DRAW
 70
     0
  0
APPID
  5
3DE8
330
9
100
AcDbSymbolTableRecord
100
AcDbRegAppTableRecord
  2
ASURF_PCURVE_APPNAME
 70
     0
  0
APPID
  5
3DED
330
9
100
AcDbSymbolTableRecord
100
AcDbRegAppTableRecord
  2
AMG_3D2D_5.0
 70
     0
  0
APPID
  5
3E1B
330
9
100
AcDbSymbolTableRecord
100
AcDbRegAppTableRecord
  2
DESIGNERASSEMBLIES
 70
     0
  0
APPID
  5
3E20
330
9
100
AcDbSymbolTableRecord
100
AcDbRegAppTableRecord
  2
ACADM_DIM_EDIT
 70
     0
  0
APPID
  5
3E21
330
9
100
AcDbSymbolTableRecord
100
AcDbRegAppTableRecord
  2
AMDT_DM_ADJ
 70
     0
  0
APPID
  5
4143
330
9
100
AcDbSymbolTableRecord
100
AcDbRegAppTableRecord
  2
GENIUS_GENFIL_13
 70
     0
  0
APPID
  5
4144
330
9
100
AcDbSymbolTableRecord
100
AcDbRegAppTableRecord
  2
GENIUS_GENOBJ-N-CHA_13
 70
     0
  0
APPID
  5
4E17
330
9
100
AcDbSymbolTableRecord
100
AcDbRegAppTableRecord
  2
GEVID1008153417
 70
     0
  0
APPID
  5
4E58
330
9
100
AcDbSymbolTableRecord
100
AcDbRegAppTableRecord
  2
GEVID1008153418
 70
     0
  0
APPID
  5
4E5E
330
9
100
AcDbSymbolTableRecord
100
AcDbRegAppTableRecord
  2
GEVID1008153419
 70
     0
  0
APPID
  5
4E64
330
9
100
AcDbSymbolTableRecord
100
AcDbRegAppTableRecord
  2
GEVID1008153420
 70
     0
  0
APPID
  5
4E75
330
9
100
AcDbSymbolTableRecord
100
AcDbRegAppTableRecord
  2
GEVID1008153421
 70
     0
  0
APPID
  5
4EB7
330
9
100
AcDbSymbolTableRecord
100
AcDbRegAppTableRecord
  2
GENIUS_AMGTXT_16
 70
     0
  0
APPID
  5
7645
330
9
100
AcDbSymbolTableRecord
100
AcDbRegAppTableRecord
  2
GENIUS_GENOBJ-N-DIM_13
 70
     0
  0
APPID
  5
AAD0
330
9
100
AcDbSymbolTableRecord
100
AcDbRegAppTableRecord
  2
ACAD_DSTYLE_DIMARC_LENGTH_SYMBOL
 70
     0
  0
APPID
  5
AAD1
330
9
100
AcDbSymbolTableRecord
100
AcDbRegAppTableRecord
  2
ACAD_DSTYLE_DIMJOGGED_JOGANGLE_SYMBOL
 70
     0
  0
APPID
  5
AAFD
330
9
100
AcDbSymbolTableRecord
100
AcDbRegAppTableRecord
  2
ACAD_PSEXT
 70
     0
  0
APPID
  5
AD61
330
9
100
AcDbSymbolTableRecord
100
AcDbRegAppTableRecord
  2
AcAecLayerStandard
 70
     0
  0
APPID
  5
AEE3
330
9
100
AcDbSymbolTableRecord
100
AcDbRegAppTableRecord
  2
ACAD_EXEMPT_FROM_CAD_STANDARDS
 70
     0
  0
APPID
  5
B1BE
330
9
100
AcDbSymbolTableRecord
100
AcDbRegAppTableRecord
  2
GENIUS_GENCEN_19
 70
     0
  0
APPID
  5
B4DF
330
9
100
AcDbSymbolTableRecord
100
AcDbRegAppTableRecord
  2
ACAD_MLEADERVER
 70
     0
  0
APPID
  5
AB4D9
330
9
100
AcDbSymbolTableRecord
100
AcDbRegAppTableRecord
  2
ACAD_NAV_VCDISPLAY
 70
     0
  0
APPID
  5
AB523
330
9
100
AcDbSymbolTableRecord
100
AcDbRegAppTableRecord
  2
ACAD_DSTYLE_DIMJAG
 70
     0
  0
APPID
  5
AB524
330
9
100
AcDbSymbolTableRecord
100
AcDbRegAppTableRecord
  2
ACAD_DSTYLE_DIMTALN
 70
     0
  0
APPID
  5
AB525
330
9
100
AcDbSymbolTableRecord
100
AcDbRegAppTableRecord
  2
ACAD_DSTYLE_DIMBREAK
 70
     0
  0
APPID
  5
ABA80
330
9
100
AcDbSymbolTableRecord
100
AcDbRegAppTableRecord
  2
CONTENTBLOCKDESCRIPTION
 70
     0
  0
APPID
  5
ABA81
330
9
100
AcDbSymbolTableRecord
100
AcDbRegAppTableRecord
  2
CONTENTBLOCKICON
 70
     0
  0
APPID
  5
ABA82
330
9
100
AcDbSymbolTableRecord
100
AcDbRegAppTableRecord
  2
CONTENTTABDATA
 70
     0
  0
APPID
  5
ABA83
330
9
100
AcDbSymbolTableRecord
100
AcDbRegAppTableRecord
  2
CONTENTCURRENTTAB
 70
     0
  0
APPID
  5
ABC6B
330
9
100
AcDbSymbolTableRecord
100
AcDbRegAppTableRecord
  2
ACAD_DSTYLE_DIMINSPECT
 70
     0
  0
ENDTAB
  0
TABLE
  2
DIMSTYLE
  5
A
330
0
100
AcDbSymbolTable
 70
     1
100
AcDbDimStyleTable
 71
     1
340
AD3EF
  0
DIMSTYLE
105
AD3EF
102
{ACAD_REACTORS
330
AD028
330
AD066
330
AD069
330
AD067
330
AD068
330
AD065
330
ACF40
330
ACF43
330
ACF41
330
ACF42
330
ACDCD
330
ACDCC
330
ACDCB
330
ACDC9
330
ACDCA
330
AD152
330
AD151
330
AD4BB
330
AD4BA
330
AD4B9
102
}
330
A
100
AcDbSymbolTableRecord
100
AcDbDimStyleTableRecord
  2
S-1／2
 70
     0
  4
"
 40
0.5
 41
1.0
 42
1.0
 43
10.0
 44
0.0
 47
0.1
 48
0.1
 73
     0
 74
     0
 77
     1
 78
     8
 79
     2
140
3.5
141
0.0
143
0.0393701
146
0.71
147
1.5
172
     1
176
   256
177
   256
178
     2
271
     2
272
     2
283
     0
284
     8
340
11
341
AB69A
342
AB69A
371
    -1
372
    -1
1001
ACAD_DSTYLE_DIMBREAK
1070
   391
1040
3.75
1001
ACAD_DSTYLE_DIMJAG
1070
   388
1040
1.5
1001
ACAD_DSTYLE_DIMTALN
1070
   392
1070
     0
1001
ACAD_DSTYLE_DIMARC_LENGTH_SYMBOL
1070
   379
1070
     1
  0
ENDTAB
  0
TABLE
  2
BLOCK_RECORD
  5
1
330
0
100
AcDbSymbolTable
 70
    22
  0
BLOCK_RECORD
  5
1F
102
{ACAD_XDICTIONARY
360
8A
102
}
330
1
100
AcDbSymbolTableRecord
100
AcDbBlockTableRecord
  2
*Model_Space
340
22
  0
BLOCK_RECORD
  5
1B
330
1
100
AcDbSymbolTableRecord
100
AcDbBlockTableRecord
  2
*Paper_Space
340
1E
  0
BLOCK_RECORD
  5
23
330
1
100
AcDbSymbolTableRecord
100
AcDbBlockTableRecord
  2
*Paper_Space0
340
26
  0
BLOCK_RECORD
  5
AB69A
330
1
100
AcDbSymbolTableRecord
100
AcDbBlockTableRecord
  2
_Dot
340
0
102
{BLKREFS
331
ADB85
331
ADB86
331
ADB8E
331
ADB8F
331
ADB97
331
ADB98
331
ADBA0
331
ADBA1
331
ADBA9
331
ADBAA
331
ADBB2
331
ADBB3
331
ADBBB
331
ADBBC
331
ADBC4
331
ADBC5
331
ADBCD
331
ADBCE
331
ADBD6
331
ADBD7
331
ADBDF
331
ADBE0
331
ADBE8
331
ADBE9
331
ADBF1
331
ADBF2
331
ADBFA
331
ADBFB
331
ADC03
331
ADC04
331
ADC0C
331
ADC0D
331
ADC15
331
ADC16
331
ADC1E
331
ADC1F
331
ADC27
331
ADC28
331
ADC30
331
ADC31
102
}
  0
BLOCK_RECORD
  5
ACDCE
330
1
100
AcDbSymbolTableRecord
100
AcDbBlockTableRecord
  2
*D2
340
0
  0
BLOCK_RECORD
  5
ACDDA
330
1
100
AcDbSymbolTableRecord
100
AcDbBlockTableRecord
  2
*D3
340
0
  0
BLOCK_RECORD
  5
ACDE6
330
1
100
AcDbSymbolTableRecord
100
AcDbBlockTableRecord
  2
*D4
340
0
  0
BLOCK_RECORD
  5
ACDF2
330
1
100
AcDbSymbolTableRecord
100
AcDbBlockTableRecord
  2
*D5
340
0
  0
BLOCK_RECORD
  5
ACDFE
330
1
100
AcDbSymbolTableRecord
100
AcDbBlockTableRecord
  2
*D6
340
0
  0
BLOCK_RECORD
  5
ACF44
330
1
100
AcDbSymbolTableRecord
100
AcDbBlockTableRecord
  2
*D7
340
0
  0
BLOCK_RECORD
  5
ACF50
330
1
100
AcDbSymbolTableRecord
100
AcDbBlockTableRecord
  2
*D8
340
0
  0
BLOCK_RECORD
  5
ACF5C
330
1
100
AcDbSymbolTableRecord
100
AcDbBlockTableRecord
  2
*D9
340
0
  0
BLOCK_RECORD
  5
ACF68
330
1
100
AcDbSymbolTableRecord
100
AcDbBlockTableRecord
  2
*D10
340
0
  0
BLOCK_RECORD
  5
AD06A
330
1
100
AcDbSymbolTableRecord
100
AcDbBlockTableRecord
  2
*D11
340
0
  0
BLOCK_RECORD
  5
AD076
330
1
100
AcDbSymbolTableRecord
100
AcDbBlockTableRecord
  2
*D12
340
0
  0
BLOCK_RECORD
  5
AD082
330
1
100
AcDbSymbolTableRecord
100
AcDbBlockTableRecord
  2
*D13
340
0
  0
BLOCK_RECORD
  5
AD08E
330
1
100
AcDbSymbolTableRecord
100
AcDbBlockTableRecord
  2
*D14
340
0
  0
BLOCK_RECORD
  5
AD09A
330
1
100
AcDbSymbolTableRecord
100
AcDbBlockTableRecord
  2
*D15
340
0
  0
BLOCK_RECORD
  5
AD0A6
330
1
100
AcDbSymbolTableRecord
100
AcDbBlockTableRecord
  2
*D16
340
0
  0
BLOCK_RECORD
  5
AD153
330
1
100
AcDbSymbolTableRecord
100
AcDbBlockTableRecord
  2
*D17
340
0
  0
BLOCK_RECORD
  5
AD15F
330
1
100
AcDbSymbolTableRecord
100
AcDbBlockTableRecord
  2
*D18
340
0
  0
BLOCK_RECORD
  5
AD4BC
330
1
100
AcDbSymbolTableRecord
100
AcDbBlockTableRecord
  2
*D19
340
0
  0
BLOCK_RECORD
  5
AD4C8
330
1
100
AcDbSymbolTableRecord
100
AcDbBlockTableRecord
  2
*D20
340
0
  0
BLOCK_RECORD
  5
AD4D4
330
1
100
AcDbSymbolTableRecord
100
AcDbBlockTableRecord
  2
*D21
340
0
  0
ENDTAB
  0
ENDSEC
  0
SECTION
  2
BLOCKS
  0
BLOCK
  5
20
330
1F
100
AcDbEntity
  8
0
100
AcDbBlockBegin
  2
*Model_Space
 70
     0
 10
0.0
 20
0.0
 30
0.0
  3
*Model_Space
  1

  0
ENDBLK
  5
21
330
1F
100
AcDbEntity
  8
0
100
AcDbBlockEnd
  0
BLOCK
  5
1C
330
1B
100
AcDbEntity
 67
     1
  8
0
100
AcDbBlockBegin
  2
*Paper_Space
 70
     0
 10
0.0
 20
0.0
 30
0.0
  3
*Paper_Space
  1

  0
ENDBLK
  5
1D
330
1B
100
AcDbEntity
 67
     1
  8
0
100
AcDbBlockEnd
  0
BLOCK
  5
24
330
23
100
AcDbEntity
 67
     1
  8
0
100
AcDbBlockBegin
  2
*Paper_Space0
 70
     0
 10
0.0
 20
0.0
 30
0.0
  3
*Paper_Space0
  1

  0
ENDBLK
  5
25
330
23
100
AcDbEntity
 67
     1
  8
0
100
AcDbBlockEnd
  0
BLOCK
  5
AB69D
330
AB69A
100
AcDbEntity
  8
0
100
AcDbBlockBegin
  2
_Dot
 70
     0
 10
0.0
 20
0.0
 30
0.0
  3
_Dot
  1

  0
LWPOLYLINE
  5
AB69B
330
AB69A
100
AcDbEntity
  8
0
  6
ByBlock
 62
     0
100
AcDbPolyline
 90
        2
 70
     1
 43
0.5
 10
-0.25
 20
0.0
 42
1.0
 10
0.25
 20
0.0
 42
1.0
  0
LINE
  5
AB69C
330
AB69A
100
AcDbEntity
  8
0
  6
ByBlock
 62
     0
370
    -2
100
AcDbLine
 10
-0.5
 20
0.0
 30
0.0
 11
-1.0
 21
0.0
 31
0.0
  0
ENDBLK
  5
AB69E
330
AB69A
100
AcDbEntity
  8
0
100
AcDbBlockEnd
  0
BLOCK
  5
ACDCF
330
ACDCE
100
AcDbEntity
  8
0
100
AcDbBlockBegin
  2
*D2
 70
     1
 10
0.0
 20
0.0
 30
0.0
  3
*D2
  1

  0
LINE
  5
ADB82
330
ACDCE
100
AcDbEntity
  8
AM_5
 48
20.0
100
AcDbLine
 10
166.3288639931957
 20
90.86691544454129
 30
0.0
 11
166.3288639931957
 21
90.36691544454129
 31
0.0
  0
LINE
  5
ADB83
330
ACDCE
100
AcDbEntity
  8
AM_5
 48
20.0
100
AcDbLine
 10
173.9288639931942
 20
90.86691544454129
 30
0.0
 11
173.9288639931942
 21
90.36691544454129
 31
0.0
  0
LINE
  5
ADB84
330
ACDCE
100
AcDbEntity
  8
AM_5
 48
20.0
100
AcDbLine
 10
166.8288639931956
 20
90.36691544454129
 30
0.0
 11
173.4288639931942
 21
90.36691544454129
 31
0.0
  0
INSERT
  5
ADB85
330
ACDCE
100
AcDbEntity
  8
AM_5
 48
20.0
100
AcDbBlockReference
  2
_Dot
 10
166.3288639931957
 20
90.36691544454129
 30
0.0
 41
0.5
 42
0.5
 43
0.5
 50
180.0
  0
INSERT
  5
ADB86
330
ACDCE
100
AcDbEntity
  8
AM_5
 48
20.0
100
AcDbBlockReference
  2
_Dot
 10
173.9288639931942
 20
90.36691544454129
 30
0.0
 41
0.5
 42
0.5
 43
0.5
  0
MTEXT
  5
ADB87
330
ACDCE
100
AcDbEntity
  8
AM_5
 62
     2
 48
20.0
100
AcDbMText
 10
170.1288639931949
 20
91.99191544454128
 30
0.0
 40
1.75
 41
0.0
 71
     5
 72
     1
  1
7.6
 73
     1
 44
1.0
1001
ACAD
1000
MTEXTBEGIN
1070
    73
1070
     1
1070
    44
1040
1.0
1070
    74
1070
     0
1000
MTEXTEND
  0
POINT
  5
ADB88
330
ACDCE
100
AcDbEntity
  8
Defpoints
 62
     0
 48
20.0
100
AcDbPoint
 10
166.3288639931957
 20
90.36691544454129
 30
0.0
  0
POINT
  5
ADB89
330
ACDCE
100
AcDbEntity
  8
Defpoints
 62
     0
 48
20.0
100
AcDbPoint
 10
173.9288639931942
 20
90.36691544454129
 30
0.0
  0
POINT
  5
ADB8A
330
ACDCE
100
AcDbEntity
  8
Defpoints
 62
     0
 48
20.0
100
AcDbPoint
 10
173.9288639931942
 20
90.36691544454129
 30
0.0
  0
ENDBLK
  5
ACDD0
330
ACDCE
100
AcDbEntity
  8
0
100
AcDbBlockEnd
  0
BLOCK
  5
ACDDB
330
ACDDA
100
AcDbEntity
  8
0
100
AcDbBlockBegin
  2
*D3
 70
     1
 10
0.0
 20
0.0
 30
0.0
  3
*D3
  1

  0
LINE
  5
ADB8B
330
ACDDA
100
AcDbEntity
  8
AM_5
 48
20.0
100
AcDbLine
 10
165.1288639931986
 20
90.86691544454129
 30
0.0
 11
165.1288639931986
 21
101.2065575802459
 31
0.0
  0
LINE
  5
ADB8C
330
ACDDA
100
AcDbEntity
  8
AM_5
 48
20.0
100
AcDbLine
 10
175.1288639931986
 20
90.86691544454856
 30
0.0
 11
175.1288639931986
 21
101.2065575802459
 31
0.0
  0
LINE
  5
ADB8D
330
ACDDA
100
AcDbEntity
  8
AM_5
 48
20.0
100
AcDbLine
 10
165.6288639931986
 20
101.2065575802459
 30
0.0
 11
174.6288639931986
 21
101.2065575802459
 31
0.0
  0
INSERT
  5
ADB8E
330
ACDDA
100
AcDbEntity
  8
AM_5
 48
20.0
100
AcDbBlockReference
  2
_Dot
 10
165.1288639931986
 20
101.2065575802459
 30
0.0
 41
0.5
 42
0.5
 43
0.5
 50
180.0
  0
INSERT
  5
ADB8F
330
ACDDA
100
AcDbEntity
  8
AM_5
 48
20.0
100
AcDbBlockReference
  2
_Dot
 10
175.1288639931986
 20
101.2065575802459
 30
0.0
 41
0.5
 42
0.5
 43
0.5
  0
MTEXT
  5
ADB90
330
ACDDA
100
AcDbEntity
  8
AM_5
 62
     2
 48
20.0
100
AcDbMText
 10
170.1288639931986
 20
102.8315575802459
 30
0.0
 40
1.75
 41
0.0
 71
     5
 72
     1
  1
10
 73
     1
 44
1.0
1001
ACAD
1000
MTEXTBEGIN
1070
    73
1070
     1
1070
    44
1040
1.0
1070
    74
1070
     0
1000
MTEXTEND
  0
POINT
  5
ADB91
330
ACDDA
100
AcDbEntity
  8
Defpoints
 62
     0
 48
20.0
100
AcDbPoint
 10
165.1288639931986
 20
90.36691544454129
 30
0.0
  0
POINT
  5
ADB92
330
ACDDA
100
AcDbEntity
  8
Defpoints
 62
     0
 48
20.0
100
AcDbPoint
 10
175.1288639931986
 20
90.36691544454857
 30
0.0
  0
POINT
  5
ADB93
330
ACDDA
100
AcDbEntity
  8
Defpoints
 62
     0
 48
20.0
100
AcDbPoint
 10
175.1288639931986
 20
101.2065575802459
 30
0.0
  0
ENDBLK
  5
ACDDC
330
ACDDA
100
AcDbEntity
  8
0
100
AcDbBlockEnd
  0
BLOCK
  5
ACDE7
330
ACDE6
100
AcDbEntity
  8
0
100
AcDbBlockBegin
  2
*D4
 70
     1
 10
0.0
 20
0.0
 30
0.0
  3
*D4
  1

  0
LINE
  5
ADB94
330
ACDE6
100
AcDbEntity
  8
AM_5
 48
20.0
100
AcDbLine
 10
168.6288639931986
 20
84.94703753380941
 30
0.0
 11
160.10545146722
 21
84.94703753380941
 31
0.0
  0
LINE
  5
ADB95
330
ACDE6
100
AcDbEntity
  8
AM_5
 48
20.0
100
AcDbLine
 10
166.7288639931971
 20
71.36691544454129
 30
0.0
 11
160.10545146722
 21
71.36691544454129
 31
0.0
  0
LINE
  5
ADB96
330
ACDE6
100
AcDbEntity
  8
AM_5
 48
20.0
100
AcDbLine
 10
160.10545146722
 20
84.4470375338094
 30
0.0
 11
160.10545146722
 21
71.86691544454129
 31
0.0
  0
INSERT
  5
ADB97
330
ACDE6
100
AcDbEntity
  8
AM_5
 48
20.0
100
AcDbBlockReference
  2
_Dot
 10
160.10545146722
 20
84.94703753380941
 30
0.0
 41
0.5
 42
0.5
 43
0.5
 50
90.0
  0
INSERT
  5
ADB98
330
ACDE6
100
AcDbEntity
  8
AM_5
 48
20.0
100
AcDbBlockReference
  2
_Dot
 10
160.10545146722
 20
71.36691544454129
 30
0.0
 41
0.5
 42
0.5
 43
0.5
 50
270.0
  0
MTEXT
  5
ADB99
330
ACDE6
100
AcDbEntity
  8
AM_5
 62
     2
 48
20.0
100
AcDbMText
 10
158.48045146722
 20
78.15697648917538
 30
0.0
 40
1.75
 41
0.0
 71
     5
 72
     1
  1
13.6
 11
0.0000000000000001
 21
1.0
 31
0.0
 73
     1
 44
1.0
1001
ACAD
1000
MTEXTBEGIN
1070
    73
1070
     1
1070
    44
1040
1.0
1070
    74
1070
     0
1000
MTEXTEND
  0
POINT
  5
ADB9A
330
ACDE6
100
AcDbEntity
  8
Defpoints
 62
     0
 48
20.0
100
AcDbPoint
 10
169.1288639931986
 20
84.94703753380941
 30
0.0
  0
POINT
  5
ADB9B
330
ACDE6
100
AcDbEntity
  8
Defpoints
 62
     0
 48
20.0
100
AcDbPoint
 10
167.2288639931971
 20
71.36691544454129
 30
0.0
  0
POINT
  5
ADB9C
330
ACDE6
100
AcDbEntity
  8
Defpoints
 62
     0
 48
20.0
100
AcDbPoint
 10
160.10545146722
 20
71.36691544454129
 30
0.0
  0
ENDBLK
  5
ACDE8
330
ACDE6
100
AcDbEntity
  8
0
100
AcDbBlockEnd
  0
BLOCK
  5
ACDF3
330
ACDF2
100
AcDbEntity
  8
0
100
AcDbBlockBegin
  2
*D5
 70
     1
 10
0.0
 20
0.0
 30
0.0
  3
*D5
  1

  0
LINE
  5
ADB9D
330
ACDF2
100
AcDbEntity
  8
AM_5
 48
20.0
100
AcDbLine
 10
168.6288639931986
 20
84.94703753380941
 30
0.0
 11
160.10545146722
 21
84.94703753380941
 31
0.0
  0
LINE
  5
ADB9E
330
ACDF2
100
AcDbEntity
  8
AM_5
 48
20.0
100
AcDbLine
 10
169.6288639931986
 20
95.36691544454129
 30
0.0
 11
160.10545146722
 21
95.36691544454129
 31
0.0
  0
LINE
  5
ADB9F
330
ACDF2
100
AcDbEntity
  8
AM_5
 48
20.0
100
AcDbLine
 10
160.10545146722
 20
85.44703753380941
 30
0.0
 11
160.10545146722
 21
94.8669154445413
 31
0.0
  0
INSERT
  5
ADBA0
330
ACDF2
100
AcDbEntity
  8
AM_5
 48
20.0
100
AcDbBlockReference
  2
_Dot
 10
160.10545146722
 20
84.94703753380941
 30
0.0
 41
0.5
 42
0.5
 43
0.5
 50
270.0
  0
INSERT
  5
ADBA1
330
ACDF2
100
AcDbEntity
  8
AM_5
 48
20.0
100
AcDbBlockReference
  2
_Dot
 10
160.10545146722
 20
95.36691544454129
 30
0.0
 41
0.5
 42
0.5
 43
0.5
 50
90.0
  0
MTEXT
  5
ADBA2
330
ACDF2
100
AcDbEntity
  8
AM_5
 62
     2
 48
20.0
100
AcDbMText
 10
158.48045146722
 20
90.15697648917537
 30
0.0
 40
1.75
 41
0.0
 71
     5
 72
     1
  1
10.4
 11
0.0000000000000001
 21
1.0
 31
0.0
 73
     1
 44
1.0
1001
ACAD
1000
MTEXTBEGIN
1070
    73
1070
     1
1070
    44
1040
1.0
1070
    74
1070
     0
1000
MTEXTEND
  0
POINT
  5
ADBA3
330
ACDF2
100
AcDbEntity
  8
Defpoints
 62
     0
 48
20.0
100
AcDbPoint
 10
169.1288639931986
 20
84.94703753380941
 30
0.0
  0
POINT
  5
ADBA4
330
ACDF2
100
AcDbEntity
  8
Defpoints
 62
     0
 48
20.0
100
AcDbPoint
 10
170.1288639931986
 20
95.36691544454129
 30
0.0
  0
POINT
  5
ADBA5
330
ACDF2
100
AcDbEntity
  8
Defpoints
 62
     0
 48
20.0
100
AcDbPoint
 10
160.10545146722
 20
95.36691544454129
 30
0.0
  0
ENDBLK
  5
ACDF4
330
ACDF2
100
AcDbEntity
  8
0
100
AcDbBlockEnd
  0
BLOCK
  5
ACDFF
330
ACDFE
100
AcDbEntity
  8
0
100
AcDbBlockBegin
  2
*D6
 70
     1
 10
0.0
 20
0.0
 30
0.0
  3
*D6
  1

  0
LINE
  5
ADBA6
330
ACDFE
100
AcDbEntity
  8
AM_5
 48
20.0
100
AcDbLine
 10
167.8288639931956
 20
72.03074525046736
 30
0.0
 11
167.8288639931956
 21
66.8256067215334
 31
0.0
  0
LINE
  5
ADBA7
330
ACDFE
100
AcDbEntity
  8
AM_5
 48
20.0
100
AcDbLine
 10
172.4288639931942
 20
72.03074525046736
 30
0.0
 11
172.4288639931942
 21
66.8256067215334
 31
0.0
  0
LINE
  5
ADBA8
330
ACDFE
100
AcDbEntity
  8
AM_5
 48
20.0
100
AcDbLine
 10
168.3288639931957
 20
66.8256067215334
 30
0.0
 11
171.9288639931942
 21
66.8256067215334
 31
0.0
  0
INSERT
  5
ADBA9
330
ACDFE
100
AcDbEntity
  8
AM_5
 48
20.0
100
AcDbBlockReference
  2
_Dot
 10
167.8288639931956
 20
66.8256067215334
 30
0.0
 41
0.5
 42
0.5
 43
0.5
 50
180.0
  0
INSERT
  5
ADBAA
330
ACDFE
100
AcDbEntity
  8
AM_5
 48
20.0
100
AcDbBlockReference
  2
_Dot
 10
172.4288639931942
 20
66.8256067215334
 30
0.0
 41
0.5
 42
0.5
 43
0.5
  0
MTEXT
  5
ADBAB
330
ACDFE
100
AcDbEntity
  8
AM_5
 62
     2
 48
20.0
100
AcDbMText
 10
170.1288639931949
 20
68.45060672153341
 30
0.0
 40
1.75
 41
0.0
 71
     5
 72
     1
  1
4.6
 73
     1
 44
1.0
1001
ACAD
1000
MTEXTBEGIN
1070
    73
1070
     1
1070
    44
1040
1.0
1070
    74
1070
     0
1000
MTEXTEND
  0
POINT
  5
ADBAC
330
ACDFE
100
AcDbEntity
  8
Defpoints
 62
     0
 48
20.0
100
AcDbPoint
 10
167.8288639931956
 20
72.53074525046736
 30
0.0
  0
POINT
  5
ADBAD
330
ACDFE
100
AcDbEntity
  8
Defpoints
 62
     0
 48
20.0
100
AcDbPoint
 10
172.4288639931942
 20
72.53074525046736
 30
0.0
  0
POINT
  5
ADBAE
330
ACDFE
100
AcDbEntity
  8
Defpoints
 62
     0
 48
20.0
100
AcDbPoint
 10
172.4288639931942
 20
66.8256067215334
 30
0.0
  0
ENDBLK
  5
ACE00
330
ACDFE
100
AcDbEntity
  8
0
100
AcDbBlockEnd
  0
BLOCK
  5
ACF45
330
ACF44
100
AcDbEntity
  8
0
100
AcDbBlockBegin
  2
*D7
 70
     1
 10
0.0
 20
0.0
 30
0.0
  3
*D7
  1

  0
LINE
  5
ADBCA
330
ACF44
100
AcDbEntity
  8
AM_5
 48
20.0
100
AcDbLine
 10
124.2583202530149
 20
84.9669154445471
 30
0.0
 11
133.0807847805868
 21
84.9669154445471
 31
0.0
  0
LINE
  5
ADBCB
330
ACF44
100
AcDbEntity
  8
AM_5
 48
20.0
100
AcDbLine
 10
120.7687627481573
 20
95.36691544454129
 30
0.0
 11
133.0807847805868
 21
95.36691544454129
 31
0.0
  0
LINE
  5
ADBCC
330
ACF44
100
AcDbEntity
  8
AM_5
 48
20.0
100
AcDbLine
 10
133.0807847805868
 20
85.46691544454711
 30
0.0
 11
133.0807847805868
 21
94.8669154445413
 31
0.0
  0
INSERT
  5
ADBCD
330
ACF44
100
AcDbEntity
  8
AM_5
 48
20.0
100
AcDbBlockReference
  2
_Dot
 10
133.0807847805868
 20
84.9669154445471
 30
0.0
 41
0.5
 42
0.5
 43
0.5
 50
270.0
  0
INSERT
  5
ADBCE
330
ACF44
100
AcDbEntity
  8
AM_5
 48
20.0
100
AcDbBlockReference
  2
_Dot
 10
133.0807847805868
 20
95.36691544454129
 30
0.0
 41
0.5
 42
0.5
 43
0.5
 50
90.0
  0
MTEXT
  5
ADBCF
330
ACF44
100
AcDbEntity
  8
AM_5
 62
     2
 48
20.0
100
AcDbMText
 10
131.4557847805867
 20
90.16691544454422
 30
0.0
 40
1.75
 41
0.0
 71
     5
 72
     1
  1
10.4
 11
0.0000000000000001
 21
1.0
 31
0.0
 73
     1
 44
1.0
1001
ACAD
1000
MTEXTBEGIN
1070
    73
1070
     1
1070
    44
1040
1.0
1070
    74
1070
     0
1000
MTEXTEND
  0
POINT
  5
ADBD0
330
ACF44
100
AcDbEntity
  8
Defpoints
 62
     0
 48
20.0
100
AcDbPoint
 10
123.7583202530149
 20
84.9669154445471
 30
0.0
  0
POINT
  5
ADBD1
330
ACF44
100
AcDbEntity
  8
Defpoints
 62
     0
 48
20.0
100
AcDbPoint
 10
120.2687627481573
 20
95.36691544454129
 30
0.0
  0
POINT
  5
ADBD2
330
ACF44
100
AcDbEntity
  8
Defpoints
 62
     0
 48
20.0
100
AcDbPoint
 10
133.0807847805868
 20
95.36691544454129
 30
0.0
  0
ENDBLK
  5
ACF46
330
ACF44
100
AcDbEntity
  8
0
100
AcDbBlockEnd
  0
BLOCK
  5
ACF51
330
ACF50
100
AcDbEntity
  8
0
100
AcDbBlockBegin
  2
*D8
 70
     1
 10
0.0
 20
0.0
 30
0.0
  3
*D8
  1

  0
LINE
  5
ADBD3
330
ACF50
100
AcDbEntity
  8
AM_5
 48
20.0
100
AcDbLine
 10
125.2687627481573
 20
90.86691544454129
 30
0.0
 11
125.2687627481573
 21
101.2065575802459
 31
0.0
  0
LINE
  5
ADBD4
330
ACF50
100
AcDbEntity
  8
AM_5
 48
20.0
100
AcDbLine
 10
115.2687627481573
 20
90.86691544454129
 30
0.0
 11
115.2687627481573
 21
101.2065575802459
 31
0.0
  0
LINE
  5
ADBD5
330
ACF50
100
AcDbEntity
  8
AM_5
 48
20.0
100
AcDbLine
 10
124.7687627481573
 20
101.2065575802459
 30
0.0
 11
115.7687627481573
 21
101.2065575802459
 31
0.0
  0
INSERT
  5
ADBD6
330
ACF50
100
AcDbEntity
  8
AM_5
 48
20.0
100
AcDbBlockReference
  2
_Dot
 10
125.2687627481573
 20
101.2065575802459
 30
0.0
 41
0.5
 42
0.5
 43
0.5
  0
INSERT
  5
ADBD7
330
ACF50
100
AcDbEntity
  8
AM_5
 48
20.0
100
AcDbBlockReference
  2
_Dot
 10
115.2687627481573
 20
101.2065575802459
 30
0.0
 41
0.5
 42
0.5
 43
0.5
 50
180.0
  0
MTEXT
  5
ADBD8
330
ACF50
100
AcDbEntity
  8
AM_5
 62
     2
 48
20.0
100
AcDbMText
 10
120.2687627481573
 20
102.8315575802459
 30
0.0
 40
1.75
 41
0.0
 71
     5
 72
     1
  1
10
 73
     1
 44
1.0
1001
ACAD
1000
MTEXTBEGIN
1070
    73
1070
     1
1070
    44
1040
1.0
1070
    74
1070
     0
1000
MTEXTEND
  0
POINT
  5
ADBD9
330
ACF50
100
AcDbEntity
  8
Defpoints
 62
     0
 48
20.0
100
AcDbPoint
 10
125.2687627481573
 20
90.36691544454129
 30
0.0
  0
POINT
  5
ADBDA
330
ACF50
100
AcDbEntity
  8
Defpoints
 62
     0
 48
20.0
100
AcDbPoint
 10
115.2687627481573
 20
90.36691544454129
 30
0.0
  0
POINT
  5
ADBDB
330
ACF50
100
AcDbEntity
  8
Defpoints
 62
     0
 48
20.0
100
AcDbPoint
 10
115.2687627481573
 20
101.2065575802459
 30
0.0
  0
ENDBLK
  5
ACF52
330
ACF50
100
AcDbEntity
  8
0
100
AcDbBlockEnd
  0
BLOCK
  5
ACF5D
330
ACF5C
100
AcDbEntity
  8
0
100
AcDbBlockBegin
  2
*D9
 70
     1
 10
0.0
 20
0.0
 30
0.0
  3
*D9
  1

  0
LINE
  5
ADBDC
330
ACF5C
100
AcDbEntity
  8
AM_5
 48
20.0
100
AcDbLine
 10
113.1593057493955
 20
79.6669154445442
 30
0.0
 11
113.1593057493955
 21
69.65802660469353
 31
0.0
  0
LINE
  5
ADBDD
330
ACF5C
100
AcDbEntity
  8
AM_5
 48
20.0
100
AcDbLine
 10
126.3572844267692
 20
82.56691544454566
 30
0.0
 11
126.3572844267692
 21
69.65802660469353
 31
0.0
  0
LINE
  5
ADBDE
330
ACF5C
100
AcDbEntity
  8
AM_5
 48
20.0
100
AcDbLine
 10
113.6593057493956
 20
69.65802660469353
 30
0.0
 11
125.8572844267692
 21
69.65802660469353
 31
0.0
  0
INSERT
  5
ADBDF
330
ACF5C
100
AcDbEntity
  8
AM_5
 48
20.0
100
AcDbBlockReference
  2
_Dot
 10
113.1593057493955
 20
69.65802660469353
 30
0.0
 41
0.5
 42
0.5
 43
0.5
 50
180.0
  0
INSERT
  5
ADBE0
330
ACF5C
100
AcDbEntity
  8
AM_5
 48
20.0
100
AcDbBlockReference
  2
_Dot
 10
126.3572844267692
 20
69.65802660469353
 30
0.0
 41
0.5
 42
0.5
 43
0.5
  0
MTEXT
  5
ADBE1
330
ACF5C
100
AcDbEntity
  8
AM_5
 62
     2
 48
20.0
100
AcDbMText
 10
119.7582950880824
 20
71.28302660469353
 30
0.0
 40
1.75
 41
0.0
 71
     5
 72
     1
  1
13.2
 73
     1
 44
1.0
1001
ACAD
1000
MTEXTBEGIN
1070
    73
1070
     1
1070
    44
1040
1.0
1070
    74
1070
     0
1000
MTEXTEND
  0
POINT
  5
ADBE2
330
ACF5C
100
AcDbEntity
  8
Defpoints
 62
     0
 48
20.0
100
AcDbPoint
 10
113.1593057493955
 20
80.1669154445442
 30
0.0
  0
POINT
  5
ADBE3
330
ACF5C
100
AcDbEntity
  8
Defpoints
 62
     0
 48
20.0
100
AcDbPoint
 10
126.3572844267692
 20
83.06691544454565
 30
0.0
  0
POINT
  5
ADBE4
330
ACF5C
100
AcDbEntity
  8
Defpoints
 62
     0
 48
20.0
100
AcDbPoint
 10
126.3572844267692
 20
69.65802660469353
 30
0.0
  0
ENDBLK
  5
ACF5E
330
ACF5C
100
AcDbEntity
  8
0
100
AcDbBlockEnd
  0
BLOCK
  5
ACF69
330
ACF68
100
AcDbEntity
  8
0
100
AcDbBlockBegin
  2
*D10
 70
     1
 10
0.0
 20
0.0
 30
0.0
  3
*D10
  1

  0
LINE
  5
ADBE5
330
ACF68
100
AcDbEntity
  8
AM_5
 48
20.0
100
AcDbLine
 10
124.2583202530149
 20
84.9669154445471
 30
0.0
 11
133.0807847805868
 21
84.9669154445471
 31
0.0
  0
LINE
  5
ADBE6
330
ACF68
100
AcDbEntity
  8
AM_5
 48
20.0
100
AcDbLine
 10
124.7706775520346
 20
75.36691544454129
 30
0.0
 11
133.0807847805868
 21
75.36691544454129
 31
0.0
  0
LINE
  5
ADBE7
330
ACF68
100
AcDbEntity
  8
AM_5
 48
20.0
100
AcDbLine
 10
133.0807847805868
 20
84.46691544454711
 30
0.0
 11
133.0807847805868
 21
75.86691544454129
 31
0.0
  0
INSERT
  5
ADBE8
330
ACF68
100
AcDbEntity
  8
AM_5
 48
20.0
100
AcDbBlockReference
  2
_Dot
 10
133.0807847805868
 20
84.9669154445471
 30
0.0
 41
0.5
 42
0.5
 43
0.5
 50
90.0
  0
INSERT
  5
ADBE9
330
ACF68
100
AcDbEntity
  8
AM_5
 48
20.0
100
AcDbBlockReference
  2
_Dot
 10
133.0807847805868
 20
75.36691544454129
 30
0.0
 41
0.5
 42
0.5
 43
0.5
 50
270.0
  0
MTEXT
  5
ADBEA
330
ACF68
100
AcDbEntity
  8
AM_5
 62
     2
 48
20.0
100
AcDbMText
 10
131.4557847805867
 20
80.16691544454422
 30
0.0
 40
1.75
 41
0.0
 71
     5
 72
     1
  1
9.6
 11
0.0000000000000001
 21
1.0
 31
0.0
 73
     1
 44
1.0
1001
ACAD
1000
MTEXTBEGIN
1070
    73
1070
     1
1070
    44
1040
1.0
1070
    74
1070
     0
1000
MTEXTEND
  0
POINT
  5
ADBEB
330
ACF68
100
AcDbEntity
  8
Defpoints
 62
     0
 48
20.0
100
AcDbPoint
 10
123.7583202530149
 20
84.9669154445471
 30
0.0
  0
POINT
  5
ADBEC
330
ACF68
100
AcDbEntity
  8
Defpoints
 62
     0
 48
20.0
100
AcDbPoint
 10
124.2706775520346
 20
75.36691544454129
 30
0.0
  0
POINT
  5
ADBED
330
ACF68
100
AcDbEntity
  8
Defpoints
 62
     0
 48
20.0
100
AcDbPoint
 10
133.0807847805868
 20
75.36691544454129
 30
0.0
  0
ENDBLK
  5
ACF6A
330
ACF68
100
AcDbEntity
  8
0
100
AcDbBlockEnd
  0
BLOCK
  5
AD06B
330
AD06A
100
AcDbEntity
  8
0
100
AcDbBlockBegin
  2
*D11
 70
     1
 10
0.0
 20
0.0
 30
0.0
  3
*D11
  1

  0
LINE
  5
ADBEE
330
AD06A
100
AcDbEntity
  8
AM_5
 48
20.0
100
AcDbLine
 10
74.77826538968992
 20
95.36691544454129
 30
0.0
 11
83.99065980824161
 21
95.36691544454129
 31
0.0
  0
LINE
  5
ADBEF
330
AD06A
100
AcDbEntity
  8
AM_5
 48
20.0
100
AcDbLine
 10
77.44495396350382
 20
76.86691544454129
 30
0.0
 11
83.99065980824161
 21
76.86691544454129
 31
0.0
  0
LINE
  5
ADBF0
330
AD06A
100
AcDbEntity
  8
AM_5
 48
20.0
100
AcDbLine
 10
83.99065980824161
 20
94.8669154445413
 30
0.0
 11
83.99065980824161
 21
77.36691544454129
 31
0.0
  0
INSERT
  5
ADBF1
330
AD06A
100
AcDbEntity
  8
AM_5
 48
20.0
100
AcDbBlockReference
  2
_Dot
 10
83.99065980824161
 20
95.36691544454129
 30
0.0
 41
0.5
 42
0.5
 43
0.5
 50
90.0
  0
INSERT
  5
ADBF2
330
AD06A
100
AcDbEntity
  8
AM_5
 48
20.0
100
AcDbBlockReference
  2
_Dot
 10
83.99065980824161
 20
76.86691544454129
 30
0.0
 41
0.5
 42
0.5
 43
0.5
 50
270.0
  0
MTEXT
  5
ADBF3
330
AD06A
100
AcDbEntity
  8
AM_5
 62
     2
 48
20.0
100
AcDbMText
 10
82.3656598082416
 20
86.1169154445413
 30
0.0
 40
1.75
 41
0.0
 71
     5
 72
     1
  1
18.5
 11
0.0000000000000001
 21
1.0
 31
0.0
 73
     1
 44
1.0
1001
ACAD
1000
MTEXTBEGIN
1070
    73
1070
     1
1070
    44
1040
1.0
1070
    74
1070
     0
1000
MTEXTEND
  0
POINT
  5
ADBF4
330
AD06A
100
AcDbEntity
  8
Defpoints
 62
     0
 48
20.0
100
AcDbPoint
 10
74.27826538968992
 20
95.36691544454129
 30
0.0
  0
POINT
  5
ADBF5
330
AD06A
100
AcDbEntity
  8
Defpoints
 62
     0
 48
20.0
100
AcDbPoint
 10
76.94495396350382
 20
76.86691544454129
 30
0.0
  0
POINT
  5
ADBF6
330
AD06A
100
AcDbEntity
  8
Defpoints
 62
     0
 48
20.0
100
AcDbPoint
 10
83.99065980824161
 20
76.86691544454129
 30
0.0
  0
ENDBLK
  5
AD06C
330
AD06A
100
AcDbEntity
  8
0
100
AcDbBlockEnd
  0
BLOCK
  5
AD077
330
AD076
100
AcDbEntity
  8
0
100
AcDbBlockBegin
  2
*D12
 70
     1
 10
0.0
 20
0.0
 30
0.0
  3
*D12
  1

  0
LINE
  5
ADBF7
330
AD076
100
AcDbEntity
  8
AM_5
 48
20.0
100
AcDbLine
 10
65.32773487906865
 20
79.84089877629435
 30
0.0
 11
65.32773487906865
 21
70.92593518610545
 31
0.0
  0
LINE
  5
ADBF8
330
AD076
100
AcDbEntity
  8
AM_5
 48
20.0
100
AcDbLine
 10
74.72773487906869
 20
79.84089877629441
 30
0.0
 11
74.72773487906869
 21
70.92593518610545
 31
0.0
  0
LINE
  5
ADBF9
330
AD076
100
AcDbEntity
  8
AM_5
 48
20.0
100
AcDbLine
 10
65.82773487906866
 20
70.92593518610545
 30
0.0
 11
74.22773487906869
 21
70.92593518610545
 31
0.0
  0
INSERT
  5
ADBFA
330
AD076
100
AcDbEntity
  8
AM_5
 48
20.0
100
AcDbBlockReference
  2
_Dot
 10
65.32773487906865
 20
70.92593518610545
 30
0.0
 41
0.5
 42
0.5
 43
0.5
 50
180.0
  0
INSERT
  5
ADBFB
330
AD076
100
AcDbEntity
  8
AM_5
 48
20.0
100
AcDbBlockReference
  2
_Dot
 10
74.72773487906869
 20
70.92593518610545
 30
0.0
 41
0.5
 42
0.5
 43
0.5
  0
MTEXT
  5
ADBFC
330
AD076
100
AcDbEntity
  8
AM_5
 62
     2
 48
20.0
100
AcDbMText
 10
70.02773487906868
 20
72.55093518610545
 30
0.0
 40
1.75
 41
0.0
 71
     5
 72
     1
  1
9.4
 73
     1
 44
1.0
1001
ACAD
1000
MTEXTBEGIN
1070
    73
1070
     1
1070
    44
1040
1.0
1070
    74
1070
     0
1000
MTEXTEND
  0
POINT
  5
ADBFD
330
AD076
100
AcDbEntity
  8
Defpoints
 62
     0
 48
20.0
100
AcDbPoint
 10
65.32773487906865
 20
80.34089877629435
 30
0.0
  0
POINT
  5
ADBFE
330
AD076
100
AcDbEntity
  8
Defpoints
 62
     0
 48
20.0
100
AcDbPoint
 10
74.72773487906869
 20
80.3408987762944
 30
0.0
  0
POINT
  5
ADBFF
330
AD076
100
AcDbEntity
  8
Defpoints
 62
     0
 48
20.0
100
AcDbPoint
 10
74.72773487906869
 20
70.92593518610545
 30
0.0
  0
ENDBLK
  5
AD078
330
AD076
100
AcDbEntity
  8
0
100
AcDbBlockEnd
  0
BLOCK
  5
AD083
330
AD082
100
AcDbEntity
  8
0
100
AcDbBlockBegin
  2
*D13
 70
     1
 10
0.0
 20
0.0
 30
0.0
  3
*D13
  1

  0
LINE
  5
ADC00
330
AD082
100
AcDbEntity
  8
AM_5
 48
20.0
100
AcDbLine
 10
74.0777348790687
 20
76.86691544454129
 30
0.0
 11
83.99065980824161
 21
76.86691544454129
 31
0.0
  0
LINE
  5
ADC01
330
AD082
100
AcDbEntity
  8
AM_5
 48
20.0
100
AcDbLine
 10
70.52773487906867
 20
95.36691544454129
 30
0.0
 11
83.99065980824161
 21
95.36691544454129
 31
0.0
  0
LINE
  5
ADC02
330
AD082
100
AcDbEntity
  8
AM_5
 48
20.0
100
AcDbLine
 10
83.99065980824161
 20
77.36691544454129
 30
0.0
 11
83.99065980824161
 21
94.8669154445413
 31
0.0
  0
INSERT
  5
ADC03
330
AD082
100
AcDbEntity
  8
AM_5
 48
20.0
100
AcDbBlockReference
  2
_Dot
 10
83.99065980824161
 20
76.86691544454129
 30
0.0
 41
0.5
 42
0.5
 43
0.5
 50
270.0
  0
INSERT
  5
ADC04
330
AD082
100
AcDbEntity
  8
AM_5
 48
20.0
100
AcDbBlockReference
  2
_Dot
 10
83.99065980824161
 20
95.36691544454129
 30
0.0
 41
0.5
 42
0.5
 43
0.5
 50
90.0
  0
MTEXT
  5
ADC05
330
AD082
100
AcDbEntity
  8
AM_5
 62
     2
 48
20.0
100
AcDbMText
 10
82.3656598082416
 20
86.1169154445413
 30
0.0
 40
1.75
 41
0.0
 71
     5
 72
     1
  1
18.5
 11
0.0000000000000001
 21
1.0
 31
0.0
 73
     1
 44
1.0
1001
ACAD
1000
MTEXTBEGIN
1070
    73
1070
     1
1070
    44
1040
1.0
1070
    74
1070
     0
1000
MTEXTEND
  0
POINT
  5
ADC06
330
AD082
100
AcDbEntity
  8
Defpoints
 62
     0
 48
20.0
100
AcDbPoint
 10
73.5777348790687
 20
76.86691544454129
 30
0.0
  0
POINT
  5
ADC07
330
AD082
100
AcDbEntity
  8
Defpoints
 62
     0
 48
20.0
100
AcDbPoint
 10
70.02773487906868
 20
95.36691544454129
 30
0.0
  0
POINT
  5
ADC08
330
AD082
100
AcDbEntity
  8
Defpoints
 62
     0
 48
20.0
100
AcDbPoint
 10
83.99065980824161
 20
95.36691544454129
 30
0.0
  0
ENDBLK
  5
AD084
330
AD082
100
AcDbEntity
  8
0
100
AcDbBlockEnd
  0
BLOCK
  5
AD08F
330
AD08E
100
AcDbEntity
  8
0
100
AcDbBlockBegin
  2
*D14
 70
     1
 10
0.0
 20
0.0
 30
0.0
  3
*D14
  1

  0
LINE
  5
ADC09
330
AD08E
100
AcDbEntity
  8
AM_5
 48
20.0
100
AcDbLine
 10
65.77720436844741
 20
89.81564564778825
 30
0.0
 11
65.77720436844741
 21
101.2065575802459
 31
0.0
  0
LINE
  5
ADC0A
330
AD08E
100
AcDbEntity
  8
AM_5
 48
20.0
100
AcDbLine
 10
74.27826538968992
 20
89.81564564778825
 30
0.0
 11
74.27826538968992
 21
101.2065575802459
 31
0.0
  0
LINE
  5
ADC0B
330
AD08E
100
AcDbEntity
  8
AM_5
 48
20.0
100
AcDbLine
 10
66.27720436844741
 20
101.2065575802459
 30
0.0
 11
73.77826538968992
 21
101.2065575802459
 31
0.0
  0
INSERT
  5
ADC0C
330
AD08E
100
AcDbEntity
  8
AM_5
 48
20.0
100
AcDbBlockReference
  2
_Dot
 10
65.77720436844741
 20
101.2065575802459
 30
0.0
 41
0.5
 42
0.5
 43
0.5
 50
180.0
  0
INSERT
  5
ADC0D
330
AD08E
100
AcDbEntity
  8
AM_5
 48
20.0
100
AcDbBlockReference
  2
_Dot
 10
74.27826538968992
 20
101.2065575802459
 30
0.0
 41
0.5
 42
0.5
 43
0.5
  0
MTEXT
  5
ADC0E
330
AD08E
100
AcDbEntity
  8
AM_5
 62
     2
 48
20.0
100
AcDbMText
 10
70.02773487906868
 20
102.8315575802459
 30
0.0
 40
1.75
 41
0.0
 71
     5
 72
     1
  1
8.5
 73
     1
 44
1.0
1001
ACAD
1000
MTEXTBEGIN
1070
    73
1070
     1
1070
    44
1040
1.0
1070
    74
1070
     0
1000
MTEXTEND
  0
POINT
  5
ADC0F
330
AD08E
100
AcDbEntity
  8
Defpoints
 62
     0
 48
20.0
100
AcDbPoint
 10
65.77720436844741
 20
89.31564564778824
 30
0.0
  0
POINT
  5
ADC10
330
AD08E
100
AcDbEntity
  8
Defpoints
 62
     0
 48
20.0
100
AcDbPoint
 10
74.27826538968992
 20
89.31564564778824
 30
0.0
  0
POINT
  5
ADC11
330
AD08E
100
AcDbEntity
  8
Defpoints
 62
     0
 48
20.0
100
AcDbPoint
 10
74.27826538968992
 20
101.2065575802459
 30
0.0
  0
ENDBLK
  5
AD090
330
AD08E
100
AcDbEntity
  8
0
100
AcDbBlockEnd
  0
BLOCK
  5
AD09B
330
AD09A
100
AcDbEntity
  8
0
100
AcDbBlockBegin
  2
*D15
 70
     1
 10
0.0
 20
0.0
 30
0.0
  3
*D15
  1

  0
LINE
  5
ADC12
330
AD09A
100
AcDbEntity
  8
AM_5
 48
20.0
100
AcDbLine
 10
66.97773487906866
 20
76.86691544454134
 30
0.0
 11
80.15072900772839
 21
76.86691544454134
 31
0.0
  0
LINE
  5
ADC13
330
AD09A
100
AcDbEntity
  8
AM_5
 48
20.0
100
AcDbLine
 10
70.52773487906867
 20
86.86489412191708
 30
0.0
 11
80.15072900772839
 21
86.86489412191708
 31
0.0
  0
LINE
  5
ADC14
330
AD09A
100
AcDbEntity
  8
AM_5
 48
20.0
100
AcDbLine
 10
80.15072900772839
 20
77.36691544454135
 30
0.0
 11
80.15072900772839
 21
86.36489412191707
 31
0.0
  0
INSERT
  5
ADC15
330
AD09A
100
AcDbEntity
  8
AM_5
 48
20.0
100
AcDbBlockReference
  2
_Dot
 10
80.15072900772839
 20
76.86691544454134
 30
0.0
 41
0.5
 42
0.5
 43
0.5
 50
270.0
  0
INSERT
  5
ADC16
330
AD09A
100
AcDbEntity
  8
AM_5
 48
20.0
100
AcDbBlockReference
  2
_Dot
 10
80.15072900772839
 20
86.86489412191708
 30
0.0
 41
0.5
 42
0.5
 43
0.5
 50
90.0
  0
MTEXT
  5
ADC17
330
AD09A
100
AcDbEntity
  8
AM_5
 62
     2
 48
20.0
100
AcDbMText
 10
78.52572900772837
 20
81.86590478322923
 30
0.0
 40
1.75
 41
0.0
 71
     5
 72
     1
  1
10
 11
0.0000000000000001
 21
1.0
 31
0.0
 73
     1
 44
1.0
1001
ACAD
1000
MTEXTBEGIN
1070
    73
1070
     1
1070
    44
1040
1.0
1070
    74
1070
     0
1000
MTEXTEND
  0
POINT
  5
ADC18
330
AD09A
100
AcDbEntity
  8
Defpoints
 62
     0
 48
20.0
100
AcDbPoint
 10
66.47773487906866
 20
76.86691544454134
 30
0.0
  0
POINT
  5
ADC19
330
AD09A
100
AcDbEntity
  8
Defpoints
 62
     0
 48
20.0
100
AcDbPoint
 10
70.02773487906868
 20
86.86489412191708
 30
0.0
  0
POINT
  5
ADC1A
330
AD09A
100
AcDbEntity
  8
Defpoints
 62
     0
 48
20.0
100
AcDbPoint
 10
80.15072900772839
 20
86.86489412191708
 30
0.0
  0
ENDBLK
  5
AD09C
330
AD09A
100
AcDbEntity
  8
0
100
AcDbBlockEnd
  0
BLOCK
  5
AD0A7
330
AD0A6
100
AcDbEntity
  8
0
100
AcDbBlockBegin
  2
*D16
 70
     1
 10
0.0
 20
0.0
 30
0.0
  3
*D16
  1

  0
LINE
  5
ADC1B
330
AD0A6
100
AcDbEntity
  8
AM_5
 48
20.0
100
AcDbLine
 10
70.52773487906867
 20
86.86489412191708
 30
0.0
 11
80.15072900772839
 21
86.86489412191708
 31
0.0
  0
LINE
  5
ADC1C
330
AD0A6
100
AcDbEntity
  8
AM_5
 48
20.0
100
AcDbLine
 10
70.52773487906867
 20
95.36691544454129
 30
0.0
 11
80.15072900772839
 21
95.36691544454129
 31
0.0
  0
LINE
  5
ADC1D
330
AD0A6
100
AcDbEntity
  8
AM_5
 48
20.0
100
AcDbLine
 10
80.15072900772839
 20
87.36489412191707
 30
0.0
 11
80.15072900772839
 21
94.8669154445413
 31
0.0
  0
INSERT
  5
ADC1E
330
AD0A6
100
AcDbEntity
  8
AM_5
 48
20.0
100
AcDbBlockReference
  2
_Dot
 10
80.15072900772839
 20
86.86489412191708
 30
0.0
 41
0.5
 42
0.5
 43
0.5
 50
270.0
  0
INSERT
  5
ADC1F
330
AD0A6
100
AcDbEntity
  8
AM_5
 48
20.0
100
AcDbBlockReference
  2
_Dot
 10
80.15072900772839
 20
95.36691544454129
 30
0.0
 41
0.5
 42
0.5
 43
0.5
 50
90.0
  0
MTEXT
  5
ADC20
330
AD0A6
100
AcDbEntity
  8
AM_5
 62
     2
 48
20.0
100
AcDbMText
 10
78.52572900772837
 20
91.1159047832292
 30
0.0
 40
1.75
 41
0.0
 71
     5
 72
     1
  1
8.5
 11
0.0000000000000001
 21
1.0
 31
0.0
 73
     1
 44
1.0
1001
ACAD
1000
MTEXTBEGIN
1070
    73
1070
     1
1070
    44
1040
1.0
1070
    74
1070
     0
1000
MTEXTEND
  0
POINT
  5
ADC21
330
AD0A6
100
AcDbEntity
  8
Defpoints
 62
     0
 48
20.0
100
AcDbPoint
 10
70.02773487906868
 20
86.86489412191708
 30
0.0
  0
POINT
  5
ADC22
330
AD0A6
100
AcDbEntity
  8
Defpoints
 62
     0
 48
20.0
100
AcDbPoint
 10
70.02773487906868
 20
95.36691544454129
 30
0.0
  0
POINT
  5
ADC23
330
AD0A6
100
AcDbEntity
  8
Defpoints
 62
     0
 48
20.0
100
AcDbPoint
 10
80.15072900772839
 20
95.36691544454129
 30
0.0
  0
ENDBLK
  5
AD0A8
330
AD0A6
100
AcDbEntity
  8
0
100
AcDbBlockEnd
  0
BLOCK
  5
AD154
330
AD153
100
AcDbEntity
  8
0
100
AcDbBlockBegin
  2
*D17
 70
     1
 10
0.0
 20
0.0
 30
0.0
  3
*D17
  1

  0
LINE
  5
ADC24
330
AD153
100
AcDbEntity
  8
AM_5
 48
20.0
100
AcDbLine
 10
121.4124957463617
 20
41.49537102116769
 30
0.0
 11
108.2308024046688
 21
41.4953710211677
 31
0.0
  0
LINE
  5
ADC25
330
AD153
100
AcDbEntity
  8
AM_5
 48
20.0
100
AcDbLine
 10
117.6696233399135
 20
33.19737598269453
 30
0.0
 11
108.2308024046688
 21
33.19737598269453
 31
0.0
  0
LINE
  5
ADC26
330
AD153
100
AcDbEntity
  8
AM_5
 48
20.0
100
AcDbLine
 10
108.2308024046688
 20
40.9953710211677
 30
0.0
 11
108.2308024046688
 21
33.69737598269453
 31
0.0
  0
INSERT
  5
ADC27
330
AD153
100
AcDbEntity
  8
AM_5
 48
20.0
100
AcDbBlockReference
  2
_Dot
 10
108.2308024046688
 20
41.4953710211677
 30
0.0
 41
0.5
 42
0.5
 43
0.5
 50
90.0
  0
INSERT
  5
ADC28
330
AD153
100
AcDbEntity
  8
AM_5
 48
20.0
100
AcDbBlockReference
  2
_Dot
 10
108.2308024046688
 20
33.19737598269453
 30
0.0
 41
0.5
 42
0.5
 43
0.5
 50
270.0
  0
MTEXT
  5
ADC29
330
AD153
100
AcDbEntity
  8
AM_5
 62
     2
 48
20.0
100
AcDbMText
 10
106.6058024046687
 20
37.34637350193113
 30
0.0
 40
1.75
 41
0.0
 71
     5
 72
     1
  1
8.7
 11
0.0000000000000001
 21
1.0
 31
0.0
 73
     1
 44
1.0
1001
ACAD
1000
MTEXTBEGIN
1070
    73
1070
     1
1070
    44
1040
1.0
1070
    74
1070
     0
1000
MTEXTEND
  0
POINT
  5
ADC2A
330
AD153
100
AcDbEntity
  8
Defpoints
 62
     0
 48
20.0
100
AcDbPoint
 10
121.9124957463617
 20
41.49537102116769
 30
0.0
  0
POINT
  5
ADC2B
330
AD153
100
AcDbEntity
  8
Defpoints
 62
     0
 48
20.0
100
AcDbPoint
 10
118.1696233399135
 20
33.19737598269453
 30
0.0
  0
POINT
  5
ADC2C
330
AD153
100
AcDbEntity
  8
Defpoints
 62
     0
 48
20.0
100
AcDbPoint
 10
108.2308024046688
 20
33.19737598269453
 30
0.0
  0
ENDBLK
  5
AD155
330
AD153
100
AcDbEntity
  8
0
100
AcDbBlockEnd
  0
BLOCK
  5
AD160
330
AD15F
100
AcDbEntity
  8
0
100
AcDbBlockBegin
  2
*D18
 70
     1
 10
0.0
 20
0.0
 30
0.0
  3
*D18
  1

  0
LINE
  5
ADC2D
330
AD15F
100
AcDbEntity
  8
AM_5
 48
20.0
100
AcDbLine
 10
116.3161403255988
 20
41.86848745000022
 30
0.0
 11
116.3161403255988
 21
50.19843945351476
 31
0.0
  0
LINE
  5
ADC2E
330
AD15F
100
AcDbEntity
  8
AM_5
 48
20.0
100
AcDbLine
 10
127.5124957463603
 20
40.99737598268942
 30
0.0
 11
127.5124957463603
 21
50.19843945351476
 31
0.0
  0
LINE
  5
ADC2F
330
AD15F
100
AcDbEntity
  8
AM_5
 48
20.0
100
AcDbLine
 10
116.8161403255988
 20
50.19843945351476
 30
0.0
 11
127.0124957463603
 21
50.19843945351476
 31
0.0
  0
INSERT
  5
ADC30
330
AD15F
100
AcDbEntity
  8
AM_5
 48
20.0
100
AcDbBlockReference
  2
_Dot
 10
116.3161403255988
 20
50.19843945351476
 30
0.0
 41
0.5
 42
0.5
 43
0.5
 50
180.0
  0
INSERT
  5
ADC31
330
AD15F
100
AcDbEntity
  8
AM_5
 48
20.0
100
AcDbBlockReference
  2
_Dot
 10
127.5124957463603
 20
50.19843945351476
 30
0.0
 41
0.5
 42
0.5
 43
0.5
  0
MTEXT
  5
ADC32
330
AD15F
100
AcDbEntity
  8
AM_5
 62
     2
 48
20.0
100
AcDbMText
 10
121.9143180359796
 20
51.82343945351476
 30
0.0
 40
1.75
 41
0.0
 71
     5
 72
     1
  1
11
 73
     1
 44
1.0
1001
ACAD
1000
MTEXTBEGIN
1070
    73
1070
     1
1070
    44
1040
1.0
1070
    74
1070
     0
1000
MTEXTEND
  0
POINT
  5
ADC33
330
AD15F
100
AcDbEntity
  8
Defpoints
 62
     0
 48
20.0
100
AcDbPoint
 10
116.3161403255988
 20
41.36848745000023
 30
0.0
  0
POINT
  5
ADC34
330
AD15F
100
AcDbEntity
  8
Defpoints
 62
     0
 48
20.0
100
AcDbPoint
 10
127.5124957463603
 20
40.49737598268942
 30
0.0
  0
POINT
  5
ADC35
330
AD15F
100
AcDbEntity
  8
Defpoints
 62
     0
 48
20.0
100
AcDbPoint
 10
127.5124957463603
 20
50.19843945351476
 30
0.0
  0
ENDBLK
  5
AD161
330
AD15F
100
AcDbEntity
  8
0
100
AcDbBlockEnd
  0
BLOCK
  5
AD4BD
330
AD4BC
100
AcDbEntity
  8
0
100
AcDbBlockBegin
  2
*D19
 70
     1
 10
0.0
 20
0.0
 30
0.0
  3
*D19
  1

  0
LINE
  5
ADBAF
330
AD4BC
100
AcDbEntity
  8
AM_5
 48
20.0
100
AcDbLine
 10
69.57664928241618
 20
34.61751676603964
 30
0.0
 11
69.57664928241618
 21
28.33555414507373
 31
0.0
  0
LINE
  5
ADBB0
330
AD4BC
100
AcDbEntity
  8
AM_5
 48
20.0
100
AcDbLine
 10
74.17664928241473
 20
34.61751676603964
 30
0.0
 11
74.17664928241473
 21
28.33555414507373
 31
0.0
  0
LINE
  5
ADBB1
330
AD4BC
100
AcDbEntity
  8
AM_5
 48
20.0
100
AcDbLine
 10
70.07664928241618
 20
28.33555414507373
 30
0.0
 11
73.67664928241473
 21
28.33555414507373
 31
0.0
  0
INSERT
  5
ADBB2
330
AD4BC
100
AcDbEntity
  8
AM_5
 48
20.0
100
AcDbBlockReference
  2
_Dot
 10
69.57664928241618
 20
28.33555414507373
 30
0.0
 41
0.5
 42
0.5
 43
0.5
 50
180.0
  0
INSERT
  5
ADBB3
330
AD4BC
100
AcDbEntity
  8
AM_5
 48
20.0
100
AcDbBlockReference
  2
_Dot
 10
74.17664928241473
 20
28.33555414507373
 30
0.0
 41
0.5
 42
0.5
 43
0.5
  0
MTEXT
  5
ADBB4
330
AD4BC
100
AcDbEntity
  8
AM_5
 62
     2
 48
20.0
100
AcDbMText
 10
71.87664928241545
 20
29.96055414507373
 30
0.0
 40
1.75
 41
0.0
 71
     5
 72
     1
  1
4.6
 73
     1
 44
1.0
1001
ACAD
1000
MTEXTBEGIN
1070
    73
1070
     1
1070
    44
1040
1.0
1070
    74
1070
     0
1000
MTEXTEND
  0
POINT
  5
ADBB5
330
AD4BC
100
AcDbEntity
  8
Defpoints
 62
     0
 48
20.0
100
AcDbPoint
 10
69.57664928241618
 20
35.11751676603964
 30
0.0
  0
POINT
  5
ADBB6
330
AD4BC
100
AcDbEntity
  8
Defpoints
 62
     0
 48
20.0
100
AcDbPoint
 10
74.17664928241473
 20
35.11751676603964
 30
0.0
  0
POINT
  5
ADBB7
330
AD4BC
100
AcDbEntity
  8
Defpoints
 62
     0
 48
20.0
100
AcDbPoint
 10
74.17664928241473
 20
28.33555414507373
 30
0.0
  0
ENDBLK
  5
AD4BE
330
AD4BC
100
AcDbEntity
  8
0
100
AcDbBlockEnd
  0
BLOCK
  5
AD4C9
330
AD4C8
100
AcDbEntity
  8
0
100
AcDbBlockBegin
  2
*D20
 70
     1
 10
0.0
 20
0.0
 30
0.0
  3
*D20
  1

  0
LINE
  5
ADBB8
330
AD4C8
100
AcDbEntity
  8
AM_5
 48
20.0
100
AcDbLine
 10
67.08362244067146
 20
42.30003463872935
 30
0.0
 11
67.08362244067146
 21
52.37105556656252
 31
0.0
  0
LINE
  5
ADBB9
330
AD4C8
100
AcDbEntity
  8
AM_5
 48
20.0
100
AcDbLine
 10
76.66967612416673
 20
42.30003463872935
 30
0.0
 11
76.66967612416673
 21
52.37105556656252
 31
0.0
  0
LINE
  5
ADBBA
330
AD4C8
100
AcDbEntity
  8
AM_5
 48
20.0
100
AcDbLine
 10
67.58362244067146
 20
52.37105556656252
 30
0.0
 11
76.16967612416672
 21
52.37105556656252
 31
0.0
  0
INSERT
  5
ADBBB
330
AD4C8
100
AcDbEntity
  8
AM_5
 48
20.0
100
AcDbBlockReference
  2
_Dot
 10
67.08362244067146
 20
52.37105556656252
 30
0.0
 41
0.5
 42
0.5
 43
0.5
 50
180.0
  0
INSERT
  5
ADBBC
330
AD4C8
100
AcDbEntity
  8
AM_5
 48
20.0
100
AcDbBlockReference
  2
_Dot
 10
76.66967612416673
 20
52.37105556656252
 30
0.0
 41
0.5
 42
0.5
 43
0.5
  0
MTEXT
  5
ADBBD
330
AD4C8
100
AcDbEntity
  8
AM_5
 62
     2
 48
20.0
100
AcDbMText
 10
71.87664928241909
 20
53.99605556656251
 30
0.0
 40
1.75
 41
0.0
 71
     5
 72
     1
  1
9.6
 73
     1
 44
1.0
1001
ACAD
1000
MTEXTBEGIN
1070
    73
1070
     1
1070
    44
1040
1.0
1070
    74
1070
     0
1000
MTEXTEND
  0
POINT
  5
ADBBE
330
AD4C8
100
AcDbEntity
  8
Defpoints
 62
     0
 48
20.0
100
AcDbPoint
 10
67.08362244067146
 20
41.80003463872935
 30
0.0
  0
POINT
  5
ADBBF
330
AD4C8
100
AcDbEntity
  8
Defpoints
 62
     0
 48
20.0
100
AcDbPoint
 10
76.66967612416673
 20
41.80003463872935
 30
0.0
  0
POINT
  5
ADBC0
330
AD4C8
100
AcDbEntity
  8
Defpoints
 62
     0
 48
20.0
100
AcDbPoint
 10
76.66967612416673
 20
52.37105556656252
 30
0.0
  0
ENDBLK
  5
AD4CA
330
AD4C8
100
AcDbEntity
  8
0
100
AcDbBlockEnd
  0
BLOCK
  5
AD4D5
330
AD4D4
100
AcDbEntity
  8
0
100
AcDbBlockBegin
  2
*D21
 70
     1
 10
0.0
 20
0.0
 30
0.0
  3
*D21
  1

  0
LINE
  5
ADBC1
330
AD4D4
100
AcDbEntity
  8
AM_5
 48
20.0
100
AcDbLine
 10
71.3766492824191
 20
47.15166563749446
 30
0.0
 11
60.97282725488458
 21
47.15166563749446
 31
0.0
  0
LINE
  5
ADBC2
330
AD4D4
100
AcDbEntity
  8
AM_5
 48
20.0
100
AcDbLine
 10
68.47664928241764
 20
33.95368696011357
 30
0.0
 11
60.97282725488458
 21
33.95368696011357
 31
0.0
  0
LINE
  5
ADBC3
330
AD4D4
100
AcDbEntity
  8
AM_5
 48
20.0
100
AcDbLine
 10
60.97282725488458
 20
46.65166563749446
 30
0.0
 11
60.97282725488458
 21
34.45368696011357
 31
0.0
  0
INSERT
  5
ADBC4
330
AD4D4
100
AcDbEntity
  8
AM_5
 48
20.0
100
AcDbBlockReference
  2
_Dot
 10
60.97282725488458
 20
47.15166563749446
 30
0.0
 41
0.5
 42
0.5
 43
0.5
 50
90.0
  0
INSERT
  5
ADBC5
330
AD4D4
100
AcDbEntity
  8
AM_5
 48
20.0
100
AcDbBlockReference
  2
_Dot
 10
60.97282725488458
 20
33.95368696011357
 30
0.0
 41
0.5
 42
0.5
 43
0.5
 50
270.0
  0
MTEXT
  5
ADBC6
330
AD4D4
100
AcDbEntity
  8
AM_5
 62
     2
 48
20.0
100
AcDbMText
 10
59.34782725488457
 20
40.55267629880402
 30
0.0
 40
1.75
 41
0.0
 71
     5
 72
     1
  1
13.2
 11
0.0000000000000001
 21
1.0
 31
0.0
 73
     1
 44
1.0
1001
ACAD
1000
MTEXTBEGIN
1070
    73
1070
     1
1070
    44
1040
1.0
1070
    74
1070
     0
1000
MTEXTEND
  0
POINT
  5
ADBC7
330
AD4D4
100
AcDbEntity
  8
Defpoints
 62
     0
 48
20.0
100
AcDbPoint
 10
71.87664928241909
 20
47.15166563749446
 30
0.0
  0
POINT
  5
ADBC8
330
AD4D4
100
AcDbEntity
  8
Defpoints
 62
     0
 48
20.0
100
AcDbPoint
 10
68.97664928241764
 20
33.95368696011357
 30
0.0
  0
POINT
  5
ADBC9
330
AD4D4
100
AcDbEntity
  8
Defpoints
 62
     0
 48
20.0
100
AcDbPoint
 10
60.97282725488458
 20
33.95368696011357
 30
0.0
  0
ENDBLK
  5
AD4D6
330
AD4D4
100
AcDbEntity
  8
0
100
AcDbBlockEnd
  0
ENDSEC
  0
SECTION
  2
ENTITIES
  0
MTEXT
  5
7AC05
330
1F
100
AcDbEntity
  8
AM_6
100
AcDbMText
 10
-1051.000000000001
 20
-5888.0
 30
0.0
 40
6.4
 41
180.0
 71
     4
 72
     5
  1
　
 73
     1
 44
1.0
1001
ACAD
1000
MTEXTBEGIN
1070
    73
1070
     1
1070
    44
1040
1.0
1070
    74
1070
     0
1000
MTEXTEND
  0
MTEXT
  5
7AC06
330
1F
100
AcDbEntity
  8
AM_6
100
AcDbMText
 10
-1051.000000000001
 20
-5920.0
 30
0.0
 40
6.4
 41
180.0
 71
     4
 72
     5
  1
　
 73
     1
 44
1.0
1001
ACAD
1000
MTEXTBEGIN
1070
    73
1070
     1
1070
    44
1040
1.0
1070
    74
1070
     0
1000
MTEXTEND
  0
LWPOLYLINE
  5
AB55C
330
1F
100
AcDbEntity
  8
waku
100
AcDbPolyline
 90
        4
 70
     1
 43
0.0
 10
11.5
 20
140.0000000000073
 10
198.500000000009
 20
140.0000000000145
 10
198.500000000009
 20
8.500000000007275
 10
11.5
 20
8.5
1001
GENIUS_GENREC_14
1002
{
1000
PYDIR
1011
11.5
1021
8.5
1031
0.0
1002
}
1002
{
1000
PXDIR
1011
198.500000000009
1021
140.0000000000145
1031
0.0
1002
}
1002
{
1000
PORI
1011
11.5
1021
140.0000000000073
1031
0.0
1002
}
1002
{
1000
PINS
1011
11.5
1021
140.0000000000073
1031
0.0
1002
}
1002
{
1000
PINS2
1011
198.500000000009
1021
8.500000000007275
1031
0.0
1002
}
1002
{
1000
C
1070
     1
1002
}
1001
GENIUS_GENOBJ-N-REC_13
1002
{
1000
OWNER
1000
GEN
1002
}
1001
GENIUS_GENODEF_13
1002
{
1000
HIER
1070
     0
1002
}
1002
{
1000
MANEDIT
1070
     0
1002
}
1002
{
1000
NOSEL
1070
     0
1002
}
1002
{
1000
BEHIND
1070
     0
1002
}
1002
{
1000
OTHER
1070
     0
1002
}
1002
{
1000
REACTOR
1002
}
  0
LWPOLYLINE
  5
AB55D
330
1F
100
AcDbEntity
  8
size
100
AcDbPolyline
 90
        4
 70
     1
 43
0.0
 10
0.0
 20
148.5000000000072
 10
210.0000000000084
 20
148.5000000000145
 10
210.0000000000084
 20
0.000000000007276
 10
0.0
 20
0.0
1001
GENIUS_GENREC_14
1002
{
1000
PYDIR
1011
0.0
1021
0.0
1031
0.0
1002
}
1002
{
1000
PXDIR
1011
210.0000000000084
1021
148.5000000000145
1031
0.0
1002
}
1002
{
1000
PORI
1011
0.0
1021
148.5000000000072
1031
0.0
1002
}
1002
{
1000
PINS
1011
0.0
1021
148.5000000000072
1031
0.0
1002
}
1002
{
1000
PINS2
1011
210.0000000000084
1021
0.000000000007276
1031
0.0
1002
}
1002
{
1000
C
1070
     1
1002
}
1001
GENIUS_GENODEF_13
1002
{
1000
HIER
1070
     0
1002
}
1002
{
1000
MANEDIT
1070
     0
1002
}
1002
{
1000
NOSEL
1070
     0
1002
}
1002
{
1000
BEHIND
1070
     0
1002
}
1002
{
1000
OTHER
1070
     0
1002
}
1002
{
1000
REACTOR
1002
}
1001
GENIUS_GENOBJ-N-REC_13
1002
{
1000
OWNER
1000
GEN
1002
}
  0
TEXT
  5
AB55E
330
1F
100
AcDbEntity
  8
AM_11
100
AcDbText
 10
190.5651983542089
 20
-9.406390626873303
 30
0.0
 40
4.0
  1
A-3
 41
0.73811
 72
     1
 11
194.9235621637327
 21
-9.406390626873303
 31
0.0
100
AcDbText
  0
LINE
  5
AB55F
330
1F
100
AcDbEntity
  8
0
100
AcDbLine
 10
237.9264153009574
 20
82.67137835449819
 30
0.0
 11
257.5743649086669
 21
82.67137835449819
 31
0.0
  0
LINE
  5
AB560
330
1F
100
AcDbEntity
  8
AM_0
100
AcDbLine
 10
237.9264153009574
 20
78.16574366485724
 30
0.0
 11
257.5743649086669
 21
78.16574366485724
 31
0.0
  0
LINE
  5
AB561
330
1F
100
AcDbEntity
  8
AM_1
100
AcDbLine
 10
237.9264153009574
 20
72.7798186837648
 30
0.0
 11
257.5743649086669
 21
72.7798186837648
 31
0.0
  0
LINE
  5
AB562
330
1F
100
AcDbEntity
  8
AM_11
100
AcDbLine
 10
237.9264153009574
 20
62.24524016888245
 30
0.0
 11
257.5743649086669
 21
62.24524016888245
 31
0.0
  0
LINE
  5
AB563
330
1F
100
AcDbEntity
  8
AM_2
100
AcDbLine
 10
237.9264153009574
 20
57.31804585412032
 30
0.0
 11
257.5743649086669
 21
57.31804585412032
 31
0.0
  0
LINE
  5
AB564
330
1F
100
AcDbEntity
  8
AM_3
100
AcDbLine
 10
237.9264153009574
 20
52.71935831539554
 30
0.0
 11
257.5743649086669
 21
52.71935831539554
 31
0.0
  0
LINE
  5
AB565
330
1F
100
AcDbEntity
  8
AM_5
100
AcDbLine
 10
237.9264153009574
 20
47.5068415689517
 30
0.0
 11
257.5743649086669
 21
47.5068415689517
 31
0.0
  0
LINE
  5
AB566
330
1F
100
AcDbEntity
  8
AM_6
100
AcDbLine
 10
237.9264153009574
 20
42.81911396199359
 30
0.0
 11
257.5743649086669
 21
42.81911396199359
 31
0.0
  0
LINE
  5
AB567
330
1F
100
AcDbEntity
  8
AM_7
100
AcDbLine
 10
237.9264153009574
 20
38.61326861490681
 30
0.0
 11
257.5743649086669
 21
38.61326861490681
 31
0.0
  0
LINE
  5
AB568
330
1F
100
AcDbEntity
  8
AM_8
100
AcDbLine
 10
237.9264153009574
 20
33.74167958116027
 30
0.0
 11
257.5743649086669
 21
33.74167958116027
 31
0.0
  0
LINE
  5
AB569
330
1F
100
AcDbEntity
  8
Defpoints
100
AcDbLine
 10
237.9264153009574
 20
25.43846014925771
 30
0.0
 11
257.5743649086669
 21
25.43846014925771
 31
0.0
  0
LINE
  5
AB56A
330
1F
100
AcDbEntity
  8
hyomoji
100
AcDbLine
 10
237.9264153009574
 20
20.60872424197191
 30
0.0
 11
257.5743649086669
 21
20.60872424197191
 31
0.0
  0
LINE
  5
AB56B
330
1F
100
AcDbEntity
  8
hyosen1
100
AcDbLine
 10
237.9264153009574
 20
15.90165388018101
 30
0.0
 11
257.5743649086669
 21
15.90165388018101
 31
0.0
  0
LINE
  5
AB56C
330
1F
100
AcDbEntity
  8
hyosen2
100
AcDbLine
 10
237.9264153009574
 20
11.93729351237857
 30
0.0
 11
257.5743649086669
 21
11.93729351237857
 31
0.0
  0
LINE
  5
AB56D
330
1F
100
AcDbEntity
  8
JISSEN
100
AcDbLine
 10
237.9264153009574
 20
7.475559877094497
 30
0.0
 11
257.5743649086669
 21
7.475559877094497
 31
0.0
  0
LINE
  5
AB56E
330
1F
100
AcDbEntity
  8
size
100
AcDbLine
 10
237.9264153009574
 20
3.504494839463859
 30
0.0
 11
257.5743649086669
 21
3.504494839463859
 31
0.0
  0
LINE
  5
AB56F
330
1F
100
AcDbEntity
  8
waku
100
AcDbLine
 10
237.9264153009574
 20
-0.4558099507473799
 30
0.0
 11
257.5743649086669
 21
-0.4558099507473799
 31
0.0
  0
LINE
  5
AB570
330
1F
100
AcDbEntity
  8
AM_CL
100
AcDbLine
 10
237.9264153009574
 20
29.91871072023798
 30
0.0
 11
257.5743649086669
 21
29.91871072023798
 31
0.0
  0
LINE
  5
AB571
330
1F
100
AcDbEntity
  8
AM_10
100
AcDbLine
 10
237.9264153009574
 20
67.37579303063501
 30
0.0
 11
257.5743649086669
 21
67.37579303063501
 31
0.0
  0
MTEXT
  5
AB573
330
1F
100
AcDbEntity
  8
AM_6
 62
     2
100
AcDbMText
 10
260.101259957999
 20
81.68351939175044
 30
0.0
 40
2.5
 41
0.0
 71
     7
 72
     1
  1
0 : 0画層
 73
     1
 44
1.0
1001
ACAD
1000
MTEXTBEGIN
1070
    73
1070
     1
1070
    44
1040
1.0
1070
    74
1070
     0
1000
MTEXTEND
  0
MTEXT
  5
AB574
330
1F
100
AcDbEntity
  8
AM_6
 62
     2
100
AcDbMText
 10
260.101259957999
 20
76.90827766056464
 30
0.0
 40
2.5
 41
0.0
 71
     7
 72
     1
  1
AM_0 : 中線　（実線）
 73
     1
 44
1.0
1001
ACAD
1000
MTEXTBEGIN
1070
    73
1070
     1
1070
    44
1040
1.0
1070
    74
1070
     0
1000
MTEXTEND
  0
MTEXT
  5
AB575
330
1F
100
AcDbEntity
  8
AM_6
 62
     2
100
AcDbMText
 10
260.101259957999
 20
71.83177217301272
 30
0.0
 40
2.5
 41
0.0
 71
     7
 72
     1
  1
AM_1 : 太線
 73
     1
 44
1.0
1001
ACAD
1000
MTEXTBEGIN
1070
    73
1070
     1
1070
    44
1040
1.0
1070
    74
1070
     0
1000
MTEXTEND
  0
MTEXT
  5
AB576
330
1F
100
AcDbEntity
  8
AM_6
 62
     2
100
AcDbMText
 10
260.101259957999
 20
66.41667316468375
 30
0.0
 40
2.5
 41
0.0
 71
     7
 72
     1
  1
AM_10 : 遮断線
 73
     1
 44
1.0
1001
ACAD
1000
MTEXTBEGIN
1070
    73
1070
     1
1070
    44
1040
1.0
1070
    74
1070
     0
1000
MTEXTEND
  0
MTEXT
  5
AB577
330
1F
100
AcDbEntity
  8
AM_6
 62
     2
100
AcDbMText
 10
260.101259957999
 20
61.36745431187808
 30
0.0
 40
2.5
 41
0.0
 71
     7
 72
     1
  1
AM_11 : 想像線1
 73
     1
 44
1.0
1001
ACAD
1000
MTEXTBEGIN
1070
    73
1070
     1
1070
    44
1040
1.0
1070
    74
1070
     0
1000
MTEXTEND
  0
MTEXT
  5
AB578
330
1F
100
AcDbEntity
  8
AM_6
 62
     2
100
AcDbMText
 10
260.101259957999
 20
56.31823545907252
 30
0.0
 40
2.5
 41
0.0
 71
     7
 72
     1
  1
AM_2 : 細線
 73
     1
 44
1.0
1001
ACAD
1000
MTEXTBEGIN
1070
    73
1070
     1
1070
    44
1040
1.0
1070
    74
1070
     0
1000
MTEXTEND
  0
MTEXT
  5
AB579
330
1F
100
AcDbEntity
  8
AM_6
 62
     2
100
AcDbMText
 10
260.101259957999
 20
51.26901660626685
 30
0.0
 40
2.5
 41
0.0
 71
     7
 72
     1
  1
AM_3 : 陰線1
 73
     1
 44
1.0
1001
ACAD
1000
MTEXTBEGIN
1070
    73
1070
     1
1070
    44
1040
1.0
1070
    74
1070
     0
1000
MTEXTEND
  0
MTEXT
  5
AB57A
330
1F
100
AcDbEntity
  8
AM_6
 62
     2
100
AcDbMText
 10
260.101259957999
 20
46.0641205977746
 30
0.0
 40
2.5
 41
0.0
 71
     7
 72
     1
  1
AM_5 : 寸法線
 73
     1
 44
1.0
1001
ACAD
1000
MTEXTBEGIN
1070
    73
1070
     1
1070
    44
1040
1.0
1070
    74
1070
     0
1000
MTEXTEND
  0
MTEXT
  5
AB57B
330
1F
100
AcDbEntity
  8
AM_6
 62
     2
100
AcDbMText
 10
260.101259957999
 20
41.40392221954743
 30
0.0
 40
2.5
 41
0.0
 71
     7
 72
     1
  1
AM_6 : 文字
 73
     1
 44
1.0
1001
ACAD
1000
MTEXTBEGIN
1070
    73
1070
     1
1070
    44
1040
1.0
1070
    74
1070
     0
1000
MTEXTEND
  0
MTEXT
  5
AB57C
330
1F
100
AcDbEntity
  8
AM_6
 62
     2
100
AcDbMText
 10
260.101259957999
 20
37.28842303189868
 30
0.0
 40
2.5
 41
0.0
 71
     7
 72
     1
  1
AM_7 : 中心線
 73
     1
 44
1.0
1001
ACAD
1000
MTEXTBEGIN
1070
    73
1070
     1
1070
    44
1040
1.0
1070
    74
1070
     0
1000
MTEXTEND
  0
MTEXT
  5
AB57D
330
1F
100
AcDbEntity
  8
AM_6
 62
     2
100
AcDbMText
 10
260.101259957999
 20
32.79738525819562
 30
0.0
 40
2.5
 41
0.0
 71
     7
 72
     1
  1
AM_8 : ハッチング
 73
     1
 44
1.0
1001
ACAD
1000
MTEXTBEGIN
1070
    73
1070
     1
1070
    44
1040
1.0
1070
    74
1070
     0
1000
MTEXTEND
  0
MTEXT
  5
AB57E
330
1F
100
AcDbEntity
  8
AM_6
 62
     2
100
AcDbMText
 10
260.101259957999
 20
28.44268533489469
 30
0.0
 40
2.5
 41
0.0
 71
     7
 72
     1
  1
AM_CL : Amconstr
 73
     1
 44
1.0
1001
ACAD
1000
MTEXTBEGIN
1070
    73
1070
     1
1070
    44
1040
1.0
1070
    74
1070
     0
1000
MTEXTEND
  0
MTEXT
  5
AB57F
330
1F
100
AcDbEntity
  8
AM_6
 62
     2
100
AcDbMText
 10
260.101259957999
 20
24.0266518296196
 30
0.0
 40
2.5
 41
0.0
 71
     7
 72
     1
  1
DEFPOINTS
 73
     1
 44
1.0
1001
ACAD
1000
MTEXTBEGIN
1070
    73
1070
     1
1070
    44
1040
1.0
1070
    74
1070
     0
1000
MTEXTEND
  0
MTEXT
  5
AB580
330
1F
100
AcDbEntity
  8
AM_6
 62
     2
100
AcDbMText
 10
260.101259957999
 20
18.75194505607908
 30
0.0
 40
2.5
 41
0.0
 71
     7
 72
     1
  1
hyomoji
 73
     1
 44
1.0
1001
ACAD
1000
MTEXTBEGIN
1070
    73
1070
     1
1070
    44
1040
1.0
1070
    74
1070
     0
1000
MTEXTEND
  0
MTEXT
  5
AB581
330
1F
100
AcDbEntity
  8
AM_6
 62
     2
100
AcDbMText
 10
260.101259957999
 20
14.27457796882982
 30
0.0
 40
2.5
 41
0.0
 71
     7
 72
     1
  1
hyosen1
 73
     1
 44
1.0
1001
ACAD
1000
MTEXTBEGIN
1070
    73
1070
     1
1070
    44
1040
1.0
1070
    74
1070
     0
1000
MTEXTEND
  0
MTEXT
  5
AB582
330
1F
100
AcDbEntity
  8
AM_6
 62
     2
100
AcDbMText
 10
260.101259957999
 20
10.04254520947711
 30
0.0
 40
2.5
 41
0.0
 71
     7
 72
     1
  1
hyosen2
 73
     1
 44
1.0
1001
ACAD
1000
MTEXTBEGIN
1070
    73
1070
     1
1070
    44
1040
1.0
1070
    74
1070
     0
1000
MTEXTEND
  0
MTEXT
  5
AB583
330
1F
100
AcDbEntity
  8
AM_6
 62
     2
100
AcDbMText
 10
260.101259957999
 20
6.178515502282948
 30
0.0
 40
2.5
 41
0.0
 71
     7
 72
     1
  1
JISSEN
 73
     1
 44
1.0
1001
ACAD
1000
MTEXTBEGIN
1070
    73
1070
     1
1070
    44
1040
1.0
1070
    74
1070
     0
1000
MTEXTEND
  0
MTEXT
  5
AB584
330
1F
100
AcDbEntity
  8
AM_6
 62
     2
100
AcDbMText
 10
260.101259957999
 20
2.498487321168113
 30
0.0
 40
2.5
 41
0.0
 71
     7
 72
     1
  1
size
 73
     1
 44
1.0
1001
ACAD
1000
MTEXTBEGIN
1070
    73
1070
     1
1070
    44
1040
1.0
1070
    74
1070
     0
1000
MTEXTEND
  0
MTEXT
  5
AB585
330
1F
100
AcDbEntity
  8
AM_6
 62
     2
100
AcDbMText
 10
260.101259957999
 20
-2.653552288424066
 30
0.0
 40
2.5
 41
0.0
 71
     7
 72
     1
  1
WAKU
 73
     1
 44
1.0
1001
ACAD
1000
MTEXTBEGIN
1070
    73
1070
     1
1070
    44
1040
1.0
1070
    74
1070
     0
1000
MTEXTEND
  0
LINE
  5
AC8BC
330
1F
100
AcDbEntity
  8
AM_0
100
AcDbLine
 10
11.5
 20
140.0000000000073
 30
0.0
 11
11.50000000000227
 21
108.0000000000072
 31
0.0
  0
LINE
  5
AC8BD
330
1F
100
AcDbEntity
  8
AM_0
100
AcDbLine
 10
11.5
 20
140.0000000000073
 30
0.0
 11
51.5
 21
140.0000000000073
 31
0.0
  0
LINE
  5
AC8BE
330
1F
100
AcDbEntity
  8
AM_0
100
AcDbLine
 10
51.5
 20
140.0000000000073
 30
0.0
 11
51.49999999999955
 21
108.0000000000072
 31
0.0
  0
LINE
  5
AC8BF
330
1F
100
AcDbEntity
  8
AM_0
100
AcDbLine
 10
21.49999999999932
 20
108.0000000000072
 30
0.0
 11
21.5
 21
140.0000000000073
 31
0.0
  0
LINE
  5
AC8C0
330
1F
100
AcDbEntity
  8
AM_5
100
AcDbLine
 10
11.5
 20
136.0000000000072
 30
0.0
 11
51.5
 21
136.0000000000072
 31
0.0
  0
LINE
  5
AC8C1
330
1F
100
AcDbEntity
  8
AM_5
100
AcDbLine
 10
11.5
 20
132.0000000000073
 30
0.0
 11
51.5
 21
132.0000000000073
 31
0.0
  0
MTEXT
  5
AC8C2
330
1F
100
AcDbEntity
  8
AM_6
100
AcDbMText
 10
16.5
 20
138.0000000000072
 30
0.0
 40
1.6
 41
10.0
 71
     5
 72
     5
  1
品　名
 73
     1
 44
1.0
1001
ACAD
1000
MTEXTBEGIN
1070
    73
1070
     1
1070
    44
1040
1.0
1070
    74
1070
     0
1000
MTEXTEND
  0
MTEXT
  5
AC8C3
330
1F
100
AcDbEntity
  8
AM_6
100
AcDbMText
 10
21.5
 20
138.0000000000072
 30
0.0
 40
1.6
 41
35.0
 71
     4
 72
     5
  1
　シリコーンパッキン
 73
     1
 44
1.0
1001
ACAD
1000
MTEXTBEGIN
1070
    73
1070
     1
1070
    44
1040
1.0
1070
    74
1070
     0
1000
MTEXTEND
  0
MTEXT
  5
AC8C4
330
1F
100
AcDbEntity
  8
AM_6
100
AcDbMText
 10
16.5
 20
134.0000000000072
 30
0.0
 40
1.6
 41
10.0
 71
     5
 72
     5
  1
品　番
 73
     1
 44
1.0
1001
ACAD
1000
MTEXTBEGIN
1070
    73
1070
     1
1070
    44
1040
1.0
1070
    74
1070
     0
1000
MTEXTEND
  0
MTEXT
  5
AC8C5
330
1F
100
AcDbEntity
  8
AM_6
100
AcDbMText
 10
21.5
 20
134.0000000000072
 30
0.0
 40
1.6
 41
35.0
 71
     4
 72
     5
  1
　EBHR
 73
     1
 44
1.0
1001
ACAD
1000
MTEXTBEGIN
1070
    73
1070
     1
1070
    44
1040
1.0
1070
    74
1070
     0
1000
MTEXTEND
  0
MTEXT
  5
AC8C6
330
1F
100
AcDbEntity
  8
AM_6
100
AcDbMText
 10
16.5
 20
130.0000000000073
 30
0.0
 40
1.6
 41
10.0
 71
     5
 72
     5
  1
材　質
 73
     1
 44
1.0
1001
ACAD
1000
MTEXTBEGIN
1070
    73
1070
     1
1070
    44
1040
1.0
1070
    74
1070
     0
1000
MTEXTEND
  0
MTEXT
  5
AC8C7
330
1F
100
AcDbEntity
  8
AM_6
100
AcDbMText
 10
21.5
 20
130.0000000000073
 30
0.0
 40
1.6
 41
35.0
 71
     4
 72
     5
  1
　シリコーンゴム＋金属複合構造パッキン
 73
     1
 44
1.0
1001
ACAD
1000
MTEXTBEGIN
1070
    73
1070
     1
1070
    44
1040
1.0
1070
    74
1070
     0
1000
MTEXTEND
  0
LINE
  5
AC8C8
330
1F
100
AcDbEntity
  8
AM_5
100
AcDbLine
 10
11.50000000000023
 20
128.0000000000073
 30
0.0
 11
51.5
 21
128.0000000000073
 31
0.0
  0
LINE
  5
AC8C9
330
1F
100
AcDbEntity
  8
AM_0
100
AcDbLine
 10
11.50000000000182
 20
108.0000000000072
 30
0.0
 11
51.50000000000045
 21
108.0000000000072
 31
0.0
  0
LINE
  5
ACD8E
330
1F
100
AcDbEntity
  8
AM_0
 48
20.0
100
AcDbLine
 10
165.3358371514509
 20
73.6245154177484
 30
0.0
 11
165.3358371514509
 21
79.27241186055084
 31
0.0
  0
ARC
  5
ACD8F
330
1F
100
AcDbEntity
  8
AM_0
 48
20.0
100
AcDbCircle
 10
170.8358371514509
 20
79.27241186055084
 30
0.0
 40
5.5
100
AcDbArc
 50
122.7170790312988
 51
180.0
  0
ARC
  5
ACD90
330
1F
100
AcDbEntity
  8
AM_0
 48
20.0
100
AcDbCircle
 10
170.1288639931986
 20
80.37291400957816
 30
0.0
 40
4.191980112341659
100
AcDbArc
 50
108.6444475093353
 51
122.7170790312988
  0
ARC
  5
ACD91
330
1F
100
AcDbEntity
  8
AM_0
 48
20.0
100
AcDbCircle
 10
168.6288639931986
 20
84.81866224520832
 30
0.0
 40
0.5
100
AcDbArc
 50
288.6444475093353
 51
0.0
  0
ARC
  5
ACD92
330
1F
100
AcDbEntity
  8
AM_0
 48
20.0
100
AcDbCircle
 10
168.6288639931986
 20
85.07541282241778
 30
0.0
 40
0.5
100
AcDbArc
 50
0.0
 51
74.17337986814771
  0
ARC
  5
ACD93
330
1F
100
AcDbEntity
  8
AM_0
 48
20.0
100
AcDbCircle
 10
170.1288639931986
 20
90.36691544454129
 30
0.0
 40
5.000000000000002
100
AcDbArc
 50
285.8266201318523
 51
254.1733798681478
  0
ARC
  5
ACD94
330
1F
100
AcDbEntity
  8
AM_0
 48
20.0
100
AcDbCircle
 10
171.6288639931986
 20
85.07541282241778
 30
0.0
 40
0.5
100
AcDbArc
 50
105.8266201318523
 51
180.0
  0
ARC
  5
ACD95
330
1F
100
AcDbEntity
  8
AM_0
 48
20.0
100
AcDbCircle
 10
171.6288639931986
 20
84.81866224520832
 30
0.0
 40
0.5
100
AcDbArc
 50
180.0
 51
251.3555524906645
  0
ARC
  5
ACD96
330
1F
100
AcDbEntity
  8
AM_0
 48
20.0
100
AcDbCircle
 10
170.1288639931986
 20
80.37291400957816
 30
0.0
 40
4.191980112341653
100
AcDbArc
 50
57.2829209687012
 51
71.35555249066472
  0
LINE
  5
ACD97
330
1F
100
AcDbEntity
  8
AM_0
 48
20.0
100
AcDbLine
 10
174.9218908349462
 20
73.6245154177484
 30
0.0
 11
174.9218908349462
 21
79.27241186055084
 31
0.0
  0
ARC
  5
ACD98
330
1F
100
AcDbEntity
  8
AM_0
 48
20.0
100
AcDbCircle
 10
169.4218908349462
 20
79.27241186055084
 30
0.0
 40
5.5
100
AcDbArc
 50
0.0
 51
57.2829209687012
  0
ARC
  5
ACD99
330
1F
100
AcDbEntity
  8
AM_0
 48
20.0
100
AcDbCircle
 10
172.8288639931957
 20
73.45352231927586
 30
0.0
 40
2.1
100
AcDbArc
 50
277.662255660635
 51
4.670495861549749
  0
ARC
  5
ACD9A
330
1F
100
AcDbEntity
  8
AM_0
 48
20.0
100
AcDbCircle
 10
173.0288639932
 20
71.96691544454711
 30
0.0
 40
0.6000000000000015
100
AcDbArc
 50
180.0
 51
277.662255660635
  0
LINE
  5
ACD9B
330
1F
100
AcDbEntity
  8
AM_0
 48
20.0
100
AcDbLine
 10
172.4288639931942
 20
73.09457505638761
 30
0.0
 11
172.4288639931942
 21
71.96691544454711
 31
0.0
  0
ARC
  5
ACD9C
330
1F
100
AcDbEntity
  8
AM_0
 48
20.0
100
AcDbCircle
 10
172.2788639932
 20
73.09457505638761
 30
0.0
 40
0.15
100
AcDbArc
 50
0.0
 51
70.42905613950508
  0
LINE
  5
ACD9D
330
1F
100
AcDbEntity
  8
AM_0
 48
20.0
100
AcDbLine
 10
171.1288639931986
 20
73.66261184478549
 30
0.0
 11
172.3291100610181
 21
73.23590917353044
 31
0.0
  0
LINE
  5
ACD9E
330
1F
100
AcDbEntity
  8
AM_0
 48
20.0
100
AcDbLine
 10
172.3291100610181
 20
73.23590917353044
 30
0.0
 11
170.4948744790122
 21
73.88800314287414
 31
0.0
  0
ARC
  5
ACD9F
330
1F
100
AcDbEntity
  8
AM_0
 48
20.0
100
AcDbCircle
 10
170.6288639931986
 20
74.26489412191926
 30
0.0
 40
0.4
100
AcDbArc
 50
83.92359600968507
 51
250.4290561395051
  0
LINE
  5
ACDA0
330
1F
100
AcDbEntity
  8
AM_0
 48
20.0
100
AcDbLine
 10
172.2629858082832
 20
74.49319756122327
 30
0.0
 11
170.671205819624
 21
74.66264677085906
 31
0.0
  0
ARC
  5
ACDA1
330
1F
100
AcDbEntity
  8
AM_0
 48
20.0
100
AcDbCircle
 10
172.2788639932
 20
74.64235480457478
 30
0.0
 40
0.15
100
AcDbArc
 50
263.9235960096851
 51
0.0
  0
LINE
  5
ACDA2
330
1F
100
AcDbEntity
  8
AM_0
 48
20.0
100
AcDbLine
 10
172.4288639931942
 20
77.69457505639343
 30
0.0
 11
172.4288639931942
 21
74.64235480457478
 31
0.0
  0
ARC
  5
ACDA3
330
1F
100
AcDbEntity
  8
AM_0
 48
20.0
100
AcDbCircle
 10
172.2788639932
 20
77.69457505639343
 30
0.0
 40
0.15
100
AcDbArc
 50
0.0
 51
70.42905613950508
  0
LINE
  5
ACDA4
330
1F
100
AcDbEntity
  8
AM_0
 48
20.0
100
AcDbLine
 10
172.3291100610181
 20
77.83590917353627
 30
0.0
 11
170.4948744790122
 21
78.48800314287268
 31
0.0
  0
ARC
  5
ACDA5
330
1F
100
AcDbEntity
  8
AM_0
 48
20.0
100
AcDbCircle
 10
170.6288639931986
 20
78.86489412191782
 30
0.0
 40
0.3999999999999999
100
AcDbArc
 50
83.92359600968507
 51
250.4290561395051
  0
LINE
  5
ACDA6
330
1F
100
AcDbEntity
  8
AM_0
 48
20.0
100
AcDbLine
 10
172.2495970424456
 20
79.09462283092193
 30
0.0
 11
170.671205819624
 21
79.2626467708576
 31
0.0
  0
ARC
  5
ACDA7
330
1F
100
AcDbEntity
  8
AM_0
 48
20.0
100
AcDbCircle
 10
172.2654752273552
 20
79.24378007427344
 30
0.0
 40
0.15
100
AcDbArc
 50
263.9235960096851
 51
4.843079174675768
  0
ARC
  5
ACDA8
330
1F
100
AcDbEntity
  8
AM_0
 48
20.0
100
AcDbCircle
 10
168.5288639932
 20
78.92717861383039
 30
0.0
 40
3.899999999999995
100
AcDbArc
 50
4.843079174675768
 51
57.76904736455604
  0
ARC
  5
ACDA9
330
1F
100
AcDbEntity
  8
AM_0
 48
20.0
100
AcDbCircle
 10
170.1288639931986
 20
81.46489412192364
 30
0.0
 40
0.8999999999999964
100
AcDbArc
 50
57.76904736455604
 51
122.2309526354437
  0
ARC
  5
ACDAA
330
1F
100
AcDbEntity
  8
AM_0
 48
20.0
100
AcDbCircle
 10
171.7288639931971
 20
78.92717861383039
 30
0.0
 40
3.899999999999995
100
AcDbArc
 50
122.2309526354437
 51
175.1569208253242
  0
ARC
  5
ACDAB
330
1F
100
AcDbEntity
  8
AM_0
 48
20.0
100
AcDbCircle
 10
167.9922527590347
 20
79.24378007427344
 30
0.0
 40
0.15
100
AcDbArc
 50
175.1569208253242
 51
276.0764039903149
  0
LINE
  5
ACDAC
330
1F
100
AcDbEntity
  8
AM_0
 48
20.0
100
AcDbLine
 10
168.0081309439515
 20
79.09462283092193
 30
0.0
 11
169.5865221667659
 21
79.2626467708576
 31
0.0
  0
ARC
  5
ACDAD
330
1F
100
AcDbEntity
  8
AM_0
 48
20.0
100
AcDbCircle
 10
169.6288639931986
 20
78.86489412191782
 30
0.0
 40
0.3999999999999999
100
AcDbArc
 50
289.5709438604947
 51
96.07640399031492
  0
LINE
  5
ACDAE
330
1F
100
AcDbEntity
  8
AM_0
 48
20.0
100
AcDbLine
 10
169.762853507385
 20
78.48800314287268
 30
0.0
 11
167.928617925379
 21
77.83590917353627
 31
0.0
  0
LINE
  5
ACDAF
330
1F
100
AcDbEntity
  8
AM_0
 48
20.0
100
AcDbLine
 10
167.8288639931956
 20
77.69457505639343
 30
0.0
 11
167.8288639931956
 21
74.64235480457478
 31
0.0
  0
ARC
  5
ACDB0
330
1F
100
AcDbEntity
  8
AM_0
 48
20.0
100
AcDbCircle
 10
167.9788639931971
 20
77.69457505639343
 30
0.0
 40
0.15
100
AcDbArc
 50
109.5709438604947
 51
180.0
  0
ARC
  5
ACDB1
330
1F
100
AcDbEntity
  8
AM_0
 48
20.0
100
AcDbCircle
 10
167.9788639931971
 20
74.64235480457478
 30
0.0
 40
0.15
100
AcDbArc
 50
180.0
 51
276.0764039903149
  0
LINE
  5
ACDB2
330
1F
100
AcDbEntity
  8
AM_0
 48
20.0
100
AcDbLine
 10
167.9947421781066
 20
74.49319756122327
 30
0.0
 11
169.5865221667659
 21
74.66264677085906
 31
0.0
  0
ARC
  5
ACDB3
330
1F
100
AcDbEntity
  8
AM_0
 48
20.0
100
AcDbCircle
 10
169.6288639931986
 20
74.26489412191926
 30
0.0
 40
0.4
100
AcDbArc
 50
289.5709438604947
 51
96.07640399031492
  0
LINE
  5
ACDB4
330
1F
100
AcDbEntity
  8
AM_0
 48
20.0
100
AcDbLine
 10
167.928617925379
 20
73.23590917353044
 30
0.0
 11
169.762853507385
 21
73.88800314287414
 31
0.0
  0
LINE
  5
ACDB5
330
1F
100
AcDbEntity
  8
AM_0
 48
20.0
100
AcDbLine
 10
169.1288639931986
 20
73.66261184478549
 30
0.0
 11
167.928617925379
 21
73.23590917353044
 31
0.0
  0
LINE
  5
ACDB6
330
1F
100
AcDbEntity
  8
AM_0
 48
20.0
100
AcDbLine
 10
167.8288639931956
 20
73.09457505638761
 30
0.0
 11
167.8288639931956
 21
71.96691544454711
 31
0.0
  0
ARC
  5
ACDB7
330
1F
100
AcDbEntity
  8
AM_0
 48
20.0
100
AcDbCircle
 10
167.9788639931971
 20
73.09457505638761
 30
0.0
 40
0.15
100
AcDbArc
 50
109.5709438604947
 51
180.0
  0
ARC
  5
ACDB8
330
1F
100
AcDbEntity
  8
AM_0
 48
20.0
100
AcDbCircle
 10
167.2288639931971
 20
71.96691544454711
 30
0.0
 40
0.6000000000000015
100
AcDbArc
 50
262.337744339365
 51
0.0
  0
ARC
  5
ACDB9
330
1F
100
AcDbEntity
  8
AM_0
 48
20.0
100
AcDbCircle
 10
167.4288639931942
 20
73.45352231927586
 30
0.0
 40
2.1
100
AcDbArc
 50
175.3295041384502
 51
262.337744339365
  0
LINE
  5
ACDBA
330
1F
100
AcDbEntity
  8
AM_0
 48
20.0
100
AcDbLine
 10
166.3288639931957
 20
73.16489412192073
 30
0.0
 11
166.8288639931956
 21
73.16489412192073
 31
0.0
  0
LINE
  5
ACDBB
330
1F
100
AcDbEntity
  8
AM_0
 48
20.0
100
AcDbLine
 10
166.8288639931956
 20
79.22878554307295
 30
0.0
 11
166.8288639931956
 21
73.16489412192073
 31
0.0
  0
LINE
  5
ACDBC
330
1F
100
AcDbEntity
  8
AM_0
 48
20.0
100
AcDbLine
 10
166.3288639931957
 20
73.16489412192073
 30
0.0
 11
166.3288639931957
 21
79.22878554307295
 31
0.0
  0
ARC
  5
ACDBD
330
1F
100
AcDbEntity
  8
AM_0
 48
20.0
100
AcDbCircle
 10
171.3288639931957
 20
79.22878554307295
 30
0.0
 40
4.5
100
AcDbArc
 50
136.3653676084235
 51
180.0
  0
ARC
  5
ACDBE
330
1F
100
AcDbEntity
  8
AM_0
 48
20.0
100
AcDbCircle
 10
171.3288639931957
 20
79.22878554307295
 30
0.0
 40
5.0
100
AcDbArc
 50
136.3653676084235
 51
180.0
  0
ARC
  5
ACDBF
330
1F
100
AcDbEntity
  8
AM_0
 48
20.0
100
AcDbCircle
 10
170.1288639931986
 20
80.37291400957816
 30
0.0
 40
2.841980112341659
100
AcDbArc
 50
43.63463239157633
 51
136.3653676084235
  0
ARC
  5
ACDC0
330
1F
100
AcDbEntity
  8
AM_0
 48
20.0
100
AcDbCircle
 10
170.1288639931986
 20
80.37291400957816
 30
0.0
 40
3.341980112341659
100
AcDbArc
 50
43.63463239157633
 51
136.3653676084235
  0
ARC
  5
ACDC1
330
1F
100
AcDbEntity
  8
AM_0
 48
20.0
100
AcDbCircle
 10
168.9288639931942
 20
79.22878554307295
 30
0.0
 40
5.0
100
AcDbArc
 50
0.0
 51
43.63463239157633
  0
ARC
  5
ACDC2
330
1F
100
AcDbEntity
  8
AM_0
 48
20.0
100
AcDbCircle
 10
168.9288639931942
 20
79.22878554307295
 30
0.0
 40
4.5
100
AcDbArc
 50
0.0
 51
43.63463239157633
  0
LINE
  5
ACDC3
330
1F
100
AcDbEntity
  8
AM_0
 48
20.0
100
AcDbLine
 10
173.9288639931942
 20
73.16489412192073
 30
0.0
 11
173.9288639931942
 21
79.22878554307295
 31
0.0
  0
LINE
  5
ACDC4
330
1F
100
AcDbEntity
  8
AM_0
 48
20.0
100
AcDbLine
 10
173.4288639931942
 20
79.22878554307295
 30
0.0
 11
173.4288639931942
 21
73.16489412192073
 31
0.0
  0
LINE
  5
ACDC5
330
1F
100
AcDbEntity
  8
AM_0
 48
20.0
100
AcDbLine
 10
173.9288639931942
 20
73.16489412192073
 30
0.0
 11
173.4288639931942
 21
73.16489412192073
 31
0.0
  0
CIRCLE
  5
ACDC6
330
1F
100
AcDbEntity
  8
AM_0
 48
20.0
100
AcDbCircle
 10
170.1288639931986
 20
90.36691544454129
 30
0.0
 40
3.800000000000001
  0
LINE
  5
ACDC7
330
1F
100
AcDbEntity
  8
AM_0
 48
20.0
100
AcDbLine
 10
171.1288639931986
 20
84.81866224520832
 30
0.0
 11
171.1288639931986
 21
85.07541282241778
 31
0.0
  0
LINE
  5
ACDC8
330
1F
100
AcDbEntity
  8
AM_0
 48
20.0
100
AcDbLine
 10
169.1288639931986
 20
84.81866224520832
 30
0.0
 11
169.1288639931986
 21
85.07541282241778
 31
0.0
  0
DIMENSION
  5
ACDC9
330
1F
100
AcDbEntity
  8
AM_5
 48
20.0
100
AcDbDimension
  2
*D2
 10
173.9288639931942
 20
90.36691544454129
 30
0.0
 11
170.1288639931949
 21
91.99191544454128
 31
0.0
 70
    32
 71
     5
 42
7.599999999998544
  3
S-1／2
100
AcDbAlignedDimension
 13
166.3288639931957
 23
90.36691544454129
 33
0.0
 14
173.9288639931942
 24
90.36691544454129
 34
0.0
100
AcDbRotatedDimension
  0
DIMENSION
  5
ACDCA
330
1F
100
AcDbEntity
  8
AM_5
 48
20.0
100
AcDbDimension
  2
*D3
 10
175.1288639931986
 20
101.2065575802459
 30
0.0
 11
170.1288639931986
 21
102.8315575802459
 31
0.0
 70
    32
 71
     5
 42
10.0
  3
S-1／2
100
AcDbAlignedDimension
 13
165.1288639931986
 23
90.36691544454129
 33
0.0
 14
175.1288639931986
 24
90.36691544454857
 34
0.0
100
AcDbRotatedDimension
  0
DIMENSION
  5
ACDCB
330
1F
100
AcDbEntity
  8
AM_5
 48
20.0
100
AcDbDimension
  2
*D4
 10
160.10545146722
 20
71.36691544454129
 30
0.0
 11
158.48045146722
 21
78.15697648917538
 31
0.0
 70
    32
  1
13.6
 71
     5
 42
13.58012208926811
  3
S-1／2
100
AcDbAlignedDimension
 13
169.1288639931986
 23
84.94703753380941
 33
0.0
 14
167.2288639931971
 24
71.36691544454129
 34
0.0
 50
90.0
100
AcDbRotatedDimension
  0
DIMENSION
  5
ACDCC
330
1F
100
AcDbEntity
  8
AM_5
 48
20.0
100
AcDbDimension
  2
*D5
 10
160.10545146722
 20
95.36691544454129
 30
0.0
 11
158.48045146722
 21
90.15697648917537
 31
0.0
 70
    32
  1
10.4
 71
     5
 42
10.41987791073188
  3
S-1／2
100
AcDbAlignedDimension
 13
169.1288639931986
 23
84.94703753380941
 33
0.0
 14
170.1288639931986
 24
95.36691544454129
 34
0.0
 50
90.0
100
AcDbRotatedDimension
  0
DIMENSION
  5
ACDCD
330
1F
100
AcDbEntity
  8
AM_5
 48
20.0
100
AcDbDimension
  2
*D6
 10
172.4288639931942
 20
66.8256067215334
 30
0.0
 11
170.1288639931949
 21
68.45060672153341
 31
0.0
 70
    32
 71
     5
 42
4.599999999998544
  3
S-1／2
100
AcDbAlignedDimension
 13
167.8288639931956
 23
72.53074525046736
 33
0.0
 14
172.4288639931942
 24
72.53074525046736
 34
0.0
100
AcDbRotatedDimension
  0
ARC
  5
ACF06
330
1F
100
AcDbEntity
  8
AM_0
 48
20.0
100
AcDbCircle
 10
124.2706775520346
 20
82.86691544454129
 30
0.0
 40
2.1
100
AcDbArc
 50
7.662255660634175
 51
90.0
  0
ARC
  5
ACF07
330
1F
100
AcDbEntity
  8
AM_0
 48
20.0
100
AcDbCircle
 10
124.2706775520346
 20
77.46691544454711
 30
0.0
 40
2.1
100
AcDbArc
 50
265.3295041384519
 51
352.3377443393658
  0
ARC
  5
ACF08
330
1F
100
AcDbEntity
  8
AM_0
 48
20.0
100
AcDbCircle
 10
118.4517880107669
 20
79.45994228629183
 30
0.0
 40
5.5
100
AcDbArc
 50
100.2421986893519
 51
147.2829209686994
  0
ARC
  5
ACF09
330
1F
100
AcDbEntity
  8
AM_0
 48
20.0
100
AcDbCircle
 10
118.4517880107669
 20
80.87388860279657
 30
0.0
 40
5.5
100
AcDbArc
 50
212.7170790313004
 51
270.0
  0
ARC
  5
ACF0A
330
1F
100
AcDbEntity
  8
AM_0
 48
20.0
100
AcDbCircle
 10
118.4954143282375
 20
81.36691544454128
 30
0.0
 40
5.0
100
AcDbArc
 50
226.3653676084227
 51
270.0
  0
ARC
  5
ACF0B
330
1F
100
AcDbEntity
  8
AM_0
 48
20.0
100
AcDbCircle
 10
117.3512858617323
 20
80.1669154445442
 30
0.0
 40
2.841980112341659
100
AcDbArc
 50
133.6346323915773
 51
226.3653676084227
  0
ARC
  5
ACF0C
330
1F
100
AcDbEntity
  8
AM_0
 48
20.0
100
AcDbCircle
 10
118.4954143282375
 20
78.96691544454711
 30
0.0
 40
5.0
100
AcDbArc
 50
90.0
 51
133.6346323915773
  0
ARC
  5
ACF0D
330
1F
100
AcDbEntity
  8
AM_0
 48
20.0
100
AcDbCircle
 10
117.3512858617323
 20
80.1669154445442
 30
0.0
 40
4.191980112341653
100
AcDbArc
 50
147.2829209686994
 51
212.7170790313004
  0
ARC
  5
ACF0E
330
1F
100
AcDbEntity
  8
AM_0
 48
20.0
100
AcDbCircle
 10
117.3512858617323
 20
80.1669154445442
 30
0.0
 40
3.341980112341659
100
AcDbArc
 50
133.6346323915773
 51
226.3653676084227
  0
ARC
  5
ACF0F
330
1F
100
AcDbEntity
  8
AM_0
 48
20.0
100
AcDbCircle
 10
125.7572844267706
 20
83.06691544454565
 30
0.0
 40
0.6000000000000015
100
AcDbArc
 50
270.0
 51
7.662255660634175
  0
ARC
  5
ACF10
330
1F
100
AcDbEntity
  8
AM_0
 48
20.0
100
AcDbCircle
 10
118.4954143282375
 20
78.96691544454711
 30
0.0
 40
4.5
100
AcDbArc
 50
90.0
 51
133.6346323915773
  0
LINE
  5
ACF11
330
1F
100
AcDbEntity
  8
AM_0
 48
20.0
100
AcDbLine
 10
124.099684453562
 20
75.37388860279657
 30
0.0
 11
118.4517880107669
 21
75.37388860279657
 31
0.0
  0
LINE
  5
ACF12
330
1F
100
AcDbEntity
  8
AM_0
 48
20.0
100
AcDbLine
 10
118.4954143282375
 20
76.86691544454129
 30
0.0
 11
124.5593057493897
 21
76.86691544454129
 31
0.0
  0
LINE
  5
ACF13
330
1F
100
AcDbEntity
  8
AM_0
 48
20.0
100
AcDbLine
 10
124.5593057493897
 20
76.36691544454129
 30
0.0
 11
118.4954143282375
 21
76.36691544454129
 31
0.0
  0
LINE
  5
ACF14
330
1F
100
AcDbEntity
  8
AM_0
 48
20.0
100
AcDbLine
 10
120.0296248149243
 20
77.86691544454129
 30
0.0
 11
123.081845066743
 21
77.86691544454129
 31
0.0
  0
LINE
  5
ACF15
330
1F
100
AcDbEntity
  8
AM_0
 48
20.0
100
AcDbLine
 10
120.0296248149243
 20
82.4669154445471
 30
0.0
 11
123.081845066743
 21
82.4669154445471
 31
0.0
  0
ARC
  5
ACF16
330
1F
100
AcDbEntity
  8
AM_0
 48
20.0
100
AcDbCircle
 10
118.4954143282375
 20
81.36691544454128
 30
0.0
 40
4.5
100
AcDbArc
 50
226.3653676084227
 51
270.0
  0
ARC
  5
ACF17
330
1F
100
AcDbEntity
  8
AM_0
 48
20.0
100
AcDbCircle
 10
118.7970212574801
 20
81.76691544454275
 30
0.0
 40
3.899999999999995
100
AcDbArc
 50
212.2309526354462
 51
265.1569208253249
  0
ARC
  5
ACF18
330
1F
100
AcDbEntity
  8
AM_0
 48
20.0
100
AcDbCircle
 10
118.7970212574801
 20
78.56691544454566
 30
0.0
 40
3.899999999999995
100
AcDbArc
 50
94.84307917467516
 51
147.7690473645538
  0
ARC
  5
ACF19
330
1F
100
AcDbEntity
  8
AM_0
 48
20.0
100
AcDbCircle
 10
116.2593057493941
 20
80.1669154445442
 30
0.0
 40
0.8999999999999964
100
AcDbArc
 50
147.7690473645538
 51
212.2309526354462
  0
LINE
  5
ACF1A
330
1F
100
AcDbEntity
  8
AM_0
 48
20.0
100
AcDbLine
 10
119.8882906977815
 20
82.36716151236374
 30
0.0
 11
119.2361967284378
 21
80.53292593035781
 31
0.0
  0
ARC
  5
ACF1B
330
1F
100
AcDbEntity
  8
AM_0
 48
20.0
100
AcDbCircle
 10
118.8593057493926
 20
79.6669154445442
 30
0.0
 40
0.3999999999999999
100
AcDbArc
 50
19.57094386049344
 51
186.0764039903165
  0
ARC
  5
ACF1C
330
1F
100
AcDbEntity
  8
AM_0
 48
20.0
100
AcDbCircle
 10
118.8593057493926
 20
80.66691544454419
 30
0.0
 40
0.3999999999999999
100
AcDbArc
 50
173.9235960096834
 51
340.4290561395066
  0
ARC
  5
ACF1D
330
1F
100
AcDbEntity
  8
AM_0
 48
20.0
100
AcDbCircle
 10
118.480419797037
 20
78.03030421038761
 30
0.0
 40
0.15
100
AcDbArc
 50
265.1569208253249
 51
6.076403990316562
  0
LINE
  5
ACF1E
330
1F
100
AcDbEntity
  8
AM_0
 48
20.0
100
AcDbLine
 10
118.6295770403885
 20
78.04618239529713
 30
0.0
 11
118.4615531004601
 21
79.6245736181188
 31
0.0
  0
ARC
  5
ACF1F
330
1F
100
AcDbEntity
  8
AM_0
 48
20.0
100
AcDbCircle
 10
118.480419797037
 20
82.30352667870079
 30
0.0
 40
0.15
100
AcDbArc
 50
353.9235960096834
 51
94.84307917467516
  0
LINE
  5
ACF20
330
1F
100
AcDbEntity
  8
AM_0
 48
20.0
100
AcDbLine
 10
118.6295770403885
 20
82.28764849379126
 30
0.0
 11
118.4615531004601
 21
80.70925727096961
 31
0.0
  0
ARC
  5
ACF21
330
1F
100
AcDbEntity
  8
AM_0
 48
20.0
100
AcDbCircle
 10
120.0296248149243
 20
78.01691544454275
 30
0.0
 40
0.15
100
AcDbArc
 50
199.5709438604934
 51
270.0
  0
ARC
  5
ACF22
330
1F
100
AcDbEntity
  8
AM_0
 48
20.0
100
AcDbCircle
 10
120.0296248149243
 20
82.31691544454566
 30
0.0
 40
0.15
100
AcDbArc
 50
90.0
 51
160.4290561395066
  0
LINE
  5
ACF23
330
1F
100
AcDbEntity
  8
AM_0
 48
20.0
100
AcDbLine
 10
119.2361967284378
 20
79.8009049587306
 30
0.0
 11
119.8882906977815
 21
77.96666937672466
 31
0.0
  0
ARC
  5
ACF24
330
1F
100
AcDbEntity
  8
AM_0
 48
20.0
100
AcDbCircle
 10
123.4593057493912
 20
79.6669154445442
 30
0.0
 40
0.4
100
AcDbArc
 50
19.57094386049344
 51
186.0764039903165
  0
ARC
  5
ACF25
330
1F
100
AcDbEntity
  8
AM_0
 48
20.0
100
AcDbCircle
 10
123.4593057493912
 20
80.66691544454419
 30
0.0
 40
0.4
100
AcDbArc
 50
173.9235960096834
 51
340.4290561395066
  0
LINE
  5
ACF26
330
1F
100
AcDbEntity
  8
AM_0
 48
20.0
100
AcDbLine
 10
123.2310023100872
 20
78.03279362945227
 30
0.0
 11
123.0615531004587
 21
79.6245736181188
 31
0.0
  0
ARC
  5
ACF27
330
1F
100
AcDbEntity
  8
AM_0
 48
20.0
100
AcDbCircle
 10
123.081845066743
 20
78.01691544454275
 30
0.0
 40
0.15
100
AcDbArc
 50
270.0
 51
6.076403990316562
  0
ARC
  5
ACF28
330
1F
100
AcDbEntity
  8
AM_0
 48
20.0
100
AcDbCircle
 10
123.081845066743
 20
82.31691544454566
 30
0.0
 40
0.15
100
AcDbArc
 50
353.9235960096834
 51
90.0
  0
LINE
  5
ACF29
330
1F
100
AcDbEntity
  8
AM_0
 48
20.0
100
AcDbLine
 10
123.2310023100872
 20
82.30103725963614
 30
0.0
 11
123.0615531004587
 21
80.70925727096961
 31
0.0
  0
LINE
  5
ACF2A
330
1F
100
AcDbEntity
  8
AM_0
 48
20.0
100
AcDbLine
 10
124.6296248149228
 20
77.86691544454129
 30
0.0
 11
125.7572844267706
 21
77.86691544454129
 31
0.0
  0
LINE
  5
ACF2B
330
1F
100
AcDbEntity
  8
AM_0
 48
20.0
100
AcDbLine
 10
124.6296248149228
 20
82.4669154445471
 30
0.0
 11
125.7572844267706
 21
82.4669154445471
 31
0.0
  0
LINE
  5
ACF2C
330
1F
100
AcDbEntity
  8
AM_0
 48
20.0
100
AcDbLine
 10
124.5593057493897
 20
76.36691544454129
 30
0.0
 11
124.5593057493897
 21
76.86691544454129
 31
0.0
  0
LINE
  5
ACF2D
330
1F
100
AcDbEntity
  8
AM_0
 48
20.0
100
AcDbLine
 10
124.48829069778
 20
77.96666937672466
 30
0.0
 11
123.8361967284436
 21
79.8009049587306
 31
0.0
  0
LINE
  5
ACF2E
330
1F
100
AcDbEntity
  8
AM_0
 48
20.0
100
AcDbLine
 10
124.061588026525
 20
79.1669154445442
 30
0.0
 11
124.48829069778
 21
77.96666937672466
 31
0.0
  0
LINE
  5
ACF2F
330
1F
100
AcDbEntity
  8
AM_0
 48
20.0
100
AcDbLine
 10
124.48829069778
 20
82.36716151236374
 30
0.0
 11
123.8361967284436
 21
80.53292593035781
 31
0.0
  0
ARC
  5
ACF30
330
1F
100
AcDbEntity
  8
AM_0
 48
20.0
100
AcDbCircle
 10
124.6296248149228
 20
78.01691544454275
 30
0.0
 40
0.15
100
AcDbArc
 50
199.5709438604934
 51
270.0
  0
ARC
  5
ACF31
330
1F
100
AcDbEntity
  8
AM_0
 48
20.0
100
AcDbCircle
 10
124.6296248149228
 20
82.31691544454566
 30
0.0
 40
0.15
100
AcDbArc
 50
90.0
 51
160.4290561395066
  0
ARC
  5
ACF32
330
1F
100
AcDbEntity
  8
AM_0
 48
20.0
100
AcDbCircle
 10
125.7572844267706
 20
77.26691544454275
 30
0.0
 40
0.6000000000000015
100
AcDbArc
 50
352.3377443393658
 51
90.0
  0
ARC
  5
ACF33
330
1F
100
AcDbEntity
  8
AM_0
 48
20.0
100
AcDbCircle
 10
120.2687627481573
 20
90.36691544454129
 30
0.0
 40
3.8
100
AcDbArc
 50
317.6926146124896
 51
222.3073853875102
  0
LINE
  5
ACF34
330
1F
100
AcDbEntity
  8
AM_0
 48
20.0
100
AcDbLine
 10
120.4971177659245
 20
84.97235443647127
 30
0.0
 11
123.0790312324534
 21
87.80910563023258
 31
0.0
  0
LINE
  5
ACF35
330
1F
100
AcDbEntity
  8
AM_0
 48
20.0
100
AcDbLine
 10
124.5593057493897
 20
83.96691544454711
 30
0.0
 11
118.4954143282375
 21
83.96691544454711
 31
0.0
  0
LINE
  5
ACF36
330
1F
100
AcDbEntity
  8
AM_0
 48
20.0
100
AcDbLine
 10
118.4954143282375
 20
83.46691544454712
 30
0.0
 11
124.5593057493897
 21
83.46691544454712
 31
0.0
  0
ARC
  5
ACF37
330
1F
100
AcDbEntity
  8
AM_0
 48
20.0
100
AcDbCircle
 10
120.2687627481573
 20
90.36691544454129
 30
0.0
 40
5.0
100
AcDbArc
 50
317.6926146124896
 51
222.3073853875102
  0
LINE
  5
ACF38
330
1F
100
AcDbEntity
  8
AM_0
 48
20.0
100
AcDbLine
 10
120.0404077303974
 20
84.97235443647127
 30
0.0
 11
117.4584942638685
 21
87.80910563023258
 31
0.0
  0
LINE
  5
ACF39
330
1F
100
AcDbEntity
  8
AM_0
 48
20.0
100
AcDbLine
 10
117.754702830156
 20
85.70088571159045
 30
0.0
 11
116.5710410582978
 21
87.00137621519003
 31
0.0
  0
ARC
  5
ACF3A
330
1F
100
AcDbEntity
  8
AM_0
 48
20.0
100
AcDbCircle
 10
117.3849306611737
 20
85.36433178865605
 30
0.0
 40
0.5
100
AcDbArc
 50
280.2421986893519
 51
42.30738538751021
  0
ARC
  5
ACF3B
330
1F
100
AcDbEntity
  8
AM_0
 48
20.0
100
AcDbCircle
 10
120.2687627481573
 20
85.1669154445442
 30
0.0
 40
0.3
100
AcDbArc
 50
220.4313654834866
 51
319.5686345165133
  0
LINE
  5
ACF3C
330
1F
100
AcDbEntity
  8
AM_0
 48
20.0
100
AcDbLine
 10
124.2706775520346
 20
84.9669154445471
 30
0.0
 11
123.245962953988
 21
84.9669154445471
 31
0.0
  0
LINE
  5
ACF3D
330
1F
100
AcDbEntity
  8
AM_0
 48
20.0
100
AcDbLine
 10
122.8761907850057
 20
85.80346936748151
 30
0.0
 11
123.9664844380168
 21
87.00137621519003
 31
0.0
  0
ARC
  5
ACF3E
330
1F
100
AcDbEntity
  8
AM_0
 48
20.0
100
AcDbCircle
 10
123.245962953988
 20
85.46691544454711
 30
0.0
 40
0.5
100
AcDbArc
 50
137.6926146124898
 51
270.0
  0
LINE
  5
ACF3F
330
1F
100
AcDbEntity
  8
AM_0
 48
20.0
100
AcDbLine
 10
124.5593057493897
 20
83.96691544454711
 30
0.0
 11
124.5593057493897
 21
83.46691544454712
 31
0.0
  0
DIMENSION
  5
ACF40
330
1F
100
AcDbEntity
  8
AM_5
 48
20.0
100
AcDbDimension
  2
*D7
 10
133.0807847805868
 20
95.36691544454129
 30
0.0
 11
131.4557847805867
 21
90.16691544454422
 31
0.0
 70
    32
 71
     5
 42
10.39999999999418
  3
S-1／2
100
AcDbAlignedDimension
 13
123.7583202530149
 23
84.9669154445471
 33
0.0
 14
120.2687627481573
 24
95.36691544454129
 34
0.0
 50
90.0
100
AcDbRotatedDimension
  0
DIMENSION
  5
ACF41
330
1F
100
AcDbEntity
  8
AM_5
 48
20.0
100
AcDbDimension
  2
*D8
 10
115.2687627481573
 20
101.2065575802459
 30
0.0
 11
120.2687627481573
 21
102.8315575802459
 31
0.0
 70
    32
 71
     5
 42
10.0
  3
S-1／2
100
AcDbAlignedDimension
 13
125.2687627481573
 23
90.36691544454129
 33
0.0
 14
115.2687627481573
 24
90.36691544454129
 34
0.0
100
AcDbRotatedDimension
  0
DIMENSION
  5
ACF42
330
1F
100
AcDbEntity
  8
AM_5
 48
20.0
100
AcDbDimension
  2
*D9
 10
126.3572844267692
 20
69.65802660469353
 30
0.0
 11
119.7582950880824
 21
71.28302660469353
 31
0.0
 70
    32
 71
     5
 42
13.19797867737361
  3
S-1／2
100
AcDbAlignedDimension
 13
113.1593057493955
 23
80.1669154445442
 33
0.0
 14
126.3572844267692
 24
83.06691544454565
 34
0.0
100
AcDbRotatedDimension
  0
DIMENSION
  5
ACF43
330
1F
100
AcDbEntity
  8
AM_5
 48
20.0
100
AcDbDimension
  2
*D10
 10
133.0807847805868
 20
75.36691544454129
 30
0.0
 11
131.4557847805867
 21
80.16691544454422
 31
0.0
 70
    32
 71
     5
 42
9.60000000000582
  3
S-1／2
100
AcDbAlignedDimension
 13
123.7583202530149
 23
84.9669154445471
 33
0.0
 14
124.2706775520346
 24
75.36691544454129
 34
0.0
 50
90.0
100
AcDbRotatedDimension
  0
DIMENSION
  5
AD028
330
1F
100
AcDbEntity
  8
AM_5
 48
20.0
100
AcDbDimension
  2
*D11
 10
83.99065980824161
 20
76.86691544454129
 30
0.0
 11
82.3656598082416
 21
86.1169154445413
 31
0.0
 70
    32
 71
     5
 42
18.5
  3
S-1／2
100
AcDbAlignedDimension
 13
74.27826538968992
 23
95.36691544454129
 33
0.0
 14
76.94495396350382
 24
76.86691544454129
 34
0.0
 50
90.0
100
AcDbRotatedDimension
  0
LINE
  5
AD029
330
1F
100
AcDbEntity
  8
AM_0
 48
20.0
100
AcDbLine
 10
66.07773487907372
 20
77.56489412191706
 30
0.0
 11
66.07773487907372
 21
83.62878554306888
 31
0.0
  0
LINE
  5
AD02A
330
1F
100
AcDbEntity
  8
AM_0
 48
20.0
100
AcDbLine
 10
66.8777348790737
 20
83.62878554306883
 30
0.0
 11
66.87773487907373
 21
77.56489412191706
 31
0.0
  0
LINE
  5
AD02B
330
1F
100
AcDbEntity
  8
AM_0
 48
20.0
100
AcDbLine
 10
73.17773487906871
 20
83.62878554306883
 30
0.0
 11
73.17773487906868
 21
77.56489412191706
 31
0.0
  0
LINE
  5
AD02C
330
1F
100
AcDbEntity
  8
AM_0
 48
20.0
100
AcDbLine
 10
73.97773487906869
 20
77.56489412191706
 30
0.0
 11
73.97773487906869
 21
83.62878554306888
 31
0.0
  0
ARC
  5
AD02D
330
1F
100
AcDbEntity
  8
AM_0
 48
20.0
100
AcDbCircle
 10
66.47773487906866
 20
78.01691544454133
 30
0.0
 40
1.14999999999999
100
AcDbArc
 50
180.0
 51
0.0
  0
ARC
  5
AD02E
330
1F
100
AcDbEntity
  8
AM_0
 48
20.0
100
AcDbCircle
 10
73.5777348790687
 20
78.01691544454133
 30
0.0
 40
1.150000000000005
100
AcDbArc
 50
180.0
 51
0.0
  0
LINE
  5
AD02F
330
1F
100
AcDbEntity
  8
AM_0
 48
20.0
100
AcDbLine
 10
66.07773487907412
 20
77.5648941219182
 30
0.0
 11
66.87773487907702
 21
77.5648941219182
 31
0.0
  0
LINE
  5
AD030
330
1F
100
AcDbEntity
  8
AM_0
 48
20.0
100
AcDbLine
 10
73.97773487906829
 20
77.5648941219182
 30
0.0
 11
73.17773487906539
 21
77.5648941219182
 31
0.0
  0
ARC
  5
AD031
330
1F
100
AcDbEntity
  8
AM_0
 48
20.0
100
AcDbCircle
 10
70.02773487907373
 20
84.7729140095754
 30
0.0
 40
3.491980112341659
100
AcDbArc
 50
43.63463239132904
 51
136.3653676085494
  0
ARC
  5
AD032
330
1F
100
AcDbEntity
  8
AM_0
 48
20.0
100
AcDbCircle
 10
71.2277348790737
 20
83.62878554306888
 30
0.0
 40
4.349999999999999
100
AcDbArc
 50
136.3653676085494
 51
180.0
  0
ARC
  5
AD033
330
1F
100
AcDbEntity
  8
AM_0
 48
20.0
100
AcDbCircle
 10
67.40136200194308
 20
88.90009645403058
 30
0.0
 40
0.8
100
AcDbArc
 50
188.1362477914046
 51
302.4710346755331
  0
ARC
  5
AD034
330
1F
100
AcDbEntity
  8
AM_0
 48
20.0
100
AcDbCircle
 10
75.69676259612347
 20
88.26056368862442
 30
0.0
 40
9.200000000000001
100
AcDbArc
 50
144.0823629692561
 51
170.6073263808013
  0
ARC
  5
AD035
330
1F
100
AcDbEntity
  8
AM_0
 48
20.0
100
AcDbCircle
 10
70.02773487906868
 20
92.3669154445413
 30
0.0
 40
2.999999999999998
100
AcDbArc
 50
36.15925313054624
 51
143.8407468694537
  0
ARC
  5
AD036
330
1F
100
AcDbEntity
  8
AM_0
 48
20.0
100
AcDbCircle
 10
67.82773487906867
 20
78.62373367998475
 30
0.0
 40
0.2
100
AcDbArc
 50
109.5709438604876
 51
180.0
  0
ARC
  5
AD037
330
1F
100
AcDbEntity
  8
AM_0
 48
20.0
100
AcDbCircle
 10
67.82773487906867
 20
82.02373367998479
 30
0.0
 40
0.2
100
AcDbArc
 50
109.5709438604876
 51
180.0
  0
ARC
  5
AD038
330
1F
100
AcDbEntity
  8
AM_0
 48
20.0
100
AcDbCircle
 10
67.82773487906867
 20
80.28731467781403
 30
0.0
 40
0.2
100
AcDbArc
 50
180.0
 51
276.0764039902642
  0
ARC
  5
AD039
330
1F
100
AcDbEntity
  8
AM_0
 48
20.0
100
AcDbCircle
 10
67.84501446625705
 20
83.68915413578731
 30
0.0
 40
0.2
100
AcDbArc
 50
174.5339044188202
 51
276.0764039902642
  0
ARC
  5
AD03A
330
1F
100
AcDbEntity
  8
AM_0
 48
20.0
100
AcDbCircle
 10
71.62773487906867
 20
83.32717861382718
 30
0.0
 40
4.0
100
AcDbArc
 50
122.2309526355024
 51
174.5339044188202
  0
ARC
  5
AD03B
330
1F
100
AcDbEntity
  8
AM_0
 48
20.0
100
AcDbCircle
 10
69.77720436845247
 20
89.23976253932465
 30
0.0
 40
3.199999999999999
100
AcDbArc
 50
170.6073263808013
 51
188.1362477914014
  0
ARC
  5
AD03C
330
1F
100
AcDbEntity
  8
AM_0
 48
20.0
100
AcDbCircle
 10
69.77720436844741
 20
89.31564564778824
 30
0.0
 40
4.0
100
AcDbArc
 50
169.640417297237
 51
205.8458953508593
  0
ARC
  5
AD03D
330
1F
100
AcDbEntity
  8
AM_0
 48
20.0
100
AcDbCircle
 10
75.32773487906865
 20
82.66488210804743
 30
0.0
 40
10.0
100
AcDbArc
 50
156.0176751333929
 51
180.0
  0
LINE
  5
AD03E
330
1F
100
AcDbEntity
  8
AM_0
 48
20.0
100
AcDbLine
 10
65.32773487906865
 20
82.66488210804737
 30
0.0
 11
65.32773487906867
 21
78.01691544454133
 31
0.0
  0
ARC
  5
AD03F
330
1F
100
AcDbEntity
  8
AM_0
 48
20.0
100
AcDbCircle
 10
71.2277348790737
 20
83.62878554306888
 30
0.0
 40
5.15
100
AcDbArc
 50
136.3653676085494
 51
180.0
  0
LINE
  5
AD040
330
1F
100
AcDbEntity
  8
AM_0
 48
20.0
100
AcDbLine
 10
67.62773487906867
 20
82.02373367998479
 30
0.0
 11
67.62773487906867
 21
80.28731467781403
 31
0.0
  0
LINE
  5
AD041
330
1F
100
AcDbEntity
  8
AM_0
 48
20.0
100
AcDbLine
 10
67.62773487906867
 20
78.62373367998475
 30
0.0
 11
67.62773487906867
 21
78.01691544454133
 31
0.0
  0
ARC
  5
AD042
330
1F
100
AcDbEntity
  8
AM_0
 48
20.0
100
AcDbCircle
 10
65.27735511037526
 20
87.135884960321
 30
0.0
 40
0.9999999999999943
100
AcDbArc
 50
336.017675133393
 51
25.84589535085568
  0
ARC
  5
AD043
330
1F
100
AcDbEntity
  8
AM_0
 48
20.0
100
AcDbCircle
 10
75.67939577034012
 20
88.23669400131667
 30
0.0
 40
10.0
100
AcDbArc
 50
143.8407468694537
 51
169.640417297237
  0
ARC
  5
AD044
330
1F
100
AcDbEntity
  8
AM_0
 48
20.0
100
AcDbCircle
 10
68.8277348790687
 20
83.62878554306888
 30
0.0
 40
4.349999999999999
100
AcDbArc
 50
0.0
 51
43.63463239145054
  0
ARC
  5
AD045
330
1F
100
AcDbEntity
  8
AM_0
 48
20.0
100
AcDbCircle
 10
64.35870716201893
 20
88.26056368862442
 30
0.0
 40
9.200000000000001
100
AcDbArc
 50
9.392673619198699
 51
35.91763703074393
  0
LINE
  5
AD046
330
1F
100
AcDbEntity
  8
AM_0
 48
20.0
100
AcDbLine
 10
72.20656396585472
 20
80.08843835334653
 30
0.0
 11
70.57007670549658
 21
80.26264677085203
 31
0.0
  0
LINE
  5
AD047
330
1F
100
AcDbEntity
  8
AM_0
 48
20.0
100
AcDbLine
 10
72.29472963616169
 20
78.81217916950908
 30
0.0
 11
70.39374536488266
 21
79.48800314286848
 31
0.0
  0
LINE
  5
AD048
330
1F
100
AcDbEntity
  8
AM_0
 48
20.0
100
AcDbLine
 10
72.18928437866634
 20
83.49027781131979
 30
0.0
 11
70.57007670549658
 21
83.66264677085201
 31
0.0
  0
LINE
  5
AD049
330
1F
100
AcDbEntity
  8
AM_0
 48
20.0
100
AcDbLine
 10
72.29472963616169
 20
82.21217916950905
 30
0.0
 11
70.39374536488266
 21
82.8880031428685
 31
0.0
  0
ARC
  5
AD04A
330
1F
100
AcDbEntity
  8
AM_0
 48
20.0
100
AcDbCircle
 10
68.42773487906868
 20
83.32717861382718
 30
0.0
 40
4.0
100
AcDbArc
 50
5.466095581179821
 51
57.76904736449755
  0
ARC
  5
AD04B
330
1F
100
AcDbEntity
  8
AM_0
 48
20.0
100
AcDbCircle
 10
70.02773487907373
 20
84.7729140095754
 30
0.0
 40
2.691980112341659
100
AcDbArc
 50
43.63463239132904
 51
136.3653676085494
  0
ARC
  5
AD04C
330
1F
100
AcDbEntity
  8
AM_0
 48
20.0
100
AcDbCircle
 10
70.02773487906868
 20
84.7729140095754
 30
0.0
 40
4.091980112341659
100
AcDbArc
 50
57.52896532446693
 51
122.4710346754826
  0
ARC
  5
AD04D
330
1F
100
AcDbEntity
  8
AM_0
 48
20.0
100
AcDbCircle
 10
69.52773487906867
 20
83.2648941219171
 30
0.0
 40
0.3999999999999999
100
AcDbArc
 50
289.5709438604876
 51
96.07640399026436
  0
ARC
  5
AD04E
330
1F
100
AcDbEntity
  8
AM_0
 48
20.0
100
AcDbCircle
 10
69.52773487906867
 20
79.86489412191708
 30
0.0
 40
0.4
100
AcDbArc
 50
289.5709438604876
 51
96.07640399026436
  0
ARC
  5
AD04F
330
1F
100
AcDbEntity
  8
AM_0
 48
20.0
100
AcDbCircle
 10
70.02773487906868
 20
85.86489412191708
 30
0.0
 40
1.0
100
AcDbArc
 50
57.76904736449755
 51
122.2309526355024
  0
LINE
  5
AD050
330
1F
100
AcDbEntity
  8
AM_0
 48
20.0
100
AcDbLine
 10
67.76074012197565
 20
82.21217916950905
 30
0.0
 11
69.66172439325468
 21
82.8880031428685
 31
0.0
  0
LINE
  5
AD051
330
1F
100
AcDbEntity
  8
AM_0
 48
20.0
100
AcDbLine
 10
67.866185379471
 20
83.49027781131979
 30
0.0
 11
69.48539305264077
 21
83.66264677085201
 31
0.0
  0
LINE
  5
AD052
330
1F
100
AcDbEntity
  8
AM_0
 48
20.0
100
AcDbLine
 10
67.76074012197565
 20
78.81217916950908
 30
0.0
 11
69.66172439325468
 21
79.48800314286848
 31
0.0
  0
LINE
  5
AD053
330
1F
100
AcDbEntity
  8
AM_0
 48
20.0
100
AcDbLine
 10
67.84890579228262
 20
80.08843835334653
 30
0.0
 11
69.48539305264077
 21
80.26264677085203
 31
0.0
  0
ARC
  5
AD054
330
1F
100
AcDbEntity
  8
AM_0
 48
20.0
100
AcDbCircle
 10
70.52773487906867
 20
83.2648941219171
 30
0.0
 40
0.3999999999999999
100
AcDbArc
 50
83.92359600973565
 51
250.4290561395122
  0
ARC
  5
AD055
330
1F
100
AcDbEntity
  8
AM_0
 48
20.0
100
AcDbCircle
 10
70.52773487906867
 20
79.86489412191708
 30
0.0
 40
0.4
100
AcDbArc
 50
83.92359600973565
 51
250.4290561395122
  0
ARC
  5
AD056
330
1F
100
AcDbEntity
  8
AM_0
 48
20.0
100
AcDbCircle
 10
70.02773487907373
 20
92.3669154445413
 30
0.0
 40
2.199999999999998
100
AcDbArc
 50
35.91763703071976
 51
144.0823629692561
  0
ARC
  5
AD057
330
1F
100
AcDbEntity
  8
AM_0
 48
20.0
100
AcDbCircle
 10
70.27826538968994
 20
89.23976253932465
 30
0.0
 40
3.199999999999999
100
AcDbArc
 50
351.8637522085986
 51
9.392673619198699
  0
ARC
  5
AD058
330
1F
100
AcDbEntity
  8
AM_0
 48
20.0
100
AcDbCircle
 10
70.27826538968994
 20
89.31564564778824
 30
0.0
 40
4.0
100
AcDbArc
 50
334.1541046491407
 51
10.35958270276293
  0
ARC
  5
AD059
330
1F
100
AcDbEntity
  8
AM_0
 48
20.0
100
AcDbCircle
 10
64.72773487906869
 20
82.66488210804743
 30
0.0
 40
10.0
100
AcDbArc
 50
0.0
 51
23.982324866607
  0
ARC
  5
AD05A
330
1F
100
AcDbEntity
  8
AM_0
 48
20.0
100
AcDbCircle
 10
68.8277348790687
 20
83.62878554306888
 30
0.0
 40
5.15
100
AcDbArc
 50
0.0
 51
43.63463239145054
  0
ARC
  5
AD05B
330
1F
100
AcDbEntity
  8
AM_0
 48
20.0
100
AcDbCircle
 10
72.21045529188029
 20
83.68915413578731
 30
0.0
 40
0.2
100
AcDbArc
 50
263.9235960097356
 51
5.466095581179821
  0
ARC
  5
AD05C
330
1F
100
AcDbEntity
  8
AM_0
 48
20.0
100
AcDbCircle
 10
72.22773487906867
 20
78.62373367998475
 30
0.0
 40
0.2
100
AcDbArc
 50
0.0
 51
70.42905613951238
  0
ARC
  5
AD05D
330
1F
100
AcDbEntity
  8
AM_0
 48
20.0
100
AcDbCircle
 10
72.22773487906867
 20
80.28731467781403
 30
0.0
 40
0.2
100
AcDbArc
 50
263.9235960097356
 51
0.0
  0
ARC
  5
AD05E
330
1F
100
AcDbEntity
  8
AM_0
 48
20.0
100
AcDbCircle
 10
72.22773487906867
 20
82.02373367998479
 30
0.0
 40
0.2
100
AcDbArc
 50
0.0
 51
70.42905613951238
  0
LINE
  5
AD05F
330
1F
100
AcDbEntity
  8
AM_0
 48
20.0
100
AcDbLine
 10
72.42773487906868
 20
82.02373367998479
 30
0.0
 11
72.42773487906868
 21
80.28731467781403
 31
0.0
  0
LINE
  5
AD060
330
1F
100
AcDbEntity
  8
AM_0
 48
20.0
100
AcDbLine
 10
72.42773487906872
 20
78.01691544454133
 30
0.0
 11
72.42773487906868
 21
78.62373367998475
 31
0.0
  0
ARC
  5
AD061
330
1F
100
AcDbEntity
  8
AM_0
 48
20.0
100
AcDbCircle
 10
72.65410775619932
 20
88.90009645403058
 30
0.0
 40
0.8
100
AcDbArc
 50
237.5289653244669
 51
351.8637522085953
  0
ARC
  5
AD062
330
1F
100
AcDbEntity
  8
AM_0
 48
20.0
100
AcDbCircle
 10
74.77811464776208
 20
87.135884960321
 30
0.0
 40
0.9999999999999943
100
AcDbArc
 50
154.1541046491443
 51
203.982324866607
  0
LINE
  5
AD063
330
1F
100
AcDbEntity
  8
AM_0
 48
20.0
100
AcDbLine
 10
74.72773487906869
 20
82.66488210804743
 30
0.0
 11
74.7277348790687
 21
78.01691544454133
 31
0.0
  0
ARC
  5
AD064
330
1F
100
AcDbEntity
  8
AM_0
 48
20.0
100
AcDbCircle
 10
64.37607398779724
 20
88.23669400131667
 30
0.0
 40
10.0
100
AcDbArc
 50
10.35958270276293
 51
36.15925313054624
  0
DIMENSION
  5
AD065
330
1F
100
AcDbEntity
  8
AM_5
 48
20.0
100
AcDbDimension
  2
*D12
 10
74.72773487906869
 20
70.92593518610545
 30
0.0
 11
70.02773487906868
 21
72.55093518610545
 31
0.0
 70
    32
 71
     5
 42
9.400000000000034
  3
S-1／2
100
AcDbAlignedDimension
 13
65.32773487906865
 23
80.34089877629435
 33
0.0
 14
74.72773487906869
 24
80.3408987762944
 34
0.0
100
AcDbRotatedDimension
  0
DIMENSION
  5
AD066
330
1F
100
AcDbEntity
  8
AM_5
 48
20.0
100
AcDbDimension
  2
*D13
 10
83.99065980824161
 20
95.36691544454129
 30
0.0
 11
82.3656598082416
 21
86.1169154445413
 31
0.0
 70
    32
 71
     5
 42
18.5
  3
S-1／2
100
AcDbAlignedDimension
 13
73.5777348790687
 23
76.86691544454129
 33
0.0
 14
70.02773487906868
 24
95.36691544454129
 34
0.0
 50
90.0
100
AcDbRotatedDimension
  0
DIMENSION
  5
AD067
330
1F
100
AcDbEntity
  8
AM_5
 48
20.0
100
AcDbDimension
  2
*D14
 10
74.27826538968992
 20
101.2065575802459
 30
0.0
 11
70.02773487906868
 21
102.8315575802459
 31
0.0
 70
    32
 71
     5
 42
8.501061021242506
  3
S-1／2
100
AcDbAlignedDimension
 13
65.77720436844741
 23
89.31564564778824
 33
0.0
 14
74.27826538968992
 24
89.31564564778824
 34
0.0
100
AcDbRotatedDimension
  0
DIMENSION
  5
AD068
330
1F
100
AcDbEntity
  8
AM_5
 48
20.0
100
AcDbDimension
  2
*D15
 10
80.15072900772839
 20
86.86489412191708
 30
0.0
 11
78.52572900772837
 21
81.86590478322923
 31
0.0
 70
    32
 71
     5
 42
9.997978677375726
  3
S-1／2
100
AcDbAlignedDimension
 13
66.47773487906866
 23
76.86691544454134
 33
0.0
 14
70.02773487906868
 24
86.86489412191708
 34
0.0
 50
90.0
100
AcDbRotatedDimension
  0
DIMENSION
  5
AD069
330
1F
100
AcDbEntity
  8
AM_5
 48
20.0
100
AcDbDimension
  2
*D16
 10
80.15072900772839
 20
95.36691544454129
 30
0.0
 11
78.52572900772837
 21
91.1159047832292
 31
0.0
 70
    32
 71
     5
 42
8.502021322624216
  3
S-1／2
100
AcDbAlignedDimension
 13
70.02773487906868
 23
86.86489412191708
 33
0.0
 14
70.02773487906868
 24
95.36691544454129
 34
0.0
 50
90.0
100
AcDbRotatedDimension
  0
LINE
  5
AD12C
330
1F
100
AcDbEntity
  8
AM_0
 48
20.0
100
AcDbLine
 10
125.8901176573476
 20
34.57258066722855
 30
0.0
 11
118.9343817241865
 21
33.2684490878257
 31
0.0
  0
ARC
  5
AD12D
330
1F
100
AcDbEntity
  8
AM_0
 48
20.0
100
AcDbCircle
 10
118.1696233399135
 20
37.34737598269456
 30
0.0
 40
4.15
100
AcDbArc
 50
118.9423119706606
 51
280.619106943045
  0
LINE
  5
AD12E
330
1F
100
AcDbEntity
  8
AM_0
 48
20.0
100
AcDbLine
 10
119.9124957463602
 20
35.99539693119718
 30
0.0
 11
118.4736839023353
 21
35.72563396425275
 31
0.0
  0
ARC
  5
AD12F
330
1F
100
AcDbEntity
  8
AM_0
 48
20.0
100
AcDbCircle
 10
118.1696233399135
 20
37.34737598269456
 30
0.0
 40
1.65
100
AcDbArc
 50
90.0
 51
280.619106943045
  0
LINE
  5
AD130
330
1F
100
AcDbEntity
  8
AM_0
 48
20.0
100
AcDbLine
 10
118.1696233399135
 20
38.99737598269453
 30
0.0
 11
125.1041816143508
 21
38.99737598269453
 31
0.0
  0
LINE
  5
AD131
330
1F
100
AcDbEntity
  8
AM_0
 48
20.0
100
AcDbLine
 10
127.5124957463603
 20
39.29737598268289
 30
0.0
 11
127.5124957463603
 21
41.697375982696
 31
0.0
  0
LINE
  5
AD132
330
1F
100
AcDbEntity
  8
AM_0
 48
20.0
100
AcDbLine
 10
125.7145170689833
 20
40.64737598269457
 30
0.0
 11
125.7145170689833
 21
39.84737598269456
 31
0.0
  0
ARC
  5
AD133
330
1F
100
AcDbEntity
  8
AM_0
 48
20.0
100
AcDbCircle
 10
126.9124957463617
 20
39.29737598269017
 30
0.0
 40
0.5999999999985448
100
AcDbArc
 50
251.1608030292143
 51
0.0
  0
ARC
  5
AD134
330
1F
100
AcDbEntity
  8
AM_0
 48
20.0
100
AcDbCircle
 10
124.2124957463617
 20
38.59737598269456
 30
0.0
 40
0.4000000000000004
100
AcDbArc
 50
27.17654511257231
 51
198.4855082395584
  0
ARC
  5
AD135
330
1F
100
AcDbEntity
  8
AM_0
 48
20.0
100
AcDbCircle
 10
125.1041816143508
 20
33.99737598269453
 30
0.0
 40
5.0
100
AcDbArc
 50
71.16080302921428
 51
90.0
  0
LINE
  5
AD136
330
1F
100
AcDbEntity
  8
AM_0
 48
20.0
100
AcDbLine
 10
117.4135628759554
 20
41.49537102116769
 30
0.0
 11
126.4114286167679
 21
41.49537102116769
 31
0.0
  0
LINE
  5
AD137
330
1F
100
AcDbEntity
  8
AM_0
 48
20.0
100
AcDbLine
 10
125.911194969196
 20
35.44134324677165
 30
0.0
 11
125.7631538278796
 21
36.22752656866325
 31
0.0
  0
LINE
  5
AD138
330
1F
100
AcDbEntity
  8
AM_0
 48
20.0
100
AcDbLine
 10
126.803800638909
 20
37.28744832878116
 30
0.0
 11
125.5124957463603
 21
37.04534145393822
 31
0.0
  0
ARC
  5
AD139
330
1F
100
AcDbEntity
  8
AM_0
 48
20.0
100
AcDbCircle
 10
126.9124957463602
 20
36.69737598269453
 30
0.0
 40
0.6000000000000015
100
AcDbArc
 50
6.523187194214091
 51
100.8009667419032
  0
ARC
  5
AD13A
330
1F
100
AcDbEntity
  8
AM_0
 48
20.0
100
AcDbCircle
 10
125.5215593998667
 20
36.53832856837013
 30
0.0
 40
2.0
100
AcDbArc
 50
280.619106943045
 51
6.523187194214091
  0
LINE
  5
AD13B
330
1F
100
AcDbEntity
  8
AM_0
 48
20.0
100
AcDbLine
 10
119.9124957463602
 20
35.99539693119718
 30
0.0
 11
119.4242264925853
 21
37.67625831900378
 31
0.0
  0
LINE
  5
AD13C
330
1F
100
AcDbEntity
  8
AM_0
 48
20.0
100
AcDbLine
 10
121.1124957463602
 20
36.2203850432131
 30
0.0
 11
120.159116494394
 21
37.97205438114244
 31
0.0
  0
LINE
  5
AD13D
330
1F
100
AcDbEntity
  8
AM_0
 48
20.0
100
AcDbLine
 10
124.3124957463602
 20
36.8203533419223
 30
0.0
 11
121.1124957463602
 21
36.2203850432131
 31
0.0
  0
LINE
  5
AD13E
330
1F
100
AcDbEntity
  8
AM_0
 48
20.0
100
AcDbLine
 10
124.3124957463602
 20
36.8203533419223
 30
0.0
 11
123.8242264925853
 21
38.5012147297289
 31
0.0
  0
ARC
  5
AD13F
330
1F
100
AcDbEntity
  8
AM_0
 48
20.0
100
AcDbCircle
 10
119.8124957463617
 20
37.77241957196944
 30
0.0
 40
0.4000000000000004
100
AcDbArc
 50
27.17654511257231
 51
198.4855082395584
  0
LINE
  5
AD140
330
1F
100
AcDbEntity
  8
AM_0
 48
20.0
100
AcDbLine
 10
125.5124957463603
 20
37.04534145393822
 30
0.0
 11
124.5591164943939
 21
38.79701079186757
 31
0.0
  0
ARC
  5
AD141
330
1F
100
AcDbEntity
  8
AM_0
 48
20.0
100
AcDbCircle
 10
121.9124957463617
 20
41.697375982696
 30
0.0
 40
5.599999999998543
100
AcDbArc
 50
0.0
 51
39.58189477749627
  0
ARC
  5
AD142
330
1F
100
AcDbEntity
  8
AM_0
 48
20.0
100
AcDbCircle
 10
121.9124957463617
 20
41.697375982696
 30
0.0
 40
4.799999999998543
100
AcDbArc
 50
1.247810218461837
 51
178.7521897815381
  0
ARC
  5
AD143
330
1F
100
AcDbEntity
  8
AM_0
 48
20.0
100
AcDbCircle
 10
126.4114286167679
 20
41.7953710211677
 30
0.0
 40
0.3
100
AcDbArc
 50
270.0
 51
1.247810218461837
  0
ARC
  5
AD144
330
1F
100
AcDbEntity
  8
AM_0
 48
20.0
100
AcDbCircle
 10
117.4135628759554
 20
41.7953710211677
 30
0.0
 40
0.3
100
AcDbArc
 50
178.7521897815381
 51
270.0
  0
LINE
  5
AD145
330
1F
100
AcDbEntity
  8
AM_0
 48
20.0
100
AcDbLine
 10
116.3161403255988
 20
41.49537102116787
 30
0.0
 11
116.3161403255988
 21
41.24160387883259
 31
0.0
  0
ARC
  5
AD146
330
1F
100
AcDbEntity
  8
AM_0
 48
20.0
100
AcDbCircle
 10
116.0161403255988
 20
41.24160387883259
 30
0.0
 40
0.3
100
AcDbArc
 50
298.9423119706606
 51
0.0
  0
ARC
  5
AD147
330
1F
100
AcDbEntity
  8
AM_0
 48
20.0
100
AcDbCircle
 10
117.9319698919091
 20
45.63633700332289
 30
0.0
 40
0.5
100
AcDbArc
 50
42.74201215951391
 51
227.859407534841
  0
ARC
  5
AD148
330
1F
100
AcDbEntity
  8
AM_0
 48
20.0
100
AcDbCircle
 10
125.8930216008143
 20
45.63633700332289
 30
0.0
 40
0.5
100
AcDbArc
 50
312.140592465159
 51
137.257987840486
  0
ARC
  5
AD149
330
1F
100
AcDbEntity
  8
AM_0
 48
20.0
100
AcDbCircle
 10
121.9124957463617
 20
41.697375982696
 30
0.0
 40
5.599999999998543
100
AcDbArc
 50
49.81668552814784
 51
130.1833144718521
  0
ARC
  5
AD14A
330
1F
100
AcDbEntity
  8
AM_0
 48
20.0
100
AcDbCircle
 10
121.9124957463617
 20
41.697375982696
 30
0.0
 40
5.599999999998543
100
AcDbArc
 50
140.4181052225037
 51
182.0672398663843
  0
LINE
  5
AD14B
330
1F
100
AcDbEntity
  8
AM_0
 48
20.0
100
AcDbLine
 10
125.7145170689833
 20
40.64737598269457
 30
0.0
 11
118.1696233399135
 21
40.64737598269457
 31
0.0
  0
LINE
  5
AD14C
330
1F
100
AcDbEntity
  8
AM_0
 48
20.0
100
AcDbLine
 10
118.1696233399135
 20
39.84737598269456
 30
0.0
 11
125.7145170689833
 21
39.84737598269456
 31
0.0
  0
ARC
  5
AD14D
330
1F
100
AcDbEntity
  8
AM_0
 48
20.0
100
AcDbCircle
 10
118.1696233399135
 20
37.34737598269456
 30
0.0
 40
2.5
100
AcDbArc
 50
90.0
 51
280.619106943045
  0
ARC
  5
AD14E
330
1F
100
AcDbEntity
  8
AM_0
 48
20.0
100
AcDbCircle
 10
118.1696233399135
 20
37.34737598269456
 30
0.0
 40
3.3
100
AcDbArc
 50
90.0
 51
280.619106943045
  0
LINE
  5
AD14F
330
1F
100
AcDbEntity
  8
AM_0
 48
20.0
100
AcDbLine
 10
125.7631538278796
 20
36.22752656866325
 30
0.0
 11
118.6303211617647
 21
34.89019110626756
 31
0.0
  0
LINE
  5
AD150
330
1F
100
AcDbEntity
  8
AM_0
 48
20.0
100
AcDbLine
 10
125.911194969196
 20
35.44134324677165
 30
0.0
 11
118.7777444647571
 21
34.10389194581089
 31
0.0
  0
DIMENSION
  5
AD151
330
1F
100
AcDbEntity
  8
AM_5
 48
20.0
100
AcDbDimension
  2
*D17
 10
108.2308024046688
 20
33.19737598269453
 30
0.0
 11
106.6058024046687
 21
37.34637350193113
 31
0.0
 70
    32
  1
8.7
 71
     5
 42
8.297995038473175
  3
S-1／2
100
AcDbAlignedDimension
 13
121.9124957463617
 23
41.49537102116769
 33
0.0
 14
118.1696233399135
 24
33.19737598269453
 34
0.0
 50
90.0
100
AcDbRotatedDimension
1001
ACAD
1000
DSTYLE
1002
{
1070
   271
1070
     1
1002
}
  0
DIMENSION
  5
AD152
330
1F
100
AcDbEntity
  8
AM_5
 48
20.0
100
AcDbDimension
  2
*D18
 10
127.5124957463603
 20
50.19843945351476
 30
0.0
 11
121.9143180359796
 21
51.82343945351476
 31
0.0
 70
    32
 71
     5
 42
11.19635542076142
  3
S-1／2
100
AcDbAlignedDimension
 13
116.3161403255988
 23
41.36848745000023
 33
0.0
 14
127.5124957463603
 24
40.49737598268942
 34
0.0
100
AcDbRotatedDimension
1001
ACAD
1000
DSTYLE
1002
{
1070
   271
1070
     0
1002
}
  0
LINE
  5
AD489
330
1F
100
AcDbEntity
  8
AM_0
 62
     0
 48
20.0
100
AcDbLine
 10
69.75591623316475
 20
41.68139434649421
 30
0.0
 11
71.33430745598642
 21
41.84941828642988
 31
0.0
  0
ARC
  5
AD48A
330
1F
100
AcDbEntity
  8
AM_0
 62
     0
 48
20.0
100
AcDbCircle
 10
73.47664928241764
 20
41.51395012940267
 30
0.0
 40
3.899999999999995
100
AcDbArc
 50
122.230952635444
 51
175.1569208253241
  0
ARC
  5
AD48B
330
1F
100
AcDbEntity
  8
AM_0
 62
     0
 48
20.0
100
AcDbCircle
 10
71.87664928241909
 20
42.95968552515043
 30
0.0
 40
2.841980112341659
100
AcDbArc
 50
43.63463239157597
 51
136.365367608424
  0
ARC
  5
AD48C
330
1F
100
AcDbEntity
  8
AM_0
 62
     0
 48
20.0
100
AcDbCircle
 10
71.87664928241909
 20
42.95968552515043
 30
0.0
 40
3.341980112341659
100
AcDbArc
 50
43.63463239157597
 51
136.365367608424
  0
LINE
  5
AD48D
330
1F
100
AcDbEntity
  8
AM_0
 62
     0
 48
20.0
100
AcDbLine
 10
69.67640321459956
 20
35.82268068910273
 30
0.0
 11
71.51063879660549
 21
36.47477465844642
 31
0.0
  0
LINE
  5
AD48E
330
1F
100
AcDbEntity
  8
AM_0
 62
     0
 48
20.0
100
AcDbLine
 10
69.74252746732716
 20
37.07996907679555
 30
0.0
 11
71.33430745598642
 21
37.24941828643134
 31
0.0
  0
LINE
  5
AD48F
330
1F
100
AcDbEntity
  8
AM_0
 62
     0
 48
20.0
100
AcDbLine
 10
71.51063879660549
 20
41.07477465844496
 30
0.0
 11
69.67640321459956
 21
40.42268068910854
 31
0.0
  0
LINE
  5
AD490
330
1F
100
AcDbEntity
  8
AM_0
 62
     0
 48
20.0
100
AcDbLine
 10
68.57664928241618
 20
41.81555705864522
 30
0.0
 11
68.57664928241618
 21
35.75166563749301
 31
0.0
  0
LINE
  5
AD491
330
1F
100
AcDbEntity
  8
AM_0
 62
     0
 48
20.0
100
AcDbLine
 10
68.07664928241618
 20
35.75166563749301
 30
0.0
 11
68.07664928241618
 21
41.81555705864522
 31
0.0
  0
LINE
  5
AD492
330
1F
100
AcDbEntity
  8
AM_0
 62
     0
 48
20.0
100
AcDbLine
 10
67.08362244067146
 20
36.21128693332068
 30
0.0
 11
67.08362244067146
 21
41.85918337612313
 31
0.0
  0
ARC
  5
AD493
330
1F
100
AcDbEntity
  8
AM_0
 62
     0
 48
20.0
100
AcDbCircle
 10
69.17664928241473
 20
36.04029383484814
 30
0.0
 40
2.1
100
AcDbArc
 50
175.3295041384502
 51
262.3377443393658
  0
LINE
  5
AD494
330
1F
100
AcDbEntity
  8
AM_0
 62
     0
 48
20.0
100
AcDbLine
 10
68.07664928241618
 20
35.75166563749301
 30
0.0
 11
68.57664928241618
 21
35.75166563749301
 31
0.0
  0
ARC
  5
AD495
330
1F
100
AcDbEntity
  8
AM_0
 62
     0
 48
20.0
100
AcDbCircle
 10
69.72664928241764
 20
37.22912632014706
 30
0.0
 40
0.15
100
AcDbArc
 50
180.0
 51
276.0764039903149
  0
ARC
  5
AD496
330
1F
100
AcDbEntity
  8
AM_0
 62
     0
 48
20.0
100
AcDbCircle
 10
68.97664928241764
 20
34.5536869601194
 30
0.0
 40
0.6000000000000015
100
AcDbArc
 50
262.3377443393658
 51
0.0
  0
LINE
  5
AD497
330
1F
100
AcDbEntity
  8
AM_0
 62
     0
 48
20.0
100
AcDbLine
 10
69.57664928241618
 20
35.68134657195989
 30
0.0
 11
69.57664928241618
 21
34.5536869601194
 31
0.0
  0
LINE
  5
AD498
330
1F
100
AcDbEntity
  8
AM_0
 62
     0
 48
20.0
100
AcDbLine
 10
69.57664928241618
 20
40.28134657196571
 30
0.0
 11
69.57664928241618
 21
37.22912632014706
 31
0.0
  0
ARC
  5
AD499
330
1F
100
AcDbEntity
  8
AM_0
 62
     0
 48
20.0
100
AcDbCircle
 10
69.72664928241764
 20
40.28134657196571
 30
0.0
 40
0.15
100
AcDbArc
 50
109.5709438604949
 51
180.0
  0
ARC
  5
AD49A
330
1F
100
AcDbEntity
  8
AM_0
 62
     0
 48
20.0
100
AcDbCircle
 10
69.72664928241764
 20
35.68134657195989
 30
0.0
 40
0.15
100
AcDbArc
 50
109.5709438604949
 51
180.0
  0
ARC
  5
AD49B
330
1F
100
AcDbEntity
  8
AM_0
 62
     0
 48
20.0
100
AcDbCircle
 10
72.58362244067146
 20
41.85918337612313
 30
0.0
 40
5.5
100
AcDbArc
 50
122.7170790312983
 51
180.0
  0
ARC
  5
AD49C
330
1F
100
AcDbEntity
  8
AM_0
 62
     0
 48
20.0
100
AcDbCircle
 10
73.07664928241618
 20
41.81555705864522
 30
0.0
 40
4.5
100
AcDbArc
 50
136.365367608424
 51
180.0
  0
ARC
  5
AD49D
330
1F
100
AcDbEntity
  8
AM_0
 62
     0
 48
20.0
100
AcDbCircle
 10
73.07664928241618
 20
41.81555705864522
 30
0.0
 40
5.0
100
AcDbArc
 50
136.365367608424
 51
180.0
  0
ARC
  5
AD49E
330
1F
100
AcDbEntity
  8
AM_0
 62
     0
 48
20.0
100
AcDbCircle
 10
69.74003804825523
 20
41.83055158984572
 30
0.0
 40
0.15
100
AcDbArc
 50
175.1569208253241
 51
276.0764039903149
  0
ARC
  5
AD49F
330
1F
100
AcDbEntity
  8
AM_0
 62
     0
 48
20.0
100
AcDbCircle
 10
71.87664928241909
 20
42.95968552515043
 30
0.0
 40
4.191980112341659
100
AcDbArc
 50
57.28292096870166
 51
122.7170790312983
  0
ARC
  5
AD4A0
330
1F
100
AcDbEntity
  8
AM_0
 62
     0
 48
20.0
100
AcDbCircle
 10
72.37664928241909
 20
41.45166563749009
 30
0.0
 40
0.3999999999999999
100
AcDbArc
 50
83.92359600968507
 51
250.4290561395051
  0
ARC
  5
AD4A1
330
1F
100
AcDbEntity
  8
AM_0
 62
     0
 48
20.0
100
AcDbCircle
 10
71.3766492824191
 20
41.45166563749009
 30
0.0
 40
0.3999999999999999
100
AcDbArc
 50
289.5709438604949
 51
96.07640399031492
  0
LINE
  5
AD4A2
330
1F
100
AcDbEntity
  8
AM_0
 62
     0
 48
20.0
100
AcDbLine
 10
76.66967612416673
 20
36.21128693332068
 30
0.0
 11
76.66967612416673
 21
41.85918337612313
 31
0.0
  0
LINE
  5
AD4A3
330
1F
100
AcDbEntity
  8
AM_0
 62
     0
 48
20.0
100
AcDbLine
 10
75.67664928241473
 20
35.75166563749301
 30
0.0
 11
75.67664928241473
 21
41.81555705864522
 31
0.0
  0
LINE
  5
AD4A4
330
1F
100
AcDbEntity
  8
AM_0
 62
     0
 48
20.0
100
AcDbLine
 10
75.17664928241472
 20
41.81555705864522
 30
0.0
 11
75.17664928241472
 21
35.75166563749301
 31
0.0
  0
ARC
  5
AD4A5
330
1F
100
AcDbEntity
  8
AM_0
 62
     0
 48
20.0
100
AcDbCircle
 10
74.77664928241328
 20
34.5536869601194
 30
0.0
 40
0.6000000000000015
100
AcDbArc
 50
180.0
 51
277.6622556606342
  0
LINE
  5
AD4A6
330
1F
100
AcDbEntity
  8
AM_0
 62
     0
 48
20.0
100
AcDbLine
 10
74.01077109750374
 20
37.07996907679555
 30
0.0
 11
72.4189911088445
 21
37.24941828643134
 31
0.0
  0
LINE
  5
AD4A7
330
1F
100
AcDbEntity
  8
AM_0
 62
     0
 48
20.0
100
AcDbLine
 10
74.07689535023862
 20
35.82268068910273
 30
0.0
 11
72.2426597682327
 21
36.47477465844642
 31
0.0
  0
LINE
  5
AD4A8
330
1F
100
AcDbEntity
  8
AM_0
 62
     0
 48
20.0
100
AcDbLine
 10
74.07689535023862
 20
40.42268068910854
 30
0.0
 11
72.2426597682327
 21
41.07477465844496
 31
0.0
  0
ARC
  5
AD4A9
330
1F
100
AcDbEntity
  8
AM_0
 62
     0
 48
20.0
100
AcDbCircle
 10
71.3766492824191
 20
36.85166563749155
 30
0.0
 40
0.4
100
AcDbArc
 50
289.5709438604949
 51
96.07640399031492
  0
ARC
  5
AD4AA
330
1F
100
AcDbEntity
  8
AM_0
 62
     0
 48
20.0
100
AcDbCircle
 10
72.37664928241909
 20
36.85166563749155
 30
0.0
 40
0.4
100
AcDbArc
 50
83.92359600968507
 51
250.4290561395051
  0
LINE
  5
AD4AB
330
1F
100
AcDbEntity
  8
AM_0
 62
     0
 48
20.0
100
AcDbLine
 10
74.17664928241473
 20
35.68134657195989
 30
0.0
 11
74.17664928241473
 21
34.5536869601194
 31
0.0
  0
ARC
  5
AD4AC
330
1F
100
AcDbEntity
  8
AM_0
 62
     0
 48
20.0
100
AcDbCircle
 10
74.02664928241327
 20
40.28134657196571
 30
0.0
 40
0.15
100
AcDbArc
 50
0.0
 51
70.42905613950505
  0
LINE
  5
AD4AD
330
1F
100
AcDbEntity
  8
AM_0
 62
     0
 48
20.0
100
AcDbLine
 10
74.17664928241473
 20
40.28134657196571
 30
0.0
 11
74.17664928241473
 21
37.22912632014706
 31
0.0
  0
ARC
  5
AD4AE
330
1F
100
AcDbEntity
  8
AM_0
 62
     0
 48
20.0
100
AcDbCircle
 10
74.02664928241327
 20
35.68134657195989
 30
0.0
 40
0.15
100
AcDbArc
 50
0.0
 51
70.42905613950505
  0
ARC
  5
AD4AF
330
1F
100
AcDbEntity
  8
AM_0
 62
     0
 48
20.0
100
AcDbCircle
 10
74.02664928241327
 20
37.22912632014706
 30
0.0
 40
0.15
100
AcDbArc
 50
263.9235960096851
 51
0.0
  0
ARC
  5
AD4B0
330
1F
100
AcDbEntity
  8
AM_0
 62
     0
 48
20.0
100
AcDbCircle
 10
74.57664928241618
 20
36.04029383484814
 30
0.0
 40
2.1
100
AcDbArc
 50
277.6622556606342
 51
4.670495861549775
  0
LINE
  5
AD4B1
330
1F
100
AcDbEntity
  8
AM_0
 62
     0
 48
20.0
100
AcDbLine
 10
75.67664928241473
 20
35.75166563749301
 30
0.0
 11
75.17664928241472
 21
35.75166563749301
 31
0.0
  0
ARC
  5
AD4B2
330
1F
100
AcDbEntity
  8
AM_0
 62
     0
 48
20.0
100
AcDbCircle
 10
70.67664928241473
 20
41.81555705864522
 30
0.0
 40
5.0
100
AcDbArc
 50
0.0
 51
43.63463239157597
  0
ARC
  5
AD4B3
330
1F
100
AcDbEntity
  8
AM_0
 62
     0
 48
20.0
100
AcDbCircle
 10
70.67664928241473
 20
41.81555705864522
 30
0.0
 40
4.5
100
AcDbArc
 50
0.0
 51
43.63463239157597
  0
ARC
  5
AD4B4
330
1F
100
AcDbEntity
  8
AM_0
 62
     0
 48
20.0
100
AcDbCircle
 10
71.16967612416672
 20
41.85918337612313
 30
0.0
 40
5.5
100
AcDbArc
 50
0.0
 51
57.28292096870166
  0
ARC
  5
AD4B5
330
1F
100
AcDbEntity
  8
AM_0
 62
     0
 48
20.0
100
AcDbCircle
 10
70.27664928242055
 20
41.51395012940267
 30
0.0
 40
3.899999999999995
100
AcDbArc
 50
4.843079174675819
 51
57.76904736455599
  0
LINE
  5
AD4B6
330
1F
100
AcDbEntity
  8
AM_0
 62
     0
 48
20.0
100
AcDbLine
 10
73.99738233166615
 20
41.68139434649421
 30
0.0
 11
72.4189911088445
 21
41.84941828642988
 31
0.0
  0
ARC
  5
AD4B7
330
1F
100
AcDbEntity
  8
AM_0
 62
     0
 48
20.0
100
AcDbCircle
 10
71.87664928241909
 20
44.05166563749591
 30
0.0
 40
0.8999999999999964
100
AcDbArc
 50
57.76904736455599
 51
122.230952635444
  0
ARC
  5
AD4B8
330
1F
100
AcDbEntity
  8
AM_0
 62
     0
 48
20.0
100
AcDbCircle
 10
74.01326051657568
 20
41.83055158984572
 30
0.0
 40
0.15
100
AcDbArc
 50
263.9235960096851
 51
4.843079174675819
  0
DIMENSION
  5
AD4B9
330
1F
100
AcDbEntity
  8
AM_5
 62
     0
 48
20.0
100
AcDbDimension
  2
*D19
 10
74.17664928241473
 20
28.33555414507373
 30
0.0
 11
71.87664928241545
 21
29.96055414507373
 31
0.0
 70
    32
 71
     5
 42
4.599999999998544
  3
S-1／2
100
AcDbAlignedDimension
 13
69.57664928241618
 23
35.11751676603964
 33
0.0
 14
74.17664928241473
 24
35.11751676603964
 34
0.0
100
AcDbRotatedDimension
  0
DIMENSION
  5
AD4BA
330
1F
100
AcDbEntity
  8
AM_5
 48
20.0
100
AcDbDimension
  2
*D20
 10
76.66967612416673
 20
52.37105556656252
 30
0.0
 11
71.87664928241909
 21
53.99605556656251
 31
0.0
 70
    32
 71
     5
 42
9.586053683495265
  3
S-1／2
100
AcDbAlignedDimension
 13
67.08362244067146
 23
41.80003463872935
 33
0.0
 14
76.66967612416673
 24
41.80003463872935
 34
0.0
100
AcDbRotatedDimension
1001
ACAD
1000
DSTYLE
1002
{
1070
   271
1070
     1
1002
}
  0
DIMENSION
  5
AD4BB
330
1F
100
AcDbEntity
  8
AM_5
 48
20.0
100
AcDbDimension
  2
*D21
 10
60.97282725488458
 20
33.95368696011357
 30
0.0
 11
59.34782725488457
 21
40.55267629880402
 31
0.0
 70
    32
 71
     5
 42
13.19797867738089
  3
S-1／2
100
AcDbAlignedDimension
 13
71.87664928241909
 23
47.15166563749446
 33
0.0
 14
68.97664928241764
 24
33.95368696011357
 34
0.0
 50
90.0
100
AcDbRotatedDimension
  0
MTEXT
  5
ADA4D
330
1F
100
AcDbEntity
  8
AM_6
 62
     2
100
AcDbMText
 10
66.89368369947397
 20
108.3837725525957
 30
0.0
 40
1.75
 41
0.0
 71
     7
 72
     1
  1
EBHR-06
 73
     1
 44
1.0
1001
ACAD
1000
MTEXTBEGIN
1070
    73
1070
     1
1070
    44
1040
1.0
1070
    74
1070
     0
1000
MTEXTEND
  0
LINE
  5
ADA4E
330
1F
100
AcDbEntity
  8
AM_6
100
AcDbLine
 10
66.48386746271126
 20
107.6404298060088
 30
0.0
 11
74.70307319370022
 21
107.6404298060088
 31
0.0
  0
MTEXT
  5
ADA51
330
1F
100
AcDbEntity
  8
AM_6
 62
     2
100
AcDbMText
 10
117.2772675718756
 20
108.3837725525957
 30
0.0
 40
1.75
 41
0.0
 71
     7
 72
     1
  1
EBHR-07
 73
     1
 44
1.0
1001
ACAD
1000
MTEXTBEGIN
1070
    73
1070
     1
1070
    44
1040
1.0
1070
    74
1070
     0
1000
MTEXTEND
  0
LINE
  5
ADA52
330
1F
100
AcDbEntity
  8
AM_6
100
AcDbLine
 10
116.8674513351129
 20
107.6404298060088
 30
0.0
 11
125.0866570661019
 21
107.6404298060088
 31
0.0
  0
MTEXT
  5
ADA53
330
1F
100
AcDbEntity
  8
AM_6
 62
     2
100
AcDbMText
 10
166.280988203584
 20
108.3837725525957
 30
0.0
 40
1.75
 41
0.0
 71
     7
 72
     1
  1
EBHR-08
 73
     1
 44
1.0
1001
ACAD
1000
MTEXTBEGIN
1070
    73
1070
     1
1070
    44
1040
1.0
1070
    74
1070
     0
1000
MTEXTEND
  0
LINE
  5
ADA54
330
1F
100
AcDbEntity
  8
AM_6
100
AcDbLine
 10
165.8711719668213
 20
107.6404298060088
 30
0.0
 11
174.0903776978102
 21
107.6404298060088
 31
0.0
  0
MTEXT
  5
ADA55
330
1F
100
AcDbEntity
  8
AM_6
 62
     2
100
AcDbMText
 10
66.89368369947397
 20
59.29530832277703
 30
0.0
 40
1.75
 41
0.0
 71
     7
 72
     1
  1
EBHR-09
 73
     1
 44
1.0
1001
ACAD
1000
MTEXTBEGIN
1070
    73
1070
     1
1070
    44
1040
1.0
1070
    74
1070
     0
1000
MTEXTEND
  0
LINE
  5
ADA56
330
1F
100
AcDbEntity
  8
AM_6
100
AcDbLine
 10
66.48386746271126
 20
58.55196557619013
 30
0.0
 11
74.70307319370022
 21
58.55196557619013
 31
0.0
  0
MTEXT
  5
ADA57
330
1F
100
AcDbEntity
  8
AM_6
 62
     2
100
AcDbMText
 10
117.2772675718756
 20
57.95674226206063
 30
0.0
 40
1.75
 41
0.0
 71
     7
 72
     1
  1
EBHR-13
 73
     1
 44
1.0
1001
ACAD
1000
MTEXTBEGIN
1070
    73
1070
     1
1070
    44
1040
1.0
1070
    74
1070
     0
1000
MTEXTEND
  0
LINE
  5
ADA58
330
1F
100
AcDbEntity
  8
AM_6
100
AcDbLine
 10
116.8674513351129
 20
57.21339951547372
 30
0.0
 11
125.0866570661019
 21
57.21339951547372
 31
0.0
  0
MTEXT
  5
ADC36
330
1F
100
AcDbEntity
  8
AM_6
100
AcDbMText
 10
16.49999999999986
 20
126.0000000000073
 30
0.0
 40
1.6
 41
10.0
 71
     5
 72
     5
  1
色　調
 73
     1
 44
1.0
1001
ACAD
1000
MTEXTBEGIN
1070
    73
1070
     1
1070
    44
1040
1.0
1070
    74
1070
     0
1000
MTEXTEND
  0
MTEXT
  5
ADC37
330
1F
100
AcDbEntity
  8
AM_6
100
AcDbMText
 10
21.49999999999987
 20
118.4384481601683
 30
0.0
 40
1.6
 41
35.0
 71
     4
 72
     5
  1
　ブラック\P　グレー\P　パステルブルー\P　パステルレッド\P　パステルオレンジ\P　パステルパープル\P　シリ光ーン（蓄光）
 73
     1
 44
1.0
1001
ACAD
1000
MTEXTBEGIN
1070
    73
1070
     1
1070
    44
1040
1.0
1070
    74
1070
     0
1000
MTEXTEND
1000
ACAD_MTEXT_DEFINED_HEIGHT_BEGIN
1070
    46
1040
21.6
1000
ACAD_MTEXT_DEFINED_HEIGHT_END
  0
ENDSEC
  0
SECTION
  2
OBJECTS
  0
DICTIONARY
  5
C
330
0
100
AcDbDictionary
281
     1
  3
ACAD_2007HEADERVARS_RT
350
ADD19
  3
ACAD_BGPLOT_KEY
350
AB06
  3
ACAD_CIP_PREVIOUS_PRODUCT_INFO
350
AB488
  3
ACAD_COLOR
350
A91D
  3
ACAD_DETAILVIEWSTYLE
350
AB273
  3
ACAD_GROUP
350
D
  3
ACAD_LAYOUT
350
1A
  3
ACAD_MATERIAL
350
A91C
  3
ACAD_MLEADERSTYLE
350
AB26F
  3
ACAD_MLINESTYLE
350
17
  3
ACAD_PLOTSETTINGS
350
19
  3
ACAD_PLOTSTYLENAME
350
E
  3
ACAD_SCALELIST
350
AB25D
  3
ACAD_SECTIONVIEWSTYLE
350
AB271
  3
ACAD_TABLESTYLE
350
AAB9
  3
ACAD_VISUALSTYLE
350
B0F1
  3
AcAsAppObject
350
3DA1
  3
ACASGREF_MASTER
350
3DE9
  3
ACDB_RECOMPOSE_DATA
350
ADD17
  3
AcDbVariableDictionary
350
34
  3
AcDsDecomposeData
350
ADD20
  3
AcmDictionary
350
47
  3
AD_GREF_MODULE
350
3DEA
  3
AD_MAPI_MODULE
350
3E06
  3
AMG
350
2B
  3
AMGSNAPSETTINGS
350
7D
  3
ASE_INDEX_DICTIONARY
350
AA8D8
  3
DWGPROPS
350
ADD18
  3
MAPISURF_MODULE
350
3DEB
  0
DICTIONARY
  5
3F95
330
2
100
AcDbDictionary
280
     1
281
     1
  3
ACAD_LAYERFILTERS
360
B466
  3
ACAD_LAYERSTATES
360
3F96
  3
ACLYDICTIONARY
360
B465
  3
AMLAYER_GROUPCOLORS
360
AAB4
  0
DICTIONARY
  5
AB489
330
10
100
AcDbDictionary
280
     1
281
     1
  3
ADSK_XREC_LAYER_RECONCILED
360
AB48A
  0
DICTIONARY
  5
AB491
330
ACA1
100
AcDbDictionary
280
     1
281
     1
  3
ADSK_XREC_LAYER_RECONCILED
360
AB492
  0
DICTIONARY
  5
AB502
330
AB501
100
AcDbDictionary
280
     1
281
     1
  0
DICTIONARY
  5
AB504
330
AB503
100
AcDbDictionary
280
     1
281
     1
  0
DICTIONARY
  5
AB506
330
AB505
100
AcDbDictionary
280
     1
281
     1
  0
DICTIONARY
  5
AB508
330
AB507
100
AcDbDictionary
280
     1
281
     1
  0
DICTIONARY
  5
AB50A
330
AB509
100
AcDbDictionary
280
     1
281
     1
  0
DICTIONARY
  5
AB50C
330
AB50B
100
AcDbDictionary
280
     1
281
     1
  0
DICTIONARY
  5
AB50E
330
AB50D
100
AcDbDictionary
280
     1
281
     1
  0
DICTIONARY
  5
AB510
330
AB50F
100
AcDbDictionary
280
     1
281
     1
  0
DICTIONARY
  5
AB512
330
AB511
100
AcDbDictionary
280
     1
281
     1
  0
DICTIONARY
  5
AB514
330
AB513
100
AcDbDictionary
280
     1
281
     1
  0
DICTIONARY
  5
AB516
330
AB515
100
AcDbDictionary
280
     1
281
     1
  0
DICTIONARY
  5
AB518
330
AB517
100
AcDbDictionary
280
     1
281
     1
  0
DICTIONARY
  5
AB51A
330
AB519
100
AcDbDictionary
280
     1
281
     1
  0
DICTIONARY
  5
AB51C
330
AB51B
100
AcDbDictionary
280
     1
281
     1
  0
DICTIONARY
  5
AB51E
330
AB51D
100
AcDbDictionary
280
     1
281
     1
  0
DICTIONARY
  5
AB520
330
AB51F
100
AcDbDictionary
280
     1
281
     1
  0
DICTIONARY
  5
8A
330
1F
100
AcDbDictionary
280
     1
281
     1
  3
ACAD_SORTENTS
360
B1BA
  0
DICTIONARY
  5
ADD19
102
{ACAD_REACTORS
330
C
102
}
330
C
100
AcDbDictionary
281
     1
  3
DIMARCSYM
350
ADD1A
  0
DICTIONARY
  5
AB06
102
{ACAD_REACTORS
330
C
102
}
330
C
100
AcDbDictionary
280
     1
281
     1
  0
XRECORD
  5
AB488
102
{ACAD_REACTORS
330
C
102
}
330
C
100
AcDbXrecord
280
     1
300
ACDLT
300
2013
300
ACDLT_F_S
  0
DICTIONARY
  5
A91D
102
{ACAD_REACTORS
330
C
102
}
330
C
100
AcDbDictionary
281
     1
  0
DICTIONARY
  5
AB273
102
{ACAD_REACTORS
330
C
102
}
330
C
100
AcDbDictionary
281
     1
  3
Metric50
350
AB274
  0
DICTIONARY
  5
D
102
{ACAD_REACTORS
330
C
102
}
330
C
100
AcDbDictionary
281
     1
  0
DICTIONARY
  5
1A
102
{ACAD_REACTORS
330
C
102
}
330
C
100
AcDbDictionary
281
     1
  3
Model
350
22
  3
ﾚｲｱｳﾄ1
350
1E
  3
ﾚｲｱｳﾄ2
350
26
  0
DICTIONARY
  5
A91C
102
{ACAD_REACTORS
330
C
102
}
330
C
100
AcDbDictionary
281
     1
  3
ByBlock
350
B0EF
  3
ByLayer
350
B0EE
  3
Global
350
B0F0
  0
DICTIONARY
  5
AB26F
102
{ACAD_REACTORS
330
C
102
}
330
C
100
AcDbDictionary
281
     1
  3
Standard
350
AB270
  0
DICTIONARY
  5
17
102
{ACAD_REACTORS
330
C
102
}
330
C
100
AcDbDictionary
281
     1
  3
Standard
350
18
  0
DICTIONARY
  5
19
102
{ACAD_REACTORS
330
C
102
}
330
C
100
AcDbDictionary
281
     1
  0
ACDBDICTIONARYWDFLT
  5
E
102
{ACAD_REACTORS
330
C
102
}
330
C
100
AcDbDictionary
281
     1
  3
Normal
350
F
100
AcDbDictionaryWithDefault
340
F
  0
DICTIONARY
  5
AB25D
102
{ACAD_REACTORS
330
C
102
}
330
C
100
AcDbDictionary
281
     1
  3
A0
350
AB25E
  3
A1
350
AB25F
  3
A2
350
AB260
  3
A3
350
AB261
  3
A4
350
AB262
  3
A5
350
AB263
  3
A6
350
AB264
  3
A7
350
AB265
  3
A8
350
AB266
  3
A9
350
AB267
  3
B0
350
AB268
  3
B1
350
AB269
  3
B2
350
AB26A
  3
B3
350
AB26B
  3
B4
350
AB26C
  3
B5
350
AB26D
  3
B6
350
AB26E
  0
DICTIONARY
  5
AB271
102
{ACAD_REACTORS
330
C
102
}
330
C
100
AcDbDictionary
281
     1
  3
Metric50
350
AB272
  0
DICTIONARY
  5
AAB9
102
{ACAD_REACTORS
330
C
102
}
330
C
100
AcDbDictionary
281
     1
  3
Standard
350
AABA
  0
DICTIONARY
  5
B0F1
102
{ACAD_REACTORS
330
C
102
}
330
C
100
AcDbDictionary
281
     1
  3
2dWireframe
350
B0F7
  3
3D Hidden
350
B0F9
  3
3dWireframe
350
B0F8
  3
Basic
350
B0F6
  3
Brighten
350
B0FD
  3
ColorChange
350
B101
  3
Conceptual
350
B0FA
  3
Dim
350
B0FC
  3
EdgeColorOff
350
AB25C
  3
Facepattern
350
B100
  3
Flat
350
B0F2
  3
FlatWithEdges
350
B0F3
  3
Gouraud
350
B0F4
  3
GouraudWithEdges
350
B0F5
  3
Hidden
350
AB254
  3
JitterOff
350
AB25A
  3
Linepattern
350
B0FF
  3
OverhangOff
350
AB25B
  3
Realistic
350
B0FB
  3
Shaded
350
AB259
  3
Shaded with edges
350
AB258
  3
Shades of Gray
350
AB255
  3
Sketchy
350
AB256
  3
Thicken
350
B0FE
  3
Wireframe
350
AB253
  3
X-Ray
350
AB257
  0
ACAD_PROXY_OBJECT
  5
3DA1
102
{ACAD_REACTORS
330
C
102
}
330
C
100
AcDbProxyObject
 90
      499
 91
      576
 95
   917527
 70
     0
 93
       10
310
404C
 94
        0
1001
ACAD
1000
AcRTDxfName
1000
ASAPP
1000
AcRTDxfName
1000
ASAPP
  0
ACAD_PROXY_OBJECT
  5
3DE9
102
{ACAD_REACTORS
330
C
102
}
330
C
100
AcDbProxyObject
 90
      499
 91
      581
 95
   917527
 70
     0
 93
       34
310
010000404C
 94
        0
1001
ACAD
1000
AcRTDxfName
1000
ACASGREFMASTER
1000
AcRTDxfName
1000
ACASGREFMASTER
  0
XRECORD
  5
ADD17
102
{ACAD_REACTORS
330
C
102
}
330
C
100
AcDbXrecord
280
     1
 90
        1
330
AABA
  0
DICTIONARY
  5
34
102
{ACAD_REACTORS
330
C
102
}
330
C
100
AcDbDictionary
281
     1
  3
CANNOSCALE
350
AB68F
  3
CMLEADERSTYLE
350
AB68B
  3
CTABLESTYLE
350
AAF3
  3
CVIEWDETAILSTYLE
350
AB68C
  3
CVIEWSECTIONSTYLE
350
AB68D
  3
DIMASSOC
350
A10C
  3
FIELDEVAL
350
AB07
  3
INDEXCTL
350
35
  3
LAYEREVAL
350
AB691
  3
LAYERNOTIFY
350
AB692
  3
LIGHTINGUNITS
350
AB690
  3
MSLTSCALE
350
AB68E
  3
SORTENTS
350
194C
  3
XCLIPFRAME
350
ADD14
  0
DICTIONARY
  5
ADD20
102
{ACAD_REACTORS
330
C
102
}
330
C
100
AcDbDictionary
281
     1
  3
AcDsRecords
350
ADD22
  3
AcDsSchemas
350
ADD21
1001
ACAD
1070
     2
  0
DICTIONARY
  5
47
102
{ACAD_REACTORS
330
C
102
}
330
C
100
AcDbDictionary
281
     1
  3
AcmBOM
350
7E8
  3
AcmStdDictionary
350
4C
  3
AMDTSECTSYM_ARROWCOLOR
350
A929
  0
ACAD_PROXY_OBJECT
  5
3DEA
102
{ACAD_REACTORS
330
C
102
}
330
C
100
AcDbProxyObject
 90
      499
 91
      582
 95
   917527
 70
     0
 93
      114
310
00000043800000000000000000000C
 94
        0
1001
ACAD
1000
AcRTDxfName
1000
ACADGREFMODULE
1000
AcRTDxfName
1000
ACADGREFMODULE
  0
ACAD_PROXY_OBJECT
  5
3E06
102
{ACAD_REACTORS
330
C
102
}
330
C
100
AcDbProxyObject
 90
      499
 91
      594
 95
   917527
 70
     0
 93
       34
310
05000044CC
 94
        0
1001
ACAD
1000
AcRTDxfName
1000
MAPIADMODULE
1000
AcRTDxfName
1000
MAPIADMODULE
  0
DICTIONARY
  5
2B
102
{ACAD_REACTORS
330
C
102
}
330
C
100
AcDbDictionary
281
     1
  0
DICTIONARY
  5
7D
102
{ACAD_REACTORS
330
C
102
}
330
C
100
AcDbDictionary
281
     1
  0
DICTIONARY
  5
AA8D8
102
{ACAD_REACTORS
330
C
102
}
330
C
100
AcDbDictionary
281
     1
  3
ASEBlockHierarchyIndexRecord
350
AA8D9
1001
DCO15
1040
1749812023.093
  0
XRECORD
  5
ADD18
102
{ACAD_REACTORS
330
C
102
}
330
C
100
AcDbXrecord
280
     1
  1
DWGPROPS COOKIE
  2

  3

  4

  6

  7

  8
LT2013
  9

300
AmdtFileType=84
301
=
302
=
303
=
304
=
305
=
306
=
307
=
308
=
309
=
 40
3.329201701388889
 41
2455567.561054317
 42
2457198.489137291
  1

 90
        1
  0
ACAD_PROXY_OBJECT
  5
3DEB
102
{ACAD_REACTORS
330
C
102
}
330
C
100
AcDbProxyObject
 90
      499
 91
      583
 95
   917527
 70
     0
 93
        8
310
047E
 94
        0
1001
ACAD
1000
AcRTDxfName
1000
AMDTMAPISURFMOUDULE
1000
AcRTDxfName
1000
AMDTMAPISURFMOUDULE
  0
DICTIONARY
  5
B466
102
{ACAD_REACTORS
330
3F95
102
}
330
3F95
100
AcDbDictionary
281
     1
  0
DICTIONARY
  5
3F96
102
{ACAD_REACTORS
330
3F95
102
}
330
3F95
100
AcDbDictionary
281
     1
  3
20011210
350
3FB7
  0
DICTIONARY
  5
B465
102
{ACAD_REACTORS
330
3F95
102
}
330
3F95
100
AcDbDictionary
281
     1
1001
ACAD
1000
<All
  0
DICTIONARY
  5
AAB4
102
{ACAD_REACTORS
330
3F95
102
}
330
3F95
100
AcDbDictionary
280
     1
281
     1
  0
XRECORD
  5
AB48A
102
{ACAD_REACTORS
330
AB489
102
}
330
AB489
100
AcDbXrecord
280
     1
290
     1
  0
XRECORD
  5
AB492
102
{ACAD_REACTORS
330
AB491
102
}
330
AB491
100
AcDbXrecord
280
     1
290
     1
  0
SORTENTSTABLE
  5
B1BA
102
{ACAD_REACTORS
330
8A
102
}
330
8A
100
AcDbSortentsTable
330
1F
331
ACF29
  5
AD040
331
AB57E
  5
AB57E
331
ACDBB
  5
ACDBB
331
AD028
  5
AD05B
331
AD4AC
  5
ACF29
331
ACF31
  5
AD048
331
ACDC3
  5
ACDC3
331
AD030
  5
AD063
331
AD4B4
  5
ACF31
331
ACF39
  5
AD050
331
ACDCB
  5
ACDCB
331
AD038
  5
AD12D
331
ACD94
  5
ACD94
331
AD040
  5
AD135
331
AD12E
  5
AD497
331
AD136
  5
AD49F
331
7AC05
  5
7BAAD
331
ACF41
  5
AD058
331
ACF0A
  5
ACF3D
331
AB55F
  5
AB55F
331
ACD9C
  5
ACD9C
331
AD048
  5
AD13D
331
AD48D
  5
ACF0A
331
ACF12
  5
AD029
331
AC8BD
  5
AC8BD
331
AB567
  5
AB567
331
ACDA4
  5
ACDA4
331
AD050
  5
AD145
331
AD13E
  5
AD4A7
331
AD495
  5
ACF12
331
ACF1A
  5
AD031
331
AC8C5
  5
AC8C5
331
AB56F
  5
AB56F
331
ACDAC
  5
ACDAC
331
AD058
  5
AD14D
331
AD146
  5
AD4AF
331
AD49D
  5
ACF1A
331
ACF22
  5
AD039
331
AB577
  5
AB577
331
ACDB4
  5
ACDB4
331
AD060
  5
AD48B
331
AD14E
  5
AD4B7
331
AD4A5
  5
ACF22
331
AD068
  5
AD493
331
ACF2A
  5
AD041
331
AB57F
  5
AB57F
331
ACDBC
  5
ACDBC
331
AD029
  5
AD05C
331
ACF32
  5
AD049
331
ACDC4
  5
ACDC4
331
AD031
  5
AD064
331
AD4AD
  5
ACF2A
331
ACDCC
  5
ACDCC
331
ACF3A
  5
AD051
331
AD039
  5
AD12E
331
AD4B5
  5
ACF32
331
AD041
  5
AD136
331
ACD95
  5
ACD95
331
AD12F
  5
AD498
331
AD137
  5
AD4A0
331
7AC06
  5
7BAAE
331
AD049
  5
AD13E
331
ACF42
  5
AD059
331
AB560
  5
AB560
331
ACD9D
  5
ACD9D
331
ACF0B
  5
ACF3E
331
AD48E
  5
ACF0B
331
AD051
  5
AD146
331
AC8BE
  5
AC8BE
331
AB568
  5
AB568
331
ACDA5
  5
ACDA5
331
ACF13
  5
AD02A
331
AD13F
  5
AD4A8
331
AD496
  5
ACF13
331
AD059
  5
AD14E
331
AC8C6
  5
AC8C6
331
AB570
  5
AB570
331
ACDAD
  5
ACDAD
331
ACF1B
  5
AD032
331
AD147
  5
AD4B0
331
AD49E
  5
ACF1B
331
AD061
  5
AD48C
331
ACDB5
  5
ACDB5
331
ACF23
  5
AD03A
331
AD14F
  5
AD4B8
331
AD4A6
  5
ACF23
331
AB578
  5
AB578
331
AD069
  5
AD494
331
AD02A
  5
AD05D
331
AB580
  5
AB580
331
ACDBD
  5
ACDBD
331
ACF2B
  5
AD042
331
AD032
  5
AD065
331
ACDC5
  5
ACDC5
331
ACF33
  5
AD04A
331
AD4AE
  5
ACF2B
331
AD03A
  5
AD12F
331
ACD8E
  5
ACD8E
331
ACDCD
  5
ACDCD
331
ACF3B
  5
AD052
331
AD4B6
  5
ACF33
331
AD042
  5
AD137
331
ACD96
  5
ACD96
331
AD130
  5
AD499
331
AD04A
  5
AD13F
331
ACF43
  5
AD05A
331
AB561
  5
AB561
331
ACD9E
  5
ACD9E
331
ACF0C
  5
ACF3F
331
AD138
  5
AD4A1
331
AD48F
  5
ACF0C
331
AD052
  5
AD147
331
AC8BF
  5
AC8BF
331
AB569
  5
AB569
331
ACDA6
  5
ACDA6
331
ACF14
  5
AD02B
331
AD140
  5
AD4A9
331
AD497
  5
ACF14
331
AD05A
  5
AD14F
331
AC8C7
  5
AC8C7
331
AB571
  5
AB571
331
ACDAE
  5
ACDAE
331
ACF1C
  5
AD033
331
AD148
  5
AD4B1
331
AD49F
  5
ACF1C
331
AD062
  5
AD48D
331
ACDB6
  5
ACDB6
331
ACF24
  5
AD03B
331
AD150
  5
AD4B9
331
AD4A7
  5
ACF24
331
AB579
  5
AB579
331
AD02B
  5
AD05E
331
ACF2C
  5
AD043
331
AB581
  5
AB581
331
ACDBE
  5
ACDBE
331
AD033
  5
AD066
331
ACF34
  5
AD04B
331
ACDC6
  5
ACDC6
331
AD4AF
  5
ACF2C
331
AD03B
  5
AD130
331
ACD8F
  5
ACD8F
331
ACF3C
  5
AD053
331
AD4B7
  5
ACF34
331
AD043
  5
AD138
331
ACD97
  5
ACD97
331
AD131
  5
AD49A
331
AD04B
  5
AD140
331
ACF0D
  5
ACF40
331
AB562
  5
AB562
331
ACD9F
  5
ACD9F
331
AD139
  5
AD4A2
331
AD490
  5
ACF0D
331
AD053
  5
AD148
331
ACF15
  5
AD02C
331
AC8C0
  5
AC8C0
331
AB56A
  5
AB56A
331
ACDA7
  5
ACDA7
331
AD141
  5
AD4AA
331
AD498
  5
ACF15
331
AD05B
  5
AD150
331
ACF1D
  5
AD034
331
AC8C8
  5
AC8C8
331
ACDAF
  5
ACDAF
331
AD149
  5
AD4B2
331
AD4A0
  5
ACF1D
331
AD063
  5
AD48E
331
ACF25
  5
AD03C
331
ACDB7
  5
ACDB7
331
AD151
  5
AD4BA
331
AB57A
  5
AB57A
331
AD02C
  5
AD05F
331
ACF2D
  5
AD044
331
AB582
  5
AB582
331
ACDBF
  5
ACDBF
331
AD4A8
  5
ACF25
331
AD034
  5
AD067
331
ACF35
  5
AD04C
331
ACDC7
  5
ACDC7
331
AD4B0
  5
ACF2D
331
AD03C
  5
AD131
331
ACD90
  5
ACD90
331
ACF3D
  5
AD054
331
AD4B8
  5
ACF35
331
AD044
  5
AD139
331
ACF06
  5
ACF39
331
AD132
  5
AD49B
331
ACD98
  5
ACD98
331
AD489
  5
ACF06
331
AD04C
  5
AD141
331
ACF0E
  5
ACF41
331
AB563
  5
AB563
331
ACDA0
  5
ACDA0
331
AD13A
  5
AD4A3
331
AD491
  5
ACF0E
331
AD054
  5
AD149
331
ACF16
  5
AD02D
331
AC8C1
  5
AC8C1
331
AB56B
  5
AB56B
331
ACDA8
  5
ACDA8
331
AD142
  5
AD4AB
331
AD499
  5
ACF16
331
AD05C
  5
AD151
331
ACF1E
  5
AD035
331
AC8C9
  5
AC8C9
331
AB573
  5
AB573
331
ACDB0
  5
ACDB0
331
AD14A
  5
AD4B3
331
AD4A1
  5
ACF1E
331
AD064
  5
AD48F
331
ACF26
  5
AD03D
331
AD152
  5
AD4BB
331
AB57B
  5
AB57B
331
ACDB8
  5
ACDB8
331
ACF2E
  5
AD045
331
AB583
  5
AB583
331
ACDC0
  5
ACDC0
331
AD02D
  5
AD060
331
AD4A9
  5
ACF26
331
ACF36
  5
AD04D
331
ACDC8
  5
ACDC8
331
AD035
  5
AD068
331
AD4B1
  5
ACF2E
331
ACF3E
  5
AD055
331
ACD91
  5
ACD91
331
AD03D
  5
AD132
331
AD4B9
  5
ACF36
331
ACF07
  5
ACF3A
331
AD045
  5
AD13A
331
AD133
  5
AD49C
331
ACD99
  5
ACD99
331
AB55C
  5
AB55C
331
AD48A
  5
ACF07
331
ACF0F
  5
ACF42
331
ACDA1
  5
ACDA1
331
AB564
  5
AB564
331
AD04D
  5
AD142
331
AD13B
  5
AD4A4
331
AD492
  5
ACF0F
331
ACF17
  5
AD02E
331
ACDA9
  5
ACDA9
331
AC8C2
  5
AC8C2
331
AB56C
  5
AB56C
331
AD055
  5
AD14A
331
AD143
  5
AD4AC
331
AD49A
  5
ACF17
331
ACF1F
  5
AD036
331
ACDB1
  5
ACDB1
331
AB574
  5
AB574
331
AD05D
  5
AD152
331
AD14B
  5
AD4B4
331
ACF27
  5
AD03E
331
AD065
  5
AD490
331
AD4A2
  5
ACF1F
331
ACDB9
  5
ACDB9
331
AB57C
  5
AB57C
331
ACF2F
  5
AD046
331
ACDC1
  5
ACDC1
331
AB584
  5
AB584
331
AD02E
  5
AD061
331
AD4AA
  5
ACF27
331
ACF37
  5
AD04E
331
ACDC9
  5
ACDC9
331
AD036
  5
AD069
331
AD4B2
  5
ACF2F
331
ACD92
  5
ACD92
331
ACF3F
  5
AD056
331
AD03E
  5
AD133
331
AD12C
  5
AD495
331
AD4BA
  5
ACF37
331
AD046
  5
AD13B
331
AD134
  5
AD49D
331
ACF08
  5
ACF3B
331
AB55D
  5
AB55D
331
ACD9A
  5
ACD9A
331
AD48B
  5
ACF08
331
ACF10
  5
ACF43
331
AB565
  5
AB565
331
ACDA2
  5
ACDA2
331
AD04E
  5
AD143
331
AD13C
  5
AD4A5
331
AD493
  5
ACF10
331
ACF18
  5
AD02F
331
AC8C3
  5
AC8C3
331
AB56D
  5
AB56D
331
ACDAA
  5
ACDAA
331
AD056
  5
AD14B
331
AD144
  5
AD4AD
331
AD49B
  5
ACF18
331
ACF20
  5
AD037
331
AB575
  5
AB575
331
ACDB2
  5
ACDB2
331
AD05E
  5
AD489
331
AD14C
  5
AD4B5
331
AD066
  5
AD491
331
AD4A3
  5
ACF20
331
ACF28
  5
AD03F
331
AB57D
  5
AB57D
331
ACDBA
  5
ACDBA
331
ACF30
  5
AD047
331
AB585
  5
AB585
331
ACDC2
  5
ACDC2
331
AD02F
  5
AD062
331
AD4AB
  5
ACF28
331
ACF38
  5
AD04F
331
ACDCA
  5
ACDCA
331
AD037
  5
AD12C
331
AD4B3
  5
ACF30
331
ACD93
  5
ACD93
331
AD03F
  5
AD134
331
AD12D
  5
AD496
331
AD4BB
  5
ACF38
331
AD047
  5
AD13C
331
AD135
  5
AD49E
331
ACF40
  5
AD057
331
ACF09
  5
ACF3C
331
AB55E
  5
AB55E
331
ACD9B
  5
ACD9B
331
AD48C
  5
ACF09
331
ACF11
  5
AD028
331
AC8BC
  5
AC8BC
331
AB566
  5
AB566
331
ACDA3
  5
ACDA3
331
AD04F
  5
AD144
331
AD13D
  5
AD4A6
331
AD494
  5
ACF11
331
ACF19
  5
AD030
331
AC8C4
  5
AC8C4
331
AB56E
  5
AB56E
331
ACDAB
  5
ACDAB
331
AD057
  5
AD14C
331
AD145
  5
AD4AE
331
AD49C
  5
ACF19
331
ACF21
  5
AD038
331
AB576
  5
AB576
331
ACDB3
  5
ACDB3
331
AD05F
  5
AD48A
331
AD14D
  5
AD4B6
331
AD067
  5
AD492
331
AD4A4
  5
ACF21
  0
XRECORD
  5
ADD1A
102
{ACAD_REACTORS
330
ADD19
102
}
330
ADD19
100
AcDbXrecord
280
     1
 70
     1
  0
ACDBDETAILVIEWSTYLE
  5
AB274
102
{ACAD_REACTORS
330
AB273
102
}
330
AB273
100
AcDbModelDocViewStyle
 70
     0
  3
Metric50
290
     0
100
AcDbDetailViewStyle
 70
     0
 71
     0
 90
        3
 71
     1
340
11
 40
5.0
340
0
 40
5.0
300

 40
0.0
280
     1
 71
     2
340
16
 90
       25
 71
     3
340
11
 40
5.0
 90
        0
 40
15.0
 90
        1
300
%<\AcVar ViewDetailId>% (%<\AcVar ViewScale \f "%sn">%)
 71
     4
340
16
 90
       25
340
16
 90
       25
280
     0
  0
LAYOUT
  5
22
102
{ACAD_XDICTIONARY
360
ADD25
102
}
102
{ACAD_REACTORS
330
1A
102
}
330
1A
100
AcDbPlotSettings
  1

  2
Adobe PDF
  4
User66
  6

 40
3.174999952316283
 41
3.174999952316283
 42
3.17498779296875
 43
3.17498779296875
 44
420.0
 45
594.0
 46
-3.174993872642517
 47
-3.174993872642517
 48
0.0
 49
0.0
140
1188.0
141
840.0
142
1.0
143
2.0
 70
  3748
 72
     1
 73
     1
 74
     4
  7
monochrome.ctb
 75
     0
147
0.4848174396015349
148
0.0
149
0.0
100
AcDbLayout
  1
Model
 70
     1
 71
     0
 10
0.0
 20
0.0
 11
12.0
 21
9.0
 12
0.0
 22
0.0
 32
0.0
 14
0.0
 24
0.0
 34
0.0
 15
0.0
 25
0.0
 35
0.0
146
0.0
 13
0.0
 23
0.0
 33
0.0
 16
1.0
 26
0.0
 36
0.0
 17
0.0
 27
1.0
 37
0.0
 76
     0
330
1F
331
B0EC
1001
ACAD_PSEXT
1000
Adobe PDF
1000
Adobe PDF Converter
1000
My Documents\*.pdf
1000

1070
     0
  0
LAYOUT
  5
1E
102
{ACAD_XDICTIONARY
360
ADD23
102
}
102
{ACAD_REACTORS
330
1A
102
}
330
1A
100
AcDbPlotSettings
  1

  2
\\ML370\XEROX
  4
A4
  6

 40
3.174999952316283
 41
3.174999952316283
 42
3.175003051757812
 43
3.17498779296875
 44
209.8674926757813
 45
296.6719970703125
 46
0.0
 47
0.0
 48
0.0
 49
0.0
140
0.0
141
0.0
142
1.0
143
1.0
 70
   688
 72
     1
 73
     1
 74
     5
  7
monochrome.ctb
 75
    16
147
1.0
148
0.0
149
0.0
100
AcDbLayout
  1
ﾚｲｱｳﾄ1
 70
     1
 71
     1
 10
-3.17498779296875
 20
-3.174999952316283
 11
293.4970092773438
 21
206.692492723465
 12
0.0
 22
0.0
 32
0.0
 14
1.000000000000000E+20
 24
1.000000000000000E+20
 34
1.000000000000000E+20
 15
-1.000000000000000E+20
 25
-1.000000000000000E+20
 35
-1.000000000000000E+20
146
0.0
 13
0.0
 23
0.0
 33
0.0
 16
1.0
 26
0.0
 36
0.0
 17
0.0
 27
1.0
 37
0.0
 76
     0
330
1B
  0
LAYOUT
  5
26
102
{ACAD_XDICTIONARY
360
ADD27
102
}
102
{ACAD_REACTORS
330
1A
102
}
330
1A
100
AcDbPlotSettings
  1

  2
\\ML370\XEROX
  4

  6

 40
0.0
 41
0.0
 42
0.0
 43
0.0
 44
0.0
 45
0.0
 46
0.0
 47
0.0
 48
0.0
 49
0.0
140
0.0
141
0.0
142
1.0
143
1.0
 70
   688
 72
     0
 73
     0
 74
     5
  7
monochrome.ctb
 75
    16
147
1.0
148
0.0
149
0.0
100
AcDbLayout
  1
ﾚｲｱｳﾄ2
 70
     1
 71
     2
 10
0.0
 20
0.0
 11
12.0
 21
9.0
 12
0.0
 22
0.0
 32
0.0
 14
0.0
 24
0.0
 34
0.0
 15
0.0
 25
0.0
 35
0.0
146
0.0
 13
0.0
 23
0.0
 33
0.0
 16
1.0
 26
0.0
 36
0.0
 17
0.0
 27
1.0
 37
0.0
 76
     0
330
23
  0
MATERIAL
  5
B0EF
102
{ACAD_XDICTIONARY
360
AB24D
102
}
102
{ACAD_REACTORS
330
A91C
102
}
330
A91C
100
AcDbMaterial
  1
ByBlock
  0
MATERIAL
  5
B0EE
102
{ACAD_XDICTIONARY
360
AB24B
102
}
102
{ACAD_REACTORS
330
A91C
102
}
330
A91C
100
AcDbMaterial
  1
ByLayer
  0
MATERIAL
  5
B0F0
102
{ACAD_XDICTIONARY
360
AB24F
102
}
102
{ACAD_REACTORS
330
A91C
102
}
330
A91C
100
AcDbMaterial
  1
Global
  0
MLEADERSTYLE
  5
AB270
102
{ACAD_REACTORS
330
AB26F
102
}
330
AB26F
100
AcDbMLeaderStyle
170
     2
171
     1
172
     0
 90
        2
 40
0.0
 41
0.0
173
     1
 91
-1056964608
340
14
 92
       -2
290
     1
 42
2.0
291
     1
 43
0.36
  3
Standard
 44
4.0
300

342
11
174
     1
178
     6
175
     1
176
     0
 93
-1056964608
 45
4.0
292
     0
297
     0
 46
4.0
 94
-1056964608
 47
1.0
 49
1.0
140
1.0
293
     1
141
0.0
294
     1
177
     0
142
1.0
295
     0
296
     0
143
0.125
1001
ACAD_MLEADERVER
1070
     2
  0
MLINESTYLE
  5
18
102
{ACAD_REACTORS
330
17
102
}
330
17
100
AcDbMlineStyle
  2
STANDARD
 70
     0
  3

 62
   256
 51
90.0
 52
90.0
 71
     2
 49
0.5
 62
   256
  6
BYLAYER
 49
-0.5
 62
   256
  6
BYLAYER
  0
ACDBPLACEHOLDER
  5
F
102
{ACAD_REACTORS
330
E
102
}
330
E
  0
SCALE
  5
AB25E
102
{ACAD_REACTORS
330
AB25D
102
}
330
AB25D
100
AcDbScale
 70
     0
300
1:1
140
1.0
141
1.0
290
     1
  0
SCALE
  5
AB25F
102
{ACAD_REACTORS
330
AB25D
102
}
330
AB25D
100
AcDbScale
 70
     0
300
1:2
140
1.0
141
2.0
290
     0
  0
SCALE
  5
AB260
102
{ACAD_REACTORS
330
AB25D
102
}
330
AB25D
100
AcDbScale
 70
     0
300
1:4
140
1.0
141
4.0
290
     0
  0
SCALE
  5
AB261
102
{ACAD_REACTORS
330
AB25D
102
}
330
AB25D
100
AcDbScale
 70
     0
300
1:5
140
1.0
141
5.0
290
     0
  0
SCALE
  5
AB262
102
{ACAD_REACTORS
330
AB25D
102
}
330
AB25D
100
AcDbScale
 70
     0
300
1:8
140
1.0
141
8.0
290
     0
  0
SCALE
  5
AB263
102
{ACAD_REACTORS
330
AB25D
102
}
330
AB25D
100
AcDbScale
 70
     0
300
1:10
140
1.0
141
10.0
290
     0
  0
SCALE
  5
AB264
102
{ACAD_REACTORS
330
AB25D
102
}
330
AB25D
100
AcDbScale
 70
     0
300
1:16
140
1.0
141
16.0
290
     0
  0
SCALE
  5
AB265
102
{ACAD_REACTORS
330
AB25D
102
}
330
AB25D
100
AcDbScale
 70
     0
300
1:20
140
1.0
141
20.0
290
     0
  0
SCALE
  5
AB266
102
{ACAD_REACTORS
330
AB25D
102
}
330
AB25D
100
AcDbScale
 70
     0
300
1:30
140
1.0
141
30.0
290
     0
  0
SCALE
  5
AB267
102
{ACAD_REACTORS
330
AB25D
102
}
330
AB25D
100
AcDbScale
 70
     0
300
1:40
140
1.0
141
40.0
290
     0
  0
SCALE
  5
AB268
102
{ACAD_REACTORS
330
AB25D
102
}
330
AB25D
100
AcDbScale
 70
     0
300
1:50
140
1.0
141
50.0
290
     0
  0
SCALE
  5
AB269
102
{ACAD_REACTORS
330
AB25D
102
}
330
AB25D
100
AcDbScale
 70
     0
300
1:100
140
1.0
141
100.0
290
     0
  0
SCALE
  5
AB26A
102
{ACAD_REACTORS
330
AB25D
102
}
330
AB25D
100
AcDbScale
 70
     0
300
2:1
140
2.0
141
1.0
290
     0
  0
SCALE
  5
AB26B
102
{ACAD_REACTORS
330
AB25D
102
}
330
AB25D
100
AcDbScale
 70
     0
300
4:1
140
4.0
141
1.0
290
     0
  0
SCALE
  5
AB26C
102
{ACAD_REACTORS
330
AB25D
102
}
330
AB25D
100
AcDbScale
 70
     0
300
8:1
140
8.0
141
1.0
290
     0
  0
SCALE
  5
AB26D
102
{ACAD_REACTORS
330
AB25D
102
}
330
AB25D
100
AcDbScale
 70
     0
300
10:1
140
10.0
141
1.0
290
     0
  0
SCALE
  5
AB26E
102
{ACAD_REACTORS
330
AB25D
102
}
330
AB25D
100
AcDbScale
 70
     0
300
100:1
140
100.0
141
1.0
290
     0
  0
ACDBSECTIONVIEWSTYLE
  5
AB272
102
{ACAD_REACTORS
330
AB271
102
}
330
AB271
100
AcDbModelDocViewStyle
 70
     0
  3
Metric50
290
     0
100
AcDbSectionViewStyle
 70
     0
 71
     0
 90
      102
 71
     1
340
11
 40
5.0
340
0
340
0
 40
5.0
300
I, O, Q, S, X, Z
 40
10.0
 90
        0
 40
2.5
 90
        0
 71
     2
340
16
 90
       25
340
16
 90
       50
 40
5.0
 40
2.5
 40
5.0
 71
     3
340
11
 40
5.0
 90
        0
 40
15.0
 90
        1
300
%<\AcVar ViewSectionStartId>%-%<\AcVar ViewSectionEndId>% (%<\AcVar ViewScale \f "%sn">%)
 71
     4
300
ANSI31
 40
1.0
 90
        0
290
     0
290
     0
 90
        6
 40
0.0
 40
1.570796326794896
 40
0.2617993877991494
 40
1.308996938995747
 40
-0.2617993877991494
 40
1.832595714594046
  0
TABLESTYLE
  5
AABA
102
{ACAD_XDICTIONARY
360
ADD15
102
}
102
{ACAD_REACTORS
330
AAB9
102
}
330
AAB9
100
AcDbTableStyle
  3
Standard
 70
     0
 71
     0
 40
1.5
 41
1.5
280
     0
281
     0
  7
STANDARD
140
4.5
170
     2
 62
     0
 63
     7
283
     0
274
    -2
284
     1
 64
     0
275
    -2
285
     1
 65
     0
276
    -2
286
     1
 66
     0
277
    -2
287
     1
 67
     0
278
    -2
288
     1
 68
     0
279
    -2
289
     1
 69
     0
  7
STANDARD
140
6.0
170
     5
 62
     0
 63
     7
283
     0
274
    -2
284
     1
 64
     0
275
    -2
285
     1
 65
     0
276
    -2
286
     1
 66
     0
277
    -2
287
     1
 67
     0
278
    -2
288
     1
 68
     0
279
    -2
289
     1
 69
     0
  7
STANDARD
140
4.5
170
     5
 62
     0
 63
     7
283
     0
274
    -2
284
     1
 64
     0
275
    -2
285
     1
 65
     0
276
    -2
286
     1
 66
     0
277
    -2
287
     1
 67
     0
278
    -2
288
     1
 68
     0
279
    -2
289
     1
 69
     0
  0
VISUALSTYLE
  5
B0F7
102
{ACAD_XDICTIONARY
360
ADD34
102
}
102
{ACAD_REACTORS
330
B0F1
102
}
330
B0F1
100
AcDbVisualStyle
  2

 70
     4
 71
     0
 72
     2
 73
     0
 90
        0
 40
-0.6
 41
-30.0
 62
     5
 63
     7
 74
     1
 91
        4
 64
     7
 65
   257
 75
     1
175
     1
 42
1.0
 92
        0
 66
   257
 43
1.0
 76
     1
 77
     6
 78
     2
 67
     7
 79
     5
170
     0
171
     0
290
     0
174
     0
 93
        1
 44
0.0
173
     0
291
     0
 45
0.0
1001
ACAD
1000
AcDbSavedByObjectVersion
1070
     0
  0
VISUALSTYLE
  5
B0F9
102
{ACAD_XDICTIONARY
360
ADD38
102
}
102
{ACAD_REACTORS
330
B0F1
102
}
330
B0F1
100
AcDbVisualStyle
  2

 70
     6
 71
     1
 72
     2
 73
     2
 90
        0
 40
-0.6
 41
-30.0
 62
     5
 63
     7
 74
     2
 91
        2
 64
     7
 65
   257
 75
     2
175
     1
 42
40.0
 92
        0
 66
   257
 43
1.0
 76
     1
 77
     6
 78
     2
 67
     7
 79
     3
170
     0
171
     0
290
     0
174
     0
 93
        1
 44
0.0
173
     0
291
     0
 45
0.0
1001
ACAD
1000
AcDbSavedByObjectVersion
1070
     0
  0
VISUALSTYLE
  5
B0F8
102
{ACAD_XDICTIONARY
360
ADD36
102
}
102
{ACAD_REACTORS
330
B0F1
102
}
330
B0F1
100
AcDbVisualStyle
  2

 70
     5
 71
     0
 72
     2
 73
     0
 90
        0
 40
-0.6
 41
-30.0
 62
     5
 63
     7
 74
     1
 91
        4
 64
     7
 65
   257
 75
     1
175
     1
 42
1.0
 92
        0
 66
   257
 43
1.0
 76
     1
 77
     6
 78
     2
 67
     7
 79
     5
170
     0
171
     0
290
     0
174
     0
 93
        1
 44
0.0
173
     0
291
     0
 45
0.0
1001
ACAD
1000
AcDbSavedByObjectVersion
1070
     0
  0
VISUALSTYLE
  5
B0F6
102
{ACAD_XDICTIONARY
360
ADD32
102
}
102
{ACAD_REACTORS
330
B0F1
102
}
330
B0F1
100
AcDbVisualStyle
  2

 70
     7
 71
     1
 72
     0
 73
     1
 90
        0
 40
-0.6
 41
-30.0
 62
     5
 63
     7
 74
     0
 91
        4
 64
     7
 65
   257
 75
     1
175
     1
 42
1.0
 92
        8
 66
     7
 43
1.0
 76
     1
 77
     6
 78
     2
 67
     7
 79
     5
170
     0
171
     0
290
     0
174
     0
 93
        1
 44
0.0
173
     0
291
     1
 45
0.0
1001
ACAD
1000
AcDbSavedByObjectVersion
1070
     0
  0
VISUALSTYLE
  5
B0FD
102
{ACAD_XDICTIONARY
360
ADD40
102
}
102
{ACAD_REACTORS
330
B0F1
102
}
330
B0F1
100
AcDbVisualStyle
  2

 70
    12
 71
     2
 72
     2
 73
     0
 90
        0
 40
-0.6
 41
-30.0
 62
     5
 63
     7
 74
     1
 91
        4
 64
     7
 65
   257
 75
     1
175
     1
 42
1.0
 92
        8
 66
     7
 43
1.0
 76
     1
 77
     6
 78
     2
 67
     7
 79
     5
170
     0
171
     0
290
     0
174
     0
 93
        1
 44
50.0
173
     0
291
     1
 45
0.0
1001
ACAD
1000
AcDbSavedByObjectVersion
1070
     0
  0
VISUALSTYLE
  5
B101
102
{ACAD_XDICTIONARY
360
ADD48
102
}
102
{ACAD_REACTORS
330
B0F1
102
}
330
B0F1
100
AcDbVisualStyle
  2

 70
    16
 71
     2
 72
     2
 73
     3
 90
        0
 40
-0.6
 41
-30.0
 62
     5
 63
     8
 74
     1
 91
        4
 64
     7
 65
   257
 75
     1
175
     1
 42
1.0
 92
        8
 66
     8
 43
1.0
 76
     1
 77
     6
 78
     2
 67
     7
 79
     5
170
     0
171
     0
290
     0
174
     0
 93
        1
 44
0.0
173
     0
291
     1
 45
0.0
1001
ACAD
1000
AcDbSavedByObjectVersion
1070
     0
  0
VISUALSTYLE
  5
B0FA
102
{ACAD_XDICTIONARY
360
ADD3A
102
}
102
{ACAD_REACTORS
330
B0F1
102
}
330
B0F1
100
AcDbVisualStyle
  2

 70
     9
 71
     3
 72
     2
 73
     0
 90
        0
 40
-0.6
 41
-30.0
 62
     5
 63
     7
 74
     2
 91
        2
 64
     7
 65
   257
 75
     1
175
     1
 42
40.0
 92
        8
 66
     7
 43
1.0
 76
     1
 77
     6
 78
     2
 67
     7
 79
     3
170
     0
171
     0
290
     0
174
     0
 93
        1
 44
0.0
173
     0
291
     0
 45
0.0
1001
ACAD
1000
AcDbSavedByObjectVersion
1070
     0
  0
VISUALSTYLE
  5
B0FC
102
{ACAD_XDICTIONARY
360
ADD3E
102
}
102
{ACAD_REACTORS
330
B0F1
102
}
330
B0F1
100
AcDbVisualStyle
  2

 70
    11
 71
     2
 72
     2
 73
     0
 90
        0
 40
-0.6
 41
-30.0
 62
     5
 63
     7
 74
     1
 91
        4
 64
     7
 65
   257
 75
     1
175
     1
 42
1.0
 92
        8
 66
     7
 43
1.0
 76
     1
 77
     6
 78
     2
 67
     7
 79
     5
170
     0
171
     0
290
     0
174
     0
 93
        1
 44
-50.0
173
     0
291
     1
 45
0.0
1001
ACAD
1000
AcDbSavedByObjectVersion
1070
     0
  0
VISUALSTYLE
  5
AB25C
102
{ACAD_XDICTIONARY
360
ADD5C
102
}
102
{ACAD_REACTORS
330
B0F1
102
}
330
B0F1
100
AcDbVisualStyle
  2
EdgeColorOff
 70
    22
 71
     2
 72
     2
 73
     0
 90
        0
 40
-0.6
 41
-30.0
 62
     5
 63
     7
 74
     1
 91
        4
 64
     7
 65
   257
 75
     1
175
     1
 42
1.0
 92
        8
 66
     7
 43
1.0
 76
     1
 77
     6
 78
     2
 67
     7
 79
     5
170
     0
171
     0
290
     0
174
     0
 93
        1
 44
0.0
173
     0
291
     1
 45
0.0
1001
ACAD
1000
AcDbSavedByObjectVersion
1070
     0
  0
VISUALSTYLE
  5
B100
102
{ACAD_XDICTIONARY
360
ADD46
102
}
102
{ACAD_REACTORS
330
B0F1
102
}
330
B0F1
100
AcDbVisualStyle
  2

 70
    15
 71
     2
 72
     2
 73
     0
 90
        0
 40
-0.6
 41
-30.0
 62
     5
 63
     7
 74
     1
 91
        4
 64
     7
 65
   257
 75
     1
175
     1
 42
1.0
 92
        8
 66
     7
 43
1.0
 76
     1
 77
     6
 78
     2
 67
     7
 79
     5
170
     0
171
     0
290
     0
174
     0
 93
        1
 44
0.0
173
     0
291
     1
 45
0.0
1001
ACAD
1000
AcDbSavedByObjectVersion
1070
     0
  0
VISUALSTYLE
  5
B0F2
102
{ACAD_XDICTIONARY
360
ADD2A
102
}
102
{ACAD_REACTORS
330
B0F1
102
}
330
B0F1
100
AcDbVisualStyle
  2

 70
     0
 71
     2
 72
     1
 73
     1
 90
        2
 40
-0.6
 41
30.0
 62
     5
 63
     7
 74
     0
 91
        4
 64
     7
 65
   257
 75
     1
175
     1
 42
1.0
 92
        8
 66
     7
 43
1.0
 76
     1
 77
     6
 78
     2
 67
     7
 79
     5
170
     0
171
     0
290
     0
174
     0
 93
       13
 44
0.0
173
     0
291
     1
 45
0.0
1001
ACAD
1000
AcDbSavedByObjectVersion
1070
     0
  0
VISUALSTYLE
  5
B0F3
102
{ACAD_XDICTIONARY
360
ADD2C
102
}
102
{ACAD_REACTORS
330
B0F1
102
}
330
B0F1
100
AcDbVisualStyle
  2

 70
     1
 71
     2
 72
     1
 73
     1
 90
        2
 40
-0.6
 41
30.0
 62
     5
 63
     7
 74
     1
 91
        4
 64
     7
 65
   257
 75
     1
175
     1
 42
1.0
 92
        0
 66
   257
 43
1.0
 76
     1
 77
     6
 78
     2
 67
     7
 79
     5
170
     0
171
     0
290
     0
174
     0
 93
       13
 44
0.0
173
     0
291
     1
 45
0.0
1001
ACAD
1000
AcDbSavedByObjectVersion
1070
     0
  0
VISUALSTYLE
  5
B0F4
102
{ACAD_XDICTIONARY
360
ADD2E
102
}
102
{ACAD_REACTORS
330
B0F1
102
}
330
B0F1
100
AcDbVisualStyle
  2

 70
     2
 71
     2
 72
     2
 73
     1
 90
        2
 40
-0.6
 41
30.0
 62
     5
 63
     7
 74
     0
 91
        4
 64
     7
 65
   257
 75
     1
175
     1
 42
1.0
 92
        0
 66
     7
 43
1.0
 76
     1
 77
     6
 78
     2
 67
     7
 79
     5
170
     0
171
     0
290
     0
174
     0
 93
       13
 44
0.0
173
     0
291
     1
 45
0.0
1001
ACAD
1000
AcDbSavedByObjectVersion
1070
     0
  0
VISUALSTYLE
  5
B0F5
102
{ACAD_XDICTIONARY
360
ADD30
102
}
102
{ACAD_REACTORS
330
B0F1
102
}
330
B0F1
100
AcDbVisualStyle
  2

 70
     3
 71
     2
 72
     2
 73
     1
 90
        2
 40
-0.6
 41
30.0
 62
     5
 63
     7
 74
     1
 91
        4
 64
     7
 65
   257
 75
     1
175
     1
 42
1.0
 92
        0
 66
   257
 43
1.0
 76
     1
 77
     6
 78
     2
 67
     7
 79
     5
170
     0
171
     0
290
     0
174
     0
 93
       13
 44
0.0
173
     0
291
     1
 45
0.0
1001
ACAD
1000
AcDbSavedByObjectVersion
1070
     0
  0
VISUALSTYLE
  5
AB254
102
{ACAD_XDICTIONARY
360
ADD4C
102
}
102
{ACAD_REACTORS
330
B0F1
102
}
330
B0F1
100
AcDbVisualStyle
  2
Hidden
 70
     6
 71
     1
 72
     2
 73
     2
 90
        0
 40
-0.6
 41
-30.0
 62
     5
 63
     7
 74
     2
 91
        2
 64
     7
 65
   257
 75
     2
175
     1
 42
40.0
 92
        0
 66
   257
 43
1.0
 76
     1
 77
     6
 78
     2
 67
     7
 79
     3
170
     0
171
     0
290
     0
174
     0
 93
        1
 44
0.0
173
     0
291
     0
 45
0.0
1001
ACAD
1000
AcDbSavedByObjectVersion
1070
     0
  0
VISUALSTYLE
  5
AB25A
102
{ACAD_XDICTIONARY
360
ADD58
102
}
102
{ACAD_REACTORS
330
B0F1
102
}
330
B0F1
100
AcDbVisualStyle
  2
JitterOff
 70
    20
 71
     2
 72
     2
 73
     0
 90
        0
 40
-0.6
 41
-30.0
 62
     5
 63
     7
 74
     1
 91
        4
 64
     7
 65
   257
 75
     1
175
     1
 42
1.0
 92
       10
 66
     7
 43
1.0
 76
     1
 77
     6
 78
     2
 67
     7
 79
     5
170
     0
171
     0
290
     0
174
     0
 93
        1
 44
0.0
173
     0
291
     1
 45
0.0
1001
ACAD
1000
AcDbSavedByObjectVersion
1070
     0
  0
VISUALSTYLE
  5
B0FF
102
{ACAD_XDICTIONARY
360
ADD44
102
}
102
{ACAD_REACTORS
330
B0F1
102
}
330
B0F1
100
AcDbVisualStyle
  2

 70
    14
 71
     2
 72
     2
 73
     0
 90
        0
 40
-0.6
 41
-30.0
 62
     5
 63
     7
 74
     1
 91
        4
 64
     7
 65
   257
 75
     7
175
     7
 42
1.0
 92
        8
 66
     7
 43
1.0
 76
     1
 77
     6
 78
     2
 67
     7
 79
     5
170
     0
171
     0
290
     0
174
     0
 93
        1
 44
0.0
173
     0
291
     1
 45
0.0
1001
ACAD
1000
AcDbSavedByObjectVersion
1070
     0
  0
VISUALSTYLE
  5
AB25B
102
{ACAD_XDICTIONARY
360
ADD5A
102
}
102
{ACAD_REACTORS
330
B0F1
102
}
330
B0F1
100
AcDbVisualStyle
  2
OverhangOff
 70
    21
 71
     2
 72
     2
 73
     0
 90
        0
 40
-0.6
 41
-30.0
 62
     5
 63
     7
 74
     1
 91
        4
 64
     7
 65
   257
 75
     1
175
     1
 42
1.0
 92
        9
 66
     7
 43
1.0
 76
     1
 77
     6
 78
     2
 67
     7
 79
     5
170
     0
171
     0
290
     0
174
     0
 93
        1
 44
0.0
173
     0
291
     1
 45
0.0
1001
ACAD
1000
AcDbSavedByObjectVersion
1070
     0
  0
VISUALSTYLE
  5
B0FB
102
{ACAD_XDICTIONARY
360
ADD3C
102
}
102
{ACAD_REACTORS
330
B0F1
102
}
330
B0F1
100
AcDbVisualStyle
  2

 70
     8
 71
     2
 72
     2
 73
     0
 90
        0
 40
-0.6
 41
-30.0
 62
     5
 63
     7
 74
     1
 91
        0
 64
     7
 65
   257
 75
     1
175
     1
 42
1.0
 92
        8
 66
     8
 43
1.0
 76
     1
 77
     6
 78
     2
 67
     7
 79
     5
170
     0
171
     0
290
     0
174
     0
 93
       13
 44
0.0
173
     0
291
     0
 45
0.0
1001
ACAD
1000
AcDbSavedByObjectVersion
1070
     0
  0
VISUALSTYLE
  5
AB259
102
{ACAD_XDICTIONARY
360
ADD56
102
}
102
{ACAD_REACTORS
330
B0F1
102
}
330
B0F1
100
AcDbVisualStyle
  2
Shaded
 70
    27
 71
     2
 72
     2
 73
     1
 90
        2
 40
-0.6
 41
30.0
 62
     5
 63
     7
 74
     0
 91
        4
 64
     7
 65
   257
 75
     1
175
     1
 42
1.0
 92
        8
 66
   257
 43
1.0
 76
     1
 77
     6
 78
     2
 67
     8
 79
     3
170
     0
171
     0
290
     0
174
     0
 93
        5
 44
0.0
173
     0
291
     0
 45
0.0
1001
ACAD
1000
AcDbSavedByObjectVersion
1070
     0
  0
VISUALSTYLE
  5
AB258
102
{ACAD_XDICTIONARY
360
ADD54
102
}
102
{ACAD_REACTORS
330
B0F1
102
}
330
B0F1
100
AcDbVisualStyle
  2
Shaded with edges
 70
    26
 71
     2
 72
     2
 73
     1
 90
        2
 40
-0.6
 41
30.0
 62
     5
 63
     7
 74
     1
 91
       10
 64
     7
 65
   257
 75
     2
175
     1
 42
1.0
 92
        8
 66
   257
 43
1.0
 76
     1
 77
     6
 78
     2
 67
     7
 79
     3
170
     0
171
     0
290
     0
174
     0
 93
        5
 44
0.0
173
     0
291
     0
 45
0.0
1001
ACAD
1000
AcDbSavedByObjectVersion
1070
     0
  0
VISUALSTYLE
  5
AB255
102
{ACAD_XDICTIONARY
360
ADD4E
102
}
102
{ACAD_REACTORS
330
B0F1
102
}
330
B0F1
100
AcDbVisualStyle
  2
Shades of Gray
 70
    23
 71
     2
 72
     2
 73
     3
 90
        0
 40
-0.6
 41
-30.0
 62
     5
 63
     7
 74
     2
 91
        2
 64
     7
 65
     7
 75
     1
175
     1
 42
40.0
 92
        8
 66
     7
 43
1.0
 76
     1
 77
     6
 78
     2
 67
     7
 79
     3
170
     0
171
     0
290
     0
174
     0
 93
        1
 44
0.0
173
     0
291
     0
 45
0.0
1001
ACAD
1000
AcDbSavedByObjectVersion
1070
     0
  0
VISUALSTYLE
  5
AB256
102
{ACAD_XDICTIONARY
360
ADD50
102
}
102
{ACAD_REACTORS
330
B0F1
102
}
330
B0F1
100
AcDbVisualStyle
  2
Sketchy
 70
    24
 71
     1
 72
     2
 73
     2
 90
        0
 40
-0.6
 41
-30.0
 62
     5
 63
     7
 74
     2
 91
        2
 64
     7
 65
     7
 75
     1
175
     1
 42
40.0
 92
       11
 66
     7
 43
1.0
 76
     1
 77
     6
 78
     2
 67
     7
 79
     6
170
     0
171
     0
290
     0
174
     0
 93
        1
 44
0.0
173
     0
291
     0
 45
0.0
1001
ACAD
1000
AcDbSavedByObjectVersion
1070
     0
  0
VISUALSTYLE
  5
B0FE
102
{ACAD_XDICTIONARY
360
ADD42
102
}
102
{ACAD_REACTORS
330
B0F1
102
}
330
B0F1
100
AcDbVisualStyle
  2

 70
    13
 71
     2
 72
     2
 73
     0
 90
        0
 40
-0.6
 41
-30.0
 62
     5
 63
     7
 74
     1
 91
        4
 64
     7
 65
   257
 75
     1
175
     1
 42
1.0
 92
       12
 66
     7
 43
1.0
 76
     1
 77
     6
 78
     2
 67
     7
 79
     5
170
     0
171
     0
290
     0
174
     0
 93
        1
 44
0.0
173
     0
291
     1
 45
0.0
1001
ACAD
1000
AcDbSavedByObjectVersion
1070
     0
  0
VISUALSTYLE
  5
AB253
102
{ACAD_XDICTIONARY
360
ADD4A
102
}
102
{ACAD_REACTORS
330
B0F1
102
}
330
B0F1
100
AcDbVisualStyle
  2
Wireframe
 70
     5
 71
     0
 72
     2
 73
     0
 90
        0
 40
-0.6
 41
-30.0
 62
     5
 63
     7
 74
     1
 91
        4
 64
     7
 65
   257
 75
     1
175
     1
 42
1.0
 92
        0
 66
   257
 43
1.0
 76
     1
 77
     6
 78
     2
 67
     7
 79
     3
170
     0
171
     0
290
     0
174
     0
 93
        1
 44
0.0
173
     0
291
     0
 45
0.0
1001
ACAD
1000
AcDbSavedByObjectVersion
1070
     0
  0
VISUALSTYLE
  5
AB257
102
{ACAD_XDICTIONARY
360
ADD52
102
}
102
{ACAD_REACTORS
330
B0F1
102
}
330
B0F1
100
AcDbVisualStyle
  2
X-Ray
 70
    25
 71
     2
 72
     2
 73
     1
 90
        1
 40
0.5
 41
-30.0
 62
     5
 63
     7
 74
     1
 91
        0
 64
     7
 65
   257
 75
     1
175
     1
 42
1.0
 92
        8
 66
     7
 43
1.0
 76
     1
 77
     6
 78
     2
 67
     7
 79
     3
170
     0
171
     0
290
     0
174
     0
 93
       13
 44
0.0
173
     0
291
     0
 45
0.0
1001
ACAD
1000
AcDbSavedByObjectVersion
1070
     0
  0
DICTIONARYVAR
  5
AB68F
102
{ACAD_REACTORS
330
34
102
}
330
34
100
DictionaryVariables
280
     0
  1
1:1
  0
DICTIONARYVAR
  5
AB68B
102
{ACAD_REACTORS
330
34
102
}
330
34
100
DictionaryVariables
280
     0
  1
STANDARD
  0
DICTIONARYVAR
  5
AAF3
102
{ACAD_REACTORS
330
34
102
}
330
34
100
DictionaryVariables
280
     0
  1
STANDARD
  0
DICTIONARYVAR
  5
AB68C
102
{ACAD_REACTORS
330
34
102
}
330
34
100
DictionaryVariables
280
     0
  1
Metric50
  0
DICTIONARYVAR
  5
AB68D
102
{ACAD_REACTORS
330
34
102
}
330
34
100
DictionaryVariables
280
     0
  1
Metric50
  0
DICTIONARYVAR
  5
A10C
102
{ACAD_REACTORS
330
34
102
}
330
34
100
DictionaryVariables
280
     0
  1
1
  0
DICTIONARYVAR
  5
AB07
102
{ACAD_REACTORS
330
34
102
}
330
34
100
DictionaryVariables
280
     0
  1
4
  0
DICTIONARYVAR
  5
35
102
{ACAD_REACTORS
330
34
102
}
330
34
100
DictionaryVariables
280
     0
  1
0
  0
DICTIONARYVAR
  5
AB691
102
{ACAD_REACTORS
330
34
102
}
330
34
100
DictionaryVariables
280
     0
  1
1
  0
DICTIONARYVAR
  5
AB692
102
{ACAD_REACTORS
330
34
102
}
330
34
100
DictionaryVariables
280
     0
  1
15
  0
DICTIONARYVAR
  5
AB690
102
{ACAD_REACTORS
330
34
102
}
330
34
100
DictionaryVariables
280
     0
  1
0
  0
DICTIONARYVAR
  5
AB68E
102
{ACAD_REACTORS
330
34
102
}
330
34
100
DictionaryVariables
280
     0
  1
0
  0
DICTIONARYVAR
  5
194C
102
{ACAD_REACTORS
330
34
102
}
330
34
100
DictionaryVariables
280
     0
  1
96
  0
DICTIONARYVAR
  5
ADD14
102
{ACAD_REACTORS
330
34
102
}
330
34
100
DictionaryVariables
280
     0
  1
2
  0
DICTIONARY
  5
ADD22
102
{ACAD_REACTORS
330
ADD20
102
}
330
ADD20
100
AcDbDictionary
281
     1
  0
DICTIONARY
  5
ADD21
102
{ACAD_REACTORS
330
ADD20
102
}
330
ADD20
100
AcDbDictionary
281
     1
  3
2129702488
350
ADD1B
  3
2129702496
350
ADD1C
  3
2129702504
350
ADD1D
  3
2129702512
350
ADD1E
  3
2129702520
350
ADD1F
  0
DICTIONARY
  5
7E8
102
{ACAD_REACTORS
330
47
102
}
330
47
100
AcDbDictionary
281
     1
  0
DICTIONARY
  5
4C
102
{ACAD_REACTORS
330
47
102
}
330
47
100
AcDbDictionary
281
     1
  0
XRECORD
  5
A929
102
{ACAD_REACTORS
330
47
102
}
330
47
100
AcDbXrecord
280
     1
 90
-1023410169
  0
XRECORD
  5
AA8D9
102
{ACAD_REACTORS
330
AA8D8
102
}
330
AA8D8
100
AcDbXrecord
280
     1
330
0
330
0
330
0
330
0
330
0
330
0
330
0
330
0
330
0
330
0
330
0
330
0
330
0
330
0
330
0
330
0
330
0
330
0
330
0
330
0
330
0
330
0
330
0
330
0
330
0
330
0
330
0
330
0
330
0
330
0
330
0
330
0
330
0
330
0
330
0
330
0
330
0
330
0
330
0
330
0
330
0
330
0
330
0
330
0
330
0
330
0
330
0
330
0
330
0
330
0
330
0
330
0
330
0
330
0
330
0
330
0
330
0
330
0
330
0
330
0
330
0
330
0
330
0
330
0
330
0
330
0
330
0
330
0
330
0
330
0
330
0
330
0
330
0
330
0
330
0
330
0
330
0
330
0
330
0
330
0
330
0
330
0
330
0
330
0
330
0
330
0
330
0
330
0
330
0
330
0
330
0
330
0
330
0
330
0
330
0
330
0
330
0
330
0
330
0
330
0
330
0
330
0
330
0
330
0
330
0
330
0
330
0
330
0
330
0
330
0
330
0
330
0
330
0
330
0
330
0
330
0
330
0
330
0
330
0
330
0
330
0
330
0
330
0
330
0
330
0
330
0
330
0
330
0
330
0
330
0
330
0
330
0
330
0
330
0
330
0
330
0
330
0
330
0
330
0
330
0
330
0
330
0
330
0
330
0
330
0
330
0
330
0
330
0
330
0
330
0
330
0
330
0
330
0
330
0
330
0
330
0
330
0
330
0
330
0
330
0
330
0
330
0
330
0
330
0
330
0
330
0
330
0
330
0
330
0
330
0
330
0
330
0
330
0
330
0
330
0
330
0
330
0
330
0
330
0
330
0
330
0
330
0
330
0
330
0
330
0
330
0
330
0
330
0
330
0
330
0
330
0
330
0
330
0
330
0
330
0
330
0
330
0
330
0
330
0
330
0
330
0
330
0
330
0
330
0
330
0
330
0
330
0
330
0
330
0
330
0
330
0
330
0
330
0
330
0
330
0
330
0
330
0
330
0
330
0
330
0
330
0
330
0
330
0
330
0
330
0
330
0
330
0
330
0
330
0
330
0
330
0
330
0
330
0
330
0
330
0
330
0
330
0
330
0
330
0
330
0
330
0
330
0
330
0
330
0
330
0
330
0
330
0
330
0
330
0
330
0
330
0
330
0
330
0
330
0
330
0
330
0
330
0
330
0
330
0
330
0
330
0
330
0
330
0
330
0
330
0
330
0
330
0
330
0
330
0
330
0
330
0
330
0
330
0
330
0
330
0
330
0
330
0
330
0
330
0
330
0
330
0
330
0
330
0
330
0
330
0
330
0
330
0
330
0
330
0
330
0
330
0
330
0
330
0
330
0
330
0
330
0
330
0
330
0
330
0
330
0
330
0
330
0
330
0
330
0
330
0
330
0
330
0
330
0
330
0
330
0
330
0
330
0
330
0
330
0
330
0
330
0
330
0
330
0
330
0
330
0
330
0
330
0
330
0
330
0
330
0
330
0
330
0
330
0
330
0
330
0
330
0
330
0
330
0
330
0
330
0
330
0
330
0
330
0
330
0
330
0
330
0
330
0
330
0
330
0
330
0
330
0
330
0
330
0
330
0
330
0
330
0
330
0
330
0
330
0
330
0
330
0
330
0
330
0
330
0
330
0
330
0
330
0
330
0
330
0
330
0
330
0
330
0
330
0
330
0
330
0
330
0
330
0
330
0
330
0
330
0
330
0
330
0
330
0
330
0
330
0
330
0
330
0
330
0
330
0
330
0
330
0
330
0
330
0
330
0
330
0
330
0
330
0
330
0
330
0
330
0
330
0
330
0
330
0
330
0
330
0
330
0
330
0
330
0
330
0
330
0
330
0
330
0
330
0
330
0
330
0
330
0
330
0
330
0
330
0
330
0
330
0
330
0
330
0
330
0
330
0
330
0
330
0
330
0
330
0
330
0
330
0
330
0
330
0
330
0
330
0
330
0
330
0
330
0
330
0
330
0
330
0
330
0
330
0
330
0
330
0
330
0
330
0
330
0
330
0
330
0
330
0
330
0
330
0
330
0
330
0
330
0
330
0
330
0
330
0
330
0
330
0
330
0
330
0
330
0
330
0
330
0
330
0
330
0
330
0
330
0
330
0
330
0
330
0
330
0
330
0
330
0
330
0
330
0
330
0
330
0
330
0
330
0
330
0
330
0
330
0
330
0
330
0
330
0
330
0
330
0
330
0
330
0
330
0
330
0
330
0
330
0
330
0
330
0
330
0
330
0
330
0
  0
XRECORD
  5
3FB7
102
{ACAD_REACTORS
330
3F96
102
}
330
3F96
100
AcDbXrecord
280
     1
 91
        3
330
0
 90
        8
 62
     7
370
    40
331
16
  1
Color_7
330
0
 90
        0
 62
    14
370
    -3
331
16
  1
Color_14
330
0
 90
        8
 62
     7
370
    20
331
16
  1
Color_7
330
6D1
 90
        0
 62
     7
370
    -3
331
16
  1
Color_7
330
0
 90
        8
 62
     7
370
    50
331
16
  1
Color_7
330
0
 90
        8
 62
     2
370
    35
331
16
  1
Color_2
330
0
 90
        8
 62
     7
370
    -3
331
16
  1
Color_7
330
10
 90
        8
 62
     7
370
    -3
331
16
  1
Color_7
  0
DICTIONARY
  5
ADD25
330
22
100
AcDbDictionary
280
     1
281
     1
  3
ACAD_XREC_ROUNDTRIP
360
ADD26
  0
DICTIONARY
  5
ADD23
330
1E
100
AcDbDictionary
280
     1
281
     1
  3
ACAD_XREC_ROUNDTRIP
360
ADD24
  0
DICTIONARY
  5
ADD27
330
26
100
AcDbDictionary
280
     1
281
     1
  3
ACAD_XREC_ROUNDTRIP
360
ADD28
  0
DICTIONARY
  5
AB24D
330
B0EF
100
AcDbDictionary
280
     1
281
     1
  3
ACAD_XREC_ROUNDTRIP
360
AB24E
  0
DICTIONARY
  5
AB24B
330
B0EE
100
AcDbDictionary
280
     1
281
     1
  3
ACAD_XREC_ROUNDTRIP
360
AB24C
  0
DICTIONARY
  5
AB24F
330
B0F0
100
AcDbDictionary
280
     1
281
     1
  3
ACAD_XREC_ROUNDTRIP
360
AB250
  0
DICTIONARY
  5
ADD15
330
AABA
100
AcDbDictionary
280
     1
281
     1
  3
ACAD_ROUNDTRIP_2008_TABLESTYLE_CELLSTYLEMAP
360
ADD16
  3
ACAD_XREC_ROUNDTRIP
360
ADD29
  0
DICTIONARY
  5
ADD34
330
B0F7
100
AcDbDictionary
280
     1
281
     1
  3
ACAD_XREC_ROUNDTRIP
360
ADD35
  0
DICTIONARY
  5
ADD38
330
B0F9
100
AcDbDictionary
280
     1
281
     1
  3
ACAD_XREC_ROUNDTRIP
360
ADD39
  0
DICTIONARY
  5
ADD36
330
B0F8
100
AcDbDictionary
280
     1
281
     1
  3
ACAD_XREC_ROUNDTRIP
360
ADD37
  0
DICTIONARY
  5
ADD32
330
B0F6
100
AcDbDictionary
280
     1
281
     1
  3
ACAD_XREC_ROUNDTRIP
360
ADD33
  0
DICTIONARY
  5
ADD40
330
B0FD
100
AcDbDictionary
280
     1
281
     1
  3
ACAD_XREC_ROUNDTRIP
360
ADD41
  0
DICTIONARY
  5
ADD48
330
B101
100
AcDbDictionary
280
     1
281
     1
  3
ACAD_XREC_ROUNDTRIP
360
ADD49
  0
DICTIONARY
  5
ADD3A
330
B0FA
100
AcDbDictionary
280
     1
281
     1
  3
ACAD_XREC_ROUNDTRIP
360
ADD3B
  0
DICTIONARY
  5
ADD3E
330
B0FC
100
AcDbDictionary
280
     1
281
     1
  3
ACAD_XREC_ROUNDTRIP
360
ADD3F
  0
DICTIONARY
  5
ADD5C
330
AB25C
100
AcDbDictionary
280
     1
281
     1
  3
ACAD_XREC_ROUNDTRIP
360
ADD5D
  0
DICTIONARY
  5
ADD46
330
B100
100
AcDbDictionary
280
     1
281
     1
  3
ACAD_XREC_ROUNDTRIP
360
ADD47
  0
DICTIONARY
  5
ADD2A
330
B0F2
100
AcDbDictionary
280
     1
281
     1
  3
ACAD_XREC_ROUNDTRIP
360
ADD2B
  0
DICTIONARY
  5
ADD2C
330
B0F3
100
AcDbDictionary
280
     1
281
     1
  3
ACAD_XREC_ROUNDTRIP
360
ADD2D
  0
DICTIONARY
  5
ADD2E
330
B0F4
100
AcDbDictionary
280
     1
281
     1
  3
ACAD_XREC_ROUNDTRIP
360
ADD2F
  0
DICTIONARY
  5
ADD30
330
B0F5
100
AcDbDictionary
280
     1
281
     1
  3
ACAD_XREC_ROUNDTRIP
360
ADD31
  0
DICTIONARY
  5
ADD4C
330
AB254
100
AcDbDictionary
280
     1
281
     1
  3
ACAD_XREC_ROUNDTRIP
360
ADD4D
  0
DICTIONARY
  5
ADD58
330
AB25A
100
AcDbDictionary
280
     1
281
     1
  3
ACAD_XREC_ROUNDTRIP
360
ADD59
  0
DICTIONARY
  5
ADD44
330
B0FF
100
AcDbDictionary
280
     1
281
     1
  3
ACAD_XREC_ROUNDTRIP
360
ADD45
  0
DICTIONARY
  5
ADD5A
330
AB25B
100
AcDbDictionary
280
     1
281
     1
  3
ACAD_XREC_ROUNDTRIP
360
ADD5B
  0
DICTIONARY
  5
ADD3C
330
B0FB
100
AcDbDictionary
280
     1
281
     1
  3
ACAD_XREC_ROUNDTRIP
360
ADD3D
  0
DICTIONARY
  5
ADD56
330
AB259
100
AcDbDictionary
280
     1
281
     1
  3
ACAD_XREC_ROUNDTRIP
360
ADD57
  0
DICTIONARY
  5
ADD54
330
AB258
100
AcDbDictionary
280
     1
281
     1
  3
ACAD_XREC_ROUNDTRIP
360
ADD55
  0
DICTIONARY
  5
ADD4E
330
AB255
100
AcDbDictionary
280
     1
281
     1
  3
ACAD_XREC_ROUNDTRIP
360
ADD4F
  0
DICTIONARY
  5
ADD50
330
AB256
100
AcDbDictionary
280
     1
281
     1
  3
ACAD_XREC_ROUNDTRIP
360
ADD51
  0
DICTIONARY
  5
ADD42
330
B0FE
100
AcDbDictionary
280
     1
281
     1
  3
ACAD_XREC_ROUNDTRIP
360
ADD43
  0
DICTIONARY
  5
ADD4A
330
AB253
100
AcDbDictionary
280
     1
281
     1
  3
ACAD_XREC_ROUNDTRIP
360
ADD4B
  0
DICTIONARY
  5
ADD52
330
AB257
100
AcDbDictionary
280
     1
281
     1
  3
ACAD_XREC_ROUNDTRIP
360
ADD53
  0
XRECORD
  5
ADD1B
102
{ACAD_REACTORS
330
ADD21
102
}
330
ADD21
100
AcDbXrecord
280
     1
  1
AcDb_Thumbnail_Schema
102
{ATTRRECORD
341
ADD1C
  2
AcDbDs::TreatedAsObjectData
280
     1
291
     1
102
ATTRRECORD}
102
{ATTRRECORD
341
ADD1D
  2
AcDbDs::Legacy
280
     1
291
     1
102
ATTRRECORD}
  2
AcDbDs::ID
280
    10
 91
        8
102
{ATTRRECORD
341
ADD1E
  2
AcDs:Indexable
280
     1
291
     1
102
ATTRRECORD}
102
{ATTRRECORD
341
ADD1F
  2
AcDbDs::HandleAttribute
280
     7
282
     1
102
ATTRRECORD}
  2
Thumbnail_Data
280
    15
 91
        0
  0
XRECORD
  5
ADD1C
102
{ACAD_REACTORS
330
ADD21
102
}
330
ADD21
100
AcDbXrecord
280
     1
  1
AcDbDs::TreatedAsObjectDataSchema
  2
AcDbDs::TreatedAsObjectData
280
     1
 91
        0
  0
XRECORD
  5
ADD1D
102
{ACAD_REACTORS
330
ADD21
102
}
330
ADD21
100
AcDbXrecord
280
     1
  1
AcDbDs::LegacySchema
  2
AcDbDs::Legacy
280
     1
 91
        0
  0
XRECORD
  5
ADD1E
102
{ACAD_REACTORS
330
ADD21
102
}
330
ADD21
100
AcDbXrecord
280
     1
  1
AcDbDs::IndexedPropertySchema
  2
AcDs:Indexable
280
     1
 91
        0
  0
XRECORD
  5
ADD1F
102
{ACAD_REACTORS
330
ADD21
102
}
330
ADD21
100
AcDbXrecord
280
     1
  1
AcDbDs::HandleAttributeSchema
  2
AcDbDs::HandleAttribute
280
     7
 91
        1
284
     1
  0
XRECORD
  5
ADD26
102
{ACAD_REACTORS
330
ADD25
102
}
330
ADD25
100
AcDbXrecord
280
     1
102
SHADEPLOT
 70
     1
102
SHADEPLOTRESLEVEL
 70
     2
102
SHADEPLOTCUSTOMDPI
 70
   300
  0
XRECORD
  5
ADD24
102
{ACAD_REACTORS
330
ADD23
102
}
330
ADD23
100
AcDbXrecord
280
     1
102
SHADEPLOT
 70
     0
102
SHADEPLOTRESLEVEL
 70
     2
102
SHADEPLOTCUSTOMDPI
 70
   300
  0
XRECORD
  5
ADD28
102
{ACAD_REACTORS
330
ADD27
102
}
330
ADD27
100
AcDbXrecord
280
     1
102
SHADEPLOT
 70
     0
102
SHADEPLOTRESLEVEL
 70
     2
102
SHADEPLOTCUSTOMDPI
 70
   300
  0
XRECORD
  5
AB24E
102
{ACAD_REACTORS
330
AB24D
102
}
330
AB24D
100
AcDbXrecord
280
     1
102
MATERIAL
148
0.0
149
0.0
149
0.0
 93
        0
 94
      127
282
     0
 72
     1
 77
     1
171
     1
175
     1
179
     1
273
     0
  0
XRECORD
  5
AB24C
102
{ACAD_REACTORS
330
AB24B
102
}
330
AB24B
100
AcDbXrecord
280
     1
102
MATERIAL
148
0.0
149
0.0
149
0.0
 93
        0
 94
      127
282
     0
 72
     1
 77
     1
171
     1
175
     1
179
     1
273
     0
  0
XRECORD
  5
AB250
102
{ACAD_REACTORS
330
AB24F
102
}
330
AB24F
100
AcDbXrecord
280
     1
102
MATERIAL
148
0.0
149
0.0
149
0.0
 93
        0
 94
      127
282
     0
 72
     1
 77
     1
171
     1
175
     1
179
     1
273
     0
  0
CELLSTYLEMAP
  5
ADD16
102
{ACAD_REACTORS
330
ADD15
102
}
330
ADD15
100
AcDbCellStyleMap
 90
        3
300
CELLSTYLE
  1
TABLEFORMAT_BEGIN
 90
        5
170
     1
 91
        0
 92
    32768
 62
   257
 93
        1
300
CONTENTFORMAT
  1
CONTENTFORMAT_BEGIN
 90
        0
 91
        0
 92
        4
 93
        0
300

 40
0.0
140
1.0
 94
        5
 62
     0
340
11
144
6.0
309
CONTENTFORMAT_END
171
     1
301
MARGIN
  1
CELLMARGIN_BEGIN
 40
1.5
 40
1.5
 40
1.5
 40
1.5
 40
0.18
 40
0.18
309
CELLMARGIN_END
 94
        6
 95
        1
302
GRIDFORMAT
  1
GRIDFORMAT_BEGIN
 90
        0
 91
        1
 62
     0
 92
       -2
340
0
 93
        0
 40
0.045
309
GRIDFORMAT_END
 95
        2
302
GRIDFORMAT
  1
GRIDFORMAT_BEGIN
 90
        0
 91
        1
 62
     0
 92
       -2
340
0
 93
        0
 40
0.045
309
GRIDFORMAT_END
 95
        4
302
GRIDFORMAT
  1
GRIDFORMAT_BEGIN
 90
        0
 91
        1
 62
     0
 92
       -2
340
0
 93
        0
 40
0.045
309
GRIDFORMAT_END
 95
        8
302
GRIDFORMAT
  1
GRIDFORMAT_BEGIN
 90
        0
 91
        1
 62
     0
 92
       -2
340
0
 93
        0
 40
0.045
309
GRIDFORMAT_END
 95
       16
302
GRIDFORMAT
  1
GRIDFORMAT_BEGIN
 90
        0
 91
        1
 62
     0
 92
       -2
340
0
 93
        0
 40
0.045
309
GRIDFORMAT_END
 95
       32
302
GRIDFORMAT
  1
GRIDFORMAT_BEGIN
 90
        0
 91
        1
 62
     0
 92
       -2
340
0
 93
        0
 40
0.045
309
GRIDFORMAT_END
309
TABLEFORMAT_END
  1
CELLSTYLE_BEGIN
 90
        1
 91
        1
300
_TITLE
309
CELLSTYLE_END
300
CELLSTYLE
  1
TABLEFORMAT_BEGIN
 90
        5
170
     1
 91
        0
 92
        0
 62
   257
 93
        1
300
CONTENTFORMAT
  1
CONTENTFORMAT_BEGIN
 90
        0
 91
        0
 92
        4
 93
        0
300

 40
0.0
140
1.0
 94
        5
 62
     0
340
11
144
4.5
309
CONTENTFORMAT_END
171
     1
301
MARGIN
  1
CELLMARGIN_BEGIN
 40
1.5
 40
1.5
 40
1.5
 40
1.5
 40
0.18
 40
0.18
309
CELLMARGIN_END
 94
        6
 95
        1
302
GRIDFORMAT
  1
GRIDFORMAT_BEGIN
 90
        0
 91
        1
 62
     0
 92
       -2
340
0
 93
        0
 40
0.045
309
GRIDFORMAT_END
 95
        2
302
GRIDFORMAT
  1
GRIDFORMAT_BEGIN
 90
        0
 91
        1
 62
     0
 92
       -2
340
0
 93
        0
 40
0.045
309
GRIDFORMAT_END
 95
        4
302
GRIDFORMAT
  1
GRIDFORMAT_BEGIN
 90
        0
 91
        1
 62
     0
 92
       -2
340
0
 93
        0
 40
0.045
309
GRIDFORMAT_END
 95
        8
302
GRIDFORMAT
  1
GRIDFORMAT_BEGIN
 90
        0
 91
        1
 62
     0
 92
       -2
340
0
 93
        0
 40
0.045
309
GRIDFORMAT_END
 95
       16
302
GRIDFORMAT
  1
GRIDFORMAT_BEGIN
 90
        0
 91
        1
 62
     0
 92
       -2
340
0
 93
        0
 40
0.045
309
GRIDFORMAT_END
 95
       32
302
GRIDFORMAT
  1
GRIDFORMAT_BEGIN
 90
        0
 91
        1
 62
     0
 92
       -2
340
0
 93
        0
 40
0.045
309
GRIDFORMAT_END
309
TABLEFORMAT_END
  1
CELLSTYLE_BEGIN
 90
        2
 91
        1
300
_HEADER
309
CELLSTYLE_END
300
CELLSTYLE
  1
TABLEFORMAT_BEGIN
 90
        5
170
     1
 91
        0
 92
        0
 62
   257
 93
        1
300
CONTENTFORMAT
  1
CONTENTFORMAT_BEGIN
 90
        0
 91
        0
 92
        4
 93
        0
300

 40
0.0
140
1.0
 94
        2
 62
     0
340
11
144
4.5
309
CONTENTFORMAT_END
171
     1
301
MARGIN
  1
CELLMARGIN_BEGIN
 40
1.5
 40
1.5
 40
1.5
 40
1.5
 40
0.18
 40
0.18
309
CELLMARGIN_END
 94
        6
 95
        1
302
GRIDFORMAT
  1
GRIDFORMAT_BEGIN
 90
        0
 91
        1
 62
     0
 92
       -2
340
0
 93
        0
 40
0.045
309
GRIDFORMAT_END
 95
        2
302
GRIDFORMAT
  1
GRIDFORMAT_BEGIN
 90
        0
 91
        1
 62
     0
 92
       -2
340
0
 93
        0
 40
0.045
309
GRIDFORMAT_END
 95
        4
302
GRIDFORMAT
  1
GRIDFORMAT_BEGIN
 90
        0
 91
        1
 62
     0
 92
       -2
340
0
 93
        0
 40
0.045
309
GRIDFORMAT_END
 95
        8
302
GRIDFORMAT
  1
GRIDFORMAT_BEGIN
 90
        0
 91
        1
 62
     0
 92
       -2
340
0
 93
        0
 40
0.045
309
GRIDFORMAT_END
 95
       16
302
GRIDFORMAT
  1
GRIDFORMAT_BEGIN
 90
        0
 91
        1
 62
     0
 92
       -2
340
0
 93
        0
 40
0.045
309
GRIDFORMAT_END
 95
       32
302
GRIDFORMAT
  1
GRIDFORMAT_BEGIN
 90
        0
 91
        1
 62
     0
 92
       -2
340
0
 93
        0
 40
0.045
309
GRIDFORMAT_END
309
TABLEFORMAT_END
  1
CELLSTYLE_BEGIN
 90
        3
 91
        2
300
_DATA
309
CELLSTYLE_END
  0
XRECORD
  5
ADD29
102
{ACAD_REACTORS
330
ADD15
102
}
330
ADD15
100
AcDbXrecord
280
     1
102
ACAD_ROUNDTRIP_PRE2007_TABLESTYLE
 90
        4
 91
        0
  1

 92
        4
 93
        0
  2

 94
        4
 95
        0
  3

  0
XRECORD
  5
ADD35
102
{ACAD_REACTORS
330
ADD34
102
}
330
ADD34
100
AcDbXrecord
280
     1
102
RTVSPost2010Prop28
280
     1
102
RTVSPost2010PropOp28
 70
     1
102
RTVSPost2010Prop29
280
     1
102
RTVSPost2010PropOp29
 70
     1
102
RTVSPost2010Prop30
280
     0
102
RTVSPost2010PropOp30
 70
     1
102
RTVSPost2010Prop31
280
     0
102
RTVSPost2010PropOp31
 70
     1
102
RTVSPost2010Prop32
280
     0
102
RTVSPost2010PropOp32
 70
     1
102
RTVSPost2010Prop33
280
     0
102
RTVSPost2010PropOp33
 70
     1
102
RTVSPost2010Prop34
280
     0
102
RTVSPost2010PropOp34
 70
     1
102
RTVSPost2010Prop35
280
     0
102
RTVSPost2010PropOp35
 70
     1
102
RTVSPost2010Prop36
280
     0
102
RTVSPost2010PropOp36
 70
     1
102
RTVSPost2010Prop37
 90
       50
102
RTVSPost2010PropOp37
 70
     1
102
RTVSPost2010Prop38
140
0.0
102
RTVSPost2010PropOp38
 70
     1
102
RTVSPost2010Prop39
140
1.0
102
RTVSPost2010PropOp39
 70
     1
102
RTVSPost2010Prop40
 90
        0
102
RTVSPost2010PropOp40
 70
     1
102
RTVSPost2010Prop41ColorIndex
 90
       18
102
RTVSPost2010Prop41ColorRGB
 90
        0
102
RTVSPost2010PropOp41
 70
     1
102
RTVSPost2010Prop42
 90
       50
102
RTVSPost2010PropOp42
 70
     1
102
RTVSPost2010Prop43
 90
        3
102
RTVSPost2010PropOp43
 70
     1
102
RTVSPost2010Prop44ColorIndex
 90
        5
102
RTVSPost2010Prop44ColorRGB
 90
      255
102
RTVSPost2010PropOp44
 70
     1
102
RTVSPost2010Prop45
280
     0
102
RTVSPost2010PropOp45
 70
     1
102
RTVSPost2010Prop46
 90
       50
102
RTVSPost2010PropOp46
 70
     1
102
RTVSPost2010Prop47
 90
       50
102
RTVSPost2010PropOp47
 70
     1
102
RTVSPost2010Prop48
 90
       50
102
RTVSPost2010PropOp48
 70
     1
102
RTVSPost2010Prop49
280
     0
102
RTVSPost2010PropOp49
 70
     1
102
RTVSPost2010Prop50
 90
       50
102
RTVSPost2010PropOp50
 70
     1
102
RTVSPost2010Prop51ColorIndex
 90
      256
102
RTVSPost2010Prop51ColorRGB
 90
-16777216
102
RTVSPost2010PropOp51
 70
     0
102
RTVSPost2010Prop52
140
1.0
102
RTVSPost2010PropOp52
 70
     0
102
RTVSPost2010Prop53
 90
        2
102
RTVSPost2010PropOp53
 70
     1
102
RTVSPost2010Prop54
  1
strokes_ogs.tif
102
RTVSPost2010PropOp54
 70
     1
102
RTVSPost2010Prop55
280
     0
102
RTVSPost2010PropOp55
 70
     1
102
RTVSPost2010Prop56
140
1.0
102
RTVSPost2010PropOp56
 70
     1
102
RTVSPost2010Prop57
140
1.0
102
RTVSPost2010PropOp57
 70
     1
102
RTVSPropertyOp0
 70
     1
102
RTVSPropertyOp1
 70
     1
102
RTVSPropertyOp2
 70
     1
102
RTVSPropertyOp3
 70
     1
102
RTVSPropertyOp4
 70
     1
102
RTVSPropertyOp5
 70
     1
102
RTVSPropertyOp6
 70
     1
102
RTVSPropertyOp7
 70
     1
102
RTVSPropertyOp8
 70
     1
102
RTVSPropertyOp9
 70
     1
102
RTVSPropertyOp10
 70
     1
102
RTVSPropertyOp11
 70
     1
102
RTVSPropertyOp12
 70
     1
102
RTVSPropertyOp13
 70
     1
102
RTVSPropertyOp14
 70
     1
102
RTVSPropertyOp15
 70
     1
102
RTVSPropertyOp16
 70
     1
102
RTVSPropertyOp17
 70
     1
102
RTVSPropertyOp18
 70
     1
102
RTVSPropertyOp19
 70
     1
102
RTVSPropertyOp20
 70
     1
102
RTVSPropertyOp21
 70
     1
102
RTVSPropertyOp22
 70
     1
102
RTVSPropertyOp23
 70
     1
102
RTVSPropertyOp24
 70
     1
102
RTVSPropertyOp25
 70
     1
102
RTVSPropertyOp26
 70
     1
102
RTVSPropertyOp27
 70
     1
102
RTVSPropertyOp28
 70
     1
102
RTVSPropertyOp29
 70
     1
102
RTVSPropertyOp30
 70
     1
102
RTVSPropertyOp31
 70
     1
102
RTVSPropertyOp32
 70
     1
102
RTVSPropertyOp33
 70
     1
102
RTVSPropertyOp34
 70
     1
102
RTVSPropertyOp35
 70
     1
102
RTVSPropertyOp36
 70
     1
102
RTVSPropertyOp37
 70
     1
102
RTVSPropertyOp38
 70
     1
102
RTVSPropertyOp39
 70
     1
102
RTVSPropertyOp40
 70
     1
102
RTVSPropertyOp41
 70
     1
102
RTVSPropertyOp42
 70
     1
102
RTVSPropertyOp43
 70
     1
102
RTVSPropertyOp44
 70
     1
102
RTVSPropertyOp45
 70
     1
102
RTVSPropertyOp46
 70
     1
102
RTVSPropertyOp47
 70
     1
102
RTVSPropertyOp48
 70
     1
102
RTVSPropertyOp49
 70
     1
102
RTVSPropertyOp50
 70
     1
102
RTVSPropertyOp51
 70
     0
102
RTVSPropertyOp52
 70
     0
102
RTVSPropertyOp53
 70
     1
102
RTVSPropertyOp54
 70
     1
102
RTVSPropertyOp55
 70
     1
102
RTVSPropertyOp56
 70
     1
102
RTVSPropertyOp57
 70
     1
102
RTVSPropertyOp58
 70
     1
102
RTVSPropertyOp59
 70
     1
102
RTVSPropertyOp60
 70
     1
102
RTVSPropertyOp61
 70
     1
102
RTVSPropertyOp62
 70
     1
  0
XRECORD
  5
ADD39
102
{ACAD_REACTORS
330
ADD38
102
}
330
ADD38
100
AcDbXrecord
280
     1
102
RTVSPost2010Prop28
280
     0
102
RTVSPost2010PropOp28
 70
     1
102
RTVSPost2010Prop29
280
     1
102
RTVSPost2010PropOp29
 70
     1
102
RTVSPost2010Prop30
280
     1
102
RTVSPost2010PropOp30
 70
     1
102
RTVSPost2010Prop31
280
     0
102
RTVSPost2010PropOp31
 70
     1
102
RTVSPost2010Prop32
280
     0
102
RTVSPost2010PropOp32
 70
     1
102
RTVSPost2010Prop33
280
     0
102
RTVSPost2010PropOp33
 70
     1
102
RTVSPost2010Prop34
280
     0
102
RTVSPost2010PropOp34
 70
     1
102
RTVSPost2010Prop35
280
     0
102
RTVSPost2010PropOp35
 70
     1
102
RTVSPost2010Prop36
280
     0
102
RTVSPost2010PropOp36
 70
     1
102
RTVSPost2010Prop37
 90
       50
102
RTVSPost2010PropOp37
 70
     1
102
RTVSPost2010Prop38
140
0.0
102
RTVSPost2010PropOp38
 70
     1
102
RTVSPost2010Prop39
140
1.0
102
RTVSPost2010PropOp39
 70
     1
102
RTVSPost2010Prop40
 90
        0
102
RTVSPost2010PropOp40
 70
     1
102
RTVSPost2010Prop41ColorIndex
 90
       18
102
RTVSPost2010Prop41ColorRGB
 90
        0
102
RTVSPost2010PropOp41
 70
     1
102
RTVSPost2010Prop42
 90
       50
102
RTVSPost2010PropOp42
 70
     1
102
RTVSPost2010Prop43
 90
        3
102
RTVSPost2010PropOp43
 70
     1
102
RTVSPost2010Prop44ColorIndex
 90
        5
102
RTVSPost2010Prop44ColorRGB
 90
      255
102
RTVSPost2010PropOp44
 70
     1
102
RTVSPost2010Prop45
280
     0
102
RTVSPost2010PropOp45
 70
     1
102
RTVSPost2010Prop46
 90
       50
102
RTVSPost2010PropOp46
 70
     1
102
RTVSPost2010Prop47
 90
       50
102
RTVSPost2010PropOp47
 70
     1
102
RTVSPost2010Prop48
 90
       50
102
RTVSPost2010PropOp48
 70
     1
102
RTVSPost2010Prop49
280
     0
102
RTVSPost2010PropOp49
 70
     1
102
RTVSPost2010Prop50
 90
       50
102
RTVSPost2010PropOp50
 70
     1
102
RTVSPost2010Prop51ColorIndex
 90
      256
102
RTVSPost2010Prop51ColorRGB
 90
-16777216
102
RTVSPost2010PropOp51
 70
     0
102
RTVSPost2010Prop52
140
1.0
102
RTVSPost2010PropOp52
 70
     0
102
RTVSPost2010Prop53
 90
        2
102
RTVSPost2010PropOp53
 70
     1
102
RTVSPost2010Prop54
  1
strokes_ogs.tif
102
RTVSPost2010PropOp54
 70
     1
102
RTVSPost2010Prop55
280
     0
102
RTVSPost2010PropOp55
 70
     1
102
RTVSPost2010Prop56
140
1.0
102
RTVSPost2010PropOp56
 70
     1
102
RTVSPost2010Prop57
140
1.0
102
RTVSPost2010PropOp57
 70
     1
102
RTVSPropertyOp0
 70
     1
102
RTVSPropertyOp1
 70
     1
102
RTVSPropertyOp2
 70
     1
102
RTVSPropertyOp3
 70
     1
102
RTVSPropertyOp4
 70
     1
102
RTVSPropertyOp5
 70
     1
102
RTVSPropertyOp6
 70
     1
102
RTVSPropertyOp7
 70
     1
102
RTVSPropertyOp8
 70
     1
102
RTVSPropertyOp9
 70
     1
102
RTVSPropertyOp10
 70
     1
102
RTVSPropertyOp11
 70
     1
102
RTVSPropertyOp12
 70
     1
102
RTVSPropertyOp13
 70
     1
102
RTVSPropertyOp14
 70
     1
102
RTVSPropertyOp15
 70
     1
102
RTVSPropertyOp16
 70
     1
102
RTVSPropertyOp17
 70
     1
102
RTVSPropertyOp18
 70
     1
102
RTVSPropertyOp19
 70
     1
102
RTVSPropertyOp20
 70
     1
102
RTVSPropertyOp21
 70
     1
102
RTVSPropertyOp22
 70
     1
102
RTVSPropertyOp23
 70
     1
102
RTVSPropertyOp24
 70
     1
102
RTVSPropertyOp25
 70
     1
102
RTVSPropertyOp26
 70
     1
102
RTVSPropertyOp27
 70
     1
102
RTVSPropertyOp28
 70
     1
102
RTVSPropertyOp29
 70
     1
102
RTVSPropertyOp30
 70
     1
102
RTVSPropertyOp31
 70
     1
102
RTVSPropertyOp32
 70
     1
102
RTVSPropertyOp33
 70
     1
102
RTVSPropertyOp34
 70
     1
102
RTVSPropertyOp35
 70
     1
102
RTVSPropertyOp36
 70
     1
102
RTVSPropertyOp37
 70
     1
102
RTVSPropertyOp38
 70
     1
102
RTVSPropertyOp39
 70
     1
102
RTVSPropertyOp40
 70
     1
102
RTVSPropertyOp41
 70
     1
102
RTVSPropertyOp42
 70
     1
102
RTVSPropertyOp43
 70
     1
102
RTVSPropertyOp44
 70
     1
102
RTVSPropertyOp45
 70
     1
102
RTVSPropertyOp46
 70
     1
102
RTVSPropertyOp47
 70
     1
102
RTVSPropertyOp48
 70
     1
102
RTVSPropertyOp49
 70
     1
102
RTVSPropertyOp50
 70
     1
102
RTVSPropertyOp51
 70
     0
102
RTVSPropertyOp52
 70
     0
102
RTVSPropertyOp53
 70
     1
102
RTVSPropertyOp54
 70
     1
102
RTVSPropertyOp55
 70
     1
102
RTVSPropertyOp56
 70
     1
102
RTVSPropertyOp57
 70
     1
102
RTVSPropertyOp58
 70
     1
102
RTVSPropertyOp59
 70
     1
102
RTVSPropertyOp60
 70
     1
102
RTVSPropertyOp61
 70
     1
102
RTVSPropertyOp62
 70
     1
  0
XRECORD
  5
ADD37
102
{ACAD_REACTORS
330
ADD36
102
}
330
ADD36
100
AcDbXrecord
280
     1
102
RTVSPost2010Prop28
280
     0
102
RTVSPost2010PropOp28
 70
     1
102
RTVSPost2010Prop29
280
     1
102
RTVSPost2010PropOp29
 70
     1
102
RTVSPost2010Prop30
280
     1
102
RTVSPost2010PropOp30
 70
     1
102
RTVSPost2010Prop31
280
     0
102
RTVSPost2010PropOp31
 70
     1
102
RTVSPost2010Prop32
280
     0
102
RTVSPost2010PropOp32
 70
     1
102
RTVSPost2010Prop33
280
     0
102
RTVSPost2010PropOp33
 70
     1
102
RTVSPost2010Prop34
280
     0
102
RTVSPost2010PropOp34
 70
     1
102
RTVSPost2010Prop35
280
     0
102
RTVSPost2010PropOp35
 70
     1
102
RTVSPost2010Prop36
280
     0
102
RTVSPost2010PropOp36
 70
     1
102
RTVSPost2010Prop37
 90
       50
102
RTVSPost2010PropOp37
 70
     1
102
RTVSPost2010Prop38
140
0.0
102
RTVSPost2010PropOp38
 70
     1
102
RTVSPost2010Prop39
140
1.0
102
RTVSPost2010PropOp39
 70
     1
102
RTVSPost2010Prop40
 90
        0
102
RTVSPost2010PropOp40
 70
     1
102
RTVSPost2010Prop41ColorIndex
 90
       18
102
RTVSPost2010Prop41ColorRGB
 90
        0
102
RTVSPost2010PropOp41
 70
     1
102
RTVSPost2010Prop42
 90
       50
102
RTVSPost2010PropOp42
 70
     1
102
RTVSPost2010Prop43
 90
        3
102
RTVSPost2010PropOp43
 70
     1
102
RTVSPost2010Prop44ColorIndex
 90
        5
102
RTVSPost2010Prop44ColorRGB
 90
      255
102
RTVSPost2010PropOp44
 70
     1
102
RTVSPost2010Prop45
280
     0
102
RTVSPost2010PropOp45
 70
     1
102
RTVSPost2010Prop46
 90
       50
102
RTVSPost2010PropOp46
 70
     1
102
RTVSPost2010Prop47
 90
       50
102
RTVSPost2010PropOp47
 70
     1
102
RTVSPost2010Prop48
 90
       50
102
RTVSPost2010PropOp48
 70
     1
102
RTVSPost2010Prop49
280
     0
102
RTVSPost2010PropOp49
 70
     1
102
RTVSPost2010Prop50
 90
       50
102
RTVSPost2010PropOp50
 70
     1
102
RTVSPost2010Prop51ColorIndex
 90
      256
102
RTVSPost2010Prop51ColorRGB
 90
-16777216
102
RTVSPost2010PropOp51
 70
     0
102
RTVSPost2010Prop52
140
1.0
102
RTVSPost2010PropOp52
 70
     0
102
RTVSPost2010Prop53
 90
        2
102
RTVSPost2010PropOp53
 70
     1
102
RTVSPost2010Prop54
  1
strokes_ogs.tif
102
RTVSPost2010PropOp54
 70
     1
102
RTVSPost2010Prop55
280
     0
102
RTVSPost2010PropOp55
 70
     1
102
RTVSPost2010Prop56
140
1.0
102
RTVSPost2010PropOp56
 70
     1
102
RTVSPost2010Prop57
140
1.0
102
RTVSPost2010PropOp57
 70
     1
102
RTVSPropertyOp0
 70
     1
102
RTVSPropertyOp1
 70
     1
102
RTVSPropertyOp2
 70
     1
102
RTVSPropertyOp3
 70
     1
102
RTVSPropertyOp4
 70
     1
102
RTVSPropertyOp5
 70
     1
102
RTVSPropertyOp6
 70
     1
102
RTVSPropertyOp7
 70
     1
102
RTVSPropertyOp8
 70
     1
102
RTVSPropertyOp9
 70
     1
102
RTVSPropertyOp10
 70
     1
102
RTVSPropertyOp11
 70
     1
102
RTVSPropertyOp12
 70
     1
102
RTVSPropertyOp13
 70
     1
102
RTVSPropertyOp14
 70
     1
102
RTVSPropertyOp15
 70
     1
102
RTVSPropertyOp16
 70
     1
102
RTVSPropertyOp17
 70
     1
102
RTVSPropertyOp18
 70
     1
102
RTVSPropertyOp19
 70
     1
102
RTVSPropertyOp20
 70
     1
102
RTVSPropertyOp21
 70
     1
102
RTVSPropertyOp22
 70
     1
102
RTVSPropertyOp23
 70
     1
102
RTVSPropertyOp24
 70
     1
102
RTVSPropertyOp25
 70
     1
102
RTVSPropertyOp26
 70
     1
102
RTVSPropertyOp27
 70
     1
102
RTVSPropertyOp28
 70
     1
102
RTVSPropertyOp29
 70
     1
102
RTVSPropertyOp30
 70
     1
102
RTVSPropertyOp31
 70
     1
102
RTVSPropertyOp32
 70
     1
102
RTVSPropertyOp33
 70
     1
102
RTVSPropertyOp34
 70
     1
102
RTVSPropertyOp35
 70
     1
102
RTVSPropertyOp36
 70
     1
102
RTVSPropertyOp37
 70
     1
102
RTVSPropertyOp38
 70
     1
102
RTVSPropertyOp39
 70
     1
102
RTVSPropertyOp40
 70
     1
102
RTVSPropertyOp41
 70
     1
102
RTVSPropertyOp42
 70
     1
102
RTVSPropertyOp43
 70
     1
102
RTVSPropertyOp44
 70
     1
102
RTVSPropertyOp45
 70
     1
102
RTVSPropertyOp46
 70
     1
102
RTVSPropertyOp47
 70
     1
102
RTVSPropertyOp48
 70
     1
102
RTVSPropertyOp49
 70
     1
102
RTVSPropertyOp50
 70
     1
102
RTVSPropertyOp51
 70
     0
102
RTVSPropertyOp52
 70
     0
102
RTVSPropertyOp53
 70
     1
102
RTVSPropertyOp54
 70
     1
102
RTVSPropertyOp55
 70
     1
102
RTVSPropertyOp56
 70
     1
102
RTVSPropertyOp57
 70
     1
102
RTVSPropertyOp58
 70
     1
102
RTVSPropertyOp59
 70
     1
102
RTVSPropertyOp60
 70
     1
102
RTVSPropertyOp61
 70
     1
102
RTVSPropertyOp62
 70
     1
  0
XRECORD
  5
ADD33
102
{ACAD_REACTORS
330
ADD32
102
}
330
ADD32
100
AcDbXrecord
280
     1
102
RTVSPost2010Prop28
280
     0
102
RTVSPost2010PropOp28
 70
     1
102
RTVSPost2010Prop29
280
     1
102
RTVSPost2010PropOp29
 70
     1
102
RTVSPost2010Prop30
280
     1
102
RTVSPost2010PropOp30
 70
     1
102
RTVSPost2010Prop31
280
     0
102
RTVSPost2010PropOp31
 70
     1
102
RTVSPost2010Prop32
280
     0
102
RTVSPost2010PropOp32
 70
     1
102
RTVSPost2010Prop33
280
     0
102
RTVSPost2010PropOp33
 70
     1
102
RTVSPost2010Prop34
280
     0
102
RTVSPost2010PropOp34
 70
     1
102
RTVSPost2010Prop35
280
     0
102
RTVSPost2010PropOp35
 70
     1
102
RTVSPost2010Prop36
280
     0
102
RTVSPost2010PropOp36
 70
     1
102
RTVSPost2010Prop37
 90
       50
102
RTVSPost2010PropOp37
 70
     1
102
RTVSPost2010Prop38
140
0.0
102
RTVSPost2010PropOp38
 70
     1
102
RTVSPost2010Prop39
140
1.0
102
RTVSPost2010PropOp39
 70
     1
102
RTVSPost2010Prop40
 90
        0
102
RTVSPost2010PropOp40
 70
     1
102
RTVSPost2010Prop41ColorIndex
 90
       18
102
RTVSPost2010Prop41ColorRGB
 90
        0
102
RTVSPost2010PropOp41
 70
     1
102
RTVSPost2010Prop42
 90
       50
102
RTVSPost2010PropOp42
 70
     1
102
RTVSPost2010Prop43
 90
        3
102
RTVSPost2010PropOp43
 70
     1
102
RTVSPost2010Prop44ColorIndex
 90
        5
102
RTVSPost2010Prop44ColorRGB
 90
      255
102
RTVSPost2010PropOp44
 70
     1
102
RTVSPost2010Prop45
280
     0
102
RTVSPost2010PropOp45
 70
     1
102
RTVSPost2010Prop46
 90
       50
102
RTVSPost2010PropOp46
 70
     1
102
RTVSPost2010Prop47
 90
       50
102
RTVSPost2010PropOp47
 70
     1
102
RTVSPost2010Prop48
 90
       50
102
RTVSPost2010PropOp48
 70
     1
102
RTVSPost2010Prop49
280
     0
102
RTVSPost2010PropOp49
 70
     1
102
RTVSPost2010Prop50
 90
       50
102
RTVSPost2010PropOp50
 70
     1
102
RTVSPost2010Prop51ColorIndex
 90
      256
102
RTVSPost2010Prop51ColorRGB
 90
-16777216
102
RTVSPost2010PropOp51
 70
     0
102
RTVSPost2010Prop52
140
1.0
102
RTVSPost2010PropOp52
 70
     0
102
RTVSPost2010Prop53
 90
        2
102
RTVSPost2010PropOp53
 70
     1
102
RTVSPost2010Prop54
  1
strokes_ogs.tif
102
RTVSPost2010PropOp54
 70
     1
102
RTVSPost2010Prop55
280
     0
102
RTVSPost2010PropOp55
 70
     1
102
RTVSPost2010Prop56
140
1.0
102
RTVSPost2010PropOp56
 70
     1
102
RTVSPost2010Prop57
140
1.0
102
RTVSPost2010PropOp57
 70
     1
102
RTVSPropertyOp0
 70
     1
102
RTVSPropertyOp1
 70
     1
102
RTVSPropertyOp2
 70
     1
102
RTVSPropertyOp3
 70
     1
102
RTVSPropertyOp4
 70
     1
102
RTVSPropertyOp5
 70
     1
102
RTVSPropertyOp6
 70
     1
102
RTVSPropertyOp7
 70
     1
102
RTVSPropertyOp8
 70
     1
102
RTVSPropertyOp9
 70
     1
102
RTVSPropertyOp10
 70
     1
102
RTVSPropertyOp11
 70
     1
102
RTVSPropertyOp12
 70
     1
102
RTVSPropertyOp13
 70
     1
102
RTVSPropertyOp14
 70
     1
102
RTVSPropertyOp15
 70
     1
102
RTVSPropertyOp16
 70
     1
102
RTVSPropertyOp17
 70
     1
102
RTVSPropertyOp18
 70
     1
102
RTVSPropertyOp19
 70
     1
102
RTVSPropertyOp20
 70
     1
102
RTVSPropertyOp21
 70
     1
102
RTVSPropertyOp22
 70
     1
102
RTVSPropertyOp23
 70
     1
102
RTVSPropertyOp24
 70
     1
102
RTVSPropertyOp25
 70
     1
102
RTVSPropertyOp26
 70
     1
102
RTVSPropertyOp27
 70
     1
102
RTVSPropertyOp28
 70
     1
102
RTVSPropertyOp29
 70
     1
102
RTVSPropertyOp30
 70
     1
102
RTVSPropertyOp31
 70
     1
102
RTVSPropertyOp32
 70
     1
102
RTVSPropertyOp33
 70
     1
102
RTVSPropertyOp34
 70
     1
102
RTVSPropertyOp35
 70
     1
102
RTVSPropertyOp36
 70
     1
102
RTVSPropertyOp37
 70
     1
102
RTVSPropertyOp38
 70
     1
102
RTVSPropertyOp39
 70
     1
102
RTVSPropertyOp40
 70
     1
102
RTVSPropertyOp41
 70
     1
102
RTVSPropertyOp42
 70
     1
102
RTVSPropertyOp43
 70
     1
102
RTVSPropertyOp44
 70
     1
102
RTVSPropertyOp45
 70
     1
102
RTVSPropertyOp46
 70
     1
102
RTVSPropertyOp47
 70
     1
102
RTVSPropertyOp48
 70
     1
102
RTVSPropertyOp49
 70
     1
102
RTVSPropertyOp50
 70
     1
102
RTVSPropertyOp51
 70
     0
102
RTVSPropertyOp52
 70
     0
102
RTVSPropertyOp53
 70
     1
102
RTVSPropertyOp54
 70
     1
102
RTVSPropertyOp55
 70
     1
102
RTVSPropertyOp56
 70
     1
102
RTVSPropertyOp57
 70
     1
102
RTVSPropertyOp58
 70
     1
102
RTVSPropertyOp59
 70
     1
102
RTVSPropertyOp60
 70
     1
102
RTVSPropertyOp61
 70
     1
102
RTVSPropertyOp62
 70
     1
  0
XRECORD
  5
ADD41
102
{ACAD_REACTORS
330
ADD40
102
}
330
ADD40
100
AcDbXrecord
280
     1
102
RTVSPost2010Prop28
280
     0
102
RTVSPost2010PropOp28
 70
     1
102
RTVSPost2010Prop29
280
     1
102
RTVSPost2010PropOp29
 70
     1
102
RTVSPost2010Prop30
280
     1
102
RTVSPost2010PropOp30
 70
     1
102
RTVSPost2010Prop31
280
     0
102
RTVSPost2010PropOp31
 70
     1
102
RTVSPost2010Prop32
280
     0
102
RTVSPost2010PropOp32
 70
     1
102
RTVSPost2010Prop33
280
     0
102
RTVSPost2010PropOp33
 70
     1
102
RTVSPost2010Prop34
280
     0
102
RTVSPost2010PropOp34
 70
     1
102
RTVSPost2010Prop35
280
     0
102
RTVSPost2010PropOp35
 70
     1
102
RTVSPost2010Prop36
280
     0
102
RTVSPost2010PropOp36
 70
     1
102
RTVSPost2010Prop37
 90
       50
102
RTVSPost2010PropOp37
 70
     1
102
RTVSPost2010Prop38
140
0.0
102
RTVSPost2010PropOp38
 70
     1
102
RTVSPost2010Prop39
140
1.0
102
RTVSPost2010PropOp39
 70
     1
102
RTVSPost2010Prop40
 90
        0
102
RTVSPost2010PropOp40
 70
     1
102
RTVSPost2010Prop41ColorIndex
 90
       18
102
RTVSPost2010Prop41ColorRGB
 90
        0
102
RTVSPost2010PropOp41
 70
     1
102
RTVSPost2010Prop42
 90
       50
102
RTVSPost2010PropOp42
 70
     1
102
RTVSPost2010Prop43
 90
        3
102
RTVSPost2010PropOp43
 70
     1
102
RTVSPost2010Prop44ColorIndex
 90
        5
102
RTVSPost2010Prop44ColorRGB
 90
      255
102
RTVSPost2010PropOp44
 70
     1
102
RTVSPost2010Prop45
280
     0
102
RTVSPost2010PropOp45
 70
     1
102
RTVSPost2010Prop46
 90
       50
102
RTVSPost2010PropOp46
 70
     1
102
RTVSPost2010Prop47
 90
       50
102
RTVSPost2010PropOp47
 70
     1
102
RTVSPost2010Prop48
 90
       50
102
RTVSPost2010PropOp48
 70
     1
102
RTVSPost2010Prop49
280
     0
102
RTVSPost2010PropOp49
 70
     1
102
RTVSPost2010Prop50
 90
       50
102
RTVSPost2010PropOp50
 70
     1
102
RTVSPost2010Prop51ColorIndex
 90
      256
102
RTVSPost2010Prop51ColorRGB
 90
-16777216
102
RTVSPost2010PropOp51
 70
     0
102
RTVSPost2010Prop52
140
1.0
102
RTVSPost2010PropOp52
 70
     0
102
RTVSPost2010Prop53
 90
        2
102
RTVSPost2010PropOp53
 70
     1
102
RTVSPost2010Prop54
  1
strokes_ogs.tif
102
RTVSPost2010PropOp54
 70
     1
102
RTVSPost2010Prop55
280
     0
102
RTVSPost2010PropOp55
 70
     1
102
RTVSPost2010Prop56
140
1.0
102
RTVSPost2010PropOp56
 70
     1
102
RTVSPost2010Prop57
140
1.0
102
RTVSPost2010PropOp57
 70
     1
102
RTVSPropertyOp0
 70
     1
102
RTVSPropertyOp1
 70
     1
102
RTVSPropertyOp2
 70
     1
102
RTVSPropertyOp3
 70
     1
102
RTVSPropertyOp4
 70
     1
102
RTVSPropertyOp5
 70
     1
102
RTVSPropertyOp6
 70
     1
102
RTVSPropertyOp7
 70
     1
102
RTVSPropertyOp8
 70
     1
102
RTVSPropertyOp9
 70
     1
102
RTVSPropertyOp10
 70
     1
102
RTVSPropertyOp11
 70
     1
102
RTVSPropertyOp12
 70
     1
102
RTVSPropertyOp13
 70
     1
102
RTVSPropertyOp14
 70
     1
102
RTVSPropertyOp15
 70
     1
102
RTVSPropertyOp16
 70
     1
102
RTVSPropertyOp17
 70
     1
102
RTVSPropertyOp18
 70
     1
102
RTVSPropertyOp19
 70
     1
102
RTVSPropertyOp20
 70
     1
102
RTVSPropertyOp21
 70
     1
102
RTVSPropertyOp22
 70
     1
102
RTVSPropertyOp23
 70
     1
102
RTVSPropertyOp24
 70
     1
102
RTVSPropertyOp25
 70
     1
102
RTVSPropertyOp26
 70
     1
102
RTVSPropertyOp27
 70
     1
102
RTVSPropertyOp28
 70
     1
102
RTVSPropertyOp29
 70
     1
102
RTVSPropertyOp30
 70
     1
102
RTVSPropertyOp31
 70
     1
102
RTVSPropertyOp32
 70
     1
102
RTVSPropertyOp33
 70
     1
102
RTVSPropertyOp34
 70
     1
102
RTVSPropertyOp35
 70
     1
102
RTVSPropertyOp36
 70
     1
102
RTVSPropertyOp37
 70
     1
102
RTVSPropertyOp38
 70
     1
102
RTVSPropertyOp39
 70
     1
102
RTVSPropertyOp40
 70
     1
102
RTVSPropertyOp41
 70
     1
102
RTVSPropertyOp42
 70
     1
102
RTVSPropertyOp43
 70
     1
102
RTVSPropertyOp44
 70
     1
102
RTVSPropertyOp45
 70
     1
102
RTVSPropertyOp46
 70
     1
102
RTVSPropertyOp47
 70
     1
102
RTVSPropertyOp48
 70
     1
102
RTVSPropertyOp49
 70
     1
102
RTVSPropertyOp50
 70
     1
102
RTVSPropertyOp51
 70
     0
102
RTVSPropertyOp52
 70
     0
102
RTVSPropertyOp53
 70
     1
102
RTVSPropertyOp54
 70
     1
102
RTVSPropertyOp55
 70
     1
102
RTVSPropertyOp56
 70
     1
102
RTVSPropertyOp57
 70
     1
102
RTVSPropertyOp58
 70
     1
102
RTVSPropertyOp59
 70
     1
102
RTVSPropertyOp60
 70
     1
102
RTVSPropertyOp61
 70
     1
102
RTVSPropertyOp62
 70
     1
  0
XRECORD
  5
ADD49
102
{ACAD_REACTORS
330
ADD48
102
}
330
ADD48
100
AcDbXrecord
280
     1
102
RTVSPost2010Prop28
280
     0
102
RTVSPost2010PropOp28
 70
     1
102
RTVSPost2010Prop29
280
     1
102
RTVSPost2010PropOp29
 70
     1
102
RTVSPost2010Prop30
280
     1
102
RTVSPost2010PropOp30
 70
     1
102
RTVSPost2010Prop31
280
     0
102
RTVSPost2010PropOp31
 70
     1
102
RTVSPost2010Prop32
280
     0
102
RTVSPost2010PropOp32
 70
     1
102
RTVSPost2010Prop33
280
     0
102
RTVSPost2010PropOp33
 70
     1
102
RTVSPost2010Prop34
280
     0
102
RTVSPost2010PropOp34
 70
     1
102
RTVSPost2010Prop35
280
     0
102
RTVSPost2010PropOp35
 70
     1
102
RTVSPost2010Prop36
280
     0
102
RTVSPost2010PropOp36
 70
     1
102
RTVSPost2010Prop37
 90
       50
102
RTVSPost2010PropOp37
 70
     1
102
RTVSPost2010Prop38
140
0.0
102
RTVSPost2010PropOp38
 70
     1
102
RTVSPost2010Prop39
140
1.0
102
RTVSPost2010PropOp39
 70
     1
102
RTVSPost2010Prop40
 90
        0
102
RTVSPost2010PropOp40
 70
     1
102
RTVSPost2010Prop41ColorIndex
 90
       18
102
RTVSPost2010Prop41ColorRGB
 90
        0
102
RTVSPost2010PropOp41
 70
     1
102
RTVSPost2010Prop42
 90
       50
102
RTVSPost2010PropOp42
 70
     1
102
RTVSPost2010Prop43
 90
        3
102
RTVSPost2010PropOp43
 70
     1
102
RTVSPost2010Prop44ColorIndex
 90
        5
102
RTVSPost2010Prop44ColorRGB
 90
      255
102
RTVSPost2010PropOp44
 70
     1
102
RTVSPost2010Prop45
280
     0
102
RTVSPost2010PropOp45
 70
     1
102
RTVSPost2010Prop46
 90
       50
102
RTVSPost2010PropOp46
 70
     1
102
RTVSPost2010Prop47
 90
       50
102
RTVSPost2010PropOp47
 70
     1
102
RTVSPost2010Prop48
 90
       50
102
RTVSPost2010PropOp48
 70
     1
102
RTVSPost2010Prop49
280
     0
102
RTVSPost2010PropOp49
 70
     1
102
RTVSPost2010Prop50
 90
       50
102
RTVSPost2010PropOp50
 70
     1
102
RTVSPost2010Prop51ColorIndex
 90
      256
102
RTVSPost2010Prop51ColorRGB
 90
-16777216
102
RTVSPost2010PropOp51
 70
     0
102
RTVSPost2010Prop52
140
1.0
102
RTVSPost2010PropOp52
 70
     0
102
RTVSPost2010Prop53
 90
        2
102
RTVSPost2010PropOp53
 70
     1
102
RTVSPost2010Prop54
  1
strokes_ogs.tif
102
RTVSPost2010PropOp54
 70
     1
102
RTVSPost2010Prop55
280
     0
102
RTVSPost2010PropOp55
 70
     1
102
RTVSPost2010Prop56
140
1.0
102
RTVSPost2010PropOp56
 70
     1
102
RTVSPost2010Prop57
140
1.0
102
RTVSPost2010PropOp57
 70
     1
102
RTVSPropertyOp0
 70
     1
102
RTVSPropertyOp1
 70
     1
102
RTVSPropertyOp2
 70
     1
102
RTVSPropertyOp3
 70
     1
102
RTVSPropertyOp4
 70
     1
102
RTVSPropertyOp5
 70
     1
102
RTVSPropertyOp6
 70
     1
102
RTVSPropertyOp7
 70
     1
102
RTVSPropertyOp8
 70
     1
102
RTVSPropertyOp9
 70
     1
102
RTVSPropertyOp10
 70
     1
102
RTVSPropertyOp11
 70
     1
102
RTVSPropertyOp12
 70
     1
102
RTVSPropertyOp13
 70
     1
102
RTVSPropertyOp14
 70
     1
102
RTVSPropertyOp15
 70
     1
102
RTVSPropertyOp16
 70
     1
102
RTVSPropertyOp17
 70
     1
102
RTVSPropertyOp18
 70
     1
102
RTVSPropertyOp19
 70
     1
102
RTVSPropertyOp20
 70
     1
102
RTVSPropertyOp21
 70
     1
102
RTVSPropertyOp22
 70
     1
102
RTVSPropertyOp23
 70
     1
102
RTVSPropertyOp24
 70
     1
102
RTVSPropertyOp25
 70
     1
102
RTVSPropertyOp26
 70
     1
102
RTVSPropertyOp27
 70
     1
102
RTVSPropertyOp28
 70
     1
102
RTVSPropertyOp29
 70
     1
102
RTVSPropertyOp30
 70
     1
102
RTVSPropertyOp31
 70
     1
102
RTVSPropertyOp32
 70
     1
102
RTVSPropertyOp33
 70
     1
102
RTVSPropertyOp34
 70
     1
102
RTVSPropertyOp35
 70
     1
102
RTVSPropertyOp36
 70
     1
102
RTVSPropertyOp37
 70
     1
102
RTVSPropertyOp38
 70
     1
102
RTVSPropertyOp39
 70
     1
102
RTVSPropertyOp40
 70
     1
102
RTVSPropertyOp41
 70
     1
102
RTVSPropertyOp42
 70
     1
102
RTVSPropertyOp43
 70
     1
102
RTVSPropertyOp44
 70
     1
102
RTVSPropertyOp45
 70
     1
102
RTVSPropertyOp46
 70
     1
102
RTVSPropertyOp47
 70
     1
102
RTVSPropertyOp48
 70
     1
102
RTVSPropertyOp49
 70
     1
102
RTVSPropertyOp50
 70
     1
102
RTVSPropertyOp51
 70
     0
102
RTVSPropertyOp52
 70
     0
102
RTVSPropertyOp53
 70
     1
102
RTVSPropertyOp54
 70
     1
102
RTVSPropertyOp55
 70
     1
102
RTVSPropertyOp56
 70
     1
102
RTVSPropertyOp57
 70
     1
102
RTVSPropertyOp58
 70
     1
102
RTVSPropertyOp59
 70
     1
102
RTVSPropertyOp60
 70
     1
102
RTVSPropertyOp61
 70
     1
102
RTVSPropertyOp62
 70
     1
  0
XRECORD
  5
ADD3B
102
{ACAD_REACTORS
330
ADD3A
102
}
330
ADD3A
100
AcDbXrecord
280
     1
102
RTVSPost2010Prop28
280
     0
102
RTVSPost2010PropOp28
 70
     1
102
RTVSPost2010Prop29
280
     1
102
RTVSPost2010PropOp29
 70
     1
102
RTVSPost2010Prop30
280
     1
102
RTVSPost2010PropOp30
 70
     1
102
RTVSPost2010Prop31
280
     0
102
RTVSPost2010PropOp31
 70
     1
102
RTVSPost2010Prop32
280
     0
102
RTVSPost2010PropOp32
 70
     1
102
RTVSPost2010Prop33
280
     0
102
RTVSPost2010PropOp33
 70
     1
102
RTVSPost2010Prop34
280
     0
102
RTVSPost2010PropOp34
 70
     1
102
RTVSPost2010Prop35
280
     0
102
RTVSPost2010PropOp35
 70
     1
102
RTVSPost2010Prop36
280
     0
102
RTVSPost2010PropOp36
 70
     1
102
RTVSPost2010Prop37
 90
       50
102
RTVSPost2010PropOp37
 70
     1
102
RTVSPost2010Prop38
140
0.0
102
RTVSPost2010PropOp38
 70
     1
102
RTVSPost2010Prop39
140
1.0
102
RTVSPost2010PropOp39
 70
     1
102
RTVSPost2010Prop40
 90
        0
102
RTVSPost2010PropOp40
 70
     1
102
RTVSPost2010Prop41ColorIndex
 90
       18
102
RTVSPost2010Prop41ColorRGB
 90
        0
102
RTVSPost2010PropOp41
 70
     1
102
RTVSPost2010Prop42
 90
       50
102
RTVSPost2010PropOp42
 70
     1
102
RTVSPost2010Prop43
 90
        3
102
RTVSPost2010PropOp43
 70
     1
102
RTVSPost2010Prop44ColorIndex
 90
        5
102
RTVSPost2010Prop44ColorRGB
 90
      255
102
RTVSPost2010PropOp44
 70
     1
102
RTVSPost2010Prop45
280
     0
102
RTVSPost2010PropOp45
 70
     1
102
RTVSPost2010Prop46
 90
       50
102
RTVSPost2010PropOp46
 70
     1
102
RTVSPost2010Prop47
 90
       50
102
RTVSPost2010PropOp47
 70
     1
102
RTVSPost2010Prop48
 90
       50
102
RTVSPost2010PropOp48
 70
     1
102
RTVSPost2010Prop49
280
     0
102
RTVSPost2010PropOp49
 70
     1
102
RTVSPost2010Prop50
 90
       50
102
RTVSPost2010PropOp50
 70
     1
102
RTVSPost2010Prop51ColorIndex
 90
      256
102
RTVSPost2010Prop51ColorRGB
 90
-16777216
102
RTVSPost2010PropOp51
 70
     0
102
RTVSPost2010Prop52
140
1.0
102
RTVSPost2010PropOp52
 70
     0
102
RTVSPost2010Prop53
 90
        2
102
RTVSPost2010PropOp53
 70
     1
102
RTVSPost2010Prop54
  1
strokes_ogs.tif
102
RTVSPost2010PropOp54
 70
     1
102
RTVSPost2010Prop55
280
     0
102
RTVSPost2010PropOp55
 70
     1
102
RTVSPost2010Prop56
140
1.0
102
RTVSPost2010PropOp56
 70
     1
102
RTVSPost2010Prop57
140
1.0
102
RTVSPost2010PropOp57
 70
     1
102
RTVSPropertyOp0
 70
     1
102
RTVSPropertyOp1
 70
     1
102
RTVSPropertyOp2
 70
     1
102
RTVSPropertyOp3
 70
     1
102
RTVSPropertyOp4
 70
     1
102
RTVSPropertyOp5
 70
     1
102
RTVSPropertyOp6
 70
     1
102
RTVSPropertyOp7
 70
     1
102
RTVSPropertyOp8
 70
     1
102
RTVSPropertyOp9
 70
     1
102
RTVSPropertyOp10
 70
     1
102
RTVSPropertyOp11
 70
     1
102
RTVSPropertyOp12
 70
     1
102
RTVSPropertyOp13
 70
     1
102
RTVSPropertyOp14
 70
     1
102
RTVSPropertyOp15
 70
     1
102
RTVSPropertyOp16
 70
     1
102
RTVSPropertyOp17
 70
     1
102
RTVSPropertyOp18
 70
     1
102
RTVSPropertyOp19
 70
     1
102
RTVSPropertyOp20
 70
     1
102
RTVSPropertyOp21
 70
     1
102
RTVSPropertyOp22
 70
     1
102
RTVSPropertyOp23
 70
     1
102
RTVSPropertyOp24
 70
     1
102
RTVSPropertyOp25
 70
     1
102
RTVSPropertyOp26
 70
     1
102
RTVSPropertyOp27
 70
     1
102
RTVSPropertyOp28
 70
     1
102
RTVSPropertyOp29
 70
     1
102
RTVSPropertyOp30
 70
     1
102
RTVSPropertyOp31
 70
     1
102
RTVSPropertyOp32
 70
     1
102
RTVSPropertyOp33
 70
     1
102
RTVSPropertyOp34
 70
     1
102
RTVSPropertyOp35
 70
     1
102
RTVSPropertyOp36
 70
     1
102
RTVSPropertyOp37
 70
     1
102
RTVSPropertyOp38
 70
     1
102
RTVSPropertyOp39
 70
     1
102
RTVSPropertyOp40
 70
     1
102
RTVSPropertyOp41
 70
     1
102
RTVSPropertyOp42
 70
     1
102
RTVSPropertyOp43
 70
     1
102
RTVSPropertyOp44
 70
     1
102
RTVSPropertyOp45
 70
     1
102
RTVSPropertyOp46
 70
     1
102
RTVSPropertyOp47
 70
     1
102
RTVSPropertyOp48
 70
     1
102
RTVSPropertyOp49
 70
     1
102
RTVSPropertyOp50
 70
     1
102
RTVSPropertyOp51
 70
     0
102
RTVSPropertyOp52
 70
     0
102
RTVSPropertyOp53
 70
     1
102
RTVSPropertyOp54
 70
     1
102
RTVSPropertyOp55
 70
     1
102
RTVSPropertyOp56
 70
     1
102
RTVSPropertyOp57
 70
     1
102
RTVSPropertyOp58
 70
     1
102
RTVSPropertyOp59
 70
     1
102
RTVSPropertyOp60
 70
     1
102
RTVSPropertyOp61
 70
     1
102
RTVSPropertyOp62
 70
     1
  0
XRECORD
  5
ADD3F
102
{ACAD_REACTORS
330
ADD3E
102
}
330
ADD3E
100
AcDbXrecord
280
     1
102
RTVSPost2010Prop28
280
     0
102
RTVSPost2010PropOp28
 70
     1
102
RTVSPost2010Prop29
280
     1
102
RTVSPost2010PropOp29
 70
     1
102
RTVSPost2010Prop30
280
     1
102
RTVSPost2010PropOp30
 70
     1
102
RTVSPost2010Prop31
280
     0
102
RTVSPost2010PropOp31
 70
     1
102
RTVSPost2010Prop32
280
     0
102
RTVSPost2010PropOp32
 70
     1
102
RTVSPost2010Prop33
280
     0
102
RTVSPost2010PropOp33
 70
     1
102
RTVSPost2010Prop34
280
     0
102
RTVSPost2010PropOp34
 70
     1
102
RTVSPost2010Prop35
280
     0
102
RTVSPost2010PropOp35
 70
     1
102
RTVSPost2010Prop36
280
     0
102
RTVSPost2010PropOp36
 70
     1
102
RTVSPost2010Prop37
 90
       50
102
RTVSPost2010PropOp37
 70
     1
102
RTVSPost2010Prop38
140
0.0
102
RTVSPost2010PropOp38
 70
     1
102
RTVSPost2010Prop39
140
1.0
102
RTVSPost2010PropOp39
 70
     1
102
RTVSPost2010Prop40
 90
        0
102
RTVSPost2010PropOp40
 70
     1
102
RTVSPost2010Prop41ColorIndex
 90
       18
102
RTVSPost2010Prop41ColorRGB
 90
        0
102
RTVSPost2010PropOp41
 70
     1
102
RTVSPost2010Prop42
 90
       50
102
RTVSPost2010PropOp42
 70
     1
102
RTVSPost2010Prop43
 90
        3
102
RTVSPost2010PropOp43
 70
     1
102
RTVSPost2010Prop44ColorIndex
 90
        5
102
RTVSPost2010Prop44ColorRGB
 90
      255
102
RTVSPost2010PropOp44
 70
     1
102
RTVSPost2010Prop45
280
     0
102
RTVSPost2010PropOp45
 70
     1
102
RTVSPost2010Prop46
 90
       50
102
RTVSPost2010PropOp46
 70
     1
102
RTVSPost2010Prop47
 90
       50
102
RTVSPost2010PropOp47
 70
     1
102
RTVSPost2010Prop48
 90
       50
102
RTVSPost2010PropOp48
 70
     1
102
RTVSPost2010Prop49
280
     0
102
RTVSPost2010PropOp49
 70
     1
102
RTVSPost2010Prop50
 90
       50
102
RTVSPost2010PropOp50
 70
     1
102
RTVSPost2010Prop51ColorIndex
 90
      256
102
RTVSPost2010Prop51ColorRGB
 90
-16777216
102
RTVSPost2010PropOp51
 70
     0
102
RTVSPost2010Prop52
140
1.0
102
RTVSPost2010PropOp52
 70
     0
102
RTVSPost2010Prop53
 90
        2
102
RTVSPost2010PropOp53
 70
     1
102
RTVSPost2010Prop54
  1
strokes_ogs.tif
102
RTVSPost2010PropOp54
 70
     1
102
RTVSPost2010Prop55
280
     0
102
RTVSPost2010PropOp55
 70
     1
102
RTVSPost2010Prop56
140
1.0
102
RTVSPost2010PropOp56
 70
     1
102
RTVSPost2010Prop57
140
1.0
102
RTVSPost2010PropOp57
 70
     1
102
RTVSPropertyOp0
 70
     1
102
RTVSPropertyOp1
 70
     1
102
RTVSPropertyOp2
 70
     1
102
RTVSPropertyOp3
 70
     1
102
RTVSPropertyOp4
 70
     1
102
RTVSPropertyOp5
 70
     1
102
RTVSPropertyOp6
 70
     1
102
RTVSPropertyOp7
 70
     1
102
RTVSPropertyOp8
 70
     1
102
RTVSPropertyOp9
 70
     1
102
RTVSPropertyOp10
 70
     1
102
RTVSPropertyOp11
 70
     1
102
RTVSPropertyOp12
 70
     1
102
RTVSPropertyOp13
 70
     1
102
RTVSPropertyOp14
 70
     1
102
RTVSPropertyOp15
 70
     1
102
RTVSPropertyOp16
 70
     1
102
RTVSPropertyOp17
 70
     1
102
RTVSPropertyOp18
 70
     1
102
RTVSPropertyOp19
 70
     1
102
RTVSPropertyOp20
 70
     1
102
RTVSPropertyOp21
 70
     1
102
RTVSPropertyOp22
 70
     1
102
RTVSPropertyOp23
 70
     1
102
RTVSPropertyOp24
 70
     1
102
RTVSPropertyOp25
 70
     1
102
RTVSPropertyOp26
 70
     1
102
RTVSPropertyOp27
 70
     1
102
RTVSPropertyOp28
 70
     1
102
RTVSPropertyOp29
 70
     1
102
RTVSPropertyOp30
 70
     1
102
RTVSPropertyOp31
 70
     1
102
RTVSPropertyOp32
 70
     1
102
RTVSPropertyOp33
 70
     1
102
RTVSPropertyOp34
 70
     1
102
RTVSPropertyOp35
 70
     1
102
RTVSPropertyOp36
 70
     1
102
RTVSPropertyOp37
 70
     1
102
RTVSPropertyOp38
 70
     1
102
RTVSPropertyOp39
 70
     1
102
RTVSPropertyOp40
 70
     1
102
RTVSPropertyOp41
 70
     1
102
RTVSPropertyOp42
 70
     1
102
RTVSPropertyOp43
 70
     1
102
RTVSPropertyOp44
 70
     1
102
RTVSPropertyOp45
 70
     1
102
RTVSPropertyOp46
 70
     1
102
RTVSPropertyOp47
 70
     1
102
RTVSPropertyOp48
 70
     1
102
RTVSPropertyOp49
 70
     1
102
RTVSPropertyOp50
 70
     1
102
RTVSPropertyOp51
 70
     0
102
RTVSPropertyOp52
 70
     0
102
RTVSPropertyOp53
 70
     1
102
RTVSPropertyOp54
 70
     1
102
RTVSPropertyOp55
 70
     1
102
RTVSPropertyOp56
 70
     1
102
RTVSPropertyOp57
 70
     1
102
RTVSPropertyOp58
 70
     1
102
RTVSPropertyOp59
 70
     1
102
RTVSPropertyOp60
 70
     1
102
RTVSPropertyOp61
 70
     1
102
RTVSPropertyOp62
 70
     1
  0
XRECORD
  5
ADD5D
102
{ACAD_REACTORS
330
ADD5C
102
}
330
ADD5C
100
AcDbXrecord
280
     1
102
RTVSPost2010Prop28
280
     0
102
RTVSPost2010PropOp28
 70
     1
102
RTVSPost2010Prop29
280
     1
102
RTVSPost2010PropOp29
 70
     1
102
RTVSPost2010Prop30
280
     1
102
RTVSPost2010PropOp30
 70
     1
102
RTVSPost2010Prop31
280
     0
102
RTVSPost2010PropOp31
 70
     1
102
RTVSPost2010Prop32
280
     0
102
RTVSPost2010PropOp32
 70
     1
102
RTVSPost2010Prop33
280
     0
102
RTVSPost2010PropOp33
 70
     1
102
RTVSPost2010Prop34
280
     0
102
RTVSPost2010PropOp34
 70
     1
102
RTVSPost2010Prop35
280
     0
102
RTVSPost2010PropOp35
 70
     1
102
RTVSPost2010Prop36
280
     0
102
RTVSPost2010PropOp36
 70
     1
102
RTVSPost2010Prop37
 90
       50
102
RTVSPost2010PropOp37
 70
     0
102
RTVSPost2010Prop38
140
0.0
102
RTVSPost2010PropOp38
 70
     0
102
RTVSPost2010Prop39
140
1.0
102
RTVSPost2010PropOp39
 70
     0
102
RTVSPost2010Prop40
 90
        0
102
RTVSPost2010PropOp40
 70
     0
102
RTVSPost2010Prop41ColorIndex
 90
       18
102
RTVSPost2010Prop41ColorRGB
 90
        0
102
RTVSPost2010PropOp41
 70
     0
102
RTVSPost2010Prop42
 90
       50
102
RTVSPost2010PropOp42
 70
     0
102
RTVSPost2010Prop43
 90
        3
102
RTVSPost2010PropOp43
 70
     0
102
RTVSPost2010Prop44ColorIndex
 90
        5
102
RTVSPost2010Prop44ColorRGB
 90
      255
102
RTVSPost2010PropOp44
 70
     0
102
RTVSPost2010Prop45
280
     0
102
RTVSPost2010PropOp45
 70
     1
102
RTVSPost2010Prop46
 90
       50
102
RTVSPost2010PropOp46
 70
     0
102
RTVSPost2010Prop47
 90
       50
102
RTVSPost2010PropOp47
 70
     0
102
RTVSPost2010Prop48
 90
       50
102
RTVSPost2010PropOp48
 70
     0
102
RTVSPost2010Prop49
280
     0
102
RTVSPost2010PropOp49
 70
     1
102
RTVSPost2010Prop50
 90
       50
102
RTVSPost2010PropOp50
 70
     0
102
RTVSPost2010Prop51ColorIndex
 90
      256
102
RTVSPost2010Prop51ColorRGB
 90
-16777216
102
RTVSPost2010PropOp51
 70
     0
102
RTVSPost2010Prop52
140
1.0
102
RTVSPost2010PropOp52
 70
     0
102
RTVSPost2010Prop53
 90
        2
102
RTVSPost2010PropOp53
 70
     0
102
RTVSPost2010Prop54
  1
strokes_ogs.tif
102
RTVSPost2010PropOp54
 70
     0
102
RTVSPost2010Prop55
280
     0
102
RTVSPost2010PropOp55
 70
     1
102
RTVSPost2010Prop56
140
1.0
102
RTVSPost2010PropOp56
 70
     0
102
RTVSPost2010Prop57
140
1.0
102
RTVSPost2010PropOp57
 70
     0
102
RTVSPropertyOp0
 70
     0
102
RTVSPropertyOp1
 70
     0
102
RTVSPropertyOp2
 70
     0
102
RTVSPropertyOp3
 70
     0
102
RTVSPropertyOp4
 70
     0
102
RTVSPropertyOp5
 70
     0
102
RTVSPropertyOp6
 70
     0
102
RTVSPropertyOp7
 70
     0
102
RTVSPropertyOp8
 70
     0
102
RTVSPropertyOp9
 70
     0
102
RTVSPropertyOp10
 70
     0
102
RTVSPropertyOp11
 70
     0
102
RTVSPropertyOp12
 70
     0
102
RTVSPropertyOp13
 70
     0
102
RTVSPropertyOp14
 70
     2
102
RTVSPropertyOp15
 70
     0
102
RTVSPropertyOp16
 70
     0
102
RTVSPropertyOp17
 70
     0
102
RTVSPropertyOp18
 70
     0
102
RTVSPropertyOp19
 70
     0
102
RTVSPropertyOp20
 70
     0
102
RTVSPropertyOp21
 70
     0
102
RTVSPropertyOp22
 70
     0
102
RTVSPropertyOp23
 70
     0
102
RTVSPropertyOp24
 70
     0
102
RTVSPropertyOp25
 70
     0
102
RTVSPropertyOp26
 70
     0
102
RTVSPropertyOp27
 70
     0
102
RTVSPropertyOp28
 70
     1
102
RTVSPropertyOp29
 70
     1
102
RTVSPropertyOp30
 70
     1
102
RTVSPropertyOp31
 70
     1
102
RTVSPropertyOp32
 70
     1
102
RTVSPropertyOp33
 70
     1
102
RTVSPropertyOp34
 70
     1
102
RTVSPropertyOp35
 70
     1
102
RTVSPropertyOp36
 70
     1
102
RTVSPropertyOp37
 70
     0
102
RTVSPropertyOp38
 70
     0
102
RTVSPropertyOp39
 70
     0
102
RTVSPropertyOp40
 70
     0
102
RTVSPropertyOp41
 70
     0
102
RTVSPropertyOp42
 70
     0
102
RTVSPropertyOp43
 70
     0
102
RTVSPropertyOp44
 70
     0
102
RTVSPropertyOp45
 70
     1
102
RTVSPropertyOp46
 70
     0
102
RTVSPropertyOp47
 70
     0
102
RTVSPropertyOp48
 70
     0
102
RTVSPropertyOp49
 70
     1
102
RTVSPropertyOp50
 70
     0
102
RTVSPropertyOp51
 70
     0
102
RTVSPropertyOp52
 70
     0
102
RTVSPropertyOp53
 70
     0
102
RTVSPropertyOp54
 70
     0
102
RTVSPropertyOp55
 70
     1
102
RTVSPropertyOp56
 70
     0
102
RTVSPropertyOp57
 70
     0
102
RTVSPropertyOp58
 70
     1
102
RTVSPropertyOp59
 70
     1
102
RTVSPropertyOp60
 70
     1
102
RTVSPropertyOp61
 70
     1
102
RTVSPropertyOp62
 70
     1
  0
XRECORD
  5
ADD47
102
{ACAD_REACTORS
330
ADD46
102
}
330
ADD46
100
AcDbXrecord
280
     1
102
RTVSPost2010Prop28
280
     0
102
RTVSPost2010PropOp28
 70
     1
102
RTVSPost2010Prop29
280
     1
102
RTVSPost2010PropOp29
 70
     1
102
RTVSPost2010Prop30
280
     1
102
RTVSPost2010PropOp30
 70
     1
102
RTVSPost2010Prop31
280
     0
102
RTVSPost2010PropOp31
 70
     1
102
RTVSPost2010Prop32
280
     0
102
RTVSPost2010PropOp32
 70
     1
102
RTVSPost2010Prop33
280
     0
102
RTVSPost2010PropOp33
 70
     1
102
RTVSPost2010Prop34
280
     0
102
RTVSPost2010PropOp34
 70
     1
102
RTVSPost2010Prop35
280
     0
102
RTVSPost2010PropOp35
 70
     1
102
RTVSPost2010Prop36
280
     0
102
RTVSPost2010PropOp36
 70
     1
102
RTVSPost2010Prop37
 90
       50
102
RTVSPost2010PropOp37
 70
     1
102
RTVSPost2010Prop38
140
0.0
102
RTVSPost2010PropOp38
 70
     1
102
RTVSPost2010Prop39
140
1.0
102
RTVSPost2010PropOp39
 70
     1
102
RTVSPost2010Prop40
 90
        0
102
RTVSPost2010PropOp40
 70
     1
102
RTVSPost2010Prop41ColorIndex
 90
       18
102
RTVSPost2010Prop41ColorRGB
 90
        0
102
RTVSPost2010PropOp41
 70
     1
102
RTVSPost2010Prop42
 90
       50
102
RTVSPost2010PropOp42
 70
     1
102
RTVSPost2010Prop43
 90
        3
102
RTVSPost2010PropOp43
 70
     1
102
RTVSPost2010Prop44ColorIndex
 90
        5
102
RTVSPost2010Prop44ColorRGB
 90
      255
102
RTVSPost2010PropOp44
 70
     1
102
RTVSPost2010Prop45
280
     0
102
RTVSPost2010PropOp45
 70
     1
102
RTVSPost2010Prop46
 90
       50
102
RTVSPost2010PropOp46
 70
     1
102
RTVSPost2010Prop47
 90
       50
102
RTVSPost2010PropOp47
 70
     1
102
RTVSPost2010Prop48
 90
       50
102
RTVSPost2010PropOp48
 70
     1
102
RTVSPost2010Prop49
280
     0
102
RTVSPost2010PropOp49
 70
     1
102
RTVSPost2010Prop50
 90
       50
102
RTVSPost2010PropOp50
 70
     1
102
RTVSPost2010Prop51ColorIndex
 90
      256
102
RTVSPost2010Prop51ColorRGB
 90
-16777216
102
RTVSPost2010PropOp51
 70
     0
102
RTVSPost2010Prop52
140
1.0
102
RTVSPost2010PropOp52
 70
     0
102
RTVSPost2010Prop53
 90
        2
102
RTVSPost2010PropOp53
 70
     1
102
RTVSPost2010Prop54
  1
strokes_ogs.tif
102
RTVSPost2010PropOp54
 70
     1
102
RTVSPost2010Prop55
280
     0
102
RTVSPost2010PropOp55
 70
     1
102
RTVSPost2010Prop56
140
1.0
102
RTVSPost2010PropOp56
 70
     1
102
RTVSPost2010Prop57
140
1.0
102
RTVSPost2010PropOp57
 70
     1
102
RTVSPropertyOp0
 70
     1
102
RTVSPropertyOp1
 70
     1
102
RTVSPropertyOp2
 70
     1
102
RTVSPropertyOp3
 70
     1
102
RTVSPropertyOp4
 70
     1
102
RTVSPropertyOp5
 70
     1
102
RTVSPropertyOp6
 70
     1
102
RTVSPropertyOp7
 70
     1
102
RTVSPropertyOp8
 70
     1
102
RTVSPropertyOp9
 70
     1
102
RTVSPropertyOp10
 70
     1
102
RTVSPropertyOp11
 70
     1
102
RTVSPropertyOp12
 70
     1
102
RTVSPropertyOp13
 70
     1
102
RTVSPropertyOp14
 70
     1
102
RTVSPropertyOp15
 70
     1
102
RTVSPropertyOp16
 70
     1
102
RTVSPropertyOp17
 70
     1
102
RTVSPropertyOp18
 70
     1
102
RTVSPropertyOp19
 70
     1
102
RTVSPropertyOp20
 70
     1
102
RTVSPropertyOp21
 70
     1
102
RTVSPropertyOp22
 70
     1
102
RTVSPropertyOp23
 70
     1
102
RTVSPropertyOp24
 70
     1
102
RTVSPropertyOp25
 70
     1
102
RTVSPropertyOp26
 70
     1
102
RTVSPropertyOp27
 70
     1
102
RTVSPropertyOp28
 70
     1
102
RTVSPropertyOp29
 70
     1
102
RTVSPropertyOp30
 70
     1
102
RTVSPropertyOp31
 70
     1
102
RTVSPropertyOp32
 70
     1
102
RTVSPropertyOp33
 70
     1
102
RTVSPropertyOp34
 70
     1
102
RTVSPropertyOp35
 70
     1
102
RTVSPropertyOp36
 70
     1
102
RTVSPropertyOp37
 70
     1
102
RTVSPropertyOp38
 70
     1
102
RTVSPropertyOp39
 70
     1
102
RTVSPropertyOp40
 70
     1
102
RTVSPropertyOp41
 70
     1
102
RTVSPropertyOp42
 70
     1
102
RTVSPropertyOp43
 70
     1
102
RTVSPropertyOp44
 70
     1
102
RTVSPropertyOp45
 70
     1
102
RTVSPropertyOp46
 70
     1
102
RTVSPropertyOp47
 70
     1
102
RTVSPropertyOp48
 70
     1
102
RTVSPropertyOp49
 70
     1
102
RTVSPropertyOp50
 70
     1
102
RTVSPropertyOp51
 70
     0
102
RTVSPropertyOp52
 70
     0
102
RTVSPropertyOp53
 70
     1
102
RTVSPropertyOp54
 70
     1
102
RTVSPropertyOp55
 70
     1
102
RTVSPropertyOp56
 70
     1
102
RTVSPropertyOp57
 70
     1
102
RTVSPropertyOp58
 70
     1
102
RTVSPropertyOp59
 70
     1
102
RTVSPropertyOp60
 70
     1
102
RTVSPropertyOp61
 70
     1
102
RTVSPropertyOp62
 70
     1
  0
XRECORD
  5
ADD2B
102
{ACAD_REACTORS
330
ADD2A
102
}
330
ADD2A
100
AcDbXrecord
280
     1
102
RTVSPost2010Prop28
280
     0
102
RTVSPost2010PropOp28
 70
     1
102
RTVSPost2010Prop29
280
     1
102
RTVSPost2010PropOp29
 70
     1
102
RTVSPost2010Prop30
280
     1
102
RTVSPost2010PropOp30
 70
     1
102
RTVSPost2010Prop31
280
     0
102
RTVSPost2010PropOp31
 70
     1
102
RTVSPost2010Prop32
280
     0
102
RTVSPost2010PropOp32
 70
     1
102
RTVSPost2010Prop33
280
     0
102
RTVSPost2010PropOp33
 70
     1
102
RTVSPost2010Prop34
280
     0
102
RTVSPost2010PropOp34
 70
     1
102
RTVSPost2010Prop35
280
     0
102
RTVSPost2010PropOp35
 70
     1
102
RTVSPost2010Prop36
280
     0
102
RTVSPost2010PropOp36
 70
     1
102
RTVSPost2010Prop37
 90
       50
102
RTVSPost2010PropOp37
 70
     1
102
RTVSPost2010Prop38
140
0.0
102
RTVSPost2010PropOp38
 70
     1
102
RTVSPost2010Prop39
140
1.0
102
RTVSPost2010PropOp39
 70
     1
102
RTVSPost2010Prop40
 90
        0
102
RTVSPost2010PropOp40
 70
     1
102
RTVSPost2010Prop41ColorIndex
 90
       18
102
RTVSPost2010Prop41ColorRGB
 90
        0
102
RTVSPost2010PropOp41
 70
     1
102
RTVSPost2010Prop42
 90
       50
102
RTVSPost2010PropOp42
 70
     1
102
RTVSPost2010Prop43
 90
        3
102
RTVSPost2010PropOp43
 70
     1
102
RTVSPost2010Prop44ColorIndex
 90
        5
102
RTVSPost2010Prop44ColorRGB
 90
      255
102
RTVSPost2010PropOp44
 70
     1
102
RTVSPost2010Prop45
280
     0
102
RTVSPost2010PropOp45
 70
     1
102
RTVSPost2010Prop46
 90
       50
102
RTVSPost2010PropOp46
 70
     1
102
RTVSPost2010Prop47
 90
       50
102
RTVSPost2010PropOp47
 70
     1
102
RTVSPost2010Prop48
 90
       50
102
RTVSPost2010PropOp48
 70
     1
102
RTVSPost2010Prop49
280
     0
102
RTVSPost2010PropOp49
 70
     1
102
RTVSPost2010Prop50
 90
       50
102
RTVSPost2010PropOp50
 70
     1
102
RTVSPost2010Prop51ColorIndex
 90
      256
102
RTVSPost2010Prop51ColorRGB
 90
-16777216
102
RTVSPost2010PropOp51
 70
     0
102
RTVSPost2010Prop52
140
1.0
102
RTVSPost2010PropOp52
 70
     0
102
RTVSPost2010Prop53
 90
        2
102
RTVSPost2010PropOp53
 70
     1
102
RTVSPost2010Prop54
  1
strokes_ogs.tif
102
RTVSPost2010PropOp54
 70
     1
102
RTVSPost2010Prop55
280
     0
102
RTVSPost2010PropOp55
 70
     1
102
RTVSPost2010Prop56
140
1.0
102
RTVSPost2010PropOp56
 70
     1
102
RTVSPost2010Prop57
140
1.0
102
RTVSPost2010PropOp57
 70
     1
102
RTVSPropertyOp0
 70
     1
102
RTVSPropertyOp1
 70
     1
102
RTVSPropertyOp2
 70
     1
102
RTVSPropertyOp3
 70
     1
102
RTVSPropertyOp4
 70
     1
102
RTVSPropertyOp5
 70
     1
102
RTVSPropertyOp6
 70
     1
102
RTVSPropertyOp7
 70
     1
102
RTVSPropertyOp8
 70
     1
102
RTVSPropertyOp9
 70
     1
102
RTVSPropertyOp10
 70
     1
102
RTVSPropertyOp11
 70
     1
102
RTVSPropertyOp12
 70
     1
102
RTVSPropertyOp13
 70
     1
102
RTVSPropertyOp14
 70
     1
102
RTVSPropertyOp15
 70
     1
102
RTVSPropertyOp16
 70
     1
102
RTVSPropertyOp17
 70
     1
102
RTVSPropertyOp18
 70
     1
102
RTVSPropertyOp19
 70
     1
102
RTVSPropertyOp20
 70
     1
102
RTVSPropertyOp21
 70
     1
102
RTVSPropertyOp22
 70
     1
102
RTVSPropertyOp23
 70
     1
102
RTVSPropertyOp24
 70
     1
102
RTVSPropertyOp25
 70
     1
102
RTVSPropertyOp26
 70
     1
102
RTVSPropertyOp27
 70
     1
102
RTVSPropertyOp28
 70
     1
102
RTVSPropertyOp29
 70
     1
102
RTVSPropertyOp30
 70
     1
102
RTVSPropertyOp31
 70
     1
102
RTVSPropertyOp32
 70
     1
102
RTVSPropertyOp33
 70
     1
102
RTVSPropertyOp34
 70
     1
102
RTVSPropertyOp35
 70
     1
102
RTVSPropertyOp36
 70
     1
102
RTVSPropertyOp37
 70
     1
102
RTVSPropertyOp38
 70
     1
102
RTVSPropertyOp39
 70
     1
102
RTVSPropertyOp40
 70
     1
102
RTVSPropertyOp41
 70
     1
102
RTVSPropertyOp42
 70
     1
102
RTVSPropertyOp43
 70
     1
102
RTVSPropertyOp44
 70
     1
102
RTVSPropertyOp45
 70
     1
102
RTVSPropertyOp46
 70
     1
102
RTVSPropertyOp47
 70
     1
102
RTVSPropertyOp48
 70
     1
102
RTVSPropertyOp49
 70
     1
102
RTVSPropertyOp50
 70
     1
102
RTVSPropertyOp51
 70
     0
102
RTVSPropertyOp52
 70
     0
102
RTVSPropertyOp53
 70
     1
102
RTVSPropertyOp54
 70
     1
102
RTVSPropertyOp55
 70
     1
102
RTVSPropertyOp56
 70
     1
102
RTVSPropertyOp57
 70
     1
102
RTVSPropertyOp58
 70
     1
102
RTVSPropertyOp59
 70
     1
102
RTVSPropertyOp60
 70
     1
102
RTVSPropertyOp61
 70
     1
102
RTVSPropertyOp62
 70
     1
  0
XRECORD
  5
ADD2D
102
{ACAD_REACTORS
330
ADD2C
102
}
330
ADD2C
100
AcDbXrecord
280
     1
102
RTVSPost2010Prop28
280
     0
102
RTVSPost2010PropOp28
 70
     1
102
RTVSPost2010Prop29
280
     1
102
RTVSPost2010PropOp29
 70
     1
102
RTVSPost2010Prop30
280
     1
102
RTVSPost2010PropOp30
 70
     1
102
RTVSPost2010Prop31
280
     0
102
RTVSPost2010PropOp31
 70
     1
102
RTVSPost2010Prop32
280
     0
102
RTVSPost2010PropOp32
 70
     1
102
RTVSPost2010Prop33
280
     0
102
RTVSPost2010PropOp33
 70
     1
102
RTVSPost2010Prop34
280
     0
102
RTVSPost2010PropOp34
 70
     1
102
RTVSPost2010Prop35
280
     0
102
RTVSPost2010PropOp35
 70
     1
102
RTVSPost2010Prop36
280
     0
102
RTVSPost2010PropOp36
 70
     1
102
RTVSPost2010Prop37
 90
       50
102
RTVSPost2010PropOp37
 70
     1
102
RTVSPost2010Prop38
140
0.0
102
RTVSPost2010PropOp38
 70
     1
102
RTVSPost2010Prop39
140
1.0
102
RTVSPost2010PropOp39
 70
     1
102
RTVSPost2010Prop40
 90
        0
102
RTVSPost2010PropOp40
 70
     1
102
RTVSPost2010Prop41ColorIndex
 90
       18
102
RTVSPost2010Prop41ColorRGB
 90
        0
102
RTVSPost2010PropOp41
 70
     1
102
RTVSPost2010Prop42
 90
       50
102
RTVSPost2010PropOp42
 70
     1
102
RTVSPost2010Prop43
 90
        3
102
RTVSPost2010PropOp43
 70
     1
102
RTVSPost2010Prop44ColorIndex
 90
        5
102
RTVSPost2010Prop44ColorRGB
 90
      255
102
RTVSPost2010PropOp44
 70
     1
102
RTVSPost2010Prop45
280
     0
102
RTVSPost2010PropOp45
 70
     1
102
RTVSPost2010Prop46
 90
       50
102
RTVSPost2010PropOp46
 70
     1
102
RTVSPost2010Prop47
 90
       50
102
RTVSPost2010PropOp47
 70
     1
102
RTVSPost2010Prop48
 90
       50
102
RTVSPost2010PropOp48
 70
     1
102
RTVSPost2010Prop49
280
     0
102
RTVSPost2010PropOp49
 70
     1
102
RTVSPost2010Prop50
 90
       50
102
RTVSPost2010PropOp50
 70
     1
102
RTVSPost2010Prop51ColorIndex
 90
      256
102
RTVSPost2010Prop51ColorRGB
 90
-16777216
102
RTVSPost2010PropOp51
 70
     0
102
RTVSPost2010Prop52
140
1.0
102
RTVSPost2010PropOp52
 70
     0
102
RTVSPost2010Prop53
 90
        2
102
RTVSPost2010PropOp53
 70
     1
102
RTVSPost2010Prop54
  1
strokes_ogs.tif
102
RTVSPost2010PropOp54
 70
     1
102
RTVSPost2010Prop55
280
     0
102
RTVSPost2010PropOp55
 70
     1
102
RTVSPost2010Prop56
140
1.0
102
RTVSPost2010PropOp56
 70
     1
102
RTVSPost2010Prop57
140
1.0
102
RTVSPost2010PropOp57
 70
     1
102
RTVSPropertyOp0
 70
     1
102
RTVSPropertyOp1
 70
     1
102
RTVSPropertyOp2
 70
     1
102
RTVSPropertyOp3
 70
     1
102
RTVSPropertyOp4
 70
     1
102
RTVSPropertyOp5
 70
     1
102
RTVSPropertyOp6
 70
     1
102
RTVSPropertyOp7
 70
     1
102
RTVSPropertyOp8
 70
     1
102
RTVSPropertyOp9
 70
     1
102
RTVSPropertyOp10
 70
     1
102
RTVSPropertyOp11
 70
     1
102
RTVSPropertyOp12
 70
     1
102
RTVSPropertyOp13
 70
     1
102
RTVSPropertyOp14
 70
     1
102
RTVSPropertyOp15
 70
     1
102
RTVSPropertyOp16
 70
     1
102
RTVSPropertyOp17
 70
     1
102
RTVSPropertyOp18
 70
     1
102
RTVSPropertyOp19
 70
     1
102
RTVSPropertyOp20
 70
     1
102
RTVSPropertyOp21
 70
     1
102
RTVSPropertyOp22
 70
     1
102
RTVSPropertyOp23
 70
     1
102
RTVSPropertyOp24
 70
     1
102
RTVSPropertyOp25
 70
     1
102
RTVSPropertyOp26
 70
     1
102
RTVSPropertyOp27
 70
     1
102
RTVSPropertyOp28
 70
     1
102
RTVSPropertyOp29
 70
     1
102
RTVSPropertyOp30
 70
     1
102
RTVSPropertyOp31
 70
     1
102
RTVSPropertyOp32
 70
     1
102
RTVSPropertyOp33
 70
     1
102
RTVSPropertyOp34
 70
     1
102
RTVSPropertyOp35
 70
     1
102
RTVSPropertyOp36
 70
     1
102
RTVSPropertyOp37
 70
     1
102
RTVSPropertyOp38
 70
     1
102
RTVSPropertyOp39
 70
     1
102
RTVSPropertyOp40
 70
     1
102
RTVSPropertyOp41
 70
     1
102
RTVSPropertyOp42
 70
     1
102
RTVSPropertyOp43
 70
     1
102
RTVSPropertyOp44
 70
     1
102
RTVSPropertyOp45
 70
     1
102
RTVSPropertyOp46
 70
     1
102
RTVSPropertyOp47
 70
     1
102
RTVSPropertyOp48
 70
     1
102
RTVSPropertyOp49
 70
     1
102
RTVSPropertyOp50
 70
     1
102
RTVSPropertyOp51
 70
     0
102
RTVSPropertyOp52
 70
     0
102
RTVSPropertyOp53
 70
     1
102
RTVSPropertyOp54
 70
     1
102
RTVSPropertyOp55
 70
     1
102
RTVSPropertyOp56
 70
     1
102
RTVSPropertyOp57
 70
     1
102
RTVSPropertyOp58
 70
     1
102
RTVSPropertyOp59
 70
     1
102
RTVSPropertyOp60
 70
     1
102
RTVSPropertyOp61
 70
     1
102
RTVSPropertyOp62
 70
     1
  0
XRECORD
  5
ADD2F
102
{ACAD_REACTORS
330
ADD2E
102
}
330
ADD2E
100
AcDbXrecord
280
     1
102
RTVSPost2010Prop28
280
     0
102
RTVSPost2010PropOp28
 70
     1
102
RTVSPost2010Prop29
280
     1
102
RTVSPost2010PropOp29
 70
     1
102
RTVSPost2010Prop30
280
     1
102
RTVSPost2010PropOp30
 70
     1
102
RTVSPost2010Prop31
280
     0
102
RTVSPost2010PropOp31
 70
     1
102
RTVSPost2010Prop32
280
     0
102
RTVSPost2010PropOp32
 70
     1
102
RTVSPost2010Prop33
280
     0
102
RTVSPost2010PropOp33
 70
     1
102
RTVSPost2010Prop34
280
     0
102
RTVSPost2010PropOp34
 70
     1
102
RTVSPost2010Prop35
280
     0
102
RTVSPost2010PropOp35
 70
     1
102
RTVSPost2010Prop36
280
     0
102
RTVSPost2010PropOp36
 70
     1
102
RTVSPost2010Prop37
 90
       50
102
RTVSPost2010PropOp37
 70
     1
102
RTVSPost2010Prop38
140
0.0
102
RTVSPost2010PropOp38
 70
     1
102
RTVSPost2010Prop39
140
1.0
102
RTVSPost2010PropOp39
 70
     1
102
RTVSPost2010Prop40
 90
        0
102
RTVSPost2010PropOp40
 70
     1
102
RTVSPost2010Prop41ColorIndex
 90
       18
102
RTVSPost2010Prop41ColorRGB
 90
        0
102
RTVSPost2010PropOp41
 70
     1
102
RTVSPost2010Prop42
 90
       50
102
RTVSPost2010PropOp42
 70
     1
102
RTVSPost2010Prop43
 90
        3
102
RTVSPost2010PropOp43
 70
     1
102
RTVSPost2010Prop44ColorIndex
 90
        5
102
RTVSPost2010Prop44ColorRGB
 90
      255
102
RTVSPost2010PropOp44
 70
     1
102
RTVSPost2010Prop45
280
     0
102
RTVSPost2010PropOp45
 70
     1
102
RTVSPost2010Prop46
 90
       50
102
RTVSPost2010PropOp46
 70
     1
102
RTVSPost2010Prop47
 90
       50
102
RTVSPost2010PropOp47
 70
     1
102
RTVSPost2010Prop48
 90
       50
102
RTVSPost2010PropOp48
 70
     1
102
RTVSPost2010Prop49
280
     0
102
RTVSPost2010PropOp49
 70
     1
102
RTVSPost2010Prop50
 90
       50
102
RTVSPost2010PropOp50
 70
     1
102
RTVSPost2010Prop51ColorIndex
 90
      256
102
RTVSPost2010Prop51ColorRGB
 90
-16777216
102
RTVSPost2010PropOp51
 70
     0
102
RTVSPost2010Prop52
140
1.0
102
RTVSPost2010PropOp52
 70
     0
102
RTVSPost2010Prop53
 90
        2
102
RTVSPost2010PropOp53
 70
     1
102
RTVSPost2010Prop54
  1
strokes_ogs.tif
102
RTVSPost2010PropOp54
 70
     1
102
RTVSPost2010Prop55
280
     0
102
RTVSPost2010PropOp55
 70
     1
102
RTVSPost2010Prop56
140
1.0
102
RTVSPost2010PropOp56
 70
     1
102
RTVSPost2010Prop57
140
1.0
102
RTVSPost2010PropOp57
 70
     1
102
RTVSPropertyOp0
 70
     1
102
RTVSPropertyOp1
 70
     1
102
RTVSPropertyOp2
 70
     1
102
RTVSPropertyOp3
 70
     1
102
RTVSPropertyOp4
 70
     1
102
RTVSPropertyOp5
 70
     1
102
RTVSPropertyOp6
 70
     1
102
RTVSPropertyOp7
 70
     1
102
RTVSPropertyOp8
 70
     1
102
RTVSPropertyOp9
 70
     1
102
RTVSPropertyOp10
 70
     1
102
RTVSPropertyOp11
 70
     1
102
RTVSPropertyOp12
 70
     1
102
RTVSPropertyOp13
 70
     1
102
RTVSPropertyOp14
 70
     1
102
RTVSPropertyOp15
 70
     1
102
RTVSPropertyOp16
 70
     1
102
RTVSPropertyOp17
 70
     1
102
RTVSPropertyOp18
 70
     1
102
RTVSPropertyOp19
 70
     1
102
RTVSPropertyOp20
 70
     1
102
RTVSPropertyOp21
 70
     1
102
RTVSPropertyOp22
 70
     1
102
RTVSPropertyOp23
 70
     1
102
RTVSPropertyOp24
 70
     1
102
RTVSPropertyOp25
 70
     1
102
RTVSPropertyOp26
 70
     1
102
RTVSPropertyOp27
 70
     1
102
RTVSPropertyOp28
 70
     1
102
RTVSPropertyOp29
 70
     1
102
RTVSPropertyOp30
 70
     1
102
RTVSPropertyOp31
 70
     1
102
RTVSPropertyOp32
 70
     1
102
RTVSPropertyOp33
 70
     1
102
RTVSPropertyOp34
 70
     1
102
RTVSPropertyOp35
 70
     1
102
RTVSPropertyOp36
 70
     1
102
RTVSPropertyOp37
 70
     1
102
RTVSPropertyOp38
 70
     1
102
RTVSPropertyOp39
 70
     1
102
RTVSPropertyOp40
 70
     1
102
RTVSPropertyOp41
 70
     1
102
RTVSPropertyOp42
 70
     1
102
RTVSPropertyOp43
 70
     1
102
RTVSPropertyOp44
 70
     1
102
RTVSPropertyOp45
 70
     1
102
RTVSPropertyOp46
 70
     1
102
RTVSPropertyOp47
 70
     1
102
RTVSPropertyOp48
 70
     1
102
RTVSPropertyOp49
 70
     1
102
RTVSPropertyOp50
 70
     1
102
RTVSPropertyOp51
 70
     0
102
RTVSPropertyOp52
 70
     0
102
RTVSPropertyOp53
 70
     1
102
RTVSPropertyOp54
 70
     1
102
RTVSPropertyOp55
 70
     1
102
RTVSPropertyOp56
 70
     1
102
RTVSPropertyOp57
 70
     1
102
RTVSPropertyOp58
 70
     1
102
RTVSPropertyOp59
 70
     1
102
RTVSPropertyOp60
 70
     1
102
RTVSPropertyOp61
 70
     1
102
RTVSPropertyOp62
 70
     1
  0
XRECORD
  5
ADD31
102
{ACAD_REACTORS
330
ADD30
102
}
330
ADD30
100
AcDbXrecord
280
     1
102
RTVSPost2010Prop28
280
     0
102
RTVSPost2010PropOp28
 70
     1
102
RTVSPost2010Prop29
280
     1
102
RTVSPost2010PropOp29
 70
     1
102
RTVSPost2010Prop30
280
     1
102
RTVSPost2010PropOp30
 70
     1
102
RTVSPost2010Prop31
280
     0
102
RTVSPost2010PropOp31
 70
     1
102
RTVSPost2010Prop32
280
     0
102
RTVSPost2010PropOp32
 70
     1
102
RTVSPost2010Prop33
280
     0
102
RTVSPost2010PropOp33
 70
     1
102
RTVSPost2010Prop34
280
     0
102
RTVSPost2010PropOp34
 70
     1
102
RTVSPost2010Prop35
280
     0
102
RTVSPost2010PropOp35
 70
     1
102
RTVSPost2010Prop36
280
     0
102
RTVSPost2010PropOp36
 70
     1
102
RTVSPost2010Prop37
 90
       50
102
RTVSPost2010PropOp37
 70
     1
102
RTVSPost2010Prop38
140
0.0
102
RTVSPost2010PropOp38
 70
     1
102
RTVSPost2010Prop39
140
1.0
102
RTVSPost2010PropOp39
 70
     1
102
RTVSPost2010Prop40
 90
        0
102
RTVSPost2010PropOp40
 70
     1
102
RTVSPost2010Prop41ColorIndex
 90
       18
102
RTVSPost2010Prop41ColorRGB
 90
        0
102
RTVSPost2010PropOp41
 70
     1
102
RTVSPost2010Prop42
 90
       50
102
RTVSPost2010PropOp42
 70
     1
102
RTVSPost2010Prop43
 90
        3
102
RTVSPost2010PropOp43
 70
     1
102
RTVSPost2010Prop44ColorIndex
 90
        5
102
RTVSPost2010Prop44ColorRGB
 90
      255
102
RTVSPost2010PropOp44
 70
     1
102
RTVSPost2010Prop45
280
     0
102
RTVSPost2010PropOp45
 70
     1
102
RTVSPost2010Prop46
 90
       50
102
RTVSPost2010PropOp46
 70
     1
102
RTVSPost2010Prop47
 90
       50
102
RTVSPost2010PropOp47
 70
     1
102
RTVSPost2010Prop48
 90
       50
102
RTVSPost2010PropOp48
 70
     1
102
RTVSPost2010Prop49
280
     0
102
RTVSPost2010PropOp49
 70
     1
102
RTVSPost2010Prop50
 90
       50
102
RTVSPost2010PropOp50
 70
     1
102
RTVSPost2010Prop51ColorIndex
 90
      256
102
RTVSPost2010Prop51ColorRGB
 90
-16777216
102
RTVSPost2010PropOp51
 70
     0
102
RTVSPost2010Prop52
140
1.0
102
RTVSPost2010PropOp52
 70
     0
102
RTVSPost2010Prop53
 90
        2
102
RTVSPost2010PropOp53
 70
     1
102
RTVSPost2010Prop54
  1
strokes_ogs.tif
102
RTVSPost2010PropOp54
 70
     1
102
RTVSPost2010Prop55
280
     0
102
RTVSPost2010PropOp55
 70
     1
102
RTVSPost2010Prop56
140
1.0
102
RTVSPost2010PropOp56
 70
     1
102
RTVSPost2010Prop57
140
1.0
102
RTVSPost2010PropOp57
 70
     1
102
RTVSPropertyOp0
 70
     1
102
RTVSPropertyOp1
 70
     1
102
RTVSPropertyOp2
 70
     1
102
RTVSPropertyOp3
 70
     1
102
RTVSPropertyOp4
 70
     1
102
RTVSPropertyOp5
 70
     1
102
RTVSPropertyOp6
 70
     1
102
RTVSPropertyOp7
 70
     1
102
RTVSPropertyOp8
 70
     1
102
RTVSPropertyOp9
 70
     1
102
RTVSPropertyOp10
 70
     1
102
RTVSPropertyOp11
 70
     1
102
RTVSPropertyOp12
 70
     1
102
RTVSPropertyOp13
 70
     1
102
RTVSPropertyOp14
 70
     1
102
RTVSPropertyOp15
 70
     1
102
RTVSPropertyOp16
 70
     1
102
RTVSPropertyOp17
 70
     1
102
RTVSPropertyOp18
 70
     1
102
RTVSPropertyOp19
 70
     1
102
RTVSPropertyOp20
 70
     1
102
RTVSPropertyOp21
 70
     1
102
RTVSPropertyOp22
 70
     1
102
RTVSPropertyOp23
 70
     1
102
RTVSPropertyOp24
 70
     1
102
RTVSPropertyOp25
 70
     1
102
RTVSPropertyOp26
 70
     1
102
RTVSPropertyOp27
 70
     1
102
RTVSPropertyOp28
 70
     1
102
RTVSPropertyOp29
 70
     1
102
RTVSPropertyOp30
 70
     1
102
RTVSPropertyOp31
 70
     1
102
RTVSPropertyOp32
 70
     1
102
RTVSPropertyOp33
 70
     1
102
RTVSPropertyOp34
 70
     1
102
RTVSPropertyOp35
 70
     1
102
RTVSPropertyOp36
 70
     1
102
RTVSPropertyOp37
 70
     1
102
RTVSPropertyOp38
 70
     1
102
RTVSPropertyOp39
 70
     1
102
RTVSPropertyOp40
 70
     1
102
RTVSPropertyOp41
 70
     1
102
RTVSPropertyOp42
 70
     1
102
RTVSPropertyOp43
 70
     1
102
RTVSPropertyOp44
 70
     1
102
RTVSPropertyOp45
 70
     1
102
RTVSPropertyOp46
 70
     1
102
RTVSPropertyOp47
 70
     1
102
RTVSPropertyOp48
 70
     1
102
RTVSPropertyOp49
 70
     1
102
RTVSPropertyOp50
 70
     1
102
RTVSPropertyOp51
 70
     0
102
RTVSPropertyOp52
 70
     0
102
RTVSPropertyOp53
 70
     1
102
RTVSPropertyOp54
 70
     1
102
RTVSPropertyOp55
 70
     1
102
RTVSPropertyOp56
 70
     1
102
RTVSPropertyOp57
 70
     1
102
RTVSPropertyOp58
 70
     1
102
RTVSPropertyOp59
 70
     1
102
RTVSPropertyOp60
 70
     1
102
RTVSPropertyOp61
 70
     1
102
RTVSPropertyOp62
 70
     1
  0
XRECORD
  5
ADD4D
102
{ACAD_REACTORS
330
ADD4C
102
}
330
ADD4C
100
AcDbXrecord
280
     1
102
RTVSPost2010Prop28
280
     0
102
RTVSPost2010PropOp28
 70
     1
102
RTVSPost2010Prop29
280
     1
102
RTVSPost2010PropOp29
 70
     1
102
RTVSPost2010Prop30
280
     1
102
RTVSPost2010PropOp30
 70
     1
102
RTVSPost2010Prop31
280
     0
102
RTVSPost2010PropOp31
 70
     1
102
RTVSPost2010Prop32
280
     0
102
RTVSPost2010PropOp32
 70
     1
102
RTVSPost2010Prop33
280
     0
102
RTVSPost2010PropOp33
 70
     1
102
RTVSPost2010Prop34
280
     0
102
RTVSPost2010PropOp34
 70
     1
102
RTVSPost2010Prop35
280
     0
102
RTVSPost2010PropOp35
 70
     1
102
RTVSPost2010Prop36
280
     0
102
RTVSPost2010PropOp36
 70
     1
102
RTVSPost2010Prop37
 90
       50
102
RTVSPost2010PropOp37
 70
     1
102
RTVSPost2010Prop38
140
0.0
102
RTVSPost2010PropOp38
 70
     1
102
RTVSPost2010Prop39
140
1.0
102
RTVSPost2010PropOp39
 70
     1
102
RTVSPost2010Prop40
 90
        0
102
RTVSPost2010PropOp40
 70
     1
102
RTVSPost2010Prop41ColorIndex
 90
       18
102
RTVSPost2010Prop41ColorRGB
 90
        0
102
RTVSPost2010PropOp41
 70
     1
102
RTVSPost2010Prop42
 90
       50
102
RTVSPost2010PropOp42
 70
     1
102
RTVSPost2010Prop43
 90
        3
102
RTVSPost2010PropOp43
 70
     1
102
RTVSPost2010Prop44ColorIndex
 90
        5
102
RTVSPost2010Prop44ColorRGB
 90
      255
102
RTVSPost2010PropOp44
 70
     1
102
RTVSPost2010Prop45
280
     0
102
RTVSPost2010PropOp45
 70
     1
102
RTVSPost2010Prop46
 90
       50
102
RTVSPost2010PropOp46
 70
     1
102
RTVSPost2010Prop47
 90
       50
102
RTVSPost2010PropOp47
 70
     1
102
RTVSPost2010Prop48
 90
       50
102
RTVSPost2010PropOp48
 70
     1
102
RTVSPost2010Prop49
280
     0
102
RTVSPost2010PropOp49
 70
     1
102
RTVSPost2010Prop50
 90
       50
102
RTVSPost2010PropOp50
 70
     1
102
RTVSPost2010Prop51ColorIndex
 90
      256
102
RTVSPost2010Prop51ColorRGB
 90
-16777216
102
RTVSPost2010PropOp51
 70
     0
102
RTVSPost2010Prop52
140
1.0
102
RTVSPost2010PropOp52
 70
     0
102
RTVSPost2010Prop53
 90
        2
102
RTVSPost2010PropOp53
 70
     1
102
RTVSPost2010Prop54
  1
strokes_ogs.tif
102
RTVSPost2010PropOp54
 70
     1
102
RTVSPost2010Prop55
280
     0
102
RTVSPost2010PropOp55
 70
     1
102
RTVSPost2010Prop56
140
1.0
102
RTVSPost2010PropOp56
 70
     1
102
RTVSPost2010Prop57
140
1.0
102
RTVSPost2010PropOp57
 70
     1
102
RTVSPropertyOp0
 70
     1
102
RTVSPropertyOp1
 70
     1
102
RTVSPropertyOp2
 70
     1
102
RTVSPropertyOp3
 70
     1
102
RTVSPropertyOp4
 70
     1
102
RTVSPropertyOp5
 70
     1
102
RTVSPropertyOp6
 70
     1
102
RTVSPropertyOp7
 70
     1
102
RTVSPropertyOp8
 70
     1
102
RTVSPropertyOp9
 70
     1
102
RTVSPropertyOp10
 70
     1
102
RTVSPropertyOp11
 70
     1
102
RTVSPropertyOp12
 70
     1
102
RTVSPropertyOp13
 70
     1
102
RTVSPropertyOp14
 70
     1
102
RTVSPropertyOp15
 70
     1
102
RTVSPropertyOp16
 70
     1
102
RTVSPropertyOp17
 70
     1
102
RTVSPropertyOp18
 70
     1
102
RTVSPropertyOp19
 70
     1
102
RTVSPropertyOp20
 70
     1
102
RTVSPropertyOp21
 70
     1
102
RTVSPropertyOp22
 70
     1
102
RTVSPropertyOp23
 70
     1
102
RTVSPropertyOp24
 70
     1
102
RTVSPropertyOp25
 70
     1
102
RTVSPropertyOp26
 70
     1
102
RTVSPropertyOp27
 70
     1
102
RTVSPropertyOp28
 70
     1
102
RTVSPropertyOp29
 70
     1
102
RTVSPropertyOp30
 70
     1
102
RTVSPropertyOp31
 70
     1
102
RTVSPropertyOp32
 70
     1
102
RTVSPropertyOp33
 70
     1
102
RTVSPropertyOp34
 70
     1
102
RTVSPropertyOp35
 70
     1
102
RTVSPropertyOp36
 70
     1
102
RTVSPropertyOp37
 70
     1
102
RTVSPropertyOp38
 70
     1
102
RTVSPropertyOp39
 70
     1
102
RTVSPropertyOp40
 70
     1
102
RTVSPropertyOp41
 70
     1
102
RTVSPropertyOp42
 70
     1
102
RTVSPropertyOp43
 70
     1
102
RTVSPropertyOp44
 70
     1
102
RTVSPropertyOp45
 70
     1
102
RTVSPropertyOp46
 70
     1
102
RTVSPropertyOp47
 70
     1
102
RTVSPropertyOp48
 70
     1
102
RTVSPropertyOp49
 70
     1
102
RTVSPropertyOp50
 70
     1
102
RTVSPropertyOp51
 70
     0
102
RTVSPropertyOp52
 70
     0
102
RTVSPropertyOp53
 70
     1
102
RTVSPropertyOp54
 70
     1
102
RTVSPropertyOp55
 70
     1
102
RTVSPropertyOp56
 70
     1
102
RTVSPropertyOp57
 70
     1
102
RTVSPropertyOp58
 70
     1
102
RTVSPropertyOp59
 70
     1
102
RTVSPropertyOp60
 70
     1
102
RTVSPropertyOp61
 70
     1
102
RTVSPropertyOp62
 70
     1
  0
XRECORD
  5
ADD59
102
{ACAD_REACTORS
330
ADD58
102
}
330
ADD58
100
AcDbXrecord
280
     1
102
RTVSPost2010Prop28
280
     0
102
RTVSPost2010PropOp28
 70
     1
102
RTVSPost2010Prop29
280
     1
102
RTVSPost2010PropOp29
 70
     1
102
RTVSPost2010Prop30
280
     1
102
RTVSPost2010PropOp30
 70
     1
102
RTVSPost2010Prop31
280
     0
102
RTVSPost2010PropOp31
 70
     1
102
RTVSPost2010Prop32
280
     0
102
RTVSPost2010PropOp32
 70
     1
102
RTVSPost2010Prop33
280
     0
102
RTVSPost2010PropOp33
 70
     1
102
RTVSPost2010Prop34
280
     0
102
RTVSPost2010PropOp34
 70
     1
102
RTVSPost2010Prop35
280
     0
102
RTVSPost2010PropOp35
 70
     1
102
RTVSPost2010Prop36
280
     0
102
RTVSPost2010PropOp36
 70
     1
102
RTVSPost2010Prop37
 90
       50
102
RTVSPost2010PropOp37
 70
     0
102
RTVSPost2010Prop38
140
0.0
102
RTVSPost2010PropOp38
 70
     0
102
RTVSPost2010Prop39
140
1.0
102
RTVSPost2010PropOp39
 70
     0
102
RTVSPost2010Prop40
 90
        0
102
RTVSPost2010PropOp40
 70
     0
102
RTVSPost2010Prop41ColorIndex
 90
       18
102
RTVSPost2010Prop41ColorRGB
 90
        0
102
RTVSPost2010PropOp41
 70
     0
102
RTVSPost2010Prop42
 90
       50
102
RTVSPost2010PropOp42
 70
     0
102
RTVSPost2010Prop43
 90
        3
102
RTVSPost2010PropOp43
 70
     0
102
RTVSPost2010Prop44ColorIndex
 90
        5
102
RTVSPost2010Prop44ColorRGB
 90
      255
102
RTVSPost2010PropOp44
 70
     0
102
RTVSPost2010Prop45
280
     0
102
RTVSPost2010PropOp45
 70
     1
102
RTVSPost2010Prop46
 90
       50
102
RTVSPost2010PropOp46
 70
     0
102
RTVSPost2010Prop47
 90
       50
102
RTVSPost2010PropOp47
 70
     0
102
RTVSPost2010Prop48
 90
       50
102
RTVSPost2010PropOp48
 70
     0
102
RTVSPost2010Prop49
280
     0
102
RTVSPost2010PropOp49
 70
     1
102
RTVSPost2010Prop50
 90
       50
102
RTVSPost2010PropOp50
 70
     0
102
RTVSPost2010Prop51ColorIndex
 90
      256
102
RTVSPost2010Prop51ColorRGB
 90
-16777216
102
RTVSPost2010PropOp51
 70
     0
102
RTVSPost2010Prop52
140
1.0
102
RTVSPost2010PropOp52
 70
     0
102
RTVSPost2010Prop53
 90
        2
102
RTVSPost2010PropOp53
 70
     0
102
RTVSPost2010Prop54
  1
strokes_ogs.tif
102
RTVSPost2010PropOp54
 70
     0
102
RTVSPost2010Prop55
280
     0
102
RTVSPost2010PropOp55
 70
     1
102
RTVSPost2010Prop56
140
1.0
102
RTVSPost2010PropOp56
 70
     0
102
RTVSPost2010Prop57
140
1.0
102
RTVSPost2010PropOp57
 70
     0
102
RTVSPropertyOp0
 70
     0
102
RTVSPropertyOp1
 70
     0
102
RTVSPropertyOp2
 70
     0
102
RTVSPropertyOp3
 70
     0
102
RTVSPropertyOp4
 70
     0
102
RTVSPropertyOp5
 70
     0
102
RTVSPropertyOp6
 70
     0
102
RTVSPropertyOp7
 70
     0
102
RTVSPropertyOp8
 70
     0
102
RTVSPropertyOp9
 70
     0
102
RTVSPropertyOp10
 70
     0
102
RTVSPropertyOp11
 70
     0
102
RTVSPropertyOp12
 70
     0
102
RTVSPropertyOp13
 70
     0
102
RTVSPropertyOp14
 70
     2
102
RTVSPropertyOp15
 70
     0
102
RTVSPropertyOp16
 70
     0
102
RTVSPropertyOp17
 70
     0
102
RTVSPropertyOp18
 70
     0
102
RTVSPropertyOp19
 70
     0
102
RTVSPropertyOp20
 70
     0
102
RTVSPropertyOp21
 70
     0
102
RTVSPropertyOp22
 70
     0
102
RTVSPropertyOp23
 70
     0
102
RTVSPropertyOp24
 70
     0
102
RTVSPropertyOp25
 70
     0
102
RTVSPropertyOp26
 70
     0
102
RTVSPropertyOp27
 70
     0
102
RTVSPropertyOp28
 70
     1
102
RTVSPropertyOp29
 70
     1
102
RTVSPropertyOp30
 70
     1
102
RTVSPropertyOp31
 70
     1
102
RTVSPropertyOp32
 70
     1
102
RTVSPropertyOp33
 70
     1
102
RTVSPropertyOp34
 70
     1
102
RTVSPropertyOp35
 70
     1
102
RTVSPropertyOp36
 70
     1
102
RTVSPropertyOp37
 70
     0
102
RTVSPropertyOp38
 70
     0
102
RTVSPropertyOp39
 70
     0
102
RTVSPropertyOp40
 70
     0
102
RTVSPropertyOp41
 70
     0
102
RTVSPropertyOp42
 70
     0
102
RTVSPropertyOp43
 70
     0
102
RTVSPropertyOp44
 70
     0
102
RTVSPropertyOp45
 70
     1
102
RTVSPropertyOp46
 70
     0
102
RTVSPropertyOp47
 70
     0
102
RTVSPropertyOp48
 70
     0
102
RTVSPropertyOp49
 70
     1
102
RTVSPropertyOp50
 70
     0
102
RTVSPropertyOp51
 70
     0
102
RTVSPropertyOp52
 70
     0
102
RTVSPropertyOp53
 70
     0
102
RTVSPropertyOp54
 70
     0
102
RTVSPropertyOp55
 70
     1
102
RTVSPropertyOp56
 70
     0
102
RTVSPropertyOp57
 70
     0
102
RTVSPropertyOp58
 70
     1
102
RTVSPropertyOp59
 70
     1
102
RTVSPropertyOp60
 70
     1
102
RTVSPropertyOp61
 70
     1
102
RTVSPropertyOp62
 70
     1
  0
XRECORD
  5
ADD45
102
{ACAD_REACTORS
330
ADD44
102
}
330
ADD44
100
AcDbXrecord
280
     1
102
RTVSPost2010Prop28
280
     0
102
RTVSPost2010PropOp28
 70
     1
102
RTVSPost2010Prop29
280
     1
102
RTVSPost2010PropOp29
 70
     1
102
RTVSPost2010Prop30
280
     1
102
RTVSPost2010PropOp30
 70
     1
102
RTVSPost2010Prop31
280
     0
102
RTVSPost2010PropOp31
 70
     1
102
RTVSPost2010Prop32
280
     0
102
RTVSPost2010PropOp32
 70
     1
102
RTVSPost2010Prop33
280
     0
102
RTVSPost2010PropOp33
 70
     1
102
RTVSPost2010Prop34
280
     0
102
RTVSPost2010PropOp34
 70
     1
102
RTVSPost2010Prop35
280
     0
102
RTVSPost2010PropOp35
 70
     1
102
RTVSPost2010Prop36
280
     0
102
RTVSPost2010PropOp36
 70
     1
102
RTVSPost2010Prop37
 90
       50
102
RTVSPost2010PropOp37
 70
     1
102
RTVSPost2010Prop38
140
0.0
102
RTVSPost2010PropOp38
 70
     1
102
RTVSPost2010Prop39
140
1.0
102
RTVSPost2010PropOp39
 70
     1
102
RTVSPost2010Prop40
 90
        0
102
RTVSPost2010PropOp40
 70
     1
102
RTVSPost2010Prop41ColorIndex
 90
       18
102
RTVSPost2010Prop41ColorRGB
 90
        0
102
RTVSPost2010PropOp41
 70
     1
102
RTVSPost2010Prop42
 90
       50
102
RTVSPost2010PropOp42
 70
     1
102
RTVSPost2010Prop43
 90
        3
102
RTVSPost2010PropOp43
 70
     1
102
RTVSPost2010Prop44ColorIndex
 90
        5
102
RTVSPost2010Prop44ColorRGB
 90
      255
102
RTVSPost2010PropOp44
 70
     1
102
RTVSPost2010Prop45
280
     0
102
RTVSPost2010PropOp45
 70
     1
102
RTVSPost2010Prop46
 90
       50
102
RTVSPost2010PropOp46
 70
     1
102
RTVSPost2010Prop47
 90
       50
102
RTVSPost2010PropOp47
 70
     1
102
RTVSPost2010Prop48
 90
       50
102
RTVSPost2010PropOp48
 70
     1
102
RTVSPost2010Prop49
280
     0
102
RTVSPost2010PropOp49
 70
     1
102
RTVSPost2010Prop50
 90
       50
102
RTVSPost2010PropOp50
 70
     1
102
RTVSPost2010Prop51ColorIndex
 90
      256
102
RTVSPost2010Prop51ColorRGB
 90
-16777216
102
RTVSPost2010PropOp51
 70
     0
102
RTVSPost2010Prop52
140
1.0
102
RTVSPost2010PropOp52
 70
     0
102
RTVSPost2010Prop53
 90
        2
102
RTVSPost2010PropOp53
 70
     1
102
RTVSPost2010Prop54
  1
strokes_ogs.tif
102
RTVSPost2010PropOp54
 70
     1
102
RTVSPost2010Prop55
280
     0
102
RTVSPost2010PropOp55
 70
     1
102
RTVSPost2010Prop56
140
1.0
102
RTVSPost2010PropOp56
 70
     1
102
RTVSPost2010Prop57
140
1.0
102
RTVSPost2010PropOp57
 70
     1
102
RTVSPropertyOp0
 70
     1
102
RTVSPropertyOp1
 70
     1
102
RTVSPropertyOp2
 70
     1
102
RTVSPropertyOp3
 70
     1
102
RTVSPropertyOp4
 70
     1
102
RTVSPropertyOp5
 70
     1
102
RTVSPropertyOp6
 70
     1
102
RTVSPropertyOp7
 70
     1
102
RTVSPropertyOp8
 70
     1
102
RTVSPropertyOp9
 70
     1
102
RTVSPropertyOp10
 70
     1
102
RTVSPropertyOp11
 70
     1
102
RTVSPropertyOp12
 70
     1
102
RTVSPropertyOp13
 70
     1
102
RTVSPropertyOp14
 70
     1
102
RTVSPropertyOp15
 70
     1
102
RTVSPropertyOp16
 70
     1
102
RTVSPropertyOp17
 70
     1
102
RTVSPropertyOp18
 70
     1
102
RTVSPropertyOp19
 70
     1
102
RTVSPropertyOp20
 70
     1
102
RTVSPropertyOp21
 70
     1
102
RTVSPropertyOp22
 70
     1
102
RTVSPropertyOp23
 70
     1
102
RTVSPropertyOp24
 70
     1
102
RTVSPropertyOp25
 70
     1
102
RTVSPropertyOp26
 70
     1
102
RTVSPropertyOp27
 70
     1
102
RTVSPropertyOp28
 70
     1
102
RTVSPropertyOp29
 70
     1
102
RTVSPropertyOp30
 70
     1
102
RTVSPropertyOp31
 70
     1
102
RTVSPropertyOp32
 70
     1
102
RTVSPropertyOp33
 70
     1
102
RTVSPropertyOp34
 70
     1
102
RTVSPropertyOp35
 70
     1
102
RTVSPropertyOp36
 70
     1
102
RTVSPropertyOp37
 70
     1
102
RTVSPropertyOp38
 70
     1
102
RTVSPropertyOp39
 70
     1
102
RTVSPropertyOp40
 70
     1
102
RTVSPropertyOp41
 70
     1
102
RTVSPropertyOp42
 70
     1
102
RTVSPropertyOp43
 70
     1
102
RTVSPropertyOp44
 70
     1
102
RTVSPropertyOp45
 70
     1
102
RTVSPropertyOp46
 70
     1
102
RTVSPropertyOp47
 70
     1
102
RTVSPropertyOp48
 70
     1
102
RTVSPropertyOp49
 70
     1
102
RTVSPropertyOp50
 70
     1
102
RTVSPropertyOp51
 70
     0
102
RTVSPropertyOp52
 70
     0
102
RTVSPropertyOp53
 70
     1
102
RTVSPropertyOp54
 70
     1
102
RTVSPropertyOp55
 70
     1
102
RTVSPropertyOp56
 70
     1
102
RTVSPropertyOp57
 70
     1
102
RTVSPropertyOp58
 70
     1
102
RTVSPropertyOp59
 70
     1
102
RTVSPropertyOp60
 70
     1
102
RTVSPropertyOp61
 70
     1
102
RTVSPropertyOp62
 70
     1
  0
XRECORD
  5
ADD5B
102
{ACAD_REACTORS
330
ADD5A
102
}
330
ADD5A
100
AcDbXrecord
280
     1
102
RTVSPost2010Prop28
280
     0
102
RTVSPost2010PropOp28
 70
     1
102
RTVSPost2010Prop29
280
     1
102
RTVSPost2010PropOp29
 70
     1
102
RTVSPost2010Prop30
280
     1
102
RTVSPost2010PropOp30
 70
     1
102
RTVSPost2010Prop31
280
     0
102
RTVSPost2010PropOp31
 70
     1
102
RTVSPost2010Prop32
280
     0
102
RTVSPost2010PropOp32
 70
     1
102
RTVSPost2010Prop33
280
     0
102
RTVSPost2010PropOp33
 70
     1
102
RTVSPost2010Prop34
280
     0
102
RTVSPost2010PropOp34
 70
     1
102
RTVSPost2010Prop35
280
     0
102
RTVSPost2010PropOp35
 70
     1
102
RTVSPost2010Prop36
280
     0
102
RTVSPost2010PropOp36
 70
     1
102
RTVSPost2010Prop37
 90
       50
102
RTVSPost2010PropOp37
 70
     0
102
RTVSPost2010Prop38
140
0.0
102
RTVSPost2010PropOp38
 70
     0
102
RTVSPost2010Prop39
140
1.0
102
RTVSPost2010PropOp39
 70
     0
102
RTVSPost2010Prop40
 90
        0
102
RTVSPost2010PropOp40
 70
     0
102
RTVSPost2010Prop41ColorIndex
 90
       18
102
RTVSPost2010Prop41ColorRGB
 90
        0
102
RTVSPost2010PropOp41
 70
     0
102
RTVSPost2010Prop42
 90
       50
102
RTVSPost2010PropOp42
 70
     0
102
RTVSPost2010Prop43
 90
        3
102
RTVSPost2010PropOp43
 70
     0
102
RTVSPost2010Prop44ColorIndex
 90
        5
102
RTVSPost2010Prop44ColorRGB
 90
      255
102
RTVSPost2010PropOp44
 70
     0
102
RTVSPost2010Prop45
280
     0
102
RTVSPost2010PropOp45
 70
     1
102
RTVSPost2010Prop46
 90
       50
102
RTVSPost2010PropOp46
 70
     0
102
RTVSPost2010Prop47
 90
       50
102
RTVSPost2010PropOp47
 70
     0
102
RTVSPost2010Prop48
 90
       50
102
RTVSPost2010PropOp48
 70
     0
102
RTVSPost2010Prop49
280
     0
102
RTVSPost2010PropOp49
 70
     1
102
RTVSPost2010Prop50
 90
       50
102
RTVSPost2010PropOp50
 70
     0
102
RTVSPost2010Prop51ColorIndex
 90
      256
102
RTVSPost2010Prop51ColorRGB
 90
-16777216
102
RTVSPost2010PropOp51
 70
     0
102
RTVSPost2010Prop52
140
1.0
102
RTVSPost2010PropOp52
 70
     0
102
RTVSPost2010Prop53
 90
        2
102
RTVSPost2010PropOp53
 70
     0
102
RTVSPost2010Prop54
  1
strokes_ogs.tif
102
RTVSPost2010PropOp54
 70
     0
102
RTVSPost2010Prop55
280
     0
102
RTVSPost2010PropOp55
 70
     1
102
RTVSPost2010Prop56
140
1.0
102
RTVSPost2010PropOp56
 70
     0
102
RTVSPost2010Prop57
140
1.0
102
RTVSPost2010PropOp57
 70
     0
102
RTVSPropertyOp0
 70
     0
102
RTVSPropertyOp1
 70
     0
102
RTVSPropertyOp2
 70
     0
102
RTVSPropertyOp3
 70
     0
102
RTVSPropertyOp4
 70
     0
102
RTVSPropertyOp5
 70
     0
102
RTVSPropertyOp6
 70
     0
102
RTVSPropertyOp7
 70
     0
102
RTVSPropertyOp8
 70
     0
102
RTVSPropertyOp9
 70
     0
102
RTVSPropertyOp10
 70
     0
102
RTVSPropertyOp11
 70
     0
102
RTVSPropertyOp12
 70
     0
102
RTVSPropertyOp13
 70
     0
102
RTVSPropertyOp14
 70
     2
102
RTVSPropertyOp15
 70
     0
102
RTVSPropertyOp16
 70
     0
102
RTVSPropertyOp17
 70
     0
102
RTVSPropertyOp18
 70
     0
102
RTVSPropertyOp19
 70
     0
102
RTVSPropertyOp20
 70
     0
102
RTVSPropertyOp21
 70
     0
102
RTVSPropertyOp22
 70
     0
102
RTVSPropertyOp23
 70
     0
102
RTVSPropertyOp24
 70
     0
102
RTVSPropertyOp25
 70
     0
102
RTVSPropertyOp26
 70
     0
102
RTVSPropertyOp27
 70
     0
102
RTVSPropertyOp28
 70
     1
102
RTVSPropertyOp29
 70
     1
102
RTVSPropertyOp30
 70
     1
102
RTVSPropertyOp31
 70
     1
102
RTVSPropertyOp32
 70
     1
102
RTVSPropertyOp33
 70
     1
102
RTVSPropertyOp34
 70
     1
102
RTVSPropertyOp35
 70
     1
102
RTVSPropertyOp36
 70
     1
102
RTVSPropertyOp37
 70
     0
102
RTVSPropertyOp38
 70
     0
102
RTVSPropertyOp39
 70
     0
102
RTVSPropertyOp40
 70
     0
102
RTVSPropertyOp41
 70
     0
102
RTVSPropertyOp42
 70
     0
102
RTVSPropertyOp43
 70
     0
102
RTVSPropertyOp44
 70
     0
102
RTVSPropertyOp45
 70
     1
102
RTVSPropertyOp46
 70
     0
102
RTVSPropertyOp47
 70
     0
102
RTVSPropertyOp48
 70
     0
102
RTVSPropertyOp49
 70
     1
102
RTVSPropertyOp50
 70
     0
102
RTVSPropertyOp51
 70
     0
102
RTVSPropertyOp52
 70
     0
102
RTVSPropertyOp53
 70
     0
102
RTVSPropertyOp54
 70
     0
102
RTVSPropertyOp55
 70
     1
102
RTVSPropertyOp56
 70
     0
102
RTVSPropertyOp57
 70
     0
102
RTVSPropertyOp58
 70
     1
102
RTVSPropertyOp59
 70
     1
102
RTVSPropertyOp60
 70
     1
102
RTVSPropertyOp61
 70
     1
102
RTVSPropertyOp62
 70
     1
  0
XRECORD
  5
ADD3D
102
{ACAD_REACTORS
330
ADD3C
102
}
330
ADD3C
100
AcDbXrecord
280
     1
102
RTVSPost2010Prop28
280
     0
102
RTVSPost2010PropOp28
 70
     1
102
RTVSPost2010Prop29
280
     1
102
RTVSPost2010PropOp29
 70
     1
102
RTVSPost2010Prop30
280
     1
102
RTVSPost2010PropOp30
 70
     1
102
RTVSPost2010Prop31
280
     0
102
RTVSPost2010PropOp31
 70
     1
102
RTVSPost2010Prop32
280
     0
102
RTVSPost2010PropOp32
 70
     1
102
RTVSPost2010Prop33
280
     0
102
RTVSPost2010PropOp33
 70
     1
102
RTVSPost2010Prop34
280
     0
102
RTVSPost2010PropOp34
 70
     1
102
RTVSPost2010Prop35
280
     0
102
RTVSPost2010PropOp35
 70
     1
102
RTVSPost2010Prop36
280
     0
102
RTVSPost2010PropOp36
 70
     1
102
RTVSPost2010Prop37
 90
       50
102
RTVSPost2010PropOp37
 70
     1
102
RTVSPost2010Prop38
140
0.0
102
RTVSPost2010PropOp38
 70
     1
102
RTVSPost2010Prop39
140
1.0
102
RTVSPost2010PropOp39
 70
     1
102
RTVSPost2010Prop40
 90
        0
102
RTVSPost2010PropOp40
 70
     1
102
RTVSPost2010Prop41ColorIndex
 90
       18
102
RTVSPost2010Prop41ColorRGB
 90
        0
102
RTVSPost2010PropOp41
 70
     1
102
RTVSPost2010Prop42
 90
       50
102
RTVSPost2010PropOp42
 70
     1
102
RTVSPost2010Prop43
 90
        3
102
RTVSPost2010PropOp43
 70
     1
102
RTVSPost2010Prop44ColorIndex
 90
        5
102
RTVSPost2010Prop44ColorRGB
 90
      255
102
RTVSPost2010PropOp44
 70
     1
102
RTVSPost2010Prop45
280
     0
102
RTVSPost2010PropOp45
 70
     1
102
RTVSPost2010Prop46
 90
       50
102
RTVSPost2010PropOp46
 70
     1
102
RTVSPost2010Prop47
 90
       50
102
RTVSPost2010PropOp47
 70
     1
102
RTVSPost2010Prop48
 90
       50
102
RTVSPost2010PropOp48
 70
     1
102
RTVSPost2010Prop49
280
     0
102
RTVSPost2010PropOp49
 70
     1
102
RTVSPost2010Prop50
 90
       50
102
RTVSPost2010PropOp50
 70
     1
102
RTVSPost2010Prop51ColorIndex
 90
      256
102
RTVSPost2010Prop51ColorRGB
 90
-16777216
102
RTVSPost2010PropOp51
 70
     0
102
RTVSPost2010Prop52
140
1.0
102
RTVSPost2010PropOp52
 70
     0
102
RTVSPost2010Prop53
 90
        2
102
RTVSPost2010PropOp53
 70
     1
102
RTVSPost2010Prop54
  1
strokes_ogs.tif
102
RTVSPost2010PropOp54
 70
     1
102
RTVSPost2010Prop55
280
     0
102
RTVSPost2010PropOp55
 70
     1
102
RTVSPost2010Prop56
140
1.0
102
RTVSPost2010PropOp56
 70
     1
102
RTVSPost2010Prop57
140
1.0
102
RTVSPost2010PropOp57
 70
     1
102
RTVSPropertyOp0
 70
     1
102
RTVSPropertyOp1
 70
     1
102
RTVSPropertyOp2
 70
     1
102
RTVSPropertyOp3
 70
     1
102
RTVSPropertyOp4
 70
     1
102
RTVSPropertyOp5
 70
     1
102
RTVSPropertyOp6
 70
     1
102
RTVSPropertyOp7
 70
     1
102
RTVSPropertyOp8
 70
     1
102
RTVSPropertyOp9
 70
     1
102
RTVSPropertyOp10
 70
     1
102
RTVSPropertyOp11
 70
     1
102
RTVSPropertyOp12
 70
     1
102
RTVSPropertyOp13
 70
     1
102
RTVSPropertyOp14
 70
     1
102
RTVSPropertyOp15
 70
     1
102
RTVSPropertyOp16
 70
     1
102
RTVSPropertyOp17
 70
     1
102
RTVSPropertyOp18
 70
     1
102
RTVSPropertyOp19
 70
     1
102
RTVSPropertyOp20
 70
     1
102
RTVSPropertyOp21
 70
     1
102
RTVSPropertyOp22
 70
     1
102
RTVSPropertyOp23
 70
     1
102
RTVSPropertyOp24
 70
     1
102
RTVSPropertyOp25
 70
     1
102
RTVSPropertyOp26
 70
     1
102
RTVSPropertyOp27
 70
     1
102
RTVSPropertyOp28
 70
     1
102
RTVSPropertyOp29
 70
     1
102
RTVSPropertyOp30
 70
     1
102
RTVSPropertyOp31
 70
     1
102
RTVSPropertyOp32
 70
     1
102
RTVSPropertyOp33
 70
     1
102
RTVSPropertyOp34
 70
     1
102
RTVSPropertyOp35
 70
     1
102
RTVSPropertyOp36
 70
     1
102
RTVSPropertyOp37
 70
     1
102
RTVSPropertyOp38
 70
     1
102
RTVSPropertyOp39
 70
     1
102
RTVSPropertyOp40
 70
     1
102
RTVSPropertyOp41
 70
     1
102
RTVSPropertyOp42
 70
     1
102
RTVSPropertyOp43
 70
     1
102
RTVSPropertyOp44
 70
     1
102
RTVSPropertyOp45
 70
     1
102
RTVSPropertyOp46
 70
     1
102
RTVSPropertyOp47
 70
     1
102
RTVSPropertyOp48
 70
     1
102
RTVSPropertyOp49
 70
     1
102
RTVSPropertyOp50
 70
     1
102
RTVSPropertyOp51
 70
     0
102
RTVSPropertyOp52
 70
     0
102
RTVSPropertyOp53
 70
     1
102
RTVSPropertyOp54
 70
     1
102
RTVSPropertyOp55
 70
     1
102
RTVSPropertyOp56
 70
     1
102
RTVSPropertyOp57
 70
     1
102
RTVSPropertyOp58
 70
     1
102
RTVSPropertyOp59
 70
     1
102
RTVSPropertyOp60
 70
     1
102
RTVSPropertyOp61
 70
     1
102
RTVSPropertyOp62
 70
     1
  0
XRECORD
  5
ADD57
102
{ACAD_REACTORS
330
ADD56
102
}
330
ADD56
100
AcDbXrecord
280
     1
102
RTVSPost2010Prop28
280
     0
102
RTVSPost2010PropOp28
 70
     1
102
RTVSPost2010Prop29
280
     1
102
RTVSPost2010PropOp29
 70
     1
102
RTVSPost2010Prop30
280
     1
102
RTVSPost2010PropOp30
 70
     1
102
RTVSPost2010Prop31
280
     0
102
RTVSPost2010PropOp31
 70
     1
102
RTVSPost2010Prop32
280
     0
102
RTVSPost2010PropOp32
 70
     1
102
RTVSPost2010Prop33
280
     0
102
RTVSPost2010PropOp33
 70
     1
102
RTVSPost2010Prop34
280
     0
102
RTVSPost2010PropOp34
 70
     1
102
RTVSPost2010Prop35
280
     0
102
RTVSPost2010PropOp35
 70
     1
102
RTVSPost2010Prop36
280
     0
102
RTVSPost2010PropOp36
 70
     1
102
RTVSPost2010Prop37
 90
       50
102
RTVSPost2010PropOp37
 70
     1
102
RTVSPost2010Prop38
140
0.0
102
RTVSPost2010PropOp38
 70
     1
102
RTVSPost2010Prop39
140
1.0
102
RTVSPost2010PropOp39
 70
     1
102
RTVSPost2010Prop40
 90
        0
102
RTVSPost2010PropOp40
 70
     1
102
RTVSPost2010Prop41ColorIndex
 90
       18
102
RTVSPost2010Prop41ColorRGB
 90
        0
102
RTVSPost2010PropOp41
 70
     1
102
RTVSPost2010Prop42
 90
       50
102
RTVSPost2010PropOp42
 70
     1
102
RTVSPost2010Prop43
 90
        3
102
RTVSPost2010PropOp43
 70
     1
102
RTVSPost2010Prop44ColorIndex
 90
        5
102
RTVSPost2010Prop44ColorRGB
 90
      255
102
RTVSPost2010PropOp44
 70
     1
102
RTVSPost2010Prop45
280
     0
102
RTVSPost2010PropOp45
 70
     1
102
RTVSPost2010Prop46
 90
       50
102
RTVSPost2010PropOp46
 70
     1
102
RTVSPost2010Prop47
 90
       50
102
RTVSPost2010PropOp47
 70
     1
102
RTVSPost2010Prop48
 90
       50
102
RTVSPost2010PropOp48
 70
     1
102
RTVSPost2010Prop49
280
     0
102
RTVSPost2010PropOp49
 70
     1
102
RTVSPost2010Prop50
 90
       50
102
RTVSPost2010PropOp50
 70
     1
102
RTVSPost2010Prop51ColorIndex
 90
      256
102
RTVSPost2010Prop51ColorRGB
 90
-16777216
102
RTVSPost2010PropOp51
 70
     0
102
RTVSPost2010Prop52
140
1.0
102
RTVSPost2010PropOp52
 70
     0
102
RTVSPost2010Prop53
 90
        2
102
RTVSPost2010PropOp53
 70
     1
102
RTVSPost2010Prop54
  1
strokes_ogs.tif
102
RTVSPost2010PropOp54
 70
     1
102
RTVSPost2010Prop55
280
     0
102
RTVSPost2010PropOp55
 70
     1
102
RTVSPost2010Prop56
140
1.0
102
RTVSPost2010PropOp56
 70
     1
102
RTVSPost2010Prop57
140
1.0
102
RTVSPost2010PropOp57
 70
     1
102
RTVSPropertyOp0
 70
     1
102
RTVSPropertyOp1
 70
     1
102
RTVSPropertyOp2
 70
     1
102
RTVSPropertyOp3
 70
     1
102
RTVSPropertyOp4
 70
     1
102
RTVSPropertyOp5
 70
     1
102
RTVSPropertyOp6
 70
     1
102
RTVSPropertyOp7
 70
     1
102
RTVSPropertyOp8
 70
     1
102
RTVSPropertyOp9
 70
     1
102
RTVSPropertyOp10
 70
     1
102
RTVSPropertyOp11
 70
     1
102
RTVSPropertyOp12
 70
     1
102
RTVSPropertyOp13
 70
     1
102
RTVSPropertyOp14
 70
     1
102
RTVSPropertyOp15
 70
     1
102
RTVSPropertyOp16
 70
     1
102
RTVSPropertyOp17
 70
     1
102
RTVSPropertyOp18
 70
     1
102
RTVSPropertyOp19
 70
     1
102
RTVSPropertyOp20
 70
     1
102
RTVSPropertyOp21
 70
     1
102
RTVSPropertyOp22
 70
     1
102
RTVSPropertyOp23
 70
     1
102
RTVSPropertyOp24
 70
     1
102
RTVSPropertyOp25
 70
     1
102
RTVSPropertyOp26
 70
     1
102
RTVSPropertyOp27
 70
     1
102
RTVSPropertyOp28
 70
     1
102
RTVSPropertyOp29
 70
     1
102
RTVSPropertyOp30
 70
     1
102
RTVSPropertyOp31
 70
     1
102
RTVSPropertyOp32
 70
     1
102
RTVSPropertyOp33
 70
     1
102
RTVSPropertyOp34
 70
     1
102
RTVSPropertyOp35
 70
     1
102
RTVSPropertyOp36
 70
     1
102
RTVSPropertyOp37
 70
     1
102
RTVSPropertyOp38
 70
     1
102
RTVSPropertyOp39
 70
     1
102
RTVSPropertyOp40
 70
     1
102
RTVSPropertyOp41
 70
     1
102
RTVSPropertyOp42
 70
     1
102
RTVSPropertyOp43
 70
     1
102
RTVSPropertyOp44
 70
     1
102
RTVSPropertyOp45
 70
     1
102
RTVSPropertyOp46
 70
     1
102
RTVSPropertyOp47
 70
     1
102
RTVSPropertyOp48
 70
     1
102
RTVSPropertyOp49
 70
     1
102
RTVSPropertyOp50
 70
     1
102
RTVSPropertyOp51
 70
     0
102
RTVSPropertyOp52
 70
     0
102
RTVSPropertyOp53
 70
     1
102
RTVSPropertyOp54
 70
     1
102
RTVSPropertyOp55
 70
     1
102
RTVSPropertyOp56
 70
     1
102
RTVSPropertyOp57
 70
     1
102
RTVSPropertyOp58
 70
     1
102
RTVSPropertyOp59
 70
     1
102
RTVSPropertyOp60
 70
     1
102
RTVSPropertyOp61
 70
     1
102
RTVSPropertyOp62
 70
     1
  0
XRECORD
  5
ADD55
102
{ACAD_REACTORS
330
ADD54
102
}
330
ADD54
100
AcDbXrecord
280
     1
102
RTVSPost2010Prop28
280
     0
102
RTVSPost2010PropOp28
 70
     1
102
RTVSPost2010Prop29
280
     1
102
RTVSPost2010PropOp29
 70
     1
102
RTVSPost2010Prop30
280
     1
102
RTVSPost2010PropOp30
 70
     1
102
RTVSPost2010Prop31
280
     0
102
RTVSPost2010PropOp31
 70
     1
102
RTVSPost2010Prop32
280
     0
102
RTVSPost2010PropOp32
 70
     1
102
RTVSPost2010Prop33
280
     0
102
RTVSPost2010PropOp33
 70
     1
102
RTVSPost2010Prop34
280
     0
102
RTVSPost2010PropOp34
 70
     1
102
RTVSPost2010Prop35
280
     0
102
RTVSPost2010PropOp35
 70
     1
102
RTVSPost2010Prop36
280
     0
102
RTVSPost2010PropOp36
 70
     1
102
RTVSPost2010Prop37
 90
       50
102
RTVSPost2010PropOp37
 70
     1
102
RTVSPost2010Prop38
140
0.0
102
RTVSPost2010PropOp38
 70
     1
102
RTVSPost2010Prop39
140
1.0
102
RTVSPost2010PropOp39
 70
     1
102
RTVSPost2010Prop40
 90
        0
102
RTVSPost2010PropOp40
 70
     1
102
RTVSPost2010Prop41ColorIndex
 90
       18
102
RTVSPost2010Prop41ColorRGB
 90
        0
102
RTVSPost2010PropOp41
 70
     1
102
RTVSPost2010Prop42
 90
       50
102
RTVSPost2010PropOp42
 70
     1
102
RTVSPost2010Prop43
 90
        3
102
RTVSPost2010PropOp43
 70
     1
102
RTVSPost2010Prop44ColorIndex
 90
        5
102
RTVSPost2010Prop44ColorRGB
 90
      255
102
RTVSPost2010PropOp44
 70
     1
102
RTVSPost2010Prop45
280
     0
102
RTVSPost2010PropOp45
 70
     1
102
RTVSPost2010Prop46
 90
       50
102
RTVSPost2010PropOp46
 70
     1
102
RTVSPost2010Prop47
 90
       50
102
RTVSPost2010PropOp47
 70
     1
102
RTVSPost2010Prop48
 90
       50
102
RTVSPost2010PropOp48
 70
     1
102
RTVSPost2010Prop49
280
     0
102
RTVSPost2010PropOp49
 70
     1
102
RTVSPost2010Prop50
 90
       50
102
RTVSPost2010PropOp50
 70
     1
102
RTVSPost2010Prop51ColorIndex
 90
      256
102
RTVSPost2010Prop51ColorRGB
 90
-16777216
102
RTVSPost2010PropOp51
 70
     0
102
RTVSPost2010Prop52
140
1.0
102
RTVSPost2010PropOp52
 70
     0
102
RTVSPost2010Prop53
 90
        2
102
RTVSPost2010PropOp53
 70
     1
102
RTVSPost2010Prop54
  1
strokes_ogs.tif
102
RTVSPost2010PropOp54
 70
     1
102
RTVSPost2010Prop55
280
     0
102
RTVSPost2010PropOp55
 70
     1
102
RTVSPost2010Prop56
140
1.0
102
RTVSPost2010PropOp56
 70
     1
102
RTVSPost2010Prop57
140
1.0
102
RTVSPost2010PropOp57
 70
     1
102
RTVSPropertyOp0
 70
     1
102
RTVSPropertyOp1
 70
     1
102
RTVSPropertyOp2
 70
     1
102
RTVSPropertyOp3
 70
     1
102
RTVSPropertyOp4
 70
     1
102
RTVSPropertyOp5
 70
     1
102
RTVSPropertyOp6
 70
     1
102
RTVSPropertyOp7
 70
     1
102
RTVSPropertyOp8
 70
     1
102
RTVSPropertyOp9
 70
     1
102
RTVSPropertyOp10
 70
     1
102
RTVSPropertyOp11
 70
     1
102
RTVSPropertyOp12
 70
     1
102
RTVSPropertyOp13
 70
     1
102
RTVSPropertyOp14
 70
     1
102
RTVSPropertyOp15
 70
     1
102
RTVSPropertyOp16
 70
     1
102
RTVSPropertyOp17
 70
     1
102
RTVSPropertyOp18
 70
     1
102
RTVSPropertyOp19
 70
     1
102
RTVSPropertyOp20
 70
     1
102
RTVSPropertyOp21
 70
     1
102
RTVSPropertyOp22
 70
     1
102
RTVSPropertyOp23
 70
     1
102
RTVSPropertyOp24
 70
     1
102
RTVSPropertyOp25
 70
     1
102
RTVSPropertyOp26
 70
     1
102
RTVSPropertyOp27
 70
     1
102
RTVSPropertyOp28
 70
     1
102
RTVSPropertyOp29
 70
     1
102
RTVSPropertyOp30
 70
     1
102
RTVSPropertyOp31
 70
     1
102
RTVSPropertyOp32
 70
     1
102
RTVSPropertyOp33
 70
     1
102
RTVSPropertyOp34
 70
     1
102
RTVSPropertyOp35
 70
     1
102
RTVSPropertyOp36
 70
     1
102
RTVSPropertyOp37
 70
     1
102
RTVSPropertyOp38
 70
     1
102
RTVSPropertyOp39
 70
     1
102
RTVSPropertyOp40
 70
     1
102
RTVSPropertyOp41
 70
     1
102
RTVSPropertyOp42
 70
     1
102
RTVSPropertyOp43
 70
     1
102
RTVSPropertyOp44
 70
     1
102
RTVSPropertyOp45
 70
     1
102
RTVSPropertyOp46
 70
     1
102
RTVSPropertyOp47
 70
     1
102
RTVSPropertyOp48
 70
     1
102
RTVSPropertyOp49
 70
     1
102
RTVSPropertyOp50
 70
     1
102
RTVSPropertyOp51
 70
     0
102
RTVSPropertyOp52
 70
     0
102
RTVSPropertyOp53
 70
     1
102
RTVSPropertyOp54
 70
     1
102
RTVSPropertyOp55
 70
     1
102
RTVSPropertyOp56
 70
     1
102
RTVSPropertyOp57
 70
     1
102
RTVSPropertyOp58
 70
     1
102
RTVSPropertyOp59
 70
     1
102
RTVSPropertyOp60
 70
     1
102
RTVSPropertyOp61
 70
     1
102
RTVSPropertyOp62
 70
     1
  0
XRECORD
  5
ADD4F
102
{ACAD_REACTORS
330
ADD4E
102
}
330
ADD4E
100
AcDbXrecord
280
     1
102
RTVSPost2010Prop28
280
     0
102
RTVSPost2010PropOp28
 70
     1
102
RTVSPost2010Prop29
280
     1
102
RTVSPost2010PropOp29
 70
     1
102
RTVSPost2010Prop30
280
     1
102
RTVSPost2010PropOp30
 70
     1
102
RTVSPost2010Prop31
280
     0
102
RTVSPost2010PropOp31
 70
     1
102
RTVSPost2010Prop32
280
     0
102
RTVSPost2010PropOp32
 70
     1
102
RTVSPost2010Prop33
280
     0
102
RTVSPost2010PropOp33
 70
     1
102
RTVSPost2010Prop34
280
     0
102
RTVSPost2010PropOp34
 70
     1
102
RTVSPost2010Prop35
280
     0
102
RTVSPost2010PropOp35
 70
     1
102
RTVSPost2010Prop36
280
     0
102
RTVSPost2010PropOp36
 70
     1
102
RTVSPost2010Prop37
 90
       50
102
RTVSPost2010PropOp37
 70
     1
102
RTVSPost2010Prop38
140
0.0
102
RTVSPost2010PropOp38
 70
     1
102
RTVSPost2010Prop39
140
1.0
102
RTVSPost2010PropOp39
 70
     1
102
RTVSPost2010Prop40
 90
        0
102
RTVSPost2010PropOp40
 70
     1
102
RTVSPost2010Prop41ColorIndex
 90
       18
102
RTVSPost2010Prop41ColorRGB
 90
        0
102
RTVSPost2010PropOp41
 70
     1
102
RTVSPost2010Prop42
 90
       50
102
RTVSPost2010PropOp42
 70
     1
102
RTVSPost2010Prop43
 90
        3
102
RTVSPost2010PropOp43
 70
     1
102
RTVSPost2010Prop44ColorIndex
 90
        5
102
RTVSPost2010Prop44ColorRGB
 90
      255
102
RTVSPost2010PropOp44
 70
     1
102
RTVSPost2010Prop45
280
     0
102
RTVSPost2010PropOp45
 70
     1
102
RTVSPost2010Prop46
 90
       50
102
RTVSPost2010PropOp46
 70
     1
102
RTVSPost2010Prop47
 90
       50
102
RTVSPost2010PropOp47
 70
     1
102
RTVSPost2010Prop48
 90
       50
102
RTVSPost2010PropOp48
 70
     1
102
RTVSPost2010Prop49
280
     0
102
RTVSPost2010PropOp49
 70
     1
102
RTVSPost2010Prop50
 90
       50
102
RTVSPost2010PropOp50
 70
     1
102
RTVSPost2010Prop51ColorIndex
 90
      256
102
RTVSPost2010Prop51ColorRGB
 90
-16777216
102
RTVSPost2010PropOp51
 70
     0
102
RTVSPost2010Prop52
140
1.0
102
RTVSPost2010PropOp52
 70
     0
102
RTVSPost2010Prop53
 90
        2
102
RTVSPost2010PropOp53
 70
     1
102
RTVSPost2010Prop54
  1
strokes_ogs.tif
102
RTVSPost2010PropOp54
 70
     1
102
RTVSPost2010Prop55
280
     0
102
RTVSPost2010PropOp55
 70
     1
102
RTVSPost2010Prop56
140
1.0
102
RTVSPost2010PropOp56
 70
     1
102
RTVSPost2010Prop57
140
1.0
102
RTVSPost2010PropOp57
 70
     1
102
RTVSPropertyOp0
 70
     1
102
RTVSPropertyOp1
 70
     1
102
RTVSPropertyOp2
 70
     1
102
RTVSPropertyOp3
 70
     1
102
RTVSPropertyOp4
 70
     1
102
RTVSPropertyOp5
 70
     1
102
RTVSPropertyOp6
 70
     1
102
RTVSPropertyOp7
 70
     1
102
RTVSPropertyOp8
 70
     1
102
RTVSPropertyOp9
 70
     1
102
RTVSPropertyOp10
 70
     1
102
RTVSPropertyOp11
 70
     1
102
RTVSPropertyOp12
 70
     1
102
RTVSPropertyOp13
 70
     1
102
RTVSPropertyOp14
 70
     1
102
RTVSPropertyOp15
 70
     1
102
RTVSPropertyOp16
 70
     1
102
RTVSPropertyOp17
 70
     1
102
RTVSPropertyOp18
 70
     1
102
RTVSPropertyOp19
 70
     1
102
RTVSPropertyOp20
 70
     1
102
RTVSPropertyOp21
 70
     1
102
RTVSPropertyOp22
 70
     1
102
RTVSPropertyOp23
 70
     1
102
RTVSPropertyOp24
 70
     1
102
RTVSPropertyOp25
 70
     1
102
RTVSPropertyOp26
 70
     1
102
RTVSPropertyOp27
 70
     1
102
RTVSPropertyOp28
 70
     1
102
RTVSPropertyOp29
 70
     1
102
RTVSPropertyOp30
 70
     1
102
RTVSPropertyOp31
 70
     1
102
RTVSPropertyOp32
 70
     1
102
RTVSPropertyOp33
 70
     1
102
RTVSPropertyOp34
 70
     1
102
RTVSPropertyOp35
 70
     1
102
RTVSPropertyOp36
 70
     1
102
RTVSPropertyOp37
 70
     1
102
RTVSPropertyOp38
 70
     1
102
RTVSPropertyOp39
 70
     1
102
RTVSPropertyOp40
 70
     1
102
RTVSPropertyOp41
 70
     1
102
RTVSPropertyOp42
 70
     1
102
RTVSPropertyOp43
 70
     1
102
RTVSPropertyOp44
 70
     1
102
RTVSPropertyOp45
 70
     1
102
RTVSPropertyOp46
 70
     1
102
RTVSPropertyOp47
 70
     1
102
RTVSPropertyOp48
 70
     1
102
RTVSPropertyOp49
 70
     1
102
RTVSPropertyOp50
 70
     1
102
RTVSPropertyOp51
 70
     0
102
RTVSPropertyOp52
 70
     0
102
RTVSPropertyOp53
 70
     1
102
RTVSPropertyOp54
 70
     1
102
RTVSPropertyOp55
 70
     1
102
RTVSPropertyOp56
 70
     1
102
RTVSPropertyOp57
 70
     1
102
RTVSPropertyOp58
 70
     1
102
RTVSPropertyOp59
 70
     1
102
RTVSPropertyOp60
 70
     1
102
RTVSPropertyOp61
 70
     1
102
RTVSPropertyOp62
 70
     1
  0
XRECORD
  5
ADD51
102
{ACAD_REACTORS
330
ADD50
102
}
330
ADD50
100
AcDbXrecord
280
     1
102
RTVSPost2010Prop28
280
     0
102
RTVSPost2010PropOp28
 70
     1
102
RTVSPost2010Prop29
280
     1
102
RTVSPost2010PropOp29
 70
     1
102
RTVSPost2010Prop30
280
     1
102
RTVSPost2010PropOp30
 70
     1
102
RTVSPost2010Prop31
280
     0
102
RTVSPost2010PropOp31
 70
     1
102
RTVSPost2010Prop32
280
     0
102
RTVSPost2010PropOp32
 70
     1
102
RTVSPost2010Prop33
280
     0
102
RTVSPost2010PropOp33
 70
     1
102
RTVSPost2010Prop34
280
     0
102
RTVSPost2010PropOp34
 70
     1
102
RTVSPost2010Prop35
280
     0
102
RTVSPost2010PropOp35
 70
     1
102
RTVSPost2010Prop36
280
     0
102
RTVSPost2010PropOp36
 70
     1
102
RTVSPost2010Prop37
 90
       50
102
RTVSPost2010PropOp37
 70
     1
102
RTVSPost2010Prop38
140
0.0
102
RTVSPost2010PropOp38
 70
     1
102
RTVSPost2010Prop39
140
1.0
102
RTVSPost2010PropOp39
 70
     1
102
RTVSPost2010Prop40
 90
        0
102
RTVSPost2010PropOp40
 70
     1
102
RTVSPost2010Prop41ColorIndex
 90
       18
102
RTVSPost2010Prop41ColorRGB
 90
        0
102
RTVSPost2010PropOp41
 70
     1
102
RTVSPost2010Prop42
 90
       50
102
RTVSPost2010PropOp42
 70
     1
102
RTVSPost2010Prop43
 90
        3
102
RTVSPost2010PropOp43
 70
     1
102
RTVSPost2010Prop44ColorIndex
 90
        5
102
RTVSPost2010Prop44ColorRGB
 90
      255
102
RTVSPost2010PropOp44
 70
     1
102
RTVSPost2010Prop45
280
     0
102
RTVSPost2010PropOp45
 70
     1
102
RTVSPost2010Prop46
 90
       50
102
RTVSPost2010PropOp46
 70
     1
102
RTVSPost2010Prop47
 90
       50
102
RTVSPost2010PropOp47
 70
     1
102
RTVSPost2010Prop48
 90
       50
102
RTVSPost2010PropOp48
 70
     1
102
RTVSPost2010Prop49
280
     0
102
RTVSPost2010PropOp49
 70
     1
102
RTVSPost2010Prop50
 90
       50
102
RTVSPost2010PropOp50
 70
     1
102
RTVSPost2010Prop51ColorIndex
 90
      256
102
RTVSPost2010Prop51ColorRGB
 90
-16777216
102
RTVSPost2010PropOp51
 70
     0
102
RTVSPost2010Prop52
140
1.0
102
RTVSPost2010PropOp52
 70
     0
102
RTVSPost2010Prop53
 90
        2
102
RTVSPost2010PropOp53
 70
     1
102
RTVSPost2010Prop54
  1
strokes_ogs.tif
102
RTVSPost2010PropOp54
 70
     1
102
RTVSPost2010Prop55
280
     0
102
RTVSPost2010PropOp55
 70
     1
102
RTVSPost2010Prop56
140
1.0
102
RTVSPost2010PropOp56
 70
     1
102
RTVSPost2010Prop57
140
1.0
102
RTVSPost2010PropOp57
 70
     1
102
RTVSPropertyOp0
 70
     1
102
RTVSPropertyOp1
 70
     1
102
RTVSPropertyOp2
 70
     1
102
RTVSPropertyOp3
 70
     1
102
RTVSPropertyOp4
 70
     1
102
RTVSPropertyOp5
 70
     1
102
RTVSPropertyOp6
 70
     1
102
RTVSPropertyOp7
 70
     1
102
RTVSPropertyOp8
 70
     1
102
RTVSPropertyOp9
 70
     1
102
RTVSPropertyOp10
 70
     1
102
RTVSPropertyOp11
 70
     1
102
RTVSPropertyOp12
 70
     1
102
RTVSPropertyOp13
 70
     1
102
RTVSPropertyOp14
 70
     1
102
RTVSPropertyOp15
 70
     1
102
RTVSPropertyOp16
 70
     1
102
RTVSPropertyOp17
 70
     1
102
RTVSPropertyOp18
 70
     1
102
RTVSPropertyOp19
 70
     1
102
RTVSPropertyOp20
 70
     1
102
RTVSPropertyOp21
 70
     1
102
RTVSPropertyOp22
 70
     1
102
RTVSPropertyOp23
 70
     1
102
RTVSPropertyOp24
 70
     1
102
RTVSPropertyOp25
 70
     1
102
RTVSPropertyOp26
 70
     1
102
RTVSPropertyOp27
 70
     1
102
RTVSPropertyOp28
 70
     1
102
RTVSPropertyOp29
 70
     1
102
RTVSPropertyOp30
 70
     1
102
RTVSPropertyOp31
 70
     1
102
RTVSPropertyOp32
 70
     1
102
RTVSPropertyOp33
 70
     1
102
RTVSPropertyOp34
 70
     1
102
RTVSPropertyOp35
 70
     1
102
RTVSPropertyOp36
 70
     1
102
RTVSPropertyOp37
 70
     1
102
RTVSPropertyOp38
 70
     1
102
RTVSPropertyOp39
 70
     1
102
RTVSPropertyOp40
 70
     1
102
RTVSPropertyOp41
 70
     1
102
RTVSPropertyOp42
 70
     1
102
RTVSPropertyOp43
 70
     1
102
RTVSPropertyOp44
 70
     1
102
RTVSPropertyOp45
 70
     1
102
RTVSPropertyOp46
 70
     1
102
RTVSPropertyOp47
 70
     1
102
RTVSPropertyOp48
 70
     1
102
RTVSPropertyOp49
 70
     1
102
RTVSPropertyOp50
 70
     1
102
RTVSPropertyOp51
 70
     0
102
RTVSPropertyOp52
 70
     0
102
RTVSPropertyOp53
 70
     1
102
RTVSPropertyOp54
 70
     1
102
RTVSPropertyOp55
 70
     1
102
RTVSPropertyOp56
 70
     1
102
RTVSPropertyOp57
 70
     1
102
RTVSPropertyOp58
 70
     1
102
RTVSPropertyOp59
 70
     1
102
RTVSPropertyOp60
 70
     1
102
RTVSPropertyOp61
 70
     1
102
RTVSPropertyOp62
 70
     1
  0
XRECORD
  5
ADD43
102
{ACAD_REACTORS
330
ADD42
102
}
330
ADD42
100
AcDbXrecord
280
     1
102
RTVSPost2010Prop28
280
     0
102
RTVSPost2010PropOp28
 70
     1
102
RTVSPost2010Prop29
280
     1
102
RTVSPost2010PropOp29
 70
     1
102
RTVSPost2010Prop30
280
     1
102
RTVSPost2010PropOp30
 70
     1
102
RTVSPost2010Prop31
280
     0
102
RTVSPost2010PropOp31
 70
     1
102
RTVSPost2010Prop32
280
     0
102
RTVSPost2010PropOp32
 70
     1
102
RTVSPost2010Prop33
280
     0
102
RTVSPost2010PropOp33
 70
     1
102
RTVSPost2010Prop34
280
     0
102
RTVSPost2010PropOp34
 70
     1
102
RTVSPost2010Prop35
280
     0
102
RTVSPost2010PropOp35
 70
     1
102
RTVSPost2010Prop36
280
     0
102
RTVSPost2010PropOp36
 70
     1
102
RTVSPost2010Prop37
 90
       50
102
RTVSPost2010PropOp37
 70
     1
102
RTVSPost2010Prop38
140
0.0
102
RTVSPost2010PropOp38
 70
     1
102
RTVSPost2010Prop39
140
1.0
102
RTVSPost2010PropOp39
 70
     1
102
RTVSPost2010Prop40
 90
        0
102
RTVSPost2010PropOp40
 70
     1
102
RTVSPost2010Prop41ColorIndex
 90
       18
102
RTVSPost2010Prop41ColorRGB
 90
        0
102
RTVSPost2010PropOp41
 70
     1
102
RTVSPost2010Prop42
 90
       50
102
RTVSPost2010PropOp42
 70
     1
102
RTVSPost2010Prop43
 90
        3
102
RTVSPost2010PropOp43
 70
     1
102
RTVSPost2010Prop44ColorIndex
 90
        5
102
RTVSPost2010Prop44ColorRGB
 90
      255
102
RTVSPost2010PropOp44
 70
     1
102
RTVSPost2010Prop45
280
     0
102
RTVSPost2010PropOp45
 70
     1
102
RTVSPost2010Prop46
 90
       50
102
RTVSPost2010PropOp46
 70
     1
102
RTVSPost2010Prop47
 90
       50
102
RTVSPost2010PropOp47
 70
     1
102
RTVSPost2010Prop48
 90
       50
102
RTVSPost2010PropOp48
 70
     1
102
RTVSPost2010Prop49
280
     0
102
RTVSPost2010PropOp49
 70
     1
102
RTVSPost2010Prop50
 90
       50
102
RTVSPost2010PropOp50
 70
     1
102
RTVSPost2010Prop51ColorIndex
 90
      256
102
RTVSPost2010Prop51ColorRGB
 90
-16777216
102
RTVSPost2010PropOp51
 70
     0
102
RTVSPost2010Prop52
140
1.0
102
RTVSPost2010PropOp52
 70
     0
102
RTVSPost2010Prop53
 90
        2
102
RTVSPost2010PropOp53
 70
     1
102
RTVSPost2010Prop54
  1
strokes_ogs.tif
102
RTVSPost2010PropOp54
 70
     1
102
RTVSPost2010Prop55
280
     0
102
RTVSPost2010PropOp55
 70
     1
102
RTVSPost2010Prop56
140
1.0
102
RTVSPost2010PropOp56
 70
     1
102
RTVSPost2010Prop57
140
1.0
102
RTVSPost2010PropOp57
 70
     1
102
RTVSPropertyOp0
 70
     1
102
RTVSPropertyOp1
 70
     1
102
RTVSPropertyOp2
 70
     1
102
RTVSPropertyOp3
 70
     1
102
RTVSPropertyOp4
 70
     1
102
RTVSPropertyOp5
 70
     1
102
RTVSPropertyOp6
 70
     1
102
RTVSPropertyOp7
 70
     1
102
RTVSPropertyOp8
 70
     1
102
RTVSPropertyOp9
 70
     1
102
RTVSPropertyOp10
 70
     1
102
RTVSPropertyOp11
 70
     1
102
RTVSPropertyOp12
 70
     1
102
RTVSPropertyOp13
 70
     1
102
RTVSPropertyOp14
 70
     1
102
RTVSPropertyOp15
 70
     1
102
RTVSPropertyOp16
 70
     1
102
RTVSPropertyOp17
 70
     1
102
RTVSPropertyOp18
 70
     1
102
RTVSPropertyOp19
 70
     1
102
RTVSPropertyOp20
 70
     1
102
RTVSPropertyOp21
 70
     1
102
RTVSPropertyOp22
 70
     1
102
RTVSPropertyOp23
 70
     1
102
RTVSPropertyOp24
 70
     1
102
RTVSPropertyOp25
 70
     1
102
RTVSPropertyOp26
 70
     1
102
RTVSPropertyOp27
 70
     1
102
RTVSPropertyOp28
 70
     1
102
RTVSPropertyOp29
 70
     1
102
RTVSPropertyOp30
 70
     1
102
RTVSPropertyOp31
 70
     1
102
RTVSPropertyOp32
 70
     1
102
RTVSPropertyOp33
 70
     1
102
RTVSPropertyOp34
 70
     1
102
RTVSPropertyOp35
 70
     1
102
RTVSPropertyOp36
 70
     1
102
RTVSPropertyOp37
 70
     1
102
RTVSPropertyOp38
 70
     1
102
RTVSPropertyOp39
 70
     1
102
RTVSPropertyOp40
 70
     1
102
RTVSPropertyOp41
 70
     1
102
RTVSPropertyOp42
 70
     1
102
RTVSPropertyOp43
 70
     1
102
RTVSPropertyOp44
 70
     1
102
RTVSPropertyOp45
 70
     1
102
RTVSPropertyOp46
 70
     1
102
RTVSPropertyOp47
 70
     1
102
RTVSPropertyOp48
 70
     1
102
RTVSPropertyOp49
 70
     1
102
RTVSPropertyOp50
 70
     1
102
RTVSPropertyOp51
 70
     0
102
RTVSPropertyOp52
 70
     0
102
RTVSPropertyOp53
 70
     1
102
RTVSPropertyOp54
 70
     1
102
RTVSPropertyOp55
 70
     1
102
RTVSPropertyOp56
 70
     1
102
RTVSPropertyOp57
 70
     1
102
RTVSPropertyOp58
 70
     1
102
RTVSPropertyOp59
 70
     1
102
RTVSPropertyOp60
 70
     1
102
RTVSPropertyOp61
 70
     1
102
RTVSPropertyOp62
 70
     1
  0
XRECORD
  5
ADD4B
102
{ACAD_REACTORS
330
ADD4A
102
}
330
ADD4A
100
AcDbXrecord
280
     1
102
RTVSPost2010Prop28
280
     0
102
RTVSPost2010PropOp28
 70
     1
102
RTVSPost2010Prop29
280
     1
102
RTVSPost2010PropOp29
 70
     1
102
RTVSPost2010Prop30
280
     1
102
RTVSPost2010PropOp30
 70
     1
102
RTVSPost2010Prop31
280
     0
102
RTVSPost2010PropOp31
 70
     1
102
RTVSPost2010Prop32
280
     0
102
RTVSPost2010PropOp32
 70
     1
102
RTVSPost2010Prop33
280
     0
102
RTVSPost2010PropOp33
 70
     1
102
RTVSPost2010Prop34
280
     0
102
RTVSPost2010PropOp34
 70
     1
102
RTVSPost2010Prop35
280
     0
102
RTVSPost2010PropOp35
 70
     1
102
RTVSPost2010Prop36
280
     0
102
RTVSPost2010PropOp36
 70
     1
102
RTVSPost2010Prop37
 90
       50
102
RTVSPost2010PropOp37
 70
     1
102
RTVSPost2010Prop38
140
0.0
102
RTVSPost2010PropOp38
 70
     1
102
RTVSPost2010Prop39
140
1.0
102
RTVSPost2010PropOp39
 70
     1
102
RTVSPost2010Prop40
 90
        0
102
RTVSPost2010PropOp40
 70
     1
102
RTVSPost2010Prop41ColorIndex
 90
       18
102
RTVSPost2010Prop41ColorRGB
 90
        0
102
RTVSPost2010PropOp41
 70
     1
102
RTVSPost2010Prop42
 90
       50
102
RTVSPost2010PropOp42
 70
     1
102
RTVSPost2010Prop43
 90
        3
102
RTVSPost2010PropOp43
 70
     1
102
RTVSPost2010Prop44ColorIndex
 90
        5
102
RTVSPost2010Prop44ColorRGB
 90
      255
102
RTVSPost2010PropOp44
 70
     1
102
RTVSPost2010Prop45
280
     0
102
RTVSPost2010PropOp45
 70
     1
102
RTVSPost2010Prop46
 90
       50
102
RTVSPost2010PropOp46
 70
     1
102
RTVSPost2010Prop47
 90
       50
102
RTVSPost2010PropOp47
 70
     1
102
RTVSPost2010Prop48
 90
       50
102
RTVSPost2010PropOp48
 70
     1
102
RTVSPost2010Prop49
280
     0
102
RTVSPost2010PropOp49
 70
     1
102
RTVSPost2010Prop50
 90
       50
102
RTVSPost2010PropOp50
 70
     1
102
RTVSPost2010Prop51ColorIndex
 90
      256
102
RTVSPost2010Prop51ColorRGB
 90
-16777216
102
RTVSPost2010PropOp51
 70
     0
102
RTVSPost2010Prop52
140
1.0
102
RTVSPost2010PropOp52
 70
     0
102
RTVSPost2010Prop53
 90
        2
102
RTVSPost2010PropOp53
 70
     1
102
RTVSPost2010Prop54
  1
strokes_ogs.tif
102
RTVSPost2010PropOp54
 70
     1
102
RTVSPost2010Prop55
280
     0
102
RTVSPost2010PropOp55
 70
     1
102
RTVSPost2010Prop56
140
1.0
102
RTVSPost2010PropOp56
 70
     1
102
RTVSPost2010Prop57
140
1.0
102
RTVSPost2010PropOp57
 70
     1
102
RTVSPropertyOp0
 70
     1
102
RTVSPropertyOp1
 70
     1
102
RTVSPropertyOp2
 70
     1
102
RTVSPropertyOp3
 70
     1
102
RTVSPropertyOp4
 70
     1
102
RTVSPropertyOp5
 70
     1
102
RTVSPropertyOp6
 70
     1
102
RTVSPropertyOp7
 70
     1
102
RTVSPropertyOp8
 70
     1
102
RTVSPropertyOp9
 70
     1
102
RTVSPropertyOp10
 70
     1
102
RTVSPropertyOp11
 70
     1
102
RTVSPropertyOp12
 70
     1
102
RTVSPropertyOp13
 70
     1
102
RTVSPropertyOp14
 70
     1
102
RTVSPropertyOp15
 70
     1
102
RTVSPropertyOp16
 70
     1
102
RTVSPropertyOp17
 70
     1
102
RTVSPropertyOp18
 70
     1
102
RTVSPropertyOp19
 70
     1
102
RTVSPropertyOp20
 70
     1
102
RTVSPropertyOp21
 70
     1
102
RTVSPropertyOp22
 70
     1
102
RTVSPropertyOp23
 70
     1
102
RTVSPropertyOp24
 70
     1
102
RTVSPropertyOp25
 70
     1
102
RTVSPropertyOp26
 70
     1
102
RTVSPropertyOp27
 70
     1
102
RTVSPropertyOp28
 70
     1
102
RTVSPropertyOp29
 70
     1
102
RTVSPropertyOp30
 70
     1
102
RTVSPropertyOp31
 70
     1
102
RTVSPropertyOp32
 70
     1
102
RTVSPropertyOp33
 70
     1
102
RTVSPropertyOp34
 70
     1
102
RTVSPropertyOp35
 70
     1
102
RTVSPropertyOp36
 70
     1
102
RTVSPropertyOp37
 70
     1
102
RTVSPropertyOp38
 70
     1
102
RTVSPropertyOp39
 70
     1
102
RTVSPropertyOp40
 70
     1
102
RTVSPropertyOp41
 70
     1
102
RTVSPropertyOp42
 70
     1
102
RTVSPropertyOp43
 70
     1
102
RTVSPropertyOp44
 70
     1
102
RTVSPropertyOp45
 70
     1
102
RTVSPropertyOp46
 70
     1
102
RTVSPropertyOp47
 70
     1
102
RTVSPropertyOp48
 70
     1
102
RTVSPropertyOp49
 70
     1
102
RTVSPropertyOp50
 70
     1
102
RTVSPropertyOp51
 70
     0
102
RTVSPropertyOp52
 70
     0
102
RTVSPropertyOp53
 70
     1
102
RTVSPropertyOp54
 70
     1
102
RTVSPropertyOp55
 70
     1
102
RTVSPropertyOp56
 70
     1
102
RTVSPropertyOp57
 70
     1
102
RTVSPropertyOp58
 70
     1
102
RTVSPropertyOp59
 70
     1
102
RTVSPropertyOp60
 70
     1
102
RTVSPropertyOp61
 70
     1
102
RTVSPropertyOp62
 70
     1
  0
XRECORD
  5
ADD53
102
{ACAD_REACTORS
330
ADD52
102
}
330
ADD52
100
AcDbXrecord
280
     1
102
RTVSPost2010Prop28
280
     0
102
RTVSPost2010PropOp28
 70
     1
102
RTVSPost2010Prop29
280
     1
102
RTVSPost2010PropOp29
 70
     1
102
RTVSPost2010Prop30
280
     1
102
RTVSPost2010PropOp30
 70
     1
102
RTVSPost2010Prop31
280
     0
102
RTVSPost2010PropOp31
 70
     1
102
RTVSPost2010Prop32
280
     0
102
RTVSPost2010PropOp32
 70
     1
102
RTVSPost2010Prop33
280
     0
102
RTVSPost2010PropOp33
 70
     1
102
RTVSPost2010Prop34
280
     0
102
RTVSPost2010PropOp34
 70
     1
102
RTVSPost2010Prop35
280
     0
102
RTVSPost2010PropOp35
 70
     1
102
RTVSPost2010Prop36
280
     0
102
RTVSPost2010PropOp36
 70
     1
102
RTVSPost2010Prop37
 90
       50
102
RTVSPost2010PropOp37
 70
     1
102
RTVSPost2010Prop38
140
0.0
102
RTVSPost2010PropOp38
 70
     1
102
RTVSPost2010Prop39
140
1.0
102
RTVSPost2010PropOp39
 70
     1
102
RTVSPost2010Prop40
 90
        0
102
RTVSPost2010PropOp40
 70
     1
102
RTVSPost2010Prop41ColorIndex
 90
       18
102
RTVSPost2010Prop41ColorRGB
 90
        0
102
RTVSPost2010PropOp41
 70
     1
102
RTVSPost2010Prop42
 90
       50
102
RTVSPost2010PropOp42
 70
     1
102
RTVSPost2010Prop43
 90
        3
102
RTVSPost2010PropOp43
 70
     1
102
RTVSPost2010Prop44ColorIndex
 90
        5
102
RTVSPost2010Prop44ColorRGB
 90
      255
102
RTVSPost2010PropOp44
 70
     1
102
RTVSPost2010Prop45
280
     0
102
RTVSPost2010PropOp45
 70
     1
102
RTVSPost2010Prop46
 90
       50
102
RTVSPost2010PropOp46
 70
     1
102
RTVSPost2010Prop47
 90
       50
102
RTVSPost2010PropOp47
 70
     1
102
RTVSPost2010Prop48
 90
       50
102
RTVSPost2010PropOp48
 70
     1
102
RTVSPost2010Prop49
280
     0
102
RTVSPost2010PropOp49
 70
     1
102
RTVSPost2010Prop50
 90
       50
102
RTVSPost2010PropOp50
 70
     1
102
RTVSPost2010Prop51ColorIndex
 90
      256
102
RTVSPost2010Prop51ColorRGB
 90
-16777216
102
RTVSPost2010PropOp51
 70
     0
102
RTVSPost2010Prop52
140
1.0
102
RTVSPost2010PropOp52
 70
     0
102
RTVSPost2010Prop53
 90
        2
102
RTVSPost2010PropOp53
 70
     1
102
RTVSPost2010Prop54
  1
strokes_ogs.tif
102
RTVSPost2010PropOp54
 70
     1
102
RTVSPost2010Prop55
280
     0
102
RTVSPost2010PropOp55
 70
     1
102
RTVSPost2010Prop56
140
1.0
102
RTVSPost2010PropOp56
 70
     1
102
RTVSPost2010Prop57
140
1.0
102
RTVSPost2010PropOp57
 70
     1
102
RTVSPropertyOp0
 70
     1
102
RTVSPropertyOp1
 70
     1
102
RTVSPropertyOp2
 70
     1
102
RTVSPropertyOp3
 70
     1
102
RTVSPropertyOp4
 70
     1
102
RTVSPropertyOp5
 70
     1
102
RTVSPropertyOp6
 70
     1
102
RTVSPropertyOp7
 70
     1
102
RTVSPropertyOp8
 70
     1
102
RTVSPropertyOp9
 70
     1
102
RTVSPropertyOp10
 70
     1
102
RTVSPropertyOp11
 70
     1
102
RTVSPropertyOp12
 70
     1
102
RTVSPropertyOp13
 70
     1
102
RTVSPropertyOp14
 70
     1
102
RTVSPropertyOp15
 70
     1
102
RTVSPropertyOp16
 70
     1
102
RTVSPropertyOp17
 70
     1
102
RTVSPropertyOp18
 70
     1
102
RTVSPropertyOp19
 70
     1
102
RTVSPropertyOp20
 70
     1
102
RTVSPropertyOp21
 70
     1
102
RTVSPropertyOp22
 70
     1
102
RTVSPropertyOp23
 70
     1
102
RTVSPropertyOp24
 70
     1
102
RTVSPropertyOp25
 70
     1
102
RTVSPropertyOp26
 70
     1
102
RTVSPropertyOp27
 70
     1
102
RTVSPropertyOp28
 70
     1
102
RTVSPropertyOp29
 70
     1
102
RTVSPropertyOp30
 70
     1
102
RTVSPropertyOp31
 70
     1
102
RTVSPropertyOp32
 70
     1
102
RTVSPropertyOp33
 70
     1
102
RTVSPropertyOp34
 70
     1
102
RTVSPropertyOp35
 70
     1
102
RTVSPropertyOp36
 70
     1
102
RTVSPropertyOp37
 70
     1
102
RTVSPropertyOp38
 70
     1
102
RTVSPropertyOp39
 70
     1
102
RTVSPropertyOp40
 70
     1
102
RTVSPropertyOp41
 70
     1
102
RTVSPropertyOp42
 70
     1
102
RTVSPropertyOp43
 70
     1
102
RTVSPropertyOp44
 70
     1
102
RTVSPropertyOp45
 70
     1
102
RTVSPropertyOp46
 70
     1
102
RTVSPropertyOp47
 70
     1
102
RTVSPropertyOp48
 70
     1
102
RTVSPropertyOp49
 70
     1
102
RTVSPropertyOp50
 70
     1
102
RTVSPropertyOp51
 70
     0
102
RTVSPropertyOp52
 70
     0
102
RTVSPropertyOp53
 70
     1
102
RTVSPropertyOp54
 70
     1
102
RTVSPropertyOp55
 70
     1
102
RTVSPropertyOp56
 70
     1
102
RTVSPropertyOp57
 70
     1
102
RTVSPropertyOp58
 70
     1
102
RTVSPropertyOp59
 70
     1
102
RTVSPropertyOp60
 70
     1
102
RTVSPropertyOp61
 70
     1
102
RTVSPropertyOp62
 70
     1
  0
ENDSEC
  0
EOF
