  0
SECTION
  2
HEADER
  9
$ACADVER
  1
AC1015
  9
$ACADMAINTVER
 70
    20
  9
$DWGCODEPAGE
  3
ANSI_932
  9
$INSBASE
 10
0.0
 20
0.0
 30
0.0
  9
$EXTMIN
 10
-0.060934552827348
 20
-0.0566687079535768
 30
-0.0000000000000053
  9
$EXTMAX
 10
297.0367000529082
 20
210.037315352226
 30
0.0000000000000099
  9
$LIMMIN
 10
1700.85588156276
 20
1647.985052086429
  9
$LIMMAX
 10
1997.85588156276
 20
1857.985052086429
  9
$ORTHOMODE
 70
     0
  9
$REGENMODE
 70
     1
  9
$FILLMODE
 70
     1
  9
$QTEXTMODE
 70
     0
  9
$MIRRTEXT
 70
     0
  9
$LTSCALE
 40
1.0
  9
$ATTMODE
 70
     1
  9
$TEXTSIZE
 40
3.2
  9
$TRACEWID
 40
1.0
  9
$TEXTSTYLE
  7
STANDARD
  9
$CLAYER
  8
3
  9
$CELTYPE
  6
ByLayer
  9
$CECOLOR
 62
   256
  9
$CELTSCALE
 40
1.0
  9
$DISPSILH
 70
     0
  9
$DIMSCALE
 40
1.0
  9
$DIMASZ
 40
1.0
  9
$DIMEXO
 40
1.0
  9
$DIMDLI
 40
10.0
  9
$DIMRND
 40
0.0
  9
$DIMDLE
 40
0.0
  9
$DIMEXE
 40
1.0
  9
$DIMTP
 40
0.1
  9
$DIMTM
 40
0.1
  9
$DIMTXT
 40
3.5
  9
$DIMCEN
 40
0.0
  9
$DIMTSZ
 40
0.0
  9
$DIMTOL
 70
     0
  9
$DIMLIM
 70
     0
  9
$DIMTIH
 70
     0
  9
$DIMTOH
 70
     0
  9
$DIMSE1
 70
     0
  9
$DIMSE2
 70
     0
  9
$DIMTAD
 70
     1
  9
$DIMZIN
 70
     8
  9
$DIMBLK
  1

  9
$DIMASO
 70
     1
  9
$DIMSHO
 70
     1
  9
$DIMPOST
  1

  9
$DIMAPOST
  1
"
  9
$DIMALT
 70
     0
  9
$DIMALTD
 70
     2
  9
$DIMALTF
 40
0.0393701
  9
$DIMLFAC
 40
1.0
  9
$DIMTOFL
 70
     1
  9
$DIMTVP
 40
0.0
  9
$DIMTIX
 70
     0
  9
$DIMSOXD
 70
     0
  9
$DIMSAH
 70
     0
  9
$DIMBLK1
  1

  9
$DIMBLK2
  1

  9
$DIMSTYLE
  2
SYS
  9
$DIMCLRD
 70
   256
  9
$DIMCLRE
 70
   256
  9
$DIMCLRT
 70
     7
  9
$DIMTFAC
 40
0.71
  9
$DIMGAP
 40
1.5
  9
$DIMJUST
 70
     0
  9
$DIMSD1
 70
     0
  9
$DIMSD2
 70
     0
  9
$DIMTOLJ
 70
     0
  9
$DIMTZIN
 70
     8
  9
$DIMALTZ
 70
     0
  9
$DIMALTTZ
 70
     0
  9
$DIMUPT
 70
     0
  9
$DIMDEC
 70
     2
  9
$DIMTDEC
 70
     2
  9
$DIMALTU
 70
     2
  9
$DIMALTTD
 70
     2
  9
$DIMTXSTY
  7
STANDARD
  9
$DIMAUNIT
 70
     0
  9
$DIMADEC
 70
     0
  9
$DIMALTRND
 40
0.0
  9
$DIMAZIN
 70
     2
  9
$DIMDSEP
 70
    46
  9
$DIMATFIT
 70
     3
  9
$DIMFRAC
 70
     0
  9
$DIMLDRBLK
  1

  9
$DIMLUNIT
 70
     2
  9
$DIMLWD
 70
    -1
  9
$DIMLWE
 70
    -1
  9
$DIMTMOVE
 70
     0
  9
$LUNITS
 70
     2
  9
$LUPREC
 70
     2
  9
$SKETCHINC
 40
1.0
  9
$FILLETRAD
 40
0.0
  9
$AUNITS
 70
     0
  9
$AUPREC
 70
     0
  9
$MENU
  1
.
  9
$ELEVATION
 40
0.0
  9
$PELEVATION
 40
0.0
  9
$THICKNESS
 40
0.0
  9
$LIMCHECK
 70
     0
  9
$CHAMFERA
 40
0.0
  9
$CHAMFERB
 40
0.0
  9
$CHAMFERC
 40
20.0
  9
$CHAMFERD
 40
0.0
  9
$SKPOLY
 70
     0
  9
$TDCREATE
 40
2456139.798878935
  9
$TDUCREATE
 40
2456139.423878935
  9
$TDUPDATE
 40
2456267.587927511
  9
$TDUUPDATE
 40
2456267.212927512
  9
$TDINDWG
 40
0.0672238542
  9
$TDUSRTIMER
 40
0.0672236806
  9
$USRTIMER
 70
     1
  9
$ANGBASE
 50
0.0
  9
$ANGDIR
 70
     0
  9
$PDMODE
 70
     0
  9
$PDSIZE
 40
-3.0
  9
$PLINEWID
 40
0.0
  9
$SPLFRAME
 70
     0
  9
$SPLINETYPE
 70
     6
  9
$SPLINESEGS
 70
     8
  9
$HANDSEED
  5
C683
  9
$SURFTAB1
 70
     6
  9
$SURFTAB2
 70
     6
  9
$SURFTYPE
 70
     6
  9
$SURFU
 70
     6
  9
$SURFV
 70
     6
  9
$UCSBASE
  2

  9
$UCSNAME
  2

  9
$UCSORG
 10
0.0
 20
0.0
 30
0.0
  9
$UCSXDIR
 10
1.0
 20
0.0
 30
0.0
  9
$UCSYDIR
 10
0.0
 20
1.0
 30
0.0
  9
$UCSORTHOREF
  2

  9
$UCSORTHOVIEW
 70
     0
  9
$UCSORGTOP
 10
0.0
 20
0.0
 30
0.0
  9
$UCSORGBOTTOM
 10
0.0
 20
0.0
 30
0.0
  9
$UCSORGLEFT
 10
0.0
 20
0.0
 30
0.0
  9
$UCSORGRIGHT
 10
0.0
 20
0.0
 30
0.0
  9
$UCSORGFRONT
 10
0.0
 20
0.0
 30
0.0
  9
$UCSORGBACK
 10
0.0
 20
0.0
 30
0.0
  9
$PUCSBASE
  2

  9
$PUCSNAME
  2

  9
$PUCSORG
 10
0.0
 20
0.0
 30
0.0
  9
$PUCSXDIR
 10
1.0
 20
0.0
 30
0.0
  9
$PUCSYDIR
 10
0.0
 20
1.0
 30
0.0
  9
$PUCSORTHOREF
  2

  9
$PUCSORTHOVIEW
 70
     0
  9
$PUCSORGTOP
 10
0.0
 20
0.0
 30
0.0
  9
$PUCSORGBOTTOM
 10
0.0
 20
0.0
 30
0.0
  9
$PUCSORGLEFT
 10
0.0
 20
0.0
 30
0.0
  9
$PUCSORGRIGHT
 10
0.0
 20
0.0
 30
0.0
  9
$PUCSORGFRONT
 10
0.0
 20
0.0
 30
0.0
  9
$PUCSORGBACK
 10
0.0
 20
0.0
 30
0.0
  9
$USERI1
 70
     0
  9
$USERI2
 70
     0
  9
$USERI3
 70
     0
  9
$USERI4
 70
     0
  9
$USERI5
 70
     0
  9
$USERR1
 40
0.0
  9
$USERR2
 40
0.0
  9
$USERR3
 40
0.0
  9
$USERR4
 40
0.0
  9
$USERR5
 40
0.0
  9
$WORLDVIEW
 70
     1
  9
$SHADEDGE
 70
     3
  9
$SHADEDIF
 70
    70
  9
$TILEMODE
 70
     1
  9
$MAXACTVP
 70
    64
  9
$PINSBASE
 10
0.0
 20
0.0
 30
0.0
  9
$PLIMCHECK
 70
     0
  9
$PEXTMIN
 10
1.000000000000000E+20
 20
1.000000000000000E+20
 30
1.000000000000000E+20
  9
$PEXTMAX
 10
-1.000000000000000E+20
 20
-1.000000000000000E+20
 30
-1.000000000000000E+20
  9
$PLIMMIN
 10
-3.17498779296875
 20
-3.174999952316284
  9
$PLIMMAX
 10
293.4970092773438
 20
206.692492723465
  9
$UNITMODE
 70
     0
  9
$VISRETAIN
 70
     1
  9
$PLINEGEN
 70
     0
  9
$PSLTSCALE
 70
     1
  9
$TREEDEPTH
 70
  3020
  9
$CMLSTYLE
  2
Standard
  9
$CMLJUST
 70
     0
  9
$CMLSCALE
 40
20.0
  9
$PROXYGRAPHICS
 70
     1
  9
$MEASUREMENT
 70
     1
  9
$CELWEIGHT
370
    -1
  9
$ENDCAPS
280
     0
  9
$JOINSTYLE
280
     0
  9
$LWDISPLAY
290
     1
  9
$INSUNITS
 70
     4
  9
$HYPERLINKBASE
  1

  9
$STYLESHEET
  1
monochrome.ctb
  9
$XEDIT
290
     1
  9
$CEPSNTYPE
380
     0
  9
$PSTYLEMODE
290
     1
  9
$FINGERPRINTGUID
  2
{4DF3B1F6-3F13-4469-8453-5E0FD6DA0DB8}
  9
$VERSIONGUID
  2
{491BCA08-0B15-423F-958D-7C5653AF9320}
  9
$EXTNAMES
290
     1
  9
$PSVPSCALE
 40
0.0
  9
$OLESTARTUP
290
     0
  0
ENDSEC
  0
SECTION
  2
CLASSES
  0
CLASS
  1
ACDBDICTIONARYWDFLT
  2
AcDbDictionaryWithDefault
  3
ObjectDBX Classes
 90
        0
280
     0
281
     0
  0
CLASS
  1
ACDBPLACEHOLDER
  2
AcDbPlaceHolder
  3
ObjectDBX Classes
 90
        0
280
     0
281
     0
  0
CLASS
  1
LAYOUT
  2
AcDbLayout
  3
ObjectDBX Classes
 90
        0
280
     0
281
     0
  0
CLASS
  1
AMGSETTINGSOBJ
  2
AmgSettingsObj
  3
"AcadM|Product Description: AutoCAD Mechanical|Company: Autodesk"
 90
        0
280
     0
281
     0
  0
CLASS
  1
ACME_DOCUMENT
  2
AcMeDbDoc
  3
AcMeServices
 90
        0
280
     0
281
     0
  0
CLASS
  1
ACMESCOPE
  2
AcMeScope
  3
AcMeServices
 90
        0
280
     0
281
     0
  0
CLASS
  1
ACMECOMMANDHISTORY
  2
AcMeCommandHistory
  3
AcMeServices
 90
        0
280
     0
281
     0
  0
CLASS
  1
DICTIONARYVAR
  2
AcDbDictionaryVar
  3
ObjectDBX Classes
 90
        0
280
     0
281
     0
  0
CLASS
  1
ACIMSYSVARMAN
  2
AcImSysVarManager
  3
AcMeServices
 90
        0
280
     0
281
     0
  0
CLASS
  1
ACIMREALSYSVAR
  2
AcImRealSysVar
  3
AcMeServices
 90
        0
280
     0
281
     0
  0
CLASS
  1
ACIMINTSYSVAR
  2
AcImIntSysVar
  3
AcMeServices
 90
        0
280
     0
281
     0
  0
CLASS
  1
ACMEDRAWINGMAN
  2
AcMeDrawingMan
  3
AcMeServices
 90
        0
280
     0
281
     0
  0
CLASS
  1
ACMEVIEW
  2
AcMeView
  3
AcMeServices
 90
        0
280
     0
281
     0
  0
CLASS
  1
ACDBENTITYCACHE
  2
AcMeEntityCache
  3
AcMeServices
 90
        0
280
     0
281
     0
  0
CLASS
  1
GSMANAGER
  2
AcMeGSManager
  3
AcMeServices
 90
        0
280
     0
281
     0
  0
CLASS
  1
AMDTINTERNALREACTOR
  2
AmdtInternalReactor
  3
AcMeServices
 90
        0
280
     0
281
     0
  0
CLASS
  1
ACMESTATEMGR
  2
AcMeStateMgr
  3
AcMeServices
 90
        0
280
     0
281
     0
  0
CLASS
  1
ACGREFMASTER
  2
AcGrefMaster
  3
AcAttribServices
 90
        0
280
     0
281
     0
  0
CLASS
  1
ACME_DATABASE
  2
AcMeDbDatabase
  3
AcMeServices
 90
        0
280
     0
281
     0
  0
CLASS
  1
ACRFINSADJUSTERMGR
  2
AcRfInsAdjusterMgr
  3
AcMeServices
 90
        0
280
     0
281
     0
  0
CLASS
  1
ACGREFACADMASTER
  2
AcGrefacadMaster
  3
AcGrefServices
 90
        0
280
     0
281
     0
  0
CLASS
  1
AMIMASTER
  2
AmiMaster
  3
AmiServices
 90
        0
280
     0
281
     0
  0
CLASS
  1
ACMDATADICTIONARY
  2
AcmDataDictionary
  3
"AcmSymBB|Product Description: AutoCAD Mechanical|Company: Autodesk"
 90
        0
280
     0
281
     0
  0
CLASS
  1
ACMDATAENTRYBLOCK
  2
AcmDataEntryBlock
  3
"AcmSymBB|Product Description: AutoCAD Mechanical|Company: Autodesk"
 90
        0
280
     0
281
     0
  0
CLASS
  1
ACIMSTRSYSVAR
  2
AcImStrSysVar
  3
AcMeServices
 90
        0
280
     0
281
     0
  0
CLASS
  1
ACMSTANDARDISO
  2
AcmStandardISO
  3
"Amdt_StdImp|Product Description: AutoCAD Mechanical|Company: Autodesk"
 90
        0
280
     0
281
     0
  0
CLASS
  1
AMGOBJPROPCFG
  2
AmgObjPropCfg
  3
"AmgLay|Product Description: AutoCAD Mechanical|Company: Autodesk"
 90
        1
280
     0
281
     0
  0
CLASS
  1
AMDTEDGESTANDARDISO
  2
AmdtEdgeStdISO
  3
"Amdt_StdImp|Product Description: AutoCAD Mechanical|Company: Autodesk"
 90
        0
280
     0
281
     0
  0
CLASS
  1
ACMSURFSTANDARDISO
  2
AcmSurfTextStdISO
  3
"Amdt_StdImp|Product Description: AutoCAD Mechanical|Company: Autodesk"
 90
        0
280
     0
281
     0
  0
CLASS
  1
ACMFCFSTANDARDISO
  2
AcmFCFStdISO
  3
"Amdt_StdImp|Product Description: AutoCAD Mechanical|Company: Autodesk"
 90
        0
280
     0
281
     0
  0
CLASS
  1
ACMWELDSTANDARDISO
  2
AcmWeldingStdISO
  3
"Amdt_StdImp|Product Description: AutoCAD Mechanical|Company: Autodesk"
 90
        0
280
     0
281
     0
  0
CLASS
  1
ACMIDSTANDARDISO
  2
AcmIdStdISO
  3
"Amdt_StdImp|Product Description: AutoCAD Mechanical|Company: Autodesk"
 90
        0
280
     0
281
     0
  0
CLASS
  1
ACMDATUMSTANDARDISO
  2
AcmDatumStdISO
  3
"Amdt_StdImp|Product Description: AutoCAD Mechanical|Company: Autodesk"
 90
        0
280
     0
281
     0
  0
CLASS
  1
ACMBOMSTANDARDISO
  2
AcmBOMStdISO
  3
"Amdt_StdImp|Product Description: AutoCAD Mechanical|Company: Autodesk"
 90
        0
280
     0
281
     0
  0
CLASS
  1
ACMDETAILSTANDARDISO
  2
AmdtDetailSymStdISO
  3
"Amdt_StdImp|Product Description: AutoCAD Mechanical|Company: Autodesk"
 90
        0
280
     0
281
     0
  0
CLASS
  1
ACMSECTIONSTANDARDISO
  2
AmdtSectionSymStdISO
  3
"Amdt_StdImp|Product Description: AutoCAD Mechanical|Company: Autodesk"
 90
        0
280
     0
281
     0
  0
CLASS
  1
ACMCENTERLINESTANDARDISO
  2
AmdtCenterLineStdISO
  3
"Amdt_StdImp|Product Description: AutoCAD Mechanical|Company: Autodesk"
 90
        0
280
     0
281
     0
  0
CLASS
  1
ACAMGLAYSTD
  2
AcAmgLayStd
  3
"AmgLay|Product Description: AutoCAD Mechanical|Company: Autodesk"
 90
        0
280
     0
281
     0
  0
CLASS
  1
ACAMGDIMSTD
  2
AcAmgDimStd
  3
"AmgDim|Product Description: AutoCAD Mechanical|Company: Autodesk"
 90
        0
280
     0
281
     0
  0
CLASS
  1
ACAMGTITLESTD
  2
AcAmgTitleStd
  3
"AmgTitle|Product Description: AutoCAD Mechanical|Company: Autodesk"
 90
        0
280
     0
281
     0
  0
CLASS
  1
ACAMGFILTERDAT
  2
AcAmgFilterDat
  3
"AcadM|Product Description: AutoCAD Mechanical|Company: Autodesk"
 90
        0
280
     0
281
     0
  0
CLASS
  1
LAYER_INDEX
  2
AcDbLayerIndex
  3
ObjectDBX Classes
 90
    32768
280
     0
281
     0
  0
CLASS
  1
IDBUFFER
  2
AcDbIdBuffer
  3
ObjectDBX Classes
 90
    32768
280
     0
281
     0
  0
CLASS
  1
PLOTSETTINGS
  2
AcDbPlotSettings
  3
ObjectDBX Classes
 90
    32768
280
     0
281
     0
  0
CLASS
  1
AMDTFORMULAUPDATEDISPATCHER
  2
AmdtFormulaUpdateDispatcher
  3
AcMeServices
 90
        0
280
     0
281
     0
  0
CLASS
  1
ACMSTANDARDANSI
  2
AcmStandardANSI
  3
"Amdt_StdImp|Product Description: AutoCAD Mechanical|Company: Autodesk"
 90
        0
280
     0
281
     0
  0
CLASS
  1
ACMSURFSTANDARDANSI
  2
AcmSurfTextStdANSI
  3
"Amdt_StdImp|Product Description: AutoCAD Mechanical|Company: Autodesk"
 90
        0
280
     0
281
     0
  0
CLASS
  1
ACMFCFSTANDARDANSI
  2
AcmFCFStdANSI
  3
"Amdt_StdImp|Product Description: AutoCAD Mechanical|Company: Autodesk"
 90
        0
280
     0
281
     0
  0
CLASS
  1
ACMWELDSTANDARDANSI
  2
AcmWeldingStdANSI
  3
"Amdt_StdImp|Product Description: AutoCAD Mechanical|Company: Autodesk"
 90
        0
280
     0
281
     0
  0
CLASS
  1
ACMIDSTANDARDANSI
  2
AcmIdStdANSI
  3
"Amdt_StdImp|Product Description: AutoCAD Mechanical|Company: Autodesk"
 90
        0
280
     0
281
     0
  0
CLASS
  1
ACMDATUMSTANDARDANSI
  2
AcmDatumStdANSI
  3
"Amdt_StdImp|Product Description: AutoCAD Mechanical|Company: Autodesk"
 90
        0
280
     0
281
     0
  0
CLASS
  1
ACMBOMSTANDARDANSI
  2
AcmBOMStdANSI
  3
"Amdt_StdImp|Product Description: AutoCAD Mechanical|Company: Autodesk"
 90
        0
280
     0
281
     0
  0
CLASS
  1
ACMDETAILSTANDARDANSI
  2
AmdtDetailSymStdANSI
  3
"Amdt_StdImp|Product Description: AutoCAD Mechanical|Company: Autodesk"
 90
        0
280
     0
281
     0
  0
CLASS
  1
ACMSECTIONSTANDARDANSI
  2
AmdtSectionSymStdANSI
  3
"Amdt_StdImp|Product Description: AutoCAD Mechanical|Company: Autodesk"
 90
        0
280
     0
281
     0
  0
CLASS
  1
ACMCENTERLINESTANDARDANSI
  2
AmdtCenterLineStdANSI
  3
"Amdt_StdImp|Product Description: AutoCAD Mechanical|Company: Autodesk"
 90
        0
280
     0
281
     0
  0
CLASS
  1
ACMBOM
  2
AcmBom
  3
"AcmSymBB|Product Description: AutoCAD Mechanical|Company: Autodesk"
 90
        0
280
     0
281
     0
  0
CLASS
  1
ACMDATAENTRYPART
  2
AcmDataEntryPart
  3
"AcmSymBB|Product Description: AutoCAD Mechanical|Company: Autodesk"
 90
    32768
280
     0
281
     0
  0
CLASS
  1
ACMPARTREF
  2
AcmPartRef
  3
"AcmSymBB|Product Description: AutoCAD Mechanical|Company: Autodesk"
 90
    35839
280
     0
281
     1
  0
CLASS
  1
ACDBCIRCARCRES
  2
AcDbCircArcRes
  3
AcGrefServices
 90
    32768
280
     0
281
     0
  0
CLASS
  1
ACMBOMROW
  2
AcmBomRow
  3
"AcmSymBB|Product Description: AutoCAD Mechanical|Company: Autodesk"
 90
    32768
280
     0
281
     0
  0
CLASS
  1
ACMBALLOON
  2
AcmBalloon
  3
"AcmSymBB|Product Description: AutoCAD Mechanical|Company: Autodesk"
 90
    35839
280
     0
281
     1
  0
CLASS
  1
AMDTNOTE
  2
AmdtNote
  3
"AcmSymBB|Product Description: AutoCAD Mechanical|Company: Autodesk"
 90
    35839
280
     0
281
     1
  0
CLASS
  1
STDPART2D
  2
AmgStdPart
  3
"g3vace|Class: AmgStdPart|Product Description: AutoCAD Mechanical|Company: Autodesk"
 90
    35839
280
     0
281
     1
  0
CLASS
  1
ACDBSTDPARTRES_LINE
  2
AcDbStdPartRes_Line
  3
"g3vace|Class: AcDbStdPartRes_Line|Product Description: AutoCAD Mechanical|Company: Autodesk"
 90
    32768
280
     0
281
     0
  0
CLASS
  1
ACMDATAENTRY
  2
AcmDataEntry
  3
"AcmSymBB|Product Description: AutoCAD Mechanical|Company: Autodesk"
 90
        0
280
     0
281
     0
  0
CLASS
  1
ACDBOPPOLYLINERES
  2
AcDbOpPolylineRes
  3
AcGrefServices
 90
    32768
280
     0
281
     0
  0
CLASS
  1
ACMPARTLIST
  2
AcmPartList
  3
"AcmSymBB|Product Description: AutoCAD Mechanical|Company: Autodesk"
 90
    35839
280
     0
281
     1
  0
CLASS
  1
ACDBLINERES
  2
AcDbLineRes
  3
AcGrefServices
 90
    32768
280
     0
281
     0
  0
CLASS
  1
ACRFINSADJ
  2
AcRfInsAdjuster
  3
AcMeServices
 90
    32768
280
     0
281
     0
  0
CLASS
  1
AM_DRAWING_MGR
  2
AcDmDwgMgr
  3
AcMechDwgViewMgmt
 90
        0
280
     0
281
     0
  0
CLASS
  1
AM_DWG_DOCUMENT
  2
AcDmDwgDocument
  3
AcMechDwgViewMgmt
 90
        0
280
     0
281
     0
  0
CLASS
  1
AM_DWG_SHEET
  2
AcDmSheet
  3
AcMechDwgViewMgmt
 90
        0
280
     0
281
     0
  0
CLASS
  1
AM_VIEWDIMPARMAP
  2
AcDmViewDimParMap
  3
AcMechDwgViewMgmt
 90
        0
280
     0
281
     0
  0
CLASS
  1
AM_DWGMGR_NAME
  2
AcDmDwgMgrName
  3
AcMechDwgViewMgmt
 90
        0
280
     0
281
     0
  0
CLASS
  1
AMDTMENUSTATEMGR
  2
AmdtMenuStateMgr
  3
McadcomServices
 90
        0
280
     0
281
     0
  0
CLASS
  1
AMDTMCOMMENUSTATE
  2
AmdtMcomMenuState
  3
McadcomServices
 90
        0
280
     0
281
     0
  0
CLASS
  1
ASAPP
  2
AcAsAppObject
  3
AutoSurfServices
 90
        0
280
     0
281
     0
  0
CLASS
  1
IM_STATIC_MAN
  2
AcImStaticVarManager
  3
AcMeServices
 90
        0
280
     0
281
     0
  0
CLASS
  1
ACIMDBLSTATICVAR
  2
AcImDblStaticVar
  3
AcMeServices
 90
        0
280
     0
281
     0
  0
CLASS
  1
ACIMSTRSTATICVAR
  2
AcImStrStaticVar
  3
AcMeServices
 90
        0
280
     0
281
     0
  0
CLASS
  1
ACIMINTSTATICVAR
  2
AcImIntStaticVar
  3
AcMeServices
 90
        0
280
     0
281
     0
  0
CLASS
  1
ACASGREFMASTER
  2
AcAsGrefMaster
  3
AutoSurfResolverServices
 90
        0
280
     0
281
     0
  0
CLASS
  1
ACADGREFMODULE
  2
AcAdGrefModule
  3
AdGrefServices
 90
        0
280
     0
281
     0
  0
CLASS
  1
AMDTMAPISURFMOUDULE
  2
AmdtMApiSurfModule
  3
MApiSurfServices
 90
        0
280
     0
281
     0
  0
CLASS
  1
MAPIAMMOUDLE
  2
MApiAmModule
  3
MApiAmServices
 90
        0
280
     0
281
     0
  0
CLASS
  1
AMDTADMENUSTATE
  2
AmdtAdMenuState
  3
DesignerServices
 90
        0
280
     0
281
     0
  0
CLASS
  1
ADAPPL
  2
AcAdAppl
  3
DesignerServices
 90
        0
280
     0
281
     0
  0
CLASS
  1
DEPMGR
  2
AcAdDepMgr
  3
DesignerServices
 90
        0
280
     0
281
     0
  0
CLASS
  1
PARAMMGR
  2
AcAdParamMgr
  3
DesignerServices
 90
        0
280
     0
281
     0
  0
CLASS
  1
PARAMSCOPE
  2
AcAdParamScope
  3
DesignerServices
 90
        0
280
     0
281
     0
  0
CLASS
  1
NAMEDAPPL
  2
AcAdNamedAppl
  3
DesignerServices
 90
        0
280
     0
281
     0
  0
CLASS
  1
ADHNTMPLT
  2
AdHoleNoteTemplateMgr
  3
DesignerServices
 90
    32768
280
     0
281
     0
  0
CLASS
  1
AM_HNTEMPLATE_MGR_NAME
  2
AdHoleNoteTemplateMgrName
  3
DesignerServices
 90
    32768
280
     0
281
     0
  0
CLASS
  1
AMDTDMMENUSTATE
  2
AmdtDmMenuState
  3
AcMechDwgViewMgmt
 90
        0
280
     0
281
     0
  0
CLASS
  1
MAPIADMODULE
  2
MApiAdModule
  3
MApiAdServices
 90
        0
280
     0
281
     0
  0
CLASS
  1
AMDTAMMENUSTATE
  2
AmdtAmMenuState
  3
DesignerAssemblies
 90
        0
280
     0
281
     0
  0
CLASS
  1
ACAMPROJECT
  2
AcAmProject
  3
DesignerAssemblies
 90
        0
280
     0
281
     0
  0
CLASS
  1
ACAMGRCOMPDEF
  2
AcAmGrCompDef
  3
DesignerAssemblies
 90
        0
280
     0
281
     0
  0
CLASS
  1
ACCMCONTEXT
  2
AcCmContext
  3
DesignerAssemblies
 90
        0
280
     0
281
     0
  0
CLASS
  1
ACAMCOMPDEF
  2
AcAmCompDef
  3
DesignerAssemblies
 90
        0
280
     0
281
     0
  0
CLASS
  1
ACAMCOMPDEFMGR
  2
AcAmCompDefMgr
  3
DesignerAssemblies
 90
        0
280
     0
281
     0
  0
CLASS
  1
AMCONTEXTMGR
  2
AcAmContextMgr
  3
DesignerAssemblies
 90
        0
280
     0
281
     0
  0
CLASS
  1
ACAMCONTEXTMODELER
  2
AcAmContextModeler
  3
DesignerAssemblies
 90
        0
280
     0
281
     0
  0
CLASS
  1
CATALOGSTATE
  2
AcAmCatalogState
  3
DesignerAssemblies
 90
        0
280
     0
281
     0
  0
CLASS
  1
ACAMGRCOMPDEFSET
  2
AcAmGrCompDefSet
  3
DesignerAssemblies
 90
        0
280
     0
281
     0
  0
CLASS
  1
AMDTBROWSERDBTAB
  2
AmdtBrowserDbTab
  3
McadcomServices
 90
        0
280
     0
281
     0
  0
CLASS
  1
CBROWSERAPPOBJECT
  2
CBrowserAppObject
  3
McadcomServices
 90
        0
280
     0
281
     0
  0
CLASS
  1
DM_PLACEHOLDER
  2
AcDmSelsetPlaceholder
  3
AcMechDwgViewMgmt
 90
        0
280
     0
281
     0
  0
CLASS
  1
ACMPICKOBJ
  2
AcmPickEnt
  3
"AcmSymBB|Product Description: AutoCAD Mechanical|Company: Autodesk"
 90
    32768
280
     0
281
     1
  0
CLASS
  1
ACMNOTESTANDARDISO
  2
AmdtNoteStdISO
  3
"Amdt_StdImp|Product Description: AutoCAD Mechanical|Company: Autodesk"
 90
        0
280
     0
281
     0
  0
CLASS
  1
ACMNOTESTANDARDANSI
  2
AmdtNoteStdANSI
  3
"Amdt_StdImp|Product Description: AutoCAD Mechanical|Company: Autodesk"
 90
        0
280
     0
281
     0
  0
CLASS
  1
ACMTHREADLINESTANDARDISO
  2
AmdtThreadLineStdISO
  3
"Amdt_StdImp|Product Description: AutoCAD Mechanical|Company: Autodesk"
 90
        0
280
     0
281
     0
  0
CLASS
  1
ACMTHREADLINESTANDARDANSI
  2
AmdtThreadLineStdANSI
  3
"Amdt_StdImp|Product Description: AutoCAD Mechanical|Company: Autodesk"
 90
        0
280
     0
281
     0
  0
CLASS
  1
TABLESTYLE
  2
AcDbTableStyle
  3
ObjectDBX Classes
 90
     4095
280
     0
281
     0
  0
CLASS
  1
SORTENTSTABLE
  2
AcDbSortentsTable
  3
ObjectDBX Classes
 90
        0
280
     0
281
     0
  0
CLASS
  1
MATERIAL
  2
AcDbMaterial
  3
ObjectDBX Classes
 90
     1024
280
     0
281
     0
  0
CLASS
  1
VISUALSTYLE
  2
AcDbVisualStyle
  3
ObjectDBX Classes
 90
     4095
280
     0
281
     0
  0
CLASS
  1
ACRFATTGENMGR
  2
AcRfAttGeneralMgr
  3
AcAttribServices
 90
        0
280
     0
281
     0
  0
CLASS
  1
ACRFOBJATTMGR
  2
AcRfObjAttGroupMgr
  3
AcAttribServices
 90
        0
280
     0
281
     0
  0
CLASS
  1
ACRFMCADAPIATTHOLDER
  2
AcRfMCADAPIAttHolder
  3
AcAttribServices
 90
        0
280
     0
281
     0
  0
CLASS
  1
AMDTSYSATTR
  2
AmdtSystemAttribute
  3
AcAttribServices
 90
        0
280
     0
281
     0
  0
CLASS
  1
ACMTAPERSTANDARDISO
  2
AcmTaperStdISO
  3
"Amdt_StdImp|Product Description: AutoCAD Mechanical|Company: Autodesk"
 90
        0
280
     0
281
     0
  0
CLASS
  1
CAMSSTRUCTBTNSTATE
  2
StructBtnState
  3
L"DesignerAssemblies"
 90
        0
280
     0
281
     0
  0
CLASS
  1
DIMASSOC
  2
AcDbDimAssoc
  3
"AcDbDimAssoc|Product Desc:     AcDim ARX App For Dimension|Company:          Autodesk, Inc.|WEB Address:      www.autodesk.com"
 90
    32768
280
     0
281
     0
  0
CLASS
  1
AMDTNOTETEMPLATEDB
  2
AmdtNoteTemplateDB
  3
AMDT_STDIMP_MODULE_NAME
 90
        0
280
     0
281
     0
  0
CLASS
  1
ACMTAPERSTANDARDANSI
  2
AcmTaperStdANSI
  3
"Amdt_StdImp|Product Description: AutoCAD Mechanical|Company: Autodesk"
 90
        0
280
     0
281
     0
  0
CLASS
  1
ACAMGHOLECHARTSTDANSI
  2
AcAmgHoleChartStdANSI
  3
ACMSYMBB_MODULE_NAME
 90
        0
280
     0
281
     0
  0
ENDSEC
  0
SECTION
  2
TABLES
  0
TABLE
  2
VPORT
  5
8
330
0
100
AcDbSymbolTable
 70
     1
  0
VPORT
  5
B0EC
330
8
100
AcDbSymbolTableRecord
100
AcDbViewportTableRecord
  2
*Active
 70
     0
 10
0.0
 20
0.0
 11
1.0
 21
1.0
 12
148.4878827500404
 22
104.9903233221362
 13
0.0
 23
0.0
 14
2.5
 24
2.5
 15
10.0
 25
10.0
 16
0.0
 26
0.0
 36
1.0
 17
0.0
 27
0.0
 37
0.0
 40
211.6406882373097
 41
1.648648648648648
 42
50.0
 43
-1370.695619172058
 44
-1370.695619172058
 50
0.0
 51
0.0
 71
    16
 72
   100
 73
     1
 74
     3
 75
     0
 76
     0
 77
     0
 78
     0
281
     0
 65
     0
110
0.0
120
0.0
130
0.0
111
1.0
121
0.0
131
0.0
112
0.0
122
1.0
132
0.0
 79
     0
146
0.0
  0
ENDTAB
  0
TABLE
  2
LTYPE
  5
5
330
0
100
AcDbSymbolTable
 70
    32
  0
LTYPE
  5
14
330
5
100
AcDbSymbolTableRecord
100
AcDbLinetypeTableRecord
  2
ByBlock
 70
     0
  3

 72
    65
 73
     0
 40
0.0
  0
LTYPE
  5
15
330
5
100
AcDbSymbolTableRecord
100
AcDbLinetypeTableRecord
  2
ByLayer
 70
     0
  3

 72
    65
 73
     0
 40
0.0
  0
LTYPE
  5
16
330
5
100
AcDbSymbolTableRecord
100
AcDbLinetypeTableRecord
  2
Continuous
 70
     0
  3
Solid line
 72
    65
 73
     0
 40
0.0
  0
LTYPE
  5
4F
330
5
100
AcDbSymbolTableRecord
100
AcDbLinetypeTableRecord
  2
AM_ISO02W050
 70
     0
  3
__ __ __ __ __ __ __ __ __ __ __ __ __ __ __
 72
    65
 73
     2
 40
7.5
 49
6.0
 74
     0
 49
-1.5
 74
     0
  0
LTYPE
  5
52
330
5
100
AcDbSymbolTableRecord
100
AcDbLinetypeTableRecord
  2
Amconstr
 70
     0
  3
_______________________
 72
    65
 73
     2
 40
9999.0
 49
9999.0
 74
     0
 49
0.0
 74
     0
  0
LTYPE
  5
64
330
5
100
AcDbSymbolTableRecord
100
AcDbLinetypeTableRecord
  2
ACISOWELD
 70
     0
  3
_ _ _ _ _
 72
    65
 73
     2
 40
2.0
 49
2.0
 74
     0
 49
-1.0
 74
     0
  0
LTYPE
  5
65
330
5
100
AcDbSymbolTableRecord
100
AcDbLinetypeTableRecord
  2
ACISOTGB
 70
     0
  3
__ . . __ . .
 72
    65
 73
     6
 40
9.0
 49
4.0
 74
     0
 49
-1.0
 74
     0
 49
1.0
 74
     0
 49
-1.0
 74
     0
 49
1.0
 74
     0
 49
-1.0
 74
     0
  0
LTYPE
  5
66
330
5
100
AcDbSymbolTableRecord
100
AcDbLinetypeTableRecord
  2
ACISOTGL
 70
     0
  3
_ _ _ _ _
 72
    65
 73
     2
 40
3.0
 49
2.0
 74
     0
 49
-1.0
 74
     0
  0
LTYPE
  5
69
330
5
100
AcDbSymbolTableRecord
100
AcDbLinetypeTableRecord
  2
CENTER
 70
     0
  3
__ . __
 72
    65
 73
     4
 40
7.0
 49
4.0
 74
     0
 49
-1.0
 74
     0
 49
1.0
 74
     0
 49
-1.0
 74
     0
  0
LTYPE
  5
A6E
330
5
100
AcDbSymbolTableRecord
100
AcDbLinetypeTableRecord
  2
PHANTOM2
 70
     0
  3
Phantom (.5x) ___ _ _ ___ _ _ ___ _ _ ___ _ _
 72
    65
 73
     6
 40
31.75
 49
15.875
 74
     0
 49
-3.174999999999999
 74
     0
 49
3.174999999999999
 74
     0
 49
-3.174999999999999
 74
     0
 49
3.174999999999999
 74
     0
 49
-3.174999999999999
 74
     0
  0
LTYPE
  5
4DED
330
5
100
AcDbSymbolTableRecord
100
AcDbLinetypeTableRecord
  2
中線
 70
     0
  3
___________________
 72
    65
 73
     2
 40
2.0
 49
1.0
 74
     0
 49
1.0
 74
     0
  0
LTYPE
  5
4DF6
330
5
100
AcDbSymbolTableRecord
100
AcDbLinetypeTableRecord
  2
細線
 70
     0
  3
___________________
 72
    65
 73
     2
 40
2.0
 49
1.0
 74
     0
 49
1.0
 74
     0
  0
LTYPE
  5
4DF7
330
5
100
AcDbSymbolTableRecord
100
AcDbLinetypeTableRecord
  2
太線
 70
     0
  3
___________________
 72
    65
 73
     2
 40
2.0
 49
1.0
 74
     0
 49
1.0
 74
     0
  0
LTYPE
  5
4EA7
330
5
100
AcDbSymbolTableRecord
100
AcDbLinetypeTableRecord
  2
文字
 70
     0
  3
_________________
 72
    65
 73
     2
 40
2.0
 49
1.0
 74
     0
 49
1.0
 74
     0
  0
LTYPE
  5
4EA9
330
5
100
AcDbSymbolTableRecord
100
AcDbLinetypeTableRecord
  2
寸法線
 70
     0
  3
________________
 72
    65
 73
     2
 40
2.0
 49
1.0
 74
     0
 49
1.0
 74
     0
  0
LTYPE
  5
4F12
330
5
100
AcDbSymbolTableRecord
100
AcDbLinetypeTableRecord
  2
ハッチング
 70
     0
  3
_________________
 72
    65
 73
     2
 40
2.0
 49
1.0
 74
     0
 49
1.0
 74
     0
  0
LTYPE
  5
5180
330
5
100
AcDbSymbolTableRecord
100
AcDbLinetypeTableRecord
  2
陰線1
 70
     0
  3
__ __ __ __
 72
    65
 73
     2
 40
4.0
 49
2.2
 74
     0
 49
-1.8
 74
     0
  0
LTYPE
  5
5182
330
5
100
AcDbSymbolTableRecord
100
AcDbLinetypeTableRecord
  2
切断線
 70
     0
  3
/\/-/\/-/\/-/\/-/\/-/\/
 72
    65
 73
     2
 40
11.0001
 49
0.0001
 74
     4
 75
   135
340
56
 46
0.04
 50
0.0
 44
0.0
 45
0.0
 49
-11.0
 74
     0
  0
LTYPE
  5
5183
330
5
100
AcDbSymbolTableRecord
100
AcDbLinetypeTableRecord
  2
想像線1
 70
     0
  3
__ __ __ _____ __ __ ____
 72
    65
 73
     6
 40
14.5
 49
6.0
 74
     0
 49
-1.5
 74
     0
 49
2.0
 74
     0
 49
-1.5
 74
     0
 49
2.0
 74
     0
 49
-1.5
 74
     0
  0
LTYPE
  5
5185
330
5
100
AcDbSymbolTableRecord
100
AcDbLinetypeTableRecord
  2
中心線1
 70
     0
  3
___ _ ___ _ ___
 72
    65
 73
     4
 40
18.0
 49
12.0
 74
     0
 49
-2.0
 74
     0
 49
2.0
 74
     0
 49
-2.0
 74
     0
  0
LTYPE
  5
5188
330
5
100
AcDbSymbolTableRecord
100
AcDbLinetypeTableRecord
  2
補助線
 70
     0
  3
______________
 72
    65
 73
     2
 40
2.0
 49
1.0
 74
     0
 49
1.0
 74
     0
  0
LTYPE
  5
6427
330
5
100
AcDbSymbolTableRecord
100
AcDbLinetypeTableRecord
  2
HIDDEN
 70
     0
  3
Hidden __ __ __ __ __ __ __ __ __ __ __ __ __ _
 72
    65
 73
     2
 40
0.375
 49
0.25
 74
     0
 49
-0.125
 74
     0
  0
LTYPE
  5
AC81
330
5
100
AcDbSymbolTableRecord
100
AcDbLinetypeTableRecord
  2
破断線
 70
     0
  3
/\/-/\/-/\/-/\/-/\/-/\/
 72
    65
 73
     2
 40
0.4401
 49
0.0001
 74
     4
 75
   136
340
AC80
 46
0.0016
 50
0.0
 44
0.0
 45
0.0
 49
-0.4400000000000001
 74
     0
  0
LTYPE
  5
AC9E
330
5
100
AcDbSymbolTableRecord
100
AcDbLinetypeTableRecord
  2
Amzigzag
 70
     0
  3
/\/-/\/-/\/-/\/-/\/-/\/
 72
    65
 73
     2
 40
11.0001
 49
0.0001
 74
     4
 75
   135
340
56
 46
0.04
 50
0.0
 44
0.0
 45
0.0
 49
-11.0
 74
     0
  0
LTYPE
  5
AF0F
330
5
100
AcDbSymbolTableRecord
100
AcDbLinetypeTableRecord
  2
genzigzag
 70
     0
  3
/\/-/\/-/\/-/\/-/\/-/\/
 72
    65
 73
     2
 40
12.0001
 49
0.0001
 74
     4
 75
   135
340
AC80
 46
2.0
 50
0.0
 44
0.0
 45
0.0
 49
-12.0
 74
     0
  0
LTYPE
  5
AF95
330
5
100
AcDbSymbolTableRecord
100
AcDbLinetypeTableRecord
  2
AM_ISO08W050
 70
     0
  3
____ . ____ . ____ . ____ . ____ . ____ . ____
 72
    65
 73
     4
 40
18.0
 49
12.0
 74
     0
 49
-1.5
 74
     0
 49
3.0
 74
     0
 49
-1.5
 74
     0
  0
LTYPE
  5
AF96
330
5
100
AcDbSymbolTableRecord
100
AcDbLinetypeTableRecord
  2
AM_ISO09W050
 70
     0
  3
_____ . . _____ . . _____ . . ____ .. ____
 72
    65
 73
     6
 40
22.5
 49
12.0
 74
     0
 49
-1.5
 74
     0
 49
3.0
 74
     0
 49
-1.5
 74
     0
 49
3.0
 74
     0
 49
-1.5
 74
     0
  0
LTYPE
  5
AF97
330
5
100
AcDbSymbolTableRecord
100
AcDbLinetypeTableRecord
  2
AM_ISO08W050x2
 70
     0
  3
__ . __ . __ . __ . __ . __
 72
    65
 73
     4
 40
9.0
 49
6.0
 74
     0
 49
-0.75
 74
     0
 49
1.5
 74
     0
 49
-0.75
 74
     0
  0
LTYPE
  5
AF98
330
5
100
AcDbSymbolTableRecord
100
AcDbLinetypeTableRecord
  2
AM_ISO02W050x2
 70
     0
  3
 _ _ _ _ _ _ _ _ _ _ _ _
 72
    65
 73
     2
 40
3.75
 49
3.0
 74
     0
 49
-0.75
 74
     0
  0
LTYPE
  5
B541
330
5
100
AcDbSymbolTableRecord
100
AcDbLinetypeTableRecord
  2
CENTER2
 70
     0
  3
__ _ __ _ __ _
 72
    65
 73
     4
 40
10.0
 49
7.0
 74
     0
 49
-1.0
 74
     0
 49
1.0
 74
     0
 49
-1.0
 74
     0
  0
LTYPE
  5
B542
330
5
100
AcDbSymbolTableRecord
100
AcDbLinetypeTableRecord
  2
HIDDEN2
 70
     0
  3
Hidden (.5x) _ _ _ _ _ _ _ _ _ _ _ _ _ _ _ _ _
 72
    65
 73
     2
 40
0.1875
 49
0.125
 74
     0
 49
-0.0625
 74
     0
  0
LTYPE
  5
B543
330
5
100
AcDbSymbolTableRecord
100
AcDbLinetypeTableRecord
  2
Amzigzag2
 70
     0
  3
/\/-/\/-/\/-/\/-/\/-/\/
 72
    65
 73
     2
 40
0.4401
 49
0.0001
 74
     4
 75
   136
340
AC80
 46
0.0016
 50
0.0
 44
0.0
 45
0.0
 49
-0.4400000000000001
 74
     0
  0
LTYPE
  5
B544
330
5
100
AcDbSymbolTableRecord
100
AcDbLinetypeTableRecord
  2
ACANSTGB
 70
     0
  3
__ . . __ . .
 72
    65
 73
     6
 40
0.35433070866
 49
0.15748031496
 74
     0
 49
-0.03937007874
 74
     0
 49
0.03937007874
 74
     0
 49
-0.03937007874
 74
     0
 49
0.03937007874
 74
     0
 49
-0.03937007874
 74
     0
  0
LTYPE
  5
B545
330
5
100
AcDbSymbolTableRecord
100
AcDbLinetypeTableRecord
  2
ACANSTGL
 70
     0
  3
_ _ _ _ _
 72
    65
 73
     2
 40
0.11811023622
 49
0.07874015748
 74
     0
 49
-0.03937007874
 74
     0
  0
ENDTAB
  0
TABLE
  2
LAYER
  5
2
102
{ACAD_XDICTIONARY
360
3F95
102
}
330
0
100
AcDbSymbolTable
 70
    30
  0
LAYER
  5
10
330
2
100
AcDbSymbolTableRecord
100
AcDbLayerTableRecord
  2
0
 70
     0
 62
     7
  6
Continuous
370
    -3
390
F
  0
LAYER
  5
6D1
330
2
100
AcDbSymbolTableRecord
100
AcDbLayerTableRecord
  2
Defpoints
 70
     0
 62
     7
  6
Continuous
290
     0
370
    -3
390
F
  0
LAYER
  5
5F85
330
2
100
AcDbSymbolTableRecord
100
AcDbLayerTableRecord
  2
AM_0
 70
     0
 62
     7
  6
中線
370
    30
390
F
1001
AcAecLayerStandard
1000

1000

  0
LAYER
  5
AC9F
330
2
100
AcDbSymbolTableRecord
100
AcDbLayerTableRecord
  2
size
 70
     0
 62
     5
  6
Continuous
290
     0
370
    25
390
F
  0
LAYER
  5
ACA0
330
2
100
AcDbSymbolTableRecord
100
AcDbLayerTableRecord
  2
waku
 70
     0
 62
     7
  6
Continuous
370
    35
390
F
  0
LAYER
  5
ACA1
330
2
100
AcDbSymbolTableRecord
100
AcDbLayerTableRecord
  2
AM_6
 70
     0
 62
     2
  6
文字
370
    13
390
F
1001
AcAecLayerStandard
1000

1000

  0
LAYER
  5
ACC8
330
2
100
AcDbSymbolTableRecord
100
AcDbLayerTableRecord
  2
hyomoji
 70
     0
 62
     2
  6
Continuous
370
    13
390
F
  0
LAYER
  5
ACC9
330
2
100
AcDbSymbolTableRecord
100
AcDbLayerTableRecord
  2
hyosen1
 70
     0
 62
     1
  6
Continuous
370
    25
390
F
  0
LAYER
  5
ACCA
330
2
100
AcDbSymbolTableRecord
100
AcDbLayerTableRecord
  2
hyosen2
 70
     0
 62
     1
  6
Continuous
370
    13
390
F
  0
LAYER
  5
AD60
330
2
100
AcDbSymbolTableRecord
100
AcDbLayerTableRecord
  2
AM_1
 70
     0
 62
    30
  6
太線
370
    40
390
F
1001
AcAecLayerStandard
1000

1000

  0
LAYER
  5
AD64
330
2
100
AcDbSymbolTableRecord
100
AcDbLayerTableRecord
  2
AM_2
 70
     0
 62
     1
  6
細線
370
    13
390
F
1001
AcAecLayerStandard
1000

1000

  0
LAYER
  5
AD67
330
2
100
AcDbSymbolTableRecord
100
AcDbLayerTableRecord
  2
AM_3
 70
     0
 62
     6
  6
陰線1
370
    13
390
F
1001
AcAecLayerStandard
1000

1000

  0
LAYER
  5
AD68
330
2
100
AcDbSymbolTableRecord
100
AcDbLayerTableRecord
  2
AM_5
 70
     0
 62
     3
  6
寸法線
370
    13
390
F
1001
AcAecLayerStandard
1000

1000

  0
LAYER
  5
AD69
330
2
100
AcDbSymbolTableRecord
100
AcDbLayerTableRecord
  2
AM_7
 70
     0
 62
     4
  6
中心線1
370
    13
390
F
1001
AcAecLayerStandard
1000

1000

  0
LAYER
  5
AD6A
330
2
100
AcDbSymbolTableRecord
100
AcDbLayerTableRecord
  2
AM_8
 70
     0
 62
     1
  6
ハッチング
370
    13
390
F
1001
AcAecLayerStandard
1000

1000

  0
LAYER
  5
AD6E
330
2
100
AcDbSymbolTableRecord
100
AcDbLayerTableRecord
  2
AM_10
 70
     0
 62
     7
  6
切断線
370
    13
390
F
1001
AcAecLayerStandard
1000

1000

  0
LAYER
  5
AD6F
330
2
100
AcDbSymbolTableRecord
100
AcDbLayerTableRecord
  2
AM_11
 70
     0
 62
     2
  6
想像線1
370
    13
390
F
1001
AcAecLayerStandard
1000

1000

  0
LAYER
  5
B1B6
330
2
100
AcDbSymbolTableRecord
100
AcDbLayerTableRecord
  2
AM_CL
 70
     1
 62
    -1
  6
Amconstr
370
    15
390
F
1001
AcAecLayerStandard
1000

1000

  0
LAYER
  5
B2EB
330
2
100
AcDbSymbolTableRecord
100
AcDbLayerTableRecord
  2
AM_14
 70
     0
 62
     5
  6
細線
370
     9
390
F
1001
AcAecLayerStandard
1000

1000

  0
LAYER
  5
B2EC
330
2
100
AcDbSymbolTableRecord
100
AcDbLayerTableRecord
  2
AM_15
 70
     0
 62
     6
  6
陰線1
370
     9
390
F
1001
AcAecLayerStandard
1000

1000

  0
LAYER
  5
B502
330
2
100
AcDbSymbolTableRecord
100
AcDbLayerTableRecord
  2
AM_4
 70
     0
 62
     3
  6
補助線
370
    15
390
F
1001
AcAecLayerStandard
1000

1000

  0
LAYER
  5
B546
330
2
100
AcDbSymbolTableRecord
100
AcDbLayerTableRecord
  2
1
 70
     0
 62
     7
  6
Continuous
370
    -3
390
F
  0
LAYER
  5
B791
330
2
100
AcDbSymbolTableRecord
100
AcDbLayerTableRecord
  2
想像線
 70
     0
 62
     5
  6
PHANTOM2
370
    -3
390
F
  0
LAYER
  5
B792
330
2
100
AcDbSymbolTableRecord
100
AcDbLayerTableRecord
  2
実線
 70
     0
 62
     7
  6
Continuous
370
    -3
390
F
  0
LAYER
  5
B793
330
2
100
AcDbSymbolTableRecord
100
AcDbLayerTableRecord
  2
中心線
 70
     0
 62
     2
  6
CENTER2
370
    -3
390
F
  0
LAYER
  5
B794
330
2
100
AcDbSymbolTableRecord
100
AcDbLayerTableRecord
  2
隠れ線
 70
     0
 62
     4
  6
HIDDEN2
370
    -3
390
F
  0
LAYER
  5
B795
330
2
100
AcDbSymbolTableRecord
100
AcDbLayerTableRecord
  2
細線
 70
     0
 62
     4
  6
Continuous
370
    -3
390
F
  0
LAYER
  5
B796
330
2
100
AcDbSymbolTableRecord
100
AcDbLayerTableRecord
  2
文字
 70
     0
 62
     1
  6
Continuous
370
    -3
390
F
  0
LAYER
  5
BD5F
330
2
100
AcDbSymbolTableRecord
100
AcDbLayerTableRecord
  2
2
 70
     0
 62
     7
  6
Continuous
370
    -3
390
F
  0
LAYER
  5
BD60
330
2
100
AcDbSymbolTableRecord
100
AcDbLayerTableRecord
  2
3
 70
     0
 62
     7
  6
Continuous
370
    -3
390
F
  0
ENDTAB
  0
TABLE
  2
STYLE
  5
3
330
0
100
AcDbSymbolTable
 70
     8
  0
STYLE
  5
11
330
3
100
AcDbSymbolTableRecord
100
AcDbTextStyleTableRecord
  2
STANDARD
 70
     0
 40
0.0
 41
0.7
 50
0.0
 71
     0
 42
3.2
  3
romans.shx
  4
extfont.shx
  0
STYLE
  5
56
330
3
100
AcDbSymbolTableRecord
100
AcDbTextStyleTableRecord
  2

 70
     1
 40
0.0
 41
1.0
 50
0.0
 71
     0
 42
2.5
  3
ltypeshp.shx
  4

  0
STYLE
  5
58
330
3
100
AcDbSymbolTableRecord
100
AcDbTextStyleTableRecord
  2
ACISOTS
 70
     0
 40
1.0
 41
1.0
 50
0.0
 71
     0
 42
2.5
  3
isocp.shx
  4
extfont.shx
  0
STYLE
  5
63
330
3
100
AcDbSymbolTableRecord
100
AcDbTextStyleTableRecord
  2
ACISOGDT
 70
     0
 40
0.0
 41
1.0
 50
0.0
 71
     0
 42
2.5
  3
amgdt.shx
  4

  0
STYLE
  5
A74
330
3
100
AcDbSymbolTableRecord
100
AcDbTextStyleTableRecord
  2
DIM
 70
     0
 40
0.0
 41
1.0
 50
0.0
 71
     0
 42
2.5
  3
monotxt.shx
  4
extfont.shx
  0
STYLE
  5
AC80
330
3
100
AcDbSymbolTableRecord
100
AcDbTextStyleTableRecord
  2

 70
     1
 40
0.0
 41
1.0
 50
0.0
 71
     0
 42
3.2
  3
genltshp.shx
  4

  0
STYLE
  5
B547
330
3
100
AcDbSymbolTableRecord
100
AcDbTextStyleTableRecord
  2
ACANSTS
 70
     0
 40
1.0
 41
1.0
 50
0.0
 71
     0
 42
0.2
  3
romans.shx
  4
extfont.shx
  0
STYLE
  5
B548
330
3
100
AcDbSymbolTableRecord
100
AcDbTextStyleTableRecord
  2
ACANSGDT
 70
     0
 40
0.0
 41
1.0
 50
0.0
 71
     0
 42
0.2
  3
amgdt.shx
  4

  0
ENDTAB
  0
TABLE
  2
VIEW
  5
6
330
0
100
AcDbSymbolTable
 70
     6
  0
VIEW
  5
AE1
330
6
100
AcDbSymbolTableRecord
100
AcDbViewTableRecord
  2
AM_VIEW1
 70
     0
 40
129.7276464542651
 10
1775.10588156276
 20
1793.121228859297
 41
148.5
 11
0.0
 21
0.0
 31
1.0
 12
0.0
 22
0.0
 32
0.0
 42
50.0
 43
-1370.695619172058
 44
-1370.695619172058
 50
0.0
 71
    16
281
     0
 72
     0
  0
VIEW
  5
AE2
330
6
100
AcDbSymbolTableRecord
100
AcDbViewTableRecord
  2
AM_VIEW2
 70
     0
 40
129.7276464542651
 10
1923.60588156276
 20
1793.121228859297
 41
148.5
 11
0.0
 21
0.0
 31
1.0
 12
0.0
 22
0.0
 32
0.0
 42
50.0
 43
-1370.695619172058
 44
-1370.695619172058
 50
0.0
 71
    16
281
     0
 72
     0
  0
VIEW
  5
AE3
330
6
100
AcDbSymbolTableRecord
100
AcDbViewTableRecord
  2
AM_VIEW3
 70
     0
 40
129.7276464542651
 10
1775.10588156276
 20
1712.848875313562
 41
148.5
 11
0.0
 21
0.0
 31
1.0
 12
0.0
 22
0.0
 32
0.0
 42
50.0
 43
-1370.695619172058
 44
-1370.695619172058
 50
0.0
 71
    16
281
     0
 72
     0
  0
VIEW
  5
AE4
330
6
100
AcDbSymbolTableRecord
100
AcDbViewTableRecord
  2
AM_VIEW4
 70
     0
 40
129.7276464542651
 10
1923.60588156276
 20
1712.848875313562
 41
148.5
 11
0.0
 21
0.0
 31
1.0
 12
0.0
 22
0.0
 32
0.0
 42
50.0
 43
-1370.695619172058
 44
-1370.695619172058
 50
0.0
 71
    16
281
     0
 72
     0
  0
VIEW
  5
AE5
330
6
100
AcDbSymbolTableRecord
100
AcDbViewTableRecord
  2
AM_VIEW5
 70
     0
 40
129.7276464542651
 10
1849.35588156276
 20
1752.985052086429
 41
148.5
 11
0.0
 21
0.0
 31
1.0
 12
0.0
 22
0.0
 32
0.0
 42
50.0
 43
-1370.695619172058
 44
-1370.695619172058
 50
0.0
 71
    16
281
     0
 72
     0
  0
VIEW
  5
AE6
330
6
100
AcDbSymbolTableRecord
100
AcDbViewTableRecord
  2
AM_VIEW6
 70
     0
 40
259.4526983556011
 10
1849.35588156276
 20
1752.985052086429
 41
296.99703
 11
0.0
 21
0.0
 31
1.0
 12
0.0
 22
0.0
 32
0.0
 42
50.0
 43
-1370.695619172058
 44
-1370.695619172058
 50
0.0
 71
    16
281
     0
 72
     0
  0
ENDTAB
  0
TABLE
  2
UCS
  5
7
330
0
100
AcDbSymbolTable
 70
     0
  0
ENDTAB
  0
TABLE
  2
APPID
  5
9
330
0
100
AcDbSymbolTable
 70
    55
  0
APPID
  5
12
330
9
100
AcDbSymbolTableRecord
100
AcDbRegAppTableRecord
  2
ACAD
 70
     0
  0
APPID
  5
30
330
9
100
AcDbSymbolTableRecord
100
AcDbRegAppTableRecord
  2
MCAD_NO_VIS
 70
     0
  0
APPID
  5
31
330
9
100
AcDbSymbolTableRecord
100
AcDbRegAppTableRecord
  2
ACAD_TEMP_GRAPHIC
 70
     0
  0
APPID
  5
44
330
9
100
AcDbSymbolTableRecord
100
AcDbRegAppTableRecord
  2
ACATTRIBSERVICES
 70
     0
  0
APPID
  5
7A1
330
9
100
AcDbSymbolTableRecord
100
AcDbRegAppTableRecord
  2
GENIUS_GENDIMSH_14
 70
     0
  0
APPID
  5
A49
330
9
100
AcDbSymbolTableRecord
100
AcDbRegAppTableRecord
  2
GENIUS_GENREC_14
 70
     0
  0
APPID
  5
A4A
330
9
100
AcDbSymbolTableRecord
100
AcDbRegAppTableRecord
  2
GENIUS_GENOBJ-N-REC_13
 70
     0
  0
APPID
  5
A4B
330
9
100
AcDbSymbolTableRecord
100
AcDbRegAppTableRecord
  2
GENIUS_GENODEF_13
 70
     0
  0
APPID
  5
A4C
330
9
100
AcDbSymbolTableRecord
100
AcDbRegAppTableRecord
  2
DCO15
 70
     0
  0
APPID
  5
ADC
330
9
100
AcDbSymbolTableRecord
100
AcDbRegAppTableRecord
  2
GENIUS_GENOLIS_13
 70
     0
  0
APPID
  5
ADD
330
9
100
AcDbSymbolTableRecord
100
AcDbRegAppTableRecord
  2
GENIUS_GENOENT_13
 70
     0
  0
APPID
  5
ADE
330
9
100
AcDbSymbolTableRecord
100
AcDbRegAppTableRecord
  2
GENIUS_GENOBJ-N-TIT_13
 70
     0
  0
APPID
  5
ADF
330
9
100
AcDbSymbolTableRecord
100
AcDbRegAppTableRecord
  2
GENIUS_GENTITLE_13
 70
     0
  0
APPID
  5
AE0
330
9
100
AcDbSymbolTableRecord
100
AcDbRegAppTableRecord
  2
GENIUS_GENOREF_13
 70
     0
  0
APPID
  5
AE7
330
9
100
AcDbSymbolTableRecord
100
AcDbRegAppTableRecord
  2
GENIUS_GENSCREG_15
 70
     0
  0
APPID
  5
AE8
330
9
100
AcDbSymbolTableRecord
100
AcDbRegAppTableRecord
  2
GENIUS_GENOBJ-N-SDF_13
 70
     0
  0
APPID
  5
FAF
330
9
100
AcDbSymbolTableRecord
100
AcDbRegAppTableRecord
  2
GENIUS_GENBLLY_14
 70
     0
  0
APPID
  5
FB0
330
9
100
AcDbSymbolTableRecord
100
AcDbRegAppTableRecord
  2
GENIUS_GENTRA_14
 70
     0
  0
APPID
  5
1285
330
9
100
AcDbSymbolTableRecord
100
AcDbRegAppTableRecord
  2
GENIUS_GENDTOL_13
 70
     0
  0
APPID
  5
142D
330
9
100
AcDbSymbolTableRecord
100
AcDbRegAppTableRecord
  2
GENIUS_GENOBJ-N-CEN_13
 70
     0
  0
APPID
  5
1AB5
330
9
100
AcDbSymbolTableRecord
100
AcDbRegAppTableRecord
  2
GENIUS_GENOBJ-N-CRS_13
 70
     0
  0
APPID
  5
1B36
330
9
100
AcDbSymbolTableRecord
100
AcDbRegAppTableRecord
  2
GENIUS_GENOBJ-N-HTC_13
 70
     0
  0
APPID
  5
1B37
330
9
100
AcDbSymbolTableRecord
100
AcDbRegAppTableRecord
  2
GENIUS_GENHATCH_13
 70
     0
  0
APPID
  5
216D
330
9
100
AcDbSymbolTableRecord
100
AcDbRegAppTableRecord
  2
GENIUS_GENOBJ-N-FIL_13
 70
     0
  0
APPID
  5
2356
330
9
100
AcDbSymbolTableRecord
100
AcDbRegAppTableRecord
  2
GEVID990412420
 70
     0
  0
APPID
  5
2357
330
9
100
AcDbSymbolTableRecord
100
AcDbRegAppTableRecord
  2
GEVDC
 70
     0
  0
APPID
  5
2358
330
9
100
AcDbSymbolTableRecord
100
AcDbRegAppTableRecord
  2
GEVCON
 70
     0
  0
APPID
  5
235B
330
9
100
AcDbSymbolTableRecord
100
AcDbRegAppTableRecord
  2
GEVRADREF
 70
     0
  0
APPID
  5
2360
330
9
100
AcDbSymbolTableRecord
100
AcDbRegAppTableRecord
  2
GENIUS_GENBH_13
 70
     0
  0
APPID
  5
2362
330
9
100
AcDbSymbolTableRecord
100
AcDbRegAppTableRecord
  2
GENIUS_GENOBJ-NBEHI-BHF_13
 70
     0
  0
APPID
  5
2364
330
9
100
AcDbSymbolTableRecord
100
AcDbRegAppTableRecord
  2
GENIUS_GENOBJ-NBEHI-BHB_13
 70
     0
  0
APPID
  5
2379
330
9
100
AcDbSymbolTableRecord
100
AcDbRegAppTableRecord
  2
GENIUS_GENOBJ-F-SCPASSM_13
 70
     0
  0
APPID
  5
3D74
330
9
100
AcDbSymbolTableRecord
100
AcDbRegAppTableRecord
  2
GENIUS_GENDIM_13
 70
     0
  0
APPID
  5
3D76
330
9
100
AcDbSymbolTableRecord
100
AcDbRegAppTableRecord
  2
GENIUS_GE3DTOL_13
 70
     0
  0
APPID
  5
3D9C
330
9
100
AcDbSymbolTableRecord
100
AcDbRegAppTableRecord
  2
AD_DRAW
 70
     0
  0
APPID
  5
3DE8
330
9
100
AcDbSymbolTableRecord
100
AcDbRegAppTableRecord
  2
ASURF_PCURVE_APPNAME
 70
     0
  0
APPID
  5
3DED
330
9
100
AcDbSymbolTableRecord
100
AcDbRegAppTableRecord
  2
AMG_3D2D_5.0
 70
     0
  0
APPID
  5
3E1B
330
9
100
AcDbSymbolTableRecord
100
AcDbRegAppTableRecord
  2
DESIGNERASSEMBLIES
 70
     0
  0
APPID
  5
3E20
330
9
100
AcDbSymbolTableRecord
100
AcDbRegAppTableRecord
  2
ACADM_DIM_EDIT
 70
     0
  0
APPID
  5
3E21
330
9
100
AcDbSymbolTableRecord
100
AcDbRegAppTableRecord
  2
AMDT_DM_ADJ
 70
     0
  0
APPID
  5
4143
330
9
100
AcDbSymbolTableRecord
100
AcDbRegAppTableRecord
  2
GENIUS_GENFIL_13
 70
     0
  0
APPID
  5
4144
330
9
100
AcDbSymbolTableRecord
100
AcDbRegAppTableRecord
  2
GENIUS_GENOBJ-N-CHA_13
 70
     0
  0
APPID
  5
4E17
330
9
100
AcDbSymbolTableRecord
100
AcDbRegAppTableRecord
  2
GEVID1008153417
 70
     0
  0
APPID
  5
4E58
330
9
100
AcDbSymbolTableRecord
100
AcDbRegAppTableRecord
  2
GEVID1008153418
 70
     0
  0
APPID
  5
4E5E
330
9
100
AcDbSymbolTableRecord
100
AcDbRegAppTableRecord
  2
GEVID1008153419
 70
     0
  0
APPID
  5
4E64
330
9
100
AcDbSymbolTableRecord
100
AcDbRegAppTableRecord
  2
GEVID1008153420
 70
     0
  0
APPID
  5
4E75
330
9
100
AcDbSymbolTableRecord
100
AcDbRegAppTableRecord
  2
GEVID1008153421
 70
     0
  0
APPID
  5
4EB7
330
9
100
AcDbSymbolTableRecord
100
AcDbRegAppTableRecord
  2
GENIUS_AMGTXT_16
 70
     0
  0
APPID
  5
7645
330
9
100
AcDbSymbolTableRecord
100
AcDbRegAppTableRecord
  2
GENIUS_GENOBJ-N-DIM_13
 70
     0
  0
APPID
  5
AAD0
330
9
100
AcDbSymbolTableRecord
100
AcDbRegAppTableRecord
  2
ACAD_DSTYLE_DIMARC_LENGTH_SYMBOL
 70
     0
  0
APPID
  5
AAD1
330
9
100
AcDbSymbolTableRecord
100
AcDbRegAppTableRecord
  2
ACAD_DSTYLE_DIMJOGGED_JOGANGLE_SYMBOL
 70
     0
  0
APPID
  5
AAFD
330
9
100
AcDbSymbolTableRecord
100
AcDbRegAppTableRecord
  2
ACAD_PSEXT
 70
     0
  0
APPID
  5
AD61
330
9
100
AcDbSymbolTableRecord
100
AcDbRegAppTableRecord
  2
AcAecLayerStandard
 70
     0
  0
APPID
  5
AEE3
330
9
100
AcDbSymbolTableRecord
100
AcDbRegAppTableRecord
  2
ACAD_EXEMPT_FROM_CAD_STANDARDS
 70
     0
  0
APPID
  5
B1BE
330
9
100
AcDbSymbolTableRecord
100
AcDbRegAppTableRecord
  2
GENIUS_GENCEN_19
 70
     0
  0
ENDTAB
  0
TABLE
  2
DIMSTYLE
  5
A
330
0
100
AcDbSymbolTable
 70
    24
100
AcDbDimStyleTable
 71
     1
340
2515
  0
DIMSTYLE
105
A76
330
A
100
AcDbSymbolTableRecord
100
AcDbDimStyleTableRecord
  2
STANDARD
 70
     0
 41
3.0
 42
1.0
 43
7.0
 44
2.0
 73
     0
 74
     0
 77
     1
140
2.799999999999999
141
0.0
143
0.0394
147
0.7
171
     4
172
     1
173
     1
176
     3
177
     3
178
     2
271
     3
272
     3
273
     8
274
     4
289
     0
340
A74
341
A66
343
A66
344
A66
  0
DIMSTYLE
105
2515
330
A
100
AcDbSymbolTableRecord
100
AcDbDimStyleTableRecord
  2
SYS
 70
     0
  4
"
 41
1.0
 42
1.0
 43
10.0
 44
1.0
 47
0.1
 48
0.1
 73
     0
 74
     0
 77
     1
 78
     8
 79
     2
140
3.5
141
0.0
143
0.0393701
146
0.71
147
1.5
172
     1
176
   256
177
   256
178
     7
271
     2
272
     2
283
     0
284
     8
340
11
371
    -1
372
    -1
1001
ACAD_DSTYLE_DIMJOGGED_JOGANGLE_SYMBOL
1070
   384
1040
0.7853981633974483
1001
ACAD_DSTYLE_DIMARC_LENGTH_SYMBOL
1070
   379
1070
     1
  0
DIMSTYLE
105
2516
102
{ACAD_REACTORS
330
C11D
330
C42E
102
}
330
A
100
AcDbSymbolTableRecord
100
AcDbDimStyleTableRecord
  2
SYS$3
 70
     0
  4
"
 41
2.0
 42
1.0
 43
10.0
 44
1.0
 47
0.1
 48
0.1
 73
     0
 77
     1
 78
     8
 79
     2
140
3.5
141
0.0
143
0.0393701
146
0.71
147
1.5
176
   256
177
   256
178
     2
271
     2
272
     2
283
     0
284
     8
288
     1
340
11
342
A66
371
    -1
372
    -1
1001
ACAD_DSTYLE_DIMJOGGED_JOGANGLE_SYMBOL
1070
   384
1040
0.7853981633974483
1001
ACAD_DSTYLE_DIMARC_LENGTH_SYMBOL
1070
   379
1070
     1
  0
DIMSTYLE
105
2517
330
A
100
AcDbSymbolTableRecord
100
AcDbDimStyleTableRecord
  2
SYS$4
 70
     0
  4
"
 41
2.0
 42
1.0
 43
10.0
 44
1.0
 47
0.1
 48
0.1
 73
     0
 77
     1
 78
     8
 79
     2
140
3.5
141
0.0
143
0.0393701
146
0.71
147
1.5
173
     1
176
   256
177
   256
178
     2
271
     2
272
     2
283
     0
284
     8
288
     1
340
11
344
A66
371
    -1
372
    -1
1001
ACAD_DSTYLE_DIMJOGGED_JOGANGLE_SYMBOL
1070
   384
1040
0.7853981633974483
1001
ACAD_DSTYLE_DIMARC_LENGTH_SYMBOL
1070
   379
1070
     1
  0
DIMSTYLE
105
2518
330
A
100
AcDbSymbolTableRecord
100
AcDbDimStyleTableRecord
  2
SYS$6
 70
     0
  4
"
 41
2.0
 42
1.0
 43
10.0
 44
1.0
 47
0.1
 48
0.1
 73
     0
 74
     0
 78
     8
 79
     2
140
3.5
141
0.0
143
0.0393701
146
0.71
147
1.5
172
     1
176
   256
177
   256
178
     2
271
     2
272
     2
283
     0
284
     8
340
11
341
A66
371
    -1
372
    -1
1001
ACAD_DSTYLE_DIMJOGGED_JOGANGLE_SYMBOL
1070
   384
1040
0.7853981633974483
1001
ACAD_DSTYLE_DIMARC_LENGTH_SYMBOL
1070
   379
1070
     1
  0
DIMSTYLE
105
2519
330
A
100
AcDbSymbolTableRecord
100
AcDbDimStyleTableRecord
  2
SYS$7
 70
     0
  4
"
 41
2.0
 42
1.0
 43
10.0
 44
1.0
 47
0.1
 48
0.1
 73
     0
 74
     0
 77
     1
 78
     8
 79
     2
140
5.0
141
0.0
143
0.0393701
146
0.71
147
1.5
172
     1
176
   256
177
   256
178
     2
271
     2
272
     2
283
     0
284
     8
340
11
341
A66
342
A66
371
    -1
372
    -1
1001
ACAD_DSTYLE_DIMJOGGED_JOGANGLE_SYMBOL
1070
   384
1040
0.7853981633974483
1001
ACAD_DSTYLE_DIMARC_LENGTH_SYMBOL
1070
   379
1070
     1
  0
DIMSTYLE
105
251A
330
A
100
AcDbSymbolTableRecord
100
AcDbDimStyleTableRecord
  2
SYS$SF
 70
     0
  4
"
 41
2.5
 42
1.0
 43
10.0
 44
1.0
 47
0.1
 48
0.1
 73
     0
 74
     0
 75
     1
 76
     1
 77
     1
 78
     8
 79
     2
140
3.5
141
0.0
143
0.0393701
146
0.71
147
1.5
172
     1
176
   256
177
   256
178
     2
271
     2
272
     3
283
     0
284
     8
340
11
341
6C4
342
6C4
371
    -1
372
    -1
1001
ACAD_DSTYLE_DIMJOGGED_JOGANGLE_SYMBOL
1070
   384
1040
0.7853981633974483
1001
ACAD_DSTYLE_DIMARC_LENGTH_SYMBOL
1070
   379
1070
     1
  0
DIMSTYLE
105
251B
330
A
100
AcDbSymbolTableRecord
100
AcDbDimStyleTableRecord
  2
SYS$SH
 70
     0
  4
"
 41
2.5
 42
1.0
 43
10.0
 44
1.0
 47
0.1
 48
0.1
 73
     0
 74
     0
 75
     1
 76
     1
 77
     1
 78
     8
 79
     2
140
3.5
141
0.0
143
0.0393701
144
2.0
146
0.71
147
1.5
172
     1
173
     1
176
   256
177
   256
178
     2
271
     2
272
     3
283
     0
284
     8
340
11
341
6C4
343
72
344
6C4
371
    -1
372
    -1
1001
ACAD_DSTYLE_DIMJOGGED_JOGANGLE_SYMBOL
1070
   384
1040
0.7853981633974483
1001
ACAD_DSTYLE_DIMARC_LENGTH_SYMBOL
1070
   379
1070
     1
  0
DIMSTYLE
105
2A59
330
A
100
AcDbSymbolTableRecord
100
AcDbDimStyleTableRecord
  2
SYS$2
 70
     0
  4
"
 41
1.0
 42
1.0
 43
10.0
 44
1.0
 47
0.1
 48
0.1
 73
     0
 74
     0
 77
     1
 78
     8
 79
     2
140
3.5
141
0.0
143
0.0393701
146
0.71
147
1.5
172
     1
176
   256
177
   256
178
     2
271
     2
272
     2
283
     0
284
     8
340
11
342
6C4
371
    -1
372
    -1
1001
ACAD_DSTYLE_DIMJOGGED_JOGANGLE_SYMBOL
1070
   384
1040
0.7853981633974483
1001
ACAD_DSTYLE_DIMARC_LENGTH_SYMBOL
1070
   379
1070
     1
  0
DIMSTYLE
105
2AAB
102
{ACAD_REACTORS
330
BECC
330
BEEB
330
BF01
330
BF29
330
BF79
330
BF93
330
BFAB
330
BFE0
330
BFFA
330
C014
330
C050
330
C070
330
C086
330
C09C
330
C0DF
102
}
330
A
100
AcDbSymbolTableRecord
100
AcDbDimStyleTableRecord
  2
SYS$0
 70
     0
  4
"
 41
1.0
 42
1.0
 43
10.0
 44
1.0
 47
0.1
 48
0.1
 73
     0
 74
     0
 77
     1
 78
     8
 79
     2
140
3.200000000000001
141
0.0
143
0.0393701
146
0.71
147
1.5
172
     1
176
   256
177
   256
178
     2
271
     2
272
     2
283
     0
284
     8
340
11
341
A66
342
6C4
371
    -1
372
    -1
1001
ACAD_DSTYLE_DIMJOGGED_JOGANGLE_SYMBOL
1070
   384
1040
0.7853981633974483
1001
ACAD_DSTYLE_DIMARC_LENGTH_SYMBOL
1070
   379
1070
     1
  0
DIMSTYLE
105
AF99
330
A
100
AcDbSymbolTableRecord
100
AcDbDimStyleTableRecord
  2
AM_ISO
 70
     0
  4
"
 41
2.5
 42
1.0
 43
10.0
 44
1.0
 47
0.1
 48
0.1
 73
     0
 74
     0
 77
     1
 78
     8
 79
     2
140
3.5
141
0.0
143
0.0393701
146
0.71
147
1.5
172
     1
176
   256
177
   256
178
     2
271
     2
272
     3
274
     4
283
     0
284
     8
340
11
371
    -1
372
    -1
  0
DIMSTYLE
105
AF9A
330
A
100
AcDbSymbolTableRecord
100
AcDbDimStyleTableRecord
  2
AM_ISO$3
 70
     0
  4
"
 41
2.5
 42
1.0
 43
10.0
 44
1.0
 47
0.1
 48
0.1
 73
     0
 77
     1
 78
     8
 79
     2
140
3.5
141
0.0
143
0.0393701
146
0.71
147
1.5
176
   256
177
   256
178
     2
271
     2
272
     3
274
     4
283
     0
284
     8
288
     1
289
     0
340
11
371
    -1
372
    -1
  0
DIMSTYLE
105
AF9B
330
A
100
AcDbSymbolTableRecord
100
AcDbDimStyleTableRecord
  2
AM_ISO$4
 70
     0
  4
"
 41
2.5
 42
1.0
 43
10.0
 44
1.0
 47
0.1
 48
0.1
 73
     0
 77
     1
 78
     8
 79
     2
140
3.5
141
0.0
143
0.0393701
146
0.71
147
1.5
176
   256
177
   256
178
     2
271
     2
272
     3
274
     4
283
     0
284
     8
288
     1
289
     0
340
11
371
    -1
372
    -1
  0
DIMSTYLE
105
AF9C
330
A
100
AcDbSymbolTableRecord
100
AcDbDimStyleTableRecord
  2
AM_ISO$6
 70
     0
  4
"
 41
2.5
 42
1.0
 43
10.0
 44
1.0
 47
0.1
 48
0.1
 73
     0
 74
     0
 78
     8
 79
     2
140
3.5
141
0.0
143
0.0393701
146
0.71
147
1.5
172
     1
176
   256
177
   256
178
     2
271
     2
272
     3
274
     4
283
     0
284
     8
340
11
371
    -1
372
    -1
  0
DIMSTYLE
105
AF9D
330
A
100
AcDbSymbolTableRecord
100
AcDbDimStyleTableRecord
  2
AM_ISO$7
 70
     0
  4
"
 41
2.5
 42
1.0
 43
10.0
 44
1.0
 47
0.1
 48
0.1
 73
     0
 74
     0
 77
     1
 78
     8
 79
     2
140
5.0
141
0.0
143
0.0393701
146
0.71
147
1.5
172
     1
176
   256
177
   256
178
     2
271
     2
272
     3
274
     4
283
     0
284
     8
340
11
371
    -1
372
    -1
  0
DIMSTYLE
105
AF9E
330
A
100
AcDbSymbolTableRecord
100
AcDbDimStyleTableRecord
  2
AM_ISO$SF
 70
     0
  4
"
 41
2.5
 42
1.0
 43
10.0
 44
1.0
 47
0.1
 48
0.1
 73
     0
 74
     0
 75
     1
 76
     1
 77
     1
 78
     8
 79
     2
140
3.5
141
0.0
143
0.0393701
146
0.71
147
1.5
172
     1
176
   256
177
   256
178
     2
271
     2
272
     3
274
     4
283
     0
284
     8
340
11
371
    -1
372
    -1
  0
DIMSTYLE
105
AF9F
330
A
100
AcDbSymbolTableRecord
100
AcDbDimStyleTableRecord
  2
AM_ISO$SH
 70
     0
  4
"
 41
2.5
 42
1.0
 43
10.0
 44
1.0
 47
0.1
 48
0.1
 73
     0
 74
     0
 75
     1
 76
     1
 77
     1
 78
     8
 79
     2
140
3.5
141
0.0
143
0.0393701
144
2.0
146
0.71
147
1.5
172
     1
173
     1
176
   256
177
   256
178
     2
271
     2
272
     3
274
     4
283
     0
284
     8
340
11
343
72
371
    -1
372
    -1
  0
DIMSTYLE
105
B549
330
A
100
AcDbSymbolTableRecord
100
AcDbDimStyleTableRecord
  2
AM_ANSI
 70
     0
  4
mm
 41
0.1
 42
0.05
 43
0.5
 44
0.1
 47
0.1
 48
0.1
 78
     7
 79
     2
140
0.12
141
0.0
146
0.71
147
0.06
176
   256
177
   256
178
     2
274
     4
284
     7
340
11
371
    -1
372
    -1
1001
ACAD_DSTYLE_DIMARC_LENGTH_SYMBOL
1070
   379
1070
     1
  0
DIMSTYLE
105
B54A
330
A
100
AcDbSymbolTableRecord
100
AcDbDimStyleTableRecord
  2
AM_ANSI$3
 70
     0
  4
mm
 41
0.1
 42
0.05
 43
0.5
 44
0.1
 47
0.1
 48
0.1
 78
     7
 79
     2
140
0.12
141
0.0
146
0.71
147
0.06
176
   256
177
   256
178
     2
274
     4
284
     7
288
     1
289
     0
340
11
371
    -1
372
    -1
1001
ACAD_DSTYLE_DIMARC_LENGTH_SYMBOL
1070
   379
1070
     1
  0
DIMSTYLE
105
B54B
330
A
100
AcDbSymbolTableRecord
100
AcDbDimStyleTableRecord
  2
AM_ANSI$4
 70
     0
  4
mm
 41
0.1
 42
0.05
 43
0.5
 44
0.1
 47
0.1
 48
0.1
 78
     7
 79
     2
140
0.12
141
0.0
146
0.71
147
0.06
176
   256
177
   256
178
     2
274
     4
284
     7
288
     1
289
     0
340
11
371
    -1
372
    -1
1001
ACAD_DSTYLE_DIMARC_LENGTH_SYMBOL
1070
   379
1070
     1
  0
DIMSTYLE
105
B54C
330
A
100
AcDbSymbolTableRecord
100
AcDbDimStyleTableRecord
  2
AM_ANSI$7
 70
     0
  4
mm
 41
0.1
 42
0.05
 43
0.5
 44
0.1
 47
0.1
 48
0.1
 78
     7
 79
     2
140
0.24
141
0.0
146
0.71
147
0.06
176
   256
177
   256
178
     2
274
     4
284
     7
340
11
371
    -1
372
    -1
1001
ACAD_DSTYLE_DIMARC_LENGTH_SYMBOL
1070
   379
1070
     1
  0
DIMSTYLE
105
B54D
330
A
100
AcDbSymbolTableRecord
100
AcDbDimStyleTableRecord
  2
AM_ANSI$SF
 70
     0
  4
mm
 41
0.1
 42
0.05
 43
0.5
 44
0.1
 47
0.1
 48
0.1
 75
     1
 76
     1
 78
     7
 79
     2
140
0.12
141
0.0
146
0.71
147
0.06
176
   256
177
   256
178
     2
274
     4
284
     7
340
11
371
    -1
372
    -1
1001
ACAD_DSTYLE_DIMARC_LENGTH_SYMBOL
1070
   379
1070
     1
  0
DIMSTYLE
105
B54E
330
A
100
AcDbSymbolTableRecord
100
AcDbDimStyleTableRecord
  2
AM_ANSI$SH
 70
     0
  4
mm
 41
0.1
 42
0.05
 43
0.5
 44
0.1
 47
0.1
 48
0.1
 75
     1
 76
     1
 78
     7
 79
     2
140
0.12
141
0.0
146
0.71
147
0.06
173
     1
176
   256
177
   256
178
     2
274
     4
284
     7
340
11
343
72
371
    -1
372
    -1
1001
ACAD_DSTYLE_DIMARC_LENGTH_SYMBOL
1070
   379
1070
     1
  0
DIMSTYLE
105
B797
330
A
100
AcDbSymbolTableRecord
100
AcDbDimStyleTableRecord
  2
AM_JIS
 70
     0
  4
"
 41
2.0
 42
1.0
 43
10.0
 44
1.0
 47
0.1
 48
0.1
 73
     0
 74
     0
 77
     3
 78
     8
140
3.0
141
0.0
143
0.0393701
146
0.71
147
1.6
172
     1
176
   256
177
   256
178
     1
271
     2
272
     2
279
     2
284
     8
285
     8
286
     8
340
11
  0
ENDTAB
  0
TABLE
  2
BLOCK_RECORD
  5
1
330
0
100
AcDbSymbolTable
 70
    23
  0
BLOCK_RECORD
  5
1F
102
{ACAD_XDICTIONARY
360
8A
102
}
330
1
100
AcDbSymbolTableRecord
100
AcDbBlockTableRecord
  2
*Model_Space
340
22
  0
BLOCK_RECORD
  5
1B
330
1
100
AcDbSymbolTableRecord
100
AcDbBlockTableRecord
  2
*Paper_Space
340
1E
  0
BLOCK_RECORD
  5
23
330
1
100
AcDbSymbolTableRecord
100
AcDbBlockTableRecord
  2
*Paper_Space0
340
26
  0
BLOCK_RECORD
  5
72
330
1
100
AcDbSymbolTableRecord
100
AcDbBlockTableRecord
  2
GENAXEH
340
0
  0
BLOCK_RECORD
  5
6C4
330
1
100
AcDbSymbolTableRecord
100
AcDbBlockTableRecord
  2
_Dot
340
0
102
{BLKREFS
331
C5B7
331
C5B8
331
C5C0
331
C5C1
331
C5C9
331
C5CA
331
C5D3
331
C5D4
331
C5DE
331
C5DF
331
C5E7
331
C5E8
331
C5F0
331
C5F1
331
C5FB
331
C5FC
331
C606
331
C607
331
C60F
331
C610
331
C619
331
C61A
331
C622
331
C623
331
C62B
331
C62C
331
C634
331
C635
331
C63D
331
C63E
102
}
  0
BLOCK_RECORD
  5
A66
330
1
100
AcDbSymbolTableRecord
100
AcDbBlockTableRecord
  2
_OPEN30
340
0
  0
BLOCK_RECORD
  5
BD11
330
1
100
AcDbSymbolTableRecord
100
AcDbBlockTableRecord
  2
GENDOT
340
0
102
{BLKREFS
331
C648
331
C649
331
C651
331
C652
102
}
  0
BLOCK_RECORD
  5
BECD
330
1
100
AcDbSymbolTableRecord
100
AcDbBlockTableRecord
  2
*D6
340
0
  0
BLOCK_RECORD
  5
BEEC
330
1
100
AcDbSymbolTableRecord
100
AcDbBlockTableRecord
  2
*D7
340
0
  0
BLOCK_RECORD
  5
BF02
330
1
100
AcDbSymbolTableRecord
100
AcDbBlockTableRecord
  2
*D8
340
0
  0
BLOCK_RECORD
  5
BF2A
330
1
100
AcDbSymbolTableRecord
100
AcDbBlockTableRecord
  2
*D9
340
0
  0
BLOCK_RECORD
  5
BF7A
330
1
100
AcDbSymbolTableRecord
100
AcDbBlockTableRecord
  2
*D10
340
0
  0
BLOCK_RECORD
  5
BF94
330
1
100
AcDbSymbolTableRecord
100
AcDbBlockTableRecord
  2
*D11
340
0
  0
BLOCK_RECORD
  5
BFAC
330
1
100
AcDbSymbolTableRecord
100
AcDbBlockTableRecord
  2
*D12
340
0
  0
BLOCK_RECORD
  5
BFE1
330
1
100
AcDbSymbolTableRecord
100
AcDbBlockTableRecord
  2
*D13
340
0
  0
BLOCK_RECORD
  5
BFFB
330
1
100
AcDbSymbolTableRecord
100
AcDbBlockTableRecord
  2
*D14
340
0
  0
BLOCK_RECORD
  5
C015
330
1
100
AcDbSymbolTableRecord
100
AcDbBlockTableRecord
  2
*D15
340
0
  0
BLOCK_RECORD
  5
C051
330
1
100
AcDbSymbolTableRecord
100
AcDbBlockTableRecord
  2
*D16
340
0
  0
BLOCK_RECORD
  5
C071
330
1
100
AcDbSymbolTableRecord
100
AcDbBlockTableRecord
  2
*D17
340
0
  0
BLOCK_RECORD
  5
C087
330
1
100
AcDbSymbolTableRecord
100
AcDbBlockTableRecord
  2
*D18
340
0
  0
BLOCK_RECORD
  5
C09D
330
1
100
AcDbSymbolTableRecord
100
AcDbBlockTableRecord
  2
*D19
340
0
  0
BLOCK_RECORD
  5
C0E0
330
1
100
AcDbSymbolTableRecord
100
AcDbBlockTableRecord
  2
*D20
340
0
  0
BLOCK_RECORD
  5
C11E
330
1
100
AcDbSymbolTableRecord
100
AcDbBlockTableRecord
  2
*D21
340
0
  0
BLOCK_RECORD
  5
C42F
330
1
100
AcDbSymbolTableRecord
100
AcDbBlockTableRecord
  2
*D22
340
0
  0
ENDTAB
  0
ENDSEC
  0
SECTION
  2
BLOCKS
  0
BLOCK
  5
20
330
1F
100
AcDbEntity
  8
0
100
AcDbBlockBegin
  2
*Model_Space
 70
     0
 10
0.0
 20
0.0
 30
0.0
  3
*Model_Space
  1

  0
ENDBLK
  5
21
330
1F
100
AcDbEntity
  8
0
100
AcDbBlockEnd
  0
BLOCK
  5
1C
330
1B
100
AcDbEntity
 67
     1
  8
0
100
AcDbBlockBegin
  2
*Paper_Space
 70
     0
 10
0.0
 20
0.0
 30
0.0
  3
*Paper_Space
  1

  0
ENDBLK
  5
1D
330
1B
100
AcDbEntity
 67
     1
  8
0
100
AcDbBlockEnd
  0
BLOCK
  5
24
330
23
100
AcDbEntity
 67
     1
  8
0
100
AcDbBlockBegin
  2
*Paper_Space0
 70
     0
 10
0.0
 20
0.0
 30
0.0
  3
*Paper_Space0
  1

  0
ENDBLK
  5
25
330
23
100
AcDbEntity
 67
     1
  8
0
100
AcDbBlockEnd
  0
BLOCK
  5
74
330
72
100
AcDbEntity
  8
0
100
AcDbBlockBegin
  2
GENAXEH
 70
     0
 10
0.0
 20
0.0
 30
0.0
  3
GENAXEH
  1

  0
LINE
  5
73
330
72
100
AcDbEntity
  8
0
100
AcDbLine
 10
-1.0
 20
0.0
 30
0.0
 11
1.0
 21
0.0
 31
0.0
  0
ENDBLK
  5
75
330
72
100
AcDbEntity
  8
0
100
AcDbBlockEnd
  0
BLOCK
  5
6C7
330
6C4
100
AcDbEntity
  8
0
100
AcDbBlockBegin
  2
_Dot
 70
     0
 10
0.0
 20
0.0
 30
0.0
  3
_Dot
  1

  0
LWPOLYLINE
  5
6C5
330
6C4
100
AcDbEntity
  8
0
  6
ByBlock
 62
     0
100
AcDbPolyline
 90
        2
 70
     1
 43
0.5
 10
-0.25
 20
0.0
 42
1.0
 10
0.25
 20
0.0
 42
1.0
  0
LINE
  5
6C6
330
6C4
100
AcDbEntity
  8
0
  6
ByBlock
 62
     0
370
    -2
100
AcDbLine
 10
-0.5
 20
0.0
 30
0.0
 11
-1.0
 21
0.0
 31
0.0
  0
ENDBLK
  5
6C8
330
6C4
100
AcDbEntity
  8
0
100
AcDbBlockEnd
  0
BLOCK
  5
A6A
330
A66
100
AcDbEntity
  8
0
100
AcDbBlockBegin
  2
_OPEN30
 70
     0
 10
0.0
 20
0.0
 30
0.0
  3
_OPEN30
  1

  0
LINE
  5
A67
330
A66
100
AcDbEntity
  8
0
  6
ByBlock
 62
     0
100
AcDbLine
 10
-1.0
 20
0.26794919
 30
0.0
 11
0.0
 21
0.0
 31
0.0
  0
LINE
  5
A68
330
A66
100
AcDbEntity
  8
0
  6
ByBlock
 62
     0
100
AcDbLine
 10
0.0
 20
0.0
 30
0.0
 11
-1.0
 21
-0.26794919
 31
0.0
  0
LINE
  5
A69
330
A66
100
AcDbEntity
  8
0
  6
ByBlock
 62
     0
100
AcDbLine
 10
0.0
 20
0.0
 30
0.0
 11
-1.0
 21
0.0
 31
0.0
  0
ENDBLK
  5
A6B
330
A66
100
AcDbEntity
  8
0
100
AcDbBlockEnd
  0
BLOCK
  5
BD14
330
BD11
100
AcDbEntity
  8
0
100
AcDbBlockBegin
  2
GENDOT
 70
     0
 10
0.0
 20
0.0
 30
0.0
  3
GENDOT
  1

  0
LINE
  5
BD12
330
BD11
100
AcDbEntity
  8
0
100
AcDbLine
 10
0.0
 20
0.0
 30
0.0
 11
-1.0
 21
0.0
 31
0.0
  0
LWPOLYLINE
  5
BD13
330
BD11
100
AcDbEntity
  8
0
100
AcDbPolyline
 90
        2
 70
     1
 43
0.25
 10
-0.125
 20
0.0
 42
1.0
 10
0.125
 20
0.0
 42
1.0
  0
ENDBLK
  5
BD15
330
BD11
100
AcDbEntity
  8
0
100
AcDbBlockEnd
  0
BLOCK
  5
BED7
330
BECD
100
AcDbEntity
  8
0
100
AcDbBlockBegin
  2
*D6
 70
     1
 10
0.0
 20
0.0
 30
0.0
  3
*D6
  1

  0
LINE
  5
C5B4
330
BECD
100
AcDbEntity
  8
AM_5
100
AcDbLine
 10
218.9212798163404
 20
112.1776178293317
 30
0.0
 11
218.9212798163404
 21
98.07080344833179
 31
0.0
  0
LINE
  5
C5B5
330
BECD
100
AcDbEntity
  8
AM_5
100
AcDbLine
 10
242.9212798163404
 20
112.0708034483318
 30
0.0
 11
242.9212798163404
 21
98.07080344833179
 31
0.0
  0
LINE
  5
C5B6
330
BECD
100
AcDbEntity
  8
AM_5
100
AcDbLine
 10
219.9212798163404
 20
99.07080344833179
 30
0.0
 11
241.9212798163404
 21
99.07080344833179
 31
0.0
  0
INSERT
  5
C5B7
330
BECD
100
AcDbEntity
  8
AM_5
100
AcDbBlockReference
  2
_Dot
 10
218.9212798163404
 20
99.07080344833179
 30
0.0
 50
180.0
  0
INSERT
  5
C5B8
330
BECD
100
AcDbEntity
  8
AM_5
100
AcDbBlockReference
  2
_Dot
 10
242.9212798163404
 20
99.07080344833179
 30
0.0
  0
MTEXT
  5
C5B9
330
BECD
100
AcDbEntity
  8
AM_5
 62
     2
100
AcDbMText
 10
230.9212798163404
 20
102.1708034483318
 30
0.0
 40
3.200000000000001
 41
0.0
 71
     5
 72
     1
  1
24
 73
     1
 44
1.0
1001
ACAD
1000
MTEXTBEGIN
1070
    73
1070
     1
1070
    44
1040
1.0
1070
    74
1070
     0
1000
MTEXTEND
  0
POINT
  5
C5BA
330
BECD
100
AcDbEntity
  8
Defpoints
 62
     0
100
AcDbPoint
 10
218.9212798163404
 20
113.1776178293318
 30
0.0
  0
POINT
  5
C5BB
330
BECD
100
AcDbEntity
  8
Defpoints
 62
     0
100
AcDbPoint
 10
242.9212798163404
 20
113.0708034483318
 30
0.0
  0
POINT
  5
C5BC
330
BECD
100
AcDbEntity
  8
Defpoints
 62
     0
100
AcDbPoint
 10
242.9212798163404
 20
99.07080344833179
 30
0.0
  0
ENDBLK
  5
BED8
330
BECD
100
AcDbEntity
  8
0
100
AcDbBlockEnd
  0
BLOCK
  5
BEF6
330
BEEC
100
AcDbEntity
  8
0
100
AcDbBlockBegin
  2
*D7
 70
     1
 10
0.0
 20
0.0
 30
0.0
  3
*D7
  1

  0
LINE
  5
C5BD
330
BEEC
100
AcDbEntity
  8
AM_5
100
AcDbLine
 10
248.9198302149757
 20
115.5312287288424
 30
0.0
 11
248.9198302149757
 21
88.07080344833158
 31
0.0
  0
LINE
  5
C5BE
330
BEEC
100
AcDbEntity
  8
AM_5
100
AcDbLine
 10
212.9227294177051
 20
115.5312287288424
 30
0.0
 11
212.9227294177051
 21
88.07080344833158
 31
0.0
  0
LINE
  5
C5BF
330
BEEC
100
AcDbEntity
  8
AM_5
100
AcDbLine
 10
247.9198302149757
 20
89.07080344833159
 30
0.0
 11
213.9227294177052
 21
89.07080344833159
 31
0.0
  0
INSERT
  5
C5C0
330
BEEC
100
AcDbEntity
  8
AM_5
100
AcDbBlockReference
  2
_Dot
 10
248.9198302149757
 20
89.07080344833159
 30
0.0
  0
INSERT
  5
C5C1
330
BEEC
100
AcDbEntity
  8
AM_5
100
AcDbBlockReference
  2
_Dot
 10
212.9227294177051
 20
89.07080344833159
 30
0.0
 50
180.0
  0
MTEXT
  5
C5C2
330
BEEC
100
AcDbEntity
  8
AM_5
 62
     2
100
AcDbMText
 10
230.9212798163404
 20
92.17080344833158
 30
0.0
 40
3.200000000000001
 41
0.0
 71
     5
 72
     1
  1
36
 73
     1
 44
1.0
1001
ACAD
1000
MTEXTBEGIN
1070
    73
1070
     1
1070
    44
1040
1.0
1070
    74
1070
     0
1000
MTEXTEND
  0
POINT
  5
C5C3
330
BEEC
100
AcDbEntity
  8
Defpoints
 62
     0
100
AcDbPoint
 10
248.9198302149757
 20
116.5312287288424
 30
0.0
  0
POINT
  5
C5C4
330
BEEC
100
AcDbEntity
  8
Defpoints
 62
     0
100
AcDbPoint
 10
212.9227294177051
 20
116.5312287288424
 30
0.0
  0
POINT
  5
C5C5
330
BEEC
100
AcDbEntity
  8
Defpoints
 62
     0
100
AcDbPoint
 10
212.9227294177051
 20
89.07080344833159
 30
0.0
  0
ENDBLK
  5
BEF7
330
BEEC
100
AcDbEntity
  8
0
100
AcDbBlockEnd
  0
BLOCK
  5
BF0C
330
BF02
100
AcDbEntity
  8
0
100
AcDbBlockBegin
  2
*D8
 70
     1
 10
0.0
 20
0.0
 30
0.0
  3
*D8
  1

  0
LINE
  5
C5C6
330
BF02
100
AcDbEntity
  8
AM_5
100
AcDbLine
 10
248.1279812182101
 20
122.7872750199977
 30
0.0
 11
260.1279812182101
 21
122.7872750199977
 31
0.0
  0
LINE
  5
C5C7
330
BF02
100
AcDbEntity
  8
AM_5
100
AcDbLine
 10
247.7749127701322
 20
110.3872750197806
 30
0.0
 11
260.1279812182101
 21
110.3872750197806
 31
0.0
  0
LINE
  5
C5C8
330
BF02
100
AcDbEntity
  8
AM_5
100
AcDbLine
 10
259.1279812182101
 20
121.7872750199977
 30
0.0
 11
259.1279812182101
 21
111.3872750197806
 31
0.0
  0
INSERT
  5
C5C9
330
BF02
100
AcDbEntity
  8
AM_5
100
AcDbBlockReference
  2
_Dot
 10
259.1279812182101
 20
122.7872750199977
 30
0.0
 50
90.0
  0
INSERT
  5
C5CA
330
BF02
100
AcDbEntity
  8
AM_5
100
AcDbBlockReference
  2
_Dot
 10
259.1279812182101
 20
110.3872750197806
 30
0.0
 50
270.0
  0
MTEXT
  5
C5CB
330
BF02
100
AcDbEntity
  8
AM_5
 62
     2
100
AcDbMText
 10
256.0279812182101
 20
116.5872750198892
 30
0.0
 40
3.200000000000001
 41
0.0
 71
     5
 72
     1
  1
12.5
 11
0.0000000000000001
 21
1.0
 31
0.0
 73
     1
 44
1.0
1001
ACAD
1000
MTEXTBEGIN
1070
    73
1070
     1
1070
    44
1040
1.0
1070
    74
1070
     0
1000
MTEXTEND
  0
POINT
  5
C5CC
330
BF02
100
AcDbEntity
  8
Defpoints
 62
     0
100
AcDbPoint
 10
247.1279812182102
 20
122.7872750199977
 30
0.0
  0
POINT
  5
C5CD
330
BF02
100
AcDbEntity
  8
Defpoints
 62
     0
100
AcDbPoint
 10
246.7749127701322
 20
110.3872750197806
 30
0.0
  0
POINT
  5
C5CE
330
BF02
100
AcDbEntity
  8
Defpoints
 62
     0
100
AcDbPoint
 10
259.1279812182101
 20
110.3872750197806
 30
0.0
  0
ENDBLK
  5
BF0D
330
BF02
100
AcDbEntity
  8
0
100
AcDbBlockEnd
  0
BLOCK
  5
BF34
330
BF2A
100
AcDbEntity
  8
0
100
AcDbBlockBegin
  2
*D9
 70
     1
 10
0.0
 20
0.0
 30
0.0
  3
*D9
  1

  0
LINE
  5
C5CF
330
BF2A
100
AcDbEntity
  8
AM_5
100
AcDbLine
 10
213.1067828673404
 20
117.3872750198317
 30
0.0
 11
192.3669686684524
 21
117.3872750198317
 31
0.0
  0
LINE
  5
C5D0
330
BF2A
100
AcDbEntity
  8
AM_5
100
AcDbLine
 10
213.1067828673404
 20
128.3872750198318
 30
0.0
 11
192.3669686684524
 21
128.3872750198318
 31
0.0
  0
LINE
  5
C5D1
330
BF2A
100
AcDbEntity
  8
AM_5
100
AcDbLine
 10
193.3669686684524
 20
127.3872750198318
 30
0.0
 11
193.3669686684524
 21
118.3872750198317
 31
0.0
  0
LINE
  5
C5D2
330
BF2A
100
AcDbEntity
  8
AM_5
100
AcDbLine
 10
193.3669686684524
 20
117.3872750198317
 30
0.0
 11
193.3669686684524
 21
106.8806083531651
 31
0.0
  0
INSERT
  5
C5D3
330
BF2A
100
AcDbEntity
  8
AM_5
100
AcDbBlockReference
  2
_Dot
 10
193.3669686684524
 20
128.3872750198318
 30
0.0
 50
90.0
  0
INSERT
  5
C5D4
330
BF2A
100
AcDbEntity
  8
AM_5
100
AcDbBlockReference
  2
_Dot
 10
193.3669686684524
 20
117.3872750198317
 30
0.0
 50
270.0
  0
MTEXT
  5
C5D5
330
BF2A
100
AcDbEntity
  8
AM_5
 62
     2
100
AcDbMText
 10
190.2669686684524
 20
111.6339416864984
 30
0.0
 40
3.200000000000001
 41
0.0
 71
     5
 72
     1
  1
12.5
 11
0.0000000000000001
 21
1.0
 31
0.0
 73
     1
 44
1.0
1001
ACAD
1000
MTEXTBEGIN
1070
    73
1070
     1
1070
    44
1040
1.0
1070
    74
1070
     0
1000
MTEXTEND
  0
POINT
  5
C5D6
330
BF2A
100
AcDbEntity
  8
Defpoints
 62
     0
100
AcDbPoint
 10
214.1067828673404
 20
117.3872750198317
 30
0.0
  0
POINT
  5
C5D7
330
BF2A
100
AcDbEntity
  8
Defpoints
 62
     0
100
AcDbPoint
 10
214.1067828673404
 20
128.3872750198318
 30
0.0
  0
POINT
  5
C5D8
330
BF2A
100
AcDbEntity
  8
Defpoints
 62
     0
100
AcDbPoint
 10
193.3669686684524
 20
128.3872750198318
 30
0.0
  0
ENDBLK
  5
BF35
330
BF2A
100
AcDbEntity
  8
0
100
AcDbBlockEnd
  0
BLOCK
  5
BF86
330
BF7A
100
AcDbEntity
  8
0
100
AcDbBlockBegin
  2
*D10
 70
     1
 10
0.0
 20
0.0
 30
0.0
  3
*D10
  1

  0
LINE
  5
C5D9
330
BF7A
100
AcDbEntity
  8
AM_5
100
AcDbLine
 10
80.92127981634041
 20
140.3872750198317
 30
0.0
 11
68.92127881634043
 21
140.3872750198317
 31
0.0
  0
LINE
  5
C5DA
330
BF7A
100
AcDbEntity
  8
AM_5
100
AcDbLine
 10
80.92127981634041
 20
138.8872750198318
 30
0.0
 11
68.92127881634043
 21
138.8872750198318
 31
0.0
  0
LINE
  5
C5DB
330
BF7A
100
AcDbEntity
  8
AM_5
100
AcDbLine
 10
69.92127881634043
 20
137.8872750198318
 30
0.0
 11
69.92127881634043
 21
136.8872750198318
 31
0.0
  0
LINE
  5
C5DC
330
BF7A
100
AcDbEntity
  8
AM_5
100
AcDbLine
 10
69.92127881634043
 20
141.3872750198317
 30
0.0
 11
69.92127881634043
 21
149.7606083531651
 31
0.0
  0
LINE
  5
C5DD
330
BF7A
100
AcDbEntity
  8
AM_5
100
AcDbLine
 10
69.92127881634043
 20
138.8872750198318
 30
0.0
 11
69.92127881634043
 21
140.3872750198317
 31
0.0
  0
INSERT
  5
C5DE
330
BF7A
100
AcDbEntity
  8
AM_5
100
AcDbBlockReference
  2
_Dot
 10
69.92127881634043
 20
138.8872750198318
 30
0.0
 50
90.0
  0
INSERT
  5
C5DF
330
BF7A
100
AcDbEntity
  8
AM_5
100
AcDbBlockReference
  2
_Dot
 10
69.92127881634043
 20
140.3872750198317
 30
0.0
 50
270.0
  0
MTEXT
  5
C5E0
330
BF7A
100
AcDbEntity
  8
AM_5
 62
     2
100
AcDbMText
 10
66.82127881634042
 20
146.0739416864984
 30
0.0
 40
3.200000000000001
 41
0.0
 71
     5
 72
     1
  1
1.5
 11
0.0000000000000001
 21
1.0
 31
0.0
 73
     1
 44
1.0
1001
ACAD
1000
MTEXTBEGIN
1070
    73
1070
     1
1070
    44
1040
1.0
1070
    74
1070
     0
1000
MTEXTEND
  0
POINT
  5
C5E1
330
BF7A
100
AcDbEntity
  8
Defpoints
 62
     0
100
AcDbPoint
 10
81.92127981634042
 20
140.3872750198317
 30
0.0
  0
POINT
  5
C5E2
330
BF7A
100
AcDbEntity
  8
Defpoints
 62
     0
100
AcDbPoint
 10
81.92127981634042
 20
138.8872750198318
 30
0.0
  0
POINT
  5
C5E3
330
BF7A
100
AcDbEntity
  8
Defpoints
 62
     0
100
AcDbPoint
 10
69.92127881634043
 20
138.8872750198318
 30
0.0
  0
ENDBLK
  5
BF87
330
BF7A
100
AcDbEntity
  8
0
100
AcDbBlockEnd
  0
BLOCK
  5
BF9F
330
BF94
100
AcDbEntity
  8
0
100
AcDbBlockBegin
  2
*D11
 70
     1
 10
0.0
 20
0.0
 30
0.0
  3
*D11
  1

  0
LINE
  5
C5E4
330
BF94
100
AcDbEntity
  8
AM_5
100
AcDbLine
 10
80.92127981634041
 20
140.3872750198317
 30
0.0
 11
58.9212788163404
 21
140.3872750198318
 31
0.0
  0
LINE
  5
C5E5
330
BF94
100
AcDbEntity
  8
AM_5
100
AcDbLine
 10
80.92127981634041
 20
134.3872750198318
 30
0.0
 11
58.9212788163404
 21
134.3872750198318
 31
0.0
  0
LINE
  5
C5E6
330
BF94
100
AcDbEntity
  8
AM_5
100
AcDbLine
 10
59.9212788163404
 20
139.3872750198318
 30
0.0
 11
59.9212788163404
 21
135.3872750198318
 31
0.0
  0
INSERT
  5
C5E7
330
BF94
100
AcDbEntity
  8
AM_5
100
AcDbBlockReference
  2
_Dot
 10
59.9212788163404
 20
140.3872750198318
 30
0.0
 50
90.0
  0
INSERT
  5
C5E8
330
BF94
100
AcDbEntity
  8
AM_5
100
AcDbBlockReference
  2
_Dot
 10
59.9212788163404
 20
134.3872750198318
 30
0.0
 50
270.0
  0
MTEXT
  5
C5E9
330
BF94
100
AcDbEntity
  8
AM_5
 62
     2
100
AcDbMText
 10
56.82127881634038
 20
137.3872750198318
 30
0.0
 40
3.200000000000001
 41
0.0
 71
     5
 72
     1
  1
6
 11
0.0000000000000001
 21
1.0
 31
0.0
 73
     1
 44
1.0
1001
ACAD
1000
MTEXTBEGIN
1070
    73
1070
     1
1070
    44
1040
1.0
1070
    74
1070
     0
1000
MTEXTEND
  0
POINT
  5
C5EA
330
BF94
100
AcDbEntity
  8
Defpoints
 62
     0
100
AcDbPoint
 10
81.92127981634042
 20
140.3872750198317
 30
0.0
  0
POINT
  5
C5EB
330
BF94
100
AcDbEntity
  8
Defpoints
 62
     0
100
AcDbPoint
 10
81.92127981634042
 20
134.3872750198318
 30
0.0
  0
POINT
  5
C5EC
330
BF94
100
AcDbEntity
  8
Defpoints
 62
     0
100
AcDbPoint
 10
59.9212788163404
 20
134.3872750198318
 30
0.0
  0
ENDBLK
  5
BFA0
330
BF94
100
AcDbEntity
  8
0
100
AcDbBlockEnd
  0
BLOCK
  5
BFB6
330
BFAC
100
AcDbEntity
  8
0
100
AcDbBlockBegin
  2
*D12
 70
     1
 10
0.0
 20
0.0
 30
0.0
  3
*D12
  1

  0
LINE
  5
C5ED
330
BFAC
100
AcDbEntity
  8
AM_5
100
AcDbLine
 10
80.92127981634041
 20
140.3872750198317
 30
0.0
 11
48.92127881634038
 21
140.3872750198318
 31
0.0
  0
LINE
  5
C5EE
330
BFAC
100
AcDbEntity
  8
AM_5
100
AcDbLine
 10
79.92127981634041
 20
125.3872750198318
 30
0.0
 11
48.92127881634038
 21
125.3872750198318
 31
0.0
  0
LINE
  5
C5EF
330
BFAC
100
AcDbEntity
  8
AM_5
100
AcDbLine
 10
49.92127881634038
 20
139.3872750198318
 30
0.0
 11
49.92127881634038
 21
126.3872750198318
 31
0.0
  0
INSERT
  5
C5F0
330
BFAC
100
AcDbEntity
  8
AM_5
100
AcDbBlockReference
  2
_Dot
 10
49.92127881634038
 20
140.3872750198318
 30
0.0
 50
90.0
  0
INSERT
  5
C5F1
330
BFAC
100
AcDbEntity
  8
AM_5
100
AcDbBlockReference
  2
_Dot
 10
49.92127881634038
 20
125.3872750198318
 30
0.0
 50
270.0
  0
MTEXT
  5
C5F2
330
BFAC
100
AcDbEntity
  8
AM_5
 62
     2
100
AcDbMText
 10
46.82127881634036
 20
132.8872750198318
 30
0.0
 40
3.200000000000001
 41
0.0
 71
     5
 72
     1
  1
15
 11
0.0000000000000001
 21
1.0
 31
0.0
 73
     1
 44
1.0
1001
ACAD
1000
MTEXTBEGIN
1070
    73
1070
     1
1070
    44
1040
1.0
1070
    74
1070
     0
1000
MTEXTEND
  0
POINT
  5
C5F3
330
BFAC
100
AcDbEntity
  8
Defpoints
 62
     0
100
AcDbPoint
 10
81.92127981634042
 20
140.3872750198317
 30
0.0
  0
POINT
  5
C5F4
330
BFAC
100
AcDbEntity
  8
Defpoints
 62
     0
100
AcDbPoint
 10
80.92127981634041
 20
125.3872750198318
 30
0.0
  0
POINT
  5
C5F5
330
BFAC
100
AcDbEntity
  8
Defpoints
 62
     0
100
AcDbPoint
 10
49.92127881634038
 20
125.3872750198318
 30
0.0
  0
ENDBLK
  5
BFB7
330
BFAC
100
AcDbEntity
  8
0
100
AcDbBlockEnd
  0
BLOCK
  5
BFED
330
BFE1
100
AcDbEntity
  8
0
100
AcDbBlockBegin
  2
*D13
 70
     1
 10
0.0
 20
0.0
 30
0.0
  3
*D13
  1

  0
LINE
  5
C5F6
330
BFE1
100
AcDbEntity
  8
AM_5
100
AcDbLine
 10
160.6712798163404
 20
128.3872750198318
 30
0.0
 11
179.563105553941
 21
128.3872750198318
 31
0.0
  0
LINE
  5
C5F7
330
BFE1
100
AcDbEntity
  8
AM_5
100
AcDbLine
 10
160.6712798163404
 20
125.3872750198317
 30
0.0
 11
179.563105553941
 21
125.3872750198317
 31
0.0
  0
LINE
  5
C5F8
330
BFE1
100
AcDbEntity
  8
AM_5
100
AcDbLine
 10
178.563105553941
 20
129.3872750198318
 30
0.0
 11
178.563105553941
 21
130.3872750198318
 31
0.0
  0
LINE
  5
C5F9
330
BFE1
100
AcDbEntity
  8
AM_5
100
AcDbLine
 10
178.563105553941
 20
124.3872750198317
 30
0.0
 11
178.563105553941
 21
118.8939416864984
 31
0.0
  0
LINE
  5
C5FA
330
BFE1
100
AcDbEntity
  8
AM_5
100
AcDbLine
 10
178.563105553941
 20
128.3872750198318
 30
0.0
 11
178.563105553941
 21
125.3872750198317
 31
0.0
  0
INSERT
  5
C5FB
330
BFE1
100
AcDbEntity
  8
AM_5
100
AcDbBlockReference
  2
_Dot
 10
178.563105553941
 20
128.3872750198318
 30
0.0
 50
270.0
  0
INSERT
  5
C5FC
330
BFE1
100
AcDbEntity
  8
AM_5
100
AcDbBlockReference
  2
_Dot
 10
178.563105553941
 20
125.3872750198317
 30
0.0
 50
90.0
  0
MTEXT
  5
C5FD
330
BFE1
100
AcDbEntity
  8
AM_5
 62
     2
100
AcDbMText
 10
175.463105553941
 20
121.1406083531651
 30
0.0
 40
3.200000000000001
 41
0.0
 71
     5
 72
     1
  1
3
 11
0.0000000000000001
 21
1.0
 31
0.0
 73
     1
 44
1.0
1001
ACAD
1000
MTEXTBEGIN
1070
    73
1070
     1
1070
    44
1040
1.0
1070
    74
1070
     0
1000
MTEXTEND
  0
POINT
  5
C5FE
330
BFE1
100
AcDbEntity
  8
Defpoints
 62
     0
100
AcDbPoint
 10
159.6712798163404
 20
128.3872750198318
 30
0.0
  0
POINT
  5
C5FF
330
BFE1
100
AcDbEntity
  8
Defpoints
 62
     0
100
AcDbPoint
 10
159.6712798163404
 20
125.3872750198318
 30
0.0
  0
POINT
  5
C600
330
BFE1
100
AcDbEntity
  8
Defpoints
 62
     0
100
AcDbPoint
 10
178.563105553941
 20
125.3872750198317
 30
0.0
  0
ENDBLK
  5
BFEE
330
BFE1
100
AcDbEntity
  8
0
100
AcDbBlockEnd
  0
BLOCK
  5
C007
330
BFFB
100
AcDbEntity
  8
0
100
AcDbBlockBegin
  2
*D14
 70
     1
 10
0.0
 20
0.0
 30
0.0
  3
*D14
  1

  0
LINE
  5
C601
330
BFFB
100
AcDbEntity
  8
AM_5
100
AcDbLine
 10
249.9212798163404
 20
53.40170290414722
 30
0.0
 11
261.9212808163404
 21
53.40170290414722
 31
0.0
  0
LINE
  5
C602
330
BFFB
100
AcDbEntity
  8
AM_5
100
AcDbLine
 10
249.9212798163404
 20
54.90170290414721
 30
0.0
 11
261.9212808163404
 21
54.90170290414721
 31
0.0
  0
LINE
  5
C603
330
BFFB
100
AcDbEntity
  8
AM_5
100
AcDbLine
 10
260.9212808163404
 20
55.90170290414722
 30
0.0
 11
260.9212808163404
 21
56.90170290414721
 31
0.0
  0
LINE
  5
C604
330
BFFB
100
AcDbEntity
  8
AM_5
100
AcDbLine
 10
260.9212808163404
 20
52.40170290414721
 30
0.0
 11
260.9212808163404
 21
44.02836957081386
 31
0.0
  0
LINE
  5
C605
330
BFFB
100
AcDbEntity
  8
AM_5
100
AcDbLine
 10
260.9212808163404
 20
54.90170290414721
 30
0.0
 11
260.9212808163404
 21
53.40170290414722
 31
0.0
  0
INSERT
  5
C606
330
BFFB
100
AcDbEntity
  8
AM_5
100
AcDbBlockReference
  2
_Dot
 10
260.9212808163404
 20
54.90170290414721
 30
0.0
 50
270.0
  0
INSERT
  5
C607
330
BFFB
100
AcDbEntity
  8
AM_5
100
AcDbBlockReference
  2
_Dot
 10
260.9212808163404
 20
53.40170290414722
 30
0.0
 50
90.0
  0
MTEXT
  5
C608
330
BFFB
100
AcDbEntity
  8
AM_5
 62
     2
100
AcDbMText
 10
257.8212808163404
 20
47.71503623748057
 30
0.0
 40
3.200000000000001
 41
0.0
 71
     5
 72
     1
  1
1.5
 11
0.0000000000000001
 21
1.0
 31
0.0
 73
     1
 44
1.0
1001
ACAD
1000
MTEXTBEGIN
1070
    73
1070
     1
1070
    44
1040
1.0
1070
    74
1070
     0
1000
MTEXTEND
  0
POINT
  5
C609
330
BFFB
100
AcDbEntity
  8
Defpoints
 62
     0
100
AcDbPoint
 10
248.9212798163404
 20
53.40170290414722
 30
0.0
  0
POINT
  5
C60A
330
BFFB
100
AcDbEntity
  8
Defpoints
 62
     0
100
AcDbPoint
 10
248.9212798163404
 20
54.90170290414721
 30
0.0
  0
POINT
  5
C60B
330
BFFB
100
AcDbEntity
  8
Defpoints
 62
     0
100
AcDbPoint
 10
260.9212808163404
 20
54.90170290414721
 30
0.0
  0
ENDBLK
  5
C008
330
BFFB
100
AcDbEntity
  8
0
100
AcDbBlockEnd
  0
BLOCK
  5
C01F
330
C015
100
AcDbEntity
  8
0
100
AcDbBlockBegin
  2
*D15
 70
     1
 10
0.0
 20
0.0
 30
0.0
  3
*D15
  1

  0
LINE
  5
C60C
330
C015
100
AcDbEntity
  8
AM_5
100
AcDbLine
 10
249.9212798163404
 20
53.40170290414722
 30
0.0
 11
271.9212808163403
 21
53.40170290414722
 31
0.0
  0
LINE
  5
C60D
330
C015
100
AcDbEntity
  8
AM_5
100
AcDbLine
 10
245.1634465903404
 20
62.90170290414721
 30
0.0
 11
271.9212808163403
 21
62.90170290414721
 31
0.0
  0
LINE
  5
C60E
330
C015
100
AcDbEntity
  8
AM_5
100
AcDbLine
 10
270.9212808163403
 20
54.40170290414721
 30
0.0
 11
270.9212808163403
 21
61.90170290414721
 31
0.0
  0
INSERT
  5
C60F
330
C015
100
AcDbEntity
  8
AM_5
100
AcDbBlockReference
  2
_Dot
 10
270.9212808163403
 20
53.40170290414722
 30
0.0
 50
270.0
  0
INSERT
  5
C610
330
C015
100
AcDbEntity
  8
AM_5
100
AcDbBlockReference
  2
_Dot
 10
270.9212808163403
 20
62.90170290414721
 30
0.0
 50
90.0
  0
MTEXT
  5
C611
330
C015
100
AcDbEntity
  8
AM_5
 62
     2
100
AcDbMText
 10
267.8212808163403
 20
58.15170290414726
 30
0.0
 40
3.200000000000001
 41
0.0
 71
     5
 72
     1
  1
10
 11
0.0000000000000001
 21
1.0
 31
0.0
 73
     1
 44
1.0
1001
ACAD
1000
MTEXTBEGIN
1070
    73
1070
     1
1070
    44
1040
1.0
1070
    74
1070
     0
1000
MTEXTEND
  0
POINT
  5
C612
330
C015
100
AcDbEntity
  8
Defpoints
 62
     0
100
AcDbPoint
 10
248.9212798163404
 20
53.40170290414722
 30
0.0
  0
POINT
  5
C613
330
C015
100
AcDbEntity
  8
Defpoints
 62
     0
100
AcDbPoint
 10
244.1634465903404
 20
62.90170290414721
 30
0.0
  0
POINT
  5
C614
330
C015
100
AcDbEntity
  8
Defpoints
 62
     0
100
AcDbPoint
 10
270.9212808163403
 20
62.90170290414721
 30
0.0
  0
ENDBLK
  5
C020
330
C015
100
AcDbEntity
  8
0
100
AcDbBlockEnd
  0
BLOCK
  5
C05B
330
C051
100
AcDbEntity
  8
0
100
AcDbBlockBegin
  2
*D16
 70
     1
 10
0.0
 20
0.0
 30
0.0
  3
*D16
  1

  0
LINE
  5
C615
330
C051
100
AcDbEntity
  8
AM_5
100
AcDbLine
 10
169.6615655817812
 20
68.90170290453454
 30
0.0
 11
178.1203653315739
 21
68.90170290453454
 31
0.0
  0
LINE
  5
C616
330
C051
100
AcDbEntity
  8
AM_5
100
AcDbLine
 10
169.6615655817812
 20
56.90170290414721
 30
0.0
 11
178.1203653315739
 21
56.9017029041472
 31
0.0
  0
LINE
  5
C617
330
C051
100
AcDbEntity
  8
AM_5
100
AcDbLine
 10
177.1203653315739
 20
57.90170290414721
 30
0.0
 11
177.1203653315739
 21
67.90170290453454
 31
0.0
  0
LINE
  5
C618
330
C051
100
AcDbEntity
  8
AM_5
100
AcDbLine
 10
177.1203653315739
 20
68.90170290453454
 30
0.0
 11
177.1203653315739
 21
78.66105829145874
 31
0.0
  0
INSERT
  5
C619
330
C051
100
AcDbEntity
  8
AM_5
100
AcDbBlockReference
  2
_Dot
 10
177.1203653315739
 20
56.9017029041472
 30
0.0
 50
270.0
  0
INSERT
  5
C61A
330
C051
100
AcDbEntity
  8
AM_5
100
AcDbBlockReference
  2
_Dot
 10
177.1203653315739
 20
68.90170290453454
 30
0.0
 50
90.0
  0
MTEXT
  5
C61B
330
C051
100
AcDbEntity
  8
AM_5
 62
     2
100
AcDbMText
 10
174.0203653315739
 20
75.50772495812544
 30
0.0
 40
3.200000000000001
 41
0.0
 71
     5
 72
     1
  1
12
 11
0.0000000000000001
 21
1.0
 31
0.0
 73
     1
 44
1.0
1001
ACAD
1000
MTEXTBEGIN
1070
    73
1070
     1
1070
    44
1040
1.0
1070
    74
1070
     0
1000
MTEXTEND
  0
POINT
  5
C61C
330
C051
100
AcDbEntity
  8
Defpoints
 62
     0
100
AcDbPoint
 10
168.6615655817812
 20
68.90170290453454
 30
0.0
  0
POINT
  5
C61D
330
C051
100
AcDbEntity
  8
Defpoints
 62
     0
100
AcDbPoint
 10
168.6615655817812
 20
56.90170290414721
 30
0.0
  0
POINT
  5
C61E
330
C051
100
AcDbEntity
  8
Defpoints
 62
     0
100
AcDbPoint
 10
177.1203653315739
 20
56.9017029041472
 30
0.0
  0
ENDBLK
  5
C05C
330
C051
100
AcDbEntity
  8
0
100
AcDbBlockEnd
  0
BLOCK
  5
C07B
330
C071
100
AcDbEntity
  8
0
100
AcDbBlockBegin
  2
*D17
 70
     1
 10
0.0
 20
0.0
 30
0.0
  3
*D17
  1

  0
LINE
  5
C61F
330
C071
100
AcDbEntity
  8
AM_5
100
AcDbLine
 10
81.92127981630767
 20
80.90170290412265
 30
0.0
 11
81.92127981630767
 21
92.90170290414721
 31
0.0
  0
LINE
  5
C620
330
C071
100
AcDbEntity
  8
AM_5
100
AcDbLine
 10
99.92127981634041
 20
80.90170290414722
 30
0.0
 11
99.92127981634041
 21
92.90170290414721
 31
0.0
  0
LINE
  5
C621
330
C071
100
AcDbEntity
  8
AM_5
100
AcDbLine
 10
82.92127981630768
 20
91.90170290414721
 30
0.0
 11
98.92127981634041
 21
91.90170290414721
 31
0.0
  0
INSERT
  5
C622
330
C071
100
AcDbEntity
  8
AM_5
100
AcDbBlockReference
  2
_Dot
 10
81.92127981630767
 20
91.90170290414721
 30
0.0
 50
180.0
  0
INSERT
  5
C623
330
C071
100
AcDbEntity
  8
AM_5
100
AcDbBlockReference
  2
_Dot
 10
99.92127981634041
 20
91.90170290414721
 30
0.0
  0
MTEXT
  5
C624
330
C071
100
AcDbEntity
  8
AM_5
 62
     2
100
AcDbMText
 10
90.92127981632405
 20
95.0017029041472
 30
0.0
 40
3.200000000000001
 41
0.0
 71
     5
 72
     1
  1
18
 73
     1
 44
1.0
1001
ACAD
1000
MTEXTBEGIN
1070
    73
1070
     1
1070
    44
1040
1.0
1070
    74
1070
     0
1000
MTEXTEND
  0
POINT
  5
C625
330
C071
100
AcDbEntity
  8
Defpoints
 62
     0
100
AcDbPoint
 10
81.92127981630767
 20
79.90170290412265
 30
0.0
  0
POINT
  5
C626
330
C071
100
AcDbEntity
  8
Defpoints
 62
     0
100
AcDbPoint
 10
99.92127981634041
 20
79.90170290414721
 30
0.0
  0
POINT
  5
C627
330
C071
100
AcDbEntity
  8
Defpoints
 62
     0
100
AcDbPoint
 10
99.92127981634041
 20
91.90170290414721
 30
0.0
  0
ENDBLK
  5
C07C
330
C071
100
AcDbEntity
  8
0
100
AcDbBlockEnd
  0
BLOCK
  5
C091
330
C087
100
AcDbEntity
  8
0
100
AcDbBlockBegin
  2
*D18
 70
     1
 10
0.0
 20
0.0
 30
0.0
  3
*D18
  1

  0
LINE
  5
C628
330
C087
100
AcDbEntity
  8
AM_5
100
AcDbLine
 10
89.92127981634041
 20
82.90170290414721
 30
0.0
 11
58.59516240104962
 21
82.90170290414721
 31
0.0
  0
LINE
  5
C629
330
C087
100
AcDbEntity
  8
AM_5
100
AcDbLine
 10
89.92127981634041
 20
42.90170290414721
 30
0.0
 11
58.5951624010496
 21
42.90170290414722
 31
0.0
  0
LINE
  5
C62A
330
C087
100
AcDbEntity
  8
AM_5
100
AcDbLine
 10
59.59516240104962
 20
81.90170290414721
 30
0.0
 11
59.5951624010496
 21
43.90170290414721
 31
0.0
  0
INSERT
  5
C62B
330
C087
100
AcDbEntity
  8
AM_5
100
AcDbBlockReference
  2
_Dot
 10
59.59516240104962
 20
82.90170290414721
 30
0.0
 50
90.0
  0
INSERT
  5
C62C
330
C087
100
AcDbEntity
  8
AM_5
100
AcDbBlockReference
  2
_Dot
 10
59.5951624010496
 20
42.90170290414722
 30
0.0
 50
270.0
  0
MTEXT
  5
C62D
330
C087
100
AcDbEntity
  8
AM_5
 62
     2
100
AcDbMText
 10
56.49516240104961
 20
75.90125798334856
 30
0.0
 40
3.200000000000001
 41
0.0
 71
     5
 72
     1
  1
40
 11
0.0000000000000001
 21
1.0
 31
0.0
 73
     1
 44
1.0
1001
ACAD
1000
MTEXTBEGIN
1070
    73
1070
     1
1070
    44
1040
1.0
1070
    74
1070
     0
1000
MTEXTEND
  0
POINT
  5
C62E
330
C087
100
AcDbEntity
  8
Defpoints
 62
     0
100
AcDbPoint
 10
90.92127981634041
 20
82.90170290414721
 30
0.0
  0
POINT
  5
C62F
330
C087
100
AcDbEntity
  8
Defpoints
 62
     0
100
AcDbPoint
 10
90.92127981634041
 20
42.90170290414721
 30
0.0
  0
POINT
  5
C630
330
C087
100
AcDbEntity
  8
Defpoints
 62
     0
100
AcDbPoint
 10
59.5951624010496
 20
42.90170290414722
 30
0.0
  0
ENDBLK
  5
C092
330
C087
100
AcDbEntity
  8
0
100
AcDbBlockEnd
  0
BLOCK
  5
C0A7
330
C09D
100
AcDbEntity
  8
0
100
AcDbBlockBegin
  2
*D19
 70
     1
 10
0.0
 20
0.0
 30
0.0
  3
*D19
  1

  0
LINE
  5
C631
330
C09D
100
AcDbEntity
  8
AM_5
100
AcDbLine
 10
85.19838414934042
 20
78.40170290414722
 30
0.0
 11
68.85294630556076
 21
78.40170290414722
 31
0.0
  0
LINE
  5
C632
330
C09D
100
AcDbEntity
  8
AM_5
100
AcDbLine
 10
85.19838414934042
 20
47.40170290414721
 30
0.0
 11
68.85294630556076
 21
47.40170290414722
 31
0.0
  0
LINE
  5
C633
330
C09D
100
AcDbEntity
  8
AM_5
100
AcDbLine
 10
69.85294630556076
 20
77.40170290414721
 30
0.0
 11
69.85294630556076
 21
48.40170290414722
 31
0.0
  0
INSERT
  5
C634
330
C09D
100
AcDbEntity
  8
AM_5
100
AcDbBlockReference
  2
_Dot
 10
69.85294630556076
 20
78.40170290414722
 30
0.0
 50
90.0
  0
INSERT
  5
C635
330
C09D
100
AcDbEntity
  8
AM_5
100
AcDbBlockReference
  2
_Dot
 10
69.85294630556076
 20
47.40170290414722
 30
0.0
 50
270.0
  0
MTEXT
  5
C636
330
C09D
100
AcDbEntity
  8
AM_5
 62
     2
100
AcDbMText
 10
66.75294630556075
 20
73.6838074704844
 30
0.0
 40
3.200000000000001
 41
0.0
 71
     5
 72
     1
  1
（31）
 11
0.0000000000000001
 21
1.0
 31
0.0
 73
     1
 44
1.0
1001
ACAD
1000
MTEXTBEGIN
1070
    73
1070
     1
1070
    44
1040
1.0
1070
    74
1070
     0
1000
MTEXTEND
  0
POINT
  5
C637
330
C09D
100
AcDbEntity
  8
Defpoints
 62
     0
100
AcDbPoint
 10
86.19838414934042
 20
78.40170290414722
 30
0.0
  0
POINT
  5
C638
330
C09D
100
AcDbEntity
  8
Defpoints
 62
     0
100
AcDbPoint
 10
86.19838414934042
 20
47.40170290414721
 30
0.0
  0
POINT
  5
C639
330
C09D
100
AcDbEntity
  8
Defpoints
 62
     0
100
AcDbPoint
 10
69.85294630556076
 20
47.40170290414722
 30
0.0
  0
ENDBLK
  5
C0A8
330
C09D
100
AcDbEntity
  8
0
100
AcDbBlockEnd
  0
BLOCK
  5
C0EA
330
C0E0
100
AcDbEntity
  8
0
100
AcDbBlockBegin
  2
*D20
 70
     1
 10
0.0
 20
0.0
 30
0.0
  3
*D20
  1

  0
LINE
  5
C63A
330
C0E0
100
AcDbEntity
  8
AM_5
100
AcDbLine
 10
30.42127981634042
 20
61.90170290414721
 30
0.0
 11
30.42127981634041
 21
33.21046310957417
 31
0.0
  0
LINE
  5
C63B
330
C0E0
100
AcDbEntity
  8
AM_5
100
AcDbLine
 10
230.9212798163404
 20
48.45411683664725
 30
0.0
 11
230.9212798163404
 21
33.21046310957417
 31
0.0
  0
LINE
  5
C63C
330
C0E0
100
AcDbEntity
  8
AM_5
100
AcDbLine
 10
31.42127981634042
 20
34.21046310957417
 30
0.0
 11
229.9212798163404
 21
34.21046310957417
 31
0.0
  0
INSERT
  5
C63D
330
C0E0
100
AcDbEntity
  8
AM_5
100
AcDbBlockReference
  2
_Dot
 10
30.42127981634042
 20
34.21046310957417
 30
0.0
 50
180.0
  0
INSERT
  5
C63E
330
C0E0
100
AcDbEntity
  8
AM_5
100
AcDbBlockReference
  2
_Dot
 10
230.9212798163404
 20
34.21046310957417
 30
0.0
  0
MTEXT
  5
C63F
330
C0E0
100
AcDbEntity
  8
AM_5
 62
     2
100
AcDbMText
 10
130.6712798163404
 20
37.31046310957417
 30
0.0
 40
3.200000000000001
 41
0.0
 71
     5
 72
     1
  1
L
 73
     1
 44
1.0
1001
ACAD
1000
MTEXTBEGIN
1070
    73
1070
     1
1070
    44
1040
1.0
1070
    74
1070
     0
1000
MTEXTEND
  0
POINT
  5
C640
330
C0E0
100
AcDbEntity
  8
Defpoints
 62
     0
100
AcDbPoint
 10
30.42127981634042
 20
62.90170290414721
 30
0.0
  0
POINT
  5
C641
330
C0E0
100
AcDbEntity
  8
Defpoints
 62
     0
100
AcDbPoint
 10
230.9212798163404
 20
49.45411683664724
 30
0.0
  0
POINT
  5
C642
330
C0E0
100
AcDbEntity
  8
Defpoints
 62
     0
100
AcDbPoint
 10
230.9212798163404
 20
34.21046310957417
 30
0.0
  0
ENDBLK
  5
C0EB
330
C0E0
100
AcDbEntity
  8
0
100
AcDbBlockEnd
  0
BLOCK
  5
C127
330
C11E
100
AcDbEntity
  8
0
100
AcDbBlockBegin
  2
*D21
 70
     1
 10
0.0
 20
0.0
 30
0.0
  3
*D21
  1

  0
LINE
  5
C643
330
C11E
100
AcDbEntity
  8
AM_5
100
AcDbLine
 10
129.9818758427288
 20
91.84888783598449
 30
0.0
 11
106.5252091760621
 21
91.8488878359845
 31
0.0
  0
LINE
  5
C644
330
C11E
100
AcDbEntity
  8
AM_5
100
AcDbLine
 10
106.5252091760621
 20
91.8488878359845
 30
0.0
 11
94.70886715758032
 21
81.6657773721212
 31
0.0
  0
LINE
  5
C645
330
C11E
100
AcDbEntity
  8
AM_5
100
AcDbLine
 10
87.13369247510064
 20
75.1376284361731
 30
0.0
 11
85.61865753860471
 21
73.8319986489835
 31
0.0
  0
MTEXT
  5
C646
330
C11E
100
AcDbEntity
  8
AM_5
 62
     2
100
AcDbMText
 10
119.0035425093954
 20
95.09888783598446
 30
0.0
 40
3.5
 41
0.0
 71
     5
 72
     1
  1
2-%%c3×%%c6サラ
 73
     1
 44
1.0
1001
ACAD
1000
MTEXTBEGIN
1070
    73
1070
     1
1070
    44
1040
1.0
1070
    74
1070
     0
1000
MTEXTEND
  0
LINE
  5
C647
330
C11E
100
AcDbEntity
  8
AM_5
100
AcDbLine
 10
88.64872741159656
 20
76.44325822336272
 30
0.0
 11
93.1938322210844
 21
80.36014758493159
 31
0.0
  0
INSERT
  5
C648
330
C11E
100
AcDbEntity
  8
AM_5
100
AcDbBlockReference
  2
GENDOT
 10
88.64872741159656
 20
76.44325822336272
 30
0.0
 41
2.0
 42
2.0
 43
2.0
 50
40.75417053756918
  0
INSERT
  5
C649
330
C11E
100
AcDbEntity
  8
AM_5
100
AcDbBlockReference
  2
GENDOT
 10
93.1938322210844
 20
80.36014758493159
 30
0.0
 41
2.0
 42
2.0
 43
2.0
 50
220.7541705375692
  0
POINT
  5
C64A
330
C11E
100
AcDbEntity
  8
Defpoints
 62
     0
100
AcDbPoint
 10
93.1938322210844
 20
80.36014758493159
 30
0.0
  0
POINT
  5
C64B
330
C11E
100
AcDbEntity
  8
Defpoints
 62
     0
100
AcDbPoint
 10
88.64872741159656
 20
76.44325822336272
 30
0.0
  0
ENDBLK
  5
C128
330
C11E
100
AcDbEntity
  8
0
100
AcDbBlockEnd
  0
BLOCK
  5
C435
330
C42F
100
AcDbEntity
  8
0
100
AcDbBlockBegin
  2
*D22
 70
     1
 10
0.0
 20
0.0
 30
0.0
  3
*D22
  1

  0
LINE
  5
C64C
330
C42F
100
AcDbEntity
  8
AM_5
100
AcDbLine
 10
275.1347075756525
 20
131.0497771675795
 30
0.0
 11
248.1780409089857
 21
131.0497771675795
 31
0.0
  0
LINE
  5
C64D
330
C42F
100
AcDbEntity
  8
AM_5
100
AcDbLine
 10
248.1780409089857
 20
131.0497771675795
 30
0.0
 11
244.4474347164012
 21
121.3538038828327
 31
0.0
  0
LINE
  5
C64E
330
C42F
100
AcDbEntity
  8
AM_5
100
AcDbLine
 10
241.3951249162793
 20
113.4207461568306
 30
0.0
 11
240.6769343750741
 21
111.5541443389478
 31
0.0
  0
MTEXT
  5
C64F
330
C42F
100
AcDbEntity
  8
AM_5
 62
     2
100
AcDbMText
 10
262.4063742423191
 20
134.2997771675795
 30
0.0
 40
3.5
 41
0.0
 71
     5
 72
     1
  1
2-%%c3×%%c4.5サラ
 73
     1
 44
1.0
1001
ACAD
1000
MTEXTBEGIN
1070
    73
1070
     1
1070
    44
1040
1.0
1070
    74
1070
     0
1000
MTEXTEND
  0
LINE
  5
C650
330
C42F
100
AcDbEntity
  8
AM_5
100
AcDbLine
 10
242.1133154574845
 20
115.2873479747134
 30
0.0
 11
243.7292441751961
 21
119.4872020649499
 31
0.0
  0
INSERT
  5
C651
330
C42F
100
AcDbEntity
  8
AM_5
100
AcDbBlockReference
  2
GENDOT
 10
242.1133154574845
 20
115.2873479747134
 30
0.0
 41
2.0
 42
2.0
 43
2.0
 50
68.95535610749991
  0
INSERT
  5
C652
330
C42F
100
AcDbEntity
  8
AM_5
100
AcDbBlockReference
  2
GENDOT
 10
243.7292441751961
 20
119.4872020649499
 30
0.0
 41
2.0
 42
2.0
 43
2.0
 50
248.9553561074999
  0
POINT
  5
C653
330
C42F
100
AcDbEntity
  8
Defpoints
 62
     0
100
AcDbPoint
 10
243.7292441751961
 20
119.4872020649499
 30
0.0
  0
POINT
  5
C654
330
C42F
100
AcDbEntity
  8
Defpoints
 62
     0
100
AcDbPoint
 10
242.1133154574845
 20
115.2873479747134
 30
0.0
  0
ENDBLK
  5
C436
330
C42F
100
AcDbEntity
  8
0
100
AcDbBlockEnd
  0
ENDSEC
  0
SECTION
  2
ENTITIES
  0
LINE
  5
B536
330
1F
100
AcDbEntity
  8
size
100
AcDbLine
 10
0.0000002820350623
 20
210.0000000504798
 30
0.0
 11
297.000000282035
 21
210.0000000504798
 31
0.0
1001
GENIUS_GENREC_14
1002
{
1000
PYDIR
1011
0.0000002820350765
1021
297.0000000504797
1031
0.0
1002
}
1002
{
1000
PXDIR
1011
420.000000282035
1021
0.0000000504797413
1031
0.0
1002
}
1002
{
1000
PORI
1011
0.0000002820350623
1021
0.0000000504797413
1031
0.0
1002
}
1002
{
1000
PINS
1011
210.0000002820351
1021
148.5000000504797
1031
0.0
1002
}
1002
{
1000
HVAL
1000
297
1002
}
1002
{
1000
H
1070
     2
1002
}
1002
{
1000
WVAL
1000
420
1002
}
1002
{
1000
W
1070
     2
1002
}
1002
{
1000
C
1070
     4
1002
}
1001
GENIUS_GENOBJ-N-REC_13
1002
{
1000
OWNER
1000
GEN
1002
}
1001
GENIUS_GENODEF_13
1002
{
1000
HIER
1070
     0
1002
}
1002
{
1000
MANEDIT
1070
     0
1002
}
1002
{
1000
NOSEL
1070
     0
1002
}
1002
{
1000
BEHIND
1070
     0
1002
}
1002
{
1000
OTHER
1070
     0
1002
}
1002
{
1000
REACTOR
1002
}
  0
LINE
  5
B537
330
1F
100
AcDbEntity
  8
size
100
AcDbLine
 10
297.000000282035
 20
210.0000000504798
 30
0.0
 11
297.000000282035
 21
0.0000000504797129
 31
0.0
1001
GENIUS_GENREC_14
1002
{
1000
PYDIR
1011
0.0000002820350765
1021
297.0000000504797
1031
0.0
1002
}
1002
{
1000
PXDIR
1011
420.000000282035
1021
0.0000000504797413
1031
0.0
1002
}
1002
{
1000
PORI
1011
0.0000002820350623
1021
0.0000000504797413
1031
0.0
1002
}
1002
{
1000
PINS
1011
210.0000002820351
1021
148.5000000504797
1031
0.0
1002
}
1002
{
1000
HVAL
1000
297
1002
}
1002
{
1000
H
1070
     2
1002
}
1002
{
1000
WVAL
1000
420
1002
}
1002
{
1000
W
1070
     2
1002
}
1002
{
1000
C
1070
     4
1002
}
1001
GENIUS_GENOBJ-N-REC_13
1002
{
1000
OWNER
1000
GEN
1002
}
1001
GENIUS_GENODEF_13
1002
{
1000
HIER
1070
     0
1002
}
1002
{
1000
MANEDIT
1070
     0
1002
}
1002
{
1000
NOSEL
1070
     0
1002
}
1002
{
1000
BEHIND
1070
     0
1002
}
1002
{
1000
OTHER
1070
     0
1002
}
1002
{
1000
REACTOR
1002
}
  0
LINE
  5
B538
330
1F
100
AcDbEntity
  8
waku
100
AcDbLine
 10
11.50000028203506
 20
8.500000050479741
 30
0.0
 11
285.500000282035
 21
8.500000050479741
 31
0.0
1001
GENIUS_GENREC_14
1002
{
1000
PYDIR
1011
0.0000002820350765
1021
297.0000000504797
1031
0.0
1002
}
1002
{
1000
PXDIR
1011
420.000000282035
1021
0.0000000504797413
1031
0.0
1002
}
1002
{
1000
PORI
1011
0.0000002820350623
1021
0.0000000504797413
1031
0.0
1002
}
1002
{
1000
PINS
1011
210.0000002820351
1021
148.5000000504797
1031
0.0
1002
}
1002
{
1000
HVAL
1000
297
1002
}
1002
{
1000
H
1070
     2
1002
}
1002
{
1000
WVAL
1000
420
1002
}
1002
{
1000
W
1070
     2
1002
}
1002
{
1000
C
1070
     4
1002
}
  0
LINE
  5
B539
330
1F
100
AcDbEntity
  8
waku
100
AcDbLine
 10
285.500000282035
 20
201.5000000504798
 30
0.0
 11
11.50000028203506
 21
201.5000000504798
 31
0.0
1001
GENIUS_GENREC_14
1002
{
1000
PYDIR
1011
-122.9999997179649
1021
210.0000000504798
1031
0.0
1002
}
1002
{
1000
PXDIR
1011
297.000000282035
1021
-86.99999994952026
1031
0.0
1002
}
1002
{
1000
PORI
1011
-122.9999997179649
1021
-86.99999994952026
1031
0.0
1002
}
1002
{
1000
PINS
1011
87.00000028203509
1021
61.50000005047971
1031
0.0
1002
}
1002
{
1000
HVAL
1000
297
1002
}
1002
{
1000
H
1070
     2
1002
}
1002
{
1000
WVAL
1000
420
1002
}
1002
{
1000
W
1070
     2
1002
}
1002
{
1000
C
1070
     4
1002
}
1001
GENIUS_GENOBJ-N-REC_13
1002
{
1000
OWNER
1000
GEN
1002
}
1001
GENIUS_GENODEF_13
1002
{
1000
HIER
1070
     0
1002
}
1002
{
1000
MANEDIT
1070
     0
1002
}
1002
{
1000
NOSEL
1070
     0
1002
}
1002
{
1000
BEHIND
1070
     0
1002
}
1002
{
1000
OTHER
1070
     0
1002
}
1002
{
1000
REACTOR
1002
}
  0
LINE
  5
B53A
330
1F
100
AcDbEntity
  8
waku
100
AcDbLine
 10
11.50000028203508
 20
201.5000000504798
 30
0.0
 11
11.50000028203506
 21
8.500000050479741
 31
0.0
1001
GENIUS_GENREC_14
1002
{
1000
PYDIR
1011
0.0000002820350765
1021
297.0000000504797
1031
0.0
1002
}
1002
{
1000
PXDIR
1011
420.000000282035
1021
0.0000000504797413
1031
0.0
1002
}
1002
{
1000
PORI
1011
0.0000002820350623
1021
0.0000000504797413
1031
0.0
1002
}
1002
{
1000
PINS
1011
210.0000002820351
1021
148.5000000504797
1031
0.0
1002
}
1002
{
1000
HVAL
1000
297
1002
}
1002
{
1000
H
1070
     2
1002
}
1002
{
1000
WVAL
1000
420
1002
}
1002
{
1000
W
1070
     2
1002
}
1002
{
1000
C
1070
     4
1002
}
1001
GENIUS_GENOBJ-N-REC_13
1002
{
1000
OWNER
1000
GEN
1002
}
1001
GENIUS_GENODEF_13
1002
{
1000
HIER
1070
     0
1002
}
1002
{
1000
MANEDIT
1070
     0
1002
}
1002
{
1000
NOSEL
1070
     0
1002
}
1002
{
1000
BEHIND
1070
     0
1002
}
1002
{
1000
OTHER
1070
     0
1002
}
1002
{
1000
REACTOR
1002
}
  0
LINE
  5
B53B
330
1F
100
AcDbEntity
  8
waku
100
AcDbLine
 10
285.500000282035
 20
8.500000050479741
 30
0.0
 11
285.500000282035
 21
201.5000000504798
 31
0.0
1001
GENIUS_GENREC_14
1002
{
1000
PYDIR
1011
-122.9999997179649
1021
216.0000000504798
1031
0.0
1002
}
1002
{
1000
PXDIR
1011
297.000000282035
1021
-80.99999994952026
1031
0.0
1002
}
1002
{
1000
PORI
1011
-122.9999997179649
1021
-80.99999994952026
1031
0.0
1002
}
1002
{
1000
PINS
1011
87.00000028203509
1021
67.50000005047971
1031
0.0
1002
}
1002
{
1000
HVAL
1000
297
1002
}
1002
{
1000
H
1070
     2
1002
}
1002
{
1000
WVAL
1000
420
1002
}
1002
{
1000
W
1070
     2
1002
}
1002
{
1000
C
1070
     4
1002
}
1001
GENIUS_GENOBJ-N-REC_13
1002
{
1000
OWNER
1000
GEN
1002
}
1001
GENIUS_GENODEF_13
1002
{
1000
HIER
1070
     0
1002
}
1002
{
1000
MANEDIT
1070
     0
1002
}
1002
{
1000
NOSEL
1070
     0
1002
}
1002
{
1000
BEHIND
1070
     0
1002
}
1002
{
1000
OTHER
1070
     0
1002
}
1002
{
1000
REACTOR
1002
}
  0
LINE
  5
B53C
330
1F
100
AcDbEntity
  8
size
100
AcDbLine
 10
0.0000002820350836
 20
210.0000000504798
 30
0.0
 11
0.0000002820350623
 21
0.0000000504797413
 31
0.0
1001
GENIUS_GENREC_14
1002
{
1000
PYDIR
1011
0.0000002820350765
1021
297.0000000504797
1031
0.0
1002
}
1002
{
1000
PXDIR
1011
420.000000282035
1021
0.0000000504797413
1031
0.0
1002
}
1002
{
1000
PORI
1011
0.0000002820350623
1021
0.0000000504797413
1031
0.0
1002
}
1002
{
1000
PINS
1011
210.0000002820351
1021
148.5000000504797
1031
0.0
1002
}
1002
{
1000
HVAL
1000
297
1002
}
1002
{
1000
H
1070
     2
1002
}
1002
{
1000
WVAL
1000
420
1002
}
1002
{
1000
W
1070
     2
1002
}
1002
{
1000
C
1070
     4
1002
}
1001
GENIUS_GENOBJ-N-REC_13
1002
{
1000
OWNER
1000
GEN
1002
}
1001
GENIUS_GENODEF_13
1002
{
1000
HIER
1070
     0
1002
}
1002
{
1000
MANEDIT
1070
     0
1002
}
1002
{
1000
NOSEL
1070
     0
1002
}
1002
{
1000
BEHIND
1070
     0
1002
}
1002
{
1000
OTHER
1070
     0
1002
}
1002
{
1000
REACTOR
1002
}
  0
LINE
  5
B53D
330
1F
100
AcDbEntity
  8
size
100
AcDbLine
 10
0.0000002820350623
 20
0.0000000504797413
 30
0.0
 11
297.000000282035
 21
0.0000000504797413
 31
0.0
1001
GENIUS_GENREC_14
1002
{
1000
PYDIR
1011
0.0000002820350765
1021
297.0000000504797
1031
0.0
1002
}
1002
{
1000
PXDIR
1011
420.000000282035
1021
0.0000000504797413
1031
0.0
1002
}
1002
{
1000
PORI
1011
0.0000002820350623
1021
0.0000000504797413
1031
0.0
1002
}
1002
{
1000
PINS
1011
210.0000002820351
1021
148.5000000504797
1031
0.0
1002
}
1002
{
1000
HVAL
1000
297
1002
}
1002
{
1000
H
1070
     2
1002
}
1002
{
1000
WVAL
1000
420
1002
}
1002
{
1000
W
1070
     2
1002
}
1002
{
1000
C
1070
     4
1002
}
1001
GENIUS_GENOBJ-N-REC_13
1002
{
1000
OWNER
1000
GEN
1002
}
1001
GENIUS_GENODEF_13
1002
{
1000
HIER
1070
     0
1002
}
1002
{
1000
MANEDIT
1070
     0
1002
}
1002
{
1000
NOSEL
1070
     0
1002
}
1002
{
1000
BEHIND
1070
     0
1002
}
1002
{
1000
OTHER
1070
     0
1002
}
1002
{
1000
REACTOR
1002
}
  0
LINE
  5
B6A2
330
1F
100
AcDbEntity
  8
AM_0
100
AcDbLine
 10
195.500000282035
 20
201.5000000504798
 30
0.0
 11
285.500000282035
 21
201.5000000504798
 31
0.0
  0
LINE
  5
B6A3
330
1F
100
AcDbEntity
  8
AM_0
100
AcDbLine
 10
195.500000282035
 20
153.5000000504798
 30
0.0
 11
285.5000002820351
 21
153.5000000504797
 31
0.0
  0
LINE
  5
B6A4
330
1F
100
AcDbEntity
  8
AM_2
100
AcDbLine
 10
195.500000282035
 20
177.5000000504797
 30
0.0
 11
285.5000002820351
 21
177.5000000504797
 31
0.0
  0
LINE
  5
B6A5
330
1F
100
AcDbEntity
  8
AM_2
100
AcDbLine
 10
195.500000282035
 20
185.5000000504797
 30
0.0
 11
285.5000002820351
 21
185.5000000504797
 31
0.0
  0
LINE
  5
B6A6
330
1F
100
AcDbEntity
  8
AM_2
100
AcDbLine
 10
195.500000282035
 20
193.5000000504797
 30
0.0
 11
285.5000002820351
 21
193.5000000504797
 31
0.0
  0
LINE
  5
B6A7
330
1F
100
AcDbEntity
  8
AM_2
100
AcDbLine
 10
215.500000282035
 20
201.5000000504798
 30
0.0
 11
215.5000002820351
 21
153.5000000504798
 31
0.0
  0
MTEXT
  5
B6A8
330
1F
100
AcDbEntity
  8
AM_6
100
AcDbMText
 10
205.5000002820351
 20
173.5000000504797
 30
0.0
 40
3.2
 41
20.0
 71
     5
 72
     5
  1
仕上げ
 73
     1
 44
1.0
1001
ACAD
1000
MTEXTBEGIN
1070
    73
1070
     1
1070
    44
1040
1.0
1070
    74
1070
     0
1000
MTEXTEND
  0
MTEXT
  5
B6A9
330
1F
100
AcDbEntity
  8
AM_6
100
AcDbMText
 10
205.5000002820351
 20
181.5000000504797
 30
0.0
 40
3.2
 41
20.0
 71
     5
 72
     5
  1
材　質
 73
     1
 44
1.0
1001
ACAD
1000
MTEXTBEGIN
1070
    73
1070
     1
1070
    44
1040
1.0
1070
    74
1070
     0
1000
MTEXTEND
  0
MTEXT
  5
B6AA
330
1F
100
AcDbEntity
  8
AM_6
100
AcDbMText
 10
205.500000282035
 20
197.5000000504797
 30
0.0
 40
3.2
 41
20.0
 71
     5
 72
     5
  1
品　名
 73
     1
 44
1.0
1001
ACAD
1000
MTEXTBEGIN
1070
    73
1070
     1
1070
    44
1040
1.0
1070
    74
1070
     0
1000
MTEXTEND
  0
MTEXT
  5
B6AB
330
1F
100
AcDbEntity
  8
AM_6
100
AcDbMText
 10
215.5000002820351
 20
173.5000000504797
 30
0.0
 40
3.2
 41
90.0
 71
     4
 72
     5
  1
　ヘアーライン
 73
     1
 44
1.0
1001
ACAD
1000
MTEXTBEGIN
1070
    73
1070
     1
1070
    44
1040
1.0
1070
    74
1070
     0
1000
MTEXTEND
  0
MTEXT
  5
B6AC
330
1F
100
AcDbEntity
  8
AM_6
100
AcDbMText
 10
215.5000002820351
 20
181.5000000504797
 30
0.0
 40
3.2
 41
90.0
 71
     4
 72
     5
  1
　ステンレス
 73
     1
 44
1.0
1001
ACAD
1000
MTEXTBEGIN
1070
    73
1070
     1
1070
    44
1040
1.0
1070
    74
1070
     0
1000
MTEXTEND
  0
MTEXT
  5
B6AD
330
1F
100
AcDbEntity
  8
AM_6
100
AcDbMText
 10
215.500000282035
 20
197.5000000504797
 30
0.0
 40
3.2
 41
90.0
 71
     4
 72
     5
  1
　前蓋用ステー
 73
     1
 44
1.0
1001
ACAD
1000
MTEXTBEGIN
1070
    73
1070
     1
1070
    44
1040
1.0
1070
    74
1070
     0
1000
MTEXTEND
  0
LINE
  5
B6AE
330
1F
100
AcDbEntity
  8
AM_0
100
AcDbLine
 10
195.500000282035
 20
201.5000000504798
 30
0.0
 11
195.500000282035
 21
153.5000000504798
 31
0.0
  0
LINE
  5
B6AF
330
1F
100
AcDbEntity
  8
AM_2
100
AcDbLine
 10
195.500000282035
 20
169.5000000504798
 30
0.0
 11
285.5000002820351
 21
169.5000000504797
 31
0.0
  0
MTEXT
  5
B6B0
330
1F
100
AcDbEntity
  8
AM_6
100
AcDbMText
 10
205.5000002820351
 20
157.5000000504798
 30
0.0
 40
3.2
 41
20.00000000000001
 71
     5
 72
     5
  1
備　考
 73
     1
 44
1.0
1001
ACAD
1000
MTEXTBEGIN
1070
    73
1070
     1
1070
    44
1040
1.0
1070
    74
1070
     0
1000
MTEXTEND
1000
ACAD_MTEXT_DEFINED_HEIGHT_BEGIN
1070
    46
1040
7.999999999999982
1000
ACAD_MTEXT_DEFINED_HEIGHT_END
  0
MTEXT
  5
B6B1
330
1F
100
AcDbEntity
  8
AM_6
100
AcDbMText
 10
205.5000002820351
 20
189.5000000504797
 30
0.0
 40
3.2
 41
20.0
 71
     5
 72
     5
  1
品　番
 73
     1
 44
1.0
1001
ACAD
1000
MTEXTBEGIN
1070
    73
1070
     1
1070
    44
1040
1.0
1070
    74
1070
     0
1000
MTEXTEND
  0
MTEXT
  5
B6B2
330
1F
100
AcDbEntity
  8
AM_6
100
AcDbMText
 10
215.5000002820351
 20
189.5000000504797
 30
0.0
 40
3.2
 41
90.0
 71
     4
 72
     5
  1
　EDS-32-「 」
 73
     1
 44
1.0
1001
ACAD
1000
MTEXTBEGIN
1070
    73
1070
     1
1070
    44
1040
1.0
1070
    74
1070
     0
1000
MTEXTEND
  0
MTEXT
  5
B865
330
1F
100
AcDbEntity
  8
AM_6
100
AcDbMText
 10
215.5000002820351
 20
165.5000000504798
 30
0.0
 40
3.2
 41
90.0
 71
     4
 72
     5
  1
　無し
 73
     1
 44
1.0
1001
ACAD
1000
MTEXTBEGIN
1070
    73
1070
     1
1070
    44
1040
1.0
1070
    74
1070
     0
1000
MTEXTEND
  0
LINE
  5
B867
330
1F
100
AcDbEntity
  8
AM_2
100
AcDbLine
 10
195.500000282035
 20
161.5000000504798
 30
0.0
 11
285.5000002820351
 21
161.5000000504797
 31
0.0
  0
MTEXT
  5
B868
330
1F
100
AcDbEntity
  8
AM_6
100
AcDbMText
 10
205.5000002820351
 20
165.5000000504798
 30
0.0
 40
3.2
 41
20.0
 71
     5
 72
     5
  1
左右勝手
 73
     1
 44
1.0
1001
ACAD
1000
MTEXTBEGIN
1070
    73
1070
     1
1070
    44
1040
1.0
1070
    74
1070
     0
1000
MTEXTEND
  0
LINE
  5
BDCF
330
1F
100
AcDbEntity
  8
AM_0
100
AcDbLine
 10
30.92127981634042
 20
56.90170290414721
 30
0.0
 11
81.94070828618782
 21
56.90170290414721
 31
0.0
  0
LINE
  5
BDD0
330
1F
100
AcDbEntity
  8
AM_0
100
AcDbLine
 10
30.92127981634042
 20
68.90170290414721
 30
0.0
 11
81.94070828618782
 21
68.90170290414721
 31
0.0
  0
LINE
  5
BDD1
330
1F
100
AcDbEntity
  8
AM_0
100
AcDbLine
 10
30.42127981634041
 20
125.3872750198318
 30
0.0
 11
81.4212798163404
 21
125.3872750198317
 31
0.0
  0
LINE
  5
BDD2
330
1F
100
AcDbEntity
  8
AM_0
100
AcDbLine
 10
30.42127981634041
 20
128.3872750198318
 30
0.0
 11
81.4212798163404
 21
128.3872750198317
 31
0.0
  0
LINE
  5
BDD3
330
1F
100
AcDbEntity
  8
AM_0
100
AcDbLine
 10
238.4212798163404
 20
128.3872750198318
 30
0.0
 11
238.4212798163404
 21
125.3872750198318
 31
0.0
  0
LINE
  5
BDD4
330
1F
100
AcDbEntity
  8
AM_0
100
AcDbLine
 10
30.42127981634041
 20
131.3872750198318
 30
0.0
 11
30.42127981634041
 21
125.3872750198318
 31
0.0
  0
LINE
  5
BDD5
330
1F
100
AcDbEntity
  8
AM_7
 48
0.8
100
AcDbLine
 10
90.92127981634041
 20
145.6367770158317
 30
0.0
 11
90.92127981634041
 21
116.0873065588317
 31
0.0
  0
LINE
  5
BDD6
330
1F
100
AcDbEntity
  8
AM_0
100
AcDbLine
 10
81.92127981634042
 20
79.90170290414721
 30
0.0
 11
81.92127981634042
 21
68.90170290414721
 31
0.0
  0
LINE
  5
BDD7
330
1F
100
AcDbEntity
  8
AM_7
100
AcDbLine
 10
90.92127981634041
 20
86.74094126514722
 30
0.0
 11
90.92127981634041
 21
40.20206166714721
 31
0.0
  0
LINE
  5
BDD8
330
1F
100
AcDbEntity
  8
AM_0
100
AcDbLine
 10
99.92127981634041
 20
79.90170290414721
 30
0.0
 11
99.92127981634041
 21
68.90170290514721
 31
0.0
  0
LINE
  5
BDD9
330
1F
100
AcDbEntity
  8
AM_7
 48
0.5
100
AcDbLine
 10
86.19838414934042
 20
78.40170290414722
 30
0.0
 11
95.6441754833404
 21
78.40170290414722
 31
0.0
  0
LINE
  5
BDDA
330
1F
100
AcDbEntity
  8
AM_7
 48
0.5
100
AcDbLine
 10
86.14007692484042
 20
47.40170290414721
 30
0.0
 11
95.70248270784039
 21
47.40170290414721
 31
0.0
  0
CIRCLE
  5
BDDB
330
1F
100
AcDbEntity
  8
AM_0
100
AcDbCircle
 10
90.92127981634041
 20
62.90170290414721
 30
0.0
 40
5.0
  0
CIRCLE
  5
BDDD
330
1F
100
AcDbEntity
  8
AM_0
100
AcDbCircle
 10
35.92127981634042
 20
62.90170290414721
 30
0.0
 40
2.5
  0
LINE
  5
BDDE
330
1F
100
AcDbEntity
  8
AM_0
100
AcDbLine
 10
40.92127981634041
 20
131.3872750198318
 30
0.0
 11
40.92127981634041
 21
128.3872750198318
 31
0.0
  0
ARC
  5
BDE0
330
1F
100
AcDbEntity
  8
AM_0
100
AcDbCircle
 10
35.92127981634041
 20
128.0783740488317
 30
0.0
 40
3.673147693999999
100
AcDbArc
 50
227.108267583999
 51
312.8917324160009
  0
LINE
  5
BDE1
330
1F
100
AcDbEntity
  8
AM_0
100
AcDbLine
 10
30.42127981634041
 20
131.3872750198318
 30
0.0
 11
40.92127981634041
 21
131.3872750198318
 31
0.0
  0
LINE
  5
BDE2
330
1F
100
AcDbEntity
  8
AM_0
100
AcDbLine
 10
33.42127981634041
 20
132.3872750198318
 30
0.0
 11
33.42127981634041
 21
131.3872750198318
 31
0.0
  0
LINE
  5
BDE3
330
1F
100
AcDbEntity
  8
AM_0
100
AcDbLine
 10
38.42127981634041
 20
132.3872750198318
 30
0.0
 11
38.42127981634041
 21
131.3872750198318
 31
0.0
  0
LINE
  5
BDE4
330
1F
100
AcDbEntity
  8
AM_0
100
AcDbLine
 10
33.42127981634041
 20
132.3872750198318
 30
0.0
 11
38.42127981634041
 21
132.3872750198318
 31
0.0
  0
LINE
  5
BDE6
330
1F
100
AcDbEntity
  8
AM_0
100
AcDbLine
 10
80.92127981634041
 20
133.8872750198317
 30
0.0
 11
80.92127981634041
 21
128.3872750198318
 31
0.0
  0
LINE
  5
BDE7
330
1F
100
AcDbEntity
  8
AM_0
100
AcDbLine
 10
100.9212798163404
 20
133.8872750198317
 30
0.0
 11
100.9212798163404
 21
128.3872750198318
 31
0.0
  0
LINE
  5
BDE8
330
1F
100
AcDbEntity
  8
AM_0
100
AcDbLine
 10
81.92127981634042
 20
140.3872750198317
 30
0.0
 11
99.92127981634041
 21
140.3872750198317
 31
0.0
  0
LINE
  5
BDE9
330
1F
100
AcDbEntity
  8
AM_0
100
AcDbLine
 10
81.92127981634042
 20
138.8872750198318
 30
0.0
 11
99.92127981634041
 21
138.8872750198318
 31
0.0
  0
LINE
  5
BDEA
330
1F
100
AcDbEntity
  8
AM_0
100
AcDbLine
 10
81.92127981634042
 20
134.3872750198318
 30
0.0
 11
99.92127981634041
 21
134.3872750198318
 31
0.0
  0
LINE
  5
BDEB
330
1F
100
AcDbEntity
  8
AM_0
100
AcDbLine
 10
80.92127981634041
 20
133.8872750198317
 30
0.0
 11
100.9212798163404
 21
133.8872750198317
 31
0.0
  0
LINE
  5
BDEC
330
1F
100
AcDbEntity
  8
AM_0
100
AcDbLine
 10
80.92127981634041
 20
121.3872750198317
 30
0.0
 11
100.9212798163404
 21
121.3872750198317
 31
0.0
  0
LINE
  5
BDED
330
1F
100
AcDbEntity
  8
AM_0
100
AcDbLine
 10
81.42127981634041
 20
128.3872750198318
 30
0.0
 11
81.42127981634041
 21
125.3872750198318
 31
0.0
  0
LINE
  5
BDEE
330
1F
100
AcDbEntity
  8
AM_0
100
AcDbLine
 10
100.4212798163404
 20
128.3872750198318
 30
0.0
 11
100.4212798163404
 21
125.3872750198318
 31
0.0
  0
LINE
  5
BDEF
330
1F
100
AcDbEntity
  8
AM_0
100
AcDbLine
 10
80.92127981634041
 20
125.3872750198318
 30
0.0
 11
80.92127981634041
 21
121.3872750198317
 31
0.0
  0
LINE
  5
BDF0
330
1F
100
AcDbEntity
  8
AM_0
100
AcDbLine
 10
100.9212798163404
 20
125.3872750198318
 30
0.0
 11
100.9212798163404
 21
121.3872750198317
 31
0.0
  0
LINE
  5
BDF1
330
1F
100
AcDbEntity
  8
AM_0
100
AcDbLine
 10
81.92127981634042
 20
140.3872750198317
 30
0.0
 11
81.92127981634042
 21
133.8872750198317
 31
0.0
  0
LINE
  5
BDF2
330
1F
100
AcDbEntity
  8
AM_0
100
AcDbLine
 10
99.92127981634041
 20
140.3872750198317
 30
0.0
 11
99.92127981634041
 21
133.8872750198317
 31
0.0
  0
LINE
  5
BDF5
330
1F
100
AcDbEntity
  8
AM_0
100
AcDbLine
 10
233.4212798163404
 20
129.8872750198317
 30
0.0
 11
233.4212798163404
 21
128.3872750198318
 31
0.0
  0
LINE
  5
BDF6
330
1F
100
AcDbEntity
  8
AM_0
100
AcDbLine
 10
228.4212798163404
 20
129.8872750198317
 30
0.0
 11
228.4212798163404
 21
128.3872750198318
 31
0.0
  0
LINE
  5
BDF7
330
1F
100
AcDbEntity
  8
AM_7
 48
0.6
100
AcDbLine
 10
230.9212798163404
 20
133.1122598476123
 30
0.0
 11
230.9212798168404
 21
107.3872750198318
 31
0.0
  0
LINE
  5
BDF8
330
1F
100
AcDbEntity
  8
AM_0
100
AcDbLine
 10
228.4212798163404
 20
129.8872750198317
 30
0.0
 11
233.4212798163404
 21
129.8872750198317
 31
0.0
  0
LINE
  5
BDF9
330
1F
100
AcDbEntity
  8
AM_0
100
AcDbLine
 10
224.9212798163404
 20
124.6872750198318
 30
0.0
 11
236.9212798163404
 21
124.6872750198318
 31
0.0
  0
LINE
  5
BDFA
330
1F
100
AcDbEntity
  8
AM_0
100
AcDbLine
 10
215.0676468633404
 20
110.3872750198318
 30
0.0
 11
246.7749127703404
 21
110.3872750198318
 31
0.0
  0
LINE
  5
BDFB
330
1F
100
AcDbEntity
  8
AM_0
100
AcDbLine
 10
225.9212798163404
 20
125.3872750198318
 30
0.0
 11
225.9212798163404
 21
124.6872750198318
 31
0.0
  0
LINE
  5
BDFC
330
1F
100
AcDbEntity
  8
AM_0
100
AcDbLine
 10
235.9212798163404
 20
125.3872750198318
 30
0.0
 11
235.9212798163404
 21
124.6872750198318
 31
0.0
  0
LINE
  5
BDFD
330
1F
100
AcDbEntity
  8
AM_0
100
AcDbLine
 10
224.9212798163404
 20
124.6872750198318
 30
0.0
 11
224.9212798163404
 21
122.7872750198317
 31
0.0
  0
LINE
  5
BDFE
330
1F
100
AcDbEntity
  8
AM_0
100
AcDbLine
 10
236.9212798163404
 20
124.6872750198318
 30
0.0
 11
236.9212798163404
 21
122.7872750198317
 31
0.0
  0
LINE
  5
BDFF
330
1F
100
AcDbEntity
  8
AM_0
100
AcDbLine
 10
247.1279812183404
 20
122.7872750198317
 30
0.0
 11
236.9212798163404
 21
122.7872750198317
 31
0.0
  0
LINE
  5
BE00
330
1F
100
AcDbEntity
  8
AM_7
 48
0.3
100
AcDbLine
 10
218.9212798163404
 20
121.5969322103317
 30
0.0
 11
218.9212798163404
 21
113.1776178293318
 31
0.0
  0
LINE
  5
BE01
330
1F
100
AcDbEntity
  8
AM_7
 48
0.3
100
AcDbLine
 10
242.9212798163404
 20
121.7037465913317
 30
0.0
 11
242.9212798163404
 21
113.0708034483318
 31
0.0
  0
LINE
  5
BE02
330
1F
100
AcDbEntity
  8
AM_7
 48
0.5
100
AcDbLine
 10
214.1067828673404
 20
117.3872750198317
 30
0.0
 11
247.9342633573404
 21
117.3872750198317
 31
0.0
  0
LINE
  5
BE03
330
1F
100
AcDbEntity
  8
AM_0
100
AcDbLine
 10
227.9212798163404
 20
121.6872750198318
 30
0.0
 11
233.9212798163404
 21
121.6872750198318
 31
0.0
  0
LINE
  5
BE04
330
1F
100
AcDbEntity
  8
AM_0
100
AcDbLine
 10
226.9212798163404
 20
123.1872750198318
 30
0.0
 11
226.9212798163404
 21
122.6872750198318
 31
0.0
  0
LINE
  5
BE05
330
1F
100
AcDbEntity
  8
AM_0
100
AcDbLine
 10
234.9212798163404
 20
123.1872750198318
 30
0.0
 11
234.9212798163404
 21
122.6872750198318
 31
0.0
  0
ARC
  5
BE06
330
1F
100
AcDbEntity
  8
AM_0
100
AcDbCircle
 10
227.9212798163404
 20
122.6872750198318
 30
0.0
 40
1.0
100
AcDbArc
 50
180.0
 51
270.0
  0
ARC
  5
BE07
330
1F
100
AcDbEntity
  8
AM_0
100
AcDbCircle
 10
233.9212798163404
 20
122.6872750198318
 30
0.0
 40
1.0
100
AcDbArc
 50
270.0
 51
0.0
  0
CIRCLE
  5
BE08
330
1F
100
AcDbEntity
  8
AM_0
100
AcDbCircle
 10
218.9212798163404
 20
117.3872750198317
 30
0.0
 40
1.5
  0
CIRCLE
  5
BE09
330
1F
100
AcDbEntity
  8
AM_0
100
AcDbCircle
 10
242.9212798163404
 20
117.3872750198317
 30
0.0
 40
1.5
  0
ARC
  5
BE0A
330
1F
100
AcDbEntity
  8
AM_0
100
AcDbCircle
 10
223.6712798163404
 20
116.8372750198317
 30
0.0
 40
10.752906584
100
AcDbArc
 50
146.4036312109983
 51
216.8582829489992
  0
ARC
  5
BE0B
330
1F
100
AcDbEntity
  8
AM_0
100
AcDbCircle
 10
238.1712798163404
 20
116.8372750198317
 30
0.0
 40
10.752906584
100
AcDbArc
 50
323.1417170510009
 51
33.59636878900167
  0
ARC
  5
BE0C
330
1F
100
AcDbEntity
  8
AM_0
100
AcDbCircle
 10
99.0879464833404
 20
62.90170290414721
 30
0.0
 40
18.166666667
100
AcDbArc
 50
151.3549891069993
 51
208.6450108930006
  0
ARC
  5
BE0D
330
1F
100
AcDbEntity
  8
AM_0
100
AcDbCircle
 10
82.75461315034041
 20
62.90170290414721
 30
0.0
 40
18.166666667
100
AcDbArc
 50
331.3549891069993
 51
28.64501089300068
  0
LINE
  5
BE0E
330
1F
100
AcDbEntity
  8
AM_0
100
AcDbLine
 10
84.8999723113404
 20
72.65170290414721
 30
0.0
 11
96.9425873223404
 21
72.65170290414721
 31
0.0
  0
LINE
  5
BE0F
330
1F
100
AcDbEntity
  8
AM_0
100
AcDbLine
 10
81.92127981634042
 20
56.90170290414721
 30
0.0
 11
81.92127981634042
 21
45.90170290414721
 31
0.0
  0
LINE
  5
BE10
330
1F
100
AcDbEntity
  8
AM_0
100
AcDbLine
 10
99.92127981634041
 20
56.90170290414721
 30
0.0
 11
99.92127981634041
 21
45.90170290414721
 31
0.0
  0
LINE
  5
BE11
330
1F
100
AcDbEntity
  8
AM_2
100
AcDbLine
 10
81.92127981634042
 20
73.90170290414721
 30
0.0
 11
99.92127981634043
 21
73.90170290414721
 31
0.0
  0
LINE
  5
BE12
330
1F
100
AcDbEntity
  8
AM_2
100
AcDbLine
 10
81.92127981634042
 20
51.9017029041472
 30
0.0
 11
99.92127981634043
 21
51.90170290414721
 31
0.0
  0
ARC
  5
BE13
330
1F
100
AcDbEntity
  8
AM_0
100
AcDbCircle
 10
90.92127981634041
 20
67.90170290414721
 30
0.0
 40
15.0
100
AcDbArc
 50
53.13010235399964
 51
126.8698976460003
  0
ARC
  5
BE14
330
1F
100
AcDbEntity
  8
AM_0
100
AcDbCircle
 10
90.92127981634041
 20
57.90170290414721
 30
0.0
 40
15.0
100
AcDbArc
 50
233.1301023539996
 51
306.8698976460004
  0
LINE
  5
BE15
330
1F
100
AcDbEntity
  8
AM_7
 48
0.6
100
AcDbLine
 10
230.9212798163404
 20
72.94907002638893
 30
0.0
 11
230.9212798163404
 21
49.45411683664724
 31
0.0
  0
LINE
  5
BE16
330
1F
100
AcDbEntity
  8
AM_0
100
AcDbLine
 10
212.9212798163404
 20
54.90170290414721
 30
0.0
 11
212.9212798163404
 21
53.40170290414722
 31
0.0
  0
LINE
  5
BE17
330
1F
100
AcDbEntity
  8
AM_0
100
AcDbLine
 10
248.9212798163404
 20
54.90170290414721
 30
0.0
 11
248.9212798163404
 21
53.40170290414722
 31
0.0
  0
LINE
  5
BE18
330
1F
100
AcDbEntity
  8
AM_0
100
AcDbLine
 10
212.9212798163404
 20
53.40170290414722
 30
0.0
 11
248.9212798163404
 21
53.40170290414722
 31
0.0
  0
LINE
  5
BE19
330
1F
100
AcDbEntity
  8
AM_0
100
AcDbLine
 10
212.9212798163404
 20
54.90170290414721
 30
0.0
 11
248.9212798163404
 21
54.90170290414721
 31
0.0
  0
LINE
  5
BE1A
330
1F
100
AcDbEntity
  8
AM_0
100
AcDbLine
 10
224.9212798163404
 20
62.90170290414721
 30
0.0
 11
224.9212798163404
 21
54.90170290414721
 31
0.0
  0
LINE
  5
BE1B
330
1F
100
AcDbEntity
  8
AM_0
100
AcDbLine
 10
236.9212798163404
 20
62.90170290414721
 30
0.0
 11
236.9212798163404
 21
54.90170290414721
 31
0.0
  0
CIRCLE
  5
BE1C
330
1F
100
AcDbEntity
  8
AM_0
100
AcDbCircle
 10
230.9212798163404
 20
62.90170290414721
 30
0.0
 40
4.0
  0
LINE
  5
BE1D
330
1F
100
AcDbEntity
  8
AM_0
100
AcDbLine
 10
236.9212798163404
 20
56.90170290414721
 30
0.0
 11
237.4212798163404
 21
56.90170290414721
 31
0.0
  0
ARC
  5
BE1E
330
1F
100
AcDbEntity
  8
AM_0
100
AcDbCircle
 10
230.9212798163404
 20
62.90170290414721
 30
0.0
 40
6.0
100
AcDbArc
 50
0.0
 51
180.0
  0
ARC
  5
BE1F
330
1F
100
AcDbEntity
  8
AM_0
100
AcDbCircle
 10
219.9212798163404
 20
62.90170290414721
 30
0.0
 40
18.5
100
AcDbArc
 50
341.0753555840005
 51
18.9246444159995
  0
LINE
  5
BE21
330
1F
100
AcDbEntity
  8
AM_0
100
AcDbLine
 10
100.4212798163404
 20
128.3872750198318
 30
0.0
 11
238.4212798163404
 21
128.3872750198318
 31
0.0
  0
LINE
  5
BE22
330
1F
100
AcDbEntity
  8
AM_0
100
AcDbLine
 10
100.4212798163404
 20
125.3872750198318
 30
0.0
 11
238.4212798163404
 21
125.3872750198318
 31
0.0
  0
LINE
  5
BE24
330
1F
100
AcDbEntity
  8
AM_7
 48
1.399999999999999
100
AcDbLine
 10
24.41912012034041
 20
62.90170290414721
 30
0.0
 11
244.1634465903404
 21
62.90170290414721
 31
0.0
  0
ARC
  5
BE26
330
1F
100
AcDbEntity
  8
AM_0
100
AcDbCircle
 10
66.67127981634042
 20
62.90170290414721
 30
0.0
 40
36.25
100
AcDbArc
 50
170.4727166180005
 51
189.5272833819994
  0
CIRCLE
  5
BE27
330
1F
100
AcDbEntity
  8
AM_0
100
AcDbCircle
 10
90.92127981634041
 20
78.40170290414722
 30
0.0
 40
1.5
  0
CIRCLE
  5
BE28
330
1F
100
AcDbEntity
  8
AM_0
100
AcDbCircle
 10
90.92127981634041
 20
47.40170290414721
 30
0.0
 40
1.5
  0
CIRCLE
  5
BE29
330
1F
100
AcDbEntity
  8
AM_0
100
AcDbCircle
 10
218.9212798163404
 20
117.3872750198317
 30
0.0
 40
2.25
  0
CIRCLE
  5
BE2A
330
1F
100
AcDbEntity
  8
AM_0
100
AcDbCircle
 10
242.9212798163404
 20
117.3872750198317
 30
0.0
 40
2.25
  0
CIRCLE
  5
BE2B
330
1F
100
AcDbEntity
  8
AM_0
100
AcDbCircle
 10
90.92127981634041
 20
47.40170290414721
 30
0.0
 40
3.0
  0
CIRCLE
  5
BE2C
330
1F
100
AcDbEntity
  8
AM_0
100
AcDbCircle
 10
90.92127981634041
 20
78.40170290414722
 30
0.0
 40
3.0
  0
ARC
  5
BE2D
330
1F
100
AcDbEntity
  8
AM_0
100
AcDbCircle
 10
84.8999723113404
 20
70.65170290414721
 30
0.0
 40
2.0
100
AcDbArc
 50
90.0
 51
151.3549891069993
  0
ARC
  5
BE2E
330
1F
100
AcDbEntity
  8
AM_0
100
AcDbCircle
 10
96.9425873223404
 20
70.65170290414721
 30
0.0
 40
2.0
100
AcDbArc
 50
28.64501089300068
 51
90.0
  0
ARC
  5
BE2F
330
1F
100
AcDbEntity
  8
AM_0
100
AcDbCircle
 10
84.8999723113404
 20
55.15170290414721
 30
0.0
 40
2.0
100
AcDbArc
 50
208.6450108930006
 51
270.0
  0
ARC
  5
BE30
330
1F
100
AcDbEntity
  8
AM_0
100
AcDbCircle
 10
96.9425873223404
 20
55.15170290414721
 30
0.0
 40
2.0
100
AcDbArc
 50
270.0
 51
331.3549891069993
  0
LINE
  5
BE35
330
1F
100
AcDbEntity
  8
AM_0
100
AcDbLine
 10
84.8999723113404
 20
53.15170290414721
 30
0.0
 11
96.9425873223404
 21
53.15170290414721
 31
0.0
  0
LINE
  5
BE37
330
1F
100
AcDbEntity
  8
AM_0
100
AcDbLine
 10
224.9212798163404
 20
123.1872750198318
 30
0.0
 11
236.9212798163404
 21
123.1872750198318
 31
0.0
  0
LINE
  5
BE38
330
1F
100
AcDbEntity
  8
AM_0
100
AcDbLine
 10
224.9212798163404
 20
122.7872750198317
 30
0.0
 11
214.7145784153404
 21
122.7872750198317
 31
0.0
  0
DIMENSION
  5
BECC
330
1F
100
AcDbEntity
  8
AM_5
100
AcDbDimension
  2
*D6
 10
242.9212798163404
 20
99.07080344833179
 30
0.0
 11
230.9212798163404
 21
102.1708034483318
 31
0.0
 70
    32
 71
     5
 42
24.0
  3
SYS$0
100
AcDbAlignedDimension
 13
218.9212798163404
 23
113.1776178293318
 33
0.0
 14
242.9212798163404
 24
113.0708034483318
 34
0.0
100
AcDbRotatedDimension
  0
DIMENSION
  5
BEEB
330
1F
100
AcDbEntity
  8
AM_5
100
AcDbDimension
  2
*D7
 10
212.9227294177051
 20
89.07080344833159
 30
0.0
 11
230.9212798163404
 21
92.17080344833158
 31
0.0
 70
    32
 71
     5
 42
35.99710079727052
  3
SYS$0
100
AcDbAlignedDimension
 13
248.9198302149757
 23
116.5312287288424
 33
0.0
 14
212.9227294177051
 24
116.5312287288424
 34
0.0
100
AcDbRotatedDimension
  0
DIMENSION
  5
BF01
330
1F
100
AcDbEntity
  8
AM_5
100
AcDbDimension
  2
*D8
 10
259.1279812182101
 20
110.3872750197806
 30
0.0
 11
256.0279812182101
 21
116.5872750198892
 31
0.0
 70
    32
  1
12.5
 71
     5
 42
12.40000000021712
  3
SYS$0
100
AcDbAlignedDimension
 13
247.1279812182102
 23
122.7872750199977
 33
0.0
 14
246.7749127701322
 24
110.3872750197806
 34
0.0
 50
90.0
100
AcDbRotatedDimension
  0
DIMENSION
  5
BF29
330
1F
100
AcDbEntity
  8
AM_5
100
AcDbDimension
  2
*D9
 10
193.3669686684524
 20
128.3872750198318
 30
0.0
 11
193.3669686684524
 21
111.6339416864984
 31
0.0
 70
   160
  1
12.5
 71
     5
 42
11.00000000000001
  3
SYS$0
100
AcDbAlignedDimension
 13
214.1067828673404
 23
117.3872750198317
 33
0.0
 14
214.1067828673404
 24
128.3872750198318
 34
0.0
 50
90.0
100
AcDbRotatedDimension
  0
LINE
  5
BF77
330
1F
100
AcDbEntity
  8
AM_0
100
AcDbLine
 10
99.90185134722194
 20
68.9017029049219
 30
0.0
 11
237.4212798163404
 21
68.90170290414721
 31
0.0
  0
LINE
  5
BF78
330
1F
100
AcDbEntity
  8
AM_0
100
AcDbLine
 10
99.901851347493
 20
56.90170290414721
 30
0.0
 11
224.9212798163404
 21
56.90170290414721
 31
0.0
  0
DIMENSION
  5
BF79
330
1F
100
AcDbEntity
  8
AM_5
100
AcDbDimension
  2
*D10
 10
69.92127881634043
 20
138.8872750198318
 30
0.0
 11
69.92127881634042
 21
146.0739416864984
 31
0.0
 70
   160
 71
     5
 42
1.5
  3
SYS$0
100
AcDbAlignedDimension
 13
81.92127981634042
 23
140.3872750198317
 33
0.0
 14
81.92127981634042
 24
138.8872750198318
 34
0.0
 50
90.0
100
AcDbRotatedDimension
  0
DIMENSION
  5
BF93
330
1F
100
AcDbEntity
  8
AM_5
100
AcDbDimension
  2
*D11
 10
59.9212788163404
 20
134.3872750198318
 30
0.0
 11
56.82127881634038
 21
137.3872750198318
 31
0.0
 70
    32
 71
     5
 42
6.0
  3
SYS$0
100
AcDbAlignedDimension
 13
81.92127981634042
 23
140.3872750198317
 33
0.0
 14
81.92127981634042
 24
134.3872750198318
 34
0.0
 50
90.0
100
AcDbRotatedDimension
  0
DIMENSION
  5
BFAB
330
1F
100
AcDbEntity
  8
AM_5
100
AcDbDimension
  2
*D12
 10
49.92127881634038
 20
125.3872750198318
 30
0.0
 11
46.82127881634036
 21
132.8872750198318
 31
0.0
 70
    32
 71
     5
 42
15.00000000000001
  3
SYS$0
100
AcDbAlignedDimension
 13
81.92127981634042
 23
140.3872750198317
 33
0.0
 14
80.92127981634041
 24
125.3872750198318
 34
0.0
 50
90.0
100
AcDbRotatedDimension
  0
DIMENSION
  5
BFE0
330
1F
100
AcDbEntity
  8
AM_5
100
AcDbDimension
  2
*D13
 10
178.563105553941
 20
125.3872750198317
 30
0.0
 11
175.463105553941
 21
121.1406083531651
 31
0.0
 70
    32
 71
     5
 42
3.0
  3
SYS$0
100
AcDbAlignedDimension
 13
159.6712798163404
 23
128.3872750198318
 33
0.0
 14
159.6712798163404
 24
125.3872750198318
 34
0.0
 50
90.0
100
AcDbRotatedDimension
  0
DIMENSION
  5
BFFA
330
1F
100
AcDbEntity
  8
AM_5
100
AcDbDimension
  2
*D14
 10
260.9212808163404
 20
54.90170290414721
 30
0.0
 11
260.9212808163404
 21
47.71503623748057
 31
0.0
 70
   160
 71
     5
 42
1.5
  3
SYS$0
100
AcDbAlignedDimension
 13
248.9212798163404
 23
53.40170290414722
 33
0.0
 14
248.9212798163404
 24
54.90170290414721
 34
0.0
 50
90.0
100
AcDbRotatedDimension
  0
DIMENSION
  5
C014
330
1F
100
AcDbEntity
  8
AM_5
100
AcDbDimension
  2
*D15
 10
270.9212808163403
 20
62.90170290414721
 30
0.0
 11
267.8212808163403
 21
58.15170290414726
 31
0.0
 70
    32
 71
     5
 42
9.5
  3
SYS$0
100
AcDbAlignedDimension
 13
248.9212798163404
 23
53.40170290414722
 33
0.0
 14
244.1634465903404
 24
62.90170290414721
 34
0.0
 50
90.0
100
AcDbRotatedDimension
1001
ACAD
1000
DSTYLE
1002
{
1070
   271
1070
     0
1002
}
  0
DIMENSION
  5
C050
330
1F
100
AcDbEntity
  8
AM_5
100
AcDbDimension
  2
*D16
 10
177.1203653315739
 20
56.9017029041472
 30
0.0
 11
177.1203653315739
 21
75.50772495812544
 31
0.0
 70
   160
 71
     5
 42
12.00000000038734
  3
SYS$0
100
AcDbAlignedDimension
 13
168.6615655817812
 23
68.90170290453454
 33
0.0
 14
168.6615655817812
 24
56.90170290414721
 34
0.0
 50
89.99999999967716
100
AcDbRotatedDimension
  0
DIMENSION
  5
C070
330
1F
100
AcDbEntity
  8
AM_5
100
AcDbDimension
  2
*D17
 10
99.92127981634041
 20
91.90170290414721
 30
0.0
 11
90.92127981632405
 21
95.0017029041472
 31
0.0
 70
    32
 71
     5
 42
18.00000000003274
  3
SYS$0
100
AcDbAlignedDimension
 13
81.92127981630767
 23
79.90170290412265
 33
0.0
 14
99.92127981634041
 24
79.90170290414721
 34
0.0
100
AcDbRotatedDimension
  0
DIMENSION
  5
C086
330
1F
100
AcDbEntity
  8
AM_5
100
AcDbDimension
  2
*D18
 10
59.5951624010496
 20
42.90170290414722
 30
0.0
 11
59.5951624010496
 21
75.90125798334856
 31
0.0
 70
   160
 71
     5
 42
40.0
  3
SYS$0
100
AcDbAlignedDimension
 13
90.92127981634041
 23
82.90170290414721
 33
0.0
 14
90.92127981634041
 24
42.90170290414721
 34
0.0
 50
90.0
100
AcDbRotatedDimension
  0
DIMENSION
  5
C09C
330
1F
100
AcDbEntity
  8
AM_5
100
AcDbDimension
  2
*D19
 10
69.85294630556076
 20
47.40170290414722
 30
0.0
 11
69.85294630556075
 21
73.6838074704844
 31
0.0
 70
   160
  1
（<>）
 71
     5
 42
31.0
  3
SYS$0
100
AcDbAlignedDimension
 13
86.19838414934042
 23
78.40170290414722
 33
0.0
 14
86.19838414934042
 24
47.40170290414721
 34
0.0
 50
90.0
100
AcDbRotatedDimension
  0
DIMENSION
  5
C0DF
330
1F
100
AcDbEntity
  8
AM_5
100
AcDbDimension
  2
*D20
 10
230.9212798163404
 20
34.21046310957417
 30
0.0
 11
130.6712798163404
 21
37.31046310957417
 31
0.0
 70
    32
  1
L
 71
     5
 42
200.5
  3
SYS$0
100
AcDbAlignedDimension
 13
30.42127981634042
 23
62.90170290414721
 33
0.0
 14
230.9212798163404
 24
49.45411683664724
 34
0.0
100
AcDbRotatedDimension
  0
DIMENSION
  5
C11D
330
1F
100
AcDbEntity
  8
AM_5
100
AcDbDimension
  2
*D21
 10
88.64872741159656
 20
76.44325822336272
 30
0.0
 11
119.0035425093954
 21
91.84888783598447
 31
0.0
 70
   163
  1
2-%%c3×%%c<>サラ
 71
     5
 42
6.000000000000071
  3
SYS$3
100
AcDbDiametricDimension
 15
93.1938322210844
 25
80.36014758493159
 35
0.0
 40
0.0
1001
ACAD
1000
DSTYLE
1002
{
1070
     3
1000
<>
1070
   172
1070
     1
1070
   342
1005
BD11
1002
}
  0
LINE
  5
C37F
330
1F
100
AcDbEntity
  8
AM_0
100
AcDbLine
 10
138.4424537753935
 20
178.5000000504797
 30
0.0
 11
178.4424537753935
 21
178.5000000504797
 31
0.0
  0
LINE
  5
C380
330
1F
100
AcDbEntity
  8
AM_0
100
AcDbLine
 10
138.4424537753935
 20
178.5000000504797
 30
0.0
 11
138.4424537753935
 21
153.5000000504797
 31
0.0
  0
LINE
  5
C381
330
1F
100
AcDbEntity
  8
AM_0
100
AcDbLine
 10
138.4424537753935
 20
171.5000000504798
 30
0.0
 11
178.4424537753935
 21
171.5000000504797
 31
0.0
  0
LINE
  5
C382
330
1F
100
AcDbEntity
  8
AM_2
100
AcDbLine
 10
138.4424537753935
 20
165.5000000504798
 30
0.0
 11
178.4424537753935
 21
165.5000000504798
 31
0.0
  0
MTEXT
  5
C383
330
1F
100
AcDbEntity
  8
AM_6
100
AcDbMText
 10
150.9424537753935
 20
175.0000000504797
 30
0.0
 40
3.2
 41
25.0
 71
     5
 72
     5
  1
品　番
 73
     1
 44
1.0
1001
ACAD
1000
MTEXTBEGIN
1070
    73
1070
     1
1070
    44
1040
1.0
1070
    74
1070
     0
1000
MTEXTEND
  0
MTEXT
  5
C384
330
1F
100
AcDbEntity
  8
AM_6
100
AcDbMText
 10
150.9424537753935
 20
168.5000000504798
 30
0.0
 40
3.2
 41
25.0
 71
     5
 72
     5
  1
EDS-32-1
 73
     1
 44
1.0
1001
ACAD
1000
MTEXTBEGIN
1070
    73
1070
     1
1070
    44
1040
1.0
1070
    74
1070
     0
1000
MTEXTEND
1000
ACAD_MTEXT_DEFINED_HEIGHT_BEGIN
1070
    46
1040
6.000000000000012
1000
ACAD_MTEXT_DEFINED_HEIGHT_END
  0
LINE
  5
C385
330
1F
100
AcDbEntity
  8
AM_0
100
AcDbLine
 10
163.4424537753935
 20
178.5000000504797
 30
0.0
 11
163.4424537753934
 21
153.5000000504798
 31
0.0
  0
LINE
  5
C386
330
1F
100
AcDbEntity
  8
AM_0
100
AcDbLine
 10
178.4424537753935
 20
178.5000000504797
 30
0.0
 11
178.4424537753934
 21
153.5000000504798
 31
0.0
  0
MTEXT
  5
C387
330
1F
100
AcDbEntity
  8
AM_6
100
AcDbMText
 10
170.9424537753935
 20
175.0000000504797
 30
0.0
 40
3.2
 41
14.99999999999997
 71
     5
 72
     5
  1
L
 73
     1
 44
1.0
1001
ACAD
1000
MTEXTBEGIN
1070
    73
1070
     1
1070
    44
1040
1.0
1070
    74
1070
     0
1000
MTEXTEND
  0
MTEXT
  5
C388
330
1F
100
AcDbEntity
  8
AM_6
100
AcDbMText
 10
170.9424537753935
 20
168.5000000504798
 30
0.0
 40
3.2
 41
14.99999999999997
 71
     5
 72
     5
  1
200
 73
     1
 44
1.0
1001
ACAD
1000
MTEXTBEGIN
1070
    73
1070
     1
1070
    44
1040
1.0
1070
    74
1070
     0
1000
MTEXTEND
1000
ACAD_MTEXT_DEFINED_HEIGHT_BEGIN
1070
    46
1040
5.999999999999984
1000
ACAD_MTEXT_DEFINED_HEIGHT_END
  0
MTEXT
  5
C389
330
1F
100
AcDbEntity
  8
AM_6
100
AcDbMText
 10
170.9424537753935
 20
162.5000000504798
 30
0.0
 40
3.2
 41
14.99999999999991
 71
     5
 72
     5
  1
230
 73
     1
 44
1.0
1001
ACAD
1000
MTEXTBEGIN
1070
    73
1070
     1
1070
    44
1040
1.0
1070
    74
1070
     0
1000
MTEXTEND
1000
ACAD_MTEXT_DEFINED_HEIGHT_BEGIN
1070
    46
1040
5.999999999999955
1000
ACAD_MTEXT_DEFINED_HEIGHT_END
  0
MTEXT
  5
C38A
330
1F
100
AcDbEntity
  8
AM_6
100
AcDbMText
 10
150.9424537753935
 20
162.5000000504797
 30
0.0
 40
3.2
 41
25.0
 71
     5
 72
     5
  1
EDS-32-2
 73
     1
 44
1.0
1001
ACAD
1000
MTEXTBEGIN
1070
    73
1070
     1
1070
    44
1040
1.0
1070
    74
1070
     0
1000
MTEXTEND
1000
ACAD_MTEXT_DEFINED_HEIGHT_BEGIN
1070
    46
1040
6.000000000000012
1000
ACAD_MTEXT_DEFINED_HEIGHT_END
  0
LINE
  5
C38B
330
1F
100
AcDbEntity
  8
AM_2
100
AcDbLine
 10
138.4424537753935
 20
159.5000000504797
 30
0.0
 11
178.4424537753934
 21
159.5000000504798
 31
0.0
  0
LINE
  5
C38C
330
1F
100
AcDbEntity
  8
AM_0
100
AcDbLine
 10
138.4424537753935
 20
153.5000000504797
 30
0.0
 11
178.4424537753934
 21
153.5000000504798
 31
0.0
  0
MTEXT
  5
C38D
330
1F
100
AcDbEntity
  8
AM_6
100
AcDbMText
 10
170.9424537753935
 20
156.5000000504798
 30
0.0
 40
3.2
 41
14.99999999999991
 71
     5
 72
     5
  1
260
 73
     1
 44
1.0
1001
ACAD
1000
MTEXTBEGIN
1070
    73
1070
     1
1070
    44
1040
1.0
1070
    74
1070
     0
1000
MTEXTEND
1000
ACAD_MTEXT_DEFINED_HEIGHT_BEGIN
1070
    46
1040
6.000000000000069
1000
ACAD_MTEXT_DEFINED_HEIGHT_END
  0
MTEXT
  5
C38E
330
1F
100
AcDbEntity
  8
AM_6
100
AcDbMText
 10
150.9424537753935
 20
156.5000000504797
 30
0.0
 40
3.2
 41
25.0
 71
     5
 72
     5
  1
EDS-32-3
 73
     1
 44
1.0
1001
ACAD
1000
MTEXTBEGIN
1070
    73
1070
     1
1070
    44
1040
1.0
1070
    74
1070
     0
1000
MTEXTEND
1000
ACAD_MTEXT_DEFINED_HEIGHT_BEGIN
1070
    46
1040
6.000000000000012
1000
ACAD_MTEXT_DEFINED_HEIGHT_END
  0
DIMENSION
  5
C42E
330
1F
100
AcDbEntity
  8
AM_5
100
AcDbDimension
  2
*D22
 10
242.1133154574845
 20
115.2873479747134
 30
0.0
 11
262.4063742423191
 21
131.0497771675795
 31
0.0
 70
   163
  1
2-%%c3×%%c<>サラ
 71
     5
 42
4.500000000000085
  3
SYS$3
100
AcDbDiametricDimension
 15
243.7292441751961
 25
119.4872020649499
 35
0.0
 40
0.0
1001
ACAD
1000
DSTYLE
1002
{
1070
     3
1000
<>
1070
   172
1070
     1
1070
   342
1005
BD11
1002
}
  0
ENDSEC
  0
SECTION
  2
OBJECTS
  0
DICTIONARY
  5
C
330
0
100
AcDbDictionary
281
     1
  3
ACAD_2007HEADERVARS_RT
350
C673
  3
ACAD_BGPLOT_KEY
350
AB06
  3
ACAD_COLOR
350
A91D
  3
ACAD_GROUP
350
D
  3
ACAD_LAYOUT
350
1A
  3
ACAD_MATERIAL
350
A91C
  3
ACAD_MLINESTYLE
350
17
  3
ACAD_PLOTSETTINGS
350
19
  3
ACAD_PLOTSTYLENAME
350
E
  3
ACAD_TABLESTYLE
350
AAB9
  3
ACAD_VISUALSTYLE
350
B0F1
  3
AcAsAppObject
350
3DA1
  3
ACASGREF_MASTER
350
3DE9
  3
AcDbVariableDictionary
350
34
  3
AcmDictionary
350
47
  3
AD_GREF_MODULE
350
3DEA
  3
AD_MAPI_MODULE
350
3E06
  3
AMG
350
2B
  3
AMGSNAPSETTINGS
350
7D
  3
ASE_INDEX_DICTIONARY
350
B331
  3
DWGPROPS
350
C672
  3
MAPISURF_MODULE
350
3DEB
  0
DICTIONARY
  5
3F95
330
2
100
AcDbDictionary
280
     1
281
     1
  3
ACAD_LAYERFILTERS
360
B466
  3
ACAD_LAYERSTATES
360
3F96
  3
ACLYDICTIONARY
360
B465
  3
AMLAYER_GROUPCOLORS
360
AAB4
  0
DICTIONARY
  5
8A
330
1F
100
AcDbDictionary
280
     1
281
     1
  3
ACAD_SORTENTS
360
B1BA
  0
DICTIONARY
  5
C673
102
{ACAD_REACTORS
330
C
102
}
330
C
100
AcDbDictionary
281
     1
  3
DIMARCSYM
350
C674
  0
DICTIONARY
  5
AB06
102
{ACAD_REACTORS
330
C
102
}
330
C
100
AcDbDictionary
280
     1
281
     1
  0
DICTIONARY
  5
A91D
102
{ACAD_REACTORS
330
C
102
}
330
C
100
AcDbDictionary
281
     1
  0
DICTIONARY
  5
D
102
{ACAD_REACTORS
330
C
102
}
330
C
100
AcDbDictionary
281
     1
  0
DICTIONARY
  5
1A
102
{ACAD_REACTORS
330
C
102
}
330
C
100
AcDbDictionary
281
     1
  3
Model
350
22
  3
ﾚｲｱｳﾄ1
350
1E
  3
ﾚｲｱｳﾄ2
350
26
  0
DICTIONARY
  5
A91C
102
{ACAD_REACTORS
330
C
102
}
330
C
100
AcDbDictionary
281
     1
  3
ByBlock
350
B0EF
  3
ByLayer
350
B0EE
  3
Global
350
B0F0
  0
DICTIONARY
  5
17
102
{ACAD_REACTORS
330
C
102
}
330
C
100
AcDbDictionary
281
     1
  3
Standard
350
18
  0
DICTIONARY
  5
19
102
{ACAD_REACTORS
330
C
102
}
330
C
100
AcDbDictionary
281
     1
  0
ACDBDICTIONARYWDFLT
  5
E
102
{ACAD_REACTORS
330
C
102
}
330
C
100
AcDbDictionary
281
     1
  3
Normal
350
F
100
AcDbDictionaryWithDefault
340
F
  0
DICTIONARY
  5
AAB9
102
{ACAD_REACTORS
330
C
102
}
330
C
100
AcDbDictionary
281
     1
  3
Standard
350
AABA
  0
DICTIONARY
  5
B0F1
102
{ACAD_REACTORS
330
C
102
}
330
C
100
AcDbDictionary
281
     1
  3
2dWireframe
350
B0F7
  3
3D Hidden
350
B0F9
  3
3dWireframe
350
B0F8
  3
Basic
350
B0F6
  3
Brighten
350
B0FD
  3
ColorChange
350
B101
  3
Conceptual
350
B0FA
  3
Dim
350
B0FC
  3
Facepattern
350
B100
  3
Flat
350
B0F2
  3
FlatWithEdges
350
B0F3
  3
Gouraud
350
B0F4
  3
GouraudWithEdges
350
B0F5
  3
Linepattern
350
B0FF
  3
Realistic
350
B0FB
  3
Thicken
350
B0FE
  0
ACAD_PROXY_OBJECT
  5
3DA1
102
{ACAD_REACTORS
330
C
102
}
330
C
100
AcDbProxyObject
 90
      499
 91
      576
 95
   917527
 70
     0
 93
       10
310
407F
 94
        0
1001
ACAD
1000
AcRTDxfName
1000
ASAPP
  0
ACAD_PROXY_OBJECT
  5
3DE9
102
{ACAD_REACTORS
330
C
102
}
330
C
100
AcDbProxyObject
 90
      499
 91
      581
 95
   917527
 70
     0
 93
       34
310
010000407F
 94
        0
1001
ACAD
1000
AcRTDxfName
1000
ACASGREFMASTER
  0
DICTIONARY
  5
34
102
{ACAD_REACTORS
330
C
102
}
330
C
100
AcDbDictionary
281
     1
  3
CTABLESTYLE
350
AAF3
  3
DIMASSOC
350
A10C
  3
FIELDEVAL
350
AB07
  3
INDEXCTL
350
35
  3
SORTENTS
350
194C
  0
DICTIONARY
  5
47
102
{ACAD_REACTORS
330
C
102
}
330
C
100
AcDbDictionary
281
     1
  3
AcmBOM
350
7E8
  3
AcmStdDictionary
350
4C
  3
AMDTSECTSYM_ARROWCOLOR
350
A929
  0
ACAD_PROXY_OBJECT
  5
3DEA
102
{ACAD_REACTORS
330
C
102
}
330
C
100
AcDbProxyObject
 90
      499
 91
      582
 95
   917527
 70
     0
 93
      114
310
00000043800000000000000000003F
 94
        0
1001
ACAD
1000
AcRTDxfName
1000
ACADGREFMODULE
  0
ACAD_PROXY_OBJECT
  5
3E06
102
{ACAD_REACTORS
330
C
102
}
330
C
100
AcDbProxyObject
 90
      499
 91
      594
 95
   917527
 70
     0
 93
       34
310
05000044FF
 94
        0
1001
ACAD
1000
AcRTDxfName
1000
MAPIADMODULE
  0
DICTIONARY
  5
2B
102
{ACAD_REACTORS
330
C
102
}
330
C
100
AcDbDictionary
281
     1
  0
DICTIONARY
  5
7D
102
{ACAD_REACTORS
330
C
102
}
330
C
100
AcDbDictionary
281
     1
  0
DICTIONARY
  5
B331
102
{ACAD_REACTORS
330
C
102
}
330
C
100
AcDbDictionary
281
     1
  3
ASEBlockHierarchyIndexRecord
350
B332
1001
DCO15
1040
1594111214.218
  0
XRECORD
  5
C672
102
{ACAD_REACTORS
330
C
102
}
330
C
100
AcDbXrecord
280
     1
  1
DWGPROPS COOKIE
  2

  3

  4

  6

  7

  8
Administrator
  9

300
AmdtFileType=84
301
=
302
=
303
=
304
=
305
=
306
=
307
=
308
=
309
=
 40
0.0672236689814815
 41
2456139.798878935
 42
2456267.587927511
  1

 90
        1
  0
ACAD_PROXY_OBJECT
  5
3DEB
102
{ACAD_REACTORS
330
C
102
}
330
C
100
AcDbProxyObject
 90
      499
 91
      583
 95
   917527
 70
     0
 93
        8
310
047E
 94
        0
1001
ACAD
1000
AcRTDxfName
1000
AMDTMAPISURFMOUDULE
  0
DICTIONARY
  5
B466
102
{ACAD_REACTORS
330
3F95
102
}
330
3F95
100
AcDbDictionary
281
     1
  0
DICTIONARY
  5
3F96
102
{ACAD_REACTORS
330
3F95
102
}
330
3F95
100
AcDbDictionary
281
     1
  3
20011210
350
3FB7
  0
DICTIONARY
  5
B465
102
{ACAD_REACTORS
330
3F95
102
}
330
3F95
100
AcDbDictionary
281
     1
1001
ACAD
1000
<All
  0
DICTIONARY
  5
AAB4
102
{ACAD_REACTORS
330
3F95
102
}
330
3F95
100
AcDbDictionary
280
     1
281
     1
  0
SORTENTSTABLE
  5
B1BA
102
{ACAD_REACTORS
330
8A
102
}
330
8A
100
AcDbSortentsTable
330
1F
331
B538
  5
B538
331
BE05
  5
BE05
331
B6AF
  5
B6C3
331
BECC
  5
BF01
331
BE0D
  5
BE0D
331
BDD6
  5
BDD6
331
BE15
  5
BE15
331
BDDE
  5
BDDE
331
BE1D
  5
BE1D
331
B867
  5
B867
331
BDE6
  5
BDE6
331
BFFA
  5
BFFA
331
BDEE
  5
BDEE
331
BF93
  5
BF93
331
BDF6
  5
BDF6
331
BE2D
  5
BE2F
331
C37F
  5
C37F
331
BDFE
  5
BDFE
331
BE35
  5
BE37
331
C387
  5
C38C
331
B539
  5
B539
331
B6A8
  5
B6BC
331
B6B0
  5
B6C4
331
BE06
  5
BE06
331
BFAB
  5
BFAB
331
BE0E
  5
BE0E
331
BDCF
  5
BDCF
331
BE16
  5
BE16
331
BDD7
  5
BDD7
331
BDE7
  5
BDE7
331
B868
  5
B868
331
BE1E
  5
BE1E
331
BDEF
  5
BDEF
331
BE26
  5
BE28
331
BE2E
  5
BE30
331
BDF7
  5
BDF7
331
C380
  5
C380
331
BDFF
  5
BDFF
331
C388
  5
C38D
331
B53A
  5
B53A
331
B6A9
  5
B6BD
331
BE07
  5
BE07
331
B6B1
  5
B6C5
331
BDD0
  5
BDD0
331
BE0F
  5
BE0F
331
BDD8
  5
BDD8
331
BE17
  5
BE17
331
BDE0
  5
BDE0
331
BE1F
  5
BE1F
331
BDE8
  5
BDE8
331
BDF0
  5
BDF0
331
BE27
  5
BE29
331
BDF8
  5
BDF8
331
B6A2
  5
B6B0
331
BE2F
  5
BE31
331
C381
  5
C382
331
BE37
  5
BECC
331
C389
  5
C38E
331
B53B
  5
B53B
331
B6AA
  5
B6BE
331
BE00
  5
BE00
331
C014
  5
C014
331
B6B2
  5
B6C6
331
BE08
  5
BE08
331
BE10
  5
BE10
331
BDD1
  5
BDD1
331
BDD9
  5
BDD9
331
BDE1
  5
BDE1
331
BE18
  5
BE18
331
BDE9
  5
BDE9
331
BDF1
  5
BDF1
331
BE28
  5
BE2A
331
BE30
  5
BE34
331
B6A3
  5
B6B1
331
BDF9
  5
BDF9
331
C382
  5
C384
331
C38A
  5
C38F
331
BE01
  5
BE01
331
B53C
  5
B53C
331
B6AB
  5
B6BF
331
BE38
  5
BEEB
331
BE09
  5
BE09
331
BDD2
  5
BDD2
331
BE11
  5
BE11
331
BDDA
  5
BDDA
331
BF77
  5
BE24
331
C09C
  5
C09C
331
BDE2
  5
BDE2
331
BE19
  5
BE19
331
BDEA
  5
BDEA
331
BE21
  5
BE21
331
BDF2
  5
BDF2
331
BE29
  5
BE2B
331
BDFA
  5
BDFA
331
B6A4
  5
B6B2
331
C383
  5
C386
331
C38B
  5
C390
331
B53D
  5
B53D
331
B6AC
  5
B6C0
331
BE02
  5
BE02
331
BE0A
  5
BE0A
331
BE12
  5
BE12
331
BDD3
  5
BDD3
331
BDDB
  5
BDDB
331
BF78
  5
BE27
331
BDE3
  5
BDE3
331
BE1A
  5
BE1A
331
BDEB
  5
BDEB
331
BE22
  5
BE22
331
BF01
  5
BF77
331
BE2A
  5
BE2C
331
BDFB
  5
BDFB
331
B536
  5
B536
331
B6A5
  5
B6B9
331
C384
  5
C387
331
C38C
  5
C392
331
BE03
  5
BE03
331
B6AD
  5
B6C1
331
BF29
  5
BF78
331
BE0B
  5
BE0B
331
BDD4
  5
BDD4
331
BE13
  5
BE13
331
C11D
  5
C11D
331
BFE0
  5
BFE0
331
C086
  5
C086
331
BF79
  5
BF79
331
B865
  5
B865
331
BDE4
  5
BDE4
331
BE1B
  5
BE1B
331
BDEC
  5
BDEC
331
BE2B
  5
BE2D
331
BDFC
  5
BDFC
331
B537
  5
B537
331
B6A6
  5
B6BA
331
C385
  5
C388
331
C38D
  5
C394
331
B6AE
  5
B6C2
331
BE04
  5
BE04
331
BE0C
  5
BE0C
331
BE14
  5
BE14
331
BDD5
  5
BDD5
331
BDDD
  5
BDDD
331
BEEB
  5
BF29
331
BE1C
  5
BE1C
331
BDED
  5
BDED
331
BE24
  5
BE25
331
BDF5
  5
BDF5
331
BE2C
  5
BE2E
331
C050
  5
C050
331
BDFD
  5
BDFD
331
B6A7
  5
B6BB
331
C0DF
  5
C0DF
331
C070
  5
C070
331
C386
  5
C38A
331
C38E
  5
C395
  0
XRECORD
  5
C674
102
{ACAD_REACTORS
330
C673
102
}
330
C673
100
AcDbXrecord
280
     1
 70
     1
  0
LAYOUT
  5
22
102
{ACAD_XDICTIONARY
360
C677
102
}
102
{ACAD_REACTORS
330
1A
102
}
330
1A
100
AcDbPlotSettings
  1

  2
DocuCentre-II C5400
  4
A4
  6
AM_VIEW1
 40
4.857749938964843
 41
4.942390441894531
 42
4.942413330078125
 43
4.857757568359375
 44
209.9733276367187
 45
297.0106506347656
 46
-5.026481189569267
 47
-5.012982346966055
 48
214.3704939521119
 49
367.5855324241176
140
275.6727856380065
141
407.629191407817
142
1.0
143
1.0
 70
  3748
 72
     1
 73
     1
 74
     1
  7
monochrome.ctb
 75
     0
147
0.9532055446079798
148
0.1219317211093767
149
0.1133954358147093
100
AcDbLayout
  1
Model
 70
     1
 71
     0
 10
0.0
 20
0.0
 11
12.0
 21
9.0
 12
0.0
 22
0.0
 32
0.0
 14
0.0
 24
0.0
 34
0.0
 15
0.0
 25
0.0
 35
0.0
146
0.0
 13
0.0
 23
0.0
 33
0.0
 16
1.0
 26
0.0
 36
0.0
 17
0.0
 27
1.0
 37
0.0
 76
     0
330
1F
331
B0EC
1001
ACAD_PSEXT
1000
DocuCentre-II C5400
1000
FX DocuCentre-II C5400
1000
192.168.2.200
1000

1070
     0
  0
LAYOUT
  5
1E
102
{ACAD_XDICTIONARY
360
C675
102
}
102
{ACAD_REACTORS
330
1A
102
}
330
1A
100
AcDbPlotSettings
  1

  2
\\ML370\XEROX
  4
A4
  6

 40
3.174999952316284
 41
3.174999952316284
 42
3.175003051757812
 43
3.17498779296875
 44
209.8674926757813
 45
296.6719970703125
 46
0.0
 47
0.0
 48
0.0
 49
0.0
140
0.0
141
0.0
142
1.0
143
1.0
 70
   688
 72
     1
 73
     1
 74
     5
  7
monochrome.ctb
 75
    16
147
1.0
148
0.0
149
0.0
100
AcDbLayout
  1
ﾚｲｱｳﾄ1
 70
     1
 71
     1
 10
-3.17498779296875
 20
-3.174999952316284
 11
293.4970092773438
 21
206.692492723465
 12
0.0
 22
0.0
 32
0.0
 14
1.000000000000000E+20
 24
1.000000000000000E+20
 34
1.000000000000000E+20
 15
-1.000000000000000E+20
 25
-1.000000000000000E+20
 35
-1.000000000000000E+20
146
0.0
 13
0.0
 23
0.0
 33
0.0
 16
1.0
 26
0.0
 36
0.0
 17
0.0
 27
1.0
 37
0.0
 76
     0
330
1B
  0
LAYOUT
  5
26
102
{ACAD_XDICTIONARY
360
C679
102
}
102
{ACAD_REACTORS
330
1A
102
}
330
1A
100
AcDbPlotSettings
  1

  2
\\ML370\XEROX
  4

  6

 40
0.0
 41
0.0
 42
0.0
 43
0.0
 44
0.0
 45
0.0
 46
0.0
 47
0.0
 48
0.0
 49
0.0
140
0.0
141
0.0
142
1.0
143
1.0
 70
   688
 72
     0
 73
     0
 74
     5
  7
monochrome.ctb
 75
    16
147
1.0
148
0.0
149
0.0
100
AcDbLayout
  1
ﾚｲｱｳﾄ2
 70
     1
 71
     2
 10
0.0
 20
0.0
 11
12.0
 21
9.0
 12
0.0
 22
0.0
 32
0.0
 14
0.0
 24
0.0
 34
0.0
 15
0.0
 25
0.0
 35
0.0
146
0.0
 13
0.0
 23
0.0
 33
0.0
 16
1.0
 26
0.0
 36
0.0
 17
0.0
 27
1.0
 37
0.0
 76
     0
330
23
  0
MATERIAL
  5
B0EF
102
{ACAD_XDICTIONARY
360
C67F
102
}
102
{ACAD_REACTORS
330
A91C
102
}
330
A91C
100
AcDbMaterial
  1
ByBlock
  0
MATERIAL
  5
B0EE
102
{ACAD_XDICTIONARY
360
C67D
102
}
102
{ACAD_REACTORS
330
A91C
102
}
330
A91C
100
AcDbMaterial
  1
ByLayer
  0
MATERIAL
  5
B0F0
102
{ACAD_XDICTIONARY
360
C681
102
}
102
{ACAD_REACTORS
330
A91C
102
}
330
A91C
100
AcDbMaterial
  1
Global
  0
MLINESTYLE
  5
18
102
{ACAD_REACTORS
330
17
102
}
330
17
100
AcDbMlineStyle
  2
STANDARD
 70
     0
  3

 62
   256
 51
90.0
 52
90.0
 71
     2
 49
0.5
 62
   256
  6
BYLAYER
 49
-0.5
 62
   256
  6
BYLAYER
  0
ACDBPLACEHOLDER
  5
F
102
{ACAD_REACTORS
330
E
102
}
330
E
  0
TABLESTYLE
  5
AABA
102
{ACAD_XDICTIONARY
360
C67B
102
}
102
{ACAD_REACTORS
330
AAB9
102
}
330
AAB9
100
AcDbTableStyle
  3
Standard
 70
     0
 71
     0
 40
1.5
 41
1.5
280
     0
281
     0
  7
STANDARD
140
4.5
170
     2
 62
     0
 63
     7
283
     0
274
    -2
284
     1
 64
     0
275
    -2
285
     1
 65
     0
276
    -2
286
     1
 66
     0
277
    -2
287
     1
 67
     0
278
    -2
288
     1
 68
     0
279
    -2
289
     1
 69
     0
  7
STANDARD
140
6.0
170
     5
 62
     0
 63
     7
283
     0
274
    -2
284
     1
 64
     0
275
    -2
285
     1
 65
     0
276
    -2
286
     1
 66
     0
277
    -2
287
     1
 67
     0
278
    -2
288
     1
 68
     0
279
    -2
289
     1
 69
     0
  7
STANDARD
140
4.5
170
     5
 62
     0
 63
     7
283
     0
274
    -2
284
     1
 64
     0
275
    -2
285
     1
 65
     0
276
    -2
286
     1
 66
     0
277
    -2
287
     1
 67
     0
278
    -2
288
     1
 68
     0
279
    -2
289
     1
 69
     0
  0
VISUALSTYLE
  5
B0F7
102
{ACAD_REACTORS
330
B0F1
102
}
330
B0F1
100
AcDbVisualStyle
  2
2dWireframe
 70
     4
 71
     0
 72
     2
 73
     0
 90
        0
 40
-0.6
 41
-30.0
 62
     5
 63
     7
 74
     1
 91
        4
 64
     7
 65
   257
 75
     1
175
     1
 42
1.0
 92
        0
 66
   257
 43
1.0
 76
     1
 77
     6
 78
     2
 67
     7
 79
     5
170
     0
171
     0
290
     0
174
     0
 93
        1
 44
0.0
173
     0
291
     0
 45
0.0
1001
ACAD
1000
AcDbSavedByObjectVersion
1070
     0
  0
VISUALSTYLE
  5
B0F9
102
{ACAD_REACTORS
330
B0F1
102
}
330
B0F1
100
AcDbVisualStyle
  2
3D Hidden
 70
     6
 71
     1
 72
     2
 73
     2
 90
        0
 40
-0.6
 41
-30.0
 62
     5
 63
     7
 74
     2
 91
        2
 64
     7
 65
   257
 75
     2
175
     1
 42
40.0
 92
        0
 66
   257
 43
1.0
 76
     1
 77
     6
 78
     2
 67
     7
 79
     3
170
     0
171
     0
290
     0
174
     0
 93
        1
 44
0.0
173
     0
291
     0
 45
0.0
1001
ACAD
1000
AcDbSavedByObjectVersion
1070
     0
  0
VISUALSTYLE
  5
B0F8
102
{ACAD_REACTORS
330
B0F1
102
}
330
B0F1
100
AcDbVisualStyle
  2
3dWireframe
 70
     5
 71
     0
 72
     2
 73
     0
 90
        0
 40
-0.6
 41
-30.0
 62
     5
 63
     7
 74
     1
 91
        4
 64
     7
 65
   257
 75
     1
175
     1
 42
1.0
 92
        0
 66
   257
 43
1.0
 76
     1
 77
     6
 78
     2
 67
     7
 79
     5
170
     0
171
     0
290
     0
174
     0
 93
        1
 44
0.0
173
     0
291
     0
 45
0.0
1001
ACAD
1000
AcDbSavedByObjectVersion
1070
     0
  0
VISUALSTYLE
  5
B0F6
102
{ACAD_REACTORS
330
B0F1
102
}
330
B0F1
100
AcDbVisualStyle
  2
Basic
 70
     7
 71
     1
 72
     0
 73
     1
 90
        0
 40
-0.6
 41
-30.0
 62
     5
 63
     7
 74
     0
 91
        4
 64
     7
 65
   257
 75
     1
175
     1
 42
1.0
 92
        8
 66
     7
 43
1.0
 76
     1
 77
     6
 78
     2
 67
     7
 79
     5
170
     0
171
     0
290
     0
174
     0
 93
        1
 44
0.0
173
     0
291
     1
 45
0.0
1001
ACAD
1000
AcDbSavedByObjectVersion
1070
     0
  0
VISUALSTYLE
  5
B0FD
102
{ACAD_REACTORS
330
B0F1
102
}
330
B0F1
100
AcDbVisualStyle
  2
Brighten
 70
    12
 71
     2
 72
     2
 73
     0
 90
        0
 40
-0.6
 41
-30.0
 62
     5
 63
     7
 74
     1
 91
        4
 64
     7
 65
   257
 75
     1
175
     1
 42
1.0
 92
        8
 66
     7
 43
1.0
 76
     1
 77
     6
 78
     2
 67
     7
 79
     5
170
     0
171
     0
290
     0
174
     0
 93
        1
 44
50.0
173
     0
291
     1
 45
0.0
1001
ACAD
1000
AcDbSavedByObjectVersion
1070
     0
  0
VISUALSTYLE
  5
B101
102
{ACAD_REACTORS
330
B0F1
102
}
330
B0F1
100
AcDbVisualStyle
  2
ColorChange
 70
    16
 71
     2
 72
     2
 73
     3
 90
        0
 40
-0.6
 41
-30.0
 62
     5
 63
     8
 74
     1
 91
        4
 64
     7
 65
   257
 75
     1
175
     1
 42
1.0
 92
        8
 66
     8
 43
1.0
 76
     1
 77
     6
 78
     2
 67
     7
 79
     5
170
     0
171
     0
290
     0
174
     0
 93
        1
 44
0.0
173
     0
291
     1
 45
0.0
1001
ACAD
1000
AcDbSavedByObjectVersion
1070
     0
  0
VISUALSTYLE
  5
B0FA
102
{ACAD_REACTORS
330
B0F1
102
}
330
B0F1
100
AcDbVisualStyle
  2
Conceptual
 70
     9
 71
     3
 72
     2
 73
     0
 90
        0
 40
-0.6
 41
-30.0
 62
     5
 63
     7
 74
     2
 91
        2
 64
     7
 65
   257
 75
     1
175
     1
 42
40.0
 92
        8
 66
     7
 43
1.0
 76
     1
 77
     6
 78
     2
 67
     7
 79
     3
170
     0
171
     0
290
     0
174
     0
 93
        1
 44
0.0
173
     0
291
     0
 45
0.0
1001
ACAD
1000
AcDbSavedByObjectVersion
1070
     0
  0
VISUALSTYLE
  5
B0FC
102
{ACAD_REACTORS
330
B0F1
102
}
330
B0F1
100
AcDbVisualStyle
  2
Dim
 70
    11
 71
     2
 72
     2
 73
     0
 90
        0
 40
-0.6
 41
-30.0
 62
     5
 63
     7
 74
     1
 91
        4
 64
     7
 65
   257
 75
     1
175
     1
 42
1.0
 92
        8
 66
     7
 43
1.0
 76
     1
 77
     6
 78
     2
 67
     7
 79
     5
170
     0
171
     0
290
     0
174
     0
 93
        1
 44
-50.0
173
     0
291
     1
 45
0.0
1001
ACAD
1000
AcDbSavedByObjectVersion
1070
     0
  0
VISUALSTYLE
  5
B100
102
{ACAD_REACTORS
330
B0F1
102
}
330
B0F1
100
AcDbVisualStyle
  2
Facepattern
 70
    15
 71
     2
 72
     2
 73
     0
 90
        0
 40
-0.6
 41
-30.0
 62
     5
 63
     7
 74
     1
 91
        4
 64
     7
 65
   257
 75
     1
175
     1
 42
1.0
 92
        8
 66
     7
 43
1.0
 76
     1
 77
     6
 78
     2
 67
     7
 79
     5
170
     0
171
     0
290
     0
174
     0
 93
        1
 44
0.0
173
     0
291
     1
 45
0.0
1001
ACAD
1000
AcDbSavedByObjectVersion
1070
     0
  0
VISUALSTYLE
  5
B0F2
102
{ACAD_REACTORS
330
B0F1
102
}
330
B0F1
100
AcDbVisualStyle
  2
Flat
 70
     0
 71
     2
 72
     1
 73
     1
 90
        2
 40
-0.6
 41
30.0
 62
     5
 63
     7
 74
     0
 91
        4
 64
     7
 65
   257
 75
     1
175
     1
 42
1.0
 92
        8
 66
     7
 43
1.0
 76
     1
 77
     6
 78
     2
 67
     7
 79
     5
170
     0
171
     0
290
     0
174
     0
 93
       13
 44
0.0
173
     0
291
     1
 45
0.0
1001
ACAD
1000
AcDbSavedByObjectVersion
1070
     0
  0
VISUALSTYLE
  5
B0F3
102
{ACAD_REACTORS
330
B0F1
102
}
330
B0F1
100
AcDbVisualStyle
  2
FlatWithEdges
 70
     1
 71
     2
 72
     1
 73
     1
 90
        2
 40
-0.6
 41
30.0
 62
     5
 63
     7
 74
     1
 91
        4
 64
     7
 65
   257
 75
     1
175
     1
 42
1.0
 92
        0
 66
   257
 43
1.0
 76
     1
 77
     6
 78
     2
 67
     7
 79
     5
170
     0
171
     0
290
     0
174
     0
 93
       13
 44
0.0
173
     0
291
     1
 45
0.0
1001
ACAD
1000
AcDbSavedByObjectVersion
1070
     0
  0
VISUALSTYLE
  5
B0F4
102
{ACAD_REACTORS
330
B0F1
102
}
330
B0F1
100
AcDbVisualStyle
  2
Gouraud
 70
     2
 71
     2
 72
     2
 73
     1
 90
        2
 40
-0.6
 41
30.0
 62
     5
 63
     7
 74
     0
 91
        4
 64
     7
 65
   257
 75
     1
175
     1
 42
1.0
 92
        0
 66
     7
 43
1.0
 76
     1
 77
     6
 78
     2
 67
     7
 79
     5
170
     0
171
     0
290
     0
174
     0
 93
       13
 44
0.0
173
     0
291
     1
 45
0.0
1001
ACAD
1000
AcDbSavedByObjectVersion
1070
     0
  0
VISUALSTYLE
  5
B0F5
102
{ACAD_REACTORS
330
B0F1
102
}
330
B0F1
100
AcDbVisualStyle
  2
GouraudWithEdges
 70
     3
 71
     2
 72
     2
 73
     1
 90
        2
 40
-0.6
 41
30.0
 62
     5
 63
     7
 74
     1
 91
        4
 64
     7
 65
   257
 75
     1
175
     1
 42
1.0
 92
        0
 66
   257
 43
1.0
 76
     1
 77
     6
 78
     2
 67
     7
 79
     5
170
     0
171
     0
290
     0
174
     0
 93
       13
 44
0.0
173
     0
291
     1
 45
0.0
1001
ACAD
1000
AcDbSavedByObjectVersion
1070
     0
  0
VISUALSTYLE
  5
B0FF
102
{ACAD_REACTORS
330
B0F1
102
}
330
B0F1
100
AcDbVisualStyle
  2
Linepattern
 70
    14
 71
     2
 72
     2
 73
     0
 90
        0
 40
-0.6
 41
-30.0
 62
     5
 63
     7
 74
     1
 91
        4
 64
     7
 65
   257
 75
     7
175
     7
 42
1.0
 92
        8
 66
     7
 43
1.0
 76
     1
 77
     6
 78
     2
 67
     7
 79
     5
170
     0
171
     0
290
     0
174
     0
 93
        1
 44
0.0
173
     0
291
     1
 45
0.0
1001
ACAD
1000
AcDbSavedByObjectVersion
1070
     0
  0
VISUALSTYLE
  5
B0FB
102
{ACAD_REACTORS
330
B0F1
102
}
330
B0F1
100
AcDbVisualStyle
  2
Realistic
 70
     8
 71
     2
 72
     2
 73
     0
 90
        0
 40
-0.6
 41
-30.0
 62
     5
 63
     7
 74
     1
 91
        0
 64
     7
 65
   257
 75
     1
175
     1
 42
1.0
 92
        8
 66
     8
 43
1.0
 76
     1
 77
     6
 78
     2
 67
     7
 79
     5
170
     0
171
     0
290
     0
174
     0
 93
       13
 44
0.0
173
     0
291
     0
 45
0.0
1001
ACAD
1000
AcDbSavedByObjectVersion
1070
     0
  0
VISUALSTYLE
  5
B0FE
102
{ACAD_REACTORS
330
B0F1
102
}
330
B0F1
100
AcDbVisualStyle
  2
Thicken
 70
    13
 71
     2
 72
     2
 73
     0
 90
        0
 40
-0.6
 41
-30.0
 62
     5
 63
     7
 74
     1
 91
        4
 64
     7
 65
   257
 75
     1
175
     1
 42
1.0
 92
       12
 66
     7
 43
1.0
 76
     1
 77
     6
 78
     2
 67
     7
 79
     5
170
     0
171
     0
290
     0
174
     0
 93
        1
 44
0.0
173
     0
291
     1
 45
0.0
1001
ACAD
1000
AcDbSavedByObjectVersion
1070
     0
  0
DICTIONARYVAR
  5
AAF3
102
{ACAD_REACTORS
330
34
102
}
330
34
100
DictionaryVariables
280
     0
  1
STANDARD
  0
DICTIONARYVAR
  5
A10C
102
{ACAD_REACTORS
330
34
102
}
330
34
100
DictionaryVariables
280
     0
  1
1
  0
DICTIONARYVAR
  5
AB07
102
{ACAD_REACTORS
330
34
102
}
330
34
100
DictionaryVariables
280
     0
  1
4
  0
DICTIONARYVAR
  5
35
102
{ACAD_REACTORS
330
34
102
}
330
34
100
DictionaryVariables
280
     0
  1
0
  0
DICTIONARYVAR
  5
194C
102
{ACAD_REACTORS
330
34
102
}
330
34
100
DictionaryVariables
280
     0
  1
96
  0
DICTIONARY
  5
7E8
102
{ACAD_REACTORS
330
47
102
}
330
47
100
AcDbDictionary
281
     1
  0
DICTIONARY
  5
4C
102
{ACAD_REACTORS
330
47
102
}
330
47
100
AcDbDictionary
281
     1
  0
XRECORD
  5
A929
102
{ACAD_REACTORS
330
47
102
}
330
47
100
AcDbXrecord
280
     1
 90
-1023410169
  0
XRECORD
  5
B332
102
{ACAD_REACTORS
330
B331
102
}
330
B331
100
AcDbXrecord
280
     1
  0
XRECORD
  5
3FB7
102
{ACAD_REACTORS
330
3F96
102
}
330
3F96
100
AcDbXrecord
280
     1
 91
        3
330
0
 90
        8
 62
     7
370
    40
331
16
  1
Color_7
330
0
 90
        0
 62
    14
370
    -3
331
16
  1
Color_14
330
0
 90
        8
 62
     7
370
    20
331
16
  1
Color_7
330
6D1
 90
        0
 62
     7
370
    -3
331
16
  1
Color_7
330
0
 90
        8
 62
     7
370
    50
331
16
  1
Color_7
330
0
 90
        8
 62
     2
370
    35
331
16
  1
Color_2
330
0
 90
        8
 62
     7
370
    -3
331
16
  1
Color_7
330
10
 90
        8
 62
     7
370
    -3
331
16
  1
Color_7
  0
DICTIONARY
  5
C677
330
22
100
AcDbDictionary
280
     1
281
     1
  3
ACAD_XREC_ROUNDTRIP
360
C678
  0
DICTIONARY
  5
C675
330
1E
100
AcDbDictionary
280
     1
281
     1
  3
ACAD_XREC_ROUNDTRIP
360
C676
  0
DICTIONARY
  5
C679
330
26
100
AcDbDictionary
280
     1
281
     1
  3
ACAD_XREC_ROUNDTRIP
360
C67A
  0
DICTIONARY
  5
C67F
330
B0EF
100
AcDbDictionary
280
     1
281
     1
  3
ACAD_XREC_ROUNDTRIP
360
C680
  0
DICTIONARY
  5
C67D
330
B0EE
100
AcDbDictionary
280
     1
281
     1
  3
ACAD_XREC_ROUNDTRIP
360
C67E
  0
DICTIONARY
  5
C681
330
B0F0
100
AcDbDictionary
280
     1
281
     1
  3
ACAD_XREC_ROUNDTRIP
360
C682
  0
DICTIONARY
  5
C67B
330
AABA
100
AcDbDictionary
280
     1
281
     1
  3
ACAD_XREC_ROUNDTRIP
360
C67C
  0
XRECORD
  5
C678
102
{ACAD_REACTORS
330
C677
102
}
330
C677
100
AcDbXrecord
280
     1
102
SHADEPLOT
 70
     0
102
SHADEPLOTRESLEVEL
 70
     2
102
SHADEPLOTCUSTOMDPI
 70
   200
  0
XRECORD
  5
C676
102
{ACAD_REACTORS
330
C675
102
}
330
C675
100
AcDbXrecord
280
     1
102
SHADEPLOT
 70
     0
102
SHADEPLOTRESLEVEL
 70
     2
102
SHADEPLOTCUSTOMDPI
 70
   300
  0
XRECORD
  5
C67A
102
{ACAD_REACTORS
330
C679
102
}
330
C679
100
AcDbXrecord
280
     1
102
SHADEPLOT
 70
     0
102
SHADEPLOTRESLEVEL
 70
     2
102
SHADEPLOTCUSTOMDPI
 70
   300
  0
XRECORD
  5
C680
102
{ACAD_REACTORS
330
C67F
102
}
330
C67F
100
AcDbXrecord
280
     1
102
MATERIAL
148
0.0
149
0.0
149
0.0
 93
        0
 94
       63
282
     0
 72
     1
 77
     1
171
     1
175
     1
179
     1
273
     0
  0
XRECORD
  5
C67E
102
{ACAD_REACTORS
330
C67D
102
}
330
C67D
100
AcDbXrecord
280
     1
102
MATERIAL
148
0.0
149
0.0
149
0.0
 93
        0
 94
       63
282
     0
 72
     1
 77
     1
171
     1
175
     1
179
     1
273
     0
  0
XRECORD
  5
C682
102
{ACAD_REACTORS
330
C681
102
}
330
C681
100
AcDbXrecord
280
     1
102
MATERIAL
148
0.0
149
0.0
149
0.0
 93
        0
 94
       63
282
     0
 72
     1
 77
     1
171
     1
175
     1
179
     1
273
     0
  0
XRECORD
  5
C67C
102
{ACAD_REACTORS
330
C67B
102
}
330
C67B
100
AcDbXrecord
280
     1
102
ACAD_ROUNDTRIP_PRE2007_TABLESTYLE
 90
        4
 91
        0
  1

 92
        4
 93
        0
  2

 94
        4
 95
        0
  3

  0
ENDSEC
  0
EOF
