  0
SECTION
  2
HEADER
  9
$ACADVER
  1
AC1015
  9
$ACADMAINTVER
 70
    20
  9
$DWGCODEPAGE
  3
ANSI_932
  9
$INSBASE
 10
0.0
 20
0.0
 30
0.0
  9
$EXTMIN
 10
-0.091432904188423
 20
-0.0850318554016667
 30
-0.0000000000000058
  9
$EXTMAX
 10
297.1404971463544
 20
210.137885822669
 30
0.0000000000000104
  9
$LIMMIN
 10
1700.85588156276
 20
1647.985052086429
  9
$LIMMAX
 10
1997.85588156276
 20
1857.985052086429
  9
$ORTHOMODE
 70
     0
  9
$REGENMODE
 70
     1
  9
$FILLMODE
 70
     1
  9
$QTEXTMODE
 70
     0
  9
$MIRRTEXT
 70
     0
  9
$LTSCALE
 40
1.0
  9
$ATTMODE
 70
     1
  9
$TEXTSIZE
 40
3.2
  9
$TRACEWID
 40
1.0
  9
$TEXTSTYLE
  7
STANDARD
  9
$CLAYER
  8
細線
  9
$CELTYPE
  6
ByLayer
  9
$CECOLOR
 62
   256
  9
$CELTSCALE
 40
1.0
  9
$DISPSILH
 70
     0
  9
$DIMSCALE
 40
1.0
  9
$DIMASZ
 40
1.0
  9
$DIMEXO
 40
1.0
  9
$DIMDLI
 40
10.0
  9
$DIMRND
 40
0.0
  9
$DIMDLE
 40
0.0
  9
$DIMEXE
 40
1.0
  9
$DIMTP
 40
0.1
  9
$DIMTM
 40
0.1
  9
$DIMTXT
 40
3.5
  9
$DIMCEN
 40
0.0
  9
$DIMTSZ
 40
0.0
  9
$DIMTOL
 70
     0
  9
$DIMLIM
 70
     0
  9
$DIMTIH
 70
     0
  9
$DIMTOH
 70
     0
  9
$DIMSE1
 70
     0
  9
$DIMSE2
 70
     0
  9
$DIMTAD
 70
     1
  9
$DIMZIN
 70
     8
  9
$DIMBLK
  1

  9
$DIMASO
 70
     1
  9
$DIMSHO
 70
     1
  9
$DIMPOST
  1

  9
$DIMAPOST
  1
"
  9
$DIMALT
 70
     0
  9
$DIMALTD
 70
     2
  9
$DIMALTF
 40
0.0393701
  9
$DIMLFAC
 40
1.0
  9
$DIMTOFL
 70
     1
  9
$DIMTVP
 40
0.0
  9
$DIMTIX
 70
     0
  9
$DIMSOXD
 70
     0
  9
$DIMSAH
 70
     0
  9
$DIMBLK1
  1

  9
$DIMBLK2
  1

  9
$DIMSTYLE
  2
SYS
  9
$DIMCLRD
 70
   256
  9
$DIMCLRE
 70
   256
  9
$DIMCLRT
 70
     7
  9
$DIMTFAC
 40
0.71
  9
$DIMGAP
 40
1.5
  9
$DIMJUST
 70
     0
  9
$DIMSD1
 70
     0
  9
$DIMSD2
 70
     0
  9
$DIMTOLJ
 70
     0
  9
$DIMTZIN
 70
     8
  9
$DIMALTZ
 70
     0
  9
$DIMALTTZ
 70
     0
  9
$DIMUPT
 70
     0
  9
$DIMDEC
 70
     2
  9
$DIMTDEC
 70
     2
  9
$DIMALTU
 70
     2
  9
$DIMALTTD
 70
     2
  9
$DIMTXSTY
  7
STANDARD
  9
$DIMAUNIT
 70
     0
  9
$DIMADEC
 70
     0
  9
$DIMALTRND
 40
0.0
  9
$DIMAZIN
 70
     2
  9
$DIMDSEP
 70
    46
  9
$DIMATFIT
 70
     3
  9
$DIMFRAC
 70
     0
  9
$DIMLDRBLK
  1

  9
$DIMLUNIT
 70
     2
  9
$DIMLWD
 70
    -1
  9
$DIMLWE
 70
    -1
  9
$DIMTMOVE
 70
     0
  9
$LUNITS
 70
     2
  9
$LUPREC
 70
     2
  9
$SKETCHINC
 40
1.0
  9
$FILLETRAD
 40
0.0
  9
$AUNITS
 70
     0
  9
$AUPREC
 70
     0
  9
$MENU
  1
.
  9
$ELEVATION
 40
0.0
  9
$PELEVATION
 40
0.0
  9
$THICKNESS
 40
0.0
  9
$LIMCHECK
 70
     0
  9
$CHAMFERA
 40
0.0
  9
$CHAMFERB
 40
0.0
  9
$CHAMFERC
 40
20.0
  9
$CHAMFERD
 40
0.0
  9
$SKPOLY
 70
     0
  9
$TDCREATE
 40
2456139.798878935
  9
$TDUCREATE
 40
2456139.423878935
  9
$TDUPDATE
 40
2456267.588083403
  9
$TDUUPDATE
 40
2456267.213083403
  9
$TDINDWG
 40
0.0898052315
  9
$TDUSRTIMER
 40
0.0898050579
  9
$USRTIMER
 70
     1
  9
$ANGBASE
 50
0.0
  9
$ANGDIR
 70
     0
  9
$PDMODE
 70
     0
  9
$PDSIZE
 40
-3.0
  9
$PLINEWID
 40
0.0
  9
$SPLFRAME
 70
     0
  9
$SPLINETYPE
 70
     6
  9
$SPLINESEGS
 70
     8
  9
$HANDSEED
  5
C6E5
  9
$SURFTAB1
 70
     6
  9
$SURFTAB2
 70
     6
  9
$SURFTYPE
 70
     6
  9
$SURFU
 70
     6
  9
$SURFV
 70
     6
  9
$UCSBASE
  2

  9
$UCSNAME
  2

  9
$UCSORG
 10
0.0
 20
0.0
 30
0.0
  9
$UCSXDIR
 10
1.0
 20
0.0
 30
0.0
  9
$UCSYDIR
 10
0.0
 20
1.0
 30
0.0
  9
$UCSORTHOREF
  2

  9
$UCSORTHOVIEW
 70
     0
  9
$UCSORGTOP
 10
0.0
 20
0.0
 30
0.0
  9
$UCSORGBOTTOM
 10
0.0
 20
0.0
 30
0.0
  9
$UCSORGLEFT
 10
0.0
 20
0.0
 30
0.0
  9
$UCSORGRIGHT
 10
0.0
 20
0.0
 30
0.0
  9
$UCSORGFRONT
 10
0.0
 20
0.0
 30
0.0
  9
$UCSORGBACK
 10
0.0
 20
0.0
 30
0.0
  9
$PUCSBASE
  2

  9
$PUCSNAME
  2

  9
$PUCSORG
 10
0.0
 20
0.0
 30
0.0
  9
$PUCSXDIR
 10
1.0
 20
0.0
 30
0.0
  9
$PUCSYDIR
 10
0.0
 20
1.0
 30
0.0
  9
$PUCSORTHOREF
  2

  9
$PUCSORTHOVIEW
 70
     0
  9
$PUCSORGTOP
 10
0.0
 20
0.0
 30
0.0
  9
$PUCSORGBOTTOM
 10
0.0
 20
0.0
 30
0.0
  9
$PUCSORGLEFT
 10
0.0
 20
0.0
 30
0.0
  9
$PUCSORGRIGHT
 10
0.0
 20
0.0
 30
0.0
  9
$PUCSORGFRONT
 10
0.0
 20
0.0
 30
0.0
  9
$PUCSORGBACK
 10
0.0
 20
0.0
 30
0.0
  9
$USERI1
 70
     0
  9
$USERI2
 70
     0
  9
$USERI3
 70
     0
  9
$USERI4
 70
     0
  9
$USERI5
 70
     0
  9
$USERR1
 40
0.0
  9
$USERR2
 40
0.0
  9
$USERR3
 40
0.0
  9
$USERR4
 40
0.0
  9
$USERR5
 40
0.0
  9
$WORLDVIEW
 70
     1
  9
$SHADEDGE
 70
     3
  9
$SHADEDIF
 70
    70
  9
$TILEMODE
 70
     1
  9
$MAXACTVP
 70
    64
  9
$PINSBASE
 10
0.0
 20
0.0
 30
0.0
  9
$PLIMCHECK
 70
     0
  9
$PEXTMIN
 10
1.000000000000000E+20
 20
1.000000000000000E+20
 30
1.000000000000000E+20
  9
$PEXTMAX
 10
-1.000000000000000E+20
 20
-1.000000000000000E+20
 30
-1.000000000000000E+20
  9
$PLIMMIN
 10
-3.17498779296875
 20
-3.174999952316284
  9
$PLIMMAX
 10
293.4970092773438
 20
206.692492723465
  9
$UNITMODE
 70
     0
  9
$VISRETAIN
 70
     1
  9
$PLINEGEN
 70
     0
  9
$PSLTSCALE
 70
     1
  9
$TREEDEPTH
 70
  3020
  9
$CMLSTYLE
  2
Standard
  9
$CMLJUST
 70
     0
  9
$CMLSCALE
 40
20.0
  9
$PROXYGRAPHICS
 70
     1
  9
$MEASUREMENT
 70
     1
  9
$CELWEIGHT
370
    -1
  9
$ENDCAPS
280
     0
  9
$JOINSTYLE
280
     0
  9
$LWDISPLAY
290
     1
  9
$INSUNITS
 70
     4
  9
$HYPERLINKBASE
  1

  9
$STYLESHEET
  1
monochrome.ctb
  9
$XEDIT
290
     1
  9
$CEPSNTYPE
380
     0
  9
$PSTYLEMODE
290
     1
  9
$FINGERPRINTGUID
  2
{4DF3B1F6-3F13-4469-8453-5E0FD6DA0DB8}
  9
$VERSIONGUID
  2
{C04E6963-EBDE-4F5F-84A8-03D3EC86657B}
  9
$EXTNAMES
290
     1
  9
$PSVPSCALE
 40
0.0
  9
$OLESTARTUP
290
     0
  0
ENDSEC
  0
SECTION
  2
CLASSES
  0
CLASS
  1
ACDBDICTIONARYWDFLT
  2
AcDbDictionaryWithDefault
  3
ObjectDBX Classes
 90
        0
280
     0
281
     0
  0
CLASS
  1
ACDBPLACEHOLDER
  2
AcDbPlaceHolder
  3
ObjectDBX Classes
 90
        0
280
     0
281
     0
  0
CLASS
  1
LAYOUT
  2
AcDbLayout
  3
ObjectDBX Classes
 90
        0
280
     0
281
     0
  0
CLASS
  1
AMGSETTINGSOBJ
  2
AmgSettingsObj
  3
"AcadM|Product Description: AutoCAD Mechanical|Company: Autodesk"
 90
        0
280
     0
281
     0
  0
CLASS
  1
ACME_DOCUMENT
  2
AcMeDbDoc
  3
AcMeServices
 90
        0
280
     0
281
     0
  0
CLASS
  1
ACMESCOPE
  2
AcMeScope
  3
AcMeServices
 90
        0
280
     0
281
     0
  0
CLASS
  1
ACMECOMMANDHISTORY
  2
AcMeCommandHistory
  3
AcMeServices
 90
        0
280
     0
281
     0
  0
CLASS
  1
DICTIONARYVAR
  2
AcDbDictionaryVar
  3
ObjectDBX Classes
 90
        0
280
     0
281
     0
  0
CLASS
  1
ACIMSYSVARMAN
  2
AcImSysVarManager
  3
AcMeServices
 90
        0
280
     0
281
     0
  0
CLASS
  1
ACIMREALSYSVAR
  2
AcImRealSysVar
  3
AcMeServices
 90
        0
280
     0
281
     0
  0
CLASS
  1
ACIMINTSYSVAR
  2
AcImIntSysVar
  3
AcMeServices
 90
        0
280
     0
281
     0
  0
CLASS
  1
ACMEDRAWINGMAN
  2
AcMeDrawingMan
  3
AcMeServices
 90
        0
280
     0
281
     0
  0
CLASS
  1
ACMEVIEW
  2
AcMeView
  3
AcMeServices
 90
        0
280
     0
281
     0
  0
CLASS
  1
ACDBENTITYCACHE
  2
AcMeEntityCache
  3
AcMeServices
 90
        0
280
     0
281
     0
  0
CLASS
  1
GSMANAGER
  2
AcMeGSManager
  3
AcMeServices
 90
        0
280
     0
281
     0
  0
CLASS
  1
AMDTINTERNALREACTOR
  2
AmdtInternalReactor
  3
AcMeServices
 90
        0
280
     0
281
     0
  0
CLASS
  1
ACMESTATEMGR
  2
AcMeStateMgr
  3
AcMeServices
 90
        0
280
     0
281
     0
  0
CLASS
  1
ACGREFMASTER
  2
AcGrefMaster
  3
AcAttribServices
 90
        0
280
     0
281
     0
  0
CLASS
  1
ACME_DATABASE
  2
AcMeDbDatabase
  3
AcMeServices
 90
        0
280
     0
281
     0
  0
CLASS
  1
ACRFINSADJUSTERMGR
  2
AcRfInsAdjusterMgr
  3
AcMeServices
 90
        0
280
     0
281
     0
  0
CLASS
  1
ACGREFACADMASTER
  2
AcGrefacadMaster
  3
AcGrefServices
 90
        0
280
     0
281
     0
  0
CLASS
  1
AMIMASTER
  2
AmiMaster
  3
AmiServices
 90
        0
280
     0
281
     0
  0
CLASS
  1
ACMDATADICTIONARY
  2
AcmDataDictionary
  3
"AcmSymBB|Product Description: AutoCAD Mechanical|Company: Autodesk"
 90
        0
280
     0
281
     0
  0
CLASS
  1
ACMDATAENTRYBLOCK
  2
AcmDataEntryBlock
  3
"AcmSymBB|Product Description: AutoCAD Mechanical|Company: Autodesk"
 90
        0
280
     0
281
     0
  0
CLASS
  1
ACIMSTRSYSVAR
  2
AcImStrSysVar
  3
AcMeServices
 90
        0
280
     0
281
     0
  0
CLASS
  1
ACMSTANDARDISO
  2
AcmStandardISO
  3
"Amdt_StdImp|Product Description: AutoCAD Mechanical|Company: Autodesk"
 90
        0
280
     0
281
     0
  0
CLASS
  1
AMGOBJPROPCFG
  2
AmgObjPropCfg
  3
"AmgLay|Product Description: AutoCAD Mechanical|Company: Autodesk"
 90
        1
280
     0
281
     0
  0
CLASS
  1
AMDTEDGESTANDARDISO
  2
AmdtEdgeStdISO
  3
"Amdt_StdImp|Product Description: AutoCAD Mechanical|Company: Autodesk"
 90
        0
280
     0
281
     0
  0
CLASS
  1
ACMSURFSTANDARDISO
  2
AcmSurfTextStdISO
  3
"Amdt_StdImp|Product Description: AutoCAD Mechanical|Company: Autodesk"
 90
        0
280
     0
281
     0
  0
CLASS
  1
ACMFCFSTANDARDISO
  2
AcmFCFStdISO
  3
"Amdt_StdImp|Product Description: AutoCAD Mechanical|Company: Autodesk"
 90
        0
280
     0
281
     0
  0
CLASS
  1
ACMWELDSTANDARDISO
  2
AcmWeldingStdISO
  3
"Amdt_StdImp|Product Description: AutoCAD Mechanical|Company: Autodesk"
 90
        0
280
     0
281
     0
  0
CLASS
  1
ACMIDSTANDARDISO
  2
AcmIdStdISO
  3
"Amdt_StdImp|Product Description: AutoCAD Mechanical|Company: Autodesk"
 90
        0
280
     0
281
     0
  0
CLASS
  1
ACMDATUMSTANDARDISO
  2
AcmDatumStdISO
  3
"Amdt_StdImp|Product Description: AutoCAD Mechanical|Company: Autodesk"
 90
        0
280
     0
281
     0
  0
CLASS
  1
ACMBOMSTANDARDISO
  2
AcmBOMStdISO
  3
"Amdt_StdImp|Product Description: AutoCAD Mechanical|Company: Autodesk"
 90
        0
280
     0
281
     0
  0
CLASS
  1
ACMDETAILSTANDARDISO
  2
AmdtDetailSymStdISO
  3
"Amdt_StdImp|Product Description: AutoCAD Mechanical|Company: Autodesk"
 90
        0
280
     0
281
     0
  0
CLASS
  1
ACMSECTIONSTANDARDISO
  2
AmdtSectionSymStdISO
  3
"Amdt_StdImp|Product Description: AutoCAD Mechanical|Company: Autodesk"
 90
        0
280
     0
281
     0
  0
CLASS
  1
ACMCENTERLINESTANDARDISO
  2
AmdtCenterLineStdISO
  3
"Amdt_StdImp|Product Description: AutoCAD Mechanical|Company: Autodesk"
 90
        0
280
     0
281
     0
  0
CLASS
  1
ACAMGLAYSTD
  2
AcAmgLayStd
  3
"AmgLay|Product Description: AutoCAD Mechanical|Company: Autodesk"
 90
        0
280
     0
281
     0
  0
CLASS
  1
ACAMGDIMSTD
  2
AcAmgDimStd
  3
"AmgDim|Product Description: AutoCAD Mechanical|Company: Autodesk"
 90
        0
280
     0
281
     0
  0
CLASS
  1
ACAMGTITLESTD
  2
AcAmgTitleStd
  3
"AmgTitle|Product Description: AutoCAD Mechanical|Company: Autodesk"
 90
        0
280
     0
281
     0
  0
CLASS
  1
ACAMGFILTERDAT
  2
AcAmgFilterDat
  3
"AcadM|Product Description: AutoCAD Mechanical|Company: Autodesk"
 90
        0
280
     0
281
     0
  0
CLASS
  1
LAYER_INDEX
  2
AcDbLayerIndex
  3
ObjectDBX Classes
 90
    32768
280
     0
281
     0
  0
CLASS
  1
IDBUFFER
  2
AcDbIdBuffer
  3
ObjectDBX Classes
 90
    32768
280
     0
281
     0
  0
CLASS
  1
PLOTSETTINGS
  2
AcDbPlotSettings
  3
ObjectDBX Classes
 90
    32768
280
     0
281
     0
  0
CLASS
  1
AMDTFORMULAUPDATEDISPATCHER
  2
AmdtFormulaUpdateDispatcher
  3
AcMeServices
 90
        0
280
     0
281
     0
  0
CLASS
  1
ACMSTANDARDANSI
  2
AcmStandardANSI
  3
"Amdt_StdImp|Product Description: AutoCAD Mechanical|Company: Autodesk"
 90
        0
280
     0
281
     0
  0
CLASS
  1
ACMSURFSTANDARDANSI
  2
AcmSurfTextStdANSI
  3
"Amdt_StdImp|Product Description: AutoCAD Mechanical|Company: Autodesk"
 90
        0
280
     0
281
     0
  0
CLASS
  1
ACMFCFSTANDARDANSI
  2
AcmFCFStdANSI
  3
"Amdt_StdImp|Product Description: AutoCAD Mechanical|Company: Autodesk"
 90
        0
280
     0
281
     0
  0
CLASS
  1
ACMWELDSTANDARDANSI
  2
AcmWeldingStdANSI
  3
"Amdt_StdImp|Product Description: AutoCAD Mechanical|Company: Autodesk"
 90
        0
280
     0
281
     0
  0
CLASS
  1
ACMIDSTANDARDANSI
  2
AcmIdStdANSI
  3
"Amdt_StdImp|Product Description: AutoCAD Mechanical|Company: Autodesk"
 90
        0
280
     0
281
     0
  0
CLASS
  1
ACMDATUMSTANDARDANSI
  2
AcmDatumStdANSI
  3
"Amdt_StdImp|Product Description: AutoCAD Mechanical|Company: Autodesk"
 90
        0
280
     0
281
     0
  0
CLASS
  1
ACMBOMSTANDARDANSI
  2
AcmBOMStdANSI
  3
"Amdt_StdImp|Product Description: AutoCAD Mechanical|Company: Autodesk"
 90
        0
280
     0
281
     0
  0
CLASS
  1
ACMDETAILSTANDARDANSI
  2
AmdtDetailSymStdANSI
  3
"Amdt_StdImp|Product Description: AutoCAD Mechanical|Company: Autodesk"
 90
        0
280
     0
281
     0
  0
CLASS
  1
ACMSECTIONSTANDARDANSI
  2
AmdtSectionSymStdANSI
  3
"Amdt_StdImp|Product Description: AutoCAD Mechanical|Company: Autodesk"
 90
        0
280
     0
281
     0
  0
CLASS
  1
ACMCENTERLINESTANDARDANSI
  2
AmdtCenterLineStdANSI
  3
"Amdt_StdImp|Product Description: AutoCAD Mechanical|Company: Autodesk"
 90
        0
280
     0
281
     0
  0
CLASS
  1
ACMBOM
  2
AcmBom
  3
"AcmSymBB|Product Description: AutoCAD Mechanical|Company: Autodesk"
 90
        0
280
     0
281
     0
  0
CLASS
  1
ACMDATAENTRYPART
  2
AcmDataEntryPart
  3
"AcmSymBB|Product Description: AutoCAD Mechanical|Company: Autodesk"
 90
    32768
280
     0
281
     0
  0
CLASS
  1
ACMPARTREF
  2
AcmPartRef
  3
"AcmSymBB|Product Description: AutoCAD Mechanical|Company: Autodesk"
 90
    35839
280
     0
281
     1
  0
CLASS
  1
ACDBCIRCARCRES
  2
AcDbCircArcRes
  3
AcGrefServices
 90
    32768
280
     0
281
     0
  0
CLASS
  1
ACMBOMROW
  2
AcmBomRow
  3
"AcmSymBB|Product Description: AutoCAD Mechanical|Company: Autodesk"
 90
    32768
280
     0
281
     0
  0
CLASS
  1
ACMBALLOON
  2
AcmBalloon
  3
"AcmSymBB|Product Description: AutoCAD Mechanical|Company: Autodesk"
 90
    35839
280
     0
281
     1
  0
CLASS
  1
AMDTNOTE
  2
AmdtNote
  3
"AcmSymBB|Product Description: AutoCAD Mechanical|Company: Autodesk"
 90
    35839
280
     0
281
     1
  0
CLASS
  1
STDPART2D
  2
AmgStdPart
  3
"g3vace|Class: AmgStdPart|Product Description: AutoCAD Mechanical|Company: Autodesk"
 90
    35839
280
     0
281
     1
  0
CLASS
  1
ACDBSTDPARTRES_LINE
  2
AcDbStdPartRes_Line
  3
"g3vace|Class: AcDbStdPartRes_Line|Product Description: AutoCAD Mechanical|Company: Autodesk"
 90
    32768
280
     0
281
     0
  0
CLASS
  1
ACMDATAENTRY
  2
AcmDataEntry
  3
"AcmSymBB|Product Description: AutoCAD Mechanical|Company: Autodesk"
 90
        0
280
     0
281
     0
  0
CLASS
  1
ACDBOPPOLYLINERES
  2
AcDbOpPolylineRes
  3
AcGrefServices
 90
    32768
280
     0
281
     0
  0
CLASS
  1
ACMPARTLIST
  2
AcmPartList
  3
"AcmSymBB|Product Description: AutoCAD Mechanical|Company: Autodesk"
 90
    35839
280
     0
281
     1
  0
CLASS
  1
ACDBLINERES
  2
AcDbLineRes
  3
AcGrefServices
 90
    32768
280
     0
281
     0
  0
CLASS
  1
ACRFINSADJ
  2
AcRfInsAdjuster
  3
AcMeServices
 90
    32768
280
     0
281
     0
  0
CLASS
  1
AM_DRAWING_MGR
  2
AcDmDwgMgr
  3
AcMechDwgViewMgmt
 90
        0
280
     0
281
     0
  0
CLASS
  1
AM_DWG_DOCUMENT
  2
AcDmDwgDocument
  3
AcMechDwgViewMgmt
 90
        0
280
     0
281
     0
  0
CLASS
  1
AM_DWG_SHEET
  2
AcDmSheet
  3
AcMechDwgViewMgmt
 90
        0
280
     0
281
     0
  0
CLASS
  1
AM_VIEWDIMPARMAP
  2
AcDmViewDimParMap
  3
AcMechDwgViewMgmt
 90
        0
280
     0
281
     0
  0
CLASS
  1
AM_DWGMGR_NAME
  2
AcDmDwgMgrName
  3
AcMechDwgViewMgmt
 90
        0
280
     0
281
     0
  0
CLASS
  1
AMDTMENUSTATEMGR
  2
AmdtMenuStateMgr
  3
McadcomServices
 90
        0
280
     0
281
     0
  0
CLASS
  1
AMDTMCOMMENUSTATE
  2
AmdtMcomMenuState
  3
McadcomServices
 90
        0
280
     0
281
     0
  0
CLASS
  1
ASAPP
  2
AcAsAppObject
  3
AutoSurfServices
 90
        0
280
     0
281
     0
  0
CLASS
  1
IM_STATIC_MAN
  2
AcImStaticVarManager
  3
AcMeServices
 90
        0
280
     0
281
     0
  0
CLASS
  1
ACIMDBLSTATICVAR
  2
AcImDblStaticVar
  3
AcMeServices
 90
        0
280
     0
281
     0
  0
CLASS
  1
ACIMSTRSTATICVAR
  2
AcImStrStaticVar
  3
AcMeServices
 90
        0
280
     0
281
     0
  0
CLASS
  1
ACIMINTSTATICVAR
  2
AcImIntStaticVar
  3
AcMeServices
 90
        0
280
     0
281
     0
  0
CLASS
  1
ACASGREFMASTER
  2
AcAsGrefMaster
  3
AutoSurfResolverServices
 90
        0
280
     0
281
     0
  0
CLASS
  1
ACADGREFMODULE
  2
AcAdGrefModule
  3
AdGrefServices
 90
        0
280
     0
281
     0
  0
CLASS
  1
AMDTMAPISURFMOUDULE
  2
AmdtMApiSurfModule
  3
MApiSurfServices
 90
        0
280
     0
281
     0
  0
CLASS
  1
MAPIAMMOUDLE
  2
MApiAmModule
  3
MApiAmServices
 90
        0
280
     0
281
     0
  0
CLASS
  1
AMDTADMENUSTATE
  2
AmdtAdMenuState
  3
DesignerServices
 90
        0
280
     0
281
     0
  0
CLASS
  1
ADAPPL
  2
AcAdAppl
  3
DesignerServices
 90
        0
280
     0
281
     0
  0
CLASS
  1
DEPMGR
  2
AcAdDepMgr
  3
DesignerServices
 90
        0
280
     0
281
     0
  0
CLASS
  1
PARAMMGR
  2
AcAdParamMgr
  3
DesignerServices
 90
        0
280
     0
281
     0
  0
CLASS
  1
PARAMSCOPE
  2
AcAdParamScope
  3
DesignerServices
 90
        0
280
     0
281
     0
  0
CLASS
  1
NAMEDAPPL
  2
AcAdNamedAppl
  3
DesignerServices
 90
        0
280
     0
281
     0
  0
CLASS
  1
ADHNTMPLT
  2
AdHoleNoteTemplateMgr
  3
DesignerServices
 90
    32768
280
     0
281
     0
  0
CLASS
  1
AM_HNTEMPLATE_MGR_NAME
  2
AdHoleNoteTemplateMgrName
  3
DesignerServices
 90
    32768
280
     0
281
     0
  0
CLASS
  1
AMDTDMMENUSTATE
  2
AmdtDmMenuState
  3
AcMechDwgViewMgmt
 90
        0
280
     0
281
     0
  0
CLASS
  1
MAPIADMODULE
  2
MApiAdModule
  3
MApiAdServices
 90
        0
280
     0
281
     0
  0
CLASS
  1
AMDTAMMENUSTATE
  2
AmdtAmMenuState
  3
DesignerAssemblies
 90
        0
280
     0
281
     0
  0
CLASS
  1
ACAMPROJECT
  2
AcAmProject
  3
DesignerAssemblies
 90
        0
280
     0
281
     0
  0
CLASS
  1
ACAMGRCOMPDEF
  2
AcAmGrCompDef
  3
DesignerAssemblies
 90
        0
280
     0
281
     0
  0
CLASS
  1
ACCMCONTEXT
  2
AcCmContext
  3
DesignerAssemblies
 90
        0
280
     0
281
     0
  0
CLASS
  1
ACAMCOMPDEF
  2
AcAmCompDef
  3
DesignerAssemblies
 90
        0
280
     0
281
     0
  0
CLASS
  1
ACAMCOMPDEFMGR
  2
AcAmCompDefMgr
  3
DesignerAssemblies
 90
        0
280
     0
281
     0
  0
CLASS
  1
AMCONTEXTMGR
  2
AcAmContextMgr
  3
DesignerAssemblies
 90
        0
280
     0
281
     0
  0
CLASS
  1
ACAMCONTEXTMODELER
  2
AcAmContextModeler
  3
DesignerAssemblies
 90
        0
280
     0
281
     0
  0
CLASS
  1
CATALOGSTATE
  2
AcAmCatalogState
  3
DesignerAssemblies
 90
        0
280
     0
281
     0
  0
CLASS
  1
ACAMGRCOMPDEFSET
  2
AcAmGrCompDefSet
  3
DesignerAssemblies
 90
        0
280
     0
281
     0
  0
CLASS
  1
AMDTBROWSERDBTAB
  2
AmdtBrowserDbTab
  3
McadcomServices
 90
        0
280
     0
281
     0
  0
CLASS
  1
CBROWSERAPPOBJECT
  2
CBrowserAppObject
  3
McadcomServices
 90
        0
280
     0
281
     0
  0
CLASS
  1
DM_PLACEHOLDER
  2
AcDmSelsetPlaceholder
  3
AcMechDwgViewMgmt
 90
        0
280
     0
281
     0
  0
CLASS
  1
ACMPICKOBJ
  2
AcmPickEnt
  3
"AcmSymBB|Product Description: AutoCAD Mechanical|Company: Autodesk"
 90
    32768
280
     0
281
     1
  0
CLASS
  1
ACMNOTESTANDARDISO
  2
AmdtNoteStdISO
  3
"Amdt_StdImp|Product Description: AutoCAD Mechanical|Company: Autodesk"
 90
        0
280
     0
281
     0
  0
CLASS
  1
ACMNOTESTANDARDANSI
  2
AmdtNoteStdANSI
  3
"Amdt_StdImp|Product Description: AutoCAD Mechanical|Company: Autodesk"
 90
        0
280
     0
281
     0
  0
CLASS
  1
ACMTHREADLINESTANDARDISO
  2
AmdtThreadLineStdISO
  3
"Amdt_StdImp|Product Description: AutoCAD Mechanical|Company: Autodesk"
 90
        0
280
     0
281
     0
  0
CLASS
  1
ACMTHREADLINESTANDARDANSI
  2
AmdtThreadLineStdANSI
  3
"Amdt_StdImp|Product Description: AutoCAD Mechanical|Company: Autodesk"
 90
        0
280
     0
281
     0
  0
CLASS
  1
TABLESTYLE
  2
AcDbTableStyle
  3
ObjectDBX Classes
 90
     4095
280
     0
281
     0
  0
CLASS
  1
SORTENTSTABLE
  2
AcDbSortentsTable
  3
ObjectDBX Classes
 90
        0
280
     0
281
     0
  0
CLASS
  1
MATERIAL
  2
AcDbMaterial
  3
ObjectDBX Classes
 90
     1024
280
     0
281
     0
  0
CLASS
  1
VISUALSTYLE
  2
AcDbVisualStyle
  3
ObjectDBX Classes
 90
     4095
280
     0
281
     0
  0
CLASS
  1
ACRFATTGENMGR
  2
AcRfAttGeneralMgr
  3
AcAttribServices
 90
        0
280
     0
281
     0
  0
CLASS
  1
ACRFOBJATTMGR
  2
AcRfObjAttGroupMgr
  3
AcAttribServices
 90
        0
280
     0
281
     0
  0
CLASS
  1
ACRFMCADAPIATTHOLDER
  2
AcRfMCADAPIAttHolder
  3
AcAttribServices
 90
        0
280
     0
281
     0
  0
CLASS
  1
AMDTSYSATTR
  2
AmdtSystemAttribute
  3
AcAttribServices
 90
        0
280
     0
281
     0
  0
CLASS
  1
ACMTAPERSTANDARDISO
  2
AcmTaperStdISO
  3
"Amdt_StdImp|Product Description: AutoCAD Mechanical|Company: Autodesk"
 90
        0
280
     0
281
     0
  0
CLASS
  1
CAMSSTRUCTBTNSTATE
  2
StructBtnState
  3
L"DesignerAssemblies"
 90
        0
280
     0
281
     0
  0
CLASS
  1
DIMASSOC
  2
AcDbDimAssoc
  3
"AcDbDimAssoc|Product Desc:     AcDim ARX App For Dimension|Company:          Autodesk, Inc.|WEB Address:      www.autodesk.com"
 90
    32768
280
     0
281
     0
  0
CLASS
  1
AMDTNOTETEMPLATEDB
  2
AmdtNoteTemplateDB
  3
AMDT_STDIMP_MODULE_NAME
 90
        0
280
     0
281
     0
  0
CLASS
  1
ACMTAPERSTANDARDANSI
  2
AcmTaperStdANSI
  3
"Amdt_StdImp|Product Description: AutoCAD Mechanical|Company: Autodesk"
 90
        0
280
     0
281
     0
  0
CLASS
  1
ACAMGHOLECHARTSTDANSI
  2
AcAmgHoleChartStdANSI
  3
ACMSYMBB_MODULE_NAME
 90
        0
280
     0
281
     0
  0
ENDSEC
  0
SECTION
  2
TABLES
  0
TABLE
  2
VPORT
  5
8
330
0
100
AcDbSymbolTable
 70
     1
  0
VPORT
  5
B0EC
330
8
100
AcDbSymbolTableRecord
100
AcDbViewportTableRecord
  2
*Active
 70
     0
 10
0.0
 20
0.0
 11
1.0
 21
1.0
 12
148.524532121083
 22
105.0264269836336
 13
0.0
 23
0.0
 14
2.5
 24
2.5
 15
10.0
 25
10.0
 16
0.0
 26
0.0
 36
1.0
 17
0.0
 27
0.0
 37
0.0
 40
211.7705710597497
 41
1.648648648648648
 42
50.0
 43
-1370.695619172058
 44
-1370.695619172058
 50
0.0
 51
0.0
 71
    16
 72
   100
 73
     1
 74
     3
 75
     0
 76
     0
 77
     0
 78
     0
281
     0
 65
     0
110
0.0
120
0.0
130
0.0
111
1.0
121
0.0
131
0.0
112
0.0
122
1.0
132
0.0
 79
     0
146
0.0
  0
ENDTAB
  0
TABLE
  2
LTYPE
  5
5
330
0
100
AcDbSymbolTable
 70
    32
  0
LTYPE
  5
14
330
5
100
AcDbSymbolTableRecord
100
AcDbLinetypeTableRecord
  2
ByBlock
 70
     0
  3

 72
    65
 73
     0
 40
0.0
  0
LTYPE
  5
15
330
5
100
AcDbSymbolTableRecord
100
AcDbLinetypeTableRecord
  2
ByLayer
 70
     0
  3

 72
    65
 73
     0
 40
0.0
  0
LTYPE
  5
16
330
5
100
AcDbSymbolTableRecord
100
AcDbLinetypeTableRecord
  2
Continuous
 70
     0
  3
Solid line
 72
    65
 73
     0
 40
0.0
  0
LTYPE
  5
4F
330
5
100
AcDbSymbolTableRecord
100
AcDbLinetypeTableRecord
  2
AM_ISO02W050
 70
     0
  3
__ __ __ __ __ __ __ __ __ __ __ __ __ __ __
 72
    65
 73
     2
 40
7.5
 49
6.0
 74
     0
 49
-1.5
 74
     0
  0
LTYPE
  5
52
330
5
100
AcDbSymbolTableRecord
100
AcDbLinetypeTableRecord
  2
Amconstr
 70
     0
  3
_______________________
 72
    65
 73
     2
 40
9999.0
 49
9999.0
 74
     0
 49
0.0
 74
     0
  0
LTYPE
  5
64
330
5
100
AcDbSymbolTableRecord
100
AcDbLinetypeTableRecord
  2
ACISOWELD
 70
     0
  3
_ _ _ _ _
 72
    65
 73
     2
 40
2.0
 49
2.0
 74
     0
 49
-1.0
 74
     0
  0
LTYPE
  5
65
330
5
100
AcDbSymbolTableRecord
100
AcDbLinetypeTableRecord
  2
ACISOTGB
 70
     0
  3
__ . . __ . .
 72
    65
 73
     6
 40
9.0
 49
4.0
 74
     0
 49
-1.0
 74
     0
 49
1.0
 74
     0
 49
-1.0
 74
     0
 49
1.0
 74
     0
 49
-1.0
 74
     0
  0
LTYPE
  5
66
330
5
100
AcDbSymbolTableRecord
100
AcDbLinetypeTableRecord
  2
ACISOTGL
 70
     0
  3
_ _ _ _ _
 72
    65
 73
     2
 40
3.0
 49
2.0
 74
     0
 49
-1.0
 74
     0
  0
LTYPE
  5
69
330
5
100
AcDbSymbolTableRecord
100
AcDbLinetypeTableRecord
  2
CENTER
 70
     0
  3
__ . __
 72
    65
 73
     4
 40
7.0
 49
4.0
 74
     0
 49
-1.0
 74
     0
 49
1.0
 74
     0
 49
-1.0
 74
     0
  0
LTYPE
  5
A6E
330
5
100
AcDbSymbolTableRecord
100
AcDbLinetypeTableRecord
  2
PHANTOM2
 70
     0
  3
Phantom (.5x) ___ _ _ ___ _ _ ___ _ _ ___ _ _
 72
    65
 73
     6
 40
31.75
 49
15.875
 74
     0
 49
-3.174999999999999
 74
     0
 49
3.174999999999999
 74
     0
 49
-3.174999999999999
 74
     0
 49
3.174999999999999
 74
     0
 49
-3.174999999999999
 74
     0
  0
LTYPE
  5
4DED
330
5
100
AcDbSymbolTableRecord
100
AcDbLinetypeTableRecord
  2
中線
 70
     0
  3
___________________
 72
    65
 73
     2
 40
2.0
 49
1.0
 74
     0
 49
1.0
 74
     0
  0
LTYPE
  5
4DF6
330
5
100
AcDbSymbolTableRecord
100
AcDbLinetypeTableRecord
  2
細線
 70
     0
  3
___________________
 72
    65
 73
     2
 40
2.0
 49
1.0
 74
     0
 49
1.0
 74
     0
  0
LTYPE
  5
4DF7
330
5
100
AcDbSymbolTableRecord
100
AcDbLinetypeTableRecord
  2
太線
 70
     0
  3
___________________
 72
    65
 73
     2
 40
2.0
 49
1.0
 74
     0
 49
1.0
 74
     0
  0
LTYPE
  5
4EA7
330
5
100
AcDbSymbolTableRecord
100
AcDbLinetypeTableRecord
  2
文字
 70
     0
  3
_________________
 72
    65
 73
     2
 40
2.0
 49
1.0
 74
     0
 49
1.0
 74
     0
  0
LTYPE
  5
4EA9
330
5
100
AcDbSymbolTableRecord
100
AcDbLinetypeTableRecord
  2
寸法線
 70
     0
  3
________________
 72
    65
 73
     2
 40
2.0
 49
1.0
 74
     0
 49
1.0
 74
     0
  0
LTYPE
  5
4F12
330
5
100
AcDbSymbolTableRecord
100
AcDbLinetypeTableRecord
  2
ハッチング
 70
     0
  3
_________________
 72
    65
 73
     2
 40
2.0
 49
1.0
 74
     0
 49
1.0
 74
     0
  0
LTYPE
  5
5180
330
5
100
AcDbSymbolTableRecord
100
AcDbLinetypeTableRecord
  2
陰線1
 70
     0
  3
__ __ __ __
 72
    65
 73
     2
 40
4.0
 49
2.2
 74
     0
 49
-1.8
 74
     0
  0
LTYPE
  5
5182
330
5
100
AcDbSymbolTableRecord
100
AcDbLinetypeTableRecord
  2
切断線
 70
     0
  3
/\/-/\/-/\/-/\/-/\/-/\/
 72
    65
 73
     2
 40
11.0001
 49
0.0001
 74
     4
 75
   135
340
56
 46
0.04
 50
0.0
 44
0.0
 45
0.0
 49
-11.0
 74
     0
  0
LTYPE
  5
5183
330
5
100
AcDbSymbolTableRecord
100
AcDbLinetypeTableRecord
  2
想像線1
 70
     0
  3
__ __ __ _____ __ __ ____
 72
    65
 73
     6
 40
14.5
 49
6.0
 74
     0
 49
-1.5
 74
     0
 49
2.0
 74
     0
 49
-1.5
 74
     0
 49
2.0
 74
     0
 49
-1.5
 74
     0
  0
LTYPE
  5
5185
330
5
100
AcDbSymbolTableRecord
100
AcDbLinetypeTableRecord
  2
中心線1
 70
     0
  3
___ _ ___ _ ___
 72
    65
 73
     4
 40
18.0
 49
12.0
 74
     0
 49
-2.0
 74
     0
 49
2.0
 74
     0
 49
-2.0
 74
     0
  0
LTYPE
  5
5188
330
5
100
AcDbSymbolTableRecord
100
AcDbLinetypeTableRecord
  2
補助線
 70
     0
  3
______________
 72
    65
 73
     2
 40
2.0
 49
1.0
 74
     0
 49
1.0
 74
     0
  0
LTYPE
  5
6427
330
5
100
AcDbSymbolTableRecord
100
AcDbLinetypeTableRecord
  2
HIDDEN
 70
     0
  3
Hidden __ __ __ __ __ __ __ __ __ __ __ __ __ _
 72
    65
 73
     2
 40
0.375
 49
0.25
 74
     0
 49
-0.125
 74
     0
  0
LTYPE
  5
AC81
330
5
100
AcDbSymbolTableRecord
100
AcDbLinetypeTableRecord
  2
破断線
 70
     0
  3
/\/-/\/-/\/-/\/-/\/-/\/
 72
    65
 73
     2
 40
0.4401
 49
0.0001
 74
     4
 75
   136
340
AC80
 46
0.0016
 50
0.0
 44
0.0
 45
0.0
 49
-0.4400000000000001
 74
     0
  0
LTYPE
  5
AC9E
330
5
100
AcDbSymbolTableRecord
100
AcDbLinetypeTableRecord
  2
Amzigzag
 70
     0
  3
/\/-/\/-/\/-/\/-/\/-/\/
 72
    65
 73
     2
 40
11.0001
 49
0.0001
 74
     4
 75
   135
340
56
 46
0.04
 50
0.0
 44
0.0
 45
0.0
 49
-11.0
 74
     0
  0
LTYPE
  5
AF0F
330
5
100
AcDbSymbolTableRecord
100
AcDbLinetypeTableRecord
  2
genzigzag
 70
     0
  3
/\/-/\/-/\/-/\/-/\/-/\/
 72
    65
 73
     2
 40
12.0001
 49
0.0001
 74
     4
 75
   135
340
AC80
 46
2.0
 50
0.0
 44
0.0
 45
0.0
 49
-12.0
 74
     0
  0
LTYPE
  5
AF95
330
5
100
AcDbSymbolTableRecord
100
AcDbLinetypeTableRecord
  2
AM_ISO08W050
 70
     0
  3
____ . ____ . ____ . ____ . ____ . ____ . ____
 72
    65
 73
     4
 40
18.0
 49
12.0
 74
     0
 49
-1.5
 74
     0
 49
3.0
 74
     0
 49
-1.5
 74
     0
  0
LTYPE
  5
AF96
330
5
100
AcDbSymbolTableRecord
100
AcDbLinetypeTableRecord
  2
AM_ISO09W050
 70
     0
  3
_____ . . _____ . . _____ . . ____ .. ____
 72
    65
 73
     6
 40
22.5
 49
12.0
 74
     0
 49
-1.5
 74
     0
 49
3.0
 74
     0
 49
-1.5
 74
     0
 49
3.0
 74
     0
 49
-1.5
 74
     0
  0
LTYPE
  5
AF97
330
5
100
AcDbSymbolTableRecord
100
AcDbLinetypeTableRecord
  2
AM_ISO08W050x2
 70
     0
  3
__ . __ . __ . __ . __ . __
 72
    65
 73
     4
 40
9.0
 49
6.0
 74
     0
 49
-0.75
 74
     0
 49
1.5
 74
     0
 49
-0.75
 74
     0
  0
LTYPE
  5
AF98
330
5
100
AcDbSymbolTableRecord
100
AcDbLinetypeTableRecord
  2
AM_ISO02W050x2
 70
     0
  3
 _ _ _ _ _ _ _ _ _ _ _ _
 72
    65
 73
     2
 40
3.75
 49
3.0
 74
     0
 49
-0.75
 74
     0
  0
LTYPE
  5
B541
330
5
100
AcDbSymbolTableRecord
100
AcDbLinetypeTableRecord
  2
CENTER2
 70
     0
  3
__ _ __ _ __ _
 72
    65
 73
     4
 40
10.0
 49
7.0
 74
     0
 49
-1.0
 74
     0
 49
1.0
 74
     0
 49
-1.0
 74
     0
  0
LTYPE
  5
B542
330
5
100
AcDbSymbolTableRecord
100
AcDbLinetypeTableRecord
  2
HIDDEN2
 70
     0
  3
Hidden (.5x) _ _ _ _ _ _ _ _ _ _ _ _ _ _ _ _ _
 72
    65
 73
     2
 40
0.1875
 49
0.125
 74
     0
 49
-0.0625
 74
     0
  0
LTYPE
  5
B543
330
5
100
AcDbSymbolTableRecord
100
AcDbLinetypeTableRecord
  2
Amzigzag2
 70
     0
  3
/\/-/\/-/\/-/\/-/\/-/\/
 72
    65
 73
     2
 40
0.4401
 49
0.0001
 74
     4
 75
   136
340
AC80
 46
0.0016
 50
0.0
 44
0.0
 45
0.0
 49
-0.4400000000000001
 74
     0
  0
LTYPE
  5
B544
330
5
100
AcDbSymbolTableRecord
100
AcDbLinetypeTableRecord
  2
ACANSTGB
 70
     0
  3
__ . . __ . .
 72
    65
 73
     6
 40
0.35433070866
 49
0.15748031496
 74
     0
 49
-0.03937007874
 74
     0
 49
0.03937007874
 74
     0
 49
-0.03937007874
 74
     0
 49
0.03937007874
 74
     0
 49
-0.03937007874
 74
     0
  0
LTYPE
  5
B545
330
5
100
AcDbSymbolTableRecord
100
AcDbLinetypeTableRecord
  2
ACANSTGL
 70
     0
  3
_ _ _ _ _
 72
    65
 73
     2
 40
0.11811023622
 49
0.07874015748
 74
     0
 49
-0.03937007874
 74
     0
  0
ENDTAB
  0
TABLE
  2
LAYER
  5
2
102
{ACAD_XDICTIONARY
360
3F95
102
}
330
0
100
AcDbSymbolTable
 70
    28
  0
LAYER
  5
10
330
2
100
AcDbSymbolTableRecord
100
AcDbLayerTableRecord
  2
0
 70
     0
 62
     7
  6
Continuous
370
    -3
390
F
  0
LAYER
  5
6D1
330
2
100
AcDbSymbolTableRecord
100
AcDbLayerTableRecord
  2
Defpoints
 70
     0
 62
     7
  6
Continuous
290
     0
370
    -3
390
F
  0
LAYER
  5
5F85
330
2
100
AcDbSymbolTableRecord
100
AcDbLayerTableRecord
  2
AM_0
 70
     0
 62
     7
  6
中線
370
    30
390
F
1001
AcAecLayerStandard
1000

1000

  0
LAYER
  5
AC9F
330
2
100
AcDbSymbolTableRecord
100
AcDbLayerTableRecord
  2
size
 70
     0
 62
     5
  6
Continuous
290
     0
370
    25
390
F
  0
LAYER
  5
ACA0
330
2
100
AcDbSymbolTableRecord
100
AcDbLayerTableRecord
  2
waku
 70
     0
 62
     7
  6
Continuous
370
    35
390
F
  0
LAYER
  5
ACA1
330
2
100
AcDbSymbolTableRecord
100
AcDbLayerTableRecord
  2
AM_6
 70
     0
 62
     2
  6
文字
370
    13
390
F
1001
AcAecLayerStandard
1000

1000

  0
LAYER
  5
ACC8
330
2
100
AcDbSymbolTableRecord
100
AcDbLayerTableRecord
  2
hyomoji
 70
     0
 62
     2
  6
Continuous
370
    13
390
F
  0
LAYER
  5
ACC9
330
2
100
AcDbSymbolTableRecord
100
AcDbLayerTableRecord
  2
hyosen1
 70
     0
 62
     1
  6
Continuous
370
    25
390
F
  0
LAYER
  5
ACCA
330
2
100
AcDbSymbolTableRecord
100
AcDbLayerTableRecord
  2
hyosen2
 70
     0
 62
     1
  6
Continuous
370
    13
390
F
  0
LAYER
  5
AD60
330
2
100
AcDbSymbolTableRecord
100
AcDbLayerTableRecord
  2
AM_1
 70
     0
 62
    30
  6
太線
370
    40
390
F
1001
AcAecLayerStandard
1000

1000

  0
LAYER
  5
AD64
330
2
100
AcDbSymbolTableRecord
100
AcDbLayerTableRecord
  2
AM_2
 70
     0
 62
     1
  6
細線
370
    13
390
F
1001
AcAecLayerStandard
1000

1000

  0
LAYER
  5
AD67
330
2
100
AcDbSymbolTableRecord
100
AcDbLayerTableRecord
  2
AM_3
 70
     0
 62
     6
  6
陰線1
370
    13
390
F
1001
AcAecLayerStandard
1000

1000

  0
LAYER
  5
AD68
330
2
100
AcDbSymbolTableRecord
100
AcDbLayerTableRecord
  2
AM_5
 70
     0
 62
     3
  6
寸法線
370
    13
390
F
1001
AcAecLayerStandard
1000

1000

  0
LAYER
  5
AD69
330
2
100
AcDbSymbolTableRecord
100
AcDbLayerTableRecord
  2
AM_7
 70
     0
 62
     4
  6
中心線1
370
    13
390
F
1001
AcAecLayerStandard
1000

1000

  0
LAYER
  5
AD6A
330
2
100
AcDbSymbolTableRecord
100
AcDbLayerTableRecord
  2
AM_8
 70
     0
 62
     1
  6
ハッチング
370
    13
390
F
1001
AcAecLayerStandard
1000

1000

  0
LAYER
  5
AD6E
330
2
100
AcDbSymbolTableRecord
100
AcDbLayerTableRecord
  2
AM_10
 70
     0
 62
     7
  6
切断線
370
    13
390
F
1001
AcAecLayerStandard
1000

1000

  0
LAYER
  5
AD6F
330
2
100
AcDbSymbolTableRecord
100
AcDbLayerTableRecord
  2
AM_11
 70
     0
 62
     2
  6
想像線1
370
    13
390
F
1001
AcAecLayerStandard
1000

1000

  0
LAYER
  5
B1B6
330
2
100
AcDbSymbolTableRecord
100
AcDbLayerTableRecord
  2
AM_CL
 70
     0
 62
     1
  6
Amconstr
370
    15
390
F
1001
AcAecLayerStandard
1000

1000

  0
LAYER
  5
B2EB
330
2
100
AcDbSymbolTableRecord
100
AcDbLayerTableRecord
  2
AM_14
 70
     0
 62
     5
  6
細線
370
     9
390
F
1001
AcAecLayerStandard
1000

1000

  0
LAYER
  5
B2EC
330
2
100
AcDbSymbolTableRecord
100
AcDbLayerTableRecord
  2
AM_15
 70
     0
 62
     6
  6
陰線1
370
     9
390
F
1001
AcAecLayerStandard
1000

1000

  0
LAYER
  5
B502
330
2
100
AcDbSymbolTableRecord
100
AcDbLayerTableRecord
  2
AM_4
 70
     0
 62
     3
  6
補助線
370
    15
390
F
1001
AcAecLayerStandard
1000

1000

  0
LAYER
  5
B546
330
2
100
AcDbSymbolTableRecord
100
AcDbLayerTableRecord
  2
1
 70
     0
 62
     7
  6
Continuous
370
    -3
390
F
  0
LAYER
  5
B791
330
2
100
AcDbSymbolTableRecord
100
AcDbLayerTableRecord
  2
想像線
 70
     0
 62
     5
  6
PHANTOM2
370
    -3
390
F
  0
LAYER
  5
B792
330
2
100
AcDbSymbolTableRecord
100
AcDbLayerTableRecord
  2
実線
 70
     0
 62
     7
  6
Continuous
370
    -3
390
F
  0
LAYER
  5
B793
330
2
100
AcDbSymbolTableRecord
100
AcDbLayerTableRecord
  2
中心線
 70
     0
 62
     2
  6
CENTER2
370
    -3
390
F
  0
LAYER
  5
B794
330
2
100
AcDbSymbolTableRecord
100
AcDbLayerTableRecord
  2
隠れ線
 70
     0
 62
     4
  6
HIDDEN2
370
    -3
390
F
  0
LAYER
  5
B795
330
2
100
AcDbSymbolTableRecord
100
AcDbLayerTableRecord
  2
細線
 70
     0
 62
     4
  6
Continuous
370
    -3
390
F
  0
LAYER
  5
B796
330
2
100
AcDbSymbolTableRecord
100
AcDbLayerTableRecord
  2
文字
 70
     0
 62
     1
  6
Continuous
370
    -3
390
F
  0
ENDTAB
  0
TABLE
  2
STYLE
  5
3
330
0
100
AcDbSymbolTable
 70
     8
  0
STYLE
  5
11
330
3
100
AcDbSymbolTableRecord
100
AcDbTextStyleTableRecord
  2
STANDARD
 70
     0
 40
0.0
 41
0.7
 50
0.0
 71
     0
 42
3.2
  3
romans.shx
  4
extfont.shx
  0
STYLE
  5
56
330
3
100
AcDbSymbolTableRecord
100
AcDbTextStyleTableRecord
  2

 70
     1
 40
0.0
 41
1.0
 50
0.0
 71
     0
 42
2.5
  3
ltypeshp.shx
  4

  0
STYLE
  5
58
330
3
100
AcDbSymbolTableRecord
100
AcDbTextStyleTableRecord
  2
ACISOTS
 70
     0
 40
1.0
 41
1.0
 50
0.0
 71
     0
 42
2.5
  3
isocp.shx
  4
extfont.shx
  0
STYLE
  5
63
330
3
100
AcDbSymbolTableRecord
100
AcDbTextStyleTableRecord
  2
ACISOGDT
 70
     0
 40
0.0
 41
1.0
 50
0.0
 71
     0
 42
2.5
  3
amgdt.shx
  4

  0
STYLE
  5
A74
330
3
100
AcDbSymbolTableRecord
100
AcDbTextStyleTableRecord
  2
DIM
 70
     0
 40
0.0
 41
1.0
 50
0.0
 71
     0
 42
2.5
  3
monotxt.shx
  4
extfont.shx
  0
STYLE
  5
AC80
330
3
100
AcDbSymbolTableRecord
100
AcDbTextStyleTableRecord
  2

 70
     1
 40
0.0
 41
1.0
 50
0.0
 71
     0
 42
3.2
  3
genltshp.shx
  4

  0
STYLE
  5
B547
330
3
100
AcDbSymbolTableRecord
100
AcDbTextStyleTableRecord
  2
ACANSTS
 70
     0
 40
1.0
 41
1.0
 50
0.0
 71
     0
 42
0.2
  3
romans.shx
  4
extfont.shx
  0
STYLE
  5
B548
330
3
100
AcDbSymbolTableRecord
100
AcDbTextStyleTableRecord
  2
ACANSGDT
 70
     0
 40
0.0
 41
1.0
 50
0.0
 71
     0
 42
0.2
  3
amgdt.shx
  4

  0
ENDTAB
  0
TABLE
  2
VIEW
  5
6
330
0
100
AcDbSymbolTable
 70
     6
  0
VIEW
  5
AE1
330
6
100
AcDbSymbolTableRecord
100
AcDbViewTableRecord
  2
AM_VIEW1
 70
     0
 40
129.7276464542651
 10
1775.10588156276
 20
1793.121228859297
 41
148.5
 11
0.0
 21
0.0
 31
1.0
 12
0.0
 22
0.0
 32
0.0
 42
50.0
 43
-1370.695619172058
 44
-1370.695619172058
 50
0.0
 71
    16
281
     0
 72
     0
  0
VIEW
  5
AE2
330
6
100
AcDbSymbolTableRecord
100
AcDbViewTableRecord
  2
AM_VIEW2
 70
     0
 40
129.7276464542651
 10
1923.60588156276
 20
1793.121228859297
 41
148.5
 11
0.0
 21
0.0
 31
1.0
 12
0.0
 22
0.0
 32
0.0
 42
50.0
 43
-1370.695619172058
 44
-1370.695619172058
 50
0.0
 71
    16
281
     0
 72
     0
  0
VIEW
  5
AE3
330
6
100
AcDbSymbolTableRecord
100
AcDbViewTableRecord
  2
AM_VIEW3
 70
     0
 40
129.7276464542651
 10
1775.10588156276
 20
1712.848875313562
 41
148.5
 11
0.0
 21
0.0
 31
1.0
 12
0.0
 22
0.0
 32
0.0
 42
50.0
 43
-1370.695619172058
 44
-1370.695619172058
 50
0.0
 71
    16
281
     0
 72
     0
  0
VIEW
  5
AE4
330
6
100
AcDbSymbolTableRecord
100
AcDbViewTableRecord
  2
AM_VIEW4
 70
     0
 40
129.7276464542651
 10
1923.60588156276
 20
1712.848875313562
 41
148.5
 11
0.0
 21
0.0
 31
1.0
 12
0.0
 22
0.0
 32
0.0
 42
50.0
 43
-1370.695619172058
 44
-1370.695619172058
 50
0.0
 71
    16
281
     0
 72
     0
  0
VIEW
  5
AE5
330
6
100
AcDbSymbolTableRecord
100
AcDbViewTableRecord
  2
AM_VIEW5
 70
     0
 40
129.7276464542651
 10
1849.35588156276
 20
1752.985052086429
 41
148.5
 11
0.0
 21
0.0
 31
1.0
 12
0.0
 22
0.0
 32
0.0
 42
50.0
 43
-1370.695619172058
 44
-1370.695619172058
 50
0.0
 71
    16
281
     0
 72
     0
  0
VIEW
  5
AE6
330
6
100
AcDbSymbolTableRecord
100
AcDbViewTableRecord
  2
AM_VIEW6
 70
     0
 40
259.4526983556011
 10
1849.35588156276
 20
1752.985052086429
 41
296.99703
 11
0.0
 21
0.0
 31
1.0
 12
0.0
 22
0.0
 32
0.0
 42
50.0
 43
-1370.695619172058
 44
-1370.695619172058
 50
0.0
 71
    16
281
     0
 72
     0
  0
ENDTAB
  0
TABLE
  2
UCS
  5
7
330
0
100
AcDbSymbolTable
 70
     0
  0
ENDTAB
  0
TABLE
  2
APPID
  5
9
330
0
100
AcDbSymbolTable
 70
    55
  0
APPID
  5
12
330
9
100
AcDbSymbolTableRecord
100
AcDbRegAppTableRecord
  2
ACAD
 70
     0
  0
APPID
  5
30
330
9
100
AcDbSymbolTableRecord
100
AcDbRegAppTableRecord
  2
MCAD_NO_VIS
 70
     0
  0
APPID
  5
31
330
9
100
AcDbSymbolTableRecord
100
AcDbRegAppTableRecord
  2
ACAD_TEMP_GRAPHIC
 70
     0
  0
APPID
  5
44
330
9
100
AcDbSymbolTableRecord
100
AcDbRegAppTableRecord
  2
ACATTRIBSERVICES
 70
     0
  0
APPID
  5
7A1
330
9
100
AcDbSymbolTableRecord
100
AcDbRegAppTableRecord
  2
GENIUS_GENDIMSH_14
 70
     0
  0
APPID
  5
A49
330
9
100
AcDbSymbolTableRecord
100
AcDbRegAppTableRecord
  2
GENIUS_GENREC_14
 70
     0
  0
APPID
  5
A4A
330
9
100
AcDbSymbolTableRecord
100
AcDbRegAppTableRecord
  2
GENIUS_GENOBJ-N-REC_13
 70
     0
  0
APPID
  5
A4B
330
9
100
AcDbSymbolTableRecord
100
AcDbRegAppTableRecord
  2
GENIUS_GENODEF_13
 70
     0
  0
APPID
  5
A4C
330
9
100
AcDbSymbolTableRecord
100
AcDbRegAppTableRecord
  2
DCO15
 70
     0
  0
APPID
  5
ADC
330
9
100
AcDbSymbolTableRecord
100
AcDbRegAppTableRecord
  2
GENIUS_GENOLIS_13
 70
     0
  0
APPID
  5
ADD
330
9
100
AcDbSymbolTableRecord
100
AcDbRegAppTableRecord
  2
GENIUS_GENOENT_13
 70
     0
  0
APPID
  5
ADE
330
9
100
AcDbSymbolTableRecord
100
AcDbRegAppTableRecord
  2
GENIUS_GENOBJ-N-TIT_13
 70
     0
  0
APPID
  5
ADF
330
9
100
AcDbSymbolTableRecord
100
AcDbRegAppTableRecord
  2
GENIUS_GENTITLE_13
 70
     0
  0
APPID
  5
AE0
330
9
100
AcDbSymbolTableRecord
100
AcDbRegAppTableRecord
  2
GENIUS_GENOREF_13
 70
     0
  0
APPID
  5
AE7
330
9
100
AcDbSymbolTableRecord
100
AcDbRegAppTableRecord
  2
GENIUS_GENSCREG_15
 70
     0
  0
APPID
  5
AE8
330
9
100
AcDbSymbolTableRecord
100
AcDbRegAppTableRecord
  2
GENIUS_GENOBJ-N-SDF_13
 70
     0
  0
APPID
  5
FAF
330
9
100
AcDbSymbolTableRecord
100
AcDbRegAppTableRecord
  2
GENIUS_GENBLLY_14
 70
     0
  0
APPID
  5
FB0
330
9
100
AcDbSymbolTableRecord
100
AcDbRegAppTableRecord
  2
GENIUS_GENTRA_14
 70
     0
  0
APPID
  5
1285
330
9
100
AcDbSymbolTableRecord
100
AcDbRegAppTableRecord
  2
GENIUS_GENDTOL_13
 70
     0
  0
APPID
  5
142D
330
9
100
AcDbSymbolTableRecord
100
AcDbRegAppTableRecord
  2
GENIUS_GENOBJ-N-CEN_13
 70
     0
  0
APPID
  5
1AB5
330
9
100
AcDbSymbolTableRecord
100
AcDbRegAppTableRecord
  2
GENIUS_GENOBJ-N-CRS_13
 70
     0
  0
APPID
  5
1B36
330
9
100
AcDbSymbolTableRecord
100
AcDbRegAppTableRecord
  2
GENIUS_GENOBJ-N-HTC_13
 70
     0
  0
APPID
  5
1B37
330
9
100
AcDbSymbolTableRecord
100
AcDbRegAppTableRecord
  2
GENIUS_GENHATCH_13
 70
     0
  0
APPID
  5
216D
330
9
100
AcDbSymbolTableRecord
100
AcDbRegAppTableRecord
  2
GENIUS_GENOBJ-N-FIL_13
 70
     0
  0
APPID
  5
2356
330
9
100
AcDbSymbolTableRecord
100
AcDbRegAppTableRecord
  2
GEVID990412420
 70
     0
  0
APPID
  5
2357
330
9
100
AcDbSymbolTableRecord
100
AcDbRegAppTableRecord
  2
GEVDC
 70
     0
  0
APPID
  5
2358
330
9
100
AcDbSymbolTableRecord
100
AcDbRegAppTableRecord
  2
GEVCON
 70
     0
  0
APPID
  5
235B
330
9
100
AcDbSymbolTableRecord
100
AcDbRegAppTableRecord
  2
GEVRADREF
 70
     0
  0
APPID
  5
2360
330
9
100
AcDbSymbolTableRecord
100
AcDbRegAppTableRecord
  2
GENIUS_GENBH_13
 70
     0
  0
APPID
  5
2362
330
9
100
AcDbSymbolTableRecord
100
AcDbRegAppTableRecord
  2
GENIUS_GENOBJ-NBEHI-BHF_13
 70
     0
  0
APPID
  5
2364
330
9
100
AcDbSymbolTableRecord
100
AcDbRegAppTableRecord
  2
GENIUS_GENOBJ-NBEHI-BHB_13
 70
     0
  0
APPID
  5
2379
330
9
100
AcDbSymbolTableRecord
100
AcDbRegAppTableRecord
  2
GENIUS_GENOBJ-F-SCPASSM_13
 70
     0
  0
APPID
  5
3D74
330
9
100
AcDbSymbolTableRecord
100
AcDbRegAppTableRecord
  2
GENIUS_GENDIM_13
 70
     0
  0
APPID
  5
3D76
330
9
100
AcDbSymbolTableRecord
100
AcDbRegAppTableRecord
  2
GENIUS_GE3DTOL_13
 70
     0
  0
APPID
  5
3D9C
330
9
100
AcDbSymbolTableRecord
100
AcDbRegAppTableRecord
  2
AD_DRAW
 70
     0
  0
APPID
  5
3DE8
330
9
100
AcDbSymbolTableRecord
100
AcDbRegAppTableRecord
  2
ASURF_PCURVE_APPNAME
 70
     0
  0
APPID
  5
3DED
330
9
100
AcDbSymbolTableRecord
100
AcDbRegAppTableRecord
  2
AMG_3D2D_5.0
 70
     0
  0
APPID
  5
3E1B
330
9
100
AcDbSymbolTableRecord
100
AcDbRegAppTableRecord
  2
DESIGNERASSEMBLIES
 70
     0
  0
APPID
  5
3E20
330
9
100
AcDbSymbolTableRecord
100
AcDbRegAppTableRecord
  2
ACADM_DIM_EDIT
 70
     0
  0
APPID
  5
3E21
330
9
100
AcDbSymbolTableRecord
100
AcDbRegAppTableRecord
  2
AMDT_DM_ADJ
 70
     0
  0
APPID
  5
4143
330
9
100
AcDbSymbolTableRecord
100
AcDbRegAppTableRecord
  2
GENIUS_GENFIL_13
 70
     0
  0
APPID
  5
4144
330
9
100
AcDbSymbolTableRecord
100
AcDbRegAppTableRecord
  2
GENIUS_GENOBJ-N-CHA_13
 70
     0
  0
APPID
  5
4E17
330
9
100
AcDbSymbolTableRecord
100
AcDbRegAppTableRecord
  2
GEVID1008153417
 70
     0
  0
APPID
  5
4E58
330
9
100
AcDbSymbolTableRecord
100
AcDbRegAppTableRecord
  2
GEVID1008153418
 70
     0
  0
APPID
  5
4E5E
330
9
100
AcDbSymbolTableRecord
100
AcDbRegAppTableRecord
  2
GEVID1008153419
 70
     0
  0
APPID
  5
4E64
330
9
100
AcDbSymbolTableRecord
100
AcDbRegAppTableRecord
  2
GEVID1008153420
 70
     0
  0
APPID
  5
4E75
330
9
100
AcDbSymbolTableRecord
100
AcDbRegAppTableRecord
  2
GEVID1008153421
 70
     0
  0
APPID
  5
4EB7
330
9
100
AcDbSymbolTableRecord
100
AcDbRegAppTableRecord
  2
GENIUS_AMGTXT_16
 70
     0
  0
APPID
  5
7645
330
9
100
AcDbSymbolTableRecord
100
AcDbRegAppTableRecord
  2
GENIUS_GENOBJ-N-DIM_13
 70
     0
  0
APPID
  5
AAD0
330
9
100
AcDbSymbolTableRecord
100
AcDbRegAppTableRecord
  2
ACAD_DSTYLE_DIMARC_LENGTH_SYMBOL
 70
     0
  0
APPID
  5
AAD1
330
9
100
AcDbSymbolTableRecord
100
AcDbRegAppTableRecord
  2
ACAD_DSTYLE_DIMJOGGED_JOGANGLE_SYMBOL
 70
     0
  0
APPID
  5
AAFD
330
9
100
AcDbSymbolTableRecord
100
AcDbRegAppTableRecord
  2
ACAD_PSEXT
 70
     0
  0
APPID
  5
AD61
330
9
100
AcDbSymbolTableRecord
100
AcDbRegAppTableRecord
  2
AcAecLayerStandard
 70
     0
  0
APPID
  5
AEE3
330
9
100
AcDbSymbolTableRecord
100
AcDbRegAppTableRecord
  2
ACAD_EXEMPT_FROM_CAD_STANDARDS
 70
     0
  0
APPID
  5
B1BE
330
9
100
AcDbSymbolTableRecord
100
AcDbRegAppTableRecord
  2
GENIUS_GENCEN_19
 70
     0
  0
ENDTAB
  0
TABLE
  2
DIMSTYLE
  5
A
330
0
100
AcDbSymbolTable
 70
    24
100
AcDbDimStyleTable
 71
     1
340
2515
  0
DIMSTYLE
105
A76
330
A
100
AcDbSymbolTableRecord
100
AcDbDimStyleTableRecord
  2
STANDARD
 70
     0
 41
3.0
 42
1.0
 43
7.0
 44
2.0
 73
     0
 74
     0
 77
     1
140
2.799999999999999
141
0.0
143
0.0394
147
0.7
171
     4
172
     1
173
     1
176
     3
177
     3
178
     2
271
     3
272
     3
273
     8
274
     4
289
     0
340
A74
341
A66
343
A66
344
A66
  0
DIMSTYLE
105
2515
330
A
100
AcDbSymbolTableRecord
100
AcDbDimStyleTableRecord
  2
SYS
 70
     0
  4
"
 41
1.0
 42
1.0
 43
10.0
 44
1.0
 47
0.1
 48
0.1
 73
     0
 74
     0
 77
     1
 78
     8
 79
     2
140
3.5
141
0.0
143
0.0393701
146
0.71
147
1.5
172
     1
176
   256
177
   256
178
     7
271
     2
272
     2
283
     0
284
     8
340
11
371
    -1
372
    -1
1001
ACAD_DSTYLE_DIMJOGGED_JOGANGLE_SYMBOL
1070
   384
1040
0.7853981633974483
1001
ACAD_DSTYLE_DIMARC_LENGTH_SYMBOL
1070
   379
1070
     1
  0
DIMSTYLE
105
2516
102
{ACAD_REACTORS
330
C2D4
330
C5F4
102
}
330
A
100
AcDbSymbolTableRecord
100
AcDbDimStyleTableRecord
  2
SYS$3
 70
     0
  4
"
 41
2.0
 42
1.0
 43
10.0
 44
1.0
 47
0.1
 48
0.1
 73
     0
 77
     1
 78
     8
 79
     2
140
3.5
141
0.0
143
0.0393701
146
0.71
147
1.5
176
   256
177
   256
178
     2
271
     2
272
     2
283
     0
284
     8
288
     1
340
11
342
A66
371
    -1
372
    -1
1001
ACAD_DSTYLE_DIMJOGGED_JOGANGLE_SYMBOL
1070
   384
1040
0.7853981633974483
1001
ACAD_DSTYLE_DIMARC_LENGTH_SYMBOL
1070
   379
1070
     1
  0
DIMSTYLE
105
2517
330
A
100
AcDbSymbolTableRecord
100
AcDbDimStyleTableRecord
  2
SYS$4
 70
     0
  4
"
 41
2.0
 42
1.0
 43
10.0
 44
1.0
 47
0.1
 48
0.1
 73
     0
 77
     1
 78
     8
 79
     2
140
3.5
141
0.0
143
0.0393701
146
0.71
147
1.5
173
     1
176
   256
177
   256
178
     2
271
     2
272
     2
283
     0
284
     8
288
     1
340
11
344
A66
371
    -1
372
    -1
1001
ACAD_DSTYLE_DIMJOGGED_JOGANGLE_SYMBOL
1070
   384
1040
0.7853981633974483
1001
ACAD_DSTYLE_DIMARC_LENGTH_SYMBOL
1070
   379
1070
     1
  0
DIMSTYLE
105
2518
330
A
100
AcDbSymbolTableRecord
100
AcDbDimStyleTableRecord
  2
SYS$6
 70
     0
  4
"
 41
2.0
 42
1.0
 43
10.0
 44
1.0
 47
0.1
 48
0.1
 73
     0
 74
     0
 78
     8
 79
     2
140
3.5
141
0.0
143
0.0393701
146
0.71
147
1.5
172
     1
176
   256
177
   256
178
     2
271
     2
272
     2
283
     0
284
     8
340
11
341
A66
371
    -1
372
    -1
1001
ACAD_DSTYLE_DIMJOGGED_JOGANGLE_SYMBOL
1070
   384
1040
0.7853981633974483
1001
ACAD_DSTYLE_DIMARC_LENGTH_SYMBOL
1070
   379
1070
     1
  0
DIMSTYLE
105
2519
330
A
100
AcDbSymbolTableRecord
100
AcDbDimStyleTableRecord
  2
SYS$7
 70
     0
  4
"
 41
2.0
 42
1.0
 43
10.0
 44
1.0
 47
0.1
 48
0.1
 73
     0
 74
     0
 77
     1
 78
     8
 79
     2
140
5.0
141
0.0
143
0.0393701
146
0.71
147
1.5
172
     1
176
   256
177
   256
178
     2
271
     2
272
     2
283
     0
284
     8
340
11
341
A66
342
A66
371
    -1
372
    -1
1001
ACAD_DSTYLE_DIMJOGGED_JOGANGLE_SYMBOL
1070
   384
1040
0.7853981633974483
1001
ACAD_DSTYLE_DIMARC_LENGTH_SYMBOL
1070
   379
1070
     1
  0
DIMSTYLE
105
251A
330
A
100
AcDbSymbolTableRecord
100
AcDbDimStyleTableRecord
  2
SYS$SF
 70
     0
  4
"
 41
2.5
 42
1.0
 43
10.0
 44
1.0
 47
0.1
 48
0.1
 73
     0
 74
     0
 75
     1
 76
     1
 77
     1
 78
     8
 79
     2
140
3.5
141
0.0
143
0.0393701
146
0.71
147
1.5
172
     1
176
   256
177
   256
178
     2
271
     2
272
     3
283
     0
284
     8
340
11
341
6C4
342
6C4
371
    -1
372
    -1
1001
ACAD_DSTYLE_DIMJOGGED_JOGANGLE_SYMBOL
1070
   384
1040
0.7853981633974483
1001
ACAD_DSTYLE_DIMARC_LENGTH_SYMBOL
1070
   379
1070
     1
  0
DIMSTYLE
105
251B
330
A
100
AcDbSymbolTableRecord
100
AcDbDimStyleTableRecord
  2
SYS$SH
 70
     0
  4
"
 41
2.5
 42
1.0
 43
10.0
 44
1.0
 47
0.1
 48
0.1
 73
     0
 74
     0
 75
     1
 76
     1
 77
     1
 78
     8
 79
     2
140
3.5
141
0.0
143
0.0393701
144
2.0
146
0.71
147
1.5
172
     1
173
     1
176
   256
177
   256
178
     2
271
     2
272
     3
283
     0
284
     8
340
11
341
6C4
343
72
344
6C4
371
    -1
372
    -1
1001
ACAD_DSTYLE_DIMJOGGED_JOGANGLE_SYMBOL
1070
   384
1040
0.7853981633974483
1001
ACAD_DSTYLE_DIMARC_LENGTH_SYMBOL
1070
   379
1070
     1
  0
DIMSTYLE
105
2A59
330
A
100
AcDbSymbolTableRecord
100
AcDbDimStyleTableRecord
  2
SYS$2
 70
     0
  4
"
 41
1.0
 42
1.0
 43
10.0
 44
1.0
 47
0.1
 48
0.1
 73
     0
 74
     0
 77
     1
 78
     8
 79
     2
140
3.5
141
0.0
143
0.0393701
146
0.71
147
1.5
172
     1
176
   256
177
   256
178
     2
271
     2
272
     2
283
     0
284
     8
340
11
342
6C4
371
    -1
372
    -1
1001
ACAD_DSTYLE_DIMJOGGED_JOGANGLE_SYMBOL
1070
   384
1040
0.7853981633974483
1001
ACAD_DSTYLE_DIMARC_LENGTH_SYMBOL
1070
   379
1070
     1
  0
DIMSTYLE
105
2AAB
102
{ACAD_REACTORS
330
C2C5
330
C2C7
330
C2CA
330
C2CB
330
C2CC
330
C2CD
330
C2CE
330
C2CF
330
C2D0
330
C2D1
330
C2D2
330
C2D3
330
C2D5
102
}
330
A
100
AcDbSymbolTableRecord
100
AcDbDimStyleTableRecord
  2
SYS$0
 70
     0
  4
"
 41
1.0
 42
1.0
 43
10.0
 44
1.0
 47
0.1
 48
0.1
 73
     0
 74
     0
 77
     1
 78
     8
 79
     2
140
3.200000000000001
141
0.0
143
0.0393701
146
0.71
147
1.5
172
     1
176
   256
177
   256
178
     2
271
     2
272
     2
283
     0
284
     8
340
11
341
A66
342
6C4
371
    -1
372
    -1
1001
ACAD_DSTYLE_DIMJOGGED_JOGANGLE_SYMBOL
1070
   384
1040
0.7853981633974483
1001
ACAD_DSTYLE_DIMARC_LENGTH_SYMBOL
1070
   379
1070
     1
  0
DIMSTYLE
105
AF99
330
A
100
AcDbSymbolTableRecord
100
AcDbDimStyleTableRecord
  2
AM_ISO
 70
     0
  4
"
 41
2.5
 42
1.0
 43
10.0
 44
1.0
 47
0.1
 48
0.1
 73
     0
 74
     0
 77
     1
 78
     8
 79
     2
140
3.5
141
0.0
143
0.0393701
146
0.71
147
1.5
172
     1
176
   256
177
   256
178
     2
271
     2
272
     3
274
     4
283
     0
284
     8
340
11
371
    -1
372
    -1
  0
DIMSTYLE
105
AF9A
330
A
100
AcDbSymbolTableRecord
100
AcDbDimStyleTableRecord
  2
AM_ISO$3
 70
     0
  4
"
 41
2.5
 42
1.0
 43
10.0
 44
1.0
 47
0.1
 48
0.1
 73
     0
 77
     1
 78
     8
 79
     2
140
3.5
141
0.0
143
0.0393701
146
0.71
147
1.5
176
   256
177
   256
178
     2
271
     2
272
     3
274
     4
283
     0
284
     8
288
     1
289
     0
340
11
371
    -1
372
    -1
  0
DIMSTYLE
105
AF9B
330
A
100
AcDbSymbolTableRecord
100
AcDbDimStyleTableRecord
  2
AM_ISO$4
 70
     0
  4
"
 41
2.5
 42
1.0
 43
10.0
 44
1.0
 47
0.1
 48
0.1
 73
     0
 77
     1
 78
     8
 79
     2
140
3.5
141
0.0
143
0.0393701
146
0.71
147
1.5
176
   256
177
   256
178
     2
271
     2
272
     3
274
     4
283
     0
284
     8
288
     1
289
     0
340
11
371
    -1
372
    -1
  0
DIMSTYLE
105
AF9C
330
A
100
AcDbSymbolTableRecord
100
AcDbDimStyleTableRecord
  2
AM_ISO$6
 70
     0
  4
"
 41
2.5
 42
1.0
 43
10.0
 44
1.0
 47
0.1
 48
0.1
 73
     0
 74
     0
 78
     8
 79
     2
140
3.5
141
0.0
143
0.0393701
146
0.71
147
1.5
172
     1
176
   256
177
   256
178
     2
271
     2
272
     3
274
     4
283
     0
284
     8
340
11
371
    -1
372
    -1
  0
DIMSTYLE
105
AF9D
330
A
100
AcDbSymbolTableRecord
100
AcDbDimStyleTableRecord
  2
AM_ISO$7
 70
     0
  4
"
 41
2.5
 42
1.0
 43
10.0
 44
1.0
 47
0.1
 48
0.1
 73
     0
 74
     0
 77
     1
 78
     8
 79
     2
140
5.0
141
0.0
143
0.0393701
146
0.71
147
1.5
172
     1
176
   256
177
   256
178
     2
271
     2
272
     3
274
     4
283
     0
284
     8
340
11
371
    -1
372
    -1
  0
DIMSTYLE
105
AF9E
330
A
100
AcDbSymbolTableRecord
100
AcDbDimStyleTableRecord
  2
AM_ISO$SF
 70
     0
  4
"
 41
2.5
 42
1.0
 43
10.0
 44
1.0
 47
0.1
 48
0.1
 73
     0
 74
     0
 75
     1
 76
     1
 77
     1
 78
     8
 79
     2
140
3.5
141
0.0
143
0.0393701
146
0.71
147
1.5
172
     1
176
   256
177
   256
178
     2
271
     2
272
     3
274
     4
283
     0
284
     8
340
11
371
    -1
372
    -1
  0
DIMSTYLE
105
AF9F
330
A
100
AcDbSymbolTableRecord
100
AcDbDimStyleTableRecord
  2
AM_ISO$SH
 70
     0
  4
"
 41
2.5
 42
1.0
 43
10.0
 44
1.0
 47
0.1
 48
0.1
 73
     0
 74
     0
 75
     1
 76
     1
 77
     1
 78
     8
 79
     2
140
3.5
141
0.0
143
0.0393701
144
2.0
146
0.71
147
1.5
172
     1
173
     1
176
   256
177
   256
178
     2
271
     2
272
     3
274
     4
283
     0
284
     8
340
11
343
72
371
    -1
372
    -1
  0
DIMSTYLE
105
B549
330
A
100
AcDbSymbolTableRecord
100
AcDbDimStyleTableRecord
  2
AM_ANSI
 70
     0
  4
mm
 41
0.1
 42
0.05
 43
0.5
 44
0.1
 47
0.1
 48
0.1
 78
     7
 79
     2
140
0.12
141
0.0
146
0.71
147
0.06
176
   256
177
   256
178
     2
274
     4
284
     7
340
11
371
    -1
372
    -1
1001
ACAD_DSTYLE_DIMARC_LENGTH_SYMBOL
1070
   379
1070
     1
  0
DIMSTYLE
105
B54A
330
A
100
AcDbSymbolTableRecord
100
AcDbDimStyleTableRecord
  2
AM_ANSI$3
 70
     0
  4
mm
 41
0.1
 42
0.05
 43
0.5
 44
0.1
 47
0.1
 48
0.1
 78
     7
 79
     2
140
0.12
141
0.0
146
0.71
147
0.06
176
   256
177
   256
178
     2
274
     4
284
     7
288
     1
289
     0
340
11
371
    -1
372
    -1
1001
ACAD_DSTYLE_DIMARC_LENGTH_SYMBOL
1070
   379
1070
     1
  0
DIMSTYLE
105
B54B
330
A
100
AcDbSymbolTableRecord
100
AcDbDimStyleTableRecord
  2
AM_ANSI$4
 70
     0
  4
mm
 41
0.1
 42
0.05
 43
0.5
 44
0.1
 47
0.1
 48
0.1
 78
     7
 79
     2
140
0.12
141
0.0
146
0.71
147
0.06
176
   256
177
   256
178
     2
274
     4
284
     7
288
     1
289
     0
340
11
371
    -1
372
    -1
1001
ACAD_DSTYLE_DIMARC_LENGTH_SYMBOL
1070
   379
1070
     1
  0
DIMSTYLE
105
B54C
330
A
100
AcDbSymbolTableRecord
100
AcDbDimStyleTableRecord
  2
AM_ANSI$7
 70
     0
  4
mm
 41
0.1
 42
0.05
 43
0.5
 44
0.1
 47
0.1
 48
0.1
 78
     7
 79
     2
140
0.24
141
0.0
146
0.71
147
0.06
176
   256
177
   256
178
     2
274
     4
284
     7
340
11
371
    -1
372
    -1
1001
ACAD_DSTYLE_DIMARC_LENGTH_SYMBOL
1070
   379
1070
     1
  0
DIMSTYLE
105
B54D
330
A
100
AcDbSymbolTableRecord
100
AcDbDimStyleTableRecord
  2
AM_ANSI$SF
 70
     0
  4
mm
 41
0.1
 42
0.05
 43
0.5
 44
0.1
 47
0.1
 48
0.1
 75
     1
 76
     1
 78
     7
 79
     2
140
0.12
141
0.0
146
0.71
147
0.06
176
   256
177
   256
178
     2
274
     4
284
     7
340
11
371
    -1
372
    -1
1001
ACAD_DSTYLE_DIMARC_LENGTH_SYMBOL
1070
   379
1070
     1
  0
DIMSTYLE
105
B54E
330
A
100
AcDbSymbolTableRecord
100
AcDbDimStyleTableRecord
  2
AM_ANSI$SH
 70
     0
  4
mm
 41
0.1
 42
0.05
 43
0.5
 44
0.1
 47
0.1
 48
0.1
 75
     1
 76
     1
 78
     7
 79
     2
140
0.12
141
0.0
146
0.71
147
0.06
173
     1
176
   256
177
   256
178
     2
274
     4
284
     7
340
11
343
72
371
    -1
372
    -1
1001
ACAD_DSTYLE_DIMARC_LENGTH_SYMBOL
1070
   379
1070
     1
  0
DIMSTYLE
105
B797
330
A
100
AcDbSymbolTableRecord
100
AcDbDimStyleTableRecord
  2
AM_JIS
 70
     0
  4
"
 41
2.0
 42
1.0
 43
10.0
 44
1.0
 47
0.1
 48
0.1
 73
     0
 74
     0
 77
     3
 78
     8
140
3.0
141
0.0
143
0.0393701
146
0.71
147
1.6
172
     1
176
   256
177
   256
178
     1
271
     2
272
     2
279
     2
284
     8
285
     8
286
     8
340
11
  0
ENDTAB
  0
TABLE
  2
BLOCK_RECORD
  5
1
330
0
100
AcDbSymbolTable
 70
    21
  0
BLOCK_RECORD
  5
1F
102
{ACAD_XDICTIONARY
360
8A
102
}
330
1
100
AcDbSymbolTableRecord
100
AcDbBlockTableRecord
  2
*Model_Space
340
22
  0
BLOCK_RECORD
  5
1B
330
1
100
AcDbSymbolTableRecord
100
AcDbBlockTableRecord
  2
*Paper_Space
340
1E
  0
BLOCK_RECORD
  5
23
330
1
100
AcDbSymbolTableRecord
100
AcDbBlockTableRecord
  2
*Paper_Space0
340
26
  0
BLOCK_RECORD
  5
72
330
1
100
AcDbSymbolTableRecord
100
AcDbBlockTableRecord
  2
GENAXEH
340
0
  0
BLOCK_RECORD
  5
6C4
330
1
100
AcDbSymbolTableRecord
100
AcDbBlockTableRecord
  2
_Dot
340
0
102
{BLKREFS
331
C450
331
C451
331
C459
331
C45A
331
C462
331
C463
331
C480
331
C481
331
C48B
331
C48C
331
C495
331
C496
331
C504
331
C505
331
C521
331
C522
331
C52A
331
C52B
331
C546
331
C547
331
C565
331
C566
331
C58F
331
C590
331
C599
331
C59A
102
}
  0
BLOCK_RECORD
  5
A66
330
1
100
AcDbSymbolTableRecord
100
AcDbBlockTableRecord
  2
_OPEN30
340
0
  0
BLOCK_RECORD
  5
BD11
330
1
100
AcDbSymbolTableRecord
100
AcDbBlockTableRecord
  2
GENDOT
340
0
102
{BLKREFS
331
C65E
331
C65F
331
C696
331
C697
102
}
  0
BLOCK_RECORD
  5
C2D6
330
1
100
AcDbSymbolTableRecord
100
AcDbBlockTableRecord
  2
*D6
340
0
  0
BLOCK_RECORD
  5
C2E2
330
1
100
AcDbSymbolTableRecord
100
AcDbBlockTableRecord
  2
*D7
340
0
  0
BLOCK_RECORD
  5
C2FA
330
1
100
AcDbSymbolTableRecord
100
AcDbBlockTableRecord
  2
*D8
340
0
  0
BLOCK_RECORD
  5
C306
330
1
100
AcDbSymbolTableRecord
100
AcDbBlockTableRecord
  2
*D9
340
0
  0
BLOCK_RECORD
  5
C313
330
1
100
AcDbSymbolTableRecord
100
AcDbBlockTableRecord
  2
*D10
340
0
  0
BLOCK_RECORD
  5
C31F
330
1
100
AcDbSymbolTableRecord
100
AcDbBlockTableRecord
  2
*D11
340
0
  0
BLOCK_RECORD
  5
C32B
330
1
100
AcDbSymbolTableRecord
100
AcDbBlockTableRecord
  2
*D12
340
0
  0
BLOCK_RECORD
  5
C337
330
1
100
AcDbSymbolTableRecord
100
AcDbBlockTableRecord
  2
*D13
340
0
  0
BLOCK_RECORD
  5
C345
330
1
100
AcDbSymbolTableRecord
100
AcDbBlockTableRecord
  2
*D14
340
0
  0
BLOCK_RECORD
  5
C352
330
1
100
AcDbSymbolTableRecord
100
AcDbBlockTableRecord
  2
*D15
340
0
  0
BLOCK_RECORD
  5
C35E
330
1
100
AcDbSymbolTableRecord
100
AcDbBlockTableRecord
  2
*D16
340
0
  0
BLOCK_RECORD
  5
C36C
330
1
100
AcDbSymbolTableRecord
100
AcDbBlockTableRecord
  2
*D17
340
0
  0
BLOCK_RECORD
  5
C379
330
1
100
AcDbSymbolTableRecord
100
AcDbBlockTableRecord
  2
*D18
340
0
  0
BLOCK_RECORD
  5
C385
330
1
100
AcDbSymbolTableRecord
100
AcDbBlockTableRecord
  2
*D19
340
0
  0
BLOCK_RECORD
  5
C5F5
330
1
100
AcDbSymbolTableRecord
100
AcDbBlockTableRecord
  2
*D20
340
0
  0
ENDTAB
  0
ENDSEC
  0
SECTION
  2
BLOCKS
  0
BLOCK
  5
20
330
1F
100
AcDbEntity
  8
0
100
AcDbBlockBegin
  2
*Model_Space
 70
     0
 10
0.0
 20
0.0
 30
0.0
  3
*Model_Space
  1

  0
ENDBLK
  5
21
330
1F
100
AcDbEntity
  8
0
100
AcDbBlockEnd
  0
BLOCK
  5
1C
330
1B
100
AcDbEntity
 67
     1
  8
0
100
AcDbBlockBegin
  2
*Paper_Space
 70
     0
 10
0.0
 20
0.0
 30
0.0
  3
*Paper_Space
  1

  0
ENDBLK
  5
1D
330
1B
100
AcDbEntity
 67
     1
  8
0
100
AcDbBlockEnd
  0
BLOCK
  5
24
330
23
100
AcDbEntity
 67
     1
  8
0
100
AcDbBlockBegin
  2
*Paper_Space0
 70
     0
 10
0.0
 20
0.0
 30
0.0
  3
*Paper_Space0
  1

  0
ENDBLK
  5
25
330
23
100
AcDbEntity
 67
     1
  8
0
100
AcDbBlockEnd
  0
BLOCK
  5
74
330
72
100
AcDbEntity
  8
0
100
AcDbBlockBegin
  2
GENAXEH
 70
     0
 10
0.0
 20
0.0
 30
0.0
  3
GENAXEH
  1

  0
LINE
  5
73
330
72
100
AcDbEntity
  8
0
100
AcDbLine
 10
-1.0
 20
0.0
 30
0.0
 11
1.0
 21
0.0
 31
0.0
  0
ENDBLK
  5
75
330
72
100
AcDbEntity
  8
0
100
AcDbBlockEnd
  0
BLOCK
  5
6C7
330
6C4
100
AcDbEntity
  8
0
100
AcDbBlockBegin
  2
_Dot
 70
     0
 10
0.0
 20
0.0
 30
0.0
  3
_Dot
  1

  0
LWPOLYLINE
  5
6C5
330
6C4
100
AcDbEntity
  8
0
  6
ByBlock
 62
     0
100
AcDbPolyline
 90
        2
 70
     1
 43
0.5
 10
-0.25
 20
0.0
 42
1.0
 10
0.25
 20
0.0
 42
1.0
  0
LINE
  5
6C6
330
6C4
100
AcDbEntity
  8
0
  6
ByBlock
 62
     0
370
    -2
100
AcDbLine
 10
-0.5
 20
0.0
 30
0.0
 11
-1.0
 21
0.0
 31
0.0
  0
ENDBLK
  5
6C8
330
6C4
100
AcDbEntity
  8
0
100
AcDbBlockEnd
  0
BLOCK
  5
A6A
330
A66
100
AcDbEntity
  8
0
100
AcDbBlockBegin
  2
_OPEN30
 70
     0
 10
0.0
 20
0.0
 30
0.0
  3
_OPEN30
  1

  0
LINE
  5
A67
330
A66
100
AcDbEntity
  8
0
  6
ByBlock
 62
     0
100
AcDbLine
 10
-1.0
 20
0.26794919
 30
0.0
 11
0.0
 21
0.0
 31
0.0
  0
LINE
  5
A68
330
A66
100
AcDbEntity
  8
0
  6
ByBlock
 62
     0
100
AcDbLine
 10
0.0
 20
0.0
 30
0.0
 11
-1.0
 21
-0.26794919
 31
0.0
  0
LINE
  5
A69
330
A66
100
AcDbEntity
  8
0
  6
ByBlock
 62
     0
100
AcDbLine
 10
0.0
 20
0.0
 30
0.0
 11
-1.0
 21
0.0
 31
0.0
  0
ENDBLK
  5
A6B
330
A66
100
AcDbEntity
  8
0
100
AcDbBlockEnd
  0
BLOCK
  5
BD14
330
BD11
100
AcDbEntity
  8
0
100
AcDbBlockBegin
  2
GENDOT
 70
     0
 10
0.0
 20
0.0
 30
0.0
  3
GENDOT
  1

  0
LINE
  5
BD12
330
BD11
100
AcDbEntity
  8
0
100
AcDbLine
 10
0.0
 20
0.0
 30
0.0
 11
-1.0
 21
0.0
 31
0.0
  0
LWPOLYLINE
  5
BD13
330
BD11
100
AcDbEntity
  8
0
100
AcDbPolyline
 90
        2
 70
     1
 43
0.25
 10
-0.125
 20
0.0
 42
1.0
 10
0.125
 20
0.0
 42
1.0
  0
ENDBLK
  5
BD15
330
BD11
100
AcDbEntity
  8
0
100
AcDbBlockEnd
  0
BLOCK
  5
C2E0
330
C2D6
100
AcDbEntity
  8
0
100
AcDbBlockBegin
  2
*D6
 70
     1
 10
0.0
 20
0.0
 30
0.0
  3
*D6
  1

  0
LINE
  5
C51E
330
C2D6
100
AcDbEntity
  8
AM_5
100
AcDbLine
 10
97.25872447753593
 20
192.5781788708729
 30
0.0
 11
69.00872346753594
 21
192.5781788708729
 31
0.0
  0
LINE
  5
C51F
330
C2D6
100
AcDbEntity
  8
AM_5
100
AcDbLine
 10
97.25872447753593
 20
158.0781788708729
 30
0.0
 11
69.00872346753593
 21
158.0781788708729
 31
0.0
  0
LINE
  5
C520
330
C2D6
100
AcDbEntity
  8
AM_5
100
AcDbLine
 10
70.00872346753594
 20
191.5781788708729
 30
0.0
 11
70.00872346753593
 21
159.0781788708729
 31
0.0
  0
INSERT
  5
C521
330
C2D6
100
AcDbEntity
  8
AM_5
100
AcDbBlockReference
  2
_Dot
 10
70.00872346753594
 20
192.5781788708729
 30
0.0
 50
90.0
  0
INSERT
  5
C522
330
C2D6
100
AcDbEntity
  8
AM_5
100
AcDbBlockReference
  2
_Dot
 10
70.00872346753593
 20
158.0781788708729
 30
0.0
 50
270.0
  0
MTEXT
  5
C523
330
C2D6
100
AcDbEntity
  8
AM_5
 62
     2
100
AcDbMText
 10
66.90872346753592
 20
175.3281788708729
 30
0.0
 40
3.200000000000001
 41
0.0
 71
     5
 72
     1
  1
34.5
 11
0.0000000000000001
 21
1.0
 31
0.0
 73
     1
 44
1.0
1001
ACAD
1000
MTEXTBEGIN
1070
    73
1070
     1
1070
    44
1040
1.0
1070
    74
1070
     0
1000
MTEXTEND
  0
POINT
  5
C524
330
C2D6
100
AcDbEntity
  8
Defpoints
 62
     0
100
AcDbPoint
 10
98.25872447753592
 20
192.5781788708729
 30
0.0
  0
POINT
  5
C525
330
C2D6
100
AcDbEntity
  8
Defpoints
 62
     0
100
AcDbPoint
 10
98.25872447753592
 20
158.0781788708729
 30
0.0
  0
POINT
  5
C526
330
C2D6
100
AcDbEntity
  8
Defpoints
 62
     0
100
AcDbPoint
 10
70.00872346753593
 20
158.0781788708729
 30
0.0
  0
ENDBLK
  5
C2E1
330
C2D6
100
AcDbEntity
  8
0
100
AcDbBlockEnd
  0
BLOCK
  5
C2EC
330
C2E2
100
AcDbEntity
  8
0
100
AcDbBlockBegin
  2
*D7
 70
     1
 10
0.0
 20
0.0
 30
0.0
  3
*D7
  1

  0
LINE
  5
C527
330
C2E2
100
AcDbEntity
  8
AM_5
100
AcDbLine
 10
91.83712781163356
 20
186.3281788708729
 30
0.0
 11
79.0087234675359
 21
186.3281788708729
 31
0.0
  0
LINE
  5
C528
330
C2E2
100
AcDbEntity
  8
AM_5
100
AcDbLine
 10
91.83712781163356
 20
164.3281788708729
 30
0.0
 11
79.0087234675359
 21
164.3281788708729
 31
0.0
  0
LINE
  5
C529
330
C2E2
100
AcDbEntity
  8
AM_5
100
AcDbLine
 10
80.0087234675359
 20
185.3281788708729
 30
0.0
 11
80.0087234675359
 21
165.3281788708729
 31
0.0
  0
INSERT
  5
C52A
330
C2E2
100
AcDbEntity
  8
AM_5
100
AcDbBlockReference
  2
_Dot
 10
80.0087234675359
 20
186.3281788708729
 30
0.0
 50
90.0
  0
INSERT
  5
C52B
330
C2E2
100
AcDbEntity
  8
AM_5
100
AcDbBlockReference
  2
_Dot
 10
80.0087234675359
 20
164.3281788708729
 30
0.0
 50
270.0
  0
MTEXT
  5
C52C
330
C2E2
100
AcDbEntity
  8
AM_5
 62
     2
100
AcDbMText
 10
76.90872346753588
 20
175.3281788708729
 30
0.0
 40
3.200000000000001
 41
0.0
 71
     5
 72
     1
  1
22
 11
0.0000000000000001
 21
1.0
 31
0.0
 73
     1
 44
1.0
1001
ACAD
1000
MTEXTBEGIN
1070
    73
1070
     1
1070
    44
1040
1.0
1070
    74
1070
     0
1000
MTEXTEND
  0
POINT
  5
C52D
330
C2E2
100
AcDbEntity
  8
Defpoints
 62
     0
100
AcDbPoint
 10
92.83712781163355
 20
186.3281788708729
 30
0.0
  0
POINT
  5
C52E
330
C2E2
100
AcDbEntity
  8
Defpoints
 62
     0
100
AcDbPoint
 10
92.83712781163357
 20
164.3281788708729
 30
0.0
  0
POINT
  5
C52F
330
C2E2
100
AcDbEntity
  8
Defpoints
 62
     0
100
AcDbPoint
 10
80.0087234675359
 20
164.3281788708729
 30
0.0
  0
ENDBLK
  5
C2ED
330
C2E2
100
AcDbEntity
  8
0
100
AcDbBlockEnd
  0
BLOCK
  5
C304
330
C2FA
100
AcDbEntity
  8
0
100
AcDbBlockBegin
  2
*D8
 70
     1
 10
0.0
 20
0.0
 30
0.0
  3
*D8
  1

  0
LINE
  5
C501
330
C2FA
100
AcDbEntity
  8
AM_5
100
AcDbLine
 10
175.0458678210491
 20
98.65999849800509
 30
0.0
 11
184.2384011384658
 21
106.3734498142569
 31
0.0
  0
LINE
  5
C502
330
C2FA
100
AcDbEntity
  8
AM_5
100
AcDbLine
 10
105.6574504038672
 20
178.8093732646131
 30
0.0
 11
116.1029157129807
 21
187.574159352991
 31
0.0
  0
LINE
  5
C503
330
C2FA
100
AcDbEntity
  8
AM_5
100
AcDbLine
 10
182.8295690856601
 20
106.4967066476873
 30
0.0
 11
115.9796588795503
 21
186.1653273001854
 31
0.0
  0
INSERT
  5
C504
330
C2FA
100
AcDbEntity
  8
AM_5
100
AcDbBlockReference
  2
_Dot
 10
183.4723566953478
 20
105.7306622045693
 30
0.0
 50
310.0000000000828
  0
INSERT
  5
C505
330
C2FA
100
AcDbEntity
  8
AM_5
100
AcDbBlockReference
  2
_Dot
 10
115.3368712698627
 20
186.9313717433034
 30
0.0
 50
130.0000000000827
  0
MTEXT
  5
C506
330
C2FA
100
AcDbEntity
  8
AM_5
 62
     2
100
AcDbMText
 10
151.7793517562712
 20
148.323658563968
 30
0.0
 40
3.200000000000001
 41
0.0
 71
     5
 72
     1
  1
106
 11
0.6427876096876457
 21
-0.7660444431180497
 31
0.0
 73
     1
 44
1.0
1001
ACAD
1000
MTEXTBEGIN
1070
    73
1070
     1
1070
    44
1040
1.0
1070
    74
1070
     0
1000
MTEXTEND
  0
POINT
  5
C507
330
C2FA
100
AcDbEntity
  8
Defpoints
 62
     0
100
AcDbPoint
 10
174.279823377931
 20
98.01721088831746
 30
0.0
  0
POINT
  5
C508
330
C2FA
100
AcDbEntity
  8
Defpoints
 62
     0
100
AcDbPoint
 10
104.8914059607491
 20
178.1665856549254
 30
0.0
  0
POINT
  5
C509
330
C2FA
100
AcDbEntity
  8
Defpoints
 62
     0
100
AcDbPoint
 10
115.3368712698627
 20
186.9313717433034
 30
0.0
  0
ENDBLK
  5
C305
330
C2FA
100
AcDbEntity
  8
0
100
AcDbBlockEnd
  0
BLOCK
  5
C311
330
C306
100
AcDbEntity
  8
0
100
AcDbBlockBegin
  2
*D9
 70
     1
 10
0.0
 20
0.0
 30
0.0
  3
*D9
  1

  0
LINE
  5
C542
330
C306
100
AcDbEntity
  8
AM_5
100
AcDbLine
 10
123.8545154232294
 20
138.9742283138384
 30
0.0
 11
125.9132508954615
 21
136.5207229185961
 31
0.0
  0
LINE
  5
C543
330
C306
100
AcDbEntity
  8
AM_5
100
AcDbLine
 10
139.1028757331241
 20
140.2484879689051
 30
0.0
 11
134.2032312150049
 21
146.0876569258285
 31
0.0
  0
LINE
  5
C544
330
C306
100
AcDbEntity
  8
AM_5
100
AcDbLine
 10
134.0799743815701
 20
144.6788248730232
 30
0.0
 11
126.0365077288964
 21
137.9295549714014
 31
0.0
  0
LINE
  5
C545
330
C306
100
AcDbEntity
  8
AM_5
100
AcDbLine
 10
125.2704632857763
 20
137.2867673617162
 30
0.0
 11
115.8760745985962
 21
129.4039392791947
 31
0.0
  0
INSERT
  5
C546
330
C306
100
AcDbEntity
  8
AM_5
100
AcDbBlockReference
  2
_Dot
 10
134.8460188246901
 20
145.3216124827084
 30
0.0
 50
39.99999999990201
  0
INSERT
  5
C547
330
C306
100
AcDbEntity
  8
AM_5
100
AcDbBlockReference
  2
_Dot
 10
125.2704632857763
 20
137.2867673617162
 30
0.0
 50
219.999999999902
  0
MTEXT
  5
C548
330
C306
100
AcDbEntity
  8
AM_5
 62
     2
100
AcDbMText
 10
117.5246975948694
 20
134.8340608242374
 30
0.0
 40
3.200000000000001
 41
0.0
 71
     5
 72
     1
  1
12.5
 11
0.7660444431200773
 21
0.6427876096852293
 31
0.0
 73
     1
 44
1.0
1001
ACAD
1000
MTEXTBEGIN
1070
    73
1070
     1
1070
    44
1040
1.0
1070
    74
1070
     0
1000
MTEXTEND
  0
POINT
  5
C549
330
C306
100
AcDbEntity
  8
Defpoints
 62
     0
100
AcDbPoint
 10
123.2117278135441
 20
139.7402727569585
 30
0.0
  0
POINT
  5
C54A
330
C306
100
AcDbEntity
  8
Defpoints
 62
     0
100
AcDbPoint
 10
139.7456633428094
 20
139.482443525785
 30
0.0
  0
POINT
  5
C54B
330
C306
100
AcDbEntity
  8
Defpoints
 62
     0
100
AcDbPoint
 10
134.8460188246901
 20
145.3216124827084
 30
0.0
  0
ENDBLK
  5
C312
330
C306
100
AcDbEntity
  8
0
100
AcDbBlockEnd
  0
BLOCK
  5
C31D
330
C313
100
AcDbEntity
  8
0
100
AcDbBlockBegin
  2
*D10
 70
     1
 10
0.0
 20
0.0
 30
0.0
  3
*D10
  1

  0
LINE
  5
C44D
330
C313
100
AcDbEntity
  8
AM_5
100
AcDbLine
 10
95.38366630022716
 20
93.12746933157491
 30
0.0
 11
95.38366630022716
 21
63.62746833157484
 31
0.0
  0
LINE
  5
C44E
330
C313
100
AcDbEntity
  8
AM_5
100
AcDbLine
 10
199.3836663002272
 20
93.12746933157491
 30
0.0
 11
199.3836663002272
 21
63.62746833157484
 31
0.0
  0
LINE
  5
C44F
330
C313
100
AcDbEntity
  8
AM_5
100
AcDbLine
 10
96.38366630022716
 20
64.62746833157485
 30
0.0
 11
198.3836663002272
 21
64.62746833157485
 31
0.0
  0
INSERT
  5
C450
330
C313
100
AcDbEntity
  8
AM_5
100
AcDbBlockReference
  2
_Dot
 10
95.38366630022716
 20
64.62746833157485
 30
0.0
 50
180.0
  0
INSERT
  5
C451
330
C313
100
AcDbEntity
  8
AM_5
100
AcDbBlockReference
  2
_Dot
 10
199.3836663002272
 20
64.62746833157485
 30
0.0
  0
MTEXT
  5
C452
330
C313
100
AcDbEntity
  8
AM_5
 62
     2
100
AcDbMText
 10
147.3836663002272
 20
67.72746833157484
 30
0.0
 40
3.200000000000001
 41
0.0
 71
     5
 72
     1
  1
104
 73
     1
 44
1.0
1001
ACAD
1000
MTEXTBEGIN
1070
    73
1070
     1
1070
    44
1040
1.0
1070
    74
1070
     0
1000
MTEXTEND
  0
POINT
  5
C453
330
C313
100
AcDbEntity
  8
Defpoints
 62
     0
100
AcDbPoint
 10
95.38366630022716
 20
94.12746933157491
 30
0.0
  0
POINT
  5
C454
330
C313
100
AcDbEntity
  8
Defpoints
 62
     0
100
AcDbPoint
 10
199.3836663002272
 20
94.12746933157491
 30
0.0
  0
POINT
  5
C455
330
C313
100
AcDbEntity
  8
Defpoints
 62
     0
100
AcDbPoint
 10
199.3836663002272
 20
64.62746833157485
 30
0.0
  0
ENDBLK
  5
C31E
330
C313
100
AcDbEntity
  8
0
100
AcDbBlockEnd
  0
BLOCK
  5
C329
330
C31F
100
AcDbEntity
  8
0
100
AcDbBlockBegin
  2
*D11
 70
     1
 10
0.0
 20
0.0
 30
0.0
  3
*D11
  1

  0
LINE
  5
C456
330
C31F
100
AcDbEntity
  8
AM_5
100
AcDbLine
 10
73.88366630022716
 20
87.90847418798625
 30
0.0
 11
73.88366630022716
 21
53.62746833157437
 31
0.0
  0
LINE
  5
C457
330
C31F
100
AcDbEntity
  8
AM_5
100
AcDbLine
 10
220.8836663002272
 20
88.04877196235464
 30
0.0
 11
220.8836663002272
 21
53.62746833157437
 31
0.0
  0
LINE
  5
C458
330
C31F
100
AcDbEntity
  8
AM_5
100
AcDbLine
 10
74.88366630022716
 20
54.62746833157438
 30
0.0
 11
219.8836663002272
 21
54.62746833157438
 31
0.0
  0
INSERT
  5
C459
330
C31F
100
AcDbEntity
  8
AM_5
100
AcDbBlockReference
  2
_Dot
 10
73.88366630022716
 20
54.62746833157438
 30
0.0
 50
180.0
  0
INSERT
  5
C45A
330
C31F
100
AcDbEntity
  8
AM_5
100
AcDbBlockReference
  2
_Dot
 10
220.8836663002272
 20
54.62746833157438
 30
0.0
  0
MTEXT
  5
C45B
330
C31F
100
AcDbEntity
  8
AM_5
 62
     2
100
AcDbMText
 10
147.3836663002272
 20
57.72746833157437
 30
0.0
 40
3.200000000000001
 41
0.0
 71
     5
 72
     1
  1
147
 73
     1
 44
1.0
1001
ACAD
1000
MTEXTBEGIN
1070
    73
1070
     1
1070
    44
1040
1.0
1070
    74
1070
     0
1000
MTEXTEND
  0
POINT
  5
C45C
330
C31F
100
AcDbEntity
  8
Defpoints
 62
     0
100
AcDbPoint
 10
73.88366630022716
 20
88.90847418798626
 30
0.0
  0
POINT
  5
C45D
330
C31F
100
AcDbEntity
  8
Defpoints
 62
     0
100
AcDbPoint
 10
220.8836663002272
 20
89.04877196235466
 30
0.0
  0
POINT
  5
C45E
330
C31F
100
AcDbEntity
  8
Defpoints
 62
     0
100
AcDbPoint
 10
220.8836663002272
 20
54.62746833157438
 30
0.0
  0
ENDBLK
  5
C32A
330
C31F
100
AcDbEntity
  8
0
100
AcDbBlockEnd
  0
BLOCK
  5
C335
330
C32B
100
AcDbEntity
  8
0
100
AcDbBlockBegin
  2
*D12
 70
     1
 10
0.0
 20
0.0
 30
0.0
  3
*D12
  1

  0
LINE
  5
C45F
330
C32B
100
AcDbEntity
  8
AM_5
100
AcDbLine
 10
69.38366630022716
 20
93.12746933157491
 30
0.0
 11
69.38366630022716
 21
43.62746833157386
 31
0.0
  0
LINE
  5
C460
330
C32B
100
AcDbEntity
  8
AM_5
100
AcDbLine
 10
225.3836663002272
 20
93.12746933157491
 30
0.0
 11
225.3836663002272
 21
43.62746833157386
 31
0.0
  0
LINE
  5
C461
330
C32B
100
AcDbEntity
  8
AM_5
100
AcDbLine
 10
70.38366630022716
 20
44.62746833157385
 30
0.0
 11
224.3836663002272
 21
44.62746833157385
 31
0.0
  0
INSERT
  5
C462
330
C32B
100
AcDbEntity
  8
AM_5
100
AcDbBlockReference
  2
_Dot
 10
69.38366630022716
 20
44.62746833157385
 30
0.0
 50
180.0
  0
INSERT
  5
C463
330
C32B
100
AcDbEntity
  8
AM_5
100
AcDbBlockReference
  2
_Dot
 10
225.3836663002272
 20
44.62746833157385
 30
0.0
  0
MTEXT
  5
C464
330
C32B
100
AcDbEntity
  8
AM_5
 62
     2
100
AcDbMText
 10
147.3836663002272
 20
47.72746833157386
 30
0.0
 40
3.200000000000001
 41
0.0
 71
     5
 72
     1
  1
156
 73
     1
 44
1.0
1001
ACAD
1000
MTEXTBEGIN
1070
    73
1070
     1
1070
    44
1040
1.0
1070
    74
1070
     0
1000
MTEXTEND
  0
POINT
  5
C465
330
C32B
100
AcDbEntity
  8
Defpoints
 62
     0
100
AcDbPoint
 10
69.38366630022716
 20
94.12746933157491
 30
0.0
  0
POINT
  5
C466
330
C32B
100
AcDbEntity
  8
Defpoints
 62
     0
100
AcDbPoint
 10
225.3836663002272
 20
94.12746933157491
 30
0.0
  0
POINT
  5
C467
330
C32B
100
AcDbEntity
  8
Defpoints
 62
     0
100
AcDbPoint
 10
225.3836663002272
 20
44.62746833157385
 30
0.0
  0
ENDBLK
  5
C336
330
C32B
100
AcDbEntity
  8
0
100
AcDbBlockEnd
  0
BLOCK
  5
C343
330
C337
100
AcDbEntity
  8
0
100
AcDbBlockBegin
  2
*D13
 70
     1
 10
0.0
 20
0.0
 30
0.0
  3
*D13
  1

  0
LINE
  5
C58A
330
C337
100
AcDbEntity
  8
AM_5
100
AcDbLine
 10
226.3836663002272
 20
24.50611571631229
 30
0.0
 11
238.3836663002272
 21
24.50611571631228
 31
0.0
  0
LINE
  5
C58B
330
C337
100
AcDbEntity
  8
AM_5
100
AcDbLine
 10
226.3836663002272
 20
26.50611571631233
 30
0.0
 11
238.3836663002272
 21
26.50611571631233
 31
0.0
  0
LINE
  5
C58C
330
C337
100
AcDbEntity
  8
AM_5
100
AcDbLine
 10
237.3836663002272
 20
23.50611571631228
 30
0.0
 11
237.3836663002272
 21
22.50611571631228
 31
0.0
  0
LINE
  5
C58D
330
C337
100
AcDbEntity
  8
AM_5
100
AcDbLine
 10
237.3836663002272
 20
27.50611571631233
 30
0.0
 11
237.3836663002272
 21
36.17957663254739
 31
0.0
  0
LINE
  5
C58E
330
C337
100
AcDbEntity
  8
AM_5
100
AcDbLine
 10
237.3836663002272
 20
24.50611571631228
 30
0.0
 11
237.3836663002272
 21
26.50611571631233
 31
0.0
  0
INSERT
  5
C58F
330
C337
100
AcDbEntity
  8
AM_5
100
AcDbBlockReference
  2
_Dot
 10
237.3836663002272
 20
24.50611571631228
 30
0.0
 50
90.0
  0
INSERT
  5
C590
330
C337
100
AcDbEntity
  8
AM_5
100
AcDbBlockReference
  2
_Dot
 10
237.3836663002272
 20
26.50611571631233
 30
0.0
 50
270.0
  0
MTEXT
  5
C591
330
C337
100
AcDbEntity
  8
AM_5
 62
     2
100
AcDbMText
 10
234.2836663002272
 20
33.93290996588075
 30
0.0
 40
3.200000000000001
 41
0.0
 71
     5
 72
     1
  1
2
 11
0.0000000000000001
 21
1.0
 31
0.0
 73
     1
 44
1.0
1001
ACAD
1000
MTEXTBEGIN
1070
    73
1070
     1
1070
    44
1040
1.0
1070
    74
1070
     0
1000
MTEXTEND
  0
POINT
  5
C592
330
C337
100
AcDbEntity
  8
Defpoints
 62
     0
100
AcDbPoint
 10
225.3836663002272
 20
24.50611571631229
 30
0.0
  0
POINT
  5
C593
330
C337
100
AcDbEntity
  8
Defpoints
 62
     0
100
AcDbPoint
 10
225.3836663002272
 20
26.50611571631233
 30
0.0
  0
POINT
  5
C594
330
C337
100
AcDbEntity
  8
Defpoints
 62
     0
100
AcDbPoint
 10
237.3836663002272
 20
26.50611571631233
 30
0.0
  0
ENDBLK
  5
C344
330
C337
100
AcDbEntity
  8
0
100
AcDbBlockEnd
  0
BLOCK
  5
C350
330
C345
100
AcDbEntity
  8
0
100
AcDbBlockBegin
  2
*D14
 70
     1
 10
0.0
 20
0.0
 30
0.0
  3
*D14
  1

  0
LINE
  5
C595
330
C345
100
AcDbEntity
  8
AM_5
100
AcDbLine
 10
226.3836663002272
 20
24.50611571631229
 30
0.0
 11
248.3836663002272
 21
24.50611571631228
 31
0.0
  0
LINE
  5
C596
330
C345
100
AcDbEntity
  8
AM_5
100
AcDbLine
 10
208.4694527382272
 20
30.50611571631233
 30
0.0
 11
248.3836663002272
 21
30.50611571631232
 31
0.0
  0
LINE
  5
C597
330
C345
100
AcDbEntity
  8
AM_5
100
AcDbLine
 10
247.3836663002272
 20
25.50611571631228
 30
0.0
 11
247.3836663002272
 21
29.50611571631232
 31
0.0
  0
LINE
  5
C598
330
C345
100
AcDbEntity
  8
AM_5
100
AcDbLine
 10
247.3836663002272
 20
30.50611571631232
 30
0.0
 11
247.3836663002272
 21
36.04279935474167
 31
0.0
  0
INSERT
  5
C599
330
C345
100
AcDbEntity
  8
AM_5
100
AcDbBlockReference
  2
_Dot
 10
247.3836663002272
 20
24.50611571631228
 30
0.0
 50
270.0
  0
INSERT
  5
C59A
330
C345
100
AcDbEntity
  8
AM_5
100
AcDbBlockReference
  2
_Dot
 10
247.3836663002272
 20
30.50611571631232
 30
0.0
 50
90.0
  0
MTEXT
  5
C59B
330
C345
100
AcDbEntity
  8
AM_5
 62
     2
100
AcDbMText
 10
244.2836663002272
 20
33.84946602140838
 30
0.0
 40
3.200000000000001
 41
0.0
 71
     5
 72
     1
  1
6
 11
0.0000000000000001
 21
1.0
 31
0.0
 73
     1
 44
1.0
1001
ACAD
1000
MTEXTBEGIN
1070
    73
1070
     1
1070
    44
1040
1.0
1070
    74
1070
     0
1000
MTEXTEND
  0
POINT
  5
C59C
330
C345
100
AcDbEntity
  8
Defpoints
 62
     0
100
AcDbPoint
 10
225.3836663002272
 20
24.50611571631229
 30
0.0
  0
POINT
  5
C59D
330
C345
100
AcDbEntity
  8
Defpoints
 62
     0
100
AcDbPoint
 10
207.4694527382273
 20
30.50611571631233
 30
0.0
  0
POINT
  5
C59E
330
C345
100
AcDbEntity
  8
Defpoints
 62
     0
100
AcDbPoint
 10
247.3836663002272
 20
30.50611571631232
 30
0.0
  0
ENDBLK
  5
C351
330
C345
100
AcDbEntity
  8
0
100
AcDbBlockEnd
  0
BLOCK
  5
C35C
330
C352
100
AcDbEntity
  8
0
100
AcDbBlockBegin
  2
*D15
 70
     1
 10
0.0
 20
0.0
 30
0.0
  3
*D15
  1

  0
LINE
  5
C47D
330
C352
100
AcDbEntity
  8
AM_5
100
AcDbLine
 10
199.3836663002272
 20
93.12746933157491
 30
0.0
 11
199.3836663002272
 21
73.62746833157444
 31
0.0
  0
LINE
  5
C47E
330
C352
100
AcDbEntity
  8
AM_5
100
AcDbLine
 10
192.3836663002272
 20
84.42095613357482
 30
0.0
 11
192.3836663002272
 21
73.62746833157444
 31
0.0
  0
LINE
  5
C47F
330
C352
100
AcDbEntity
  8
AM_5
100
AcDbLine
 10
198.3836663002272
 20
74.62746833157445
 30
0.0
 11
193.3836663002272
 21
74.62746833157445
 31
0.0
  0
INSERT
  5
C480
330
C352
100
AcDbEntity
  8
AM_5
100
AcDbBlockReference
  2
_Dot
 10
199.3836663002272
 20
74.62746833157445
 30
0.0
  0
INSERT
  5
C481
330
C352
100
AcDbEntity
  8
AM_5
100
AcDbBlockReference
  2
_Dot
 10
192.3836663002272
 20
74.62746833157445
 30
0.0
 50
180.0
  0
MTEXT
  5
C482
330
C352
100
AcDbEntity
  8
AM_5
 62
     2
100
AcDbMText
 10
195.8836663002272
 20
77.72746833157444
 30
0.0
 40
3.200000000000001
 41
0.0
 71
     5
 72
     1
  1
7
 73
     1
 44
1.0
1001
ACAD
1000
MTEXTBEGIN
1070
    73
1070
     1
1070
    44
1040
1.0
1070
    74
1070
     0
1000
MTEXTEND
  0
POINT
  5
C483
330
C352
100
AcDbEntity
  8
Defpoints
 62
     0
100
AcDbPoint
 10
199.3836663002272
 20
94.12746933157491
 30
0.0
  0
POINT
  5
C484
330
C352
100
AcDbEntity
  8
Defpoints
 62
     0
100
AcDbPoint
 10
192.3836663002272
 20
85.42095613357481
 30
0.0
  0
POINT
  5
C485
330
C352
100
AcDbEntity
  8
Defpoints
 62
     0
100
AcDbPoint
 10
192.3836663002272
 20
74.62746833157445
 30
0.0
  0
ENDBLK
  5
C35D
330
C352
100
AcDbEntity
  8
0
100
AcDbBlockEnd
  0
BLOCK
  5
C36A
330
C35E
100
AcDbEntity
  8
0
100
AcDbBlockBegin
  2
*D16
 70
     1
 10
0.0
 20
0.0
 30
0.0
  3
*D16
  1

  0
LINE
  5
C486
330
C35E
100
AcDbEntity
  8
AM_5
100
AcDbLine
 10
138.2818872942272
 20
96.12746933157492
 30
0.0
 11
123.9257568562689
 21
96.12746933157492
 31
0.0
  0
LINE
  5
C487
330
C35E
100
AcDbEntity
  8
AM_5
100
AcDbLine
 10
138.2818872942272
 20
92.12746933157491
 30
0.0
 11
123.9257568562689
 21
92.12746933157491
 31
0.0
  0
LINE
  5
C488
330
C35E
100
AcDbEntity
  8
AM_5
100
AcDbLine
 10
124.9257568562689
 20
91.12746933157492
 30
0.0
 11
124.9257568562689
 21
90.12746933157492
 31
0.0
  0
LINE
  5
C489
330
C35E
100
AcDbEntity
  8
AM_5
100
AcDbLine
 10
124.9257568562689
 20
97.12746933157491
 30
0.0
 11
124.9257568562689
 21
109.2226658704326
 31
0.0
  0
LINE
  5
C48A
330
C35E
100
AcDbEntity
  8
AM_5
100
AcDbLine
 10
124.9257568562689
 20
92.12746933157491
 30
0.0
 11
124.9257568562689
 21
96.12746933157492
 31
0.0
  0
INSERT
  5
C48B
330
C35E
100
AcDbEntity
  8
AM_5
100
AcDbBlockReference
  2
_Dot
 10
124.9257568562689
 20
92.12746933157491
 30
0.0
 50
90.0
  0
INSERT
  5
C48C
330
C35E
100
AcDbEntity
  8
AM_5
100
AcDbBlockReference
  2
_Dot
 10
124.9257568562689
 20
96.12746933157492
 30
0.0
 50
270.0
  0
MTEXT
  5
C48D
330
C35E
100
AcDbEntity
  8
AM_5
 62
     2
100
AcDbMText
 10
121.8257568562689
 20
106.9226658704326
 30
0.0
 40
3.200000000000001
 41
0.0
 71
     5
 72
     1
  1
4
 11
0.0000000000000001
 21
1.0
 31
0.0
 73
     1
 44
1.0
1001
ACAD
1000
MTEXTBEGIN
1070
    73
1070
     1
1070
    44
1040
1.0
1070
    74
1070
     0
1000
MTEXTEND
  0
POINT
  5
C48E
330
C35E
100
AcDbEntity
  8
Defpoints
 62
     0
100
AcDbPoint
 10
139.2818872942272
 20
96.12746933157492
 30
0.0
  0
POINT
  5
C48F
330
C35E
100
AcDbEntity
  8
Defpoints
 62
     0
100
AcDbPoint
 10
139.2818872942272
 20
92.12746933157491
 30
0.0
  0
POINT
  5
C490
330
C35E
100
AcDbEntity
  8
Defpoints
 62
     0
100
AcDbPoint
 10
124.9257568562689
 20
92.12746933157491
 30
0.0
  0
ENDBLK
  5
C36B
330
C35E
100
AcDbEntity
  8
0
100
AcDbBlockEnd
  0
BLOCK
  5
C377
330
C36C
100
AcDbEntity
  8
0
100
AcDbBlockBegin
  2
*D17
 70
     1
 10
0.0
 20
0.0
 30
0.0
  3
*D17
  1

  0
LINE
  5
C491
330
C36C
100
AcDbEntity
  8
AM_5
100
AcDbLine
 10
146.3836663002272
 20
86.62746933157491
 30
0.0
 11
113.6703475359345
 21
86.62746933157491
 31
0.0
  0
LINE
  5
C492
330
C36C
100
AcDbEntity
  8
AM_5
100
AcDbLine
 10
146.3836663002272
 20
101.6274693315749
 30
0.0
 11
113.6703475359345
 21
101.6274693315749
 31
0.0
  0
LINE
  5
C493
330
C36C
100
AcDbEntity
  8
AM_5
100
AcDbLine
 10
114.6703475359345
 20
87.62746933157492
 30
0.0
 11
114.6703475359345
 21
100.6274693315749
 31
0.0
  0
LINE
  5
C494
330
C36C
100
AcDbEntity
  8
AM_5
100
AcDbLine
 10
114.6703475359345
 20
101.6274693315749
 30
0.0
 11
114.6703475359345
 21
110.1508412023965
 31
0.0
  0
INSERT
  5
C495
330
C36C
100
AcDbEntity
  8
AM_5
100
AcDbBlockReference
  2
_Dot
 10
114.6703475359345
 20
86.62746933157491
 30
0.0
 50
270.0
  0
INSERT
  5
C496
330
C36C
100
AcDbEntity
  8
AM_5
100
AcDbBlockReference
  2
_Dot
 10
114.6703475359345
 20
101.6274693315749
 30
0.0
 50
90.0
  0
MTEXT
  5
C497
330
C36C
100
AcDbEntity
  8
AM_5
 62
     2
100
AcDbMText
 10
111.5703475359345
 20
106.9975078690631
 30
0.0
 40
3.200000000000001
 41
0.0
 71
     5
 72
     1
  1
15
 11
0.0000000000000001
 21
1.0
 31
0.0
 73
     1
 44
1.0
1001
ACAD
1000
MTEXTBEGIN
1070
    73
1070
     1
1070
    44
1040
1.0
1070
    74
1070
     0
1000
MTEXTEND
  0
POINT
  5
C498
330
C36C
100
AcDbEntity
  8
Defpoints
 62
     0
100
AcDbPoint
 10
147.3836663002272
 20
86.62746933157491
 30
0.0
  0
POINT
  5
C499
330
C36C
100
AcDbEntity
  8
Defpoints
 62
     0
100
AcDbPoint
 10
147.3836663002272
 20
101.6274693315749
 30
0.0
  0
POINT
  5
C49A
330
C36C
100
AcDbEntity
  8
Defpoints
 62
     0
100
AcDbPoint
 10
114.6703475359345
 20
101.6274693315749
 30
0.0
  0
ENDBLK
  5
C378
330
C36C
100
AcDbEntity
  8
0
100
AcDbBlockEnd
  0
BLOCK
  5
C383
330
C379
100
AcDbEntity
  8
0
100
AcDbBlockBegin
  2
*D18
 70
     1
 10
0.0
 20
0.0
 30
0.0
  3
*D18
  1

  0
LINE
  5
C659
330
C379
100
AcDbEntity
  8
AM_5
100
AcDbLine
 10
53.83853656102505
 20
105.5856922520766
 30
0.0
 11
69.37353656102517
 21
105.5856922520766
 31
0.0
  0
LINE
  5
C65A
330
C379
100
AcDbEntity
  8
AM_5
100
AcDbLine
 10
69.37353656102517
 20
105.5856922520766
 30
0.0
 11
72.51017894127627
 21
97.61688654291575
 31
0.0
  0
LINE
  5
C65B
330
C379
100
AcDbEntity
  8
AM_5
100
AcDbLine
 10
75.25715365917831
 20
90.63805212023405
 30
0.0
 11
75.98968025061887
 21
88.77702960751895
 31
0.0
  0
MTEXT
  5
C65C
330
C379
100
AcDbEntity
  8
AM_5
 62
     2
100
AcDbMText
 10
60.1968698943584
 20
108.8356922520766
 30
0.0
 40
3.5
 41
0.0
 71
     5
 72
     1
  1
2-\U+22053.5
 73
     1
 44
1.0
1001
ACAD
1000
MTEXTBEGIN
1070
    73
1070
     1
1070
    44
1040
1.0
1070
    74
1070
     0
1000
MTEXTEND
  0
LINE
  5
C65D
330
C379
100
AcDbEntity
  8
AM_5
100
AcDbLine
 10
74.52462706773776
 20
92.49907463294917
 30
0.0
 11
73.24270553271681
 21
95.75586403020063
 31
0.0
  0
INSERT
  5
C65E
330
C379
100
AcDbEntity
  8
AM_5
100
AcDbBlockReference
  2
GENDOT
 10
74.52462706773776
 20
92.49907463294917
 30
0.0
 41
2.0
 42
2.0
 43
2.0
 50
111.4853487762742
  0
INSERT
  5
C65F
330
C379
100
AcDbEntity
  8
AM_5
100
AcDbBlockReference
  2
GENDOT
 10
73.24270553271681
 20
95.75586403020063
 30
0.0
 41
2.0
 42
2.0
 43
2.0
 50
291.4853487762743
  0
POINT
  5
C660
330
C379
100
AcDbEntity
  8
Defpoints
 62
     0
100
AcDbPoint
 10
73.24270553271681
 20
95.75586403020063
 30
0.0
  0
POINT
  5
C661
330
C379
100
AcDbEntity
  8
Defpoints
 62
     0
100
AcDbPoint
 10
74.52462706773776
 20
92.49907463294917
 30
0.0
  0
ENDBLK
  5
C384
330
C379
100
AcDbEntity
  8
0
100
AcDbBlockEnd
  0
BLOCK
  5
C38F
330
C385
100
AcDbEntity
  8
0
100
AcDbBlockBegin
  2
*D19
 70
     1
 10
0.0
 20
0.0
 30
0.0
  3
*D19
  1

  0
LINE
  5
C562
330
C385
100
AcDbEntity
  8
AM_5
100
AcDbLine
 10
92.00872447753594
 20
163.3281788708729
 30
0.0
 11
92.00872447753594
 21
144.6397230200592
 31
0.0
  0
LINE
  5
C563
330
C385
100
AcDbEntity
  8
AM_5
100
AcDbLine
 10
104.5087244775359
 20
161.0296441750881
 30
0.0
 11
104.5087244775359
 21
144.6397230200592
 31
0.0
  0
LINE
  5
C564
330
C385
100
AcDbEntity
  8
AM_5
100
AcDbLine
 10
93.00872447753594
 20
145.6397230200592
 30
0.0
 11
103.5087244775359
 21
145.6397230200592
 31
0.0
  0
INSERT
  5
C565
330
C385
100
AcDbEntity
  8
AM_5
100
AcDbBlockReference
  2
_Dot
 10
92.00872447753594
 20
145.6397230200592
 30
0.0
 50
180.0
  0
INSERT
  5
C566
330
C385
100
AcDbEntity
  8
AM_5
100
AcDbBlockReference
  2
_Dot
 10
104.5087244775359
 20
145.6397230200592
 30
0.0
  0
MTEXT
  5
C567
330
C385
100
AcDbEntity
  8
AM_5
 62
     2
100
AcDbMText
 10
98.25872447753594
 20
148.7397230200592
 30
0.0
 40
3.200000000000001
 41
0.0
 71
     5
 72
     1
  1
12.5
 73
     1
 44
1.0
1001
ACAD
1000
MTEXTBEGIN
1070
    73
1070
     1
1070
    44
1040
1.0
1070
    74
1070
     0
1000
MTEXTEND
  0
POINT
  5
C568
330
C385
100
AcDbEntity
  8
Defpoints
 62
     0
100
AcDbPoint
 10
92.00872447753594
 20
164.3281788708729
 30
0.0
  0
POINT
  5
C569
330
C385
100
AcDbEntity
  8
Defpoints
 62
     0
100
AcDbPoint
 10
104.5087244775359
 20
162.0296441750881
 30
0.0
  0
POINT
  5
C56A
330
C385
100
AcDbEntity
  8
Defpoints
 62
     0
100
AcDbPoint
 10
104.5087244775359
 20
145.6397230200592
 30
0.0
  0
ENDBLK
  5
C390
330
C385
100
AcDbEntity
  8
0
100
AcDbBlockEnd
  0
BLOCK
  5
C5FE
330
C5F5
100
AcDbEntity
  8
0
100
AcDbBlockBegin
  2
*D20
 70
     1
 10
0.0
 20
0.0
 30
0.0
  3
*D20
  1

  0
LINE
  5
C691
330
C5F5
100
AcDbEntity
  8
AM_5
100
AcDbLine
 10
62.00624714096148
 20
145.6481945406802
 30
0.0
 11
85.46291380762815
 21
145.6481945406802
 31
0.0
  0
LINE
  5
C692
330
C5F5
100
AcDbEntity
  8
AM_5
100
AcDbLine
 10
85.46291380762815
 20
145.6481945406802
 30
0.0
 11
95.15051986471746
 21
159.7906614786357
 31
0.0
  0
LINE
  5
C693
330
C5F5
100
AcDbEntity
  8
AM_5
100
AcDbLine
 10
101.3669290903542
 20
168.8656962631099
 30
0.0
 11
102.4971853131973
 21
170.5157025875598
 31
0.0
  0
MTEXT
  5
C694
330
C5F5
100
AcDbEntity
  8
AM_5
 62
     2
100
AcDbMText
 10
72.9845804742948
 20
148.8981945406802
 30
0.0
 40
3.5
 41
0.0
 71
     5
 72
     1
  1
2-%%c4×\U+22057サラ
 73
     1
 44
1.0
1001
ACAD
1000
MTEXTBEGIN
1070
    73
1070
     1
1070
    44
1040
1.0
1070
    74
1070
     0
1000
MTEXTEND
  0
LINE
  5
C695
330
C5F5
100
AcDbEntity
  8
AM_5
100
AcDbLine
 10
100.2366728675112
 20
167.21568993866
 30
0.0
 11
96.28077608756052
 21
161.4406678030855
 31
0.0
  0
INSERT
  5
C696
330
C5F5
100
AcDbEntity
  8
AM_5
100
AcDbBlockReference
  2
GENDOT
 10
100.2366728675112
 20
167.21568993866
 30
0.0
 41
2.0
 42
2.0
 43
2.0
 50
235.588811932584
  0
INSERT
  5
C697
330
C5F5
100
AcDbEntity
  8
AM_5
100
AcDbBlockReference
  2
GENDOT
 10
96.28077608756052
 20
161.4406678030855
 30
0.0
 41
2.0
 42
2.0
 43
2.0
 50
55.58881193258403
  0
POINT
  5
C698
330
C5F5
100
AcDbEntity
  8
Defpoints
 62
     0
100
AcDbPoint
 10
96.28077608756052
 20
161.4406678030855
 30
0.0
  0
POINT
  5
C699
330
C5F5
100
AcDbEntity
  8
Defpoints
 62
     0
100
AcDbPoint
 10
100.2366728675112
 20
167.21568993866
 30
0.0
  0
ENDBLK
  5
C5FF
330
C5F5
100
AcDbEntity
  8
0
100
AcDbBlockEnd
  0
ENDSEC
  0
SECTION
  2
ENTITIES
  0
LINE
  5
B536
330
1F
100
AcDbEntity
  8
size
100
AcDbLine
 10
0.0000002820350623
 20
210.0000000504798
 30
0.0
 11
297.000000282035
 21
210.0000000504798
 31
0.0
1001
GENIUS_GENREC_14
1002
{
1000
PYDIR
1011
0.0000002820350765
1021
297.0000000504797
1031
0.0
1002
}
1002
{
1000
PXDIR
1011
420.000000282035
1021
0.0000000504797413
1031
0.0
1002
}
1002
{
1000
PORI
1011
0.0000002820350623
1021
0.0000000504797413
1031
0.0
1002
}
1002
{
1000
PINS
1011
210.0000002820351
1021
148.5000000504797
1031
0.0
1002
}
1002
{
1000
HVAL
1000
297
1002
}
1002
{
1000
H
1070
     2
1002
}
1002
{
1000
WVAL
1000
420
1002
}
1002
{
1000
W
1070
     2
1002
}
1002
{
1000
C
1070
     4
1002
}
1001
GENIUS_GENOBJ-N-REC_13
1002
{
1000
OWNER
1000
GEN
1002
}
1001
GENIUS_GENODEF_13
1002
{
1000
HIER
1070
     0
1002
}
1002
{
1000
MANEDIT
1070
     0
1002
}
1002
{
1000
NOSEL
1070
     0
1002
}
1002
{
1000
BEHIND
1070
     0
1002
}
1002
{
1000
OTHER
1070
     0
1002
}
1002
{
1000
REACTOR
1002
}
  0
LINE
  5
B537
330
1F
100
AcDbEntity
  8
size
100
AcDbLine
 10
297.000000282035
 20
210.0000000504798
 30
0.0
 11
297.000000282035
 21
0.0000000504797129
 31
0.0
1001
GENIUS_GENREC_14
1002
{
1000
PYDIR
1011
0.0000002820350765
1021
297.0000000504797
1031
0.0
1002
}
1002
{
1000
PXDIR
1011
420.000000282035
1021
0.0000000504797413
1031
0.0
1002
}
1002
{
1000
PORI
1011
0.0000002820350623
1021
0.0000000504797413
1031
0.0
1002
}
1002
{
1000
PINS
1011
210.0000002820351
1021
148.5000000504797
1031
0.0
1002
}
1002
{
1000
HVAL
1000
297
1002
}
1002
{
1000
H
1070
     2
1002
}
1002
{
1000
WVAL
1000
420
1002
}
1002
{
1000
W
1070
     2
1002
}
1002
{
1000
C
1070
     4
1002
}
1001
GENIUS_GENOBJ-N-REC_13
1002
{
1000
OWNER
1000
GEN
1002
}
1001
GENIUS_GENODEF_13
1002
{
1000
HIER
1070
     0
1002
}
1002
{
1000
MANEDIT
1070
     0
1002
}
1002
{
1000
NOSEL
1070
     0
1002
}
1002
{
1000
BEHIND
1070
     0
1002
}
1002
{
1000
OTHER
1070
     0
1002
}
1002
{
1000
REACTOR
1002
}
  0
LINE
  5
B538
330
1F
100
AcDbEntity
  8
waku
100
AcDbLine
 10
11.50000028203506
 20
8.500000050479741
 30
0.0
 11
285.500000282035
 21
8.500000050479741
 31
0.0
1001
GENIUS_GENREC_14
1002
{
1000
PYDIR
1011
0.0000002820350765
1021
297.0000000504797
1031
0.0
1002
}
1002
{
1000
PXDIR
1011
420.000000282035
1021
0.0000000504797413
1031
0.0
1002
}
1002
{
1000
PORI
1011
0.0000002820350623
1021
0.0000000504797413
1031
0.0
1002
}
1002
{
1000
PINS
1011
210.0000002820351
1021
148.5000000504797
1031
0.0
1002
}
1002
{
1000
HVAL
1000
297
1002
}
1002
{
1000
H
1070
     2
1002
}
1002
{
1000
WVAL
1000
420
1002
}
1002
{
1000
W
1070
     2
1002
}
1002
{
1000
C
1070
     4
1002
}
  0
LINE
  5
B539
330
1F
100
AcDbEntity
  8
waku
100
AcDbLine
 10
285.500000282035
 20
201.5000000504798
 30
0.0
 11
11.50000028203506
 21
201.5000000504798
 31
0.0
1001
GENIUS_GENREC_14
1002
{
1000
PYDIR
1011
-122.9999997179649
1021
210.0000000504798
1031
0.0
1002
}
1002
{
1000
PXDIR
1011
297.000000282035
1021
-86.99999994952026
1031
0.0
1002
}
1002
{
1000
PORI
1011
-122.9999997179649
1021
-86.99999994952026
1031
0.0
1002
}
1002
{
1000
PINS
1011
87.00000028203509
1021
61.50000005047971
1031
0.0
1002
}
1002
{
1000
HVAL
1000
297
1002
}
1002
{
1000
H
1070
     2
1002
}
1002
{
1000
WVAL
1000
420
1002
}
1002
{
1000
W
1070
     2
1002
}
1002
{
1000
C
1070
     4
1002
}
1001
GENIUS_GENOBJ-N-REC_13
1002
{
1000
OWNER
1000
GEN
1002
}
1001
GENIUS_GENODEF_13
1002
{
1000
HIER
1070
     0
1002
}
1002
{
1000
MANEDIT
1070
     0
1002
}
1002
{
1000
NOSEL
1070
     0
1002
}
1002
{
1000
BEHIND
1070
     0
1002
}
1002
{
1000
OTHER
1070
     0
1002
}
1002
{
1000
REACTOR
1002
}
  0
LINE
  5
B53A
330
1F
100
AcDbEntity
  8
waku
100
AcDbLine
 10
11.50000028203508
 20
201.5000000504798
 30
0.0
 11
11.50000028203506
 21
8.500000050479741
 31
0.0
1001
GENIUS_GENREC_14
1002
{
1000
PYDIR
1011
0.0000002820350765
1021
297.0000000504797
1031
0.0
1002
}
1002
{
1000
PXDIR
1011
420.000000282035
1021
0.0000000504797413
1031
0.0
1002
}
1002
{
1000
PORI
1011
0.0000002820350623
1021
0.0000000504797413
1031
0.0
1002
}
1002
{
1000
PINS
1011
210.0000002820351
1021
148.5000000504797
1031
0.0
1002
}
1002
{
1000
HVAL
1000
297
1002
}
1002
{
1000
H
1070
     2
1002
}
1002
{
1000
WVAL
1000
420
1002
}
1002
{
1000
W
1070
     2
1002
}
1002
{
1000
C
1070
     4
1002
}
1001
GENIUS_GENOBJ-N-REC_13
1002
{
1000
OWNER
1000
GEN
1002
}
1001
GENIUS_GENODEF_13
1002
{
1000
HIER
1070
     0
1002
}
1002
{
1000
MANEDIT
1070
     0
1002
}
1002
{
1000
NOSEL
1070
     0
1002
}
1002
{
1000
BEHIND
1070
     0
1002
}
1002
{
1000
OTHER
1070
     0
1002
}
1002
{
1000
REACTOR
1002
}
  0
LINE
  5
B53B
330
1F
100
AcDbEntity
  8
waku
100
AcDbLine
 10
285.500000282035
 20
8.500000050479741
 30
0.0
 11
285.500000282035
 21
201.5000000504798
 31
0.0
1001
GENIUS_GENREC_14
1002
{
1000
PYDIR
1011
-122.9999997179649
1021
216.0000000504798
1031
0.0
1002
}
1002
{
1000
PXDIR
1011
297.000000282035
1021
-80.99999994952026
1031
0.0
1002
}
1002
{
1000
PORI
1011
-122.9999997179649
1021
-80.99999994952026
1031
0.0
1002
}
1002
{
1000
PINS
1011
87.00000028203509
1021
67.50000005047971
1031
0.0
1002
}
1002
{
1000
HVAL
1000
297
1002
}
1002
{
1000
H
1070
     2
1002
}
1002
{
1000
WVAL
1000
420
1002
}
1002
{
1000
W
1070
     2
1002
}
1002
{
1000
C
1070
     4
1002
}
1001
GENIUS_GENOBJ-N-REC_13
1002
{
1000
OWNER
1000
GEN
1002
}
1001
GENIUS_GENODEF_13
1002
{
1000
HIER
1070
     0
1002
}
1002
{
1000
MANEDIT
1070
     0
1002
}
1002
{
1000
NOSEL
1070
     0
1002
}
1002
{
1000
BEHIND
1070
     0
1002
}
1002
{
1000
OTHER
1070
     0
1002
}
1002
{
1000
REACTOR
1002
}
  0
LINE
  5
B53C
330
1F
100
AcDbEntity
  8
size
100
AcDbLine
 10
0.0000002820350836
 20
210.0000000504798
 30
0.0
 11
0.0000002820350623
 21
0.0000000504797413
 31
0.0
1001
GENIUS_GENREC_14
1002
{
1000
PYDIR
1011
0.0000002820350765
1021
297.0000000504797
1031
0.0
1002
}
1002
{
1000
PXDIR
1011
420.000000282035
1021
0.0000000504797413
1031
0.0
1002
}
1002
{
1000
PORI
1011
0.0000002820350623
1021
0.0000000504797413
1031
0.0
1002
}
1002
{
1000
PINS
1011
210.0000002820351
1021
148.5000000504797
1031
0.0
1002
}
1002
{
1000
HVAL
1000
297
1002
}
1002
{
1000
H
1070
     2
1002
}
1002
{
1000
WVAL
1000
420
1002
}
1002
{
1000
W
1070
     2
1002
}
1002
{
1000
C
1070
     4
1002
}
1001
GENIUS_GENOBJ-N-REC_13
1002
{
1000
OWNER
1000
GEN
1002
}
1001
GENIUS_GENODEF_13
1002
{
1000
HIER
1070
     0
1002
}
1002
{
1000
MANEDIT
1070
     0
1002
}
1002
{
1000
NOSEL
1070
     0
1002
}
1002
{
1000
BEHIND
1070
     0
1002
}
1002
{
1000
OTHER
1070
     0
1002
}
1002
{
1000
REACTOR
1002
}
  0
LINE
  5
B53D
330
1F
100
AcDbEntity
  8
size
100
AcDbLine
 10
0.0000002820350623
 20
0.0000000504797413
 30
0.0
 11
297.000000282035
 21
0.0000000504797413
 31
0.0
1001
GENIUS_GENREC_14
1002
{
1000
PYDIR
1011
0.0000002820350765
1021
297.0000000504797
1031
0.0
1002
}
1002
{
1000
PXDIR
1011
420.000000282035
1021
0.0000000504797413
1031
0.0
1002
}
1002
{
1000
PORI
1011
0.0000002820350623
1021
0.0000000504797413
1031
0.0
1002
}
1002
{
1000
PINS
1011
210.0000002820351
1021
148.5000000504797
1031
0.0
1002
}
1002
{
1000
HVAL
1000
297
1002
}
1002
{
1000
H
1070
     2
1002
}
1002
{
1000
WVAL
1000
420
1002
}
1002
{
1000
W
1070
     2
1002
}
1002
{
1000
C
1070
     4
1002
}
1001
GENIUS_GENOBJ-N-REC_13
1002
{
1000
OWNER
1000
GEN
1002
}
1001
GENIUS_GENODEF_13
1002
{
1000
HIER
1070
     0
1002
}
1002
{
1000
MANEDIT
1070
     0
1002
}
1002
{
1000
NOSEL
1070
     0
1002
}
1002
{
1000
BEHIND
1070
     0
1002
}
1002
{
1000
OTHER
1070
     0
1002
}
1002
{
1000
REACTOR
1002
}
  0
LINE
  5
B6A2
330
1F
100
AcDbEntity
  8
AM_0
100
AcDbLine
 10
195.500000282035
 20
201.5000000504798
 30
0.0
 11
285.500000282035
 21
201.5000000504798
 31
0.0
  0
LINE
  5
B6A3
330
1F
100
AcDbEntity
  8
AM_0
100
AcDbLine
 10
195.500000282035
 20
153.5000000504798
 30
0.0
 11
285.5000002820351
 21
153.5000000504797
 31
0.0
  0
LINE
  5
B6A4
330
1F
100
AcDbEntity
  8
AM_2
100
AcDbLine
 10
195.500000282035
 20
177.5000000504797
 30
0.0
 11
285.5000002820351
 21
177.5000000504797
 31
0.0
  0
LINE
  5
B6A5
330
1F
100
AcDbEntity
  8
AM_2
100
AcDbLine
 10
195.500000282035
 20
185.5000000504797
 30
0.0
 11
285.5000002820351
 21
185.5000000504797
 31
0.0
  0
LINE
  5
B6A6
330
1F
100
AcDbEntity
  8
AM_2
100
AcDbLine
 10
195.500000282035
 20
193.5000000504797
 30
0.0
 11
285.5000002820351
 21
193.5000000504797
 31
0.0
  0
LINE
  5
B6A7
330
1F
100
AcDbEntity
  8
AM_2
100
AcDbLine
 10
215.500000282035
 20
201.5000000504798
 30
0.0
 11
215.5000002820351
 21
153.5000000504798
 31
0.0
  0
MTEXT
  5
B6A8
330
1F
100
AcDbEntity
  8
AM_6
100
AcDbMText
 10
205.5000002820351
 20
173.5000000504797
 30
0.0
 40
3.2
 41
20.0
 71
     5
 72
     5
  1
仕上げ
 73
     1
 44
1.0
1001
ACAD
1000
MTEXTBEGIN
1070
    73
1070
     1
1070
    44
1040
1.0
1070
    74
1070
     0
1000
MTEXTEND
  0
MTEXT
  5
B6A9
330
1F
100
AcDbEntity
  8
AM_6
100
AcDbMText
 10
205.5000002820351
 20
181.5000000504797
 30
0.0
 40
3.2
 41
20.0
 71
     5
 72
     5
  1
材　質
 73
     1
 44
1.0
1001
ACAD
1000
MTEXTBEGIN
1070
    73
1070
     1
1070
    44
1040
1.0
1070
    74
1070
     0
1000
MTEXTEND
  0
MTEXT
  5
B6AA
330
1F
100
AcDbEntity
  8
AM_6
100
AcDbMText
 10
205.500000282035
 20
197.5000000504797
 30
0.0
 40
3.2
 41
20.0
 71
     5
 72
     5
  1
品　名
 73
     1
 44
1.0
1001
ACAD
1000
MTEXTBEGIN
1070
    73
1070
     1
1070
    44
1040
1.0
1070
    74
1070
     0
1000
MTEXTEND
  0
MTEXT
  5
B6AB
330
1F
100
AcDbEntity
  8
AM_6
100
AcDbMText
 10
215.5000002820351
 20
173.5000000504797
 30
0.0
 40
3.2
 41
90.0
 71
     4
 72
     5
  1
　ニッケルメッキ
 73
     1
 44
1.0
1001
ACAD
1000
MTEXTBEGIN
1070
    73
1070
     1
1070
    44
1040
1.0
1070
    74
1070
     0
1000
MTEXTEND
  0
MTEXT
  5
B6AC
330
1F
100
AcDbEntity
  8
AM_6
100
AcDbMText
 10
215.5000002820351
 20
181.5000000504797
 30
0.0
 40
3.2
 41
90.0
 71
     4
 72
     5
  1
　スチール
 73
     1
 44
1.0
1001
ACAD
1000
MTEXTBEGIN
1070
    73
1070
     1
1070
    44
1040
1.0
1070
    74
1070
     0
1000
MTEXTEND
  0
MTEXT
  5
B6AD
330
1F
100
AcDbEntity
  8
AM_6
100
AcDbMText
 10
215.500000282035
 20
197.5000000504797
 30
0.0
 40
3.2
 41
90.0
 71
     4
 72
     5
  1
　天蓋用スライドステー
 73
     1
 44
1.0
1001
ACAD
1000
MTEXTBEGIN
1070
    73
1070
     1
1070
    44
1040
1.0
1070
    74
1070
     0
1000
MTEXTEND
  0
LINE
  5
B6AE
330
1F
100
AcDbEntity
  8
AM_0
100
AcDbLine
 10
195.500000282035
 20
201.5000000504798
 30
0.0
 11
195.500000282035
 21
153.5000000504798
 31
0.0
  0
LINE
  5
B6AF
330
1F
100
AcDbEntity
  8
AM_2
100
AcDbLine
 10
195.500000282035
 20
169.5000000504798
 30
0.0
 11
285.5000002820351
 21
169.5000000504797
 31
0.0
  0
MTEXT
  5
B6B0
330
1F
100
AcDbEntity
  8
AM_6
100
AcDbMText
 10
205.5000002820351
 20
157.5000000504798
 30
0.0
 40
3.2
 41
20.00000000000001
 71
     5
 72
     5
  1
備　考
 73
     1
 44
1.0
1001
ACAD
1000
MTEXTBEGIN
1070
    73
1070
     1
1070
    44
1040
1.0
1070
    74
1070
     0
1000
MTEXTEND
1000
ACAD_MTEXT_DEFINED_HEIGHT_BEGIN
1070
    46
1040
7.999999999999982
1000
ACAD_MTEXT_DEFINED_HEIGHT_END
  0
MTEXT
  5
B6B1
330
1F
100
AcDbEntity
  8
AM_6
100
AcDbMText
 10
205.5000002820351
 20
189.5000000504797
 30
0.0
 40
3.2
 41
20.0
 71
     5
 72
     5
  1
品　番
 73
     1
 44
1.0
1001
ACAD
1000
MTEXTBEGIN
1070
    73
1070
     1
1070
    44
1040
1.0
1070
    74
1070
     0
1000
MTEXTEND
  0
MTEXT
  5
B6B2
330
1F
100
AcDbEntity
  8
AM_6
100
AcDbMText
 10
215.5000002820351
 20
189.5000000504797
 30
0.0
 40
3.2
 41
90.0
 71
     4
 72
     5
  1
　EDS-52-「 」
 73
     1
 44
1.0
1001
ACAD
1000
MTEXTBEGIN
1070
    73
1070
     1
1070
    44
1040
1.0
1070
    74
1070
     0
1000
MTEXTEND
  0
MTEXT
  5
B865
330
1F
100
AcDbEntity
  8
AM_6
100
AcDbMText
 10
215.5000002820351
 20
165.5000000504798
 30
0.0
 40
3.2
 41
90.0
 71
     4
 72
     5
  1
　左右勝手有り（本図は左勝手）
 73
     1
 44
1.0
1001
ACAD
1000
MTEXTBEGIN
1070
    73
1070
     1
1070
    44
1040
1.0
1070
    74
1070
     0
1000
MTEXTEND
  0
LINE
  5
B867
330
1F
100
AcDbEntity
  8
AM_2
100
AcDbLine
 10
195.500000282035
 20
161.5000000504798
 30
0.0
 11
285.5000002820351
 21
161.5000000504797
 31
0.0
  0
MTEXT
  5
B868
330
1F
100
AcDbEntity
  8
AM_6
100
AcDbMText
 10
205.5000002820351
 20
165.5000000504798
 30
0.0
 40
3.2
 41
20.0
 71
     5
 72
     5
  1
勝　手
 73
     1
 44
1.0
1001
ACAD
1000
MTEXTBEGIN
1070
    73
1070
     1
1070
    44
1040
1.0
1070
    74
1070
     0
1000
MTEXTEND
  0
LINE
  5
C271
330
1F
100
AcDbEntity
  8
AM_3
 48
0.5
100
AcDbLine
 10
172.9857155513891
 20
99.86849188887491
 30
0.0
 11
171.5097582279554
 21
101.6274693315749
 31
0.0
  0
ARC
  5
C272
330
1F
100
AcDbEntity
  8
AM_3
 48
0.5
100
AcDbCircle
 10
168.1979377819008
 20
95.85106932832776
 30
0.0
 40
6.25
100
AcDbArc
 50
219.9999999999491
 51
323.4320288676154
  0
LINE
  5
C273
330
1F
100
AcDbEntity
  8
AM_0
100
AcDbLine
 10
217.8836663002272
 20
101.6274693315749
 30
0.0
 11
76.88366630022716
 21
101.6274693315749
 31
0.0
  0
ARC
  5
C274
330
1F
100
AcDbEntity
  8
AM_0
100
AcDbCircle
 10
76.88366630022716
 20
94.12746933157491
 30
0.0
 40
7.5
100
AcDbArc
 50
90.0
 51
270.0
  0
ARC
  5
C275
330
1F
100
AcDbEntity
  8
AM_0
100
AcDbCircle
 10
217.8836663002272
 20
94.12746933157491
 30
0.0
 40
7.5
100
AcDbArc
 50
270.0
 51
90.0
  0
CIRCLE
  5
C276
330
1F
100
AcDbEntity
  8
AM_0
100
AcDbCircle
 10
220.8836663002272
 20
94.12746933157491
 30
0.0
 40
1.75
  0
LINE
  5
C277
330
1F
100
AcDbEntity
  8
AM_7
 48
1.199999999999999
100
AcDbLine
 10
228.9884913998102
 20
94.12746933157491
 30
0.0
 11
66.3053407438382
 21
94.12746933157491
 31
0.0
  0
LINE
  5
C278
330
1F
100
AcDbEntity
  8
AM_0
100
AcDbLine
 10
217.8836663002272
 20
86.62746933157491
 30
0.0
 11
76.88366630022716
 21
86.62746933157491
 31
0.0
  0
ARC
  5
C279
330
1F
100
AcDbEntity
  8
AM_0
100
AcDbCircle
 10
97.38366630022717
 20
94.12746933157491
 30
0.0
 40
2.0
100
AcDbArc
 50
89.99729988900609
 51
270.0
  0
ARC
  5
C27A
330
1F
100
AcDbEntity
  8
AM_0
100
AcDbCircle
 10
197.3836663002272
 20
94.12746933157491
 30
0.0
 40
2.0
100
AcDbArc
 50
270.0
 51
90.0
  0
LINE
  5
C27B
330
1F
100
AcDbEntity
  8
AM_2
100
AcDbLine
 10
207.8836663002272
 20
101.6274693315749
 30
0.0
 11
207.8836663002272
 21
86.62746933157491
 31
0.0
  0
ARC
  5
C27C
330
1F
100
AcDbEntity
  8
AM_0
100
AcDbCircle
 10
188.5106829542272
 20
91.12746933157492
 30
0.0
 40
1.0
100
AcDbArc
 50
14.47751218600382
 51
90.0
  0
LINE
  5
C27D
330
1F
100
AcDbEntity
  8
AM_0
100
AcDbLine
 10
97.38366630022717
 20
96.12746933157492
 30
0.0
 11
166.1801082878185
 21
96.12746933157492
 31
0.0
  0
LINE
  5
C27E
330
1F
100
AcDbEntity
  8
AM_0
100
AcDbLine
 10
97.38366630022717
 20
92.12746933157491
 30
0.0
 11
166.1801082880894
 21
92.12746933157491
 31
0.0
  0
LINE
  5
C27F
330
1F
100
AcDbEntity
  8
AM_0
100
AcDbLine
 10
196.2566496462273
 20
92.12746933157491
 30
0.0
 11
197.3836663002272
 21
92.12746933157491
 31
0.0
  0
ARC
  5
C280
330
1F
100
AcDbEntity
  8
AM_0
100
AcDbCircle
 10
192.3836663002272
 20
92.12746933157491
 30
0.0
 40
3.0
100
AcDbArc
 50
194.4775121860037
 51
345.5224878140026
  0
ARC
  5
C281
330
1F
100
AcDbEntity
  8
AM_0
100
AcDbCircle
 10
196.2566496462273
 20
91.12746933157492
 30
0.0
 40
1.0
100
AcDbArc
 50
90.0
 51
165.5224878139961
  0
CIRCLE
  5
C282
330
1F
100
AcDbEntity
  8
AM_0
100
AcDbCircle
 10
73.88366630022716
 20
94.12746933157491
 30
0.0
 40
1.75
  0
LINE
  5
C283
330
1F
100
AcDbEntity
  8
AM_2
100
AcDbLine
 10
86.88366630022716
 20
101.6274693315749
 30
0.0
 11
86.88366630022716
 21
86.62746933157491
 31
0.0
  0
LINE
  5
C284
330
1F
100
AcDbEntity
  8
AM_2
100
AcDbLine
 10
212.7120934252272
 20
101.6274693315749
 30
0.0
 11
212.7120934252272
 21
86.62746933157491
 31
0.0
  0
LINE
  5
C285
330
1F
100
AcDbEntity
  8
AM_2
100
AcDbLine
 10
82.05523917522715
 20
101.6274693315749
 30
0.0
 11
82.05523917522715
 21
86.62746933157491
 31
0.0
  0
CIRCLE
  5
C287
330
1F
100
AcDbEntity
  8
AM_0
100
AcDbCircle
 10
169.6442099032115
 20
94.12746933148619
 30
0.0
 40
4.0
  0
CIRCLE
  5
C288
330
1F
100
AcDbEntity
  8
AM_0
100
AcDbCircle
 10
101.5087244775359
 20
175.3281788708729
 30
0.0
 40
2.999999999999999
  0
LINE
  5
C289
330
1F
100
AcDbEntity
  8
AM_7
100
AcDbLine
 10
172.8474261962337
 20
90.31002480623016
 30
0.0
 11
98.12936238083494
 21
179.355545789653
 31
0.0
  0
ARC
  5
C28A
330
1F
100
AcDbEntity
  8
AM_0
100
AcDbCircle
 10
98.25872447753594
 20
164.3281788708729
 30
0.0
 40
6.249999999999999
100
AcDbArc
 50
180.0
 51
341.981762738033
  0
ARC
  5
C28B
330
1F
100
AcDbEntity
  8
AM_0
100
AcDbCircle
 10
98.25872447753592
 20
186.3281788708729
 30
0.0
 40
6.249999999999999
100
AcDbArc
 50
0.0
 51
180.0
  0
LINE
  5
C28D
330
1F
100
AcDbEntity
  8
AM_0
100
AcDbLine
 10
92.00872447753594
 20
164.3281788708729
 30
0.0
 11
92.00872447753594
 21
186.3281788708729
 31
0.0
  0
LINE
  5
C28E
330
1F
100
AcDbEntity
  8
AM_7
 48
0.5
100
AcDbLine
 10
98.25872447753594
 20
156.2399521508728
 30
0.0
 11
98.25872447753591
 21
194.4193903368728
 31
0.0
  0
LINE
  5
C28F
330
1F
100
AcDbEntity
  8
AM_7
 48
0.5
100
AcDbLine
 10
106.6486371405979
 20
175.3281788708729
 30
0.0
 11
89.82999441053587
 21
175.3281788708729
 31
0.0
  0
ARC
  5
C290
330
1F
100
AcDbEntity
  8
AM_0
100
AcDbCircle
 10
98.25872447753594
 20
164.3281788708729
 30
0.0
 40
3.499999999999999
100
AcDbArc
 50
58.94999995597594
 51
21.0500000442956
  0
CIRCLE
  5
C291
330
1F
100
AcDbEntity
  8
AM_0
100
AcDbCircle
 10
98.25872447753592
 20
186.3281788708729
 30
0.0
 40
3.499999999999999
  0
CIRCLE
  5
C292
330
1F
100
AcDbEntity
  8
AM_0
100
AcDbCircle
 10
98.25872447753592
 20
186.3281788708729
 30
0.0
 40
1.999999999999999
  0
CIRCLE
  5
C293
330
1F
100
AcDbEntity
  8
AM_0
100
AcDbCircle
 10
98.25872447753594
 20
164.3281788708729
 30
0.0
 40
1.999999999999999
  0
LINE
  5
C294
330
1F
100
AcDbEntity
  8
AM_0
100
AcDbLine
 10
104.5087244775359
 20
179.6583746480813
 30
0.0
 11
104.5087244775359
 21
186.3281788708729
 31
0.0
  0
LINE
  5
C297
330
1F
100
AcDbEntity
  8
AM_0
100
AcDbLine
 10
98.16721762921787
 20
169.5871577439956
 30
0.0
 11
155.1921671112773
 21
101.6274693315749
 31
0.0
  0
ARC
  5
C299
330
1F
100
AcDbEntity
  8
AM_0
100
AcDbCircle
 10
102.9549953988302
 20
173.6045803048628
 30
0.0
 40
6.25
100
AcDbArc
 50
39.99999999999984
 51
219.9999999999998
  0
LINE
  5
C29A
330
1F
100
AcDbEntity
  8
AM_0
100
AcDbLine
 10
92.00872447753594
 20
24.50611571631231
 30
0.0
 11
92.00872447753594
 21
26.50611571631235
 31
0.0
  0
LINE
  5
C29B
330
1F
100
AcDbEntity
  8
AM_0
100
AcDbLine
 10
69.38366630022722
 20
26.50611571631233
 30
0.0
 11
81.6410256132271
 21
26.50611571631233
 31
0.0
  0
LINE
  5
C29C
330
1F
100
AcDbEntity
  8
AM_7
 48
0.5
100
AcDbLine
 10
174.279823377931
 20
98.01721088831742
 30
0.0
 11
165.0085964283896
 21
90.23772777437352
 31
0.0
  0
LINE
  5
C29D
330
1F
100
AcDbEntity
  8
AM_0
100
AcDbLine
 10
104.5087244775359
 20
24.50611571631231
 30
0.0
 11
92.00872447753594
 21
24.50611571631231
 31
0.0
  0
LINE
  5
C29E
330
1F
100
AcDbEntity
  8
AM_0
100
AcDbLine
 10
104.5087244775359
 20
26.50611571631235
 30
0.0
 11
104.5087244775359
 21
24.50611571631231
 31
0.0
  0
LINE
  5
C29F
330
1F
100
AcDbEntity
  8
AM_0
100
AcDbLine
 10
170.8837865592271
 20
26.50611571631233
 30
0.0
 11
171.3837865592271
 21
25.50608105831231
 31
0.0
  0
LINE
  5
C2A0
330
1F
100
AcDbEntity
  8
AM_0
100
AcDbLine
 10
171.3837865592271
 20
25.50608105831231
 30
0.0
 11
167.8837865592272
 21
25.50608105831231
 31
0.0
  0
LINE
  5
C2A1
330
1F
100
AcDbEntity
  8
AM_0
100
AcDbLine
 10
86.59077308122716
 20
28.21322249731231
 30
0.0
 11
83.76234595622719
 21
25.38479537231238
 31
0.0
  0
ARC
  5
C2A2
330
1F
100
AcDbEntity
  8
AM_0
100
AcDbCircle
 10
207.4694527382273
 20
27.50611571631233
 30
0.0
 40
1.0
100
AcDbArc
 50
45.00000000000416
 51
90.0
  0
ARC
  5
C2A3
330
1F
100
AcDbEntity
  8
AM_0
100
AcDbCircle
 10
207.4694527382273
 20
27.50611571631233
 30
0.0
 40
3.0
100
AcDbArc
 50
45.00000000000416
 51
90.0
  0
ARC
  5
C2A4
330
1F
100
AcDbEntity
  8
AM_0
100
AcDbCircle
 10
213.1263069872273
 20
27.50611571631233
 30
0.0
 40
1.0
100
AcDbArc
 50
225.0000000000041
 51
270.0
  0
LINE
  5
C2A5
330
1F
100
AcDbEntity
  8
AM_0
100
AcDbLine
 10
82.34813239422726
 20
26.79900893531232
 30
0.0
 11
85.17655951922723
 21
29.62743606031233
 31
0.0
  0
LINE
  5
C2A6
330
1F
100
AcDbEntity
  8
AM_0
100
AcDbLine
 10
208.1765595192272
 20
28.21322249731231
 30
0.0
 11
211.0049866442272
 21
25.38479537231238
 31
0.0
  0
ARC
  5
C2A7
330
1F
100
AcDbEntity
  8
AM_0
100
AcDbCircle
 10
87.29787986222721
 20
27.50611571631233
 30
0.0
 40
1.0
100
AcDbArc
 50
90.0
 51
134.9999999999959
  0
LINE
  5
C2A8
330
1F
100
AcDbEntity
  8
AM_0
100
AcDbLine
 10
87.29787986222721
 20
30.50611571631233
 30
0.0
 11
207.4694527382273
 21
30.50611571631233
 31
0.0
  0
LINE
  5
C2A9
330
1F
100
AcDbEntity
  8
AM_0
100
AcDbLine
 10
213.1263069872273
 20
24.50611571631229
 30
0.0
 11
225.3836663002272
 21
24.50611571631229
 31
0.0
  0
LINE
  5
C2AA
330
1F
100
AcDbEntity
  8
AM_0
100
AcDbLine
 10
69.38366630022722
 20
24.50611571631229
 30
0.0
 11
69.38366630022722
 21
26.50611571631233
 31
0.0
  0
ARC
  5
C2AB
330
1F
100
AcDbEntity
  8
AM_0
100
AcDbCircle
 10
81.6410256132271
 20
27.50611571631233
 30
0.0
 40
3.0
100
AcDbArc
 50
270.0
 51
314.9999999999959
  0
ARC
  5
C2AC
330
1F
100
AcDbEntity
  8
AM_0
100
AcDbCircle
 10
81.6410256132271
 20
27.50611571631233
 30
0.0
 40
1.0
100
AcDbArc
 50
270.0
 51
314.9999999999959
  0
ARC
  5
C2AD
330
1F
100
AcDbEntity
  8
AM_0
100
AcDbCircle
 10
87.29787986222721
 20
27.50611571631233
 30
0.0
 40
3.0
100
AcDbArc
 50
90.0
 51
134.9999999999959
  0
LINE
  5
C2AE
330
1F
100
AcDbEntity
  8
AM_0
100
AcDbLine
 10
207.4694527382273
 20
28.50611571631228
 30
0.0
 11
87.29787986222721
 21
28.50611571631228
 31
0.0
  0
LINE
  5
C2AF
330
1F
100
AcDbEntity
  8
AM_0
100
AcDbLine
 10
81.6410256132271
 20
24.50611571631229
 30
0.0
 11
69.38366630022722
 21
24.50611571631229
 31
0.0
  0
LINE
  5
C2B0
330
1F
100
AcDbEntity
  8
AM_0
100
AcDbLine
 10
212.4192002062274
 20
26.79900893531232
 30
0.0
 11
209.5907730812272
 21
29.62743606031233
 31
0.0
  0
LINE
  5
C2B1
330
1F
100
AcDbEntity
  8
AM_0
100
AcDbLine
 10
225.3836663002272
 20
26.50611571631233
 30
0.0
 11
213.1263069872273
 21
26.50611571631233
 31
0.0
  0
LINE
  5
C2B2
330
1F
100
AcDbEntity
  8
AM_0
100
AcDbLine
 10
225.3836663002272
 20
24.50611571631229
 30
0.0
 11
225.3836663002272
 21
26.50611571631233
 31
0.0
  0
ARC
  5
C2B3
330
1F
100
AcDbEntity
  8
AM_0
100
AcDbCircle
 10
213.1263069872273
 20
27.50611571631233
 30
0.0
 40
3.0
100
AcDbArc
 50
225.0000000000041
 51
270.0
  0
LINE
  5
C2B4
330
1F
100
AcDbEntity
  8
AM_0
100
AcDbLine
 10
173.6627716562272
 20
30.50611571631233
 30
0.0
 11
173.6627716562272
 21
31.50611571631233
 31
0.0
  0
LINE
  5
C2B5
330
1F
100
AcDbEntity
  8
AM_0
100
AcDbLine
 10
173.6627716562272
 20
31.50611571631233
 30
0.0
 11
165.6627716562273
 21
31.50611571631233
 31
0.0
  0
LINE
  5
C2B6
330
1F
100
AcDbEntity
  8
AM_0
100
AcDbLine
 10
165.6627716562273
 20
31.50611571631233
 30
0.0
 11
165.6627716562273
 21
30.50611571631233
 31
0.0
  0
ARC
  5
C2B7
330
1F
100
AcDbEntity
  8
AM_0
100
AcDbCircle
 10
169.6627716562272
 20
24.00611571631233
 30
0.0
 40
8.5
100
AcDbArc
 50
61.92751306399766
 51
118.0724869360023
  0
LINE
  5
C2B8
330
1F
100
AcDbEntity
  8
AM_7
 48
0.5
100
AcDbLine
 10
169.6337865592272
 20
34.15618781631228
 30
0.0
 11
169.6627716562272
 21
24.00611571631233
 31
0.0
  0
LINE
  5
C2B9
330
1F
100
AcDbEntity
  8
AM_0
100
AcDbLine
 10
167.8837865592272
 20
25.50608105831231
 30
0.0
 11
168.3837865592271
 21
26.50611571631233
 31
0.0
  0
LINE
  5
C2BA
330
1F
100
AcDbEntity
  8
AM_0
100
AcDbLine
 10
96.95970330653601
 20
26.50611571631235
 30
0.0
 11
96.95970330653601
 21
28.5061157163123
 31
0.0
  0
LINE
  5
C2BB
330
1F
100
AcDbEntity
  8
AM_0
100
AcDbLine
 10
92.00872447753594
 20
26.50611571631233
 30
0.0
 11
173.9479836572271
 21
26.50611571631234
 31
0.0
  0
LINE
  5
C2BC
330
1F
100
AcDbEntity
  8
AM_0
100
AcDbLine
 10
173.9479836572271
 20
28.50611571631228
 30
0.0
 11
173.9479836572271
 21
26.50611571631233
 31
0.0
  0
LINE
  5
C2BD
330
1F
100
AcDbEntity
  8
AM_7
 48
0.3
100
AcDbLine
 10
98.12604299397449
 20
172.489772085979
 30
0.0
 11
104.8914059607491
 21
178.1665856549255
 31
0.0
  0
LINE
  5
C2BE
330
1F
100
AcDbEntity
  8
AM_7
 48
0.5
100
AcDbLine
 10
103.6803211434383
 20
186.3281788708729
 30
0.0
 11
92.83712781163355
 21
186.3281788708729
 31
0.0
  0
LINE
  5
C2C0
330
1F
100
AcDbEntity
  8
AM_7
 48
0.5
100
AcDbLine
 10
73.88366630022716
 20
99.34646447516357
 30
0.0
 11
73.88366630022716
 21
88.90847418798626
 31
0.0
  0
LINE
  5
C2C1
330
1F
100
AcDbEntity
  8
AM_7
 48
0.5
100
AcDbLine
 10
220.8836663002272
 20
99.20616670079517
 30
0.0
 11
220.8836663002272
 21
89.04877196235466
 31
0.0
  0
LINE
  5
C2C2
330
1F
100
AcDbEntity
  8
AM_0
100
AcDbLine
 10
100.2587244775359
 20
24.50611571631231
 30
0.0
 11
100.2587244775359
 21
24.20611571631238
 31
0.0
  0
LINE
  5
C2C3
330
1F
100
AcDbEntity
  8
AM_0
100
AcDbLine
 10
100.2587244775359
 20
24.20611571631238
 30
0.0
 11
96.25872447753593
 21
24.20611571631238
 31
0.0
  0
LINE
  5
C2C4
330
1F
100
AcDbEntity
  8
AM_0
100
AcDbLine
 10
96.25872447753593
 20
24.20611571631238
 30
0.0
 11
96.25872447753593
 21
24.50611571631231
 31
0.0
  0
DIMENSION
  5
C2C5
330
1F
100
AcDbEntity
  8
AM_5
100
AcDbDimension
  2
*D6
 10
70.00872346753593
 20
158.0781788708729
 30
0.0
 11
66.90872346753592
 21
175.3281788708729
 31
0.0
 70
    32
 71
     5
 42
34.5
  3
SYS$0
100
AcDbAlignedDimension
 13
98.25872447753592
 23
192.5781788708729
 33
0.0
 14
98.25872447753592
 24
158.0781788708729
 34
0.0
 50
90.0
100
AcDbRotatedDimension
  0
LINE
  5
C2C6
330
1F
100
AcDbEntity
  8
AM_7
 48
0.5
100
AcDbLine
 10
103.6803211434383
 20
164.3281788708729
 30
0.0
 11
92.83712781163357
 21
164.3281788708729
 31
0.0
  0
DIMENSION
  5
C2C7
330
1F
100
AcDbEntity
  8
AM_5
100
AcDbDimension
  2
*D7
 10
80.0087234675359
 20
164.3281788708729
 30
0.0
 11
76.90872346753588
 21
175.3281788708729
 31
0.0
 70
    32
 71
     5
 42
22.0
  3
SYS$0
100
AcDbAlignedDimension
 13
92.83712781163355
 23
186.3281788708729
 33
0.0
 14
92.83712781163357
 24
164.3281788708729
 34
0.0
 50
90.0
100
AcDbRotatedDimension
  0
LINE
  5
C2C9
330
1F
100
AcDbEntity
  8
AM_7
 48
0.5
100
AcDbLine
 10
192.3836663002272
 20
99.88920414857481
 30
0.0
 11
192.3836663002272
 21
85.42095613357481
 31
0.0
  0
DIMENSION
  5
C2CA
330
1F
100
AcDbEntity
  8
AM_5
100
AcDbDimension
  2
*D8
 10
115.3368712698627
 20
186.9313717433034
 30
0.0
 11
151.7793517562712
 21
148.323658563968
 31
0.0
 70
    32
 71
     5
 42
105.999998130945
  3
SYS$0
100
AcDbAlignedDimension
 13
174.279823377931
 23
98.01721088831746
 33
0.0
 14
104.8914059607491
 24
178.1665856549255
 34
0.0
 50
130.0000000000827
100
AcDbRotatedDimension
  0
DIMENSION
  5
C2CB
330
1F
100
AcDbEntity
  8
AM_5
100
AcDbDimension
  2
*D9
 10
134.8460188246901
 20
145.3216124827084
 30
0.0
 11
119.5173391848936
 21
132.4593230505652
 31
0.0
 70
   160
 71
     5
 42
12.49999999988625
  3
SYS$0
100
AcDbAlignedDimension
 13
123.2117278135441
 23
139.7402727569585
 33
0.0
 14
139.7456633428094
 24
139.482443525785
 34
0.0
 50
39.99999999990201
100
AcDbRotatedDimension
  0
DIMENSION
  5
C2CC
330
1F
100
AcDbEntity
  8
AM_5
100
AcDbDimension
  2
*D10
 10
199.3836663002272
 20
64.62746833157485
 30
0.0
 11
147.3836663002272
 21
67.72746833157484
 31
0.0
 70
    32
 71
     5
 42
104.0
  3
SYS$0
100
AcDbAlignedDimension
 13
95.38366630022716
 23
94.12746933157491
 33
0.0
 14
199.3836663002272
 24
94.12746933157491
 34
0.0
 50
0.0000000000001018
100
AcDbRotatedDimension
  0
DIMENSION
  5
C2CD
330
1F
100
AcDbEntity
  8
AM_5
100
AcDbDimension
  2
*D11
 10
220.8836663002272
 20
54.62746833157438
 30
0.0
 11
147.3836663002272
 21
57.72746833157437
 31
0.0
 70
    32
 71
     5
 42
147.0
  3
SYS$0
100
AcDbAlignedDimension
 13
73.88366630022716
 23
88.90847418798626
 33
0.0
 14
220.8836663002272
 24
89.04877196235466
 34
0.0
 50
0.0000000000001018
100
AcDbRotatedDimension
  0
DIMENSION
  5
C2CE
330
1F
100
AcDbEntity
  8
AM_5
100
AcDbDimension
  2
*D12
 10
225.3836663002272
 20
44.62746833157385
 30
0.0
 11
147.3836663002272
 21
47.72746833157386
 31
0.0
 70
    32
 71
     5
 42
156.0
  3
SYS$0
100
AcDbAlignedDimension
 13
69.38366630022716
 23
94.12746933157491
 33
0.0
 14
225.3836663002272
 24
94.12746933157491
 34
0.0
 50
0.0000000000001018
100
AcDbRotatedDimension
  0
DIMENSION
  5
C2CF
330
1F
100
AcDbEntity
  8
AM_5
100
AcDbDimension
  2
*D13
 10
237.3836663002272
 20
26.50611571631233
 30
0.0
 11
237.3836663002272
 21
33.93290996588075
 31
0.0
 70
   160
 71
     5
 42
2.000000000000042
  3
SYS$0
100
AcDbAlignedDimension
 13
225.3836663002272
 23
24.50611571631229
 33
0.0
 14
225.3836663002272
 24
26.50611571631233
 34
0.0
 50
90.0
100
AcDbRotatedDimension
  0
DIMENSION
  5
C2D0
330
1F
100
AcDbEntity
  8
AM_5
100
AcDbDimension
  2
*D14
 10
247.3836663002272
 20
30.50611571631232
 30
0.0
 11
247.3836663002272
 21
33.84946602140838
 31
0.0
 70
   160
 71
     5
 42
6.000000000000039
  3
SYS$0
100
AcDbAlignedDimension
 13
225.3836663002272
 23
24.50611571631229
 33
0.0
 14
207.4694527382273
 24
30.50611571631233
 34
0.0
 50
90.0
100
AcDbRotatedDimension
  0
DIMENSION
  5
C2D1
330
1F
100
AcDbEntity
  8
AM_5
100
AcDbDimension
  2
*D15
 10
192.3836663002272
 20
74.62746833157445
 30
0.0
 11
195.8836663002272
 21
77.72746833157444
 31
0.0
 70
    32
 71
     5
 42
7.0
  3
SYS$0
100
AcDbAlignedDimension
 13
199.3836663002272
 23
94.12746933157491
 33
0.0
 14
192.3836663002272
 24
85.42095613357481
 34
0.0
 50
0.0000000000001018
100
AcDbRotatedDimension
  0
DIMENSION
  5
C2D2
330
1F
100
AcDbEntity
  8
AM_5
100
AcDbDimension
  2
*D16
 10
124.9257568562689
 20
92.12746933157491
 30
0.0
 11
124.9257568562689
 21
106.9226658704326
 31
0.0
 70
   160
 71
     5
 42
4.0
  3
SYS$0
100
AcDbAlignedDimension
 13
139.2818872942272
 23
96.12746933157492
 33
0.0
 14
139.2818872942272
 24
92.12746933157491
 34
0.0
 50
90.0
100
AcDbRotatedDimension
  0
DIMENSION
  5
C2D3
330
1F
100
AcDbEntity
  8
AM_5
100
AcDbDimension
  2
*D17
 10
114.6703475359345
 20
101.6274693315749
 30
0.0
 11
114.6703475359345
 21
106.9975078690631
 31
0.0
 70
   160
 71
     5
 42
15.00000000000003
  3
SYS$0
100
AcDbAlignedDimension
 13
147.3836663002272
 23
86.62746933157491
 33
0.0
 14
147.3836663002272
 24
101.6274693315749
 34
0.0
 50
90.0
100
AcDbRotatedDimension
  0
DIMENSION
  5
C2D4
330
1F
100
AcDbEntity
  8
AM_5
100
AcDbDimension
  2
*D18
 10
74.52462706773776
 20
92.49907463294917
 30
0.0
 11
60.1968698943584
 21
105.5856922520766
 31
0.0
 70
   163
  1
2-<>
 71
     5
 42
3.5
  3
SYS$3
100
AcDbDiametricDimension
 15
73.24270553271681
 25
95.75586403020063
 35
0.0
 40
0.0
1001
ACAD
1000
DSTYLE
1002
{
1070
   172
1070
     1
1070
   342
1005
BD11
1002
}
  0
DIMENSION
  5
C2D5
330
1F
100
AcDbEntity
  8
AM_5
100
AcDbDimension
  2
*D19
 10
104.5087244775359
 20
145.6397230200592
 30
0.0
 11
98.25872447753594
 21
148.7397230200592
 31
0.0
 70
    32
 71
     5
 42
12.49999999999998
  3
SYS$0
100
AcDbAlignedDimension
 13
92.00872447753594
 23
164.3281788708729
 33
0.0
 14
104.5087244775359
 24
162.0296441750881
 34
0.0
100
AcDbRotatedDimension
  0
LINE
  5
C4E4
330
1F
100
AcDbEntity
  8
AM_0
100
AcDbLine
 10
173.1083115183649
 20
96.12746933157492
 30
0.0
 11
197.3836663002272
 21
96.12746933157492
 31
0.0
  0
LINE
  5
C4E5
330
1F
100
AcDbEntity
  8
AM_0
100
AcDbLine
 10
173.1083115188799
 20
92.12746933157491
 30
0.0
 11
188.5106829542272
 21
92.12746933157491
 31
0.0
  0
LINE
  5
C5BF
330
1F
100
AcDbEntity
  8
AM_7
 48
0.5
100
AcDbLine
 10
98.25872447753594
 20
21.20611571631238
 30
0.0
 11
98.25872447753594
 21
31.50611571631227
 31
0.0
1001
GENIUS_GENODEF_13
1002
{
1000
HIER
1070
     0
1002
}
1002
{
1000
MANEDIT
1070
     0
1002
}
1002
{
1000
NOSEL
1070
     0
1002
}
1002
{
1000
BEHIND
1070
     0
1002
}
1002
{
1000
OTHER
1070
     0
1002
}
1002
{
1000
REACTOR
1002
}
1001
GENIUS_GENOBJ-N-CEN_13
1002
{
1000
OWNER
1000
GEN
1002
}
1001
GENIUS_GENCEN_19
1002
{
1040
3.0
1002
}
  0
DIMENSION
  5
C5F4
330
1F
100
AcDbEntity
  8
AM_5
100
AcDbDimension
  2
*D20
 10
100.2366728675112
 20
167.21568993866
 30
0.0
 11
72.9845804742948
 21
145.6481945406802
 31
0.0
 70
   163
  1
2-%%c4×<>サラ
 71
     5
 42
6.999999999999971
  3
SYS$3
100
AcDbDiametricDimension
 15
96.28077608756052
 25
161.4406678030855
 35
0.0
 40
0.0
1001
ACAD
1000
DSTYLE
1002
{
1070
   172
1070
     1
1070
   342
1005
BD11
1002
}
  0
LINE
  5
C653
330
1F
100
AcDbEntity
  8
AM_3
 48
0.5
100
AcDbLine
 10
155.1921671112773
 20
101.6274693315749
 30
0.0
 11
159.8072150827746
 21
96.12746933157492
 31
0.0
  0
LINE
  5
C654
330
1F
100
AcDbEntity
  8
AM_0
100
AcDbLine
 10
159.8072150827746
 20
96.12746933157492
 30
0.0
 11
163.1636136074999
 21
92.1274693315749
 31
0.0
  0
LINE
  5
C655
330
1F
100
AcDbEntity
  8
AM_3
 48
0.5
100
AcDbLine
 10
163.1636136074999
 20
92.1274693315749
 30
0.0
 11
163.4101600124036
 21
91.83364676779111
 31
0.0
  0
ARC
  5
C656
330
1F
100
AcDbEntity
  8
AM_3
 48
0.5
100
AcDbCircle
 10
168.1979377819008
 20
95.85106932832776
 30
0.0
 40
6.25
100
AcDbArc
 50
2.534675244923048
 51
40.00000000007521
  0
LINE
  5
C657
330
1F
100
AcDbEntity
  8
AM_0
100
AcDbLine
 10
171.5097582279554
 20
101.6274693315749
 30
0.0
 11
107.7427731681006
 21
177.6220028647903
 31
0.0
  0
ARC
  5
C658
330
1F
100
AcDbEntity
  8
AM_0
100
AcDbCircle
 10
168.1979377819008
 20
95.85106932832776
 30
0.0
 40
6.25
100
AcDbArc
 50
323.4320288676154
 51
2.534675244923048
  0
ENDSEC
  0
SECTION
  2
OBJECTS
  0
DICTIONARY
  5
C
330
0
100
AcDbDictionary
281
     1
  3
ACAD_2007HEADERVARS_RT
350
C6D5
  3
ACAD_BGPLOT_KEY
350
AB06
  3
ACAD_COLOR
350
A91D
  3
ACAD_GROUP
350
D
  3
ACAD_LAYOUT
350
1A
  3
ACAD_MATERIAL
350
A91C
  3
ACAD_MLINESTYLE
350
17
  3
ACAD_PLOTSETTINGS
350
19
  3
ACAD_PLOTSTYLENAME
350
E
  3
ACAD_TABLESTYLE
350
AAB9
  3
ACAD_VISUALSTYLE
350
B0F1
  3
AcAsAppObject
350
3DA1
  3
ACASGREF_MASTER
350
3DE9
  3
AcDbVariableDictionary
350
34
  3
AcmDictionary
350
47
  3
AD_GREF_MODULE
350
3DEA
  3
AD_MAPI_MODULE
350
3E06
  3
AMG
350
2B
  3
AMGSNAPSETTINGS
350
7D
  3
ASE_INDEX_DICTIONARY
350
B331
  3
DWGPROPS
350
C6D4
  3
MAPISURF_MODULE
350
3DEB
  0
DICTIONARY
  5
3F95
330
2
100
AcDbDictionary
280
     1
281
     1
  3
ACAD_LAYERFILTERS
360
B466
  3
ACAD_LAYERSTATES
360
3F96
  3
ACLYDICTIONARY
360
B465
  3
AMLAYER_GROUPCOLORS
360
AAB4
  0
DICTIONARY
  5
8A
330
1F
100
AcDbDictionary
280
     1
281
     1
  3
ACAD_SORTENTS
360
B1BA
  0
DICTIONARY
  5
C6D5
102
{ACAD_REACTORS
330
C
102
}
330
C
100
AcDbDictionary
281
     1
  3
DIMARCSYM
350
C6D6
  0
DICTIONARY
  5
AB06
102
{ACAD_REACTORS
330
C
102
}
330
C
100
AcDbDictionary
280
     1
281
     1
  0
DICTIONARY
  5
A91D
102
{ACAD_REACTORS
330
C
102
}
330
C
100
AcDbDictionary
281
     1
  0
DICTIONARY
  5
D
102
{ACAD_REACTORS
330
C
102
}
330
C
100
AcDbDictionary
281
     1
  0
DICTIONARY
  5
1A
102
{ACAD_REACTORS
330
C
102
}
330
C
100
AcDbDictionary
281
     1
  3
Model
350
22
  3
ﾚｲｱｳﾄ1
350
1E
  3
ﾚｲｱｳﾄ2
350
26
  0
DICTIONARY
  5
A91C
102
{ACAD_REACTORS
330
C
102
}
330
C
100
AcDbDictionary
281
     1
  3
ByBlock
350
B0EF
  3
ByLayer
350
B0EE
  3
Global
350
B0F0
  0
DICTIONARY
  5
17
102
{ACAD_REACTORS
330
C
102
}
330
C
100
AcDbDictionary
281
     1
  3
Standard
350
18
  0
DICTIONARY
  5
19
102
{ACAD_REACTORS
330
C
102
}
330
C
100
AcDbDictionary
281
     1
  0
ACDBDICTIONARYWDFLT
  5
E
102
{ACAD_REACTORS
330
C
102
}
330
C
100
AcDbDictionary
281
     1
  3
Normal
350
F
100
AcDbDictionaryWithDefault
340
F
  0
DICTIONARY
  5
AAB9
102
{ACAD_REACTORS
330
C
102
}
330
C
100
AcDbDictionary
281
     1
  3
Standard
350
AABA
  0
DICTIONARY
  5
B0F1
102
{ACAD_REACTORS
330
C
102
}
330
C
100
AcDbDictionary
281
     1
  3
2dWireframe
350
B0F7
  3
3D Hidden
350
B0F9
  3
3dWireframe
350
B0F8
  3
Basic
350
B0F6
  3
Brighten
350
B0FD
  3
ColorChange
350
B101
  3
Conceptual
350
B0FA
  3
Dim
350
B0FC
  3
Facepattern
350
B100
  3
Flat
350
B0F2
  3
FlatWithEdges
350
B0F3
  3
Gouraud
350
B0F4
  3
GouraudWithEdges
350
B0F5
  3
Linepattern
350
B0FF
  3
Realistic
350
B0FB
  3
Thicken
350
B0FE
  0
ACAD_PROXY_OBJECT
  5
3DA1
102
{ACAD_REACTORS
330
C
102
}
330
C
100
AcDbProxyObject
 90
      499
 91
      576
 95
   917527
 70
     0
 93
       10
310
407F
 94
        0
1001
ACAD
1000
AcRTDxfName
1000
ASAPP
  0
ACAD_PROXY_OBJECT
  5
3DE9
102
{ACAD_REACTORS
330
C
102
}
330
C
100
AcDbProxyObject
 90
      499
 91
      581
 95
   917527
 70
     0
 93
       34
310
010000407F
 94
        0
1001
ACAD
1000
AcRTDxfName
1000
ACASGREFMASTER
  0
DICTIONARY
  5
34
102
{ACAD_REACTORS
330
C
102
}
330
C
100
AcDbDictionary
281
     1
  3
CTABLESTYLE
350
AAF3
  3
DIMASSOC
350
A10C
  3
FIELDEVAL
350
AB07
  3
INDEXCTL
350
35
  3
SORTENTS
350
194C
  0
DICTIONARY
  5
47
102
{ACAD_REACTORS
330
C
102
}
330
C
100
AcDbDictionary
281
     1
  3
AcmBOM
350
7E8
  3
AcmStdDictionary
350
4C
  3
AMDTSECTSYM_ARROWCOLOR
350
A929
  0
ACAD_PROXY_OBJECT
  5
3DEA
102
{ACAD_REACTORS
330
C
102
}
330
C
100
AcDbProxyObject
 90
      499
 91
      582
 95
   917527
 70
     0
 93
      114
310
00000043800000000000000000003F
 94
        0
1001
ACAD
1000
AcRTDxfName
1000
ACADGREFMODULE
  0
ACAD_PROXY_OBJECT
  5
3E06
102
{ACAD_REACTORS
330
C
102
}
330
C
100
AcDbProxyObject
 90
      499
 91
      594
 95
   917527
 70
     0
 93
       34
310
05000044FF
 94
        0
1001
ACAD
1000
AcRTDxfName
1000
MAPIADMODULE
  0
DICTIONARY
  5
2B
102
{ACAD_REACTORS
330
C
102
}
330
C
100
AcDbDictionary
281
     1
  0
DICTIONARY
  5
7D
102
{ACAD_REACTORS
330
C
102
}
330
C
100
AcDbDictionary
281
     1
  0
DICTIONARY
  5
B331
102
{ACAD_REACTORS
330
C
102
}
330
C
100
AcDbDictionary
281
     1
  3
ASEBlockHierarchyIndexRecord
350
B332
1001
DCO15
1040
1594111214.218
  0
XRECORD
  5
C6D4
102
{ACAD_REACTORS
330
C
102
}
330
C
100
AcDbXrecord
280
     1
  1
DWGPROPS COOKIE
  2

  3

  4

  6

  7

  8
Administrator
  9

300
AmdtFileType=84
301
=
302
=
303
=
304
=
305
=
306
=
307
=
308
=
309
=
 40
0.0898052314814815
 41
2456139.798878935
 42
2456267.588083403
  1

 90
        1
  0
ACAD_PROXY_OBJECT
  5
3DEB
102
{ACAD_REACTORS
330
C
102
}
330
C
100
AcDbProxyObject
 90
      499
 91
      583
 95
   917527
 70
     0
 93
        8
310
047E
 94
        0
1001
ACAD
1000
AcRTDxfName
1000
AMDTMAPISURFMOUDULE
  0
DICTIONARY
  5
B466
102
{ACAD_REACTORS
330
3F95
102
}
330
3F95
100
AcDbDictionary
281
     1
  0
DICTIONARY
  5
3F96
102
{ACAD_REACTORS
330
3F95
102
}
330
3F95
100
AcDbDictionary
281
     1
  3
20011210
350
3FB7
  0
DICTIONARY
  5
B465
102
{ACAD_REACTORS
330
3F95
102
}
330
3F95
100
AcDbDictionary
281
     1
1001
ACAD
1000
<All
  0
DICTIONARY
  5
AAB4
102
{ACAD_REACTORS
330
3F95
102
}
330
3F95
100
AcDbDictionary
280
     1
281
     1
  0
SORTENTSTABLE
  5
B1BA
102
{ACAD_REACTORS
330
8A
102
}
330
8A
100
AcDbSortentsTable
330
1F
331
B538
  5
B538
331
C27E
  5
C282
331
B6AF
  5
B6C3
331
C2BD
  5
C2C6
331
C2C5
  5
C2CE
331
C28E
  5
C293
331
C2CD
  5
C2D5
331
C657
  5
C272
331
C29E
  5
C2A6
331
B867
  5
B86F
331
C2D5
  5
C656
331
C2A6
  5
C2AE
331
C2AE
  5
C2B6
331
C2B6
  5
C2BE
331
C277
  5
C27A
331
B6A8
  5
B6BC
331
B539
  5
B539
331
C2BE
  5
C2C7
331
B6B0
  5
B6C4
331
C27F
  5
C284
331
C2C6
  5
C2CF
331
C287
  5
C28C
331
C2CE
  5
C4E4
331
C28F
  5
C294
331
C658
  5
C274
331
C297
  5
C29D
331
B868
  5
B885
331
C29F
  5
C2A7
331
C2A7
  5
C2AF
331
C2AF
  5
C2B7
331
C2B7
  5
C2BF
331
C278
  5
C27B
331
B53A
  5
B53A
331
B6A9
  5
B6BD
331
C280
  5
C285
331
B6B1
  5
B6C5
331
C288
  5
C28D
331
C2C7
  5
C2D0
331
C290
  5
C297
331
C2CF
  5
C4E5
331
C2A0
  5
C2A8
331
C2A8
  5
C2B0
331
C2B0
  5
C2B8
331
B6A2
  5
B6B0
331
C271
  5
C271
331
C2B8
  5
C2C0
331
B6AA
  5
B6BE
331
B53B
  5
B53B
331
C279
  5
C27C
331
C4E4
  5
C281
331
C2C0
  5
C2C8
331
B6B2
  5
B6C6
331
C281
  5
C286
331
C289
  5
C28F
331
C291
  5
C299
331
C2D0
  5
C5BF
331
C299
  5
C2A1
331
C2A1
  5
C2A9
331
C2A9
  5
C2B1
331
C272
  5
C273
331
B6A3
  5
B6B1
331
C2B1
  5
C2B9
331
C27A
  5
C27D
331
B53C
  5
B53C
331
B6AB
  5
B6BF
331
C2B9
  5
C2C2
331
C4E5
  5
C283
331
C282
  5
C287
331
C2C1
  5
C2C9
331
C28A
  5
C290
331
C2C9
  5
C2D1
331
C653
  5
C29E
331
C292
  5
C29A
331
C29A
  5
C2A2
331
C2D1
  5
C5F4
331
C2A2
  5
C2AA
331
C2AA
  5
C2B2
331
C2B2
  5
C2BA
331
B6A4
  5
B6B2
331
C273
  5
C276
331
C5F4
  5
C658
331
C2BA
  5
C2C3
331
B6AC
  5
B6C0
331
B53D
  5
B53D
331
C27B
  5
C27E
331
C2C2
  5
C2CB
331
C283
  5
C289
331
C2CA
  5
C2D2
331
C28B
  5
C291
331
C654
  5
C29F
331
C293
  5
C29B
331
C2D2
  5
C653
331
C29B
  5
C2A3
331
C2A3
  5
C2AB
331
C2AB
  5
C2B3
331
C274
  5
C277
331
B536
  5
B536
331
B6A5
  5
B6B9
331
C2B3
  5
C2BB
331
C27C
  5
C27F
331
B6AD
  5
B6C1
331
C2BB
  5
C2C4
331
C284
  5
C28A
331
C2C3
  5
C2CC
331
C2CB
  5
C2D3
331
C655
  5
C2A0
331
C294
  5
C29C
331
C29C
  5
C2A4
331
B865
  5
B868
331
C2D3
  5
C654
331
C2A4
  5
C2AC
331
C2AC
  5
C2B4
331
C2B4
  5
C2BC
331
B6A6
  5
B6BA
331
B537
  5
B537
331
C275
  5
C278
331
C2BC
  5
C2C5
331
B6AE
  5
B6C2
331
C27D
  5
C280
331
C2C4
  5
C2CD
331
C285
  5
C28B
331
C2CC
  5
C2D4
331
C28D
  5
C292
331
C656
  5
C275
331
C2D4
  5
C655
331
C29D
  5
C2A5
331
C2A5
  5
C2AD
331
C2AD
  5
C2B5
331
C276
  5
C279
331
B6A7
  5
B6BB
331
C2B5
  5
C2BD
331
C5BF
  5
C657
  0
XRECORD
  5
C6D6
102
{ACAD_REACTORS
330
C6D5
102
}
330
C6D5
100
AcDbXrecord
280
     1
 70
     1
  0
LAYOUT
  5
22
102
{ACAD_XDICTIONARY
360
C6D9
102
}
102
{ACAD_REACTORS
330
1A
102
}
330
1A
100
AcDbPlotSettings
  1

  2
DocuCentre-II C5400
  4
A4
  6
AM_VIEW1
 40
4.857749938964843
 41
4.942390441894531
 42
4.942413330078125
 43
4.857757568359375
 44
209.9733276367187
 45
297.0106506347656
 46
-5.026481189569267
 47
-5.012982346966055
 48
214.3704939521119
 49
367.5855324241176
140
275.6727856380065
141
407.629191407817
142
1.0
143
1.0
 70
  3748
 72
     1
 73
     1
 74
     1
  7
monochrome.ctb
 75
     0
147
0.9532055446079798
148
0.1219317211093767
149
0.1133954358147093
100
AcDbLayout
  1
Model
 70
     1
 71
     0
 10
0.0
 20
0.0
 11
12.0
 21
9.0
 12
0.0
 22
0.0
 32
0.0
 14
0.0
 24
0.0
 34
0.0
 15
0.0
 25
0.0
 35
0.0
146
0.0
 13
0.0
 23
0.0
 33
0.0
 16
1.0
 26
0.0
 36
0.0
 17
0.0
 27
1.0
 37
0.0
 76
     0
330
1F
331
B0EC
1001
ACAD_PSEXT
1000
DocuCentre-II C5400
1000
FX DocuCentre-II C5400
1000
192.168.2.200
1000

1070
     0
  0
LAYOUT
  5
1E
102
{ACAD_XDICTIONARY
360
C6D7
102
}
102
{ACAD_REACTORS
330
1A
102
}
330
1A
100
AcDbPlotSettings
  1

  2
\\ML370\XEROX
  4
A4
  6

 40
3.174999952316284
 41
3.174999952316284
 42
3.175003051757812
 43
3.17498779296875
 44
209.8674926757813
 45
296.6719970703125
 46
0.0
 47
0.0
 48
0.0
 49
0.0
140
0.0
141
0.0
142
1.0
143
1.0
 70
   688
 72
     1
 73
     1
 74
     5
  7
monochrome.ctb
 75
    16
147
1.0
148
0.0
149
0.0
100
AcDbLayout
  1
ﾚｲｱｳﾄ1
 70
     1
 71
     1
 10
-3.17498779296875
 20
-3.174999952316284
 11
293.4970092773438
 21
206.692492723465
 12
0.0
 22
0.0
 32
0.0
 14
1.000000000000000E+20
 24
1.000000000000000E+20
 34
1.000000000000000E+20
 15
-1.000000000000000E+20
 25
-1.000000000000000E+20
 35
-1.000000000000000E+20
146
0.0
 13
0.0
 23
0.0
 33
0.0
 16
1.0
 26
0.0
 36
0.0
 17
0.0
 27
1.0
 37
0.0
 76
     0
330
1B
  0
LAYOUT
  5
26
102
{ACAD_XDICTIONARY
360
C6DB
102
}
102
{ACAD_REACTORS
330
1A
102
}
330
1A
100
AcDbPlotSettings
  1

  2
\\ML370\XEROX
  4

  6

 40
0.0
 41
0.0
 42
0.0
 43
0.0
 44
0.0
 45
0.0
 46
0.0
 47
0.0
 48
0.0
 49
0.0
140
0.0
141
0.0
142
1.0
143
1.0
 70
   688
 72
     0
 73
     0
 74
     5
  7
monochrome.ctb
 75
    16
147
1.0
148
0.0
149
0.0
100
AcDbLayout
  1
ﾚｲｱｳﾄ2
 70
     1
 71
     2
 10
0.0
 20
0.0
 11
12.0
 21
9.0
 12
0.0
 22
0.0
 32
0.0
 14
0.0
 24
0.0
 34
0.0
 15
0.0
 25
0.0
 35
0.0
146
0.0
 13
0.0
 23
0.0
 33
0.0
 16
1.0
 26
0.0
 36
0.0
 17
0.0
 27
1.0
 37
0.0
 76
     0
330
23
  0
MATERIAL
  5
B0EF
102
{ACAD_XDICTIONARY
360
C6E1
102
}
102
{ACAD_REACTORS
330
A91C
102
}
330
A91C
100
AcDbMaterial
  1
ByBlock
  0
MATERIAL
  5
B0EE
102
{ACAD_XDICTIONARY
360
C6DF
102
}
102
{ACAD_REACTORS
330
A91C
102
}
330
A91C
100
AcDbMaterial
  1
ByLayer
  0
MATERIAL
  5
B0F0
102
{ACAD_XDICTIONARY
360
C6E3
102
}
102
{ACAD_REACTORS
330
A91C
102
}
330
A91C
100
AcDbMaterial
  1
Global
  0
MLINESTYLE
  5
18
102
{ACAD_REACTORS
330
17
102
}
330
17
100
AcDbMlineStyle
  2
STANDARD
 70
     0
  3

 62
   256
 51
90.0
 52
90.0
 71
     2
 49
0.5
 62
   256
  6
BYLAYER
 49
-0.5
 62
   256
  6
BYLAYER
  0
ACDBPLACEHOLDER
  5
F
102
{ACAD_REACTORS
330
E
102
}
330
E
  0
TABLESTYLE
  5
AABA
102
{ACAD_XDICTIONARY
360
C6DD
102
}
102
{ACAD_REACTORS
330
AAB9
102
}
330
AAB9
100
AcDbTableStyle
  3
Standard
 70
     0
 71
     0
 40
1.5
 41
1.5
280
     0
281
     0
  7
STANDARD
140
4.5
170
     2
 62
     0
 63
     7
283
     0
274
    -2
284
     1
 64
     0
275
    -2
285
     1
 65
     0
276
    -2
286
     1
 66
     0
277
    -2
287
     1
 67
     0
278
    -2
288
     1
 68
     0
279
    -2
289
     1
 69
     0
  7
STANDARD
140
6.0
170
     5
 62
     0
 63
     7
283
     0
274
    -2
284
     1
 64
     0
275
    -2
285
     1
 65
     0
276
    -2
286
     1
 66
     0
277
    -2
287
     1
 67
     0
278
    -2
288
     1
 68
     0
279
    -2
289
     1
 69
     0
  7
STANDARD
140
4.5
170
     5
 62
     0
 63
     7
283
     0
274
    -2
284
     1
 64
     0
275
    -2
285
     1
 65
     0
276
    -2
286
     1
 66
     0
277
    -2
287
     1
 67
     0
278
    -2
288
     1
 68
     0
279
    -2
289
     1
 69
     0
  0
VISUALSTYLE
  5
B0F7
102
{ACAD_REACTORS
330
B0F1
102
}
330
B0F1
100
AcDbVisualStyle
  2
2dWireframe
 70
     4
 71
     0
 72
     2
 73
     0
 90
        0
 40
-0.6
 41
-30.0
 62
     5
 63
     7
 74
     1
 91
        4
 64
     7
 65
   257
 75
     1
175
     1
 42
1.0
 92
        0
 66
   257
 43
1.0
 76
     1
 77
     6
 78
     2
 67
     7
 79
     5
170
     0
171
     0
290
     0
174
     0
 93
        1
 44
0.0
173
     0
291
     0
 45
0.0
1001
ACAD
1000
AcDbSavedByObjectVersion
1070
     0
  0
VISUALSTYLE
  5
B0F9
102
{ACAD_REACTORS
330
B0F1
102
}
330
B0F1
100
AcDbVisualStyle
  2
3D Hidden
 70
     6
 71
     1
 72
     2
 73
     2
 90
        0
 40
-0.6
 41
-30.0
 62
     5
 63
     7
 74
     2
 91
        2
 64
     7
 65
   257
 75
     2
175
     1
 42
40.0
 92
        0
 66
   257
 43
1.0
 76
     1
 77
     6
 78
     2
 67
     7
 79
     3
170
     0
171
     0
290
     0
174
     0
 93
        1
 44
0.0
173
     0
291
     0
 45
0.0
1001
ACAD
1000
AcDbSavedByObjectVersion
1070
     0
  0
VISUALSTYLE
  5
B0F8
102
{ACAD_REACTORS
330
B0F1
102
}
330
B0F1
100
AcDbVisualStyle
  2
3dWireframe
 70
     5
 71
     0
 72
     2
 73
     0
 90
        0
 40
-0.6
 41
-30.0
 62
     5
 63
     7
 74
     1
 91
        4
 64
     7
 65
   257
 75
     1
175
     1
 42
1.0
 92
        0
 66
   257
 43
1.0
 76
     1
 77
     6
 78
     2
 67
     7
 79
     5
170
     0
171
     0
290
     0
174
     0
 93
        1
 44
0.0
173
     0
291
     0
 45
0.0
1001
ACAD
1000
AcDbSavedByObjectVersion
1070
     0
  0
VISUALSTYLE
  5
B0F6
102
{ACAD_REACTORS
330
B0F1
102
}
330
B0F1
100
AcDbVisualStyle
  2
Basic
 70
     7
 71
     1
 72
     0
 73
     1
 90
        0
 40
-0.6
 41
-30.0
 62
     5
 63
     7
 74
     0
 91
        4
 64
     7
 65
   257
 75
     1
175
     1
 42
1.0
 92
        8
 66
     7
 43
1.0
 76
     1
 77
     6
 78
     2
 67
     7
 79
     5
170
     0
171
     0
290
     0
174
     0
 93
        1
 44
0.0
173
     0
291
     1
 45
0.0
1001
ACAD
1000
AcDbSavedByObjectVersion
1070
     0
  0
VISUALSTYLE
  5
B0FD
102
{ACAD_REACTORS
330
B0F1
102
}
330
B0F1
100
AcDbVisualStyle
  2
Brighten
 70
    12
 71
     2
 72
     2
 73
     0
 90
        0
 40
-0.6
 41
-30.0
 62
     5
 63
     7
 74
     1
 91
        4
 64
     7
 65
   257
 75
     1
175
     1
 42
1.0
 92
        8
 66
     7
 43
1.0
 76
     1
 77
     6
 78
     2
 67
     7
 79
     5
170
     0
171
     0
290
     0
174
     0
 93
        1
 44
50.0
173
     0
291
     1
 45
0.0
1001
ACAD
1000
AcDbSavedByObjectVersion
1070
     0
  0
VISUALSTYLE
  5
B101
102
{ACAD_REACTORS
330
B0F1
102
}
330
B0F1
100
AcDbVisualStyle
  2
ColorChange
 70
    16
 71
     2
 72
     2
 73
     3
 90
        0
 40
-0.6
 41
-30.0
 62
     5
 63
     8
 74
     1
 91
        4
 64
     7
 65
   257
 75
     1
175
     1
 42
1.0
 92
        8
 66
     8
 43
1.0
 76
     1
 77
     6
 78
     2
 67
     7
 79
     5
170
     0
171
     0
290
     0
174
     0
 93
        1
 44
0.0
173
     0
291
     1
 45
0.0
1001
ACAD
1000
AcDbSavedByObjectVersion
1070
     0
  0
VISUALSTYLE
  5
B0FA
102
{ACAD_REACTORS
330
B0F1
102
}
330
B0F1
100
AcDbVisualStyle
  2
Conceptual
 70
     9
 71
     3
 72
     2
 73
     0
 90
        0
 40
-0.6
 41
-30.0
 62
     5
 63
     7
 74
     2
 91
        2
 64
     7
 65
   257
 75
     1
175
     1
 42
40.0
 92
        8
 66
     7
 43
1.0
 76
     1
 77
     6
 78
     2
 67
     7
 79
     3
170
     0
171
     0
290
     0
174
     0
 93
        1
 44
0.0
173
     0
291
     0
 45
0.0
1001
ACAD
1000
AcDbSavedByObjectVersion
1070
     0
  0
VISUALSTYLE
  5
B0FC
102
{ACAD_REACTORS
330
B0F1
102
}
330
B0F1
100
AcDbVisualStyle
  2
Dim
 70
    11
 71
     2
 72
     2
 73
     0
 90
        0
 40
-0.6
 41
-30.0
 62
     5
 63
     7
 74
     1
 91
        4
 64
     7
 65
   257
 75
     1
175
     1
 42
1.0
 92
        8
 66
     7
 43
1.0
 76
     1
 77
     6
 78
     2
 67
     7
 79
     5
170
     0
171
     0
290
     0
174
     0
 93
        1
 44
-50.0
173
     0
291
     1
 45
0.0
1001
ACAD
1000
AcDbSavedByObjectVersion
1070
     0
  0
VISUALSTYLE
  5
B100
102
{ACAD_REACTORS
330
B0F1
102
}
330
B0F1
100
AcDbVisualStyle
  2
Facepattern
 70
    15
 71
     2
 72
     2
 73
     0
 90
        0
 40
-0.6
 41
-30.0
 62
     5
 63
     7
 74
     1
 91
        4
 64
     7
 65
   257
 75
     1
175
     1
 42
1.0
 92
        8
 66
     7
 43
1.0
 76
     1
 77
     6
 78
     2
 67
     7
 79
     5
170
     0
171
     0
290
     0
174
     0
 93
        1
 44
0.0
173
     0
291
     1
 45
0.0
1001
ACAD
1000
AcDbSavedByObjectVersion
1070
     0
  0
VISUALSTYLE
  5
B0F2
102
{ACAD_REACTORS
330
B0F1
102
}
330
B0F1
100
AcDbVisualStyle
  2
Flat
 70
     0
 71
     2
 72
     1
 73
     1
 90
        2
 40
-0.6
 41
30.0
 62
     5
 63
     7
 74
     0
 91
        4
 64
     7
 65
   257
 75
     1
175
     1
 42
1.0
 92
        8
 66
     7
 43
1.0
 76
     1
 77
     6
 78
     2
 67
     7
 79
     5
170
     0
171
     0
290
     0
174
     0
 93
       13
 44
0.0
173
     0
291
     1
 45
0.0
1001
ACAD
1000
AcDbSavedByObjectVersion
1070
     0
  0
VISUALSTYLE
  5
B0F3
102
{ACAD_REACTORS
330
B0F1
102
}
330
B0F1
100
AcDbVisualStyle
  2
FlatWithEdges
 70
     1
 71
     2
 72
     1
 73
     1
 90
        2
 40
-0.6
 41
30.0
 62
     5
 63
     7
 74
     1
 91
        4
 64
     7
 65
   257
 75
     1
175
     1
 42
1.0
 92
        0
 66
   257
 43
1.0
 76
     1
 77
     6
 78
     2
 67
     7
 79
     5
170
     0
171
     0
290
     0
174
     0
 93
       13
 44
0.0
173
     0
291
     1
 45
0.0
1001
ACAD
1000
AcDbSavedByObjectVersion
1070
     0
  0
VISUALSTYLE
  5
B0F4
102
{ACAD_REACTORS
330
B0F1
102
}
330
B0F1
100
AcDbVisualStyle
  2
Gouraud
 70
     2
 71
     2
 72
     2
 73
     1
 90
        2
 40
-0.6
 41
30.0
 62
     5
 63
     7
 74
     0
 91
        4
 64
     7
 65
   257
 75
     1
175
     1
 42
1.0
 92
        0
 66
     7
 43
1.0
 76
     1
 77
     6
 78
     2
 67
     7
 79
     5
170
     0
171
     0
290
     0
174
     0
 93
       13
 44
0.0
173
     0
291
     1
 45
0.0
1001
ACAD
1000
AcDbSavedByObjectVersion
1070
     0
  0
VISUALSTYLE
  5
B0F5
102
{ACAD_REACTORS
330
B0F1
102
}
330
B0F1
100
AcDbVisualStyle
  2
GouraudWithEdges
 70
     3
 71
     2
 72
     2
 73
     1
 90
        2
 40
-0.6
 41
30.0
 62
     5
 63
     7
 74
     1
 91
        4
 64
     7
 65
   257
 75
     1
175
     1
 42
1.0
 92
        0
 66
   257
 43
1.0
 76
     1
 77
     6
 78
     2
 67
     7
 79
     5
170
     0
171
     0
290
     0
174
     0
 93
       13
 44
0.0
173
     0
291
     1
 45
0.0
1001
ACAD
1000
AcDbSavedByObjectVersion
1070
     0
  0
VISUALSTYLE
  5
B0FF
102
{ACAD_REACTORS
330
B0F1
102
}
330
B0F1
100
AcDbVisualStyle
  2
Linepattern
 70
    14
 71
     2
 72
     2
 73
     0
 90
        0
 40
-0.6
 41
-30.0
 62
     5
 63
     7
 74
     1
 91
        4
 64
     7
 65
   257
 75
     7
175
     7
 42
1.0
 92
        8
 66
     7
 43
1.0
 76
     1
 77
     6
 78
     2
 67
     7
 79
     5
170
     0
171
     0
290
     0
174
     0
 93
        1
 44
0.0
173
     0
291
     1
 45
0.0
1001
ACAD
1000
AcDbSavedByObjectVersion
1070
     0
  0
VISUALSTYLE
  5
B0FB
102
{ACAD_REACTORS
330
B0F1
102
}
330
B0F1
100
AcDbVisualStyle
  2
Realistic
 70
     8
 71
     2
 72
     2
 73
     0
 90
        0
 40
-0.6
 41
-30.0
 62
     5
 63
     7
 74
     1
 91
        0
 64
     7
 65
   257
 75
     1
175
     1
 42
1.0
 92
        8
 66
     8
 43
1.0
 76
     1
 77
     6
 78
     2
 67
     7
 79
     5
170
     0
171
     0
290
     0
174
     0
 93
       13
 44
0.0
173
     0
291
     0
 45
0.0
1001
ACAD
1000
AcDbSavedByObjectVersion
1070
     0
  0
VISUALSTYLE
  5
B0FE
102
{ACAD_REACTORS
330
B0F1
102
}
330
B0F1
100
AcDbVisualStyle
  2
Thicken
 70
    13
 71
     2
 72
     2
 73
     0
 90
        0
 40
-0.6
 41
-30.0
 62
     5
 63
     7
 74
     1
 91
        4
 64
     7
 65
   257
 75
     1
175
     1
 42
1.0
 92
       12
 66
     7
 43
1.0
 76
     1
 77
     6
 78
     2
 67
     7
 79
     5
170
     0
171
     0
290
     0
174
     0
 93
        1
 44
0.0
173
     0
291
     1
 45
0.0
1001
ACAD
1000
AcDbSavedByObjectVersion
1070
     0
  0
DICTIONARYVAR
  5
AAF3
102
{ACAD_REACTORS
330
34
102
}
330
34
100
DictionaryVariables
280
     0
  1
STANDARD
  0
DICTIONARYVAR
  5
A10C
102
{ACAD_REACTORS
330
34
102
}
330
34
100
DictionaryVariables
280
     0
  1
1
  0
DICTIONARYVAR
  5
AB07
102
{ACAD_REACTORS
330
34
102
}
330
34
100
DictionaryVariables
280
     0
  1
4
  0
DICTIONARYVAR
  5
35
102
{ACAD_REACTORS
330
34
102
}
330
34
100
DictionaryVariables
280
     0
  1
0
  0
DICTIONARYVAR
  5
194C
102
{ACAD_REACTORS
330
34
102
}
330
34
100
DictionaryVariables
280
     0
  1
96
  0
DICTIONARY
  5
7E8
102
{ACAD_REACTORS
330
47
102
}
330
47
100
AcDbDictionary
281
     1
  0
DICTIONARY
  5
4C
102
{ACAD_REACTORS
330
47
102
}
330
47
100
AcDbDictionary
281
     1
  0
XRECORD
  5
A929
102
{ACAD_REACTORS
330
47
102
}
330
47
100
AcDbXrecord
280
     1
 90
-1023410169
  0
XRECORD
  5
B332
102
{ACAD_REACTORS
330
B331
102
}
330
B331
100
AcDbXrecord
280
     1
  0
XRECORD
  5
3FB7
102
{ACAD_REACTORS
330
3F96
102
}
330
3F96
100
AcDbXrecord
280
     1
 91
        3
330
0
 90
        8
 62
     7
370
    40
331
16
  1
Color_7
330
0
 90
        0
 62
    14
370
    -3
331
16
  1
Color_14
330
0
 90
        8
 62
     7
370
    20
331
16
  1
Color_7
330
6D1
 90
        0
 62
     7
370
    -3
331
16
  1
Color_7
330
0
 90
        8
 62
     7
370
    50
331
16
  1
Color_7
330
0
 90
        8
 62
     2
370
    35
331
16
  1
Color_2
330
0
 90
        8
 62
     7
370
    -3
331
16
  1
Color_7
330
10
 90
        8
 62
     7
370
    -3
331
16
  1
Color_7
  0
DICTIONARY
  5
C6D9
330
22
100
AcDbDictionary
280
     1
281
     1
  3
ACAD_XREC_ROUNDTRIP
360
C6DA
  0
DICTIONARY
  5
C6D7
330
1E
100
AcDbDictionary
280
     1
281
     1
  3
ACAD_XREC_ROUNDTRIP
360
C6D8
  0
DICTIONARY
  5
C6DB
330
26
100
AcDbDictionary
280
     1
281
     1
  3
ACAD_XREC_ROUNDTRIP
360
C6DC
  0
DICTIONARY
  5
C6E1
330
B0EF
100
AcDbDictionary
280
     1
281
     1
  3
ACAD_XREC_ROUNDTRIP
360
C6E2
  0
DICTIONARY
  5
C6DF
330
B0EE
100
AcDbDictionary
280
     1
281
     1
  3
ACAD_XREC_ROUNDTRIP
360
C6E0
  0
DICTIONARY
  5
C6E3
330
B0F0
100
AcDbDictionary
280
     1
281
     1
  3
ACAD_XREC_ROUNDTRIP
360
C6E4
  0
DICTIONARY
  5
C6DD
330
AABA
100
AcDbDictionary
280
     1
281
     1
  3
ACAD_XREC_ROUNDTRIP
360
C6DE
  0
XRECORD
  5
C6DA
102
{ACAD_REACTORS
330
C6D9
102
}
330
C6D9
100
AcDbXrecord
280
     1
102
SHADEPLOT
 70
     0
102
SHADEPLOTRESLEVEL
 70
     2
102
SHADEPLOTCUSTOMDPI
 70
   200
  0
XRECORD
  5
C6D8
102
{ACAD_REACTORS
330
C6D7
102
}
330
C6D7
100
AcDbXrecord
280
     1
102
SHADEPLOT
 70
     0
102
SHADEPLOTRESLEVEL
 70
     2
102
SHADEPLOTCUSTOMDPI
 70
   300
  0
XRECORD
  5
C6DC
102
{ACAD_REACTORS
330
C6DB
102
}
330
C6DB
100
AcDbXrecord
280
     1
102
SHADEPLOT
 70
     0
102
SHADEPLOTRESLEVEL
 70
     2
102
SHADEPLOTCUSTOMDPI
 70
   300
  0
XRECORD
  5
C6E2
102
{ACAD_REACTORS
330
C6E1
102
}
330
C6E1
100
AcDbXrecord
280
     1
102
MATERIAL
148
0.0
149
0.0
149
0.0
 93
        0
 94
       63
282
     0
 72
     1
 77
     1
171
     1
175
     1
179
     1
273
     0
  0
XRECORD
  5
C6E0
102
{ACAD_REACTORS
330
C6DF
102
}
330
C6DF
100
AcDbXrecord
280
     1
102
MATERIAL
148
0.0
149
0.0
149
0.0
 93
        0
 94
       63
282
     0
 72
     1
 77
     1
171
     1
175
     1
179
     1
273
     0
  0
XRECORD
  5
C6E4
102
{ACAD_REACTORS
330
C6E3
102
}
330
C6E3
100
AcDbXrecord
280
     1
102
MATERIAL
148
0.0
149
0.0
149
0.0
 93
        0
 94
       63
282
     0
 72
     1
 77
     1
171
     1
175
     1
179
     1
273
     0
  0
XRECORD
  5
C6DE
102
{ACAD_REACTORS
330
C6DD
102
}
330
C6DD
100
AcDbXrecord
280
     1
102
ACAD_ROUNDTRIP_PRE2007_TABLESTYLE
 90
        4
 91
        0
  1

 92
        4
 93
        0
  2

 94
        4
 95
        0
  3

  0
ENDSEC
  0
EOF
